  0
SECTION
  2
HEADER
  9
$ACADVER
  1
AC1015
  9
$ACADMAINTVER
 70
     6
  9
$DWGCODEPAGE
  3
ANSI_1252
  9
$INSBASE
 10
0.0
 20
0.0
 30
0.0
  9
$EXTMIN
 10
0.0
 20
0.0
 30
0.0
  9
$EXTMAX
 10
297.0
 20
210.0
 30
0.0
  9
$LIMMIN
 10
0.0
 20
0.0
  9
$LIMMAX
 10
297.0
 20
210.0
  9
$ORTHOMODE
 70
     0
  9
$REGENMODE
 70
     1
  9
$FILLMODE
 70
     1
  9
$QTEXTMODE
 70
     0
  9
$MIRRTEXT
 70
     1
  9
$LTSCALE
 40
1.0
  9
$ATTMODE
 70
     1
  9
$TEXTSIZE
 40
2.0
  9
$TRACEWID
 40
1.0
  9
$TEXTSTYLE
  7
Standard
  9
$CLAYER
  8
0
  9
$CELTYPE
  6
ByLayer
  9
$CECOLOR
 62
   256
  9
$CELTSCALE
 40
1.0
  9
$DISPSILH
 70
     0
  9
$DIMSCALE
 40
1.0
  9
$DIMASZ
 40
3.0
  9
$DIMEXO
 40
0.0
  9
$DIMDLI
 40
3.75
  9
$DIMRND
 40
0.0
  9
$DIMDLE
 40
0.0
  9
$DIMEXE
 40
1.0
  9
$DIMTP
 40
0.0
  9
$DIMTM
 40
0.0
  9
$DIMTXT
 40
2.0
  9
$DIMCEN
 40
2.5
  9
$DIMTSZ
 40
0.0
  9
$DIMTOL
 70
     0
  9
$DIMLIM
 70
     0
  9
$DIMTIH
 70
     1
  9
$DIMTOH
 70
     1
  9
$DIMSE1
 70
     0
  9
$DIMSE2
 70
     0
  9
$DIMTAD
 70
     1
  9
$DIMZIN
 70
     0
  9
$DIMBLK
  1

  9
$DIMASO
 70
     1
  9
$DIMSHO
 70
     1
  9
$DIMPOST
  1

  9
$DIMAPOST
  1

  9
$DIMALT
 70
     0
  9
$DIMALTD
 70
     3
  9
$DIMALTF
 40
0.0393700787
  9
$DIMLFAC
 40
1.0
  9
$DIMTOFL
 70
     1
  9
$DIMTVP
 40
0.0
  9
$DIMTIX
 70
     0
  9
$DIMSOXD
 70
     0
  9
$DIMSAH
 70
     0
  9
$DIMBLK1
  1

  9
$DIMBLK2
  1

  9
$DIMSTYLE
  2
ISO-25
  9
$DIMCLRD
 70
     0
  9
$DIMCLRE
 70
     0
  9
$DIMCLRT
 70
     0
  9
$DIMTFAC
 40
1.0
  9
$DIMGAP
 40
1.524
  9
$DIMJUST
 70
     0
  9
$DIMSD1
 70
     0
  9
$DIMSD2
 70
     0
  9
$DIMTOLJ
 70
     0
  9
$DIMTZIN
 70
     0
  9
$DIMALTZ
 70
     0
  9
$DIMALTTZ
 70
     0
  9
$DIMUPT
 70
     0
  9
$DIMDEC
 70
     2
  9
$DIMTDEC
 70
     3
  9
$DIMALTU
 70
     2
  9
$DIMALTTD
 70
     3
  9
$DIMTXSTY
  7
Standard
  9
$DIMAUNIT
 70
     0
  9
$DIMADEC
 70
     2
  9
$DIMALTRND
 40
0.0
  9
$DIMAZIN
 70
     0
  9
$DIMDSEP
 70
    44
  9
$DIMATFIT
 70
     3
  9
$DIMFRAC
 70
     0
  9
$DIMLDRBLK
  1

  9
$DIMLUNIT
 70
     2
  9
$DIMLWD
 70
    -2
  9
$DIMLWE
 70
    -2
  9
$DIMTMOVE
 70
     0
  9
$LUNITS
 70
     2
  9
$LUPREC
 70
     2
  9
$SKETCHINC
 40
1.0
  9
$FILLETRAD
 40
10.0
  9
$AUNITS
 70
     0
  9
$AUPREC
 70
     2
  9
$MENU
  1
.
  9
$ELEVATION
 40
0.0
  9
$PELEVATION
 40
0.0
  9
$THICKNESS
 40
0.0
  9
$LIMCHECK
 70
     0
  9
$CHAMFERA
 40
0.0
  9
$CHAMFERB
 40
0.0
  9
$CHAMFERC
 40
0.0
  9
$CHAMFERD
 40
0.0
  9
$SKPOLY
 70
     0
  9
$TDCREATE
 40
2457632.66048765
  9
$TDUCREATE
 40
2457632.577154317
  9
$TDUPDATE
 40
2457632.660489421
  9
$TDUUPDATE
 40
2457632.577156088
  9
$TDINDWG
 40
0.0000000116
  9
$TDUSRTIMER
 40
0.0000000116
  9
$USRTIMER
 70
     1
  9
$ANGBASE
 50
0.0
  9
$ANGDIR
 70
     0
  9
$PDMODE
 70
     0
  9
$PDSIZE
 40
-1.0
  9
$PLINEWID
 40
0.0
  9
$SPLFRAME
 70
     0
  9
$SPLINETYPE
 70
     6
  9
$SPLINESEGS
 70
     8
  9
$HANDSEED
  5
294
  9
$SURFTAB1
 70
     6
  9
$SURFTAB2
 70
     6
  9
$SURFTYPE
 70
     6
  9
$SURFU
 70
     6
  9
$SURFV
 70
     6
  9
$UCSBASE
  2

  9
$UCSNAME
  2

  9
$UCSORG
 10
0.0
 20
0.0
 30
0.0
  9
$UCSXDIR
 10
1.0
 20
0.0
 30
0.0
  9
$UCSYDIR
 10
0.0
 20
1.0
 30
0.0
  9
$UCSORTHOREF
  2

  9
$UCSORTHOVIEW
 70
     0
  9
$UCSORGTOP
 10
0.0
 20
0.0
 30
0.0
  9
$UCSORGBOTTOM
 10
0.0
 20
0.0
 30
0.0
  9
$UCSORGLEFT
 10
0.0
 20
0.0
 30
0.0
  9
$UCSORGRIGHT
 10
0.0
 20
0.0
 30
0.0
  9
$UCSORGFRONT
 10
0.0
 20
0.0
 30
0.0
  9
$UCSORGBACK
 10
0.0
 20
0.0
 30
0.0
  9
$PUCSBASE
  2

  9
$PUCSNAME
  2

  9
$PUCSORG
 10
0.0
 20
0.0
 30
0.0
  9
$PUCSXDIR
 10
1.0
 20
0.0
 30
0.0
  9
$PUCSYDIR
 10
0.0
 20
1.0
 30
0.0
  9
$PUCSORTHOREF
  2

  9
$PUCSORTHOVIEW
 70
     0
  9
$PUCSORGTOP
 10
0.0
 20
0.0
 30
0.0
  9
$PUCSORGBOTTOM
 10
0.0
 20
0.0
 30
0.0
  9
$PUCSORGLEFT
 10
0.0
 20
0.0
 30
0.0
  9
$PUCSORGRIGHT
 10
0.0
 20
0.0
 30
0.0
  9
$PUCSORGFRONT
 10
0.0
 20
0.0
 30
0.0
  9
$PUCSORGBACK
 10
0.0
 20
0.0
 30
0.0
  9
$USERI1
 70
     0
  9
$USERI2
 70
     0
  9
$USERI3
 70
     0
  9
$USERI4
 70
     0
  9
$USERI5
 70
     0
  9
$USERR1
 40
0.0
  9
$USERR2
 40
0.0
  9
$USERR3
 40
0.0
  9
$USERR4
 40
0.0
  9
$USERR5
 40
0.0
  9
$WORLDVIEW
 70
     1
  9
$SHADEDGE
 70
     3
  9
$SHADEDIF
 70
    70
  9
$TILEMODE
 70
     1
  9
$MAXACTVP
 70
    64
  9
$PINSBASE
 10
0.0
 20
0.0
 30
0.0
  9
$PLIMCHECK
 70
     0
  9
$PEXTMIN
 10
1.0000000000E+20
 20
1.0000000000E+20
 30
1.0000000000E+20
  9
$PEXTMAX
 10
-1.0000000000E+20
 20
-1.0000000000E+20
 30
-1.0000000000E+20
  9
$PLIMMIN
 10
0.0
 20
0.0
  9
$PLIMMAX
 10
420.0
 20
297.0
  9
$UNITMODE
 70
     0
  9
$VISRETAIN
 70
     1
  9
$PLINEGEN
 70
     0
  9
$PSLTSCALE
 70
     1
  9
$TREEDEPTH
 70
  3020
  9
$CMLSTYLE
  2
Standard
  9
$CMLJUST
 70
     0
  9
$CMLSCALE
 40
20.0
  9
$PROXYGRAPHICS
 70
     1
  9
$MEASUREMENT
 70
     1
  9
$CELWEIGHT
370
    -1
  9
$ENDCAPS
280
     0
  9
$JOINSTYLE
280
     0
  9
$LWDISPLAY
290
     1
  9
$INSUNITS
 70
     4
  9
$HYPERLINKBASE
  1

  9
$STYLESHEET
  1

  9
$XEDIT
290
     1
  9
$CEPSNTYPE
380
     0
  9
$PSTYLEMODE
290
     1
  9
$FINGERPRINTGUID
  2
{037F0512-CE64-4DB3-B7FC-C68B0A3AD07E}
  9
$VERSIONGUID
  2
{FAEB1C32-E019-11D5-929B-00C0DF256EC4}
  9
$EXTNAMES
290
     1
  9
$PSVPSCALE
 40
0.0
  9
$OLESTARTUP
290
     0
  0
ENDSEC
  0
SECTION
  2
CLASSES
  0
CLASS
  1
ACDBDICTIONARYWDFLT
  2
AcDbDictionaryWithDefault
  3
ObjectDBX Classes
 90
        0
280
     0
281
     0
  0
CLASS
  1
VISUALSTYLE
  2
AcDbVisualStyle
  3
ObjectDBX Classes
 90
     4095
280
     0
281
     0
  0
CLASS
  1
MATERIAL
  2
AcDbMaterial
  3
ObjectDBX Classes
 90
     1153
280
     0
281
     0
  0
CLASS
  1
SCALE
  2
AcDbScale
  3
ObjectDBX Classes
 90
     1153
280
     0
281
     0
  0
CLASS
  1
TABLESTYLE
  2
AcDbTableStyle
  3
ObjectDBX Classes
 90
     4095
280
     0
281
     0
  0
CLASS
  1
MLEADERSTYLE
  2
AcDbMLeaderStyle
  3
ACDB_MLEADERSTYLE_CLASS
 90
     4095
280
     0
281
     0
  0
CLASS
  1
SUN
  2
AcDbSun
  3
SCENEOE
 90
     1153
280
     0
281
     0
  0
CLASS
  1
ACDBPLACEHOLDER
  2
AcDbPlaceHolder
  3
ObjectDBX Classes
 90
        0
280
     0
281
     0
  0
CLASS
  1
LAYOUT
  2
AcDbLayout
  3
ObjectDBX Classes
 90
        0
280
     0
281
     0
  0
ENDSEC
  0
SECTION
  2
TABLES
  0
TABLE
  2
VPORT
  5
8
330
0
100
AcDbSymbolTable
 70
     1
  0
VPORT
  5
29
330
8
100
AcDbSymbolTableRecord
100
AcDbViewportTableRecord
  2
*Active
 70
     0
 10
0.0
 20
0.0
 11
1.0
 21
1.0
 12
148.5
 22
105.0
 13
0.0
 23
0.0
 14
10.0
 24
10.0
 15
10.0
 25
10.0
 16
0.0
 26
0.0
 36
1.0
 17
0.0
 27
0.0
 37
0.0
 40
210.0
 41
1.4142857143
 42
50.0
 43
0.0
 44
0.0
 50
0.0
 51
0.0
 71
     0
 72
  2000
 73
     1
 74
     3
 75
     0
 76
     0
 77
     0
 78
     0
281
     0
 65
     1
110
0.0
120
0.0
130
0.0
111
1.0
121
0.0
131
0.0
112
0.0
122
1.0
132
0.0
 79
     0
146
0.0
  0
ENDTAB
  0
TABLE
  2
LTYPE
  5
5
330
0
100
AcDbSymbolTable
 70
     6
  0
LTYPE
  5
14
330
5
100
AcDbSymbolTableRecord
100
AcDbLinetypeTableRecord
  2
ByBlock
 70
     0
  3

 72
    65
 73
     0
 40
0.0
  0
LTYPE
  5
15
330
5
100
AcDbSymbolTableRecord
100
AcDbLinetypeTableRecord
  2
ByLayer
 70
     0
  3

 72
    65
 73
     0
 40
0.0
  0
LTYPE
  5
16
330
5
100
AcDbSymbolTableRecord
100
AcDbLinetypeTableRecord
  2
Continuous
 70
     0
  3
Solid line
 72
    65
 73
     0
 40
0.0
  0
LTYPE
  5
6E
330
5
100
AcDbSymbolTableRecord
100
AcDbLinetypeTableRecord
  2
HIDDEN
 70
     0
  3
Hidden __ __ __ __ __ __ __ __ __ __ __ __ __ __
 72
    65
 73
     2
 40
1.905
 49
1.27
 74
     0
 49
-0.635
 74
     0
  0
LTYPE
  5
6F
330
5
100
AcDbSymbolTableRecord
100
AcDbLinetypeTableRecord
  2
PHANTOM
 70
     0
  3
Phantom ______  __  __  ______  __  __  ______
 72
    65
 73
     6
 40
12.7
 49
6.35
 74
     0
 49
-1.27
 74
     0
 49
1.27
 74
     0
 49
-1.27
 74
     0
 49
1.27
 74
     0
 49
-1.27
 74
     0
  0
LTYPE
  5
70
330
5
100
AcDbSymbolTableRecord
100
AcDbLinetypeTableRecord
  2
CENTER
 70
     0
  3
Center ____ _ ____ _ ____ _ ____ _ ____ _ ____
 72
    65
 73
     4
 40
10.16
 49
6.35
 74
     0
 49
-1.27
 74
     0
 49
1.27
 74
     0
 49
-1.27
 74
     0
  0
LTYPE
  5
71
330
5
100
AcDbSymbolTableRecord
100
AcDbLinetypeTableRecord
  2
CENTERX2
 70
     0
  3
Center (2x) ________  __  ________  __  _____
 72
    65
 73
     4
 40
20.32
 49
12.7
 74
     0
 49
-2.54
 74
     0
 49
2.54
 74
     0
 49
-2.54
 74
     0
  0
LTYPE
  5
72
330
5
100
AcDbSymbolTableRecord
100
AcDbLinetypeTableRecord
  2
DOT2
 70
     0
  3
Dot (.5x) ........................................
 72
    65
 73
     2
 40
0.635
 49
0.0
 74
     0
 49
-0.635
 74
     0
  0
ENDTAB
  0
TABLE
  2
LAYER
  5
2
330
0
100
AcDbSymbolTable
 70
     5
  0
LAYER
  5
10
330
2
100
AcDbSymbolTableRecord
100
AcDbLayerTableRecord
  2
0
 70
     0
 62
     7
  6
Continuous
370
    -3
390
F
  0
LAYER
  5
73
330
2
100
AcDbSymbolTableRecord
100
AcDbLayerTableRecord
  2
FORMAT
 70
     0
 62
     7
  6
Continuous
370
    -3
390
F
  0
LAYER
  5
74
330
2
100
AcDbSymbolTableRecord
100
AcDbLayerTableRecord
  2
VERMASSUNG
 70
     0
 62
     7
  6
Continuous
370
    -3
390
F
  0
LAYER
  5
75
330
2
100
AcDbSymbolTableRecord
100
AcDbLayerTableRecord
  2
KOPF_DÜNN
 70
     0
 62
     7
  6
Continuous
370
    -3
390
F
  0
LAYER
  5
76
330
2
100
AcDbSymbolTableRecord
100
AcDbLayerTableRecord
  2
KOPF_DICK
 70
     0
 62
     7
  6
Continuous
370
    15
390
F
  0
ENDTAB
  0
TABLE
  2
STYLE
  5
3
330
0
100
AcDbSymbolTable
 70
     2
  0
STYLE
  5
11
330
3
100
AcDbSymbolTableRecord
100
AcDbTextStyleTableRecord
  2
Standard
 70
     0
 40
0.0
 41
1.0
 50
0.0
 71
     0
 42
2.0
  3
txt
  4

  0
STYLE
  5
77
330
3
100
AcDbSymbolTableRecord
100
AcDbTextStyleTableRecord
  2
SLDTEXTSTYLE0
 70
     0
 40
0.0
 41
0.7
 50
0.0
 71
     0
 42
2.0
  3
TXT
  4

  0
ENDTAB
  0
TABLE
  2
VIEW
  5
6
330
0
100
AcDbSymbolTable
 70
     0
  0
ENDTAB
  0
TABLE
  2
UCS
  5
7
330
0
100
AcDbSymbolTable
 70
     0
  0
ENDTAB
  0
TABLE
  2
APPID
  5
9
330
0
100
AcDbSymbolTable
 70
     1
  0
APPID
  5
12
330
9
100
AcDbSymbolTableRecord
100
AcDbRegAppTableRecord
  2
ACAD
 70
     0
  0
ENDTAB
  0
TABLE
  2
DIMSTYLE
  5
A
330
0
100
AcDbSymbolTable
 70
     3
100
AcDbDimStyleTable
  0
DIMSTYLE
105
27
330
A
100
AcDbSymbolTableRecord
100
AcDbDimStyleTableRecord
  2
ISO-25
 70
     0
 41
2.5
 42
0.625
 43
3.75
 44
1.25
 73
     0
 74
     0
 77
     1
 78
     8
140
2.5
141
2.5
143
0.0393700787
147
0.625
171
     3
172
     1
178
     0
271
     2
272
     2
274
     3
278
    44
283
     0
284
     8
340
11
  0
DIMSTYLE
105
19D
102
{ACAD_REACTORS
330
19C
330
1A9
330
1B3
330
1BD
330
1C7
102
}
330
A
100
AcDbSymbolTableRecord
100
AcDbDimStyleTableRecord
  2
SLDDIMSTYLE0
 70
     0
 41
3.0
 44
0.0
 45
0.000000001
 73
     0
 74
     0
 77
     1
 78
    12
 79
     3
140
2.0
147
0.5
173
     1
178
     0
271
     2
272
     3
276
     2
284
    12
340
77
  0
DIMSTYLE
105
1D9
330
A
100
AcDbSymbolTableRecord
100
AcDbDimStyleTableRecord
  2
SLDDIMSTYLE1
 70
     0
 41
0.9
 44
0.0
 45
0.000000001
146
0.9
147
0.0
173
     1
178
     0
271
     0
272
     0
276
     2
340
11
341
1DA
343
1DA
344
1DA
  0
ENDTAB
  0
TABLE
  2
BLOCK_RECORD
  5
1
330
0
100
AcDbSymbolTable
 70
    10
  0
BLOCK_RECORD
  5
1F
330
1
100
AcDbSymbolTableRecord
100
AcDbBlockTableRecord
  2
*Model_Space
340
22
  0
BLOCK_RECORD
  5
1B
330
1
100
AcDbSymbolTableRecord
100
AcDbBlockTableRecord
  2
*Paper_Space
340
1E
  0
BLOCK_RECORD
  5
23
330
1
100
AcDbSymbolTableRecord
100
AcDbBlockTableRecord
  2
*Paper_Space0
340
26
  0
BLOCK_RECORD
  5
7D
330
1
100
AcDbSymbolTableRecord
100
AcDbBlockTableRecord
  2
SW_TABLEANNOTATION_0
340
0
102
{BLKREFS
331
98
102
}
  0
BLOCK_RECORD
  5
19E
330
1
100
AcDbSymbolTableRecord
100
AcDbBlockTableRecord
  2
_D
340
0
  0
BLOCK_RECORD
  5
1AA
330
1
100
AcDbSymbolTableRecord
100
AcDbBlockTableRecord
  2
_D_1
340
0
  0
BLOCK_RECORD
  5
1B4
330
1
100
AcDbSymbolTableRecord
100
AcDbBlockTableRecord
  2
_D_2
340
0
  0
BLOCK_RECORD
  5
1BE
330
1
100
AcDbSymbolTableRecord
100
AcDbBlockTableRecord
  2
_D_3
340
0
  0
BLOCK_RECORD
  5
1C8
330
1
100
AcDbSymbolTableRecord
100
AcDbBlockTableRecord
  2
_D_4
340
0
  0
BLOCK_RECORD
  5
1D3
330
1
100
AcDbSymbolTableRecord
100
AcDbBlockTableRecord
  2
SW_NOTE_0
340
0
102
{BLKREFS
331
1D8
102
}
  0
BLOCK_RECORD
  5
1DA
330
1
100
AcDbSymbolTableRecord
100
AcDbBlockTableRecord
  2
_DOT
340
0
  0
BLOCK_RECORD
  5
1E3
330
1
100
AcDbSymbolTableRecord
100
AcDbBlockTableRecord
  2
SW_NOTE_1
340
0
102
{BLKREFS
331
1E8
102
}
  0
ENDTAB
  0
ENDSEC
  0
SECTION
  2
BLOCKS
  0
BLOCK
  5
20
330
1F
100
AcDbEntity
  8
0
100
AcDbBlockBegin
  2
*Model_Space
 70
     0
 10
0.0
 20
0.0
 30
0.0
  3
*Model_Space
  1

  0
ENDBLK
  5
21
330
1F
100
AcDbEntity
  8
0
100
AcDbBlockEnd
  0
BLOCK
  5
1C
330
1B
100
AcDbEntity
 67
     1
  8
0
100
AcDbBlockBegin
  2
*Paper_Space
 70
     0
 10
0.0
 20
0.0
 30
0.0
  3
*Paper_Space
  1

  0
ENDBLK
  5
1D
330
1B
100
AcDbEntity
 67
     1
  8
0
100
AcDbBlockEnd
  0
BLOCK
  5
24
330
23
100
AcDbEntity
  8
0
100
AcDbBlockBegin
  2
*Paper_Space0
 70
     0
 10
0.0
 20
0.0
 30
0.0
  3
*Paper_Space0
  1

  0
ENDBLK
  5
25
330
23
100
AcDbEntity
  8
0
100
AcDbBlockEnd
  0
BLOCK
  5
7E
330
7D
100
AcDbEntity
  8
0
100
AcDbBlockBegin
  2
SW_TABLEANNOTATION_0
 70
     0
 10
0.0
 20
0.0
 30
0.0
  3
SW_TABLEANNOTATION_0
  1

  0
LINE
  5
80
330
7D
100
AcDbEntity
  8
0
  6
Continuous
 62
     0
370
     0
100
AcDbLine
 10
0.0
 20
0.0
 30
0.0
 11
0.0
 21
-10.9613963039
 31
0.0
  0
LINE
  5
81
330
7D
100
AcDbEntity
  8
0
  6
Continuous
 62
     0
370
     0
100
AcDbLine
 10
0.0
 20
-10.9613963039
 30
0.0
 11
125.0044361962
 21
-10.9613963039
 31
0.0
  0
LINE
  5
82
330
7D
100
AcDbEntity
  8
0
  6
Continuous
 62
     0
370
     0
100
AcDbLine
 10
125.0044361962
 20
-10.9613963039
 30
0.0
 11
125.0044361962
 21
0.0
 31
0.0
  0
LINE
  5
83
330
7D
100
AcDbEntity
  8
0
  6
Continuous
 62
     0
370
     0
100
AcDbLine
 10
125.0044361962
 20
0.0
 30
0.0
 11
0.0
 21
0.0
 31
0.0
  0
LINE
  5
84
330
7D
100
AcDbEntity
  8
0
  6
Continuous
 62
     0
370
     0
100
AcDbLine
 10
15.9651052694
 20
-7.3075975359
 30
0.0
 11
15.9651052694
 21
-10.9613963039
 31
0.0
  0
LINE
  5
85
330
7D
100
AcDbEntity
  8
0
  6
Continuous
 62
     0
370
     0
100
AcDbLine
 10
34.1012448998
 20
-7.3075975359
 30
0.0
 11
34.1012448998
 21
-10.9613963039
 31
0.0
  0
LINE
  5
86
330
7D
100
AcDbEntity
  8
0
  6
Continuous
 62
     0
370
     0
100
AcDbLine
 10
92.6586456418
 20
-7.3075975359
 30
0.0
 11
92.6586456418
 21
-10.9613963039
 31
0.0
  0
LINE
  5
87
330
7D
100
AcDbEntity
  8
0
  6
Continuous
 62
     0
370
     0
100
AcDbLine
 10
15.9651052694
 20
0.0
 30
0.0
 11
15.9651052694
 21
-7.3075975359
 31
0.0
  0
LINE
  5
88
330
7D
100
AcDbEntity
  8
0
  6
Continuous
 62
     0
370
     0
100
AcDbLine
 10
34.1012448998
 20
0.0
 30
0.0
 11
34.1012448998
 21
-7.3075975359
 31
0.0
  0
LINE
  5
89
330
7D
100
AcDbEntity
  8
0
  6
Continuous
 62
     0
370
     0
100
AcDbLine
 10
92.6586456418
 20
0.0
 30
0.0
 11
92.6586456418
 21
-7.3075975359
 31
0.0
  0
LINE
  5
8A
330
7D
100
AcDbEntity
  8
0
  6
Continuous
 62
     0
370
     0
100
AcDbLine
 10
0.0
 20
-3.653798768
 30
0.0
 11
125.0044361962
 21
-3.653798768
 31
0.0
  0
LINE
  5
8B
330
7D
100
AcDbEntity
  8
0
  6
Continuous
 62
     0
370
     0
100
AcDbLine
 10
0.0
 20
-7.3075975359
 30
0.0
 11
125.0044361962
 21
-7.3075975359
 31
0.0
  0
MTEXT
  5
8C
330
7D
100
AcDbEntity
  8
0
  6
Continuous
 62
     0
370
     0
100
AcDbMText
 10
5.2825527975
 20
-7.9563615651
 30
0.0
 40
2.0
 41
0.0
 71
     1
 72
     1
  1
POS.
  7
SLDTEXTSTYLE0
 73
     1
 44
1.0
  0
MTEXT
  5
8D
330
7D
100
AcDbEntity
  8
0
  6
Continuous
 62
     0
370
     0
100
AcDbMText
 10
21.1331751904
 20
-7.9563615651
 30
0.0
 40
2.0
 41
0.0
 71
     1
 72
     1
  1
MENGE
  7
SLDTEXTSTYLE0
 73
     1
 44
1.0
  0
MTEXT
  5
8E
330
7D
100
AcDbEntity
  8
0
  6
Continuous
 62
     0
370
     0
100
AcDbMText
 10
56.0799464956
 20
-7.9563615651
 30
0.0
 40
2.0
 41
0.0
 71
     1
 72
     1
  1
Bezeichnung
  7
SLDTEXTSTYLE0
 73
     1
 44
1.0
  0
MTEXT
  5
8F
330
7D
100
AcDbEntity
  8
0
  6
Continuous
 62
     0
370
     0
100
AcDbMText
 10
97.7315420798
 20
-7.9563615651
 30
0.0
 40
2.0
 41
0.0
 71
     1
 72
     1
  1
Zeichnungsnummer
  7
SLDTEXTSTYLE0
 73
     1
 44
1.0
  0
MTEXT
  5
90
330
7D
100
AcDbEntity
  8
0
  6
Continuous
 62
     0
370
     0
100
AcDbMText
 10
7.2825526596
 20
-0.9171773494
 30
0.0
 40
2.0
 41
0.0
 71
     1
 72
     1
  1
2
  7
SLDTEXTSTYLE0
 73
     1
 44
1.0
  0
MTEXT
  5
91
330
7D
100
AcDbEntity
  8
0
  6
Continuous
 62
     0
370
     0
100
AcDbMText
 10
24.5331750608
 20
-0.9171773494
 30
0.0
 40
2.0
 41
0.0
 71
     1
 72
     1
  1
1
  7
SLDTEXTSTYLE0
 73
     1
 44
1.0
  0
MTEXT
  5
92
330
7D
100
AcDbEntity
  8
0
  6
Continuous
 62
     0
370
     0
100
AcDbMText
 10
54.2799467594
 20
-0.9171773494
 30
0.0
 40
2.0
 41
0.0
 71
     1
 72
     1
  1
Klemmschraube
  7
SLDTEXTSTYLE0
 73
     1
 44
1.0
  0
MTEXT
  5
93
330
7D
100
AcDbEntity
  8
0
  6
Continuous
 62
     0
370
     0
100
AcDbMText
 10
99.2315413943
 20
-0.9171773494
 30
0.0
 40
2.0
 41
0.0
 71
     1
 72
     1
  1
MB4-ER1.001.013
  7
SLDTEXTSTYLE0
 73
     1
 44
1.0
  0
MTEXT
  5
94
330
7D
100
AcDbEntity
  8
0
  6
Continuous
 62
     0
370
     0
100
AcDbMText
 10
7.4825526109
 20
-4.5709761174
 30
0.0
 40
2.0
 41
0.0
 71
     1
 72
     1
  1
1
  7
SLDTEXTSTYLE0
 73
     1
 44
1.0
  0
MTEXT
  5
95
330
7D
100
AcDbEntity
  8
0
  6
Continuous
 62
     0
370
     0
100
AcDbMText
 10
24.5331750608
 20
-4.5709761174
 30
0.0
 40
2.0
 41
0.0
 71
     1
 72
     1
  1
1
  7
SLDTEXTSTYLE0
 73
     1
 44
1.0
  0
MTEXT
  5
96
330
7D
100
AcDbEntity
  8
0
  6
Continuous
 62
     0
370
     0
100
AcDbMText
 10
54.2799448967
 20
-4.5709761174
 30
0.0
 40
2.0
 41
0.0
 71
     1
 72
     1
  1
Aufnahme MBM
  7
SLDTEXTSTYLE0
 73
     1
 44
1.0
  0
MTEXT
  5
97
330
7D
100
AcDbEntity
  8
0
  6
Continuous
 62
     0
370
     0
100
AcDbMText
 10
98.5315416521
 20
-4.5709761174
 30
0.0
 40
2.0
 41
0.0
 71
     1
 72
     1
  1
HA6-MB4.K01.050
  7
SLDTEXTSTYLE0
 73
     1
 44
1.0
  0
ENDBLK
  5
7F
330
7D
100
AcDbEntity
  8
0
100
AcDbBlockEnd
  0
BLOCK
  5
19F
330
19E
100
AcDbEntity
  8
0
100
AcDbBlockBegin
  2
_D
 70
     0
 10
0.0
 20
0.0
 30
0.0
  3
_D
  1

  0
SOLID
  5
1A1
330
19E
100
AcDbEntity
  8
VERMASSUNG
100
AcDbTrace
 10
100.759885729
 20
143.5040493686
 30
0.0
 11
100.309885729
 21
140.5040493686
 31
0.0
 12
101.209885729
 22
140.5040493686
 32
0.0
 13
101.209885729
 23
140.5040493686
 33
0.0
  0
SOLID
  5
1A2
330
19E
100
AcDbEntity
  8
VERMASSUNG
100
AcDbTrace
 10
100.759885729
 20
80.5040493686
 30
0.0
 11
101.209885729
 21
83.5040493686
 31
0.0
 12
100.309885729
 22
83.5040493686
 32
0.0
 13
100.309885729
 23
83.5040493686
 33
0.0
  0
LINE
  5
1A3
330
19E
100
AcDbEntity
  8
VERMASSUNG
100
AcDbLine
 10
138.5381663347
 20
143.5040493686
 30
0.0
 11
99.759885729
 21
143.5040493686
 31
0.0
  0
LINE
  5
1A4
330
19E
100
AcDbEntity
  8
VERMASSUNG
100
AcDbLine
 10
138.5381663347
 20
80.5040493686
 30
0.0
 11
99.759885729
 21
80.5040493686
 31
0.0
  0
LINE
  5
1A5
330
19E
100
AcDbEntity
  8
VERMASSUNG
100
AcDbLine
 10
100.759885729
 20
143.5040493686
 30
0.0
 11
100.759885729
 21
80.5040493686
 31
0.0
  0
MTEXT
  5
1A6
330
19E
100
AcDbEntity
  8
VERMASSUNG
100
AcDbMText
 10
97.9817504728
 20
103.6322641425
 30
0.0
 40
2.0
 41
0.0
 71
     1
 72
     1
  1
HSK A
  7
SLDTEXTSTYLE0
 11
-7.044195017643634E-15
 21
1.0
 31
0.0
 73
     1
 44
1.0
  0
MTEXT
  5
1A7
330
19E
100
AcDbEntity
  8
VERMASSUNG
100
AcDbMText
 10
98.1817504241
 20
112.6322637551
 30
0.0
 40
2.0
 41
0.0
 71
     1
 72
     1
  1
%%c
  7
SLDTEXTSTYLE0
 11
-7.044195017643634E-15
 21
1.0
 31
0.0
 73
     1
 44
1.0
  0
MTEXT
  5
1A8
330
19E
100
AcDbEntity
  8
VERMASSUNG
100
AcDbMText
 10
98.181750133
 20
116.2416070879
 30
0.0
 40
2.0
 41
0.0
 71
     1
 72
     1
  1
63
  7
SLDTEXTSTYLE0
 11
-7.044195017643634E-15
 21
1.0
 31
0.0
 73
     1
 44
1.0
  0
ENDBLK
  5
1A0
330
19E
100
AcDbEntity
  8
0
100
AcDbBlockEnd
  0
BLOCK
  5
1AB
330
1AA
100
AcDbEntity
  8
0
100
AcDbBlockBegin
  2
_D_1
 70
     0
 10
0.0
 20
0.0
 30
0.0
  3
_D_1
  1

  0
SOLID
  5
1AD
330
1AA
100
AcDbEntity
  8
VERMASSUNG
100
AcDbTrace
 10
188.2381663347
 20
153.2044745871
 30
0.0
 11
185.2381663347
 21
153.6544745871
 31
0.0
 12
185.2381663347
 22
152.7544745871
 32
0.0
 13
185.2381663347
 23
152.7544745871
 33
0.0
  0
SOLID
  5
1AE
330
1AA
100
AcDbEntity
  8
VERMASSUNG
100
AcDbTrace
 10
138.2381663347
 20
153.2044745871
 30
0.0
 11
141.2381663347
 21
152.7544745871
 31
0.0
 12
141.2381663347
 22
153.6544745871
 32
0.0
 13
141.2381663347
 23
153.6544745871
 33
0.0
  0
LINE
  5
1AF
330
1AA
100
AcDbEntity
  8
VERMASSUNG
100
AcDbLine
 10
188.2381663347
 20
132.6040493686
 30
0.0
 11
188.2381663347
 21
154.2044745871
 31
0.0
  0
LINE
  5
1B0
330
1AA
100
AcDbEntity
  8
VERMASSUNG
100
AcDbLine
 10
138.2381663347
 20
143.2040493686
 30
0.0
 11
138.2381663347
 21
154.2044745871
 31
0.0
  0
LINE
  5
1B1
330
1AA
100
AcDbEntity
  8
VERMASSUNG
100
AcDbLine
 10
188.2381663347
 20
153.2044745871
 30
0.0
 11
138.2381663347
 21
153.2044745871
 31
0.0
  0
MTEXT
  5
1B2
330
1AA
100
AcDbEntity
  8
VERMASSUNG
100
AcDbMText
 10
161.8384763244
 20
155.7826101831
 30
0.0
 40
2.0
 41
0.0
 71
     1
 72
     1
  1
50
  7
SLDTEXTSTYLE0
 73
     1
 44
1.0
  0
ENDBLK
  5
1AC
330
1AA
100
AcDbEntity
  8
0
100
AcDbBlockEnd
  0
BLOCK
  5
1B5
330
1B4
100
AcDbEntity
  8
0
100
AcDbBlockBegin
  2
_D_2
 70
     0
 10
0.0
 20
0.0
 30
0.0
  3
_D_2
  1

  0
SOLID
  5
1B7
330
1B4
100
AcDbEntity
  8
VERMASSUNG
100
AcDbTrace
 10
188.2381663347
 20
147.2044745871
 30
0.0
 11
185.2381663347
 21
147.6544745871
 31
0.0
 12
185.2381663347
 22
146.7544745871
 32
0.0
 13
185.2381663347
 23
146.7544745871
 33
0.0
  0
SOLID
  5
1B8
330
1B4
100
AcDbEntity
  8
VERMASSUNG
100
AcDbTrace
 10
164.1881663347
 20
147.2044745871
 30
0.0
 11
167.1881663347
 21
146.7544745871
 31
0.0
 12
167.1881663347
 22
147.6544745871
 32
0.0
 13
167.1881663347
 23
147.6544745871
 33
0.0
  0
LINE
  5
1B9
330
1B4
100
AcDbEntity
  8
VERMASSUNG
100
AcDbLine
 10
188.2381663347
 20
132.6040493686
 30
0.0
 11
188.2381663347
 21
148.2044745871
 31
0.0
  0
LINE
  5
1BA
330
1B4
100
AcDbEntity
  8
VERMASSUNG
100
AcDbLine
 10
164.1881663347
 20
141.8504896924
 30
0.0
 11
164.1881663347
 21
148.2044745871
 31
0.0
  0
LINE
  5
1BB
330
1B4
100
AcDbEntity
  8
VERMASSUNG
100
AcDbLine
 10
188.2381663347
 20
147.2044745871
 30
0.0
 11
164.1881663347
 21
147.2044745871
 31
0.0
  0
MTEXT
  5
1BC
330
1B4
100
AcDbEntity
  8
VERMASSUNG
100
AcDbMText
 10
173.013402174
 20
149.7826101831
 30
0.0
 40
2.0
 41
0.0
 71
     1
 72
     1
  1
24.05
  7
SLDTEXTSTYLE0
 73
     1
 44
1.0
  0
ENDBLK
  5
1B6
330
1B4
100
AcDbEntity
  8
0
100
AcDbBlockEnd
  0
BLOCK
  5
1BF
330
1BE
100
AcDbEntity
  8
0
100
AcDbBlockBegin
  2
_D_3
 70
     0
 10
0.0
 20
0.0
 30
0.0
  3
_D_3
  1

  0
SOLID
  5
1C1
330
1BE
100
AcDbEntity
  8
VERMASSUNG
100
AcDbTrace
 10
188.2381663347
 20
159.2044745871
 30
0.0
 11
185.2381663347
 21
159.6544745871
 31
0.0
 12
185.2381663347
 22
158.7544745871
 32
0.0
 13
185.2381663347
 23
158.7544745871
 33
0.0
  0
SOLID
  5
1C2
330
1BE
100
AcDbEntity
  8
VERMASSUNG
100
AcDbTrace
 10
106.3381663347
 20
159.2044745871
 30
0.0
 11
109.3381663347
 21
158.7544745871
 31
0.0
 12
109.3381663347
 22
159.6544745871
 32
0.0
 13
109.3381663347
 23
159.6544745871
 33
0.0
  0
LINE
  5
1C3
330
1BE
100
AcDbEntity
  8
VERMASSUNG
100
AcDbLine
 10
188.2381663347
 20
132.6040493686
 30
0.0
 11
188.2381663347
 21
160.2044745871
 31
0.0
  0
LINE
  5
1C4
330
1BE
100
AcDbEntity
  8
VERMASSUNG
100
AcDbLine
 10
106.3381663347
 20
131.6947271151
 30
0.0
 11
106.3381663347
 21
160.2044745871
 31
0.0
  0
LINE
  5
1C5
330
1BE
100
AcDbEntity
  8
VERMASSUNG
100
AcDbLine
 10
188.2381663347
 20
159.2044745871
 30
0.0
 11
106.3381663347
 21
159.2044745871
 31
0.0
  0
MTEXT
  5
1C6
330
1BE
100
AcDbEntity
  8
VERMASSUNG
100
AcDbMText
 10
145.0888110309
 20
161.7826101831
 30
0.0
 40
2.0
 41
0.0
 71
     1
 72
     1
  1
81.9
  7
SLDTEXTSTYLE0
 73
     1
 44
1.0
  0
ENDBLK
  5
1C0
330
1BE
100
AcDbEntity
  8
0
100
AcDbBlockEnd
  0
BLOCK
  5
1C9
330
1C8
100
AcDbEntity
  8
0
100
AcDbBlockBegin
  2
_D_4
 70
     0
 10
0.0
 20
0.0
 30
0.0
  3
_D_4
  1

  0
SOLID
  5
1CB
330
1C8
100
AcDbEntity
  8
VERMASSUNG
100
AcDbTrace
 10
196.940374185
 20
133.0040493686
 30
0.0
 11
196.490374185
 21
130.0040493686
 31
0.0
 12
197.390374185
 22
130.0040493686
 32
0.0
 13
197.390374185
 23
130.0040493686
 33
0.0
  0
SOLID
  5
1CC
330
1C8
100
AcDbEntity
  8
VERMASSUNG
100
AcDbTrace
 10
196.940374185
 20
91.0040493686
 30
0.0
 11
197.390374185
 21
94.0040493686
 31
0.0
 12
196.490374185
 22
94.0040493686
 32
0.0
 13
196.490374185
 23
94.0040493686
 33
0.0
  0
LINE
  5
1CD
330
1C8
100
AcDbEntity
  8
VERMASSUNG
100
AcDbLine
 10
187.8381663347
 20
133.0040493686
 30
0.0
 11
197.940374185
 21
133.0040493686
 31
0.0
  0
LINE
  5
1CE
330
1C8
100
AcDbEntity
  8
VERMASSUNG
100
AcDbLine
 10
187.8381663347
 20
91.0040493686
 30
0.0
 11
197.940374185
 21
91.0040493686
 31
0.0
  0
LINE
  5
1CF
330
1C8
100
AcDbEntity
  8
VERMASSUNG
100
AcDbLine
 10
196.940374185
 20
133.0040493686
 30
0.0
 11
196.940374185
 21
91.0040493686
 31
0.0
  0
MTEXT
  5
1D0
330
1C8
100
AcDbEntity
  8
VERMASSUNG
100
AcDbMText
 10
194.1622389288
 20
105.4990498949
 30
0.0
 40
2.0
 41
0.0
 71
     1
 72
     1
  1
MBM
  7
SLDTEXTSTYLE0
 11
-7.044195017643634E-15
 21
1.0
 31
0.0
 73
     1
 44
1.0
  0
MTEXT
  5
1D1
330
1C8
100
AcDbEntity
  8
VERMASSUNG
100
AcDbMText
 10
194.3622388801
 20
111.8990497333
 30
0.0
 40
2.0
 41
0.0
 71
     1
 72
     1
  1
%%c
  7
SLDTEXTSTYLE0
 11
-7.044195017643634E-15
 21
1.0
 31
0.0
 73
     1
 44
1.0
  0
MTEXT
  5
1D2
330
1C8
100
AcDbEntity
  8
VERMASSUNG
100
AcDbMText
 10
194.1622389288
 20
115.5090502132
 30
0.0
 40
2.0
 41
0.0
 71
     1
 72
     1
  1
42
  7
SLDTEXTSTYLE0
 11
-7.044195017643634E-15
 21
1.0
 31
0.0
 73
     1
 44
1.0
  0
ENDBLK
  5
1CA
330
1C8
100
AcDbEntity
  8
0
100
AcDbBlockEnd
  0
BLOCK
  5
1D4
330
1D3
100
AcDbEntity
  8
0
100
AcDbBlockBegin
  2
SW_NOTE_0
 70
     0
 10
0.0
 20
0.0
 30
0.0
  3
SW_NOTE_0
  1

  0
CIRCLE
  5
1D6
330
1D3
100
AcDbEntity
  8
VERMASSUNG
 62
     0
100
AcDbCircle
 10
0.0
 20
-2.5028270988
 30
0.0
 40
2.502827098762126
  0
MTEXT
  5
1D7
330
1D3
100
AcDbEntity
  8
VERMASSUNG
 62
     0
100
AcDbMText
 10
-0.0000000237
 20
-1.8101961014
 30
0.0
 40
2.0
 41
0.0
 71
     2
 72
     1
  1
1
  7
SLDTEXTSTYLE0
 73
     1
 44
1.0
  0
ENDBLK
  5
1D5
330
1D3
100
AcDbEntity
  8
0
100
AcDbBlockEnd
  0
BLOCK
  5
1DB
330
1DA
100
AcDbEntity
  8
0
100
AcDbBlockBegin
  2
_DOT
 70
     0
 10
0.0
 20
0.0
 30
0.0
  3
_DOT
  1

  0
POLYLINE
  5
1DD
330
1DA
100
AcDbEntity
  8
0
  6
ByBlock
 62
     0
100
AcDb2dPolyline
 66
     1
 10
0.0
 20
0.0
 30
0.0
 70
     1
 40
0.5
 41
0.5
  0
VERTEX
  5
1DF
330
1DD
100
AcDbEntity
  8
0
  6
ByBlock
 62
     0
100
AcDbVertex
100
AcDb2dVertex
 10
-0.25
 20
0.0
 30
0.0
 42
1.0
  0
VERTEX
  5
1E0
330
1DD
100
AcDbEntity
  8
0
  6
ByBlock
 62
     0
100
AcDbVertex
100
AcDb2dVertex
 10
0.25
 20
0.0
 30
0.0
 42
1.0
  0
SEQEND
  5
1E1
330
1DD
100
AcDbEntity
  8
0
  6
ByBlock
 62
     0
  0
LINE
  5
1DE
330
1DA
100
AcDbEntity
  8
0
  6
ByBlock
 62
     0
370
    -2
100
AcDbLine
 10
-0.5
 20
0.0
 30
0.0
 11
-1.0
 21
0.0
 31
0.0
  0
ENDBLK
  5
1DC
330
1DA
100
AcDbEntity
  8
0
100
AcDbBlockEnd
  0
BLOCK
  5
1E4
330
1E3
100
AcDbEntity
  8
0
100
AcDbBlockBegin
  2
SW_NOTE_1
 70
     0
 10
0.0
 20
0.0
 30
0.0
  3
SW_NOTE_1
  1

  0
CIRCLE
  5
1E6
330
1E3
100
AcDbEntity
  8
VERMASSUNG
 62
     0
100
AcDbCircle
 10
0.0
 20
-2.5028270988
 30
0.0
 40
2.50282709876212
  0
MTEXT
  5
1E7
330
1E3
100
AcDbEntity
  8
VERMASSUNG
 62
     0
100
AcDbMText
 10
-0.012499975
 20
-1.8101961014
 30
0.0
 40
2.0
 41
0.0
 71
     2
 72
     1
  1
2
  7
SLDTEXTSTYLE0
 73
     1
 44
1.0
  0
ENDBLK
  5
1E5
330
1E3
100
AcDbEntity
  8
0
100
AcDbBlockEnd
  0
ENDSEC
  0
SECTION
  2
ENTITIES
  0
MTEXT
  5
78
330
1F
100
AcDbEntity
  8
KOPF_DÜNN
100
AcDbMText
 10
13.8892156294
 20
23.8442973028
 30
0.0
 40
3.0
 41
0.0
 71
     1
 72
     1
  1
102.063.421
  7
SLDTEXTSTYLE0
 73
     1
 44
1.0
  0
MTEXT
  5
79
330
1F
100
AcDbEntity
  8
VERMASSUNG
100
AcDbMText
 10
13.9329988022
 20
28.8834360957
 30
0.0
 40
3.0
 41
0.0
 71
     1
 72
     1
  1
Aufnahme
  7
SLDTEXTSTYLE0
 73
     1
 44
1.0
  0
MTEXT
  5
7A
330
1F
100
AcDbEntity
  8
VERMASSUNG
100
AcDbMText
 10
98.8601118557
 20
13.8365368761
 30
0.0
 40
2.0
 41
0.0
 71
     1
 72
     1
  1
Datum: 08.12.2006
  7
SLDTEXTSTYLE0
 73
     1
 44
1.0
  0
MTEXT
  5
7B
330
1F
100
AcDbEntity
  8
VERMASSUNG
100
AcDbMText
 10
13.933048693
 20
18.0482802738
 30
0.0
 40
2.0
 41
0.0
 71
     1
 72
     1
  1
HSK-A63 / MBM ø42
  7
SLDTEXTSTYLE0
 73
     1
 44
1.0
  0
MTEXT
  5
7C
330
1F
100
AcDbEntity
  8
VERMASSUNG
100
AcDbMText
 10
13.9808475933
 20
13.9090974274
 30
0.0
 40
2.0
 41
0.0
 71
     1
 72
     1
  1
Gewicht: 803g
  7
SLDTEXTSTYLE0
 73
     1
 44
1.0
  0
INSERT
  5
98
330
1F
100
AcDbEntity
  8
0
  6
Continuous
 62
     7
370
     0
100
AcDbBlockReference
  2
SW_TABLEANNOTATION_0
 10
155.4069348624
 20
22.9491325334
 30
0.0
  0
LINE
  5
99
330
1F
100
AcDbEntity
  8
0
  6
Continuous
 62
     7
370
    15
100
AcDbLine
 10
138.5381663347
 20
80.5040493686
 30
0.0
 11
143.1881663347
 21
80.5040493686
 31
0.0
  0
LINE
  5
9A
330
1F
100
AcDbEntity
  8
0
  6
Continuous
 62
     7
370
    15
100
AcDbLine
 10
143.2161546938
 20
143.5040493686
 30
0.0
 11
138.5381663347
 21
143.5040493686
 31
0.0
  0
ARC
  5
9B
330
1F
100
AcDbEntity
  8
0
  6
Continuous
 62
     7
370
    15
100
AcDbCircle
 10
138.5381663347
 20
80.8040493686
 30
0.0
 40
0.3000000000000114
100
AcDbArc
 50
180.0
 51
270.0
  0
ARC
  5
9C
330
1F
100
AcDbEntity
  8
0
  6
Continuous
 62
     7
370
    15
100
AcDbCircle
 10
138.5381663347
 20
143.2040493686
 30
0.0
 40
0.3000000000000114
100
AcDbArc
 50
90.0
 51
180.0
  0
ARC
  5
9D
330
1F
100
AcDbEntity
  8
0
  6
Continuous
 62
     7
370
    15
100
AcDbCircle
 10
168.1881663347
 20
87.0040493686
 30
0.0
 40
4.0
100
AcDbArc
 50
90.0
 51
180.0
  0
ARC
  5
9E
330
1F
100
AcDbEntity
  8
0
  6
Continuous
 62
     7
370
    15
100
AcDbCircle
 10
168.1881663347
 20
137.0040493686
 30
0.0
 40
4.0
100
AcDbArc
 50
180.0
 51
270.0
  0
ARC
  5
9F
330
1F
100
AcDbEntity
  8
0
  6
Continuous
 62
     7
370
    15
100
AcDbCircle
 10
137.738159582
 20
87.4336117542
 30
0.0
 40
0.6000067526677124
100
AcDbArc
 50
33.5571153394
 51
90.0
  0
ARC
  5
A0
330
1F
100
AcDbEntity
  8
0
  6
Continuous
 62
     7
370
    15
100
AcDbCircle
 10
137.738159582
 20
136.574486983
 30
0.0
 40
0.6000067526677242
100
AcDbArc
 50
270.0
 51
326.4428846606
  0
LINE
  5
A1
330
1F
100
AcDbEntity
  8
0
  6
Continuous
 62
     7
370
    15
100
AcDbLine
 10
136.2381663347
 20
87.7836185069
 30
0.0
 11
137.0948791081
 21
88.0131740027
 31
0.0
  0
LINE
  5
A2
330
1F
100
AcDbEntity
  8
0
  6
Continuous
 62
     7
370
    15
100
AcDbLine
 10
137.0948791081
 20
135.9949247346
 30
0.0
 11
136.2381663347
 21
136.2244802303
 31
0.0
  0
LINE
  5
A3
330
1F
100
AcDbEntity
  8
0
  6
Continuous
 62
     7
370
    15
100
AcDbLine
 10
125.0066575359
 20
135.6617793887
 30
0.0
 11
112.4381663347
 21
135.0320954608
 31
0.0
  0
LINE
  5
A4
330
1F
100
AcDbEntity
  8
0
  6
Continuous
 62
     7
370
    15
100
AcDbLine
 10
136.2381663347
 20
136.2244802303
 30
0.0
 11
133.4211646773
 21
136.0833478828
 31
0.0
  0
LINE
  5
A5
330
1F
100
AcDbEntity
  8
0
  6
Continuous
 62
     7
370
    15
100
AcDbLine
 10
133.4212207674
 20
87.9247480443
 30
0.0
 11
136.2381663347
 21
87.7836185069
 31
0.0
  0
LINE
  5
A6
330
1F
100
AcDbEntity
  8
0
  6
Continuous
 62
     7
370
    15
100
AcDbLine
 10
116.4381663347
 20
88.7756024748
 30
0.0
 11
125.0070600545
 21
88.3462991823
 31
0.0
  0
ARC
  5
A7
330
1F
100
AcDbEntity
  8
0
  6
Continuous
 62
     7
370
    15
100
AcDbCircle
 10
137.2501705351
 20
87.4336185069
 30
0.0
 40
0.6000000000000085
100
AcDbArc
 50
90.0
 51
105.0
  0
ARC
  5
A8
330
1F
100
AcDbEntity
  8
0
  6
Continuous
 62
     7
370
    15
100
AcDbCircle
 10
137.2501705351
 20
136.5744802303
 30
0.0
 40
0.5999999999999943
100
AcDbArc
 50
255.0
 51
270.0
  0
LINE
  5
A9
330
1F
100
AcDbEntity
  8
0
  6
Continuous
 62
     7
370
    15
100
AcDbLine
 10
137.2501705351
 20
88.0336185069
 30
0.0
 11
137.738159582
 21
88.0336185069
 31
0.0
  0
LINE
  5
AA
330
1F
100
AcDbEntity
  8
0
  6
Continuous
 62
     7
370
    15
100
AcDbLine
 10
137.738159582
 20
135.9744802303
 30
0.0
 11
137.2501705351
 21
135.9744802303
 31
0.0
  0
LINE
  5
AB
330
1F
100
AcDbEntity
  8
0
  6
Continuous
 62
     7
370
    15
100
AcDbLine
 10
168.1881663347
 20
91.0040493686
 30
0.0
 11
187.8381663347
 21
91.0040493686
 31
0.0
  0
LINE
  5
AC
330
1F
100
AcDbEntity
  8
0
  6
Continuous
 62
     7
370
    15
100
AcDbLine
 10
187.8381663347
 20
133.0040493686
 30
0.0
 11
168.1881663347
 21
133.0040493686
 31
0.0
  0
LINE
  5
AD
330
1F
100
AcDbEntity
  8
0
  6
Continuous
 62
     7
370
    15
100
AcDbLine
 10
187.8381663347
 20
91.0040493686
 30
0.0
 11
188.2381663347
 21
91.4040493686
 31
0.0
  0
LINE
  5
AE
330
1F
100
AcDbEntity
  8
0
  6
Continuous
 62
     7
370
    15
100
AcDbLine
 10
188.2381663347
 20
132.6040493686
 30
0.0
 11
187.8381663347
 21
133.0040493686
 31
0.0
  0
LINE
  5
AF
330
1F
100
AcDbEntity
  8
0
  6
Continuous
 62
     7
370
    15
100
AcDbLine
 10
107.6215029747
 20
91.1340493686
 30
0.0
 11
115.0381663347
 21
91.1340493686
 31
0.0
  0
ARC
  5
B0
330
1F
100
AcDbEntity
  8
0
  6
Continuous
 62
     7
370
    15
100
AcDbCircle
 10
115.0381663347
 20
89.7340493686
 30
0.0
 40
1.399999999999991
100
AcDbArc
 50
42.2465410162
 51
90.0
  0
LINE
  5
B1
330
1F
100
AcDbEntity
  8
0
  6
Continuous
 62
     7
370
    15
100
AcDbLine
 10
106.3391988288
 20
92.2830168745
 30
0.0
 11
107.4793297929
 21
91.1428859104
 31
0.0
  0
LINE
  5
B2
330
1F
100
AcDbEntity
  8
0
  6
Continuous
 62
     7
370
    15
100
AcDbLine
 10
107.4793297929
 20
132.8652128268
 30
0.0
 11
106.3480671081
 21
131.733950142
 31
0.0
  0
ARC
  5
B3
330
1F
100
AcDbEntity
  8
0
  6
Continuous
 62
     7
370
    15
100
AcDbCircle
 10
111.0381663347
 20
134.2740493686
 30
0.0
 40
1.400000000000008
100
AcDbArc
 50
270.0
 51
301.7485287426
  0
LINE
  5
B4
330
1F
100
AcDbEntity
  8
0
  6
Continuous
 62
     7
370
    15
100
AcDbLine
 10
111.0381663347
 20
132.8740493686
 30
0.0
 11
107.6124320686
 21
132.8740493686
 31
0.0
  0
SPLINE
  5
B5
330
1F
100
AcDbEntity
  8
0
  6
Continuous
 62
     7
370
    15
100
AcDbSpline
210
0.0
220
0.0
230
1.0
 70
    24
 71
     3
 72
    13
 73
     9
 74
     0
 42
0.000000001
 43
0.00000001
 40
0.0
 40
0.0
 40
0.0
 40
0.0
 40
0.1333078910201577
 40
0.3081793907436461
 40
0.4826178978901862
 40
0.649209971362385
 40
0.8161279311171349
 40
0.9999999999999999
 40
0.9999999999999999
 40
0.9999999999999999
 40
0.9999999999999999
 10
174.932538571969
 20
115.3847337200837
 30
0.0
 10
175.0711600156123
 20
115.3412904749206
 30
0.0
 10
175.3916232058938
 20
115.2408589646491
 30
0.0
 10
175.9237167750984
 20
115.0741035856177
 30
0.0
 10
176.5157620575924
 20
114.8885596489871
 30
0.0
 10
177.1014134935496
 20
114.7050195108695
 30
0.0
 10
177.6797297615787
 20
114.5237781765317
 30
0.0
 10
178.0460818292972
 20
114.408965328854
 30
0.0
 10
178.2381109838674
 20
114.3487843826658
 30
0.0
  0
SPLINE
  5
B6
330
1F
100
AcDbEntity
  8
0
  6
Continuous
 62
     7
370
    15
100
AcDbSpline
210
0.0
220
0.0
230
1.0
 70
    24
 71
     3
 72
    11
 73
     7
 74
     0
 42
0.000000001
 43
0.00000001
 40
0.0
 40
0.0
 40
0.0
 40
0.0
 40
0.2164553779443422
 40
0.4403112895790481
 40
0.7519005688038587
 40
1.0
 40
1.0
 40
1.0
 40
1.0
 10
172.3825939227823
 20
113.0399987060396
 30
0.0
 10
172.5572676019189
 20
113.2006153263392
 30
0.0
 10
172.9125869922087
 20
113.5273399930284
 30
0.0
 10
173.571964880665
 20
114.1336537116588
 30
0.0
 10
174.2792659445788
 20
114.7840339348366
 30
0.0
 10
174.7318961523526
 20
115.2002382226119
 30
0.0
 10
174.932538571969
 20
115.3847337200837
 30
0.0
  0
SPLINE
  5
B7
330
1F
100
AcDbEntity
  8
0
  6
Continuous
 62
     7
370
    15
100
AcDbSpline
210
0.0
220
0.0
230
1.0
 70
    24
 71
     3
 72
    11
 73
     7
 74
     0
 42
0.000000001
 43
0.00000001
 40
0.0
 40
0.0
 40
0.0
 40
0.0
 40
0.2164553779443437
 40
0.440311289579053
 40
0.7519005688038625
 40
1.0
 40
1.0
 40
1.0
 40
1.0
 10
173.1382216854939
 20
109.6593143545777
 30
0.0
 10
173.0864604516127
 20
109.8908945082323
 30
0.0
 10
172.9811682853618
 20
110.3619724600251
 30
0.0
 10
172.7857741465931
 20
111.2361673214372
 30
0.0
 10
172.576178883159
 20
112.1738981224992
 30
0.0
 10
172.4420505006685
 20
112.7739895248392
 30
0.0
 10
172.3825939227823
 20
113.0399987060396
 30
0.0
  0
SPLINE
  5
B8
330
1F
100
AcDbEntity
  8
0
  6
Continuous
 62
     7
370
    15
100
AcDbSpline
210
0.0
220
0.0
230
1.0
 70
    24
 71
     3
 72
    13
 73
     9
 74
     0
 42
0.000000001
 43
0.00000001
 40
0.0
 40
0.0
 40
0.0
 40
0.0
 40
0.1838720688828611
 40
0.3507900286376139
 40
0.517382102109814
 40
0.6918206092563545
 40
0.8666921089798414
 40
1.0
 40
1.0
 40
1.0
 40
1.0
 10
176.4437940973923
 20
108.6233650171599
 30
0.0
 10
176.2517649428221
 20
108.6835459633481
 30
0.0
 10
175.8854128751036
 20
108.7983588110257
 30
0.0
 10
175.3070966070744
 20
108.9796001453636
 30
0.0
 10
174.7214451711174
 20
109.1631402834812
 30
0.0
 10
174.1293998886233
 20
109.3486842201118
 30
0.0
 10
173.5973063194187
 20
109.5154395991432
 30
0.0
 10
173.2768431291373
 20
109.6158711094147
 30
0.0
 10
173.1382216854939
 20
109.6593143545777
 30
0.0
  0
SPLINE
  5
B9
330
1F
100
AcDbEntity
  8
0
  6
Continuous
 62
     7
370
    15
100
AcDbSpline
210
0.0
220
0.0
230
1.0
 70
    24
 71
     3
 72
    11
 73
     7
 74
     0
 42
0.000000001
 43
0.00000001
 40
0.0
 40
0.0
 40
0.0
 40
0.0
 40
0.2164553779443424
 40
0.440311289579051
 40
0.751900568803864
 40
1.0
 40
1.0
 40
1.0
 40
1.0
 10
178.2381109838674
 20
114.3487843826658
 30
0.0
 10
178.2898722177485
 20
114.1172042290112
 30
0.0
 10
178.3951643839994
 20
113.6461262772184
 30
0.0
 10
178.5905585227682
 20
112.7719314158063
 30
0.0
 10
178.8001537862023
 20
111.8342006147443
 30
0.0
 10
178.9342821686928
 20
111.2341092124044
 30
0.0
 10
178.993738746579
 20
110.9681000312039
 30
0.0
  0
CIRCLE
  5
BA
330
1F
100
AcDbEntity
  8
0
  6
Continuous
 62
     7
370
    15
100
AcDbCircle
 10
175.6881663347
 20
112.0040493686
 30
0.0
 40
3.500000000000003
  0
SPLINE
  5
BB
330
1F
100
AcDbEntity
  8
0
  6
Continuous
 62
     7
370
    15
100
AcDbSpline
210
0.0
220
0.0
230
1.0
 70
    24
 71
     3
 72
    11
 73
     7
 74
     0
 42
0.000000001
 43
0.00000001
 40
0.0
 40
0.0
 40
0.0
 40
0.0
 40
0.2164553779443428
 40
0.4403112895790551
 40
0.7519005688038671
 40
0.9999999999999999
 40
0.9999999999999999
 40
0.9999999999999999
 40
0.9999999999999999
 10
178.993738746579
 20
110.9681000312039
 30
0.0
 10
178.8190650674424
 20
110.8074834109043
 30
0.0
 10
178.4637456771526
 20
110.4807587442151
 30
0.0
 10
177.8043677886962
 20
109.8744450255848
 30
0.0
 10
177.0970667247825
 20
109.2240648024069
 30
0.0
 10
176.6444365170087
 20
108.8078605146316
 30
0.0
 10
176.4437940973923
 20
108.6233650171599
 30
0.0
  0
CIRCLE
  5
BC
330
1F
100
AcDbEntity
  8
0
  6
Continuous
 62
     7
370
    15
100
AcDbCircle
 10
175.6881663347
 20
112.0040493686
 30
0.0
 40
5.499999999999992
  0
CIRCLE
  5
BD
330
1F
100
AcDbEntity
  8
0
  6
Continuous
 62
     7
370
    15
100
AcDbCircle
 10
175.6881663347
 20
112.0040493686
 30
0.0
 40
5.999999999999996
  0
ARC
  5
BE
330
1F
100
AcDbEntity
  8
0
  6
Continuous
 62
     7
370
    15
100
AcDbCircle
 10
175.6881663347
 20
112.0040493686
 30
0.0
 40
3.000000000000012
100
AcDbArc
 50
12.5992781481
 51
72.5992781481
  0
ARC
  5
BF
330
1F
100
AcDbEntity
  8
0
  6
Continuous
 62
     7
370
    15
100
AcDbCircle
 10
175.6881663347
 20
112.0040493686
 30
0.0
 40
3.000000000000013
100
AcDbArc
 50
132.5992781481
 51
192.5992781481
  0
ARC
  5
C0
330
1F
100
AcDbEntity
  8
0
  6
Continuous
 62
     7
370
    15
100
AcDbCircle
 10
175.6881663347
 20
112.0040493686
 30
0.0
 40
3.000000000000009
100
AcDbArc
 50
252.5992781481
 51
312.5992781481
  0
ARC
  5
C1
330
1F
100
AcDbEntity
  8
0
  6
Continuous
 62
     7
370
    15
100
AcDbCircle
 10
175.6881663347
 20
112.0040493686
 30
0.0
 40
3.000000000000012
100
AcDbArc
 50
72.5992781481
 51
132.5992781481
  0
ARC
  5
C2
330
1F
100
AcDbEntity
  8
0
  6
Continuous
 62
     7
370
    15
100
AcDbCircle
 10
175.6881663347
 20
112.0040493686
 30
0.0
 40
3.000000000000009
100
AcDbArc
 50
312.5992781481
 51
12.5992781481
  0
ARC
  5
C3
330
1F
100
AcDbEntity
  8
0
  6
Continuous
 62
     7
370
    15
100
AcDbCircle
 10
175.6881663347
 20
112.0040493686
 30
0.0
 40
3.000000000000013
100
AcDbArc
 50
192.5992781481
 51
252.5992781481
  0
LINE
  5
C4
330
1F
100
AcDbEntity
  8
0
  6
Continuous
 62
     7
370
    15
100
AcDbLine
 10
143.1881663347
 20
131.8540493686
 30
0.0
 11
152.8462335032
 21
131.8540493686
 31
0.0
  0
LINE
  5
C5
330
1F
100
AcDbEntity
  8
0
  6
Continuous
 62
     7
370
    15
100
AcDbLine
 10
152.8462335032
 20
81.8171316724
 30
0.0
 11
152.8462335032
 21
131.8540493686
 31
0.0
  0
LINE
  5
C6
330
1F
100
AcDbEntity
  8
0
  6
Continuous
 62
     7
370
    15
100
AcDbLine
 10
152.8462335032
 20
81.8171316724
 30
0.0
 11
151.1881663347
 21
81.8171316724
 31
0.0
  0
SPLINE
  5
C7
330
1F
100
AcDbEntity
  8
0
  6
Continuous
 62
     7
370
    15
100
AcDbSpline
210
0.0
220
0.0
230
1.0
 70
     8
 71
     3
 72
    28
 73
    24
 74
     0
 42
0.000000001
 43
0.00000001
 40
0.0
 40
0.0
 40
0.0
 40
0.0
 40
0.1249999999999999
 40
0.1249999999999999
 40
0.1874999999999998
 40
0.1874999999999998
 40
0.2499999999999997
 40
0.2499999999999997
 40
0.3749999999999993
 40
0.3749999999999993
 40
0.4374999999999993
 40
0.4374999999999993
 40
0.4999999999999992
 40
0.4999999999999992
 40
0.6249999999999992
 40
0.6249999999999992
 40
0.7499999999999992
 40
0.7499999999999992
 40
0.8124999999999993
 40
0.8124999999999993
 40
0.8749999999999996
 40
0.8749999999999996
 40
1.0
 40
1.0
 40
1.0
 40
1.0
 10
151.1881663346806
 20
81.8171316723746
 30
0.0
 10
150.6564585771877
 20
81.8171316723746
 30
0.0
 10
150.1342200118773
 20
81.80134695842439
 30
0.0
 10
149.3643495256023
 20
81.75635154434818
 30
0.0
 10
149.109989953411
 20
81.73779654927246
 30
0.0
 10
148.6058683727125
 20
81.69394382682596
 30
0.0
 10
148.3561455552846
 20
81.66859921987376
 30
0.0
 10
147.6305556038382
 20
81.58519714212365
 30
0.0
 10
147.1721953422567
 20
81.51933158297255
 30
0.0
 10
146.5216973988628
 20
81.41036124248077
 30
0.0
 10
146.3100153480703
 20
81.37212160671412
 30
0.0
 10
145.9059438589323
 20
81.29436286929477
 30
0.0
 10
145.7134373451114
 20
81.25486190711942
 30
0.0
 10
145.1636023740901
 20
81.13595416475341
 30
0.0
 10
144.8336735957813
 20
81.0561364833288
 30
0.0
 10
144.2492023272127
 20
80.90279332153274
 30
0.0
 10
144.0029251891992
 20
80.83145956826348
 30
0.0
 10
143.7030823965011
 20
80.73751606118887
 30
0.0
 10
143.614625539429
 20
80.70832226782895
 30
0.0
 10
143.4612641861239
 20
80.65485569356554
 30
0.0
 10
143.3961759718976
 20
80.63049635929035
 30
0.0
 10
143.2405819559568
 20
80.56690621384561
 30
0.0
 10
143.1881663346806
 20
80.53680327875637
 30
0.0
 10
143.1881663346806
 20
80.51992638575945
 30
0.0
  0
LINE
  5
C8
330
1F
100
AcDbEntity
  8
0
  6
Continuous
 62
     7
370
    15
100
AcDbLine
 10
143.1881663347
 20
80.5199263858
 30
0.0
 11
143.1881663347
 21
80.5040493686
 31
0.0
  0
SPLINE
  5
C9
330
1F
100
AcDbEntity
  8
0
  6
Continuous
 62
     7
370
    15
100
AcDbSpline
210
0.0
220
0.0
230
1.0
 70
     8
 71
     3
 72
    17
 73
    13
 74
     0
 42
0.000000001
 43
0.00000001
 40
0.0
 40
0.0
 40
0.0
 40
0.0
 40
0.1034796923964057
 40
0.210023918880785
 40
0.3134862136955584
 40
0.4198361274354883
 40
0.5254127712915682
 40
0.6339610695419791
 40
0.7409508756305032
 40
0.8511696089308174
 40
0.9558996534551938
 40
0.9999999999999999
 40
0.9999999999999999
 40
0.9999999999999999
 40
0.9999999999999999
 10
151.1881663346806
 20
142.471244841786
 30
0.0
 10
150.7529179855706
 20
142.4766930383193
 30
0.0
 10
149.8695314790056
 20
142.4877507788312
 30
0.0
 10
148.588703893777
 20
142.5741091717327
 30
0.0
 10
147.3712873579029
 20
142.7019793482705
 30
0.0
 10
146.2634815056564
 20
142.8609246468637
 30
0.0
 10
145.2752427017081
 20
143.0354183345792
 30
0.0
 10
144.4505191441766
 20
143.2045841852191
 30
0.0
 10
143.8015656435173
 20
143.3524679677475
 30
0.0
 10
143.3845308280556
 20
143.4542585519782
 30
0.0
 10
143.1859341150911
 20
143.5046100745814
 30
0.0
 10
143.2092468365244
 20
143.4987043903591
 30
0.0
 10
143.2161546937619
 20
143.4969544606645
 30
0.0
  0
LINE
  5
CA
330
1F
100
AcDbEntity
  8
0
  6
Continuous
 62
     7
370
    15
100
AcDbLine
 10
152.8462335032
 20
142.4712448418
 30
0.0
 11
151.1881663347
 21
142.4712448418
 31
0.0
  0
LINE
  5
CB
330
1F
100
AcDbEntity
  8
0
  6
Continuous
 62
     7
370
    15
100
AcDbLine
 10
152.8462335032
 20
136.462739031
 30
0.0
 11
152.8462335032
 21
142.4712448418
 31
0.0
  0
LINE
  5
CC
330
1F
100
AcDbEntity
  8
0
  6
Continuous
 62
     7
370
    15
100
AcDbLine
 10
150.4337866804
 20
136.462739031
 30
0.0
 11
152.8462335032
 21
136.462739031
 31
0.0
  0
SPLINE
  5
CD
330
1F
100
AcDbEntity
  8
0
  6
Continuous
 62
     7
370
    15
100
AcDbSpline
210
0.0
220
0.0
230
1.0
 70
     8
 71
     3
 72
    20
 73
    16
 74
     0
 42
0.000000001
 43
0.00000001
 40
0.0
 40
0.0
 40
0.0
 40
0.0
 40
0.2499999999999995
 40
0.2499999999999995
 40
0.3749999999999996
 40
0.3749999999999996
 40
0.4999999999999997
 40
0.4999999999999997
 40
0.6249999999999998
 40
0.6249999999999998
 40
0.7499999999999998
 40
0.7499999999999998
 40
0.8749999999999999
 40
0.8749999999999999
 40
1.0
 40
1.0
 40
1.0
 40
1.0
 10
143.1881663346806
 20
131.8540493686218
 30
0.0
 10
143.4365400689687
 20
132.5079117969192
 30
0.0
 10
143.756110161314
 20
133.1116975789163
 30
0.0
 10
144.3784163945186
 20
133.9385363150849
 30
0.0
 10
144.6098406549494
 20
134.2009649530378
 30
0.0
 10
145.1310549945991
 20
134.6976276071428
 30
0.0
 10
145.4176754772342
 20
134.9282144861643
 30
0.0
 10
146.0371602185418
 20
135.344768710747
 30
0.0
 10
146.3714605980287
 20
135.5322665127145
 30
0.0
 10
147.0967210706535
 20
135.8636634903509
 30
0.0
 10
147.478636128044
 20
136.0031674778461
 30
0.0
 10
148.2734243042157
 20
136.2286209853171
 30
0.0
 10
148.6875824984221
 20
136.3152470968607
 30
0.0
 10
149.5531288390034
 20
136.4332278857149
 30
0.0
 10
149.9910164540153
 20
136.4627390309892
 30
0.0
 10
150.4337866803699
 20
136.4627390309892
 30
0.0
  0
LINE
  5
CE
330
1F
100
AcDbEntity
  8
0
  6
Continuous
 62
     7
370
    15
100
AcDbLine
 10
163.5881663347
 20
81.8171316724
 30
0.0
 11
159.6300991662
 21
81.8171316724
 31
0.0
  0
LINE
  5
CF
330
1F
100
AcDbEntity
  8
0
  6
Continuous
 62
     7
370
    15
100
AcDbLine
 10
159.6300991662
 20
81.8171316724
 30
0.0
 11
159.6300991662
 21
131.8540493686
 31
0.0
  0
LINE
  5
D0
330
1F
100
AcDbEntity
  8
0
  6
Continuous
 62
     7
370
    15
100
AcDbLine
 10
159.6300991662
 20
131.8540493686
 30
0.0
 11
163.5881663347
 21
131.8540493686
 31
0.0
  0
LINE
  5
D1
330
1F
100
AcDbEntity
  8
0
  6
Continuous
 62
     7
370
    15
100
AcDbLine
 10
138.2381663347
 20
80.8040493686
 30
0.0
 11
138.2381663347
 21
143.2040493649
 31
0.0
  0
LINE
  5
D2
330
1F
100
AcDbEntity
  8
0
  6
Continuous
 62
     7
370
    15
100
AcDbLine
 10
154.3281663347
 20
84.5062122096
 30
0.0
 11
154.3281663347
 21
131.8540493686
 31
0.0
  0
SPLINE
  5
D3
330
1F
100
AcDbEntity
  8
0
  6
Continuous
 62
     7
370
    15
100
AcDbSpline
210
0.0
220
0.0
230
1.0
 70
     8
 71
     3
 72
     8
 73
     4
 74
     0
 42
0.000000001
 43
0.00000001
 40
0.0
 40
0.0
 40
0.0
 40
0.0
 40
1.0
 40
1.0
 40
1.0
 40
1.0
 10
154.3281663346806
 20
84.5062122095669
 30
0.0
 10
153.8358272118994
 20
83.6089421753602
 30
0.0
 10
153.3417131638573
 20
82.71265776030795
 30
0.0
 10
152.8462335031916
 20
81.8171316723746
 30
0.0
  0
SPLINE
  5
D4
330
1F
100
AcDbEntity
  8
0
  6
Continuous
 62
     7
370
    15
100
AcDbSpline
210
0.0
220
0.0
230
1.0
 70
    24
 71
     3
 72
     8
 73
     4
 74
     0
 42
0.000000001
 43
0.00000001
 40
0.0
 40
0.0
 40
0.0
 40
0.0
 40
1.0
 40
1.0
 40
1.0
 40
1.0
 10
152.8462335031916
 20
131.8540493686218
 30
0.0
 10
153.3529136113421
 20
131.8540493686218
 30
0.0
 10
153.8482143403157
 20
131.8540493686218
 30
0.0
 10
154.3281663346806
 20
131.8540493686218
 30
0.0
  0
SPLINE
  5
D5
330
1F
100
AcDbEntity
  8
0
  6
Continuous
 62
     7
370
    15
100
AcDbSpline
210
0.0
220
0.0
230
1.0
 70
     8
 71
     3
 72
     8
 73
     4
 74
     0
 42
0.000000001
 43
0.00000001
 40
0.0
 40
0.0
 40
0.0
 40
0.0
 40
1.0
 40
1.0
 40
1.0
 40
1.0
 10
159.6300991661697
 20
81.8171316723746
 30
0.0
 10
159.134619505504
 20
82.71265776030796
 30
0.0
 10
158.6405054574618
 20
83.60894217536021
 30
0.0
 10
158.1481663346806
 20
84.50621220956691
 30
0.0
  0
LINE
  5
D6
330
1F
100
AcDbEntity
  8
0
  6
Continuous
 62
     7
370
    15
100
AcDbLine
 10
158.1481663347
 20
84.5062122096
 30
0.0
 11
158.1481663347
 21
131.8540493686
 31
0.0
  0
SPLINE
  5
D7
330
1F
100
AcDbEntity
  8
0
  6
Continuous
 62
     7
370
    15
100
AcDbSpline
210
0.0
220
0.0
230
1.0
 70
    24
 71
     3
 72
     8
 73
     4
 74
     0
 42
0.000000001
 43
0.00000001
 40
0.0
 40
0.0
 40
0.0
 40
0.0
 40
1.0
 40
1.0
 40
1.0
 40
1.0
 10
158.1481663346806
 20
131.8540493686218
 30
0.0
 10
158.6281183290455
 20
131.8540493686218
 30
0.0
 10
159.1234190580192
 20
131.8540493686218
 30
0.0
 10
159.6300991661697
 20
131.8540493686218
 30
0.0
  0
LINE
  5
D8
330
1F
100
AcDbEntity
  8
0
  6
Continuous
 62
     7
370
    15
100
AcDbLine
 10
164.1881663347
 20
82.443771968
 30
0.0
 11
164.1881663347
 21
131.8540493686
 31
0.0
  0
SPLINE
  5
D9
330
1F
100
AcDbEntity
  8
0
  6
Continuous
 62
     7
370
    15
100
AcDbSpline
210
0.0
220
0.0
230
1.0
 70
     8
 71
     3
 72
    10
 73
     6
 74
     0
 42
0.000000001
 43
0.00000001
 40
0.0
 40
0.0
 40
0.0
 40
0.0
 40
0.5
 40
0.5
 40
1.0
 40
1.0
 40
1.0
 40
1.0
 10
164.1881663346806
 20
82.44377196802893
 30
0.0
 10
164.1881663346806
 20
82.28388469983526
 30
0.0
 10
164.1268566834448
 20
82.12275744432065
 30
0.0
 10
163.9077570459097
 20
81.88865844596582
 30
0.0
 10
163.7497088395962
 20
81.8171316723746
 30
0.0
 10
163.5881663346806
 20
81.8171316723746
 30
0.0
  0
SPLINE
  5
DA
330
1F
100
AcDbEntity
  8
0
  6
Continuous
 62
     7
370
    15
100
AcDbSpline
210
0.0
220
0.0
230
1.0
 70
    24
 71
     3
 72
    12
 73
     8
 74
     0
 42
0.000000001
 43
0.00000001
 40
0.0
 40
0.0
 40
0.0
 40
0.0
 40
0.250000000000002
 40
0.250000000000002
 40
0.500000000000004
 40
0.500000000000004
 40
1.0
 40
1.0
 40
1.0
 40
1.0
 10
163.5881663346806
 20
131.8540493686218
 30
0.0
 10
163.6784054023677
 20
131.8540493686218
 30
0.0
 10
163.7693035164742
 20
131.8540493686218
 30
0.0
 10
163.9239005529627
 20
131.8540493686218
 30
0.0
 10
163.9888789690708
 20
131.8540493686218
 30
0.0
 10
164.1407139970071
 20
131.8540493686218
 30
0.0
 10
164.1881663346806
 20
131.8540493686218
 30
0.0
 10
164.1881663346806
 20
131.8540493686218
 30
0.0
  0
SPLINE
  5
DB
330
1F
100
AcDbEntity
  8
0
  6
Continuous
 62
     7
370
    15
100
AcDbSpline
210
0.0
220
0.0
230
1.0
 70
    24
 71
     3
 72
    14
 73
    10
 74
     0
 42
0.000000001
 43
0.00000001
 40
0.0
 40
0.0
 40
0.0
 40
0.0
 40
0.4999999999999984
 40
0.4999999999999984
 40
0.7499999999999992
 40
0.7499999999999992
 40
0.8749999999999996
 40
0.8749999999999996
 40
1.0
 40
1.0
 40
1.0
 40
1.0
 10
158.0504915323484
 20
85.60404936862176
 30
0.0
 10
158.0037068273001
 20
85.60404936862177
 30
0.0
 10
157.9416556305205
 20
85.60404936862177
 30
0.0
 10
157.7982639919699
 20
85.60404936862176
 30
0.0
 10
157.7421203384187
 20
85.60404936862176
 30
0.0
 10
157.6291693162826
 20
85.60404936862177
 30
0.0
 10
157.5861685542444
 20
85.60404936862177
 30
0.0
 10
157.482105843938
 20
85.60404936862176
 30
0.0
 10
157.416773605581
 20
85.60404936862179
 30
0.0
 10
157.3481663346806
 20
85.60404936862176
 30
0.0
  0
SPLINE
  5
DC
330
1F
100
AcDbEntity
  8
0
  6
Continuous
 62
     7
370
    15
100
AcDbSpline
210
0.0
220
0.0
230
1.0
 70
    24
 71
     3
 72
    12
 73
     8
 74
     0
 42
0.000000001
 43
0.00000001
 40
0.0
 40
0.0
 40
0.0
 40
0.0
 40
0.5000000000000017
 40
0.5000000000000017
 40
0.7500000000000008
 40
0.7500000000000008
 40
1.0
 40
1.0
 40
1.0
 40
1.0
 10
157.7538688029896
 20
138.4040493686218
 30
0.0
 10
157.7107832533787
 20
138.4040493686218
 30
0.0
 10
157.6616310516294
 20
138.4040493686218
 30
0.0
 10
157.5651584573415
 20
138.4040493686218
 30
0.0
 10
157.5290568722069
 20
138.4040493686218
 30
0.0
 10
157.4459511143456
 20
138.4040493686218
 30
0.0
 10
157.3979545173793
 20
138.4040493686218
 30
0.0
 10
157.3481663346806
 20
138.4040493686218
 30
0.0
  0
SPLINE
  5
DD
330
1F
100
AcDbEntity
  8
0
  6
Continuous
 62
     7
370
    15
100
AcDbSpline
210
0.0
220
0.0
230
1.0
 70
     8
 71
     3
 72
    10
 73
     6
 74
     0
 42
0.000000001
 43
0.00000001
 40
0.0
 40
0.0
 40
0.0
 40
0.0
 40
0.5
 40
0.5
 40
1.0
 40
1.0
 40
1.0
 40
1.0
 10
158.1481663346806
 20
139.1237032196576
 30
0.0
 10
158.1481663346806
 20
138.9799331618395
 30
0.0
 10
158.1121172759617
 20
138.8375137993444
 30
0.0
 10
157.9766084151877
 20
138.5876195059871
 30
0.0
 10
157.8767324220915
 20
138.479589169739
 30
0.0
 10
157.7538688029896
 20
138.4040493686217
 30
0.0
  0
SPLINE
  5
DE
330
1F
100
AcDbEntity
  8
0
  6
Continuous
 62
     7
370
    15
100
AcDbSpline
210
0.0
220
0.0
230
1.0
 70
     8
 71
     3
 72
    10
 73
     6
 74
     0
 42
0.000000001
 43
0.00000001
 40
0.0
 40
0.0
 40
0.0
 40
0.0
 40
0.5
 40
0.5
 40
1.0
 40
1.0
 40
1.0
 40
1.0
 10
158.1220187115205
 20
131.8540493686218
 30
0.0
 10
158.1307083544322
 20
131.9009282179399
 30
0.0
 10
158.1372474191826
 20
131.9483506833412
 30
0.0
 10
158.1460060535757
 20
132.0442874819279
 30
0.0
 10
158.1481663346806
 20
132.0922027699384
 30
0.0
 10
158.1481663346806
 20
132.139916000083
 30
0.0
  0
SPLINE
  5
DF
330
1F
100
AcDbEntity
  8
0
  6
Continuous
 62
     7
370
    15
100
AcDbSpline
210
0.0
220
0.0
230
1.0
 70
     8
 71
     3
 72
    10
 73
     6
 74
     0
 42
0.000000001
 43
0.00000001
 40
0.0
 40
0.0
 40
0.0
 40
0.0
 40
0.5
 40
0.5
 40
1.0
 40
1.0
 40
1.0
 40
1.0
 10
154.7224638663716
 20
138.4040493686218
 30
0.0
 10
154.6009236027031
 20
138.4787755358335
 30
0.0
 10
154.4995892423541
 20
138.5877205517503
 30
0.0
 10
154.3639502994657
 20
138.8381510325119
 30
0.0
 10
154.3281663346806
 20
138.9805703946109
 30
0.0
 10
154.3281663346806
 20
139.1237032196576
 30
0.0
  0
SPLINE
  5
E0
330
1F
100
AcDbEntity
  8
0
  6
Continuous
 62
     7
370
    15
100
AcDbSpline
210
0.0
220
0.0
230
1.0
 70
    24
 71
     3
 72
    12
 73
     8
 74
     0
 42
0.000000001
 43
0.00000001
 40
0.0
 40
0.0
 40
0.0
 40
0.0
 40
0.2499999999999992
 40
0.2499999999999992
 40
0.4999999999999983
 40
0.4999999999999983
 40
1.0
 40
1.0
 40
1.0
 40
1.0
 10
155.1281663346806
 20
138.4040493686218
 30
0.0
 10
155.0782896523633
 20
138.4040493686218
 30
0.0
 10
155.0302864589595
 20
138.4040493686218
 30
0.0
 10
154.9472383562476
 20
138.4040493686218
 30
0.0
 10
154.9111087767797
 20
138.4040493686218
 30
0.0
 10
154.8151967458356
 20
138.4040493686218
 30
0.0
 10
154.7654380778667
 20
138.4040493686218
 30
0.0
 10
154.7224638663716
 20
138.4040493686218
 30
0.0
  0
SPLINE
  5
E1
330
1F
100
AcDbEntity
  8
0
  6
Continuous
 62
     7
370
    15
100
AcDbSpline
210
0.0
220
0.0
230
1.0
 70
    24
 71
     3
 72
    14
 73
    10
 74
     0
 42
0.000000001
 43
0.00000001
 40
0.0
 40
0.0
 40
0.0
 40
0.0
 40
0.1250000000000012
 40
0.1250000000000012
 40
0.2500000000000024
 40
0.2500000000000024
 40
0.5000000000000013
 40
0.5000000000000013
 40
1.0
 40
1.0
 40
1.0
 40
1.0
 10
155.1281663346806
 20
85.60404936862176
 30
0.0
 10
155.0597284867942
 20
85.60404936862176
 30
0.0
 10
154.9941784480291
 20
85.60404936862176
 30
0.0
 10
154.8897518086211
 20
85.60404936862177
 30
0.0
 10
154.8472071988598
 20
85.60404936862176
 30
0.0
 10
154.7345977383195
 20
85.60404936862176
 30
0.0
 10
154.6790586913
 20
85.60404936862176
 30
0.0
 10
154.5364469958362
 20
85.60404936862176
 30
0.0
 10
154.4730416408404
 20
85.60404936862176
 30
0.0
 10
154.4258411370129
 20
85.60404936862176
 30
0.0
  0
SPLINE
  5
E2
330
1F
100
AcDbEntity
  8
0
  6
Continuous
 62
     7
370
    15
100
AcDbSpline
210
0.0
220
0.0
230
1.0
 70
     8
 71
     3
 72
    10
 73
     6
 74
     0
 42
0.000000001
 43
0.00000001
 40
0.0
 40
0.0
 40
0.0
 40
0.0
 40
0.5
 40
0.5
 40
1.0
 40
1.0
 40
1.0
 40
1.0
 10
154.3281663346806
 20
132.1399160000832
 30
0.0
 10
154.3281663346806
 20
132.0921444920898
 30
0.0
 10
154.3303275782778
 20
132.0444347700282
 30
0.0
 10
154.338998952138
 20
131.9491396524799
 30
0.0
 10
154.3455281350939
 20
131.9014470885133
 30
0.0
 10
154.3543139578407
 20
131.8540493686218
 30
0.0
  0
LINE
  5
E3
330
1F
100
AcDbEntity
  8
0
  6
Continuous
 62
     7
370
    15
100
AcDbLine
 10
157.3481663347
 20
138.4040493686
 30
0.0
 11
155.1281663347
 21
138.4040493686
 31
0.0
  0
LINE
  5
E4
330
1F
100
AcDbEntity
  8
0
  6
Continuous
 62
     7
370
    15
100
AcDbLine
 10
157.3481663347
 20
85.6040493686
 30
0.0
 11
155.1281663347
 21
85.6040493686
 31
0.0
  0
LINE
  5
E5
330
1F
100
AcDbEntity
  8
0
  6
Continuous
 62
     7
370
    15
100
AcDbLine
 10
136.2381663347
 20
87.7836185069
 30
0.0
 11
136.2381663347
 21
136.2244802303
 31
0.0
  0
LINE
  5
E6
330
1F
100
AcDbEntity
  8
0
  6
Continuous
 62
     7
370
    15
100
AcDbLine
 10
116.4381663347
 20
88.7756024748
 30
0.0
 11
116.4381663347
 21
90.0403118374
 31
0.0
  0
SPLINE
  5
E7
330
1F
100
AcDbEntity
  8
0
  6
Continuous
 62
     7
370
    15
100
AcDbSpline
210
0.0
220
0.0
230
1.0
 70
     8
 71
     3
 72
    14
 73
    10
 74
     0
 42
0.000000001
 43
0.00000001
 40
0.0
 40
0.0
 40
0.0
 40
0.0
 40
0.25
 40
0.25
 40
0.5
 40
0.5
 40
0.75
 40
0.75
 40
1.0
 40
1.0
 40
1.0
 40
1.0
 10
115.6598792167649
 20
91.17089804506182
 30
0.0
 10
115.716505891967
 20
91.06320059122496
 30
0.0
 10
115.8110285522567
 20
90.96041100950563
 30
0.0
 10
115.9940735278189
 20
90.7620536972855
 30
0.0
 10
116.0857001047737
 20
90.66599418860724
 30
0.0
 10
116.2445534224669
 20
90.478465145898
 30
0.0
 10
116.3124440300886
 20
90.38705617311443
 30
0.0
 10
116.4093610557962
 20
90.20867995220429
 30
0.0
 10
116.4381663346812
 20
90.12145804595811
 30
0.0
 10
116.4381663346812
 20
90.04031183742386
 30
0.0
  0
SPLINE
  5
E8
330
1F
100
AcDbEntity
  8
0
  6
Continuous
 62
     7
370
    15
100
AcDbSpline
210
0.0
220
0.0
230
1.0
 70
     8
 71
     3
 72
    14
 73
    10
 74
     0
 42
0.000000001
 43
0.00000001
 40
0.0
 40
0.0
 40
0.0
 40
0.0
 40
0.125
 40
0.125
 40
0.25
 40
0.25
 40
0.5
 40
0.5
 40
1.0
 40
1.0
 40
1.0
 40
1.0
 10
115.0381663346806
 20
91.61757990734114
 30
0.0
 10
115.0867107433378
 20
91.62332822062143
 30
0.0
 10
115.1396260981227
 20
91.6202273319652
 30
0.0
 10
115.2349214431057
 20
91.59803248780287
 30
0.0
 10
115.2751724403907
 20
91.58080026070701
 30
0.0
 10
115.3794424539036
 20
91.52447234425495
 30
0.0
 10
115.429764429057
 20
91.48028599830914
 30
0.0
 10
115.5574473765824
 20
91.34927809945852
 30
0.0
 10
115.6135328236446
 20
91.25904357922823
 30
0.0
 10
115.6598792167664
 20
91.17089804506234
 30
0.0
  0
SPLINE
  5
E9
330
1F
100
AcDbEntity
  8
0
  6
Continuous
 62
     7
370
    15
100
AcDbSpline
210
0.0
220
0.0
230
1.0
 70
     8
 71
     3
 72
     8
 73
     4
 74
     0
 42
0.000000001
 43
0.00000001
 40
0.0
 40
0.0
 40
0.0
 40
0.0
 40
1.0
 40
1.0
 40
1.0
 40
1.0
 10
112.7696412417344
 20
91.30773462075834
 30
0.0
 10
113.5042182682173
 20
91.4263596318273
 30
0.0
 10
114.267693337613
 20
91.52634550396358
 30
0.0
 10
115.0381663346806
 20
91.61757990734114
 30
0.0
  0
SPLINE
  5
EA
330
1F
100
AcDbEntity
  8
0
  6
Continuous
 62
     7
370
    15
100
AcDbSpline
210
0.0
220
0.0
230
1.0
 70
     8
 71
     3
 72
    14
 73
    10
 74
     0
 42
0.000000001
 43
0.00000001
 40
0.0
 40
0.0
 40
0.0
 40
0.0
 40
0.5000000000000002
 40
0.5000000000000002
 40
0.7500000000000002
 40
0.7500000000000002
 40
0.8750000000000001
 40
0.8750000000000001
 40
1.0
 40
1.0
 40
1.0
 40
1.0
 10
107.4881663346806
 20
91.1341116032267
 30
0.0
 10
108.3803124652342
 20
91.13338937702605
 30
0.0
 10
109.2702889010278
 20
91.13797558348351
 30
0.0
 10
110.5968840681034
 20
91.16570058787504
 30
0.0
 10
111.0377309966021
 20
91.1783071254992
 30
0.0
 10
111.6941712340245
 20
91.20932327350666
 30
0.0
 10
111.9121848906164
 20
91.22166644613344
 30
0.0
 10
112.3448937442992
 20
91.2546905012967
 30
0.0
 10
112.560170209464
 20
91.27390766643516
 30
0.0
 10
112.7696412417344
 20
91.30773462075834
 30
0.0
  0
SPLINE
  5
EB
330
1F
100
AcDbEntity
  8
0
  6
Continuous
 62
     7
370
    15
100
AcDbSpline
210
0.0
220
0.0
230
1.0
 70
     8
 71
     3
 72
     8
 73
     4
 74
     0
 42
0.000000001
 43
0.00000001
 40
0.0000005163856998
 40
0.0000005163856998
 40
0.0000005163856998
 40
0.0000005163856998
 40
0.000026289209185
 40
0.000026289209185
 40
0.000026289209185
 40
0.000026289209185
 10
107.478121404273
 20
91.14409547632347
 30
0.0
 10
107.4814491424808
 20
91.14076122945436
 30
0.0
 10
107.4847975954564
 20
91.13743327217905
 30
0.0
 10
107.4881663346806
 20
91.13411160322669
 30
0.0
  0
SPLINE
  5
EC
330
1F
100
AcDbEntity
  8
0
  6
Continuous
 62
     7
370
    15
100
AcDbSpline
210
0.0
220
0.0
230
1.0
 70
     8
 71
     3
 72
     8
 73
     4
 74
     0
 42
0.000000001
 43
0.00000001
 40
0.0000005099763573
 40
0.0000005099763573
 40
0.0000005099763573
 40
0.0000005099763573
 40
0.0000262827998699
 40
0.0000262827998699
 40
0.0000262827998699
 40
0.0000262827998699
 10
107.4881663346806
 20
132.8739871340169
 30
0.0
 10
107.4847975954529
 20
132.870665465061
 30
0.0
 10
107.4814491424737
 20
132.8673375077821
 30
0.0
 10
107.4781214042624
 20
132.8640032609094
 30
0.0
  0
SPLINE
  5
ED
330
1F
100
AcDbEntity
  8
0
  6
Continuous
 62
     7
370
    15
100
AcDbSpline
210
0.0
220
0.0
230
1.0
 70
     8
 71
     3
 72
    10
 73
     6
 74
     0
 42
0.000000001
 43
0.00000001
 40
0.0
 40
0.0
 40
0.0
 40
0.0
 40
0.5
 40
0.5
 40
1.0
 40
1.0
 40
1.0
 40
1.0
 10
111.0381663346806
 20
132.8271367604495
 30
0.0
 10
110.45058078759
 20
132.8482022806859
 30
0.0
 10
109.8598343941296
 20
132.8589607665581
 30
0.0
 10
108.6758152288308
 20
132.8723255470938
 30
0.0
 10
108.0824012406253
 20
132.8744681897584
 30
0.0
 10
107.4881663346806
 20
132.8739871340168
 30
0.0
  0
SPLINE
  5
EE
330
1F
100
AcDbEntity
  8
0
  6
Continuous
 62
     7
370
    15
100
AcDbSpline
210
0.0
220
0.0
230
1.0
 70
     8
 71
     3
 72
    18
 73
    14
 74
     0
 42
0.000000001
 43
0.00000001
 40
0.0
 40
0.0
 40
0.0
 40
0.0
 40
0.2500000000000008
 40
0.2500000000000008
 40
0.5000000000000009
 40
0.5000000000000009
 40
0.7500000000000009
 40
0.7500000000000009
 40
0.875000000000001
 40
0.875000000000001
 40
0.9375000000000006
 40
0.9375000000000006
 40
1.0
 40
1.0
 40
1.0
 40
1.0
 10
112.4381663346806
 20
133.8481570409848
 30
0.0
 10
112.4381663346806
 20
133.7649501321276
 30
0.0
 10
112.4023172347424
 20
133.676213476814
 30
0.0
 10
112.2774454987085
 20
133.4940882862537
 30
0.0
 10
112.1870450810606
 20
133.3989582376271
 30
0.0
 10
111.9648024263184
 20
133.2097767285028
 30
0.0
 10
111.8350376398726
 20
133.1148315604081
 30
0.0
 10
111.5944001825611
 20
132.9765528528282
 30
0.0
 10
111.5066328844237
 20
132.9308424195258
 30
0.0
 10
111.3521087972169
 20
132.8730191143043
 30
0.0
 10
111.2954979111621
 20
132.8553043502664
 30
0.0
 10
111.1714538802555
 20
132.8307650470335
 30
0.0
 10
111.1037392052372
 20
132.8247859084952
 30
0.0
 10
111.0381663346806
 20
132.8271367604495
 30
0.0
  0
LINE
  5
EF
330
1F
100
AcDbEntity
  8
0
  6
Continuous
 62
     7
370
    15
100
AcDbLine
 10
112.4381663347
 20
133.848157041
 30
0.0
 11
112.4381663347
 21
135.0320954608
 31
0.0
  0
SPLINE
  5
F0
330
1F
100
AcDbEntity
  8
0
  6
Continuous
 62
     7
370
    15
100
AcDbSpline
210
0.0
220
0.0
230
1.0
 70
     8
 71
     3
 72
    24
 73
    20
 74
     0
 42
0.000000001
 43
0.00000001
 40
0.0
 40
0.0
 40
0.0
 40
0.0
 40
0.0010489762969682
 40
0.0637843125639767
 40
0.1272220590447889
 40
0.19037889244876
 40
0.2526748653693632
 40
0.3146354154433589
 40
0.3770891997149993
 40
0.4393540298512636
 40
0.5008133242537819
 40
0.5621845104587263
 40
0.6248438451115537
 40
0.6874304766616293
 40
0.7496743174679374
 40
0.8119848426977089
 40
0.875096052541316
 40
0.9384412526965075
 40
0.9999999999999999
 40
0.9999999999999999
 40
0.9999999999999999
 40
0.9999999999999999
 10
125.0070721666563
 20
88.34654094004163
 30
0.0
 10
125.0066257065521
 20
88.34648265422273
 30
0.0
 10
124.9794781428583
 20
88.34293851228013
 30
0.0
 10
125.075089920472
 20
88.355772256963
 30
0.0
 10
125.3086501783665
 20
88.3850189421631
 30
0.0
 10
125.7042044856835
 20
88.43163326522601
 30
0.0
 10
126.2312447895243
 20
88.48181640688541
 30
0.0
 10
126.8747752015122
 20
88.52619286933569
 30
0.0
 10
127.6134490567571
 20
88.55313765027331
 30
0.0
 10
128.4109635621878
 20
88.55660950097919
 30
0.0
 10
129.2375424446299
 20
88.52898225694959
 30
0.0
 10
130.0630654622371
 20
88.47050336797632
 30
0.0
 10
130.8551920102381
 20
88.38505833861629
 30
0.0
 10
131.5877642842437
 20
88.28332409877993
 30
0.0
 10
132.2234045209717
 20
88.17548097680705
 30
0.0
 10
132.7453156279815
 20
88.07385082006795
 30
0.0
 10
133.1269444050969
 20
87.99136566338969
 30
0.0
 10
133.3777588753308
 20
87.93521645704007
 30
0.0
 10
133.4068804313151
 20
87.92836699842633
 30
0.0
 10
133.4212329521313
 20
87.92499125169815
 30
0.0
  0
SPLINE
  5
F1
330
1F
100
AcDbEntity
  8
0
  6
Continuous
 62
     7
370
    15
100
AcDbSpline
210
0.0
220
0.0
230
1.0
 70
     8
 71
     3
 72
    24
 73
    20
 74
     0
 42
0.000000001
 43
0.00000001
 40
0.0
 40
0.0
 40
0.0
 40
0.0
 40
0.061438427625136
 40
0.1250736755369643
 40
0.1884253490730172
 40
0.2508623904037476
 40
0.3129665632512369
 40
0.3753451453465166
 40
0.4377328972325402
 40
0.4990927322917273
 40
0.5605807588448041
 40
0.6229469893028856
 40
0.6854686282026866
 40
0.7475477813740222
 40
0.8098225060807238
 40
0.8730684085990468
 40
0.9364041844533111
 40
0.9991757196257863
 40
1.0
 40
1.0
 40
1.0
 40
1.0
 10
133.4211781813283
 20
136.0830783430792
 30
0.0
 10
133.4065774570246
 20
136.0797102862265
 30
0.0
 10
133.3768539382961
 20
136.0728537427527
 30
0.0
 10
133.124116122648
 20
136.0165151222267
 30
0.0
 10
132.741120206199
 20
135.9336580400968
 30
0.0
 10
132.2187646217609
 20
135.8317510101455
 30
0.0
 10
131.5839801437609
 20
135.7239118711017
 30
0.0
 10
130.8537565395884
 20
135.6224449191265
 30
0.0
 10
130.0632879543548
 20
135.5373852054359
 30
0.0
 10
129.2388044395264
 20
135.4791809115495
 30
0.0
 10
128.4117679806432
 20
135.4515974727229
 30
0.0
 10
127.6134437129912
 20
135.4550904502157
 30
0.0
 10
126.8736197487019
 20
135.4820463700688
 30
0.0
 10
126.2293655157265
 20
135.5264003120682
 30
0.0
 10
125.7019582605108
 20
135.576605761826
 30
0.0
 10
125.3072936583609
 20
135.6232156170243
 30
0.0
 10
125.074764379176
 20
135.6524112095716
 30
0.0
 10
124.9793843466238
 20
135.6651892785135
 30
0.0
 10
125.0063179835252
 20
135.6616350200052
 30
0.0
 10
125.0066670767496
 20
135.6615889524218
 30
0.0
  0
SPLINE
  5
F2
330
1F
100
AcDbEntity
  8
0
  6
Continuous
 62
     7
370
    15
100
AcDbSpline
210
0.0
220
0.0
230
1.0
 70
     8
 71
     3
 72
     9
 73
     5
 74
     0
 42
0.000000001
 43
0.00000001
 40
0.0
 40
0.0
 40
0.0
 40
0.0
 40
0.7009329310330167
 40
1.0
 40
1.0
 40
1.0
 40
1.0
 10
106.3589510189161
 20
92.30276906451914
 30
0.0
 10
106.3680902955914
 20
92.28493977897762
 30
0.0
 10
106.381129027645
 20
92.25950327178533
 30
0.0
 10
106.3962942814103
 20
92.31338313197713
 30
0.0
 10
106.400829709404
 20
92.32949682384104
 30
0.0
  0
LINE
  5
F3
330
1F
100
AcDbEntity
  8
0
  6
Continuous
 62
     7
370
    15
100
AcDbLine
 10
106.3381663347
 20
92.3133716221
 30
0.0
 11
106.3381663347
 21
131.6947271151
 31
0.0
  0
SPLINE
  5
F4
330
1F
100
AcDbEntity
  8
0
  6
Continuous
 62
     7
370
    15
100
AcDbSpline
210
0.0
220
0.0
230
1.0
 70
     8
 71
     3
 72
     9
 73
     5
 74
     0
 42
0.000000001
 43
0.00000001
 40
0.0
 40
0.0
 40
0.0
 40
0.0
 40
0.8063521891319351
 40
1.0
 40
1.0
 40
1.0
 40
1.0
 10
106.400829709404
 20
131.6786019134025
 30
0.0
 10
106.3846448493069
 20
131.7149303449227
 30
0.0
 10
106.3645731482373
 20
131.7599831543648
 30
0.0
 10
106.3553379150938
 20
131.7335805283709
 30
0.0
 10
106.3535495324127
 20
131.728467717646
 30
0.0
  0
SPLINE
  5
F5
330
1F
100
AcDbEntity
  8
0
  6
Continuous
 62
     7
370
    15
100
AcDbSpline
210
0.0
220
0.0
230
1.0
 70
     8
 71
     3
 72
    26
 73
    22
 74
     0
 42
0.000000001
 43
0.00000001
 40
0.0
 40
0.0
 40
0.0
 40
0.0
 40
0.2500000000000165
 40
0.2500000000000165
 40
0.3750000000000256
 40
0.3750000000000256
 40
0.4375000000000291
 40
0.4375000000000291
 40
0.4687500000000291
 40
0.4687500000000291
 40
0.5000000000000292
 40
0.5000000000000292
 40
0.5312500000000293
 40
0.5312500000000293
 40
0.5625000000000293
 40
0.5625000000000293
 40
0.625000000000026
 40
0.625000000000026
 40
0.7500000000000173
 40
0.7500000000000173
 40
1.0
 40
1.0
 40
1.0
 40
1.0
 10
107.1623199807851
 20
132.3941687022196
 30
0.0
 10
107.1237194579167
 20
132.2763940058641
 30
0.0
 10
107.0774224553624
 20
132.1520043197022
 30
0.0
 10
106.9834831069285
 20
131.9467849873487
 30
0.0
 10
106.948171640015
 20
131.8752121209023
 30
0.0
 10
106.8819916642693
 20
131.7592588883019
 30
0.0
 10
106.8574532976011
 20
131.7186743534916
 30
0.0
 10
106.8140805520473
 20
131.6545326716198
 30
0.0
 10
106.7985721506221
 20
131.6326662463348
 30
0.0
 10
106.7635295060351
 20
131.5870719779916
 30
0.0
 10
106.7439792153153
 20
131.5634016870242
 30
0.0
 10
106.7020519349447
 20
131.5187851276843
 30
0.0
 10
106.6793998247131
 20
131.4979051151664
 30
0.0
 10
106.6384261106265
 20
131.4670317014155
 30
0.0
 10
106.620826810731
 20
131.4571928315831
 30
0.0
 10
106.5761998248749
 20
131.4382032158869
 30
0.0
 10
106.5556406022216
 20
131.4378788912335
 30
0.0
 10
106.5045151627249
 20
131.4471023321098
 30
0.0
 10
106.4836037497363
 20
131.4683492283267
 30
0.0
 10
106.4321538421754
 20
131.5423181071575
 30
0.0
 10
106.4144885428709
 20
131.6084362004722
 30
0.0
 10
106.400829709404
 20
131.6786019134025
 30
0.0
  0
SPLINE
  5
F6
330
1F
100
AcDbEntity
  8
0
  6
Continuous
 62
     7
370
    15
100
AcDbSpline
210
0.0
220
0.0
230
1.0
 70
     8
 71
     3
 72
    10
 73
     6
 74
     0
 42
0.000000001
 43
0.00000001
 40
0.0
 40
0.0
 40
0.0
 40
0.0
 40
0.5
 40
0.5
 40
1.0
 40
1.0
 40
1.0
 40
1.0
 10
107.4781214042624
 20
132.8640032609094
 30
0.0
 10
107.4105621493442
 20
132.7963118680997
 30
0.0
 10
107.3469254940077
 20
132.721604703346
 30
0.0
 10
107.2367047394358
 20
132.5626385709194
 30
0.0
 10
107.1898884462132
 20
132.4782833049114
 30
0.0
 10
107.1623199807851
 20
132.3941687022196
 30
0.0
  0
SPLINE
  5
F7
330
1F
100
AcDbEntity
  8
0
  6
Continuous
 62
     7
370
    15
100
AcDbSpline
210
0.0
220
0.0
230
1.0
 70
     8
 71
     3
 72
    10
 73
     6
 74
     0
 42
0.000000001
 43
0.00000001
 40
0.0
 40
0.0
 40
0.0
 40
0.0
 40
0.5
 40
0.5
 40
1.0
 40
1.0
 40
1.0
 40
1.0
 10
107.1623199807852
 20
91.6139300350238
 30
0.0
 10
107.1897973955391
 20
91.5300932385559
 30
0.0
 10
107.2365060258286
 20
91.44578275096677
 30
0.0
 10
107.3467844885745
 20
91.28666152048007
 30
0.0
 10
107.4106720271884
 20
91.21167677639042
 30
0.0
 10
107.478121404273
 20
91.14409547632347
 30
0.0
  0
SPLINE
  5
F8
330
1F
100
AcDbEntity
  8
0
  6
Continuous
 62
     7
370
    15
100
AcDbSpline
210
0.0
220
0.0
230
1.0
 70
     8
 71
     3
 72
    24
 73
    20
 74
     0
 42
0.000000001
 43
0.00000001
 40
0.0
 40
0.0
 40
0.0
 40
0.0
 40
0.249999999999999
 40
0.249999999999999
 40
0.3749999999999983
 40
0.3749999999999983
 40
0.4374999999999987
 40
0.4374999999999987
 40
0.4687499999999975
 40
0.4687499999999975
 40
0.4999999999999963
 40
0.4999999999999963
 40
0.5624999999999984
 40
0.5624999999999984
 40
0.6250000000000006
 40
0.6250000000000006
 40
0.7500000000000001
 40
0.7500000000000001
 40
1.0
 40
1.0
 40
1.0
 40
1.0
 10
106.400829709404
 20
92.32949682384104
 30
0.0
 10
106.4145828280743
 20
92.40014688183132
 30
0.0
 10
106.4323553954801
 20
92.46674499459623
 30
0.0
 10
106.4846064870355
 20
92.54084301482943
 30
0.0
 10
106.505641562617
 20
92.562100821991
 30
0.0
 10
106.5585419702455
 20
92.57024674813724
 30
0.0
 10
106.5796476431234
 20
92.56930694474146
 30
0.0
 10
106.6256998118014
 20
92.54829095316411
 30
0.0
 10
106.6440702837848
 20
92.5373821470565
 30
0.0
 10
106.6856219188505
 20
92.50474723610913
 30
0.0
 10
106.7081885916074
 20
92.48325525573775
 30
0.0
 10
106.7709696080674
 20
92.41478931215144
 30
0.0
 10
106.8040993690353
 20
92.36871485394634
 30
0.0
 10
106.8610170555203
 20
92.28370696561169
 30
0.0
 10
106.8852030810241
 20
92.2434266644303
 30
0.0
 10
106.9504110314038
 20
92.12849043796437
 30
0.0
 10
106.9851270915951
 20
92.05790745281735
 30
0.0
 10
107.0783423619259
 20
91.85370169373876
 30
0.0
 10
107.1240148972866
 20
91.73080331141139
 30
0.0
 10
107.1623199807852
 20
91.61393003502383
 30
0.0
  0
SPLINE
  5
F9
330
1F
100
AcDbEntity
  8
0
  6
Continuous
 62
     7
370
    15
100
AcDbSpline
210
0.0
220
0.0
230
1.0
 70
     8
 71
     3
 72
    54
 73
    50
 74
     0
 42
0.000000001
 43
0.00000001
 40
0.0
 40
0.0
 40
0.0
 40
0.0
 40
0.0312500000000001
 40
0.0312500000000001
 40
0.0625000000000001
 40
0.0625000000000001
 40
0.1250000000000002
 40
0.1250000000000002
 40
0.1875000000000004
 40
0.1875000000000004
 40
0.2187500000000004
 40
0.2187500000000004
 40
0.2500000000000004
 40
0.2500000000000004
 40
0.3124999999999997
 40
0.3124999999999997
 40
0.374999999999999
 40
0.374999999999999
 40
0.4062499999999986
 40
0.4062499999999986
 40
0.4374999999999982
 40
0.4374999999999982
 40
0.4999999999999975
 40
0.4999999999999975
 40
0.5312499999999977
 40
0.5312499999999977
 40
0.5624999999999977
 40
0.5624999999999977
 40
0.6249999999999979
 40
0.6249999999999979
 40
0.6562499999999977
 40
0.6562499999999977
 40
0.6874999999999973
 40
0.6874999999999973
 40
0.7499999999999968
 40
0.7499999999999968
 40
0.781249999999997
 40
0.781249999999997
 40
0.8124999999999971
 40
0.8124999999999971
 40
0.8749999999999979
 40
0.8749999999999979
 40
0.9062499999999984
 40
0.9062499999999984
 40
0.937499999999999
 40
0.937499999999999
 40
0.9687499999999994
 40
0.9687499999999994
 40
1.0
 40
1.0
 40
1.0
 40
1.0
 10
183.1881663346806
 20
112.0040493686218
 30
0.0
 10
183.1881663346807
 20
111.7751792045992
 30
0.0
 10
183.1739882017591
 20
111.5461244658018
 30
0.0
 10
183.1166649159519
 20
111.0876382442572
 30
0.0
 10
183.07331043454
 20
110.8586257845525
 30
0.0
 10
182.9042354828682
 20
110.1905825286066
 30
0.0
 10
182.7387000812276
 20
109.762476996369
 30
0.0
 10
182.3105451757714
 20
108.9454971753219
 30
0.0
 10
182.0545510162901
 20
108.5684606757131
 30
0.0
 10
181.6145569698022
 20
108.044152179163
 30
0.0
 10
181.457642448712
 20
107.8755821043936
 30
0.0
 10
181.1297875157102
 20
107.556523757142
 30
0.0
 10
180.9589996969677
 20
107.4059791520134
 30
0.0
 10
180.427162094958
 20
106.9795365232247
 30
0.0
 10
180.0453337208288
 20
106.7277999754438
 30
0.0
 10
179.2371554386437
 20
106.2918864742407
 30
0.0
 10
178.8185098093787
 20
106.111531897194
 30
0.0
 10
178.169804138042
 20
105.8933993335136
 30
0.0
 10
177.9500875312031
 20
105.8294909337921
 30
0.0
 10
177.5035973447012
 20
105.7193675763805
 30
0.0
 10
177.2760631978531
 20
105.6730992798255
 30
0.0
 10
176.5945646436403
 20
105.5632185310966
 30
0.0
 10
176.1384730044751
 20
105.5272577256563
 30
0.0
 10
175.4517491985424
 20
105.5278590217848
 30
0.0
 10
175.2224078599296
 20
105.5372054468103
 30
0.0
 10
174.7628386150997
 20
105.5746324859218
 30
0.0
 10
174.5321133054277
 20
105.6028847796122
 30
0.0
 10
173.8514854475056
 20
105.71447538914
 30
0.0
 10
173.4088971821257
 20
105.8245660497842
 30
0.0
 10
172.7615698389231
 20
106.0434308360499
 30
0.0
 10
172.5485691030653
 20
106.1253961430287
 30
0.0
 10
172.1282977201323
 20
106.3081246729169
 30
0.0
 10
171.9206125664907
 20
106.4092278611723
 30
0.0
 10
171.3187511139067
 20
106.7355654812085
 30
0.0
 10
170.9414362906956
 20
106.9851451359287
 30
0.0
 10
170.4124276602093
 20
107.4102162833524
 30
0.0
 10
170.2422953990499
 20
107.5604170199441
 30
0.0
 10
169.9152510699508
 20
107.8791772137495
 30
0.0
 10
169.7581329402233
 20
108.0482058046208
 30
0.0
 10
169.3185564308291
 20
108.572888719651
 30
0.0
 10
169.0636613212923
 20
108.9492682152581
 30
0.0
 10
168.7445054986129
 20
109.5586922664476
 30
0.0
 10
168.6484605145253
 20
109.7705355550989
 30
0.0
 10
168.4840085931409
 20
110.198843685464
 30
0.0
 10
168.4148771690821
 20
110.4164137889614
 30
0.0
 10
168.3031187360845
 20
110.8585007856004
 30
0.0
 10
168.2604880151547
 20
111.0830166759553
 30
0.0
 10
168.2029566037601
 20
111.5393372312627
 30
0.0
 10
168.1881663346806
 20
111.7729713249992
 30
0.0
 10
168.1881663346806
 20
112.0040493686218
 30
0.0
  0
SPLINE
  5
FA
330
1F
100
AcDbEntity
  8
0
  6
Continuous
 62
     7
370
    15
100
AcDbSpline
210
0.0
220
0.0
230
1.0
 70
     8
 71
     3
 72
    44
 73
    40
 74
     0
 42
0.000000001
 43
0.00000001
 40
0.0
 40
0.0
 40
0.0
 40
0.0
 40
0.0625000000000001
 40
0.0625000000000001
 40
0.0937500000000001
 40
0.0937500000000001
 40
0.1250000000000002
 40
0.1250000000000002
 40
0.1875
 40
0.1875
 40
0.2500000000000001
 40
0.2500000000000001
 40
0.3125000000000002
 40
0.3125000000000002
 40
0.3750000000000003
 40
0.3750000000000003
 40
0.4375000000000005
 40
0.4375000000000005
 40
0.5000000000000006
 40
0.5000000000000006
 40
0.5625000000000007
 40
0.5625000000000007
 40
0.6250000000000007
 40
0.6250000000000007
 40
0.6875000000000008
 40
0.6875000000000008
 40
0.7500000000000009
 40
0.7500000000000009
 40
0.8125000000000009
 40
0.8125000000000009
 40
0.8437500000000009
 40
0.8437500000000009
 40
0.875000000000001
 40
0.875000000000001
 40
0.9375000000000007
 40
0.9375000000000007
 40
0.9687500000000004
 40
0.9687500000000004
 40
1.0
 40
1.0
 40
1.0
 40
1.0
 10
168.1881663346806
 20
112.0040493686218
 30
0.0
 10
168.1881663346806
 20
112.466703260405
 30
0.0
 10
168.2456229305876
 20
112.9220689854426
 30
0.0
 10
168.4155852232018
 20
113.5945311175303
 30
0.0
 10
168.4864907835361
 20
113.8166053386304
 30
0.0
 10
168.6518897776004
 20
114.2455767405241
 30
0.0
 10
168.7467318799254
 20
114.4540450262181
 30
0.0
 10
169.0659328094018
 20
115.0623809049716
 30
0.0
 10
169.3273482861456
 20
115.4472655050337
 30
0.0
 10
169.9150040870319
 20
116.1455226902901
 30
0.0
 10
170.2436972920123
 20
116.4637767966023
 30
0.0
 10
170.9627444613447
 20
117.0385414485696
 30
0.0
 10
171.343850554725
 20
117.2878368139918
 30
0.0
 10
172.1427045568575
 20
117.7174960826467
 30
0.0
 10
172.5609514048363
 20
117.8981152595181
 30
0.0
 10
173.4357215092827
 20
118.1912617723664
 30
0.0
 10
173.8805933474119
 20
118.299812588342
 30
0.0
 10
174.7827398448346
 20
118.4448023116561
 30
0.0
 10
175.2419184219322
 20
118.4813137229524
 30
0.0
 10
176.1672603941825
 20
118.4795416970346
 30
0.0
 10
176.6236628587317
 20
118.4415356406324
 30
0.0
 10
177.5243763274804
 20
118.2935386021591
 30
0.0
 10
177.9703517920324
 20
118.1830059345082
 30
0.0
 10
178.8424897339035
 20
117.8872050750525
 30
0.0
 10
179.2594484386208
 20
117.7053849647957
 30
0.0
 10
180.0557141840346
 20
117.2734526083537
 30
0.0
 10
180.4366930304705
 20
117.0221098970689
 30
0.0
 10
181.1501095452256
 20
116.4476528000785
 30
0.0
 10
181.4739699077573
 20
116.1319078340843
 30
0.0
 10
181.90883375324
 20
115.6130585796941
 30
0.0
 10
182.0452363888494
 20
115.4325143536517
 30
0.0
 10
182.299738427417
 20
115.0550085872239
 30
0.0
 10
182.4185448327419
 20
114.8566367699718
 30
0.0
 10
182.7387296553088
 20
114.2453367581689
 30
0.0
 10
182.9037893380227
 20
113.8191242399085
 30
0.0
 10
183.0733613412069
 20
113.1493490747863
 30
0.0
 10
183.1167898517528
 20
112.9195872783176
 30
0.0
 10
183.1739569758423
 20
112.4620977638765
 30
0.0
 10
183.1881663346807
 20
112.2331660567287
 30
0.0
 10
183.1881663346806
 20
112.0040493686218
 30
0.0
  0
LINE
  5
FB
330
1F
100
AcDbEntity
  8
0
  6
Continuous
 62
     7
370
    15
100
AcDbLine
 10
187.8381663347
 20
91.0040493686
 30
0.0
 11
187.8381663347
 21
133.0040493686
 31
0.0
  0
LINE
  5
FC
330
1F
100
AcDbEntity
  8
0
  6
Continuous
 62
     7
370
    15
100
AcDbLine
 10
188.2381663347
 20
91.4040493686
 30
0.0
 11
188.2381663347
 21
132.6040493686
 31
0.0
  0
SPLINE
  5
FD
330
1F
100
AcDbEntity
  8
0
  6
Continuous
 62
     7
370
    15
100
AcDbSpline
210
0.0
220
0.0
230
1.0
 70
     8
 71
     3
 72
     8
 73
     4
 74
     0
 42
0.000000001
 43
0.00000001
 40
0.0
 40
0.0
 40
0.0
 40
0.0
 40
1.0
 40
1.0
 40
1.0
 40
1.0
 10
152.8462335031916
 20
136.4627390309892
 30
0.0
 10
153.3533203449508
 20
135.3315886768255
 30
0.0
 10
153.8488881840908
 20
134.1952042660577
 30
0.0
 10
154.3281663346806
 20
133.0541930362051
 30
0.0
  0
LINE
  5
FE
330
1F
100
AcDbEntity
  8
0
  6
Continuous
 62
     7
370
    15
100
AcDbLine
 10
154.3281663347
 20
133.0541930362
 30
0.0
 11
154.3281663347
 21
132.1399160001
 31
0.0
  0
SPLINE
  5
FF
330
1F
100
AcDbEntity
  8
0
  6
Continuous
 62
     7
370
    15
100
AcDbSpline
210
0.0
220
0.0
230
1.0
 70
     8
 71
     3
 72
    10
 73
     6
 74
     0
 42
0.000000001
 43
0.00000001
 40
0.0
 40
0.0
 40
0.0
 40
0.0
 40
0.5
 40
0.5
 40
1.0
 40
1.0
 40
1.0
 40
1.0
 10
164.1881663346806
 20
141.8504896923857
 30
0.0
 10
164.1881663346806
 20
142.0108949587365
 30
0.0
 10
164.1259285035738
 20
142.1699567717251
 30
0.0
 10
163.9067935798312
 20
142.4008692373554
 30
0.0
 10
163.7492048848393
 20
142.471244841786
 30
0.0
 10
163.5881663346806
 20
142.471244841786
 30
0.0
  0
SPLINE
  5
100
330
1F
100
AcDbEntity
  8
0
  6
Continuous
 62
     7
370
    15
100
AcDbSpline
210
0.0
220
0.0
230
1.0
 70
     8
 71
     3
 72
    12
 73
     8
 74
     0
 42
0.000000001
 43
0.00000001
 40
0.0
 40
0.0
 40
0.0
 40
0.0
 40
0.250000000000002
 40
0.250000000000002
 40
0.500000000000004
 40
0.500000000000004
 40
1.0
 40
1.0
 40
1.0
 40
1.0
 10
163.5881663346806
 20
136.4627390309892
 30
0.0
 10
163.6793660565063
 20
136.4627390309892
 30
0.0
 10
163.7699610656423
 20
136.4345193324013
 30
0.0
 10
163.923373792089
 20
136.3400763251532
 30
0.0
 10
163.9885826594126
 20
136.2737893484479
 30
0.0
 10
164.1413671887526
 20
136.0481645251596
 30
0.0
 10
164.1881663346806
 20
135.8657382621271
 30
0.0
 10
164.1881663346806
 20
135.6850016298802
 30
0.0
  0
LINE
  5
101
330
1F
100
AcDbEntity
  8
0
  6
Continuous
 62
     7
370
    15
100
AcDbLine
 10
164.1881663347
 20
135.6850016299
 30
0.0
 11
164.1881663347
 21
141.8504896924
 31
0.0
  0
SPLINE
  5
102
330
1F
100
AcDbEntity
  8
0
  6
Continuous
 62
     7
370
    15
100
AcDbSpline
210
0.0
220
0.0
230
1.0
 70
     8
 71
     3
 72
     8
 73
     4
 74
     0
 42
0.000000001
 43
0.00000001
 40
0.0
 40
0.0
 40
0.0
 40
0.0
 40
1.0
 40
1.0
 40
1.0
 40
1.0
 10
158.1481663346806
 20
133.0541930362051
 30
0.0
 10
158.6274444852705
 20
134.1952042660577
 30
0.0
 10
159.1230123244104
 20
135.3315886768255
 30
0.0
 10
159.6300991661697
 20
136.4627390309892
 30
0.0
  0
LINE
  5
103
330
1F
100
AcDbEntity
  8
0
  6
Continuous
 62
     7
370
    15
100
AcDbLine
 10
159.6300991662
 20
136.462739031
 30
0.0
 11
163.5881663347
 21
136.462739031
 31
0.0
  0
LINE
  5
104
330
1F
100
AcDbEntity
  8
0
  6
Continuous
 62
     7
370
    15
100
AcDbLine
 10
158.1481663347
 20
132.1399160001
 30
0.0
 11
158.1481663347
 21
133.0541930362
 31
0.0
  0
LINE
  5
105
330
1F
100
AcDbEntity
  8
0
  6
Continuous
 62
     7
370
    15
100
AcDbLine
 10
164.1881663347
 20
135.6850016299
 30
0.0
 11
164.1881663347
 21
131.8540493686
 31
0.0
  0
SPLINE
  5
106
330
1F
100
AcDbEntity
  8
0
  6
Continuous
 62
     7
370
    15
100
AcDbSpline
210
0.0
220
0.0
230
1.0
 70
     8
 71
     3
 72
     8
 73
     4
 74
     0
 42
0.000000001
 43
0.00000001
 40
0.0
 40
0.0
 40
0.0
 40
0.0
 40
1.0
 40
1.0
 40
1.0
 40
1.0
 10
154.3281663346806
 20
139.8092835597934
 30
0.0
 10
153.8354562378349
 20
140.6973025579198
 30
0.0
 10
153.3413735325559
 20
141.5845651936057
 30
0.0
 10
152.8462335031916
 20
142.471244841786
 30
0.0
  0
LINE
  5
107
330
1F
100
AcDbEntity
  8
0
  6
Continuous
 62
     7
370
    15
100
AcDbLine
 10
154.3281663347
 20
133.0541930362
 30
0.0
 11
154.3281663347
 21
139.8092835598
 31
0.0
  0
SPLINE
  5
108
330
1F
100
AcDbEntity
  8
0
  6
Continuous
 62
     7
370
    15
100
AcDbSpline
210
0.0
220
0.0
230
1.0
 70
     8
 71
     3
 72
     8
 73
     4
 74
     0
 42
0.000000001
 43
0.00000001
 40
0.0
 40
0.0
 40
0.0
 40
0.0
 40
1.0
 40
1.0
 40
1.0
 40
1.0
 10
159.6300991661697
 20
142.471244841786
 30
0.0
 10
159.1349591368054
 20
141.5845651936057
 30
0.0
 10
158.6408764315264
 20
140.6973025579198
 30
0.0
 10
158.1481663346806
 20
139.8092835597934
 30
0.0
  0
LINE
  5
109
330
1F
100
AcDbEntity
  8
0
  6
Continuous
 62
     7
370
    15
100
AcDbLine
 10
159.6300991662
 20
136.462739031
 30
0.0
 11
159.6300991662
 21
142.4712448418
 31
0.0
  0
LINE
  5
10A
330
1F
100
AcDbEntity
  8
0
  6
Continuous
 62
     7
370
    15
100
AcDbLine
 10
158.1481663347
 20
133.0541930362
 30
0.0
 11
158.1481663347
 21
139.8092835598
 31
0.0
  0
LINE
  5
10B
330
1F
100
AcDbEntity
  8
0
  6
Continuous
 62
     7
370
    15
100
AcDbLine
 10
163.5881663347
 20
142.4712448418
 30
0.0
 11
159.6300991662
 21
142.4712448418
 31
0.0
  0
CIRCLE
  5
10C
330
1F
100
AcDbEntity
  8
0
  6
HIDDEN
 62
     7
370
     0
100
AcDbCircle
 10
175.6881663347
 20
112.0040493686
 30
0.0
 40
5.181257848382072
  0
CIRCLE
  5
10D
330
1F
100
AcDbEntity
  8
0
  6
HIDDEN
 62
     7
370
     0
100
AcDbCircle
 10
175.6881663347
 20
112.0040493686
 30
0.0
 40
4.172547133356715
  0
CIRCLE
  5
10E
330
1F
100
AcDbEntity
  8
0
  6
HIDDEN
 62
     7
370
     0
100
AcDbCircle
 10
175.6881663347
 20
112.0040493686
 30
0.0
 40
3.872547133356728
  0
LINE
  5
10F
330
1F
100
AcDbEntity
  8
0
  6
HIDDEN
 62
     7
370
     0
100
AcDbLine
 10
152.8462335032
 20
136.462739031
 30
0.0
 11
152.8462335032
 21
131.8540493686
 31
0.0
  0
LINE
  5
110
330
1F
100
AcDbEntity
  8
0
  6
HIDDEN
 62
     7
370
     0
100
AcDbLine
 10
126.2333165393
 20
88.4794497458
 30
0.0
 11
125.9816589451
 21
88.4559281243
 31
0.0
  0
SPLINE
  5
111
330
1F
100
AcDbEntity
  8
0
  6
HIDDEN
 62
     7
370
     0
100
AcDbSpline
210
0.0
220
0.0
230
1.0
 70
     8
 71
     3
 72
    10
 73
     6
 74
     0
 42
0.000000001
 43
0.00000001
 40
0.0
 40
0.0
 40
0.0
 40
0.0
 40
0.4476611055955096
 40
0.8953054492368829
 40
1.0
 40
1.0
 40
1.0
 40
1.0
 10
131.9931683362822
 20
131.8415778444382
 30
0.0
 10
132.2398693692238
 20
131.8710900876342
 30
0.0
 10
132.7332621977811
 20
131.9301134689875
 30
0.0
 10
133.0222734333957
 20
131.9440515619892
 30
0.0
 10
132.9619451310176
 20
131.9401632327441
 30
0.0
 10
132.9505100418363
 20
131.9394262089936
 30
0.0
  0
SPLINE
  5
112
330
1F
100
AcDbEntity
  8
0
  6
HIDDEN
 62
     7
370
     0
100
AcDbSpline
210
0.0
220
0.0
230
1.0
 70
     8
 71
     3
 72
    10
 73
     6
 74
     0
 42
0.000000001
 43
0.00000001
 40
0.0
 40
0.0
 40
0.0
 40
0.0
 40
0.3457013790201567
 40
0.7967674042979431
 40
1.0
 40
1.0
 40
1.0
 40
1.0
 10
132.9505311244023
 20
92.06867109510902
 30
0.0
 10
132.9409716875507
 20
92.06922651985559
 30
0.0
 10
132.9189392394638
 20
92.07050665456279
 30
0.0
 10
132.5019004535818
 20
92.10047098442823
 30
0.0
 10
132.1137364820296
 20
92.15086724187782
 30
0.0
 10
131.9931683362822
 20
92.16652089280531
 30
0.0
  0
SPLINE
  5
113
330
1F
100
AcDbEntity
  8
0
  6
HIDDEN
 62
     7
370
     0
100
AcDbSpline
210
0.0
220
0.0
230
1.0
 70
     8
 71
     3
 72
    15
 73
    11
 74
     0
 42
0.000000001
 43
0.00000001
 40
0.0
 40
0.0
 40
0.0
 40
0.0
 40
0.1409172169897705
 40
0.2818898291171906
 40
0.4212989265166057
 40
0.5593768372264388
 40
0.6988856205980569
 40
0.8403671979046411
 40
0.981316445467027
 40
1.0
 40
1.0
 40
1.0
 40
1.0
 10
131.9931683362822
 20
92.16652089280531
 30
0.0
 10
131.6771266500097
 20
92.20687471012693
 30
0.0
 10
131.0449190401777
 20
92.28759820802176
 30
0.0
 10
129.8107559185004
 20
92.36415330562403
 30
0.0
 10
128.5400339176419
 20
92.35947725448499
 30
0.0
 10
127.3514745126144
 20
92.27868124275277
 30
0.0
 10
126.3583518398334
 20
92.15428444624102
 30
0.0
 10
125.7189428335368
 20
92.04788090757891
 30
0.0
 10
125.4379227269533
 20
91.99480024690176
 30
0.0
 10
125.5044834646464
 20
92.007056286916
 30
0.0
 10
125.5122737881647
 20
92.00849074392583
 30
0.0
  0
SPLINE
  5
114
330
1F
100
AcDbEntity
  8
0
  6
HIDDEN
 62
     7
370
     0
100
AcDbSpline
210
0.0
220
0.0
230
1.0
 70
     8
 71
     3
 72
    15
 73
    11
 74
     0
 42
0.000000001
 43
0.00000001
 40
0.0
 40
0.0
 40
0.0
 40
0.0
 40
0.1201202395113831
 40
0.2584739316900695
 40
0.3987301965958642
 40
0.5404022890432704
 40
0.680739540300365
 40
0.819035606386088
 40
0.9577823106998845
 40
1.0
 40
1.0
 40
1.0
 40
1.0
 10
125.5122737881647
 20
131.9996079933177
 30
0.0
 10
125.5329829246352
 20
131.9955833994641
 30
0.0
 10
125.5775447066229
 20
131.9869233052032
 30
0.0
 10
126.1399843124957
 20
131.8876321785945
 30
0.0
 10
127.033446524817
 20
131.7637145886133
 30
0.0
 10
128.1924256790092
 20
131.6640041517919
 30
0.0
 10
129.4654625591345
 20
131.6368656627162
 30
0.0
 10
130.6997478337781
 20
131.6922044968801
 30
0.0
 10
131.5277106305441
 20
131.7786830958643
 30
0.0
 10
131.9051211752081
 20
131.8296805141542
 30
0.0
 10
131.9931683362823
 20
131.8415778444382
 30
0.0
  0
LINE
  5
115
330
1F
100
AcDbEntity
  8
0
  6
HIDDEN
 62
     7
370
     0
100
AcDbLine
 10
119.2421409309
 20
95.0040493686
 30
0.0
 11
119.2421409309
 21
129.0040493686
 31
0.0
  0
LINE
  5
116
330
1F
100
AcDbEntity
  8
0
  6
HIDDEN
 62
     7
370
     0
100
AcDbLine
 10
187.6881663347
 20
126.9546532117
 30
0.0
 11
187.8490322113
 21
127.0010199104
 31
0.0
  0
LINE
  5
117
330
1F
100
AcDbEntity
  8
0
  6
HIDDEN
 62
     7
370
     0
100
AcDbLine
 10
187.6881663347
 20
126.9546532117
 30
0.0
 11
187.6881663347
 21
128.8245705623
 31
0.0
  0
SPLINE
  5
118
330
1F
100
AcDbEntity
  8
0
  6
HIDDEN
 62
     7
370
     0
100
AcDbSpline
210
0.0
220
0.0
230
1.0
 70
     8
 71
     3
 72
    24
 73
    20
 74
     0
 42
0.000000001
 43
0.00000001
 40
0.0
 40
0.0
 40
0.0
 40
0.0
 40
0.1250000000000001
 40
0.1250000000000001
 40
0.2500000000000003
 40
0.2500000000000003
 40
0.3750000000000004
 40
0.3750000000000004
 40
0.4375000000000002
 40
0.4375000000000002
 40
0.5
 40
0.5
 40
0.625
 40
0.625
 40
0.75
 40
0.75
 40
0.8750000000000001
 40
0.8750000000000001
 40
1.0
 40
1.0
 40
1.0
 40
1.0
 10
187.6881663346806
 20
123.2274144241483
 30
0.0
 10
187.7650425138692
 20
123.5060015316326
 30
0.0
 10
187.8328985160383
 20
123.7793082052707
 30
0.0
 10
187.9517747637758
 20
124.3150308867014
 30
0.0
 10
188.0032117686733
 20
124.5804185775565
 30
0.0
 10
188.0852011526426
 20
125.0788469565318
 30
0.0
 10
188.1162034729445
 20
125.313028147653
 30
0.0
 10
188.1477517192591
 20
125.6409745140507
 30
0.0
 10
188.1557536914784
 20
125.7468079898862
 30
0.0
 10
188.16628866671
 20
125.9454695287305
 30
0.0
 10
188.168897469925
 20
126.0388781960894
 30
0.0
 10
188.168915181981
 20
126.3016613488345
 30
0.0
 10
188.1583878631208
 20
126.4549585791749
 30
0.0
 10
188.1162915937641
 20
126.7070669320956
 30
0.0
 10
188.0852416492779
 20
126.8046450904051
 30
0.0
 10
188.003183558889
 20
126.9448565783346
 30
0.0
 10
187.9517582388047
 20
126.9867229293885
 30
0.0
 10
187.8328960097239
 20
127.0124980911717
 30
0.0
 10
187.7650445544056
 20
126.9974731922982
 30
0.0
 10
187.6881663346806
 20
126.9546532117013
 30
0.0
  0
LINE
  5
119
330
1F
100
AcDbEntity
  8
0
  6
HIDDEN
 62
     7
370
     0
100
AcDbLine
 10
187.6881663347
 20
100.7806843131
 30
0.0
 11
187.6881663347
 21
123.2274144241
 31
0.0
  0
SPLINE
  5
11A
330
1F
100
AcDbEntity
  8
0
  6
HIDDEN
 62
     7
370
     0
100
AcDbSpline
210
0.0
220
0.0
230
1.0
 70
     8
 71
     3
 72
    24
 73
    20
 74
     0
 42
0.000000001
 43
0.00000001
 40
0.0
 40
0.0
 40
0.0
 40
0.0
 40
0.1250000000000003
 40
0.1250000000000003
 40
0.2500000000000006
 40
0.2500000000000006
 40
0.3750000000000008
 40
0.3750000000000008
 40
0.437500000000001
 40
0.437500000000001
 40
0.5000000000000011
 40
0.5000000000000011
 40
0.6250000000000008
 40
0.6250000000000008
 40
0.7500000000000006
 40
0.7500000000000006
 40
0.8750000000000002
 40
0.8750000000000002
 40
1.0
 40
1.0
 40
1.0
 40
1.0
 10
187.6881663346806
 20
97.05344552554222
 30
0.0
 10
187.7650425138692
 20
97.01062668149252
 30
0.0
 10
187.8328985160383
 20
96.99559798404592
 30
0.0
 10
187.9517747637758
 20
97.02138259731046
 30
0.0
 10
188.0032117686733
 20
97.06329485093535
 30
0.0
 10
188.0852011526426
 20
97.20337996111809
 30
0.0
 10
188.1162034729445
 20
97.30079863322378
 30
0.0
 10
188.147751719259
 20
97.48929566631719
 30
0.0
 10
188.1557536914783
 20
97.559674883886
 30
0.0
 10
188.16628866671
 20
97.71163623412535
 30
0.0
 10
188.168897469925
 20
97.79346387932415
 30
0.0
 10
188.168915181981
 20
98.05616844238979
 30
0.0
 10
188.1583878631208
 20
98.25626475350478
 30
0.0
 10
188.1162915937641
 20
98.6944490715866
 30
0.0
 10
188.0852416492778
 20
98.92900096580183
 30
0.0
 10
188.003183558889
 20
99.42785627990212
 30
0.0
 10
187.9517582388047
 20
99.69314582783615
 30
0.0
 10
187.8328960097239
 20
100.2287983197057
 30
0.0
 10
187.7650445544056
 20
100.5020898110301
 30
0.0
 10
187.6881663346806
 20
100.7806843130953
 30
0.0
  0
LINE
  5
11B
330
1F
100
AcDbEntity
  8
0
  6
HIDDEN
 62
     7
370
     0
100
AcDbLine
 10
187.6881663347
 20
95.1835281749
 30
0.0
 11
187.6881663347
 21
97.0534455255
 31
0.0
  0
SPLINE
  5
11C
330
1F
100
AcDbEntity
  8
0
  6
HIDDEN
 62
     7
370
     0
100
AcDbSpline
210
0.0
220
0.0
230
1.0
 70
     8
 71
     3
 72
    11
 73
     7
 74
     0
 42
0.000000001
 43
0.00000001
 40
0.0
 40
0.0
 40
0.0
 40
0.0
 40
0.0005779865010846
 40
0.0005779865010846
 40
0.0005779865010846
 40
0.0011559733324422
 40
0.0011559733324422
 40
0.0011559733324422
 40
0.0011559733324422
 10
106.3381663346806
 20
114.0038899767817
 30
0.0
 10
106.5048335894866
 20
114.001906337441
 30
0.0
 10
106.6715000191643
 20
113.9998687304328
 30
0.0
 10
106.8381663576161
 20
113.9977572670267
 30
0.0
 10
107.0048327864425
 20
113.9956458024756
 30
0.0
 10
107.1714991600802
 20
113.9934602393195
 30
0.0
 10
107.3381663346806
 20
113.9911776619882
 30
0.0
  0
SPLINE
  5
11D
330
1F
100
AcDbEntity
  8
0
  6
HIDDEN
 62
     7
370
     0
100
AcDbSpline
210
0.0
220
0.0
230
1.0
 70
     8
 71
     3
 72
    11
 73
     7
 74
     0
 42
0.000000001
 43
0.00000001
 40
0.0
 40
0.0
 40
0.0
 40
0.0
 40
0.0005782382535738
 40
0.0005782382535738
 40
0.0005782382535738
 40
0.0011564766069467
 40
0.0011564766069467
 40
0.0011564766069467
 40
0.0011564766069467
 10
107.3381663346806
 20
110.0073490664035
 30
0.0
 10
107.171512380712
 20
110.0069114886419
 30
0.0
 10
107.00485170851
 20
110.0064314239695
 30
0.0
 10
106.8381848198446
 20
110.0059118846002
 30
0.0
 10
106.6715179014486
 20
110.0053923451381
 30
0.0
 10
106.5048447716153
 20
110.0048335161162
 30
0.0
 10
106.3381663346806
 20
110.0042479725331
 30
0.0
  0
LINE
  5
11E
330
1F
100
AcDbEntity
  8
0
  6
HIDDEN
 62
     7
370
     0
100
AcDbLine
 10
145.8979923032
 20
95.0040493686
 30
0.0
 11
145.8979923032
 21
129.0040493686
 31
0.0
  0
LINE
  5
11F
330
1F
100
AcDbEntity
  8
0
  6
HIDDEN
 62
     7
370
     0
100
AcDbLine
 10
148.1881663347
 20
96.2790493686
 30
0.0
 11
148.1881663347
 21
127.7290493595
 31
0.0
  0
SPLINE
  5
120
330
1F
100
AcDbEntity
  8
0
  6
HIDDEN
 62
     7
370
     0
100
AcDbSpline
210
0.0
220
0.0
230
1.0
 70
     8
 71
     3
 72
    16
 73
    12
 74
     0
 42
0.000000001
 43
0.00000001
 40
0.0
 40
0.0
 40
0.0
 40
0.0
 40
0.124999999999998
 40
0.124999999999998
 40
0.249999999999996
 40
0.249999999999996
 40
0.4999999999999973
 40
0.4999999999999973
 40
0.7499999999999987
 40
0.7499999999999987
 40
1.0
 40
1.0
 40
1.0
 40
1.0
 10
115.0381663346806
 20
96.20255893259011
 30
0.0
 10
115.1332880893465
 20
96.20255893259011
 30
0.0
 10
115.2266181580745
 20
96.1987430991973
 30
0.0
 10
115.4098799188125
 20
96.18397254646749
 30
0.0
 10
115.5007576343695
 20
96.1728144984919
 30
0.0
 10
115.7575593318893
 20
96.1303432283502
 30
0.0
 10
115.9126266967613
 20
96.0892970311474
 30
0.0
 10
116.1663731583159
 20
95.99415091456551
 30
0.0
 10
116.2672436099838
 20
95.93938818048392
 30
0.0
 10
116.4024900246786
 20
95.82812705658006
 30
0.0
 10
116.4381663346806
 20
95.77095731925137
 30
0.0
 10
116.4381663346806
 20
95.71653574621763
 30
0.0
  0
SPLINE
  5
121
330
1F
100
AcDbEntity
  8
0
  6
HIDDEN
 62
     7
370
     0
100
AcDbSpline
210
0.0
220
0.0
230
1.0
 70
     8
 71
     3
 72
     8
 73
     4
 74
     0
 42
0.000000001
 43
0.00000001
 40
0.0
 40
0.0
 40
0.0
 40
0.0
 40
1.0
 40
1.0
 40
1.0
 40
1.0
 10
107.6381663379615
 20
98.34736187867233
 30
0.0
 10
107.6381663379634
 20
97.4634647363554
 30
0.0
 10
107.624685712054
 20
96.74888149129345
 30
0.0
 10
107.6233343438647
 20
96.2025589325901
 30
0.0
  0
SPLINE
  5
122
330
1F
100
AcDbEntity
  8
0
  6
HIDDEN
 62
     7
370
     0
100
AcDbSpline
210
0.0
220
0.0
230
1.0
 70
     8
 71
     3
 72
    10
 73
     6
 74
     0
 42
0.000000001
 43
0.00000001
 40
0.0
 40
0.0
 40
0.0
 40
0.0
 40
0.5
 40
0.5
 40
1.0
 40
1.0
 40
1.0
 40
1.0
 10
107.3381663346806
 20
99.37227214432512
 30
0.0
 10
107.4295574503629
 20
99.19763335671583
 30
0.0
 10
107.5022092840884
 20
99.02403152946884
 30
0.0
 10
107.609708177084
 20
98.68041811047924
 30
0.0
 10
107.6381663379559
 20
98.51209228395619
 30
0.0
 10
107.6381663379615
 20
98.34736187873183
 30
0.0
  0
LINE
  5
123
330
1F
100
AcDbEntity
  8
0
  6
HIDDEN
 62
     7
370
     0
100
AcDbLine
 10
107.3381663347
 20
102.4032225764
 30
0.0
 11
107.3381663347
 21
99.3722721443
 31
0.0
  0
SPLINE
  5
124
330
1F
100
AcDbEntity
  8
0
  6
HIDDEN
 62
     7
370
     0
100
AcDbSpline
210
0.0
220
0.0
230
1.0
 70
     8
 71
     3
 72
    10
 73
     6
 74
     0
 42
0.000000001
 43
0.00000001
 40
0.0
 40
0.0
 40
0.0
 40
0.0
 40
0.5
 40
0.5
 40
1.0
 40
1.0
 40
1.0
 40
1.0
 10
107.6381663377658
 20
103.7710629929789
 30
0.0
 10
107.6381663377658
 20
103.5290790254076
 30
0.0
 10
107.6100163087055
 20
103.2947365964755
 30
0.0
 10
107.5064263946002
 20
102.8393615742595
 30
0.0
 10
107.4297976850351
 20
102.6177570111818
 30
0.0
 10
107.3381663346806
 20
102.403222576409
 30
0.0
  0
LINE
  5
125
330
1F
100
AcDbEntity
  8
0
  6
HIDDEN
 62
     7
370
     0
100
AcDbLine
 10
107.6381663378
 20
115.6086829902
 30
0.0
 11
107.6381663378
 21
103.7710629929
 31
0.0
  0
SPLINE
  5
126
330
1F
100
AcDbEntity
  8
0
  6
HIDDEN
 62
     7
370
     0
100
AcDbSpline
210
0.0
220
0.0
230
1.0
 70
     8
 71
     3
 72
     8
 73
     4
 74
     0
 42
0.000000001
 43
0.00000001
 40
0.0
 40
0.0
 40
0.0
 40
0.0
 40
1.0
 40
1.0
 40
1.0
 40
1.0
 10
107.3381663346806
 20
121.6109886895023
 30
0.0
 10
107.5191978011799
 20
121.178881203892
 30
0.0
 10
107.6381663377716
 20
120.7247357978524
 30
0.0
 10
107.6381663377659
 20
120.2370357442337
 30
0.0
  0
LINE
  5
127
330
1F
100
AcDbEntity
  8
0
  6
HIDDEN
 62
     7
370
     0
100
AcDbLine
 10
107.3381663347
 20
124.6441916757
 30
0.0
 11
107.3381663347
 21
121.6109886895
 31
0.0
  0
SPLINE
  5
128
330
1F
100
AcDbEntity
  8
0
  6
HIDDEN
 62
     7
370
     0
100
AcDbSpline
210
0.0
220
0.0
230
1.0
 70
     8
 71
     3
 72
    10
 73
     6
 74
     0
 42
0.000000001
 43
0.00000001
 40
0.0
 40
0.0
 40
0.0
 40
0.0
 40
0.5
 40
0.5
 40
1.0
 40
1.0
 40
1.0
 40
1.0
 10
107.638166338073
 20
125.6607368585416
 30
0.0
 10
107.6381663380712
 20
125.4961005119358
 30
0.0
 10
107.611007667316
 20
125.3289452881055
 30
0.0
 10
107.5052426719979
 20
124.9903222803044
 30
0.0
 10
107.4288278837008
 20
124.8180505030136
 30
0.0
 10
107.3381663346806
 20
124.6441916756698
 30
0.0
  0
SPLINE
  5
129
330
1F
100
AcDbEntity
  8
0
  6
HIDDEN
 62
     7
370
     0
100
AcDbSpline
210
0.0
220
0.0
230
1.0
 70
     8
 71
     3
 72
    18
 73
    14
 74
     0
 42
0.000000001
 43
0.00000001
 40
0.0
 40
0.0
 40
0.0
 40
0.0
 40
0.2500000000000033
 40
0.2500000000000033
 40
0.3750000000000029
 40
0.3750000000000029
 40
0.5000000000000026
 40
0.5000000000000026
 40
0.6250000000000022
 40
0.6250000000000022
 40
0.7500000000000018
 40
0.7500000000000018
 40
1.0
 40
1.0
 40
1.0
 40
1.0
 10
112.4381663346806
 20
128.2915629910259
 30
0.0
 10
112.4381663346806
 20
128.2370884704737
 30
0.0
 10
112.4032556432885
 20
128.1807074111212
 30
0.0
 10
112.3012463419554
 20
128.0966305702677
 30
0.0
 10
112.2596099872773
 20
128.0692968662768
 30
0.0
 10
112.1612041917885
 20
128.0163429506779
 30
0.0
 10
112.1036609800843
 20
127.9904555969607
 30
0.0
 10
111.9763628065113
 20
127.9426780521274
 30
0.0
 10
111.9067755017538
 20
127.9207301339495
 30
0.0
 10
111.7553412565989
 20
127.8812975690368
 30
0.0
 10
111.6726573535049
 20
127.8637413198109
 30
0.0
 10
111.4165458914669
 20
127.8213025543904
 30
0.0
 10
111.2286308875789
 20
127.8055398046534
 30
0.0
 10
111.0381663346806
 20
127.8055398046534
 30
0.0
  0
LINE
  5
12A
330
1F
100
AcDbEntity
  8
0
  6
HIDDEN
 62
     7
370
     0
100
AcDbLine
 10
111.0381663347
 20
127.8055398047
 30
0.0
 11
107.6381663381
 21
127.8055398047
 31
0.0
  0
LINE
  5
12B
330
1F
100
AcDbEntity
  8
0
  6
HIDDEN
 62
     7
370
     0
100
AcDbLine
 10
107.569197348
 20
96.2025589326
 30
0.0
 11
115.0381663347
 21
96.2025589326
 31
0.0
  0
SPLINE
  5
12C
330
1F
100
AcDbEntity
  8
0
  6
HIDDEN
 62
     7
370
     0
100
AcDbSpline
210
0.0
220
0.0
230
1.0
 70
     8
 71
     3
 72
    22
 73
    18
 74
     0
 42
0.000000001
 43
0.00000001
 40
0.0
 40
0.0
 40
0.0
 40
0.0
 40
0.125
 40
0.125
 40
0.25
 40
0.25
 40
0.5000000000000001
 40
0.5000000000000001
 40
0.5625000000000001
 40
0.5625000000000001
 40
0.6250000000000001
 40
0.6250000000000001
 40
0.75
 40
0.75
 40
0.875
 40
0.875
 40
1.0
 40
1.0
 40
1.0
 40
1.0
 10
107.5691973480385
 20
96.20255893259011
 30
0.0
 10
107.5561149553102
 20
96.45766464273778
 30
0.0
 10
107.5428953918703
 20
96.75082290184169
 30
0.0
 10
107.5204482140762
 20
97.4131233674665
 30
0.0
 10
107.5109697470517
 20
97.78339728807788
 30
0.0
 10
107.4917717861152
 20
99.00595409119165
 30
0.0
 10
107.4928855591121
 20
99.94309301732353
 30
0.0
 10
107.5117963520652
 20
101.2629642468385
 30
0.0
 10
107.5164258799242
 20
101.5344661558148
 30
0.0
 10
107.5269070996701
 20
102.0928509906171
 30
0.0
 10
107.5327023609545
 20
102.3799738465567
 30
0.0
 10
107.5510115818595
 20
103.2525631009284
 30
0.0
 10
107.5650465161398
 20
103.8530187772843
 30
0.0
 10
107.5945036882767
 20
105.0904932697803
 30
0.0
 10
107.6100593792583
 20
105.7275094264238
 30
0.0
 10
107.6338539292552
 20
107.0389980241084
 30
0.0
 10
107.6418729814005
 20
107.7151206357689
 30
0.0
 10
107.6381663346806
 20
108.3994157470537
 30
0.0
  0
LINE
  5
12D
330
1F
100
AcDbEntity
  8
0
  6
HIDDEN
 62
     7
370
     0
100
AcDbLine
 10
107.6381663381
 20
115.6086829902
 30
0.0
 11
107.6381663381
 21
127.8055398047
 31
0.0
  0
SPLINE
  5
12E
330
1F
100
AcDbEntity
  8
0
  6
HIDDEN
 62
     7
370
     0
100
AcDbSpline
210
0.0
220
0.0
230
1.0
 70
     8
 71
     3
 72
    10
 73
     6
 74
     0
 42
0.000000001
 43
0.00000001
 40
0.0
 40
0.0
 40
0.0
 40
0.0
 40
0.5
 40
0.5
 40
1.0
 40
1.0
 40
1.0
 40
1.0
 10
107.6381663346806
 20
108.3994157470386
 30
0.0
 10
107.6381663346804
 20
108.6733308951127
 30
0.0
 10
107.6124071048116
 20
108.9442724738423
 30
0.0
 10
107.5092011720782
 20
109.4799635554444
 30
0.0
 10
107.4318630082038
 20
109.7457103589662
 30
0.0
 10
107.3381663346806
 20
110.0073490664035
 30
0.0
  0
SPLINE
  5
12F
330
1F
100
AcDbEntity
  8
0
  6
HIDDEN
 62
     7
370
     0
100
AcDbSpline
210
0.0
220
0.0
230
1.0
 70
     8
 71
     3
 72
    10
 73
     6
 74
     0
 42
0.000000001
 43
0.00000001
 40
0.0
 40
0.0
 40
0.0
 40
0.0
 40
0.5
 40
0.5
 40
1.0
 40
1.0
 40
1.0
 40
1.0
 10
107.3381663346806
 20
113.9911776619882
 30
0.0
 10
107.4313969160714
 20
114.255071470058
 30
0.0
 10
107.5064265283079
 20
114.521251780696
 30
0.0
 10
107.6114936274858
 20
115.0595743556535
 30
0.0
 10
107.6381663380718
 20
115.3323224718988
 30
0.0
 10
107.638166338073
 20
115.6086829901889
 30
0.0
  0
LINE
  5
130
330
1F
100
AcDbEntity
  8
0
  6
HIDDEN
 62
     7
370
     0
100
AcDbLine
 10
107.3381663347
 20
110.0073490664
 30
0.0
 11
107.3381663347
 21
113.991177662
 31
0.0
  0
LINE
  5
131
330
1F
100
AcDbEntity
  8
0
  6
HIDDEN
 62
     7
370
     0
100
AcDbLine
 10
184.3881663347
 20
103.9723932505
 30
0.0
 11
184.3881663347
 21
120.0357054868
 31
0.0
  0
LINE
  5
132
330
1F
100
AcDbEntity
  8
0
  6
HIDDEN
 62
     7
370
     0
100
AcDbLine
 10
183.3881663347
 20
100.0040493686
 30
0.0
 11
183.3881663347
 21
124.0040493686
 31
0.0
  0
LINE
  5
133
330
1F
100
AcDbEntity
  8
0
  6
HIDDEN
 62
     7
370
     0
100
AcDbLine
 10
184.3881663347
 20
97.151983304
 30
0.0
 11
187.6881663347
 21
97.151983304
 31
0.0
  0
LINE
  5
134
330
1F
100
AcDbEntity
  8
0
  6
HIDDEN
 62
     7
370
     0
100
AcDbLine
 10
187.6881663347
 20
97.151983304
 30
0.0
 11
187.6881663347
 21
97.0534455255
 31
0.0
  0
LINE
  5
135
330
1F
100
AcDbEntity
  8
0
  6
HIDDEN
 62
     7
370
     0
100
AcDbLine
 10
184.3881663347
 20
101.2040493686
 30
0.0
 11
184.3881663347
 21
97.0040493686
 31
0.0
  0
LINE
  5
136
330
1F
100
AcDbEntity
  8
0
  6
HIDDEN
 62
     7
370
     0
100
AcDbLine
 10
184.3881663347
 20
120.0357054868
 30
0.0
 11
187.6881663347
 21
120.0357054868
 31
0.0
  0
LINE
  5
137
330
1F
100
AcDbEntity
  8
0
  6
HIDDEN
 62
     7
370
     0
100
AcDbLine
 10
184.3881663347
 20
122.8040493686
 30
0.0
 11
184.3881663347
 21
120.0357054868
 31
0.0
  0
LINE
  5
138
330
1F
100
AcDbEntity
  8
0
  6
HIDDEN
 62
     7
370
     0
100
AcDbLine
 10
187.6881663347
 20
126.9546532117
 30
0.0
 11
187.6881663347
 21
126.8561154333
 31
0.0
  0
LINE
  5
139
330
1F
100
AcDbEntity
  8
0
  6
HIDDEN
 62
     7
370
     0
100
AcDbLine
 10
184.3881663347
 20
126.8561154333
 30
0.0
 11
187.6881663347
 21
126.8561154333
 31
0.0
  0
LINE
  5
13A
330
1F
100
AcDbEntity
  8
0
  6
HIDDEN
 62
     7
370
     0
100
AcDbLine
 10
184.3881663347
 20
127.0040493686
 30
0.0
 11
184.3881663347
 21
122.8040493686
 31
0.0
  0
LINE
  5
13B
330
1F
100
AcDbEntity
  8
0
  6
HIDDEN
 62
     7
370
     0
100
AcDbLine
 10
187.6881663347
 20
103.9723932505
 30
0.0
 11
184.3881663347
 21
103.9723932505
 31
0.0
  0
LINE
  5
13C
330
1F
100
AcDbEntity
  8
0
  6
HIDDEN
 62
     7
370
     0
100
AcDbLine
 10
184.3881663347
 20
103.9723932505
 30
0.0
 11
184.3881663347
 21
101.2040493686
 31
0.0
  0
LINE
  5
13D
330
1F
100
AcDbEntity
  8
0
  6
HIDDEN
 62
     7
370
     0
100
AcDbLine
 10
163.2381663347
 20
100.3040493686
 30
0.0
 11
163.2381663347
 21
123.7040493654
 31
0.0
  0
LINE
  5
13E
330
1F
100
AcDbEntity
  8
0
  6
HIDDEN
 62
     7
370
     0
100
AcDbLine
 10
165.7381663347
 20
100.0040493686
 30
0.0
 11
165.7381663347
 21
124.0040493686
 31
0.0
  0
LINE
  5
13F
330
1F
100
AcDbEntity
  8
0
  6
HIDDEN
 62
     7
370
     0
100
AcDbLine
 10
107.4881663347
 20
94.0140493686
 30
0.0
 11
107.4881663347
 21
91.1341116032
 31
0.0
  0
LINE
  5
140
330
1F
100
AcDbEntity
  8
0
  6
HIDDEN
 62
     7
370
     0
100
AcDbLine
 10
116.4381663347
 20
94.0140493686
 30
0.0
 11
116.4381663347
 21
90.0403118374
 31
0.0
  0
LINE
  5
141
330
1F
100
AcDbEntity
  8
0
  6
HIDDEN
 62
     7
370
     0
100
AcDbLine
 10
107.4881663347
 20
129.9940493686
 30
0.0
 11
107.4881663347
 21
132.873987134
 31
0.0
  0
LINE
  5
142
330
1F
100
AcDbEntity
  8
0
  6
HIDDEN
 62
     7
370
     0
100
AcDbLine
 10
112.4381663347
 20
129.9940493686
 30
0.0
 11
112.4381663347
 21
133.848157041
 31
0.0
  0
LINE
  5
143
330
1F
100
AcDbEntity
  8
0
  6
HIDDEN
 62
     7
370
     0
100
AcDbLine
 10
157.0381663347
 20
102.5040493686
 30
0.0
 11
157.0381663347
 21
121.5040493686
 31
0.0
  0
LINE
  5
144
330
1F
100
AcDbEntity
  8
0
  6
HIDDEN
 62
     7
370
     0
100
AcDbLine
 10
160.0381663347
 20
102.5040493686
 30
0.0
 11
160.0381663347
 21
121.5040493686
 31
0.0
  0
LINE
  5
145
330
1F
100
AcDbEntity
  8
0
  6
HIDDEN
 62
     7
370
     0
100
AcDbLine
 10
148.6881663347
 20
103.5040493686
 30
0.0
 11
148.6881663347
 21
120.5040493686
 31
0.0
  0
LINE
  5
146
330
1F
100
AcDbEntity
  8
0
  6
HIDDEN
 62
     7
370
     0
100
AcDbLine
 10
154.425841137
 20
85.6040493686
 30
0.0
 11
151.1881663347
 21
85.6040493686
 31
0.0
  0
LINE
  5
147
330
1F
100
AcDbEntity
  8
0
  6
HIDDEN
 62
     7
370
     0
100
AcDbLine
 10
143.1881663347
 20
80.5199263858
 30
0.0
 11
143.1881663347
 21
85.6040493686
 31
0.0
  0
LINE
  5
148
330
1F
100
AcDbEntity
  8
0
  6
HIDDEN
 62
     7
370
     0
100
AcDbLine
 10
151.1881663347
 20
85.6040493686
 30
0.0
 11
143.1881663347
 21
85.6040493686
 31
0.0
  0
LINE
  5
149
330
1F
100
AcDbEntity
  8
0
  6
HIDDEN
 62
     7
370
     0
100
AcDbLine
 10
164.1881663347
 20
85.6040493686
 30
0.0
 11
158.0504915323
 21
85.6040493686
 31
0.0
  0
LINE
  5
14A
330
1F
100
AcDbEntity
  8
0
  6
HIDDEN
 62
     7
370
     0
100
AcDbLine
 10
164.1881663347
 20
138.4040493686
 30
0.0
 11
157.753868803
 21
138.4040493686
 31
0.0
  0
LINE
  5
14B
330
1F
100
AcDbEntity
  8
0
  6
HIDDEN
 62
     7
370
     0
100
AcDbLine
 10
151.1881663347
 20
138.4040493686
 30
0.0
 11
143.1881663347
 21
138.4040493686
 31
0.0
  0
LINE
  5
14C
330
1F
100
AcDbEntity
  8
0
  6
HIDDEN
 62
     7
370
     0
100
AcDbLine
 10
154.7224638664
 20
138.4040493686
 30
0.0
 11
151.1881663347
 21
138.4040493686
 31
0.0
  0
SPLINE
  5
14D
330
1F
100
AcDbEntity
  8
0
  6
HIDDEN
 62
     7
370
     0
100
AcDbSpline
210
0.0
220
0.0
230
1.0
 70
     8
 71
     3
 72
    11
 73
     7
 74
     0
 42
0.000000001
 43
0.00000001
 40
0.0
 40
0.0
 40
0.0
 40
0.0
 40
0.0008203708524183
 40
0.0008203708524183
 40
0.0008203708524183
 40
0.0016409967870154
 40
0.0016409967870154
 40
0.0016409967870154
 40
0.0016409967870154
 10
107.4881663346806
 20
96.15201661797903
 30
0.0
 10
107.297008034382
 20
96.1108375893599
 30
0.0
 10
107.1055809643098
 20
96.0720836171299
 30
0.0
 10
106.9139353407892
 20
96.03571585785137
 30
0.0
 10
106.7222299357087
 20
95.99933675408533
 30
0.0
 10
106.5302909836497
 20
95.96534250331777
 30
0.0
 10
106.3381663365789
 20
95.93369437792657
 30
0.0
  0
ELLIPSE
  5
14E
330
1F
100
AcDbEntity
  8
0
  6
HIDDEN
 62
     7
370
     0
100
AcDbEllipse
 10
102.0957344661
 20
112.0040493686
 30
0.0
 11
20.19992453367506
 21
-1.421085471520200E-14
 31
0.0
210
0.0
220
0.0
230
1.0
 40
0.8164965809
 41
1.300566354717478
 42
1.359198697209065
  0
LINE
  5
14F
330
1F
100
AcDbEntity
  8
0
  6
HIDDEN
 62
     7
370
     0
100
AcDbLine
 10
184.3881663347
 20
128.5290493686
 30
0.0
 11
184.3881663347
 21
127.0040493686
 31
0.0
  0
LINE
  5
150
330
1F
100
AcDbEntity
  8
0
  6
HIDDEN
 62
     7
370
     0
100
AcDbLine
 10
184.3881663347
 20
97.0040493686
 30
0.0
 11
184.3881663347
 21
95.4790493686
 31
0.0
  0
LINE
  5
151
330
1F
100
AcDbEntity
  8
0
  6
HIDDEN
 62
     7
370
     0
100
AcDbLine
 10
107.4881663347
 20
94.0140493686
 30
0.0
 11
107.4881663347
 21
96.152016618
 31
0.0
  0
LINE
  5
152
330
1F
100
AcDbEntity
  8
0
  6
HIDDEN
 62
     7
370
     0
100
AcDbLine
 10
107.569197348
 20
96.2025589326
 30
0.0
 11
107.4881663347
 21
96.152016618
 31
0.0
  0
LINE
  5
153
330
1F
100
AcDbEntity
  8
0
  6
HIDDEN
 62
     7
370
     0
100
AcDbLine
 10
116.4381663347
 20
94.0140493686
 30
0.0
 11
116.4381663347
 21
95.7165357462
 31
0.0
  0
LINE
  5
154
330
1F
100
AcDbEntity
  8
0
  6
HIDDEN
 62
     7
370
     0
100
AcDbLine
 10
107.4881663347
 20
129.9940493686
 30
0.0
 11
107.4881663347
 21
127.8986738197
 31
0.0
  0
SPLINE
  5
155
330
1F
100
AcDbEntity
  8
0
  6
HIDDEN
 62
     7
370
     0
100
AcDbSpline
210
0.0
220
0.0
230
1.0
 70
     8
 71
     3
 72
     8
 73
     4
 74
     0
 42
0.000000001
 43
0.00000001
 40
0.0
 40
0.0
 40
0.0
 40
0.0
 40
1.0
 40
1.0
 40
1.0
 40
1.0
 10
107.4881663346806
 20
127.8986738196799
 30
0.0
 10
107.5381718336241
 20
127.867638045461
 30
0.0
 10
107.5881719042882
 20
127.8365934004336
 30
0.0
 10
107.638166338073
 20
127.8055398046534
 30
0.0
  0
LINE
  5
156
330
1F
100
AcDbEntity
  8
0
  6
HIDDEN
 62
     7
370
     0
100
AcDbLine
 10
112.4381663347
 20
129.9940493686
 30
0.0
 11
112.4381663347
 21
128.291562991
 31
0.0
  0
SPLINE
  5
157
330
1F
100
AcDbEntity
  8
0
  6
HIDDEN
 62
     7
370
     0
100
AcDbSpline
210
0.0
220
0.0
230
1.0
 70
     8
 71
     3
 72
    27
 73
    23
 74
     0
 42
0.000000001
 43
0.00000001
 40
0.0
 40
0.0
 40
0.0
 40
0.0
 40
0.0524647737014976
 40
0.1118318042193104
 40
0.1772303947798592
 40
0.212263207947123
 40
0.2488314958356123
 40
0.3294313051488927
 40
0.3980771112373769
 40
0.4372258846582693
 40
0.4710490871543096
 40
0.4995558799518658
 40
0.5540498001580324
 40
0.6137899246923358
 40
0.678835899560656
 40
0.7134145972365364
 40
0.7493416491383078
 40
0.8293400810909133
 40
0.897657765706231
 40
0.9542808765697511
 40
0.9992067187733356
 40
0.9999999999999999
 40
0.9999999999999999
 40
0.9999999999999999
 40
0.9999999999999999
 10
132.9872409891319
 20
88.40401769918235
 30
0.0
 10
132.9776074719501
 20
88.40712642245833
 30
0.0
 10
132.9570730536842
 20
88.41375285212237
 30
0.0
 10
132.7706821231622
 20
88.46353034220108
 30
0.0
 10
132.4957920917857
 20
88.5272390277848
 30
0.0
 10
132.1876502223986
 20
88.5931269489328
 30
0.0
 10
131.7945312752436
 20
88.67560980228122
 30
0.0
 10
131.218167773599
 20
88.77796520041649
 30
0.0
 10
130.544954373223
 20
88.87050772093586
 30
0.0
 10
130.0090987932764
 20
88.9320906499887
 30
0.0
 10
129.6153657204785
 20
88.97030413237076
 30
0.0
 10
129.1571890954373
 20
89.00412797335575
 30
0.0
 10
128.5947793478188
 20
89.02370631256684
 30
0.0
 10
127.9094338865051
 20
89.02463494361919
 30
0.0
 10
127.3427615104346
 20
89.00644742142647
 30
0.0
 10
126.9066721845941
 20
88.98159490476036
 30
0.0
 10
126.4632236194454
 20
88.94561162230012
 30
0.0
 10
126.0131281662155
 20
88.90012995692072
 30
0.0
 10
125.6713144497736
 20
88.8582772942263
 30
0.0
 10
125.5255495847056
 20
88.83465554923268
 30
0.0
 10
125.4761289744083
 20
88.82283429235012
 30
0.0
 10
125.4886088218793
 20
88.82552553641757
 30
0.0
 10
125.4888253620919
 20
88.82557223270646
 30
0.0
  0
SPLINE
  5
158
330
1F
100
AcDbEntity
  8
0
  6
HIDDEN
 62
     7
370
     0
100
AcDbSpline
210
0.0
220
0.0
230
1.0
 70
     8
 71
     3
 72
    27
 73
    23
 74
     0
 42
0.000000001
 43
0.00000001
 40
0.0
 40
0.0
 40
0.0
 40
0.0
 40
0.0008362827934227
 40
0.0457190777533746
 40
0.1023011006532881
 40
0.1705796218651419
 40
0.2091715375854272
 40
0.2506990387104453
 40
0.32114526083593
 40
0.3862394062262217
 40
0.4267188115997889
 40
0.4648503052296578
 40
0.5006548480306122
 40
0.5452468940437799
 40
0.6017415069492902
 40
0.6701479135988849
 40
0.7088854882287082
 40
0.7506144971518689
 40
0.8222795351122922
 40
0.8878193737630728
 40
0.9472935045159963
 40
1.0
 40
1.0
 40
1.0
 40
1.0
 10
125.4888572778105
 20
135.1824586748377
 30
0.0
 10
125.4886271922244
 20
135.1825082755458
 30
0.0
 10
125.4760485515045
 20
135.1852199164479
 30
0.0
 10
125.5251170440782
 20
135.1733896511671
 30
0.0
 10
125.6702322995853
 20
135.1499429539662
 30
0.0
 10
125.943281131268
 20
135.1160395793449
 30
0.0
 10
126.2718081493672
 20
135.0824706571844
 30
0.0
 10
126.6645357696256
 20
135.0442873520749
 30
0.0
 10
127.2142638062099
 20
135.0053186649787
 30
0.0
 10
127.840286434396
 20
134.9858575643068
 30
0.0
 10
128.3834779472301
 20
134.9836718857138
 30
0.0
 10
128.8285468432687
 20
134.9921867668731
 30
0.0
 10
129.2949946404799
 20
135.0119701636808
 30
0.0
 10
129.8322352896859
 20
135.0561325488883
 30
0.0
 10
130.4804487249482
 20
135.1285481697515
 30
0.0
 10
131.0659873402821
 20
135.2094502590822
 30
0.0
 10
131.5469569895928
 20
135.2876162564687
 30
0.0
 10
131.9923717362094
 20
135.3723883568701
 30
0.0
 10
132.4308724145116
 20
135.4661716450235
 30
0.0
 10
132.7698941876123
 20
135.5440745173534
 30
0.0
 10
132.957210521416
 20
135.5942594294346
 30
0.0
 10
132.9776989960781
 20
135.6009251042631
 30
0.0
 10
132.9873252188357
 20
135.6040568781891
 30
0.0
  0
SPLINE
  5
159
330
1F
100
AcDbEntity
  8
0
  6
HIDDEN
 62
     7
370
     0
100
AcDbSpline
210
0.0
220
0.0
230
1.0
 70
     8
 71
     3
 72
     8
 73
     4
 74
     0
 42
0.000000001
 43
0.00000001
 40
0.0
 40
0.0
 40
0.0
 40
0.0
 40
0.0001590976953043
 40
0.0001590976953043
 40
0.0001590976953043
 40
0.0001590976953043
 10
107.6233343438647
 20
96.20255893259011
 30
0.0
 10
107.5782828733717
 20
96.17458004827262
 30
0.0
 10
107.5332268349682
 20
96.14660851790383
 30
0.0
 10
107.4881663346806
 20
96.11864417855759
 30
0.0
  0
SPLINE
  5
15A
330
1F
100
AcDbEntity
  8
0
  6
HIDDEN
 62
     7
370
     0
100
AcDbSpline
210
0.0
220
0.0
230
1.0
 70
     8
 71
     3
 72
    11
 73
     7
 74
     0
 42
0.000000001
 43
0.00000001
 40
0.0
 40
0.0
 40
0.0
 40
0.0
 40
0.000821290931147
 40
0.000821290931147
 40
0.000821290931147
 40
0.0016428257243086
 40
0.0016428257243086
 40
0.0016428257243086
 40
0.0016428257243086
 10
107.4881663346806
 20
96.11864417855759
 30
0.0
 10
107.2970213131985
 20
96.07535798970197
 30
0.0
 10
107.105602977522
 20
96.03442148006161
 30
0.0
 10
106.9139569028609
 20
95.99581970867189
 30
0.0
 10
106.7222538213193
 20
95.95720645483165
 30
0.0
 10
106.5303086980337
 20
95.92092624554243
 30
0.0
 10
106.3381663346805
 20
95.8869593391877
 30
0.0
  0
LINE
  5
15B
330
1F
100
AcDbEntity
  8
0
  6
HIDDEN
 62
     7
370
     0
100
AcDbLine
 10
154.3281663347
 20
132.1399160001
 30
0.0
 11
154.3281663347
 21
131.8540493686
 31
0.0
  0
LINE
  5
15C
330
1F
100
AcDbEntity
  8
0
  6
HIDDEN
 62
     7
370
     0
100
AcDbLine
 10
158.1481663347
 20
132.1399160001
 30
0.0
 11
158.1481663347
 21
131.8540493686
 31
0.0
  0
LINE
  5
15D
330
1F
100
AcDbEntity
  8
0
  6
HIDDEN
 62
     7
370
     0
100
AcDbLine
 10
159.6300991662
 20
136.462739031
 30
0.0
 11
159.6300991662
 21
131.8540493686
 31
0.0
  0
SPLINE
  5
15E
330
1F
100
AcDbEntity
  8
0
  6
HIDDEN
 62
     7
370
     0
100
AcDbSpline
210
0.0
220
0.0
230
1.0
 70
     8
 71
     3
 72
    11
 73
     7
 74
     0
 42
0.000000001
 43
0.00000001
 40
0.0000000000000004
 40
0.0000000000000004
 40
0.0000000000000004
 40
0.0000000000000004
 40
0.0005781862223981
 40
0.0005781862223981
 40
0.0005781862223981
 40
0.0011563724723932
 40
0.0011563724723932
 40
0.0011563724723932
 40
0.0011563724723932
 10
107.3381663346809
 20
124.6441916756746
 30
0.0
 10
107.1715057804052
 20
124.708721187088
 30
0.0
 10
107.0048424834987
 20
124.7732238909267
 30
0.0
 10
106.8381758996684
 20
124.8377103393601
 30
0.0
 10
106.6715093074093
 20
124.9021967910548
 30
0.0
 10
106.5048394417834
 20
124.9666667997827
 30
0.0
 10
106.3381663346806
 20
125.0311225665151
 30
0.0
  0
SPLINE
  5
15F
330
1F
100
AcDbEntity
  8
0
  6
HIDDEN
 62
     7
370
     0
100
AcDbSpline
210
0.0
220
0.0
230
1.0
 70
     8
 71
     3
 72
    11
 73
     7
 74
     0
 42
0.000000001
 43
0.00000001
 40
0.0000000000000001
 40
0.0000000000000001
 40
0.0000000000000001
 40
0.0000000000000001
 40
0.0005778746105124
 40
0.0005778746105124
 40
0.0005778746105124
 40
0.0011557494857259
 40
0.0011557494857259
 40
0.0011557494857259
 40
0.0011557494857259
 10
106.3381663346806
 20
98.9768275131319
 30
0.0
 10
106.5048332110939
 20
99.04263963981697
 30
0.0
 10
106.6714999306554
 20
99.10849811994596
 30
0.0
 10
106.838166578704
 20
99.17440569286815
 30
0.0
 10
107.0048333032227
 20
99.24031329603007
 30
0.0
 10
107.1714999976433
 20
99.30627040441037
 30
0.0
 10
107.3381663346806
 20
99.37227214432512
 30
0.0
  0
SPLINE
  5
160
330
1F
100
AcDbEntity
  8
0
  6
HIDDEN
 62
     7
370
     0
100
AcDbSpline
210
0.0
220
0.0
230
1.0
 70
     8
 71
     3
 72
    11
 73
     7
 74
     0
 42
0.000000001
 43
0.00000001
 40
0.0000000000000006
 40
0.0000000000000006
 40
0.0000000000000006
 40
0.0000000000000006
 40
0.0005780486062825
 40
0.0005780486062825
 40
0.0005780486062825
 40
0.0011560973514241
 40
0.0011560973514241
 40
0.0011560973514241
 40
0.0011560973514241
 10
106.3381663346806
 20
121.9848638703135
 30
0.0
 10
106.5048361907255
 20
121.9224920087666
 30
0.0
 10
106.6715038948097
 20
121.860138148437
 30
0.0
 10
106.8381701992634
 20
121.7978185882197
 30
0.0
 10
107.0048365399571
 20
121.7354990144515
 30
0.0
 10
107.1715014965859
 20
121.6732138101012
 30
0.0
 10
107.3381663346806
 20
121.6109886895023
 30
0.0
  0
SPLINE
  5
161
330
1F
100
AcDbEntity
  8
0
  6
HIDDEN
 62
     7
370
     0
100
AcDbSpline
210
0.0
220
0.0
230
1.0
 70
     8
 71
     3
 72
    11
 73
     7
 74
     0
 42
0.000000001
 43
0.00000001
 40
0.0
 40
0.0
 40
0.0
 40
0.0
 40
0.0005782401583596
 40
0.0005782401583596
 40
0.0005782401583596
 40
0.0011564805961119
 40
0.0011564805961119
 40
0.0011564805961119
 40
0.0011564805961119
 10
107.3381663346806
 20
102.403222576409
 30
0.0
 10
107.1715153843317
 20
102.3397971183191
 30
0.0
 10
107.004855791749
 20
102.2764415946339
 30
0.0
 10
106.8381887393205
 20
102.2131440102531
 30
0.0
 10
106.6715216027567
 20
102.1498463939191
 30
0.0
 10
106.5048469953106
 20
102.0866065989467
 30
0.0
 10
106.3381663346806
 20
102.0234065922752
 30
0.0
  0
CIRCLE
  5
162
330
1F
100
AcDbEntity
  8
0
  6
HIDDEN
 62
     7
370
     0
100
AcDbCircle
 10
145.2381663347
 20
112.0040493686
 30
0.0
 40
5.0
  0
LINE
  5
163
330
1F
100
AcDbEntity
  8
0
  6
HIDDEN
 62
     7
370
     0
100
AcDbLine
 10
138.2381663347
 20
86.6801182226
 30
0.0
 11
138.3323271102
 21
87.3501069539
 31
0.0
  0
LINE
  5
164
330
1F
100
AcDbEntity
  8
0
  6
HIDDEN
 62
     7
370
     0
100
AcDbLine
 10
138.3323271102
 20
136.6579917834
 30
0.0
 11
138.2381663347
 21
137.3279805146
 31
0.0
  0
ARC
  5
165
330
1F
100
AcDbEntity
  8
0
  6
HIDDEN
 62
     7
370
     0
100
AcDbCircle
 10
137.738159582
 20
87.4336117542
 30
0.0
 40
0.6000067526677242
100
AcDbArc
 50
352.0
 51
0.0
  0
ARC
  5
166
330
1F
100
AcDbEntity
  8
0
  6
HIDDEN
 62
     7
370
     0
100
AcDbCircle
 10
137.738159582
 20
87.4336117542
 30
0.0
 40
0.6000067526677242
100
AcDbArc
 50
0.0
 51
33.5571153394
  0
ARC
  5
167
330
1F
100
AcDbEntity
  8
0
  6
HIDDEN
 62
     7
370
     0
100
AcDbCircle
 10
137.738159582
 20
136.574486983
 30
0.0
 40
0.6000067526677308
100
AcDbArc
 50
348.75
 51
8.0
  0
LWPOLYLINE
  5
168
330
1F
100
AcDbEntity
  8
0
  6
HIDDEN
 62
     7
370
     0
100
AcDbPolyline
 90
        3
 70
   128
 43
0.0
 10
138.3266373732
 20
136.4574314724
 10
138.2924935402
 20
136.3448743395
 10
138.2381663347
 20
136.242822468
  0
LINE
  5
169
330
1F
100
AcDbEntity
  8
0
  6
HIDDEN
 62
     7
370
     0
100
AcDbLine
 10
138.3381663347
 20
87.4336117542
 30
0.0
 11
138.3381663347
 21
136.574486983
 31
0.0
  0
ARC
  5
16A
330
1F
100
AcDbEntity
  8
0
  6
HIDDEN
 62
     7
370
     0
100
AcDbCircle
 10
121.3206019
 20
92.6040493686
 30
0.0
 40
0.5999999999999943
100
AcDbArc
 50
210.0
 51
270.0
  0
ARC
  5
16B
330
1F
100
AcDbEntity
  8
0
  6
HIDDEN
 62
     7
370
     0
100
AcDbCircle
 10
121.3206019
 20
131.4040493686
 30
0.0
 40
0.5999999999999943
100
AcDbArc
 50
90.0
 51
150.0
  0
ARC
  5
16C
330
1F
100
AcDbEntity
  8
0
  6
HIDDEN
 62
     7
370
     0
100
AcDbCircle
 10
131.9931683363
 20
100.0040493686
 30
0.0
 40
7.999999999999993
100
AcDbArc
 50
276.8806615008
 51
321.3178125465
  0
ARC
  5
16D
330
1F
100
AcDbEntity
  8
0
  6
HIDDEN
 62
     7
370
     0
100
AcDbCircle
 10
131.9931683363
 20
124.0040493686
 30
0.0
 40
8.000000000000002
100
AcDbArc
 50
38.6821874535
 51
83.1214646111
  0
LINE
  5
16E
330
1F
100
AcDbEntity
  8
0
  6
HIDDEN
 62
     7
370
     0
100
AcDbLine
 10
121.3206019
 20
92.0040493686
 30
0.0
 11
125.5122737882
 21
92.0040493686
 31
0.0
  0
LINE
  5
16F
330
1F
100
AcDbEntity
  8
0
  6
HIDDEN
 62
     7
370
     0
100
AcDbLine
 10
125.5122737882
 20
132.0040493686
 30
0.0
 11
121.3206019
 21
132.0040493686
 31
0.0
  0
LINE
  5
170
330
1F
100
AcDbEntity
  8
0
  6
HIDDEN
 62
     7
370
     0
100
AcDbLine
 10
120.8009866577
 20
131.7040493686
 30
0.0
 11
119.2421409309
 21
129.0040493686
 31
0.0
  0
LINE
  5
171
330
1F
100
AcDbEntity
  8
0
  6
HIDDEN
 62
     7
370
     0
100
AcDbLine
 10
119.2421409309
 20
95.0040493686
 30
0.0
 11
120.8009866577
 21
92.3040493686
 31
0.0
  0
LINE
  5
172
330
1F
100
AcDbEntity
  8
0
  6
HIDDEN
 62
     7
370
     0
100
AcDbLine
 10
188.2381663347
 20
130.0040493686
 30
0.0
 11
187.6881663347
 21
128.8245705623
 31
0.0
  0
LINE
  5
173
330
1F
100
AcDbEntity
  8
0
  6
HIDDEN
 62
     7
370
     0
100
AcDbLine
 10
187.6881663347
 20
95.1835281749
 30
0.0
 11
188.2381663347
 21
94.0040493686
 31
0.0
  0
ARC
  5
174
330
1F
100
AcDbEntity
  8
0
  6
HIDDEN
 62
     7
370
     0
100
AcDbCircle
 10
146.6881663347
 20
96.2790493686
 30
0.0
 40
1.500000000000001
100
AcDbArc
 50
238.2116693829
 51
0.0
  0
ARC
  5
175
330
1F
100
AcDbEntity
  8
0
  6
HIDDEN
 62
     7
370
     0
100
AcDbCircle
 10
146.6881663347
 20
127.7290493686
 30
0.0
 40
1.500000000000001
100
AcDbArc
 50
0.0
 51
121.7883306171
  0
LINE
  5
176
330
1F
100
AcDbEntity
  8
0
  6
HIDDEN
 62
     7
370
     0
100
AcDbLine
 10
138.2381663347
 20
95.0040493686
 30
0.0
 11
145.8979923032
 21
95.0040493686
 31
0.0
  0
LINE
  5
177
330
1F
100
AcDbEntity
  8
0
  6
HIDDEN
 62
     7
370
     0
100
AcDbLine
 10
145.8979923032
 20
129.0040493686
 30
0.0
 11
138.2381663347
 21
129.0040493686
 31
0.0
  0
LINE
  5
178
330
1F
100
AcDbEntity
  8
0
  6
HIDDEN
 62
     7
370
     0
100
AcDbLine
 10
116.4381663347
 20
95.0040493686
 30
0.0
 11
119.2421409309
 21
95.0040493686
 31
0.0
  0
LINE
  5
179
330
1F
100
AcDbEntity
  8
0
  6
HIDDEN
 62
     7
370
     0
100
AcDbLine
 10
119.2421409309
 20
129.0040493686
 30
0.0
 11
112.4381663347
 21
129.0040493686
 31
0.0
  0
LINE
  5
17A
330
1F
100
AcDbEntity
  8
0
  6
HIDDEN
 62
     7
370
     0
100
AcDbLine
 10
184.3881663347
 20
124.5813996378
 30
0.0
 11
183.3881663347
 21
124.0040493686
 31
0.0
  0
LINE
  5
17B
330
1F
100
AcDbEntity
  8
0
  6
HIDDEN
 62
     7
370
     0
100
AcDbLine
 10
183.3881663347
 20
100.0040493686
 30
0.0
 11
184.3881663347
 21
99.4266990994
 31
0.0
  0
LINE
  5
17C
330
1F
100
AcDbEntity
  8
0
  6
HIDDEN
 62
     7
370
     0
100
AcDbLine
 10
184.3881663347
 20
97.0040493686
 30
0.0
 11
187.8490322113
 21
97.0040493686
 31
0.0
  0
LINE
  5
17D
330
1F
100
AcDbEntity
  8
0
  6
HIDDEN
 62
     7
370
     0
100
AcDbLine
 10
187.8489549909
 20
127.0040493686
 30
0.0
 11
184.3881663347
 21
127.0040493686
 31
0.0
  0
LINE
  5
17E
330
1F
100
AcDbEntity
  8
0
  6
HIDDEN
 62
     7
370
     0
100
AcDbLine
 10
163.8381663347
 20
99.7040493686
 30
0.0
 11
164.5395595939
 21
99.7040493686
 31
0.0
  0
LINE
  5
17F
330
1F
100
AcDbEntity
  8
0
  6
HIDDEN
 62
     7
370
     0
100
AcDbLine
 10
164.5395595939
 20
124.3040493686
 30
0.0
 11
163.8381663347
 21
124.3040493686
 31
0.0
  0
ARC
  5
180
330
1F
100
AcDbEntity
  8
0
  6
HIDDEN
 62
     7
370
     0
100
AcDbCircle
 10
163.8381663347
 20
100.3040493686
 30
0.0
 40
0.6000000000000227
100
AcDbArc
 50
180.0
 51
270.0
  0
ARC
  5
181
330
1F
100
AcDbEntity
  8
0
  6
HIDDEN
 62
     7
370
     0
100
AcDbCircle
 10
163.8381663347
 20
123.7040493686
 30
0.0
 40
0.6000000000000227
100
AcDbArc
 50
90.0
 51
180.0
  0
ARC
  5
182
330
1F
100
AcDbEntity
  8
0
  6
HIDDEN
 62
     7
370
     0
100
AcDbCircle
 10
164.5395595939
 20
100.3040493686
 30
0.0
 40
0.6000000000000071
100
AcDbArc
 50
270.0
 51
285.0
  0
ARC
  5
183
330
1F
100
AcDbEntity
  8
0
  6
HIDDEN
 62
     7
370
     0
100
AcDbCircle
 10
164.5395595939
 20
123.7040493686
 30
0.0
 40
0.6000000000000071
100
AcDbArc
 50
75.0
 51
90.0
  0
LINE
  5
184
330
1F
100
AcDbEntity
  8
0
  6
HIDDEN
 62
     7
370
     0
100
AcDbLine
 10
164.6948510209
 20
99.7244938728
 30
0.0
 11
165.7381663347
 21
100.0040493686
 31
0.0
  0
LINE
  5
185
330
1F
100
AcDbEntity
  8
0
  6
HIDDEN
 62
     7
370
     0
100
AcDbLine
 10
165.7381663347
 20
124.0040493686
 30
0.0
 11
164.6948510209
 21
124.2836048644
 31
0.0
  0
LINE
  5
186
330
1F
100
AcDbEntity
  8
0
  6
HIDDEN
 62
     7
370
     0
100
AcDbLine
 10
165.7381663347
 20
100.0040493686
 30
0.0
 11
183.3881663347
 21
100.0040493686
 31
0.0
  0
LINE
  5
187
330
1F
100
AcDbEntity
  8
0
  6
HIDDEN
 62
     7
370
     0
100
AcDbLine
 10
183.3881663347
 20
124.0040493686
 30
0.0
 11
165.7381663347
 21
124.0040493686
 31
0.0
  0
LINE
  5
188
330
1F
100
AcDbEntity
  8
0
  6
HIDDEN
 62
     7
370
     0
100
AcDbLine
 10
157.0381663347
 20
102.5040493686
 30
0.0
 11
160.0381663347
 21
102.5040493686
 31
0.0
  0
LINE
  5
189
330
1F
100
AcDbEntity
  8
0
  6
HIDDEN
 62
     7
370
     0
100
AcDbLine
 10
160.0381663347
 20
121.5040493686
 30
0.0
 11
157.0381663347
 21
121.5040493686
 31
0.0
  0
LINE
  5
18A
330
1F
100
AcDbEntity
  8
0
  6
HIDDEN
 62
     7
370
     0
100
AcDbLine
 10
148.1881663347
 20
103.0040493686
 30
0.0
 11
148.6881663347
 21
103.5040493686
 31
0.0
  0
LINE
  5
18B
330
1F
100
AcDbEntity
  8
0
  6
HIDDEN
 62
     7
370
     0
100
AcDbLine
 10
148.6881663347
 20
120.5040493686
 30
0.0
 11
148.1881663347
 21
121.0040493686
 31
0.0
  0
LINE
  5
18C
330
1F
100
AcDbEntity
  8
0
  6
HIDDEN
 62
     7
370
     0
100
AcDbLine
 10
148.6881663347
 20
103.5040493686
 30
0.0
 11
157.0381663347
 21
103.5040493686
 31
0.0
  0
LINE
  5
18D
330
1F
100
AcDbEntity
  8
0
  6
HIDDEN
 62
     7
370
     0
100
AcDbLine
 10
157.0381663347
 20
120.5040493686
 30
0.0
 11
148.6881663347
 21
120.5040493686
 31
0.0
  0
LINE
  5
18E
330
1F
100
AcDbEntity
  8
0
  6
HIDDEN
 62
     7
370
     0
100
AcDbLine
 10
143.1881663347
 20
143.5040493686
 30
0.0
 11
143.1881663347
 21
138.4040493686
 31
0.0
  0
LINE
  5
18F
330
1F
100
AcDbEntity
  8
0
  6
HIDDEN
 62
     7
370
     0
100
AcDbLine
 10
187.6881663347
 20
128.5290493686
 30
0.0
 11
184.3881663347
 21
128.5290493686
 31
0.0
  0
LINE
  5
190
330
1F
100
AcDbEntity
  8
0
  6
HIDDEN
 62
     7
370
     0
100
AcDbLine
 10
184.3881663347
 20
95.4790493686
 30
0.0
 11
187.6881663347
 21
95.4790493686
 31
0.0
  0
LINE
  5
191
330
1F
100
AcDbEntity
  8
0
  6
HIDDEN
 62
     7
370
     0
100
AcDbLine
 10
133.4226041652
 20
87.9246780351
 30
0.0
 11
132.9881720157
 21
88.4037440542
 31
0.0
  0
LINE
  5
192
330
1F
100
AcDbEntity
  8
0
  6
HIDDEN
 62
     7
370
     0
100
AcDbLine
 10
125.4881686906
 20
88.8254320133
 30
0.0
 11
125.0057349473
 21
88.3463660379
 31
0.0
  0
LINE
  5
193
330
1F
100
AcDbEntity
  8
0
  6
HIDDEN
 62
     7
370
     0
100
AcDbLine
 10
125.005613019
 20
135.6617274089
 30
0.0
 11
125.48816377
 21
135.182607151
 31
0.0
  0
LINE
  5
194
330
1F
100
AcDbEntity
  8
0
  6
HIDDEN
 62
     7
370
     0
100
AcDbLine
 10
132.9881662167
 20
135.6043049287
 30
0.0
 11
133.422708607
 21
136.0834251793
 31
0.0
  0
LINE
  5
195
330
1F
100
AcDbEntity
  8
0
  6
HIDDEN
 62
     7
370
     0
100
AcDbLine
 10
160.0381663347
 20
107.8040493686
 30
0.0
 11
163.2381663347
 21
107.8040493686
 31
0.0
  0
LINE
  5
196
330
1F
100
AcDbEntity
  8
0
  6
HIDDEN
 62
     7
370
     0
100
AcDbLine
 10
163.2381663347
 20
116.2040493686
 30
0.0
 11
160.0381663347
 21
116.2040493686
 31
0.0
  0
LINE
  5
197
330
1F
100
AcDbEntity
  8
0
  6
HIDDEN
 62
     7
370
     0
100
AcDbLine
 10
132.9881663347
 20
88.4039990203
 30
0.0
 11
132.9881663347
 21
92.0686490304
 31
0.0
  0
LINE
  5
198
330
1F
100
AcDbEntity
  8
0
  6
HIDDEN
 62
     7
370
     0
100
AcDbLine
 10
125.4881663347
 20
92.0084271367
 30
0.0
 11
125.4881663347
 21
88.8256134383
 31
0.0
  0
LINE
  5
199
330
1F
100
AcDbEntity
  8
0
  6
HIDDEN
 62
     7
370
     0
100
AcDbLine
 10
132.9881663347
 20
131.9394497069
 30
0.0
 11
132.9881663347
 21
135.6040136226
 31
0.0
  0
LINE
  5
19A
330
1F
100
AcDbEntity
  8
0
  6
HIDDEN
 62
     7
370
     0
100
AcDbLine
 10
125.4881663347
 20
135.1824633719
 30
0.0
 11
125.4881663347
 21
131.9996716006
 31
0.0
  0
LINE
  5
19B
330
1F
100
AcDbEntity
  8
0
  6
HIDDEN
 62
     7
370
     0
100
AcDbLine
 10
187.8490322113
 20
127.0040493686
 30
0.0
 11
187.8489549909
 21
127.0040493686
 31
0.0
  0
DIMENSION
  5
19C
330
1F
100
AcDbEntity
  8
VERMASSUNG
100
AcDbDimension
  2
_D
 10
100.759885729
 20
80.5040493686
 30
0.0
 11
100.759885729
 21
111.3366256255
 31
0.0
 70
   160
  1
HSK A %%c<>
 71
     2
 42
-1.0
  3
SLDDIMSTYLE0
100
AcDbAlignedDimension
 13
138.5381663347
 23
143.5040493686
 33
0.0
 14
138.5381663347
 24
80.5040493686
 34
0.0
 50
90.0
100
AcDbRotatedDimension
  0
DIMENSION
  5
1A9
330
1F
100
AcDbEntity
  8
VERMASSUNG
100
AcDbDimension
  2
_D_1
 10
138.2381663347
 20
153.2044745871
 30
0.0
 11
163.2381663347
 21
153.2044745871
 31
0.0
 70
   160
  1
<>
 71
     2
 42
-1.0
  3
SLDDIMSTYLE0
100
AcDbAlignedDimension
 13
188.2381663347
 23
132.6040493686
 33
0.0
 14
138.2381663347
 24
143.2040493686
 34
0.0
100
AcDbRotatedDimension
  0
DIMENSION
  5
1B3
330
1F
100
AcDbEntity
  8
VERMASSUNG
100
AcDbDimension
  2
_D_2
 10
164.1881663347
 20
147.2044745871
 30
0.0
 11
176.2131663347
 21
147.2044745871
 31
0.0
 70
   160
  1
<>
 71
     2
 42
-1.0
  3
SLDDIMSTYLE0
100
AcDbAlignedDimension
 13
188.2381663347
 23
132.6040493686
 33
0.0
 14
164.1881663347
 24
141.8504896924
 34
0.0
100
AcDbRotatedDimension
  0
DIMENSION
  5
1BD
330
1F
100
AcDbEntity
  8
VERMASSUNG
100
AcDbDimension
  2
_D_3
 10
106.3381663347
 20
159.2044745871
 30
0.0
 11
147.2881663347
 21
159.2044745871
 31
0.0
 70
   160
  1
<>
 71
     2
 42
-1.0
  3
SLDDIMSTYLE0
100
AcDbAlignedDimension
 13
188.2381663347
 23
132.6040493686
 33
0.0
 14
106.3381663347
 24
131.6947271151
 34
0.0
100
AcDbRotatedDimension
  0
DIMENSION
  5
1C7
330
1F
100
AcDbEntity
  8
VERMASSUNG
100
AcDbDimension
  2
_D_4
 10
196.940374185
 20
91.0040493686
 30
0.0
 11
196.940374185
 21
112.0040493686
 31
0.0
 70
   160
  1
MBM %%c<>
 71
     2
 42
-1.0
  3
SLDDIMSTYLE0
100
AcDbAlignedDimension
 13
187.8381663347
 23
133.0040493686
 33
0.0
 14
187.8381663347
 24
91.0040493686
 34
0.0
 50
90.0
100
AcDbRotatedDimension
  0
INSERT
  5
1D8
330
1F
100
AcDbEntity
  8
VERMASSUNG
100
AcDbBlockReference
  2
SW_NOTE_0
 10
140.499510284
 20
70.1485665699
 30
0.0
  0
LEADER
  5
1E2
330
1F
100
AcDbEntity
  8
VERMASSUNG
100
AcDbLeader
  3
SLDDIMSTYLE1
 76
     2
 10
141.8119756434
 20
87.5120328397
 30
0.0
 10
140.499510284
 20
70.1485665699
 30
0.0
  0
INSERT
  5
1E8
330
1F
100
AcDbEntity
  8
VERMASSUNG
100
AcDbBlockReference
  2
SW_NOTE_1
 10
174.8775710088
 20
83.175011232
 30
0.0
  0
LEADER
  5
1E9
330
1F
100
AcDbEntity
  8
VERMASSUNG
100
AcDbLeader
  3
SLDDIMSTYLE1
 76
     2
 10
176.7625312194
 20
108.9164514143
 30
0.0
 10
174.8775710088
 20
83.175011232
 30
0.0
  0
LINE
  5
1EA
330
1F
100
AcDbEntity
  8
VERMASSUNG
  6
CENTERX2
 62
     7
370
     0
100
AcDbLine
 10
104.1928624923
 20
112.0040493686
 30
0.0
 11
189.8381663347
 21
112.0040493686
 31
0.0
  0
LINE
  5
1EB
330
1F
100
AcDbEntity
  8
0
  6
Continuous
 62
     7
370
    15
100
AcDbLine
 10
249.1477939212
 20
68.0824245002
 30
0.0
 11
248.9709885018
 21
68.184525274
 31
0.0
  0
LINE
  5
1EC
330
1F
100
AcDbEntity
  8
0
  6
Continuous
 62
     7
370
    15
100
AcDbLine
 10
245.0812692732
 20
68.184525274
 30
0.0
 11
244.9044638538
 21
68.0824245002
 31
0.0
  0
LINE
  5
1ED
330
1F
100
AcDbEntity
  8
0
  6
Continuous
 62
     7
370
    15
100
AcDbLine
 10
250.0261288875
 20
66.4497409443
 30
0.0
 11
250.0261288875
 21
66.8580113502
 31
0.0
  0
LINE
  5
1EE
330
1F
100
AcDbEntity
  8
0
  6
Continuous
 62
     7
370
    15
100
AcDbLine
 10
244.0261288875
 20
66.8580113502
 30
0.0
 11
244.0261288875
 21
66.4497409443
 31
0.0
  0
LINE
  5
1EF
330
1F
100
AcDbEntity
  8
0
  6
Continuous
 62
     7
370
    15
100
AcDbLine
 10
251.323009293
 20
47.4356465959
 30
0.0
 11
251.4644076642
 21
47.517300676
 31
0.0
  0
LINE
  5
1F0
330
1F
100
AcDbEntity
  8
0
  6
Continuous
 62
     7
370
    15
100
AcDbLine
 10
258.7464237857
 20
60.1314893534
 30
0.0
 11
258.7464237857
 21
60.2947709758
 31
0.0
  0
LINE
  5
1F1
330
1F
100
AcDbEntity
  8
0
  6
Continuous
 62
     7
370
    15
100
AcDbLine
 10
239.1249051117
 20
50.9257201831
 30
0.0
 11
246.0722292369
 21
46.9151153337
 31
0.0
  0
LINE
  5
1F2
330
1F
100
AcDbEntity
  8
0
  6
Continuous
 62
     7
370
    15
100
AcDbLine
 10
256.5713759295
 20
65.1021414437
 30
0.0
 11
249.6240518044
 21
69.1127462931
 31
0.0
  0
LINE
  5
1F3
330
1F
100
AcDbEntity
  8
0
  6
Continuous
 62
     7
370
    15
100
AcDbLine
 10
226.0172604074
 20
52.4305887844
 30
0.0
 11
231.0759260677
 21
49.5102832592
 31
0.0
  0
LINE
  5
1F4
330
1F
100
AcDbEntity
  8
0
  6
Continuous
 62
     7
370
    15
100
AcDbLine
 10
243.9592809512
 20
78.4449625192
 30
0.0
 11
241.7659804465
 21
79.7111279494
 31
0.0
  0
SPLINE
  5
1F5
330
1F
100
AcDbEntity
  8
0
  6
Continuous
 62
     7
370
    15
100
AcDbSpline
210
0.0
220
0.0
230
1.0
 70
     8
 71
     3
 72
    12
 73
     8
 74
     0
 42
0.000000001
 43
0.00000001
 40
0.0
 40
0.0
 40
0.0
 40
0.0
 40
0.0595697308867411
 40
0.3012144638158947
 40
0.5429085261523484
 40
0.7846548036464897
 40
1.0
 40
1.0
 40
1.0
 40
1.0
 10
223.2421459172303
 20
63.91153996321043
 30
0.0
 10
223.2197962902618
 20
63.82432003679813
 30
0.0
 10
223.1067853566281
 20
63.38329230379904
 30
0.0
 10
222.9613745428356
 20
62.60032532173577
 30
0.0
 10
222.8110900537673
 20
61.57109832232235
 30
0.0
 10
222.7258481325171
 20
60.60162404715089
 30
0.0
 10
222.7155882718623
 20
59.99069590850532
 30
0.0
 10
222.7107546404479
 20
59.70287509472578
 30
0.0
  0
SPLINE
  5
1F6
330
1F
100
AcDbEntity
  8
0
  6
Continuous
 62
     7
370
    15
100
AcDbSpline
210
0.0
220
0.0
230
1.0
 70
     8
 71
     3
 72
    14
 73
    10
 74
     0
 42
0.000000001
 43
0.00000001
 40
0.0
 40
0.0
 40
0.0
 40
0.0
 40
0.0761812431954995
 40
0.2312367739064058
 40
0.3863324057977994
 40
0.5414356259053865
 40
0.6965259699999364
 40
0.8515949412762271
 40
1.0
 40
1.0
 40
1.0
 40
1.0
 10
235.7512820739531
 20
79.85133909526671
 30
0.0
 10
235.6170955059232
 20
79.80296880681908
 30
0.0
 10
235.2097922408245
 20
79.65614802805015
 30
0.0
 10
234.5202084304277
 20
79.32892239464107
 30
0.0
 10
233.6886490120638
 20
78.8765839436204
 30
0.0
 10
232.8578187558609
 20
78.34961984108725
 30
0.0
 10
232.033477777445
 20
77.7546507433341
 30
0.0
 10
231.2297118566919
 20
77.10879466124995
 30
0.0
 10
230.7108221641621
 20
76.63163653745004
 30
0.0
 10
230.4570744042928
 20
76.39829637525219
 30
0.0
  0
SPLINE
  5
1F7
330
1F
100
AcDbEntity
  8
0
  6
Continuous
 62
     7
370
    15
100
AcDbSpline
210
0.0
220
0.0
230
1.0
 70
     8
 71
     3
 72
    10
 73
     6
 74
     0
 42
0.000000001
 43
0.00000001
 40
0.0
 40
0.0
 40
0.0
 40
0.0
 40
0.2100748270651775
 40
0.6091968420356094
 40
1.0
 40
1.0
 40
1.0
 40
1.0
 10
222.7107546404479
 20
59.70287509472578
 30
0.0
 10
222.7125741433194
 20
59.53543166004831
 30
0.0
 10
222.7178505270671
 20
59.04986176550084
 30
0.0
 10
222.7698606196139
 20
58.27798810605164
 30
0.0
 10
222.8609343986804
 20
57.70403199352159
 30
0.0
 10
222.9059917302941
 20
57.42007615948183
 30
0.0
  0
SPLINE
  5
1F8
330
1F
100
AcDbEntity
  8
0
  6
Continuous
 62
     7
370
    15
100
AcDbSpline
210
0.0
220
0.0
230
1.0
 70
     8
 71
     3
 72
    16
 73
    12
 74
     0
 42
0.000000001
 43
0.00000001
 40
0.0
 40
0.0
 40
0.0
 40
0.0
 40
0.0353059464533062
 40
0.1598133024665115
 40
0.2847842309673148
 40
0.4101828406662562
 40
0.5359253970395025
 40
0.6619125067351307
 40
0.7880520451416978
 40
0.9142704079910275
 40
1.0
 40
1.0
 40
1.0
 40
1.0
 10
237.079115436442
 20
46.60759994310955
 30
0.0
 10
237.1464673126369
 20
46.59717076454854
 30
0.0
 10
237.4513373655119
 20
46.5499628113486
 30
0.0
 10
238.023682069849
 20
46.54627174121691
 30
0.0
 10
238.7924463198769
 20
46.59879291900869
 30
0.0
 10
239.5857471663574
 20
46.7372524042848
 30
0.0
 10
240.3962023214948
 20
46.95356588598094
 30
0.0
 10
241.2199443619752
 20
47.24774884047977
 30
0.0
 10
242.0517884298913
 20
47.62088417089795
 30
0.0
 10
242.7982957370102
 20
48.01152613742958
 30
0.0
 10
243.264607557635
 20
48.30737079538
 30
0.0
 10
243.4532233060524
 20
48.42703527546936
 30
0.0
  0
LINE
  5
1F9
330
1F
100
AcDbEntity
  8
0
  6
Continuous
 62
     7
370
    15
100
AcDbLine
 10
233.4743847742
 20
48.12568252
 30
0.0
 11
234.8737728418
 21
47.3178329842
 31
0.0
  0
LINE
  5
1FA
330
1F
100
AcDbEntity
  8
0
  6
Continuous
 62
     7
370
    15
100
AcDbLine
 10
234.5366460951
 20
79.3268767453
 30
0.0
 11
228.3993041998
 21
82.3846697501
 31
0.0
  0
LINE
  5
1FB
330
1F
100
AcDbEntity
  8
0
  6
Continuous
 62
     7
370
    15
100
AcDbLine
 10
217.0176063866
 20
62.6688546117
 30
0.0
 11
222.7417326266
 21
58.8785759595
 31
0.0
  0
SPLINE
  5
1FC
330
1F
100
AcDbEntity
  8
0
  6
Continuous
 62
     7
370
    15
100
AcDbSpline
210
0.0
220
0.0
230
1.0
 70
     8
 71
     3
 72
    10
 73
     6
 74
     0
 42
0.000000001
 43
0.00000001
 40
0.0
 40
0.0
 40
0.0
 40
0.0
 40
0.0494404820606454
 40
0.8153734188331337
 40
0.9999999999999999
 40
0.9999999999999999
 40
0.9999999999999999
 40
0.9999999999999999
 10
252.0759590022295
 20
73.38314132938613
 30
0.0
 10
252.0664361190547
 20
73.3955036532002
 30
0.0
 10
251.9093845393015
 20
73.59938334475791
 30
0.0
 10
251.6860832797736
 20
73.81171986730112
 30
0.0
 10
251.4640845304191
 20
73.99751903468052
 30
0.0
 10
251.4209658520585
 20
74.03360669085514
 30
0.0
  0
SPLINE
  5
1FD
330
1F
100
AcDbEntity
  8
0
  6
Continuous
 62
     7
370
    15
100
AcDbSpline
210
0.0
220
0.0
230
1.0
 70
     8
 71
     3
 72
    12
 73
     8
 74
     0
 42
0.000000001
 43
0.00000001
 40
0.0
 40
0.0
 40
0.0
 40
0.0
 40
0.1187811644102336
 40
0.3433855547955867
 40
0.5677004106479668
 40
0.7914075978788058
 40
1.0
 40
1.0
 40
1.0
 40
1.0
 10
253.6124901440437
 20
70.30903739996742
 30
0.0
 10
253.5734841355318
 20
70.45178403079915
 30
0.0
 10
253.4607213087004
 20
70.86445157170706
 30
0.0
 10
253.2276821729687
 20
71.50686496521057
 30
0.0
 10
252.8935602109327
 20
72.21170092330817
 30
0.0
 10
252.5140021553946
 20
72.84489282654634
 30
0.0
 10
252.2185297860232
 20
73.20795650941764
 30
0.0
 10
252.0759590022295
 20
73.38314132938613
 30
0.0
  0
SPLINE
  5
1FE
330
1F
100
AcDbEntity
  8
0
  6
Continuous
 62
     7
370
    15
100
AcDbSpline
210
0.0
220
0.0
230
1.0
 70
     8
 71
     3
 72
    28
 73
    24
 74
     0
 42
0.000000001
 43
0.00000001
 40
0.0
 40
0.0
 40
0.0
 40
0.0
 40
0.0187004872112615
 40
0.065888413193905
 40
0.1132631245202149
 40
0.1610346012859733
 40
0.2093095267312594
 40
0.2580833715511401
 40
0.3072681143617727
 40
0.3567383239769431
 40
0.4063724439249988
 40
0.4560756959074637
 40
0.5057741617919429
 40
0.555436306050786
 40
0.6050507572844118
 40
0.6546166921977243
 40
0.7041394488338081
 40
0.7536277667311154
 40
0.8030921715917712
 40
0.8525440928443404
 40
0.9019954184402958
 40
0.9514559237314488
 40
1.0
 40
1.0
 40
1.0
 40
1.0
 10
228.2851832983447
 20
82.42796422724305
 30
0.0
 10
228.213814424244
 20
82.46387293938335
 30
0.0
 10
227.962356704838
 20
82.59039199934328
 30
0.0
 10
227.4900942130463
 20
82.72645719813532
 30
0.0
 10
226.8757366358377
 20
82.83573521707396
 30
0.0
 10
226.2298202713967
 20
82.86045194003653
 30
0.0
 10
225.5591614365943
 20
82.80623430366816
 30
0.0
 10
224.867296957859
 20
82.67109243837503
 30
0.0
 10
224.1597526877939
 20
82.4559342210988
 30
0.0
 10
223.4423676548556
 20
82.16211288662187
 30
0.0
 10
222.7212742089837
 20
81.79216447813317
 30
0.0
 10
222.0025226395725
 20
81.34945442550573
 30
0.0
 10
221.2918727693543
 20
80.83798888146177
 30
0.0
 10
220.5947504891829
 20
80.26221919927401
 30
0.0
 10
219.916244432934
 20
79.62689395311924
 30
0.0
 10
219.2612241229967
 20
78.93707086899568
 30
0.0
 10
218.6343824353467
 20
78.19810963156065
 30
0.0
 10
218.0401884899664
 20
77.41565817430975
 30
0.0
 10
217.4830317886842
 20
76.59561436659729
 30
0.0
 10
216.9665977084113
 20
75.74415006959737
 30
0.0
 10
216.4960895099561
 20
74.86748152177313
 30
0.0
 10
216.0725232318208
 20
73.97823684335829
 30
0.0
 10
215.8348648869997
 20
73.37869252518682
 30
0.0
 10
215.7171468718493
 20
73.08172349940753
 30
0.0
  0
LINE
  5
1FF
330
1F
100
AcDbEntity
  8
0
  6
Continuous
 62
     7
370
    15
100
AcDbLine
 10
215.8334206648
 20
71.2249947046
 30
0.0
 11
218.3869805634
 21
69.750855953
 31
0.0
  0
LINE
  5
200
330
1F
100
AcDbEntity
  8
0
  6
Continuous
 62
     7
370
    15
100
AcDbLine
 10
215.5351283874
 20
72.3533044219
 30
0.0
 11
215.5351283874
 21
71.8878983381
 31
0.0
  0
LINE
  5
201
330
1F
100
AcDbEntity
  8
0
  6
Continuous
 62
     7
370
    15
100
AcDbLine
 10
215.5351283874
 20
64.8819559931
 30
0.0
 11
215.5351283874
 21
64.4165499094
 31
0.0
  0
SPLINE
  5
202
330
1F
100
AcDbEntity
  8
0
  6
Continuous
 62
     7
370
    15
100
AcDbSpline
210
0.0
220
0.0
230
1.0
 70
     8
 71
     3
 72
    11
 73
     7
 74
     0
 42
0.000000001
 43
0.00000001
 40
0.0
 40
0.0
 40
0.0
 40
0.0
 40
0.214312230925675
 40
0.5473394050623296
 40
0.8765306730675063
 40
1.0
 40
1.0
 40
1.0
 40
1.0
 10
215.6511339557629
 20
64.1291211553262
 30
0.0
 10
215.7237539507462
 20
64.00793750043128
 30
0.0
 10
215.9092206629264
 20
63.69844238068487
 30
0.0
 10
216.2769130873751
 20
63.27760227908127
 30
0.0
 10
216.6339245718737
 20
62.93268263123863
 30
0.0
 10
216.8702924744106
 20
62.77951500922646
 30
0.0
 10
216.934765031026
 20
62.73773645944945
 30
0.0
  0
LWPOLYLINE
  5
203
330
1F
100
AcDbEntity
  8
0
  6
Continuous
 62
     7
370
    15
100
AcDbPolyline
 90
       34
 70
   128
 43
0.0
 10
249.4632047817
 20
67.7976303756
 10
249.6602760504
 20
67.5180827908
 10
249.7621423774
 20
67.2220564825
 10
249.7651220482
 20
66.9202506126
 10
249.6691073698
 20
66.6235732318
 10
249.4775685629
 20
66.3427470335
 10
249.1974283389
 20
66.0879218082
 10
248.8388116955
 20
65.8683076036
 10
248.4146799726
 20
65.691841849
 10
247.9403623955
 20
65.5649024768
 10
247.4330020375
 20
65.4920774065
 10
246.9109362237
 20
65.475998726
 10
246.393033773
 20
65.5172475606
 10
245.8980130292
 20
65.61433307
 10
245.4437653317
 20
65.7637463309
 10
245.046708376
 20
65.9600871588
 10
244.721192835
 20
66.1962592846
 10
244.4789836883
 20
66.4637268324
 10
244.3288350056
 20
66.752822828
 10
244.2761735515
 20
67.0530985889
 10
244.3229026483
 20
67.3537013669
 10
244.4673333845
 20
67.6437665943
 10
244.704245657
 20
67.912810558
 10
245.0250768391
 20
68.1511093082
 10
245.418231256
 20
68.3500501071
 10
245.8694992825
 20
68.502442716
 10
246.3625709166
 20
68.6027792689
 10
246.8796252646
 20
68.6474333414
 10
247.4019746353
 20
68.634791019
 10
247.9107399614
 20
68.5653092281
 10
248.3875331384
 20
68.4414992216
 10
248.8151216187
 20
68.2678358158
 10
249.1780512405
 20
68.0505956587
 10
249.4632047817
 20
67.7976303756
  0
LWPOLYLINE
  5
204
330
1F
100
AcDbEntity
  8
0
  6
Continuous
 62
     7
370
    15
100
AcDbPolyline
 90
       25
 70
   128
 43
0.0
 10
249.6847571358
 20
67.6603573383
 10
249.8948740521
 20
67.3646783225
 10
250.0072992925
 20
67.0517453706
 10
250.0182043502
 20
66.7322150391
 10
249.9272178667
 20
66.41696855
 10
249.7374382775
 20
66.1167412445
 10
249.4553282989
 20
65.8417570035
 10
249.0904948478
 20
65.6013800853
 10
248.6553618899
 20
65.4037962377
 10
248.1647473561
 20
65.2557339416
 10
247.635358536
 20
65.162235281
 10
247.0852231309
 20
65.1264842405
 10
246.5330753422
 20
65.149698279
 10
245.9977179007
 20
65.2310868702
 10
245.4973817618
 20
65.3678784234
 10
245.0491052728
 20
65.5554146661
 10
244.6681539519
 20
65.7873092767
 10
244.3675006392
 20
66.0556653621
 10
244.1573837229
 20
66.3513443779
 10
244.0449584825
 20
66.6642773298
 10
244.0340534247
 20
66.9838076614
 10
244.1250399082
 20
67.2990541504
 10
244.3148194975
 20
67.5992814559
 10
244.5969294761
 20
67.874265697
 10
244.9044638538
 20
68.0824245002
  0
LWPOLYLINE
  5
205
330
1F
100
AcDbEntity
  8
0
  6
Continuous
 62
     7
370
    15
100
AcDbPolyline
 90
        3
 70
   128
 43
0.0
 10
249.1477939212
 20
68.0824245002
 10
249.3841038231
 20
67.9287134238
 10
249.6847571358
 20
67.6603573383
  0
LWPOLYLINE
  5
206
330
1F
100
AcDbEntity
  8
0
  6
Continuous
 62
     7
370
    15
100
AcDbPolyline
 90
       27
 70
   128
 43
0.0
 10
248.5769953656
 20
67.5301817129
 10
248.7259548256
 20
67.3023230663
 10
248.7761265807
 20
67.0605062337
 10
248.7245948309
 20
66.8187847306
 10
248.574354414
 20
66.591206532
 10
248.3341367572
 20
66.3909976557
 10
248.0179024374
 20
66.2297935137
 10
247.6440298438
 20
66.1169627049
 10
247.2342470926
 20
66.0590625458
 10
246.8123692678
 20
66.0594579831
 10
246.4029143751
 20
66.1181260355
 10
246.0296784446
 20
66.231657129
 10
245.7143525919
 20
66.3934532491
 10
245.4752624093
 20
66.5941113935
 10
245.3263029494
 20
66.8219700401
 10
245.2761311943
 20
67.0637868726
 10
245.3276629441
 20
67.3055083758
 10
245.4779033609
 20
67.5330865744
 10
245.7181210178
 20
67.7332954507
 10
246.0343553376
 20
67.8944995927
 10
246.4082279312
 20
68.0073304015
 10
246.8180106824
 20
68.0652305606
 10
247.2398885072
 20
68.0648351233
 10
247.6493433999
 20
68.0061670709
 10
248.0225793304
 20
67.8926359774
 10
248.3379051831
 20
67.7308398573
 10
248.5769953656
 20
67.5301817129
  0
SPLINE
  5
207
330
1F
100
AcDbEntity
  8
0
  6
Continuous
 62
     7
370
    15
100
AcDbSpline
210
0.0
220
0.0
230
1.0
 70
     8
 71
     3
 72
    11
 73
     7
 74
     0
 42
0.000000001
 43
0.00000001
 40
0.0
 40
0.0
 40
0.0
 40
0.0
 40
0.133664792087403
 40
0.4825473608259717
 40
0.8156356561503766
 40
1.0
 40
1.0
 40
1.0
 40
1.0
 10
247.95422654495
 20
67.8917199957899
 30
0.0
 10
247.9878428838717
 20
67.82657142249971
 30
0.0
 10
248.1092022588717
 20
67.59137656219427
 30
0.0
 10
248.3359162588924
 20
67.24558629509379
 30
0.0
 10
248.5794046908654
 20
67.05628887965828
 30
0.0
 10
248.7100953976787
 20
67.01892062156298
 30
0.0
 10
248.7566594783014
 20
67.00560660234078
 30
0.0
  0
SPLINE
  5
208
330
1F
100
AcDbEntity
  8
0
  6
Continuous
 62
     7
370
    15
100
AcDbSpline
210
0.0
220
0.0
230
1.0
 70
     8
 71
     3
 72
    11
 73
     7
 74
     0
 42
0.000000001
 43
0.00000001
 40
0.0
 40
0.0
 40
0.0
 40
0.0
 40
0.2164553779443425
 40
0.4403112895790496
 40
0.7519005688038606
 40
0.9999999999999999
 40
0.9999999999999999
 40
0.9999999999999999
 40
0.9999999999999999
 10
246.2236959541469
 20
67.93360369847858
 30
0.0
 10
246.3422389763456
 20
67.88637270897976
 30
0.0
 10
246.5833779652245
 20
67.79029591896503
 30
0.0
 10
247.0308675243555
 20
67.70424978826303
 30
0.0
 10
247.5108803467517
 20
67.73798113369297
 30
0.0
 10
247.8180597285175
 20
67.8445015207048
 30
0.0
 10
247.95422654495
 20
67.8917199957899
 30
0.0
  0
SPLINE
  5
209
330
1F
100
AcDbEntity
  8
0
  6
Continuous
 62
     7
370
    15
100
AcDbSpline
210
0.0
220
0.0
230
1.0
 70
     8
 71
     3
 72
    11
 73
     7
 74
     0
 42
0.000000001
 43
0.00000001
 40
0.0
 40
0.0
 40
0.0
 40
0.0
 40
0.2164553779443433
 40
0.4403112895790526
 40
0.7519005688038626
 40
1.0
 40
1.0
 40
1.0
 40
1.0
 10
245.295598296695
 20
67.0893740077181
 30
0.0
 10
245.3591738854737
 20
67.10284264423484
 30
0.0
 10
245.4884986901829
 20
67.13024040524162
 30
0.0
 10
245.7284909872106
 20
67.27333006322887
 30
0.0
 10
245.9859257753504
 20
67.55285064417603
 30
0.0
 10
246.1506685809092
 20
67.81666138237877
 30
0.0
 10
246.2236959541469
 20
67.93360369847858
 30
0.0
  0
SPLINE
  5
20A
330
1F
100
AcDbEntity
  8
0
  6
Continuous
 62
     7
370
    15
100
AcDbSpline
210
0.0
220
0.0
230
1.0
 70
     8
 71
     3
 72
    10
 73
     6
 74
     0
 42
0.000000001
 43
0.00000001
 40
0.0
 40
0.0
 40
0.0
 40
0.0
 40
0.3693703127708782
 40
0.8253166572430505
 40
1.0
 40
1.0
 40
1.0
 40
1.0
 10
245.9149293970194
 20
66.28619569782686
 30
0.0
 10
245.8376610946816
 20
66.33759558053028
 30
0.0
 10
245.6650137140142
 20
66.45244287038757
 30
0.0
 10
245.4504179097129
 20
66.79011800671258
 30
0.0
 10
245.3291807752087
 20
67.0244613133381
 30
0.0
 10
245.295598296695
 20
67.0893740077181
 30
0.0
  0
SPLINE
  5
20B
330
1F
100
AcDbEntity
  8
0
  6
Continuous
 62
     7
370
    15
100
AcDbSpline
210
0.0
220
0.0
230
1.0
 70
     8
 71
     3
 72
    10
 73
     6
 74
     0
 42
0.000000001
 43
0.00000001
 40
0.0
 40
0.0
 40
0.0
 40
0.0
 40
0.3524472435084664
 40
0.716944535042683
 40
1.0
 40
1.0
 40
1.0
 40
1.0
 10
248.7566594783014
 20
67.00560660234078
 30
0.0
 10
248.6931603391374
 20
66.90435661248488
 30
0.0
 10
248.5639910474432
 20
66.698394931021
 30
0.0
 10
248.3668593855527
 20
66.44500333818765
 30
0.0
 10
248.2394839669498
 20
66.36259210632969
 30
0.0
 10
248.1838061739432
 20
66.32656886448966
 30
0.0
  0
LINE
  5
20C
330
1F
100
AcDbEntity
  8
0
  6
Continuous
 62
     7
370
    15
100
AcDbLine
 10
246.2236959541
 20
66.1643571765
 30
0.0
 11
246.2236959541
 21
67.9336036985
 31
0.0
  0
LINE
  5
20D
330
1F
100
AcDbEntity
  8
0
  6
Continuous
 62
     7
370
    15
100
AcDbLine
 10
247.954226545
 20
66.2056697061
 30
0.0
 11
247.954226545
 21
67.8917199958
 31
0.0
  0
LWPOLYLINE
  5
20E
330
1F
100
AcDbEntity
  8
0
  6
Continuous
 62
     7
370
    15
100
AcDbPolyline
 90
       65
 70
   128
 43
0.0
 10
244.1800240932
 20
51.7224858017
 10
244.2150946912
 20
52.567092079
 10
244.319968736
 20
53.4440559866
 10
244.4936362334
 20
54.3449318828
 10
244.7344246703
 20
55.2610438402
 10
245.0400151226
 20
56.1835691997
 10
245.407464587
 20
57.1036235381
 10
245.8332343244
 20
58.0123462289
 10
246.3132239394
 20
58.9009857759
 10
246.8428108698
 20
59.7609840945
 10
247.4168949038
 20
60.5840589307
 10
248.0299472983
 20
61.3622836241
 10
248.6760640237
 20
62.0881634452
 10
249.3490226227
 20
62.7547077748
 10
250.0423421361
 20
63.3554974264
 10
250.7493455181
 20
63.8847464673
 10
251.4632239394
 20
64.33735794
 10
252.1771023608
 20
64.7089729485
 10
252.8841057428
 20
64.9960126371
 10
253.5774252562
 20
65.1957126568
 10
254.2503838552
 20
65.3061497872
 10
254.8965005806
 20
65.3262604583
 10
255.5095529751
 20
65.2558509935
 10
256.0836370091
 20
65.0955994742
 10
256.6132239394
 20
64.8470492103
 10
257.0932135545
 20
64.5125938767
 10
257.5189832919
 20
64.0954544611
 10
257.8864327563
 20
63.599648244
 10
258.1920232086
 20
63.0299501104
 10
258.4328116455
 20
62.3918465648
 10
258.6064791429
 20
61.691482893
 10
258.7113531877
 20
60.9356039802
 10
258.7464237857
 20
60.1314893534
 10
258.7113531877
 20
59.2868830761
 10
258.6064791429
 20
58.4099191685
 10
258.4328116455
 20
57.5090432723
 10
258.1920232086
 20
56.5929313149
 10
257.8864327563
 20
55.6704059553
 10
257.5189832919
 20
54.750351617
 10
257.0932135545
 20
53.8416289262
 10
256.6132239394
 20
52.9529893792
 10
256.0836370091
 20
52.0929910606
 10
255.5095529751
 20
51.2699162243
 10
254.8965005806
 20
50.491691531
 10
254.2503838552
 20
49.7658117098
 10
253.5774252562
 20
49.0992673803
 10
252.8841057428
 20
48.4984777287
 10
252.1771023608
 20
47.9692286878
 10
251.4632239394
 20
47.5166172151
 10
250.7493455181
 20
47.1450022066
 10
250.0423421361
 20
46.857962518
 10
249.3490226227
 20
46.6582624983
 10
248.6760640237
 20
46.5478253679
 10
248.0299472983
 20
46.5277146967
 10
247.4168949038
 20
46.5981241616
 10
246.8428108698
 20
46.7583756809
 10
246.3132239394
 20
47.0069259447
 10
245.8332343244
 20
47.3413812784
 10
245.407464587
 20
47.758520694
 10
245.0400151226
 20
48.2543269111
 10
244.7344246703
 20
48.8240250446
 10
244.4936362334
 20
49.4621285903
 10
244.319968736
 20
50.162492262
 10
244.2150946912
 20
50.9183711749
 10
244.1800240932
 20
51.7224858017
  0
LWPOLYLINE
  5
20F
330
1F
100
AcDbEntity
  8
0
  6
Continuous
 62
     7
370
    15
100
AcDbPolyline
 90
       34
 70
   128
 43
0.0
 10
243.8971813807
 20
51.7224858017
 10
243.9318422246
 20
52.569974412
 10
244.0355011372
 20
53.449568808
 10
244.2071902832
 20
54.3530564538
 10
244.4453066474
 20
55.2720017288
 10
244.7476270013
 20
56.1978246883
 10
245.1113286613
 20
57.121881173
 10
245.533015843
 20
58.0355435164
 10
246.0087513668
 20
58.9302810994
 10
246.5340934183
 20
59.7977399982
 10
247.1041370203
 20
60.6298209828
 10
247.7135598292
 20
61.4187551373
 10
248.3566718286
 20
62.157176396
 10
249.0274684549
 20
62.8381903186
 10
249.7196866607
 20
63.4554384616
 10
250.4268633913
 20
64.0031577454
 10
251.142395928
 20
64.4762342626
 10
251.8596035363
 20
64.8702510252
 10
252.571789842
 20
65.1815292049
 10
253.2723053534
 20
65.4071624812
 10
253.954609546
 20
65.5450441769
 10
254.6123319294
 20
65.5938869279
 10
255.2393315269
 20
65.5532347025
 10
255.8297542121
 20
65.4234670596
 10
256.3780873676
 20
65.2057956047
 10
256.8792113543
 20
64.9022526776
 10
257.3284473128
 20
64.5156723768
 10
257.7216008478
 20
64.0496640983
 10
258.0550011907
 20
63.5085788359
 10
258.3255354724
 20
62.897468557
 10
258.5306777872
 20
62.2220390335
 10
258.6685127765
 20
61.488596569
 10
258.7377535122
 20
60.703989118
 10
258.7464237857
 20
60.2947709758
  0
LWPOLYLINE
  5
210
330
1F
100
AcDbEntity
  8
0
  6
Continuous
 62
     7
370
    15
100
AcDbPolyline
 90
       18
 70
   128
 43
0.0
 10
251.323009293
 20
47.4356465959
 10
251.142395928
 20
47.3338839998
 10
250.4268633913
 20
46.9808242349
 10
249.7196866607
 20
46.7120546451
 10
249.0274684549
 20
46.5300846594
 10
248.3566718286
 20
46.4366132826
 10
247.7135598292
 20
46.4325132319
 10
247.1041370203
 20
46.5178227883
 10
246.5340934183
 20
46.6917454394
 10
246.0087513668
 20
46.9526573163
 10
245.533015843
 20
47.298122355
 10
245.1113286613
 20
47.7249150418
 10
244.7476270013
 20
48.2290505281
 10
244.4453066474
 20
48.8058218368
 10
244.2071902832
 20
49.4498438096
 10
244.0355011372
 20
50.1551033868
 10
243.9318422246
 20
50.9150157498
 10
243.8971813807
 20
51.7224858017
  0
SPLINE
  5
211
330
1F
100
AcDbEntity
  8
0
  6
Continuous
 62
     7
370
    15
100
AcDbSpline
210
0.0
220
0.0
230
1.0
 70
     8
 71
     3
 72
    54
 73
    50
 74
     0
 42
0.000000001
 43
0.00000001
 40
0.0
 40
0.0
 40
0.0
 40
0.0
 40
0.0312500000000001
 40
0.0312500000000001
 40
0.0625000000000001
 40
0.0625000000000001
 40
0.1250000000000002
 40
0.1250000000000002
 40
0.1875000000000004
 40
0.1875000000000004
 40
0.2187500000000004
 40
0.2187500000000004
 40
0.2500000000000004
 40
0.2500000000000004
 40
0.3124999999999997
 40
0.3124999999999997
 40
0.374999999999999
 40
0.374999999999999
 40
0.4062499999999986
 40
0.4062499999999986
 40
0.4374999999999982
 40
0.4374999999999982
 40
0.4999999999999975
 40
0.4999999999999975
 40
0.5312499999999977
 40
0.5312499999999977
 40
0.5624999999999977
 40
0.5624999999999977
 40
0.6249999999999979
 40
0.6249999999999979
 40
0.6562499999999977
 40
0.6562499999999977
 40
0.6874999999999973
 40
0.6874999999999973
 40
0.7499999999999968
 40
0.7499999999999968
 40
0.781249999999997
 40
0.781249999999997
 40
0.8124999999999971
 40
0.8124999999999971
 40
0.8749999999999979
 40
0.8749999999999979
 40
0.9062499999999984
 40
0.9062499999999984
 40
0.937499999999999
 40
0.937499999999999
 40
0.9687499999999994
 40
0.9687499999999994
 40
1.0
 40
1.0
 40
1.0
 40
1.0
 10
249.6777793169477
 20
65.53138134352228
 30
0.0
 10
249.5968614944519
 20
65.48466847890671
 30
0.0
 10
249.5108656879519
 20
65.43928459755335
 30
0.0
 10
249.3284994877274
 20
65.35127798140137
 30
0.0
 10
249.2322032322102
 20
65.30876212924028
 30
0.0
 10
248.9362372515796
 20
65.18911528740982
 30
0.0
 10
248.726353486612
 20
65.11828331919013
 30
0.0
 10
248.2861318823113
 20
64.9964925019256
 30
0.0
 10
248.0623217464405
 20
64.94727361801701
 30
0.0
 10
247.7213893127917
 20
64.89083942559515
 30
0.0
 10
247.6063131303397
 20
64.87490457977945
 30
0.0
 10
247.3775947466863
 20
64.84952927264983
 30
0.0
 10
247.2639865787191
 20
64.8400533595622
 30
0.0
 10
246.9251833539818
 20
64.8212239961744
 30
0.0
 10
246.7011843276795
 20
64.82143433175335
 30
0.0
 10
246.2613314594534
 20
64.84917172772599
 30
0.0
 10
246.0495529055458
 20
64.87635637745704
 30
0.0
 10
245.7430793084596
 20
64.93750256365318
 30
0.0
 10
245.6428027257332
 20
64.96129750285534
 30
0.0
 10
245.4460101200324
 20
65.01598464688219
 30
0.0
 10
245.3492063378145
 20
65.04701384173136
 30
0.0
 10
245.0694115020141
 20
65.14940748095901
 30
0.0
 10
244.8954446918742
 20
65.23035110558637
 30
0.0
 10
244.6528637521705
 20
65.37071514163279
 30
0.0
 10
244.5750838045585
 20
65.42067183258126
 30
0.0
 10
244.4258339964142
 20
65.52703983290803
 30
0.0
 10
244.3542489751102
 20
65.58360989380967
 30
0.0
 10
244.1530639265666
 20
65.7597910850085
 30
0.0
 10
244.0355082710481
 20
65.88674188690935
 30
0.0
 10
243.8840238813008
 20
66.09033671657245
 30
0.0
 10
243.8376958611328
 20
66.16040435027368
 30
0.0
 10
243.7537117800276
 20
66.30486543985873
 30
0.0
 10
243.7160293647893
 20
66.37944724525367
 30
0.0
 10
243.6186169796027
 20
66.60495278452596
 30
0.0
 10
243.5734557776848
 20
66.75898290209663
 30
0.0
 10
243.5367083281382
 20
66.99388151522261
 30
0.0
 10
243.5296614700476
 20
67.07282688345094
 30
0.0
 10
243.5267325859264
 20
67.23175748134548
 30
0.0
 10
243.5309435698473
 20
67.31190498402223
 30
0.0
 10
243.5610332281211
 20
67.54792095707407
 30
0.0
 10
243.6039844447205
 20
67.7011865200429
 30
0.0
 10
243.7066097610917
 20
67.92234377205686
 30
0.0
 10
243.7475506442952
 20
67.99492204988626
 30
0.0
 10
243.8408379016093
 20
68.13279893186052
 30
0.0
 10
243.8933189000201
 20
68.1985412735003
 30
0.0
 10
244.0101076837053
 20
68.32335279971348
 30
0.0
 10
244.0744138020542
 20
68.38242310669555
 30
0.0
 10
244.2154070560163
 20
68.49345152363608
 30
0.0
 10
244.2927800322342
 20
68.54574826553804
 30
0.0
 10
244.3744784580486
 20
68.59291176285744
 30
0.0
  0
SPLINE
  5
212
330
1F
100
AcDbEntity
  8
0
  6
Continuous
 62
     7
370
    15
100
AcDbSpline
210
0.0
220
0.0
230
1.0
 70
     8
 71
     3
 72
    13
 73
     9
 74
     0
 42
0.000000001
 43
0.00000001
 40
0.0
 40
0.0
 40
0.0
 40
0.0
 40
0.1972490882706067
 40
0.4221301292862523
 40
0.6692905585421551
 40
0.7020826316609003
 40
0.8648420217596108
 40
1.0
 40
1.0
 40
1.0
 40
1.0
 10
244.3744784580486
 20
68.59291176285744
 30
0.0
 10
244.5788900179029
 20
68.68735233079498
 30
0.0
 10
245.0163484565978
 20
68.8894633240719
 30
0.0
 10
245.8847380839793
 20
68.97386068791641
 30
0.0
 10
246.5642214628278
 20
68.91043493619725
 30
0.0
 10
247.1497379884032
 20
68.80208618909423
 30
0.0
 10
247.5849778377052
 20
68.69850926484543
 30
0.0
 10
247.9503441613457
 20
68.57073310874432
 30
0.0
 10
248.1161021159614
 20
68.51276412552512
 30
0.0
  0
SPLINE
  5
213
330
1F
100
AcDbEntity
  8
0
  6
Continuous
 62
     7
370
    15
100
AcDbSpline
210
0.0
220
0.0
230
1.0
 70
     8
 71
     3
 72
    15
 73
    11
 74
     0
 42
0.000000001
 43
0.00000001
 40
0.0
 40
0.0
 40
0.0
 40
0.0
 40
0.0907214540139075
 40
0.219004543316134
 40
0.3474802414503598
 40
0.4759034273731388
 40
0.6003717845774064
 40
0.7246883175555212
 40
0.9036223646482855
 40
1.0
 40
1.0
 40
1.0
 40
1.0
 10
249.4203610232294
 20
67.89773491636281
 30
0.0
 10
249.5297930096228
 20
67.8307209581113
 30
0.0
 10
249.7939653872017
 20
67.66894708133428
 30
0.0
 10
250.1127927026289
 20
67.39939666091085
 30
0.0
 10
250.3733379449151
 20
67.09710719651129
 30
0.0
 10
250.517542293372
 20
66.79246160875881
 30
0.0
 10
250.53774346574
 20
66.48700194649021
 30
0.0
 10
250.4134914760452
 20
66.13825129761797
 30
0.0
 10
250.1203389105897
 20
65.8092565664819
 30
0.0
 10
249.792533346981
 20
65.6034333386414
 30
0.0
 10
249.6777793169477
 20
65.53138134352228
 30
0.0
  0
LWPOLYLINE
  5
214
330
1F
100
AcDbEntity
  8
0
  6
Continuous
 62
     7
370
    15
100
AcDbPolyline
 90
       61
 70
   128
 43
0.0
 10
245.0992629088
 20
52.2531510743
 10
245.1341253532
 20
53.0414425415
 10
245.2383307261
 20
53.8613486438
 10
245.4107373318
 20
54.7038863186
 10
245.6494562473
 20
55.5598245468
 10
245.9518720182
 20
56.4197854899
 10
246.3146713141
 20
57.274347236
 10
246.73387923
 20
58.1141470277
 10
247.2049028361
 20
58.9299838428
 10
247.7225814994
 20
59.7129192024
 10
248.2812434241
 20
60.4543751028
 10
248.8747677932
 20
61.1462279981
 10
249.4966518294
 20
61.7808978032
 10
250.1400820413
 20
62.3514309428
 10
250.7980088726
 20
62.8515765365
 10
251.4632239394
 20
63.2758548845
 10
252.1284390063
 20
63.6196175045
 10
252.7863658376
 20
63.8790980611
 10
253.4297960495
 20
64.0514536313
 10
254.0516800857
 20
64.1347958512
 10
254.6452044548
 20
64.128211606
 10
255.2038663794
 20
64.0317730342
 10
255.7215450427
 20
63.8465367369
 10
256.1925686489
 20
63.5745322017
 10
256.6117765648
 20
63.2187395673
 10
256.9745758607
 20
62.7830569722
 10
257.2769916316
 20
62.272257846
 10
257.5157105471
 20
61.691938611
 10
257.6881171528
 20
61.048457366
 10
257.7923225257
 20
60.3488642263
 10
257.8271849701
 20
59.6008240807
 10
257.7923225257
 20
58.8125326136
 10
257.6881171528
 20
57.9926265113
 10
257.5157105471
 20
57.1500888365
 10
257.2769916316
 20
56.2941506083
 10
256.9745758607
 20
55.4341896652
 10
256.6117765648
 20
54.5796279191
 10
256.1925686489
 20
53.7398281274
 10
255.7215450427
 20
52.9239913123
 10
255.2038663794
 20
52.1410559527
 10
254.6452044548
 20
51.3996000523
 10
254.0516800857
 20
50.707747157
 10
253.4297960495
 20
50.0730773519
 10
252.7863658376
 20
49.5025442123
 10
252.1284390063
 20
49.0023986186
 10
251.4632239394
 20
48.5781202706
 10
250.7980088726
 20
48.2343576506
 10
250.1400820413
 20
47.974877094
 10
249.4966518294
 20
47.8025215238
 10
248.8747677932
 20
47.7191793039
 10
248.2812434241
 20
47.7257635491
 10
247.7225814994
 20
47.8222021209
 10
247.2049028361
 20
48.0074384182
 10
246.73387923
 20
48.2794429534
 10
246.3146713141
 20
48.6352355878
 10
245.9518720182
 20
49.0709181829
 10
245.6494562473
 20
49.5817173091
 10
245.4107373318
 20
50.1620365441
 10
245.2383307261
 20
50.8055177891
 10
245.1341253532
 20
51.5051109288
 10
245.0992629088
 20
52.2531510743
  0
SPLINE
  5
215
330
1F
100
AcDbEntity
  8
0
  6
Continuous
 62
     7
370
    15
100
AcDbSpline
210
0.0
220
0.0
230
1.0
 70
     8
 71
     3
 72
    10
 73
     6
 74
     0
 42
0.000000001
 43
0.00000001
 40
0.0
 40
0.0
 40
0.0
 40
0.0
 40
0.5
 40
0.5
 40
1.0
 40
1.0
 40
1.0
 40
1.0
 10
232.5091285938182
 20
58.47676243897229
 30
0.0
 10
232.4525999080356
 20
58.44412912328967
 30
0.0
 10
232.3739565854609
 20
58.4237561478307
 30
0.0
 10
232.2137266711298
 20
58.42069474786935
 30
0.0
 10
232.1325596585891
 20
58.43835394774958
 30
0.0
 10
232.0754457582513
 20
58.47132510060391
 30
0.0
  0
SPLINE
  5
216
330
1F
100
AcDbEntity
  8
0
  6
Continuous
 62
     7
370
    15
100
AcDbSpline
210
0.0
220
0.0
230
1.0
 70
     8
 71
     3
 72
    12
 73
     8
 74
     0
 42
0.000000001
 43
0.00000001
 40
0.0
 40
0.0
 40
0.0
 40
0.0
 40
0.250000000000002
 40
0.250000000000002
 40
0.500000000000004
 40
0.500000000000004
 40
1.0
 40
1.0
 40
1.0
 40
1.0
 10
249.7661676645961
 20
74.995286978859
 30
0.0
 10
249.7980719929408
 20
74.97686900214325
 30
0.0
 10
249.8302093293817
 20
74.94695446151118
 30
0.0
 10
249.8848676358079
 20
74.87655704156828
 30
0.0
 10
249.9078409751383
 20
74.83617634489244
 30
0.0
 10
249.961522764076
 20
74.71365251485706
 30
0.0
 10
249.978299698952
 20
74.62885119325138
 30
0.0
 10
249.978299698952
 20
74.55529859761778
 30
0.0
  0
LINE
  5
217
330
1F
100
AcDbEntity
  8
0
  6
Continuous
 62
     7
370
    15
100
AcDbLine
 10
232.0754457583
 20
58.4713251006
 30
0.0
 11
230.6760576906
 21
59.2791746365
 31
0.0
  0
LWPOLYLINE
  5
218
330
1F
100
AcDbEntity
  8
0
  6
Continuous
 62
     7
370
    15
100
AcDbPolyline
 90
       26
 70
   128
 43
0.0
 10
230.6760576906
 20
59.2791746365
 10
230.9585021705
 20
60.3975298953
 10
231.3049607534
 20
61.5243159794
 10
231.7132989142
 20
62.6525907795
 10
232.1810008885
 20
63.7754030142
 10
232.7051851726
 20
64.8858350569
 10
233.2826222764
 20
65.9770455553
 10
233.90975462
 20
67.0423115807
 10
234.5827184518
 20
68.0750700475
 10
235.2973676537
 20
69.0689581491
 10
236.0492992842
 20
70.0178525581
 10
236.8338807059
 20
70.9159071528
 10
237.6462781262
 20
71.7575890344
 10
238.481486379
 20
72.5377126156
 10
239.3343597606
 20
73.2514715687
 10
240.1996437332
 20
73.8944684373
 10
241.0720072974
 20
74.4627417289
 10
241.9460758364
 20
74.9527903216
 10
242.8164642293
 20
75.3615950347
 10
243.6778100285
 20
75.6866372296
 10
244.5248064975
 20
75.9259143268
 10
245.3522353058
 20
76.0779521444
 10
246.1549986792
 20
76.1418139801
 10
246.9281508064
 20
76.1171063821
 10
247.6669283108
 20
76.0039815737
 10
248.366779597
 20
75.8031365147
  0
LINE
  5
219
330
1F
100
AcDbEntity
  8
0
  6
Continuous
 62
     7
370
    15
100
AcDbLine
 10
248.366779597
 20
75.8031365147
 30
0.0
 11
249.7661676646
 21
74.9952869789
 31
0.0
  0
LINE
  5
21A
330
1F
100
AcDbEntity
  8
0
  6
Continuous
 62
     7
370
    15
100
AcDbLine
 10
252.2940744073
 20
69.4900981355
 30
0.0
 11
253.5125750693
 21
70.1935235948
 31
0.0
  0
LINE
  5
21B
330
1F
100
AcDbEntity
  8
0
  6
Continuous
 62
     7
370
    15
100
AcDbLine
 10
252.2940744073
 20
67.5713750534
 30
0.0
 11
252.2940744073
 21
69.4900981355
 31
0.0
  0
LINE
  5
21C
330
1F
100
AcDbEntity
  8
0
  6
Continuous
 62
     7
370
    15
100
AcDbLine
 10
232.5091285938
 20
51.127895132
 30
0.0
 11
233.626455384
 21
51.7729141584
 31
0.0
  0
LINE
  5
21D
330
1F
100
AcDbEntity
  8
0
  6
Continuous
 62
     7
370
    15
100
AcDbLine
 10
233.626455384
 20
51.7729141584
 30
0.0
 11
233.626455384
 21
59.1217814653
 31
0.0
  0
LINE
  5
21E
330
1F
100
AcDbEntity
  8
0
  6
Continuous
 62
     7
370
    15
100
AcDbLine
 10
233.626455384
 20
59.1217814653
 30
0.0
 11
232.5091285938
 21
58.476762439
 31
0.0
  0
LINE
  5
21F
330
1F
100
AcDbEntity
  8
0
  6
Continuous
 62
     7
370
    15
100
AcDbLine
 10
249.978299699
 20
74.5552985976
 30
0.0
 11
249.978299699
 21
72.9912341628
 31
0.0
  0
LINE
  5
220
330
1F
100
AcDbEntity
  8
0
  6
Continuous
 62
     7
370
    15
100
AcDbLine
 10
251.3327458601
 20
73.7731392883
 30
0.0
 11
249.978299699
 21
72.9912341628
 31
0.0
  0
SPLINE
  5
221
330
1F
100
AcDbEntity
  8
0
  6
Continuous
 62
     7
370
    15
100
AcDbSpline
210
0.0
220
0.0
230
1.0
 70
     8
 71
     3
 72
    24
 73
    20
 74
     0
 42
0.000000001
 43
0.00000001
 40
0.0
 40
0.0
 40
0.0
 40
0.0
 40
0.1249999999999999
 40
0.1249999999999999
 40
0.2499999999999998
 40
0.2499999999999998
 40
0.3749999999999997
 40
0.3749999999999997
 40
0.4374999999999999
 40
0.4374999999999999
 40
0.5000000000000001
 40
0.5000000000000001
 40
0.6250000000000001
 40
0.6250000000000001
 40
0.7500000000000001
 40
0.7500000000000001
 40
0.8750000000000001
 40
0.8750000000000001
 40
1.0
 40
1.0
 40
1.0
 40
1.0
 10
247.30071080537
 20
48.63347238673833
 30
0.0
 10
247.2293952227514
 20
48.57244531922758
 30
0.0
 10
247.1567574412538
 20
48.52549972335255
 30
0.0
 10
247.0093799712648
 20
48.45966830707238
 30
0.0
 10
246.9337369808248
 20
48.44087010230589
 30
0.0
 10
246.7865035621651
 20
48.43443696252651
 30
0.0
 10
246.7146689834901
 20
48.44628038238469
 30
0.0
 10
246.6098764231692
 20
48.48725511746604
 30
0.0
 10
246.5752877633588
 20
48.50495108313664
 30
0.0
 10
246.508774978933
 20
48.5474584795699
 30
0.0
 10
246.4766723790994
 20
48.5723011709759
 30
0.0
 10
246.3837707666131
 20
48.65739570952209
 30
0.0
 10
246.3258500417809
 20
48.72894913501854
 30
0.0
 10
246.2218330000464
 20
48.89771178364236
 30
0.0
 10
246.1763560981774
 20
48.9934440437077
 30
0.0
 10
246.0977719351372
 20
49.20691195784099
 30
0.0
 10
246.0647883484922
 20
49.32522384930517
 30
0.0
 10
246.0136513085457
 20
49.57292978759846
 30
0.0
 10
245.9949743004012
 20
49.70353948777398
 30
0.0
 10
245.9829328944799
 20
49.84094975831118
 30
0.0
  0
LWPOLYLINE
  5
222
330
1F
100
AcDbEntity
  8
0
  6
Continuous
 62
     7
370
    15
100
AcDbPolyline
 90
       14
 70
   128
 43
0.0
 10
255.2368283439
 20
53.2148955234
 10
254.7150315865
 20
52.4320550122
 10
254.1497532514
 20
51.6947264948
 10
253.5481254701
 20
51.0122128643
 10
252.9177389959
 20
50.393125413
 10
252.2665474315
 20
49.8452751834
 10
251.6027668778
 20
49.3755744162
 10
250.9347722714
 20
48.9899493382
 10
250.2709917177
 20
48.6932653911
 10
249.6198001533
 20
48.489265844
 10
248.9894136791
 20
48.3805245645
 10
248.3877858978
 20
48.3684135441
 10
247.8225075627
 20
48.453085588
 10
247.3007108054
 20
48.6334723867
  0
SPLINE
  5
223
330
1F
100
AcDbEntity
  8
0
  6
Continuous
 62
     7
370
    15
100
AcDbSpline
210
0.0
220
0.0
230
1.0
 70
     8
 71
     3
 72
    24
 73
    20
 74
     0
 42
0.000000001
 43
0.00000001
 40
0.0
 40
0.0
 40
0.0
 40
0.0
 40
0.1249999999999994
 40
0.1249999999999994
 40
0.2499999999999989
 40
0.2499999999999989
 40
0.3749999999999983
 40
0.3749999999999983
 40
0.4374999999999981
 40
0.4374999999999981
 40
0.4999999999999978
 40
0.4999999999999978
 40
0.6249999999999983
 40
0.6249999999999983
 40
0.7499999999999989
 40
0.7499999999999989
 40
0.8749999999999994
 40
0.8749999999999994
 40
1.0
 40
1.0
 40
1.0
 40
1.0
 10
256.5546062547551
 20
55.94384688538012
 30
0.0
 10
256.5969248360581
 20
55.8239190878588
 30
0.0
 10
256.6262290026356
 20
55.69943645826408
 30
0.0
 10
256.6591418656393
 20
55.44117359027548
 30
0.0
 10
256.6625093737463
 20
55.30571365337963
 30
0.0
 10
256.6419694327646
 20
55.03524418609736
 30
0.0
 10
256.6184877063935
 20
54.89989571986384
 30
0.0
 10
256.5629979306783
 20
54.6966180462322
 30
0.0
 10
256.5409442440891
 20
54.62849901396503
 30
0.0
 10
256.4909424696858
 20
54.4953872768323
 30
0.0
 10
256.4629343795036
 20
54.43005798433384
 30
0.0
 10
256.3700605526649
 20
54.23767830008374
 30
0.0
 10
256.2955938541481
 20
54.11306612439808
 30
0.0
 10
256.125789024023
 20
53.87933274084296
 30
0.0
 10
256.0318845934024
 20
53.77172301707075
 30
0.0
 10
255.8265006896041
 20
53.57452389992154
 30
0.0
 10
255.714525074165
 20
53.48503720674073
 30
0.0
 10
255.4831191753798
 20
53.33220735783561
 30
0.0
 10
255.3625069299172
 20
53.26759024171393
 30
0.0
 10
255.2368283438649
 20
53.214895523378
 30
0.0
  0
LWPOLYLINE
  5
224
330
1F
100
AcDbEntity
  8
0
  6
Continuous
 62
     7
370
    15
100
AcDbPolyline
 90
        9
 70
   128
 43
0.0
 10
256.5546062548
 20
62.2375376275
 10
256.840750405
 20
61.6558073284
 10
257.0480800981
 20
60.994631958
 10
257.1736627007
 20
60.2633636984
 10
257.2157218742
 20
59.4723461798
 10
257.1736627007
 20
58.6327681732
 10
257.0480800981
 20
57.7565053269
 10
256.840750405
 20
56.8559521881
 10
256.5546062548
 20
55.9438468854
  0
SPLINE
  5
225
330
1F
100
AcDbEntity
  8
0
  6
Continuous
 62
     7
370
    15
100
AcDbSpline
210
0.0
220
0.0
230
1.0
 70
     8
 71
     3
 72
    24
 73
    20
 74
     0
 42
0.000000001
 43
0.00000001
 40
0.0
 40
0.0
 40
0.0
 40
0.0
 40
0.1250000000000001
 40
0.1250000000000001
 40
0.2500000000000003
 40
0.2500000000000003
 40
0.3750000000000004
 40
0.3750000000000004
 40
0.4375000000000002
 40
0.4375000000000002
 40
0.5
 40
0.5
 40
0.625
 40
0.625
 40
0.75
 40
0.75
 40
0.8750000000000001
 40
0.8750000000000001
 40
1.0
 40
1.0
 40
1.0
 40
1.0
 10
255.2368283438649
 20
63.44501499910437
 30
0.0
 10
255.3625035940996
 20
63.47466089846736
 30
0.0
 10
255.4831228148751
 20
63.49390739903905
 30
0.0
 10
255.7145584857612
 20
63.51121304884123
 30
0.0
 10
255.8265729311682
 20
63.50901445958465
 30
0.0
 10
256.0317815992179
 20
63.4819792002861
 30
0.0
 10
256.1255381288109
 20
63.45748050753801
 30
0.0
 10
256.2526386680354
 20
63.40362765035416
 30
0.0
 10
256.2928855766648
 20
63.38266524716838
 30
0.0
 10
256.3668477135167
 20
63.33585743111662
 30
0.0
 10
256.4007950157942
 20
63.30994981565718
 30
0.0
 10
256.4937091525955
 20
63.22484804697791
 30
0.0
 10
256.5441859388741
 20
63.15759191573804
 30
0.0
 10
256.6184364230837
 20
63.00601313500438
 30
0.0
 10
256.641957698651
 20
62.92295558821412
 30
0.0
 10
256.662518029526
 20
62.74298411939794
 30
0.0
 10
256.6591384236148
 20
62.64566425216866
 30
0.0
 10
256.6262271753513
 20
62.44647835788085
 30
0.0
 10
256.5969259593268
 20
62.34356589696574
 30
0.0
 10
256.5546062547551
 20
62.23753762753153
 30
0.0
  0
LWPOLYLINE
  5
226
330
1F
100
AcDbEntity
  8
0
  6
Continuous
 62
     7
370
    15
100
AcDbPolyline
 90
       14
 70
   128
 43
0.0
 10
247.3007108054
 20
58.8635918625
 10
247.8225075627
 20
59.6464323736
 10
248.3877858978
 20
60.383760891
 10
248.9894136791
 20
61.0662745215
 10
249.6198001533
 20
61.6853619728
 10
250.2709917177
 20
62.2332122024
 10
250.9347722714
 20
62.7029129696
 10
251.6027668778
 20
63.0885380476
 10
252.2665474315
 20
63.3852219947
 10
252.9177389959
 20
63.5892215419
 10
253.5481254701
 20
63.6979628214
 10
254.1497532514
 20
63.7100738417
 10
254.7150315865
 20
63.6254017978
 10
255.2368283439
 20
63.4450149991
  0
SPLINE
  5
227
330
1F
100
AcDbEntity
  8
0
  6
Continuous
 62
     7
370
    15
100
AcDbSpline
210
0.0
220
0.0
230
1.0
 70
     8
 71
     3
 72
    24
 73
    20
 74
     0
 42
0.000000001
 43
0.00000001
 40
0.0
 40
0.0
 40
0.0
 40
0.0
 40
0.1250000000000003
 40
0.1250000000000003
 40
0.2500000000000006
 40
0.2500000000000006
 40
0.3750000000000008
 40
0.3750000000000008
 40
0.437500000000001
 40
0.437500000000001
 40
0.5000000000000011
 40
0.5000000000000011
 40
0.6250000000000008
 40
0.6250000000000008
 40
0.7500000000000006
 40
0.7500000000000006
 40
0.8750000000000002
 40
0.8750000000000002
 40
1.0
 40
1.0
 40
1.0
 40
1.0
 10
245.9829328944799
 20
56.13464050046259
 30
0.0
 10
245.9949739807928
 20
56.22318712983614
 30
0.0
 10
246.0136512534934
 20
56.31997066412751
 30
0.0
 10
246.0647965913867
 20
56.52970776563814
 30
0.0
 10
246.0978005382467
 20
56.64417090851092
 30
0.0
 10
246.1763157286184
 20
56.88117197671527
 30
0.0
 10
246.2217194059075
 20
57.00386517005887
 30
0.0
 10
246.2995171605262
 20
57.19426472158801
 30
0.0
 10
246.3272290959345
 20
57.25911731633998
 30
0.0
 10
246.3846802227637
 20
57.38792863385422
 30
0.0
 10
246.4145330153901
 20
57.45219300229926
 30
0.0
 10
246.5074193665438
 20
57.64456545641625
 30
0.0
 10
246.5744421265068
 20
57.7734749263585
 30
0.0
 10
246.714480399107
 20
58.02439217780378
 30
0.0
 10
246.786429203426
 20
58.14467661485109
 30
0.0
 10
246.933789275059
 20
58.3753721773174
 30
0.0
 10
247.009401697942
 20
58.48585089473311
 30
0.0
 10
247.1567593085172
 20
58.68720078764371
 30
0.0
 10
247.2293933298107
 20
58.7795151430258
 30
0.0
 10
247.30071080537
 20
58.8635918624647
 30
0.0
  0
LWPOLYLINE
  5
228
330
1F
100
AcDbEntity
  8
0
  6
Continuous
 62
     7
370
    15
100
AcDbPolyline
 90
        9
 70
   128
 43
0.0
 10
245.9829328945
 20
49.8409497583
 10
245.6967887443
 20
50.4226800575
 10
245.4894590511
 20
51.0838554278
 10
245.3638764485
 20
51.8151236875
 10
245.321817275
 20
52.606141206
 10
245.3638764485
 20
53.4457192126
 10
245.4894590511
 20
54.321982059
 10
245.6967887443
 20
55.2225351977
 10
245.9829328945
 20
56.1346405005
  0
LWPOLYLINE
  5
229
330
1F
100
AcDbEntity
  8
0
  6
Continuous
 62
     7
370
    15
100
AcDbPolyline
 90
       23
 70
   128
 43
0.0
 10
229.7522749029
 20
60.9101566705
 10
230.0526209691
 20
62.0100384687
 10
230.4190483073
 20
63.1157981743
 10
230.8489868692
 20
64.2196802096
 10
231.3394211519
 20
65.3139421667
 10
231.8869113471
 20
66.3909091109
 10
232.4876174682
 20
67.4430274114
 10
233.1373262824
 20
68.4629177206
 10
233.831480862
 20
69.4434267317
 10
234.5652125455
 20
70.3776773506
 10
235.3333750855
 20
71.2591169301
 10
236.1305807435
 20
72.0815632292
 10
236.9512380784
 20
72.8392477738
 10
237.7895911635
 20
73.5268563161
 10
238.639759958
 20
74.1395661072
 10
239.4957815478
 20
74.673079723
 10
240.3516519686
 20
75.1236552057
 10
241.2013683162
 20
75.4881323088
 10
242.0389708502
 20
75.7639546629
 10
242.8585847937
 20
75.949187705
 10
243.6544615383
 20
76.0425322477
 10
244.4210189635
 20
76.043333591
 10
244.8673409506
 20
75.9989881766
  0
SPLINE
  5
22A
330
1F
100
AcDbEntity
  8
0
  6
Continuous
 62
     7
370
    15
100
AcDbSpline
210
0.0
220
0.0
230
1.0
 70
     8
 71
     3
 72
     8
 73
     4
 74
     0
 42
0.000000001
 43
0.00000001
 40
0.0
 40
0.0
 40
0.0
 40
0.0
 40
1.0
 40
1.0
 40
1.0
 40
1.0
 10
229.7522749028603
 20
60.91015667045056
 30
0.0
 10
229.2609738738078
 20
60.82750945024667
 30
0.0
 10
228.7693937829051
 20
60.74542566275623
 30
0.0
 10
228.2775989841531
 20
60.66377537567449
 30
0.0
  0
LWPOLYLINE
  5
22B
330
1F
100
AcDbEntity
  8
0
  6
Continuous
 62
     7
370
    15
100
AcDbPolyline
 90
       26
 70
   128
 43
0.0
 10
228.2775989842
 20
60.6637753757
 10
228.560043464
 20
61.7821306345
 10
228.906502047
 20
62.9089167186
 10
229.3148402077
 20
64.0371915187
 10
229.782542182
 20
65.1600037534
 10
230.3067264661
 20
66.2704357961
 10
230.8841635699
 20
67.3616462945
 10
231.5112959135
 20
68.4269123199
 10
232.1842597454
 20
69.4596707867
 10
232.8989089472
 20
70.4535588883
 10
233.6508405778
 20
71.4024532973
 10
234.4354219994
 20
72.300507892
 10
235.2478194198
 20
73.1421897736
 10
236.0830276725
 20
73.9223133548
 10
236.9359010541
 20
74.6360723079
 10
237.8011850268
 20
75.2790691765
 10
238.6735485909
 20
75.8473424681
 10
239.5476171299
 20
76.3373910608
 10
240.4180055229
 20
76.7461957739
 10
241.279351322
 20
77.0712379687
 10
242.126347791
 20
77.310515066
 10
242.9537765994
 20
77.4625528836
 10
243.7565399727
 20
77.5264147192
 10
244.5296920999
 20
77.5017071213
 10
245.2684696043
 20
77.3885823129
 10
245.9683208905
 20
77.1877372539
  0
LINE
  5
22C
330
1F
100
AcDbEntity
  8
0
  6
Continuous
 62
     7
370
    15
100
AcDbLine
 10
245.9683208905
 20
77.1877372539
 30
0.0
 11
246.2975723871
 21
76.1239693017
 31
0.0
  0
LINE
  5
22D
330
1F
100
AcDbEntity
  8
0
  6
Continuous
 62
     7
370
    15
100
AcDbLine
 10
242.5536784965
 20
79.1589683492
 30
0.0
 11
245.9683208905
 21
77.1877372539
 31
0.0
  0
LINE
  5
22E
330
1F
100
AcDbEntity
  8
0
  6
Continuous
 62
     7
370
    15
100
AcDbLine
 10
228.2775989842
 20
60.6637753757
 30
0.0
 11
227.6913837149
 21
61.0021902473
 31
0.0
  0
SPLINE
  5
22F
330
1F
100
AcDbEntity
  8
0
  6
Continuous
 62
     7
370
    15
100
AcDbSpline
210
0.0
220
0.0
230
1.0
 70
     8
 71
     3
 72
    28
 73
    24
 74
     0
 42
0.000000001
 43
0.00000001
 40
0.0
 40
0.0
 40
0.0
 40
0.0
 40
0.1249999999999999
 40
0.1249999999999999
 40
0.1874999999999998
 40
0.1874999999999998
 40
0.2499999999999997
 40
0.2499999999999997
 40
0.3749999999999993
 40
0.3749999999999993
 40
0.4374999999999993
 40
0.4374999999999993
 40
0.4999999999999992
 40
0.4999999999999992
 40
0.6249999999999992
 40
0.6249999999999992
 40
0.7499999999999992
 40
0.7499999999999992
 40
0.8124999999999993
 40
0.8124999999999993
 40
0.8749999999999996
 40
0.8749999999999996
 40
1.0
 40
1.0
 40
1.0
 40
1.0
 10
227.6913837148947
 20
61.0021902472543
 30
0.0
 10
227.5033966344283
 20
61.11071287883838
 30
0.0
 10
227.3131766798276
 20
61.19265659938629
 30
0.0
 10
227.0250780778796
 20
61.27781432942475
 30
0.0
 10
226.9285882072801
 20
61.29986425982855
 30
0.0
 10
226.7348500344451
 20
61.33113808328751
 30
0.0
 10
226.6375990139138
 20
61.34026533461094
 30
0.0
 10
226.3515771390284
 20
61.34804817671935
 30
0.0
 10
226.1662353226719
 20
61.32774163308227
 30
0.0
 10
225.8977227358561
 20
61.26052097994914
 30
0.0
 10
225.8093620761903
 20
61.23173462234355
 30
0.0
 10
225.6390093659006
 20
61.1627227322484
 30
0.0
 10
225.5569823361192
 20
61.12258284233826
 30
0.0
 10
225.3205460823665
 20
60.98596307457505
 30
0.0
 10
225.1756788322442
 20
60.87344858488598
 30
0.0
 10
224.9148220387601
 20
60.60519161988652
 30
0.0
 10
224.8025296312578
 20
60.45303823350923
 30
0.0
 10
224.6633051498039
 20
60.20112184581092
 30
0.0
 10
224.6217093634382
 20
60.11307956013456
 30
0.0
 10
224.5485846483769
 20
59.92873850508273
 30
0.0
 10
224.516960164324
 20
59.83194974240095
 30
0.0
 10
224.4394668609018
 20
59.53393466350413
 30
0.0
 10
224.410292145512
 20
59.32446178636761
 30
0.0
 10
224.4043252627702
 20
59.10408099368374
 30
0.0
  0
ARC
  5
230
330
1F
100
AcDbEntity
  8
0
  6
Continuous
 62
     7
370
    15
100
AcDbCircle
 10
239.2476917251
 20
58.6958105877
 30
0.0
 40
14.84898018921195
100
AcDbArc
 50
178.4244628824
 51
181.5755371176
  0
SPLINE
  5
231
330
1F
100
AcDbEntity
  8
0
  6
Continuous
 62
     7
370
    15
100
AcDbSpline
210
0.0
220
0.0
230
1.0
 70
     8
 71
     3
 72
    30
 73
    26
 74
     0
 42
0.000000001
 43
0.00000001
 40
0.0
 40
0.0
 40
0.0
 40
0.0
 40
0.1250000000000001
 40
0.1250000000000001
 40
0.1875000000000002
 40
0.1875000000000002
 40
0.2500000000000003
 40
0.2500000000000003
 40
0.3750000000000004
 40
0.3750000000000004
 40
0.4375000000000004
 40
0.4375000000000004
 40
0.5000000000000004
 40
0.5000000000000004
 40
0.6250000000000007
 40
0.6250000000000007
 40
0.6875000000000006
 40
0.6875000000000006
 40
0.7500000000000004
 40
0.7500000000000004
 40
0.8125000000000004
 40
0.8125000000000004
 40
0.8750000000000003
 40
0.8750000000000003
 40
1.0
 40
1.0
 40
1.0
 40
1.0
 10
224.4043252627702
 20
58.28754018179799
 30
0.0
 10
224.4102928614617
 20
58.07402298902328
 30
0.0
 10
224.4394380814611
 20
57.85647309100415
 30
0.0
 10
224.51587274272
 20
57.52417406146856
 30
0.0
 10
224.5468387262974
 20
57.41239976016899
 30
0.0
 10
224.619808667113
 20
57.18669788663399
 30
0.0
 10
224.6619448656716
 20
57.07261011406148
 30
0.0
 10
224.801836655036
 20
56.73444738670029
 30
0.0
 10
224.9136805795783
 20
56.51193716742751
 30
0.0
 10
225.1074671767228
 20
56.18132691147795
 30
0.0
 10
225.1768078143261
 20
56.0711002717718
 30
0.0
 10
225.3223001987728
 20
55.85437027131826
 30
0.0
 10
225.3981874894918
 20
55.74817333568755
 30
0.0
 10
225.6345754379633
 20
55.43553516243793
 30
0.0
 10
225.8037209402141
 20
55.23499261460277
 30
0.0
 10
226.0735869375482
 20
54.94488777518043
 30
0.0
 10
226.1657784435991
 20
54.85054435880798
 30
0.0
 10
226.3513770386338
 20
54.66923933074759
 30
0.0
 10
226.4452059189206
 20
54.58181999725343
 30
0.0
 10
226.634655969386
 20
54.41321244692878
 30
0.0
 10
226.7302773845916
 20
54.33202426115943
 30
0.0
 10
226.923139074018
 20
54.1758615816113
 30
0.0
 10
227.0208739829164
 20
54.1005346019146
 30
0.0
 10
227.3121299380368
 20
53.88724436847075
 30
0.0
 10
227.5033873290099
 20
53.76185094377033
 30
0.0
 10
227.6913837148947
 20
53.65332294028255
 30
0.0
  0
LINE
  5
232
330
1F
100
AcDbEntity
  8
0
  6
Continuous
 62
     7
370
    15
100
AcDbLine
 10
227.6913837149
 20
53.6533229403
 30
0.0
 11
228.2775989842
 21
53.3149080687
 31
0.0
  0
ARC
  5
233
330
1F
100
AcDbEntity
  8
0
  6
Continuous
 62
     7
370
    15
100
AcDbCircle
 10
234.0988285103
 20
54.7061865626
 30
0.0
 40
5.98517911544402
100
AcDbArc
 50
193.4415888918
 51
253.1805824648
  0
LINE
  5
234
330
1F
100
AcDbEntity
  8
0
  6
Continuous
 62
     7
370
    15
100
AcDbLine
 10
247.5977387468
 20
76.2467885609
 30
0.0
 11
247.9320511506
 21
75.9394604507
 31
0.0
  0
LINE
  5
235
330
1F
100
AcDbEntity
  8
0
  6
Continuous
 62
     7
370
    15
100
AcDbLine
 10
246.744809993
 20
76.7391738498
 30
0.0
 11
247.5977387468
 21
76.2467885609
 31
0.0
  0
SPLINE
  5
236
330
1F
100
AcDbEntity
  8
0
  6
Continuous
 62
     7
370
    15
100
AcDbSpline
210
0.0
220
0.0
230
1.0
 70
     8
 71
     3
 72
    20
 73
    16
 74
     0
 42
0.000000001
 43
0.00000001
 40
0.0
 40
0.0
 40
0.0
 40
0.0
 40
0.2499999999999995
 40
0.2499999999999995
 40
0.3749999999999996
 40
0.3749999999999996
 40
0.4999999999999997
 40
0.4999999999999997
 40
0.6249999999999998
 40
0.6249999999999998
 40
0.7499999999999998
 40
0.7499999999999998
 40
0.8749999999999999
 40
0.8749999999999999
 40
1.0
 40
1.0
 40
1.0
 40
1.0
 10
242.5536784964933
 20
79.15896834915475
 30
0.0
 10
242.8726671508913
 20
79.02507795989496
 30
0.0
 10
243.1991227509892
 20
78.86518161283296
 30
0.0
 10
243.7114728683724
 20
78.58726268536346
 30
0.0
 10
243.8860762350502
 20
78.48826367255315
 30
0.0
 10
244.2459500973991
 20
78.27732296765444
 30
0.0
 10
244.4288105137526
 20
78.1667671504444
 30
0.0
 10
244.7951056029298
 20
77.94134928143356
 30
0.0
 10
244.9795891191884
 20
77.82586868005411
 30
0.0
 10
245.3531739434239
 20
77.59103633575835
 30
0.0
 10
245.5375234146632
 20
77.47470641048308
 30
0.0
 10
245.8982333211396
 20
77.24901172368371
 30
0.0
 10
246.0752873103935
 20
77.139201749587
 30
0.0
 10
246.4230166617458
 20
76.92780698605111
 30
0.0
 10
246.5882670782041
 20
76.82954415090809
 30
0.0
 10
246.7448099929855
 20
76.73917384979072
 30
0.0
  0
ARC
  5
237
330
1F
100
AcDbEntity
  8
0
  6
Continuous
 62
     7
370
    15
100
AcDbCircle
 10
238.6464782393
 20
73.5077255812
 30
0.0
 40
6.943593807468196
100
AcDbArc
 50
63.3035690035
 51
113.9767780366
  0
ARC
  5
238
330
1F
100
AcDbEntity
  8
0
  6
Continuous
 62
     7
370
    15
100
AcDbCircle
 10
229.7455136389
 20
58.1704783036
 30
0.0
 40
6.844428672243072
100
AcDbArc
 50
186.7852637878
 51
236.994907271
  0
LINE
  5
239
330
1F
100
AcDbEntity
  8
0
  6
Continuous
 62
     7
370
    15
100
AcDbLine
 10
246.2836667673
 20
49.3846848887
 30
0.0
 11
247.262424133
 21
49.949709489
 31
0.0
  0
LINE
  5
23A
330
1F
100
AcDbEntity
  8
0
  6
Continuous
 62
     7
370
    15
100
AcDbLine
 10
246.0814769727
 20
49.283933177
 30
0.0
 11
246.2836667673
 21
49.3846848887
 31
0.0
  0
LWPOLYLINE
  5
23B
330
1F
100
AcDbEntity
  8
0
  6
Continuous
 62
     7
370
    15
100
AcDbPolyline
 90
        3
 70
   128
 43
0.0
 10
255.3530417001
 20
62.7020851252
 10
255.4043511376
 20
63.1200928034
 10
255.3826480851
 20
63.4689218808
  0
LWPOLYLINE
  5
23C
330
1F
100
AcDbEntity
  8
0
  6
Continuous
 62
     7
370
    15
100
AcDbPolyline
 90
        9
 70
   128
 43
0.0
 10
255.3530417001
 20
56.7861492514
 10
255.6092957316
 20
57.6396324377
 10
255.7947251829
 20
58.4811960852
 10
255.906945387
 20
59.3000174846
 10
255.9445131652
 20
60.0855663971
 10
255.906945387
 20
60.8277404762
 10
255.7947251829
 20
61.5169951859
 10
255.6092957316
 20
62.144466546
 10
255.3530417001
 20
62.7020851252
  0
ARC
  5
23D
330
1F
100
AcDbEntity
  8
0
  6
Continuous
 62
     7
370
    15
100
AcDbCircle
 10
252.3405470637
 20
56.3888556169
 30
0.0
 40
3.038579629796019
100
AcDbArc
 50
301.3280910929
 51
7.5129216824
  0
LINE
  5
23E
330
1F
100
AcDbEntity
  8
0
  6
Continuous
 62
     7
370
    15
100
AcDbLine
 10
252.9416626383
 20
53.2282640921
 30
0.0
 11
253.9204200041
 21
53.7932886925
 31
0.0
  0
LWPOLYLINE
  5
23F
330
1F
100
AcDbEntity
  8
0
  6
Continuous
 62
     7
370
    15
100
AcDbPolyline
 90
       11
 70
   128
 43
0.0
 10
252.9416626383
 20
53.2282640921
 10
252.4191651172
 20
52.587262137
 10
251.8666612959
 20
51.9996848842
 10
251.2913059972
 20
51.4731413512
 10
250.7005499665
 20
51.0144501799
 10
250.1020433857
 20
50.6295513366
 10
249.5035368048
 20
50.3234291905
 10
248.9127807741
 20
50.100047967
 10
248.3374254754
 20
49.962300412
 10
247.7849216541
 20
49.9119703309
 10
247.262424133
 20
49.949709489
  0
LWPOLYLINE
  5
240
330
1F
100
AcDbEntity
  8
0
  6
Continuous
 62
     7
370
    15
100
AcDbPolyline
 90
        3
 70
   128
 43
0.0
 10
245.6552785533
 20
54.1457176889
 10
245.6903426222
 20
54.8095408735
 10
245.6931249086
 20
54.8360883248
  0
LWPOLYLINE
  5
241
330
1F
100
AcDbEntity
  8
0
  6
Continuous
 62
     7
370
    15
100
AcDbPolyline
 90
       37
 70
   128
 43
0.0
 10
251.9112369399
 20
62.4479516498
 10
251.9953837657
 20
62.4520331523
 10
252.4847391338
 20
62.4238714022
 10
252.9365179666
 20
62.3056423351
 10
253.343595442
 20
62.099210494
 10
253.699551705
 20
61.8078314325
 10
253.9987731128
 20
61.4361003722
 10
254.2365407651
 20
60.9898797342
 10
254.4091049238
 20
60.4762066845
 10
254.5137441491
 20
59.9031821538
 10
254.548808218
 20
59.2798430814
 10
254.5137441491
 20
58.6160198968
 10
254.4091049238
 20
57.9221814882
 10
254.2365407651
 20
57.2092701017
 10
253.9987731128
 20
56.4885287758
 10
253.699551705
 20
55.7713240317
 10
253.343595442
 20
55.0689666167
 10
252.9365179666
 20
54.3925331268
 10
252.4847391338
 20
53.7526913222
 10
251.9953837657
 20
53.1595318905
 10
251.4761692888
 20
52.62240931
 10
250.9352840256
 20
52.149794325
 10
250.3812580597
 20
51.7491403558
 10
249.8228287116
 20
51.4267659551
 10
249.2688027457
 20
51.1877551597
 10
248.7279174825
 20
51.0358773125
 10
248.2087030056
 20
50.973527618
 10
247.7193476375
 20
51.0016893682
 10
247.2675688047
 20
51.1199184353
 10
246.8604913294
 20
51.3263502763
 10
246.5045350663
 20
51.6177293379
 10
246.2053136585
 20
51.9894603981
 10
245.9675460063
 20
52.4356810361
 10
245.7949818475
 20
52.9493540859
 10
245.6903426222
 20
53.5223786165
 10
245.6552785533
 20
54.1457176889
 10
245.6552785533
 20
54.1457176889
  0
ARC
  5
242
330
1F
100
AcDbEntity
  8
0
  6
Continuous
 62
     7
370
    15
100
AcDbCircle
 10
256.0046446492
 20
61.7823669313
 30
0.0
 40
1.831376661405596
100
AcDbArc
 50
114.7876470306
 51
120.0654133288
  0
LINE
  5
243
330
1F
100
AcDbEntity
  8
0
  6
Continuous
 62
     7
370
    15
100
AcDbLine
 10
254.1083888273
 20
62.8023145891
 30
0.0
 11
255.087146193
 21
63.3673391894
 31
0.0
  0
LWPOLYLINE
  5
244
330
1F
100
AcDbEntity
  8
0
  6
Continuous
 62
     7
370
    15
100
AcDbPolyline
 90
       11
 70
   128
 43
0.0
 10
248.429150322
 20
59.523759986
 10
248.9516478431
 20
60.1647619411
 10
249.5041516644
 20
60.7523391939
 10
250.0795069631
 20
61.2788827269
 10
250.6702629938
 20
61.7375738982
 10
251.2687695746
 20
62.1224727415
 10
251.8672761555
 20
62.4285948876
 10
252.4580321862
 20
62.6519761111
 10
253.0333874848
 20
62.7897236661
 10
253.5858913061
 20
62.8400537472
 10
254.1083888273
 20
62.8023145891
  0
LINE
  5
245
330
1F
100
AcDbEntity
  8
0
  6
Continuous
 62
     7
370
    15
100
AcDbLine
 10
247.4503929562
 20
58.9587353856
 30
0.0
 11
248.429150322
 21
59.523759986
 31
0.0
  0
ARC
  5
246
330
1F
100
AcDbEntity
  8
0
  6
Continuous
 62
     7
370
    15
100
AcDbCircle
 10
248.5173929118
 20
57.1147909878
 30
0.0
 40
2.130403681826707
100
AcDbArc
 50
120.0558559959
 51
124.8272483447
  0
ARC
  5
247
330
1F
100
AcDbEntity
  8
0
  6
Continuous
 62
     7
370
    15
100
AcDbCircle
 10
248.5762560109
 20
49.51604281
 30
0.0
 40
2.613597006305359
100
AcDbArc
 50
168.2128575188
 51
172.8588525909
  0
LWPOLYLINE
  5
248
330
1F
100
AcDbEntity
  8
0
  6
Continuous
 62
     7
370
    15
100
AcDbPolyline
 90
        9
 70
   128
 43
0.0
 10
246.0177712601
 20
50.0499389529
 10
245.7615172286
 20
50.607557532
 10
245.5760877774
 20
51.2350288922
 10
245.4638675733
 20
51.9242836019
 10
245.4262997951
 20
52.666457681
 10
245.4638675733
 20
53.4520065935
 10
245.5760877774
 20
54.2708279929
 10
245.7615172286
 20
55.1123916404
 10
246.0177712601
 20
55.9658748267
  0
ARC
  5
249
330
1F
100
AcDbEntity
  8
0
  6
Continuous
 62
     7
370
    15
100
AcDbCircle
 10
247.3756144622
 20
56.3341536289
 30
0.0
 40
1.406899938731919
100
AcDbArc
 50
188.1526233698
 51
195.1748859975
  0
LINE
  5
24A
330
1F
100
AcDbEntity
  8
0
  6
Continuous
 62
     7
370
    15
100
AcDbLine
 10
230.8868894577
 20
60.1358979021
 30
0.0
 11
230.4232616652
 21
60.4035445296
 31
0.0
  0
LINE
  5
24B
330
1F
100
AcDbEntity
  8
0
  6
Continuous
 62
     7
370
    15
100
AcDbLine
 10
229.9974435072
 20
61.0516894931
 30
0.0
 11
229.7522749029
 21
60.9101566705
 31
0.0
  0
SPLINE
  5
24C
330
1F
100
AcDbEntity
  8
0
  6
Continuous
 62
     7
370
    15
100
AcDbSpline
210
0.0
220
0.0
230
1.0
 70
     8
 71
     3
 72
    14
 73
    10
 74
     0
 42
0.000000001
 43
0.00000001
 40
0.0
 40
0.0
 40
0.0
 40
0.0
 40
0.1250000000000012
 40
0.1250000000000012
 40
0.2500000000000024
 40
0.2500000000000024
 40
0.5000000000000013
 40
0.5000000000000013
 40
1.0
 40
1.0
 40
1.0
 40
1.0
 10
230.423261665238
 20
60.40354452962858
 30
0.0
 10
230.3990652320729
 20
60.41751283317113
 30
0.0
 10
230.375889793614
 20
60.44487800916866
 30
0.0
 10
230.338969401183
 20
60.50267977829421
 30
0.0
 10
230.3239276101504
 20
60.53365025741054
 30
0.0
 10
230.2841141535635
 20
60.62667673033978
 30
0.0
 10
230.2644781351795
 20
60.6892877846245
 30
0.0
 10
230.21405728671
 20
60.87361853553949
 30
0.0
 10
230.1916401084695
 20
60.99516277044021
 30
0.0
 10
230.1749522103035
 20
61.11429183574258
 30
0.0
  0
SPLINE
  5
24D
330
1F
100
AcDbEntity
  8
0
  6
Continuous
 62
     7
370
    15
100
AcDbSpline
210
0.0
220
0.0
230
1.0
 70
     8
 71
     3
 72
    10
 73
     6
 74
     0
 42
0.000000001
 43
0.00000001
 40
0.0
 40
0.0
 40
0.0
 40
0.0
 40
0.5
 40
0.5
 40
1.0
 40
1.0
 40
1.0
 40
1.0
 10
230.1749522103035
 20
61.11429183574258
 30
0.0
 10
230.1415621921158
 20
61.10814206654234
 30
0.0
 10
230.1093228406877
 20
61.09959545869427
 30
0.0
 10
230.0493349464253
 20
61.07835948492538
 30
0.0
 10
230.0220730731764
 20
61.06590783891719
 30
0.0
 10
229.9974435072265
 20
61.05168949314034
 30
0.0
  0
LWPOLYLINE
  5
24E
330
1F
100
AcDbEntity
  8
0
  6
Continuous
 62
     7
370
    15
100
AcDbPolyline
 90
       31
 70
   128
 43
0.0
 10
251.7835591545
 20
62.3905391137
 10
252.1757754151
 20
62.3363491718
 10
252.6008211061
 20
62.1903012948
 10
252.9790315991
 20
61.9576640257
 10
253.3041966883
 20
61.6422572618
 10
253.5709771719
 20
61.2492599735
 10
253.7749925217
 20
60.7851251655
 10
253.9128928113
 20
60.2574739184
 10
253.9824137219
 20
59.6749702512
 10
253.9824137219
 20
59.0471788579
 10
253.9128928113
 20
58.3844080559
 10
253.7749925217
 20
57.6975405234
 10
253.5709771719
 20
56.9978546063
 10
253.3041966883
 20
56.296839128
 10
252.9790315991
 20
55.6060047434
 10
252.6008211061
 20
54.9366949338
 10
252.1757754151
 20
54.2998997479
 10
251.7108737646
 20
53.706075345
 10
251.2137498269
 20
53.1649723054
 10
250.6925663632
 20
52.6854755261
 10
250.1558811917
 20
52.2754583308
 10
249.612506668
 20
51.9416531907
 10
249.0713649867
 20
51.6895411768
 10
248.5413416794
 20
51.5232619616
 10
248.0311397141
 20
51.445545845
 10
247.5491365929
 20
51.4576689236
 10
247.1032467937
 20
51.5594321368
 10
246.7007918148
 20
51.7491645354
 10
246.3483799557
 20
52.0237507187
 10
246.0517978095
 20
52.3786819891
 10
245.8712805989
 20
52.6894568506
  0
ARC
  5
24F
330
1F
100
AcDbEntity
  8
0
  6
Continuous
 62
     7
370
    15
100
AcDbCircle
 10
248.3215943316
 20
57.7412172869
 30
0.0
 40
25.80017984728171
100
AcDbArc
 50
134.0175354919
 51
166.0669804906
  0
LINE
  5
250
330
1F
100
AcDbEntity
  8
0
  6
Continuous
 62
     7
370
    15
100
AcDbLine
 10
231.4564596473
 20
53.0256260325
 30
0.0
 11
233.626455384
 21
51.7729141584
 31
0.0
  0
SPLINE
  5
251
330
1F
100
AcDbEntity
  8
0
  6
Continuous
 62
     7
370
    15
100
AcDbSpline
210
0.0
220
0.0
230
1.0
 70
     8
 71
     3
 72
    14
 73
    10
 74
     0
 42
0.000000001
 43
0.00000001
 40
0.0
 40
0.0
 40
0.0
 40
0.0
 40
0.1249999999999983
 40
0.1249999999999983
 40
0.2499999999999966
 40
0.2499999999999966
 40
0.4999999999999968
 40
0.4999999999999968
 40
1.0
 40
1.0
 40
1.0
 40
1.0
 10
231.2081501923551
 20
53.73637333856668
 30
0.0
 10
231.2325795409989
 20
53.72227057578037
 30
0.0
 10
231.255558095065
 20
53.69498844592069
 30
0.0
 10
231.2924412085567
 20
53.63723504241419
 30
0.0
 10
231.3075663548736
 20
53.60608746074359
 30
0.0
 10
231.3472837153328
 20
53.51325035918761
 30
0.0
 10
231.3667458332219
 20
53.45129988937085
 30
0.0
 10
231.4176139544159
 20
53.26538518387335
 30
0.0
 10
231.4398981818311
 20
53.14385253890006
 30
0.0
 10
231.4564596472896
 20
53.02562603245251
 30
0.0
  0
LINE
  5
252
330
1F
100
AcDbEntity
  8
0
  6
Continuous
 62
     7
370
    15
100
AcDbLine
 10
230.4232616652
 20
54.1894798406
 30
0.0
 11
231.2081501924
 21
53.7363733386
 31
0.0
  0
SPLINE
  5
253
330
1F
100
AcDbEntity
  8
0
  6
Continuous
 62
     7
370
    15
100
AcDbSpline
210
0.0
220
0.0
230
1.0
 70
     8
 71
     3
 72
    14
 73
    10
 74
     0
 42
0.000000001
 43
0.00000001
 40
0.0
 40
0.0
 40
0.0
 40
0.0
 40
0.5
 40
0.5
 40
0.75
 40
0.75
 40
0.875
 40
0.875
 40
1.0
 40
1.0
 40
1.0
 40
1.0
 10
230.1749522103035
 20
53.76542452877057
 30
0.0
 10
230.1915762917573
 20
53.8649042730007
 30
0.0
 10
230.2139936933616
 20
53.9607394063967
 30
0.0
 10
230.2644247512102
 20
54.08695535597033
 30
0.0
 10
230.2839594451415
 20
54.12678890466459
 30
0.0
 10
230.3239026024769
 20
54.17404923613643
 30
0.0
 10
230.3389195696426
 20
54.1876518497417
 30
0.0
 10
230.3759809371642
 20
54.20287225131741
 30
0.0
 10
230.3989645995126
 20
54.20350623811128
 30
0.0
 10
230.4232616652381
 20
54.18947984062824
 30
0.0
  0
LINE
  5
254
330
1F
100
AcDbEntity
  8
0
  6
Continuous
 62
     7
370
    15
100
AcDbLine
 10
229.0302613063
 20
54.4262405218
 30
0.0
 11
230.1749522103
 21
53.7654245288
 31
0.0
  0
ARC
  5
255
330
1F
100
AcDbEntity
  8
0
  6
Continuous
 62
     7
370
    15
100
AcDbCircle
 10
232.2988726585
 20
59.5793604903
 30
0.0
 40
6.102332798378828
100
AcDbArc
 50
182.3868561234
 51
237.6131440222
  0
LINE
  5
256
330
1F
100
AcDbEntity
  8
0
  6
Continuous
 62
     7
370
    15
100
AcDbLine
 10
226.2018341816
 20
60.1417608049
 30
0.0
 11
226.2018341816
 21
59.325219993
 31
0.0
  0
ARC
  5
257
330
1F
100
AcDbEntity
  8
0
  6
Continuous
 62
     7
370
    15
100
AcDbCircle
 10
228.8203270197
 20
60.2192015978
 30
0.0
 40
2.619637726842836
100
AcDbArc
 50
154.1396198639
 51
181.6940041175
  0
ARC
  5
258
330
1F
100
AcDbEntity
  8
0
  6
Continuous
 62
     7
370
    15
100
AcDbCircle
 10
246.5328945001
 20
50.2961204545
 30
0.0
 40
1.831376661393453
100
AcDbArc
 50
294.7876470306
 51
300.0654133288
  0
ARC
  5
259
330
1F
100
AcDbEntity
  8
0
  6
Continuous
 62
     7
370
    15
100
AcDbCircle
 10
253.9612831384
 20
62.5624445759
 30
0.0
 40
2.613597006256229
100
AcDbArc
 50
348.2128575188
 51
352.858852591
  0
LINE
  5
25A
330
1F
100
AcDbEntity
  8
0
  6
Continuous
 62
     7
370
    15
100
AcDbLine
 10
255.3530417001
 20
62.7020851252
 30
0.0
 11
256.5197678891
 21
62.028548433
 31
0.0
  0
ARC
  5
25B
330
1F
100
AcDbEntity
  8
0
  6
Continuous
 62
     7
370
    15
100
AcDbCircle
 10
237.5978406342
 20
52.0361320766
 30
0.0
 40
5.444445033957894
100
AcDbArc
 50
216.5135746511
 51
263.7219426546
  0
SPLINE
  5
25C
330
1F
100
AcDbEntity
  8
0
  6
Continuous
 62
     7
370
    15
100
AcDbSpline
210
0.0
220
0.0
230
1.0
 70
     8
 71
     3
 72
    12
 73
     8
 74
     0
 42
0.000000001
 43
0.00000001
 40
0.0
 40
0.0
 40
0.0
 40
0.0
 40
0.2499999999999999
 40
0.2499999999999999
 40
0.4999999999999998
 40
0.4999999999999998
 40
1.0
 40
1.0
 40
1.0
 40
1.0
 10
232.0754457582513
 20
51.12245779363216
 30
0.0
 10
232.1036879583236
 20
51.10615391856813
 30
0.0
 10
232.1382340902291
 20
51.09319812515812
 30
0.0
 10
232.2129581499267
 20
51.0764863869656
 30
0.0
 10
232.2532485412284
 20
51.07259947817814
 30
0.0
 10
232.3743615586647
 20
51.07486287606744
 30
0.0
 10
232.4524791210826
 20
51.09519208749417
 30
0.0
 10
232.5091285938182
 20
51.12789513200052
 30
0.0
  0
LWPOLYLINE
  5
25D
330
1F
100
AcDbEntity
  8
0
  6
Continuous
 62
     7
370
    15
100
AcDbPolyline
 90
       11
 70
   128
 43
0.0
 10
254.1083888273
 20
52.5547273999
 10
253.5858913061
 20
51.9137254447
 10
253.0333874848
 20
51.326148192
 10
252.4580321862
 20
50.799604659
 10
251.8672761555
 20
50.3409134877
 10
251.2687695746
 20
49.9560146444
 10
250.6702629938
 20
49.6498924982
 10
250.0795069631
 20
49.4265112748
 10
249.5041516644
 20
49.2887637198
 10
248.9516478431
 20
49.2384336387
 10
248.429150322
 20
49.2761727968
  0
LINE
  5
25E
330
1F
100
AcDbEntity
  8
0
  6
Continuous
 62
     7
370
    15
100
AcDbLine
 10
255.087146193
 20
53.1197520003
 30
0.0
 11
254.1083888273
 21
52.5547273999
 31
0.0
  0
ARC
  5
25F
330
1F
100
AcDbEntity
  8
0
  6
Continuous
 62
     7
370
    15
100
AcDbCircle
 10
254.0201462374
 20
54.9636963981
 30
0.0
 40
2.130403681826913
100
AcDbArc
 50
300.0558559959
 51
304.8272483447
  0
LINE
  5
260
330
1F
100
AcDbEntity
  8
0
  6
Continuous
 62
     7
370
    15
100
AcDbLine
 10
248.429150322
 20
49.2761727968
 30
0.0
 11
247.4503929562
 21
48.7111481964
 31
0.0
  0
LINE
  5
261
330
1F
100
AcDbEntity
  8
0
  6
Continuous
 62
     7
370
    15
100
AcDbLine
 10
247.262424133
 20
49.949709489
 30
0.0
 11
248.429150322
 21
49.2761727968
 31
0.0
  0
ARC
  5
262
330
1F
100
AcDbEntity
  8
0
  6
Continuous
 62
     7
370
    15
100
AcDbCircle
 10
236.8753543845
 20
53.5585250761
 30
0.0
 40
6.409553223800262
100
AcDbArc
 50
194.716105919
 51
237.9533567894
  0
LINE
  5
263
330
1F
100
AcDbEntity
  8
0
  6
Continuous
 62
     7
370
    15
100
AcDbLine
 10
230.6760576906
 20
51.9303073295
 30
0.0
 11
232.0754457583
 21
51.1224577936
 31
0.0
  0
SPLINE
  5
264
330
1F
100
AcDbEntity
  8
0
  6
Continuous
 62
     7
370
    15
100
AcDbSpline
210
0.0
220
0.0
230
1.0
 70
     8
 71
     3
 72
     8
 73
     4
 74
     0
 42
0.000000001
 43
0.00000001
 40
0.0
 40
0.0
 40
0.0
 40
0.0
 40
1.0
 40
1.0
 40
1.0
 40
1.0
 10
231.1028488549266
 20
52.78161961668813
 30
0.0
 10
230.9596841582361
 20
52.49799756968113
 30
0.0
 10
230.8174954613835
 20
52.2142144236971
 30
0.0
 10
230.6760576906283
 20
51.93030732951002
 30
0.0
  0
LINE
  5
265
330
1F
100
AcDbEntity
  8
0
  6
Continuous
 62
     7
370
    15
100
AcDbLine
 10
231.3480174593
 20
52.9231524394
 30
0.0
 11
231.1028488549
 21
52.7816196167
 31
0.0
  0
SPLINE
  5
266
330
1F
100
AcDbEntity
  8
0
  6
Continuous
 62
     7
370
    15
100
AcDbSpline
210
0.0
220
0.0
230
1.0
 70
     8
 71
     3
 72
    10
 73
     6
 74
     0
 42
0.000000001
 43
0.00000001
 40
0.0
 40
0.0
 40
0.0
 40
0.0
 40
0.5
 40
0.5
 40
1.0
 40
1.0
 40
1.0
 40
1.0
 10
231.4564596472896
 20
53.02562603245251
 30
0.0
 10
231.4458067803197
 20
53.00635038524639
 30
0.0
 10
231.4310020171675
 20
52.98773900382134
 30
0.0
 10
231.3942162458366
 20
52.9531087295898
 30
0.0
 10
231.3726470252426
 20
52.93737078515471
 30
0.0
 10
231.3480174592927
 20
52.92315243937785
 30
0.0
  0
SPLINE
  5
267
330
1F
100
AcDbEntity
  8
0
  6
Continuous
 62
     7
370
    15
100
AcDbSpline
210
0.0
220
0.0
230
1.0
 70
     8
 71
     3
 72
    14
 73
    10
 74
     0
 42
0.000000001
 43
0.00000001
 40
0.0
 40
0.0
 40
0.0
 40
0.0
 40
0.5000000000000002
 40
0.5000000000000002
 40
0.7500000000000002
 40
0.7500000000000002
 40
0.8750000000000001
 40
0.8750000000000001
 40
1.0
 40
1.0
 40
1.0
 40
1.0
 10
215.5351503906109
 20
64.42068537958933
 30
0.0
 10
215.8503163344508
 20
64.19359738869348
 30
0.0
 10
216.1665919897167
 20
63.96375101364534
 30
0.0
 10
216.6454164782878
 20
63.60844241165623
 30
0.0
 10
216.8057364887118
 20
63.48830409746068
 30
0.0
 10
217.0487890246655
 20
63.30203526321686
 30
0.0
 10
217.1302324626821
 20
63.23894202198986
 30
0.0
 10
217.2948939117155
 20
63.10859677957772
 30
0.0
 10
217.3777999297817
 20
63.04207233760047
 30
0.0
 10
217.4638187578664
 20
62.96827886627691
 30
0.0
  0
SPLINE
  5
268
330
1F
100
AcDbEntity
  8
0
  6
Continuous
 62
     7
370
    15
100
AcDbSpline
210
0.0
220
0.0
230
1.0
 70
     8
 71
     3
 72
     8
 73
     4
 74
     0
 42
0.000000001
 43
0.00000001
 40
0.0
 40
0.0
 40
0.0
 40
0.0
 40
1.0
 40
1.0
 40
1.0
 40
1.0
 10
217.4638187578664
 20
62.96827886627691
 30
0.0
 10
217.7654712311039
 20
62.70949850819507
 30
0.0
 10
218.0707507746274
 20
62.46192349279041
 30
0.0
 10
218.375410347754
 20
62.22095063622388
 30
0.0
  0
SPLINE
  5
269
330
1F
100
AcDbEntity
  8
0
  6
Continuous
 62
     7
370
    15
100
AcDbSpline
210
0.0
220
0.0
230
1.0
 70
     8
 71
     3
 72
    14
 73
    10
 74
     0
 42
0.000000001
 43
0.00000001
 40
0.0
 40
0.0
 40
0.0
 40
0.0
 40
0.1250000000000022
 40
0.1250000000000022
 40
0.2500000000000044
 40
0.2500000000000044
 40
0.500000000000003
 40
0.500000000000003
 40
1.0
 40
1.0
 40
1.0
 40
1.0
 10
218.3754103477541
 20
62.22095063622383
 30
0.0
 10
218.3946057236796
 20
62.20576790448763
 30
0.0
 10
218.41221779708
 20
62.19440008599085
 30
0.0
 10
218.4380627269992
 20
62.1831316167784
 30
0.0
 10
218.4462010912469
 20
62.18274814654134
 30
0.0
 10
218.463151182215
 20
62.18852393923574
 30
0.0
 10
218.4653204547247
 20
62.20118936485378
 30
0.0
 10
218.4641449069101
 20
62.24562619189754
 30
0.0
 10
218.452071386306
 20
62.28610946267099
 30
0.0
 10
218.4372931582659
 20
62.33011313255347
 30
0.0
  0
SPLINE
  5
26A
330
1F
100
AcDbEntity
  8
0
  6
Continuous
 62
     7
370
    15
100
AcDbSpline
210
0.0
220
0.0
230
1.0
 70
     8
 71
     3
 72
    14
 73
    10
 74
     0
 42
0.000000001
 43
0.00000001
 40
0.0
 40
0.0
 40
0.0
 40
0.0
 40
0.25
 40
0.25
 40
0.5
 40
0.5
 40
0.75
 40
0.75
 40
1.0
 40
1.0
 40
1.0
 40
1.0
 10
218.4372931582652
 20
62.33011313255418
 30
0.0
 10
218.4192369113186
 20
62.38387743554095
 30
0.0
 10
218.4163141132174
 20
62.428428044638
 30
0.0
 10
218.4109003846741
 20
62.52068939448272
 30
0.0
 10
218.409333106633
 20
62.56798379740297
 30
0.0
 10
218.3991947068259
 20
62.67274485223075
 30
0.0
 10
218.3908797090817
 20
62.73000605926576
 30
0.0
 10
218.3620795344228
 20
62.85962741664018
 30
0.0
 10
218.3414261377523
 20
62.93242161625323
 30
0.0
 10
218.3127366205912
 20
63.01210831521299
 30
0.0
  0
ARC
  5
26B
330
1F
100
AcDbEntity
  8
0
  6
Continuous
 62
     7
370
    15
100
AcDbCircle
 10
228.6677038979
 20
66.0986698132
 30
0.0
 40
10.80519362138036
100
AcDbArc
 50
163.4019732888
 51
196.5980267112
  0
SPLINE
  5
26C
330
1F
100
AcDbEntity
  8
0
  6
Continuous
 62
     7
370
    15
100
AcDbSpline
210
0.0
220
0.0
230
1.0
 70
     8
 71
     3
 72
    14
 73
    10
 74
     0
 42
0.000000001
 43
0.00000001
 40
0.0
 40
0.0
 40
0.0
 40
0.0
 40
0.25
 40
0.25
 40
0.5
 40
0.5
 40
0.75
 40
0.75
 40
1.0
 40
1.0
 40
1.0
 40
1.0
 10
218.4372931582652
 20
70.64643632747716
 30
0.0
 10
218.4192369113186
 20
70.52559424853261
 30
0.0
 10
218.4163141132174
 20
70.4004999819665
 30
0.0
 10
218.4109003846741
 20
70.15254867131513
 30
0.0
 10
218.409333106633
 20
70.02864004700139
 30
0.0
 10
218.3991947068259
 20
69.78248430776118
 30
0.0
 10
218.3908797090817
 20
69.66019636589978
 30
0.0
 10
218.3620795344228
 20
69.41819918869099
 30
0.0
 10
218.3414261377523
 20
69.2980422215114
 30
0.0
 10
218.3127366205912
 20
69.18523131110612
 30
0.0
  0
SPLINE
  5
26D
330
1F
100
AcDbEntity
  8
0
  6
Continuous
 62
     7
370
    15
100
AcDbSpline
210
0.0
220
0.0
230
1.0
 70
     8
 71
     3
 72
    14
 73
    10
 74
     0
 42
0.000000001
 43
0.00000001
 40
0.0
 40
0.0
 40
0.0
 40
0.0
 40
0.125
 40
0.125
 40
0.25
 40
0.25
 40
0.5
 40
0.5
 40
1.0
 40
1.0
 40
1.0
 40
1.0
 10
218.3754103477542
 20
71.19172189177118
 30
0.0
 10
218.3946057236797
 20
71.18943508379736
 30
0.0
 10
218.41221779708
 20
71.17793684452454
 30
0.0
 10
218.4380627269993
 20
71.14124534199803
 30
0.0
 10
218.4462010912469
 20
71.11816392689595
 30
0.0
 10
218.463151182215
 20
71.04683140781886
 30
0.0
 10
218.4653204547247
 20
70.99558730221078
 30
0.0
 10
218.4641449069101
 20
70.8455518224492
 30
0.0
 10
218.452071386306
 20
70.74534014756611
 30
0.0
 10
218.4372931582659
 20
70.6464363274775
 30
0.0
  0
SPLINE
  5
26E
330
1F
100
AcDbEntity
  8
0
  6
Continuous
 62
     7
370
    15
100
AcDbSpline
210
0.0
220
0.0
230
1.0
 70
     8
 71
     3
 72
     8
 73
     4
 74
     0
 42
0.000000001
 43
0.00000001
 40
0.0
 40
0.0
 40
0.0
 40
0.0
 40
1.0
 40
1.0
 40
1.0
 40
1.0
 10
217.4638187578664
 20
71.24393470290728
 30
0.0
 10
217.765471231104
 20
71.25128095005039
 30
0.0
 10
218.0707507746274
 20
71.22801698408044
 30
0.0
 10
218.3754103477542
 20
71.19172189177118
 30
0.0
  0
SPLINE
  5
26F
330
1F
100
AcDbEntity
  8
0
  6
Continuous
 62
     7
370
    15
100
AcDbSpline
210
0.0
220
0.0
230
1.0
 70
     8
 71
     3
 72
    14
 73
    10
 74
     0
 42
0.000000001
 43
0.00000001
 40
0.0
 40
0.0
 40
0.0
 40
0.0
 40
0.5000000000000002
 40
0.5000000000000002
 40
0.7500000000000002
 40
0.7500000000000002
 40
0.8750000000000001
 40
0.8750000000000001
 40
1.0
 40
1.0
 40
1.0
 40
1.0
 10
215.5351503906109
 20
71.87657404789226
 30
0.0
 10
215.8503163344508
 20
71.73918955416613
 30
0.0
 10
216.1665919897167
 20
71.60761604653499
 30
0.0
 10
216.6454164782878
 20
71.43272058001422
 30
0.0
 10
216.8057364887118
 20
71.37804942974971
 30
0.0
 10
217.0487890246655
 20
71.30901761402966
 30
0.0
 10
217.1302324626821
 20
71.28815532952086
 30
0.0
 10
217.2948939117155
 20
71.25534761609123
 30
0.0
 10
217.3777999297817
 20
71.24183985659859
 30
0.0
 10
217.4638187578664
 20
71.24393470290728
 30
0.0
  0
SPLINE
  5
270
330
1F
100
AcDbEntity
  8
0
  6
Continuous
 62
     7
370
    15
100
AcDbSpline
210
0.0
220
0.0
230
1.0
 70
     8
 71
     3
 72
     8
 73
     4
 74
     0
 42
0.000000001
 43
0.00000001
 40
0.0000005163856998
 40
0.0000005163856998
 40
0.0000005163856998
 40
0.0000005163856998
 40
0.000026289209185
 40
0.000026289209185
 40
0.000026289209185
 40
0.000026289209185
 10
215.5351288035916
 20
71.88945315908344
 30
0.0
 10
215.5351265024324
 20
71.88516032405691
 30
0.0
 10
215.5351337487567
 20
71.88086725638139
 30
0.0
 10
215.5351503906109
 20
71.87657404789226
 30
0.0
  0
LINE
  5
271
330
1F
100
AcDbEntity
  8
0
  6
Continuous
 62
     7
370
    15
100
AcDbLine
 10
228.3002616949
 20
82.4322482314
 30
0.0
 11
228.3993041998
 21
82.3846697501
 31
0.0
  0
LINE
  5
272
330
1F
100
AcDbEntity
  8
0
  6
Continuous
 62
     7
370
    15
100
AcDbLine
 10
217.0176063866
 20
62.6688546117
 30
0.0
 11
216.9376135795
 21
62.7232939529
 31
0.0
  0
SPLINE
  5
273
330
1F
100
AcDbEntity
  8
0
  6
Continuous
 62
     7
370
    15
100
AcDbSpline
210
0.0
220
0.0
230
1.0
 70
     8
 71
     3
 72
     8
 73
     4
 74
     0
 42
0.000000001
 43
0.00000001
 40
0.000000516385691
 40
0.000000516385691
 40
0.000000516385691
 40
0.000000516385691
 40
0.0000262892091854
 40
0.0000262892091854
 40
0.0000262892091854
 40
0.0000262892091854
 10
215.5351288035916
 20
64.415982107222
 30
0.0
 10
215.5351265024324
 20
64.41755549292027
 30
0.0
 10
215.5351337487567
 20
64.41912322285299
 30
0.0
 10
215.5351503906109
 20
64.42068537958933
 30
0.0
  0
SPLINE
  5
274
330
1F
100
AcDbEntity
  8
0
  6
Continuous
 62
     7
370
    15
100
AcDbSpline
210
0.0
220
0.0
230
1.0
 70
     8
 71
     3
 72
    17
 73
    13
 74
     0
 42
0.000000001
 43
0.00000001
 40
0.0
 40
0.0
 40
0.0
 40
0.0
 40
0.1261401830437174
 40
0.2529692308662241
 40
0.3797751222196199
 40
0.5058595017132859
 40
0.6308682557774042
 40
0.6937488828896421
 40
0.7558160075481125
 40
0.8177941526220397
 40
0.881073185886608
 40
1.0
 40
1.0
 40
1.0
 40
1.0
 10
221.2239971020455
 20
62.54301099196742
 30
0.0
 10
221.090950435448
 20
62.7879458177904
 30
0.0
 10
220.8241305204427
 20
63.2791530842276
 30
0.0
 10
220.69943381077
 20
64.03117333527823
 30
0.0
 10
220.8352675134206
 20
64.65586367761087
 30
0.0
 10
221.2023143936047
 20
65.07271683747639
 30
0.0
 10
221.6450436709793
 20
65.1667368159113
 30
0.0
 10
222.0210865790324
 20
65.08471820151634
 30
0.0
 10
222.303860731428
 20
64.94266980942177
 30
0.0
 10
222.5741654535022
 20
64.72512720014355
 30
0.0
 10
222.902170473533
 20
64.36138366513985
 30
0.0
 10
223.0864196240771
 20
64.00392691541016
 30
0.0
 10
223.2066801140263
 20
63.77061282016877
 30
0.0
  0
SPLINE
  5
275
330
1F
100
AcDbEntity
  8
0
  6
Continuous
 62
     7
370
    15
100
AcDbSpline
210
0.0
220
0.0
230
1.0
 70
     8
 71
     3
 72
    12
 73
     8
 74
     0
 42
0.000000001
 43
0.00000001
 40
0.0
 40
0.0
 40
0.0
 40
0.0
 40
0.1558560238078016
 40
0.3235621828492666
 40
0.4913933894979862
 40
0.6616473361400972
 40
1.0
 40
1.0
 40
1.0
 40
1.0
 10
222.7904086408697
 20
61.21355500382992
 30
0.0
 10
222.7154685195637
 20
61.23300904475803
 30
0.0
 10
222.5598903863589
 20
61.27339626749188
 30
0.0
 10
222.2944217904506
 20
61.41960301799326
 30
0.0
 10
222.0129899183496
 20
61.62695010225073
 30
0.0
 10
221.6328081654658
 20
61.97615745318973
 30
0.0
 10
221.3873134697987
 20
62.31655806716966
 30
0.0
 10
221.2239971020455
 20
62.54301099196742
 30
0.0
  0
LINE
  5
276
330
1F
100
AcDbEntity
  8
0
  6
Continuous
 62
     7
370
    15
100
AcDbLine
 10
254.1083888273
 20
52.5547273999
 30
0.0
 11
252.9416626383
 21
53.2282640921
 31
0.0
  0
ARC
  5
277
330
1F
100
AcDbEntity
  8
0
  6
Continuous
 62
     7
370
    15
100
AcDbCircle
 10
255.161924687
 20
55.744333757
 30
0.0
 40
1.406899938711534
100
AcDbArc
 50
8.1526233697
 51
15.1748859976
  0
LWPOLYLINE
  5
278
330
1F
100
AcDbEntity
  8
0
  6
Continuous
 62
     7
370
    15
100
AcDbPolyline
 90
        9
 70
   128
 43
0.0
 10
256.5197678891
 20
62.028548433
 10
256.7760219206
 20
61.4709298538
 10
256.9614513719
 20
60.8434584936
 10
257.0736715759
 20
60.1542037839
 10
257.1112393542
 20
59.4120297049
 10
257.0736715759
 20
58.6264807924
 10
256.9614513719
 20
57.807659393
 10
256.7760219206
 20
56.9660957454
 10
256.5197678891
 20
56.1126125591
  0
LINE
  5
279
330
1F
100
AcDbEntity
  8
0
  6
Continuous
 62
     7
370
    15
100
AcDbLine
 10
255.3530417001
 20
56.7861492514
 30
0.0
 11
256.5197678891
 21
56.1126125591
 31
0.0
  0
ARC
  5
27A
330
1F
100
AcDbEntity
  8
0
  6
Continuous
 62
     7
370
    15
100
AcDbCircle
 10
236.0476266981
 20
55.6203201837
 30
0.0
 40
6.623523393473196
100
AcDbArc
 50
198.1114510494
 51
217.3575801744
  0
SPLINE
  5
27B
330
1F
100
AcDbEntity
  8
0
  6
Continuous
 62
     7
370
    15
100
AcDbSpline
210
0.0
220
0.0
230
1.0
 70
     8
 71
     3
 72
     8
 73
     4
 74
     0
 42
0.000000001
 43
0.00000001
 40
0.0
 40
0.0
 40
0.0
 40
0.0
 40
1.0
 40
1.0
 40
1.0
 40
1.0
 10
228.2775989841531
 20
53.31490806870275
 30
0.0
 10
228.7693937829051
 20
53.39655835578449
 30
0.0
 10
229.2609738738078
 20
53.47864214327493
 30
0.0
 10
229.7522749028603
 20
53.56128936347881
 30
0.0
  0
LINE
  5
27C
330
1F
100
AcDbEntity
  8
0
  6
Continuous
 62
     7
370
    15
100
AcDbLine
 10
229.7522749029
 20
53.5612893635
 30
0.0
 11
229.9974435072
 21
53.7028221862
 31
0.0
  0
SPLINE
  5
27D
330
1F
100
AcDbEntity
  8
0
  6
Continuous
 62
     7
370
    15
100
AcDbSpline
210
0.0
220
0.0
230
1.0
 70
     8
 71
     3
 72
    10
 73
     6
 74
     0
 42
0.000000001
 43
0.00000001
 40
0.0
 40
0.0
 40
0.0
 40
0.0
 40
0.5
 40
0.5
 40
1.0
 40
1.0
 40
1.0
 40
1.0
 10
229.9974435072265
 20
53.70282218616858
 30
0.0
 10
230.0222758105784
 20
53.71715756975643
 30
0.0
 10
230.0499508080718
 20
53.72975300989252
 30
0.0
 10
230.1100758175263
 20
53.75095090803279
 30
0.0
 10
230.1417702177211
 20
53.75931307369945
 30
0.0
 10
230.1749522103028
 20
53.76542452877069
 30
0.0
  0
SPLINE
  5
27E
330
1F
100
AcDbEntity
  8
0
  6
Continuous
 62
     7
370
    15
100
AcDbSpline
210
0.0
220
0.0
230
1.0
 70
     8
 71
     3
 72
    12
 73
     8
 74
     0
 42
0.000000001
 43
0.00000001
 40
0.0
 40
0.0
 40
0.0
 40
0.0
 40
0.0980625758601908
 40
0.3602550218420904
 40
0.6215899147556901
 40
0.8865185580930732
 40
0.9999999999999999
 40
0.9999999999999999
 40
0.9999999999999999
 40
0.9999999999999999
 10
222.2493617243319
 20
64.88867642655168
 30
0.0
 10
222.2330665080641
 20
64.83367988817413
 30
0.0
 10
222.1732023504996
 20
64.63163768236167
 30
0.0
 10
222.250465344605
 20
64.18859205879778
 30
0.0
 10
222.4753282449276
 20
63.64089194339104
 30
0.0
 10
222.7630831185646
 20
63.20137877156385
 30
0.0
 10
222.97285587665
 20
63.00126412679602
 30
0.0
 10
223.0357646520463
 20
62.94125172406029
 30
0.0
  0
LINE
  5
27F
330
1F
100
AcDbEntity
  8
0
  6
Continuous
 62
     7
370
    15
100
AcDbLine
 10
249.901189138
 20
74.8411393004
 30
0.0
 11
249.9961974533
 21
74.8621878217
 31
0.0
  0
LINE
  5
280
330
1F
100
AcDbEntity
  8
0
  6
Continuous
 62
     7
370
    15
100
AcDbLine
 10
249.9961974533
 20
74.8621878217
 30
0.0
 11
251.3955855209
 21
74.0543382858
 31
0.0
  0
SPLINE
  5
281
330
1F
100
AcDbEntity
  8
0
  6
Continuous
 62
     7
370
    15
100
AcDbSpline
210
0.0
220
0.0
230
1.0
 70
     8
 71
     3
 72
    12
 73
     8
 74
     0
 42
0.000000001
 43
0.00000001
 40
0.0
 40
0.0
 40
0.0
 40
0.0
 40
0.250000000000002
 40
0.250000000000002
 40
0.500000000000004
 40
0.500000000000004
 40
1.0
 40
1.0
 40
1.0
 40
1.0
 10
251.3955855209182
 20
74.054338285847
 30
0.0
 10
251.4278294917909
 20
74.03572423767339
 30
0.0
 10
251.4498824943245
 20
74.01147391487598
 30
0.0
 10
251.4707314384895
 20
73.96088605698843
 30
0.0
 10
251.4703502692622
 20
73.93404748855437
 30
0.0
 10
251.4445973363649
 20
73.85681337228556
 30
0.0
 10
251.3966459092562
 20
73.81002800145772
 30
0.0
 10
251.3327458601209
 20
73.77313928829025
 30
0.0
  0
SPLINE
  5
282
330
1F
100
AcDbEntity
  8
0
  6
Continuous
 62
     7
370
    15
100
AcDbSpline
210
0.0
220
0.0
230
1.0
 70
     8
 71
     3
 72
    11
 73
     7
 74
     0
 42
0.000000001
 43
0.00000001
 40
0.0
 40
0.0
 40
0.0
 40
0.0
 40
0.2051164297761317
 40
0.3943103003912192
 40
0.7240976918328398
 40
1.0
 40
1.0
 40
1.0
 40
1.0
 10
221.5152664540144
 20
62.72593407388626
 30
0.0
 10
221.5948869575808
 20
62.61134579397985
 30
0.0
 10
221.7479472692918
 20
62.39106437078755
 30
0.0
 10
222.071683201434
 20
62.04029044354578
 30
0.0
 10
222.4540903548502
 20
61.72433439664697
 30
0.0
 10
222.7060716707112
 20
61.61734783826443
 30
0.0
 10
222.8208535907372
 20
61.56861357974944
 30
0.0
  0
SPLINE
  5
283
330
1F
100
AcDbEntity
  8
0
  6
Continuous
 62
     7
370
    15
100
AcDbSpline
210
0.0
220
0.0
230
1.0
 70
     8
 71
     3
 72
    16
 73
    12
 74
     0
 42
0.000000001
 43
0.00000001
 40
0.0
 40
0.0
 40
0.0
 40
0.0
 40
0.1460145433272634
 40
0.2335492811860072
 40
0.328284659647779
 40
0.4359414636891987
 40
0.5278790605354984
 40
0.6640995323892502
 40
0.8013223013367583
 40
0.893041357694521
 40
1.0
 40
1.0
 40
1.0
 40
1.0
 10
222.4548739223105
 20
64.80790299583555
 30
0.0
 10
222.308013316031
 20
64.88137389552776
 30
0.0
 10
222.0731107628364
 20
64.99889010603798
 30
0.0
 10
221.7562596730704
 20
64.98892017159362
 30
0.0
 10
221.5031305145577
 20
64.90118482857739
 30
0.0
 10
221.2944072396999
 20
64.71939261332008
 30
0.0
 10
221.131376323678
 20
64.42752723830105
 30
0.0
 10
221.0543485178962
 20
64.01764386394026
 30
0.0
 10
221.1297478587863
 20
63.55307470119559
 30
0.0
 10
221.2884903964435
 20
63.11113003467311
 30
0.0
 10
221.4359052787422
 20
62.86073491876201
 30
0.0
 10
221.5152664540144
 20
62.72593407388626
 30
0.0
  0
SPLINE
  5
284
330
1F
100
AcDbEntity
  8
0
  6
Continuous
 62
     7
370
    15
100
AcDbSpline
210
0.0
220
0.0
230
1.0
 70
     8
 71
     3
 72
    10
 73
     6
 74
     0
 42
0.000000001
 43
0.00000001
 40
0.0
 40
0.0
 40
0.0
 40
0.0
 40
0.3337923556773256
 40
0.7036745943711787
 40
1.0
 40
1.0
 40
1.0
 40
1.0
 10
253.5125750692821
 20
70.19352359476107
 30
0.0
 10
253.5333379554375
 20
70.20795223767826
 30
0.0
 10
253.5771086267692
 20
70.23836955934361
 30
0.0
 10
253.6090922759538
 20
70.29369627441103
 30
0.0
 10
253.6025453344625
 20
70.33105520898643
 30
0.0
 10
253.5996332917839
 20
70.3476722525407
 30
0.0
  0
LINE
  5
285
330
1F
100
AcDbEntity
  8
0
  6
Continuous
 62
     7
370
    15
100
AcDbLine
 10
247.5977387468
 20
76.2467885609
 30
0.0
 11
247.4528097724
 21
76.0287768261
 31
0.0
  0
LINE
  5
286
330
1F
100
AcDbEntity
  8
0
  6
Continuous
 62
     7
370
    15
100
AcDbLine
 10
217.3749062369
 20
66.5956665822
 30
0.0
 11
217.8752890712
 21
66.3068017206
 31
0.0
  0
SPLINE
  5
287
330
1F
100
AcDbEntity
  8
0
  6
Continuous
 62
     7
370
    15
100
AcDbSpline
210
0.0
220
0.0
230
1.0
 70
     8
 71
     3
 72
     9
 73
     5
 74
     0
 42
0.000000001
 43
0.00000001
 40
0.0
 40
0.0
 40
0.0
 40
0.0
 40
0.7009329310329975
 40
1.0
 40
1.0
 40
1.0
 40
1.0
 10
215.5490952948946
 20
72.35304501357292
 30
0.0
 10
215.5460229127956
 20
72.40704918839795
 30
0.0
 10
215.5416396373595
 20
72.48409532567308
 30
0.0
 10
215.566050771503
 20
72.5737276210563
 30
0.0
 10
215.5733513378414
 20
72.60053368892136
 30
0.0
  0
SPLINE
  5
288
330
1F
100
AcDbEntity
  8
0
  6
Continuous
 62
     7
370
    15
100
AcDbSpline
210
0.0
220
0.0
230
1.0
 70
     8
 71
     3
 72
    10
 73
     6
 74
     0
 42
0.000000001
 43
0.00000001
 40
0.0
 40
0.0
 40
0.0
 40
0.0
 40
0.5
 40
0.5
 40
1.0
 40
1.0
 40
1.0
 40
1.0
 10
215.5895877408097
 20
72.40539533820511
 30
0.0
 10
215.569661690313
 20
72.32143486418708
 30
0.0
 10
215.5563674261721
 20
72.23598900167333
 30
0.0
 10
215.5390989000314
 20
72.06357553073605
 30
0.0
 10
215.5351754454094
 20
71.97646392446973
 30
0.0
 10
215.5351288035916
 20
71.88945315908344
 30
0.0
  0
SPLINE
  5
289
330
1F
100
AcDbEntity
  8
0
  6
Continuous
 62
     7
370
    15
100
AcDbSpline
210
0.0
220
0.0
230
1.0
 70
     8
 71
     3
 72
    24
 73
    20
 74
     0
 42
0.000000001
 43
0.00000001
 40
0.0
 40
0.0
 40
0.0
 40
0.0
 40
0.249999999999999
 40
0.249999999999999
 40
0.3749999999999983
 40
0.3749999999999983
 40
0.4374999999999987
 40
0.4374999999999987
 40
0.4687499999999975
 40
0.4687499999999975
 40
0.4999999999999963
 40
0.4999999999999963
 40
0.5624999999999984
 40
0.5624999999999984
 40
0.6250000000000006
 40
0.6250000000000006
 40
0.7500000000000001
 40
0.7500000000000001
 40
1.0
 40
1.0
 40
1.0
 40
1.0
 10
215.5733513378414
 20
72.60053368892136
 30
0.0
 10
215.6031923671266
 20
72.70781274547761
 30
0.0
 10
215.6330219071676
 20
72.81369731884828
 30
0.0
 10
215.6776930640389
 20
72.96364536209856
 30
0.0
 10
215.6926458561307
 20
73.0126456248615
 30
0.0
 10
215.71422899442
 20
73.07579590676424
 30
0.0
 10
215.7213587059497
 20
73.09543609099276
 30
0.0
 10
215.7302103312511
 20
73.11314602048076
 30
0.0
 10
215.732848428521
 20
73.11686238696643
 30
0.0
 10
215.736000966566
 20
73.11471403858422
 30
0.0
 10
215.7363809277028
 20
73.10855162951763
 30
0.0
 10
215.734371002442
 20
73.07990654616489
 30
0.0
 10
215.7297943608436
 20
73.05160554117673
 30
0.0
 10
215.7198629747372
 20
72.99522653102743
 30
0.0
 10
215.7141727890022
 20
72.96575678307138
 30
0.0
 10
215.6965911883836
 20
72.87790236250505
 30
0.0
 10
215.6839103154553
 20
72.81867736945573
 30
0.0
 10
215.644669251835
 20
72.64018406232594
 30
0.0
 10
215.6173657917984
 20
72.52244102815223
 30
0.0
 10
215.5895877408097
 20
72.40539533820512
 30
0.0
  0
ARC
  5
28A
330
1F
100
AcDbEntity
  8
0
  6
Continuous
 62
     7
370
    15
100
AcDbCircle
 10
216.2522657778
 20
71.8107859043
 30
0.0
 40
0.7201267655271866
100
AcDbArc
 50
174.7583590299
 51
234.4349468916
  0
ARC
  5
28B
330
1F
100
AcDbEntity
  8
0
  6
Continuous
 62
     7
370
    15
100
AcDbCircle
 10
217.7475997229
 20
64.310889527
 30
0.0
 40
2.21517204233869
100
AcDbArc
 50
122.6235698331
 51
177.1589486026
  0
LINE
  5
28C
330
1F
100
AcDbEntity
  8
0
  6
Continuous
 62
     7
370
    15
100
AcDbLine
 10
216.5533621523
 20
66.1765754068
 30
0.0
 11
217.2974487831
 21
66.6061274755
 31
0.0
  0
SPLINE
  5
28D
330
1F
100
AcDbEntity
  8
0
  6
Continuous
 62
     7
370
    15
100
AcDbSpline
210
0.0
220
0.0
230
1.0
 70
     8
 71
     3
 72
     8
 73
     4
 74
     0
 42
0.000000001
 43
0.00000001
 40
0.0
 40
0.0
 40
0.0
 40
0.0
 40
0.0001590976953043
 40
0.0001590976953043
 40
0.0001590976953043
 40
0.0001590976953043
 10
217.3749062368975
 20
66.59566658219937
 30
0.0
 10
217.3490861073381
 20
66.59915113166025
 30
0.0
 10
217.3232669627918
 20
66.60263811439677
 30
0.0
 10
217.2974487831418
 20
66.60612747551512
 30
0.0
  0
SPLINE
  5
28E
330
1F
100
AcDbEntity
  8
0
  6
Continuous
 62
     7
370
    15
100
AcDbSpline
210
0.0
220
0.0
230
1.0
 70
     8
 71
     3
 72
    10
 73
     6
 74
     0
 42
0.000000001
 43
0.00000001
 40
0.0
 40
0.0
 40
0.0
 40
0.0
 40
0.5
 40
0.5
 40
1.0
 40
1.0
 40
1.0
 40
1.0
 10
215.5895877408097
 20
64.22073972250112
 30
0.0
 10
215.5696616903132
 20
64.25926128401747
 30
0.0
 10
215.5563674261724
 20
64.29122461121105
 30
0.0
 10
215.5390989000316
 20
64.35366803470897
 30
0.0
 10
215.5351754454095
 20
64.38409141192174
 30
0.0
 10
215.5351288035916
 20
64.41598210722199
 30
0.0
  0
LINE
  5
28F
330
1F
100
AcDbEntity
  8
0
  6
Continuous
 62
     7
370
    15
100
AcDbLine
 10
215.5454953695
 20
65.0178522837
 30
0.0
 11
215.5490952949
 21
64.8822154015
 31
0.0
  0
ARC
  5
290
330
1F
100
AcDbEntity
  8
0
  6
Continuous
 62
     7
370
    15
100
AcDbCircle
 10
216.8822209682
 20
64.8055471418
 30
0.0
 40
1.353480254557436
100
AcDbArc
 50
122.9135798094
 51
170.9753897871
  0
LINE
  5
291
330
1F
100
AcDbEntity
  8
0
  6
Continuous
 62
     7
370
    15
100
AcDbLine
 10
216.5533621523
 20
66.1765754068
 30
0.0
 11
216.1467757531
 21
65.9417817721
 31
0.0
  0
LINE
  5
292
330
1F
100
AcDbEntity
  8
0
  6
Continuous
 62
     7
370
    15
100
AcDbLine
 10
215.644899565
 20
64.1247514027
 30
0.0
 11
215.5895877408
 21
64.2207397225
 31
0.0
  0
OLE2FRAME
  5
293
330
1F
100
AcDbEntity
  8
0
100
AcDbOle2Frame
 70
     2
  3
Paintbrush-Bild
 10
13.8511154363
 20
38.264191557
 30
0.0
 11
51.6290888628
 21
31.9806341108
 31
0.0
 71
     2
 72
     0
 73
     1
 90
    12928
310
80552BED0767C5B32B40DDAF6807D121434000000000000000006FFBDDFB85D0
310
4940DDAF6807D121434000000000000000006FFBDDFB85D04940416F4BD60AFB
310
3F4000000000000000002BED0767C5B32B40416F4BD60AFB3F40000000000000
310
0000000000000100000000010000010000000100000000000100000000320000
310
D0CF11E0A1B11AE1000000000000000000000000000000003E000300FEFF0900
310
0600000000000000000000000100000001000000000000000010000002000000
310
01000000FEFFFFFF0000000000000000FFFFFFFFFFFFFFFFFFFFFFFFFFFFFFFF
310
FFFFFFFFFFFFFFFFFFFFFFFFFFFFFFFFFFFFFFFFFFFFFFFFFFFFFFFFFFFFFFFF
310
FFFFFFFFFFFFFFFFFFFFFFFFFFFFFFFFFFFFFFFFFFFFFFFFFFFFFFFFFFFFFFFF
310
FFFFFFFFFFFFFFFFFFFFFFFFFFFFFFFFFFFFFFFFFFFFFFFFFFFFFFFFFFFFFFFF
310
FFFFFFFFFFFFFFFFFFFFFFFFFFFFFFFFFFFFFFFFFFFFFFFFFFFFFFFFFFFFFFFF
310
FFFFFFFFFFFFFFFFFFFFFFFFFFFFFFFFFFFFFFFFFFFFFFFFFFFFFFFFFFFFFFFF
310
FFFFFFFFFFFFFFFFFFFFFFFFFFFFFFFFFFFFFFFFFFFFFFFFFFFFFFFFFFFFFFFF
310
FFFFFFFFFFFFFFFFFFFFFFFFFFFFFFFFFFFFFFFFFFFFFFFFFFFFFFFFFFFFFFFF
310
FFFFFFFFFFFFFFFFFFFFFFFFFFFFFFFFFFFFFFFFFFFFFFFFFFFFFFFFFFFFFFFF
310
FFFFFFFFFFFFFFFFFFFFFFFFFFFFFFFFFFFFFFFFFFFFFFFFFFFFFFFFFFFFFFFF
310
FFFFFFFFFFFFFFFFFFFFFFFFFFFFFFFFFFFFFFFFFFFFFFFFFFFFFFFFFFFFFFFF
310
FFFFFFFFFFFFFFFFFFFFFFFFFFFFFFFFFFFFFFFFFFFFFFFFFFFFFFFFFFFFFFFF
310
FFFFFFFFFFFFFFFFFFFFFFFFFFFFFFFFFFFFFFFFFFFFFFFFFFFFFFFFFFFFFFFF
310
FFFFFFFFFFFFFFFFFFFFFFFFFFFFFFFFFFFFFFFFFFFFFFFFFFFFFFFFFFFFFFFF
310
FDFFFFFFFEFFFFFFFEFFFFFFFEFFFFFF05000000060000000700000008000000
310
090000000A0000000B0000000C0000000D0000000E0000000F00000010000000
310
11000000120000001300000014000000150000001600000017000000FEFFFFFF
310
FFFFFFFFFFFFFFFFFFFFFFFFFFFFFFFFFFFFFFFFFFFFFFFFFFFFFFFFFFFFFFFF
310
FFFFFFFFFFFFFFFFFFFFFFFFFFFFFFFFFFFFFFFFFFFFFFFFFFFFFFFFFFFFFFFF
310
FFFFFFFFFFFFFFFFFFFFFFFFFFFFFFFFFFFFFFFFFFFFFFFFFFFFFFFFFFFFFFFF
310
FFFFFFFFFFFFFFFFFFFFFFFFFFFFFFFFFFFFFFFFFFFFFFFFFFFFFFFFFFFFFFFF
310
FFFFFFFFFFFFFFFFFFFFFFFFFFFFFFFFFFFFFFFFFFFFFFFFFFFFFFFFFFFFFFFF
310
FFFFFFFFFFFFFFFFFFFFFFFFFFFFFFFFFFFFFFFFFFFFFFFFFFFFFFFFFFFFFFFF
310
FFFFFFFFFFFFFFFFFFFFFFFFFFFFFFFFFFFFFFFFFFFFFFFFFFFFFFFFFFFFFFFF
310
FFFFFFFFFFFFFFFFFFFFFFFFFFFFFFFFFFFFFFFFFFFFFFFFFFFFFFFFFFFFFFFF
310
FFFFFFFFFFFFFFFFFFFFFFFFFFFFFFFFFFFFFFFFFFFFFFFFFFFFFFFFFFFFFFFF
310
FFFFFFFFFFFFFFFFFFFFFFFFFFFFFFFFFFFFFFFFFFFFFFFFFFFFFFFFFFFFFFFF
310
FFFFFFFFFFFFFFFFFFFFFFFFFFFFFFFFFFFFFFFFFFFFFFFFFFFFFFFFFFFFFFFF
310
FFFFFFFFFFFFFFFFFFFFFFFFFFFFFFFFFFFFFFFFFFFFFFFFFFFFFFFFFFFFFFFF
310
FFFFFFFFFFFFFFFFFFFFFFFFFFFFFFFFFFFFFFFFFFFFFFFFFFFFFFFFFFFFFFFF
310
52006F006F007400200045006E00740072007900000000000000000000000000
310
0000000000000000000000000000000000000000000000000000000000000000
310
16000500FFFFFFFFFFFFFFFF020000000A00030000000000C000000000000046
310
000000000000000000000000C09680B88E03D20103000000C000000000000000
310
01004F006C006500000000000000000000000000000000000000000000000000
310
0000000000000000000000000000000000000000000000000000000000000000
310
0A000200FFFFFFFFFFFFFFFFFFFFFFFF00000000000000000000000000000000
310
0000000000000000000000000000000000000000000000001400000000000000
310
010043006F006D0070004F0062006A0000000000000000000000000000000000
310
0000000000000000000000000000000000000000000000000000000000000000
310
120002010100000003000000FFFFFFFF00000000000000000000000000000000
310
0000000000000000000000000000000000000000010000004D00000000000000
310
01004F006C006500310030004E00610074006900760065000000000000000000
310
0000000000000000000000000000000000000000000000000000000000000000
310
1A000200FFFFFFFFFFFFFFFFFFFFFFFF00000000000000000000000000000000
310
0000000000000000000000000000000000000000040000002426000000000000
310
FEFFFFFF02000000FEFFFFFFFFFFFFFFFFFFFFFFFFFFFFFFFFFFFFFFFFFFFFFF
310
FFFFFFFFFFFFFFFFFFFFFFFFFFFFFFFFFFFFFFFFFFFFFFFFFFFFFFFFFFFFFFFF
310
FFFFFFFFFFFFFFFFFFFFFFFFFFFFFFFFFFFFFFFFFFFFFFFFFFFFFFFFFFFFFFFF
310
FFFFFFFFFFFFFFFFFFFFFFFFFFFFFFFFFFFFFFFFFFFFFFFFFFFFFFFFFFFFFFFF
310
FFFFFFFFFFFFFFFFFFFFFFFFFFFFFFFFFFFFFFFFFFFFFFFFFFFFFFFFFFFFFFFF
310
FFFFFFFFFFFFFFFFFFFFFFFFFFFFFFFFFFFFFFFFFFFFFFFFFFFFFFFFFFFFFFFF
310
FFFFFFFFFFFFFFFFFFFFFFFFFFFFFFFFFFFFFFFFFFFFFFFFFFFFFFFFFFFFFFFF
310
FFFFFFFFFFFFFFFFFFFFFFFFFFFFFFFFFFFFFFFFFFFFFFFFFFFFFFFFFFFFFFFF
310
FFFFFFFFFFFFFFFFFFFFFFFFFFFFFFFFFFFFFFFFFFFFFFFFFFFFFFFFFFFFFFFF
310
FFFFFFFFFFFFFFFFFFFFFFFFFFFFFFFFFFFFFFFFFFFFFFFFFFFFFFFFFFFFFFFF
310
FFFFFFFFFFFFFFFFFFFFFFFFFFFFFFFFFFFFFFFFFFFFFFFFFFFFFFFFFFFFFFFF
310
FFFFFFFFFFFFFFFFFFFFFFFFFFFFFFFFFFFFFFFFFFFFFFFFFFFFFFFFFFFFFFFF
310
FFFFFFFFFFFFFFFFFFFFFFFFFFFFFFFFFFFFFFFFFFFFFFFFFFFFFFFFFFFFFFFF
310
FFFFFFFFFFFFFFFFFFFFFFFFFFFFFFFFFFFFFFFFFFFFFFFFFFFFFFFFFFFFFFFF
310
FFFFFFFFFFFFFFFFFFFFFFFFFFFFFFFFFFFFFFFFFFFFFFFFFFFFFFFFFFFFFFFF
310
FFFFFFFFFFFFFFFFFFFFFFFFFFFFFFFFFFFFFFFFFFFFFFFFFFFFFFFFFFFFFFFF
310
0100000200000000000000000000000000000000000000000000000000000000
310
0000000000000000000000000000000000000000000000000000000000000000
310
0100FEFF030A0000FFFFFFFF0A00030000000000C00000000000004607000000
310
5042727573680007000000504272757368000700000050427275736800F439B2
310
7100000000000000000000000000000000000000000000000000000000000000
310
0000000000000000000000000000000000000000000000000000000000000000
310
0000000000000000000000000000000000000000000000000000000000000000
310
0000000000000000000000000000000000000000000000000000000000000000
310
0000000000000000000000000000000000000000000000000000000000000000
310
0000000000000000000000000000000000000000000000000000000000000000
310
0000000000000000000000000000000000000000000000000000000000000000
310
0000000000000000000000000000000000000000000000000000000000000000
310
0000000000000000000000000000000000000000000000000000000000000000
310
0000000000000000000000000000000000000000000000000000000000000000
310
0000000000000000000000000000000000000000000000000000000000000000
310
0000000000000000000000000000000000000000000000000000000000000000
310
20260000424D0E260000000000003E00000028000000B40200006E0000000100
310
01000000000000000000130B0000130B00000200000002000000000000FFFFFF
310
FFFFFFFFFFFFFFFFFFFFFFFFFFFFFFFFFFFFFFFFFFFFFFFFFFFFFFFFFFFFFFFF
310
FFFFFFFFFFFFFFFFFFFFFFFFFFFFFFFFFFFFFFFFFFFFFFFFFFFFFFFFFFFFFFFF
310
FFFFFFFFFFFFFFFFFFFFFFFFFFFFFFFFFFFFFFFFFFFFFFFFF000FFFFFFFFFFFF
310
FFFFFFFFFFFFFFFFFFFFFFFFFFFFFFFFFFFFFFFFFFFFFFFFFFFFFFFFFFFFFFFF
310
FFFFFFFFFFFFFFFFFFFFFFFFFFFFFFFFFFFFFFFFFFFFFFFFFFFFFFFFFFFFFFFF
310
FFFFFFFFFFFFFFFFFFFFFFFFFFFFFFFFF000FFFFFFFFFFFFFFFFFFFFFFFFFFFF
310
FFFFFFFFFFFFFFFFFFFFFFFFFFFFFFFFFFFFFFFFFFFFFFFFFFFFFFFFFFFFFFFF
310
FFFFFFFFFFFFFFFFFFFFFFFFFFFFFFFFFFFFFFFFFFFFFFFFFFFFFFFFFFFFFFFF
310
FFFFFFFFFFFFFFFFF000FFFFFFFFFFFFFFFFFFFFFFFFFFFFFFFFFFFFFFFFFFFF
310
FFFFFFFFFFFFFFFFFFFFFFFFFFFFFFFFFFFFFFFFFFFFFFFFFFFFFFFFFFFFFFFF
310
FFFFFFFFFFFFFFFFFFFFFFFFFFFFFFFFFFFFFFFFFFFFFFFFFFFFFFFFFFFFFFFF
310
F000FFFFFFFFFFFFFFFFFFFFFFFFFFFFFFFFFFFFFFFFFFFFFFFFFFFFFFFFFFFF
310
FFFFFFFFFFFFFFFFFFFFFFFFFFFFFFFFFFFFFFFFFFFFFFFFFFFFFFFFFFFFFFFF
310
FFFFFFFFFFFFFFFFFFFFFFFFFFFFFFFFFFFFFFFFFFFFFFFFF000FFFFFFFFFFFF
310
FFFFFFFFFFFFFFFFFFFFFFFFFFFFFFFFFFFFFFFFFFFFFFFFFFFFFFFFFFFFFFFF
310
FFFFFFFFFFFFFFFFFFFFFFFFFFFFFFFFFFFFFFFFFFFFFFFFFFFFFFFFFFFFFFFF
310
FFFFFFFFFFFFFFFFFFFFFFFFFFFFFFFFF000FFFFFFFFFFFFFFFFFFFFFFFFFFFF
310
FFFFFFFFFFFFFFFFFFFFFFFFFFFFFFFFFFFFFFFFFFFFFFFFFFFFFFFFFFFFFFFF
310
FFFFFFFFFFFFFFFFFFFFFFFFFFFFFFFFFFFFFFFFFFFFFFFFFFFFFFFFFFFFFFFF
310
FFFFFFFFFFFFFFFFF000FFFFFFFFFFFFFFFFFFFFFFFFFFFFFFFFFFFFFFFFFFFF
310
FFFFFFFFFFFFFFFFFFFFFFFFFFFFFFFFFFFFFFFFFFFFFFFFFFFFFFFFFFFFFFFF
310
FFFFFFFFFFFFFFFFFFFFFFFFFFFFFFFFFFFFFFFFFFFFFFFFFFFFFFFFFFFFFFFF
310
F000FFFFFFFFFFFFFFFFFFFFFFFFFFFFFFFFFFFFFFFFFFFFFFFFFFFFFFFFFFFF
310
FFFFFFFFFFFFFFFFFFFFFFFFFFFFFFFFFFFFFFFFFFFFFFFFFFFFFFFFFFFFFFFF
310
FFFFFFFFFFFFFFFFFFFFFFFFFFFFFFFFFFFFFFFFFFFFFFFFF000FFFFFFFFFFFF
310
FFFFFFFFFFFFFFFFFFFFFFFFFFFFFFFFFFFFFFFFFFFFFFFFFFFFFFFFFFFFFFFF
310
FFFFFFFFFFFFFFFFFFFFFFFFFFFFFFFFFFFFFFFFFFFFFFFFFFFFFFFFFFFFFFFF
310
FFFFFFFFFFFFFFFFFFFFFFFFFFFFFFFFF000FFFFFFFFFFFFFFFFFFFFFFFFFFFF
310
FFFFFFFFFFFFFFFFFFFFFFFFFFFFFFFFFFFFFFFFFFFFFFFFFFFFFFFFFFFFFFFF
310
FFFFFFFFFFFFFFFFFFFFFFFFFFFFFFFFFFFFFFFFFFFFFFFFFFFFFFFFFFFFFFFF
310
FFFFFFFFFFFFFFFFF000FFFFFFFFFFFFFFFFFFFFFFFFFFFFFFFFFFFFFFFFFFFF
310
FFFFFFFFFFFFFFFFFFFFFFFFFFFFFFFFFFFFFFFFFFFFFFFFFFFFFFFFFFFFFFFF
310
FFFFFFFFFFFFFFFFFFFFFFFFFFFFFFFFFFFFFFFFFFFFFFFFFFFFFFFFFFFFFFFF
310
F000FFFFFFFFFFFFFFFFFFFFFFFFFFFFFFFFFFFFFFFFFFFFFFFFFFFFFFFFFFFF
310
FFFFFFFFFFFFFFFFFFFFFFFFFFFFFFFFFFFFFFFFFFFFFFFFFFFFFFFFFFFFFFFF
310
FFFFFFFFFFFFFFFFFFFFFFFFFFFFFFFFFFFFFFFFFFFFFFFFF000FFFFFFFFFFFF
310
FFFFFFFFFFFFFFFFFFFFFFFFFFFFFFFFFFFFFFFFFFFFFFFFFFFFFFFFFFFFFFFF
310
FFFFFFFFFFFFFFFFFFFFFFFFFFFFFFFFFFFFFFFFFFFFFFFFFFFFFFFFFFFFFFFF
310
FFFFFFFFFFFFFFFFFFFFFFFFFFFFFFFFF000FFFFFFFFFFFFFFFFFFFFFFFFFFFF
310
FFFFFFFFFFFFFFFFFFFFFFFFFFFFFFFFFFFFFFFFFFFFFFFFFFFFFFFFFFFFFFFF
310
FFFFFFFFFFFFFFFFFFFFFFFFFFFFFFFFFFFFFFFFFFFFFFFFFFFFFFFFFFFFFFFF
310
FFFFFFFFFFFFFFFFF000FFFFFFFFFFFFFFFFFFFFFFFFFFFFFFFFFFFFFFFFFFFF
310
FFFFFFFFFFFFFFFFFFFFFFFFFFFFFFFFFFFFFFFFFFFFFFFFFFFFFFFFFFFFFFFF
310
FFFFFFFFFFFFFFFFFFFFFFFFFFFFFFFFFFFFFFFFFFFFFFFFFFFFFFFFFFFFFFFF
310
F000FFFFFFFFFFFFFFFFFFFFFFFFFFFFFFFFFFFFFFFFFFFFFFFFFFFFFFFFFFFF
310
FFFFFFFFFFFFFFFFFFFFFFFFFFFFFFFFFFFFFFFFFFFFFFFFFFFFFFFFFFFFFFFF
310
FFFFFFFFFFFFFFFFFFFFFFFFFFFFFFFFFFFFFFFFFFFFFFFFF000FFFFFFFFFFFF
310
FFFFFFFFFFFFFFFFFFFFFFFFFFFFFFFFFFFFFFFFFFFFFFFFFFFFFFFFFFFFFFFF
310
FFFFFFFFFFFFFFFFFFFFFFFFFFFFFFFFFFFFFFFFFFFFFFFFFFFFFFFFFFFFFFFF
310
FFFFFFFFFFFFFFFFFFFFFFFFFFFFFFFFF000FFFFFFFFFFFFFFFFFFFFFFFFFFFF
310
FFFFFFFFFFFFFFFFFFFFFFFFFFFFFFFFFFFFFFFFFFFFFFFFFFFFFFFFFFFFFFFF
310
FFFFFFFFFFFFFFFFFFFFFFFFFFFFFFFFFFFFFFFFFFFFFFFFFFFFFFFFFFFFFFFF
310
FFFFFFFFFFFFFFFFF000FFFFF80003FFFFFFFFFFFFFFFFFFFFFFFFFFFFFFFFFF
310
FFFFF00007FFFFFFFFFF00007FFFFFF800000000000000007FFFFFFFFFFFFFFF
310
FFFFFFFC001FFFFFFFFFFFFFFC001FFFFFFFFFFFFFFFFFFFFFFFFFFE0007FFFF
310
F000FFFF8000007FFFFFFFF8000FFFFFC0007FFFFF80007FFFFF0000007FFFFF
310
FFF8000007FFFFF800000000000000007FFFFFF0001FFFFFFFFFFFC00001FFFF
310
FFFFFFFFC00001FFFFFFFF000000000003FFFFE000007FFFF000FFFE0000000F
310
FFFFFFF0000FFFFF80007FFFFF80007FFFFC0000001FFFFFFFC0000001FFFFF8
310
00000000000000007FFFFFF0001FFFFFFFFFFE0000003FFFFFFFFFFE0000003F
310
FFFFFF000000000003FFFF0000000FFFF000FFF800000003FFFFFFF00007FFFF
310
80007FFFFF80007FFFF000000007FFFFFF000000003FFFF80000000000000000
310
7FFFFFF0001FFFFFFFFFF80000000FFFFFFFFFF80000000FFFFFFF0000000000
310
03FFFC00000003FFF000FFE000000000FFFFFFF00007FFFF80003FFFFF80007F
310
FFC000000001FFFFFC000000001FFFF800000000000000007FFFFFF0001FFFFF
310
FFFFE000000003FFFFFFFFE000000003FFFFFF000000000003FFF000000000FF
310
F000FF80000000007FFFFFF00007FFFF80003FFFFF80007FFF8000000000FFFF
310
F80000000007FFF800000000000000007FFFFFF0001FFFFFFFFFC000000001FF
310
FFFFFFC000000001FFFFFF000000000003FFC0000000007FF000FF0000000000
310
3FFFFFE00007FFFF00003FFFFF80007FFE00000000003FFFF00000000003FFF8
310
00000000000000007FFFFFF0001FFFFFFFFF8000000000FFFFFFFF8000000000
310
FFFFFF000000000003FF80000000003FF000FE00000000001FFFFFE00003FFFF
310
00003FFFFF80007FFC00000000001FFFE00000000001FFF8000001FFFE000000
310
7FFFFFF0001FFFFFFFFE00000000003FFFFFFE00000000003FFFFF0000000000
310
03FF00000000001FF000FC00000000000FFFFFE00003FFFF00001FFFFF80007F
310
F800000000001FFFC00000000000FFF8000001FFFE0000007FFFFFF0001FFFFF
310
FFFC00000000001FFFFFFC00000000001FFFFF000000000003FE00000000000F
310
F000F8000000000007FFFFE00003FFFF00001FFFFF80007FF800000000000FFF
310
800000000000FFF8000001FFFE0000007FFFFFF0001FFFFFFFF800000000000F
310
FFFFF800000000000FFFFF000000000003FC000000000007F000F80000000000
310
03FFFFC00003FFFE00001FFFFF80007FF0000000000007FF0000000000007FF8
310
000001FFFE0000007FFFFFF0001FFFFFFFF0000000000007FFFFF00000000000
310
07FFFF000000000003F8000000000003F000F0000000000003FFFFC00001FFFE
310
00001FFFFF80007FE0000000000007FE0000000000003FF8000001FFFE000000
310
7FFFFFF0001FFFFFFFF0000000000007FFFFF0000000000007FFFF0000000000
310
03F800001F800003F000E00001FFF00001FFFFC00001FFFE00000FFFFF80007F
310
E00001FFE00003FE00001FFF00003FF8000001FFFE0000007FFFFFF0001FFFFF
310
FFE000003E000003FFFFE000003E000003FFFF000000000003F00001FFF80001
310
F000E00007FFFC0001FFFFC00001FFFE00000FFFFF80007FC0000FFFFC0003FC
310
0000FFFFC0001FF8000001FFFE0000007FFFFFF0001FFFFFFFC00003FFE00001
310
FFFFC00003FFE00001FFFF0001FFFFFFFFF00007FFFE0001F000E0000FFFFF00
310
00FFFF800001FFFC00000FFFFF80007FC0001FFFFE0001FC0001FFFFE0001FF8
310
000001FFFE0000007FFFFFF0001FFFFFFF80000FFFF80000FFFF80000FFFF800
310
00FFFF0003FFFFFFFFE0000FFFFF8000F000C0003FFFFF8000FFFF800000FFFC
310
000007FFFF80007F80003FFFFF0001FC0003FFFFF0001FF8000001FFFE000000
310
7FFFFFF0001FFFFFFF80003FFFFE0000FFFF80003FFFFE0000FFFF0003FFFFFF
310
FFE0003FFFFF8000F000C0003FFFFF8000FFFF800000FFFC000007FFFF80007F
310
80007FFFFF8001F80007FFFFF8000FF8000001FFFE0000007FFFFFF0001FFFFF
310
FF00007FFFFF00007FFF00007FFFFF00007FFF0003FFFFFFFFE0003FFFFFC000
310
F000C0007FFFFFC000FFFF000000FFFC000007FFFF80007F8000FFFFFF8000F8
310
000FFFFFF8000FF8000001FFFE0000007FFFFFF0001FFFFFFF0000FFFFFF8000
310
7FFF0000FFFFFF80007FFF0003FFFFFFFFC0007FFFFFC00070008000FFFFFFC0
310
00FFFF000000FFF8000007FFFF80007F8000FFFFFF8000F8000FFFFFF8000FF8
310
000001FFFE0000007FFFFFF0001FFFFFFE0001FFFFFFC0003FFE0001FFFFFFC0
310
003FFF0003FFFFFFFFC0007FFFFFE00070008000FFFFFFC0007FFF0000007FF8
310
000003FFFF80007F0001FFFFFF8000F8000FFFFFF8000FF8000001FFFE000000
310
7FFFFFF0001FFFFFFE0001FFFFFFC0003FFE0001FFFFFFC0003FFF0003FFFFFF
310
FFC000FFFFFFE00070008000FFFFFFC0007FFF0000007FF8000003FFFF80007F
310
0001FFFFFF8000F8001FFFFFF8000FF8000001FFFE0000007FFFFFF0001FFFFF
310
FE0003FFFFFFE0003FFE0003FFFFFFE0003FFF0003FFFFFFFFC000FFFFFFE000
310
70008000FFFFFFC0007FFE0000007FF8000003FFFF80007F0001FFFFFF8000F0
310
001FFFFFF8000FF8000001FFFE0000007FFFFFF0001FFFFFFC0003FFFFFFE000
310
1FFC0003FFFFFFE0001FFF0003FFFFFFFFC000FFFFFFC00070008000FFFFFF80
310
007FFE0000007FF0000003FFFF80007F0001FFFFFF0000F0001FFFFFF8000FF8
310
000001FFFE0000007FFFFFF0001FFFFFFC0007FFFFFFF0001FFC0007FFFFFFF0
310
001FFF0003FFFFFFFFC000FFFFFFC00070008001FFFFFF0000FFFE0000003FF0
310
000001FFFF80007F0001FFFFFF0000F8001FFFFFF0000FF8000001FFFE000000
310
7FFFFFF0001FFFFFFC0007FFFFFFF0001FFC0007FFFFFFF0001FFF0003FFFFFF
310
FFC001FFFFFF80007000FFFFFFFFFE0000FFFE0008003FF0008001FFFF80007F
310
FFFFFFFFFC0000FFFFFFFFFFE0000FF8000001FFFE0000007FFFFFF0001FFFFF
310
F8000FFFFFFFF8000FF8000FFFFFFFF8000FFF0003FFFFFFFFFFFFFFFFFF0000
310
7000FFFFFFFFFC0000FFFC0008003FF0008001FFFF80007FFFFFFFFFF80001FF
310
FFFFFFFF80000FF8000001FFFE0000007FFFFFF0001FFFFFF8000FFFFFFFF800
310
0FF8000FFFFFFFF8000FFF0003FFFFFFFFFFFFFFFFFE0000F000FFFFFFFFE000
310
00FFFC000C003FE000C001FFFF80007FFFFFFFFFC00001FFFFFFFFFE00001FF8
310
000001FFFE0000007FFFFFF0001FFFFFF8000FFFFFFFF8000FF8000FFFFFFFF8
310
000FFF0003FFFFFFFFFFFFFFFFF00000F000FFFFFFFE000001FFFC000C001FE0
310
00C000FFFF80007FFFFFFFFE000001FFFFFFFFE000001FF80FFFFFFFFFFFFFC0
310
7FFFFFF0001FFFFFF8000FFFFFFFF8000FF8000FFFFFFFF8000FFF0003FFFFFF
310
FFFFFFFFFF800000F000FFFFFFC0000001FFFC001C001FE001C000FFFF80007F
310
FFFFFF80000003FFFFFFF80000001FF80FFFFFFFFFFFFFC07FFFFFF0001FFFFF
310
F8001FFFFFFFFC000FF8001FFFFFFFFC000FFF0003FFFFFFFFFFFFFFF0000001
310
F000FFFFF800000001FFF8001C001FE001C000FFFF80007FFFFFF800000003FF
310
FFFF800000003FF80FFFFFFFFFFFFFC07FFFFFF0001FFFFFF8001FFFFFFFFC00
310
0FF8001FFFFFFFFC000FFF0003FFFFFFFFFFFFFE00000001F000FFFFC0000000
310
03FFF8001E001FC001E000FFFF80007FFFFF8000000007FFFFFC000000003FF8
310
0FFFFFFFFFFFFFC07FFFFFF0001FFFFFF8001FFFFFFFFC000FF8001FFFFFFFFC
310
000FFF0003FFFFFFFFFFFFE000000003F000FFFE0000000007FFF8001E000FC0
310
01E0007FFF80007FFFFE0000000007FFFFE0000000007FF80FFFFFFFFFFFFFC0
310
7FFFFFF0001FFFFFF0001FFFFFFFFC0007F0001FFFFFFFFC0007FF0003FFFFFF
310
FFFFFF0000000003F000FFF80000000007FFF8001E000FC003E0007FFF80007F
310
FFF0000000000FFFFF8000000000FFF80FFFFFFFFFFFFFC07FFFFFF0001FFFFF
310
F0001FFFFFFFFC0007F0001FFFFFFFFC0007FF0003FFFFFFFFFFFC0000000007
310
F000FFE0000000000FFFF0003E000FC003E0007FFF80007FFFC0000000001FFF
310
FE0000000001FFF80FFFFFFFFFFFFFC07FFFFFF0001FFFFFF0001FFFFFFFFC00
310
07F0001FFFFFFFFC0007FF0003FFFFFFFFFFF0000000000FF000FFC000000000
310
1FFFF0003F000F8003F0003FFF80007FFF80000000003FFFF80000000003FFF8
310
0FFFFFFFFFFFFFC07FFFFFF0001FFFFFF0001FFFFFFFFC0007F0001FFFFFFFFC
310
0007FF0003FFFFFFFFFFE0000000001FF000FF00000000007FFFF0003F000780
310
03F0003FFF80007FFF00000000007FFFF00000000007FFF80FFFFFFFFFFFFFC0
310
7FFFFFF0001FFFFFF0001FFFFFFFFC0007F0001FFFFFFFFC0007FF0003FFFFFF
310
FFFF80000000007FF000FE0000000000FFFFE0003F00078007F0003FFF80007F
310
FE0000000001FFFFE0000000001FFFF80FFFFFFFFFFFFFC07FFFFFF0001FFFFF
310
F0001FFFFFFFFC0007F0001FFFFFFFFC0007FF0003FFFFFFFFFF0000000000FF
310
F000FC0000000003FFFFE0007F00078007F0003FFF80007FFC0000000007FFFF
310
C0000000007FFFF80FFFFFFFFFFFFFC07FFFFFF0001FFFFFF8001FFFFFFFFC00
310
0FF8001FFFFFFFFC000FFF0003FFFFFFFFFE0000000003FFF000FC000000000F
310
FFFFE0007F80070007F8001FFF80007FF8000000001FFFFF8000000001FFFFF8
310
0FFFFFFFFFFFFFC07FFFFFF0001FFFFFF8001FFFFFFFFC000FF8001FFFFFFFFC
310
000FFF0003FFFFFFFFFC000000000FFFF000F8000000007FFFFFE0007F800700
310
07F8001FFF80007FF000000000FFFFFF800000000FFFFFF80FFFFFFFFFFFFFC0
310
7FFFFFF0001FFFFFF8000FFFFFFFF8000FF8000FFFFFFFF8000FFF0003FFFFFF
310
FFFC000000007FFFF000F800000007FFFFFFC0007F8003000FF8001FFF80007F
310
F000000007FFFFFF000000007FFFFFF80FFFFFFFFFFFFFC07FFFFFF0001FFFFF
310
F8000FFFFFFFF8000FF8000FFFFFFFF8000FFF0003FFFFFFFFF80000000FFFFF
310
F000F0000000FFFFFFFFC000FF8003000FF8001FFF80007FE0000000FFFFFFFF
310
0000000FFFFFFFF8000001FFFE0000007FFFFFF0001FFFFFF8000FFFFFFFF800
310
0FF8000FFFFFFFF8000FFF0003FFFFFFFFF8000000FFFFFFF000F000000FFFFF
310
FFFFC000FFC002000FF8000FFF80007FE000001FFFFFFFFE000001FFFFFFFFF8
310
000001FFFE0000007FFFFFF0001FFFFFF8000FFFFFFFF8000FF8000FFFFFFFF8
310
000FFF0003FFFFFFFFF000001FFFFFFFF000E00000FFFFFFFFFFC000FFC00200
310
0FFC000FFF80007FE00001FFFFFFFFFE00001FFFFFFFFFF8000001FFFE000000
310
7FFFFFF0001FFFFFFC000FFFFFFFF8001FFC000FFFFFFFF8001FFF0003FFFFFF
310
FFF00001FFFFFFFFF000E00007FFFFFFFFFF8000FFC000001FFC000FFF80007F
310
C0000FFFFFFFFFFE0000FFFFFFFFFFF8000001FFFE0000007FFFFFF0001FFFFF
310
FC0007FFFFFFF0001FFC0007FFFFFFF0001FFF0003FFFFFFFFF00007FFFFFFFF
310
F000E0001FFFFFFFFFFF8000FFC000001FFC000FFF80007FC0003FFFFFFFFFFE
310
0001FFFFFFFFFFF8000001FFFE0000007FFFFFF0001FFFFFFC0007FFFFFFF000
310
1FFC0007FFFFFFF0001FFF0003FFFFFFFFF0001FFFFFFFFFF000E0003FFFFF00
310
03FF8001FFE000001FFC0007FF80007FC0007FFFFF0007FC0003FFFFF0003FF8
310
000001FFFE0000007FFFFFF0001FFFFFFC0003FFFFFFE0001FFC0003FFFFFFE0
310
001FFF0003FFFFFFFFF0003FFFFFFFFFF000E0003FFFFF0001FF8001FFE00000
310
1FFE0007FF80007FC0007FFFFE0003FC0007FFFFE0003FF8000001FFFE000000
310
7FFFFFF0001FFFFFFE0003FFFFFFE0003FFE0003FFFFFFE0003FFF0003FFFFFF
310
FFF0003FFFFF8001F000E0003FFFFF0001FF0001FFE000001FFE0007FF80007F
310
C0007FFFFE0003FC0007FFFFE0003FF8000001FFFE0000007FFFFFF0001FFFFF
310
FE0001FFFFFFC0003FFE0001FFFFFFC0003FFF0003FFFFFFFFF0003FFFFF0001
310
F000E0003FFFFF0003FF0001FFE000003FFE0007FF80007FC0007FFFFE0003FC
310
0007FFFFE0003FF8000001FFFE0000007FFFFFF0001FFFFFFF0001FFFFFFC000
310
7FFF0001FFFFFFC0007FFF0003FFFFFFFFF0003FFFFF0001F000E0003FFFFE00
310
03FF0003FFF000003FFE0003FF80007FC0007FFFFC0003FE0007FFFFE0003FF8
310
000001FFFE0000007FFFFFF0001FFFFFFF0000FFFFFF80007FFF0000FFFFFF80
310
007FFF0003FFFFFFFFF0003FFFFF0001F000E0003FFFFE0003FF0003FFF00000
310
3FFF0003FF80007FC0007FFFFC0007FE0007FFFFC0003FF8000001FFFE000000
310
7FFFFFF0001FFFFFFF80007FFFFF0000FFFF80007FFFFF0000FFFF0003FFFFFF
310
FFF0003FFFFF0003F000E0003FFFFC0003FE0003FFF000003FFF0003FF80007F
310
E0003FFFF80007FE0003FFFFC0007FF8000001FFFE0000007FFFFFF0001FFFFF
310
FF80003FFFFE0000FFFF80003FFFFE0000FFFF0003FFFFFFFFF0001FFFFE0003
310
F000F0001FFFF80003FE0003FFF000007FFF0001FF80007FE0003FFFF00007FE
310
0001FFFF80007FF8000001FFFE0000007FFFFFF0001FFFFFFFC0000FFFF80001
310
FFFFC0000FFFF80001FFFF0003FFFFFFFFF0001FFFFC0003F000F0000FFFF000
310
07FE0007FFF800007FFF0001FF80007FE0001FFFE00007FF0000FFFE00007FF8
310
000001FFFE0000007FFFFFF0001FFFFFFFC00003FFE00001FFFFC00003FFE000
310
01FFFF0003FFFFFFFFF8000FFFF80003F000F00003FFC00007FC0007FFF80000
310
7FFF8001FF80007FF00007FF80000FFF00007FF80000FFF8000001FFFE000000
310
7F80000000000001FFE000003E000003FFFFE000003E000003FFFF0003FFFFFF
310
FFF80003FFE00007F000F800000000000FFC0007FFF800007FFF8001FF80007F
310
F000000000000FFF000000000000FFF8000001FFFE0000007F80000000000001
310
FFF0000000000007FFFFF0000000000007FFFF0003FFFFFFFFFC00007E000007
310
F000F800000000000FFC0007FFF80000FFFF8000FF80007FF800000000001FFF
310
800000000001FFF8000001FFFE0000007F80000000000001FFF800000000000F
310
FFFFF800000000000FFFFF0003FFFFFFFFFC00000000000FF000FC0000000000
310
1FFC0007FFFC0000FFFF8000FF80007FF800000000003FFFC00000000001FFF8
310
000001FFFE0000007F80000000000001FFF800000000000FFFFFF80000000000
310
0FFFFF0003FFFFFFFFFE00000000001FF000FE00000000003FF8000FFFFC0000
310
FFFF8000FF80007FFC00000000003FFFC00000000003FFF8000001FFFE000000
310
7F80000000000001FFFC00000000001FFFFFFC00000000001FFFFF0003FFFFFF
310
FFFF00000000001FF000FF00000000003FF8000FFFFC0000FFFFC000FF80007F
310
FE00000000007FFFE00000000007FFF8000001FFFE0000007F80000000000001
310
FFFE00000000003FFFFFFE00000000003FFFFF0003FFFFFFFFFF80000000003F
310
F000FF80000000007FF8000FFFFC0001FFFFC0007F80007FFF0000000000FFFF
310
F0000000000FFFF800000000000000007F80000000000001FFFF8000000000FF
310
FFFFFF8000000000FFFFFF0003FFFFFFFFFFC0000000007FF000FFC000000000
310
FFF8000FFFFE0001FFFFC0007F80007FFF8000000001FFFFF8000000001FFFF8
310
00000000000000007F80000000000001FFFFC000000001FFFFFFFFC000000001
310
FFFFFF0003FFFFFFFFFFE000000000FFF000FFE000000003FFF0001FFFFE0001
310
FFFFC0007F80007FFFC000000007FFFFFE000000003FFFF80000000000000000
310
7F80000000000001FFFFE000000003FFFFFFFFE000000003FFFFFF0003FFFFFF
310
FFFFF000000003FFF000FFF80000000FFFF0001FFFFE0001FFFFE0007F80007F
310
FFF00000000FFFFFFF00000000FFFFF800000000000000007F80000000000001
310
FFFFF80000000FFFFFFFFFF80000000FFFFFFF0003FFFFFFFFFFFC0000000FFF
310
F000FFFE0000003FFFF0001FFFFE0003FFFFE0003F80007FFFFC0000003FFFFF
310
FFC0000003FFFFF800000000000000007F80000000000001FFFFFE0000003FFF
310
FFFFFFFE0000003FFFFFFF0003FFFFFFFFFFFF0000003FFFF000FFFF800000FF
310
FFF0001FFFFF0003FFFFE0003F80007FFFFF000001FFFFFFFFF800001FFFFFF8
310
00000000000000007F80000000000001FFFFFFC00001FFFFFFFFFFFFC00001FF
310
FFFFFF0003FFFFFFFFFFFFC00000FFFFF000FFFFF8000FFFFFFFFFFFFFFFFFFF
310
FFFFFFFFFFFFFFFFFFFFF0001FFFFFFFFFFF0000FFFFFFF80000000000000000
310
7FFFFFFFFFFFFFFFFFFFFFFC001FFFFFFFFFFFFFFC001FFFFFFFFFFFFFFFFFFF
310
FFFFFFFC001FFFFFF000FFFFFFFFFFFFFFFFFFFFFFFFFFFFFFFFFFFFFFFFFFFF
310
FFFFFFFFFFFFFFFFFFFFFFFFFFFFFFFFFFFFFFFFFFFFFFFFFFFFFFFFFFFFFFFF
310
FFFFFFFFFFFFFFFFFFFFFFFFFFFFFFFFFFFFFFFFFFFFFFFFFFFFFFFFFFFFFFFF
310
F000FFFFFFFFFFFFFFFFFFFFFFFFFFFFFFFFFFFFFFFFFFFFFFFFFFFFFFFFFFFF
310
FFFFFFFFFFFFFFFFFFFFFFFFFFFFFFFFFFFFFFFFFFFFFFFFFFFFFFFFFFFFFFFF
310
FFFFFFFFFFFFFFFFFFFFFFFFFFFFFFFFFFFFFFFFFFFFFFFFF000FFFFFFFFFFFF
310
FFFFFFFFFFFFFFFFFFFFFFFFFFFFFFFFFFFFFFFFFFFFFFFFFFFFFFFFFFFFFFFF
310
FFFFFFFFFFFFFFFFFFFFFFFFFFFFFFFFFFFFFFFFFFFFFFFFFFFFFFFFFFFFFFFF
310
FFFFFFFFFFFFFFFFFFFFFFFFFFFFFFFFF000FFFFFFFFFFFFFFFFFFFFFFFFFFFF
310
FFFFFFFFFFFFFFFFFFFFFFFFFFFFFFFFFFFFFFFFFFFFFFFFFFFFFFFFFFFFFFFF
310
FFFFFFFFFFFFFFFFFFFFFFFFFFFFFFFFFFFFFFFFFFFFFFFFFFFFFFFFFFFFFFFF
310
FFFFFFFFFFFFFFFFF000FFFFFFFFFFFFFFFFFFFFFFFFFFFFFFFFFFFFFFFFFFFF
310
FFFFFFFFFFFFFFFFFFFFFFFFFFFFFFFFFFFFFFFFFFFFFFFFFFFFFFFFFFFFFFFF
310
FFFFFFFFFFFFFFFFFFFFFFFFFFFFFFFFFFFFFFFFFFFFFFFFFFFFFFFFFFFFFFFF
310
F000FFFFFFFFFFFFFFFFFFFFFFFFFFFFFFFFFFFFFFFFFFFFFFFFFFFFFFFFFFFF
310
FFFFFFFFFFFFFFFFFFFFFFFFFFFFFFFFFFFFFFFFFFFFFFFFFFFFFFFFFFFFFFFF
310
FFFFFFFFFFFFFFFFFFFFFFFFFFFFFFFFFFFFFFFFFFFFFFFFF000FFFFFFFFFFFF
310
FFFFFFFFFFFFFFFFFFFFFFFFFFFFFFFFFFFFFFFFFFFFFFFFFFFFFFFFFFFFFFFF
310
FFFFFFFFFFFFFFFFFFFFFFFFFFFFFFFFFFFFFFFFFFFFFFFFFFFFFFFFFFFFFFFF
310
FFFFFFFFFFFFFFFFFFFFFFFFFFFFFFFFF000FFFFFFFFFFFFFFFFFFFFFFFFFFFF
310
FFFFFFFFFFFFFFFFFFFFFFFFFFFFFFFFFFFFFFFFFFFFFFFFFFFFFFFFFFFFFFFF
310
FFFFFFFFFFFFFFFFFFFFFFFFFFFFFFFFFFFFFFFFFFFFFFFFFFFFFFFFFFFFFFFF
310
FFFFFFFFFFFFFFFFF000FFFFFFFFFFFFFFFFFFFFFFFFFFFFFFFFFFFFFFFFFFFF
310
FFFFFFFFFFFFFFFFFFFFFFFFFFFFFFFFFFFFFFFFFFFFFFFFFFFFFFFFFFFFFFFF
310
FFFFFFFFFFFFFFFFFFFFFFFFFFFFFFFFFFFFFFFFFFFFFFFFFFFFFFFFFFFFFFFF
310
F000FFFFFFFFFFFFFFFFFFFFFFFFFFFFFFFFFFFFFFFFFFFFFFFFFFFFFFFFFFFF
310
FFFFFFFFFFFFFFFFFFFFFFFFFFFFFFFFFFFFFFFFFFFFFFFFFFFFFFFFFFFFFFFF
310
FFFFFFFFFFFFFFFFFFFFFFFFFFFFFFFFFFFFFFFFFFFFFFFFF000FFFFFFFFFFFF
310
FFFFFFFFFFFFFFFFFFFFFFFFFFFFFFFFFFFFFFFFFFFFFFFFFFFFFFFFFFFFFFFF
310
FFFFFFFFFFFFFFFFFFFFFFFFFFFFFFFFFFFFFFFFFFFFFFFFFFFFFFFFFFFFFFFF
310
FFFFFFFFFFFFFFFFFFFFFFFFFFFFFFFFF000FFFFFFFFFFFFFFFFFFFFFFFFFFFF
310
FFFFFFFFFFFFFFFFFFFFFFFFFFFFFFFFFFFFFFFFFFFFFFFFFFFFFFFFFFFFFFFF
310
FFFFFFFFFFFFFFFFFFFFFFFFFFFFFFFFFFFFFFFFFFFFFFFFFFFFFFFFFFFFFFFF
310
FFFFFFFFFFFFFFFFF000FFFFFFFFFFFFFFFFFFFFFFFFFFFFFFFFFFFFFFFFFFFF
310
FFFFFFFFFFFFFFFFFFFFFFFFFFFFFFFFFFFFFFFFFFFFFFFFFFFFFFFFFFFFFFFF
310
FFFFFFFFFFFFFFFFFFFFFFFFFFFFFFFFFFFFFFFFFFFFFFFFFFFFFFFFFFFFFFFF
310
F000FFFFFFFFFFFFFFFFFFFFFFFFFFFFFFFFFFFFFFFFFFFFFFFFFFFFFFFFFFFF
310
FFFFFFFFFFFFFFFFFFFFFFFFFFFFFFFFFFFFFFFFFFFFFFFFFFFFFFFFFFFFFFFF
310
FFFFFFFFFFFFFFFFFFFFFFFFFFFFFFFFFFFFFFFFFFFFFFFFF000FFFFFFFFFFFF
310
FFFFFFFFFFFFFFFFFFFFFFFFFFFFFFFFFFFFFFFFFFFFFFFFFFFFFFFFFFFFFFFF
310
FFFFFFFFFFFFFFFFFFFFFFFFFFFFFFFFFFFFFFFFFFFFFFFFFFFFFFFFFFFFFFFF
310
FFFFFFFFFFFFFFFFFFFFFFFFFFFFFFFFF000FFFFFFFFFFFFFFFFFFFFFFFFFFFF
310
FFFFFFFFFFFFFFFFFFFFFFFFFFFFFFFFFFFFFFFFFFFFFFFFFFFFFFFFFFFFFFFF
310
FFFFFFFFFFFFFFFFFFFFFFFFFFFFFFFFFFFFFFFFFFFFFFFFFFFFFFFFFFFFFFFF
310
FFFFFFFFFFFFFFFFF000FFFFFFFFFFFFFFFFFFFFFFFFFFFFFFFFFFFFFFFFFFFF
310
FFFFFFFFFFFFFFFFFFFFFFFFFFFFFFFFFFFFFFFFFFFFFFFFFFFFFFFFFFFFFFFF
310
FFFFFFFFFFFFFFFFFFFFFFFFFFFFFFFFFFFFFFFFFFFFFFFFFFFFFFFFFFFFFFFF
310
F000FFFFFFFFFFFFFFFFFFFFFFFFFFFFFFFFFFFFFFFFFFFFFFFFFFFFFFFFFFFF
310
FFFFFFFFFFFFFFFFFFFFFFFFFFFFFFFFFFFFFFFFFFFFFFFFFFFFFFFFFFFFFFFF
310
FFFFFFFFFFFFFFFFFFFFFFFFFFFFFFFFFFFFFFFFFFFFFFFFF000FFFFFFFFFFFF
310
FFFFFFFFFFFFFFFFFFFFFFFFFFFFFFFFFFFFFFFFFFFFFFFFFFFFFFFFFFFFFFFF
310
FFFFFFFFFFFFFFFFFFFFFFFFFFFFFFFFFFFFFFFFFFFFFFFFFFFFFFFFFFFFFFFF
310
FFFFFFFFFFFFFFFFFFFFFFFFFFFFFFFFF000FFFFFFFFFFFFFFFFFFFFFFFFFFFF
310
FFFFFFFFFFFFFFFFFFFFFFFFFFFFFFFFFFFFFFFFFFFFFFFFFFFFFFFFFFFFFFFF
310
FFFFFFFFFFFFFFFFFFFFFFFFFFFFFFFFFFFFFFFFFFFFFFFFFFFFFFFFFFFFFFFF
310
FFFFFFFFFFFFFFFFF000FFFFFFFFFFFFFFFFFFFFFFFFFFFFFFFFFFFFFFFFFFFF
310
FFFFFFFFFFFFFFFFFFFFFFFFFFFFFFFFFFFFFFFFFFFFFFFFFFFFFFFFFFFFFFFF
310
FFFFFFFFFFFFFFFFFFFFFFFFFFFFFFFFFFFFFFFFFFFFFFFFFFFFFFFFFFFFFFFF
310
F000FFFFFFFFFFFFFFFFFFFFFFFFFFFFFFFFFFFFFFFFFFFFFFFFFFFFFFFFFFFF
310
FFFFFFFFFFFFFFFFFFFFFFFFFFFFFFFFFFFFFFFFFFFFFFFFFFFFFFFFFFFFFFFF
310
FFFFFFFFFFFFFFFFFFFFFFFFFFFFFFFFFFFFFFFFFFFFFFFFF000FFFFFFFFFFFF
310
FFFFFFFFFFFFFFFFFFFFFFFFFFFFFFFFFFFFFFFFFFFFFFFFFFFFFFFFFFFFFFFF
310
FFFFFFFFFFFFFFFFFFFFFFFFFFFFFFFFFFFFFFFFFFFFFFFFFFFFFFFFFFFFFFFF
310
FFFFFFFFFFFFFFFFFFFFFFFFFFFFFFFFF0000000000000000000000000000000
310
0000000000000000000000000000000000000000000000000000000000000000
310
0000000000000000000000000000000000000000000000000000000000000000
310
0000000000000000000000000000000000000000000000000000000000000000
310
0000000000000000000000000000000000000000000000000000000000000000
310
0000000000000000000000000000000000000000000000000000000000000000
310
0000000000000000000000000000000000000000000000000000000000000000
310
0000000000000000000000000000000000000000000000000000000000000000
310
0000000000000000000000000000000000000000000000000000000000000000
310
0000000000000000000000000000000000000000000000000000000000000000
310
0000000000000000000000000000000000000000000000000000000000000000
310
0000000000000000000000000000000000000000000000000000000000000000
310
0000000000000000000000000000000000000000000000000000000000000000
310
0000000000000000000000000000000000000000000000000000000000000000
310
0000000000000000000000000000000000000000000000000000000000000000
310
0000000000000000000000000000000000000000000000000000000000000000
  1
OLE
  0
ENDSEC
  0
SECTION
  2
OBJECTS
  0
DICTIONARY
  5
C
330
0
100
AcDbDictionary
281
     1
  3
ACAD_GROUP
350
D
  3
ACAD_LAYOUT
350
1A
  3
ACAD_MLINESTYLE
350
17
  3
ACAD_PLOTSETTINGS
350
19
  3
ACAD_PLOTSTYLENAME
350
E
  3
ACAD_SCALELIST
350
47
  0
DICTIONARY
  5
D
102
{ACAD_REACTORS
330
C
102
}
330
C
100
AcDbDictionary
281
     1
  0
DICTIONARY
  5
1A
102
{ACAD_REACTORS
330
C
102
}
330
C
100
AcDbDictionary
281
     1
  3
Layout1
350
1E
  3
Layout2
350
26
  3
Model
350
22
  0
DICTIONARY
  5
17
102
{ACAD_REACTORS
330
C
102
}
330
C
100
AcDbDictionary
281
     1
  3
Standard
350
18
  0
DICTIONARY
  5
19
102
{ACAD_REACTORS
330
C
102
}
330
C
100
AcDbDictionary
281
     1
  0
ACDBDICTIONARYWDFLT
  5
E
102
{ACAD_REACTORS
330
C
102
}
330
C
100
AcDbDictionary
281
     1
  3
Normal
350
F
100
AcDbDictionaryWithDefault
340
F
  0
DICTIONARY
  5
47
102
{ACAD_REACTORS
330
C
102
}
330
C
100
AcDbDictionary
281
     1
  3
A0
350
48
  3
A1
350
49
  3
A2
350
4A
  3
A3
350
4B
  3
A4
350
4C
  3
A5
350
4D
  3
A6
350
4E
  3
A7
350
4F
  3
A8
350
50
  3
A9
350
51
  3
B0
350
52
  3
B1
350
53
  3
B2
350
54
  3
B3
350
55
  3
B4
350
56
  3
B5
350
57
  3
B6
350
58
  3
B7
350
59
  3
B8
350
5A
  3
B9
350
5B
  3
C0
350
5C
  3
C1
350
5D
  3
C2
350
5E
  3
C3
350
5F
  3
C4
350
60
  3
C5
350
61
  3
C6
350
62
  3
C7
350
63
  3
C8
350
64
  3
C9
350
65
  3
D0
350
66
  3
D1
350
67
  3
D2
350
68
  0
LAYOUT
  5
1E
102
{ACAD_REACTORS
330
1A
102
}
330
1A
100
AcDbPlotSettings
  1

  2
none_device
  4

  6

 40
0.0
 41
0.0
 42
0.0
 43
0.0
 44
0.0
 45
0.0
 46
0.0
 47
0.0
 48
0.0
 49
0.0
140
0.0
141
0.0
142
1.0
143
1.0
 70
   688
 72
     1
 73
     0
 74
     5
  7

 75
    16
147
1.0
148
0.0
149
0.0
100
AcDbLayout
  1
Layout1
 70
     1
 71
     1
 10
0.0
 20
0.0
 11
420.0
 21
297.0
 12
0.0
 22
0.0
 32
0.0
 14
1.0000000000E+20
 24
1.0000000000E+20
 34
1.0000000000E+20
 15
-1.0000000000E+20
 25
-1.0000000000E+20
 35
-1.0000000000E+20
146
0.0
 13
0.0
 23
0.0
 33
0.0
 16
1.0
 26
0.0
 36
0.0
 17
0.0
 27
1.0
 37
0.0
 76
     0
330
1B
  0
LAYOUT
  5
26
102
{ACAD_REACTORS
330
1A
102
}
330
1A
100
AcDbPlotSettings
  1

  2
none_device
  4

  6

 40
0.0
 41
0.0
 42
0.0
 43
0.0
 44
0.0
 45
0.0
 46
0.0
 47
0.0
 48
0.0
 49
0.0
140
0.0
141
0.0
142
1.0
143
1.0
 70
   688
 72
     1
 73
     0
 74
     5
  7

 75
    16
147
1.0
148
0.0
149
0.0
100
AcDbLayout
  1
Layout2
 70
     1
 71
     2
 10
0.0
 20
0.0
 11
0.0
 21
0.0
 12
0.0
 22
0.0
 32
0.0
 14
0.0
 24
0.0
 34
0.0
 15
0.0
 25
0.0
 35
0.0
146
0.0
 13
0.0
 23
0.0
 33
0.0
 16
1.0
 26
0.0
 36
0.0
 17
0.0
 27
1.0
 37
0.0
 76
     0
330
23
  0
LAYOUT
  5
22
102
{ACAD_REACTORS
330
1A
102
}
330
1A
100
AcDbPlotSettings
  1

  2
none_device
  4
Letter_(8.50_x_11.00_Inches)
  6

 40
6.35
 41
6.35
 42
6.35000508
 43
6.35000508
 44
215.9
 45
279.4
 46
0.0
 47
0.0
 48
0.0
 49
0.0
140
0.0
141
0.0
142
1.0
143
1.0
 70
  1712
 72
     1
 73
     0
 74
     0
  7

 75
     0
147
1.0
148
0.0
149
0.0
100
AcDbLayout
  1
Model
 70
     1
 71
     0
 10
0.0
 20
0.0
 11
297.0
 21
210.0
 12
0.0
 22
0.0
 32
0.0
 14
0.0
 24
0.0
 34
0.0
 15
297.0
 25
210.0
 35
0.0
146
0.0
 13
0.0
 23
0.0
 33
0.0
 16
1.0
 26
0.0
 36
0.0
 17
0.0
 27
1.0
 37
0.0
 76
     0
330
1F
331
29
  0
MLINESTYLE
  5
18
102
{ACAD_REACTORS
330
17
102
}
330
17
100
AcDbMlineStyle
  2
Standard
 70
     0
  3

 62
   256
 51
90.0
 52
90.0
 71
     2
 49
0.5
 62
   256
  6
BYLAYER
 49
-0.5
 62
   256
  6
BYLAYER
  0
ACDBPLACEHOLDER
  5
F
102
{ACAD_REACTORS
330
E
102
}
330
E
  0
SCALE
  5
48
102
{ACAD_REACTORS
330
47
102
}
330
47
100
AcDbScale
 70
     0
300
1:1
140
1.0
141
1.0
290
     1
  0
SCALE
  5
49
102
{ACAD_REACTORS
330
47
102
}
330
47
100
AcDbScale
 70
     0
300
1:2
140
1.0
141
2.0
290
     0
  0
SCALE
  5
4A
102
{ACAD_REACTORS
330
47
102
}
330
47
100
AcDbScale
 70
     0
300
1:4
140
1.0
141
4.0
290
     0
  0
SCALE
  5
4B
102
{ACAD_REACTORS
330
47
102
}
330
47
100
AcDbScale
 70
     0
300
1:5
140
1.0
141
5.0
290
     0
  0
SCALE
  5
4C
102
{ACAD_REACTORS
330
47
102
}
330
47
100
AcDbScale
 70
     0
300
1:8
140
1.0
141
8.0
290
     0
  0
SCALE
  5
4D
102
{ACAD_REACTORS
330
47
102
}
330
47
100
AcDbScale
 70
     0
300
1:10
140
1.0
141
10.0
290
     0
  0
SCALE
  5
4E
102
{ACAD_REACTORS
330
47
102
}
330
47
100
AcDbScale
 70
     0
300
1:16
140
1.0
141
16.0
290
     0
  0
SCALE
  5
4F
102
{ACAD_REACTORS
330
47
102
}
330
47
100
AcDbScale
 70
     0
300
1:20
140
1.0
141
20.0
290
     0
  0
SCALE
  5
50
102
{ACAD_REACTORS
330
47
102
}
330
47
100
AcDbScale
 70
     0
300
1:30
140
1.0
141
30.0
290
     0
  0
SCALE
  5
51
102
{ACAD_REACTORS
330
47
102
}
330
47
100
AcDbScale
 70
     0
300
1:40
140
1.0
141
40.0
290
     0
  0
SCALE
  5
52
102
{ACAD_REACTORS
330
47
102
}
330
47
100
AcDbScale
 70
     0
300
1:50
140
1.0
141
50.0
290
     0
  0
SCALE
  5
53
102
{ACAD_REACTORS
330
47
102
}
330
47
100
AcDbScale
 70
     0
300
1:100
140
1.0
141
100.0
290
     0
  0
SCALE
  5
54
102
{ACAD_REACTORS
330
47
102
}
330
47
100
AcDbScale
 70
     0
300
2:1
140
2.0
141
1.0
290
     0
  0
SCALE
  5
55
102
{ACAD_REACTORS
330
47
102
}
330
47
100
AcDbScale
 70
     0
300
4:1
140
4.0
141
1.0
290
     0
  0
SCALE
  5
56
102
{ACAD_REACTORS
330
47
102
}
330
47
100
AcDbScale
 70
     0
300
8:1
140
8.0
141
1.0
290
     0
  0
SCALE
  5
57
102
{ACAD_REACTORS
330
47
102
}
330
47
100
AcDbScale
 70
     0
300
10:1
140
10.0
141
1.0
290
     0
  0
SCALE
  5
58
102
{ACAD_REACTORS
330
47
102
}
330
47
100
AcDbScale
 70
     0
300
100:1
140
100.0
141
1.0
290
     0
  0
SCALE
  5
59
102
{ACAD_REACTORS
330
47
102
}
330
47
100
AcDbScale
 70
     0
300
1/128" = 1'-0"
140
0.0078125
141
12.0
290
     0
  0
SCALE
  5
5A
102
{ACAD_REACTORS
330
47
102
}
330
47
100
AcDbScale
 70
     0
300
1/64" = 1'-0"
140
0.015625
141
12.0
290
     0
  0
SCALE
  5
5B
102
{ACAD_REACTORS
330
47
102
}
330
47
100
AcDbScale
 70
     0
300
1/32" = 1'-0"
140
0.03125
141
12.0
290
     0
  0
SCALE
  5
5C
102
{ACAD_REACTORS
330
47
102
}
330
47
100
AcDbScale
 70
     0
300
1/16" = 1'-0"
140
0.0625
141
12.0
290
     0
  0
SCALE
  5
5D
102
{ACAD_REACTORS
330
47
102
}
330
47
100
AcDbScale
 70
     0
300
3/32" = 1'-0"
140
0.09375
141
12.0
290
     0
  0
SCALE
  5
5E
102
{ACAD_REACTORS
330
47
102
}
330
47
100
AcDbScale
 70
     0
300
1/8" = 1'-0"
140
0.125
141
12.0
290
     0
  0
SCALE
  5
5F
102
{ACAD_REACTORS
330
47
102
}
330
47
100
AcDbScale
 70
     0
300
3/16" = 1'-0"
140
0.1875
141
12.0
290
     0
  0
SCALE
  5
60
102
{ACAD_REACTORS
330
47
102
}
330
47
100
AcDbScale
 70
     0
300
1/4" = 1'-0"
140
0.25
141
12.0
290
     0
  0
SCALE
  5
61
102
{ACAD_REACTORS
330
47
102
}
330
47
100
AcDbScale
 70
     0
300
3/8" = 1'-0"
140
0.375
141
12.0
290
     0
  0
SCALE
  5
62
102
{ACAD_REACTORS
330
47
102
}
330
47
100
AcDbScale
 70
     0
300
1/2" = 1'-0"
140
0.5
141
12.0
290
     0
  0
SCALE
  5
63
102
{ACAD_REACTORS
330
47
102
}
330
47
100
AcDbScale
 70
     0
300
3/4" = 1'-0"
140
0.75
141
12.0
290
     0
  0
SCALE
  5
64
102
{ACAD_REACTORS
330
47
102
}
330
47
100
AcDbScale
 70
     0
300
1" = 1'-0"
140
1.0
141
12.0
290
     0
  0
SCALE
  5
65
102
{ACAD_REACTORS
330
47
102
}
330
47
100
AcDbScale
 70
     0
300
1-1/2" = 1'-0"
140
1.5
141
12.0
290
     0
  0
SCALE
  5
66
102
{ACAD_REACTORS
330
47
102
}
330
47
100
AcDbScale
 70
     0
300
3" = 1'-0"
140
3.0
141
12.0
290
     0
  0
SCALE
  5
67
102
{ACAD_REACTORS
330
47
102
}
330
47
100
AcDbScale
 70
     0
300
6" = 1'-0"
140
6.0
141
12.0
290
     0
  0
SCALE
  5
68
102
{ACAD_REACTORS
330
47
102
}
330
47
100
AcDbScale
 70
     0
300
1'-0" = 1'-0"
140
12.0
141
12.0
290
     0
  0
ENDSEC
  0
EOF
