  0
SECTION
  2
HEADER
  9
$ACADVER
  1
AC1015
  9
$ACADMAINTVER
 70
     6
  9
$DWGCODEPAGE
  3
ANSI_1252
  9
$INSBASE
 10
0.0
 20
0.0
 30
0.0
  9
$EXTMIN
 10
0.0
 20
0.0
 30
0.0
  9
$EXTMAX
 10
297.0
 20
210.0
 30
0.0
  9
$LIMMIN
 10
0.0
 20
0.0
  9
$LIMMAX
 10
297.0
 20
210.0
  9
$ORTHOMODE
 70
     0
  9
$REGENMODE
 70
     1
  9
$FILLMODE
 70
     1
  9
$QTEXTMODE
 70
     0
  9
$MIRRTEXT
 70
     1
  9
$LTSCALE
 40
1.0
  9
$ATTMODE
 70
     1
  9
$TEXTSIZE
 40
2.0
  9
$TRACEWID
 40
1.0
  9
$TEXTSTYLE
  7
Standard
  9
$CLAYER
  8
0
  9
$CELTYPE
  6
ByLayer
  9
$CECOLOR
 62
   256
  9
$CELTSCALE
 40
1.0
  9
$DISPSILH
 70
     0
  9
$DIMSCALE
 40
1.0
  9
$DIMASZ
 40
3.0
  9
$DIMEXO
 40
0.0
  9
$DIMDLI
 40
3.75
  9
$DIMRND
 40
0.0
  9
$DIMDLE
 40
0.0
  9
$DIMEXE
 40
1.0
  9
$DIMTP
 40
0.0
  9
$DIMTM
 40
0.0
  9
$DIMTXT
 40
2.0
  9
$DIMCEN
 40
2.5
  9
$DIMTSZ
 40
0.0
  9
$DIMTOL
 70
     0
  9
$DIMLIM
 70
     0
  9
$DIMTIH
 70
     1
  9
$DIMTOH
 70
     1
  9
$DIMSE1
 70
     0
  9
$DIMSE2
 70
     0
  9
$DIMTAD
 70
     1
  9
$DIMZIN
 70
     0
  9
$DIMBLK
  1

  9
$DIMASO
 70
     1
  9
$DIMSHO
 70
     1
  9
$DIMPOST
  1

  9
$DIMAPOST
  1

  9
$DIMALT
 70
     0
  9
$DIMALTD
 70
     3
  9
$DIMALTF
 40
0.0393700787
  9
$DIMLFAC
 40
1.0
  9
$DIMTOFL
 70
     1
  9
$DIMTVP
 40
0.0
  9
$DIMTIX
 70
     0
  9
$DIMSOXD
 70
     0
  9
$DIMSAH
 70
     0
  9
$DIMBLK1
  1

  9
$DIMBLK2
  1

  9
$DIMSTYLE
  2
ISO-25
  9
$DIMCLRD
 70
     0
  9
$DIMCLRE
 70
     0
  9
$DIMCLRT
 70
     0
  9
$DIMTFAC
 40
1.0
  9
$DIMGAP
 40
1.524
  9
$DIMJUST
 70
     0
  9
$DIMSD1
 70
     0
  9
$DIMSD2
 70
     0
  9
$DIMTOLJ
 70
     0
  9
$DIMTZIN
 70
     0
  9
$DIMALTZ
 70
     0
  9
$DIMALTTZ
 70
     0
  9
$DIMUPT
 70
     0
  9
$DIMDEC
 70
     2
  9
$DIMTDEC
 70
     3
  9
$DIMALTU
 70
     2
  9
$DIMALTTD
 70
     3
  9
$DIMTXSTY
  7
Standard
  9
$DIMAUNIT
 70
     0
  9
$DIMADEC
 70
     2
  9
$DIMALTRND
 40
0.0
  9
$DIMAZIN
 70
     0
  9
$DIMDSEP
 70
    44
  9
$DIMATFIT
 70
     3
  9
$DIMFRAC
 70
     0
  9
$DIMLDRBLK
  1

  9
$DIMLUNIT
 70
     2
  9
$DIMLWD
 70
    -2
  9
$DIMLWE
 70
    -2
  9
$DIMTMOVE
 70
     0
  9
$LUNITS
 70
     2
  9
$LUPREC
 70
     2
  9
$SKETCHINC
 40
1.0
  9
$FILLETRAD
 40
10.0
  9
$AUNITS
 70
     0
  9
$AUPREC
 70
     2
  9
$MENU
  1
.
  9
$ELEVATION
 40
0.0
  9
$PELEVATION
 40
0.0
  9
$THICKNESS
 40
0.0
  9
$LIMCHECK
 70
     0
  9
$CHAMFERA
 40
0.0
  9
$CHAMFERB
 40
0.0
  9
$CHAMFERC
 40
0.0
  9
$CHAMFERD
 40
0.0
  9
$SKPOLY
 70
     0
  9
$TDCREATE
 40
2457632.659337894
  9
$TDUCREATE
 40
2457632.57600456
  9
$TDUPDATE
 40
2457632.659340289
  9
$TDUUPDATE
 40
2457632.576006956
  9
$TDINDWG
 40
0.0000000116
  9
$TDUSRTIMER
 40
0.0000000116
  9
$USRTIMER
 70
     1
  9
$ANGBASE
 50
0.0
  9
$ANGDIR
 70
     0
  9
$PDMODE
 70
     0
  9
$PDSIZE
 40
-1.0
  9
$PLINEWID
 40
0.0
  9
$SPLFRAME
 70
     0
  9
$SPLINETYPE
 70
     6
  9
$SPLINESEGS
 70
     8
  9
$HANDSEED
  5
28B
  9
$SURFTAB1
 70
     6
  9
$SURFTAB2
 70
     6
  9
$SURFTYPE
 70
     6
  9
$SURFU
 70
     6
  9
$SURFV
 70
     6
  9
$UCSBASE
  2

  9
$UCSNAME
  2

  9
$UCSORG
 10
0.0
 20
0.0
 30
0.0
  9
$UCSXDIR
 10
1.0
 20
0.0
 30
0.0
  9
$UCSYDIR
 10
0.0
 20
1.0
 30
0.0
  9
$UCSORTHOREF
  2

  9
$UCSORTHOVIEW
 70
     0
  9
$UCSORGTOP
 10
0.0
 20
0.0
 30
0.0
  9
$UCSORGBOTTOM
 10
0.0
 20
0.0
 30
0.0
  9
$UCSORGLEFT
 10
0.0
 20
0.0
 30
0.0
  9
$UCSORGRIGHT
 10
0.0
 20
0.0
 30
0.0
  9
$UCSORGFRONT
 10
0.0
 20
0.0
 30
0.0
  9
$UCSORGBACK
 10
0.0
 20
0.0
 30
0.0
  9
$PUCSBASE
  2

  9
$PUCSNAME
  2

  9
$PUCSORG
 10
0.0
 20
0.0
 30
0.0
  9
$PUCSXDIR
 10
1.0
 20
0.0
 30
0.0
  9
$PUCSYDIR
 10
0.0
 20
1.0
 30
0.0
  9
$PUCSORTHOREF
  2

  9
$PUCSORTHOVIEW
 70
     0
  9
$PUCSORGTOP
 10
0.0
 20
0.0
 30
0.0
  9
$PUCSORGBOTTOM
 10
0.0
 20
0.0
 30
0.0
  9
$PUCSORGLEFT
 10
0.0
 20
0.0
 30
0.0
  9
$PUCSORGRIGHT
 10
0.0
 20
0.0
 30
0.0
  9
$PUCSORGFRONT
 10
0.0
 20
0.0
 30
0.0
  9
$PUCSORGBACK
 10
0.0
 20
0.0
 30
0.0
  9
$USERI1
 70
     0
  9
$USERI2
 70
     0
  9
$USERI3
 70
     0
  9
$USERI4
 70
     0
  9
$USERI5
 70
     0
  9
$USERR1
 40
0.0
  9
$USERR2
 40
0.0
  9
$USERR3
 40
0.0
  9
$USERR4
 40
0.0
  9
$USERR5
 40
0.0
  9
$WORLDVIEW
 70
     1
  9
$SHADEDGE
 70
     3
  9
$SHADEDIF
 70
    70
  9
$TILEMODE
 70
     1
  9
$MAXACTVP
 70
    64
  9
$PINSBASE
 10
0.0
 20
0.0
 30
0.0
  9
$PLIMCHECK
 70
     0
  9
$PEXTMIN
 10
1.0000000000E+20
 20
1.0000000000E+20
 30
1.0000000000E+20
  9
$PEXTMAX
 10
-1.0000000000E+20
 20
-1.0000000000E+20
 30
-1.0000000000E+20
  9
$PLIMMIN
 10
0.0
 20
0.0
  9
$PLIMMAX
 10
420.0
 20
297.0
  9
$UNITMODE
 70
     0
  9
$VISRETAIN
 70
     1
  9
$PLINEGEN
 70
     0
  9
$PSLTSCALE
 70
     1
  9
$TREEDEPTH
 70
  3020
  9
$CMLSTYLE
  2
Standard
  9
$CMLJUST
 70
     0
  9
$CMLSCALE
 40
20.0
  9
$PROXYGRAPHICS
 70
     1
  9
$MEASUREMENT
 70
     1
  9
$CELWEIGHT
370
    -1
  9
$ENDCAPS
280
     0
  9
$JOINSTYLE
280
     0
  9
$LWDISPLAY
290
     1
  9
$INSUNITS
 70
     4
  9
$HYPERLINKBASE
  1

  9
$STYLESHEET
  1

  9
$XEDIT
290
     1
  9
$CEPSNTYPE
380
     0
  9
$PSTYLEMODE
290
     1
  9
$FINGERPRINTGUID
  2
{CA40EDFB-9B9C-472B-84C6-9166A9CC4C0E}
  9
$VERSIONGUID
  2
{FAEB1C32-E019-11D5-929B-00C0DF256EC4}
  9
$EXTNAMES
290
     1
  9
$PSVPSCALE
 40
0.0
  9
$OLESTARTUP
290
     0
  0
ENDSEC
  0
SECTION
  2
CLASSES
  0
CLASS
  1
ACDBDICTIONARYWDFLT
  2
AcDbDictionaryWithDefault
  3
ObjectDBX Classes
 90
        0
280
     0
281
     0
  0
CLASS
  1
VISUALSTYLE
  2
AcDbVisualStyle
  3
ObjectDBX Classes
 90
     4095
280
     0
281
     0
  0
CLASS
  1
MATERIAL
  2
AcDbMaterial
  3
ObjectDBX Classes
 90
     1153
280
     0
281
     0
  0
CLASS
  1
SCALE
  2
AcDbScale
  3
ObjectDBX Classes
 90
     1153
280
     0
281
     0
  0
CLASS
  1
TABLESTYLE
  2
AcDbTableStyle
  3
ObjectDBX Classes
 90
     4095
280
     0
281
     0
  0
CLASS
  1
MLEADERSTYLE
  2
AcDbMLeaderStyle
  3
ACDB_MLEADERSTYLE_CLASS
 90
     4095
280
     0
281
     0
  0
CLASS
  1
SUN
  2
AcDbSun
  3
SCENEOE
 90
     1153
280
     0
281
     0
  0
CLASS
  1
ACDBPLACEHOLDER
  2
AcDbPlaceHolder
  3
ObjectDBX Classes
 90
        0
280
     0
281
     0
  0
CLASS
  1
LAYOUT
  2
AcDbLayout
  3
ObjectDBX Classes
 90
        0
280
     0
281
     0
  0
ENDSEC
  0
SECTION
  2
TABLES
  0
TABLE
  2
VPORT
  5
8
330
0
100
AcDbSymbolTable
 70
     1
  0
VPORT
  5
29
330
8
100
AcDbSymbolTableRecord
100
AcDbViewportTableRecord
  2
*Active
 70
     0
 10
0.0
 20
0.0
 11
1.0
 21
1.0
 12
148.5
 22
105.0
 13
0.0
 23
0.0
 14
10.0
 24
10.0
 15
10.0
 25
10.0
 16
0.0
 26
0.0
 36
1.0
 17
0.0
 27
0.0
 37
0.0
 40
210.0
 41
1.4142857143
 42
50.0
 43
0.0
 44
0.0
 50
0.0
 51
0.0
 71
     0
 72
  2000
 73
     1
 74
     3
 75
     0
 76
     0
 77
     0
 78
     0
281
     0
 65
     1
110
0.0
120
0.0
130
0.0
111
1.0
121
0.0
131
0.0
112
0.0
122
1.0
132
0.0
 79
     0
146
0.0
  0
ENDTAB
  0
TABLE
  2
LTYPE
  5
5
330
0
100
AcDbSymbolTable
 70
     6
  0
LTYPE
  5
14
330
5
100
AcDbSymbolTableRecord
100
AcDbLinetypeTableRecord
  2
ByBlock
 70
     0
  3

 72
    65
 73
     0
 40
0.0
  0
LTYPE
  5
15
330
5
100
AcDbSymbolTableRecord
100
AcDbLinetypeTableRecord
  2
ByLayer
 70
     0
  3

 72
    65
 73
     0
 40
0.0
  0
LTYPE
  5
16
330
5
100
AcDbSymbolTableRecord
100
AcDbLinetypeTableRecord
  2
Continuous
 70
     0
  3
Solid line
 72
    65
 73
     0
 40
0.0
  0
LTYPE
  5
6E
330
5
100
AcDbSymbolTableRecord
100
AcDbLinetypeTableRecord
  2
HIDDEN
 70
     0
  3
Hidden __ __ __ __ __ __ __ __ __ __ __ __ __ __
 72
    65
 73
     2
 40
1.905
 49
1.27
 74
     0
 49
-0.635
 74
     0
  0
LTYPE
  5
6F
330
5
100
AcDbSymbolTableRecord
100
AcDbLinetypeTableRecord
  2
PHANTOM
 70
     0
  3
Phantom ______  __  __  ______  __  __  ______
 72
    65
 73
     6
 40
12.7
 49
6.35
 74
     0
 49
-1.27
 74
     0
 49
1.27
 74
     0
 49
-1.27
 74
     0
 49
1.27
 74
     0
 49
-1.27
 74
     0
  0
LTYPE
  5
70
330
5
100
AcDbSymbolTableRecord
100
AcDbLinetypeTableRecord
  2
CENTER
 70
     0
  3
Center ____ _ ____ _ ____ _ ____ _ ____ _ ____
 72
    65
 73
     4
 40
10.16
 49
6.35
 74
     0
 49
-1.27
 74
     0
 49
1.27
 74
     0
 49
-1.27
 74
     0
  0
LTYPE
  5
71
330
5
100
AcDbSymbolTableRecord
100
AcDbLinetypeTableRecord
  2
CENTERX2
 70
     0
  3
Center (2x) ________  __  ________  __  _____
 72
    65
 73
     4
 40
20.32
 49
12.7
 74
     0
 49
-2.54
 74
     0
 49
2.54
 74
     0
 49
-2.54
 74
     0
  0
LTYPE
  5
72
330
5
100
AcDbSymbolTableRecord
100
AcDbLinetypeTableRecord
  2
DOT2
 70
     0
  3
Dot (.5x) ........................................
 72
    65
 73
     2
 40
0.635
 49
0.0
 74
     0
 49
-0.635
 74
     0
  0
ENDTAB
  0
TABLE
  2
LAYER
  5
2
330
0
100
AcDbSymbolTable
 70
     5
  0
LAYER
  5
10
330
2
100
AcDbSymbolTableRecord
100
AcDbLayerTableRecord
  2
0
 70
     0
 62
     7
  6
Continuous
370
    -3
390
F
  0
LAYER
  5
73
330
2
100
AcDbSymbolTableRecord
100
AcDbLayerTableRecord
  2
FORMAT
 70
     0
 62
     7
  6
Continuous
370
    -3
390
F
  0
LAYER
  5
74
330
2
100
AcDbSymbolTableRecord
100
AcDbLayerTableRecord
  2
VERMASSUNG
 70
     0
 62
     7
  6
Continuous
370
    -3
390
F
  0
LAYER
  5
75
330
2
100
AcDbSymbolTableRecord
100
AcDbLayerTableRecord
  2
KOPF_DÜNN
 70
     0
 62
     7
  6
Continuous
370
    -3
390
F
  0
LAYER
  5
76
330
2
100
AcDbSymbolTableRecord
100
AcDbLayerTableRecord
  2
KOPF_DICK
 70
     0
 62
     7
  6
Continuous
370
    15
390
F
  0
ENDTAB
  0
TABLE
  2
STYLE
  5
3
330
0
100
AcDbSymbolTable
 70
     2
  0
STYLE
  5
11
330
3
100
AcDbSymbolTableRecord
100
AcDbTextStyleTableRecord
  2
Standard
 70
     0
 40
0.0
 41
1.0
 50
0.0
 71
     0
 42
2.0
  3
txt
  4

  0
STYLE
  5
77
330
3
100
AcDbSymbolTableRecord
100
AcDbTextStyleTableRecord
  2
SLDTEXTSTYLE0
 70
     0
 40
0.0
 41
0.7
 50
0.0
 71
     0
 42
2.0
  3
TXT
  4

  0
ENDTAB
  0
TABLE
  2
VIEW
  5
6
330
0
100
AcDbSymbolTable
 70
     0
  0
ENDTAB
  0
TABLE
  2
UCS
  5
7
330
0
100
AcDbSymbolTable
 70
     0
  0
ENDTAB
  0
TABLE
  2
APPID
  5
9
330
0
100
AcDbSymbolTable
 70
     1
  0
APPID
  5
12
330
9
100
AcDbSymbolTableRecord
100
AcDbRegAppTableRecord
  2
ACAD
 70
     0
  0
ENDTAB
  0
TABLE
  2
DIMSTYLE
  5
A
330
0
100
AcDbSymbolTable
 70
     3
100
AcDbDimStyleTable
  0
DIMSTYLE
105
27
330
A
100
AcDbSymbolTableRecord
100
AcDbDimStyleTableRecord
  2
ISO-25
 70
     0
 41
2.5
 42
0.625
 43
3.75
 44
1.25
 73
     0
 74
     0
 77
     1
 78
     8
140
2.5
141
2.5
143
0.0393700787
147
0.625
171
     3
172
     1
178
     0
271
     2
272
     2
274
     3
278
    44
283
     0
284
     8
340
11
  0
DIMSTYLE
105
191
102
{ACAD_REACTORS
330
190
330
19D
330
1A7
330
1B1
330
1BB
102
}
330
A
100
AcDbSymbolTableRecord
100
AcDbDimStyleTableRecord
  2
SLDDIMSTYLE0
 70
     0
 41
3.0
 44
0.0
 45
0.000000001
 73
     0
 74
     0
 77
     1
 78
    12
 79
     3
140
2.0
147
0.5
173
     1
178
     0
271
     2
272
     3
276
     2
284
    12
340
77
  0
DIMSTYLE
105
1CD
330
A
100
AcDbSymbolTableRecord
100
AcDbDimStyleTableRecord
  2
SLDDIMSTYLE1
 70
     0
 41
0.9
 44
0.0
 45
0.000000001
146
0.9
147
0.0
173
     1
178
     0
271
     0
272
     0
276
     2
340
11
341
1CE
343
1CE
344
1CE
  0
ENDTAB
  0
TABLE
  2
BLOCK_RECORD
  5
1
330
0
100
AcDbSymbolTable
 70
    10
  0
BLOCK_RECORD
  5
1F
330
1
100
AcDbSymbolTableRecord
100
AcDbBlockTableRecord
  2
*Model_Space
340
22
  0
BLOCK_RECORD
  5
1B
330
1
100
AcDbSymbolTableRecord
100
AcDbBlockTableRecord
  2
*Paper_Space
340
1E
  0
BLOCK_RECORD
  5
23
330
1
100
AcDbSymbolTableRecord
100
AcDbBlockTableRecord
  2
*Paper_Space0
340
26
  0
BLOCK_RECORD
  5
7D
330
1
100
AcDbSymbolTableRecord
100
AcDbBlockTableRecord
  2
SW_TABLEANNOTATION_0
340
0
102
{BLKREFS
331
98
102
}
  0
BLOCK_RECORD
  5
192
330
1
100
AcDbSymbolTableRecord
100
AcDbBlockTableRecord
  2
_D
340
0
  0
BLOCK_RECORD
  5
19E
330
1
100
AcDbSymbolTableRecord
100
AcDbBlockTableRecord
  2
_D_1
340
0
  0
BLOCK_RECORD
  5
1A8
330
1
100
AcDbSymbolTableRecord
100
AcDbBlockTableRecord
  2
_D_2
340
0
  0
BLOCK_RECORD
  5
1B2
330
1
100
AcDbSymbolTableRecord
100
AcDbBlockTableRecord
  2
_D_3
340
0
  0
BLOCK_RECORD
  5
1BC
330
1
100
AcDbSymbolTableRecord
100
AcDbBlockTableRecord
  2
_D_4
340
0
  0
BLOCK_RECORD
  5
1C7
330
1
100
AcDbSymbolTableRecord
100
AcDbBlockTableRecord
  2
SW_NOTE_0
340
0
102
{BLKREFS
331
1CC
102
}
  0
BLOCK_RECORD
  5
1CE
330
1
100
AcDbSymbolTableRecord
100
AcDbBlockTableRecord
  2
_DOT
340
0
  0
BLOCK_RECORD
  5
1D7
330
1
100
AcDbSymbolTableRecord
100
AcDbBlockTableRecord
  2
SW_NOTE_1
340
0
102
{BLKREFS
331
1DC
102
}
  0
ENDTAB
  0
ENDSEC
  0
SECTION
  2
BLOCKS
  0
BLOCK
  5
20
330
1F
100
AcDbEntity
  8
0
100
AcDbBlockBegin
  2
*Model_Space
 70
     0
 10
0.0
 20
0.0
 30
0.0
  3
*Model_Space
  1

  0
ENDBLK
  5
21
330
1F
100
AcDbEntity
  8
0
100
AcDbBlockEnd
  0
BLOCK
  5
1C
330
1B
100
AcDbEntity
 67
     1
  8
0
100
AcDbBlockBegin
  2
*Paper_Space
 70
     0
 10
0.0
 20
0.0
 30
0.0
  3
*Paper_Space
  1

  0
ENDBLK
  5
1D
330
1B
100
AcDbEntity
 67
     1
  8
0
100
AcDbBlockEnd
  0
BLOCK
  5
24
330
23
100
AcDbEntity
  8
0
100
AcDbBlockBegin
  2
*Paper_Space0
 70
     0
 10
0.0
 20
0.0
 30
0.0
  3
*Paper_Space0
  1

  0
ENDBLK
  5
25
330
23
100
AcDbEntity
  8
0
100
AcDbBlockEnd
  0
BLOCK
  5
7E
330
7D
100
AcDbEntity
  8
0
100
AcDbBlockBegin
  2
SW_TABLEANNOTATION_0
 70
     0
 10
0.0
 20
0.0
 30
0.0
  3
SW_TABLEANNOTATION_0
  1

  0
LINE
  5
80
330
7D
100
AcDbEntity
  8
0
  6
Continuous
 62
     0
370
     0
100
AcDbLine
 10
0.0
 20
0.0
 30
0.0
 11
0.0
 21
-10.9613963039
 31
0.0
  0
LINE
  5
81
330
7D
100
AcDbEntity
  8
0
  6
Continuous
 62
     0
370
     0
100
AcDbLine
 10
0.0
 20
-10.9613963039
 30
0.0
 11
125.0044361962
 21
-10.9613963039
 31
0.0
  0
LINE
  5
82
330
7D
100
AcDbEntity
  8
0
  6
Continuous
 62
     0
370
     0
100
AcDbLine
 10
125.0044361962
 20
-10.9613963039
 30
0.0
 11
125.0044361962
 21
0.0
 31
0.0
  0
LINE
  5
83
330
7D
100
AcDbEntity
  8
0
  6
Continuous
 62
     0
370
     0
100
AcDbLine
 10
125.0044361962
 20
0.0
 30
0.0
 11
0.0
 21
0.0
 31
0.0
  0
LINE
  5
84
330
7D
100
AcDbEntity
  8
0
  6
Continuous
 62
     0
370
     0
100
AcDbLine
 10
15.9651052694
 20
-7.3075975359
 30
0.0
 11
15.9651052694
 21
-10.9613963039
 31
0.0
  0
LINE
  5
85
330
7D
100
AcDbEntity
  8
0
  6
Continuous
 62
     0
370
     0
100
AcDbLine
 10
34.1012448998
 20
-7.3075975359
 30
0.0
 11
34.1012448998
 21
-10.9613963039
 31
0.0
  0
LINE
  5
86
330
7D
100
AcDbEntity
  8
0
  6
Continuous
 62
     0
370
     0
100
AcDbLine
 10
92.6586456418
 20
-7.3075975359
 30
0.0
 11
92.6586456418
 21
-10.9613963039
 31
0.0
  0
LINE
  5
87
330
7D
100
AcDbEntity
  8
0
  6
Continuous
 62
     0
370
     0
100
AcDbLine
 10
15.9651052694
 20
0.0
 30
0.0
 11
15.9651052694
 21
-7.3075975359
 31
0.0
  0
LINE
  5
88
330
7D
100
AcDbEntity
  8
0
  6
Continuous
 62
     0
370
     0
100
AcDbLine
 10
34.1012448998
 20
0.0
 30
0.0
 11
34.1012448998
 21
-7.3075975359
 31
0.0
  0
LINE
  5
89
330
7D
100
AcDbEntity
  8
0
  6
Continuous
 62
     0
370
     0
100
AcDbLine
 10
92.6586456418
 20
0.0
 30
0.0
 11
92.6586456418
 21
-7.3075975359
 31
0.0
  0
LINE
  5
8A
330
7D
100
AcDbEntity
  8
0
  6
Continuous
 62
     0
370
     0
100
AcDbLine
 10
0.0
 20
-3.653798768
 30
0.0
 11
125.0044361962
 21
-3.653798768
 31
0.0
  0
LINE
  5
8B
330
7D
100
AcDbEntity
  8
0
  6
Continuous
 62
     0
370
     0
100
AcDbLine
 10
0.0
 20
-7.3075975359
 30
0.0
 11
125.0044361962
 21
-7.3075975359
 31
0.0
  0
MTEXT
  5
8C
330
7D
100
AcDbEntity
  8
0
  6
Continuous
 62
     0
370
     0
100
AcDbMText
 10
5.2825527975
 20
-7.9563615651
 30
0.0
 40
2.0
 41
0.0
 71
     1
 72
     1
  1
POS.
  7
SLDTEXTSTYLE0
 73
     1
 44
1.0
  0
MTEXT
  5
8D
330
7D
100
AcDbEntity
  8
0
  6
Continuous
 62
     0
370
     0
100
AcDbMText
 10
21.1331751904
 20
-7.9563615651
 30
0.0
 40
2.0
 41
0.0
 71
     1
 72
     1
  1
MENGE
  7
SLDTEXTSTYLE0
 73
     1
 44
1.0
  0
MTEXT
  5
8E
330
7D
100
AcDbEntity
  8
0
  6
Continuous
 62
     0
370
     0
100
AcDbMText
 10
56.0799464956
 20
-7.9563615651
 30
0.0
 40
2.0
 41
0.0
 71
     1
 72
     1
  1
Bezeichnung
  7
SLDTEXTSTYLE0
 73
     1
 44
1.0
  0
MTEXT
  5
8F
330
7D
100
AcDbEntity
  8
0
  6
Continuous
 62
     0
370
     0
100
AcDbMText
 10
97.7315420798
 20
-7.9563615651
 30
0.0
 40
2.0
 41
0.0
 71
     1
 72
     1
  1
Zeichnungsnummer
  7
SLDTEXTSTYLE0
 73
     1
 44
1.0
  0
MTEXT
  5
90
330
7D
100
AcDbEntity
  8
0
  6
Continuous
 62
     0
370
     0
100
AcDbMText
 10
7.2825526596
 20
-0.9171773494
 30
0.0
 40
2.0
 41
0.0
 71
     1
 72
     1
  1
2
  7
SLDTEXTSTYLE0
 73
     1
 44
1.0
  0
MTEXT
  5
91
330
7D
100
AcDbEntity
  8
0
  6
Continuous
 62
     0
370
     0
100
AcDbMText
 10
24.5331750608
 20
-0.9171773494
 30
0.0
 40
2.0
 41
0.0
 71
     1
 72
     1
  1
1
  7
SLDTEXTSTYLE0
 73
     1
 44
1.0
  0
MTEXT
  5
92
330
7D
100
AcDbEntity
  8
0
  6
Continuous
 62
     0
370
     0
100
AcDbMText
 10
54.2799467594
 20
-0.9171773494
 30
0.0
 40
2.0
 41
0.0
 71
     1
 72
     1
  1
Klemmschraube
  7
SLDTEXTSTYLE0
 73
     1
 44
1.0
  0
MTEXT
  5
93
330
7D
100
AcDbEntity
  8
0
  6
Continuous
 62
     0
370
     0
100
AcDbMText
 10
99.3315412244
 20
-0.9171773494
 30
0.0
 40
2.0
 41
0.0
 71
     1
 72
     1
  1
MB5-ER1.001.017
  7
SLDTEXTSTYLE0
 73
     1
 44
1.0
  0
MTEXT
  5
94
330
7D
100
AcDbEntity
  8
0
  6
Continuous
 62
     0
370
     0
100
AcDbMText
 10
7.4825526109
 20
-4.5709761174
 30
0.0
 40
2.0
 41
0.0
 71
     1
 72
     1
  1
1
  7
SLDTEXTSTYLE0
 73
     1
 44
1.0
  0
MTEXT
  5
95
330
7D
100
AcDbEntity
  8
0
  6
Continuous
 62
     0
370
     0
100
AcDbMText
 10
24.5331750608
 20
-4.5709761174
 30
0.0
 40
2.0
 41
0.0
 71
     1
 72
     1
  1
1
  7
SLDTEXTSTYLE0
 73
     1
 44
1.0
  0
MTEXT
  5
96
330
7D
100
AcDbEntity
  8
0
  6
Continuous
 62
     0
370
     0
100
AcDbMText
 10
54.2799448967
 20
-4.5709761174
 30
0.0
 40
2.0
 41
0.0
 71
     1
 72
     1
  1
Aufnahme MBM
  7
SLDTEXTSTYLE0
 73
     1
 44
1.0
  0
MTEXT
  5
97
330
7D
100
AcDbEntity
  8
0
  6
Continuous
 62
     0
370
     0
100
AcDbMText
 10
98.6315414822
 20
-4.5709761174
 30
0.0
 40
2.0
 41
0.0
 71
     1
 72
     1
  1
HA6-MB5.K01.066
  7
SLDTEXTSTYLE0
 73
     1
 44
1.0
  0
ENDBLK
  5
7F
330
7D
100
AcDbEntity
  8
0
100
AcDbBlockEnd
  0
BLOCK
  5
193
330
192
100
AcDbEntity
  8
0
100
AcDbBlockBegin
  2
_D
 70
     0
 10
0.0
 20
0.0
 30
0.0
  3
_D
  1

  0
SOLID
  5
195
330
192
100
AcDbEntity
  8
VERMASSUNG
100
AcDbTrace
 10
96.7970984064
 20
144.5432599377
 30
0.0
 11
96.3470984064
 21
141.5432599377
 31
0.0
 12
97.2470984064
 22
141.5432599377
 32
0.0
 13
97.2470984064
 23
141.5432599377
 33
0.0
  0
SOLID
  5
196
330
192
100
AcDbEntity
  8
VERMASSUNG
100
AcDbTrace
 10
96.7970984064
 20
81.5432599377
 30
0.0
 11
97.2470984064
 21
84.5432599377
 31
0.0
 12
96.3470984064
 22
84.5432599377
 32
0.0
 13
96.3470984064
 23
84.5432599377
 33
0.0
  0
LINE
  5
197
330
192
100
AcDbEntity
  8
VERMASSUNG
100
AcDbLine
 10
134.5753790121
 20
144.5432599377
 30
0.0
 11
95.7970984064
 21
144.5432599377
 31
0.0
  0
LINE
  5
198
330
192
100
AcDbEntity
  8
VERMASSUNG
100
AcDbLine
 10
134.5753790121
 20
81.5432599377
 30
0.0
 11
95.7970984064
 21
81.5432599377
 31
0.0
  0
LINE
  5
199
330
192
100
AcDbEntity
  8
VERMASSUNG
100
AcDbLine
 10
96.7970984064
 20
144.5432599377
 30
0.0
 11
96.7970984064
 21
81.5432599377
 31
0.0
  0
MTEXT
  5
19A
330
192
100
AcDbEntity
  8
VERMASSUNG
100
AcDbMText
 10
94.0189631502
 20
105.3388984547
 30
0.0
 40
2.0
 41
0.0
 71
     1
 72
     1
  1
HSK A
  7
SLDTEXTSTYLE0
 11
-7.044195017643634E-15
 21
1.0
 31
0.0
 73
     1
 44
1.0
  0
MTEXT
  5
19B
330
192
100
AcDbEntity
  8
VERMASSUNG
100
AcDbMText
 10
94.2189631015
 20
114.3388980673
 30
0.0
 40
2.0
 41
0.0
 71
     1
 72
     1
  1
%%c
  7
SLDTEXTSTYLE0
 11
-7.044195017643634E-15
 21
1.0
 31
0.0
 73
     1
 44
1.0
  0
MTEXT
  5
19C
330
192
100
AcDbEntity
  8
VERMASSUNG
100
AcDbMText
 10
94.2189628105
 20
117.9482414001
 30
0.0
 40
2.0
 41
0.0
 71
     1
 72
     1
  1
63
  7
SLDTEXTSTYLE0
 11
-7.044195017643634E-15
 21
1.0
 31
0.0
 73
     1
 44
1.0
  0
ENDBLK
  5
194
330
192
100
AcDbEntity
  8
0
100
AcDbBlockEnd
  0
BLOCK
  5
19F
330
19E
100
AcDbEntity
  8
0
100
AcDbBlockBegin
  2
_D_1
 70
     0
 10
0.0
 20
0.0
 30
0.0
  3
_D_1
  1

  0
SOLID
  5
1A1
330
19E
100
AcDbEntity
  8
VERMASSUNG
100
AcDbTrace
 10
200.2753790121
 20
155.9622934448
 30
0.0
 11
197.2753790121
 21
156.4122934448
 31
0.0
 12
197.2753790121
 22
155.5122934448
 32
0.0
 13
197.2753790121
 23
155.5122934448
 33
0.0
  0
SOLID
  5
1A2
330
19E
100
AcDbEntity
  8
VERMASSUNG
100
AcDbTrace
 10
134.2753790121
 20
155.9622934448
 30
0.0
 11
137.2753790121
 21
155.5122934448
 31
0.0
 12
137.2753790121
 22
156.4122934448
 32
0.0
 13
137.2753790121
 23
156.4122934448
 33
0.0
  0
LINE
  5
1A3
330
19E
100
AcDbEntity
  8
VERMASSUNG
100
AcDbLine
 10
200.2753790121
 20
140.0432599377
 30
0.0
 11
200.2753790121
 21
156.9622934448
 31
0.0
  0
LINE
  5
1A4
330
19E
100
AcDbEntity
  8
VERMASSUNG
100
AcDbLine
 10
134.2753790121
 20
144.2432599377
 30
0.0
 11
134.2753790121
 21
156.9622934448
 31
0.0
  0
LINE
  5
1A5
330
19E
100
AcDbEntity
  8
VERMASSUNG
100
AcDbLine
 10
200.2753790121
 20
155.9622934448
 30
0.0
 11
134.2753790121
 21
155.9622934448
 31
0.0
  0
MTEXT
  5
1A6
330
19E
100
AcDbEntity
  8
VERMASSUNG
100
AcDbMText
 10
165.8756890018
 20
158.5404290408
 30
0.0
 40
2.0
 41
0.0
 71
     1
 72
     1
  1
66
  7
SLDTEXTSTYLE0
 73
     1
 44
1.0
  0
ENDBLK
  5
1A0
330
19E
100
AcDbEntity
  8
0
100
AcDbBlockEnd
  0
BLOCK
  5
1A9
330
1A8
100
AcDbEntity
  8
0
100
AcDbBlockBegin
  2
_D_2
 70
     0
 10
0.0
 20
0.0
 30
0.0
  3
_D_2
  1

  0
SOLID
  5
1AB
330
1A8
100
AcDbEntity
  8
VERMASSUNG
100
AcDbTrace
 10
200.2753790121
 20
149.9622934448
 30
0.0
 11
197.2753790121
 21
150.4122934448
 31
0.0
 12
197.2753790121
 22
149.5122934448
 32
0.0
 13
197.2753790121
 23
149.5122934448
 33
0.0
  0
SOLID
  5
1AC
330
1A8
100
AcDbEntity
  8
VERMASSUNG
100
AcDbTrace
 10
160.2253790121
 20
149.9622934448
 30
0.0
 11
163.2253790121
 21
149.5122934448
 31
0.0
 12
163.2253790121
 22
150.4122934448
 32
0.0
 13
163.2253790121
 23
150.4122934448
 33
0.0
  0
LINE
  5
1AD
330
1A8
100
AcDbEntity
  8
VERMASSUNG
100
AcDbLine
 10
200.2753790121
 20
140.0432599377
 30
0.0
 11
200.2753790121
 21
150.9622934448
 31
0.0
  0
LINE
  5
1AE
330
1A8
100
AcDbEntity
  8
VERMASSUNG
100
AcDbLine
 10
160.2253790121
 20
142.8897002615
 30
0.0
 11
160.2253790121
 21
150.9622934448
 31
0.0
  0
LINE
  5
1AF
330
1A8
100
AcDbEntity
  8
VERMASSUNG
100
AcDbLine
 10
200.2753790121
 20
149.9622934448
 30
0.0
 11
160.2253790121
 21
149.9622934448
 31
0.0
  0
MTEXT
  5
1B0
330
1A8
100
AcDbEntity
  8
VERMASSUNG
100
AcDbMText
 10
177.0506148514
 20
152.5404290408
 30
0.0
 40
2.0
 41
0.0
 71
     1
 72
     1
  1
40.05
  7
SLDTEXTSTYLE0
 73
     1
 44
1.0
  0
ENDBLK
  5
1AA
330
1A8
100
AcDbEntity
  8
0
100
AcDbBlockEnd
  0
BLOCK
  5
1B3
330
1B2
100
AcDbEntity
  8
0
100
AcDbBlockBegin
  2
_D_3
 70
     0
 10
0.0
 20
0.0
 30
0.0
  3
_D_3
  1

  0
SOLID
  5
1B5
330
1B2
100
AcDbEntity
  8
VERMASSUNG
100
AcDbTrace
 10
200.2753790121
 20
161.9622934448
 30
0.0
 11
197.2753790121
 21
162.4122934448
 31
0.0
 12
197.2753790121
 22
161.5122934448
 32
0.0
 13
197.2753790121
 23
161.5122934448
 33
0.0
  0
SOLID
  5
1B6
330
1B2
100
AcDbEntity
  8
VERMASSUNG
100
AcDbTrace
 10
102.3753790121
 20
161.9622934448
 30
0.0
 11
105.3753790121
 21
161.5122934448
 31
0.0
 12
105.3753790121
 22
162.4122934448
 32
0.0
 13
105.3753790121
 23
162.4122934448
 33
0.0
  0
LINE
  5
1B7
330
1B2
100
AcDbEntity
  8
VERMASSUNG
100
AcDbLine
 10
200.2753790121
 20
140.0432599377
 30
0.0
 11
200.2753790121
 21
162.9622934448
 31
0.0
  0
LINE
  5
1B8
330
1B2
100
AcDbEntity
  8
VERMASSUNG
100
AcDbLine
 10
102.3753790121
 20
132.7339376842
 30
0.0
 11
102.3753790121
 21
162.9622934448
 31
0.0
  0
LINE
  5
1B9
330
1B2
100
AcDbEntity
  8
VERMASSUNG
100
AcDbLine
 10
200.2753790121
 20
161.9622934448
 30
0.0
 11
102.3753790121
 21
161.9622934448
 31
0.0
  0
MTEXT
  5
1BA
330
1B2
100
AcDbEntity
  8
VERMASSUNG
100
AcDbMText
 10
148.9263831316
 20
164.5404290408
 30
0.0
 40
2.0
 41
0.0
 71
     1
 72
     1
  1
97.9
  7
SLDTEXTSTYLE0
 73
     1
 44
1.0
  0
ENDBLK
  5
1B4
330
1B2
100
AcDbEntity
  8
0
100
AcDbBlockEnd
  0
BLOCK
  5
1BD
330
1BC
100
AcDbEntity
  8
0
100
AcDbBlockBegin
  2
_D_4
 70
     0
 10
0.0
 20
0.0
 30
0.0
  3
_D_4
  1

  0
SOLID
  5
1BF
330
1BC
100
AcDbEntity
  8
VERMASSUNG
100
AcDbTrace
 10
208.3543356594
 20
140.5432599377
 30
0.0
 11
207.9043356594
 21
137.5432599377
 31
0.0
 12
208.8043356594
 22
137.5432599377
 32
0.0
 13
208.8043356594
 23
137.5432599377
 33
0.0
  0
SOLID
  5
1C0
330
1BC
100
AcDbEntity
  8
VERMASSUNG
100
AcDbTrace
 10
208.3543356594
 20
85.5432599377
 30
0.0
 11
208.8043356594
 21
88.5432599377
 31
0.0
 12
207.9043356594
 22
88.5432599377
 32
0.0
 13
207.9043356594
 23
88.5432599377
 33
0.0
  0
LINE
  5
1C1
330
1BC
100
AcDbEntity
  8
VERMASSUNG
100
AcDbLine
 10
199.7753790121
 20
140.5432599377
 30
0.0
 11
209.3543356594
 21
140.5432599377
 31
0.0
  0
LINE
  5
1C2
330
1BC
100
AcDbEntity
  8
VERMASSUNG
100
AcDbLine
 10
199.7753790121
 20
85.5432599377
 30
0.0
 11
209.3543356594
 21
85.5432599377
 31
0.0
  0
LINE
  5
1C3
330
1BC
100
AcDbEntity
  8
VERMASSUNG
100
AcDbLine
 10
208.3543356594
 20
140.5432599377
 30
0.0
 11
208.3543356594
 21
85.5432599377
 31
0.0
  0
MTEXT
  5
1C4
330
1BC
100
AcDbEntity
  8
VERMASSUNG
100
AcDbMText
 10
205.5762004031
 20
106.6382602942
 30
0.0
 40
2.0
 41
0.0
 71
     1
 72
     1
  1
MBM
  7
SLDTEXTSTYLE0
 11
-7.044195017643634E-15
 21
1.0
 31
0.0
 73
     1
 44
1.0
  0
MTEXT
  5
1C5
330
1BC
100
AcDbEntity
  8
VERMASSUNG
100
AcDbMText
 10
205.7762003544
 20
113.0382601325
 30
0.0
 40
2.0
 41
0.0
 71
     1
 72
     1
  1
%%c
  7
SLDTEXTSTYLE0
 11
-7.044195017643634E-15
 21
1.0
 31
0.0
 73
     1
 44
1.0
  0
MTEXT
  5
1C6
330
1BC
100
AcDbEntity
  8
VERMASSUNG
100
AcDbMText
 10
205.5762004031
 20
116.6482606125
 30
0.0
 40
2.0
 41
0.0
 71
     1
 72
     1
  1
55
  7
SLDTEXTSTYLE0
 11
-7.044195017643634E-15
 21
1.0
 31
0.0
 73
     1
 44
1.0
  0
ENDBLK
  5
1BE
330
1BC
100
AcDbEntity
  8
0
100
AcDbBlockEnd
  0
BLOCK
  5
1C8
330
1C7
100
AcDbEntity
  8
0
100
AcDbBlockBegin
  2
SW_NOTE_0
 70
     0
 10
0.0
 20
0.0
 30
0.0
  3
SW_NOTE_0
  1

  0
CIRCLE
  5
1CA
330
1C7
100
AcDbEntity
  8
VERMASSUNG
 62
     0
100
AcDbCircle
 10
0.0
 20
-2.5028270988
 30
0.0
 40
2.502827098762113
  0
MTEXT
  5
1CB
330
1C7
100
AcDbEntity
  8
VERMASSUNG
 62
     0
100
AcDbMText
 10
-0.0000000237
 20
-1.8101961014
 30
0.0
 40
2.0
 41
0.0
 71
     2
 72
     1
  1
1
  7
SLDTEXTSTYLE0
 73
     1
 44
1.0
  0
ENDBLK
  5
1C9
330
1C7
100
AcDbEntity
  8
0
100
AcDbBlockEnd
  0
BLOCK
  5
1CF
330
1CE
100
AcDbEntity
  8
0
100
AcDbBlockBegin
  2
_DOT
 70
     0
 10
0.0
 20
0.0
 30
0.0
  3
_DOT
  1

  0
POLYLINE
  5
1D1
330
1CE
100
AcDbEntity
  8
0
  6
ByBlock
 62
     0
100
AcDb2dPolyline
 66
     1
 10
0.0
 20
0.0
 30
0.0
 70
     1
 40
0.5
 41
0.5
  0
VERTEX
  5
1D3
330
1D1
100
AcDbEntity
  8
0
  6
ByBlock
 62
     0
100
AcDbVertex
100
AcDb2dVertex
 10
-0.25
 20
0.0
 30
0.0
 42
1.0
  0
VERTEX
  5
1D4
330
1D1
100
AcDbEntity
  8
0
  6
ByBlock
 62
     0
100
AcDbVertex
100
AcDb2dVertex
 10
0.25
 20
0.0
 30
0.0
 42
1.0
  0
SEQEND
  5
1D5
330
1D1
100
AcDbEntity
  8
0
  6
ByBlock
 62
     0
  0
LINE
  5
1D2
330
1CE
100
AcDbEntity
  8
0
  6
ByBlock
 62
     0
370
    -2
100
AcDbLine
 10
-0.5
 20
0.0
 30
0.0
 11
-1.0
 21
0.0
 31
0.0
  0
ENDBLK
  5
1D0
330
1CE
100
AcDbEntity
  8
0
100
AcDbBlockEnd
  0
BLOCK
  5
1D8
330
1D7
100
AcDbEntity
  8
0
100
AcDbBlockBegin
  2
SW_NOTE_1
 70
     0
 10
0.0
 20
0.0
 30
0.0
  3
SW_NOTE_1
  1

  0
CIRCLE
  5
1DA
330
1D7
100
AcDbEntity
  8
VERMASSUNG
 62
     0
100
AcDbCircle
 10
0.0
 20
-2.5028270988
 30
0.0
 40
2.502827098762112
  0
MTEXT
  5
1DB
330
1D7
100
AcDbEntity
  8
VERMASSUNG
 62
     0
100
AcDbMText
 10
-0.012499975
 20
-1.8101961014
 30
0.0
 40
2.0
 41
0.0
 71
     2
 72
     1
  1
2
  7
SLDTEXTSTYLE0
 73
     1
 44
1.0
  0
ENDBLK
  5
1D9
330
1D7
100
AcDbEntity
  8
0
100
AcDbBlockEnd
  0
ENDSEC
  0
SECTION
  2
ENTITIES
  0
MTEXT
  5
78
330
1F
100
AcDbEntity
  8
KOPF_DÜNN
100
AcDbMText
 10
13.8892156294
 20
23.8442973028
 30
0.0
 40
3.0
 41
0.0
 71
     1
 72
     1
  1
102.063.551
  7
SLDTEXTSTYLE0
 73
     1
 44
1.0
  0
MTEXT
  5
79
330
1F
100
AcDbEntity
  8
VERMASSUNG
100
AcDbMText
 10
13.9329988022
 20
28.8834360957
 30
0.0
 40
3.0
 41
0.0
 71
     1
 72
     1
  1
Aufnahme
  7
SLDTEXTSTYLE0
 73
     1
 44
1.0
  0
MTEXT
  5
7A
330
1F
100
AcDbEntity
  8
VERMASSUNG
100
AcDbMText
 10
98.8601118557
 20
13.8365368761
 30
0.0
 40
2.0
 41
0.0
 71
     1
 72
     1
  1
Datum: 08.12.2006
  7
SLDTEXTSTYLE0
 73
     1
 44
1.0
  0
MTEXT
  5
7B
330
1F
100
AcDbEntity
  8
VERMASSUNG
100
AcDbMText
 10
13.933048693
 20
18.0482802738
 30
0.0
 40
2.0
 41
0.0
 71
     1
 72
     1
  1
HSK-A63 / MBM ø55
  7
SLDTEXTSTYLE0
 73
     1
 44
1.0
  0
MTEXT
  5
7C
330
1F
100
AcDbEntity
  8
VERMASSUNG
100
AcDbMText
 10
13.9808475933
 20
13.9090974274
 30
0.0
 40
2.0
 41
0.0
 71
     1
 72
     1
  1
Gewicht: 1154g
  7
SLDTEXTSTYLE0
 73
     1
 44
1.0
  0
INSERT
  5
98
330
1F
100
AcDbEntity
  8
0
  6
Continuous
 62
     7
370
     0
100
AcDbBlockReference
  2
SW_TABLEANNOTATION_0
 10
155.4069348624
 20
22.9491325334
 30
0.0
  0
LINE
  5
99
330
1F
100
AcDbEntity
  8
0
  6
Continuous
 62
     7
370
    15
100
AcDbLine
 10
134.5753790121
 20
81.5432599377
 30
0.0
 11
139.2253790121
 21
81.5432599377
 31
0.0
  0
LINE
  5
9A
330
1F
100
AcDbEntity
  8
0
  6
Continuous
 62
     7
370
    15
100
AcDbLine
 10
139.2533673712
 20
144.5432599377
 30
0.0
 11
134.5753790121
 21
144.5432599377
 31
0.0
  0
ARC
  5
9B
330
1F
100
AcDbEntity
  8
0
  6
Continuous
 62
     7
370
    15
100
AcDbCircle
 10
134.5753790121
 20
81.8432599377
 30
0.0
 40
0.3000000000000114
100
AcDbArc
 50
180.0
 51
270.0
  0
ARC
  5
9C
330
1F
100
AcDbEntity
  8
0
  6
Continuous
 62
     7
370
    15
100
AcDbCircle
 10
134.5753790121
 20
144.2432599377
 30
0.0
 40
0.3000000000000114
100
AcDbArc
 50
90.0
 51
180.0
  0
LINE
  5
9D
330
1F
100
AcDbEntity
  8
0
  6
Continuous
 62
     7
370
    15
100
AcDbLine
 10
199.7753790121
 20
85.5432599377
 30
0.0
 11
200.2753790121
 21
86.0432599377
 31
0.0
  0
LINE
  5
9E
330
1F
100
AcDbEntity
  8
0
  6
Continuous
 62
     7
370
    15
100
AcDbLine
 10
200.2753790121
 20
140.0432599377
 30
0.0
 11
199.7753790121
 21
140.5432599377
 31
0.0
  0
ARC
  5
9F
330
1F
100
AcDbEntity
  8
0
  6
Continuous
 62
     7
370
    15
100
AcDbCircle
 10
177.2436248486
 20
86.5432599377
 30
0.0
 40
1.000000000000008
100
AcDbArc
 50
194.4775121859
 51
270.0
  0
ARC
  5
A0
330
1F
100
AcDbEntity
  8
0
  6
Continuous
 62
     7
370
    15
100
AcDbCircle
 10
177.2436248486
 20
139.5432599377
 30
0.0
 40
1.000000000000028
100
AcDbArc
 50
90.0
 51
165.5224878141
  0
LINE
  5
A1
330
1F
100
AcDbEntity
  8
0
  6
Continuous
 62
     7
370
    15
100
AcDbLine
 10
177.2436248486
 20
85.5432599377
 30
0.0
 11
199.7753790121
 21
85.5432599377
 31
0.0
  0
LINE
  5
A2
330
1F
100
AcDbEntity
  8
0
  6
Continuous
 62
     7
370
    15
100
AcDbLine
 10
199.7753790121
 20
140.5432599377
 30
0.0
 11
177.2436248486
 21
140.5432599377
 31
0.0
  0
ARC
  5
A3
330
1F
100
AcDbEntity
  8
0
  6
Continuous
 62
     7
370
    15
100
AcDbCircle
 10
161.2253790121
 20
86.0432599377
 30
0.0
 40
1.000000000000008
100
AcDbArc
 50
90.0
 51
143.1139143113
  0
ARC
  5
A4
330
1F
100
AcDbEntity
  8
0
  6
Continuous
 62
     7
370
    15
100
AcDbCircle
 10
161.2253790121
 20
140.0432599377
 30
0.0
 40
1.000000000000028
100
AcDbArc
 50
216.8996843908
 51
270.0
  0
ARC
  5
A5
330
1F
100
AcDbEntity
  8
0
  6
Continuous
 62
     7
370
    15
100
AcDbCircle
 10
175.3071331755
 20
86.0432599377
 30
0.0
 40
1.0
100
AcDbArc
 50
14.4775121859
 51
90.0
  0
ARC
  5
A6
330
1F
100
AcDbEntity
  8
0
  6
Continuous
 62
     7
370
    15
100
AcDbCircle
 10
175.3071331755
 20
140.0432599377
 30
0.0
 40
1.000000000000028
100
AcDbArc
 50
270.0
 51
345.5224878141
  0
LINE
  5
A7
330
1F
100
AcDbEntity
  8
0
  6
Continuous
 62
     7
370
    15
100
AcDbLine
 10
161.2253790121
 20
87.0432599377
 30
0.0
 11
175.3071331755
 21
87.0432599377
 31
0.0
  0
LINE
  5
A8
330
1F
100
AcDbEntity
  8
0
  6
Continuous
 62
     7
370
    15
100
AcDbLine
 10
175.3071331755
 20
139.0432599377
 30
0.0
 11
161.2253790121
 21
139.0432599377
 31
0.0
  0
ARC
  5
A9
330
1F
100
AcDbEntity
  8
0
  6
Continuous
 62
     7
370
    15
100
AcDbCircle
 10
133.7753722594
 20
88.4778323434
 30
0.0
 40
0.6000067526677282
100
AcDbArc
 50
33.5571153394
 51
90.0
  0
ARC
  5
AA
330
1F
100
AcDbEntity
  8
0
  6
Continuous
 62
     7
370
    15
100
AcDbCircle
 10
133.7753722594
 20
137.6086875321
 30
0.0
 40
0.6000067526677125
100
AcDbArc
 50
270.0
 51
326.4428846606
  0
LINE
  5
AB
330
1F
100
AcDbEntity
  8
0
  6
Continuous
 62
     7
370
    15
100
AcDbLine
 10
132.2596266788
 20
88.8236182711
 30
0.0
 11
133.1320917855
 21
89.0573945918
 31
0.0
  0
LINE
  5
AC
330
1F
100
AcDbEntity
  8
0
  6
Continuous
 62
     7
370
    15
100
AcDbLine
 10
133.1320917855
 20
137.0291252836
 30
0.0
 11
132.2596266788
 21
137.2629016044
 31
0.0
  0
LINE
  5
AD
330
1F
100
AcDbEntity
  8
0
  6
Continuous
 62
     7
370
    15
100
AcDbLine
 10
121.0438691767
 20
136.7009899059
 30
0.0
 11
108.4753790121
 21
136.0713060299
 31
0.0
  0
LINE
  5
AE
330
1F
100
AcDbEntity
  8
0
  6
Continuous
 62
     7
370
    15
100
AcDbLine
 10
132.2596266788
 20
137.2629016044
 30
0.0
 11
129.4583784611
 21
137.1225585073
 31
0.0
  0
LINE
  5
AF
330
1F
100
AcDbEntity
  8
0
  6
Continuous
 62
     7
370
    15
100
AcDbLine
 10
129.4584345413
 20
88.9639585585
 30
0.0
 11
132.2596266788
 21
88.8236182711
 31
0.0
  0
LINE
  5
B0
330
1F
100
AcDbEntity
  8
0
  6
Continuous
 62
     7
370
    15
100
AcDbLine
 10
112.4753790121
 20
89.8148130439
 30
0.0
 11
121.0442716846
 21
89.3855098038
 31
0.0
  0
ARC
  5
B1
330
1F
100
AcDbEntity
  8
0
  6
Continuous
 62
     7
370
    15
100
AcDbCircle
 10
133.2873832125
 20
88.477839096
 30
0.0
 40
0.6000000000000145
100
AcDbArc
 50
90.0
 51
105.0
  0
ARC
  5
B2
330
1F
100
AcDbEntity
  8
0
  6
Continuous
 62
     7
370
    15
100
AcDbCircle
 10
133.2873832125
 20
137.6086807794
 30
0.0
 40
0.6000000000000008
100
AcDbArc
 50
255.0
 51
270.0
  0
LINE
  5
B3
330
1F
100
AcDbEntity
  8
0
  6
Continuous
 62
     7
370
    15
100
AcDbLine
 10
133.2873832125
 20
89.077839096
 30
0.0
 11
133.7753722594
 21
89.077839096
 31
0.0
  0
LINE
  5
B4
330
1F
100
AcDbEntity
  8
0
  6
Continuous
 62
     7
370
    15
100
AcDbLine
 10
133.7753722594
 20
137.0086807794
 30
0.0
 11
133.2873832125
 21
137.0086807794
 31
0.0
  0
LINE
  5
B5
330
1F
100
AcDbEntity
  8
0
  6
Continuous
 62
     7
370
    15
100
AcDbLine
 10
103.6587156521
 20
92.1732599377
 30
0.0
 11
111.0753790121
 21
92.1732599377
 31
0.0
  0
ARC
  5
B6
330
1F
100
AcDbEntity
  8
0
  6
Continuous
 62
     7
370
    15
100
AcDbCircle
 10
111.0753790121
 20
90.7732599377
 30
0.0
 40
1.400000000000006
100
AcDbArc
 50
42.2465410162
 51
90.0
  0
LINE
  5
B7
330
1F
100
AcDbEntity
  8
0
  6
Continuous
 62
     7
370
    15
100
AcDbLine
 10
102.3865394472
 20
93.3120995026
 30
0.0
 11
103.5165424703
 21
92.1820964796
 31
0.0
  0
LINE
  5
B8
330
1F
100
AcDbEntity
  8
0
  6
Continuous
 62
     7
370
    15
100
AcDbLine
 10
103.5165424703
 20
133.9044233959
 30
0.0
 11
102.3852797855
 21
132.7731607111
 31
0.0
  0
ARC
  5
B9
330
1F
100
AcDbEntity
  8
0
  6
Continuous
 62
     7
370
    15
100
AcDbCircle
 10
107.0753790121
 20
135.3132599377
 30
0.0
 40
1.400000000000034
100
AcDbArc
 50
270.0
 51
301.7485287426
  0
LINE
  5
BA
330
1F
100
AcDbEntity
  8
0
  6
Continuous
 62
     7
370
    15
100
AcDbLine
 10
107.0753790121
 20
133.9132599377
 30
0.0
 11
103.649644746
 21
133.9132599377
 31
0.0
  0
SPLINE
  5
BB
330
1F
100
AcDbEntity
  8
0
  6
Continuous
 62
     7
370
    15
100
AcDbSpline
210
0.0
220
0.0
230
1.0
 70
    24
 71
     3
 72
    12
 73
     8
 74
     0
 42
0.000000001
 43
0.00000001
 40
0.0
 40
0.0
 40
0.0
 40
0.0
 40
0.133482903619026
 40
0.3085839825174614
 40
0.4832515003868059
 40
0.8158865355899364
 40
0.9999999999999999
 40
0.9999999999999999
 40
0.9999999999999999
 40
0.9999999999999999
 10
187.4574298196637
 20
110.0432599377321
 30
0.0
 10
187.312168378601
 20
110.0432599377321
 30
0.0
 10
186.9763549315302
 20
110.0432599377321
 30
0.0
 10
186.4185705090714
 20
110.0432599377321
 30
0.0
 10
185.5998624074035
 20
110.0432599377321
 30
0.0
 10
184.7583349685766
 20
110.0432599377321
 30
0.0
 10
184.1942922357568
 20
110.0432599377321
 30
0.0
 10
183.9933282045259
 20
110.0432599377321
 30
0.0
  0
SPLINE
  5
BC
330
1F
100
AcDbEntity
  8
0
  6
Continuous
 62
     7
370
    15
100
AcDbSpline
210
0.0
220
0.0
230
1.0
 70
    24
 71
     3
 72
    11
 73
     7
 74
     0
 42
0.000000001
 43
0.00000001
 40
0.0
 40
0.0
 40
0.0
 40
0.0
 40
0.2164553779443442
 40
0.4403112895790579
 40
0.751900568803877
 40
1.0
 40
1.0
 40
1.0
 40
1.0
 10
189.1894806272326
 20
113.0432599377321
 30
0.0
 10
189.0708334687125
 20
112.8377570310017
 30
0.0
 10
188.8294826468063
 20
112.4197251450117
 30
0.0
 10
188.3815999821539
 20
111.6439696140044
 30
0.0
 10
187.901165483571
 20
110.81183265275
 30
0.0
 10
187.5937162543673
 20
110.2793149670212
 30
0.0
 10
187.4574298196637
 20
110.0432599377321
 30
0.0
  0
SPLINE
  5
BD
330
1F
100
AcDbEntity
  8
0
  6
Continuous
 62
     7
370
    15
100
AcDbSpline
210
0.0
220
0.0
230
1.0
 70
    24
 71
     3
 72
    11
 73
     7
 74
     0
 42
0.000000001
 43
0.00000001
 40
0.0
 40
0.0
 40
0.0
 40
0.0
 40
0.2164553779443452
 40
0.440311289579057
 40
0.7519005688038768
 40
1.0
 40
1.0
 40
1.0
 40
1.0
 10
187.4574298196637
 20
116.0432599377321
 30
0.0
 10
187.5760769781838
 20
115.8377570310017
 30
0.0
 10
187.8174278000899
 20
115.4197251450117
 30
0.0
 10
188.2653104647424
 20
114.6439696140044
 30
0.0
 10
188.7457449633252
 20
113.81183265275
 30
0.0
 10
189.0531941925289
 20
113.2793149670212
 30
0.0
 10
189.1894806272326
 20
113.0432599377321
 30
0.0
  0
SPLINE
  5
BE
330
1F
100
AcDbEntity
  8
0
  6
Continuous
 62
     7
370
    15
100
AcDbSpline
210
0.0
220
0.0
230
1.0
 70
    24
 71
     3
 72
    12
 73
     8
 74
     0
 42
0.000000001
 43
0.00000001
 40
0.0
 40
0.0
 40
0.0
 40
0.0
 40
0.1841134644100596
 40
0.516748499613194
 40
0.6914160174825384
 40
0.8665170963809739
 40
0.9999999999999999
 40
0.9999999999999999
 40
0.9999999999999999
 40
0.9999999999999999
 10
183.9933282045259
 20
116.0432599377321
 30
0.0
 10
184.1942922357568
 20
116.0432599377321
 30
0.0
 10
184.7583349685766
 20
116.0432599377321
 30
0.0
 10
185.5998624074035
 20
116.0432599377321
 30
0.0
 10
186.4185705090714
 20
116.0432599377321
 30
0.0
 10
186.9763549315302
 20
116.0432599377321
 30
0.0
 10
187.312168378601
 20
116.0432599377321
 30
0.0
 10
187.4574298196637
 20
116.0432599377321
 30
0.0
  0
SPLINE
  5
BF
330
1F
100
AcDbEntity
  8
0
  6
Continuous
 62
     7
370
    15
100
AcDbSpline
210
0.0
220
0.0
230
1.0
 70
    24
 71
     3
 72
    11
 73
     7
 74
     0
 42
0.000000001
 43
0.00000001
 40
0.0
 40
0.0
 40
0.0
 40
0.0
 40
0.2164553779443451
 40
0.4403112895790583
 40
0.7519005688038776
 40
1.0
 40
1.0
 40
1.0
 40
1.0
 10
182.261277396957
 20
113.0432599377321
 30
0.0
 10
182.3799245554771
 20
113.2487628444626
 30
0.0
 10
182.6212753773833
 20
113.6667947304526
 30
0.0
 10
183.0691580420357
 20
114.4425502614599
 30
0.0
 10
183.5495925406186
 20
115.2746872227143
 30
0.0
 10
183.8570417698223
 20
115.8072049084431
 30
0.0
 10
183.9933282045259
 20
116.0432599377321
 30
0.0
  0
SPLINE
  5
C0
330
1F
100
AcDbEntity
  8
0
  6
Continuous
 62
     7
370
    15
100
AcDbSpline
210
0.0
220
0.0
230
1.0
 70
    24
 71
     3
 72
    11
 73
     7
 74
     0
 42
0.000000001
 43
0.00000001
 40
0.0
 40
0.0
 40
0.0
 40
0.0
 40
0.216455377944345
 40
0.4403112895790565
 40
0.7519005688038782
 40
1.0
 40
1.0
 40
1.0
 40
1.0
 10
183.9933282045259
 20
110.0432599377321
 30
0.0
 10
183.8746810460058
 20
110.2487628444626
 30
0.0
 10
183.6333302240997
 20
110.6667947304526
 30
0.0
 10
183.1854475594473
 20
111.4425502614599
 30
0.0
 10
182.7050130608644
 20
112.2746872227143
 30
0.0
 10
182.3975638316607
 20
112.8072049084431
 30
0.0
 10
182.261277396957
 20
113.0432599377321
 30
0.0
  0
CIRCLE
  5
C1
330
1F
100
AcDbEntity
  8
0
  6
Continuous
 62
     7
370
    15
100
AcDbCircle
 10
185.7253790121
 20
113.0432599377
 30
0.0
 40
3.5
  0
CIRCLE
  5
C2
330
1F
100
AcDbEntity
  8
0
  6
Continuous
 62
     7
370
    15
100
AcDbCircle
 10
185.7253790121
 20
113.0432599377
 30
0.0
 40
5.5
  0
CIRCLE
  5
C3
330
1F
100
AcDbEntity
  8
0
  6
Continuous
 62
     7
370
    15
100
AcDbCircle
 10
185.7253790121
 20
113.0432599377
 30
0.0
 40
6.0
  0
ARC
  5
C4
330
1F
100
AcDbEntity
  8
0
  6
Continuous
 62
     7
370
    15
100
AcDbCircle
 10
185.7253790121
 20
113.0432599377
 30
0.0
 40
3.0
100
AcDbArc
 50
90.0
 51
150.0
  0
ARC
  5
C5
330
1F
100
AcDbEntity
  8
0
  6
Continuous
 62
     7
370
    15
100
AcDbCircle
 10
185.7253790121
 20
113.0432599377
 30
0.0
 40
3.0
100
AcDbArc
 50
150.0
 51
210.0
  0
ARC
  5
C6
330
1F
100
AcDbEntity
  8
0
  6
Continuous
 62
     7
370
    15
100
AcDbCircle
 10
185.7253790121
 20
113.0432599377
 30
0.0
 40
3.0
100
AcDbArc
 50
270.0
 51
330.0
  0
ARC
  5
C7
330
1F
100
AcDbEntity
  8
0
  6
Continuous
 62
     7
370
    15
100
AcDbCircle
 10
185.7253790121
 20
113.0432599377
 30
0.0
 40
3.0
100
AcDbArc
 50
210.0
 51
270.0
  0
ARC
  5
C8
330
1F
100
AcDbEntity
  8
0
  6
Continuous
 62
     7
370
    15
100
AcDbCircle
 10
185.7253790121
 20
113.0432599377
 30
0.0
 40
3.0
100
AcDbArc
 50
330.0
 51
30.0
  0
ARC
  5
C9
330
1F
100
AcDbEntity
  8
0
  6
Continuous
 62
     7
370
    15
100
AcDbCircle
 10
185.7253790121
 20
113.0432599377
 30
0.0
 40
3.0
100
AcDbArc
 50
30.0
 51
90.0
  0
LINE
  5
CA
330
1F
100
AcDbEntity
  8
0
  6
Continuous
 62
     7
370
    15
100
AcDbLine
 10
139.2253790121
 20
132.8932599377
 30
0.0
 11
148.8834461806
 21
132.8932599377
 31
0.0
  0
LINE
  5
CB
330
1F
100
AcDbEntity
  8
0
  6
Continuous
 62
     7
370
    15
100
AcDbLine
 10
148.8834461806
 20
82.8563422415
 30
0.0
 11
148.8834461806
 21
132.8932599377
 31
0.0
  0
LINE
  5
CC
330
1F
100
AcDbEntity
  8
0
  6
Continuous
 62
     7
370
    15
100
AcDbLine
 10
148.8834461806
 20
82.8563422415
 30
0.0
 11
147.2253790121
 21
82.8563422415
 31
0.0
  0
SPLINE
  5
CD
330
1F
100
AcDbEntity
  8
0
  6
Continuous
 62
     7
370
    15
100
AcDbSpline
210
0.0
220
0.0
230
1.0
 70
     8
 71
     3
 72
    28
 73
    24
 74
     0
 42
0.000000001
 43
0.00000001
 40
0.0
 40
0.0
 40
0.0
 40
0.0
 40
0.1249999999999999
 40
0.1249999999999999
 40
0.1874999999999998
 40
0.1874999999999998
 40
0.2499999999999997
 40
0.2499999999999997
 40
0.3749999999999993
 40
0.3749999999999993
 40
0.4374999999999993
 40
0.4374999999999993
 40
0.4999999999999992
 40
0.4999999999999992
 40
0.6249999999999992
 40
0.6249999999999992
 40
0.7499999999999992
 40
0.7499999999999992
 40
0.8124999999999993
 40
0.8124999999999993
 40
0.8749999999999996
 40
0.8749999999999996
 40
1.0
 40
1.0
 40
1.0
 40
1.0
 10
147.2253790120948
 20
82.85634224148498
 30
0.0
 10
146.6936712546019
 20
82.85634224148498
 30
0.0
 10
146.1714326892915
 20
82.84055752753477
 30
0.0
 10
145.4015622030165
 20
82.79556211345856
 30
0.0
 10
145.1472026308252
 20
82.77700711838284
 30
0.0
 10
144.6430810501267
 20
82.73315439593634
 30
0.0
 10
144.3933582326987
 20
82.70780978898414
 30
0.0
 10
143.6677682812523
 20
82.62440771123403
 30
0.0
 10
143.2094080196708
 20
82.55854215208294
 30
0.0
 10
142.5589100762769
 20
82.44957181159116
 30
0.0
 10
142.3472280254845
 20
82.4113321758245
 30
0.0
 10
141.9431565363465
 20
82.33357343840515
 30
0.0
 10
141.7506500225256
 20
82.2940724762298
 30
0.0
 10
141.2008150515043
 20
82.1751647338638
 30
0.0
 10
140.8708862731955
 20
82.09534705243918
 30
0.0
 10
140.2864150046268
 20
81.94200389064312
 30
0.0
 10
140.0401378666134
 20
81.87067013737386
 30
0.0
 10
139.7402950739153
 20
81.77672663029925
 30
0.0
 10
139.6518382168431
 20
81.74753283693933
 30
0.0
 10
139.498476863538
 20
81.69406626267592
 30
0.0
 10
139.4333886493118
 20
81.66970692840073
 30
0.0
 10
139.277794633371
 20
81.606116782956
 30
0.0
 10
139.2253790120948
 20
81.57601384786675
 30
0.0
 10
139.2253790120948
 20
81.55913695486983
 30
0.0
  0
LINE
  5
CE
330
1F
100
AcDbEntity
  8
0
  6
Continuous
 62
     7
370
    15
100
AcDbLine
 10
139.2253790121
 20
81.5591369549
 30
0.0
 11
139.2253790121
 21
81.5432599377
 31
0.0
  0
SPLINE
  5
CF
330
1F
100
AcDbEntity
  8
0
  6
Continuous
 62
     7
370
    15
100
AcDbSpline
210
0.0
220
0.0
230
1.0
 70
     8
 71
     3
 72
    17
 73
    13
 74
     0
 42
0.000000001
 43
0.00000001
 40
0.0
 40
0.0
 40
0.0
 40
0.0
 40
0.1034796923964057
 40
0.210023918880785
 40
0.3134862136955584
 40
0.4198361274354883
 40
0.5254127712915682
 40
0.6339610695419791
 40
0.7409508756305032
 40
0.8511696089308174
 40
0.9558996534551938
 40
0.9999999999999999
 40
0.9999999999999999
 40
0.9999999999999999
 40
0.9999999999999999
 10
147.2253790120948
 20
143.5104554108964
 30
0.0
 10
146.7901306629848
 20
143.5159036074297
 30
0.0
 10
145.9067441564198
 20
143.5269613479416
 30
0.0
 10
144.6259165711911
 20
143.6133197408431
 30
0.0
 10
143.4085000353171
 20
143.7411899173809
 30
0.0
 10
142.3006941830705
 20
143.900135215974
 30
0.0
 10
141.3124553791223
 20
144.0746289036896
 30
0.0
 10
140.4877318215908
 20
144.2437947543295
 30
0.0
 10
139.8387783209315
 20
144.3916785368578
 30
0.0
 10
139.4217435054697
 20
144.4934691210886
 30
0.0
 10
139.2231467925052
 20
144.5438206436918
 30
0.0
 10
139.2464595139385
 20
144.5379149594694
 30
0.0
 10
139.253367371176
 20
144.5361650297748
 30
0.0
  0
LINE
  5
D0
330
1F
100
AcDbEntity
  8
0
  6
Continuous
 62
     7
370
    15
100
AcDbLine
 10
148.8834461806
 20
143.5104554109
 30
0.0
 11
147.2253790121
 21
143.5104554109
 31
0.0
  0
LINE
  5
D1
330
1F
100
AcDbEntity
  8
0
  6
Continuous
 62
     7
370
    15
100
AcDbLine
 10
148.8834461806
 20
137.5019496001
 30
0.0
 11
148.8834461806
 21
143.5104554109
 31
0.0
  0
LINE
  5
D2
330
1F
100
AcDbEntity
  8
0
  6
Continuous
 62
     7
370
    15
100
AcDbLine
 10
146.4709993578
 20
137.5019496001
 30
0.0
 11
148.8834461806
 21
137.5019496001
 31
0.0
  0
SPLINE
  5
D3
330
1F
100
AcDbEntity
  8
0
  6
Continuous
 62
     7
370
    15
100
AcDbSpline
210
0.0
220
0.0
230
1.0
 70
     8
 71
     3
 72
    20
 73
    16
 74
     0
 42
0.000000001
 43
0.00000001
 40
0.0
 40
0.0
 40
0.0
 40
0.0
 40
0.2500000000000005
 40
0.2500000000000005
 40
0.3750000000000004
 40
0.3750000000000004
 40
0.5000000000000003
 40
0.5000000000000003
 40
0.6250000000000002
 40
0.6250000000000002
 40
0.7500000000000001
 40
0.7500000000000001
 40
0.8750000000000001
 40
0.8750000000000001
 40
1.0
 40
1.0
 40
1.0
 40
1.0
 10
139.2253790120948
 20
132.8932599377322
 30
0.0
 10
139.4737527463828
 20
133.5471223660296
 30
0.0
 10
139.7933228387281
 20
134.1509081480267
 30
0.0
 10
140.4156290719328
 20
134.9777468841953
 30
0.0
 10
140.6470533323636
 20
135.2401755221482
 30
0.0
 10
141.1682676720133
 20
135.7368381762532
 30
0.0
 10
141.4548881546483
 20
135.9674250552747
 30
0.0
 10
142.0743728959559
 20
136.3839792798574
 30
0.0
 10
142.4086732754429
 20
136.5714770818249
 30
0.0
 10
143.1339337480677
 20
136.9028740594613
 30
0.0
 10
143.5158488054582
 20
137.0423780469565
 30
0.0
 10
144.3106369816298
 20
137.2678315544275
 30
0.0
 10
144.7247951758362
 20
137.3544576659712
 30
0.0
 10
145.5903415164176
 20
137.4724384548253
 30
0.0
 10
146.0282291314294
 20
137.5019496000996
 30
0.0
 10
146.4709993577841
 20
137.5019496000996
 30
0.0
  0
LINE
  5
D4
330
1F
100
AcDbEntity
  8
0
  6
Continuous
 62
     7
370
    15
100
AcDbLine
 10
155.6673118436
 20
82.8563422415
 30
0.0
 11
155.6673118436
 21
132.8932599377
 31
0.0
  0
SPLINE
  5
D5
330
1F
100
AcDbEntity
  8
0
  6
Continuous
 62
     7
370
    15
100
AcDbSpline
210
0.0
220
0.0
230
1.0
 70
     8
 71
     3
 72
     8
 73
     4
 74
     0
 42
0.000000001
 43
0.00000001
 40
0.0
 40
0.0
 40
0.0
 40
0.0
 40
1.0
 40
1.0
 40
1.0
 40
1.0
 10
155.6673118435838
 20
82.85634224148498
 30
0.0
 10
155.1718321829181
 20
83.75186832941833
 30
0.0
 10
154.677718134876
 20
84.64815274447058
 30
0.0
 10
154.1853790120948
 20
85.54542277867728
 30
0.0
  0
LINE
  5
D6
330
1F
100
AcDbEntity
  8
0
  6
Continuous
 62
     7
370
    15
100
AcDbLine
 10
154.1853790121
 20
85.5454227787
 30
0.0
 11
154.1853790121
 21
132.8932599377
 31
0.0
  0
SPLINE
  5
D7
330
1F
100
AcDbEntity
  8
0
  6
Continuous
 62
     7
370
    15
100
AcDbSpline
210
0.0
220
0.0
230
1.0
 70
    24
 71
     3
 72
     8
 73
     4
 74
     0
 42
0.000000001
 43
0.00000001
 40
0.0
 40
0.0
 40
0.0
 40
0.0
 40
1.0
 40
1.0
 40
1.0
 40
1.0
 10
154.1853790120948
 20
132.8932599377322
 30
0.0
 10
154.6653310064597
 20
132.8932599377322
 30
0.0
 10
155.1606317354333
 20
132.8932599377322
 30
0.0
 10
155.6673118435839
 20
132.8932599377322
 30
0.0
  0
LINE
  5
D8
330
1F
100
AcDbEntity
  8
0
  6
Continuous
 62
     7
370
    15
100
AcDbLine
 10
160.2253790121
 20
83.4829825371
 30
0.0
 11
160.2253790121
 21
132.8932599377
 31
0.0
  0
SPLINE
  5
D9
330
1F
100
AcDbEntity
  8
0
  6
Continuous
 62
     7
370
    15
100
AcDbSpline
210
0.0
220
0.0
230
1.0
 70
     8
 71
     3
 72
    10
 73
     6
 74
     0
 42
0.000000001
 43
0.00000001
 40
0.0
 40
0.0
 40
0.0
 40
0.0
 40
0.5
 40
0.5
 40
1.0
 40
1.0
 40
1.0
 40
1.0
 10
160.2253790120948
 20
83.4829825371393
 30
0.0
 10
160.2253790120948
 20
83.32309526894565
 30
0.0
 10
160.1640693608589
 20
83.16196801343104
 30
0.0
 10
159.9449697233239
 20
82.92786901507621
 30
0.0
 10
159.7869215170104
 20
82.85634224148498
 30
0.0
 10
159.6253790120948
 20
82.85634224148498
 30
0.0
  0
SPLINE
  5
DA
330
1F
100
AcDbEntity
  8
0
  6
Continuous
 62
     7
370
    15
100
AcDbSpline
210
0.0
220
0.0
230
1.0
 70
    24
 71
     3
 72
    12
 73
     8
 74
     0
 42
0.000000001
 43
0.00000001
 40
0.0
 40
0.0
 40
0.0
 40
0.0
 40
0.250000000000002
 40
0.250000000000002
 40
0.500000000000004
 40
0.500000000000004
 40
1.0
 40
1.0
 40
1.0
 40
1.0
 10
159.6253790120948
 20
132.8932599377322
 30
0.0
 10
159.7156180797818
 20
132.8932599377322
 30
0.0
 10
159.8065161938883
 20
132.8932599377322
 30
0.0
 10
159.9611132303769
 20
132.8932599377322
 30
0.0
 10
160.026091646485
 20
132.8932599377322
 30
0.0
 10
160.1779266744212
 20
132.8932599377322
 30
0.0
 10
160.2253790120948
 20
132.8932599377322
 30
0.0
 10
160.2253790120948
 20
132.8932599377322
 30
0.0
  0
LINE
  5
DB
330
1F
100
AcDbEntity
  8
0
  6
Continuous
 62
     7
370
    15
100
AcDbLine
 10
159.6253790121
 20
82.8563422415
 30
0.0
 11
155.6673118436
 21
82.8563422415
 31
0.0
  0
LINE
  5
DC
330
1F
100
AcDbEntity
  8
0
  6
Continuous
 62
     7
370
    15
100
AcDbLine
 10
155.6673118436
 20
132.8932599377
 30
0.0
 11
159.6253790121
 21
132.8932599377
 31
0.0
  0
LINE
  5
DD
330
1F
100
AcDbEntity
  8
0
  6
Continuous
 62
     7
370
    15
100
AcDbLine
 10
150.3653790121
 20
85.5454227787
 30
0.0
 11
150.3653790121
 21
132.8932599377
 31
0.0
  0
SPLINE
  5
DE
330
1F
100
AcDbEntity
  8
0
  6
Continuous
 62
     7
370
    15
100
AcDbSpline
210
0.0
220
0.0
230
1.0
 70
     8
 71
     3
 72
     8
 73
     4
 74
     0
 42
0.000000001
 43
0.00000001
 40
0.0
 40
0.0
 40
0.0
 40
0.0
 40
1.0
 40
1.0
 40
1.0
 40
1.0
 10
150.3653790120948
 20
85.54542277867729
 30
0.0
 10
149.8730398893136
 20
84.6481527444706
 30
0.0
 10
149.3789258412715
 20
83.75186832941833
 30
0.0
 10
148.8834461806057
 20
82.85634224148498
 30
0.0
  0
SPLINE
  5
DF
330
1F
100
AcDbEntity
  8
0
  6
Continuous
 62
     7
370
    15
100
AcDbSpline
210
0.0
220
0.0
230
1.0
 70
    24
 71
     3
 72
     8
 73
     4
 74
     0
 42
0.000000001
 43
0.00000001
 40
0.0
 40
0.0
 40
0.0
 40
0.0
 40
1.0
 40
1.0
 40
1.0
 40
1.0
 10
148.8834461806057
 20
132.8932599377322
 30
0.0
 10
149.3901262887562
 20
132.8932599377322
 30
0.0
 10
149.8854270177299
 20
132.8932599377322
 30
0.0
 10
150.3653790120948
 20
132.8932599377322
 30
0.0
  0
LINE
  5
E0
330
1F
100
AcDbEntity
  8
0
  6
Continuous
 62
     7
370
    15
100
AcDbLine
 10
134.2753790121
 20
81.8432599377
 30
0.0
 11
134.2753790121
 21
144.2432599349
 31
0.0
  0
SPLINE
  5
E1
330
1F
100
AcDbEntity
  8
0
  6
Continuous
 62
     7
370
    15
100
AcDbSpline
210
0.0
220
0.0
230
1.0
 70
    24
 71
     3
 72
    14
 73
    10
 74
     0
 42
0.000000001
 43
0.00000001
 40
0.0
 40
0.0
 40
0.0
 40
0.0
 40
0.4999999999999954
 40
0.4999999999999954
 40
0.7499999999999947
 40
0.7499999999999947
 40
0.8749999999999973
 40
0.8749999999999973
 40
1.0
 40
1.0
 40
1.0
 40
1.0
 10
154.0877042097625
 20
86.64325993773214
 30
0.0
 10
154.0404940505327
 20
86.64325993773215
 30
0.0
 10
153.977259576989
 20
86.64325993773214
 30
0.0
 10
153.8334476462611
 20
86.64325993773215
 30
0.0
 10
153.7781225717847
 20
86.64325993773214
 30
0.0
 10
153.6662113985497
 20
86.64325993773214
 30
0.0
 10
153.6234243121087
 20
86.64325993773214
 30
0.0
 10
153.5190589790751
 20
86.64325993773214
 30
0.0
 10
153.4548351847734
 20
86.64325993773214
 30
0.0
 10
153.3853790121503
 20
86.64325993773214
 30
0.0
  0
SPLINE
  5
E2
330
1F
100
AcDbEntity
  8
0
  6
Continuous
 62
     7
370
    15
100
AcDbSpline
210
0.0
220
0.0
230
1.0
 70
    24
 71
     3
 72
    12
 73
     8
 74
     0
 42
0.000000001
 43
0.00000001
 40
0.0
 40
0.0
 40
0.0
 40
0.0
 40
0.5
 40
0.5
 40
0.75
 40
0.75
 40
1.0
 40
1.0
 40
1.0
 40
1.0
 10
153.791081480404
 20
139.4432599377322
 30
0.0
 10
153.7476432926011
 20
139.4432599377322
 30
0.0
 10
153.6984490443031
 20
139.4432599377322
 30
0.0
 10
153.601730286922
 20
139.4432599377322
 30
0.0
 10
153.5655428054203
 20
139.4432599377322
 30
0.0
 10
153.4826649468956
 20
139.4432599377322
 30
0.0
 10
153.4347114995889
 20
139.4432599377322
 30
0.0
 10
153.3853790120948
 20
139.4432599377322
 30
0.0
  0
SPLINE
  5
E3
330
1F
100
AcDbEntity
  8
0
  6
Continuous
 62
     7
370
    15
100
AcDbSpline
210
0.0
220
0.0
230
1.0
 70
     8
 71
     3
 72
    10
 73
     6
 74
     0
 42
0.000000001
 43
0.00000001
 40
0.0
 40
0.0
 40
0.0
 40
0.0
 40
0.5
 40
0.5
 40
1.0
 40
1.0
 40
1.0
 40
1.0
 10
154.1853790120948
 20
140.162913788768
 30
0.0
 10
154.1853790120948
 20
140.0191437309501
 30
0.0
 10
154.149329953376
 20
139.8767243684552
 30
0.0
 10
154.0138210926024
 20
139.6268300750982
 30
0.0
 10
153.9139450995065
 20
139.5187997388501
 30
0.0
 10
153.7910814804049
 20
139.4432599377328
 30
0.0
  0
SPLINE
  5
E4
330
1F
100
AcDbEntity
  8
0
  6
Continuous
 62
     7
370
    15
100
AcDbSpline
210
0.0
220
0.0
230
1.0
 70
     8
 71
     3
 72
     9
 73
     5
 74
     0
 42
0.000000001
 43
0.00000001
 40
0.0
 40
0.0
 40
0.0
 40
0.0
 40
0.5
 40
1.0
 40
1.0
 40
1.0
 40
1.0
 10
154.1592313889347
 20
132.8932599377322
 30
0.0
 10
154.167969958817
 20
132.9404027380675
 30
0.0
 10
154.1809892451534
 20
133.035198819738
 30
0.0
 10
154.1853790120948
 20
133.1309830912984
 30
0.0
 10
154.1853790120948
 20
133.1791265691935
 30
0.0
  0
SPLINE
  5
E5
330
1F
100
AcDbEntity
  8
0
  6
Continuous
 62
     7
370
    15
100
AcDbSpline
210
0.0
220
0.0
230
1.0
 70
     8
 71
     3
 72
    10
 73
     6
 74
     0
 42
0.000000001
 43
0.00000001
 40
0.0
 40
0.0
 40
0.0
 40
0.0
 40
0.5
 40
0.5
 40
1.0
 40
1.0
 40
1.0
 40
1.0
 10
150.7596765437857
 20
139.4432599377322
 30
0.0
 10
150.6381362801172
 20
139.5179861049439
 30
0.0
 10
150.5368019197683
 20
139.6269311208607
 30
0.0
 10
150.4011629768798
 20
139.8773616016223
 30
0.0
 10
150.3653790120948
 20
140.0197809637212
 30
0.0
 10
150.3653790120948
 20
140.162913788768
 30
0.0
  0
SPLINE
  5
E6
330
1F
100
AcDbEntity
  8
0
  6
Continuous
 62
     7
370
    15
100
AcDbSpline
210
0.0
220
0.0
230
1.0
 70
    24
 71
     3
 72
    12
 73
     8
 74
     0
 42
0.000000001
 43
0.00000001
 40
0.0
 40
0.0
 40
0.0
 40
0.0
 40
0.2500000000000008
 40
0.2500000000000008
 40
0.5000000000000017
 40
0.5000000000000017
 40
1.0
 40
1.0
 40
1.0
 40
1.0
 10
151.1653790120948
 20
139.4432599377322
 30
0.0
 10
151.1155023297774
 20
139.4432599377322
 30
0.0
 10
151.0674991363737
 20
139.4432599377322
 30
0.0
 10
150.9844510336618
 20
139.4432599377322
 30
0.0
 10
150.9483214541939
 20
139.4432599377322
 30
0.0
 10
150.8524094232497
 20
139.4432599377322
 30
0.0
 10
150.8026507552809
 20
139.4432599377322
 30
0.0
 10
150.7596765437857
 20
139.4432599377322
 30
0.0
  0
SPLINE
  5
E7
330
1F
100
AcDbEntity
  8
0
  6
Continuous
 62
     7
370
    15
100
AcDbSpline
210
0.0
220
0.0
230
1.0
 70
    24
 71
     3
 72
    14
 73
    10
 74
     0
 42
0.000000001
 43
0.00000001
 40
0.0
 40
0.0
 40
0.0
 40
0.0
 40
0.1250000000000006
 40
0.1250000000000006
 40
0.2500000000000012
 40
0.2500000000000012
 40
0.4999999999999998
 40
0.4999999999999998
 40
1.0
 40
1.0
 40
1.0
 40
1.0
 10
151.1653790120948
 20
86.64325993773214
 30
0.0
 10
151.0969411642083
 20
86.64325993773215
 30
0.0
 10
151.0313911254433
 20
86.64325993773214
 30
0.0
 10
150.9269644860354
 20
86.64325993773215
 30
0.0
 10
150.8844198762739
 20
86.64325993773214
 30
0.0
 10
150.7718104157337
 20
86.64325993773215
 30
0.0
 10
150.7162713687142
 20
86.64325993773214
 30
0.0
 10
150.5736596732503
 20
86.64325993773215
 30
0.0
 10
150.5102543182546
 20
86.64325993773214
 30
0.0
 10
150.4630538144271
 20
86.64325993773214
 30
0.0
  0
SPLINE
  5
E8
330
1F
100
AcDbEntity
  8
0
  6
Continuous
 62
     7
370
    15
100
AcDbSpline
210
0.0
220
0.0
230
1.0
 70
     8
 71
     3
 72
    10
 73
     6
 74
     0
 42
0.000000001
 43
0.00000001
 40
0.0
 40
0.0
 40
0.0
 40
0.0
 40
0.5
 40
0.5
 40
1.0
 40
1.0
 40
1.0
 40
1.0
 10
150.3653790120948
 20
133.1791265691935
 30
0.0
 10
150.3653790120948
 20
133.1313550612002
 30
0.0
 10
150.3675402556919
 20
133.0836453391385
 30
0.0
 10
150.3762116295521
 20
132.9883502215903
 30
0.0
 10
150.3827408125081
 20
132.9406576576236
 30
0.0
 10
150.3915266352549
 20
132.8932599377322
 30
0.0
  0
LINE
  5
E9
330
1F
100
AcDbEntity
  8
0
  6
Continuous
 62
     7
370
    15
100
AcDbLine
 10
200.2753790121
 20
86.0432599377
 30
0.0
 11
200.2753790121
 21
140.0432599377
 31
0.0
  0
LINE
  5
EA
330
1F
100
AcDbEntity
  8
0
  6
Continuous
 62
     7
370
    15
100
AcDbLine
 10
199.7753790121
 20
85.5432599377
 30
0.0
 11
199.7753790121
 21
140.5432599377
 31
0.0
  0
SPLINE
  5
EB
330
1F
100
AcDbEntity
  8
0
  6
Continuous
 62
     7
370
    15
100
AcDbSpline
210
0.0
220
0.0
230
1.0
 70
     8
 71
     3
 72
    48
 73
    44
 74
     0
 42
0.000000001
 43
0.00000001
 40
0.0
 40
0.0
 40
0.0
 40
0.0
 40
0.0312500000000004
 40
0.0312500000000004
 40
0.0625000000000009
 40
0.0625000000000009
 40
0.1250000000000017
 40
0.1250000000000017
 40
0.1562500000000024
 40
0.1562500000000024
 40
0.1875000000000031
 40
0.1875000000000031
 40
0.2187500000000037
 40
0.2187500000000037
 40
0.2500000000000044
 40
0.2500000000000044
 40
0.312500000000005
 40
0.312500000000005
 40
0.3437500000000048
 40
0.3437500000000048
 40
0.3750000000000046
 40
0.3750000000000046
 40
0.4375000000000043
 40
0.4375000000000043
 40
0.5000000000000039
 40
0.5000000000000039
 40
0.5625000000000037
 40
0.5625000000000037
 40
0.6250000000000033
 40
0.6250000000000033
 40
0.687500000000003
 40
0.687500000000003
 40
0.7500000000000026
 40
0.7500000000000026
 40
0.8125000000000022
 40
0.8125000000000022
 40
0.8750000000000019
 40
0.8750000000000019
 40
0.9062500000000014
 40
0.9062500000000014
 40
0.937500000000001
 40
0.937500000000001
 40
1.0
 40
1.0
 40
1.0
 40
1.0
 10
192.9753790120948
 20
113.0432599377321
 30
0.0
 10
192.9753790120948
 20
112.8189620786353
 30
0.0
 10
192.9622609452701
 20
112.5948214370749
 30
0.0
 10
192.9094815096038
 20
112.1468580746665
 30
0.0
 10
192.8693892139468
 20
111.921615575717
 30
0.0
 10
192.7117830033811
 20
111.261865922234
 30
0.0
 10
192.5577632500535
 20
110.8404043014044
 30
0.0
 10
192.2573639896554
 20
110.2340587964314
 30
0.0
 10
192.1452134261226
 20
110.0360122506988
 30
0.0
 10
191.9031563997414
 20
109.6570640683918
 30
0.0
 10
191.7727346921556
 20
109.4749893903948
 30
0.0
 10
191.4939560800535
 20
109.1248813209228
 30
0.0
 10
191.3455963121673
 20
108.9568503368091
 30
0.0
 10
191.0311797731661
 20
108.6345501456868
 30
0.0
 10
190.8650172746969
 20
108.4803782109154
 30
0.0
 10
190.3502979337448
 20
108.0467084917762
 30
0.0
 10
189.9826188453468
 20
107.7924560938463
 30
0.0
 10
189.3958458307074
 20
107.4604439285459
 30
0.0
 10
189.1933773428352
 20
107.3576806906307
 30
0.0
 10
188.782786243013
 20
107.1717443065474
 30
0.0
 10
188.5744159512036
 20
107.0883120532016
 30
0.0
 10
187.9403704341259
 20
106.8655611614275
 30
0.0
 10
187.5058336725817
 20
106.7535536282311
 30
0.0
 10
186.6127275833376
 20
106.6029868852923
 30
0.0
 10
186.1611188743852
 20
106.566076267743
 30
0.0
 10
185.2642849822649
 20
106.5674893173291
 30
0.0
 10
184.8164921367388
 20
106.6053556950786
 30
0.0
 10
183.922206118928
 20
106.7587099624916
 30
0.0
 10
183.4865051058304
 20
106.872550623528
 30
0.0
 10
182.6443044720311
 20
107.171307739149
 30
0.0
 10
182.2366016040677
 20
107.3563779113022
 30
0.0
 10
181.4499371486282
 20
107.8040689924959
 30
0.0
 10
181.0835858491579
 20
108.0595275408056
 30
0.0
 10
180.4046909548939
 20
108.634372617693
 30
0.0
 10
180.0906084449868
 20
108.9555391127385
 30
0.0
 10
179.5293568178415
 20
109.6630285785323
 30
0.0
 10
179.2896089626679
 20
110.0393294963445
 30
0.0
 10
178.9929495628109
 20
110.6389132549962
 30
0.0
 10
178.9046353910036
 20
110.8446725625258
 30
0.0
 10
178.7505213693093
 20
111.2688043461472
 30
0.0
 10
178.6847114455014
 20
111.4880480698706
 30
0.0
 10
178.5281772088234
 20
112.146254891731
 30
0.0
 10
178.4753790120948
 20
112.5914679892098
 30
0.0
 10
178.4753790120947
 20
113.0432599377321
 30
0.0
  0
SPLINE
  5
EC
330
1F
100
AcDbEntity
  8
0
  6
Continuous
 62
     7
370
    15
100
AcDbSpline
210
0.0
220
0.0
230
1.0
 70
     8
 71
     3
 72
    52
 73
    48
 74
     0
 42
0.000000001
 43
0.00000001
 40
0.0
 40
0.0
 40
0.0
 40
0.0
 40
0.0312500000000007
 40
0.0312500000000007
 40
0.0625000000000013
 40
0.0625000000000013
 40
0.093750000000002
 40
0.093750000000002
 40
0.1250000000000026
 40
0.1250000000000026
 40
0.187500000000004
 40
0.187500000000004
 40
0.2500000000000054
 40
0.2500000000000054
 40
0.3125000000000069
 40
0.3125000000000069
 40
0.3750000000000083
 40
0.3750000000000083
 40
0.4375000000000097
 40
0.4375000000000097
 40
0.4687500000000099
 40
0.4687500000000099
 40
0.5000000000000101
 40
0.5000000000000101
 40
0.5625000000000097
 40
0.5625000000000097
 40
0.5937500000000094
 40
0.5937500000000094
 40
0.6250000000000092
 40
0.6250000000000092
 40
0.6875000000000079
 40
0.6875000000000079
 40
0.7187500000000072
 40
0.7187500000000072
 40
0.7500000000000064
 40
0.7500000000000064
 40
0.8125000000000051
 40
0.8125000000000051
 40
0.8437500000000041
 40
0.8437500000000041
 40
0.8750000000000031
 40
0.8750000000000031
 40
0.9375000000000016
 40
0.9375000000000016
 40
0.9687500000000008
 40
0.9687500000000008
 40
1.0
 40
1.0
 40
1.0
 40
1.0
 10
178.4753790120947
 20
113.0432599377321
 30
0.0
 10
178.4753790120948
 20
113.2691995748799
 30
0.0
 10
178.4889763926028
 20
113.4982082419214
 30
0.0
 10
178.5425374794734
 20
113.9478414543326
 30
0.0
 10
178.5823336064497
 20
114.1694987854927
 30
0.0
 10
178.6870495861488
 20
114.6067265514871
 30
0.0
 10
178.7519717139404
 20
114.8222964162462
 30
0.0
 10
178.9068670316153
 20
115.2473852898659
 30
0.0
 10
178.9971216357601
 20
115.457056136025
 30
0.0
 10
179.2981542295474
 20
116.0623385722701
 30
0.0
 10
179.5405635635259
 20
116.4397738272449
 30
0.0
 10
180.1042334671299
 20
117.145902766201
 30
0.0
 10
180.4216783967395
 20
117.4690804594701
 30
0.0
 10
181.1145603639685
 20
118.0504870761038
 30
0.0
 10
181.484020003313
 20
118.3040695925813
 30
0.0
 10
182.2609372205439
 20
118.7415953476984
 30
0.0
 10
182.6704131851846
 20
118.9264840607928
 30
0.0
 10
183.5242583720066
 20
119.225194992187
 30
0.0
 10
183.9588413017869
 20
119.3358419603578
 30
0.0
 10
184.6216975422433
 20
119.4467887534223
 30
0.0
 10
184.8444920823649
 20
119.4745357590256
 30
0.0
 10
185.2938200300763
 20
119.5113298282704
 30
0.0
 10
185.5214250118886
 20
119.5203344102642
 30
0.0
 10
186.1992428235863
 20
119.5184822775027
 30
0.0
 10
186.6457533905732
 20
119.4795160222114
 30
0.0
 10
187.3076422026816
 20
119.3655280710354
 30
0.0
 10
187.5269511844381
 20
119.3182176275964
 30
0.0
 10
187.9628595682627
 20
119.204415804215
 30
0.0
 10
188.180261611198
 20
119.1375638504305
 30
0.0
 10
188.8161464981725
 20
118.9113224306573
 30
0.0
 10
189.221818793516
 20
118.7259137904558
 30
0.0
 10
189.8028382347234
 20
118.3950562152409
 30
0.0
 10
189.991900145244
 20
118.2759212079682
 30
0.0
 10
190.3603770548003
 20
118.0190042047754
 30
0.0
 10
190.5401108184965
 20
117.880787566195
 30
0.0
 10
191.0523405277218
 20
117.4463692993528
 30
0.0
 10
191.3622747298783
 20
117.1280260711222
 30
0.0
 10
191.7776738195446
 20
116.6048045500217
 30
0.0
 10
191.9078299957958
 20
116.4227248591225
 30
0.0
 10
192.1502777327077
 20
116.0419695897292
 30
0.0
 10
192.2615693583806
 20
115.8445606129359
 30
0.0
 10
192.5590437807769
 20
115.2423258479145
 30
0.0
 10
192.7120296435358
 20
114.8233546978456
 30
0.0
 10
192.8689853692638
 20
114.1667278639125
 30
0.0
 10
192.9092316630263
 20
113.9414173566309
 30
0.0
 10
192.9622564754287
 20
113.4920996352072
 30
0.0
 10
192.9753790120948
 20
113.2676011508198
 30
0.0
 10
192.9753790120948
 20
113.0432599377321
 30
0.0
  0
LINE
  5
ED
330
1F
100
AcDbEntity
  8
0
  6
Continuous
 62
     7
370
    15
100
AcDbLine
 10
153.3853790121
 20
139.4432599377
 30
0.0
 11
151.1653790121
 21
139.4432599377
 31
0.0
  0
LINE
  5
EE
330
1F
100
AcDbEntity
  8
0
  6
Continuous
 62
     7
370
    15
100
AcDbLine
 10
153.3853790121
 20
86.6432599377
 30
0.0
 11
151.1653790121
 21
86.6432599377
 31
0.0
  0
SPLINE
  5
EF
330
1F
100
AcDbEntity
  8
0
  6
Continuous
 62
     7
370
    15
100
AcDbSpline
210
0.0
220
0.0
230
1.0
 70
    24
 71
     3
 72
     9
 73
     5
 74
     0
 42
0.000000001
 43
0.00000001
 40
0.0
 40
0.0
 40
0.0
 40
0.0
 40
0.9378120589290163
 40
1.0
 40
1.0
 40
1.0
 40
1.0
 10
160.4253780599592
 20
139.4432599377322
 30
0.0
 10
160.4163188023798
 20
139.4432599377322
 30
0.0
 10
160.4066588097479
 20
139.4432599377322
 30
0.0
 10
160.3693423681051
 20
139.4432599377322
 30
0.0
 10
160.3670217354313
 20
139.4432599377322
 30
0.0
  0
SPLINE
  5
F0
330
1F
100
AcDbEntity
  8
0
  6
Continuous
 62
     7
370
    15
100
AcDbSpline
210
0.0
220
0.0
230
1.0
 70
    24
 71
     3
 72
    10
 73
     6
 74
     0
 42
0.000000001
 43
0.00000001
 40
0.0
 40
0.0
 40
0.0
 40
0.0
 40
0.5
 40
0.5
 40
1.0
 40
1.0
 40
1.0
 40
1.0
 10
160.4253790120745
 20
86.64325993773214
 30
0.0
 10
160.4253779998147
 20
86.64325993773214
 30
0.0
 10
160.3821731482475
 20
86.64325993773214
 30
0.0
 10
160.2812460419617
 20
86.64325993773215
 30
0.0
 10
160.2253790120948
 20
86.64325993773214
 30
0.0
 10
160.2253790120948
 20
86.64325993773214
 30
0.0
  0
LINE
  5
F1
330
1F
100
AcDbEntity
  8
0
  6
Continuous
 62
     7
370
    15
100
AcDbLine
 10
132.2596266788
 20
88.8236182711
 30
0.0
 11
132.2596266788
 21
137.2629016044
 31
0.0
  0
LINE
  5
F2
330
1F
100
AcDbEntity
  8
0
  6
Continuous
 62
     7
370
    15
100
AcDbLine
 10
112.4753790121
 20
89.8148130439
 30
0.0
 11
112.4753790121
 21
91.0795224065
 31
0.0
  0
SPLINE
  5
F3
330
1F
100
AcDbEntity
  8
0
  6
Continuous
 62
     7
370
    15
100
AcDbSpline
210
0.0
220
0.0
230
1.0
 70
     8
 71
     3
 72
    14
 73
    10
 74
     0
 42
0.000000001
 43
0.00000001
 40
0.0
 40
0.0
 40
0.0
 40
0.0
 40
0.25
 40
0.25
 40
0.5
 40
0.5
 40
0.75
 40
0.75
 40
1.0
 40
1.0
 40
1.0
 40
1.0
 10
111.6970918941791
 20
92.21010861417221
 30
0.0
 10
111.7537185693811
 20
92.10241116033535
 30
0.0
 10
111.8482412296708
 20
91.99962157861601
 30
0.0
 10
112.0312862052331
 20
91.80126426639588
 30
0.0
 10
112.1229127821878
 20
91.70520475771762
 30
0.0
 10
112.281766099881
 20
91.51767571500838
 30
0.0
 10
112.3496567075027
 20
91.42626674222483
 30
0.0
 10
112.4465737332103
 20
91.24789052131467
 30
0.0
 10
112.4753790120954
 20
91.1606686150685
 30
0.0
 10
112.4753790120954
 20
91.07952240653425
 30
0.0
  0
SPLINE
  5
F4
330
1F
100
AcDbEntity
  8
0
  6
Continuous
 62
     7
370
    15
100
AcDbSpline
210
0.0
220
0.0
230
1.0
 70
     8
 71
     3
 72
    14
 73
    10
 74
     0
 42
0.000000001
 43
0.00000001
 40
0.0
 40
0.0
 40
0.0
 40
0.0
 40
0.1250000000000006
 40
0.1250000000000006
 40
0.2500000000000012
 40
0.2500000000000012
 40
0.4999999999999997
 40
0.4999999999999997
 40
1.0
 40
1.0
 40
1.0
 40
1.0
 10
111.0753790120948
 20
92.6567904764515
 30
0.0
 10
111.123923420752
 20
92.6625387897318
 30
0.0
 10
111.1768387755368
 20
92.65943790107555
 30
0.0
 10
111.2721341205199
 20
92.63724305691323
 30
0.0
 10
111.3123851178049
 20
92.62001082981737
 30
0.0
 10
111.4166551313178
 20
92.56368291336531
 30
0.0
 10
111.4669771064711
 20
92.51949656741952
 30
0.0
 10
111.5946600539965
 20
92.3884886685689
 30
0.0
 10
111.6507455010588
 20
92.29825414833861
 30
0.0
 10
111.6970918941805
 20
92.21010861417274
 30
0.0
  0
SPLINE
  5
F5
330
1F
100
AcDbEntity
  8
0
  6
Continuous
 62
     7
370
    15
100
AcDbSpline
210
0.0
220
0.0
230
1.0
 70
     8
 71
     3
 72
     8
 73
     4
 74
     0
 42
0.000000001
 43
0.00000001
 40
0.0
 40
0.0
 40
0.0
 40
0.0
 40
1.0
 40
1.0
 40
1.0
 40
1.0
 10
108.8068539191487
 20
92.34694518986872
 30
0.0
 10
109.5414309456316
 20
92.46557020093768
 30
0.0
 10
110.3049060150272
 20
92.56555607307396
 30
0.0
 10
111.0753790120948
 20
92.6567904764515
 30
0.0
  0
SPLINE
  5
F6
330
1F
100
AcDbEntity
  8
0
  6
Continuous
 62
     7
370
    15
100
AcDbSpline
210
0.0
220
0.0
230
1.0
 70
     8
 71
     3
 72
    14
 73
    10
 74
     0
 42
0.000000001
 43
0.00000001
 40
0.0
 40
0.0
 40
0.0
 40
0.0
 40
0.5
 40
0.5
 40
0.75
 40
0.75
 40
0.875
 40
0.875
 40
1.0
 40
1.0
 40
1.0
 40
1.0
 10
103.5253790120948
 20
92.17332217233708
 30
0.0
 10
104.4175251426484
 20
92.17259994613644
 30
0.0
 10
105.307501578442
 20
92.17718615259389
 30
0.0
 10
106.6340967455176
 20
92.20491115698543
 30
0.0
 10
107.0749436740164
 20
92.21751769460961
 30
0.0
 10
107.7313839114388
 20
92.24853384261705
 30
0.0
 10
107.9493975680307
 20
92.26087701524382
 30
0.0
 10
108.3821064217135
 20
92.29390107040709
 30
0.0
 10
108.5973828868783
 20
92.31311823554553
 30
0.0
 10
108.8068539191487
 20
92.34694518986872
 30
0.0
  0
SPLINE
  5
F7
330
1F
100
AcDbEntity
  8
0
  6
Continuous
 62
     7
370
    15
100
AcDbSpline
210
0.0
220
0.0
230
1.0
 70
     8
 71
     3
 72
     8
 73
     4
 74
     0
 42
0.000000001
 43
0.00000001
 40
0.0000005163856998
 40
0.0000005163856998
 40
0.0000005163856998
 40
0.0000005163856998
 40
0.000026289209185
 40
0.000026289209185
 40
0.000026289209185
 40
0.000026289209185
 10
103.5153340816872
 20
92.18330604543384
 30
0.0
 10
103.518661819895
 20
92.17997179856474
 30
0.0
 10
103.5220102728706
 20
92.17664384128943
 30
0.0
 10
103.5253790120948
 20
92.17332217233707
 30
0.0
  0
SPLINE
  5
F8
330
1F
100
AcDbEntity
  8
0
  6
Continuous
 62
     7
370
    15
100
AcDbSpline
210
0.0
220
0.0
230
1.0
 70
     8
 71
     3
 72
     8
 73
     4
 74
     0
 42
0.000000001
 43
0.00000001
 40
0.0000005099763573
 40
0.0000005099763573
 40
0.0000005099763573
 40
0.0000005099763573
 40
0.0000262827998699
 40
0.0000262827998699
 40
0.0000262827998699
 40
0.0000262827998699
 10
103.5253790120948
 20
133.9131977031272
 30
0.0
 10
103.522010272867
 20
133.9098760341713
 30
0.0
 10
103.5186618198879
 20
133.9065480768924
 30
0.0
 10
103.5153340816765
 20
133.9032138300198
 30
0.0
  0
SPLINE
  5
F9
330
1F
100
AcDbEntity
  8
0
  6
Continuous
 62
     7
370
    15
100
AcDbSpline
210
0.0
220
0.0
230
1.0
 70
     8
 71
     3
 72
    10
 73
     6
 74
     0
 42
0.000000001
 43
0.00000001
 40
0.0
 40
0.0
 40
0.0
 40
0.0
 40
0.5
 40
0.5
 40
1.0
 40
1.0
 40
1.0
 40
1.0
 10
107.0753790120948
 20
133.8663473295599
 30
0.0
 10
106.4877934650042
 20
133.8874128497963
 30
0.0
 10
105.8970470715438
 20
133.8981713356685
 30
0.0
 10
104.7130279062449
 20
133.9115361162042
 30
0.0
 10
104.1196139180395
 20
133.9136787588688
 30
0.0
 10
103.5253790120948
 20
133.9131977031272
 30
0.0
  0
SPLINE
  5
FA
330
1F
100
AcDbEntity
  8
0
  6
Continuous
 62
     7
370
    15
100
AcDbSpline
210
0.0
220
0.0
230
1.0
 70
     8
 71
     3
 72
    18
 73
    14
 74
     0
 42
0.000000001
 43
0.00000001
 40
0.0
 40
0.0
 40
0.0
 40
0.0
 40
0.2500000000000001
 40
0.2500000000000001
 40
0.5000000000000002
 40
0.5000000000000002
 40
0.7500000000000003
 40
0.7500000000000003
 40
0.8750000000000002
 40
0.8750000000000002
 40
0.9375000000000002
 40
0.9375000000000002
 40
1.0
 40
1.0
 40
1.0
 40
1.0
 10
108.4753790120948
 20
134.8873676100951
 30
0.0
 10
108.4753790120948
 20
134.8041607012379
 30
0.0
 10
108.4395299121565
 20
134.7154240459244
 30
0.0
 10
108.3146581761226
 20
134.5332988553641
 30
0.0
 10
108.2242577584747
 20
134.4381688067375
 30
0.0
 10
108.0020151037326
 20
134.2489872976132
 30
0.0
 10
107.8722503172868
 20
134.1540421295185
 30
0.0
 10
107.6316128599753
 20
134.0157634219385
 30
0.0
 10
107.5438455618378
 20
133.9700529886362
 30
0.0
 10
107.389321474631
 20
133.9122296834147
 30
0.0
 10
107.3327105885763
 20
133.8945149193768
 30
0.0
 10
107.2086665576697
 20
133.8699756161439
 30
0.0
 10
107.1409518826514
 20
133.8639964776057
 30
0.0
 10
107.0753790120948
 20
133.8663473295599
 30
0.0
  0
LINE
  5
FB
330
1F
100
AcDbEntity
  8
0
  6
Continuous
 62
     7
370
    15
100
AcDbLine
 10
108.4753790121
 20
134.8873676101
 30
0.0
 11
108.4753790121
 21
136.0713060299
 31
0.0
  0
SPLINE
  5
FC
330
1F
100
AcDbEntity
  8
0
  6
Continuous
 62
     7
370
    15
100
AcDbSpline
210
0.0
220
0.0
230
1.0
 70
     8
 71
     3
 72
    24
 73
    20
 74
     0
 42
0.000000001
 43
0.00000001
 40
0.0
 40
0.0
 40
0.0
 40
0.0
 40
0.0010474631756071
 40
0.0637827998981074
 40
0.1272205495732247
 40
0.1903773877398719
 40
0.2526733668453194
 40
0.3146339239779662
 40
0.3770877128481475
 40
0.4393525473057938
 40
0.5008118422561124
 40
0.5621830267236717
 40
0.6248423587248042
 40
0.6874289851536017
 40
0.7496728210883014
 40
0.8119833405171992
 40
0.8750945456918685
 40
0.9384397421848834
 40
1.0
 40
1.0
 40
1.0
 40
1.0
 10
121.0442837794952
 20
89.38575121849743
 30
0.0
 10
121.0438379517112
 20
89.38569301524032
 30
0.0
 10
121.0166903201797
 20
89.38214886515642
 30
0.0
 10
121.1123000260195
 20
89.39498231650956
 30
0.0
 10
121.345855845243
 20
89.4242284804178
 30
0.0
 10
121.7414068209679
 20
89.47084256944767
 30
0.0
 10
122.2684439862517
 20
89.52102568925245
 30
0.0
 10
122.9119718181391
 20
89.56540239829839
 30
0.0
 10
123.6506437026612
 20
89.5923476707468
 30
0.0
 10
124.4481569044007
 20
89.5958201873431
 30
0.0
 10
125.2747352808212
 20
89.56819369109007
 30
0.0
 10
126.1002585907125
 20
89.5097155120488
 30
0.0
 10
126.8923862072171
 20
89.42427103819739
 30
0.0
 10
127.6249602026924
 20
89.32253712690697
 30
0.0
 10
128.2606027783582
 20
89.21469403768289
 30
0.0
 10
128.7825166982577
 20
89.11306362561994
 30
0.0
 10
129.1641489628903
 20
89.03057788669352
 30
0.0
 10
129.4149684972628
 20
88.9744275987265
 30
0.0
 10
129.4440927032511
 20
88.96757752294893
 30
0.0
 10
129.4584467091609
 20
88.96420142994116
 30
0.0
  0
SPLINE
  5
FD
330
1F
100
AcDbEntity
  8
0
  6
Continuous
 62
     7
370
    15
100
AcDbSpline
210
0.0
220
0.0
230
1.0
 70
     8
 71
     3
 72
    24
 73
    20
 74
     0
 42
0.000000001
 43
0.00000001
 40
0.0
 40
0.0
 40
0.0
 40
0.0
 40
0.0614395534382597
 40
0.1250751703317842
 40
0.1884268397120056
 40
0.2508638761272328
 40
0.3129680449658968
 40
0.3753466222196946
 40
0.4377343724680258
 40
0.4990942071706781
 40
0.560582235749624
 40
0.6229484722311761
 40
0.6854701164843754
 40
0.7475492776569196
 40
0.8098240089256987
 40
0.8730699162748239
 40
0.9364056957899927
 40
0.9991772321979605
 40
1.0
 40
1.0
 40
1.0
 40
1.0
 10
129.4583919482729
 20
137.1222893038426
 30
0.0
 10
129.4437894075673
 20
137.1189209201466
 30
0.0
 10
129.414062380533
 20
137.112063754999
 30
0.0
 10
129.1613218478203
 20
137.0557242167262
 30
0.0
 10
128.7783211490651
 20
136.9728663658791
 30
0.0
 10
128.255962885097
 20
136.8709590875488
 30
0.0
 10
127.6211760361
 20
136.763119981067
 30
0.0
 10
126.8909507298802
 20
136.6616533577663
 30
0.0
 10
126.1004810815985
 20
136.5765941991503
 30
0.0
 10
125.2759972751654
 20
136.5183906145075
 30
0.0
 10
124.4489613154197
 20
136.4908079239891
 30
0.0
 10
123.6506383491476
 20
136.494301568889
 30
0.0
 10
122.9108163581814
 20
136.5212579815629
 30
0.0
 10
122.26656470711
 20
136.565612169224
 30
0.0
 10
121.739160602229
 20
136.6158175969798
 30
0.0
 10
121.3444993092666
 20
136.6624272105749
 30
0.0
 10
121.1119745696535
 20
136.6916223032135
 30
0.0
 10
121.0165963679645
 20
136.7044000254493
 30
0.0
 10
121.0435302363297
 20
136.7008457995736
 30
0.0
 10
121.0438787002361
 20
136.7007998158546
 30
0.0
  0
SPLINE
  5
FE
330
1F
100
AcDbEntity
  8
0
  6
Continuous
 62
     7
370
    15
100
AcDbSpline
210
0.0
220
0.0
230
1.0
 70
     8
 71
     3
 72
    10
 73
     6
 74
     0
 42
0.000000001
 43
0.00000001
 40
0.0
 40
0.0
 40
0.0
 40
0.0
 40
0.0840381716605812
 40
0.7011125076932597
 40
1.0
 40
1.0
 40
1.0
 40
1.0
 10
102.3889259746305
 20
93.3144860300488
 30
0.0
 10
102.3896005319654
 20
93.31228040321291
 30
0.0
 10
102.3952282196616
 20
93.2938793298507
 30
0.0
 10
102.4215496997884
 20
93.30811389257384
 30
0.0
 10
102.4339847166331
 20
93.35379966812485
 30
0.0
 10
102.4380423868182
 20
93.36870739295142
 30
0.0
  0
LINE
  5
FF
330
1F
100
AcDbEntity
  8
0
  6
Continuous
 62
     7
370
    15
100
AcDbLine
 10
102.3753790121
 20
93.3525821913
 30
0.0
 11
102.3753790121
 21
132.7339376842
 31
0.0
  0
SPLINE
  5
100
330
1F
100
AcDbEntity
  8
0
  6
Continuous
 62
     7
370
    15
100
AcDbSpline
210
0.0
220
0.0
230
1.0
 70
     8
 71
     3
 72
    10
 73
     6
 74
     0
 42
0.000000001
 43
0.00000001
 40
0.0
 40
0.0
 40
0.0
 40
0.0
 40
0.3981552638809201
 40
0.8068145697129967
 40
1.0
 40
1.0
 40
1.0
 40
1.0
 10
102.4380423868182
 20
132.7178124825129
 30
0.0
 10
102.4323788820937
 20
132.7366542670638
 30
0.0
 10
102.4209024593464
 20
132.7748349158561
 30
0.0
 10
102.3973882313722
 20
132.7884181997238
 30
0.0
 10
102.3923722755544
 20
132.7727179056035
 30
0.0
 10
102.3907622098268
 20
132.7676782867563
 30
0.0
  0
SPLINE
  5
101
330
1F
100
AcDbEntity
  8
0
  6
Continuous
 62
     7
370
    15
100
AcDbSpline
210
0.0
220
0.0
230
1.0
 70
     8
 71
     3
 72
    26
 73
    22
 74
     0
 42
0.000000001
 43
0.00000001
 40
0.0
 40
0.0
 40
0.0
 40
0.0
 40
0.2500000000000115
 40
0.2500000000000115
 40
0.3750000000000181
 40
0.3750000000000181
 40
0.4375000000000201
 40
0.4375000000000201
 40
0.4687500000000187
 40
0.4687500000000187
 40
0.5000000000000172
 40
0.5000000000000172
 40
0.5312500000000158
 40
0.5312500000000158
 40
0.5625000000000143
 40
0.5625000000000143
 40
0.625000000000013
 40
0.625000000000013
 40
0.7500000000000084
 40
0.7500000000000084
 40
1.0
 40
1.0
 40
1.0
 40
1.0
 10
103.1995326581993
 20
133.43337927133
 30
0.0
 10
103.1609321353308
 20
133.3156045749745
 30
0.0
 10
103.1146351327766
 20
133.1912148888126
 30
0.0
 10
103.0206957843426
 20
132.9859955564591
 30
0.0
 10
102.9853843174292
 20
132.9144226900127
 30
0.0
 10
102.9192043416835
 20
132.7984694574122
 30
0.0
 10
102.8946659750152
 20
132.7578849226019
 30
0.0
 10
102.8512932294614
 20
132.6937432407303
 30
0.0
 10
102.8357848280363
 20
132.6718768154452
 30
0.0
 10
102.8007421834493
 20
132.6262825471021
 30
0.0
 10
102.7811918927295
 20
132.6026122561346
 30
0.0
 10
102.7392646123588
 20
132.5579956967946
 30
0.0
 10
102.7166125021272
 20
132.5371156842767
 30
0.0
 10
102.6756387880406
 20
132.5062422705259
 30
0.0
 10
102.6580394881452
 20
132.4964034006935
 30
0.0
 10
102.613412502289
 20
132.4774137849974
 30
0.0
 10
102.5928532796357
 20
132.4770894603439
 30
0.0
 10
102.541727840139
 20
132.4863129012201
 30
0.0
 10
102.5208164271505
 20
132.5075597974371
 30
0.0
 10
102.4693665195896
 20
132.5815286762679
 30
0.0
 10
102.451701220285
 20
132.6476467695826
 30
0.0
 10
102.4380423868182
 20
132.7178124825129
 30
0.0
  0
SPLINE
  5
102
330
1F
100
AcDbEntity
  8
0
  6
Continuous
 62
     7
370
    15
100
AcDbSpline
210
0.0
220
0.0
230
1.0
 70
     8
 71
     3
 72
    10
 73
     6
 74
     0
 42
0.000000001
 43
0.00000001
 40
0.0
 40
0.0
 40
0.0
 40
0.0
 40
0.5
 40
0.5
 40
1.0
 40
1.0
 40
1.0
 40
1.0
 10
103.5153340816766
 20
133.9032138300198
 30
0.0
 10
103.4477748267583
 20
133.83552243721
 30
0.0
 10
103.3841381714218
 20
133.7608152724564
 30
0.0
 10
103.27391741685
 20
133.6018491400298
 30
0.0
 10
103.2271011236273
 20
133.5174938740218
 30
0.0
 10
103.1995326581993
 20
133.43337927133
 30
0.0
  0
SPLINE
  5
103
330
1F
100
AcDbEntity
  8
0
  6
Continuous
 62
     7
370
    15
100
AcDbSpline
210
0.0
220
0.0
230
1.0
 70
     8
 71
     3
 72
    10
 73
     6
 74
     0
 42
0.000000001
 43
0.00000001
 40
0.0
 40
0.0
 40
0.0
 40
0.0
 40
0.5
 40
0.5
 40
1.0
 40
1.0
 40
1.0
 40
1.0
 10
103.1995326581993
 20
92.6531406041342
 30
0.0
 10
103.2270100729533
 20
92.5693038076663
 30
0.0
 10
103.2737187032427
 20
92.48499332007717
 30
0.0
 10
103.3839971659887
 20
92.32587208959042
 30
0.0
 10
103.4478847046026
 20
92.25088734550079
 30
0.0
 10
103.5153340816872
 20
92.18330604543384
 30
0.0
  0
SPLINE
  5
104
330
1F
100
AcDbEntity
  8
0
  6
Continuous
 62
     7
370
    15
100
AcDbSpline
210
0.0
220
0.0
230
1.0
 70
     8
 71
     3
 72
    24
 73
    20
 74
     0
 42
0.000000001
 43
0.00000001
 40
0.0
 40
0.0
 40
0.0
 40
0.0
 40
0.24999999999998
 40
0.24999999999998
 40
0.3749999999999705
 40
0.3749999999999705
 40
0.4374999999999656
 40
0.4374999999999656
 40
0.4687499999999649
 40
0.4687499999999649
 40
0.4999999999999643
 40
0.4999999999999643
 40
0.5624999999999676
 40
0.5624999999999676
 40
0.6249999999999709
 40
0.6249999999999709
 40
0.7499999999999798
 40
0.7499999999999798
 40
1.0
 40
1.0
 40
1.0
 40
1.0
 10
102.4380423868182
 20
93.3687073929514
 30
0.0
 10
102.4517955054884
 20
93.43935745094167
 30
0.0
 10
102.4695680728943
 20
93.50595556370658
 30
0.0
 10
102.5218191644497
 20
93.5800535839398
 30
0.0
 10
102.5428542400312
 20
93.60131139110135
 30
0.0
 10
102.5957546476596
 20
93.6094573172476
 30
0.0
 10
102.6168603205375
 20
93.60851751385182
 30
0.0
 10
102.6629124892155
 20
93.58750152227452
 30
0.0
 10
102.6812829611989
 20
93.57659271616689
 30
0.0
 10
102.7228345962645
 20
93.54395780521953
 30
0.0
 10
102.7454012690215
 20
93.52246582484818
 30
0.0
 10
102.8081822854815
 20
93.45399988126188
 30
0.0
 10
102.8413120464494
 20
93.40792542305677
 30
0.0
 10
102.8982297329344
 20
93.32291753472211
 30
0.0
 10
102.9224157584382
 20
93.28263723354071
 30
0.0
 10
102.987623708818
 20
93.16770100707477
 30
0.0
 10
103.0223397690092
 20
93.09711802192776
 30
0.0
 10
103.1155550393401
 20
92.89291226284914
 30
0.0
 10
103.1612275747008
 20
92.77001388052177
 30
0.0
 10
103.1995326581993
 20
92.65314060413421
 30
0.0
  0
LINE
  5
105
330
1F
100
AcDbEntity
  8
0
  6
Continuous
 62
     7
370
    15
100
AcDbLine
 10
154.1853790121
 20
133.1791265692
 30
0.0
 11
154.1853790121
 21
134.0934036053
 31
0.0
  0
SPLINE
  5
106
330
1F
100
AcDbEntity
  8
0
  6
Continuous
 62
     7
370
    15
100
AcDbSpline
210
0.0
220
0.0
230
1.0
 70
     8
 71
     3
 72
     8
 73
     4
 74
     0
 42
0.000000001
 43
0.00000001
 40
0.0
 40
0.0
 40
0.0
 40
0.0
 40
1.0
 40
1.0
 40
1.0
 40
1.0
 10
154.1853790120948
 20
134.0934036053155
 30
0.0
 10
154.6646571626846
 20
135.2344148351681
 30
0.0
 10
155.1602250018246
 20
136.3707992459359
 30
0.0
 10
155.6673118435838
 20
137.5019496000996
 30
0.0
  0
LINE
  5
107
330
1F
100
AcDbEntity
  8
0
  6
Continuous
 62
     7
370
    15
100
AcDbLine
 10
155.6673118436
 20
137.5019496001
 30
0.0
 11
159.6253790121
 21
137.5019496001
 31
0.0
  0
SPLINE
  5
108
330
1F
100
AcDbEntity
  8
0
  6
Continuous
 62
     7
370
    15
100
AcDbSpline
210
0.0
220
0.0
230
1.0
 70
     8
 71
     3
 72
    12
 73
     8
 74
     0
 42
0.000000001
 43
0.00000001
 40
0.0
 40
0.0
 40
0.0
 40
0.0
 40
0.250000000000002
 40
0.250000000000002
 40
0.500000000000004
 40
0.500000000000004
 40
1.0
 40
1.0
 40
1.0
 40
1.0
 10
159.6253790120948
 20
137.5019496000996
 30
0.0
 10
159.7165787339204
 20
137.5019496000996
 30
0.0
 10
159.8071737430565
 20
137.4737299015117
 30
0.0
 10
159.9605864695031
 20
137.3792868942636
 30
0.0
 10
160.0257953368268
 20
137.3129999175583
 30
0.0
 10
160.1785798661667
 20
137.08737509427
 30
0.0
 10
160.2253790120948
 20
136.9049488312374
 30
0.0
 10
160.2253790120948
 20
136.7242121989906
 30
0.0
  0
LINE
  5
109
330
1F
100
AcDbEntity
  8
0
  6
Continuous
 62
     7
370
    15
100
AcDbLine
 10
160.2253790121
 20
136.724212199
 30
0.0
 11
160.2253790121
 21
132.8932599377
 31
0.0
  0
LINE
  5
10A
330
1F
100
AcDbEntity
  8
0
  6
Continuous
 62
     7
370
    15
100
AcDbLine
 10
159.6253790121
 20
143.5104554109
 30
0.0
 11
155.6673118436
 21
143.5104554109
 31
0.0
  0
LINE
  5
10B
330
1F
100
AcDbEntity
  8
0
  6
Continuous
 62
     7
370
    15
100
AcDbLine
 10
155.6673118436
 20
137.5019496001
 30
0.0
 11
155.6673118436
 21
143.5104554109
 31
0.0
  0
SPLINE
  5
10C
330
1F
100
AcDbEntity
  8
0
  6
Continuous
 62
     7
370
    15
100
AcDbSpline
210
0.0
220
0.0
230
1.0
 70
     8
 71
     3
 72
     8
 73
     4
 74
     0
 42
0.000000001
 43
0.00000001
 40
0.0
 40
0.0
 40
0.0
 40
0.0
 40
1.0
 40
1.0
 40
1.0
 40
1.0
 10
150.3653790120948
 20
140.8484941289038
 30
0.0
 10
149.872668915249
 20
141.7365131270302
 30
0.0
 10
149.3785862099701
 20
142.6237757627161
 30
0.0
 10
148.8834461806057
 20
143.5104554108964
 30
0.0
  0
LINE
  5
10D
330
1F
100
AcDbEntity
  8
0
  6
Continuous
 62
     7
370
    15
100
AcDbLine
 10
150.3653790121
 20
134.0934036053
 30
0.0
 11
150.3653790121
 21
140.8484941289
 31
0.0
  0
SPLINE
  5
10E
330
1F
100
AcDbEntity
  8
0
  6
Continuous
 62
     7
370
    15
100
AcDbSpline
210
0.0
220
0.0
230
1.0
 70
     8
 71
     3
 72
     8
 73
     4
 74
     0
 42
0.000000001
 43
0.00000001
 40
0.0
 40
0.0
 40
0.0
 40
0.0
 40
1.0
 40
1.0
 40
1.0
 40
1.0
 10
148.8834461806057
 20
137.5019496000996
 30
0.0
 10
149.390533022365
 20
136.3707992459359
 30
0.0
 10
149.886100861505
 20
135.2344148351681
 30
0.0
 10
150.3653790120948
 20
134.0934036053155
 30
0.0
  0
SPLINE
  5
10F
330
1F
100
AcDbEntity
  8
0
  6
Continuous
 62
     7
370
    15
100
AcDbSpline
210
0.0
220
0.0
230
1.0
 70
     8
 71
     3
 72
     8
 73
     4
 74
     0
 42
0.000000001
 43
0.00000001
 40
0.0
 40
0.0
 40
0.0
 40
0.0
 40
1.0
 40
1.0
 40
1.0
 40
1.0
 10
155.6673118435838
 20
143.5104554108964
 30
0.0
 10
155.1721718142195
 20
142.6237757627161
 30
0.0
 10
154.6780891089406
 20
141.7365131270302
 30
0.0
 10
154.1853790120948
 20
140.8484941289038
 30
0.0
  0
LINE
  5
110
330
1F
100
AcDbEntity
  8
0
  6
Continuous
 62
     7
370
    15
100
AcDbLine
 10
154.1853790121
 20
134.0934036053
 30
0.0
 11
154.1853790121
 21
140.8484941289
 31
0.0
  0
SPLINE
  5
111
330
1F
100
AcDbEntity
  8
0
  6
Continuous
 62
     7
370
    15
100
AcDbSpline
210
0.0
220
0.0
230
1.0
 70
     8
 71
     3
 72
    10
 73
     6
 74
     0
 42
0.000000001
 43
0.00000001
 40
0.0
 40
0.0
 40
0.0
 40
0.0
 40
0.5
 40
0.5
 40
1.0
 40
1.0
 40
1.0
 40
1.0
 10
160.2253790120948
 20
142.889700261496
 30
0.0
 10
160.2253790120948
 20
143.0501055278469
 30
0.0
 10
160.1631411809879
 20
143.2091673408354
 30
0.0
 10
159.9440062572454
 20
143.4400798064658
 30
0.0
 10
159.7864175622535
 20
143.5104554108964
 30
0.0
 10
159.6253790120948
 20
143.5104554108964
 30
0.0
  0
LINE
  5
112
330
1F
100
AcDbEntity
  8
0
  6
Continuous
 62
     7
370
    15
100
AcDbLine
 10
160.2253790121
 20
136.724212199
 30
0.0
 11
160.2253790121
 21
142.8897002615
 31
0.0
  0
LINE
  5
113
330
1F
100
AcDbEntity
  8
0
  6
Continuous
 62
     7
370
    15
100
AcDbLine
 10
150.3653790121
 20
134.0934036053
 30
0.0
 11
150.3653790121
 21
133.1791265692
 31
0.0
  0
LINE
  5
114
330
1F
100
AcDbEntity
  8
0
  6
Continuous
 62
     7
370
    15
100
AcDbLine
 10
175.3071331755
 20
139.0432599377
 30
0.0
 11
175.3071331755
 21
87.0432599377
 31
0.0
  0
LINE
  5
115
330
1F
100
AcDbEntity
  8
0
  6
Continuous
 62
     7
370
    15
100
AcDbLine
 10
176.2753790121
 20
86.2932599377
 30
0.0
 11
176.2753790121
 21
139.7932599377
 31
0.0
  0
LINE
  5
116
330
1F
100
AcDbEntity
  8
0
  6
Continuous
 62
     7
370
    15
100
AcDbLine
 10
177.2436248486
 20
85.5432599377
 30
0.0
 11
177.2436248486
 21
140.5432599377
 31
0.0
  0
LINE
  5
117
330
1F
100
AcDbEntity
  8
0
  6
Continuous
 62
     7
370
    15
100
AcDbLine
 10
161.2253790121
 20
87.0432599377
 30
0.0
 11
161.2253790121
 21
139.0432599377
 31
0.0
  0
CIRCLE
  5
118
330
1F
100
AcDbEntity
  8
0
  6
HIDDEN
 62
     7
370
     0
100
AcDbCircle
 10
185.7253790121
 20
113.0432599377
 30
0.0
 40
5.258613578496409
  0
CIRCLE
  5
119
330
1F
100
AcDbEntity
  8
0
  6
HIDDEN
 62
     7
370
     0
100
AcDbCircle
 10
185.7253790121
 20
113.0432599377
 30
0.0
 40
4.094716599621009
  0
CIRCLE
  5
11A
330
1F
100
AcDbEntity
  8
0
  6
HIDDEN
 62
     7
370
     0
100
AcDbCircle
 10
185.7253790121
 20
113.0432599377
 30
0.0
 40
3.694716599621017
  0
LINE
  5
11B
330
1F
100
AcDbEntity
  8
0
  6
HIDDEN
 62
     7
370
     0
100
AcDbLine
 10
148.8834461806
 20
137.5019496001
 30
0.0
 11
148.8834461806
 21
132.8932599377
 31
0.0
  0
LINE
  5
11C
330
1F
100
AcDbEntity
  8
0
  6
HIDDEN
 62
     7
370
     0
100
AcDbLine
 10
122.2705437229
 20
89.5186613348
 30
0.0
 11
122.0189270647
 21
89.4951436862
 31
0.0
  0
LINE
  5
11D
330
1F
100
AcDbEntity
  8
0
  6
HIDDEN
 62
     7
370
     0
100
AcDbLine
 10
199.7253790121
 20
132.2098012403
 30
0.0
 11
199.7253790121
 21
135.3637811315
 31
0.0
  0
SPLINE
  5
11E
330
1F
100
AcDbEntity
  8
0
  6
HIDDEN
 62
     7
370
     0
100
AcDbSpline
210
0.0
220
0.0
230
1.0
 70
     8
 71
     3
 72
    18
 73
    14
 74
     0
 42
0.000000001
 43
0.00000001
 40
0.0
 40
0.0
 40
0.0
 40
0.0
 40
0.2500000000000002
 40
0.2500000000000002
 40
0.3750000000000001
 40
0.3750000000000001
 40
0.4999999999999999
 40
0.4999999999999999
 40
0.6249999999999998
 40
0.6249999999999998
 40
0.7499999999999997
 40
0.7499999999999997
 40
1.0
 40
1.0
 40
1.0
 40
1.0
 10
199.7253790120948
 20
128.9026869002066
 30
0.0
 10
199.8159120709658
 20
129.3428352159522
 30
0.0
 10
199.8840948663326
 20
129.7539441267215
 30
0.0
 10
199.954124614825
 20
130.3259758852141
 30
0.0
 10
199.9719008479997
 20
130.5090728247474
 30
0.0
 10
199.9953333640836
 20
130.8479423926479
 30
0.0
 10
200.0012179150351
 20
131.0053708409857
 30
0.0
 10
200.001359936541
 20
131.29616982173
 30
0.0
 10
199.9954972043794
 20
131.4304776434896
 30
0.0
 10
199.9720343578815
 20
131.6683012071962
 30
0.0
 10
199.9545790147733
 20
131.7718646093723
 30
0.0
 10
199.8853576658367
 20
132.0380161262441
 30
0.0
 10
199.8159278183719
 20
132.1564123584994
 30
0.0
 10
199.7253790120948
 20
132.2098012403012
 30
0.0
  0
LINE
  5
11F
330
1F
100
AcDbEntity
  8
0
  6
HIDDEN
 62
     7
370
     0
100
AcDbLine
 10
199.7253790121
 20
97.1838329753
 30
0.0
 11
199.7253790121
 21
128.9026869002
 31
0.0
  0
SPLINE
  5
120
330
1F
100
AcDbEntity
  8
0
  6
HIDDEN
 62
     7
370
     0
100
AcDbSpline
210
0.0
220
0.0
230
1.0
 70
     8
 71
     3
 72
    18
 73
    14
 74
     0
 42
0.000000001
 43
0.00000001
 40
0.0
 40
0.0
 40
0.0
 40
0.0
 40
0.2499999999999991
 40
0.2499999999999991
 40
0.3749999999999989
 40
0.3749999999999989
 40
0.4999999999999989
 40
0.4999999999999989
 40
0.6249999999999988
 40
0.6249999999999988
 40
0.7499999999999987
 40
0.7499999999999987
 40
1.0
 40
1.0
 40
1.0
 40
1.0
 10
199.7253790120948
 20
93.87671863516313
 30
0.0
 10
199.8159120709658
 20
93.9300982320672
 30
0.0
 10
199.8840948663326
 20
94.04519905878958
 30
0.0
 10
199.9541246148249
 20
94.31215072185377
 30
0.0
 10
199.9719008479997
 20
94.41748781419003
 30
0.0
 10
199.9953333640835
 20
94.6537669569901
 30
0.0
 10
200.0012179150351
 20
94.78536854427352
 30
0.0
 10
200.001359936541
 20
95.07554470731708
 30
0.0
 10
199.9954972043794
 20
95.23558417450927
 30
0.0
 10
199.9720343578815
 20
95.57613238539584
 30
0.0
 10
199.9545790147733
 20
95.75605291873966
 30
0.0
 10
199.8853576658366
 20
96.32378335712221
 30
0.0
 10
199.8159278183719
 20
96.74360809969646
 30
0.0
 10
199.7253790120948
 20
97.1838329752577
 30
0.0
  0
LINE
  5
121
330
1F
100
AcDbEntity
  8
0
  6
HIDDEN
 62
     7
370
     0
100
AcDbLine
 10
199.7253790121
 20
90.722738744
 30
0.0
 11
199.7253790121
 21
93.8767186352
 31
0.0
  0
SPLINE
  5
122
330
1F
100
AcDbEntity
  8
0
  6
HIDDEN
 62
     7
370
     0
100
AcDbSpline
210
0.0
220
0.0
230
1.0
 70
     8
 71
     3
 72
    22
 73
    18
 74
     0
 42
0.000000001
 43
0.00000001
 40
0.0
 40
0.0
 40
0.0
 40
0.0
 40
0.069470503305567
 40
0.1409377255045836
 40
0.2104135489148408
 40
0.2819466223559928
 40
0.350651873399851
 40
0.4213897814436841
 40
0.4894670043894696
 40
0.559481094034849
 40
0.6282706827033762
 40
0.6989997382187421
 40
0.7687375408512293
 40
0.8405098102584768
 40
0.9099666189318133
 40
0.9814998892127893
 40
1.0
 40
1.0
 40
1.0
 40
1.0
 10
128.0303810136964
 20
93.20573146191569
 30
0.0
 10
127.882207159237
 20
93.225457801725
 30
0.0
 10
127.5816006423259
 20
93.26547745514578
 30
0.0
 10
127.0467057796451
 20
93.32085111867563
 30
0.0
 10
126.4610672269764
 20
93.36530750380345
 30
0.0
 10
125.846834567403
 20
93.39299247925562
 30
0.0
 10
125.2129179220348
 20
93.40124573272549
 30
0.0
 10
124.590769221463
 20
93.38926567784502
 30
0.0
 10
123.9847717516023
 20
93.35851492408403
 30
0.0
 10
123.4202828304758
 20
93.31304895333383
 30
0.0
 10
122.9009065928942
 20
93.25696780153424
 30
0.0
 10
122.4480410952127
 20
93.19697763921585
 30
0.0
 10
122.0693259515471
 20
93.13899772485694
 30
0.0
 10
121.7812408304719
 20
93.09007891671043
 30
0.0
 10
121.5987829339193
 20
93.05704355418467
 30
0.0
 10
121.5181249825852
 20
93.04190375792903
 30
0.0
 10
121.5324148612841
 20
93.04457571130203
 30
0.0
 10
121.5353511537562
 20
93.04512474581382
 30
0.0
  0
SPLINE
  5
123
330
1F
100
AcDbEntity
  8
0
  6
HIDDEN
 62
     7
370
     0
100
AcDbSpline
210
0.0
220
0.0
230
1.0
 70
     8
 71
     3
 72
    30
 73
    26
 74
     0
 42
0.000000001
 43
0.00000001
 40
0.0
 40
0.0
 40
0.0
 40
0.0
 40
0.0156161600804325
 40
0.0849748372628069
 40
0.1203204532886731
 40
0.1543185190912384
 40
0.2234436946573996
 40
0.2586467089786588
 40
0.2931107206686993
 40
0.3631864361325585
 40
0.3988795186727309
 40
0.4336750628309705
 40
0.4687145712104791
 40
0.5045294144990524
 40
0.5406151111978512
 40
0.5750767863722897
 40
0.6452033649630255
 40
0.6809575734718839
 40
0.7149323277721665
 40
0.7840330582955248
 40
0.8192378401372464
 40
0.8533347063218388
 40
0.9226550151093973
 40
0.9579547149334466
 40
1.0
 40
1.0
 40
1.0
 40
1.0
 10
121.5284963932804
 20
133.04267566984
 30
0.0
 10
121.5278986541953
 20
133.0427879227217
 30
0.0
 10
121.5246460760186
 20
133.043398743199
 30
0.0
 10
121.5749669784669
 20
133.0339396087419
 30
0.0
 10
121.6752720075082
 20
133.0156347726457
 30
0.0
 10
121.8098889955779
 20
132.991651467272
 30
0.0
 10
121.991947640608
 20
132.9605526731255
 30
0.0
 10
122.2188702142733
 20
132.9246335290832
 30
0.0
 10
122.4754566196506
 20
132.8863145079441
 30
0.0
 10
122.7734932781233
 20
132.8460693726359
 30
0.0
 10
123.1060425321231
 20
132.8074083492335
 30
0.0
 10
123.3712402375273
 20
132.7800056905023
 30
0.0
 10
123.6502980627863
 20
132.7549608538901
 30
0.0
 10
123.9447490786804
 20
132.7327931565946
 30
0.0
 10
124.2476140119967
 20
132.7146310693246
 30
0.0
 10
124.6579999988654
 20
132.6963729643302
 30
0.0
 10
125.0788408378203
 20
132.6875257303258
 30
0.0
 10
125.4987447550492
 20
132.6889911247669
 30
0.0
 10
125.9133592759029
 20
132.6970345179342
 30
0.0
 10
126.3195803953788
 20
132.7145413035335
 30
0.0
 10
126.7091108951007
 20
132.7401066165614
 30
0.0
 10
127.0859315963391
 20
132.7702908522755
 30
0.0
 10
127.4390687560431
 20
132.806188427123
 30
0.0
 10
127.7808202438647
 20
132.8470067049817
 30
0.0
 10
127.9424940048742
 20
132.8688916185481
 30
0.0
 10
128.0303810136964
 20
132.8807884135486
 30
0.0
  0
SPLINE
  5
124
330
1F
100
AcDbEntity
  8
0
  6
HIDDEN
 62
     7
370
     0
100
AcDbSpline
210
0.0
220
0.0
230
1.0
 70
     8
 71
     3
 72
    12
 73
     8
 74
     0
 42
0.000000001
 43
0.00000001
 40
0.0
 40
0.0
 40
0.0
 40
0.0
 40
0.2208178710403899
 40
0.4480881453820791
 40
0.6689403937537766
 40
0.8961332740540137
 40
0.9999999999999999
 40
0.9999999999999999
 40
0.9999999999999999
 40
0.9999999999999999
 10
128.0303810136964
 20
132.8807884135486
 30
0.0
 10
128.1624242317702
 20
132.8978455015626
 30
0.0
 10
128.4303690336025
 20
132.9324580938216
 30
0.0
 10
128.725524972655
 20
132.9594300285486
 30
0.0
 10
128.9266178438996
 20
132.9749397963367
 30
0.0
 10
129.0239500394967
 20
132.9810490682559
 30
0.0
 10
129.015291067439
 20
132.9805037919891
 30
0.0
 10
129.0125743993202
 20
132.9803327168729
 30
0.0
  0
SPLINE
  5
125
330
1F
100
AcDbEntity
  8
0
  6
HIDDEN
 62
     7
370
     0
100
AcDbSpline
210
0.0
220
0.0
230
1.0
 70
     8
 71
     3
 72
    12
 73
     8
 74
     0
 42
0.000000001
 43
0.00000001
 40
0.0
 40
0.0
 40
0.0
 40
0.0
 40
0.1181061474771742
 40
0.346496879867305
 40
0.5687579636391795
 40
0.797517101101689
 40
1.0
 40
1.0
 40
1.0
 40
1.0
 10
129.0125744741724
 20
93.10618715382084
 30
0.0
 10
129.0146973558108
 20
93.10605311623331
 30
0.0
 10
129.0209254131961
 20
93.1056598800906
 30
0.0
 10
128.9162601742567
 20
93.11228316610503
 30
0.0
 10
128.7062863347239
 20
93.12868755949735
 30
0.0
 10
128.4108279207677
 20
93.15628926754567
 30
0.0
 10
128.1519384723582
 20
93.18993407366894
 30
0.0
 10
128.0303810136964
 20
93.20573146191569
 30
0.0
  0
LINE
  5
126
330
1F
100
AcDbEntity
  8
0
  6
HIDDEN
 62
     7
370
     0
100
AcDbLine
 10
115.2793536083
 20
96.0432599377
 30
0.0
 11
115.2793536083
 21
130.0432599377
 31
0.0
  0
LINE
  5
127
330
1F
100
AcDbEntity
  8
0
  6
HIDDEN
 62
     7
370
     0
100
AcDbLine
 10
195.7253790121
 20
103.8428523381
 30
0.0
 11
195.7253790121
 21
122.2436675374
 31
0.0
  0
LINE
  5
128
330
1F
100
AcDbEntity
  8
0
  6
HIDDEN
 62
     7
370
     0
100
AcDbLine
 10
141.9352049806
 20
96.0432599377
 30
0.0
 11
141.9352049806
 21
130.0432599377
 31
0.0
  0
LINE
  5
129
330
1F
100
AcDbEntity
  8
0
  6
HIDDEN
 62
     7
370
     0
100
AcDbLine
 10
144.2253790121
 20
97.3182599377
 30
0.0
 11
144.2253790121
 21
128.7682599258
 31
0.0
  0
SPLINE
  5
12A
330
1F
100
AcDbEntity
  8
0
  6
HIDDEN
 62
     7
370
     0
100
AcDbSpline
210
0.0
220
0.0
230
1.0
 70
     8
 71
     3
 72
    18
 73
    14
 74
     0
 42
0.000000001
 43
0.00000001
 40
0.0
 40
0.0
 40
0.0
 40
0.0
 40
0.2500000000000033
 40
0.2500000000000033
 40
0.3750000000000029
 40
0.3750000000000029
 40
0.5000000000000026
 40
0.5000000000000026
 40
0.6250000000000022
 40
0.6250000000000022
 40
0.7500000000000018
 40
0.7500000000000018
 40
1.0
 40
1.0
 40
1.0
 40
1.0
 10
108.4753790120948
 20
129.3307735601363
 30
0.0
 10
108.4753790120948
 20
129.2762990395841
 30
0.0
 10
108.4404683207026
 20
129.2199179802316
 30
0.0
 10
108.3384590193696
 20
129.1358411393781
 30
0.0
 10
108.2968226646915
 20
129.1085074353872
 30
0.0
 10
108.1984168692027
 20
129.0555535197882
 30
0.0
 10
108.1408736574984
 20
129.029666166071
 30
0.0
 10
108.0135754839255
 20
128.9818886212378
 30
0.0
 10
107.943988179168
 20
128.9599407030599
 30
0.0
 10
107.792553934013
 20
128.9205081381472
 30
0.0
 10
107.7098700309191
 20
128.9029518889213
 30
0.0
 10
107.4537585688811
 20
128.8605131235008
 30
0.0
 10
107.2658435649931
 20
128.8447503737638
 30
0.0
 10
107.0753790120948
 20
128.8447503737638
 30
0.0
  0
LINE
  5
12B
330
1F
100
AcDbEntity
  8
0
  6
HIDDEN
 62
     7
370
     0
100
AcDbLine
 10
107.0753790121
 20
128.8447503738
 30
0.0
 11
103.5253790121
 21
128.8447503738
 31
0.0
  0
LINE
  5
12C
330
1F
100
AcDbEntity
  8
0
  6
HIDDEN
 62
     7
370
     0
100
AcDbLine
 10
103.5253790121
 20
97.2417695017
 30
0.0
 11
111.0753790121
 21
97.2417695017
 31
0.0
  0
SPLINE
  5
12D
330
1F
100
AcDbEntity
  8
0
  6
HIDDEN
 62
     7
370
     0
100
AcDbSpline
210
0.0
220
0.0
230
1.0
 70
     8
 71
     3
 72
    16
 73
    12
 74
     0
 42
0.000000001
 43
0.00000001
 40
0.0
 40
0.0
 40
0.0
 40
0.0
 40
0.124999999999998
 40
0.124999999999998
 40
0.249999999999996
 40
0.249999999999996
 40
0.4999999999999973
 40
0.4999999999999973
 40
0.7499999999999987
 40
0.7499999999999987
 40
1.0
 40
1.0
 40
1.0
 40
1.0
 10
111.0753790120948
 20
97.24176950170049
 30
0.0
 10
111.1705007667606
 20
97.24176950170049
 30
0.0
 10
111.2638308354887
 20
97.23795366830768
 30
0.0
 10
111.4470925962267
 20
97.22318311557787
 30
0.0
 10
111.5379703117837
 20
97.2120250676023
 30
0.0
 10
111.7947720093034
 20
97.16955379746058
 30
0.0
 10
111.9498393741754
 20
97.12850760025778
 30
0.0
 10
112.2035858357301
 20
97.03336148367589
 30
0.0
 10
112.3044562873979
 20
96.9785987495943
 30
0.0
 10
112.4397027020927
 20
96.86733762569044
 30
0.0
 10
112.4753790120948
 20
96.81016788836175
 30
0.0
 10
112.4753790120948
 20
96.75574631532801
 30
0.0
  0
LINE
  5
12E
330
1F
100
AcDbEntity
  8
0
  6
HIDDEN
 62
     7
370
     0
100
AcDbLine
 10
103.5253790121
 20
97.2417695017
 30
0.0
 11
103.5253790121
 21
128.8447503738
 31
0.0
  0
LINE
  5
12F
330
1F
100
AcDbEntity
  8
0
  6
HIDDEN
 62
     7
370
     0
100
AcDbLine
 10
195.7253790121
 20
127.0432599377
 30
0.0
 11
195.7253790121
 21
122.2436675374
 31
0.0
  0
LINE
  5
130
330
1F
100
AcDbEntity
  8
0
  6
HIDDEN
 62
     7
370
     0
100
AcDbLine
 10
195.7253790121
 20
122.2436675374
 30
0.0
 11
199.7253790121
 21
122.2436675374
 31
0.0
  0
LINE
  5
131
330
1F
100
AcDbEntity
  8
0
  6
HIDDEN
 62
     7
370
     0
100
AcDbLine
 10
199.7253790121
 20
132.2098012403
 30
0.0
 11
199.7253790121
 21
132.0699976259
 31
0.0
  0
LINE
  5
132
330
1F
100
AcDbEntity
  8
0
  6
HIDDEN
 62
     7
370
     0
100
AcDbLine
 10
195.7253790121
 20
132.0699976259
 30
0.0
 11
199.7253790121
 21
132.0699976259
 31
0.0
  0
LINE
  5
133
330
1F
100
AcDbEntity
  8
0
  6
HIDDEN
 62
     7
370
     0
100
AcDbLine
 10
195.7253790121
 20
132.2432599377
 30
0.0
 11
195.7253790121
 21
127.0432599377
 31
0.0
  0
LINE
  5
134
330
1F
100
AcDbEntity
  8
0
  6
HIDDEN
 62
     7
370
     0
100
AcDbLine
 10
195.7253790121
 20
103.8428523381
 30
0.0
 11
195.7253790121
 21
99.0432599377
 31
0.0
  0
LINE
  5
135
330
1F
100
AcDbEntity
  8
0
  6
HIDDEN
 62
     7
370
     0
100
AcDbLine
 10
199.7253790121
 20
103.8428523381
 30
0.0
 11
195.7253790121
 21
103.8428523381
 31
0.0
  0
LINE
  5
136
330
1F
100
AcDbEntity
  8
0
  6
HIDDEN
 62
     7
370
     0
100
AcDbLine
 10
195.7253790121
 20
94.0165222495
 30
0.0
 11
199.7253790121
 21
94.0165222495
 31
0.0
  0
LINE
  5
137
330
1F
100
AcDbEntity
  8
0
  6
HIDDEN
 62
     7
370
     0
100
AcDbLine
 10
199.7253790121
 20
94.0165222495
 30
0.0
 11
199.7253790121
 21
93.8767186352
 31
0.0
  0
LINE
  5
138
330
1F
100
AcDbEntity
  8
0
  6
HIDDEN
 62
     7
370
     0
100
AcDbLine
 10
195.7253790121
 20
99.0432599377
 30
0.0
 11
195.7253790121
 21
93.8432599377
 31
0.0
  0
LINE
  5
139
330
1F
100
AcDbEntity
  8
0
  6
HIDDEN
 62
     7
370
     0
100
AcDbLine
 10
194.5253790121
 20
98.0432599377
 30
0.0
 11
194.5253790121
 21
128.0432599377
 31
0.0
  0
LINE
  5
13A
330
1F
100
AcDbEntity
  8
0
  6
HIDDEN
 62
     7
370
     0
100
AcDbLine
 10
169.2753790121
 20
98.3432599377
 30
0.0
 11
169.2753790121
 21
127.7432599377
 31
0.0
  0
LINE
  5
13B
330
1F
100
AcDbEntity
  8
0
  6
HIDDEN
 62
     7
370
     0
100
AcDbLine
 10
171.7753790121
 20
98.0432599377
 30
0.0
 11
171.7753790121
 21
128.0432599377
 31
0.0
  0
LINE
  5
13C
330
1F
100
AcDbEntity
  8
0
  6
HIDDEN
 62
     7
370
     0
100
AcDbLine
 10
103.5253790121
 20
95.0532599377
 30
0.0
 11
103.5253790121
 21
92.1733221723
 31
0.0
  0
LINE
  5
13D
330
1F
100
AcDbEntity
  8
0
  6
HIDDEN
 62
     7
370
     0
100
AcDbLine
 10
112.4753790121
 20
95.0532599377
 30
0.0
 11
112.4753790121
 21
91.0795224065
 31
0.0
  0
LINE
  5
13E
330
1F
100
AcDbEntity
  8
0
  6
HIDDEN
 62
     7
370
     0
100
AcDbLine
 10
103.5253790121
 20
131.0332599377
 30
0.0
 11
103.5253790121
 21
133.9131977031
 31
0.0
  0
LINE
  5
13F
330
1F
100
AcDbEntity
  8
0
  6
HIDDEN
 62
     7
370
     0
100
AcDbLine
 10
108.4753790121
 20
131.0332599377
 30
0.0
 11
108.4753790121
 21
134.8873676101
 31
0.0
  0
LINE
  5
140
330
1F
100
AcDbEntity
  8
0
  6
HIDDEN
 62
     7
370
     0
100
AcDbLine
 10
195.7253790121
 20
134.3182599377
 30
0.0
 11
195.7253790121
 21
132.2432599377
 31
0.0
  0
LINE
  5
141
330
1F
100
AcDbEntity
  8
0
  6
HIDDEN
 62
     7
370
     0
100
AcDbLine
 10
195.7253790121
 20
93.8432599377
 30
0.0
 11
195.7253790121
 21
91.7682599377
 31
0.0
  0
LINE
  5
142
330
1F
100
AcDbEntity
  8
0
  6
HIDDEN
 62
     7
370
     0
100
AcDbLine
 10
156.0753790121
 20
103.5432599377
 30
0.0
 11
156.0753790121
 21
122.5432599377
 31
0.0
  0
LINE
  5
143
330
1F
100
AcDbEntity
  8
0
  6
HIDDEN
 62
     7
370
     0
100
AcDbLine
 10
153.5753790121
 20
103.5432599377
 30
0.0
 11
153.5753790121
 21
122.5432599377
 31
0.0
  0
LINE
  5
144
330
1F
100
AcDbEntity
  8
0
  6
HIDDEN
 62
     7
370
     0
100
AcDbLine
 10
144.7253790121
 20
104.5432599377
 30
0.0
 11
144.7253790121
 21
121.5432599377
 31
0.0
  0
LINE
  5
145
330
1F
100
AcDbEntity
  8
0
  6
HIDDEN
 62
     7
370
     0
100
AcDbLine
 10
139.2253790121
 20
81.5591369549
 30
0.0
 11
139.2253790121
 21
86.6432599377
 31
0.0
  0
LINE
  5
146
330
1F
100
AcDbEntity
  8
0
  6
HIDDEN
 62
     7
370
     0
100
AcDbLine
 10
147.2253790121
 20
86.6432599377
 30
0.0
 11
139.2253790121
 21
86.6432599377
 31
0.0
  0
LINE
  5
147
330
1F
100
AcDbEntity
  8
0
  6
HIDDEN
 62
     7
370
     0
100
AcDbLine
 10
150.4630538144
 20
86.6432599377
 30
0.0
 11
147.2253790121
 21
86.6432599377
 31
0.0
  0
LINE
  5
148
330
1F
100
AcDbEntity
  8
0
  6
HIDDEN
 62
     7
370
     0
100
AcDbLine
 10
160.2253790121
 20
86.6432599377
 30
0.0
 11
154.0877042098
 21
86.6432599377
 31
0.0
  0
LINE
  5
149
330
1F
100
AcDbEntity
  8
0
  6
HIDDEN
 62
     7
370
     0
100
AcDbLine
 10
160.2253790121
 20
139.4432599377
 30
0.0
 11
153.7910814804
 21
139.4432599377
 31
0.0
  0
LINE
  5
14A
330
1F
100
AcDbEntity
  8
0
  6
HIDDEN
 62
     7
370
     0
100
AcDbLine
 10
150.7596765438
 20
139.4432599377
 30
0.0
 11
147.2253790121
 21
139.4432599377
 31
0.0
  0
LINE
  5
14B
330
1F
100
AcDbEntity
  8
0
  6
HIDDEN
 62
     7
370
     0
100
AcDbLine
 10
147.2253790121
 20
139.4432599377
 30
0.0
 11
139.2253790121
 21
139.4432599377
 31
0.0
  0
ELLIPSE
  5
14C
330
1F
100
AcDbEntity
  8
0
  6
HIDDEN
 62
     7
370
     0
100
AcDbEllipse
 10
98.2079471478
 20
113.0432599377
 30
0.0
 11
20.07002071827083
 21
-1.421085471520200E-14
 31
0.0
210
0.0
220
0.0
230
1.0
 40
0.8164965809
 41
4.921555463185716
 42
4.980534842098416
  0
ELLIPSE
  5
14D
330
1F
100
AcDbEntity
  8
0
  6
HIDDEN
 62
     7
370
     0
100
AcDbEllipse
 10
98.2079471478
 20
113.0432599377
 30
0.0
 11
20.07002071827083
 21
-1.421085471520200E-14
 31
0.0
210
0.0
220
0.0
230
1.0
 40
0.8164965809
 41
1.302650465081183
 42
1.361629843993883
  0
LINE
  5
14E
330
1F
100
AcDbEntity
  8
0
  6
HIDDEN
 62
     7
370
     0
100
AcDbLine
 10
103.5253790121
 20
95.0532599377
 30
0.0
 11
103.5253790121
 21
97.2417695017
 31
0.0
  0
LINE
  5
14F
330
1F
100
AcDbEntity
  8
0
  6
HIDDEN
 62
     7
370
     0
100
AcDbLine
 10
112.4753790121
 20
95.0532599377
 30
0.0
 11
112.4753790121
 21
96.7557463153
 31
0.0
  0
LINE
  5
150
330
1F
100
AcDbEntity
  8
0
  6
HIDDEN
 62
     7
370
     0
100
AcDbLine
 10
103.5253790121
 20
131.0332599377
 30
0.0
 11
103.5253790121
 21
128.8447503738
 31
0.0
  0
LINE
  5
151
330
1F
100
AcDbEntity
  8
0
  6
HIDDEN
 62
     7
370
     0
100
AcDbLine
 10
108.4753790121
 20
131.0332599377
 30
0.0
 11
108.4753790121
 21
129.3307735601
 31
0.0
  0
SPLINE
  5
152
330
1F
100
AcDbEntity
  8
0
  6
HIDDEN
 62
     7
370
     0
100
AcDbSpline
210
0.0
220
0.0
230
1.0
 70
     8
 71
     3
 72
    27
 73
    23
 74
     0
 42
0.000000001
 43
0.00000001
 40
0.0
 40
0.0
 40
0.0
 40
0.0
 40
0.0524825190635993
 40
0.11184978722742
 40
0.1772485069438353
 40
0.2122813443267824
 40
0.248849629167373
 40
0.3294488276580628
 40
0.3980943016874356
 40
0.4372430095347233
 40
0.4710662718169941
 40
0.4995732501101505
 40
0.5540668524410062
 40
0.6138067450400478
 40
0.6788525727472089
 40
0.7134312283599735
 40
0.7493582590684285
 40
0.8293560442293194
 40
0.8976733858925928
 40
0.9542964592340576
 40
0.9992225707357162
 40
1.0
 40
1.0
 40
1.0
 40
1.0
 10
129.0244703448503
 20
89.44322300957818
 30
0.0
 10
129.0148346146993
 20
89.44633269687407
 30
0.0
 10
128.9942991223793
 20
89.45296000571126
 30
0.0
 10
128.8078927490811
 20
89.50274148729963
 30
0.0
 10
128.5329976988323
 20
89.56645106053007
 30
0.0
 10
128.2248529826057
 20
89.63233927475272
 30
0.0
 10
127.8317323036919
 20
89.71482217723407
 30
0.0
 10
127.2553682459837
 20
89.8171773775547
 30
0.0
 10
126.5821553543245
 20
89.90971943639254
 30
0.0
 10
126.0462989187413
 20
89.97130205029082
 30
0.0
 10
125.6525636994882
 20
90.00951535481036
 30
0.0
 10
125.1943858198271
 20
90.04333881663469
 30
0.0
 10
124.6319760006687
 20
90.06291664194121
 30
0.0
 10
123.9466318797711
 20
90.06384467238341
 30
0.0
 10
123.3799604244415
 20
90.04565677764722
 30
0.0
 10
122.9438717943684
 20
90.02080402785425
 30
0.0
 10
122.5004256762248
 20
89.98482065575287
 30
0.0
 10
122.0503343359529
 20
89.93933922768866
 30
0.0
 10
121.7085214915733
 20
89.89748633623071
 30
0.0
 10
121.5627643911424
 20
89.87386630805983
 30
0.0
 10
121.5133406443806
 20
89.86204430555344
 30
0.0
 10
121.5258130886333
 20
89.86473386592102
 30
0.0
 10
121.5260252481946
 20
89.86477961605118
 30
0.0
  0
SPLINE
  5
153
330
1F
100
AcDbEntity
  8
0
  6
HIDDEN
 62
     7
370
     0
100
AcDbSpline
210
0.0
220
0.0
230
1.0
 70
     8
 71
     3
 72
    27
 73
    23
 74
     0
 42
0.000000001
 43
0.00000001
 40
0.0
 40
0.0
 40
0.0
 40
0.0
 40
0.0008205067697123
 40
0.0457035623978645
 40
0.10228553708518
 40
0.1705637025949088
 40
0.2091553245130649
 40
0.2506824549420978
 40
0.3211286014898356
 40
0.3862225883271163
 40
0.4267018411203062
 40
0.4648331443260743
 40
0.500637458548846
 40
0.545229725507061
 40
0.6017242765114972
 40
0.6701303400586592
 40
0.7088676372096442
 40
0.7505962984401784
 40
0.8222613438259578
 40
0.8878012994561424
 40
0.9472756564733258
 40
0.9999999999999999
 40
0.9999999999999999
 40
0.9999999999999999
 40
0.9999999999999999
 10
121.5260571482462
 20
136.2216724328474
 30
0.0
 10
121.5258314591021
 20
136.2217210841662
 30
0.0
 10
121.5132602064839
 20
136.2244310417987
 30
0.0
 10
121.5623318312423
 20
136.2126000315019
 30
0.0
 10
121.7074393304349
 20
136.1891550569903
 30
0.0
 10
121.9804878497165
 20
136.1552514366779
 30
0.0
 10
122.3090115905239
 20
136.1216827255406
 30
0.0
 10
122.7017366938722
 20
136.0834994186379
 30
0.0
 10
123.2514626646875
 20
136.0445305443075
 30
0.0
 10
123.8774846672479
 20
136.0250690111218
 30
0.0
 10
124.4206753660442
 20
136.0228828927104
 30
0.0
 10
124.8657431616958
 20
136.03139733836
 30
0.0
 10
125.3321915856354
 20
136.051180333303
 30
0.0
 10
125.8694339429778
 20
136.0953422838651
 30
0.0
 10
126.5176493444606
 20
136.1677575746948
 30
0.0
 10
127.1031883112158
 20
136.2486593799013
 30
0.0
 10
127.5841575893754
 20
136.3268250680545
 30
0.0
 10
128.0295737177815
 20
136.4115971749967
 30
0.0
 10
128.4680771549043
 20
136.505380624335
 30
0.0
 10
128.8071047915985
 20
136.5832845046137
 30
0.0
 10
128.9944367191127
 20
136.6334734637164
 30
0.0
 10
129.0149262499731
 20
136.6401400228127
 30
0.0
 10
129.0245546775623
 20
136.643272768114
 30
0.0
  0
LINE
  5
154
330
1F
100
AcDbEntity
  8
0
  6
HIDDEN
 62
     7
370
     0
100
AcDbLine
 10
150.3653790121
 20
133.1791265692
 30
0.0
 11
150.3653790121
 21
132.8932599377
 31
0.0
  0
LINE
  5
155
330
1F
100
AcDbEntity
  8
0
  6
HIDDEN
 62
     7
370
     0
100
AcDbLine
 10
154.1853790121
 20
133.1791265692
 30
0.0
 11
154.1853790121
 21
132.8932599377
 31
0.0
  0
LINE
  5
156
330
1F
100
AcDbEntity
  8
0
  6
HIDDEN
 62
     7
370
     0
100
AcDbLine
 10
155.6673118436
 20
137.5019496001
 30
0.0
 11
155.6673118436
 21
132.8932599377
 31
0.0
  0
CIRCLE
  5
157
330
1F
100
AcDbEntity
  8
0
  6
HIDDEN
 62
     7
370
     0
100
AcDbCircle
 10
141.2753790121
 20
113.0432599377
 30
0.0
 40
5.0
  0
LINE
  5
158
330
1F
100
AcDbEntity
  8
0
  6
HIDDEN
 62
     7
370
     0
100
AcDbLine
 10
134.2753790121
 20
87.7243388118
 30
0.0
 11
134.3695397876
 21
88.394327543
 31
0.0
  0
LINE
  5
159
330
1F
100
AcDbEntity
  8
0
  6
HIDDEN
 62
     7
370
     0
100
AcDbLine
 10
134.3695397876
 20
137.6921923324
 30
0.0
 11
134.2753790121
 21
138.3621810637
 31
0.0
  0
ARC
  5
15A
330
1F
100
AcDbEntity
  8
0
  6
HIDDEN
 62
     7
370
     0
100
AcDbCircle
 10
133.7753722594
 20
88.4778323434
 30
0.0
 40
0.6000067526677363
100
AcDbArc
 50
352.0
 51
0.0
  0
ARC
  5
15B
330
1F
100
AcDbEntity
  8
0
  6
HIDDEN
 62
     7
370
     0
100
AcDbCircle
 10
133.7753722594
 20
88.4778323434
 30
0.0
 40
0.6000067526677282
100
AcDbArc
 50
0.0
 51
33.5571153394
  0
ARC
  5
15C
330
1F
100
AcDbEntity
  8
0
  6
HIDDEN
 62
     7
370
     0
100
AcDbCircle
 10
133.7753722594
 20
137.6086875321
 30
0.0
 40
0.6000067526677363
100
AcDbArc
 50
348.75
 51
8.0
  0
LWPOLYLINE
  5
15D
330
1F
100
AcDbEntity
  8
0
  6
HIDDEN
 62
     7
370
     0
100
AcDbPolyline
 90
        3
 70
   128
 43
0.0
 10
134.3638500506
 20
137.4916320215
 10
134.3297062176
 20
137.3790748885
 10
134.2753790121
 20
137.277023017
  0
LINE
  5
15E
330
1F
100
AcDbEntity
  8
0
  6
HIDDEN
 62
     7
370
     0
100
AcDbLine
 10
134.3753790121
 20
88.4778323434
 30
0.0
 11
134.3753790121
 21
137.6086875321
 31
0.0
  0
LINE
  5
15F
330
1F
100
AcDbEntity
  8
0
  6
HIDDEN
 62
     7
370
     0
100
AcDbLine
 10
200.2753790121
 20
136.5432599377
 30
0.0
 11
199.7253790121
 21
135.3637811315
 31
0.0
  0
LINE
  5
160
330
1F
100
AcDbEntity
  8
0
  6
HIDDEN
 62
     7
370
     0
100
AcDbLine
 10
199.7253790121
 20
90.722738744
 30
0.0
 11
200.2753790121
 21
89.5432599377
 31
0.0
  0
ARC
  5
161
330
1F
100
AcDbEntity
  8
0
  6
HIDDEN
 62
     7
370
     0
100
AcDbCircle
 10
117.3578145774
 20
93.6432599377
 30
0.0
 40
0.6000000000000085
100
AcDbArc
 50
210.0
 51
270.0
  0
ARC
  5
162
330
1F
100
AcDbEntity
  8
0
  6
HIDDEN
 62
     7
370
     0
100
AcDbCircle
 10
117.3578145774
 20
132.4432599377
 30
0.0
 40
0.6000000000000227
100
AcDbArc
 50
90.0
 51
150.0
  0
LINE
  5
163
330
1F
100
AcDbEntity
  8
0
  6
HIDDEN
 62
     7
370
     0
100
AcDbLine
 10
117.3578145774
 20
93.0432599377
 30
0.0
 11
121.5353511538
 21
93.0432599377
 31
0.0
  0
LINE
  5
164
330
1F
100
AcDbEntity
  8
0
  6
HIDDEN
 62
     7
370
     0
100
AcDbLine
 10
121.5284963933
 20
133.0432599377
 30
0.0
 11
117.3578145774
 21
133.0432599377
 31
0.0
  0
ARC
  5
165
330
1F
100
AcDbEntity
  8
0
  6
HIDDEN
 62
     7
370
     0
100
AcDbCircle
 10
128.0303810137
 20
101.0432599377
 30
0.0
 40
8.000000000000016
100
AcDbArc
 50
277.0570847982
 51
321.3178125465
  0
ARC
  5
166
330
1F
100
AcDbEntity
  8
0
  6
HIDDEN
 62
     7
370
     0
100
AcDbCircle
 10
128.0303810137
 20
125.0432599377
 30
0.0
 40
7.999999999999999
100
AcDbArc
 50
38.6821874535
 51
82.9497698451
  0
LINE
  5
167
330
1F
100
AcDbEntity
  8
0
  6
HIDDEN
 62
     7
370
     0
100
AcDbLine
 10
116.8381993351
 20
132.7432599377
 30
0.0
 11
115.2793536083
 21
130.0432599377
 31
0.0
  0
LINE
  5
168
330
1F
100
AcDbEntity
  8
0
  6
HIDDEN
 62
     7
370
     0
100
AcDbLine
 10
115.2793536083
 20
96.0432599377
 30
0.0
 11
116.8381993351
 21
93.3432599377
 31
0.0
  0
ARC
  5
169
330
1F
100
AcDbEntity
  8
0
  6
HIDDEN
 62
     7
370
     0
100
AcDbCircle
 10
142.7253790121
 20
97.3182599377
 30
0.0
 40
1.500000000000001
100
AcDbArc
 50
238.2116693829
 51
0.0
  0
ARC
  5
16A
330
1F
100
AcDbEntity
  8
0
  6
HIDDEN
 62
     7
370
     0
100
AcDbCircle
 10
142.7253790121
 20
128.7682599377
 30
0.0
 40
1.500000000000001
100
AcDbArc
 50
0.0
 51
121.7883306171
  0
LINE
  5
16B
330
1F
100
AcDbEntity
  8
0
  6
HIDDEN
 62
     7
370
     0
100
AcDbLine
 10
112.4753790121
 20
96.0432599377
 30
0.0
 11
115.2793536083
 21
96.0432599377
 31
0.0
  0
LINE
  5
16C
330
1F
100
AcDbEntity
  8
0
  6
HIDDEN
 62
     7
370
     0
100
AcDbLine
 10
115.2793536083
 20
130.0432599377
 30
0.0
 11
108.4753790121
 21
130.0432599377
 31
0.0
  0
LINE
  5
16D
330
1F
100
AcDbEntity
  8
0
  6
HIDDEN
 62
     7
370
     0
100
AcDbLine
 10
134.2753790121
 20
96.0432599377
 30
0.0
 11
141.9352049806
 21
96.0432599377
 31
0.0
  0
LINE
  5
16E
330
1F
100
AcDbEntity
  8
0
  6
HIDDEN
 62
     7
370
     0
100
AcDbLine
 10
141.9352049806
 20
130.0432599377
 30
0.0
 11
134.2753790121
 21
130.0432599377
 31
0.0
  0
LINE
  5
16F
330
1F
100
AcDbEntity
  8
0
  6
HIDDEN
 62
     7
370
     0
100
AcDbLine
 10
199.7253790121
 20
132.2432599377
 30
0.0
 11
195.7253790121
 21
132.2432599377
 31
0.0
  0
LINE
  5
170
330
1F
100
AcDbEntity
  8
0
  6
HIDDEN
 62
     7
370
     0
100
AcDbLine
 10
195.7253790121
 20
93.8432599377
 30
0.0
 11
199.7253790121
 21
93.8432599377
 31
0.0
  0
LINE
  5
171
330
1F
100
AcDbEntity
  8
0
  6
HIDDEN
 62
     7
370
     0
100
AcDbLine
 10
195.7253790121
 20
128.7360802608
 30
0.0
 11
194.5253790121
 21
128.0432599377
 31
0.0
  0
LINE
  5
172
330
1F
100
AcDbEntity
  8
0
  6
HIDDEN
 62
     7
370
     0
100
AcDbLine
 10
194.5253790121
 20
98.0432599377
 30
0.0
 11
195.7253790121
 21
97.3504396147
 31
0.0
  0
ARC
  5
173
330
1F
100
AcDbEntity
  8
0
  6
HIDDEN
 62
     7
370
     0
100
AcDbCircle
 10
169.8753790121
 20
98.3432599377
 30
0.0
 40
0.6000000000000227
100
AcDbArc
 50
180.0
 51
270.0
  0
ARC
  5
174
330
1F
100
AcDbEntity
  8
0
  6
HIDDEN
 62
     7
370
     0
100
AcDbCircle
 10
169.8753790121
 20
127.7432599377
 30
0.0
 40
0.600000000000037
100
AcDbArc
 50
90.0
 51
180.0
  0
ARC
  5
175
330
1F
100
AcDbEntity
  8
0
  6
HIDDEN
 62
     7
370
     0
100
AcDbCircle
 10
170.5767722713
 20
98.3432599377
 30
0.0
 40
0.6000000000000008
100
AcDbArc
 50
270.0
 51
285.0
  0
ARC
  5
176
330
1F
100
AcDbEntity
  8
0
  6
HIDDEN
 62
     7
370
     0
100
AcDbCircle
 10
170.5767722713
 20
127.7432599377
 30
0.0
 40
0.6000000000000419
100
AcDbArc
 50
75.0
 51
90.0
  0
LINE
  5
177
330
1F
100
AcDbEntity
  8
0
  6
HIDDEN
 62
     7
370
     0
100
AcDbLine
 10
169.8753790121
 20
97.7432599377
 30
0.0
 11
170.5767722713
 21
97.7432599377
 31
0.0
  0
LINE
  5
178
330
1F
100
AcDbEntity
  8
0
  6
HIDDEN
 62
     7
370
     0
100
AcDbLine
 10
170.5767722713
 20
128.3432599377
 30
0.0
 11
169.8753790121
 21
128.3432599377
 31
0.0
  0
LINE
  5
179
330
1F
100
AcDbEntity
  8
0
  6
HIDDEN
 62
     7
370
     0
100
AcDbLine
 10
170.7320636983
 20
97.763704442
 30
0.0
 11
171.7753790121
 21
98.0432599377
 31
0.0
  0
LINE
  5
17A
330
1F
100
AcDbEntity
  8
0
  6
HIDDEN
 62
     7
370
     0
100
AcDbLine
 10
171.7753790121
 20
128.0432599377
 30
0.0
 11
170.7320636983
 21
128.3228154335
 31
0.0
  0
LINE
  5
17B
330
1F
100
AcDbEntity
  8
0
  6
HIDDEN
 62
     7
370
     0
100
AcDbLine
 10
171.7753790121
 20
98.0432599377
 30
0.0
 11
194.5253790121
 21
98.0432599377
 31
0.0
  0
LINE
  5
17C
330
1F
100
AcDbEntity
  8
0
  6
HIDDEN
 62
     7
370
     0
100
AcDbLine
 10
194.5253790121
 20
128.0432599377
 30
0.0
 11
171.7753790121
 21
128.0432599377
 31
0.0
  0
LINE
  5
17D
330
1F
100
AcDbEntity
  8
0
  6
HIDDEN
 62
     7
370
     0
100
AcDbLine
 10
199.7253790121
 20
134.3182599377
 30
0.0
 11
195.7253790121
 21
134.3182599377
 31
0.0
  0
LINE
  5
17E
330
1F
100
AcDbEntity
  8
0
  6
HIDDEN
 62
     7
370
     0
100
AcDbLine
 10
195.7253790121
 20
91.7682599377
 30
0.0
 11
199.7253790121
 21
91.7682599377
 31
0.0
  0
LINE
  5
17F
330
1F
100
AcDbEntity
  8
0
  6
HIDDEN
 62
     7
370
     0
100
AcDbLine
 10
153.5753790121
 20
103.5432599377
 30
0.0
 11
156.0753790121
 21
103.5432599377
 31
0.0
  0
LINE
  5
180
330
1F
100
AcDbEntity
  8
0
  6
HIDDEN
 62
     7
370
     0
100
AcDbLine
 10
156.0753790121
 20
122.5432599377
 30
0.0
 11
153.5753790121
 21
122.5432599377
 31
0.0
  0
LINE
  5
181
330
1F
100
AcDbEntity
  8
0
  6
HIDDEN
 62
     7
370
     0
100
AcDbLine
 10
144.2253790121
 20
104.0432599377
 30
0.0
 11
144.7253790121
 21
104.5432599377
 31
0.0
  0
LINE
  5
182
330
1F
100
AcDbEntity
  8
0
  6
HIDDEN
 62
     7
370
     0
100
AcDbLine
 10
144.7253790121
 20
121.5432599377
 30
0.0
 11
144.2253790121
 21
122.0432599377
 31
0.0
  0
LINE
  5
183
330
1F
100
AcDbEntity
  8
0
  6
HIDDEN
 62
     7
370
     0
100
AcDbLine
 10
144.7253790121
 20
104.5432599377
 30
0.0
 11
153.5753790121
 21
104.5432599377
 31
0.0
  0
LINE
  5
184
330
1F
100
AcDbEntity
  8
0
  6
HIDDEN
 62
     7
370
     0
100
AcDbLine
 10
153.5753790121
 20
121.5432599377
 30
0.0
 11
144.7253790121
 21
121.5432599377
 31
0.0
  0
LINE
  5
185
330
1F
100
AcDbEntity
  8
0
  6
HIDDEN
 62
     7
370
     0
100
AcDbLine
 10
139.2253790121
 20
144.5432599377
 30
0.0
 11
139.2253790121
 21
139.4432599377
 31
0.0
  0
LINE
  5
186
330
1F
100
AcDbEntity
  8
0
  6
HIDDEN
 62
     7
370
     0
100
AcDbLine
 10
129.4598160316
 20
88.9638886459
 30
0.0
 11
129.0253846828
 21
89.4429542741
 31
0.0
  0
LINE
  5
187
330
1F
100
AcDbEntity
  8
0
  6
HIDDEN
 62
     7
370
     0
100
AcDbLine
 10
121.5253813613
 20
89.8646421485
 30
0.0
 11
121.0429484557
 21
89.3855765639
 31
0.0
  0
LINE
  5
188
330
1F
100
AcDbEntity
  8
0
  6
HIDDEN
 62
     7
370
     0
100
AcDbLine
 10
121.0428265434
 20
136.7009380196
 30
0.0
 11
121.5253764546
 21
136.2218181528
 31
0.0
  0
LINE
  5
189
330
1F
100
AcDbEntity
  8
0
  6
HIDDEN
 62
     7
370
     0
100
AcDbLine
 10
129.0253788954
 20
136.6435158494
 30
0.0
 11
129.4599204862
 21
137.1226357089
 31
0.0
  0
LINE
  5
18A
330
1F
100
AcDbEntity
  8
0
  6
HIDDEN
 62
     7
370
     0
100
AcDbLine
 10
156.0753790121
 20
108.8432599377
 30
0.0
 11
169.2753790121
 21
108.8432599377
 31
0.0
  0
LINE
  5
18B
330
1F
100
AcDbEntity
  8
0
  6
HIDDEN
 62
     7
370
     0
100
AcDbLine
 10
169.2753790121
 20
117.2432599377
 30
0.0
 11
156.0753790121
 21
117.2432599377
 31
0.0
  0
LINE
  5
18C
330
1F
100
AcDbEntity
  8
0
  6
HIDDEN
 62
     7
370
     0
100
AcDbLine
 10
129.0253790121
 20
89.4432092342
 30
0.0
 11
129.0253790121
 21
93.1061871117
 31
0.0
  0
LINE
  5
18D
330
1F
100
AcDbEntity
  8
0
  6
HIDDEN
 62
     7
370
     0
100
AcDbLine
 10
121.5253790121
 20
93.0451221833
 30
0.0
 11
121.5253790121
 21
89.8648233166
 31
0.0
  0
LINE
  5
18E
330
1F
100
AcDbEntity
  8
0
  6
HIDDEN
 62
     7
370
     0
100
AcDbLine
 10
129.0253790121
 20
132.9803327638
 30
0.0
 11
129.0253790121
 21
136.6432245521
 31
0.0
  0
LINE
  5
18F
330
1F
100
AcDbEntity
  8
0
  6
HIDDEN
 62
     7
370
     0
100
AcDbLine
 10
121.5253790121
 20
136.2216746335
 30
0.0
 11
121.5253790121
 21
133.0426756765
 31
0.0
  0
DIMENSION
  5
190
330
1F
100
AcDbEntity
  8
VERMASSUNG
100
AcDbDimension
  2
_D
 10
96.7970984064
 20
81.5432599377
 30
0.0
 11
96.7970984064
 21
113.0432599377
 31
0.0
 70
   160
  1
HSK A %%c<>
 71
     2
 42
-1.0
  3
SLDDIMSTYLE0
100
AcDbAlignedDimension
 13
134.5753790121
 23
144.5432599377
 33
0.0
 14
134.5753790121
 24
81.5432599377
 34
0.0
 50
90.0
100
AcDbRotatedDimension
  0
DIMENSION
  5
19D
330
1F
100
AcDbEntity
  8
VERMASSUNG
100
AcDbDimension
  2
_D_1
 10
134.2753790121
 20
155.9622934448
 30
0.0
 11
167.2753790121
 21
155.9622934448
 31
0.0
 70
   160
  1
<>
 71
     2
 42
-1.0
  3
SLDDIMSTYLE0
100
AcDbAlignedDimension
 13
200.2753790121
 23
140.0432599377
 33
0.0
 14
134.2753790121
 24
144.2432599377
 34
0.0
100
AcDbRotatedDimension
  0
DIMENSION
  5
1A7
330
1F
100
AcDbEntity
  8
VERMASSUNG
100
AcDbDimension
  2
_D_2
 10
160.2253790121
 20
149.9622934448
 30
0.0
 11
180.2503790121
 21
149.9622934448
 31
0.0
 70
   160
  1
<>
 71
     2
 42
-1.0
  3
SLDDIMSTYLE0
100
AcDbAlignedDimension
 13
200.2753790121
 23
140.0432599377
 33
0.0
 14
160.2253790121
 24
142.8897002615
 34
0.0
100
AcDbRotatedDimension
  0
DIMENSION
  5
1B1
330
1F
100
AcDbEntity
  8
VERMASSUNG
100
AcDbDimension
  2
_D_3
 10
102.3753790121
 20
161.9622934448
 30
0.0
 11
151.3253790121
 21
161.9622934448
 31
0.0
 70
   160
  1
<>
 71
     2
 42
-1.0
  3
SLDDIMSTYLE0
100
AcDbAlignedDimension
 13
200.2753790121
 23
140.0432599377
 33
0.0
 14
102.3753790121
 24
132.7339376842
 34
0.0
100
AcDbRotatedDimension
  0
DIMENSION
  5
1BB
330
1F
100
AcDbEntity
  8
VERMASSUNG
100
AcDbDimension
  2
_D_4
 10
208.3543356594
 20
85.5432599377
 30
0.0
 11
208.3543356594
 21
113.0432599377
 31
0.0
 70
   160
  1
MBM %%c<>
 71
     2
 42
-1.0
  3
SLDDIMSTYLE0
100
AcDbAlignedDimension
 13
199.7753790121
 23
140.5432599377
 33
0.0
 14
199.7753790121
 24
85.5432599377
 34
0.0
 50
90.0
100
AcDbRotatedDimension
  0
INSERT
  5
1CC
330
1F
100
AcDbEntity
  8
VERMASSUNG
100
AcDbBlockReference
  2
SW_NOTE_0
 10
136.5817825661
 20
71.3238848852
 30
0.0
  0
LEADER
  5
1D6
330
1F
100
AcDbEntity
  8
VERMASSUNG
100
AcDbLeader
  3
SLDDIMSTYLE1
 76
     2
 10
137.8491883208
 20
88.5512434088
 30
0.0
 10
136.5817825661
 20
71.3238848852
 30
0.0
  0
INSERT
  5
1DC
330
1F
100
AcDbEntity
  8
VERMASSUNG
100
AcDbBlockReference
  2
SW_NOTE_1
 10
183.1047992165
 20
71.5197712711
 30
0.0
  0
LEADER
  5
1DD
330
1F
100
AcDbEntity
  8
VERMASSUNG
100
AcDbLeader
  3
SLDDIMSTYLE1
 76
     2
 10
184.6087207415
 20
110.0432599377
 30
0.0
 10
183.1047992165
 20
71.5197712711
 30
0.0
  0
LINE
  5
1DE
330
1F
100
AcDbEntity
  8
VERMASSUNG
  6
CENTERX2
 62
     7
370
     0
100
AcDbLine
 10
100.2300751698
 20
113.0432599377
 30
0.0
 11
202.9306665889
 21
113.0432599377
 31
0.0
  0
LINE
  5
1DF
330
1F
100
AcDbEntity
  8
0
  6
Continuous
 62
     7
370
    15
100
AcDbLine
 10
275.3142224007
 20
63.5554422677
 30
0.0
 11
275.1374169813
 21
63.6575430415
 31
0.0
  0
LINE
  5
1E0
330
1F
100
AcDbEntity
  8
0
  6
Continuous
 62
     7
370
    15
100
AcDbLine
 10
271.2476977527
 20
63.6575430415
 30
0.0
 11
271.0708923333
 21
63.5554422677
 31
0.0
  0
LINE
  5
1E1
330
1F
100
AcDbEntity
  8
0
  6
Continuous
 62
     7
370
    15
100
AcDbLine
 10
276.192557367
 20
62.0248263133
 30
0.0
 11
276.192557367
 21
62.3310291177
 31
0.0
  0
LINE
  5
1E2
330
1F
100
AcDbEntity
  8
0
  6
Continuous
 62
     7
370
    15
100
AcDbLine
 10
270.192557367
 20
62.3310291177
 30
0.0
 11
270.192557367
 21
62.0248263133
 31
0.0
  0
LINE
  5
1E3
330
1F
100
AcDbEntity
  8
0
  6
Continuous
 62
     7
370
    15
100
AcDbLine
 10
278.16156272
 20
37.2135708881
 30
0.0
 11
278.3383106841
 21
37.3156384883
 31
0.0
  0
LINE
  5
1E4
330
1F
100
AcDbEntity
  8
0
  6
Continuous
 62
     7
370
    15
100
AcDbLine
 10
287.8827007462
 20
53.8487984053
 30
0.0
 11
287.8827007462
 21
54.0529004333
 31
0.0
  0
LINE
  5
1E5
330
1F
100
AcDbEntity
  8
0
  6
Continuous
 62
     7
370
    15
100
AcDbLine
 10
263.3193631375
 20
41.1306995249
 30
0.0
 11
271.285541218
 21
36.5319228067
 31
0.0
  0
LINE
  5
1E6
330
1F
100
AcDbEntity
  8
0
  6
Continuous
 62
     7
370
    15
100
AcDbLine
 10
285.0344237917
 20
60.3482665222
 30
0.0
 11
277.0682457112
 21
64.9470432404
 31
0.0
  0
SPLINE
  5
1E7
330
1F
100
AcDbEntity
  8
0
  6
Continuous
 62
     7
370
    15
100
AcDbSpline
210
0.0
220
0.0
230
1.0
 70
     8
 71
     3
 72
    37
 73
    33
 74
     0
 42
0.000000001
 43
0.00000001
 40
0.0
 40
0.0
 40
0.0
 40
0.0
 40
0.0184471296392619
 40
0.0523385103526459
 40
0.0862290759805815
 40
0.120234278563092
 40
0.1544496403640473
 40
0.1889173487088443
 40
0.2236272297375431
 40
0.2585334031245068
 40
0.2935761398199736
 40
0.328699196097637
 40
0.3638586674263443
 40
0.3990207207327084
 40
0.4341678271603365
 40
0.4692932764866062
 40
0.5043954003322876
 40
0.5394756163110961
 40
0.5745371369848354
 40
0.6095841707623972
 40
0.6446214549227496
 40
0.6796539996609725
 40
0.7146869583340019
 40
0.7497243065936409
 40
0.7847708471758204
 40
0.8198318727706827
 40
0.8549125968589615
 40
0.8900179711329603
 40
0.9251523359621118
 40
0.9603187965872616
 40
0.9936571925398032
 40
1.0
 40
1.0
 40
1.0
 40
1.0
 10
277.2696774116363
 20
64.81026737430639
 30
0.0
 10
277.1668710353459
 20
64.87882082249772
 30
0.0
 10
276.875187033823
 20
65.0733218331175
 30
0.0
 10
276.342689809529
 20
65.30413854909256
 30
0.0
 10
275.6831183850293
 20
65.50658456579085
 30
0.0
 10
274.9851737973411
 20
65.61968790636988
 30
0.0
 10
274.2556673372013
 20
65.64777729823838
 30
0.0
 10
273.497854319501
 20
65.58895662067741
 30
0.0
 10
272.7167185194936
 20
65.44344704523985
 30
0.0
 10
271.917637656064
 20
65.2117427223521
 30
0.0
 10
271.1065057420893
 20
64.89536034976322
 30
0.0
 10
270.2893438075427
 20
64.49665526450329
 30
0.0
 10
269.4721369452154
 20
64.0187493571446
 30
0.0
 10
268.6606833192166
 20
63.46536374076307
 30
0.0
 10
267.8605506498148
 20
62.84069274324845
 30
0.0
 10
267.0770632619885
 20
62.14929756877425
 30
0.0
 10
266.3153583595862
 20
61.39608681501846
 30
0.0
 10
265.5804113831967
 20
60.58631062004933
 30
0.0
 10
264.8770258037978
 20
59.72553974770685
 30
0.0
 10
264.2098140905704
 20
58.81964116239759
 30
0.0
 10
263.5831734848372
 20
57.87474856723168
 30
0.0
 10
263.0012596478208
 20
56.89722791007322
 30
0.0
 10
262.4679666975049
 20
55.89365046448057
 30
0.0
 10
261.9868960350253
 20
54.8707444799524
 30
0.0
 10
261.561329650074
 20
53.83534420680797
 30
0.0
 10
261.1942131045993
 20
52.79433307816154
 30
0.0
 10
260.8881310022784
 20
51.7545952221594
 30
0.0
 10
260.6453638937556
 20
50.7230153518448
 30
0.0
 10
260.4676505408791
 20
49.70629845769751
 30
0.0
 10
260.3590154894217
 20
48.72902006198587
 30
0.0
 10
260.3263549909375
 20
48.04264605277803
 30
0.0
 10
260.3248759841642
 20
47.68701342931833
 30
0.0
 10
260.3246395736124
 20
47.63016764181267
 30
0.0
  0
SPLINE
  5
1E8
330
1F
100
AcDbEntity
  8
0
  6
Continuous
 62
     7
370
    15
100
AcDbSpline
210
0.0
220
0.0
230
1.0
 70
     8
 71
     3
 72
    18
 73
    14
 74
     0
 42
0.000000001
 43
0.00000001
 40
0.0
 40
0.0
 40
0.0
 40
0.0
 40
0.053753715317398
 40
0.1556635745966737
 40
0.2576251251267337
 40
0.3594965212173896
 40
0.4611374524143029
 40
0.5623661449803483
 40
0.6629879736280383
 40
0.7628533503951808
 40
0.8619298723585156
 40
0.9603518717795027
 40
1.0
 40
1.0
 40
1.0
 40
1.0
 10
260.3246395736124
 20
47.63016764181267
 30
0.0
 10
260.3265636932098
 20
47.46499106482625
 30
0.0
 10
260.3321356863777
 20
46.98666177611518
 30
0.0
 10
260.3941393372259
 20
46.22453298230448
 30
0.0
 10
260.5333782548511
 20
45.3636124947978
 30
0.0
 10
260.7423381438513
 20
44.55474025264419
 30
0.0
 10
261.0187770789332
 20
43.80379417445455
 30
0.0
 10
261.3610542699629
 20
43.1169238663124
 30
0.0
 10
261.7664921241631
 20
42.50029144031363
 30
0.0
 10
262.2303475905503
 20
41.95708363892527
 30
0.0
 10
262.751643511236
 20
41.49784573841299
 30
0.0
 10
263.2016627680462
 20
41.17928229343663
 30
0.0
 10
263.4918039236512
 20
41.04436267046407
 30
0.0
 10
263.5751206695395
 20
41.00561923911904
 30
0.0
  0
LINE
  5
1E9
330
1F
100
AcDbEntity
  8
0
  6
Continuous
 62
     7
370
    15
100
AcDbLine
 10
258.0310275353
 20
45.0495926312
 30
0.0
 11
261.3792796885
 21
43.1166878062
 31
0.0
  0
LINE
  5
1EA
330
1F
100
AcDbEntity
  8
0
  6
Continuous
 62
     7
370
    15
100
AcDbLine
 10
274.388253574
 20
65.6281678239
 30
0.0
 11
271.0299710596
 21
67.5668630531
 31
0.0
  0
LINE
  5
1EB
330
1F
100
AcDbEntity
  8
0
  6
Continuous
 62
     7
370
    15
100
AcDbLine
 10
247.2339414186
 20
48.1072773047
 30
0.0
 11
252.2926070789
 21
45.1869717795
 31
0.0
  0
LINE
  5
1EC
330
1F
100
AcDbEntity
  8
0
  6
Continuous
 62
     7
370
    15
100
AcDbLine
 10
265.1759619624
 20
74.1216510394
 30
0.0
 11
262.9826614577
 21
75.3878164697
 31
0.0
  0
SPLINE
  5
1ED
330
1F
100
AcDbEntity
  8
0
  6
Continuous
 62
     7
370
    15
100
AcDbSpline
210
0.0
220
0.0
230
1.0
 70
     8
 71
     3
 72
    10
 73
     6
 74
     0
 42
0.000000001
 43
0.00000001
 40
0.0
 40
0.0
 40
0.0
 40
0.0
 40
0.1647113336928701
 40
0.6624501724058302
 40
1.0
 40
1.0
 40
1.0
 40
1.0
 10
244.0696959094795
 20
57.45611203366325
 30
0.0
 10
244.0529185982261
 20
57.33821797359966
 30
0.0
 10
243.9854421685041
 20
56.86406152872276
 30
0.0
 10
243.9397124585727
 20
56.17014524599134
 30
0.0
 10
243.9309689889991
 20
55.60709766560035
 30
0.0
 10
243.9274356516438
 20
55.37956361497261
 30
0.0
  0
LINE
  5
1EE
330
1F
100
AcDbEntity
  8
0
  6
Continuous
 62
     7
370
    15
100
AcDbLine
 10
255.9254060681
 20
75.0798709711
 30
0.0
 11
255.8168832834
 21
75.026321955
 31
0.0
  0
SPLINE
  5
1EF
330
1F
100
AcDbEntity
  8
0
  6
Continuous
 62
     7
370
    15
100
AcDbSpline
210
0.0
220
0.0
230
1.0
 70
     8
 71
     3
 72
     9
 73
     5
 74
     0
 42
0.000000001
 43
0.00000001
 40
0.0
 40
0.0
 40
0.0
 40
0.0
 40
0.3744769422987844
 40
1.0
 40
1.0
 40
1.0
 40
1.0
 10
243.9274356516438
 20
55.37956361497261
 30
0.0
 10
243.9288514825155
 20
55.2051693489497
 30
0.0
 10
243.9326323050756
 20
54.73946840364617
 30
0.0
 10
243.9723801366793
 20
54.29604734279303
 30
0.0
 10
243.9972433218411
 20
54.01867724495906
 30
0.0
  0
SPLINE
  5
1F0
330
1F
100
AcDbEntity
  8
0
  6
Continuous
 62
     7
370
    15
100
AcDbSpline
210
0.0
220
0.0
230
1.0
 70
     8
 71
     3
 72
    12
 73
     8
 74
     0
 42
0.000000001
 43
0.00000001
 40
0.0
 40
0.0
 40
0.0
 40
0.0
 40
0.1018207271096647
 40
0.3563284267493964
 40
0.611804233409899
 40
0.8681154156633798
 40
1.0
 40
1.0
 40
1.0
 40
1.0
 10
258.5022722400369
 20
42.26554997192835
 30
0.0
 10
258.6027123385064
 20
42.25428921356103
 30
0.0
 10
258.9542091632312
 20
42.21488143847499
 30
0.0
 10
259.5883507440444
 20
42.2369780732208
 30
0.0
 10
260.3998333833821
 20
42.3352248469667
 30
0.0
 10
261.0971673342708
 20
42.48076387124798
 30
0.0
 10
261.5263117303866
 20
42.62293086688803
 30
0.0
 10
261.6721080918444
 20
42.67123029913344
 30
0.0
  0
LINE
  5
1F1
330
1F
100
AcDbEntity
  8
0
  6
Continuous
 62
     7
370
    15
100
AcDbLine
 10
254.6910657854
 20
43.8023710403
 30
0.0
 11
256.090453853
 21
42.9945215044
 31
0.0
  0
LINE
  5
1F2
330
1F
100
AcDbEntity
  8
0
  6
Continuous
 62
     7
370
    15
100
AcDbLine
 10
255.7953684152
 20
74.9826191259
 30
0.0
 11
249.615985211
 21
78.0613582703
 31
0.0
  0
LINE
  5
1F3
330
1F
100
AcDbEntity
  8
0
  6
Continuous
 62
     7
370
    15
100
AcDbLine
 10
238.2342873978
 20
58.3455431319
 30
0.0
 11
243.9586343626
 21
54.5551183249
 31
0.0
  0
SPLINE
  5
1F4
330
1F
100
AcDbEntity
  8
0
  6
Continuous
 62
     7
370
    15
100
AcDbSpline
210
0.0
220
0.0
230
1.0
 70
     8
 71
     3
 72
    10
 73
     6
 74
     0
 42
0.000000001
 43
0.00000001
 40
0.0
 40
0.0
 40
0.0
 40
0.0
 40
0.028814034011953
 40
0.9796472025177727
 40
1.0
 40
1.0
 40
1.0
 40
1.0
 10
273.1926334354223
 20
69.17499020454858
 30
0.0
 10
273.1878904951437
 20
69.18089930886312
 30
0.0
 10
273.0266354562409
 20
69.38180271269478
 30
0.0
 10
272.8342205059718
 20
69.55208218449486
 30
0.0
 10
272.6430053288038
 20
69.7089636979096
 30
0.0
 10
272.6389981006181
 20
69.7122514077644
 30
0.0
  0
SPLINE
  5
1F5
330
1F
100
AcDbEntity
  8
0
  6
Continuous
 62
     7
370
    15
100
AcDbSpline
210
0.0
220
0.0
230
1.0
 70
     8
 71
     3
 72
    12
 73
     8
 74
     0
 42
0.000000001
 43
0.00000001
 40
0.0
 40
0.0
 40
0.0
 40
0.0
 40
0.1178990861526942
 40
0.3408459898177876
 40
0.5634903043433064
 40
0.7854939508971353
 40
1.0
 40
1.0
 40
1.0
 40
1.0
 10
274.8291711552396
 20
65.98572592021425
 30
0.0
 10
274.7885543570381
 20
66.13405092144288
 30
0.0
 10
274.6711312858508
 20
66.56285816251868
 30
0.0
 10
274.4266186824022
 20
67.22864975139817
 30
0.0
 10
274.074444434384
 20
67.95642939858134
 30
0.0
 10
273.6681163294478
 20
68.6142063132672
 30
0.0
 10
273.3493023913338
 20
68.99021504682375
 30
0.0
 10
273.1926334354223
 20
69.17499020454858
 30
0.0
  0
SPLINE
  5
1F6
330
1F
100
AcDbEntity
  8
0
  6
Continuous
 62
     7
370
    15
100
AcDbSpline
210
0.0
220
0.0
230
1.0
 70
     8
 71
     3
 72
    28
 73
    24
 74
     0
 42
0.000000001
 43
0.00000001
 40
0.0
 40
0.0
 40
0.0
 40
0.0
 40
0.0378103754181036
 40
0.0864415573277651
 40
0.1353267632101349
 40
0.1846759697471165
 40
0.2345734568537926
 40
0.2849810636685516
 40
0.3357809255917784
 40
0.3868312279963816
 40
0.4380079314020622
 40
0.4892168598885046
 40
0.540398685023994
 40
0.5915333870422167
 40
0.6426159725907854
 40
0.6936502865167344
 40
0.7446450461818517
 40
0.7956115094054812
 40
0.8465622007659162
 40
0.8975102705738456
 40
0.9484672291372525
 40
0.9994442184491891
 40
1.0
 40
1.0
 40
1.0
 40
1.0
 10
249.6074537084316
 20
78.05653616094708
 30
0.0
 10
249.4603666777854
 20
78.12710074032371
 30
0.0
 10
249.1240983426743
 20
78.28842450571997
 30
0.0
 10
248.5504875242244
 20
78.44066359958154
 30
0.0
 10
247.9021718379095
 20
78.52921254528795
 30
0.0
 10
247.2223634423201
 20
78.52886539724904
 30
0.0
 10
246.5170489190245
 20
78.44242546208338
 30
0.0
 10
245.7909784918245
 20
78.26888070782812
 30
0.0
 10
245.0504763743779
 20
78.00939273967566
 30
0.0
 10
244.3022616682364
 20
77.66603066041128
 30
0.0
 10
243.5532136042775
 20
77.24208750739626
 30
0.0
 10
242.8099970128833
 20
76.7417297096902
 30
0.0
 10
242.078895101782
 20
76.1697508919557
 30
0.0
 10
241.3657977882783
 20
75.53137151403958
 30
0.0
 10
240.6762708323805
 20
74.83214774484071
 30
0.0
 10
240.0156405065072
 20
74.07799638478757
 30
0.0
 10
239.3890697325502
 20
73.275170766262
 30
0.0
 10
238.8012707453373
 20
72.430247386287
 30
0.0
 10
238.2574907864143
 20
71.55004250302328
 30
0.0
 10
237.7597098134617
 20
70.64175894459773
 30
0.0
 10
237.3207052275924
 20
69.71226988523038
 30
0.0
 10
237.0464135068821
 20
69.08121176345742
 30
0.0
 10
236.9349566376765
 20
68.76221658411923
 30
0.0
 10
236.9337545740076
 20
68.7587762172904
 30
0.0
  0
LINE
  5
1F7
330
1F
100
AcDbEntity
  8
0
  6
Continuous
 62
     7
370
    15
100
AcDbLine
 10
237.050101676
 20
66.9016832248
 30
0.0
 11
239.6036615746
 21
65.4275444733
 31
0.0
  0
LINE
  5
1F8
330
1F
100
AcDbEntity
  8
0
  6
Continuous
 62
     7
370
    15
100
AcDbLine
 10
236.7518093986
 20
68.0299929421
 30
0.0
 11
236.7518093986
 21
67.5645868584
 31
0.0
  0
LINE
  5
1F9
330
1F
100
AcDbEntity
  8
0
  6
Continuous
 62
     7
370
    15
100
AcDbLine
 10
236.7518093986
 20
60.5586445134
 30
0.0
 11
236.7518093986
 21
60.0932384296
 31
0.0
  0
SPLINE
  5
1FA
330
1F
100
AcDbEntity
  8
0
  6
Continuous
 62
     7
370
    15
100
AcDbSpline
210
0.0
220
0.0
230
1.0
 70
     8
 71
     3
 72
    11
 73
     7
 74
     0
 42
0.000000001
 43
0.00000001
 40
0.0
 40
0.0
 40
0.0
 40
0.0
 40
0.209291251249398
 40
0.5177054767708186
 40
0.8224361210841614
 40
1.0
 40
1.0
 40
1.0
 40
1.0
 10
236.8679871774889
 20
59.80610629550696
 30
0.0
 10
236.9480071907249
 20
59.67376729206652
 30
0.0
 10
237.145945703951
 20
59.34641186529876
 30
0.0
 10
237.5364935230662
 20
58.9071070969318
 30
0.0
 10
237.9480410442563
 20
58.52887943493151
 30
0.0
 10
238.235923688179
 20
58.35438095532411
 30
0.0
 10
238.3419119515024
 20
58.29013675305419
 30
0.0
  0
LWPOLYLINE
  5
1FB
330
1F
100
AcDbEntity
  8
0
  6
Continuous
 62
     7
370
    15
100
AcDbPolyline
 90
       33
 70
   128
 43
0.0
 10
271.2480137187
 20
61.4126031669
 10
270.9060159332
 20
61.6531736817
 10
270.6518886526
 20
61.9276386021
 10
270.4953978459
 20
62.2254503952
 10
270.442557367
 20
62.5351643207
 10
270.4953978459
 20
62.8448782462
 10
270.6518886526
 20
63.1426900393
 10
270.9060159332
 20
63.4171549597
 10
271.2480137187
 20
63.6577254744
 10
271.6647392262
 20
63.8551565936
 10
272.140177928
 20
64.00186115
 10
272.6560589815
 20
64.0922013698
 10
273.192557367
 20
64.1227055289
 10
273.7290557525
 20
64.0922013698
 10
274.244936806
 20
64.00186115
 10
274.7203755078
 20
63.8551565936
 10
275.1371010153
 20
63.6577254744
 10
275.4790988008
 20
63.4171549597
 10
275.7332260814
 20
63.1426900393
 10
275.8897168881
 20
62.8448782462
 10
275.942557367
 20
62.5351643207
 10
275.8897168881
 20
62.2254503952
 10
275.7332260814
 20
61.9276386021
 10
275.4790988008
 20
61.6531736817
 10
275.1371010153
 20
61.4126031669
 10
274.7203755078
 20
61.2151720478
 10
274.244936806
 20
61.0684674914
 10
273.7290557525
 20
60.9781272716
 10
273.192557367
 20
60.9476231125
 10
272.6560589815
 20
60.9781272716
 10
272.140177928
 20
61.0684674914
 10
271.6647392262
 20
61.2151720478
 10
271.2480137187
 20
61.4126031669
  0
LWPOLYLINE
  5
1FC
330
1F
100
AcDbEntity
  8
0
  6
Continuous
 62
     7
370
    15
100
AcDbPolyline
 90
       10
 70
   128
 43
0.0
 10
271.0712370234
 20
61.10641695
 10
270.7081095309
 20
61.3603066638
 10
270.4347764563
 20
61.6492808163
 10
270.2611167691
 20
61.9628951287
 10
270.1934069829
 20
62.2898147626
 10
270.2340943058
 20
62.6182239907
 10
270.381708192
 20
62.9362532478
 10
270.6309134909
 20
63.232408128
 10
270.9727032739
 20
63.4959848221
 10
271.0708923333
 20
63.5554422677
  0
LWPOLYLINE
  5
1FD
330
1F
100
AcDbEntity
  8
0
  6
Continuous
 62
     7
370
    15
100
AcDbPolyline
 90
       18
 70
   128
 43
0.0
 10
275.3142224007
 20
63.5554422677
 10
275.5059165262
 20
63.4336893595
 10
275.8255943357
 20
63.1610227709
 10
276.0501073288
 20
62.8583580492
 10
276.171341021
 20
62.5366342859
 10
276.1849137108
 20
62.2074794162
 10
276.0903348459
 20
61.8827899545
 10
275.8910227527
 20
61.5743010242
 10
275.5941810898
 20
61.2931622187
 10
275.2105384881
 20
61.0495346271
 10
274.7539607909
 20
60.8522235853
 10
274.2409499058
 20
60.7083604285
 10
273.6900473828
 20
60.6231447459
 10
273.1211642744
 20
60.5996564543
 10
272.5548614983
 20
60.6387444818
 10
272.0116067125
 20
60.7389960853
 10
271.5110345603
 20
60.8967879106
 10
271.0712370234
 20
61.10641695
  0
LWPOLYLINE
  5
1FE
330
1F
100
AcDbEntity
  8
0
  6
Continuous
 62
     7
370
    15
100
AcDbPolyline
 90
       26
 70
   128
 43
0.0
 10
271.9551204999
 20
61.8208072228
 10
271.6862588197
 20
62.0209034507
 10
271.5120434171
 20
62.2533125804
 10
271.4434208864
 20
62.5034314915
 10
271.4847030336
 20
62.755544293
 10
271.6332959497
 20
62.9938098103
 10
271.8798629951
 20
63.2032569447
 10
272.2089114558
 20
63.3707253624
 10
272.5997660066
 20
63.485692407
 10
273.0278678187
 20
63.5409342761
 10
273.4663176808
 20
63.5329799199
 10
273.8875661756
 20
63.4623291399
 10
274.2651447109
 20
63.3334211844
 10
274.5753286387
 20
63.1543558145
 10
274.7986279619
 20
62.9363843657
 10
274.921011963
 20
62.6932027859
 10
274.9347908051
 20
62.4400910681
 10
274.8390987127
 20
62.1929531525
 10
274.639948372
 20
61.9673176231
 10
274.3498531313
 20
61.7773619901
 10
273.9870407415
 20
61.6350218645
 10
273.5743080394
 20
61.549241
 10
273.1375885386
 20
61.5254093237
 10
272.7043229314
 20
61.5650242674
 10
272.3017348894
 20
61.6655966786
 10
271.9551204999
 20
61.8208072228
  0
SPLINE
  5
1FF
330
1F
100
AcDbEntity
  8
0
  6
Continuous
 62
     7
370
    15
100
AcDbSpline
210
0.0
220
0.0
230
1.0
 70
     8
 71
     3
 72
     9
 73
     5
 74
     0
 42
0.000000001
 43
0.00000001
 40
0.0
 40
0.0
 40
0.0
 40
0.0
 40
0.6311775999676998
 40
1.0
 40
1.0
 40
1.0
 40
1.0
 10
272.1320657133954
 20
61.72324614056709
 30
0.0
 10
271.9970978692429
 20
61.81618107174288
 30
0.0
 10
271.7832628976605
 20
61.96342161256775
 30
0.0
 10
271.5905876914906
 20
62.18134284064726
 30
0.0
 10
271.5195247595242
 20
62.26171707100553
 30
0.0
  0
SPLINE
  5
200
330
1F
100
AcDbEntity
  8
0
  6
Continuous
 62
     7
370
    15
100
AcDbSpline
210
0.0
220
0.0
230
1.0
 70
     8
 71
     3
 72
    11
 73
     7
 74
     0
 42
0.000000001
 43
0.00000001
 40
0.0
 40
0.0
 40
0.0
 40
0.0
 40
0.2164553779443451
 40
0.4403112895790569
 40
0.7519005688038767
 40
1.0
 40
1.0
 40
1.0
 40
1.0
 10
274.8655899744755
 20
62.77929907404543
 30
0.0
 10
274.8348818302032
 20
62.66877747308273
 30
0.0
 10
274.7724156409427
 20
62.44395557626324
 30
0.0
 10
274.6564950773595
 20
62.11899291301633
 30
0.0
 10
274.5321494792019
 20
61.89644342068389
 30
0.0
 10
274.4525757632819
 20
61.83895946108416
 30
0.0
 10
274.4173022383915
 20
61.81347790783133
 30
0.0
  0
SPLINE
  5
201
330
1F
100
AcDbEntity
  8
0
  6
Continuous
 62
     7
370
    15
100
AcDbSpline
210
0.0
220
0.0
230
1.0
 70
     8
 71
     3
 72
    11
 73
     7
 74
     0
 42
0.000000001
 43
0.00000001
 40
0.0
 40
0.0
 40
0.0
 40
0.0
 40
0.1843643438496109
 40
0.5174526391740203
 40
0.8663352079125943
 40
1.0
 40
1.0
 40
1.0
 40
1.0
 10
273.6408451030839
 20
63.48632923873959
 30
0.0
 10
273.7119153652371
 20
63.40719532617645
 30
0.0
 10
273.91138720426
 20
63.18509136046944
 30
0.0
 10
274.283021014274
 20
62.89096890271998
 30
0.0
 10
274.6290521867963
 20
62.78664311193955
 30
0.0
 10
274.8142817130894
 20
62.78089209569157
 30
0.0
 10
274.8655899744755
 20
62.77929907404543
 30
0.0
  0
SPLINE
  5
202
330
1F
100
AcDbEntity
  8
0
  6
Continuous
 62
     7
370
    15
100
AcDbSpline
210
0.0
220
0.0
230
1.0
 70
     8
 71
     3
 72
    11
 73
     7
 74
     0
 42
0.000000001
 43
0.00000001
 40
0.0
 40
0.0
 40
0.0
 40
0.0
 40
0.2164553779443451
 40
0.4403112895790583
 40
0.7519005688038776
 40
1.0
 40
1.0
 40
1.0
 40
1.0
 10
271.9678124956083
 20
63.22753823721965
 30
0.0
 10
272.0824168502386
 20
63.2009037562859
 30
0.0
 10
272.3155438423139
 20
63.14672417082778
 30
0.0
 10
272.7481652752488
 20
63.13842806173371
 30
0.0
 10
273.2122293652703
 20
63.25556025205908
 30
0.0
 10
273.5092025160308
 20
63.41545217161834
 30
0.0
 10
273.6408451030839
 20
63.48632923873959
 30
0.0
  0
SPLINE
  5
203
330
1F
100
AcDbEntity
  8
0
  6
Continuous
 62
     7
370
    15
100
AcDbSpline
210
0.0
220
0.0
230
1.0
 70
     8
 71
     3
 72
    11
 73
     7
 74
     0
 42
0.000000001
 43
0.00000001
 40
0.0
 40
0.0
 40
0.0
 40
0.0
 40
0.216455377944345
 40
0.4403112895790565
 40
0.7519005688038782
 40
1.0
 40
1.0
 40
1.0
 40
1.0
 10
271.5195247595242
 20
62.26171707100553
 30
0.0
 10
271.5502329037965
 20
62.28351484140205
 30
0.0
 10
271.612699093057
 20
62.32785564034356
 30
0.0
 10
271.7286196566403
 20
62.50238705153299
 30
0.0
 10
271.8529652547978
 20
62.81563455277963
 30
0.0
 10
271.9325389707179
 20
63.10102849468669
 30
0.0
 10
271.9678124956083
 20
63.22753823721965
 30
0.0
  0
LINE
  5
204
330
1F
100
AcDbEntity
  8
0
  6
Continuous
 62
     7
370
    15
100
AcDbLine
 10
271.9678124956
 20
61.8504163335
 30
0.0
 11
271.9678124956
 21
63.2275382372
 31
0.0
  0
LINE
  5
205
330
1F
100
AcDbEntity
  8
0
  6
Continuous
 62
     7
370
    15
100
AcDbLine
 10
273.6408451031
 20
61.5586197267
 30
0.0
 11
273.6408451031
 21
63.4863292387
 31
0.0
  0
LWPOLYLINE
  5
206
330
1F
100
AcDbEntity
  8
0
  6
Continuous
 62
     7
370
    15
100
AcDbPolyline
 90
       72
 70
   128
 43
0.0
 10
268.7908176541
 20
42.8272888957
 10
268.8281726218
 20
43.8230939514
 10
268.9399451718
 20
44.8542346102
 10
269.1252605321
 20
45.9126407982
 10
269.382668359
 20
46.990029052
 10
269.7101540871
 20
48.0779673477
 10
270.1051546966
 20
49.1679410932
 10
270.5645787721
 20
50.2514197659
 10
271.0848306974
 20
51.3199236763
 10
271.6618387958
 20
52.3650903325
 10
272.2910871965
 20
53.3787398883
 10
272.9676511777
 20
54.3529391617
 10
273.6862357089
 20
55.2800637223
 10
274.4412168918
 20
56.1528575636
 10
275.226685975
 20
56.9644898903
 10
276.036495598
 20
57.708608579
 10
276.8643079025
 20
58.379389892
 10
277.7036441348
 20
58.9715840562
 10
278.547935351
 20
59.4805563492
 10
279.3905738274
 20
59.9023233727
 10
280.2249647755
 20
60.233584228
 10
281.044577955
 20
60.4717463497
 10
281.8429987812
 20
60.6149457963
 10
282.6139785288
 20
60.6620618379
 10
283.3514832359
 20
60.6127257278
 10
284.0497409281
 20
60.4673235877
 10
284.7032867925
 20
60.2269933867
 10
285.3070059463
 20
59.8936160343
 10
285.8561734688
 20
59.4698006604
 10
286.3464913794
 20
58.9588641949
 10
286.7741222757
 20
58.3648054084
 10
287.1357193661
 20
57.6922736163
 10
287.4284526631
 20
56.9465322919
 10
287.6500311319
 20
56.133417872
 10
287.7987206204
 20
55.2592940795
 10
287.8733574317
 20
54.3310021181
 10
287.8733574317
 20
53.3558071313
 10
287.7987206204
 20
52.3413413418
 10
287.6500311319
 20
51.29554432
 10
287.4284526631
 20
50.2266008456
 10
287.1357193661
 20
49.1428768505
 10
286.7741222757
 20
48.0528539444
 10
286.3464913794
 20
46.9650630344
 10
285.8561734688
 20
45.8880175593
 10
285.3070059463
 20
44.8301468603
 10
284.7032867925
 20
43.7997302098
 10
284.0497409281
 20
42.8048320152
 10
283.3514832359
 20
41.8532387039
 10
282.6139785288
 20
40.9523977837
 10
281.8429987812
 20
40.1093595563
 10
281.044577955
 20
39.3307219387
 10
280.2249647755
 20
38.6225788262
 10
279.3905738274
 20
37.9904723986
 10
278.547935351
 20
37.4393497458
 10
277.7036441348
 20
36.9735241498
 10
276.8643079025
 20
36.5966413274
 10
276.036495598
 20
36.3116508979
 10
275.226685975
 20
36.1207832976
 10
274.4412168918
 20
36.0255323243
 10
273.6862357089
 20
36.0266434461
 10
272.9676511777
 20
36.1241079669
 10
272.2910871965
 20
36.3171630947
 10
271.6618387958
 20
36.6042979114
 10
271.0848306974
 20
36.9832651977
 10
270.5645787721
 20
37.4510990207
 10
270.1051546966
 20
38.0041379465
 10
269.7101540871
 20
38.6380536957
 10
269.382668359
 20
39.347885018
 10
269.1252605321
 20
40.128076521
 10
268.9399451718
 20
40.9725221482
 10
268.8281726218
 20
41.8746129677
 10
268.7908176541
 20
42.8272888957
  0
LWPOLYLINE
  5
207
330
1F
100
AcDbEntity
  8
0
  6
Continuous
 62
     7
370
    15
100
AcDbPolyline
 90
       38
 70
   128
 43
0.0
 10
268.4372642635
 20
42.8272888957
 10
268.4742621418
 20
43.8271828542
 10
268.5849742004
 20
44.8621838569
 10
268.7685578538
 20
45.9244149212
 10
269.0236159195
 20
47.0057918274
 10
269.3482072516
 20
48.0980846443
 10
269.739861514
 20
49.1929803639
 10
270.1955979814
 20
50.2821461688
 10
270.7119482241
 20
51.3572928494
 10
271.2849825048
 20
52.4102378904
 10
271.9103396868
 20
53.4329677442
 10
272.5832604243
 20
54.4176988191
 10
273.2986233842
 20
55.356936717
 10
274.0509842223
 20
56.2435332704
 10
274.8346170184
 20
57.0707409441
 10
275.6435578538
 20
57.8322641883
 10
276.4716502003
 20
58.5223073513
 10
277.312591775
 20
59.135618788
 10
278.1599825048
 20
59.6675308279
 10
279.0073732347
 20
60.1139952993
 10
279.8483148094
 20
60.471614338
 10
280.6764071559
 20
60.7376662472
 10
281.4853479912
 20
60.9101262111
 10
282.2689807874
 20
60.9876817053
 10
283.0213416255
 20
60.9697424858
 10
283.7367045853
 20
60.8564450807
 10
284.4096253228
 20
60.6486517517
 10
285.0349825048
 20
60.3479439316
 10
285.6080167856
 20
59.9566101884
 10
286.1243670283
 20
59.4776288082
 10
286.5801034957
 20
58.9146451285
 10
286.9717577581
 20
58.271943795
 10
287.2963490902
 20
57.5544161531
 10
287.5514071559
 20
56.7675230213
 10
287.7349908092
 20
55.9172531314
 10
287.8457028679
 20
55.0100775507
 10
287.8827007462
 20
54.0529004333
 10
287.8827007462
 20
54.0529004333
  0
LWPOLYLINE
  5
208
330
1F
100
AcDbEntity
  8
0
  6
Continuous
 62
     7
370
    15
100
AcDbPolyline
 90
       20
 70
   128
 43
0.0
 10
278.16156272
 20
37.2135708881
 10
278.1599825048
 20
37.2126585011
 10
277.312591775
 20
36.7661940296
 10
276.4716502003
 20
36.4085749909
 10
275.6435578538
 20
36.1425230818
 10
274.8346170184
 20
35.9700631179
 10
274.0509842223
 20
35.8925076236
 10
273.2986233842
 20
35.9104468432
 10
272.5832604243
 20
36.0237442483
 10
271.9103396868
 20
36.2315375773
 10
271.2849825048
 20
36.5322453974
 10
270.7119482241
 20
36.9235791406
 10
270.1955979814
 20
37.4025605208
 10
269.739861514
 20
37.9655442005
 10
269.3482072516
 20
38.6082455339
 10
269.0236159195
 20
39.3257731759
 10
268.7685578538
 20
40.1126663077
 10
268.5849742004
 20
40.9629361976
 10
268.4742621418
 20
41.8701117782
 10
268.4372642635
 20
42.8272888957
  0
SPLINE
  5
209
330
1F
100
AcDbEntity
  8
0
  6
Continuous
 62
     7
370
    15
100
AcDbSpline
210
0.0
220
0.0
230
1.0
 70
     8
 71
     3
 72
    48
 73
    44
 74
     0
 42
0.000000001
 43
0.00000001
 40
0.0
 40
0.0
 40
0.0
 40
0.0
 40
0.0312500000000004
 40
0.0312500000000004
 40
0.0625000000000009
 40
0.0625000000000009
 40
0.1250000000000017
 40
0.1250000000000017
 40
0.1562500000000024
 40
0.1562500000000024
 40
0.1875000000000031
 40
0.1875000000000031
 40
0.2187500000000037
 40
0.2187500000000037
 40
0.2500000000000044
 40
0.2500000000000044
 40
0.312500000000005
 40
0.312500000000005
 40
0.3437500000000048
 40
0.3437500000000048
 40
0.3750000000000046
 40
0.3750000000000046
 40
0.4375000000000043
 40
0.4375000000000043
 40
0.5000000000000039
 40
0.5000000000000039
 40
0.5625000000000037
 40
0.5625000000000037
 40
0.6250000000000033
 40
0.6250000000000033
 40
0.687500000000003
 40
0.687500000000003
 40
0.7500000000000026
 40
0.7500000000000026
 40
0.8125000000000022
 40
0.8125000000000022
 40
0.8750000000000019
 40
0.8750000000000019
 40
0.9062500000000014
 40
0.9062500000000014
 40
0.937500000000001
 40
0.937500000000001
 40
1.0
 40
1.0
 40
1.0
 40
1.0
 10
275.7558194488011
 20
61.05542461800722
 30
0.0
 10
275.6765181802146
 20
61.00964497009943
 30
0.0
 10
275.5926345594173
 20
60.96545463855953
 30
0.0
 10
275.4155952453428
 20
60.88032349476183
 30
0.0
 10
275.3217852290673
 20
60.83914483378611
 30
0.0
 10
275.0328062920116
 20
60.72350038995863
 30
0.0
 10
274.829342900955
 20
60.65620227283964
 30
0.0
 10
274.5087602147554
 20
60.57018305190898
 30
0.0
 10
274.3990889750224
 20
60.54401653515054
 30
0.0
 10
274.1795304779146
 20
60.49796945413481
 30
0.0
 10
274.0690463212436
 20
60.47791303479553
 30
0.0
 10
273.8467013026741
 20
60.44371479337168
 30
0.0
 10
273.7348402795523
 20
60.42957344110822
 30
0.0
 10
273.5097269207696
 20
60.40739322453157
 30
0.0
 10
273.3964715957736
 20
60.39939567954276
 30
0.0
 10
273.0611654279767
 20
60.38517590125024
 30
0.0
 10
272.8412794422688
 20
60.38837711629189
 30
0.0
 10
272.5164398266742
 20
60.41285106606629
 30
0.0
 10
272.4085241151055
 20
60.42439094947383
 30
0.0
 10
272.1976198005886
 20
60.45392778362429
 30
0.0
 10
272.0944520213653
 20
60.47190334071671
 30
0.0
 10
271.7915287459676
 20
60.53541362889695
 30
0.0
 10
271.5982961574526
 20
60.59046868400886
 30
0.0
 10
271.2293020889642
 20
60.727397400392
 30
0.0
 10
271.0565844247093
 20
60.80835128494729
 30
0.0
 10
270.7400053498234
 20
60.991825105761
 30
0.0
 10
270.595074457247
 20
61.09473080489326
 30
0.0
 10
270.3331155246956
 20
61.32344284022388
 30
0.0
 10
270.2193207059269
 20
61.44654265965529
 30
0.0
 10
270.027184407479
 20
61.70678568123747
 30
0.0
 10
269.9484718630184
 20
61.84423185089319
 30
0.0
 10
269.8286266772329
 20
62.13321484755588
 30
0.0
 10
269.7894201690679
 20
62.28010502410407
 30
0.0
 10
269.7526330033438
 20
62.57667298187536
 30
0.0
 10
269.7551375703084
 20
62.72714844010778
 30
0.0
 10
269.8068404539956
 20
63.02568760695035
 30
0.0
 10
269.8551192522874
 20
63.16962959720969
 30
0.0
 10
269.9622191864326
 20
63.37584074791587
 30
0.0
 10
270.0037423123759
 20
63.44295324602173
 30
0.0
 10
270.0992080076256
 20
63.57351576899714
 30
0.0
 10
270.1534550478173
 20
63.63714718770066
 30
0.0
 10
270.3308230912763
 20
63.81650627198898
 30
0.0
 10
270.4695627099558
 20
63.92269237045709
 30
0.0
 10
270.6292952851986
 20
64.01490402336455
 30
0.0
  0
SPLINE
  5
20A
330
1F
100
AcDbEntity
  8
0
  6
Continuous
 62
     7
370
    15
100
AcDbSpline
210
0.0
220
0.0
230
1.0
 70
     8
 71
     3
 72
    52
 73
    48
 74
     0
 42
0.000000001
 43
0.00000001
 40
0.0
 40
0.0
 40
0.0
 40
0.0
 40
0.0312500000000007
 40
0.0312500000000007
 40
0.0625000000000013
 40
0.0625000000000013
 40
0.093750000000002
 40
0.093750000000002
 40
0.1250000000000026
 40
0.1250000000000026
 40
0.187500000000004
 40
0.187500000000004
 40
0.2500000000000054
 40
0.2500000000000054
 40
0.3125000000000069
 40
0.3125000000000069
 40
0.3750000000000083
 40
0.3750000000000083
 40
0.4375000000000097
 40
0.4375000000000097
 40
0.4687500000000099
 40
0.4687500000000099
 40
0.5000000000000101
 40
0.5000000000000101
 40
0.5625000000000097
 40
0.5625000000000097
 40
0.5937500000000094
 40
0.5937500000000094
 40
0.6250000000000092
 40
0.6250000000000092
 40
0.6875000000000079
 40
0.6875000000000079
 40
0.7187500000000072
 40
0.7187500000000072
 40
0.7500000000000064
 40
0.7500000000000064
 40
0.8125000000000051
 40
0.8125000000000051
 40
0.8437500000000041
 40
0.8437500000000041
 40
0.8750000000000031
 40
0.8750000000000031
 40
0.9375000000000016
 40
0.9375000000000016
 40
0.9687500000000008
 40
0.9687500000000008
 40
1.0
 40
1.0
 40
1.0
 40
1.0
 10
270.6292952851986
 20
64.01490402336455
 30
0.0
 10
270.7091770099817
 20
64.06101876150198
 30
0.0
 10
270.7949512006712
 20
64.10382357553115
 30
0.0
 10
270.9728572513095
 20
64.18012364866682
 30
0.0
 10
271.0652950079159
 20
64.2138784021979
 30
0.0
 10
271.2569010567167
 20
64.27300460766544
 30
0.0
 10
271.3560699517172
 20
64.2983751333408
 30
0.0
 10
271.56112532904
 20
64.3409203218384
 30
0.0
 10
271.6671649889201
 20
64.35804845058153
 30
0.0
 10
271.9875957407337
 20
64.39653565778542
 30
0.0
 10
272.206743896799
 20
64.40571891887238
 30
0.0
 10
272.6556855829576
 20
64.39511647298691
 30
0.0
 10
272.8821798833671
 20
64.37527742035935
 30
0.0
 10
273.332708932786
 20
64.31120124478198
 30
0.0
 10
273.5529875994595
 20
64.26759573811327
 30
0.0
 10
273.9823580300153
 20
64.16200383236169
 30
0.0
 10
274.1924976770774
 20
64.09970530909476
 30
0.0
 10
274.5999878005218
 20
63.95898057376458
 30
0.0
 10
274.7927556795952
 20
63.88221009422141
 30
0.0
 10
275.0663363657479
 20
63.75878482467369
 30
0.0
 10
275.1549161787234
 20
63.71624830175834
 30
0.0
 10
275.3267862660603
 20
63.62842506692459
 30
0.0
 10
275.4104403795908
 20
63.58291526062307
 30
0.0
 10
275.6494303373033
 20
63.44437648460416
 30
0.0
 10
275.7935190105203
 20
63.34917826802021
 30
0.0
 10
275.9872312176119
 20
63.20188360732326
 30
0.0
 10
276.0480418840112
 20
63.15202526145593
 30
0.0
 10
276.1619237505882
 20
63.05061316290765
 30
0.0
 10
276.2151512450616
 20
62.9988544383441
 30
0.0
 10
276.359982081825
 20
62.84361144688972
 30
0.0
 10
276.4378570439249
 20
62.73943340030179
 30
0.0
 10
276.5263026198438
 20
62.58069248246209
 30
0.0
 10
276.5510255135807
 20
62.52736096014075
 30
0.0
 10
276.5904678967298
 20
62.4195297199741
 30
0.0
 10
276.6051464170822
 20
62.36490186929917
 30
0.0
 10
276.6326569163636
 20
62.20240513480656
 30
0.0
 10
276.6296838766836
 20
62.09475442918964
 30
0.0
 10
276.5915628904679
 20
61.93247193445738
 30
0.0
 10
276.5732051558126
 20
61.87824385733482
 30
0.0
 10
276.5243060587593
 20
61.76919648302921
 30
0.0
 10
276.4938589772817
 20
61.71476610554389
 30
0.0
 10
276.3861099248282
 20
61.55448960040475
 30
0.0
 10
276.2920699246519
 20
61.45037793105008
 30
0.0
 10
276.1154095101645
 20
61.29742541461227
 30
0.0
 10
276.0499794299973
 20
61.24662653832829
 30
0.0
 10
275.9098687283448
 20
61.14859143577772
 30
0.0
 10
275.8351360453381
 20
61.10121311455244
 30
0.0
 10
275.7558194488011
 20
61.05542461800722
 30
0.0
  0
LWPOLYLINE
  5
20B
330
1F
100
AcDbEntity
  8
0
  6
Continuous
 62
     7
370
    15
100
AcDbPolyline
 90
       67
 70
   128
 43
0.0
 10
270.0282545212
 20
43.5416459935
 10
270.0658760737
 20
44.4753658341
 10
270.1784000245
 20
45.4440666831
 10
270.3648073394
 20
46.4389758357
 10
270.6234098849
 20
47.4510832405
 10
270.9518657162
 20
48.4712230961
 10
271.3472002864
 20
49.490156858
 10
271.8058333846
 20
50.4986569043
 10
272.3236115582
 20
51.4875901024
 10
272.8958457281
 20
52.4480005201
 10
273.5173536529
 20
53.371190532
 10
274.1825068607
 20
54.2487995863
 10
274.8852816209
 20
55.0728799195
 10
275.6193134966
 20
55.8359685326
 10
276.3779549813
 20
56.5311547769
 10
277.1543357005
 20
57.152142938
 10
277.9414246299
 20
57.6933092511
 10
278.7320937704
 20
58.1497528303
 10
279.5191826998
 20
58.5173400517
 10
280.2955634189
 20
58.7927419886
 10
281.0542049037
 20
58.9734645584
 10
281.7882367794
 20
59.0578711096
 10
282.4910115396
 20
59.0451972432
 10
283.1561647474
 20
58.9355577359
 10
283.7776726722
 20
58.7299455
 10
284.349906842
 20
58.4302225917
 10
284.8676850157
 20
58.039103348
 10
285.3263181138
 20
57.5601298056
 10
285.7216526841
 20
56.9976396228
 10
286.0501085154
 20
56.3567267979
 10
286.3087110608
 20
55.6431955367
 10
286.4951183757
 20
54.8635076888
 10
286.6076423266
 20
54.0247242281
 10
286.6452638791
 20
53.1344413075
 10
286.6076423266
 20
52.2007214669
 10
286.4951183757
 20
51.2320206179
 10
286.3087110608
 20
50.2371114653
 10
286.0501085154
 20
49.2250040605
 10
285.7216526841
 20
48.2048642049
 10
285.3263181138
 20
47.185930443
 10
284.8676850157
 20
46.1774303967
 10
284.349906842
 20
45.1884971986
 10
283.7776726722
 20
44.2280867809
 10
283.1561647474
 20
43.304896769
 10
282.4910115396
 20
42.4272877147
 10
281.7882367794
 20
41.6032073815
 10
281.0542049037
 20
40.8401187684
 10
280.2955634189
 20
40.1449325241
 10
279.5191826998
 20
39.523944363
 10
278.7320937704
 20
38.9827780499
 10
277.9414246299
 20
38.5263344707
 10
277.1543357005
 20
38.1587472493
 10
276.3779549813
 20
37.8833453124
 10
275.6193134966
 20
37.7026227426
 10
274.8852816209
 20
37.6182161914
 10
274.1825068607
 20
37.6308900578
 10
273.5173536529
 20
37.7405295651
 10
272.8958457281
 20
37.946141801
 10
272.3236115582
 20
38.2458647093
 10
271.8058333846
 20
38.636983953
 10
271.3472002864
 20
39.1159574954
 10
270.9518657162
 20
39.6784476782
 10
270.6234098849
 20
40.3193605031
 10
270.3648073394
 20
41.0328917643
 10
270.1784000245
 20
41.8125796122
 10
270.0658760737
 20
42.6513630729
 10
270.0282545212
 20
43.5416459935
  0
SPLINE
  5
20C
330
1F
100
AcDbEntity
  8
0
  6
Continuous
 62
     7
370
    15
100
AcDbSpline
210
0.0
220
0.0
230
1.0
 70
     8
 71
     3
 72
    18
 73
    14
 74
     0
 42
0.000000001
 43
0.00000001
 40
0.0
 40
0.0
 40
0.0
 40
0.0
 40
0.2500000000000007
 40
0.2500000000000007
 40
0.3750000000000006
 40
0.3750000000000006
 40
0.5000000000000006
 40
0.5000000000000006
 40
0.6250000000000004
 40
0.6250000000000004
 40
0.7500000000000003
 40
0.7500000000000003
 40
1.0
 40
1.0
 40
1.0
 40
1.0
 10
272.5351506598565
 20
38.80098809299351
 30
0.0
 10
272.4115430003853
 20
38.76148166871629
 30
0.0
 10
272.2903003095618
 20
38.75543114768396
 30
0.0
 10
272.1128157968415
 20
38.79710841492052
 30
0.0
 10
272.0543661005732
 20
38.81978141284613
 30
0.0
 10
271.9428422613847
 20
38.88109884793217
 30
0.0
 10
271.8892634026401
 20
38.91981098773421
 30
0.0
 10
271.7865006492018
 20
39.01335981145104
 30
0.0
 10
271.7369428746016
 20
39.06874593054617
 30
0.0
 10
271.6445641783579
 20
39.19358928079669
 30
0.0
 10
271.6017775906373
 20
39.26276425749126
 30
0.0
 10
271.4832053768177
 20
39.48992636388134
 30
0.0
 10
271.4167988294908
 20
39.66938720302825
 30
0.0
 10
271.3659091718364
 20
39.86818891611815
 30
0.0
  0
LWPOLYLINE
  5
20D
330
1F
100
AcDbEntity
  8
0
  6
Continuous
 62
     7
370
    15
100
AcDbPolyline
 90
       17
 70
   128
 43
0.0
 10
283.7494590108
 20
45.2748705035
 10
283.1744843557
 20
44.3356398409
 10
282.5504465867
 20
43.4365265924
 10
281.883429993
 20
42.5862969982
 10
281.1799379021
 20
41.7932406896
 10
280.4468292728
 20
41.0650898652
 10
279.6912518217
 20
40.4089439035
 10
278.9205723334
 20
39.8312001447
 10
278.1423048353
 20
39.3374915173
 10
277.3640373372
 20
38.932631618
 10
276.5933578489
 20
38.6205677797
 10
275.8377803978
 20
38.4043425853
 10
275.1046717685
 20
38.2860642031
 10
274.4011796776
 20
38.2668858324
 10
273.7341630839
 20
38.3469944599
 10
273.1101253149
 20
38.5256090366
 10
272.5351506599
 20
38.800988093
  0
SPLINE
  5
20E
330
1F
100
AcDbEntity
  8
0
  6
Continuous
 62
     7
370
    15
100
AcDbSpline
210
0.0
220
0.0
230
1.0
 70
     8
 71
     3
 72
    18
 73
    14
 74
     0
 42
0.000000001
 43
0.00000001
 40
0.0
 40
0.0
 40
0.0
 40
0.0
 40
0.2499999999999992
 40
0.2499999999999992
 40
0.3749999999999993
 40
0.3749999999999993
 40
0.4999999999999993
 40
0.4999999999999993
 40
0.6249999999999993
 40
0.6249999999999993
 40
0.7499999999999994
 40
0.7499999999999994
 40
1.0
 40
1.0
 40
1.0
 40
1.0
 10
284.918700498775
 20
47.69204881361932
 30
0.0
 10
284.9318362312257
 20
47.47149190631505
 30
0.0
 10
284.9152482021599
 20
47.24864967019012
 30
0.0
 10
284.845625791581
 20
46.9106174976592
 30
0.0
 10
284.8146683529412
 20
46.79721423902144
 30
0.0
 10
284.7394157063893
 20
46.5764819458609
 30
0.0
 10
284.6949680219388
 20
46.46820422622148
 30
0.0
 10
284.5924254678104
 20
46.25582215823346
 30
0.0
 10
284.533770182722
 20
46.15089409031503
 30
0.0
 10
284.4050728391702
 20
45.95008457794987
 30
0.0
 10
284.3352899288294
 20
45.85433542360425
 30
0.0
 10
284.1100934647782
 20
45.58065520971222
 30
0.0
 10
283.9371158456066
 20
45.41505878716048
 30
0.0
 10
283.7494590107549
 20
45.27487050350545
 30
0.0
  0
LWPOLYLINE
  5
20F
330
1F
100
AcDbEntity
  8
0
  6
Continuous
 62
     7
370
    15
100
AcDbPolyline
 90
       12
 70
   128
 43
0.0
 10
284.9187004988
 20
57.0324106156
 10
285.2813267561
 20
56.4550900873
 10
285.5756790344
 20
55.8012158109
 10
285.7989422982
 20
55.0770411078
 10
285.948981371
 20
54.289491617
 10
286.0243613554
 20
53.4460990618
 10
286.0243613554
 20
52.55492922
 10
285.948981371
 20
51.6245047874
 10
285.7989422982
 20
50.6637238704
 10
285.5756790344
 20
49.6817748899
 10
285.2813267561
 20
48.6880487068
 10
284.9187004988
 20
47.6920488136
  0
SPLINE
  5
210
330
1F
100
AcDbEntity
  8
0
  6
Continuous
 62
     7
370
    15
100
AcDbSpline
210
0.0
220
0.0
230
1.0
 70
     8
 71
     3
 72
    18
 73
    14
 74
     0
 42
0.000000001
 43
0.00000001
 40
0.0
 40
0.0
 40
0.0
 40
0.0
 40
0.2500000000000002
 40
0.2500000000000002
 40
0.3750000000000001
 40
0.3750000000000001
 40
0.4999999999999999
 40
0.4999999999999999
 40
0.6249999999999998
 40
0.6249999999999998
 40
0.7499999999999997
 40
0.7499999999999997
 40
1.0
 40
1.0
 40
1.0
 40
1.0
 10
283.7494590107549
 20
58.09961143876116
 30
0.0
 10
283.9370832100753
 20
58.1021619012132
 30
0.0
 10
284.106538417863
 20
58.08037992863342
 30
0.0
 10
284.333541440627
 20
58.01011623402782
 30
0.0
 10
284.4045608319171
 20
57.98018690562144
 30
0.0
 10
284.5326539621288
 20
57.90930422242977
 30
0.0
 10
284.5903938267555
 20
57.86818998506208
 30
0.0
 10
284.6932570045636
 20
57.77458318759052
 30
0.0
 10
284.7386692014961
 20
57.7215902595425
 30
0.0
 10
284.8144571598752
 20
57.60632453839564
 30
0.0
 10
284.8449009561161
 20
57.54427490355514
 30
0.0
 10
284.9145262846997
 20
57.34536923255667
 30
0.0
 10
284.9318385160674
 20
57.19424993874618
 30
0.0
 10
284.918700498775
 20
57.03241061563651
 30
0.0
  0
LWPOLYLINE
  5
211
330
1F
100
AcDbEntity
  8
0
  6
Continuous
 62
     7
370
    15
100
AcDbPolyline
 90
       17
 70
   128
 43
0.0
 10
272.5351506599
 20
51.6257290282
 10
273.1101253149
 20
52.5649596908
 10
273.7341630839
 20
53.4640729394
 10
274.4011796776
 20
54.3143025335
 10
275.1046717685
 20
55.1073588421
 10
275.8377803978
 20
55.8355096665
 10
276.5933578489
 20
56.4916556282
 10
277.3640373372
 20
57.0693993871
 10
278.1423048353
 20
57.5631080145
 10
278.9205723334
 20
57.9679679138
 10
279.6912518217
 20
58.2800317521
 10
280.4468292728
 20
58.4962569465
 10
281.1799379021
 20
58.6145353287
 10
281.883429993
 20
58.6337136993
 10
282.5504465867
 20
58.5536050718
 10
283.1744843557
 20
58.3749904951
 10
283.7494590108
 20
58.0996114388
  0
SPLINE
  5
212
330
1F
100
AcDbEntity
  8
0
  6
Continuous
 62
     7
370
    15
100
AcDbSpline
210
0.0
220
0.0
230
1.0
 70
     8
 71
     3
 72
    18
 73
    14
 74
     0
 42
0.000000001
 43
0.00000001
 40
0.0
 40
0.0
 40
0.0
 40
0.0
 40
0.2499999999999991
 40
0.2499999999999991
 40
0.3749999999999989
 40
0.3749999999999989
 40
0.4999999999999989
 40
0.4999999999999989
 40
0.6249999999999988
 40
0.6249999999999988
 40
0.7499999999999987
 40
0.7499999999999987
 40
1.0
 40
1.0
 40
1.0
 40
1.0
 10
271.3659091718364
 20
49.20855071813536
 30
0.0
 10
271.4167899792349
 20
49.39215166361444
 30
0.0
 10
271.4815905252648
 20
49.58716140612726
 30
0.0
 10
271.6007314458875
 20
49.89660715128915
 30
0.0
 10
271.6442585795492
 20
50.00275407944614
 30
0.0
 10
271.7360805171242
 20
50.21392112450103
 30
0.0
 10
271.7846892074567
 20
50.31979674657481
 30
0.0
 10
271.8873321859551
 20
50.53212084080812
 30
0.0
 10
271.9418418933757
 20
50.63944209977363
 30
0.0
 10
272.0539484990628
 20
50.84982924124245
 30
0.0
 10
272.111388617924
 20
50.95270373744216
 30
0.0
 10
272.2876381967392
 20
51.2546403867258
 30
0.0
 10
272.4115214999517
 20
51.44857835461394
 30
0.0
 10
272.5351506598565
 20
51.62572902824921
 30
0.0
  0
LWPOLYLINE
  5
213
330
1F
100
AcDbEntity
  8
0
  6
Continuous
 62
     7
370
    15
100
AcDbPolyline
 90
       12
 70
   128
 43
0.0
 10
271.3659091718
 20
39.8681889161
 10
271.0032829146
 20
40.4455094445
 10
270.7089306362
 20
41.0993837209
 10
270.4856673724
 20
41.823558424
 10
270.3356282996
 20
42.6111079148
 10
270.2602483152
 20
43.45450047
 10
270.2602483152
 20
44.3456703118
 10
270.3356282996
 20
45.2760947444
 10
270.4856673724
 20
46.2368756613
 10
270.7089306362
 20
47.2188246419
 10
271.0032829146
 20
48.212550825
 10
271.3659091718
 20
49.2085507181
  0
ARC
  5
214
330
1F
100
AcDbEntity
  8
0
  6
Continuous
 62
     7
370
    15
100
AcDbCircle
 10
284.0320120445
 20
56.2996912209
 30
0.0
 40
1.821962954515089
100
AcDbArc
 50
98.9215321124
 51
121.0579635503
  0
LINE
  5
215
330
1F
100
AcDbEntity
  8
0
  6
Continuous
 62
     7
370
    15
100
AcDbLine
 10
281.395140137
 20
56.8808616304
 30
0.0
 11
283.0920523036
 21
57.8604681726
 31
0.0
  0
LWPOLYLINE
  5
216
330
1F
100
AcDbEntity
  8
0
  6
Continuous
 62
     7
370
    15
100
AcDbPolyline
 90
       10
 70
   128
 43
0.0
 10
274.8894695336
 20
53.1252179321
 10
275.5661046297
 20
53.9055554102
 10
276.2771685405
 20
54.6129878458
 10
277.0131584768
 20
55.2380609812
 10
277.7642385332
 20
55.7724212239
 10
278.5203711374
 20
56.208927285
 10
279.2714511938
 20
56.5417456171
 10
280.0074411301
 20
56.7664283744
 10
280.7185050409
 20
56.8799728553
 10
281.395140137
 20
56.8808616304
  0
LINE
  5
217
330
1F
100
AcDbEntity
  8
0
  6
Continuous
 62
     7
370
    15
100
AcDbLine
 10
273.192557367
 20
52.1456113899
 30
0.0
 11
274.8894695336
 21
53.1252179321
 31
0.0
  0
ARC
  5
218
330
1F
100
AcDbEntity
  8
0
  6
Continuous
 62
     7
370
    15
100
AcDbCircle
 10
274.78128189
 20
49.4610256364
 30
0.0
 40
3.119462498236181
100
AcDbArc
 50
120.6168359905
 51
136.0576097217
  0
ARC
  5
219
330
1F
100
AcDbEntity
  8
0
  6
Continuous
 62
     7
370
    15
100
AcDbCircle
 10
282.8535607221
 20
45.5923108703
 30
0.0
 40
11.68323572211825
100
AcDbArc
 50
145.9450062273
 51
177.6872813883
  0
LWPOLYLINE
  5
21A
330
1F
100
AcDbEntity
  8
0
  6
Continuous
 62
     7
370
    15
100
AcDbPolyline
 90
       39
 70
   128
 43
0.0
 10
278.9730394261
 20
56.4217073438
 10
279.5022161895
 20
56.4167264948
 10
280.0412763297
 20
56.3185033114
 10
280.5355313258
 20
56.1249166921
 10
280.9782972267
 20
55.8385845636
 10
281.3635863832
 20
55.463379077
 10
281.6861884205
 20
55.0043742427
 10
281.9417406994
 20
54.4677773136
 10
282.1267873138
 20
53.8608448428
 10
282.2388258256
 20
53.1917845507
 10
282.2763411061
 20
52.46964433
 10
282.2388258256
 20
51.7041898883
 10
282.1267873138
 20
50.905772684
 10
281.9417406994
 20
50.0851899399
 10
281.6861884205
 20
49.25353863
 10
281.3635863832
 20
48.4220654116
 10
280.9782972267
 20
47.6020145336
 10
280.5355313258
 20
46.8044757773
 10
280.0412763297
 20
46.0402344863
 10
279.5022161895
 20
45.3196257129
 10
278.9256407688
 20
44.6523944546
 10
278.319347261
 20
44.0475638696
 10
277.6915347457
 20
43.5133132539
 10
277.0506933102
 20
43.0568674307
 10
276.4054892356
 20
42.6843990467
 10
275.7646478002
 20
42.4009450977
 10
275.1368352849
 20
42.2103388122
 10
274.5305417771
 20
42.1151578133
 10
273.9539663563
 20
42.1166892606
 10
273.4149062161
 20
42.214912444
 10
272.9206512201
 20
42.4084990633
 10
272.4778853192
 20
42.6948311918
 10
272.0925961626
 20
43.0700366784
 10
271.7699941253
 20
43.5290415127
 10
271.5144418464
 20
44.0656384418
 10
271.3293952321
 20
44.6725709126
 10
271.2173567203
 20
45.3416312047
 10
271.1798414398
 20
46.0637714254
 10
271.1798414398
 20
46.0637714254
  0
LINE
  5
21B
330
1F
100
AcDbEntity
  8
0
  6
Continuous
 62
     7
370
    15
100
AcDbLine
 10
271.7783438046
 20
39.8565394709
 30
0.0
 11
273.4752559712
 21
40.8361460132
 31
0.0
  0
LINE
  5
21C
330
1F
100
AcDbEntity
  8
0
  6
Continuous
 62
     7
370
    15
100
AcDbLine
 10
271.418149089
 20
39.689747637
 30
0.0
 11
271.7783438046
 21
39.8565394709
 31
0.0
  0
ARC
  5
21D
330
1F
100
AcDbEntity
  8
0
  6
Continuous
 62
     7
370
    15
100
AcDbCircle
 10
281.0798024367
 20
57.5852555974
 30
0.0
 40
2.437849799885564
100
AcDbArc
 50
346.9883651865
 51
10.6364611935
  0
LWPOLYLINE
  5
21E
330
1F
100
AcDbEntity
  8
0
  6
Continuous
 62
     7
370
    15
100
AcDbPolyline
 90
       10
 70
   128
 43
0.0
 10
283.4550588945
 20
49.2638308806
 10
283.7656573722
 20
50.2631118556
 10
284.0015384037
 20
51.2518140652
 10
284.1601976533
 20
52.2194405133
 10
284.2399506446
 20
53.155717964
 10
284.2399506446
 20
54.0507060118
 10
284.1601976533
 20
54.8949026186
 10
284.0015384037
 20
55.6793449963
 10
283.7656573722
 20
56.3957047639
 10
283.4550588945
 20
57.0363763699
  0
ARC
  5
21F
330
1F
100
AcDbEntity
  8
0
  6
Continuous
 62
     7
370
    15
100
AcDbCircle
 10
279.748981018
 20
48.7737000145
 30
0.0
 40
3.738347428065107
100
AcDbArc
 50
301.0620018917
 51
7.5336799128
  0
LINE
  5
220
330
1F
100
AcDbEntity
  8
0
  6
Continuous
 62
     7
370
    15
100
AcDbLine
 10
279.9809265746
 20
44.5917897114
 30
0.0
 11
281.6778387412
 21
45.5713962537
 31
0.0
  0
LWPOLYLINE
  5
221
330
1F
100
AcDbEntity
  8
0
  6
Continuous
 62
     7
370
    15
100
AcDbPolyline
 90
       10
 70
   128
 43
0.0
 10
279.9809265746
 20
44.5917897114
 10
279.3042914785
 20
43.8114522333
 10
278.5932275677
 20
43.1040197978
 10
277.8572376315
 20
42.4789466624
 10
277.106157575
 20
41.9445864197
 10
276.3500249708
 20
41.5080803585
 10
275.5989449144
 20
41.1752620265
 10
274.8629549782
 20
40.9505792691
 10
274.1518910674
 20
40.8370347883
 10
273.4752559712
 20
40.8361460132
  0
ARC
  5
222
330
1F
100
AcDbEntity
  8
0
  6
Continuous
 62
     7
370
    15
100
AcDbCircle
 10
274.0639057163
 20
40.1117707159
 30
0.0
 40
2.708969812927469
100
AcDbArc
 50
167.8781475344
 51
185.1588186135
  0
LWPOLYLINE
  5
223
330
1F
100
AcDbEntity
  8
0
  6
Continuous
 62
     7
370
    15
100
AcDbPolyline
 90
       10
 70
   128
 43
0.0
 10
271.4153372137
 20
40.6806312737
 10
271.1047387361
 20
41.3213028796
 10
270.8688577046
 20
42.0376626472
 10
270.710198455
 20
42.8221050249
 10
270.6304454637
 20
43.6663016318
 10
270.6304454637
 20
44.5612896796
 10
270.710198455
 20
45.4975671303
 10
270.8688577046
 20
46.4651935784
 10
271.1047387361
 20
47.453895788
 10
271.4153372137
 20
48.453176763
  0
ARC
  5
224
330
1F
100
AcDbEntity
  8
0
  6
Continuous
 62
     7
370
    15
100
AcDbCircle
 10
273.5358736499
 20
48.971238622
 30
0.0
 40
2.182902395198688
100
AcDbArc
 50
173.7588101909
 51
193.7288361877
  0
LINE
  5
225
330
1F
100
AcDbEntity
  8
0
  6
Continuous
 62
     7
370
    15
100
AcDbLine
 10
270.9585126703
 20
67.6072179667
 30
0.0
 11
271.0299710596
 21
67.5668630531
 31
0.0
  0
LINE
  5
226
330
1F
100
AcDbEntity
  8
0
  6
Continuous
 62
     7
370
    15
100
AcDbLine
 10
258.0310275353
 20
45.0495926312
 30
0.0
 11
257.9142856068
 21
45.1194516079
 31
0.0
  0
LWPOLYLINE
  5
227
330
1F
100
AcDbEntity
  8
0
  6
Continuous
 62
     7
370
    15
100
AcDbPolyline
 90
       34
 70
   128
 43
0.0
 10
278.8223803356
 20
56.3549632826
 10
279.1348531831
 20
56.3244241756
 10
279.6453726063
 20
56.1961391011
 10
280.1089840568
 20
55.9740181757
 10
280.5191794461
 20
55.6611794905
 10
280.8702005301
 20
55.2620146147
 10
281.1571197422
 20
54.7821269484
 10
281.3759093656
 20
54.2282530623
 10
281.5234980736
 20
53.6081681317
 10
281.5978140443
 20
52.9305767899
 10
281.5978140443
 20
52.204990934
 10
281.5234980736
 20
51.4415961988
 10
281.3759093656
 20
50.6511089731
 10
281.1571197422
 20
49.8446259648
 10
280.8702005301
 20
49.0334684274
 10
280.5191794461
 20
48.2290232347
 10
280.1089840568
 20
47.4425830338
 10
279.6453726063
 20
46.6851877214
 10
279.1348531831
 20
45.9674694672
 10
278.5845923608
 20
45.2995034624
 10
278.0023145953
 20
44.6906664855
 10
277.3961937899
 20
44.149505273
 10
276.7747385522
 20
43.6836165421
 10
276.1466727513
 20
43.2995403494
 10
275.5208130545
 20
43.0026682827
 10
274.90594516
 20
42.797167775
 10
274.3107004652
 20
42.685923603
 10
273.7434349008
 20
42.6704973911
 10
273.2121116319
 20
42.7511056895
 10
272.7241892725
 20
42.9266169343
 10
272.286517183
 20
43.1945673323
 10
271.9052393202
 20
43.5511954475
 10
271.5857079894
 20
43.9914950026
 10
271.4527931557
 20
44.2365253644
  0
SPLINE
  5
228
330
1F
100
AcDbEntity
  8
0
  6
Continuous
 62
     7
370
    15
100
AcDbSpline
210
0.0
220
0.0
230
1.0
 70
     8
 71
     3
 72
    10
 73
     6
 74
     0
 42
0.000000001
 43
0.00000001
 40
0.0
 40
0.0
 40
0.0
 40
0.0
 40
0.5
 40
0.5
 40
1.0
 40
1.0
 40
1.0
 40
1.0
 10
253.7258096050141
 20
54.15345095921911
 30
0.0
 10
253.6692809192315
 20
54.12081764353649
 30
0.0
 10
253.5906375966568
 20
54.10044466807752
 30
0.0
 10
253.4304076823257
 20
54.09738326811617
 30
0.0
 10
253.349240669785
 20
54.11504246799642
 30
0.0
 10
253.2921267694471
 20
54.14801362085073
 30
0.0
  0
SPLINE
  5
229
330
1F
100
AcDbEntity
  8
0
  6
Continuous
 62
     7
370
    15
100
AcDbSpline
210
0.0
220
0.0
230
1.0
 70
     8
 71
     3
 72
    12
 73
     8
 74
     0
 42
0.000000001
 43
0.00000001
 40
0.0
 40
0.0
 40
0.0
 40
0.0
 40
0.250000000000002
 40
0.250000000000002
 40
0.500000000000004
 40
0.500000000000004
 40
1.0
 40
1.0
 40
1.0
 40
1.0
 10
270.9828486757919
 20
70.67197549910584
 30
0.0
 10
271.0147530041367
 20
70.65355752239007
 30
0.0
 10
271.0468903405775
 20
70.62364298175801
 30
0.0
 10
271.1015486470038
 20
70.55324556181509
 30
0.0
 10
271.1245219863341
 20
70.51286486513928
 30
0.0
 10
271.1782037752718
 20
70.3903410351039
 30
0.0
 10
271.1949807101479
 20
70.30553971349822
 30
0.0
 10
271.1949807101479
 20
70.2319871178646
 30
0.0
  0
LINE
  5
22A
330
1F
100
AcDbEntity
  8
0
  6
Continuous
 62
     7
370
    15
100
AcDbLine
 10
253.2921267694
 20
54.1480136209
 30
0.0
 11
251.8927387018
 21
54.9558631567
 31
0.0
  0
LWPOLYLINE
  5
22B
330
1F
100
AcDbEntity
  8
0
  6
Continuous
 62
     7
370
    15
100
AcDbPolyline
 90
       25
 70
   128
 43
0.0
 10
251.8927387018
 20
54.9558631567
 10
252.188354372
 20
56.1210475202
 10
252.5533387072
 20
57.2950664715
 10
252.9852518593
 20
58.4700719268
 10
253.4812065747
 20
59.6382092075
 10
254.0378874944
 20
60.7916695476
 10
254.6515733168
 20
61.9227422933
 10
255.3181616739
 20
63.0238664478
 10
256.0331965547
 20
64.0876812142
 10
256.7918980928
 20
65.1070752019
 10
257.5891945189
 20
66.0752339642
 10
258.4197560644
 20
66.9856855517
 10
259.2780305901
 20
67.8323437761
 10
260.158280701
 20
68.609548895
 10
261.0546220996
 20
69.3121054463
 10
261.9610629214
 20
69.9353169788
 10
262.8715437893
 20
70.4750174469
 10
263.7799783191
 20
70.9275990601
 10
264.6802938062
 20
71.2900364
 10
265.5664718201
 20
71.5599066448
 10
266.4325884364
 20
71.7354057655
 10
267.2728538373
 20
71.8153605852
 10
268.0816510152
 20
71.7992366218
 10
268.8535733213
 20
71.6871416609
 10
269.5834606082
 20
71.479825035
  0
LINE
  5
22C
330
1F
100
AcDbEntity
  8
0
  6
Continuous
 62
     7
370
    15
100
AcDbLine
 10
269.5834606082
 20
71.479825035
 30
0.0
 11
270.9828486758
 21
70.6719754991
 31
0.0
  0
LINE
  5
22D
330
1F
100
AcDbEntity
  8
0
  6
Continuous
 62
     7
370
    15
100
AcDbLine
 10
274.3491156074
 20
65.650761691
 30
0.0
 11
274.7292560805
 21
65.870212115
 31
0.0
  0
LINE
  5
22E
330
1F
100
AcDbEntity
  8
0
  6
Continuous
 62
     7
370
    15
100
AcDbLine
 10
254.8431363952
 20
53.435005516
 30
0.0
 11
254.8431363952
 21
54.7984699856
 31
0.0
  0
LINE
  5
22F
330
1F
100
AcDbEntity
  8
0
  6
Continuous
 62
     7
370
    15
100
AcDbLine
 10
254.8431363952
 20
54.7984699856
 30
0.0
 11
253.725809605
 21
54.1534509592
 31
0.0
  0
LINE
  5
230
330
1F
100
AcDbEntity
  8
0
  6
Continuous
 62
     7
370
    15
100
AcDbLine
 10
271.1949807101
 20
70.2319871179
 30
0.0
 11
271.1949807101
 21
68.667922683
 31
0.0
  0
LINE
  5
231
330
1F
100
AcDbEntity
  8
0
  6
Continuous
 62
     7
370
    15
100
AcDbLine
 10
272.5494268713
 20
69.4498278085
 30
0.0
 11
271.1949807101
 21
68.667922683
 31
0.0
  0
SPLINE
  5
232
330
1F
100
AcDbEntity
  8
0
  6
Continuous
 62
     7
370
    15
100
AcDbSpline
210
0.0
220
0.0
230
1.0
 70
     8
 71
     3
 72
    20
 73
    16
 74
     0
 42
0.000000001
 43
0.00000001
 40
0.0
 40
0.0
 40
0.0
 40
0.0
 40
0.25
 40
0.25
 40
0.3750000000000001
 40
0.3750000000000001
 40
0.4375000000000001
 40
0.4375000000000001
 40
0.4687500000000001
 40
0.4687500000000001
 40
0.5000000000000001
 40
0.5000000000000001
 40
0.7500000000000001
 40
0.7500000000000001
 40
1.0
 40
1.0
 40
1.0
 40
1.0
 10
254.8431363952089
 20
48.81306714823143
 30
0.0
 10
254.8431363952089
 20
49.20544932475198
 30
0.0
 10
254.863582174519
 20
49.58562595921801
 30
0.0
 10
254.8907557502384
 20
50.15797738103621
 30
0.0
 10
254.8993361300323
 20
50.3490462294038
 30
0.0
 10
254.9081925077762
 20
50.63804585906551
 30
0.0
 10
254.9104843146986
 20
50.73477326039467
 30
0.0
 10
254.9126785483862
 20
50.88060668220314
 30
0.0
 10
254.9132042902147
 20
50.92934060152135
 30
0.0
 10
254.9138240227132
 20
51.02706618317862
 30
0.0
 10
254.9139131307614
 20
51.07631123618902
 30
0.0
 10
254.9128745248445
 20
51.50297392807173
 30
0.0
 10
254.8973612845725
 20
51.8902302744544
 30
0.0
 10
254.8622238056501
 20
52.66691253715599
 30
0.0
 10
254.8431363952089
 20
53.05606639377376
 30
0.0
 10
254.8431363952089
 20
53.43500551596203
 30
0.0
  0
LWPOLYLINE
  5
233
330
1F
100
AcDbEntity
  8
0
  6
Continuous
 62
     7
370
    15
100
AcDbPolyline
 90
       22
 70
   128
 43
0.0
 10
250.9689559141
 20
56.5868451907
 10
251.2838764854
 20
57.7347372993
 10
251.6706344056
 20
58.8886625828
 10
252.1262761754
 20
60.0398090245
 10
252.6473222602
 20
61.1793858283
 10
253.2297936617
 20
62.2986905504
 10
253.8692423035
 20
63.3891755558
 10
254.5607849992
 20
64.442513293
 10
255.2991407432
 20
65.4506598878
 10
256.0786710395
 20
66.4059165708
 10
256.89342296
 20
67.3009884692
 10
257.7371746047
 20
68.129040315
 10
258.6034826158
 20
68.8837486426
 10
259.4857313823
 20
69.5593500786
 10
260.3771835606
 20
70.1506853535
 10
261.2710315249
 20
70.6532387016
 10
262.1604493538
 20
71.0631723453
 10
263.0386449569
 20
71.3773558028
 10
263.8989119428
 20
71.5933897939
 10
264.7346808333
 20
71.7096245628
 10
265.5395692311
 20
71.7251724758
 10
266.0840219618
 20
71.6756766969
  0
SPLINE
  5
234
330
1F
100
AcDbEntity
  8
0
  6
Continuous
 62
     7
370
    15
100
AcDbSpline
210
0.0
220
0.0
230
1.0
 70
     8
 71
     3
 72
     8
 73
     4
 74
     0
 42
0.000000001
 43
0.00000001
 40
0.0
 40
0.0
 40
0.0
 40
0.0
 40
1.0
 40
1.0
 40
1.0
 40
1.0
 10
250.9689559140562
 20
56.58684519069739
 30
0.0
 10
250.4776548850036
 20
56.50419797049351
 30
0.0
 10
249.9860747941009
 20
56.42211418300306
 30
0.0
 10
249.494279995349
 20
56.34046389592132
 30
0.0
  0
LWPOLYLINE
  5
235
330
1F
100
AcDbEntity
  8
0
  6
Continuous
 62
     7
370
    15
100
AcDbPolyline
 90
       25
 70
   128
 43
0.0
 10
249.4942799953
 20
56.3404638959
 10
249.7898956656
 20
57.5056482594
 10
250.1548800007
 20
58.6796672107
 10
250.5867931528
 20
59.854672666
 10
251.0827478682
 20
61.0228099467
 10
251.6394287879
 20
62.1762702868
 10
252.2531146103
 20
63.3073430325
 10
252.9197029674
 20
64.408467187
 10
253.6347378482
 20
65.4722819534
 10
254.3934393864
 20
66.4916759411
 10
255.1907358124
 20
67.4598347034
 10
256.0212973579
 20
68.3702862909
 10
256.8795718837
 20
69.2169445153
 10
257.7598219945
 20
69.9941496342
 10
258.6561633932
 20
70.6967061855
 10
259.562604215
 20
71.319917718
 10
260.4730850828
 20
71.8596181861
 10
261.3815196126
 20
72.3121997993
 10
262.2818350997
 20
72.6746371391
 10
263.1680131136
 20
72.944507384
 10
264.0341297299
 20
73.1200065046
 10
264.8743951308
 20
73.1999613244
 10
265.6831923087
 20
73.183837361
 10
266.4551146148
 20
73.0717424001
 10
267.1850019017
 20
72.8644257742
  0
LINE
  5
236
330
1F
100
AcDbEntity
  8
0
  6
Continuous
 62
     7
370
    15
100
AcDbLine
 10
267.1850019017
 20
72.8644257742
 30
0.0
 11
267.5200878951
 21
71.781807336
 31
0.0
  0
LINE
  5
237
330
1F
100
AcDbEntity
  8
0
  6
Continuous
 62
     7
370
    15
100
AcDbLine
 10
263.7703595077
 20
74.8356568694
 30
0.0
 11
267.1850019017
 21
72.8644257742
 31
0.0
  0
LINE
  5
238
330
1F
100
AcDbEntity
  8
0
  6
Continuous
 62
     7
370
    15
100
AcDbLine
 10
249.4942799953
 20
56.3404638959
 30
0.0
 11
248.9080647261
 21
56.6788787675
 31
0.0
  0
SPLINE
  5
239
330
1F
100
AcDbEntity
  8
0
  6
Continuous
 62
     7
370
    15
100
AcDbSpline
210
0.0
220
0.0
230
1.0
 70
     8
 71
     3
 72
    28
 73
    24
 74
     0
 42
0.000000001
 43
0.00000001
 40
0.0
 40
0.0
 40
0.0
 40
0.0
 40
0.1249999999999999
 40
0.1249999999999999
 40
0.1874999999999998
 40
0.1874999999999998
 40
0.2499999999999997
 40
0.2499999999999997
 40
0.3749999999999993
 40
0.3749999999999993
 40
0.4374999999999993
 40
0.4374999999999993
 40
0.4999999999999992
 40
0.4999999999999992
 40
0.6249999999999992
 40
0.6249999999999992
 40
0.7499999999999992
 40
0.7499999999999992
 40
0.8124999999999993
 40
0.8124999999999993
 40
0.8749999999999996
 40
0.8749999999999996
 40
1.0
 40
1.0
 40
1.0
 40
1.0
 10
248.9080647260906
 20
56.67887876750113
 30
0.0
 10
248.7200776456242
 20
56.7874013990852
 30
0.0
 10
248.5298576910235
 20
56.86934511963312
 30
0.0
 10
248.2417590890755
 20
56.95450284967158
 30
0.0
 10
248.1452692184759
 20
56.97655278007538
 30
0.0
 10
247.951531045641
 20
57.00782660353434
 30
0.0
 10
247.8542800251097
 20
57.01695385485777
 30
0.0
 10
247.5682581502243
 20
57.02473669696617
 30
0.0
 10
247.3829163338677
 20
57.0044301533291
 30
0.0
 10
247.1144037470519
 20
56.93720950019597
 30
0.0
 10
247.0260430873861
 20
56.90842314259038
 30
0.0
 10
246.8556903770965
 20
56.83941125249522
 30
0.0
 10
246.773663347315
 20
56.7992713625851
 30
0.0
 10
246.5372270935624
 20
56.66265159482187
 30
0.0
 10
246.39235984344
 20
56.55013710513281
 30
0.0
 10
246.131503049956
 20
56.28188014013334
 30
0.0
 10
246.0192106424536
 20
56.12972675375605
 30
0.0
 10
245.8799861609998
 20
55.87781036605775
 30
0.0
 10
245.838390374634
 20
55.78976808038138
 30
0.0
 10
245.7652656595728
 20
55.60542702532955
 30
0.0
 10
245.7336411755199
 20
55.50863826264778
 30
0.0
 10
245.6561478720977
 20
55.21062318375097
 30
0.0
 10
245.6269731567078
 20
55.00115030661444
 30
0.0
 10
245.6210062739661
 20
54.78076951393057
 30
0.0
  0
ARC
  5
23A
330
1F
100
AcDbEntity
  8
0
  6
Continuous
 62
     7
370
    15
100
AcDbCircle
 10
260.4643727363
 20
54.372499108
 30
0.0
 40
14.84898018918644
100
AcDbArc
 50
178.4244628824
 51
181.5755371176
  0
SPLINE
  5
23B
330
1F
100
AcDbEntity
  8
0
  6
Continuous
 62
     7
370
    15
100
AcDbSpline
210
0.0
220
0.0
230
1.0
 70
     8
 71
     3
 72
    30
 73
    26
 74
     0
 42
0.000000001
 43
0.00000001
 40
0.0
 40
0.0
 40
0.0
 40
0.0
 40
0.1250000000000001
 40
0.1250000000000001
 40
0.1875000000000002
 40
0.1875000000000002
 40
0.2500000000000003
 40
0.2500000000000003
 40
0.3750000000000004
 40
0.3750000000000004
 40
0.4375000000000004
 40
0.4375000000000004
 40
0.5000000000000004
 40
0.5000000000000004
 40
0.6250000000000007
 40
0.6250000000000007
 40
0.6875000000000006
 40
0.6875000000000006
 40
0.7500000000000004
 40
0.7500000000000004
 40
0.8125000000000004
 40
0.8125000000000004
 40
0.8750000000000003
 40
0.8750000000000003
 40
1.0
 40
1.0
 40
1.0
 40
1.0
 10
245.6210062739661
 20
53.96422870204482
 30
0.0
 10
245.6269738726575
 20
53.7507115092701
 30
0.0
 10
245.656119092657
 20
53.53316161125097
 30
0.0
 10
245.7325537539159
 20
53.20086258171538
 30
0.0
 10
245.7635197374932
 20
53.08908828041582
 30
0.0
 10
245.8364896783089
 20
52.86338640688082
 30
0.0
 10
245.8786258768674
 20
52.74929863430831
 30
0.0
 10
246.0185176662318
 20
52.41113590694712
 30
0.0
 10
246.1303615907741
 20
52.18862568767435
 30
0.0
 10
246.3241481879187
 20
51.85801543172477
 30
0.0
 10
246.3934888255219
 20
51.74778879201863
 30
0.0
 10
246.5389812099687
 20
51.53105879156509
 30
0.0
 10
246.6148685006877
 20
51.42486185593437
 30
0.0
 10
246.8512564491591
 20
51.11222368268476
 30
0.0
 10
247.02040195141
 20
50.91168113484959
 30
0.0
 10
247.290267948744
 20
50.62157629542725
 30
0.0
 10
247.3824594547949
 20
50.52723287905481
 30
0.0
 10
247.5680580498296
 20
50.34592785099441
 30
0.0
 10
247.6618869301165
 20
50.25850851750026
 30
0.0
 10
247.8513369805818
 20
50.08990096717561
 30
0.0
 10
247.9469583957875
 20
50.00871278140627
 30
0.0
 10
248.1398200852139
 20
49.85255010185813
 30
0.0
 10
248.2375549941123
 20
49.77722312216142
 30
0.0
 10
248.5288109492326
 20
49.56393288871758
 30
0.0
 10
248.7200683402058
 20
49.43853946401715
 30
0.0
 10
248.9080647260906
 20
49.33001146052938
 30
0.0
  0
LINE
  5
23C
330
1F
100
AcDbEntity
  8
0
  6
Continuous
 62
     7
370
    15
100
AcDbLine
 10
248.9080647261
 20
49.3300114605
 30
0.0
 11
249.4942799953
 21
48.9915965889
 31
0.0
  0
ARC
  5
23D
330
1F
100
AcDbEntity
  8
0
  6
Continuous
 62
     7
370
    15
100
AcDbCircle
 10
255.309013683
 20
50.3767513409
 30
0.0
 40
5.977439380251468
100
AcDbArc
 50
193.398972344
 51
253.2231990126
  0
LINE
  5
23E
330
1F
100
AcDbEntity
  8
0
  6
Continuous
 62
     7
370
    15
100
AcDbLine
 10
268.814419758
 20
71.9234770812
 30
0.0
 11
269.1487321618
 21
71.616148971
 31
0.0
  0
LINE
  5
23F
330
1F
100
AcDbEntity
  8
0
  6
Continuous
 62
     7
370
    15
100
AcDbLine
 10
267.9614910042
 20
72.41586237
 30
0.0
 11
268.814419758
 21
71.9234770812
 31
0.0
  0
SPLINE
  5
240
330
1F
100
AcDbEntity
  8
0
  6
Continuous
 62
     7
370
    15
100
AcDbSpline
210
0.0
220
0.0
230
1.0
 70
     8
 71
     3
 72
    20
 73
    16
 74
     0
 42
0.000000001
 43
0.00000001
 40
0.0
 40
0.0
 40
0.0
 40
0.0
 40
0.2500000000000005
 40
0.2500000000000005
 40
0.3750000000000004
 40
0.3750000000000004
 40
0.5000000000000003
 40
0.5000000000000003
 40
0.6250000000000002
 40
0.6250000000000002
 40
0.7500000000000001
 40
0.7500000000000001
 40
0.8750000000000001
 40
0.8750000000000001
 40
1.0
 40
1.0
 40
1.0
 40
1.0
 10
263.7703595076892
 20
74.83565686940157
 30
0.0
 10
264.0893481620871
 20
74.70176648014177
 30
0.0
 10
264.4158037621851
 20
74.54187013307978
 30
0.0
 10
264.9281538795682
 20
74.26395120561027
 30
0.0
 10
265.102757246246
 20
74.16495219279997
 30
0.0
 10
265.4626311085949
 20
73.95401148790125
 30
0.0
 10
265.6454915249485
 20
73.84345567069123
 30
0.0
 10
266.0117866141256
 20
73.6180378016804
 30
0.0
 10
266.1962701303843
 20
73.50255720030094
 30
0.0
 10
266.5698549546198
 20
73.26772485600516
 30
0.0
 10
266.7542044258591
 20
73.15139493072991
 30
0.0
 10
267.1149143323355
 20
72.92570024393052
 30
0.0
 10
267.2919683215893
 20
72.81589026983384
 30
0.0
 10
267.6396976729417
 20
72.60449550629794
 30
0.0
 10
267.8049480894
 20
72.50623267115492
 30
0.0
 10
267.9614910041814
 20
72.41586237003756
 30
0.0
  0
LWPOLYLINE
  5
241
330
1F
100
AcDbEntity
  8
0
  6
Continuous
 62
     7
370
    15
100
AcDbPolyline
 90
       10
 70
   128
 43
0.0
 10
256.001573866
 20
75.0823050579
 10
256.6932520867
 20
75.3921356803
 10
257.5865019045
 20
75.7162593204
 10
258.4632597072
 20
75.9474234839
 10
259.317690816
 20
76.0840898114
 10
260.1441091331
 20
76.1253488112
 10
260.9370149808
 20
76.0709259113
 10
261.6911317016
 20
75.9211832872
 10
262.401440773
 20
75.6771174514
 10
262.9826614577
 20
75.3878164697
  0
LWPOLYLINE
  5
242
330
1F
100
AcDbEntity
  8
0
  6
Continuous
 62
     7
370
    15
100
AcDbPolyline
 90
       10
 70
   128
 43
0.0
 10
247.2339414186
 20
48.1072773047
 10
246.8420906279
 20
48.3572090594
 10
246.2612666422
 20
48.8286314781
 10
245.7393182134
 20
49.3860271474
 10
245.2797188222
 20
50.0256866911
 10
244.8855270267
 20
50.7433532804
 10
244.5593661083
 20
51.5342509625
 10
244.303406614
 20
52.393116444
 10
244.1193519121
 20
53.3142341167
 10
244.0377260634
 20
53.9548454162
  0
ARC
  5
243
330
1F
100
AcDbEntity
  8
0
  6
Continuous
 62
     7
370
    15
100
AcDbCircle
 10
272.2525976261
 20
40.6009083109
 30
0.0
 40
1.82196295451534
100
AcDbArc
 50
278.9215321124
 51
301.0579635503
  0
LINE
  5
244
330
1F
100
AcDbEntity
  8
0
  6
Continuous
 62
     7
370
    15
100
AcDbLine
 10
252.1035704689
 20
55.8125864223
 30
0.0
 11
251.6399426764
 21
56.0802330499
 31
0.0
  0
LINE
  5
245
330
1F
100
AcDbEntity
  8
0
  6
Continuous
 62
     7
370
    15
100
AcDbLine
 10
251.2141245184
 20
56.7283780134
 30
0.0
 11
250.9689559141
 21
56.5868451907
 31
0.0
  0
SPLINE
  5
246
330
1F
100
AcDbEntity
  8
0
  6
Continuous
 62
     7
370
    15
100
AcDbSpline
210
0.0
220
0.0
230
1.0
 70
     8
 71
     3
 72
    14
 73
    10
 74
     0
 42
0.000000001
 43
0.00000001
 40
0.0
 40
0.0
 40
0.0
 40
0.0
 40
0.1250000000000006
 40
0.1250000000000006
 40
0.2500000000000012
 40
0.2500000000000012
 40
0.4999999999999998
 40
0.4999999999999998
 40
1.0
 40
1.0
 40
1.0
 40
1.0
 10
251.6399426764339
 20
56.0802330498754
 30
0.0
 10
251.6157462432688
 20
56.09420135341794
 30
0.0
 10
251.5925708048098
 20
56.1215665294155
 30
0.0
 10
251.5556504123789
 20
56.17936829854102
 30
0.0
 10
251.5406086213463
 20
56.21033877765739
 30
0.0
 10
251.5007951647594
 20
56.30336525058659
 30
0.0
 10
251.4811591463753
 20
56.36597630487137
 30
0.0
 10
251.4307382979059
 20
56.55030705578637
 30
0.0
 10
251.4083211196653
 20
56.67185129068703
 30
0.0
 10
251.3916332214994
 20
56.7909803559894
 30
0.0
  0
SPLINE
  5
247
330
1F
100
AcDbEntity
  8
0
  6
Continuous
 62
     7
370
    15
100
AcDbSpline
210
0.0
220
0.0
230
1.0
 70
     8
 71
     3
 72
    10
 73
     6
 74
     0
 42
0.000000001
 43
0.00000001
 40
0.0
 40
0.0
 40
0.0
 40
0.0
 40
0.5
 40
0.5
 40
1.0
 40
1.0
 40
1.0
 40
1.0
 10
251.3916332214994
 20
56.7909803559894
 30
0.0
 10
251.3582432033116
 20
56.78483058678917
 30
0.0
 10
251.3260038518835
 20
56.7762839789411
 30
0.0
 10
251.2660159576212
 20
56.7550480051722
 30
0.0
 10
251.2387540843722
 20
56.74259635916402
 30
0.0
 10
251.2141245184224
 20
56.72837801338717
 30
0.0
  0
ARC
  5
248
330
1F
100
AcDbEntity
  8
0
  6
Continuous
 62
     7
370
    15
100
AcDbCircle
 10
282.2207039543
 20
56.7888288159
 30
0.0
 40
2.708969812922779
100
AcDbArc
 50
347.8781475344
 51
5.1588186135
  0
LINE
  5
249
330
1F
100
AcDbEntity
  8
0
  6
Continuous
 62
     7
370
    15
100
AcDbLine
 10
283.4550588945
 20
57.0363763699
 30
0.0
 11
284.8692724569
 21
56.219968258
 31
0.0
  0
LWPOLYLINE
  5
24A
330
1F
100
AcDbEntity
  8
0
  6
Continuous
 62
     7
370
    15
100
AcDbPolyline
 90
       10
 70
   128
 43
0.0
 10
281.395140137
 20
43.7753815996
 10
280.7185050409
 20
42.9950441215
 10
280.0074411301
 20
42.287611686
 10
279.2714511938
 20
41.6625385505
 10
278.5203711374
 20
41.1281783078
 10
277.7642385332
 20
40.6916722467
 10
277.0131584768
 20
40.3588539147
 10
276.2771685405
 20
40.1341711573
 10
275.5661046297
 20
40.0206266764
 10
274.8894695336
 20
40.0197379014
  0
LINE
  5
24B
330
1F
100
AcDbEntity
  8
0
  6
Continuous
 62
     7
370
    15
100
AcDbLine
 10
283.0920523036
 20
44.7549881419
 30
0.0
 11
281.395140137
 21
43.7753815996
 31
0.0
  0
ARC
  5
24C
330
1F
100
AcDbEntity
  8
0
  6
Continuous
 62
     7
370
    15
100
AcDbCircle
 10
281.5033277806
 20
47.4395738954
 30
0.0
 40
3.119462498237116
100
AcDbArc
 50
300.6168359905
 51
316.0576097217
  0
LINE
  5
24D
330
1F
100
AcDbEntity
  8
0
  6
Continuous
 62
     7
370
    15
100
AcDbLine
 10
274.8894695336
 20
40.0197379014
 30
0.0
 11
273.192557367
 21
39.0401313591
 31
0.0
  0
LINE
  5
24E
330
1F
100
AcDbEntity
  8
0
  6
Continuous
 62
     7
370
    15
100
AcDbLine
 10
273.4752559712
 20
40.8361460132
 30
0.0
 11
274.8894695336
 21
40.0197379014
 31
0.0
  0
LWPOLYLINE
  5
24F
330
1F
100
AcDbEntity
  8
0
  6
Continuous
 62
     7
370
    15
100
AcDbPolyline
 90
       20
 70
   128
 43
0.0
 10
244.1058775782
 20
57.5016082515
 10
244.1218162661
 20
57.6242571411
 10
244.308911194
 20
58.762655954
 10
244.5690523692
 20
59.9218628658
 10
244.9004627638
 20
61.0939593179
 10
245.3008785087
 20
62.2709387029
 10
245.7675643583
 20
63.4447610582
 10
246.2973323751
 20
64.6074079869
 10
246.8865637064
 20
65.7509374316
 10
247.5312333047
 20
66.8675379267
 10
248.2269374229
 20
67.9495819584
 10
248.9689236965
 20
68.989678069
 10
249.7521236069
 20
69.9807213474
 10
250.5711871046
 20
70.915941963
 10
251.4205191552
 20
71.7889514108
 10
252.2943179598
 20
72.5937861509
 10
253.1866145864
 20
73.3249483461
 10
254.0913137443
 20
73.9774434171
 10
255.002235421
 20
74.546814161
 10
255.7102818757
 20
74.9292928108
  0
LINE
  5
250
330
1F
100
AcDbEntity
  8
0
  6
Continuous
 62
     7
370
    15
100
AcDbLine
 10
252.6731406585
 20
48.7023145527
 30
0.0
 11
254.8431363952
 21
47.4496026786
 31
0.0
  0
SPLINE
  5
251
330
1F
100
AcDbEntity
  8
0
  6
Continuous
 62
     7
370
    15
100
AcDbSpline
210
0.0
220
0.0
230
1.0
 70
     8
 71
     3
 72
    14
 73
    10
 74
     0
 42
0.000000001
 43
0.00000001
 40
0.0
 40
0.0
 40
0.0
 40
0.0
 40
0.1249999999999999
 40
0.1249999999999999
 40
0.2499999999999998
 40
0.2499999999999998
 40
0.4999999999999996
 40
0.4999999999999996
 40
1.0
 40
1.0
 40
1.0
 40
1.0
 10
252.424831203551
 20
49.41306185881349
 30
0.0
 10
252.4490597815037
 20
49.39907499848009
 30
0.0
 10
252.4721456228696
 20
49.37177622866336
 30
0.0
 10
252.5088879969327
 20
49.31433702035594
 30
0.0
 10
252.5240462966165
 20
49.28318654535354
 30
0.0
 10
252.5636092235042
 20
49.19088700514779
 30
0.0
 10
252.583219096747
 20
49.12864922439225
 30
0.0
 10
252.6340419457019
 20
48.94319345819569
 30
0.0
 10
252.656473629826
 20
48.82129463789797
 30
0.0
 10
252.6731406584855
 20
48.70231455269938
 30
0.0
  0
LINE
  5
252
330
1F
100
AcDbEntity
  8
0
  6
Continuous
 62
     7
370
    15
100
AcDbLine
 10
251.6399426764
 20
49.8661683609
 30
0.0
 11
252.4248312036
 21
49.4130618588
 31
0.0
  0
SPLINE
  5
253
330
1F
100
AcDbEntity
  8
0
  6
Continuous
 62
     7
370
    15
100
AcDbSpline
210
0.0
220
0.0
230
1.0
 70
     8
 71
     3
 72
    14
 73
    10
 74
     0
 42
0.000000001
 43
0.00000001
 40
0.0
 40
0.0
 40
0.0
 40
0.0
 40
0.5
 40
0.5
 40
0.75
 40
0.75
 40
0.875
 40
0.875
 40
1.0
 40
1.0
 40
1.0
 40
1.0
 10
251.3916332214993
 20
49.44211304901741
 30
0.0
 10
251.4082573029531
 20
49.54159279324752
 30
0.0
 10
251.4306747045574
 20
49.63742792664353
 30
0.0
 10
251.4811057624061
 20
49.76364387621717
 30
0.0
 10
251.5006404563374
 20
49.80347742491142
 30
0.0
 10
251.5405836136728
 20
49.85073775638327
 30
0.0
 10
251.5556005808384
 20
49.86434036998853
 30
0.0
 10
251.5926619483601
 20
49.87956077156423
 30
0.0
 10
251.6156456107085
 20
49.88019475835812
 30
0.0
 10
251.6399426764339
 20
49.86616836087507
 30
0.0
  0
LINE
  5
254
330
1F
100
AcDbEntity
  8
0
  6
Continuous
 62
     7
370
    15
100
AcDbLine
 10
250.2469423175
 20
50.102929042
 30
0.0
 11
251.3916332215
 21
49.442113049
 31
0.0
  0
ARC
  5
255
330
1F
100
AcDbEntity
  8
0
  6
Continuous
 62
     7
370
    15
100
AcDbCircle
 10
253.5334071074
 20
55.2663566976
 30
0.0
 40
6.120607483709639
100
AcDbArc
 50
182.476303705
 51
237.5236964406
  0
LINE
  5
256
330
1F
100
AcDbEntity
  8
0
  6
Continuous
 62
     7
370
    15
100
AcDbLine
 10
247.4185151928
 20
55.8184493251
 30
0.0
 11
247.4185151928
 21
55.0019085132
 31
0.0
  0
ARC
  5
257
330
1F
100
AcDbEntity
  8
0
  6
Continuous
 62
     7
370
    15
100
AcDbCircle
 10
249.995705141
 20
55.9043946152
 30
0.0
 40
2.578622621132614
100
AcDbArc
 50
153.7692879259
 51
181.9100175914
  0
LINE
  5
258
330
1F
100
AcDbEntity
  8
0
  6
Continuous
 62
     7
370
    15
100
AcDbLine
 10
254.8431363952
 20
47.4496026786
 30
0.0
 11
254.8431363952
 21
48.8130671482
 31
0.0
  0
LINE
  5
259
330
1F
100
AcDbEntity
  8
0
  6
Continuous
 62
     7
370
    15
100
AcDbLine
 10
281.395140137
 20
43.7753815996
 30
0.0
 11
279.9809265746
 21
44.5917897114
 31
0.0
  0
ARC
  5
25A
330
1F
100
AcDbEntity
  8
0
  6
Continuous
 62
     7
370
    15
100
AcDbCircle
 10
282.7487360207
 20
47.9293609097
 30
0.0
 40
2.182902395196371
100
AcDbArc
 50
353.7588101909
 51
13.7288361877
  0
LWPOLYLINE
  5
25B
330
1F
100
AcDbEntity
  8
0
  6
Continuous
 62
     7
370
    15
100
AcDbPolyline
 90
       10
 70
   128
 43
0.0
 10
284.8692724569
 20
56.219968258
 10
285.1798709345
 20
55.5792966521
 10
285.415751966
 20
54.8629368845
 10
285.5744112156
 20
54.0784945068
 10
285.654164207
 20
53.2342979
 10
285.654164207
 20
52.3393098521
 10
285.5744112156
 20
51.4030324015
 10
285.415751966
 20
50.4354059534
 10
285.1798709345
 20
49.4467037438
 10
284.8692724569
 20
48.4474227688
  0
LINE
  5
25C
330
1F
100
AcDbEntity
  8
0
  6
Continuous
 62
     7
370
    15
100
AcDbLine
 10
283.4550588945
 20
49.2638308806
 30
0.0
 11
284.8692724569
 21
48.4474227688
 31
0.0
  0
LINE
  5
25D
330
1F
100
AcDbEntity
  8
0
  6
Continuous
 62
     7
370
    15
100
AcDbLine
 10
253.725809605
 20
46.8045836522
 30
0.0
 11
254.8431363952
 21
47.4496026786
 31
0.0
  0
ARC
  5
25E
330
1F
100
AcDbEntity
  8
0
  6
Continuous
 62
     7
370
    15
100
AcDbCircle
 10
258.8291926836
 20
47.7369506126
 30
0.0
 40
5.471675427138761
100
AcDbArc
 50
215.0859733092
 51
265.6930739764
  0
SPLINE
  5
25F
330
1F
100
AcDbEntity
  8
0
  6
Continuous
 62
     7
370
    15
100
AcDbSpline
210
0.0
220
0.0
230
1.0
 70
     8
 71
     3
 72
    12
 73
     8
 74
     0
 42
0.000000001
 43
0.00000001
 40
0.0
 40
0.0
 40
0.0
 40
0.0
 40
0.2499999999999999
 40
0.2499999999999999
 40
0.4999999999999998
 40
0.4999999999999998
 40
1.0
 40
1.0
 40
1.0
 40
1.0
 10
253.2921267694471
 20
46.79914631387898
 30
0.0
 10
253.3203689695195
 20
46.78284243881496
 30
0.0
 10
253.354915101425
 20
46.76988664540495
 30
0.0
 10
253.4296391611226
 20
46.75317490721243
 30
0.0
 10
253.4699295524242
 20
46.74928799842497
 30
0.0
 10
253.5910425698606
 20
46.75155139631426
 30
0.0
 10
253.6691601322785
 20
46.771880607741
 30
0.0
 10
253.725809605014
 20
46.80458365224735
 30
0.0
  0
ARC
  5
260
330
1F
100
AcDbEntity
  8
0
  6
Continuous
 62
     7
370
    15
100
AcDbCircle
 10
258.0639499226
 20
49.2145565423
 30
0.0
 40
6.377154483897674
100
AcDbArc
 50
194.6007005451
 51
238.0687621634
  0
LINE
  5
261
330
1F
100
AcDbEntity
  8
0
  6
Continuous
 62
     7
370
    15
100
AcDbLine
 10
251.8927387018
 20
47.6069958498
 30
0.0
 11
253.2921267694
 21
46.7991463139
 31
0.0
  0
SPLINE
  5
262
330
1F
100
AcDbEntity
  8
0
  6
Continuous
 62
     7
370
    15
100
AcDbSpline
210
0.0
220
0.0
230
1.0
 70
     8
 71
     3
 72
     8
 73
     4
 74
     0
 42
0.000000001
 43
0.00000001
 40
0.0
 40
0.0
 40
0.0
 40
0.0
 40
1.0
 40
1.0
 40
1.0
 40
1.0
 10
252.3195298661225
 20
48.45830813693495
 30
0.0
 10
252.1763651694319
 20
48.17468608992795
 30
0.0
 10
252.0341764725794
 20
47.89090294394393
 30
0.0
 10
251.8927387018242
 20
47.60699584975685
 30
0.0
  0
LINE
  5
263
330
1F
100
AcDbEntity
  8
0
  6
Continuous
 62
     7
370
    15
100
AcDbLine
 10
252.5646984705
 20
48.5998409596
 30
0.0
 11
252.3195298661
 21
48.4583081369
 31
0.0
  0
SPLINE
  5
264
330
1F
100
AcDbEntity
  8
0
  6
Continuous
 62
     7
370
    15
100
AcDbSpline
210
0.0
220
0.0
230
1.0
 70
     8
 71
     3
 72
    10
 73
     6
 74
     0
 42
0.000000001
 43
0.00000001
 40
0.0
 40
0.0
 40
0.0
 40
0.0
 40
0.5
 40
0.5
 40
1.0
 40
1.0
 40
1.0
 40
1.0
 10
252.6731406584856
 20
48.70231455269948
 30
0.0
 10
252.6624877915156
 20
48.68303890549333
 30
0.0
 10
252.6476830283634
 20
48.66442752406824
 30
0.0
 10
252.6108972570325
 20
48.62979724983667
 30
0.0
 10
252.5893280364385
 20
48.61405930540155
 30
0.0
 10
252.5646984704886
 20
48.59984095962468
 30
0.0
  0
SPLINE
  5
265
330
1F
100
AcDbEntity
  8
0
  6
Continuous
 62
     7
370
    15
100
AcDbSpline
210
0.0
220
0.0
230
1.0
 70
     8
 71
     3
 72
    14
 73
    10
 74
     0
 42
0.000000001
 43
0.00000001
 40
0.0
 40
0.0
 40
0.0
 40
0.0
 40
0.5
 40
0.5
 40
0.75
 40
0.75
 40
0.875
 40
0.875
 40
1.0
 40
1.0
 40
1.0
 40
1.0
 10
236.7518314018068
 20
60.09737389983616
 30
0.0
 10
237.0669973456467
 20
59.8702859089403
 30
0.0
 10
237.3832730009126
 20
59.64043953389215
 30
0.0
 10
237.8620974894837
 20
59.28513093190303
 30
0.0
 10
238.0224174999077
 20
59.16499261770748
 30
0.0
 10
238.2654700358614
 20
58.97872378346367
 30
0.0
 10
238.346913473878
 20
58.91563054223666
 30
0.0
 10
238.5115749229114
 20
58.78528529982452
 30
0.0
 10
238.5944809409776
 20
58.71876085784726
 30
0.0
 10
238.6804997690623
 20
58.64496738652371
 30
0.0
  0
SPLINE
  5
266
330
1F
100
AcDbEntity
  8
0
  6
Continuous
 62
     7
370
    15
100
AcDbSpline
210
0.0
220
0.0
230
1.0
 70
     8
 71
     3
 72
     8
 73
     4
 74
     0
 42
0.000000001
 43
0.00000001
 40
0.0
 40
0.0
 40
0.0
 40
0.0
 40
1.0
 40
1.0
 40
1.0
 40
1.0
 10
238.6804997690623
 20
58.6449673865237
 30
0.0
 10
238.9821522422998
 20
58.38618702844189
 30
0.0
 10
239.2874317858232
 20
58.13861201303724
 30
0.0
 10
239.5920913589499
 20
57.89763915647072
 30
0.0
  0
SPLINE
  5
267
330
1F
100
AcDbEntity
  8
0
  6
Continuous
 62
     7
370
    15
100
AcDbSpline
210
0.0
220
0.0
230
1.0
 70
     8
 71
     3
 72
    14
 73
    10
 74
     0
 42
0.000000001
 43
0.00000001
 40
0.0
 40
0.0
 40
0.0
 40
0.0
 40
0.1250000000000009
 40
0.1250000000000009
 40
0.2500000000000018
 40
0.2500000000000018
 40
0.5000000000000037
 40
0.5000000000000037
 40
1.0
 40
1.0
 40
1.0
 40
1.0
 10
239.5920913589499
 20
57.89763915647067
 30
0.0
 10
239.6112867348754
 20
57.88245642473448
 30
0.0
 10
239.6288988082758
 20
57.87108860623769
 30
0.0
 10
239.6547437381951
 20
57.85982013702525
 30
0.0
 10
239.6628821024428
 20
57.85943666678819
 30
0.0
 10
239.6798321934108
 20
57.86521245948258
 30
0.0
 10
239.6820014659206
 20
57.87787788510061
 30
0.0
 10
239.680825918106
 20
57.92231471214438
 30
0.0
 10
239.6687523975018
 20
57.96279798291782
 30
0.0
 10
239.6539741694618
 20
58.00680165280032
 30
0.0
  0
SPLINE
  5
268
330
1F
100
AcDbEntity
  8
0
  6
Continuous
 62
     7
370
    15
100
AcDbSpline
210
0.0
220
0.0
230
1.0
 70
     8
 71
     3
 72
    14
 73
    10
 74
     0
 42
0.000000001
 43
0.00000001
 40
0.0
 40
0.0
 40
0.0
 40
0.0
 40
0.25
 40
0.25
 40
0.5
 40
0.5
 40
0.75
 40
0.75
 40
1.0
 40
1.0
 40
1.0
 40
1.0
 10
239.653974169461
 20
58.00680165280102
 30
0.0
 10
239.6359179225145
 20
58.06056595578779
 30
0.0
 10
239.6329951244133
 20
58.10511656488483
 30
0.0
 10
239.62758139587
 20
58.19737791472955
 30
0.0
 10
239.6260141178288
 20
58.2446723176498
 30
0.0
 10
239.6158757180217
 20
58.34943337247758
 30
0.0
 10
239.6075607202775
 20
58.4066945795126
 30
0.0
 10
239.5787605456186
 20
58.53631593688701
 30
0.0
 10
239.5581071489481
 20
58.60911013650006
 30
0.0
 10
239.529417631787
 20
58.68879683545983
 30
0.0
  0
ARC
  5
269
330
1F
100
AcDbEntity
  8
0
  6
Continuous
 62
     7
370
    15
100
AcDbCircle
 10
249.8843849091
 20
61.7753583334
 30
0.0
 40
10.80519362138102
100
AcDbArc
 50
163.4019732888
 51
196.5980267112
  0
SPLINE
  5
26A
330
1F
100
AcDbEntity
  8
0
  6
Continuous
 62
     7
370
    15
100
AcDbSpline
210
0.0
220
0.0
230
1.0
 70
     8
 71
     3
 72
    14
 73
    10
 74
     0
 42
0.000000001
 43
0.00000001
 40
0.0
 40
0.0
 40
0.0
 40
0.0
 40
0.25
 40
0.25
 40
0.5
 40
0.5
 40
0.75
 40
0.75
 40
1.0
 40
1.0
 40
1.0
 40
1.0
 10
239.653974169461
 20
66.323124847724
 30
0.0
 10
239.6359179225145
 20
66.20228276877944
 30
0.0
 10
239.6329951244133
 20
66.07718850221333
 30
0.0
 10
239.62758139587
 20
65.82923719156197
 30
0.0
 10
239.6260141178288
 20
65.70532856724823
 30
0.0
 10
239.6158757180217
 20
65.45917282800802
 30
0.0
 10
239.6075607202775
 20
65.33688488614659
 30
0.0
 10
239.5787605456186
 20
65.09488770893782
 30
0.0
 10
239.5581071489481
 20
64.97473074175822
 30
0.0
 10
239.529417631787
 20
64.86191983135295
 30
0.0
  0
SPLINE
  5
26B
330
1F
100
AcDbEntity
  8
0
  6
Continuous
 62
     7
370
    15
100
AcDbSpline
210
0.0
220
0.0
230
1.0
 70
     8
 71
     3
 72
    14
 73
    10
 74
     0
 42
0.000000001
 43
0.00000001
 40
0.0
 40
0.0
 40
0.0
 40
0.0
 40
0.1250000000000006
 40
0.1250000000000006
 40
0.2500000000000012
 40
0.2500000000000012
 40
0.4999999999999997
 40
0.4999999999999997
 40
1.0
 40
1.0
 40
1.0
 40
1.0
 10
239.59209135895
 20
66.868410412018
 30
0.0
 10
239.6112867348755
 20
66.86612360404418
 30
0.0
 10
239.6288988082759
 20
66.85462536477135
 30
0.0
 10
239.6547437381952
 20
66.81793386224483
 30
0.0
 10
239.6628821024428
 20
66.79485244714277
 30
0.0
 10
239.6798321934108
 20
66.72351992806567
 30
0.0
 10
239.6820014659206
 20
66.6722758224576
 30
0.0
 10
239.680825918106
 20
66.52224034269602
 30
0.0
 10
239.6687523975018
 20
66.42202866781295
 30
0.0
 10
239.6539741694618
 20
66.32312484772432
 30
0.0
  0
SPLINE
  5
26C
330
1F
100
AcDbEntity
  8
0
  6
Continuous
 62
     7
370
    15
100
AcDbSpline
210
0.0
220
0.0
230
1.0
 70
     8
 71
     3
 72
     8
 73
     4
 74
     0
 42
0.000000001
 43
0.00000001
 40
0.0
 40
0.0
 40
0.0
 40
0.0
 40
1.0
 40
1.0
 40
1.0
 40
1.0
 10
238.6804997690623
 20
66.92062322315408
 30
0.0
 10
238.9821522422999
 20
66.92796947029719
 30
0.0
 10
239.2874317858233
 20
66.90470550432725
 30
0.0
 10
239.59209135895
 20
66.86841041201801
 30
0.0
  0
SPLINE
  5
26D
330
1F
100
AcDbEntity
  8
0
  6
Continuous
 62
     7
370
    15
100
AcDbSpline
210
0.0
220
0.0
230
1.0
 70
     8
 71
     3
 72
    14
 73
    10
 74
     0
 42
0.000000001
 43
0.00000001
 40
0.0
 40
0.0
 40
0.0
 40
0.0
 40
0.5
 40
0.5
 40
0.75
 40
0.75
 40
0.875
 40
0.875
 40
1.0
 40
1.0
 40
1.0
 40
1.0
 10
236.7518314018068
 20
67.55326256813908
 30
0.0
 10
237.0669973456467
 20
67.41587807441296
 30
0.0
 10
237.3832730009126
 20
67.2843045667818
 30
0.0
 10
237.8620974894837
 20
67.10940910026103
 30
0.0
 10
238.0224174999077
 20
67.05473794999652
 30
0.0
 10
238.2654700358614
 20
66.98570613427646
 30
0.0
 10
238.346913473878
 20
66.96484384976768
 30
0.0
 10
238.5115749229114
 20
66.93203613633803
 30
0.0
 10
238.5944809409776
 20
66.91852837684537
 30
0.0
 10
238.6804997690623
 20
66.92062322315408
 30
0.0
  0
SPLINE
  5
26E
330
1F
100
AcDbEntity
  8
0
  6
Continuous
 62
     7
370
    15
100
AcDbSpline
210
0.0
220
0.0
230
1.0
 70
     8
 71
     3
 72
     8
 73
     4
 74
     0
 42
0.000000001
 43
0.00000001
 40
0.0000005163856998
 40
0.0000005163856998
 40
0.0000005163856998
 40
0.0000005163856998
 40
0.000026289209185
 40
0.000026289209185
 40
0.000026289209185
 40
0.000026289209185
 10
236.7518098147875
 20
67.56614167933027
 30
0.0
 10
236.7518075136282
 20
67.56184884430373
 30
0.0
 10
236.7518147599525
 20
67.5575557766282
 30
0.0
 10
236.7518314018068
 20
67.55326256813908
 30
0.0
  0
SPLINE
  5
26F
330
1F
100
AcDbEntity
  8
0
  6
Continuous
 62
     7
370
    15
100
AcDbSpline
210
0.0
220
0.0
230
1.0
 70
     8
 71
     3
 72
     8
 73
     4
 74
     0
 42
0.000000001
 43
0.00000001
 40
0.0000005163857002
 40
0.0000005163857002
 40
0.0000005163857002
 40
0.0000005163857002
 40
0.0000262892091854
 40
0.0000262892091854
 40
0.0000262892091854
 40
0.0000262892091854
 10
236.7518098147875
 20
60.09267062747051
 30
0.0
 10
236.7518075136282
 20
60.09424401316822
 30
0.0
 10
236.7518147599525
 20
60.09581174310039
 30
0.0
 10
236.7518314018068
 20
60.09737389983616
 30
0.0
  0
SPLINE
  5
270
330
1F
100
AcDbEntity
  8
0
  6
Continuous
 62
     7
370
    15
100
AcDbSpline
210
0.0
220
0.0
230
1.0
 70
     8
 71
     3
 72
    18
 73
    14
 74
     0
 42
0.000000001
 43
0.00000001
 40
0.0
 40
0.0
 40
0.0
 40
0.0
 40
0.1244430785458657
 40
0.249565759565612
 40
0.3746656048700677
 40
0.4990536529397725
 40
0.6223805480895327
 40
0.6844151819754634
 40
0.7456472545303797
 40
0.8067915423575743
 40
0.8692192152821893
 40
0.9929835719440278
 40
1.0
 40
1.0
 40
1.0
 40
1.0
 10
242.4406836025604
 20
58.21969120774327
 30
0.0
 10
242.3076360925747
 20
58.46462567323414
 30
0.0
 10
242.040814480028
 20
58.95583222837812
 30
0.0
 10
241.9161168223574
 20
59.70785398823327
 30
0.0
 10
242.0519391341768
 20
60.33254282341541
 30
0.0
 10
242.4190142227934
 20
60.74941155268545
 30
0.0
 10
242.8616475610685
 20
60.84339588443731
 30
0.0
 10
243.237883309372
 20
60.76145892352559
 30
0.0
 10
243.520074582186
 20
60.61917368292339
 30
0.0
 10
243.7925745017484
 20
60.40253153284289
 30
0.0
 10
244.1182288410796
 20
60.02451734663065
 30
0.0
 10
244.3664146908166
 20
59.65848280075023
 30
0.0
 10
244.4542191891574
 20
59.38125441065216
 30
0.0
 10
244.4589299266479
 20
59.36638102494497
 30
0.0
  0
SPLINE
  5
271
330
1F
100
AcDbEntity
  8
0
  6
Continuous
 62
     7
370
    15
100
AcDbSpline
210
0.0
220
0.0
230
1.0
 70
     8
 71
     3
 72
    12
 73
     8
 74
     0
 42
0.000000001
 43
0.00000001
 40
0.0
 40
0.0
 40
0.0
 40
0.0
 40
0.1549552869695267
 40
0.3228404093617139
 40
0.490850705701176
 40
0.6612863168540318
 40
1.0
 40
1.0
 40
1.0
 40
1.0
 10
244.0055271099883
 20
56.89073054031039
 30
0.0
 10
243.9310948327214
 20
56.91006523294197
 30
0.0
 10
243.776019473032
 20
56.95034795066099
 30
0.0
 10
243.5111045002936
 20
57.09630187936462
 30
0.0
 10
243.2296790252995
 20
57.30362948576499
 30
0.0
 10
242.8494951331322
 20
57.65284105239175
 30
0.0
 10
242.6040001559613
 20
57.99323963594613
 30
0.0
 10
242.4406836025604
 20
58.21969120774327
 30
0.0
  0
ARC
  5
272
330
1F
100
AcDbEntity
  8
0
  6
Continuous
 62
     7
370
    15
100
AcDbCircle
 10
257.2390903789
 20
51.2837499249
 30
0.0
 40
6.595435501300221
100
AcDbArc
 50
198.0700771549
 51
217.3989540689
  0
SPLINE
  5
273
330
1F
100
AcDbEntity
  8
0
  6
Continuous
 62
     7
370
    15
100
AcDbSpline
210
0.0
220
0.0
230
1.0
 70
     8
 71
     3
 72
     8
 73
     4
 74
     0
 42
0.000000001
 43
0.00000001
 40
0.0
 40
0.0
 40
0.0
 40
0.0
 40
1.0
 40
1.0
 40
1.0
 40
1.0
 10
249.494279995349
 20
48.99159658894957
 30
0.0
 10
249.9860747941009
 20
49.07324687603132
 30
0.0
 10
250.4776548850036
 20
49.15533066352175
 30
0.0
 10
250.9689559140562
 20
49.23797788372564
 30
0.0
  0
LINE
  5
274
330
1F
100
AcDbEntity
  8
0
  6
Continuous
 62
     7
370
    15
100
AcDbLine
 10
250.9689559141
 20
49.2379778837
 30
0.0
 11
251.2141245184
 21
49.3795107064
 31
0.0
  0
SPLINE
  5
275
330
1F
100
AcDbEntity
  8
0
  6
Continuous
 62
     7
370
    15
100
AcDbSpline
210
0.0
220
0.0
230
1.0
 70
     8
 71
     3
 72
    10
 73
     6
 74
     0
 42
0.000000001
 43
0.00000001
 40
0.0
 40
0.0
 40
0.0
 40
0.0
 40
0.5
 40
0.5
 40
1.0
 40
1.0
 40
1.0
 40
1.0
 10
251.2141245184224
 20
49.37951070641542
 30
0.0
 10
251.2389568217743
 20
49.39384609000326
 30
0.0
 10
251.2666318192677
 20
49.40644153013936
 30
0.0
 10
251.3267568287222
 20
49.42763942827962
 30
0.0
 10
251.3584512289169
 20
49.43600159394628
 30
0.0
 10
251.3916332214986
 20
49.44211304901752
 30
0.0
  0
SPLINE
  5
276
330
1F
100
AcDbEntity
  8
0
  6
Continuous
 62
     7
370
    15
100
AcDbSpline
210
0.0
220
0.0
230
1.0
 70
     8
 71
     3
 72
    12
 73
     8
 74
     0
 42
0.000000001
 43
0.00000001
 40
0.0
 40
0.0
 40
0.0
 40
0.0
 40
0.0829942419145804
 40
0.3404311849640012
 40
0.5970261287728299
 40
0.857149641529237
 40
1.0
 40
1.0
 40
1.0
 40
1.0
 10
243.4603654159
 20
60.54203226254779
 30
0.0
 10
243.4465418426917
 20
60.49450710878317
 30
0.0
 10
243.3898394100993
 20
60.29956533886695
 30
0.0
 10
243.4679104249447
 20
59.86512669514711
 30
0.0
 10
243.6913936988039
 20
59.31701029785921
 30
0.0
 10
243.9955238506514
 20
58.85809425531333
 30
0.0
 10
244.2237638756611
 20
58.64218108263912
 30
0.0
 10
244.3046727675719
 20
58.56564194122744
 30
0.0
  0
LINE
  5
277
330
1F
100
AcDbEntity
  8
0
  6
Continuous
 62
     7
370
    15
100
AcDbLine
 10
271.1178701492
 20
70.5178278206
 30
0.0
 11
271.2128784645
 21
70.538876342
 31
0.0
  0
LINE
  5
278
330
1F
100
AcDbEntity
  8
0
  6
Continuous
 62
     7
370
    15
100
AcDbLine
 10
271.2128784645
 20
70.538876342
 30
0.0
 11
272.6122665321
 21
69.7310268061
 31
0.0
  0
SPLINE
  5
279
330
1F
100
AcDbEntity
  8
0
  6
Continuous
 62
     7
370
    15
100
AcDbSpline
210
0.0
220
0.0
230
1.0
 70
     8
 71
     3
 72
    12
 73
     8
 74
     0
 42
0.000000001
 43
0.00000001
 40
0.0
 40
0.0
 40
0.0
 40
0.0
 40
0.250000000000002
 40
0.250000000000002
 40
0.500000000000004
 40
0.500000000000004
 40
1.0
 40
1.0
 40
1.0
 40
1.0
 10
272.6122665321141
 20
69.73102680609384
 30
0.0
 10
272.6445105029867
 20
69.71241275792022
 30
0.0
 10
272.6665635055203
 20
69.6881624351228
 30
0.0
 10
272.6874124496853
 20
69.63757457723527
 30
0.0
 10
272.687031280458
 20
69.6107360088012
 30
0.0
 10
272.6612783475608
 20
69.53350189253239
 30
0.0
 10
272.6133269204521
 20
69.48671652170455
 30
0.0
 10
272.5494268713168
 20
69.44982780853708
 30
0.0
  0
SPLINE
  5
27A
330
1F
100
AcDbEntity
  8
0
  6
Continuous
 62
     7
370
    15
100
AcDbSpline
210
0.0
220
0.0
230
1.0
 70
     8
 71
     3
 72
    11
 73
     7
 74
     0
 42
0.000000001
 43
0.00000001
 40
0.0
 40
0.0
 40
0.0
 40
0.0
 40
0.2045977969166537
 40
0.3933135575028611
 40
0.7222684045217387
 40
1.0
 40
1.0
 40
1.0
 40
1.0
 10
242.73195205747
 20
58.40261511046508
 30
0.0
 10
242.8115721032773
 20
58.28802914902817
 30
0.0
 10
242.9646316373337
 20
58.06775203553121
 30
0.0
 10
243.2883772183426
 20
57.71694770173639
 30
0.0
 10
243.6719455897552
 20
57.40018125341278
 30
0.0
 10
243.9249528972261
 20
57.29284151774164
 30
0.0
 10
244.0407756983462
 20
57.2437030601169
 30
0.0
  0
SPLINE
  5
27B
330
1F
100
AcDbEntity
  8
0
  6
Continuous
 62
     7
370
    15
100
AcDbSpline
210
0.0
220
0.0
230
1.0
 70
     8
 71
     3
 72
    16
 73
    12
 74
     0
 42
0.000000001
 43
0.00000001
 40
0.0
 40
0.0
 40
0.0
 40
0.0
 40
0.1460149097440288
 40
0.2335496506116393
 40
0.328285161093515
 40
0.4359413419875039
 40
0.5278786884716087
 40
0.6640997790107459
 40
0.8013217489075855
 40
0.8930409125757831
 40
1.0
 40
1.0
 40
1.0
 40
1.0
 10
243.6715511149172
 20
60.48459423275335
 30
0.0
 10
243.5246899451603
 20
60.55806447959822
 30
0.0
 10
243.2897867085985
 20
60.67557953686909
 30
0.0
 10
242.9729353440923
 20
60.66560772387443
 30
0.0
 10
242.7198071566692
 20
60.57787069952195
 30
0.0
 10
242.5110852510264
 20
60.39607738382006
 30
0.0
 10
242.3480554259059
 20
60.10421095154501
 30
0.0
 10
242.2710293610951
 20
59.6943266735618
 30
0.0
 10
242.3464304396492
 20
59.22975695856822
 30
0.0
 10
242.505174080488
 20
58.78781222897759
 30
0.0
 10
242.6525901392448
 20
58.53741648150991
 30
0.0
 10
242.73195205747
 20
58.40261511046508
 30
0.0
  0
SPLINE
  5
27C
330
1F
100
AcDbEntity
  8
0
  6
Continuous
 62
     7
370
    15
100
AcDbSpline
210
0.0
220
0.0
230
1.0
 70
     8
 71
     3
 72
    10
 73
     6
 74
     0
 42
0.000000001
 43
0.00000001
 40
0.0
 40
0.0
 40
0.0
 40
0.0
 40
0.3338255535063404
 40
0.7037445794036955
 40
1.0
 40
1.0
 40
1.0
 40
1.0
 10
274.7292560804779
 20
65.8702121150079
 30
0.0
 10
274.7500188679772
 20
65.88464075969549
 30
0.0
 10
274.7937893313298
 20
65.91505808509302
 30
0.0
 10
274.8257713733681
 20
65.97037926986773
 30
0.0
 10
274.8192261301521
 20
66.00773261483442
 30
0.0
 10
274.8163153853883
 20
66.02434407596449
 30
0.0
  0
SPLINE
  5
27D
330
1F
100
AcDbEntity
  8
0
  6
Continuous
 62
     7
370
    15
100
AcDbSpline
210
0.0
220
0.0
230
1.0
 70
     8
 71
     3
 72
     9
 73
     5
 74
     0
 42
0.000000001
 43
0.00000001
 40
0.0
 40
0.0
 40
0.0
 40
0.0
 40
0.9537153186111237
 40
1.0
 40
1.0
 40
1.0
 40
1.0
 10
268.814419758016
 20
71.92347708116442
 30
0.0
 10
268.7629876536506
 20
71.84481530920688
 30
0.0
 10
268.7090595019666
 20
71.76233600912383
 30
0.0
 10
268.6526634449065
 20
71.68041293236043
 30
0.0
 10
268.6500531713738
 20
71.67662114885404
 30
0.0
  0
LINE
  5
27E
330
1F
100
AcDbEntity
  8
0
  6
Continuous
 62
     7
370
    15
100
AcDbLine
 10
238.5437981401
 20
62.2999431672
 30
0.0
 11
239.0919700824
 21
61.9834902409
 31
0.0
  0
SPLINE
  5
27F
330
1F
100
AcDbEntity
  8
0
  6
Continuous
 62
     7
370
    15
100
AcDbSpline
210
0.0
220
0.0
230
1.0
 70
     8
 71
     3
 72
     9
 73
     5
 74
     0
 42
0.000000001
 43
0.00000001
 40
0.0
 40
0.0
 40
0.0
 40
0.0
 40
0.7009329310329511
 40
1.0
 40
1.0
 40
1.0
 40
1.0
 10
236.7657763060904
 20
68.02973353381975
 30
0.0
 10
236.7627039239915
 20
68.08373770864478
 30
0.0
 10
236.7583206485554
 20
68.16078384591991
 30
0.0
 10
236.7827317826988
 20
68.25041614130313
 30
0.0
 10
236.7900323490373
 20
68.27722220916819
 30
0.0
  0
SPLINE
  5
280
330
1F
100
AcDbEntity
  8
0
  6
Continuous
 62
     7
370
    15
100
AcDbSpline
210
0.0
220
0.0
230
1.0
 70
     8
 71
     3
 72
    10
 73
     6
 74
     0
 42
0.000000001
 43
0.00000001
 40
0.0
 40
0.0
 40
0.0
 40
0.0
 40
0.5
 40
0.5
 40
1.0
 40
1.0
 40
1.0
 40
1.0
 10
236.8062687520056
 20
68.08208385845194
 30
0.0
 10
236.7863427015089
 20
67.99812338443392
 30
0.0
 10
236.7730484373679
 20
67.91267752192014
 30
0.0
 10
236.7557799112273
 20
67.74026405098286
 30
0.0
 10
236.7518564566052
 20
67.65315244471655
 30
0.0
 10
236.7518098147875
 20
67.56614167933027
 30
0.0
  0
SPLINE
  5
281
330
1F
100
AcDbEntity
  8
0
  6
Continuous
 62
     7
370
    15
100
AcDbSpline
210
0.0
220
0.0
230
1.0
 70
     8
 71
     3
 72
    24
 73
    20
 74
     0
 42
0.000000001
 43
0.00000001
 40
0.0
 40
0.0
 40
0.0
 40
0.0
 40
0.24999999999998
 40
0.24999999999998
 40
0.3749999999999705
 40
0.3749999999999705
 40
0.4374999999999656
 40
0.4374999999999656
 40
0.4687499999999649
 40
0.4687499999999649
 40
0.4999999999999643
 40
0.4999999999999643
 40
0.5624999999999676
 40
0.5624999999999676
 40
0.6249999999999709
 40
0.6249999999999709
 40
0.7499999999999798
 40
0.7499999999999798
 40
1.0
 40
1.0
 40
1.0
 40
1.0
 10
236.7900323490373
 20
68.27722220916819
 30
0.0
 10
236.8198733783224
 20
68.38450126572441
 30
0.0
 10
236.8497029183635
 20
68.49038583909508
 30
0.0
 10
236.8943740752348
 20
68.64033388234536
 30
0.0
 10
236.9093268673265
 20
68.68933414510829
 30
0.0
 10
236.9309100056159
 20
68.75248442701104
 30
0.0
 10
236.9380397171455
 20
68.77212461123956
 30
0.0
 10
236.9468913424469
 20
68.78983454072755
 30
0.0
 10
236.9495294397168
 20
68.79355090721324
 30
0.0
 10
236.9526819777618
 20
68.79140255883105
 30
0.0
 10
236.9530619388986
 20
68.78524014976448
 30
0.0
 10
236.9510520136378
 20
68.75659506641173
 30
0.0
 10
236.9464753720394
 20
68.72829406142355
 30
0.0
 10
236.936543985933
 20
68.67191505127427
 30
0.0
 10
236.930853800198
 20
68.64244530331823
 30
0.0
 10
236.9132721995794
 20
68.55459088275188
 30
0.0
 10
236.9005913266512
 20
68.49536588970257
 30
0.0
 10
236.8613502630308
 20
68.31687258257277
 30
0.0
 10
236.8340468029943
 20
68.19912954839906
 30
0.0
 10
236.8062687520056
 20
68.08208385845195
 30
0.0
  0
ARC
  5
282
330
1F
100
AcDbEntity
  8
0
  6
Continuous
 62
     7
370
    15
100
AcDbCircle
 10
237.468946789
 20
67.4874744246
 30
0.0
 40
0.7201267655271287
100
AcDbArc
 50
174.7583590299
 51
234.4349468916
  0
ARC
  5
283
330
1F
100
AcDbEntity
  8
0
  6
Continuous
 62
     7
370
    15
100
AcDbCircle
 10
238.9642807341
 20
59.9875780472
 30
0.0
 40
2.215172042338911
100
AcDbArc
 50
122.6235698332
 51
177.1589486026
  0
LINE
  5
284
330
1F
100
AcDbEntity
  8
0
  6
Continuous
 62
     7
370
    15
100
AcDbLine
 10
237.7700431635
 20
61.853263927
 30
0.0
 11
238.5437981401
 21
62.2999431672
 31
0.0
  0
SPLINE
  5
285
330
1F
100
AcDbEntity
  8
0
  6
Continuous
 62
     7
370
    15
100
AcDbSpline
210
0.0
220
0.0
230
1.0
 70
     8
 71
     3
 72
    10
 73
     6
 74
     0
 42
0.000000001
 43
0.00000001
 40
0.0
 40
0.0
 40
0.0
 40
0.0
 40
0.5
 40
0.5
 40
1.0
 40
1.0
 40
1.0
 40
1.0
 10
236.8062687520056
 20
59.89742824274797
 30
0.0
 10
236.7863427015089
 20
59.93594980426465
 30
0.0
 10
236.7730484373679
 20
59.96791313145845
 30
0.0
 10
236.7557799112273
 20
60.03035655495689
 30
0.0
 10
236.7518564566052
 20
60.06077993216994
 30
0.0
 10
236.7518098147875
 20
60.0926706274705
 30
0.0
  0
LINE
  5
286
330
1F
100
AcDbEntity
  8
0
  6
Continuous
 62
     7
370
    15
100
AcDbLine
 10
236.7621763807
 20
60.6945408039
 30
0.0
 11
236.7657763061
 21
60.5589039217
 31
0.0
  0
ARC
  5
287
330
1F
100
AcDbEntity
  8
0
  6
Continuous
 62
     7
370
    15
100
AcDbCircle
 10
238.0989019794
 20
60.4822356621
 30
0.0
 40
1.353480254557321
100
AcDbArc
 50
122.9135798094
 51
170.9753897871
  0
LINE
  5
288
330
1F
100
AcDbEntity
  8
0
  6
Continuous
 62
     7
370
    15
100
AcDbLine
 10
237.7700431635
 20
61.853263927
 30
0.0
 11
237.3634567643
 21
61.6184702923
 31
0.0
  0
LINE
  5
289
330
1F
100
AcDbEntity
  8
0
  6
Continuous
 62
     7
370
    15
100
AcDbLine
 10
236.8615564044
 20
59.8014818708
 30
0.0
 11
236.806268752
 21
59.8974282427
 31
0.0
  0
OLE2FRAME
  5
28A
330
1F
100
AcDbEntity
  8
0
100
AcDbOle2Frame
 70
     2
  3
Paintbrush-Bild
 10
13.8511154363
 20
38.264191557
 30
0.0
 11
51.6290888628
 21
31.9806341108
 31
0.0
 71
     2
 72
     0
 73
     1
 90
    12928
310
80552BED0767C5B32B40DDAF6807D121434000000000000000006FFBDDFB85D0
310
4940DDAF6807D121434000000000000000006FFBDDFB85D04940416F4BD60AFB
310
3F4000000000000000002BED0767C5B32B40416F4BD60AFB3F40000000000000
310
0000000000000100000000010000010000000100000000000100000000320000
310
D0CF11E0A1B11AE1000000000000000000000000000000003E000300FEFF0900
310
0600000000000000000000000100000001000000000000000010000002000000
310
01000000FEFFFFFF0000000000000000FFFFFFFFFFFFFFFFFFFFFFFFFFFFFFFF
310
FFFFFFFFFFFFFFFFFFFFFFFFFFFFFFFFFFFFFFFFFFFFFFFFFFFFFFFFFFFFFFFF
310
FFFFFFFFFFFFFFFFFFFFFFFFFFFFFFFFFFFFFFFFFFFFFFFFFFFFFFFFFFFFFFFF
310
FFFFFFFFFFFFFFFFFFFFFFFFFFFFFFFFFFFFFFFFFFFFFFFFFFFFFFFFFFFFFFFF
310
FFFFFFFFFFFFFFFFFFFFFFFFFFFFFFFFFFFFFFFFFFFFFFFFFFFFFFFFFFFFFFFF
310
FFFFFFFFFFFFFFFFFFFFFFFFFFFFFFFFFFFFFFFFFFFFFFFFFFFFFFFFFFFFFFFF
310
FFFFFFFFFFFFFFFFFFFFFFFFFFFFFFFFFFFFFFFFFFFFFFFFFFFFFFFFFFFFFFFF
310
FFFFFFFFFFFFFFFFFFFFFFFFFFFFFFFFFFFFFFFFFFFFFFFFFFFFFFFFFFFFFFFF
310
FFFFFFFFFFFFFFFFFFFFFFFFFFFFFFFFFFFFFFFFFFFFFFFFFFFFFFFFFFFFFFFF
310
FFFFFFFFFFFFFFFFFFFFFFFFFFFFFFFFFFFFFFFFFFFFFFFFFFFFFFFFFFFFFFFF
310
FFFFFFFFFFFFFFFFFFFFFFFFFFFFFFFFFFFFFFFFFFFFFFFFFFFFFFFFFFFFFFFF
310
FFFFFFFFFFFFFFFFFFFFFFFFFFFFFFFFFFFFFFFFFFFFFFFFFFFFFFFFFFFFFFFF
310
FFFFFFFFFFFFFFFFFFFFFFFFFFFFFFFFFFFFFFFFFFFFFFFFFFFFFFFFFFFFFFFF
310
FFFFFFFFFFFFFFFFFFFFFFFFFFFFFFFFFFFFFFFFFFFFFFFFFFFFFFFFFFFFFFFF
310
FDFFFFFFFEFFFFFFFEFFFFFFFEFFFFFF05000000060000000700000008000000
310
090000000A0000000B0000000C0000000D0000000E0000000F00000010000000
310
11000000120000001300000014000000150000001600000017000000FEFFFFFF
310
FFFFFFFFFFFFFFFFFFFFFFFFFFFFFFFFFFFFFFFFFFFFFFFFFFFFFFFFFFFFFFFF
310
FFFFFFFFFFFFFFFFFFFFFFFFFFFFFFFFFFFFFFFFFFFFFFFFFFFFFFFFFFFFFFFF
310
FFFFFFFFFFFFFFFFFFFFFFFFFFFFFFFFFFFFFFFFFFFFFFFFFFFFFFFFFFFFFFFF
310
FFFFFFFFFFFFFFFFFFFFFFFFFFFFFFFFFFFFFFFFFFFFFFFFFFFFFFFFFFFFFFFF
310
FFFFFFFFFFFFFFFFFFFFFFFFFFFFFFFFFFFFFFFFFFFFFFFFFFFFFFFFFFFFFFFF
310
FFFFFFFFFFFFFFFFFFFFFFFFFFFFFFFFFFFFFFFFFFFFFFFFFFFFFFFFFFFFFFFF
310
FFFFFFFFFFFFFFFFFFFFFFFFFFFFFFFFFFFFFFFFFFFFFFFFFFFFFFFFFFFFFFFF
310
FFFFFFFFFFFFFFFFFFFFFFFFFFFFFFFFFFFFFFFFFFFFFFFFFFFFFFFFFFFFFFFF
310
FFFFFFFFFFFFFFFFFFFFFFFFFFFFFFFFFFFFFFFFFFFFFFFFFFFFFFFFFFFFFFFF
310
FFFFFFFFFFFFFFFFFFFFFFFFFFFFFFFFFFFFFFFFFFFFFFFFFFFFFFFFFFFFFFFF
310
FFFFFFFFFFFFFFFFFFFFFFFFFFFFFFFFFFFFFFFFFFFFFFFFFFFFFFFFFFFFFFFF
310
FFFFFFFFFFFFFFFFFFFFFFFFFFFFFFFFFFFFFFFFFFFFFFFFFFFFFFFFFFFFFFFF
310
FFFFFFFFFFFFFFFFFFFFFFFFFFFFFFFFFFFFFFFFFFFFFFFFFFFFFFFFFFFFFFFF
310
52006F006F007400200045006E00740072007900000000000000000000000000
310
0000000000000000000000000000000000000000000000000000000000000000
310
16000500FFFFFFFFFFFFFFFF020000000A00030000000000C000000000000046
310
00000000000000000000000070E6527D8E03D20103000000C000000000000000
310
01004F006C006500000000000000000000000000000000000000000000000000
310
0000000000000000000000000000000000000000000000000000000000000000
310
0A000200FFFFFFFFFFFFFFFFFFFFFFFF00000000000000000000000000000000
310
0000000000000000000000000000000000000000000000001400000000000000
310
010043006F006D0070004F0062006A0000000000000000000000000000000000
310
0000000000000000000000000000000000000000000000000000000000000000
310
120002010100000003000000FFFFFFFF00000000000000000000000000000000
310
0000000000000000000000000000000000000000010000004D00000000000000
310
01004F006C006500310030004E00610074006900760065000000000000000000
310
0000000000000000000000000000000000000000000000000000000000000000
310
1A000200FFFFFFFFFFFFFFFFFFFFFFFF00000000000000000000000000000000
310
0000000000000000000000000000000000000000040000002426000000000000
310
FEFFFFFF02000000FEFFFFFFFFFFFFFFFFFFFFFFFFFFFFFFFFFFFFFFFFFFFFFF
310
FFFFFFFFFFFFFFFFFFFFFFFFFFFFFFFFFFFFFFFFFFFFFFFFFFFFFFFFFFFFFFFF
310
FFFFFFFFFFFFFFFFFFFFFFFFFFFFFFFFFFFFFFFFFFFFFFFFFFFFFFFFFFFFFFFF
310
FFFFFFFFFFFFFFFFFFFFFFFFFFFFFFFFFFFFFFFFFFFFFFFFFFFFFFFFFFFFFFFF
310
FFFFFFFFFFFFFFFFFFFFFFFFFFFFFFFFFFFFFFFFFFFFFFFFFFFFFFFFFFFFFFFF
310
FFFFFFFFFFFFFFFFFFFFFFFFFFFFFFFFFFFFFFFFFFFFFFFFFFFFFFFFFFFFFFFF
310
FFFFFFFFFFFFFFFFFFFFFFFFFFFFFFFFFFFFFFFFFFFFFFFFFFFFFFFFFFFFFFFF
310
FFFFFFFFFFFFFFFFFFFFFFFFFFFFFFFFFFFFFFFFFFFFFFFFFFFFFFFFFFFFFFFF
310
FFFFFFFFFFFFFFFFFFFFFFFFFFFFFFFFFFFFFFFFFFFFFFFFFFFFFFFFFFFFFFFF
310
FFFFFFFFFFFFFFFFFFFFFFFFFFFFFFFFFFFFFFFFFFFFFFFFFFFFFFFFFFFFFFFF
310
FFFFFFFFFFFFFFFFFFFFFFFFFFFFFFFFFFFFFFFFFFFFFFFFFFFFFFFFFFFFFFFF
310
FFFFFFFFFFFFFFFFFFFFFFFFFFFFFFFFFFFFFFFFFFFFFFFFFFFFFFFFFFFFFFFF
310
FFFFFFFFFFFFFFFFFFFFFFFFFFFFFFFFFFFFFFFFFFFFFFFFFFFFFFFFFFFFFFFF
310
FFFFFFFFFFFFFFFFFFFFFFFFFFFFFFFFFFFFFFFFFFFFFFFFFFFFFFFFFFFFFFFF
310
FFFFFFFFFFFFFFFFFFFFFFFFFFFFFFFFFFFFFFFFFFFFFFFFFFFFFFFFFFFFFFFF
310
FFFFFFFFFFFFFFFFFFFFFFFFFFFFFFFFFFFFFFFFFFFFFFFFFFFFFFFFFFFFFFFF
310
0100000200000000000000000000000000000000000000000000000000000000
310
0000000000000000000000000000000000000000000000000000000000000000
310
0100FEFF030A0000FFFFFFFF0A00030000000000C00000000000004607000000
310
5042727573680007000000504272757368000700000050427275736800F439B2
310
7100000000000000000000000000000000000000000000000000000000000000
310
0000000000000000000000000000000000000000000000000000000000000000
310
0000000000000000000000000000000000000000000000000000000000000000
310
0000000000000000000000000000000000000000000000000000000000000000
310
0000000000000000000000000000000000000000000000000000000000000000
310
0000000000000000000000000000000000000000000000000000000000000000
310
0000000000000000000000000000000000000000000000000000000000000000
310
0000000000000000000000000000000000000000000000000000000000000000
310
0000000000000000000000000000000000000000000000000000000000000000
310
0000000000000000000000000000000000000000000000000000000000000000
310
0000000000000000000000000000000000000000000000000000000000000000
310
0000000000000000000000000000000000000000000000000000000000000000
310
20260000424D0E260000000000003E00000028000000B40200006E0000000100
310
01000000000000000000130B0000130B00000200000002000000000000FFFFFF
310
FFFFFFFFFFFFFFFFFFFFFFFFFFFFFFFFFFFFFFFFFFFFFFFFFFFFFFFFFFFFFFFF
310
FFFFFFFFFFFFFFFFFFFFFFFFFFFFFFFFFFFFFFFFFFFFFFFFFFFFFFFFFFFFFFFF
310
FFFFFFFFFFFFFFFFFFFFFFFFFFFFFFFFFFFFFFFFFFFFFFFFF000FFFFFFFFFFFF
310
FFFFFFFFFFFFFFFFFFFFFFFFFFFFFFFFFFFFFFFFFFFFFFFFFFFFFFFFFFFFFFFF
310
FFFFFFFFFFFFFFFFFFFFFFFFFFFFFFFFFFFFFFFFFFFFFFFFFFFFFFFFFFFFFFFF
310
FFFFFFFFFFFFFFFFFFFFFFFFFFFFFFFFF000FFFFFFFFFFFFFFFFFFFFFFFFFFFF
310
FFFFFFFFFFFFFFFFFFFFFFFFFFFFFFFFFFFFFFFFFFFFFFFFFFFFFFFFFFFFFFFF
310
FFFFFFFFFFFFFFFFFFFFFFFFFFFFFFFFFFFFFFFFFFFFFFFFFFFFFFFFFFFFFFFF
310
FFFFFFFFFFFFFFFFF000FFFFFFFFFFFFFFFFFFFFFFFFFFFFFFFFFFFFFFFFFFFF
310
FFFFFFFFFFFFFFFFFFFFFFFFFFFFFFFFFFFFFFFFFFFFFFFFFFFFFFFFFFFFFFFF
310
FFFFFFFFFFFFFFFFFFFFFFFFFFFFFFFFFFFFFFFFFFFFFFFFFFFFFFFFFFFFFFFF
310
F000FFFFFFFFFFFFFFFFFFFFFFFFFFFFFFFFFFFFFFFFFFFFFFFFFFFFFFFFFFFF
310
FFFFFFFFFFFFFFFFFFFFFFFFFFFFFFFFFFFFFFFFFFFFFFFFFFFFFFFFFFFFFFFF
310
FFFFFFFFFFFFFFFFFFFFFFFFFFFFFFFFFFFFFFFFFFFFFFFFF000FFFFFFFFFFFF
310
FFFFFFFFFFFFFFFFFFFFFFFFFFFFFFFFFFFFFFFFFFFFFFFFFFFFFFFFFFFFFFFF
310
FFFFFFFFFFFFFFFFFFFFFFFFFFFFFFFFFFFFFFFFFFFFFFFFFFFFFFFFFFFFFFFF
310
FFFFFFFFFFFFFFFFFFFFFFFFFFFFFFFFF000FFFFFFFFFFFFFFFFFFFFFFFFFFFF
310
FFFFFFFFFFFFFFFFFFFFFFFFFFFFFFFFFFFFFFFFFFFFFFFFFFFFFFFFFFFFFFFF
310
FFFFFFFFFFFFFFFFFFFFFFFFFFFFFFFFFFFFFFFFFFFFFFFFFFFFFFFFFFFFFFFF
310
FFFFFFFFFFFFFFFFF000FFFFFFFFFFFFFFFFFFFFFFFFFFFFFFFFFFFFFFFFFFFF
310
FFFFFFFFFFFFFFFFFFFFFFFFFFFFFFFFFFFFFFFFFFFFFFFFFFFFFFFFFFFFFFFF
310
FFFFFFFFFFFFFFFFFFFFFFFFFFFFFFFFFFFFFFFFFFFFFFFFFFFFFFFFFFFFFFFF
310
F000FFFFFFFFFFFFFFFFFFFFFFFFFFFFFFFFFFFFFFFFFFFFFFFFFFFFFFFFFFFF
310
FFFFFFFFFFFFFFFFFFFFFFFFFFFFFFFFFFFFFFFFFFFFFFFFFFFFFFFFFFFFFFFF
310
FFFFFFFFFFFFFFFFFFFFFFFFFFFFFFFFFFFFFFFFFFFFFFFFF000FFFFFFFFFFFF
310
FFFFFFFFFFFFFFFFFFFFFFFFFFFFFFFFFFFFFFFFFFFFFFFFFFFFFFFFFFFFFFFF
310
FFFFFFFFFFFFFFFFFFFFFFFFFFFFFFFFFFFFFFFFFFFFFFFFFFFFFFFFFFFFFFFF
310
FFFFFFFFFFFFFFFFFFFFFFFFFFFFFFFFF000FFFFFFFFFFFFFFFFFFFFFFFFFFFF
310
FFFFFFFFFFFFFFFFFFFFFFFFFFFFFFFFFFFFFFFFFFFFFFFFFFFFFFFFFFFFFFFF
310
FFFFFFFFFFFFFFFFFFFFFFFFFFFFFFFFFFFFFFFFFFFFFFFFFFFFFFFFFFFFFFFF
310
FFFFFFFFFFFFFFFFF000FFFFFFFFFFFFFFFFFFFFFFFFFFFFFFFFFFFFFFFFFFFF
310
FFFFFFFFFFFFFFFFFFFFFFFFFFFFFFFFFFFFFFFFFFFFFFFFFFFFFFFFFFFFFFFF
310
FFFFFFFFFFFFFFFFFFFFFFFFFFFFFFFFFFFFFFFFFFFFFFFFFFFFFFFFFFFFFFFF
310
F000FFFFFFFFFFFFFFFFFFFFFFFFFFFFFFFFFFFFFFFFFFFFFFFFFFFFFFFFFFFF
310
FFFFFFFFFFFFFFFFFFFFFFFFFFFFFFFFFFFFFFFFFFFFFFFFFFFFFFFFFFFFFFFF
310
FFFFFFFFFFFFFFFFFFFFFFFFFFFFFFFFFFFFFFFFFFFFFFFFF000FFFFFFFFFFFF
310
FFFFFFFFFFFFFFFFFFFFFFFFFFFFFFFFFFFFFFFFFFFFFFFFFFFFFFFFFFFFFFFF
310
FFFFFFFFFFFFFFFFFFFFFFFFFFFFFFFFFFFFFFFFFFFFFFFFFFFFFFFFFFFFFFFF
310
FFFFFFFFFFFFFFFFFFFFFFFFFFFFFFFFF000FFFFFFFFFFFFFFFFFFFFFFFFFFFF
310
FFFFFFFFFFFFFFFFFFFFFFFFFFFFFFFFFFFFFFFFFFFFFFFFFFFFFFFFFFFFFFFF
310
FFFFFFFFFFFFFFFFFFFFFFFFFFFFFFFFFFFFFFFFFFFFFFFFFFFFFFFFFFFFFFFF
310
FFFFFFFFFFFFFFFFF000FFFFFFFFFFFFFFFFFFFFFFFFFFFFFFFFFFFFFFFFFFFF
310
FFFFFFFFFFFFFFFFFFFFFFFFFFFFFFFFFFFFFFFFFFFFFFFFFFFFFFFFFFFFFFFF
310
FFFFFFFFFFFFFFFFFFFFFFFFFFFFFFFFFFFFFFFFFFFFFFFFFFFFFFFFFFFFFFFF
310
F000FFFFFFFFFFFFFFFFFFFFFFFFFFFFFFFFFFFFFFFFFFFFFFFFFFFFFFFFFFFF
310
FFFFFFFFFFFFFFFFFFFFFFFFFFFFFFFFFFFFFFFFFFFFFFFFFFFFFFFFFFFFFFFF
310
FFFFFFFFFFFFFFFFFFFFFFFFFFFFFFFFFFFFFFFFFFFFFFFFF000FFFFFFFFFFFF
310
FFFFFFFFFFFFFFFFFFFFFFFFFFFFFFFFFFFFFFFFFFFFFFFFFFFFFFFFFFFFFFFF
310
FFFFFFFFFFFFFFFFFFFFFFFFFFFFFFFFFFFFFFFFFFFFFFFFFFFFFFFFFFFFFFFF
310
FFFFFFFFFFFFFFFFFFFFFFFFFFFFFFFFF000FFFFFFFFFFFFFFFFFFFFFFFFFFFF
310
FFFFFFFFFFFFFFFFFFFFFFFFFFFFFFFFFFFFFFFFFFFFFFFFFFFFFFFFFFFFFFFF
310
FFFFFFFFFFFFFFFFFFFFFFFFFFFFFFFFFFFFFFFFFFFFFFFFFFFFFFFFFFFFFFFF
310
FFFFFFFFFFFFFFFFF000FFFFF80003FFFFFFFFFFFFFFFFFFFFFFFFFFFFFFFFFF
310
FFFFF00007FFFFFFFFFF00007FFFFFF800000000000000007FFFFFFFFFFFFFFF
310
FFFFFFFC001FFFFFFFFFFFFFFC001FFFFFFFFFFFFFFFFFFFFFFFFFFE0007FFFF
310
F000FFFF8000007FFFFFFFF8000FFFFFC0007FFFFF80007FFFFF0000007FFFFF
310
FFF8000007FFFFF800000000000000007FFFFFF0001FFFFFFFFFFFC00001FFFF
310
FFFFFFFFC00001FFFFFFFF000000000003FFFFE000007FFFF000FFFE0000000F
310
FFFFFFF0000FFFFF80007FFFFF80007FFFFC0000001FFFFFFFC0000001FFFFF8
310
00000000000000007FFFFFF0001FFFFFFFFFFE0000003FFFFFFFFFFE0000003F
310
FFFFFF000000000003FFFF0000000FFFF000FFF800000003FFFFFFF00007FFFF
310
80007FFFFF80007FFFF000000007FFFFFF000000003FFFF80000000000000000
310
7FFFFFF0001FFFFFFFFFF80000000FFFFFFFFFF80000000FFFFFFF0000000000
310
03FFFC00000003FFF000FFE000000000FFFFFFF00007FFFF80003FFFFF80007F
310
FFC000000001FFFFFC000000001FFFF800000000000000007FFFFFF0001FFFFF
310
FFFFE000000003FFFFFFFFE000000003FFFFFF000000000003FFF000000000FF
310
F000FF80000000007FFFFFF00007FFFF80003FFFFF80007FFF8000000000FFFF
310
F80000000007FFF800000000000000007FFFFFF0001FFFFFFFFFC000000001FF
310
FFFFFFC000000001FFFFFF000000000003FFC0000000007FF000FF0000000000
310
3FFFFFE00007FFFF00003FFFFF80007FFE00000000003FFFF00000000003FFF8
310
00000000000000007FFFFFF0001FFFFFFFFF8000000000FFFFFFFF8000000000
310
FFFFFF000000000003FF80000000003FF000FE00000000001FFFFFE00003FFFF
310
00003FFFFF80007FFC00000000001FFFE00000000001FFF8000001FFFE000000
310
7FFFFFF0001FFFFFFFFE00000000003FFFFFFE00000000003FFFFF0000000000
310
03FF00000000001FF000FC00000000000FFFFFE00003FFFF00001FFFFF80007F
310
F800000000001FFFC00000000000FFF8000001FFFE0000007FFFFFF0001FFFFF
310
FFFC00000000001FFFFFFC00000000001FFFFF000000000003FE00000000000F
310
F000F8000000000007FFFFE00003FFFF00001FFFFF80007FF800000000000FFF
310
800000000000FFF8000001FFFE0000007FFFFFF0001FFFFFFFF800000000000F
310
FFFFF800000000000FFFFF000000000003FC000000000007F000F80000000000
310
03FFFFC00003FFFE00001FFFFF80007FF0000000000007FF0000000000007FF8
310
000001FFFE0000007FFFFFF0001FFFFFFFF0000000000007FFFFF00000000000
310
07FFFF000000000003F8000000000003F000F0000000000003FFFFC00001FFFE
310
00001FFFFF80007FE0000000000007FE0000000000003FF8000001FFFE000000
310
7FFFFFF0001FFFFFFFF0000000000007FFFFF0000000000007FFFF0000000000
310
03F800001F800003F000E00001FFF00001FFFFC00001FFFE00000FFFFF80007F
310
E00001FFE00003FE00001FFF00003FF8000001FFFE0000007FFFFFF0001FFFFF
310
FFE000003E000003FFFFE000003E000003FFFF000000000003F00001FFF80001
310
F000E00007FFFC0001FFFFC00001FFFE00000FFFFF80007FC0000FFFFC0003FC
310
0000FFFFC0001FF8000001FFFE0000007FFFFFF0001FFFFFFFC00003FFE00001
310
FFFFC00003FFE00001FFFF0001FFFFFFFFF00007FFFE0001F000E0000FFFFF00
310
00FFFF800001FFFC00000FFFFF80007FC0001FFFFE0001FC0001FFFFE0001FF8
310
000001FFFE0000007FFFFFF0001FFFFFFF80000FFFF80000FFFF80000FFFF800
310
00FFFF0003FFFFFFFFE0000FFFFF8000F000C0003FFFFF8000FFFF800000FFFC
310
000007FFFF80007F80003FFFFF0001FC0003FFFFF0001FF8000001FFFE000000
310
7FFFFFF0001FFFFFFF80003FFFFE0000FFFF80003FFFFE0000FFFF0003FFFFFF
310
FFE0003FFFFF8000F000C0003FFFFF8000FFFF800000FFFC000007FFFF80007F
310
80007FFFFF8001F80007FFFFF8000FF8000001FFFE0000007FFFFFF0001FFFFF
310
FF00007FFFFF00007FFF00007FFFFF00007FFF0003FFFFFFFFE0003FFFFFC000
310
F000C0007FFFFFC000FFFF000000FFFC000007FFFF80007F8000FFFFFF8000F8
310
000FFFFFF8000FF8000001FFFE0000007FFFFFF0001FFFFFFF0000FFFFFF8000
310
7FFF0000FFFFFF80007FFF0003FFFFFFFFC0007FFFFFC00070008000FFFFFFC0
310
00FFFF000000FFF8000007FFFF80007F8000FFFFFF8000F8000FFFFFF8000FF8
310
000001FFFE0000007FFFFFF0001FFFFFFE0001FFFFFFC0003FFE0001FFFFFFC0
310
003FFF0003FFFFFFFFC0007FFFFFE00070008000FFFFFFC0007FFF0000007FF8
310
000003FFFF80007F0001FFFFFF8000F8000FFFFFF8000FF8000001FFFE000000
310
7FFFFFF0001FFFFFFE0001FFFFFFC0003FFE0001FFFFFFC0003FFF0003FFFFFF
310
FFC000FFFFFFE00070008000FFFFFFC0007FFF0000007FF8000003FFFF80007F
310
0001FFFFFF8000F8001FFFFFF8000FF8000001FFFE0000007FFFFFF0001FFFFF
310
FE0003FFFFFFE0003FFE0003FFFFFFE0003FFF0003FFFFFFFFC000FFFFFFE000
310
70008000FFFFFFC0007FFE0000007FF8000003FFFF80007F0001FFFFFF8000F0
310
001FFFFFF8000FF8000001FFFE0000007FFFFFF0001FFFFFFC0003FFFFFFE000
310
1FFC0003FFFFFFE0001FFF0003FFFFFFFFC000FFFFFFC00070008000FFFFFF80
310
007FFE0000007FF0000003FFFF80007F0001FFFFFF0000F0001FFFFFF8000FF8
310
000001FFFE0000007FFFFFF0001FFFFFFC0007FFFFFFF0001FFC0007FFFFFFF0
310
001FFF0003FFFFFFFFC000FFFFFFC00070008001FFFFFF0000FFFE0000003FF0
310
000001FFFF80007F0001FFFFFF0000F8001FFFFFF0000FF8000001FFFE000000
310
7FFFFFF0001FFFFFFC0007FFFFFFF0001FFC0007FFFFFFF0001FFF0003FFFFFF
310
FFC001FFFFFF80007000FFFFFFFFFE0000FFFE0008003FF0008001FFFF80007F
310
FFFFFFFFFC0000FFFFFFFFFFE0000FF8000001FFFE0000007FFFFFF0001FFFFF
310
F8000FFFFFFFF8000FF8000FFFFFFFF8000FFF0003FFFFFFFFFFFFFFFFFF0000
310
7000FFFFFFFFFC0000FFFC0008003FF0008001FFFF80007FFFFFFFFFF80001FF
310
FFFFFFFF80000FF8000001FFFE0000007FFFFFF0001FFFFFF8000FFFFFFFF800
310
0FF8000FFFFFFFF8000FFF0003FFFFFFFFFFFFFFFFFE0000F000FFFFFFFFE000
310
00FFFC000C003FE000C001FFFF80007FFFFFFFFFC00001FFFFFFFFFE00001FF8
310
000001FFFE0000007FFFFFF0001FFFFFF8000FFFFFFFF8000FF8000FFFFFFFF8
310
000FFF0003FFFFFFFFFFFFFFFFF00000F000FFFFFFFE000001FFFC000C001FE0
310
00C000FFFF80007FFFFFFFFE000001FFFFFFFFE000001FF80FFFFFFFFFFFFFC0
310
7FFFFFF0001FFFFFF8000FFFFFFFF8000FF8000FFFFFFFF8000FFF0003FFFFFF
310
FFFFFFFFFF800000F000FFFFFFC0000001FFFC001C001FE001C000FFFF80007F
310
FFFFFF80000003FFFFFFF80000001FF80FFFFFFFFFFFFFC07FFFFFF0001FFFFF
310
F8001FFFFFFFFC000FF8001FFFFFFFFC000FFF0003FFFFFFFFFFFFFFF0000001
310
F000FFFFF800000001FFF8001C001FE001C000FFFF80007FFFFFF800000003FF
310
FFFF800000003FF80FFFFFFFFFFFFFC07FFFFFF0001FFFFFF8001FFFFFFFFC00
310
0FF8001FFFFFFFFC000FFF0003FFFFFFFFFFFFFE00000001F000FFFFC0000000
310
03FFF8001E001FC001E000FFFF80007FFFFF8000000007FFFFFC000000003FF8
310
0FFFFFFFFFFFFFC07FFFFFF0001FFFFFF8001FFFFFFFFC000FF8001FFFFFFFFC
310
000FFF0003FFFFFFFFFFFFE000000003F000FFFE0000000007FFF8001E000FC0
310
01E0007FFF80007FFFFE0000000007FFFFE0000000007FF80FFFFFFFFFFFFFC0
310
7FFFFFF0001FFFFFF0001FFFFFFFFC0007F0001FFFFFFFFC0007FF0003FFFFFF
310
FFFFFF0000000003F000FFF80000000007FFF8001E000FC003E0007FFF80007F
310
FFF0000000000FFFFF8000000000FFF80FFFFFFFFFFFFFC07FFFFFF0001FFFFF
310
F0001FFFFFFFFC0007F0001FFFFFFFFC0007FF0003FFFFFFFFFFFC0000000007
310
F000FFE0000000000FFFF0003E000FC003E0007FFF80007FFFC0000000001FFF
310
FE0000000001FFF80FFFFFFFFFFFFFC07FFFFFF0001FFFFFF0001FFFFFFFFC00
310
07F0001FFFFFFFFC0007FF0003FFFFFFFFFFF0000000000FF000FFC000000000
310
1FFFF0003F000F8003F0003FFF80007FFF80000000003FFFF80000000003FFF8
310
0FFFFFFFFFFFFFC07FFFFFF0001FFFFFF0001FFFFFFFFC0007F0001FFFFFFFFC
310
0007FF0003FFFFFFFFFFE0000000001FF000FF00000000007FFFF0003F000780
310
03F0003FFF80007FFF00000000007FFFF00000000007FFF80FFFFFFFFFFFFFC0
310
7FFFFFF0001FFFFFF0001FFFFFFFFC0007F0001FFFFFFFFC0007FF0003FFFFFF
310
FFFF80000000007FF000FE0000000000FFFFE0003F00078007F0003FFF80007F
310
FE0000000001FFFFE0000000001FFFF80FFFFFFFFFFFFFC07FFFFFF0001FFFFF
310
F0001FFFFFFFFC0007F0001FFFFFFFFC0007FF0003FFFFFFFFFF0000000000FF
310
F000FC0000000003FFFFE0007F00078007F0003FFF80007FFC0000000007FFFF
310
C0000000007FFFF80FFFFFFFFFFFFFC07FFFFFF0001FFFFFF8001FFFFFFFFC00
310
0FF8001FFFFFFFFC000FFF0003FFFFFFFFFE0000000003FFF000FC000000000F
310
FFFFE0007F80070007F8001FFF80007FF8000000001FFFFF8000000001FFFFF8
310
0FFFFFFFFFFFFFC07FFFFFF0001FFFFFF8001FFFFFFFFC000FF8001FFFFFFFFC
310
000FFF0003FFFFFFFFFC000000000FFFF000F8000000007FFFFFE0007F800700
310
07F8001FFF80007FF000000000FFFFFF800000000FFFFFF80FFFFFFFFFFFFFC0
310
7FFFFFF0001FFFFFF8000FFFFFFFF8000FF8000FFFFFFFF8000FFF0003FFFFFF
310
FFFC000000007FFFF000F800000007FFFFFFC0007F8003000FF8001FFF80007F
310
F000000007FFFFFF000000007FFFFFF80FFFFFFFFFFFFFC07FFFFFF0001FFFFF
310
F8000FFFFFFFF8000FF8000FFFFFFFF8000FFF0003FFFFFFFFF80000000FFFFF
310
F000F0000000FFFFFFFFC000FF8003000FF8001FFF80007FE0000000FFFFFFFF
310
0000000FFFFFFFF8000001FFFE0000007FFFFFF0001FFFFFF8000FFFFFFFF800
310
0FF8000FFFFFFFF8000FFF0003FFFFFFFFF8000000FFFFFFF000F000000FFFFF
310
FFFFC000FFC002000FF8000FFF80007FE000001FFFFFFFFE000001FFFFFFFFF8
310
000001FFFE0000007FFFFFF0001FFFFFF8000FFFFFFFF8000FF8000FFFFFFFF8
310
000FFF0003FFFFFFFFF000001FFFFFFFF000E00000FFFFFFFFFFC000FFC00200
310
0FFC000FFF80007FE00001FFFFFFFFFE00001FFFFFFFFFF8000001FFFE000000
310
7FFFFFF0001FFFFFFC000FFFFFFFF8001FFC000FFFFFFFF8001FFF0003FFFFFF
310
FFF00001FFFFFFFFF000E00007FFFFFFFFFF8000FFC000001FFC000FFF80007F
310
C0000FFFFFFFFFFE0000FFFFFFFFFFF8000001FFFE0000007FFFFFF0001FFFFF
310
FC0007FFFFFFF0001FFC0007FFFFFFF0001FFF0003FFFFFFFFF00007FFFFFFFF
310
F000E0001FFFFFFFFFFF8000FFC000001FFC000FFF80007FC0003FFFFFFFFFFE
310
0001FFFFFFFFFFF8000001FFFE0000007FFFFFF0001FFFFFFC0007FFFFFFF000
310
1FFC0007FFFFFFF0001FFF0003FFFFFFFFF0001FFFFFFFFFF000E0003FFFFF00
310
03FF8001FFE000001FFC0007FF80007FC0007FFFFF0007FC0003FFFFF0003FF8
310
000001FFFE0000007FFFFFF0001FFFFFFC0003FFFFFFE0001FFC0003FFFFFFE0
310
001FFF0003FFFFFFFFF0003FFFFFFFFFF000E0003FFFFF0001FF8001FFE00000
310
1FFE0007FF80007FC0007FFFFE0003FC0007FFFFE0003FF8000001FFFE000000
310
7FFFFFF0001FFFFFFE0003FFFFFFE0003FFE0003FFFFFFE0003FFF0003FFFFFF
310
FFF0003FFFFF8001F000E0003FFFFF0001FF0001FFE000001FFE0007FF80007F
310
C0007FFFFE0003FC0007FFFFE0003FF8000001FFFE0000007FFFFFF0001FFFFF
310
FE0001FFFFFFC0003FFE0001FFFFFFC0003FFF0003FFFFFFFFF0003FFFFF0001
310
F000E0003FFFFF0003FF0001FFE000003FFE0007FF80007FC0007FFFFE0003FC
310
0007FFFFE0003FF8000001FFFE0000007FFFFFF0001FFFFFFF0001FFFFFFC000
310
7FFF0001FFFFFFC0007FFF0003FFFFFFFFF0003FFFFF0001F000E0003FFFFE00
310
03FF0003FFF000003FFE0003FF80007FC0007FFFFC0003FE0007FFFFE0003FF8
310
000001FFFE0000007FFFFFF0001FFFFFFF0000FFFFFF80007FFF0000FFFFFF80
310
007FFF0003FFFFFFFFF0003FFFFF0001F000E0003FFFFE0003FF0003FFF00000
310
3FFF0003FF80007FC0007FFFFC0007FE0007FFFFC0003FF8000001FFFE000000
310
7FFFFFF0001FFFFFFF80007FFFFF0000FFFF80007FFFFF0000FFFF0003FFFFFF
310
FFF0003FFFFF0003F000E0003FFFFC0003FE0003FFF000003FFF0003FF80007F
310
E0003FFFF80007FE0003FFFFC0007FF8000001FFFE0000007FFFFFF0001FFFFF
310
FF80003FFFFE0000FFFF80003FFFFE0000FFFF0003FFFFFFFFF0001FFFFE0003
310
F000F0001FFFF80003FE0003FFF000007FFF0001FF80007FE0003FFFF00007FE
310
0001FFFF80007FF8000001FFFE0000007FFFFFF0001FFFFFFFC0000FFFF80001
310
FFFFC0000FFFF80001FFFF0003FFFFFFFFF0001FFFFC0003F000F0000FFFF000
310
07FE0007FFF800007FFF0001FF80007FE0001FFFE00007FF0000FFFE00007FF8
310
000001FFFE0000007FFFFFF0001FFFFFFFC00003FFE00001FFFFC00003FFE000
310
01FFFF0003FFFFFFFFF8000FFFF80003F000F00003FFC00007FC0007FFF80000
310
7FFF8001FF80007FF00007FF80000FFF00007FF80000FFF8000001FFFE000000
310
7F80000000000001FFE000003E000003FFFFE000003E000003FFFF0003FFFFFF
310
FFF80003FFE00007F000F800000000000FFC0007FFF800007FFF8001FF80007F
310
F000000000000FFF000000000000FFF8000001FFFE0000007F80000000000001
310
FFF0000000000007FFFFF0000000000007FFFF0003FFFFFFFFFC00007E000007
310
F000F800000000000FFC0007FFF80000FFFF8000FF80007FF800000000001FFF
310
800000000001FFF8000001FFFE0000007F80000000000001FFF800000000000F
310
FFFFF800000000000FFFFF0003FFFFFFFFFC00000000000FF000FC0000000000
310
1FFC0007FFFC0000FFFF8000FF80007FF800000000003FFFC00000000001FFF8
310
000001FFFE0000007F80000000000001FFF800000000000FFFFFF80000000000
310
0FFFFF0003FFFFFFFFFE00000000001FF000FE00000000003FF8000FFFFC0000
310
FFFF8000FF80007FFC00000000003FFFC00000000003FFF8000001FFFE000000
310
7F80000000000001FFFC00000000001FFFFFFC00000000001FFFFF0003FFFFFF
310
FFFF00000000001FF000FF00000000003FF8000FFFFC0000FFFFC000FF80007F
310
FE00000000007FFFE00000000007FFF8000001FFFE0000007F80000000000001
310
FFFE00000000003FFFFFFE00000000003FFFFF0003FFFFFFFFFF80000000003F
310
F000FF80000000007FF8000FFFFC0001FFFFC0007F80007FFF0000000000FFFF
310
F0000000000FFFF800000000000000007F80000000000001FFFF8000000000FF
310
FFFFFF8000000000FFFFFF0003FFFFFFFFFFC0000000007FF000FFC000000000
310
FFF8000FFFFE0001FFFFC0007F80007FFF8000000001FFFFF8000000001FFFF8
310
00000000000000007F80000000000001FFFFC000000001FFFFFFFFC000000001
310
FFFFFF0003FFFFFFFFFFE000000000FFF000FFE000000003FFF0001FFFFE0001
310
FFFFC0007F80007FFFC000000007FFFFFE000000003FFFF80000000000000000
310
7F80000000000001FFFFE000000003FFFFFFFFE000000003FFFFFF0003FFFFFF
310
FFFFF000000003FFF000FFF80000000FFFF0001FFFFE0001FFFFE0007F80007F
310
FFF00000000FFFFFFF00000000FFFFF800000000000000007F80000000000001
310
FFFFF80000000FFFFFFFFFF80000000FFFFFFF0003FFFFFFFFFFFC0000000FFF
310
F000FFFE0000003FFFF0001FFFFE0003FFFFE0003F80007FFFFC0000003FFFFF
310
FFC0000003FFFFF800000000000000007F80000000000001FFFFFE0000003FFF
310
FFFFFFFE0000003FFFFFFF0003FFFFFFFFFFFF0000003FFFF000FFFF800000FF
310
FFF0001FFFFF0003FFFFE0003F80007FFFFF000001FFFFFFFFF800001FFFFFF8
310
00000000000000007F80000000000001FFFFFFC00001FFFFFFFFFFFFC00001FF
310
FFFFFF0003FFFFFFFFFFFFC00000FFFFF000FFFFF8000FFFFFFFFFFFFFFFFFFF
310
FFFFFFFFFFFFFFFFFFFFF0001FFFFFFFFFFF0000FFFFFFF80000000000000000
310
7FFFFFFFFFFFFFFFFFFFFFFC001FFFFFFFFFFFFFFC001FFFFFFFFFFFFFFFFFFF
310
FFFFFFFC001FFFFFF000FFFFFFFFFFFFFFFFFFFFFFFFFFFFFFFFFFFFFFFFFFFF
310
FFFFFFFFFFFFFFFFFFFFFFFFFFFFFFFFFFFFFFFFFFFFFFFFFFFFFFFFFFFFFFFF
310
FFFFFFFFFFFFFFFFFFFFFFFFFFFFFFFFFFFFFFFFFFFFFFFFFFFFFFFFFFFFFFFF
310
F000FFFFFFFFFFFFFFFFFFFFFFFFFFFFFFFFFFFFFFFFFFFFFFFFFFFFFFFFFFFF
310
FFFFFFFFFFFFFFFFFFFFFFFFFFFFFFFFFFFFFFFFFFFFFFFFFFFFFFFFFFFFFFFF
310
FFFFFFFFFFFFFFFFFFFFFFFFFFFFFFFFFFFFFFFFFFFFFFFFF000FFFFFFFFFFFF
310
FFFFFFFFFFFFFFFFFFFFFFFFFFFFFFFFFFFFFFFFFFFFFFFFFFFFFFFFFFFFFFFF
310
FFFFFFFFFFFFFFFFFFFFFFFFFFFFFFFFFFFFFFFFFFFFFFFFFFFFFFFFFFFFFFFF
310
FFFFFFFFFFFFFFFFFFFFFFFFFFFFFFFFF000FFFFFFFFFFFFFFFFFFFFFFFFFFFF
310
FFFFFFFFFFFFFFFFFFFFFFFFFFFFFFFFFFFFFFFFFFFFFFFFFFFFFFFFFFFFFFFF
310
FFFFFFFFFFFFFFFFFFFFFFFFFFFFFFFFFFFFFFFFFFFFFFFFFFFFFFFFFFFFFFFF
310
FFFFFFFFFFFFFFFFF000FFFFFFFFFFFFFFFFFFFFFFFFFFFFFFFFFFFFFFFFFFFF
310
FFFFFFFFFFFFFFFFFFFFFFFFFFFFFFFFFFFFFFFFFFFFFFFFFFFFFFFFFFFFFFFF
310
FFFFFFFFFFFFFFFFFFFFFFFFFFFFFFFFFFFFFFFFFFFFFFFFFFFFFFFFFFFFFFFF
310
F000FFFFFFFFFFFFFFFFFFFFFFFFFFFFFFFFFFFFFFFFFFFFFFFFFFFFFFFFFFFF
310
FFFFFFFFFFFFFFFFFFFFFFFFFFFFFFFFFFFFFFFFFFFFFFFFFFFFFFFFFFFFFFFF
310
FFFFFFFFFFFFFFFFFFFFFFFFFFFFFFFFFFFFFFFFFFFFFFFFF000FFFFFFFFFFFF
310
FFFFFFFFFFFFFFFFFFFFFFFFFFFFFFFFFFFFFFFFFFFFFFFFFFFFFFFFFFFFFFFF
310
FFFFFFFFFFFFFFFFFFFFFFFFFFFFFFFFFFFFFFFFFFFFFFFFFFFFFFFFFFFFFFFF
310
FFFFFFFFFFFFFFFFFFFFFFFFFFFFFFFFF000FFFFFFFFFFFFFFFFFFFFFFFFFFFF
310
FFFFFFFFFFFFFFFFFFFFFFFFFFFFFFFFFFFFFFFFFFFFFFFFFFFFFFFFFFFFFFFF
310
FFFFFFFFFFFFFFFFFFFFFFFFFFFFFFFFFFFFFFFFFFFFFFFFFFFFFFFFFFFFFFFF
310
FFFFFFFFFFFFFFFFF000FFFFFFFFFFFFFFFFFFFFFFFFFFFFFFFFFFFFFFFFFFFF
310
FFFFFFFFFFFFFFFFFFFFFFFFFFFFFFFFFFFFFFFFFFFFFFFFFFFFFFFFFFFFFFFF
310
FFFFFFFFFFFFFFFFFFFFFFFFFFFFFFFFFFFFFFFFFFFFFFFFFFFFFFFFFFFFFFFF
310
F000FFFFFFFFFFFFFFFFFFFFFFFFFFFFFFFFFFFFFFFFFFFFFFFFFFFFFFFFFFFF
310
FFFFFFFFFFFFFFFFFFFFFFFFFFFFFFFFFFFFFFFFFFFFFFFFFFFFFFFFFFFFFFFF
310
FFFFFFFFFFFFFFFFFFFFFFFFFFFFFFFFFFFFFFFFFFFFFFFFF000FFFFFFFFFFFF
310
FFFFFFFFFFFFFFFFFFFFFFFFFFFFFFFFFFFFFFFFFFFFFFFFFFFFFFFFFFFFFFFF
310
FFFFFFFFFFFFFFFFFFFFFFFFFFFFFFFFFFFFFFFFFFFFFFFFFFFFFFFFFFFFFFFF
310
FFFFFFFFFFFFFFFFFFFFFFFFFFFFFFFFF000FFFFFFFFFFFFFFFFFFFFFFFFFFFF
310
FFFFFFFFFFFFFFFFFFFFFFFFFFFFFFFFFFFFFFFFFFFFFFFFFFFFFFFFFFFFFFFF
310
FFFFFFFFFFFFFFFFFFFFFFFFFFFFFFFFFFFFFFFFFFFFFFFFFFFFFFFFFFFFFFFF
310
FFFFFFFFFFFFFFFFF000FFFFFFFFFFFFFFFFFFFFFFFFFFFFFFFFFFFFFFFFFFFF
310
FFFFFFFFFFFFFFFFFFFFFFFFFFFFFFFFFFFFFFFFFFFFFFFFFFFFFFFFFFFFFFFF
310
FFFFFFFFFFFFFFFFFFFFFFFFFFFFFFFFFFFFFFFFFFFFFFFFFFFFFFFFFFFFFFFF
310
F000FFFFFFFFFFFFFFFFFFFFFFFFFFFFFFFFFFFFFFFFFFFFFFFFFFFFFFFFFFFF
310
FFFFFFFFFFFFFFFFFFFFFFFFFFFFFFFFFFFFFFFFFFFFFFFFFFFFFFFFFFFFFFFF
310
FFFFFFFFFFFFFFFFFFFFFFFFFFFFFFFFFFFFFFFFFFFFFFFFF000FFFFFFFFFFFF
310
FFFFFFFFFFFFFFFFFFFFFFFFFFFFFFFFFFFFFFFFFFFFFFFFFFFFFFFFFFFFFFFF
310
FFFFFFFFFFFFFFFFFFFFFFFFFFFFFFFFFFFFFFFFFFFFFFFFFFFFFFFFFFFFFFFF
310
FFFFFFFFFFFFFFFFFFFFFFFFFFFFFFFFF000FFFFFFFFFFFFFFFFFFFFFFFFFFFF
310
FFFFFFFFFFFFFFFFFFFFFFFFFFFFFFFFFFFFFFFFFFFFFFFFFFFFFFFFFFFFFFFF
310
FFFFFFFFFFFFFFFFFFFFFFFFFFFFFFFFFFFFFFFFFFFFFFFFFFFFFFFFFFFFFFFF
310
FFFFFFFFFFFFFFFFF000FFFFFFFFFFFFFFFFFFFFFFFFFFFFFFFFFFFFFFFFFFFF
310
FFFFFFFFFFFFFFFFFFFFFFFFFFFFFFFFFFFFFFFFFFFFFFFFFFFFFFFFFFFFFFFF
310
FFFFFFFFFFFFFFFFFFFFFFFFFFFFFFFFFFFFFFFFFFFFFFFFFFFFFFFFFFFFFFFF
310
F000FFFFFFFFFFFFFFFFFFFFFFFFFFFFFFFFFFFFFFFFFFFFFFFFFFFFFFFFFFFF
310
FFFFFFFFFFFFFFFFFFFFFFFFFFFFFFFFFFFFFFFFFFFFFFFFFFFFFFFFFFFFFFFF
310
FFFFFFFFFFFFFFFFFFFFFFFFFFFFFFFFFFFFFFFFFFFFFFFFF000FFFFFFFFFFFF
310
FFFFFFFFFFFFFFFFFFFFFFFFFFFFFFFFFFFFFFFFFFFFFFFFFFFFFFFFFFFFFFFF
310
FFFFFFFFFFFFFFFFFFFFFFFFFFFFFFFFFFFFFFFFFFFFFFFFFFFFFFFFFFFFFFFF
310
FFFFFFFFFFFFFFFFFFFFFFFFFFFFFFFFF000FFFFFFFFFFFFFFFFFFFFFFFFFFFF
310
FFFFFFFFFFFFFFFFFFFFFFFFFFFFFFFFFFFFFFFFFFFFFFFFFFFFFFFFFFFFFFFF
310
FFFFFFFFFFFFFFFFFFFFFFFFFFFFFFFFFFFFFFFFFFFFFFFFFFFFFFFFFFFFFFFF
310
FFFFFFFFFFFFFFFFF000FFFFFFFFFFFFFFFFFFFFFFFFFFFFFFFFFFFFFFFFFFFF
310
FFFFFFFFFFFFFFFFFFFFFFFFFFFFFFFFFFFFFFFFFFFFFFFFFFFFFFFFFFFFFFFF
310
FFFFFFFFFFFFFFFFFFFFFFFFFFFFFFFFFFFFFFFFFFFFFFFFFFFFFFFFFFFFFFFF
310
F000FFFFFFFFFFFFFFFFFFFFFFFFFFFFFFFFFFFFFFFFFFFFFFFFFFFFFFFFFFFF
310
FFFFFFFFFFFFFFFFFFFFFFFFFFFFFFFFFFFFFFFFFFFFFFFFFFFFFFFFFFFFFFFF
310
FFFFFFFFFFFFFFFFFFFFFFFFFFFFFFFFFFFFFFFFFFFFFFFFF000FFFFFFFFFFFF
310
FFFFFFFFFFFFFFFFFFFFFFFFFFFFFFFFFFFFFFFFFFFFFFFFFFFFFFFFFFFFFFFF
310
FFFFFFFFFFFFFFFFFFFFFFFFFFFFFFFFFFFFFFFFFFFFFFFFFFFFFFFFFFFFFFFF
310
FFFFFFFFFFFFFFFFFFFFFFFFFFFFFFFFF0000000000000000000000000000000
310
0000000000000000000000000000000000000000000000000000000000000000
310
0000000000000000000000000000000000000000000000000000000000000000
310
0000000000000000000000000000000000000000000000000000000000000000
310
0000000000000000000000000000000000000000000000000000000000000000
310
0000000000000000000000000000000000000000000000000000000000000000
310
0000000000000000000000000000000000000000000000000000000000000000
310
0000000000000000000000000000000000000000000000000000000000000000
310
0000000000000000000000000000000000000000000000000000000000000000
310
0000000000000000000000000000000000000000000000000000000000000000
310
0000000000000000000000000000000000000000000000000000000000000000
310
0000000000000000000000000000000000000000000000000000000000000000
310
0000000000000000000000000000000000000000000000000000000000000000
310
0000000000000000000000000000000000000000000000000000000000000000
310
0000000000000000000000000000000000000000000000000000000000000000
310
0000000000000000000000000000000000000000000000000000000000000000
  1
OLE
  0
ENDSEC
  0
SECTION
  2
OBJECTS
  0
DICTIONARY
  5
C
330
0
100
AcDbDictionary
281
     1
  3
ACAD_GROUP
350
D
  3
ACAD_LAYOUT
350
1A
  3
ACAD_MLINESTYLE
350
17
  3
ACAD_PLOTSETTINGS
350
19
  3
ACAD_PLOTSTYLENAME
350
E
  3
ACAD_SCALELIST
350
47
  0
DICTIONARY
  5
D
102
{ACAD_REACTORS
330
C
102
}
330
C
100
AcDbDictionary
281
     1
  0
DICTIONARY
  5
1A
102
{ACAD_REACTORS
330
C
102
}
330
C
100
AcDbDictionary
281
     1
  3
Layout1
350
1E
  3
Layout2
350
26
  3
Model
350
22
  0
DICTIONARY
  5
17
102
{ACAD_REACTORS
330
C
102
}
330
C
100
AcDbDictionary
281
     1
  3
Standard
350
18
  0
DICTIONARY
  5
19
102
{ACAD_REACTORS
330
C
102
}
330
C
100
AcDbDictionary
281
     1
  0
ACDBDICTIONARYWDFLT
  5
E
102
{ACAD_REACTORS
330
C
102
}
330
C
100
AcDbDictionary
281
     1
  3
Normal
350
F
100
AcDbDictionaryWithDefault
340
F
  0
DICTIONARY
  5
47
102
{ACAD_REACTORS
330
C
102
}
330
C
100
AcDbDictionary
281
     1
  3
A0
350
48
  3
A1
350
49
  3
A2
350
4A
  3
A3
350
4B
  3
A4
350
4C
  3
A5
350
4D
  3
A6
350
4E
  3
A7
350
4F
  3
A8
350
50
  3
A9
350
51
  3
B0
350
52
  3
B1
350
53
  3
B2
350
54
  3
B3
350
55
  3
B4
350
56
  3
B5
350
57
  3
B6
350
58
  3
B7
350
59
  3
B8
350
5A
  3
B9
350
5B
  3
C0
350
5C
  3
C1
350
5D
  3
C2
350
5E
  3
C3
350
5F
  3
C4
350
60
  3
C5
350
61
  3
C6
350
62
  3
C7
350
63
  3
C8
350
64
  3
C9
350
65
  3
D0
350
66
  3
D1
350
67
  3
D2
350
68
  0
LAYOUT
  5
1E
102
{ACAD_REACTORS
330
1A
102
}
330
1A
100
AcDbPlotSettings
  1

  2
none_device
  4

  6

 40
0.0
 41
0.0
 42
0.0
 43
0.0
 44
0.0
 45
0.0
 46
0.0
 47
0.0
 48
0.0
 49
0.0
140
0.0
141
0.0
142
1.0
143
1.0
 70
   688
 72
     1
 73
     0
 74
     5
  7

 75
    16
147
1.0
148
0.0
149
0.0
100
AcDbLayout
  1
Layout1
 70
     1
 71
     1
 10
0.0
 20
0.0
 11
420.0
 21
297.0
 12
0.0
 22
0.0
 32
0.0
 14
1.0000000000E+20
 24
1.0000000000E+20
 34
1.0000000000E+20
 15
-1.0000000000E+20
 25
-1.0000000000E+20
 35
-1.0000000000E+20
146
0.0
 13
0.0
 23
0.0
 33
0.0
 16
1.0
 26
0.0
 36
0.0
 17
0.0
 27
1.0
 37
0.0
 76
     0
330
1B
  0
LAYOUT
  5
26
102
{ACAD_REACTORS
330
1A
102
}
330
1A
100
AcDbPlotSettings
  1

  2
none_device
  4

  6

 40
0.0
 41
0.0
 42
0.0
 43
0.0
 44
0.0
 45
0.0
 46
0.0
 47
0.0
 48
0.0
 49
0.0
140
0.0
141
0.0
142
1.0
143
1.0
 70
   688
 72
     1
 73
     0
 74
     5
  7

 75
    16
147
1.0
148
0.0
149
0.0
100
AcDbLayout
  1
Layout2
 70
     1
 71
     2
 10
0.0
 20
0.0
 11
0.0
 21
0.0
 12
0.0
 22
0.0
 32
0.0
 14
0.0
 24
0.0
 34
0.0
 15
0.0
 25
0.0
 35
0.0
146
0.0
 13
0.0
 23
0.0
 33
0.0
 16
1.0
 26
0.0
 36
0.0
 17
0.0
 27
1.0
 37
0.0
 76
     0
330
23
  0
LAYOUT
  5
22
102
{ACAD_REACTORS
330
1A
102
}
330
1A
100
AcDbPlotSettings
  1

  2
none_device
  4
Letter_(8.50_x_11.00_Inches)
  6

 40
6.35
 41
6.35
 42
6.35000508
 43
6.35000508
 44
215.9
 45
279.4
 46
0.0
 47
0.0
 48
0.0
 49
0.0
140
0.0
141
0.0
142
1.0
143
1.0
 70
  1712
 72
     1
 73
     0
 74
     0
  7

 75
     0
147
1.0
148
0.0
149
0.0
100
AcDbLayout
  1
Model
 70
     1
 71
     0
 10
0.0
 20
0.0
 11
297.0
 21
210.0
 12
0.0
 22
0.0
 32
0.0
 14
0.0
 24
0.0
 34
0.0
 15
297.0
 25
210.0
 35
0.0
146
0.0
 13
0.0
 23
0.0
 33
0.0
 16
1.0
 26
0.0
 36
0.0
 17
0.0
 27
1.0
 37
0.0
 76
     0
330
1F
331
29
  0
MLINESTYLE
  5
18
102
{ACAD_REACTORS
330
17
102
}
330
17
100
AcDbMlineStyle
  2
Standard
 70
     0
  3

 62
   256
 51
90.0
 52
90.0
 71
     2
 49
0.5
 62
   256
  6
BYLAYER
 49
-0.5
 62
   256
  6
BYLAYER
  0
ACDBPLACEHOLDER
  5
F
102
{ACAD_REACTORS
330
E
102
}
330
E
  0
SCALE
  5
48
102
{ACAD_REACTORS
330
47
102
}
330
47
100
AcDbScale
 70
     0
300
1:1
140
1.0
141
1.0
290
     1
  0
SCALE
  5
49
102
{ACAD_REACTORS
330
47
102
}
330
47
100
AcDbScale
 70
     0
300
1:2
140
1.0
141
2.0
290
     0
  0
SCALE
  5
4A
102
{ACAD_REACTORS
330
47
102
}
330
47
100
AcDbScale
 70
     0
300
1:4
140
1.0
141
4.0
290
     0
  0
SCALE
  5
4B
102
{ACAD_REACTORS
330
47
102
}
330
47
100
AcDbScale
 70
     0
300
1:5
140
1.0
141
5.0
290
     0
  0
SCALE
  5
4C
102
{ACAD_REACTORS
330
47
102
}
330
47
100
AcDbScale
 70
     0
300
1:8
140
1.0
141
8.0
290
     0
  0
SCALE
  5
4D
102
{ACAD_REACTORS
330
47
102
}
330
47
100
AcDbScale
 70
     0
300
1:10
140
1.0
141
10.0
290
     0
  0
SCALE
  5
4E
102
{ACAD_REACTORS
330
47
102
}
330
47
100
AcDbScale
 70
     0
300
1:16
140
1.0
141
16.0
290
     0
  0
SCALE
  5
4F
102
{ACAD_REACTORS
330
47
102
}
330
47
100
AcDbScale
 70
     0
300
1:20
140
1.0
141
20.0
290
     0
  0
SCALE
  5
50
102
{ACAD_REACTORS
330
47
102
}
330
47
100
AcDbScale
 70
     0
300
1:30
140
1.0
141
30.0
290
     0
  0
SCALE
  5
51
102
{ACAD_REACTORS
330
47
102
}
330
47
100
AcDbScale
 70
     0
300
1:40
140
1.0
141
40.0
290
     0
  0
SCALE
  5
52
102
{ACAD_REACTORS
330
47
102
}
330
47
100
AcDbScale
 70
     0
300
1:50
140
1.0
141
50.0
290
     0
  0
SCALE
  5
53
102
{ACAD_REACTORS
330
47
102
}
330
47
100
AcDbScale
 70
     0
300
1:100
140
1.0
141
100.0
290
     0
  0
SCALE
  5
54
102
{ACAD_REACTORS
330
47
102
}
330
47
100
AcDbScale
 70
     0
300
2:1
140
2.0
141
1.0
290
     0
  0
SCALE
  5
55
102
{ACAD_REACTORS
330
47
102
}
330
47
100
AcDbScale
 70
     0
300
4:1
140
4.0
141
1.0
290
     0
  0
SCALE
  5
56
102
{ACAD_REACTORS
330
47
102
}
330
47
100
AcDbScale
 70
     0
300
8:1
140
8.0
141
1.0
290
     0
  0
SCALE
  5
57
102
{ACAD_REACTORS
330
47
102
}
330
47
100
AcDbScale
 70
     0
300
10:1
140
10.0
141
1.0
290
     0
  0
SCALE
  5
58
102
{ACAD_REACTORS
330
47
102
}
330
47
100
AcDbScale
 70
     0
300
100:1
140
100.0
141
1.0
290
     0
  0
SCALE
  5
59
102
{ACAD_REACTORS
330
47
102
}
330
47
100
AcDbScale
 70
     0
300
1/128" = 1'-0"
140
0.0078125
141
12.0
290
     0
  0
SCALE
  5
5A
102
{ACAD_REACTORS
330
47
102
}
330
47
100
AcDbScale
 70
     0
300
1/64" = 1'-0"
140
0.015625
141
12.0
290
     0
  0
SCALE
  5
5B
102
{ACAD_REACTORS
330
47
102
}
330
47
100
AcDbScale
 70
     0
300
1/32" = 1'-0"
140
0.03125
141
12.0
290
     0
  0
SCALE
  5
5C
102
{ACAD_REACTORS
330
47
102
}
330
47
100
AcDbScale
 70
     0
300
1/16" = 1'-0"
140
0.0625
141
12.0
290
     0
  0
SCALE
  5
5D
102
{ACAD_REACTORS
330
47
102
}
330
47
100
AcDbScale
 70
     0
300
3/32" = 1'-0"
140
0.09375
141
12.0
290
     0
  0
SCALE
  5
5E
102
{ACAD_REACTORS
330
47
102
}
330
47
100
AcDbScale
 70
     0
300
1/8" = 1'-0"
140
0.125
141
12.0
290
     0
  0
SCALE
  5
5F
102
{ACAD_REACTORS
330
47
102
}
330
47
100
AcDbScale
 70
     0
300
3/16" = 1'-0"
140
0.1875
141
12.0
290
     0
  0
SCALE
  5
60
102
{ACAD_REACTORS
330
47
102
}
330
47
100
AcDbScale
 70
     0
300
1/4" = 1'-0"
140
0.25
141
12.0
290
     0
  0
SCALE
  5
61
102
{ACAD_REACTORS
330
47
102
}
330
47
100
AcDbScale
 70
     0
300
3/8" = 1'-0"
140
0.375
141
12.0
290
     0
  0
SCALE
  5
62
102
{ACAD_REACTORS
330
47
102
}
330
47
100
AcDbScale
 70
     0
300
1/2" = 1'-0"
140
0.5
141
12.0
290
     0
  0
SCALE
  5
63
102
{ACAD_REACTORS
330
47
102
}
330
47
100
AcDbScale
 70
     0
300
3/4" = 1'-0"
140
0.75
141
12.0
290
     0
  0
SCALE
  5
64
102
{ACAD_REACTORS
330
47
102
}
330
47
100
AcDbScale
 70
     0
300
1" = 1'-0"
140
1.0
141
12.0
290
     0
  0
SCALE
  5
65
102
{ACAD_REACTORS
330
47
102
}
330
47
100
AcDbScale
 70
     0
300
1-1/2" = 1'-0"
140
1.5
141
12.0
290
     0
  0
SCALE
  5
66
102
{ACAD_REACTORS
330
47
102
}
330
47
100
AcDbScale
 70
     0
300
3" = 1'-0"
140
3.0
141
12.0
290
     0
  0
SCALE
  5
67
102
{ACAD_REACTORS
330
47
102
}
330
47
100
AcDbScale
 70
     0
300
6" = 1'-0"
140
6.0
141
12.0
290
     0
  0
SCALE
  5
68
102
{ACAD_REACTORS
330
47
102
}
330
47
100
AcDbScale
 70
     0
300
1'-0" = 1'-0"
140
12.0
141
12.0
290
     0
  0
ENDSEC
  0
EOF
