  0
SECTION
  2
HEADER
  9
$ACADVER
  1
AC1015
  9
$ACADMAINTVER
 70
     6
  9
$DWGCODEPAGE
  3
ANSI_1252
  9
$INSBASE
 10
0.0
 20
0.0
 30
0.0
  9
$EXTMIN
 10
0.0
 20
0.0
 30
0.0
  9
$EXTMAX
 10
297.0
 20
210.0
 30
0.0
  9
$LIMMIN
 10
0.0
 20
0.0
  9
$LIMMAX
 10
297.0
 20
210.0
  9
$ORTHOMODE
 70
     0
  9
$REGENMODE
 70
     1
  9
$FILLMODE
 70
     1
  9
$QTEXTMODE
 70
     0
  9
$MIRRTEXT
 70
     1
  9
$LTSCALE
 40
1.0
  9
$ATTMODE
 70
     1
  9
$TEXTSIZE
 40
2.0
  9
$TRACEWID
 40
1.0
  9
$TEXTSTYLE
  7
Standard
  9
$CLAYER
  8
0
  9
$CELTYPE
  6
ByLayer
  9
$CECOLOR
 62
   256
  9
$CELTSCALE
 40
1.0
  9
$DISPSILH
 70
     0
  9
$DIMSCALE
 40
1.0
  9
$DIMASZ
 40
3.0
  9
$DIMEXO
 40
0.0
  9
$DIMDLI
 40
3.75
  9
$DIMRND
 40
0.0
  9
$DIMDLE
 40
0.0
  9
$DIMEXE
 40
1.0
  9
$DIMTP
 40
0.0
  9
$DIMTM
 40
0.0
  9
$DIMTXT
 40
2.0
  9
$DIMCEN
 40
2.5
  9
$DIMTSZ
 40
0.0
  9
$DIMTOL
 70
     0
  9
$DIMLIM
 70
     0
  9
$DIMTIH
 70
     1
  9
$DIMTOH
 70
     1
  9
$DIMSE1
 70
     0
  9
$DIMSE2
 70
     0
  9
$DIMTAD
 70
     1
  9
$DIMZIN
 70
     0
  9
$DIMBLK
  1

  9
$DIMASO
 70
     1
  9
$DIMSHO
 70
     1
  9
$DIMPOST
  1

  9
$DIMAPOST
  1

  9
$DIMALT
 70
     0
  9
$DIMALTD
 70
     3
  9
$DIMALTF
 40
0.0393700787
  9
$DIMLFAC
 40
1.0
  9
$DIMTOFL
 70
     1
  9
$DIMTVP
 40
0.0
  9
$DIMTIX
 70
     0
  9
$DIMSOXD
 70
     0
  9
$DIMSAH
 70
     0
  9
$DIMBLK1
  1

  9
$DIMBLK2
  1

  9
$DIMSTYLE
  2
ISO-25
  9
$DIMCLRD
 70
     0
  9
$DIMCLRE
 70
     0
  9
$DIMCLRT
 70
     0
  9
$DIMTFAC
 40
1.0
  9
$DIMGAP
 40
1.524
  9
$DIMJUST
 70
     0
  9
$DIMSD1
 70
     0
  9
$DIMSD2
 70
     0
  9
$DIMTOLJ
 70
     0
  9
$DIMTZIN
 70
     0
  9
$DIMALTZ
 70
     0
  9
$DIMALTTZ
 70
     0
  9
$DIMUPT
 70
     0
  9
$DIMDEC
 70
     2
  9
$DIMTDEC
 70
     3
  9
$DIMALTU
 70
     2
  9
$DIMALTTD
 70
     3
  9
$DIMTXSTY
  7
Standard
  9
$DIMAUNIT
 70
     0
  9
$DIMADEC
 70
     2
  9
$DIMALTRND
 40
0.0
  9
$DIMAZIN
 70
     0
  9
$DIMDSEP
 70
    44
  9
$DIMATFIT
 70
     3
  9
$DIMFRAC
 70
     0
  9
$DIMLDRBLK
  1

  9
$DIMLUNIT
 70
     2
  9
$DIMLWD
 70
    -2
  9
$DIMLWE
 70
    -2
  9
$DIMTMOVE
 70
     0
  9
$LUNITS
 70
     2
  9
$LUPREC
 70
     2
  9
$SKETCHINC
 40
1.0
  9
$FILLETRAD
 40
10.0
  9
$AUNITS
 70
     0
  9
$AUPREC
 70
     2
  9
$MENU
  1
.
  9
$ELEVATION
 40
0.0
  9
$PELEVATION
 40
0.0
  9
$THICKNESS
 40
0.0
  9
$LIMCHECK
 70
     0
  9
$CHAMFERA
 40
0.0
  9
$CHAMFERB
 40
0.0
  9
$CHAMFERC
 40
0.0
  9
$CHAMFERD
 40
0.0
  9
$SKPOLY
 70
     0
  9
$TDCREATE
 40
2457632.712334549
  9
$TDUCREATE
 40
2457632.629001215
  9
$TDUPDATE
 40
2457632.712335903
  9
$TDUUPDATE
 40
2457632.629002569
  9
$TDINDWG
 40
0.0000000116
  9
$TDUSRTIMER
 40
0.0000000116
  9
$USRTIMER
 70
     1
  9
$ANGBASE
 50
0.0
  9
$ANGDIR
 70
     0
  9
$PDMODE
 70
     0
  9
$PDSIZE
 40
-1.0
  9
$PLINEWID
 40
0.0
  9
$SPLFRAME
 70
     0
  9
$SPLINETYPE
 70
     6
  9
$SPLINESEGS
 70
     8
  9
$HANDSEED
  5
267
  9
$SURFTAB1
 70
     6
  9
$SURFTAB2
 70
     6
  9
$SURFTYPE
 70
     6
  9
$SURFU
 70
     6
  9
$SURFV
 70
     6
  9
$UCSBASE
  2

  9
$UCSNAME
  2

  9
$UCSORG
 10
0.0
 20
0.0
 30
0.0
  9
$UCSXDIR
 10
1.0
 20
0.0
 30
0.0
  9
$UCSYDIR
 10
0.0
 20
1.0
 30
0.0
  9
$UCSORTHOREF
  2

  9
$UCSORTHOVIEW
 70
     0
  9
$UCSORGTOP
 10
0.0
 20
0.0
 30
0.0
  9
$UCSORGBOTTOM
 10
0.0
 20
0.0
 30
0.0
  9
$UCSORGLEFT
 10
0.0
 20
0.0
 30
0.0
  9
$UCSORGRIGHT
 10
0.0
 20
0.0
 30
0.0
  9
$UCSORGFRONT
 10
0.0
 20
0.0
 30
0.0
  9
$UCSORGBACK
 10
0.0
 20
0.0
 30
0.0
  9
$PUCSBASE
  2

  9
$PUCSNAME
  2

  9
$PUCSORG
 10
0.0
 20
0.0
 30
0.0
  9
$PUCSXDIR
 10
1.0
 20
0.0
 30
0.0
  9
$PUCSYDIR
 10
0.0
 20
1.0
 30
0.0
  9
$PUCSORTHOREF
  2

  9
$PUCSORTHOVIEW
 70
     0
  9
$PUCSORGTOP
 10
0.0
 20
0.0
 30
0.0
  9
$PUCSORGBOTTOM
 10
0.0
 20
0.0
 30
0.0
  9
$PUCSORGLEFT
 10
0.0
 20
0.0
 30
0.0
  9
$PUCSORGRIGHT
 10
0.0
 20
0.0
 30
0.0
  9
$PUCSORGFRONT
 10
0.0
 20
0.0
 30
0.0
  9
$PUCSORGBACK
 10
0.0
 20
0.0
 30
0.0
  9
$USERI1
 70
     0
  9
$USERI2
 70
     0
  9
$USERI3
 70
     0
  9
$USERI4
 70
     0
  9
$USERI5
 70
     0
  9
$USERR1
 40
0.0
  9
$USERR2
 40
0.0
  9
$USERR3
 40
0.0
  9
$USERR4
 40
0.0
  9
$USERR5
 40
0.0
  9
$WORLDVIEW
 70
     1
  9
$SHADEDGE
 70
     3
  9
$SHADEDIF
 70
    70
  9
$TILEMODE
 70
     1
  9
$MAXACTVP
 70
    64
  9
$PINSBASE
 10
0.0
 20
0.0
 30
0.0
  9
$PLIMCHECK
 70
     0
  9
$PEXTMIN
 10
1.0000000000E+20
 20
1.0000000000E+20
 30
1.0000000000E+20
  9
$PEXTMAX
 10
-1.0000000000E+20
 20
-1.0000000000E+20
 30
-1.0000000000E+20
  9
$PLIMMIN
 10
0.0
 20
0.0
  9
$PLIMMAX
 10
420.0
 20
297.0
  9
$UNITMODE
 70
     0
  9
$VISRETAIN
 70
     1
  9
$PLINEGEN
 70
     0
  9
$PSLTSCALE
 70
     1
  9
$TREEDEPTH
 70
  3020
  9
$CMLSTYLE
  2
Standard
  9
$CMLJUST
 70
     0
  9
$CMLSCALE
 40
20.0
  9
$PROXYGRAPHICS
 70
     1
  9
$MEASUREMENT
 70
     1
  9
$CELWEIGHT
370
    -1
  9
$ENDCAPS
280
     0
  9
$JOINSTYLE
280
     0
  9
$LWDISPLAY
290
     1
  9
$INSUNITS
 70
     4
  9
$HYPERLINKBASE
  1

  9
$STYLESHEET
  1

  9
$XEDIT
290
     1
  9
$CEPSNTYPE
380
     0
  9
$PSTYLEMODE
290
     1
  9
$FINGERPRINTGUID
  2
{17661EC8-9A61-4C2D-A6C3-E3BF3BFB7AFC}
  9
$VERSIONGUID
  2
{FAEB1C32-E019-11D5-929B-00C0DF256EC4}
  9
$EXTNAMES
290
     1
  9
$PSVPSCALE
 40
0.0
  9
$OLESTARTUP
290
     0
  0
ENDSEC
  0
SECTION
  2
CLASSES
  0
CLASS
  1
ACDBDICTIONARYWDFLT
  2
AcDbDictionaryWithDefault
  3
ObjectDBX Classes
 90
        0
280
     0
281
     0
  0
CLASS
  1
VISUALSTYLE
  2
AcDbVisualStyle
  3
ObjectDBX Classes
 90
     4095
280
     0
281
     0
  0
CLASS
  1
MATERIAL
  2
AcDbMaterial
  3
ObjectDBX Classes
 90
     1153
280
     0
281
     0
  0
CLASS
  1
SCALE
  2
AcDbScale
  3
ObjectDBX Classes
 90
     1153
280
     0
281
     0
  0
CLASS
  1
TABLESTYLE
  2
AcDbTableStyle
  3
ObjectDBX Classes
 90
     4095
280
     0
281
     0
  0
CLASS
  1
MLEADERSTYLE
  2
AcDbMLeaderStyle
  3
ACDB_MLEADERSTYLE_CLASS
 90
     4095
280
     0
281
     0
  0
CLASS
  1
SUN
  2
AcDbSun
  3
SCENEOE
 90
     1153
280
     0
281
     0
  0
CLASS
  1
ACDBPLACEHOLDER
  2
AcDbPlaceHolder
  3
ObjectDBX Classes
 90
        0
280
     0
281
     0
  0
CLASS
  1
LAYOUT
  2
AcDbLayout
  3
ObjectDBX Classes
 90
        0
280
     0
281
     0
  0
ENDSEC
  0
SECTION
  2
TABLES
  0
TABLE
  2
VPORT
  5
8
330
0
100
AcDbSymbolTable
 70
     1
  0
VPORT
  5
29
330
8
100
AcDbSymbolTableRecord
100
AcDbViewportTableRecord
  2
*Active
 70
     0
 10
0.0
 20
0.0
 11
1.0
 21
1.0
 12
148.5
 22
105.0
 13
0.0
 23
0.0
 14
10.0
 24
10.0
 15
10.0
 25
10.0
 16
0.0
 26
0.0
 36
1.0
 17
0.0
 27
0.0
 37
0.0
 40
210.0
 41
1.4142857143
 42
50.0
 43
0.0
 44
0.0
 50
0.0
 51
0.0
 71
     0
 72
  2000
 73
     1
 74
     3
 75
     0
 76
     0
 77
     0
 78
     0
281
     0
 65
     1
110
0.0
120
0.0
130
0.0
111
1.0
121
0.0
131
0.0
112
0.0
122
1.0
132
0.0
 79
     0
146
0.0
  0
ENDTAB
  0
TABLE
  2
LTYPE
  5
5
330
0
100
AcDbSymbolTable
 70
     6
  0
LTYPE
  5
14
330
5
100
AcDbSymbolTableRecord
100
AcDbLinetypeTableRecord
  2
ByBlock
 70
     0
  3

 72
    65
 73
     0
 40
0.0
  0
LTYPE
  5
15
330
5
100
AcDbSymbolTableRecord
100
AcDbLinetypeTableRecord
  2
ByLayer
 70
     0
  3

 72
    65
 73
     0
 40
0.0
  0
LTYPE
  5
16
330
5
100
AcDbSymbolTableRecord
100
AcDbLinetypeTableRecord
  2
Continuous
 70
     0
  3
Solid line
 72
    65
 73
     0
 40
0.0
  0
LTYPE
  5
6E
330
5
100
AcDbSymbolTableRecord
100
AcDbLinetypeTableRecord
  2
HIDDEN
 70
     0
  3
Hidden __ __ __ __ __ __ __ __ __ __ __ __ __ __
 72
    65
 73
     2
 40
1.905
 49
1.27
 74
     0
 49
-0.635
 74
     0
  0
LTYPE
  5
6F
330
5
100
AcDbSymbolTableRecord
100
AcDbLinetypeTableRecord
  2
PHANTOM
 70
     0
  3
Phantom ______  __  __  ______  __  __  ______
 72
    65
 73
     6
 40
12.7
 49
6.35
 74
     0
 49
-1.27
 74
     0
 49
1.27
 74
     0
 49
-1.27
 74
     0
 49
1.27
 74
     0
 49
-1.27
 74
     0
  0
LTYPE
  5
70
330
5
100
AcDbSymbolTableRecord
100
AcDbLinetypeTableRecord
  2
CENTER
 70
     0
  3
Center ____ _ ____ _ ____ _ ____ _ ____ _ ____
 72
    65
 73
     4
 40
10.16
 49
6.35
 74
     0
 49
-1.27
 74
     0
 49
1.27
 74
     0
 49
-1.27
 74
     0
  0
LTYPE
  5
71
330
5
100
AcDbSymbolTableRecord
100
AcDbLinetypeTableRecord
  2
CENTERX2
 70
     0
  3
Center (2x) ________  __  ________  __  _____
 72
    65
 73
     4
 40
20.32
 49
12.7
 74
     0
 49
-2.54
 74
     0
 49
2.54
 74
     0
 49
-2.54
 74
     0
  0
LTYPE
  5
72
330
5
100
AcDbSymbolTableRecord
100
AcDbLinetypeTableRecord
  2
DOT2
 70
     0
  3
Dot (.5x) ........................................
 72
    65
 73
     2
 40
0.635
 49
0.0
 74
     0
 49
-0.635
 74
     0
  0
ENDTAB
  0
TABLE
  2
LAYER
  5
2
330
0
100
AcDbSymbolTable
 70
     5
  0
LAYER
  5
10
330
2
100
AcDbSymbolTableRecord
100
AcDbLayerTableRecord
  2
0
 70
     0
 62
     7
  6
Continuous
370
    -3
390
F
  0
LAYER
  5
73
330
2
100
AcDbSymbolTableRecord
100
AcDbLayerTableRecord
  2
FORMAT
 70
     0
 62
     7
  6
Continuous
370
    -3
390
F
  0
LAYER
  5
74
330
2
100
AcDbSymbolTableRecord
100
AcDbLayerTableRecord
  2
VERMASSUNG
 70
     0
 62
     7
  6
Continuous
370
    -3
390
F
  0
LAYER
  5
75
330
2
100
AcDbSymbolTableRecord
100
AcDbLayerTableRecord
  2
KOPF_DÜNN
 70
     0
 62
     7
  6
Continuous
370
    -3
390
F
  0
LAYER
  5
76
330
2
100
AcDbSymbolTableRecord
100
AcDbLayerTableRecord
  2
KOPF_DICK
 70
     0
 62
     7
  6
Continuous
370
    15
390
F
  0
ENDTAB
  0
TABLE
  2
STYLE
  5
3
330
0
100
AcDbSymbolTable
 70
     3
  0
STYLE
  5
11
330
3
100
AcDbSymbolTableRecord
100
AcDbTextStyleTableRecord
  2
Standard
 70
     0
 40
0.0
 41
1.0
 50
0.0
 71
     0
 42
2.0
  3
txt
  4

  0
STYLE
  5
77
330
3
100
AcDbSymbolTableRecord
100
AcDbTextStyleTableRecord
  2
SLDTEXTSTYLE0
 70
     0
 40
0.0
 41
0.7
 50
0.0
 71
     0
 42
2.0
  3
TXT
  4

  0
STYLE
  5
7B
330
3
100
AcDbSymbolTableRecord
100
AcDbTextStyleTableRecord
  2
SLDTEXTSTYLE1
 70
     0
 40
0.0
 41
0.6411764706
 50
0.0
 71
     0
 42
2.0
  3
TXT
  4

  0
ENDTAB
  0
TABLE
  2
VIEW
  5
6
330
0
100
AcDbSymbolTable
 70
     0
  0
ENDTAB
  0
TABLE
  2
UCS
  5
7
330
0
100
AcDbSymbolTable
 70
     0
  0
ENDTAB
  0
TABLE
  2
APPID
  5
9
330
0
100
AcDbSymbolTable
 70
     1
  0
APPID
  5
12
330
9
100
AcDbSymbolTableRecord
100
AcDbRegAppTableRecord
  2
ACAD
 70
     0
  0
ENDTAB
  0
TABLE
  2
DIMSTYLE
  5
A
330
0
100
AcDbSymbolTable
 70
     2
100
AcDbDimStyleTable
  0
DIMSTYLE
105
27
330
A
100
AcDbSymbolTableRecord
100
AcDbDimStyleTableRecord
  2
ISO-25
 70
     0
 41
2.5
 42
0.625
 43
3.75
 44
1.25
 73
     0
 74
     0
 77
     1
 78
     8
140
2.5
141
2.5
143
0.0393700787
147
0.625
171
     3
172
     1
178
     0
271
     2
272
     2
274
     3
278
    44
283
     0
284
     8
340
11
  0
DIMSTYLE
105
16C
102
{ACAD_REACTORS
330
16B
330
176
330
180
330
18A
330
196
102
}
330
A
100
AcDbSymbolTableRecord
100
AcDbDimStyleTableRecord
  2
SLDDIMSTYLE0
 70
     0
 41
3.0
 44
0.0
 45
0.000000001
 73
     0
 74
     0
 77
     1
 78
    12
 79
     3
140
2.0
147
0.5
173
     1
178
     0
271
     2
272
     3
276
     2
284
    12
340
77
  0
ENDTAB
  0
TABLE
  2
BLOCK_RECORD
  5
1
330
0
100
AcDbSymbolTable
 70
     6
  0
BLOCK_RECORD
  5
1F
330
1
100
AcDbSymbolTableRecord
100
AcDbBlockTableRecord
  2
*Model_Space
340
22
  0
BLOCK_RECORD
  5
1B
330
1
100
AcDbSymbolTableRecord
100
AcDbBlockTableRecord
  2
*Paper_Space
340
1E
  0
BLOCK_RECORD
  5
23
330
1
100
AcDbSymbolTableRecord
100
AcDbBlockTableRecord
  2
*Paper_Space0
340
26
  0
BLOCK_RECORD
  5
16D
330
1
100
AcDbSymbolTableRecord
100
AcDbBlockTableRecord
  2
_D
340
0
  0
BLOCK_RECORD
  5
177
330
1
100
AcDbSymbolTableRecord
100
AcDbBlockTableRecord
  2
_D_1
340
0
  0
BLOCK_RECORD
  5
181
330
1
100
AcDbSymbolTableRecord
100
AcDbBlockTableRecord
  2
_D_2
340
0
  0
BLOCK_RECORD
  5
18B
330
1
100
AcDbSymbolTableRecord
100
AcDbBlockTableRecord
  2
_D_3
340
0
  0
BLOCK_RECORD
  5
197
330
1
100
AcDbSymbolTableRecord
100
AcDbBlockTableRecord
  2
_D_4
340
0
  0
ENDTAB
  0
ENDSEC
  0
SECTION
  2
BLOCKS
  0
BLOCK
  5
20
330
1F
100
AcDbEntity
  8
0
100
AcDbBlockBegin
  2
*Model_Space
 70
     0
 10
0.0
 20
0.0
 30
0.0
  3
*Model_Space
  1

  0
ENDBLK
  5
21
330
1F
100
AcDbEntity
  8
0
100
AcDbBlockEnd
  0
BLOCK
  5
1C
330
1B
100
AcDbEntity
 67
     1
  8
0
100
AcDbBlockBegin
  2
*Paper_Space
 70
     0
 10
0.0
 20
0.0
 30
0.0
  3
*Paper_Space
  1

  0
ENDBLK
  5
1D
330
1B
100
AcDbEntity
 67
     1
  8
0
100
AcDbBlockEnd
  0
BLOCK
  5
24
330
23
100
AcDbEntity
  8
0
100
AcDbBlockBegin
  2
*Paper_Space0
 70
     0
 10
0.0
 20
0.0
 30
0.0
  3
*Paper_Space0
  1

  0
ENDBLK
  5
25
330
23
100
AcDbEntity
  8
0
100
AcDbBlockEnd
  0
BLOCK
  5
16E
330
16D
100
AcDbEntity
  8
0
100
AcDbBlockBegin
  2
_D
 70
     0
 10
0.0
 20
0.0
 30
0.0
  3
_D
  1

  0
SOLID
  5
170
330
16D
100
AcDbEntity
  8
VERMASSUNG
100
AcDbTrace
 10
202.4807694561
 20
166.2068401852
 30
0.0
 11
199.4807694561
 21
166.6568401852
 31
0.0
 12
199.4807694561
 22
165.7568401852
 32
0.0
 13
199.4807694561
 23
165.7568401852
 33
0.0
  0
SOLID
  5
171
330
16D
100
AcDbEntity
  8
VERMASSUNG
100
AcDbTrace
 10
96.5807694561
 20
166.2068401852
 30
0.0
 11
99.5807694561
 21
165.7568401852
 31
0.0
 12
99.5807694561
 22
166.6568401852
 32
0.0
 13
99.5807694561
 23
166.6568401852
 33
0.0
  0
LINE
  5
172
330
16D
100
AcDbEntity
  8
VERMASSUNG
100
AcDbLine
 10
202.4807694561
 20
137.9804521317
 30
0.0
 11
202.4807694561
 21
167.2068401852
 31
0.0
  0
LINE
  5
173
330
16D
100
AcDbEntity
  8
VERMASSUNG
100
AcDbLine
 10
96.5807694561
 20
135.1473305674
 30
0.0
 11
96.5807694561
 21
167.2068401852
 31
0.0
  0
LINE
  5
174
330
16D
100
AcDbEntity
  8
VERMASSUNG
100
AcDbLine
 10
202.4807694561
 20
166.2068401852
 30
0.0
 11
96.5807694561
 21
166.2068401852
 31
0.0
  0
MTEXT
  5
175
330
16D
100
AcDbEntity
  8
VERMASSUNG
100
AcDbMText
 10
146.6310176538
 20
168.7849757811
 30
0.0
 40
2.0
 41
0.0
 71
     1
 72
     1
  1
105.9
  7
SLDTEXTSTYLE0
 73
     1
 44
1.0
  0
ENDBLK
  5
16F
330
16D
100
AcDbEntity
  8
0
100
AcDbBlockEnd
  0
BLOCK
  5
178
330
177
100
AcDbEntity
  8
0
100
AcDbBlockBegin
  2
_D_1
 70
     0
 10
0.0
 20
0.0
 30
0.0
  3
_D_1
  1

  0
SOLID
  5
17A
330
177
100
AcDbEntity
  8
VERMASSUNG
100
AcDbTrace
 10
136.4807694561
 20
160.2068401852
 30
0.0
 11
139.4807694561
 21
159.7568401852
 31
0.0
 12
139.4807694561
 22
160.6568401852
 32
0.0
 13
139.4807694561
 23
160.6568401852
 33
0.0
  0
SOLID
  5
17B
330
177
100
AcDbEntity
  8
VERMASSUNG
100
AcDbTrace
 10
202.4807694561
 20
160.2068401852
 30
0.0
 11
199.4807694561
 21
160.6568401852
 31
0.0
 12
199.4807694561
 22
159.7568401852
 32
0.0
 13
199.4807694561
 23
159.7568401852
 33
0.0
  0
LINE
  5
17C
330
177
100
AcDbEntity
  8
VERMASSUNG
100
AcDbLine
 10
136.4807694561
 20
150.4804521317
 30
0.0
 11
136.4807694561
 21
161.2068401852
 31
0.0
  0
LINE
  5
17D
330
177
100
AcDbEntity
  8
VERMASSUNG
100
AcDbLine
 10
202.4807694561
 20
137.9804521317
 30
0.0
 11
202.4807694561
 21
161.2068401852
 31
0.0
  0
LINE
  5
17E
330
177
100
AcDbEntity
  8
VERMASSUNG
100
AcDbLine
 10
136.4807694561
 20
160.2068401852
 30
0.0
 11
202.4807694561
 21
160.2068401852
 31
0.0
  0
MTEXT
  5
17F
330
177
100
AcDbEntity
  8
VERMASSUNG
100
AcDbMText
 10
168.0810794458
 20
162.7849757811
 30
0.0
 40
2.0
 41
0.0
 71
     1
 72
     1
  1
66
  7
SLDTEXTSTYLE0
 73
     1
 44
1.0
  0
ENDBLK
  5
179
330
177
100
AcDbEntity
  8
0
100
AcDbBlockEnd
  0
BLOCK
  5
182
330
181
100
AcDbEntity
  8
0
100
AcDbBlockBegin
  2
_D_2
 70
     0
 10
0.0
 20
0.0
 30
0.0
  3
_D_2
  1

  0
SOLID
  5
184
330
181
100
AcDbEntity
  8
VERMASSUNG
100
AcDbTrace
 10
162.4307694561
 20
154.2068401852
 30
0.0
 11
165.4307694561
 21
153.7568401852
 31
0.0
 12
165.4307694561
 22
154.6568401852
 32
0.0
 13
165.4307694561
 23
154.6568401852
 33
0.0
  0
SOLID
  5
185
330
181
100
AcDbEntity
  8
VERMASSUNG
100
AcDbTrace
 10
202.4807694561
 20
154.2068401852
 30
0.0
 11
199.4807694561
 21
154.6568401852
 31
0.0
 12
199.4807694561
 22
153.7568401852
 32
0.0
 13
199.4807694561
 23
153.7568401852
 33
0.0
  0
LINE
  5
186
330
181
100
AcDbEntity
  8
VERMASSUNG
100
AcDbLine
 10
162.4307694561
 20
148.9277840538
 30
0.0
 11
162.4307694561
 21
155.2068401852
 31
0.0
  0
LINE
  5
187
330
181
100
AcDbEntity
  8
VERMASSUNG
100
AcDbLine
 10
202.4807694561
 20
137.9804521317
 30
0.0
 11
202.4807694561
 21
155.2068401852
 31
0.0
  0
LINE
  5
188
330
181
100
AcDbEntity
  8
VERMASSUNG
100
AcDbLine
 10
162.4307694561
 20
154.2068401852
 30
0.0
 11
202.4807694561
 21
154.2068401852
 31
0.0
  0
MTEXT
  5
189
330
181
100
AcDbEntity
  8
VERMASSUNG
100
AcDbMText
 10
179.2560052954
 20
156.7849757811
 30
0.0
 40
2.0
 41
0.0
 71
     1
 72
     1
  1
40.05
  7
SLDTEXTSTYLE0
 73
     1
 44
1.0
  0
ENDBLK
  5
183
330
181
100
AcDbEntity
  8
0
100
AcDbBlockEnd
  0
BLOCK
  5
18C
330
18B
100
AcDbEntity
  8
0
100
AcDbBlockBegin
  2
_D_3
 70
     0
 10
0.0
 20
0.0
 30
0.0
  3
_D_3
  1

  0
SOLID
  5
18E
330
18B
100
AcDbEntity
  8
VERMASSUNG
100
AcDbTrace
 10
91.6197793516
 20
150.9804521317
 30
0.0
 11
91.1697793516
 21
147.9804521317
 31
0.0
 12
92.0697793516
 22
147.9804521317
 32
0.0
 13
92.0697793516
 23
147.9804521317
 33
0.0
  0
SOLID
  5
18F
330
18B
100
AcDbEntity
  8
VERMASSUNG
100
AcDbTrace
 10
91.6197793516
 20
70.9804521317
 30
0.0
 11
92.0697793516
 21
73.9804521317
 31
0.0
 12
91.1697793516
 22
73.9804521317
 32
0.0
 13
91.1697793516
 23
73.9804521317
 33
0.0
  0
LINE
  5
190
330
18B
100
AcDbEntity
  8
VERMASSUNG
100
AcDbLine
 10
136.9807694561
 20
150.9804521317
 30
0.0
 11
90.6197793516
 21
150.9804521317
 31
0.0
  0
LINE
  5
191
330
18B
100
AcDbEntity
  8
VERMASSUNG
100
AcDbLine
 10
136.9807694561
 20
70.9804521317
 30
0.0
 11
90.6197793516
 21
70.9804521317
 31
0.0
  0
LINE
  5
192
330
18B
100
AcDbEntity
  8
VERMASSUNG
100
AcDbLine
 10
91.6197793516
 20
150.9804521317
 30
0.0
 11
91.6197793516
 21
70.9804521317
 31
0.0
  0
MTEXT
  5
193
330
18B
100
AcDbEntity
  8
VERMASSUNG
100
AcDbMText
 10
88.8416440954
 20
103.2760906487
 30
0.0
 40
2.0
 41
0.0
 71
     1
 72
     1
  1
HSK A
  7
SLDTEXTSTYLE0
 11
-7.044195017643634E-15
 21
1.0
 31
0.0
 73
     1
 44
1.0
  0
MTEXT
  5
194
330
18B
100
AcDbEntity
  8
VERMASSUNG
100
AcDbMText
 10
89.0416440466
 20
112.2760902613
 30
0.0
 40
2.0
 41
0.0
 71
     1
 72
     1
  1
%%c
  7
SLDTEXTSTYLE0
 11
-7.044195017643634E-15
 21
1.0
 31
0.0
 73
     1
 44
1.0
  0
MTEXT
  5
195
330
18B
100
AcDbEntity
  8
VERMASSUNG
100
AcDbMText
 10
89.0416437556
 20
115.8854335941
 30
0.0
 40
2.0
 41
0.0
 71
     1
 72
     1
  1
80
  7
SLDTEXTSTYLE0
 11
-7.044195017643634E-15
 21
1.0
 31
0.0
 73
     1
 44
1.0
  0
ENDBLK
  5
18D
330
18B
100
AcDbEntity
  8
0
100
AcDbBlockEnd
  0
BLOCK
  5
198
330
197
100
AcDbEntity
  8
0
100
AcDbBlockBegin
  2
_D_4
 70
     0
 10
0.0
 20
0.0
 30
0.0
  3
_D_4
  1

  0
SOLID
  5
19A
330
197
100
AcDbEntity
  8
VERMASSUNG
100
AcDbTrace
 10
210.9496836687
 20
138.4804521317
 30
0.0
 11
210.4996836687
 21
135.4804521317
 31
0.0
 12
211.3996836687
 22
135.4804521317
 32
0.0
 13
211.3996836687
 23
135.4804521317
 33
0.0
  0
SOLID
  5
19B
330
197
100
AcDbEntity
  8
VERMASSUNG
100
AcDbTrace
 10
210.9496836687
 20
83.4804521317
 30
0.0
 11
211.3996836687
 21
86.4804521317
 31
0.0
 12
210.4996836687
 22
86.4804521317
 32
0.0
 13
210.4996836687
 23
86.4804521317
 33
0.0
  0
LINE
  5
19C
330
197
100
AcDbEntity
  8
VERMASSUNG
100
AcDbLine
 10
201.9807694561
 20
138.4804521317
 30
0.0
 11
211.9496836687
 21
138.4804521317
 31
0.0
  0
LINE
  5
19D
330
197
100
AcDbEntity
  8
VERMASSUNG
100
AcDbLine
 10
201.9807694561
 20
83.4804521317
 30
0.0
 11
211.9496836687
 21
83.4804521317
 31
0.0
  0
LINE
  5
19E
330
197
100
AcDbEntity
  8
VERMASSUNG
100
AcDbLine
 10
210.9496836687
 20
138.4804521317
 30
0.0
 11
210.9496836687
 21
83.4804521317
 31
0.0
  0
MTEXT
  5
19F
330
197
100
AcDbEntity
  8
VERMASSUNG
100
AcDbMText
 10
208.1715484124
 20
104.5754524882
 30
0.0
 40
2.0
 41
0.0
 71
     1
 72
     1
  1
MBM
  7
SLDTEXTSTYLE0
 11
-7.044195017643634E-15
 21
1.0
 31
0.0
 73
     1
 44
1.0
  0
MTEXT
  5
1A0
330
197
100
AcDbEntity
  8
VERMASSUNG
100
AcDbMText
 10
208.3715483637
 20
110.9754523265
 30
0.0
 40
2.0
 41
0.0
 71
     1
 72
     1
  1
%%c
  7
SLDTEXTSTYLE0
 11
-7.044195017643634E-15
 21
1.0
 31
0.0
 73
     1
 44
1.0
  0
MTEXT
  5
1A1
330
197
100
AcDbEntity
  8
VERMASSUNG
100
AcDbMText
 10
208.1715484124
 20
114.5854528065
 30
0.0
 40
2.0
 41
0.0
 71
     1
 72
     1
  1
55
  7
SLDTEXTSTYLE0
 11
-7.044195017643634E-15
 21
1.0
 31
0.0
 73
     1
 44
1.0
  0
ENDBLK
  5
199
330
197
100
AcDbEntity
  8
0
100
AcDbBlockEnd
  0
ENDSEC
  0
SECTION
  2
ENTITIES
  0
MTEXT
  5
78
330
1F
100
AcDbEntity
  8
KOPF_DÜNN
100
AcDbMText
 10
13.8892156294
 20
23.8442973028
 30
0.0
 40
3.0
 41
0.0
 71
     1
 72
     1
  1
102.080.551
  7
SLDTEXTSTYLE0
 73
     1
 44
1.0
  0
MTEXT
  5
79
330
1F
100
AcDbEntity
  8
VERMASSUNG
100
AcDbMText
 10
13.9329988022
 20
28.8834360957
 30
0.0
 40
3.0
 41
0.0
 71
     1
 72
     1
  1
Aufnahme_Master shank MBM 55
  7
SLDTEXTSTYLE0
 73
     1
 44
1.0
  0
MTEXT
  5
7A
330
1F
100
AcDbEntity
  8
VERMASSUNG
100
AcDbMText
 10
98.8601118557
 20
13.8365368761
 30
0.0
 40
2.0
 41
0.0
 71
     1
 72
     1
  1
Datum: 20.11.2007
  7
SLDTEXTSTYLE0
 73
     1
 44
1.0
  0
MTEXT
  5
7C
330
1F
100
AcDbEntity
  8
VERMASSUNG
100
AcDbMText
 10
13.933048693
 20
18.0482802738
 30
0.0
 40
2.0
 41
0.0
 71
     1
 72
     1
  1
HSK A 80 / MBM 55
  7
SLDTEXTSTYLE1
 73
     1
 44
1.0
  0
MTEXT
  5
7D
330
1F
100
AcDbEntity
  8
VERMASSUNG
100
AcDbMText
 10
13.9808475933
 20
13.9090974274
 30
0.0
 40
2.0
 41
0.0
 71
     1
 72
     1
  1
Gewicht: 1626g
  7
SLDTEXTSTYLE0
 73
     1
 44
1.0
  0
ARC
  5
7E
330
1F
100
AcDbEntity
  8
0
  6
Continuous
 62
     7
370
    15
100
AcDbCircle
 10
136.9807694561
 20
71.4804521317
 30
0.0
 40
0.5
100
AcDbArc
 50
180.0
 51
270.0
  0
ARC
  5
7F
330
1F
100
AcDbEntity
  8
0
  6
Continuous
 62
     7
370
    15
100
AcDbCircle
 10
136.9807694561
 20
150.4804521317
 30
0.0
 40
0.5
100
AcDbArc
 50
90.0
 51
180.0
  0
LINE
  5
80
330
1F
100
AcDbEntity
  8
0
  6
Continuous
 62
     7
370
    15
100
AcDbLine
 10
136.9807694561
 20
70.9804521317
 30
0.0
 11
140.4307694561
 21
70.9804521317
 31
0.0
  0
LINE
  5
81
330
1F
100
AcDbEntity
  8
0
  6
Continuous
 62
     7
370
    15
100
AcDbLine
 10
140.4618238738
 20
150.9804521317
 30
0.0
 11
136.9807694561
 21
150.9804521317
 31
0.0
  0
ARC
  5
82
330
1F
100
AcDbEntity
  8
0
  6
Continuous
 62
     7
370
    15
100
AcDbCircle
 10
166.4307694561
 20
79.4804521317
 30
0.0
 40
4.0
100
AcDbArc
 50
90.0
 51
180.0
  0
ARC
  5
83
330
1F
100
AcDbEntity
  8
0
  6
Continuous
 62
     7
370
    15
100
AcDbCircle
 10
166.4307694561
 20
142.4804521317
 30
0.0
 40
4.0
100
AcDbArc
 50
180.0
 51
270.0
  0
ARC
  5
84
330
1F
100
AcDbEntity
  8
0
  6
Continuous
 62
     7
370
    15
100
AcDbCircle
 10
135.5838325377
 20
79.9526672081
 30
0.0
 40
0.9962338214386983
100
AcDbArc
 50
25.7988228126
 51
90.0
  0
ARC
  5
85
330
1F
100
AcDbEntity
  8
0
  6
Continuous
 62
     7
370
    15
100
AcDbCircle
 10
135.5838325377
 20
142.0082370554
 30
0.0
 40
0.9962338214386932
100
AcDbArc
 50
270.0
 51
334.2011771874
  0
LINE
  5
86
330
1F
100
AcDbEntity
  8
0
  6
Continuous
 62
     7
370
    15
100
AcDbLine
 10
133.9807694561
 20
80.6989010295
 30
0.0
 11
134.7866156105
 21
80.9148268558
 31
0.0
  0
LINE
  5
87
330
1F
100
AcDbEntity
  8
0
  6
Continuous
 62
     7
370
    15
100
AcDbLine
 10
134.7866156105
 20
141.0460774077
 30
0.0
 11
133.9807694561
 21
141.2620032339
 31
0.0
  0
LINE
  5
88
330
1F
100
AcDbEntity
  8
0
  6
Continuous
 62
     7
370
    15
100
AcDbLine
 10
119.7419047991
 20
140.5486332611
 30
0.0
 11
104.6807694561
 21
139.7940673622
 31
0.0
  0
LINE
  5
89
330
1F
100
AcDbEntity
  8
0
  6
Continuous
 62
     7
370
    15
100
AcDbLine
 10
133.9807694561
 20
141.2620032339
 30
0.0
 11
129.1707478779
 21
141.0210201889
 31
0.0
  0
LINE
  5
8A
330
1F
100
AcDbEntity
  8
0
  6
Continuous
 62
     7
370
    15
100
AcDbLine
 10
129.1707892544
 20
80.9398820016
 30
0.0
 11
133.9807694561
 21
80.6989010295
 31
0.0
  0
LINE
  5
8B
330
1F
100
AcDbEntity
  8
0
  6
Continuous
 62
     7
370
    15
100
AcDbLine
 10
108.6807694561
 20
81.9664360997
 30
0.0
 11
119.7423298056
 21
81.4122497094
 31
0.0
  0
ARC
  5
8C
330
1F
100
AcDbEntity
  8
0
  6
Continuous
 62
     7
370
    15
100
AcDbCircle
 10
135.0454346556
 20
79.9489010295
 30
0.0
 40
1.000000000000003
100
AcDbArc
 50
90.0
 51
105.0
  0
ARC
  5
8D
330
1F
100
AcDbEntity
  8
0
  6
Continuous
 62
     7
370
    15
100
AcDbCircle
 10
135.0454346556
 20
142.0120032339
 30
0.0
 40
1.000000000000003
100
AcDbArc
 50
255.0
 51
270.0
  0
LINE
  5
8E
330
1F
100
AcDbEntity
  8
0
  6
Continuous
 62
     7
370
    15
100
AcDbLine
 10
135.0454346556
 20
80.9489010295
 30
0.0
 11
135.5838325377
 21
80.9489010295
 31
0.0
  0
LINE
  5
8F
330
1F
100
AcDbEntity
  8
0
  6
Continuous
 62
     7
370
    15
100
AcDbLine
 10
135.5838325377
 20
141.0120032339
 30
0.0
 11
135.0454346556
 21
141.0120032339
 31
0.0
  0
LINE
  5
90
330
1F
100
AcDbEntity
  8
0
  6
Continuous
 62
     7
370
    15
100
AcDbLine
 10
166.4307694561
 20
83.4804521317
 30
0.0
 11
201.9807694561
 21
83.4804521317
 31
0.0
  0
LINE
  5
91
330
1F
100
AcDbEntity
  8
0
  6
Continuous
 62
     7
370
    15
100
AcDbLine
 10
201.9807694561
 20
138.4804521317
 30
0.0
 11
166.4307694561
 21
138.4804521317
 31
0.0
  0
LINE
  5
92
330
1F
100
AcDbEntity
  8
0
  6
Continuous
 62
     7
370
    15
100
AcDbLine
 10
201.9807694561
 20
83.4804521317
 30
0.0
 11
202.4807694561
 21
83.9804521317
 31
0.0
  0
LINE
  5
93
330
1F
100
AcDbEntity
  8
0
  6
Continuous
 62
     7
370
    15
100
AcDbLine
 10
202.4807694561
 20
137.9804521317
 30
0.0
 11
201.9807694561
 21
138.4804521317
 31
0.0
  0
LINE
  5
94
330
1F
100
AcDbEntity
  8
0
  6
Continuous
 62
     7
370
    15
100
AcDbLine
 10
98.2307694561
 20
85.1604521317
 30
0.0
 11
106.7807694561
 21
85.1604521317
 31
0.0
  0
ARC
  5
95
330
1F
100
AcDbEntity
  8
0
  6
Continuous
 62
     7
370
    15
100
AcDbCircle
 10
106.7807694561
 20
83.2604521317
 30
0.0
 40
1.900000000000006
100
AcDbArc
 50
42.9692748872
 51
90.0
  0
LINE
  5
96
330
1F
100
AcDbEntity
  8
0
  6
Continuous
 62
     7
370
    15
100
AcDbLine
 10
98.2307694561
 20
136.8004521317
 30
0.0
 11
96.5792531193
 21
135.1489357949
 31
0.0
  0
LINE
  5
97
330
1F
100
AcDbEntity
  8
0
  6
Continuous
 62
     7
370
    15
100
AcDbLine
 10
96.5771654325
 20
86.8140561554
 30
0.0
 11
98.2307694561
 21
85.1604521317
 31
0.0
  0
ARC
  5
98
330
1F
100
AcDbEntity
  8
0
  6
Continuous
 62
     7
370
    15
100
AcDbCircle
 10
102.7807694561
 20
138.7004521317
 30
0.0
 40
1.900000000000034
100
AcDbArc
 50
270.0
 51
306.6115952788
  0
LINE
  5
99
330
1F
100
AcDbEntity
  8
0
  6
Continuous
 62
     7
370
    15
100
AcDbLine
 10
102.7807694561
 20
136.8004521317
 30
0.0
 11
98.2307694561
 21
136.8004521317
 31
0.0
  0
SPLINE
  5
9A
330
1F
100
AcDbEntity
  8
0
  6
Continuous
 62
     7
370
    15
100
AcDbSpline
210
0.0
220
0.0
230
1.0
 70
    24
 71
     3
 72
    11
 73
     7
 74
     0
 42
0.000000001
 43
0.00000001
 40
0.0
 40
0.0
 40
0.0
 40
0.0
 40
0.1336647920874055
 40
0.4825473608259814
 40
0.8156356561503871
 40
1.0
 40
1.0
 40
1.0
 40
1.0
 10
184.8180697255879
 20
109.4602217585304
 30
0.0
 10
184.8281153258495
 20
109.6049953314195
 30
0.0
 10
184.8643812551073
 20
110.1276468421426
 30
0.0
 10
184.9321304000458
 20
111.104023118082
 30
0.0
 10
185.0048922633055
 20
112.1526408850587
 30
0.0
 10
185.0439466826938
 20
112.7154791112231
 30
0.0
 10
185.0578614680478
 20
112.916013986117
 30
0.0
  0
SPLINE
  5
9B
330
1F
100
AcDbEntity
  8
0
  6
Continuous
 62
     7
370
    15
100
AcDbSpline
210
0.0
220
0.0
230
1.0
 70
    24
 71
     3
 72
    11
 73
     7
 74
     0
 42
0.000000001
 43
0.00000001
 40
0.0
 40
0.0
 40
0.0
 40
0.0
 40
0.2164553779443416
 40
0.4403112895790535
 40
0.751900568803874
 40
0.9999999999999999
 40
0.9999999999999999
 40
0.9999999999999999
 40
0.9999999999999999
 10
187.6909777136488
 20
107.5246599041491
 30
0.0
 10
187.4941807328769
 20
107.6572477665598
 30
0.0
 10
187.0938583513687
 20
107.9269566240389
 30
0.0
 10
186.3509669307643
 20
108.4274642287532
 30
0.0
 10
185.5540826230481
 20
108.9643484153615
 30
0.0
 10
185.0441245186768
 20
109.3079220551215
 30
0.0
 10
184.8180697255879
 20
109.4602217585304
 30
0.0
  0
SPLINE
  5
9C
330
1F
100
AcDbEntity
  8
0
  6
Continuous
 62
     7
370
    15
100
AcDbSpline
210
0.0
220
0.0
230
1.0
 70
    24
 71
     3
 72
    11
 73
     7
 74
     0
 42
0.000000001
 43
0.00000001
 40
0.0
 40
0.0
 40
0.0
 40
0.0
 40
0.2164553779443439
 40
0.4403112895790547
 40
0.7519005688038735
 40
1.0
 40
1.0
 40
1.0
 40
1.0
 10
190.8036774441696
 20
109.0448902773545
 30
0.0
 10
190.5904544967025
 20
108.9407530238232
 30
0.0
 10
190.1567185837459
 20
108.7289181004731
 30
0.0
 10
189.3518205729737
 20
108.3358090603334
 30
0.0
 10
188.4884230746227
 20
107.9141290992781
 30
0.0
 10
187.9359005223342
 20
107.6442792459068
 30
0.0
 10
187.6909777136488
 20
107.5246599041491
 30
0.0
  0
SPLINE
  5
9D
330
1F
100
AcDbEntity
  8
0
  6
Continuous
 62
     7
370
    15
100
AcDbSpline
210
0.0
220
0.0
230
1.0
 70
    24
 71
     3
 72
    11
 73
     7
 74
     0
 42
0.000000001
 43
0.00000001
 40
0.0
 40
0.0
 40
0.0
 40
0.0
 40
0.1843643438496126
 40
0.5174526391740203
 40
0.8663352079125942
 40
0.9999999999999999
 40
0.9999999999999999
 40
0.9999999999999999
 40
0.9999999999999999
 10
191.0434691866295
 20
112.5006825049411
 30
0.0
 10
191.0295544012755
 20
112.3001476300472
 30
0.0
 10
190.9904999818872
 20
111.7373094038828
 30
0.0
 10
190.9177381186275
 20
110.688691636906
 30
0.0
 10
190.849988973689
 20
109.7123153609667
 30
0.0
 10
190.8137230444311
 20
109.1896638502435
 30
0.0
 10
190.8036774441696
 20
109.0448902773545
 30
0.0
  0
SPLINE
  5
9E
330
1F
100
AcDbEntity
  8
0
  6
Continuous
 62
     7
370
    15
100
AcDbSpline
210
0.0
220
0.0
230
1.0
 70
    24
 71
     3
 72
    11
 73
     7
 74
     0
 42
0.000000001
 43
0.00000001
 40
0.0
 40
0.0
 40
0.0
 40
0.0
 40
0.2164553779443452
 40
0.4403112895790535
 40
0.7519005688038768
 40
0.9999999999999999
 40
0.9999999999999999
 40
0.9999999999999999
 40
0.9999999999999999
 10
188.1705611985686
 20
114.4362443593223
 30
0.0
 10
188.3673581793405
 20
114.3036564969117
 30
0.0
 10
188.7676805608487
 20
114.0339476394326
 30
0.0
 10
189.5105719814531
 20
113.5334400347183
 30
0.0
 10
190.3074562891694
 20
112.99655584811
 30
0.0
 10
190.8174143935406
 20
112.65298220835
 30
0.0
 10
191.0434691866295
 20
112.5006825049411
 30
0.0
  0
SPLINE
  5
9F
330
1F
100
AcDbEntity
  8
0
  6
Continuous
 62
     7
370
    15
100
AcDbSpline
210
0.0
220
0.0
230
1.0
 70
    24
 71
     3
 72
    11
 73
     7
 74
     0
 42
0.000000001
 43
0.00000001
 40
0.0
 40
0.0
 40
0.0
 40
0.0
 40
0.2164553779443445
 40
0.4403112895790563
 40
0.7519005688038776
 40
1.0
 40
1.0
 40
1.0
 40
1.0
 10
185.0578614680478
 20
112.916013986117
 30
0.0
 10
185.2710844155149
 20
113.0201512396482
 30
0.0
 10
185.7048203284716
 20
113.2319861629983
 30
0.0
 10
186.5097183392436
 20
113.6250952031381
 30
0.0
 10
187.3731158375947
 20
114.0467751641934
 30
0.0
 10
187.9256383898832
 20
114.3166250175646
 30
0.0
 10
188.1705611985686
 20
114.4362443593224
 30
0.0
  0
CIRCLE
  5
A0
330
1F
100
AcDbEntity
  8
0
  6
Continuous
 62
     7
370
    15
100
AcDbCircle
 10
187.9307694561
 20
110.9804521317
 30
0.0
 40
3.500000000000003
  0
CIRCLE
  5
A1
330
1F
100
AcDbEntity
  8
0
  6
Continuous
 62
     7
370
    15
100
AcDbCircle
 10
187.9307694561
 20
110.9804521317
 30
0.0
 40
5.500000000000017
  0
CIRCLE
  5
A2
330
1F
100
AcDbEntity
  8
0
  6
Continuous
 62
     7
370
    15
100
AcDbCircle
 10
187.9307694561
 20
110.9804521317
 30
0.0
 40
5.999999999999985
  0
ARC
  5
A3
330
1F
100
AcDbEntity
  8
0
  6
Continuous
 62
     7
370
    15
100
AcDbCircle
 10
187.9307694561
 20
110.9804521317
 30
0.0
 40
3.000000000000019
100
AcDbArc
 50
356.030702261
 51
56.030702261
  0
ARC
  5
A4
330
1F
100
AcDbEntity
  8
0
  6
Continuous
 62
     7
370
    15
100
AcDbCircle
 10
187.9307694561
 20
110.9804521317
 30
0.0
 40
3.000000000000021
100
AcDbArc
 50
296.030702261
 51
356.030702261
  0
ARC
  5
A5
330
1F
100
AcDbEntity
  8
0
  6
Continuous
 62
     7
370
    15
100
AcDbCircle
 10
187.9307694561
 20
110.9804521317
 30
0.0
 40
3.000000000000021
100
AcDbArc
 50
236.030702261
 51
296.030702261
  0
ARC
  5
A6
330
1F
100
AcDbEntity
  8
0
  6
Continuous
 62
     7
370
    15
100
AcDbCircle
 10
187.9307694561
 20
110.9804521317
 30
0.0
 40
3.000000000000019
100
AcDbArc
 50
56.030702261
 51
116.030702261
  0
ARC
  5
A7
330
1F
100
AcDbEntity
  8
0
  6
Continuous
 62
     7
370
    15
100
AcDbCircle
 10
187.9307694561
 20
110.9804521317
 30
0.0
 40
2.999999999999987
100
AcDbArc
 50
176.030702261
 51
236.030702261
  0
ARC
  5
A8
330
1F
100
AcDbEntity
  8
0
  6
Continuous
 62
     7
370
    15
100
AcDbCircle
 10
187.9307694561
 20
110.9804521317
 30
0.0
 40
2.999999999999983
100
AcDbArc
 50
116.030702261
 51
176.030702261
  0
LINE
  5
A9
330
1F
100
AcDbEntity
  8
0
  6
Continuous
 62
     7
370
    15
100
AcDbLine
 10
161.4307694561
 20
72.2506186697
 30
0.0
 11
158.0170398549
 21
72.2506186697
 31
0.0
  0
LINE
  5
AA
330
1F
100
AcDbEntity
  8
0
  6
Continuous
 62
     7
370
    15
100
AcDbLine
 10
158.0170398549
 20
72.2506186697
 30
0.0
 11
158.0170398549
 21
135.8304521317
 31
0.0
  0
LINE
  5
AB
330
1F
100
AcDbEntity
  8
0
  6
Continuous
 62
     7
370
    15
100
AcDbLine
 10
158.0170398549
 20
135.8304521317
 30
0.0
 11
161.4307694561
 21
135.8304521317
 31
0.0
  0
LINE
  5
AC
330
1F
100
AcDbEntity
  8
0
  6
Continuous
 62
     7
370
    15
100
AcDbLine
 10
136.4807694561
 20
71.4804521317
 30
0.0
 11
136.4807694561
 21
150.4804521304
 31
0.0
  0
LINE
  5
AD
330
1F
100
AcDbEntity
  8
0
  6
Continuous
 62
     7
370
    15
100
AcDbLine
 10
152.5707694561
 20
75.1671636814
 30
0.0
 11
152.5707694561
 21
135.8304521317
 31
0.0
  0
SPLINE
  5
AE
330
1F
100
AcDbEntity
  8
0
  6
Continuous
 62
     7
370
    15
100
AcDbSpline
210
0.0
220
0.0
230
1.0
 70
     8
 71
     3
 72
     8
 73
     4
 74
     0
 42
0.000000001
 43
0.00000001
 40
0.0
 40
0.0
 40
0.0
 40
0.0
 40
1.0
 40
1.0
 40
1.0
 40
1.0
 10
152.5707694561088
 20
75.16716368140725
 30
0.0
 10
152.0298098099985
 20
74.1943531631439
 30
0.0
 10
151.4876368432137
 20
73.22221307798304
 30
0.0
 10
150.9444990573223
 20
72.25061866966156
 30
0.0
  0
LINE
  5
AF
330
1F
100
AcDbEntity
  8
0
  6
Continuous
 62
     7
370
    15
100
AcDbLine
 10
150.9444990573
 20
72.2506186697
 30
0.0
 11
150.9444990573
 21
135.8304521317
 31
0.0
  0
SPLINE
  5
B0
330
1F
100
AcDbEntity
  8
0
  6
Continuous
 62
     7
370
    15
100
AcDbSpline
210
0.0
220
0.0
230
1.0
 70
    24
 71
     3
 72
     8
 73
     4
 74
     0
 42
0.000000001
 43
0.00000001
 40
0.0
 40
0.0
 40
0.0
 40
0.0
 40
1.0
 40
1.0
 40
1.0
 40
1.0
 10
150.9444990573223
 20
135.8304521317357
 30
0.0
 10
151.4977932721399
 20
135.8304521317357
 30
0.0
 10
152.0410161697274
 20
135.8304521317357
 30
0.0
 10
152.5707694561088
 20
135.8304521317357
 30
0.0
  0
LINE
  5
B1
330
1F
100
AcDbEntity
  8
0
  6
Continuous
 62
     7
370
    15
100
AcDbLine
 10
140.4307694561
 20
135.8304521317
 30
0.0
 11
150.9444990573
 21
135.8304521317
 31
0.0
  0
LINE
  5
B2
330
1F
100
AcDbEntity
  8
0
  6
Continuous
 62
     7
370
    15
100
AcDbLine
 10
150.9444990573
 20
72.2506186697
 30
0.0
 11
149.4307694561
 21
72.2506186697
 31
0.0
  0
SPLINE
  5
B3
330
1F
100
AcDbEntity
  8
0
  6
Continuous
 62
     7
370
    15
100
AcDbSpline
210
0.0
220
0.0
230
1.0
 70
     8
 71
     3
 72
    30
 73
    26
 74
     0
 42
0.000000001
 43
0.00000001
 40
0.0
 40
0.0
 40
0.0
 40
0.0
 40
0.1250000000000005
 40
0.1250000000000005
 40
0.1875000000000008
 40
0.1875000000000008
 40
0.2500000000000011
 40
0.2500000000000011
 40
0.3750000000000012
 40
0.3750000000000012
 40
0.4375000000000013
 40
0.4375000000000013
 40
0.5000000000000013
 40
0.5000000000000013
 40
0.6250000000000011
 40
0.6250000000000011
 40
0.6875000000000009
 40
0.6875000000000009
 40
0.7500000000000007
 40
0.7500000000000007
 40
0.8125000000000006
 40
0.8125000000000006
 40
0.8750000000000003
 40
0.8750000000000003
 40
1.0
 40
1.0
 40
1.0
 40
1.0
 10
149.4307694561087
 20
72.25061866966156
 30
0.0
 10
148.8335935792348
 20
72.25061866966156
 30
0.0
 10
148.246887496213
 20
72.23529135470002
 30
0.0
 10
147.3817776659373
 20
72.19155873660793
 30
0.0
 10
147.0959172120871
 20
72.17352082830799
 30
0.0
 10
146.5293015247566
 20
72.13087729586654
 30
0.0
 10
146.2483617670271
 20
72.10620698449719
 30
0.0
 10
145.4319108678176
 20
72.02497940468753
 30
0.0
 10
144.9160097631895
 20
71.96078797079342
 30
0.0
 10
144.1838072849743
 20
71.85455329940355
 30
0.0
 10
143.9455371054917
 20
71.8172728921236
 30
0.0
 10
143.4900157770772
 20
71.74134129623997
 30
0.0
 10
143.2730518458876
 20
71.70277534252855
 30
0.0
 10
142.6535299112937
 20
71.58673330440382
 30
0.0
 10
142.2820252252544
 20
71.50890604658956
 30
0.0
 10
141.7887642842031
 20
71.39701600598939
 30
0.0
 10
141.6365415034502
 20
71.36084983952972
 30
0.0
 10
141.3595251192089
 20
71.29239681239571
 30
0.0
 10
141.234113169834
 20
71.2599687620645
 30
0.0
 10
141.0092731929083
 20
71.19938033668741
 30
0.0
 10
140.9098443960071
 20
71.17121875577057
 30
0.0
 10
140.7375425103928
 20
71.11983558139943
 30
0.0
 10
140.664438386356
 20
71.0965258835248
 30
0.0
 10
140.4895714321271
 20
71.03598293876144
 30
0.0
 10
140.4307694561087
 20
71.00788173258547
 30
0.0
 10
140.4307694561087
 20
70.99295408547133
 30
0.0
  0
LINE
  5
B4
330
1F
100
AcDbEntity
  8
0
  6
Continuous
 62
     7
370
    15
100
AcDbLine
 10
140.4307694561
 20
70.9929540855
 30
0.0
 11
140.4307694561
 21
70.9804521317
 31
0.0
  0
SPLINE
  5
B5
330
1F
100
AcDbEntity
  8
0
  6
Continuous
 62
     7
370
    15
100
AcDbSpline
210
0.0
220
0.0
230
1.0
 70
     8
 71
     3
 72
    17
 73
    13
 74
     0
 42
0.000000001
 43
0.00000001
 40
0.0
 40
0.0
 40
0.0
 40
0.0
 40
0.1039928027398835
 40
0.2110507583651516
 40
0.3150299276010272
 40
0.421935157767337
 40
0.5275775719343997
 40
0.6362134668260427
 40
0.7429488749763674
 40
0.8528788158890155
 40
0.9578277250161848
 40
1.0
 40
1.0
 40
1.0
 40
1.0
 10
149.4307694561087
 20
149.9548026715459
 30
0.0
 10
148.9391354272844
 20
149.9602356265793
 30
0.0
 10
147.9413766219848
 20
149.9712616711685
 30
0.0
 10
146.4944098455119
 20
150.0574286247072
 30
0.0
 10
145.1188193668916
 20
150.1851612246045
 30
0.0
 10
143.8693281250721
 20
150.3438309911774
 30
0.0
 10
142.7574259896692
 20
150.5177068250717
 30
0.0
 10
141.8334528894882
 20
150.6856301987515
 30
0.0
 10
141.1089234737854
 20
150.8319531825205
 30
0.0
 10
140.6453649338226
 20
150.9322288936542
 30
0.0
 10
140.426234058842
 20
150.9814660814663
 30
0.0
 10
140.4538948969148
 20
150.9752581651542
 30
0.0
 10
140.4618238738091
 20
150.9734786664684
 30
0.0
  0
LINE
  5
B6
330
1F
100
AcDbEntity
  8
0
  6
Continuous
 62
     7
370
    15
100
AcDbLine
 10
150.9444990573
 20
149.9548026715
 30
0.0
 11
149.4307694561
 21
149.9548026715
 31
0.0
  0
LINE
  5
B7
330
1F
100
AcDbEntity
  8
0
  6
Continuous
 62
     7
370
    15
100
AcDbLine
 10
150.9444990573
 20
142.3249492564
 30
0.0
 11
150.9444990573
 21
149.9548026715
 31
0.0
  0
LINE
  5
B8
330
1F
100
AcDbEntity
  8
0
  6
Continuous
 62
     7
370
    15
100
AcDbLine
 10
149.0749845935
 20
142.3249492564
 30
0.0
 11
150.9444990573
 21
142.3249492564
 31
0.0
  0
SPLINE
  5
B9
330
1F
100
AcDbEntity
  8
0
  6
Continuous
 62
     7
370
    15
100
AcDbSpline
210
0.0
220
0.0
230
1.0
 70
     8
 71
     3
 72
    26
 73
    22
 74
     0
 42
0.000000001
 43
0.00000001
 40
0.0
 40
0.0
 40
0.0
 40
0.0
 40
0.2499999999999984
 40
0.2499999999999984
 40
0.3124999999999984
 40
0.3124999999999984
 40
0.3749999999999983
 40
0.3749999999999983
 40
0.4999999999999983
 40
0.4999999999999983
 40
0.6249999999999984
 40
0.6249999999999984
 40
0.7499999999999986
 40
0.7499999999999986
 40
0.812499999999999
 40
0.812499999999999
 40
0.8749999999999993
 40
0.8749999999999993
 40
0.9374999999999998
 40
0.9374999999999998
 40
1.0
 40
1.0
 40
1.0
 40
1.0
 10
140.4307694561087
 20
135.8304521317357
 30
0.0
 10
140.6346377380476
 20
136.7176392721103
 30
0.0
 10
140.9341622611039
 20
137.548084719107
 30
0.0
 10
141.4779674563348
 20
138.5106833998927
 30
0.0
 10
141.5953430046184
 20
138.6994036398724
 30
0.0
 10
141.8493522123397
 20
139.0689882702297
 30
0.0
 10
141.9861071813919
 20
139.2498250575229
 30
0.0
 10
142.4212644985051
 20
139.7716451114199
 30
0.0
 10
142.7462609973674
 20
140.0949902632228
 30
0.0
 10
143.4773867434696
 20
140.6911005743012
 30
0.0
 10
143.8881345649393
 20
140.9658411589566
 30
0.0
 10
144.7728590277994
 20
141.4416712607157
 30
0.0
 10
145.2483534908584
 20
141.6452867721193
 30
0.0
 10
146.0180044638688
 20
141.897168270324
 30
0.0
 10
146.2831107940004
 20
141.9716537964012
 30
0.0
 10
146.818627025634
 20
142.0986803585552
 30
0.0
 10
147.0906609752666
 20
142.1517837038728
 30
0.0
 10
147.6433881027552
 20
142.2373956890436
 30
0.0
 10
147.9240795260171
 20
142.2699083280638
 30
0.0
 10
148.4945102128656
 20
142.3137305221646
 30
0.0
 10
148.7850292324286
 20
142.3249492564307
 30
0.0
 10
149.0749845935192
 20
142.3249492564307
 30
0.0
  0
SPLINE
  5
BA
330
1F
100
AcDbEntity
  8
0
  6
Continuous
 62
     7
370
    15
100
AcDbSpline
210
0.0
220
0.0
230
1.0
 70
     8
 71
     3
 72
     8
 73
     4
 74
     0
 42
0.000000001
 43
0.00000001
 40
0.0
 40
0.0
 40
0.0
 40
0.0
 40
1.0
 40
1.0
 40
1.0
 40
1.0
 10
158.0170398548952
 20
72.25061866966155
 30
0.0
 10
157.4739020690038
 20
73.22221307798303
 30
0.0
 10
156.931729102219
 20
74.1943531631439
 30
0.0
 10
156.3907694561088
 20
75.16716368140725
 30
0.0
  0
LINE
  5
BB
330
1F
100
AcDbEntity
  8
0
  6
Continuous
 62
     7
370
    15
100
AcDbLine
 10
156.3907694561
 20
75.1671636814
 30
0.0
 11
156.3907694561
 21
135.8304521317
 31
0.0
  0
SPLINE
  5
BC
330
1F
100
AcDbEntity
  8
0
  6
Continuous
 62
     7
370
    15
100
AcDbSpline
210
0.0
220
0.0
230
1.0
 70
    24
 71
     3
 72
     8
 73
     4
 74
     0
 42
0.000000001
 43
0.00000001
 40
0.0
 40
0.0
 40
0.0
 40
0.0
 40
1.0
 40
1.0
 40
1.0
 40
1.0
 10
156.3907694561088
 20
135.8304521317357
 30
0.0
 10
156.92052274249
 20
135.8304521317357
 30
0.0
 10
157.4637456400776
 20
135.8304521317357
 30
0.0
 10
158.0170398548952
 20
135.8304521317357
 30
0.0
  0
LINE
  5
BD
330
1F
100
AcDbEntity
  8
0
  6
Continuous
 62
     7
370
    15
100
AcDbLine
 10
162.4307694561
 20
73.2842984818
 30
0.0
 11
162.4307694561
 21
135.8304521317
 31
0.0
  0
SPLINE
  5
BE
330
1F
100
AcDbEntity
  8
0
  6
Continuous
 62
     7
370
    15
100
AcDbSpline
210
0.0
220
0.0
230
1.0
 70
     8
 71
     3
 72
    14
 73
    10
 74
     0
 42
0.000000001
 43
0.00000001
 40
0.0
 40
0.0
 40
0.0
 40
0.0
 40
0.25
 40
0.25
 40
0.5
 40
0.5
 40
0.75
 40
0.75
 40
1.0
 40
1.0
 40
1.0
 40
1.0
 10
162.4307694561087
 20
73.2842984817942
 30
0.0
 10
162.4307694561087
 20
73.15017204455687
 30
0.0
 10
162.4057519050812
 20
73.01811835580233
 30
0.0
 10
162.3078971668285
 20
72.76985854889121
 30
0.0
 10
162.2352952748174
 20
72.6554744724154
 30
0.0
 10
162.0520272378446
 20
72.46296339356745
 30
0.0
 10
161.9404711443843
 20
72.38447761501479
 30
0.0
 10
161.6973501954627
 20
72.27871285177247
 30
0.0
 10
161.563425924505
 20
72.25061866966156
 30
0.0
 10
161.4307694561087
 20
72.25061866966156
 30
0.0
  0
SPLINE
  5
BF
330
1F
100
AcDbEntity
  8
0
  6
Continuous
 62
     7
370
    15
100
AcDbSpline
210
0.0
220
0.0
230
1.0
 70
    24
 71
     3
 72
    12
 73
     8
 74
     0
 42
0.000000001
 43
0.00000001
 40
0.0
 40
0.0
 40
0.0
 40
0.0
 40
0.249999999999998
 40
0.249999999999998
 40
0.499999999999996
 40
0.499999999999996
 40
1.0
 40
1.0
 40
1.0
 40
1.0
 10
161.4307694561087
 20
135.8304521317357
 30
0.0
 10
161.5820100116636
 20
135.8304521317357
 30
0.0
 10
161.7303851687778
 20
135.8304521317357
 30
0.0
 10
161.9879271244887
 20
135.8304521317357
 30
0.0
 10
162.0971721228354
 20
135.8304521317357
 30
0.0
 10
162.3515147313005
 20
135.8304521317357
 30
0.0
 10
162.4307694561087
 20
135.8304521317357
 30
0.0
 10
162.4307694561087
 20
135.8304521317357
 30
0.0
  0
SPLINE
  5
C0
330
1F
100
AcDbEntity
  8
0
  6
Continuous
 62
     7
370
    15
100
AcDbSpline
210
0.0
220
0.0
230
1.0
 70
    24
 71
     3
 72
    14
 73
    10
 74
     0
 42
0.000000001
 43
0.00000001
 40
0.0
 40
0.0
 40
0.0
 40
0.0
 40
0.4999999999999984
 40
0.4999999999999984
 40
0.7499999999999992
 40
0.7499999999999992
 40
0.8749999999999996
 40
0.8749999999999996
 40
1.0
 40
1.0
 40
1.0
 40
1.0
 10
156.2648474992864
 20
77.08045213173573
 30
0.0
 10
156.2171231247526
 20
77.08045213173573
 30
0.0
 10
156.1565763682314
 20
77.08045213173574
 30
0.0
 10
156.0207956690525
 20
77.08045213173573
 30
0.0
 10
155.9681814955373
 20
77.08045213173573
 30
0.0
 10
155.8627977820531
 20
77.08045213173573
 30
0.0
 10
155.8225262857163
 20
77.08045213173573
 30
0.0
 10
155.7230601651388
 20
77.08045213173573
 30
0.0
 10
155.6598831281399
 20
77.08045213173574
 30
0.0
 10
155.5907694561087
 20
77.08045213173573
 30
0.0
  0
SPLINE
  5
C1
330
1F
100
AcDbEntity
  8
0
  6
Continuous
 62
     7
370
    15
100
AcDbSpline
210
0.0
220
0.0
230
1.0
 70
    24
 71
     3
 72
    12
 73
     8
 74
     0
 42
0.000000001
 43
0.00000001
 40
0.0
 40
0.0
 40
0.0
 40
0.0
 40
0.5
 40
0.5
 40
0.75
 40
0.75
 40
1.0
 40
1.0
 40
1.0
 40
1.0
 10
155.9768899291689
 20
144.8804521317357
 30
0.0
 10
155.9365951811628
 20
144.8804521317357
 30
0.0
 10
155.8900291492281
 20
144.8804521317357
 30
0.0
 10
155.7999281978971
 20
144.8804521317357
 30
0.0
 10
155.7659096374633
 20
144.8804521317357
 30
0.0
 10
155.686276715306
 20
144.8804521317357
 30
0.0
 10
155.6391645191718
 20
144.8804521317357
 30
0.0
 10
155.5907694561087
 20
144.8804521317357
 30
0.0
  0
SPLINE
  5
C2
330
1F
100
AcDbEntity
  8
0
  6
Continuous
 62
     7
370
    15
100
AcDbSpline
210
0.0
220
0.0
230
1.0
 70
     8
 71
     3
 72
    10
 73
     6
 74
     0
 42
0.000000001
 43
0.00000001
 40
0.0
 40
0.0
 40
0.0
 40
0.0
 40
0.5
 40
0.5
 40
1.0
 40
1.0
 40
1.0
 40
1.0
 10
156.3907694561088
 20
145.6048745095892
 30
0.0
 10
156.3907694561088
 20
145.4582243871531
 30
0.0
 10
156.3525713823183
 20
145.3132296934023
 30
0.0
 10
156.209736030885
 20
145.0609539061978
 30
0.0
 10
156.1039372051788
 20
144.9528918483511
 30
0.0
 10
155.976889929169
 20
144.8804521317358
 30
0.0
  0
SPLINE
  5
C3
330
1F
100
AcDbEntity
  8
0
  6
Continuous
 62
     7
370
    15
100
AcDbSpline
210
0.0
220
0.0
230
1.0
 70
     8
 71
     3
 72
    10
 73
     6
 74
     0
 42
0.000000001
 43
0.00000001
 40
0.0
 40
0.0
 40
0.0
 40
0.0
 40
0.5
 40
0.5
 40
1.0
 40
1.0
 40
1.0
 40
1.0
 10
156.0815215694048
 20
135.8304521317358
 30
0.0
 10
156.1901974879239
 20
135.9498332666198
 30
0.0
 10
156.2661150054618
 20
136.0941362536345
 30
0.0
 10
156.3663098368002
 20
136.3964486562031
 30
0.0
 10
156.3907694561087
 20
136.5568965654969
 30
0.0
 10
156.3907694561088
 20
136.7161884724737
 30
0.0
  0
SPLINE
  5
C4
330
1F
100
AcDbEntity
  8
0
  6
Continuous
 62
     7
370
    15
100
AcDbSpline
210
0.0
220
0.0
230
1.0
 70
    24
 71
     3
 72
    10
 73
     6
 74
     0
 42
0.000000001
 43
0.00000001
 40
0.0
 40
0.0
 40
0.0
 40
0.0
 40
0.5
 40
0.5
 40
1.0
 40
1.0
 40
1.0
 40
1.0
 10
156.0815215694049
 20
135.8304521317357
 30
0.0
 10
156.1889691252591
 20
135.8304521317357
 30
0.0
 10
156.2658783050891
 20
135.8304521317357
 30
0.0
 10
156.3661338310086
 20
135.8304521317357
 30
0.0
 10
156.3907694561088
 20
135.8304521317357
 30
0.0
 10
156.3907694561088
 20
135.8304521317357
 30
0.0
  0
SPLINE
  5
C5
330
1F
100
AcDbEntity
  8
0
  6
Continuous
 62
     7
370
    15
100
AcDbSpline
210
0.0
220
0.0
230
1.0
 70
     8
 71
     3
 72
    10
 73
     6
 74
     0
 42
0.000000001
 43
0.00000001
 40
0.0
 40
0.0
 40
0.0
 40
0.0
 40
0.5
 40
0.5
 40
1.0
 40
1.0
 40
1.0
 40
1.0
 10
152.9846489830487
 20
144.8804521317357
 30
0.0
 10
152.8585282475681
 20
144.9523635541957
 30
0.0
 10
152.7518726194646
 20
145.0607341667161
 30
0.0
 10
152.6086285439395
 20
145.3139251600098
 30
0.0
 10
152.5707694561088
 20
145.4590576778162
 30
0.0
 10
152.5707694561088
 20
145.6048745095892
 30
0.0
  0
SPLINE
  5
C6
330
1F
100
AcDbEntity
  8
0
  6
Continuous
 62
     7
370
    15
100
AcDbSpline
210
0.0
220
0.0
230
1.0
 70
    24
 71
     3
 72
    12
 73
     8
 74
     0
 42
0.000000001
 43
0.00000001
 40
0.0
 40
0.0
 40
0.0
 40
0.0
 40
0.2499999999999972
 40
0.2499999999999972
 40
0.4999999999999944
 40
0.4999999999999944
 40
1.0
 40
1.0
 40
1.0
 40
1.0
 10
153.3707694561109
 20
144.8804521317357
 30
0.0
 10
153.3224902779777
 20
144.8804521317357
 30
0.0
 10
153.2747893178601
 20
144.8804521317357
 30
0.0
 10
153.1953730380025
 20
144.8804521317357
 30
0.0
 10
153.1613242994784
 20
144.8804521317357
 30
0.0
 10
153.0713661967774
 20
144.8804521317357
 30
0.0
 10
153.0252734971052
 20
144.8804521317357
 30
0.0
 10
152.9846489830487
 20
144.8804521317357
 30
0.0
  0
SPLINE
  5
C7
330
1F
100
AcDbEntity
  8
0
  6
Continuous
 62
     7
370
    15
100
AcDbSpline
210
0.0
220
0.0
230
1.0
 70
    24
 71
     3
 72
    14
 73
    10
 74
     0
 42
0.000000001
 43
0.00000001
 40
0.0
 40
0.0
 40
0.0
 40
0.0
 40
0.1250000000000003
 40
0.1250000000000003
 40
0.2500000000000007
 40
0.2500000000000007
 40
0.5000000000000008
 40
0.5000000000000008
 40
1.0
 40
1.0
 40
1.0
 40
1.0
 10
153.3707694561087
 20
77.08045213173573
 30
0.0
 10
153.30159302448
 20
77.08045213173573
 30
0.0
 10
153.2384717918337
 20
77.08045213173573
 30
0.0
 10
153.1378949951552
 20
77.08045213173573
 30
0.0
 10
153.098700963266
 20
77.08045213173573
 30
0.0
 10
152.9938088486188
 20
77.08045213173573
 30
0.0
 10
152.9410214114808
 20
77.08045213173573
 30
0.0
 10
152.8054342849935
 20
77.08045213173573
 30
0.0
 10
152.7446091691202
 20
77.08045213173573
 30
0.0
 10
152.6966914129311
 20
77.08045213173573
 30
0.0
  0
SPLINE
  5
C8
330
1F
100
AcDbEntity
  8
0
  6
Continuous
 62
     7
370
    15
100
AcDbSpline
210
0.0
220
0.0
230
1.0
 70
    24
 71
     3
 72
    10
 73
     6
 74
     0
 42
0.000000001
 43
0.00000001
 40
0.0
 40
0.0
 40
0.0
 40
0.0
 40
0.5
 40
0.5
 40
1.0
 40
1.0
 40
1.0
 40
1.0
 10
152.5707694561088
 20
135.8304521317357
 30
0.0
 10
152.5707694561088
 20
135.8304521317357
 30
0.0
 10
152.5953800740452
 20
135.8304521317357
 30
0.0
 10
152.6950714623603
 20
135.8304521317357
 30
0.0
 10
152.7726649267449
 20
135.8304521317357
 30
0.0
 10
152.8800173428127
 20
135.8304521317357
 30
0.0
  0
SPLINE
  5
C9
330
1F
100
AcDbEntity
  8
0
  6
Continuous
 62
     7
370
    15
100
AcDbSpline
210
0.0
220
0.0
230
1.0
 70
     8
 71
     3
 72
    10
 73
     6
 74
     0
 42
0.000000001
 43
0.00000001
 40
0.0
 40
0.0
 40
0.0
 40
0.0
 40
0.5
 40
0.5
 40
1.0
 40
1.0
 40
1.0
 40
1.0
 10
152.5707694561088
 20
136.716188472474
 30
0.0
 10
152.5707694561088
 20
136.556756365171
 30
0.0
 10
152.5953218465253
 20
136.3960005599894
 30
0.0
 10
152.6956207176085
 20
136.0937110964867
 30
0.0
 10
152.7723618038628
 20
135.9487123736691
 30
0.0
 10
152.8800173428127
 20
135.8304521317357
 30
0.0
  0
LINE
  5
CA
330
1F
100
AcDbEntity
  8
0
  6
Continuous
 62
     7
370
    15
100
AcDbLine
 10
155.5907694561
 20
144.8804521317
 30
0.0
 11
153.3707694561
 21
144.8804521317
 31
0.0
  0
LINE
  5
CB
330
1F
100
AcDbEntity
  8
0
  6
Continuous
 62
     7
370
    15
100
AcDbLine
 10
155.5907694561
 20
77.0804521317
 30
0.0
 11
153.3707694561
 21
77.0804521317
 31
0.0
  0
LINE
  5
CC
330
1F
100
AcDbEntity
  8
0
  6
Continuous
 62
     7
370
    15
100
AcDbLine
 10
133.9807694561
 20
80.6989010295
 30
0.0
 11
133.9807694561
 21
141.2620032339
 31
0.0
  0
LINE
  5
CD
330
1F
100
AcDbEntity
  8
0
  6
Continuous
 62
     7
370
    15
100
AcDbLine
 10
108.6807694561
 20
81.9664360997
 30
0.0
 11
108.6807694561
 21
83.6638852074
 31
0.0
  0
SPLINE
  5
CE
330
1F
100
AcDbEntity
  8
0
  6
Continuous
 62
     7
370
    15
100
AcDbSpline
210
0.0
220
0.0
230
1.0
 70
     8
 71
     3
 72
    16
 73
    12
 74
     0
 42
0.000000001
 43
0.00000001
 40
0.0
 40
0.0
 40
0.0
 40
0.0
 40
0.1249999999999996
 40
0.1249999999999996
 40
0.2499999999999992
 40
0.2499999999999992
 40
0.4999999999999994
 40
0.4999999999999994
 40
0.7499999999999997
 40
0.7499999999999997
 40
1.0
 40
1.0
 40
1.0
 40
1.0
 10
107.5324110232062
 20
85.2487950871705
 30
0.0
 10
107.5854537613733
 20
85.17346419789995
 30
0.0
 10
107.6499177960439
 20
85.10023090603072
 30
0.0
 10
107.7829012006232
 20
84.9568925564694
 30
0.0
 10
107.8519283927645
 20
84.88663571367354
 30
0.0
 10
108.055436442663
 20
84.67876658091426
 30
0.0
 10
108.1861904894756
 20
84.54401560766138
 30
0.0
 10
108.4114572576289
 20
84.2800574807474
 30
0.0
 10
108.5067993735188
 20
84.15073915087282
 30
0.0
 10
108.642099270749
 20
83.89819774461277
 30
0.0
 10
108.6807694561087
 20
83.77785631912764
 30
0.0
 10
108.6807694561088
 20
83.66388520741583
 30
0.0
  0
SPLINE
  5
CF
330
1F
100
AcDbEntity
  8
0
  6
Continuous
 62
     7
370
    15
100
AcDbSpline
210
0.0
220
0.0
230
1.0
 70
     8
 71
     3
 72
    14
 73
    10
 74
     0
 42
0.000000001
 43
0.00000001
 40
0.0
 40
0.0
 40
0.0
 40
0.0
 40
0.1250000000000001
 40
0.1250000000000001
 40
0.2500000000000002
 40
0.2500000000000002
 40
0.5000000000000023
 40
0.5000000000000023
 40
1.0
 40
1.0
 40
1.0
 40
1.0
 10
106.7807694561088
 20
85.6747171373375
 30
0.0
 10
106.8302940330428
 20
85.68017326511129
 30
0.0
 10
106.8830361873733
 20
85.67948810503796
 30
0.0
 10
106.9835687564725
 20
85.66538054548573
 30
0.0
 10
107.0311931060848
 20
85.65223895825316
 30
0.0
 10
107.157650781021
 20
85.60448927361251
 30
0.0
 10
107.2233408435109
 20
85.56258893878052
 30
0.0
 10
107.3926501654199
 20
85.4323661469267
 30
0.0
 10
107.4678463910059
 20
85.34048928183526
 30
0.0
 10
107.5324110232058
 20
85.24879508717049
 30
0.0
  0
SPLINE
  5
D0
330
1F
100
AcDbEntity
  8
0
  6
Continuous
 62
     7
370
    15
100
AcDbSpline
210
0.0
220
0.0
230
1.0
 70
     8
 71
     3
 72
     8
 73
     4
 74
     0
 42
0.000000001
 43
0.00000001
 40
0.0
 40
0.0
 40
0.0
 40
0.0
 40
1.0
 40
1.0
 40
1.0
 40
1.0
 10
104.4638661541903
 20
85.39444476308655
 30
0.0
 10
105.2280393630612
 20
85.49697584526083
 30
0.0
 10
106.001691624383
 20
85.58888605186884
 30
0.0
 10
106.7807694561088
 20
85.6747171373375
 30
0.0
  0
SPLINE
  5
D1
330
1F
100
AcDbEntity
  8
0
  6
Continuous
 62
     7
370
    15
100
AcDbSpline
210
0.0
220
0.0
230
1.0
 70
     8
 71
     3
 72
    14
 73
    10
 74
     0
 42
0.000000001
 43
0.00000001
 40
0.0
 40
0.0
 40
0.0
 40
0.0
 40
0.4999999999999968
 40
0.4999999999999968
 40
0.7499999999999967
 40
0.7499999999999967
 40
0.8749999999999983
 40
0.8749999999999983
 40
1.0
 40
1.0
 40
1.0
 40
1.0
 10
98.23076945610876
 20
85.16332075801641
 30
0.0
 10
99.28229723021693
 20
85.16854404946027
 30
0.0
 10
100.3312287239045
 20
85.18048267621933
 30
0.0
 10
101.895210676349
 20
85.22311636220705
 30
0.0
 10
102.4149897708683
 20
85.24139285954618
 30
0.0
 10
103.1896470436128
 20
85.28204164687891
 30
0.0
 10
103.4470248155262
 20
85.29781308191886
 30
0.0
 10
103.9587055530526
 20
85.33749397516796
 30
0.0
 10
104.2132298074969
 20
85.36081624070378
 30
0.0
 10
104.4638661541904
 20
85.39444476308638
 30
0.0
  0
SPLINE
  5
D2
330
1F
100
AcDbEntity
  8
0
  6
Continuous
 62
     7
370
    15
100
AcDbSpline
210
0.0
220
0.0
230
1.0
 70
     8
 71
     3
 72
     8
 73
     4
 74
     0
 42
0.000000001
 43
0.00000001
 40
0.0
 40
0.0
 40
0.0
 40
0.0
 40
1.0
 40
1.0
 40
1.0
 40
1.0
 10
98.10070954889052
 20
85.31915184874478
 30
0.0
 10
98.14031404627337
 20
85.26613004447937
 30
0.0
 10
98.18388190114727
 20
85.21422581295869
 30
0.0
 10
98.23076945610876
 20
85.16332075801641
 30
0.0
  0
SPLINE
  5
D3
330
1F
100
AcDbEntity
  8
0
  6
Continuous
 62
     7
370
    15
100
AcDbSpline
210
0.0
220
0.0
230
1.0
 70
     8
 71
     3
 72
     8
 73
     4
 74
     0
 42
0.000000001
 43
0.00000001
 40
0.0
 40
0.0
 40
0.0
 40
0.0
 40
1.0
 40
1.0
 40
1.0
 40
1.0
 10
98.23076945610876
 20
136.797583505455
 30
0.0
 10
98.18388190114487
 20
136.7466784505102
 30
0.0
 10
98.14031404626893
 20
136.6947742189868
 30
0.0
 10
98.10070954888447
 20
136.6417524147186
 30
0.0
  0
SPLINE
  5
D4
330
1F
100
AcDbEntity
  8
0
  6
Continuous
 62
     7
370
    15
100
AcDbSpline
210
0.0
220
0.0
230
1.0
 70
     8
 71
     3
 72
    10
 73
     6
 74
     0
 42
0.000000001
 43
0.00000001
 40
0.0
 40
0.0
 40
0.0
 40
0.0
 40
0.5
 40
0.5
 40
1.0
 40
1.0
 40
1.0
 40
1.0
 10
102.7807694561088
 20
136.7000537534046
 30
0.0
 10
102.0288875181976
 20
136.7369135025377
 30
0.0
 10
101.2718685541175
 20
136.7573105491052
 30
0.0
 10
99.75407262487346
 20
136.7861806721827
 30
0.0
 10
98.99302985408744
 20
136.7937971021733
 30
0.0
 10
98.23076945610876
 20
136.797583505455
 30
0.0
  0
SPLINE
  5
D5
330
1F
100
AcDbEntity
  8
0
  6
Continuous
 62
     7
370
    15
100
AcDbSpline
210
0.0
220
0.0
230
1.0
 70
     8
 71
     3
 72
    20
 73
    16
 74
     0
 42
0.000000001
 43
0.00000001
 40
0.0
 40
0.0
 40
0.0
 40
0.0
 40
0.1249999999999991
 40
0.1249999999999991
 40
0.2499999999999982
 40
0.2499999999999982
 40
0.4999999999999986
 40
0.4999999999999986
 40
0.7499999999999989
 40
0.7499999999999989
 40
0.8749999999999991
 40
0.8749999999999991
 40
0.9374999999999996
 40
0.9374999999999996
 40
1.0
 40
1.0
 40
1.0
 40
1.0
 10
104.6807694561088
 20
138.1810589480266
 30
0.0
 10
104.6807694561088
 20
138.1214034250346
 30
0.0
 10
104.6682732493778
 20
138.0590230552806
 30
0.0
 10
104.6222246541041
 20
137.9326926782279
 30
0.0
 10
104.5887095398103
 20
137.8683021331874
 30
0.0
 10
104.4605044109747
 20
137.6716688786671
 30
0.0
 10
104.3370339521967
 20
137.5346407006905
 30
0.0
 10
104.0340888062315
 20
137.2609685635529
 30
0.0
 10
103.8575534811354
 20
137.1234791019276
 30
0.0
 10
103.5346277402592
 20
136.9223892974431
 30
0.0
 10
103.4168823089978
 20
136.855218921813
 30
0.0
 10
103.2090675499541
 20
136.7688385264096
 30
0.0
 10
103.1335219936196
 20
136.742201845507
 30
0.0
 10
102.9642470386447
 20
136.7046491333669
 30
0.0
 10
102.8708110090448
 20
136.6956396175072
 30
0.0
 10
102.7807694561088
 20
136.7000537534046
 30
0.0
  0
LINE
  5
D6
330
1F
100
AcDbEntity
  8
0
  6
Continuous
 62
     7
370
    15
100
AcDbLine
 10
104.6807694561
 20
138.181058948
 30
0.0
 11
104.6807694561
 21
139.7940673622
 31
0.0
  0
SPLINE
  5
D7
330
1F
100
AcDbEntity
  8
0
  6
Continuous
 62
     7
370
    15
100
AcDbSpline
210
0.0
220
0.0
230
1.0
 70
     8
 71
     3
 72
    24
 73
    20
 74
     0
 42
0.000000001
 43
0.00000001
 40
0.0
 40
0.0
 40
0.0
 40
0.0
 40
0.0006675883159946
 40
0.0632907201584545
 40
0.1266235196374192
 40
0.1897225217837372
 40
0.2519902853093296
 40
0.313969371088098
 40
0.376507313282058
 40
0.4388698633074125
 40
0.500459875800236
 40
0.5619749718344432
 40
0.6247082698745162
 40
0.6873839318222156
 40
0.7496296591638434
 40
0.8119076813147827
 40
0.8749614520961194
 40
0.9381947704106505
 40
1.0
 40
1.0
 40
1.0
 40
1.0
 10
119.7423375406017
 20
81.4124041001485
 30
0.0
 10
119.7420169366376
 20
81.41236862071585
 30
0.0
 10
119.7116220730845
 20
81.40900499257845
 30
0.0
 10
119.8182075322132
 20
81.42112116570121
 30
0.0
 10
120.0786359598573
 20
81.44867690663929
 30
0.0
 10
120.5208817952352
 20
81.49259419124061
 30
0.0
 10
121.1105813616715
 20
81.53927599756773
 30
0.0
 10
121.8309359531062
 20
81.57947801525188
 30
0.0
 10
122.6577686557955
 20
81.60178465008669
 30
0.0
 10
123.5505409133218
 20
81.60042633014653
 30
0.0
 10
124.4760104341566
 20
81.56804191035553
 30
0.0
 10
125.4007113968683
 20
81.50501205061646
 30
0.0
 10
126.2887991891072
 20
81.415255590776
 30
0.0
 10
127.1105522930012
 20
81.30950853411706
 30
0.0
 10
127.8240924112827
 20
81.1980695365489
 30
0.0
 10
128.4100720445157
 20
81.0933908590366
 30
0.0
 10
128.8387195440449
 20
81.0085830834137
 30
0.0
 10
129.1210219138843
 20
80.95074812079805
 30
0.0
 10
129.1543324537331
 20
80.94358650724526
 30
0.0
 10
129.1707975006935
 20
80.94004659753516
 30
0.0
  0
SPLINE
  5
D8
330
1F
100
AcDbEntity
  8
0
  6
Continuous
 62
     7
370
    15
100
AcDbSpline
210
0.0
220
0.0
230
1.0
 70
     8
 71
     3
 72
    24
 73
    20
 74
     0
 42
0.000000001
 43
0.00000001
 40
0.0
 40
0.0
 40
0.0
 40
0.0
 40
0.0617087493743627
 40
0.1252372755574937
 40
0.1885309805132148
 40
0.2509305509555709
 40
0.3130409675235134
 40
0.3755023914560307
 40
0.4379589352476554
 40
0.4994688322562049
 40
0.5610824013278728
 40
0.623544369984506
 40
0.6861429606818762
 40
0.7482311544071525
 40
0.8104792077812242
 40
0.8736616521711077
 40
0.9368990575724673
 40
0.9995527319596672
 40
1.0
 40
1.0
 40
1.0
 40
1.0
 10
129.1707571677915
 20
141.0208347629004
 30
0.0
 10
129.153972020967
 20
141.0172946179066
 30
0.0
 10
129.1199067372033
 20
141.0101099298581
 30
0.0
 10
128.8353395469188
 20
140.9520540437175
 30
0.0
 10
128.4051170661994
 20
140.8668549992958
 30
0.0
 10
127.8185762181902
 20
140.7618928485251
 30
0.0
 10
127.1059764979594
 20
140.650467544401
 30
0.0
 10
126.2868618762239
 20
140.5450074586191
 30
0.0
 10
125.4006268670146
 20
140.4556635272056
 30
0.0
 10
124.4771159389313
 20
140.3929230538512
 30
0.0
 10
123.551143303887
 20
140.3605823024547
 30
0.0
 10
122.6575585568321
 20
140.3592523955082
 30
0.0
 10
121.8295502936914
 20
140.3815661573901
 30
0.0
 10
121.108465840308
 20
140.4217393678004
 30
0.0
 10
120.5183898908033
 20
140.4684356725838
 30
0.0
 10
120.0771209114808
 20
140.5123533232179
 30
0.0
 10
119.8178293363647
 20
140.5398630244214
 30
0.0
 10
119.7115267592528
 20
140.5519267634034
 30
0.0
 10
119.7416961486865
 20
140.5485534933278
 30
0.0
 10
119.7419099934117
 20
140.5485295831319
 30
0.0
  0
SPLINE
  5
D9
330
1F
100
AcDbEntity
  8
0
  6
Continuous
 62
     7
370
    15
100
AcDbSpline
210
0.0
220
0.0
230
1.0
 70
     8
 71
     3
 72
     9
 73
     5
 74
     0
 42
0.000000001
 43
0.00000001
 40
0.0
 40
0.0
 40
0.0
 40
0.0
 40
0.7140681271130342
 40
1.0
 40
1.0
 40
1.0
 40
1.0
 10
96.58453112382273
 20
86.82142184675288
 30
0.0
 10
96.58996689795323
 20
86.82124433562095
 30
0.0
 10
96.59757930064158
 20
86.82099574430981
 30
0.0
 10
96.60830624970075
 20
86.89501484290385
 30
0.0
 10
96.61137342633558
 20
86.91617926239425
 30
0.0
  0
LINE
  5
DA
330
1F
100
AcDbEntity
  8
0
  6
Continuous
 62
     7
370
    15
100
AcDbLine
 10
96.5807694561
 20
86.8135736961
 30
0.0
 11
96.5807694561
 21
135.1473305674
 31
0.0
  0
SPLINE
  5
DB
330
1F
100
AcDbEntity
  8
0
  6
Continuous
 62
     7
370
    15
100
AcDbSpline
210
0.0
220
0.0
230
1.0
 70
     8
 71
     3
 72
     8
 73
     4
 74
     0
 42
0.000000001
 43
0.00000001
 40
0.0
 40
0.0
 40
0.0
 40
0.0
 40
1.0
 40
1.0
 40
1.0
 40
1.0
 10
96.6113734263354
 20
135.0447250010771
 30
0.0
 10
96.60127708936065
 20
135.138598385252
 30
0.0
 10
96.58076945610874
 20
135.1632817319931
 30
0.0
 10
96.58076945610874
 20
135.1473305674128
 30
0.0
  0
SPLINE
  5
DC
330
1F
100
AcDbEntity
  8
0
  6
Continuous
 62
     7
370
    15
100
AcDbSpline
210
0.0
220
0.0
230
1.0
 70
     8
 71
     3
 72
    26
 73
    22
 74
     0
 42
0.000000001
 43
0.00000001
 40
0.0
 40
0.0
 40
0.0
 40
0.0
 40
0.2500000000000056
 40
0.2500000000000056
 40
0.3750000000000083
 40
0.3750000000000083
 40
0.4375000000000094
 40
0.4375000000000094
 40
0.5000000000000105
 40
0.5000000000000105
 40
0.5312500000000097
 40
0.5312500000000097
 40
0.5625000000000088
 40
0.5625000000000088
 40
0.6250000000000071
 40
0.6250000000000071
 40
0.7500000000000048
 40
0.7500000000000048
 40
0.8750000000000024
 40
0.8750000000000024
 40
1.0
 40
1.0
 40
1.0
 40
1.0
 10
97.88317875426822
 20
136.2398310828117
 30
0.0
 10
97.81706581840037
 20
136.0373508572135
 30
0.0
 10
97.73657397962391
 20
135.8225891280719
 30
0.0
 10
97.57218825554797
 20
135.466923798644
 30
0.0
 10
97.51073832430238
 20
135.3435924806954
 30
0.0
 10
97.3948549442563
 20
135.1415794365707
 30
0.0
 10
97.35278936795467
 20
135.0722663846312
 30
0.0
 10
97.25386787464419
 20
134.9252512217475
 30
0.0
 10
97.19660482436119
 20
134.8457696105522
 30
0.0
 10
97.08912659546912
 20
134.7273787993301
 30
0.0
 10
97.05006034245211
 20
134.6894613153581
 30
0.0
 10
96.97700928550806
 20
134.6313673161169
 30
0.0
 10
96.94545416732964
 20
134.6127019641386
 30
0.0
 10
96.86682691601946
 20
134.5779426004378
 30
0.0
 10
96.83258840023207
 20
134.5791191428862
 30
0.0
 10
96.74861545393738
 20
134.6014942483872
 30
0.0
 10
96.71860752113417
 20
134.6437000936738
 30
0.0
 10
96.66978381588213
 20
134.7398706087145
 30
0.0
 10
96.65326296123044
 20
134.7962501763156
 30
0.0
 10
96.62749365754775
 20
134.9157670883918
 30
0.0
 10
96.61841545021163
 20
134.9792499070567
 30
0.0
 10
96.61137342633558
 20
135.0447250010772
 30
0.0
  0
SPLINE
  5
DD
330
1F
100
AcDbEntity
  8
0
  6
Continuous
 62
     7
370
    15
100
AcDbSpline
210
0.0
220
0.0
230
1.0
 70
     8
 71
     3
 72
     8
 73
     4
 74
     0
 42
0.000000001
 43
0.00000001
 40
0.0
 40
0.0
 40
0.0
 40
0.0
 40
1.0
 40
1.0
 40
1.0
 40
1.0
 10
98.10070954888447
 20
136.6417524147186
 30
0.0
 10
98.0076167461949
 20
136.5171214084197
 30
0.0
 10
97.92910701920205
 20
136.3804928961552
 30
0.0
 10
97.88317875427201
 20
136.239831082815
 30
0.0
  0
SPLINE
  5
DE
330
1F
100
AcDbEntity
  8
0
  6
Continuous
 62
     7
370
    15
100
AcDbSpline
210
0.0
220
0.0
230
1.0
 70
     8
 71
     3
 72
     8
 73
     4
 74
     0
 42
0.000000001
 43
0.00000001
 40
0.0
 40
0.0
 40
0.0
 40
0.0
 40
1.0
 40
1.0
 40
1.0
 40
1.0
 10
97.88317875427188
 20
85.72107318065689
 30
0.0
 10
97.9291070192029
 20
85.58041136731342
 30
0.0
 10
98.00761674619821
 20
85.44378285504597
 30
0.0
 10
98.10070954889052
 20
85.31915184874478
 30
0.0
  0
SPLINE
  5
DF
330
1F
100
AcDbEntity
  8
0
  6
Continuous
 62
     7
370
    15
100
AcDbSpline
210
0.0
220
0.0
230
1.0
 70
     8
 71
     3
 72
    26
 73
    22
 74
     0
 42
0.000000001
 43
0.00000001
 40
0.0
 40
0.0
 40
0.0
 40
0.0
 40
0.2500000000000008
 40
0.2500000000000008
 40
0.3750000000000012
 40
0.3750000000000012
 40
0.4375000000000003
 40
0.4375000000000003
 40
0.4687500000000004
 40
0.4687500000000004
 40
0.5000000000000004
 40
0.5000000000000004
 40
0.5312500000000004
 40
0.5312500000000004
 40
0.5625000000000004
 40
0.5625000000000004
 40
0.6250000000000004
 40
0.6250000000000004
 40
0.7500000000000006
 40
0.7500000000000006
 40
1.0
 40
1.0
 40
1.0
 40
1.0
 10
96.61137342633558
 20
86.91617926239425
 30
0.0
 10
96.62546578427825
 20
87.04720671664703
 30
0.0
 10
96.64519809461206
 20
87.17266899135522
 30
0.0
 10
96.71876300456931
 20
87.31747885327985
 30
0.0
 10
96.74922440429195
 20
87.35970396028443
 30
0.0
 10
96.83269370481237
 20
87.38174685007928
 30
0.0
 10
96.86758729314809
 20
87.38282203975263
 30
0.0
 10
96.94633861009045
 20
87.34771065795833
 30
0.0
 10
96.97816822161472
 20
87.32872127511762
 30
0.0
 10
97.05077163769951
 20
87.27076854834434
 30
0.0
 10
97.09071125692601
 20
87.23190236686682
 30
0.0
 10
97.16208705411772
 20
87.15302958646433
 30
0.0
 10
97.19480217247805
 20
87.11235287741505
 30
0.0
 10
97.25365308023076
 20
87.03439674299078
 30
0.0
 10
97.28061730664737
 20
86.99599633041751
 30
0.0
 10
97.35495263168804
 20
86.88521458198107
 30
0.0
 10
97.39682050679704
 20
86.81602890601151
 30
0.0
 10
97.5120358478877
 20
86.6147797215416
 30
0.0
 10
97.57404719343701
 20
86.49015095297112
 30
0.0
 10
97.73722490453981
 20
86.13651398003411
 30
0.0
 10
97.81712472275692
 20
85.92337300333104
 30
0.0
 10
97.88317875426976
 20
85.72107318065883
 30
0.0
  0
SPLINE
  5
E0
330
1F
100
AcDbEntity
  8
0
  6
Continuous
 62
     7
370
    15
100
AcDbSpline
210
0.0
220
0.0
230
1.0
 70
     8
 71
     3
 72
    48
 73
    44
 74
     0
 42
0.000000001
 43
0.00000001
 40
0.0
 40
0.0
 40
0.0
 40
0.0
 40
0.0312500000000004
 40
0.0312500000000004
 40
0.0625000000000009
 40
0.0625000000000009
 40
0.1250000000000017
 40
0.1250000000000017
 40
0.1562500000000024
 40
0.1562500000000024
 40
0.1875000000000031
 40
0.1875000000000031
 40
0.2187500000000037
 40
0.2187500000000037
 40
0.2500000000000044
 40
0.2500000000000044
 40
0.312500000000005
 40
0.312500000000005
 40
0.3437500000000048
 40
0.3437500000000048
 40
0.3750000000000046
 40
0.3750000000000046
 40
0.4375000000000043
 40
0.4375000000000043
 40
0.5000000000000039
 40
0.5000000000000039
 40
0.5625000000000037
 40
0.5625000000000037
 40
0.6250000000000033
 40
0.6250000000000033
 40
0.687500000000003
 40
0.687500000000003
 40
0.7500000000000026
 40
0.7500000000000026
 40
0.8125000000000022
 40
0.8125000000000022
 40
0.8750000000000019
 40
0.8750000000000019
 40
0.9062500000000014
 40
0.9062500000000014
 40
0.937500000000001
 40
0.937500000000001
 40
1.0
 40
1.0
 40
1.0
 40
1.0
 10
195.1807694561088
 20
110.9804521317357
 30
0.0
 10
195.1807694561088
 20
110.7561542726389
 30
0.0
 10
195.1676513892841
 20
110.5320136310785
 30
0.0
 10
195.1148719536177
 20
110.08405026867
 30
0.0
 10
195.0747796579608
 20
109.8588077697205
 30
0.0
 10
194.9171734473951
 20
109.1990581162376
 30
0.0
 10
194.7631536940675
 20
108.777596495408
 30
0.0
 10
194.4627544336694
 20
108.171250990435
 30
0.0
 10
194.3506038701366
 20
107.9732044447024
 30
0.0
 10
194.1085468437554
 20
107.5942562623954
 30
0.0
 10
193.9781251361696
 20
107.4121815843984
 30
0.0
 10
193.6993465240675
 20
107.0620735149264
 30
0.0
 10
193.5509867561813
 20
106.8940425308127
 30
0.0
 10
193.2365702171801
 20
106.5717423396904
 30
0.0
 10
193.0704077187109
 20
106.417570404919
 30
0.0
 10
192.5556883777588
 20
105.9839006857798
 30
0.0
 10
192.1880092893608
 20
105.7296482878499
 30
0.0
 10
191.6012362747214
 20
105.3976361225494
 30
0.0
 10
191.3987677868492
 20
105.2948728846343
 30
0.0
 10
190.988176687027
 20
105.108936500551
 30
0.0
 10
190.7798063952176
 20
105.0255042472052
 30
0.0
 10
190.1457608781399
 20
104.8027533554311
 30
0.0
 10
189.7112241165957
 20
104.6907458222346
 30
0.0
 10
188.8181180273516
 20
104.5401790792959
 30
0.0
 10
188.3665093183992
 20
104.5032684617466
 30
0.0
 10
187.4696754262789
 20
104.5046815113327
 30
0.0
 10
187.0218825807528
 20
104.5425478890822
 30
0.0
 10
186.1275965629419
 20
104.6959021564951
 30
0.0
 10
185.6918955498444
 20
104.8097428175316
 30
0.0
 10
184.8496949160451
 20
105.1084999331525
 30
0.0
 10
184.4419920480817
 20
105.2935701053058
 30
0.0
 10
183.6553275926422
 20
105.7412611864995
 30
0.0
 10
183.2889762931719
 20
105.9967197348092
 30
0.0
 10
182.6100813989079
 20
106.5715648116966
 30
0.0
 10
182.2959988890008
 20
106.8927313067421
 30
0.0
 10
181.7347472618555
 20
107.6002207725359
 30
0.0
 10
181.4949994066819
 20
107.976521690348
 30
0.0
 10
181.1983400068249
 20
108.5761054489998
 30
0.0
 10
181.1100258350176
 20
108.7818647565294
 30
0.0
 10
180.9559118133233
 20
109.2059965401507
 30
0.0
 10
180.8901018895154
 20
109.4252402638741
 30
0.0
 10
180.7335676528374
 20
110.0834470857346
 30
0.0
 10
180.6807694561087
 20
110.5286601832133
 30
0.0
 10
180.6807694561087
 20
110.9804521317357
 30
0.0
  0
SPLINE
  5
E1
330
1F
100
AcDbEntity
  8
0
  6
Continuous
 62
     7
370
    15
100
AcDbSpline
210
0.0
220
0.0
230
1.0
 70
     8
 71
     3
 72
    52
 73
    48
 74
     0
 42
0.000000001
 43
0.00000001
 40
0.0
 40
0.0
 40
0.0
 40
0.0
 40
0.0312500000000007
 40
0.0312500000000007
 40
0.0625000000000013
 40
0.0625000000000013
 40
0.093750000000002
 40
0.093750000000002
 40
0.1250000000000026
 40
0.1250000000000026
 40
0.187500000000004
 40
0.187500000000004
 40
0.2500000000000054
 40
0.2500000000000054
 40
0.3125000000000069
 40
0.3125000000000069
 40
0.3750000000000083
 40
0.3750000000000083
 40
0.4375000000000097
 40
0.4375000000000097
 40
0.4687500000000099
 40
0.4687500000000099
 40
0.5000000000000101
 40
0.5000000000000101
 40
0.5625000000000097
 40
0.5625000000000097
 40
0.5937500000000094
 40
0.5937500000000094
 40
0.6250000000000092
 40
0.6250000000000092
 40
0.6875000000000079
 40
0.6875000000000079
 40
0.7187500000000072
 40
0.7187500000000072
 40
0.7500000000000064
 40
0.7500000000000064
 40
0.8125000000000051
 40
0.8125000000000051
 40
0.8437500000000041
 40
0.8437500000000041
 40
0.8750000000000031
 40
0.8750000000000031
 40
0.9375000000000016
 40
0.9375000000000016
 40
0.9687500000000008
 40
0.9687500000000008
 40
1.0
 40
1.0
 40
1.0
 40
1.0
 10
180.6807694561087
 20
110.9804521317357
 30
0.0
 10
180.6807694561087
 20
111.2063917688835
 30
0.0
 10
180.6943668366168
 20
111.435400435925
 30
0.0
 10
180.7479279234874
 20
111.8850336483362
 30
0.0
 10
180.7877240504637
 20
112.1066909794963
 30
0.0
 10
180.8924400301628
 20
112.5439187454907
 30
0.0
 10
180.9573621579543
 20
112.7594886102498
 30
0.0
 10
181.1122574756293
 20
113.1845774838695
 30
0.0
 10
181.2025120797741
 20
113.3942483300286
 30
0.0
 10
181.5035446735614
 20
113.9995307662737
 30
0.0
 10
181.7459540075399
 20
114.3769660212485
 30
0.0
 10
182.3096239111439
 20
115.0830949602046
 30
0.0
 10
182.6270688407535
 20
115.4062726534736
 30
0.0
 10
183.3199508079824
 20
115.9876792701073
 30
0.0
 10
183.689410447327
 20
116.2412617865849
 30
0.0
 10
184.4663276645579
 20
116.6787875417019
 30
0.0
 10
184.8758036291986
 20
116.8636762547964
 30
0.0
 10
185.7296488160206
 20
117.1623871861906
 30
0.0
 10
186.1642317458009
 20
117.2730341543614
 30
0.0
 10
186.8270879862573
 20
117.3839809474259
 30
0.0
 10
187.0498825263788
 20
117.4117279530292
 30
0.0
 10
187.4992104740903
 20
117.448522022274
 30
0.0
 10
187.7268154559026
 20
117.4575266042678
 30
0.0
 10
188.4046332676003
 20
117.4556744715063
 30
0.0
 10
188.8511438345872
 20
117.416708216215
 30
0.0
 10
189.5130326466956
 20
117.302720265039
 30
0.0
 10
189.732341628452
 20
117.2554098216
 30
0.0
 10
190.1682500122766
 20
117.1416079982186
 30
0.0
 10
190.3856520552119
 20
117.0747560444341
 30
0.0
 10
191.0215369421865
 20
116.8485146246608
 30
0.0
 10
191.42720923753
 20
116.6631059844594
 30
0.0
 10
192.0082286787374
 20
116.3322484092445
 30
0.0
 10
192.197290589258
 20
116.2131134019718
 30
0.0
 10
192.5657674988143
 20
115.956196398779
 30
0.0
 10
192.7455012625105
 20
115.8179797601986
 30
0.0
 10
193.2577309717358
 20
115.3835614933564
 30
0.0
 10
193.5676651738923
 20
115.0652182651258
 30
0.0
 10
193.9830642635585
 20
114.5419967440252
 30
0.0
 10
194.1132204398098
 20
114.359917053126
 30
0.0
 10
194.3556681767217
 20
113.9791617837327
 30
0.0
 10
194.4669598023946
 20
113.7817528069394
 30
0.0
 10
194.7644342247909
 20
113.1795180419181
 30
0.0
 10
194.9174200875497
 20
112.7605468918492
 30
0.0
 10
195.0743758132778
 20
112.103920057916
 30
0.0
 10
195.1146221070403
 20
111.8786095506345
 30
0.0
 10
195.1676469194427
 20
111.4292918292108
 30
0.0
 10
195.1807694561088
 20
111.2047933448233
 30
0.0
 10
195.1807694561088
 20
110.9804521317357
 30
0.0
  0
LINE
  5
E2
330
1F
100
AcDbEntity
  8
0
  6
Continuous
 62
     7
370
    15
100
AcDbLine
 10
201.9807694561
 20
83.4804521317
 30
0.0
 11
201.9807694561
 21
138.4804521317
 31
0.0
  0
LINE
  5
E3
330
1F
100
AcDbEntity
  8
0
  6
Continuous
 62
     7
370
    15
100
AcDbLine
 10
202.4807694561
 20
83.9804521317
 30
0.0
 11
202.4807694561
 21
137.9804521317
 31
0.0
  0
LINE
  5
E4
330
1F
100
AcDbEntity
  8
0
  6
Continuous
 62
     7
370
    15
100
AcDbLine
 10
156.3907694561
 20
136.7161884725
 30
0.0
 11
156.3907694561
 21
138.6403351688
 31
0.0
  0
SPLINE
  5
E5
330
1F
100
AcDbEntity
  8
0
  6
Continuous
 62
     7
370
    15
100
AcDbSpline
210
0.0
220
0.0
230
1.0
 70
     8
 71
     3
 72
     8
 73
     4
 74
     0
 42
0.000000001
 43
0.00000001
 40
0.0
 40
0.0
 40
0.0
 40
0.0
 40
1.0
 40
1.0
 40
1.0
 40
1.0
 10
156.3907694561088
 20
138.6403351688426
 30
0.0
 10
156.9205690458382
 20
139.8739195651919
 30
0.0
 10
157.4637347637984
 20
141.1019562365666
 30
0.0
 10
158.0170398548952
 20
142.3249492564305
 30
0.0
  0
LINE
  5
E6
330
1F
100
AcDbEntity
  8
0
  6
Continuous
 62
     7
370
    15
100
AcDbLine
 10
158.0170398549
 20
142.3249492564
 30
0.0
 11
161.4307694561
 21
142.3249492564
 31
0.0
  0
SPLINE
  5
E7
330
1F
100
AcDbEntity
  8
0
  6
Continuous
 62
     7
370
    15
100
AcDbSpline
210
0.0
220
0.0
230
1.0
 70
     8
 71
     3
 72
    12
 73
     8
 74
     0
 42
0.000000001
 43
0.00000001
 40
0.0
 40
0.0
 40
0.0
 40
0.0
 40
0.2500000000000019
 40
0.2500000000000019
 40
0.5000000000000008
 40
0.5000000000000008
 40
1.0
 40
1.0
 40
1.0
 40
1.0
 10
161.4307694561087
 20
142.3249492564306
 30
0.0
 10
161.5813455295255
 20
142.3249492564306
 30
0.0
 10
161.730347299809
 20
142.2798382547577
 30
0.0
 10
161.98760030574
 20
142.124042615367
 30
0.0
 10
162.0968840582105
 20
142.0141651113863
 30
0.0
 10
162.3516558140563
 20
141.6423222952006
 30
0.0
 10
162.4307694561087
 20
141.3384795119697
 30
0.0
 10
162.4307694561087
 20
141.0383545868306
 30
0.0
  0
LINE
  5
E8
330
1F
100
AcDbEntity
  8
0
  6
Continuous
 62
     7
370
    15
100
AcDbLine
 10
162.4307694561
 20
141.0383545868
 30
0.0
 11
162.4307694561
 21
135.8304521317
 31
0.0
  0
SPLINE
  5
E9
330
1F
100
AcDbEntity
  8
0
  6
Continuous
 62
     7
370
    15
100
AcDbSpline
210
0.0
220
0.0
230
1.0
 70
     8
 71
     3
 72
     8
 73
     4
 74
     0
 42
0.000000001
 43
0.00000001
 40
0.0
 40
0.0
 40
0.0
 40
0.0
 40
1.0
 40
1.0
 40
1.0
 40
1.0
 10
150.9444990573223
 20
142.3249492564305
 30
0.0
 10
151.4980320562623
 20
141.1014524824788
 30
0.0
 10
152.0414448739304
 20
139.8728135584782
 30
0.0
 10
152.5707694561088
 20
138.6403351688426
 30
0.0
  0
LINE
  5
EA
330
1F
100
AcDbEntity
  8
0
  6
Continuous
 62
     7
370
    15
100
AcDbLine
 10
152.5707694561
 20
138.6403351688
 30
0.0
 11
152.5707694561
 21
136.7161884725
 31
0.0
  0
SPLINE
  5
EB
330
1F
100
AcDbEntity
  8
0
  6
Continuous
 62
     7
370
    15
100
AcDbSpline
210
0.0
220
0.0
230
1.0
 70
     8
 71
     3
 72
    12
 73
     8
 74
     0
 42
0.000000001
 43
0.00000001
 40
0.0
 40
0.0
 40
0.0
 40
0.0
 40
0.5000000000000022
 40
0.5000000000000022
 40
0.7500000000000011
 40
0.7500000000000011
 40
1.0
 40
1.0
 40
1.0
 40
1.0
 10
162.4307694561087
 20
148.9277840537563
 30
0.0
 10
162.4307694561088
 20
149.1939258220092
 30
0.0
 10
162.3270527605409
 20
149.4572127402361
 30
0.0
 10
162.050670775425
 20
149.7449741858313
 30
0.0
 10
161.9403731904628
 20
149.8219537552885
 30
0.0
 10
161.6958774100928
 20
149.9273948341253
 30
0.0
 10
161.5636643826918
 20
149.9548026715459
 30
0.0
 10
161.4307694561087
 20
149.9548026715459
 30
0.0
  0
LINE
  5
EC
330
1F
100
AcDbEntity
  8
0
  6
Continuous
 62
     7
370
    15
100
AcDbLine
 10
162.4307694561
 20
141.0383545868
 30
0.0
 11
162.4307694561
 21
148.9277840538
 31
0.0
  0
LINE
  5
ED
330
1F
100
AcDbEntity
  8
0
  6
Continuous
 62
     7
370
    15
100
AcDbLine
 10
161.4307694561
 20
149.9548026715
 30
0.0
 11
158.0170398549
 21
149.9548026715
 31
0.0
  0
LINE
  5
EE
330
1F
100
AcDbEntity
  8
0
  6
Continuous
 62
     7
370
    15
100
AcDbLine
 10
158.0170398549
 20
142.3249492564
 30
0.0
 11
158.0170398549
 21
149.9548026715
 31
0.0
  0
SPLINE
  5
EF
330
1F
100
AcDbEntity
  8
0
  6
Continuous
 62
     7
370
    15
100
AcDbSpline
210
0.0
220
0.0
230
1.0
 70
     8
 71
     3
 72
     8
 73
     4
 74
     0
 42
0.000000001
 43
0.00000001
 40
0.0
 40
0.0
 40
0.0
 40
0.0
 40
1.0
 40
1.0
 40
1.0
 40
1.0
 10
158.0170398548952
 20
149.9548026715459
 30
0.0
 10
157.4741129519586
 20
148.989678719349
 30
0.0
 10
156.9319582382805
 20
148.0241232132024
 30
0.0
 10
156.3907694561088
 20
147.058030066326
 30
0.0
  0
LINE
  5
F0
330
1F
100
AcDbEntity
  8
0
  6
Continuous
 62
     7
370
    15
100
AcDbLine
 10
156.3907694561
 20
138.6403351688
 30
0.0
 11
156.3907694561
 21
147.0580300663
 31
0.0
  0
SPLINE
  5
F1
330
1F
100
AcDbEntity
  8
0
  6
Continuous
 62
     7
370
    15
100
AcDbSpline
210
0.0
220
0.0
230
1.0
 70
     8
 71
     3
 72
     8
 73
     4
 74
     0
 42
0.000000001
 43
0.00000001
 40
0.0
 40
0.0
 40
0.0
 40
0.0
 40
1.0
 40
1.0
 40
1.0
 40
1.0
 10
152.5707694561088
 20
147.058030066326
 30
0.0
 10
152.029580673937
 20
148.0241232132024
 30
0.0
 10
151.4874259602589
 20
148.989678719349
 30
0.0
 10
150.9444990573223
 20
149.9548026715459
 30
0.0
  0
LINE
  5
F2
330
1F
100
AcDbEntity
  8
0
  6
Continuous
 62
     7
370
    15
100
AcDbLine
 10
152.5707694561
 20
138.6403351688
 30
0.0
 11
152.5707694561
 21
147.0580300663
 31
0.0
  0
LINE
  5
F3
330
1F
100
AcDbEntity
  8
0
  6
Continuous
 62
     7
370
    15
100
AcDbLine
 10
98.2307694561
 20
85.1604521317
 30
0.0
 11
98.2307694561
 21
85.163320758
 31
0.0
  0
LINE
  5
F4
330
1F
100
AcDbEntity
  8
0
  6
Continuous
 62
     7
370
    15
100
AcDbLine
 10
98.2307694561
 20
136.8004521317
 30
0.0
 11
98.2307694561
 21
136.7975835055
 31
0.0
  0
CIRCLE
  5
F5
330
1F
100
AcDbEntity
  8
0
  6
HIDDEN
 62
     7
370
     0
100
AcDbCircle
 10
187.9307694561
 20
110.9804521317
 30
0.0
 40
5.258613578496374
  0
CIRCLE
  5
F6
330
1F
100
AcDbEntity
  8
0
  6
HIDDEN
 62
     7
370
     0
100
AcDbCircle
 10
187.9307694561
 20
110.9804521317
 30
0.0
 40
4.094716599620997
  0
CIRCLE
  5
F7
330
1F
100
AcDbEntity
  8
0
  6
HIDDEN
 62
     7
370
     0
100
AcDbCircle
 10
187.9307694561
 20
110.9804521317
 30
0.0
 40
3.694716599621
  0
LINE
  5
F8
330
1F
100
AcDbEntity
  8
0
  6
HIDDEN
 62
     7
370
     0
100
AcDbLine
 10
150.9444990573
 20
142.3249492564
 30
0.0
 11
150.9444990573
 21
135.8304521317
 31
0.0
  0
LINE
  5
F9
330
1F
100
AcDbEntity
  8
0
  6
HIDDEN
 62
     7
370
     0
100
AcDbLine
 10
121.1201839001
 20
81.5373952835
 30
0.0
 11
120.8340674012
 21
81.5152672604
 31
0.0
  0
SPLINE
  5
FA
330
1F
100
AcDbEntity
  8
0
  6
HIDDEN
 62
     7
370
     0
100
AcDbSpline
210
0.0
220
0.0
230
1.0
 70
     8
 71
     3
 72
    10
 73
     6
 74
     0
 42
0.000000001
 43
0.00000001
 40
0.0
 40
0.0
 40
0.0
 40
0.0
 40
0.4764764731105467
 40
0.9667708620088034
 40
1.0
 40
1.0
 40
1.0
 40
1.0
 10
128.4807694561088
 20
135.9391680442181
 30
0.0
 10
128.5465036933522
 20
135.9494278339271
 30
0.0
 10
128.6798784742485
 20
135.9702449493583
 30
0.0
 10
128.7487696677263
 20
135.9799640361993
 30
0.0
 10
128.7281015422714
 20
135.9769353048683
 30
0.0
 10
128.7267896929322
 20
135.9767430649285
 30
0.0
  0
SPLINE
  5
FB
330
1F
100
AcDbEntity
  8
0
  6
HIDDEN
 62
     7
370
     0
100
AcDbSpline
210
0.0
220
0.0
230
1.0
 70
     8
 71
     3
 72
     9
 73
     5
 74
     0
 42
0.000000001
 43
0.00000001
 40
0.0
 40
0.0
 40
0.0
 40
0.0
 40
0.4746857936720431
 40
1.0
 40
1.0
 40
1.0
 40
1.0
 10
128.7267333645081
 20
85.98416946503647
 30
0.0
 10
128.7187275016698
 20
85.98523926007013
 30
0.0
 10
128.701861897211
 20
85.98749295092823
 30
0.0
 10
128.5569131121115
 20
86.00994292758423
 30
0.0
 10
128.4807694561088
 20
86.02173621925337
 30
0.0
  0
SPLINE
  5
FC
330
1F
100
AcDbEntity
  8
0
  6
HIDDEN
 62
     7
370
     0
100
AcDbSpline
210
0.0
220
0.0
230
1.0
 70
     8
 71
     3
 72
    24
 73
    20
 74
     0
 42
0.000000001
 43
0.00000001
 40
0.0
 40
0.0
 40
0.0
 40
0.0
 40
0.0595370949379792
 40
0.1208126116616081
 40
0.1803454131236863
 40
0.2415919018467099
 40
0.301307676231502
 40
0.3627887741767182
 40
0.4218966067046792
 40
0.4827545513882366
 40
0.5412807091099368
 40
0.6014867151310413
 40
0.6603627197932919
 40
0.7209039658167989
 40
0.7805131136233134
 40
0.8418488855574523
 40
0.9014407220638349
 40
0.9628030331916677
 40
1.0
 40
1.0
 40
1.0
 40
1.0
 10
128.4807694561088
 20
86.02173621925337
 30
0.0
 10
128.3903204600231
 20
86.03602548897044
 30
0.0
 10
128.2067814504247
 20
86.06502126034714
 30
0.0
 10
127.7976746476383
 20
86.12342703071296
 30
0.0
 10
127.2987735167927
 20
86.18562184644377
 30
0.0
 10
126.7219638518852
 20
86.24514467645605
 30
0.0
 10
126.0749396868889
 20
86.29584863371126
 30
0.0
 10
125.3888125215989
 20
86.3309797781069
 30
0.0
 10
124.6721950322927
 20
86.34708587570522
 30
0.0
 10
123.9613583438415
 20
86.34227144307764
 30
0.0
 10
123.2615648623417
 20
86.31732076211358
 30
0.0
 10
122.6034865930485
 20
86.27565397513514
 30
0.0
 10
121.9911943108261
 20
86.22111109191947
 30
0.0
 10
121.4500700619179
 20
86.1603024421176
 30
0.0
 10
120.9876291544878
 20
86.09907007271968
 30
0.0
 10
120.624682192003
 20
86.04499300541065
 30
0.0
 10
120.3734253022358
 20
86.0045618291478
 30
0.0
 10
120.2413156891136
 20
85.98225057513203
 30
0.0
 10
120.2434142051039
 20
85.98259995811503
 30
0.0
 10
120.2442061998432
 20
85.98273181771764
 30
0.0
  0
SPLINE
  5
FD
330
1F
100
AcDbEntity
  8
0
  6
HIDDEN
 62
     7
370
     0
100
AcDbSpline
210
0.0
220
0.0
230
1.0
 70
     8
 71
     3
 72
    24
 73
    20
 74
     0
 42
0.000000001
 43
0.00000001
 40
0.0
 40
0.0
 40
0.0
 40
0.0
 40
0.0216634350240443
 40
0.0822522493359183
 40
0.1408073464403032
 40
0.2010298253365713
 40
0.2601569393004936
 40
0.3209635727104779
 40
0.3806800987260039
 40
0.4421439624408165
 40
0.501542643069721
 40
0.5627083768109247
 40
0.6213598671252839
 40
0.6817154354669668
 40
0.7403628543158376
 40
0.8006701258503865
 40
0.8600531164425621
 40
0.9211362185472697
 40
1.0
 40
1.0
 40
1.0
 40
1.0
 10
120.2442061998432
 20
135.9781724457538
 30
0.0
 10
120.2406796912605
 20
135.9787706010808
 30
0.0
 10
120.2272901589488
 20
135.9810416915633
 30
0.0
 10
120.3267666647609
 20
135.9641386793117
 30
0.0
 10
120.5400712667807
 20
135.9292782125721
 30
0.0
 10
120.8673131691364
 20
135.8791991838415
 30
0.0
 10
121.2969468934301
 20
135.8199538946185
 30
0.0
 10
121.8148858891927
 20
135.758278616921
 30
0.0
 10
122.4153346517641
 20
135.7003125424765
 30
0.0
 10
123.0709077661847
 20
135.6537292085731
 30
0.0
 10
123.7726250517926
 20
135.6233137382839
 30
0.0
 10
124.4844089348906
 20
135.6130753312622
 30
0.0
 10
125.1994030264398
 20
135.6237033674876
 30
0.0
 10
125.8843820102622
 20
135.6534795975547
 30
0.0
 10
126.535413402998
 20
135.6994836826971
 30
0.0
 10
127.1264941072716
 20
135.7561505478053
 30
0.0
 10
127.6485423797383
 20
135.8178294592198
 30
0.0
 10
128.1360634281981
 20
135.8848825064076
 30
0.0
 10
128.3565304440418
 20
135.9196024403672
 30
0.0
 10
128.4807694561088
 20
135.9391680442181
 30
0.0
  0
LINE
  5
FE
330
1F
100
AcDbEntity
  8
0
  6
HIDDEN
 62
     7
370
     0
100
AcDbLine
 10
112.4760689177
 20
89.9804521317
 30
0.0
 11
112.4760689177
 21
131.9804521317
 31
0.0
  0
LINE
  5
FF
330
1F
100
AcDbEntity
  8
0
  6
HIDDEN
 62
     7
370
     0
100
AcDbLine
 10
201.9307694561
 20
130.1469934343
 30
0.0
 11
201.9307694561
 21
133.3009733255
 31
0.0
  0
LINE
  5
100
330
1F
100
AcDbEntity
  8
0
  6
HIDDEN
 62
     7
370
     0
100
AcDbLine
 10
201.9307694561
 20
95.1210251693
 30
0.0
 11
201.9307694561
 21
126.8398790942
 31
0.0
  0
LINE
  5
101
330
1F
100
AcDbEntity
  8
0
  6
HIDDEN
 62
     7
370
     0
100
AcDbLine
 10
201.9307694561
 20
88.659930938
 30
0.0
 11
201.9307694561
 21
91.8139108292
 31
0.0
  0
LINE
  5
102
330
1F
100
AcDbEntity
  8
0
  6
HIDDEN
 62
     7
370
     0
100
AcDbLine
 10
146.0091540266
 20
89.9804521317
 30
0.0
 11
146.0091540266
 21
131.9804521317
 31
0.0
  0
LINE
  5
103
330
1F
100
AcDbEntity
  8
0
  6
HIDDEN
 62
     7
370
     0
100
AcDbLine
 10
148.9307694561
 20
91.7554521317
 30
0.0
 11
148.9307694561
 21
130.2054521315
 31
0.0
  0
SPLINE
  5
104
330
1F
100
AcDbEntity
  8
0
  6
HIDDEN
 62
     7
370
     0
100
AcDbSpline
210
0.0
220
0.0
230
1.0
 70
     8
 71
     3
 72
    18
 73
    14
 74
     0
 42
0.000000001
 43
0.00000001
 40
0.0
 40
0.0
 40
0.0
 40
0.0
 40
0.2499999999999984
 40
0.2499999999999984
 40
0.3749999999999984
 40
0.3749999999999984
 40
0.4999999999999986
 40
0.4999999999999986
 40
0.6249999999999987
 40
0.6249999999999987
 40
0.7499999999999987
 40
0.7499999999999987
 40
1.0
 40
1.0
 40
1.0
 40
1.0
 10
104.6807694561087
 20
131.0688965712637
 30
0.0
 10
104.6807694561088
 20
130.9935603677738
 30
0.0
 10
104.6334082571823
 20
130.9152649328139
 30
0.0
 10
104.4951219926791
 20
130.7980233552935
 30
0.0
 10
104.438688819482
 20
130.7598342243212
 30
0.0
 10
104.3053359669023
 20
130.6857290935557
 30
0.0
 10
104.227373589743
 20
130.6494369977403
 30
0.0
 10
104.0547814831264
 20
130.5823146776375
 30
0.0
 10
103.9604284278164
 20
130.5514272754174
 30
0.0
 10
103.7550655305631
 20
130.4958625081768
 30
0.0
 10
103.6428413789603
 20
130.4710635837971
 30
0.0
 10
103.2950270255793
 20
130.4110526505576
 30
0.0
 10
103.0397191944185
 20
130.3886874971676
 30
0.0
 10
102.7807694561088
 20
130.3886874971676
 30
0.0
  0
LINE
  5
105
330
1F
100
AcDbEntity
  8
0
  6
HIDDEN
 62
     7
370
     0
100
AcDbLine
 10
102.7807694561
 20
130.3886874972
 30
0.0
 11
98.2307694561
 21
130.3886874972
 31
0.0
  0
LINE
  5
106
330
1F
100
AcDbEntity
  8
0
  6
HIDDEN
 62
     7
370
     0
100
AcDbLine
 10
98.2307694561
 20
91.5722167663
 30
0.0
 11
106.7807694561
 21
91.5722167663
 31
0.0
  0
SPLINE
  5
107
330
1F
100
AcDbEntity
  8
0
  6
HIDDEN
 62
     7
370
     0
100
AcDbSpline
210
0.0
220
0.0
230
1.0
 70
     8
 71
     3
 72
    18
 73
    14
 74
     0
 42
0.000000001
 43
0.00000001
 40
0.0
 40
0.0
 40
0.0
 40
0.0
 40
0.1249999999999988
 40
0.1249999999999988
 40
0.2499999999999976
 40
0.2499999999999976
 40
0.4999999999999982
 40
0.4999999999999982
 40
0.7499999999999989
 40
0.7499999999999989
 40
0.8749999999999994
 40
0.8749999999999994
 40
1.0
 40
1.0
 40
1.0
 40
1.0
 10
106.7807694561088
 20
91.57221676630387
 30
0.0
 10
106.9100835283248
 20
91.57221676630387
 30
0.0
 10
107.0369394057277
 20
91.56680455300403
 30
0.0
 10
107.2859938137958
 20
91.54587501856368
 30
0.0
 10
107.4094622439265
 20
91.53006969251962
 30
0.0
 10
107.7581077515845
 20
91.47002750899745
 30
0.0
 10
107.9684306610328
 20
91.41211286722981
 30
0.0
 10
108.312415988197
 20
91.2784526150412
 30
0.0
 10
108.4490451191373
 20
91.20180524331857
 30
0.0
 10
108.5865530083085
 20
91.08543371054711
 30
0.0
 10
108.6219485514677
 20
91.0457226176888
 30
0.0
 10
108.6688401308571
 20
90.96793240235263
 30
0.0
 10
108.6807694561087
 20
90.92963720464493
 30
0.0
 10
108.6807694561088
 20
90.89200769220781
 30
0.0
  0
LINE
  5
108
330
1F
100
AcDbEntity
  8
0
  6
HIDDEN
 62
     7
370
     0
100
AcDbLine
 10
98.2307694561
 20
91.5722167663
 30
0.0
 11
98.2307694561
 21
130.3886874972
 31
0.0
  0
LINE
  5
109
330
1F
100
AcDbEntity
  8
0
  6
HIDDEN
 62
     7
370
     0
100
AcDbLine
 10
197.9307694561
 20
101.7800445321
 30
0.0
 11
197.9307694561
 21
120.1808597314
 31
0.0
  0
LINE
  5
10A
330
1F
100
AcDbEntity
  8
0
  6
HIDDEN
 62
     7
370
     0
100
AcDbLine
 10
197.9307694561
 20
124.9804521317
 30
0.0
 11
197.9307694561
 21
120.1808597314
 31
0.0
  0
LINE
  5
10B
330
1F
100
AcDbEntity
  8
0
  6
HIDDEN
 62
     7
370
     0
100
AcDbLine
 10
197.9307694561
 20
120.1808597314
 30
0.0
 11
201.9307694561
 21
120.1808597314
 31
0.0
  0
LINE
  5
10C
330
1F
100
AcDbEntity
  8
0
  6
HIDDEN
 62
     7
370
     0
100
AcDbLine
 10
201.9307694561
 20
130.1469934343
 30
0.0
 11
201.9307694561
 21
130.0071898199
 31
0.0
  0
LINE
  5
10D
330
1F
100
AcDbEntity
  8
0
  6
HIDDEN
 62
     7
370
     0
100
AcDbLine
 10
197.9307694561
 20
130.0071898199
 30
0.0
 11
201.9307694561
 21
130.0071898199
 31
0.0
  0
LINE
  5
10E
330
1F
100
AcDbEntity
  8
0
  6
HIDDEN
 62
     7
370
     0
100
AcDbLine
 10
197.9307694561
 20
130.1804521317
 30
0.0
 11
197.9307694561
 21
124.9804521317
 31
0.0
  0
LINE
  5
10F
330
1F
100
AcDbEntity
  8
0
  6
HIDDEN
 62
     7
370
     0
100
AcDbLine
 10
197.9307694561
 20
101.7800445321
 30
0.0
 11
197.9307694561
 21
96.9804521317
 31
0.0
  0
LINE
  5
110
330
1F
100
AcDbEntity
  8
0
  6
HIDDEN
 62
     7
370
     0
100
AcDbLine
 10
201.9307694561
 20
101.7800445321
 30
0.0
 11
197.9307694561
 21
101.7800445321
 31
0.0
  0
LINE
  5
111
330
1F
100
AcDbEntity
  8
0
  6
HIDDEN
 62
     7
370
     0
100
AcDbLine
 10
197.9307694561
 20
91.9537144435
 30
0.0
 11
201.9307694561
 21
91.9537144435
 31
0.0
  0
LINE
  5
112
330
1F
100
AcDbEntity
  8
0
  6
HIDDEN
 62
     7
370
     0
100
AcDbLine
 10
201.9307694561
 20
91.9537144435
 30
0.0
 11
201.9307694561
 21
91.8139108292
 31
0.0
  0
LINE
  5
113
330
1F
100
AcDbEntity
  8
0
  6
HIDDEN
 62
     7
370
     0
100
AcDbLine
 10
197.9307694561
 20
96.9804521317
 30
0.0
 11
197.9307694561
 21
91.7804521317
 31
0.0
  0
LINE
  5
114
330
1F
100
AcDbEntity
  8
0
  6
HIDDEN
 62
     7
370
     0
100
AcDbLine
 10
196.7307694561
 20
95.9804521317
 30
0.0
 11
196.7307694561
 21
125.9804521317
 31
0.0
  0
LINE
  5
115
330
1F
100
AcDbEntity
  8
0
  6
HIDDEN
 62
     7
370
     0
100
AcDbLine
 10
171.4807694561
 20
96.2804521317
 30
0.0
 11
171.4807694561
 21
125.680452102
 31
0.0
  0
LINE
  5
116
330
1F
100
AcDbEntity
  8
0
  6
HIDDEN
 62
     7
370
     0
100
AcDbLine
 10
173.9807694561
 20
95.9804521317
 30
0.0
 11
173.9807694561
 21
125.9804521317
 31
0.0
  0
LINE
  5
117
330
1F
100
AcDbEntity
  8
0
  6
HIDDEN
 62
     7
370
     0
100
AcDbLine
 10
98.2307694561
 20
89.0404521317
 30
0.0
 11
98.2307694561
 21
85.163320758
 31
0.0
  0
LINE
  5
118
330
1F
100
AcDbEntity
  8
0
  6
HIDDEN
 62
     7
370
     0
100
AcDbLine
 10
108.6807694561
 20
89.0404521317
 30
0.0
 11
108.6807694561
 21
83.6638852074
 31
0.0
  0
LINE
  5
119
330
1F
100
AcDbEntity
  8
0
  6
HIDDEN
 62
     7
370
     0
100
AcDbLine
 10
98.2307694561
 20
132.9204521317
 30
0.0
 11
98.2307694561
 21
136.7975835055
 31
0.0
  0
LINE
  5
11A
330
1F
100
AcDbEntity
  8
0
  6
HIDDEN
 62
     7
370
     0
100
AcDbLine
 10
104.6807694561
 20
132.9204521317
 30
0.0
 11
104.6807694561
 21
138.181058948
 31
0.0
  0
LINE
  5
11B
330
1F
100
AcDbEntity
  8
0
  6
HIDDEN
 62
     7
370
     0
100
AcDbLine
 10
158.7807694561
 20
99.9804521317
 30
0.0
 11
158.7807694561
 21
121.9804521317
 31
0.0
  0
LINE
  5
11C
330
1F
100
AcDbEntity
  8
0
  6
HIDDEN
 62
     7
370
     0
100
AcDbLine
 10
162.7807694561
 20
99.9804521317
 30
0.0
 11
162.7807694561
 21
121.9804521317
 31
0.0
  0
LINE
  5
11D
330
1F
100
AcDbEntity
  8
0
  6
HIDDEN
 62
     7
370
     0
100
AcDbLine
 10
140.4307694561
 20
70.9929540855
 30
0.0
 11
140.4307694561
 21
77.0804521317
 31
0.0
  0
LINE
  5
11E
330
1F
100
AcDbEntity
  8
0
  6
HIDDEN
 62
     7
370
     0
100
AcDbLine
 10
149.4307694561
 20
77.0804521317
 30
0.0
 11
140.4307694561
 21
77.0804521317
 31
0.0
  0
LINE
  5
11F
330
1F
100
AcDbEntity
  8
0
  6
HIDDEN
 62
     7
370
     0
100
AcDbLine
 10
152.6966914129
 20
77.0804521317
 30
0.0
 11
149.4307694561
 21
77.0804521317
 31
0.0
  0
LINE
  5
120
330
1F
100
AcDbEntity
  8
0
  6
HIDDEN
 62
     7
370
     0
100
AcDbLine
 10
162.4307694561
 20
77.0804521317
 30
0.0
 11
156.2648474993
 21
77.0804521317
 31
0.0
  0
LINE
  5
121
330
1F
100
AcDbEntity
  8
0
  6
HIDDEN
 62
     7
370
     0
100
AcDbLine
 10
149.6807694561
 20
101.7304521317
 30
0.0
 11
149.6807694561
 21
120.2304521317
 31
0.0
  0
ELLIPSE
  5
122
330
1F
100
AcDbEntity
  8
0
  6
HIDDEN
 62
     7
370
     0
100
AcDbEllipse
 10
92.0742359766
 20
110.9804521317
 30
0.0
 11
24.55447626164853
 21
-1.421085471520200E-14
 31
0.0
210
0.0
220
0.0
230
1.0
 40
0.8164965809
 41
4.896967322800383
 42
4.965822814181951
  0
ELLIPSE
  5
123
330
1F
100
AcDbEntity
  8
0
  6
HIDDEN
 62
     7
370
     0
100
AcDbEllipse
 10
92.0742359766
 20
110.9804521317
 30
0.0
 11
24.55447626164853
 21
0.0
 31
0.0
210
0.0
220
0.0
230
1.0
 40
0.8164965809
 41
1.317362492997647
 42
1.386217984379216
  0
LINE
  5
124
330
1F
100
AcDbEntity
  8
0
  6
HIDDEN
 62
     7
370
     0
100
AcDbLine
 10
197.9307694561
 20
132.2554521317
 30
0.0
 11
197.9307694561
 21
130.1804521317
 31
0.0
  0
LINE
  5
125
330
1F
100
AcDbEntity
  8
0
  6
HIDDEN
 62
     7
370
     0
100
AcDbLine
 10
197.9307694561
 20
91.7804521317
 30
0.0
 11
197.9307694561
 21
89.7054521317
 31
0.0
  0
LINE
  5
126
330
1F
100
AcDbEntity
  8
0
  6
HIDDEN
 62
     7
370
     0
100
AcDbLine
 10
149.4307694561
 20
144.8804521317
 30
0.0
 11
140.4307694561
 21
144.8804521317
 31
0.0
  0
LINE
  5
127
330
1F
100
AcDbEntity
  8
0
  6
HIDDEN
 62
     7
370
     0
100
AcDbLine
 10
162.4307694561
 20
144.8804521317
 30
0.0
 11
155.9768899292
 21
144.8804521317
 31
0.0
  0
LINE
  5
128
330
1F
100
AcDbEntity
  8
0
  6
HIDDEN
 62
     7
370
     0
100
AcDbLine
 10
152.984648983
 20
144.8804521317
 30
0.0
 11
149.4307694561
 21
144.8804521317
 31
0.0
  0
LINE
  5
129
330
1F
100
AcDbEntity
  8
0
  6
HIDDEN
 62
     7
370
     0
100
AcDbLine
 10
108.6807694561
 20
89.0404521317
 30
0.0
 11
108.6807694561
 21
90.8920076922
 31
0.0
  0
LINE
  5
12A
330
1F
100
AcDbEntity
  8
0
  6
HIDDEN
 62
     7
370
     0
100
AcDbLine
 10
98.2307694561
 20
89.0404521317
 30
0.0
 11
98.2307694561
 21
91.5722167663
 31
0.0
  0
LINE
  5
12B
330
1F
100
AcDbEntity
  8
0
  6
HIDDEN
 62
     7
370
     0
100
AcDbLine
 10
104.6807694561
 20
132.9204521317
 30
0.0
 11
104.6807694561
 21
131.0688965713
 31
0.0
  0
LINE
  5
12C
330
1F
100
AcDbEntity
  8
0
  6
HIDDEN
 62
     7
370
     0
100
AcDbLine
 10
98.2307694561
 20
132.9204521317
 30
0.0
 11
98.2307694561
 21
130.3886874972
 31
0.0
  0
LWPOLYLINE
  5
12D
330
1F
100
AcDbEntity
  8
0
  6
HIDDEN
 62
     7
370
     0
100
AcDbPolyline
 90
       17
 70
   128
 43
0.0
 10
128.7298047495
 20
81.4223864007
 10
128.4676766222
 20
81.4857817883
 10
128.084516166
 20
81.566001878
 10
127.4966014621
 20
81.6784930623
 10
126.6483694601
 20
81.8143961879
 10
125.816989303
 20
81.9197824246
 10
124.498205853
 20
82.039004231
 10
122.9951529819
 20
82.0736950337
 10
122.2174511519
 20
82.0569329424
 10
121.4856441111
 20
82.0174325226
 10
120.8208611358
 20
81.9638077319
 10
120.4425055668
 20
81.9254642853
 10
120.2307785754
 20
81.8946214246
 10
120.4392566455
 20
81.9249619297
 10
120.8147456002
 20
81.9631006256
 10
121.4735343978
 20
82.0165516171
 10
121.4735343978
 20
82.0165516171
  0
SPLINE
  5
12E
330
1F
100
AcDbEntity
  8
0
  6
HIDDEN
 62
     7
370
     0
100
AcDbSpline
210
0.0
220
0.0
230
1.0
 70
     8
 71
     3
 72
    27
 73
    23
 74
     0
 42
0.000000001
 43
0.00000001
 40
0.0
 40
0.0
 40
0.0
 40
0.0
 40
0.0004643593135785
 40
0.0442191431470633
 40
0.1004326346428108
 40
0.169094036221299
 40
0.2081596926289468
 40
0.2503480200592053
 40
0.3204110795276613
 40
0.3853832001027739
 40
0.4259218916742328
 40
0.4642214370873907
 40
0.5002983688835794
 40
0.5443581075817141
 40
0.6006719193922461
 40
0.6692406840893129
 40
0.708187651123989
 40
0.7502106365237082
 40
0.821700224375264
 40
0.8871984180824366
 40
0.9467541634662122
 40
1.0
 40
1.0
 40
1.0
 40
1.0
 10
120.2311948729817
 20
140.0661465961165
 30
0.0
 10
120.2310530804514
 20
140.0661733713023
 30
0.0
 10
120.2175507256777
 20
140.068723068788
 30
0.0
 10
120.2703774032263
 20
140.0574048640654
 30
0.0
 10
120.4298130933649
 20
140.0354486760614
 30
0.0
 10
120.7365394406546
 20
140.0035828766576
 30
0.0
 10
121.1104489915956
 20
139.9720861491427
 30
0.0
 10
121.5567306004674
 20
139.9364274355337
 30
0.0
 10
122.1793618808107
 20
139.9010012254879
 30
0.0
 10
122.8858773175205
 20
139.8855513770341
 30
0.0
 10
123.5011048688218
 20
139.8868003141591
 30
0.0
 10
124.0072062925125
 20
139.8982146849287
 30
0.0
 10
124.5351056122822
 20
139.9208832402875
 30
0.0
 10
125.1419205533896
 20
139.9683404401765
 30
0.0
 10
125.874950454032
 20
140.0445821809666
 30
0.0
 10
126.540873368735
 20
140.1291951873813
 30
0.0
 10
127.089940336367
 20
140.2108113182792
 30
0.0
 10
127.5972509892084
 20
140.2988547323542
 30
0.0
 10
128.095746529786
 20
140.3958929007719
 30
0.0
 10
128.4811324651963
 20
140.4763444790485
 30
0.0
 10
128.6951347157121
 20
140.5282655583012
 30
0.0
 10
128.7189730110021
 20
140.5352591835075
 30
0.0
 10
128.730225423891
 20
140.5385603909744
 30
0.0
  0
LINE
  5
12F
330
1F
100
AcDbEntity
  8
0
  6
HIDDEN
 62
     7
370
     0
100
AcDbLine
 10
152.5707694561
 20
136.7161884725
 30
0.0
 11
152.5707694561
 21
135.8304521317
 31
0.0
  0
LINE
  5
130
330
1F
100
AcDbEntity
  8
0
  6
HIDDEN
 62
     7
370
     0
100
AcDbLine
 10
156.3907694561
 20
136.7161884725
 30
0.0
 11
156.3907694561
 21
135.8304521317
 31
0.0
  0
LINE
  5
131
330
1F
100
AcDbEntity
  8
0
  6
HIDDEN
 62
     7
370
     0
100
AcDbLine
 10
158.0170398549
 20
142.3249492564
 30
0.0
 11
158.0170398549
 21
135.8304521317
 31
0.0
  0
CIRCLE
  5
132
330
1F
100
AcDbEntity
  8
0
  6
HIDDEN
 62
     7
370
     0
100
AcDbCircle
 10
143.4807694561
 20
110.9804521317
 30
0.0
 40
5.000000000000014
  0
LINE
  5
133
330
1F
100
AcDbEntity
  8
0
  6
HIDDEN
 62
     7
370
     0
100
AcDbLine
 10
136.4807694561
 20
79.176469576
 30
0.0
 11
136.57037108
 21
79.8140182579
 31
0.0
  0
LINE
  5
134
330
1F
100
AcDbEntity
  8
0
  6
HIDDEN
 62
     7
370
     0
100
AcDbLine
 10
136.57037108
 20
142.1468860056
 30
0.0
 11
136.4807694561
 21
142.7844346875
 31
0.0
  0
ARC
  5
135
330
1F
100
AcDbEntity
  8
0
  6
HIDDEN
 62
     7
370
     0
100
AcDbCircle
 10
135.5838325377
 20
79.9526672081
 30
0.0
 40
0.9962338214387022
100
AcDbArc
 50
352.0
 51
0.0
  0
ARC
  5
136
330
1F
100
AcDbEntity
  8
0
  6
HIDDEN
 62
     7
370
     0
100
AcDbCircle
 10
135.5838325377
 20
79.9526672081
 30
0.0
 40
0.9962338214386983
100
AcDbArc
 50
0.0
 51
25.7988228126
  0
ARC
  5
137
330
1F
100
AcDbEntity
  8
0
  6
HIDDEN
 62
     7
370
     0
100
AcDbCircle
 10
135.5838325377
 20
142.0082370554
 30
0.0
 40
0.9962338214387002
100
AcDbArc
 50
348.75
 51
8.0
  0
LWPOLYLINE
  5
138
330
1F
100
AcDbEntity
  8
0
  6
HIDDEN
 62
     7
370
     0
100
AcDbPolyline
 90
        3
 70
   128
 43
0.0
 10
136.5609240056
 20
141.8138814784
 10
136.5042325749
 20
141.6269948772
 10
136.4807694561
 20
141.5746635422
  0
LINE
  5
139
330
1F
100
AcDbEntity
  8
0
  6
HIDDEN
 62
     7
370
     0
100
AcDbLine
 10
136.5800663591
 20
79.9526672081
 30
0.0
 11
136.5800663591
 21
142.0082370554
 31
0.0
  0
ARC
  5
13A
330
1F
100
AcDbEntity
  8
0
  6
HIDDEN
 62
     7
370
     0
100
AcDbCircle
 10
128.4807694561
 20
95.9804521317
 30
0.0
 40
10.00000000000001
100
AcDbArc
 50
271.4060676628
 51
323.1301023542
  0
ARC
  5
13B
330
1F
100
AcDbEntity
  8
0
  6
HIDDEN
 62
     7
370
     0
100
AcDbCircle
 10
128.4807694561
 20
125.9804521317
 30
0.0
 40
10.00000000000001
100
AcDbArc
 50
36.8698976458
 51
88.5833416814
  0
LINE
  5
13C
330
1F
100
AcDbEntity
  8
0
  6
HIDDEN
 62
     7
370
     0
100
AcDbLine
 10
115.2473502098
 20
85.9804521317
 30
0.0
 11
120.2442061998
 21
85.9804521317
 31
0.0
  0
LINE
  5
13D
330
1F
100
AcDbEntity
  8
0
  6
HIDDEN
 62
     7
370
     0
100
AcDbLine
 10
120.2442061998
 20
135.9804521317
 30
0.0
 11
115.2473502098
 21
135.9804521317
 31
0.0
  0
ARC
  5
13E
330
1F
100
AcDbEntity
  8
0
  6
HIDDEN
 62
     7
370
     0
100
AcDbCircle
 10
115.2473502098
 20
86.7804521317
 30
0.0
 40
0.8000000000000119
100
AcDbArc
 50
210.0
 51
270.0
  0
ARC
  5
13F
330
1F
100
AcDbEntity
  8
0
  6
HIDDEN
 62
     7
370
     0
100
AcDbCircle
 10
115.2473502098
 20
135.1804521317
 30
0.0
 40
0.8000000000000114
100
AcDbArc
 50
90.0
 51
150.0
  0
LINE
  5
140
330
1F
100
AcDbEntity
  8
0
  6
HIDDEN
 62
     7
370
     0
100
AcDbLine
 10
114.5545298868
 20
135.5804521317
 30
0.0
 11
112.4760689177
 21
131.9804521317
 31
0.0
  0
LINE
  5
141
330
1F
100
AcDbEntity
  8
0
  6
HIDDEN
 62
     7
370
     0
100
AcDbLine
 10
112.4760689177
 20
89.9804521317
 30
0.0
 11
114.5545298868
 21
86.3804521317
 31
0.0
  0
LINE
  5
142
330
1F
100
AcDbEntity
  8
0
  6
HIDDEN
 62
     7
370
     0
100
AcDbLine
 10
202.4807694561
 20
134.4804521317
 30
0.0
 11
201.9307694561
 21
133.3009733255
 31
0.0
  0
LINE
  5
143
330
1F
100
AcDbEntity
  8
0
  6
HIDDEN
 62
     7
370
     0
100
AcDbLine
 10
201.9307694561
 20
88.659930938
 30
0.0
 11
202.4807694561
 21
87.4804521317
 31
0.0
  0
ARC
  5
144
330
1F
100
AcDbEntity
  8
0
  6
HIDDEN
 62
     7
370
     0
100
AcDbCircle
 10
146.9307694561
 20
91.7554521317
 30
0.0
 40
2.000000000000014
100
AcDbArc
 50
242.5607598493
 51
0.0
  0
ARC
  5
145
330
1F
100
AcDbEntity
  8
0
  6
HIDDEN
 62
     7
370
     0
100
AcDbCircle
 10
146.9307694561
 20
130.2054521317
 30
0.0
 40
2.000000000000014
100
AcDbArc
 50
0.0
 51
117.4392401507
  0
LINE
  5
146
330
1F
100
AcDbEntity
  8
0
  6
HIDDEN
 62
     7
370
     0
100
AcDbLine
 10
136.4807694561
 20
89.9804521317
 30
0.0
 11
146.0091540266
 21
89.9804521317
 31
0.0
  0
LINE
  5
147
330
1F
100
AcDbEntity
  8
0
  6
HIDDEN
 62
     7
370
     0
100
AcDbLine
 10
146.0091540266
 20
131.9804521317
 30
0.0
 11
136.4807694561
 21
131.9804521317
 31
0.0
  0
LINE
  5
148
330
1F
100
AcDbEntity
  8
0
  6
HIDDEN
 62
     7
370
     0
100
AcDbLine
 10
108.6807694561
 20
89.9804521317
 30
0.0
 11
112.4760689177
 21
89.9804521317
 31
0.0
  0
LINE
  5
149
330
1F
100
AcDbEntity
  8
0
  6
HIDDEN
 62
     7
370
     0
100
AcDbLine
 10
112.4760689177
 20
131.9804521317
 30
0.0
 11
104.6807694561
 21
131.9804521317
 31
0.0
  0
LINE
  5
14A
330
1F
100
AcDbEntity
  8
0
  6
HIDDEN
 62
     7
370
     0
100
AcDbLine
 10
201.9307694561
 20
130.1804521317
 30
0.0
 11
197.9307694561
 21
130.1804521317
 31
0.0
  0
LINE
  5
14B
330
1F
100
AcDbEntity
  8
0
  6
HIDDEN
 62
     7
370
     0
100
AcDbLine
 10
197.9307694561
 20
91.7804521317
 30
0.0
 11
201.9307694561
 21
91.7804521317
 31
0.0
  0
LINE
  5
14C
330
1F
100
AcDbEntity
  8
0
  6
HIDDEN
 62
     7
370
     0
100
AcDbLine
 10
197.9307694561
 20
126.6732724548
 30
0.0
 11
196.7307694561
 21
125.9804521317
 31
0.0
  0
LINE
  5
14D
330
1F
100
AcDbEntity
  8
0
  6
HIDDEN
 62
     7
370
     0
100
AcDbLine
 10
196.7307694561
 20
95.9804521317
 30
0.0
 11
197.9307694561
 21
95.2876318087
 31
0.0
  0
ARC
  5
14E
330
1F
100
AcDbEntity
  8
0
  6
HIDDEN
 62
     7
370
     0
100
AcDbCircle
 10
172.0807694561
 20
96.2804521317
 30
0.0
 40
0.6000000000000512
100
AcDbArc
 50
180.0
 51
270.0
  0
ARC
  5
14F
330
1F
100
AcDbEntity
  8
0
  6
HIDDEN
 62
     7
370
     0
100
AcDbCircle
 10
172.0807694561
 20
125.6804521317
 30
0.0
 40
0.6000000000000512
100
AcDbArc
 50
90.0
 51
180.0
  0
LINE
  5
150
330
1F
100
AcDbEntity
  8
0
  6
HIDDEN
 62
     7
370
     0
100
AcDbLine
 10
172.0807694561
 20
95.6804521317
 30
0.0
 11
172.7821627153
 21
95.6804521317
 31
0.0
  0
LINE
  5
151
330
1F
100
AcDbEntity
  8
0
  6
HIDDEN
 62
     7
370
     0
100
AcDbLine
 10
172.7821627153
 20
126.2804521317
 30
0.0
 11
172.0807694561
 21
126.2804521317
 31
0.0
  0
ARC
  5
152
330
1F
100
AcDbEntity
  8
0
  6
HIDDEN
 62
     7
370
     0
100
AcDbCircle
 10
172.7821627153
 20
96.2804521317
 30
0.0
 40
0.5999999999999943
100
AcDbArc
 50
270.0
 51
285.0
  0
ARC
  5
153
330
1F
100
AcDbEntity
  8
0
  6
HIDDEN
 62
     7
370
     0
100
AcDbCircle
 10
172.7821627153
 20
125.6804521317
 30
0.0
 40
0.5999999999999934
100
AcDbArc
 50
75.0
 51
90.0
  0
LINE
  5
154
330
1F
100
AcDbEntity
  8
0
  6
HIDDEN
 62
     7
370
     0
100
AcDbLine
 10
172.9374541423
 20
95.700896636
 30
0.0
 11
173.9807694561
 21
95.9804521317
 31
0.0
  0
LINE
  5
155
330
1F
100
AcDbEntity
  8
0
  6
HIDDEN
 62
     7
370
     0
100
AcDbLine
 10
173.9807694561
 20
125.9804521317
 30
0.0
 11
172.9374541423
 21
126.2600076275
 31
0.0
  0
LINE
  5
156
330
1F
100
AcDbEntity
  8
0
  6
HIDDEN
 62
     7
370
     0
100
AcDbLine
 10
173.9807694561
 20
95.9804521317
 30
0.0
 11
196.7307694561
 21
95.9804521317
 31
0.0
  0
LINE
  5
157
330
1F
100
AcDbEntity
  8
0
  6
HIDDEN
 62
     7
370
     0
100
AcDbLine
 10
196.7307694561
 20
125.9804521317
 30
0.0
 11
173.9807694561
 21
125.9804521317
 31
0.0
  0
LINE
  5
158
330
1F
100
AcDbEntity
  8
0
  6
HIDDEN
 62
     7
370
     0
100
AcDbLine
 10
158.7807694561
 20
99.9804521317
 30
0.0
 11
162.7807694561
 21
99.9804521317
 31
0.0
  0
LINE
  5
159
330
1F
100
AcDbEntity
  8
0
  6
HIDDEN
 62
     7
370
     0
100
AcDbLine
 10
162.7807694561
 20
121.9804521317
 30
0.0
 11
158.7807694561
 21
121.9804521317
 31
0.0
  0
LINE
  5
15A
330
1F
100
AcDbEntity
  8
0
  6
HIDDEN
 62
     7
370
     0
100
AcDbLine
 10
148.9307694561
 20
100.9804521317
 30
0.0
 11
149.6807694561
 21
101.7304521317
 31
0.0
  0
LINE
  5
15B
330
1F
100
AcDbEntity
  8
0
  6
HIDDEN
 62
     7
370
     0
100
AcDbLine
 10
149.6807694561
 20
120.2304521317
 30
0.0
 11
148.9307694561
 21
120.9804521317
 31
0.0
  0
LINE
  5
15C
330
1F
100
AcDbEntity
  8
0
  6
HIDDEN
 62
     7
370
     0
100
AcDbLine
 10
201.9307694561
 20
132.2554521317
 30
0.0
 11
197.9307694561
 21
132.2554521317
 31
0.0
  0
LINE
  5
15D
330
1F
100
AcDbEntity
  8
0
  6
HIDDEN
 62
     7
370
     0
100
AcDbLine
 10
197.9307694561
 20
89.7054521317
 30
0.0
 11
201.9307694561
 21
89.7054521317
 31
0.0
  0
LINE
  5
15E
330
1F
100
AcDbEntity
  8
0
  6
HIDDEN
 62
     7
370
     0
100
AcDbLine
 10
149.6807694561
 20
101.7304521317
 30
0.0
 11
158.7807694561
 21
101.7304521317
 31
0.0
  0
LINE
  5
15F
330
1F
100
AcDbEntity
  8
0
  6
HIDDEN
 62
     7
370
     0
100
AcDbLine
 10
158.7807694561
 20
120.2304521317
 30
0.0
 11
149.6807694561
 21
120.2304521317
 31
0.0
  0
LINE
  5
160
330
1F
100
AcDbEntity
  8
0
  6
HIDDEN
 62
     7
370
     0
100
AcDbLine
 10
140.4307694561
 20
150.9804521317
 30
0.0
 11
140.4307694561
 21
144.8804521317
 31
0.0
  0
LINE
  5
161
330
1F
100
AcDbEntity
  8
0
  6
HIDDEN
 62
     7
370
     0
100
AcDbLine
 10
162.7807694561
 20
105.8804521317
 30
0.0
 11
171.4807694561
 21
105.8804521317
 31
0.0
  0
LINE
  5
162
330
1F
100
AcDbEntity
  8
0
  6
HIDDEN
 62
     7
370
     0
100
AcDbLine
 10
171.4807694561
 20
116.0804521317
 30
0.0
 11
162.7807694561
 21
116.0804521317
 31
0.0
  0
LINE
  5
163
330
1F
100
AcDbEntity
  8
0
  6
HIDDEN
 62
     7
370
     0
100
AcDbLine
 10
129.1718392721
 20
80.9398289015
 30
0.0
 11
128.7307738335
 21
81.4221517164
 31
0.0
  0
LINE
  5
164
330
1F
100
AcDbEntity
  8
0
  6
HIDDEN
 62
     7
370
     0
100
AcDbLine
 10
120.2307703686
 20
81.8946204129
 30
0.0
 11
119.7413765964
 21
81.4122976238
 31
0.0
  0
LINE
  5
165
330
1F
100
AcDbEntity
  8
0
  6
HIDDEN
 62
     7
370
     0
100
AcDbLine
 10
119.7412639083
 20
140.5486013505
 30
0.0
 11
120.2307678301
 21
140.0662269384
 31
0.0
  0
LINE
  5
166
330
1F
100
AcDbEntity
  8
0
  6
HIDDEN
 62
     7
370
     0
100
AcDbLine
 10
128.7307689528
 20
140.5387053787
 30
0.0
 11
129.1719385364
 21
141.0210797854
 31
0.0
  0
LINE
  5
167
330
1F
100
AcDbEntity
  8
0
  6
HIDDEN
 62
     7
370
     0
100
AcDbLine
 10
128.7307694561
 20
135.9767505524
 30
0.0
 11
128.7307694561
 21
140.5384989605
 31
0.0
  0
LINE
  5
168
330
1F
100
AcDbEntity
  8
0
  6
HIDDEN
 62
     7
370
     0
100
AcDbLine
 10
120.2307694561
 20
140.0661507546
 30
0.0
 11
120.2307694561
 21
135.9781734971
 31
0.0
  0
LINE
  5
169
330
1F
100
AcDbEntity
  8
0
  6
HIDDEN
 62
     7
370
     0
100
AcDbLine
 10
128.7307694561
 20
81.4224861184
 30
0.0
 11
128.7307694561
 21
85.984153711
 31
0.0
  0
LINE
  5
16A
330
1F
100
AcDbEntity
  8
0
  6
HIDDEN
 62
     7
370
     0
100
AcDbLine
 10
120.2307694561
 20
85.9827307664
 30
0.0
 11
120.2307694561
 21
81.8948183241
 31
0.0
  0
DIMENSION
  5
16B
330
1F
100
AcDbEntity
  8
VERMASSUNG
100
AcDbDimension
  2
_D
 10
96.5807694561
 20
166.2068401852
 30
0.0
 11
149.5307694561
 21
166.2068401852
 31
0.0
 70
   160
  1
<>
 71
     2
 42
-1.0
  3
SLDDIMSTYLE0
100
AcDbAlignedDimension
 13
202.4807694561
 23
137.9804521317
 33
0.0
 14
96.5807694561
 24
135.1473305674
 34
0.0
100
AcDbRotatedDimension
  0
DIMENSION
  5
176
330
1F
100
AcDbEntity
  8
VERMASSUNG
100
AcDbDimension
  2
_D_1
 10
202.4807694561
 20
160.2068401852
 30
0.0
 11
169.4807694561
 21
160.2068401852
 31
0.0
 70
   160
  1
<>
 71
     2
 42
-1.0
  3
SLDDIMSTYLE0
100
AcDbAlignedDimension
 13
136.4807694561
 23
150.4804521317
 33
0.0
 14
202.4807694561
 24
137.9804521317
 34
0.0
100
AcDbRotatedDimension
  0
DIMENSION
  5
180
330
1F
100
AcDbEntity
  8
VERMASSUNG
100
AcDbDimension
  2
_D_2
 10
202.4807694561
 20
154.2068401852
 30
0.0
 11
182.4557694561
 21
154.2068401852
 31
0.0
 70
   160
  1
<>
 71
     2
 42
-1.0
  3
SLDDIMSTYLE0
100
AcDbAlignedDimension
 13
162.4307694561
 23
148.9277840538
 33
0.0
 14
202.4807694561
 24
137.9804521317
 34
0.0
100
AcDbRotatedDimension
  0
DIMENSION
  5
18A
330
1F
100
AcDbEntity
  8
VERMASSUNG
100
AcDbDimension
  2
_D_3
 10
91.6197793516
 20
70.9804521317
 30
0.0
 11
91.6197793516
 21
110.9804521317
 31
0.0
 70
   160
  1
HSK A %%c<>
 71
     2
 42
-1.0
  3
SLDDIMSTYLE0
100
AcDbAlignedDimension
 13
136.9807694561
 23
150.9804521317
 33
0.0
 14
136.9807694561
 24
70.9804521317
 34
0.0
 50
90.0
100
AcDbRotatedDimension
  0
DIMENSION
  5
196
330
1F
100
AcDbEntity
  8
VERMASSUNG
100
AcDbDimension
  2
_D_4
 10
210.9496836687
 20
83.4804521317
 30
0.0
 11
210.9496836687
 21
110.9804521317
 31
0.0
 70
   160
  1
MBM %%c<>
 71
     2
 42
-1.0
  3
SLDDIMSTYLE0
100
AcDbAlignedDimension
 13
201.9807694561
 23
138.4804521317
 33
0.0
 14
201.9807694561
 24
83.4804521317
 34
0.0
 50
90.0
100
AcDbRotatedDimension
  0
LINE
  5
1A2
330
1F
100
AcDbEntity
  8
VERMASSUNG
  6
CENTERX2
 62
     7
370
     0
100
AcDbLine
 10
94.3457154648
 20
110.9804521317
 30
0.0
 11
204.4807694561
 21
110.9804521317
 31
0.0
  0
LINE
  5
1A3
330
1F
100
AcDbEntity
  8
VERMASSUNG
  6
CENTERX2
 62
     7
370
     0
100
AcDbLine
 10
124.4807694561
 20
142.2812873184
 30
0.0
 11
124.4807694561
 21
133.9391680442
 31
0.0
  0
LINE
  5
1A4
330
1F
100
AcDbEntity
  8
VERMASSUNG
  6
CENTERX2
 62
     7
370
     0
100
AcDbLine
 10
124.4807694561
 20
88.0217362193
 30
0.0
 11
124.4807694561
 21
79.6784930623
 31
0.0
  0
LINE
  5
1A5
330
1F
100
AcDbEntity
  8
0
  6
Continuous
 62
     7
370
    15
100
AcDbLine
 10
272.9941472179
 20
47.0674651755
 30
0.0
 11
272.8173417985
 21
47.1695659493
 31
0.0
  0
LINE
  5
1A6
330
1F
100
AcDbEntity
  8
0
  6
Continuous
 62
     7
370
    15
100
AcDbLine
 10
268.9276225699
 20
47.1695659493
 30
0.0
 11
268.7508171504
 21
47.0674651755
 31
0.0
  0
LINE
  5
1A7
330
1F
100
AcDbEntity
  8
0
  6
Continuous
 62
     7
370
    15
100
AcDbLine
 10
273.8724821842
 20
45.536849221
 30
0.0
 11
273.8724821842
 21
45.8430520255
 31
0.0
  0
LINE
  5
1A8
330
1F
100
AcDbEntity
  8
0
  6
Continuous
 62
     7
370
    15
100
AcDbLine
 10
267.8724821842
 20
45.8430520255
 30
0.0
 11
267.8724821842
 21
45.536849221
 31
0.0
  0
LINE
  5
1A9
330
1F
100
AcDbEntity
  8
0
  6
Continuous
 62
     7
370
    15
100
AcDbLine
 10
275.8414875372
 20
20.7255937959
 30
0.0
 11
276.0182355013
 21
20.827661396
 31
0.0
  0
LINE
  5
1AA
330
1F
100
AcDbEntity
  8
0
  6
Continuous
 62
     7
370
    15
100
AcDbLine
 10
285.5626255633
 20
37.3608213131
 30
0.0
 11
285.5626255633
 21
37.564923341
 31
0.0
  0
LINE
  5
1AB
330
1F
100
AcDbEntity
  8
0
  6
Continuous
 62
     7
370
    15
100
AcDbLine
 10
256.3966429996
 20
27.2997728083
 30
0.0
 11
268.9654660352
 21
20.0439457145
 31
0.0
  0
LINE
  5
1AC
330
1F
100
AcDbEntity
  8
0
  6
Continuous
 62
     7
370
    15
100
AcDbLine
 10
282.7143486089
 20
43.86028943
 30
0.0
 11
270.1455255733
 21
51.1161165238
 31
0.0
  0
LINE
  5
1AD
330
1F
100
AcDbEntity
  8
0
  6
Continuous
 62
     7
370
    15
100
AcDbLine
 10
242.8597496071
 20
27.8977721417
 30
0.0
 11
247.7966735529
 21
25.0477466123
 31
0.0
  0
LINE
  5
1AE
330
1F
100
AcDbEntity
  8
0
  6
Continuous
 62
     7
370
    15
100
AcDbLine
 10
264.6401554327
 20
61.5109819383
 30
0.0
 11
262.8581242598
 21
62.539726637
 31
0.0
  0
SPLINE
  5
1AF
330
1F
100
AcDbEntity
  8
0
  6
Continuous
 62
     7
370
    15
100
AcDbSpline
210
0.0
220
0.0
230
1.0
 70
     8
 71
     3
 72
    34
 73
    30
 74
     0
 42
0.000000001
 43
0.00000001
 40
0.0
 40
0.0
 40
0.0
 40
0.0
 40
0.0152668430095893
 40
0.0537225556462281
 40
0.0922397348010729
 40
0.1307980082125093
 40
0.1693800049038745
 40
0.2079726478663509
 40
0.2465657227032918
 40
0.2851537714382751
 40
0.3237344429492903
 40
0.3623068990881147
 40
0.4008712827039942
 40
0.4394283479267684
 40
0.4779792154778758
 40
0.516525217508162
 40
0.5550678035133791
 40
0.593608486328486
 40
0.6321488132303339
 40
0.6706901268009909
 40
0.7092337088351123
 40
0.7477811450236521
 40
0.7863340135623529
 40
0.8248938577548802
 40
0.8634621343835669
 40
0.9020401226930341
 40
0.9406287727372025
 40
0.9792284638524374
 40
1.0
 40
1.0
 40
1.0
 40
1.0
 10
257.9242519240374
 20
63.41161337248214
 30
0.0
 10
257.7935527828851
 20
63.39831033114511
 30
0.0
 10
257.3336350461884
 20
63.35149820515132
 30
0.0
 10
256.5173308867095
 20
63.16475130297866
 30
0.0
 10
255.4822314636431
 20
62.85445161086828
 30
0.0
 10
254.4308662868435
 20
62.43894539064016
 30
0.0
 10
253.3713978668254
 20
61.92876547919433
 30
0.0
 10
252.3092842494173
 20
61.32474035140277
 30
0.0
 10
251.2506547945823
 20
60.63099027472263
 30
0.0
 10
250.2013610331512
 20
59.8513775533534
 30
0.0
 10
249.1671978234814
 20
58.99039932592193
 30
0.0
 10
248.1538360771363
 20
58.05291584819317
 30
0.0
 10
247.1668285970486
 20
57.04419928172575
 30
0.0
 10
246.2115823485643
 20
55.96989075513018
 30
0.0
 10
245.2933345667178
 20
54.8359781707865
 30
0.0
 10
244.417126095825
 20
53.64876528821323
 30
0.0
 10
243.5877749210674
 20
52.41483984001582
 30
0.0
 10
242.809850059
 20
51.14103878654836
 30
0.0
 10
242.0876480298683
 20
49.83441417515097
 30
0.0
 10
241.4251689466073
 20
48.50219565939362
 30
0.0
 10
240.8260932020397
 20
47.15174775151548
 30
0.0
 10
240.2937579562072
 20
45.79052417309602
 30
0.0
 10
239.8311520623901
 20
44.42603222366138
 30
0.0
 10
239.4408605693799
 20
43.06576989306684
 30
0.0
 10
239.1252131359779
 20
41.71727948423187
 30
0.0
 10
238.8856777536774
 20
40.38775748527527
 30
0.0
 10
238.7250848083447
 20
39.08532890480466
 30
0.0
 10
238.6525111053162
 20
38.00994794809816
 30
0.0
 10
238.6458933009769
 20
37.37786052433213
 30
0.0
 10
238.6435780050265
 20
37.1567192851076
 30
0.0
  0
SPLINE
  5
1B0
330
1F
100
AcDbEntity
  8
0
  6
Continuous
 62
     7
370
    15
100
AcDbSpline
210
0.0
220
0.0
230
1.0
 70
     8
 71
     3
 72
    13
 73
     9
 74
     0
 42
0.000000001
 43
0.00000001
 40
0.0
 40
0.0
 40
0.0
 40
0.0
 40
0.1054815979553269
 40
0.3058404064087981
 40
0.5062575600040335
 40
0.7066376658477188
 40
0.9069117732888258
 40
1.0
 40
1.0
 40
1.0
 40
1.0
 10
238.6435780050265
 20
37.1567192851076
 30
0.0
 10
238.6457926577866
 20
36.94281333222639
 30
0.0
 10
238.6522139702558
 20
36.32260009285017
 30
0.0
 10
238.724016492628
 20
35.33224653185383
 30
0.0
 10
238.8836049337315
 20
34.20750702487027
 30
0.0
 10
239.1273622095009
 20
33.14833888455644
 30
0.0
 10
239.3783835169711
 20
32.3200355338726
 30
0.0
 10
239.5759023640001
 20
31.87439933566967
 30
0.0
 10
239.638578028431
 20
31.73299234976983
 30
0.0
  0
LINE
  5
1B1
330
1F
100
AcDbEntity
  8
0
  6
Continuous
 62
     7
370
    15
100
AcDbLine
 10
253.4006505957
 20
61.9274361616
 30
0.0
 11
245.9763887174
 21
65.6264081961
 31
0.0
  0
LINE
  5
1B2
330
1F
100
AcDbEntity
  8
0
  6
Continuous
 62
     7
370
    15
100
AcDbLine
 10
231.74451015
 20
40.9734002254
 30
0.0
 11
238.6633445303
 21
36.3920354632
 31
0.0
  0
SPLINE
  5
1B3
330
1F
100
AcDbEntity
  8
0
  6
Continuous
 62
     7
370
    15
100
AcDbSpline
210
0.0
220
0.0
230
1.0
 70
     8
 71
     3
 72
    16
 73
    12
 74
     0
 42
0.000000001
 43
0.00000001
 40
0.0
 40
0.0
 40
0.0
 40
0.0
 40
0.0878876959934912
 40
0.2042768748110815
 40
0.3212123741876749
 40
0.4386986509920362
 40
0.5566616499006877
 40
0.6749874823066795
 40
0.7935568973516122
 40
0.9122668684043794
 40
1.0
 40
1.0
 40
1.0
 40
1.0
 10
253.4658172783478
 20
22.14657426834994
 30
0.0
 10
253.6895234495617
 20
22.09629182832612
 30
0.0
 10
254.2094824383026
 20
21.97942063731543
 30
0.0
 10
255.0726551590487
 20
21.91589954917647
 30
0.0
 10
256.042221528037
 20
21.93662429224256
 30
0.0
 10
257.0442014421939
 20
22.06322456708042
 30
0.0
 10
258.0712620713358
 20
22.29136534561016
 30
0.0
 10
259.1179151104633
 20
22.62005988333221
 30
0.0
 10
260.1776732421018
 20
23.05101632146941
 30
0.0
 10
261.151842593036
 20
23.52210920598274
 30
0.0
 10
261.7698905131775
 20
23.88992371147382
 30
0.0
 10
262.0325453503436
 20
24.04623563470619
 30
0.0
  0
LINE
  5
1B4
330
1F
100
AcDbEntity
  8
0
  6
Continuous
 62
     7
370
    15
100
AcDbLine
 10
250.297194332
 20
23.6042266927
 30
0.0
 11
251.5041300071
 21
22.9074775582
 31
0.0
  0
SPLINE
  5
1B5
330
1F
100
AcDbEntity
  8
0
  6
Continuous
 62
     7
370
    15
100
AcDbSpline
210
0.0
220
0.0
230
1.0
 70
     8
 71
     3
 72
    14
 73
    10
 74
     0
 42
0.000000001
 43
0.00000001
 40
0.0
 40
0.0
 40
0.0
 40
0.0
 40
0.0887971746393487
 40
0.2565833650600471
 40
0.4241350196978549
 40
0.5911636933990261
 40
0.7574894365505886
 40
0.9229899465366034
 40
1.0
 40
1.0
 40
1.0
 40
1.0
 10
275.4349566230026
 20
51.63741202423574
 30
0.0
 10
275.3905041534304
 20
51.82506606164974
 30
0.0
 10
275.2620567757479
 20
52.36730070574002
 30
0.0
 10
274.9887848368024
 20
53.21441515281983
 30
0.0
 10
274.5907455104042
 20
54.14997845784319
 30
0.0
 10
274.1169706217397
 20
55.00718593418006
 30
0.0
 10
273.5689716714595
 20
55.77692610776007
 30
0.0
 10
273.0690820872485
 20
56.34822264764121
 30
0.0
 10
272.7363663784249
 20
56.6374343012082
 30
0.0
 10
272.6307113745348
 20
56.72927444452665
 30
0.0
  0
SPLINE
  5
1B6
330
1F
100
AcDbEntity
  8
0
  6
Continuous
 62
     7
370
    15
100
AcDbSpline
210
0.0
220
0.0
230
1.0
 70
     8
 71
     3
 72
    28
 73
    24
 74
     0
 42
0.000000001
 43
0.00000001
 40
0.0
 40
0.0
 40
0.0
 40
0.0
 40
0.000591799398057
 40
0.0491089231402651
 40
0.0976750197269324
 40
0.1465609905818248
 40
0.1959501266418796
 40
0.2459030834858139
 40
0.2963673943555399
 40
0.3472200979634792
 40
0.3983195648087887
 40
0.4495432931865982
 40
0.5007976055747679
 40
0.5520235949867546
 40
0.6032007607538247
 40
0.6543236152921885
 40
0.7053956476145352
 40
0.7564253879583085
 40
0.8074240490388096
 40
0.8584042086773878
 40
0.9093791281298161
 40
0.960361310785032
 40
1.0
 40
1.0
 40
1.0
 40
1.0
 10
245.9474324051953
 20
65.63997684165105
 30
0.0
 10
245.9447398276453
 20
65.64154726496155
 30
0.0
 10
245.7213033314442
 20
65.7718647304858
 30
0.0
 10
245.2278977655907
 20
65.94152752319252
 30
0.0
 10
244.4725492774055
 20
66.13786838140811
 30
0.0
 10
243.6714520691795
 20
66.2206784222514
 30
0.0
 10
242.8373698021051
 20
66.20438174585226
 30
0.0
 10
241.9730351223708
 20
66.08419978085051
 30
0.0
 10
241.0853023859347
 20
65.86121721328162
 30
0.0
 10
240.1813062937994
 20
65.536319406616
 30
0.0
 10
239.2689815900436
 20
65.11219419436847
 30
0.0
 10
238.3562902865735
 20
64.59271410707481
 30
0.0
 10
237.4509454470407
 20
63.98278331383344
 30
0.0
 10
236.5601917731295
 20
63.28798429526785
 30
0.0
 10
235.6908098792661
 20
62.51436411132755
 30
0.0
 10
234.849191985832
 20
61.66833103283868
 30
0.0
 10
234.0414927320553
 20
60.7566836630369
 30
0.0
 10
233.2735542513901
 20
59.78660497639349
 30
0.0
 10
232.5512058794639
 20
58.76558320295501
 30
0.0
 10
231.8790691096835
 20
57.7015758366151
 30
0.0
 10
231.2648855108028
 20
56.6022267819655
 30
0.0
 10
230.7449490579966
 20
55.5611431211776
 30
0.0
 10
230.4620759802288
 20
54.88284828808042
 30
0.0
 10
230.3383438003731
 20
54.58615374596904
 30
0.0
  0
LINE
  5
1B7
330
1F
100
AcDbEntity
  8
0
  6
Continuous
 62
     7
370
    15
100
AcDbLine
 10
230.4318604877
 20
51.827987517
 30
0.0
 11
233.3034281173
 21
50.17026681
 31
0.0
  0
LINE
  5
1B8
330
1F
100
AcDbEntity
  8
0
  6
Continuous
 62
     7
370
    15
100
AcDbLine
 10
230.0299945029
 20
53.3912143109
 30
0.0
 11
230.0299945029
 21
52.7162064415
 31
0.0
  0
LINE
  5
1B9
330
1F
100
AcDbEntity
  8
0
  6
Continuous
 62
     7
370
    15
100
AcDbLine
 10
230.0299945029
 20
43.6743786494
 30
0.0
 11
230.0299945029
 21
42.9993707801
 31
0.0
  0
SPLINE
  5
1BA
330
1F
100
AcDbEntity
  8
0
  6
Continuous
 62
     7
370
    15
100
AcDbSpline
210
0.0
220
0.0
230
1.0
 70
     8
 71
     3
 72
    11
 73
     7
 74
     0
 42
0.000000001
 43
0.00000001
 40
0.0
 40
0.0
 40
0.0
 40
0.0
 40
0.1964456840010987
 40
0.5402769794510257
 40
0.8800641649217036
 40
1.0
 40
1.0
 40
1.0
 40
1.0
 10
230.2506471151415
 20
42.46616565544738
 30
0.0
 10
230.338413962618
 20
42.33674361291907
 30
0.0
 10
230.579795734336
 20
41.98079916666087
 30
0.0
 10
231.0596063948013
 20
41.49728967801259
 30
0.0
 10
231.52954919877
 20
41.09578812218122
 30
0.0
 10
231.8350648796321
 20
40.92489476697929
 30
0.0
 10
231.9147699991842
 20
40.88031088418612
 30
0.0
  0
LWPOLYLINE
  5
1BB
330
1F
100
AcDbEntity
  8
0
  6
Continuous
 62
     7
370
    15
100
AcDbPolyline
 90
       30
 70
   128
 43
0.0
 10
269.0672079714
 20
47.2447615106
 10
269.5553670776
 20
47.4407970466
 10
270.1051130223
 20
47.5716689364
 10
270.6907402962
 20
47.6312577558
 10
271.2848656187
 20
47.616777198
 10
271.8597083502
 20
47.5289043576
 10
272.3883894833
 20
47.3717480711
 10
272.846188476
 20
47.1526567917
 10
273.2116991561
 20
46.8818749842
 10
273.4678306504
 20
46.572064105
 10
273.602606535
 20
46.2377105663
 10
273.6097248392
 20
45.8944483681
 10
273.4888527192
 20
45.5583280693
 10
273.2456420207
 20
45.2450662814
 10
272.891465006
 20
44.9693107775
 10
272.4428825984
 20
44.7439555785
 10
271.9208700128
 20
44.579538043
 10
271.3498359775
 20
44.4837461522
 10
270.7564814094
 20
44.4610590285
 10
270.1685509086
 20
44.5125374966
 10
269.6135354519
 20
44.6357744805
 10
269.1173869452
 20
44.8250075559
 10
268.7033047412
 20
45.0713883943
 10
268.3906508636
 20
45.3633965018
 10
268.1940446601
 20
45.6873779036
 10
268.1226792185
 20
46.0281835895
 10
268.1798915073
 20
46.3698778645
 10
268.3630063435
 20
46.696483484
 10
268.663461481
 20
46.9927287322
 10
269.0672079714
 20
47.2447615106
  0
LWPOLYLINE
  5
1BC
330
1F
100
AcDbEntity
  8
0
  6
Continuous
 62
     7
370
    15
100
AcDbPolyline
 90
       24
 70
   128
 43
0.0
 10
272.9941472179
 20
47.0674651755
 10
273.3290159019
 20
46.8371679652
 10
273.6333682218
 20
46.5205990206
 10
273.8170565736
 20
46.1744180211
 10
273.8720528949
 20
45.8137547375
 10
273.7959535827
 20
45.454371886
 10
273.5920845419
 20
45.1119762217
 10
273.269355828
 20
44.8015320781
 10
272.8418722345
 20
44.536607354
 10
272.3283168455
 20
44.328780531
 10
271.751134496
 20
44.1871346386
 10
271.1355508242
 20
44.117860282
 10
270.5084697905
 20
44.123985083
 10
269.8972978451
 20
44.2052413583
 10
269.3287461348
 20
44.3580778189
 10
268.8276630975
 20
44.5758147781
 10
268.4159484664
 20
44.8489360858
 10
268.1115961466
 20
45.1655050303
 10
267.9279077948
 20
45.5116860298
 10
267.8729114735
 20
45.8723493134
 10
267.9490107857
 20
46.2317321649
 10
268.1528798265
 20
46.5741278292
 10
268.4756085403
 20
46.8845719728
 10
268.7508171504
 20
47.0674651755
  0
LWPOLYLINE
  5
1BD
330
1F
100
AcDbEntity
  8
0
  6
Continuous
 62
     7
370
    15
100
AcDbPolyline
 90
       24
 70
   128
 43
0.0
 10
269.7236713215
 20
46.8092799535
 10
270.1224381736
 20
46.9599471942
 10
270.5768323588
 20
47.0429192039
 10
271.0531535389
 20
47.0520423282
 10
271.5160751513
 20
46.9866399466
 10
271.9312644174
 20
46.8515626546
 10
272.267928649
 20
46.656828517
 10
272.501099
 20
46.416880074
 10
272.6134822922
 20
46.1495132038
 10
272.5967435709
 20
45.8745572842
 10
272.4521242706
 20
45.6124045378
 10
272.1903501431
 20
45.3824976346
 10
271.8308357779
 20
45.2018877178
 10
271.4002447108
 20
45.0839697987
 10
270.9305119115
 20
45.0374893099
 10
270.4564753128
 20
45.0658934967
 10
270.0132920407
 20
45.1670757505
 10
269.6338309709
 20
45.3335318464
 10
269.3462349952
 20
45.5529164971
 10
269.1718337914
 20
45.8089589469
 10
269.1235618989
 20
46.0826696985
 10
269.2049994232
 20
46.3537488776
 10
269.4101065157
 20
46.6020917817
 10
269.7236713215
 20
46.8092799535
  0
SPLINE
  5
1BE
330
1F
100
AcDbEntity
  8
0
  6
Continuous
 62
     7
370
    15
100
AcDbSpline
210
0.0
220
0.0
230
1.0
 70
     8
 71
     3
 72
    11
 73
     7
 74
     0
 42
0.000000001
 43
0.00000001
 40
0.0
 40
0.0
 40
0.0
 40
0.0
 40
0.1336647920874055
 40
0.4825473608259814
 40
0.8156356561503871
 40
1.0
 40
1.0
 40
1.0
 40
1.0
 10
269.234494037634
 20
46.35755720556916
 30
0.0
 10
269.2892308812303
 20
46.35702885082429
 30
0.0
 10
269.4868380371972
 20
46.35512142117329
 30
0.0
 10
269.8559921199533
 20
46.44514030815089
 30
0.0
 10
270.2524596903656
 20
46.7238973029249
 30
0.0
 10
270.4652608759739
 20
46.93775396423018
 30
0.0
 10
270.5410802804661
 20
47.01394942648997
 30
0.0
  0
SPLINE
  5
1BF
330
1F
100
AcDbEntity
  8
0
  6
Continuous
 62
     7
370
    15
100
AcDbSpline
210
0.0
220
0.0
230
1.0
 70
     8
 71
     3
 72
    11
 73
     7
 74
     0
 42
0.000000001
 43
0.00000001
 40
0.0
 40
0.0
 40
0.0
 40
0.0
 40
0.2164553779443431
 40
0.4403112895790549
 40
0.7519005688038752
 40
0.9999999999999999
 40
0.9999999999999999
 40
0.9999999999999999
 40
0.9999999999999999
 10
269.565895941356
 20
45.37613875936301
 30
0.0
 10
269.5431945898523
 20
45.39900495855134
 30
0.0
 10
269.4970157355745
 20
45.44551914428332
 30
0.0
 10
269.4113201156416
 20
45.62408378088024
 30
0.0
 10
269.3193961912692
 20
45.94165763985237
 30
0.0
 10
269.2605703996638
 20
46.22982019090775
 30
0.0
 10
269.234494037634
 20
46.35755720556916
 30
0.0
  0
LINE
  5
1C0
330
1F
100
AcDbEntity
  8
0
  6
Continuous
 62
     7
370
    15
100
AcDbLine
 10
269.6915745655
 20
45.3078958675
 30
0.0
 11
269.5658959414
 21
45.3761387594
 31
0.0
  0
SPLINE
  5
1C1
330
1F
100
AcDbEntity
  8
0
  6
Continuous
 62
     7
370
    15
100
AcDbSpline
210
0.0
220
0.0
230
1.0
 70
     8
 71
     3
 72
     9
 73
     5
 74
     0
 42
0.000000001
 43
0.00000001
 40
0.0
 40
0.0
 40
0.0
 40
0.0
 40
0.4174931475651705
 40
1.0
 40
1.0
 40
1.0
 40
1.0
 10
272.5104703307421
 20
45.70750475499847
 30
0.0
 10
272.4347938188919
 20
45.62964051058962
 30
0.0
 10
272.2535297375733
 20
45.44313626527934
 30
0.0
 10
272.0523235402558
 20
45.31984572982171
 30
0.0
 10
271.9351195515659
 20
45.24802814807728
 30
0.0
  0
SPLINE
  5
1C2
330
1F
100
AcDbEntity
  8
0
  6
Continuous
 62
     7
370
    15
100
AcDbSpline
210
0.0
220
0.0
230
1.0
 70
     8
 71
     3
 72
    11
 73
     7
 74
     0
 42
0.000000001
 43
0.00000001
 40
0.0
 40
0.0
 40
0.0
 40
0.0
 40
0.2164553779443451
 40
0.4403112895790554
 40
0.751900568803877
 40
0.9999999999999999
 40
0.9999999999999999
 40
0.9999999999999999
 40
0.9999999999999999
 10
272.1790684270201
 20
46.68892320120463
 30
0.0
 10
272.2017697785237
 20
46.57733317145011
 30
0.0
 10
272.2479486328015
 20
46.35033788784015
 30
0.0
 10
272.3336442527344
 20
46.02134199918575
 30
0.0
 10
272.4255681771068
 20
45.79446614912781
 30
0.0
 10
272.4843939687121
 20
45.73421358037974
 30
0.0
 10
272.5104703307421
 20
45.70750475499847
 30
0.0
  0
SPLINE
  5
1C3
330
1F
100
AcDbEntity
  8
0
  6
Continuous
 62
     7
370
    15
100
AcDbSpline
210
0.0
220
0.0
230
1.0
 70
     8
 71
     3
 72
    11
 73
     7
 74
     0
 42
0.000000001
 43
0.00000001
 40
0.0
 40
0.0
 40
0.0
 40
0.0
 40
0.2164553779443445
 40
0.4403112895790563
 40
0.7519005688038776
 40
1.0
 40
1.0
 40
1.0
 40
1.0
 10
270.5410802804661
 20
47.01394942648997
 30
0.0
 10
270.6532840555684
 20
46.94732289985362
 30
0.0
 10
270.8815278136128
 20
46.81179190893055
 30
0.0
 10
271.3050872684174
 20
46.65252931890598
 30
0.0
 10
271.7594307613654
 20
46.60772287821742
 30
0.0
 10
272.0501833137168
 20
46.66398379827437
 30
0.0
 10
272.1790684270201
 20
46.68892320120463
 30
0.0
  0
LINE
  5
1C4
330
1F
100
AcDbEntity
  8
0
  6
Continuous
 62
     7
370
    15
100
AcDbLine
 10
272.179068427
 20
45.4156163002
 30
0.0
 11
272.179068427
 21
46.6889232012
 31
0.0
  0
LINE
  5
1C5
330
1F
100
AcDbEntity
  8
0
  6
Continuous
 62
     7
370
    15
100
AcDbLine
 10
270.5410802805
 20
45.0552139498
 30
0.0
 11
270.5410802805
 21
47.0139494265
 31
0.0
  0
LWPOLYLINE
  5
1C6
330
1F
100
AcDbEntity
  8
0
  6
Continuous
 62
     7
370
    15
100
AcDbPolyline
 90
       66
 70
   128
 43
0.0
 10
266.4707424713
 20
26.3393118035
 10
266.5153064134
 20
27.4289400167
 10
266.6485821582
 20
28.5598470973
 10
266.8693253459
 20
29.7214740706
 10
267.175474957
 20
30.9029751383
 10
267.5641725549
 20
32.0933189435
 10
268.0317889749
 20
33.2813915666
 10
268.5739582085
 20
34.4561002939
 10
269.1856181677
 20
35.6064771862
 10
269.8610579481
 20
36.7217814847
 10
270.5939711507
 20
37.7915998935
 10
271.3775147622
 20
38.8059438064
 10
272.2043730471
 20
39.7553425676
 10
273.0668258523
 20
40.6309318967
 10
273.9568206884
 20
41.424536652
 10
274.8660479135
 20
42.1287471597
 10
275.7860183178
 20
42.7369883961
 10
276.7081423856
 20
43.2435813766
 10
277.6238104929
 20
43.643796179
 10
278.5244732933
 20
43.9338961057
 10
279.401721541
 20
44.1111725716
 10
280.2473646053
 20
44.1739703943
 10
281.0535069449
 20
44.1217032474
 10
281.8126218259
 20
43.9548591351
 10
282.5176215972
 20
43.674995836
 10
283.1619238659
 20
43.2847263583
 10
283.7395129554
 20
42.7876945429
 10
284.2449960718
 20
42.188541042
 10
284.6736536556
 20
41.4928599904
 10
285.0214834463
 20
40.7071467746
 10
285.2852378511
 20
39.8387373873
 10
285.4624542659
 20
38.8957399328
 10
285.5514780689
 20
37.8869589245
 10
285.5514780689
 20
36.8218130786
 10
285.4624542659
 20
35.7102473751
 10
285.2852378511
 20
34.5626402033
 10
285.0214834463
 20
33.3897064623
 10
284.6736536556
 20
32.2023975183
 10
284.2449960718
 20
31.0117989551
 10
283.7395129554
 20
29.8290270706
 10
283.1619238659
 20
28.6651250873
 10
282.5176215972
 20
27.5309600443
 10
281.8126218259
 20
26.4371213352
 10
281.0535069449
 20
25.3938218372
 10
280.2473646053
 20
24.4108025566
 10
279.401721541
 20
23.4972416796
 10
278.5244732933
 20
22.6616688779
 10
277.6238104929
 20
21.9118856697
 10
276.7081423856
 20
21.2548925787
 10
275.7860183178
 20
20.6968237725
 10
274.8660479135
 20
20.2428897891
 10
273.9568206884
 20
19.8973288878
 10
273.0668258523
 20
19.6633674777
 10
272.2043730471
 20
19.5431899933
 10
271.3775147622
 20
19.5379184995
 10
270.5939711507
 20
19.6476022148
 10
269.8610579481
 20
19.8712170519
 10
269.1856181677
 20
20.2066751794
 10
268.5739582085
 20
20.650844515
 10
268.0317889749
 20
21.1995779693
 10
267.5641725549
 20
21.847752166
 10
267.175474957
 20
22.5893152772
 10
266.8693253459
 20
23.4173435279
 10
266.6485821582
 20
24.3241058415
 10
266.5153064134
 20
25.3011360225
 10
266.4707424713
 20
26.3393118035
  0
LWPOLYLINE
  5
1C7
330
1F
100
AcDbEntity
  8
0
  6
Continuous
 62
     7
370
    15
100
AcDbPolyline
 90
       35
 70
   128
 43
0.0
 10
266.1171890807
 20
26.3393118035
 10
266.1612143017
 20
27.4319626807
 10
266.2928912655
 20
28.5655487806
 10
266.511027485
 20
29.7298041719
 10
266.813647485
 20
30.9141851775
 10
267.1980106919
 20
32.1079658596
 10
267.6606362528
 20
33.3003351555
 10
268.1973345591
 20
34.4804947841
 10
268.8032451879
 20
35.6377570372
 10
269.4728809186
 20
36.7616415686
 10
270.2001774263
 20
37.8419703059
 10
270.9785482014
 20
38.8689596247
 10
271.8009441974
 20
39.8333089509
 10
272.6599176689
 20
40.7262849875
 10
273.5476896192
 20
41.5398008052
 10
274.4562202479
 20
42.2664890789
 10
275.3772817611
 20
42.899768807
 10
276.302532883
 20
43.4339049103
 10
277.2235943961
 20
43.8640601694
 10
278.1321250249
 20
44.1863390317
 10
279.0198969751
 20
44.39782289
 10
279.8788704467
 20
44.4965965137
 10
280.7012664427
 20
44.4817653935
 10
281.4796372177
 20
44.3534638424
 10
282.2069337255
 20
44.1128537791
 10
282.8765694562
 20
43.7621142055
 10
283.4824800849
 20
43.3044214736
 10
284.0191783913
 20
42.7439205196
 10
284.4818039522
 20
42.085687327
 10
284.866167159
 20
41.3356829575
 10
285.168787159
 20
40.5006995667
 10
285.3869233786
 20
39.5882988937
 10
285.5186003423
 20
38.6067437801
 10
285.5626255633
 20
37.564923341
 10
285.5626255633
 20
37.564923341
  0
LWPOLYLINE
  5
1C8
330
1F
100
AcDbEntity
  8
0
  6
Continuous
 62
     7
370
    15
100
AcDbPolyline
 90
       18
 70
   128
 43
0.0
 10
275.8414875372
 20
20.7255937959
 10
275.3772817611
 20
20.4703302342
 10
274.4562202479
 20
20.0401749751
 10
273.5476896192
 20
19.7178961127
 10
272.6599176689
 20
19.5064122544
 10
271.8009441974
 20
19.4076386308
 10
270.9785482014
 20
19.4224697509
 10
270.2001774263
 20
19.5507713021
 10
269.4728809186
 20
19.7913813654
 10
268.8032451879
 20
20.142120939
 10
268.1973345591
 20
20.5998136709
 10
267.6606362528
 20
21.1603146248
 10
267.1980106919
 20
21.8185478174
 10
266.813647485
 20
22.568552187
 10
266.511027485
 20
23.4035355777
 10
266.2928912655
 20
24.3159362508
 10
266.1612143017
 20
25.2974913644
 10
266.1171890807
 20
26.3393118035
  0
SPLINE
  5
1C9
330
1F
100
AcDbEntity
  8
0
  6
Continuous
 62
     7
370
    15
100
AcDbSpline
210
0.0
220
0.0
230
1.0
 70
     8
 71
     3
 72
    48
 73
    44
 74
     0
 42
0.000000001
 43
0.00000001
 40
0.0
 40
0.0
 40
0.0
 40
0.0
 40
0.0312500000000004
 40
0.0312500000000004
 40
0.0625000000000009
 40
0.0625000000000009
 40
0.1250000000000017
 40
0.1250000000000017
 40
0.1562500000000024
 40
0.1562500000000024
 40
0.1875000000000031
 40
0.1875000000000031
 40
0.2187500000000037
 40
0.2187500000000037
 40
0.2500000000000044
 40
0.2500000000000044
 40
0.312500000000005
 40
0.312500000000005
 40
0.3437500000000048
 40
0.3437500000000048
 40
0.3750000000000046
 40
0.3750000000000046
 40
0.4375000000000043
 40
0.4375000000000043
 40
0.5000000000000039
 40
0.5000000000000039
 40
0.5625000000000037
 40
0.5625000000000037
 40
0.6250000000000033
 40
0.6250000000000033
 40
0.687500000000003
 40
0.687500000000003
 40
0.7500000000000026
 40
0.7500000000000026
 40
0.8125000000000022
 40
0.8125000000000022
 40
0.8750000000000019
 40
0.8750000000000019
 40
0.9062500000000014
 40
0.9062500000000014
 40
0.937500000000001
 40
0.937500000000001
 40
1.0
 40
1.0
 40
1.0
 40
1.0
 10
273.4357442659893
 20
44.56744752576545
 30
0.0
 10
273.3564429974027
 20
44.52166787785767
 30
0.0
 10
273.2725593766054
 20
44.47747754631776
 30
0.0
 10
273.095520062531
 20
44.39234640252006
 30
0.0
 10
273.0017100462554
 20
44.35116774154435
 30
0.0
 10
272.7127311091998
 20
44.23552329771687
 30
0.0
 10
272.5092677181432
 20
44.16822518059787
 30
0.0
 10
272.1886850319435
 20
44.08220595966722
 30
0.0
 10
272.0790137922106
 20
44.05603944290878
 30
0.0
 10
271.8594552951027
 20
44.00999236189305
 30
0.0
 10
271.7489711384318
 20
43.98993594255377
 30
0.0
 10
271.5266261198623
 20
43.95573770112991
 30
0.0
 10
271.4147650967404
 20
43.94159634886645
 30
0.0
 10
271.1896517379578
 20
43.9194161322898
 30
0.0
 10
271.0763964129618
 20
43.911418587301
 30
0.0
 10
270.741090245165
 20
43.89719880900849
 30
0.0
 10
270.521204259457
 20
43.90040002405013
 30
0.0
 10
270.1963646438624
 20
43.92487397382452
 30
0.0
 10
270.0884489322937
 20
43.93641385723207
 30
0.0
 10
269.8775446177768
 20
43.96595069138253
 30
0.0
 10
269.7743768385535
 20
43.98392624847495
 30
0.0
 10
269.4714535631557
 20
44.04743653665519
 30
0.0
 10
269.2782209746408
 20
44.1024915917671
 30
0.0
 10
268.9092269061524
 20
44.23942030815024
 30
0.0
 10
268.7365092418975
 20
44.32037419270552
 30
0.0
 10
268.4199301670116
 20
44.50384801351924
 30
0.0
 10
268.2749992744352
 20
44.6067537126515
 30
0.0
 10
268.0130403418838
 20
44.83546574798212
 30
0.0
 10
267.8992455231151
 20
44.95856556741352
 30
0.0
 10
267.7071092246672
 20
45.2188085889957
 30
0.0
 10
267.6283966802066
 20
45.35625475865143
 30
0.0
 10
267.5085514944212
 20
45.64523775531412
 30
0.0
 10
267.4693449862561
 20
45.7921279318623
 30
0.0
 10
267.432557820532
 20
46.0886958896336
 30
0.0
 10
267.4350623874966
 20
46.23917134786603
 30
0.0
 10
267.4867652711838
 20
46.53771051470859
 30
0.0
 10
267.5350440694756
 20
46.68165250496794
 30
0.0
 10
267.6421440036208
 20
46.88786365567411
 30
0.0
 10
267.683667129564
 20
46.95497615377996
 30
0.0
 10
267.7791328248138
 20
47.08553867675537
 30
0.0
 10
267.8333798650055
 20
47.14917009545889
 30
0.0
 10
268.0107479084645
 20
47.32852917974722
 30
0.0
 10
268.1494875271439
 20
47.43471527821532
 30
0.0
 10
268.3092201023868
 20
47.52692693112279
 30
0.0
  0
SPLINE
  5
1CA
330
1F
100
AcDbEntity
  8
0
  6
Continuous
 62
     7
370
    15
100
AcDbSpline
210
0.0
220
0.0
230
1.0
 70
     8
 71
     3
 72
    52
 73
    48
 74
     0
 42
0.000000001
 43
0.00000001
 40
0.0
 40
0.0
 40
0.0
 40
0.0
 40
0.0312500000000007
 40
0.0312500000000007
 40
0.0625000000000013
 40
0.0625000000000013
 40
0.093750000000002
 40
0.093750000000002
 40
0.1250000000000026
 40
0.1250000000000026
 40
0.187500000000004
 40
0.187500000000004
 40
0.2500000000000054
 40
0.2500000000000054
 40
0.3125000000000069
 40
0.3125000000000069
 40
0.3750000000000083
 40
0.3750000000000083
 40
0.4375000000000097
 40
0.4375000000000097
 40
0.4687500000000099
 40
0.4687500000000099
 40
0.5000000000000101
 40
0.5000000000000101
 40
0.5625000000000097
 40
0.5625000000000097
 40
0.5937500000000094
 40
0.5937500000000094
 40
0.6250000000000092
 40
0.6250000000000092
 40
0.6875000000000079
 40
0.6875000000000079
 40
0.7187500000000072
 40
0.7187500000000072
 40
0.7500000000000064
 40
0.7500000000000064
 40
0.8125000000000051
 40
0.8125000000000051
 40
0.8437500000000041
 40
0.8437500000000041
 40
0.8750000000000031
 40
0.8750000000000031
 40
0.9375000000000016
 40
0.9375000000000016
 40
0.9687500000000008
 40
0.9687500000000008
 40
1.0
 40
1.0
 40
1.0
 40
1.0
 10
268.3092201023868
 20
47.52692693112279
 30
0.0
 10
268.3891018271698
 20
47.57304166926022
 30
0.0
 10
268.4748760178593
 20
47.6158464832894
 30
0.0
 10
268.6527820684977
 20
47.69214655642507
 30
0.0
 10
268.7452198251041
 20
47.72590130995613
 30
0.0
 10
268.9368258739049
 20
47.78502751542368
 30
0.0
 10
269.0359947689054
 20
47.81039804109903
 30
0.0
 10
269.2410501462282
 20
47.85294322959663
 30
0.0
 10
269.3470898061083
 20
47.87007135833977
 30
0.0
 10
269.6675205579219
 20
47.90855856554365
 30
0.0
 10
269.8866687139873
 20
47.91774182663062
 30
0.0
 10
270.3356104001458
 20
47.90713938074514
 30
0.0
 10
270.5621047005553
 20
47.88730032811759
 30
0.0
 10
271.0126337499743
 20
47.82322415254022
 30
0.0
 10
271.2329124166477
 20
47.77961864587151
 30
0.0
 10
271.6622828472035
 20
47.67402674011993
 30
0.0
 10
271.8724224942655
 20
47.611728216853
 30
0.0
 10
272.27991261771
 20
47.47100348152281
 30
0.0
 10
272.4726804967834
 20
47.39423300197964
 30
0.0
 10
272.7462611829361
 20
47.27080773243193
 30
0.0
 10
272.8348409959116
 20
47.22827120951658
 30
0.0
 10
273.0067110832485
 20
47.14044797468282
 30
0.0
 10
273.0903651967789
 20
47.09493816838131
 30
0.0
 10
273.3293551544915
 20
46.9563993923624
 30
0.0
 10
273.4734438277085
 20
46.86120117577845
 30
0.0
 10
273.6671560348001
 20
46.7139065150815
 30
0.0
 10
273.7279667011994
 20
46.66404816921417
 30
0.0
 10
273.8418485677764
 20
46.56263607066589
 30
0.0
 10
273.8950760622498
 20
46.51087734610235
 30
0.0
 10
274.0399068990131
 20
46.35563435464796
 30
0.0
 10
274.1177818611131
 20
46.25145630806003
 30
0.0
 10
274.2062274370319
 20
46.09271539022032
 30
0.0
 10
274.2309503307689
 20
46.03938386789898
 30
0.0
 10
274.2703927139179
 20
45.93155262773234
 30
0.0
 10
274.2850712342703
 20
45.8769247770574
 30
0.0
 10
274.3125817335518
 20
45.7144280425648
 30
0.0
 10
274.3096086938718
 20
45.60677733694788
 30
0.0
 10
274.2714877076561
 20
45.44449484221562
 30
0.0
 10
274.2531299730009
 20
45.39026676509306
 30
0.0
 10
274.2042308759475
 20
45.28121939078745
 30
0.0
 10
274.17378379447
 20
45.22678901330213
 30
0.0
 10
274.0660347420165
 20
45.06651250816299
 30
0.0
 10
273.9719947418401
 20
44.96240083880831
 30
0.0
 10
273.7953343273526
 20
44.80944832237051
 30
0.0
 10
273.7299042471855
 20
44.75864944608652
 30
0.0
 10
273.5897935455329
 20
44.66061434353596
 30
0.0
 10
273.5150608625262
 20
44.61323602231067
 30
0.0
 10
273.4357442659893
 20
44.56744752576545
 30
0.0
  0
LWPOLYLINE
  5
1CB
330
1F
100
AcDbEntity
  8
0
  6
Continuous
 62
     7
370
    15
100
AcDbPolyline
 90
       62
 70
   128
 43
0.0
 10
267.7081793384
 20
27.0536689013
 10
267.7522154466
 20
28.0655915061
 10
267.8838569777
 20
29.117630488
 10
268.1017084986
 20
30.198633972
 10
268.403460729
 20
31.2971430522
 10
268.7859150202
 20
32.4015132591
 10
269.2450172616
 20
33.5000379938
 10
269.7759008552
 20
34.5810726208
 10
270.3729383028
 20
35.6331579042
 10
271.029800859
 20
36.6451414781
 10
271.7395256173
 20
37.6062960651
 10
272.4945893186
 20
38.5064331873
 10
273.2869881
 20
39.3360111673
 10
274.1083223371
 20
40.0862362722
 10
274.9498856828
 20
40.7491559292
 10
275.8027573562
 20
41.317743025
 10
276.6578967055
 20
41.785970395
 10
277.5062390407
 20
42.1488747125
 10
278.3387917222
 20
42.4026091016
 10
279.1467294843
 20
42.5444839146
 10
279.9214879858
 20
42.5729952431
 10
280.6548545938
 20
42.48784086
 10
281.3390554398
 20
42.289923423
 10
281.9668378248
 20
41.981340906
 10
282.5315470991
 20
41.5653643606
 10
283.0271972041
 20
41.0464032416
 10
283.4485341253
 20
40.429958666
 10
283.7910915865
 20
39.7225650996
 10
284.0512383934
 20
38.9317210903
 10
284.2262169252
 20
38.0658097812
 10
284.3141723659
 20
37.1340100476
 10
284.3141723659
 20
36.1461991985
 10
284.2262169252
 20
35.1128482747
 10
284.0512383934
 20
34.0449110531
 10
283.7910915865
 20
32.9537079337
 10
283.4485341253
 20
31.8508059413
 10
283.0271972041
 20
30.7478961112
 10
282.5315470991
 20
29.656669562
 10
281.9668378248
 20
28.5886935666
 10
281.3390554398
 20
27.5552889363
 10
280.6548545938
 20
26.5674100172
 10
279.9214879858
 20
25.6355285716
 10
279.1467294843
 20
24.7695227746
 10
278.3387917222
 20
23.9785725032
 10
277.5062390407
 20
23.271062027
 10
276.6578967055
 20
22.654491133
 10
275.8027573562
 20
22.1353956261
 10
274.9498856828
 20
21.7192780478
 10
274.1083223371
 20
21.410549348
 10
273.2869881
 20
21.2124821276
 10
272.4945893186
 20
21.1271759485
 10
271.7395256173
 20
21.1555350775
 10
271.029800859
 20
21.2972589006
 10
270.3729383028
 20
21.5508451101
 10
269.7759008552
 20
21.9136056291
 10
269.2450172616
 20
22.3816951059
 10
268.7859150202
 20
22.9501516755
 10
268.403460729
 20
23.6129495569
 10
268.1017084986
 20
24.3630629277
 10
267.8838569777
 20
25.1925403995
 10
267.7522154466
 20
26.0925893048
 10
267.7081793384
 20
27.0536689013
  0
SPLINE
  5
1CC
330
1F
100
AcDbEntity
  8
0
  6
Continuous
 62
     7
370
    15
100
AcDbSpline
210
0.0
220
0.0
230
1.0
 70
     8
 71
     3
 72
    18
 73
    14
 74
     0
 42
0.000000001
 43
0.00000001
 40
0.0
 40
0.0
 40
0.0
 40
0.0
 40
0.25
 40
0.25
 40
0.375
 40
0.375
 40
0.5
 40
0.5
 40
0.625
 40
0.625
 40
0.75
 40
0.75
 40
1.0
 40
1.0
 40
1.0
 40
1.0
 10
270.2150754770446
 20
22.31301100075175
 30
0.0
 10
270.0914678175734
 20
22.27350457647453
 30
0.0
 10
269.9702251267499
 20
22.2674540554422
 30
0.0
 10
269.7927406140297
 20
22.30913132267876
 30
0.0
 10
269.7342909177614
 20
22.33180432060438
 30
0.0
 10
269.6227670785728
 20
22.39312175569041
 30
0.0
 10
269.5691882198282
 20
22.43183389549245
 30
0.0
 10
269.4664254663899
 20
22.52538271920929
 30
0.0
 10
269.4168676917897
 20
22.5807688383044
 30
0.0
 10
269.324488995546
 20
22.70561218855493
 30
0.0
 10
269.2817024078254
 20
22.7747871652495
 30
0.0
 10
269.1631301940059
 20
23.00194927163956
 30
0.0
 10
269.096723646679
 20
23.18141011078647
 30
0.0
 10
269.0458339890245
 20
23.38021182387637
 30
0.0
  0
LWPOLYLINE
  5
1CD
330
1F
100
AcDbEntity
  8
0
  6
Continuous
 62
     7
370
    15
100
AcDbPolyline
 90
       16
 70
   128
 43
0.0
 10
281.4293838279
 20
28.7868934113
 10
280.8142681915
 20
27.7863745137
 10
280.1437811306
 20
26.8321750098
 10
279.4253596519
 20
25.9348788293
 10
278.666972448
 20
25.1044387335
 10
277.8770315092
 20
24.3500659194
 10
277.0642988181
 20
23.6801278501
 10
276.2377891623
 20
23.1020554426
 10
275.4066701427
 20
22.6222606453
 10
274.5801604869
 20
22.2460653163
 10
273.7674277958
 20
21.9776421941
 10
272.977486857
 20
21.8199686137
 10
272.2190996531
 20
21.7747934819
 10
271.5006781744
 20
21.8426178789
 10
270.8301911135
 20
22.0226895001
 10
270.215075477
 20
22.3130110008
  0
SPLINE
  5
1CE
330
1F
100
AcDbEntity
  8
0
  6
Continuous
 62
     7
370
    15
100
AcDbSpline
210
0.0
220
0.0
230
1.0
 70
     8
 71
     3
 72
    18
 73
    14
 74
     0
 42
0.000000001
 43
0.00000001
 40
0.0
 40
0.0
 40
0.0
 40
0.0
 40
0.2500000000000002
 40
0.2500000000000002
 40
0.3749999999999999
 40
0.3749999999999999
 40
0.4999999999999997
 40
0.4999999999999997
 40
0.6249999999999994
 40
0.6249999999999994
 40
0.7499999999999991
 40
0.7499999999999991
 40
1.0
 40
1.0
 40
1.0
 40
1.0
 10
282.5986253159632
 20
31.20407172137753
 30
0.0
 10
282.6117610484138
 20
30.98351481407327
 30
0.0
 10
282.5951730193481
 20
30.76067257794834
 30
0.0
 10
282.5255506087691
 20
30.42264040541743
 30
0.0
 10
282.4945931701293
 20
30.30923714677968
 30
0.0
 10
282.4193405235775
 20
30.08850485361913
 30
0.0
 10
282.374892839127
 20
29.98022713397972
 30
0.0
 10
282.2723502849985
 20
29.76784506599171
 30
0.0
 10
282.2136949999101
 20
29.66291699807329
 30
0.0
 10
282.0849976563584
 20
29.46210748570813
 30
0.0
 10
282.0152147460175
 20
29.3663583313625
 30
0.0
 10
281.7900182819664
 20
29.09267811747047
 30
0.0
 10
281.6170406627948
 20
28.92708169491875
 30
0.0
 10
281.4293838279431
 20
28.78689341126372
 30
0.0
  0
LWPOLYLINE
  5
1CF
330
1F
100
AcDbEntity
  8
0
  6
Continuous
 62
     7
370
    15
100
AcDbPolyline
 90
       11
 70
   128
 43
0.0
 10
282.598625316
 20
40.5444335234
 10
282.9938107944
 20
39.9050728582
 10
283.3060218901
 20
39.1738154716
 10
283.531646356
 20
38.359121929
 10
283.6680737425
 20
37.4704181425
 10
283.7137256003
 20
36.5179863143
 10
283.6680737425
 20
35.5128459731
 10
283.531646356
 20
34.4666264788
 10
283.3060218901
 20
33.3914324728
 10
282.9938107944
 20
32.299703828
 10
282.598625316
 20
31.2040717214
  0
SPLINE
  5
1D0
330
1F
100
AcDbEntity
  8
0
  6
Continuous
 62
     7
370
    15
100
AcDbSpline
210
0.0
220
0.0
230
1.0
 70
     8
 71
     3
 72
    18
 73
    14
 74
     0
 42
0.000000001
 43
0.00000001
 40
0.0
 40
0.0
 40
0.0
 40
0.0
 40
0.2499999999999989
 40
0.2499999999999989
 40
0.3749999999999991
 40
0.3749999999999991
 40
0.4999999999999992
 40
0.4999999999999992
 40
0.6249999999999994
 40
0.6249999999999994
 40
0.7499999999999996
 40
0.7499999999999996
 40
1.0
 40
1.0
 40
1.0
 40
1.0
 10
281.4293838279431
 20
41.6116343465194
 30
0.0
 10
281.6170080272635
 20
41.61418480897145
 30
0.0
 10
281.7864632350512
 20
41.59240283639166
 30
0.0
 10
282.0134662578151
 20
41.52213914178606
 30
0.0
 10
282.0844856491053
 20
41.49220981337969
 30
0.0
 10
282.2125787793169
 20
41.421327130188
 30
0.0
 10
282.2703186439437
 20
41.38021289282032
 30
0.0
 10
282.3731818217518
 20
41.28660609534877
 30
0.0
 10
282.4185940186842
 20
41.23361316730075
 30
0.0
 10
282.4943819770634
 20
41.11834744615388
 30
0.0
 10
282.5248257733043
 20
41.05629781131339
 30
0.0
 10
282.5944511018878
 20
40.85739214031493
 30
0.0
 10
282.6117633332556
 20
40.70627284650444
 30
0.0
 10
282.5986253159632
 20
40.54443352339479
 30
0.0
  0
LWPOLYLINE
  5
1D1
330
1F
100
AcDbEntity
  8
0
  6
Continuous
 62
     7
370
    15
100
AcDbPolyline
 90
       16
 70
   128
 43
0.0
 10
270.215075477
 20
35.137751936
 10
270.8301911135
 20
36.1382708335
 10
271.5006781744
 20
37.0924703375
 10
272.2190996531
 20
37.989766518
 10
272.977486857
 20
38.8202066138
 10
273.7674277958
 20
39.5745794278
 10
274.5801604869
 20
40.2445174972
 10
275.4066701427
 20
40.8225899047
 10
276.2377891623
 20
41.302384702
 10
277.0642988181
 20
41.678580031
 10
277.8770315092
 20
41.9470031531
 10
278.666972448
 20
42.1046767336
 10
279.4253596519
 20
42.1498518653
 10
280.1437811306
 20
42.0820274683
 10
280.8142681915
 20
41.9019558471
 10
281.4293838279
 20
41.6116343465
  0
SPLINE
  5
1D2
330
1F
100
AcDbEntity
  8
0
  6
Continuous
 62
     7
370
    15
100
AcDbSpline
210
0.0
220
0.0
230
1.0
 70
     8
 71
     3
 72
    18
 73
    14
 74
     0
 42
0.000000001
 43
0.00000001
 40
0.0
 40
0.0
 40
0.0
 40
0.0
 40
0.2500000000000005
 40
0.2500000000000005
 40
0.3750000000000004
 40
0.3750000000000004
 40
0.5000000000000003
 40
0.5000000000000003
 40
0.6250000000000002
 40
0.6250000000000002
 40
0.7500000000000001
 40
0.7500000000000001
 40
1.0
 40
1.0
 40
1.0
 40
1.0
 10
269.0458339890245
 20
32.72057362589363
 30
0.0
 10
269.0967147964231
 20
32.90417457137271
 30
0.0
 10
269.161515342453
 20
33.09918431388552
 30
0.0
 10
269.2806562630757
 20
33.40863005904741
 30
0.0
 10
269.3241833967373
 20
33.51477698720439
 30
0.0
 10
269.4160053343123
 20
33.72594403225929
 30
0.0
 10
269.4646140246449
 20
33.83181965433306
 30
0.0
 10
269.5672570031432
 20
34.04414374856635
 30
0.0
 10
269.6217667105639
 20
34.15146500753187
 30
0.0
 10
269.733873316251
 20
34.36185214900068
 30
0.0
 10
269.7913134351122
 20
34.46472664520039
 30
0.0
 10
269.9675630139273
 20
34.76666329448403
 30
0.0
 10
270.0914463171399
 20
34.96060126237217
 30
0.0
 10
270.2150754770446
 20
35.13775193600743
 30
0.0
  0
LWPOLYLINE
  5
1D3
330
1F
100
AcDbEntity
  8
0
  6
Continuous
 62
     7
370
    15
100
AcDbPolyline
 90
       11
 70
   128
 43
0.0
 10
269.045833989
 20
23.3802118239
 10
268.6506485106
 20
24.0195724891
 10
268.3384374149
 20
24.7508298757
 10
268.112812949
 20
25.5655234183
 10
267.9763855624
 20
26.4542272048
 10
267.9307337046
 20
27.406659033
 10
267.9763855624
 20
28.4117993742
 10
268.112812949
 20
29.4580188685
 10
268.3384374149
 20
30.5332128745
 10
268.6506485106
 20
31.6249415193
 10
269.045833989
 20
32.7205736259
  0
SPLINE
  5
1D4
330
1F
100
AcDbEntity
  8
0
  6
Continuous
 62
     7
370
    15
100
AcDbSpline
210
0.0
220
0.0
230
1.0
 70
     8
 71
     3
 72
    14
 73
    10
 74
     0
 42
0.000000001
 43
0.00000001
 40
0.0
 40
0.0
 40
0.0
 40
0.0
 40
0.25
 40
0.25
 40
0.5
 40
0.5
 40
0.75
 40
0.75
 40
1.0
 40
1.0
 40
1.0
 40
1.0
 10
248.5292677887977
 20
36.41319543123174
 30
0.0
 10
248.4818469321443
 20
36.38581995338913
 30
0.0
 10
248.4263138627546
 20
36.3639736606145
 30
0.0
 10
248.3039438917783
 20
36.33327568108651
 30
0.0
 10
248.2378343686264
 20
36.32474785250485
 30
0.0
 10
248.1049763881138
 20
36.32286132891365
 30
0.0
 10
248.037786439909
 20
36.32961104725143
 30
0.0
 10
247.9144367134438
 20
36.35764572330082
 30
0.0
 10
247.8571545400227
 20
36.37924585905318
 30
0.0
 10
247.8102533958371
 20
36.4063213132743
 30
0.0
  0
SPLINE
  5
1D5
330
1F
100
AcDbEntity
  8
0
  6
Continuous
 62
     7
370
    15
100
AcDbSpline
210
0.0
220
0.0
230
1.0
 70
     8
 71
     3
 72
    12
 73
     8
 74
     0
 42
0.000000001
 43
0.00000001
 40
0.0
 40
0.0
 40
0.0
 40
0.0
 40
0.249999999999998
 40
0.249999999999998
 40
0.499999999999996
 40
0.499999999999996
 40
1.0
 40
1.0
 40
1.0
 40
1.0
 10
270.2891190897092
 20
58.09742076571351
 30
0.0
 10
270.3425907009208
 20
58.06655226161563
 30
0.0
 10
270.3950492407983
 20
58.01785837759811
 30
0.0
 10
270.4861040724599
 20
57.90158205244047
 30
0.0
 10
270.5247280120308
 20
57.83437351090998
 30
0.0
 10
270.614651703626
 20
57.63083740970046
 30
0.0
 10
270.6426724803025
 20
57.49040173748298
 30
0.0
 10
270.6426724803025
 20
57.36804020971635
 30
0.0
  0
LINE
  5
1D6
330
1F
100
AcDbEntity
  8
0
  6
Continuous
 62
     7
370
    15
100
AcDbLine
 10
247.8102533958
 20
36.4063213133
 30
0.0
 11
246.6033177208
 21
37.1030704478
 31
0.0
  0
LWPOLYLINE
  5
1D7
330
1F
100
AcDbEntity
  8
0
  6
Continuous
 62
     7
370
    15
100
AcDbPolyline
 90
       26
 70
   128
 43
0.0
 10
246.6033177208
 20
37.1030704478
 10
246.9275214923
 20
38.5336724136
 10
247.3362562685
 20
39.9793959799
 10
247.8269376285
 20
41.4310998688
 10
248.396463005
 20
42.8796049891
 10
249.0412313017
 20
44.3157524751
 10
249.7571656632
 20
45.7304615983
 10
250.5397392523
 20
47.1147871846
 10
251.3840038738
 20
48.459976174
 10
252.2846212612
 20
49.7575229667
 10
253.2358968309
 20
50.9992232031
 10
254.2318156887
 20
52.1772256404
 10
255.2660806619
 20
53.2840817955
 10
256.3321521162
 20
54.3127930415
 10
257.4232893054
 20
55.2568548602
 10
258.5325929934
 20
56.1102979697
 10
259.6530490779
 20
56.8677260684
 10
260.7775729399
 20
57.5243499552
 10
261.8990542402
 20
58.076017812
 10
263.0104018775
 20
58.5192414552
 10
264.1045888254
 20
58.8512183915
 10
265.1746965644
 20
59.0698495383
 10
266.213958827
 20
59.1737524956
 10
267.2158043812
 20
59.1622702874
 10
268.1738985798
 20
59.0354755155
 10
269.0821834146
 20
58.7941699002
  0
LINE
  5
1D8
330
1F
100
AcDbEntity
  8
0
  6
Continuous
 62
     7
370
    15
100
AcDbLine
 10
269.0821834146
 20
58.7941699002
 30
0.0
 11
270.2891190897
 21
58.0974207657
 31
0.0
  0
ARC
  5
1D9
330
1F
100
AcDbEntity
  8
0
  6
Continuous
 62
     7
370
    15
100
AcDbCircle
 10
281.7119368617
 20
39.8117141286
 30
0.0
 40
1.821962954515503
100
AcDbArc
 50
98.9215321124
 51
121.0579635503
  0
LINE
  5
1DA
330
1F
100
AcDbEntity
  8
0
  6
Continuous
 62
     7
370
    15
100
AcDbLine
 10
279.0750649542
 20
40.3928845381
 30
0.0
 11
280.7719771208
 21
41.3724910804
 31
0.0
  0
LWPOLYLINE
  5
1DB
330
1F
100
AcDbEntity
  8
0
  6
Continuous
 62
     7
370
    15
100
AcDbPolyline
 90
       10
 70
   128
 43
0.0
 10
272.5693943508
 20
36.6372408399
 10
273.2460294469
 20
37.417578318
 10
273.9570933577
 20
38.1250107535
 10
274.693083294
 20
38.750083889
 10
275.4441633504
 20
39.2844441317
 10
276.2002959546
 20
39.7209501928
 10
276.951376011
 20
40.0537685248
 10
277.6873659473
 20
40.2784512822
 10
278.3984298581
 20
40.3919957631
 10
279.0750649542
 20
40.3928845381
  0
LINE
  5
1DC
330
1F
100
AcDbEntity
  8
0
  6
Continuous
 62
     7
370
    15
100
AcDbLine
 10
270.8724821842
 20
35.6576342976
 30
0.0
 11
272.5693943508
 21
36.6372408399
 31
0.0
  0
ARC
  5
1DD
330
1F
100
AcDbEntity
  8
0
  6
Continuous
 62
     7
370
    15
100
AcDbCircle
 10
272.4612067072
 20
32.9730485442
 30
0.0
 40
3.11946249823926
100
AcDbArc
 50
120.6168359905
 51
136.0576097217
  0
LINE
  5
1DE
330
1F
100
AcDbEntity
  8
0
  6
Continuous
 62
     7
370
    15
100
AcDbLine
 10
273.8423306652
 20
50.6178451791
 30
0.0
 11
275.2732785891
 21
51.4439138322
 31
0.0
  0
LINE
  5
1DF
330
1F
100
AcDbEntity
  8
0
  6
Continuous
 62
     7
370
    15
100
AcDbLine
 10
273.8423306652
 20
48.9819963703
 30
0.0
 11
273.8423306652
 21
50.6178451791
 31
0.0
  0
LINE
  5
1E0
330
1F
100
AcDbEntity
  8
0
  6
Continuous
 62
     7
370
    15
100
AcDbLine
 10
248.5292677888
 20
28.2477873124
 30
0.0
 11
249.8714107829
 21
29.0225899708
 31
0.0
  0
LINE
  5
1E1
330
1F
100
AcDbEntity
  8
0
  6
Continuous
 62
     7
370
    15
100
AcDbLine
 10
249.8714107829
 20
29.0225899708
 30
0.0
 11
249.8714107829
 21
37.1879980896
 31
0.0
  0
LINE
  5
1E2
330
1F
100
AcDbEntity
  8
0
  6
Continuous
 62
     7
370
    15
100
AcDbLine
 10
249.8714107829
 20
37.1879980896
 30
0.0
 11
248.5292677888
 21
36.4131954312
 31
0.0
  0
LINE
  5
1E3
330
1F
100
AcDbEntity
  8
0
  6
Continuous
 62
     7
370
    15
100
AcDbLine
 10
270.6426724803
 20
57.3680402097
 30
0.0
 11
270.6426724803
 21
55.2418077603
 31
0.0
  0
LINE
  5
1E4
330
1F
100
AcDbEntity
  8
0
  6
Continuous
 62
     7
370
    15
100
AcDbLine
 10
272.4839440512
 20
56.3047512127
 30
0.0
 11
270.6426724803
 21
55.2418077603
 31
0.0
  0
ARC
  5
1E5
330
1F
100
AcDbEntity
  8
0
  6
Continuous
 62
     7
370
    15
100
AcDbCircle
 10
280.6148769298
 20
29.0775990601
 30
0.0
 40
11.76566298432421
100
AcDbArc
 50
146.059097156
 51
177.5731904596
  0
LWPOLYLINE
  5
1E6
330
1F
100
AcDbEntity
  8
0
  6
Continuous
 62
     7
370
    15
100
AcDbPolyline
 90
       37
 70
   128
 43
0.0
 10
276.6529642432
 20
39.9337302516
 10
276.7703459735
 20
39.939624021
 10
277.380917016
 20
39.9044864701
 10
277.9446036349
 20
39.7569714954
 10
278.4525161556
 20
39.4994054961
 10
278.8966444942
 20
39.1358504418
 10
279.2699844815
 20
38.6720398131
 10
279.5666483228
 20
38.1152881804
 10
279.7819574523
 20
37.4743758498
 10
279.9125163162
 20
36.7594103914
 10
279.9562659233
 20
35.9816672377
 10
279.9125163162
 20
35.1534118628
 10
279.7819574523
 20
34.2877063488
 10
279.5666483228
 20
33.3982033887
 10
279.2699844815
 20
32.4989309756
 10
278.8966444942
 20
31.6040711727
 10
278.4525161556
 20
30.7277364535
 10
277.9446036349
 20
29.8837471402
 10
277.380917016
 20
29.0854134483
 10
276.7703459735
 20
28.3453255771
 10
276.1225195776
 20
27.6751551545
 10
275.4476544375
 20
27.0854711682
 10
274.7563935796
 20
26.5855732871
 10
274.0596386006
 20
26.1833451994
 10
273.3683777427
 20
25.8851302823
 10
272.6935126026
 20
25.6956315631
 10
272.0456862067
 20
25.61783755
 10
271.4351151643
 20
25.6529751008
 10
270.8714285453
 20
25.8004900755
 10
270.3635160246
 20
26.0580560748
 10
269.919387686
 20
26.4216111291
 10
269.5460476988
 20
26.8854217578
 10
269.2493838574
 20
27.4421733905
 10
269.034074728
 20
28.0830857211
 10
268.9035158641
 20
28.7980511795
 10
268.8597662569
 20
29.5757943332
 10
268.8597662569
 20
29.5757943332
  0
LINE
  5
1E7
330
1F
100
AcDbEntity
  8
0
  6
Continuous
 62
     7
370
    15
100
AcDbLine
 10
269.4582686218
 20
23.3685623787
 30
0.0
 11
271.1551807884
 21
24.348168921
 31
0.0
  0
LINE
  5
1E8
330
1F
100
AcDbEntity
  8
0
  6
Continuous
 62
     7
370
    15
100
AcDbLine
 10
269.0980739062
 20
23.2017705448
 30
0.0
 11
269.4582686218
 21
23.3685623787
 31
0.0
  0
ARC
  5
1E9
330
1F
100
AcDbEntity
  8
0
  6
Continuous
 62
     7
370
    15
100
AcDbCircle
 10
278.8066087219
 20
41.0963066397
 30
0.0
 40
2.391972527132655
100
AcDbArc
 50
346.7582111183
 51
10.8666152616
  0
LWPOLYLINE
  5
1EA
330
1F
100
AcDbEntity
  8
0
  6
Continuous
 62
     7
370
    15
100
AcDbPolyline
 90
        9
 70
   128
 43
0.0
 10
281.1349837117
 20
32.7758537884
 10
281.4792125382
 20
33.8995178746
 10
281.728447555
 20
35.008125409
 10
281.8793405616
 20
36.0867834589
 10
281.929864475
 20
37.1210014302
 10
281.8793405616
 20
38.0968857327
 10
281.728447555
 20
39.0013264256
 10
281.4792125382
 20
39.8221733348
 10
281.1349837117
 20
40.5483992776
  0
ARC
  5
1EB
330
1F
100
AcDbEntity
  8
0
  6
Continuous
 62
     7
370
    15
100
AcDbCircle
 10
277.3945797681
 20
32.3022445358
 30
0.0
 40
3.770268874395593
100
AcDbArc
 50
301.3793030507
 51
7.2163787538
  0
LINE
  5
1EC
330
1F
100
AcDbEntity
  8
0
  6
Continuous
 62
     7
370
    15
100
AcDbLine
 10
277.6608513918
 20
28.1038126192
 30
0.0
 11
279.3577635584
 21
29.0834191615
 31
0.0
  0
LWPOLYLINE
  5
1ED
330
1F
100
AcDbEntity
  8
0
  6
Continuous
 62
     7
370
    15
100
AcDbPolyline
 90
       10
 70
   128
 43
0.0
 10
277.6608513918
 20
28.1038126192
 10
276.9842162957
 20
27.3234751411
 10
276.2731523849
 20
26.6160427056
 10
275.5371624486
 20
25.9909695701
 10
274.7860823922
 20
25.4566093274
 10
274.029949788
 20
25.0201032663
 10
273.2788697316
 20
24.6872849343
 10
272.5428797954
 20
24.4626021769
 10
271.8318158845
 20
24.349057696
 10
271.1551807884
 20
24.348168921
  0
ARC
  5
1EE
330
1F
100
AcDbEntity
  8
0
  6
Continuous
 62
     7
370
    15
100
AcDbCircle
 10
271.7438305335
 20
23.6237936237
 30
0.0
 40
2.708969812923889
100
AcDbArc
 50
167.8781475344
 51
185.1588186135
  0
LWPOLYLINE
  5
1EF
330
1F
100
AcDbEntity
  8
0
  6
Continuous
 62
     7
370
    15
100
AcDbPolyline
 90
        9
 70
   128
 43
0.0
 10
269.0952620309
 20
24.1926541815
 10
268.7510332044
 20
24.9188801243
 10
268.5017981876
 20
25.7397270335
 10
268.350905181
 20
26.6441677264
 10
268.3003812676
 20
27.6200520289
 10
268.350905181
 20
28.6542700002
 10
268.5017981876
 20
29.7329280501
 10
268.7510332044
 20
30.8415355845
 10
269.0952620309
 20
31.9651996707
  0
ARC
  5
1F0
330
1F
100
AcDbEntity
  8
0
  6
Continuous
 62
     7
370
    15
100
AcDbCircle
 10
271.2157984671
 20
32.4832615298
 30
0.0
 40
2.182902395197254
100
AcDbArc
 50
173.7588101909
 51
193.7288361877
  0
LWPOLYLINE
  5
1F1
330
1F
100
AcDbEntity
  8
0
  6
Continuous
 62
     7
370
    15
100
AcDbPolyline
 90
       23
 70
   128
 43
0.0
 10
245.7089247329
 20
38.8099380325
 10
246.052967137
 20
40.229477879
 10
246.4851216629
 20
41.6619458467
 10
247.0022970244
 20
43.0970952109
 10
247.6007937645
 20
44.5246600666
 10
248.2763307187
 20
45.9344287621
 10
249.0240756385
 20
47.3163169452
 10
249.8386797576
 20
48.6604396984
 10
250.714316053
 20
49.957182248
 10
251.6447209264
 20
51.1972687397
 10
252.6232390089
 20
52.3718285916
 10
253.6428707688
 20
53.4724599465
 10
254.6963225798
 20
54.4912897723
 10
255.7760588944
 20
55.4210301791
 10
256.8743561468
 20
56.2550305514
 10
257.9833580011
 20
56.9873251208
 10
259.0951315494
 20
57.6126756405
 10
260.2017240573
 20
58.1266088554
 10
261.2952198512
 20
58.5254485004
 10
262.3677969412
 20
58.8063415973
 10
263.4117829728
 20
58.9672788625
 10
264.419710109
 20
59.0071090803
 10
264.7386013557
 20
58.9938880271
  0
SPLINE
  5
1F2
330
1F
100
AcDbEntity
  8
0
  6
Continuous
 62
     7
370
    15
100
AcDbSpline
210
0.0
220
0.0
230
1.0
 70
     8
 71
     3
 72
     8
 73
     4
 74
     0
 42
0.000000001
 43
0.00000001
 40
0.0
 40
0.0
 40
0.0
 40
0.0
 40
1.0
 40
1.0
 40
1.0
 40
1.0
 10
245.7089247329013
 20
38.8099380324829
 30
0.0
 10
245.1737261587081
 20
38.72179639370204
 30
0.0
 10
244.6383356447731
 20
38.63403923288723
 30
0.0
 10
244.1027969416683
 20
38.54659036735821
 30
0.0
  0
LWPOLYLINE
  5
1F3
330
1F
100
AcDbEntity
  8
0
  6
Continuous
 62
     7
370
    15
100
AcDbPolyline
 90
       26
 70
   128
 43
0.0
 10
244.1027969417
 20
38.5465903674
 10
244.4270007132
 20
39.9771923331
 10
244.8357354894
 20
41.4229158994
 10
245.3264168494
 20
42.8746197884
 10
245.8959422259
 20
44.3231249086
 10
246.5407105227
 20
45.7592723947
 10
247.2566448841
 20
47.1739815179
 10
248.0392184732
 20
48.5583071042
 10
248.8834830947
 20
49.9034960936
 10
249.7841004821
 20
51.2010428863
 10
250.7353760518
 20
52.4427431227
 10
251.7312949097
 20
53.62074556
 10
252.7655598829
 20
54.7276017151
 10
253.8316313371
 20
55.7563129611
 10
254.9227685263
 20
56.7003747798
 10
256.0320722143
 20
57.5538178893
 10
257.1525282988
 20
58.311245988
 10
258.2770521608
 20
58.9678698748
 10
259.3985334611
 20
59.5195377316
 10
260.5098810984
 20
59.9627613748
 10
261.6040680463
 20
60.2947383111
 10
262.6741757853
 20
60.5133694579
 10
263.7134380479
 20
60.6172724152
 10
264.7152836021
 20
60.605790207
 10
265.6733778007
 20
60.478995435
 10
266.5816626355
 20
60.2376898198
  0
LINE
  5
1F4
330
1F
100
AcDbEntity
  8
0
  6
Continuous
 62
     7
370
    15
100
AcDbLine
 10
266.5816626355
 20
60.2376898198
 30
0.0
 11
266.9331383691
 21
59.1202974814
 31
0.0
  0
LINE
  5
1F5
330
1F
100
AcDbEntity
  8
0
  6
Continuous
 62
     7
370
    15
100
AcDbLine
 10
262.8644978873
 20
62.3835633528
 30
0.0
 11
266.5816626355
 21
60.2376898198
 31
0.0
  0
LINE
  5
1F6
330
1F
100
AcDbEntity
  8
0
  6
Continuous
 62
     7
370
    15
100
AcDbLine
 10
244.1027969417
 20
38.5465903674
 30
0.0
 11
243.5676127087
 21
38.8555456487
 31
0.0
  0
SPLINE
  5
1F7
330
1F
100
AcDbEntity
  8
0
  6
Continuous
 62
     7
370
    15
100
AcDbSpline
210
0.0
220
0.0
230
1.0
 70
     8
 71
     3
 72
    30
 73
    26
 74
     0
 42
0.000000001
 43
0.00000001
 40
0.0
 40
0.0
 40
0.0
 40
0.0
 40
0.1250000000000005
 40
0.1250000000000005
 40
0.1875000000000008
 40
0.1875000000000008
 40
0.2500000000000011
 40
0.2500000000000011
 40
0.3750000000000012
 40
0.3750000000000012
 40
0.4375000000000013
 40
0.4375000000000013
 40
0.5000000000000013
 40
0.5000000000000013
 40
0.6250000000000011
 40
0.6250000000000011
 40
0.6875000000000009
 40
0.6875000000000009
 40
0.7500000000000007
 40
0.7500000000000007
 40
0.8125000000000006
 40
0.8125000000000006
 40
0.8750000000000003
 40
0.8750000000000003
 40
1.0
 40
1.0
 40
1.0
 40
1.0
 10
243.5676127087179
 20
38.85554564874244
 30
0.0
 10
243.3564791526685
 20
38.97743045625862
 30
0.0
 10
243.1436282035611
 20
39.07002616159385
 30
0.0
 10
242.8223038744256
 20
39.1672152513972
 30
0.0
 10
242.7148595780917
 20
39.19261299770199
 30
0.0
 10
242.4994539151911
 20
39.22921860762906
 30
0.0
 10
242.3914044390618
 20
39.24033081660064
 30
0.0
 10
242.0740271691419
 20
39.25183127822967
 30
0.0
 10
241.8689334852896
 20
39.23112306328925
 30
0.0
 10
241.5725011882473
 20
39.15898162151422
 30
0.0
 10
241.4750793440174
 20
39.12782074032336
 30
0.0
 10
241.2871823606911
 20
39.05251472745379
 30
0.0
 10
241.1968389034865
 20
39.00852573951821
 30
0.0
 10
240.9367777669335
 20
38.85833355795105
 30
0.0
 10
240.7779149346823
 20
38.73408767446595
 30
0.0
 10
240.5639617532985
 20
38.51126832617721
 30
0.0
 10
240.4973562022612
 20
38.43143997809599
 30
0.0
 10
240.3752143205232
 20
38.26296229419924
 30
0.0
 10
240.3194094534559
 20
38.17403821913587
 30
0.0
 10
240.2184952740501
 20
37.98700461662093
 30
0.0
 10
240.1733852633654
 20
37.88889519073698
 30
0.0
 10
240.0943006519826
 20
37.68338005810975
 30
0.0
 10
240.0602132183457
 20
37.5754134437552
 30
0.0
 10
239.9769832503778
 20
37.24241788834179
 30
0.0
 10
239.9462583356596
 20
37.00808958630389
 30
0.0
 10
239.9409806154088
 20
36.76133835473639
 30
0.0
  0
ARC
  5
1F8
330
1F
100
AcDbEntity
  8
0
  6
Continuous
 62
     7
370
    15
100
AcDbCircle
 10
258.7933107258
 20
36.3530679488
 30
0.0
 40
18.85675039122082
100
AcDbArc
 50
178.7593833157
 51
181.2406166843
  0
SPLINE
  5
1F9
330
1F
100
AcDbEntity
  8
0
  6
Continuous
 62
     7
370
    15
100
AcDbSpline
210
0.0
220
0.0
230
1.0
 70
     8
 71
     3
 72
    30
 73
    26
 74
     0
 42
0.000000001
 43
0.00000001
 40
0.0
 40
0.0
 40
0.0
 40
0.0
 40
0.1250000000000001
 40
0.1250000000000001
 40
0.1875000000000002
 40
0.1875000000000002
 40
0.2500000000000003
 40
0.2500000000000003
 40
0.3750000000000004
 40
0.3750000000000004
 40
0.4375000000000003
 40
0.4375000000000003
 40
0.5000000000000003
 40
0.5000000000000003
 40
0.625
 40
0.625
 40
0.6875
 40
0.6875
 40
0.75
 40
0.75
 40
0.8125000000000001
 40
0.8125000000000001
 40
0.8750000000000001
 40
0.8750000000000001
 40
1.0
 40
1.0
 40
1.0
 40
1.0
 10
239.9409806154088
 20
35.94479754285064
 30
0.0
 10
239.9462588290347
 20
35.70411734006734
 30
0.0
 10
239.9769553534152
 20
35.45847782064256
 30
0.0
 10
240.0589833420871
 20
35.08270295838486
 30
0.0
 10
240.0923619173343
 20
34.95621157880038
 30
0.0
 10
240.1712833544092
 20
34.7006146267658
 30
0.0
 10
240.216986294043
 20
34.57128093326629
 30
0.0
 10
240.3690716880199
 20
34.1876673174899
 30
0.0
 10
240.4910610321212
 20
33.93493920381194
 30
0.0
 10
240.7030572505398
 20
33.55915484869381
 30
0.0
 10
240.778989557868
 20
33.43384334950627
 30
0.0
 10
240.9386736755119
 20
33.18716570031724
 30
0.0
 10
241.0220498925784
 20
33.06628508195451
 30
0.0
 10
241.2820356399926
 20
32.71044819945411
 30
0.0
 10
241.4684102715339
 20
32.48223431163298
 30
0.0
 10
241.7663776104724
 20
32.15239977684413
 30
0.0
 10
241.8683705278085
 20
32.04507893765743
 30
0.0
 10
242.0738648280686
 20
31.83903038539497
 30
0.0
 10
242.1778589706299
 20
31.73975039778589
 30
0.0
 10
242.3880688576022
 20
31.5484309891093
 30
0.0
 10
242.4942848652937
 20
31.4563916299285
 30
0.0
 10
242.7087731687407
 20
31.27955131476763
 30
0.0
 10
242.8175837940074
 20
31.19436170344762
 30
0.0
 10
243.1424509885334
 20
30.95334689062827
 30
0.0
 10
243.3564733999019
 20
30.81202565840261
 30
0.0
 10
243.5676127087179
 20
30.69013752988493
 30
0.0
  0
LINE
  5
1FA
330
1F
100
AcDbEntity
  8
0
  6
Continuous
 62
     7
370
    15
100
AcDbLine
 10
243.5676127087
 20
30.6901375299
 30
0.0
 11
244.1027969417
 21
30.3811822485
 31
0.0
  0
LWPOLYLINE
  5
1FB
330
1F
100
AcDbEntity
  8
0
  6
Continuous
 62
     7
370
    15
100
AcDbPolyline
 90
       10
 70
   128
 43
0.0
 10
249.1253801587
 20
24.4618742083
 10
248.9828983131
 20
24.5090067142
 10
248.1203302648
 20
24.8726238917
 10
247.3206863885
 20
25.3500257956
 10
246.5891671151
 20
25.9381076743
 10
245.9305298318
 20
26.6330449762
 10
245.3490579425
 20
27.4303182226
 10
244.848533011
 20
28.3247424
 10
244.432210168
 20
29.3105006798
 10
244.1027969417
 20
30.3811822485
  0
LINE
  5
1FC
330
1F
100
AcDbEntity
  8
0
  6
Continuous
 62
     7
370
    15
100
AcDbLine
 10
268.8778141142
 20
58.911718876
 30
0.0
 11
268.966862379
 21
58.832053592
 31
0.0
  0
LINE
  5
1FD
330
1F
100
AcDbEntity
  8
0
  6
Continuous
 62
     7
370
    15
100
AcDbLine
 10
268.2168409367
 20
59.2932905694
 30
0.0
 11
268.8778141142
 21
58.911718876
 31
0.0
  0
SPLINE
  5
1FE
330
1F
100
AcDbEntity
  8
0
  6
Continuous
 62
     7
370
    15
100
AcDbSpline
210
0.0
220
0.0
230
1.0
 70
     8
 71
     3
 72
    26
 73
    22
 74
     0
 42
0.000000001
 43
0.00000001
 40
0.0
 40
0.0
 40
0.0
 40
0.0
 40
0.2499999999999984
 40
0.2499999999999984
 40
0.3124999999999984
 40
0.3124999999999984
 40
0.3749999999999983
 40
0.3749999999999983
 40
0.4999999999999983
 40
0.4999999999999983
 40
0.6249999999999984
 40
0.6249999999999984
 40
0.7499999999999986
 40
0.7499999999999986
 40
0.812499999999999
 40
0.812499999999999
 40
0.8749999999999993
 40
0.8749999999999993
 40
0.9374999999999998
 40
0.9374999999999998
 40
1.0
 40
1.0
 40
1.0
 40
1.0
 10
262.8644978872504
 20
62.38356335278274
 30
0.0
 10
263.2502442311345
 20
62.23586728716758
 30
0.0
 10
263.6497489453154
 20
62.05027133478271
 30
0.0
 10
264.1823431432838
 20
61.76781383338613
 30
0.0
 10
264.2905643470706
 20
61.70878129995974
 30
0.0
 10
264.5110380628765
 20
61.58546028440204
 30
0.0
 10
264.6233237051568
 20
61.52113785713998
 30
0.0
 10
264.9616662993985
 20
61.32336589652389
 30
0.0
 10
265.1908896882541
 20
61.18417804703129
 30
0.0
 10
265.6601384963879
 20
60.89256641275274
 30
0.0
 10
265.9024952465858
 20
60.73861776853406
 30
0.0
 10
266.3835239259941
 20
60.43108058147693
 30
0.0
 10
266.623625560051
 20
60.2766434511574
 30
0.0
 10
266.9847918288503
 20
60.04653710236538
 30
0.0
 10
267.1048556810308
 20
59.97041807404095
 30
0.0
 10
267.3390999321875
 20
59.82316280640499
 30
0.0
 10
267.4540533252254
 20
59.75153231342481
 30
0.0
 10
267.6797402828545
 20
59.61257589363024
 30
0.0
 10
267.7904746410219
 20
59.54524900175429
 30
0.0
 10
268.0076458297632
 20
59.41526162571508
 30
0.0
 10
268.1143262356995
 20
59.35247104657587
 30
0.0
 10
268.2168409367338
 20
59.29329056936066
 30
0.0
  0
ARC
  5
1FF
330
1F
100
AcDbEntity
  8
0
  6
Continuous
 62
     7
370
    15
100
AcDbCircle
 10
259.1595418735
 20
55.7966336633
 30
0.0
 40
7.690826647330878
100
AcDbArc
 50
61.2552585156
 51
98.4966801305
  0
ARC
  5
200
330
1F
100
AcDbEntity
  8
0
  6
Continuous
 62
     7
370
    15
100
AcDbCircle
 10
246.8926372989
 20
34.5090083051
 30
0.0
 40
7.744199554628635
100
AcDbArc
 50
201.6553812875
 51
238.6165965175
  0
LWPOLYLINE
  5
201
330
1F
100
AcDbEntity
  8
0
  6
Continuous
 62
     7
370
    15
100
AcDbPolyline
 90
       31
 70
   128
 43
0.0
 10
276.5023051528
 20
39.8669861903
 10
276.6354024509
 20
39.8580065761
 10
277.2121970307
 20
39.7459352065
 10
277.7337520214
 20
39.5188437283
 10
278.1911434724
 20
39.1806177397
 10
278.5765452891
 20
38.7370443812
 10
278.8833631397
 20
38.1957133158
 10
279.1063472856
 20
37.5658868682
 10
279.2416824063
 20
36.8583415435
 10
279.2870528803
 20
36.0851836383
 10
279.2416824063
 20
35.2596420989
 10
279.1063472856
 20
34.3958421699
 10
278.8833631397
 20
33.5085637074
 10
278.5765452891
 20
32.612988292
 10
278.1911434724
 20
31.7244394674
 10
277.7337520214
 20
30.8581205503
 10
277.2121970307
 20
30.0288544976
 10
276.6354024509
 20
29.2508302813
 10
276.013237397
 20
28.5373601115
 10
275.3563472856
 20
27.9006516605
 10
274.6759716887
 20
27.3515991867
 10
273.9837520214
 20
26.8995971299
 10
273.2915323541
 20
26.5523793707
 10
272.6111567572
 20
26.3158869012
 10
271.9542666459
 20
26.1941661731
 10
271.332101592
 20
26.1892998619
 10
270.7553070121
 20
26.3013712315
 10
270.2337520214
 20
26.5284627097
 10
269.7763605704
 20
26.8666886983
 10
269.3909587537
 20
27.3102620568
 10
269.1327179729
 20
27.7485482722
  0
LINE
  5
202
330
1F
100
AcDbEntity
  8
0
  6
Continuous
 62
     7
370
    15
100
AcDbLine
 10
246.2266452246
 20
39.1088117106
 30
0.0
 11
245.7089247329
 21
38.8099380325
 31
0.0
  0
LINE
  5
203
330
1F
100
AcDbEntity
  8
0
  6
Continuous
 62
     7
370
    15
100
AcDbLine
 10
246.8801726645
 20
38.3451377773
 30
0.0
 11
246.6682170642
 21
38.4674971408
 31
0.0
  0
SPLINE
  5
204
330
1F
100
AcDbEntity
  8
0
  6
Continuous
 62
     7
370
    15
100
AcDbSpline
210
0.0
220
0.0
230
1.0
 70
     8
 71
     3
 72
    14
 73
    10
 74
     0
 42
0.000000001
 43
0.00000001
 40
0.0
 40
0.0
 40
0.0
 40
0.0
 40
0.1250000000000003
 40
0.1250000000000003
 40
0.2500000000000007
 40
0.2500000000000007
 40
0.5000000000000008
 40
0.5000000000000008
 40
1.0
 40
1.0
 40
1.0
 40
1.0
 10
246.6682170641725
 20
38.46749714082924
 30
0.0
 10
246.643759502221
 20
38.4816161908114
 30
0.0
 10
246.6214427764005
 20
38.50999384654344
 30
0.0
 10
246.5858835089198
 20
38.56928628269358
 30
0.0
 10
246.5720263260544
 20
38.59986280071272
 30
0.0
 10
246.5349413632743
 20
38.69173108623482
 30
0.0
 10
246.5162781858935
 20
38.7542284192989
 30
0.0
 10
246.4683408976031
 20
38.93752841704095
 30
0.0
 10
246.4468359716528
 20
39.05677947686893
 30
0.0
 10
246.4298944864826
 20
39.17474315850753
 30
0.0
  0
SPLINE
  5
205
330
1F
100
AcDbEntity
  8
0
  6
Continuous
 62
     7
370
    15
100
AcDbSpline
210
0.0
220
0.0
230
1.0
 70
     8
 71
     3
 72
    10
 73
     6
 74
     0
 42
0.000000001
 43
0.00000001
 40
0.0
 40
0.0
 40
0.0
 40
0.0
 40
0.5
 40
0.5
 40
1.0
 40
1.0
 40
1.0
 40
1.0
 10
246.4298944864826
 20
39.17474315850754
 30
0.0
 10
246.3915818813667
 20
39.16943716371428
 30
0.0
 10
246.3542448885738
 20
39.16091736595645
 30
0.0
 10
246.2856574844268
 20
39.13856862383749
 30
0.0
 10
246.2545561591671
 20
39.12492435019388
 30
0.0
 10
246.2266452245765
 20
39.10881171062186
 30
0.0
  0
ARC
  5
206
330
1F
100
AcDbEntity
  8
0
  6
Continuous
 62
     7
370
    15
100
AcDbCircle
 10
269.9325224433
 20
24.1129312186
 30
0.0
 40
1.821962954514377
100
AcDbArc
 50
278.9215321124
 51
301.0579635504
  0
LINE
  5
207
330
1F
100
AcDbEntity
  8
0
  6
Continuous
 62
     7
370
    15
100
AcDbLine
 10
247.691428169
 20
30.2810671464
 30
0.0
 11
249.8714107829
 21
29.0225899708
 31
0.0
  0
SPLINE
  5
208
330
1F
100
AcDbEntity
  8
0
  6
Continuous
 62
     7
370
    15
100
AcDbSpline
210
0.0
220
0.0
230
1.0
 70
     8
 71
     3
 72
    16
 73
    12
 74
     0
 42
0.000000001
 43
0.00000001
 40
0.0
 40
0.0
 40
0.0
 40
0.0
 40
0.1250000000000011
 40
0.1250000000000011
 40
0.2500000000000021
 40
0.2500000000000021
 40
0.5000000000000014
 40
0.5000000000000014
 40
0.7500000000000008
 40
0.7500000000000008
 40
1.0
 40
1.0
 40
1.0
 40
1.0
 10
247.4531055912896
 20
30.98831316404083
 30
0.0
 10
247.477409849674
 20
30.97428261432415
 30
0.0
 10
247.499875585644
 20
30.94575376645084
 30
0.0
 10
247.5349916208591
 20
30.88733919578789
 30
0.0
 10
247.549262076414
 20
30.85604196491993
 30
0.0
 10
247.5865682934412
 20
30.76359671026576
 30
0.0
 10
247.6050141226305
 20
30.70173801599221
 30
0.0
 10
247.6372162156111
 20
30.57852499131304
 30
0.0
 10
247.650471388356
 20
30.51761055133947
 30
0.0
 10
247.6733481690833
 20
30.39838103852881
 30
0.0
 10
247.6830415610813
 20
30.33946315675907
 30
0.0
 10
247.6914281689795
 20
30.28106714636253
 30
0.0
  0
LINE
  5
209
330
1F
100
AcDbEntity
  8
0
  6
Continuous
 62
     7
370
    15
100
AcDbLine
 10
246.6682170642
 20
31.4414196661
 30
0.0
 11
247.4531055913
 21
30.988313164
 31
0.0
  0
SPLINE
  5
20A
330
1F
100
AcDbEntity
  8
0
  6
Continuous
 62
     7
370
    15
100
AcDbSpline
210
0.0
220
0.0
230
1.0
 70
     8
 71
     3
 72
    14
 73
    10
 74
     0
 42
0.000000001
 43
0.00000001
 40
0.0
 40
0.0
 40
0.0
 40
0.0
 40
0.5000000000000013
 40
0.5000000000000013
 40
0.7500000000000009
 40
0.7500000000000009
 40
0.8750000000000004
 40
0.8750000000000004
 40
1.0
 40
1.0
 40
1.0
 40
1.0
 10
246.4298944864826
 20
31.00933503964986
 30
0.0
 10
246.4467845762982
 20
31.10743997245571
 30
0.0
 10
246.4685112000363
 20
31.2027148195693
 30
0.0
 10
246.5163655475841
 20
31.33029631861026
 30
0.0
 10
246.5346448252152
 20
31.37070077200159
 30
0.0
 10
246.57226758959
 20
31.42041731117875
 30
0.0
 10
246.5862070620655
 20
31.43492007633321
 30
0.0
 10
246.6215313898201
 20
31.45290878746811
 30
0.0
 10
246.6440595540551
 20
31.4553654998478
 30
0.0
 10
246.6682170641725
 20
31.44141966610242
 30
0.0
  0
LINE
  5
20B
330
1F
100
AcDbEntity
  8
0
  6
Continuous
 62
     7
370
    15
100
AcDbLine
 10
245.2752167052
 20
31.6759163342
 30
0.0
 11
246.4298944865
 21
31.0093350397
 31
0.0
  0
ARC
  5
20C
330
1F
100
AcDbEntity
  8
0
  6
Continuous
 62
     7
370
    15
100
AcDbCircle
 10
248.9724895938
 20
37.4847724467
 30
0.0
 40
6.885683419173324
100
AcDbArc
 50
182.476303705
 51
237.5236964406
  0
LINE
  5
20D
330
1F
100
AcDbEntity
  8
0
  6
Continuous
 62
     7
370
    15
100
AcDbLine
 10
242.0932361899
 20
38.0038090512
 30
0.0
 11
242.0932361899
 21
37.1872682393
 31
0.0
  0
ARC
  5
20E
330
1F
100
AcDbEntity
  8
0
  6
Continuous
 62
     7
370
    15
100
AcDbCircle
 10
245.0634860953
 20
38.0919261701
 30
0.0
 40
2.971556684130479
100
AcDbArc
 50
156.6057044845
 51
181.6992707072
  0
ARC
  5
20F
330
1F
100
AcDbEntity
  8
0
  6
Continuous
 62
     7
370
    15
100
AcDbCircle
 10
279.9006287715
 20
40.3008517236
 30
0.0
 40
2.708969812923834
100
AcDbArc
 50
347.8781475344
 51
5.1588186135
  0
LINE
  5
210
330
1F
100
AcDbEntity
  8
0
  6
Continuous
 62
     7
370
    15
100
AcDbLine
 10
281.1349837117
 20
40.5483992776
 30
0.0
 11
282.5491972741
 21
39.7319911658
 31
0.0
  0
LWPOLYLINE
  5
211
330
1F
100
AcDbEntity
  8
0
  6
Continuous
 62
     7
370
    15
100
AcDbPolyline
 90
       10
 70
   128
 43
0.0
 10
279.0750649542
 20
27.2874045074
 10
278.3984298581
 20
26.5070670293
 10
277.6873659473
 20
25.7996345937
 10
276.951376011
 20
25.1745614583
 10
276.2002959546
 20
24.6402012156
 10
275.4441633504
 20
24.2036951545
 10
274.693083294
 20
23.8708768224
 10
273.9570933577
 20
23.6461940651
 10
273.2460294469
 20
23.5326495842
 10
272.5693943508
 20
23.5317608091
  0
LINE
  5
212
330
1F
100
AcDbEntity
  8
0
  6
Continuous
 62
     7
370
    15
100
AcDbLine
 10
280.7719771208
 20
28.2670110496
 30
0.0
 11
279.0750649542
 21
27.2874045074
 31
0.0
  0
ARC
  5
213
330
1F
100
AcDbEntity
  8
0
  6
Continuous
 62
     7
370
    15
100
AcDbCircle
 10
279.1832525978
 20
30.9515968031
 30
0.0
 40
3.119462498238272
100
AcDbArc
 50
300.6168359905
 51
316.0576097217
  0
LINE
  5
214
330
1F
100
AcDbEntity
  8
0
  6
Continuous
 62
     7
370
    15
100
AcDbLine
 10
272.5693943508
 20
23.5317608091
 30
0.0
 11
270.8724821842
 21
22.5521542669
 31
0.0
  0
LINE
  5
215
330
1F
100
AcDbEntity
  8
0
  6
Continuous
 62
     7
370
    15
100
AcDbLine
 10
271.1551807884
 20
24.348168921
 30
0.0
 11
272.5693943508
 21
23.5317608091
 31
0.0
  0
LINE
  5
216
330
1F
100
AcDbEntity
  8
0
  6
Continuous
 62
     7
370
    15
100
AcDbLine
 10
279.0750649542
 20
27.2874045074
 30
0.0
 11
277.6608513918
 21
28.1038126192
 31
0.0
  0
SPLINE
  5
217
330
1F
100
AcDbEntity
  8
0
  6
Continuous
 62
     7
370
    15
100
AcDbSpline
210
0.0
220
0.0
230
1.0
 70
     8
 71
     3
 72
    14
 73
    10
 74
     0
 42
0.000000001
 43
0.00000001
 40
0.0
 40
0.0
 40
0.0
 40
0.0
 40
0.5000000000000016
 40
0.5000000000000016
 40
0.7500000000000023
 40
0.7500000000000023
 40
0.8750000000000011
 40
0.8750000000000011
 40
1.0
 40
1.0
 40
1.0
 40
1.0
 10
230.031008715401
 20
42.93905372487645
 30
0.0
 10
230.40462663764
 20
42.6700746565548
 30
0.0
 10
230.7797008657029
 20
42.39792527769365
 30
0.0
 10
231.3477252720508
 20
41.97831021546656
 30
0.0
 10
231.5379566508801
 20
41.83656526594915
 30
0.0
 10
231.8262108727916
 20
41.61790579008863
 30
0.0
 10
231.9227837010478
 20
41.54400496904438
 30
0.0
 10
232.1177194750515
 20
41.39250126288141
 30
0.0
 10
232.215953054255
 20
41.31516437948224
 30
0.0
 10
232.3164558625434
 20
41.23315106747252
 30
0.0
  0
SPLINE
  5
218
330
1F
100
AcDbEntity
  8
0
  6
Continuous
 62
     7
370
    15
100
AcDbSpline
210
0.0
220
0.0
230
1.0
 70
     8
 71
     3
 72
     8
 73
     4
 74
     0
 42
0.000000001
 43
0.00000001
 40
0.0
 40
0.0
 40
0.0
 40
0.0
 40
1.0
 40
1.0
 40
1.0
 40
1.0
 10
232.3164558625435
 20
41.23315106747241
 30
0.0
 10
232.6228821032842
 20
40.98309804589199
 30
0.0
 10
232.9289046485911
 20
40.74085617009703
 30
0.0
 10
233.2346961288195
 20
40.50308519702291
 30
0.0
  0
SPLINE
  5
219
330
1F
100
AcDbEntity
  8
0
  6
Continuous
 62
     7
370
    15
100
AcDbSpline
210
0.0
220
0.0
230
1.0
 70
     8
 71
     3
 72
    14
 73
    10
 74
     0
 42
0.000000001
 43
0.00000001
 40
0.0
 40
0.0
 40
0.0
 40
0.0
 40
0.1249999999999967
 40
0.1249999999999967
 40
0.2499999999999933
 40
0.2499999999999933
 40
0.4999999999999956
 40
0.4999999999999956
 40
1.0
 40
1.0
 40
1.0
 40
1.0
 10
233.2346961288195
 20
40.50308519702289
 30
0.0
 10
233.2541347433862
 20
40.48797052379107
 30
0.0
 10
233.2725396702099
 20
40.47534660821792
 30
0.0
 10
233.3030955253673
 20
40.45810762520073
 30
0.0
 10
233.3152870229237
 20
40.45338996482539
 30
0.0
 10
233.3431144997595
 20
40.44786991960438
 30
0.0
 10
233.3515254386342
 20
40.45436344754519
 30
0.0
 10
233.3653446138617
 20
40.48428987382843
 30
0.0
 10
233.3594471172074
 20
40.51771977177666
 30
0.0
 10
233.3498553684126
 20
40.55548415196959
 30
0.0
  0
SPLINE
  5
21A
330
1F
100
AcDbEntity
  8
0
  6
Continuous
 62
     7
370
    15
100
AcDbSpline
210
0.0
220
0.0
230
1.0
 70
     8
 71
     3
 72
    16
 73
    12
 74
     0
 42
0.000000001
 43
0.00000001
 40
0.0
 40
0.0
 40
0.0
 40
0.0
 40
0.1249999999999996
 40
0.1249999999999996
 40
0.2499999999999992
 40
0.2499999999999992
 40
0.4999999999999994
 40
0.4999999999999994
 40
0.7499999999999997
 40
0.7499999999999997
 40
1.0
 40
1.0
 40
1.0
 40
1.0
 10
233.3498553684127
 20
40.55548415196948
 30
0.0
 10
233.34197531702
 20
40.586509282329
 30
0.0
 10
233.3388749164044
 20
40.61462060666511
 30
0.0
 10
233.3352138904967
 20
40.67014837502556
 30
0.0
 10
233.3347791433385
 20
40.69753465986786
 30
0.0
 10
233.3332372677064
 20
40.7821776409795
 30
0.0
 10
233.3318241408115
 20
40.84195936874438
 30
0.0
 10
233.318144679735
 20
40.97718709389649
 30
0.0
 10
233.3061322740812
 20
41.05252839372987
 30
0.0
 10
233.2646811410455
 20
41.22518667429845
 30
0.0
 10
233.2358059971851
 20
41.32048908957069
 30
0.0
 10
233.1955111242098
 20
41.42721386903862
 30
0.0
  0
ARC
  5
21B
330
1F
100
AcDbEntity
  8
0
  6
Continuous
 62
     7
370
    15
100
AcDbCircle
 10
246.0741135608
 20
45.4194700745
 30
0.0
 40
13.48319362501734
100
AcDbArc
 50
162.7770125163
 51
197.2229874838
  0
SPLINE
  5
21C
330
1F
100
AcDbEntity
  8
0
  6
Continuous
 62
     7
370
    15
100
AcDbSpline
210
0.0
220
0.0
230
1.0
 70
     8
 71
     3
 72
    16
 73
    12
 74
     0
 42
0.000000001
 43
0.00000001
 40
0.0
 40
0.0
 40
0.0
 40
0.0
 40
0.1249999999999996
 40
0.1249999999999996
 40
0.2499999999999992
 40
0.2499999999999992
 40
0.4999999999999994
 40
0.4999999999999994
 40
0.7499999999999997
 40
0.7499999999999997
 40
1.0
 40
1.0
 40
1.0
 40
1.0
 10
233.3498553684127
 20
51.39918720807489
 30
0.0
 10
233.34197531702
 20
51.31575944232327
 30
0.0
 10
233.3388749164044
 20
51.23143951080547
 30
0.0
 10
233.3352138904967
 20
51.06311608166828
 30
0.0
 10
233.3347791433385
 20
50.9788734888409
 30
0.0
 10
233.3332372677064
 20
50.72630467325898
 30
0.0
 10
233.3318241408115
 20
50.55814271943852
 30
0.0
 10
233.318144679735
 20
50.22321140786715
 30
0.0
 10
233.3061322740812
 20
50.05616280286988
 30
0.0
 10
233.2646811410455
 20
49.72518612916662
 30
0.0
 10
233.2358059971851
 20
49.56497452941051
 30
0.0
 10
233.1955111242098
 20
49.41172627988507
 30
0.0
  0
SPLINE
  5
21D
330
1F
100
AcDbEntity
  8
0
  6
Continuous
 62
     7
370
    15
100
AcDbSpline
210
0.0
220
0.0
230
1.0
 70
     8
 71
     3
 72
    14
 73
    10
 74
     0
 42
0.000000001
 43
0.00000001
 40
0.0
 40
0.0
 40
0.0
 40
0.0
 40
0.1250000000000001
 40
0.1250000000000001
 40
0.2500000000000002
 40
0.2500000000000002
 40
0.5000000000000023
 40
0.5000000000000023
 40
1.0
 40
1.0
 40
1.0
 40
1.0
 10
233.2346961288196
 20
51.93227240768249
 30
0.0
 10
233.2541347433862
 20
51.92939816122938
 30
0.0
 10
233.2725396702099
 20
51.92021283036641
 30
0.0
 10
233.3030955253673
 20
51.89065524789789
 30
0.0
 10
233.3152870229237
 20
51.87056800639188
 30
0.0
 10
233.3431144997595
 20
51.804975900864
 30
0.0
 10
233.3515254386342
 20
51.75456353635929
 30
0.0
 10
233.3653446138617
 20
51.6023668863624
 30
0.0
 10
233.3594471172073
 20
51.50073707516597
 30
0.0
 10
233.3498553684126
 20
51.39918720807494
 30
0.0
  0
SPLINE
  5
21E
330
1F
100
AcDbEntity
  8
0
  6
Continuous
 62
     7
370
    15
100
AcDbSpline
210
0.0
220
0.0
230
1.0
 70
     8
 71
     3
 72
     8
 73
     4
 74
     0
 42
0.000000001
 43
0.00000001
 40
0.0
 40
0.0
 40
0.0
 40
0.0
 40
1.0
 40
1.0
 40
1.0
 40
1.0
 10
232.3164558625435
 20
52.03356754230135
 30
0.0
 10
232.6228821032842
 20
52.01353556420241
 30
0.0
 10
232.9289046485911
 20
51.97748756817786
 30
0.0
 10
233.2346961288196
 20
51.9322724076825
 30
0.0
  0
SPLINE
  5
21F
330
1F
100
AcDbEntity
  8
0
  6
Continuous
 62
     7
370
    15
100
AcDbSpline
210
0.0
220
0.0
230
1.0
 70
     8
 71
     3
 72
    14
 73
    10
 74
     0
 42
0.000000001
 43
0.00000001
 40
0.0
 40
0.0
 40
0.0
 40
0.0
 40
0.4999999999999968
 40
0.4999999999999968
 40
0.7499999999999967
 40
0.7499999999999967
 40
0.8749999999999983
 40
0.8749999999999983
 40
1.0
 40
1.0
 40
1.0
 40
1.0
 10
230.031008715401
 20
52.77769448165375
 30
0.0
 10
230.40462663764
 20
52.6195678164336
 30
0.0
 10
230.7797008657029
 20
52.46841250106338
 30
0.0
 10
231.3477252720508
 20
52.26700703046912
 30
0.0
 10
231.5379566508801
 20
52.20403658576746
 30
0.0
 10
231.8262108727916
 20
52.12307082080961
 30
0.0
 10
231.9227837010478
 20
52.09834695520819
 30
0.0
 10
232.1177194750515
 20
52.05717841054766
 30
0.0
 10
232.215953054255
 20
52.04013770433961
 30
0.0
 10
232.3164558625434
 20
52.03356754230111
 30
0.0
  0
SPLINE
  5
220
330
1F
100
AcDbEntity
  8
0
  6
Continuous
 62
     7
370
    15
100
AcDbSpline
210
0.0
220
0.0
230
1.0
 70
     8
 71
     3
 72
     8
 73
     4
 74
     0
 42
0.000000001
 43
0.00000001
 40
0.0
 40
0.0
 40
0.0
 40
0.0
 40
1.0
 40
1.0
 40
1.0
 40
1.0
 10
230.0401202047106
 20
52.96399822848334
 30
0.0
 10
230.0353764703696
 20
52.90202579521959
 30
0.0
 10
230.0324291161409
 20
52.83991714941753
 30
0.0
 10
230.031008715401
 20
52.77769448165375
 30
0.0
  0
SPLINE
  5
221
330
1F
100
AcDbEntity
  8
0
  6
Continuous
 62
     7
370
    15
100
AcDbSpline
210
0.0
220
0.0
230
1.0
 70
     8
 71
     3
 72
     8
 73
     4
 74
     0
 42
0.000000001
 43
0.00000001
 40
0.0
 40
0.0
 40
0.0
 40
0.0
 40
1.0
 40
1.0
 40
1.0
 40
1.0
 10
230.0401202047106
 20
42.8694518429572
 30
0.0
 10
230.0353764703696
 20
42.89361384420406
 30
0.0
 10
230.0324291161409
 20
42.91675039711354
 30
0.0
 10
230.031008715401
 20
42.93905372487645
 30
0.0
  0
SPLINE
  5
222
330
1F
100
AcDbEntity
  8
0
  6
Continuous
 62
     7
370
    15
100
AcDbSpline
210
0.0
220
0.0
230
1.0
 70
     8
 71
     3
 72
    18
 73
    14
 74
     0
 42
0.000000001
 43
0.00000001
 40
0.0
 40
0.0
 40
0.0
 40
0.0
 40
0.1189157487310367
 40
0.238368696683175
 40
0.3578122714596397
 40
0.4766988034897388
 40
0.5947537831422901
 40
0.6541795293678546
 40
0.7128691187278123
 40
0.7714873196269705
 40
0.8312663544436419
 40
0.949725978224893
 40
1.0
 40
1.0
 40
1.0
 40
1.0
 10
236.8416805552392
 20
41.06371399774189
 30
0.0
 10
236.6946973888847
 20
41.33851164612604
 30
0.0
 10
236.4000670630267
 20
41.88934833509217
 30
0.0
 10
236.262138846123
 20
42.73074141469559
 30
0.0
 10
236.4107774200571
 20
43.42658539225707
 30
0.0
 10
236.8148374755193
 20
43.88816301632964
 30
0.0
 10
237.3046901904398
 20
43.98945879125036
 30
0.0
 10
237.7232092189243
 20
43.89640694848971
 30
0.0
 10
238.0388266438512
 20
43.73726623105337
 30
0.0
 10
238.3442602258139
 20
43.49561802874766
 30
0.0
 10
238.7155071446074
 20
43.07631244655462
 30
0.0
 10
239.0438415285537
 20
42.56587403174453
 30
0.0
 10
239.170422661349
 20
42.14568400726149
 30
0.0
 10
239.2081373838958
 20
42.02048880762665
 30
0.0
  0
SPLINE
  5
223
330
1F
100
AcDbEntity
  8
0
  6
Continuous
 62
     7
370
    15
100
AcDbSpline
210
0.0
220
0.0
230
1.0
 70
     8
 71
     3
 72
    12
 73
     8
 74
     0
 42
0.000000001
 43
0.00000001
 40
0.0
 40
0.0
 40
0.0
 40
0.0
 40
0.1174319125744742
 40
0.4107530821517182
 40
0.5570900304586561
 40
0.7054347723268344
 40
1.0
 40
1.0
 40
1.0
 40
1.0
 10
238.7997585079613
 20
39.59262089841008
 30
0.0
 10
238.7404359239011
 20
39.57861832822979
 30
0.0
 10
238.5329375215526
 20
39.52964016945245
 30
0.0
 10
238.1348160147731
 20
39.73023448928443
 30
0.0
 10
237.7180731456605
 20
40.03482935934719
 30
0.0
 10
237.2943829888743
 20
40.4274610058515
 30
0.0
 10
237.0225007318846
 20
40.80957933921803
 30
0.0
 10
236.8416805552392
 20
41.06371399774189
 30
0.0
  0
ARC
  5
224
330
1F
100
AcDbEntity
  8
0
  6
Continuous
 62
     7
370
    15
100
AcDbCircle
 10
280.4286608379
 20
31.4413838175
 30
0.0
 40
2.182902395197138
100
AcDbArc
 50
353.7588101909
 51
13.7288361877
  0
LWPOLYLINE
  5
225
330
1F
100
AcDbEntity
  8
0
  6
Continuous
 62
     7
370
    15
100
AcDbPolyline
 90
        9
 70
   128
 43
0.0
 10
282.5491972741
 20
39.7319911658
 10
282.8934261006
 20
39.005765223
 10
283.1426611174
 20
38.1849183138
 10
283.293554124
 20
37.2804776209
 10
283.3440780374
 20
36.3045933184
 10
283.293554124
 20
35.2703753471
 10
283.1426611174
 20
34.1917172972
 10
282.8934261006
 20
33.0831097628
 10
282.5491972741
 20
31.9594456766
  0
LINE
  5
226
330
1F
100
AcDbEntity
  8
0
  6
Continuous
 62
     7
370
    15
100
AcDbLine
 10
281.1349837117
 20
32.7758537884
 30
0.0
 11
282.5491972741
 21
31.9594456766
 31
0.0
  0
ARC
  5
227
330
1F
100
AcDbEntity
  8
0
  6
Continuous
 62
     7
370
    15
100
AcDbCircle
 10
254.9062725644
 20
28.8013865058
 30
0.0
 40
6.803738895447723
100
AcDbArc
 50
222.5271058323
 51
256.97313883
  0
SPLINE
  5
228
330
1F
100
AcDbEntity
  8
0
  6
Continuous
 62
     7
370
    15
100
AcDbSpline
210
0.0
220
0.0
230
1.0
 70
     8
 71
     3
 72
    14
 73
    10
 74
     0
 42
0.000000001
 43
0.00000001
 40
0.0
 40
0.0
 40
0.0
 40
0.0
 40
0.25
 40
0.25
 40
0.5
 40
0.5
 40
0.75
 40
0.75
 40
1.0
 40
1.0
 40
1.0
 40
1.0
 10
247.8102533958371
 20
28.2409131944168
 30
0.0
 10
247.8577820930933
 20
28.21347546151938
 30
0.0
 10
247.9143719122179
 20
28.19223270658111
 30
0.0
 10
248.0382864788162
 20
28.16410897537892
 30
0.0
 10
248.1054088501567
 20
28.15743768845679
 30
0.0
 10
248.2379786816349
 20
28.15936353964584
 30
0.0
 10
248.304519229773
 20
28.16799471655123
 30
0.0
 10
248.4261367975252
 20
28.19853835528564
 30
0.0
 10
248.4822723775843
 20
28.22065743895632
 30
0.0
 10
248.5292677887977
 20
28.24778731237426
 30
0.0
  0
LINE
  5
229
330
1F
100
AcDbEntity
  8
0
  6
Continuous
 62
     7
370
    15
100
AcDbLine
 10
246.6033177208
 20
28.9376623289
 30
0.0
 11
247.8102533958
 21
28.2409131944
 31
0.0
  0
SPLINE
  5
22A
330
1F
100
AcDbEntity
  8
0
  6
Continuous
 62
     7
370
    15
100
AcDbSpline
210
0.0
220
0.0
230
1.0
 70
     8
 71
     3
 72
     8
 73
     4
 74
     0
 42
0.000000001
 43
0.00000001
 40
0.0
 40
0.0
 40
0.0
 40
0.0
 40
1.0
 40
1.0
 40
1.0
 40
1.0
 10
247.0594986849676
 20
29.86486016683472
 30
0.0
 10
246.9068163448872
 20
29.55589660642727
 30
0.0
 10
246.7548000123418
 20
29.2468222415654
 30
0.0
 10
246.6033177207594
 20
28.93766232891681
 30
0.0
  0
LINE
  5
22B
330
1F
100
AcDbEntity
  8
0
  6
Continuous
 62
     7
370
    15
100
AcDbLine
 10
247.5772191766
 20
30.163733845
 30
0.0
 11
247.059498685
 21
29.8648601668
 31
0.0
  0
SPLINE
  5
22C
330
1F
100
AcDbEntity
  8
0
  6
Continuous
 62
     7
370
    15
100
AcDbSpline
210
0.0
220
0.0
230
1.0
 70
     8
 71
     3
 72
    10
 73
     6
 74
     0
 42
0.000000001
 43
0.00000001
 40
0.0
 40
0.0
 40
0.0
 40
0.0
 40
0.5
 40
0.5
 40
1.0
 40
1.0
 40
1.0
 40
1.0
 10
247.6914281689795
 20
30.28106714636253
 30
0.0
 10
247.682236920522
 20
30.25894975021115
 30
0.0
 10
247.6674785988403
 20
30.23739556306557
 30
0.0
 10
247.6287652473328
 20
30.1978008974477
 30
0.0
 10
247.6051301112334
 20
30.1798464845457
 30
0.0
 10
247.5772191766428
 20
30.16373384497367
 30
0.0
  0
ARC
  5
22D
330
1F
100
AcDbEntity
  8
0
  6
Continuous
 62
     7
370
    15
100
AcDbCircle
 10
254.8138152916
 20
30.678272983
 30
0.0
 40
8.39297300181659
100
AcDbArc
 50
191.9693873291
 51
237.442675491
  0
ARC
  5
22E
330
1F
100
AcDbEntity
  8
0
  6
Continuous
 62
     7
370
    15
100
AcDbCircle
 10
254.5475100725
 20
33.030709564
 30
0.0
 40
9.155022890702618
100
AcDbArc
 50
195.1081347523
 51
213.0149245933
  0
SPLINE
  5
22F
330
1F
100
AcDbEntity
  8
0
  6
Continuous
 62
     7
370
    15
100
AcDbSpline
210
0.0
220
0.0
230
1.0
 70
     8
 71
     3
 72
     8
 73
     4
 74
     0
 42
0.000000001
 43
0.00000001
 40
0.0
 40
0.0
 40
0.0
 40
0.0
 40
1.0
 40
1.0
 40
1.0
 40
1.0
 10
244.1027969416683
 20
30.38118224850071
 30
0.0
 10
244.6383356447731
 20
30.46863111402973
 30
0.0
 10
245.1737261587081
 20
30.55638827484455
 30
0.0
 10
245.7089247329013
 20
30.64452991362541
 30
0.0
  0
LINE
  5
230
330
1F
100
AcDbEntity
  8
0
  6
Continuous
 62
     7
370
    15
100
AcDbLine
 10
245.7089247329
 20
30.6445299136
 30
0.0
 11
246.2266452246
 21
30.9434035918
 31
0.0
  0
SPLINE
  5
231
330
1F
100
AcDbEntity
  8
0
  6
Continuous
 62
     7
370
    15
100
AcDbSpline
210
0.0
220
0.0
230
1.0
 70
     8
 71
     3
 72
    10
 73
     6
 74
     0
 42
0.000000001
 43
0.00000001
 40
0.0
 40
0.0
 40
0.0
 40
0.0
 40
0.5
 40
0.5
 40
1.0
 40
1.0
 40
1.0
 40
1.0
 10
246.2266452245765
 20
30.94340359176436
 30
0.0
 10
246.2543650407781
 20
30.95940590103882
 30
0.0
 10
246.2861764107692
 20
30.97337444844099
 30
0.0
 10
246.35502376549
 20
30.99571733007601
 30
0.0
 10
246.3917975186463
 20
31.00405890892575
 30
0.0
 10
246.4298944864819
 20
31.00933503964995
 30
0.0
  0
SPLINE
  5
232
330
1F
100
AcDbEntity
  8
0
  6
Continuous
 62
     7
370
    15
100
AcDbSpline
210
0.0
220
0.0
230
1.0
 70
     8
 71
     3
 72
    15
 73
    11
 74
     0
 42
0.000000001
 43
0.00000001
 40
0.0
 40
0.0
 40
0.0
 40
0.0
 40
0.0999147003758311
 40
0.2396305722584894
 40
0.374656757174433
 40
0.5135278712816808
 40
0.649873108817642
 40
0.7900912645880246
 40
0.9277956675016755
 40
1.0
 40
1.0
 40
1.0
 40
1.0
 10
238.1059631621345
 20
43.63687015862018
 30
0.0
 10
238.1022979851988
 20
43.56818928285275
 30
0.0
 10
238.0935076025702
 20
43.4034684009259
 30
0.0
 10
238.1368564259467
 20
43.12403627806087
 30
0.0
 10
238.2257777923038
 20
42.80995478853536
 30
0.0
 10
238.3588953846881
 20
42.49734403432104
 30
0.0
 10
238.5316868259592
 20
42.18811111451593
 30
0.0
 10
238.7371183749747
 20
41.89612291760105
 30
0.0
 10
238.9296914927612
 20
41.66272468110558
 30
0.0
 10
239.0552489511826
 20
41.54253698052089
 30
0.0
 10
239.0984381612824
 20
41.50119485782078
 30
0.0
  0
SPLINE
  5
233
330
1F
100
AcDbEntity
  8
0
  6
Continuous
 62
     7
370
    15
100
AcDbSpline
210
0.0
220
0.0
230
1.0
 70
     8
 71
     3
 72
    12
 73
     8
 74
     0
 42
0.000000001
 43
0.00000001
 40
0.0
 40
0.0
 40
0.0
 40
0.0
 40
0.1735478512128797
 40
0.3343060975384717
 40
0.6166442526666661
 40
0.865679263996092
 40
1.0
 40
1.0
 40
1.0
 40
1.0
 10
237.1360161681175
 20
41.24611075205286
 30
0.0
 10
237.2244048905015
 20
41.11653888119213
 30
0.0
 10
237.3946685304145
 20
40.86694393550147
 30
0.0
 10
237.7588432490162
 20
40.46474706570932
 30
0.0
 10
238.1937782759595
 20
40.11416406034741
 30
0.0
 10
238.5812496039576
 20
39.9128692246619
 30
0.0
 10
238.7703520806198
 20
39.89596164689745
 30
0.0
 10
238.8366100773295
 20
39.89003754557599
 30
0.0
  0
SPLINE
  5
234
330
1F
100
AcDbEntity
  8
0
  6
Continuous
 62
     7
370
    15
100
AcDbSpline
210
0.0
220
0.0
230
1.0
 70
     8
 71
     3
 72
    16
 73
    12
 74
     0
 42
0.000000001
 43
0.00000001
 40
0.0
 40
0.0
 40
0.0
 40
0.0
 40
0.1459864684481103
 40
0.2334311620492773
 40
0.3277305155893269
 40
0.4369801941558453
 40
0.5295009819008033
 40
0.6638428915734506
 40
0.7988945757073643
 40
0.8912546655120578
 40
1.0
 40
1.0
 40
1.0
 40
1.0
 10
238.186688478352
 20
43.60508510887534
 30
0.0
 10
238.0208466098879
 20
43.68800699473022
 30
0.0
 10
237.7556668265591
 20
43.82059840803169
 30
0.0
 10
237.4014178824009
 20
43.8098655611286
 30
0.0
 10
237.1178650894666
 20
43.71157373061251
 30
0.0
 10
236.8847752813644
 20
43.50542377555838
 30
0.0
 10
236.7054396403973
 20
43.17444725849364
 30
0.0
 10
236.6229715720129
 20
42.71525748880985
 30
0.0
 10
236.7046587317773
 20
42.1937200179333
 30
0.0
 10
236.8797463776536
 20
41.69089137402554
 30
0.0
 10
237.0460756296698
 20
41.40221112018017
 30
0.0
 10
237.1360161681175
 20
41.24611075205286
 30
0.0
  0
SPLINE
  5
235
330
1F
100
AcDbEntity
  8
0
  6
Continuous
 62
     7
370
    15
100
AcDbSpline
210
0.0
220
0.0
230
1.0
 70
     8
 71
     3
 72
     9
 73
     5
 74
     0
 42
0.000000001
 43
0.00000001
 40
0.0
 40
0.0
 40
0.0
 40
0.0
 40
0.0949541496029796
 40
1.0
 40
1.0
 40
1.0
 40
1.0
 10
270.6426724803025
 20
57.30629738579859
 30
0.0
 10
270.6659040797683
 20
57.31150164730087
 30
0.0
 10
270.9105653143001
 20
57.36630979969902
 30
0.0
 10
271.1561077398895
 20
57.41979363406542
 30
0.0
 10
271.3783348932656
 20
57.46819895642206
 30
0.0
  0
LINE
  5
236
330
1F
100
AcDbEntity
  8
0
  6
Continuous
 62
     7
370
    15
100
AcDbLine
 10
271.3783348933
 20
57.4681989564
 30
0.0
 11
272.5852705683
 21
56.7714498219
 31
0.0
  0
SPLINE
  5
237
330
1F
100
AcDbEntity
  8
0
  6
Continuous
 62
     7
370
    15
100
AcDbSpline
210
0.0
220
0.0
230
1.0
 70
     8
 71
     3
 72
    12
 73
     8
 74
     0
 42
0.000000001
 43
0.00000001
 40
0.0
 40
0.0
 40
0.0
 40
0.0
 40
0.2500000000000019
 40
0.2500000000000019
 40
0.5000000000000008
 40
0.5000000000000008
 40
1.0
 40
1.0
 40
1.0
 40
1.0
 10
272.5852705683433
 20
56.77144982192207
 30
0.0
 10
272.638507249642
 20
56.74071693997611
 30
0.0
 10
272.6752381831357
 20
56.70109812956773
 30
0.0
 10
272.7111087790767
 20
56.6167940634132
 30
0.0
 10
272.710898856217
 20
56.57206280652219
 30
0.0
 10
272.6695079858935
 20
56.444169501624
 30
0.0
 10
272.5900542360648
 20
56.36600731860501
 30
0.0
 10
272.4839440511803
 20
56.30475121274407
 30
0.0
  0
SPLINE
  5
238
330
1F
100
AcDbEntity
  8
0
  6
Continuous
 62
     7
370
    15
100
AcDbSpline
210
0.0
220
0.0
230
1.0
 70
     8
 71
     3
 72
    11
 73
     7
 74
     0
 42
0.000000001
 43
0.00000001
 40
0.0
 40
0.0
 40
0.0
 40
0.0
 40
0.0433952564525139
 40
0.4195319859008123
 40
0.7945255590190243
 40
1.0
 40
1.0
 40
1.0
 40
1.0
 10
275.2732785890583
 20
51.4439138321623
 30
0.0
 10
275.2780363094729
 20
51.44672744046339
 30
0.0
 10
275.3240324864068
 20
51.47392853972164
 30
0.0
 10
275.391450710462
 20
51.53556971236594
 30
0.0
 10
275.4350008151632
 20
51.62184047685938
 30
0.0
 10
275.4202629150466
 20
51.67409789985422
 30
0.0
 10
275.415045983684
 20
51.69259601605728
 30
0.0
  0
LINE
  5
239
330
1F
100
AcDbEntity
  8
0
  6
Continuous
 62
     7
370
    15
100
AcDbLine
 10
232.2968956291
 20
45.8921141199
 30
0.0
 11
232.6098915548
 21
45.711425418
 31
0.0
  0
SPLINE
  5
23A
330
1F
100
AcDbEntity
  8
0
  6
Continuous
 62
     7
370
    15
100
AcDbSpline
210
0.0
220
0.0
230
1.0
 70
     8
 71
     3
 72
    10
 73
     6
 74
     0
 42
0.000000001
 43
0.00000001
 40
0.0
 40
0.0
 40
0.0
 40
0.0
 40
0.5
 40
0.5
 40
1.0
 40
1.0
 40
1.0
 40
1.0
 10
230.0310981425034
 20
53.34222435859353
 30
0.0
 10
230.0282831548993
 20
53.40197046366415
 30
0.0
 10
230.0308421344525
 20
53.46254747113425
 30
0.0
 10
230.046560538403
 20
53.58821803264925
 30
0.0
 10
230.0599548992402
 20
53.65402435927466
 30
0.0
 10
230.0781948258144
 20
53.72073920782833
 30
0.0
  0
SPLINE
  5
23B
330
1F
100
AcDbEntity
  8
0
  6
Continuous
 62
     7
370
    15
100
AcDbSpline
210
0.0
220
0.0
230
1.0
 70
     8
 71
     3
 72
     8
 73
     4
 74
     0
 42
0.000000001
 43
0.00000001
 40
0.0
 40
0.0
 40
0.0
 40
0.0
 40
1.0
 40
1.0
 40
1.0
 40
1.0
 10
230.105312104364
 20
53.3948282888686
 30
0.0
 10
230.0718187371199
 20
53.25378728827469
 30
0.0
 10
230.0512706435297
 20
53.10966823778645
 30
0.0
 10
230.0401202047106
 20
52.96399822848334
 30
0.0
  0
SPLINE
  5
23C
330
1F
100
AcDbEntity
  8
0
  6
Continuous
 62
     7
370
    15
100
AcDbSpline
210
0.0
220
0.0
230
1.0
 70
     8
 71
     3
 72
    26
 73
    22
 74
     0
 42
0.000000001
 43
0.00000001
 40
0.0
 40
0.0
 40
0.0
 40
0.0
 40
0.2500000000000008
 40
0.2500000000000008
 40
0.3750000000000012
 40
0.3750000000000012
 40
0.4375000000000003
 40
0.4375000000000003
 40
0.4687500000000004
 40
0.4687500000000004
 40
0.5000000000000004
 40
0.5000000000000004
 40
0.5312500000000004
 40
0.5312500000000004
 40
0.5625000000000004
 40
0.5625000000000004
 40
0.6250000000000004
 40
0.6250000000000004
 40
0.7500000000000006
 40
0.7500000000000006
 40
1.0
 40
1.0
 40
1.0
 40
1.0
 10
230.0781948258144
 20
53.72073920782833
 30
0.0
 10
230.1295024274584
 20
53.90840327870113
 30
0.0
 10
230.1808364652958
 20
54.09427024817932
 30
0.0
 10
230.2580436063146
 20
54.35906133615221
 30
0.0
 10
230.2837421672184
 20
54.44518867300336
 30
0.0
 10
230.3210463598533
 20
54.55701476847141
 30
0.0
 10
230.3337632432739
 20
54.59297099415657
 30
0.0
 10
230.3491922903108
 20
54.62435213597566
 30
0.0
 10
230.3537319966979
 20
54.63067432157164
 30
0.0
 10
230.3589117975785
 20
54.62568808098939
 30
0.0
 10
230.3592913151342
 20
54.61368296386599
 30
0.0
 10
230.3566407313008
 20
54.57974573408976
 30
0.0
 10
230.3538258839182
 20
54.55819081929477
 30
0.0
 10
230.3470711662505
 20
54.51307425281733
 30
0.0
 10
230.3430278638593
 20
54.48884620057911
 30
0.0
 10
230.3301421072927
 20
54.41553230951099
 30
0.0
 10
230.3204838061749
 20
54.36523733260681
 30
0.0
 10
230.2900662491424
 20
54.21243518587188
 30
0.0
 10
230.2679276469231
 20
54.10856687769447
 30
0.0
 10
230.2005901291317
 20
53.80119019984819
 30
0.0
 10
230.1534822657824
 20
53.59767345865189
 30
0.0
 10
230.1053121043639
 20
53.39482828886887
 30
0.0
  0
ARC
  5
23D
330
1F
100
AcDbEntity
  8
0
  6
Continuous
 62
     7
370
    15
100
AcDbCircle
 10
231.0089368737
 20
52.6310087135
 30
0.0
 40
0.9888681395010167
100
AcDbArc
 50
171.4694323953
 51
234.2977828938
  0
ARC
  5
23E
330
1F
100
AcDbEntity
  8
0
  6
Continuous
 62
     7
370
    15
100
AcDbCircle
 10
232.9931997818
 20
42.876192804
 30
0.0
 40
2.962857979913146
100
AcDbArc
 50
122.487978997
 51
178.78430362
  0
LINE
  5
23F
330
1F
100
AcDbEntity
  8
0
  6
Continuous
 62
     7
370
    15
100
AcDbLine
 10
231.4017816584
 20
45.3753758236
 30
0.0
 11
232.2968956291
 21
45.8921141199
 31
0.0
  0
SPLINE
  5
240
330
1F
100
AcDbEntity
  8
0
  6
Continuous
 62
     7
370
    15
100
AcDbSpline
210
0.0
220
0.0
230
1.0
 70
     8
 71
     3
 72
     8
 73
     4
 74
     0
 42
0.000000001
 43
0.00000001
 40
0.0
 40
0.0
 40
0.0
 40
0.0
 40
1.0
 40
1.0
 40
1.0
 40
1.0
 10
230.105312104364
 20
42.69148465306471
 30
0.0
 10
230.0718187371199
 20
42.75635882691414
 30
0.0
 10
230.0512706435297
 20
42.81265757555371
 30
0.0
 10
230.0401202047106
 20
42.8694518429572
 30
0.0
  0
ARC
  5
241
330
1F
100
AcDbEntity
  8
0
  6
Continuous
 62
     7
370
    15
100
AcDbCircle
 10
231.7517160353
 20
43.586704002
 30
0.0
 40
1.725905554404318
100
AcDbArc
 50
122.7352634073
 51
175.5138696649
  0
LINE
  5
242
330
1F
100
AcDbEntity
  8
0
  6
Continuous
 62
     7
370
    15
100
AcDbLine
 10
231.4017816584
 20
45.3753758236
 30
0.0
 11
230.8184185639
 21
45.038498
 31
0.0
  0
SPLINE
  5
243
330
1F
100
AcDbEntity
  8
0
  6
Continuous
 62
     7
370
    15
100
AcDbSpline
210
0.0
220
0.0
230
1.0
 70
     8
 71
     3
 72
     9
 73
     5
 74
     0
 42
0.000000001
 43
0.00000001
 40
0.0
 40
0.0
 40
0.0
 40
0.0
 40
0.2990860003180655
 40
1.0
 40
1.0
 40
1.0
 40
1.0
 10
230.2426078745873
 20
42.46051630518323
 30
0.0
 10
230.2295946772794
 20
42.47771065082276
 30
0.0
 10
230.1860847928515
 20
42.53520028798811
 30
0.0
 10
230.1385969783571
 20
42.62708286706589
 30
0.0
 10
230.1053121043637
 20
42.69148465306839
 30
0.0
  0
LWPOLYLINE
  5
244
330
1F
100
AcDbEntity
  8
0
  6
Continuous
 62
     7
370
     0
100
AcDbPolyline
 90
       26
 70
   128
 43
0.0
 10
253.5483660451
 20
33.5951388973
 10
253.5923912661
 20
34.6877897745
 10
253.7240682299
 20
35.8213758744
 10
253.9422044495
 20
36.9856312658
 10
254.2448244494
 20
38.1700122713
 10
254.6291876563
 20
39.3637929534
 10
255.0918132172
 20
40.5561622493
 10
255.6285115235
 20
41.736321878
 10
256.2344221523
 20
42.8935841311
 10
256.904057883
 20
44.0174686624
 10
257.6313543907
 20
45.0977973997
 10
258.4097251658
 20
46.1247867186
 10
259.2321211618
 20
47.0891360447
 10
260.0910946333
 20
47.9821120813
 10
260.9788665836
 20
48.795627899
 10
261.8873972123
 20
49.5223161727
 10
262.8084587255
 20
50.1555959008
 10
263.7337098474
 20
50.6897320041
 10
264.6547713605
 20
51.1198872632
 10
265.5633019893
 20
51.4421661256
 10
266.4510739395
 20
51.6536499839
 10
267.3100474111
 20
51.7524236075
 10
268.1324434071
 20
51.7375924874
 10
268.9108141821
 20
51.6092909362
 10
269.6381106899
 20
51.3686808729
 10
270.1455255733
 20
51.1161165238
  0
LWPOLYLINE
  5
245
330
1F
100
AcDbEntity
  8
0
  6
Continuous
 62
     7
370
     0
100
AcDbPolyline
 90
       10
 70
   128
 43
0.0
 10
256.3966429996
 20
27.2997728083
 10
256.2344221523
 20
27.3979480328
 10
255.6285115235
 20
27.8556407647
 10
255.0918132172
 20
28.4161417187
 10
254.6291876563
 20
29.0743749113
 10
254.2448244494
 20
29.8243792808
 10
253.9422044495
 20
30.6593626716
 10
253.7240682299
 20
31.5717633446
 10
253.5923912661
 20
32.5533184582
 10
253.5483660451
 20
33.5951388973
  0
LWPOLYLINE
  5
246
330
1F
100
AcDbEntity
  8
0
  6
Continuous
 62
     7
370
     0
100
AcDbPolyline
 90
       26
 70
   128
 43
0.0
 10
248.5292677888
 20
36.4131954312
 10
248.8548609758
 20
37.819398857
 10
249.2638158614
 20
39.2397392284
 10
249.7535104529
 20
40.6651101081
 10
250.3208050994
 20
42.0863728061
 10
250.9620626211
 20
43.4944149715
 10
251.6731716293
 20
44.8802090166
 10
252.4495728862
 20
46.2348699959
 10
253.2862885362
 20
47.5497125722
 10
254.1779540211
 20
48.8163067018
 10
255.1188524747
 20
50.0265316833
 10
256.1029513764
 20
51.1726282231
 10
257.1239412279
 20
52.247248184
 10
258.1752760069
 20
53.2435016968
 10
259.2502151358
 20
54.1550013347
 10
260.3418666994
 20
54.9759030659
 10
261.4432316312
 20
55.7009437224
 10
262.5472485882
 20
56.3254747443
 10
263.646839224
 20
56.845491984
 10
264.7349535713
 20
57.2576613783
 10
265.8046152425
 20
57.5593403251
 10
266.8489661583
 20
57.7485946256
 10
267.861310518
 20
57.824210886
 10
268.8351577292
 20
57.7857042965
 10
269.7642640219
 20
57.6333217402
 10
270.6426724803
 20
57.3680402097
  0
LWPOLYLINE
  5
247
330
1F
100
AcDbEntity
  8
0
  6
Continuous
 62
     7
370
     0
100
AcDbPolyline
 90
       26
 70
   128
 43
0.0
 10
247.8102533958
 20
36.4063213133
 10
248.1344571674
 20
37.8369232791
 10
248.5431919436
 20
39.2826468454
 10
249.0338733036
 20
40.7343507343
 10
249.6033986801
 20
42.1828558546
 10
250.2481669768
 20
43.6190033406
 10
250.9641013383
 20
45.0337124638
 10
251.7466749274
 20
46.4180380501
 10
252.5909395488
 20
47.7632270395
 10
253.4915569363
 20
49.0607738322
 10
254.442832506
 20
50.3024740686
 10
255.4387513638
 20
51.4804765059
 10
256.473016337
 20
52.587332661
 10
257.5390877912
 20
53.616043907
 10
258.6302249804
 20
54.5601057257
 10
259.7395286685
 20
55.4135488352
 10
260.859984753
 20
56.1709769339
 10
261.984508615
 20
56.8276008207
 10
263.1059899152
 20
57.3792686775
 10
264.2173375525
 20
57.8224923207
 10
265.3115245005
 20
58.154469257
 10
266.3816322395
 20
58.3731004038
 10
267.4208945021
 20
58.4770033611
 10
268.4227400563
 20
58.4655211529
 10
269.3808342549
 20
58.338726381
 10
270.2891190897
 20
58.0974207657
  0
LWPOLYLINE
  5
248
330
1F
100
AcDbEntity
  8
0
  6
Continuous
 62
     7
370
     0
100
AcDbPolyline
 90
       18
 70
   128
 43
0.0
 10
261.8965196403
 20
24.1247616057
 10
261.4856778758
 20
23.8932924789
 10
260.3814414289
 20
23.3414770895
 10
259.286710115
 20
22.8971375068
 10
258.2085365032
 20
22.563136292
 10
257.1538664929
 20
22.3416251757
 10
256.129494567
 20
22.2340311951
 10
255.1420200192
 20
22.241047501
 10
254.19780444
 20
22.3626288924
 10
253.3029307334
 20
22.5979921077
 10
252.4631639292
 20
22.9456208703
 10
251.6839140426
 20
23.4032756573
 10
250.9702012222
 20
23.9680081272
 10
250.3266234077
 20
24.6361801135
 10
249.7573267097
 20
25.4034870632
 10
249.2659786985
 20
26.2649857678
 10
248.8557447772
 20
27.2151262087
 10
248.5292677888
 20
28.2477873124
  0
ARC
  5
249
330
1F
100
AcDbEntity
  8
0
  6
Continuous
 62
     7
370
     0
100
AcDbCircle
 10
266.7473847693
 20
49.7821617794
 30
0.0
 40
8.686327492719556
100
AcDbArc
 50
11.0290475412
 51
48.66865979
  0
LWPOLYLINE
  5
24A
330
1F
100
AcDbEntity
  8
0
  6
Continuous
 62
     7
370
     0
100
AcDbPolyline
 90
       33
 70
   128
 43
0.0
 10
250.7199389204
 20
33.5951388973
 10
250.7647729336
 20
34.7738289488
 10
250.8989139962
 20
35.9947931309
 10
251.1212820832
 20
37.248200958
 10
251.4300868175
 20
38.5239607271
 10
251.822841885
 20
39.8118007709
 10
252.2963850528
 20
41.1013521584
 10
252.8469036297
 20
42.3822321802
 10
253.4699651639
 20
43.6441279434
 10
254.1605531302
 20
44.8768794054
 10
254.9131073205
 20
46.0705611762
 10
255.7215686108
 20
47.2155624322
 10
256.5794277462
 20
48.3026642963
 10
257.4797777494
 20
49.3231140637
 10
258.4153695315
 20
50.2686956728
 10
259.3786702577
 20
51.1317958564
 10
260.3619239969
 20
51.9054654395
 10
261.3572141681
 20
52.5834752894
 10
262.3565272801
 20
53.1603664695
 10
263.3518174513
 20
53.6314941912
 10
264.3350711904
 20
53.9930652111
 10
265.2983719166
 20
54.2421683719
 10
266.2339636987
 20
54.3767980415
 10
267.1343137019
 20
54.395870261
 10
267.9921728373
 20
54.299231472
 10
268.8006341277
 20
54.0876597533
 10
269.5531883179
 20
53.7628585559
 10
270.2437762842
 20
53.327442988
 10
270.8668378184
 20
52.7849187599
 10
271.4173563954
 20
52.1396539576
 10
271.8908995631
 20
51.3968438739
 10
272.2836546306
 20
50.5624691788
 10
272.5721969727
 20
49.7152289436
  0
LWPOLYLINE
  5
24B
330
1F
100
AcDbEntity
  8
0
  6
Continuous
 62
     7
370
     0
100
AcDbPolyline
 90
       16
 70
   128
 43
0.0
 10
258.823314399
 20
25.8988852282
 10
258.4153695315
 20
25.8065371839
 10
257.4797777494
 20
25.6719075142
 10
256.5794277462
 20
25.6528352948
 10
255.7215686108
 20
25.7494740837
 10
254.9131073205
 20
25.9610458025
 10
254.1605531302
 20
26.2858469999
 10
253.4699651639
 20
26.7212625677
 10
252.8469036297
 20
27.2637867958
 10
252.2963850528
 20
27.9090515982
 10
251.822841885
 20
28.6518616819
 10
251.4300868175
 20
29.486236377
 10
251.1212820832
 20
30.4054577891
 10
250.8989139962
 20
31.4021248877
 10
250.7647729336
 20
32.4682130956
 10
250.7199389204
 20
33.5951388973
  0
LWPOLYLINE
  5
24C
330
1F
100
AcDbEntity
  8
0
  6
Continuous
 62
     7
370
     0
100
AcDbPolyline
 90
       26
 70
   128
 43
0.0
 10
238.7168013097
 20
37.0546682711
 10
238.7615068771
 20
38.3779623227
 10
238.8953409363
 20
39.7445060327
 10
239.1174573452
 20
41.1456596717
 10
239.4264518124
 20
42.5725646953
 10
239.8203707754
 20
44.0161997505
 10
240.2967237518
 20
45.4674377117
 10
240.8524990845
 20
46.9171033853
 10
241.484182983
 20
48.3560315182
 10
242.1877817383
 20
49.7751247432
 10
242.9588469726
 20
51.1654110963
 10
243.7925037631
 20
52.5181007394
 10
244.6834814633
 20
53.8246415331
 10
245.6261470252
 20
55.0767731058
 10
246.6145406136
 20
56.2665790786
 10
247.6424132861
 20
57.3865371151
 10
248.7032665007
 20
58.4295664798
 10
249.7903932017
 20
59.3890728054
 10
250.8969202242
 20
60.258989784
 10
252.0158517481
 20
61.0338175202
 10
253.1401135279
 20
61.7086573038
 10
254.2625976188
 20
62.2792425802
 10
255.3762073149
 20
62.7419659257
 10
256.4739020171
 20
63.0939018543
 10
257.5487417462
 20
63.3328253138
 10
258.0232060497
 20
63.403049075
  0
ARC
  5
24D
330
1F
100
AcDbEntity
  8
0
  6
Continuous
 62
     7
370
     0
100
AcDbCircle
 10
252.6512932556
 20
36.7870461631
 30
0.0
 40
13.93706164804985
100
AcDbArc
 50
178.8997279231
 51
201.6232225037
  0
LWPOLYLINE
  5
24E
330
1F
100
AcDbEntity
  8
0
  6
Continuous
 62
     7
370
     0
100
AcDbPolyline
 90
       20
 70
   128
 43
0.0
 10
246.2266452246
 20
39.1088117106
 10
246.573570404
 20
40.4936592634
 10
247.0069686346
 20
41.8898179121
 10
247.5236631404
 20
43.2870539193
 10
248.1198665896
 20
44.6751256509
 10
248.791208856
 20
46.0438586462
 10
249.5327690518
 20
47.383220196
 10
250.3391115968
 20
48.6833928815
 10
251.2043260612
 20
49.9348465353
 10
252.1220704884
 20
51.1284080968
 10
253.0856178813
 20
52.2553288502
 10
254.0879055105
 20
53.3073485517
 10
255.1215866833
 20
54.2767559764
 10
256.1790845953
 20
55.1564454414
 10
257.2526478665
 20
55.9399688894
 10
258.3344073597
 20
56.6215831529
 10
259.4164338595
 20
57.1962920509
 10
260.4907961936
 20
57.6598830107
 10
261.5496193675
 20
58.0089579457
 10
262.0147152653
 20
58.1269960199
  0
LWPOLYLINE
  5
24F
330
1F
100
AcDbEntity
  8
0
  6
Continuous
 62
     7
370
     0
100
AcDbPolyline
 90
       17
 70
   128
 43
0.0
 10
246.6682170642
 20
38.4674971408
 10
246.9709991253
 20
39.8087300643
 10
247.3587429145
 20
41.1649790551
 10
247.8286285831
 20
42.5263808562
 10
248.3772389095
 20
43.8830347364
 10
249.0005841509
 20
45.2250744941
 10
249.6941310582
 20
46.542740208
 10
250.452835844
 20
47.8264492157
 10
251.2711808632
 20
49.0668658037
 10
252.14321474
 20
50.2549691003
 10
253.0625956489
 20
51.3821186801
 10
254.0226374351
 20
52.4401174003
 10
255.0163582399
 20
53.4212710149
 10
256.0365312751
 20
54.3184441301
 10
257.0757373801
 20
55.1251120964
 10
258.1264189771
 20
55.8354084589
 10
258.3209718738
 20
55.9555385238
  0
LINE
  5
250
330
1F
100
AcDbEntity
  8
0
  6
Continuous
 62
     7
370
     0
100
AcDbLine
 10
269.4582686218
 20
23.3685623787
 30
0.0
 11
270.8724821842
 21
22.5521542669
 31
0.0
  0
LINE
  5
251
330
1F
100
AcDbEntity
  8
0
  6
Continuous
 62
     7
370
     0
100
AcDbLine
 10
239.9409806154
 20
36.7613383547
 30
0.0
 11
242.0932361899
 21
38.0038090512
 31
0.0
  0
LWPOLYLINE
  5
252
330
1F
100
AcDbEntity
  8
0
  6
Continuous
 62
     7
370
     0
100
AcDbPolyline
 90
       22
 70
   128
 43
0.0
 10
230.0401202047
 20
52.9639982285
 10
230.4877602431
 20
54.1783918418
 10
231.0107267822
 20
55.3838410911
 10
231.6044524897
 20
56.5698181761
 10
232.2637520577
 20
57.7259653569
 10
232.9828674882
 20
58.8421854133
 10
233.7555183812
 20
59.9087298289
 10
234.5749567842
 20
60.9162839297
 10
235.4340261256
 20
61.8560482345
 10
236.3252237168
 20
62.7198153045
 10
237.2407662769
 20
63.5000414233
 10
238.1726579077
 20
64.1899124802
 10
239.1127599268
 20
64.7834034811
 10
240.0528619458
 20
65.2753311676
 10
240.9847535767
 20
65.6613992857
 10
241.9002961367
 20
65.9382361065
 10
242.791493728
 20
66.1034238734
 10
243.6505630694
 20
66.1555199179
 10
244.4700014724
 20
66.0940692588
 10
245.2426523654
 20
65.9196085757
 10
245.9617677959
 20
65.6336615226
 10
245.9763887174
 20
65.6264081961
  0
ARC
  5
253
330
1F
100
AcDbEntity
  8
0
  6
Continuous
 62
     7
370
     0
100
AcDbCircle
 10
234.6729524402
 20
45.3198989859
 30
0.0
 40
5.240975646114769
100
AcDbArc
 50
207.8757373032
 51
236.0299825723
  0
ARC
  5
254
330
1F
100
AcDbEntity
  8
0
  6
Continuous
 62
     7
370
     0
100
AcDbCircle
 10
256.8267963728
 20
30.3333685954
 30
0.0
 40
9.256155619974304
100
AcDbArc
 50
193.0652741079
 51
221.4800002847
  0
LINE
  5
255
330
1F
100
AcDbEntity
  8
0
  6
Continuous
 62
     7
370
     0
100
AcDbLine
 10
239.9409806154
 20
35.9447975429
 30
0.0
 11
242.0932361899
 21
37.1872682393
 31
0.0
  0
LINE
  5
256
330
1F
100
AcDbEntity
  8
0
  6
Continuous
 62
     7
370
     0
100
AcDbLine
 10
243.5676127087
 20
30.6901375299
 30
0.0
 11
245.2752167052
 21
31.6759163342
 31
0.0
  0
LINE
  5
257
330
1F
100
AcDbEntity
  8
0
  6
Continuous
 62
     7
370
     0
100
AcDbLine
 10
247.6664118076
 20
30.2542466305
 30
0.0
 11
247.4531055913
 21
30.988313164
 31
0.0
  0
LWPOLYLINE
  5
258
330
1F
100
AcDbEntity
  8
0
  6
Continuous
 62
     7
370
     0
100
AcDbPolyline
 90
        3
 70
   128
 43
0.0
 10
247.1768361668
 20
29.9325976532
 10
246.9709991253
 20
30.4497714694
 10
246.6682170642
 20
31.4414196661
  0
LWPOLYLINE
  5
259
330
1F
100
AcDbEntity
  8
0
  6
Continuous
 62
     7
370
     0
100
AcDbPolyline
 90
        3
 70
   128
 43
0.0
 10
246.8251517854
 20
29.4071193756
 10
246.566098844
 20
29.9771634151
 10
246.2266452246
 20
30.9434035918
  0
LINE
  5
25A
330
1F
100
AcDbEntity
  8
0
  6
Continuous
 62
     7
370
     0
100
AcDbLine
 10
279.3577635584
 20
29.0834191615
 30
0.0
 11
280.7719771208
 21
28.2670110496
 31
0.0
  0
LINE
  5
25B
330
1F
100
AcDbEntity
  8
0
  6
Continuous
 62
     7
370
     0
100
AcDbLine
 10
268.2168409367
 20
59.2932905694
 30
0.0
 11
267.8643669707
 21
59.08981168
 31
0.0
  0
ARC
  5
25C
330
1F
100
AcDbEntity
  8
0
  6
Continuous
 62
     7
370
     0
100
AcDbCircle
 10
234.5225243494
 20
51.0388341984
 30
0.0
 40
1.481847380531443
100
AcDbArc
 50
159.3804585659
 51
213.4234454268
  0
ARC
  5
25D
330
1F
100
AcDbEntity
  8
0
  6
Continuous
 62
     7
370
     0
100
AcDbCircle
 10
232.6892640774
 20
50.7456715847
 30
0.0
 40
0.9292273799863966
100
AcDbArc
 50
44.6915000057
 51
61.2926903386
  0
LINE
  5
25E
330
1F
100
AcDbEntity
  8
0
  6
Continuous
 62
     7
370
     0
100
AcDbLine
 10
233.1356048806
 20
51.5606828798
 30
0.0
 11
233.2346961288
 21
51.9322724077
 31
0.0
  0
LINE
  5
25F
330
1F
100
AcDbEntity
  8
0
  6
Continuous
 62
     7
370
     0
100
AcDbLine
 10
233.1356048806
 20
51.5606828798
 30
0.0
 11
232.3164558625
 21
52.0335675423
 31
0.0
  0
LINE
  5
260
330
1F
100
AcDbEntity
  8
0
  6
Continuous
 62
     7
370
     0
100
AcDbLine
 10
230.1053121044
 20
53.3948282889
 30
0.0
 11
230.0781948258
 21
53.7207392078
 31
0.0
  0
ARC
  5
261
330
1F
100
AcDbEntity
  8
0
  6
Continuous
 62
     7
370
     0
100
AcDbCircle
 10
232.8445121131
 20
40.2412454097
 30
0.0
 40
0.5950779720693972
100
AcDbArc
 50
31.8746821495
 51
60.714125574
  0
ARC
  5
262
330
1F
100
AcDbEntity
  8
0
  6
Continuous
 62
     7
370
     0
100
AcDbCircle
 10
234.794817721
 20
41.2907661522
 30
0.0
 40
1.741957873065365
100
AcDbArc
 50
166.6109710952
 51
197.7306259078
  0
LINE
  5
263
330
1F
100
AcDbEntity
  8
0
  6
Continuous
 62
     7
370
     0
100
AcDbLine
 10
232.6010254894
 20
44.6830670962
 30
0.0
 11
231.4017816584
 21
45.3753758236
 31
0.0
  0
LINE
  5
264
330
1F
100
AcDbEntity
  8
0
  6
Continuous
 62
     7
370
     0
100
AcDbLine
 10
233.1356048806
 20
40.760266405
 30
0.0
 11
232.3164558625
 21
41.2331510675
 31
0.0
  0
LINE
  5
265
330
1F
100
AcDbEntity
  8
0
  6
Continuous
 62
     7
370
     0
100
AcDbLine
 10
233.1356048806
 20
40.760266405
 30
0.0
 11
233.2346961288
 21
40.503085197
 31
0.0
  0
OLE2FRAME
  5
266
330
1F
100
AcDbEntity
  8
0
100
AcDbOle2Frame
 70
     2
  3
Paintbrush-Bild
 10
13.8511154363
 20
38.264191557
 30
0.0
 11
51.6290888628
 21
31.9806341108
 31
0.0
 71
     2
 72
     0
 73
     1
 90
    12928
310
80552BED0767C5B32B40DDAF6807D121434000000000000000006FFBDDFB85D0
310
4940DDAF6807D121434000000000000000006FFBDDFB85D04940416F4BD60AFB
310
3F4000000000000000002BED0767C5B32B40416F4BD60AFB3F40000000000000
310
0000000000000100000000010000010000000100000000000100000000320000
310
D0CF11E0A1B11AE1000000000000000000000000000000003E000300FEFF0900
310
0600000000000000000000000100000001000000000000000010000002000000
310
01000000FEFFFFFF0000000000000000FFFFFFFFFFFFFFFFFFFFFFFFFFFFFFFF
310
FFFFFFFFFFFFFFFFFFFFFFFFFFFFFFFFFFFFFFFFFFFFFFFFFFFFFFFFFFFFFFFF
310
FFFFFFFFFFFFFFFFFFFFFFFFFFFFFFFFFFFFFFFFFFFFFFFFFFFFFFFFFFFFFFFF
310
FFFFFFFFFFFFFFFFFFFFFFFFFFFFFFFFFFFFFFFFFFFFFFFFFFFFFFFFFFFFFFFF
310
FFFFFFFFFFFFFFFFFFFFFFFFFFFFFFFFFFFFFFFFFFFFFFFFFFFFFFFFFFFFFFFF
310
FFFFFFFFFFFFFFFFFFFFFFFFFFFFFFFFFFFFFFFFFFFFFFFFFFFFFFFFFFFFFFFF
310
FFFFFFFFFFFFFFFFFFFFFFFFFFFFFFFFFFFFFFFFFFFFFFFFFFFFFFFFFFFFFFFF
310
FFFFFFFFFFFFFFFFFFFFFFFFFFFFFFFFFFFFFFFFFFFFFFFFFFFFFFFFFFFFFFFF
310
FFFFFFFFFFFFFFFFFFFFFFFFFFFFFFFFFFFFFFFFFFFFFFFFFFFFFFFFFFFFFFFF
310
FFFFFFFFFFFFFFFFFFFFFFFFFFFFFFFFFFFFFFFFFFFFFFFFFFFFFFFFFFFFFFFF
310
FFFFFFFFFFFFFFFFFFFFFFFFFFFFFFFFFFFFFFFFFFFFFFFFFFFFFFFFFFFFFFFF
310
FFFFFFFFFFFFFFFFFFFFFFFFFFFFFFFFFFFFFFFFFFFFFFFFFFFFFFFFFFFFFFFF
310
FFFFFFFFFFFFFFFFFFFFFFFFFFFFFFFFFFFFFFFFFFFFFFFFFFFFFFFFFFFFFFFF
310
FFFFFFFFFFFFFFFFFFFFFFFFFFFFFFFFFFFFFFFFFFFFFFFFFFFFFFFFFFFFFFFF
310
FDFFFFFFFEFFFFFFFEFFFFFFFEFFFFFF05000000060000000700000008000000
310
090000000A0000000B0000000C0000000D0000000E0000000F00000010000000
310
11000000120000001300000014000000150000001600000017000000FEFFFFFF
310
FFFFFFFFFFFFFFFFFFFFFFFFFFFFFFFFFFFFFFFFFFFFFFFFFFFFFFFFFFFFFFFF
310
FFFFFFFFFFFFFFFFFFFFFFFFFFFFFFFFFFFFFFFFFFFFFFFFFFFFFFFFFFFFFFFF
310
FFFFFFFFFFFFFFFFFFFFFFFFFFFFFFFFFFFFFFFFFFFFFFFFFFFFFFFFFFFFFFFF
310
FFFFFFFFFFFFFFFFFFFFFFFFFFFFFFFFFFFFFFFFFFFFFFFFFFFFFFFFFFFFFFFF
310
FFFFFFFFFFFFFFFFFFFFFFFFFFFFFFFFFFFFFFFFFFFFFFFFFFFFFFFFFFFFFFFF
310
FFFFFFFFFFFFFFFFFFFFFFFFFFFFFFFFFFFFFFFFFFFFFFFFFFFFFFFFFFFFFFFF
310
FFFFFFFFFFFFFFFFFFFFFFFFFFFFFFFFFFFFFFFFFFFFFFFFFFFFFFFFFFFFFFFF
310
FFFFFFFFFFFFFFFFFFFFFFFFFFFFFFFFFFFFFFFFFFFFFFFFFFFFFFFFFFFFFFFF
310
FFFFFFFFFFFFFFFFFFFFFFFFFFFFFFFFFFFFFFFFFFFFFFFFFFFFFFFFFFFFFFFF
310
FFFFFFFFFFFFFFFFFFFFFFFFFFFFFFFFFFFFFFFFFFFFFFFFFFFFFFFFFFFFFFFF
310
FFFFFFFFFFFFFFFFFFFFFFFFFFFFFFFFFFFFFFFFFFFFFFFFFFFFFFFFFFFFFFFF
310
FFFFFFFFFFFFFFFFFFFFFFFFFFFFFFFFFFFFFFFFFFFFFFFFFFFFFFFFFFFFFFFF
310
FFFFFFFFFFFFFFFFFFFFFFFFFFFFFFFFFFFFFFFFFFFFFFFFFFFFFFFFFFFFFFFF
310
52006F006F007400200045006E00740072007900000000000000000000000000
310
0000000000000000000000000000000000000000000000000000000000000000
310
16000500FFFFFFFFFFFFFFFF020000000A00030000000000C000000000000046
310
000000000000000000000000D0B083269903D20103000000C000000000000000
310
01004F006C006500000000000000000000000000000000000000000000000000
310
0000000000000000000000000000000000000000000000000000000000000000
310
0A000200FFFFFFFFFFFFFFFFFFFFFFFF00000000000000000000000000000000
310
0000000000000000000000000000000000000000000000001400000000000000
310
010043006F006D0070004F0062006A0000000000000000000000000000000000
310
0000000000000000000000000000000000000000000000000000000000000000
310
120002010100000003000000FFFFFFFF00000000000000000000000000000000
310
0000000000000000000000000000000000000000010000004D00000000000000
310
01004F006C006500310030004E00610074006900760065000000000000000000
310
0000000000000000000000000000000000000000000000000000000000000000
310
1A000200FFFFFFFFFFFFFFFFFFFFFFFF00000000000000000000000000000000
310
0000000000000000000000000000000000000000040000002426000000000000
310
FEFFFFFF02000000FEFFFFFFFFFFFFFFFFFFFFFFFFFFFFFFFFFFFFFFFFFFFFFF
310
FFFFFFFFFFFFFFFFFFFFFFFFFFFFFFFFFFFFFFFFFFFFFFFFFFFFFFFFFFFFFFFF
310
FFFFFFFFFFFFFFFFFFFFFFFFFFFFFFFFFFFFFFFFFFFFFFFFFFFFFFFFFFFFFFFF
310
FFFFFFFFFFFFFFFFFFFFFFFFFFFFFFFFFFFFFFFFFFFFFFFFFFFFFFFFFFFFFFFF
310
FFFFFFFFFFFFFFFFFFFFFFFFFFFFFFFFFFFFFFFFFFFFFFFFFFFFFFFFFFFFFFFF
310
FFFFFFFFFFFFFFFFFFFFFFFFFFFFFFFFFFFFFFFFFFFFFFFFFFFFFFFFFFFFFFFF
310
FFFFFFFFFFFFFFFFFFFFFFFFFFFFFFFFFFFFFFFFFFFFFFFFFFFFFFFFFFFFFFFF
310
FFFFFFFFFFFFFFFFFFFFFFFFFFFFFFFFFFFFFFFFFFFFFFFFFFFFFFFFFFFFFFFF
310
FFFFFFFFFFFFFFFFFFFFFFFFFFFFFFFFFFFFFFFFFFFFFFFFFFFFFFFFFFFFFFFF
310
FFFFFFFFFFFFFFFFFFFFFFFFFFFFFFFFFFFFFFFFFFFFFFFFFFFFFFFFFFFFFFFF
310
FFFFFFFFFFFFFFFFFFFFFFFFFFFFFFFFFFFFFFFFFFFFFFFFFFFFFFFFFFFFFFFF
310
FFFFFFFFFFFFFFFFFFFFFFFFFFFFFFFFFFFFFFFFFFFFFFFFFFFFFFFFFFFFFFFF
310
FFFFFFFFFFFFFFFFFFFFFFFFFFFFFFFFFFFFFFFFFFFFFFFFFFFFFFFFFFFFFFFF
310
FFFFFFFFFFFFFFFFFFFFFFFFFFFFFFFFFFFFFFFFFFFFFFFFFFFFFFFFFFFFFFFF
310
FFFFFFFFFFFFFFFFFFFFFFFFFFFFFFFFFFFFFFFFFFFFFFFFFFFFFFFFFFFFFFFF
310
FFFFFFFFFFFFFFFFFFFFFFFFFFFFFFFFFFFFFFFFFFFFFFFFFFFFFFFFFFFFFFFF
310
0100000200000000000000000000000000000000000000000000000000000000
310
0000000000000000000000000000000000000000000000000000000000000000
310
0100FEFF030A0000FFFFFFFF0A00030000000000C00000000000004607000000
310
5042727573680007000000504272757368000700000050427275736800F439B2
310
7100000000000000000000000000000000000000000000000000000000000000
310
0000000000000000000000000000000000000000000000000000000000000000
310
0000000000000000000000000000000000000000000000000000000000000000
310
0000000000000000000000000000000000000000000000000000000000000000
310
0000000000000000000000000000000000000000000000000000000000000000
310
0000000000000000000000000000000000000000000000000000000000000000
310
0000000000000000000000000000000000000000000000000000000000000000
310
0000000000000000000000000000000000000000000000000000000000000000
310
0000000000000000000000000000000000000000000000000000000000000000
310
0000000000000000000000000000000000000000000000000000000000000000
310
0000000000000000000000000000000000000000000000000000000000000000
310
0000000000000000000000000000000000000000000000000000000000000000
310
20260000424D0E260000000000003E00000028000000B40200006E0000000100
310
01000000000000000000130B0000130B00000200000002000000000000FFFFFF
310
FFFFFFFFFFFFFFFFFFFFFFFFFFFFFFFFFFFFFFFFFFFFFFFFFFFFFFFFFFFFFFFF
310
FFFFFFFFFFFFFFFFFFFFFFFFFFFFFFFFFFFFFFFFFFFFFFFFFFFFFFFFFFFFFFFF
310
FFFFFFFFFFFFFFFFFFFFFFFFFFFFFFFFFFFFFFFFFFFFFFFFF000FFFFFFFFFFFF
310
FFFFFFFFFFFFFFFFFFFFFFFFFFFFFFFFFFFFFFFFFFFFFFFFFFFFFFFFFFFFFFFF
310
FFFFFFFFFFFFFFFFFFFFFFFFFFFFFFFFFFFFFFFFFFFFFFFFFFFFFFFFFFFFFFFF
310
FFFFFFFFFFFFFFFFFFFFFFFFFFFFFFFFF000FFFFFFFFFFFFFFFFFFFFFFFFFFFF
310
FFFFFFFFFFFFFFFFFFFFFFFFFFFFFFFFFFFFFFFFFFFFFFFFFFFFFFFFFFFFFFFF
310
FFFFFFFFFFFFFFFFFFFFFFFFFFFFFFFFFFFFFFFFFFFFFFFFFFFFFFFFFFFFFFFF
310
FFFFFFFFFFFFFFFFF000FFFFFFFFFFFFFFFFFFFFFFFFFFFFFFFFFFFFFFFFFFFF
310
FFFFFFFFFFFFFFFFFFFFFFFFFFFFFFFFFFFFFFFFFFFFFFFFFFFFFFFFFFFFFFFF
310
FFFFFFFFFFFFFFFFFFFFFFFFFFFFFFFFFFFFFFFFFFFFFFFFFFFFFFFFFFFFFFFF
310
F000FFFFFFFFFFFFFFFFFFFFFFFFFFFFFFFFFFFFFFFFFFFFFFFFFFFFFFFFFFFF
310
FFFFFFFFFFFFFFFFFFFFFFFFFFFFFFFFFFFFFFFFFFFFFFFFFFFFFFFFFFFFFFFF
310
FFFFFFFFFFFFFFFFFFFFFFFFFFFFFFFFFFFFFFFFFFFFFFFFF000FFFFFFFFFFFF
310
FFFFFFFFFFFFFFFFFFFFFFFFFFFFFFFFFFFFFFFFFFFFFFFFFFFFFFFFFFFFFFFF
310
FFFFFFFFFFFFFFFFFFFFFFFFFFFFFFFFFFFFFFFFFFFFFFFFFFFFFFFFFFFFFFFF
310
FFFFFFFFFFFFFFFFFFFFFFFFFFFFFFFFF000FFFFFFFFFFFFFFFFFFFFFFFFFFFF
310
FFFFFFFFFFFFFFFFFFFFFFFFFFFFFFFFFFFFFFFFFFFFFFFFFFFFFFFFFFFFFFFF
310
FFFFFFFFFFFFFFFFFFFFFFFFFFFFFFFFFFFFFFFFFFFFFFFFFFFFFFFFFFFFFFFF
310
FFFFFFFFFFFFFFFFF000FFFFFFFFFFFFFFFFFFFFFFFFFFFFFFFFFFFFFFFFFFFF
310
FFFFFFFFFFFFFFFFFFFFFFFFFFFFFFFFFFFFFFFFFFFFFFFFFFFFFFFFFFFFFFFF
310
FFFFFFFFFFFFFFFFFFFFFFFFFFFFFFFFFFFFFFFFFFFFFFFFFFFFFFFFFFFFFFFF
310
F000FFFFFFFFFFFFFFFFFFFFFFFFFFFFFFFFFFFFFFFFFFFFFFFFFFFFFFFFFFFF
310
FFFFFFFFFFFFFFFFFFFFFFFFFFFFFFFFFFFFFFFFFFFFFFFFFFFFFFFFFFFFFFFF
310
FFFFFFFFFFFFFFFFFFFFFFFFFFFFFFFFFFFFFFFFFFFFFFFFF000FFFFFFFFFFFF
310
FFFFFFFFFFFFFFFFFFFFFFFFFFFFFFFFFFFFFFFFFFFFFFFFFFFFFFFFFFFFFFFF
310
FFFFFFFFFFFFFFFFFFFFFFFFFFFFFFFFFFFFFFFFFFFFFFFFFFFFFFFFFFFFFFFF
310
FFFFFFFFFFFFFFFFFFFFFFFFFFFFFFFFF000FFFFFFFFFFFFFFFFFFFFFFFFFFFF
310
FFFFFFFFFFFFFFFFFFFFFFFFFFFFFFFFFFFFFFFFFFFFFFFFFFFFFFFFFFFFFFFF
310
FFFFFFFFFFFFFFFFFFFFFFFFFFFFFFFFFFFFFFFFFFFFFFFFFFFFFFFFFFFFFFFF
310
FFFFFFFFFFFFFFFFF000FFFFFFFFFFFFFFFFFFFFFFFFFFFFFFFFFFFFFFFFFFFF
310
FFFFFFFFFFFFFFFFFFFFFFFFFFFFFFFFFFFFFFFFFFFFFFFFFFFFFFFFFFFFFFFF
310
FFFFFFFFFFFFFFFFFFFFFFFFFFFFFFFFFFFFFFFFFFFFFFFFFFFFFFFFFFFFFFFF
310
F000FFFFFFFFFFFFFFFFFFFFFFFFFFFFFFFFFFFFFFFFFFFFFFFFFFFFFFFFFFFF
310
FFFFFFFFFFFFFFFFFFFFFFFFFFFFFFFFFFFFFFFFFFFFFFFFFFFFFFFFFFFFFFFF
310
FFFFFFFFFFFFFFFFFFFFFFFFFFFFFFFFFFFFFFFFFFFFFFFFF000FFFFFFFFFFFF
310
FFFFFFFFFFFFFFFFFFFFFFFFFFFFFFFFFFFFFFFFFFFFFFFFFFFFFFFFFFFFFFFF
310
FFFFFFFFFFFFFFFFFFFFFFFFFFFFFFFFFFFFFFFFFFFFFFFFFFFFFFFFFFFFFFFF
310
FFFFFFFFFFFFFFFFFFFFFFFFFFFFFFFFF000FFFFFFFFFFFFFFFFFFFFFFFFFFFF
310
FFFFFFFFFFFFFFFFFFFFFFFFFFFFFFFFFFFFFFFFFFFFFFFFFFFFFFFFFFFFFFFF
310
FFFFFFFFFFFFFFFFFFFFFFFFFFFFFFFFFFFFFFFFFFFFFFFFFFFFFFFFFFFFFFFF
310
FFFFFFFFFFFFFFFFF000FFFFFFFFFFFFFFFFFFFFFFFFFFFFFFFFFFFFFFFFFFFF
310
FFFFFFFFFFFFFFFFFFFFFFFFFFFFFFFFFFFFFFFFFFFFFFFFFFFFFFFFFFFFFFFF
310
FFFFFFFFFFFFFFFFFFFFFFFFFFFFFFFFFFFFFFFFFFFFFFFFFFFFFFFFFFFFFFFF
310
F000FFFFFFFFFFFFFFFFFFFFFFFFFFFFFFFFFFFFFFFFFFFFFFFFFFFFFFFFFFFF
310
FFFFFFFFFFFFFFFFFFFFFFFFFFFFFFFFFFFFFFFFFFFFFFFFFFFFFFFFFFFFFFFF
310
FFFFFFFFFFFFFFFFFFFFFFFFFFFFFFFFFFFFFFFFFFFFFFFFF000FFFFFFFFFFFF
310
FFFFFFFFFFFFFFFFFFFFFFFFFFFFFFFFFFFFFFFFFFFFFFFFFFFFFFFFFFFFFFFF
310
FFFFFFFFFFFFFFFFFFFFFFFFFFFFFFFFFFFFFFFFFFFFFFFFFFFFFFFFFFFFFFFF
310
FFFFFFFFFFFFFFFFFFFFFFFFFFFFFFFFF000FFFFFFFFFFFFFFFFFFFFFFFFFFFF
310
FFFFFFFFFFFFFFFFFFFFFFFFFFFFFFFFFFFFFFFFFFFFFFFFFFFFFFFFFFFFFFFF
310
FFFFFFFFFFFFFFFFFFFFFFFFFFFFFFFFFFFFFFFFFFFFFFFFFFFFFFFFFFFFFFFF
310
FFFFFFFFFFFFFFFFF000FFFFF80003FFFFFFFFFFFFFFFFFFFFFFFFFFFFFFFFFF
310
FFFFF00007FFFFFFFFFF00007FFFFFF800000000000000007FFFFFFFFFFFFFFF
310
FFFFFFFC001FFFFFFFFFFFFFFC001FFFFFFFFFFFFFFFFFFFFFFFFFFE0007FFFF
310
F000FFFF8000007FFFFFFFF8000FFFFFC0007FFFFF80007FFFFF0000007FFFFF
310
FFF8000007FFFFF800000000000000007FFFFFF0001FFFFFFFFFFFC00001FFFF
310
FFFFFFFFC00001FFFFFFFF000000000003FFFFE000007FFFF000FFFE0000000F
310
FFFFFFF0000FFFFF80007FFFFF80007FFFFC0000001FFFFFFFC0000001FFFFF8
310
00000000000000007FFFFFF0001FFFFFFFFFFE0000003FFFFFFFFFFE0000003F
310
FFFFFF000000000003FFFF0000000FFFF000FFF800000003FFFFFFF00007FFFF
310
80007FFFFF80007FFFF000000007FFFFFF000000003FFFF80000000000000000
310
7FFFFFF0001FFFFFFFFFF80000000FFFFFFFFFF80000000FFFFFFF0000000000
310
03FFFC00000003FFF000FFE000000000FFFFFFF00007FFFF80003FFFFF80007F
310
FFC000000001FFFFFC000000001FFFF800000000000000007FFFFFF0001FFFFF
310
FFFFE000000003FFFFFFFFE000000003FFFFFF000000000003FFF000000000FF
310
F000FF80000000007FFFFFF00007FFFF80003FFFFF80007FFF8000000000FFFF
310
F80000000007FFF800000000000000007FFFFFF0001FFFFFFFFFC000000001FF
310
FFFFFFC000000001FFFFFF000000000003FFC0000000007FF000FF0000000000
310
3FFFFFE00007FFFF00003FFFFF80007FFE00000000003FFFF00000000003FFF8
310
00000000000000007FFFFFF0001FFFFFFFFF8000000000FFFFFFFF8000000000
310
FFFFFF000000000003FF80000000003FF000FE00000000001FFFFFE00003FFFF
310
00003FFFFF80007FFC00000000001FFFE00000000001FFF8000001FFFE000000
310
7FFFFFF0001FFFFFFFFE00000000003FFFFFFE00000000003FFFFF0000000000
310
03FF00000000001FF000FC00000000000FFFFFE00003FFFF00001FFFFF80007F
310
F800000000001FFFC00000000000FFF8000001FFFE0000007FFFFFF0001FFFFF
310
FFFC00000000001FFFFFFC00000000001FFFFF000000000003FE00000000000F
310
F000F8000000000007FFFFE00003FFFF00001FFFFF80007FF800000000000FFF
310
800000000000FFF8000001FFFE0000007FFFFFF0001FFFFFFFF800000000000F
310
FFFFF800000000000FFFFF000000000003FC000000000007F000F80000000000
310
03FFFFC00003FFFE00001FFFFF80007FF0000000000007FF0000000000007FF8
310
000001FFFE0000007FFFFFF0001FFFFFFFF0000000000007FFFFF00000000000
310
07FFFF000000000003F8000000000003F000F0000000000003FFFFC00001FFFE
310
00001FFFFF80007FE0000000000007FE0000000000003FF8000001FFFE000000
310
7FFFFFF0001FFFFFFFF0000000000007FFFFF0000000000007FFFF0000000000
310
03F800001F800003F000E00001FFF00001FFFFC00001FFFE00000FFFFF80007F
310
E00001FFE00003FE00001FFF00003FF8000001FFFE0000007FFFFFF0001FFFFF
310
FFE000003E000003FFFFE000003E000003FFFF000000000003F00001FFF80001
310
F000E00007FFFC0001FFFFC00001FFFE00000FFFFF80007FC0000FFFFC0003FC
310
0000FFFFC0001FF8000001FFFE0000007FFFFFF0001FFFFFFFC00003FFE00001
310
FFFFC00003FFE00001FFFF0001FFFFFFFFF00007FFFE0001F000E0000FFFFF00
310
00FFFF800001FFFC00000FFFFF80007FC0001FFFFE0001FC0001FFFFE0001FF8
310
000001FFFE0000007FFFFFF0001FFFFFFF80000FFFF80000FFFF80000FFFF800
310
00FFFF0003FFFFFFFFE0000FFFFF8000F000C0003FFFFF8000FFFF800000FFFC
310
000007FFFF80007F80003FFFFF0001FC0003FFFFF0001FF8000001FFFE000000
310
7FFFFFF0001FFFFFFF80003FFFFE0000FFFF80003FFFFE0000FFFF0003FFFFFF
310
FFE0003FFFFF8000F000C0003FFFFF8000FFFF800000FFFC000007FFFF80007F
310
80007FFFFF8001F80007FFFFF8000FF8000001FFFE0000007FFFFFF0001FFFFF
310
FF00007FFFFF00007FFF00007FFFFF00007FFF0003FFFFFFFFE0003FFFFFC000
310
F000C0007FFFFFC000FFFF000000FFFC000007FFFF80007F8000FFFFFF8000F8
310
000FFFFFF8000FF8000001FFFE0000007FFFFFF0001FFFFFFF0000FFFFFF8000
310
7FFF0000FFFFFF80007FFF0003FFFFFFFFC0007FFFFFC00070008000FFFFFFC0
310
00FFFF000000FFF8000007FFFF80007F8000FFFFFF8000F8000FFFFFF8000FF8
310
000001FFFE0000007FFFFFF0001FFFFFFE0001FFFFFFC0003FFE0001FFFFFFC0
310
003FFF0003FFFFFFFFC0007FFFFFE00070008000FFFFFFC0007FFF0000007FF8
310
000003FFFF80007F0001FFFFFF8000F8000FFFFFF8000FF8000001FFFE000000
310
7FFFFFF0001FFFFFFE0001FFFFFFC0003FFE0001FFFFFFC0003FFF0003FFFFFF
310
FFC000FFFFFFE00070008000FFFFFFC0007FFF0000007FF8000003FFFF80007F
310
0001FFFFFF8000F8001FFFFFF8000FF8000001FFFE0000007FFFFFF0001FFFFF
310
FE0003FFFFFFE0003FFE0003FFFFFFE0003FFF0003FFFFFFFFC000FFFFFFE000
310
70008000FFFFFFC0007FFE0000007FF8000003FFFF80007F0001FFFFFF8000F0
310
001FFFFFF8000FF8000001FFFE0000007FFFFFF0001FFFFFFC0003FFFFFFE000
310
1FFC0003FFFFFFE0001FFF0003FFFFFFFFC000FFFFFFC00070008000FFFFFF80
310
007FFE0000007FF0000003FFFF80007F0001FFFFFF0000F0001FFFFFF8000FF8
310
000001FFFE0000007FFFFFF0001FFFFFFC0007FFFFFFF0001FFC0007FFFFFFF0
310
001FFF0003FFFFFFFFC000FFFFFFC00070008001FFFFFF0000FFFE0000003FF0
310
000001FFFF80007F0001FFFFFF0000F8001FFFFFF0000FF8000001FFFE000000
310
7FFFFFF0001FFFFFFC0007FFFFFFF0001FFC0007FFFFFFF0001FFF0003FFFFFF
310
FFC001FFFFFF80007000FFFFFFFFFE0000FFFE0008003FF0008001FFFF80007F
310
FFFFFFFFFC0000FFFFFFFFFFE0000FF8000001FFFE0000007FFFFFF0001FFFFF
310
F8000FFFFFFFF8000FF8000FFFFFFFF8000FFF0003FFFFFFFFFFFFFFFFFF0000
310
7000FFFFFFFFFC0000FFFC0008003FF0008001FFFF80007FFFFFFFFFF80001FF
310
FFFFFFFF80000FF8000001FFFE0000007FFFFFF0001FFFFFF8000FFFFFFFF800
310
0FF8000FFFFFFFF8000FFF0003FFFFFFFFFFFFFFFFFE0000F000FFFFFFFFE000
310
00FFFC000C003FE000C001FFFF80007FFFFFFFFFC00001FFFFFFFFFE00001FF8
310
000001FFFE0000007FFFFFF0001FFFFFF8000FFFFFFFF8000FF8000FFFFFFFF8
310
000FFF0003FFFFFFFFFFFFFFFFF00000F000FFFFFFFE000001FFFC000C001FE0
310
00C000FFFF80007FFFFFFFFE000001FFFFFFFFE000001FF80FFFFFFFFFFFFFC0
310
7FFFFFF0001FFFFFF8000FFFFFFFF8000FF8000FFFFFFFF8000FFF0003FFFFFF
310
FFFFFFFFFF800000F000FFFFFFC0000001FFFC001C001FE001C000FFFF80007F
310
FFFFFF80000003FFFFFFF80000001FF80FFFFFFFFFFFFFC07FFFFFF0001FFFFF
310
F8001FFFFFFFFC000FF8001FFFFFFFFC000FFF0003FFFFFFFFFFFFFFF0000001
310
F000FFFFF800000001FFF8001C001FE001C000FFFF80007FFFFFF800000003FF
310
FFFF800000003FF80FFFFFFFFFFFFFC07FFFFFF0001FFFFFF8001FFFFFFFFC00
310
0FF8001FFFFFFFFC000FFF0003FFFFFFFFFFFFFE00000001F000FFFFC0000000
310
03FFF8001E001FC001E000FFFF80007FFFFF8000000007FFFFFC000000003FF8
310
0FFFFFFFFFFFFFC07FFFFFF0001FFFFFF8001FFFFFFFFC000FF8001FFFFFFFFC
310
000FFF0003FFFFFFFFFFFFE000000003F000FFFE0000000007FFF8001E000FC0
310
01E0007FFF80007FFFFE0000000007FFFFE0000000007FF80FFFFFFFFFFFFFC0
310
7FFFFFF0001FFFFFF0001FFFFFFFFC0007F0001FFFFFFFFC0007FF0003FFFFFF
310
FFFFFF0000000003F000FFF80000000007FFF8001E000FC003E0007FFF80007F
310
FFF0000000000FFFFF8000000000FFF80FFFFFFFFFFFFFC07FFFFFF0001FFFFF
310
F0001FFFFFFFFC0007F0001FFFFFFFFC0007FF0003FFFFFFFFFFFC0000000007
310
F000FFE0000000000FFFF0003E000FC003E0007FFF80007FFFC0000000001FFF
310
FE0000000001FFF80FFFFFFFFFFFFFC07FFFFFF0001FFFFFF0001FFFFFFFFC00
310
07F0001FFFFFFFFC0007FF0003FFFFFFFFFFF0000000000FF000FFC000000000
310
1FFFF0003F000F8003F0003FFF80007FFF80000000003FFFF80000000003FFF8
310
0FFFFFFFFFFFFFC07FFFFFF0001FFFFFF0001FFFFFFFFC0007F0001FFFFFFFFC
310
0007FF0003FFFFFFFFFFE0000000001FF000FF00000000007FFFF0003F000780
310
03F0003FFF80007FFF00000000007FFFF00000000007FFF80FFFFFFFFFFFFFC0
310
7FFFFFF0001FFFFFF0001FFFFFFFFC0007F0001FFFFFFFFC0007FF0003FFFFFF
310
FFFF80000000007FF000FE0000000000FFFFE0003F00078007F0003FFF80007F
310
FE0000000001FFFFE0000000001FFFF80FFFFFFFFFFFFFC07FFFFFF0001FFFFF
310
F0001FFFFFFFFC0007F0001FFFFFFFFC0007FF0003FFFFFFFFFF0000000000FF
310
F000FC0000000003FFFFE0007F00078007F0003FFF80007FFC0000000007FFFF
310
C0000000007FFFF80FFFFFFFFFFFFFC07FFFFFF0001FFFFFF8001FFFFFFFFC00
310
0FF8001FFFFFFFFC000FFF0003FFFFFFFFFE0000000003FFF000FC000000000F
310
FFFFE0007F80070007F8001FFF80007FF8000000001FFFFF8000000001FFFFF8
310
0FFFFFFFFFFFFFC07FFFFFF0001FFFFFF8001FFFFFFFFC000FF8001FFFFFFFFC
310
000FFF0003FFFFFFFFFC000000000FFFF000F8000000007FFFFFE0007F800700
310
07F8001FFF80007FF000000000FFFFFF800000000FFFFFF80FFFFFFFFFFFFFC0
310
7FFFFFF0001FFFFFF8000FFFFFFFF8000FF8000FFFFFFFF8000FFF0003FFFFFF
310
FFFC000000007FFFF000F800000007FFFFFFC0007F8003000FF8001FFF80007F
310
F000000007FFFFFF000000007FFFFFF80FFFFFFFFFFFFFC07FFFFFF0001FFFFF
310
F8000FFFFFFFF8000FF8000FFFFFFFF8000FFF0003FFFFFFFFF80000000FFFFF
310
F000F0000000FFFFFFFFC000FF8003000FF8001FFF80007FE0000000FFFFFFFF
310
0000000FFFFFFFF8000001FFFE0000007FFFFFF0001FFFFFF8000FFFFFFFF800
310
0FF8000FFFFFFFF8000FFF0003FFFFFFFFF8000000FFFFFFF000F000000FFFFF
310
FFFFC000FFC002000FF8000FFF80007FE000001FFFFFFFFE000001FFFFFFFFF8
310
000001FFFE0000007FFFFFF0001FFFFFF8000FFFFFFFF8000FF8000FFFFFFFF8
310
000FFF0003FFFFFFFFF000001FFFFFFFF000E00000FFFFFFFFFFC000FFC00200
310
0FFC000FFF80007FE00001FFFFFFFFFE00001FFFFFFFFFF8000001FFFE000000
310
7FFFFFF0001FFFFFFC000FFFFFFFF8001FFC000FFFFFFFF8001FFF0003FFFFFF
310
FFF00001FFFFFFFFF000E00007FFFFFFFFFF8000FFC000001FFC000FFF80007F
310
C0000FFFFFFFFFFE0000FFFFFFFFFFF8000001FFFE0000007FFFFFF0001FFFFF
310
FC0007FFFFFFF0001FFC0007FFFFFFF0001FFF0003FFFFFFFFF00007FFFFFFFF
310
F000E0001FFFFFFFFFFF8000FFC000001FFC000FFF80007FC0003FFFFFFFFFFE
310
0001FFFFFFFFFFF8000001FFFE0000007FFFFFF0001FFFFFFC0007FFFFFFF000
310
1FFC0007FFFFFFF0001FFF0003FFFFFFFFF0001FFFFFFFFFF000E0003FFFFF00
310
03FF8001FFE000001FFC0007FF80007FC0007FFFFF0007FC0003FFFFF0003FF8
310
000001FFFE0000007FFFFFF0001FFFFFFC0003FFFFFFE0001FFC0003FFFFFFE0
310
001FFF0003FFFFFFFFF0003FFFFFFFFFF000E0003FFFFF0001FF8001FFE00000
310
1FFE0007FF80007FC0007FFFFE0003FC0007FFFFE0003FF8000001FFFE000000
310
7FFFFFF0001FFFFFFE0003FFFFFFE0003FFE0003FFFFFFE0003FFF0003FFFFFF
310
FFF0003FFFFF8001F000E0003FFFFF0001FF0001FFE000001FFE0007FF80007F
310
C0007FFFFE0003FC0007FFFFE0003FF8000001FFFE0000007FFFFFF0001FFFFF
310
FE0001FFFFFFC0003FFE0001FFFFFFC0003FFF0003FFFFFFFFF0003FFFFF0001
310
F000E0003FFFFF0003FF0001FFE000003FFE0007FF80007FC0007FFFFE0003FC
310
0007FFFFE0003FF8000001FFFE0000007FFFFFF0001FFFFFFF0001FFFFFFC000
310
7FFF0001FFFFFFC0007FFF0003FFFFFFFFF0003FFFFF0001F000E0003FFFFE00
310
03FF0003FFF000003FFE0003FF80007FC0007FFFFC0003FE0007FFFFE0003FF8
310
000001FFFE0000007FFFFFF0001FFFFFFF0000FFFFFF80007FFF0000FFFFFF80
310
007FFF0003FFFFFFFFF0003FFFFF0001F000E0003FFFFE0003FF0003FFF00000
310
3FFF0003FF80007FC0007FFFFC0007FE0007FFFFC0003FF8000001FFFE000000
310
7FFFFFF0001FFFFFFF80007FFFFF0000FFFF80007FFFFF0000FFFF0003FFFFFF
310
FFF0003FFFFF0003F000E0003FFFFC0003FE0003FFF000003FFF0003FF80007F
310
E0003FFFF80007FE0003FFFFC0007FF8000001FFFE0000007FFFFFF0001FFFFF
310
FF80003FFFFE0000FFFF80003FFFFE0000FFFF0003FFFFFFFFF0001FFFFE0003
310
F000F0001FFFF80003FE0003FFF000007FFF0001FF80007FE0003FFFF00007FE
310
0001FFFF80007FF8000001FFFE0000007FFFFFF0001FFFFFFFC0000FFFF80001
310
FFFFC0000FFFF80001FFFF0003FFFFFFFFF0001FFFFC0003F000F0000FFFF000
310
07FE0007FFF800007FFF0001FF80007FE0001FFFE00007FF0000FFFE00007FF8
310
000001FFFE0000007FFFFFF0001FFFFFFFC00003FFE00001FFFFC00003FFE000
310
01FFFF0003FFFFFFFFF8000FFFF80003F000F00003FFC00007FC0007FFF80000
310
7FFF8001FF80007FF00007FF80000FFF00007FF80000FFF8000001FFFE000000
310
7F80000000000001FFE000003E000003FFFFE000003E000003FFFF0003FFFFFF
310
FFF80003FFE00007F000F800000000000FFC0007FFF800007FFF8001FF80007F
310
F000000000000FFF000000000000FFF8000001FFFE0000007F80000000000001
310
FFF0000000000007FFFFF0000000000007FFFF0003FFFFFFFFFC00007E000007
310
F000F800000000000FFC0007FFF80000FFFF8000FF80007FF800000000001FFF
310
800000000001FFF8000001FFFE0000007F80000000000001FFF800000000000F
310
FFFFF800000000000FFFFF0003FFFFFFFFFC00000000000FF000FC0000000000
310
1FFC0007FFFC0000FFFF8000FF80007FF800000000003FFFC00000000001FFF8
310
000001FFFE0000007F80000000000001FFF800000000000FFFFFF80000000000
310
0FFFFF0003FFFFFFFFFE00000000001FF000FE00000000003FF8000FFFFC0000
310
FFFF8000FF80007FFC00000000003FFFC00000000003FFF8000001FFFE000000
310
7F80000000000001FFFC00000000001FFFFFFC00000000001FFFFF0003FFFFFF
310
FFFF00000000001FF000FF00000000003FF8000FFFFC0000FFFFC000FF80007F
310
FE00000000007FFFE00000000007FFF8000001FFFE0000007F80000000000001
310
FFFE00000000003FFFFFFE00000000003FFFFF0003FFFFFFFFFF80000000003F
310
F000FF80000000007FF8000FFFFC0001FFFFC0007F80007FFF0000000000FFFF
310
F0000000000FFFF800000000000000007F80000000000001FFFF8000000000FF
310
FFFFFF8000000000FFFFFF0003FFFFFFFFFFC0000000007FF000FFC000000000
310
FFF8000FFFFE0001FFFFC0007F80007FFF8000000001FFFFF8000000001FFFF8
310
00000000000000007F80000000000001FFFFC000000001FFFFFFFFC000000001
310
FFFFFF0003FFFFFFFFFFE000000000FFF000FFE000000003FFF0001FFFFE0001
310
FFFFC0007F80007FFFC000000007FFFFFE000000003FFFF80000000000000000
310
7F80000000000001FFFFE000000003FFFFFFFFE000000003FFFFFF0003FFFFFF
310
FFFFF000000003FFF000FFF80000000FFFF0001FFFFE0001FFFFE0007F80007F
310
FFF00000000FFFFFFF00000000FFFFF800000000000000007F80000000000001
310
FFFFF80000000FFFFFFFFFF80000000FFFFFFF0003FFFFFFFFFFFC0000000FFF
310
F000FFFE0000003FFFF0001FFFFE0003FFFFE0003F80007FFFFC0000003FFFFF
310
FFC0000003FFFFF800000000000000007F80000000000001FFFFFE0000003FFF
310
FFFFFFFE0000003FFFFFFF0003FFFFFFFFFFFF0000003FFFF000FFFF800000FF
310
FFF0001FFFFF0003FFFFE0003F80007FFFFF000001FFFFFFFFF800001FFFFFF8
310
00000000000000007F80000000000001FFFFFFC00001FFFFFFFFFFFFC00001FF
310
FFFFFF0003FFFFFFFFFFFFC00000FFFFF000FFFFF8000FFFFFFFFFFFFFFFFFFF
310
FFFFFFFFFFFFFFFFFFFFF0001FFFFFFFFFFF0000FFFFFFF80000000000000000
310
7FFFFFFFFFFFFFFFFFFFFFFC001FFFFFFFFFFFFFFC001FFFFFFFFFFFFFFFFFFF
310
FFFFFFFC001FFFFFF000FFFFFFFFFFFFFFFFFFFFFFFFFFFFFFFFFFFFFFFFFFFF
310
FFFFFFFFFFFFFFFFFFFFFFFFFFFFFFFFFFFFFFFFFFFFFFFFFFFFFFFFFFFFFFFF
310
FFFFFFFFFFFFFFFFFFFFFFFFFFFFFFFFFFFFFFFFFFFFFFFFFFFFFFFFFFFFFFFF
310
F000FFFFFFFFFFFFFFFFFFFFFFFFFFFFFFFFFFFFFFFFFFFFFFFFFFFFFFFFFFFF
310
FFFFFFFFFFFFFFFFFFFFFFFFFFFFFFFFFFFFFFFFFFFFFFFFFFFFFFFFFFFFFFFF
310
FFFFFFFFFFFFFFFFFFFFFFFFFFFFFFFFFFFFFFFFFFFFFFFFF000FFFFFFFFFFFF
310
FFFFFFFFFFFFFFFFFFFFFFFFFFFFFFFFFFFFFFFFFFFFFFFFFFFFFFFFFFFFFFFF
310
FFFFFFFFFFFFFFFFFFFFFFFFFFFFFFFFFFFFFFFFFFFFFFFFFFFFFFFFFFFFFFFF
310
FFFFFFFFFFFFFFFFFFFFFFFFFFFFFFFFF000FFFFFFFFFFFFFFFFFFFFFFFFFFFF
310
FFFFFFFFFFFFFFFFFFFFFFFFFFFFFFFFFFFFFFFFFFFFFFFFFFFFFFFFFFFFFFFF
310
FFFFFFFFFFFFFFFFFFFFFFFFFFFFFFFFFFFFFFFFFFFFFFFFFFFFFFFFFFFFFFFF
310
FFFFFFFFFFFFFFFFF000FFFFFFFFFFFFFFFFFFFFFFFFFFFFFFFFFFFFFFFFFFFF
310
FFFFFFFFFFFFFFFFFFFFFFFFFFFFFFFFFFFFFFFFFFFFFFFFFFFFFFFFFFFFFFFF
310
FFFFFFFFFFFFFFFFFFFFFFFFFFFFFFFFFFFFFFFFFFFFFFFFFFFFFFFFFFFFFFFF
310
F000FFFFFFFFFFFFFFFFFFFFFFFFFFFFFFFFFFFFFFFFFFFFFFFFFFFFFFFFFFFF
310
FFFFFFFFFFFFFFFFFFFFFFFFFFFFFFFFFFFFFFFFFFFFFFFFFFFFFFFFFFFFFFFF
310
FFFFFFFFFFFFFFFFFFFFFFFFFFFFFFFFFFFFFFFFFFFFFFFFF000FFFFFFFFFFFF
310
FFFFFFFFFFFFFFFFFFFFFFFFFFFFFFFFFFFFFFFFFFFFFFFFFFFFFFFFFFFFFFFF
310
FFFFFFFFFFFFFFFFFFFFFFFFFFFFFFFFFFFFFFFFFFFFFFFFFFFFFFFFFFFFFFFF
310
FFFFFFFFFFFFFFFFFFFFFFFFFFFFFFFFF000FFFFFFFFFFFFFFFFFFFFFFFFFFFF
310
FFFFFFFFFFFFFFFFFFFFFFFFFFFFFFFFFFFFFFFFFFFFFFFFFFFFFFFFFFFFFFFF
310
FFFFFFFFFFFFFFFFFFFFFFFFFFFFFFFFFFFFFFFFFFFFFFFFFFFFFFFFFFFFFFFF
310
FFFFFFFFFFFFFFFFF000FFFFFFFFFFFFFFFFFFFFFFFFFFFFFFFFFFFFFFFFFFFF
310
FFFFFFFFFFFFFFFFFFFFFFFFFFFFFFFFFFFFFFFFFFFFFFFFFFFFFFFFFFFFFFFF
310
FFFFFFFFFFFFFFFFFFFFFFFFFFFFFFFFFFFFFFFFFFFFFFFFFFFFFFFFFFFFFFFF
310
F000FFFFFFFFFFFFFFFFFFFFFFFFFFFFFFFFFFFFFFFFFFFFFFFFFFFFFFFFFFFF
310
FFFFFFFFFFFFFFFFFFFFFFFFFFFFFFFFFFFFFFFFFFFFFFFFFFFFFFFFFFFFFFFF
310
FFFFFFFFFFFFFFFFFFFFFFFFFFFFFFFFFFFFFFFFFFFFFFFFF000FFFFFFFFFFFF
310
FFFFFFFFFFFFFFFFFFFFFFFFFFFFFFFFFFFFFFFFFFFFFFFFFFFFFFFFFFFFFFFF
310
FFFFFFFFFFFFFFFFFFFFFFFFFFFFFFFFFFFFFFFFFFFFFFFFFFFFFFFFFFFFFFFF
310
FFFFFFFFFFFFFFFFFFFFFFFFFFFFFFFFF000FFFFFFFFFFFFFFFFFFFFFFFFFFFF
310
FFFFFFFFFFFFFFFFFFFFFFFFFFFFFFFFFFFFFFFFFFFFFFFFFFFFFFFFFFFFFFFF
310
FFFFFFFFFFFFFFFFFFFFFFFFFFFFFFFFFFFFFFFFFFFFFFFFFFFFFFFFFFFFFFFF
310
FFFFFFFFFFFFFFFFF000FFFFFFFFFFFFFFFFFFFFFFFFFFFFFFFFFFFFFFFFFFFF
310
FFFFFFFFFFFFFFFFFFFFFFFFFFFFFFFFFFFFFFFFFFFFFFFFFFFFFFFFFFFFFFFF
310
FFFFFFFFFFFFFFFFFFFFFFFFFFFFFFFFFFFFFFFFFFFFFFFFFFFFFFFFFFFFFFFF
310
F000FFFFFFFFFFFFFFFFFFFFFFFFFFFFFFFFFFFFFFFFFFFFFFFFFFFFFFFFFFFF
310
FFFFFFFFFFFFFFFFFFFFFFFFFFFFFFFFFFFFFFFFFFFFFFFFFFFFFFFFFFFFFFFF
310
FFFFFFFFFFFFFFFFFFFFFFFFFFFFFFFFFFFFFFFFFFFFFFFFF000FFFFFFFFFFFF
310
FFFFFFFFFFFFFFFFFFFFFFFFFFFFFFFFFFFFFFFFFFFFFFFFFFFFFFFFFFFFFFFF
310
FFFFFFFFFFFFFFFFFFFFFFFFFFFFFFFFFFFFFFFFFFFFFFFFFFFFFFFFFFFFFFFF
310
FFFFFFFFFFFFFFFFFFFFFFFFFFFFFFFFF000FFFFFFFFFFFFFFFFFFFFFFFFFFFF
310
FFFFFFFFFFFFFFFFFFFFFFFFFFFFFFFFFFFFFFFFFFFFFFFFFFFFFFFFFFFFFFFF
310
FFFFFFFFFFFFFFFFFFFFFFFFFFFFFFFFFFFFFFFFFFFFFFFFFFFFFFFFFFFFFFFF
310
FFFFFFFFFFFFFFFFF000FFFFFFFFFFFFFFFFFFFFFFFFFFFFFFFFFFFFFFFFFFFF
310
FFFFFFFFFFFFFFFFFFFFFFFFFFFFFFFFFFFFFFFFFFFFFFFFFFFFFFFFFFFFFFFF
310
FFFFFFFFFFFFFFFFFFFFFFFFFFFFFFFFFFFFFFFFFFFFFFFFFFFFFFFFFFFFFFFF
310
F000FFFFFFFFFFFFFFFFFFFFFFFFFFFFFFFFFFFFFFFFFFFFFFFFFFFFFFFFFFFF
310
FFFFFFFFFFFFFFFFFFFFFFFFFFFFFFFFFFFFFFFFFFFFFFFFFFFFFFFFFFFFFFFF
310
FFFFFFFFFFFFFFFFFFFFFFFFFFFFFFFFFFFFFFFFFFFFFFFFF000FFFFFFFFFFFF
310
FFFFFFFFFFFFFFFFFFFFFFFFFFFFFFFFFFFFFFFFFFFFFFFFFFFFFFFFFFFFFFFF
310
FFFFFFFFFFFFFFFFFFFFFFFFFFFFFFFFFFFFFFFFFFFFFFFFFFFFFFFFFFFFFFFF
310
FFFFFFFFFFFFFFFFFFFFFFFFFFFFFFFFF000FFFFFFFFFFFFFFFFFFFFFFFFFFFF
310
FFFFFFFFFFFFFFFFFFFFFFFFFFFFFFFFFFFFFFFFFFFFFFFFFFFFFFFFFFFFFFFF
310
FFFFFFFFFFFFFFFFFFFFFFFFFFFFFFFFFFFFFFFFFFFFFFFFFFFFFFFFFFFFFFFF
310
FFFFFFFFFFFFFFFFF000FFFFFFFFFFFFFFFFFFFFFFFFFFFFFFFFFFFFFFFFFFFF
310
FFFFFFFFFFFFFFFFFFFFFFFFFFFFFFFFFFFFFFFFFFFFFFFFFFFFFFFFFFFFFFFF
310
FFFFFFFFFFFFFFFFFFFFFFFFFFFFFFFFFFFFFFFFFFFFFFFFFFFFFFFFFFFFFFFF
310
F000FFFFFFFFFFFFFFFFFFFFFFFFFFFFFFFFFFFFFFFFFFFFFFFFFFFFFFFFFFFF
310
FFFFFFFFFFFFFFFFFFFFFFFFFFFFFFFFFFFFFFFFFFFFFFFFFFFFFFFFFFFFFFFF
310
FFFFFFFFFFFFFFFFFFFFFFFFFFFFFFFFFFFFFFFFFFFFFFFFF000FFFFFFFFFFFF
310
FFFFFFFFFFFFFFFFFFFFFFFFFFFFFFFFFFFFFFFFFFFFFFFFFFFFFFFFFFFFFFFF
310
FFFFFFFFFFFFFFFFFFFFFFFFFFFFFFFFFFFFFFFFFFFFFFFFFFFFFFFFFFFFFFFF
310
FFFFFFFFFFFFFFFFFFFFFFFFFFFFFFFFF0000000000000000000000000000000
310
0000000000000000000000000000000000000000000000000000000000000000
310
0000000000000000000000000000000000000000000000000000000000000000
310
0000000000000000000000000000000000000000000000000000000000000000
310
0000000000000000000000000000000000000000000000000000000000000000
310
0000000000000000000000000000000000000000000000000000000000000000
310
0000000000000000000000000000000000000000000000000000000000000000
310
0000000000000000000000000000000000000000000000000000000000000000
310
0000000000000000000000000000000000000000000000000000000000000000
310
0000000000000000000000000000000000000000000000000000000000000000
310
0000000000000000000000000000000000000000000000000000000000000000
310
0000000000000000000000000000000000000000000000000000000000000000
310
0000000000000000000000000000000000000000000000000000000000000000
310
0000000000000000000000000000000000000000000000000000000000000000
310
0000000000000000000000000000000000000000000000000000000000000000
310
0000000000000000000000000000000000000000000000000000000000000000
  1
OLE
  0
ENDSEC
  0
SECTION
  2
OBJECTS
  0
DICTIONARY
  5
C
330
0
100
AcDbDictionary
281
     1
  3
ACAD_GROUP
350
D
  3
ACAD_LAYOUT
350
1A
  3
ACAD_MLINESTYLE
350
17
  3
ACAD_PLOTSETTINGS
350
19
  3
ACAD_PLOTSTYLENAME
350
E
  3
ACAD_SCALELIST
350
47
  0
DICTIONARY
  5
D
102
{ACAD_REACTORS
330
C
102
}
330
C
100
AcDbDictionary
281
     1
  0
DICTIONARY
  5
1A
102
{ACAD_REACTORS
330
C
102
}
330
C
100
AcDbDictionary
281
     1
  3
Layout1
350
1E
  3
Layout2
350
26
  3
Model
350
22
  0
DICTIONARY
  5
17
102
{ACAD_REACTORS
330
C
102
}
330
C
100
AcDbDictionary
281
     1
  3
Standard
350
18
  0
DICTIONARY
  5
19
102
{ACAD_REACTORS
330
C
102
}
330
C
100
AcDbDictionary
281
     1
  0
ACDBDICTIONARYWDFLT
  5
E
102
{ACAD_REACTORS
330
C
102
}
330
C
100
AcDbDictionary
281
     1
  3
Normal
350
F
100
AcDbDictionaryWithDefault
340
F
  0
DICTIONARY
  5
47
102
{ACAD_REACTORS
330
C
102
}
330
C
100
AcDbDictionary
281
     1
  3
A0
350
48
  3
A1
350
49
  3
A2
350
4A
  3
A3
350
4B
  3
A4
350
4C
  3
A5
350
4D
  3
A6
350
4E
  3
A7
350
4F
  3
A8
350
50
  3
A9
350
51
  3
B0
350
52
  3
B1
350
53
  3
B2
350
54
  3
B3
350
55
  3
B4
350
56
  3
B5
350
57
  3
B6
350
58
  3
B7
350
59
  3
B8
350
5A
  3
B9
350
5B
  3
C0
350
5C
  3
C1
350
5D
  3
C2
350
5E
  3
C3
350
5F
  3
C4
350
60
  3
C5
350
61
  3
C6
350
62
  3
C7
350
63
  3
C8
350
64
  3
C9
350
65
  3
D0
350
66
  3
D1
350
67
  3
D2
350
68
  0
LAYOUT
  5
1E
102
{ACAD_REACTORS
330
1A
102
}
330
1A
100
AcDbPlotSettings
  1

  2
none_device
  4

  6

 40
0.0
 41
0.0
 42
0.0
 43
0.0
 44
0.0
 45
0.0
 46
0.0
 47
0.0
 48
0.0
 49
0.0
140
0.0
141
0.0
142
1.0
143
1.0
 70
   688
 72
     1
 73
     0
 74
     5
  7

 75
    16
147
1.0
148
0.0
149
0.0
100
AcDbLayout
  1
Layout1
 70
     1
 71
     1
 10
0.0
 20
0.0
 11
420.0
 21
297.0
 12
0.0
 22
0.0
 32
0.0
 14
1.0000000000E+20
 24
1.0000000000E+20
 34
1.0000000000E+20
 15
-1.0000000000E+20
 25
-1.0000000000E+20
 35
-1.0000000000E+20
146
0.0
 13
0.0
 23
0.0
 33
0.0
 16
1.0
 26
0.0
 36
0.0
 17
0.0
 27
1.0
 37
0.0
 76
     0
330
1B
  0
LAYOUT
  5
26
102
{ACAD_REACTORS
330
1A
102
}
330
1A
100
AcDbPlotSettings
  1

  2
none_device
  4

  6

 40
0.0
 41
0.0
 42
0.0
 43
0.0
 44
0.0
 45
0.0
 46
0.0
 47
0.0
 48
0.0
 49
0.0
140
0.0
141
0.0
142
1.0
143
1.0
 70
   688
 72
     1
 73
     0
 74
     5
  7

 75
    16
147
1.0
148
0.0
149
0.0
100
AcDbLayout
  1
Layout2
 70
     1
 71
     2
 10
0.0
 20
0.0
 11
0.0
 21
0.0
 12
0.0
 22
0.0
 32
0.0
 14
0.0
 24
0.0
 34
0.0
 15
0.0
 25
0.0
 35
0.0
146
0.0
 13
0.0
 23
0.0
 33
0.0
 16
1.0
 26
0.0
 36
0.0
 17
0.0
 27
1.0
 37
0.0
 76
     0
330
23
  0
LAYOUT
  5
22
102
{ACAD_REACTORS
330
1A
102
}
330
1A
100
AcDbPlotSettings
  1

  2
none_device
  4
Letter_(8.50_x_11.00_Inches)
  6

 40
6.35
 41
6.35
 42
6.35000508
 43
6.35000508
 44
215.9
 45
279.4
 46
0.0
 47
0.0
 48
0.0
 49
0.0
140
0.0
141
0.0
142
1.0
143
1.0
 70
  1712
 72
     1
 73
     0
 74
     0
  7

 75
     0
147
1.0
148
0.0
149
0.0
100
AcDbLayout
  1
Model
 70
     1
 71
     0
 10
0.0
 20
0.0
 11
297.0
 21
210.0
 12
0.0
 22
0.0
 32
0.0
 14
0.0
 24
0.0
 34
0.0
 15
297.0
 25
210.0
 35
0.0
146
0.0
 13
0.0
 23
0.0
 33
0.0
 16
1.0
 26
0.0
 36
0.0
 17
0.0
 27
1.0
 37
0.0
 76
     0
330
1F
331
29
  0
MLINESTYLE
  5
18
102
{ACAD_REACTORS
330
17
102
}
330
17
100
AcDbMlineStyle
  2
Standard
 70
     0
  3

 62
   256
 51
90.0
 52
90.0
 71
     2
 49
0.5
 62
   256
  6
BYLAYER
 49
-0.5
 62
   256
  6
BYLAYER
  0
ACDBPLACEHOLDER
  5
F
102
{ACAD_REACTORS
330
E
102
}
330
E
  0
SCALE
  5
48
102
{ACAD_REACTORS
330
47
102
}
330
47
100
AcDbScale
 70
     0
300
1:1
140
1.0
141
1.0
290
     1
  0
SCALE
  5
49
102
{ACAD_REACTORS
330
47
102
}
330
47
100
AcDbScale
 70
     0
300
1:2
140
1.0
141
2.0
290
     0
  0
SCALE
  5
4A
102
{ACAD_REACTORS
330
47
102
}
330
47
100
AcDbScale
 70
     0
300
1:4
140
1.0
141
4.0
290
     0
  0
SCALE
  5
4B
102
{ACAD_REACTORS
330
47
102
}
330
47
100
AcDbScale
 70
     0
300
1:5
140
1.0
141
5.0
290
     0
  0
SCALE
  5
4C
102
{ACAD_REACTORS
330
47
102
}
330
47
100
AcDbScale
 70
     0
300
1:8
140
1.0
141
8.0
290
     0
  0
SCALE
  5
4D
102
{ACAD_REACTORS
330
47
102
}
330
47
100
AcDbScale
 70
     0
300
1:10
140
1.0
141
10.0
290
     0
  0
SCALE
  5
4E
102
{ACAD_REACTORS
330
47
102
}
330
47
100
AcDbScale
 70
     0
300
1:16
140
1.0
141
16.0
290
     0
  0
SCALE
  5
4F
102
{ACAD_REACTORS
330
47
102
}
330
47
100
AcDbScale
 70
     0
300
1:20
140
1.0
141
20.0
290
     0
  0
SCALE
  5
50
102
{ACAD_REACTORS
330
47
102
}
330
47
100
AcDbScale
 70
     0
300
1:30
140
1.0
141
30.0
290
     0
  0
SCALE
  5
51
102
{ACAD_REACTORS
330
47
102
}
330
47
100
AcDbScale
 70
     0
300
1:40
140
1.0
141
40.0
290
     0
  0
SCALE
  5
52
102
{ACAD_REACTORS
330
47
102
}
330
47
100
AcDbScale
 70
     0
300
1:50
140
1.0
141
50.0
290
     0
  0
SCALE
  5
53
102
{ACAD_REACTORS
330
47
102
}
330
47
100
AcDbScale
 70
     0
300
1:100
140
1.0
141
100.0
290
     0
  0
SCALE
  5
54
102
{ACAD_REACTORS
330
47
102
}
330
47
100
AcDbScale
 70
     0
300
2:1
140
2.0
141
1.0
290
     0
  0
SCALE
  5
55
102
{ACAD_REACTORS
330
47
102
}
330
47
100
AcDbScale
 70
     0
300
4:1
140
4.0
141
1.0
290
     0
  0
SCALE
  5
56
102
{ACAD_REACTORS
330
47
102
}
330
47
100
AcDbScale
 70
     0
300
8:1
140
8.0
141
1.0
290
     0
  0
SCALE
  5
57
102
{ACAD_REACTORS
330
47
102
}
330
47
100
AcDbScale
 70
     0
300
10:1
140
10.0
141
1.0
290
     0
  0
SCALE
  5
58
102
{ACAD_REACTORS
330
47
102
}
330
47
100
AcDbScale
 70
     0
300
100:1
140
100.0
141
1.0
290
     0
  0
SCALE
  5
59
102
{ACAD_REACTORS
330
47
102
}
330
47
100
AcDbScale
 70
     0
300
1/128" = 1'-0"
140
0.0078125
141
12.0
290
     0
  0
SCALE
  5
5A
102
{ACAD_REACTORS
330
47
102
}
330
47
100
AcDbScale
 70
     0
300
1/64" = 1'-0"
140
0.015625
141
12.0
290
     0
  0
SCALE
  5
5B
102
{ACAD_REACTORS
330
47
102
}
330
47
100
AcDbScale
 70
     0
300
1/32" = 1'-0"
140
0.03125
141
12.0
290
     0
  0
SCALE
  5
5C
102
{ACAD_REACTORS
330
47
102
}
330
47
100
AcDbScale
 70
     0
300
1/16" = 1'-0"
140
0.0625
141
12.0
290
     0
  0
SCALE
  5
5D
102
{ACAD_REACTORS
330
47
102
}
330
47
100
AcDbScale
 70
     0
300
3/32" = 1'-0"
140
0.09375
141
12.0
290
     0
  0
SCALE
  5
5E
102
{ACAD_REACTORS
330
47
102
}
330
47
100
AcDbScale
 70
     0
300
1/8" = 1'-0"
140
0.125
141
12.0
290
     0
  0
SCALE
  5
5F
102
{ACAD_REACTORS
330
47
102
}
330
47
100
AcDbScale
 70
     0
300
3/16" = 1'-0"
140
0.1875
141
12.0
290
     0
  0
SCALE
  5
60
102
{ACAD_REACTORS
330
47
102
}
330
47
100
AcDbScale
 70
     0
300
1/4" = 1'-0"
140
0.25
141
12.0
290
     0
  0
SCALE
  5
61
102
{ACAD_REACTORS
330
47
102
}
330
47
100
AcDbScale
 70
     0
300
3/8" = 1'-0"
140
0.375
141
12.0
290
     0
  0
SCALE
  5
62
102
{ACAD_REACTORS
330
47
102
}
330
47
100
AcDbScale
 70
     0
300
1/2" = 1'-0"
140
0.5
141
12.0
290
     0
  0
SCALE
  5
63
102
{ACAD_REACTORS
330
47
102
}
330
47
100
AcDbScale
 70
     0
300
3/4" = 1'-0"
140
0.75
141
12.0
290
     0
  0
SCALE
  5
64
102
{ACAD_REACTORS
330
47
102
}
330
47
100
AcDbScale
 70
     0
300
1" = 1'-0"
140
1.0
141
12.0
290
     0
  0
SCALE
  5
65
102
{ACAD_REACTORS
330
47
102
}
330
47
100
AcDbScale
 70
     0
300
1-1/2" = 1'-0"
140
1.5
141
12.0
290
     0
  0
SCALE
  5
66
102
{ACAD_REACTORS
330
47
102
}
330
47
100
AcDbScale
 70
     0
300
3" = 1'-0"
140
3.0
141
12.0
290
     0
  0
SCALE
  5
67
102
{ACAD_REACTORS
330
47
102
}
330
47
100
AcDbScale
 70
     0
300
6" = 1'-0"
140
6.0
141
12.0
290
     0
  0
SCALE
  5
68
102
{ACAD_REACTORS
330
47
102
}
330
47
100
AcDbScale
 70
     0
300
1'-0" = 1'-0"
140
12.0
141
12.0
290
     0
  0
ENDSEC
  0
EOF
