  0
SECTION
  2
HEADER
  9
$ACADVER
  1
AC1015
  9
$ACADMAINTVER
 70
     6
  9
$DWGCODEPAGE
  3
ANSI_1252
  9
$INSBASE
 10
0.0
 20
0.0
 30
0.0
  9
$EXTMIN
 10
0.0
 20
0.0
 30
0.0
  9
$EXTMAX
 10
297.0
 20
210.0
 30
0.0
  9
$LIMMIN
 10
0.0
 20
0.0
  9
$LIMMAX
 10
297.0
 20
210.0
  9
$ORTHOMODE
 70
     0
  9
$REGENMODE
 70
     1
  9
$FILLMODE
 70
     1
  9
$QTEXTMODE
 70
     0
  9
$MIRRTEXT
 70
     1
  9
$LTSCALE
 40
1.0
  9
$ATTMODE
 70
     1
  9
$TEXTSIZE
 40
2.0
  9
$TRACEWID
 40
1.0
  9
$TEXTSTYLE
  7
Standard
  9
$CLAYER
  8
0
  9
$CELTYPE
  6
ByLayer
  9
$CECOLOR
 62
   256
  9
$CELTSCALE
 40
1.0
  9
$DISPSILH
 70
     0
  9
$DIMSCALE
 40
1.0
  9
$DIMASZ
 40
3.0
  9
$DIMEXO
 40
0.0
  9
$DIMDLI
 40
3.75
  9
$DIMRND
 40
0.0
  9
$DIMDLE
 40
0.0
  9
$DIMEXE
 40
1.0
  9
$DIMTP
 40
0.0
  9
$DIMTM
 40
0.0
  9
$DIMTXT
 40
2.0
  9
$DIMCEN
 40
2.5
  9
$DIMTSZ
 40
0.0
  9
$DIMTOL
 70
     0
  9
$DIMLIM
 70
     0
  9
$DIMTIH
 70
     1
  9
$DIMTOH
 70
     1
  9
$DIMSE1
 70
     0
  9
$DIMSE2
 70
     0
  9
$DIMTAD
 70
     1
  9
$DIMZIN
 70
     0
  9
$DIMBLK
  1

  9
$DIMASO
 70
     1
  9
$DIMSHO
 70
     1
  9
$DIMPOST
  1

  9
$DIMAPOST
  1

  9
$DIMALT
 70
     0
  9
$DIMALTD
 70
     3
  9
$DIMALTF
 40
0.0393700787
  9
$DIMLFAC
 40
1.0
  9
$DIMTOFL
 70
     1
  9
$DIMTVP
 40
0.0
  9
$DIMTIX
 70
     0
  9
$DIMSOXD
 70
     0
  9
$DIMSAH
 70
     0
  9
$DIMBLK1
  1

  9
$DIMBLK2
  1

  9
$DIMSTYLE
  2
ISO-25
  9
$DIMCLRD
 70
     0
  9
$DIMCLRE
 70
     0
  9
$DIMCLRT
 70
     0
  9
$DIMTFAC
 40
1.0
  9
$DIMGAP
 40
1.524
  9
$DIMJUST
 70
     0
  9
$DIMSD1
 70
     0
  9
$DIMSD2
 70
     0
  9
$DIMTOLJ
 70
     0
  9
$DIMTZIN
 70
     0
  9
$DIMALTZ
 70
     0
  9
$DIMALTTZ
 70
     0
  9
$DIMUPT
 70
     0
  9
$DIMDEC
 70
     2
  9
$DIMTDEC
 70
     3
  9
$DIMALTU
 70
     2
  9
$DIMALTTD
 70
     3
  9
$DIMTXSTY
  7
Standard
  9
$DIMAUNIT
 70
     0
  9
$DIMADEC
 70
     2
  9
$DIMALTRND
 40
0.0
  9
$DIMAZIN
 70
     0
  9
$DIMDSEP
 70
    44
  9
$DIMATFIT
 70
     3
  9
$DIMFRAC
 70
     0
  9
$DIMLDRBLK
  1

  9
$DIMLUNIT
 70
     2
  9
$DIMLWD
 70
    -2
  9
$DIMLWE
 70
    -2
  9
$DIMTMOVE
 70
     0
  9
$LUNITS
 70
     2
  9
$LUPREC
 70
     2
  9
$SKETCHINC
 40
1.0
  9
$FILLETRAD
 40
10.0
  9
$AUNITS
 70
     0
  9
$AUPREC
 70
     2
  9
$MENU
  1
.
  9
$ELEVATION
 40
0.0
  9
$PELEVATION
 40
0.0
  9
$THICKNESS
 40
0.0
  9
$LIMCHECK
 70
     0
  9
$CHAMFERA
 40
0.0
  9
$CHAMFERB
 40
0.0
  9
$CHAMFERC
 40
0.0
  9
$CHAMFERD
 40
0.0
  9
$SKPOLY
 70
     0
  9
$TDCREATE
 40
2458187.552590359
  9
$TDUCREATE
 40
2458187.510923692
  9
$TDUPDATE
 40
2458187.552592291
  9
$TDUUPDATE
 40
2458187.510925625
  9
$TDINDWG
 40
0.0000000116
  9
$TDUSRTIMER
 40
0.0000000116
  9
$USRTIMER
 70
     1
  9
$ANGBASE
 50
0.0
  9
$ANGDIR
 70
     0
  9
$PDMODE
 70
     0
  9
$PDSIZE
 40
-1.0
  9
$PLINEWID
 40
0.0
  9
$SPLFRAME
 70
     0
  9
$SPLINETYPE
 70
     6
  9
$SPLINESEGS
 70
     8
  9
$HANDSEED
  5
2A3
  9
$SURFTAB1
 70
     6
  9
$SURFTAB2
 70
     6
  9
$SURFTYPE
 70
     6
  9
$SURFU
 70
     6
  9
$SURFV
 70
     6
  9
$UCSBASE
  2

  9
$UCSNAME
  2

  9
$UCSORG
 10
0.0
 20
0.0
 30
0.0
  9
$UCSXDIR
 10
1.0
 20
0.0
 30
0.0
  9
$UCSYDIR
 10
0.0
 20
1.0
 30
0.0
  9
$UCSORTHOREF
  2

  9
$UCSORTHOVIEW
 70
     0
  9
$UCSORGTOP
 10
0.0
 20
0.0
 30
0.0
  9
$UCSORGBOTTOM
 10
0.0
 20
0.0
 30
0.0
  9
$UCSORGLEFT
 10
0.0
 20
0.0
 30
0.0
  9
$UCSORGRIGHT
 10
0.0
 20
0.0
 30
0.0
  9
$UCSORGFRONT
 10
0.0
 20
0.0
 30
0.0
  9
$UCSORGBACK
 10
0.0
 20
0.0
 30
0.0
  9
$PUCSBASE
  2

  9
$PUCSNAME
  2

  9
$PUCSORG
 10
0.0
 20
0.0
 30
0.0
  9
$PUCSXDIR
 10
1.0
 20
0.0
 30
0.0
  9
$PUCSYDIR
 10
0.0
 20
1.0
 30
0.0
  9
$PUCSORTHOREF
  2

  9
$PUCSORTHOVIEW
 70
     0
  9
$PUCSORGTOP
 10
0.0
 20
0.0
 30
0.0
  9
$PUCSORGBOTTOM
 10
0.0
 20
0.0
 30
0.0
  9
$PUCSORGLEFT
 10
0.0
 20
0.0
 30
0.0
  9
$PUCSORGRIGHT
 10
0.0
 20
0.0
 30
0.0
  9
$PUCSORGFRONT
 10
0.0
 20
0.0
 30
0.0
  9
$PUCSORGBACK
 10
0.0
 20
0.0
 30
0.0
  9
$USERI1
 70
     0
  9
$USERI2
 70
     0
  9
$USERI3
 70
     0
  9
$USERI4
 70
     0
  9
$USERI5
 70
     0
  9
$USERR1
 40
0.0
  9
$USERR2
 40
0.0
  9
$USERR3
 40
0.0
  9
$USERR4
 40
0.0
  9
$USERR5
 40
0.0
  9
$WORLDVIEW
 70
     1
  9
$SHADEDGE
 70
     3
  9
$SHADEDIF
 70
    70
  9
$TILEMODE
 70
     1
  9
$MAXACTVP
 70
    64
  9
$PINSBASE
 10
0.0
 20
0.0
 30
0.0
  9
$PLIMCHECK
 70
     0
  9
$PEXTMIN
 10
1.0000000000E+20
 20
1.0000000000E+20
 30
1.0000000000E+20
  9
$PEXTMAX
 10
-1.0000000000E+20
 20
-1.0000000000E+20
 30
-1.0000000000E+20
  9
$PLIMMIN
 10
0.0
 20
0.0
  9
$PLIMMAX
 10
420.0
 20
297.0
  9
$UNITMODE
 70
     0
  9
$VISRETAIN
 70
     1
  9
$PLINEGEN
 70
     0
  9
$PSLTSCALE
 70
     1
  9
$TREEDEPTH
 70
  3020
  9
$CMLSTYLE
  2
Standard
  9
$CMLJUST
 70
     0
  9
$CMLSCALE
 40
20.0
  9
$PROXYGRAPHICS
 70
     1
  9
$MEASUREMENT
 70
     1
  9
$CELWEIGHT
370
    -1
  9
$ENDCAPS
280
     0
  9
$JOINSTYLE
280
     0
  9
$LWDISPLAY
290
     1
  9
$INSUNITS
 70
     4
  9
$HYPERLINKBASE
  1

  9
$STYLESHEET
  1

  9
$XEDIT
290
     1
  9
$CEPSNTYPE
380
     0
  9
$PSTYLEMODE
290
     1
  9
$FINGERPRINTGUID
  2
{F110F0EA-2F77-448F-A025-0621AD22A749}
  9
$VERSIONGUID
  2
{FAEB1C32-E019-11D5-929B-00C0DF256EC4}
  9
$EXTNAMES
290
     1
  9
$PSVPSCALE
 40
0.0
  9
$OLESTARTUP
290
     0
  0
ENDSEC
  0
SECTION
  2
CLASSES
  0
CLASS
  1
ACDBDICTIONARYWDFLT
  2
AcDbDictionaryWithDefault
  3
ObjectDBX Classes
 90
        0
280
     0
281
     0
  0
CLASS
  1
VISUALSTYLE
  2
AcDbVisualStyle
  3
ObjectDBX Classes
 90
     4095
280
     0
281
     0
  0
CLASS
  1
MATERIAL
  2
AcDbMaterial
  3
ObjectDBX Classes
 90
     1153
280
     0
281
     0
  0
CLASS
  1
SCALE
  2
AcDbScale
  3
ObjectDBX Classes
 90
     1153
280
     0
281
     0
  0
CLASS
  1
TABLESTYLE
  2
AcDbTableStyle
  3
ObjectDBX Classes
 90
     4095
280
     0
281
     0
  0
CLASS
  1
MLEADERSTYLE
  2
AcDbMLeaderStyle
  3
ACDB_MLEADERSTYLE_CLASS
 90
     4095
280
     0
281
     0
  0
CLASS
  1
SUN
  2
AcDbSun
  3
SCENEOE
 90
     1153
280
     0
281
     0
  0
CLASS
  1
ACDBPLACEHOLDER
  2
AcDbPlaceHolder
  3
ObjectDBX Classes
 90
        0
280
     0
281
     0
  0
CLASS
  1
LAYOUT
  2
AcDbLayout
  3
ObjectDBX Classes
 90
        0
280
     0
281
     0
  0
ENDSEC
  0
SECTION
  2
TABLES
  0
TABLE
  2
VPORT
  5
8
330
0
100
AcDbSymbolTable
 70
     1
  0
VPORT
  5
29
330
8
100
AcDbSymbolTableRecord
100
AcDbViewportTableRecord
  2
*Active
 70
     0
 10
0.0
 20
0.0
 11
1.0
 21
1.0
 12
148.5
 22
105.0
 13
0.0
 23
0.0
 14
10.0
 24
10.0
 15
10.0
 25
10.0
 16
0.0
 26
0.0
 36
1.0
 17
0.0
 27
0.0
 37
0.0
 40
210.0
 41
1.4142857143
 42
50.0
 43
0.0
 44
0.0
 50
0.0
 51
0.0
 71
     0
 72
  2000
 73
     1
 74
     3
 75
     0
 76
     0
 77
     0
 78
     0
281
     0
 65
     1
110
0.0
120
0.0
130
0.0
111
1.0
121
0.0
131
0.0
112
0.0
122
1.0
132
0.0
 79
     0
146
0.0
  0
ENDTAB
  0
TABLE
  2
LTYPE
  5
5
330
0
100
AcDbSymbolTable
 70
     6
  0
LTYPE
  5
14
330
5
100
AcDbSymbolTableRecord
100
AcDbLinetypeTableRecord
  2
ByBlock
 70
     0
  3

 72
    65
 73
     0
 40
0.0
  0
LTYPE
  5
15
330
5
100
AcDbSymbolTableRecord
100
AcDbLinetypeTableRecord
  2
ByLayer
 70
     0
  3

 72
    65
 73
     0
 40
0.0
  0
LTYPE
  5
16
330
5
100
AcDbSymbolTableRecord
100
AcDbLinetypeTableRecord
  2
Continuous
 70
     0
  3
Solid line
 72
    65
 73
     0
 40
0.0
  0
LTYPE
  5
6E
330
5
100
AcDbSymbolTableRecord
100
AcDbLinetypeTableRecord
  2
HIDDEN
 70
     0
  3
Hidden __ __ __ __ __ __ __ __ __ __ __ __ __ __
 72
    65
 73
     2
 40
1.905
 49
1.27
 74
     0
 49
-0.635
 74
     0
  0
LTYPE
  5
6F
330
5
100
AcDbSymbolTableRecord
100
AcDbLinetypeTableRecord
  2
PHANTOM
 70
     0
  3
Phantom ______  __  __  ______  __  __  ______
 72
    65
 73
     6
 40
12.7
 49
6.35
 74
     0
 49
-1.27
 74
     0
 49
1.27
 74
     0
 49
-1.27
 74
     0
 49
1.27
 74
     0
 49
-1.27
 74
     0
  0
LTYPE
  5
70
330
5
100
AcDbSymbolTableRecord
100
AcDbLinetypeTableRecord
  2
CENTER
 70
     0
  3
Center ____ _ ____ _ ____ _ ____ _ ____ _ ____
 72
    65
 73
     4
 40
10.16
 49
6.35
 74
     0
 49
-1.27
 74
     0
 49
1.27
 74
     0
 49
-1.27
 74
     0
  0
LTYPE
  5
71
330
5
100
AcDbSymbolTableRecord
100
AcDbLinetypeTableRecord
  2
CENTERX2
 70
     0
  3
Center (2x) ________  __  ________  __  _____
 72
    65
 73
     4
 40
20.32
 49
12.7
 74
     0
 49
-2.54
 74
     0
 49
2.54
 74
     0
 49
-2.54
 74
     0
  0
LTYPE
  5
72
330
5
100
AcDbSymbolTableRecord
100
AcDbLinetypeTableRecord
  2
DOT2
 70
     0
  3
Dot (.5x) ........................................
 72
    65
 73
     2
 40
0.635
 49
0.0
 74
     0
 49
-0.635
 74
     0
  0
ENDTAB
  0
TABLE
  2
LAYER
  5
2
330
0
100
AcDbSymbolTable
 70
     5
  0
LAYER
  5
10
330
2
100
AcDbSymbolTableRecord
100
AcDbLayerTableRecord
  2
0
 70
     0
 62
     7
  6
Continuous
370
    -3
390
F
  0
LAYER
  5
73
330
2
100
AcDbSymbolTableRecord
100
AcDbLayerTableRecord
  2
FORMAT
 70
     0
 62
     7
  6
Continuous
370
    -3
390
F
  0
LAYER
  5
74
330
2
100
AcDbSymbolTableRecord
100
AcDbLayerTableRecord
  2
VERMASSUNG
 70
     0
 62
     7
  6
Continuous
370
    -3
390
F
  0
LAYER
  5
75
330
2
100
AcDbSymbolTableRecord
100
AcDbLayerTableRecord
  2
KOPF_DÜNN
 70
     0
 62
     7
  6
Continuous
370
    -3
390
F
  0
LAYER
  5
76
330
2
100
AcDbSymbolTableRecord
100
AcDbLayerTableRecord
  2
KOPF_DICK
 70
     0
 62
     7
  6
Continuous
370
    25
390
F
  0
ENDTAB
  0
TABLE
  2
STYLE
  5
3
330
0
100
AcDbSymbolTable
 70
     2
  0
STYLE
  5
11
330
3
100
AcDbSymbolTableRecord
100
AcDbTextStyleTableRecord
  2
Standard
 70
     0
 40
0.0
 41
1.0
 50
0.0
 71
     0
 42
2.0
  3
txt
  4

  0
STYLE
  5
77
330
3
100
AcDbSymbolTableRecord
100
AcDbTextStyleTableRecord
  2
SLDTEXTSTYLE0
 70
     0
 40
0.0
 41
0.7
 50
0.0
 71
     0
 42
2.0
  3
TXT
  4

  0
ENDTAB
  0
TABLE
  2
VIEW
  5
6
330
0
100
AcDbSymbolTable
 70
     0
  0
ENDTAB
  0
TABLE
  2
UCS
  5
7
330
0
100
AcDbSymbolTable
 70
     0
  0
ENDTAB
  0
TABLE
  2
APPID
  5
9
330
0
100
AcDbSymbolTable
 70
     1
  0
APPID
  5
12
330
9
100
AcDbSymbolTableRecord
100
AcDbRegAppTableRecord
  2
ACAD
 70
     0
  0
ENDTAB
  0
TABLE
  2
DIMSTYLE
  5
A
330
0
100
AcDbSymbolTable
 70
     3
100
AcDbDimStyleTable
  0
DIMSTYLE
105
27
330
A
100
AcDbSymbolTableRecord
100
AcDbDimStyleTableRecord
  2
ISO-25
 70
     0
 41
2.5
 42
0.625
 43
3.75
 44
1.25
 73
     0
 74
     0
 77
     1
 78
     8
140
2.5
141
2.5
143
0.0393700787
147
0.625
171
     3
172
     1
178
     0
271
     2
272
     2
274
     3
278
    44
283
     0
284
     8
340
11
  0
DIMSTYLE
105
18F
102
{ACAD_REACTORS
330
18E
330
19B
330
1A5
330
1AF
330
1B9
102
}
330
A
100
AcDbSymbolTableRecord
100
AcDbDimStyleTableRecord
  2
SLDDIMSTYLE0
 70
     0
 41
3.0
 44
0.0
 45
0.000000001
 73
     0
 74
     0
 77
     1
 78
    12
 79
     3
140
2.0
147
0.5
173
     1
178
     0
271
     2
272
     3
276
     2
284
    12
340
77
  0
DIMSTYLE
105
1CB
330
A
100
AcDbSymbolTableRecord
100
AcDbDimStyleTableRecord
  2
SLDDIMSTYLE1
 70
     0
 41
0.9
 44
0.0
 45
0.000000001
146
0.9
147
0.0
173
     1
178
     0
271
     0
272
     0
276
     2
340
11
341
1CC
343
1CC
344
1CC
  0
ENDTAB
  0
TABLE
  2
BLOCK_RECORD
  5
1
330
0
100
AcDbSymbolTable
 70
    10
  0
BLOCK_RECORD
  5
1F
330
1
100
AcDbSymbolTableRecord
100
AcDbBlockTableRecord
  2
*Model_Space
340
22
  0
BLOCK_RECORD
  5
1B
330
1
100
AcDbSymbolTableRecord
100
AcDbBlockTableRecord
  2
*Paper_Space
340
1E
  0
BLOCK_RECORD
  5
23
330
1
100
AcDbSymbolTableRecord
100
AcDbBlockTableRecord
  2
*Paper_Space0
340
26
  0
BLOCK_RECORD
  5
7D
330
1
100
AcDbSymbolTableRecord
100
AcDbBlockTableRecord
  2
SW_TABLEANNOTATION_0
340
0
102
{BLKREFS
331
98
102
}
  0
BLOCK_RECORD
  5
190
330
1
100
AcDbSymbolTableRecord
100
AcDbBlockTableRecord
  2
_D
340
0
  0
BLOCK_RECORD
  5
19C
330
1
100
AcDbSymbolTableRecord
100
AcDbBlockTableRecord
  2
_D_1
340
0
  0
BLOCK_RECORD
  5
1A6
330
1
100
AcDbSymbolTableRecord
100
AcDbBlockTableRecord
  2
_D_2
340
0
  0
BLOCK_RECORD
  5
1B0
330
1
100
AcDbSymbolTableRecord
100
AcDbBlockTableRecord
  2
_D_3
340
0
  0
BLOCK_RECORD
  5
1BA
330
1
100
AcDbSymbolTableRecord
100
AcDbBlockTableRecord
  2
_D_4
340
0
  0
BLOCK_RECORD
  5
1C5
330
1
100
AcDbSymbolTableRecord
100
AcDbBlockTableRecord
  2
SW_NOTE_0
340
0
102
{BLKREFS
331
1CA
102
}
  0
BLOCK_RECORD
  5
1CC
330
1
100
AcDbSymbolTableRecord
100
AcDbBlockTableRecord
  2
_Dot
340
0
  0
BLOCK_RECORD
  5
1D2
330
1
100
AcDbSymbolTableRecord
100
AcDbBlockTableRecord
  2
SW_NOTE_1
340
0
102
{BLKREFS
331
1D7
102
}
  0
ENDTAB
  0
ENDSEC
  0
SECTION
  2
BLOCKS
  0
BLOCK
  5
20
330
1F
100
AcDbEntity
  8
0
100
AcDbBlockBegin
  2
*Model_Space
 70
     0
 10
0.0
 20
0.0
 30
0.0
  3
*Model_Space
  1

  0
ENDBLK
  5
21
330
1F
100
AcDbEntity
  8
0
100
AcDbBlockEnd
  0
BLOCK
  5
1C
330
1B
100
AcDbEntity
 67
     1
  8
0
100
AcDbBlockBegin
  2
*Paper_Space
 70
     0
 10
0.0
 20
0.0
 30
0.0
  3
*Paper_Space
  1

  0
ENDBLK
  5
1D
330
1B
100
AcDbEntity
 67
     1
  8
0
100
AcDbBlockEnd
  0
BLOCK
  5
24
330
23
100
AcDbEntity
  8
0
100
AcDbBlockBegin
  2
*Paper_Space0
 70
     0
 10
0.0
 20
0.0
 30
0.0
  3
*Paper_Space0
  1

  0
ENDBLK
  5
25
330
23
100
AcDbEntity
  8
0
100
AcDbBlockEnd
  0
BLOCK
  5
7E
330
7D
100
AcDbEntity
  8
0
100
AcDbBlockBegin
  2
SW_TABLEANNOTATION_0
 70
     0
 10
0.0
 20
0.0
 30
0.0
  3
SW_TABLEANNOTATION_0
  1

  0
LINE
  5
80
330
7D
100
AcDbEntity
  8
0
  6
Continuous
 62
     0
370
    18
100
AcDbLine
 10
0.0
 20
0.0
 30
0.0
 11
0.0
 21
-10.9613963039
 31
0.0
  0
LINE
  5
81
330
7D
100
AcDbEntity
  8
0
  6
Continuous
 62
     0
370
    18
100
AcDbLine
 10
0.0
 20
-10.9613963039
 30
0.0
 11
125.0044361962
 21
-10.9613963039
 31
0.0
  0
LINE
  5
82
330
7D
100
AcDbEntity
  8
0
  6
Continuous
 62
     0
370
    18
100
AcDbLine
 10
125.0044361962
 20
-10.9613963039
 30
0.0
 11
125.0044361962
 21
0.0
 31
0.0
  0
LINE
  5
83
330
7D
100
AcDbEntity
  8
0
  6
Continuous
 62
     0
370
    18
100
AcDbLine
 10
125.0044361962
 20
0.0
 30
0.0
 11
0.0
 21
0.0
 31
0.0
  0
LINE
  5
84
330
7D
100
AcDbEntity
  8
0
  6
Continuous
 62
     0
370
    18
100
AcDbLine
 10
15.9651052694
 20
-7.3075975359
 30
0.0
 11
15.9651052694
 21
-10.9613963039
 31
0.0
  0
LINE
  5
85
330
7D
100
AcDbEntity
  8
0
  6
Continuous
 62
     0
370
    18
100
AcDbLine
 10
34.1012448998
 20
-7.3075975359
 30
0.0
 11
34.1012448998
 21
-10.9613963039
 31
0.0
  0
LINE
  5
86
330
7D
100
AcDbEntity
  8
0
  6
Continuous
 62
     0
370
    18
100
AcDbLine
 10
92.6586456418
 20
-7.3075975359
 30
0.0
 11
92.6586456418
 21
-10.9613963039
 31
0.0
  0
LINE
  5
87
330
7D
100
AcDbEntity
  8
0
  6
Continuous
 62
     0
370
    18
100
AcDbLine
 10
15.9651052694
 20
0.0
 30
0.0
 11
15.9651052694
 21
-7.3075975359
 31
0.0
  0
LINE
  5
88
330
7D
100
AcDbEntity
  8
0
  6
Continuous
 62
     0
370
    18
100
AcDbLine
 10
34.1012448998
 20
0.0
 30
0.0
 11
34.1012448998
 21
-7.3075975359
 31
0.0
  0
LINE
  5
89
330
7D
100
AcDbEntity
  8
0
  6
Continuous
 62
     0
370
    18
100
AcDbLine
 10
92.6586456418
 20
0.0
 30
0.0
 11
92.6586456418
 21
-7.3075975359
 31
0.0
  0
LINE
  5
8A
330
7D
100
AcDbEntity
  8
0
  6
Continuous
 62
     0
370
    18
100
AcDbLine
 10
0.0
 20
-3.653798768
 30
0.0
 11
125.0044361962
 21
-3.653798768
 31
0.0
  0
LINE
  5
8B
330
7D
100
AcDbEntity
  8
0
  6
Continuous
 62
     0
370
    18
100
AcDbLine
 10
0.0
 20
-7.3075975359
 30
0.0
 11
125.0044361962
 21
-7.3075975359
 31
0.0
  0
MTEXT
  5
8C
330
7D
100
AcDbEntity
  8
0
  6
Continuous
 62
     0
370
    18
100
AcDbMText
 10
5.2825527975
 20
-7.9563615651
 30
0.0
 40
2.0
 41
0.0
 71
     1
 72
     1
  1
POS.
  7
SLDTEXTSTYLE0
 73
     1
 44
1.0
  0
MTEXT
  5
8D
330
7D
100
AcDbEntity
  8
0
  6
Continuous
 62
     0
370
    18
100
AcDbMText
 10
21.1331751904
 20
-7.9563615651
 30
0.0
 40
2.0
 41
0.0
 71
     1
 72
     1
  1
MENGE
  7
SLDTEXTSTYLE0
 73
     1
 44
1.0
  0
MTEXT
  5
8E
330
7D
100
AcDbEntity
  8
0
  6
Continuous
 62
     0
370
    18
100
AcDbMText
 10
56.0799464956
 20
-7.9563615651
 30
0.0
 40
2.0
 41
0.0
 71
     1
 72
     1
  1
Bezeichnung
  7
SLDTEXTSTYLE0
 73
     1
 44
1.0
  0
MTEXT
  5
8F
330
7D
100
AcDbEntity
  8
0
  6
Continuous
 62
     0
370
    18
100
AcDbMText
 10
97.7315420798
 20
-7.9563615651
 30
0.0
 40
2.0
 41
0.0
 71
     1
 72
     1
  1
Zeichnungsnummer
  7
SLDTEXTSTYLE0
 73
     1
 44
1.0
  0
MTEXT
  5
90
330
7D
100
AcDbEntity
  8
0
  6
Continuous
 62
     0
370
    18
100
AcDbMText
 10
7.2825526596
 20
-0.9184887998
 30
0.0
 40
2.0
 41
0.0
 71
     1
 72
     1
  1
2
  7
SLDTEXTSTYLE0
 73
     1
 44
1.0
  0
MTEXT
  5
91
330
7D
100
AcDbEntity
  8
0
  6
Continuous
 62
     0
370
    18
100
AcDbMText
 10
24.5331750608
 20
-0.9184887998
 30
0.0
 40
2.0
 41
0.0
 71
     1
 72
     1
  1
1
  7
SLDTEXTSTYLE0
 73
     1
 44
1.0
  0
MTEXT
  5
92
330
7D
100
AcDbEntity
  8
0
  6
Continuous
 62
     0
370
    18
100
AcDbMText
 10
54.2799467594
 20
-0.9184887998
 30
0.0
 40
2.0
 41
0.0
 71
     1
 72
     1
  1
Klemmschraube
  7
SLDTEXTSTYLE0
 73
     1
 44
1.0
  0
MTEXT
  5
93
330
7D
100
AcDbEntity
  8
0
  6
Continuous
 62
     0
370
    18
100
AcDbMText
 10
99.5315408847
 20
-0.9184887998
 30
0.0
 40
2.0
 41
0.0
 71
     1
 72
     1
  1
MB3-ER1.001.011
  7
SLDTEXTSTYLE0
 73
     1
 44
1.0
  0
MTEXT
  5
94
330
7D
100
AcDbEntity
  8
0
  6
Continuous
 62
     0
370
    18
100
AcDbMText
 10
7.4825526109
 20
-4.5722875678
 30
0.0
 40
2.0
 41
0.0
 71
     1
 72
     1
  1
1
  7
SLDTEXTSTYLE0
 73
     1
 44
1.0
  0
MTEXT
  5
95
330
7D
100
AcDbEntity
  8
0
  6
Continuous
 62
     0
370
    18
100
AcDbMText
 10
24.5331750608
 20
-4.5722875678
 30
0.0
 40
2.0
 41
0.0
 71
     1
 72
     1
  1
1
  7
SLDTEXTSTYLE0
 73
     1
 44
1.0
  0
MTEXT
  5
96
330
7D
100
AcDbEntity
  8
0
  6
Continuous
 62
     0
370
    18
100
AcDbMText
 10
54.2799448967
 20
-4.5722875678
 30
0.0
 40
2.0
 41
0.0
 71
     1
 72
     1
  1
Aufnahme MBM
  7
SLDTEXTSTYLE0
 73
     1
 44
1.0
  0
MTEXT
  5
97
330
7D
100
AcDbEntity
  8
0
  6
Continuous
 62
     0
370
    18
100
AcDbMText
 10
98.8315411425
 20
-4.5722875678
 30
0.0
 40
2.0
 41
0.0
 71
     1
 72
     1
  1
HA0-MB3.K01.051
  7
SLDTEXTSTYLE0
 73
     1
 44
1.0
  0
ENDBLK
  5
7F
330
7D
100
AcDbEntity
  8
0
100
AcDbBlockEnd
  0
BLOCK
  5
191
330
190
100
AcDbEntity
  8
0
100
AcDbBlockBegin
  2
_D
 70
     0
 10
0.0
 20
0.0
 30
0.0
  3
_D
  1

  0
SOLID
  5
193
330
190
100
AcDbEntity
  8
VERMASSUNG
100
AcDbTrace
 10
83.7372124012
 20
164.9758802169
 30
0.0
 11
83.2872124012
 21
161.9758802169
 31
0.0
 12
84.1872124012
 22
161.9758802169
 32
0.0
 13
84.1872124012
 23
161.9758802169
 33
0.0
  0
SOLID
  5
194
330
190
100
AcDbEntity
  8
VERMASSUNG
100
AcDbTrace
 10
83.7372124012
 20
64.9758802169
 30
0.0
 11
84.1872124012
 21
67.9758802169
 31
0.0
 12
83.2872124012
 22
67.9758802169
 32
0.0
 13
83.2872124012
 23
67.9758802169
 33
0.0
  0
LINE
  5
195
330
190
100
AcDbEntity
  8
VERMASSUNG
100
AcDbLine
 10
144.3876817622
 20
164.9758802169
 30
0.0
 11
82.7372124012
 21
164.9758802169
 31
0.0
  0
LINE
  5
196
330
190
100
AcDbEntity
  8
VERMASSUNG
100
AcDbLine
 10
144.3876817622
 20
64.9758802169
 30
0.0
 11
82.7372124012
 21
64.9758802169
 31
0.0
  0
LINE
  5
197
330
190
100
AcDbEntity
  8
VERMASSUNG
100
AcDbLine
 10
83.7372124012
 20
164.9758802169
 30
0.0
 11
83.7372124012
 21
64.9758802169
 31
0.0
  0
MTEXT
  5
198
330
190
100
AcDbEntity
  8
VERMASSUNG
100
AcDbMText
 10
80.959077145
 20
106.7725493898
 30
0.0
 40
2.0
 41
0.0
 71
     1
 72
     1
  1
HSK A
  7
SLDTEXTSTYLE0
 11
-7.044195017643634E-15
 21
1.0
 31
0.0
 73
     1
 44
1.0
  0
MTEXT
  5
199
330
190
100
AcDbEntity
  8
VERMASSUNG
100
AcDbMText
 10
81.1590770963
 20
115.7725490024
 30
0.0
 40
2.0
 41
0.0
 71
     1
 72
     1
  1
%%c
  7
SLDTEXTSTYLE0
 11
-7.044195017643634E-15
 21
1.0
 31
0.0
 73
     1
 44
1.0
  0
MTEXT
  5
19A
330
190
100
AcDbEntity
  8
VERMASSUNG
100
AcDbMText
 10
81.1590768052
 20
119.3806696906
 30
0.0
 40
2.0
 41
0.0
 71
     1
 72
     1
  1
100
  7
SLDTEXTSTYLE0
 11
-7.044195017643634E-15
 21
1.0
 31
0.0
 73
     1
 44
1.0
  0
ENDBLK
  5
192
330
190
100
AcDbEntity
  8
0
100
AcDbBlockEnd
  0
BLOCK
  5
19D
330
19C
100
AcDbEntity
  8
0
100
AcDbBlockBegin
  2
_D_1
 70
     0
 10
0.0
 20
0.0
 30
0.0
  3
_D_1
  1

  0
SOLID
  5
19F
330
19C
100
AcDbEntity
  8
VERMASSUNG
100
AcDbTrace
 10
93.9876817622
 20
183.2766320966
 30
0.0
 11
96.9876817622
 21
182.8266320966
 31
0.0
 12
96.9876817622
 22
183.7266320966
 32
0.0
 13
96.9876817622
 23
183.7266320966
 33
0.0
  0
SOLID
  5
1A0
330
19C
100
AcDbEntity
  8
VERMASSUNG
100
AcDbTrace
 10
194.8876817622
 20
183.2766320966
 30
0.0
 11
191.8876817622
 21
183.7266320966
 31
0.0
 12
191.8876817622
 22
182.8266320966
 32
0.0
 13
191.8876817622
 23
182.8266320966
 33
0.0
  0
LINE
  5
1A1
330
19C
100
AcDbEntity
  8
VERMASSUNG
100
AcDbLine
 10
93.9876817622
 20
145.4785499595
 30
0.0
 11
93.9876817622
 21
184.2766320966
 31
0.0
  0
LINE
  5
1A2
330
19C
100
AcDbEntity
  8
VERMASSUNG
100
AcDbLine
 10
194.8876817622
 20
130.6758802169
 30
0.0
 11
194.8876817622
 21
184.2766320966
 31
0.0
  0
LINE
  5
1A3
330
19C
100
AcDbEntity
  8
VERMASSUNG
100
AcDbLine
 10
93.9876817622
 20
183.2766320966
 30
0.0
 11
194.8876817622
 21
183.2766320966
 31
0.0
  0
MTEXT
  5
1A4
330
19C
100
AcDbEntity
  8
VERMASSUNG
100
AcDbMText
 10
141.5387343938
 20
185.8547676926
 30
0.0
 40
2.0
 41
0.0
 71
     1
 72
     1
  1
100.9
  7
SLDTEXTSTYLE0
 73
     1
 44
1.0
  0
ENDBLK
  5
19E
330
19C
100
AcDbEntity
  8
0
100
AcDbBlockEnd
  0
BLOCK
  5
1A7
330
1A6
100
AcDbEntity
  8
0
100
AcDbBlockBegin
  2
_D_2
 70
     0
 10
0.0
 20
0.0
 30
0.0
  3
_D_2
  1

  0
SOLID
  5
1A9
330
1A6
100
AcDbEntity
  8
VERMASSUNG
100
AcDbTrace
 10
143.8876817622
 20
177.2766320966
 30
0.0
 11
146.8876817622
 21
176.8266320966
 31
0.0
 12
146.8876817622
 22
177.7266320966
 32
0.0
 13
146.8876817622
 23
177.7266320966
 33
0.0
  0
SOLID
  5
1AA
330
1A6
100
AcDbEntity
  8
VERMASSUNG
100
AcDbTrace
 10
194.8876817622
 20
177.2766320966
 30
0.0
 11
191.8876817622
 21
177.7266320966
 31
0.0
 12
191.8876817622
 22
176.8266320966
 32
0.0
 13
191.8876817622
 23
176.8266320966
 33
0.0
  0
LINE
  5
1AB
330
1A6
100
AcDbEntity
  8
VERMASSUNG
100
AcDbLine
 10
143.8876817622
 20
164.4758802169
 30
0.0
 11
143.8876817622
 21
178.2766320966
 31
0.0
  0
LINE
  5
1AC
330
1A6
100
AcDbEntity
  8
VERMASSUNG
100
AcDbLine
 10
194.8876817622
 20
128.4758802169
 30
0.0
 11
194.8876817622
 21
178.2766320966
 31
0.0
  0
LINE
  5
1AD
330
1A6
100
AcDbEntity
  8
VERMASSUNG
100
AcDbLine
 10
143.8876817622
 20
177.2766320966
 30
0.0
 11
194.8876817622
 21
177.2766320966
 31
0.0
  0
MTEXT
  5
1AE
330
1A6
100
AcDbEntity
  8
VERMASSUNG
100
AcDbMText
 10
168.1878396569
 20
179.8547676926
 30
0.0
 40
2.0
 41
0.0
 71
     1
 72
     1
  1
51
  7
SLDTEXTSTYLE0
 73
     1
 44
1.0
  0
ENDBLK
  5
1A8
330
1A6
100
AcDbEntity
  8
0
100
AcDbBlockEnd
  0
BLOCK
  5
1B1
330
1B0
100
AcDbEntity
  8
0
100
AcDbBlockBegin
  2
_D_3
 70
     0
 10
0.0
 20
0.0
 30
0.0
  3
_D_3
  1

  0
SOLID
  5
1B3
330
1B0
100
AcDbEntity
  8
VERMASSUNG
100
AcDbTrace
 10
172.8376817622
 20
171.2766320966
 30
0.0
 11
175.8376817622
 21
170.8266320966
 31
0.0
 12
175.8376817622
 22
171.7266320966
 32
0.0
 13
175.8376817622
 23
171.7266320966
 33
0.0
  0
SOLID
  5
1B4
330
1B0
100
AcDbEntity
  8
VERMASSUNG
100
AcDbTrace
 10
194.8876817622
 20
171.2766320966
 30
0.0
 11
191.8876817622
 21
171.7266320966
 31
0.0
 12
191.8876817622
 22
170.8266320966
 32
0.0
 13
191.8876817622
 23
170.8266320966
 33
0.0
  0
LINE
  5
1B5
330
1B0
100
AcDbEntity
  8
VERMASSUNG
100
AcDbLine
 10
172.8376817622
 20
162.9446200377
 30
0.0
 11
172.8376817622
 21
172.2766320966
 31
0.0
  0
LINE
  5
1B6
330
1B0
100
AcDbEntity
  8
VERMASSUNG
100
AcDbLine
 10
194.8876817622
 20
130.6758802169
 30
0.0
 11
194.8876817622
 21
172.2766320966
 31
0.0
  0
LINE
  5
1B7
330
1B0
100
AcDbEntity
  8
VERMASSUNG
100
AcDbLine
 10
172.8376817622
 20
171.2766320966
 30
0.0
 11
194.8876817622
 21
171.2766320966
 31
0.0
  0
MTEXT
  5
1B8
330
1B0
100
AcDbEntity
  8
VERMASSUNG
100
AcDbMText
 10
180.7635689802
 20
173.8547676926
 30
0.0
 40
2.0
 41
0.0
 71
     1
 72
     1
  1
22.05
  7
SLDTEXTSTYLE0
 73
     1
 44
1.0
  0
ENDBLK
  5
1B2
330
1B0
100
AcDbEntity
  8
0
100
AcDbBlockEnd
  0
BLOCK
  5
1BB
330
1BA
100
AcDbEntity
  8
0
100
AcDbBlockBegin
  2
_D_4
 70
     0
 10
0.0
 20
0.0
 30
0.0
  3
_D_4
  1

  0
SOLID
  5
1BD
330
1BA
100
AcDbEntity
  8
VERMASSUNG
100
AcDbTrace
 10
206.9764035667
 20
130.9758802169
 30
0.0
 11
206.5264035667
 21
127.9758802169
 31
0.0
 12
207.4264035667
 22
127.9758802169
 32
0.0
 13
207.4264035667
 23
127.9758802169
 33
0.0
  0
SOLID
  5
1BE
330
1BA
100
AcDbEntity
  8
VERMASSUNG
100
AcDbTrace
 10
206.9764035667
 20
98.9758802169
 30
0.0
 11
207.4264035667
 21
101.9758802169
 31
0.0
 12
206.5264035667
 22
101.9758802169
 32
0.0
 13
206.5264035667
 23
101.9758802169
 33
0.0
  0
LINE
  5
1BF
330
1BA
100
AcDbEntity
  8
VERMASSUNG
100
AcDbLine
 10
194.5876817622
 20
130.9758802169
 30
0.0
 11
207.9764035667
 21
130.9758802169
 31
0.0
  0
LINE
  5
1C0
330
1BA
100
AcDbEntity
  8
VERMASSUNG
100
AcDbLine
 10
194.5876817622
 20
98.9758802169
 30
0.0
 11
207.9764035667
 21
98.9758802169
 31
0.0
  0
LINE
  5
1C1
330
1BA
100
AcDbEntity
  8
VERMASSUNG
100
AcDbLine
 10
206.9764035667
 20
130.9758802169
 30
0.0
 11
206.9764035667
 21
98.9758802169
 31
0.0
  0
MTEXT
  5
1C2
330
1BA
100
AcDbEntity
  8
VERMASSUNG
100
AcDbMText
 10
204.1982683105
 20
108.5708805733
 30
0.0
 40
2.0
 41
0.0
 71
     1
 72
     1
  1
MBM
  7
SLDTEXTSTYLE0
 11
-7.044195017643634E-15
 21
1.0
 31
0.0
 73
     1
 44
1.0
  0
MTEXT
  5
1C3
330
1BA
100
AcDbEntity
  8
VERMASSUNG
100
AcDbMText
 10
204.3982682618
 20
114.9708804117
 30
0.0
 40
2.0
 41
0.0
 71
     1
 72
     1
  1
%%c
  7
SLDTEXTSTYLE0
 11
-7.044195017643634E-15
 21
1.0
 31
0.0
 73
     1
 44
1.0
  0
MTEXT
  5
1C4
330
1BA
100
AcDbEntity
  8
VERMASSUNG
100
AcDbMText
 10
204.1982683105
 20
118.5808808916
 30
0.0
 40
2.0
 41
0.0
 71
     1
 72
     1
  1
32
  7
SLDTEXTSTYLE0
 11
-7.044195017643634E-15
 21
1.0
 31
0.0
 73
     1
 44
1.0
  0
ENDBLK
  5
1BC
330
1BA
100
AcDbEntity
  8
0
100
AcDbBlockEnd
  0
BLOCK
  5
1C6
330
1C5
100
AcDbEntity
  8
0
100
AcDbBlockBegin
  2
SW_NOTE_0
 70
     0
 10
0.0
 20
0.0
 30
0.0
  3
SW_NOTE_0
  1

  0
CIRCLE
  5
1C8
330
1C5
100
AcDbEntity
  8
VERMASSUNG
 62
     0
100
AcDbCircle
 10
0.0
 20
-2.4912027339
 30
0.0
 40
2.491202733914355
  0
MTEXT
  5
1C9
330
1C5
100
AcDbEntity
  8
VERMASSUNG
 62
     0
100
AcDbMText
 10
-0.0000000237
 20
-1.7375729357
 30
0.0
 40
2.0
 41
0.0
 71
     2
 72
     1
  1
1
  7
SLDTEXTSTYLE0
 73
     1
 44
1.0
  0
ENDBLK
  5
1C7
330
1C5
100
AcDbEntity
  8
0
100
AcDbBlockEnd
  0
BLOCK
  5
1CD
330
1CC
100
AcDbEntity
  8
0
100
AcDbBlockBegin
  2
_Dot
 70
     0
 10
0.0
 20
0.0
 30
0.0
  3
_Dot
  1

  0
LWPOLYLINE
  5
1CF
330
1CC
100
AcDbEntity
  8
0
  6
ByBlock
 62
     0
100
AcDbPolyline
 90
        2
 70
     1
 43
0.5
 10
-0.25
 20
0.0
 42
1.0
 10
0.25
 20
0.0
 42
1.0
  0
LINE
  5
1D0
330
1CC
100
AcDbEntity
  8
0
  6
ByBlock
 62
     0
370
    -2
100
AcDbLine
 10
-0.5
 20
0.0
 30
0.0
 11
-1.0
 21
0.0
 31
0.0
  0
ENDBLK
  5
1CE
330
1CC
100
AcDbEntity
  8
0
100
AcDbBlockEnd
  0
BLOCK
  5
1D3
330
1D2
100
AcDbEntity
  8
0
100
AcDbBlockBegin
  2
SW_NOTE_1
 70
     0
 10
0.0
 20
0.0
 30
0.0
  3
SW_NOTE_1
  1

  0
CIRCLE
  5
1D5
330
1D2
100
AcDbEntity
  8
VERMASSUNG
 62
     0
100
AcDbCircle
 10
0.0
 20
-2.4912027339
 30
0.0
 40
2.491202733914351
  0
MTEXT
  5
1D6
330
1D2
100
AcDbEntity
  8
VERMASSUNG
 62
     0
100
AcDbMText
 10
-0.012499975
 20
-1.7375729357
 30
0.0
 40
2.0
 41
0.0
 71
     2
 72
     1
  1
2
  7
SLDTEXTSTYLE0
 73
     1
 44
1.0
  0
ENDBLK
  5
1D4
330
1D2
100
AcDbEntity
  8
0
100
AcDbBlockEnd
  0
ENDSEC
  0
SECTION
  2
ENTITIES
  0
MTEXT
  5
78
330
1F
100
AcDbEntity
  8
KOPF_DÜNN
100
AcDbMText
 10
13.8892156294
 20
23.8442973028
 30
0.0
 40
3.0
 41
0.0
 71
     1
 72
     1
  1
102.100.321
  7
SLDTEXTSTYLE0
 73
     1
 44
1.0
  0
MTEXT
  5
79
330
1F
100
AcDbEntity
  8
VERMASSUNG
100
AcDbMText
 10
13.9329988022
 20
28.8834360957
 30
0.0
 40
3.0
 41
0.0
 71
     1
 72
     1
  1
Aufnahme DIN 69893_Master shank to DIN 69893
  7
SLDTEXTSTYLE0
 73
     1
 44
1.0
  0
MTEXT
  5
7A
330
1F
100
AcDbEntity
  8
VERMASSUNG
100
AcDbMText
 10
98.8601118557
 20
13.8365368761
 30
0.0
 40
2.0
 41
0.0
 71
     1
 72
     1
  1
Datum: 08.12.2006
  7
SLDTEXTSTYLE0
 73
     1
 44
1.0
  0
MTEXT
  5
7B
330
1F
100
AcDbEntity
  8
VERMASSUNG
100
AcDbMText
 10
13.933048693
 20
18.0482802738
 30
0.0
 40
2.0
 41
0.0
 71
     1
 72
     1
  1
HSK-A100 / MBM ø32
  7
SLDTEXTSTYLE0
 73
     1
 44
1.0
  0
MTEXT
  5
7C
330
1F
100
AcDbEntity
  8
VERMASSUNG
100
AcDbMText
 10
13.9808475933
 20
13.9090974274
 30
0.0
 40
2.0
 41
0.0
 71
     1
 72
     1
  1
Gewicht: 2086g
  7
SLDTEXTSTYLE0
 73
     1
 44
1.0
  0
INSERT
  5
98
330
1F
100
AcDbEntity
  8
0
  6
Continuous
 62
     7
370
    18
100
AcDbBlockReference
  2
SW_TABLEANNOTATION_0
 10
155.4069348624
 20
22.9491325334
 30
0.0
  0
ARC
  5
99
330
1F
100
AcDbEntity
  8
0
  6
Continuous
 62
     7
370
    25
100
AcDbCircle
 10
144.3876817622
 20
65.4758802169
 30
0.0
 40
0.5
100
AcDbArc
 50
180.0
 51
270.0
  0
ARC
  5
9A
330
1F
100
AcDbEntity
  8
0
  6
Continuous
 62
     7
370
    25
100
AcDbCircle
 10
144.3876817622
 20
164.4758802169
 30
0.0
 40
0.5
100
AcDbArc
 50
90.0
 51
180.0
  0
LINE
  5
9B
330
1F
100
AcDbEntity
  8
0
  6
Continuous
 62
     7
370
    25
100
AcDbLine
 10
144.3876817622
 20
64.9758802169
 30
0.0
 11
148.8376817622
 21
64.9758802169
 31
0.0
  0
LINE
  5
9C
330
1F
100
AcDbEntity
  8
0
  6
Continuous
 62
     7
370
    25
100
AcDbLine
 10
148.8530597337
 20
164.9758802169
 30
0.0
 11
144.3876817622
 21
164.9758802169
 31
0.0
  0
ARC
  5
9D
330
1F
100
AcDbEntity
  8
0
  6
Continuous
 62
     7
370
    25
100
AcDbCircle
 10
142.9907448437
 20
76.3473948924
 30
0.0
 40
0.9962338214386921
100
AcDbArc
 50
25.7988228126
 51
90.0
  0
ARC
  5
9E
330
1F
100
AcDbEntity
  8
0
  6
Continuous
 62
     7
370
    25
100
AcDbCircle
 10
142.9907448437
 20
153.6043655413
 30
0.0
 40
0.9962338214386921
100
AcDbArc
 50
270.0
 51
334.2011771874
  0
LINE
  5
9F
330
1F
100
AcDbEntity
  8
0
  6
Continuous
 62
     7
370
    25
100
AcDbLine
 10
141.3876817622
 20
77.0936287139
 30
0.0
 11
142.1935279165
 21
77.3095545402
 31
0.0
  0
LINE
  5
A0
330
1F
100
AcDbEntity
  8
0
  6
Continuous
 62
     7
370
    25
100
AcDbLine
 10
142.1935279165
 20
152.6422058936
 30
0.0
 11
141.3876817622
 21
152.8581317199
 31
0.0
  0
LINE
  5
A1
330
1F
100
AcDbEntity
  8
0
  6
Continuous
 62
     7
370
    25
100
AcDbLine
 10
122.4069863409
 20
151.9071950755
 30
0.0
 11
104.0876817622
 21
150.9893942449
 31
0.0
  0
LINE
  5
A2
330
1F
100
AcDbEntity
  8
0
  6
Continuous
 62
     7
370
    25
100
AcDbLine
 10
141.3876817622
 20
152.8581317199
 30
0.0
 11
135.3196426077
 21
152.5541217422
 31
0.0
  0
LINE
  5
A3
330
1F
100
AcDbEntity
  8
0
  6
Continuous
 62
     7
370
    25
100
AcDbLine
 10
135.3197658842
 20
77.3976325154
 30
0.0
 11
141.3876817622
 21
77.0936287139
 31
0.0
  0
LINE
  5
A4
330
1F
100
AcDbEntity
  8
0
  6
Continuous
 62
     7
370
    25
100
AcDbLine
 10
109.0876817622
 20
78.7118651868
 30
0.0
 11
122.4076329161
 21
78.0445329647
 31
0.0
  0
ARC
  5
A5
330
1F
100
AcDbEntity
  8
0
  6
Continuous
 62
     7
370
    25
100
AcDbCircle
 10
142.4523469617
 20
76.3436287139
 30
0.0
 40
0.9999999999999858
100
AcDbArc
 50
90.0
 51
105.0
  0
ARC
  5
A6
330
1F
100
AcDbEntity
  8
0
  6
Continuous
 62
     7
370
    25
100
AcDbCircle
 10
142.4523469617
 20
153.6081317199
 30
0.0
 40
1.0
100
AcDbArc
 50
255.0
 51
270.0
  0
LINE
  5
A7
330
1F
100
AcDbEntity
  8
0
  6
Continuous
 62
     7
370
    25
100
AcDbLine
 10
142.4523469617
 20
77.3436287139
 30
0.0
 11
142.9907448437
 21
77.3436287139
 31
0.0
  0
LINE
  5
A8
330
1F
100
AcDbEntity
  8
0
  6
Continuous
 62
     7
370
    25
100
AcDbLine
 10
142.9907448437
 20
152.6081317199
 30
0.0
 11
142.4523469617
 21
152.6081317199
 31
0.0
  0
ARC
  5
A9
330
1F
100
AcDbEntity
  8
0
  6
Continuous
 62
     7
370
    25
100
AcDbCircle
 10
176.8376817622
 20
94.9758802169
 30
0.0
 40
4.000000000000014
100
AcDbArc
 50
90.0
 51
180.0
  0
ARC
  5
AA
330
1F
100
AcDbEntity
  8
0
  6
Continuous
 62
     7
370
    25
100
AcDbCircle
 10
176.8376817622
 20
134.9758802169
 30
0.0
 40
4.0
100
AcDbArc
 50
180.0
 51
270.0
  0
LINE
  5
AB
330
1F
100
AcDbEntity
  8
0
  6
Continuous
 62
     7
370
    25
100
AcDbLine
 10
95.6376817622
 20
82.7258802169
 30
0.0
 11
107.1876817622
 21
82.7258802169
 31
0.0
  0
ARC
  5
AC
330
1F
100
AcDbEntity
  8
0
  6
Continuous
 62
     7
370
    25
100
AcDbCircle
 10
107.1876817622
 20
80.8258802169
 30
0.0
 40
1.90000000000002
100
AcDbArc
 50
35.6630613694
 51
90.0
  0
ARC
  5
AD
330
1F
100
AcDbEntity
  8
0
  6
Continuous
 62
     7
370
    25
100
AcDbCircle
 10
102.1876817622
 20
149.1258802169
 30
0.0
 40
1.900000000000034
100
AcDbArc
 50
270.0
 51
312.7708047792
  0
LINE
  5
AE
330
1F
100
AcDbEntity
  8
0
  6
Continuous
 62
     7
370
    25
100
AcDbLine
 10
95.6376817622
 20
147.2258802169
 30
0.0
 11
94.0444654002
 21
145.6326638549
 31
0.0
  0
LINE
  5
AF
330
1F
100
AcDbEntity
  8
0
  6
Continuous
 62
     7
370
    25
100
AcDbLine
 10
94.0452046626
 20
84.3183573164
 30
0.0
 11
95.6376817622
 21
82.7258802169
 31
0.0
  0
LINE
  5
B0
330
1F
100
AcDbEntity
  8
0
  6
Continuous
 62
     7
370
    25
100
AcDbLine
 10
102.1876817622
 20
147.2258802169
 30
0.0
 11
95.6376817622
 21
147.2258802169
 31
0.0
  0
LINE
  5
B1
330
1F
100
AcDbEntity
  8
0
  6
Continuous
 62
     7
370
    25
100
AcDbLine
 10
176.8376817622
 20
98.9758802169
 30
0.0
 11
194.5876817622
 21
98.9758802169
 31
0.0
  0
LINE
  5
B2
330
1F
100
AcDbEntity
  8
0
  6
Continuous
 62
     7
370
    25
100
AcDbLine
 10
194.5876817622
 20
130.9758802169
 30
0.0
 11
176.8376817622
 21
130.9758802169
 31
0.0
  0
LINE
  5
B3
330
1F
100
AcDbEntity
  8
0
  6
Continuous
 62
     7
370
    25
100
AcDbLine
 10
194.5876817622
 20
98.9758802169
 30
0.0
 11
194.8876817622
 21
99.2758802169
 31
0.0
  0
LINE
  5
B4
330
1F
100
AcDbEntity
  8
0
  6
Continuous
 62
     7
370
    25
100
AcDbLine
 10
194.8876817622
 20
130.6758802169
 30
0.0
 11
194.5876817622
 21
130.9758802169
 31
0.0
  0
SPLINE
  5
B5
330
1F
100
AcDbEntity
  8
0
  6
Continuous
 62
     7
370
    25
100
AcDbSpline
210
0.0
220
0.0
230
1.0
 70
    24
 71
     3
 72
    11
 73
     7
 74
     0
 42
0.000000001
 43
0.00000001
 40
0.0
 40
0.0
 40
0.0
 40
0.0
 40
0.1323877169514957
 40
0.481943496083615
 40
0.815486644148085
 40
1.0
 40
1.0
 40
1.0
 40
1.0
 10
186.742382300551
 20
112.9758802168921
 30
0.0
 10
186.6465701568672
 20
112.9758802168921
 30
0.0
 10
186.2977761708574
 20
112.9758802168921
 30
0.0
 10
185.6455680629397
 20
112.9758802168921
 30
0.0
 10
184.9436635014792
 20
112.9758802168921
 30
0.0
 10
184.5670998449089
 20
112.9758802168921
 30
0.0
 10
184.4329812237925
 20
112.9758802168921
 30
0.0
  0
SPLINE
  5
B6
330
1F
100
AcDbEntity
  8
0
  6
Continuous
 62
     7
370
    25
100
AcDbSpline
210
0.0
220
0.0
230
1.0
 70
    24
 71
     3
 72
    11
 73
     7
 74
     0
 42
0.000000001
 43
0.00000001
 40
0.0
 40
0.0
 40
0.0
 40
0.0
 40
0.1845133558519149
 40
0.5180565039163906
 40
0.8676122830485042
 40
1.0
 40
1.0
 40
1.0
 40
1.0
 10
184.4329812237925
 20
116.9758802168921
 30
0.0
 10
184.5670998449089
 20
116.9758802168921
 30
0.0
 10
184.9436635014792
 20
116.9758802168921
 30
0.0
 10
185.6455680629397
 20
116.9758802168921
 30
0.0
 10
186.2977761708575
 20
116.9758802168921
 30
0.0
 10
186.6465701568672
 20
116.9758802168921
 30
0.0
 10
186.742382300551
 20
116.9758802168921
 30
0.0
  0
SPLINE
  5
B7
330
1F
100
AcDbEntity
  8
0
  6
Continuous
 62
     7
370
    25
100
AcDbSpline
210
0.0
220
0.0
230
1.0
 70
    24
 71
     3
 72
    10
 73
     6
 74
     0
 42
0.000000001
 43
0.00000001
 40
0.0
 40
0.0
 40
0.0
 40
0.0
 40
0.4391222274230503
 40
0.7513714712594627
 40
1.0
 40
1.0
 40
1.0
 40
1.0
 10
183.2782806854133
 20
114.9758802168921
 30
0.0
 10
183.4435872968756
 20
115.2621996667718
 30
0.0
 10
183.7264394599106
 20
115.7521139841792
 30
0.0
 10
184.1376116481851
 20
116.46428510493
 30
0.0
 10
184.3422625933156
 20
116.8187509397129
 30
0.0
 10
184.4329812237925
 20
116.9758802168921
 30
0.0
  0
SPLINE
  5
B8
330
1F
100
AcDbEntity
  8
0
  6
Continuous
 62
     7
370
    25
100
AcDbSpline
210
0.0
220
0.0
230
1.0
 70
    24
 71
     3
 72
    10
 73
     6
 74
     0
 42
0.000000001
 43
0.00000001
 40
0.0
 40
0.0
 40
0.0
 40
0.0
 40
0.4391222274230464
 40
0.7513714712594637
 40
1.0
 40
1.0
 40
1.0
 40
1.0
 10
184.4329812237925
 20
112.9758802168921
 30
0.0
 10
184.2676746123302
 20
113.2621996667718
 30
0.0
 10
183.9848224492953
 20
113.7521139841792
 30
0.0
 10
183.5736502610207
 20
114.46428510493
 30
0.0
 10
183.3689993158902
 20
114.8187509397129
 30
0.0
 10
183.2782806854133
 20
114.9758802168921
 30
0.0
  0
CIRCLE
  5
B9
330
1F
100
AcDbEntity
  8
0
  6
Continuous
 62
     7
370
    25
100
AcDbCircle
 10
185.5876817622
 20
114.9758802169
 30
0.0
 40
2.350000000000009
  0
SPLINE
  5
BA
330
1F
100
AcDbEntity
  8
0
  6
Continuous
 62
     7
370
    25
100
AcDbSpline
210
0.0
220
0.0
230
1.0
 70
    24
 71
     3
 72
    10
 73
     6
 74
     0
 42
0.000000001
 43
0.00000001
 40
0.0
 40
0.0
 40
0.0
 40
0.0
 40
0.4391222274230458
 40
0.7513714712594608
 40
1.0
 40
1.0
 40
1.0
 40
1.0
 10
186.742382300551
 20
116.9758802168921
 30
0.0
 10
186.9076889120133
 20
116.6895607670124
 30
0.0
 10
187.1905410750483
 20
116.1996464496051
 30
0.0
 10
187.6017132633229
 20
115.4874753288542
 30
0.0
 10
187.8063642084533
 20
115.1330094940713
 30
0.0
 10
187.8970828389303
 20
114.9758802168921
 30
0.0
  0
SPLINE
  5
BB
330
1F
100
AcDbEntity
  8
0
  6
Continuous
 62
     7
370
    25
100
AcDbSpline
210
0.0
220
0.0
230
1.0
 70
    24
 71
     3
 72
    10
 73
     6
 74
     0
 42
0.000000001
 43
0.00000001
 40
0.0
 40
0.0
 40
0.0
 40
0.0
 40
0.4391222274230493
 40
0.7513714712594604
 40
1.0
 40
1.0
 40
1.0
 40
1.0
 10
187.8970828389303
 20
114.9758802168921
 30
0.0
 10
187.731776227468
 20
114.6895607670124
 30
0.0
 10
187.448924064433
 20
114.1996464496051
 30
0.0
 10
187.0377518761585
 20
113.4874753288542
 30
0.0
 10
186.833100931028
 20
113.1330094940713
 30
0.0
 10
186.742382300551
 20
112.9758802168921
 30
0.0
  0
CIRCLE
  5
BC
330
1F
100
AcDbEntity
  8
0
  6
Continuous
 62
     7
370
    25
100
AcDbCircle
 10
185.5876817622
 20
114.9758802169
 30
0.0
 40
3.5
  0
CIRCLE
  5
BD
330
1F
100
AcDbEntity
  8
0
  6
Continuous
 62
     7
370
    25
100
AcDbCircle
 10
185.5876817622
 20
114.9758802169
 30
0.0
 40
4.000000000000014
  0
ARC
  5
BE
330
1F
100
AcDbEntity
  8
0
  6
Continuous
 62
     7
370
    25
100
AcDbCircle
 10
185.5876817622
 20
114.9758802169
 30
0.0
 40
2.000000000000016
100
AcDbArc
 50
270.0
 51
330.0
  0
ARC
  5
BF
330
1F
100
AcDbEntity
  8
0
  6
Continuous
 62
     7
370
    25
100
AcDbCircle
 10
185.5876817622
 20
114.9758802169
 30
0.0
 40
2.000000000000016
100
AcDbArc
 50
330.0
 51
30.0
  0
ARC
  5
C0
330
1F
100
AcDbEntity
  8
0
  6
Continuous
 62
     7
370
    25
100
AcDbCircle
 10
185.5876817622
 20
114.9758802169
 30
0.0
 40
2.000000000000016
100
AcDbArc
 50
30.0
 51
90.0
  0
ARC
  5
C1
330
1F
100
AcDbEntity
  8
0
  6
Continuous
 62
     7
370
    25
100
AcDbCircle
 10
185.5876817622
 20
114.9758802169
 30
0.0
 40
1.999999999999992
100
AcDbArc
 50
150.0
 51
210.0
  0
ARC
  5
C2
330
1F
100
AcDbEntity
  8
0
  6
Continuous
 62
     7
370
    25
100
AcDbCircle
 10
185.5876817622
 20
114.9758802169
 30
0.0
 40
2.0
100
AcDbArc
 50
90.0
 51
150.0
  0
ARC
  5
C3
330
1F
100
AcDbEntity
  8
0
  6
Continuous
 62
     7
370
    25
100
AcDbCircle
 10
185.5876817622
 20
114.9758802169
 30
0.0
 40
2.0
100
AcDbArc
 50
210.0
 51
270.0
  0
LINE
  5
C4
330
1F
100
AcDbEntity
  8
0
  6
Continuous
 62
     7
370
    25
100
AcDbLine
 10
172.8376817622
 20
67.2265346716
 30
0.0
 11
172.8376817622
 21
146.3258802169
 31
0.0
  0
SPLINE
  5
C5
330
1F
100
AcDbEntity
  8
0
  6
Continuous
 62
     7
370
    25
100
AcDbSpline
210
0.0
220
0.0
230
1.0
 70
     8
 71
     3
 72
    14
 73
    10
 74
     0
 42
0.000000001
 43
0.00000001
 40
0.0
 40
0.0
 40
0.0
 40
0.0
 40
0.25
 40
0.25
 40
0.5
 40
0.5
 40
0.75
 40
0.75
 40
1.0
 40
1.0
 40
1.0
 40
1.0
 10
172.8376817621718
 20
67.2265346716388
 30
0.0
 10
172.8376817621718
 20
67.09310897558426
 30
0.0
 10
172.8123706622609
 20
66.96126116773993
 30
0.0
 10
172.7140358984162
 20
66.7147386190458
 30
0.0
 10
172.6408918941601
 20
66.60093343080528
 30
0.0
 10
172.4574538330644
 20
66.410476253858
 30
0.0
 10
172.3457674987258
 20
66.33284139000808
 30
0.0
 10
172.1032640684195
 20
66.2285499798956
 30
0.0
 10
171.9698896397254
 20
66.20088662386325
 30
0.0
 10
171.8376817621718
 20
66.20088662386327
 30
0.0
  0
SPLINE
  5
C6
330
1F
100
AcDbEntity
  8
0
  6
Continuous
 62
     7
370
    25
100
AcDbSpline
210
0.0
220
0.0
230
1.0
 70
    24
 71
     3
 72
    12
 73
     8
 74
     0
 42
0.000000001
 43
0.00000001
 40
0.0
 40
0.0
 40
0.0
 40
0.0
 40
0.2500000000000032
 40
0.2500000000000032
 40
0.5000000000000064
 40
0.5000000000000064
 40
1.0
 40
1.0
 40
1.0
 40
1.0
 10
171.8376817621718
 20
146.3258802168921
 30
0.0
 10
171.9897719991168
 20
146.3258802168921
 30
0.0
 10
172.1382312601922
 20
146.3258802168921
 30
0.0
 10
172.3956348924579
 20
146.3258802168921
 30
0.0
 10
172.5047396402998
 20
146.3258802168921
 30
0.0
 10
172.7587991167074
 20
146.3258802168921
 30
0.0
 10
172.8376817621718
 20
146.3258802168921
 30
0.0
 10
172.8376817621718
 20
146.3258802168921
 30
0.0
  0
LINE
  5
C7
330
1F
100
AcDbEntity
  8
0
  6
Continuous
 62
     7
370
    25
100
AcDbLine
 10
171.8376817622
 20
66.2008866239
 30
0.0
 11
167.1497107831
 21
66.2008866239
 31
0.0
  0
LINE
  5
C8
330
1F
100
AcDbEntity
  8
0
  6
Continuous
 62
     7
370
    25
100
AcDbLine
 10
167.1497107831
 20
66.2008866239
 30
0.0
 11
167.1497107831
 21
146.3258802169
 31
0.0
  0
LINE
  5
C9
330
1F
100
AcDbEntity
  8
0
  6
Continuous
 62
     7
370
    25
100
AcDbLine
 10
167.1497107831
 20
146.3258802169
 30
0.0
 11
171.8376817622
 21
146.3258802169
 31
0.0
  0
LINE
  5
CA
330
1F
100
AcDbEntity
  8
0
  6
Continuous
 62
     7
370
    25
100
AcDbLine
 10
161.9776817622
 20
68.6044919299
 30
0.0
 11
161.9776817622
 21
146.3258802169
 31
0.0
  0
SPLINE
  5
CB
330
1F
100
AcDbEntity
  8
0
  6
Continuous
 62
     7
370
    25
100
AcDbSpline
210
0.0
220
0.0
230
1.0
 70
     8
 71
     3
 72
     8
 73
     4
 74
     0
 42
0.000000001
 43
0.00000001
 40
0.0
 40
0.0
 40
0.0
 40
0.0
 40
1.0
 40
1.0
 40
1.0
 40
1.0
 10
161.9776817621718
 20
68.60449192986864
 30
0.0
 10
161.527455297894
 20
67.8030365672439
 30
0.0
 10
161.0767574706506
 20
67.00184655568322
 30
0.0
 10
160.6256527412504
 20
66.20088662386331
 30
0.0
  0
LINE
  5
CC
330
1F
100
AcDbEntity
  8
0
  6
Continuous
 62
     7
370
    25
100
AcDbLine
 10
160.6256527413
 20
66.2008866239
 30
0.0
 11
160.6256527413
 21
146.3258802169
 31
0.0
  0
SPLINE
  5
CD
330
1F
100
AcDbEntity
  8
0
  6
Continuous
 62
     7
370
    25
100
AcDbSpline
210
0.0
220
0.0
230
1.0
 70
    24
 71
     3
 72
     8
 73
     4
 74
     0
 42
0.000000001
 43
0.00000001
 40
0.0
 40
0.0
 40
0.0
 40
0.0
 40
1.0
 40
1.0
 40
1.0
 40
1.0
 10
160.6256527412504
 20
146.3258802168921
 30
0.0
 10
161.0824543135786
 20
146.3258802168921
 30
0.0
 10
161.5334688798179
 20
146.3258802168921
 30
0.0
 10
161.9776817621718
 20
146.3258802168921
 30
0.0
  0
LINE
  5
CE
330
1F
100
AcDbEntity
  8
0
  6
Continuous
 62
     7
370
    25
100
AcDbLine
 10
143.8876817622
 20
65.4758802169
 30
0.0
 11
143.8876817622
 21
164.4758802169
 31
0.0
  0
LINE
  5
CF
330
1F
100
AcDbEntity
  8
0
  6
Continuous
 62
     7
370
    25
100
AcDbLine
 10
148.8376817622
 20
146.3258802169
 30
0.0
 11
160.6256527413
 21
146.3258802169
 31
0.0
  0
LINE
  5
D0
330
1F
100
AcDbEntity
  8
0
  6
Continuous
 62
     7
370
    25
100
AcDbLine
 10
160.6256527413
 20
66.2008866239
 30
0.0
 11
158.8376817622
 21
66.2008866239
 31
0.0
  0
SPLINE
  5
D1
330
1F
100
AcDbEntity
  8
0
  6
Continuous
 62
     7
370
    25
100
AcDbSpline
210
0.0
220
0.0
230
1.0
 70
     8
 71
     3
 72
    30
 73
    26
 74
     0
 42
0.000000001
 43
0.00000001
 40
0.0
 40
0.0
 40
0.0
 40
0.0
 40
0.1250000000000006
 40
0.1250000000000006
 40
0.187500000000001
 40
0.187500000000001
 40
0.2500000000000013
 40
0.2500000000000013
 40
0.3750000000000014
 40
0.3750000000000014
 40
0.4375000000000014
 40
0.4375000000000014
 40
0.5000000000000013
 40
0.5000000000000013
 40
0.625000000000001
 40
0.625000000000001
 40
0.6875000000000009
 40
0.6875000000000009
 40
0.7500000000000007
 40
0.7500000000000007
 40
0.8125000000000006
 40
0.8125000000000006
 40
0.8750000000000004
 40
0.8750000000000004
 40
1.0
 40
1.0
 40
1.0
 40
1.0
 10
158.8376817621718
 20
66.20088662386331
 30
0.0
 10
158.1749370683268
 20
66.20088662386331
 30
0.0
 10
157.5236812092111
 20
66.1860465472745
 30
0.0
 10
156.5632306709528
 20
66.14367698304488
 30
0.0
 10
156.2458392277198
 20
66.12619888026569
 30
0.0
 10
155.616675726165
 20
66.0848705937134
 30
0.0
 10
155.3045275397232
 20
66.0609453202557
 30
0.0
 10
154.397220237875
 20
65.98213880378879
 30
0.0
 10
153.8237952802337
 20
65.91983278381234
 30
0.0
 10
153.0099184106591
 20
65.81670346357296
 30
0.0
 10
152.7451122140892
 20
65.78051954452643
 30
0.0
 10
152.2382048032749
 20
65.70672476032594
 30
0.0
 10
151.9968106519214
 20
65.66925090155429
 30
0.0
 10
151.3076691797891
 20
65.55653895821456
 30
0.0
 10
150.8946143649248
 20
65.4810028607408
 30
0.0
 10
150.3464595455497
 20
65.3726096037233
 30
0.0
 10
150.1769969382042
 20
65.33753737206003
 30
0.0
 10
149.8689796901888
 20
65.27130191146018
 30
0.0
 10
149.7295996695804
 20
65.23997521470545
 30
0.0
 10
149.4798141569537
 20
65.18156644312454
 30
0.0
 10
149.3694080442998
 20
65.15448320794171
 30
0.0
 10
149.1781501906621
 20
65.1052234533281
 30
0.0
 10
149.0970306723778
 20
65.08296147352046
 30
0.0
 10
148.9028837522693
 20
65.02539456635215
 30
0.0
 10
148.8376817621718
 20
64.99913496156617
 30
0.0
 10
148.8376817621718
 20
64.98588121709214
 30
0.0
  0
LINE
  5
D2
330
1F
100
AcDbEntity
  8
0
  6
Continuous
 62
     7
370
    25
100
AcDbLine
 10
148.8376817622
 20
64.9858812171
 30
0.0
 11
148.8376817622
 21
64.9758802169
 31
0.0
  0
SPLINE
  5
D3
330
1F
100
AcDbEntity
  8
0
  6
Continuous
 62
     7
370
    25
100
AcDbSpline
210
0.0
220
0.0
230
1.0
 70
     8
 71
     3
 72
    23
 73
    19
 74
     0
 42
0.000000001
 43
0.00000001
 40
0.0
 40
0.0
 40
0.0
 40
0.0
 40
0.0520256687590416
 40
0.1044186119084699
 40
0.1579654762732602
 40
0.2119084390155455
 40
0.2639329008030785
 40
0.3697142245600881
 40
0.423586857736462
 40
0.4762679679182532
 40
0.5833878371337099
 40
0.6379530306539528
 40
0.691055181935852
 40
0.7445319929992286
 40
0.7992014233075216
 40
0.8542881036302091
 40
0.9066815619543741
 40
1.0
 40
1.0
 40
1.0
 40
1.0
 10
158.8376817621718
 20
163.9656750725557
 30
0.0
 10
158.5646693649768
 20
163.9669966410625
 30
0.0
 10
158.0167172438626
 20
163.9696491076682
 30
0.0
 10
157.1935708864074
 20
163.9911239960958
 30
0.0
 10
156.3723257858152
 20
164.0253417147639
 30
0.0
 10
155.570896975707
 20
164.0723936249313
 30
0.0
 10
154.538513721564
 20
164.1493825757571
 30
0.0
 10
153.56126570694
 20
164.2452598264176
 30
0.0
 10
152.6602186956841
 20
164.3521892742058
 30
0.0
 10
151.8112449165827
 20
164.4640360820462
 30
0.0
 10
151.0536764709744
 20
164.5782646807756
 30
0.0
 10
150.4086881805249
 20
164.6848444271394
 30
0.0
 10
149.9841143073271
 20
164.7587743835406
 30
0.0
 10
149.621557657678
 20
164.8246649415973
 30
0.0
 10
149.3203561005544
 20
164.8813612928115
 30
0.0
 10
149.0931025285196
 20
164.9252975390462
 30
0.0
 10
148.8869952312971
 20
164.9659559858742
 30
0.0
 10
148.8663082932641
 20
164.9701394252637
 30
0.0
 10
148.8530597336524
 20
164.9728186301825
 30
0.0
  0
LINE
  5
D4
330
1F
100
AcDbEntity
  8
0
  6
Continuous
 62
     7
370
    25
100
AcDbLine
 10
160.6256527413
 20
163.9656750726
 30
0.0
 11
158.8376817622
 21
163.9656750726
 31
0.0
  0
LINE
  5
D5
330
1F
100
AcDbEntity
  8
0
  6
Continuous
 62
     7
370
    25
100
AcDbLine
 10
160.6256527413
 20
153.9268429778
 30
0.0
 11
160.6256527413
 21
163.9656750726
 31
0.0
  0
LINE
  5
D6
330
1F
100
AcDbEntity
  8
0
  6
Continuous
 62
     7
370
    25
100
AcDbLine
 10
158.5456486104
 20
153.9268429778
 30
0.0
 11
160.6256527413
 21
153.9268429778
 31
0.0
  0
SPLINE
  5
D7
330
1F
100
AcDbEntity
  8
0
  6
Continuous
 62
     7
370
    25
100
AcDbSpline
210
0.0
220
0.0
230
1.0
 70
     8
 71
     3
 72
    22
 73
    18
 74
     0
 42
0.000000001
 43
0.00000001
 40
0.0
 40
0.0
 40
0.0
 40
0.0
 40
0.2500000000000001
 40
0.2500000000000001
 40
0.3750000000000002
 40
0.3750000000000002
 40
0.5000000000000002
 40
0.5000000000000002
 40
0.6250000000000001
 40
0.6250000000000001
 40
0.7500000000000001
 40
0.7500000000000001
 40
0.875
 40
0.875
 40
0.9375
 40
0.9375
 40
1.0
 40
1.0
 40
1.0
 40
1.0
 10
148.8376817621718
 20
146.3258802168921
 30
0.0
 10
149.0404067180909
 20
147.3451265587568
 30
0.0
 10
149.3551504398862
 20
148.304234708696
 30
0.0
 10
150.0632059095572
 20
149.6467137862053
 30
0.0
 10
150.3416685397749
 20
150.0809223689453
 30
0.0
 10
150.9804359464121
 20
150.8925500844474
 30
0.0
 10
151.3408496262023
 20
151.2718303773843
 30
0.0
 10
152.1583818581916
 20
151.9747889564053
 30
0.0
 10
152.6195498414787
 20
152.2998177741059
 30
0.0
 10
153.6175400879625
 20
152.8648330974968
 30
0.0
 10
154.1572992819548
 20
153.1085366917033
 30
0.0
 10
155.3318922459861
 20
153.5127366193482
 30
0.0
 10
155.943628431978
 20
153.6651738123938
 30
0.0
 10
156.8955376568397
 20
153.8205013600025
 30
0.0
 10
157.2187708211003
 20
153.8600061400525
 30
0.0
 10
157.8778339923756
 20
153.9133152607212
 30
0.0
 10
158.2118980029496
 20
153.926842977779
 30
0.0
 10
158.5456486103511
 20
153.926842977779
 30
0.0
  0
SPLINE
  5
D8
330
1F
100
AcDbEntity
  8
0
  6
Continuous
 62
     7
370
    25
100
AcDbSpline
210
0.0
220
0.0
230
1.0
 70
     8
 71
     3
 72
     8
 73
     4
 74
     0
 42
0.000000001
 43
0.00000001
 40
0.0
 40
0.0
 40
0.0
 40
0.0
 40
1.0
 40
1.0
 40
1.0
 40
1.0
 10
167.1497107830932
 20
66.20088662386331
 30
0.0
 10
166.698606053693
 20
67.00184655568323
 30
0.0
 10
166.2479082264496
 20
67.80303656724388
 30
0.0
 10
165.7976817621718
 20
68.60449192986864
 30
0.0
  0
LINE
  5
D9
330
1F
100
AcDbEntity
  8
0
  6
Continuous
 62
     7
370
    25
100
AcDbLine
 10
165.7976817622
 20
68.6044919299
 30
0.0
 11
165.7976817622
 21
146.3258802169
 31
0.0
  0
SPLINE
  5
DA
330
1F
100
AcDbEntity
  8
0
  6
Continuous
 62
     7
370
    25
100
AcDbSpline
210
0.0
220
0.0
230
1.0
 70
    24
 71
     3
 72
     8
 73
     4
 74
     0
 42
0.000000001
 43
0.00000001
 40
0.0
 40
0.0
 40
0.0
 40
0.0
 40
1.0
 40
1.0
 40
1.0
 40
1.0
 10
165.7976817621718
 20
146.3258802168921
 30
0.0
 10
166.2418946445258
 20
146.3258802168921
 30
0.0
 10
166.692909210765
 20
146.3258802168921
 30
0.0
 10
167.1497107830932
 20
146.3258802168921
 30
0.0
  0
SPLINE
  5
DB
330
1F
100
AcDbEntity
  8
0
  6
Continuous
 62
     7
370
    25
100
AcDbSpline
210
0.0
220
0.0
230
1.0
 70
     8
 71
     3
 72
    12
 73
     8
 74
     0
 42
0.000000001
 43
0.00000001
 40
0.0
 40
0.0
 40
0.0
 40
0.0
 40
0.25
 40
0.25
 40
0.5
 40
0.5
 40
1.0
 40
1.0
 40
1.0
 40
1.0
 10
162.7776817621718
 20
70.33620475884247
 30
0.0
 10
162.6719211088229
 20
70.33620475884244
 30
0.0
 10
162.5639334806399
 20
70.31366525284206
 30
0.0
 10
162.3693388153744
 20
70.22909462084675
 30
0.0
 10
162.2804669025355
 20
70.16661296808796
 30
0.0
 10
162.0612746102096
 20
69.9372240166158
 30
0.0
 10
161.9776817621718
 20
69.72464067909341
 30
0.0
 10
161.9776817621718
 20
69.51270143449723
 30
0.0
  0
SPLINE
  5
DC
330
1F
100
AcDbEntity
  8
0
  6
Continuous
 62
     7
370
    25
100
AcDbSpline
210
0.0
220
0.0
230
1.0
 70
    24
 71
     3
 72
    14
 73
    10
 74
     0
 42
0.000000001
 43
0.00000001
 40
0.0
 40
0.0
 40
0.0
 40
0.0
 40
0.25
 40
0.25
 40
0.5
 40
0.5
 40
0.75
 40
0.75
 40
1.0
 40
1.0
 40
1.0
 40
1.0
 10
161.9776817621718
 20
146.3258802168921
 30
0.0
 10
161.9776817621718
 20
146.3258802168921
 30
0.0
 10
161.9933960826377
 20
146.3258802168921
 30
0.0
 10
162.0570800611061
 20
146.3258802168921
 30
0.0
 10
162.1056832555166
 20
146.3258802168921
 30
0.0
 10
162.2383667779422
 20
146.3258802168921
 30
0.0
 10
162.3234688822528
 20
146.3258802168921
 30
0.0
 10
162.5299111171629
 20
146.3258802168921
 30
0.0
 10
162.6539920587859
 20
146.3258802168921
 30
0.0
 10
162.7776817621718
 20
146.3258802168921
 30
0.0
  0
SPLINE
  5
DD
330
1F
100
AcDbEntity
  8
0
  6
Continuous
 62
     7
370
    25
100
AcDbSpline
210
0.0
220
0.0
230
1.0
 70
     8
 71
     3
 72
    14
 73
    10
 74
     0
 42
0.000000001
 43
0.00000001
 40
0.0
 40
0.0
 40
0.0
 40
0.0
 40
0.25
 40
0.25
 40
0.5
 40
0.5
 40
0.75
 40
0.75
 40
1.0
 40
1.0
 40
1.0
 40
1.0
 10
165.7976817621718
 20
69.51270143449723
 30
0.0
 10
165.7976817621718
 20
69.6197455154916
 30
0.0
 10
165.7775640750137
 20
69.72498065573404
 30
0.0
 10
165.699072885748
 20
69.92283114258174
 30
0.0
 10
165.6409162609468
 20
70.01388290614666
 30
0.0
 10
165.4944010053287
 20
70.16704900007144
 30
0.0
 10
165.4057584566877
 20
70.22934344628085
 30
0.0
 10
165.2100351338873
 20
70.31413723181684
 30
0.0
 10
165.1048039428164
 20
70.33620475884246
 30
0.0
 10
164.9976817621718
 20
70.33620475884247
 30
0.0
  0
SPLINE
  5
DE
330
1F
100
AcDbEntity
  8
0
  6
Continuous
 62
     7
370
    25
100
AcDbSpline
210
0.0
220
0.0
230
1.0
 70
    24
 71
     3
 72
    14
 73
    10
 74
     0
 42
0.000000001
 43
0.00000001
 40
0.0
 40
0.0
 40
0.0
 40
0.0
 40
0.25
 40
0.25
 40
0.5
 40
0.5
 40
0.75
 40
0.75
 40
1.0
 40
1.0
 40
1.0
 40
1.0
 10
164.9976817621718
 20
146.3258802168921
 30
0.0
 10
165.1214515269369
 20
146.3258802168921
 30
0.0
 10
165.2458186309438
 20
146.3258802168921
 30
0.0
 10
165.4521750996699
 20
146.3258802168921
 30
0.0
 10
165.5375032430883
 20
146.3258802168921
 30
0.0
 10
165.6696953018035
 20
146.3258802168921
 30
0.0
 10
165.7183405455541
 20
146.3258802168921
 30
0.0
 10
165.7818763372828
 20
146.3258802168921
 30
0.0
 10
165.7976817621718
 20
146.3258802168921
 30
0.0
 10
165.7976817621718
 20
146.3258802168921
 30
0.0
  0
LINE
  5
DF
330
1F
100
AcDbEntity
  8
0
  6
Continuous
 62
     7
370
    25
100
AcDbLine
 10
164.9976817622
 20
70.3362047588
 30
0.0
 11
162.7776817622
 21
70.3362047588
 31
0.0
  0
LINE
  5
E0
330
1F
100
AcDbEntity
  8
0
  6
Continuous
 62
     7
370
    25
100
AcDbLine
 10
162.7776817622
 20
146.3258802169
 30
0.0
 11
164.9976817622
 21
146.3258802169
 31
0.0
  0
LINE
  5
E1
330
1F
100
AcDbEntity
  8
0
  6
Continuous
 62
     7
370
    25
100
AcDbLine
 10
141.3876817622
 20
77.0936287139
 30
0.0
 11
141.3876817622
 21
152.8581317199
 31
0.0
  0
LINE
  5
E2
330
1F
100
AcDbEntity
  8
0
  6
Continuous
 62
     7
370
    25
100
AcDbLine
 10
109.0876817622
 20
78.7118651868
 30
0.0
 11
109.0876817622
 21
81.1065469515
 31
0.0
  0
SPLINE
  5
E3
330
1F
100
AcDbEntity
  8
0
  6
Continuous
 62
     7
370
    25
100
AcDbSpline
210
0.0
220
0.0
230
1.0
 70
     8
 71
     3
 72
    14
 73
    10
 74
     0
 42
0.000000001
 43
0.00000001
 40
0.0
 40
0.0
 40
0.0
 40
0.0
 40
0.25
 40
0.25
 40
0.5
 40
0.5
 40
0.75
 40
0.75
 40
1.0
 40
1.0
 40
1.0
 40
1.0
 10
108.0832592908349
 20
82.80939887314858
 30
0.0
 10
108.1720278687802
 20
82.65086474184064
 30
0.0
 10
108.2937457074591
 20
82.49842206495207
 30
0.0
 10
108.5287953173159
 20
82.20128744112316
 30
0.0
 10
108.6444255035328
 20
82.05660479750578
 30
0.0
 10
108.8448304369606
 20
81.77331559500237
 30
0.0
 10
108.9302307289449
 20
81.63476160196554
 30
0.0
 10
109.0519363626622
 20
81.36337757193199
 30
0.0
 10
109.0876817621748
 20
81.23124170329737
 30
0.0
 10
109.0876817621748
 20
81.10654695152661
 30
0.0
  0
SPLINE
  5
E4
330
1F
100
AcDbEntity
  8
0
  6
Continuous
 62
     7
370
    25
100
AcDbSpline
210
0.0
220
0.0
230
1.0
 70
     8
 71
     3
 72
    14
 73
    10
 74
     0
 42
0.000000001
 43
0.00000001
 40
0.0
 40
0.0
 40
0.0
 40
0.0
 40
0.1249999999999983
 40
0.1249999999999983
 40
0.2499999999999966
 40
0.2499999999999966
 40
0.4999999999999978
 40
0.4999999999999978
 40
1.0
 40
1.0
 40
1.0
 40
1.0
 10
107.1876817621718
 20
83.43822881224868
 30
0.0
 10
107.2552640619563
 20
83.44538469735008
 30
0.0
 10
107.3277516397042
 20
83.4409602273111
 30
0.0
 10
107.4600427489701
 20
83.41125406954073
 30
0.0
 10
107.5173201283604
 20
83.38796978796249
 30
0.0
 10
107.6669705555606
 20
83.31048454811217
 30
0.0
 10
107.7406838510821
 20
83.24863272121081
 30
0.0
 10
107.9284918344083
 20
83.06395526856247
 30
0.0
 10
108.0125321407698
 20
82.93571234527128
 30
0.0
 10
108.0832592908361
 20
82.80939887314868
 30
0.0
  0
SPLINE
  5
E5
330
1F
100
AcDbEntity
  8
0
  6
Continuous
 62
     7
370
    25
100
AcDbSpline
210
0.0
220
0.0
230
1.0
 70
     8
 71
     3
 72
     8
 73
     4
 74
     0
 42
0.000000001
 43
0.00000001
 40
0.0
 40
0.0
 40
0.0
 40
0.0
 40
1.0
 40
1.0
 40
1.0
 40
1.0
 10
103.643041374091
 20
83.0201802274569
 30
0.0
 10
104.8083396847999
 20
83.17536769934351
 30
0.0
 10
105.9929548988397
 20
83.31172633765384
 30
0.0
 10
107.1876817621718
 20
83.43822881224868
 30
0.0
  0
SPLINE
  5
E6
330
1F
100
AcDbEntity
  8
0
  6
Continuous
 62
     7
370
    25
100
AcDbSpline
210
0.0
220
0.0
230
1.0
 70
     8
 71
     3
 72
    14
 73
    10
 74
     0
 42
0.000000001
 43
0.00000001
 40
0.0
 40
0.0
 40
0.0
 40
0.0
 40
0.4999999999999972
 40
0.4999999999999972
 40
0.7499999999999971
 40
0.7499999999999971
 40
0.8749999999999986
 40
0.8749999999999986
 40
1.0
 40
1.0
 40
1.0
 40
1.0
 10
95.88760687814312
 20
82.73004804832698
 30
0.0
 10
97.19590844067686
 20
82.7370627720681
 30
0.0
 10
98.50096781533367
 20
82.7524713485126
 30
0.0
 10
100.446843866822
 20
82.80636790397928
 30
0.0
 10
101.093541370561
 20
82.82939946858197
 30
0.0
 10
102.0573837344153
 20
82.88034199345272
 30
0.0
 10
102.3776224263494
 20
82.9000769156859
 30
0.0
 10
103.0143176526918
 20
82.94956404415748
 30
0.0
 10
103.3310330609747
 20
82.97862882308671
 30
0.0
 10
103.6430413740911
 20
83.02018022745686
 30
0.0
  0
SPLINE
  5
E7
330
1F
100
AcDbEntity
  8
0
  6
Continuous
 62
     7
370
    25
100
AcDbSpline
210
0.0
220
0.0
230
1.0
 70
     8
 71
     3
 72
    12
 73
     8
 74
     0
 42
0.000000001
 43
0.00000001
 40
0.0
 40
0.0
 40
0.0
 40
0.0
 40
0.2500000000000009
 40
0.2500000000000009
 40
0.5000000000000018
 40
0.5000000000000018
 40
1.0
 40
1.0
 40
1.0
 40
1.0
 10
102.1876817621718
 20
147.0624031083885
 30
0.0
 10
101.6689829403436
 20
147.0949258832368
 30
0.0
 10
101.1472713671386
 20
147.1182226244073
 30
0.0
 10
100.100979350643
 20
147.1560681388293
 30
0.0
 10
99.57630772497279
 20
147.1703366133255
 30
0.0
 10
97.99946170243356
 20
147.2045461007838
 30
0.0
 10
96.94450638788665
 20
147.2160456047277
 30
0.0
 10
95.88760687814143
 20
147.2217123854572
 30
0.0
  0
SPLINE
  5
E8
330
1F
100
AcDbEntity
  8
0
  6
Continuous
 62
     7
370
    25
100
AcDbSpline
210
0.0
220
0.0
230
1.0
 70
     8
 71
     3
 72
    20
 73
    16
 74
     0
 42
0.000000001
 43
0.00000001
 40
0.0
 40
0.0
 40
0.0
 40
0.0
 40
0.2500000000000003
 40
0.2500000000000003
 40
0.5000000000000007
 40
0.5000000000000007
 40
0.750000000000001
 40
0.750000000000001
 40
0.8750000000000007
 40
0.8750000000000007
 40
0.9375000000000012
 40
0.9375000000000012
 40
0.9687500000000007
 40
0.9687500000000007
 40
1.0
 40
1.0
 40
1.0
 40
1.0
 10
104.0876817621718
 20
148.7204889538767
 30
0.0
 10
104.0876817621718
 20
148.5848066341299
 30
0.0
 10
104.0389699729552
 20
148.4437196479898
 30
0.0
 10
103.86980854973
 20
148.1516479292593
 30
0.0
 10
103.7480281358117
 20
147.9999991871689
 30
0.0
 10
103.4504810410622
 20
147.6975907470157
 30
0.0
 10
103.2765684353594
 20
147.5450021108925
 30
0.0
 10
102.9571536014776
 20
147.3197313470502
 30
0.0
 10
102.8421128260303
 20
147.2450082525394
 30
0.0
 10
102.6350285020139
 20
147.1455978432825
 30
0.0
 10
102.5589206672075
 20
147.1140327509378
 30
0.0
 10
102.4275261276542
 20
147.0795893667449
 30
0.0
 10
102.3809729086527
 20
147.0705377949772
 30
0.0
 10
102.284639557572
 20
147.0603621461388
 30
0.0
 10
102.2353801342165
 20
147.0594123874638
 30
0.0
 10
102.1876817621698
 20
147.0624031083783
 30
0.0
  0
LINE
  5
E9
330
1F
100
AcDbEntity
  8
0
  6
Continuous
 62
     7
370
    25
100
AcDbLine
 10
104.0876817622
 20
148.7204889539
 30
0.0
 11
104.0876817622
 21
150.9893942449
 31
0.0
  0
SPLINE
  5
EA
330
1F
100
AcDbEntity
  8
0
  6
Continuous
 62
     7
370
    25
100
AcDbSpline
210
0.0
220
0.0
230
1.0
 70
     8
 71
     3
 72
    24
 73
    20
 74
     0
 42
0.000000001
 43
0.00000001
 40
0.0
 40
0.0
 40
0.0
 40
0.0
 40
0.0002934293894791
 40
0.0628080051750531
 40
0.1260453927228619
 40
0.1890746766603133
 40
0.2513200540860074
 40
0.3133304633783596
 40
0.3759158453763061
 40
0.4383740564600933
 40
0.5000631094857309
 40
0.5616593988029208
 40
0.6245050380643768
 40
0.6872231506499019
 40
0.7494953263230536
 40
0.8117583797536783
 40
0.8747365508229987
 40
0.9378980306234596
 40
1.0
 40
1.0
 40
1.0
 40
1.0
 10
122.4076380260112
 20
78.04463495857975
 30
0.0
 10
122.4074431731265
 20
78.04461065118576
 30
0.0
 10
122.3657352821151
 20
78.03940769953185
 30
0.0
 10
122.5108536736454
 20
78.05804232286187
 30
0.0
 10
122.8659326151815
 20
78.10056210141043
 30
0.0
 10
123.470508252726
 20
78.16869838501226
 30
0.0
 10
124.2769435615398
 20
78.24195392202803
 30
0.0
 10
125.2624209854595
 20
78.30647326284681
 30
0.0
 10
126.394090582142
 20
78.34503749090737
 30
0.0
 10
127.6163830523058
 20
78.34873199690861
 30
0.0
 10
128.88371173375
 20
78.30630601686045
 30
0.0
 10
130.1501972641741
 20
78.21805887607833
 30
0.0
 10
131.3663346279887
 20
78.08966560581405
 30
0.0
 10
132.4917451238419
 20
77.9370246172214
 30
0.0
 10
133.4691621853923
 20
77.77525000211605
 30
0.0
 10
134.2724276639423
 20
77.62272110901438
 30
0.0
 10
134.8609211869423
 20
77.498707365747
 30
0.0
 10
135.2498272985922
 20
77.41378343947085
 30
0.0
 10
135.2965884293314
 20
77.40305712819202
 30
0.0
 10
135.3197712358744
 20
77.39773933550039
 30
0.0
  0
SPLINE
  5
EB
330
1F
100
AcDbEntity
  8
0
  6
Continuous
 62
     7
370
    25
100
AcDbSpline
210
0.0
220
0.0
230
1.0
 70
     8
 71
     3
 72
    28
 73
    24
 74
     0
 42
0.000000001
 43
0.00000001
 40
0.0
 40
0.0
 40
0.0
 40
0.0
 40
0.0619954213574687
 40
0.1254396652077681
 40
0.1886582395450385
 40
0.2510344206250165
 40
0.313178019643534
 40
0.3756727995507914
 40
0.4382397875576823
 40
0.4998239643670571
 40
0.5615382960494664
 40
0.6240926227264424
 40
0.6867524776495272
 40
0.7488657047211889
 40
0.8111001931551143
 40
0.8742083457331865
 40
0.9448182179945804
 40
0.9756075171457027
 40
0.9836978707570712
 40
0.9918081127833983
 40
0.9999434137204668
 40
0.999950211352572
 40
1.0
 40
1.0
 40
1.0
 40
1.0
 10
135.3196499053964
 20
152.5539760803323
 30
0.0
 10
135.2960782600526
 20
152.5486666006824
 30
0.0
 10
135.2483841040073
 20
152.5379235597428
 30
0.0
 10
134.8563421145786
 20
152.4526944232875
 30
0.0
 10
134.2658280653256
 20
152.3281256446467
 30
0.0
 10
133.4617906192179
 20
152.1751786984954
 30
0.0
 10
132.4857152192733
 20
152.0134221445403
 30
0.0
 10
131.363906483104
 20
151.8611893766136
 30
0.0
 10
130.1503755666298
 20
151.7334094353922
 30
0.0
 10
128.8855448480376
 20
151.6455608837826
 30
0.0
 10
127.6175018562405
 20
151.6031753996378
 30
0.0
 10
126.3939943257345
 20
151.6069112086456
 30
0.0
 10
125.2604964312092
 20
151.6455066752239
 30
0.0
 10
124.2743882279681
 20
151.7099460608487
 30
0.0
 10
123.4657693892735
 20
151.7834558143833
 30
0.0
 10
122.8455015277563
 20
151.8534339523469
 30
0.0
 10
122.5274743288635
 20
151.8919615969404
 30
0.0
 10
122.43503174619
 20
151.9036342170619
 30
0.0
 10
122.414790803738
 20
151.9062064233029
 30
0.0
 10
122.4083664865945
 20
151.9070232543012
 30
0.0
 10
122.4071372943415
 20
151.9071722432816
 30
0.0
 10
122.4069365594503
 20
151.9071928003511
 30
0.0
 10
122.4069632743137
 20
151.9071893484082
 30
0.0
 10
122.4069867799573
 20
151.9071863111425
 30
0.0
  0
SPLINE
  5
EC
330
1F
100
AcDbEntity
  8
0
  6
Continuous
 62
     7
370
    25
100
AcDbSpline
210
0.0
220
0.0
230
1.0
 70
     8
 71
     3
 72
    20
 73
    16
 74
     0
 42
0.000000001
 43
0.00000001
 40
0.0
 40
0.0
 40
0.0
 40
0.0
 40
0.2500000000000023
 40
0.2500000000000023
 40
0.3750000000000036
 40
0.3750000000000036
 40
0.4375000000000042
 40
0.4375000000000042
 40
0.5000000000000048
 40
0.5000000000000048
 40
0.6250000000000022
 40
0.6250000000000022
 40
0.7499999999999997
 40
0.7499999999999997
 40
1.0
 40
1.0
 40
1.0
 40
1.0
 10
94.27849599388782
 20
84.2973970641914
 30
0.0
 10
94.30476821110123
 20
84.31671500527386
 30
0.0
 10
94.33544835335606
 20
84.33110371637565
 30
0.0
 10
94.40691922373799
 20
84.32419935453963
 30
0.0
 10
94.43494626078231
 20
84.31703335119121
 30
0.0
 10
94.49002985027983
 20
84.28733432448762
 30
0.0
 10
94.51092117883222
 20
84.27386068192632
 30
0.0
 10
94.55612982627765
 20
84.23866241641034
 30
0.0
 10
94.58053403867324
 20
84.21675418768307
 30
0.0
 10
94.65186635672468
 20
84.14462932768755
 30
0.0
 10
94.69376314154496
 20
84.09228878673748
 30
0.0
 10
94.76533910040084
 20
83.99480539483673
 30
0.0
 10
94.79616709021815
 20
83.94805162495831
 30
0.0
 10
94.87926702305374
 20
83.81475840911921
 30
0.0
 10
94.924121928424
 20
83.732121011204
 30
0.0
 10
94.96423400387657
 20
83.65301411641323
 30
0.0
  0
SPLINE
  5
ED
330
1F
100
AcDbEntity
  8
0
  6
Continuous
 62
     7
370
    25
100
AcDbSpline
210
0.0
220
0.0
230
1.0
 70
     8
 71
     3
 72
    14
 73
    10
 74
     0
 42
0.000000001
 43
0.00000001
 40
0.0
 40
0.0
 40
0.0
 40
0.0
 40
0.25
 40
0.25
 40
0.5
 40
0.5
 40
0.75
 40
0.75
 40
1.0
 40
1.0
 40
1.0
 40
1.0
 10
93.98768176217182
 20
84.47321047432419
 30
0.0
 10
93.98768176217183
 20
84.43196354329983
 30
0.0
 10
93.99629147855306
 20
84.39505657101735
 30
0.0
 10
94.02737765812341
 20
84.33415651111795
 30
0.0
 10
94.04976721160747
 20
84.30997559157825
 30
0.0
 10
94.1045111427836
 20
84.276008000695
 30
0.0
 10
94.13696138236878
 20
84.26608791672679
 30
0.0
 10
94.20696289709684
 20
84.26473670782197
 30
0.0
 10
94.24517339721939
 20
84.27289498451812
 30
0.0
 10
94.27849599389246
 20
84.29739706418621
 30
0.0
  0
LINE
  5
EE
330
1F
100
AcDbEntity
  8
0
  6
Continuous
 62
     7
370
    25
100
AcDbLine
 10
93.9876817622
 20
84.4732104743
 30
0.0
 11
93.9876817622
 21
145.4785499595
 31
0.0
  0
SPLINE
  5
EF
330
1F
100
AcDbEntity
  8
0
  6
Continuous
 62
     7
370
    25
100
AcDbSpline
210
0.0
220
0.0
230
1.0
 70
     8
 71
     3
 72
    12
 73
     8
 74
     0
 42
0.000000001
 43
0.00000001
 40
0.0
 40
0.0
 40
0.0
 40
0.0
 40
0.2500000000000002
 40
0.2500000000000002
 40
0.5000000000000003
 40
0.5000000000000003
 40
1.0
 40
1.0
 40
1.0
 40
1.0
 10
94.27849599389157
 20
145.6543633695971
 30
0.0
 10
94.24499459455468
 20
145.6789969227264
 30
0.0
 10
94.206903726591
 20
145.6870150838899
 30
0.0
 10
94.1371033158743
 20
145.6856827477804
 30
0.0
 10
94.10465071599167
 20
145.6758170823785
 30
0.0
 10
94.02237720527445
 20
145.6248336550354
 30
0.0
 10
93.98768176217182
 20
145.5607645078626
 30
0.0
 10
93.98768176217182
 20
145.47854995946
 30
0.0
  0
SPLINE
  5
F0
330
1F
100
AcDbEntity
  8
0
  6
Continuous
 62
     7
370
    25
100
AcDbSpline
210
0.0
220
0.0
230
1.0
 70
     8
 71
     3
 72
    20
 73
    16
 74
     0
 42
0.000000001
 43
0.00000001
 40
0.0
 40
0.0
 40
0.0
 40
0.0
 40
0.2500000000000047
 40
0.2500000000000047
 40
0.3750000000000051
 40
0.3750000000000051
 40
0.5000000000000054
 40
0.5000000000000054
 40
0.562500000000006
 40
0.562500000000006
 40
0.6250000000000064
 40
0.6250000000000064
 40
0.7500000000000042
 40
0.7500000000000042
 40
1.0
 40
1.0
 40
1.0
 40
1.0
 10
94.96423400387421
 20
146.2987463173703
 30
0.0
 10
94.92423778605038
 20
146.2198679108128
 30
0.0
 10
94.87912415821273
 20
146.1367382641213
 30
0.0
 10
94.79586994384621
 20
146.0032495997704
 30
0.0
 10
94.76565061522571
 20
145.9573845438884
 30
0.0
 10
94.69356238008424
 20
145.8591929914835
 30
0.0
 10
94.65164506267318
 20
145.8068831719599
 30
0.0
 10
94.58039445812172
 20
145.7348772692254
 30
0.0
 10
94.5561586457424
 20
145.7131070569238
 30
0.0
 10
94.51056045555778
 20
145.6776323985948
 30
0.0
 10
94.48975796595806
 20
145.6642622144173
 30
0.0
 10
94.43481696753898
 20
145.634692302282
 30
0.0
 10
94.40674797945218
 20
145.6275657799801
 30
0.0
 10
94.33624514938928
 20
145.6206914084974
 30
0.0
 10
94.30482106159843
 20
145.6350065675846
 30
0.0
 10
94.27849599388983
 20
145.6543633695951
 30
0.0
  0
SPLINE
  5
F1
330
1F
100
AcDbEntity
  8
0
  6
Continuous
 62
     7
370
    25
100
AcDbSpline
210
0.0
220
0.0
230
1.0
 70
     8
 71
     3
 72
    10
 73
     6
 74
     0
 42
0.000000001
 43
0.00000001
 40
0.0
 40
0.0
 40
0.0
 40
0.0
 40
0.5
 40
0.5
 40
1.0
 40
1.0
 40
1.0
 40
1.0
 10
95.63768176217182
 20
147.2241654187121
 30
0.0
 10
95.51279349142163
 20
147.0931691406406
 30
0.0
 10
95.3913433733612
 20
146.9494563039756
 30
0.0
 10
95.16175939840375
 20
146.6388860112864
 30
0.0
 10
95.05148442300774
 20
146.4708169382233
 30
0.0
 10
94.96423400387424
 20
146.2987463173703
 30
0.0
  0
SPLINE
  5
F2
330
1F
100
AcDbEntity
  8
0
  6
Continuous
 62
     7
370
    25
100
AcDbSpline
210
0.0
220
0.0
230
1.0
 70
     8
 71
     3
 72
     8
 73
     4
 74
     0
 42
0.000000001
 43
0.00000001
 40
0.0
 40
0.0
 40
0.0
 40
0.0
 40
1.0
 40
1.0
 40
1.0
 40
1.0
 10
95.88760687813755
 20
147.2217123854567
 30
0.0
 10
95.8005888482892
 20
147.2221789502438
 30
0.0
 10
95.71763482190926
 20
147.2232189698199
 30
0.0
 10
95.6376817621695
 20
147.2241654187122
 30
0.0
  0
SPLINE
  5
F3
330
1F
100
AcDbEntity
  8
0
  6
Continuous
 62
     7
370
    25
100
AcDbSpline
210
0.0
220
0.0
230
1.0
 70
     8
 71
     3
 72
     8
 73
     4
 74
     0
 42
0.000000001
 43
0.00000001
 40
0.0
 40
0.0
 40
0.0
 40
0.0
 40
1.0
 40
1.0
 40
1.0
 40
1.0
 10
95.6376817621695
 20
82.72759501507203
 30
0.0
 10
95.71763482190978
 20
82.7285414639643
 30
0.0
 10
95.80058884829026
 20
82.72958148354043
 30
0.0
 10
95.88760687813924
 20
82.73004804832749
 30
0.0
  0
SPLINE
  5
F4
330
1F
100
AcDbEntity
  8
0
  6
Continuous
 62
     7
370
    25
100
AcDbSpline
210
0.0
220
0.0
230
1.0
 70
     8
 71
     3
 72
    10
 73
     6
 74
     0
 42
0.000000001
 43
0.00000001
 40
0.0
 40
0.0
 40
0.0
 40
0.0
 40
0.4999999999999989
 40
0.4999999999999989
 40
1.0
 40
1.0
 40
1.0
 40
1.0
 10
94.96423400387326
 20
83.65301411641582
 30
0.0
 10
95.05148442300673
 20
83.48094349556243
 30
0.0
 10
95.1617593984029
 20
83.31287442249896
 30
0.0
 10
95.39134337336075
 20
83.0023041298091
 30
0.0
 10
95.51279349142142
 20
82.85859129314382
 30
0.0
 10
95.63768176217182
 20
82.7275950150721
 30
0.0
  0
SPLINE
  5
F5
330
1F
100
AcDbEntity
  8
0
  6
Continuous
 62
     7
370
    25
100
AcDbSpline
210
0.0
220
0.0
230
1.0
 70
     8
 71
     3
 72
     8
 73
     4
 74
     0
 42
0.000000001
 43
0.00000001
 40
0.0
 40
0.0
 40
0.0
 40
0.0
 40
1.0
 40
1.0
 40
1.0
 40
1.0
 10
161.9776817621718
 20
161.573151077597
 30
0.0
 10
161.5273735264873
 20
162.3708662027106
 30
0.0
 10
161.0766797099637
 20
163.1683645023678
 30
0.0
 10
160.6256527412504
 20
163.9656750725557
 30
0.0
  0
LINE
  5
F6
330
1F
100
AcDbEntity
  8
0
  6
Continuous
 62
     7
370
    25
100
AcDbLine
 10
161.9776817622
 20
150.871327723
 30
0.0
 11
161.9776817622
 21
161.5731510776
 31
0.0
  0
SPLINE
  5
F7
330
1F
100
AcDbEntity
  8
0
  6
Continuous
 62
     7
370
    25
100
AcDbSpline
210
0.0
220
0.0
230
1.0
 70
     8
 71
     3
 72
     8
 73
     4
 74
     0
 42
0.000000001
 43
0.00000001
 40
0.0
 40
0.0
 40
0.0
 40
0.0
 40
1.0
 40
1.0
 40
1.0
 40
1.0
 10
160.6256527412504
 20
153.926842977779
 30
0.0
 10
161.0825790950499
 20
152.9109250081048
 30
0.0
 10
161.533784736853
 20
151.8921291790136
 30
0.0
 10
161.9776817621718
 20
150.8713277230299
 30
0.0
  0
LINE
  5
F8
330
1F
100
AcDbEntity
  8
0
  6
Continuous
 62
     7
370
    25
100
AcDbLine
 10
171.8376817622
 20
163.9656750726
 30
0.0
 11
167.1497107831
 21
163.9656750726
 31
0.0
  0
LINE
  5
F9
330
1F
100
AcDbEntity
  8
0
  6
Continuous
 62
     7
370
    25
100
AcDbLine
 10
167.1497107831
 20
153.9268429778
 30
0.0
 11
171.8376817622
 21
153.9268429778
 31
0.0
  0
LINE
  5
FA
330
1F
100
AcDbEntity
  8
0
  6
Continuous
 62
     7
370
    25
100
AcDbLine
 10
167.1497107831
 20
153.9268429778
 30
0.0
 11
167.1497107831
 21
163.9656750726
 31
0.0
  0
SPLINE
  5
FB
330
1F
100
AcDbEntity
  8
0
  6
Continuous
 62
     7
370
    25
100
AcDbSpline
210
0.0
220
0.0
230
1.0
 70
     8
 71
     3
 72
    12
 73
     8
 74
     0
 42
0.000000001
 43
0.00000001
 40
0.0
 40
0.0
 40
0.0
 40
0.0
 40
0.4999999999999953
 40
0.4999999999999953
 40
0.7499999999999977
 40
0.7499999999999977
 40
1.0
 40
1.0
 40
1.0
 40
1.0
 10
172.8376817621718
 20
162.9446200377379
 30
0.0
 10
172.8376817621718
 20
163.2098894705044
 30
0.0
 10
172.7330750186854
 20
163.4724045761567
 30
0.0
 10
172.4564066669401
 20
163.757942182194
 30
0.0
 10
172.346041407588
 20
163.8342637990554
 30
0.0
 10
172.1019693589723
 20
163.9386059638956
 30
0.0
 10
171.9702168976406
 20
163.9656750725557
 30
0.0
 10
171.8376817621718
 20
163.9656750725557
 30
0.0
  0
SPLINE
  5
FC
330
1F
100
AcDbEntity
  8
0
  6
Continuous
 62
     7
370
    25
100
AcDbSpline
210
0.0
220
0.0
230
1.0
 70
     8
 71
     3
 72
    16
 73
    12
 74
     0
 42
0.000000001
 43
0.00000001
 40
0.0
 40
0.0
 40
0.0
 40
0.0
 40
0.1249999999999978
 40
0.1249999999999978
 40
0.2499999999999955
 40
0.2499999999999955
 40
0.499999999999997
 40
0.499999999999997
 40
0.7499999999999984
 40
0.7499999999999984
 40
1.0
 40
1.0
 40
1.0
 40
1.0
 10
171.8376817621718
 20
153.926842977779
 30
0.0
 10
171.913319468583
 20
153.926842977779
 30
0.0
 10
171.9896351330012
 20
153.9154979776441
 30
0.0
 10
172.1340458708932
 20
153.8728454270056
 30
0.0
 10
172.2024923200016
 20
153.8419111023227
 30
0.0
 10
172.3974235726147
 20
153.7226547305551
 30
0.0
 10
172.5052647463956
 20
153.6125027169346
 30
0.0
 10
172.6739774946077
 20
153.3643666312765
 30
0.0
 10
172.7363419073312
 20
153.2240243072728
 30
0.0
 10
172.8176458318396
 20
152.9357526157842
 30
0.0
 10
172.8376817621718
 20
152.7849476428044
 30
0.0
 10
172.8376817621718
 20
152.6345777514591
 30
0.0
  0
LINE
  5
FD
330
1F
100
AcDbEntity
  8
0
  6
Continuous
 62
     7
370
    25
100
AcDbLine
 10
172.8376817622
 20
152.6345777515
 30
0.0
 11
172.8376817622
 21
162.9446200377
 31
0.0
  0
LINE
  5
FE
330
1F
100
AcDbEntity
  8
0
  6
Continuous
 62
     7
370
    25
100
AcDbLine
 10
161.9776817622
 20
150.871327723
 30
0.0
 11
161.9776817622
 21
149.6901154094
 31
0.0
  0
SPLINE
  5
FF
330
1F
100
AcDbEntity
  8
0
  6
Continuous
 62
     7
370
    25
100
AcDbSpline
210
0.0
220
0.0
230
1.0
 70
     8
 71
     3
 72
    14
 73
    10
 74
     0
 42
0.000000001
 43
0.00000001
 40
0.0
 40
0.0
 40
0.0
 40
0.0
 40
0.25
 40
0.25
 40
0.5
 40
0.5
 40
0.75
 40
0.75
 40
1.0
 40
1.0
 40
1.0
 40
1.0
 10
161.9776817621718
 20
149.6901154093891
 30
0.0
 10
161.9776817621718
 20
149.5662485326
 30
0.0
 10
161.9935408897994
 20
149.4419888557624
 30
0.0
 10
162.0569025353193
 20
149.2043804933566
 30
0.0
 10
162.1054922433686
 20
149.0876001086041
 30
0.0
 10
162.2377778481435
 20
148.8787975799951
 30
0.0
 10
162.3231026394041
 20
148.7842868764025
 30
0.0
 10
162.5299938877103
 20
148.6463300756002
 30
0.0
 10
162.6539618336003
 20
148.6044116299645
 30
0.0
 10
162.7776817621718
 20
148.6044116299645
 30
0.0
  0
LINE
  5
100
330
1F
100
AcDbEntity
  8
0
  6
Continuous
 62
     7
370
    25
100
AcDbLine
 10
162.7776817622
 20
148.60441163
 30
0.0
 11
164.9976817622
 21
148.60441163
 31
0.0
  0
SPLINE
  5
101
330
1F
100
AcDbEntity
  8
0
  6
Continuous
 62
     7
370
    25
100
AcDbSpline
210
0.0
220
0.0
230
1.0
 70
     8
 71
     3
 72
    12
 73
     8
 74
     0
 42
0.000000001
 43
0.00000001
 40
0.0
 40
0.0
 40
0.0
 40
0.0
 40
0.250000000000002
 40
0.250000000000002
 40
0.500000000000004
 40
0.500000000000004
 40
1.0
 40
1.0
 40
1.0
 40
1.0
 10
164.9976817621718
 20
148.6044116299646
 30
0.0
 10
165.1213827121518
 20
148.6044116299646
 30
0.0
 10
165.245479324422
 20
148.6464052416971
 30
0.0
 10
165.452134487509
 20
148.7842005683415
 30
0.0
 10
165.5371752542359
 20
148.8781741668064
 30
0.0
 10
165.7366538227095
 20
149.1929623730273
 30
0.0
 10
165.7976817621718
 20
149.4432013652549
 30
0.0
 10
165.7976817621718
 20
149.6901154093891
 30
0.0
  0
LINE
  5
102
330
1F
100
AcDbEntity
  8
0
  6
Continuous
 62
     7
370
    25
100
AcDbLine
 10
165.7976817622
 20
149.6901154094
 30
0.0
 11
165.7976817622
 21
150.871327723
 31
0.0
  0
SPLINE
  5
103
330
1F
100
AcDbEntity
  8
0
  6
Continuous
 62
     7
370
    25
100
AcDbSpline
210
0.0
220
0.0
230
1.0
 70
     8
 71
     3
 72
     8
 73
     4
 74
     0
 42
0.000000001
 43
0.00000001
 40
0.0
 40
0.0
 40
0.0
 40
0.0
 40
1.0
 40
1.0
 40
1.0
 40
1.0
 10
165.7976817621718
 20
150.8713277230299
 30
0.0
 10
166.2418317731973
 20
151.8927109539816
 30
0.0
 10
166.6929060834553
 20
152.9111954907499
 30
0.0
 10
167.1497107830932
 20
153.926842977779
 30
0.0
  0
LINE
  5
104
330
1F
100
AcDbEntity
  8
0
  6
Continuous
 62
     7
370
    25
100
AcDbLine
 10
172.8376817622
 20
152.6345777515
 30
0.0
 11
172.8376817622
 21
146.3258802169
 31
0.0
  0
SPLINE
  5
105
330
1F
100
AcDbEntity
  8
0
  6
Continuous
 62
     7
370
    25
100
AcDbSpline
210
0.0
220
0.0
230
1.0
 70
     8
 71
     3
 72
    10
 73
     6
 74
     0
 42
0.000000001
 43
0.00000001
 40
0.0
 40
0.0
 40
0.0
 40
0.0
 40
0.5
 40
0.5
 40
1.0
 40
1.0
 40
1.0
 40
1.0
 10
162.7776817621718
 20
159.8501559770645
 30
0.0
 10
162.5651454483155
 20
159.8501559770645
 30
0.0
 10
162.3552092766615
 20
159.9415685636947
 30
0.0
 10
162.0615021356502
 20
160.2463134295989
 30
0.0
 10
161.9776817621718
 20
160.4584683995076
 30
0.0
 10
161.9776817621718
 20
160.6694314577401
 30
0.0
  0
SPLINE
  5
106
330
1F
100
AcDbEntity
  8
0
  6
Continuous
 62
     7
370
    25
100
AcDbSpline
210
0.0
220
0.0
230
1.0
 70
     8
 71
     3
 72
    14
 73
    10
 74
     0
 42
0.000000001
 43
0.00000001
 40
0.0
 40
0.0
 40
0.0
 40
0.0
 40
0.25
 40
0.25
 40
0.5
 40
0.5
 40
0.75
 40
0.75
 40
1.0
 40
1.0
 40
1.0
 40
1.0
 10
165.7976817621718
 20
160.6694314577401
 30
0.0
 10
165.7976817621718
 20
160.5630747639878
 30
0.0
 10
165.7772942060306
 20
160.4572342762276
 30
0.0
 10
165.698659860569
 20
160.2606693626912
 30
0.0
 10
165.6399285009304
 20
160.1694986204041
 30
0.0
 10
165.4933195953278
 20
160.0175875313725
 30
0.0
 10
165.4039142753013
 20
159.9555186945529
 30
0.0
 10
165.210023542701
 20
159.8722506467942
 30
0.0
 10
165.1035185528112
 20
159.8501559770645
 30
0.0
 10
164.9976817621718
 20
159.8501559770645
 30
0.0
  0
SPLINE
  5
107
330
1F
100
AcDbEntity
  8
0
  6
Continuous
 62
     7
370
    25
100
AcDbSpline
210
0.0
220
0.0
230
1.0
 70
     8
 71
     3
 72
     8
 73
     4
 74
     0
 42
0.000000001
 43
0.00000001
 40
0.0
 40
0.0
 40
0.0
 40
0.0
 40
1.0
 40
1.0
 40
1.0
 40
1.0
 10
167.1497107830932
 20
163.9656750725557
 30
0.0
 10
166.69868381438
 20
163.1683645023678
 30
0.0
 10
166.2479899978564
 20
162.3708662027106
 30
0.0
 10
165.7976817621718
 20
161.573151077597
 30
0.0
  0
LINE
  5
108
330
1F
100
AcDbEntity
  8
0
  6
Continuous
 62
     7
370
    25
100
AcDbLine
 10
165.7976817622
 20
150.871327723
 30
0.0
 11
165.7976817622
 21
161.5731510776
 31
0.0
  0
LINE
  5
109
330
1F
100
AcDbEntity
  8
0
  6
Continuous
 62
     7
370
    25
100
AcDbLine
 10
164.9976817622
 20
159.8501559771
 30
0.0
 11
162.7776817622
 21
159.8501559771
 31
0.0
  0
LINE
  5
10A
330
1F
100
AcDbEntity
  8
0
  6
Continuous
 62
     7
370
    25
100
AcDbLine
 10
95.6376817622
 20
82.7258802169
 30
0.0
 11
95.6376817622
 21
82.7275950151
 31
0.0
  0
LINE
  5
10B
330
1F
100
AcDbEntity
  8
0
  6
Continuous
 62
     7
370
    25
100
AcDbLine
 10
95.6376817622
 20
147.2258802169
 30
0.0
 11
95.6376817622
 21
147.2241654187
 31
0.0
  0
LINE
  5
10C
330
1F
100
AcDbEntity
  8
0
  6
Continuous
 62
     7
370
    25
100
AcDbLine
 10
194.5876817622
 20
98.9758802169
 30
0.0
 11
194.5876817622
 21
130.9758802169
 31
0.0
  0
SPLINE
  5
10D
330
1F
100
AcDbEntity
  8
0
  6
Continuous
 62
     7
370
    25
100
AcDbSpline
210
0.0
220
0.0
230
1.0
 70
     8
 71
     3
 72
    42
 73
    38
 74
     0
 42
0.000000001
 43
0.00000001
 40
0.0
 40
0.0
 40
0.0
 40
0.0
 40
0.0312499999999998
 40
0.0312499999999998
 40
0.0624999999999995
 40
0.0624999999999995
 40
0.1249999999999994
 40
0.1249999999999994
 40
0.1874999999999993
 40
0.1874999999999993
 40
0.2499999999999991
 40
0.2499999999999991
 40
0.3124999999999989
 40
0.3124999999999989
 40
0.3749999999999987
 40
0.3749999999999987
 40
0.4374999999999984
 40
0.4374999999999984
 40
0.4999999999999982
 40
0.4999999999999982
 40
0.562499999999998
 40
0.562499999999998
 40
0.6249999999999977
 40
0.6249999999999977
 40
0.6874999999999974
 40
0.6874999999999974
 40
0.7499999999999972
 40
0.7499999999999972
 40
0.7812499999999976
 40
0.7812499999999976
 40
0.8124999999999979
 40
0.8124999999999979
 40
0.8749999999999986
 40
0.8749999999999986
 40
0.9374999999999993
 40
0.9374999999999993
 40
1.0
 40
1.0
 40
1.0
 40
1.0
 10
190.8376817621717
 20
114.9758802168921
 30
0.0
 10
190.8376817621717
 20
114.8149474458849
 30
0.0
 10
190.8278811084165
 20
114.6538760660049
 30
0.0
 10
190.7882525654177
 20
114.331450303912
 30
0.0
 10
190.7582649626938
 20
114.1702807038331
 30
0.0
 10
190.6412057101373
 20
113.6998876928495
 30
0.0
 10
190.5268385960341
 20
113.3988178657438
 30
0.0
 10
190.2290574895233
 20
112.8211913473938
 30
0.0
 10
190.0507900522835
 20
112.5544171393465
 30
0.0
 10
189.641849173639
 20
112.0595447724374
 30
0.0
 10
189.409829381619
 20
111.8312890013415
 30
0.0
 10
188.9132652121235
 20
111.4273867143387
 30
0.0
 10
188.6467323145463
 20
111.2491094488005
 30
0.0
 10
188.0785205904727
 20
110.9384536319734
 30
0.0
 10
187.7842733824181
 20
110.8101162435704
 30
0.0
 10
187.1766692176505
 20
110.6033464010414
 30
0.0
 10
186.8608315660103
 20
110.524597453633
 30
0.0
 10
186.2210322139261
 20
110.4204066149216
 30
0.0
 10
185.9001619709996
 20
110.3950133640641
 30
0.0
 10
185.2565304962016
 20
110.3960234111369
 30
0.0
 10
184.9309065115607
 20
110.4229801153402
 30
0.0
 10
184.2923176791595
 20
110.5295481993259
 30
0.0
 10
183.9812244571906
 20
110.6082785078138
 30
0.0
 10
183.3752185308009
 20
110.8165876226124
 30
0.0
 10
183.0775367178638
 20
110.9477590489449
 30
0.0
 10
182.5143523990671
 20
111.2582425494119
 30
0.0
 10
182.2500555987419
 20
111.4361310654598
 30
0.0
 10
181.8802243388135
 20
111.7385598929284
 30
0.0
 10
181.7614140251391
 20
111.8453441217715
 30
0.0
 10
181.5332867888603
 20
112.0717460639062
 30
0.0
 10
181.4236951758192
 20
112.1918517929851
 30
0.0
 10
181.1180589510564
 20
112.5635427158495
 30
0.0
 10
180.9420750143368
 20
112.8288321736768
 30
0.0
 10
180.6495293581975
 20
113.3974421555278
 30
0.0
 10
180.5323029187709
 20
113.7057094165475
 30
0.0
 10
180.3775272675098
 20
114.3309522354821
 30
0.0
 10
180.3376817621717
 20
114.6499963400184
 30
0.0
 10
180.3376817621717
 20
114.9758802168921
 30
0.0
  0
SPLINE
  5
10E
330
1F
100
AcDbEntity
  8
0
  6
Continuous
 62
     7
370
    25
100
AcDbSpline
210
0.0
220
0.0
230
1.0
 70
     8
 71
     3
 72
    42
 73
    38
 74
     0
 42
0.000000001
 43
0.00000001
 40
0.0
 40
0.0
 40
0.0
 40
0.0
 40
0.0312500000000001
 40
0.0312500000000001
 40
0.0625000000000002
 40
0.0625000000000002
 40
0.1250000000000007
 40
0.1250000000000007
 40
0.1875000000000012
 40
0.1875000000000012
 40
0.2500000000000016
 40
0.2500000000000016
 40
0.3125000000000021
 40
0.3125000000000021
 40
0.3750000000000026
 40
0.3750000000000026
 40
0.5000000000000034
 40
0.5000000000000034
 40
0.5625000000000032
 40
0.5625000000000032
 40
0.6250000000000029
 40
0.6250000000000029
 40
0.6875000000000027
 40
0.6875000000000027
 40
0.7500000000000024
 40
0.7500000000000024
 40
0.8125000000000022
 40
0.8125000000000022
 40
0.8437500000000021
 40
0.8437500000000021
 40
0.875000000000002
 40
0.875000000000002
 40
0.9375000000000011
 40
0.9375000000000011
 40
0.9687500000000006
 40
0.9687500000000006
 40
1.0
 40
1.0
 40
1.0
 40
1.0
 10
180.3376817621717
 20
114.9758802168921
 30
0.0
 10
180.3376817621717
 20
115.138824647245
 30
0.0
 10
180.3478986675098
 20
115.3026606750554
 30
0.0
 10
180.3877290120034
 20
115.6239124130666
 30
0.0
 10
180.4173194444038
 20
115.7825160768538
 30
0.0
 10
180.5343711744025
 20
116.2524313632091
 30
0.0
 10
180.6518067073586
 20
116.5601084472437
 30
0.0
 10
180.9475694621815
 20
117.1322074531789
 30
0.0
 10
181.1277837527809
 20
117.4020674605437
 30
0.0
 10
181.5403265572474
 20
117.8995993612475
 30
0.0
 10
181.7697930904161
 20
118.1246654347058
 30
0.0
 10
182.271895503574
 20
118.5315921573752
 30
0.0
 10
182.5396523895413
 20
118.7092041130477
 30
0.0
 10
183.0998941035025
 20
119.0144339586865
 30
0.0
 10
183.3933652713914
 20
119.1427621750769
 30
0.0
 10
184.3144248650748
 20
119.4551614456241
 30
0.0
 10
184.951550607696
 20
119.5577544146494
 30
0.0
 10
185.9266307166752
 20
119.5554724127074
 30
0.0
 10
186.2472428887593
 20
119.5283064764209
 30
0.0
 10
186.8799407364467
 20
119.422739345728
 30
0.0
 10
187.1934422501772
 20
119.3438625062872
 30
0.0
 10
187.8053203060394
 20
119.133251751967
 30
0.0
 10
188.09774292953
 20
119.0038481264584
 30
0.0
 10
188.655886342878
 20
118.6965408230761
 30
0.0
 10
188.9231503326315
 20
118.51744154993
 30
0.0
 10
189.4214803328399
 20
118.1098374007662
 30
0.0
 10
189.6474874777705
 20
117.8859313889132
 30
0.0
 10
189.9506135744398
 20
117.5182940769357
 30
0.0
 10
190.0456301691357
 20
117.3904130674409
 30
0.0
 10
190.22278046504
 20
117.1231435282952
 30
0.0
 10
190.3053904921254
 20
116.9827391485135
 30
0.0
 10
190.5271121979282
 20
116.5519283688854
 30
0.0
 10
190.6413018686154
 20
116.2517470126397
 30
0.0
 10
190.7585023564598
 20
115.7803949676265
 30
0.0
 10
190.7884569234189
 20
115.6189252054211
 30
0.0
 10
190.8278802600516
 20
115.2976120606906
 30
0.0
 10
190.8376817621717
 20
115.1368154490886
 30
0.0
 10
190.8376817621717
 20
114.9758802168921
 30
0.0
  0
LINE
  5
10F
330
1F
100
AcDbEntity
  8
0
  6
Continuous
 62
     7
370
    25
100
AcDbLine
 10
194.8876817622
 20
99.2758802169
 30
0.0
 11
194.8876817622
 21
130.6758802169
 31
0.0
  0
CIRCLE
  5
110
330
1F
100
AcDbEntity
  8
0
  6
HIDDEN
 62
     7
370
    18
100
AcDbCircle
 10
185.5876817622
 20
114.9758802169
 30
0.0
 40
3.50827075990334
  0
CIRCLE
  5
111
330
1F
100
AcDbEntity
  8
0
  6
HIDDEN
 62
     7
370
    18
100
AcDbCircle
 10
185.5876817622
 20
114.9758802169
 30
0.0
 40
2.49956004487801
  0
ARC
  5
112
330
1F
100
AcDbEntity
  8
0
  6
HIDDEN
 62
     7
370
    18
100
AcDbCircle
 10
185.5876817622
 20
114.9758802169
 30
0.0
 40
2.199560044877998
100
AcDbArc
 50
232.1941991511
 51
270.0
  0
LINE
  5
113
330
1F
100
AcDbEntity
  8
0
  6
HIDDEN
 62
     7
370
    18
100
AcDbLine
 10
183.4098709259
 20
114.6673281912
 30
0.0
 11
183.4064331736
 21
115.2591097811
 31
0.0
  0
LWPOLYLINE
  5
114
330
1F
100
AcDbEntity
  8
0
  6
HIDDEN
 62
     7
370
    18
100
AcDbPolyline
 90
        3
 70
   128
 43
0.0
 10
184.2591122263
 20
116.7288683456
 10
184.3985098215
 20
116.8262678753
 10
184.72143772
 20
116.9976827914
  0
LWPOLYLINE
  5
115
330
1F
100
AcDbEntity
  8
0
  6
HIDDEN
 62
     7
370
    18
100
AcDbPolyline
 90
        3
 70
   128
 43
0.0
 10
186.4560138373
 20
116.9967868942
 10
186.7768537029
 20
116.8262678753
 10
186.9448527874
 20
116.7068196148
  0
ARC
  5
116
330
1F
100
AcDbEntity
  8
0
  6
HIDDEN
 62
     7
370
    18
100
AcDbCircle
 10
185.5876817622
 20
114.9758802169
 30
0.0
 40
2.199560044877999
100
AcDbArc
 50
270.0
 51
7.984968135
  0
LINE
  5
117
330
1F
100
AcDbEntity
  8
0
  6
HIDDEN
 62
     7
370
    18
100
AcDbLine
 10
160.6256527413
 20
153.9268429778
 30
0.0
 11
160.6256527413
 21
146.3258802169
 31
0.0
  0
LINE
  5
118
330
1F
100
AcDbEntity
  8
0
  6
HIDDEN
 62
     7
370
    18
100
AcDbLine
 10
103.8242596813
 20
148.1051264894
 30
0.0
 11
103.4127374463
 21
147.7190573106
 31
0.0
  0
LINE
  5
119
330
1F
100
AcDbEntity
  8
0
  6
HIDDEN
 62
     7
370
    18
100
AcDbLine
 10
124.3011065116
 20
78.2400738546
 30
0.0
 11
124.0254916897
 21
78.2156478572
 31
0.0
  0
SPLINE
  5
11A
330
1F
100
AcDbEntity
  8
0
  6
HIDDEN
 62
     7
370
    18
100
AcDbSpline
210
0.0
220
0.0
230
1.0
 70
     8
 71
     3
 72
    13
 73
     9
 74
     0
 42
0.000000001
 43
0.00000001
 40
0.0
 40
0.0
 40
0.0
 40
0.0
 40
0.1247123583487784
 40
0.2490591700996389
 40
0.3740782882410052
 40
0.5009715943216159
 40
0.7521524312982986
 40
1.0
 40
1.0
 40
1.0
 40
1.0
 10
122.4069867799573
 20
151.9071863111425
 30
0.0
 10
122.4127733904074
 20
151.9064100663401
 30
0.0
 10
122.4243296500714
 20
151.904859852
 30
0.0
 10
122.5213397668263
 20
151.8926435452506
 30
0.0
 10
122.6766353027106
 20
151.8737168338729
 30
0.0
 10
122.9668035813951
 20
151.8397447554563
 30
0.0
 10
123.4543594991604
 20
151.7832234320389
 30
0.0
 10
124.0200562262827
 20
151.7354150392251
 30
0.0
 10
124.3010152996428
 20
151.7116705112832
 30
0.0
  0
SPLINE
  5
11B
330
1F
100
AcDbEntity
  8
0
  6
HIDDEN
 62
     7
370
    18
100
AcDbSpline
210
0.0
220
0.0
230
1.0
 70
     8
 71
     3
 72
    11
 73
     7
 74
     0
 42
0.000000001
 43
0.00000001
 40
0.0
 40
0.0
 40
0.0
 40
0.0
 40
0.3257413048628244
 40
0.6609666605990816
 40
0.9867582768223983
 40
1.0
 40
1.0
 40
1.0
 40
1.0
 10
134.1408874173628
 20
146.3422024376392
 30
0.0
 10
134.2867697280294
 20
146.3654680867362
 30
0.0
 10
134.5827817543899
 20
146.4126767709307
 30
0.0
 10
134.8119193887977
 20
146.4427688950871
 30
0.0
 10
134.9132010779293
 20
146.4559464919239
 30
0.0
 10
134.885510371386
 20
146.4523373315608
 30
0.0
 10
134.884428847453
 20
146.4521963675408
 30
0.0
  0
SPLINE
  5
11C
330
1F
100
AcDbEntity
  8
0
  6
HIDDEN
 62
     7
370
    18
100
AcDbSpline
210
0.0
220
0.0
230
1.0
 70
     8
 71
     3
 72
    10
 73
     6
 74
     0
 42
0.000000001
 43
0.00000001
 40
0.0
 40
0.0
 40
0.0
 40
0.0
 40
0.3221856163256574
 40
0.6559976537711188
 40
1.0
 40
1.0
 40
1.0
 40
1.0
 10
134.8844386776715
 20
83.49956278493299
 30
0.0
 10
134.8698897442426
 20
83.50145908382333
 30
0.0
 10
134.8402668631747
 20
83.50532011162807
 30
0.0
 10
134.5907753371274
 20
83.53784092308975
 30
0.0
 10
134.2923455951455
 20
83.58541389997426
 30
0.0
 10
134.1408874173628
 20
83.60955799614503
 30
0.0
  0
SPLINE
  5
11D
330
1F
100
AcDbEntity
  8
0
  6
HIDDEN
 62
     7
370
    18
100
AcDbSpline
210
0.0
220
0.0
230
1.0
 70
     8
 71
     3
 72
    23
 73
    19
 74
     0
 42
0.000000001
 43
0.00000001
 40
0.0
 40
0.0
 40
0.0
 40
0.0
 40
0.0633571260677582
 40
0.1285545266630666
 40
0.1919098540958634
 40
0.2571115402721681
 40
0.3202403144568473
 40
0.3852600750475548
 40
0.4473665375787845
 40
0.5112910021130346
 40
0.5731724132338447
 40
0.6367989951504448
 40
0.6995859083620212
 40
0.7641543874110671
 40
0.8275801165506869
 40
0.8928778468939024
 40
0.9556888039615772
 40
1.0
 40
1.0
 40
1.0
 40
1.0
 10
134.1408874173628
 20
83.60955799614503
 30
0.0
 10
133.9654820077678
 20
83.63824366357056
 30
0.0
 10
133.6095763535164
 20
83.69644820387684
 30
0.0
 10
132.9048961131186
 20
83.79576122130926
 30
0.0
 10
132.089129322445
 20
83.89124910492781
 30
0.0
 10
131.1867641152796
 20
83.97200788367887
 30
0.0
 10
130.2102632979892
 20
84.02963830785845
 30
0.0
 10
129.2099839939169
 20
84.05643046370528
 30
0.0
 10
128.1968383069509
 20
84.05023483714078
 30
0.0
 10
127.2195808210399
 20
84.01258811234251
 30
0.0
 10
126.2824211354488
 20
83.94735166456178
 30
0.0
 10
125.4230992723374
 20
83.86266207965498
 30
0.0
 10
124.6488236574127
 20
83.76611375655804
 30
0.0
 10
123.9940956880022
 20
83.66959170277771
 30
0.0
 10
123.468111347014
 20
83.58227314358192
 30
0.0
 10
123.1069339602077
 20
83.51732064811993
 30
0.0
 10
122.9080725402481
 20
83.47978025555769
 30
0.0
 10
122.9070300880273
 20
83.47956397939568
 30
0.0
 10
122.9065988765237
 20
83.4794745165242
 30
0.0
  0
SPLINE
  5
11E
330
1F
100
AcDbEntity
  8
0
  6
HIDDEN
 62
     7
370
    18
100
AcDbSpline
210
0.0
220
0.0
230
1.0
 70
     8
 71
     3
 72
    24
 73
    20
 74
     0
 42
0.000000001
 43
0.00000001
 40
0.0
 40
0.0
 40
0.0
 40
0.0
 40
0.0203729619474675
 40
0.0822870750602626
 40
0.1459896397253444
 40
0.2080895879354082
 40
0.2719360348739571
 40
0.3350079792507123
 40
0.3998886074506654
 40
0.4632504589199172
 40
0.5284999352472104
 40
0.5909722114153432
 40
0.6552989095534102
 40
0.7170937383192266
 40
0.7806505850197494
 40
0.8430286835696726
 40
0.9071616706581621
 40
0.9532355028060499
 40
1.0
 40
1.0
 40
1.0
 40
1.0
 10
122.9065988765237
 20
146.47228591726
 30
0.0
 10
122.9012204326278
 20
146.473307492031
 30
0.0
 10
122.8794967177499
 20
146.4774336667167
 30
0.0
 10
123.0117701874584
 20
146.4522430549794
 30
0.0
 10
123.2976931699395
 20
146.3996755880108
 30
0.0
 10
123.7524630129175
 20
146.3212536494019
 30
0.0
 10
124.343068066067
 20
146.2290692925903
 30
0.0
 10
125.0701971563683
 20
146.1306845258337
 30
0.0
 10
125.9037015011117
 20
146.038646322797
 30
0.0
 10
126.8331516653017
 20
145.9624043102751
 30
0.0
 10
127.8115319696599
 20
145.9124911279821
 30
0.0
 10
128.8259438990418
 20
145.8937271298878
 30
0.0
 10
129.8243894601735
 20
145.9080569872314
 30
0.0
 10
130.8009996868348
 20
145.9535117148689
 30
0.0
 10
131.7141967034416
 20
146.0239363830155
 30
0.0
 10
132.5596034345674
 20
146.1130707797942
 30
0.0
 10
133.2326008800138
 20
146.2011283790748
 30
0.0
 10
133.7626953736769
 20
146.2799922217541
 30
0.0
 10
134.0141997190934
 20
146.3213631069581
 30
0.0
 10
134.1408874173628
 20
146.3422024376392
 30
0.0
  0
LINE
  5
11F
330
1F
100
AcDbEntity
  8
0
  6
HIDDEN
 62
     7
370
    18
100
AcDbLine
 10
113.8843060892
 20
88.4758802169
 30
0.0
 11
113.8843060892
 21
141.4758802169
 31
0.0
  0
LINE
  5
120
330
1F
100
AcDbEntity
  8
0
  6
HIDDEN
 62
     7
370
    18
100
AcDbLine
 10
153.1717593805
 20
88.4758802169
 30
0.0
 11
153.1717593805
 21
141.4758802169
 31
0.0
  0
LINE
  5
121
330
1F
100
AcDbEntity
  8
0
  6
HIDDEN
 62
     7
370
    18
100
AcDbLine
 10
156.3376817622
 20
90.1008802169
 30
0.0
 11
156.3376817622
 21
139.8508801994
 31
0.0
  0
SPLINE
  5
122
330
1F
100
AcDbEntity
  8
0
  6
HIDDEN
 62
     7
370
    18
100
AcDbSpline
210
0.0
220
0.0
230
1.0
 70
     8
 71
     3
 72
    20
 73
    16
 74
     0
 42
0.000000001
 43
0.00000001
 40
0.0
 40
0.0
 40
0.0
 40
0.0
 40
0.2499999999999978
 40
0.2499999999999978
 40
0.3749999999999982
 40
0.3749999999999982
 40
0.4999999999999986
 40
0.4999999999999986
 40
0.6249999999999989
 40
0.6249999999999989
 40
0.7499999999999992
 40
0.7499999999999992
 40
0.8749999999999997
 40
0.8749999999999997
 40
1.0
 40
1.0
 40
1.0
 40
1.0
 10
104.0876817621718
 20
140.2043938473064
 30
0.0
 10
104.0876817621718
 20
140.1251908607741
 30
0.0
 10
104.0406992669591
 20
140.0440946423712
 30
0.0
 10
103.9028776761815
 20
139.9238979506203
 30
0.0
 10
103.8465953922715
 20
139.8849712466182
 30
0.0
 10
103.7135105408043
 20
139.8097825141938
 30
0.0
 10
103.6356705985712
 20
139.7731403088519
 30
0.0
 10
103.4630382424569
 20
139.70554977602
 30
0.0
 10
103.3686452453658
 20
139.6745915942444
 30
0.0
 10
103.1632079390507
 20
139.6190671728747
 30
0.0
 10
103.0508616990635
 20
139.5943586590415
 30
0.0
 10
102.8186208351639
 20
139.5545624319332
 30
0.0
 10
102.6979101927411
 20
139.5391425945362
 30
0.0
 10
102.4468393334721
 20
139.5180626196966
 30
0.0
 10
102.3173173370563
 20
139.5125853746756
 30
0.0
 10
102.1876817621718
 20
139.5125853746756
 30
0.0
  0
LINE
  5
123
330
1F
100
AcDbEntity
  8
0
  6
HIDDEN
 62
     7
370
    18
100
AcDbLine
 10
102.1876817622
 20
139.5125853747
 30
0.0
 11
95.6376817622
 21
139.5125853747
 31
0.0
  0
LINE
  5
124
330
1F
100
AcDbEntity
  8
0
  6
HIDDEN
 62
     7
370
    18
100
AcDbLine
 10
95.6376817622
 20
90.4391750591
 30
0.0
 11
107.1876817622
 21
90.4391750591
 31
0.0
  0
SPLINE
  5
125
330
1F
100
AcDbEntity
  8
0
  6
HIDDEN
 62
     7
370
    18
100
AcDbSpline
210
0.0
220
0.0
230
1.0
 70
     8
 71
     3
 72
    18
 73
    14
 74
     0
 42
0.000000001
 43
0.00000001
 40
0.0
 40
0.0
 40
0.0
 40
0.0
 40
0.1249999999999982
 40
0.1249999999999982
 40
0.2499999999999964
 40
0.2499999999999964
 40
0.4999999999999988
 40
0.4999999999999988
 40
0.7500000000000011
 40
0.7500000000000011
 40
0.8750000000000006
 40
0.8750000000000006
 40
1.0
 40
1.0
 40
1.0
 40
1.0
 10
107.1876817621718
 20
90.43917505910859
 30
0.0
 10
107.317149075129
 20
90.43917505910859
 30
0.0
 10
107.4441598240257
 20
90.43382206051595
 30
0.0
 10
107.6935231452229
 20
90.41308408782717
 30
0.0
 10
107.8171467998514
 20
90.39741218357288
 30
0.0
 10
108.1661791367854
 20
90.33771745517079
 30
0.0
 10
108.3766909015922
 20
90.27995227548979
 30
0.0
 10
108.7206075792917
 20
90.1454304342123
 30
0.0
 10
108.8569579808095
 20
90.06776132070691
 30
0.0
 10
108.993996037372
 20
89.94847018661956
 30
0.0
 10
109.029215056085
 20
89.90755117748452
 30
0.0
 10
109.0758386330235
 20
89.82689518419448
 30
0.0
 10
109.0876817621718
 20
89.78692666400163
 30
0.0
 10
109.0876817621718
 20
89.74736658647781
 30
0.0
  0
LINE
  5
126
330
1F
100
AcDbEntity
  8
0
  6
HIDDEN
 62
     7
370
    18
100
AcDbLine
 10
95.6376817622
 20
90.4391750591
 30
0.0
 11
95.6376817622
 21
139.5125853747
 31
0.0
  0
LINE
  5
127
330
1F
100
AcDbEntity
  8
0
  6
HIDDEN
 62
     7
370
    18
100
AcDbLine
 10
95.6376817622
 20
87.6058802169
 30
0.0
 11
95.6376817622
 21
82.7275950151
 31
0.0
  0
LINE
  5
128
330
1F
100
AcDbEntity
  8
0
  6
HIDDEN
 62
     7
370
    18
100
AcDbLine
 10
109.0876817622
 20
87.6058802169
 30
0.0
 11
109.0876817622
 21
81.1065469515
 31
0.0
  0
LINE
  5
129
330
1F
100
AcDbEntity
  8
0
  6
HIDDEN
 62
     7
370
    18
100
AcDbLine
 10
104.0876817622
 20
142.3458802169
 30
0.0
 11
104.0876817622
 21
148.7204889539
 31
0.0
  0
LINE
  5
12A
330
1F
100
AcDbEntity
  8
0
  6
HIDDEN
 62
     7
370
    18
100
AcDbLine
 10
95.6376817622
 20
142.3458802169
 30
0.0
 11
95.6376817622
 21
147.2241654187
 31
0.0
  0
LINE
  5
12B
330
1F
100
AcDbEntity
  8
0
  6
HIDDEN
 62
     7
370
    18
100
AcDbLine
 10
194.4376817622
 20
125.7758543473
 30
0.0
 11
194.4376817622
 21
127.5108521027
 31
0.0
  0
LINE
  5
12C
330
1F
100
AcDbEntity
  8
0
  6
HIDDEN
 62
     7
370
    18
100
AcDbLine
 10
194.4376817622
 20
106.7943137733
 30
0.0
 11
194.4376817622
 21
123.1574466605
 31
0.0
  0
LINE
  5
12D
330
1F
100
AcDbEntity
  8
0
  6
HIDDEN
 62
     7
370
    18
100
AcDbLine
 10
194.4376817622
 20
102.4409083311
 30
0.0
 11
194.4376817622
 21
104.1759060865
 31
0.0
  0
LINE
  5
12E
330
1F
100
AcDbEntity
  8
0
  6
HIDDEN
 62
     7
370
    18
100
AcDbLine
 10
168.1876817622
 20
101.9758802169
 30
0.0
 11
168.1876817622
 21
127.9758802169
 31
0.0
  0
LINE
  5
12F
330
1F
100
AcDbEntity
  8
0
  6
HIDDEN
 62
     7
370
    18
100
AcDbLine
 10
172.1876817622
 20
101.9758802169
 30
0.0
 11
172.1876817622
 21
127.9758802169
 31
0.0
  0
LINE
  5
130
330
1F
100
AcDbEntity
  8
0
  6
HIDDEN
 62
     7
370
    18
100
AcDbLine
 10
157.0876817622
 20
103.7258802169
 30
0.0
 11
157.0876817622
 21
126.2258802169
 31
0.0
  0
ELLIPSE
  5
131
330
1F
100
AcDbEntity
  8
0
  6
HIDDEN
 62
     7
370
    18
100
AcDbEllipse
 10
87.7030085619
 20
114.9758802169
 30
0.0
 11
31.08108570811662
 21
-1.421085471520200E-14
 31
0.0
210
0.0
220
0.0
230
1.0
 40
0.8164965809
 41
4.915995335118103
 42
4.970536038964788
  0
ELLIPSE
  5
132
330
1F
100
AcDbEntity
  8
0
  6
HIDDEN
 62
     7
370
    18
100
AcDbEllipse
 10
87.7030085619
 20
114.9758802169
 30
0.0
 11
31.08108570811662
 21
1.421085471520200E-14
 31
0.0
210
0.0
220
0.0
230
1.0
 40
0.8164965809
 41
1.31264926821481
 42
1.367189972061495
  0
LINE
  5
133
330
1F
100
AcDbEntity
  8
0
  6
HIDDEN
 62
     7
370
    18
100
AcDbLine
 10
172.8376817622
 20
71.0758802169
 30
0.0
 11
158.8376817622
 21
71.0758802169
 31
0.0
  0
LINE
  5
134
330
1F
100
AcDbEntity
  8
0
  6
HIDDEN
 62
     7
370
    18
100
AcDbLine
 10
148.8376817622
 20
64.9858812171
 30
0.0
 11
148.8376817622
 21
71.0758802169
 31
0.0
  0
LINE
  5
135
330
1F
100
AcDbEntity
  8
0
  6
HIDDEN
 62
     7
370
    18
100
AcDbLine
 10
158.8376817622
 20
71.0758802169
 30
0.0
 11
148.8376817622
 21
71.0758802169
 31
0.0
  0
LINE
  5
136
330
1F
100
AcDbEntity
  8
0
  6
HIDDEN
 62
     7
370
    18
100
AcDbLine
 10
191.5376817622
 20
110.6115360508
 30
0.0
 11
191.5376817622
 21
119.340224383
 31
0.0
  0
LINE
  5
137
330
1F
100
AcDbEntity
  8
0
  6
HIDDEN
 62
     7
370
    18
100
AcDbLine
 10
192.7056309546
 20
110.6115360508
 30
0.0
 11
192.7056309546
 21
119.340224383
 31
0.0
  0
LINE
  5
138
330
1F
100
AcDbEntity
  8
0
  6
HIDDEN
 62
     7
370
    18
100
AcDbLine
 10
109.0876817622
 20
87.6058802169
 30
0.0
 11
109.0876817622
 21
89.7473665865
 31
0.0
  0
LINE
  5
139
330
1F
100
AcDbEntity
  8
0
  6
HIDDEN
 62
     7
370
    18
100
AcDbLine
 10
95.6376817622
 20
87.6058802169
 30
0.0
 11
95.6376817622
 21
90.4391750591
 31
0.0
  0
LINE
  5
13A
330
1F
100
AcDbEntity
  8
0
  6
HIDDEN
 62
     7
370
    18
100
AcDbLine
 10
95.6376817622
 20
142.3458802169
 30
0.0
 11
95.6376817622
 21
139.5125853747
 31
0.0
  0
LINE
  5
13B
330
1F
100
AcDbEntity
  8
0
  6
HIDDEN
 62
     7
370
    18
100
AcDbLine
 10
104.0876817622
 20
142.3458802169
 30
0.0
 11
104.0876817622
 21
140.2043938473
 31
0.0
  0
LINE
  5
13C
330
1F
100
AcDbEntity
  8
0
  6
HIDDEN
 62
     7
370
    18
100
AcDbLine
 10
158.8376817622
 20
158.8758802169
 30
0.0
 11
148.8376817622
 21
158.8758802169
 31
0.0
  0
LINE
  5
13D
330
1F
100
AcDbEntity
  8
0
  6
HIDDEN
 62
     7
370
    18
100
AcDbLine
 10
172.8376817622
 20
158.8758802169
 30
0.0
 11
158.8376817622
 21
158.8758802169
 31
0.0
  0
LINE
  5
13E
330
1F
100
AcDbEntity
  8
0
  6
HIDDEN
 62
     7
370
    18
100
AcDbLine
 10
194.4376817622
 20
125.7758543473
 30
0.0
 11
194.4376817622
 21
125.7160435436
 31
0.0
  0
LINE
  5
13F
330
1F
100
AcDbEntity
  8
0
  6
HIDDEN
 62
     7
370
    18
100
AcDbLine
 10
191.5376817622
 20
125.7160435436
 30
0.0
 11
194.4376817622
 21
125.7160435436
 31
0.0
  0
LINE
  5
140
330
1F
100
AcDbEntity
  8
0
  6
HIDDEN
 62
     7
370
    18
100
AcDbLine
 10
191.5376817622
 20
125.7758802169
 30
0.0
 11
191.5376817622
 21
122.5758802169
 31
0.0
  0
LINE
  5
141
330
1F
100
AcDbEntity
  8
0
  6
HIDDEN
 62
     7
370
    18
100
AcDbLine
 10
191.5376817622
 20
119.340224383
 30
0.0
 11
192.7056309546
 21
119.340224383
 31
0.0
  0
LINE
  5
142
330
1F
100
AcDbEntity
  8
0
  6
HIDDEN
 62
     7
370
    18
100
AcDbLine
 10
191.5376817622
 20
122.5758802169
 30
0.0
 11
191.5376817622
 21
119.340224383
 31
0.0
  0
SPLINE
  5
143
330
1F
100
AcDbEntity
  8
0
  6
HIDDEN
 62
     7
370
    18
100
AcDbSpline
210
0.0
220
0.0
230
1.0
 70
     8
 71
     3
 72
     8
 73
     4
 74
     0
 42
0.000000001
 43
0.00000001
 40
0.0
 40
0.0
 40
0.0
 40
0.0
 40
1.0
 40
1.0
 40
1.0
 40
1.0
 10
192.7056309546028
 20
119.3402243829725
 30
0.0
 10
193.2323778480599
 20
120.0718883435067
 30
0.0
 10
193.819903143123
 20
120.7424962021528
 30
0.0
 10
194.4376817621718
 20
121.3827125075019
 30
0.0
  0
LINE
  5
144
330
1F
100
AcDbEntity
  8
0
  6
HIDDEN
 62
     7
370
    18
100
AcDbLine
 10
192.7056309546
 20
110.6115360508
 30
0.0
 11
191.5376817622
 21
110.6115360508
 31
0.0
  0
LINE
  5
145
330
1F
100
AcDbEntity
  8
0
  6
HIDDEN
 62
     7
370
    18
100
AcDbLine
 10
191.5376817622
 20
110.6115360508
 30
0.0
 11
191.5376817622
 21
107.3758802169
 31
0.0
  0
SPLINE
  5
146
330
1F
100
AcDbEntity
  8
0
  6
HIDDEN
 62
     7
370
    18
100
AcDbSpline
210
0.0
220
0.0
230
1.0
 70
     8
 71
     3
 72
     8
 73
     4
 74
     0
 42
0.000000001
 43
0.00000001
 40
0.0
 40
0.0
 40
0.0
 40
0.0
 40
1.0
 40
1.0
 40
1.0
 40
1.0
 10
194.4376817621718
 20
108.5690479262823
 30
0.0
 10
193.8145396733374
 20
109.2148225023519
 30
0.0
 10
193.2267634860602
 20
109.8876705725991
 30
0.0
 10
192.7056309546029
 20
110.6115360508117
 30
0.0
  0
LINE
  5
147
330
1F
100
AcDbEntity
  8
0
  6
HIDDEN
 62
     7
370
    18
100
AcDbLine
 10
191.5376817622
 20
104.2357168902
 30
0.0
 11
194.4376817622
 21
104.2357168902
 31
0.0
  0
LINE
  5
148
330
1F
100
AcDbEntity
  8
0
  6
HIDDEN
 62
     7
370
    18
100
AcDbLine
 10
194.4376817622
 20
104.2357168902
 30
0.0
 11
194.4376817622
 21
104.1759060865
 31
0.0
  0
LINE
  5
149
330
1F
100
AcDbEntity
  8
0
  6
HIDDEN
 62
     7
370
    18
100
AcDbLine
 10
191.5376817622
 20
107.3758802169
 30
0.0
 11
191.5376817622
 21
104.1758802169
 31
0.0
  0
LINE
  5
14A
330
1F
100
AcDbEntity
  8
0
  6
HIDDEN
 62
     7
370
    18
100
AcDbLine
 10
190.7376817622
 20
105.9758802169
 30
0.0
 11
190.7376817622
 21
123.9758802169
 31
0.0
  0
LINE
  5
14B
330
1F
100
AcDbEntity
  8
0
  6
HIDDEN
 62
     7
370
    18
100
AcDbLine
 10
175.8876817622
 20
106.3758802169
 30
0.0
 11
175.8876817622
 21
123.5758801988
 31
0.0
  0
LINE
  5
14C
330
1F
100
AcDbEntity
  8
0
  6
HIDDEN
 62
     7
370
    18
100
AcDbLine
 10
177.8876817622
 20
105.9758802169
 30
0.0
 11
177.8876817622
 21
123.9758802169
 31
0.0
  0
SPLINE
  5
14D
330
1F
100
AcDbEntity
  8
0
  6
HIDDEN
 62
     7
370
    18
100
AcDbSpline
210
0.0
220
0.0
230
1.0
 70
     8
 71
     3
 72
    32
 73
    28
 74
     0
 42
0.000000001
 43
0.00000001
 40
0.0
 40
0.0
 40
0.0
 40
0.0
 40
0.0530913830450177
 40
0.1124715637447093
 40
0.1778681380175409
 40
0.2010539944024373
 40
0.224919169061925
 40
0.2494652492242469
 40
0.2912306342374691
 40
0.3260725984824157
 40
0.3539874296196211
 40
0.3749724804390361
 40
0.4414294108133252
 40
0.5001463616688309
 40
0.5546604623450223
 40
0.6144040045853755
 40
0.6794286237904457
 40
0.7023239270781556
 40
0.7258146418107587
 40
0.7499020011267964
 40
0.7913660495524336
 40
0.8260326047417663
 40
0.8538978829229671
 40
0.8749590320268277
 40
0.9411447677183767
 40
0.9998946222276919
 40
1.0
 40
1.0
 40
1.0
 40
1.0
 10
134.8871388605652
 20
77.8759763202062
 30
0.0
 10
134.8709523028246
 20
77.88087074525755
 30
0.0
 10
134.8366618519773
 20
77.89123935137751
 30
0.0
 10
134.5354054904258
 20
77.96692556221089
 30
0.0
 10
134.1259956771632
 20
78.05591885650196
 30
0.0
 10
133.7309787735057
 20
78.1363425797752
 30
0.0
 10
133.453304468989
 20
78.19112683634688
 30
0.0
 10
133.0716469031877
 20
78.26540195600401
 30
0.0
 10
132.5970004933452
 20
78.35070783734082
 30
0.0
 10
132.0588645246376
 20
78.43640341981423
 30
0.0
 10
131.6008144054822
 20
78.50368660228786
 30
0.0
 10
130.9452509214419
 20
78.59203701130672
 30
0.0
 10
130.0619428746098
 20
78.68869440344821
 30
0.0
 10
128.9332856427409
 20
78.77546732427771
 30
0.0
 10
127.8435088012696
 20
78.81355519042535
 30
0.0
 10
126.7475429189605
 20
78.81536723680524
 30
0.0
 10
125.9082187585231
 20
78.79124399481036
 30
0.0
 10
125.3288549207317
 20
78.76232079843648
 30
0.0
 10
124.9814468683659
 20
78.74084092569723
 30
0.0
 10
124.570009625848
 20
78.70903801034049
 30
0.0
 10
124.1524466675934
 20
78.67143704759732
 30
0.0
 10
123.7812721505631
 20
78.63439460799371
 30
0.0
 10
123.5271819222079
 20
78.60569576114028
 30
0.0
 10
123.2263014331862
 20
78.56933984031241
 30
0.0
 10
122.968817401303
 20
78.53625978035778
 30
0.0
 10
122.8748445699938
 20
78.52071183287596
 30
0.0
 10
122.887730218134
 20
78.5227943311872
 30
0.0
 10
122.887753289335
 20
78.52279805981121
 30
0.0
  0
SPLINE
  5
14E
330
1F
100
AcDbEntity
  8
0
  6
HIDDEN
 62
     7
370
    18
100
AcDbSpline
210
0.0
220
0.0
230
1.0
 70
     8
 71
     3
 72
    32
 73
    28
 74
     0
 42
0.000000001
 43
0.00000001
 40
0.0
 40
0.0
 40
0.0
 40
0.0
 40
0.0001365463951128
 40
0.0227330363907712
 40
0.0465278952166594
 40
0.0715234378543145
 40
0.0977216452085423
 40
0.1251242215357472
 40
0.1547111610689976
 40
0.1963877721909405
 40
0.2501395886037003
 40
0.3205510573706643
 40
0.3856326166075131
 40
0.4454228471503656
 40
0.4999732356430037
 40
0.5225374935498781
 40
0.5463121218354119
 40
0.5713013225036894
 40
0.5975086980586619
 40
0.6249373557046717
 40
0.6542107749098028
 40
0.6958870944268505
 40
0.749951921951107
 40
0.8216078858611382
 40
0.8871561397381502
 40
0.9466485392687799
 40
1.0
 40
1.0
 40
1.0
 40
1.0
 10
122.8877976334827
 20
151.4288874459895
 30
0.0
 10
122.8877588459566
 20
151.4288959032534
 30
0.0
 10
122.8813012734753
 20
151.4303039176372
 30
0.0
 10
122.9012589390617
 20
151.4264462495422
 30
0.0
 10
122.9461006137799
 20
151.4198575924168
 30
0.0
 10
123.0344386297769
 20
151.4072900060195
 30
0.0
 10
123.1643353156414
 20
151.3901118551709
 30
0.0
 10
123.3443406685391
 20
151.3679805534301
 30
0.0
 10
123.6089853659329
 20
151.3359331977446
 30
0.0
 10
124.0224438913299
 20
151.2922536843751
 30
0.0
 10
124.6987120884401
 20
151.2292103381071
 30
0.0
 10
125.6371476537805
 20
151.167913884885
 30
0.0
 10
126.7466479504757
 20
151.1366230748172
 30
0.0
 10
127.8440996506615
 20
151.1382859532513
 30
0.0
 10
128.7074704703553
 20
151.1682932282388
 30
0.0
 10
129.3413404567505
 20
151.2086839821817
 30
0.0
 10
129.7867481597794
 20
151.2434546813352
 30
0.0
 10
130.2490360603195
 20
151.2859830595161
 30
0.0
 10
130.7244092721074
 20
151.3363535985578
 30
0.0
 10
131.2119005634658
 20
151.3945472054757
 30
0.0
 10
131.7684489987331
 20
151.4713138820522
 30
0.0
 10
132.4350452161709
 20
151.5729450071879
 30
0.0
 10
133.2363827315244
 20
151.7150907285998
 30
0.0
 10
133.9888913004096
 20
151.8663328797634
 30
0.0
 10
134.5341769978671
 20
151.9841841087351
 30
0.0
 10
134.8368892399057
 20
152.060410831096
 30
0.0
 10
134.8711791182288
 20
152.0708628646357
 30
0.0
 10
134.8873910334593
 20
152.0758044826879
 30
0.0
  0
LINE
  5
14F
330
1F
100
AcDbEntity
  8
0
  6
HIDDEN
 62
     7
370
    18
100
AcDbLine
 10
191.5376817622
 20
127.1508802169
 30
0.0
 11
191.5376817622
 21
125.7758802169
 31
0.0
  0
LINE
  5
150
330
1F
100
AcDbEntity
  8
0
  6
HIDDEN
 62
     7
370
    18
100
AcDbLine
 10
191.5376817622
 20
104.1758802169
 30
0.0
 11
191.5376817622
 21
102.8008802169
 31
0.0
  0
LINE
  5
151
330
1F
100
AcDbEntity
  8
0
  6
HIDDEN
 62
     7
370
    18
100
AcDbLine
 10
167.1497107831
 20
153.9268429778
 30
0.0
 11
167.1497107831
 21
146.3258802169
 31
0.0
  0
LINE
  5
152
330
1F
100
AcDbEntity
  8
0
  6
HIDDEN
 62
     7
370
    18
100
AcDbLine
 10
161.9776817622
 20
149.6901154094
 30
0.0
 11
161.9776817622
 21
146.3258802169
 31
0.0
  0
LINE
  5
153
330
1F
100
AcDbEntity
  8
0
  6
HIDDEN
 62
     7
370
    18
100
AcDbLine
 10
165.7976817622
 20
149.6901154094
 30
0.0
 11
165.7976817622
 21
146.3258802169
 31
0.0
  0
CIRCLE
  5
154
330
1F
100
AcDbEntity
  8
0
  6
HIDDEN
 62
     7
370
    18
100
AcDbCircle
 10
150.8876817622
 20
114.9758802169
 30
0.0
 40
5.000000000000014
  0
LINE
  5
155
330
1F
100
AcDbEntity
  8
0
  6
HIDDEN
 62
     7
370
    18
100
AcDbLine
 10
143.8876817622
 20
75.5711972603
 30
0.0
 11
143.9772833861
 21
76.2087459422
 31
0.0
  0
LINE
  5
156
330
1F
100
AcDbEntity
  8
0
  6
HIDDEN
 62
     7
370
    18
100
AcDbLine
 10
143.9772833861
 20
153.7430144915
 30
0.0
 11
143.8876817622
 21
154.3805631735
 31
0.0
  0
ARC
  5
157
330
1F
100
AcDbEntity
  8
0
  6
HIDDEN
 62
     7
370
    18
100
AcDbCircle
 10
142.9907448437
 20
76.3473948924
 30
0.0
 40
0.9962338214387002
100
AcDbArc
 50
352.0
 51
0.0
  0
ARC
  5
158
330
1F
100
AcDbEntity
  8
0
  6
HIDDEN
 62
     7
370
    18
100
AcDbCircle
 10
142.9907448437
 20
76.3473948924
 30
0.0
 40
0.9962338214386932
100
AcDbArc
 50
0.0
 51
25.7988228126
  0
ARC
  5
159
330
1F
100
AcDbEntity
  8
0
  6
HIDDEN
 62
     7
370
    18
100
AcDbCircle
 10
142.9907448437
 20
153.6043655413
 30
0.0
 40
0.9962338214387022
100
AcDbArc
 50
348.75
 51
8.0
  0
LWPOLYLINE
  5
15A
330
1F
100
AcDbEntity
  8
0
  6
HIDDEN
 62
     7
370
    18
100
AcDbPolyline
 90
        3
 70
   128
 43
0.0
 10
143.9678363116
 20
153.4100099643
 10
143.9111448809
 20
153.2231233631
 10
143.8876817622
 20
153.1707920282
  0
LINE
  5
15B
330
1F
100
AcDbEntity
  8
0
  6
HIDDEN
 62
     7
370
    18
100
AcDbLine
 10
143.9869786652
 20
76.3473948924
 30
0.0
 11
143.9869786652
 21
153.6043655413
 31
0.0
  0
ARC
  5
15C
330
1F
100
AcDbEntity
  8
0
  6
HIDDEN
 62
     7
370
    18
100
AcDbCircle
 10
134.1408874174
 20
95.4758802169
 30
0.0
 40
11.99999999999999
100
AcDbArc
 50
273.5588755279
 51
324.3146652873
  0
ARC
  5
15D
330
1F
100
AcDbEntity
  8
0
  6
HIDDEN
 62
     7
370
    18
100
AcDbCircle
 10
134.1408874174
 20
134.4758802169
 30
0.0
 40
12.00000000000001
100
AcDbArc
 50
35.6853347127
 51
86.4414242106
  0
LINE
  5
15E
330
1F
100
AcDbEntity
  8
0
  6
HIDDEN
 62
     7
370
    18
100
AcDbLine
 10
117.3484077043
 20
83.4758802169
 30
0.0
 11
122.9065988765
 21
83.4758802169
 31
0.0
  0
LINE
  5
15F
330
1F
100
AcDbEntity
  8
0
  6
HIDDEN
 62
     7
370
    18
100
AcDbLine
 10
122.9065988765
 20
146.4758802169
 30
0.0
 11
117.3484077043
 21
146.4758802169
 31
0.0
  0
ARC
  5
160
330
1F
100
AcDbEntity
  8
0
  6
HIDDEN
 62
     7
370
    18
100
AcDbCircle
 10
117.3484077043
 20
84.4758802169
 30
0.0
 40
1.000000000000008
100
AcDbArc
 50
210.0
 51
270.0
  0
ARC
  5
161
330
1F
100
AcDbEntity
  8
0
  6
HIDDEN
 62
     7
370
    18
100
AcDbCircle
 10
117.3484077043
 20
145.4758802169
 30
0.0
 40
1.0
100
AcDbArc
 50
90.0
 51
150.0
  0
LINE
  5
162
330
1F
100
AcDbEntity
  8
0
  6
HIDDEN
 62
     7
370
    18
100
AcDbLine
 10
116.4823823006
 20
145.9758802169
 30
0.0
 11
113.8843060892
 21
141.4758802169
 31
0.0
  0
LINE
  5
163
330
1F
100
AcDbEntity
  8
0
  6
HIDDEN
 62
     7
370
    18
100
AcDbLine
 10
113.8843060892
 20
88.4758802169
 30
0.0
 11
116.4823823006
 21
83.9758802169
 31
0.0
  0
ARC
  5
164
330
1F
100
AcDbEntity
  8
0
  6
HIDDEN
 62
     7
370
    18
100
AcDbCircle
 10
154.3376817622
 20
90.1008802169
 30
0.0
 40
2.000000000000015
100
AcDbArc
 50
234.3409123039
 51
0.0
  0
ARC
  5
165
330
1F
100
AcDbEntity
  8
0
  6
HIDDEN
 62
     7
370
    18
100
AcDbCircle
 10
154.3376817622
 20
139.8508802169
 30
0.0
 40
2.000000000000003
100
AcDbArc
 50
0.0
 51
125.6590876961
  0
LINE
  5
166
330
1F
100
AcDbEntity
  8
0
  6
HIDDEN
 62
     7
370
    18
100
AcDbLine
 10
109.0876817622
 20
88.4758802169
 30
0.0
 11
113.8843060892
 21
88.4758802169
 31
0.0
  0
LINE
  5
167
330
1F
100
AcDbEntity
  8
0
  6
HIDDEN
 62
     7
370
    18
100
AcDbLine
 10
113.8843060892
 20
141.4758802169
 30
0.0
 11
104.0876817622
 21
141.4758802169
 31
0.0
  0
LINE
  5
168
330
1F
100
AcDbEntity
  8
0
  6
HIDDEN
 62
     7
370
    18
100
AcDbLine
 10
143.8876817622
 20
88.4758802169
 30
0.0
 11
153.1717593805
 21
88.4758802169
 31
0.0
  0
LINE
  5
169
330
1F
100
AcDbEntity
  8
0
  6
HIDDEN
 62
     7
370
    18
100
AcDbLine
 10
153.1717593805
 20
141.4758802169
 30
0.0
 11
143.8876817622
 21
141.4758802169
 31
0.0
  0
LINE
  5
16A
330
1F
100
AcDbEntity
  8
0
  6
HIDDEN
 62
     7
370
    18
100
AcDbLine
 10
194.8876817622
 20
128.4758802169
 30
0.0
 11
194.4376817622
 21
127.5108521027
 31
0.0
  0
LINE
  5
16B
330
1F
100
AcDbEntity
  8
0
  6
HIDDEN
 62
     7
370
    18
100
AcDbLine
 10
194.4376817622
 20
102.4409083311
 30
0.0
 11
194.8876817622
 21
101.4758802169
 31
0.0
  0
LINE
  5
16C
330
1F
100
AcDbEntity
  8
0
  6
HIDDEN
 62
     7
370
    18
100
AcDbLine
 10
168.1876817622
 20
101.9758802169
 30
0.0
 11
172.1876817622
 21
101.9758802169
 31
0.0
  0
LINE
  5
16D
330
1F
100
AcDbEntity
  8
0
  6
HIDDEN
 62
     7
370
    18
100
AcDbLine
 10
172.1876817622
 20
127.9758802169
 30
0.0
 11
168.1876817622
 21
127.9758802169
 31
0.0
  0
LINE
  5
16E
330
1F
100
AcDbEntity
  8
0
  6
HIDDEN
 62
     7
370
    18
100
AcDbLine
 10
156.3376817622
 20
102.9758802169
 30
0.0
 11
157.0876817622
 21
103.7258802169
 31
0.0
  0
LINE
  5
16F
330
1F
100
AcDbEntity
  8
0
  6
HIDDEN
 62
     7
370
    18
100
AcDbLine
 10
157.0876817622
 20
126.2258802169
 30
0.0
 11
156.3376817622
 21
126.9758802169
 31
0.0
  0
LINE
  5
170
330
1F
100
AcDbEntity
  8
0
  6
HIDDEN
 62
     7
370
    18
100
AcDbLine
 10
157.0876817622
 20
103.7258802169
 30
0.0
 11
168.1876817622
 21
103.7258802169
 31
0.0
  0
LINE
  5
171
330
1F
100
AcDbEntity
  8
0
  6
HIDDEN
 62
     7
370
    18
100
AcDbLine
 10
168.1876817622
 20
126.2258802169
 30
0.0
 11
157.0876817622
 21
126.2258802169
 31
0.0
  0
LINE
  5
172
330
1F
100
AcDbEntity
  8
0
  6
HIDDEN
 62
     7
370
    18
100
AcDbLine
 10
148.8376817622
 20
164.9758802169
 30
0.0
 11
148.8376817622
 21
158.8758802169
 31
0.0
  0
LINE
  5
173
330
1F
100
AcDbEntity
  8
0
  6
HIDDEN
 62
     7
370
    18
100
AcDbLine
 10
194.4348602019
 20
125.7758802169
 30
0.0
 11
191.5376817622
 21
125.7758802169
 31
0.0
  0
LINE
  5
174
330
1F
100
AcDbEntity
  8
0
  6
HIDDEN
 62
     7
370
    18
100
AcDbLine
 10
191.5376817622
 20
104.1758802169
 30
0.0
 11
194.4376817622
 21
104.1758802169
 31
0.0
  0
LINE
  5
175
330
1F
100
AcDbEntity
  8
0
  6
HIDDEN
 62
     7
370
    18
100
AcDbLine
 10
191.5376817622
 20
124.4377604322
 30
0.0
 11
190.7376817622
 21
123.9758802169
 31
0.0
  0
LINE
  5
176
330
1F
100
AcDbEntity
  8
0
  6
HIDDEN
 62
     7
370
    18
100
AcDbLine
 10
190.7376817622
 20
105.9758802169
 30
0.0
 11
191.5376817622
 21
105.5140000015
 31
0.0
  0
ARC
  5
177
330
1F
100
AcDbEntity
  8
0
  6
HIDDEN
 62
     7
370
    18
100
AcDbCircle
 10
176.4876817622
 20
106.3758802169
 30
0.0
 40
0.6000000000000085
100
AcDbArc
 50
180.0
 51
270.0
  0
ARC
  5
178
330
1F
100
AcDbEntity
  8
0
  6
HIDDEN
 62
     7
370
    18
100
AcDbCircle
 10
176.4876817622
 20
123.5758802169
 30
0.0
 40
0.6000000000000085
100
AcDbArc
 50
90.0
 51
180.0
  0
LINE
  5
179
330
1F
100
AcDbEntity
  8
0
  6
HIDDEN
 62
     7
370
    18
100
AcDbLine
 10
176.4876817622
 20
105.7758802169
 30
0.0
 11
177.0622801021
 21
105.7758802169
 31
0.0
  0
LINE
  5
17A
330
1F
100
AcDbEntity
  8
0
  6
HIDDEN
 62
     7
370
    18
100
AcDbLine
 10
177.0622801021
 20
124.1758802169
 30
0.0
 11
176.4876817622
 21
124.1758802169
 31
0.0
  0
ARC
  5
17B
330
1F
100
AcDbEntity
  8
0
  6
HIDDEN
 62
     7
370
    18
100
AcDbCircle
 10
177.0622801021
 20
106.3758802169
 30
0.0
 40
0.6000000000000085
100
AcDbArc
 50
270.0
 51
285.0
  0
ARC
  5
17C
330
1F
100
AcDbEntity
  8
0
  6
HIDDEN
 62
     7
370
    18
100
AcDbCircle
 10
177.0622801021
 20
123.5758802169
 30
0.0
 40
0.6000000000000085
100
AcDbArc
 50
75.0
 51
90.0
  0
LINE
  5
17D
330
1F
100
AcDbEntity
  8
0
  6
HIDDEN
 62
     7
370
    18
100
AcDbLine
 10
177.2175715292
 20
105.7963247211
 30
0.0
 11
177.8876817622
 21
105.9758802169
 31
0.0
  0
LINE
  5
17E
330
1F
100
AcDbEntity
  8
0
  6
HIDDEN
 62
     7
370
    18
100
AcDbLine
 10
177.8876817622
 20
123.9758802169
 30
0.0
 11
177.2175715292
 21
124.1554357127
 31
0.0
  0
LINE
  5
17F
330
1F
100
AcDbEntity
  8
0
  6
HIDDEN
 62
     7
370
    18
100
AcDbLine
 10
177.8876817622
 20
105.9758802169
 30
0.0
 11
190.7376817622
 21
105.9758802169
 31
0.0
  0
LINE
  5
180
330
1F
100
AcDbEntity
  8
0
  6
HIDDEN
 62
     7
370
    18
100
AcDbLine
 10
190.7376817622
 20
123.9758802169
 30
0.0
 11
177.8876817622
 21
123.9758802169
 31
0.0
  0
LINE
  5
181
330
1F
100
AcDbEntity
  8
0
  6
HIDDEN
 62
     7
370
    18
100
AcDbLine
 10
135.3203943782
 20
77.3976006463
 30
0.0
 11
134.8876850917
 21
77.8758253637
 31
0.0
  0
LINE
  5
182
330
1F
100
AcDbEntity
  8
0
  6
HIDDEN
 62
     7
370
    18
100
AcDbLine
 10
122.8876822202
 20
78.5227867203
 30
0.0
 11
122.407054915
 21
78.0445620095
 31
0.0
  0
LINE
  5
183
330
1F
100
AcDbEntity
  8
0
  6
HIDDEN
 62
     7
370
    18
100
AcDbLine
 10
122.4069365735
 20
151.9071925081
 30
0.0
 11
122.8876820375
 21
151.4289128363
 31
0.0
  0
LINE
  5
184
330
1F
100
AcDbEntity
  8
0
  6
HIDDEN
 62
     7
370
    18
100
AcDbLine
 10
134.8876817643
 20
152.0758852236
 30
0.0
 11
135.320503434
 21
152.5541648965
 31
0.0
  0
LINE
  5
185
330
1F
100
AcDbEntity
  8
0
  6
HIDDEN
 62
     7
370
    18
100
AcDbLine
 10
134.8876817622
 20
77.7756965211
 30
0.0
 11
134.8876817622
 21
83.4995543142
 31
0.0
  0
LINE
  5
186
330
1F
100
AcDbEntity
  8
0
  6
HIDDEN
 62
     7
370
    18
100
AcDbLine
 10
122.8876817622
 20
83.4794710402
 30
0.0
 11
122.8876817622
 21
78.5228175784
 31
0.0
  0
LINE
  5
187
330
1F
100
AcDbEntity
  8
0
  6
HIDDEN
 62
     7
370
    18
100
AcDbLine
 10
134.8876817622
 20
146.4522061196
 30
0.0
 11
134.8876817622
 21
152.1758890497
 31
0.0
  0
LINE
  5
188
330
1F
100
AcDbEntity
  8
0
  6
HIDDEN
 62
     7
370
    18
100
AcDbLine
 10
122.8876817622
 20
151.428902337
 30
0.0
 11
122.8876817622
 21
146.4722893936
 31
0.0
  0
LINE
  5
189
330
1F
100
AcDbEntity
  8
0
  6
HIDDEN
 62
     7
370
    18
100
AcDbLine
 10
172.1876817622
 20
108.9758802169
 30
0.0
 11
175.8876817622
 21
108.9758802169
 31
0.0
  0
LINE
  5
18A
330
1F
100
AcDbEntity
  8
0
  6
HIDDEN
 62
     7
370
    18
100
AcDbLine
 10
175.8876817622
 20
120.9758802169
 30
0.0
 11
172.1876817622
 21
120.9758802169
 31
0.0
  0
LINE
  5
18B
330
1F
100
AcDbEntity
  8
0
  6
HIDDEN
 62
     7
370
    18
100
AcDbLine
 10
194.4376817622
 20
127.1508802169
 30
0.0
 11
191.5376817622
 21
127.1508802169
 31
0.0
  0
LINE
  5
18C
330
1F
100
AcDbEntity
  8
0
  6
HIDDEN
 62
     7
370
    18
100
AcDbLine
 10
191.5376817622
 20
102.8008802169
 30
0.0
 11
194.4376817622
 21
102.8008802169
 31
0.0
  0
LINE
  5
18D
330
1F
100
AcDbEntity
  8
0
  6
HIDDEN
 62
     7
370
    18
100
AcDbLine
 10
194.4349882317
 20
125.7758802169
 30
0.0
 11
194.4348602019
 21
125.7758802169
 31
0.0
  0
DIMENSION
  5
18E
330
1F
100
AcDbEntity
  8
VERMASSUNG
100
AcDbDimension
  2
_D
 10
83.7372124012
 20
64.9758802169
 30
0.0
 11
83.7372124012
 21
114.9758802169
 31
0.0
 70
   160
  1
HSK A %%c<>
 71
     2
 42
-1.0
  3
SLDDIMSTYLE0
100
AcDbAlignedDimension
 13
144.3876817622
 23
164.9758802169
 33
0.0
 14
144.3876817622
 24
64.9758802169
 34
0.0
 50
90.0
100
AcDbRotatedDimension
  0
DIMENSION
  5
19B
330
1F
100
AcDbEntity
  8
VERMASSUNG
100
AcDbDimension
  2
_D_1
 10
194.8876817622
 20
183.2766320966
 30
0.0
 11
144.4376817622
 21
183.2766320966
 31
0.0
 70
   160
  1
<>
 71
     2
 42
-1.0
  3
SLDDIMSTYLE0
100
AcDbAlignedDimension
 13
93.9876817622
 23
145.4785499595
 33
0.0
 14
194.8876817622
 24
130.6758802169
 34
0.0
100
AcDbRotatedDimension
  0
DIMENSION
  5
1A5
330
1F
100
AcDbEntity
  8
VERMASSUNG
100
AcDbDimension
  2
_D_2
 10
194.8876817622
 20
177.2766320966
 30
0.0
 11
169.3876817622
 21
177.2766320966
 31
0.0
 70
   160
  1
<>
 71
     2
 42
-1.0
  3
SLDDIMSTYLE0
100
AcDbAlignedDimension
 13
143.8876817622
 23
164.4758802169
 33
0.0
 14
194.8876817622
 24
128.4758802169
 34
0.0
100
AcDbRotatedDimension
  0
DIMENSION
  5
1AF
330
1F
100
AcDbEntity
  8
VERMASSUNG
100
AcDbDimension
  2
_D_3
 10
194.8876817622
 20
171.2766320966
 30
0.0
 11
183.8626817622
 21
171.2766320966
 31
0.0
 70
   160
  1
<>
 71
     2
 42
-1.0
  3
SLDDIMSTYLE0
100
AcDbAlignedDimension
 13
172.8376817622
 23
162.9446200377
 33
0.0
 14
194.8876817622
 24
130.6758802169
 34
0.0
100
AcDbRotatedDimension
  0
DIMENSION
  5
1B9
330
1F
100
AcDbEntity
  8
VERMASSUNG
100
AcDbDimension
  2
_D_4
 10
206.9764035667
 20
98.9758802169
 30
0.0
 11
206.9764035667
 21
114.9758802169
 31
0.0
 70
   160
  1
MBM %%c<>
 71
     2
 42
-1.0
  3
SLDDIMSTYLE0
100
AcDbAlignedDimension
 13
194.5876817622
 23
130.9758802169
 33
0.0
 14
194.5876817622
 24
98.9758802169
 34
0.0
 50
90.0
100
AcDbRotatedDimension
  0
INSERT
  5
1CA
330
1F
100
AcDbEntity
  8
VERMASSUNG
100
AcDbBlockReference
  2
SW_NOTE_0
 10
149.8980632008
 20
55.949959105
 30
0.0
  0
LEADER
  5
1D1
330
1F
100
AcDbEntity
  8
VERMASSUNG
100
AcDbLeader
  3
SLDDIMSTYLE1
 76
     2
 10
154.3292062415
 20
75.9134388603
 30
0.0
 10
149.8980632008
 20
55.949959105
 30
0.0
  0
INSERT
  5
1D7
330
1F
100
AcDbEntity
  8
VERMASSUNG
100
AcDbBlockReference
  2
SW_NOTE_1
 10
186.7991845056
 20
89.9968500326
 30
0.0
  0
LEADER
  5
1D8
330
1F
100
AcDbEntity
  8
VERMASSUNG
100
AcDbLeader
  3
SLDDIMSTYLE1
 76
     2
 10
185.4904096283
 20
112.9758802169
 30
0.0
 10
186.7991845056
 20
89.9968500326
 30
0.0
  0
LINE
  5
1D9
330
1F
100
AcDbEntity
  8
VERMASSUNG
  6
CENTERX2
 62
     7
370
    18
100
AcDbLine
 10
91.7372124012
 20
114.9758802169
 30
0.0
 11
196.8876817622
 21
114.9758802169
 31
0.0
  0
LINE
  5
1DA
330
1F
100
AcDbEntity
  8
0
  6
Continuous
 62
     7
370
    25
100
AcDbLine
 10
253.546540269
 20
63.1118369461
 30
0.0
 11
253.3697348495
 21
63.2139377199
 31
0.0
  0
LINE
  5
1DB
330
1F
100
AcDbEntity
  8
0
  6
Continuous
 62
     7
370
    25
100
AcDbLine
 10
250.8944589768
 20
63.2139377199
 30
0.0
 11
250.7176535574
 21
63.1118369461
 31
0.0
  0
LINE
  5
1DC
330
1F
100
AcDbEntity
  8
0
  6
Continuous
 62
     7
370
    25
100
AcDbLine
 10
254.1320969132
 20
61.9893587083
 30
0.0
 11
254.1320969132
 21
62.2955615128
 31
0.0
  0
LINE
  5
1DD
330
1F
100
AcDbEntity
  8
0
  6
Continuous
 62
     7
370
    25
100
AcDbLine
 10
250.1320969132
 20
62.2955615128
 30
0.0
 11
250.1320969132
 21
61.9893587083
 31
0.0
  0
LINE
  5
1DE
330
1F
100
AcDbEntity
  8
0
  6
Continuous
 62
     7
370
    25
100
AcDbLine
 10
225.0667130628
 20
42.7251522129
 30
0.0
 11
230.8077027588
 21
39.4109494062
 31
0.0
  0
LINE
  5
1DF
330
1F
100
AcDbEntity
  8
0
  6
Continuous
 62
     7
370
    25
100
AcDbLine
 10
252.2510751874
 20
84.7654170524
 30
0.0
 11
250.0646813787
 21
86.027595332
 31
0.0
  0
SPLINE
  5
1E0
330
1F
100
AcDbEntity
  8
0
  6
Continuous
 62
     7
370
    25
100
AcDbSpline
210
0.0
220
0.0
230
1.0
 70
     8
 71
     3
 72
    17
 73
    13
 74
     0
 42
0.000000001
 43
0.00000001
 40
0.0
 40
0.0
 40
0.0
 40
0.0
 40
0.036174654666857
 40
0.1557932029039932
 40
0.2754240557473242
 40
0.3950706663700645
 40
0.5147363259425813
 40
0.6344239988604697
 40
0.7541360526065305
 40
0.8738738332177246
 40
0.9873299418978214
 40
1.0
 40
1.0
 40
1.0
 40
1.0
 10
222.8458035379215
 20
67.42359575540401
 30
0.0
 10
222.7728756619628
 20
67.26247366626558
 30
0.0
 10
222.4587975461872
 20
66.5685699771598
 30
0.0
 10
221.9785060814571
 20
65.32719871590638
 30
0.0
 10
221.4105921604676
 20
63.70935536944963
 30
0.0
 10
220.9289438371561
 20
62.09353609752782
 30
0.0
 10
220.5291768017518
 20
60.48926953321003
 30
0.0
 10
220.2152255429397
 20
58.9041462128576
 30
0.0
 10
219.9881393438431
 20
57.34606516466031
 30
0.0
 10
219.8521814898974
 20
55.84979303349079
 30
0.0
 10
219.8159883132696
 20
54.83521905680619
 30
0.0
 10
219.8149124615184
 20
54.32461621572715
 30
0.0
 10
219.81480438637
 20
54.27332338864253
 30
0.0
  0
SPLINE
  5
1E1
330
1F
100
AcDbEntity
  8
0
  6
Continuous
 62
     7
370
    25
100
AcDbSpline
210
0.0
220
0.0
230
1.0
 70
     8
 71
     3
 72
    22
 73
    18
 74
     0
 42
0.000000001
 43
0.00000001
 40
0.0
 40
0.0
 40
0.0
 40
0.0
 40
0.0158175960553749
 40
0.0895298461967488
 40
0.1633061306727131
 40
0.2371213724763086
 40
0.3109560987733169
 40
0.3847955003354651
 40
0.4586294636311416
 40
0.5324536803036108
 40
0.6062661823908797
 40
0.6800665799373727
 40
0.753855508057232
 40
0.8276342449948502
 40
0.9014044586360421
 40
0.9751680445268384
 40
1.0
 40
1.0
 40
1.0
 40
1.0
 10
242.6393024245962
 20
86.89397269569108
 30
0.0
 10
242.5536056663843
 20
86.87765275350311
 30
0.0
 10
242.0685498111573
 20
86.78527955665862
 30
0.0
 10
241.1601400365405
 20
86.50539331120196
 30
0.0
 10
239.9201714563384
 20
86.05100996167039
 30
0.0
 10
238.6664154245498
 20
85.47766550822112
 30
0.0
 10
237.4080030877268
 20
84.80068500599725
 30
0.0
 10
236.1505875859107
 20
84.02031623909743
 30
0.0
 10
234.9006879319307
 20
83.14150010936282
 30
0.0
 10
233.6644810347849
 20
82.16852908679863
 30
0.0
 10
232.4481404226965
 20
81.10640586383461
 30
0.0
 10
231.2575941740132
 20
79.96057911763717
 30
0.0
 10
230.0990899253518
 20
78.7365304660587
 30
0.0
 10
228.9770551935656
 20
77.44155539037179
 30
0.0
 10
227.901942418215
 20
76.0779004885799
 30
0.0
 10
227.0910230322742
 20
74.97992924433092
 30
0.0
 10
226.6590936719637
 20
74.32262335135704
 30
0.0
 10
226.5503093345139
 20
74.15707640632509
 30
0.0
  0
SPLINE
  5
1E2
330
1F
100
AcDbEntity
  8
0
  6
Continuous
 62
     7
370
    25
100
AcDbSpline
210
0.0
220
0.0
230
1.0
 70
     8
 71
     3
 72
    12
 73
     8
 74
     0
 42
0.000000001
 43
0.00000001
 40
0.0
 40
0.0
 40
0.0
 40
0.0
 40
0.1172681636464731
 40
0.3400425421722653
 40
0.5628726599457787
 40
0.785675981892723
 40
1.0
 40
1.0
 40
1.0
 40
1.0
 10
219.81480438637
 20
54.27332338864253
 30
0.0
 10
219.8173087079281
 20
54.01978618397018
 30
0.0
 10
219.8245704901762
 20
53.28460424770367
 30
0.0
 10
219.9046583321442
 20
52.10794392572878
 30
0.0
 10
220.0864086502829
 20
50.77105322539319
 30
0.0
 10
220.3478733524211
 20
49.51236448132343
 30
0.0
 10
220.5933149235014
 20
48.74107099107754
 30
0.0
 10
220.713655197157
 20
48.36290494008428
 30
0.0
  0
LINE
  5
1E3
330
1F
100
AcDbEntity
  8
0
  6
Continuous
 62
     7
370
    25
100
AcDbLine
 10
255.3149968264
 20
47.5986563174
 30
0.0
 11
255.4210456049
 21
47.6598968775
 31
0.0
  0
LINE
  5
1E4
330
1F
100
AcDbEntity
  8
0
  6
Continuous
 62
     7
370
    25
100
AcDbLine
 10
260.970931678
 20
57.2736231996
 30
0.0
 11
260.970931678
 21
57.3960844164
 31
0.0
  0
LINE
  5
1E5
330
1F
100
AcDbEntity
  8
0
  6
Continuous
 62
     7
370
    25
100
AcDbLine
 10
245.0388298149
 20
50.8248720662
 30
0.0
 11
251.314402498
 21
47.20206107
 31
0.0
  0
LINE
  5
1E6
330
1F
100
AcDbEntity
  8
0
  6
Continuous
 62
     7
370
    25
100
AcDbLine
 10
259.3137523591
 20
61.0588428681
 30
0.0
 11
253.038179676
 21
64.6816538643
 31
0.0
  0
LINE
  5
1E7
330
1F
100
AcDbEntity
  8
0
  6
Continuous
 62
     7
370
    25
100
AcDbLine
 10
238.267343947
 20
85.2459714274
 30
0.0
 11
228.9973245154
 21
89.8645507824
 31
0.0
  0
LINE
  5
1E8
330
1F
100
AcDbEntity
  8
0
  6
Continuous
 62
     7
370
    25
100
AcDbLine
 10
211.2086017601
 20
59.0502403736
 30
0.0
 11
219.839048146
 21
53.3355172308
 31
0.0
  0
SPLINE
  5
1E9
330
1F
100
AcDbEntity
  8
0
  6
Continuous
 62
     7
370
    25
100
AcDbSpline
210
0.0
220
0.0
230
1.0
 70
     8
 71
     3
 72
    36
 73
    32
 74
     0
 42
0.000000001
 43
0.00000001
 40
0.0
 40
0.0
 40
0.0
 40
0.0
 40
0.0126505760519927
 40
0.0487392093948463
 40
0.0849598320511663
 40
0.1213121857592449
 40
0.1577789794924448
 40
0.1943342397706159
 40
0.2309506282744777
 40
0.2676040971461228
 40
0.3042758819802145
 40
0.3409514857738313
 40
0.3776213870153219
 40
0.414281483321888
 40
0.4509299509156748
 40
0.4875664995785425
 40
0.5241918320832455
 40
0.5608072716792177
 40
0.5974145158479107
 40
0.63401547980815
 40
0.6706122013439858
 40
0.7072067860239327
 40
0.7438013776835699
 40
0.7803976691802016
 40
0.816997594607225
 40
0.853603340194417
 40
0.8902170778364926
 40
0.926840927857438
 40
0.963476891287174
 40
0.9982035612537857
 40
1.0
 40
1.0
 40
1.0
 40
1.0
 10
237.6941566061252
 20
36.08012662042796
 30
0.0
 10
237.8174999874613
 20
36.05425810616264
 30
0.0
 10
238.2927082993756
 20
35.95459379614788
 30
0.0
 10
239.1666619417385
 20
35.89920526687372
 30
0.0
 10
240.3100431004816
 20
35.91472815233745
 30
0.0
 10
241.4920629600429
 20
36.05346123811126
 30
0.0
 10
242.7028173906575
 20
36.30511742471111
 30
0.0
 10
243.9370369322028
 20
36.67125690125841
 30
0.0
 10
245.1878996649924
 20
37.14928853042197
 30
0.0
 10
246.4488908071057
 20
37.73682395829282
 30
0.0
 10
247.7134272613922
 20
38.43059241415381
 30
0.0
 10
248.9750360569923
 20
39.22682473244432
 30
0.0
 10
250.2273636215224
 20
40.12124161623529
 30
0.0
 10
251.464201613368
 20
41.10913434032739
 30
0.0
 10
252.6794813421629
 20
42.18539248354643
 30
0.0
 10
253.8672590478901
 20
43.344511691039
 30
0.0
 10
255.0217307385396
 20
44.58061425897377
 30
0.0
 10
256.1372516184752
 20
45.88747159710428
 30
0.0
 10
257.2083584398013
 20
47.25852899018005
 30
0.0
 10
258.2297935962426
 20
48.68693325149682
 30
0.0
 10
259.1965295852822
 20
50.16556309467655
 30
0.0
 10
260.1037938800055
 20
51.68706228493502
 30
0.0
 10
260.9470864943436
 20
53.24386730979043
 30
0.0
 10
261.7222129222333
 20
54.82824956445576
 30
0.0
 10
262.4252772786166
 20
56.43234722941597
 30
0.0
 10
263.0528125427424
 20
58.04824982860232
 30
0.0
 10
263.601382036445
 20
59.66789311359349
 30
0.0
 10
264.0691245809161
 20
61.28362266474854
 30
0.0
 10
264.4433696092048
 20
62.85821668332148
 30
0.0
 10
264.6478508069478
 20
63.91396534127674
 30
0.0
 10
264.7287539662532
 20
64.43406299253222
 30
0.0
 10
264.7327332981116
 20
64.45964470245393
 30
0.0
  0
LINE
  5
1EA
330
1F
100
AcDbEntity
  8
0
  6
Continuous
 62
     7
370
    25
100
AcDbLine
 10
233.1143055999
 20
38.0793759294
 30
0.0
 11
234.7717536346
 21
37.1225515455
 31
0.0
  0
SPLINE
  5
1EB
330
1F
100
AcDbEntity
  8
0
  6
Continuous
 62
     7
370
    25
100
AcDbSpline
210
0.0
220
0.0
230
1.0
 70
     8
 71
     3
 72
    15
 73
    11
 74
     0
 42
0.000000001
 43
0.00000001
 40
0.0
 40
0.0
 40
0.0
 40
0.0
 40
0.078329096895316
 40
0.2266194073453893
 40
0.3747937798320249
 40
0.5226727909228615
 40
0.6701349591182373
 40
0.8170750838528624
 40
0.9634394131733035
 40
1.0
 40
1.0
 40
1.0
 40
1.0
 10
264.7458971715661
 20
72.61666472590954
 30
0.0
 10
264.699263695087
 20
72.84270429470905
 30
0.0
 10
264.5643451115592
 20
73.49667523460658
 30
0.0
 10
264.2728216954791
 20
74.52413235119937
 30
0.0
 10
263.8438339234634
 20
75.66813624316667
 30
0.0
 10
263.3279899213077
 20
76.72565238152711
 30
0.0
 10
262.7306448992836
 20
77.69292780891342
 30
0.0
 10
262.0518526045132
 20
78.55964173052035
 30
0.0
 10
261.4927867596226
 20
79.14467969248138
 30
0.0
 10
261.1548220446883
 20
79.42912161036921
 30
0.0
 10
261.0872741755135
 20
79.4859720583843
 30
0.0
  0
SPLINE
  5
1EC
330
1F
100
AcDbEntity
  8
0
  6
Continuous
 62
     7
370
    25
100
AcDbSpline
210
0.0
220
0.0
230
1.0
 70
     8
 71
     3
 72
    30
 73
    26
 74
     0
 42
0.000000001
 43
0.00000001
 40
0.0
 40
0.0
 40
0.0
 40
0.0
 40
0.0302079121816448
 40
0.0744452690227425
 40
0.1188598984124943
 40
0.163643650500749
 40
0.2089011397603806
 40
0.2546400330051235
 40
0.3007901249554134
 40
0.3472402925550876
 40
0.3938754685808423
 40
0.440600416119528
 40
0.4873413693860397
 40
0.5340551591438462
 40
0.5807257840552098
 40
0.6273488066024179
 40
0.6739268714175795
 40
0.7204667213905201
 40
0.7669773560414825
 40
0.8134689647783407
 40
0.859952349258249
 40
0.9064386336920043
 40
0.952935785195728
 40
0.9994548074132215
 40
1.0
 40
1.0
 40
1.0
 40
1.0
 10
229.0421373776221
 20
89.82677638543946
 30
0.0
 10
228.8572672229552
 20
89.92060183997482
 30
0.0
 10
228.4016677655779
 20
90.1518280552149
 30
0.0
 10
227.6111265009715
 20
90.39185333177736
 30
0.0
 10
226.6883510535739
 20
90.56185653893559
 30
0.0
 10
225.7210362046091
 20
90.61277900616886
 30
0.0
 10
224.7169351967933
 20
90.54910038272273
 30
0.0
 10
223.6812392218908
 20
90.36876407785938
 30
0.0
 10
222.6213574474469
 20
90.07251969265161
 30
0.0
 10
221.5453639992082
 20
89.66198456025649
 30
0.0
 10
220.4618046142178
 20
89.14034673741236
 30
0.0
 10
219.379175653657
 20
88.51200488783307
 30
0.0
 10
218.3056381561701
 20
87.78231459985936
 30
0.0
 10
217.2488726552964
 20
86.95728528258357
 30
0.0
 10
216.2160803030814
 20
86.04336784618023
 30
0.0
 10
215.2140949827925
 20
85.04738925861602
 30
0.0
 10
214.2495005912165
 20
83.97657707973863
 30
0.0
 10
213.328616808613
 20
82.83854164987422
 30
0.0
 10
212.4575766306782
 20
81.6412503560923
 30
0.0
 10
211.6419677883383
 20
80.39300431374416
 30
0.0
 10
210.8880438424123
 20
79.10236193337161
 30
0.0
 10
210.1980694577308
 20
77.77824823946699
 30
0.0
 10
209.5875789099553
 20
76.4293953418941
 30
0.0
 10
209.2075703644072
 20
75.51546686481038
 30
0.0
 10
209.0501807647304
 20
75.05428587599697
 30
0.0
 10
209.0483575611917
 20
75.04894354834293
 30
0.0
  0
LINE
  5
1ED
330
1F
100
AcDbEntity
  8
0
  6
Continuous
 62
     7
370
    25
100
AcDbLine
 10
209.433312275
 20
72.7060622504
 30
0.0
 11
213.2179908635
 21
70.5212138071
 31
0.0
  0
LINE
  5
1EE
330
1F
100
AcDbEntity
  8
0
  6
Continuous
 62
     7
370
    25
100
AcDbLine
 10
208.9278725827
 20
74.4732591892
 30
0.0
 11
208.9278725827
 21
73.8232035782
 31
0.0
  0
LINE
  5
1EF
330
1F
100
AcDbEntity
  8
0
  6
Continuous
 62
     7
370
    25
100
AcDbLine
 10
213.3231627833
 20
58.5950174118
 30
0.0
 11
213.3078888549
 21
58.7046766653
 31
0.0
  0
LINE
  5
1F0
330
1F
100
AcDbEntity
  8
0
  6
Continuous
 62
     7
370
    25
100
AcDbLine
 10
208.9278725827
 20
62.3149485414
 30
0.0
 11
208.9278725827
 21
61.6649108892
 31
0.0
  0
SPLINE
  5
1F1
330
1F
100
AcDbEntity
  8
0
  6
Continuous
 62
     7
370
    25
100
AcDbSpline
210
0.0
220
0.0
230
1.0
 70
     8
 71
     3
 72
    11
 73
     7
 74
     0
 42
0.000000001
 43
0.00000001
 40
0.0
 40
0.0
 40
0.0
 40
0.0
 40
0.2572532979614736
 40
0.5590708971506835
 40
0.8574118717863896
 40
1.0
 40
1.0
 40
1.0
 40
1.0
 10
209.0529149350024
 20
61.34410997149046
 30
0.0
 10
209.2018038161609
 20
61.10731379101503
 30
0.0
 10
209.5253737801794
 20
60.59270094014274
 30
0.0
 10
210.1293102469041
 20
59.91862446856026
 30
0.0
 10
210.6996127326716
 20
59.39123359529651
 30
0.0
 10
211.0844251317846
 20
59.14776609027641
 30
0.0
 10
211.2088661798995
 20
59.06903330625894
 30
0.0
  0
LINE
  5
1F2
330
1F
100
AcDbEntity
  8
0
  6
Continuous
 62
     7
370
    25
100
AcDbLine
 10
208.9701376986
 20
61.4686681917
 30
0.0
 11
209.052914935
 21
61.3441099715
 31
0.0
  0
LWPOLYLINE
  5
1F3
330
1F
100
AcDbEntity
  8
0
  6
Continuous
 62
     7
370
    25
100
AcDbPolyline
 90
       23
 70
   128
 43
0.0
 10
250.8946600461
 20
61.7853396179
 10
250.5961586814
 20
62.0155337514
 10
250.4220898977
 20
62.2849518888
 10
250.3865557126
 20
62.571767375
 10
250.4924348944
 20
62.852744125
 10
250.7311497416
 20
63.1051190735
 10
251.0833609968
 20
63.3084463032
 10
251.5205345989
 20
63.4462534512
 10
252.0072533426
 20
63.5073762018
 10
252.5040861699
 20
63.4868627534
 10
252.9707826399
 20
63.3863749835
 10
253.3695337803
 20
63.2140538136
 10
253.6680351449
 20
62.9838596801
 10
253.8421039286
 20
62.7144415427
 10
253.8776381137
 20
62.4276260565
 10
253.7717589319
 20
62.1466493065
 10
253.5330440848
 20
61.894274358
 10
253.1808328296
 20
61.6909471283
 10
252.7436592275
 20
61.5531399804
 10
252.2569404838
 20
61.4920172297
 10
251.7601076565
 20
61.5125306782
 10
251.2934111864
 20
61.6130184481
 10
250.8946600461
 20
61.7853396179
  0
LWPOLYLINE
  5
1F4
330
1F
100
AcDbEntity
  8
0
  6
Continuous
 62
     7
370
    25
100
AcDbPolyline
 90
        7
 70
   128
 43
0.0
 10
250.7178833508
 20
61.479153401
 10
250.3887759731
 20
61.7296923009
 10
250.1889627344
 20
62.0221991316
 10
250.1332628684
 20
62.3349799996
 10
250.2258073796
 20
62.6448373787
 10
250.4597326647
 20
62.9287905647
 10
250.7176535574
 20
63.1118369461
  0
LWPOLYLINE
  5
1F5
330
1F
100
AcDbEntity
  8
0
  6
Continuous
 62
     7
370
    25
100
AcDbPolyline
 90
       13
 70
   128
 43
0.0
 10
253.546540269
 20
63.1118369461
 10
253.725707136
 20
62.9931979985
 10
253.9926537999
 20
62.7191223781
 10
254.1216114709
 20
62.4136331859
 10
254.1030159486
 20
62.0993871579
 10
253.9382463778
 20
61.7996904844
 10
253.6395229638
 20
61.5367702966
 10
253.2290006557
 20
61.330126182
 10
252.7371260149
 20
61.1950839893
 10
252.2003791336
 20
61.1416591803
 10
251.6585680722
 20
61.1738140284
 10
251.1518764788
 20
61.2891637559
 10
250.7178833508
 20
61.479153401
  0
LWPOLYLINE
  5
1F6
330
1F
100
AcDbEntity
  8
0
  6
Continuous
 62
     7
370
    25
100
AcDbPolyline
 90
       19
 70
   128
 43
0.0
 10
251.3012464453
 20
62.0200569501
 10
251.0671852634
 20
62.2130292287
 10
250.9615681429
 20
62.4405778371
 10
250.9971340673
 20
62.6752570547
 10
251.1695932611
 20
62.8887611044
 10
251.4581446005
 20
63.0553382469
 10
251.8279845352
 20
63.1548968204
 10
252.2345049109
 20
63.1754285915
 10
252.6286733707
 20
63.1144571256
 10
252.9629473811
 20
62.9793364815
 10
253.1970085629
 20
62.7863642028
 10
253.3026256834
 20
62.5588155945
 10
253.2670597591
 20
62.3241363769
 10
253.0946005652
 20
62.1106323271
 10
252.8060492259
 20
61.9440551846
 10
252.4362092912
 20
61.8444966112
 10
252.0296889155
 20
61.82396484
 10
251.6355204556
 20
61.8849363059
 10
251.3012464453
 20
62.0200569501
  0
SPLINE
  5
1F7
330
1F
100
AcDbEntity
  8
0
  6
Continuous
 62
     7
370
    25
100
AcDbSpline
210
0.0
220
0.0
230
1.0
 70
     8
 71
     3
 72
     9
 73
     5
 74
     0
 42
0.000000001
 43
0.00000001
 40
0.0
 40
0.0
 40
0.0
 40
0.0
 40
0.6308787452298976
 40
1.0
 40
1.0
 40
1.0
 40
1.0
 10
251.4251096404192
 20
61.95171439863319
 30
0.0
 10
251.3351683666751
 20
62.01359389436833
 30
0.0
 10
251.1926032946637
 20
62.11167850445071
 30
0.0
 10
251.0641548811127
 20
62.25696551785262
 30
0.0
 10
251.0167418415294
 20
62.31059404254134
 30
0.0
  0
SPLINE
  5
1F8
330
1F
100
AcDbEntity
  8
0
  6
Continuous
 62
     7
370
    25
100
AcDbSpline
210
0.0
220
0.0
230
1.0
 70
     8
 71
     3
 72
    10
 73
     6
 74
     0
 42
0.000000001
 43
0.00000001
 40
0.0
 40
0.0
 40
0.0
 40
0.0
 40
0.4391222274230459
 40
0.7513714712594608
 40
1.0
 40
1.0
 40
1.0
 40
1.0
 10
253.2474519848303
 20
62.65564871123462
 30
0.0
 10
253.2046674855025
 20
62.50754569968537
 30
0.0
 10
253.1314599587606
 20
62.25413020227645
 30
0.0
 10
253.0250407656187
 20
62.06739014307942
 30
0.0
 10
252.9720732034206
 20
62.02885151673527
 30
0.0
 10
252.9485934941076
 20
62.01176793375855
 30
0.0
  0
SPLINE
  5
1F9
330
1F
100
AcDbEntity
  8
0
  6
Continuous
 62
     7
370
    25
100
AcDbSpline
210
0.0
220
0.0
230
1.0
 70
     8
 71
     3
 72
    11
 73
     7
 74
     0
 42
0.000000001
 43
0.00000001
 40
0.0
 40
0.0
 40
0.0
 40
0.0
 40
0.1845133558519149
 40
0.5180565039163908
 40
0.8676122830485042
 40
1.0
 40
1.0
 40
1.0
 40
1.0
 10
252.4309554039025
 20
63.12700215436405
 30
0.0
 10
252.47837349714
 20
63.07420493397414
 30
0.0
 10
252.6115088546946
 20
62.92596664907921
 30
0.0
 10
252.8596695922718
 20
62.72968835019192
 30
0.0
 10
253.0902599801986
 20
62.66048769441102
 30
0.0
 10
253.2135772765708
 20
62.65669150691469
 30
0.0
 10
253.2474519848303
 20
62.65564871123462
 30
0.0
  0
SPLINE
  5
1FA
330
1F
100
AcDbEntity
  8
0
  6
Continuous
 62
     7
370
    25
100
AcDbSpline
210
0.0
220
0.0
230
1.0
 70
     8
 71
     3
 72
    10
 73
     6
 74
     0
 42
0.000000001
 43
0.00000001
 40
0.0
 40
0.0
 40
0.0
 40
0.0
 40
0.4391222274230505
 40
0.7513714712594628
 40
1.0
 40
1.0
 40
1.0
 40
1.0
 10
251.3156003322521
 20
62.95447482001741
 30
0.0
 10
251.4752742575199
 20
62.92324856919537
 30
0.0
 10
251.7484884668171
 20
62.86981808320116
 30
0.0
 10
252.1456503025233
 20
62.97378916399757
 30
0.0
 10
252.3433279357993
 20
63.07994492909383
 30
0.0
 10
252.4309554039025
 20
63.12700215436405
 30
0.0
  0
SPLINE
  5
1FB
330
1F
100
AcDbEntity
  8
0
  6
Continuous
 62
     7
370
    25
100
AcDbSpline
210
0.0
220
0.0
230
1.0
 70
     8
 71
     3
 72
    10
 73
     6
 74
     0
 42
0.000000001
 43
0.00000001
 40
0.0
 40
0.0
 40
0.0
 40
0.0
 40
0.4391222274230464
 40
0.7513714712594637
 40
1.0
 40
1.0
 40
1.0
 40
1.0
 10
251.0167418415294
 20
62.31059404254134
 30
0.0
 10
251.0595263408573
 20
62.34684662098717
 30
0.0
 10
251.1327338675991
 20
62.40887753516714
 30
0.0
 10
251.2391530607411
 20
62.68069077089516
 30
0.0
 10
251.2921206229391
 20
62.87038588183978
 30
0.0
 10
251.3156003322521
 20
62.95447482001741
 30
0.0
  0
LINE
  5
1FC
330
1F
100
AcDbEntity
  8
0
  6
Continuous
 62
     7
370
    25
100
AcDbLine
 10
251.3156003323
 20
62.0119113723
 30
0.0
 11
251.3156003323
 21
62.95447482
 31
0.0
  0
LINE
  5
1FD
330
1F
100
AcDbEntity
  8
0
  6
Continuous
 62
     7
370
    25
100
AcDbLine
 10
252.4309554039
 20
61.8436914349
 30
0.0
 11
252.4309554039
 21
63.1270021544
 31
0.0
  0
SPLINE
  5
1FE
330
1F
100
AcDbEntity
  8
0
  6
Continuous
 62
     7
370
    25
100
AcDbSpline
210
0.0
220
0.0
230
1.0
 70
     8
 71
     3
 72
    14
 73
    10
 74
     0
 42
0.000000001
 43
0.00000001
 40
0.0
 40
0.0
 40
0.0
 40
0.0
 40
0.25
 40
0.25
 40
0.5
 40
0.5
 40
0.75
 40
0.75
 40
1.0
 40
1.0
 40
1.0
 40
1.0
 10
230.7423481669815
 20
53.31490728313857
 30
0.0
 10
230.6951750597491
 20
53.28767482799245
 30
0.0
 10
230.6396109950503
 20
53.2659304698515
 30
0.0
 10
230.5176855229314
 20
53.23568504244548
 30
0.0
 10
230.4515890020555
 20
53.22738601233517
 30
0.0
 10
230.3193970729187
 20
53.22595339655541
 30
0.0
 10
230.252461921388
 20
53.23290337073702
 30
0.0
 10
230.1298514297177
 20
53.26111272434643
 30
0.0
 10
230.072915974914
 20
53.28268856865409
 30
0.0
 10
230.0261734315418
 20
53.30967246457448
 30
0.0
  0
SPLINE
  5
1FF
330
1F
100
AcDbEntity
  8
0
  6
Continuous
 62
     7
370
    25
100
AcDbSpline
210
0.0
220
0.0
230
1.0
 70
     8
 71
     3
 72
    12
 73
     8
 74
     0
 42
0.000000001
 43
0.00000001
 40
0.0
 40
0.0
 40
0.0
 40
0.0
 40
0.2500000000000032
 40
0.2500000000000032
 40
0.5000000000000064
 40
0.5000000000000064
 40
1.0
 40
1.0
 40
1.0
 40
1.0
 10
258.3546365876215
 20
81.07489705972877
 30
0.0
 10
258.4084086065695
 20
81.04385513393603
 30
0.0
 10
258.4608968816878
 20
80.99488050467922
 30
0.0
 10
258.5519028086263
 20
80.8781496298297
 30
0.0
 10
258.5904771621557
 20
80.81069816449657
 30
0.0
 10
258.6803007514519
 20
80.60638093748967
 30
0.0
 10
258.7081899782148
 20
80.46601810829226
 30
0.0
 10
258.7081899782148
 20
80.34320138323758
 30
0.0
  0
LINE
  5
200
330
1F
100
AcDbEntity
  8
0
  6
Continuous
 62
     7
370
    25
100
AcDbLine
 10
230.0261734315
 20
53.3096724646
 30
0.0
 11
228.3687253969
 21
54.2664968484
 31
0.0
  0
LWPOLYLINE
  5
201
330
1F
100
AcDbEntity
  8
0
  6
Continuous
 62
     7
370
    25
100
AcDbPolyline
 90
       28
 70
   128
 43
0.0
 10
228.3687253969
 20
54.2664968484
 10
228.7089325473
 20
55.943586757
 10
229.1443396541
 20
57.6420039041
 10
229.672494643
 20
59.352183345
 10
230.2904231133
 20
61.0644938939
 10
230.9946450888
 20
62.7692923631
 10
231.7811946155
 20
64.4569778704
 10
232.645642097
 20
66.1180459086
 10
233.5831192403
 20
67.7431418716
 10
234.5883464727
 20
69.3231137363
 10
235.6556626747
 20
70.8490636044
 10
236.7790570612
 20
72.3123978122
 10
237.9522030328
 20
73.7048753275
 10
239.168493805
 20
75.0186541603
 10
240.4210796156
 20
76.2463355267
 10
241.7029063002
 20
77.3810055162
 10
243.0067550191
 20
78.4162740288
 10
244.3252829115
 20
79.3463107619
 10
245.6510644483
 20
80.1658780448
 10
246.9766332501
 20
80.8703603356
 10
248.2945241355
 20
81.4557902144
 10
249.5973151628
 20
81.9188707265
 10
250.8776694278
 20
82.25699395
 10
252.128376383
 20
82.4682556825
 10
253.3423924452
 20
82.5514661653
 10
254.5128806625
 20
82.5061567834
 10
255.633249218
 20
82.3325827049
 10
256.697188553
 20
82.0317214436
  0
LINE
  5
202
330
1F
100
AcDbEntity
  8
0
  6
Continuous
 62
     7
370
    25
100
AcDbLine
 10
256.697188553
 20
82.0317214436
 30
0.0
 11
258.3546365876
 21
81.0748970597
 31
0.0
  0
LINE
  5
203
330
1F
100
AcDbEntity
  8
0
  6
Continuous
 62
     7
370
    25
100
AcDbLine
 10
263.1452850302
 20
71.6124541638
 30
0.0
 11
264.5838017893
 21
72.4428922125
 31
0.0
  0
LINE
  5
204
330
1F
100
AcDbEntity
  8
0
  6
Continuous
 62
     7
370
    25
100
AcDbLine
 10
263.1452850302
 20
63.4470460449
 30
0.0
 11
263.1452850302
 21
71.6124541638
 31
0.0
  0
LINE
  5
205
330
1F
100
AcDbEntity
  8
0
  6
Continuous
 62
     7
370
    25
100
AcDbLine
 10
264.5838017893
 20
64.2774840936
 30
0.0
 11
263.1452850302
 21
63.4470460449
 31
0.0
  0
LINE
  5
206
330
1F
100
AcDbEntity
  8
0
  6
Continuous
 62
     7
370
    25
100
AcDbLine
 10
230.742348167
 20
44.3329583524
 30
0.0
 11
232.1032973361
 21
45.1186175845
 31
0.0
  0
LINE
  5
207
330
1F
100
AcDbEntity
  8
0
  6
Continuous
 62
     7
370
    25
100
AcDbLine
 10
232.1032973361
 20
45.1186175845
 30
0.0
 11
232.1032973361
 21
54.1005665152
 31
0.0
  0
LINE
  5
208
330
1F
100
AcDbEntity
  8
0
  6
Continuous
 62
     7
370
    25
100
AcDbLine
 10
232.1032973361
 20
54.1005665152
 30
0.0
 11
230.742348167
 21
53.3149072831
 31
0.0
  0
LINE
  5
209
330
1F
100
AcDbEntity
  8
0
  6
Continuous
 62
     7
370
    25
100
AcDbLine
 10
258.7081899782
 20
80.3432013832
 30
0.0
 11
258.7081899782
 21
77.7675468798
 31
0.0
  0
LINE
  5
20A
330
1F
100
AcDbEntity
  8
0
  6
Continuous
 62
     7
370
    25
100
AcDbLine
 10
260.9386513818
 20
79.0551648404
 30
0.0
 11
258.7081899782
 21
77.7675468798
 31
0.0
  0
LWPOLYLINE
  5
20B
330
1F
100
AcDbEntity
  8
0
  6
Continuous
 62
     7
370
    25
100
AcDbPolyline
 90
       25
 70
   128
 43
0.0
 10
227.3899398059
 20
55.8126991776
 10
227.7483479115
 20
57.5009513124
 10
228.2069613916
 20
59.2097318978
 10
228.7629145363
 20
60.9283633817
 10
229.4127333956
 20
62.6461066574
 10
230.1523574863
 20
64.3522281682
 10
230.9771651649
 20
66.0360669777
 10
231.8820025063
 20
67.687101386
 10
232.8612155094
 20
69.2950146761
 10
233.9086854259
 20
70.849759579
 10
235.0178669952
 20
72.3416210562
 10
236.1818293426
 20
73.7612770046
 10
237.3932992884
 20
75.0998565074
 10
238.6447067948
 20
76.3489952655
 10
239.9282322687
 20
77.5008878622
 10
241.2358554237
 20
78.5483365374
 10
242.5594053954
 20
79.4847961628
 10
243.8906117985
 20
80.304415141
 10
245.2211564056
 20
81.0020719692
 10
246.5427251245
 20
81.5734072423
 10
247.8470599501
 20
82.0148508925
 10
249.1260105657
 20
82.3236444983
 10
250.3715852714
 20
82.4978585199
 10
251.576000921
 20
82.536404357
 10
252.3212420918
 20
82.4897788033
  0
SPLINE
  5
20C
330
1F
100
AcDbEntity
  8
0
  6
Continuous
 62
     7
370
    25
100
AcDbSpline
210
0.0
220
0.0
230
1.0
 70
     8
 71
     3
 72
     8
 73
     4
 74
     0
 42
0.000000001
 43
0.00000001
 40
0.0
 40
0.0
 40
0.0
 40
0.0
 40
1.0
 40
1.0
 40
1.0
 40
1.0
 10
227.3899398058783
 20
55.81269917757818
 30
0.0
 10
226.9474034520329
 20
55.74101264714893
 30
0.0
 10
226.5047942619813
 20
55.66947648154716
 30
0.0
 10
226.0621225557649
 20
55.59807032524246
 30
0.0
  0
LWPOLYLINE
  5
20D
330
1F
100
AcDbEntity
  8
0
  6
Continuous
 62
     7
370
    25
100
AcDbPolyline
 90
       28
 70
   128
 43
0.0
 10
226.0621225558
 20
55.5980703252
 10
226.4023297062
 20
57.2751602339
 10
226.8377368129
 20
58.9735773809
 10
227.3658918018
 20
60.6837568219
 10
227.9838202722
 20
62.3960673708
 10
228.6880422477
 20
64.1008658399
 10
229.4745917744
 20
65.7885513472
 10
230.3390392558
 20
67.4496193855
 10
231.2765163992
 20
69.0747153484
 10
232.2817436316
 20
70.6546872131
 10
233.3490598335
 20
72.1806370812
 10
234.47245422
 20
73.643971289
 10
235.6456001917
 20
75.0364488043
 10
236.8618909639
 20
76.3502276371
 10
238.1144767745
 20
77.5779090036
 10
239.3963034591
 20
78.7125789931
 10
240.700152178
 20
79.7478475057
 10
242.0186800704
 20
80.6778842388
 10
243.3444616072
 20
81.4974515217
 10
244.670030409
 20
82.2019338125
 10
245.9879212944
 20
82.7873636912
 10
247.2907123217
 20
83.2504442033
 10
248.5710665866
 20
83.5885674268
 10
249.8217735419
 20
83.7998291594
 10
251.035789604
 20
83.8830396421
 10
252.2062778213
 20
83.8377302603
 10
253.3266463769
 20
83.6641561817
 10
254.3905857118
 20
83.3632949204
  0
LINE
  5
20E
330
1F
100
AcDbEntity
  8
0
  6
Continuous
 62
     7
370
    25
100
AcDbLine
 10
254.3905857118
 20
83.3632949204
 30
0.0
 11
254.6836001465
 21
82.4294601953
 31
0.0
  0
LINE
  5
20F
330
1F
100
AcDbEntity
  8
0
  6
Continuous
 62
     7
370
    25
100
AcDbLine
 10
250.222908604
 20
85.7692437027
 30
0.0
 11
254.3905857118
 21
83.3632949204
 31
0.0
  0
LINE
  5
210
330
1F
100
AcDbEntity
  8
0
  6
Continuous
 62
     7
370
    25
100
AcDbLine
 10
226.0621225558
 20
55.5980703252
 30
0.0
 11
225.4299793538
 21
55.962998828
 31
0.0
  0
SPLINE
  5
211
330
1F
100
AcDbEntity
  8
0
  6
Continuous
 62
     7
370
    25
100
AcDbSpline
210
0.0
220
0.0
230
1.0
 70
     8
 71
     3
 72
    30
 73
    26
 74
     0
 42
0.000000001
 43
0.00000001
 40
0.0
 40
0.0
 40
0.0
 40
0.0
 40
0.1250000000000006
 40
0.1250000000000006
 40
0.187500000000001
 40
0.187500000000001
 40
0.2500000000000013
 40
0.2500000000000013
 40
0.3750000000000014
 40
0.3750000000000014
 40
0.4375000000000014
 40
0.4375000000000014
 40
0.5000000000000013
 40
0.5000000000000013
 40
0.625000000000001
 40
0.625000000000001
 40
0.6875000000000009
 40
0.6875000000000009
 40
0.7500000000000007
 40
0.7500000000000007
 40
0.8125000000000006
 40
0.8125000000000006
 40
0.8750000000000004
 40
0.8750000000000004
 40
1.0
 40
1.0
 40
1.0
 40
1.0
 10
225.4299793538293
 20
55.9629988279983
 30
0.0
 10
225.1956637202227
 20
56.09826636402893
 30
0.0
 10
224.9601632436939
 20
56.20152889295829
 30
0.0
 10
224.6056127963042
 20
56.31077163072207
 30
0.0
 10
224.4872185329052
 20
56.33952459271877
 30
0.0
 10
224.250163887855
 20
56.38147775736847
 30
0.0
 10
224.1313439766191
 20
56.39458289227057
 30
0.0
 10
223.7827000926429
 20
56.40983428128489
 30
0.0
 10
223.557935250001
 20
56.38875551984288
 30
0.0
 10
223.2337246023972
 20
56.3117524679672
 30
0.0
 10
223.127308526486
 20
56.27824386293397
 30
0.0
 10
222.9219992965135
 20
56.19670551681035
 30
0.0
 10
222.8234045660058
 20
56.14889991170902
 30
0.0
 10
222.5399065722069
 20
55.9852327021561
 30
0.0
 10
222.3671635985367
 20
55.84932060567953
 30
0.0
 10
222.1350388000406
 20
55.60494946877445
 30
0.0
 10
222.0627248142146
 20
55.5171323835668
 30
0.0
 10
221.930406500145
 20
55.33175181462651
 30
0.0
 10
221.8700525614242
 20
55.23383081458619
 30
0.0
 10
221.7610894272811
 20
55.02774296388195
 30
0.0
 10
221.712479602183
 20
54.9195761570377
 30
0.0
 10
221.6274437862883
 20
54.69288644353094
 30
0.0
 10
221.5908929071133
 20
54.57374601580818
 30
0.0
 10
221.5018986300204
 20
54.20576168735405
 30
0.0
 10
221.4695620730403
 20
53.94653656205737
 30
0.0
 10
221.4648761667434
 20
53.67332998062722
 30
0.0
  0
ARC
  5
212
330
1F
100
AcDbEntity
  8
0
  6
Continuous
 62
     7
370
    25
100
AcDbCircle
 10
245.0329412427
 20
53.2650595747
 30
0.0
 40
23.57160105185108
100
AcDbArc
 50
179.0075624958
 51
180.9924375042
  0
SPLINE
  5
213
330
1F
100
AcDbEntity
  8
0
  6
Continuous
 62
     7
370
    25
100
AcDbSpline
210
0.0
220
0.0
230
1.0
 70
     8
 71
     3
 72
    30
 73
    26
 74
     0
 42
0.000000001
 43
0.00000001
 40
0.0
 40
0.0
 40
0.0
 40
0.0
 40
0.1249999999999998
 40
0.1249999999999998
 40
0.1874999999999997
 40
0.1874999999999997
 40
0.2499999999999996
 40
0.2499999999999996
 40
0.3749999999999996
 40
0.3749999999999996
 40
0.4374999999999998
 40
0.4374999999999998
 40
0.5
 40
0.5
 40
0.6250000000000002
 40
0.6250000000000002
 40
0.6875000000000002
 40
0.6875000000000002
 40
0.7500000000000001
 40
0.7500000000000001
 40
0.8125000000000001
 40
0.8125000000000001
 40
0.8750000000000001
 40
0.8750000000000001
 40
1.0
 40
1.0
 40
1.0
 40
1.0
 10
221.4648761667434
 20
52.85678916874147
 30
0.0
 10
221.4695624134022
 20
52.58897336810975
 30
0.0
 10
221.501871933721
 20
52.31525720312434
 30
0.0
 10
221.5895299890895
 20
51.89600905592893
 30
0.0
 10
221.625324160403
 20
51.75479863723663
 30
0.0
 10
221.7101847752554
 20
51.46929802224447
 30
0.0
 10
221.7594374231691
 20
51.32471295741345
 30
0.0
 10
221.9236417593385
 20
50.89562068826184
 30
0.0
 10
222.0556942173989
 20
50.612647872778
 30
0.0
 10
222.2857447849179
 20
50.19164396204086
 30
0.0
 10
222.3682078234117
 20
50.05123889216707
 30
0.0
 10
222.5419595586308
 20
49.77457459807283
 30
0.0
 10
222.6327611504645
 20
49.63899004902646
 30
0.0
 10
222.9161556226958
 20
49.23989298226682
 30
0.0
 10
223.1196354973629
 20
48.98396603925963
 30
0.0
 10
223.4455434846116
 20
48.61434005922395
 30
0.0
 10
223.5572841000727
 20
48.49402121203844
 30
0.0
 10
223.7825882042101
 20
48.26318361390764
 30
0.0
 10
223.8967108516892
 20
48.15202101982808
 30
0.0
 10
224.1276206382536
 20
47.9379472106531
 30
0.0
 10
224.2444080542623
 20
47.83503608391863
 30
0.0
 10
224.4804910167321
 20
47.63747791700341
 30
0.0
 10
224.6003683911219
 20
47.54240614439803
 30
0.0
 10
224.9588516462856
 20
47.27360106579545
 30
0.0
 10
225.1956603128489
 20
47.11631940032068
 30
0.0
 10
225.4299793538293
 20
46.98104989725506
 30
0.0
  0
LINE
  5
214
330
1F
100
AcDbEntity
  8
0
  6
Continuous
 62
     7
370
    25
100
AcDbLine
 10
225.4299793538
 20
46.9810498973
 30
0.0
 11
226.0621225558
 21
46.6161213945
 31
0.0
  0
LWPOLYLINE
  5
215
330
1F
100
AcDbEntity
  8
0
  6
Continuous
 62
     7
370
    25
100
AcDbPolyline
 90
       10
 70
   128
 43
0.0
 10
232.0143090428
 20
38.8374994044
 10
231.3231747371
 20
39.1369612891
 10
230.3769078914
 20
39.6774052402
 10
229.5043317871
 20
40.3397274723
 10
228.7104195006
 20
41.1201532095
 10
227.9996957795
 20
42.0142345685
 10
227.3762112542
 20
43.0168759076
 10
226.8435193528
 20
44.1223628692
 10
226.4046560482
 20
45.3243949469
 10
226.0621225558
 20
46.6161213945
  0
LINE
  5
216
330
1F
100
AcDbEntity
  8
0
  6
Continuous
 62
     7
370
    25
100
AcDbLine
 10
256.3425393548
 20
82.2359517436
 30
0.0
 11
256.694950192
 21
82.0325092977
 31
0.0
  0
SPLINE
  5
217
330
1F
100
AcDbEntity
  8
0
  6
Continuous
 62
     7
370
    25
100
AcDbSpline
210
0.0
220
0.0
230
1.0
 70
     8
 71
     3
 72
    22
 73
    18
 74
     0
 42
0.000000001
 43
0.00000001
 40
0.0
 40
0.0
 40
0.0
 40
0.0
 40
0.2500000000000001
 40
0.2500000000000001
 40
0.3750000000000002
 40
0.3750000000000002
 40
0.5000000000000002
 40
0.5000000000000002
 40
0.6250000000000001
 40
0.6250000000000001
 40
0.7500000000000001
 40
0.7500000000000001
 40
0.875
 40
0.875
 40
0.9375
 40
0.9375
 40
1.0
 40
1.0
 40
1.0
 40
1.0
 10
250.2229086039762
 20
85.76924370270936
 30
0.0
 10
250.6549406995153
 20
85.60097326460291
 30
0.0
 10
251.1053153478807
 20
85.3902972597227
 30
0.0
 10
251.8302887895649
 20
85.00520302346607
 30
0.0
 10
252.0822561132844
 20
84.8640774851903
 30
0.0
 10
252.5950482264167
 20
84.56506051597312
 30
0.0
 10
252.8565695384757
 20
84.40689467861729
 30
0.0
 10
253.3941442200743
 20
84.0742947372798
 30
0.0
 10
253.6721067647371
 20
83.89859692591376
 30
0.0
 10
254.2247126834825
 20
83.5469540098204
 30
0.0
 10
254.5017086086538
 20
83.36957518069768
 30
0.0
 10
255.0598961885505
 20
83.01526476138511
 30
0.0
 10
255.3300722777103
 20
82.84540692167266
 30
0.0
 10
255.7215395928068
 20
82.60483793669795
 30
0.0
 10
255.8497868229146
 20
82.52697005414956
 30
0.0
 10
256.1016484620961
 20
82.37636375865112
 30
0.0
 10
256.2245406959426
 20
82.30407091944018
 30
0.0
 10
256.3425393548019
 20
82.2359517436381
 30
0.0
  0
ARC
  5
218
330
1F
100
AcDbEntity
  8
0
  6
Continuous
 62
     7
370
    25
100
AcDbCircle
 10
245.3074340597
 20
77.0755313647
 30
0.0
 40
10.13759593435787
100
AcDbArc
 50
62.0132218022
 51
104.6261706154
  0
ARC
  5
219
330
1F
100
AcDbEntity
  8
0
  6
Continuous
 62
     7
370
    25
100
AcDbCircle
 10
230.3689136153
 20
51.246139511
 30
0.0
 40
10.0359630944501
100
AcDbArc
 50
197.1922808671
 51
238.107982313
  0
LINE
  5
21A
330
1F
100
AcDbEntity
  8
0
  6
Continuous
 62
     7
370
    25
100
AcDbLine
 10
227.7110403556
 20
55.9980665793
 30
0.0
 11
227.3899398059
 21
55.8126991776
 31
0.0
  0
LINE
  5
21B
330
1F
100
AcDbEntity
  8
0
  6
Continuous
 62
     7
370
    25
100
AcDbLine
 10
228.6716901391
 20
55.7796526607
 30
0.0
 11
228.2850354606
 21
56.0028636554
 31
0.0
  0
SPLINE
  5
21C
330
1F
100
AcDbEntity
  8
0
  6
Continuous
 62
     7
370
    25
100
AcDbSpline
210
0.0
220
0.0
230
1.0
 70
     8
 71
     3
 72
    12
 73
     8
 74
     0
 42
0.000000001
 43
0.00000001
 40
0.0
 40
0.0
 40
0.0
 40
0.0
 40
0.25
 40
0.25
 40
0.5
 40
0.5
 40
1.0
 40
1.0
 40
1.0
 40
1.0
 10
228.2850354605705
 20
56.00286365544406
 30
0.0
 10
228.2476434229876
 20
56.0244496192705
 30
0.0
 10
228.2014951121327
 20
56.04188975429296
 30
0.0
 10
228.1027952747501
 20
56.06434588260728
 30
0.0
 10
228.0492837084547
 20
56.06973218820791
 30
0.0
 10
227.8906862887533
 20
56.06765102939778
 30
0.0
 10
227.7859721941356
 20
56.04132380890698
 30
0.0
 10
227.7110403556088
 20
55.99806657928151
 30
0.0
  0
ARC
  5
21D
330
1F
100
AcDbEntity
  8
0
  6
Continuous
 62
     7
370
    25
100
AcDbCircle
 10
261.8788148645
 20
50.3416747325
 30
0.0
 40
42.56783423730817
100
AcDbArc
 50
146.1925668731
 51
156.1649999787
  0
LINE
  5
21E
330
1F
100
AcDbEntity
  8
0
  6
Continuous
 62
     7
370
    25
100
AcDbLine
 10
227.1535498678
 20
47.9760459759
 30
0.0
 11
232.1032973361
 21
45.1186175845
 31
0.0
  0
ARC
  5
21F
330
1F
100
AcDbEntity
  8
0
  6
Continuous
 62
     7
370
    25
100
AcDbCircle
 10
231.2616308551
 20
54.4303305454
 30
0.0
 40
7.650759354637134
100
AcDbArc
 50
182.476303705
 51
237.5236964406
  0
LINE
  5
220
330
1F
100
AcDbEntity
  8
0
  6
Continuous
 62
     7
370
    25
100
AcDbLine
 10
223.6180159618
 20
54.9163111267
 30
0.0
 11
223.6180159618
 21
54.0997703148
 31
0.0
  0
ARC
  5
221
330
1F
100
AcDbEntity
  8
0
  6
Continuous
 62
     7
370
    25
100
AcDbCircle
 10
226.8475455292
 20
55.0227710587
 30
0.0
 40
3.231283791920391
100
AcDbArc
 50
154.0653545201
 51
181.8880448885
  0
LWPOLYLINE
  5
222
330
1F
100
AcDbEntity
  8
0
  6
Continuous
 62
     7
370
    25
100
AcDbPolyline
 90
       48
 70
   128
 43
0.0
 10
249.8693552134
 20
50.8648195218
 10
249.9188821871
 20
51.7477596094
 10
250.0665792984
 20
52.6721262369
 10
250.3098108887
 20
53.62142406
 10
250.6442364845
 20
54.5787128366
 10
251.0638882532
 20
55.5269097257
 10
251.561277499
 20
56.4490941314
 10
252.127528299
 20
57.3288096511
 10
252.7525358943
 20
58.1503577406
 10
253.4251470096
 20
58.8990778546
 10
254.1333588836
 20
59.5616090651
 10
254.8645334585
 20
60.126128487
 10
255.6056229069
 20
60.5825622576
 10
256.3434024698
 20
60.9227653057
 10
257.0647064536
 20
61.1406666997
 10
257.7566631716
 20
61.232377984
 10
258.4069246397
 20
61.1962625688
 10
259.0038869266
 20
61.0329649343
 10
259.5368972262
 20
60.7453991308
 10
259.9964439571
 20
60.3386967768
 10
260.3743264969
 20
59.8201154855
 10
260.6638015228
 20
59.1989093523
 10
260.8597033461
 20
58.4861638154
 10
260.9585360942
 20
57.6945978357
 10
260.9585360942
 20
56.838336927
 10
260.8597033461
 20
55.9326610853
 10
260.6638015228
 20
54.9937321176
 10
260.3743264969
 20
54.0383052336
 10
259.9964439571
 20
53.0834300486
 10
259.5368972262
 20
52.1461463329
 10
259.0038869266
 20
51.2431799366
 10
258.4069246397
 20
50.3906443165
 10
257.7566631716
 20
49.6037529909
 10
257.0647064536
 20
48.8965480541
 10
256.3434024698
 20
48.2816495951
 10
255.6056229069
 20
47.7700304913
 10
254.8645334585
 20
47.3708205978
 10
254.1333588836
 20
47.0911438246
 10
253.4251470096
 20
46.9359910103
 10
252.7525358943
 20
46.9081308607
 10
252.127528299
 20
47.0080605407
 10
251.561277499
 20
47.2339968027
 10
251.0638882532
 20
47.581907809
 10
250.6442364845
 20
48.0455850792
 10
250.3098108887
 20
48.6167542816
 10
250.0665792984
 20
49.2852228882
 10
249.9188821871
 20
50.0390620609
 10
249.8693552134
 20
50.8648195218
  0
LWPOLYLINE
  5
223
330
1F
100
AcDbEntity
  8
0
  6
Continuous
 62
     7
370
    25
100
AcDbPolyline
 90
       25
 70
   128
 43
0.0
 10
249.657223179
 20
50.8648195218
 10
249.7076965281
 20
51.764631076
 10
249.8582158771
 20
52.7066607601
 10
250.1060952048
 20
53.6740980321
 10
250.4469110986
 20
54.6496789509
 10
250.8745816909
 20
55.6159942519
 10
251.3814751898
 20
56.5558000156
 10
251.9585460688
 20
57.4523253861
 10
252.5954964845
 20
58.2895718466
 10
253.2809600414
 20
59.0525987145
 10
254.0027046264
 20
59.7277897571
 10
254.74785069
 20
60.3030961742
 10
255.5031010832
 20
60.7682516093
 10
256.2549783448
 20
61.1149553525
 10
256.9900652073
 20
61.3370204674
 10
257.6952440281
 20
61.4304841967
 10
258.3579308746
 20
61.393678678
 10
258.9663000842
 20
61.2272607065
 10
259.509495294
 20
60.9342000151
 10
259.9778231726
 20
60.5197262785
 10
260.3629263979
 20
59.9912357906
 10
260.6579327937
 20
59.3581594765
 10
260.857577964
 20
58.6317945981
 10
260.9582992359
 20
57.8251031538
 10
260.970931678
 20
57.3960844164
  0
LWPOLYLINE
  5
224
330
1F
100
AcDbEntity
  8
0
  6
Continuous
 62
     7
370
    25
100
AcDbPolyline
 90
       13
 70
   128
 43
0.0
 10
255.3149968264
 20
47.5986563174
 10
254.74785069
 20
47.3040562871
 10
254.0027046264
 20
47.0190353718
 10
253.2809600414
 20
46.8609178541
 10
252.5954964845
 20
46.8325253449
 10
251.9585460688
 20
46.9343645092
 10
251.3814751898
 20
47.1646180247
 10
250.8745816909
 20
47.5191770119
 10
250.4469110986
 20
47.9917143574
 10
250.1060952048
 20
48.573797621
 10
249.8582158771
 20
49.2550395131
 10
249.7076965281
 20
50.0232832559
 10
249.657223179
 20
50.8648195218
  0
SPLINE
  5
225
330
1F
100
AcDbEntity
  8
0
  6
Continuous
 62
     7
370
    25
100
AcDbSpline
210
0.0
220
0.0
230
1.0
 70
     8
 71
     3
 72
    42
 73
    38
 74
     0
 42
0.000000001
 43
0.00000001
 40
0.0
 40
0.0
 40
0.0
 40
0.0
 40
0.0312499999999998
 40
0.0312499999999998
 40
0.0624999999999995
 40
0.0624999999999995
 40
0.1249999999999994
 40
0.1249999999999994
 40
0.1874999999999993
 40
0.1874999999999993
 40
0.2499999999999991
 40
0.2499999999999991
 40
0.3124999999999989
 40
0.3124999999999989
 40
0.3749999999999987
 40
0.3749999999999987
 40
0.4374999999999984
 40
0.4374999999999984
 40
0.4999999999999982
 40
0.4999999999999982
 40
0.562499999999998
 40
0.562499999999998
 40
0.6249999999999977
 40
0.6249999999999977
 40
0.6874999999999974
 40
0.6874999999999974
 40
0.7499999999999972
 40
0.7499999999999972
 40
0.7812499999999976
 40
0.7812499999999976
 40
0.8124999999999979
 40
0.8124999999999979
 40
0.8749999999999986
 40
0.8749999999999986
 40
0.9374999999999993
 40
0.9374999999999993
 40
1.0
 40
1.0
 40
1.0
 40
1.0
 10
253.9882522137946
 20
61.42816106899333
 30
0.0
 10
253.9313538869474
 20
61.39531436406623
 30
0.0
 10
253.8709415000981
 20
61.36344863530386
 30
0.0
 10
253.742935972954
 20
61.30175176066648
 30
0.0
 10
253.6753516957667
 20
61.27197554030177
 30
0.0
 10
253.4676559561805
 20
61.18828682383023
 30
0.0
 10
253.3207768170384
 20
61.13899793194368
 30
0.0
 10
253.0112734831176
 20
61.05419039633998
 30
0.0
 10
252.8539275004711
 20
61.02011223920244
 30
0.0
 10
252.5343812630426
 20
60.96839275036807
 30
0.0
 10
252.3716492770957
 20
60.95092237888342
 30
0.0
 10
252.0532863082852
 20
60.93456414293889
 30
0.0
 10
251.8960221669454
 20
60.93536240758527
 30
0.0
 10
251.5852955679776
 20
60.9562089245801
 30
0.0
 10
251.4358893510876
 20
60.97598924326093
 30
0.0
 10
251.1479646595968
 20
61.03442844871294
 30
0.0
 10
251.0084572296205
 20
61.07348224033237
 30
0.0
 10
250.7454169750966
 20
61.1703237987137
 30
0.0
 10
250.6229943428306
 20
61.22750348966484
 30
0.0
 10
250.3957933581904
 20
61.359199338936
 30
0.0
 10
250.2901985285324
 20
61.4344800977074
 30
0.0
 10
250.1021007890642
 20
61.5993184671838
 30
0.0
 10
250.0199480931549
 20
61.68820581308231
 30
0.0
 10
249.8793410369887
 20
61.87792119370253
 30
0.0
 10
249.8204707252356
 20
61.97980811172699
 30
0.0
 10
249.7311274941094
 20
62.18974907428905
 30
0.0
 10
249.7005775522279
 20
62.29713238647508
 30
0.0
 10
249.6767471936975
 20
62.46068217855231
 30
0.0
 10
249.6724953306298
 20
62.51561359955205
 30
0.0
 10
249.6718853470354
 20
62.6261337830256
 30
0.0
 10
249.6756026484097
 20
62.68190507842421
 30
0.0
 10
249.6989565108881
 20
62.84573477164543
 30
0.0
 10
249.7305307806744
 20
62.95163121901021
 30
0.0
 10
249.8281342590516
 20
63.15460671949339
 30
0.0
 10
249.8956773892676
 20
63.25290441501477
 30
0.0
 10
250.0620126515614
 20
63.42741218942383
 30
0.0
 10
250.1607242629568
 20
63.50471880237995
 30
0.0
 10
250.2759416125652
 20
63.57123236252794
 30
0.0
  0
SPLINE
  5
226
330
1F
100
AcDbEntity
  8
0
  6
Continuous
 62
     7
370
    25
100
AcDbSpline
210
0.0
220
0.0
230
1.0
 70
     8
 71
     3
 72
    42
 73
    38
 74
     0
 42
0.000000001
 43
0.00000001
 40
0.0
 40
0.0
 40
0.0
 40
0.0
 40
0.0312500000000001
 40
0.0312500000000001
 40
0.0625000000000002
 40
0.0625000000000002
 40
0.1250000000000007
 40
0.1250000000000007
 40
0.1875000000000012
 40
0.1875000000000012
 40
0.2500000000000016
 40
0.2500000000000016
 40
0.3125000000000021
 40
0.3125000000000021
 40
0.3750000000000026
 40
0.3750000000000026
 40
0.5000000000000034
 40
0.5000000000000034
 40
0.5625000000000032
 40
0.5625000000000032
 40
0.6250000000000029
 40
0.6250000000000029
 40
0.6875000000000027
 40
0.6875000000000027
 40
0.7500000000000024
 40
0.7500000000000024
 40
0.8125000000000022
 40
0.8125000000000022
 40
0.8437500000000021
 40
0.8437500000000021
 40
0.875000000000002
 40
0.875000000000002
 40
0.9375000000000011
 40
0.9375000000000011
 40
0.9687500000000006
 40
0.9687500000000006
 40
1.0
 40
1.0
 40
1.0
 40
1.0
 10
250.2759416125652
 20
63.57123236252794
 30
0.0
 10
250.3335511683947
 20
63.60448965120705
 30
0.0
 10
250.3950881730521
 20
63.63481060920027
 30
0.0
 10
250.5227499676041
 20
63.68825199160582
 30
0.0
 10
250.5892866284009
 20
63.71162201958374
 30
0.0
 10
250.7968108071993
 20
63.77207078558097
 30
0.0
 10
250.9471108143203
 20
63.79942681158087
 30
0.0
 10
251.2539462824026
 20
63.8283364618554
 30
0.0
 10
251.4130715764668
 20
63.8304444912812
 30
0.0
 10
251.7348315741729
 20
63.81334635867872
 30
0.0
 10
251.895533118381
 20
63.79442517238568
 30
0.0
 10
252.2169234515008
 20
63.73940142829479
 30
0.0
 10
252.3743851155272
 20
63.70379728768068
 30
0.0
 10
252.6803755198858
 20
63.62054896806736
 30
0.0
 10
252.8295041223479
 20
63.57277154676186
 30
0.0
 10
253.265597685954
 20
63.413214577857
 30
0.0
 10
253.5271277445419
 20
63.29112814536804
 30
0.0
 10
253.8710638136476
 20
63.0919249185769
 30
0.0
 10
253.9748127252707
 20
63.02428540134041
 30
0.0
 10
254.16118157755
 20
62.88623467597237
 30
0.0
 10
254.2441339266619
 20
62.81549540327836
 30
0.0
 10
254.3860033416563
 20
62.67139096371278
 30
0.0
 10
254.443639261124
 20
62.59944738314692
 30
0.0
 10
254.5323232182856
 20
62.45411953966855
 30
0.0
 10
254.5634941527728
 20
62.3802942752581
 30
0.0
 10
254.5955705850241
 20
62.23088758325124
 30
0.0
 10
254.5963134477477
 20
62.15687883353569
 30
0.0
 10
254.5735052888442
 20
62.0453287162221
 30
0.0
 10
254.5618859635622
 20
62.00805697975655
 30
0.0
 10
254.5300239995565
 20
61.93306597641339
 30
0.0
 10
254.5095906102036
 20
61.89508747038715
 30
0.0
 10
254.4356664592167
 20
61.78252726607408
 30
0.0
 10
254.3699084681653
 20
61.70911611365694
 30
0.0
 10
254.2446969843444
 20
61.60057826993544
 30
0.0
 10
254.1981993411505
 20
61.56450676606193
 30
0.0
 10
254.0985362437239
 20
61.49483657928157
 30
0.0
 10
254.0451514108035
 20
61.46100827625414
 30
0.0
 10
253.9882522137946
 20
61.42816106899333
 30
0.0
  0
LWPOLYLINE
  5
227
330
1F
100
AcDbEntity
  8
0
  6
Continuous
 62
     7
370
    25
100
AcDbPolyline
 90
       44
 70
   128
 43
0.0
 10
250.6471726727
 20
51.3138439833
 10
250.6980364654
 20
52.1457097719
 10
250.8495437701
 20
53.0185718705
 10
251.0984654717
 20
53.9138267389
 10
251.4394962362
 20
54.8123935739
 10
251.8653675849
 20
55.6951209834
 10
252.3670028095
 20
56.5431951652
 10
252.9337104261
 20
57.3385408906
 10
253.5534120456
 20
58.0642067463
 10
254.212899804
 20
58.7047264244
 10
254.8981178647
 20
59.2464483599
 10
255.5944619943
 20
59.6778266904
 10
256.2870908267
 20
59.9896673357
 10
256.9612421808
 20
60.1753239538
 10
257.602547691
 20
60.2308395963
 10
258.1973390437
 20
60.1550310435
 10
258.7329392938
 20
59.9495140233
 10
259.1979330519
 20
59.618668774
 10
259.5824097834
 20
59.1695466878
 10
259.8781750342
 20
58.6117200221
 10
260.0789250815
 20
57.957077884
 10
260.1803812866
 20
57.219572834
 10
260.1803812866
 20
56.4149235117
 10
260.0789250815
 20
55.5602796207
 10
259.8781750342
 20
54.6738564115
 10
259.5824097834
 20
53.7745464559
 10
259.1979330519
 20
52.8815169844
 10
258.7329392938
 20
52.0138013696
 10
258.1973390437
 20
51.1898934634
 10
257.602547691
 20
50.4273534323
 10
256.9612421808
 20
49.7424334934
 10
256.2870908267
 20
49.1497315258
 10
255.5944619943
 20
48.6618799432
 10
254.8981178647
 20
48.2892764549
 10
254.212899804
 20
48.0398624574
 10
253.5534120456
 20
47.918953777
 10
252.9337104261
 20
47.9291273724
 10
252.3670028095
 20
48.0701664111
 10
251.8653675849
 20
48.3390648907
 10
251.4394962362
 20
48.7300917071
 10
251.0984654717
 20
49.2349128025
 10
250.8495437701
 20
49.8427687917
 10
250.6980364654
 20
50.5407042797
 10
250.6471726727
 20
51.3138439833
  0
SPLINE
  5
228
330
1F
100
AcDbEntity
  8
0
  6
Continuous
 62
     7
370
    25
100
AcDbSpline
210
0.0
220
0.0
230
1.0
 70
     8
 71
     3
 72
    22
 73
    18
 74
     0
 42
0.000000001
 43
0.00000001
 40
0.0
 40
0.0
 40
0.0
 40
0.0
 40
0.1249999999999998
 40
0.1249999999999998
 40
0.2499999999999997
 40
0.2499999999999997
 40
0.3749999999999995
 40
0.3749999999999995
 40
0.4999999999999993
 40
0.4999999999999993
 40
0.6249999999999991
 40
0.6249999999999991
 40
0.7499999999999994
 40
0.7499999999999994
 40
0.8749999999999997
 40
0.8749999999999997
 40
1.0
 40
1.0
 40
1.0
 40
1.0
 10
252.3684238634462
 20
48.61396754093786
 30
0.0
 10
252.3200465614472
 20
48.5820600888934
 30
0.0
 10
252.2713547569225
 20
48.55824547305819
 30
0.0
 10
252.1735792755342
 20
48.52656703766761
 30
0.0
 10
252.1241892429574
 20
48.51870724182744
 30
0.0
 10
252.0265267932339
 20
48.52011067549393
 30
0.0
 10
251.9791015164847
 20
48.52925265462613
 30
0.0
 10
251.8871217965382
 20
48.56409153580338
 30
0.0
 10
251.8421510461147
 20
48.59015099918604
 30
0.0
 10
251.7574652505967
 20
48.65823681581946
 30
0.0
 10
251.7179967806417
 20
48.699837913752
 30
0.0
 10
251.6446389290546
 20
48.7978134158215
 30
0.0
 10
251.6104760058109
 20
48.85488419668472
 30
0.0
 10
251.5500145434821
 20
48.98018868262246
 30
0.0
 10
251.5235008673817
 20
49.04847177250761
 30
0.0
 10
251.4775644090772
 20
49.19606468387212
 30
0.0
 10
251.4581388543852
 20
49.2757016967663
 30
0.0
 10
251.4426769478063
 20
49.35900027812716
 30
0.0
  0
LWPOLYLINE
  5
229
330
1F
100
AcDbEntity
  8
0
  6
Continuous
 62
     7
370
    25
100
AcDbPolyline
 90
       10
 70
   128
 43
0.0
 10
258.1536649764
 20
51.9537161469
 10
257.5892201833
 20
51.1505064007
 10
256.9667525351
 20
50.4223259286
 10
256.3017751862
 20
49.7873224625
 10
255.6108607189
 20
49.2613215749
 10
254.911228121
 20
48.8574322731
 10
254.2203136537
 20
48.5857202966
 10
253.5553363048
 20
48.452957258
 10
252.9328686566
 20
48.4624518812
 10
252.3684238634
 20
48.6139675409
  0
SPLINE
  5
22A
330
1F
100
AcDbEntity
  8
0
  6
Continuous
 62
     7
370
    25
100
AcDbSpline
210
0.0
220
0.0
230
1.0
 70
     8
 71
     3
 72
    22
 73
    18
 74
     0
 42
0.000000001
 43
0.00000001
 40
0.0
 40
0.0
 40
0.0
 40
0.0
 40
0.125
 40
0.125
 40
0.25
 40
0.25
 40
0.375
 40
0.375
 40
0.5
 40
0.5
 40
0.625
 40
0.625
 40
0.75
 40
0.75
 40
0.875
 40
0.875
 40
1.0
 40
1.0
 40
1.0
 40
1.0
 10
259.0794118920543
 20
53.7675935218958
 30
0.0
 10
259.0943508243598
 20
53.68401114193759
 30
0.0
 10
259.1019348151968
 20
53.59898382276075
 30
0.0
 10
259.1027115657089
 20
53.42599238282285
 30
0.0
 10
259.0958141722813
 20
53.33747330446284
 30
0.0
 10
259.0670368100799
 20
53.1596766753844
 30
0.0
 10
259.0455041374101
 20
53.07195633016227
 30
0.0
 10
258.9884782195524
 20
52.89878692827292
 30
0.0
 10
258.9525440600198
 20
52.8125179351056
 30
0.0
 10
258.867919399024
 20
52.64659987113444
 30
0.0
 10
258.8196777702162
 20
52.56747502451387
 30
0.0
 10
258.7115872292247
 20
52.4167312186918
 30
0.0
 10
258.6510398561525
 20
52.34449200770738
 30
0.0
 10
258.5221831135075
 20
52.21256107025312
 30
0.0
 10
258.4537691463099
 20
52.15246825747464
 30
0.0
 10
258.309052036733
 20
52.04382553925306
 30
0.0
 10
258.2324555516993
 20
51.99522036620835
 30
0.0
 10
258.1536649764146
 20
51.95371614690661
 30
0.0
  0
LWPOLYLINE
  5
22B
330
1F
100
AcDbEntity
  8
0
  6
Continuous
 62
     7
370
    25
100
AcDbPolyline
 90
        9
 70
   128
 43
0.0
 10
259.0794118921
 20
58.9631342684
 10
259.3441829661
 20
58.5078498939
 10
259.5367234031
 20
57.975671024
 10
259.6536271665
 20
57.3760118919
 10
259.6928262311
 20
56.7194804555
 10
259.6536271665
 20
56.0176907424
 10
259.5367234031
 20
55.2830573981
 10
259.3441829661
 20
54.5285760716
 10
259.0794118921
 20
53.7675935219
  0
SPLINE
  5
22C
330
1F
100
AcDbEntity
  8
0
  6
Continuous
 62
     7
370
    25
100
AcDbSpline
210
0.0
220
0.0
230
1.0
 70
     8
 71
     3
 72
    22
 73
    18
 74
     0
 42
0.000000001
 43
0.00000001
 40
0.0
 40
0.0
 40
0.0
 40
0.0
 40
0.1249999999999998
 40
0.1249999999999998
 40
0.2499999999999997
 40
0.2499999999999997
 40
0.3749999999999995
 40
0.3749999999999995
 40
0.4999999999999993
 40
0.4999999999999993
 40
0.6249999999999991
 40
0.6249999999999991
 40
0.7499999999999994
 40
0.7499999999999994
 40
0.8749999999999997
 40
0.8749999999999997
 40
1.0
 40
1.0
 40
1.0
 40
1.0
 10
258.1536649764146
 20
59.7081670055959
 30
0.0
 10
258.232440081397
 20
59.72252617950355
 30
0.0
 10
258.3078205235113
 20
59.73093377280607
 30
0.0
 10
258.4520087909277
 20
59.73581867713896
 30
0.0
 10
258.5212212196444
 20
59.73223524726343
 30
0.0
 10
258.6508766469459
 20
59.71236266076814
 30
0.0
 10
258.7102437159548
 20
59.69632683170408
 30
0.0
 10
258.8183217753238
 20
59.65219457699334
 30
0.0
 10
258.8674371667938
 20
59.62374246326343
 30
0.0
 10
258.952151038902
 20
59.55564043835955
 30
0.0
 10
258.9875958970873
 20
59.51636212205988
 30
0.0
 10
259.0449579890117
 20
59.42762077548911
 30
0.0
 10
259.066951918779
 20
59.37757500502834
 30
0.0
 10
259.0956489210121
 20
59.27060775158479
 30
0.0
 10
259.1026195050291
 20
59.21360664861555
 30
0.0
 10
259.1020409161241
 20
59.09286630243218
 30
0.0
 10
259.0943537581521
 20
59.0288811254002
 30
0.0
 10
259.0794118920543
 20
58.96313426840661
 30
0.0
  0
LWPOLYLINE
  5
22D
330
1F
100
AcDbEntity
  8
0
  6
Continuous
 62
     7
370
    25
100
AcDbPolyline
 90
       10
 70
   128
 43
0.0
 10
252.3684238634
 20
56.3684183996
 10
252.9328686566
 20
57.1716281458
 10
253.5553363048
 20
57.899808618
 10
254.2203136537
 20
58.5348120841
 10
254.911228121
 20
59.0608129717
 10
255.6108607189
 20
59.4647022734
 10
256.3017751862
 20
59.7364142499
 10
256.9667525351
 20
59.8691772885
 10
257.5892201833
 20
59.8596826653
 10
258.1536649764
 20
59.7081670056
  0
SPLINE
  5
22E
330
1F
100
AcDbEntity
  8
0
  6
Continuous
 62
     7
370
    25
100
AcDbSpline
210
0.0
220
0.0
230
1.0
 70
     8
 71
     3
 72
    22
 73
    18
 74
     0
 42
0.000000001
 43
0.00000001
 40
0.0
 40
0.0
 40
0.0
 40
0.0
 40
0.125
 40
0.125
 40
0.25
 40
0.25
 40
0.375
 40
0.375
 40
0.5
 40
0.5
 40
0.625
 40
0.625
 40
0.75
 40
0.75
 40
0.875
 40
0.875
 40
1.0
 40
1.0
 40
1.0
 40
1.0
 10
251.4426769478063
 20
54.55454102463795
 30
0.0
 10
251.4581358184845
 20
54.62057512645937
 30
0.0
 10
251.4772404652369
 20
54.6901954231035
 30
0.0
 10
251.5228765007529
 20
54.83639333198371
 30
0.0
 10
251.5495962903205
 20
54.91346918462803
 30
0.0
 10
251.6103666300998
 20
55.07279666087766
 30
0.0
 10
251.6438410950295
 20
55.15362315616795
 30
0.0
 10
251.7169653523096
 20
55.31749918452379
 30
0.0
 10
251.7570441528889
 20
55.40137552734387
 30
0.0
 10
251.8416968904748
 20
55.56727738304457
 30
0.0
 10
251.8859149075128
 20
55.648725011298
 30
0.0
 10
251.9780096888416
 20
55.80870297261881
 30
0.0
 10
252.0263880684373
 20
55.88796719400567
 30
0.0
 10
252.1234803509867
 20
56.03823536395413
 30
0.0
 10
252.1723512261009
 20
56.10961016364852
 30
0.0
 10
252.2705532884682
 20
56.24510544705124
 30
0.0
 10
252.3200370608381
 20
56.30936245595814
 30
0.0
 10
252.3684238634462
 20
56.36841839962715
 30
0.0
  0
LWPOLYLINE
  5
22F
330
1F
100
AcDbEntity
  8
0
  6
Continuous
 62
     7
370
    25
100
AcDbPolyline
 90
        9
 70
   128
 43
0.0
 10
251.4426769478
 20
49.3590002781
 10
251.1779058737
 20
49.8142846526
 10
250.9853654368
 20
50.3464635225
 10
250.8684616734
 20
50.9461226546
 10
250.8292626087
 20
51.602654091
 10
250.8684616734
 20
52.3044438042
 10
250.9853654368
 20
53.0390771484
 10
251.1779058737
 20
53.793558475
 10
251.4426769478
 20
54.5545410246
  0
SPLINE
  5
230
330
1F
100
AcDbEntity
  8
0
  6
Continuous
 62
     7
370
    25
100
AcDbSpline
210
0.0
220
0.0
230
1.0
 70
     8
 71
     3
 72
     8
 73
     4
 74
     0
 42
0.000000001
 43
0.00000001
 40
0.0
 40
0.0
 40
0.0
 40
0.0
 40
1.0
 40
1.0
 40
1.0
 40
1.0
 10
211.8622453829812
 20
59.40964087745396
 30
0.0
 10
212.329107608648
 20
59.02939929019201
 30
0.0
 10
212.7961423930314
 20
58.66249264164917
 30
0.0
 10
213.2632675052068
 20
58.30256631605721
 30
0.0
  0
SPLINE
  5
231
330
1F
100
AcDbEntity
  8
0
  6
Continuous
 62
     7
370
    25
100
AcDbSpline
210
0.0
220
0.0
230
1.0
 70
     8
 71
     3
 72
    14
 73
    10
 74
     0
 42
0.000000001
 43
0.00000001
 40
0.0
 40
0.0
 40
0.0
 40
0.0
 40
0.125
 40
0.125
 40
0.25
 40
0.25
 40
0.5
 40
0.5
 40
1.0
 40
1.0
 40
1.0
 40
1.0
 10
213.2632675052068
 20
58.30256631605717
 30
0.0
 10
213.28969144388
 20
58.28220630777155
 30
0.0
 10
213.3137553863848
 20
58.26669400445689
 30
0.0
 10
213.3500246438099
 20
58.24971063589752
 30
0.0
 10
213.3620430187981
 20
58.24783639449159
 30
0.0
 10
213.3875572654685
 20
58.25197723582683
 30
0.0
 10
213.3917509279166
 20
58.26691962388984
 30
0.0
 10
213.3928577376521
 20
58.32127096023499
 30
0.0
 10
213.3772297525635
 20
58.372691920911
 30
0.0
 10
213.3575770199299
 20
58.42904074849697
 30
0.0
  0
SPLINE
  5
232
330
1F
100
AcDbEntity
  8
0
  6
Continuous
 62
     7
370
    25
100
AcDbSpline
210
0.0
220
0.0
230
1.0
 70
     8
 71
     3
 72
    14
 73
    10
 74
     0
 42
0.000000001
 43
0.00000001
 40
0.0
 40
0.0
 40
0.0
 40
0.0
 40
0.25
 40
0.25
 40
0.5
 40
0.5
 40
0.75
 40
0.75
 40
1.0
 40
1.0
 40
1.0
 40
1.0
 10
213.3575770199294
 20
58.42904074849733
 30
0.0
 10
213.3329111719914
 20
58.49976331103514
 30
0.0
 10
213.322048301267
 20
58.56282960878534
 30
0.0
 10
213.3000979340721
 20
58.69439634974394
 30
0.0
 10
213.2898263392531
 20
58.76234968873563
 30
0.0
 10
213.2605223248946
 20
58.91095469257905
 30
0.0
 10
213.2417296536649
 20
58.99141849900992
 30
0.0
 10
213.1888103491487
 20
59.17098937282426
 30
0.0
 10
213.1547311719698
 20
59.26982041875212
 30
0.0
 10
213.110644919692
 20
59.37742047373139
 30
0.0
  0
LWPOLYLINE
  5
233
330
1F
100
AcDbEntity
  8
0
  6
Continuous
 62
     7
370
    25
100
AcDbPolyline
 90
        9
 70
   128
 43
0.0
 10
213.1106449197
 20
59.3774204737
 10
212.7425649958
 20
60.4485660132
 10
212.4774356069
 20
61.6125687328
 10
212.3174681993
 20
62.8597196769
 10
212.2639970624
 20
64.1796163498
 10
212.3174681993
 20
65.5612494834
 10
212.4774356069
 20
66.9930948649
 10
212.7425649958
 20
68.4632094612
 10
213.1106449197
 20
69.9593310349
  0
SPLINE
  5
234
330
1F
100
AcDbEntity
  8
0
  6
Continuous
 62
     7
370
    25
100
AcDbSpline
210
0.0
220
0.0
230
1.0
 70
     8
 71
     3
 72
    14
 73
    10
 74
     0
 42
0.000000001
 43
0.00000001
 40
0.0
 40
0.0
 40
0.0
 40
0.0
 40
0.25
 40
0.25
 40
0.5
 40
0.5
 40
0.75
 40
0.75
 40
1.0
 40
1.0
 40
1.0
 40
1.0
 10
213.3575770199294
 20
72.01283114780585
 30
0.0
 10
213.3329111719914
 20
71.841158616313
 30
0.0
 10
213.322048301267
 20
71.66617888413738
 30
0.0
 10
213.3000979340721
 20
71.3173723804962
 30
0.0
 10
213.2898263392531
 20
71.14315828856041
 30
0.0
 10
213.2605223248946
 20
70.7971073766093
 30
0.0
 10
213.2417296536649
 20
70.62522452269407
 30
0.0
 10
213.1888103491487
 20
70.28519285379984
 30
0.0
 10
213.1547311719698
 20
70.11783199330273
 30
0.0
 10
213.110644919692
 20
69.95933103489978
 30
0.0
  0
SPLINE
  5
235
330
1F
100
AcDbEntity
  8
0
  6
Continuous
 62
     7
370
    25
100
AcDbSpline
210
0.0
220
0.0
230
1.0
 70
     8
 71
     3
 72
    14
 73
    10
 74
     0
 42
0.000000001
 43
0.00000001
 40
0.0
 40
0.0
 40
0.0
 40
0.0
 40
0.1249999999999983
 40
0.1249999999999983
 40
0.2499999999999966
 40
0.2499999999999966
 40
0.4999999999999978
 40
0.4999999999999978
 40
1.0
 40
1.0
 40
1.0
 40
1.0
 10
213.2632675052068
 20
72.7615748914485
 30
0.0
 10
213.2896914438801
 20
72.75726859217629
 30
0.0
 10
213.3137553863849
 20
72.7413850856359
 30
0.0
 10
213.3500246438099
 20
72.69224051274449
 30
0.0
 10
213.3620430187981
 20
72.66122915739213
 30
0.0
 10
213.3875572654685
 20
72.56437061552471
 30
0.0
 10
213.3917509279166
 20
72.49408999464856
 30
0.0
 10
213.3928577376521
 20
72.28768859257067
 30
0.0
 10
213.3772297525635
 20
72.1496127565485
 30
0.0
 10
213.3575770199299
 20
72.01283114780576
 30
0.0
  0
SPLINE
  5
236
330
1F
100
AcDbEntity
  8
0
  6
Continuous
 62
     7
370
    25
100
AcDbSpline
210
0.0
220
0.0
230
1.0
 70
     8
 71
     3
 72
     8
 73
     4
 74
     0
 42
0.000000001
 43
0.00000001
 40
0.0
 40
0.0
 40
0.0
 40
0.0
 40
1.0
 40
1.0
 40
1.0
 40
1.0
 10
211.8622453829812
 20
72.93078778533346
 30
0.0
 10
212.329107608648
 20
72.89869803126815
 30
0.0
 10
212.7961423930315
 20
72.83770209396249
 30
0.0
 10
213.2632675052068
 20
72.76157489144849
 30
0.0
  0
SPLINE
  5
237
330
1F
100
AcDbEntity
  8
0
  6
Continuous
 62
     7
370
    25
100
AcDbSpline
210
0.0
220
0.0
230
1.0
 70
     8
 71
     3
 72
    14
 73
    10
 74
     0
 42
0.000000001
 43
0.00000001
 40
0.0
 40
0.0
 40
0.0
 40
0.0
 40
0.4999999999999972
 40
0.4999999999999972
 40
0.7499999999999971
 40
0.7499999999999971
 40
0.8749999999999986
 40
0.8749999999999986
 40
1.0
 40
1.0
 40
1.0
 40
1.0
 10
209.0177080057632
 20
73.85536966149569
 30
0.0
 10
209.4827425384782
 20
73.65902441223483
 30
0.0
 10
209.9495984597598
 20
73.47137190076678
 30
0.0
 10
210.6566248453643
 20
73.22135394382234
 30
0.0
 10
210.8934098282554
 20
73.14319268602351
 30
0.0
 10
211.252190466387
 20
73.04262542062853
 30
0.0
 10
211.372389290388
 20
73.0119039243769
 30
0.0
 10
211.6149913884978
 20
72.96062921799233
 30
0.0
 10
211.7372431460866
 20
72.93937980845935
 30
0.0
 10
211.8622453829812
 20
72.93078778533341
 30
0.0
  0
LINE
  5
238
330
1F
100
AcDbEntity
  8
0
  6
Continuous
 62
     7
370
    25
100
AcDbLine
 10
228.9973245154
 20
89.8645507824
 30
0.0
 11
229.0435023868
 21
89.8412929056
 31
0.0
  0
SPLINE
  5
239
330
1F
100
AcDbEntity
  8
0
  6
Continuous
 62
     7
370
    25
100
AcDbSpline
210
0.0
220
0.0
230
1.0
 70
     8
 71
     3
 72
    14
 73
    10
 74
     0
 42
0.000000001
 43
0.00000001
 40
0.0
 40
0.0
 40
0.0
 40
0.0
 40
0.4999999999999986
 40
0.4999999999999986
 40
0.7499999999999978
 40
0.7499999999999978
 40
0.8749999999999989
 40
0.8749999999999989
 40
1.0
 40
1.0
 40
1.0
 40
1.0
 10
209.0177080057632
 20
61.53242568562128
 30
0.0
 10
209.4827425384782
 20
61.19758036938291
 30
0.0
 10
209.9495984597598
 20
60.85879219431138
 30
0.0
 10
210.6566248453643
 20
60.33649644727865
 30
0.0
 10
210.8934098282554
 20
60.16007473918827
 30
0.0
 10
211.252190466387
 20
59.88799258766933
 30
0.0
 10
211.372389290388
 20
59.79604722631242
 30
0.0
 10
211.6149913884978
 20
59.60762120548211
 30
0.0
 10
211.7372431460866
 20
59.51145046142747
 30
0.0
 10
211.8622453829812
 20
59.40964087745397
 30
0.0
  0
SPLINE
  5
23A
330
1F
100
AcDbEntity
  8
0
  6
Continuous
 62
     7
370
    25
100
AcDbSpline
210
0.0
220
0.0
230
1.0
 70
     8
 71
     3
 72
    17
 73
    13
 74
     0
 42
0.000000001
 43
0.00000001
 40
0.0
 40
0.0
 40
0.0
 40
0.0
 40
0.122958250592791
 40
0.2463492676913398
 40
0.3697162157184056
 40
0.4926215845377087
 40
0.614836802657562
 40
0.6764114562322111
 40
0.7372278325499086
 40
0.859284897591199
 40
0.9819106606912575
 40
1.0
 40
1.0
 40
1.0
 40
1.0
 10
217.4759515399302
 20
59.08864964239843
 30
0.0
 10
217.2721828076068
 20
59.46253924578936
 30
0.0
 10
216.8639281541431
 20
60.21163440246818
 30
0.0
 10
216.6706604929961
 20
61.35995289108211
 30
0.0
 10
216.8760231925178
 20
62.31229159439373
 30
0.0
 10
217.4353112060495
 20
62.94575755807838
 30
0.0
 10
218.1112108204684
 20
63.08706610507979
 30
0.0
 10
218.6860919551507
 20
62.96086969065569
 30
0.0
 10
219.2663628632697
 20
62.67280920109894
 30
0.0
 10
219.9296940056572
 20
62.01405409135275
 30
0.0
 10
220.4375555317359
 20
61.24562418483256
 30
0.0
 10
220.5826837789367
 20
60.78418517453824
 30
0.0
 10
220.6013404409577
 20
60.72486583578486
 30
0.0
  0
SPLINE
  5
23B
330
1F
100
AcDbEntity
  8
0
  6
Continuous
 62
     7
370
    25
100
AcDbSpline
210
0.0
220
0.0
230
1.0
 70
     8
 71
     3
 72
    12
 73
     8
 74
     0
 42
0.000000001
 43
0.00000001
 40
0.0
 40
0.0
 40
0.0
 40
0.0
 40
0.0337993900648823
 40
0.3549847183151192
 40
0.5152571538299028
 40
0.6776824044496613
 40
1.0
 40
1.0
 40
1.0
 40
1.0
 10
219.9759924364925
 20
57.05602817596192
 30
0.0
 10
219.9543196884499
 20
57.05238674982169
 30
0.0
 10
219.7266974046082
 20
57.01414195812055
 30
0.0
 10
219.2540671123159
 20
57.27760186026446
 30
0.0
 10
218.685430412278
 20
57.68688245577417
 30
0.0
 10
218.1019662233778
 20
58.22314508533359
 30
0.0
 10
217.7259644721932
 20
58.74299108530658
 30
0.0
 10
217.4759515399302
 20
59.08864964239843
 30
0.0
  0
ARC
  5
23C
330
1F
100
AcDbEntity
  8
0
  6
Continuous
 62
     7
370
    25
100
AcDbCircle
 10
258.6059028135
 20
58.4824397934
 30
0.0
 40
1.306493880554353
100
AcDbArc
 50
110.2517772115
 51
120.2335023561
  0
LINE
  5
23D
330
1F
100
AcDbEntity
  8
0
  6
Continuous
 62
     7
370
    25
100
AcDbLine
 10
257.5262016992
 20
59.3676971133
 30
0.0
 11
257.9480501884
 21
59.6112250625
 31
0.0
  0
LWPOLYLINE
  5
23E
330
1F
100
AcDbEntity
  8
0
  6
Continuous
 62
     7
370
    25
100
AcDbPolyline
 90
        9
 70
   128
 43
0.0
 10
252.9958871406
 20
56.7524021867
 10
253.51753778
 20
57.3960866222
 10
254.0771683707
 20
57.9693005043
 10
254.6625881117
 20
58.4595571383
 10
255.2610444199
 20
58.8561769416
 10
255.8595007282
 20
59.1505200843
 10
256.4449204692
 20
59.3361746961
 10
257.0045510599
 20
59.4090965406
 10
257.5262016992
 20
59.3676971133
  0
LINE
  5
23F
330
1F
100
AcDbEntity
  8
0
  6
Continuous
 62
     7
370
    25
100
AcDbLine
 10
252.5740386514
 20
56.5088742376
 30
0.0
 11
252.9958871406
 21
56.7524021867
 31
0.0
  0
ARC
  5
240
330
1F
100
AcDbEntity
  8
0
  6
Continuous
 62
     7
370
    25
100
AcDbCircle
 10
253.4367950952
 20
55.0251471953
 30
0.0
 40
1.716331732792365
100
AcDbArc
 50
120.1771113865
 51
128.4969973883
  0
LWPOLYLINE
  5
241
330
1F
100
AcDbEntity
  8
0
  6
Continuous
 62
     7
370
    25
100
AcDbPolyline
 90
       25
 70
   128
 43
0.0
 10
255.6756434897
 20
59.0710461649
 10
255.908379503
 20
59.0640186753
 10
256.3860440138
 20
58.9535415093
 10
256.7983726128
 20
58.7154318956
 10
257.1328369041
 20
58.3569246743
 10
257.3792743594
 20
57.888912906
 10
257.5301971013
 20
57.3256168912
 10
257.5810194187
 20
56.6841520946
 10
257.5301971013
 20
55.9840090992
 10
257.3792743594
 20
55.2464613957
 10
257.1328369041
 20
54.4939189978
 10
256.7983726128
 20
53.7492475256
 10
256.3860440138
 20
53.0350734449
 10
255.908379503
 20
52.3730965736
 10
255.3798926747
 20
51.7834307442
 10
254.8166413337
 20
51.2839926544
 10
254.2357395872
 20
50.8899574778
 10
253.6548378407
 20
50.613297774
 10
253.0915864998
 20
50.4624197079
 10
252.5630996714
 20
50.4419076334
 10
252.0854351606
 20
50.5523847994
 10
251.6731065616
 20
50.7904944131
 10
251.3386422703
 20
51.1490016343
 10
251.0922048151
 20
51.6170134027
 10
250.9677299447
 20
52.0408992685
  0
LINE
  5
242
330
1F
100
AcDbEntity
  8
0
  6
Continuous
 62
     7
370
    25
100
AcDbLine
 10
251.5487338187
 20
49.3028053651
 30
0.0
 11
252.6927109096
 21
49.9632092826
 31
0.0
  0
LINE
  5
243
330
1F
100
AcDbEntity
  8
0
  6
Continuous
 62
     7
370
    25
100
AcDbLine
 10
251.4629683102
 20
49.2570533043
 30
0.0
 11
251.5487338187
 21
49.3028053651
 31
0.0
  0
LWPOLYLINE
  5
244
330
1F
100
AcDbEntity
  8
0
  6
Continuous
 62
     7
370
    25
100
AcDbPolyline
 90
        3
 70
   128
 43
0.0
 10
258.0329607469
 20
59.2861018595
 10
258.0537077308
 20
59.5846501005
 10
258.0495385515
 20
59.6645460061
  0
ARC
  5
245
330
1F
100
AcDbEntity
  8
0
  6
Continuous
 62
     7
370
    25
100
AcDbCircle
 10
252.9694049844
 20
56.9450522699
 30
0.0
 40
5.578540144216451
100
AcDbArc
 50
335.1873353003
 51
24.8126646997
  0
ARC
  5
246
330
1F
100
AcDbEntity
  8
0
  6
Continuous
 62
     7
370
    25
100
AcDbCircle
 10
255.6780626433
 20
54.4133081803
 30
0.0
 40
2.362606499360425
100
AcDbArc
 50
301.7912553701
 51
4.6295852366
  0
LINE
  5
247
330
1F
100
AcDbEntity
  8
0
  6
Continuous
 62
     7
370
    25
100
AcDbLine
 10
255.7787682648
 20
51.7447522726
 30
0.0
 11
256.9227453557
 21
52.40515619
 31
0.0
  0
ARC
  5
248
330
1F
100
AcDbEntity
  8
0
  6
Continuous
 62
     7
370
    25
100
AcDbCircle
 10
251.9852858613
 20
54.7523033624
 30
0.0
 40
4.841061072136482
100
AcDbArc
 50
278.4027299562
 51
321.5918935111
  0
ARC
  5
249
330
1F
100
AcDbEntity
  8
0
  6
Continuous
 62
     7
370
    25
100
AcDbCircle
 10
253.1670265904
 20
49.3587071127
 30
0.0
 40
1.724349667492054
100
AcDbArc
 50
171.0177039064
 51
179.9902588546
  0
ARC
  5
24A
330
1F
100
AcDbEntity
  8
0
  6
Continuous
 62
     7
370
    25
100
AcDbCircle
 10
256.5273790227
 20
51.9689781577
 30
0.0
 40
5.578540144216864
100
AcDbArc
 50
155.1873353003
 51
204.8126646997
  0
ARC
  5
24B
330
1F
100
AcDbEntity
  8
0
  6
Continuous
 62
     7
370
    25
100
AcDbCircle
 10
252.7420147306
 20
54.5437409898
 30
0.0
 40
1.299382666692457
100
AcDbArc
 50
179.5237711273
 51
190.3618866345
  0
LINE
  5
24C
330
1F
100
AcDbEntity
  8
0
  6
Continuous
 62
     7
370
    25
100
AcDbLine
 10
256.4770826061
 20
59.3178859005
 30
0.0
 11
257.5262016992
 21
59.3676971133
 31
0.0
  0
SPLINE
  5
24D
330
1F
100
AcDbEntity
  8
0
  6
Continuous
 62
     7
370
    25
100
AcDbSpline
210
0.0
220
0.0
230
1.0
 70
     8
 71
     3
 72
    14
 73
    10
 74
     0
 42
0.000000001
 43
0.00000001
 40
0.0
 40
0.0
 40
0.0
 40
0.0
 40
0.25
 40
0.25
 40
0.5
 40
0.5
 40
0.75
 40
0.75
 40
1.0
 40
1.0
 40
1.0
 40
1.0
 10
264.5912458682112
 20
64.68998552480997
 30
0.0
 10
264.6379279045498
 20
64.66303655885653
 30
0.0
 10
264.6756145191559
 20
64.62992983470541
 30
0.0
 10
264.7244859979103
 20
64.55932126164288
 30
0.0
 10
264.7365872283101
 20
64.5208256872528
 30
0.0
 10
264.7344176167549
 20
64.44486757305742
 30
0.0
 10
264.720177202673
 20
64.40667386546505
 30
0.0
 10
264.6683257600834
 20
64.33667921654
 30
0.0
 10
264.6306192199798
 20
64.3045112210582
 30
0.0
 10
264.5838017892623
 20
64.27748409359363
 30
0.0
  0
ARC
  5
24E
330
1F
100
AcDbEntity
  8
0
  6
Continuous
 62
     7
370
    25
100
AcDbCircle
 10
239.0606261822
 20
44.5521085259
 30
0.0
 40
8.574407599718262
100
AcDbArc
 50
219.8226101037
 51
260.0724495924
  0
SPLINE
  5
24F
330
1F
100
AcDbEntity
  8
0
  6
Continuous
 62
     7
370
    25
100
AcDbSpline
210
0.0
220
0.0
230
1.0
 70
     8
 71
     3
 72
    14
 73
    10
 74
     0
 42
0.000000001
 43
0.00000001
 40
0.0
 40
0.0
 40
0.0
 40
0.0
 40
0.25
 40
0.25
 40
0.5
 40
0.5
 40
0.75
 40
0.75
 40
1.0
 40
1.0
 40
1.0
 40
1.0
 10
230.0261734315418
 20
44.32772353383124
 30
0.0
 10
230.0733945949655
 20
44.30046333643641
 30
0.0
 10
230.1296813543968
 20
44.27918140491225
 30
0.0
 10
230.2531107024701
 20
44.25082677508113
 30
0.0
 10
230.3197640259301
 20
44.24398339274097
 30
0.0
 10
230.4518889028717
 20
44.24546550837016
 30
0.0
 10
230.5182482588564
 20
44.25385604005637
 30
0.0
 10
230.6395024909772
 20
44.28397436352774
 30
0.0
 10
230.6956135934545
 20
44.30597905736855
 30
0.0
 10
230.7423481669818
 20
44.33295835239551
 30
0.0
  0
LINE
  5
250
330
1F
100
AcDbEntity
  8
0
  6
Continuous
 62
     7
370
    25
100
AcDbLine
 10
228.3687253969
 20
45.2845479177
 30
0.0
 11
230.0261734315
 21
44.3277235338
 31
0.0
  0
SPLINE
  5
251
330
1F
100
AcDbEntity
  8
0
  6
Continuous
 62
     7
370
    25
100
AcDbSpline
210
0.0
220
0.0
230
1.0
 70
     8
 71
     3
 72
     8
 73
     4
 74
     0
 42
0.000000001
 43
0.00000001
 40
0.0
 40
0.0
 40
0.0
 40
0.0
 40
1.0
 40
1.0
 40
1.0
 40
1.0
 10
228.7405137579446
 20
46.05108050004425
 30
0.0
 10
228.6163355900597
 20
45.79560970081818
 30
0.0
 10
228.4924178899179
 20
45.54009685414521
 30
0.0
 10
228.3687253968857
 20
45.28454791765856
 30
0.0
  0
LINE
  5
252
330
1F
100
AcDbEntity
  8
0
  6
Continuous
 62
     7
370
    25
100
AcDbLine
 10
229.0616143077
 20
46.2364479017
 30
0.0
 11
228.7405137579
 21
46.0510805
 31
0.0
  0
SPLINE
  5
253
330
1F
100
AcDbEntity
  8
0
  6
Continuous
 62
     7
370
    25
100
AcDbSpline
210
0.0
220
0.0
230
1.0
 70
     8
 71
     3
 72
    12
 73
     8
 74
     0
 42
0.000000001
 43
0.00000001
 40
0.0
 40
0.0
 40
0.0
 40
0.0
 40
0.250000000000003
 40
0.250000000000003
 40
0.500000000000006
 40
0.500000000000006
 40
1.0
 40
1.0
 40
1.0
 40
1.0
 10
229.0699239876876
 20
46.56780822263921
 30
0.0
 10
229.1073160252704
 20
46.54622225881278
 30
0.0
 10
229.1375264985879
 20
46.51958140602271
 30
0.0
 10
229.1764258685974
 20
46.46260320271691
 30
0.0
 10
229.1857562345273
 20
46.43171163304009
 30
0.0
 10
229.1821511711134
 20
46.34015529147802
 30
0.0
 10
229.1365461462018
 20
46.279705131373
 30
0.0
 10
229.0616143076751
 20
46.23644790174752
 30
0.0
  0
LINE
  5
254
330
1F
100
AcDbEntity
  8
0
  6
Continuous
 62
     7
370
    25
100
AcDbLine
 10
228.2850354606
 20
47.0209147247
 30
0.0
 11
229.0699239877
 21
46.5678082226
 31
0.0
  0
SPLINE
  5
255
330
1F
100
AcDbEntity
  8
0
  6
Continuous
 62
     7
370
    25
100
AcDbSpline
210
0.0
220
0.0
230
1.0
 70
     8
 71
     3
 72
    14
 73
    10
 74
     0
 42
0.000000001
 43
0.00000001
 40
0.0
 40
0.0
 40
0.0
 40
0.0
 40
0.25
 40
0.25
 40
0.5
 40
0.5
 40
0.75
 40
0.75
 40
1.0
 40
1.0
 40
1.0
 40
1.0
 10
227.7110403556088
 20
47.01611764853826
 30
0.0
 10
227.7488861533873
 20
47.03796556254986
 30
0.0
 10
227.7932050705352
 20
47.05533820733877
 30
0.0
 10
227.8909066070873
 20
47.07969968203064
 30
0.0
 10
227.9436597386991
 20
47.0864136465622
 30
0.0
 10
228.0496130959276
 20
47.08777109614822
 30
0.0
 10
228.1029773822229
 20
47.08239339500912
 30
0.0
 10
228.2021551569946
 20
47.05975245149328
 30
0.0
 10
228.2471620503958
 20
47.04277857900941
 30
0.0
 10
228.2850354605705
 20
47.02091472470082
 30
0.0
  0
LINE
  5
256
330
1F
100
AcDbEntity
  8
0
  6
Continuous
 62
     7
370
    25
100
AcDbLine
 10
227.3899398059
 20
46.8307502468
 30
0.0
 11
227.7110403556
 21
47.0161176485
 31
0.0
  0
SPLINE
  5
257
330
1F
100
AcDbEntity
  8
0
  6
Continuous
 62
     7
370
    25
100
AcDbSpline
210
0.0
220
0.0
230
1.0
 70
     8
 71
     3
 72
     8
 73
     4
 74
     0
 42
0.000000001
 43
0.00000001
 40
0.0
 40
0.0
 40
0.0
 40
0.0
 40
1.0
 40
1.0
 40
1.0
 40
1.0
 10
226.0621225557649
 20
46.61612139449921
 30
0.0
 10
226.5047942619813
 20
46.68752755080391
 30
0.0
 10
226.9474034520329
 20
46.75906371640568
 30
0.0
 10
227.3899398058783
 20
46.83075024683493
 30
0.0
  0
LINE
  5
258
330
1F
100
AcDbEntity
  8
0
  6
Continuous
 62
     7
370
    25
100
AcDbLine
 10
263.1452850302
 20
65.5247209488
 30
0.0
 11
264.5912458682
 21
64.6899855248
 31
0.0
  0
ARC
  5
259
330
1F
100
AcDbEntity
  8
0
  6
Continuous
 62
     7
370
    25
100
AcDbCircle
 10
238.7564629364
 20
46.9608887766
 30
0.0
 40
10.5221295309543
100
AcDbArc
 50
189.1671816022
 51
237.5734356253
  0
LWPOLYLINE
  5
25A
330
1F
100
AcDbEntity
  8
0
  6
Continuous
 62
     7
370
    25
100
AcDbPolyline
 90
       23
 70
   128
 43
0.0
 10
255.5588008437
 20
59.0154609488
 10
255.7058403357
 20
58.9947815465
 10
256.1518447587
 20
58.8415321418
 10
256.5271731874
 20
58.5621207716
 10
256.8197622573
 20
58.165527947
 10
257.020207915
 20
57.6645004878
 10
257.122067672
 20
57.0751418288
 10
257.122067672
 20
56.4163944422
 10
257.020207915
 20
55.709431011
 10
256.8197622573
 20
54.9769739216
 10
256.5271731874
 20
54.2425649475
 10
256.1518447587
 20
53.5298085974
 10
255.7058403357
 20
52.8616134469
 10
255.2034948675
 20
52.2594558379
 10
254.6609541508
 20
51.7426896114
 10
254.0956558907
 20
51.3279240591
 10
253.5257692384
 20
51.0284900872
 10
252.9696108197
 20
50.8540117498
 10
252.4450560239
 20
50.8100969244
 10
251.9689644737
 20
50.8981570694
 10
251.5566381433
 20
51.1153618595
 10
251.2213295401
 20
51.4547301539
 10
251.0495358419
 20
51.7365396716
  0
ARC
  5
25B
330
1F
100
AcDbEntity
  8
0
  6
Continuous
 62
     7
370
    25
100
AcDbCircle
 10
239.0163080252
 20
49.3427623874
 30
0.0
 40
11.89464766047036
100
AcDbArc
 50
192.1920072326
 51
214.8828158913
  0
ARC
  5
25C
330
1F
100
AcDbEntity
  8
0
  6
Continuous
 62
     7
370
    25
100
AcDbCircle
 10
251.9161860264
 20
49.8396947531
 30
0.0
 40
1.30649388056025
100
AcDbArc
 50
290.2517772116
 51
300.2335023561
  0
SPLINE
  5
25D
330
1F
100
AcDbEntity
  8
0
  6
Continuous
 62
     7
370
    25
100
AcDbSpline
210
0.0
220
0.0
230
1.0
 70
     8
 71
     3
 72
    16
 73
    12
 74
     0
 42
0.000000001
 43
0.00000001
 40
0.0
 40
0.0
 40
0.0
 40
0.0
 40
0.0472308049890971
 40
0.1719764172762288
 40
0.2913891892271448
 40
0.4142513194361593
 40
0.534022508603683
 40
0.6571621422807357
 40
0.7788080051010797
 40
0.903942247840835
 40
1.0
 40
1.0
 40
1.0
 40
1.0
 10
218.8770273757392
 20
62.75737771700851
 30
0.0
 10
218.8651687165879
 20
62.7105240187576
 30
0.0
 10
218.8219890647693
 20
62.53992071942371
 30
0.0
 10
218.8215305554751
 20
62.21065535026832
 30
0.0
 10
218.8756579691236
 20
61.78179460537034
 30
0.0
 10
219.0003026228949
 20
61.34415835067922
 30
0.0
 10
219.1875201594128
 20
60.90239650921912
 30
0.0
 10
219.4291793196124
 20
60.47153668076038
 30
0.0
 10
219.7213313304582
 20
60.05637516986383
 30
0.0
 10
220.0240370019413
 20
59.69465123571781
 30
0.0
 10
220.2360226138935
 20
59.49286710209874
 30
0.0
 10
220.3280822808064
 20
59.40523766367492
 30
0.0
  0
ARC
  5
25E
330
1F
100
AcDbEntity
  8
0
  6
Continuous
 62
     7
370
    25
100
AcDbCircle
 10
257.3550622495
 20
58.9634274338
 30
0.0
 40
1.724349667480259
100
AcDbArc
 50
351.0177039064
 51
359.9902588546
  0
LINE
  5
25F
330
1F
100
AcDbEntity
  8
0
  6
Continuous
 62
     7
370
    25
100
AcDbLine
 10
258.0329607469
 20
59.2861018595
 30
0.0
 11
259.0582655796
 21
58.6942059785
 31
0.0
  0
LWPOLYLINE
  5
260
330
1F
100
AcDbEntity
  8
0
  6
Continuous
 62
     7
370
    25
100
AcDbPolyline
 90
        9
 70
   128
 43
0.0
 10
257.5262016992
 20
51.5697323598
 10
257.0045510599
 20
50.9260479244
 10
256.4449204692
 20
50.3528340422
 10
255.8595007282
 20
49.8625774082
 10
255.2610444199
 20
49.4659576049
 10
254.6625881117
 20
49.1716144623
 10
254.0771683707
 20
48.9859598505
 10
253.51753778
 20
48.913038006
 10
252.9958871406
 20
48.9544374332
  0
LINE
  5
261
330
1F
100
AcDbEntity
  8
0
  6
Continuous
 62
     7
370
    25
100
AcDbLine
 10
257.9480501884
 20
51.813260309
 30
0.0
 11
257.5262016992
 21
51.5697323598
 31
0.0
  0
ARC
  5
262
330
1F
100
AcDbEntity
  8
0
  6
Continuous
 62
     7
370
    25
100
AcDbCircle
 10
257.0852937447
 20
53.2969873512
 30
0.0
 40
1.716331732803395
100
AcDbArc
 50
300.1771113865
 51
308.4969973883
  0
LINE
  5
263
330
1F
100
AcDbEntity
  8
0
  6
Continuous
 62
     7
370
    25
100
AcDbLine
 10
252.9958871406
 20
48.9544374332
 30
0.0
 11
252.5740386514
 21
48.710909484
 31
0.0
  0
LINE
  5
264
330
1F
100
AcDbEntity
  8
0
  6
Continuous
 62
     7
370
    25
100
AcDbLine
 10
252.6927109096
 20
49.9632092826
 30
0.0
 11
253.1056433066
 21
49.7248284839
 31
0.0
  0
SPLINE
  5
265
330
1F
100
AcDbEntity
  8
0
  6
Continuous
 62
     7
370
    25
100
AcDbSpline
210
0.0
220
0.0
230
1.0
 70
     8
 71
     3
 72
     8
 73
     4
 74
     0
 42
0.000000001
 43
0.00000001
 40
0.0
 40
0.0
 40
0.0
 40
0.0
 40
1.0
 40
1.0
 40
1.0
 40
1.0
 10
253.1056433066008
 20
49.72482848386598
 30
0.0
 10
253.0331941827453
 20
49.46798427656492
 30
0.0
 10
253.0038200606913
 20
49.2111967484546
 30
0.0
 10
252.9958871406228
 20
48.95443743322706
 30
0.0
  0
ARC
  5
266
330
1F
100
AcDbEntity
  8
0
  6
Continuous
 62
     7
370
    25
100
AcDbCircle
 10
252.3982182583
 20
54.5139225637
 30
0.0
 40
4.841061072136445
100
AcDbArc
 50
278.4027299562
 51
321.5918935111
  0
SPLINE
  5
267
330
1F
100
AcDbEntity
  8
0
  6
Continuous
 62
     7
370
    25
100
AcDbSpline
210
0.0
220
0.0
230
1.0
 70
     8
 71
     3
 72
     8
 73
     4
 74
     0
 42
0.000000001
 43
0.00000001
 40
0.0
 40
0.0
 40
0.0
 40
0.0
 40
1.0
 40
1.0
 40
1.0
 40
1.0
 10
257.5262016992379
 20
51.5697323597978
 30
0.0
 10
257.0775719099808
 20
51.56511302325542
 30
0.0
 10
256.631873929469
 20
51.54774967941921
 30
0.0
 10
256.1917006618683
 20
51.50637147385305
 30
0.0
  0
ARC
  5
268
330
1F
100
AcDbEntity
  8
0
  6
Continuous
 62
     7
370
    25
100
AcDbCircle
 10
257.7800741093
 20
53.7783935568
 30
0.0
 40
1.299382666684565
100
AcDbArc
 50
359.5237711273
 51
10.3618866346
  0
ARC
  5
269
330
1F
100
AcDbEntity
  8
0
  6
Continuous
 62
     7
370
    25
100
AcDbCircle
 10
253.9947098172
 20
56.3531563888
 30
0.0
 40
5.578540144217153
100
AcDbArc
 50
335.1873353003
 51
24.8126646997
  0
LINE
  5
26A
330
1F
100
AcDbEntity
  8
0
  6
Continuous
 62
     7
370
    25
100
AcDbLine
 10
258.0329607469
 20
54.6040026803
 30
0.0
 11
259.0582655796
 21
54.0121067992
 31
0.0
  0
LINE
  5
26B
330
1F
100
AcDbEntity
  8
0
  6
Continuous
 62
     7
370
    25
100
AcDbLine
 10
256.1917006619
 20
51.5063714739
 30
0.0
 11
255.7787682648
 21
51.7447522726
 31
0.0
  0
SPLINE
  5
26C
330
1F
100
AcDbEntity
  8
0
  6
Continuous
 62
     7
370
    25
100
AcDbSpline
210
0.0
220
0.0
230
1.0
 70
     8
 71
     3
 72
    15
 73
    11
 74
     0
 42
0.000000001
 43
0.00000001
 40
0.0
 40
0.0
 40
0.0
 40
0.0
 40
0.1894518803068432
 40
0.364483561902618
 40
0.5251984212920191
 40
0.6717347279183455
 40
0.7481995937017405
 40
0.8297624964410809
 40
0.916444028572025
 40
1.0
 40
1.0
 40
1.0
 40
1.0
 10
217.766264991131
 20
59.27106004768046
 30
0.0
 10
217.8926840927736
 20
59.08805027667391
 30
0.0
 10
218.1358998602
 20
58.7359605898816
 30
0.0
 10
218.5422678153396
 20
58.29387477733962
 30
0.0
 10
218.9282510156752
 20
57.94865101086733
 30
0.0
 10
219.2351515053053
 20
57.72820500119069
 30
0.0
 10
219.4700109464643
 20
57.58691242446366
 30
0.0
 10
219.6532331964144
 20
57.49448084578248
 30
0.0
 10
219.835500875573
 20
57.4205978122349
 30
0.0
 10
219.9505053655002
 20
57.39309737960625
 30
0.0
 10
220.0069518691998
 20
57.37959961727457
 30
0.0
  0
SPLINE
  5
26D
330
1F
100
AcDbEntity
  8
0
  6
Continuous
 62
     7
370
    25
100
AcDbSpline
210
0.0
220
0.0
230
1.0
 70
     8
 71
     3
 72
    23
 73
    19
 74
     0
 42
0.000000001
 43
0.00000001
 40
0.0
 40
0.0
 40
0.0
 40
0.0
 40
0.0290575824079568
 40
0.1765000269536851
 40
0.2607619146017933
 40
0.3055419676604189
 40
0.3520584019412766
 40
0.4217066554197879
 40
0.4757116033778316
 40
0.5140545290557682
 40
0.5998210447682331
 40
0.6759518041717516
 40
0.7128535184965454
 40
0.7521734719733856
 40
0.7939171089840807
 40
0.8380889017471163
 40
0.901907146854829
 40
0.9999999999999999
 40
0.9999999999999999
 40
0.9999999999999999
 40
0.9999999999999999
 10
219.4288322455422
 20
62.48738999627034
 30
0.0
 10
219.3832587711077
 20
62.52473049556421
 30
0.0
 10
219.1064387881814
 20
62.75154217725552
 30
0.0
 10
218.6540686303831
 20
62.89893817461505
 30
0.0
 10
218.2151234627936
 20
62.8987873347964
 30
0.0
 10
217.9557747075925
 20
62.83164581714185
 30
0.0
 10
217.7338625602091
 20
62.73005829092639
 30
0.0
 10
217.5267922695729
 20
62.57109643265571
 30
0.0
 10
217.3650195381707
 20
62.37290220071449
 30
0.0
 10
217.2187444025419
 20
62.11990967304148
 30
0.0
 10
217.1067144981718
 20
61.78659636125109
 30
0.0
 10
217.0693992143456
 20
61.40720071563857
 30
0.0
 10
217.0828437013153
 20
61.09955952108397
 30
0.0
 10
217.1145565209211
 20
60.8539725396869
 30
0.0
 10
217.1713846455384
 20
60.58714178071685
 30
0.0
 10
217.2680764456755
 20
60.26385059054307
 30
0.0
 10
217.4450408209888
 20
59.8153547008946
 30
0.0
 10
217.6450753123626
 20
59.47640852487994
 30
0.0
 10
217.766264991131
 20
59.27106004768047
 30
0.0
  0
SPLINE
  5
26E
330
1F
100
AcDbEntity
  8
0
  6
Continuous
 62
     7
370
    25
100
AcDbSpline
210
0.0
220
0.0
230
1.0
 70
     8
 71
     3
 72
     9
 73
     5
 74
     0
 42
0.000000001
 43
0.00000001
 40
0.0
 40
0.0
 40
0.0
 40
0.0
 40
0.1883699358114506
 40
1.0
 40
1.0
 40
1.0
 40
1.0
 10
258.7081899782148
 20
80.33021521850968
 30
0.0
 10
258.7505660203408
 20
80.33974771810155
 30
0.0
 10
258.9755278325507
 20
80.39035292508868
 30
0.0
 10
259.2012951591063
 20
80.43975168601955
 30
0.0
 10
259.3845347088502
 20
80.4798452055247
 30
0.0
  0
LINE
  5
26F
330
1F
100
AcDbEntity
  8
0
  6
Continuous
 62
     7
370
    25
100
AcDbLine
 10
259.3845347089
 20
80.4798452055
 30
0.0
 11
261.0419827435
 21
79.5230208217
 31
0.0
  0
SPLINE
  5
270
330
1F
100
AcDbEntity
  8
0
  6
Continuous
 62
     7
370
    25
100
AcDbSpline
210
0.0
220
0.0
230
1.0
 70
     8
 71
     3
 72
    16
 73
    12
 74
     0
 42
0.000000001
 43
0.00000001
 40
0.0
 40
0.0
 40
0.0
 40
0.0
 40
0.1249999999999978
 40
0.1249999999999978
 40
0.2499999999999955
 40
0.2499999999999955
 40
0.499999999999997
 40
0.499999999999997
 40
0.7499999999999984
 40
0.7499999999999984
 40
1.0
 40
1.0
 40
1.0
 40
1.0
 10
261.0419827435063
 20
79.5230208216974
 30
0.0
 10
261.0687247110647
 20
79.50758301242897
 30
0.0
 10
261.0916953097112
 20
79.48969129302172
 30
0.0
 10
261.1276722618352
 20
79.45151129647658
 30
0.0
 10
261.1409348006142
 20
79.431227479006
 30
0.0
 10
261.1676899113199
 20
79.3671011477113
 30
0.0
 10
261.1668729060595
 20
79.32260829608215
 30
0.0
 10
261.1387925158132
 20
79.2375286037383
 30
0.0
 10
261.1112231608888
 20
79.19615574769199
 30
0.0
 10
261.0380490051293
 20
79.12072461498403
 30
0.0
 10
260.9918151667167
 20
79.08585564016026
 30
0.0
 10
260.9386513817884
 20
79.05516484039322
 30
0.0
  0
LINE
  5
271
330
1F
100
AcDbEntity
  8
0
  6
Continuous
 62
     7
370
    25
100
AcDbLine
 10
211.6549341268
 20
65.2315695897
 30
0.0
 11
212.2777076581
 21
64.8720500827
 31
0.0
  0
SPLINE
  5
272
330
1F
100
AcDbEntity
  8
0
  6
Continuous
 62
     7
370
    25
100
AcDbSpline
210
0.0
220
0.0
230
1.0
 70
     8
 71
     3
 72
    11
 73
     7
 74
     0
 42
0.000000001
 43
0.00000001
 40
0.0
 40
0.0
 40
0.0
 40
0.0
 40
0.0466199581513573
 40
0.4280299060903224
 40
0.8085952959756123
 40
1.0
 40
1.0
 40
1.0
 40
1.0
 10
264.5838017892623
 20
72.44289221245113
 30
0.0
 10
264.5887796506614
 20
72.44583993473425
 30
0.0
 10
264.6344826849771
 20
72.47290373620592
 30
0.0
 10
264.7009209750817
 20
72.53414333636731
 30
0.0
 10
264.7435422938731
 20
72.61794236157412
 30
0.0
 10
264.7296995110388
 20
72.66812483297186
 30
0.0
 10
264.7250671469004
 20
72.68491795063198
 30
0.0
  0
LINE
  5
273
330
1F
100
AcDbEntity
  8
0
  6
Continuous
 62
     7
370
    25
100
AcDbLine
 10
209.0029429556
 20
74.9130008157
 30
0.0
 11
209.0220065384
 21
74.9703091324
 31
0.0
  0
SPLINE
  5
274
330
1F
100
AcDbEntity
  8
0
  6
Continuous
 62
     7
370
    25
100
AcDbSpline
210
0.0
220
0.0
230
1.0
 70
     8
 71
     3
 72
    16
 73
    12
 74
     0
 42
0.000000001
 43
0.00000001
 40
0.0
 40
0.0
 40
0.0
 40
0.0
 40
0.0139163541919569
 40
0.1458088914458776
 40
0.2241915235234496
 40
0.2867995246399403
 40
0.3496447994112752
 40
0.4249120346158458
 40
0.5508575723474369
 40
0.9124529492119211
 40
1.0
 40
1.0
 40
1.0
 40
1.0
 10
209.0481841567446
 20
75.04900342887055
 30
0.0
 10
209.0488551970643
 20
75.05103517595494
 30
0.0
 10
209.055886036017
 20
75.07232284842908
 30
0.0
 10
209.0655681264542
 20
75.09432599030345
 30
0.0
 10
209.0756368089459
 20
75.11188299217983
 30
0.0
 10
209.0804942557523
 20
75.11123000466311
 30
0.0
 10
209.0816976423679
 20
75.09586797590528
 30
0.0
 10
209.0784194841391
 20
75.05929526769278
 30
0.0
 10
209.0629088538216
 20
74.95897214321754
 30
0.0
 10
209.0399147531172
 20
74.8436752706019
 30
0.0
 10
209.0212100981077
 20
74.75463114737367
 30
0.0
 10
209.0175641780581
 20
74.73727462548064
 30
0.0
  0
SPLINE
  5
275
330
1F
100
AcDbEntity
  8
0
  6
Continuous
 62
     7
370
    25
100
AcDbSpline
210
0.0
220
0.0
230
1.0
 70
     8
 71
     3
 72
    10
 73
     6
 74
     0
 42
0.000000001
 43
0.00000001
 40
0.0
 40
0.0
 40
0.0
 40
0.0
 40
0.1815690553731895
 40
0.7767097940434219
 40
1.0
 40
1.0
 40
1.0
 40
1.0
 10
208.9336270468011
 20
74.4733959863566
 30
0.0
 10
208.9320022324482
 20
74.49910144825391
 30
0.0
 10
208.9250516580851
 20
74.60906337967994
 30
0.0
 10
208.9558088792885
 20
74.7518226720562
 30
0.0
 10
208.9928398895303
 20
74.87845270188119
 30
0.0
 10
209.0029429555959
 20
74.9130008157148
 30
0.0
  0
SPLINE
  5
276
330
1F
100
AcDbEntity
  8
0
  6
Continuous
 62
     7
370
    25
100
AcDbSpline
210
0.0
220
0.0
230
1.0
 70
     8
 71
     3
 72
     8
 73
     4
 74
     0
 42
0.000000001
 43
0.00000001
 40
0.0
 40
0.0
 40
0.0
 40
0.0
 40
1.0
 40
1.0
 40
1.0
 40
1.0
 10
208.9284788553917
 20
73.87636661128644
 30
0.0
 10
208.9570811509661
 20
73.87481319615289
 30
0.0
 10
208.9867775307037
 20
73.86842901819013
 30
0.0
 10
209.017708005762
 20
73.85536966150202
 30
0.0
  0
SPLINE
  5
277
330
1F
100
AcDbEntity
  8
0
  6
Continuous
 62
     7
370
    25
100
AcDbSpline
210
0.0
220
0.0
230
1.0
 70
     8
 71
     3
 72
    10
 73
     6
 74
     0
 42
0.000000001
 43
0.00000001
 40
0.0
 40
0.0
 40
0.0
 40
0.0
 40
0.4999999999999989
 40
0.4999999999999989
 40
1.0
 40
1.0
 40
1.0
 40
1.0
 10
209.0175641780586
 20
74.73727462548088
 30
0.0
 10
208.9875757081496
 20
74.59548376931086
 30
0.0
 10
208.9671424089631
 20
74.45322595326753
 30
0.0
 10
208.9385094217373
 20
74.16641568509775
 30
0.0
 10
208.9306383620908
 20
74.0219591519022
 30
0.0
 10
208.9284788553926
 20
73.87636661128272
 30
0.0
  0
ARC
  5
278
330
1F
100
AcDbEntity
  8
0
  6
Continuous
 62
     7
370
    25
100
AcDbCircle
 10
210.1478116245
 20
73.7083123731
 30
0.0
 40
1.230859305078376
100
AcDbArc
 50
172.152662553
 51
234.515109951
  0
SPLINE
  5
279
330
1F
100
AcDbEntity
  8
0
  6
Continuous
 62
     7
370
    25
100
AcDbSpline
210
0.0
220
0.0
230
1.0
 70
     8
 71
     3
 72
     8
 73
     4
 74
     0
 42
0.000000001
 43
0.00000001
 40
0.0
 40
0.0
 40
0.0
 40
0.0
 40
1.0
 40
1.0
 40
1.0
 40
1.0
 10
208.9284788553925
 20
61.61244784372037
 30
0.0
 10
208.9570811509666
 20
61.58175043986225
 30
0.0
 10
208.986777530704
 20
61.55469698801178
 30
0.0
 10
209.017708005762
 20
61.53242568561672
 30
0.0
  0
ARC
  5
27A
330
1F
100
AcDbEntity
  8
0
  6
Continuous
 62
     7
370
    25
100
AcDbCircle
 10
212.6609804917
 20
61.5049565777
 30
0.0
 40
3.734049120875672
100
AcDbArc
 50
122.5266432908
 51
178.3504108787
  0
LINE
  5
27B
330
1F
100
AcDbEntity
  8
0
  6
Continuous
 62
     7
370
    25
100
AcDbLine
 10
210.6532131288
 20
64.6532883667
 30
0.0
 11
211.6549341268
 21
65.2315695897
 31
0.0
  0
SPLINE
  5
27C
330
1F
100
AcDbEntity
  8
0
  6
Continuous
 62
     7
370
    25
100
AcDbSpline
210
0.0
220
0.0
230
1.0
 70
     8
 71
     3
 72
    10
 73
     6
 74
     0
 42
0.000000001
 43
0.00000001
 40
0.0
 40
0.0
 40
0.0
 40
0.0
 40
0.3881760899110997
 40
0.8316612909014137
 40
1.0
 40
1.0
 40
1.0
 40
1.0
 10
208.9622840252043
 20
62.67959868154733
 30
0.0
 10
208.9544714615809
 20
62.63289973232209
 30
0.0
 10
208.9377331644083
 20
62.53284795323056
 30
0.0
 10
208.9276067860591
 20
62.41032163800136
 30
0.0
 10
208.929041887256
 20
62.33553670302417
 30
0.0
 10
208.9294367444673
 20
62.31496019529623
 30
0.0
  0
ARC
  5
27D
330
1F
100
AcDbEntity
  8
0
  6
Continuous
 62
     7
370
    25
100
AcDbCircle
 10
211.4458943604
 20
62.1921665955
 30
0.0
 40
2.530989991238284
100
AcDbArc
 50
122.9343892187
 51
168.8962877716
  0
LINE
  5
27E
330
1F
100
AcDbEntity
  8
0
  6
Continuous
 62
     7
370
    25
100
AcDbLine
 10
210.6532131288
 20
64.6532883667
 30
0.0
 11
210.0698500343
 21
64.316410543
 31
0.0
  0
SPLINE
  5
27F
330
1F
100
AcDbEntity
  8
0
  6
Continuous
 62
     7
370
    25
100
AcDbSpline
210
0.0
220
0.0
230
1.0
 70
     8
 71
     3
 72
     9
 73
     5
 74
     0
 42
0.000000001
 43
0.00000001
 40
0.0
 40
0.0
 40
0.0
 40
0.0
 40
0.2381582699174667
 40
1.0
 40
1.0
 40
1.0
 40
1.0
 10
208.9733739486495
 20
61.47082066715552
 30
0.0
 10
208.966076820608
 20
61.48090353755104
 30
0.0
 10
208.935436994227
 20
61.52324038522384
 30
0.0
 10
208.9314876390065
 20
61.57387345684081
 30
0.0
 10
208.9284788553927
 20
61.61244784372087
 30
0.0
  0
LWPOLYLINE
  5
280
330
1F
100
AcDbEntity
  8
0
  6
Continuous
 62
     7
370
    18
100
AcDbPolyline
 90
       28
 70
   128
 43
0.0
 10
230.742348167
 20
53.3149072831
 10
231.0838090843
 20
54.9697599943
 10
231.5195202334
 20
56.6451255571
 10
232.0469988647
 20
58.3314574786
 10
232.6632393231
 20
60.0191467782
 10
233.3647301749
 20
61.6985767404
 10
234.1474742165
 20
63.3601777131
 10
235.0070112509
 20
64.994481636
 10
235.9384435029
 20
66.5921759922
 10
236.936463527
 20
68.1441568713
 10
237.9953844504
 20
69.6415808457
 10
239.1091723774
 20
71.0759153614
 10
240.2714807718
 20
72.4389873579
 10
241.4756866201
 20
73.7230298396
 10
242.7149281706
 20
74.9207261333
 10
243.9821440328
 20
76.0252515799
 10
245.2701134143
 20
77.030312422
 10
246.5714972657
 20
77.9301816671
 10
247.8788801001
 20
78.7197317208
 10
249.1848122474
 20
79.3944636044
 10
250.4818523037
 20
79.950532591
 10
251.7626095336
 20
80.3847701133
 10
253.0197859839
 20
80.6947018185
 10
254.2462180681
 20
80.8785616677
 10
255.4349173861
 20
80.9353019991
 10
256.5791105449
 20
80.8645994974
 10
257.6722777543
 20
80.6668570363
 10
258.7081899782
 20
80.3432013832
  0
LWPOLYLINE
  5
281
330
1F
100
AcDbEntity
  8
0
  6
Continuous
 62
     7
370
    18
100
AcDbPolyline
 90
       28
 70
   128
 43
0.0
 10
230.0261734315
 20
53.3096724646
 10
230.366380582
 20
54.9867623732
 10
230.8017876887
 20
56.6851795202
 10
231.3299426776
 20
58.3953589612
 10
231.947871148
 20
60.1076695101
 10
232.6520931235
 20
61.8124679792
 10
233.4386426502
 20
63.5001534866
 10
234.3030901316
 20
65.1612215248
 10
235.2405672749
 20
66.7863174877
 10
236.2457945074
 20
68.3662893524
 10
237.3131107093
 20
69.8922392205
 10
238.4365050958
 20
71.3555734283
 10
239.6096510674
 20
72.7480509436
 10
240.8259418397
 20
74.0618297765
 10
242.0785276503
 20
75.2895111429
 10
243.3603543349
 20
76.4241811324
 10
244.6642030538
 20
77.459449645
 10
245.9827309462
 20
78.3894863781
 10
247.308512483
 20
79.209053661
 10
248.6340812848
 20
79.9135359518
 10
249.9519721702
 20
80.4989658306
 10
251.2547631974
 20
80.9620463427
 10
252.5351174624
 20
81.3001695662
 10
253.7858244176
 20
81.5114312987
 10
254.9998404798
 20
81.5946417815
 10
256.1703286971
 20
81.5493323996
 10
257.2906972527
 20
81.375758321
 10
258.3546365876
 20
81.0748970597
  0
LWPOLYLINE
  5
282
330
1F
100
AcDbEntity
  8
0
  6
Continuous
 62
     7
370
    18
100
AcDbPolyline
 90
       36
 70
   128
 43
0.0
 10
264.5838017893
 20
64.2774840936
 10
264.2595602853
 20
62.5878657495
 10
263.835663005
 20
60.8741758796
 10
263.3146493612
 20
59.1466805693
 10
262.6996405548
 20
57.4157286076
 10
261.9943208773
 20
55.6916894905
 10
261.2029156393
 20
53.9848913022
 10
260.3301658585
 20
52.3055588425
 10
259.3812998577
 20
50.6637523744
 10
258.3620019438
 20
49.0693073562
 10
257.2783783558
 20
47.5317755214
 10
256.1369206837
 20
46.0603676575
 10
254.9444669805
 20
44.6638984276
 10
253.7081607976
 20
43.350733565
 10
252.4354083904
 20
42.1287397572
 10
251.1338343502
 20
41.0052375194
 10
249.8112359283
 20
39.9869573403
 10
248.4755363251
 20
39.0799993617
 10
247.1347372254
 20
38.2897968351
 10
245.7968708634
 20
37.6210835731
 10
244.4699519041
 20
37.0778655907
 10
243.1619294308
 20
36.6633971072
 10
241.8806393248
 20
36.3801610505
 10
240.6337573238
 20
36.2298541838
 10
239.4287530389
 20
36.2133769401
 10
238.2728452075
 20
36.3308280287
 10
237.172958448
 20
36.5815038431
 10
236.1356817774
 20
36.9639026768
 10
235.1672291385
 20
37.4757337192
 10
234.2734021747
 20
38.1139307788
 10
233.4595554746
 20
38.8746706518
 10
232.7305644941
 20
39.7533960256
 10
232.0907963501
 20
40.7448427798
 10
231.544083658
 20
41.8430715216
 10
231.0937015725
 20
43.0415031668
 10
230.742348167
 20
44.3329583524
  0
ARC
  5
283
330
1F
100
AcDbEntity
  8
0
  6
Continuous
 62
     7
370
    18
100
AcDbCircle
 10
253.597606858
 20
70.6973958937
 30
0.0
 40
11.12399372828684
100
AcDbArc
 50
9.0277456972
 51
48.705552358
  0
LWPOLYLINE
  5
284
330
1F
100
AcDbEntity
  8
0
  6
Continuous
 62
     7
370
    18
100
AcDbPolyline
 90
       27
 70
   128
 43
0.0
 10
240.5532233713
 20
54.487630518
 10
240.6028545173
 20
55.4820306788
 10
240.751051243
 20
56.5197745427
 10
240.9957331911
 20
57.5862944604
 10
241.3334655634
 20
58.6666188303
 10
241.7595073378
 20
59.7455822662
 10
242.2678778215
 20
60.8080384867
 10
242.8514406075
 20
61.8390729353
 10
243.5020037534
 20
62.8242121484
 10
244.2104347786
 20
63.7496269309
 10
244.9667888644
 20
64.6023264879
 10
245.7604484575
 20
65.3703407866
 10
246.5802723169
 20
66.0428885899
 10
247.4147519126
 20
66.6105288008
 10
248.2521729804
 20
67.065292995
 10
249.080779964
 20
67.4007972801
 10
249.8889410379
 20
67.6123319114
 10
250.6653113919
 20
67.6969274064
 10
251.3989924883
 20
67.6533962296
 10
252.0796850525
 20
67.4823494635
 10
252.6978336532
 20
67.1861882297
 10
253.2447608389
 20
66.7690699827
 10
253.7127889509
 20
66.2368501484
 10
254.0953479004
 20
65.5969999266
 10
254.3870673983
 20
64.8585014118
 10
254.5838523423
 20
64.0317215044
 10
254.6242098959
 20
63.7660581074
  0
LWPOLYLINE
  5
285
330
1F
100
AcDbEntity
  8
0
  6
Continuous
 62
     7
370
    18
100
AcDbPolyline
 90
       14
 70
   128
 43
0.0
 10
246.6248600349
 20
49.9092763093
 10
246.5802723169
 20
49.891055039
 10
245.7604484575
 20
49.6170543621
 10
244.9667888644
 20
49.4687287995
 10
244.2104347786
 20
49.448160517
 10
243.5020037534
 20
49.5556382481
 10
242.8514406075
 20
49.7896532411
 10
242.2678778215
 20
50.1469204386
 10
241.7595073378
 20
50.6224245921
 10
241.3334655634
 20
51.2094906656
 10
240.9957331911
 20
51.8998775385
 10
240.751051243
 20
52.6838936922
 10
240.6028545173
 20
53.5505332587
 10
240.5532233713
 20
54.487630518
  0
LWPOLYLINE
  5
286
330
1F
100
AcDbEntity
  8
0
  6
Continuous
 62
     7
370
    18
100
AcDbPolyline
 90
       26
 70
   128
 43
0.0
 10
219.8880276911
 20
54.1712723747
 10
219.9374580404
 20
55.7253121902
 10
220.085472654
 20
57.3277322513
 10
220.3312437739
 20
58.969571175
 10
220.6733969485
 20
60.641647132
 10
221.1100187184
 20
62.3346091953
 10
221.6386673174
 20
64.0389896343
 10
222.2563863283
 20
65.7452568623
 10
222.9597212158
 20
67.4438687408
 10
223.7447386458
 20
69.1253259432
 10
224.6070484824
 20
70.7802250786
 10
225.5418283393
 20
72.3993112799
 10
226.5438505484
 20
73.9735299603
 10
227.6075113949
 20
75.4940774503
 10
228.7268624559
 20
76.9524502316
 10
229.8956438663
 20
78.3404924919
 10
231.1073193264
 20
79.650441736
 10
232.3551126553
 20
80.8749721964
 10
233.6320456868
 20
82.0072358019
 10
234.9309772933
 20
83.0409004752
 10
236.2446433224
 20
83.9701855441
 10
237.5656972207
 20
84.7898940696
 10
238.8867511191
 20
85.4954419091
 10
240.2004171482
 20
86.0828833529
 10
241.4993487546
 20
86.5489331902
 10
242.7475760644
 20
86.8846076908
  0
ARC
  5
287
330
1F
100
AcDbEntity
  8
0
  6
Continuous
 62
     7
370
    18
100
AcDbCircle
 10
237.9693002472
 20
53.8994617066
 30
0.0
 40
18.08331546722736
100
AcDbArc
 50
179.1387535864
 51
198.1056193081
  0
LWPOLYLINE
  5
288
330
1F
100
AcDbEntity
  8
0
  6
Continuous
 62
     7
370
    18
100
AcDbPolyline
 90
       23
 70
   128
 43
0.0
 10
227.7110403556
 20
55.9980665793
 10
228.0708481889
 20
57.6663059142
 10
228.530007825
 20
59.3542710921
 10
229.0856161987
 20
61.0512898493
 10
229.734160442
 20
62.7466326804
 10
230.471540094
 20
64.4295806762
 10
231.2930930266
 20
66.0894932944
 10
232.1936249209
 20
67.7158756354
 10
233.1674421085
 20
69.298444797
 10
234.2083875704
 20
70.8271948884
 10
235.309879865
 20
72.292460293
 10
236.4649547395
 20
73.6849767804
 10
237.666309162
 20
74.9959400794
 10
238.9063474954
 20
76.2170615439
 10
240.1772295209
 20
77.3406205584
 10
241.470920009
 20
78.359513352
 10
242.7792395218
 20
79.2672979124
 10
244.093916129
 20
80.0582347158
 10
245.4066377068
 20
80.7273230157
 10
246.7091044924
 20
81.2703324602
 10
247.9930815593
 20
81.6838298388
 10
249.2504508838
 20
81.9652007887
 10
250.1898483992
 20
82.0901509442
  0
LWPOLYLINE
  5
289
330
1F
100
AcDbEntity
  8
0
  6
Continuous
 62
     7
370
    18
100
AcDbPolyline
 90
       20
 70
   128
 43
0.0
 10
228.2850354606
 20
56.0028636554
 10
228.6462166466
 20
57.6531397524
 10
229.1059979861
 20
59.3224040016
 10
229.661439751
 20
60.9999835401
 10
230.3089905839
 20
62.6751523394
 10
231.0445102051
 20
64.3371997844
 10
231.863295884
 20
65.9754991548
 10
232.7601125074
 20
67.5795755697
 10
233.7292260517
 20
69.1391729612
 10
234.7644402445
 20
70.6443196492
 10
235.8591361823
 20
72.0853920982
 10
237.00631465
 20
73.4531764472
 10
238.1986408723
 20
74.7389274215
 10
239.4284914102
 20
75.9344242473
 10
240.6880029034
 20
77.0320232135
 10
241.9691223471
 20
78.0247065439
 10
243.2636585803
 20
78.9061272667
 10
244.5633346585
 20
79.6706497959
 10
245.8598407743
 20
80.3133859634
 10
246.1159853632
 20
80.4260624243
  0
LWPOLYLINE
  5
28A
330
1F
100
AcDbEntity
  8
0
  6
Continuous
 62
     7
370
    18
100
AcDbPolyline
 90
       19
 70
   128
 43
0.0
 10
243.381650496
 20
54.487630518
 10
243.432123845
 20
55.3874420722
 10
243.5826431941
 20
56.3294717563
 10
243.8305225217
 20
57.2969090283
 10
244.1713384156
 20
58.2724899471
 10
244.5990090079
 20
59.2388052481
 10
245.1059025068
 20
60.1786110119
 10
245.6829733858
 20
61.0751363823
 10
246.3199238014
 20
61.9123828429
 10
247.0053873584
 20
62.6754097107
 10
247.7271319433
 20
63.3506007533
 10
248.472278007
 20
63.9259071704
 10
249.2275284002
 20
64.3910626055
 10
249.9794056618
 20
64.7377663487
 10
250.7144925242
 20
64.9598314636
 10
251.4196713451
 20
65.0532951929
 10
252.0823581916
 20
65.0164896742
 10
252.6907274012
 20
64.8500717027
 10
253.038179676
 20
64.6816538643
  0
ARC
  5
28B
330
1F
100
AcDbEntity
  8
0
  6
Continuous
 62
     7
370
    18
100
AcDbCircle
 10
247.392151798
 20
54.0958761645
 30
0.0
 40
4.029589578000079
100
AcDbArc
 50
174.4209254684
 51
234.2668941382
  0
LINE
  5
28C
330
1F
100
AcDbEntity
  8
0
  6
Continuous
 62
     7
370
    18
100
AcDbLine
 10
221.4648761667
 20
53.6733299806
 30
0.0
 11
223.6180159618
 21
54.9163111267
 31
0.0
  0
LWPOLYLINE
  5
28D
330
1F
100
AcDbEntity
  8
0
  6
Continuous
 62
     7
370
    18
100
AcDbPolyline
 90
       22
 70
   128
 43
0.0
 10
209.0177080058
 20
73.8553696615
 10
209.5475038935
 20
75.3276255346
 10
210.1665585243
 20
76.7912412268
 10
210.869788933
 20
78.2341992079
 10
211.6514209996
 20
79.6446515649
 10
212.5050368596
 20
81.011017284
 10
213.4236276006
 20
82.3220773398
 10
214.3996508108
 20
83.5670668137
 10
215.4250925092
 20
84.7357632828
 10
216.4915329469
 20
85.8185707546
 10
217.5902157405
 20
86.8065984583
 10
218.7121197693
 20
87.6917338458
 10
219.8480332466
 20
88.4667092024
 10
220.9886293563
 20
89.1251613209
 10
222.1245428336
 20
89.6616837493
 10
223.2464468624
 20
90.0718711817
 10
224.345129656
 20
90.3523556304
 10
225.4115700937
 20
90.5008340794
 10
226.4370117922
 20
90.5160873942
 10
227.4130350024
 20
90.3979903322
 10
228.3316257433
 20
90.1475125708
 10
228.9973245154
 20
89.8645507824
  0
ARC
  5
28E
330
1F
100
AcDbEntity
  8
0
  6
Continuous
 62
     7
370
    18
100
AcDbCircle
 10
214.9126844555
 20
64.5276240564
 30
0.0
 40
6.612258360294049
100
AcDbArc
 50
206.9348210899
 51
235.9314622704
  0
ARC
  5
28F
330
1F
100
AcDbEntity
  8
0
  6
Continuous
 62
     7
370
    18
100
AcDbCircle
 10
241.9910671314
 20
46.6885932757
 30
0.0
 40
12.19558884128718
100
AcDbArc
 50
191.1620112725
 51
218.7147081619
  0
LINE
  5
290
330
1F
100
AcDbEntity
  8
0
  6
Continuous
 62
     7
370
    18
100
AcDbLine
 10
225.4299793538
 20
46.9810498973
 30
0.0
 11
227.1535498678
 21
47.9760459759
 31
0.0
  0
LINE
  5
291
330
1F
100
AcDbEntity
  8
0
  6
Continuous
 62
     7
370
    18
100
AcDbLine
 10
221.4648761667
 20
52.8567891687
 30
0.0
 11
223.6180159618
 21
54.0997703148
 31
0.0
  0
LINE
  5
292
330
1F
100
AcDbEntity
  8
0
  6
Continuous
 62
     7
370
    18
100
AcDbLine
 10
229.1371671753
 20
46.3024817596
 30
0.0
 11
229.0699239877
 21
46.5678082226
 31
0.0
  0
LINE
  5
293
330
1F
100
AcDbEntity
  8
0
  6
Continuous
 62
     7
370
    18
100
AcDbLine
 10
251.5487338187
 20
49.3028053651
 30
0.0
 11
252.5740386514
 21
48.710909484
 31
0.0
  0
LINE
  5
294
330
1F
100
AcDbEntity
  8
0
  6
Continuous
 62
     7
370
    18
100
AcDbLine
 10
228.6247625069
 20
45.8501527569
 30
0.0
 11
228.2850354606
 21
47.0209147247
 31
0.0
  0
ARC
  5
295
330
1F
100
AcDbEntity
  8
0
  6
Continuous
 62
     7
370
    18
100
AcDbCircle
 10
240.1191444767
 20
49.8873503835
 30
0.0
 40
12.73597366899032
100
AcDbArc
 50
193.0289139223
 51
204.5990437934
  0
LINE
  5
296
330
1F
100
AcDbEntity
  8
0
  6
Continuous
 62
     7
370
    18
100
AcDbLine
 10
256.9227453557
 20
52.40515619
 30
0.0
 11
257.9480501884
 21
51.813260309
 31
0.0
  0
LINE
  5
297
330
1F
100
AcDbEntity
  8
0
  6
Continuous
 62
     7
370
    18
100
AcDbLine
 10
256.3425393548
 20
82.2359517436
 30
0.0
 11
256.2421693352
 21
82.1780093646
 31
0.0
  0
ARC
  5
298
330
1F
100
AcDbEntity
  8
0
  6
Continuous
 62
     7
370
    18
100
AcDbCircle
 10
214.9722514322
 20
71.5404744849
 30
0.0
 40
1.972900930438689
100
AcDbArc
 50
160.2447912923
 51
206.8893927025
  0
ARC
  5
299
330
1F
100
AcDbEntity
  8
0
  6
Continuous
 62
     7
370
    18
100
AcDbCircle
 10
212.7302731832
 20
71.4798643987
 30
0.0
 40
0.823142550980445
100
AcDbArc
 50
40.3517278188
 51
62.0985124778
  0
LINE
  5
29A
330
1F
100
AcDbEntity
  8
0
  6
Continuous
 62
     7
370
    18
100
AcDbLine
 10
213.1154650106
 20
72.2073194938
 30
0.0
 11
213.2632675052
 21
72.7615748914
 31
0.0
  0
LINE
  5
29B
330
1F
100
AcDbEntity
  8
0
  6
Continuous
 62
     7
370
    18
100
AcDbLine
 10
213.1154650106
 20
72.2073194938
 30
0.0
 11
211.862245383
 21
72.9307877853
 31
0.0
  0
LINE
  5
29C
330
1F
100
AcDbEntity
  8
0
  6
Continuous
 62
     7
370
    18
100
AcDbLine
 10
209.0175641781
 20
74.7372746255
 30
0.0
 11
209.0029429556
 21
74.9130008157
 31
0.0
  0
ARC
  5
29D
330
1F
100
AcDbEntity
  8
0
  6
Continuous
 62
     7
370
    18
100
AcDbCircle
 10
212.8338144278
 20
58.1784233578
 30
0.0
 40
0.5806344198071802
100
AcDbArc
 50
25.5708468831
 51
60.9826879702
  0
ARC
  5
29E
330
1F
100
AcDbEntity
  8
0
  6
Continuous
 62
     7
370
    18
100
AcDbCircle
 10
215.0711860476
 20
59.3321907963
 30
0.0
 40
2.059656355480175
100
AcDbArc
 50
172.8744043428
 51
198.2795396692
  0
LINE
  5
29F
330
1F
100
AcDbEntity
  8
0
  6
Continuous
 62
     7
370
    18
100
AcDbLine
 10
212.270280542
 20
63.7197752194
 30
0.0
 11
210.6532131288
 21
64.6532883667
 31
0.0
  0
LINE
  5
2A0
330
1F
100
AcDbEntity
  8
0
  6
Continuous
 62
     7
370
    18
100
AcDbLine
 10
213.1154650106
 20
58.6861725859
 30
0.0
 11
211.862245383
 21
59.4096408775
 31
0.0
  0
LINE
  5
2A1
330
1F
100
AcDbEntity
  8
0
  6
Continuous
 62
     7
370
    18
100
AcDbLine
 10
213.1154650106
 20
58.6861725859
 30
0.0
 11
213.2632675052
 21
58.3025663161
 31
0.0
  0
OLE2FRAME
  5
2A2
330
1F
100
AcDbEntity
  8
0
100
AcDbOle2Frame
 70
     2
  3
Paintbrush-Bild
 10
13.8511154363
 20
38.264191557
 30
0.0
 11
51.6290888628
 21
31.9806341108
 31
0.0
 71
     2
 72
     0
 73
     1
 90
    12928
310
80552BED0767C5B32B40DDAF6807D121434000000000000000006FFBDDFB85D0
310
4940DDAF6807D121434000000000000000006FFBDDFB85D04940416F4BD60AFB
310
3F4000000000000000002BED0767C5B32B40416F4BD60AFB3F40000000000000
310
0000000000000100000000010000010000000100000000000100000000320000
310
D0CF11E0A1B11AE1000000000000000000000000000000003E000300FEFF0900
310
0600000000000000000000000100000001000000000000000010000002000000
310
01000000FEFFFFFF0000000000000000FFFFFFFFFFFFFFFFFFFFFFFFFFFFFFFF
310
FFFFFFFFFFFFFFFFFFFFFFFFFFFFFFFFFFFFFFFFFFFFFFFFFFFFFFFFFFFFFFFF
310
FFFFFFFFFFFFFFFFFFFFFFFFFFFFFFFFFFFFFFFFFFFFFFFFFFFFFFFFFFFFFFFF
310
FFFFFFFFFFFFFFFFFFFFFFFFFFFFFFFFFFFFFFFFFFFFFFFFFFFFFFFFFFFFFFFF
310
FFFFFFFFFFFFFFFFFFFFFFFFFFFFFFFFFFFFFFFFFFFFFFFFFFFFFFFFFFFFFFFF
310
FFFFFFFFFFFFFFFFFFFFFFFFFFFFFFFFFFFFFFFFFFFFFFFFFFFFFFFFFFFFFFFF
310
FFFFFFFFFFFFFFFFFFFFFFFFFFFFFFFFFFFFFFFFFFFFFFFFFFFFFFFFFFFFFFFF
310
FFFFFFFFFFFFFFFFFFFFFFFFFFFFFFFFFFFFFFFFFFFFFFFFFFFFFFFFFFFFFFFF
310
FFFFFFFFFFFFFFFFFFFFFFFFFFFFFFFFFFFFFFFFFFFFFFFFFFFFFFFFFFFFFFFF
310
FFFFFFFFFFFFFFFFFFFFFFFFFFFFFFFFFFFFFFFFFFFFFFFFFFFFFFFFFFFFFFFF
310
FFFFFFFFFFFFFFFFFFFFFFFFFFFFFFFFFFFFFFFFFFFFFFFFFFFFFFFFFFFFFFFF
310
FFFFFFFFFFFFFFFFFFFFFFFFFFFFFFFFFFFFFFFFFFFFFFFFFFFFFFFFFFFFFFFF
310
FFFFFFFFFFFFFFFFFFFFFFFFFFFFFFFFFFFFFFFFFFFFFFFFFFFFFFFFFFFFFFFF
310
FFFFFFFFFFFFFFFFFFFFFFFFFFFFFFFFFFFFFFFFFFFFFFFFFFFFFFFFFFFFFFFF
310
FDFFFFFFFEFFFFFFFEFFFFFFFEFFFFFF05000000060000000700000008000000
310
090000000A0000000B0000000C0000000D0000000E0000000F00000010000000
310
11000000120000001300000014000000150000001600000017000000FEFFFFFF
310
FFFFFFFFFFFFFFFFFFFFFFFFFFFFFFFFFFFFFFFFFFFFFFFFFFFFFFFFFFFFFFFF
310
FFFFFFFFFFFFFFFFFFFFFFFFFFFFFFFFFFFFFFFFFFFFFFFFFFFFFFFFFFFFFFFF
310
FFFFFFFFFFFFFFFFFFFFFFFFFFFFFFFFFFFFFFFFFFFFFFFFFFFFFFFFFFFFFFFF
310
FFFFFFFFFFFFFFFFFFFFFFFFFFFFFFFFFFFFFFFFFFFFFFFFFFFFFFFFFFFFFFFF
310
FFFFFFFFFFFFFFFFFFFFFFFFFFFFFFFFFFFFFFFFFFFFFFFFFFFFFFFFFFFFFFFF
310
FFFFFFFFFFFFFFFFFFFFFFFFFFFFFFFFFFFFFFFFFFFFFFFFFFFFFFFFFFFFFFFF
310
FFFFFFFFFFFFFFFFFFFFFFFFFFFFFFFFFFFFFFFFFFFFFFFFFFFFFFFFFFFFFFFF
310
FFFFFFFFFFFFFFFFFFFFFFFFFFFFFFFFFFFFFFFFFFFFFFFFFFFFFFFFFFFFFFFF
310
FFFFFFFFFFFFFFFFFFFFFFFFFFFFFFFFFFFFFFFFFFFFFFFFFFFFFFFFFFFFFFFF
310
FFFFFFFFFFFFFFFFFFFFFFFFFFFFFFFFFFFFFFFFFFFFFFFFFFFFFFFFFFFFFFFF
310
FFFFFFFFFFFFFFFFFFFFFFFFFFFFFFFFFFFFFFFFFFFFFFFFFFFFFFFFFFFFFFFF
310
FFFFFFFFFFFFFFFFFFFFFFFFFFFFFFFFFFFFFFFFFFFFFFFFFFFFFFFFFFFFFFFF
310
FFFFFFFFFFFFFFFFFFFFFFFFFFFFFFFFFFFFFFFFFFFFFFFFFFFFFFFFFFFFFFFF
310
52006F006F007400200045006E00740072007900000000000000000000000000
310
0000000000000000000000000000000000000000000000000000000000000000
310
16000500FFFFFFFFFFFFFFFF020000000A00030000000000C000000000000046
310
00000000000000000000000040520059A0B7D30103000000C000000000000000
310
01004F006C006500000000000000000000000000000000000000000000000000
310
0000000000000000000000000000000000000000000000000000000000000000
310
0A000200FFFFFFFFFFFFFFFFFFFFFFFF00000000000000000000000000000000
310
0000000000000000000000000000000000000000000000001400000000000000
310
010043006F006D0070004F0062006A0000000000000000000000000000000000
310
0000000000000000000000000000000000000000000000000000000000000000
310
120002010100000003000000FFFFFFFF00000000000000000000000000000000
310
0000000000000000000000000000000000000000010000004D00000000000000
310
01004F006C006500310030004E00610074006900760065000000000000000000
310
0000000000000000000000000000000000000000000000000000000000000000
310
1A000200FFFFFFFFFFFFFFFFFFFFFFFF00000000000000000000000000000000
310
0000000000000000000000000000000000000000040000002426000000000000
310
FEFFFFFF02000000FEFFFFFFFFFFFFFFFFFFFFFFFFFFFFFFFFFFFFFFFFFFFFFF
310
FFFFFFFFFFFFFFFFFFFFFFFFFFFFFFFFFFFFFFFFFFFFFFFFFFFFFFFFFFFFFFFF
310
FFFFFFFFFFFFFFFFFFFFFFFFFFFFFFFFFFFFFFFFFFFFFFFFFFFFFFFFFFFFFFFF
310
FFFFFFFFFFFFFFFFFFFFFFFFFFFFFFFFFFFFFFFFFFFFFFFFFFFFFFFFFFFFFFFF
310
FFFFFFFFFFFFFFFFFFFFFFFFFFFFFFFFFFFFFFFFFFFFFFFFFFFFFFFFFFFFFFFF
310
FFFFFFFFFFFFFFFFFFFFFFFFFFFFFFFFFFFFFFFFFFFFFFFFFFFFFFFFFFFFFFFF
310
FFFFFFFFFFFFFFFFFFFFFFFFFFFFFFFFFFFFFFFFFFFFFFFFFFFFFFFFFFFFFFFF
310
FFFFFFFFFFFFFFFFFFFFFFFFFFFFFFFFFFFFFFFFFFFFFFFFFFFFFFFFFFFFFFFF
310
FFFFFFFFFFFFFFFFFFFFFFFFFFFFFFFFFFFFFFFFFFFFFFFFFFFFFFFFFFFFFFFF
310
FFFFFFFFFFFFFFFFFFFFFFFFFFFFFFFFFFFFFFFFFFFFFFFFFFFFFFFFFFFFFFFF
310
FFFFFFFFFFFFFFFFFFFFFFFFFFFFFFFFFFFFFFFFFFFFFFFFFFFFFFFFFFFFFFFF
310
FFFFFFFFFFFFFFFFFFFFFFFFFFFFFFFFFFFFFFFFFFFFFFFFFFFFFFFFFFFFFFFF
310
FFFFFFFFFFFFFFFFFFFFFFFFFFFFFFFFFFFFFFFFFFFFFFFFFFFFFFFFFFFFFFFF
310
FFFFFFFFFFFFFFFFFFFFFFFFFFFFFFFFFFFFFFFFFFFFFFFFFFFFFFFFFFFFFFFF
310
FFFFFFFFFFFFFFFFFFFFFFFFFFFFFFFFFFFFFFFFFFFFFFFFFFFFFFFFFFFFFFFF
310
FFFFFFFFFFFFFFFFFFFFFFFFFFFFFFFFFFFFFFFFFFFFFFFFFFFFFFFFFFFFFFFF
310
0100000200000000000000000000000000000000000000000000000000000000
310
0000000000000000000000000000000000000000000000000000000000000000
310
0100FEFF030A0000FFFFFFFF0A00030000000000C00000000000004607000000
310
5042727573680007000000504272757368000700000050427275736800F439B2
310
7100000000000000000000000000000000000000000000000000000000000000
310
0000000000000000000000000000000000000000000000000000000000000000
310
0000000000000000000000000000000000000000000000000000000000000000
310
0000000000000000000000000000000000000000000000000000000000000000
310
0000000000000000000000000000000000000000000000000000000000000000
310
0000000000000000000000000000000000000000000000000000000000000000
310
0000000000000000000000000000000000000000000000000000000000000000
310
0000000000000000000000000000000000000000000000000000000000000000
310
0000000000000000000000000000000000000000000000000000000000000000
310
0000000000000000000000000000000000000000000000000000000000000000
310
0000000000000000000000000000000000000000000000000000000000000000
310
0000000000000000000000000000000000000000000000000000000000000000
310
20260000424D0E260000000000003E00000028000000B40200006E0000000100
310
01000000000000000000130B0000130B00000200000002000000000000FFFFFF
310
FFFFFFFFFFFFFFFFFFFFFFFFFFFFFFFFFFFFFFFFFFFFFFFFFFFFFFFFFFFFFFFF
310
FFFFFFFFFFFFFFFFFFFFFFFFFFFFFFFFFFFFFFFFFFFFFFFFFFFFFFFFFFFFFFFF
310
FFFFFFFFFFFFFFFFFFFFFFFFFFFFFFFFFFFFFFFFFFFFFFFFF000FFFFFFFFFFFF
310
FFFFFFFFFFFFFFFFFFFFFFFFFFFFFFFFFFFFFFFFFFFFFFFFFFFFFFFFFFFFFFFF
310
FFFFFFFFFFFFFFFFFFFFFFFFFFFFFFFFFFFFFFFFFFFFFFFFFFFFFFFFFFFFFFFF
310
FFFFFFFFFFFFFFFFFFFFFFFFFFFFFFFFF000FFFFFFFFFFFFFFFFFFFFFFFFFFFF
310
FFFFFFFFFFFFFFFFFFFFFFFFFFFFFFFFFFFFFFFFFFFFFFFFFFFFFFFFFFFFFFFF
310
FFFFFFFFFFFFFFFFFFFFFFFFFFFFFFFFFFFFFFFFFFFFFFFFFFFFFFFFFFFFFFFF
310
FFFFFFFFFFFFFFFFF000FFFFFFFFFFFFFFFFFFFFFFFFFFFFFFFFFFFFFFFFFFFF
310
FFFFFFFFFFFFFFFFFFFFFFFFFFFFFFFFFFFFFFFFFFFFFFFFFFFFFFFFFFFFFFFF
310
FFFFFFFFFFFFFFFFFFFFFFFFFFFFFFFFFFFFFFFFFFFFFFFFFFFFFFFFFFFFFFFF
310
F000FFFFFFFFFFFFFFFFFFFFFFFFFFFFFFFFFFFFFFFFFFFFFFFFFFFFFFFFFFFF
310
FFFFFFFFFFFFFFFFFFFFFFFFFFFFFFFFFFFFFFFFFFFFFFFFFFFFFFFFFFFFFFFF
310
FFFFFFFFFFFFFFFFFFFFFFFFFFFFFFFFFFFFFFFFFFFFFFFFF000FFFFFFFFFFFF
310
FFFFFFFFFFFFFFFFFFFFFFFFFFFFFFFFFFFFFFFFFFFFFFFFFFFFFFFFFFFFFFFF
310
FFFFFFFFFFFFFFFFFFFFFFFFFFFFFFFFFFFFFFFFFFFFFFFFFFFFFFFFFFFFFFFF
310
FFFFFFFFFFFFFFFFFFFFFFFFFFFFFFFFF000FFFFFFFFFFFFFFFFFFFFFFFFFFFF
310
FFFFFFFFFFFFFFFFFFFFFFFFFFFFFFFFFFFFFFFFFFFFFFFFFFFFFFFFFFFFFFFF
310
FFFFFFFFFFFFFFFFFFFFFFFFFFFFFFFFFFFFFFFFFFFFFFFFFFFFFFFFFFFFFFFF
310
FFFFFFFFFFFFFFFFF000FFFFFFFFFFFFFFFFFFFFFFFFFFFFFFFFFFFFFFFFFFFF
310
FFFFFFFFFFFFFFFFFFFFFFFFFFFFFFFFFFFFFFFFFFFFFFFFFFFFFFFFFFFFFFFF
310
FFFFFFFFFFFFFFFFFFFFFFFFFFFFFFFFFFFFFFFFFFFFFFFFFFFFFFFFFFFFFFFF
310
F000FFFFFFFFFFFFFFFFFFFFFFFFFFFFFFFFFFFFFFFFFFFFFFFFFFFFFFFFFFFF
310
FFFFFFFFFFFFFFFFFFFFFFFFFFFFFFFFFFFFFFFFFFFFFFFFFFFFFFFFFFFFFFFF
310
FFFFFFFFFFFFFFFFFFFFFFFFFFFFFFFFFFFFFFFFFFFFFFFFF000FFFFFFFFFFFF
310
FFFFFFFFFFFFFFFFFFFFFFFFFFFFFFFFFFFFFFFFFFFFFFFFFFFFFFFFFFFFFFFF
310
FFFFFFFFFFFFFFFFFFFFFFFFFFFFFFFFFFFFFFFFFFFFFFFFFFFFFFFFFFFFFFFF
310
FFFFFFFFFFFFFFFFFFFFFFFFFFFFFFFFF000FFFFFFFFFFFFFFFFFFFFFFFFFFFF
310
FFFFFFFFFFFFFFFFFFFFFFFFFFFFFFFFFFFFFFFFFFFFFFFFFFFFFFFFFFFFFFFF
310
FFFFFFFFFFFFFFFFFFFFFFFFFFFFFFFFFFFFFFFFFFFFFFFFFFFFFFFFFFFFFFFF
310
FFFFFFFFFFFFFFFFF000FFFFFFFFFFFFFFFFFFFFFFFFFFFFFFFFFFFFFFFFFFFF
310
FFFFFFFFFFFFFFFFFFFFFFFFFFFFFFFFFFFFFFFFFFFFFFFFFFFFFFFFFFFFFFFF
310
FFFFFFFFFFFFFFFFFFFFFFFFFFFFFFFFFFFFFFFFFFFFFFFFFFFFFFFFFFFFFFFF
310
F000FFFFFFFFFFFFFFFFFFFFFFFFFFFFFFFFFFFFFFFFFFFFFFFFFFFFFFFFFFFF
310
FFFFFFFFFFFFFFFFFFFFFFFFFFFFFFFFFFFFFFFFFFFFFFFFFFFFFFFFFFFFFFFF
310
FFFFFFFFFFFFFFFFFFFFFFFFFFFFFFFFFFFFFFFFFFFFFFFFF000FFFFFFFFFFFF
310
FFFFFFFFFFFFFFFFFFFFFFFFFFFFFFFFFFFFFFFFFFFFFFFFFFFFFFFFFFFFFFFF
310
FFFFFFFFFFFFFFFFFFFFFFFFFFFFFFFFFFFFFFFFFFFFFFFFFFFFFFFFFFFFFFFF
310
FFFFFFFFFFFFFFFFFFFFFFFFFFFFFFFFF000FFFFFFFFFFFFFFFFFFFFFFFFFFFF
310
FFFFFFFFFFFFFFFFFFFFFFFFFFFFFFFFFFFFFFFFFFFFFFFFFFFFFFFFFFFFFFFF
310
FFFFFFFFFFFFFFFFFFFFFFFFFFFFFFFFFFFFFFFFFFFFFFFFFFFFFFFFFFFFFFFF
310
FFFFFFFFFFFFFFFFF000FFFFFFFFFFFFFFFFFFFFFFFFFFFFFFFFFFFFFFFFFFFF
310
FFFFFFFFFFFFFFFFFFFFFFFFFFFFFFFFFFFFFFFFFFFFFFFFFFFFFFFFFFFFFFFF
310
FFFFFFFFFFFFFFFFFFFFFFFFFFFFFFFFFFFFFFFFFFFFFFFFFFFFFFFFFFFFFFFF
310
F000FFFFFFFFFFFFFFFFFFFFFFFFFFFFFFFFFFFFFFFFFFFFFFFFFFFFFFFFFFFF
310
FFFFFFFFFFFFFFFFFFFFFFFFFFFFFFFFFFFFFFFFFFFFFFFFFFFFFFFFFFFFFFFF
310
FFFFFFFFFFFFFFFFFFFFFFFFFFFFFFFFFFFFFFFFFFFFFFFFF000FFFFFFFFFFFF
310
FFFFFFFFFFFFFFFFFFFFFFFFFFFFFFFFFFFFFFFFFFFFFFFFFFFFFFFFFFFFFFFF
310
FFFFFFFFFFFFFFFFFFFFFFFFFFFFFFFFFFFFFFFFFFFFFFFFFFFFFFFFFFFFFFFF
310
FFFFFFFFFFFFFFFFFFFFFFFFFFFFFFFFF000FFFFFFFFFFFFFFFFFFFFFFFFFFFF
310
FFFFFFFFFFFFFFFFFFFFFFFFFFFFFFFFFFFFFFFFFFFFFFFFFFFFFFFFFFFFFFFF
310
FFFFFFFFFFFFFFFFFFFFFFFFFFFFFFFFFFFFFFFFFFFFFFFFFFFFFFFFFFFFFFFF
310
FFFFFFFFFFFFFFFFF000FFFFF80003FFFFFFFFFFFFFFFFFFFFFFFFFFFFFFFFFF
310
FFFFF00007FFFFFFFFFF00007FFFFFF800000000000000007FFFFFFFFFFFFFFF
310
FFFFFFFC001FFFFFFFFFFFFFFC001FFFFFFFFFFFFFFFFFFFFFFFFFFE0007FFFF
310
F000FFFF8000007FFFFFFFF8000FFFFFC0007FFFFF80007FFFFF0000007FFFFF
310
FFF8000007FFFFF800000000000000007FFFFFF0001FFFFFFFFFFFC00001FFFF
310
FFFFFFFFC00001FFFFFFFF000000000003FFFFE000007FFFF000FFFE0000000F
310
FFFFFFF0000FFFFF80007FFFFF80007FFFFC0000001FFFFFFFC0000001FFFFF8
310
00000000000000007FFFFFF0001FFFFFFFFFFE0000003FFFFFFFFFFE0000003F
310
FFFFFF000000000003FFFF0000000FFFF000FFF800000003FFFFFFF00007FFFF
310
80007FFFFF80007FFFF000000007FFFFFF000000003FFFF80000000000000000
310
7FFFFFF0001FFFFFFFFFF80000000FFFFFFFFFF80000000FFFFFFF0000000000
310
03FFFC00000003FFF000FFE000000000FFFFFFF00007FFFF80003FFFFF80007F
310
FFC000000001FFFFFC000000001FFFF800000000000000007FFFFFF0001FFFFF
310
FFFFE000000003FFFFFFFFE000000003FFFFFF000000000003FFF000000000FF
310
F000FF80000000007FFFFFF00007FFFF80003FFFFF80007FFF8000000000FFFF
310
F80000000007FFF800000000000000007FFFFFF0001FFFFFFFFFC000000001FF
310
FFFFFFC000000001FFFFFF000000000003FFC0000000007FF000FF0000000000
310
3FFFFFE00007FFFF00003FFFFF80007FFE00000000003FFFF00000000003FFF8
310
00000000000000007FFFFFF0001FFFFFFFFF8000000000FFFFFFFF8000000000
310
FFFFFF000000000003FF80000000003FF000FE00000000001FFFFFE00003FFFF
310
00003FFFFF80007FFC00000000001FFFE00000000001FFF8000001FFFE000000
310
7FFFFFF0001FFFFFFFFE00000000003FFFFFFE00000000003FFFFF0000000000
310
03FF00000000001FF000FC00000000000FFFFFE00003FFFF00001FFFFF80007F
310
F800000000001FFFC00000000000FFF8000001FFFE0000007FFFFFF0001FFFFF
310
FFFC00000000001FFFFFFC00000000001FFFFF000000000003FE00000000000F
310
F000F8000000000007FFFFE00003FFFF00001FFFFF80007FF800000000000FFF
310
800000000000FFF8000001FFFE0000007FFFFFF0001FFFFFFFF800000000000F
310
FFFFF800000000000FFFFF000000000003FC000000000007F000F80000000000
310
03FFFFC00003FFFE00001FFFFF80007FF0000000000007FF0000000000007FF8
310
000001FFFE0000007FFFFFF0001FFFFFFFF0000000000007FFFFF00000000000
310
07FFFF000000000003F8000000000003F000F0000000000003FFFFC00001FFFE
310
00001FFFFF80007FE0000000000007FE0000000000003FF8000001FFFE000000
310
7FFFFFF0001FFFFFFFF0000000000007FFFFF0000000000007FFFF0000000000
310
03F800001F800003F000E00001FFF00001FFFFC00001FFFE00000FFFFF80007F
310
E00001FFE00003FE00001FFF00003FF8000001FFFE0000007FFFFFF0001FFFFF
310
FFE000003E000003FFFFE000003E000003FFFF000000000003F00001FFF80001
310
F000E00007FFFC0001FFFFC00001FFFE00000FFFFF80007FC0000FFFFC0003FC
310
0000FFFFC0001FF8000001FFFE0000007FFFFFF0001FFFFFFFC00003FFE00001
310
FFFFC00003FFE00001FFFF0001FFFFFFFFF00007FFFE0001F000E0000FFFFF00
310
00FFFF800001FFFC00000FFFFF80007FC0001FFFFE0001FC0001FFFFE0001FF8
310
000001FFFE0000007FFFFFF0001FFFFFFF80000FFFF80000FFFF80000FFFF800
310
00FFFF0003FFFFFFFFE0000FFFFF8000F000C0003FFFFF8000FFFF800000FFFC
310
000007FFFF80007F80003FFFFF0001FC0003FFFFF0001FF8000001FFFE000000
310
7FFFFFF0001FFFFFFF80003FFFFE0000FFFF80003FFFFE0000FFFF0003FFFFFF
310
FFE0003FFFFF8000F000C0003FFFFF8000FFFF800000FFFC000007FFFF80007F
310
80007FFFFF8001F80007FFFFF8000FF8000001FFFE0000007FFFFFF0001FFFFF
310
FF00007FFFFF00007FFF00007FFFFF00007FFF0003FFFFFFFFE0003FFFFFC000
310
F000C0007FFFFFC000FFFF000000FFFC000007FFFF80007F8000FFFFFF8000F8
310
000FFFFFF8000FF8000001FFFE0000007FFFFFF0001FFFFFFF0000FFFFFF8000
310
7FFF0000FFFFFF80007FFF0003FFFFFFFFC0007FFFFFC00070008000FFFFFFC0
310
00FFFF000000FFF8000007FFFF80007F8000FFFFFF8000F8000FFFFFF8000FF8
310
000001FFFE0000007FFFFFF0001FFFFFFE0001FFFFFFC0003FFE0001FFFFFFC0
310
003FFF0003FFFFFFFFC0007FFFFFE00070008000FFFFFFC0007FFF0000007FF8
310
000003FFFF80007F0001FFFFFF8000F8000FFFFFF8000FF8000001FFFE000000
310
7FFFFFF0001FFFFFFE0001FFFFFFC0003FFE0001FFFFFFC0003FFF0003FFFFFF
310
FFC000FFFFFFE00070008000FFFFFFC0007FFF0000007FF8000003FFFF80007F
310
0001FFFFFF8000F8001FFFFFF8000FF8000001FFFE0000007FFFFFF0001FFFFF
310
FE0003FFFFFFE0003FFE0003FFFFFFE0003FFF0003FFFFFFFFC000FFFFFFE000
310
70008000FFFFFFC0007FFE0000007FF8000003FFFF80007F0001FFFFFF8000F0
310
001FFFFFF8000FF8000001FFFE0000007FFFFFF0001FFFFFFC0003FFFFFFE000
310
1FFC0003FFFFFFE0001FFF0003FFFFFFFFC000FFFFFFC00070008000FFFFFF80
310
007FFE0000007FF0000003FFFF80007F0001FFFFFF0000F0001FFFFFF8000FF8
310
000001FFFE0000007FFFFFF0001FFFFFFC0007FFFFFFF0001FFC0007FFFFFFF0
310
001FFF0003FFFFFFFFC000FFFFFFC00070008001FFFFFF0000FFFE0000003FF0
310
000001FFFF80007F0001FFFFFF0000F8001FFFFFF0000FF8000001FFFE000000
310
7FFFFFF0001FFFFFFC0007FFFFFFF0001FFC0007FFFFFFF0001FFF0003FFFFFF
310
FFC001FFFFFF80007000FFFFFFFFFE0000FFFE0008003FF0008001FFFF80007F
310
FFFFFFFFFC0000FFFFFFFFFFE0000FF8000001FFFE0000007FFFFFF0001FFFFF
310
F8000FFFFFFFF8000FF8000FFFFFFFF8000FFF0003FFFFFFFFFFFFFFFFFF0000
310
7000FFFFFFFFFC0000FFFC0008003FF0008001FFFF80007FFFFFFFFFF80001FF
310
FFFFFFFF80000FF8000001FFFE0000007FFFFFF0001FFFFFF8000FFFFFFFF800
310
0FF8000FFFFFFFF8000FFF0003FFFFFFFFFFFFFFFFFE0000F000FFFFFFFFE000
310
00FFFC000C003FE000C001FFFF80007FFFFFFFFFC00001FFFFFFFFFE00001FF8
310
000001FFFE0000007FFFFFF0001FFFFFF8000FFFFFFFF8000FF8000FFFFFFFF8
310
000FFF0003FFFFFFFFFFFFFFFFF00000F000FFFFFFFE000001FFFC000C001FE0
310
00C000FFFF80007FFFFFFFFE000001FFFFFFFFE000001FF80FFFFFFFFFFFFFC0
310
7FFFFFF0001FFFFFF8000FFFFFFFF8000FF8000FFFFFFFF8000FFF0003FFFFFF
310
FFFFFFFFFF800000F000FFFFFFC0000001FFFC001C001FE001C000FFFF80007F
310
FFFFFF80000003FFFFFFF80000001FF80FFFFFFFFFFFFFC07FFFFFF0001FFFFF
310
F8001FFFFFFFFC000FF8001FFFFFFFFC000FFF0003FFFFFFFFFFFFFFF0000001
310
F000FFFFF800000001FFF8001C001FE001C000FFFF80007FFFFFF800000003FF
310
FFFF800000003FF80FFFFFFFFFFFFFC07FFFFFF0001FFFFFF8001FFFFFFFFC00
310
0FF8001FFFFFFFFC000FFF0003FFFFFFFFFFFFFE00000001F000FFFFC0000000
310
03FFF8001E001FC001E000FFFF80007FFFFF8000000007FFFFFC000000003FF8
310
0FFFFFFFFFFFFFC07FFFFFF0001FFFFFF8001FFFFFFFFC000FF8001FFFFFFFFC
310
000FFF0003FFFFFFFFFFFFE000000003F000FFFE0000000007FFF8001E000FC0
310
01E0007FFF80007FFFFE0000000007FFFFE0000000007FF80FFFFFFFFFFFFFC0
310
7FFFFFF0001FFFFFF0001FFFFFFFFC0007F0001FFFFFFFFC0007FF0003FFFFFF
310
FFFFFF0000000003F000FFF80000000007FFF8001E000FC003E0007FFF80007F
310
FFF0000000000FFFFF8000000000FFF80FFFFFFFFFFFFFC07FFFFFF0001FFFFF
310
F0001FFFFFFFFC0007F0001FFFFFFFFC0007FF0003FFFFFFFFFFFC0000000007
310
F000FFE0000000000FFFF0003E000FC003E0007FFF80007FFFC0000000001FFF
310
FE0000000001FFF80FFFFFFFFFFFFFC07FFFFFF0001FFFFFF0001FFFFFFFFC00
310
07F0001FFFFFFFFC0007FF0003FFFFFFFFFFF0000000000FF000FFC000000000
310
1FFFF0003F000F8003F0003FFF80007FFF80000000003FFFF80000000003FFF8
310
0FFFFFFFFFFFFFC07FFFFFF0001FFFFFF0001FFFFFFFFC0007F0001FFFFFFFFC
310
0007FF0003FFFFFFFFFFE0000000001FF000FF00000000007FFFF0003F000780
310
03F0003FFF80007FFF00000000007FFFF00000000007FFF80FFFFFFFFFFFFFC0
310
7FFFFFF0001FFFFFF0001FFFFFFFFC0007F0001FFFFFFFFC0007FF0003FFFFFF
310
FFFF80000000007FF000FE0000000000FFFFE0003F00078007F0003FFF80007F
310
FE0000000001FFFFE0000000001FFFF80FFFFFFFFFFFFFC07FFFFFF0001FFFFF
310
F0001FFFFFFFFC0007F0001FFFFFFFFC0007FF0003FFFFFFFFFF0000000000FF
310
F000FC0000000003FFFFE0007F00078007F0003FFF80007FFC0000000007FFFF
310
C0000000007FFFF80FFFFFFFFFFFFFC07FFFFFF0001FFFFFF8001FFFFFFFFC00
310
0FF8001FFFFFFFFC000FFF0003FFFFFFFFFE0000000003FFF000FC000000000F
310
FFFFE0007F80070007F8001FFF80007FF8000000001FFFFF8000000001FFFFF8
310
0FFFFFFFFFFFFFC07FFFFFF0001FFFFFF8001FFFFFFFFC000FF8001FFFFFFFFC
310
000FFF0003FFFFFFFFFC000000000FFFF000F8000000007FFFFFE0007F800700
310
07F8001FFF80007FF000000000FFFFFF800000000FFFFFF80FFFFFFFFFFFFFC0
310
7FFFFFF0001FFFFFF8000FFFFFFFF8000FF8000FFFFFFFF8000FFF0003FFFFFF
310
FFFC000000007FFFF000F800000007FFFFFFC0007F8003000FF8001FFF80007F
310
F000000007FFFFFF000000007FFFFFF80FFFFFFFFFFFFFC07FFFFFF0001FFFFF
310
F8000FFFFFFFF8000FF8000FFFFFFFF8000FFF0003FFFFFFFFF80000000FFFFF
310
F000F0000000FFFFFFFFC000FF8003000FF8001FFF80007FE0000000FFFFFFFF
310
0000000FFFFFFFF8000001FFFE0000007FFFFFF0001FFFFFF8000FFFFFFFF800
310
0FF8000FFFFFFFF8000FFF0003FFFFFFFFF8000000FFFFFFF000F000000FFFFF
310
FFFFC000FFC002000FF8000FFF80007FE000001FFFFFFFFE000001FFFFFFFFF8
310
000001FFFE0000007FFFFFF0001FFFFFF8000FFFFFFFF8000FF8000FFFFFFFF8
310
000FFF0003FFFFFFFFF000001FFFFFFFF000E00000FFFFFFFFFFC000FFC00200
310
0FFC000FFF80007FE00001FFFFFFFFFE00001FFFFFFFFFF8000001FFFE000000
310
7FFFFFF0001FFFFFFC000FFFFFFFF8001FFC000FFFFFFFF8001FFF0003FFFFFF
310
FFF00001FFFFFFFFF000E00007FFFFFFFFFF8000FFC000001FFC000FFF80007F
310
C0000FFFFFFFFFFE0000FFFFFFFFFFF8000001FFFE0000007FFFFFF0001FFFFF
310
FC0007FFFFFFF0001FFC0007FFFFFFF0001FFF0003FFFFFFFFF00007FFFFFFFF
310
F000E0001FFFFFFFFFFF8000FFC000001FFC000FFF80007FC0003FFFFFFFFFFE
310
0001FFFFFFFFFFF8000001FFFE0000007FFFFFF0001FFFFFFC0007FFFFFFF000
310
1FFC0007FFFFFFF0001FFF0003FFFFFFFFF0001FFFFFFFFFF000E0003FFFFF00
310
03FF8001FFE000001FFC0007FF80007FC0007FFFFF0007FC0003FFFFF0003FF8
310
000001FFFE0000007FFFFFF0001FFFFFFC0003FFFFFFE0001FFC0003FFFFFFE0
310
001FFF0003FFFFFFFFF0003FFFFFFFFFF000E0003FFFFF0001FF8001FFE00000
310
1FFE0007FF80007FC0007FFFFE0003FC0007FFFFE0003FF8000001FFFE000000
310
7FFFFFF0001FFFFFFE0003FFFFFFE0003FFE0003FFFFFFE0003FFF0003FFFFFF
310
FFF0003FFFFF8001F000E0003FFFFF0001FF0001FFE000001FFE0007FF80007F
310
C0007FFFFE0003FC0007FFFFE0003FF8000001FFFE0000007FFFFFF0001FFFFF
310
FE0001FFFFFFC0003FFE0001FFFFFFC0003FFF0003FFFFFFFFF0003FFFFF0001
310
F000E0003FFFFF0003FF0001FFE000003FFE0007FF80007FC0007FFFFE0003FC
310
0007FFFFE0003FF8000001FFFE0000007FFFFFF0001FFFFFFF0001FFFFFFC000
310
7FFF0001FFFFFFC0007FFF0003FFFFFFFFF0003FFFFF0001F000E0003FFFFE00
310
03FF0003FFF000003FFE0003FF80007FC0007FFFFC0003FE0007FFFFE0003FF8
310
000001FFFE0000007FFFFFF0001FFFFFFF0000FFFFFF80007FFF0000FFFFFF80
310
007FFF0003FFFFFFFFF0003FFFFF0001F000E0003FFFFE0003FF0003FFF00000
310
3FFF0003FF80007FC0007FFFFC0007FE0007FFFFC0003FF8000001FFFE000000
310
7FFFFFF0001FFFFFFF80007FFFFF0000FFFF80007FFFFF0000FFFF0003FFFFFF
310
FFF0003FFFFF0003F000E0003FFFFC0003FE0003FFF000003FFF0003FF80007F
310
E0003FFFF80007FE0003FFFFC0007FF8000001FFFE0000007FFFFFF0001FFFFF
310
FF80003FFFFE0000FFFF80003FFFFE0000FFFF0003FFFFFFFFF0001FFFFE0003
310
F000F0001FFFF80003FE0003FFF000007FFF0001FF80007FE0003FFFF00007FE
310
0001FFFF80007FF8000001FFFE0000007FFFFFF0001FFFFFFFC0000FFFF80001
310
FFFFC0000FFFF80001FFFF0003FFFFFFFFF0001FFFFC0003F000F0000FFFF000
310
07FE0007FFF800007FFF0001FF80007FE0001FFFE00007FF0000FFFE00007FF8
310
000001FFFE0000007FFFFFF0001FFFFFFFC00003FFE00001FFFFC00003FFE000
310
01FFFF0003FFFFFFFFF8000FFFF80003F000F00003FFC00007FC0007FFF80000
310
7FFF8001FF80007FF00007FF80000FFF00007FF80000FFF8000001FFFE000000
310
7F80000000000001FFE000003E000003FFFFE000003E000003FFFF0003FFFFFF
310
FFF80003FFE00007F000F800000000000FFC0007FFF800007FFF8001FF80007F
310
F000000000000FFF000000000000FFF8000001FFFE0000007F80000000000001
310
FFF0000000000007FFFFF0000000000007FFFF0003FFFFFFFFFC00007E000007
310
F000F800000000000FFC0007FFF80000FFFF8000FF80007FF800000000001FFF
310
800000000001FFF8000001FFFE0000007F80000000000001FFF800000000000F
310
FFFFF800000000000FFFFF0003FFFFFFFFFC00000000000FF000FC0000000000
310
1FFC0007FFFC0000FFFF8000FF80007FF800000000003FFFC00000000001FFF8
310
000001FFFE0000007F80000000000001FFF800000000000FFFFFF80000000000
310
0FFFFF0003FFFFFFFFFE00000000001FF000FE00000000003FF8000FFFFC0000
310
FFFF8000FF80007FFC00000000003FFFC00000000003FFF8000001FFFE000000
310
7F80000000000001FFFC00000000001FFFFFFC00000000001FFFFF0003FFFFFF
310
FFFF00000000001FF000FF00000000003FF8000FFFFC0000FFFFC000FF80007F
310
FE00000000007FFFE00000000007FFF8000001FFFE0000007F80000000000001
310
FFFE00000000003FFFFFFE00000000003FFFFF0003FFFFFFFFFF80000000003F
310
F000FF80000000007FF8000FFFFC0001FFFFC0007F80007FFF0000000000FFFF
310
F0000000000FFFF800000000000000007F80000000000001FFFF8000000000FF
310
FFFFFF8000000000FFFFFF0003FFFFFFFFFFC0000000007FF000FFC000000000
310
FFF8000FFFFE0001FFFFC0007F80007FFF8000000001FFFFF8000000001FFFF8
310
00000000000000007F80000000000001FFFFC000000001FFFFFFFFC000000001
310
FFFFFF0003FFFFFFFFFFE000000000FFF000FFE000000003FFF0001FFFFE0001
310
FFFFC0007F80007FFFC000000007FFFFFE000000003FFFF80000000000000000
310
7F80000000000001FFFFE000000003FFFFFFFFE000000003FFFFFF0003FFFFFF
310
FFFFF000000003FFF000FFF80000000FFFF0001FFFFE0001FFFFE0007F80007F
310
FFF00000000FFFFFFF00000000FFFFF800000000000000007F80000000000001
310
FFFFF80000000FFFFFFFFFF80000000FFFFFFF0003FFFFFFFFFFFC0000000FFF
310
F000FFFE0000003FFFF0001FFFFE0003FFFFE0003F80007FFFFC0000003FFFFF
310
FFC0000003FFFFF800000000000000007F80000000000001FFFFFE0000003FFF
310
FFFFFFFE0000003FFFFFFF0003FFFFFFFFFFFF0000003FFFF000FFFF800000FF
310
FFF0001FFFFF0003FFFFE0003F80007FFFFF000001FFFFFFFFF800001FFFFFF8
310
00000000000000007F80000000000001FFFFFFC00001FFFFFFFFFFFFC00001FF
310
FFFFFF0003FFFFFFFFFFFFC00000FFFFF000FFFFF8000FFFFFFFFFFFFFFFFFFF
310
FFFFFFFFFFFFFFFFFFFFF0001FFFFFFFFFFF0000FFFFFFF80000000000000000
310
7FFFFFFFFFFFFFFFFFFFFFFC001FFFFFFFFFFFFFFC001FFFFFFFFFFFFFFFFFFF
310
FFFFFFFC001FFFFFF000FFFFFFFFFFFFFFFFFFFFFFFFFFFFFFFFFFFFFFFFFFFF
310
FFFFFFFFFFFFFFFFFFFFFFFFFFFFFFFFFFFFFFFFFFFFFFFFFFFFFFFFFFFFFFFF
310
FFFFFFFFFFFFFFFFFFFFFFFFFFFFFFFFFFFFFFFFFFFFFFFFFFFFFFFFFFFFFFFF
310
F000FFFFFFFFFFFFFFFFFFFFFFFFFFFFFFFFFFFFFFFFFFFFFFFFFFFFFFFFFFFF
310
FFFFFFFFFFFFFFFFFFFFFFFFFFFFFFFFFFFFFFFFFFFFFFFFFFFFFFFFFFFFFFFF
310
FFFFFFFFFFFFFFFFFFFFFFFFFFFFFFFFFFFFFFFFFFFFFFFFF000FFFFFFFFFFFF
310
FFFFFFFFFFFFFFFFFFFFFFFFFFFFFFFFFFFFFFFFFFFFFFFFFFFFFFFFFFFFFFFF
310
FFFFFFFFFFFFFFFFFFFFFFFFFFFFFFFFFFFFFFFFFFFFFFFFFFFFFFFFFFFFFFFF
310
FFFFFFFFFFFFFFFFFFFFFFFFFFFFFFFFF000FFFFFFFFFFFFFFFFFFFFFFFFFFFF
310
FFFFFFFFFFFFFFFFFFFFFFFFFFFFFFFFFFFFFFFFFFFFFFFFFFFFFFFFFFFFFFFF
310
FFFFFFFFFFFFFFFFFFFFFFFFFFFFFFFFFFFFFFFFFFFFFFFFFFFFFFFFFFFFFFFF
310
FFFFFFFFFFFFFFFFF000FFFFFFFFFFFFFFFFFFFFFFFFFFFFFFFFFFFFFFFFFFFF
310
FFFFFFFFFFFFFFFFFFFFFFFFFFFFFFFFFFFFFFFFFFFFFFFFFFFFFFFFFFFFFFFF
310
FFFFFFFFFFFFFFFFFFFFFFFFFFFFFFFFFFFFFFFFFFFFFFFFFFFFFFFFFFFFFFFF
310
F000FFFFFFFFFFFFFFFFFFFFFFFFFFFFFFFFFFFFFFFFFFFFFFFFFFFFFFFFFFFF
310
FFFFFFFFFFFFFFFFFFFFFFFFFFFFFFFFFFFFFFFFFFFFFFFFFFFFFFFFFFFFFFFF
310
FFFFFFFFFFFFFFFFFFFFFFFFFFFFFFFFFFFFFFFFFFFFFFFFF000FFFFFFFFFFFF
310
FFFFFFFFFFFFFFFFFFFFFFFFFFFFFFFFFFFFFFFFFFFFFFFFFFFFFFFFFFFFFFFF
310
FFFFFFFFFFFFFFFFFFFFFFFFFFFFFFFFFFFFFFFFFFFFFFFFFFFFFFFFFFFFFFFF
310
FFFFFFFFFFFFFFFFFFFFFFFFFFFFFFFFF000FFFFFFFFFFFFFFFFFFFFFFFFFFFF
310
FFFFFFFFFFFFFFFFFFFFFFFFFFFFFFFFFFFFFFFFFFFFFFFFFFFFFFFFFFFFFFFF
310
FFFFFFFFFFFFFFFFFFFFFFFFFFFFFFFFFFFFFFFFFFFFFFFFFFFFFFFFFFFFFFFF
310
FFFFFFFFFFFFFFFFF000FFFFFFFFFFFFFFFFFFFFFFFFFFFFFFFFFFFFFFFFFFFF
310
FFFFFFFFFFFFFFFFFFFFFFFFFFFFFFFFFFFFFFFFFFFFFFFFFFFFFFFFFFFFFFFF
310
FFFFFFFFFFFFFFFFFFFFFFFFFFFFFFFFFFFFFFFFFFFFFFFFFFFFFFFFFFFFFFFF
310
F000FFFFFFFFFFFFFFFFFFFFFFFFFFFFFFFFFFFFFFFFFFFFFFFFFFFFFFFFFFFF
310
FFFFFFFFFFFFFFFFFFFFFFFFFFFFFFFFFFFFFFFFFFFFFFFFFFFFFFFFFFFFFFFF
310
FFFFFFFFFFFFFFFFFFFFFFFFFFFFFFFFFFFFFFFFFFFFFFFFF000FFFFFFFFFFFF
310
FFFFFFFFFFFFFFFFFFFFFFFFFFFFFFFFFFFFFFFFFFFFFFFFFFFFFFFFFFFFFFFF
310
FFFFFFFFFFFFFFFFFFFFFFFFFFFFFFFFFFFFFFFFFFFFFFFFFFFFFFFFFFFFFFFF
310
FFFFFFFFFFFFFFFFFFFFFFFFFFFFFFFFF000FFFFFFFFFFFFFFFFFFFFFFFFFFFF
310
FFFFFFFFFFFFFFFFFFFFFFFFFFFFFFFFFFFFFFFFFFFFFFFFFFFFFFFFFFFFFFFF
310
FFFFFFFFFFFFFFFFFFFFFFFFFFFFFFFFFFFFFFFFFFFFFFFFFFFFFFFFFFFFFFFF
310
FFFFFFFFFFFFFFFFF000FFFFFFFFFFFFFFFFFFFFFFFFFFFFFFFFFFFFFFFFFFFF
310
FFFFFFFFFFFFFFFFFFFFFFFFFFFFFFFFFFFFFFFFFFFFFFFFFFFFFFFFFFFFFFFF
310
FFFFFFFFFFFFFFFFFFFFFFFFFFFFFFFFFFFFFFFFFFFFFFFFFFFFFFFFFFFFFFFF
310
F000FFFFFFFFFFFFFFFFFFFFFFFFFFFFFFFFFFFFFFFFFFFFFFFFFFFFFFFFFFFF
310
FFFFFFFFFFFFFFFFFFFFFFFFFFFFFFFFFFFFFFFFFFFFFFFFFFFFFFFFFFFFFFFF
310
FFFFFFFFFFFFFFFFFFFFFFFFFFFFFFFFFFFFFFFFFFFFFFFFF000FFFFFFFFFFFF
310
FFFFFFFFFFFFFFFFFFFFFFFFFFFFFFFFFFFFFFFFFFFFFFFFFFFFFFFFFFFFFFFF
310
FFFFFFFFFFFFFFFFFFFFFFFFFFFFFFFFFFFFFFFFFFFFFFFFFFFFFFFFFFFFFFFF
310
FFFFFFFFFFFFFFFFFFFFFFFFFFFFFFFFF000FFFFFFFFFFFFFFFFFFFFFFFFFFFF
310
FFFFFFFFFFFFFFFFFFFFFFFFFFFFFFFFFFFFFFFFFFFFFFFFFFFFFFFFFFFFFFFF
310
FFFFFFFFFFFFFFFFFFFFFFFFFFFFFFFFFFFFFFFFFFFFFFFFFFFFFFFFFFFFFFFF
310
FFFFFFFFFFFFFFFFF000FFFFFFFFFFFFFFFFFFFFFFFFFFFFFFFFFFFFFFFFFFFF
310
FFFFFFFFFFFFFFFFFFFFFFFFFFFFFFFFFFFFFFFFFFFFFFFFFFFFFFFFFFFFFFFF
310
FFFFFFFFFFFFFFFFFFFFFFFFFFFFFFFFFFFFFFFFFFFFFFFFFFFFFFFFFFFFFFFF
310
F000FFFFFFFFFFFFFFFFFFFFFFFFFFFFFFFFFFFFFFFFFFFFFFFFFFFFFFFFFFFF
310
FFFFFFFFFFFFFFFFFFFFFFFFFFFFFFFFFFFFFFFFFFFFFFFFFFFFFFFFFFFFFFFF
310
FFFFFFFFFFFFFFFFFFFFFFFFFFFFFFFFFFFFFFFFFFFFFFFFF000FFFFFFFFFFFF
310
FFFFFFFFFFFFFFFFFFFFFFFFFFFFFFFFFFFFFFFFFFFFFFFFFFFFFFFFFFFFFFFF
310
FFFFFFFFFFFFFFFFFFFFFFFFFFFFFFFFFFFFFFFFFFFFFFFFFFFFFFFFFFFFFFFF
310
FFFFFFFFFFFFFFFFFFFFFFFFFFFFFFFFF000FFFFFFFFFFFFFFFFFFFFFFFFFFFF
310
FFFFFFFFFFFFFFFFFFFFFFFFFFFFFFFFFFFFFFFFFFFFFFFFFFFFFFFFFFFFFFFF
310
FFFFFFFFFFFFFFFFFFFFFFFFFFFFFFFFFFFFFFFFFFFFFFFFFFFFFFFFFFFFFFFF
310
FFFFFFFFFFFFFFFFF000FFFFFFFFFFFFFFFFFFFFFFFFFFFFFFFFFFFFFFFFFFFF
310
FFFFFFFFFFFFFFFFFFFFFFFFFFFFFFFFFFFFFFFFFFFFFFFFFFFFFFFFFFFFFFFF
310
FFFFFFFFFFFFFFFFFFFFFFFFFFFFFFFFFFFFFFFFFFFFFFFFFFFFFFFFFFFFFFFF
310
F000FFFFFFFFFFFFFFFFFFFFFFFFFFFFFFFFFFFFFFFFFFFFFFFFFFFFFFFFFFFF
310
FFFFFFFFFFFFFFFFFFFFFFFFFFFFFFFFFFFFFFFFFFFFFFFFFFFFFFFFFFFFFFFF
310
FFFFFFFFFFFFFFFFFFFFFFFFFFFFFFFFFFFFFFFFFFFFFFFFF000FFFFFFFFFFFF
310
FFFFFFFFFFFFFFFFFFFFFFFFFFFFFFFFFFFFFFFFFFFFFFFFFFFFFFFFFFFFFFFF
310
FFFFFFFFFFFFFFFFFFFFFFFFFFFFFFFFFFFFFFFFFFFFFFFFFFFFFFFFFFFFFFFF
310
FFFFFFFFFFFFFFFFFFFFFFFFFFFFFFFFF0000000000000000000000000000000
310
0000000000000000000000000000000000000000000000000000000000000000
310
0000000000000000000000000000000000000000000000000000000000000000
310
0000000000000000000000000000000000000000000000000000000000000000
310
0000000000000000000000000000000000000000000000000000000000000000
310
0000000000000000000000000000000000000000000000000000000000000000
310
0000000000000000000000000000000000000000000000000000000000000000
310
0000000000000000000000000000000000000000000000000000000000000000
310
0000000000000000000000000000000000000000000000000000000000000000
310
0000000000000000000000000000000000000000000000000000000000000000
310
0000000000000000000000000000000000000000000000000000000000000000
310
0000000000000000000000000000000000000000000000000000000000000000
310
0000000000000000000000000000000000000000000000000000000000000000
310
0000000000000000000000000000000000000000000000000000000000000000
310
0000000000000000000000000000000000000000000000000000000000000000
310
0000000000000000000000000000000000000000000000000000000000000000
  1
OLE
  0
ENDSEC
  0
SECTION
  2
OBJECTS
  0
DICTIONARY
  5
C
330
0
100
AcDbDictionary
281
     1
  3
ACAD_GROUP
350
D
  3
ACAD_LAYOUT
350
1A
  3
ACAD_MLINESTYLE
350
17
  3
ACAD_PLOTSETTINGS
350
19
  3
ACAD_PLOTSTYLENAME
350
E
  3
ACAD_SCALELIST
350
47
  0
DICTIONARY
  5
D
102
{ACAD_REACTORS
330
C
102
}
330
C
100
AcDbDictionary
281
     1
  0
DICTIONARY
  5
1A
102
{ACAD_REACTORS
330
C
102
}
330
C
100
AcDbDictionary
281
     1
  3
Layout1
350
1E
  3
Layout2
350
26
  3
Model
350
22
  0
DICTIONARY
  5
17
102
{ACAD_REACTORS
330
C
102
}
330
C
100
AcDbDictionary
281
     1
  3
Standard
350
18
  0
DICTIONARY
  5
19
102
{ACAD_REACTORS
330
C
102
}
330
C
100
AcDbDictionary
281
     1
  0
ACDBDICTIONARYWDFLT
  5
E
102
{ACAD_REACTORS
330
C
102
}
330
C
100
AcDbDictionary
281
     1
  3
Normal
350
F
100
AcDbDictionaryWithDefault
340
F
  0
DICTIONARY
  5
47
102
{ACAD_REACTORS
330
C
102
}
330
C
100
AcDbDictionary
281
     1
  3
A0
350
48
  3
A1
350
49
  3
A2
350
4A
  3
A3
350
4B
  3
A4
350
4C
  3
A5
350
4D
  3
A6
350
4E
  3
A7
350
4F
  3
A8
350
50
  3
A9
350
51
  3
B0
350
52
  3
B1
350
53
  3
B2
350
54
  3
B3
350
55
  3
B4
350
56
  3
B5
350
57
  3
B6
350
58
  3
B7
350
59
  3
B8
350
5A
  3
B9
350
5B
  3
C0
350
5C
  3
C1
350
5D
  3
C2
350
5E
  3
C3
350
5F
  3
C4
350
60
  3
C5
350
61
  3
C6
350
62
  3
C7
350
63
  3
C8
350
64
  3
C9
350
65
  3
D0
350
66
  3
D1
350
67
  3
D2
350
68
  0
LAYOUT
  5
1E
102
{ACAD_REACTORS
330
1A
102
}
330
1A
100
AcDbPlotSettings
  1

  2
none_device
  4

  6

 40
0.0
 41
0.0
 42
0.0
 43
0.0
 44
0.0
 45
0.0
 46
0.0
 47
0.0
 48
0.0
 49
0.0
140
0.0
141
0.0
142
1.0
143
1.0
 70
   688
 72
     1
 73
     0
 74
     5
  7

 75
    16
147
1.0
148
0.0
149
0.0
100
AcDbLayout
  1
Layout1
 70
     1
 71
     1
 10
0.0
 20
0.0
 11
420.0
 21
297.0
 12
0.0
 22
0.0
 32
0.0
 14
1.0000000000E+20
 24
1.0000000000E+20
 34
1.0000000000E+20
 15
-1.0000000000E+20
 25
-1.0000000000E+20
 35
-1.0000000000E+20
146
0.0
 13
0.0
 23
0.0
 33
0.0
 16
1.0
 26
0.0
 36
0.0
 17
0.0
 27
1.0
 37
0.0
 76
     0
330
1B
  0
LAYOUT
  5
26
102
{ACAD_REACTORS
330
1A
102
}
330
1A
100
AcDbPlotSettings
  1

  2
none_device
  4

  6

 40
0.0
 41
0.0
 42
0.0
 43
0.0
 44
0.0
 45
0.0
 46
0.0
 47
0.0
 48
0.0
 49
0.0
140
0.0
141
0.0
142
1.0
143
1.0
 70
   688
 72
     1
 73
     0
 74
     5
  7

 75
    16
147
1.0
148
0.0
149
0.0
100
AcDbLayout
  1
Layout2
 70
     1
 71
     2
 10
0.0
 20
0.0
 11
0.0
 21
0.0
 12
0.0
 22
0.0
 32
0.0
 14
0.0
 24
0.0
 34
0.0
 15
0.0
 25
0.0
 35
0.0
146
0.0
 13
0.0
 23
0.0
 33
0.0
 16
1.0
 26
0.0
 36
0.0
 17
0.0
 27
1.0
 37
0.0
 76
     0
330
23
  0
LAYOUT
  5
22
102
{ACAD_REACTORS
330
1A
102
}
330
1A
100
AcDbPlotSettings
  1

  2
none_device
  4
Letter_(8.50_x_11.00_Inches)
  6

 40
6.35
 41
6.35
 42
6.35000508
 43
6.35000508
 44
215.9
 45
279.4
 46
0.0
 47
0.0
 48
0.0
 49
0.0
140
0.0
141
0.0
142
1.0
143
1.0
 70
  1712
 72
     1
 73
     0
 74
     0
  7

 75
     0
147
1.0
148
0.0
149
0.0
100
AcDbLayout
  1
Model
 70
     1
 71
     0
 10
0.0
 20
0.0
 11
297.0
 21
210.0
 12
0.0
 22
0.0
 32
0.0
 14
0.0
 24
0.0
 34
0.0
 15
297.0
 25
210.0
 35
0.0
146
0.0
 13
0.0
 23
0.0
 33
0.0
 16
1.0
 26
0.0
 36
0.0
 17
0.0
 27
1.0
 37
0.0
 76
     0
330
1F
331
29
  0
MLINESTYLE
  5
18
102
{ACAD_REACTORS
330
17
102
}
330
17
100
AcDbMlineStyle
  2
Standard
 70
     0
  3

 62
   256
 51
90.0
 52
90.0
 71
     2
 49
0.5
 62
   256
  6
BYLAYER
 49
-0.5
 62
   256
  6
BYLAYER
  0
ACDBPLACEHOLDER
  5
F
102
{ACAD_REACTORS
330
E
102
}
330
E
  0
SCALE
  5
48
102
{ACAD_REACTORS
330
47
102
}
330
47
100
AcDbScale
 70
     0
300
1:1
140
1.0
141
1.0
290
     1
  0
SCALE
  5
49
102
{ACAD_REACTORS
330
47
102
}
330
47
100
AcDbScale
 70
     0
300
1:2
140
1.0
141
2.0
290
     0
  0
SCALE
  5
4A
102
{ACAD_REACTORS
330
47
102
}
330
47
100
AcDbScale
 70
     0
300
1:4
140
1.0
141
4.0
290
     0
  0
SCALE
  5
4B
102
{ACAD_REACTORS
330
47
102
}
330
47
100
AcDbScale
 70
     0
300
1:5
140
1.0
141
5.0
290
     0
  0
SCALE
  5
4C
102
{ACAD_REACTORS
330
47
102
}
330
47
100
AcDbScale
 70
     0
300
1:8
140
1.0
141
8.0
290
     0
  0
SCALE
  5
4D
102
{ACAD_REACTORS
330
47
102
}
330
47
100
AcDbScale
 70
     0
300
1:10
140
1.0
141
10.0
290
     0
  0
SCALE
  5
4E
102
{ACAD_REACTORS
330
47
102
}
330
47
100
AcDbScale
 70
     0
300
1:16
140
1.0
141
16.0
290
     0
  0
SCALE
  5
4F
102
{ACAD_REACTORS
330
47
102
}
330
47
100
AcDbScale
 70
     0
300
1:20
140
1.0
141
20.0
290
     0
  0
SCALE
  5
50
102
{ACAD_REACTORS
330
47
102
}
330
47
100
AcDbScale
 70
     0
300
1:30
140
1.0
141
30.0
290
     0
  0
SCALE
  5
51
102
{ACAD_REACTORS
330
47
102
}
330
47
100
AcDbScale
 70
     0
300
1:40
140
1.0
141
40.0
290
     0
  0
SCALE
  5
52
102
{ACAD_REACTORS
330
47
102
}
330
47
100
AcDbScale
 70
     0
300
1:50
140
1.0
141
50.0
290
     0
  0
SCALE
  5
53
102
{ACAD_REACTORS
330
47
102
}
330
47
100
AcDbScale
 70
     0
300
1:100
140
1.0
141
100.0
290
     0
  0
SCALE
  5
54
102
{ACAD_REACTORS
330
47
102
}
330
47
100
AcDbScale
 70
     0
300
2:1
140
2.0
141
1.0
290
     0
  0
SCALE
  5
55
102
{ACAD_REACTORS
330
47
102
}
330
47
100
AcDbScale
 70
     0
300
4:1
140
4.0
141
1.0
290
     0
  0
SCALE
  5
56
102
{ACAD_REACTORS
330
47
102
}
330
47
100
AcDbScale
 70
     0
300
8:1
140
8.0
141
1.0
290
     0
  0
SCALE
  5
57
102
{ACAD_REACTORS
330
47
102
}
330
47
100
AcDbScale
 70
     0
300
10:1
140
10.0
141
1.0
290
     0
  0
SCALE
  5
58
102
{ACAD_REACTORS
330
47
102
}
330
47
100
AcDbScale
 70
     0
300
100:1
140
100.0
141
1.0
290
     0
  0
SCALE
  5
59
102
{ACAD_REACTORS
330
47
102
}
330
47
100
AcDbScale
 70
     0
300
1/128" = 1'-0"
140
0.0078125
141
12.0
290
     0
  0
SCALE
  5
5A
102
{ACAD_REACTORS
330
47
102
}
330
47
100
AcDbScale
 70
     0
300
1/64" = 1'-0"
140
0.015625
141
12.0
290
     0
  0
SCALE
  5
5B
102
{ACAD_REACTORS
330
47
102
}
330
47
100
AcDbScale
 70
     0
300
1/32" = 1'-0"
140
0.03125
141
12.0
290
     0
  0
SCALE
  5
5C
102
{ACAD_REACTORS
330
47
102
}
330
47
100
AcDbScale
 70
     0
300
1/16" = 1'-0"
140
0.0625
141
12.0
290
     0
  0
SCALE
  5
5D
102
{ACAD_REACTORS
330
47
102
}
330
47
100
AcDbScale
 70
     0
300
3/32" = 1'-0"
140
0.09375
141
12.0
290
     0
  0
SCALE
  5
5E
102
{ACAD_REACTORS
330
47
102
}
330
47
100
AcDbScale
 70
     0
300
1/8" = 1'-0"
140
0.125
141
12.0
290
     0
  0
SCALE
  5
5F
102
{ACAD_REACTORS
330
47
102
}
330
47
100
AcDbScale
 70
     0
300
3/16" = 1'-0"
140
0.1875
141
12.0
290
     0
  0
SCALE
  5
60
102
{ACAD_REACTORS
330
47
102
}
330
47
100
AcDbScale
 70
     0
300
1/4" = 1'-0"
140
0.25
141
12.0
290
     0
  0
SCALE
  5
61
102
{ACAD_REACTORS
330
47
102
}
330
47
100
AcDbScale
 70
     0
300
3/8" = 1'-0"
140
0.375
141
12.0
290
     0
  0
SCALE
  5
62
102
{ACAD_REACTORS
330
47
102
}
330
47
100
AcDbScale
 70
     0
300
1/2" = 1'-0"
140
0.5
141
12.0
290
     0
  0
SCALE
  5
63
102
{ACAD_REACTORS
330
47
102
}
330
47
100
AcDbScale
 70
     0
300
3/4" = 1'-0"
140
0.75
141
12.0
290
     0
  0
SCALE
  5
64
102
{ACAD_REACTORS
330
47
102
}
330
47
100
AcDbScale
 70
     0
300
1" = 1'-0"
140
1.0
141
12.0
290
     0
  0
SCALE
  5
65
102
{ACAD_REACTORS
330
47
102
}
330
47
100
AcDbScale
 70
     0
300
1-1/2" = 1'-0"
140
1.5
141
12.0
290
     0
  0
SCALE
  5
66
102
{ACAD_REACTORS
330
47
102
}
330
47
100
AcDbScale
 70
     0
300
3" = 1'-0"
140
3.0
141
12.0
290
     0
  0
SCALE
  5
67
102
{ACAD_REACTORS
330
47
102
}
330
47
100
AcDbScale
 70
     0
300
6" = 1'-0"
140
6.0
141
12.0
290
     0
  0
SCALE
  5
68
102
{ACAD_REACTORS
330
47
102
}
330
47
100
AcDbScale
 70
     0
300
1'-0" = 1'-0"
140
12.0
141
12.0
290
     0
  0
ENDSEC
  0
EOF
