  0
SECTION
  2
HEADER
  9
$ACADVER
  1
AC1015
  9
$ACADMAINTVER
 70
     6
  9
$DWGCODEPAGE
  3
ANSI_1252
  9
$INSBASE
 10
0.0
 20
0.0
 30
0.0
  9
$EXTMIN
 10
0.0
 20
0.0
 30
0.0
  9
$EXTMAX
 10
297.0
 20
210.0
 30
0.0
  9
$LIMMIN
 10
0.0
 20
0.0
  9
$LIMMAX
 10
297.0
 20
210.0
  9
$ORTHOMODE
 70
     0
  9
$REGENMODE
 70
     1
  9
$FILLMODE
 70
     1
  9
$QTEXTMODE
 70
     0
  9
$MIRRTEXT
 70
     1
  9
$LTSCALE
 40
1.0
  9
$ATTMODE
 70
     1
  9
$TEXTSIZE
 40
2.0
  9
$TRACEWID
 40
1.0
  9
$TEXTSTYLE
  7
Standard
  9
$CLAYER
  8
0
  9
$CELTYPE
  6
ByLayer
  9
$CECOLOR
 62
   256
  9
$CELTSCALE
 40
1.0
  9
$DISPSILH
 70
     0
  9
$DIMSCALE
 40
1.0
  9
$DIMASZ
 40
3.0
  9
$DIMEXO
 40
0.0
  9
$DIMDLI
 40
3.75
  9
$DIMRND
 40
0.0
  9
$DIMDLE
 40
0.0
  9
$DIMEXE
 40
1.0
  9
$DIMTP
 40
0.0
  9
$DIMTM
 40
0.0
  9
$DIMTXT
 40
2.0
  9
$DIMCEN
 40
2.5
  9
$DIMTSZ
 40
0.0
  9
$DIMTOL
 70
     0
  9
$DIMLIM
 70
     0
  9
$DIMTIH
 70
     1
  9
$DIMTOH
 70
     1
  9
$DIMSE1
 70
     0
  9
$DIMSE2
 70
     0
  9
$DIMTAD
 70
     1
  9
$DIMZIN
 70
     0
  9
$DIMBLK
  1

  9
$DIMASO
 70
     1
  9
$DIMSHO
 70
     1
  9
$DIMPOST
  1

  9
$DIMAPOST
  1

  9
$DIMALT
 70
     0
  9
$DIMALTD
 70
     3
  9
$DIMALTF
 40
0.0393700787
  9
$DIMLFAC
 40
1.0
  9
$DIMTOFL
 70
     1
  9
$DIMTVP
 40
0.0
  9
$DIMTIX
 70
     0
  9
$DIMSOXD
 70
     0
  9
$DIMSAH
 70
     0
  9
$DIMBLK1
  1

  9
$DIMBLK2
  1

  9
$DIMSTYLE
  2
ISO-25
  9
$DIMCLRD
 70
     0
  9
$DIMCLRE
 70
     0
  9
$DIMCLRT
 70
     0
  9
$DIMTFAC
 40
1.0
  9
$DIMGAP
 40
1.524
  9
$DIMJUST
 70
     0
  9
$DIMSD1
 70
     0
  9
$DIMSD2
 70
     0
  9
$DIMTOLJ
 70
     0
  9
$DIMTZIN
 70
     0
  9
$DIMALTZ
 70
     0
  9
$DIMALTTZ
 70
     0
  9
$DIMUPT
 70
     0
  9
$DIMDEC
 70
     2
  9
$DIMTDEC
 70
     3
  9
$DIMALTU
 70
     2
  9
$DIMALTTD
 70
     3
  9
$DIMTXSTY
  7
Standard
  9
$DIMAUNIT
 70
     0
  9
$DIMADEC
 70
     2
  9
$DIMALTRND
 40
0.0
  9
$DIMAZIN
 70
     0
  9
$DIMDSEP
 70
    44
  9
$DIMATFIT
 70
     3
  9
$DIMFRAC
 70
     0
  9
$DIMLDRBLK
  1

  9
$DIMLUNIT
 70
     2
  9
$DIMLWD
 70
    -2
  9
$DIMLWE
 70
    -2
  9
$DIMTMOVE
 70
     0
  9
$LUNITS
 70
     2
  9
$LUPREC
 70
     2
  9
$SKETCHINC
 40
1.0
  9
$FILLETRAD
 40
10.0
  9
$AUNITS
 70
     0
  9
$AUPREC
 70
     2
  9
$MENU
  1
.
  9
$ELEVATION
 40
0.0
  9
$PELEVATION
 40
0.0
  9
$THICKNESS
 40
0.0
  9
$LIMCHECK
 70
     0
  9
$CHAMFERA
 40
0.0
  9
$CHAMFERB
 40
0.0
  9
$CHAMFERC
 40
0.0
  9
$CHAMFERD
 40
0.0
  9
$SKPOLY
 70
     0
  9
$TDCREATE
 40
2457627.464341158
  9
$TDUCREATE
 40
2457627.381007824
  9
$TDUPDATE
 40
2457627.464342396
  9
$TDUUPDATE
 40
2457627.381009062
  9
$TDINDWG
 40
0.0000000116
  9
$TDUSRTIMER
 40
0.0000000116
  9
$USRTIMER
 70
     1
  9
$ANGBASE
 50
0.0
  9
$ANGDIR
 70
     0
  9
$PDMODE
 70
     0
  9
$PDSIZE
 40
-1.0
  9
$PLINEWID
 40
0.0
  9
$SPLFRAME
 70
     0
  9
$SPLINETYPE
 70
     6
  9
$SPLINESEGS
 70
     8
  9
$HANDSEED
  5
240
  9
$SURFTAB1
 70
     6
  9
$SURFTAB2
 70
     6
  9
$SURFTYPE
 70
     6
  9
$SURFU
 70
     6
  9
$SURFV
 70
     6
  9
$UCSBASE
  2

  9
$UCSNAME
  2

  9
$UCSORG
 10
0.0
 20
0.0
 30
0.0
  9
$UCSXDIR
 10
1.0
 20
0.0
 30
0.0
  9
$UCSYDIR
 10
0.0
 20
1.0
 30
0.0
  9
$UCSORTHOREF
  2

  9
$UCSORTHOVIEW
 70
     0
  9
$UCSORGTOP
 10
0.0
 20
0.0
 30
0.0
  9
$UCSORGBOTTOM
 10
0.0
 20
0.0
 30
0.0
  9
$UCSORGLEFT
 10
0.0
 20
0.0
 30
0.0
  9
$UCSORGRIGHT
 10
0.0
 20
0.0
 30
0.0
  9
$UCSORGFRONT
 10
0.0
 20
0.0
 30
0.0
  9
$UCSORGBACK
 10
0.0
 20
0.0
 30
0.0
  9
$PUCSBASE
  2

  9
$PUCSNAME
  2

  9
$PUCSORG
 10
0.0
 20
0.0
 30
0.0
  9
$PUCSXDIR
 10
1.0
 20
0.0
 30
0.0
  9
$PUCSYDIR
 10
0.0
 20
1.0
 30
0.0
  9
$PUCSORTHOREF
  2

  9
$PUCSORTHOVIEW
 70
     0
  9
$PUCSORGTOP
 10
0.0
 20
0.0
 30
0.0
  9
$PUCSORGBOTTOM
 10
0.0
 20
0.0
 30
0.0
  9
$PUCSORGLEFT
 10
0.0
 20
0.0
 30
0.0
  9
$PUCSORGRIGHT
 10
0.0
 20
0.0
 30
0.0
  9
$PUCSORGFRONT
 10
0.0
 20
0.0
 30
0.0
  9
$PUCSORGBACK
 10
0.0
 20
0.0
 30
0.0
  9
$USERI1
 70
     0
  9
$USERI2
 70
     0
  9
$USERI3
 70
     0
  9
$USERI4
 70
     0
  9
$USERI5
 70
     0
  9
$USERR1
 40
0.0
  9
$USERR2
 40
0.0
  9
$USERR3
 40
0.0
  9
$USERR4
 40
0.0
  9
$USERR5
 40
0.0
  9
$WORLDVIEW
 70
     1
  9
$SHADEDGE
 70
     3
  9
$SHADEDIF
 70
    70
  9
$TILEMODE
 70
     1
  9
$MAXACTVP
 70
    64
  9
$PINSBASE
 10
0.0
 20
0.0
 30
0.0
  9
$PLIMCHECK
 70
     0
  9
$PEXTMIN
 10
1.0000000000E+20
 20
1.0000000000E+20
 30
1.0000000000E+20
  9
$PEXTMAX
 10
-1.0000000000E+20
 20
-1.0000000000E+20
 30
-1.0000000000E+20
  9
$PLIMMIN
 10
0.0
 20
0.0
  9
$PLIMMAX
 10
420.0
 20
297.0
  9
$UNITMODE
 70
     0
  9
$VISRETAIN
 70
     1
  9
$PLINEGEN
 70
     0
  9
$PSLTSCALE
 70
     1
  9
$TREEDEPTH
 70
  3020
  9
$CMLSTYLE
  2
Standard
  9
$CMLJUST
 70
     0
  9
$CMLSCALE
 40
20.0
  9
$PROXYGRAPHICS
 70
     1
  9
$MEASUREMENT
 70
     1
  9
$CELWEIGHT
370
    -1
  9
$ENDCAPS
280
     0
  9
$JOINSTYLE
280
     0
  9
$LWDISPLAY
290
     1
  9
$INSUNITS
 70
     4
  9
$HYPERLINKBASE
  1

  9
$STYLESHEET
  1

  9
$XEDIT
290
     1
  9
$CEPSNTYPE
380
     0
  9
$PSTYLEMODE
290
     1
  9
$FINGERPRINTGUID
  2
{70846A90-802B-4716-A336-5F8D3EC2ADB5}
  9
$VERSIONGUID
  2
{FAEB1C32-E019-11D5-929B-00C0DF256EC4}
  9
$EXTNAMES
290
     1
  9
$PSVPSCALE
 40
0.0
  9
$OLESTARTUP
290
     0
  0
ENDSEC
  0
SECTION
  2
CLASSES
  0
CLASS
  1
ACDBDICTIONARYWDFLT
  2
AcDbDictionaryWithDefault
  3
ObjectDBX Classes
 90
        0
280
     0
281
     0
  0
CLASS
  1
VISUALSTYLE
  2
AcDbVisualStyle
  3
ObjectDBX Classes
 90
     4095
280
     0
281
     0
  0
CLASS
  1
MATERIAL
  2
AcDbMaterial
  3
ObjectDBX Classes
 90
     1153
280
     0
281
     0
  0
CLASS
  1
SCALE
  2
AcDbScale
  3
ObjectDBX Classes
 90
     1153
280
     0
281
     0
  0
CLASS
  1
TABLESTYLE
  2
AcDbTableStyle
  3
ObjectDBX Classes
 90
     4095
280
     0
281
     0
  0
CLASS
  1
MLEADERSTYLE
  2
AcDbMLeaderStyle
  3
ACDB_MLEADERSTYLE_CLASS
 90
     4095
280
     0
281
     0
  0
CLASS
  1
SUN
  2
AcDbSun
  3
SCENEOE
 90
     1153
280
     0
281
     0
  0
CLASS
  1
ACDBPLACEHOLDER
  2
AcDbPlaceHolder
  3
ObjectDBX Classes
 90
        0
280
     0
281
     0
  0
CLASS
  1
LAYOUT
  2
AcDbLayout
  3
ObjectDBX Classes
 90
        0
280
     0
281
     0
  0
ENDSEC
  0
SECTION
  2
TABLES
  0
TABLE
  2
VPORT
  5
8
330
0
100
AcDbSymbolTable
 70
     1
  0
VPORT
  5
29
330
8
100
AcDbSymbolTableRecord
100
AcDbViewportTableRecord
  2
*Active
 70
     0
 10
0.0
 20
0.0
 11
1.0
 21
1.0
 12
148.5
 22
105.0
 13
0.0
 23
0.0
 14
10.0
 24
10.0
 15
10.0
 25
10.0
 16
0.0
 26
0.0
 36
1.0
 17
0.0
 27
0.0
 37
0.0
 40
210.0
 41
1.4142857143
 42
50.0
 43
0.0
 44
0.0
 50
0.0
 51
0.0
 71
     0
 72
  2000
 73
     1
 74
     3
 75
     0
 76
     0
 77
     0
 78
     0
281
     0
 65
     1
110
0.0
120
0.0
130
0.0
111
1.0
121
0.0
131
0.0
112
0.0
122
1.0
132
0.0
 79
     0
146
0.0
  0
ENDTAB
  0
TABLE
  2
LTYPE
  5
5
330
0
100
AcDbSymbolTable
 70
     6
  0
LTYPE
  5
14
330
5
100
AcDbSymbolTableRecord
100
AcDbLinetypeTableRecord
  2
ByBlock
 70
     0
  3

 72
    65
 73
     0
 40
0.0
  0
LTYPE
  5
15
330
5
100
AcDbSymbolTableRecord
100
AcDbLinetypeTableRecord
  2
ByLayer
 70
     0
  3

 72
    65
 73
     0
 40
0.0
  0
LTYPE
  5
16
330
5
100
AcDbSymbolTableRecord
100
AcDbLinetypeTableRecord
  2
Continuous
 70
     0
  3
Solid line
 72
    65
 73
     0
 40
0.0
  0
LTYPE
  5
6E
330
5
100
AcDbSymbolTableRecord
100
AcDbLinetypeTableRecord
  2
HIDDEN
 70
     0
  3
Hidden __ __ __ __ __ __ __ __ __ __ __ __ __ __
 72
    65
 73
     2
 40
1.905
 49
1.27
 74
     0
 49
-0.635
 74
     0
  0
LTYPE
  5
6F
330
5
100
AcDbSymbolTableRecord
100
AcDbLinetypeTableRecord
  2
PHANTOM
 70
     0
  3
Phantom ______  __  __  ______  __  __  ______
 72
    65
 73
     6
 40
12.7
 49
6.35
 74
     0
 49
-1.27
 74
     0
 49
1.27
 74
     0
 49
-1.27
 74
     0
 49
1.27
 74
     0
 49
-1.27
 74
     0
  0
LTYPE
  5
70
330
5
100
AcDbSymbolTableRecord
100
AcDbLinetypeTableRecord
  2
CENTER
 70
     0
  3
Center ____ _ ____ _ ____ _ ____ _ ____ _ ____
 72
    65
 73
     4
 40
10.16
 49
6.35
 74
     0
 49
-1.27
 74
     0
 49
1.27
 74
     0
 49
-1.27
 74
     0
  0
LTYPE
  5
71
330
5
100
AcDbSymbolTableRecord
100
AcDbLinetypeTableRecord
  2
CENTERX2
 70
     0
  3
Center (2x) ________  __  ________  __  _____
 72
    65
 73
     4
 40
20.32
 49
12.7
 74
     0
 49
-2.54
 74
     0
 49
2.54
 74
     0
 49
-2.54
 74
     0
  0
LTYPE
  5
72
330
5
100
AcDbSymbolTableRecord
100
AcDbLinetypeTableRecord
  2
DOT2
 70
     0
  3
Dot (.5x) ........................................
 72
    65
 73
     2
 40
0.635
 49
0.0
 74
     0
 49
-0.635
 74
     0
  0
ENDTAB
  0
TABLE
  2
LAYER
  5
2
330
0
100
AcDbSymbolTable
 70
     5
  0
LAYER
  5
10
330
2
100
AcDbSymbolTableRecord
100
AcDbLayerTableRecord
  2
0
 70
     0
 62
     7
  6
Continuous
370
    -3
390
F
  0
LAYER
  5
73
330
2
100
AcDbSymbolTableRecord
100
AcDbLayerTableRecord
  2
FORMAT
 70
     0
 62
     7
  6
Continuous
370
    -3
390
F
  0
LAYER
  5
74
330
2
100
AcDbSymbolTableRecord
100
AcDbLayerTableRecord
  2
VERMASSUNG
 70
     0
 62
     7
  6
Continuous
370
    -3
390
F
  0
LAYER
  5
75
330
2
100
AcDbSymbolTableRecord
100
AcDbLayerTableRecord
  2
KOPF_DÜNN
 70
     0
 62
     7
  6
Continuous
370
    -3
390
F
  0
LAYER
  5
76
330
2
100
AcDbSymbolTableRecord
100
AcDbLayerTableRecord
  2
KOPF_DICK
 70
     0
 62
     7
  6
Continuous
370
    15
390
F
  0
ENDTAB
  0
TABLE
  2
STYLE
  5
3
330
0
100
AcDbSymbolTable
 70
     3
  0
STYLE
  5
11
330
3
100
AcDbSymbolTableRecord
100
AcDbTextStyleTableRecord
  2
Standard
 70
     0
 40
0.0
 41
1.0
 50
0.0
 71
     0
 42
2.0
  3
txt
  4

  0
STYLE
  5
77
330
3
100
AcDbSymbolTableRecord
100
AcDbTextStyleTableRecord
  2
SLDTEXTSTYLE0
 70
     0
 40
0.0
 41
0.7
 50
0.0
 71
     0
 42
2.0
  3
TXT
  4

  0
STYLE
  5
7B
330
3
100
AcDbSymbolTableRecord
100
AcDbTextStyleTableRecord
  2
SLDTEXTSTYLE1
 70
     0
 40
0.0
 41
0.6466666667
 50
0.0
 71
     0
 42
2.0
  3
TXT
  4

  0
ENDTAB
  0
TABLE
  2
VIEW
  5
6
330
0
100
AcDbSymbolTable
 70
     0
  0
ENDTAB
  0
TABLE
  2
UCS
  5
7
330
0
100
AcDbSymbolTable
 70
     0
  0
ENDTAB
  0
TABLE
  2
APPID
  5
9
330
0
100
AcDbSymbolTable
 70
     1
  0
APPID
  5
12
330
9
100
AcDbSymbolTableRecord
100
AcDbRegAppTableRecord
  2
ACAD
 70
     0
  0
ENDTAB
  0
TABLE
  2
DIMSTYLE
  5
A
330
0
100
AcDbSymbolTable
 70
     2
100
AcDbDimStyleTable
  0
DIMSTYLE
105
27
330
A
100
AcDbSymbolTableRecord
100
AcDbDimStyleTableRecord
  2
ISO-25
 70
     0
 41
2.5
 42
0.625
 43
3.75
 44
1.25
 73
     0
 74
     0
 77
     1
 78
     8
140
2.5
141
2.5
143
0.0393700787
147
0.625
171
     3
172
     1
178
     0
271
     2
272
     2
274
     3
278
    44
283
     0
284
     8
340
11
  0
DIMSTYLE
105
153
102
{ACAD_REACTORS
330
152
330
15F
330
16B
330
175
330
17F
102
}
330
A
100
AcDbSymbolTableRecord
100
AcDbDimStyleTableRecord
  2
SLDDIMSTYLE0
 70
     0
 41
3.0
 44
0.0
 45
0.000000001
 73
     0
 74
     0
 77
     1
 78
    12
 79
     3
140
2.0
147
0.5
173
     1
178
     0
271
     2
272
     3
276
     2
284
    12
340
77
  0
ENDTAB
  0
TABLE
  2
BLOCK_RECORD
  5
1
330
0
100
AcDbSymbolTable
 70
     6
  0
BLOCK_RECORD
  5
1F
330
1
100
AcDbSymbolTableRecord
100
AcDbBlockTableRecord
  2
*Model_Space
340
22
  0
BLOCK_RECORD
  5
1B
330
1
100
AcDbSymbolTableRecord
100
AcDbBlockTableRecord
  2
*Paper_Space
340
1E
  0
BLOCK_RECORD
  5
23
330
1
100
AcDbSymbolTableRecord
100
AcDbBlockTableRecord
  2
*Paper_Space0
340
26
  0
BLOCK_RECORD
  5
154
330
1
100
AcDbSymbolTableRecord
100
AcDbBlockTableRecord
  2
_D
340
0
  0
BLOCK_RECORD
  5
160
330
1
100
AcDbSymbolTableRecord
100
AcDbBlockTableRecord
  2
_D_1
340
0
  0
BLOCK_RECORD
  5
16C
330
1
100
AcDbSymbolTableRecord
100
AcDbBlockTableRecord
  2
_D_2
340
0
  0
BLOCK_RECORD
  5
176
330
1
100
AcDbSymbolTableRecord
100
AcDbBlockTableRecord
  2
_D_3
340
0
  0
BLOCK_RECORD
  5
180
330
1
100
AcDbSymbolTableRecord
100
AcDbBlockTableRecord
  2
_D_4
340
0
  0
ENDTAB
  0
ENDSEC
  0
SECTION
  2
BLOCKS
  0
BLOCK
  5
20
330
1F
100
AcDbEntity
  8
0
100
AcDbBlockBegin
  2
*Model_Space
 70
     0
 10
0.0
 20
0.0
 30
0.0
  3
*Model_Space
  1

  0
ENDBLK
  5
21
330
1F
100
AcDbEntity
  8
0
100
AcDbBlockEnd
  0
BLOCK
  5
1C
330
1B
100
AcDbEntity
 67
     1
  8
0
100
AcDbBlockBegin
  2
*Paper_Space
 70
     0
 10
0.0
 20
0.0
 30
0.0
  3
*Paper_Space
  1

  0
ENDBLK
  5
1D
330
1B
100
AcDbEntity
 67
     1
  8
0
100
AcDbBlockEnd
  0
BLOCK
  5
24
330
23
100
AcDbEntity
  8
0
100
AcDbBlockBegin
  2
*Paper_Space0
 70
     0
 10
0.0
 20
0.0
 30
0.0
  3
*Paper_Space0
  1

  0
ENDBLK
  5
25
330
23
100
AcDbEntity
  8
0
100
AcDbBlockEnd
  0
BLOCK
  5
155
330
154
100
AcDbEntity
  8
0
100
AcDbBlockBegin
  2
_D
 70
     0
 10
0.0
 20
0.0
 30
0.0
  3
_D
  1

  0
SOLID
  5
157
330
154
100
AcDbEntity
  8
VERMASSUNG
100
AcDbTrace
 10
95.0279255731
 20
87.1543427718
 30
0.0
 11
95.4779255731
 21
90.1543427718
 31
0.0
 12
94.5779255731
 22
90.1543427718
 32
0.0
 13
94.5779255731
 23
90.1543427718
 33
0.0
  0
SOLID
  5
158
330
154
100
AcDbEntity
  8
VERMASSUNG
100
AcDbTrace
 10
95.0279255731
 20
137.1043427718
 30
0.0
 11
94.5779255731
 21
134.1043427718
 31
0.0
 12
95.4779255731
 22
134.1043427718
 32
0.0
 13
95.4779255731
 23
134.1043427718
 33
0.0
  0
LINE
  5
159
330
154
100
AcDbEntity
  8
VERMASSUNG
100
AcDbLine
 10
150.0434394251
 20
87.1543427718
 30
0.0
 11
94.0279255731
 21
87.1543427718
 31
0.0
  0
LINE
  5
15A
330
154
100
AcDbEntity
  8
VERMASSUNG
100
AcDbLine
 10
150.0434394251
 20
137.1043427718
 30
0.0
 11
94.0279255731
 21
137.1043427718
 31
0.0
  0
LINE
  5
15B
330
154
100
AcDbEntity
  8
VERMASSUNG
100
AcDbLine
 10
95.0279255731
 20
87.1543427718
 30
0.0
 11
95.0279255731
 21
137.1043427718
 31
0.0
  0
MTEXT
  5
15C
330
154
100
AcDbEntity
  8
VERMASSUNG
100
AcDbMText
 10
92.2497903169
 20
102.6249071384
 30
0.0
 40
2.0
 41
0.0
 71
     1
 72
     1
  1
ISO 30
  7
SLDTEXTSTYLE0
 11
3.391901413832837E-15
 21
1.0
 31
0.0
 73
     1
 44
1.0
  0
MTEXT
  5
15D
330
154
100
AcDbEntity
  8
VERMASSUNG
100
AcDbMText
 10
92.4497902682
 20
111.624906751
 30
0.0
 40
2.0
 41
0.0
 71
     1
 72
     1
  1
%%c
  7
SLDTEXTSTYLE0
 11
3.391901413832837E-15
 21
1.0
 31
0.0
 73
     1
 44
1.0
  0
MTEXT
  5
15E
330
154
100
AcDbEntity
  8
VERMASSUNG
100
AcDbMText
 10
92.4497899771
 20
115.2342500838
 30
0.0
 40
2.0
 41
0.0
 71
     1
 72
     1
  1
49.95
  7
SLDTEXTSTYLE0
 11
3.391901413832837E-15
 21
1.0
 31
0.0
 73
     1
 44
1.0
  0
ENDBLK
  5
156
330
154
100
AcDbEntity
  8
0
100
AcDbBlockEnd
  0
BLOCK
  5
161
330
160
100
AcDbEntity
  8
0
100
AcDbBlockBegin
  2
_D_1
 70
     0
 10
0.0
 20
0.0
 30
0.0
  3
_D_1
  1

  0
ARC
  5
163
330
160
100
AcDbEntity
  8
VERMASSUNG
100
AcDbCircle
 10
141.0802329369
 20
151.8092031308
 30
0.0
 40
4.247059938537297
100
AcDbArc
 50
153.4349488229
 51
206.5650511771
  0
ARC
  5
164
330
160
100
AcDbEntity
  8
VERMASSUNG
100
AcDbCircle
 10
142.8566459132
 20
151.8092031308
 30
0.0
 40
4.247059938537297
100
AcDbArc
 50
333.4349488229
 51
26.5650511771
  0
SOLID
  5
165
330
160
100
AcDbEntity
  8
VERMASSUNG
100
AcDbTrace
 10
98.5934394251
 20
149.9098601853
 30
0.0
 11
101.5934394251
 21
149.4598601853
 31
0.0
 12
101.5934394251
 22
150.3598601853
 32
0.0
 13
101.5934394251
 23
150.3598601853
 33
0.0
  0
SOLID
  5
166
330
160
100
AcDbEntity
  8
VERMASSUNG
100
AcDbTrace
 10
185.3434394251
 20
149.9098601853
 30
0.0
 11
182.3434394251
 21
150.3598601853
 31
0.0
 12
182.3434394251
 22
149.4598601853
 32
0.0
 13
182.3434394251
 23
149.4598601853
 33
0.0
  0
LINE
  5
167
330
160
100
AcDbEntity
  8
VERMASSUNG
100
AcDbLine
 10
98.5934394251
 20
120.1906400355
 30
0.0
 11
98.5934394251
 21
150.9098601853
 31
0.0
  0
LINE
  5
168
330
160
100
AcDbEntity
  8
VERMASSUNG
100
AcDbLine
 10
185.3434394251
 20
121.9293427718
 30
0.0
 11
185.3434394251
 21
150.9098601853
 31
0.0
  0
LINE
  5
169
330
160
100
AcDbEntity
  8
VERMASSUNG
100
AcDbLine
 10
98.5934394251
 20
149.9098601853
 30
0.0
 11
185.3434394251
 21
149.9098601853
 31
0.0
  0
MTEXT
  5
16A
330
160
100
AcDbEntity
  8
VERMASSUNG
100
AcDbMText
 10
138.8690470461
 20
152.4879957813
 30
0.0
 40
2.0
 41
0.0
 71
     1
 72
     1
  1
86.75
  7
SLDTEXTSTYLE0
 73
     1
 44
1.0
  0
ENDBLK
  5
162
330
160
100
AcDbEntity
  8
0
100
AcDbBlockEnd
  0
BLOCK
  5
16D
330
16C
100
AcDbEntity
  8
0
100
AcDbBlockBegin
  2
_D_2
 70
     0
 10
0.0
 20
0.0
 30
0.0
  3
_D_2
  1

  0
SOLID
  5
16F
330
16C
100
AcDbEntity
  8
VERMASSUNG
100
AcDbTrace
 10
146.2434394251
 20
143.9098601853
 30
0.0
 11
149.2434394251
 21
143.4598601853
 31
0.0
 12
149.2434394251
 22
144.3598601853
 32
0.0
 13
149.2434394251
 23
144.3598601853
 33
0.0
  0
SOLID
  5
170
330
16C
100
AcDbEntity
  8
VERMASSUNG
100
AcDbTrace
 10
185.3434394251
 20
143.9098601853
 30
0.0
 11
182.3434394251
 21
144.3598601853
 31
0.0
 12
182.3434394251
 22
143.4598601853
 32
0.0
 13
182.3434394251
 23
143.4598601853
 33
0.0
  0
LINE
  5
171
330
16C
100
AcDbEntity
  8
VERMASSUNG
100
AcDbLine
 10
146.2434394251
 20
128.0043427718
 30
0.0
 11
146.2434394251
 21
144.9098601853
 31
0.0
  0
LINE
  5
172
330
16C
100
AcDbEntity
  8
VERMASSUNG
100
AcDbLine
 10
185.3434394251
 20
121.9293427718
 30
0.0
 11
185.3434394251
 21
144.9098601853
 31
0.0
  0
LINE
  5
173
330
16C
100
AcDbEntity
  8
VERMASSUNG
100
AcDbLine
 10
146.2434394251
 20
143.9098601853
 30
0.0
 11
185.3434394251
 21
143.9098601853
 31
0.0
  0
MTEXT
  5
174
330
16C
100
AcDbEntity
  8
VERMASSUNG
100
AcDbMText
 10
163.5940841212
 20
146.4879957813
 30
0.0
 40
2.0
 41
0.0
 71
     1
 72
     1
  1
39.1
  7
SLDTEXTSTYLE0
 73
     1
 44
1.0
  0
ENDBLK
  5
16E
330
16C
100
AcDbEntity
  8
0
100
AcDbBlockEnd
  0
BLOCK
  5
177
330
176
100
AcDbEntity
  8
0
100
AcDbBlockBegin
  2
_D_3
 70
     0
 10
0.0
 20
0.0
 30
0.0
  3
_D_3
  1

  0
SOLID
  5
179
330
176
100
AcDbEntity
  8
VERMASSUNG
100
AcDbTrace
 10
165.2934394251
 20
137.9098601853
 30
0.0
 11
168.2934394251
 21
137.4598601853
 31
0.0
 12
168.2934394251
 22
138.3598601853
 32
0.0
 13
168.2934394251
 23
138.3598601853
 33
0.0
  0
SOLID
  5
17A
330
176
100
AcDbEntity
  8
VERMASSUNG
100
AcDbTrace
 10
185.3434394251
 20
137.9098601853
 30
0.0
 11
182.3434394251
 21
138.3598601853
 31
0.0
 12
182.3434394251
 22
137.4598601853
 32
0.0
 13
182.3434394251
 23
137.4598601853
 33
0.0
  0
LINE
  5
17B
330
176
100
AcDbEntity
  8
VERMASSUNG
100
AcDbLine
 10
165.2934394251
 20
135.0407003857
 30
0.0
 11
165.2934394251
 21
138.9098601853
 31
0.0
  0
LINE
  5
17C
330
176
100
AcDbEntity
  8
VERMASSUNG
100
AcDbLine
 10
185.3434394251
 20
121.9293427718
 30
0.0
 11
185.3434394251
 21
138.9098601853
 31
0.0
  0
LINE
  5
17D
330
176
100
AcDbEntity
  8
VERMASSUNG
100
AcDbLine
 10
165.2934394251
 20
137.9098601853
 30
0.0
 11
185.3434394251
 21
137.9098601853
 31
0.0
  0
MTEXT
  5
17E
330
176
100
AcDbEntity
  8
VERMASSUNG
100
AcDbMText
 10
172.2190470461
 20
140.4879957813
 30
0.0
 40
2.0
 41
0.0
 71
     1
 72
     1
  1
20.05
  7
SLDTEXTSTYLE0
 73
     1
 44
1.0
  0
ENDBLK
  5
178
330
176
100
AcDbEntity
  8
0
100
AcDbBlockEnd
  0
BLOCK
  5
181
330
180
100
AcDbEntity
  8
0
100
AcDbBlockBegin
  2
_D_4
 70
     0
 10
0.0
 20
0.0
 30
0.0
  3
_D_4
  1

  0
SOLID
  5
183
330
180
100
AcDbEntity
  8
VERMASSUNG
100
AcDbTrace
 10
191.9935740777
 20
122.1293427718
 30
0.0
 11
191.5435740777
 21
119.1293427718
 31
0.0
 12
192.4435740777
 22
119.1293427718
 32
0.0
 13
192.4435740777
 23
119.1293427718
 33
0.0
  0
SOLID
  5
184
330
180
100
AcDbEntity
  8
VERMASSUNG
100
AcDbTrace
 10
191.9935740777
 20
102.1293427718
 30
0.0
 11
192.4435740777
 21
105.1293427718
 31
0.0
 12
191.5435740777
 22
105.1293427718
 32
0.0
 13
191.5435740777
 23
105.1293427718
 33
0.0
  0
LINE
  5
185
330
180
100
AcDbEntity
  8
VERMASSUNG
100
AcDbLine
 10
185.1434394251
 20
122.1293427718
 30
0.0
 11
192.9935740777
 21
122.1293427718
 31
0.0
  0
LINE
  5
186
330
180
100
AcDbEntity
  8
VERMASSUNG
100
AcDbLine
 10
185.1434394251
 20
102.1293427718
 30
0.0
 11
192.9935740777
 21
102.1293427718
 31
0.0
  0
LINE
  5
187
330
180
100
AcDbEntity
  8
VERMASSUNG
100
AcDbLine
 10
191.9935740777
 20
122.1293427718
 30
0.0
 11
191.9935740777
 21
102.1293427718
 31
0.0
  0
MTEXT
  5
188
330
180
100
AcDbEntity
  8
VERMASSUNG
100
AcDbMText
 10
189.2154388215
 20
105.7243431282
 30
0.0
 40
2.0
 41
0.0
 71
     1
 72
     1
  1
MBM
  7
SLDTEXTSTYLE0
 11
-7.044195017643634E-15
 21
1.0
 31
0.0
 73
     1
 44
1.0
  0
MTEXT
  5
189
330
180
100
AcDbEntity
  8
VERMASSUNG
100
AcDbMText
 10
189.4154387728
 20
112.1243429665
 30
0.0
 40
2.0
 41
0.0
 71
     1
 72
     1
  1
%%c
  7
SLDTEXTSTYLE0
 11
-7.044195017643634E-15
 21
1.0
 31
0.0
 73
     1
 44
1.0
  0
MTEXT
  5
18A
330
180
100
AcDbEntity
  8
VERMASSUNG
100
AcDbMText
 10
189.2154388215
 20
115.7343434465
 30
0.0
 40
2.0
 41
0.0
 71
     1
 72
     1
  1
20
  7
SLDTEXTSTYLE0
 11
-7.044195017643634E-15
 21
1.0
 31
0.0
 73
     1
 44
1.0
  0
ENDBLK
  5
182
330
180
100
AcDbEntity
  8
0
100
AcDbBlockEnd
  0
ENDSEC
  0
SECTION
  2
ENTITIES
  0
MTEXT
  5
78
330
1F
100
AcDbEntity
  8
KOPF_DÜNN
100
AcDbMText
 10
13.8892156294
 20
23.8442973028
 30
0.0
 40
3.0
 41
0.0
 71
     1
 72
     1
  1
102.325.201
  7
SLDTEXTSTYLE0
 73
     1
 44
1.0
  0
MTEXT
  5
79
330
1F
100
AcDbEntity
  8
VERMASSUNG
100
AcDbMText
 10
13.9329988022
 20
28.8834360957
 30
0.0
 40
3.0
 41
0.0
 71
     1
 72
     1
  1
Aufnahme_Master shank MBM 20
  7
SLDTEXTSTYLE0
 73
     1
 44
1.0
  0
MTEXT
  5
7A
330
1F
100
AcDbEntity
  8
VERMASSUNG
100
AcDbMText
 10
98.8601118557
 20
13.8365368761
 30
0.0
 40
2.0
 41
0.0
 71
     1
 72
     1
  1
Datum: 05.11.2007
  7
SLDTEXTSTYLE0
 73
     1
 44
1.0
  0
MTEXT
  5
7C
330
1F
100
AcDbEntity
  8
VERMASSUNG
100
AcDbMText
 10
13.933048693
 20
18.0482802738
 30
0.0
 40
2.0
 41
0.0
 71
     1
 72
     1
  1
DIN 69 871 B 30
  7
SLDTEXTSTYLE1
 73
     1
 44
1.0
  0
MTEXT
  5
7D
330
1F
100
AcDbEntity
  8
VERMASSUNG
100
AcDbMText
 10
13.9808475933
 20
13.9090974274
 30
0.0
 40
2.0
 41
0.0
 71
     1
 72
     1
  1
Gewicht: 398g
  7
SLDTEXTSTYLE0
 73
     1
 44
1.0
  0
ARC
  5
7E
330
1F
100
AcDbEntity
  8
0
  6
Continuous
 62
     7
370
    15
100
AcDbCircle
 10
148.8434394251
 20
95.6543427718
 30
0.0
 40
0.5999999999999943
100
AcDbArc
 50
0.0
 51
90.0
  0
ARC
  5
7F
330
1F
100
AcDbEntity
  8
0
  6
Continuous
 62
     7
370
    15
100
AcDbCircle
 10
148.8434394251
 20
128.6043427718
 30
0.0
 40
0.6000000000000227
100
AcDbArc
 50
270.0
 51
0.0
  0
LINE
  5
80
330
1F
100
AcDbEntity
  8
0
  6
Continuous
 62
     7
370
    15
100
AcDbLine
 10
146.2434394251
 20
96.2543427718
 30
0.0
 11
148.8434394251
 21
96.2543427718
 31
0.0
  0
LINE
  5
81
330
1F
100
AcDbEntity
  8
0
  6
Continuous
 62
     7
370
    15
100
AcDbLine
 10
148.8434394251
 20
128.0043427718
 30
0.0
 11
146.2434394251
 21
128.0043427718
 31
0.0
  0
LINE
  5
82
330
1F
100
AcDbEntity
  8
0
  6
Continuous
 62
     7
370
    15
100
AcDbLine
 10
146.2434394251
 20
128.0043427718
 30
0.0
 11
99.449132532
 21
121.1801730165
 31
0.0
  0
LINE
  5
83
330
1F
100
AcDbEntity
  8
0
  6
Continuous
 62
     7
370
    15
100
AcDbLine
 10
99.449132532
 20
103.078512527
 30
0.0
 11
146.2434394251
 21
96.2543427718
 31
0.0
  0
ARC
  5
84
330
1F
100
AcDbEntity
  8
0
  6
Continuous
 62
     7
370
    15
100
AcDbCircle
 10
168.2934394251
 20
99.1293427718
 30
0.0
 40
2.999999999999986
100
AcDbArc
 50
90.0
 51
180.0
  0
ARC
  5
85
330
1F
100
AcDbEntity
  8
0
  6
Continuous
 62
     7
370
    15
100
AcDbCircle
 10
168.2934394251
 20
125.1293427718
 30
0.0
 40
3.0
100
AcDbArc
 50
180.0
 51
270.0
  0
LINE
  5
86
330
1F
100
AcDbEntity
  8
0
  6
Continuous
 62
     7
370
    15
100
AcDbLine
 10
185.1434394251
 20
102.1293427718
 30
0.0
 11
185.3434394251
 21
102.3293427718
 31
0.0
  0
LINE
  5
87
330
1F
100
AcDbEntity
  8
0
  6
Continuous
 62
     7
370
    15
100
AcDbLine
 10
185.3434394251
 20
121.9293427718
 30
0.0
 11
185.1434394251
 21
122.1293427718
 31
0.0
  0
LINE
  5
88
330
1F
100
AcDbEntity
  8
0
  6
Continuous
 62
     7
370
    15
100
AcDbLine
 10
168.2934394251
 20
102.1293427718
 30
0.0
 11
185.1434394251
 21
102.1293427718
 31
0.0
  0
LINE
  5
89
330
1F
100
AcDbEntity
  8
0
  6
Continuous
 62
     7
370
    15
100
AcDbLine
 10
185.1434394251
 20
122.1293427718
 30
0.0
 11
168.2934394251
 21
122.1293427718
 31
0.0
  0
ARC
  5
8A
330
1F
100
AcDbEntity
  8
0
  6
Continuous
 62
     7
370
    15
100
AcDbCircle
 10
99.5934394251
 20
104.0680455081
 30
0.0
 40
1.0
100
AcDbArc
 50
180.0
 51
261.7028550302
  0
ARC
  5
8B
330
1F
100
AcDbEntity
  8
0
  6
Continuous
 62
     7
370
    15
100
AcDbCircle
 10
99.5934394251
 20
120.1906400355
 30
0.0
 40
1.000000000000008
100
AcDbArc
 50
98.2971449698
 51
180.0
  0
SPLINE
  5
8C
330
1F
100
AcDbEntity
  8
0
  6
Continuous
 62
     7
370
    15
100
AcDbSpline
210
0.0
220
0.0
230
1.0
 70
    24
 71
     3
 72
    11
 73
     7
 74
     0
 42
0.000000001
 43
0.00000001
 40
0.0
 40
0.0
 40
0.0
 40
0.0
 40
0.128556176630685
 40
0.480153579784305
 40
0.8150691831755036
 40
1.0
 40
1.0
 40
1.0
 40
1.0
 10
179.2564843691555
 20
113.5198819183151
 30
0.0
 10
179.3127746627338
 20
113.5053773480411
 30
0.0
 10
179.5230172716626
 20
113.451203200032
 30
0.0
 10
179.9172692513204
 20
113.3496145391621
 30
0.0
 10
180.3441609821366
 20
113.2396154484594
 30
0.0
 10
180.5728500038574
 20
113.1806881312335
 30
0.0
 10
180.6542041229606
 20
113.1597252535756
 30
0.0
  0
SPLINE
  5
8D
330
1F
100
AcDbEntity
  8
0
  6
Continuous
 62
     7
370
    15
100
AcDbSpline
210
0.0
220
0.0
230
1.0
 70
    24
 71
     3
 72
    10
 73
     6
 74
     0
 42
0.000000001
 43
0.00000001
 40
0.0
 40
0.0
 40
0.0
 40
0.0
 40
0.4391119879276932
 40
0.7513633230734765
 40
1.0
 40
1.0
 40
1.0
 40
1.0
 10
178.2457196712463
 20
112.4894994365183
 30
0.0
 10
178.3904168008107
 20
112.6370049714642
 30
0.0
 10
178.6380076639567
 20
112.8894012893869
 30
0.0
 10
178.9979270840199
 20
113.2563063327256
 30
0.0
 10
179.1770713196897
 20
113.4389275526107
 30
0.0
 10
179.2564843691555
 20
113.5198819183151
 30
0.0
  0
SPLINE
  5
8E
330
1F
100
AcDbEntity
  8
0
  6
Continuous
 62
     7
370
    15
100
AcDbSpline
210
0.0
220
0.0
230
1.0
 70
    24
 71
     3
 72
    10
 73
     6
 74
     0
 42
0.000000001
 43
0.00000001
 40
0.0
 40
0.0
 40
0.0
 40
0.0
 40
0.4391119879276889
 40
0.751363323073471
 40
1.0
 40
1.0
 40
1.0
 40
1.0
 10
178.6326747271421
 20
111.0989602899819
 30
0.0
 10
178.5772797514624
 20
111.2980244475124
 30
0.0
 10
178.4824935598926
 20
111.6386425837031
 30
0.0
 10
178.3447041816163
 20
112.1337944664626
 30
0.0
 10
178.2761216837606
 20
112.3802485354367
 30
0.0
 10
178.2457196712463
 20
112.4894994365183
 30
0.0
  0
SPLINE
  5
8F
330
1F
100
AcDbEntity
  8
0
  6
Continuous
 62
     7
370
    15
100
AcDbSpline
210
0.0
220
0.0
230
1.0
 70
    24
 71
     3
 72
    11
 73
     7
 74
     0
 42
0.000000001
 43
0.00000001
 40
0.0
 40
0.0
 40
0.0
 40
0.0
 40
0.1849308168245417
 40
0.51984642021572
 40
0.8714438233693453
 40
1.0
 40
1.0
 40
1.0
 40
1.0
 10
180.0303944809472
 20
110.7388036252424
 30
0.0
 10
179.9490403618439
 20
110.7597665029003
 30
0.0
 10
179.7203513401232
 20
110.8186938201263
 30
0.0
 10
179.293459609307
 20
110.9286929108289
 30
0.0
 10
178.8992076296492
 20
111.0302815716989
 30
0.0
 10
178.6889650207204
 20
111.084455719708
 30
0.0
 10
178.6326747271421
 20
111.0989602899819
 30
0.0
  0
SPLINE
  5
90
330
1F
100
AcDbEntity
  8
0
  6
Continuous
 62
     7
370
    15
100
AcDbSpline
210
0.0
220
0.0
230
1.0
 70
    24
 71
     3
 72
    10
 73
     6
 74
     0
 42
0.000000001
 43
0.00000001
 40
0.0
 40
0.0
 40
0.0
 40
0.0
 40
0.4391119879276811
 40
0.7513633230734782
 40
1.0
 40
1.0
 40
1.0
 40
1.0
 10
181.0411591788564
 20
111.7691861070393
 30
0.0
 10
180.896462049292
 20
111.6216805720934
 30
0.0
 10
180.6488711861461
 20
111.3692842541706
 30
0.0
 10
180.2889517660827
 20
111.002379210832
 30
0.0
 10
180.109807530413
 20
110.8197579909468
 30
0.0
 10
180.0303944809472
 20
110.7388036252424
 30
0.0
  0
SPLINE
  5
91
330
1F
100
AcDbEntity
  8
0
  6
Continuous
 62
     7
370
    15
100
AcDbSpline
210
0.0
220
0.0
230
1.0
 70
    24
 71
     3
 72
    10
 73
     6
 74
     0
 42
0.000000001
 43
0.00000001
 40
0.0
 40
0.0
 40
0.0
 40
0.0
 40
0.4391119879276957
 40
0.7513633230734669
 40
0.9999999999999999
 40
0.9999999999999999
 40
0.9999999999999999
 40
0.9999999999999999
 10
180.6542041229606
 20
113.1597252535756
 30
0.0
 10
180.7095990986403
 20
112.9606610960451
 30
0.0
 10
180.8043852902101
 20
112.6200429598544
 30
0.0
 10
180.9421746684864
 20
112.1248910770949
 30
0.0
 10
181.0107571663421
 20
111.8784370081208
 30
0.0
 10
181.0411591788564
 20
111.7691861070393
 30
0.0
  0
CIRCLE
  5
92
330
1F
100
AcDbEntity
  8
0
  6
Continuous
 62
     7
370
    15
100
AcDbCircle
 10
179.6434394251
 20
112.1293427718
 30
0.0
 40
1.500000000000004
  0
CIRCLE
  5
93
330
1F
100
AcDbEntity
  8
0
  6
Continuous
 62
     7
370
    15
100
AcDbCircle
 10
179.6434394251
 20
112.1293427718
 30
0.0
 40
2.20000000000002
  0
CIRCLE
  5
94
330
1F
100
AcDbEntity
  8
0
  6
Continuous
 62
     7
370
    15
100
AcDbCircle
 10
179.6434394251
 20
112.1293427718
 30
0.0
 40
2.50000000000001
  0
ARC
  5
95
330
1F
100
AcDbEntity
  8
0
  6
Continuous
 62
     7
370
    15
100
AcDbCircle
 10
179.6434394251
 20
112.1293427718
 30
0.0
 40
1.250000000000009
100
AcDbArc
 50
195.5506617177
 51
255.5506617177
  0
ARC
  5
96
330
1F
100
AcDbEntity
  8
0
  6
Continuous
 62
     7
370
    15
100
AcDbCircle
 10
179.6434394251
 20
112.1293427718
 30
0.0
 40
1.250000000000009
100
AcDbArc
 50
135.5506617177
 51
195.5506617177
  0
ARC
  5
97
330
1F
100
AcDbEntity
  8
0
  6
Continuous
 62
     7
370
    15
100
AcDbCircle
 10
179.6434394251
 20
112.1293427718
 30
0.0
 40
1.250000000000005
100
AcDbArc
 50
75.5506617177
 51
135.5506617177
  0
ARC
  5
98
330
1F
100
AcDbEntity
  8
0
  6
Continuous
 62
     7
370
    15
100
AcDbCircle
 10
179.6434394251
 20
112.1293427718
 30
0.0
 40
1.250000000000001
100
AcDbArc
 50
15.5506617177
 51
75.5506617177
  0
ARC
  5
99
330
1F
100
AcDbEntity
  8
0
  6
Continuous
 62
     7
370
    15
100
AcDbCircle
 10
179.6434394251
 20
112.1293427718
 30
0.0
 40
1.250000000000006
100
AcDbArc
 50
255.5506617177
 51
315.5506617177
  0
ARC
  5
9A
330
1F
100
AcDbEntity
  8
0
  6
Continuous
 62
     7
370
    15
100
AcDbCircle
 10
179.6434394251
 20
112.1293427718
 30
0.0
 40
1.250000000000006
100
AcDbArc
 50
315.5506617177
 51
15.5506617177
  0
SPLINE
  5
9B
330
1F
100
AcDbEntity
  8
0
  6
Continuous
 62
     7
370
    15
100
AcDbSpline
210
0.0
220
0.0
230
1.0
 70
     8
 71
     3
 72
    12
 73
     8
 74
     0
 42
0.000000001
 43
0.00000001
 40
0.0
 40
0.0
 40
0.0
 40
0.0
 40
0.2500000000000021
 40
0.2500000000000021
 40
0.5000000000000042
 40
0.5000000000000042
 40
1.0
 40
1.0
 40
1.0
 40
1.0
 10
164.6934394250513
 20
88.82160771461622
 30
0.0
 10
164.7886534628332
 20
88.82160771461623
 30
0.0
 10
164.8805788617182
 20
88.8356147683092
 30
0.0
 10
165.036819679981
 20
88.88200814924211
 30
0.0
 10
165.1006258496701
 20
88.91359679093897
 30
0.0
 10
165.2499520707217
 20
89.01987765475134
 30
0.0
 10
165.2934394250513
 20
89.10281848372263
 30
0.0
 10
165.2934394250513
 20
89.18618210959556
 30
0.0
  0
SPLINE
  5
9C
330
1F
100
AcDbEntity
  8
0
  6
Continuous
 62
     7
370
    15
100
AcDbSpline
210
0.0
220
0.0
230
1.0
 70
    24
 71
     3
 72
    14
 73
    10
 74
     0
 42
0.000000001
 43
0.00000001
 40
0.0
 40
0.0
 40
0.0
 40
0.0
 40
0.25
 40
0.25
 40
0.5
 40
0.5
 40
0.75
 40
0.75
 40
1.0
 40
1.0
 40
1.0
 40
1.0
 10
165.2934394250513
 20
126.9793427717788
 30
0.0
 10
165.2934394250513
 20
126.9793427717788
 30
0.0
 10
165.2811328471745
 20
126.9793427717788
 30
0.0
 10
165.2311650028008
 20
126.9793427717788
 30
0.0
 10
165.1929621382287
 20
126.9793427717788
 30
0.0
 10
165.0900740707602
 20
126.9793427717788
 30
0.0
 10
165.0250462289952
 20
126.9793427717788
 30
0.0
 10
164.8697828850753
 20
126.9793427717788
 30
0.0
 10
164.7820958976064
 20
126.9793427717788
 30
0.0
 10
164.6934394250513
 20
126.9793427717788
 30
0.0
  0
LINE
  5
9D
330
1F
100
AcDbEntity
  8
0
  6
Continuous
 62
     7
370
    15
100
AcDbLine
 10
165.2934394251
 20
89.1861821096
 30
0.0
 11
165.2934394251
 21
126.9793427718
 31
0.0
  0
LINE
  5
9E
330
1F
100
AcDbEntity
  8
0
  6
Continuous
 62
     7
370
    15
100
AcDbLine
 10
160.7065047431
 20
88.8216077146
 30
0.0
 11
164.6934394251
 21
88.8216077146
 31
0.0
  0
LINE
  5
9F
330
1F
100
AcDbEntity
  8
0
  6
Continuous
 62
     7
370
    15
100
AcDbLine
 10
160.7065047431
 20
88.8216077146
 30
0.0
 11
160.7065047431
 21
126.9793427718
 31
0.0
  0
LINE
  5
A0
330
1F
100
AcDbEntity
  8
0
  6
Continuous
 62
     7
370
    15
100
AcDbLine
 10
164.6934394251
 20
126.9793427718
 30
0.0
 11
160.7065047431
 21
126.9793427718
 31
0.0
  0
SPLINE
  5
A1
330
1F
100
AcDbEntity
  8
0
  6
Continuous
 62
     7
370
    15
100
AcDbSpline
210
0.0
220
0.0
230
1.0
 70
     8
 71
     3
 72
     8
 73
     4
 74
     0
 42
0.000000001
 43
0.00000001
 40
0.0
 40
0.0
 40
0.0
 40
0.0
 40
0.0011140524372172
 40
0.0011140524372172
 40
0.0011140524372172
 40
0.0011140524372172
 10
160.276573972469
 20
89.27531068600389
 30
0.0
 10
160.4181831413946
 20
89.12376440996569
 30
0.0
 10
160.5615541861811
 20
88.97253708468239
 30
0.0
 10
160.7065047430809
 20
88.82160771461622
 30
0.0
  0
SPLINE
  5
A2
330
1F
100
AcDbEntity
  8
0
  6
Continuous
 62
     7
370
    15
100
AcDbSpline
210
0.0
220
0.0
230
1.0
 70
     8
 71
     3
 72
     8
 73
     4
 74
     0
 42
0.000000001
 43
0.00000001
 40
0.0
 40
0.0
 40
0.0
 40
0.0
 40
1.0
 40
1.0
 40
1.0
 40
1.0
 10
160.276573972469
 20
89.27531068600389
 30
0.0
 10
159.9342262503934
 20
89.90398354369547
 30
0.0
 10
159.5930563248074
 20
90.53333841724928
 30
0.0
 10
159.2534394250513
 20
91.16344158136755
 30
0.0
  0
LINE
  5
A3
330
1F
100
AcDbEntity
  8
0
  6
Continuous
 62
     7
370
    15
100
AcDbLine
 10
159.2534394251
 20
91.1634415814
 30
0.0
 11
159.2534394251
 21
126.9793427718
 31
0.0
  0
SPLINE
  5
A4
330
1F
100
AcDbEntity
  8
0
  6
Continuous
 62
     7
370
    15
100
AcDbSpline
210
0.0
220
0.0
230
1.0
 70
    24
 71
     3
 72
     8
 73
     4
 74
     0
 42
0.000000001
 43
0.00000001
 40
0.0
 40
0.0
 40
0.0
 40
0.0
 40
1.0
 40
1.0
 40
1.0
 40
1.0
 10
160.7065047430809
 20
126.9793427717788
 30
0.0
 10
160.2091491974842
 20
126.9793427717788
 30
0.0
 10
159.7230672594654
 20
126.9793427717788
 30
0.0
 10
159.2534394250513
 20
126.9793427717788
 30
0.0
  0
LINE
  5
A5
330
1F
100
AcDbEntity
  8
0
  6
Continuous
 62
     7
370
    15
100
AcDbLine
 10
150.0434394251
 20
88.8216077146
 30
0.0
 11
153.980374107
 21
88.8216077146
 31
0.0
  0
LINE
  5
A6
330
1F
100
AcDbEntity
  8
0
  6
Continuous
 62
     7
370
    15
100
AcDbLine
 10
153.980374107
 20
126.9793427718
 30
0.0
 11
150.0434394251
 21
126.9793427718
 31
0.0
  0
LINE
  5
A7
330
1F
100
AcDbEntity
  8
0
  6
Continuous
 62
     7
370
    15
100
AcDbLine
 10
153.980374107
 20
88.8216077146
 30
0.0
 11
153.980374107
 21
126.9793427718
 31
0.0
  0
SPLINE
  5
A8
330
1F
100
AcDbEntity
  8
0
  6
Continuous
 62
     7
370
    15
100
AcDbSpline
210
0.0
220
0.0
230
1.0
 70
     8
 71
     3
 72
    10
 73
     6
 74
     0
 42
0.000000001
 43
0.00000001
 40
0.0
 40
0.0
 40
0.0
 40
0.0
 40
0.5
 40
0.5
 40
1.0
 40
1.0
 40
1.0
 40
1.0
 10
149.6755622849564
 20
88.89752534438922
 30
0.0
 10
149.7236351193524
 20
88.87499740188683
 30
0.0
 10
149.7793249933565
 20
88.85600411120008
 30
0.0
 10
149.9046016287201
 20
88.82912383203315
 30
0.0
 10
149.9730473162183
 20
88.82160771461622
 30
0.0
 10
150.0434394250513
 20
88.82160771461623
 30
0.0
  0
SPLINE
  5
A9
330
1F
100
AcDbEntity
  8
0
  6
Continuous
 62
     7
370
    15
100
AcDbSpline
210
0.0
220
0.0
230
1.0
 70
     8
 71
     3
 72
    10
 73
     6
 74
     0
 42
0.000000001
 43
0.00000001
 40
0.0
 40
0.0
 40
0.0
 40
0.0
 40
0.5
 40
0.5
 40
1.0
 40
1.0
 40
1.0
 40
1.0
 10
149.6755622849564
 20
88.89752534438922
 30
0.0
 10
149.6131032096546
 20
88.97308305881411
 30
0.0
 10
149.5573740569064
 20
89.06165157543748
 30
0.0
 10
149.4726986745169
 20
89.26376900427552
 30
0.0
 10
149.4434394250513
 20
89.37768283231173
 30
0.0
 10
149.4434394250513
 20
89.496664516654
 30
0.0
  0
LINE
  5
AA
330
1F
100
AcDbEntity
  8
0
  6
Continuous
 62
     7
370
    15
100
AcDbLine
 10
149.4434394251
 20
89.4966645167
 30
0.0
 11
149.4434394251
 21
126.9793427718
 31
0.0
  0
SPLINE
  5
AB
330
1F
100
AcDbEntity
  8
0
  6
Continuous
 62
     7
370
    15
100
AcDbSpline
210
0.0
220
0.0
230
1.0
 70
    24
 71
     3
 72
    14
 73
    10
 74
     0
 42
0.000000001
 43
0.00000001
 40
0.0
 40
0.0
 40
0.0
 40
0.0
 40
0.25
 40
0.25
 40
0.5
 40
0.5
 40
0.75
 40
0.75
 40
1.0
 40
1.0
 40
1.0
 40
1.0
 10
150.0434394250513
 20
126.9793427717788
 30
0.0
 10
149.9549342736815
 20
126.9793427717788
 30
0.0
 10
149.8659937226888
 20
126.9793427717788
 30
0.0
 10
149.7127670916504
 20
126.9793427717788
 30
0.0
 10
149.6472827673242
 20
126.9793427717788
 30
0.0
 10
149.5439941906592
 20
126.9793427717788
 30
0.0
 10
149.5060696771416
 20
126.9793427717788
 30
0.0
 10
149.4555491433306
 20
126.9793427717788
 30
0.0
 10
149.4434394250513
 20
126.9793427717788
 30
0.0
 10
149.4434394250513
 20
126.9793427717788
 30
0.0
  0
SPLINE
  5
AC
330
1F
100
AcDbEntity
  8
0
  6
Continuous
 62
     7
370
    15
100
AcDbSpline
210
0.0
220
0.0
230
1.0
 70
     8
 71
     3
 72
     8
 73
     4
 74
     0
 42
0.000000001
 43
0.00000001
 40
0.0
 40
0.0
 40
0.0
 40
0.0
 40
1.0
 40
1.0
 40
1.0
 40
1.0
 10
155.4334394250513
 20
91.16344158136755
 30
0.0
 10
155.0938039098942
 20
90.53330387944182
 30
0.0
 10
154.7526471986669
 20
89.90397362545008
 30
0.0
 10
154.4103048776336
 20
89.27531068600389
 30
0.0
  0
SPLINE
  5
AD
330
1F
100
AcDbEntity
  8
0
  6
Continuous
 62
     7
370
    15
100
AcDbSpline
210
0.0
220
0.0
230
1.0
 70
     8
 71
     3
 72
     8
 73
     4
 74
     0
 42
0.000000001
 43
0.00000001
 40
0.0
 40
0.0
 40
0.0
 40
0.0
 40
0.0011140524372172
 40
0.0011140524372172
 40
0.0011140524372172
 40
0.0011140524372172
 10
153.9803741070218
 20
88.82160771461623
 30
0.0
 10
154.1253246639216
 20
88.9725370846824
 30
0.0
 10
154.268695708708
 20
89.12376440996569
 30
0.0
 10
154.4103048776336
 20
89.27531068600389
 30
0.0
  0
SPLINE
  5
AE
330
1F
100
AcDbEntity
  8
0
  6
Continuous
 62
     7
370
    15
100
AcDbSpline
210
0.0
220
0.0
230
1.0
 70
    24
 71
     3
 72
     8
 73
     4
 74
     0
 42
0.000000001
 43
0.00000001
 40
0.0
 40
0.0
 40
0.0
 40
0.0
 40
1.0
 40
1.0
 40
1.0
 40
1.0
 10
155.4334394250513
 20
126.9793427717788
 30
0.0
 10
154.9638115906372
 20
126.9793427717788
 30
0.0
 10
154.4777296526185
 20
126.9793427717788
 30
0.0
 10
153.9803741070218
 20
126.9793427717788
 30
0.0
  0
LINE
  5
AF
330
1F
100
AcDbEntity
  8
0
  6
Continuous
 62
     7
370
    15
100
AcDbLine
 10
155.4334394251
 20
91.1634415814
 30
0.0
 11
155.4334394251
 21
126.9793427718
 31
0.0
  0
SPLINE
  5
B0
330
1F
100
AcDbEntity
  8
0
  6
Continuous
 62
     7
370
    15
100
AcDbSpline
210
0.0
220
0.0
230
1.0
 70
     8
 71
     3
 72
    10
 73
     6
 74
     0
 42
0.000000001
 43
0.00000001
 40
0.0
 40
0.0
 40
0.0
 40
0.0
 40
0.5
 40
0.5
 40
1.0
 40
1.0
 40
1.0
 40
1.0
 10
159.2534394250513
 20
91.16344158136756
 30
0.0
 10
159.2185579766127
 20
91.29256159762997
 30
0.0
 10
159.1458533498452
 20
91.40910934067549
 30
0.0
 10
158.942391828906
 20
91.57799246459491
 30
0.0
 10
158.8105680665882
 20
91.62816902489298
 30
0.0
 10
158.6770858486132
 20
91.62816902489298
 30
0.0
  0
SPLINE
  5
B1
330
1F
100
AcDbEntity
  8
0
  6
Continuous
 62
     7
370
    15
100
AcDbSpline
210
0.0
220
0.0
230
1.0
 70
    24
 71
     3
 72
    14
 73
    10
 74
     0
 42
0.000000001
 43
0.00000001
 40
0.0
 40
0.0
 40
0.0
 40
0.0
 40
0.25
 40
0.25
 40
0.5
 40
0.5
 40
0.75
 40
0.75
 40
1.0
 40
1.0
 40
1.0
 40
1.0
 10
159.2534394250514
 20
126.9793427717788
 30
0.0
 10
159.2378987858956
 20
126.9793427717788
 30
0.0
 10
159.2149726244056
 20
126.9793427717788
 30
0.0
 10
159.1519046467705
 20
126.9793427717788
 30
0.0
 10
159.1118781441004
 20
126.9793427717788
 30
0.0
 10
159.0143938274252
 20
126.9793427717788
 30
0.0
 10
158.9564588054582
 20
126.9793427717788
 30
0.0
 10
158.8247093809961
 20
126.9793427717788
 30
0.0
 10
158.751564786497
 20
126.9793427717788
 30
0.0
 10
158.6770858486132
 20
126.9793427717788
 30
0.0
  0
SPLINE
  5
B2
330
1F
100
AcDbEntity
  8
0
  6
Continuous
 62
     7
370
    15
100
AcDbSpline
210
0.0
220
0.0
230
1.0
 70
     8
 71
     3
 72
    12
 73
     8
 74
     0
 42
0.000000001
 43
0.00000001
 40
0.0
 40
0.0
 40
0.0
 40
0.0
 40
0.25
 40
0.25
 40
0.5
 40
0.5
 40
1.0
 40
1.0
 40
1.0
 40
1.0
 10
156.0097930014895
 20
91.62816902489298
 30
0.0
 10
155.9437962415741
 20
91.62816902489298
 30
0.0
 10
155.8771354296218
 20
91.61625290589413
 30
0.0
 10
155.7515300181551
 20
91.56976767889539
 30
0.0
 10
155.6946040796169
 20
91.53650827652164
 30
0.0
 10
155.5403316236825
 20
91.40869017719477
 30
0.0
 10
155.4681320347869
 20
91.29186257687539
 30
0.0
 10
155.4334394250513
 20
91.16344158136755
 30
0.0
  0
SPLINE
  5
B3
330
1F
100
AcDbEntity
  8
0
  6
Continuous
 62
     7
370
    15
100
AcDbSpline
210
0.0
220
0.0
230
1.0
 70
    24
 71
     3
 72
    12
 73
     8
 74
     0
 42
0.000000001
 43
0.00000001
 40
0.0
 40
0.0
 40
0.0
 40
0.0
 40
0.2500000000000012
 40
0.2500000000000012
 40
0.5000000000000024
 40
0.5000000000000024
 40
1.0
 40
1.0
 40
1.0
 40
1.0
 10
156.0097930014895
 20
126.9793427717788
 30
0.0
 10
155.9352969948779
 20
126.9793427717788
 30
0.0
 10
155.8619511294519
 20
126.9793427717788
 30
0.0
 10
155.7315578940094
 20
126.9793427717788
 30
0.0
 10
155.6732407785671
 20
126.9793427717788
 30
0.0
 10
155.5268880507196
 20
126.9793427717788
 30
0.0
 10
155.4646608785527
 20
126.9793427717788
 30
0.0
 10
155.4334394250513
 20
126.9793427717788
 30
0.0
  0
LINE
  5
B4
330
1F
100
AcDbEntity
  8
0
  6
Continuous
 62
     7
370
    15
100
AcDbLine
 10
158.6770858486
 20
91.6281690249
 30
0.0
 11
156.0097930015
 21
91.6281690249
 31
0.0
  0
LINE
  5
B5
330
1F
100
AcDbEntity
  8
0
  6
Continuous
 62
     7
370
    15
100
AcDbLine
 10
158.6770858486
 20
126.9793427718
 30
0.0
 11
156.0097930015
 21
126.9793427718
 31
0.0
  0
LINE
  5
B6
330
1F
100
AcDbEntity
  8
0
  6
Continuous
 62
     7
370
    15
100
AcDbLine
 10
146.2434394251
 20
96.2543427718
 30
0.0
 11
146.2434394251
 21
128.0043427718
 31
0.0
  0
SPLINE
  5
B7
330
1F
100
AcDbEntity
  8
0
  6
Continuous
 62
     7
370
    15
100
AcDbSpline
210
0.0
220
0.0
230
1.0
 70
     8
 71
     3
 72
    10
 73
     6
 74
     0
 42
0.000000001
 43
0.00000001
 40
0.0
 40
0.0
 40
0.0
 40
0.0
 40
0.5
 40
0.5
 40
1.0
 40
1.0
 40
1.0
 40
1.0
 10
156.0097930014895
 20
132.6305165186646
 30
0.0
 10
155.8775318087727
 20
132.6305165186646
 30
0.0
 10
155.7456928768957
 20
132.679936525611
 30
0.0
 10
155.5411414274177
 20
132.8492371859143
 30
0.0
 10
155.467976874789
 20
132.9673973195933
 30
0.0
 10
155.4334394250513
 20
133.0952439621902
 30
0.0
  0
SPLINE
  5
B8
330
1F
100
AcDbEntity
  8
0
  6
Continuous
 62
     7
370
    15
100
AcDbSpline
210
0.0
220
0.0
230
1.0
 70
     8
 71
     3
 72
    12
 73
     8
 74
     0
 42
0.000000001
 43
0.00000001
 40
0.0
 40
0.0
 40
0.0
 40
0.0
 40
0.4999999999999956
 40
0.4999999999999956
 40
0.7499999999999978
 40
0.7499999999999978
 40
1.0
 40
1.0
 40
1.0
 40
1.0
 10
155.4334394250512
 20
128.9771619993847
 30
0.0
 10
155.4644304509135
 20
128.8344025531445
 30
0.0
 10
155.5263032237453
 20
128.6951934859944
 30
0.0
 10
155.673465950487
 20
128.5290734004057
 30
0.0
 10
155.7314265854218
 20
128.4815920620701
 30
0.0
 10
155.8626844564175
 20
128.4142955691608
 30
0.0
 10
155.9363704145045
 20
128.3952004190105
 30
0.0
 10
156.0097930014895
 20
128.3952004190105
 30
0.0
  0
LINE
  5
B9
330
1F
100
AcDbEntity
  8
0
  6
Continuous
 62
     7
370
    15
100
AcDbLine
 10
155.4334394251
 20
128.9771619994
 30
0.0
 11
155.4334394251
 21
133.0952439622
 31
0.0
  0
SPLINE
  5
BA
330
1F
100
AcDbEntity
  8
0
  6
Continuous
 62
     7
370
    15
100
AcDbSpline
210
0.0
220
0.0
230
1.0
 70
     8
 71
     3
 72
     8
 73
     4
 74
     0
 42
0.000000001
 43
0.00000001
 40
0.0
 40
0.0
 40
0.0
 40
0.0
 40
0.0011754745544621
 40
0.0011754745544621
 40
0.0011754745544621
 40
0.0011754745544621
 10
154.5256630901233
 20
134.7714265420391
 30
0.0
 10
154.344505495067
 20
135.0170977043644
 30
0.0
 10
154.1627180450816
 20
135.2625370400399
 30
0.0
 10
153.9803741070218
 20
135.507768973621
 30
0.0
  0
SPLINE
  5
BB
330
1F
100
AcDbEntity
  8
0
  6
Continuous
 62
     7
370
    15
100
AcDbSpline
210
0.0
220
0.0
230
1.0
 70
     8
 71
     3
 72
     8
 73
     4
 74
     0
 42
0.000000001
 43
0.00000001
 40
0.0
 40
0.0
 40
0.0
 40
0.0
 40
1.0
 40
1.0
 40
1.0
 40
1.0
 10
155.4334394250512
 20
133.0952439621903
 30
0.0
 10
155.131973542251
 20
133.6545642043883
 30
0.0
 10
154.8293055859406
 20
134.2132518152124
 30
0.0
 10
154.5256630901233
 20
134.7714265420391
 30
0.0
  0
SPLINE
  5
BC
330
1F
100
AcDbEntity
  8
0
  6
Continuous
 62
     7
370
    15
100
AcDbSpline
210
0.0
220
0.0
230
1.0
 70
     8
 71
     3
 72
     8
 73
     4
 74
     0
 42
0.000000001
 43
0.00000001
 40
0.0
 40
0.0
 40
0.0
 40
0.0
 40
1.0
 40
1.0
 40
1.0
 40
1.0
 10
153.9803741070218
 20
132.2098837256475
 30
0.0
 10
154.4782785163134
 20
131.1372864529313
 30
0.0
 10
154.9643846759477
 20
130.0601303021082
 30
0.0
 10
155.4334394250513
 20
128.9771619993847
 30
0.0
  0
LINE
  5
BD
330
1F
100
AcDbEntity
  8
0
  6
Continuous
 62
     7
370
    15
100
AcDbLine
 10
153.980374107
 20
132.2098837256
 30
0.0
 11
153.980374107
 21
135.5077689736
 31
0.0
  0
SPLINE
  5
BE
330
1F
100
AcDbEntity
  8
0
  6
Continuous
 62
     7
370
    15
100
AcDbSpline
210
0.0
220
0.0
230
1.0
 70
     8
 71
     3
 72
     8
 73
     4
 74
     0
 42
0.000000001
 43
0.00000001
 40
0.0
 40
0.0
 40
0.0
 40
0.0
 40
1.0
 40
1.0
 40
1.0
 40
1.0
 10
160.1612157599763
 20
134.7714265420335
 30
0.0
 10
159.85757326416
 20
134.2132518152086
 30
0.0
 10
159.5549053078505
 20
133.6545642043862
 30
0.0
 10
159.2534394250513
 20
133.0952439621901
 30
0.0
  0
SPLINE
  5
BF
330
1F
100
AcDbEntity
  8
0
  6
Continuous
 62
     7
370
    15
100
AcDbSpline
210
0.0
220
0.0
230
1.0
 70
     8
 71
     3
 72
     8
 73
     4
 74
     0
 42
0.000000001
 43
0.00000001
 40
0.0
 40
0.0
 40
0.0
 40
0.0
 40
0.001175474554467
 40
0.001175474554467
 40
0.001175474554467
 40
0.001175474554467
 10
160.7065047430809
 20
135.507768973621
 30
0.0
 10
160.5241608050201
 20
135.2625370400385
 30
0.0
 10
160.3423733550337
 20
135.0170977043617
 30
0.0
 10
160.1612157599764
 20
134.7714265420351
 30
0.0
  0
LINE
  5
C0
330
1F
100
AcDbEntity
  8
0
  6
Continuous
 62
     7
370
    15
100
AcDbLine
 10
160.7065047431
 20
132.2098837256
 30
0.0
 11
160.7065047431
 21
135.5077689736
 31
0.0
  0
SPLINE
  5
C1
330
1F
100
AcDbEntity
  8
0
  6
Continuous
 62
     7
370
    15
100
AcDbSpline
210
0.0
220
0.0
230
1.0
 70
     8
 71
     3
 72
     8
 73
     4
 74
     0
 42
0.000000001
 43
0.00000001
 40
0.0
 40
0.0
 40
0.0
 40
0.0
 40
1.0
 40
1.0
 40
1.0
 40
1.0
 10
159.2534394250513
 20
128.9771619993847
 30
0.0
 10
159.722494174155
 20
130.0601303021082
 30
0.0
 10
160.2086003337893
 20
131.1372864529314
 30
0.0
 10
160.7065047430809
 20
132.2098837256476
 30
0.0
  0
LINE
  5
C2
330
1F
100
AcDbEntity
  8
0
  6
Continuous
 62
     7
370
    15
100
AcDbLine
 10
159.2534394251
 20
128.9771619994
 30
0.0
 11
159.2534394251
 21
133.0952439622
 31
0.0
  0
LINE
  5
C3
330
1F
100
AcDbEntity
  8
0
  6
Continuous
 62
     7
370
    15
100
AcDbLine
 10
164.6934394251
 20
135.5077689736
 30
0.0
 11
160.7065047431
 21
135.5077689736
 31
0.0
  0
LINE
  5
C4
330
1F
100
AcDbEntity
  8
0
  6
Continuous
 62
     7
370
    15
100
AcDbLine
 10
160.7065047431
 20
132.2098837256
 30
0.0
 11
164.6934394251
 21
132.2098837256
 31
0.0
  0
SPLINE
  5
C5
330
1F
100
AcDbEntity
  8
0
  6
Continuous
 62
     7
370
    15
100
AcDbSpline
210
0.0
220
0.0
230
1.0
 70
     8
 71
     3
 72
    12
 73
     8
 74
     0
 42
0.000000001
 43
0.00000001
 40
0.0
 40
0.0
 40
0.0
 40
0.0
 40
0.5000000000000048
 40
0.5000000000000048
 40
0.7500000000000023
 40
0.7500000000000023
 40
1.0
 40
1.0
 40
1.0
 40
1.0
 10
165.2934394250513
 20
135.0407003857191
 30
0.0
 10
165.2934394250513
 20
135.158468496241
 30
0.0
 10
165.2369193631527
 20
135.2739574521853
 30
0.0
 10
165.0738143883789
 20
135.4073112219426
 30
0.0
 10
165.0080658428236
 20
135.443569232741
 30
0.0
 10
164.8587766764639
 20
135.4941766799916
 30
0.0
 10
164.7769827494318
 20
135.507768973621
 30
0.0
 10
164.6934394250513
 20
135.507768973621
 30
0.0
  0
SPLINE
  5
C6
330
1F
100
AcDbEntity
  8
0
  6
Continuous
 62
     7
370
    15
100
AcDbSpline
210
0.0
220
0.0
230
1.0
 70
     8
 71
     3
 72
    12
 73
     8
 74
     0
 42
0.000000001
 43
0.00000001
 40
0.0
 40
0.0
 40
0.0
 40
0.0
 40
0.249999999999998
 40
0.249999999999998
 40
0.499999999999996
 40
0.499999999999996
 40
1.0
 40
1.0
 40
1.0
 40
1.0
 10
164.6934394250513
 20
132.2098837256476
 30
0.0
 10
164.7819806990953
 20
132.2098837256476
 30
0.0
 10
164.871297347553
 20
132.1840127626929
 30
0.0
 10
165.023892427523
 20
132.0951538798809
 30
0.0
 10
165.0895025293141
 20
132.0322724542599
 30
0.0
 10
165.2449620823631
 20
131.8143972743692
 30
0.0
 10
165.2934394250513
 20
131.6354587412902
 30
0.0
 10
165.2934394250513
 20
131.4585467129658
 30
0.0
  0
LINE
  5
C7
330
1F
100
AcDbEntity
  8
0
  6
Continuous
 62
     7
370
    15
100
AcDbLine
 10
165.2934394251
 20
131.458546713
 30
0.0
 11
165.2934394251
 21
135.0407003857
 31
0.0
  0
SPLINE
  5
C8
330
1F
100
AcDbEntity
  8
0
  6
Continuous
 62
     7
370
    15
100
AcDbSpline
210
0.0
220
0.0
230
1.0
 70
     8
 71
     3
 72
    12
 73
     8
 74
     0
 42
0.000000001
 43
0.00000001
 40
0.0
 40
0.0
 40
0.0
 40
0.0
 40
0.500000000000004
 40
0.500000000000004
 40
0.750000000000002
 40
0.750000000000002
 40
1.0
 40
1.0
 40
1.0
 40
1.0
 10
149.4434394250513
 20
131.4585467129656
 30
0.0
 10
149.4434394250513
 20
131.6351428466833
 30
0.0
 10
149.4922759346528
 20
131.814673989159
 30
0.0
 10
149.6467331839078
 20
132.0314839216812
 30
0.0
 10
149.7124508363097
 20
132.0947887774478
 30
0.0
 10
149.8656213609354
 20
132.1840890218383
 30
0.0
 10
149.9544006586223
 20
132.2098837256476
 30
0.0
 10
150.0434394250513
 20
132.2098837256476
 30
0.0
  0
LINE
  5
C9
330
1F
100
AcDbEntity
  8
0
  6
Continuous
 62
     7
370
    15
100
AcDbLine
 10
150.0434394251
 20
132.2098837256
 30
0.0
 11
153.980374107
 21
132.2098837256
 31
0.0
  0
LINE
  5
CA
330
1F
100
AcDbEntity
  8
0
  6
Continuous
 62
     7
370
    15
100
AcDbLine
 10
156.0097930015
 20
128.395200419
 30
0.0
 11
158.6770858486
 21
128.395200419
 31
0.0
  0
SPLINE
  5
CB
330
1F
100
AcDbEntity
  8
0
  6
Continuous
 62
     7
370
    15
100
AcDbSpline
210
0.0
220
0.0
230
1.0
 70
     8
 71
     3
 72
    14
 73
    10
 74
     0
 42
0.000000001
 43
0.00000001
 40
0.0
 40
0.0
 40
0.0
 40
0.0
 40
0.25
 40
0.25
 40
0.5
 40
0.5
 40
0.75
 40
0.75
 40
1.0
 40
1.0
 40
1.0
 40
1.0
 10
158.6770858486135
 20
128.3952004190104
 30
0.0
 10
158.7505444386482
 20
128.3952004190105
 30
0.0
 10
158.8243936891073
 20
128.4143108107846
 30
0.0
 10
158.9562155643548
 20
128.4820709842901
 30
0.0
 10
159.0143347593383
 20
128.530004481691
 30
0.0
 10
159.1115132393002
 20
128.6399214959211
 30
0.0
 10
159.1516783056378
 20
128.7030089738964
 30
0.0
 10
159.2146779370344
 20
128.8356038196349
 30
0.0
 10
159.2377758877648
 20
128.905008275945
 30
0.0
 10
159.2534394250513
 20
128.9771619993847
 30
0.0
  0
LINE
  5
CC
330
1F
100
AcDbEntity
  8
0
  6
Continuous
 62
     7
370
    15
100
AcDbLine
 10
165.2934394251
 20
131.458546713
 30
0.0
 11
165.2934394251
 21
126.9793427718
 31
0.0
  0
LINE
  5
CD
330
1F
100
AcDbEntity
  8
0
  6
Continuous
 62
     7
370
    15
100
AcDbLine
 10
149.4434394251
 20
131.458546713
 30
0.0
 11
149.4434394251
 21
126.9793427718
 31
0.0
  0
LINE
  5
CE
330
1F
100
AcDbEntity
  8
0
  6
Continuous
 62
     7
370
    15
100
AcDbLine
 10
153.980374107
 20
135.5077689736
 30
0.0
 11
150.0434394251
 21
135.5077689736
 31
0.0
  0
LINE
  5
CF
330
1F
100
AcDbEntity
  8
0
  6
Continuous
 62
     7
370
    15
100
AcDbLine
 10
158.6770858486
 20
132.6305165187
 30
0.0
 11
156.0097930015
 21
132.6305165187
 31
0.0
  0
SPLINE
  5
D0
330
1F
100
AcDbEntity
  8
0
  6
Continuous
 62
     7
370
    15
100
AcDbSpline
210
0.0
220
0.0
230
1.0
 70
     8
 71
     3
 72
    10
 73
     6
 74
     0
 42
0.000000001
 43
0.00000001
 40
0.0
 40
0.0
 40
0.0
 40
0.0
 40
0.5
 40
0.5
 40
1.0
 40
1.0
 40
1.0
 40
1.0
 10
159.2534394250513
 20
133.0952439621901
 30
0.0
 10
159.2187192763928
 20
132.9667210263577
 30
0.0
 10
159.1462052655992
 20
132.8497207508507
 30
0.0
 10
158.9412397430289
 20
132.6798849275981
 30
0.0
 10
158.8099961442912
 20
132.6305165186646
 30
0.0
 10
158.6770858486132
 20
132.6305165186646
 30
0.0
  0
SPLINE
  5
D1
330
1F
100
AcDbEntity
  8
0
  6
Continuous
 62
     7
370
    15
100
AcDbSpline
210
0.0
220
0.0
230
1.0
 70
     8
 71
     3
 72
    10
 73
     6
 74
     0
 42
0.000000001
 43
0.00000001
 40
0.0
 40
0.0
 40
0.0
 40
0.0
 40
0.5
 40
0.5
 40
1.0
 40
1.0
 40
1.0
 40
1.0
 10
149.7616779394117
 20
135.4531880276788
 30
0.0
 10
149.6772319472315
 20
135.3736126962475
 30
0.0
 10
149.6036514278594
 20
135.2779257531009
 30
0.0
 10
149.4857933527066
 20
135.0431006539759
 30
0.0
 10
149.4434394250523
 20
134.9069113835914
 30
0.0
 10
149.4434394250513
 20
134.7620210269085
 30
0.0
  0
SPLINE
  5
D2
330
1F
100
AcDbEntity
  8
0
  6
Continuous
 62
     7
370
    15
100
AcDbSpline
210
0.0
220
0.0
230
1.0
 70
     8
 71
     3
 72
     8
 73
     4
 74
     0
 42
0.000000001
 43
0.00000001
 40
0.0
 40
0.0
 40
0.0
 40
0.0
 40
1.0
 40
1.0
 40
1.0
 40
1.0
 10
150.0434394250513
 20
135.507768973621
 30
0.0
 10
149.9441658239212
 20
135.507768973621
 30
0.0
 10
149.8473544789268
 20
135.4885934185881
 30
0.0
 10
149.7616779394116
 20
135.4531880276788
 30
0.0
  0
LINE
  5
D3
330
1F
100
AcDbEntity
  8
0
  6
Continuous
 62
     7
370
    15
100
AcDbLine
 10
149.4434394251
 20
131.458546713
 30
0.0
 11
149.4434394251
 21
134.7620210269
 31
0.0
  0
LINE
  5
D4
330
1F
100
AcDbEntity
  8
0
  6
Continuous
 62
     7
370
    15
100
AcDbLine
 10
185.3434394251
 20
102.3293427718
 30
0.0
 11
185.3434394251
 21
121.9293427718
 31
0.0
  0
LINE
  5
D5
330
1F
100
AcDbEntity
  8
0
  6
Continuous
 62
     7
370
    15
100
AcDbLine
 10
185.1434394251
 20
102.1293427718
 30
0.0
 11
185.1434394251
 21
122.1293427718
 31
0.0
  0
SPLINE
  5
D6
330
1F
100
AcDbEntity
  8
0
  6
Continuous
 62
     7
370
    15
100
AcDbSpline
210
0.0
220
0.0
230
1.0
 70
     8
 71
     3
 72
    38
 73
    34
 74
     0
 42
0.000000001
 43
0.00000001
 40
0.0
 40
0.0
 40
0.0
 40
0.0
 40
0.0625
 40
0.0625
 40
0.125
 40
0.125
 40
0.1875
 40
0.1875
 40
0.2500000000000001
 40
0.2500000000000001
 40
0.3125000000000001
 40
0.3125000000000001
 40
0.375
 40
0.375
 40
0.4375
 40
0.4375
 40
0.5
 40
0.5
 40
0.5625
 40
0.5625
 40
0.625
 40
0.625
 40
0.6875
 40
0.6875
 40
0.7499999999999999
 40
0.7499999999999999
 40
0.8124999999999999
 40
0.8124999999999999
 40
0.8749999999999999
 40
0.8749999999999999
 40
0.9374999999999999
 40
0.9374999999999999
 40
1.0
 40
1.0
 40
1.0
 40
1.0
 10
182.8934394250513
 20
112.1293427717788
 30
0.0
 10
182.8934394250514
 20
111.9297899270116
 30
0.0
 10
182.8690706692005
 20
111.7304707832231
 30
0.0
 10
182.7721380886268
 20
111.3391652841847
 30
0.0
 10
182.7013221122918
 20
111.1529622096037
 30
0.0
 10
182.5188188094095
 20
110.7976646538077
 30
0.0
 10
182.4071214938188
 20
110.629780399288
 30
0.0
 10
182.154815979361
 20
110.3237001644975
 30
0.0
 10
182.0117074767802
 20
110.1824008437247
 30
0.0
 10
181.7034247040103
 20
109.9310089174638
 30
0.0
 10
181.5388234057089
 20
109.8208148201068
 30
0.0
 10
181.1897258609393
 20
109.6292916290483
 30
0.0
 10
181.0049238400362
 20
109.5482942716505
 30
0.0
 10
180.6286279974809
 20
109.4199074004638
 30
0.0
 10
180.4355568243915
 20
109.3715628537281
 30
0.0
 10
180.0394526083599
 20
109.3065458263196
 30
0.0
 10
179.8381940329282
 20
109.2904619697603
 30
0.0
 10
179.4398483171819
 20
109.2909403582019
 30
0.0
 10
179.2412043324699
 20
109.3072179423209
 30
0.0
 10
178.8450058404926
 20
109.3729599807975
 30
0.0
 10
178.6499881134438
 20
109.4222605307111
 30
0.0
 10
178.2750032495294
 20
109.5511514051008
 30
0.0
 10
178.093599305222
 20
109.6309383007587
 30
0.0
 10
177.7436571379169
 20
109.8235377593538
 30
0.0
 10
177.5779138663453
 20
109.9351297559521
 30
0.0
 10
177.2729893384814
 20
110.1845874114427
 30
0.0
 10
177.132488251168
 20
110.3230964975334
 30
0.0
 10
176.8782995055974
 20
110.6316369469303
 30
0.0
 10
176.767683344386
 20
110.7984256882235
 30
0.0
 10
176.5860890420691
 20
111.1518982612335
 30
0.0
 10
176.5138140481065
 20
111.3424358962008
 30
0.0
 10
176.418048575181
 20
111.7299741406762
 30
0.0
 10
176.3934394250513
 20
111.9276082442664
 30
0.0
 10
176.3934394250513
 20
112.1293427717788
 30
0.0
  0
SPLINE
  5
D7
330
1F
100
AcDbEntity
  8
0
  6
Continuous
 62
     7
370
    15
100
AcDbSpline
210
0.0
220
0.0
230
1.0
 70
     8
 71
     3
 72
    32
 73
    28
 74
     0
 42
0.000000001
 43
0.00000001
 40
0.0
 40
0.0
 40
0.0
 40
0.0
 40
0.0625000000000007
 40
0.0625000000000007
 40
0.1250000000000014
 40
0.1250000000000014
 40
0.1875000000000022
 40
0.1875000000000022
 40
0.2500000000000029
 40
0.2500000000000029
 40
0.3750000000000035
 40
0.3750000000000035
 40
0.5000000000000041
 40
0.5000000000000041
 40
0.6250000000000048
 40
0.6250000000000048
 40
0.6875000000000041
 40
0.6875000000000041
 40
0.7500000000000033
 40
0.7500000000000033
 40
0.8125000000000026
 40
0.8125000000000026
 40
0.8750000000000018
 40
0.8750000000000018
 40
0.9375000000000009
 40
0.9375000000000009
 40
1.0
 40
1.0
 40
1.0
 40
1.0
 10
176.3934394250513
 20
112.1293427717788
 30
0.0
 10
176.3934394250513
 20
112.3313067838415
 30
0.0
 10
176.4185416991996
 20
112.5318920559803
 30
0.0
 10
176.515055136258
 20
112.9200653534624
 30
0.0
 10
176.5876818698372
 20
113.1106853033339
 30
0.0
 10
176.7706255332182
 20
113.4651691675242
 30
0.0
 10
176.8821592659106
 20
113.6324697411694
 30
0.0
 10
177.1374360176821
 20
113.9408328067353
 30
0.0
 10
177.2794490502242
 20
114.0803464781677
 30
0.0
 10
177.7456334676451
 20
114.4587489686072
 30
0.0
 10
178.0948233453585
 20
114.6471810286747
 30
0.0
 10
178.8555095865336
 20
114.9054350677878
 30
0.0
 10
179.2502844897513
 20
114.9690278387031
 30
0.0
 10
180.0558377859415
 20
114.9669210627304
 30
0.0
 10
180.4496971939876
 20
114.9013123191453
 30
0.0
 10
181.0182118871972
 20
114.705079224561
 30
0.0
 10
181.1993143250172
 20
114.6247176504788
 30
0.0
 10
181.5449202579905
 20
114.4339145460654
 30
0.0
 10
181.7103819038521
 20
114.322728102948
 30
0.0
 10
182.0188054804042
 20
114.0697380303776
 30
0.0
 10
182.1586385075958
 20
113.9307882575424
 30
0.0
 10
182.4086056414143
 20
113.6266551259579
 30
0.0
 10
182.519860948704
 20
113.4593349941055
 30
0.0
 10
182.7022057519076
 20
113.1036564837612
 30
0.0
 10
182.772261075941
 20
112.918466898788
 30
0.0
 10
182.8681363162507
 20
112.5325388099229
 30
0.0
 10
182.8934394250513
 20
112.3291226193075
 30
0.0
 10
182.8934394250513
 20
112.1293427717788
 30
0.0
  0
LINE
  5
D8
330
1F
100
AcDbEntity
  8
0
  6
Continuous
 62
     7
370
    15
100
AcDbLine
 10
98.5934394251
 20
104.0680455081
 30
0.0
 11
98.5934394251
 21
120.1906400265
 31
0.0
  0
CIRCLE
  5
D9
330
1F
100
AcDbEntity
  8
0
  6
HIDDEN
 62
     7
370
     0
100
AcDbCircle
 10
179.6434394251
 20
112.1293427718
 30
0.0
 40
2.105669347724888
  0
CIRCLE
  5
DA
330
1F
100
AcDbEntity
  8
0
  6
HIDDEN
 62
     7
370
     0
100
AcDbCircle
 10
179.6434394251
 20
112.1293427718
 30
0.0
 40
1.695534221835444
  0
ARC
  5
DB
330
1F
100
AcDbEntity
  8
0
  6
HIDDEN
 62
     7
370
     0
100
AcDbCircle
 10
179.6434394251
 20
112.1293427718
 30
0.0
 40
1.395534221835455
100
AcDbArc
 50
219.547565527
 51
75.5506617177
  0
ARC
  5
DC
330
1F
100
AcDbEntity
  8
0
  6
HIDDEN
 62
     7
370
     0
100
AcDbCircle
 10
179.6434394251
 20
112.1293427718
 30
0.0
 40
1.395534221835455
100
AcDbArc
 50
75.5506617177
 51
171.612999439
  0
SPLINE
  5
DD
330
1F
100
AcDbEntity
  8
0
  6
HIDDEN
 62
     7
370
     0
100
AcDbSpline
210
0.0
220
0.0
230
1.0
 70
     8
 71
     3
 72
    16
 73
    12
 74
     0
 42
0.000000001
 43
0.00000001
 40
0.0
 40
0.0
 40
0.0
 40
0.0
 40
0.2499999999999996
 40
0.2499999999999996
 40
0.4999999999999991
 40
0.4999999999999991
 40
0.7499999999999987
 40
0.7499999999999987
 40
0.8749999999999993
 40
0.8749999999999993
 40
1.0
 40
1.0
 40
1.0
 40
1.0
 10
155.9161399354651
 20
104.5169320533924
 30
0.0
 10
156.0080892615586
 20
104.5018490639275
 30
0.0
 10
156.1005309689753
 20
104.5017947649162
 30
0.0
 10
156.2825593713029
 20
104.524605124191
 30
0.0
 10
156.3724971310376
 20
104.5474902612474
 30
0.0
 10
156.5399339392563
 20
104.6152442319864
 30
0.0
 10
156.6207134554378
 20
104.6596723028185
 30
0.0
 10
156.6932032375434
 20
104.7503542857242
 30
0.0
 10
156.7084534615323
 20
104.784582608782
 30
0.0
 10
156.6944608366558
 20
104.8665077248704
 30
0.0
 10
156.6618315064742
 20
104.9139894388749
 30
0.0
 10
156.6060775446539
 20
104.9672274364734
 30
0.0
  0
SPLINE
  5
DE
330
1F
100
AcDbEntity
  8
0
  6
HIDDEN
 62
     7
370
     0
100
AcDbSpline
210
0.0
220
0.0
230
1.0
 70
     8
 71
     3
 72
    22
 73
    18
 74
     0
 42
0.000000001
 43
0.00000001
 40
0.0
 40
0.0
 40
0.0
 40
0.0
 40
0.125
 40
0.125
 40
0.25
 40
0.25
 40
0.375
 40
0.375
 40
0.5
 40
0.5
 40
0.625
 40
0.625
 40
0.75
 40
0.75
 40
0.875
 40
0.875
 40
1.0
 40
1.0
 40
1.0
 40
1.0
 10
155.9161399354651
 20
107.4119273232748
 30
0.0
 10
156.0017817297737
 20
107.2997863720281
 30
0.0
 10
156.073564034901
 20
107.1730838960636
 30
0.0
 10
156.181113061115
 20
106.9052460592985
 30
0.0
 10
156.2175466805652
 20
106.7638382447567
 30
0.0
 10
156.2643607527
 20
106.4721778046326
 30
0.0
 10
156.2745767613675
 20
106.3255334195195
 30
0.0
 10
156.2847929147989
 20
106.0322109827986
 30
0.0
 10
156.2851574741955
 20
105.8871401560142
 30
0.0
 10
156.2851563567348
 20
105.613339889079
 30
0.0
 10
156.2847870610873
 20
105.4814548732007
 30
0.0
 10
156.2745613089432
 20
105.2368009376208
 30
0.0
 10
156.2643394379203
 20
105.1246185428468
 30
0.0
 10
156.2175621709875
 20
104.9153041727535
 30
0.0
 10
156.1810565244005
 20
104.8205286481562
 30
0.0
 10
156.0736918192574
 20
104.6518805191742
 30
0.0
 10
156.001793015696
 20
104.5774590784748
 30
0.0
 10
155.9161399354651
 20
104.5169320533924
 30
0.0
  0
SPLINE
  5
DF
330
1F
100
AcDbEntity
  8
0
  6
HIDDEN
 62
     7
370
     0
100
AcDbSpline
210
0.0
220
0.0
230
1.0
 70
     8
 71
     3
 72
    18
 73
    14
 74
     0
 42
0.000000001
 43
0.00000001
 40
0.0
 40
0.0
 40
0.0
 40
0.0
 40
0.0625000000000015
 40
0.0625000000000015
 40
0.125000000000003
 40
0.125000000000003
 40
0.2500000000000042
 40
0.2500000000000042
 40
0.5000000000000028
 40
0.5000000000000028
 40
0.7500000000000013
 40
0.7500000000000013
 40
1.0
 40
1.0
 40
1.0
 40
1.0
 10
156.6060775446615
 20
108.6626443655894
 30
0.0
 10
156.6340192189089
 20
108.6556561124628
 30
0.0
 10
156.6564169258304
 20
108.6452862217624
 30
0.0
 10
156.6884667273865
 20
108.6183543619857
 30
0.0
 10
156.6979941234459
 20
108.6016042649482
 30
0.0
 10
156.7084372026401
 20
108.5464354164125
 30
0.0
 10
156.6928124054222
 20
108.5025367139302
 30
0.0
 10
156.6205275295293
 20
108.3664486719669
 30
0.0
 10
156.5403141651963
 20
108.2662480880931
 30
0.0
 10
156.3725443974362
 20
108.0513810790586
 30
0.0
 10
156.2824885340859
 20
107.9367155180444
 30
0.0
 10
156.1003781500617
 20
107.689357317978
 30
0.0
 10
156.0079686691364
 20
107.5567747958662
 30
0.0
 10
155.9161399354651
 20
107.4119273232748
 30
0.0
  0
SPLINE
  5
E0
330
1F
100
AcDbEntity
  8
0
  6
HIDDEN
 62
     7
370
     0
100
AcDbSpline
210
0.0
220
0.0
230
1.0
 70
     8
 71
     3
 72
     8
 73
     4
 74
     0
 42
0.000000001
 43
0.00000001
 40
0.0
 40
0.0
 40
0.0
 40
0.0
 40
1.0
 40
1.0
 40
1.0
 40
1.0
 10
156.5081524774091
 20
108.6733036519801
 30
0.0
 10
156.5404417931742
 20
108.6722584550157
 30
0.0
 10
156.5731252856982
 20
108.6687008091867
 30
0.0
 10
156.6060775446618
 20
108.6626443655894
 30
0.0
  0
SPLINE
  5
E1
330
1F
100
AcDbEntity
  8
0
  6
HIDDEN
 62
     7
370
     0
100
AcDbSpline
210
0.0
220
0.0
230
1.0
 70
     8
 71
     3
 72
    26
 73
    22
 74
     0
 42
0.000000001
 43
0.00000001
 40
0.0
 40
0.0
 40
0.0
 40
0.0
 40
0.0625000000000002
 40
0.0625000000000002
 40
0.1250000000000003
 40
0.1250000000000003
 40
0.2500000000000003
 40
0.2500000000000003
 40
0.3750000000000002
 40
0.3750000000000002
 40
0.5000000000000002
 40
0.5000000000000002
 40
0.6250000000000002
 40
0.6250000000000002
 40
0.7500000000000001
 40
0.7500000000000001
 40
0.8750000000000001
 40
0.8750000000000001
 40
0.9375000000000001
 40
0.9375000000000001
 40
1.0
 40
1.0
 40
1.0
 40
1.0
 10
156.5081524774093
 20
105.0522322031227
 30
0.0
 10
156.4386992955307
 20
105.1090518163436
 30
0.0
 10
156.3621992590973
 20
105.1685613656497
 30
0.0
 10
156.2077123346824
 20
105.2972903683714
 30
0.0
 10
156.1291920104954
 20
105.3665759931253
 30
0.0
 10
155.8985736031167
 20
105.5911737397012
 30
0.0
 10
155.7561266563327
 20
105.7585624317026
 30
0.0
 10
155.5125929848428
 20
106.1304284629677
 30
0.0
 10
155.4155404921411
 20
106.3273347171192
 30
0.0
 10
155.2791088600127
 20
106.7471084937891
 30
0.0
 10
155.2437834097794
 20
106.9581523637433
 30
0.0
 10
155.2431003564896
 20
107.3777925066176
 30
0.0
 10
155.2780377474193
 20
107.5763610250103
 30
0.0
 10
155.4136271452039
 20
107.9420020325412
 30
0.0
 10
155.5117427580107
 20
108.1020406823913
 30
0.0
 10
155.7550216793308
 20
108.371483384986
 30
0.0
 10
155.8975933322245
 20
108.477855001836
 30
0.0
 10
156.1275420565983
 20
108.5911479353971
 30
0.0
 10
156.2058026634924
 20
108.6206440734834
 30
0.0
 10
156.3610460869626
 20
108.6617887391265
 30
0.0
 10
156.4390167228906
 20
108.6735344625074
 30
0.0
 10
156.5081524774094
 20
108.6733036519801
 30
0.0
  0
SPLINE
  5
E2
330
1F
100
AcDbEntity
  8
0
  6
HIDDEN
 62
     7
370
     0
100
AcDbSpline
210
0.0
220
0.0
230
1.0
 70
     8
 71
     3
 72
     8
 73
     4
 74
     0
 42
0.000000001
 43
0.00000001
 40
0.0
 40
0.0
 40
0.0
 40
0.0
 40
1.0
 40
1.0
 40
1.0
 40
1.0
 10
156.6060775446618
 20
104.9672274364743
 30
0.0
 10
156.5731252856982
 20
104.9933624096173
 30
0.0
 10
156.5404417931742
 20
105.0217336196987
 30
0.0
 10
156.508152477409
 20
105.052232203123
 30
0.0
  0
SPLINE
  5
E3
330
1F
100
AcDbEntity
  8
0
  6
HIDDEN
 62
     7
370
     0
100
AcDbSpline
210
0.0
220
0.0
230
1.0
 70
    11
 71
     3
 72
    62
 73
    58
 74
     0
 42
0.000000001
 43
0.00000001
 40
0.0
 40
0.0
 40
0.0
 40
0.0
 40
0.03125
 40
0.03125
 40
0.0624999999999999
 40
0.0624999999999999
 40
0.1250000000000002
 40
0.1250000000000002
 40
0.1875000000000006
 40
0.1875000000000006
 40
0.2187500000000007
 40
0.2187500000000007
 40
0.2500000000000008
 40
0.2500000000000008
 40
0.2812500000000009
 40
0.2812500000000009
 40
0.3125000000000011
 40
0.3125000000000011
 40
0.3437500000000012
 40
0.3437500000000012
 40
0.3750000000000013
 40
0.3750000000000013
 40
0.4375000000000016
 40
0.4375000000000016
 40
0.4687500000000016
 40
0.4687500000000016
 40
0.5000000000000016
 40
0.5000000000000016
 40
0.5312500000000016
 40
0.5312500000000016
 40
0.5625000000000014
 40
0.5625000000000014
 40
0.5937500000000014
 40
0.5937500000000014
 40
0.6250000000000014
 40
0.6250000000000014
 40
0.6562500000000014
 40
0.6562500000000014
 40
0.6875000000000013
 40
0.6875000000000013
 40
0.7187500000000013
 40
0.7187500000000013
 40
0.7500000000000013
 40
0.7500000000000013
 40
0.7812500000000013
 40
0.7812500000000013
 40
0.8125000000000012
 40
0.8125000000000012
 40
0.875000000000001
 40
0.875000000000001
 40
0.9062500000000008
 40
0.9062500000000008
 40
0.9375000000000004
 40
0.9375000000000004
 40
0.9687500000000002
 40
0.9687500000000002
 40
1.0
 40
1.0
 40
1.0
 40
1.0
 10
157.3434394250513
 20
108.8922481365511
 30
0.0
 10
157.2022412010714
 20
108.8922481365511
 30
0.0
 10
157.0639633240577
 20
108.9027160729346
 30
0.0
 10
156.7927972528498
 20
108.94373955387
 30
0.0
 10
156.6585939253903
 20
108.9748660072856
 30
0.0
 10
156.2795307456001
 20
109.0962399951974
 30
0.0
 10
156.0505238239063
 20
109.2163947692056
 30
0.0
 10
155.6694932049036
 20
109.5251736682284
 30
0.0
 10
155.5138701279819
 20
109.7173428363923
 30
0.0
 10
155.3547996514133
 20
110.0473271482305
 30
0.0
 10
155.3130725062699
 20
110.1668265115426
 30
0.0
 10
155.2578018051279
 20
110.4134109106983
 30
0.0
 10
155.2437218736381
 20
110.5405828411354
 30
0.0
 10
155.2431653073169
 20
110.8030720338316
 30
0.0
 10
155.2571545847375
 20
110.9382144025286
 30
0.0
 10
155.3116361039732
 20
111.2026994958884
 30
0.0
 10
155.3524865621281
 20
111.3348494001344
 30
0.0
 10
155.4591005289875
 20
111.5915451510562
 30
0.0
 10
155.5238526712605
 20
111.7142830355102
 30
0.0
 10
155.6754112132131
 20
111.9486537842685
 30
0.0
 10
155.7627493363862
 20
112.060471285282
 30
0.0
 10
156.0485257573477
 20
112.3656547504103
 30
0.0
 10
156.2780621058135
 20
112.5364690695901
 30
0.0
 10
156.6543802418077
 20
112.7129794325642
 30
0.0
 10
156.7867131501684
 20
112.7594642397579
 30
0.0
 10
157.0607458091593
 20
112.822567952498
 30
0.0
 10
157.1987709687814
 20
112.8385256422423
 30
0.0
 10
157.4768423500001
 20
112.839371511104
 30
0.0
 10
157.6185552886705
 20
112.8236468361309
 30
0.0
 10
157.8909775443508
 20
112.7622063936317
 30
0.0
 10
158.0228056888479
 20
112.7168847499453
 30
0.0
 10
158.2782045844525
 20
112.5983369469443
 30
0.0
 10
158.3983705876418
 20
112.526649863728
 30
0.0
 10
158.6235420001981
 20
112.3619212977296
 30
0.0
 10
158.7296930615325
 20
112.2676620246947
 30
0.0
 10
158.9211403502347
 20
112.064097350551
 30
0.0
 10
159.0070743641542
 20
111.9546300603118
 30
0.0
 10
159.1594866821942
 20
111.7205324578279
 30
0.0
 10
159.2256701724817
 20
111.59563823493
 30
0.0
 10
159.3318518710328
 20
111.3419064833952
 30
0.0
 10
159.3728319342486
 20
111.2117367986115
 30
0.0
 10
159.4289120750459
 20
110.9446731034827
 30
0.0
 10
159.4431362504872
 20
110.8107198734674
 30
0.0
 10
159.4437329343587
 20
110.5492631309994
 30
0.0
 10
159.4299643668603
 20
110.4191457616119
 30
0.0
 10
159.3751142999182
 20
110.1709549061281
 30
0.0
 10
159.3346177866417
 20
110.0535994150473
 30
0.0
 10
159.1751553154656
 20
109.7198502933076
 30
0.0
 10
159.0204868911514
 20
109.5280107213817
 30
0.0
 10
158.7321788598068
 20
109.2938881534119
 30
0.0
 10
158.628154044459
 20
109.2257317440487
 30
0.0
 10
158.4037347862802
 20
109.1070208048247
 30
0.0
 10
158.2818039984197
 20
109.0560988684563
 30
0.0
 10
158.0293468469937
 20
108.9751490336347
 30
0.0
 10
157.8984603170765
 20
108.9446137146357
 30
0.0
 10
157.6265193993637
 20
108.9030556858912
 30
0.0
 10
157.4846376490312
 20
108.8922481365511
 30
0.0
 10
157.3434394250513
 20
108.8922481365511
 30
0.0
  0
LWPOLYLINE
  5
E4
330
1F
100
AcDbEntity
  8
0
  6
HIDDEN
 62
     7
370
     0
100
AcDbPolyline
 90
       21
 70
   128
 43
0.0
 10
155.9161399355
 20
104.5169320534
 10
156.308207373
 20
104.2475172524
 10
156.7556554464
 20
104.0699501701
 10
157.2345475331
 20
103.9937299115
 10
157.7192648859
 20
104.0229339453
 10
158.18387713
 20
104.1559999764
 10
158.6035294307
 20
104.3858095222
 10
158.9557721246
 20
104.7000687219
 10
159.2217616833
 20
105.0819660072
 10
159.3872687651
 20
105.5110714519
 10
159.4434394251
 20
105.9644296883
 10
159.3872687651
 20
106.4177879248
 10
159.2217616833
 20
106.8468933695
 10
158.9557721246
 20
107.2287906548
 10
158.6035294307
 20
107.5430498545
 10
158.18387713
 20
107.7728594003
 10
157.7192648859
 20
107.9059254314
 10
157.2345475331
 20
107.9351294652
 10
156.7556554464
 20
107.8589092065
 10
156.308207373
 20
107.6813421242
 10
155.9161399355
 20
107.4119273233
  0
CIRCLE
  5
E5
330
1F
100
AcDbEntity
  8
0
  6
HIDDEN
 62
     7
370
     0
100
AcDbCircle
 10
179.6434394251
 20
112.1293427718
 30
0.0
 40
2.099999999999994
  0
LINE
  5
E6
330
1F
100
AcDbEntity
  8
0
  6
HIDDEN
 62
     7
370
     0
100
AcDbLine
 10
149.4434394251
 20
130.9293427718
 30
0.0
 11
149.7806977253
 21
130.9293427718
 31
0.0
  0
ELLIPSE
  5
E7
330
1F
100
AcDbEntity
  8
0
  6
HIDDEN
 62
     7
370
     0
100
AcDbEllipse
 10
149.7806977253
 20
132.5293427718
 30
0.0
 11
0.0
 21
1.600000000000023
 31
0.0
210
0.0
220
0.0
230
1.0
 40
0.4142135624
 41
3.141592653589793
 42
4.712388980384695
  0
LINE
  5
E8
330
1F
100
AcDbEntity
  8
0
  6
HIDDEN
 62
     7
370
     0
100
AcDbLine
 10
149.7806977253
 20
95.9293427718
 30
0.0
 11
149.4434394251
 21
95.9293427718
 31
0.0
  0
ELLIPSE
  5
E9
330
1F
100
AcDbEntity
  8
0
  6
HIDDEN
 62
     7
370
     0
100
AcDbEllipse
 10
149.7806977253
 20
94.3293427718
 30
0.0
 11
0.0
 21
1.599999999999994
 31
0.0
210
0.0
220
0.0
230
1.0
 40
0.4142135624
 41
4.712388980384695
 42
6.283185307179586
  0
LINE
  5
EA
330
1F
100
AcDbEntity
  8
0
  6
HIDDEN
 62
     7
370
     0
100
AcDbLine
 10
150.4434394251
 20
89.275310686
 30
0.0
 11
149.675562285
 21
88.8975253444
 31
0.0
  0
LINE
  5
EB
330
1F
100
AcDbEntity
  8
0
  6
HIDDEN
 62
     7
370
     0
100
AcDbLine
 10
149.7616779394
 20
135.4531880277
 30
0.0
 11
150.4434394251
 21
134.771426542
 31
0.0
  0
LINE
  5
EC
330
1F
100
AcDbEntity
  8
0
  6
HIDDEN
 62
     7
370
     0
100
AcDbLine
 10
154.4103048776
 20
89.275310686
 30
0.0
 11
150.4434394251
 21
89.275310686
 31
0.0
  0
LINE
  5
ED
330
1F
100
AcDbEntity
  8
0
  6
HIDDEN
 62
     7
370
     0
100
AcDbLine
 10
165.2934394251
 20
89.275310686
 30
0.0
 11
160.2765739725
 21
89.275310686
 31
0.0
  0
LINE
  5
EE
330
1F
100
AcDbEntity
  8
0
  6
HIDDEN
 62
     7
370
     0
100
AcDbLine
 10
150.4434394251
 20
89.275310686
 30
0.0
 11
150.4434394251
 21
94.3293427718
 31
0.0
  0
LINE
  5
EF
330
1F
100
AcDbEntity
  8
0
  6
HIDDEN
 62
     7
370
     0
100
AcDbLine
 10
165.2934394251
 20
95.9293427718
 30
0.0
 11
149.7806977253
 21
95.9293427718
 31
0.0
  0
LINE
  5
F0
330
1F
100
AcDbEntity
  8
0
  6
HIDDEN
 62
     7
370
     0
100
AcDbLine
 10
149.7806977253
 20
130.9293427718
 30
0.0
 11
165.2934394251
 21
130.9293427718
 31
0.0
  0
LINE
  5
F1
330
1F
100
AcDbEntity
  8
0
  6
HIDDEN
 62
     7
370
     0
100
AcDbLine
 10
150.4434394251
 20
134.771426542
 30
0.0
 11
154.5256630901
 21
134.771426542
 31
0.0
  0
LINE
  5
F2
330
1F
100
AcDbEntity
  8
0
  6
HIDDEN
 62
     7
370
     0
100
AcDbLine
 10
160.16121576
 20
134.771426542
 30
0.0
 11
165.2934394251
 21
134.771426542
 31
0.0
  0
LINE
  5
F3
330
1F
100
AcDbEntity
  8
0
  6
HIDDEN
 62
     7
370
     0
100
AcDbLine
 10
150.4434394251
 20
134.771426542
 30
0.0
 11
150.4434394251
 21
132.5293427718
 31
0.0
  0
LINE
  5
F4
330
1F
100
AcDbEntity
  8
0
  6
HIDDEN
 62
     7
370
     0
100
AcDbLine
 10
184.9934394251
 20
108.0225540019
 30
0.0
 11
184.9934394251
 21
116.2361315417
 31
0.0
  0
LINE
  5
F5
330
1F
100
AcDbEntity
  8
0
  6
HIDDEN
 62
     7
370
     0
100
AcDbLine
 10
102.5934394251
 20
105.6293427718
 30
0.0
 11
102.5934394251
 21
118.6293427718
 31
0.0
  0
LINE
  5
F6
330
1F
100
AcDbEntity
  8
0
  6
HIDDEN
 62
     7
370
     0
100
AcDbLine
 10
105.5316336125
 20
107.0293427718
 30
0.0
 11
105.5316336125
 21
117.2293427718
 31
0.0
  0
LINE
  5
F7
330
1F
100
AcDbEntity
  8
0
  6
HIDDEN
 62
     7
370
     0
100
AcDbLine
 10
183.6944013194
 20
110.4339445885
 30
0.0
 11
183.6944013194
 21
113.8247409551
 31
0.0
  0
LINE
  5
F8
330
1F
100
AcDbEntity
  8
0
  6
HIDDEN
 62
     7
370
     0
100
AcDbLine
 10
182.9934394251
 20
110.4339445885
 30
0.0
 11
182.9934394251
 21
113.8247409551
 31
0.0
  0
LINE
  5
F9
330
1F
100
AcDbEntity
  8
0
  6
HIDDEN
 62
     7
370
     0
100
AcDbLine
 10
182.9934394251
 20
117.0293427718
 30
0.0
 11
182.9934394251
 21
113.8247409551
 31
0.0
  0
LINE
  5
FA
330
1F
100
AcDbEntity
  8
0
  6
HIDDEN
 62
     7
370
     0
100
AcDbLine
 10
182.9934394251
 20
113.8247409551
 30
0.0
 11
183.6944013194
 21
113.8247409551
 31
0.0
  0
SPLINE
  5
FB
330
1F
100
AcDbEntity
  8
0
  6
HIDDEN
 62
     7
370
     0
100
AcDbSpline
210
0.0
220
0.0
230
1.0
 70
     8
 71
     3
 72
    10
 73
     6
 74
     0
 42
0.000000001
 43
0.00000001
 40
0.0
 40
0.0
 40
0.0
 40
0.0
 40
0.5
 40
0.5
 40
1.0
 40
1.0
 40
1.0
 40
1.0
 10
183.6944013193747
 20
113.8247409550974
 30
0.0
 10
183.8550558363871
 20
114.1803509481455
 30
0.0
 10
184.0526581618662
 20
114.5154531421542
 30
0.0
 10
184.4947723575084
 20
115.1596204915667
 30
0.0
 10
184.739048201157
 20
115.4674863715466
 30
0.0
 10
184.9934394250513
 20
115.7607164787938
 30
0.0
  0
SPLINE
  5
FC
330
1F
100
AcDbEntity
  8
0
  6
HIDDEN
 62
     7
370
     0
100
AcDbSpline
210
0.0
220
0.0
230
1.0
 70
     8
 71
     3
 72
     8
 73
     4
 74
     0
 42
0.000000001
 43
0.00000001
 40
0.0
 40
0.0
 40
0.0
 40
0.0
 40
1.0
 40
1.0
 40
1.0
 40
1.0
 10
184.9934394250513
 20
116.2361315416989
 30
0.0
 10
185.061296144833
 20
116.5018647152157
 30
0.0
 10
185.1333874034828
 20
116.7661791891613
 30
0.0
 10
185.2089138461283
 20
117.0293427717788
 30
0.0
  0
SPLINE
  5
FD
330
1F
100
AcDbEntity
  8
0
  6
HIDDEN
 62
     7
370
     0
100
AcDbSpline
210
0.0
220
0.0
230
1.0
 70
     8
 71
     3
 72
    10
 73
     6
 74
     0
 42
0.000000001
 43
0.00000001
 40
0.0
 40
0.0
 40
0.0
 40
0.0
 40
0.27374538790278
 40
0.6364271071772547
 40
0.9999999999999999
 40
0.9999999999999999
 40
0.9999999999999999
 40
0.9999999999999999
 10
185.3135913671427
 20
119.2288639809184
 30
0.0
 10
185.307224457392
 20
119.2287484438409
 30
0.0
 10
185.2924221113678
 20
119.2284798331857
 30
0.0
 10
185.2674436158849
 20
119.2221618603396
 30
0.0
 10
185.2481692236889
 20
119.2135541388358
 30
0.0
 10
185.2385202019665
 20
119.2092449968963
 30
0.0
  0
LINE
  5
FE
330
1F
100
AcDbEntity
  8
0
  6
HIDDEN
 62
     7
370
     0
100
AcDbLine
 10
182.9934394251
 20
119.2092449969
 30
0.0
 11
185.238520202
 21
119.2092449969
 31
0.0
  0
LINE
  5
FF
330
1F
100
AcDbEntity
  8
0
  6
HIDDEN
 62
     7
370
     0
100
AcDbLine
 10
182.9934394251
 20
119.2293427718
 30
0.0
 11
182.9934394251
 21
117.0293427718
 31
0.0
  0
SPLINE
  5
100
330
1F
100
AcDbEntity
  8
0
  6
HIDDEN
 62
     7
370
     0
100
AcDbSpline
210
0.0
220
0.0
230
1.0
 70
     8
 71
     3
 72
     8
 73
     4
 74
     0
 42
0.000000001
 43
0.00000001
 40
0.0
 40
0.0
 40
0.0
 40
0.0
 40
1.0
 40
1.0
 40
1.0
 40
1.0
 10
185.2089138461283
 20
117.0293427717788
 30
0.0
 10
185.2600582205435
 20
117.2075497193111
 30
0.0
 10
185.3047873786717
 20
117.3847609742306
 30
0.0
 10
185.3434394250513
 20
117.560751928157
 30
0.0
  0
LINE
  5
101
330
1F
100
AcDbEntity
  8
0
  6
HIDDEN
 62
     7
370
     0
100
AcDbLine
 10
182.9934394251
 20
110.4339445885
 30
0.0
 11
182.9934394251
 21
107.2293427718
 31
0.0
  0
LINE
  5
102
330
1F
100
AcDbEntity
  8
0
  6
HIDDEN
 62
     7
370
     0
100
AcDbLine
 10
183.6944013194
 20
110.4339445885
 30
0.0
 11
182.9934394251
 21
110.4339445885
 31
0.0
  0
SPLINE
  5
103
330
1F
100
AcDbEntity
  8
0
  6
HIDDEN
 62
     7
370
     0
100
AcDbSpline
210
0.0
220
0.0
230
1.0
 70
     8
 71
     3
 72
    10
 73
     6
 74
     0
 42
0.000000001
 43
0.00000001
 40
0.0
 40
0.0
 40
0.0
 40
0.0
 40
0.5
 40
0.5
 40
1.0
 40
1.0
 40
1.0
 40
1.0
 10
184.993439425051
 20
108.4979690647635
 30
0.0
 10
184.7371385599203
 20
108.7934003654952
 30
0.0
 10
184.4927121537853
 20
109.101878901476
 30
0.0
 10
184.0521318383003
 20
109.7441882689041
 30
0.0
 10
183.8549471617404
 20
110.0785751475672
 30
0.0
 10
183.6944013193745
 20
110.4339445884602
 30
0.0
  0
SPLINE
  5
104
330
1F
100
AcDbEntity
  8
0
  6
HIDDEN
 62
     7
370
     0
100
AcDbSpline
210
0.0
220
0.0
230
1.0
 70
     8
 71
     3
 72
     8
 73
     4
 74
     0
 42
0.000000001
 43
0.00000001
 40
0.0
 40
0.0
 40
0.0
 40
0.0
 40
1.0
 40
1.0
 40
1.0
 40
1.0
 10
185.2089138461283
 20
107.2293427717788
 30
0.0
 10
185.1333788370454
 20
107.4925362032054
 30
0.0
 10
185.0612878962457
 20
107.7568531305706
 30
0.0
 10
184.9934394250513
 20
108.0225540018587
 30
0.0
  0
SPLINE
  5
105
330
1F
100
AcDbEntity
  8
0
  6
HIDDEN
 62
     7
370
     0
100
AcDbSpline
210
0.0
220
0.0
230
1.0
 70
     8
 71
     3
 72
     9
 73
     5
 74
     0
 42
0.000000001
 43
0.00000001
 40
0.0
 40
0.0
 40
0.0
 40
0.0
 40
0.7194823742985643
 40
1.0
 40
1.0
 40
1.0
 40
1.0
 10
185.2385202019665
 20
105.0494405466613
 30
0.0
 10
185.2576636562074
 20
105.0407662885278
 30
0.0
 10
185.2842709157106
 20
105.0287100402535
 30
0.0
 10
185.3066641669859
 20
105.0311900749136
 30
0.0
 10
185.3129458686654
 20
105.0318857683481
 30
0.0
  0
LINE
  5
106
330
1F
100
AcDbEntity
  8
0
  6
HIDDEN
 62
     7
370
     0
100
AcDbLine
 10
182.9934394251
 20
105.0494405467
 30
0.0
 11
185.238520202
 21
105.0494405467
 31
0.0
  0
LINE
  5
107
330
1F
100
AcDbEntity
  8
0
  6
HIDDEN
 62
     7
370
     0
100
AcDbLine
 10
182.9934394251
 20
107.2293427718
 30
0.0
 11
182.9934394251
 21
105.0293427718
 31
0.0
  0
SPLINE
  5
108
330
1F
100
AcDbEntity
  8
0
  6
HIDDEN
 62
     7
370
     0
100
AcDbSpline
210
0.0
220
0.0
230
1.0
 70
     8
 71
     3
 72
     8
 73
     4
 74
     0
 42
0.000000001
 43
0.00000001
 40
0.0
 40
0.0
 40
0.0
 40
0.0
 40
1.0
 40
1.0
 40
1.0
 40
1.0
 10
185.3434394250513
 20
106.6979336154006
 30
0.0
 10
185.3047873786717
 20
106.873924569327
 30
0.0
 10
185.2600582205435
 20
107.0511358242465
 30
0.0
 10
185.2089138461283
 20
107.2293427717788
 30
0.0
  0
LINE
  5
109
330
1F
100
AcDbEntity
  8
0
  6
HIDDEN
 62
     7
370
     0
100
AcDbLine
 10
182.4934394251
 20
106.6293427718
 30
0.0
 11
182.4934394251
 21
117.6293427718
 31
0.0
  0
LINE
  5
10A
330
1F
100
AcDbEntity
  8
0
  6
HIDDEN
 62
     7
370
     0
100
AcDbLine
 10
173.3434394251
 20
107.0293427718
 30
0.0
 11
173.3434394251
 21
117.2293427718
 31
0.0
  0
LINE
  5
10B
330
1F
100
AcDbEntity
  8
0
  6
HIDDEN
 62
     7
370
     0
100
AcDbLine
 10
175.3434394251
 20
106.6293427718
 30
0.0
 11
175.3434394251
 21
117.6293427718
 31
0.0
  0
LINE
  5
10C
330
1F
100
AcDbEntity
  8
0
  6
HIDDEN
 62
     7
370
     0
100
AcDbLine
 10
132.5934394251
 20
107.0293427718
 30
0.0
 11
132.5934394251
 21
117.2293427718
 31
0.0
  0
LINE
  5
10D
330
1F
100
AcDbEntity
  8
0
  6
HIDDEN
 62
     7
370
     0
100
AcDbLine
 10
133.1041709512
 20
107.8793427718
 30
0.0
 11
133.1041709512
 21
116.3793427718
 31
0.0
  0
SPLINE
  5
10E
330
1F
100
AcDbEntity
  8
0
  6
HIDDEN
 62
     7
370
     0
100
AcDbSpline
210
0.0
220
0.0
230
1.0
 70
    11
 71
     3
 72
    62
 73
    58
 74
     0
 42
0.000000001
 43
0.00000001
 40
0.0
 40
0.0
 40
0.0
 40
0.0
 40
0.0312499999999997
 40
0.0312499999999997
 40
0.0624999999999994
 40
0.0624999999999994
 40
0.1249999999999991
 40
0.1249999999999991
 40
0.1874999999999988
 40
0.1874999999999988
 40
0.2187499999999987
 40
0.2187499999999987
 40
0.2499999999999986
 40
0.2499999999999986
 40
0.2812499999999984
 40
0.2812499999999984
 40
0.3124999999999984
 40
0.3124999999999984
 40
0.3437499999999983
 40
0.3437499999999983
 40
0.3749999999999982
 40
0.3749999999999982
 40
0.4374999999999981
 40
0.4374999999999981
 40
0.4687499999999982
 40
0.4687499999999982
 40
0.4999999999999982
 40
0.4999999999999982
 40
0.5312499999999983
 40
0.5312499999999983
 40
0.5624999999999984
 40
0.5624999999999984
 40
0.5937499999999987
 40
0.5937499999999987
 40
0.6249999999999988
 40
0.6249999999999988
 40
0.6562499999999989
 40
0.6562499999999989
 40
0.687499999999999
 40
0.687499999999999
 40
0.7187499999999991
 40
0.7187499999999991
 40
0.7499999999999991
 40
0.7499999999999991
 40
0.7812499999999992
 40
0.7812499999999992
 40
0.8124999999999992
 40
0.8124999999999992
 40
0.8749999999999994
 40
0.8749999999999994
 40
0.9062499999999996
 40
0.9062499999999996
 40
0.9374999999999998
 40
0.9374999999999998
 40
0.9687499999999999
 40
0.9687499999999999
 40
1.0
 40
1.0
 40
1.0
 40
1.0
 10
157.3434394250513
 20
111.4197283997057
 30
0.0
 10
157.4846376490312
 20
111.4197283997057
 30
0.0
 10
157.6229155260449
 20
111.4357398096972
 30
0.0
 10
157.8940815972528
 20
111.4974693753201
 30
0.0
 10
158.0282849247123
 20
111.5440071387748
 30
0.0
 10
158.4073481045025
 20
111.7209834675098
 30
0.0
 10
158.6363550261963
 20
111.891409761219
 30
0.0
 10
159.0173856451991
 20
112.2972960386423
 30
0.0
 10
159.1730087221207
 20
112.5369664799783
 30
0.0
 10
159.3320791986893
 20
112.917443307295
 30
0.0
 10
159.3738063438327
 20
113.0507120426
 30
0.0
 10
159.4290770449747
 20
113.3156932782288
 30
0.0
 10
159.4431569764646
 20
113.4476585929467
 30
0.0
 10
159.4437135427858
 20
113.7103359027609
 30
0.0
 10
159.4297242653651
 20
113.8407157667185
 30
0.0
 10
159.3752427461295
 20
114.0870596974417
 30
0.0
 10
159.3343922879746
 20
114.2057139674245
 30
0.0
 10
159.2277783211152
 20
114.4285402341798
 30
0.0
 10
159.1630261788422
 20
114.5312253451643
 30
0.0
 10
159.0114676368896
 20
114.7213485980776
 30
0.0
 10
158.9241295137165
 20
114.808855389297
 30
0.0
 10
158.638353092755
 20
115.0411228847456
 30
0.0
 10
158.4088167442892
 20
115.1615716273882
 30
0.0
 10
158.0324986082949
 20
115.2826682196898
 30
0.0
 10
157.9001656999342
 20
115.3137763531261
 30
0.0
 10
157.6261330409434
 20
115.3557235926817
 30
0.0
 10
157.4881078813212
 20
115.3661538272913
 30
0.0
 10
157.2100365001025
 20
115.3667097261582
 30
0.0
 10
157.0683235614322
 20
115.3564312673281
 30
0.0
 10
156.7959013057518
 20
115.3156080826349
 30
0.0
 10
156.6640731612547
 20
115.2853147467602
 30
0.0
 10
156.4086742656501
 20
115.2040475564693
 30
0.0
 10
156.2885082624609
 20
115.154099705611
 30
0.0
 10
156.0633368499045
 20
115.035778494413
 30
0.0
 10
155.9571857885702
 20
114.9664853853305
 30
0.0
 10
155.765738499868
 20
114.8116707367367
 30
0.0
 10
155.6798044859485
 20
114.726084748866
 30
0.0
 10
155.5273921679084
 20
114.536401076789
 30
0.0
 10
155.461208677621
 20
114.4319798157184
 30
0.0
 10
155.3550269790699
 20
114.2119484759111
 30
0.0
 10
155.3140469158541
 20
114.0952999898016
 30
0.0
 10
155.2579667750567
 20
113.8468986088124
 30
0.0
 10
155.2437425996154
 20
113.7177886200082
 30
0.0
 10
155.243145915744
 20
113.4565335541761
 30
0.0
 10
155.2569144832424
 20
113.3217272635034
 30
0.0
 10
155.3117645501844
 20
113.0552721491489
 30
0.0
 10
155.3522610634609
 20
112.9245382144504
 30
0.0
 10
155.511723534637
 20
112.5401227604468
 30
0.0
 10
155.6663919589512
 20
112.30096372857
 30
0.0
 10
155.9546999902958
 20
111.9933043691261
 30
0.0
 10
156.0587248056437
 20
111.9006312523618
 30
0.0
 10
156.2831440638224
 20
111.7354884097223
 30
0.0
 10
156.4050748516829
 20
111.6624475410431
 30
0.0
 10
156.657532003109
 20
111.5444256247707
 30
0.0
 10
156.7884185330261
 20
111.498777919153
 30
0.0
 10
157.060359450739
 20
111.4362574796858
 30
0.0
 10
157.2022412010714
 20
111.4197283997057
 30
0.0
 10
157.3434394250513
 20
111.4197283997057
 30
0.0
  0
LINE
  5
10F
330
1F
100
AcDbEntity
  8
0
  6
HIDDEN
 62
     7
370
     0
100
AcDbLine
 10
185.238520202
 20
104.1043427718
 30
0.0
 11
185.238520202
 21
105.0494405467
 31
0.0
  0
LINE
  5
110
330
1F
100
AcDbEntity
  8
0
  6
HIDDEN
 62
     7
370
     0
100
AcDbLine
 10
185.238520202
 20
119.2092449969
 30
0.0
 11
185.238520202
 21
120.1543427718
 31
0.0
  0
LINE
  5
111
330
1F
100
AcDbEntity
  8
0
  6
HIDDEN
 62
     7
370
     0
100
AcDbLine
 10
182.9934394251
 20
120.1543427718
 30
0.0
 11
182.9934394251
 21
119.2092449969
 31
0.0
  0
LINE
  5
112
330
1F
100
AcDbEntity
  8
0
  6
HIDDEN
 62
     7
370
     0
100
AcDbLine
 10
182.9934394251
 20
105.0494405467
 30
0.0
 11
182.9934394251
 21
104.1043427718
 31
0.0
  0
SPLINE
  5
113
330
1F
100
AcDbEntity
  8
0
  6
HIDDEN
 62
     7
370
     0
100
AcDbSpline
210
0.0
220
0.0
230
1.0
 70
     8
 71
     3
 72
    12
 73
     8
 74
     0
 42
0.000000001
 43
0.00000001
 40
0.0
 40
0.0
 40
0.0
 40
0.0
 40
0.5
 40
0.5
 40
0.75
 40
0.75
 40
1.0
 40
1.0
 40
1.0
 40
1.0
 10
156.0097930014894
 20
118.1175504124837
 30
0.0
 10
155.8674597974729
 20
118.2304675627986
 30
0.0
 10
155.7465582430423
 20
118.3734309363161
 30
0.0
 10
155.601961489316
 20
118.5995414896323
 30
0.0
 10
155.558972745015
 20
118.6783619736809
 30
0.0
 10
155.4857105063994
 20
118.8352506663041
 30
0.0
 10
155.4552058965433
 20
118.9133371653677
 30
0.0
 10
155.4334394250511
 20
118.9844732347355
 30
0.0
  0
SPLINE
  5
114
330
1F
100
AcDbEntity
  8
0
  6
HIDDEN
 62
     7
370
     0
100
AcDbSpline
210
0.0
220
0.0
230
1.0
 70
     8
 71
     3
 72
    14
 73
    10
 74
     0
 42
0.000000001
 43
0.00000001
 40
0.0
 40
0.0
 40
0.0
 40
0.0
 40
0.25
 40
0.25
 40
0.5
 40
0.5
 40
0.75
 40
0.75
 40
1.0
 40
1.0
 40
1.0
 40
1.0
 10
158.6770858486133
 20
118.1175504124838
 30
0.0
 10
158.4892997755694
 20
117.968574153687
 30
0.0
 10
158.2802883831428
 20
117.8536550983409
 30
0.0
 10
157.822807087971
 20
117.6946295949153
 30
0.0
 10
157.5853439669491
 20
117.6545614459548
 30
0.0
 10
157.0997266635488
 20
117.6547647585728
 30
0.0
 10
156.8616513180368
 20
117.6952546049286
 30
0.0
 10
156.405560982411
 20
117.8542309638292
 30
0.0
 10
156.1975776353676
 20
117.9685752954197
 30
0.0
 10
156.0097930014895
 20
118.1175504124837
 30
0.0
  0
SPLINE
  5
115
330
1F
100
AcDbEntity
  8
0
  6
HIDDEN
 62
     7
370
     0
100
AcDbSpline
210
0.0
220
0.0
230
1.0
 70
     8
 71
     3
 72
    12
 73
     8
 74
     0
 42
0.000000001
 43
0.00000001
 40
0.0
 40
0.0
 40
0.0
 40
0.0
 40
0.2500000000000003
 40
0.2500000000000003
 40
0.5000000000000006
 40
0.5000000000000006
 40
1.0
 40
1.0
 40
1.0
 40
1.0
 10
159.2534394250513
 20
118.9844732347347
 30
0.0
 10
159.2317092118706
 20
118.9134556629272
 30
0.0
 10
159.2011699110735
 20
118.8352201885978
 30
0.0
 10
159.1276213486755
 20
118.6777861418506
 30
0.0
 10
159.0848497065453
 20
118.5994277112908
 30
0.0
 10
158.9403046650357
 20
118.3734219902914
 30
0.0
 10
158.8194634151133
 20
118.230502756872
 30
0.0
 10
158.6770858486132
 20
118.1175504124837
 30
0.0
  0
SPLINE
  5
116
330
1F
100
AcDbEntity
  8
0
  6
HIDDEN
 62
     7
370
     0
100
AcDbSpline
210
0.0
220
0.0
230
1.0
 70
     8
 71
     3
 72
    16
 73
    12
 74
     0
 42
0.000000001
 43
0.00000001
 40
0.0
 40
0.0
 40
0.0
 40
0.0
 40
0.2499999999999988
 40
0.2499999999999988
 40
0.374999999999999
 40
0.374999999999999
 40
0.4999999999999992
 40
0.4999999999999992
 40
0.7499999999999996
 40
0.7499999999999996
 40
1.0
 40
1.0
 40
1.0
 40
1.0
 10
159.2534394250515
 20
120.6249300377094
 30
0.0
 10
159.3078357712495
 20
120.5469110448424
 30
0.0
 10
159.3554305034422
 20
120.4509694755827
 30
0.0
 10
159.4064079892344
 20
120.27565755685
 30
0.0
 10
159.4198868021435
 20
120.2125030772805
 30
0.0
 10
159.4384778885066
 20
120.0749405532364
 30
0.0
 10
159.4434059195681
 20
120.0001683787116
 30
0.0
 10
159.4435059055552
 20
119.7712743300555
 30
0.0
 10
159.4236834811607
 20
119.6053895190277
 30
0.0
 10
159.3554091880959
 20
119.2851239373334
 30
0.0
 10
159.3078899016683
 20
119.1303012409198
 30
0.0
 10
159.2534394250515
 20
118.9844732347345
 30
0.0
  0
SPLINE
  5
117
330
1F
100
AcDbEntity
  8
0
  6
HIDDEN
 62
     7
370
     0
100
AcDbSpline
210
0.0
220
0.0
230
1.0
 70
     8
 71
     3
 72
    12
 73
     8
 74
     0
 42
0.000000001
 43
0.00000001
 40
0.0
 40
0.0
 40
0.0
 40
0.0
 40
0.4999999999999969
 40
0.4999999999999969
 40
0.7499999999999984
 40
0.7499999999999984
 40
1.0
 40
1.0
 40
1.0
 40
1.0
 10
158.6770858486132
 20
121.1662047950391
 30
0.0
 10
158.8194190526296
 20
121.0591990916767
 30
0.0
 10
158.9403206070601
 20
120.9547872974942
 30
0.0
 10
159.0849173607864
 20
120.8104328381898
 30
0.0
 10
159.1279061050874
 20
120.7636241187782
 30
0.0
 10
159.201168343703
 20
120.6807402632021
 30
0.0
 10
159.2316729535591
 20
120.643307403715
 30
0.0
 10
159.2534394250513
 20
120.624930037709
 30
0.0
  0
SPLINE
  5
118
330
1F
100
AcDbEntity
  8
0
  6
HIDDEN
 62
     7
370
     0
100
AcDbSpline
210
0.0
220
0.0
230
1.0
 70
     8
 71
     3
 72
    14
 73
    10
 74
     0
 42
0.000000001
 43
0.00000001
 40
0.0
 40
0.0
 40
0.0
 40
0.0
 40
0.25
 40
0.25
 40
0.5
 40
0.5
 40
0.75
 40
0.75
 40
1.0
 40
1.0
 40
1.0
 40
1.0
 10
156.0097930014895
 20
121.1662047950391
 30
0.0
 10
156.1975790745333
 20
121.3073818377859
 30
0.0
 10
156.4065904669598
 20
121.4152505659112
 30
0.0
 10
156.8640717621317
 20
121.5641743454109
 30
0.0
 10
157.1015348831535
 20
121.6014665509922
 30
0.0
 10
157.5871521865539
 20
121.6012769365957
 30
0.0
 10
157.8252275320658
 20
121.5635905742386
 30
0.0
 10
158.2813178676917
 20
121.4147097327445
 30
0.0
 10
158.4893012147352
 20
121.3073807558251
 30
0.0
 10
158.6770858486133
 20
121.166204795039
 30
0.0
  0
SPLINE
  5
119
330
1F
100
AcDbEntity
  8
0
  6
HIDDEN
 62
     7
370
     0
100
AcDbSpline
210
0.0
220
0.0
230
1.0
 70
     8
 71
     3
 72
    12
 73
     8
 74
     0
 42
0.000000001
 43
0.00000001
 40
0.0
 40
0.0
 40
0.0
 40
0.0
 40
0.2499999999999993
 40
0.2499999999999993
 40
0.4999999999999987
 40
0.4999999999999987
 40
1.0
 40
1.0
 40
1.0
 40
1.0
 10
155.4334394250511
 20
120.6249300377088
 30
0.0
 10
155.4551696382317
 20
120.6432767909319
 30
0.0
 10
155.4857089390288
 20
120.6807423058123
 30
0.0
 10
155.5592575014268
 20
120.7639424420483
 30
0.0
 10
155.602029143557
 20
120.8105028936343
 30
0.0
 10
155.7465741850667
 20
120.954798179721
 30
0.0
 10
155.8674154349892
 20
121.0591657400858
 30
0.0
 10
156.0097930014895
 20
121.1662047950391
 30
0.0
  0
SPLINE
  5
11A
330
1F
100
AcDbEntity
  8
0
  6
HIDDEN
 62
     7
370
     0
100
AcDbSpline
210
0.0
220
0.0
230
1.0
 70
     8
 71
     3
 72
    16
 73
    12
 74
     0
 42
0.000000001
 43
0.00000001
 40
0.0
 40
0.0
 40
0.0
 40
0.0
 40
0.2499999999999992
 40
0.2499999999999992
 40
0.3749999999999993
 40
0.3749999999999993
 40
0.4999999999999994
 40
0.4999999999999994
 40
0.7499999999999997
 40
0.7499999999999997
 40
1.0
 40
1.0
 40
1.0
 40
1.0
 10
155.4334394250508
 20
118.9844732347354
 30
0.0
 10
155.379043078853
 20
119.1301562700858
 30
0.0
 10
155.3314483466603
 20
119.2853984520527
 30
0.0
 10
155.2804708608682
 20
119.5242657354668
 30
0.0
 10
155.2669920479591
 20
119.6042333019939
 30
0.0
 10
155.2484009615961
 20
119.7649890080946
 30
0.0
 10
155.2434729305345
 20
119.845911159926
 30
0.0
 10
155.2433729445474
 20
120.0749299742296
 30
0.0
 10
155.2631953689419
 20
120.2160718078983
 30
0.0
 10
155.3314696620066
 20
120.4512173245948
 30
0.0
 10
155.3789889484341
 20
120.5468334072605
 30
0.0
 10
155.4334394250508
 20
120.6249300377089
 30
0.0
  0
SPLINE
  5
11B
330
1F
100
AcDbEntity
  8
0
  6
HIDDEN
 62
     7
370
     0
100
AcDbSpline
210
0.0
220
0.0
230
1.0
 70
     8
 71
     3
 72
     8
 73
     4
 74
     0
 42
0.000000001
 43
0.00000001
 40
0.0
 40
0.0
 40
0.0
 40
0.0
 40
1.0
 40
1.0
 40
1.0
 40
1.0
 10
156.5081524774112
 20
115.5853818915777
 30
0.0
 10
156.540441793175
 20
115.5864270885422
 30
0.0
 10
156.5731252856975
 20
115.589984734371
 30
0.0
 10
156.6060775446596
 20
115.5960411779679
 30
0.0
  0
SPLINE
  5
11C
330
1F
100
AcDbEntity
  8
0
  6
HIDDEN
 62
     7
370
     0
100
AcDbSpline
210
0.0
220
0.0
230
1.0
 70
     8
 71
     3
 72
    48
 73
    44
 74
     0
 42
0.000000001
 43
0.00000001
 40
0.0
 40
0.0
 40
0.0
 40
0.0
 40
0.0312499999999996
 40
0.0312499999999996
 40
0.0624999999999992
 40
0.0624999999999992
 40
0.1249999999999993
 40
0.1249999999999993
 40
0.1874999999999994
 40
0.1874999999999994
 40
0.2499999999999996
 40
0.2499999999999996
 40
0.3124999999999997
 40
0.3124999999999997
 40
0.3749999999999998
 40
0.3749999999999998
 40
0.4062499999999999
 40
0.4062499999999999
 40
0.4375
 40
0.4375
 40
0.4999999999999999
 40
0.4999999999999999
 40
0.5624999999999998
 40
0.5624999999999998
 40
0.5937499999999997
 40
0.5937499999999997
 40
0.6249999999999994
 40
0.6249999999999994
 40
0.6874999999999997
 40
0.6874999999999997
 40
0.7499999999999999
 40
0.7499999999999999
 40
0.8125000000000002
 40
0.8125000000000002
 40
0.875
 40
0.875
 40
0.90625
 40
0.90625
 40
0.9375000000000001
 40
0.9375000000000001
 40
0.9687500000000001
 40
0.9687500000000001
 40
1.0
 40
1.0
 40
1.0
 40
1.0
 10
156.6060775446596
 20
115.5960411779679
 30
0.0
 10
156.6573070311379
 20
115.6088537466022
 30
0.0
 10
156.6892887087882
 20
115.6338527125953
 30
0.0
 10
156.7092157710098
 20
115.6990173304321
 30
0.0
 10
156.6989674027634
 20
115.7382292481672
 30
0.0
 10
156.6418962205018
 20
115.860694410822
 30
0.0
 10
156.5722273911773
 20
115.9505274611228
 30
0.0
 10
156.4232271073053
 20
116.1430460040459
 30
0.0
 10
156.3422209981167
 20
116.2449890196786
 30
0.0
 10
156.1777693998096
 20
116.4625632954233
 30
0.0
 10
156.0939677289609
 20
116.5781452562828
 30
0.0
 10
155.9269006814595
 20
116.8266530923974
 30
0.0
 10
155.8435433328569
 20
116.9594456118659
 30
0.0
 10
155.6797070225129
 20
117.2498019895994
 30
0.0
 10
155.5996660471139
 20
117.4066679789531
 30
0.0
 10
155.489993944141
 20
117.6596752780015
 30
0.0
 10
155.4550069918365
 20
117.747304865977
 30
0.0
 10
155.3894586169934
 20
117.9315929987794
 30
0.0
 10
155.3586831811569
 20
118.029168186596
 30
0.0
 10
155.2800239631776
 20
118.3283579118725
 30
0.0
 10
155.2450998386731
 20
118.5432101871251
 30
0.0
 10
155.2418994761713
 20
118.9424389379213
 30
0.0
 10
155.2738482438381
 20
119.1139086009552
 30
0.0
 10
155.3498488330642
 20
119.3117560202251
 30
0.0
 10
155.3798360825353
 20
119.3689845030451
 30
0.0
 10
155.4443438286409
 20
119.4669713596694
 30
0.0
 10
155.4791813882028
 20
119.508464156398
 30
0.0
 10
155.5894063831115
 20
119.6159075658056
 30
0.0
 10
155.6691807765339
 20
119.6638334361438
 30
0.0
 10
155.8322307462639
 20
119.7287368579215
 30
0.0
 10
155.9162614128124
 20
119.7458459556975
 30
0.0
 10
156.0863400027619
 20
119.7571212805179
 30
0.0
 10
156.171619061931
 20
119.7511335144204
 30
0.0
 10
156.3383531263897
 20
119.7200737172993
 30
0.0
 10
156.4202662749599
 20
119.6950573664328
 30
0.0
 10
156.5330297288709
 20
119.6430112243709
 30
0.0
 10
156.5687201820584
 20
119.6232892678193
 30
0.0
 10
156.6323489714705
 20
119.5782728419665
 30
0.0
 10
156.6605611260112
 20
119.5528785702761
 30
0.0
 10
156.6987712085698
 20
119.4951478288219
 30
0.0
 10
156.709240497004
 20
119.4629994349269
 30
0.0
 10
156.6898238303175
 20
119.3849426548376
 30
0.0
 10
156.6577293424845
 20
119.3407790557413
 30
0.0
 10
156.6060775446639
 20
119.2914581070851
 30
0.0
  0
SPLINE
  5
11D
330
1F
100
AcDbEntity
  8
0
  6
HIDDEN
 62
     7
370
     0
100
AcDbSpline
210
0.0
220
0.0
230
1.0
 70
     8
 71
     3
 72
     8
 73
     4
 74
     0
 42
0.000000001
 43
0.00000001
 40
0.0
 40
0.0
 40
0.0
 40
0.0
 40
1.0
 40
1.0
 40
1.0
 40
1.0
 10
156.6060775446638
 20
119.291458107085
 30
0.0
 10
156.5731252856989
 20
119.265323133941
 30
0.0
 10
156.5404417931736
 20
119.2369519238585
 30
0.0
 10
156.5081524774072
 20
119.2064533404329
 30
0.0
  0
SPLINE
  5
11E
330
1F
100
AcDbEntity
  8
0
  6
HIDDEN
 62
     7
370
     0
100
AcDbSpline
210
0.0
220
0.0
230
1.0
 70
     8
 71
     3
 72
    26
 73
    22
 74
     0
 42
0.000000001
 43
0.00000001
 40
0.0
 40
0.0
 40
0.0
 40
0.0
 40
0.0624999999999999
 40
0.0624999999999999
 40
0.1249999999999998
 40
0.1249999999999998
 40
0.2499999999999999
 40
0.2499999999999999
 40
0.375
 40
0.375
 40
0.5000000000000001
 40
0.5000000000000001
 40
0.6250000000000002
 40
0.6250000000000002
 40
0.7500000000000003
 40
0.7500000000000003
 40
0.8750000000000004
 40
0.8750000000000004
 40
0.9375000000000002
 40
0.9375000000000002
 40
1.0
 40
1.0
 40
1.0
 40
1.0
 10
156.508152477407
 20
119.2064533404328
 30
0.0
 10
156.4386992955281
 20
119.1496337272119
 30
0.0
 10
156.3621992590946
 20
119.0901241779057
 30
0.0
 10
156.2077123346797
 20
118.9613951751837
 30
0.0
 10
156.1291920104927
 20
118.8921095504298
 30
0.0
 10
155.8985736031142
 20
118.6675118038536
 30
0.0
 10
155.7561266563305
 20
118.5001231118521
 30
0.0
 10
155.512592984841
 20
118.1282570805866
 30
0.0
 10
155.4155404921397
 20
117.931350826435
 30
0.0
 10
155.279108860012
 20
117.5115770497652
 30
0.0
 10
155.243783409779
 20
117.3005331798109
 30
0.0
 10
155.2431003564899
 20
116.8808930369369
 30
0.0
 10
155.27803774742
 20
116.6823245185443
 30
0.0
 10
155.4136271452052
 20
116.3166835110138
 30
0.0
 10
155.5117427580122
 20
116.156644861164
 30
0.0
 10
155.7550216793327
 20
115.88720215857
 30
0.0
 10
155.8975933322266
 20
115.7808305417203
 30
0.0
 10
156.1275420566005
 20
115.6675376081597
 30
0.0
 10
156.2058026634946
 20
115.6380414700736
 30
0.0
 10
156.3610460869647
 20
115.5968968044309
 30
0.0
 10
156.4390167228926
 20
115.5851510810502
 30
0.0
 10
156.5081524774112
 20
115.5853818915777
 30
0.0
  0
LINE
  5
11F
330
1F
100
AcDbEntity
  8
0
  6
HIDDEN
 62
     7
370
     0
100
AcDbLine
 10
155.4334394251
 20
128.9771619994
 30
0.0
 11
155.4334394251
 21
126.9793427718
 31
0.0
  0
LINE
  5
120
330
1F
100
AcDbEntity
  8
0
  6
HIDDEN
 62
     7
370
     0
100
AcDbLine
 10
159.2534394251
 20
128.9771619994
 30
0.0
 11
159.2534394251
 21
126.9793427718
 31
0.0
  0
LINE
  5
121
330
1F
100
AcDbEntity
  8
0
  6
HIDDEN
 62
     7
370
     0
100
AcDbLine
 10
160.7065047431
 20
132.2098837256
 30
0.0
 11
160.7065047431
 21
126.9793427718
 31
0.0
  0
LINE
  5
122
330
1F
100
AcDbEntity
  8
0
  6
HIDDEN
 62
     7
370
     0
100
AcDbLine
 10
153.980374107
 20
132.2098837256
 30
0.0
 11
153.980374107
 21
126.9793427718
 31
0.0
  0
LINE
  5
123
330
1F
100
AcDbEntity
  8
0
  6
HIDDEN
 62
     7
370
     0
100
AcDbLine
 10
149.4434394251
 20
102.8903662326
 30
0.0
 11
156.3087967691
 21
104.534516903
 31
0.0
  0
LINE
  5
124
330
1F
100
AcDbEntity
  8
0
  6
HIDDEN
 62
     7
370
     0
100
AcDbLine
 10
156.306287795
 20
108.6470230999
 30
0.0
 11
149.4434394251
 21
107.0034732913
 31
0.0
  0
LINE
  5
125
330
1F
100
AcDbEntity
  8
0
  6
HIDDEN
 62
     7
370
     0
100
AcDbLine
 10
159.4434394251
 20
105.9644296883
 30
0.0
 11
159.4434394251
 21
110.6762040648
 31
0.0
  0
LINE
  5
126
330
1F
100
AcDbEntity
  8
0
  6
HIDDEN
 62
     7
370
     0
100
AcDbLine
 10
155.2434394251
 20
110.6769289478
 30
0.0
 11
155.2434394251
 21
107.1706378766
 31
0.0
  0
ARC
  5
127
330
1F
100
AcDbEntity
  8
0
  6
HIDDEN
 62
     7
370
     0
100
AcDbCircle
 10
99.3934394251
 20
104.8293427718
 30
0.0
 40
0.8000000000000114
100
AcDbArc
 50
90.0
 51
180.0
  0
ARC
  5
128
330
1F
100
AcDbEntity
  8
0
  6
HIDDEN
 62
     7
370
     0
100
AcDbCircle
 10
99.3934394251
 20
119.4293427718
 30
0.0
 40
0.8000000000000114
100
AcDbArc
 50
180.0
 51
270.0
  0
ARC
  5
129
330
1F
100
AcDbEntity
  8
0
  6
HIDDEN
 62
     7
370
     0
100
AcDbCircle
 10
104.3624993174
 20
105.8043427718
 30
0.0
 40
0.4000000000000199
100
AcDbArc
 50
270.0
 51
330.0
  0
ARC
  5
12A
330
1F
100
AcDbEntity
  8
0
  6
HIDDEN
 62
     7
370
     0
100
AcDbCircle
 10
104.3624993174
 20
118.4543427718
 30
0.0
 40
0.400000000000005
100
AcDbArc
 50
30.0
 51
90.0
  0
ARC
  5
12B
330
1F
100
AcDbEntity
  8
0
  6
HIDDEN
 62
     7
370
     0
100
AcDbCircle
 10
103.4858118558
 20
105.8043427718
 30
0.0
 40
0.4000000000000199
100
AcDbArc
 50
255.0
 51
270.0
  0
ARC
  5
12C
330
1F
100
AcDbEntity
  8
0
  6
HIDDEN
 62
     7
370
     0
100
AcDbCircle
 10
103.4858118558
 20
118.4543427718
 30
0.0
 40
0.4000000000000023
100
AcDbArc
 50
90.0
 51
105.0
  0
LINE
  5
12D
330
1F
100
AcDbEntity
  8
0
  6
HIDDEN
 62
     7
370
     0
100
AcDbLine
 10
103.4858118558
 20
105.4043427718
 30
0.0
 11
104.3624993174
 21
105.4043427718
 31
0.0
  0
LINE
  5
12E
330
1F
100
AcDbEntity
  8
0
  6
HIDDEN
 62
     7
370
     0
100
AcDbLine
 10
104.3624993174
 20
118.8543427718
 30
0.0
 11
103.4858118558
 21
118.8543427718
 31
0.0
  0
LINE
  5
12F
330
1F
100
AcDbEntity
  8
0
  6
HIDDEN
 62
     7
370
     0
100
AcDbLine
 10
103.3822842377
 20
118.8407131023
 30
0.0
 11
102.5934394251
 21
118.6293427718
 31
0.0
  0
LINE
  5
130
330
1F
100
AcDbEntity
  8
0
  6
HIDDEN
 62
     7
370
     0
100
AcDbLine
 10
102.5934394251
 20
105.6293427718
 30
0.0
 11
103.3822842377
 21
105.4179724413
 31
0.0
  0
LINE
  5
131
330
1F
100
AcDbEntity
  8
0
  6
HIDDEN
 62
     7
370
     0
100
AcDbLine
 10
104.7089094789
 20
105.6043427718
 30
0.0
 11
105.5316336125
 21
107.0293427718
 31
0.0
  0
LINE
  5
132
330
1F
100
AcDbEntity
  8
0
  6
HIDDEN
 62
     7
370
     0
100
AcDbLine
 10
105.5316336125
 20
117.2293427718
 30
0.0
 11
104.7089094789
 21
118.6543427718
 31
0.0
  0
LINE
  5
133
330
1F
100
AcDbEntity
  8
0
  6
HIDDEN
 62
     7
370
     0
100
AcDbLine
 10
99.3934394251
 20
105.6293427718
 30
0.0
 11
102.5934394251
 21
105.6293427718
 31
0.0
  0
LINE
  5
134
330
1F
100
AcDbEntity
  8
0
  6
HIDDEN
 62
     7
370
     0
100
AcDbLine
 10
102.5934394251
 20
118.6293427718
 30
0.0
 11
99.3934394251
 21
118.6293427718
 31
0.0
  0
LINE
  5
135
330
1F
100
AcDbEntity
  8
0
  6
HIDDEN
 62
     7
370
     0
100
AcDbLine
 10
185.3434394251
 20
119.2293427718
 30
0.0
 11
182.9934394251
 21
119.2293427718
 31
0.0
  0
LINE
  5
136
330
1F
100
AcDbEntity
  8
0
  6
HIDDEN
 62
     7
370
     0
100
AcDbLine
 10
182.9934394251
 20
105.0293427718
 30
0.0
 11
185.3434394251
 21
105.0293427718
 31
0.0
  0
LINE
  5
137
330
1F
100
AcDbEntity
  8
0
  6
HIDDEN
 62
     7
370
     0
100
AcDbLine
 10
182.9934394251
 20
117.9180179064
 30
0.0
 11
182.4934394251
 21
117.6293427718
 31
0.0
  0
LINE
  5
138
330
1F
100
AcDbEntity
  8
0
  6
HIDDEN
 62
     7
370
     0
100
AcDbLine
 10
182.4934394251
 20
106.6293427718
 30
0.0
 11
182.9934394251
 21
106.3406676372
 31
0.0
  0
ARC
  5
139
330
1F
100
AcDbEntity
  8
0
  6
HIDDEN
 62
     7
370
     0
100
AcDbCircle
 10
174.518037765
 20
107.0293427718
 30
0.0
 40
0.599999999999987
100
AcDbArc
 50
270.0
 51
285.0
  0
ARC
  5
13A
330
1F
100
AcDbEntity
  8
0
  6
HIDDEN
 62
     7
370
     0
100
AcDbCircle
 10
174.518037765
 20
117.2293427718
 30
0.0
 40
0.6000000000000145
100
AcDbArc
 50
75.0
 51
90.0
  0
LINE
  5
13B
330
1F
100
AcDbEntity
  8
0
  6
HIDDEN
 62
     7
370
     0
100
AcDbLine
 10
173.9434394251
 20
106.4293427718
 30
0.0
 11
174.518037765
 21
106.4293427718
 31
0.0
  0
LINE
  5
13C
330
1F
100
AcDbEntity
  8
0
  6
HIDDEN
 62
     7
370
     0
100
AcDbLine
 10
174.518037765
 20
117.8293427718
 30
0.0
 11
173.9434394251
 21
117.8293427718
 31
0.0
  0
ARC
  5
13D
330
1F
100
AcDbEntity
  8
0
  6
HIDDEN
 62
     7
370
     0
100
AcDbCircle
 10
173.9434394251
 20
107.0293427718
 30
0.0
 40
0.5999999999999943
100
AcDbArc
 50
180.0
 51
270.0
  0
ARC
  5
13E
330
1F
100
AcDbEntity
  8
0
  6
HIDDEN
 62
     7
370
     0
100
AcDbCircle
 10
173.9434394251
 20
117.2293427718
 30
0.0
 40
0.6000000000000085
100
AcDbArc
 50
90.0
 51
180.0
  0
LINE
  5
13F
330
1F
100
AcDbEntity
  8
0
  6
HIDDEN
 62
     7
370
     0
100
AcDbLine
 10
174.673329192
 20
106.449787276
 30
0.0
 11
175.3434394251
 21
106.6293427718
 31
0.0
  0
LINE
  5
140
330
1F
100
AcDbEntity
  8
0
  6
HIDDEN
 62
     7
370
     0
100
AcDbLine
 10
175.3434394251
 20
117.6293427718
 30
0.0
 11
174.673329192
 21
117.8088982676
 31
0.0
  0
LINE
  5
141
330
1F
100
AcDbEntity
  8
0
  6
HIDDEN
 62
     7
370
     0
100
AcDbLine
 10
175.3434394251
 20
106.6293427718
 30
0.0
 11
182.4934394251
 21
106.6293427718
 31
0.0
  0
LINE
  5
142
330
1F
100
AcDbEntity
  8
0
  6
HIDDEN
 62
     7
370
     0
100
AcDbLine
 10
182.4934394251
 20
117.6293427718
 30
0.0
 11
175.3434394251
 21
117.6293427718
 31
0.0
  0
LINE
  5
143
330
1F
100
AcDbEntity
  8
0
  6
HIDDEN
 62
     7
370
     0
100
AcDbLine
 10
132.5934394251
 20
107.0293427718
 30
0.0
 11
133.1041709512
 21
107.8793427718
 31
0.0
  0
LINE
  5
144
330
1F
100
AcDbEntity
  8
0
  6
HIDDEN
 62
     7
370
     0
100
AcDbLine
 10
133.1041709512
 20
116.3793427718
 30
0.0
 11
132.5934394251
 21
117.2293427718
 31
0.0
  0
LINE
  5
145
330
1F
100
AcDbEntity
  8
0
  6
HIDDEN
 62
     7
370
     0
100
AcDbLine
 10
105.5316336125
 20
107.0293427718
 30
0.0
 11
132.5934394251
 21
107.0293427718
 31
0.0
  0
LINE
  5
146
330
1F
100
AcDbEntity
  8
0
  6
HIDDEN
 62
     7
370
     0
100
AcDbLine
 10
132.5934394251
 20
117.2293427718
 30
0.0
 11
105.5316336125
 21
117.2293427718
 31
0.0
  0
LINE
  5
147
330
1F
100
AcDbEntity
  8
0
  6
HIDDEN
 62
     7
370
     0
100
AcDbLine
 10
133.1041709512
 20
107.8793427718
 30
0.0
 11
173.3434394251
 21
107.8793427718
 31
0.0
  0
LINE
  5
148
330
1F
100
AcDbEntity
  8
0
  6
HIDDEN
 62
     7
370
     0
100
AcDbLine
 10
173.3434394251
 20
116.3793427718
 30
0.0
 11
133.1041709512
 21
116.3793427718
 31
0.0
  0
LINE
  5
149
330
1F
100
AcDbEntity
  8
0
  6
HIDDEN
 62
     7
370
     0
100
AcDbLine
 10
185.238520202
 20
104.1043427718
 30
0.0
 11
185.3434394251
 21
103.8793427718
 31
0.0
  0
LINE
  5
14A
330
1F
100
AcDbEntity
  8
0
  6
HIDDEN
 62
     7
370
     0
100
AcDbLine
 10
185.3434394251
 20
120.3793427718
 30
0.0
 11
185.238520202
 21
120.1543427718
 31
0.0
  0
LINE
  5
14B
330
1F
100
AcDbEntity
  8
0
  6
HIDDEN
 62
     7
370
     0
100
AcDbLine
 10
185.238520202
 20
120.1543427718
 30
0.0
 11
182.9934394251
 21
120.1543427718
 31
0.0
  0
LINE
  5
14C
330
1F
100
AcDbEntity
  8
0
  6
HIDDEN
 62
     7
370
     0
100
AcDbLine
 10
182.9934394251
 20
104.1043427718
 30
0.0
 11
185.238520202
 21
104.1043427718
 31
0.0
  0
LINE
  5
14D
330
1F
100
AcDbEntity
  8
0
  6
HIDDEN
 62
     7
370
     0
100
AcDbLine
 10
159.4434394251
 20
113.5800610131
 30
0.0
 11
159.4434394251
 21
119.9173811447
 31
0.0
  0
LINE
  5
14E
330
1F
100
AcDbEntity
  8
0
  6
HIDDEN
 62
     7
370
     0
100
AcDbLine
 10
155.2434394251
 20
117.0878585056
 30
0.0
 11
155.2434394251
 21
113.5783439892
 31
0.0
  0
LINE
  5
14F
330
1F
100
AcDbEntity
  8
0
  6
HIDDEN
 62
     7
370
     0
100
AcDbLine
 10
155.2434394251
 20
119.9173811447
 30
0.0
 11
155.2434394251
 21
118.7575217602
 31
0.0
  0
LINE
  5
150
330
1F
100
AcDbEntity
  8
0
  6
HIDDEN
 62
     7
370
     0
100
AcDbLine
 10
149.4434394251
 20
117.2552122523
 30
0.0
 11
156.3090768689
 21
115.6109945021
 31
0.0
  0
LINE
  5
151
330
1F
100
AcDbEntity
  8
0
  6
HIDDEN
 62
     7
370
     0
100
AcDbLine
 10
156.3094927895
 20
119.724001954
 30
0.0
 11
149.4434394251
 21
121.368319311
 31
0.0
  0
DIMENSION
  5
152
330
1F
100
AcDbEntity
  8
VERMASSUNG
100
AcDbDimension
  2
_D
 10
93.1285826277
 20
137.1043427718
 30
0.0
 11
93.1285826277
 21
112.1293427718
 31
0.0
 70
   160
  1
ISO 30 %%c<>
 71
     2
 42
-1.0
  3
SLDDIMSTYLE0
100
AcDbAlignedDimension
 13
150.0434394251
 23
87.1543427718
 33
0.0
 14
150.0434394251
 24
137.1043427718
 34
0.0
 50
90.0
100
AcDbRotatedDimension
  0
DIMENSION
  5
15F
330
1F
100
AcDbEntity
  8
VERMASSUNG
100
AcDbDimension
  2
_D_1
 10
185.3434394251
 20
149.9098601853
 30
0.0
 11
141.9684394251
 21
149.9098601853
 31
0.0
 70
   160
  1
(<>)
 71
     2
 42
-1.0
  3
SLDDIMSTYLE0
100
AcDbAlignedDimension
 13
98.5934394251
 23
120.1906400355
 33
0.0
 14
185.3434394251
 24
121.9293427718
 34
0.0
100
AcDbRotatedDimension
  0
DIMENSION
  5
16B
330
1F
100
AcDbEntity
  8
VERMASSUNG
100
AcDbDimension
  2
_D_2
 10
185.3434394251
 20
143.9098601853
 30
0.0
 11
165.7934394251
 21
143.9098601853
 31
0.0
 70
   160
  1
<>
 71
     2
 42
-1.0
  3
SLDDIMSTYLE0
100
AcDbAlignedDimension
 13
146.2434394251
 23
128.0043427718
 33
0.0
 14
185.3434394251
 24
121.9293427718
 34
0.0
100
AcDbRotatedDimension
  0
DIMENSION
  5
175
330
1F
100
AcDbEntity
  8
VERMASSUNG
100
AcDbDimension
  2
_D_3
 10
185.3434394251
 20
137.9098601853
 30
0.0
 11
175.3184394251
 21
137.9098601853
 31
0.0
 70
   160
  1
<>
 71
     2
 42
-1.0
  3
SLDDIMSTYLE0
100
AcDbAlignedDimension
 13
165.2934394251
 23
135.0407003857
 33
0.0
 14
185.3434394251
 24
121.9293427718
 34
0.0
100
AcDbRotatedDimension
  0
DIMENSION
  5
17F
330
1F
100
AcDbEntity
  8
VERMASSUNG
100
AcDbDimension
  2
_D_4
 10
191.9935740777
 20
102.1293427718
 30
0.0
 11
191.9935740777
 21
112.1293427718
 31
0.0
 70
   160
  1
MBM %%c<>
 71
     2
 42
-1.0
  3
SLDDIMSTYLE0
100
AcDbAlignedDimension
 13
185.1434394251
 23
122.1293427718
 33
0.0
 14
185.1434394251
 24
102.1293427718
 34
0.0
 50
90.0
100
AcDbRotatedDimension
  0
LINE
  5
18B
330
1F
100
AcDbEntity
  8
VERMASSUNG
  6
CENTERX2
 62
     7
370
     0
100
AcDbLine
 10
96.5934394251
 20
112.1293427718
 30
0.0
 11
187.3434394251
 21
112.1293427718
 31
0.0
  0
LINE
  5
18C
330
1F
100
AcDbEntity
  8
VERMASSUNG
  6
CENTERX2
370
     0
100
AcDbLine
 10
147.4984377789
 20
119.7775646615
 30
0.0
 11
158.2542751243
 21
117.2017020666
 31
0.0
  0
LINE
  5
18D
330
1F
100
AcDbEntity
  8
VERMASSUNG
  6
CENTERX2
370
     0
100
AcDbLine
 10
147.4984377789
 20
104.4811208821
 30
0.0
 11
158.2542751243
 21
107.0569834769
 31
0.0
  0
LINE
  5
18E
330
1F
100
AcDbEntity
  8
0
  6
Continuous
 62
     7
370
    15
100
AcDbLine
 10
254.6846533452
 20
53.7959797702
 30
0.0
 11
254.5785700935
 21
53.8572402345
 31
0.0
  0
LINE
  5
18F
330
1F
100
AcDbEntity
  8
0
  6
Continuous
 62
     7
370
    15
100
AcDbLine
 10
253.0226824021
 20
53.8572402345
 30
0.0
 11
252.9165991504
 21
53.7959797702
 31
0.0
  0
LINE
  5
190
330
1F
100
AcDbEntity
  8
0
  6
Continuous
 62
     7
370
    15
100
AcDbLine
 10
255.0506262478
 20
53.1020859417
 30
0.0
 11
255.0506262478
 21
53.2858076243
 31
0.0
  0
LINE
  5
191
330
1F
100
AcDbEntity
  8
0
  6
Continuous
 62
     7
370
    15
100
AcDbLine
 10
252.5506262478
 20
53.2858076243
 30
0.0
 11
252.5506262478
 21
53.1020859417
 31
0.0
  0
LINE
  5
192
330
1F
100
AcDbEntity
  8
0
  6
Continuous
 62
     7
370
    15
100
AcDbLine
 10
255.7457445197
 20
44.1206512506
 30
0.0
 11
255.8164437054
 21
44.1614782907
 31
0.0
  0
LINE
  5
193
330
1F
100
AcDbEntity
  8
0
  6
Continuous
 62
     7
370
    15
100
AcDbLine
 10
259.280703802
 20
50.1624030013
 30
0.0
 11
259.280703802
 21
50.2440438125
 31
0.0
  0
LINE
  5
194
330
1F
100
AcDbEntity
  8
0
  6
Continuous
 62
     7
370
    15
100
AcDbLine
 10
247.287998433
 20
47.3118983921
 30
0.0
 11
253.2453730645
 21
43.872779221
 31
0.0
  0
LINE
  5
195
330
1F
100
AcDbEntity
  8
0
  6
Continuous
 62
     7
370
    15
100
AcDbLine
 10
258.2449667276
 20
52.5332678448
 30
0.0
 11
252.2875920961
 21
55.9723870159
 31
0.0
  0
SPLINE
  5
196
330
1F
100
AcDbEntity
  8
0
  6
Continuous
 62
     7
370
    15
100
AcDbSpline
210
0.0
220
0.0
230
1.0
 70
     8
 71
     3
 72
    32
 73
    28
 74
     0
 42
0.000000001
 43
0.00000001
 40
0.0
 40
0.0
 40
0.0
 40
0.0
 40
0.0070488500623448
 40
0.0492628301747413
 40
0.0916005520062301
 40
0.1341419329600056
 40
0.1768830373138424
 40
0.2197906855883387
 40
0.2628191022430461
 40
0.3059234482679668
 40
0.34906720058691
 40
0.3922232689977443
 40
0.4353720336739009
 40
0.4785059503352978
 40
0.521621920424439
 40
0.5647197136490651
 40
0.6078008636977303
 40
0.65086794293119
 40
0.6939241097964362
 40
0.7369728403048723
 40
0.7800177779652655
 40
0.8230626559600898
 40
0.8661104588457889
 40
0.9091645442516769
 40
0.9522287389534541
 40
0.9953068322368098
 40
1.0
 40
1.0
 40
1.0
 40
1.0
 10
248.5426039714777
 20
66.61227046419735
 30
0.0
 10
248.5110997047257
 20
66.62167331886175
 30
0.0
 10
248.2909234590888
 20
66.68738775857788
 30
0.0
 10
247.8607023289063
 20
66.76139460138073
 30
0.0
 10
247.2435123653431
 20
66.80497377244293
 30
0.0
 10
246.6007885241778
 20
66.77451372222463
 30
0.0
 10
245.9378453240908
 20
66.67393709108765
 30
0.0
 10
245.2583264908719
 20
66.50254520157536
 30
0.0
 10
244.5667734154916
 20
66.26160518274807
 30
0.0
 10
243.8676872393153
 20
65.95260107430434
 30
0.0
 10
243.1656186745796
 20
65.57764592181837
 30
0.0
 10
242.4650496316561
 20
65.13928700193638
 30
0.0
 10
241.7703525058581
 20
64.6404635258079
 30
0.0
 10
241.0857771170462
 20
64.08444393101112
 30
0.0
 10
240.4154452450973
 20
63.47478472713249
 30
0.0
 10
239.763375659662
 20
62.81533001986704
 30
0.0
 10
239.1334737980149
 20
62.11019448609024
 30
0.0
 10
238.5295163241659
 20
61.36374480687775
 30
0.0
 10
237.9551340721987
 20
60.58057888358888
 30
0.0
 10
237.4137882361421
 20
59.76550143268799
 30
0.0
 10
236.9087656793273
 20
58.92349985642868
 30
0.0
 10
236.4431051940576
 20
58.05971220409516
 30
0.0
 10
236.0197902929385
 20
57.17942711497901
 30
0.0
 10
235.6409335523659
 20
56.28792805436834
 30
0.0
 10
235.310735255156
 20
55.39090397413595
 30
0.0
 10
235.1094608418072
 20
54.759625513231
 30
0.0
 10
235.0182649452268
 20
54.42937995297921
 30
0.0
 10
235.0093056330255
 20
54.39693580594695
 30
0.0
  0
SPLINE
  5
197
330
1F
100
AcDbEntity
  8
0
  6
Continuous
 62
     7
370
    15
100
AcDbSpline
210
0.0
220
0.0
230
1.0
 70
     8
 71
     3
 72
    20
 73
    16
 74
     0
 42
0.000000001
 43
0.00000001
 40
0.0
 40
0.0
 40
0.0
 40
0.0
 40
0.0793229226786868
 40
0.1617273552659086
 40
0.2445311586513936
 40
0.3276894879790999
 40
0.4111197805993655
 40
0.4947318228713898
 40
0.5784471053656012
 40
0.6622066039157749
 40
0.7459639987611231
 40
0.8296973437287559
 40
0.913397502469609
 40
0.997062047239177
 40
1.0
 40
1.0
 40
1.0
 40
1.0
 10
243.7666189108312
 20
41.0274466118774
 30
0.0
 10
243.9603998678004
 20
41.00012273410961
 30
0.0
 10
244.3554897184163
 20
40.94441350986818
 30
0.0
 10
244.9830601120842
 20
40.94934303482665
 30
0.0
 10
245.6376414610004
 20
41.0197526339805
 30
0.0
 10
246.31100758806
 20
41.16247114914259
 30
0.0
 10
246.9981184560489
 20
41.37487205991079
 30
0.0
 10
247.6946712861814
 20
41.65613228732716
 30
0.0
 10
248.3960489740648
 20
42.00426716964061
 30
0.0
 10
249.0978094668455
 20
42.41680840554479
 30
0.0
 10
249.7952992150542
 20
42.89145121930537
 30
0.0
 10
250.4850760003868
 20
43.42322331109107
 30
0.0
 10
251.1597639443513
 20
44.01553068003794
 30
0.0
 10
251.6126650723344
 20
44.43863945290558
 30
0.0
 10
251.8330610423838
 20
44.67573011027891
 30
0.0
 10
251.8405378815876
 20
44.68377330962372
 30
0.0
  0
LINE
  5
198
330
1F
100
AcDbEntity
  8
0
  6
Continuous
 62
     7
370
    15
100
AcDbLine
 10
256.835910512
 20
53.3466986838
 30
0.0
 11
256.8799546048
 21
53.5025089597
 31
0.0
  0
LINE
  5
199
330
1F
100
AcDbEntity
  8
0
  6
Continuous
 62
     7
370
    15
100
AcDbLine
 10
240.8621661966
 20
42.3758662896
 30
0.0
 11
242.2717604715
 21
41.5621248357
 31
0.0
  0
LINE
  5
19A
330
1F
100
AcDbEntity
  8
0
  6
Continuous
 62
     7
370
    15
100
AcDbLine
 10
241.7206494402
 20
64.5891980196
 30
0.0
 11
227.4647494876
 21
69.7264592782
 31
0.0
  0
LINE
  5
19B
330
1F
100
AcDbEntity
  8
0
  6
Continuous
 62
     7
370
    15
100
AcDbLine
 10
222.9638293201
 20
61.9297920823
 30
0.0
 11
237.3957489243
 21
49.7435984755
 31
0.0
  0
LINE
  5
19C
330
1F
100
AcDbEntity
  8
0
  6
Continuous
 62
     7
370
    15
100
AcDbLine
 10
237.0922032993
 20
44.5522195452
 30
0.0
 11
238.4841199047
 21
43.7486831927
 31
0.0
  0
SPLINE
  5
19D
330
1F
100
AcDbEntity
  8
0
  6
Continuous
 62
     7
370
    15
100
AcDbSpline
210
0.0
220
0.0
230
1.0
 70
     8
 71
     3
 72
    11
 73
     7
 74
     0
 42
0.000000001
 43
0.00000001
 40
0.0
 40
0.0
 40
0.0
 40
0.0
 40
0.1206489226261269
 40
0.4902543010640812
 40
0.8587458241516609
 40
1.0
 40
1.0
 40
1.0
 40
1.0
 10
235.0075157982537
 20
47.06029772246742
 30
0.0
 10
235.034937971845
 20
46.99270471462211
 30
0.0
 10
235.1463673841848
 20
46.71804198165508
 30
0.0
 10
235.3821397524133
 20
46.27624382025785
 30
0.0
 10
235.6504883101688
 20
45.85152274606381
 30
0.0
 10
235.8364394188974
 20
45.64195113301918
 30
0.0
 10
235.8879677999439
 20
45.58387734143325
 30
0.0
  0
SPLINE
  5
19E
330
1F
100
AcDbEntity
  8
0
  6
Continuous
 62
     7
370
    15
100
AcDbSpline
210
0.0
220
0.0
230
1.0
 70
     8
 71
     3
 72
    12
 73
     8
 74
     0
 42
0.000000001
 43
0.00000001
 40
0.0
 40
0.0
 40
0.0
 40
0.0
 40
0.1087733311250557
 40
0.3899898404620201
 40
0.67036495297842
 40
0.9493730563035919
 40
1.0
 40
1.0
 40
1.0
 40
1.0
 10
256.8640472829792
 20
60.63225627326415
 30
0.0
 10
256.8317368421899
 20
60.71251867648566
 30
0.0
 10
256.7158927881524
 20
61.00028702469839
 30
0.0
 10
256.4780157027577
 20
61.4582774532895
 30
0.0
 10
256.1312665501514
 20
61.97980774265507
 30
0.0
 10
255.8466368625992
 20
62.32040934401925
 30
0.0
 10
255.677234855681
 20
62.4835091404887
 30
0.0
 10
255.6512172767137
 20
62.50855879551587
 30
0.0
  0
SPLINE
  5
19F
330
1F
100
AcDbEntity
  8
0
  6
Continuous
 62
     7
370
    15
100
AcDbSpline
210
0.0
220
0.0
230
1.0
 70
     8
 71
     3
 72
    25
 73
    21
 74
     0
 42
0.000000001
 43
0.00000001
 40
0.0
 40
0.0
 40
0.0
 40
0.0
 40
0.0371502409909629
 40
0.0925891135035207
 40
0.1491830290001316
 40
0.2073143263058452
 40
0.2668201733164122
 40
0.3271914346649945
 40
0.3879070356665101
 40
0.4485728310463378
 40
0.509093605107586
 40
0.5694716790982595
 40
0.6297531997515474
 40
0.6900022719999592
 40
0.7502871760363531
 40
0.8106614082974576
 40
0.871201067492351
 40
0.9319787072603959
 40
0.9897463989178023
 40
1.0
 40
1.0
 40
1.0
 40
1.0
 10
227.4135932262226
 20
69.73539706271774
 30
0.0
 10
227.3328139976129
 20
69.762018163561
 30
0.0
 10
227.1314888657437
 20
69.82836562354554
 30
0.0
 10
226.7813303788472
 20
69.85339393877905
 30
0.0
 10
226.3742319676127
 20
69.82160704528272
 30
0.0
 10
225.9508024680849
 20
69.71656240109839
 30
0.0
 10
225.5178927337319
 20
69.54191256470514
 30
0.0
 10
225.0828376936488
 20
69.29878630518586
 30
0.0
 10
224.6545255172356
 20
68.99225214231669
 30
0.0
 10
224.2411268196971
 20
68.62880418151133
 30
0.0
 10
223.8497533569007
 20
68.21580473843457
 30
0.0
 10
223.4864659007901
 20
67.76070198701628
 30
0.0
 10
223.1567995725716
 20
67.27122657115957
 30
0.0
 10
222.8658577111365
 20
66.75538508213161
 30
0.0
 10
222.6183188765192
 20
66.22145288706969
 30
0.0
 10
222.4184087011454
 20
65.67784044716312
 30
0.0
 10
222.2696981420298
 20
65.13283972165549
 30
0.0
 10
222.1775619835143
 20
64.60461047263898
 30
0.0
 10
222.1499487388515
 20
64.23603501622513
 30
0.0
 10
222.1487578643187
 20
64.04710449083318
 30
0.0
 10
222.1485783506414
 20
64.01862490508
 30
0.0
  0
SPLINE
  5
1A0
330
1F
100
AcDbEntity
  8
0
  6
Continuous
 62
     7
370
    15
100
AcDbSpline
210
0.0
220
0.0
230
1.0
 70
     8
 71
     3
 72
    13
 73
     9
 74
     0
 42
0.000000001
 43
0.00000001
 40
0.0
 40
0.0
 40
0.0
 40
0.0
 40
0.1049210407738919
 40
0.3025199255982369
 40
0.5000225820926473
 40
0.6950324818161032
 40
0.8852445286567592
 40
1.0
 40
1.0
 40
1.0
 40
1.0
 10
222.1485783506414
 20
64.01862490508
 30
0.0
 10
222.1502901976556
 20
63.9290598644362
 30
0.0
 10
222.1552259839152
 20
63.67081605335771
 30
0.0
 10
222.2106671884341
 20
63.26629440352725
 30
0.0
 10
222.3353683738846
 20
62.82368311634504
 30
0.0
 10
222.5251837570029
 20
62.43353989661907
 30
0.0
 10
222.7346537668078
 20
62.13438638288035
 30
0.0
 10
222.9006598461137
 20
61.99526671467365
 30
0.0
 10
222.9631258621341
 20
61.94291771962904
 30
0.0
  0
LWPOLYLINE
  5
1A1
330
1F
100
AcDbEntity
  8
0
  6
Continuous
 62
     7
370
    15
100
AcDbPolyline
 90
       23
 70
   128
 43
0.0
 10
254.7479243042
 20
53.7310676429
 10
254.8670772103
 20
53.5639235697
 10
254.8998326018
 20
53.3841708887
 10
254.8435368317
 20
53.2063720931
 10
254.7027506486
 20
53.0449313839
 10
254.4888797117
 20
52.9129277272
 10
254.2192505723
 20
52.8210552742
 10
253.9157069798
 20
52.7767569847
 10
253.6028402308
 20
52.7836216427
 10
253.3059969286
 20
52.8410931143
 10
253.0492255522
 20
52.9445154028
 10
252.8533281914
 20
53.0855098494
 10
252.7341752853
 20
53.2526539225
 10
252.7014198938
 20
53.4324066035
 10
252.7577156638
 20
53.6102053991
 10
252.898501847
 20
53.7716461084
 10
253.1123727839
 20
53.9036497651
 10
253.3820019233
 20
53.9955222181
 10
253.6855455158
 20
54.0398205076
 10
253.9984122648
 20
54.0329558496
 10
254.295255567
 20
53.975484378
 10
254.5520269434
 20
53.8720620895
 10
254.7479243042
 20
53.7310676429
  0
LWPOLYLINE
  5
1A2
330
1F
100
AcDbEntity
  8
0
  6
Continuous
 62
     7
370
    15
100
AcDbPolyline
 90
       19
 70
   128
 43
0.0
 10
254.6846533452
 20
53.7959797702
 10
254.8771013119
 20
53.6526018252
 10
255.0086048296
 20
53.4713387217
 10
255.050518102
 20
53.2763156254
 10
254.9997326135
 20
53.0819965073
 10
254.8600148914
 20
52.9027931274
 10
254.64172716
 20
52.7519961805
 10
254.3610588217
 20
52.6407895864
 10
254.0388257632
 20
52.5774210294
 10
253.6989265363
 20
52.5665902655
 10
253.3665699118
 20
52.6091005629
 10
253.0664052601
 20
52.7017991273
 10
252.8206944201
 20
52.8378109303
 10
252.647660641
 20
53.0070485986
 10
252.5601370464
 20
53.1969605487
 10
252.5646148611
 20
53.3934618799
 10
252.6607619859
 20
53.5819789874
 10
252.8414476285
 20
53.7485304199
 10
252.9165991504
 20
53.7959797702
  0
LWPOLYLINE
  5
1A3
330
1F
100
AcDbEntity
  8
0
  6
Continuous
 62
     7
370
    15
100
AcDbPolyline
 90
       19
 70
   128
 43
0.0
 10
254.4465112862
 20
53.6283652667
 10
254.5379462888
 20
53.4875668861
 10
254.5404496128
 20
53.3372063919
 10
254.4537193203
 20
53.1954194787
 10
254.2882163646
 20
53.0793077407
 10
254.0639028448
 20
53.0028759672
 10
253.8078342819
 20
52.9753429581
 10
253.5508963236
 20
53.0000296007
 10
253.3240794798
 20
53.0739583214
 10
253.1547412093
 20
53.1882122256
 10
253.0633062068
 20
53.3290106061
 10
253.0608028828
 20
53.4793711004
 10
253.1475331753
 20
53.6211580136
 10
253.3130361309
 20
53.7372697516
 10
253.5373496508
 20
53.813701525
 10
253.7934182137
 20
53.8412345341
 10
254.050356172
 20
53.8165478916
 10
254.2771730158
 20
53.7426191708
 10
254.4465112862
 20
53.6283652667
  0
SPLINE
  5
1A4
330
1F
100
AcDbEntity
  8
0
  6
Continuous
 62
     7
370
    15
100
AcDbSpline
210
0.0
220
0.0
230
1.0
 70
     8
 71
     3
 72
    11
 73
     7
 74
     0
 42
0.000000001
 43
0.00000001
 40
0.0
 40
0.0
 40
0.0
 40
0.0
 40
0.1285561766306847
 40
0.4801535797843005
 40
0.8150691831754991
 40
1.0
 40
1.0
 40
1.0
 40
1.0
 10
254.1554468057847
 20
53.74796088054563
 30
0.0
 10
254.1702202899373
 20
53.72226357278146
 30
0.0
 10
254.2253988234601
 20
53.62628487586337
 30
0.0
 10
254.3288709321199
 20
53.48458562796196
 30
0.0
 10
254.4409093994861
 20
53.40807590949424
 30
0.0
 10
254.5009292257031
 20
53.39413433264165
 30
0.0
 10
254.5222807538782
 20
53.3891747386252
 30
0.0
  0
SPLINE
  5
1A5
330
1F
100
AcDbEntity
  8
0
  6
Continuous
 62
     7
370
    15
100
AcDbSpline
210
0.0
220
0.0
230
1.0
 70
     8
 71
     3
 72
    10
 73
     6
 74
     0
 42
0.000000001
 43
0.00000001
 40
0.0
 40
0.0
 40
0.0
 40
0.0
 40
0.4391119879276922
 40
0.7513633230734748
 40
1.0
 40
1.0
 40
1.0
 40
1.0
 10
253.4337922996997
 20
53.74395685107017
 30
0.0
 10
253.5371015424777
 20
53.70957745212245
 30
0.0
 10
253.7138737055977
 20
53.65075095649308
 30
0.0
 10
253.9708449589996
 20
53.67875963015193
 30
0.0
 10
254.0987483624105
 20
53.72670647142028
 30
0.0
 10
254.1554468057847
 20
53.74796088054563
 30
0.0
  0
SPLINE
  5
1A6
330
1F
100
AcDbEntity
  8
0
  6
Continuous
 62
     7
370
    15
100
AcDbSpline
210
0.0
220
0.0
230
1.0
 70
     8
 71
     3
 72
    10
 73
     6
 74
     0
 42
0.000000001
 43
0.00000001
 40
0.0
 40
0.0
 40
0.0
 40
0.0
 40
0.439111987927689
 40
0.7513633230734684
 40
1.0
 40
1.0
 40
1.0
 40
1.0
 10
253.0789717417083
 20
53.38116667967431
 30
0.0
 10
253.1297664680754
 20
53.39814970461295
 30
0.0
 10
253.2166811856123
 20
53.42720931219498
 30
0.0
 10
253.3430279107432
 20
53.58297680093102
 30
0.0
 10
253.4059150078022
 20
53.69451358484001
 30
0.0
 10
253.4337922996997
 20
53.74395685107017
 30
0.0
  0
SPLINE
  5
1A7
330
1F
100
AcDbEntity
  8
0
  6
Continuous
 62
     7
370
    15
100
AcDbSpline
210
0.0
220
0.0
230
1.0
 70
     8
 71
     3
 72
    10
 73
     6
 74
     0
 42
0.000000001
 43
0.00000001
 40
0.0
 40
0.0
 40
0.0
 40
0.0
 40
0.3313966838905091
 40
0.8209883470196507
 40
1.0
 40
1.0
 40
1.0
 40
1.0
 10
253.3443998514972
 20
53.06706118144882
 30
0.0
 10
253.3146339696143
 20
53.08466039471923
 30
0.0
 10
253.2408932131356
 20
53.12825995293476
 30
0.0
 10
253.1488511238527
 20
53.26006876162774
 30
0.0
 10
253.0937298856334
 20
53.3555914606509
 30
0.0
 10
253.0789717417083
 20
53.38116667967431
 30
0.0
  0
SPLINE
  5
1A8
330
1F
100
AcDbEntity
  8
0
  6
Continuous
 62
     7
370
    15
100
AcDbSpline
210
0.0
220
0.0
230
1.0
 70
     8
 71
     3
 72
     9
 73
     5
 74
     0
 42
0.000000001
 43
0.00000001
 40
0.0
 40
0.0
 40
0.0
 40
0.0
 40
0.5988986181995315
 40
1.0
 40
1.0
 40
1.0
 40
1.0
 10
254.5222807538782
 20
53.3891747386252
 30
0.0
 10
254.4711615107361
 20
53.30032332727007
 30
0.0
 10
254.3858060906554
 20
53.15196531031181
 30
0.0
 10
254.2955303173496
 20
53.0881912651137
 30
0.0
 10
254.2593205799336
 20
53.06261140746173
 30
0.0
  0
LINE
  5
1A9
330
1F
100
AcDbEntity
  8
0
  6
Continuous
 62
     7
370
    15
100
AcDbLine
 10
253.4337922997
 20
53.0306468855
 30
0.0
 11
253.4337922997
 21
53.7439568511
 31
0.0
  0
LINE
  5
1AA
330
1F
100
AcDbEntity
  8
0
  6
Continuous
 62
     7
370
    15
100
AcDbLine
 10
254.1554468058
 20
53.0268407317
 30
0.0
 11
254.1554468058
 21
53.7479608805
 31
0.0
  0
SPLINE
  5
1AB
330
1F
100
AcDbEntity
  8
0
  6
Continuous
 62
     7
370
    15
100
AcDbSpline
210
0.0
220
0.0
230
1.0
 70
     8
 71
     3
 72
    12
 73
     8
 74
     0
 42
0.000000001
 43
0.00000001
 40
0.0
 40
0.0
 40
0.0
 40
0.0
 40
0.2500000000000021
 40
0.2500000000000021
 40
0.5000000000000042
 40
0.5000000000000042
 40
1.0
 40
1.0
 40
1.0
 40
1.0
 10
240.2744743019143
 20
51.28283180273203
 30
0.0
 10
240.3081375478041
 20
51.26339842453091
 30
0.0
 10
240.345590325587
 20
51.23587151423501
 30
0.0
 10
240.4172323337627
 20
51.17495233107191
 30
0.0
 10
240.4509594927733
 20
51.14216313949441
 30
0.0
 10
240.5413302442866
 20
51.04518134792928
 30
0.0
 10
240.5860293571591
 20
50.98440623741698
 30
0.0
 10
240.6155028497387
 20
50.93224242389942
 30
0.0
  0
SPLINE
  5
1AC
330
1F
100
AcDbEntity
  8
0
  6
Continuous
 62
     7
370
    15
100
AcDbSpline
210
0.0
220
0.0
230
1.0
 70
     8
 71
     3
 72
    14
 73
    10
 74
     0
 42
0.000000001
 43
0.00000001
 40
0.0
 40
0.0
 40
0.0
 40
0.0
 40
0.25
 40
0.25
 40
0.5
 40
0.5
 40
0.75
 40
0.75
 40
1.0
 40
1.0
 40
1.0
 40
1.0
 10
253.9774029430899
 20
63.17690584262895
 30
0.0
 10
253.9774029430899
 20
63.21322697787088
 30
0.0
 10
253.973051910755
 20
63.25176660141865
 30
0.0
 10
253.955385609956
 20
63.33114303835831
 30
0.0
 10
253.9418788576562
 20
63.37242114616561
 30
0.0
 10
253.9055024325511
 20
63.4523505025691
 30
0.0
 10
253.8825116186121
 20
63.49133496708714
 30
0.0
 10
253.8276177369343
 20
63.55990536540282
 30
0.0
 10
253.7966157052038
 20
63.58802076073002
 30
0.0
 10
253.765270908734
 20
63.6061157265699
 30
0.0
  0
LINE
  5
1AD
330
1F
100
AcDbEntity
  8
0
  6
Continuous
 62
     7
370
    15
100
AcDbLine
 10
238.864880027
 20
52.0965732566
 30
0.0
 11
240.2744743019
 21
51.2828318027
 31
0.0
  0
LWPOLYLINE
  5
1AE
330
1F
100
AcDbEntity
  8
0
  6
Continuous
 62
     7
370
    15
100
AcDbPolyline
 90
       23
 70
   128
 43
0.0
 10
238.864880027
 20
52.0965732566
 10
239.1586992512
 20
53.0483720332
 10
239.5080795026
 20
54.0011655851
 10
239.9105780187
 20
54.9482922635
 10
240.3633806496
 20
55.8831300407
 10
240.8633215341
 20
56.7991428091
 10
241.4069052344
 20
57.6899260803
 10
241.990331175
 20
58.5492517628
 10
242.6095202155
 20
59.3711117072
 10
243.2601431705
 20
60.1497597135
 10
243.9376510779
 20
60.8797517065
 10
244.6373070041
 20
61.5559837997
 10
245.3542191632
 20
62.1737279795
 10
246.0833751188
 20
62.7286651626
 10
246.8196768295
 20
63.2169153933
 10
247.557976293
 20
63.6350649714
 10
248.2931115392
 20
63.9801903195
 10
249.0199427214
 20
64.2498784239
 10
249.7333880521
 20
64.4422437057
 10
250.4284593342
 20
64.5559412041
 10
251.1002968361
 20
64.5901759801
 10
251.74420327
 20
64.5447086743
 10
252.3556766338
 20
64.4198571805
  0
LINE
  5
1AF
330
1F
100
AcDbEntity
  8
0
  6
Continuous
 62
     7
370
    15
100
AcDbLine
 10
253.7652709087
 20
63.6061157266
 30
0.0
 11
252.3556766338
 21
64.4198571805
 31
0.0
  0
LINE
  5
1B0
330
1F
100
AcDbEntity
  8
0
  6
Continuous
 62
     7
370
    15
100
AcDbLine
 10
256.7323205799
 20
60.1623207704
 30
0.0
 11
256.8275232603
 21
60.3272166494
 31
0.0
  0
LINE
  5
1B1
330
1F
100
AcDbEntity
  8
0
  6
Continuous
 62
     7
370
    15
100
AcDbLine
 10
255.9396242609
 20
59.704706926
 30
0.0
 11
256.7323205799
 21
60.1623207704
 31
0.0
  0
ARC
  5
1B2
330
1F
100
AcDbEntity
  8
0
  6
Continuous
 62
     7
370
    15
100
AcDbCircle
 10
256.602111717
 20
58.66902235
 30
0.0
 40
1.229443846057821
100
AcDbArc
 50
122.60547834
 51
177.3945215143
  0
LINE
  5
1B3
330
1F
100
AcDbEntity
  8
0
  6
Continuous
 62
     7
370
    15
100
AcDbLine
 10
255.3739388359
 20
54.1906769678
 30
0.0
 11
255.3739388359
 21
58.7249110318
 31
0.0
  0
LINE
  5
1B4
330
1F
100
AcDbEntity
  8
0
  6
Continuous
 62
     7
370
    15
100
AcDbLine
 10
256.7323205799
 20
53.5891672347
 30
0.0
 11
256.5741088666
 21
53.4978335567
 31
0.0
  0
LINE
  5
1B5
330
1F
100
AcDbEntity
  8
0
  6
Continuous
 62
     7
370
    15
100
AcDbLine
 10
256.8275232603
 20
53.5341900308
 30
0.0
 11
256.7323205799
 21
53.5891672347
 31
0.0
  0
LINE
  5
1B6
330
1F
100
AcDbEntity
  8
0
  6
Continuous
 62
     7
370
    15
100
AcDbLine
 10
240.6470145601
 20
44.3033177244
 30
0.0
 11
240.6155028497
 21
44.2111639141
 31
0.0
  0
LINE
  5
1B7
330
1F
100
AcDbEntity
  8
0
  6
Continuous
 62
     7
370
    15
100
AcDbLine
 10
240.6470145601
 20
44.3033177244
 30
0.0
 11
242.4338847402
 21
45.3348559224
 31
0.0
  0
ARC
  5
1B8
330
1F
100
AcDbEntity
  8
0
  6
Continuous
 62
     7
370
    15
100
AcDbCircle
 10
241.7713972841
 20
46.3705404985
 30
0.0
 40
1.229443846057573
100
AcDbArc
 50
302.60547834
 51
357.3945215143
  0
LINE
  5
1B9
330
1F
100
AcDbEntity
  8
0
  6
Continuous
 62
     7
370
    15
100
AcDbLine
 10
242.9995701652
 20
51.5813400533
 30
0.0
 11
242.9995701652
 21
46.3146518167
 31
0.0
  0
ARC
  5
1BA
330
1F
100
AcDbEntity
  8
0
  6
Continuous
 62
     7
370
    15
100
AcDbCircle
 10
242.6547106712
 20
51.6372818108
 30
0.0
 40
0.3493673579427521
100
AcDbArc
 50
350.7859630095
 51
129.2032852357
  0
LINE
  5
1BB
330
1F
100
AcDbEntity
  8
0
  6
Continuous
 62
     7
370
    15
100
AcDbLine
 10
242.4338847402
 20
51.9080094581
 30
0.0
 11
240.6470145601
 21
50.87647126
 31
0.0
  0
LINE
  5
1BC
330
1F
100
AcDbEntity
  8
0
  6
Continuous
 62
     7
370
    15
100
AcDbLine
 10
240.6155028497
 20
50.9322424239
 30
0.0
 11
240.6470145601
 21
50.87647126
 31
0.0
  0
LINE
  5
1BD
330
1F
100
AcDbEntity
  8
0
  6
Continuous
 62
     7
370
    15
100
AcDbLine
 10
253.9774029431
 20
61.3481794313
 30
0.0
 11
253.9774029431
 21
63.1769058426
 31
0.0
  0
LINE
  5
1BE
330
1F
100
AcDbEntity
  8
0
  6
Continuous
 62
     7
370
    15
100
AcDbLine
 10
255.5610406837
 20
62.2623940393
 30
0.0
 11
253.9774029431
 21
61.3481794313
 31
0.0
  0
LWPOLYLINE
  5
1BF
330
1F
100
AcDbEntity
  8
0
  6
Continuous
 62
     7
370
    15
100
AcDbPolyline
 90
       48
 70
   128
 43
0.0
 10
252.3510573464
 20
46.1620032534
 10
252.3819722727
 20
46.7131378304
 10
252.4741653739
 20
47.2901310119
 10
252.6259914621
 20
47.882686341
 10
252.8347411971
 20
48.4802296537
 10
253.0966894349
 20
49.0720977756
 10
253.407161703
 20
49.6477288059
 10
253.7606176164
 20
50.1968505953
 10
254.1507497459
 20
50.7096640524
 10
254.5705961746
 20
51.1770180089
 10
255.0126647329
 20
51.5905725225
 10
255.4690666968
 20
51.942947703
 10
255.9316575627
 20
52.227855407
 10
256.3921823854
 20
52.4402114497
 10
256.8424230887
 20
52.5762263326
 10
257.2743451164
 20
52.6334728668
 10
257.6802408099
 20
52.6109294865
 10
258.0528669508
 20
52.5089984791
 10
258.3855740168
 20
52.3294988055
 10
258.6724248424
 20
52.0756336419
 10
258.9083005679
 20
51.751933218
 10
259.0889919854
 20
51.3641739756
 10
259.2112746522
 20
50.9192754876
 10
259.2729664312
 20
50.425176978
 10
259.2729664312
 20
49.8906956464
 10
259.2112746522
 20
49.3253693249
 10
259.0889919854
 20
48.739286275
 10
258.9083005679
 20
48.1429051627
 10
258.6724248424
 20
47.546868423
 10
258.3855740168
 20
46.9618123457
 10
258.0528669508
 20
46.3981772703
 10
257.6802408099
 20
45.8660212781
 10
257.2743451164
 20
45.3748407055
 10
256.8424230887
 20
44.9334006812
 10
256.3921823854
 20
44.5495787132
 10
255.9316575627
 20
44.2302241133
 10
255.4690666968
 20
43.9810357722
 10
255.0126647329
 20
43.8064604615
 10
254.5705961746
 20
43.7096134819
 10
254.1507497459
 20
43.69222307
 10
253.7606176164
 20
43.7545995582
 10
253.407161703
 20
43.8956298364
 10
253.0966894349
 20
44.1127972161
 10
252.8347411971
 20
44.4022263402
 10
252.6259914621
 20
44.7587523392
 10
252.4741653739
 20
45.1760129981
 10
252.3819722727
 20
45.6465622906
 10
252.3510573464
 20
46.1620032534
  0
LWPOLYLINE
  5
1C0
330
1F
100
AcDbEntity
  8
0
  6
Continuous
 62
     7
370
    15
100
AcDbPolyline
 90
       25
 70
   128
 43
0.0
 10
252.2096359901
 20
46.1620032534
 10
252.2398829728
 20
46.7123642797
 10
252.3301063866
 20
47.288230899
 10
252.4787624839
 20
47.879749874
 10
252.6833077176
 20
48.4768001509
 10
252.9402422621
 20
49.069166034
 10
253.2451698961
 20
49.6467119787
 10
253.5928732232
 20
50.1995560139
 10
253.9774029431
 20
50.7182388248
 10
254.3921796457
 20
51.1938856046
 10
254.8301063866
 20
51.6183579053
 10
255.2836901178
 20
51.9843928878
 10
255.7451698961
 20
52.2857275924
 10
256.2066496743
 20
52.5172060985
 10
256.6602334055
 20
52.6748677448
 10
257.0981601464
 20
52.7560148969
 10
257.512936849
 20
52.7592591043
 10
257.8974665689
 20
52.6845448579
 10
258.2451698961
 20
52.5331505392
 10
258.55009753
 20
52.3076665468
 10
258.8070320745
 20
52.0119509744
 10
259.0115773082
 20
51.6510635975
 10
259.1602334055
 20
51.231179299
 10
259.2504568193
 20
50.7594824159
 10
259.280703802
 20
50.2440438125
  0
LWPOLYLINE
  5
1C1
330
1F
100
AcDbEntity
  8
0
  6
Continuous
 62
     7
370
    15
100
AcDbPolyline
 90
       14
 70
   128
 43
0.0
 10
255.7457445197
 20
44.1206512506
 10
255.7451698961
 20
44.1203194735
 10
255.2836901178
 20
43.8888409674
 10
254.8301063866
 20
43.7311793211
 10
254.3921796457
 20
43.650032169
 10
253.9774029431
 20
43.6467879616
 10
253.5928732232
 20
43.721502208
 10
253.2451698961
 20
43.8728965267
 10
252.9402422621
 20
44.0983805191
 10
252.6833077176
 20
44.3940960915
 10
252.4787624839
 20
44.7549834684
 10
252.3301063866
 20
45.1748677668
 10
252.2398829728
 20
45.64656465
 10
252.2096359901
 20
46.1620032534
  0
SPLINE
  5
1C2
330
1F
100
AcDbEntity
  8
0
  6
Continuous
 62
     7
370
    15
100
AcDbSpline
210
0.0
220
0.0
230
1.0
 70
     8
 71
     3
 72
    38
 73
    34
 74
     0
 42
0.000000001
 43
0.00000001
 40
0.0
 40
0.0
 40
0.0
 40
0.0
 40
0.0625
 40
0.0625
 40
0.125
 40
0.125
 40
0.1875
 40
0.1875
 40
0.2500000000000001
 40
0.2500000000000001
 40
0.3125000000000001
 40
0.3125000000000001
 40
0.375
 40
0.375
 40
0.4375
 40
0.4375
 40
0.5
 40
0.5
 40
0.5625
 40
0.5625
 40
0.625
 40
0.625
 40
0.6875
 40
0.6875
 40
0.7499999999999999
 40
0.7499999999999999
 40
0.8124999999999999
 40
0.8124999999999999
 40
0.8749999999999999
 40
0.8749999999999999
 40
0.9374999999999999
 40
0.9374999999999999
 40
1.0
 40
1.0
 40
1.0
 40
1.0
 10
254.9496747672214
 20
52.74495715527494
 30
0.0
 10
254.8791221823514
 20
52.70422801497363
 30
0.0
 10
254.8000365669992
 20
52.66605597576347
 30
0.0
 10
254.6274183385356
 20
52.59645900027989
 30
0.0
 10
254.5365483816372
 20
52.56603624541192
 30
0.0
 10
254.3464070645876
 20
52.51391593288842
 30
0.0
 10
254.2475600525276
 20
52.49248441178306
 30
0.0
 10
254.0501408776219
 20
52.46056946579479
 30
0.0
 10
253.949587527364
 20
52.4497625414167
 30
0.0
 10
253.7517126398924
 20
52.43962918809802
 30
0.0
 10
253.6545577960379
 20
52.44018679547615
 30
0.0
 10
253.4634195018608
 20
52.45297999096741
 30
0.0
 10
253.369445230445
 20
52.46536877933317
 30
0.0
 10
253.1910129458277
 20
52.50158991138465
 30
0.0
 10
253.105659599541
 20
52.52545012408417
 30
0.0
 10
252.9426286204482
 20
52.58531266117926
 30
0.0
 10
252.865786466698
 20
52.62114464267458
 30
0.0
 10
252.7251191241232
 20
52.70260327164465
 30
0.0
 10
252.6606428648632
 20
52.74845521032416
 30
0.0
 10
252.5438088652846
 20
52.8505341117982
 30
0.0
 10
252.4922900632407
 20
52.90618560874058
 30
0.0
 10
252.4052826988397
 20
53.02344641906958
 30
0.0
 10
252.3693556467476
 20
53.08541759585227
 30
0.0
 10
252.313726598598
 20
53.21560954748439
 30
0.0
 10
252.2945812317263
 20
53.28286876643445
 30
0.0
 10
252.274970730933
 20
53.41756257187356
 30
0.0
 10
252.2742664521467
 20
53.48547633723504
 30
0.0
 10
252.293482681319
 20
53.62143000499463
 30
0.0
 10
252.3133426874653
 20
53.68792465525058
 30
0.0
 10
252.3741108328382
 20
53.81390121128563
 30
0.0
 10
252.4159229905459
 20
53.87455368558997
 30
0.0
 10
252.5190802432102
 20
53.9825981553405
 30
0.0
 10
252.5802538021634
 20
54.03044591081288
 30
0.0
 10
252.6515777283651
 20
54.07162033698685
 30
0.0
  0
SPLINE
  5
1C3
330
1F
100
AcDbEntity
  8
0
  6
Continuous
 62
     7
370
    15
100
AcDbSpline
210
0.0
220
0.0
230
1.0
 70
     8
 71
     3
 72
    32
 73
    28
 74
     0
 42
0.000000001
 43
0.00000001
 40
0.0
 40
0.0
 40
0.0
 40
0.0
 40
0.0625000000000007
 40
0.0625000000000007
 40
0.1250000000000014
 40
0.1250000000000014
 40
0.1875000000000022
 40
0.1875000000000022
 40
0.2500000000000029
 40
0.2500000000000029
 40
0.3750000000000035
 40
0.3750000000000035
 40
0.5000000000000041
 40
0.5000000000000041
 40
0.6250000000000048
 40
0.6250000000000048
 40
0.6875000000000041
 40
0.6875000000000041
 40
0.7500000000000033
 40
0.7500000000000033
 40
0.8125000000000026
 40
0.8125000000000026
 40
0.8750000000000018
 40
0.8750000000000018
 40
0.9375000000000009
 40
0.9375000000000009
 40
1.0
 40
1.0
 40
1.0
 40
1.0
 10
252.6515777283651
 20
54.07162033698685
 30
0.0
 10
252.7229827896077
 20
54.1128416014229
 30
0.0
 10
252.8027753868122
 20
54.14612103794733
 30
0.0
 10
252.9741380251846
 20
54.19617706578515
 30
0.0
 10
253.0672097826809
 20
54.21321571421461
 30
0.0
 10
253.257219107252
 20
54.23134608867412
 30
0.0
 10
253.3558019216713
 20
54.23278194340703
 30
0.0
 10
253.5550786901644
 20
54.22245961255058
 30
0.0
 10
253.6546134108971
 20
54.21087766955295
 30
0.0
 10
253.9532199758219
 20
54.16015589001407
 30
0.0
 10
254.1432980347817
 20
54.10710807367711
 30
0.0
 10
254.5035478256896
 20
53.97561942490449
 30
0.0
 10
254.6656052710176
 20
53.90004777527773
 30
0.0
 10
254.9496665124009
 20
53.73545735155034
 30
0.0
 10
255.0657206477856
 20
53.64989692682155
 30
0.0
 10
255.197342069235
 20
53.5157492352536
 30
0.0
 10
255.2329593431808
 20
53.47109040454105
 30
0.0
 10
255.2876904080916
 20
53.38086670383519
 30
0.0
 10
255.3068795900469
 20
53.33502701637077
 30
0.0
 10
255.3264782933322
 20
53.2422610831557
 30
0.0
 10
255.3267905709046
 20
53.19631104559318
 30
0.0
 10
255.3076399987396
 20
53.10398254920096
 30
0.0
 10
255.2878180899224
 20
53.0570493372723
 30
0.0
 10
255.2265353700587
 20
52.96408061262543
 30
0.0
 10
255.18582926173
 20
52.91878516663579
 30
0.0
 10
255.083280093672
 20
52.8298581450309
 30
0.0
 10
255.0203076096874
 20
52.78573262730021
 30
0.0
 10
254.9496747672214
 20
52.74495715527494
 30
0.0
  0
ARC
  5
1C4
330
1F
100
AcDbEntity
  8
0
  6
Continuous
 62
     7
370
    15
100
AcDbCircle
 10
253.7555011355
 20
44.9470916616
 30
0.0
 40
0.4510551675024611
100
AcDbArc
 50
173.8039352909
 51
288.0938669718
  0
LWPOLYLINE
  5
1C5
330
1F
100
AcDbEntity
  8
0
  6
Continuous
 62
     7
370
    15
100
AcDbPolyline
 90
       10
 70
   128
 43
0.0
 10
257.7361736971
 20
46.7354648785
 10
257.3626148055
 20
46.1994554799
 10
256.9496940317
 20
45.7133948313
 10
256.507919541
 20
45.2896523895
 10
256.0485337789
 20
44.9390117135
 10
255.5832273694
 20
44.6703960409
 10
255.1238416074
 20
44.4906412058
 10
254.6820671166
 20
44.4043216776
 10
254.2691463429
 20
44.4136341487
 10
253.8955874512
 20
44.5183416316
  0
ARC
  5
1C6
330
1F
100
AcDbEntity
  8
0
  6
Continuous
 62
     7
370
    15
100
AcDbCircle
 10
256.5837024413
 20
48.0498519947
 30
0.0
 40
1.748085663338573
100
AcDbArc
 50
311.2446942589
 51
354.8314148768
  0
ARC
  5
1C7
330
1F
100
AcDbEntity
  8
0
  6
Continuous
 62
     7
370
    15
100
AcDbCircle
 10
254.9792148723
 20
49.6105023738
 30
0.0
 40
3.760865234062077
100
AcDbArc
 50
332.8163458041
 51
27.1836541959
  0
ARC
  5
1C8
330
1F
100
AcDbEntity
  8
0
  6
Continuous
 62
     7
370
    15
100
AcDbCircle
 10
257.8762600129
 20
51.3773145931
 30
0.0
 40
0.4510551675024719
100
AcDbArc
 50
353.8039352909
 51
108.0938669718
  0
LWPOLYLINE
  5
1C9
330
1F
100
AcDbEntity
  8
0
  6
Continuous
 62
     7
370
    15
100
AcDbPolyline
 90
       10
 70
   128
 43
0.0
 10
253.8955874512
 20
49.5889413762
 10
254.2691463429
 20
50.1249507748
 10
254.6820671166
 20
50.6110114234
 10
255.1238416074
 20
51.0347538653
 10
255.5832273694
 20
51.3853945412
 10
256.0485337789
 20
51.6540102138
 10
256.507919541
 20
51.8337650489
 10
256.9496940317
 20
51.9200845771
 10
257.3626148055
 20
51.9107721061
 10
257.7361736971
 20
51.8060646231
  0
ARC
  5
1CA
330
1F
100
AcDbEntity
  8
0
  6
Continuous
 62
     7
370
    15
100
AcDbCircle
 10
255.048058707
 20
48.2745542601
 30
0.0
 40
1.748085663338657
100
AcDbArc
 50
131.2446942589
 51
174.8314148768
  0
ARC
  5
1CB
330
1F
100
AcDbEntity
  8
0
  6
Continuous
 62
     7
370
    15
100
AcDbCircle
 10
256.652546276
 20
46.7139038809
 30
0.0
 40
3.7608652340619
100
AcDbArc
 50
152.8163458041
 51
207.1836541959
  0
SPLINE
  5
1CC
330
1F
100
AcDbEntity
  8
0
  6
Continuous
 62
     7
370
    15
100
AcDbSpline
210
0.0
220
0.0
230
1.0
 70
     8
 71
     3
 72
     8
 73
     4
 74
     0
 42
0.000000001
 43
0.00000001
 40
0.0
 40
0.0
 40
0.0
 40
0.0
 40
1.0
 40
1.0
 40
1.0
 40
1.0
 10
237.8285332088167
 20
53.27428860046797
 30
0.0
 10
237.4856665998105
 20
53.21499651502293
 30
0.0
 10
237.1425476427307
 20
53.15617971054154
 30
0.0
 10
236.7992454406043
 20
53.09774109167794
 30
0.0
  0
SPLINE
  5
1CD
330
1F
100
AcDbEntity
  8
0
  6
Continuous
 62
     7
370
    15
100
AcDbSpline
210
0.0
220
0.0
230
1.0
 70
     8
 71
     3
 72
     8
 73
     4
 74
     0
 42
0.000000001
 43
0.00000001
 40
0.0
 40
0.0
 40
0.0
 40
0.0
 40
0.0011140524372172
 40
0.0011140524372172
 40
0.0011140524372172
 40
0.0011140524372172
 10
236.4868337350777
 20
53.4693901597635
 30
0.0
 10
236.591443086465
 20
53.34536316973425
 30
0.0
 10
236.6955993390665
 20
53.22147211933953
 30
0.0
 10
236.7992454406043
 20
53.09774109167794
 30
0.0
  0
LWPOLYLINE
  5
1CE
330
1F
100
AcDbEntity
  8
0
  6
Continuous
 62
     7
370
    15
100
AcDbPolyline
 90
       23
 70
   128
 43
0.0
 10
236.4868337351
 20
53.4693901598
 10
236.7806529592
 20
54.4211889363
 10
237.1300332107
 20
55.3739824882
 10
237.5325317268
 20
56.3211091666
 10
237.9853343576
 20
57.2559469438
 10
238.4852752421
 20
58.1719597122
 10
239.0288589424
 20
59.0627429834
 10
239.612284883
 20
59.9220686659
 10
240.2314739236
 20
60.7439286103
 10
240.8820968785
 20
61.5225766166
 10
241.5596047859
 20
62.2525686097
 10
242.2592607121
 20
62.9288007028
 10
242.9761728712
 20
63.5465448827
 10
243.7053288269
 20
64.1014820657
 10
244.4416305376
 20
64.5897322964
 10
245.1799300011
 20
65.0078818745
 10
245.9150652473
 20
65.3530072226
 10
246.6418964294
 20
65.622695327
 10
247.3553417602
 20
65.8150606088
 10
248.0504130423
 20
65.9287581073
 10
248.7222505441
 20
65.9629928832
 10
249.3661569781
 20
65.9175255774
 10
249.9776303419
 20
65.7926740836
  0
LINE
  5
1CF
330
1F
100
AcDbEntity
  8
0
  6
Continuous
 62
     7
370
    15
100
AcDbLine
 10
250.3847808886
 20
64.5143607808
 30
0.0
 11
249.9776303419
 21
65.7926740836
 31
0.0
  0
LWPOLYLINE
  5
1D0
330
1F
100
AcDbEntity
  8
0
  6
Continuous
 62
     7
370
    15
100
AcDbPolyline
 90
       22
 70
   128
 43
0.0
 10
237.8285332088
 20
53.2742886005
 10
238.1058692114
 20
54.1704594927
 10
238.4378930815
 20
55.0673695119
 10
238.8220600268
 20
55.9581443037
 10
239.2554256052
 20
56.8359565368
 10
239.734668292
 20
57.6940782316
 10
240.2561149383
 20
58.5259323261
 10
240.8157689235
 20
59.3251430863
 10
241.4093407874
 20
60.0855849722
 10
242.0322811066
 20
60.8014295875
 10
242.6798153636
 20
61.467190351
 10
243.3469805411
 20
62.0777645486
 10
244.0286631608
 20
62.6284724428
 10
244.7196384756
 20
63.1150931404
 10
245.4146105148
 20
63.533896944
 10
246.1082526748
 20
63.8816739374
 10
246.7952485449
 20
64.1557585889
 10
247.4703326546
 20
64.3540501802
 10
248.1283308312
 20
64.4750289083
 10
248.7641998567
 20
64.5177675334
 10
249.3730661217
 20
64.4819384859
 10
249.6832393375
 20
64.4311580271
  0
LINE
  5
1D1
330
1F
100
AcDbEntity
  8
0
  6
Continuous
 62
     7
370
    15
100
AcDbLine
 10
235.0949171297
 20
54.2729265123
 30
0.0
 11
236.4868337351
 21
53.4693901598
 31
0.0
  0
LINE
  5
1D2
330
1F
100
AcDbEntity
  8
0
  6
Continuous
 62
     7
370
    15
100
AcDbLine
 10
249.9776303419
 20
65.7926740836
 30
0.0
 11
248.5857137365
 21
66.5962104361
 31
0.0
  0
LINE
  5
1D3
330
1F
100
AcDbEntity
  8
0
  6
Continuous
 62
     7
370
    15
100
AcDbLine
 10
239.0613746887
 20
52.7522879905
 30
0.0
 11
238.1966109333
 21
53.2515054804
 31
0.0
  0
SPLINE
  5
1D4
330
1F
100
AcDbEntity
  8
0
  6
Continuous
 62
     7
370
    15
100
AcDbSpline
210
0.0
220
0.0
230
1.0
 70
     8
 71
     3
 72
    12
 73
     8
 74
     0
 42
0.000000001
 43
0.00000001
 40
0.0
 40
0.0
 40
0.0
 40
0.0
 40
0.25
 40
0.25
 40
0.5
 40
0.5
 40
1.0
 40
1.0
 40
1.0
 40
1.0
 10
238.1966109333071
 20
53.25150548036763
 30
0.0
 10
238.1732775550708
 20
53.26497555290486
 30
0.0
 10
238.1454964147106
 20
53.27614905575646
 30
0.0
 10
238.0846531859918
 20
53.2922976458586
 30
0.0
 10
238.0527678529306
 20
53.29712803388446
 30
0.0
 10
237.9530337806636
 20
53.30252742171633
 30
0.0
 10
237.8862025770024
 20
53.29341875408108
 30
0.0
 10
237.8285332088167
 20
53.27428860046797
 30
0.0
  0
SPLINE
  5
1D5
330
1F
100
AcDbEntity
  8
0
  6
Continuous
 62
     7
370
    15
100
AcDbSpline
210
0.0
220
0.0
230
1.0
 70
     8
 71
     3
 72
     8
 73
     4
 74
     0
 42
0.000000001
 43
0.00000001
 40
0.0
 40
0.0
 40
0.0
 40
0.0
 40
1.0
 40
1.0
 40
1.0
 40
1.0
 10
257.5007302135322
 20
51.75165680509923
 30
0.0
 10
257.5818181510438
 20
51.77759053394971
 30
0.0
 10
257.6602859365865
 20
51.79591888646842
 30
0.0
 10
257.7361736971118
 20
51.80606462311773
 30
0.0
  0
SPLINE
  5
1D6
330
1F
100
AcDbEntity
  8
0
  6
Continuous
 62
     7
370
    15
100
AcDbSpline
210
0.0
220
0.0
230
1.0
 70
     8
 71
     3
 72
     8
 73
     4
 74
     0
 42
0.000000001
 43
0.00000001
 40
0.0
 40
0.0
 40
0.0
 40
0.0
 40
1.0
 40
1.0
 40
1.0
 40
1.0
 10
257.1441059815229
 20
51.6337395507571
 30
0.0
 10
257.2620478193662
 20
51.67412653624913
 30
0.0
 10
257.3809852067404
 20
51.71335968431115
 30
0.0
 10
257.5007302135322
 20
51.75165680509923
 30
0.0
  0
ARC
  5
1D7
330
1F
100
AcDbEntity
  8
0
  6
Continuous
 62
     7
370
    15
100
AcDbCircle
 10
257.1708286395
 20
48.2340888531
 30
0.0
 40
3.399755721593155
100
AcDbArc
 50
90.4503592053
 51
149.544264262
  0
SPLINE
  5
1D8
330
1F
100
AcDbEntity
  8
0
  6
Continuous
 62
     7
370
    15
100
AcDbSpline
210
0.0
220
0.0
230
1.0
 70
     8
 71
     3
 72
     8
 73
     4
 74
     0
 42
0.000000001
 43
0.00000001
 40
0.0
 40
0.0
 40
0.0
 40
0.0
 40
1.0
 40
1.0
 40
1.0
 40
1.0
 10
254.0359069857182
 20
49.7514569311336
 30
0.0
 10
254.1022542572111
 20
49.82059209276787
 30
0.0
 10
254.1702164065214
 20
49.88925362088057
 30
0.0
 10
254.2401677934116
 20
49.95733171810452
 30
0.0
  0
SPLINE
  5
1D9
330
1F
100
AcDbEntity
  8
0
  6
Continuous
 62
     7
370
    15
100
AcDbSpline
210
0.0
220
0.0
230
1.0
 70
     8
 71
     3
 72
     8
 73
     4
 74
     0
 42
0.000000001
 43
0.00000001
 40
0.0
 40
0.0
 40
0.0
 40
0.0
 40
1.0
 40
1.0
 40
1.0
 40
1.0
 10
253.895587451238
 20
49.58894137617008
 30
0.0
 10
253.9441440876616
 20
49.65063586071725
 30
0.0
 10
253.9909835821751
 20
49.70464586120979
 30
0.0
 10
254.0359069857182
 20
49.7514569311336
 30
0.0
  0
SPLINE
  5
1DA
330
1F
100
AcDbEntity
  8
0
  6
Continuous
 62
     7
370
    15
100
AcDbSpline
210
0.0
220
0.0
230
1.0
 70
     8
 71
     3
 72
    10
 73
     6
 74
     0
 42
0.000000001
 43
0.00000001
 40
0.0
 40
0.0
 40
0.0
 40
0.0
 40
0.5
 40
0.5
 40
1.0
 40
1.0
 40
1.0
 40
1.0
 10
234.9916938549325
 20
54.30050641403685
 30
0.0
 10
235.0007253380739
 20
54.30479124748611
 30
0.0
 10
235.0136995395289
 20
54.3053096606869
 30
0.0
 10
235.0484879048843
 20
54.29656046553738
 30
0.0
 10
235.0700297609739
 20
54.28729368444761
 30
0.0
 10
235.0949171297228
 20
54.27292651228271
 30
0.0
  0
LINE
  5
1DB
330
1F
100
AcDbEntity
  8
0
  6
Continuous
 62
     7
370
    15
100
AcDbLine
 10
234.9916938549
 20
54.300506414
 30
0.0
 11
235.0114874188
 21
54.396396859
 31
0.0
  0
SPLINE
  5
1DC
330
1F
100
AcDbEntity
  8
0
  6
Continuous
 62
     7
370
    15
100
AcDbSpline
210
0.0
220
0.0
230
1.0
 70
     8
 71
     3
 72
     8
 73
     4
 74
     0
 42
0.000000001
 43
0.00000001
 40
0.0
 40
0.0
 40
0.0
 40
0.0
 40
1.0
 40
1.0
 40
1.0
 40
1.0
 10
253.3070808611322
 20
44.99577453003758
 30
0.0
 10
253.2930375714234
 20
45.05942903097267
 30
0.0
 10
253.2826537200831
 20
45.1262097311417
 30
0.0
 10
253.2756625903557
 20
45.19602371124356
 30
0.0
  0
ARC
  5
1DD
330
1F
100
AcDbEntity
  8
0
  6
Continuous
 62
     7
370
    15
100
AcDbCircle
 10
256.613552189
 20
46.7385949517
 30
0.0
 40
3.677095729575059
100
AcDbArc
 50
155.1964677926
 51
204.8035322074
  0
SPLINE
  5
1DE
330
1F
100
AcDbEntity
  8
0
  6
Continuous
 62
     7
370
    15
100
AcDbSpline
210
0.0
220
0.0
230
1.0
 70
     8
 71
     3
 72
     8
 73
     4
 74
     0
 42
0.000000001
 43
0.00000001
 40
0.0
 40
0.0
 40
0.0
 40
0.0
 40
1.0
 40
1.0
 40
1.0
 40
1.0
 10
253.2756625903557
 20
48.28116619212353
 30
0.0
 10
253.2826537200831
 20
48.32715041087489
 30
0.0
 10
253.2930375714234
 20
48.3774137537382
 30
0.0
 10
253.3070808611322
 20
48.43203323182547
 30
0.0
  0
LINE
  5
1DF
330
1F
100
AcDbEntity
  8
0
  6
Continuous
 62
     7
370
    15
100
AcDbLine
 10
240.6470145601
 20
50.87647126
 30
0.0
 11
238.8732847692
 21
51.9004236729
 31
0.0
  0
SPLINE
  5
1E0
330
1F
100
AcDbEntity
  8
0
  6
Continuous
 62
     7
370
    15
100
AcDbSpline
210
0.0
220
0.0
230
1.0
 70
     8
 71
     3
 72
     8
 73
     4
 74
     0
 42
0.000000001
 43
0.00000001
 40
0.0
 40
0.0
 40
0.0
 40
0.0
 40
0.0011140524372172
 40
0.0011140524372172
 40
0.0011140524372172
 40
0.0011140524372172
 10
238.8732847692158
 20
51.90042367288832
 30
0.0
 10
238.8697714713035
 20
51.96634926344025
 30
0.0
 10
238.8669938566964
 20
52.03171567185288
 30
0.0
 10
238.8648800270297
 20
52.09657325664902
 30
0.0
  0
LWPOLYLINE
  5
1E1
330
1F
100
AcDbEntity
  8
0
  6
Continuous
 62
     7
370
    15
100
AcDbPolyline
 90
       25
 70
   128
 43
0.0
 10
255.8584609134
 20
51.2833782064
 10
256.0083329667
 20
51.279299649
 10
256.3005629056
 20
51.2117109236
 10
256.552821046
 20
51.0660380585
 10
256.7574426521
 20
50.84670725
 10
256.9082103998
 20
50.5603827538
 10
257.0005432876
 20
50.2157643947
 10
257.0316358272
 20
49.8233232272
 10
257.0005432876
 20
49.3949833776
 10
256.9082103998
 20
48.9437597355
 10
256.7574426521
 20
48.483362503
 10
256.552821046
 20
48.0277806168
 10
256.3005629056
 20
47.5908567023
 10
256.0083329667
 20
47.1858664713
 10
255.6850104883
 20
46.8251153471
 10
255.3404194601
 20
46.5195645701
 10
254.9850301063
 20
46.278498146
 10
254.6296407524
 20
46.1092407561
 10
254.2850497243
 20
46.0169352006
 10
253.9617272458
 20
46.0043861371
 10
253.669497307
 20
46.0719748625
 10
253.4172391665
 20
46.2176477276
 10
253.2126175605
 20
46.4369785361
 10
253.0618498127
 20
46.7233030323
 10
252.9727961069
 20
47.0488900058
  0
LINE
  5
1E2
330
1F
100
AcDbEntity
  8
0
  6
Continuous
 62
     7
370
    15
100
AcDbLine
 10
253.2526184924
 20
45.0798461588
 30
0.0
 11
254.3856163302
 21
45.7339118884
 31
0.0
  0
LINE
  5
1E3
330
1F
100
AcDbEntity
  8
0
  6
Continuous
 62
     7
370
    15
100
AcDbLine
 10
257.488153543
 20
51.6294365354
 30
0.0
 11
257.4951881221
 21
51.7667688115
 31
0.0
  0
ARC
  5
1E4
330
1F
100
AcDbEntity
  8
0
  6
Continuous
 62
     7
370
    15
100
AcDbCircle
 10
254.1502639444
 20
50.0868652949
 30
0.0
 40
3.677095729575321
100
AcDbArc
 50
335.1964677926
 51
24.8035322074
  0
ARC
  5
1E5
330
1F
100
AcDbEntity
  8
0
  6
Continuous
 62
     7
370
    15
100
AcDbCircle
 10
255.8419426563
 20
48.4758252591
 30
0.0
 40
1.647634140084772
100
AcDbArc
 50
302.0978909557
 51
2.3816591776
  0
LINE
  5
1E6
330
1F
100
AcDbEntity
  8
0
  6
Continuous
 62
     7
370
    15
100
AcDbLine
 10
255.5844438824
 20
46.4259803032
 30
0.0
 11
256.7174417202
 21
47.0800460327
 31
0.0
  0
ARC
  5
1E7
330
1F
100
AcDbEntity
  8
0
  6
Continuous
 62
     7
370
    15
100
AcDbCircle
 10
253.5063224852
 20
48.6414203661
 30
0.0
 40
3.037558758884431
100
AcDbArc
 50
286.8264591401
 51
313.1681643272
  0
LINE
  5
1E8
330
1F
100
AcDbEntity
  8
0
  6
Continuous
 62
     7
370
    15
100
AcDbLine
 10
256.9760213741
 20
51.5367063723
 30
0.0
 11
257.1441059815
 21
51.6337395508
 31
0.0
  0
ARC
  5
1E9
330
1F
100
AcDbEntity
  8
0
  6
Continuous
 62
     7
370
    15
100
AcDbCircle
 10
257.1708325908
 20
48.2340820085
 30
0.0
 40
3.308365018965429
100
AcDbArc
 50
93.3757825808
 51
146.6188408865
  0
LINE
  5
1EA
330
1F
100
AcDbEntity
  8
0
  6
Continuous
 62
     7
370
    15
100
AcDbLine
 10
254.2401677934
 20
49.9573317181
 30
0.0
 11
254.4082524008
 21
50.0543648966
 31
0.0
  0
SPLINE
  5
1EB
330
1F
100
AcDbEntity
  8
0
  6
Continuous
 62
     7
370
    15
100
AcDbSpline
210
0.0
220
0.0
230
1.0
 70
     8
 71
     3
 72
    11
 73
     7
 74
     0
 42
0.000000001
 43
0.00000001
 40
0.0
 40
0.0
 40
0.0
 40
0.0
 40
0.2144878398029917
 40
0.4603137530149169
 40
0.7299570654421712
 40
1.0
 40
1.0
 40
1.0
 40
1.0
 10
256.2132072624323
 20
51.47277758957911
 30
0.0
 10
256.267024981528
 20
51.47980867984199
 30
0.0
 10
256.3825235397606
 20
51.4948981485488
 30
0.0
 10
256.5679243010953
 20
51.51233373245638
 30
0.0
 10
256.7683893061097
 20
51.52711585636509
 30
0.0
 10
256.9067765275144
 20
51.53350795593145
 30
0.0
 10
256.9760213740937
 20
51.5367063722975
 30
0.0
  0
LWPOLYLINE
  5
1EC
330
1F
100
AcDbEntity
  8
0
  6
Continuous
 62
     7
370
    15
100
AcDbPolyline
 90
       23
 70
   128
 43
0.0
 10
255.7915811211
 20
51.2487788171
 10
255.8794966371
 20
51.2363330441
 10
256.1520548956
 20
51.1426806302
 10
256.3814222687
 20
50.9719292372
 10
256.5602267003
 20
50.7295669555
 10
256.6827212689
 20
50.4233835083
 10
256.7449688982
 20
50.0632198833
 10
256.7449688982
 20
49.6606520359
 10
256.6827212689
 20
49.228618828
 10
256.5602267003
 20
48.7810061622
 10
256.3814222687
 20
48.3322006781
 10
256.1520548956
 20
47.896627353
 10
255.8794966371
 20
47.4882858722
 10
255.5725077399
 20
47.1203006667
 10
255.2409550797
 20
46.8044990838
 10
254.8954950319
 20
46.5510312463
 10
254.5472309666
 20
46.368043819
 10
254.2073563774
 20
46.2614181684
 10
253.8867951133
 20
46.2345813306
 10
253.595850277
 20
46.2883958637
 10
253.3438730751
 20
46.4211321243
 10
253.138962262
 20
46.6285238598
 10
253.0349919285
 20
46.7987183385
  0
SPLINE
  5
1ED
330
1F
100
AcDbEntity
  8
0
  6
Continuous
 62
     7
370
    15
100
AcDbSpline
210
0.0
220
0.0
230
1.0
 70
     8
 71
     3
 72
     8
 73
     4
 74
     0
 42
0.000000001
 43
0.00000001
 40
0.0
 40
0.0
 40
0.0
 40
0.0
 40
1.0
 40
1.0
 40
1.0
 40
1.0
 10
254.0359069857182
 20
44.62766333655051
 30
0.0
 10
253.9909835821751
 20
44.58085226662671
 30
0.0
 10
253.9441440876616
 20
44.54426529034257
 30
0.0
 10
253.895587451238
 20
44.51834163159182
 30
0.0
  0
LINE
  5
1EE
330
1F
100
AcDbEntity
  8
0
  6
Continuous
 62
     7
370
    15
100
AcDbLine
 10
237.3957489243
 20
53.1997360826
 30
0.0
 11
237.3957489243
 21
50.959180399
 31
0.0
  0
LINE
  5
1EF
330
1F
100
AcDbEntity
  8
0
  6
Continuous
 62
     7
370
    15
100
AcDbLine
 10
237.3957489243
 20
50.959180399
 30
0.0
 11
237.3957489243
 21
49.4119763766
 31
0.0
  0
LINE
  5
1F0
330
1F
100
AcDbEntity
  8
0
  6
Continuous
 62
     7
370
    15
100
AcDbLine
 10
235.3967467098
 20
53.9073863752
 30
0.0
 11
234.9916938549
 21
54.300506414
 31
0.0
  0
LINE
  5
1F1
330
1F
100
AcDbEntity
  8
0
  6
Continuous
 62
     7
370
    15
100
AcDbLine
 10
236.7992454406
 20
53.0977410917
 30
0.0
 11
235.3967467098
 21
53.9073863752
 31
0.0
  0
SPLINE
  5
1F2
330
1F
100
AcDbEntity
  8
0
  6
Continuous
 62
     7
370
    15
100
AcDbSpline
210
0.0
220
0.0
230
1.0
 70
     8
 71
     3
 72
     8
 73
     4
 74
     0
 42
0.000000001
 43
0.00000001
 40
0.0
 40
0.0
 40
0.0
 40
0.0
 40
1.0
 40
1.0
 40
1.0
 40
1.0
 10
258.3246802872176
 20
51.32863172467198
 30
0.0
 10
258.3168548800085
 20
51.27760175374701
 30
0.0
 10
258.3025488788933
 20
51.22507420201368
 30
0.0
 10
258.281909463874
 20
51.17121099587232
 30
0.0
  0
LINE
  5
1F3
330
1F
100
AcDbEntity
  8
0
  6
Continuous
 62
     7
370
    15
100
AcDbLine
 10
257.488153543
 20
51.6294365354
 30
0.0
 11
258.2819094639
 21
51.1712109959
 31
0.0
  0
ARC
  5
1F4
330
1F
100
AcDbEntity
  8
0
  6
Continuous
 62
     7
370
    15
100
AcDbCircle
 10
254.2134451354
 20
48.2331888212
 30
0.0
 40
3.399755721593021
100
AcDbArc
 50
270.4503592053
 51
329.544264262
  0
SPLINE
  5
1F5
330
1F
100
AcDbEntity
  8
0
  6
Continuous
 62
     7
370
    15
100
AcDbSpline
210
0.0
220
0.0
230
1.0
 70
     8
 71
     3
 72
     8
 73
     4
 74
     0
 42
0.000000001
 43
0.00000001
 40
0.0
 40
0.0
 40
0.0
 40
0.0
 40
1.0
 40
1.0
 40
1.0
 40
1.0
 10
257.5007302135322
 20
46.62786321051615
 30
0.0
 10
257.3809716248997
 20
46.58956174595286
 30
0.0
 10
257.2620334824877
 20
46.55032803226906
 30
0.0
 10
257.1441059815229
 20
46.50994595617401
 30
0.0
  0
SPLINE
  5
1F6
330
1F
100
AcDbEntity
  8
0
  6
Continuous
 62
     7
370
    15
100
AcDbSpline
210
0.0
220
0.0
230
1.0
 70
     8
 71
     3
 72
     8
 73
     4
 74
     0
 42
0.000000001
 43
0.00000001
 40
0.0
 40
0.0
 40
0.0
 40
0.0
 40
1.0
 40
1.0
 40
1.0
 40
1.0
 10
257.7361736971118
 20
46.73546487853947
 30
0.0
 10
257.6602859365865
 20
46.68954831609375
 30
0.0
 10
257.5818181510438
 20
46.65379693936662
 30
0.0
 10
257.5007302135322
 20
46.62786321051615
 30
0.0
  0
SPLINE
  5
1F7
330
1F
100
AcDbEntity
  8
0
  6
Continuous
 62
     7
370
    15
100
AcDbSpline
210
0.0
220
0.0
230
1.0
 70
     8
 71
     3
 72
     8
 73
     4
 74
     0
 42
0.000000001
 43
0.00000001
 40
0.0
 40
0.0
 40
0.0
 40
0.0
 40
1.0
 40
1.0
 40
1.0
 40
1.0
 10
254.2401677934116
 20
44.83353812352144
 30
0.0
 10
254.170207902275
 20
44.7654517497937
 30
0.0
 10
254.1022467327564
 20
44.69679065755506
 30
0.0
 10
254.0359069857182
 20
44.62766333655051
 30
0.0
  0
LINE
  5
1F8
330
1F
100
AcDbEntity
  8
0
  6
Continuous
 62
     7
370
    15
100
AcDbLine
 10
254.3856163302
 20
45.7339118884
 30
0.0
 11
254.6334437846
 21
45.5908441442
 31
0.0
  0
SPLINE
  5
1F9
330
1F
100
AcDbEntity
  8
0
  6
Continuous
 62
     7
370
    15
100
AcDbSpline
210
0.0
220
0.0
230
1.0
 70
     8
 71
     3
 72
    10
 73
     6
 74
     0
 42
0.000000001
 43
0.00000001
 40
0.0
 40
0.0
 40
0.0
 40
0.0
 40
0.5
 40
0.5
 40
1.0
 40
1.0
 40
1.0
 40
1.0
 10
254.6334437845775
 20
45.59084414420034
 30
0.0
 10
254.5645166150103
 20
45.48547351073544
 30
0.0
 10
254.5159030702855
 20
45.37674743800683
 30
0.0
 10
254.44446649269
 20
45.15503517173033
 30
0.0
 10
254.4219840197371
 20
45.04234192621882
 30
0.0
 10
254.4082524008409
 20
44.93057130198104
 30
0.0
  0
LINE
  5
1FA
330
1F
100
AcDbEntity
  8
0
  6
Continuous
 62
     7
370
    15
100
AcDbLine
 10
254.4082524008
 20
44.930571302
 30
0.0
 11
254.2401677934
 21
44.8335381235
 31
0.0
  0
ARC
  5
1FB
330
1F
100
AcDbEntity
  8
0
  6
Continuous
 62
     7
370
    15
100
AcDbCircle
 10
254.2134411841
 20
48.2331956658
 30
0.0
 40
3.308365018965697
100
AcDbArc
 50
273.3757825808
 51
326.6188408865
  0
LINE
  5
1FC
330
1F
100
AcDbEntity
  8
0
  6
Continuous
 62
     7
370
    15
100
AcDbLine
 10
257.1441059815
 20
46.5099459562
 30
0.0
 11
256.9760213741
 21
46.4129127777
 31
0.0
  0
SPLINE
  5
1FD
330
1F
100
AcDbEntity
  8
0
  6
Continuous
 62
     7
370
    15
100
AcDbSpline
210
0.0
220
0.0
230
1.0
 70
     8
 71
     3
 72
     8
 73
     4
 74
     0
 42
0.000000001
 43
0.00000001
 40
0.0
 40
0.0
 40
0.0
 40
0.0
 40
1.0
 40
1.0
 40
1.0
 40
1.0
 10
258.281909463874
 20
48.08606851499235
 30
0.0
 10
258.3025488788933
 20
48.02413352228049
 30
0.0
 10
258.3168548800085
 20
47.95961703098146
 30
0.0
 10
258.3246802872176
 20
47.8923730228841
 30
0.0
  0
ARC
  5
1FE
330
1F
100
AcDbEntity
  8
0
  6
Continuous
 62
     7
370
    15
100
AcDbCircle
 10
254.9440198652
 20
49.6286397554
 30
0.0
 40
3.677095729574779
100
AcDbArc
 50
335.1964677926
 51
24.8035322074
  0
ARC
  5
1FF
330
1F
100
AcDbEntity
  8
0
  6
Continuous
 62
     7
370
    15
100
AcDbCircle
 10
244.9228195929
 20
52.1737995403
 30
0.0
 40
7.624440471879132
100
AcDbArc
 50
172.3376412124
 51
189.1666164959
  0
ARC
  5
200
330
1F
100
AcDbEntity
  8
0
  6
Continuous
 62
     7
370
    15
100
AcDbCircle
 10
253.7541499396
 20
48.4983526219
 30
0.0
 40
3.037558758884086
100
AcDbArc
 50
286.8264591401
 51
313.1681643272
  0
SPLINE
  5
201
330
1F
100
AcDbEntity
  8
0
  6
Continuous
 62
     7
370
    15
100
AcDbSpline
210
0.0
220
0.0
230
1.0
 70
     8
 71
     3
 72
    10
 73
     6
 74
     0
 42
0.000000001
 43
0.00000001
 40
0.0
 40
0.0
 40
0.0
 40
0.0
 40
0.5
 40
0.5
 40
1.0
 40
1.0
 40
1.0
 40
1.0
 10
256.9760213740937
 20
46.41291277771453
 30
0.0
 10
256.7809545961537
 20
46.40492617645357
 30
0.0
 10
256.5854731791928
 20
46.3918530068572
 30
0.0
 10
256.2026138601605
 20
46.35067969825801
 30
0.0
 10
256.0146749344684
 20
46.32267645056877
 30
0.0
 10
255.8322713368134
 20
46.28291255901577
 30
0.0
  0
LINE
  5
202
330
1F
100
AcDbEntity
  8
0
  6
Continuous
 62
     7
370
    15
100
AcDbLine
 10
257.488153543
 20
48.5442940545
 30
0.0
 11
258.2819094639
 21
48.086068515
 31
0.0
  0
LINE
  5
203
330
1F
100
AcDbEntity
  8
0
  6
Continuous
 62
     7
370
    15
100
AcDbLine
 10
238.8732847692
 20
45.3272701372
 30
0.0
 11
240.6470145601
 21
44.3033177244
 31
0.0
  0
SPLINE
  5
204
330
1F
100
AcDbEntity
  8
0
  6
Continuous
 62
     7
370
    15
100
AcDbSpline
210
0.0
220
0.0
230
1.0
 70
     8
 71
     3
 72
    14
 73
    10
 74
     0
 42
0.000000001
 43
0.00000001
 40
0.0
 40
0.0
 40
0.0
 40
0.0
 40
0.25
 40
0.25
 40
0.5
 40
0.5
 40
0.75
 40
0.75
 40
1.0
 40
1.0
 40
1.0
 40
1.0
 10
240.6155028497387
 20
44.21116391410379
 30
0.0
 10
240.6007631868674
 20
44.1680587929065
 30
0.0
 10
240.5823653322972
 20
44.12809610304681
 30
0.0
 10
240.537707835928
 20
44.05492409455285
 30
0.0
 10
240.5112716419032
 20
44.02174871389756
 30
0.0
 10
240.4515366743213
 20
43.96911676191922
 30
0.0
 10
240.4178880410858
 20
43.94926740726841
 30
0.0
 10
240.3456129593667
 20
43.93289091888411
 30
0.0
 10
240.3081509502774
 20
43.93723510682177
 30
0.0
 10
240.2744743019143
 20
43.956676222106
 30
0.0
  0
LINE
  5
205
330
1F
100
AcDbEntity
  8
0
  6
Continuous
 62
     7
370
    15
100
AcDbLine
 10
240.2744743019
 20
43.9566762221
 30
0.0
 11
238.864880027
 21
44.770417676
 31
0.0
  0
SPLINE
  5
206
330
1F
100
AcDbEntity
  8
0
  6
Continuous
 62
     7
370
    15
100
AcDbSpline
210
0.0
220
0.0
230
1.0
 70
     8
 71
     3
 72
     8
 73
     4
 74
     0
 42
0.000000001
 43
0.00000001
 40
0.0
 40
0.0
 40
0.0
 40
0.0
 40
0.0011140524372173
 40
0.0011140524372173
 40
0.0011140524372173
 40
0.0011140524372173
 10
238.8648800270297
 20
44.77041767602299
 30
0.0
 10
238.8669938566964
 20
44.9560546470694
 30
0.0
 10
238.8697714713035
 20
45.14167730500938
 30
0.0
 10
238.8732847692158
 20
45.32727013720803
 30
0.0
  0
LINE
  5
207
330
1F
100
AcDbEntity
  8
0
  6
Continuous
 62
     7
370
    15
100
AcDbLine
 10
236.3792829263
 20
52.9024727266
 30
0.0
 11
236.3912966561
 21
53.3332449121
 31
0.0
  0
ARC
  5
208
330
1F
100
AcDbEntity
  8
0
  6
Continuous
 62
     7
370
    15
100
AcDbCircle
 10
240.900073442
 20
52.6377304419
 30
0.0
 40
4.528535675525861
100
AcDbArc
 50
176.6485260986
 51
219.3007686373
  0
SPLINE
  5
209
330
1F
100
AcDbEntity
  8
0
  6
Continuous
 62
     7
370
    15
100
AcDbSpline
210
0.0
220
0.0
230
1.0
 70
     8
 71
     3
 72
    10
 73
     6
 74
     0
 42
0.000000001
 43
0.00000001
 40
0.0
 40
0.0
 40
0.0
 40
0.0
 40
0.0085188689958459
 40
0.5121847903724632
 40
0.9999999999999999
 40
0.9999999999999999
 40
0.9999999999999999
 40
0.9999999999999999
 10
256.8840500647872
 20
53.50153918933376
 30
0.0
 10
256.8841184274557
 20
53.5014997653679
 30
0.0
 10
256.8882286349299
 20
53.49912945591701
 30
0.0
 10
256.8716344016818
 20
53.50871560359081
 30
0.0
 10
256.842069423278
 20
53.52578954150801
 30
0.0
 10
256.8275232602834
 20
53.53419003077987
 30
0.0
  0
ARC
  5
20A
330
1F
100
AcDbEntity
  8
0
  6
Continuous
 62
     7
370
    15
100
AcDbCircle
 10
244.417425678
 20
45.2789043286
 30
0.0
 40
4.289233493073125
100
AcDbArc
 50
219.6343129376
 51
260.3979677243
  0
SPLINE
  5
20B
330
1F
100
AcDbEntity
  8
0
  6
Continuous
 62
     7
370
    15
100
AcDbSpline
210
0.0
220
0.0
230
1.0
 70
     8
 71
     3
 72
     8
 73
     4
 74
     0
 42
0.000000001
 43
0.00000001
 40
0.0
 40
0.0
 40
0.0
 40
0.0
 40
1.0
 40
1.0
 40
1.0
 40
1.0
 10
239.1791071608829
 20
45.92146531799698
 30
0.0
 10
239.0763991277761
 20
45.72353263773328
 30
0.0
 10
238.9745143946525
 20
45.52545428002752
 30
0.0
 10
238.8732847692158
 20
45.32727013720803
 30
0.0
  0
SPLINE
  5
20C
330
1F
100
AcDbEntity
  8
0
  6
Continuous
 62
     7
370
    15
100
AcDbSpline
210
0.0
220
0.0
230
1.0
 70
     8
 71
     3
 72
    12
 73
     8
 74
     0
 42
0.000000001
 43
0.00000001
 40
0.0
 40
0.0
 40
0.0
 40
0.0
 40
0.2500000000000033
 40
0.2500000000000033
 40
0.5000000000000067
 40
0.5000000000000067
 40
1.0
 40
1.0
 40
1.0
 40
1.0
 10
239.1396413631129
 20
46.13395206543773
 30
0.0
 10
239.1629747413491
 20
46.12048199290049
 30
0.0
 10
239.1823299131598
 20
46.10444428194284
 30
0.0
 10
239.2103031226428
 20
46.06932023363986
 30
0.0
 10
239.2186705067473
 20
46.05091322266784
 30
0.0
 10
239.2280235342219
 20
45.99333796827187
 30
0.0
 10
239.2122451494675
 20
45.95475713561434
 30
0.0
 10
239.1791071608829
 20
45.92146531799698
 30
0.0
  0
LINE
  5
20D
330
1F
100
AcDbEntity
  8
0
  6
Continuous
 62
     7
370
    15
100
AcDbLine
 10
238.1966109333
 20
46.6783519447
 30
0.0
 11
239.1396413631
 21
46.1339520654
 31
0.0
  0
SPLINE
  5
20E
330
1F
100
AcDbEntity
  8
0
  6
Continuous
 62
     7
370
    15
100
AcDbSpline
210
0.0
220
0.0
230
1.0
 70
     8
 71
     3
 72
    10
 73
     6
 74
     0
 42
0.000000001
 43
0.00000001
 40
0.0
 40
0.0
 40
0.0
 40
0.0
 40
0.5
 40
0.5
 40
1.0
 40
1.0
 40
1.0
 40
1.0
 10
237.8285332088167
 20
46.70113506478768
 30
0.0
 10
237.886516482724
 20
46.72036934759214
 30
0.0
 10
237.9534272997492
 20
46.72931781653638
 30
0.0
 10
238.0850710114082
 20
46.72226029558121
 30
0.0
 10
238.1494178425581
 20
46.70559593607206
 30
0.0
 10
238.1966109333071
 20
46.67835194468735
 30
0.0
  0
SPLINE
  5
20F
330
1F
100
AcDbEntity
  8
0
  6
Continuous
 62
     7
370
    15
100
AcDbSpline
210
0.0
220
0.0
230
1.0
 70
     8
 71
     3
 72
     8
 73
     4
 74
     0
 42
0.000000001
 43
0.00000001
 40
0.0
 40
0.0
 40
0.0
 40
0.0
 40
1.0
 40
1.0
 40
1.0
 40
1.0
 10
236.7992454406043
 20
46.52458755599766
 30
0.0
 10
237.1425530589168
 20
46.58302709683157
 30
0.0
 10
237.4856853923075
 20
46.64184622913808
 30
0.0
 10
237.8285332088167
 20
46.70113506478768
 30
0.0
  0
LINE
  5
210
330
1F
100
AcDbEntity
  8
0
  6
Continuous
 62
     7
370
    15
100
AcDbLine
 10
235.3967467098
 20
47.3342328395
 30
0.0
 11
236.7992454406
 21
46.524587556
 31
0.0
  0
LINE
  5
211
330
1F
100
AcDbEntity
  8
0
  6
Continuous
 62
     7
370
    15
100
AcDbLine
 10
235.3967467098
 20
47.3342328395
 30
0.0
 11
237.1836168899
 21
48.3657710376
 31
0.0
  0
ARC
  5
212
330
1F
100
AcDbEntity
  8
0
  6
Continuous
 62
     7
370
    15
100
AcDbCircle
 10
243.3129448809
 20
46.4502915113
 30
0.0
 40
4.754708933916244
100
AcDbArc
 50
200.6897442399
 51
238.9729683908
  0
LINE
  5
213
330
1F
100
AcDbEntity
  8
0
  6
Continuous
 62
     7
370
    15
100
AcDbLine
 10
255.8322713368
 20
46.282912559
 30
0.0
 11
255.5844438824
 21
46.4259803032
 31
0.0
  0
LINE
  5
214
330
1F
100
AcDbEntity
  8
0
  6
Continuous
 62
     7
370
    15
100
AcDbLine
 10
227.4251464574
 20
69.7401334278
 30
0.0
 11
227.4647494876
 21
69.7264592782
 31
0.0
  0
ELLIPSE
  5
215
330
1F
100
AcDbEntity
  8
0
  6
Continuous
 62
     7
370
    15
100
AcDbEllipse
 10
236.9493023149
 20
49.154270612
 30
0.0
 11
-6.005970385558612E-5
 21
0.8534489614827194
 31
0.0
210
0.0
220
0.0
230
1.0
 40
0.7174342186
 41
3.534193645557471
 42
5.104989972352355
  0
ARC
  5
216
330
1F
100
AcDbEntity
  8
0
  6
Continuous
 62
     7
370
    15
100
AcDbCircle
 10
240.7342160249
 20
47.6748581958
 30
0.0
 40
4.515099912429182
100
AcDbArc
 50
199.8295135001
 51
257.8949195563
  0
SPLINE
  5
217
330
1F
100
AcDbEntity
  8
0
  6
Continuous
 62
     7
370
    15
100
AcDbSpline
210
0.0
220
0.0
230
1.0
 70
     8
 71
     3
 72
     8
 73
     4
 74
     0
 42
0.000000001
 43
0.00000001
 40
0.0
 40
0.0
 40
0.0
 40
0.0
 40
0.0011140524372172
 40
0.0011140524372172
 40
0.0011140524372172
 40
0.0011140524372172
 10
236.7992454406043
 20
46.52458755599766
 30
0.0
 10
236.6955993390665
 20
46.39680016090866
 30
0.0
 10
236.591443086465
 20
46.26970214495077
 30
0.0
 10
236.4868337350777
 20
46.14323457913747
 30
0.0
  0
ARC
  5
218
330
1F
100
AcDbEntity
  8
0
  6
Continuous
 62
     7
370
    15
100
AcDbCircle
 10
242.1099665396
 20
48.38076895
 30
0.0
 40
4.599113105211762
100
AcDbArc
 50
201.420397136
 51
225.0283369008
  0
LINE
  5
219
330
1F
100
AcDbEntity
  8
0
  6
Continuous
 62
     7
370
    15
100
AcDbLine
 10
234.9916938549
 20
47.100349855
 30
0.0
 11
235.3967467098
 21
47.3342328395
 31
0.0
  0
LINE
  5
21A
330
1F
100
AcDbEntity
  8
0
  6
Continuous
 62
     7
370
    15
100
AcDbLine
 10
236.4868337351
 20
46.1432345791
 30
0.0
 11
235.0949171297
 21
46.9467709317
 31
0.0
  0
SPLINE
  5
21B
330
1F
100
AcDbEntity
  8
0
  6
Continuous
 62
     7
370
    15
100
AcDbSpline
210
0.0
220
0.0
230
1.0
 70
     8
 71
     3
 72
     8
 73
     4
 74
     0
 42
0.000000001
 43
0.00000001
 40
0.0
 40
0.0
 40
0.0
 40
0.0
 40
1.0
 40
1.0
 40
1.0
 40
1.0
 10
235.0949171297228
 20
46.94677093165668
 30
0.0
 10
235.0452258885107
 20
46.97545707460671
 30
0.0
 10
235.009748547203
 20
47.03417146898702
 30
0.0
 10
234.9916938549319
 20
47.10034985495707
 30
0.0
  0
ARC
  5
21C
330
1F
100
AcDbEntity
  8
0
  6
Continuous
 62
     7
370
    15
100
AcDbCircle
 10
239.2585543649
 20
48.2828083392
 30
0.0
 40
4.313973770105601
100
AcDbArc
 50
219.6004829422
 51
239.8562859228
  0
SPLINE
  5
21D
330
1F
100
AcDbEntity
  8
0
  6
Continuous
 62
     7
370
    15
100
AcDbSpline
210
0.0
220
0.0
230
1.0
 70
     8
 71
     3
 72
    12
 73
     8
 74
     0
 42
0.000000001
 43
0.00000001
 40
0.0
 40
0.0
 40
0.0
 40
0.0
 40
0.2677099914101032
 40
0.5410243514963508
 40
0.7687500903901004
 40
0.825560302447469
 40
1.0
 40
1.0
 40
1.0
 40
1.0
 10
250.0588496476408
 20
65.53767327412372
 30
0.0
 10
250.0906250801068
 20
65.5481801218763
 30
0.0
 10
250.1548411471011
 20
65.56941377274484
 30
0.0
 10
250.261848556073
 20
65.57411188518581
 30
0.0
 10
250.3364958530134
 20
65.5644112781122
 30
0.0
 10
250.392825668155
 20
65.54898186947699
 30
0.0
 10
250.4168596060084
 20
65.53719249843138
 30
0.0
 10
250.4349892254198
 20
65.52829937357352
 30
0.0
  0
LINE
  5
21E
330
1F
100
AcDbEntity
  8
0
  6
Continuous
 62
     7
370
    15
100
AcDbLine
 10
250.4349892254
 20
65.5282993736
 30
0.0
 11
251.8269058308
 21
64.7247630211
 31
0.0
  0
SPLINE
  5
21F
330
1F
100
AcDbEntity
  8
0
  6
Continuous
 62
     7
370
    15
100
AcDbSpline
210
0.0
220
0.0
230
1.0
 70
     8
 71
     3
 72
     9
 73
     5
 74
     0
 42
0.000000001
 43
0.00000001
 40
0.0
 40
0.0
 40
0.0
 40
0.0
 40
0.2743209788080325
 40
1.0
 40
1.0
 40
1.0
 40
1.0
 10
251.8269058307746
 20
64.72476302105432
 30
0.0
 10
251.8145733509859
 20
64.70524581387376
 30
0.0
 10
251.7696169650678
 20
64.63409847667276
 30
0.0
 10
251.7224006399121
 20
64.5634386184619
 30
0.0
 10
251.6881367432888
 20
64.51216224171787
 30
0.0
  0
SPLINE
  5
220
330
1F
100
AcDbEntity
  8
0
  6
Continuous
 62
     7
370
    15
100
AcDbSpline
210
0.0
220
0.0
230
1.0
 70
     8
 71
     3
 72
     9
 73
     5
 74
     0
 42
0.000000001
 43
0.00000001
 40
0.0
 40
0.0
 40
0.0
 40
0.0
 40
0.5884299960984168
 40
1.0
 40
1.0
 40
1.0
 40
1.0
 10
253.9593336046154
 20
63.29878984240509
 30
0.0
 10
254.007354207805
 20
63.30945684919928
 30
0.0
 10
254.0889622215159
 20
63.32758476053099
 30
0.0
 10
254.1711330673756
 20
63.34484310219418
 30
0.0
 10
254.2049521227266
 20
63.35194611793985
 30
0.0
  0
LINE
  5
221
330
1F
100
AcDbEntity
  8
0
  6
Continuous
 62
     7
370
    15
100
AcDbLine
 10
254.2049521227
 20
63.3519461179
 30
0.0
 11
255.6145463976
 21
62.538204664
 31
0.0
  0
SPLINE
  5
222
330
1F
100
AcDbEntity
  8
0
  6
Continuous
 62
     7
370
    15
100
AcDbSpline
210
0.0
220
0.0
230
1.0
 70
     8
 71
     3
 72
    12
 73
     8
 74
     0
 42
0.000000001
 43
0.00000001
 40
0.0
 40
0.0
 40
0.0
 40
0.0
 40
0.249999999999998
 40
0.249999999999998
 40
0.499999999999996
 40
0.499999999999996
 40
1.0
 40
1.0
 40
1.0
 40
1.0
 10
255.6145463976112
 20
62.53820466402285
 30
0.0
 10
255.645850465257
 20
62.52013321043269
 30
0.0
 10
255.668281902485
 20
62.49662318534806
 30
0.0
 10
255.6908160510938
 20
62.44734194188633
 30
0.0
 10
255.6917807838055
 20
62.4211165605664
 30
0.0
 10
255.6697135273097
 20
62.34491818446711
 30
0.0
 10
255.6235885311062
 20
62.29850214303369
 30
0.0
 10
255.5610406836554
 20
62.26239403928295
 30
0.0
  0
ELLIPSE
  5
223
330
1F
100
AcDbEntity
  8
0
  6
Continuous
 62
     7
370
    15
100
AcDbEllipse
 10
236.8300634993
 20
49.0854131319
 30
0.0
 11
0.2600075789209483
 21
0.9705436209909234
 31
0.0
210
0.0
220
0.0
230
1.0
 40
0.5176380889
 41
3.619174351347763
 42
5.189970678142608
  0
SPLINE
  5
224
330
1F
100
AcDbEntity
  8
0
  6
Continuous
 62
     7
370
    15
100
AcDbSpline
210
0.0
220
0.0
230
1.0
 70
     8
 71
     3
 72
    10
 73
     6
 74
     0
 42
0.000000001
 43
0.00000001
 40
0.0
 40
0.0
 40
0.0
 40
0.0
 40
0.3618490153695236
 40
0.7243688513309919
 40
1.0
 40
1.0
 40
1.0
 40
1.0
 10
256.8275232602834
 20
60.32721664939827
 30
0.0
 10
256.844686318578
 20
60.36345679814531
 30
0.0
 10
256.879044253225
 20
60.43600428011965
 30
0.0
 10
256.8913298239697
 20
60.54656842189611
 30
0.0
 10
256.8714681433836
 20
60.60616173216201
 30
0.0
 10
256.8628894559471
 20
60.63190136581797
 30
0.0
  0
LWPOLYLINE
  5
225
330
1F
100
AcDbEntity
  8
0
  6
Continuous
 62
     7
370
    15
100
AcDbPolyline
 90
        3
 70
   128
 43
0.0
 10
251.8269058308
 20
64.7247630211
 10
252.0045685375
 20
64.5396071206
 10
252.0453954629
 20
64.4939666917
  0
LINE
  5
226
330
1F
100
AcDbEntity
  8
0
  6
Continuous
 62
     7
370
    15
100
AcDbLine
 10
256.7323205799
 20
53.5891672347
 30
0.0
 11
255.3739388359
 21
54.3733443238
 31
0.0
  0
LWPOLYLINE
  5
227
330
1F
100
AcDbEntity
  8
0
  6
Continuous
 62
     7
370
     0
100
AcDbPolyline
 90
       23
 70
   128
 43
0.0
 10
240.2744743019
 20
51.2828318027
 10
240.5682935261
 20
52.2346305793
 10
240.9176737775
 20
53.1874241312
 10
241.3201722936
 20
54.1345508096
 10
241.7729749245
 20
55.0693885867
 10
242.272915809
 20
55.9854013552
 10
242.8164995092
 20
56.8761846264
 10
243.3999254499
 20
57.7355103089
 10
244.0191144904
 20
58.5573702533
 10
244.6697374454
 20
59.3360182595
 10
245.3472453527
 20
60.0660102526
 10
246.046901279
 20
60.7422423458
 10
246.7638134381
 20
61.3599865256
 10
247.4929693937
 20
61.9149237087
 10
248.2292711044
 20
62.4031739394
 10
248.9675705679
 20
62.8213235174
 10
249.7027058141
 20
63.1664488655
 10
250.4295369962
 20
63.43613697
 10
251.142982327
 20
63.6285022518
 10
251.8380536091
 20
63.7421997502
 10
252.509891111
 20
63.7764345262
 10
253.1537975449
 20
63.7309672204
 10
253.7652709087
 20
63.6061157266
  0
LWPOLYLINE
  5
228
330
1F
100
AcDbEntity
  8
0
  6
Continuous
 62
     7
370
     0
100
AcDbPolyline
 90
       23
 70
   128
 43
0.0
 10
240.6155028497
 20
50.9322424239
 10
240.8937186194
 20
51.8806567898
 10
241.2291896743
 20
52.8318032417
 10
241.6194640203
 20
53.7787297477
 10
242.0616891001
 20
54.7145151199
 10
242.5526326431
 20
55.6323196021
 10
243.0887062899
 20
56.5254348625
 10
243.6659918205
 20
57.3873330254
 10
244.2802697927
 20
58.2117143842
 10
244.9270503826
 20
58.9925534468
 10
245.6016062012
 20
59.7241429763
 10
246.2990068473
 20
60.4011357059
 10
247.0141549445
 20
61.0185834228
 10
247.7418233981
 20
61.5719731352
 10
248.4766936011
 20
62.057260058
 10
249.213394308
 20
62.4708971767
 10
249.9465408939
 20
62.8098611732
 10
250.6707747113
 20
63.0716745229
 10
251.3808022573
 20
63.254423604
 10
252.071433864
 20
63.3567726836
 10
252.7376216306
 20
63.3779736814
 10
253.3744963189
 20
63.317871637
 10
253.9774029431
 20
63.1769058426
  0
LINE
  5
229
330
1F
100
AcDbEntity
  8
0
  6
Continuous
 62
     7
370
     0
100
AcDbLine
 10
256.8275232603
 20
53.5341900308
 30
0.0
 11
256.78470203
 21
53.3762607112
 31
0.0
  0
LWPOLYLINE
  5
22A
330
1F
100
AcDbEntity
  8
0
  6
Continuous
 62
     7
370
     0
100
AcDbPolyline
 90
       20
 70
   128
 43
0.0
 10
251.7851083668
 20
44.7157720874
 10
251.2213659871
 20
44.1686696479
 10
250.5167390078
 20
43.5529125627
 10
249.7993588101
 20
42.9991650602
 10
249.0743376461
 20
42.5113733003
 10
248.3468422194
 20
42.0930134234
 10
247.6220568663
 20
41.7470667793
 10
246.9051466099
 20
41.4759986805
 10
246.2012203534
 20
41.2817408341
 10
245.5152944724
 20
41.1656775761
 10
244.8522570666
 20
41.1286360055
 10
244.2168331263
 20
41.1708800911
 10
243.6135508603
 20
41.2921087896
 10
243.0467094269
 20
41.4914581914
 10
242.5203482968
 20
41.7675076769
 10
242.0382184668
 20
42.1182900401
 10
241.6037557289
 20
42.5413055078
 10
241.2200561863
 20
43.0335395533
 10
240.8898541893
 20
43.5914843791
 10
240.6155028497
 20
44.2111639141
  0
ARC
  5
22B
330
1F
100
AcDbEntity
  8
0
  6
Continuous
 62
     7
370
     0
100
AcDbCircle
 10
252.0445347911
 20
58.5789910064
 30
0.0
 40
5.092472051468879
100
AcDbArc
 50
20.0778162143
 51
46.3279042356
  0
LWPOLYLINE
  5
22C
330
1F
100
AcDbEntity
  8
0
  6
Continuous
 62
     7
370
     0
100
AcDbPolyline
 90
       28
 70
   128
 43
0.0
 10
244.1309410151
 20
49.6011224244
 10
244.1620188352
 20
50.2352281834
 10
244.2548320213
 20
50.8966404371
 10
244.4081254343
 20
51.5764147195
 10
244.6198260437
 20
52.2653582494
 10
244.887070962
 20
52.9541542476
 10
245.2062461601
 20
53.6334879298
 10
245.5730353409
 20
54.2941724734
 10
245.9824783101
 20
54.9272732531
 10
246.4290380539
 20
55.5242286672
 10
246.9066756178
 20
56.0769659177
 10
247.4089317731
 20
56.5780101815
 10
247.929014367
 20
57.0205856944
 10
248.4598901745
 20
57.3987073819
 10
248.9943800111
 20
57.7072617967
 10
249.5252558186
 20
57.9420762699
 10
250.0453384124
 20
58.0999753384
 10
250.5475945678
 20
58.1788236882
 10
251.0252321316
 20
58.1775550307
 10
251.4717918754
 20
58.0961865222
 10
251.8812348446
 20
57.9358185322
 10
252.2480240255
 20
57.6986197628
 10
252.5671992236
 20
57.3877979203
 10
252.8344441419
 20
57.007556337
 10
253.0461447513
 20
56.5630371279
 10
253.1994381643
 20
56.0602516529
 10
253.2922513504
 20
55.5059992229
 10
253.3037566407
 20
55.3857677109
  0
LWPOLYLINE
  5
22D
330
1F
100
AcDbEntity
  8
0
  6
Continuous
 62
     7
370
     0
100
AcDbPolyline
 90
       14
 70
   128
 43
0.0
 10
248.3041629776
 20
46.725279087
 10
247.929014367
 20
46.5668213058
 10
247.4089317731
 20
46.4089222373
 10
246.9066756178
 20
46.3300738875
 10
246.4290380539
 20
46.3313425451
 10
245.9824783101
 20
46.4127110536
 10
245.5730353409
 20
46.5730790435
 10
245.2062461601
 20
46.8102778129
 10
244.887070962
 20
47.1210996554
 10
244.6198260437
 20
47.5013412387
 10
244.4081254343
 20
47.9458604478
 10
244.2548320213
 20
48.4486459228
 10
244.1620188352
 20
49.0028983528
 10
244.1309410151
 20
49.6011224244
  0
ARC
  5
22E
330
1F
100
AcDbEntity
  8
0
  6
Continuous
 62
     7
370
     0
100
AcDbCircle
 10
248.6220145416
 20
49.2943775449
 30
0.0
 40
2.389523502606605
100
AcDbArc
 50
172.6245467555
 51
236.0632728511
  0
LWPOLYLINE
  5
22F
330
1F
100
AcDbEntity
  8
0
  6
Continuous
 62
     7
370
     0
100
AcDbPolyline
 90
       19
 70
   128
 43
0.0
 10
252.2875920961
 20
55.9723870159
 10
251.9400919374
 20
56.123664029
 10
251.5555622175
 20
56.1983782754
 10
251.1407855149
 20
56.1951340679
 10
250.702858774
 20
56.1139869159
 10
250.2492750428
 20
55.9563252696
 10
249.7877952646
 20
55.7248467634
 10
249.3263154864
 20
55.4235120589
 10
248.8727317551
 20
55.0574770763
 10
248.4348050142
 20
54.6330047757
 10
248.0200283116
 20
54.1573579958
 10
247.6354985917
 20
53.6386751849
 10
247.2877952646
 20
53.0858311498
 10
246.9828676306
 20
52.508285205
 10
246.7259330861
 20
51.915919322
 10
246.5213878524
 20
51.3188690451
 10
246.3727317551
 20
50.7273500701
 10
246.2825083413
 20
50.1514834507
 10
246.2522613586
 20
49.6011224244
  0
LWPOLYLINE
  5
230
330
1F
100
AcDbEntity
  8
0
  6
Continuous
 62
     7
370
     0
100
AcDbPolyline
 90
       23
 70
   128
 43
0.0
 10
235.0949171297
 20
54.2729265123
 10
235.3887363539
 20
55.2247252888
 10
235.7381166053
 20
56.1775188407
 10
236.1406151214
 20
57.1246455191
 10
236.5934177523
 20
58.0594832963
 10
237.0933586368
 20
58.9754960648
 10
237.636942337
 20
59.866279336
 10
238.2203682777
 20
60.7256050184
 10
238.8395573182
 20
61.5474649628
 10
239.4901802732
 20
62.3261129691
 10
240.1676881806
 20
63.0561049622
 10
240.8673441068
 20
63.7323370554
 10
241.5842562659
 20
64.3500812352
 10
242.3134122215
 20
64.9050184182
 10
243.0497139322
 20
65.3932686489
 10
243.7880133957
 20
65.811418227
 10
244.5231486419
 20
66.1565435751
 10
245.249979824
 20
66.4262316795
 10
245.9634251548
 20
66.6185969613
 10
246.6584964369
 20
66.7322944598
 10
247.3303339388
 20
66.7665292357
 10
247.9742403727
 20
66.7210619299
 10
248.5857137365
 20
66.5962104361
  0
LWPOLYLINE
  5
231
330
1F
100
AcDbEntity
  8
0
  6
Continuous
 62
     7
370
     0
100
AcDbPolyline
 90
       19
 70
   128
 43
0.0
 10
238.1966109333
 20
53.2515054804
 10
238.4894965013
 20
54.1773860944
 10
238.8414886673
 20
55.1030276923
 10
239.2495962103
 20
56.0205641943
 10
239.7103510426
 20
56.9221983976
 10
240.2198376806
 20
57.8002682368
 10
240.7737265195
 20
58.6473118958
 10
241.3673106254
 20
59.4561312181
 10
241.995545735
 20
60.219852877
 10
242.6530931216
 20
60.9319867844
 10
243.3343649636
 20
61.5864812438
 10
244.0335718296
 20
62.1777743771
 10
244.7447718766
 20
62.7008413897
 10
245.461921344
 20
63.151237271
 10
246.1789259131
 20
63.5251345677
 10
246.8896924965
 20
63.8193559097
 10
247.5881810171
 20
64.0314010112
 10
248.2684557366
 20
64.1594679182
 10
248.8758555583
 20
64.2022000624
  0
LINE
  5
232
330
1F
100
AcDbEntity
  8
0
  6
Continuous
 62
     7
370
     0
100
AcDbLine
 10
242.9995701652
 20
51.5813400533
 30
0.0
 11
242.433792793
 21
51.9079563781
 31
0.0
  0
LINE
  5
233
330
1F
100
AcDbEntity
  8
0
  6
Continuous
 62
     7
370
     0
100
AcDbLine
 10
253.2959999575
 20
45.0548025721
 30
0.0
 11
254.0359069857
 21
44.6276633366
 31
0.0
  0
LINE
  5
234
330
1F
100
AcDbEntity
  8
0
  6
Continuous
 62
     7
370
     0
100
AcDbLine
 10
237.5149877398
 20
49.4808338567
 30
0.0
 11
242.9995701652
 21
46.3146518167
 31
0.0
  0
LINE
  5
235
330
1F
100
AcDbEntity
  8
0
  6
Continuous
 62
     7
370
     0
100
AcDbLine
 10
237.3957489243
 20
49.4119763766
 30
0.0
 11
237.5149877398
 21
49.4808338567
 31
0.0
  0
ARC
  5
236
330
1F
100
AcDbEntity
  8
0
  6
Continuous
 62
     7
370
     0
100
AcDbCircle
 10
245.3643561716
 20
52.3668152733
 30
0.0
 40
8.065681793911907
100
AcDbArc
 50
174.1990918408
 51
180.8223854522
  0
ARC
  5
237
330
1F
100
AcDbEntity
  8
0
  6
Continuous
 62
     7
370
     0
100
AcDbCircle
 10
245.2547952548
 20
45.9582918831
 30
0.0
 40
5.367500540099184
100
AcDbArc
 50
201.8954388387
 51
219.5176601571
  0
LINE
  5
238
330
1F
100
AcDbEntity
  8
0
  6
Continuous
 62
     7
370
     0
100
AcDbLine
 10
242.4338847402
 20
45.3348559224
 30
0.0
 11
237.1836168899
 21
48.3657710376
 31
0.0
  0
LWPOLYLINE
  5
239
330
1F
100
AcDbEntity
  8
0
  6
Continuous
 62
     7
370
     0
100
AcDbPolyline
 90
       18
 70
   128
 43
0.0
 10
222.2477054188
 20
63.8461125464
 10
222.2788471289
 20
64.3783607865
 10
222.3716661215
 20
64.9362048733
 10
222.5243557803
 20
65.5087870061
 10
222.7339441749
 20
66.084962525
 10
222.9963519056
 20
66.6535168291
 10
223.3064715043
 20
67.2033836553
 10
223.6582668458
 20
67.7238604715
 10
224.044890634
 20
68.2048167885
 10
224.4588176766
 20
68.6368913385
 10
224.8919913545
 20
69.0116742821
 10
225.3359804349
 20
69.3218708954
 10
225.7821431754
 20
69.5614435543
 10
226.2217955256
 20
69.7257292495
 10
226.6463801527
 20
69.8115303467
 10
227.0476329998
 20
69.8171768252
 10
227.4177441368
 20
69.7425587828
 10
227.4251464574
 20
69.7401334278
  0
ARC
  5
23A
330
1F
100
AcDbEntity
  8
0
  6
Continuous
 62
     7
370
     0
100
AcDbCircle
 10
224.7159475792
 20
63.6765210912
 30
0.0
 40
2.47406156434806
100
AcDbArc
 50
176.0694185984
 51
224.9117477784
  0
LINE
  5
23B
330
1F
100
AcDbEntity
  8
0
  6
Continuous
 62
     7
370
     0
100
AcDbLine
 10
256.7174417202
 20
47.0800460327
 30
0.0
 11
257.5007302135
 21
46.6278632105
 31
0.0
  0
LINE
  5
23C
330
1F
100
AcDbEntity
  8
0
  6
Continuous
 62
     7
370
     0
100
AcDbLine
 10
239.2113448675
 20
45.9718198039
 30
0.0
 11
239.1396413631
 21
46.1339520654
 31
0.0
  0
ARC
  5
23D
330
1F
100
AcDbEntity
  8
0
  6
Continuous
 62
     7
370
     0
100
AcDbCircle
 10
242.4972936803
 20
48.4450301609
 30
0.0
 40
4.649411146615519
100
AcDbArc
 50
202.3323767889
 51
220.6392878947
  0
ARC
  5
23E
330
1F
100
AcDbEntity
  8
0
  6
Continuous
 62
     7
370
     0
100
AcDbCircle
 10
240.0752342456
 20
48.9483846207
 30
0.0
 40
5.367496244541181
100
AcDbArc
 50
201.8954345813
 51
219.5178094597
  0
OLE2FRAME
  5
23F
330
1F
100
AcDbEntity
  8
0
100
AcDbOle2Frame
 70
     2
  3
Paintbrush-Bild
 10
13.8511154363
 20
38.264191557
 30
0.0
 11
51.6290888628
 21
31.9806341108
 31
0.0
 71
     2
 72
     0
 73
     1
 90
    12928
310
80552BED0767C5B32B40DDAF6807D121434000000000000000006FFBDDFB85D0
310
4940DDAF6807D121434000000000000000006FFBDDFB85D04940416F4BD60AFB
310
3F4000000000000000002BED0767C5B32B40416F4BD60AFB3F40000000000000
310
0000000000000100000000010000010000000100000000000100000000320000
310
D0CF11E0A1B11AE1000000000000000000000000000000003E000300FEFF0900
310
0600000000000000000000000100000001000000000000000010000002000000
310
01000000FEFFFFFF0000000000000000FFFFFFFFFFFFFFFFFFFFFFFFFFFFFFFF
310
FFFFFFFFFFFFFFFFFFFFFFFFFFFFFFFFFFFFFFFFFFFFFFFFFFFFFFFFFFFFFFFF
310
FFFFFFFFFFFFFFFFFFFFFFFFFFFFFFFFFFFFFFFFFFFFFFFFFFFFFFFFFFFFFFFF
310
FFFFFFFFFFFFFFFFFFFFFFFFFFFFFFFFFFFFFFFFFFFFFFFFFFFFFFFFFFFFFFFF
310
FFFFFFFFFFFFFFFFFFFFFFFFFFFFFFFFFFFFFFFFFFFFFFFFFFFFFFFFFFFFFFFF
310
FFFFFFFFFFFFFFFFFFFFFFFFFFFFFFFFFFFFFFFFFFFFFFFFFFFFFFFFFFFFFFFF
310
FFFFFFFFFFFFFFFFFFFFFFFFFFFFFFFFFFFFFFFFFFFFFFFFFFFFFFFFFFFFFFFF
310
FFFFFFFFFFFFFFFFFFFFFFFFFFFFFFFFFFFFFFFFFFFFFFFFFFFFFFFFFFFFFFFF
310
FFFFFFFFFFFFFFFFFFFFFFFFFFFFFFFFFFFFFFFFFFFFFFFFFFFFFFFFFFFFFFFF
310
FFFFFFFFFFFFFFFFFFFFFFFFFFFFFFFFFFFFFFFFFFFFFFFFFFFFFFFFFFFFFFFF
310
FFFFFFFFFFFFFFFFFFFFFFFFFFFFFFFFFFFFFFFFFFFFFFFFFFFFFFFFFFFFFFFF
310
FFFFFFFFFFFFFFFFFFFFFFFFFFFFFFFFFFFFFFFFFFFFFFFFFFFFFFFFFFFFFFFF
310
FFFFFFFFFFFFFFFFFFFFFFFFFFFFFFFFFFFFFFFFFFFFFFFFFFFFFFFFFFFFFFFF
310
FFFFFFFFFFFFFFFFFFFFFFFFFFFFFFFFFFFFFFFFFFFFFFFFFFFFFFFFFFFFFFFF
310
FDFFFFFFFEFFFFFFFEFFFFFFFEFFFFFF05000000060000000700000008000000
310
090000000A0000000B0000000C0000000D0000000E0000000F00000010000000
310
11000000120000001300000014000000150000001600000017000000FEFFFFFF
310
FFFFFFFFFFFFFFFFFFFFFFFFFFFFFFFFFFFFFFFFFFFFFFFFFFFFFFFFFFFFFFFF
310
FFFFFFFFFFFFFFFFFFFFFFFFFFFFFFFFFFFFFFFFFFFFFFFFFFFFFFFFFFFFFFFF
310
FFFFFFFFFFFFFFFFFFFFFFFFFFFFFFFFFFFFFFFFFFFFFFFFFFFFFFFFFFFFFFFF
310
FFFFFFFFFFFFFFFFFFFFFFFFFFFFFFFFFFFFFFFFFFFFFFFFFFFFFFFFFFFFFFFF
310
FFFFFFFFFFFFFFFFFFFFFFFFFFFFFFFFFFFFFFFFFFFFFFFFFFFFFFFFFFFFFFFF
310
FFFFFFFFFFFFFFFFFFFFFFFFFFFFFFFFFFFFFFFFFFFFFFFFFFFFFFFFFFFFFFFF
310
FFFFFFFFFFFFFFFFFFFFFFFFFFFFFFFFFFFFFFFFFFFFFFFFFFFFFFFFFFFFFFFF
310
FFFFFFFFFFFFFFFFFFFFFFFFFFFFFFFFFFFFFFFFFFFFFFFFFFFFFFFFFFFFFFFF
310
FFFFFFFFFFFFFFFFFFFFFFFFFFFFFFFFFFFFFFFFFFFFFFFFFFFFFFFFFFFFFFFF
310
FFFFFFFFFFFFFFFFFFFFFFFFFFFFFFFFFFFFFFFFFFFFFFFFFFFFFFFFFFFFFFFF
310
FFFFFFFFFFFFFFFFFFFFFFFFFFFFFFFFFFFFFFFFFFFFFFFFFFFFFFFFFFFFFFFF
310
FFFFFFFFFFFFFFFFFFFFFFFFFFFFFFFFFFFFFFFFFFFFFFFFFFFFFFFFFFFFFFFF
310
FFFFFFFFFFFFFFFFFFFFFFFFFFFFFFFFFFFFFFFFFFFFFFFFFFFFFFFFFFFFFFFF
310
52006F006F007400200045006E00740072007900000000000000000000000000
310
0000000000000000000000000000000000000000000000000000000000000000
310
16000500FFFFFFFFFFFFFFFF020000000A00030000000000C000000000000046
310
000000000000000000000000D0232D6F79FFD10103000000C000000000000000
310
01004F006C006500000000000000000000000000000000000000000000000000
310
0000000000000000000000000000000000000000000000000000000000000000
310
0A000200FFFFFFFFFFFFFFFFFFFFFFFF00000000000000000000000000000000
310
0000000000000000000000000000000000000000000000001400000000000000
310
010043006F006D0070004F0062006A0000000000000000000000000000000000
310
0000000000000000000000000000000000000000000000000000000000000000
310
120002010100000003000000FFFFFFFF00000000000000000000000000000000
310
0000000000000000000000000000000000000000010000004D00000000000000
310
01004F006C006500310030004E00610074006900760065000000000000000000
310
0000000000000000000000000000000000000000000000000000000000000000
310
1A000200FFFFFFFFFFFFFFFFFFFFFFFF00000000000000000000000000000000
310
0000000000000000000000000000000000000000040000002426000000000000
310
FEFFFFFF02000000FEFFFFFFFFFFFFFFFFFFFFFFFFFFFFFFFFFFFFFFFFFFFFFF
310
FFFFFFFFFFFFFFFFFFFFFFFFFFFFFFFFFFFFFFFFFFFFFFFFFFFFFFFFFFFFFFFF
310
FFFFFFFFFFFFFFFFFFFFFFFFFFFFFFFFFFFFFFFFFFFFFFFFFFFFFFFFFFFFFFFF
310
FFFFFFFFFFFFFFFFFFFFFFFFFFFFFFFFFFFFFFFFFFFFFFFFFFFFFFFFFFFFFFFF
310
FFFFFFFFFFFFFFFFFFFFFFFFFFFFFFFFFFFFFFFFFFFFFFFFFFFFFFFFFFFFFFFF
310
FFFFFFFFFFFFFFFFFFFFFFFFFFFFFFFFFFFFFFFFFFFFFFFFFFFFFFFFFFFFFFFF
310
FFFFFFFFFFFFFFFFFFFFFFFFFFFFFFFFFFFFFFFFFFFFFFFFFFFFFFFFFFFFFFFF
310
FFFFFFFFFFFFFFFFFFFFFFFFFFFFFFFFFFFFFFFFFFFFFFFFFFFFFFFFFFFFFFFF
310
FFFFFFFFFFFFFFFFFFFFFFFFFFFFFFFFFFFFFFFFFFFFFFFFFFFFFFFFFFFFFFFF
310
FFFFFFFFFFFFFFFFFFFFFFFFFFFFFFFFFFFFFFFFFFFFFFFFFFFFFFFFFFFFFFFF
310
FFFFFFFFFFFFFFFFFFFFFFFFFFFFFFFFFFFFFFFFFFFFFFFFFFFFFFFFFFFFFFFF
310
FFFFFFFFFFFFFFFFFFFFFFFFFFFFFFFFFFFFFFFFFFFFFFFFFFFFFFFFFFFFFFFF
310
FFFFFFFFFFFFFFFFFFFFFFFFFFFFFFFFFFFFFFFFFFFFFFFFFFFFFFFFFFFFFFFF
310
FFFFFFFFFFFFFFFFFFFFFFFFFFFFFFFFFFFFFFFFFFFFFFFFFFFFFFFFFFFFFFFF
310
FFFFFFFFFFFFFFFFFFFFFFFFFFFFFFFFFFFFFFFFFFFFFFFFFFFFFFFFFFFFFFFF
310
FFFFFFFFFFFFFFFFFFFFFFFFFFFFFFFFFFFFFFFFFFFFFFFFFFFFFFFFFFFFFFFF
310
0100000200000000000000000000000000000000000000000000000000000000
310
0000000000000000000000000000000000000000000000000000000000000000
310
0100FEFF030A0000FFFFFFFF0A00030000000000C00000000000004607000000
310
5042727573680007000000504272757368000700000050427275736800F439B2
310
7100000000000000000000000000000000000000000000000000000000000000
310
0000000000000000000000000000000000000000000000000000000000000000
310
0000000000000000000000000000000000000000000000000000000000000000
310
0000000000000000000000000000000000000000000000000000000000000000
310
0000000000000000000000000000000000000000000000000000000000000000
310
0000000000000000000000000000000000000000000000000000000000000000
310
0000000000000000000000000000000000000000000000000000000000000000
310
0000000000000000000000000000000000000000000000000000000000000000
310
0000000000000000000000000000000000000000000000000000000000000000
310
0000000000000000000000000000000000000000000000000000000000000000
310
0000000000000000000000000000000000000000000000000000000000000000
310
0000000000000000000000000000000000000000000000000000000000000000
310
20260000424D0E260000000000003E00000028000000B40200006E0000000100
310
01000000000000000000130B0000130B00000200000002000000000000FFFFFF
310
FFFFFFFFFFFFFFFFFFFFFFFFFFFFFFFFFFFFFFFFFFFFFFFFFFFFFFFFFFFFFFFF
310
FFFFFFFFFFFFFFFFFFFFFFFFFFFFFFFFFFFFFFFFFFFFFFFFFFFFFFFFFFFFFFFF
310
FFFFFFFFFFFFFFFFFFFFFFFFFFFFFFFFFFFFFFFFFFFFFFFFF000FFFFFFFFFFFF
310
FFFFFFFFFFFFFFFFFFFFFFFFFFFFFFFFFFFFFFFFFFFFFFFFFFFFFFFFFFFFFFFF
310
FFFFFFFFFFFFFFFFFFFFFFFFFFFFFFFFFFFFFFFFFFFFFFFFFFFFFFFFFFFFFFFF
310
FFFFFFFFFFFFFFFFFFFFFFFFFFFFFFFFF000FFFFFFFFFFFFFFFFFFFFFFFFFFFF
310
FFFFFFFFFFFFFFFFFFFFFFFFFFFFFFFFFFFFFFFFFFFFFFFFFFFFFFFFFFFFFFFF
310
FFFFFFFFFFFFFFFFFFFFFFFFFFFFFFFFFFFFFFFFFFFFFFFFFFFFFFFFFFFFFFFF
310
FFFFFFFFFFFFFFFFF000FFFFFFFFFFFFFFFFFFFFFFFFFFFFFFFFFFFFFFFFFFFF
310
FFFFFFFFFFFFFFFFFFFFFFFFFFFFFFFFFFFFFFFFFFFFFFFFFFFFFFFFFFFFFFFF
310
FFFFFFFFFFFFFFFFFFFFFFFFFFFFFFFFFFFFFFFFFFFFFFFFFFFFFFFFFFFFFFFF
310
F000FFFFFFFFFFFFFFFFFFFFFFFFFFFFFFFFFFFFFFFFFFFFFFFFFFFFFFFFFFFF
310
FFFFFFFFFFFFFFFFFFFFFFFFFFFFFFFFFFFFFFFFFFFFFFFFFFFFFFFFFFFFFFFF
310
FFFFFFFFFFFFFFFFFFFFFFFFFFFFFFFFFFFFFFFFFFFFFFFFF000FFFFFFFFFFFF
310
FFFFFFFFFFFFFFFFFFFFFFFFFFFFFFFFFFFFFFFFFFFFFFFFFFFFFFFFFFFFFFFF
310
FFFFFFFFFFFFFFFFFFFFFFFFFFFFFFFFFFFFFFFFFFFFFFFFFFFFFFFFFFFFFFFF
310
FFFFFFFFFFFFFFFFFFFFFFFFFFFFFFFFF000FFFFFFFFFFFFFFFFFFFFFFFFFFFF
310
FFFFFFFFFFFFFFFFFFFFFFFFFFFFFFFFFFFFFFFFFFFFFFFFFFFFFFFFFFFFFFFF
310
FFFFFFFFFFFFFFFFFFFFFFFFFFFFFFFFFFFFFFFFFFFFFFFFFFFFFFFFFFFFFFFF
310
FFFFFFFFFFFFFFFFF000FFFFFFFFFFFFFFFFFFFFFFFFFFFFFFFFFFFFFFFFFFFF
310
FFFFFFFFFFFFFFFFFFFFFFFFFFFFFFFFFFFFFFFFFFFFFFFFFFFFFFFFFFFFFFFF
310
FFFFFFFFFFFFFFFFFFFFFFFFFFFFFFFFFFFFFFFFFFFFFFFFFFFFFFFFFFFFFFFF
310
F000FFFFFFFFFFFFFFFFFFFFFFFFFFFFFFFFFFFFFFFFFFFFFFFFFFFFFFFFFFFF
310
FFFFFFFFFFFFFFFFFFFFFFFFFFFFFFFFFFFFFFFFFFFFFFFFFFFFFFFFFFFFFFFF
310
FFFFFFFFFFFFFFFFFFFFFFFFFFFFFFFFFFFFFFFFFFFFFFFFF000FFFFFFFFFFFF
310
FFFFFFFFFFFFFFFFFFFFFFFFFFFFFFFFFFFFFFFFFFFFFFFFFFFFFFFFFFFFFFFF
310
FFFFFFFFFFFFFFFFFFFFFFFFFFFFFFFFFFFFFFFFFFFFFFFFFFFFFFFFFFFFFFFF
310
FFFFFFFFFFFFFFFFFFFFFFFFFFFFFFFFF000FFFFFFFFFFFFFFFFFFFFFFFFFFFF
310
FFFFFFFFFFFFFFFFFFFFFFFFFFFFFFFFFFFFFFFFFFFFFFFFFFFFFFFFFFFFFFFF
310
FFFFFFFFFFFFFFFFFFFFFFFFFFFFFFFFFFFFFFFFFFFFFFFFFFFFFFFFFFFFFFFF
310
FFFFFFFFFFFFFFFFF000FFFFFFFFFFFFFFFFFFFFFFFFFFFFFFFFFFFFFFFFFFFF
310
FFFFFFFFFFFFFFFFFFFFFFFFFFFFFFFFFFFFFFFFFFFFFFFFFFFFFFFFFFFFFFFF
310
FFFFFFFFFFFFFFFFFFFFFFFFFFFFFFFFFFFFFFFFFFFFFFFFFFFFFFFFFFFFFFFF
310
F000FFFFFFFFFFFFFFFFFFFFFFFFFFFFFFFFFFFFFFFFFFFFFFFFFFFFFFFFFFFF
310
FFFFFFFFFFFFFFFFFFFFFFFFFFFFFFFFFFFFFFFFFFFFFFFFFFFFFFFFFFFFFFFF
310
FFFFFFFFFFFFFFFFFFFFFFFFFFFFFFFFFFFFFFFFFFFFFFFFF000FFFFFFFFFFFF
310
FFFFFFFFFFFFFFFFFFFFFFFFFFFFFFFFFFFFFFFFFFFFFFFFFFFFFFFFFFFFFFFF
310
FFFFFFFFFFFFFFFFFFFFFFFFFFFFFFFFFFFFFFFFFFFFFFFFFFFFFFFFFFFFFFFF
310
FFFFFFFFFFFFFFFFFFFFFFFFFFFFFFFFF000FFFFFFFFFFFFFFFFFFFFFFFFFFFF
310
FFFFFFFFFFFFFFFFFFFFFFFFFFFFFFFFFFFFFFFFFFFFFFFFFFFFFFFFFFFFFFFF
310
FFFFFFFFFFFFFFFFFFFFFFFFFFFFFFFFFFFFFFFFFFFFFFFFFFFFFFFFFFFFFFFF
310
FFFFFFFFFFFFFFFFF000FFFFFFFFFFFFFFFFFFFFFFFFFFFFFFFFFFFFFFFFFFFF
310
FFFFFFFFFFFFFFFFFFFFFFFFFFFFFFFFFFFFFFFFFFFFFFFFFFFFFFFFFFFFFFFF
310
FFFFFFFFFFFFFFFFFFFFFFFFFFFFFFFFFFFFFFFFFFFFFFFFFFFFFFFFFFFFFFFF
310
F000FFFFFFFFFFFFFFFFFFFFFFFFFFFFFFFFFFFFFFFFFFFFFFFFFFFFFFFFFFFF
310
FFFFFFFFFFFFFFFFFFFFFFFFFFFFFFFFFFFFFFFFFFFFFFFFFFFFFFFFFFFFFFFF
310
FFFFFFFFFFFFFFFFFFFFFFFFFFFFFFFFFFFFFFFFFFFFFFFFF000FFFFFFFFFFFF
310
FFFFFFFFFFFFFFFFFFFFFFFFFFFFFFFFFFFFFFFFFFFFFFFFFFFFFFFFFFFFFFFF
310
FFFFFFFFFFFFFFFFFFFFFFFFFFFFFFFFFFFFFFFFFFFFFFFFFFFFFFFFFFFFFFFF
310
FFFFFFFFFFFFFFFFFFFFFFFFFFFFFFFFF000FFFFFFFFFFFFFFFFFFFFFFFFFFFF
310
FFFFFFFFFFFFFFFFFFFFFFFFFFFFFFFFFFFFFFFFFFFFFFFFFFFFFFFFFFFFFFFF
310
FFFFFFFFFFFFFFFFFFFFFFFFFFFFFFFFFFFFFFFFFFFFFFFFFFFFFFFFFFFFFFFF
310
FFFFFFFFFFFFFFFFF000FFFFF80003FFFFFFFFFFFFFFFFFFFFFFFFFFFFFFFFFF
310
FFFFF00007FFFFFFFFFF00007FFFFFF800000000000000007FFFFFFFFFFFFFFF
310
FFFFFFFC001FFFFFFFFFFFFFFC001FFFFFFFFFFFFFFFFFFFFFFFFFFE0007FFFF
310
F000FFFF8000007FFFFFFFF8000FFFFFC0007FFFFF80007FFFFF0000007FFFFF
310
FFF8000007FFFFF800000000000000007FFFFFF0001FFFFFFFFFFFC00001FFFF
310
FFFFFFFFC00001FFFFFFFF000000000003FFFFE000007FFFF000FFFE0000000F
310
FFFFFFF0000FFFFF80007FFFFF80007FFFFC0000001FFFFFFFC0000001FFFFF8
310
00000000000000007FFFFFF0001FFFFFFFFFFE0000003FFFFFFFFFFE0000003F
310
FFFFFF000000000003FFFF0000000FFFF000FFF800000003FFFFFFF00007FFFF
310
80007FFFFF80007FFFF000000007FFFFFF000000003FFFF80000000000000000
310
7FFFFFF0001FFFFFFFFFF80000000FFFFFFFFFF80000000FFFFFFF0000000000
310
03FFFC00000003FFF000FFE000000000FFFFFFF00007FFFF80003FFFFF80007F
310
FFC000000001FFFFFC000000001FFFF800000000000000007FFFFFF0001FFFFF
310
FFFFE000000003FFFFFFFFE000000003FFFFFF000000000003FFF000000000FF
310
F000FF80000000007FFFFFF00007FFFF80003FFFFF80007FFF8000000000FFFF
310
F80000000007FFF800000000000000007FFFFFF0001FFFFFFFFFC000000001FF
310
FFFFFFC000000001FFFFFF000000000003FFC0000000007FF000FF0000000000
310
3FFFFFE00007FFFF00003FFFFF80007FFE00000000003FFFF00000000003FFF8
310
00000000000000007FFFFFF0001FFFFFFFFF8000000000FFFFFFFF8000000000
310
FFFFFF000000000003FF80000000003FF000FE00000000001FFFFFE00003FFFF
310
00003FFFFF80007FFC00000000001FFFE00000000001FFF8000001FFFE000000
310
7FFFFFF0001FFFFFFFFE00000000003FFFFFFE00000000003FFFFF0000000000
310
03FF00000000001FF000FC00000000000FFFFFE00003FFFF00001FFFFF80007F
310
F800000000001FFFC00000000000FFF8000001FFFE0000007FFFFFF0001FFFFF
310
FFFC00000000001FFFFFFC00000000001FFFFF000000000003FE00000000000F
310
F000F8000000000007FFFFE00003FFFF00001FFFFF80007FF800000000000FFF
310
800000000000FFF8000001FFFE0000007FFFFFF0001FFFFFFFF800000000000F
310
FFFFF800000000000FFFFF000000000003FC000000000007F000F80000000000
310
03FFFFC00003FFFE00001FFFFF80007FF0000000000007FF0000000000007FF8
310
000001FFFE0000007FFFFFF0001FFFFFFFF0000000000007FFFFF00000000000
310
07FFFF000000000003F8000000000003F000F0000000000003FFFFC00001FFFE
310
00001FFFFF80007FE0000000000007FE0000000000003FF8000001FFFE000000
310
7FFFFFF0001FFFFFFFF0000000000007FFFFF0000000000007FFFF0000000000
310
03F800001F800003F000E00001FFF00001FFFFC00001FFFE00000FFFFF80007F
310
E00001FFE00003FE00001FFF00003FF8000001FFFE0000007FFFFFF0001FFFFF
310
FFE000003E000003FFFFE000003E000003FFFF000000000003F00001FFF80001
310
F000E00007FFFC0001FFFFC00001FFFE00000FFFFF80007FC0000FFFFC0003FC
310
0000FFFFC0001FF8000001FFFE0000007FFFFFF0001FFFFFFFC00003FFE00001
310
FFFFC00003FFE00001FFFF0001FFFFFFFFF00007FFFE0001F000E0000FFFFF00
310
00FFFF800001FFFC00000FFFFF80007FC0001FFFFE0001FC0001FFFFE0001FF8
310
000001FFFE0000007FFFFFF0001FFFFFFF80000FFFF80000FFFF80000FFFF800
310
00FFFF0003FFFFFFFFE0000FFFFF8000F000C0003FFFFF8000FFFF800000FFFC
310
000007FFFF80007F80003FFFFF0001FC0003FFFFF0001FF8000001FFFE000000
310
7FFFFFF0001FFFFFFF80003FFFFE0000FFFF80003FFFFE0000FFFF0003FFFFFF
310
FFE0003FFFFF8000F000C0003FFFFF8000FFFF800000FFFC000007FFFF80007F
310
80007FFFFF8001F80007FFFFF8000FF8000001FFFE0000007FFFFFF0001FFFFF
310
FF00007FFFFF00007FFF00007FFFFF00007FFF0003FFFFFFFFE0003FFFFFC000
310
F000C0007FFFFFC000FFFF000000FFFC000007FFFF80007F8000FFFFFF8000F8
310
000FFFFFF8000FF8000001FFFE0000007FFFFFF0001FFFFFFF0000FFFFFF8000
310
7FFF0000FFFFFF80007FFF0003FFFFFFFFC0007FFFFFC00070008000FFFFFFC0
310
00FFFF000000FFF8000007FFFF80007F8000FFFFFF8000F8000FFFFFF8000FF8
310
000001FFFE0000007FFFFFF0001FFFFFFE0001FFFFFFC0003FFE0001FFFFFFC0
310
003FFF0003FFFFFFFFC0007FFFFFE00070008000FFFFFFC0007FFF0000007FF8
310
000003FFFF80007F0001FFFFFF8000F8000FFFFFF8000FF8000001FFFE000000
310
7FFFFFF0001FFFFFFE0001FFFFFFC0003FFE0001FFFFFFC0003FFF0003FFFFFF
310
FFC000FFFFFFE00070008000FFFFFFC0007FFF0000007FF8000003FFFF80007F
310
0001FFFFFF8000F8001FFFFFF8000FF8000001FFFE0000007FFFFFF0001FFFFF
310
FE0003FFFFFFE0003FFE0003FFFFFFE0003FFF0003FFFFFFFFC000FFFFFFE000
310
70008000FFFFFFC0007FFE0000007FF8000003FFFF80007F0001FFFFFF8000F0
310
001FFFFFF8000FF8000001FFFE0000007FFFFFF0001FFFFFFC0003FFFFFFE000
310
1FFC0003FFFFFFE0001FFF0003FFFFFFFFC000FFFFFFC00070008000FFFFFF80
310
007FFE0000007FF0000003FFFF80007F0001FFFFFF0000F0001FFFFFF8000FF8
310
000001FFFE0000007FFFFFF0001FFFFFFC0007FFFFFFF0001FFC0007FFFFFFF0
310
001FFF0003FFFFFFFFC000FFFFFFC00070008001FFFFFF0000FFFE0000003FF0
310
000001FFFF80007F0001FFFFFF0000F8001FFFFFF0000FF8000001FFFE000000
310
7FFFFFF0001FFFFFFC0007FFFFFFF0001FFC0007FFFFFFF0001FFF0003FFFFFF
310
FFC001FFFFFF80007000FFFFFFFFFE0000FFFE0008003FF0008001FFFF80007F
310
FFFFFFFFFC0000FFFFFFFFFFE0000FF8000001FFFE0000007FFFFFF0001FFFFF
310
F8000FFFFFFFF8000FF8000FFFFFFFF8000FFF0003FFFFFFFFFFFFFFFFFF0000
310
7000FFFFFFFFFC0000FFFC0008003FF0008001FFFF80007FFFFFFFFFF80001FF
310
FFFFFFFF80000FF8000001FFFE0000007FFFFFF0001FFFFFF8000FFFFFFFF800
310
0FF8000FFFFFFFF8000FFF0003FFFFFFFFFFFFFFFFFE0000F000FFFFFFFFE000
310
00FFFC000C003FE000C001FFFF80007FFFFFFFFFC00001FFFFFFFFFE00001FF8
310
000001FFFE0000007FFFFFF0001FFFFFF8000FFFFFFFF8000FF8000FFFFFFFF8
310
000FFF0003FFFFFFFFFFFFFFFFF00000F000FFFFFFFE000001FFFC000C001FE0
310
00C000FFFF80007FFFFFFFFE000001FFFFFFFFE000001FF80FFFFFFFFFFFFFC0
310
7FFFFFF0001FFFFFF8000FFFFFFFF8000FF8000FFFFFFFF8000FFF0003FFFFFF
310
FFFFFFFFFF800000F000FFFFFFC0000001FFFC001C001FE001C000FFFF80007F
310
FFFFFF80000003FFFFFFF80000001FF80FFFFFFFFFFFFFC07FFFFFF0001FFFFF
310
F8001FFFFFFFFC000FF8001FFFFFFFFC000FFF0003FFFFFFFFFFFFFFF0000001
310
F000FFFFF800000001FFF8001C001FE001C000FFFF80007FFFFFF800000003FF
310
FFFF800000003FF80FFFFFFFFFFFFFC07FFFFFF0001FFFFFF8001FFFFFFFFC00
310
0FF8001FFFFFFFFC000FFF0003FFFFFFFFFFFFFE00000001F000FFFFC0000000
310
03FFF8001E001FC001E000FFFF80007FFFFF8000000007FFFFFC000000003FF8
310
0FFFFFFFFFFFFFC07FFFFFF0001FFFFFF8001FFFFFFFFC000FF8001FFFFFFFFC
310
000FFF0003FFFFFFFFFFFFE000000003F000FFFE0000000007FFF8001E000FC0
310
01E0007FFF80007FFFFE0000000007FFFFE0000000007FF80FFFFFFFFFFFFFC0
310
7FFFFFF0001FFFFFF0001FFFFFFFFC0007F0001FFFFFFFFC0007FF0003FFFFFF
310
FFFFFF0000000003F000FFF80000000007FFF8001E000FC003E0007FFF80007F
310
FFF0000000000FFFFF8000000000FFF80FFFFFFFFFFFFFC07FFFFFF0001FFFFF
310
F0001FFFFFFFFC0007F0001FFFFFFFFC0007FF0003FFFFFFFFFFFC0000000007
310
F000FFE0000000000FFFF0003E000FC003E0007FFF80007FFFC0000000001FFF
310
FE0000000001FFF80FFFFFFFFFFFFFC07FFFFFF0001FFFFFF0001FFFFFFFFC00
310
07F0001FFFFFFFFC0007FF0003FFFFFFFFFFF0000000000FF000FFC000000000
310
1FFFF0003F000F8003F0003FFF80007FFF80000000003FFFF80000000003FFF8
310
0FFFFFFFFFFFFFC07FFFFFF0001FFFFFF0001FFFFFFFFC0007F0001FFFFFFFFC
310
0007FF0003FFFFFFFFFFE0000000001FF000FF00000000007FFFF0003F000780
310
03F0003FFF80007FFF00000000007FFFF00000000007FFF80FFFFFFFFFFFFFC0
310
7FFFFFF0001FFFFFF0001FFFFFFFFC0007F0001FFFFFFFFC0007FF0003FFFFFF
310
FFFF80000000007FF000FE0000000000FFFFE0003F00078007F0003FFF80007F
310
FE0000000001FFFFE0000000001FFFF80FFFFFFFFFFFFFC07FFFFFF0001FFFFF
310
F0001FFFFFFFFC0007F0001FFFFFFFFC0007FF0003FFFFFFFFFF0000000000FF
310
F000FC0000000003FFFFE0007F00078007F0003FFF80007FFC0000000007FFFF
310
C0000000007FFFF80FFFFFFFFFFFFFC07FFFFFF0001FFFFFF8001FFFFFFFFC00
310
0FF8001FFFFFFFFC000FFF0003FFFFFFFFFE0000000003FFF000FC000000000F
310
FFFFE0007F80070007F8001FFF80007FF8000000001FFFFF8000000001FFFFF8
310
0FFFFFFFFFFFFFC07FFFFFF0001FFFFFF8001FFFFFFFFC000FF8001FFFFFFFFC
310
000FFF0003FFFFFFFFFC000000000FFFF000F8000000007FFFFFE0007F800700
310
07F8001FFF80007FF000000000FFFFFF800000000FFFFFF80FFFFFFFFFFFFFC0
310
7FFFFFF0001FFFFFF8000FFFFFFFF8000FF8000FFFFFFFF8000FFF0003FFFFFF
310
FFFC000000007FFFF000F800000007FFFFFFC0007F8003000FF8001FFF80007F
310
F000000007FFFFFF000000007FFFFFF80FFFFFFFFFFFFFC07FFFFFF0001FFFFF
310
F8000FFFFFFFF8000FF8000FFFFFFFF8000FFF0003FFFFFFFFF80000000FFFFF
310
F000F0000000FFFFFFFFC000FF8003000FF8001FFF80007FE0000000FFFFFFFF
310
0000000FFFFFFFF8000001FFFE0000007FFFFFF0001FFFFFF8000FFFFFFFF800
310
0FF8000FFFFFFFF8000FFF0003FFFFFFFFF8000000FFFFFFF000F000000FFFFF
310
FFFFC000FFC002000FF8000FFF80007FE000001FFFFFFFFE000001FFFFFFFFF8
310
000001FFFE0000007FFFFFF0001FFFFFF8000FFFFFFFF8000FF8000FFFFFFFF8
310
000FFF0003FFFFFFFFF000001FFFFFFFF000E00000FFFFFFFFFFC000FFC00200
310
0FFC000FFF80007FE00001FFFFFFFFFE00001FFFFFFFFFF8000001FFFE000000
310
7FFFFFF0001FFFFFFC000FFFFFFFF8001FFC000FFFFFFFF8001FFF0003FFFFFF
310
FFF00001FFFFFFFFF000E00007FFFFFFFFFF8000FFC000001FFC000FFF80007F
310
C0000FFFFFFFFFFE0000FFFFFFFFFFF8000001FFFE0000007FFFFFF0001FFFFF
310
FC0007FFFFFFF0001FFC0007FFFFFFF0001FFF0003FFFFFFFFF00007FFFFFFFF
310
F000E0001FFFFFFFFFFF8000FFC000001FFC000FFF80007FC0003FFFFFFFFFFE
310
0001FFFFFFFFFFF8000001FFFE0000007FFFFFF0001FFFFFFC0007FFFFFFF000
310
1FFC0007FFFFFFF0001FFF0003FFFFFFFFF0001FFFFFFFFFF000E0003FFFFF00
310
03FF8001FFE000001FFC0007FF80007FC0007FFFFF0007FC0003FFFFF0003FF8
310
000001FFFE0000007FFFFFF0001FFFFFFC0003FFFFFFE0001FFC0003FFFFFFE0
310
001FFF0003FFFFFFFFF0003FFFFFFFFFF000E0003FFFFF0001FF8001FFE00000
310
1FFE0007FF80007FC0007FFFFE0003FC0007FFFFE0003FF8000001FFFE000000
310
7FFFFFF0001FFFFFFE0003FFFFFFE0003FFE0003FFFFFFE0003FFF0003FFFFFF
310
FFF0003FFFFF8001F000E0003FFFFF0001FF0001FFE000001FFE0007FF80007F
310
C0007FFFFE0003FC0007FFFFE0003FF8000001FFFE0000007FFFFFF0001FFFFF
310
FE0001FFFFFFC0003FFE0001FFFFFFC0003FFF0003FFFFFFFFF0003FFFFF0001
310
F000E0003FFFFF0003FF0001FFE000003FFE0007FF80007FC0007FFFFE0003FC
310
0007FFFFE0003FF8000001FFFE0000007FFFFFF0001FFFFFFF0001FFFFFFC000
310
7FFF0001FFFFFFC0007FFF0003FFFFFFFFF0003FFFFF0001F000E0003FFFFE00
310
03FF0003FFF000003FFE0003FF80007FC0007FFFFC0003FE0007FFFFE0003FF8
310
000001FFFE0000007FFFFFF0001FFFFFFF0000FFFFFF80007FFF0000FFFFFF80
310
007FFF0003FFFFFFFFF0003FFFFF0001F000E0003FFFFE0003FF0003FFF00000
310
3FFF0003FF80007FC0007FFFFC0007FE0007FFFFC0003FF8000001FFFE000000
310
7FFFFFF0001FFFFFFF80007FFFFF0000FFFF80007FFFFF0000FFFF0003FFFFFF
310
FFF0003FFFFF0003F000E0003FFFFC0003FE0003FFF000003FFF0003FF80007F
310
E0003FFFF80007FE0003FFFFC0007FF8000001FFFE0000007FFFFFF0001FFFFF
310
FF80003FFFFE0000FFFF80003FFFFE0000FFFF0003FFFFFFFFF0001FFFFE0003
310
F000F0001FFFF80003FE0003FFF000007FFF0001FF80007FE0003FFFF00007FE
310
0001FFFF80007FF8000001FFFE0000007FFFFFF0001FFFFFFFC0000FFFF80001
310
FFFFC0000FFFF80001FFFF0003FFFFFFFFF0001FFFFC0003F000F0000FFFF000
310
07FE0007FFF800007FFF0001FF80007FE0001FFFE00007FF0000FFFE00007FF8
310
000001FFFE0000007FFFFFF0001FFFFFFFC00003FFE00001FFFFC00003FFE000
310
01FFFF0003FFFFFFFFF8000FFFF80003F000F00003FFC00007FC0007FFF80000
310
7FFF8001FF80007FF00007FF80000FFF00007FF80000FFF8000001FFFE000000
310
7F80000000000001FFE000003E000003FFFFE000003E000003FFFF0003FFFFFF
310
FFF80003FFE00007F000F800000000000FFC0007FFF800007FFF8001FF80007F
310
F000000000000FFF000000000000FFF8000001FFFE0000007F80000000000001
310
FFF0000000000007FFFFF0000000000007FFFF0003FFFFFFFFFC00007E000007
310
F000F800000000000FFC0007FFF80000FFFF8000FF80007FF800000000001FFF
310
800000000001FFF8000001FFFE0000007F80000000000001FFF800000000000F
310
FFFFF800000000000FFFFF0003FFFFFFFFFC00000000000FF000FC0000000000
310
1FFC0007FFFC0000FFFF8000FF80007FF800000000003FFFC00000000001FFF8
310
000001FFFE0000007F80000000000001FFF800000000000FFFFFF80000000000
310
0FFFFF0003FFFFFFFFFE00000000001FF000FE00000000003FF8000FFFFC0000
310
FFFF8000FF80007FFC00000000003FFFC00000000003FFF8000001FFFE000000
310
7F80000000000001FFFC00000000001FFFFFFC00000000001FFFFF0003FFFFFF
310
FFFF00000000001FF000FF00000000003FF8000FFFFC0000FFFFC000FF80007F
310
FE00000000007FFFE00000000007FFF8000001FFFE0000007F80000000000001
310
FFFE00000000003FFFFFFE00000000003FFFFF0003FFFFFFFFFF80000000003F
310
F000FF80000000007FF8000FFFFC0001FFFFC0007F80007FFF0000000000FFFF
310
F0000000000FFFF800000000000000007F80000000000001FFFF8000000000FF
310
FFFFFF8000000000FFFFFF0003FFFFFFFFFFC0000000007FF000FFC000000000
310
FFF8000FFFFE0001FFFFC0007F80007FFF8000000001FFFFF8000000001FFFF8
310
00000000000000007F80000000000001FFFFC000000001FFFFFFFFC000000001
310
FFFFFF0003FFFFFFFFFFE000000000FFF000FFE000000003FFF0001FFFFE0001
310
FFFFC0007F80007FFFC000000007FFFFFE000000003FFFF80000000000000000
310
7F80000000000001FFFFE000000003FFFFFFFFE000000003FFFFFF0003FFFFFF
310
FFFFF000000003FFF000FFF80000000FFFF0001FFFFE0001FFFFE0007F80007F
310
FFF00000000FFFFFFF00000000FFFFF800000000000000007F80000000000001
310
FFFFF80000000FFFFFFFFFF80000000FFFFFFF0003FFFFFFFFFFFC0000000FFF
310
F000FFFE0000003FFFF0001FFFFE0003FFFFE0003F80007FFFFC0000003FFFFF
310
FFC0000003FFFFF800000000000000007F80000000000001FFFFFE0000003FFF
310
FFFFFFFE0000003FFFFFFF0003FFFFFFFFFFFF0000003FFFF000FFFF800000FF
310
FFF0001FFFFF0003FFFFE0003F80007FFFFF000001FFFFFFFFF800001FFFFFF8
310
00000000000000007F80000000000001FFFFFFC00001FFFFFFFFFFFFC00001FF
310
FFFFFF0003FFFFFFFFFFFFC00000FFFFF000FFFFF8000FFFFFFFFFFFFFFFFFFF
310
FFFFFFFFFFFFFFFFFFFFF0001FFFFFFFFFFF0000FFFFFFF80000000000000000
310
7FFFFFFFFFFFFFFFFFFFFFFC001FFFFFFFFFFFFFFC001FFFFFFFFFFFFFFFFFFF
310
FFFFFFFC001FFFFFF000FFFFFFFFFFFFFFFFFFFFFFFFFFFFFFFFFFFFFFFFFFFF
310
FFFFFFFFFFFFFFFFFFFFFFFFFFFFFFFFFFFFFFFFFFFFFFFFFFFFFFFFFFFFFFFF
310
FFFFFFFFFFFFFFFFFFFFFFFFFFFFFFFFFFFFFFFFFFFFFFFFFFFFFFFFFFFFFFFF
310
F000FFFFFFFFFFFFFFFFFFFFFFFFFFFFFFFFFFFFFFFFFFFFFFFFFFFFFFFFFFFF
310
FFFFFFFFFFFFFFFFFFFFFFFFFFFFFFFFFFFFFFFFFFFFFFFFFFFFFFFFFFFFFFFF
310
FFFFFFFFFFFFFFFFFFFFFFFFFFFFFFFFFFFFFFFFFFFFFFFFF000FFFFFFFFFFFF
310
FFFFFFFFFFFFFFFFFFFFFFFFFFFFFFFFFFFFFFFFFFFFFFFFFFFFFFFFFFFFFFFF
310
FFFFFFFFFFFFFFFFFFFFFFFFFFFFFFFFFFFFFFFFFFFFFFFFFFFFFFFFFFFFFFFF
310
FFFFFFFFFFFFFFFFFFFFFFFFFFFFFFFFF000FFFFFFFFFFFFFFFFFFFFFFFFFFFF
310
FFFFFFFFFFFFFFFFFFFFFFFFFFFFFFFFFFFFFFFFFFFFFFFFFFFFFFFFFFFFFFFF
310
FFFFFFFFFFFFFFFFFFFFFFFFFFFFFFFFFFFFFFFFFFFFFFFFFFFFFFFFFFFFFFFF
310
FFFFFFFFFFFFFFFFF000FFFFFFFFFFFFFFFFFFFFFFFFFFFFFFFFFFFFFFFFFFFF
310
FFFFFFFFFFFFFFFFFFFFFFFFFFFFFFFFFFFFFFFFFFFFFFFFFFFFFFFFFFFFFFFF
310
FFFFFFFFFFFFFFFFFFFFFFFFFFFFFFFFFFFFFFFFFFFFFFFFFFFFFFFFFFFFFFFF
310
F000FFFFFFFFFFFFFFFFFFFFFFFFFFFFFFFFFFFFFFFFFFFFFFFFFFFFFFFFFFFF
310
FFFFFFFFFFFFFFFFFFFFFFFFFFFFFFFFFFFFFFFFFFFFFFFFFFFFFFFFFFFFFFFF
310
FFFFFFFFFFFFFFFFFFFFFFFFFFFFFFFFFFFFFFFFFFFFFFFFF000FFFFFFFFFFFF
310
FFFFFFFFFFFFFFFFFFFFFFFFFFFFFFFFFFFFFFFFFFFFFFFFFFFFFFFFFFFFFFFF
310
FFFFFFFFFFFFFFFFFFFFFFFFFFFFFFFFFFFFFFFFFFFFFFFFFFFFFFFFFFFFFFFF
310
FFFFFFFFFFFFFFFFFFFFFFFFFFFFFFFFF000FFFFFFFFFFFFFFFFFFFFFFFFFFFF
310
FFFFFFFFFFFFFFFFFFFFFFFFFFFFFFFFFFFFFFFFFFFFFFFFFFFFFFFFFFFFFFFF
310
FFFFFFFFFFFFFFFFFFFFFFFFFFFFFFFFFFFFFFFFFFFFFFFFFFFFFFFFFFFFFFFF
310
FFFFFFFFFFFFFFFFF000FFFFFFFFFFFFFFFFFFFFFFFFFFFFFFFFFFFFFFFFFFFF
310
FFFFFFFFFFFFFFFFFFFFFFFFFFFFFFFFFFFFFFFFFFFFFFFFFFFFFFFFFFFFFFFF
310
FFFFFFFFFFFFFFFFFFFFFFFFFFFFFFFFFFFFFFFFFFFFFFFFFFFFFFFFFFFFFFFF
310
F000FFFFFFFFFFFFFFFFFFFFFFFFFFFFFFFFFFFFFFFFFFFFFFFFFFFFFFFFFFFF
310
FFFFFFFFFFFFFFFFFFFFFFFFFFFFFFFFFFFFFFFFFFFFFFFFFFFFFFFFFFFFFFFF
310
FFFFFFFFFFFFFFFFFFFFFFFFFFFFFFFFFFFFFFFFFFFFFFFFF000FFFFFFFFFFFF
310
FFFFFFFFFFFFFFFFFFFFFFFFFFFFFFFFFFFFFFFFFFFFFFFFFFFFFFFFFFFFFFFF
310
FFFFFFFFFFFFFFFFFFFFFFFFFFFFFFFFFFFFFFFFFFFFFFFFFFFFFFFFFFFFFFFF
310
FFFFFFFFFFFFFFFFFFFFFFFFFFFFFFFFF000FFFFFFFFFFFFFFFFFFFFFFFFFFFF
310
FFFFFFFFFFFFFFFFFFFFFFFFFFFFFFFFFFFFFFFFFFFFFFFFFFFFFFFFFFFFFFFF
310
FFFFFFFFFFFFFFFFFFFFFFFFFFFFFFFFFFFFFFFFFFFFFFFFFFFFFFFFFFFFFFFF
310
FFFFFFFFFFFFFFFFF000FFFFFFFFFFFFFFFFFFFFFFFFFFFFFFFFFFFFFFFFFFFF
310
FFFFFFFFFFFFFFFFFFFFFFFFFFFFFFFFFFFFFFFFFFFFFFFFFFFFFFFFFFFFFFFF
310
FFFFFFFFFFFFFFFFFFFFFFFFFFFFFFFFFFFFFFFFFFFFFFFFFFFFFFFFFFFFFFFF
310
F000FFFFFFFFFFFFFFFFFFFFFFFFFFFFFFFFFFFFFFFFFFFFFFFFFFFFFFFFFFFF
310
FFFFFFFFFFFFFFFFFFFFFFFFFFFFFFFFFFFFFFFFFFFFFFFFFFFFFFFFFFFFFFFF
310
FFFFFFFFFFFFFFFFFFFFFFFFFFFFFFFFFFFFFFFFFFFFFFFFF000FFFFFFFFFFFF
310
FFFFFFFFFFFFFFFFFFFFFFFFFFFFFFFFFFFFFFFFFFFFFFFFFFFFFFFFFFFFFFFF
310
FFFFFFFFFFFFFFFFFFFFFFFFFFFFFFFFFFFFFFFFFFFFFFFFFFFFFFFFFFFFFFFF
310
FFFFFFFFFFFFFFFFFFFFFFFFFFFFFFFFF000FFFFFFFFFFFFFFFFFFFFFFFFFFFF
310
FFFFFFFFFFFFFFFFFFFFFFFFFFFFFFFFFFFFFFFFFFFFFFFFFFFFFFFFFFFFFFFF
310
FFFFFFFFFFFFFFFFFFFFFFFFFFFFFFFFFFFFFFFFFFFFFFFFFFFFFFFFFFFFFFFF
310
FFFFFFFFFFFFFFFFF000FFFFFFFFFFFFFFFFFFFFFFFFFFFFFFFFFFFFFFFFFFFF
310
FFFFFFFFFFFFFFFFFFFFFFFFFFFFFFFFFFFFFFFFFFFFFFFFFFFFFFFFFFFFFFFF
310
FFFFFFFFFFFFFFFFFFFFFFFFFFFFFFFFFFFFFFFFFFFFFFFFFFFFFFFFFFFFFFFF
310
F000FFFFFFFFFFFFFFFFFFFFFFFFFFFFFFFFFFFFFFFFFFFFFFFFFFFFFFFFFFFF
310
FFFFFFFFFFFFFFFFFFFFFFFFFFFFFFFFFFFFFFFFFFFFFFFFFFFFFFFFFFFFFFFF
310
FFFFFFFFFFFFFFFFFFFFFFFFFFFFFFFFFFFFFFFFFFFFFFFFF000FFFFFFFFFFFF
310
FFFFFFFFFFFFFFFFFFFFFFFFFFFFFFFFFFFFFFFFFFFFFFFFFFFFFFFFFFFFFFFF
310
FFFFFFFFFFFFFFFFFFFFFFFFFFFFFFFFFFFFFFFFFFFFFFFFFFFFFFFFFFFFFFFF
310
FFFFFFFFFFFFFFFFFFFFFFFFFFFFFFFFF000FFFFFFFFFFFFFFFFFFFFFFFFFFFF
310
FFFFFFFFFFFFFFFFFFFFFFFFFFFFFFFFFFFFFFFFFFFFFFFFFFFFFFFFFFFFFFFF
310
FFFFFFFFFFFFFFFFFFFFFFFFFFFFFFFFFFFFFFFFFFFFFFFFFFFFFFFFFFFFFFFF
310
FFFFFFFFFFFFFFFFF000FFFFFFFFFFFFFFFFFFFFFFFFFFFFFFFFFFFFFFFFFFFF
310
FFFFFFFFFFFFFFFFFFFFFFFFFFFFFFFFFFFFFFFFFFFFFFFFFFFFFFFFFFFFFFFF
310
FFFFFFFFFFFFFFFFFFFFFFFFFFFFFFFFFFFFFFFFFFFFFFFFFFFFFFFFFFFFFFFF
310
F000FFFFFFFFFFFFFFFFFFFFFFFFFFFFFFFFFFFFFFFFFFFFFFFFFFFFFFFFFFFF
310
FFFFFFFFFFFFFFFFFFFFFFFFFFFFFFFFFFFFFFFFFFFFFFFFFFFFFFFFFFFFFFFF
310
FFFFFFFFFFFFFFFFFFFFFFFFFFFFFFFFFFFFFFFFFFFFFFFFF000FFFFFFFFFFFF
310
FFFFFFFFFFFFFFFFFFFFFFFFFFFFFFFFFFFFFFFFFFFFFFFFFFFFFFFFFFFFFFFF
310
FFFFFFFFFFFFFFFFFFFFFFFFFFFFFFFFFFFFFFFFFFFFFFFFFFFFFFFFFFFFFFFF
310
FFFFFFFFFFFFFFFFFFFFFFFFFFFFFFFFF0000000000000000000000000000000
310
0000000000000000000000000000000000000000000000000000000000000000
310
0000000000000000000000000000000000000000000000000000000000000000
310
0000000000000000000000000000000000000000000000000000000000000000
310
0000000000000000000000000000000000000000000000000000000000000000
310
0000000000000000000000000000000000000000000000000000000000000000
310
0000000000000000000000000000000000000000000000000000000000000000
310
0000000000000000000000000000000000000000000000000000000000000000
310
0000000000000000000000000000000000000000000000000000000000000000
310
0000000000000000000000000000000000000000000000000000000000000000
310
0000000000000000000000000000000000000000000000000000000000000000
310
0000000000000000000000000000000000000000000000000000000000000000
310
0000000000000000000000000000000000000000000000000000000000000000
310
0000000000000000000000000000000000000000000000000000000000000000
310
0000000000000000000000000000000000000000000000000000000000000000
310
0000000000000000000000000000000000000000000000000000000000000000
  1
OLE
  0
ENDSEC
  0
SECTION
  2
OBJECTS
  0
DICTIONARY
  5
C
330
0
100
AcDbDictionary
281
     1
  3
ACAD_GROUP
350
D
  3
ACAD_LAYOUT
350
1A
  3
ACAD_MLINESTYLE
350
17
  3
ACAD_PLOTSETTINGS
350
19
  3
ACAD_PLOTSTYLENAME
350
E
  3
ACAD_SCALELIST
350
47
  0
DICTIONARY
  5
D
102
{ACAD_REACTORS
330
C
102
}
330
C
100
AcDbDictionary
281
     1
  0
DICTIONARY
  5
1A
102
{ACAD_REACTORS
330
C
102
}
330
C
100
AcDbDictionary
281
     1
  3
Layout1
350
1E
  3
Layout2
350
26
  3
Model
350
22
  0
DICTIONARY
  5
17
102
{ACAD_REACTORS
330
C
102
}
330
C
100
AcDbDictionary
281
     1
  3
Standard
350
18
  0
DICTIONARY
  5
19
102
{ACAD_REACTORS
330
C
102
}
330
C
100
AcDbDictionary
281
     1
  0
ACDBDICTIONARYWDFLT
  5
E
102
{ACAD_REACTORS
330
C
102
}
330
C
100
AcDbDictionary
281
     1
  3
Normal
350
F
100
AcDbDictionaryWithDefault
340
F
  0
DICTIONARY
  5
47
102
{ACAD_REACTORS
330
C
102
}
330
C
100
AcDbDictionary
281
     1
  3
A0
350
48
  3
A1
350
49
  3
A2
350
4A
  3
A3
350
4B
  3
A4
350
4C
  3
A5
350
4D
  3
A6
350
4E
  3
A7
350
4F
  3
A8
350
50
  3
A9
350
51
  3
B0
350
52
  3
B1
350
53
  3
B2
350
54
  3
B3
350
55
  3
B4
350
56
  3
B5
350
57
  3
B6
350
58
  3
B7
350
59
  3
B8
350
5A
  3
B9
350
5B
  3
C0
350
5C
  3
C1
350
5D
  3
C2
350
5E
  3
C3
350
5F
  3
C4
350
60
  3
C5
350
61
  3
C6
350
62
  3
C7
350
63
  3
C8
350
64
  3
C9
350
65
  3
D0
350
66
  3
D1
350
67
  3
D2
350
68
  0
LAYOUT
  5
1E
102
{ACAD_REACTORS
330
1A
102
}
330
1A
100
AcDbPlotSettings
  1

  2
none_device
  4

  6

 40
0.0
 41
0.0
 42
0.0
 43
0.0
 44
0.0
 45
0.0
 46
0.0
 47
0.0
 48
0.0
 49
0.0
140
0.0
141
0.0
142
1.0
143
1.0
 70
   688
 72
     1
 73
     0
 74
     5
  7

 75
    16
147
1.0
148
0.0
149
0.0
100
AcDbLayout
  1
Layout1
 70
     1
 71
     1
 10
0.0
 20
0.0
 11
420.0
 21
297.0
 12
0.0
 22
0.0
 32
0.0
 14
1.0000000000E+20
 24
1.0000000000E+20
 34
1.0000000000E+20
 15
-1.0000000000E+20
 25
-1.0000000000E+20
 35
-1.0000000000E+20
146
0.0
 13
0.0
 23
0.0
 33
0.0
 16
1.0
 26
0.0
 36
0.0
 17
0.0
 27
1.0
 37
0.0
 76
     0
330
1B
  0
LAYOUT
  5
26
102
{ACAD_REACTORS
330
1A
102
}
330
1A
100
AcDbPlotSettings
  1

  2
none_device
  4

  6

 40
0.0
 41
0.0
 42
0.0
 43
0.0
 44
0.0
 45
0.0
 46
0.0
 47
0.0
 48
0.0
 49
0.0
140
0.0
141
0.0
142
1.0
143
1.0
 70
   688
 72
     1
 73
     0
 74
     5
  7

 75
    16
147
1.0
148
0.0
149
0.0
100
AcDbLayout
  1
Layout2
 70
     1
 71
     2
 10
0.0
 20
0.0
 11
0.0
 21
0.0
 12
0.0
 22
0.0
 32
0.0
 14
0.0
 24
0.0
 34
0.0
 15
0.0
 25
0.0
 35
0.0
146
0.0
 13
0.0
 23
0.0
 33
0.0
 16
1.0
 26
0.0
 36
0.0
 17
0.0
 27
1.0
 37
0.0
 76
     0
330
23
  0
LAYOUT
  5
22
102
{ACAD_REACTORS
330
1A
102
}
330
1A
100
AcDbPlotSettings
  1

  2
none_device
  4
Letter_(8.50_x_11.00_Inches)
  6

 40
6.35
 41
6.35
 42
6.35000508
 43
6.35000508
 44
215.9
 45
279.4
 46
0.0
 47
0.0
 48
0.0
 49
0.0
140
0.0
141
0.0
142
1.0
143
1.0
 70
  1712
 72
     1
 73
     0
 74
     0
  7

 75
     0
147
1.0
148
0.0
149
0.0
100
AcDbLayout
  1
Model
 70
     1
 71
     0
 10
0.0
 20
0.0
 11
297.0
 21
210.0
 12
0.0
 22
0.0
 32
0.0
 14
0.0
 24
0.0
 34
0.0
 15
297.0
 25
210.0
 35
0.0
146
0.0
 13
0.0
 23
0.0
 33
0.0
 16
1.0
 26
0.0
 36
0.0
 17
0.0
 27
1.0
 37
0.0
 76
     0
330
1F
331
29
  0
MLINESTYLE
  5
18
102
{ACAD_REACTORS
330
17
102
}
330
17
100
AcDbMlineStyle
  2
Standard
 70
     0
  3

 62
   256
 51
90.0
 52
90.0
 71
     2
 49
0.5
 62
   256
  6
BYLAYER
 49
-0.5
 62
   256
  6
BYLAYER
  0
ACDBPLACEHOLDER
  5
F
102
{ACAD_REACTORS
330
E
102
}
330
E
  0
SCALE
  5
48
102
{ACAD_REACTORS
330
47
102
}
330
47
100
AcDbScale
 70
     0
300
1:1
140
1.0
141
1.0
290
     1
  0
SCALE
  5
49
102
{ACAD_REACTORS
330
47
102
}
330
47
100
AcDbScale
 70
     0
300
1:2
140
1.0
141
2.0
290
     0
  0
SCALE
  5
4A
102
{ACAD_REACTORS
330
47
102
}
330
47
100
AcDbScale
 70
     0
300
1:4
140
1.0
141
4.0
290
     0
  0
SCALE
  5
4B
102
{ACAD_REACTORS
330
47
102
}
330
47
100
AcDbScale
 70
     0
300
1:5
140
1.0
141
5.0
290
     0
  0
SCALE
  5
4C
102
{ACAD_REACTORS
330
47
102
}
330
47
100
AcDbScale
 70
     0
300
1:8
140
1.0
141
8.0
290
     0
  0
SCALE
  5
4D
102
{ACAD_REACTORS
330
47
102
}
330
47
100
AcDbScale
 70
     0
300
1:10
140
1.0
141
10.0
290
     0
  0
SCALE
  5
4E
102
{ACAD_REACTORS
330
47
102
}
330
47
100
AcDbScale
 70
     0
300
1:16
140
1.0
141
16.0
290
     0
  0
SCALE
  5
4F
102
{ACAD_REACTORS
330
47
102
}
330
47
100
AcDbScale
 70
     0
300
1:20
140
1.0
141
20.0
290
     0
  0
SCALE
  5
50
102
{ACAD_REACTORS
330
47
102
}
330
47
100
AcDbScale
 70
     0
300
1:30
140
1.0
141
30.0
290
     0
  0
SCALE
  5
51
102
{ACAD_REACTORS
330
47
102
}
330
47
100
AcDbScale
 70
     0
300
1:40
140
1.0
141
40.0
290
     0
  0
SCALE
  5
52
102
{ACAD_REACTORS
330
47
102
}
330
47
100
AcDbScale
 70
     0
300
1:50
140
1.0
141
50.0
290
     0
  0
SCALE
  5
53
102
{ACAD_REACTORS
330
47
102
}
330
47
100
AcDbScale
 70
     0
300
1:100
140
1.0
141
100.0
290
     0
  0
SCALE
  5
54
102
{ACAD_REACTORS
330
47
102
}
330
47
100
AcDbScale
 70
     0
300
2:1
140
2.0
141
1.0
290
     0
  0
SCALE
  5
55
102
{ACAD_REACTORS
330
47
102
}
330
47
100
AcDbScale
 70
     0
300
4:1
140
4.0
141
1.0
290
     0
  0
SCALE
  5
56
102
{ACAD_REACTORS
330
47
102
}
330
47
100
AcDbScale
 70
     0
300
8:1
140
8.0
141
1.0
290
     0
  0
SCALE
  5
57
102
{ACAD_REACTORS
330
47
102
}
330
47
100
AcDbScale
 70
     0
300
10:1
140
10.0
141
1.0
290
     0
  0
SCALE
  5
58
102
{ACAD_REACTORS
330
47
102
}
330
47
100
AcDbScale
 70
     0
300
100:1
140
100.0
141
1.0
290
     0
  0
SCALE
  5
59
102
{ACAD_REACTORS
330
47
102
}
330
47
100
AcDbScale
 70
     0
300
1/128" = 1'-0"
140
0.0078125
141
12.0
290
     0
  0
SCALE
  5
5A
102
{ACAD_REACTORS
330
47
102
}
330
47
100
AcDbScale
 70
     0
300
1/64" = 1'-0"
140
0.015625
141
12.0
290
     0
  0
SCALE
  5
5B
102
{ACAD_REACTORS
330
47
102
}
330
47
100
AcDbScale
 70
     0
300
1/32" = 1'-0"
140
0.03125
141
12.0
290
     0
  0
SCALE
  5
5C
102
{ACAD_REACTORS
330
47
102
}
330
47
100
AcDbScale
 70
     0
300
1/16" = 1'-0"
140
0.0625
141
12.0
290
     0
  0
SCALE
  5
5D
102
{ACAD_REACTORS
330
47
102
}
330
47
100
AcDbScale
 70
     0
300
3/32" = 1'-0"
140
0.09375
141
12.0
290
     0
  0
SCALE
  5
5E
102
{ACAD_REACTORS
330
47
102
}
330
47
100
AcDbScale
 70
     0
300
1/8" = 1'-0"
140
0.125
141
12.0
290
     0
  0
SCALE
  5
5F
102
{ACAD_REACTORS
330
47
102
}
330
47
100
AcDbScale
 70
     0
300
3/16" = 1'-0"
140
0.1875
141
12.0
290
     0
  0
SCALE
  5
60
102
{ACAD_REACTORS
330
47
102
}
330
47
100
AcDbScale
 70
     0
300
1/4" = 1'-0"
140
0.25
141
12.0
290
     0
  0
SCALE
  5
61
102
{ACAD_REACTORS
330
47
102
}
330
47
100
AcDbScale
 70
     0
300
3/8" = 1'-0"
140
0.375
141
12.0
290
     0
  0
SCALE
  5
62
102
{ACAD_REACTORS
330
47
102
}
330
47
100
AcDbScale
 70
     0
300
1/2" = 1'-0"
140
0.5
141
12.0
290
     0
  0
SCALE
  5
63
102
{ACAD_REACTORS
330
47
102
}
330
47
100
AcDbScale
 70
     0
300
3/4" = 1'-0"
140
0.75
141
12.0
290
     0
  0
SCALE
  5
64
102
{ACAD_REACTORS
330
47
102
}
330
47
100
AcDbScale
 70
     0
300
1" = 1'-0"
140
1.0
141
12.0
290
     0
  0
SCALE
  5
65
102
{ACAD_REACTORS
330
47
102
}
330
47
100
AcDbScale
 70
     0
300
1-1/2" = 1'-0"
140
1.5
141
12.0
290
     0
  0
SCALE
  5
66
102
{ACAD_REACTORS
330
47
102
}
330
47
100
AcDbScale
 70
     0
300
3" = 1'-0"
140
3.0
141
12.0
290
     0
  0
SCALE
  5
67
102
{ACAD_REACTORS
330
47
102
}
330
47
100
AcDbScale
 70
     0
300
6" = 1'-0"
140
6.0
141
12.0
290
     0
  0
SCALE
  5
68
102
{ACAD_REACTORS
330
47
102
}
330
47
100
AcDbScale
 70
     0
300
1'-0" = 1'-0"
140
12.0
141
12.0
290
     0
  0
ENDSEC
  0
EOF
