  0
SECTION
  2
HEADER
  9
$ACADVER
  1
AC1015
  9
$ACADMAINTVER
 70
     6
  9
$DWGCODEPAGE
  3
ANSI_1252
  9
$INSBASE
 10
0.0
 20
0.0
 30
0.0
  9
$EXTMIN
 10
0.0
 20
0.0
 30
0.0
  9
$EXTMAX
 10
297.0
 20
210.0
 30
0.0
  9
$LIMMIN
 10
0.0
 20
0.0
  9
$LIMMAX
 10
297.0
 20
210.0
  9
$ORTHOMODE
 70
     0
  9
$REGENMODE
 70
     1
  9
$FILLMODE
 70
     1
  9
$QTEXTMODE
 70
     0
  9
$MIRRTEXT
 70
     1
  9
$LTSCALE
 40
1.0
  9
$ATTMODE
 70
     1
  9
$TEXTSIZE
 40
2.0
  9
$TRACEWID
 40
1.0
  9
$TEXTSTYLE
  7
Standard
  9
$CLAYER
  8
0
  9
$CELTYPE
  6
ByLayer
  9
$CECOLOR
 62
   256
  9
$CELTSCALE
 40
1.0
  9
$DISPSILH
 70
     0
  9
$DIMSCALE
 40
1.0
  9
$DIMASZ
 40
3.0
  9
$DIMEXO
 40
0.0
  9
$DIMDLI
 40
3.75
  9
$DIMRND
 40
0.0
  9
$DIMDLE
 40
0.0
  9
$DIMEXE
 40
1.0
  9
$DIMTP
 40
0.0
  9
$DIMTM
 40
0.0
  9
$DIMTXT
 40
2.0
  9
$DIMCEN
 40
2.5
  9
$DIMTSZ
 40
0.0
  9
$DIMTOL
 70
     0
  9
$DIMLIM
 70
     0
  9
$DIMTIH
 70
     1
  9
$DIMTOH
 70
     1
  9
$DIMSE1
 70
     0
  9
$DIMSE2
 70
     0
  9
$DIMTAD
 70
     1
  9
$DIMZIN
 70
     0
  9
$DIMBLK
  1

  9
$DIMASO
 70
     1
  9
$DIMSHO
 70
     1
  9
$DIMPOST
  1

  9
$DIMAPOST
  1

  9
$DIMALT
 70
     0
  9
$DIMALTD
 70
     3
  9
$DIMALTF
 40
0.0393700787
  9
$DIMLFAC
 40
1.0
  9
$DIMTOFL
 70
     1
  9
$DIMTVP
 40
0.0
  9
$DIMTIX
 70
     0
  9
$DIMSOXD
 70
     0
  9
$DIMSAH
 70
     0
  9
$DIMBLK1
  1

  9
$DIMBLK2
  1

  9
$DIMSTYLE
  2
ISO-25
  9
$DIMCLRD
 70
     0
  9
$DIMCLRE
 70
     0
  9
$DIMCLRT
 70
     0
  9
$DIMTFAC
 40
1.0
  9
$DIMGAP
 40
1.524
  9
$DIMJUST
 70
     0
  9
$DIMSD1
 70
     0
  9
$DIMSD2
 70
     0
  9
$DIMTOLJ
 70
     0
  9
$DIMTZIN
 70
     0
  9
$DIMALTZ
 70
     0
  9
$DIMALTTZ
 70
     0
  9
$DIMUPT
 70
     0
  9
$DIMDEC
 70
     2
  9
$DIMTDEC
 70
     3
  9
$DIMALTU
 70
     2
  9
$DIMALTTD
 70
     3
  9
$DIMTXSTY
  7
Standard
  9
$DIMAUNIT
 70
     0
  9
$DIMADEC
 70
     2
  9
$DIMALTRND
 40
0.0
  9
$DIMAZIN
 70
     0
  9
$DIMDSEP
 70
    44
  9
$DIMATFIT
 70
     3
  9
$DIMFRAC
 70
     0
  9
$DIMLDRBLK
  1

  9
$DIMLUNIT
 70
     2
  9
$DIMLWD
 70
    -2
  9
$DIMLWE
 70
    -2
  9
$DIMTMOVE
 70
     0
  9
$LUNITS
 70
     2
  9
$LUPREC
 70
     2
  9
$SKETCHINC
 40
1.0
  9
$FILLETRAD
 40
10.0
  9
$AUNITS
 70
     0
  9
$AUPREC
 70
     2
  9
$MENU
  1
.
  9
$ELEVATION
 40
0.0
  9
$PELEVATION
 40
0.0
  9
$THICKNESS
 40
0.0
  9
$LIMCHECK
 70
     0
  9
$CHAMFERA
 40
0.0
  9
$CHAMFERB
 40
0.0
  9
$CHAMFERC
 40
0.0
  9
$CHAMFERD
 40
0.0
  9
$SKPOLY
 70
     0
  9
$TDCREATE
 40
2457626.633143924
  9
$TDUCREATE
 40
2457626.54981059
  9
$TDUPDATE
 40
2457626.633145382
  9
$TDUUPDATE
 40
2457626.549812049
  9
$TDINDWG
 40
0.0000000116
  9
$TDUSRTIMER
 40
0.0000000116
  9
$USRTIMER
 70
     1
  9
$ANGBASE
 50
0.0
  9
$ANGDIR
 70
     0
  9
$PDMODE
 70
     0
  9
$PDSIZE
 40
-1.0
  9
$PLINEWID
 40
0.0
  9
$SPLFRAME
 70
     0
  9
$SPLINETYPE
 70
     6
  9
$SPLINESEGS
 70
     8
  9
$HANDSEED
  5
31E
  9
$SURFTAB1
 70
     6
  9
$SURFTAB2
 70
     6
  9
$SURFTYPE
 70
     6
  9
$SURFU
 70
     6
  9
$SURFV
 70
     6
  9
$UCSBASE
  2

  9
$UCSNAME
  2

  9
$UCSORG
 10
0.0
 20
0.0
 30
0.0
  9
$UCSXDIR
 10
1.0
 20
0.0
 30
0.0
  9
$UCSYDIR
 10
0.0
 20
1.0
 30
0.0
  9
$UCSORTHOREF
  2

  9
$UCSORTHOVIEW
 70
     0
  9
$UCSORGTOP
 10
0.0
 20
0.0
 30
0.0
  9
$UCSORGBOTTOM
 10
0.0
 20
0.0
 30
0.0
  9
$UCSORGLEFT
 10
0.0
 20
0.0
 30
0.0
  9
$UCSORGRIGHT
 10
0.0
 20
0.0
 30
0.0
  9
$UCSORGFRONT
 10
0.0
 20
0.0
 30
0.0
  9
$UCSORGBACK
 10
0.0
 20
0.0
 30
0.0
  9
$PUCSBASE
  2

  9
$PUCSNAME
  2

  9
$PUCSORG
 10
0.0
 20
0.0
 30
0.0
  9
$PUCSXDIR
 10
1.0
 20
0.0
 30
0.0
  9
$PUCSYDIR
 10
0.0
 20
1.0
 30
0.0
  9
$PUCSORTHOREF
  2

  9
$PUCSORTHOVIEW
 70
     0
  9
$PUCSORGTOP
 10
0.0
 20
0.0
 30
0.0
  9
$PUCSORGBOTTOM
 10
0.0
 20
0.0
 30
0.0
  9
$PUCSORGLEFT
 10
0.0
 20
0.0
 30
0.0
  9
$PUCSORGRIGHT
 10
0.0
 20
0.0
 30
0.0
  9
$PUCSORGFRONT
 10
0.0
 20
0.0
 30
0.0
  9
$PUCSORGBACK
 10
0.0
 20
0.0
 30
0.0
  9
$USERI1
 70
     0
  9
$USERI2
 70
     0
  9
$USERI3
 70
     0
  9
$USERI4
 70
     0
  9
$USERI5
 70
     0
  9
$USERR1
 40
0.0
  9
$USERR2
 40
0.0
  9
$USERR3
 40
0.0
  9
$USERR4
 40
0.0
  9
$USERR5
 40
0.0
  9
$WORLDVIEW
 70
     1
  9
$SHADEDGE
 70
     3
  9
$SHADEDIF
 70
    70
  9
$TILEMODE
 70
     1
  9
$MAXACTVP
 70
    64
  9
$PINSBASE
 10
0.0
 20
0.0
 30
0.0
  9
$PLIMCHECK
 70
     0
  9
$PEXTMIN
 10
1.0000000000E+20
 20
1.0000000000E+20
 30
1.0000000000E+20
  9
$PEXTMAX
 10
-1.0000000000E+20
 20
-1.0000000000E+20
 30
-1.0000000000E+20
  9
$PLIMMIN
 10
0.0
 20
0.0
  9
$PLIMMAX
 10
420.0
 20
297.0
  9
$UNITMODE
 70
     0
  9
$VISRETAIN
 70
     1
  9
$PLINEGEN
 70
     0
  9
$PSLTSCALE
 70
     1
  9
$TREEDEPTH
 70
  3020
  9
$CMLSTYLE
  2
Standard
  9
$CMLJUST
 70
     0
  9
$CMLSCALE
 40
20.0
  9
$PROXYGRAPHICS
 70
     1
  9
$MEASUREMENT
 70
     1
  9
$CELWEIGHT
370
    -1
  9
$ENDCAPS
280
     0
  9
$JOINSTYLE
280
     0
  9
$LWDISPLAY
290
     1
  9
$INSUNITS
 70
     4
  9
$HYPERLINKBASE
  1

  9
$STYLESHEET
  1

  9
$XEDIT
290
     1
  9
$CEPSNTYPE
380
     0
  9
$PSTYLEMODE
290
     1
  9
$FINGERPRINTGUID
  2
{E6A8FB3F-DC52-42F7-8422-F7C60C3187DE}
  9
$VERSIONGUID
  2
{FAEB1C32-E019-11D5-929B-00C0DF256EC4}
  9
$EXTNAMES
290
     1
  9
$PSVPSCALE
 40
0.0
  9
$OLESTARTUP
290
     0
  0
ENDSEC
  0
SECTION
  2
CLASSES
  0
CLASS
  1
ACDBDICTIONARYWDFLT
  2
AcDbDictionaryWithDefault
  3
ObjectDBX Classes
 90
        0
280
     0
281
     0
  0
CLASS
  1
VISUALSTYLE
  2
AcDbVisualStyle
  3
ObjectDBX Classes
 90
     4095
280
     0
281
     0
  0
CLASS
  1
MATERIAL
  2
AcDbMaterial
  3
ObjectDBX Classes
 90
     1153
280
     0
281
     0
  0
CLASS
  1
SCALE
  2
AcDbScale
  3
ObjectDBX Classes
 90
     1153
280
     0
281
     0
  0
CLASS
  1
TABLESTYLE
  2
AcDbTableStyle
  3
ObjectDBX Classes
 90
     4095
280
     0
281
     0
  0
CLASS
  1
MLEADERSTYLE
  2
AcDbMLeaderStyle
  3
ACDB_MLEADERSTYLE_CLASS
 90
     4095
280
     0
281
     0
  0
CLASS
  1
SUN
  2
AcDbSun
  3
SCENEOE
 90
     1153
280
     0
281
     0
  0
CLASS
  1
ACDBPLACEHOLDER
  2
AcDbPlaceHolder
  3
ObjectDBX Classes
 90
        0
280
     0
281
     0
  0
CLASS
  1
LAYOUT
  2
AcDbLayout
  3
ObjectDBX Classes
 90
        0
280
     0
281
     0
  0
ENDSEC
  0
SECTION
  2
TABLES
  0
TABLE
  2
VPORT
  5
8
330
0
100
AcDbSymbolTable
 70
     1
  0
VPORT
  5
29
330
8
100
AcDbSymbolTableRecord
100
AcDbViewportTableRecord
  2
*Active
 70
     0
 10
0.0
 20
0.0
 11
1.0
 21
1.0
 12
148.5
 22
105.0
 13
0.0
 23
0.0
 14
10.0
 24
10.0
 15
10.0
 25
10.0
 16
0.0
 26
0.0
 36
1.0
 17
0.0
 27
0.0
 37
0.0
 40
210.0
 41
1.4142857143
 42
50.0
 43
0.0
 44
0.0
 50
0.0
 51
0.0
 71
     0
 72
  2000
 73
     1
 74
     3
 75
     0
 76
     0
 77
     0
 78
     0
281
     0
 65
     1
110
0.0
120
0.0
130
0.0
111
1.0
121
0.0
131
0.0
112
0.0
122
1.0
132
0.0
 79
     0
146
0.0
  0
ENDTAB
  0
TABLE
  2
LTYPE
  5
5
330
0
100
AcDbSymbolTable
 70
     6
  0
LTYPE
  5
14
330
5
100
AcDbSymbolTableRecord
100
AcDbLinetypeTableRecord
  2
ByBlock
 70
     0
  3

 72
    65
 73
     0
 40
0.0
  0
LTYPE
  5
15
330
5
100
AcDbSymbolTableRecord
100
AcDbLinetypeTableRecord
  2
ByLayer
 70
     0
  3

 72
    65
 73
     0
 40
0.0
  0
LTYPE
  5
16
330
5
100
AcDbSymbolTableRecord
100
AcDbLinetypeTableRecord
  2
Continuous
 70
     0
  3
Solid line
 72
    65
 73
     0
 40
0.0
  0
LTYPE
  5
6E
330
5
100
AcDbSymbolTableRecord
100
AcDbLinetypeTableRecord
  2
HIDDEN
 70
     0
  3
Hidden __ __ __ __ __ __ __ __ __ __ __ __ __ __
 72
    65
 73
     2
 40
1.905
 49
1.27
 74
     0
 49
-0.635
 74
     0
  0
LTYPE
  5
6F
330
5
100
AcDbSymbolTableRecord
100
AcDbLinetypeTableRecord
  2
PHANTOM
 70
     0
  3
Phantom ______  __  __  ______  __  __  ______
 72
    65
 73
     6
 40
12.7
 49
6.35
 74
     0
 49
-1.27
 74
     0
 49
1.27
 74
     0
 49
-1.27
 74
     0
 49
1.27
 74
     0
 49
-1.27
 74
     0
  0
LTYPE
  5
70
330
5
100
AcDbSymbolTableRecord
100
AcDbLinetypeTableRecord
  2
CENTER
 70
     0
  3
Center ____ _ ____ _ ____ _ ____ _ ____ _ ____
 72
    65
 73
     4
 40
10.16
 49
6.35
 74
     0
 49
-1.27
 74
     0
 49
1.27
 74
     0
 49
-1.27
 74
     0
  0
LTYPE
  5
71
330
5
100
AcDbSymbolTableRecord
100
AcDbLinetypeTableRecord
  2
CENTERX2
 70
     0
  3
Center (2x) ________  __  ________  __  _____
 72
    65
 73
     4
 40
20.32
 49
12.7
 74
     0
 49
-2.54
 74
     0
 49
2.54
 74
     0
 49
-2.54
 74
     0
  0
LTYPE
  5
72
330
5
100
AcDbSymbolTableRecord
100
AcDbLinetypeTableRecord
  2
DOT2
 70
     0
  3
Dot (.5x) ........................................
 72
    65
 73
     2
 40
0.635
 49
0.0
 74
     0
 49
-0.635
 74
     0
  0
ENDTAB
  0
TABLE
  2
LAYER
  5
2
330
0
100
AcDbSymbolTable
 70
     5
  0
LAYER
  5
10
330
2
100
AcDbSymbolTableRecord
100
AcDbLayerTableRecord
  2
0
 70
     0
 62
     7
  6
Continuous
370
    -3
390
F
  0
LAYER
  5
73
330
2
100
AcDbSymbolTableRecord
100
AcDbLayerTableRecord
  2
FORMAT
 70
     0
 62
     7
  6
Continuous
370
    -3
390
F
  0
LAYER
  5
74
330
2
100
AcDbSymbolTableRecord
100
AcDbLayerTableRecord
  2
VERMASSUNG
 70
     0
 62
     7
  6
Continuous
370
    -3
390
F
  0
LAYER
  5
75
330
2
100
AcDbSymbolTableRecord
100
AcDbLayerTableRecord
  2
KOPF_DÜNN
 70
     0
 62
     7
  6
Continuous
370
    -3
390
F
  0
LAYER
  5
76
330
2
100
AcDbSymbolTableRecord
100
AcDbLayerTableRecord
  2
KOPF_DICK
 70
     0
 62
     7
  6
Continuous
370
    15
390
F
  0
ENDTAB
  0
TABLE
  2
STYLE
  5
3
330
0
100
AcDbSymbolTable
 70
     3
  0
STYLE
  5
11
330
3
100
AcDbSymbolTableRecord
100
AcDbTextStyleTableRecord
  2
Standard
 70
     0
 40
0.0
 41
1.0
 50
0.0
 71
     0
 42
2.0
  3
txt
  4

  0
STYLE
  5
77
330
3
100
AcDbSymbolTableRecord
100
AcDbTextStyleTableRecord
  2
SLDTEXTSTYLE0
 70
     0
 40
0.0
 41
0.7
 50
0.0
 71
     0
 42
2.0
  3
TXT
  4

  0
STYLE
  5
7B
330
3
100
AcDbSymbolTableRecord
100
AcDbTextStyleTableRecord
  2
SLDTEXTSTYLE1
 70
     0
 40
0.0
 41
0.65
 50
0.0
 71
     0
 42
2.0
  3
TXT
  4

  0
ENDTAB
  0
TABLE
  2
VIEW
  5
6
330
0
100
AcDbSymbolTable
 70
     0
  0
ENDTAB
  0
TABLE
  2
UCS
  5
7
330
0
100
AcDbSymbolTable
 70
     0
  0
ENDTAB
  0
TABLE
  2
APPID
  5
9
330
0
100
AcDbSymbolTable
 70
     1
  0
APPID
  5
12
330
9
100
AcDbSymbolTableRecord
100
AcDbRegAppTableRecord
  2
ACAD
 70
     0
  0
ENDTAB
  0
TABLE
  2
DIMSTYLE
  5
A
330
0
100
AcDbSymbolTable
 70
     3
100
AcDbDimStyleTable
  0
DIMSTYLE
105
27
330
A
100
AcDbSymbolTableRecord
100
AcDbDimStyleTableRecord
  2
ISO-25
 70
     0
 41
2.5
 42
0.625
 43
3.75
 44
1.25
 73
     0
 74
     0
 77
     1
 78
     8
140
2.5
141
2.5
143
0.0393700787
147
0.625
171
     3
172
     1
178
     0
271
     2
272
     2
274
     3
278
    44
283
     0
284
     8
340
11
  0
DIMSTYLE
105
1E2
102
{ACAD_REACTORS
330
1E1
330
1ED
330
1F9
330
203
102
}
330
A
100
AcDbSymbolTableRecord
100
AcDbDimStyleTableRecord
  2
SLDDIMSTYLE0
 70
     0
 41
3.0
 44
0.0
 45
0.000000001
 73
     0
 74
     0
 77
     1
 78
    12
 79
     3
140
2.0
147
0.5
173
     1
178
     0
271
     2
272
     3
276
     2
284
    12
340
77
  0
DIMSTYLE
105
213
330
A
100
AcDbSymbolTableRecord
100
AcDbDimStyleTableRecord
  2
SLDDIMSTYLE1
 70
     0
 41
0.9
 44
0.0
 45
0.000000001
146
0.9
147
0.0
173
     1
178
     0
271
     0
272
     0
276
     2
340
11
341
214
343
214
344
214
  0
ENDTAB
  0
TABLE
  2
BLOCK_RECORD
  5
1
330
0
100
AcDbSymbolTable
 70
     9
  0
BLOCK_RECORD
  5
1F
330
1
100
AcDbSymbolTableRecord
100
AcDbBlockTableRecord
  2
*Model_Space
340
22
  0
BLOCK_RECORD
  5
1B
330
1
100
AcDbSymbolTableRecord
100
AcDbBlockTableRecord
  2
*Paper_Space
340
1E
  0
BLOCK_RECORD
  5
23
330
1
100
AcDbSymbolTableRecord
100
AcDbBlockTableRecord
  2
*Paper_Space0
340
26
  0
BLOCK_RECORD
  5
7E
330
1
100
AcDbSymbolTableRecord
100
AcDbBlockTableRecord
  2
SW_TABLEANNOTATION_0
340
0
102
{BLKREFS
331
99
102
}
  0
BLOCK_RECORD
  5
1E3
330
1
100
AcDbSymbolTableRecord
100
AcDbBlockTableRecord
  2
_D
340
0
  0
BLOCK_RECORD
  5
1EE
330
1
100
AcDbSymbolTableRecord
100
AcDbBlockTableRecord
  2
_D_1
340
0
  0
BLOCK_RECORD
  5
1FA
330
1
100
AcDbSymbolTableRecord
100
AcDbBlockTableRecord
  2
_D_2
340
0
  0
BLOCK_RECORD
  5
204
330
1
100
AcDbSymbolTableRecord
100
AcDbBlockTableRecord
  2
_D_3
340
0
  0
BLOCK_RECORD
  5
20D
330
1
100
AcDbSymbolTableRecord
100
AcDbBlockTableRecord
  2
SW_NOTE_0
340
0
102
{BLKREFS
331
212
102
}
  0
BLOCK_RECORD
  5
214
330
1
100
AcDbSymbolTableRecord
100
AcDbBlockTableRecord
  2
_DOT
340
0
  0
BLOCK_RECORD
  5
21D
330
1
100
AcDbSymbolTableRecord
100
AcDbBlockTableRecord
  2
SW_NOTE_1
340
0
102
{BLKREFS
331
222
102
}
  0
ENDTAB
  0
ENDSEC
  0
SECTION
  2
BLOCKS
  0
BLOCK
  5
20
330
1F
100
AcDbEntity
  8
0
100
AcDbBlockBegin
  2
*Model_Space
 70
     0
 10
0.0
 20
0.0
 30
0.0
  3
*Model_Space
  1

  0
ENDBLK
  5
21
330
1F
100
AcDbEntity
  8
0
100
AcDbBlockEnd
  0
BLOCK
  5
1C
330
1B
100
AcDbEntity
 67
     1
  8
0
100
AcDbBlockBegin
  2
*Paper_Space
 70
     0
 10
0.0
 20
0.0
 30
0.0
  3
*Paper_Space
  1

  0
ENDBLK
  5
1D
330
1B
100
AcDbEntity
 67
     1
  8
0
100
AcDbBlockEnd
  0
BLOCK
  5
24
330
23
100
AcDbEntity
  8
0
100
AcDbBlockBegin
  2
*Paper_Space0
 70
     0
 10
0.0
 20
0.0
 30
0.0
  3
*Paper_Space0
  1

  0
ENDBLK
  5
25
330
23
100
AcDbEntity
  8
0
100
AcDbBlockEnd
  0
BLOCK
  5
7F
330
7E
100
AcDbEntity
  8
0
100
AcDbBlockBegin
  2
SW_TABLEANNOTATION_0
 70
     0
 10
0.0
 20
0.0
 30
0.0
  3
SW_TABLEANNOTATION_0
  1

  0
LINE
  5
81
330
7E
100
AcDbEntity
  8
0
  6
Continuous
 62
     0
370
     0
100
AcDbLine
 10
0.0
 20
0.0
 30
0.0
 11
0.0
 21
-10.9613963039
 31
0.0
  0
LINE
  5
82
330
7E
100
AcDbEntity
  8
0
  6
Continuous
 62
     0
370
     0
100
AcDbLine
 10
0.0
 20
-10.9613963039
 30
0.0
 11
125.0044361962
 21
-10.9613963039
 31
0.0
  0
LINE
  5
83
330
7E
100
AcDbEntity
  8
0
  6
Continuous
 62
     0
370
     0
100
AcDbLine
 10
125.0044361962
 20
-10.9613963039
 30
0.0
 11
125.0044361962
 21
0.0
 31
0.0
  0
LINE
  5
84
330
7E
100
AcDbEntity
  8
0
  6
Continuous
 62
     0
370
     0
100
AcDbLine
 10
125.0044361962
 20
0.0
 30
0.0
 11
0.0
 21
0.0
 31
0.0
  0
LINE
  5
85
330
7E
100
AcDbEntity
  8
0
  6
Continuous
 62
     0
370
     0
100
AcDbLine
 10
15.9651052694
 20
-7.3075975359
 30
0.0
 11
15.9651052694
 21
-10.9613963039
 31
0.0
  0
LINE
  5
86
330
7E
100
AcDbEntity
  8
0
  6
Continuous
 62
     0
370
     0
100
AcDbLine
 10
34.1012448998
 20
-7.3075975359
 30
0.0
 11
34.1012448998
 21
-10.9613963039
 31
0.0
  0
LINE
  5
87
330
7E
100
AcDbEntity
  8
0
  6
Continuous
 62
     0
370
     0
100
AcDbLine
 10
92.6586456418
 20
-7.3075975359
 30
0.0
 11
92.6586456418
 21
-10.9613963039
 31
0.0
  0
LINE
  5
88
330
7E
100
AcDbEntity
  8
0
  6
Continuous
 62
     0
370
     0
100
AcDbLine
 10
15.9651052694
 20
0.0
 30
0.0
 11
15.9651052694
 21
-7.3075975359
 31
0.0
  0
LINE
  5
89
330
7E
100
AcDbEntity
  8
0
  6
Continuous
 62
     0
370
     0
100
AcDbLine
 10
34.1012448998
 20
0.0
 30
0.0
 11
34.1012448998
 21
-7.3075975359
 31
0.0
  0
LINE
  5
8A
330
7E
100
AcDbEntity
  8
0
  6
Continuous
 62
     0
370
     0
100
AcDbLine
 10
92.6586456418
 20
0.0
 30
0.0
 11
92.6586456418
 21
-7.3075975359
 31
0.0
  0
LINE
  5
8B
330
7E
100
AcDbEntity
  8
0
  6
Continuous
 62
     0
370
     0
100
AcDbLine
 10
0.0
 20
-3.653798768
 30
0.0
 11
125.0044361962
 21
-3.653798768
 31
0.0
  0
LINE
  5
8C
330
7E
100
AcDbEntity
  8
0
  6
Continuous
 62
     0
370
     0
100
AcDbLine
 10
0.0
 20
-7.3075975359
 30
0.0
 11
125.0044361962
 21
-7.3075975359
 31
0.0
  0
MTEXT
  5
8D
330
7E
100
AcDbEntity
  8
0
  6
Continuous
 62
     0
370
     0
100
AcDbMText
 10
5.2825527975
 20
-7.9563615651
 30
0.0
 40
2.0
 41
0.0
 71
     1
 72
     1
  1
POS.
  7
SLDTEXTSTYLE0
 73
     1
 44
1.0
  0
MTEXT
  5
8E
330
7E
100
AcDbEntity
  8
0
  6
Continuous
 62
     0
370
     0
100
AcDbMText
 10
21.1331751904
 20
-7.9563615651
 30
0.0
 40
2.0
 41
0.0
 71
     1
 72
     1
  1
MENGE
  7
SLDTEXTSTYLE0
 73
     1
 44
1.0
  0
MTEXT
  5
8F
330
7E
100
AcDbEntity
  8
0
  6
Continuous
 62
     0
370
     0
100
AcDbMText
 10
56.0799464956
 20
-7.9563615651
 30
0.0
 40
2.0
 41
0.0
 71
     1
 72
     1
  1
Bezeichnung
  7
SLDTEXTSTYLE0
 73
     1
 44
1.0
  0
MTEXT
  5
90
330
7E
100
AcDbEntity
  8
0
  6
Continuous
 62
     0
370
     0
100
AcDbMText
 10
97.7315420798
 20
-7.9563615651
 30
0.0
 40
2.0
 41
0.0
 71
     1
 72
     1
  1
Zeichnungsnummer
  7
SLDTEXTSTYLE0
 73
     1
 44
1.0
  0
MTEXT
  5
91
330
7E
100
AcDbEntity
  8
0
  6
Continuous
 62
     0
370
     0
100
AcDbMText
 10
7.2825526596
 20
-0.9171773494
 30
0.0
 40
2.0
 41
0.0
 71
     1
 72
     1
  1
2
  7
SLDTEXTSTYLE0
 73
     1
 44
1.0
  0
MTEXT
  5
92
330
7E
100
AcDbEntity
  8
0
  6
Continuous
 62
     0
370
     0
100
AcDbMText
 10
24.5331750608
 20
-0.9171773494
 30
0.0
 40
2.0
 41
0.0
 71
     1
 72
     1
  1
1
  7
SLDTEXTSTYLE0
 73
     1
 44
1.0
  0
MTEXT
  5
93
330
7E
100
AcDbEntity
  8
0
  6
Continuous
 62
     0
370
     0
100
AcDbMText
 10
54.2799467594
 20
-0.9171773494
 30
0.0
 40
2.0
 41
0.0
 71
     1
 72
     1
  1
Klemmschraube
  7
SLDTEXTSTYLE0
 73
     1
 44
1.0
  0
MTEXT
  5
94
330
7E
100
AcDbEntity
  8
0
  6
Continuous
 62
     0
370
     0
100
AcDbMText
 10
99.1315415642
 20
-0.9171773494
 30
0.0
 40
2.0
 41
0.0
 71
     1
 72
     1
  1
MB7-ER1.001.022
  7
SLDTEXTSTYLE0
 73
     1
 44
1.0
  0
MTEXT
  5
95
330
7E
100
AcDbEntity
  8
0
  6
Continuous
 62
     0
370
     0
100
AcDbMText
 10
7.4825526109
 20
-4.5709761174
 30
0.0
 40
2.0
 41
0.0
 71
     1
 72
     1
  1
1
  7
SLDTEXTSTYLE0
 73
     1
 44
1.0
  0
MTEXT
  5
96
330
7E
100
AcDbEntity
  8
0
  6
Continuous
 62
     0
370
     0
100
AcDbMText
 10
24.5331750608
 20
-4.5709761174
 30
0.0
 40
2.0
 41
0.0
 71
     1
 72
     1
  1
1
  7
SLDTEXTSTYLE0
 73
     1
 44
1.0
  0
MTEXT
  5
97
330
7E
100
AcDbEntity
  8
0
  6
Continuous
 62
     0
370
     0
100
AcDbMText
 10
53.6799449847
 20
-4.5709761174
 30
0.0
 40
2.0
 41
0.0
 71
     1
 72
     1
  1
Aufnahme MBM
  7
SLDTEXTSTYLE0
 73
     1
 44
1.0
  0
MTEXT
  5
98
330
7E
100
AcDbEntity
  8
0
  6
Continuous
 62
     0
370
     0
100
AcDbMText
 10
98.6315414822
 20
-4.5709761174
 30
0.0
 40
2.0
 41
0.0
 71
     1
 72
     1
  1
SK4-MB7.K01.079
  7
SLDTEXTSTYLE0
 73
     1
 44
1.0
  0
ENDBLK
  5
80
330
7E
100
AcDbEntity
  8
0
100
AcDbBlockEnd
  0
BLOCK
  5
1E4
330
1E3
100
AcDbEntity
  8
0
100
AcDbBlockBegin
  2
_D
 70
     0
 10
0.0
 20
0.0
 30
0.0
  3
_D
  1

  0
SOLID
  5
1E6
330
1E3
100
AcDbEntity
  8
VERMASSUNG
100
AcDbTrace
 10
57.8221105209
 20
177.7570315512
 30
0.0
 11
57.3721105209
 21
174.7570315512
 31
0.0
 12
58.2721105209
 22
174.7570315512
 32
0.0
 13
58.2721105209
 23
174.7570315512
 33
0.0
  0
SOLID
  5
1E7
330
1E3
100
AcDbEntity
  8
VERMASSUNG
100
AcDbTrace
 10
57.8221105209
 20
114.2570315512
 30
0.0
 11
58.2721105209
 21
117.2570315512
 31
0.0
 12
57.3721105209
 22
117.2570315512
 32
0.0
 13
57.3721105209
 23
117.2570315512
 33
0.0
  0
LINE
  5
1E8
330
1E3
100
AcDbEntity
  8
VERMASSUNG
100
AcDbLine
 10
135.1221444874
 20
177.7570315512
 30
0.0
 11
56.8221105209
 21
177.7570315512
 31
0.0
  0
LINE
  5
1E9
330
1E3
100
AcDbEntity
  8
VERMASSUNG
100
AcDbLine
 10
135.1221444874
 20
114.2570315512
 30
0.0
 11
56.8221105209
 21
114.2570315512
 31
0.0
  0
LINE
  5
1EA
330
1E3
100
AcDbEntity
  8
VERMASSUNG
100
AcDbLine
 10
57.8221105209
 20
177.7570315512
 30
0.0
 11
57.8221105209
 21
114.2570315512
 31
0.0
  0
MTEXT
  5
1EB
330
1E3
100
AcDbEntity
  8
VERMASSUNG
100
AcDbMText
 10
55.2439749832
 20
142.228172332
 30
0.0
 40
2.0
 41
0.0
 71
     1
 72
     1
  1
%%c
  7
SLDTEXTSTYLE0
 11
-7.044195017643634E-15
 21
1.0
 31
0.0
 73
     1
 44
1.0
  0
MTEXT
  5
1EC
330
1E3
100
AcDbEntity
  8
VERMASSUNG
100
AcDbMText
 10
55.243974925
 20
145.8371445256
 30
0.0
 40
2.0
 41
0.0
 71
     1
 72
     1
  1
63.5
  7
SLDTEXTSTYLE0
 11
-7.044195017643634E-15
 21
1.0
 31
0.0
 73
     1
 44
1.0
  0
ENDBLK
  5
1E5
330
1E3
100
AcDbEntity
  8
0
100
AcDbBlockEnd
  0
BLOCK
  5
1EF
330
1EE
100
AcDbEntity
  8
0
100
AcDbBlockBegin
  2
_D_1
 70
     0
 10
0.0
 20
0.0
 30
0.0
  3
_D_1
  1

  0
SOLID
  5
1F1
330
1EE
100
AcDbEntity
  8
VERMASSUNG
100
AcDbTrace
 10
220.3344785702
 20
182.0070315512
 30
0.0
 11
219.8844785702
 21
179.0070315512
 31
0.0
 12
220.7844785702
 22
179.0070315512
 32
0.0
 13
220.7844785702
 23
179.0070315512
 33
0.0
  0
SOLID
  5
1F2
330
1EE
100
AcDbEntity
  8
VERMASSUNG
100
AcDbTrace
 10
220.3344785702
 20
110.0070315512
 30
0.0
 11
220.7844785702
 21
113.0070315512
 31
0.0
 12
219.8844785702
 22
113.0070315512
 32
0.0
 13
219.8844785702
 23
113.0070315512
 33
0.0
  0
LINE
  5
1F3
330
1EE
100
AcDbEntity
  8
VERMASSUNG
100
AcDbLine
 10
209.7221444874
 20
182.0070315512
 30
0.0
 11
221.3344785702
 21
182.0070315512
 31
0.0
  0
LINE
  5
1F4
330
1EE
100
AcDbEntity
  8
VERMASSUNG
100
AcDbLine
 10
209.7221444874
 20
110.0070315512
 30
0.0
 11
221.3344785702
 21
110.0070315512
 31
0.0
  0
LINE
  5
1F5
330
1EE
100
AcDbEntity
  8
VERMASSUNG
100
AcDbLine
 10
220.3344785702
 20
182.0070315512
 30
0.0
 11
220.3344785702
 21
110.0070315512
 31
0.0
  0
MTEXT
  5
1F6
330
1EE
100
AcDbEntity
  8
VERMASSUNG
100
AcDbMText
 10
217.556343314
 20
138.928460461
 30
0.0
 40
2.0
 41
0.0
 71
     1
 72
     1
  1
MBM
  7
SLDTEXTSTYLE0
 11
-7.044195017643634E-15
 21
1.0
 31
0.0
 73
     1
 44
1.0
  0
MTEXT
  5
1F7
330
1EE
100
AcDbEntity
  8
VERMASSUNG
100
AcDbMText
 10
217.7563432653
 20
145.3284602993
 30
0.0
 40
2.0
 41
0.0
 71
     1
 72
     1
  1
%%c
  7
SLDTEXTSTYLE0
 11
-7.044195017643634E-15
 21
1.0
 31
0.0
 73
     1
 44
1.0
  0
MTEXT
  5
1F8
330
1EE
100
AcDbEntity
  8
VERMASSUNG
100
AcDbMText
 10
217.556343314
 20
148.9384607793
 30
0.0
 40
2.0
 41
0.0
 71
     1
 72
     1
  1
72
  7
SLDTEXTSTYLE0
 11
-7.044195017643634E-15
 21
1.0
 31
0.0
 73
     1
 44
1.0
  0
ENDBLK
  5
1F0
330
1EE
100
AcDbEntity
  8
0
100
AcDbBlockEnd
  0
BLOCK
  5
1FB
330
1FA
100
AcDbEntity
  8
0
100
AcDbBlockBegin
  2
_D_2
 70
     0
 10
0.0
 20
0.0
 30
0.0
  3
_D_2
  1

  0
SOLID
  5
1FD
330
1FA
100
AcDbEntity
  8
VERMASSUNG
100
AcDbTrace
 10
210.4221444874
 20
194.1624396503
 30
0.0
 11
207.4221444874
 21
194.6124396503
 31
0.0
 12
207.4221444874
 22
193.7124396503
 32
0.0
 13
207.4221444874
 23
193.7124396503
 33
0.0
  0
SOLID
  5
1FE
330
1FA
100
AcDbEntity
  8
VERMASSUNG
100
AcDbTrace
 10
131.3221444874
 20
194.1624396503
 30
0.0
 11
134.3221444874
 21
193.7124396503
 31
0.0
 12
134.3221444874
 22
194.6124396503
 32
0.0
 13
134.3221444874
 23
194.6124396503
 33
0.0
  0
LINE
  5
1FF
330
1FA
100
AcDbEntity
  8
VERMASSUNG
100
AcDbLine
 10
210.4221444874
 20
181.3070315512
 30
0.0
 11
210.4221444874
 21
195.1624396503
 31
0.0
  0
LINE
  5
200
330
1FA
100
AcDbEntity
  8
VERMASSUNG
100
AcDbLine
 10
131.3221444874
 20
168.2320315512
 30
0.0
 11
131.3221444874
 21
195.1624396503
 31
0.0
  0
LINE
  5
201
330
1FA
100
AcDbEntity
  8
VERMASSUNG
100
AcDbLine
 10
210.4221444874
 20
194.1624396503
 30
0.0
 11
131.3221444874
 21
194.1624396503
 31
0.0
  0
MTEXT
  5
202
330
1FA
100
AcDbEntity
  8
VERMASSUNG
100
AcDbMText
 10
169.9840115278
 20
196.7405752462
 30
0.0
 40
2.0
 41
0.0
 71
     1
 72
     1
  1
79.1
  7
SLDTEXTSTYLE0
 73
     1
 44
1.0
  0
ENDBLK
  5
1FC
330
1FA
100
AcDbEntity
  8
0
100
AcDbBlockEnd
  0
BLOCK
  5
205
330
204
100
AcDbEntity
  8
0
100
AcDbBlockBegin
  2
_D_3
 70
     0
 10
0.0
 20
0.0
 30
0.0
  3
_D_3
  1

  0
SOLID
  5
207
330
204
100
AcDbEntity
  8
VERMASSUNG
100
AcDbTrace
 10
210.4221444874
 20
200.1624396503
 30
0.0
 11
207.4221444874
 21
200.6124396503
 31
0.0
 12
207.4221444874
 22
199.7124396503
 32
0.0
 13
207.4221444874
 23
199.7124396503
 33
0.0
  0
SOLID
  5
208
330
204
100
AcDbEntity
  8
VERMASSUNG
100
AcDbTrace
 10
63.0721444874
 20
200.1624396503
 30
0.0
 11
66.0721444874
 21
199.7124396503
 31
0.0
 12
66.0721444874
 22
200.6124396503
 32
0.0
 13
66.0721444874
 23
200.6124396503
 33
0.0
  0
LINE
  5
209
330
204
100
AcDbEntity
  8
VERMASSUNG
100
AcDbLine
 10
210.4221444874
 20
181.3070315512
 30
0.0
 11
210.4221444874
 21
201.1624396503
 31
0.0
  0
LINE
  5
20A
330
204
100
AcDbEntity
  8
VERMASSUNG
100
AcDbLine
 10
63.0721444874
 20
157.4141621483
 30
0.0
 11
63.0721444874
 21
201.1624396503
 31
0.0
  0
LINE
  5
20B
330
204
100
AcDbEntity
  8
VERMASSUNG
100
AcDbLine
 10
210.4221444874
 20
200.1624396503
 30
0.0
 11
63.0721444874
 21
200.1624396503
 31
0.0
  0
MTEXT
  5
20C
330
204
100
AcDbEntity
  8
VERMASSUNG
100
AcDbMText
 10
138.8915290585
 20
202.7405752462
 30
0.0
 40
2.0
 41
0.0
 71
     1
 72
     1
  1
147.35
  7
SLDTEXTSTYLE0
 73
     1
 44
1.0
  0
ENDBLK
  5
206
330
204
100
AcDbEntity
  8
0
100
AcDbBlockEnd
  0
BLOCK
  5
20E
330
20D
100
AcDbEntity
  8
0
100
AcDbBlockBegin
  2
SW_NOTE_0
 70
     0
 10
0.0
 20
0.0
 30
0.0
  3
SW_NOTE_0
  1

  0
CIRCLE
  5
210
330
20D
100
AcDbEntity
  8
VERMASSUNG
 62
     0
100
AcDbCircle
 10
0.0
 20
-2.5028270988
 30
0.0
 40
2.50282709876212
  0
MTEXT
  5
211
330
20D
100
AcDbEntity
  8
VERMASSUNG
 62
     0
100
AcDbMText
 10
-0.0000000237
 20
-1.8101961014
 30
0.0
 40
2.0
 41
0.0
 71
     2
 72
     1
  1
1
  7
SLDTEXTSTYLE0
 73
     1
 44
1.0
  0
ENDBLK
  5
20F
330
20D
100
AcDbEntity
  8
0
100
AcDbBlockEnd
  0
BLOCK
  5
215
330
214
100
AcDbEntity
  8
0
100
AcDbBlockBegin
  2
_DOT
 70
     0
 10
0.0
 20
0.0
 30
0.0
  3
_DOT
  1

  0
POLYLINE
  5
217
330
214
100
AcDbEntity
  8
0
  6
ByBlock
 62
     0
100
AcDb2dPolyline
 66
     1
 10
0.0
 20
0.0
 30
0.0
 70
     1
 40
0.5
 41
0.5
  0
VERTEX
  5
219
330
217
100
AcDbEntity
  8
0
  6
ByBlock
 62
     0
100
AcDbVertex
100
AcDb2dVertex
 10
-0.25
 20
0.0
 30
0.0
 42
1.0
  0
VERTEX
  5
21A
330
217
100
AcDbEntity
  8
0
  6
ByBlock
 62
     0
100
AcDbVertex
100
AcDb2dVertex
 10
0.25
 20
0.0
 30
0.0
 42
1.0
  0
SEQEND
  5
21B
330
217
100
AcDbEntity
  8
0
  6
ByBlock
 62
     0
  0
LINE
  5
218
330
214
100
AcDbEntity
  8
0
  6
ByBlock
 62
     0
370
    -2
100
AcDbLine
 10
-0.5
 20
0.0
 30
0.0
 11
-1.0
 21
0.0
 31
0.0
  0
ENDBLK
  5
216
330
214
100
AcDbEntity
  8
0
100
AcDbBlockEnd
  0
BLOCK
  5
21E
330
21D
100
AcDbEntity
  8
0
100
AcDbBlockBegin
  2
SW_NOTE_1
 70
     0
 10
0.0
 20
0.0
 30
0.0
  3
SW_NOTE_1
  1

  0
CIRCLE
  5
220
330
21D
100
AcDbEntity
  8
VERMASSUNG
 62
     0
100
AcDbCircle
 10
2.1547502449
 20
1.2732615083
 30
0.0
 40
2.502827098762136
  0
MTEXT
  5
221
330
21D
100
AcDbEntity
  8
VERMASSUNG
 62
     0
100
AcDbMText
 10
2.1422502698
 20
1.9658925056
 30
0.0
 40
2.0
 41
0.0
 71
     2
 72
     1
  1
2
  7
SLDTEXTSTYLE0
 73
     1
 44
1.0
  0
ENDBLK
  5
21F
330
21D
100
AcDbEntity
  8
0
100
AcDbBlockEnd
  0
ENDSEC
  0
SECTION
  2
ENTITIES
  0
MTEXT
  5
78
330
1F
100
AcDbEntity
  8
KOPF_DÜNN
100
AcDbMText
 10
13.8892156294
 20
23.8442973028
 30
0.0
 40
3.0
 41
0.0
 71
     1
 72
     1
  1
102.415.721
  7
SLDTEXTSTYLE0
 73
     1
 44
1.0
  0
MTEXT
  5
79
330
1F
100
AcDbEntity
  8
VERMASSUNG
100
AcDbMText
 10
13.9329988022
 20
28.8834360957
 30
0.0
 40
3.0
 41
0.0
 71
     1
 72
     1
  1
Aufnahme_Master shank MBM 72
  7
SLDTEXTSTYLE0
 73
     1
 44
1.0
  0
MTEXT
  5
7A
330
1F
100
AcDbEntity
  8
VERMASSUNG
100
AcDbMText
 10
98.8601118557
 20
13.8365368761
 30
0.0
 40
2.0
 41
0.0
 71
     1
 72
     1
  1
Datum: 04.08.2006
  7
SLDTEXTSTYLE0
 73
     1
 44
1.0
  0
MTEXT
  5
7C
330
1F
100
AcDbEntity
  8
VERMASSUNG
100
AcDbMText
 10
13.933048693
 20
18.0482802738
 30
0.0
 40
2.0
 41
0.0
 71
     1
 72
     1
  1
DIN 69 871 AD 40
  7
SLDTEXTSTYLE1
 73
     1
 44
1.0
  0
MTEXT
  5
7D
330
1F
100
AcDbEntity
  8
VERMASSUNG
100
AcDbMText
 10
13.9808475933
 20
13.9090974274
 30
0.0
 40
2.0
 41
0.0
 71
     1
 72
     1
  1
Gewicht: 1957.39g
  7
SLDTEXTSTYLE0
 73
     1
 44
1.0
  0
INSERT
  5
99
330
1F
100
AcDbEntity
  8
0
  6
Continuous
 62
     7
370
     0
100
AcDbBlockReference
  2
SW_TABLEANNOTATION_0
 10
155.4069348624
 20
22.9491325334
 30
0.0
  0
LINE
  5
9A
330
1F
100
AcDbEntity
  8
0
  6
Continuous
 62
     7
370
    15
100
AcDbLine
 10
198.5249041043
 20
181.5542719344
 30
0.0
 11
198.0721444874
 21
182.0070315512
 31
0.0
  0
LINE
  5
9B
330
1F
100
AcDbEntity
  8
0
  6
Continuous
 62
     7
370
    15
100
AcDbLine
 10
183.6721444874
 20
182.0070315512
 30
0.0
 11
183.2209201026
 21
181.5558071664
 31
0.0
  0
ARC
  5
9C
330
1F
100
AcDbEntity
  8
0
  6
Continuous
 62
     7
370
    15
100
AcDbCircle
 10
173.2503477177
 20
181.0070315512
 30
0.0
 40
1.000000000000008
100
AcDbArc
 50
90.0
 51
150.0
  0
ARC
  5
9D
330
1F
100
AcDbEntity
  8
0
  6
Continuous
 62
     7
370
    15
100
AcDbCircle
 10
173.2503477177
 20
111.0070315512
 30
0.0
 40
1.000000000000008
100
AcDbArc
 50
210.0
 51
270.0
  0
LINE
  5
9E
330
1F
100
AcDbEntity
  8
0
  6
Continuous
 62
     7
370
    15
100
AcDbLine
 10
209.7221444874
 20
110.0070315512
 30
0.0
 11
210.4221444874
 21
110.7070315512
 31
0.0
  0
LINE
  5
9F
330
1F
100
AcDbEntity
  8
0
  6
Continuous
 62
     7
370
    15
100
AcDbLine
 10
210.4221444874
 20
181.3070315512
 30
0.0
 11
209.7221444874
 21
182.0070315512
 31
0.0
  0
LINE
  5
A0
330
1F
100
AcDbEntity
  8
0
  6
Continuous
 62
     7
370
    15
100
AcDbLine
 10
173.2503477177
 20
110.0070315512
 30
0.0
 11
209.7221444874
 21
110.0070315512
 31
0.0
  0
LINE
  5
A1
330
1F
100
AcDbEntity
  8
0
  6
Continuous
 62
     7
370
    15
100
AcDbLine
 10
180.8721444874
 20
182.0070315512
 30
0.0
 11
173.2503477177
 21
182.0070315512
 31
0.0
  0
LINE
  5
A2
330
1F
100
AcDbEntity
  8
0
  6
Continuous
 62
     7
370
    15
100
AcDbLine
 10
209.7221444874
 20
182.0070315512
 30
0.0
 11
200.8721444874
 21
182.0070315512
 31
0.0
  0
LINE
  5
A3
330
1F
100
AcDbEntity
  8
0
  6
Continuous
 62
     7
370
    15
100
AcDbLine
 10
172.3843223139
 20
181.5070315512
 30
0.0
 11
166.610819622
 21
171.5070315512
 31
0.0
  0
LINE
  5
A4
330
1F
100
AcDbEntity
  8
0
  6
Continuous
 62
     7
370
    15
100
AcDbLine
 10
166.610819622
 20
120.5070315512
 30
0.0
 11
172.3843223139
 21
110.5070315512
 31
0.0
  0
ARC
  5
A5
330
1F
100
AcDbEntity
  8
0
  6
Continuous
 62
     7
370
    15
100
AcDbCircle
 10
149.7721444874
 20
114.8570315512
 30
0.0
 40
0.5999999999999943
100
AcDbArc
 50
270.0
 51
0.0
  0
ARC
  5
A6
330
1F
100
AcDbEntity
  8
0
  6
Continuous
 62
     7
370
    15
100
AcDbCircle
 10
149.7721444874
 20
177.1570315512
 30
0.0
 40
0.5999999999999943
100
AcDbArc
 50
0.0
 51
90.0
  0
ARC
  5
A7
330
1F
100
AcDbEntity
  8
0
  6
Continuous
 62
     7
370
    15
100
AcDbCircle
 10
135.1221444874
 20
177.1570315512
 30
0.0
 40
0.6000000000000227
100
AcDbArc
 50
90.0
 51
180.0
  0
ARC
  5
A8
330
1F
100
AcDbEntity
  8
0
  6
Continuous
 62
     7
370
    15
100
AcDbCircle
 10
135.1221444874
 20
114.8570315512
 30
0.0
 40
0.6000000000000227
100
AcDbArc
 50
180.0
 51
270.0
  0
LINE
  5
A9
330
1F
100
AcDbEntity
  8
0
  6
Continuous
 62
     7
370
    15
100
AcDbLine
 10
144.3321444874
 20
117.0488145088
 30
0.0
 11
145.9439811295
 21
114.2570315512
 31
0.0
  0
LINE
  5
AA
330
1F
100
AcDbEntity
  8
0
  6
Continuous
 62
     7
370
    15
100
AcDbLine
 10
135.1221444874
 20
114.2570315512
 30
0.0
 11
138.9003078454
 21
114.2570315512
 31
0.0
  0
LINE
  5
AB
330
1F
100
AcDbEntity
  8
0
  6
Continuous
 62
     7
370
    15
100
AcDbLine
 10
140.5121444874
 20
174.9652485937
 30
0.0
 11
138.9003078454
 21
177.7570315512
 31
0.0
  0
LINE
  5
AC
330
1F
100
AcDbEntity
  8
0
  6
Continuous
 62
     7
370
    15
100
AcDbLine
 10
149.7721444874
 20
177.7570315512
 30
0.0
 11
145.9439811295
 21
177.7570315512
 31
0.0
  0
LINE
  5
AD
330
1F
100
AcDbEntity
  8
0
  6
Continuous
 62
     7
370
    15
100
AcDbLine
 10
138.9003078454
 20
177.7570315512
 30
0.0
 11
135.1221444874
 21
177.7570315512
 31
0.0
  0
LINE
  5
AE
330
1F
100
AcDbEntity
  8
0
  6
Continuous
 62
     7
370
    15
100
AcDbLine
 10
145.9439811295
 20
114.2570315512
 30
0.0
 11
149.7721444874
 21
114.2570315512
 31
0.0
  0
LINE
  5
AF
330
1F
100
AcDbEntity
  8
0
  6
Continuous
 62
     7
370
    15
100
AcDbLine
 10
138.9003078454
 20
114.2570315512
 30
0.0
 11
140.5121444874
 21
117.0488145088
 31
0.0
  0
LINE
  5
B0
330
1F
100
AcDbEntity
  8
0
  6
Continuous
 62
     7
370
    15
100
AcDbLine
 10
145.9439811295
 20
177.7570315512
 30
0.0
 11
144.3321444874
 21
174.9652485937
 31
0.0
  0
ARC
  5
B1
330
1F
100
AcDbEntity
  8
0
  6
Continuous
 62
     7
370
    15
100
AcDbCircle
 10
143.5321444874
 20
174.8070315512
 30
0.0
 40
0.8000000000000114
100
AcDbArc
 50
270.0
 51
0.0
  0
ARC
  5
B2
330
1F
100
AcDbEntity
  8
0
  6
Continuous
 62
     7
370
    15
100
AcDbCircle
 10
141.3121444874
 20
117.2070315512
 30
0.0
 40
0.7999999999999972
100
AcDbArc
 50
90.0
 51
180.0
  0
ARC
  5
B3
330
1F
100
AcDbEntity
  8
0
  6
Continuous
 62
     7
370
    15
100
AcDbCircle
 10
141.3121444874
 20
174.8070315512
 30
0.0
 40
0.799999999999983
100
AcDbArc
 50
180.0
 51
270.0
  0
ARC
  5
B4
330
1F
100
AcDbEntity
  8
0
  6
Continuous
 62
     7
370
    15
100
AcDbCircle
 10
143.5321444874
 20
117.2070315512
 30
0.0
 40
0.8000000000000114
100
AcDbArc
 50
0.0
 51
90.0
  0
LINE
  5
B5
330
1F
100
AcDbEntity
  8
0
  6
Continuous
 62
     7
370
    15
100
AcDbLine
 10
143.5321444874
 20
174.0070315512
 30
0.0
 11
141.3121444874
 21
174.0070315512
 31
0.0
  0
LINE
  5
B6
330
1F
100
AcDbEntity
  8
0
  6
Continuous
 62
     7
370
    15
100
AcDbLine
 10
141.3121444874
 20
118.0070315512
 30
0.0
 11
143.5321444874
 21
118.0070315512
 31
0.0
  0
ARC
  5
B7
330
1F
100
AcDbEntity
  8
0
  6
Continuous
 62
     7
370
    15
100
AcDbCircle
 10
165.7447942182
 20
120.0070315512
 30
0.0
 40
1.0
100
AcDbArc
 50
30.0
 51
90.0
  0
ARC
  5
B8
330
1F
100
AcDbEntity
  8
0
  6
Continuous
 62
     7
370
    15
100
AcDbCircle
 10
165.7447942182
 20
172.0070315512
 30
0.0
 40
1.0
100
AcDbArc
 50
270.0
 51
330.0
  0
LINE
  5
B9
330
1F
100
AcDbEntity
  8
0
  6
Continuous
 62
     7
370
    15
100
AcDbLine
 10
151.3721444874
 20
121.0070315512
 30
0.0
 11
165.7447942182
 21
121.0070315512
 31
0.0
  0
LINE
  5
BA
330
1F
100
AcDbEntity
  8
0
  6
Continuous
 62
     7
370
    15
100
AcDbLine
 10
165.7447942182
 20
171.0070315512
 30
0.0
 11
151.3721444874
 21
171.0070315512
 31
0.0
  0
ARC
  5
BB
330
1F
100
AcDbEntity
  8
0
  6
Continuous
 62
     7
370
    15
100
AcDbCircle
 10
151.3721444874
 20
120.0070315512
 30
0.0
 40
1.0
100
AcDbArc
 50
90.0
 51
180.0
  0
ARC
  5
BC
330
1F
100
AcDbEntity
  8
0
  6
Continuous
 62
     7
370
    15
100
AcDbCircle
 10
151.3721444874
 20
172.0070315512
 30
0.0
 40
1.0
100
AcDbArc
 50
180.0
 51
270.0
  0
ARC
  5
BD
330
1F
100
AcDbEntity
  8
0
  6
Continuous
 62
     7
370
    15
100
AcDbCircle
 10
133.9221444874
 20
123.1820315512
 30
0.0
 40
0.6000000000000085
100
AcDbArc
 50
0.0
 51
90.0
  0
ARC
  5
BE
330
1F
100
AcDbEntity
  8
0
  6
Continuous
 62
     7
370
    15
100
AcDbCircle
 10
133.9221444874
 20
168.8320315512
 30
0.0
 40
0.6000000000000227
100
AcDbArc
 50
270.0
 51
0.0
  0
LINE
  5
BF
330
1F
100
AcDbEntity
  8
0
  6
Continuous
 62
     7
370
    15
100
AcDbLine
 10
131.3221444874
 20
168.2320315512
 30
0.0
 11
63.9278375944
 21
158.4036951293
 31
0.0
  0
LINE
  5
C0
330
1F
100
AcDbEntity
  8
0
  6
Continuous
 62
     7
370
    15
100
AcDbLine
 10
63.9278375944
 20
133.6103679731
 30
0.0
 11
131.3221444874
 21
123.7820315512
 31
0.0
  0
LINE
  5
C1
330
1F
100
AcDbEntity
  8
0
  6
Continuous
 62
     7
370
    15
100
AcDbLine
 10
131.3221444874
 20
123.7820315512
 30
0.0
 11
133.9221444874
 21
123.7820315512
 31
0.0
  0
LINE
  5
C2
330
1F
100
AcDbEntity
  8
0
  6
Continuous
 62
     7
370
    15
100
AcDbLine
 10
133.9221444874
 20
168.2320315512
 30
0.0
 11
131.3221444874
 21
168.2320315512
 31
0.0
  0
ARC
  5
C3
330
1F
100
AcDbEntity
  8
0
  6
Continuous
 62
     7
370
    15
100
AcDbCircle
 10
64.0721444874
 20
134.5999009542
 30
0.0
 40
1.000000000000009
100
AcDbArc
 50
180.0
 51
261.7028550302
  0
ARC
  5
C4
330
1F
100
AcDbEntity
  8
0
  6
Continuous
 62
     7
370
    15
100
AcDbCircle
 10
64.0721444874
 20
157.4141621483
 30
0.0
 40
1.000000000000037
100
AcDbArc
 50
98.2971449698
 51
180.0
  0
LINE
  5
C5
330
1F
100
AcDbEntity
  8
0
  6
Continuous
 62
     7
370
    15
100
AcDbLine
 10
198.0721016059
 20
182.0070315512
 30
0.0
 11
183.6721444874
 21
182.0070315512
 31
0.0
  0
LINE
  5
C6
330
1F
100
AcDbEntity
  8
0
  6
Continuous
 62
     7
370
    15
100
AcDbLine
 10
196.1284187887
 20
181.2070315512
 30
0.0
 11
185.5832441194
 21
181.2070315512
 31
0.0
  0
LINE
  5
C7
330
1F
100
AcDbEntity
  8
0
  6
Continuous
 62
     7
370
    15
100
AcDbLine
 10
210.4221444874
 20
146.0070315512
 30
0.0
 11
210.4221444874
 21
181.3070315512
 31
0.0
  0
LINE
  5
C8
330
1F
100
AcDbEntity
  8
0
  6
Continuous
 62
     7
370
    15
100
AcDbLine
 10
210.4221444874
 20
110.7070315512
 30
0.0
 11
210.4221444874
 21
146.0070315512
 31
0.0
  0
LINE
  5
C9
330
1F
100
AcDbEntity
  8
0
  6
Continuous
 62
     7
370
    15
100
AcDbLine
 10
209.7221444874
 20
146.0070315512
 30
0.0
 11
209.7221444874
 21
182.0070315512
 31
0.0
  0
LINE
  5
CA
330
1F
100
AcDbEntity
  8
0
  6
Continuous
 62
     7
370
    15
100
AcDbLine
 10
209.7221444874
 20
110.0070315512
 30
0.0
 11
209.7221444874
 21
146.0070315512
 31
0.0
  0
SPLINE
  5
CB
330
1F
100
AcDbEntity
  8
0
  6
Continuous
 62
     7
370
    15
100
AcDbSpline
210
0.0
220
0.0
230
1.0
 70
     8
 71
     3
 72
    52
 73
    48
 74
     0
 42
0.000000001
 43
0.00000001
 40
0.0
 40
0.0
 40
0.0
 40
0.0
 40
0.0312499999999997
 40
0.0312499999999997
 40
0.0624999999999993
 40
0.0624999999999993
 40
0.1249999999999989
 40
0.1249999999999989
 40
0.1562499999999988
 40
0.1562499999999988
 40
0.1874999999999986
 40
0.1874999999999986
 40
0.2187499999999985
 40
0.2187499999999985
 40
0.2499999999999984
 40
0.2499999999999984
 40
0.3124999999999981
 40
0.3124999999999981
 40
0.3437499999999986
 40
0.3437499999999986
 40
0.3749999999999991
 40
0.3749999999999991
 40
0.4375
 40
0.4375
 40
0.4687500000000001
 40
0.4687500000000001
 40
0.5000000000000002
 40
0.5000000000000002
 40
0.5625000000000004
 40
0.5625000000000004
 40
0.5937500000000002
 40
0.5937500000000002
 40
0.625
 40
0.625
 40
0.6875000000000001
 40
0.6875000000000001
 40
0.7500000000000001
 40
0.7500000000000001
 40
0.8125000000000001
 40
0.8125000000000001
 40
0.8750000000000001
 40
0.8750000000000001
 40
0.9062500000000001
 40
0.9062500000000001
 40
0.9375000000000001
 40
0.9375000000000001
 40
1.0
 40
1.0
 40
1.0
 40
1.0
 10
200.8721444874342
 20
182.0070315512249
 30
0.0
 10
200.8721444874342
 20
182.0070315512249
 30
0.0
 10
200.8539175622919
 20
182.0030592465457
 30
0.0
 10
200.7807179380569
 20
181.9872253454072
 30
0.0
 10
200.7251546809337
 20
181.975237509619
 30
0.0
 10
200.5062735690724
 20
181.9286052673391
 30
0.0
 10
200.2925344127908
 20
181.8835808490905
 30
0.0
 10
199.8765640589469
 20
181.8002530120259
 30
0.0
 10
199.721239200831
 20
181.7697252420697
 30
0.0
 10
199.3861158393605
 20
181.7057284197811
 30
0.0
 10
199.2056622583636
 20
181.6721234083898
 30
0.0
 10
198.8202070078984
 20
181.6027939545857
 30
0.0
 10
198.6152010308831
 20
181.5670673229343
 30
0.0
 10
198.1810241897438
 20
181.4945305885723
 30
0.0
 10
197.951576332422
 20
181.4576983840911
 30
0.0
 10
197.2411006166295
 20
181.3492529169168
 30
0.0
 10
196.7340139101704
 20
181.2789789557728
 30
0.0
 10
195.9254351803679
 20
181.1820759608813
 30
0.0
 10
195.6465274550611
 20
181.1510641894267
 30
0.0
 10
195.0807710671217
 20
181.0936130876372
 30
0.0
 10
194.7937300337065
 20
181.0671228943827
 30
0.0
 10
193.9205140887495
 20
180.99519046673
 30
0.0
 10
193.3223442268984
 20
180.9572854569426
 30
0.0
 10
192.4007177191502
 20
180.9187006991543
 30
0.0
 10
192.0898743782943
 20
180.9089422069396
 30
0.0
 10
191.4715940934361
 20
180.8961139267479
 30
0.0
 10
191.1627263662228
 20
180.8929768591134
 30
0.0
 10
190.2369270429168
 20
180.8933579452064
 30
0.0
 10
189.6207927982638
 20
180.9066775761303
 30
0.0
 10
188.6982508240714
 20
180.9459420916914
 30
0.0
 10
188.3931351958859
 20
180.9621744894984
 30
0.0
 10
187.7944687399809
 20
181.0000213868398
 30
0.0
 10
187.4998440942771
 20
181.02168008839
 30
0.0
 10
186.6299979822177
 20
181.0939526689841
 30
0.0
 10
186.0686630022993
 20
181.1518809263437
 30
0.0
 10
184.9856715945563
 20
181.2821952591974
 30
0.0
 10
184.4790313875568
 20
181.3527560401617
 30
0.0
 10
183.5423036799071
 20
181.4961119795884
 30
0.0
 10
183.1099873483878
 20
181.5692768863277
 30
0.0
 10
182.3326841184201
 20
181.7092465209745
 30
0.0
 10
182.0007611625921
 20
181.773591274055
 30
0.0
 10
181.5900265401166
 20
181.8558879106845
 30
0.0
 10
181.4677496202927
 20
181.8809494270354
 30
0.0
 10
181.2543266880917
 20
181.9252777143029
 30
0.0
 10
181.162909175299
 20
181.9446040942718
 30
0.0
 10
180.9453393082179
 20
181.9909643415545
 30
0.0
 10
180.8721444874342
 20
182.0070315512249
 30
0.0
 10
180.8721444874342
 20
182.0070315512249
 30
0.0
  0
SPLINE
  5
CC
330
1F
100
AcDbEntity
  8
0
  6
Continuous
 62
     7
370
    15
100
AcDbSpline
210
0.0
220
0.0
230
1.0
 70
     8
 71
     3
 72
    14
 73
    10
 74
     0
 42
0.000000001
 43
0.00000001
 40
0.0
 40
0.0
 40
0.0
 40
0.0
 40
0.25
 40
0.25
 40
0.5
 40
0.5
 40
0.75
 40
0.75
 40
1.0
 40
1.0
 40
1.0
 40
1.0
 10
150.3721444874342
 20
137.7253238714131
 30
0.0
 10
150.3721444874342
 20
137.6435252536568
 30
0.0
 10
150.360967218588
 20
137.5633558546967
 30
0.0
 10
150.3146903324433
 20
137.4065040212831
 30
0.0
 10
150.2791310365787
 20
137.3296560719652
 30
0.0
 10
150.1807999204796
 20
137.1913077064148
 30
0.0
 10
150.1174612463545
 20
137.1287768201213
 30
0.0
 10
149.9600231606418
 20
137.036107112617
 30
0.0
 10
149.8677229479612
 20
137.0083554080973
 30
0.0
 10
149.7721444874342
 20
137.0083554080973
 30
0.0
  0
LINE
  5
CD
330
1F
100
AcDbEntity
  8
0
  6
Continuous
 62
     7
370
    15
100
AcDbLine
 10
150.3721444874
 20
114.8570315512
 30
0.0
 11
150.3721444874
 21
137.7253238714
 31
0.0
  0
LINE
  5
CE
330
1F
100
AcDbEntity
  8
0
  6
Continuous
 62
     7
370
    15
100
AcDbLine
 10
145.4869340911
 20
137.9570315512
 30
0.0
 11
150.3721444874
 21
137.9570315512
 31
0.0
  0
LINE
  5
CF
330
1F
100
AcDbEntity
  8
0
  6
Continuous
 62
     7
370
    15
100
AcDbLine
 10
150.3721444874
 20
137.9570315512
 30
0.0
 11
150.3721444874
 21
137.7253238714
 31
0.0
  0
LINE
  5
D0
330
1F
100
AcDbEntity
  8
0
  6
Continuous
 62
     7
370
    15
100
AcDbLine
 10
149.7721444874
 20
137.0083554081
 30
0.0
 11
145.9439811295
 21
137.0083554081
 31
0.0
  0
SPLINE
  5
D1
330
1F
100
AcDbEntity
  8
0
  6
Continuous
 62
     7
370
    15
100
AcDbSpline
210
0.0
220
0.0
230
1.0
 70
     8
 71
     3
 72
     8
 73
     4
 74
     0
 42
0.000000001
 43
0.00000001
 40
0.0
 40
0.0
 40
0.0
 40
0.0
 40
0.0011901715795577
 40
0.0011901715795577
 40
0.0011901715795577
 40
0.0011901715795577
 10
145.9439811294909
 20
137.0083554080974
 30
0.0
 10
145.790134939995
 20
137.3240401305543
 30
0.0
 10
145.6377396723223
 20
137.6402552944177
 30
0.0
 10
145.4869340911378
 20
137.9570315512249
 30
0.0
  0
LINE
  5
D2
330
1F
100
AcDbEntity
  8
0
  6
Continuous
 62
     7
370
    15
100
AcDbLine
 10
150.3721444874
 20
154.288739231
 30
0.0
 11
150.3721444874
 21
154.0570315512
 31
0.0
  0
LINE
  5
D3
330
1F
100
AcDbEntity
  8
0
  6
Continuous
 62
     7
370
    15
100
AcDbLine
 10
150.3721444874
 20
154.0570315512
 30
0.0
 11
145.4869340911
 21
154.0570315512
 31
0.0
  0
SPLINE
  5
D4
330
1F
100
AcDbEntity
  8
0
  6
Continuous
 62
     7
370
    15
100
AcDbSpline
210
0.0
220
0.0
230
1.0
 70
     8
 71
     3
 72
     8
 73
     4
 74
     0
 42
0.000000001
 43
0.00000001
 40
0.0
 40
0.0
 40
0.0
 40
0.0
 40
0.0011901715795577
 40
0.0011901715795577
 40
0.0011901715795577
 40
0.0011901715795577
 10
145.4869340911378
 20
154.0570315512249
 30
0.0
 10
145.6377396723223
 20
154.3738078080321
 30
0.0
 10
145.790134939995
 20
154.6900229718956
 30
0.0
 10
145.9439811294909
 20
155.0057076943525
 30
0.0
  0
LINE
  5
D5
330
1F
100
AcDbEntity
  8
0
  6
Continuous
 62
     7
370
    15
100
AcDbLine
 10
145.9439811295
 20
155.0057076944
 30
0.0
 11
149.7721444874
 21
155.0057076944
 31
0.0
  0
SPLINE
  5
D6
330
1F
100
AcDbEntity
  8
0
  6
Continuous
 62
     7
370
    15
100
AcDbSpline
210
0.0
220
0.0
230
1.0
 70
     8
 71
     3
 72
    12
 73
     8
 74
     0
 42
0.000000001
 43
0.00000001
 40
0.0
 40
0.0
 40
0.0
 40
0.0
 40
0.2499999999999998
 40
0.2499999999999998
 40
0.4999999999999996
 40
0.4999999999999996
 40
1.0
 40
1.0
 40
1.0
 40
1.0
 10
149.7721444874342
 20
155.0057076943525
 30
0.0
 10
149.8676863975702
 20
155.0057076943525
 30
0.0
 10
149.959831339433
 20
154.9779070363656
 30
0.0
 10
150.1161576160429
 20
154.8862139326705
 30
0.0
 10
150.1798257586628
 20
154.8239354878065
 30
0.0
 10
150.3286936040932
 20
154.6150523428344
 30
0.0
 10
150.3721444874342
 20
154.4523009693181
 30
0.0
 10
150.3721444874342
 20
154.2887392310367
 30
0.0
  0
LINE
  5
D7
330
1F
100
AcDbEntity
  8
0
  6
Continuous
 62
     7
370
    15
100
AcDbLine
 10
150.3721444874
 20
154.288739231
 30
0.0
 11
150.3721444874
 21
177.1570315512
 31
0.0
  0
SPLINE
  5
D8
330
1F
100
AcDbEntity
  8
0
  6
Continuous
 62
     7
370
    15
100
AcDbSpline
210
0.0
220
0.0
230
1.0
 70
     8
 71
     3
 72
    10
 73
     6
 74
     0
 42
0.000000001
 43
0.00000001
 40
0.0
 40
0.0
 40
0.0
 40
0.0
 40
0.5
 40
0.5
 40
1.0
 40
1.0
 40
1.0
 40
1.0
 10
134.7382890287814
 20
154.8408870098777
 30
0.0
 10
134.7870590017627
 20
154.8891688571682
 30
0.0
 10
134.8445111250651
 20
154.9303808348309
 30
0.0
 10
134.9751080280538
 20
154.9889858848901
 30
0.0
 10
135.047597707896
 20
155.0057076943525
 30
0.0
 10
135.1221444874342
 20
155.0057076943525
 30
0.0
  0
SPLINE
  5
D9
330
1F
100
AcDbEntity
  8
0
  6
Continuous
 62
     7
370
    15
100
AcDbSpline
210
0.0
220
0.0
230
1.0
 70
    24
 71
     3
 72
    10
 73
     6
 74
     0
 42
0.000000001
 43
0.00000001
 40
0.0
 40
0.0
 40
0.0
 40
0.0
 40
0.5
 40
0.5
 40
1.0
 40
1.0
 40
1.0
 40
1.0
 10
134.7382890287814
 20
154.8408870098777
 30
0.0
 10
134.6801663687053
 20
154.8990096699538
 30
0.0
 10
134.6277632027018
 20
154.9514128359573
 30
0.0
 10
134.5488601811554
 20
155.0303158575037
 30
0.0
 10
134.5221444874342
 20
155.0570315512249
 30
0.0
 10
134.5221444874342
 20
155.0570315512249
 30
0.0
  0
LINE
  5
DA
330
1F
100
AcDbEntity
  8
0
  6
Continuous
 62
     7
370
    15
100
AcDbLine
 10
134.5221444874
 20
155.0570315512
 30
0.0
 11
134.5221444874
 21
177.1570315512
 31
0.0
  0
LINE
  5
DB
330
1F
100
AcDbEntity
  8
0
  6
Continuous
 62
     7
370
    15
100
AcDbLine
 10
139.3573548837
 20
154.0570315512
 30
0.0
 11
135.5221444874
 21
154.0570315512
 31
0.0
  0
LINE
  5
DC
330
1F
100
AcDbEntity
  8
0
  6
Continuous
 62
     7
370
    15
100
AcDbLine
 10
135.5221444874
 20
154.0570315512
 30
0.0
 11
134.7382890288
 21
154.8408870099
 31
0.0
  0
LINE
  5
DD
330
1F
100
AcDbEntity
  8
0
  6
Continuous
 62
     7
370
    15
100
AcDbLine
 10
135.1221444874
 20
155.0057076944
 30
0.0
 11
138.9003078454
 21
155.0057076944
 31
0.0
  0
SPLINE
  5
DE
330
1F
100
AcDbEntity
  8
0
  6
Continuous
 62
     7
370
    15
100
AcDbSpline
210
0.0
220
0.0
230
1.0
 70
     8
 71
     3
 72
     8
 73
     4
 74
     0
 42
0.000000001
 43
0.00000001
 40
0.0
 40
0.0
 40
0.0
 40
0.0
 40
0.0011901715795577
 40
0.0011901715795577
 40
0.0011901715795577
 40
0.0011901715795577
 10
138.9003078453775
 20
155.0057076943525
 30
0.0
 10
139.0541540348734
 20
154.6900229718956
 30
0.0
 10
139.2065493025461
 20
154.3738078080321
 30
0.0
 10
139.3573548837306
 20
154.0570315512249
 30
0.0
  0
LINE
  5
DF
330
1F
100
AcDbEntity
  8
0
  6
Continuous
 62
     7
370
    15
100
AcDbLine
 10
134.7382890288
 20
137.1731760926
 30
0.0
 11
135.5221444874
 21
137.9570315512
 31
0.0
  0
LINE
  5
E0
330
1F
100
AcDbEntity
  8
0
  6
Continuous
 62
     7
370
    15
100
AcDbLine
 10
135.5221444874
 20
137.9570315512
 30
0.0
 11
139.3573548837
 21
137.9570315512
 31
0.0
  0
SPLINE
  5
E1
330
1F
100
AcDbEntity
  8
0
  6
Continuous
 62
     7
370
    15
100
AcDbSpline
210
0.0
220
0.0
230
1.0
 70
     8
 71
     3
 72
     8
 73
     4
 74
     0
 42
0.000000001
 43
0.00000001
 40
0.0
 40
0.0
 40
0.0
 40
0.0
 40
0.0011901715795577
 40
0.0011901715795577
 40
0.0011901715795577
 40
0.0011901715795577
 10
139.3573548837306
 20
137.9570315512249
 30
0.0
 10
139.2065493025461
 20
137.6402552944177
 30
0.0
 10
139.0541540348734
 20
137.3240401305543
 30
0.0
 10
138.9003078453775
 20
137.0083554080973
 30
0.0
  0
LINE
  5
E2
330
1F
100
AcDbEntity
  8
0
  6
Continuous
 62
     7
370
    15
100
AcDbLine
 10
138.9003078454
 20
137.0083554081
 30
0.0
 11
135.1221444874
 21
137.0083554081
 31
0.0
  0
SPLINE
  5
E3
330
1F
100
AcDbEntity
  8
0
  6
Continuous
 62
     7
370
    15
100
AcDbSpline
210
0.0
220
0.0
230
1.0
 70
     8
 71
     3
 72
    10
 73
     6
 74
     0
 42
0.000000001
 43
0.00000001
 40
0.0
 40
0.0
 40
0.0
 40
0.0
 40
0.5
 40
0.5
 40
1.0
 40
1.0
 40
1.0
 40
1.0
 10
135.1221444874342
 20
137.0083554080973
 30
0.0
 10
135.0477448265153
 20
137.0083554080973
 30
0.0
 10
134.9751852300596
 20
137.0250728281653
 30
0.0
 10
134.8448169114407
 20
137.0835148806431
 30
0.0
 10
134.7870341262773
 20
137.1249188717948
 30
0.0
 10
134.7382890287814
 20
137.173176092572
 30
0.0
  0
LINE
  5
E4
330
1F
100
AcDbEntity
  8
0
  6
Continuous
 62
     7
370
    15
100
AcDbLine
 10
134.5221444874
 20
114.8570315512
 30
0.0
 11
134.5221444874
 21
136.9570315512
 31
0.0
  0
SPLINE
  5
E5
330
1F
100
AcDbEntity
  8
0
  6
Continuous
 62
     7
370
    15
100
AcDbSpline
210
0.0
220
0.0
230
1.0
 70
    24
 71
     3
 72
    10
 73
     6
 74
     0
 42
0.000000001
 43
0.00000001
 40
0.0
 40
0.0
 40
0.0
 40
0.0
 40
0.5
 40
0.5
 40
1.0
 40
1.0
 40
1.0
 40
1.0
 10
134.5221444874342
 20
136.9570315512249
 30
0.0
 10
134.5221444874343
 20
136.957031551225
 30
0.0
 10
134.5486712501198
 20
136.9835583139105
 30
0.0
 10
134.6275397617434
 20
137.0624268255341
 30
0.0
 10
134.6796767683273
 20
137.114563832118
 30
0.0
 10
134.7382890287815
 20
137.1731760925722
 30
0.0
  0
LINE
  5
E6
330
1F
100
AcDbEntity
  8
0
  6
Continuous
 62
     7
370
    15
100
AcDbLine
 10
144.3321444874
 20
117.0488145088
 30
0.0
 11
144.3321444874
 21
137.9570315512
 31
0.0
  0
SPLINE
  5
E7
330
1F
100
AcDbEntity
  8
0
  6
Continuous
 62
     7
370
    15
100
AcDbSpline
210
0.0
220
0.0
230
1.0
 70
    24
 71
     3
 72
     8
 73
     4
 74
     0
 42
0.000000001
 43
0.00000001
 40
0.0
 40
0.0
 40
0.0
 40
0.0
 40
1.0
 40
1.0
 40
1.0
 40
1.0
 10
144.3321444874342
 20
137.9570315512249
 30
0.0
 10
144.7162792360186
 20
137.9570315512249
 30
0.0
 10
145.1012655125115
 20
137.9570315512249
 30
0.0
 10
145.4869340911378
 20
137.9570315512249
 30
0.0
  0
LINE
  5
E8
330
1F
100
AcDbEntity
  8
0
  6
Continuous
 62
     7
370
    15
100
AcDbLine
 10
145.9439811295
 20
114.2570315512
 30
0.0
 11
145.9439811295
 21
137.0083554081
 31
0.0
  0
LINE
  5
E9
330
1F
100
AcDbEntity
  8
0
  6
Continuous
 62
     7
370
    15
100
AcDbLine
 10
138.9003078454
 20
114.2570315512
 30
0.0
 11
138.9003078454
 21
137.0083554081
 31
0.0
  0
SPLINE
  5
EA
330
1F
100
AcDbEntity
  8
0
  6
Continuous
 62
     7
370
    15
100
AcDbSpline
210
0.0
220
0.0
230
1.0
 70
    24
 71
     3
 72
     8
 73
     4
 74
     0
 42
0.000000001
 43
0.00000001
 40
0.0
 40
0.0
 40
0.0
 40
0.0
 40
1.0
 40
1.0
 40
1.0
 40
1.0
 10
140.5121444874342
 20
154.0570315512249
 30
0.0
 10
140.1280097388498
 20
154.0570315512249
 30
0.0
 10
139.7430234623569
 20
154.0570315512249
 30
0.0
 10
139.3573548837306
 20
154.0570315512249
 30
0.0
  0
LINE
  5
EB
330
1F
100
AcDbEntity
  8
0
  6
Continuous
 62
     7
370
    15
100
AcDbLine
 10
138.9003078454
 20
155.0057076944
 30
0.0
 11
138.9003078454
 21
177.7570315512
 31
0.0
  0
LINE
  5
EC
330
1F
100
AcDbEntity
  8
0
  6
Continuous
 62
     7
370
    15
100
AcDbLine
 10
140.5121444874
 20
154.0570315512
 30
0.0
 11
140.5121444874
 21
174.9652485937
 31
0.0
  0
LINE
  5
ED
330
1F
100
AcDbEntity
  8
0
  6
Continuous
 62
     7
370
    15
100
AcDbLine
 10
145.9439811295
 20
155.0057076944
 30
0.0
 11
145.9439811295
 21
177.7570315512
 31
0.0
  0
LINE
  5
EE
330
1F
100
AcDbEntity
  8
0
  6
Continuous
 62
     7
370
    15
100
AcDbLine
 10
140.5121444874
 20
117.0488145088
 30
0.0
 11
140.5121444874
 21
137.9570315512
 31
0.0
  0
SPLINE
  5
EF
330
1F
100
AcDbEntity
  8
0
  6
Continuous
 62
     7
370
    15
100
AcDbSpline
210
0.0
220
0.0
230
1.0
 70
    24
 71
     3
 72
     8
 73
     4
 74
     0
 42
0.000000001
 43
0.00000001
 40
0.0
 40
0.0
 40
0.0
 40
0.0
 40
1.0
 40
1.0
 40
1.0
 40
1.0
 10
139.3573548837306
 20
137.9570315512249
 30
0.0
 10
139.7430234623569
 20
137.9570315512249
 30
0.0
 10
140.1280097388498
 20
137.9570315512249
 30
0.0
 10
140.5121444874342
 20
137.9570315512249
 30
0.0
  0
SPLINE
  5
F0
330
1F
100
AcDbEntity
  8
0
  6
Continuous
 62
     7
370
    15
100
AcDbSpline
210
0.0
220
0.0
230
1.0
 70
    24
 71
     3
 72
     8
 73
     4
 74
     0
 42
0.000000001
 43
0.00000001
 40
0.0
 40
0.0
 40
0.0
 40
0.0
 40
1.0
 40
1.0
 40
1.0
 40
1.0
 10
145.4869340911378
 20
154.0570315512249
 30
0.0
 10
145.1012655125115
 20
154.0570315512249
 30
0.0
 10
144.7162792360186
 20
154.0570315512249
 30
0.0
 10
144.3321444874342
 20
154.0570315512249
 30
0.0
  0
LINE
  5
F1
330
1F
100
AcDbEntity
  8
0
  6
Continuous
 62
     7
370
    15
100
AcDbLine
 10
144.3321444874
 20
154.0570315512
 30
0.0
 11
144.3321444874
 21
174.9652485937
 31
0.0
  0
SPLINE
  5
F2
330
1F
100
AcDbEntity
  8
0
  6
Continuous
 62
     7
370
    15
100
AcDbSpline
210
0.0
220
0.0
230
1.0
 70
    24
 71
     3
 72
    12
 73
     8
 74
     0
 42
0.000000001
 43
0.00000001
 40
0.0
 40
0.0
 40
0.0
 40
0.0
 40
0.5000000000000013
 40
0.5000000000000013
 40
0.7500000000000007
 40
0.7500000000000007
 40
1.0
 40
1.0
 40
1.0
 40
1.0
 10
144.3321444874342
 20
154.0570315512249
 30
0.0
 10
144.3321444874342
 20
154.0570315512249
 30
0.0
 10
144.2502191296144
 20
154.0570315512249
 30
0.0
 10
144.031297326146
 20
154.0570315512249
 30
0.0
 10
143.941250034655
 20
154.0570315512249
 30
0.0
 10
143.7458365666352
 20
154.0570315512249
 30
0.0
 10
143.6385535996514
 20
154.0570315512249
 30
0.0
 10
143.5321444874342
 20
154.0570315512249
 30
0.0
  0
SPLINE
  5
F3
330
1F
100
AcDbEntity
  8
0
  6
Continuous
 62
     7
370
    15
100
AcDbSpline
210
0.0
220
0.0
230
1.0
 70
    24
 71
     3
 72
    12
 73
     8
 74
     0
 42
0.000000001
 43
0.00000001
 40
0.0
 40
0.0
 40
0.0
 40
0.0
 40
0.4999999999999984
 40
0.4999999999999984
 40
0.7499999999999992
 40
0.7499999999999992
 40
1.0
 40
1.0
 40
1.0
 40
1.0
 10
140.5121444874342
 20
137.9570315512249
 30
0.0
 10
140.5121444874342
 20
137.9570315512249
 30
0.0
 10
140.5937631141797
 20
137.9570315512249
 30
0.0
 10
140.8137890348422
 20
137.9570315512249
 30
0.0
 10
140.902476482928
 20
137.9570315512249
 30
0.0
 10
141.0981968660571
 20
137.9570315512249
 30
0.0
 10
141.2042234743158
 20
137.9570315512249
 30
0.0
 10
141.3121444874342
 20
137.9570315512249
 30
0.0
  0
SPLINE
  5
F4
330
1F
100
AcDbEntity
  8
0
  6
Continuous
 62
     7
370
    15
100
AcDbSpline
210
0.0
220
0.0
230
1.0
 70
    24
 71
     3
 72
    12
 73
     8
 74
     0
 42
0.000000001
 43
0.00000001
 40
0.0
 40
0.0
 40
0.0
 40
0.0
 40
0.2500000000000015
 40
0.2500000000000015
 40
0.500000000000003
 40
0.500000000000003
 40
1.0
 40
1.0
 40
1.0
 40
1.0
 10
141.3121444874342
 20
154.0570315512249
 30
0.0
 10
141.2057426370767
 20
154.0570315512249
 30
0.0
 10
141.0984272256802
 20
154.0570315512249
 30
0.0
 10
140.9029556346529
 20
154.0570315512249
 30
0.0
 10
140.8127735187154
 20
154.0570315512249
 30
0.0
 10
140.5945520319947
 20
154.0570315512249
 30
0.0
 10
140.5121444874339
 20
154.0570315512249
 30
0.0
 10
140.5121444874342
 20
154.0570315512249
 30
0.0
  0
SPLINE
  5
F5
330
1F
100
AcDbEntity
  8
0
  6
Continuous
 62
     7
370
    15
100
AcDbSpline
210
0.0
220
0.0
230
1.0
 70
    24
 71
     3
 72
    12
 73
     8
 74
     0
 42
0.000000001
 43
0.00000001
 40
0.0
 40
0.0
 40
0.0
 40
0.0
 40
0.2499999999999986
 40
0.2499999999999986
 40
0.4999999999999971
 40
0.4999999999999971
 40
1.0
 40
1.0
 40
1.0
 40
1.0
 10
143.5321444874342
 20
137.9570315512249
 30
0.0
 10
143.6397310883964
 20
137.9570315512249
 30
0.0
 10
143.7457358423658
 20
137.9570315512249
 30
0.0
 10
143.9423608887145
 20
137.9570315512249
 30
0.0
 10
144.0302460619366
 20
137.9570315512249
 30
0.0
 10
144.2507986550409
 20
137.9570315512249
 30
0.0
 10
144.3321444874342
 20
137.9570315512249
 30
0.0
 10
144.3321444874342
 20
137.9570315512249
 30
0.0
  0
LINE
  5
F6
330
1F
100
AcDbEntity
  8
0
  6
Continuous
 62
     7
370
    15
100
AcDbLine
 10
143.5321444874
 20
154.0570315512
 30
0.0
 11
141.3121444874
 21
154.0570315512
 31
0.0
  0
LINE
  5
F7
330
1F
100
AcDbEntity
  8
0
  6
Continuous
 62
     7
370
    15
100
AcDbLine
 10
141.3121444874
 20
137.9570315512
 30
0.0
 11
143.5321444874
 21
137.9570315512
 31
0.0
  0
SPLINE
  5
F8
330
1F
100
AcDbEntity
  8
0
  6
Continuous
 62
     7
370
    15
100
AcDbSpline
210
0.0
220
0.0
230
1.0
 70
     8
 71
     3
 72
    12
 73
     8
 74
     0
 42
0.000000001
 43
0.00000001
 40
0.0
 40
0.0
 40
0.0
 40
0.0
 40
0.4999999999999998
 40
0.4999999999999998
 40
0.7499999999999999
 40
0.7499999999999999
 40
1.0
 40
1.0
 40
1.0
 40
1.0
 10
151.3721444874342
 20
138.0193848389573
 30
0.0
 10
152.1201278256665
 20
138.1130273553549
 30
0.0
 10
152.8348760730107
 20
138.3070903829209
 30
0.0
 10
153.8603412875081
 20
138.7425361593591
 30
0.0
 10
154.1948972493788
 20
138.9129953886265
 30
0.0
 10
154.8281487210627
 20
139.2926578630024
 30
0.0
 10
155.1295808203423
 20
139.5028365208865
 30
0.0
 10
155.4162003951339
 20
139.7332766946816
 30
0.0
  0
SPLINE
  5
F9
330
1F
100
AcDbEntity
  8
0
  6
Continuous
 62
     7
370
    15
100
AcDbSpline
210
0.0
220
0.0
230
1.0
 70
     8
 71
     3
 72
    12
 73
     8
 74
     0
 42
0.000000001
 43
0.00000001
 40
0.0
 40
0.0
 40
0.0
 40
0.0
 40
0.4999999999999991
 40
0.4999999999999991
 40
0.7499999999999996
 40
0.7499999999999996
 40
1.0
 40
1.0
 40
1.0
 40
1.0
 10
155.4162003951339
 20
152.2807864077681
 30
0.0
 10
154.8393177425729
 20
152.744596106782
 30
0.0
 10
154.210436846359
 20
153.1218747439706
 30
0.0
 10
153.1861159511362
 20
153.5583102557858
 30
0.0
 10
152.8308880483716
 20
153.6813924861822
 30
0.0
 10
152.111716689051
 20
153.875647961612
 30
0.0
 10
151.7454182978765
 20
153.9479468764034
 30
0.0
 10
151.3721444874342
 20
153.9946782634925
 30
0.0
  0
SPLINE
  5
FA
330
1F
100
AcDbEntity
  8
0
  6
Continuous
 62
     7
370
    15
100
AcDbSpline
210
0.0
220
0.0
230
1.0
 70
     8
 71
     3
 72
    28
 73
    24
 74
     0
 42
0.000000001
 43
0.00000001
 40
0.0
 40
0.0
 40
0.0
 40
0.0
 40
0.1249999999999998
 40
0.1249999999999998
 40
0.2499999999999996
 40
0.2499999999999996
 40
0.3749999999999994
 40
0.3749999999999994
 40
0.4374999999999993
 40
0.4374999999999993
 40
0.4999999999999992
 40
0.4999999999999992
 40
0.6249999999999991
 40
0.6249999999999991
 40
0.749999999999999
 40
0.749999999999999
 40
0.8124999999999993
 40
0.8124999999999993
 40
0.8749999999999996
 40
0.8749999999999996
 40
0.9374999999999998
 40
0.9374999999999998
 40
1.0
 40
1.0
 40
1.0
 40
1.0
 10
155.4162003951339
 20
139.7332766946816
 30
0.0
 10
155.8795275543184
 20
140.1057885552694
 30
0.0
 10
156.3068679272608
 20
140.5357873746137
 30
0.0
 10
157.0457645827849
 20
141.466299234708
 30
0.0
 10
157.3627634003632
 20
141.969813044142
 30
0.0
 10
157.8872800253355
 20
143.0590451356005
 30
0.0
 10
158.084750352993
 20
143.6242462827909
 30
0.0
 10
158.2856605821505
 20
144.5008354362066
 30
0.0
 10
158.3366437637899
 20
144.797971624162
 30
0.0
 10
158.4051863819493
 20
145.4026206386294
 30
0.0
 10
158.4221252709503
 20
145.7055277020864
 30
0.0
 10
158.4221828712672
 20
146.6084987264803
 30
0.0
 10
158.3555010255774
 20
147.2063511860648
 30
0.0
 10
158.0847095500868
 20
148.3921288984994
 30
0.0
 10
157.8859258355031
 20
148.9571610416629
 30
0.0
 10
157.4971030539228
 20
149.7656062764441
 30
0.0
 10
157.3515333430221
 20
150.0296005746045
 30
0.0
 10
157.0319653872188
 20
150.5391078886392
 30
0.0
 10
156.8594589792677
 20
150.7825457734
 30
0.0
 10
156.4897541945965
 20
151.2477983723097
 30
0.0
 10
156.2925538118976
 20
151.4696104585418
 30
0.0
 10
155.8731775262584
 20
151.891727838513
 30
0.0
 10
155.6497715207645
 20
152.0929968235328
 30
0.0
 10
155.4162003951339
 20
152.2807864077681
 30
0.0
  0
SPLINE
  5
FB
330
1F
100
AcDbEntity
  8
0
  6
Continuous
 62
     7
370
    15
100
AcDbSpline
210
0.0
220
0.0
230
1.0
 70
     8
 71
     3
 72
    14
 73
    10
 74
     0
 42
0.000000001
 43
0.00000001
 40
0.0
 40
0.0
 40
0.0
 40
0.0
 40
0.25
 40
0.25
 40
0.5
 40
0.5
 40
0.75
 40
0.75
 40
1.0
 40
1.0
 40
1.0
 40
1.0
 10
150.5041463080576
 20
137.958113889865
 30
0.0
 10
150.5467129915964
 20
137.9588119812061
 30
0.0
 10
150.5981930821092
 20
137.9599759846375
 30
0.0
 10
150.7197917547271
 20
137.9643116980631
 30
0.0
 10
150.789729278394
 20
137.9675141070676
 30
0.0
 10
150.940677510682
 20
137.9767770101766
 30
0.0
 10
151.02413114268
 20
137.9830209773422
 30
0.0
 10
151.1946689643589
 20
137.9987055230677
 30
0.0
 10
151.2832559084325
 20
138.0082565827632
 30
0.0
 10
151.3721444874342
 20
138.0193848389573
 30
0.0
  0
SPLINE
  5
FC
330
1F
100
AcDbEntity
  8
0
  6
Continuous
 62
     7
370
    15
100
AcDbSpline
210
0.0
220
0.0
230
1.0
 70
     8
 71
     3
 72
     8
 73
     4
 74
     0
 42
0.000000001
 43
0.00000001
 40
0.0
 40
0.0
 40
0.0
 40
0.0
 40
1.0
 40
1.0
 40
1.0
 40
1.0
 10
150.3721444874342
 20
137.9570315512249
 30
0.0
 10
150.3721444874342
 20
137.9570315512249
 30
0.0
 10
150.4170552102294
 20
137.9566856005027
 30
0.0
 10
150.5041463080576
 20
137.958113889865
 30
0.0
  0
SPLINE
  5
FD
330
1F
100
AcDbEntity
  8
0
  6
Continuous
 62
     7
370
    15
100
AcDbSpline
210
0.0
220
0.0
230
1.0
 70
     8
 71
     3
 72
    10
 73
     6
 74
     0
 42
0.000000001
 43
0.00000001
 40
0.0
 40
0.0
 40
0.0
 40
0.0
 40
0.5
 40
0.5
 40
1.0
 40
1.0
 40
1.0
 40
1.0
 10
151.3721444874342
 20
153.9946782634925
 30
0.0
 10
151.1947037355209
 20
154.0168926600858
 30
0.0
 10
151.0180845720083
 20
154.0325140391676
 30
0.0
 10
150.7146333476939
 20
154.0511790596767
 30
0.0
 10
150.5886103649734
 20
154.0545640065541
 30
0.0
 10
150.5041463080649
 20
154.0559492125854
 30
0.0
  0
SPLINE
  5
FE
330
1F
100
AcDbEntity
  8
0
  6
Continuous
 62
     7
370
    15
100
AcDbSpline
210
0.0
220
0.0
230
1.0
 70
     8
 71
     3
 72
    10
 73
     6
 74
     0
 42
0.000000001
 43
0.00000001
 40
0.0
 40
0.0
 40
0.0
 40
0.0
 40
0.5
 40
0.5
 40
1.0
 40
1.0
 40
1.0
 40
1.0
 10
150.5041463080649
 20
154.0559492125854
 30
0.0
 10
150.46088228322
 20
154.0566587402868
 30
0.0
 10
150.4275279086634
 20
154.0568714203616
 30
0.0
 10
150.3832906513767
 20
154.0570542223184
 30
0.0
 10
150.3721444874342
 20
154.0570315512249
 30
0.0
 10
150.3721444874342
 20
154.0570315512249
 30
0.0
  0
LINE
  5
FF
330
1F
100
AcDbEntity
  8
0
  6
Continuous
 62
     7
370
    15
100
AcDbLine
 10
134.8594027876
 20
139.5570315512
 30
0.0
 11
135.5221444874
 21
137.9570315512
 31
0.0
  0
LINE
  5
100
330
1F
100
AcDbEntity
  8
0
  6
Continuous
 62
     7
370
    15
100
AcDbLine
 10
134.5221444874
 20
136.9570315512
 30
0.0
 11
134.5221444874
 21
139.219773251
 31
0.0
  0
LINE
  5
101
330
1F
100
AcDbEntity
  8
0
  6
Continuous
 62
     7
370
    15
100
AcDbLine
 10
135.5221444874
 20
154.0570315512
 30
0.0
 11
134.8594027876
 21
152.4570315512
 31
0.0
  0
LINE
  5
102
330
1F
100
AcDbEntity
  8
0
  6
Continuous
 62
     7
370
    15
100
AcDbLine
 10
134.5221444874
 20
152.7942898514
 30
0.0
 11
134.5221444874
 21
155.0570315512
 31
0.0
  0
LINE
  5
103
330
1F
100
AcDbEntity
  8
0
  6
Continuous
 62
     7
370
    15
100
AcDbLine
 10
134.5221444874
 20
149.2040027741
 30
0.0
 11
134.5221444874
 21
142.8100603283
 31
0.0
  0
LINE
  5
104
330
1F
100
AcDbEntity
  8
0
  6
Continuous
 62
     7
370
    15
100
AcDbLine
 10
134.5221444874
 20
152.7942898514
 30
0.0
 11
134.5221444874
 21
149.2040027741
 31
0.0
  0
LINE
  5
105
330
1F
100
AcDbEntity
  8
0
  6
Continuous
 62
     7
370
    15
100
AcDbLine
 10
134.5221444874
 20
142.8100603283
 30
0.0
 11
134.5221444874
 21
139.219773251
 31
0.0
  0
LINE
  5
106
330
1F
100
AcDbEntity
  8
0
  6
Continuous
 62
     7
370
    15
100
AcDbLine
 10
131.3221444874
 20
146.0070315512
 30
0.0
 11
131.3221444874
 21
168.2320315512
 31
0.0
  0
LINE
  5
107
330
1F
100
AcDbEntity
  8
0
  6
Continuous
 62
     7
370
    15
100
AcDbLine
 10
131.3221444874
 20
123.7820315512
 30
0.0
 11
131.3221444874
 21
146.0070315512
 31
0.0
  0
LINE
  5
108
330
1F
100
AcDbEntity
  8
0
  6
Continuous
 62
     7
370
    15
100
AcDbLine
 10
63.0721444874
 20
146.0070315512
 30
0.0
 11
63.0721444874
 21
157.4141621483
 31
0.0
  0
LINE
  5
109
330
1F
100
AcDbEntity
  8
0
  6
Continuous
 62
     7
370
    15
100
AcDbLine
 10
63.0721444874
 20
134.5999009542
 30
0.0
 11
63.0721444874
 21
146.0070315512
 31
0.0
  0
LINE
  5
10A
330
1F
100
AcDbEntity
  8
0
  6
Continuous
 62
     7
370
     0
100
AcDbLine
 10
172.3843223139
 20
146.0070315512
 30
0.0
 11
172.3843223139
 21
181.5070315512
 31
0.0
  0
LINE
  5
10B
330
1F
100
AcDbEntity
  8
0
  6
Continuous
 62
     7
370
     0
100
AcDbLine
 10
172.3843223139
 20
110.5070315512
 30
0.0
 11
172.3843223139
 21
146.0070315512
 31
0.0
  0
LINE
  5
10C
330
1F
100
AcDbEntity
  8
0
  6
Continuous
 62
     7
370
     0
100
AcDbLine
 10
173.2503477177
 20
182.0070315512
 30
0.0
 11
173.2503477177
 21
110.0070315512
 31
0.0
  0
LINE
  5
10D
330
1F
100
AcDbEntity
  8
0
  6
Continuous
 62
     7
370
     0
100
AcDbLine
 10
166.610819622
 20
171.5070315512
 30
0.0
 11
166.610819622
 21
120.5070315512
 31
0.0
  0
LINE
  5
10E
330
1F
100
AcDbEntity
  8
0
  6
Continuous
 62
     7
370
     0
100
AcDbLine
 10
149.7721444874
 20
114.2570315512
 30
0.0
 11
149.7721444874
 21
137.0083554081
 31
0.0
  0
LINE
  5
10F
330
1F
100
AcDbEntity
  8
0
  6
Continuous
 62
     7
370
     0
100
AcDbLine
 10
149.7721444874
 20
155.0057076944
 30
0.0
 11
149.7721444874
 21
177.7570315512
 31
0.0
  0
LINE
  5
110
330
1F
100
AcDbEntity
  8
0
  6
Continuous
 62
     7
370
     0
100
AcDbLine
 10
135.1221444874
 20
155.0057076944
 30
0.0
 11
135.1221444874
 21
177.7570315512
 31
0.0
  0
LINE
  5
111
330
1F
100
AcDbEntity
  8
0
  6
Continuous
 62
     7
370
     0
100
AcDbLine
 10
135.1221444874
 20
114.2570315512
 30
0.0
 11
135.1221444874
 21
137.0083554081
 31
0.0
  0
LINE
  5
112
330
1F
100
AcDbEntity
  8
0
  6
Continuous
 62
     7
370
     0
100
AcDbLine
 10
143.5321444874
 20
154.0570315512
 30
0.0
 11
143.5321444874
 21
174.0070315512
 31
0.0
  0
LINE
  5
113
330
1F
100
AcDbEntity
  8
0
  6
Continuous
 62
     7
370
     0
100
AcDbLine
 10
141.3121444874
 20
118.0070315512
 30
0.0
 11
141.3121444874
 21
137.9570315512
 31
0.0
  0
LINE
  5
114
330
1F
100
AcDbEntity
  8
0
  6
Continuous
 62
     7
370
     0
100
AcDbLine
 10
141.3121444874
 20
154.0570315512
 30
0.0
 11
141.3121444874
 21
174.0070315512
 31
0.0
  0
LINE
  5
115
330
1F
100
AcDbEntity
  8
0
  6
Continuous
 62
     7
370
     0
100
AcDbLine
 10
143.5321444874
 20
118.0070315512
 30
0.0
 11
143.5321444874
 21
137.9570315512
 31
0.0
  0
LINE
  5
116
330
1F
100
AcDbEntity
  8
0
  6
Continuous
 62
     7
370
     0
100
AcDbLine
 10
165.7447942182
 20
146.0070315512
 30
0.0
 11
165.7447942182
 21
171.0070315512
 31
0.0
  0
LINE
  5
117
330
1F
100
AcDbEntity
  8
0
  6
Continuous
 62
     7
370
     0
100
AcDbLine
 10
165.7447942182
 20
121.0070315512
 30
0.0
 11
165.7447942182
 21
146.0070315512
 31
0.0
  0
LINE
  5
118
330
1F
100
AcDbEntity
  8
0
  6
Continuous
 62
     7
370
     0
100
AcDbLine
 10
151.3721444874
 20
121.0070315512
 30
0.0
 11
151.3721444874
 21
138.019384839
 31
0.0
  0
LINE
  5
119
330
1F
100
AcDbEntity
  8
0
  6
Continuous
 62
     7
370
     0
100
AcDbLine
 10
151.3721444874
 20
153.9946782635
 30
0.0
 11
151.3721444874
 21
171.0070315512
 31
0.0
  0
LINE
  5
11A
330
1F
100
AcDbEntity
  8
0
  6
Continuous
 62
     7
370
     0
100
AcDbLine
 10
151.3721444874
 20
138.019384839
 30
0.0
 11
151.162576762
 21
139.5212439498
 31
0.0
  0
SPLINE
  5
11B
330
1F
100
AcDbEntity
  8
0
  6
Continuous
 62
     7
370
     0
100
AcDbSpline
210
0.0
220
0.0
230
1.0
 70
     8
 71
     3
 72
    12
 73
     8
 74
     0
 42
0.000000001
 43
0.00000001
 40
0.0
 40
0.0
 40
0.0
 40
0.0
 40
0.5000000000000013
 40
0.5000000000000013
 40
0.7500000000000007
 40
0.7500000000000007
 40
1.0
 40
1.0
 40
1.0
 40
1.0
 10
151.1625767619824
 20
139.5212439498254
 30
0.0
 10
151.7627122448796
 20
139.6049861778438
 30
0.0
 10
152.3344086277221
 20
139.7792798565795
 30
0.0
 10
153.154708514127
 20
140.1538977129893
 30
0.0
 10
153.4218336428013
 20
140.2981603567161
 30
0.0
 10
153.9326643351051
 20
140.6162640447775
 30
0.0
 10
154.1780171412333
 20
140.7907828604378
 30
0.0
 10
154.4136551215603
 20
140.9802341816838
 30
0.0
  0
LINE
  5
11C
330
1F
100
AcDbEntity
  8
0
  6
Continuous
 62
     7
370
     0
100
AcDbLine
 10
155.4162003951
 20
139.7332766947
 30
0.0
 11
154.4136551216
 21
140.9802341817
 31
0.0
  0
LINE
  5
11D
330
1F
100
AcDbEntity
  8
0
  6
Continuous
 62
     7
370
     0
100
AcDbLine
 10
155.4162003951
 20
152.2807864078
 30
0.0
 11
154.4136551216
 21
151.0338289208
 31
0.0
  0
SPLINE
  5
11E
330
1F
100
AcDbEntity
  8
0
  6
Continuous
 62
     7
370
     0
100
AcDbSpline
210
0.0
220
0.0
230
1.0
 70
     8
 71
     3
 72
    12
 73
     8
 74
     0
 42
0.000000001
 43
0.00000001
 40
0.0
 40
0.0
 40
0.0
 40
0.0
 40
0.5000000000000013
 40
0.5000000000000013
 40
0.7500000000000007
 40
0.7500000000000007
 40
1.0
 40
1.0
 40
1.0
 40
1.0
 10
154.4136551215538
 20
151.0338289207533
 30
0.0
 10
153.9420639849691
 20
151.412984962534
 30
0.0
 10
153.4361385277215
 20
151.7304366533221
 30
0.0
 10
152.6205395119652
 20
152.1046956169297
 30
0.0
 10
152.3372065301377
 20
152.2126669854194
 30
0.0
 10
151.757774773972
 20
152.3858227828959
 30
0.0
 10
151.4629368588198
 20
152.4509072436742
 30
0.0
 10
151.1625767619824
 20
152.4928191526243
 30
0.0
  0
LINE
  5
11F
330
1F
100
AcDbEntity
  8
0
  6
Continuous
 62
     7
370
     0
100
AcDbLine
 10
151.3721444874
 20
153.9946782635
 30
0.0
 11
151.162576762
 21
152.4928191526
 31
0.0
  0
LINE
  5
120
330
1F
100
AcDbEntity
  8
0
  6
Continuous
 62
     7
370
     0
100
AcDbLine
 10
150.5041463081
 20
137.9581138899
 30
0.0
 11
150.4779099213
 21
139.5578987667
 31
0.0
  0
SPLINE
  5
121
330
1F
100
AcDbEntity
  8
0
  6
Continuous
 62
     7
370
     0
100
AcDbSpline
210
0.0
220
0.0
230
1.0
 70
     8
 71
     3
 72
    12
 73
     8
 74
     0
 42
0.000000001
 43
0.00000001
 40
0.0
 40
0.0
 40
0.0
 40
0.0
 40
0.5000000000000002
 40
0.5000000000000002
 40
0.7500000000000001
 40
0.7500000000000001
 40
1.0
 40
1.0
 40
1.0
 40
1.0
 10
150.4779099213499
 20
139.557898766657
 30
0.0
 10
150.5922235449138
 20
139.5597735039908
 30
0.0
 10
150.706386239805
 20
139.5517251379148
 30
0.0
 10
150.8770265100806
 20
139.5334693047177
 30
0.0
 10
150.9338380023945
 20
139.5262981434354
 30
0.0
 10
151.0477174537588
 20
139.5160156172476
 30
0.0
 10
151.1048029752482
 20
139.5131822608207
 30
0.0
 10
151.1625767619821
 20
139.521243949823
 30
0.0
  0
SPLINE
  5
122
330
1F
100
AcDbEntity
  8
0
  6
Continuous
 62
     7
370
     0
100
AcDbSpline
210
0.0
220
0.0
230
1.0
 70
     8
 71
     3
 72
    12
 73
     8
 74
     0
 42
0.000000001
 43
0.00000001
 40
0.0
 40
0.0
 40
0.0
 40
0.0
 40
0.25
 40
0.25
 40
0.5
 40
0.5
 40
1.0
 40
1.0
 40
1.0
 40
1.0
 10
151.1625767619824
 20
152.4928191526243
 30
0.0
 10
151.105815512637
 20
152.5007395533018
 30
0.0
 10
151.0484007006943
 20
152.4980906489592
 30
0.0
 10
150.9344340888518
 20
152.4878371036874
 30
0.0
 10
150.8775951686805
 20
152.4806596610246
 30
0.0
 10
150.7068495633155
 20
152.4623775518232
 30
0.0
 10
150.5927310602119
 20
152.4542812752357
 30
0.0
 10
150.477909921356
 20
152.4561643357928
 30
0.0
  0
LINE
  5
123
330
1F
100
AcDbEntity
  8
0
  6
Continuous
 62
     7
370
     0
100
AcDbLine
 10
150.5041463081
 20
154.0559492126
 30
0.0
 11
150.4779099214
 21
152.4561643358
 31
0.0
  0
ARC
  5
124
330
1F
100
AcDbEntity
  8
0
  6
Continuous
 62
     7
370
     0
100
AcDbCircle
 10
150.3721444874
 20
146.0070315512
 30
0.0
 40
6.450000000000017
100
AcDbArc
 50
270.0
 51
270.9395635016
  0
LINE
  5
125
330
1F
100
AcDbEntity
  8
0
  6
Continuous
 62
     7
370
     0
100
AcDbLine
 10
150.3721444874
 20
139.5570315512
 30
0.0
 11
150.3721444874
 21
137.9570315512
 31
0.0
  0
ARC
  5
126
330
1F
100
AcDbEntity
  8
0
  6
Continuous
 62
     7
370
     0
100
AcDbCircle
 10
150.3721444874
 20
146.0070315512
 30
0.0
 40
6.45000000000001
100
AcDbArc
 50
308.7990431351
 51
51.2009568649
  0
LINE
  5
127
330
1F
100
AcDbEntity
  8
0
  6
Continuous
 62
     7
370
     0
100
AcDbLine
 10
134.5221444874
 20
139.219773251
 30
0.0
 11
134.8594027876
 21
139.5570315512
 31
0.0
  0
LINE
  5
128
330
1F
100
AcDbEntity
  8
0
  6
Continuous
 62
     7
370
     0
100
AcDbLine
 10
134.8594027876
 20
139.5570315512
 30
0.0
 11
150.3721444874
 21
139.5570315512
 31
0.0
  0
LINE
  5
129
330
1F
100
AcDbEntity
  8
0
  6
Continuous
 62
     7
370
     0
100
AcDbLine
 10
134.8594027876
 20
152.4570315512
 30
0.0
 11
134.5221444874
 21
152.7942898514
 31
0.0
  0
LINE
  5
12A
330
1F
100
AcDbEntity
  8
0
  6
Continuous
 62
     7
370
     0
100
AcDbLine
 10
150.3721444874
 20
154.0570315512
 30
0.0
 11
150.3721444874
 21
152.4570315512
 31
0.0
  0
LINE
  5
12B
330
1F
100
AcDbEntity
  8
0
  6
Continuous
 62
     7
370
     0
100
AcDbLine
 10
150.3721444874
 20
152.4570315512
 30
0.0
 11
134.8594027876
 21
152.4570315512
 31
0.0
  0
ARC
  5
12C
330
1F
100
AcDbEntity
  8
0
  6
Continuous
 62
     7
370
     0
100
AcDbCircle
 10
150.3721444874
 20
146.0070315512
 30
0.0
 40
6.450000000000017
100
AcDbArc
 50
89.0604364983
 51
90.0
  0
LINE
  5
12D
330
1F
100
AcDbEntity
  8
0
  6
Continuous
 62
     7
370
     0
100
AcDbLine
 10
133.9221444874
 20
146.0070315512
 30
0.0
 11
133.9221444874
 21
168.2320315512
 31
0.0
  0
LINE
  5
12E
330
1F
100
AcDbEntity
  8
0
  6
Continuous
 62
     7
370
     0
100
AcDbLine
 10
133.9221444874
 20
123.7820315512
 30
0.0
 11
133.9221444874
 21
146.0070315512
 31
0.0
  0
LINE
  5
12F
330
1F
100
AcDbEntity
  8
0
  6
Continuous
 62
     7
370
     0
100
AcDbLine
 10
63.9278375944
 20
146.0070315512
 30
0.0
 11
63.9278375944
 21
158.4036951293
 31
0.0
  0
LINE
  5
130
330
1F
100
AcDbEntity
  8
0
  6
Continuous
 62
     7
370
     0
100
AcDbLine
 10
63.9278375944
 20
133.6103679731
 30
0.0
 11
63.9278375944
 21
146.0070315512
 31
0.0
  0
LINE
  5
131
330
1F
100
AcDbEntity
  8
0
  6
HIDDEN
 62
     7
370
     0
100
AcDbLine
 10
198.8720968413
 20
181.2070315512
 30
0.0
 11
196.1284187887
 21
181.2070315512
 31
0.0
  0
LINE
  5
132
330
1F
100
AcDbEntity
  8
0
  6
HIDDEN
 62
     7
370
     0
100
AcDbLine
 10
185.5832441194
 20
181.2070315512
 30
0.0
 11
182.8721444874
 21
181.2070315512
 31
0.0
  0
LINE
  5
133
330
1F
100
AcDbEntity
  8
0
  6
HIDDEN
 62
     7
370
     0
100
AcDbLine
 10
198.8720968413
 20
169.1441813161
 30
0.0
 11
182.8721444874
 21
169.1441813161
 31
0.0
  0
LINE
  5
134
330
1F
100
AcDbEntity
  8
0
  6
HIDDEN
 62
     7
370
     0
100
AcDbLine
 10
197.8849529556
 20
168.1570315512
 30
0.0
 11
183.8592942523
 21
168.1570315512
 31
0.0
  0
LINE
  5
135
330
1F
100
AcDbEntity
  8
0
  6
HIDDEN
 62
     7
370
     0
100
AcDbLine
 10
196.1668295529
 20
160.4070315512
 30
0.0
 11
185.5774278878
 21
160.4070315512
 31
0.0
  0
LINE
  5
136
330
1F
100
AcDbEntity
  8
0
  6
HIDDEN
 62
     7
370
     0
100
AcDbLine
 10
195.7668319352
 20
160.0070315512
 30
0.0
 11
185.9774278878
 21
160.0070315512
 31
0.0
  0
SPLINE
  5
137
330
1F
100
AcDbEntity
  8
0
  6
HIDDEN
 62
     7
370
     0
100
AcDbSpline
210
0.0
220
0.0
230
1.0
 70
     8
 71
     3
 72
    10
 73
     6
 74
     0
 42
0.000000001
 43
0.00000001
 40
0.0
 40
0.0
 40
0.0
 40
0.0
 40
0.2704288496672734
 40
0.62982730756447
 40
1.0
 40
1.0
 40
1.0
 40
1.0
 10
194.8641502165574
 20
181.8758337047419
 30
0.0
 10
194.8648026974533
 20
181.7867445727793
 30
0.0
 10
194.8663223218809
 20
181.5792564730952
 30
0.0
 10
194.8688737653362
 20
181.3321729307499
 30
0.0
 10
194.8708189667399
 20
181.2830135893129
 30
0.0
 10
194.8718059307127
 20
181.25807092845
 30
0.0
  0
SPLINE
  5
138
330
1F
100
AcDbEntity
  8
0
  6
HIDDEN
 62
     7
370
     0
100
AcDbSpline
210
0.0
220
0.0
230
1.0
 70
     8
 71
     3
 72
     9
 73
     5
 74
     0
 42
0.000000001
 43
0.00000001
 40
0.0
 40
0.0
 40
0.0
 40
0.0
 40
0.6284100009498452
 40
1.0
 40
1.0
 40
1.0
 40
1.0
 10
194.8721629941193
 20
181.2756055252742
 30
0.0
 10
194.8739025307758
 20
181.323676191267
 30
0.0
 10
194.8766706863649
 20
181.4001718961732
 30
0.0
 10
194.8791644532909
 20
181.7469678110589
 30
0.0
 10
194.8800911121406
 20
181.8758337047419
 30
0.0
  0
SPLINE
  5
139
330
1F
100
AcDbEntity
  8
0
  6
HIDDEN
 62
     7
370
     0
100
AcDbSpline
210
0.0
220
0.0
230
1.0
 70
     8
 71
     3
 72
    12
 73
     8
 74
     0
 42
0.000000001
 43
0.00000001
 40
0.0
 40
0.0
 40
0.0
 40
0.0
 40
0.1844644904503193
 40
0.518216314475378
 40
0.6908969080647736
 40
0.8697138387154529
 40
1.0
 40
1.0
 40
1.0
 40
1.0
 10
186.880138758311
 20
181.8758337047419
 30
0.0
 10
186.8792121432126
 20
181.7511639801945
 30
0.0
 10
186.8766090023041
 20
181.4009291733549
 30
0.0
 10
186.8727384078424
 20
181.1942434447228
 30
0.0
 10
186.8689540802583
 20
181.338219312747
 30
0.0
 10
186.8663980602606
 20
181.5739116870071
 30
0.0
 10
186.8648502575884
 20
181.7863088462942
 30
0.0
 10
186.8641978627278
 20
181.8758337047419
 30
0.0
  0
SPLINE
  5
13A
330
1F
100
AcDbEntity
  8
0
  6
HIDDEN
 62
     7
370
     0
100
AcDbSpline
210
0.0
220
0.0
230
1.0
 70
     8
 71
     3
 72
    11
 73
     7
 74
     0
 42
0.000000001
 43
0.00000001
 40
0.0
 40
0.0
 40
0.0
 40
0.0
 40
0.2164567244934129
 40
0.4403141600939104
 40
0.7519028444798553
 40
1.0
 40
1.0
 40
1.0
 40
1.0
 10
190.8880853830174
 20
181.8758337047419
 30
0.0
 10
190.6135354148508
 20
181.7309552945358
 30
0.0
 10
190.0550485444613
 20
181.4362450439998
 30
0.0
 10
189.0186490610369
 20
181.1906070813178
 30
0.0
 10
187.906931452585
 20
181.3387121417979
 30
0.0
 10
187.1955011120627
 20
181.7108657211504
 30
0.0
 10
186.880138758311
 20
181.8758337047419
 30
0.0
  0
SPLINE
  5
13B
330
1F
100
AcDbEntity
  8
0
  6
HIDDEN
 62
     7
370
     0
100
AcDbSpline
210
0.0
220
0.0
230
1.0
 70
     8
 71
     3
 72
    11
 73
     7
 74
     0
 42
0.000000001
 43
0.00000001
 40
0.0
 40
0.0
 40
0.0
 40
0.0
 40
0.2164567244934125
 40
0.4403141600939107
 40
0.7519028444798543
 40
1.0
 40
1.0
 40
1.0
 40
1.0
 10
194.8800911121406
 20
181.8758337047419
 30
0.0
 10
194.6066331176914
 20
181.7309552945358
 30
0.0
 10
194.0503675295991
 20
181.4362450439998
 30
0.0
 10
193.0180901409765
 20
181.1906070813178
 30
0.0
 10
191.9107941917866
 20
181.3387121417979
 30
0.0
 10
191.2021934390395
 20
181.7108657211504
 30
0.0
 10
190.8880853830174
 20
181.8758337047419
 30
0.0
  0
LINE
  5
13C
330
1F
100
AcDbEntity
  8
0
  6
HIDDEN
 62
     7
370
     0
100
AcDbLine
 10
190.888085383
 20
173.0070315512
 30
0.0
 11
190.888085383
 21
181.8758337047
 31
0.0
  0
LINE
  5
13D
330
1F
100
AcDbEntity
  8
0
  6
HIDDEN
 62
     7
370
     0
100
AcDbLine
 10
190.888085383
 20
173.0070315512
 30
0.0
 11
192.8840882476
 21
173.0070315512
 31
0.0
  0
LINE
  5
13E
330
1F
100
AcDbEntity
  8
0
  6
HIDDEN
 62
     7
370
     0
100
AcDbLine
 10
188.8841120707
 20
173.0070315512
 30
0.0
 11
190.888085383
 21
173.0070315512
 31
0.0
  0
LINE
  5
13F
330
1F
100
AcDbEntity
  8
0
  6
HIDDEN
 62
     7
370
     0
100
AcDbLine
 10
194.8721206643
 20
172.0070315512
 30
0.0
 11
186.8721444874
 21
172.0070315512
 31
0.0
  0
LINE
  5
140
330
1F
100
AcDbEntity
  8
0
  6
HIDDEN
 62
     7
370
     0
100
AcDbLine
 10
186.8801387583
 20
173.0070315512
 30
0.0
 11
188.8841120707
 21
173.0070315512
 31
0.0
  0
LINE
  5
141
330
1F
100
AcDbEntity
  8
0
  6
HIDDEN
 62
     7
370
     0
100
AcDbLine
 10
192.8840882476
 20
173.0070315512
 30
0.0
 11
194.8800911121
 21
173.0070315512
 31
0.0
  0
LINE
  5
142
330
1F
100
AcDbEntity
  8
0
  6
HIDDEN
 62
     7
370
     0
100
AcDbLine
 10
186.8721683105
 20
173.0070315512
 30
0.0
 11
186.8801387583
 21
173.0070315512
 31
0.0
  0
LINE
  5
143
330
1F
100
AcDbEntity
  8
0
  6
HIDDEN
 62
     7
370
     0
100
AcDbLine
 10
186.8801387583
 20
173.0070315512
 30
0.0
 11
186.8801387583
 21
181.8758337047
 31
0.0
  0
LINE
  5
144
330
1F
100
AcDbEntity
  8
0
  6
HIDDEN
 62
     7
370
     0
100
AcDbLine
 10
194.8641502166
 20
173.0070315512
 30
0.0
 11
194.8641502166
 21
181.8758337047
 31
0.0
  0
LINE
  5
145
330
1F
100
AcDbEntity
  8
0
  6
HIDDEN
 62
     7
370
     0
100
AcDbLine
 10
194.8800911121
 20
173.0070315512
 30
0.0
 11
194.8800911121
 21
181.8758337047
 31
0.0
  0
LINE
  5
146
330
1F
100
AcDbEntity
  8
0
  6
HIDDEN
 62
     7
370
     0
100
AcDbLine
 10
186.8641978627
 20
173.0070315512
 30
0.0
 11
186.8721683105
 21
173.0070315512
 31
0.0
  0
LINE
  5
147
330
1F
100
AcDbEntity
  8
0
  6
HIDDEN
 62
     7
370
     0
100
AcDbLine
 10
190.8562035919
 20
173.0070315512
 30
0.0
 11
190.8562035919
 21
181.8758337047
 31
0.0
  0
LINE
  5
148
330
1F
100
AcDbEntity
  8
0
  6
HIDDEN
 62
     7
370
     0
100
AcDbLine
 10
186.8641978627
 20
173.0070315512
 30
0.0
 11
186.8641978627
 21
181.8758337047
 31
0.0
  0
SPLINE
  5
149
330
1F
100
AcDbEntity
  8
0
  6
HIDDEN
 62
     7
370
     0
100
AcDbSpline
210
0.0
220
0.0
230
1.0
 70
     8
 71
     3
 72
    12
 73
     8
 74
     0
 42
0.000000001
 43
0.00000001
 40
0.0
 40
0.0
 40
0.0
 40
0.0
 40
0.4999999999999953
 40
0.4999999999999953
 40
0.7499999999999977
 40
0.7499999999999977
 40
1.0
 40
1.0
 40
1.0
 40
1.0
 10
149.7721444874342
 20
137.1732336282738
 30
0.0
 10
149.9425447337821
 20
137.1732336282738
 30
0.0
 10
150.1040750319728
 20
137.2348312226315
 30
0.0
 10
150.2639831311272
 20
137.3733295182553
 30
0.0
 10
150.3045524897107
 20
137.4265375369219
 30
0.0
 10
150.3587810820538
 20
137.5400236431333
 30
0.0
 10
150.3721444874342
 20
137.5989736610912
 30
0.0
 10
150.3721444874342
 20
137.6590185740482
 30
0.0
  0
SPLINE
  5
14A
330
1F
100
AcDbEntity
  8
0
  6
HIDDEN
 62
     7
370
     0
100
AcDbSpline
210
0.0
220
0.0
230
1.0
 70
     8
 71
     3
 72
    16
 73
    12
 74
     0
 42
0.000000001
 43
0.00000001
 40
0.0
 40
0.0
 40
0.0
 40
0.0
 40
0.2499999999999986
 40
0.2499999999999986
 40
0.4999999999999972
 40
0.4999999999999972
 40
0.6249999999999977
 40
0.6249999999999977
 40
0.749999999999998
 40
0.749999999999998
 40
1.0
 40
1.0
 40
1.0
 40
1.0
 10
209.6721444874342
 20
125.0786480995785
 30
0.0
 10
209.8076490341266
 20
125.1993730224289
 30
0.0
 10
209.9114568108068
 20
125.4053507717021
 30
0.0
 10
210.0550566202423
 20
125.995765712991
 30
0.0
 10
210.0910790013971
 20
126.3651330498298
 30
0.0
 10
210.0909797953613
 20
127.0270798906118
 30
0.0
 10
210.0817774647998
 20
127.2599543698908
 30
0.0
 10
210.0457157338157
 20
127.7491017357618
 30
0.0
 10
210.0186042607686
 20
128.007183530214
 30
0.0
 10
209.9109869788583
 20
128.805631129267
 30
0.0
 10
209.8076372280773
 20
129.3527492975195
 30
0.0
 10
209.6721444874342
 20
129.9135740679819
 30
0.0
  0
LINE
  5
14B
330
1F
100
AcDbEntity
  8
0
  6
HIDDEN
 62
     7
370
     0
100
AcDbLine
 10
209.6721444874
 20
117.1154117416
 30
0.0
 11
209.6721444874
 21
125.0786480996
 31
0.0
  0
LINE
  5
14C
330
1F
100
AcDbEntity
  8
0
  6
HIDDEN
 62
     7
370
     0
100
AcDbLine
 10
209.6721444874
 20
166.9354150029
 30
0.0
 11
209.6721444874
 21
174.8986513608
 31
0.0
  0
SPLINE
  5
14D
330
1F
100
AcDbEntity
  8
0
  6
HIDDEN
 62
     7
370
     0
100
AcDbSpline
210
0.0
220
0.0
230
1.0
 70
     8
 71
     3
 72
    16
 73
    12
 74
     0
 42
0.000000001
 43
0.00000001
 40
0.0
 40
0.0
 40
0.0
 40
0.0
 40
0.2500000000000004
 40
0.2500000000000004
 40
0.5000000000000008
 40
0.5000000000000008
 40
0.6250000000000006
 40
0.6250000000000006
 40
0.7500000000000002
 40
0.7500000000000002
 40
1.0
 40
1.0
 40
1.0
 40
1.0
 10
209.6721444874342
 20
162.100489034468
 30
0.0
 10
209.8076490341266
 20
162.6613626719387
 30
0.0
 10
209.9114568108068
 20
163.2108135612105
 30
0.0
 10
210.0550566202423
 20
164.2784438176523
 30
0.0
 10
210.0910790013971
 20
164.7689233260989
 30
0.0
 10
210.0909797953613
 20
165.4305379049266
 30
0.0
 10
210.0817774647998
 20
165.6325629262177
 30
0.0
 10
210.0457157338157
 20
166.0011690113129
 30
0.0
 10
210.0186042607686
 20
166.1687175232766
 30
0.0
 10
209.9109869788583
 20
166.6095416712934
 30
0.0
 10
209.8076372280773
 20
166.8147005983719
 30
0.0
 10
209.6721444874342
 20
166.9354150028713
 30
0.0
  0
LINE
  5
14E
330
1F
100
AcDbEntity
  8
0
  6
HIDDEN
 62
     7
370
     0
100
AcDbLine
 10
209.6721444874
 20
129.913574068
 30
0.0
 11
209.6721444874
 21
162.1004890345
 31
0.0
  0
SPLINE
  5
14F
330
1F
100
AcDbEntity
  8
0
  6
HIDDEN
 62
     7
370
     0
100
AcDbSpline
210
0.0
220
0.0
230
1.0
 70
     8
 71
     3
 72
    12
 73
     8
 74
     0
 42
0.000000001
 43
0.00000001
 40
0.0
 40
0.0
 40
0.0
 40
0.0
 40
0.5000000000000069
 40
0.5000000000000069
 40
0.7500000000000034
 40
0.7500000000000034
 40
1.0
 40
1.0
 40
1.0
 40
1.0
 10
150.3721444874342
 20
171.1784439073085
 30
0.0
 10
150.3721444874342
 20
171.3533746166744
 30
0.0
 10
150.3224644924792
 20
171.5306835041674
 30
0.0
 10
150.1665459354616
 20
171.7440749748239
 30
0.0
 10
150.1006648708855
 20
171.8057655308233
 30
0.0
 10
149.9480192153968
 20
171.8924904634115
 30
0.0
 10
149.8607693075358
 20
171.9172611912725
 30
0.0
 10
149.7721444874341
 20
171.9172611912725
 30
0.0
  0
SPLINE
  5
150
330
1F
100
AcDbEntity
  8
0
  6
HIDDEN
 62
     7
370
     0
100
AcDbSpline
210
0.0
220
0.0
230
1.0
 70
     8
 71
     3
 72
    12
 73
     8
 74
     0
 42
0.000000001
 43
0.00000001
 40
0.0
 40
0.0
 40
0.0
 40
0.0
 40
0.25
 40
0.25
 40
0.5
 40
0.5
 40
1.0
 40
1.0
 40
1.0
 40
1.0
 10
135.1221444874342
 20
171.9172611912725
 30
0.0
 10
135.0337291101237
 20
171.9172611912725
 30
0.0
 10
134.9464586729531
 20
171.8925392393716
 30
0.0
 10
134.7939949481813
 20
171.8060345640254
 30
0.0
 10
134.7283563359589
 20
171.7447821258738
 30
0.0
 10
134.5716979346749
 20
171.5307733451885
 30
0.0
 10
134.5221444874342
 20
171.3540020589163
 30
0.0
 10
134.5221444874342
 20
171.1784439073085
 30
0.0
  0
SPLINE
  5
151
330
1F
100
AcDbEntity
  8
0
  6
HIDDEN
 62
     7
370
     0
100
AcDbSpline
210
0.0
220
0.0
230
1.0
 70
     8
 71
     3
 72
     8
 73
     4
 74
     0
 42
0.000000001
 43
0.00000001
 40
0.0
 40
0.0
 40
0.0
 40
0.0
 40
1.0
 40
1.0
 40
1.0
 40
1.0
 10
134.8093860887419
 20
137.2442731525326
 30
0.0
 10
134.901262374738
 20
137.1989316433915
 30
0.0
 10
135.0099913735231
 20
137.1732336282738
 30
0.0
 10
135.1221444874342
 20
137.1732336282738
 30
0.0
  0
SPLINE
  5
152
330
1F
100
AcDbEntity
  8
0
  6
HIDDEN
 62
     7
370
     0
100
AcDbSpline
210
0.0
220
0.0
230
1.0
 70
     8
 71
     3
 72
     8
 73
     4
 74
     0
 42
0.000000001
 43
0.00000001
 40
0.0
 40
0.0
 40
0.0
 40
0.0
 40
0.0012409313617635
 40
0.0012409313617635
 40
0.0012409313617635
 40
0.0012409313617635
 10
145.3860991737302
 20
137.9570315512249
 30
0.0
 10
145.5713230132862
 20
137.6955040077478
 30
0.0
 10
145.7573082012587
 20
137.4342455059724
 30
0.0
 10
145.9439811294909
 20
137.1732336282738
 30
0.0
  0
LINE
  5
153
330
1F
100
AcDbEntity
  8
0
  6
HIDDEN
 62
     7
370
     0
100
AcDbLine
 10
145.9439811295
 20
137.1732336283
 30
0.0
 11
145.9439811295
 21
137.0083554081
 31
0.0
  0
LINE
  5
154
330
1F
100
AcDbEntity
  8
0
  6
HIDDEN
 62
     7
370
     0
100
AcDbLine
 10
135.1221444874
 20
137.1732336283
 30
0.0
 11
138.9003078454
 21
137.1732336283
 31
0.0
  0
LINE
  5
155
330
1F
100
AcDbEntity
  8
0
  6
HIDDEN
 62
     7
370
     0
100
AcDbLine
 10
138.9003078454
 20
137.1732336283
 30
0.0
 11
138.9003078454
 21
137.0083554081
 31
0.0
  0
SPLINE
  5
156
330
1F
100
AcDbEntity
  8
0
  6
HIDDEN
 62
     7
370
     0
100
AcDbSpline
210
0.0
220
0.0
230
1.0
 70
     8
 71
     3
 72
     8
 73
     4
 74
     0
 42
0.000000001
 43
0.00000001
 40
0.0
 40
0.0
 40
0.0
 40
0.0
 40
1.0
 40
1.0
 40
1.0
 40
1.0
 10
140.5121444874342
 20
168.4091706070834
 30
0.0
 10
139.9874119990723
 20
169.5840165230451
 30
0.0
 10
139.4487365148535
 20
170.753260482883
 30
0.0
 10
138.9003078453775
 20
171.9172611912725
 30
0.0
  0
LINE
  5
157
330
1F
100
AcDbEntity
  8
0
  6
HIDDEN
 62
     7
370
     0
100
AcDbLine
 10
149.7721444874
 20
171.9172611913
 30
0.0
 11
145.9439811295
 21
171.9172611913
 31
0.0
  0
LINE
  5
158
330
1F
100
AcDbEntity
  8
0
  6
HIDDEN
 62
     7
370
     0
100
AcDbLine
 10
138.9003078454
 20
171.9172611913
 30
0.0
 11
135.1221444874
 21
171.9172611913
 31
0.0
  0
LINE
  5
159
330
1F
100
AcDbEntity
  8
0
  6
HIDDEN
 62
     7
370
     0
100
AcDbLine
 10
145.9439811295
 20
137.1732336283
 30
0.0
 11
149.7721444874
 21
137.1732336283
 31
0.0
  0
SPLINE
  5
15A
330
1F
100
AcDbEntity
  8
0
  6
HIDDEN
 62
     7
370
     0
100
AcDbSpline
210
0.0
220
0.0
230
1.0
 70
     8
 71
     3
 72
     8
 73
     4
 74
     0
 42
0.000000001
 43
0.00000001
 40
0.0
 40
0.0
 40
0.0
 40
0.0
 40
0.0012409313617635
 40
0.0012409313617635
 40
0.0012409313617635
 40
0.0012409313617635
 10
138.9003078453775
 20
137.1732336282738
 30
0.0
 10
139.0869807736097
 20
137.4342455059724
 30
0.0
 10
139.2729659615822
 20
137.6955040077478
 30
0.0
 10
139.4581898011382
 20
137.9570315512249
 30
0.0
  0
SPLINE
  5
15B
330
1F
100
AcDbEntity
  8
0
  6
HIDDEN
 62
     7
370
     0
100
AcDbSpline
210
0.0
220
0.0
230
1.0
 70
     8
 71
     3
 72
     8
 73
     4
 74
     0
 42
0.000000001
 43
0.00000001
 40
0.0
 40
0.0
 40
0.0
 40
0.0
 40
1.0
 40
1.0
 40
1.0
 40
1.0
 10
145.9439811294909
 20
171.9172611912725
 30
0.0
 10
145.3955524600149
 20
170.753260482883
 30
0.0
 10
144.8568769757961
 20
169.5840165230451
 30
0.0
 10
144.3321444874342
 20
168.4091706070834
 30
0.0
  0
LINE
  5
15C
330
1F
100
AcDbEntity
  8
0
  6
HIDDEN
 62
     7
370
     0
100
AcDbLine
 10
205.3721444874
 20
160.6939822699
 30
0.0
 11
205.3721444874
 21
131.3200808325
 31
0.0
  0
SPLINE
  5
15D
330
1F
100
AcDbEntity
  8
0
  6
HIDDEN
 62
     7
370
     0
100
AcDbSpline
210
0.0
220
0.0
230
1.0
 70
     8
 71
     3
 72
    14
 73
    10
 74
     0
 42
0.000000001
 43
0.00000001
 40
0.0
 40
0.0
 40
0.0
 40
0.0
 40
0.25
 40
0.25
 40
0.5
 40
0.5
 40
0.75
 40
0.75
 40
1.0
 40
1.0
 40
1.0
 40
1.0
 10
144.3321444874342
 20
168.2042723707502
 30
0.0
 10
144.3321444874342
 20
168.0822072065182
 30
0.0
 10
144.3160628859744
 20
167.9627567990378
 30
0.0
 10
144.2505713727075
 20
167.7292749359588
 30
0.0
 10
144.2012633995802
 20
167.6170077597369
 30
0.0
 10
144.0666938778832
 20
167.4150261587882
 30
0.0
 10
143.9811708017979
 20
167.3252257538088
 30
0.0
 10
143.7741753062429
 20
167.1942630558696
 30
0.0
 10
143.6534816722993
 20
167.1559676946814
 30
0.0
 10
143.5321444874342
 20
167.1559676946814
 30
0.0
  0
SPLINE
  5
15E
330
1F
100
AcDbEntity
  8
0
  6
HIDDEN
 62
     7
370
     0
100
AcDbSpline
210
0.0
220
0.0
230
1.0
 70
     8
 71
     3
 72
    14
 73
    10
 74
     0
 42
0.000000001
 43
0.00000001
 40
0.0
 40
0.0
 40
0.0
 40
0.0
 40
0.1250000000000007
 40
0.1250000000000007
 40
0.2500000000000014
 40
0.2500000000000014
 40
0.499999999999999
 40
0.499999999999999
 40
1.0
 40
1.0
 40
1.0
 40
1.0
 10
141.3121444874342
 20
167.1559676946814
 30
0.0
 10
141.2515271640166
 20
167.1559676946814
 30
0.0
 10
141.1894020158816
 20
167.1655350032588
 30
0.0
 10
141.0731843528602
 20
167.201223051223
 30
0.0
 10
141.0185677131678
 20
167.2269209518765
 30
0.0
 10
140.8638913746596
 20
167.3246458717575
 30
0.0
 10
140.7777746258755
 20
167.4148953138101
 30
0.0
 10
140.5764670453349
 20
167.7166324087416
 30
0.0
 10
140.5121444874342
 20
167.9625937218826
 30
0.0
 10
140.5121444874342
 20
168.2042723707501
 30
0.0
  0
LINE
  5
15F
330
1F
100
AcDbEntity
  8
0
  6
HIDDEN
 62
     7
370
     0
100
AcDbLine
 10
143.5321444874
 20
167.1559676947
 30
0.0
 11
141.3121444874
 21
167.1559676947
 31
0.0
  0
LINE
  5
160
330
1F
100
AcDbEntity
  8
0
  6
HIDDEN
 62
     7
370
     0
100
AcDbLine
 10
151.3721444874
 20
142.8510847836
 30
0.0
 11
157.7777167138
 21
142.8510847836
 31
0.0
  0
LINE
  5
161
330
1F
100
AcDbEntity
  8
0
  6
HIDDEN
 62
     7
370
     0
100
AcDbLine
 10
157.7777167138
 20
149.1629783188
 30
0.0
 11
151.3721444874
 21
149.1629783188
 31
0.0
  0
SPLINE
  5
162
330
1F
100
AcDbEntity
  8
0
  6
HIDDEN
 62
     7
370
     0
100
AcDbSpline
210
0.0
220
0.0
230
1.0
 70
     8
 71
     3
 72
    18
 73
    14
 74
     0
 42
0.000000001
 43
0.00000001
 40
0.0
 40
0.0
 40
0.0
 40
0.0
 40
0.4999999999999994
 40
0.4999999999999994
 40
0.7499999999999989
 40
0.7499999999999989
 40
0.8749999999999986
 40
0.8749999999999986
 40
0.9374999999999987
 40
0.9374999999999987
 40
0.9687499999999993
 40
0.9687499999999993
 40
1.0
 40
1.0
 40
1.0
 40
1.0
 10
150.4451048778886
 20
139.5570315512249
 30
0.0
 10
150.5040743319572
 20
140.1362485270025
 30
0.0
 10
150.5927053151797
 20
140.7117244778051
 30
0.0
 10
150.7761456018698
 20
141.5661016369771
 30
0.0
 10
150.8448776653638
 20
141.848450414151
 30
0.0
 10
150.9757232713099
 20
142.2630347031891
 30
0.0
 10
151.0233899810636
 20
142.3999242706151
 30
0.0
 10
151.1152665272809
 20
142.598694326352
 30
0.0
 10
151.1490704939509
 20
142.664502902929
 30
0.0
 10
151.2153479404532
 20
142.7563761261608
 30
0.0
 10
151.2399478345603
 20
142.785598993446
 30
0.0
 10
151.2984653770358
 20
142.8329535283682
 30
0.0
 10
151.3346137719851
 20
142.8510847836126
 30
0.0
 10
151.3721444874342
 20
142.8510847836126
 30
0.0
  0
SPLINE
  5
163
330
1F
100
AcDbEntity
  8
0
  6
HIDDEN
 62
     7
370
     0
100
AcDbSpline
210
0.0
220
0.0
230
1.0
 70
     8
 71
     3
 72
    10
 73
     6
 74
     0
 42
0.000000001
 43
0.00000001
 40
0.0
 40
0.0
 40
0.0
 40
0.0
 40
0.5
 40
0.5
 40
1.0
 40
1.0
 40
1.0
 40
1.0
 10
150.3721444874342
 20
138.8112872921346
 30
0.0
 10
150.3721444874342
 20
138.9272953712799
 30
0.0
 10
150.3841185824423
 20
139.047553472595
 30
0.0
 10
150.4139104393557
 20
139.297394651013
 30
0.0
 10
150.4318572456843
 20
139.4269090397848
 30
0.0
 10
150.4451048778887
 20
139.5570315512249
 30
0.0
  0
LINE
  5
164
330
1F
100
AcDbEntity
  8
0
  6
HIDDEN
 62
     7
370
     0
100
AcDbLine
 10
150.3721444874
 20
138.8112872921
 30
0.0
 11
150.3721444874
 21
137.9570315512
 31
0.0
  0
SPLINE
  5
165
330
1F
100
AcDbEntity
  8
0
  6
HIDDEN
 62
     7
370
     0
100
AcDbSpline
210
0.0
220
0.0
230
1.0
 70
     8
 71
     3
 72
    10
 73
     6
 74
     0
 42
0.000000001
 43
0.00000001
 40
0.0
 40
0.0
 40
0.0
 40
0.0
 40
0.5
 40
0.5
 40
1.0
 40
1.0
 40
1.0
 40
1.0
 10
150.4451048778872
 20
152.4570315512249
 30
0.0
 10
150.4318590144289
 20
152.5871366894707
 30
0.0
 10
150.4142317640648
 20
152.7142477760331
 30
0.0
 10
150.3843534223206
 20
152.9642712605371
 30
0.0
 10
150.3721444874342
 20
153.0869912716254
 30
0.0
 10
150.3721444874342
 20
153.2027758103152
 30
0.0
  0
SPLINE
  5
166
330
1F
100
AcDbEntity
  8
0
  6
HIDDEN
 62
     7
370
     0
100
AcDbSpline
210
0.0
220
0.0
230
1.0
 70
     8
 71
     3
 72
    18
 73
    14
 74
     0
 42
0.000000001
 43
0.00000001
 40
0.0
 40
0.0
 40
0.0
 40
0.0
 40
0.0312499999999993
 40
0.0312499999999993
 40
0.0624999999999987
 40
0.0624999999999987
 40
0.1249999999999988
 40
0.1249999999999988
 40
0.2499999999999991
 40
0.2499999999999991
 40
0.4999999999999993
 40
0.4999999999999993
 40
1.0
 40
1.0
 40
1.0
 40
1.0
 10
151.3721444874342
 20
149.1629783188369
 30
0.0
 10
151.3352106636191
 20
149.1629783188369
 30
0.0
 10
151.2996726786877
 20
149.1804789318429
 30
0.0
 10
151.241749910404
 20
149.2266769901626
 30
0.0
 10
151.2176090625961
 20
149.2550146278341
 30
0.0
 10
151.152651212721
 20
149.3437539877575
 30
0.0
 10
151.118198227892
 20
149.4096224128553
 30
0.0
 10
151.0255872670337
 20
149.6082672587397
 30
0.0
 10
150.9774171404383
 20
149.7460113913237
 30
0.0
 10
150.8451572640502
 20
150.1640411061155
 30
0.0
 10
150.7761264632725
 20
150.448064945636
 30
0.0
 10
150.5928311064332
 20
151.3017240759378
 30
0.0
 10
150.5041814058807
 20
151.8767628608757
 30
0.0
 10
150.4451048778886
 20
152.4570315512252
 30
0.0
  0
LINE
  5
167
330
1F
100
AcDbEntity
  8
0
  6
HIDDEN
 62
     7
370
     0
100
AcDbLine
 10
150.3721444874
 20
154.0570315512
 30
0.0
 11
150.3721444874
 21
153.2027758103
 31
0.0
  0
LINE
  5
168
330
1F
100
AcDbEntity
  8
0
  6
HIDDEN
 62
     7
370
     0
100
AcDbLine
 10
205.3721444874
 20
167.0570315512
 30
0.0
 11
209.6721444874
 21
167.0570315512
 31
0.0
  0
LINE
  5
169
330
1F
100
AcDbEntity
  8
0
  6
HIDDEN
 62
     7
370
     0
100
AcDbLine
 10
205.3721444874
 20
160.6939822699
 30
0.0
 11
209.6721444874
 21
160.6939822699
 31
0.0
  0
LINE
  5
16A
330
1F
100
AcDbEntity
  8
0
  6
HIDDEN
 62
     7
370
     0
100
AcDbLine
 10
205.3721444874
 20
167.0570315512
 30
0.0
 11
205.3721444874
 21
160.6939822699
 31
0.0
  0
LINE
  5
16B
330
1F
100
AcDbEntity
  8
0
  6
HIDDEN
 62
     7
370
     0
100
AcDbLine
 10
205.3721444874
 20
124.9570315512
 30
0.0
 11
209.6721444874
 21
124.9570315512
 31
0.0
  0
LINE
  5
16C
330
1F
100
AcDbEntity
  8
0
  6
HIDDEN
 62
     7
370
     0
100
AcDbLine
 10
205.3721444874
 20
131.3200808325
 30
0.0
 11
209.6721444874
 21
131.3200808325
 31
0.0
  0
LINE
  5
16D
330
1F
100
AcDbEntity
  8
0
  6
HIDDEN
 62
     7
370
     0
100
AcDbLine
 10
205.3721444874
 20
131.3200808325
 30
0.0
 11
205.3721444874
 21
124.9570315512
 31
0.0
  0
LINE
  5
16E
330
1F
100
AcDbEntity
  8
0
  6
HIDDEN
 62
     7
370
     0
100
AcDbLine
 10
203.8721444874
 20
146.0070315512
 30
0.0
 11
203.8721444874
 21
166.0070315512
 31
0.0
  0
LINE
  5
16F
330
1F
100
AcDbEntity
  8
0
  6
HIDDEN
 62
     7
370
     0
100
AcDbLine
 10
203.8721444874
 20
126.0070315512
 30
0.0
 11
203.8721444874
 21
146.0070315512
 31
0.0
  0
LINE
  5
170
330
1F
100
AcDbEntity
  8
0
  6
HIDDEN
 62
     7
370
     0
100
AcDbLine
 10
169.4221444874
 20
146.0070315512
 30
0.0
 11
169.4221444874
 21
165.7070315512
 31
0.0
  0
LINE
  5
171
330
1F
100
AcDbEntity
  8
0
  6
HIDDEN
 62
     7
370
     0
100
AcDbLine
 10
169.4221444874
 20
126.3070315512
 30
0.0
 11
169.4221444874
 21
146.0070315512
 31
0.0
  0
LINE
  5
172
330
1F
100
AcDbEntity
  8
0
  6
HIDDEN
 62
     7
370
     0
100
AcDbLine
 10
171.9221444874
 20
146.0070315512
 30
0.0
 11
171.9221444874
 21
166.0070315512
 31
0.0
  0
LINE
  5
173
330
1F
100
AcDbEntity
  8
0
  6
HIDDEN
 62
     7
370
     0
100
AcDbLine
 10
171.9221444874
 20
126.0070315512
 30
0.0
 11
171.9221444874
 21
146.0070315512
 31
0.0
  0
SPLINE
  5
174
330
1F
100
AcDbEntity
  8
0
  6
HIDDEN
 62
     7
370
     0
100
AcDbSpline
210
0.0
220
0.0
230
1.0
 70
     8
 71
     3
 72
    17
 73
    13
 74
     0
 42
0.000000001
 43
0.00000001
 40
0.0
 40
0.0
 40
0.0
 40
0.0
 40
0.100976420178379
 40
0.2050185282700719
 40
0.3059591391321175
 40
0.4096071329149903
 40
0.5148087756841463
 40
0.6228713566699917
 40
0.7311575120109411
 40
0.8428393836645117
 40
0.9466733291489737
 40
0.9999999999999999
 40
0.9999999999999999
 40
0.9999999999999999
 40
0.9999999999999999
 10
190.8721444874342
 20
164.6467069775836
 30
0.0
 10
191.2588060271391
 20
164.6537416599592
 30
0.0
 10
192.0438683186018
 20
164.6680246007186
 30
0.0
 10
193.180851934184
 20
164.7791998956454
 30
0.0
 10
194.2604763185797
 20
164.9428671029643
 30
0.0
 10
195.2514340273747
 20
165.1469258669775
 30
0.0
 10
196.1458325247485
 20
165.3728490371053
 30
0.0
 10
196.9079557516056
 20
165.595962639759
 30
0.0
 10
197.5179916154349
 20
165.7941209150363
 30
0.0
 10
197.918293916907
 20
165.9333668515829
 30
0.0
 10
198.1161489537562
 20
166.0048485347108
 30
0.0
 10
198.1011342375921
 20
165.9994239495865
 30
0.0
 10
198.096039546279
 20
165.9975833162767
 30
0.0
  0
LINE
  5
175
330
1F
100
AcDbEntity
  8
0
  6
HIDDEN
 62
     7
370
     0
100
AcDbLine
 10
190.893365076
 20
164.647363447
 30
0.0
 11
190.5848126651
 21
164.6566647878
 31
0.0
  0
SPLINE
  5
176
330
1F
100
AcDbEntity
  8
0
  6
HIDDEN
 62
     7
370
     0
100
AcDbSpline
210
0.0
220
0.0
230
1.0
 70
     8
 71
     3
 72
    18
 73
    14
 74
     0
 42
0.000000001
 43
0.00000001
 40
0.0
 40
0.0
 40
0.0
 40
0.0
 40
0.0809330505835349
 40
0.1688328904476825
 40
0.2594020288584381
 40
0.3455559003276408
 40
0.4340261772375783
 40
0.5237305163965399
 40
0.6158023241607792
 40
0.7097116686280569
 40
0.80642290348107
 40
0.9015366796100135
 40
1.0
 40
1.0
 40
1.0
 40
1.0
 10
183.8404266864401
 20
165.9290874731577
 30
0.0
 10
183.7654452612534
 20
165.9557830626299
 30
0.0
 10
183.6090279428292
 20
166.0114722217595
 30
0.0
 10
183.6118997559007
 20
166.0108250943094
 30
0.0
 10
183.7849795486097
 20
165.9480632879371
 30
0.0
 10
184.1446666654957
 20
165.8222156362904
 30
0.0
 10
184.6682136461359
 20
165.6492450979824
 30
0.0
 10
185.3615296267099
 20
165.439525758749
 30
0.0
 10
186.2146305450831
 20
165.2128147175199
 30
0.0
 10
187.221804492897
 20
164.9906983114564
 30
0.0
 10
188.3527022132457
 20
164.8050255582585
 30
0.0
 10
189.5853972822775
 20
164.6729464305779
 30
0.0
 10
190.4383093228934
 20
164.6555537793187
 30
0.0
 10
190.8721444874342
 20
164.6467069775836
 30
0.0
  0
LINE
  5
177
330
1F
100
AcDbEntity
  8
0
  6
HIDDEN
 62
     7
370
     0
100
AcDbLine
 10
205.3721444874
 20
167.0570315512
 30
0.0
 11
205.3721444874
 21
169.7570315512
 31
0.0
  0
LINE
  5
178
330
1F
100
AcDbEntity
  8
0
  6
HIDDEN
 62
     7
370
     0
100
AcDbLine
 10
205.3721444874
 20
122.2570315512
 30
0.0
 11
205.3721444874
 21
124.9570315512
 31
0.0
  0
LINE
  5
179
330
1F
100
AcDbEntity
  8
0
  6
HIDDEN
 62
     7
370
     0
100
AcDbLine
 10
190.8721444874
 20
179.2570315512
 30
0.0
 11
198.1221444874
 21
179.2570315512
 31
0.0
  0
LINE
  5
17A
330
1F
100
AcDbEntity
  8
0
  6
HIDDEN
 62
     7
370
     0
100
AcDbLine
 10
183.6221444874
 20
179.2570315512
 30
0.0
 11
190.8721444874
 21
179.2570315512
 31
0.0
  0
LINE
  5
17B
330
1F
100
AcDbEntity
  8
0
  6
HIDDEN
 62
     7
370
     0
100
AcDbLine
 10
70.0721444874
 20
146.0070315512
 30
0.0
 11
70.0721444874
 21
154.5070315512
 31
0.0
  0
LINE
  5
17C
330
1F
100
AcDbEntity
  8
0
  6
HIDDEN
 62
     7
370
     0
100
AcDbLine
 10
70.0721444874
 20
137.5070315512
 30
0.0
 11
70.0721444874
 21
146.0070315512
 31
0.0
  0
LINE
  5
17D
330
1F
100
AcDbEntity
  8
0
  6
HIDDEN
 62
     7
370
     0
100
AcDbLine
 10
73.0680737018
 20
146.0070315512
 30
0.0
 11
73.0680737018
 21
153.0070315512
 31
0.0
  0
LINE
  5
17E
330
1F
100
AcDbEntity
  8
0
  6
HIDDEN
 62
     7
370
     0
100
AcDbLine
 10
73.0680737018
 20
139.0070315512
 30
0.0
 11
73.0680737018
 21
146.0070315512
 31
0.0
  0
LINE
  5
17F
330
1F
100
AcDbEntity
  8
0
  6
HIDDEN
 62
     7
370
     0
100
AcDbLine
 10
106.0721444874
 20
146.0070315512
 30
0.0
 11
106.0721444874
 21
153.0070315512
 31
0.0
  0
LINE
  5
180
330
1F
100
AcDbEntity
  8
0
  6
HIDDEN
 62
     7
370
     0
100
AcDbLine
 10
106.0721444874
 20
139.0070315512
 30
0.0
 11
106.0721444874
 21
146.0070315512
 31
0.0
  0
LINE
  5
181
330
1F
100
AcDbEntity
  8
0
  6
HIDDEN
 62
     7
370
     0
100
AcDbLine
 10
107.7245111898
 20
146.0070315512
 30
0.0
 11
107.7245111898
 21
150.2570315512
 31
0.0
  0
LINE
  5
182
330
1F
100
AcDbEntity
  8
0
  6
HIDDEN
 62
     7
370
     0
100
AcDbLine
 10
107.7245111898
 20
141.7570315512
 30
0.0
 11
107.7245111898
 21
146.0070315512
 31
0.0
  0
LINE
  5
183
330
1F
100
AcDbEntity
  8
0
  6
HIDDEN
 62
     7
370
     0
100
AcDbLine
 10
134.5221444874
 20
164.3570315512
 30
0.0
 11
150.3721444874
 21
164.3570315512
 31
0.0
  0
LWPOLYLINE
  5
184
330
1F
100
AcDbEntity
  8
0
  6
HIDDEN
 62
     7
370
     0
100
AcDbPolyline
 90
        9
 70
   128
 43
0.0
 10
150.3721444874
 20
164.3570315512
 10
150.3722957525
 20
164.3570315527
 10
150.3724470176
 20
164.3570315569
 10
150.3725982827
 20
164.3570315641
 10
150.3727495478
 20
164.3570315741
 10
150.3729008129
 20
164.357031587
 10
150.373052078
 20
164.3570316027
 10
150.3732033431
 20
164.3570316213
 10
150.3733546082
 20
164.3570316427
  0
SPLINE
  5
185
330
1F
100
AcDbEntity
  8
0
  6
HIDDEN
 62
     7
370
     0
100
AcDbSpline
210
0.0
220
0.0
230
1.0
 70
     8
 71
     3
 72
     8
 73
     4
 74
     0
 42
0.000000001
 43
0.00000001
 40
0.0
 40
0.0
 40
0.0
 40
0.0
 40
1.0
 40
1.0
 40
1.0
 40
1.0
 10
135.1221444874342
 20
154.840829474176
 30
0.0
 10
135.0099662332545
 20
154.840829474176
 30
0.0
 10
134.9012967205261
 20
154.815148408915
 30
0.0
 10
134.8093860887417
 20
154.7697899499174
 30
0.0
  0
SPLINE
  5
186
330
1F
100
AcDbEntity
  8
0
  6
HIDDEN
 62
     7
370
     0
100
AcDbSpline
210
0.0
220
0.0
230
1.0
 70
     8
 71
     3
 72
    12
 73
     8
 74
     0
 42
0.000000001
 43
0.00000001
 40
0.0
 40
0.0
 40
0.0
 40
0.0
 40
0.500000000000001
 40
0.500000000000001
 40
0.7500000000000004
 40
0.7500000000000004
 40
1.0
 40
1.0
 40
1.0
 40
1.0
 10
150.3721444874342
 20
154.3550445284016
 30
0.0
 10
150.3721444874342
 20
154.4753715614547
 30
0.0
 10
150.3183496758412
 20
154.5934691349366
 30
0.0
 10
150.1574261058749
 20
154.7331118773755
 30
0.0
 10
150.0926746447724
 20
154.77138783077
 30
0.0
 10
149.9404544614547
 20
154.8262276604044
 30
0.0
 10
149.8576469459297
 20
154.840829474176
 30
0.0
 10
149.7721444874342
 20
154.840829474176
 30
0.0
  0
LINE
  5
187
330
1F
100
AcDbEntity
  8
0
  6
HIDDEN
 62
     7
370
     0
100
AcDbLine
 10
145.9439811295
 20
155.0057076944
 30
0.0
 11
145.9439811295
 21
154.8408294742
 31
0.0
  0
LINE
  5
188
330
1F
100
AcDbEntity
  8
0
  6
HIDDEN
 62
     7
370
     0
100
AcDbLine
 10
138.9003078454
 20
155.0057076944
 30
0.0
 11
138.9003078454
 21
154.8408294742
 31
0.0
  0
LINE
  5
189
330
1F
100
AcDbEntity
  8
0
  6
HIDDEN
 62
     7
370
     0
100
AcDbLine
 10
138.9003078454
 20
154.8408294742
 30
0.0
 11
135.1221444874
 21
154.8408294742
 31
0.0
  0
SPLINE
  5
18A
330
1F
100
AcDbEntity
  8
0
  6
HIDDEN
 62
     7
370
     0
100
AcDbSpline
210
0.0
220
0.0
230
1.0
 70
     8
 71
     3
 72
     8
 73
     4
 74
     0
 42
0.000000001
 43
0.00000001
 40
0.0
 40
0.0
 40
0.0
 40
0.0
 40
0.0012409313617635
 40
0.0012409313617635
 40
0.0012409313617635
 40
0.0012409313617635
 10
139.4581898011382
 20
154.0570315512249
 30
0.0
 10
139.2729659615822
 20
154.3185590947021
 30
0.0
 10
139.0869807736097
 20
154.5798175964774
 30
0.0
 10
138.9003078453775
 20
154.840829474176
 30
0.0
  0
LINE
  5
18B
330
1F
100
AcDbEntity
  8
0
  6
HIDDEN
 62
     7
370
     0
100
AcDbLine
 10
149.7721444874
 20
154.8408294742
 30
0.0
 11
145.9439811295
 21
154.8408294742
 31
0.0
  0
SPLINE
  5
18C
330
1F
100
AcDbEntity
  8
0
  6
HIDDEN
 62
     7
370
     0
100
AcDbSpline
210
0.0
220
0.0
230
1.0
 70
     8
 71
     3
 72
     8
 73
     4
 74
     0
 42
0.000000001
 43
0.00000001
 40
0.0
 40
0.0
 40
0.0
 40
0.0
 40
0.0012409313617635
 40
0.0012409313617635
 40
0.0012409313617635
 40
0.0012409313617635
 10
145.9439811294909
 20
154.840829474176
 30
0.0
 10
145.7573082012587
 20
154.5798175964774
 30
0.0
 10
145.5713230132862
 20
154.318559094702
 30
0.0
 10
145.3860991737302
 20
154.0570315512249
 30
0.0
  0
LINE
  5
18D
330
1F
100
AcDbEntity
  8
0
  6
HIDDEN
 62
     7
370
     0
100
AcDbLine
 10
198.8721444874
 20
181.2070315512
 30
0.0
 11
198.5249041043
 21
181.5542719344
 31
0.0
  0
LINE
  5
18E
330
1F
100
AcDbEntity
  8
0
  6
HIDDEN
 62
     7
370
     0
100
AcDbLine
 10
183.2209201026
 20
181.5558071664
 30
0.0
 11
182.8721444874
 21
181.2070315512
 31
0.0
  0
LINE
  5
18F
330
1F
100
AcDbEntity
  8
0
  6
HIDDEN
 62
     7
370
     0
100
AcDbLine
 10
198.8721444874
 20
169.1441813161
 30
0.0
 11
198.8721444874
 21
181.2070315512
 31
0.0
  0
LINE
  5
190
330
1F
100
AcDbEntity
  8
0
  6
HIDDEN
 62
     7
370
     0
100
AcDbLine
 10
182.8721444874
 20
181.2070315512
 30
0.0
 11
182.8721444874
 21
169.1441813161
 31
0.0
  0
LINE
  5
191
330
1F
100
AcDbEntity
  8
0
  6
HIDDEN
 62
     7
370
     0
100
AcDbLine
 10
182.8721444874
 20
169.1441813161
 30
0.0
 11
183.8592942523
 21
168.1570315512
 31
0.0
  0
LINE
  5
192
330
1F
100
AcDbEntity
  8
0
  6
HIDDEN
 62
     7
370
     0
100
AcDbLine
 10
197.8849947225
 20
168.1570315512
 30
0.0
 11
198.8721444874
 21
169.1441813161
 31
0.0
  0
LINE
  5
193
330
1F
100
AcDbEntity
  8
0
  6
HIDDEN
 62
     7
370
     0
100
AcDbLine
 10
183.8592942523
 20
168.1570315512
 30
0.0
 11
185.5774278878
 21
160.4070315512
 31
0.0
  0
LINE
  5
194
330
1F
100
AcDbEntity
  8
0
  6
HIDDEN
 62
     7
370
     0
100
AcDbLine
 10
196.1668610871
 20
160.4070315512
 30
0.0
 11
197.8849947225
 21
168.1570315512
 31
0.0
  0
LINE
  5
195
330
1F
100
AcDbEntity
  8
0
  6
HIDDEN
 62
     7
370
     0
100
AcDbLine
 10
185.5774278878
 20
160.4070315512
 30
0.0
 11
185.9774278878
 21
160.0070315512
 31
0.0
  0
LINE
  5
196
330
1F
100
AcDbEntity
  8
0
  6
HIDDEN
 62
     7
370
     0
100
AcDbLine
 10
195.7668610871
 20
160.0070315512
 30
0.0
 11
196.1668610871
 21
160.4070315512
 31
0.0
  0
LINE
  5
197
330
1F
100
AcDbEntity
  8
0
  6
HIDDEN
 62
     7
370
     0
100
AcDbLine
 10
186.1221444874
 20
182.0070315512
 30
0.0
 11
186.8721444874
 21
181.2570315512
 31
0.0
  0
LINE
  5
198
330
1F
100
AcDbEntity
  8
0
  6
HIDDEN
 62
     7
370
     0
100
AcDbLine
 10
194.8721444874
 20
181.2570315512
 30
0.0
 11
195.6221444874
 21
182.0070315512
 31
0.0
  0
LINE
  5
199
330
1F
100
AcDbEntity
  8
0
  6
HIDDEN
 62
     7
370
     0
100
AcDbLine
 10
194.8721444874
 20
172.0070315512
 30
0.0
 11
194.8721444874
 21
173.0070315512
 31
0.0
  0
LINE
  5
19A
330
1F
100
AcDbEntity
  8
0
  6
HIDDEN
 62
     7
370
     0
100
AcDbLine
 10
186.8721444874
 20
173.0070315512
 30
0.0
 11
186.8721444874
 21
172.0070315512
 31
0.0
  0
LINE
  5
19B
330
1F
100
AcDbEntity
  8
0
  6
HIDDEN
 62
     7
370
     0
100
AcDbLine
 10
186.8721444874
 20
172.0070315512
 30
0.0
 11
190.8721444874
 21
170.5511506142
 31
0.0
  0
LINE
  5
19C
330
1F
100
AcDbEntity
  8
0
  6
HIDDEN
 62
     7
370
     0
100
AcDbLine
 10
190.8721444874
 20
170.5511506142
 30
0.0
 11
194.8721444874
 21
172.0070315512
 31
0.0
  0
LINE
  5
19D
330
1F
100
AcDbEntity
  8
0
  6
HIDDEN
 62
     7
370
     0
100
AcDbLine
 10
210.4221444874
 20
176.5070315512
 30
0.0
 11
209.6721444874
 21
174.8986513608
 31
0.0
  0
LINE
  5
19E
330
1F
100
AcDbEntity
  8
0
  6
HIDDEN
 62
     7
370
     0
100
AcDbLine
 10
209.6721444874
 20
117.1154117416
 30
0.0
 11
210.4221444874
 21
115.5070315512
 31
0.0
  0
LINE
  5
19F
330
1F
100
AcDbEntity
  8
0
  6
HIDDEN
 62
     7
370
     0
100
AcDbLine
 10
205.3721444874
 20
166.873056955
 30
0.0
 11
203.8721444874
 21
166.0070315512
 31
0.0
  0
LINE
  5
1A0
330
1F
100
AcDbEntity
  8
0
  6
HIDDEN
 62
     7
370
     0
100
AcDbLine
 10
203.8721444874
 20
126.0070315512
 30
0.0
 11
205.3721444874
 21
125.1410061474
 31
0.0
  0
LINE
  5
1A1
330
1F
100
AcDbEntity
  8
0
  6
HIDDEN
 62
     7
370
     0
100
AcDbLine
 10
170.0221444874
 20
125.7070315512
 30
0.0
 11
170.7235377466
 21
125.7070315512
 31
0.0
  0
LINE
  5
1A2
330
1F
100
AcDbEntity
  8
0
  6
HIDDEN
 62
     7
370
     0
100
AcDbLine
 10
170.7235377466
 20
166.3070315512
 30
0.0
 11
170.0221444874
 21
166.3070315512
 31
0.0
  0
ARC
  5
1A3
330
1F
100
AcDbEntity
  8
0
  6
HIDDEN
 62
     7
370
     0
100
AcDbCircle
 10
170.7235377466
 20
126.3070315512
 30
0.0
 40
0.6000000000000208
100
AcDbArc
 50
270.0
 51
285.0
  0
ARC
  5
1A4
330
1F
100
AcDbEntity
  8
0
  6
HIDDEN
 62
     7
370
     0
100
AcDbCircle
 10
170.7235377466
 20
165.7070315512
 30
0.0
 40
0.6000000000000227
100
AcDbArc
 50
75.0
 51
90.0
  0
ARC
  5
1A5
330
1F
100
AcDbEntity
  8
0
  6
HIDDEN
 62
     7
370
     0
100
AcDbCircle
 10
170.0221444874
 20
126.3070315512
 30
0.0
 40
0.6000000000000085
100
AcDbArc
 50
180.0
 51
270.0
  0
ARC
  5
1A6
330
1F
100
AcDbEntity
  8
0
  6
HIDDEN
 62
     7
370
     0
100
AcDbCircle
 10
170.0221444874
 20
165.7070315512
 30
0.0
 40
0.6000000000000227
100
AcDbArc
 50
90.0
 51
180.0
  0
LINE
  5
1A7
330
1F
100
AcDbEntity
  8
0
  6
HIDDEN
 62
     7
370
     0
100
AcDbLine
 10
170.8788291737
 20
125.7274760555
 30
0.0
 11
171.9221444874
 21
126.0070315512
 31
0.0
  0
LINE
  5
1A8
330
1F
100
AcDbEntity
  8
0
  6
HIDDEN
 62
     7
370
     0
100
AcDbLine
 10
171.9221444874
 20
166.0070315512
 30
0.0
 11
170.8788291737
 21
166.286587047
 31
0.0
  0
LINE
  5
1A9
330
1F
100
AcDbEntity
  8
0
  6
HIDDEN
 62
     7
370
     0
100
AcDbLine
 10
171.9221444874
 20
126.0070315512
 30
0.0
 11
203.8721444874
 21
126.0070315512
 31
0.0
  0
LINE
  5
1AA
330
1F
100
AcDbEntity
  8
0
  6
HIDDEN
 62
     7
370
     0
100
AcDbLine
 10
183.6449883648
 20
166.0070315512
 30
0.0
 11
171.9221444874
 21
166.0070315512
 31
0.0
  0
LINE
  5
1AB
330
1F
100
AcDbEntity
  8
0
  6
HIDDEN
 62
     7
370
     0
100
AcDbLine
 10
203.8721444874
 20
166.0070315512
 30
0.0
 11
198.0960395463
 21
166.0070315512
 31
0.0
  0
LINE
  5
1AC
330
1F
100
AcDbEntity
  8
0
  6
HIDDEN
 62
     7
370
     0
100
AcDbLine
 10
209.6721444874
 20
169.7570315512
 30
0.0
 11
205.3721444874
 21
169.7570315512
 31
0.0
  0
LINE
  5
1AD
330
1F
100
AcDbEntity
  8
0
  6
HIDDEN
 62
     7
370
     0
100
AcDbLine
 10
205.3721444874
 20
122.2570315512
 30
0.0
 11
209.6721444874
 21
122.2570315512
 31
0.0
  0
LINE
  5
1AE
330
1F
100
AcDbEntity
  8
0
  6
HIDDEN
 62
     7
370
     0
100
AcDbLine
 10
180.8721444874
 20
182.0070315512
 30
0.0
 11
183.6221444874
 21
179.2570315512
 31
0.0
  0
LINE
  5
1AF
330
1F
100
AcDbEntity
  8
0
  6
HIDDEN
 62
     7
370
     0
100
AcDbLine
 10
198.1221444874
 20
179.2570315512
 30
0.0
 11
200.8721444874
 21
182.0070315512
 31
0.0
  0
ARC
  5
1B0
330
1F
100
AcDbEntity
  8
0
  6
HIDDEN
 62
     7
370
     0
100
AcDbCircle
 10
63.8721444874
 20
136.7070315512
 30
0.0
 40
0.8000000000000114
100
AcDbArc
 50
90.0
 51
180.0
  0
ARC
  5
1B1
330
1F
100
AcDbEntity
  8
0
  6
HIDDEN
 62
     7
370
     0
100
AcDbCircle
 10
63.8721444874
 20
155.3070315512
 30
0.0
 40
0.8000000000000114
100
AcDbArc
 50
180.0
 51
270.0
  0
LINE
  5
1B2
330
1F
100
AcDbEntity
  8
0
  6
HIDDEN
 62
     7
370
     0
100
AcDbLine
 10
70.9645169182
 20
137.2820315512
 30
0.0
 11
71.8412043798
 21
137.2820315512
 31
0.0
  0
LINE
  5
1B3
330
1F
100
AcDbEntity
  8
0
  6
HIDDEN
 62
     7
370
     0
100
AcDbLine
 10
71.8412043798
 20
154.7320315512
 30
0.0
 11
70.9645169182
 21
154.7320315512
 31
0.0
  0
ARC
  5
1B4
330
1F
100
AcDbEntity
  8
0
  6
HIDDEN
 62
     7
370
     0
100
AcDbCircle
 10
71.8412043798
 20
137.6820315512
 30
0.0
 40
0.4000000000000173
100
AcDbArc
 50
270.0
 51
330.0
  0
ARC
  5
1B5
330
1F
100
AcDbEntity
  8
0
  6
HIDDEN
 62
     7
370
     0
100
AcDbCircle
 10
71.8412043798
 20
154.3320315512
 30
0.0
 40
0.4000000000000315
100
AcDbArc
 50
30.0
 51
90.0
  0
ARC
  5
1B6
330
1F
100
AcDbEntity
  8
0
  6
HIDDEN
 62
     7
370
     0
100
AcDbCircle
 10
70.9645169182
 20
137.6820315512
 30
0.0
 40
0.3999999999999773
100
AcDbArc
 50
255.0
 51
270.0
  0
ARC
  5
1B7
330
1F
100
AcDbEntity
  8
0
  6
HIDDEN
 62
     7
370
     0
100
AcDbCircle
 10
70.9645169182
 20
154.3320315512
 30
0.0
 40
0.3999999999999986
100
AcDbArc
 50
90.0
 51
105.0
  0
LINE
  5
1B8
330
1F
100
AcDbEntity
  8
0
  6
HIDDEN
 62
     7
370
     0
100
AcDbLine
 10
70.8609893001
 20
154.7184018817
 30
0.0
 11
70.0721444874
 21
154.5070315512
 31
0.0
  0
LINE
  5
1B9
330
1F
100
AcDbEntity
  8
0
  6
HIDDEN
 62
     7
370
     0
100
AcDbLine
 10
70.0721444874
 20
137.5070315512
 30
0.0
 11
70.8609893001
 21
137.2956612207
 31
0.0
  0
LINE
  5
1BA
330
1F
100
AcDbEntity
  8
0
  6
HIDDEN
 62
     7
370
     0
100
AcDbLine
 10
72.1876145413
 20
137.4820315512
 30
0.0
 11
73.0680737018
 21
139.0070315512
 31
0.0
  0
LINE
  5
1BB
330
1F
100
AcDbEntity
  8
0
  6
HIDDEN
 62
     7
370
     0
100
AcDbLine
 10
73.0680737018
 20
153.0070315512
 30
0.0
 11
72.1876145413
 21
154.5320315512
 31
0.0
  0
LINE
  5
1BC
330
1F
100
AcDbEntity
  8
0
  6
HIDDEN
 62
     7
370
     0
100
AcDbLine
 10
63.8721444874
 20
137.5070315512
 30
0.0
 11
70.0721444874
 21
137.5070315512
 31
0.0
  0
LINE
  5
1BD
330
1F
100
AcDbEntity
  8
0
  6
HIDDEN
 62
     7
370
     0
100
AcDbLine
 10
70.0721444874
 20
154.5070315512
 30
0.0
 11
63.8721444874
 21
154.5070315512
 31
0.0
  0
LINE
  5
1BE
330
1F
100
AcDbEntity
  8
0
  6
HIDDEN
 62
     7
370
     0
100
AcDbLine
 10
183.6221444874
 20
179.2570315512
 30
0.0
 11
183.6221444874
 21
165.9987635578
 31
0.0
  0
LINE
  5
1BF
330
1F
100
AcDbEntity
  8
0
  6
HIDDEN
 62
     7
370
     0
100
AcDbLine
 10
198.1221444874
 20
165.9975833175
 30
0.0
 11
198.1221444874
 21
179.2570315512
 31
0.0
  0
LINE
  5
1C0
330
1F
100
AcDbEntity
  8
0
  6
HIDDEN
 62
     7
370
     0
100
AcDbLine
 10
73.0680737018
 20
139.0070315512
 30
0.0
 11
106.0721444874
 21
139.0070315512
 31
0.0
  0
LINE
  5
1C1
330
1F
100
AcDbEntity
  8
0
  6
HIDDEN
 62
     7
370
     0
100
AcDbLine
 10
106.0721444874
 20
153.0070315512
 30
0.0
 11
73.0680737018
 21
153.0070315512
 31
0.0
  0
LINE
  5
1C2
330
1F
100
AcDbEntity
  8
0
  6
HIDDEN
 62
     7
370
     0
100
AcDbLine
 10
106.0721444874
 20
139.0070315512
 30
0.0
 11
107.7245111898
 21
141.7570315512
 31
0.0
  0
LINE
  5
1C3
330
1F
100
AcDbEntity
  8
0
  6
HIDDEN
 62
     7
370
     0
100
AcDbLine
 10
107.7245111898
 20
150.2570315512
 30
0.0
 11
106.0721444874
 21
153.0070315512
 31
0.0
  0
LINE
  5
1C4
330
1F
100
AcDbEntity
  8
0
  6
HIDDEN
 62
     7
370
     0
100
AcDbLine
 10
107.7245111898
 20
141.7570315512
 30
0.0
 11
169.4221444874
 21
141.7570315512
 31
0.0
  0
LINE
  5
1C5
330
1F
100
AcDbEntity
  8
0
  6
HIDDEN
 62
     7
370
     0
100
AcDbLine
 10
169.4221444874
 20
150.2570315512
 30
0.0
 11
107.7245111898
 21
150.2570315512
 31
0.0
  0
LINE
  5
1C6
330
1F
100
AcDbEntity
  8
0
  6
HIDDEN
 62
     7
370
     0
100
AcDbLine
 10
172.3843223139
 20
181.5070315512
 30
0.0
 11
172.3843223139
 21
110.5070315512
 31
0.0
  0
LINE
  5
1C7
330
1F
100
AcDbEntity
  8
0
  6
HIDDEN
 62
     7
370
     0
100
AcDbLine
 10
173.2503477177
 20
146.0070315512
 30
0.0
 11
173.2503477177
 21
182.0070315512
 31
0.0
  0
LINE
  5
1C8
330
1F
100
AcDbEntity
  8
0
  6
HIDDEN
 62
     7
370
     0
100
AcDbLine
 10
166.610819622
 20
146.0070315512
 30
0.0
 11
166.610819622
 21
171.5070315512
 31
0.0
  0
LINE
  5
1C9
330
1F
100
AcDbEntity
  8
0
  6
HIDDEN
 62
     7
370
     0
100
AcDbLine
 10
149.7721444874
 20
137.1732336283
 30
0.0
 11
149.7721444874
 21
114.2570315512
 31
0.0
  0
LINE
  5
1CA
330
1F
100
AcDbEntity
  8
0
  6
HIDDEN
 62
     7
370
     0
100
AcDbLine
 10
135.1221444874
 20
137.1732336283
 30
0.0
 11
135.1221444874
 21
114.2570315512
 31
0.0
  0
LINE
  5
1CB
330
1F
100
AcDbEntity
  8
0
  6
HIDDEN
 62
     7
370
     0
100
AcDbLine
 10
141.3121444874
 20
137.9570315512
 30
0.0
 11
141.3121444874
 21
118.0070315512
 31
0.0
  0
LINE
  5
1CC
330
1F
100
AcDbEntity
  8
0
  6
HIDDEN
 62
     7
370
     0
100
AcDbLine
 10
143.5321444874
 20
137.9570315512
 30
0.0
 11
143.5321444874
 21
118.0070315512
 31
0.0
  0
LINE
  5
1CD
330
1F
100
AcDbEntity
  8
0
  6
HIDDEN
 62
     7
370
     0
100
AcDbLine
 10
165.7447942182
 20
171.0070315512
 30
0.0
 11
165.7447942182
 21
121.0070315512
 31
0.0
  0
LINE
  5
1CE
330
1F
100
AcDbEntity
  8
0
  6
HIDDEN
 62
     7
370
     0
100
AcDbLine
 10
151.3721444874
 20
142.8510847836
 30
0.0
 11
151.3721444874
 21
121.0070315512
 31
0.0
  0
LINE
  5
1CF
330
1F
100
AcDbEntity
  8
0
  6
HIDDEN
 62
     7
370
     0
100
AcDbLine
 10
133.9221444874
 20
168.2320315512
 30
0.0
 11
133.9221444874
 21
123.7820315512
 31
0.0
  0
LINE
  5
1D0
330
1F
100
AcDbEntity
  8
0
  6
HIDDEN
 62
     7
370
     0
100
AcDbLine
 10
63.9278375944
 20
158.4036951293
 30
0.0
 11
63.9278375944
 21
133.6103679731
 31
0.0
  0
LINE
  5
1D1
330
1F
100
AcDbEntity
  8
0
  6
HIDDEN
 62
     7
370
     0
100
AcDbLine
 10
170.0221444874
 20
125.7070315512
 30
0.0
 11
170.0221444874
 21
166.2840385366
 31
0.0
  0
LINE
  5
1D2
330
1F
100
AcDbEntity
  8
0
  6
HIDDEN
 62
     7
370
     0
100
AcDbLine
 10
170.7235377466
 20
125.7070315512
 30
0.0
 11
170.7235377466
 21
166.2840385366
 31
0.0
  0
LINE
  5
1D3
330
1F
100
AcDbEntity
  8
0
  6
HIDDEN
 62
     7
370
     0
100
AcDbLine
 10
170.8788291737
 20
125.7274760555
 30
0.0
 11
170.8788291737
 21
166.2636171891
 31
0.0
  0
LINE
  5
1D4
330
1F
100
AcDbEntity
  8
0
  6
HIDDEN
 62
     7
370
     0
100
AcDbLine
 10
63.8721444874
 20
137.5070315512
 30
0.0
 11
63.8721444874
 21
154.5013607624
 31
0.0
  0
LINE
  5
1D5
330
1F
100
AcDbEntity
  8
0
  6
HIDDEN
 62
     7
370
     0
100
AcDbLine
 10
70.9645169182
 20
137.2820315512
 30
0.0
 11
70.9645169182
 21
154.7262106533
 31
0.0
  0
LINE
  5
1D6
330
1F
100
AcDbEntity
  8
0
  6
HIDDEN
 62
     7
370
     0
100
AcDbLine
 10
71.8412043798
 20
137.2820315512
 30
0.0
 11
71.8412043798
 21
154.7262106533
 31
0.0
  0
LINE
  5
1D7
330
1F
100
AcDbEntity
  8
0
  6
HIDDEN
 62
     7
370
     0
100
AcDbLine
 10
72.1876145413
 20
137.4820315512
 30
0.0
 11
72.1876145413
 21
154.5263440836
 31
0.0
  0
LINE
  5
1D8
330
1F
100
AcDbEntity
  8
0
  6
HIDDEN
 62
     7
370
     0
100
AcDbLine
 10
70.8609893001
 20
137.2956612207
 30
0.0
 11
70.8609893001
 21
154.7125900768
 31
0.0
  0
LINE
  5
1D9
330
1F
100
AcDbEntity
  8
0
  6
HIDDEN
 62
     7
370
     0
100
AcDbLine
 10
143.5321444874
 20
164.3570315512
 30
0.0
 11
143.5321444874
 21
154.0570315512
 31
0.0
  0
LINE
  5
1DA
330
1F
100
AcDbEntity
  8
0
  6
HIDDEN
 62
     7
370
     0
100
AcDbLine
 10
141.3121444874
 20
164.3570315512
 30
0.0
 11
141.3121444874
 21
154.0570315512
 31
0.0
  0
LINE
  5
1DB
330
1F
100
AcDbEntity
  8
0
  6
HIDDEN
 62
     7
370
     0
100
AcDbLine
 10
134.8594027876
 20
152.4570315512
 30
0.0
 11
150.4451048779
 21
152.4570315512
 31
0.0
  0
LINE
  5
1DC
330
1F
100
AcDbEntity
  8
0
  6
HIDDEN
 62
     7
370
     0
100
AcDbLine
 10
134.8594027876
 20
139.5570315512
 30
0.0
 11
134.5221444874
 21
139.219773251
 31
0.0
  0
LINE
  5
1DD
330
1F
100
AcDbEntity
  8
0
  6
HIDDEN
 62
     7
370
     0
100
AcDbLine
 10
150.4451048779
 20
139.5570315512
 30
0.0
 11
134.8594027876
 21
139.5570315512
 31
0.0
  0
LINE
  5
1DE
330
1F
100
AcDbEntity
  8
0
  6
HIDDEN
 62
     7
370
     0
100
AcDbLine
 10
134.5221444874
 20
152.7942898514
 30
0.0
 11
134.8594027876
 21
152.4570315512
 31
0.0
  0
LINE
  5
1DF
330
1F
100
AcDbEntity
  8
0
  6
HIDDEN
 62
     7
370
     0
100
AcDbLine
 10
135.1221444874
 20
164.3570315512
 30
0.0
 11
135.1221444874
 21
154.8408294742
 31
0.0
  0
LINE
  5
1E0
330
1F
100
AcDbEntity
  8
0
  6
HIDDEN
 62
     7
370
     0
100
AcDbLine
 10
149.7721444874
 20
164.3570315512
 30
0.0
 11
149.7721444874
 21
154.8408294742
 31
0.0
  0
DIMENSION
  5
1E1
330
1F
100
AcDbEntity
  8
VERMASSUNG
100
AcDbDimension
  2
_D
 10
57.8221105209
 20
114.2570315512
 30
0.0
 11
57.8221105209
 21
146.4316543094
 31
0.0
 70
   160
  1
%%c<>
 71
     2
 42
-1.0
  3
SLDDIMSTYLE0
100
AcDbAlignedDimension
 13
135.1221444874
 23
177.7570315512
 33
0.0
 14
135.1221444874
 24
114.2570315512
 34
0.0
 50
90.0
100
AcDbRotatedDimension
  0
DIMENSION
  5
1ED
330
1F
100
AcDbEntity
  8
VERMASSUNG
100
AcDbDimension
  2
_D_1
 10
220.3344785702
 20
110.0070315512
 30
0.0
 11
220.3344785702
 21
145.3334601046
 31
0.0
 70
   160
  1
MBM %%c<>
 71
     2
 42
-1.0
  3
SLDDIMSTYLE0
100
AcDbAlignedDimension
 13
209.7221444874
 23
182.0070315512
 33
0.0
 14
209.7221444874
 24
110.0070315512
 34
0.0
 50
90.0
100
AcDbRotatedDimension
  0
DIMENSION
  5
1F9
330
1F
100
AcDbEntity
  8
VERMASSUNG
100
AcDbDimension
  2
_D_2
 10
131.3221444874
 20
194.1624396503
 30
0.0
 11
172.1840115158
 21
194.1624396503
 31
0.0
 70
   160
  1
<>
 71
     2
 42
-1.0
  3
SLDDIMSTYLE0
100
AcDbAlignedDimension
 13
210.4221444874
 23
181.3070315512
 33
0.0
 14
131.3221444874
 24
168.2320315512
 34
0.0
100
AcDbRotatedDimension
  0
DIMENSION
  5
203
330
1F
100
AcDbEntity
  8
VERMASSUNG
100
AcDbDimension
  2
_D_3
 10
63.0721444874
 20
200.1624396503
 30
0.0
 11
142.5915288268
 21
200.1624396503
 31
0.0
 70
   160
  1
<>
 71
     2
 42
-1.0
  3
SLDDIMSTYLE0
100
AcDbAlignedDimension
 13
210.4221444874
 23
181.3070315512
 33
0.0
 14
63.0721444874
 24
157.4141621483
 34
0.0
100
AcDbRotatedDimension
  0
INSERT
  5
212
330
1F
100
AcDbEntity
  8
VERMASSUNG
100
AcDbBlockReference
  2
SW_NOTE_0
 10
109.7453476983
 20
122.2543452183
 30
0.0
  0
LEADER
  5
21C
330
1F
100
AcDbEntity
  8
VERMASSUNG
100
AcDbLeader
  3
SLDDIMSTYLE1
 76
     2
 10
114.1604267606
 20
131.8974189321
 30
0.0
 10
109.7453476983
 20
122.2543452183
 30
0.0
  0
INSERT
  5
222
330
1F
100
AcDbEntity
  8
VERMASSUNG
100
AcDbBlockReference
  2
SW_NOTE_1
 10
198.5798237023
 20
188.3117531832
 30
0.0
  0
LEADER
  5
223
330
1F
100
AcDbEntity
  8
VERMASSUNG
100
AcDbLeader
  3
SLDDIMSTYLE1
 76
     2
 10
194.8641502166
 20
179.8562804433
 30
0.0
 10
198.5798237023
 20
188.3117531832
 30
0.0
  0
LINE
  5
224
330
1F
100
AcDbEntity
  8
VERMASSUNG
  6
CENTERX2
 62
     7
370
     0
100
AcDbLine
 10
190.8721444874
 20
158.0070315512
 30
0.0
 11
190.8721444874
 21
184.3368926307
 31
0.0
  0
LINE
  5
225
330
1F
100
AcDbEntity
  8
VERMASSUNG
  6
CENTERX2
 62
     7
370
     0
100
AcDbLine
 10
61.0721444874
 20
146.0070315512
 30
0.0
 11
212.7366337934
 21
146.0070315512
 31
0.0
  0
LINE
  5
226
330
1F
100
AcDbEntity
  8
0
  6
Continuous
 62
     7
370
    15
100
AcDbLine
 10
209.7221444874
 20
32.7093583581
 30
0.0
 11
210.4221444874
 21
33.4093583581
 31
0.0
  0
LINE
  5
227
330
1F
100
AcDbEntity
  8
0
  6
Continuous
 62
     7
370
    15
100
AcDbLine
 10
210.4221444874
 20
104.0093583581
 30
0.0
 11
209.7221444874
 21
104.7093583581
 31
0.0
  0
LINE
  5
228
330
1F
100
AcDbEntity
  8
0
  6
Continuous
 62
     7
370
    15
100
AcDbLine
 10
173.2503477177
 20
32.7093583581
 30
0.0
 11
209.7221444874
 21
32.7093583581
 31
0.0
  0
LINE
  5
229
330
1F
100
AcDbEntity
  8
0
  6
Continuous
 62
     7
370
    15
100
AcDbLine
 10
209.7221444874
 20
104.7093583581
 30
0.0
 11
173.2503477177
 21
104.7093583581
 31
0.0
  0
ARC
  5
22A
330
1F
100
AcDbEntity
  8
0
  6
Continuous
 62
     7
370
    15
100
AcDbCircle
 10
173.2503477177
 20
103.7093583581
 30
0.0
 40
1.000000000000008
100
AcDbArc
 50
90.0
 51
150.0
  0
ARC
  5
22B
330
1F
100
AcDbEntity
  8
0
  6
Continuous
 62
     7
370
    15
100
AcDbCircle
 10
173.2503477177
 20
33.7093583581
 30
0.0
 40
1.000000000000008
100
AcDbArc
 50
210.0
 51
270.0
  0
LINE
  5
22C
330
1F
100
AcDbEntity
  8
0
  6
Continuous
 62
     7
370
    15
100
AcDbLine
 10
172.3843223139
 20
104.2093583581
 30
0.0
 11
166.610819622
 21
94.2093583581
 31
0.0
  0
LINE
  5
22D
330
1F
100
AcDbEntity
  8
0
  6
Continuous
 62
     7
370
    15
100
AcDbLine
 10
166.610819622
 20
43.2093583581
 30
0.0
 11
172.3843223139
 21
33.2093583581
 31
0.0
  0
ARC
  5
22E
330
1F
100
AcDbEntity
  8
0
  6
Continuous
 62
     7
370
    15
100
AcDbCircle
 10
165.7447942182
 20
42.7093583581
 30
0.0
 40
1.000000000000001
100
AcDbArc
 50
30.0
 51
90.0
  0
ARC
  5
22F
330
1F
100
AcDbEntity
  8
0
  6
Continuous
 62
     7
370
    15
100
AcDbCircle
 10
165.7447942182
 20
94.7093583581
 30
0.0
 40
1.0
100
AcDbArc
 50
270.0
 51
330.0
  0
LINE
  5
230
330
1F
100
AcDbEntity
  8
0
  6
Continuous
 62
     7
370
    15
100
AcDbLine
 10
158.3981483118
 20
43.7093583581
 30
0.0
 11
165.7447942182
 21
43.7093583581
 31
0.0
  0
LINE
  5
231
330
1F
100
AcDbEntity
  8
0
  6
Continuous
 62
     7
370
    15
100
AcDbLine
 10
165.7447942182
 20
93.7093583581
 30
0.0
 11
158.3963829575
 21
93.7093583581
 31
0.0
  0
ARC
  5
232
330
1F
100
AcDbEntity
  8
0
  6
Continuous
 62
     7
370
    15
100
AcDbCircle
 10
133.9221444874
 20
45.8843583581
 30
0.0
 40
0.5999999999999943
100
AcDbArc
 50
0.0
 51
90.0
  0
ARC
  5
233
330
1F
100
AcDbEntity
  8
0
  6
Continuous
 62
     7
370
    15
100
AcDbCircle
 10
133.9221444874
 20
91.5343583581
 30
0.0
 40
0.5999999999999943
100
AcDbArc
 50
270.0
 51
0.0
  0
LINE
  5
234
330
1F
100
AcDbEntity
  8
0
  6
Continuous
 62
     7
370
    15
100
AcDbLine
 10
131.3221444874
 20
90.9343583581
 30
0.0
 11
63.9278375944
 21
81.1060219362
 31
0.0
  0
LINE
  5
235
330
1F
100
AcDbEntity
  8
0
  6
Continuous
 62
     7
370
    15
100
AcDbLine
 10
63.9278375944
 20
56.31269478
 30
0.0
 11
131.3221444874
 21
46.4843583581
 31
0.0
  0
LINE
  5
236
330
1F
100
AcDbEntity
  8
0
  6
Continuous
 62
     7
370
    15
100
AcDbLine
 10
131.3221444874
 20
46.4843583581
 30
0.0
 11
133.9221444874
 21
46.4843583581
 31
0.0
  0
LINE
  5
237
330
1F
100
AcDbEntity
  8
0
  6
Continuous
 62
     7
370
    15
100
AcDbLine
 10
133.9221444874
 20
90.9343583581
 30
0.0
 11
131.3221444874
 21
90.9343583581
 31
0.0
  0
ARC
  5
238
330
1F
100
AcDbEntity
  8
0
  6
Continuous
 62
     7
370
    15
100
AcDbCircle
 10
64.0721444874
 20
57.3022277611
 30
0.0
 40
0.9999999999999949
100
AcDbArc
 50
180.0
 51
261.7028550302
  0
ARC
  5
239
330
1F
100
AcDbEntity
  8
0
  6
Continuous
 62
     7
370
    15
100
AcDbCircle
 10
64.0721444874
 20
80.1164889551
 30
0.0
 40
0.9999999999999949
100
AcDbArc
 50
98.2971449698
 51
180.0
  0
SPLINE
  5
23A
330
1F
100
AcDbEntity
  8
0
  6
Continuous
 62
     7
370
    15
100
AcDbSpline
210
0.0
220
0.0
230
1.0
 70
    24
 71
     3
 72
    12
 73
     8
 74
     0
 42
0.000000001
 43
0.00000001
 40
0.0
 40
0.0
 40
0.0
 40
0.0
 40
0.1302871472855376
 40
0.3034380513989821
 40
0.481779763682161
 40
0.81553411352904
 40
1.0
 40
1.0
 40
1.0
 40
1.0
 10
194.8641502165574
 20
71.03255090113007
 30
0.0
 10
194.8648026289998
 20
70.84351848251005
 30
0.0
 10
194.8663220939996
 20
70.40326301639274
 30
0.0
 10
194.8688750529366
 20
69.66355915560014
 30
0.0
 10
194.8726592326238
 20
68.56711679449921
 30
0.0
 10
194.8765613280763
 20
67.4365090789887
 30
0.0
 10
194.8791644896767
 20
66.68225931091018
 30
0.0
 10
194.8800911121407
 20
66.41377625614234
 30
0.0
  0
SPLINE
  5
23B
330
1F
100
AcDbEntity
  8
0
  6
Continuous
 62
     7
370
    15
100
AcDbSpline
210
0.0
220
0.0
230
1.0
 70
    24
 71
     3
 72
    12
 73
     8
 74
     0
 42
0.000000001
 43
0.00000001
 40
0.0
 40
0.0
 40
0.0
 40
0.0
 40
0.1844644904503193
 40
0.5182163144753781
 40
0.6908969080647737
 40
0.8697138387154532
 40
1.0
 40
1.0
 40
1.0
 40
1.0
 10
186.880138758311
 20
66.38616581507404
 30
0.0
 10
186.8792121432126
 20
66.65464673573288
 30
0.0
 10
186.8766090023041
 20
67.40889050845652
 30
0.0
 10
186.8727384078425
 20
68.53037100918053
 30
0.0
 10
186.8689540802583
 20
69.6268562225037
 30
0.0
 10
186.8663980602606
 20
70.36744700646435
 30
0.0
 10
186.8648502575884
 20
70.81591313564584
 30
0.0
 10
186.8641978627278
 20
71.00494046006175
 30
0.0
  0
SPLINE
  5
23C
330
1F
100
AcDbEntity
  8
0
  6
Continuous
 62
     7
370
    15
100
AcDbSpline
210
0.0
220
0.0
230
1.0
 70
    24
 71
     3
 72
    11
 73
     7
 74
     0
 42
0.000000001
 43
0.00000001
 40
0.0
 40
0.0
 40
0.0
 40
0.0
 40
0.2164567244934128
 40
0.4403141600939093
 40
0.7519028444798553
 40
0.9999999999999999
 40
0.9999999999999999
 40
0.9999999999999999
 40
0.9999999999999999
 10
190.8880853830174
 20
64.09058371311433
 30
0.0
 10
190.6135354148508
 20
64.24783430850195
 30
0.0
 10
190.0550485444613
 20
64.56771193759576
 30
0.0
 10
189.0186490610369
 20
65.1613176732519
 30
0.0
 10
187.906931452585
 20
65.79806244142416
 30
0.0
 10
187.1955011120627
 20
66.20553961350693
 30
0.0
 10
186.880138758311
 20
66.38616581507404
 30
0.0
  0
SPLINE
  5
23D
330
1F
100
AcDbEntity
  8
0
  6
Continuous
 62
     7
370
    15
100
AcDbSpline
210
0.0
220
0.0
230
1.0
 70
    24
 71
     3
 72
    11
 73
     7
 74
     0
 42
0.000000001
 43
0.00000001
 40
0.0
 40
0.0
 40
0.0
 40
0.0
 40
0.2164567244934143
 40
0.440314160093912
 40
0.7519028444798549
 40
1.0
 40
1.0
 40
1.0
 40
1.0
 10
194.8800911121406
 20
66.41377625614234
 30
0.0
 10
194.6066331176914
 20
66.25463430679565
 30
0.0
 10
194.0503675295991
 20
65.93090930390518
 30
0.0
 10
193.0180901409765
 20
65.33016389061865
 30
0.0
 10
191.9107941917866
 20
64.68576058395098
 30
0.0
 10
191.2021934390395
 20
64.27338242207706
 30
0.0
 10
190.8880853830174
 20
64.09058371311433
 30
0.0
  0
CIRCLE
  5
23E
330
1F
100
AcDbEntity
  8
0
  6
Continuous
 62
     7
370
    15
100
AcDbCircle
 10
190.8721444874
 20
68.7093583581
 30
0.0
 40
4.749999999999993
  0
SPLINE
  5
23F
330
1F
100
AcDbEntity
  8
0
  6
Continuous
 62
     7
370
    15
100
AcDbSpline
210
0.0
220
0.0
230
1.0
 70
    24
 71
     3
 72
    11
 73
     7
 74
     0
 42
0.000000001
 43
0.00000001
 40
0.0
 40
0.0
 40
0.0
 40
0.0
 40
0.2164567244934105
 40
0.4403141600939102
 40
0.7519028444798541
 40
1.0
 40
1.0
 40
1.0
 40
1.0
 10
186.8641978627278
 20
71.00494046006175
 30
0.0
 10
187.137655857177
 20
71.16408240940842
 30
0.0
 10
187.6939214452693
 20
71.48780741229892
 30
0.0
 10
188.7261988338919
 20
72.08855282558544
 30
0.0
 10
189.8334947830818
 20
72.7329561322531
 30
0.0
 10
190.5420955358289
 20
73.14533429412704
 30
0.0
 10
190.856203591851
 20
73.32813300308976
 30
0.0
  0
SPLINE
  5
240
330
1F
100
AcDbEntity
  8
0
  6
Continuous
 62
     7
370
    15
100
AcDbSpline
210
0.0
220
0.0
230
1.0
 70
    24
 71
     3
 72
    11
 73
     7
 74
     0
 42
0.000000001
 43
0.00000001
 40
0.0
 40
0.0
 40
0.0
 40
0.0
 40
0.2164567244934116
 40
0.4403141600939103
 40
0.7519028444798563
 40
0.9999999999999999
 40
0.9999999999999999
 40
0.9999999999999999
 40
0.9999999999999999
 10
190.856203591851
 20
73.32813300308976
 30
0.0
 10
191.1307535600176
 20
73.17088240770214
 30
0.0
 10
191.6892404304071
 20
72.85100477860833
 30
0.0
 10
192.7256399138315
 20
72.2573990429522
 30
0.0
 10
193.8373575222834
 20
71.62065427477992
 30
0.0
 10
194.5487878628057
 20
71.21317710269716
 30
0.0
 10
194.8641502165574
 20
71.03255090113007
 30
0.0
  0
CIRCLE
  5
241
330
1F
100
AcDbEntity
  8
0
  6
Continuous
 62
     7
370
    15
100
AcDbCircle
 10
190.8721444874
 20
68.7093583581
 30
0.0
 40
7.200000000000007
  0
CIRCLE
  5
242
330
1F
100
AcDbEntity
  8
0
  6
Continuous
 62
     7
370
    15
100
AcDbCircle
 10
190.8721444874
 20
68.7093583581
 30
0.0
 40
8.00000000000001
  0
ARC
  5
243
330
1F
100
AcDbEntity
  8
0
  6
Continuous
 62
     7
370
    15
100
AcDbCircle
 10
190.8721444874
 20
68.7093583581
 30
0.0
 40
3.999999999999992
100
AcDbArc
 50
60.1977456105
 51
120.1977456105
  0
ARC
  5
244
330
1F
100
AcDbEntity
  8
0
  6
Continuous
 62
     7
370
    15
100
AcDbCircle
 10
190.8721444874
 20
68.7093583581
 30
0.0
 40
4.00000000000002
100
AcDbArc
 50
0.1977456105
 51
60.1977456105
  0
ARC
  5
245
330
1F
100
AcDbEntity
  8
0
  6
Continuous
 62
     7
370
    15
100
AcDbCircle
 10
190.8721444874
 20
68.7093583581
 30
0.0
 40
3.999999999999991
100
AcDbArc
 50
120.1977456105
 51
180.1977456105
  0
ARC
  5
246
330
1F
100
AcDbEntity
  8
0
  6
Continuous
 62
     7
370
    15
100
AcDbCircle
 10
190.8721444874
 20
68.7093583581
 30
0.0
 40
4.000000000000004
100
AcDbArc
 50
180.1977456105
 51
240.1977456105
  0
ARC
  5
247
330
1F
100
AcDbEntity
  8
0
  6
Continuous
 62
     7
370
    15
100
AcDbCircle
 10
190.8721444874
 20
68.7093583581
 30
0.0
 40
4.00000000000002
100
AcDbArc
 50
300.1977456105
 51
0.1977456105
  0
ARC
  5
248
330
1F
100
AcDbEntity
  8
0
  6
Continuous
 62
     7
370
    15
100
AcDbCircle
 10
190.8721444874
 20
68.7093583581
 30
0.0
 40
4.000000000000012
100
AcDbArc
 50
240.1977456105
 51
300.1977456105
  0
LINE
  5
249
330
1F
100
AcDbEntity
  8
0
  6
Continuous
 62
     7
370
    15
100
AcDbLine
 10
210.4221444874
 20
33.4093583581
 30
0.0
 11
210.4221444874
 21
104.0093583581
 31
0.0
  0
LINE
  5
24A
330
1F
100
AcDbEntity
  8
0
  6
Continuous
 62
     7
370
    15
100
AcDbLine
 10
209.7221444874
 20
32.7093583581
 30
0.0
 11
209.7221444874
 21
104.7093583581
 31
0.0
  0
SPLINE
  5
24B
330
1F
100
AcDbEntity
  8
0
  6
Continuous
 62
     7
370
    15
100
AcDbSpline
210
0.0
220
0.0
230
1.0
 70
     8
 71
     3
 72
    52
 73
    48
 74
     0
 42
0.000000001
 43
0.00000001
 40
0.0
 40
0.0
 40
0.0
 40
0.0
 40
0.0312499999999997
 40
0.0312499999999997
 40
0.0624999999999993
 40
0.0624999999999993
 40
0.1249999999999989
 40
0.1249999999999989
 40
0.1562499999999988
 40
0.1562499999999988
 40
0.1874999999999986
 40
0.1874999999999986
 40
0.2187499999999985
 40
0.2187499999999985
 40
0.2499999999999984
 40
0.2499999999999984
 40
0.3124999999999981
 40
0.3124999999999981
 40
0.3437499999999986
 40
0.3437499999999986
 40
0.3749999999999991
 40
0.3749999999999991
 40
0.4375
 40
0.4375
 40
0.4687500000000001
 40
0.4687500000000001
 40
0.5000000000000002
 40
0.5000000000000002
 40
0.5625000000000004
 40
0.5625000000000004
 40
0.5937500000000002
 40
0.5937500000000002
 40
0.625
 40
0.625
 40
0.6875000000000001
 40
0.6875000000000001
 40
0.7500000000000001
 40
0.7500000000000001
 40
0.8125000000000001
 40
0.8125000000000001
 40
0.8750000000000001
 40
0.8750000000000001
 40
0.9062500000000001
 40
0.9062500000000001
 40
0.9375000000000001
 40
0.9375000000000001
 40
1.0
 40
1.0
 40
1.0
 40
1.0
 10
200.8721444874342
 20
68.70935835810205
 30
0.0
 10
200.8721444874342
 20
68.40056959967309
 30
0.0
 10
200.8539175622919
 20
68.09218842187958
 30
0.0
 10
200.7807179380569
 20
67.47624720919379
 30
0.0
 10
200.7251546809337
 20
67.1666029158244
 30
0.0
 10
200.5062735690724
 20
66.2581793278592
 30
0.0
 10
200.2925344127908
 20
65.67879657840204
 30
0.0
 10
199.8765640589469
 20
64.84631926772978
 30
0.0
 10
199.721239200831
 20
64.57433320356324
 30
0.0
 10
199.3861158393605
 20
64.05406728870638
 30
0.0
 10
199.2056622583636
 20
63.80425380614045
 30
0.0
 10
198.8202070078984
 20
63.32414464189939
 30
0.0
 10
198.6152010308831
 20
63.09385264036531
 30
0.0
 10
198.1810241897438
 20
62.65234088863304
 30
0.0
 10
197.951576332422
 20
62.44112703284353
 30
0.0
 10
197.2411006166295
 20
61.84718666790469
 30
0.0
 10
196.7340139101704
 20
61.49925757252298
 30
0.0
 10
195.9254351803679
 20
61.04514231596477
 30
0.0
 10
195.6465274550611
 20
60.90461829414335
 30
0.0
 10
195.0807710671217
 20
60.65027691977144
 30
0.0
 10
194.7937300337065
 20
60.53617801222043
 30
0.0
 10
193.9205140887495
 20
60.23160726887728
 30
0.0
 10
193.3223442268984
 20
60.07854180695047
 30
0.0
 10
192.4007177191502
 20
59.92424777775311
 30
0.0
 10
192.0898743782943
 20
59.88567922178969
 30
0.0
 10
191.4715940934361
 20
59.83509151998756
 30
0.0
 10
191.1627263662228
 20
59.82280558214566
 30
0.0
 10
190.2369270429168
 20
59.82430170144722
 30
0.0
 10
189.6207927982638
 20
59.8761050985707
 30
0.0
 10
188.6982508240714
 20
60.03321611641686
 30
0.0
 10
188.3931351958859
 20
60.09864666907084
 30
0.0
 10
187.7944687399809
 20
60.25376636278308
 30
0.0
 10
187.4998440942771
 20
60.3436305037639
 30
0.0
 10
186.6299979822177
 20
60.65007642158017
 30
0.0
 10
186.0686630022993
 20
60.90311929844977
 30
0.0
 10
184.9856715945563
 20
61.51487218937758
 30
0.0
 10
184.4790313875568
 20
61.86539815981559
 30
0.0
 10
183.5423036799071
 20
62.65252740514472
 30
0.0
 10
183.1099873483878
 20
63.090848114147
 30
0.0
 10
182.3326841184201
 20
64.06255333860184
 30
0.0
 10
182.0007611625921
 20
64.57930132893397
 30
0.0
 10
181.5900265401166
 20
65.40246569480482
 30
0.0
 10
181.4677496202927
 20
65.68491952631172
 30
0.0
 10
181.2543266880917
 20
66.26706300819616
 30
0.0
 10
181.162909175299
 20
66.56869294719517
 30
0.0
 10
180.9453393082179
 20
67.47531796415701
 30
0.0
 10
180.8721444874342
 20
68.08807747407309
 30
0.0
 10
180.8721444874342
 20
68.70935835810205
 30
0.0
  0
SPLINE
  5
24C
330
1F
100
AcDbEntity
  8
0
  6
Continuous
 62
     7
370
    15
100
AcDbSpline
210
0.0
220
0.0
230
1.0
 70
     8
 71
     3
 72
    54
 73
    50
 74
     0
 42
0.000000001
 43
0.00000001
 40
0.0
 40
0.0
 40
0.0
 40
0.0
 40
0.0312499999999999
 40
0.0312499999999999
 40
0.0624999999999997
 40
0.0624999999999997
 40
0.0937499999999996
 40
0.0937499999999996
 40
0.1249999999999995
 40
0.1249999999999995
 40
0.1874999999999994
 40
0.1874999999999994
 40
0.2187499999999992
 40
0.2187499999999992
 40
0.2499999999999989
 40
0.2499999999999989
 40
0.3124999999999985
 40
0.3124999999999985
 40
0.3749999999999981
 40
0.3749999999999981
 40
0.4374999999999976
 40
0.4374999999999976
 40
0.4687499999999973
 40
0.4687499999999973
 40
0.4999999999999971
 40
0.4999999999999971
 40
0.5624999999999972
 40
0.5624999999999972
 40
0.5937499999999973
 40
0.5937499999999973
 40
0.6249999999999974
 40
0.6249999999999974
 40
0.687499999999999
 40
0.687499999999999
 40
0.7187499999999992
 40
0.7187499999999992
 40
0.7499999999999993
 40
0.7499999999999993
 40
0.8124999999999996
 40
0.8124999999999996
 40
0.8437499999999997
 40
0.8437499999999997
 40
0.8749999999999997
 40
0.8749999999999997
 40
0.9374999999999999
 40
0.9374999999999999
 40
0.9687499999999999
 40
0.9687499999999999
 40
1.0
 40
1.0
 40
1.0
 40
1.0
 10
180.8721444874342
 20
68.70935835810205
 30
0.0
 10
180.8721444874342
 20
69.02007117909797
 30
0.0
 10
180.8909852761536
 20
69.33514707954623
 30
0.0
 10
180.9654378571492
 20
69.95460686030684
 30
0.0
 10
181.0207510454304
 20
70.25977550648707
 30
0.0
 10
181.166162987452
 20
70.86135814489435
 30
0.0
 10
181.2562655489864
 20
71.15777115202975
 30
0.0
 10
181.4710409211077
 20
71.7419253457179
 30
0.0
 10
181.5962271777136
 20
72.03018011141906
 30
0.0
 10
182.0135731850397
 20
72.86194714865343
 30
0.0
 10
182.3492729819543
 20
73.37993645191092
 30
0.0
 10
182.933854607452
 20
74.10606195686633
 30
0.0
 10
183.1418898510257
 20
74.33877268307879
 30
0.0
 10
183.5778112376962
 20
74.78021985658744
 30
0.0
 10
183.8064423644545
 20
74.98990666927386
 30
0.0
 10
184.52363232444
 20
75.58685507518365
 30
0.0
 10
185.0334107853312
 20
75.9339461931144
 30
0.0
 10
186.1041500105554
 20
76.5322540675175
 30
0.0
 10
186.667428885446
 20
76.78468205525688
 30
0.0
 10
187.8438394078022
 20
77.19318932550534
 30
0.0
 10
188.4422654346245
 20
77.34437479284892
 30
0.0
 10
189.3545355002395
 20
77.49589154658231
 30
0.0
 10
189.6610801589233
 20
77.53376487654933
 30
0.0
 10
190.2791451184708
 20
77.58396704514436
 30
0.0
 10
190.5921693733389
 20
77.59625409631253
 30
0.0
 10
191.5256935028406
 20
77.59364180755463
 30
0.0
 10
192.14037034323
 20
77.54025266169113
 30
0.0
 10
193.0511625682358
 20
77.38436473197575
 30
0.0
 10
193.3528784509851
 20
77.31968887765716
 30
0.0
 10
193.9524576380121
 20
77.16420079146265
 30
0.0
 10
194.2516907911487
 20
77.07283372703917
 30
0.0
 10
195.1280857809652
 20
76.76316514969851
 30
0.0
 10
195.6870027096224
 20
76.5094408292731
 30
0.0
 10
196.4873527835452
 20
76.05693842012143
 30
0.0
 10
196.7477573512894
 20
75.89403839396782
 30
0.0
 10
197.255249228185
 20
75.54284752719582
 30
0.0
 10
197.5033021935094
 20
75.3535885824933
 30
0.0
 10
198.210937174943
 20
74.75806014563166
 30
0.0
 10
198.6389961591777
 20
74.32174636717728
 30
0.0
 10
199.2127451860006
 20
73.60488353759347
 30
0.0
 10
199.3925218692442
 20
73.35545552521207
 30
0.0
 10
199.7274475563808
 20
72.83396527156255
 30
0.0
 10
199.8821002253711
 20
72.56211445012136
 30
0.0
 10
200.2946932161946
 20
71.73396790587891
 30
0.0
 10
200.5066902922695
 20
71.15813443758684
 30
0.0
 10
200.7242315093198
 20
70.2562802983005
 30
0.0
 10
200.7800882667546
 20
69.94685914138988
 30
0.0
 10
200.8539106378566
 20
69.32748750652456
 30
0.0
 10
200.8721444874342
 20
69.01821906407162
 30
0.0
 10
200.8721444874342
 20
68.70935835810205
 30
0.0
  0
SPLINE
  5
24D
330
1F
100
AcDbEntity
  8
0
  6
Continuous
 62
     7
370
    15
100
AcDbSpline
210
0.0
220
0.0
230
1.0
 70
     8
 71
     3
 72
     8
 73
     4
 74
     0
 42
0.000000001
 43
0.00000001
 40
0.0
 40
0.0
 40
0.0
 40
0.0
 40
1.0
 40
1.0
 40
1.0
 40
1.0
 10
140.5121444874342
 20
40.89253189860059
 30
0.0
 10
140.1280097388498
 20
40.19989047665641
 30
0.0
 10
139.7430234623569
 20
39.50770430233271
 30
0.0
 10
139.3573548837306
 20
38.81591001148853
 30
0.0
  0
SPLINE
  5
24E
330
1F
100
AcDbEntity
  8
0
  6
Continuous
 62
     7
370
    15
100
AcDbSpline
210
0.0
220
0.0
230
1.0
 70
     8
 71
     3
 72
     8
 73
     4
 74
     0
 42
0.000000001
 43
0.00000001
 40
0.0
 40
0.0
 40
0.0
 40
0.0
 40
0.0011901715795577
 40
0.0011901715795577
 40
0.0011901715795577
 40
0.0011901715795577
 10
138.9003078453775
 20
38.26126600946537
 30
0.0
 10
139.0541540348734
 20
38.44583124714897
 30
0.0
 10
139.2065493025461
 20
38.6307066076776
 30
0.0
 10
139.3573548837306
 20
38.81591001148853
 30
0.0
  0
LINE
  5
24F
330
1F
100
AcDbEntity
  8
0
  6
Continuous
 62
     7
370
    15
100
AcDbLine
 10
138.9003078454
 20
38.2612660095
 30
0.0
 11
138.9003078454
 21
87.0593583581
 31
0.0
  0
SPLINE
  5
250
330
1F
100
AcDbEntity
  8
0
  6
Continuous
 62
     7
370
    15
100
AcDbSpline
210
0.0
220
0.0
230
1.0
 70
    24
 71
     3
 72
     8
 73
     4
 74
     0
 42
0.000000001
 43
0.00000001
 40
0.0
 40
0.0
 40
0.0
 40
0.0
 40
1.0
 40
1.0
 40
1.0
 40
1.0
 10
140.5121444874342
 20
87.05935835810205
 30
0.0
 10
139.9874119990723
 20
87.05935835810205
 30
0.0
 10
139.4487365148535
 20
87.05935835810205
 30
0.0
 10
138.9003078453775
 20
87.05935835810205
 30
0.0
  0
LINE
  5
251
330
1F
100
AcDbEntity
  8
0
  6
Continuous
 62
     7
370
    15
100
AcDbLine
 10
140.5121444874
 20
40.8925318986
 30
0.0
 11
140.5121444874
 21
87.0593583581
 31
0.0
  0
LINE
  5
252
330
1F
100
AcDbEntity
  8
0
  6
Continuous
 62
     7
370
    15
100
AcDbLine
 10
135.1221444874
 20
38.2612660095
 30
0.0
 11
138.9003078454
 21
38.2612660095
 31
0.0
  0
LINE
  5
253
330
1F
100
AcDbEntity
  8
0
  6
Continuous
 62
     7
370
    15
100
AcDbLine
 10
138.9003078454
 20
87.0593583581
 30
0.0
 11
135.1221444874
 21
87.0593583581
 31
0.0
  0
SPLINE
  5
254
330
1F
100
AcDbEntity
  8
0
  6
Continuous
 62
     7
370
    15
100
AcDbSpline
210
0.0
220
0.0
230
1.0
 70
     8
 71
     3
 72
    12
 73
     8
 74
     0
 42
0.000000001
 43
0.00000001
 40
0.0
 40
0.0
 40
0.0
 40
0.0
 40
0.2499999999999998
 40
0.2499999999999998
 40
0.4999999999999996
 40
0.4999999999999996
 40
1.0
 40
1.0
 40
1.0
 40
1.0
 10
149.7721444874342
 20
38.26126600946537
 30
0.0
 10
149.8676863975702
 20
38.26126600946537
 30
0.0
 10
149.959831339433
 20
38.27751967866158
 30
0.0
 10
150.1161576160429
 20
38.33112809957505
 30
0.0
 10
150.1798257586628
 20
38.36753922485673
 30
0.0
 10
150.3286936040932
 20
38.48966286454324
 30
0.0
 10
150.3721444874342
 20
38.58481553998028
 30
0.0
 10
150.3721444874342
 20
38.68044199559995
 30
0.0
  0
SPLINE
  5
255
330
1F
100
AcDbEntity
  8
0
  6
Continuous
 62
     7
370
    15
100
AcDbSpline
210
0.0
220
0.0
230
1.0
 70
    24
 71
     3
 72
    12
 73
     8
 74
     0
 42
0.000000001
 43
0.00000001
 40
0.0
 40
0.0
 40
0.0
 40
0.0
 40
0.5000000000000069
 40
0.5000000000000069
 40
0.7500000000000034
 40
0.7500000000000034
 40
1.0
 40
1.0
 40
1.0
 40
1.0
 10
150.3721444874342
 20
87.05935835810205
 30
0.0
 10
150.3721444874342
 20
87.05935835810205
 30
0.0
 10
150.3224644924792
 20
87.05935835810205
 30
0.0
 10
150.1665459354616
 20
87.05935835810205
 30
0.0
 10
150.1006648708855
 20
87.05935835810205
 30
0.0
 10
149.9480192153968
 20
87.05935835810205
 30
0.0
 10
149.8607693075358
 20
87.05935835810205
 30
0.0
 10
149.7721444874341
 20
87.05935835810205
 30
0.0
  0
LINE
  5
256
330
1F
100
AcDbEntity
  8
0
  6
Continuous
 62
     7
370
    15
100
AcDbLine
 10
150.3721444874
 20
38.6804419956
 30
0.0
 11
150.3721444874
 21
87.0593583581
 31
0.0
  0
LINE
  5
257
330
1F
100
AcDbEntity
  8
0
  6
Continuous
 62
     7
370
    15
100
AcDbLine
 10
145.9439811295
 20
38.2612660095
 30
0.0
 11
149.7721444874
 21
38.2612660095
 31
0.0
  0
LINE
  5
258
330
1F
100
AcDbEntity
  8
0
  6
Continuous
 62
     7
370
    15
100
AcDbLine
 10
145.9439811295
 20
38.2612660095
 30
0.0
 11
145.9439811295
 21
87.0593583581
 31
0.0
  0
LINE
  5
259
330
1F
100
AcDbEntity
  8
0
  6
Continuous
 62
     7
370
    15
100
AcDbLine
 10
149.7721444874
 20
87.0593583581
 30
0.0
 11
145.9439811295
 21
87.0593583581
 31
0.0
  0
SPLINE
  5
25A
330
1F
100
AcDbEntity
  8
0
  6
Continuous
 62
     7
370
    15
100
AcDbSpline
210
0.0
220
0.0
230
1.0
 70
     8
 71
     3
 72
     8
 73
     4
 74
     0
 42
0.000000001
 43
0.00000001
 40
0.0
 40
0.0
 40
0.0
 40
0.0
 40
0.0011901715795577
 40
0.0011901715795577
 40
0.0011901715795577
 40
0.0011901715795577
 10
145.4869340911378
 20
38.81591001148854
 30
0.0
 10
145.6377396723223
 20
38.6307066076776
 30
0.0
 10
145.790134939995
 20
38.44583124714897
 30
0.0
 10
145.9439811294909
 20
38.26126600946537
 30
0.0
  0
SPLINE
  5
25B
330
1F
100
AcDbEntity
  8
0
  6
Continuous
 62
     7
370
    15
100
AcDbSpline
210
0.0
220
0.0
230
1.0
 70
     8
 71
     3
 72
     8
 73
     4
 74
     0
 42
0.000000001
 43
0.00000001
 40
0.0
 40
0.0
 40
0.0
 40
0.0
 40
1.0
 40
1.0
 40
1.0
 40
1.0
 10
145.4869340911378
 20
38.81591001148854
 30
0.0
 10
145.1012655125115
 20
39.50770430233271
 30
0.0
 10
144.7162792360186
 20
40.19989047665641
 30
0.0
 10
144.3321444874342
 20
40.89253189860058
 30
0.0
  0
LINE
  5
25C
330
1F
100
AcDbEntity
  8
0
  6
Continuous
 62
     7
370
    15
100
AcDbLine
 10
144.3321444874
 20
40.8925318986
 30
0.0
 11
144.3321444874
 21
87.0593583581
 31
0.0
  0
SPLINE
  5
25D
330
1F
100
AcDbEntity
  8
0
  6
Continuous
 62
     7
370
    15
100
AcDbSpline
210
0.0
220
0.0
230
1.0
 70
    24
 71
     3
 72
     8
 73
     4
 74
     0
 42
0.000000001
 43
0.00000001
 40
0.0
 40
0.0
 40
0.0
 40
0.0
 40
1.0
 40
1.0
 40
1.0
 40
1.0
 10
145.9439811294909
 20
87.05935835810205
 30
0.0
 10
145.3955524600149
 20
87.05935835810205
 30
0.0
 10
144.8568769757961
 20
87.05935835810205
 30
0.0
 10
144.3321444874342
 20
87.05935835810205
 30
0.0
  0
SPLINE
  5
25E
330
1F
100
AcDbEntity
  8
0
  6
Continuous
 62
     7
370
    15
100
AcDbSpline
210
0.0
220
0.0
230
1.0
 70
     8
 71
     3
 72
    10
 73
     6
 74
     0
 42
0.000000001
 43
0.00000001
 40
0.0
 40
0.0
 40
0.0
 40
0.0
 40
0.5
 40
0.5
 40
1.0
 40
1.0
 40
1.0
 40
1.0
 10
134.7382890287814
 20
38.35762850863385
 30
0.0
 10
134.7870590017627
 20
38.32940050142583
 30
0.0
 10
134.8445111250651
 20
38.30530589718423
 30
0.0
 10
134.9751080280538
 20
38.27104242409167
 30
0.0
 10
135.047597707896
 20
38.26126600946537
 30
0.0
 10
135.1221444874342
 20
38.26126600946537
 30
0.0
  0
SPLINE
  5
25F
330
1F
100
AcDbEntity
  8
0
  6
Continuous
 62
     7
370
    15
100
AcDbSpline
210
0.0
220
0.0
230
1.0
 70
     8
 71
     3
 72
    10
 73
     6
 74
     0
 42
0.000000001
 43
0.00000001
 40
0.0
 40
0.0
 40
0.0
 40
0.0
 40
0.5
 40
0.5
 40
1.0
 40
1.0
 40
1.0
 40
1.0
 10
134.7382890287814
 20
38.35762850863385
 30
0.0
 10
134.6801663687053
 20
38.42493366849565
 30
0.0
 10
134.6277632027018
 20
38.50501905552929
 30
0.0
 10
134.5488601811554
 20
38.68903849721805
 30
0.0
 10
134.5221444874342
 20
38.7942498546385
 30
0.0
 10
134.5221444874342
 20
38.90298320109914
 30
0.0
  0
LINE
  5
260
330
1F
100
AcDbEntity
  8
0
  6
Continuous
 62
     7
370
    15
100
AcDbLine
 10
134.5221444874
 20
38.9029832011
 30
0.0
 11
134.5221444874
 21
87.0593583581
 31
0.0
  0
SPLINE
  5
261
330
1F
100
AcDbEntity
  8
0
  6
Continuous
 62
     7
370
    15
100
AcDbSpline
210
0.0
220
0.0
230
1.0
 70
    24
 71
     3
 72
    12
 73
     8
 74
     0
 42
0.000000001
 43
0.00000001
 40
0.0
 40
0.0
 40
0.0
 40
0.0
 40
0.25
 40
0.25
 40
0.5
 40
0.5
 40
1.0
 40
1.0
 40
1.0
 40
1.0
 10
135.1221444874342
 20
87.05935835810205
 30
0.0
 10
135.0337291101237
 20
87.05935835810205
 30
0.0
 10
134.9464586729531
 20
87.05935835810205
 30
0.0
 10
134.7939949481813
 20
87.05935835810205
 30
0.0
 10
134.7283563359589
 20
87.05935835810205
 30
0.0
 10
134.5716979346749
 20
87.05935835810205
 30
0.0
 10
134.5221444874342
 20
87.05935835810205
 30
0.0
 10
134.5221444874342
 20
87.05935835810205
 30
0.0
  0
SPLINE
  5
262
330
1F
100
AcDbEntity
  8
0
  6
Continuous
 62
     7
370
    15
100
AcDbSpline
210
0.0
220
0.0
230
1.0
 70
     8
 71
     3
 72
    12
 73
     8
 74
     0
 42
0.000000001
 43
0.00000001
 40
0.0
 40
0.0
 40
0.0
 40
0.0
 40
0.2500000000000015
 40
0.2500000000000015
 40
0.500000000000003
 40
0.500000000000003
 40
1.0
 40
1.0
 40
1.0
 40
1.0
 10
141.3121444874342
 20
41.89150050181531
 30
0.0
 10
141.2057426370767
 20
41.89150050181532
 30
0.0
 10
141.0984272256802
 20
41.86872973779681
 30
0.0
 10
140.9029556346529
 20
41.78248679114471
 30
0.0
 10
140.8127735187154
 20
41.71781047067417
 30
0.0
 10
140.5945520319947
 20
41.48488114661738
 30
0.0
 10
140.5121444874339
 20
41.27029590872635
 30
0.0
 10
140.5121444874342
 20
41.05727887029363
 30
0.0
  0
SPLINE
  5
263
330
1F
100
AcDbEntity
  8
0
  6
Continuous
 62
     7
370
    15
100
AcDbSpline
210
0.0
220
0.0
230
1.0
 70
    24
 71
     3
 72
    14
 73
    10
 74
     0
 42
0.000000001
 43
0.00000001
 40
0.0
 40
0.0
 40
0.0
 40
0.0
 40
0.1250000000000007
 40
0.1250000000000007
 40
0.2500000000000014
 40
0.2500000000000014
 40
0.499999999999999
 40
0.499999999999999
 40
1.0
 40
1.0
 40
1.0
 40
1.0
 10
141.3121444874342
 20
87.05935835810205
 30
0.0
 10
141.2515271640166
 20
87.05935835810205
 30
0.0
 10
141.1894020158816
 20
87.05935835810205
 30
0.0
 10
141.0731843528602
 20
87.05935835810205
 30
0.0
 10
141.0185677131678
 20
87.05935835810205
 30
0.0
 10
140.8638913746596
 20
87.05935835810205
 30
0.0
 10
140.7777746258755
 20
87.05935835810205
 30
0.0
 10
140.5764670453349
 20
87.05935835810205
 30
0.0
 10
140.5121444874342
 20
87.05935835810205
 30
0.0
 10
140.5121444874342
 20
87.05935835810205
 30
0.0
  0
SPLINE
  5
264
330
1F
100
AcDbEntity
  8
0
  6
Continuous
 62
     7
370
    15
100
AcDbSpline
210
0.0
220
0.0
230
1.0
 70
     8
 71
     3
 72
    12
 73
     8
 74
     0
 42
0.000000001
 43
0.00000001
 40
0.0
 40
0.0
 40
0.0
 40
0.0
 40
0.5000000000000013
 40
0.5000000000000013
 40
0.7500000000000007
 40
0.7500000000000007
 40
1.0
 40
1.0
 40
1.0
 40
1.0
 10
144.3321444874342
 20
41.05727887029499
 30
0.0
 10
144.3321444874342
 20
41.27010142922787
 30
0.0
 10
144.2502191296144
 20
41.48435793586584
 30
0.0
 10
144.031297326146
 20
41.71804756431572
 30
0.0
 10
143.941250034655
 20
41.78253238915971
 30
0.0
 10
143.7458365666352
 20
41.86873200031528
 30
0.0
 10
143.6385535996514
 20
41.89150050181532
 30
0.0
 10
143.5321444874342
 20
41.89150050181532
 30
0.0
  0
SPLINE
  5
265
330
1F
100
AcDbEntity
  8
0
  6
Continuous
 62
     7
370
    15
100
AcDbSpline
210
0.0
220
0.0
230
1.0
 70
    24
 71
     3
 72
    14
 73
    10
 74
     0
 42
0.000000001
 43
0.00000001
 40
0.0
 40
0.0
 40
0.0
 40
0.0
 40
0.25
 40
0.25
 40
0.5
 40
0.5
 40
0.75
 40
0.75
 40
1.0
 40
1.0
 40
1.0
 40
1.0
 10
144.3321444874342
 20
87.05935835810205
 30
0.0
 10
144.3321444874342
 20
87.05935835810205
 30
0.0
 10
144.3160628859744
 20
87.05935835810205
 30
0.0
 10
144.2505713727075
 20
87.05935835810205
 30
0.0
 10
144.2012633995802
 20
87.05935835810205
 30
0.0
 10
144.0666938778832
 20
87.05935835810205
 30
0.0
 10
143.9811708017979
 20
87.05935835810205
 30
0.0
 10
143.7741753062429
 20
87.05935835810205
 30
0.0
 10
143.6534816722993
 20
87.05935835810205
 30
0.0
 10
143.5321444874342
 20
87.05935835810205
 30
0.0
  0
LINE
  5
266
330
1F
100
AcDbEntity
  8
0
  6
Continuous
 62
     7
370
    15
100
AcDbLine
 10
143.5321444874
 20
41.8915005018
 30
0.0
 11
141.3121444874
 21
41.8915005018
 31
0.0
  0
LINE
  5
267
330
1F
100
AcDbEntity
  8
0
  6
Continuous
 62
     7
370
    15
100
AcDbLine
 10
143.5321444874
 20
87.0593583581
 30
0.0
 11
141.3121444874
 21
87.0593583581
 31
0.0
  0
SPLINE
  5
268
330
1F
100
AcDbEntity
  8
0
  6
Continuous
 62
     7
370
    15
100
AcDbSpline
210
0.0
220
0.0
230
1.0
 70
    24
 71
     3
 72
    18
 73
    14
 74
     0
 42
0.000000001
 43
0.00000001
 40
0.0
 40
0.0
 40
0.0
 40
0.0
 40
0.0312499999999993
 40
0.0312499999999993
 40
0.0624999999999987
 40
0.0624999999999987
 40
0.1249999999999988
 40
0.1249999999999988
 40
0.2499999999999991
 40
0.2499999999999991
 40
0.4999999999999993
 40
0.4999999999999993
 40
1.0
 40
1.0
 40
1.0
 40
1.0
 10
151.3721444874342
 20
93.50935835810205
 30
0.0
 10
151.3352106636191
 20
93.50935835810205
 30
0.0
 10
151.2996726786877
 20
93.50935835810205
 30
0.0
 10
151.241749910404
 20
93.50935835810205
 30
0.0
 10
151.2176090625961
 20
93.50935835810205
 30
0.0
 10
151.152651212721
 20
93.50935835810205
 30
0.0
 10
151.118198227892
 20
93.50935835810206
 30
0.0
 10
151.0255872670337
 20
93.50935835810205
 30
0.0
 10
150.9774171404383
 20
93.50935835810205
 30
0.0
 10
150.8451572640502
 20
93.50935835810205
 30
0.0
 10
150.7761264632725
 20
93.50935835810205
 30
0.0
 10
150.5928311064332
 20
93.50935835810205
 30
0.0
 10
150.5041814058807
 20
93.50935835810205
 30
0.0
 10
150.4451048778886
 20
93.50935835810205
 30
0.0
  0
SPLINE
  5
269
330
1F
100
AcDbEntity
  8
0
  6
Continuous
 62
     7
370
    15
100
AcDbSpline
210
0.0
220
0.0
230
1.0
 70
     8
 71
     3
 72
    10
 73
     6
 74
     0
 42
0.000000001
 43
0.00000001
 40
0.0
 40
0.0
 40
0.0
 40
0.0
 40
0.5
 40
0.5
 40
1.0
 40
1.0
 40
1.0
 40
1.0
 10
151.3721444874342
 20
45.01975093205971
 30
0.0
 10
151.1947037355209
 20
45.02724116812492
 30
0.0
 10
151.0180845720083
 20
44.98145274357246
 30
0.0
 10
150.7146333476939
 20
44.79998246379861
 30
0.0
 10
150.5886103649734
 20
44.66449271096501
 30
0.0
 10
150.5041463080649
 20
44.50935835810225
 30
0.0
  0
SPLINE
  5
26A
330
1F
100
AcDbEntity
  8
0
  6
Continuous
 62
     7
370
    15
100
AcDbSpline
210
0.0
220
0.0
230
1.0
 70
     8
 71
     3
 72
     8
 73
     4
 74
     0
 42
0.000000001
 43
0.00000001
 40
0.0
 40
0.0
 40
0.0
 40
0.0
 40
1.0
 40
1.0
 40
1.0
 40
1.0
 10
150.3721444874342
 20
87.1288453216415
 30
0.0
 10
150.3721444874342
 20
87.1056922620132
 30
0.0
 10
150.3725478150322
 20
87.08252994189034
 30
0.0
 10
150.3733546082437
 20
87.05935835810205
 30
0.0
  0
SPLINE
  5
26B
330
1F
100
AcDbEntity
  8
0
  6
Continuous
 62
     7
370
    15
100
AcDbSpline
210
0.0
220
0.0
230
1.0
 70
     8
 71
     3
 72
    14
 73
    10
 74
     0
 42
0.000000001
 43
0.00000001
 40
0.0
 40
0.0
 40
0.0
 40
0.0
 40
0.0632946075515393
 40
0.2483034310786993
 40
0.4246496472194809
 40
0.6058174326334218
 40
0.787817232198385
 40
0.9747087674420183
 40
1.0
 40
1.0
 40
1.0
 40
1.0
 10
158.3981483118406
 20
43.7170708493501
 30
0.0
 10
158.4045924085103
 20
43.71500002676937
 30
0.0
 10
158.4298724659303
 20
43.7068762327869
 30
0.0
 10
158.2524405643294
 20
43.76400298395966
 30
0.0
 10
157.8731392548874
 20
43.88201463636641
 30
0.0
 10
157.291433233686
 20
44.05307265780896
 30
0.0
 10
156.5219959070463
 20
44.25946481132841
 30
0.0
 10
155.854434234315
 20
44.41722743276964
 30
0.0
 10
155.4628727631603
 20
44.49954631697403
 30
0.0
 10
155.4162003951339
 20
44.50935835810205
 30
0.0
  0
SPLINE
  5
26C
330
1F
100
AcDbEntity
  8
0
  6
Continuous
 62
     7
370
    15
100
AcDbSpline
210
0.0
220
0.0
230
1.0
 70
     8
 71
     3
 72
    12
 73
     8
 74
     0
 42
0.000000001
 43
0.00000001
 40
0.0
 40
0.0
 40
0.0
 40
0.0
 40
0.4999999999999991
 40
0.4999999999999991
 40
0.7499999999999996
 40
0.7499999999999996
 40
1.0
 40
1.0
 40
1.0
 40
1.0
 10
155.4162003951339
 20
44.50935835810205
 30
0.0
 10
154.8393177425729
 20
44.62959919908137
 30
0.0
 10
154.210436846359
 20
44.74121688258565
 30
0.0
 10
153.1861159511362
 20
44.87657862538986
 30
0.0
 10
152.8308880483716
 20
44.91619490351709
 30
0.0
 10
152.111716689051
 20
44.9797288050984
 30
0.0
 10
151.7454182978765
 20
45.00399407278682
 30
0.0
 10
151.3721444874342
 20
45.01975093205971
 30
0.0
  0
LINE
  5
26D
330
1F
100
AcDbEntity
  8
0
  6
Continuous
 62
     7
370
    15
100
AcDbLine
 10
157.7777167138
 20
93.5093583581
 30
0.0
 11
151.3721444874
 21
93.5093583581
 31
0.0
  0
SPLINE
  5
26E
330
1F
100
AcDbEntity
  8
0
  6
Continuous
 62
     7
370
    15
100
AcDbSpline
210
0.0
220
0.0
230
1.0
 70
     8
 71
     3
 72
    10
 73
     6
 74
     0
 42
0.000000001
 43
0.00000001
 40
0.0
 40
0.0
 40
0.0
 40
0.0
 40
0.2002212848417091
 40
0.6082979976457659
 40
1.0
 40
1.0
 40
1.0
 40
1.0
 10
158.3963829575481
 20
93.70107505139644
 30
0.0
 10
158.4009584181777
 20
93.70256087622634
 30
0.0
 10
158.4148592556508
 20
93.7070750030316
 30
0.0
 10
158.2212927239243
 20
93.64424643725843
 30
0.0
 10
157.9235433384465
 20
93.55370312165776
 30
0.0
 10
157.7777167138053
 20
93.50935835810205
 30
0.0
  0
LINE
  5
26F
330
1F
100
AcDbEntity
  8
0
  6
Continuous
 62
     7
370
    15
100
AcDbLine
 10
131.3221444874
 20
46.4843583581
 30
0.0
 11
131.3221444874
 21
90.9343583581
 31
0.0
  0
SPLINE
  5
270
330
1F
100
AcDbEntity
  8
0
  6
Continuous
 62
     7
370
    15
100
AcDbSpline
210
0.0
220
0.0
230
1.0
 70
     8
 71
     3
 72
     8
 73
     4
 74
     0
 42
0.000000001
 43
0.00000001
 40
0.0
 40
0.0
 40
0.0
 40
0.0
 40
0.0012409313617635
 40
0.0012409313617635
 40
0.0012409313617635
 40
0.0012409313617635
 10
139.4581898011382
 20
98.42189651436654
 30
0.0
 10
139.2729659615822
 20
98.68342405784368
 30
0.0
 10
139.0869807736097
 20
98.94468255961904
 30
0.0
 10
138.9003078453775
 20
99.2056944373176
 30
0.0
  0
SPLINE
  5
271
330
1F
100
AcDbEntity
  8
0
  6
Continuous
 62
     7
370
    15
100
AcDbSpline
210
0.0
220
0.0
230
1.0
 70
     8
 71
     3
 72
     8
 73
     4
 74
     0
 42
0.000000001
 43
0.00000001
 40
0.0
 40
0.0
 40
0.0
 40
0.0
 40
1.0
 40
1.0
 40
1.0
 40
1.0
 10
140.5121444874342
 20
96.52618481760351
 30
0.0
 10
140.1614922471067
 20
97.15845322665388
 30
0.0
 10
139.8101338240464
 20
97.79033512635269
 30
0.0
 10
139.4581898011382
 20
98.42189651436654
 30
0.0
  0
LINE
  5
272
330
1F
100
AcDbEntity
  8
0
  6
Continuous
 62
     7
370
    15
100
AcDbLine
 10
140.5121444874
 20
91.111497414
 30
0.0
 11
140.5121444874
 21
96.5261848176
 31
0.0
  0
SPLINE
  5
273
330
1F
100
AcDbEntity
  8
0
  6
Continuous
 62
     7
370
    15
100
AcDbSpline
210
0.0
220
0.0
230
1.0
 70
     8
 71
     3
 72
     8
 73
     4
 74
     0
 42
0.000000001
 43
0.00000001
 40
0.0
 40
0.0
 40
0.0
 40
0.0
 40
1.0
 40
1.0
 40
1.0
 40
1.0
 10
138.9003078453775
 20
94.61958799814963
 30
0.0
 10
139.4492526235744
 20
93.45449188583592
 30
0.0
 10
139.9878629980911
 20
92.28533356901144
 30
0.0
 10
140.5121444874342
 20
91.11149741396055
 30
0.0
  0
LINE
  5
274
330
1F
100
AcDbEntity
  8
0
  6
Continuous
 62
     7
370
    15
100
AcDbLine
 10
138.9003078454
 20
94.6195879981
 30
0.0
 11
138.9003078454
 21
99.2056944373
 31
0.0
  0
LINE
  5
275
330
1F
100
AcDbEntity
  8
0
  6
Continuous
 62
     7
370
    15
100
AcDbLine
 10
149.7721444874
 20
99.2056944373
 30
0.0
 11
145.9439811295
 21
99.2056944373
 31
0.0
  0
LINE
  5
276
330
1F
100
AcDbEntity
  8
0
  6
Continuous
 62
     7
370
    15
100
AcDbLine
 10
145.9439811295
 20
94.6195879981
 30
0.0
 11
149.7721444874
 21
94.6195879981
 31
0.0
  0
LINE
  5
277
330
1F
100
AcDbEntity
  8
0
  6
Continuous
 62
     7
370
    15
100
AcDbLine
 10
145.9439811295
 20
94.6195879981
 30
0.0
 11
145.9439811295
 21
99.2056944373
 31
0.0
  0
SPLINE
  5
278
330
1F
100
AcDbEntity
  8
0
  6
Continuous
 62
     7
370
    15
100
AcDbSpline
210
0.0
220
0.0
230
1.0
 70
     8
 71
     3
 72
     8
 73
     4
 74
     0
 42
0.000000001
 43
0.00000001
 40
0.0
 40
0.0
 40
0.0
 40
0.0
 40
1.0
 40
1.0
 40
1.0
 40
1.0
 10
145.3860991737302
 20
98.42189651436654
 30
0.0
 10
145.034155150822
 20
97.7903351263527
 30
0.0
 10
144.6827967277617
 20
97.15845322665388
 30
0.0
 10
144.3321444874342
 20
96.52618481760351
 30
0.0
  0
SPLINE
  5
279
330
1F
100
AcDbEntity
  8
0
  6
Continuous
 62
     7
370
    15
100
AcDbSpline
210
0.0
220
0.0
230
1.0
 70
     8
 71
     3
 72
     8
 73
     4
 74
     0
 42
0.000000001
 43
0.00000001
 40
0.0
 40
0.0
 40
0.0
 40
0.0
 40
0.0012409313617635
 40
0.0012409313617635
 40
0.0012409313617635
 40
0.0012409313617635
 10
145.9439811294909
 20
99.2056944373176
 30
0.0
 10
145.7573082012587
 20
98.94468255961904
 30
0.0
 10
145.5713230132862
 20
98.68342405784368
 30
0.0
 10
145.3860991737302
 20
98.42189651436654
 30
0.0
  0
SPLINE
  5
27A
330
1F
100
AcDbEntity
  8
0
  6
Continuous
 62
     7
370
    15
100
AcDbSpline
210
0.0
220
0.0
230
1.0
 70
     8
 71
     3
 72
     8
 73
     4
 74
     0
 42
0.000000001
 43
0.00000001
 40
0.0
 40
0.0
 40
0.0
 40
0.0
 40
1.0
 40
1.0
 40
1.0
 40
1.0
 10
144.3321444874342
 20
91.11149741396055
 30
0.0
 10
144.8569356069301
 20
92.28647460166526
 30
0.0
 10
145.3954518581129
 20
93.45537376940342
 30
0.0
 10
145.9439811294909
 20
94.61958799814964
 30
0.0
  0
LINE
  5
27B
330
1F
100
AcDbEntity
  8
0
  6
Continuous
 62
     7
370
    15
100
AcDbLine
 10
144.3321444874
 20
91.111497414
 30
0.0
 11
144.3321444874
 21
96.5261848176
 31
0.0
  0
SPLINE
  5
27C
330
1F
100
AcDbEntity
  8
0
  6
Continuous
 62
     7
370
    15
100
AcDbSpline
210
0.0
220
0.0
230
1.0
 70
     8
 71
     3
 72
    12
 73
     8
 74
     0
 42
0.000000001
 43
0.00000001
 40
0.0
 40
0.0
 40
0.0
 40
0.0
 40
0.500000000000001
 40
0.500000000000001
 40
0.7500000000000004
 40
0.7500000000000004
 40
1.0
 40
1.0
 40
1.0
 40
1.0
 10
150.3721444874342
 20
98.71990949154325
 30
0.0
 10
150.3721444874342
 20
98.84023652459635
 30
0.0
 10
150.3183496758412
 20
98.95833409807817
 30
0.0
 10
150.1574261058749
 20
99.09797684051716
 30
0.0
 10
150.0926746447724
 20
99.13625279391162
 30
0.0
 10
149.9404544614547
 20
99.19109262354603
 30
0.0
 10
149.8576469459297
 20
99.2056944373176
 30
0.0
 10
149.7721444874342
 20
99.2056944373176
 30
0.0
  0
LINE
  5
27D
330
1F
100
AcDbEntity
  8
0
  6
Continuous
 62
     7
370
    15
100
AcDbLine
 10
150.3721444874
 20
93.8807707142
 30
0.0
 11
150.3721444874
 21
98.7199094915
 31
0.0
  0
SPLINE
  5
27E
330
1F
100
AcDbEntity
  8
0
  6
Continuous
 62
     7
370
    15
100
AcDbSpline
210
0.0
220
0.0
230
1.0
 70
     8
 71
     3
 72
    14
 73
    10
 74
     0
 42
0.000000001
 43
0.00000001
 40
0.0
 40
0.0
 40
0.0
 40
0.0
 40
0.25
 40
0.25
 40
0.5
 40
0.5
 40
0.75
 40
0.75
 40
1.0
 40
1.0
 40
1.0
 40
1.0
 10
149.7721444874342
 20
94.61958799814963
 30
0.0
 10
149.8605670255567
 20
94.61958799814963
 30
0.0
 10
149.9486210152497
 20
94.59451564769023
 30
0.0
 10
150.1004507791211
 20
94.5081735827189
 30
0.0
 10
150.1662937236849
 20
94.44663032820603
 30
0.0
 10
150.2700927842304
 20
94.30480258195512
 30
0.0
 10
150.3085648937051
 20
94.22475399198505
 30
0.0
 10
150.3597875569797
 20
94.05574149531137
 30
0.0
 10
150.3721444874342
 20
93.96896218844171
 30
0.0
 10
150.3721444874342
 20
93.88077071418569
 30
0.0
  0
SPLINE
  5
27F
330
1F
100
AcDbEntity
  8
0
  6
Continuous
 62
     7
370
    15
100
AcDbSpline
210
0.0
220
0.0
230
1.0
 70
     8
 71
     3
 72
    10
 73
     6
 74
     0
 42
0.000000001
 43
0.00000001
 40
0.0
 40
0.0
 40
0.0
 40
0.0
 40
0.5
 40
0.5
 40
1.0
 40
1.0
 40
1.0
 40
1.0
 10
134.8093860887417
 20
99.13465491305901
 30
0.0
 10
134.7335464947382
 20
99.06460572673038
 30
0.0
 10
134.6662229770122
 20
98.97938695315668
 30
0.0
 10
134.5595793387072
 20
98.7691608264949
 30
0.0
 10
134.5221444874342
 20
98.64565163562759
 30
0.0
 10
134.5221444874342
 20
98.51573351510494
 30
0.0
  0
SPLINE
  5
280
330
1F
100
AcDbEntity
  8
0
  6
Continuous
 62
     7
370
    15
100
AcDbSpline
210
0.0
220
0.0
230
1.0
 70
     8
 71
     3
 72
     8
 73
     4
 74
     0
 42
0.000000001
 43
0.00000001
 40
0.0
 40
0.0
 40
0.0
 40
0.0
 40
1.0
 40
1.0
 40
1.0
 40
1.0
 10
135.1221444874342
 20
99.2056944373176
 30
0.0
 10
135.0099662332545
 20
99.2056944373176
 30
0.0
 10
134.9012967205261
 20
99.18001337205665
 30
0.0
 10
134.8093860887417
 20
99.134654913059
 30
0.0
  0
SPLINE
  5
281
330
1F
100
AcDbEntity
  8
0
  6
Continuous
 62
     7
370
    15
100
AcDbSpline
210
0.0
220
0.0
230
1.0
 70
     8
 71
     3
 72
    12
 73
     8
 74
     0
 42
0.000000001
 43
0.00000001
 40
0.0
 40
0.0
 40
0.0
 40
0.0
 40
0.5000000000000003
 40
0.5000000000000003
 40
0.7500000000000001
 40
0.7500000000000001
 40
1.0
 40
1.0
 40
1.0
 40
1.0
 10
134.5221444874342
 20
93.88077071418567
 30
0.0
 10
134.5221444874342
 20
94.05738711070741
 30
0.0
 10
134.571485122256
 20
94.23244428208112
 30
0.0
 10
134.7277006805441
 20
94.44639449457378
 30
0.0
 10
134.7930032604449
 20
94.50772713742073
 30
0.0
 10
134.9467722784052
 20
94.59511523539197
 30
0.0
 10
135.0337853850157
 20
94.61958799814961
 30
0.0
 10
135.1221444874342
 20
94.61958799814963
 30
0.0
  0
LINE
  5
282
330
1F
100
AcDbEntity
  8
0
  6
Continuous
 62
     7
370
    15
100
AcDbLine
 10
134.5221444874
 20
93.8807707142
 30
0.0
 11
134.5221444874
 21
98.5157335151
 31
0.0
  0
LINE
  5
283
330
1F
100
AcDbEntity
  8
0
  6
Continuous
 62
     7
370
    15
100
AcDbLine
 10
138.9003078454
 20
99.2056944373
 30
0.0
 11
135.1221444874
 21
99.2056944373
 31
0.0
  0
LINE
  5
284
330
1F
100
AcDbEntity
  8
0
  6
Continuous
 62
     7
370
    15
100
AcDbLine
 10
135.1221444874
 20
94.6195879981
 30
0.0
 11
138.9003078454
 21
94.6195879981
 31
0.0
  0
SPLINE
  5
285
330
1F
100
AcDbEntity
  8
0
  6
Continuous
 62
     7
370
    15
100
AcDbSpline
210
0.0
220
0.0
230
1.0
 70
     8
 71
     3
 72
    12
 73
     8
 74
     0
 42
0.000000001
 43
0.00000001
 40
0.0
 40
0.0
 40
0.0
 40
0.0
 40
0.5
 40
0.5
 40
0.75
 40
0.75
 40
1.0
 40
1.0
 40
1.0
 40
1.0
 10
144.3321444874342
 20
96.36143784590911
 30
0.0
 10
144.3321444874342
 20
96.14830044425761
 30
0.0
 10
144.2495020722862
 20
95.93332091951991
 30
0.0
 10
144.0309186614759
 20
95.70040185063417
 30
0.0
 10
143.9418287084951
 20
95.63653494081366
 30
0.0
 10
143.7464233905976
 20
95.55014878643189
 30
0.0
 10
143.6398993436543
 20
95.52721621438879
 30
0.0
 10
143.5321444874342
 20
95.52721621438879
 30
0.0
  0
SPLINE
  5
286
330
1F
100
AcDbEntity
  8
0
  6
Continuous
 62
     7
370
    15
100
AcDbSpline
210
0.0
220
0.0
230
1.0
 70
     8
 71
     3
 72
    12
 73
     8
 74
     0
 42
0.000000001
 43
0.00000001
 40
0.0
 40
0.0
 40
0.0
 40
0.0
 40
0.2500000000000015
 40
0.2500000000000015
 40
0.500000000000003
 40
0.500000000000003
 40
1.0
 40
1.0
 40
1.0
 40
1.0
 10
143.5321444874342
 20
89.85829450155852
 30
0.0
 10
143.6542264849225
 20
89.85829450155852
 30
0.0
 10
143.7748170274082
 20
89.89702085773224
 30
0.0
 10
143.980312311108
 20
90.02698444547852
 30
0.0
 10
144.0658287940605
 20
90.11619068202526
 30
0.0
 10
144.2692231456047
 20
90.42106721957089
 30
0.0
 10
144.3321444874342
 20
90.66383783367296
 30
0.0
 10
144.3321444874342
 20
90.90659917762733
 30
0.0
  0
SPLINE
  5
287
330
1F
100
AcDbEntity
  8
0
  6
Continuous
 62
     7
370
    15
100
AcDbSpline
210
0.0
220
0.0
230
1.0
 70
     8
 71
     3
 72
    14
 73
    10
 74
     0
 42
0.000000001
 43
0.00000001
 40
0.0
 40
0.0
 40
0.0
 40
0.0
 40
0.25
 40
0.25
 40
0.5
 40
0.5
 40
0.75
 40
0.75
 40
1.0
 40
1.0
 40
1.0
 40
1.0
 10
141.3121444874342
 20
95.52721621438879
 30
0.0
 10
141.2047754429198
 20
95.52721621438879
 30
0.0
 10
141.097969951157
 20
95.55014120979376
 30
0.0
 10
140.9028285826402
 20
95.63633364366794
 30
0.0
 10
140.8136188650502
 20
95.70017764033192
 30
0.0
 10
140.6676920722339
 20
95.85559374827331
 30
0.0
 10
140.6097023284358
 20
95.94824832648104
 30
0.0
 10
140.5321084869132
 20
96.14748166653058
 30
0.0
 10
140.5121444874342
 20
96.2540867615858
 30
0.0
 10
140.5121444874342
 20
96.36143784590911
 30
0.0
  0
SPLINE
  5
288
330
1F
100
AcDbEntity
  8
0
  6
Continuous
 62
     7
370
    15
100
AcDbSpline
210
0.0
220
0.0
230
1.0
 70
     8
 71
     3
 72
    14
 73
    10
 74
     0
 42
0.000000001
 43
0.00000001
 40
0.0
 40
0.0
 40
0.0
 40
0.0
 40
0.25
 40
0.25
 40
0.5
 40
0.5
 40
0.75
 40
0.75
 40
1.0
 40
1.0
 40
1.0
 40
1.0
 10
140.5121444874342
 20
90.90659917762733
 30
0.0
 10
140.5121444874342
 20
90.78466384244578
 30
0.0
 10
140.5281888549741
 20
90.66510960194437
 30
0.0
 10
140.5939181971535
 20
90.43099361880112
 30
0.0
 10
140.6431255674018
 20
90.31906107866641
 30
0.0
 10
140.7781385483007
 20
90.11666126942953
 30
0.0
 10
140.864058616907
 20
90.02679607586659
 30
0.0
 10
141.0705734189124
 20
89.89646156625638
 30
0.0
 10
141.1907121312834
 20
89.85829450155855
 30
0.0
 10
141.3121444874342
 20
89.85829450155855
 30
0.0
  0
LINE
  5
289
330
1F
100
AcDbEntity
  8
0
  6
Continuous
 62
     7
370
    15
100
AcDbLine
 10
143.5321444874
 20
95.5272162144
 30
0.0
 11
141.3121444874
 21
95.5272162144
 31
0.0
  0
LINE
  5
28A
330
1F
100
AcDbEntity
  8
0
  6
Continuous
 62
     7
370
    15
100
AcDbLine
 10
141.3121444874
 20
89.8582945016
 30
0.0
 11
143.5321444874
 21
89.8582945016
 31
0.0
  0
LINE
  5
28B
330
1F
100
AcDbEntity
  8
0
  6
Continuous
 62
     7
370
    15
100
AcDbLine
 10
140.5121444874
 20
91.111497414
 30
0.0
 11
140.5121444874
 21
90.9065991776
 31
0.0
  0
LINE
  5
28C
330
1F
100
AcDbEntity
  8
0
  6
Continuous
 62
     7
370
    15
100
AcDbLine
 10
144.3321444874
 20
90.9065991776
 30
0.0
 11
144.3321444874
 21
91.111497414
 31
0.0
  0
LINE
  5
28D
330
1F
100
AcDbEntity
  8
0
  6
Continuous
 62
     7
370
    15
100
AcDbLine
 10
150.3721444874
 20
93.8807707142
 30
0.0
 11
150.3721444874
 21
87.1288453216
 31
0.0
  0
LINE
  5
28E
330
1F
100
AcDbEntity
  8
0
  6
Continuous
 62
     7
370
    15
100
AcDbLine
 10
134.5221444874
 20
93.8807707142
 30
0.0
 11
134.5221444874
 21
87.0593583581
 31
0.0
  0
LINE
  5
28F
330
1F
100
AcDbEntity
  8
0
  6
Continuous
 62
     7
370
    15
100
AcDbLine
 10
63.0721444874
 20
57.3022277611
 30
0.0
 11
63.0721444874
 21
80.1164889551
 31
0.0
  0
LINE
  5
290
330
1F
100
AcDbEntity
  8
0
  6
Continuous
 62
     7
370
     0
100
AcDbLine
 10
173.2503477177
 20
104.7093583581
 30
0.0
 11
173.2503477177
 21
32.7093583581
 31
0.0
  0
LINE
  5
291
330
1F
100
AcDbEntity
  8
0
  6
Continuous
 62
     7
370
     0
100
AcDbLine
 10
172.3843223139
 20
33.2093583581
 30
0.0
 11
172.3843223139
 21
104.2093583581
 31
0.0
  0
LINE
  5
292
330
1F
100
AcDbEntity
  8
0
  6
Continuous
 62
     7
370
     0
100
AcDbLine
 10
166.610819622
 20
94.2093583581
 30
0.0
 11
166.610819622
 21
43.2093583581
 31
0.0
  0
LINE
  5
293
330
1F
100
AcDbEntity
  8
0
  6
Continuous
 62
     7
370
     0
100
AcDbLine
 10
135.1221444874
 20
38.2612660095
 30
0.0
 11
135.1221444874
 21
87.0593583581
 31
0.0
  0
LINE
  5
294
330
1F
100
AcDbEntity
  8
0
  6
Continuous
 62
     7
370
     0
100
AcDbLine
 10
149.7721444874
 20
38.2612660095
 30
0.0
 11
149.7721444874
 21
87.0593583581
 31
0.0
  0
LINE
  5
295
330
1F
100
AcDbEntity
  8
0
  6
Continuous
 62
     7
370
     0
100
AcDbLine
 10
141.3121444874
 20
41.8915005018
 30
0.0
 11
141.3121444874
 21
87.0593583581
 31
0.0
  0
LINE
  5
296
330
1F
100
AcDbEntity
  8
0
  6
Continuous
 62
     7
370
     0
100
AcDbLine
 10
143.5321444874
 20
41.8915005018
 30
0.0
 11
143.5321444874
 21
87.0593583581
 31
0.0
  0
LINE
  5
297
330
1F
100
AcDbEntity
  8
0
  6
Continuous
 62
     7
370
     0
100
AcDbLine
 10
151.3721444874
 20
45.0197509321
 30
0.0
 11
151.3721444874
 21
93.5093583581
 31
0.0
  0
LINE
  5
298
330
1F
100
AcDbEntity
  8
0
  6
Continuous
 62
     7
370
     0
100
AcDbLine
 10
165.7447942182
 20
43.7093583581
 30
0.0
 11
165.7447942182
 21
93.7093583581
 31
0.0
  0
LINE
  5
299
330
1F
100
AcDbEntity
  8
0
  6
Continuous
 62
     7
370
     0
100
AcDbLine
 10
133.9221444874
 20
46.4843583581
 30
0.0
 11
133.9221444874
 21
90.9343583581
 31
0.0
  0
LINE
  5
29A
330
1F
100
AcDbEntity
  8
0
  6
Continuous
 62
     7
370
     0
100
AcDbLine
 10
63.9278375944
 20
56.31269478
 30
0.0
 11
63.9278375944
 21
81.1060219362
 31
0.0
  0
LINE
  5
29B
330
1F
100
AcDbEntity
  8
0
  6
Continuous
 62
     7
370
     0
100
AcDbLine
 10
150.3721444874
 20
87.1288453216
 30
0.0
 11
150.3721444874
 21
87.0593583581
 31
0.0
  0
LINE
  5
29C
330
1F
100
AcDbEntity
  8
0
  6
Continuous
 62
     7
370
     0
100
AcDbLine
 10
149.7721444874
 20
94.6195879981
 30
0.0
 11
149.7721444874
 21
99.2056944373
 31
0.0
  0
LINE
  5
29D
330
1F
100
AcDbEntity
  8
0
  6
Continuous
 62
     7
370
     0
100
AcDbLine
 10
135.1221444874
 20
94.6195879981
 30
0.0
 11
135.1221444874
 21
99.2056944373
 31
0.0
  0
LINE
  5
29E
330
1F
100
AcDbEntity
  8
0
  6
Continuous
 62
     7
370
     0
100
AcDbLine
 10
143.5321444874
 20
89.8582945016
 30
0.0
 11
143.5321444874
 21
95.5272162144
 31
0.0
  0
LINE
  5
29F
330
1F
100
AcDbEntity
  8
0
  6
Continuous
 62
     7
370
     0
100
AcDbLine
 10
141.3121444874
 20
89.8582945016
 30
0.0
 11
141.3121444874
 21
95.5272162144
 31
0.0
  0
CIRCLE
  5
2A0
330
1F
100
AcDbEntity
  8
0
  6
HIDDEN
 62
     7
370
     0
100
AcDbCircle
 10
190.8721444874
 20
68.7093583581
 30
0.0
 40
7.012850235103761
  0
CIRCLE
  5
2A1
330
1F
100
AcDbEntity
  8
0
  6
HIDDEN
 62
     7
370
     0
100
AcDbCircle
 10
190.8721444874
 20
68.7093583581
 30
0.0
 40
5.294716599621018
  0
CIRCLE
  5
2A2
330
1F
100
AcDbEntity
  8
0
  6
HIDDEN
 62
     7
370
     0
100
AcDbCircle
 10
190.8721444874
 20
68.7093583581
 30
0.0
 40
4.89471659962103
  0
CIRCLE
  5
2A3
330
1F
100
AcDbEntity
  8
0
  6
HIDDEN
 62
     7
370
     0
100
AcDbCircle
 10
190.8721444874
 20
68.7093583581
 30
0.0
 40
7.25
  0
LINE
  5
2A4
330
1F
100
AcDbEntity
  8
0
  6
HIDDEN
 62
     7
370
     0
100
AcDbLine
 10
209.6721444874
 20
92.7036560444
 30
0.0
 11
209.6721444874
 21
97.6009781677
 31
0.0
  0
SPLINE
  5
2A5
330
1F
100
AcDbEntity
  8
0
  6
HIDDEN
 62
     7
370
     0
100
AcDbSpline
210
0.0
220
0.0
230
1.0
 70
     8
 71
     3
 72
    16
 73
    12
 74
     0
 42
0.000000001
 43
0.00000001
 40
0.0
 40
0.0
 40
0.0
 40
0.0
 40
0.2499999999999985
 40
0.2499999999999985
 40
0.499999999999997
 40
0.499999999999997
 40
0.6249999999999973
 40
0.6249999999999973
 40
0.7499999999999977
 40
0.7499999999999977
 40
1.0
 40
1.0
 40
1.0
 40
1.0
 10
209.6721444874342
 20
88.62740196997213
 30
0.0
 10
209.8076490341266
 20
89.1757593362646
 30
0.0
 10
209.9114568108068
 20
89.69790481204824
 30
0.0
 10
210.0550566202423
 20
90.67985870270292
 30
0.0
 10
210.0910790013971
 20
91.11414751407077
 30
0.0
 10
210.0909797953613
 20
91.67188792294517
 30
0.0
 10
210.0817774647998
 20
91.8369209911892
 30
0.0
 10
210.0457157338157
 20
92.12701236654648
 30
0.0
 10
210.0186042607686
 20
92.252741989828
 30
0.0
 10
209.9109869788583
 20
92.56305562487738
 30
0.0
 10
209.8076372280773
 20
92.67737010635473
 30
0.0
 10
209.6721444874342
 20
92.70365604439738
 30
0.0
  0
LINE
  5
2A6
330
1F
100
AcDbEntity
  8
0
  6
HIDDEN
 62
     7
370
     0
100
AcDbLine
 10
209.6721444874
 20
48.7913147462
 30
0.0
 11
209.6721444874
 21
88.62740197
 31
0.0
  0
SPLINE
  5
2A7
330
1F
100
AcDbEntity
  8
0
  6
HIDDEN
 62
     7
370
     0
100
AcDbSpline
210
0.0
220
0.0
230
1.0
 70
     8
 71
     3
 72
    16
 73
    12
 74
     0
 42
0.000000001
 43
0.00000001
 40
0.0
 40
0.0
 40
0.0
 40
0.0
 40
0.2500000000000004
 40
0.2500000000000004
 40
0.5000000000000008
 40
0.5000000000000008
 40
0.6250000000000006
 40
0.6250000000000006
 40
0.7500000000000002
 40
0.7500000000000002
 40
1.0
 40
1.0
 40
1.0
 40
1.0
 10
209.6721444874342
 20
44.71506067180673
 30
0.0
 10
209.8076490341266
 20
44.74134890025312
 30
0.0
 10
209.9114568108068
 20
44.85609405856193
 30
0.0
 10
210.0550566202423
 20
45.27201337982384
 30
0.0
 10
210.0910790013971
 20
45.56264863748655
 30
0.0
 10
210.0909797953613
 20
46.12078314886819
 30
0.0
 10
210.0817774647998
 20
46.32240737232825
 30
0.0
 10
210.0457157338157
 20
46.75547515642916
 30
0.0
 10
210.0186042607686
 20
46.98858810531207
 30
0.0
 10
209.9109869788583
 20
47.72308602297845
 30
0.0
 10
209.8076372280773
 20
48.24300515644771
 30
0.0
 10
209.6721444874342
 20
48.79131474623195
 30
0.0
  0
LINE
  5
2A8
330
1F
100
AcDbEntity
  8
0
  6
HIDDEN
 62
     7
370
     0
100
AcDbLine
 10
209.6721444874
 20
39.8177385485
 30
0.0
 11
209.6721444874
 21
44.7150606718
 31
0.0
  0
LINE
  5
2A9
330
1F
100
AcDbEntity
  8
0
  6
HIDDEN
 62
     7
370
     0
100
AcDbLine
 10
205.3721444874
 20
57.7111766902
 30
0.0
 11
205.3721444874
 21
79.707540026
 31
0.0
  0
LINE
  5
2AA
330
1F
100
AcDbEntity
  8
0
  6
HIDDEN
 62
     7
370
     0
100
AcDbLine
 10
209.6721444874
 20
92.7036560444
 30
0.0
 11
209.6721444874
 21
92.5776239756
 31
0.0
  0
LINE
  5
2AB
330
1F
100
AcDbEntity
  8
0
  6
HIDDEN
 62
     7
370
     0
100
AcDbLine
 10
205.3721444874
 20
92.5776239756
 30
0.0
 11
209.6721444874
 21
92.5776239756
 31
0.0
  0
LINE
  5
2AC
330
1F
100
AcDbEntity
  8
0
  6
HIDDEN
 62
     7
370
     0
100
AcDbLine
 10
205.3721444874
 20
92.7093583581
 30
0.0
 11
205.3721444874
 21
87.5093583581
 31
0.0
  0
LINE
  5
2AD
330
1F
100
AcDbEntity
  8
0
  6
HIDDEN
 62
     7
370
     0
100
AcDbLine
 10
205.3721444874
 20
79.707540026
 30
0.0
 11
209.6721444874
 21
79.707540026
 31
0.0
  0
LINE
  5
2AE
330
1F
100
AcDbEntity
  8
0
  6
HIDDEN
 62
     7
370
     0
100
AcDbLine
 10
205.3721444874
 20
87.5093583581
 30
0.0
 11
205.3721444874
 21
79.707540026
 31
0.0
  0
LINE
  5
2AF
330
1F
100
AcDbEntity
  8
0
  6
HIDDEN
 62
     7
370
     0
100
AcDbLine
 10
209.6721444874
 20
57.7111766902
 30
0.0
 11
205.3721444874
 21
57.7111766902
 31
0.0
  0
LINE
  5
2B0
330
1F
100
AcDbEntity
  8
0
  6
HIDDEN
 62
     7
370
     0
100
AcDbLine
 10
205.3721444874
 20
57.7111766902
 30
0.0
 11
205.3721444874
 21
49.9093583581
 31
0.0
  0
LINE
  5
2B1
330
1F
100
AcDbEntity
  8
0
  6
HIDDEN
 62
     7
370
     0
100
AcDbLine
 10
205.3721444874
 20
44.8410927406
 30
0.0
 11
209.6721444874
 21
44.8410927406
 31
0.0
  0
LINE
  5
2B2
330
1F
100
AcDbEntity
  8
0
  6
HIDDEN
 62
     7
370
     0
100
AcDbLine
 10
209.6721444874
 20
44.8410927406
 30
0.0
 11
209.6721444874
 21
44.7150606718
 31
0.0
  0
LINE
  5
2B3
330
1F
100
AcDbEntity
  8
0
  6
HIDDEN
 62
     7
370
     0
100
AcDbLine
 10
205.3721444874
 20
49.9093583581
 30
0.0
 11
205.3721444874
 21
44.7093583581
 31
0.0
  0
LINE
  5
2B4
330
1F
100
AcDbEntity
  8
0
  6
HIDDEN
 62
     7
370
     0
100
AcDbLine
 10
203.8721444874
 20
48.7093583581
 30
0.0
 11
203.8721444874
 21
88.7093583581
 31
0.0
  0
LINE
  5
2B5
330
1F
100
AcDbEntity
  8
0
  6
HIDDEN
 62
     7
370
     0
100
AcDbLine
 10
169.4221444874
 20
49.0093583581
 30
0.0
 11
169.4221444874
 21
88.4093583569
 31
0.0
  0
LINE
  5
2B6
330
1F
100
AcDbEntity
  8
0
  6
HIDDEN
 62
     7
370
     0
100
AcDbLine
 10
171.9221444874
 20
48.7093583581
 30
0.0
 11
171.9221444874
 21
88.7093583581
 31
0.0
  0
LINE
  5
2B7
330
1F
100
AcDbEntity
  8
0
  6
HIDDEN
 62
     7
370
     0
100
AcDbLine
 10
205.3721444874
 20
96.7343583581
 30
0.0
 11
205.3721444874
 21
92.7093583581
 31
0.0
  0
LINE
  5
2B8
330
1F
100
AcDbEntity
  8
0
  6
HIDDEN
 62
     7
370
     0
100
AcDbLine
 10
205.3721444874
 20
44.7093583581
 30
0.0
 11
205.3721444874
 21
40.6843583581
 31
0.0
  0
LINE
  5
2B9
330
1F
100
AcDbEntity
  8
0
  6
HIDDEN
 62
     7
370
     0
100
AcDbLine
 10
134.5221444874
 20
93.5093583581
 30
0.0
 11
134.8594027876
 21
93.5093583581
 31
0.0
  0
ELLIPSE
  5
2BA
330
1F
100
AcDbEntity
  8
0
  6
HIDDEN
 62
     7
370
     0
100
AcDbEllipse
 10
134.8594027876
 20
95.1093583581
 30
0.0
 11
0.0
 21
1.59999999999998
 31
0.0
210
0.0
220
0.0
230
1.0
 40
0.4142135624
 41
3.141592653589793
 42
4.712388980384695
  0
ELLIPSE
  5
2BB
330
1F
100
AcDbEntity
  8
0
  6
HIDDEN
 62
     7
370
     0
100
AcDbEllipse
 10
134.8594027876
 20
44.5093583581
 30
0.0
 11
0.0
 21
1.599999999999994
 31
0.0
210
0.0
220
0.0
230
1.0
 40
0.4142135624
 41
4.712388980384695
 42
6.283185307179586
  0
LINE
  5
2BC
330
1F
100
AcDbEntity
  8
0
  6
HIDDEN
 62
     7
370
     0
100
AcDbLine
 10
134.8594027876
 20
46.1093583581
 30
0.0
 11
134.5221444874
 21
46.1093583581
 31
0.0
  0
LINE
  5
2BD
330
1F
100
AcDbEntity
  8
0
  6
HIDDEN
 62
     7
370
     0
100
AcDbLine
 10
135.5221444874
 20
38.8159100115
 30
0.0
 11
134.7382890288
 21
38.3576285086
 31
0.0
  0
LINE
  5
2BE
330
1F
100
AcDbEntity
  8
0
  6
HIDDEN
 62
     7
370
     0
100
AcDbLine
 10
134.8093860887
 20
99.1346549131
 30
0.0
 11
135.5221444874
 21
98.4218965144
 31
0.0
  0
LINE
  5
2BF
330
1F
100
AcDbEntity
  8
0
  6
HIDDEN
 62
     7
370
     0
100
AcDbLine
 10
70.0721444874
 20
60.2093583581
 30
0.0
 11
70.0721444874
 21
77.2093583581
 31
0.0
  0
LINE
  5
2C0
330
1F
100
AcDbEntity
  8
0
  6
HIDDEN
 62
     7
370
     0
100
AcDbLine
 10
73.0680737018
 20
61.7093583581
 30
0.0
 11
73.0680737018
 21
75.7093583581
 31
0.0
  0
LINE
  5
2C1
330
1F
100
AcDbEntity
  8
0
  6
HIDDEN
 62
     7
370
     0
100
AcDbLine
 10
135.5221444874
 20
98.4218965144
 30
0.0
 11
139.4581898011
 21
98.4218965144
 31
0.0
  0
LINE
  5
2C2
330
1F
100
AcDbEntity
  8
0
  6
HIDDEN
 62
     7
370
     0
100
AcDbLine
 10
145.3860991737
 20
98.4218965144
 30
0.0
 11
150.3721444874
 21
98.4218965144
 31
0.0
  0
LINE
  5
2C3
330
1F
100
AcDbEntity
  8
0
  6
HIDDEN
 62
     7
370
     0
100
AcDbLine
 10
135.5221444874
 20
98.4218965144
 30
0.0
 11
135.5221444874
 21
95.1093583581
 31
0.0
  0
LINE
  5
2C4
330
1F
100
AcDbEntity
  8
0
  6
HIDDEN
 62
     7
370
     0
100
AcDbLine
 10
134.8594027876
 20
93.5093583581
 30
0.0
 11
150.4451048779
 21
93.5093583581
 31
0.0
  0
LINE
  5
2C5
330
1F
100
AcDbEntity
  8
0
  6
HIDDEN
 62
     7
370
     0
100
AcDbLine
 10
139.3573548837
 20
38.8159100115
 30
0.0
 11
135.5221444874
 21
38.8159100115
 31
0.0
  0
LINE
  5
2C6
330
1F
100
AcDbEntity
  8
0
  6
HIDDEN
 62
     7
370
     0
100
AcDbLine
 10
150.3721444874
 20
38.8159100115
 30
0.0
 11
145.4869340911
 21
38.8159100115
 31
0.0
  0
LINE
  5
2C7
330
1F
100
AcDbEntity
  8
0
  6
HIDDEN
 62
     7
370
     0
100
AcDbLine
 10
135.5221444874
 20
38.8159100115
 30
0.0
 11
135.5221444874
 21
44.5093583581
 31
0.0
  0
LINE
  5
2C8
330
1F
100
AcDbEntity
  8
0
  6
HIDDEN
 62
     7
370
     0
100
AcDbLine
 10
150.3721444874
 20
46.1093583581
 30
0.0
 11
134.8594027876
 21
46.1093583581
 31
0.0
  0
SPLINE
  5
2C9
330
1F
100
AcDbEntity
  8
0
  6
HIDDEN
 62
     7
370
     0
100
AcDbSpline
210
0.0
220
0.0
230
1.0
 70
    24
 71
     3
 72
    12
 73
     8
 74
     0
 42
0.000000001
 43
0.00000001
 40
0.0
 40
0.0
 40
0.0
 40
0.0
 40
0.25
 40
0.25
 40
0.5
 40
0.5
 40
1.0
 40
1.0
 40
1.0
 40
1.0
 10
151.1625767619824
 20
46.10935835810204
 30
0.0
 10
151.105815512637
 20
46.10935835810205
 30
0.0
 10
151.0484007006943
 20
46.10935835810204
 30
0.0
 10
150.9344340888518
 20
46.10935835810205
 30
0.0
 10
150.8775951686805
 20
46.10935835810204
 30
0.0
 10
150.7068495633155
 20
46.10935835810204
 30
0.0
 10
150.5927310602119
 20
46.10935835810204
 30
0.0
 10
150.477909921356
 20
46.10935835810204
 30
0.0
  0
LINE
  5
2CA
330
1F
100
AcDbEntity
  8
0
  6
HIDDEN
 62
     7
370
     0
100
AcDbLine
 10
150.4779099214
 20
46.1093583581
 30
0.0
 11
150.3721444874
 21
46.1093583581
 31
0.0
  0
LINE
  5
2CB
330
1F
100
AcDbEntity
  8
0
  6
HIDDEN
 62
     7
370
     0
100
AcDbLine
 10
106.0721444874
 20
61.7093583581
 30
0.0
 11
106.0721444874
 21
75.7093583581
 31
0.0
  0
LINE
  5
2CC
330
1F
100
AcDbEntity
  8
0
  6
HIDDEN
 62
     7
370
     0
100
AcDbLine
 10
107.7245111898
 20
64.4593583581
 30
0.0
 11
107.7245111898
 21
72.9593583581
 31
0.0
  0
SPLINE
  5
2CD
330
1F
100
AcDbEntity
  8
0
  6
HIDDEN
 62
     7
370
     0
100
AcDbSpline
210
0.0
220
0.0
230
1.0
 70
    24
 71
     3
 72
    12
 73
     8
 74
     0
 42
0.000000001
 43
0.00000001
 40
0.0
 40
0.0
 40
0.0
 40
0.0
 40
0.5000000000000013
 40
0.5000000000000013
 40
0.7500000000000007
 40
0.7500000000000007
 40
1.0
 40
1.0
 40
1.0
 40
1.0
 10
154.4136551215538
 20
46.10935835810204
 30
0.0
 10
153.9420639849691
 20
46.10935835810204
 30
0.0
 10
153.4361385277215
 20
46.10935835810204
 30
0.0
 10
152.6205395119652
 20
46.10935835810204
 30
0.0
 10
152.3372065301377
 20
46.10935835810204
 30
0.0
 10
151.757774773972
 20
46.10935835810204
 30
0.0
 10
151.4629368588198
 20
46.10935835810204
 30
0.0
 10
151.1625767619824
 20
46.10935835810204
 30
0.0
  0
LINE
  5
2CE
330
1F
100
AcDbEntity
  8
0
  6
HIDDEN
 62
     7
370
     0
100
AcDbLine
 10
156.8221444874
 20
46.1093583581
 30
0.0
 11
154.4136551216
 21
46.1093583581
 31
0.0
  0
LINE
  5
2CF
330
1F
100
AcDbEntity
  8
0
  6
HIDDEN
 62
     7
370
     0
100
AcDbLine
 10
158.4221444874
 20
93.5093583581
 30
0.0
 11
157.7777167138
 21
93.5093583581
 31
0.0
  0
LINE
  5
2D0
330
1F
100
AcDbEntity
  8
0
  6
HIDDEN
 62
     7
370
     0
100
AcDbLine
 10
150.3721444874
 20
87.1288453216
 30
0.0
 11
150.3721444874
 21
87.0593583581
 31
0.0
  0
LINE
  5
2D1
330
1F
100
AcDbEntity
  8
0
  6
HIDDEN
 62
     7
370
     0
100
AcDbLine
 10
140.5121444874
 20
90.9065991776
 30
0.0
 11
140.5121444874
 21
87.0593583581
 31
0.0
  0
LINE
  5
2D2
330
1F
100
AcDbEntity
  8
0
  6
HIDDEN
 62
     7
370
     0
100
AcDbLine
 10
144.3321444874
 20
90.9065991776
 30
0.0
 11
144.3321444874
 21
87.0593583581
 31
0.0
  0
LINE
  5
2D3
330
1F
100
AcDbEntity
  8
0
  6
HIDDEN
 62
     7
370
     0
100
AcDbLine
 10
138.9003078454
 20
94.6195879981
 30
0.0
 11
138.9003078454
 21
87.0593583581
 31
0.0
  0
LINE
  5
2D4
330
1F
100
AcDbEntity
  8
0
  6
HIDDEN
 62
     7
370
     0
100
AcDbLine
 10
145.9439811295
 20
94.6195879981
 30
0.0
 11
145.9439811295
 21
87.0593583581
 31
0.0
  0
LINE
  5
2D5
330
1F
100
AcDbEntity
  8
0
  6
HIDDEN
 62
     7
370
     0
100
AcDbLine
 10
210.4221444874
 20
99.2093583581
 30
0.0
 11
209.6721444874
 21
97.6009781677
 31
0.0
  0
LINE
  5
2D6
330
1F
100
AcDbEntity
  8
0
  6
HIDDEN
 62
     7
370
     0
100
AcDbLine
 10
209.6721444874
 20
39.8177385485
 30
0.0
 11
210.4221444874
 21
38.2093583581
 31
0.0
  0
LINE
  5
2D7
330
1F
100
AcDbEntity
  8
0
  6
HIDDEN
 62
     7
370
     0
100
AcDbLine
 10
209.6721444874
 20
92.7093583581
 30
0.0
 11
205.3721444874
 21
92.7093583581
 31
0.0
  0
LINE
  5
2D8
330
1F
100
AcDbEntity
  8
0
  6
HIDDEN
 62
     7
370
     0
100
AcDbLine
 10
205.3721444874
 20
44.7093583581
 30
0.0
 11
209.6721444874
 21
44.7093583581
 31
0.0
  0
LINE
  5
2D9
330
1F
100
AcDbEntity
  8
0
  6
HIDDEN
 62
     7
370
     0
100
AcDbLine
 10
205.3721444874
 20
89.5753837619
 30
0.0
 11
203.8721444874
 21
88.7093583581
 31
0.0
  0
LINE
  5
2DA
330
1F
100
AcDbEntity
  8
0
  6
HIDDEN
 62
     7
370
     0
100
AcDbLine
 10
203.8721444874
 20
48.7093583581
 30
0.0
 11
205.3721444874
 21
47.8433329543
 31
0.0
  0
ARC
  5
2DB
330
1F
100
AcDbEntity
  8
0
  6
HIDDEN
 62
     7
370
     0
100
AcDbCircle
 10
170.0221444874
 20
49.0093583581
 30
0.0
 40
0.6000000000000014
100
AcDbArc
 50
180.0
 51
270.0
  0
ARC
  5
2DC
330
1F
100
AcDbEntity
  8
0
  6
HIDDEN
 62
     7
370
     0
100
AcDbCircle
 10
170.0221444874
 20
88.4093583581
 30
0.0
 40
0.6000000000000227
100
AcDbArc
 50
90.0
 51
180.0
  0
ARC
  5
2DD
330
1F
100
AcDbEntity
  8
0
  6
HIDDEN
 62
     7
370
     0
100
AcDbCircle
 10
170.7235377466
 20
49.0093583581
 30
0.0
 40
0.6000000000000014
100
AcDbArc
 50
270.0
 51
285.0
  0
ARC
  5
2DE
330
1F
100
AcDbEntity
  8
0
  6
HIDDEN
 62
     7
370
     0
100
AcDbCircle
 10
170.7235377466
 20
88.4093583581
 30
0.0
 40
0.6000000000000227
100
AcDbArc
 50
75.0
 51
90.0
  0
LINE
  5
2DF
330
1F
100
AcDbEntity
  8
0
  6
HIDDEN
 62
     7
370
     0
100
AcDbLine
 10
170.0221444874
 20
48.4093583581
 30
0.0
 11
170.7235377466
 21
48.4093583581
 31
0.0
  0
LINE
  5
2E0
330
1F
100
AcDbEntity
  8
0
  6
HIDDEN
 62
     7
370
     0
100
AcDbLine
 10
170.7235377466
 20
89.0093583581
 30
0.0
 11
170.0221444874
 21
89.0093583581
 31
0.0
  0
LINE
  5
2E1
330
1F
100
AcDbEntity
  8
0
  6
HIDDEN
 62
     7
370
     0
100
AcDbLine
 10
170.8788291737
 20
48.4298028623
 30
0.0
 11
171.9221444874
 21
48.7093583581
 31
0.0
  0
LINE
  5
2E2
330
1F
100
AcDbEntity
  8
0
  6
HIDDEN
 62
     7
370
     0
100
AcDbLine
 10
171.9221444874
 20
88.7093583581
 30
0.0
 11
170.8788291737
 21
88.9889138539
 31
0.0
  0
LINE
  5
2E3
330
1F
100
AcDbEntity
  8
0
  6
HIDDEN
 62
     7
370
     0
100
AcDbLine
 10
171.9221444874
 20
48.7093583581
 30
0.0
 11
203.8721444874
 21
48.7093583581
 31
0.0
  0
LINE
  5
2E4
330
1F
100
AcDbEntity
  8
0
  6
HIDDEN
 62
     7
370
     0
100
AcDbLine
 10
203.8721444874
 20
88.7093583581
 30
0.0
 11
171.9221444874
 21
88.7093583581
 31
0.0
  0
LINE
  5
2E5
330
1F
100
AcDbEntity
  8
0
  6
HIDDEN
 62
     7
370
     0
100
AcDbLine
 10
209.6721444874
 20
96.7343583581
 30
0.0
 11
205.3721444874
 21
96.7343583581
 31
0.0
  0
LINE
  5
2E6
330
1F
100
AcDbEntity
  8
0
  6
HIDDEN
 62
     7
370
     0
100
AcDbLine
 10
205.3721444874
 20
40.6843583581
 30
0.0
 11
209.6721444874
 21
40.6843583581
 31
0.0
  0
ARC
  5
2E7
330
1F
100
AcDbEntity
  8
0
  6
HIDDEN
 62
     7
370
     0
100
AcDbCircle
 10
63.8721444874
 20
59.4093583581
 30
0.0
 40
0.7999999999999972
100
AcDbArc
 50
90.0
 51
180.0
  0
ARC
  5
2E8
330
1F
100
AcDbEntity
  8
0
  6
HIDDEN
 62
     7
370
     0
100
AcDbCircle
 10
63.8721444874
 20
78.0093583581
 30
0.0
 40
0.7999999999999972
100
AcDbArc
 50
180.0
 51
270.0
  0
ARC
  5
2E9
330
1F
100
AcDbEntity
  8
0
  6
HIDDEN
 62
     7
370
     0
100
AcDbCircle
 10
71.8412043798
 20
60.3843583581
 30
0.0
 40
0.4000000000000208
100
AcDbArc
 50
270.0
 51
330.0
  0
ARC
  5
2EA
330
1F
100
AcDbEntity
  8
0
  6
HIDDEN
 62
     7
370
     0
100
AcDbCircle
 10
71.8412043798
 20
77.0343583581
 30
0.0
 40
0.4000000000000244
100
AcDbArc
 50
30.0
 51
90.0
  0
LINE
  5
2EB
330
1F
100
AcDbEntity
  8
0
  6
HIDDEN
 62
     7
370
     0
100
AcDbLine
 10
70.9645169182
 20
59.9843583581
 30
0.0
 11
71.8412043798
 21
59.9843583581
 31
0.0
  0
LINE
  5
2EC
330
1F
100
AcDbEntity
  8
0
  6
HIDDEN
 62
     7
370
     0
100
AcDbLine
 10
71.8412043798
 20
77.4343583581
 30
0.0
 11
70.9645169182
 21
77.4343583581
 31
0.0
  0
ARC
  5
2ED
330
1F
100
AcDbEntity
  8
0
  6
HIDDEN
 62
     7
370
     0
100
AcDbCircle
 10
70.9645169182
 20
60.3843583581
 30
0.0
 40
0.3999999999999986
100
AcDbArc
 50
255.0
 51
270.0
  0
ARC
  5
2EE
330
1F
100
AcDbEntity
  8
0
  6
HIDDEN
 62
     7
370
     0
100
AcDbCircle
 10
70.9645169182
 20
77.0343583581
 30
0.0
 40
0.4000000000000057
100
AcDbArc
 50
90.0
 51
105.0
  0
LINE
  5
2EF
330
1F
100
AcDbEntity
  8
0
  6
HIDDEN
 62
     7
370
     0
100
AcDbLine
 10
70.8609893001
 20
77.4207286886
 30
0.0
 11
70.0721444874
 21
77.2093583581
 31
0.0
  0
LINE
  5
2F0
330
1F
100
AcDbEntity
  8
0
  6
HIDDEN
 62
     7
370
     0
100
AcDbLine
 10
70.0721444874
 20
60.2093583581
 30
0.0
 11
70.8609893001
 21
59.9979880276
 31
0.0
  0
LINE
  5
2F1
330
1F
100
AcDbEntity
  8
0
  6
HIDDEN
 62
     7
370
     0
100
AcDbLine
 10
72.1876145413
 20
60.1843583581
 30
0.0
 11
73.0680737018
 21
61.7093583581
 31
0.0
  0
LINE
  5
2F2
330
1F
100
AcDbEntity
  8
0
  6
HIDDEN
 62
     7
370
     0
100
AcDbLine
 10
73.0680737018
 20
75.7093583581
 30
0.0
 11
72.1876145413
 21
77.2343583581
 31
0.0
  0
LINE
  5
2F3
330
1F
100
AcDbEntity
  8
0
  6
HIDDEN
 62
     7
370
     0
100
AcDbLine
 10
63.8721444874
 20
60.2093583581
 30
0.0
 11
70.0721444874
 21
60.2093583581
 31
0.0
  0
LINE
  5
2F4
330
1F
100
AcDbEntity
  8
0
  6
HIDDEN
 62
     7
370
     0
100
AcDbLine
 10
70.0721444874
 20
77.2093583581
 30
0.0
 11
63.8721444874
 21
77.2093583581
 31
0.0
  0
LINE
  5
2F5
330
1F
100
AcDbEntity
  8
0
  6
HIDDEN
 62
     7
370
     0
100
AcDbLine
 10
106.0721444874
 20
61.7093583581
 30
0.0
 11
107.7245111898
 21
64.4593583581
 31
0.0
  0
LINE
  5
2F6
330
1F
100
AcDbEntity
  8
0
  6
HIDDEN
 62
     7
370
     0
100
AcDbLine
 10
107.7245111898
 20
72.9593583581
 30
0.0
 11
106.0721444874
 21
75.7093583581
 31
0.0
  0
LINE
  5
2F7
330
1F
100
AcDbEntity
  8
0
  6
HIDDEN
 62
     7
370
     0
100
AcDbLine
 10
73.0680737018
 20
61.7093583581
 30
0.0
 11
106.0721444874
 21
61.7093583581
 31
0.0
  0
LINE
  5
2F8
330
1F
100
AcDbEntity
  8
0
  6
HIDDEN
 62
     7
370
     0
100
AcDbLine
 10
106.0721444874
 20
75.7093583581
 30
0.0
 11
73.0680737018
 21
75.7093583581
 31
0.0
  0
ARC
  5
2F9
330
1F
100
AcDbEntity
  8
0
  6
HIDDEN
 62
     7
370
     0
100
AcDbCircle
 10
156.8221444874
 20
44.5093583581
 30
0.0
 40
1.599999999999994
100
AcDbArc
 50
0.0
 51
90.0
  0
LINE
  5
2FA
330
1F
100
AcDbEntity
  8
0
  6
HIDDEN
 62
     7
370
     0
100
AcDbLine
 10
158.4221444874
 20
43.7093583581
 30
0.0
 11
158.4221444874
 21
44.5093583581
 31
0.0
  0
LINE
  5
2FB
330
1F
100
AcDbEntity
  8
0
  6
HIDDEN
 62
     7
370
     0
100
AcDbLine
 10
107.7245111898
 20
64.4593583581
 30
0.0
 11
169.4221444874
 21
64.4593583581
 31
0.0
  0
LINE
  5
2FC
330
1F
100
AcDbEntity
  8
0
  6
HIDDEN
 62
     7
370
     0
100
AcDbLine
 10
169.4221444874
 20
72.9593583581
 30
0.0
 11
107.7245111898
 21
72.9593583581
 31
0.0
  0
LINE
  5
2FD
330
1F
100
AcDbEntity
  8
0
  6
HIDDEN
 62
     7
370
     0
100
AcDbLine
 10
158.4221444874
 20
93.5093583581
 30
0.0
 11
158.4221444874
 21
93.7093583581
 31
0.0
  0
LINE
  5
2FE
330
1F
100
AcDbEntity
  8
0
  6
HIDDEN
 62
     7
370
     0
100
AcDbLine
 10
151.3721444874
 20
93.5093583581
 30
0.0
 11
151.3721444874
 21
45.0197509321
 31
0.0
  0
LINE
  5
2FF
330
1F
100
AcDbEntity
  8
0
  6
HIDDEN
 62
     7
370
     0
100
AcDbLine
 10
205.3721444874
 20
87.5093583581
 30
0.0
 11
209.6721444874
 21
87.5093583581
 31
0.0
  0
LINE
  5
300
330
1F
100
AcDbEntity
  8
0
  6
HIDDEN
 62
     7
370
     0
100
AcDbLine
 10
205.3721444874
 20
49.9093583581
 30
0.0
 11
209.6721444874
 21
49.9093583581
 31
0.0
  0
LINE
  5
301
330
1F
100
AcDbEntity
  8
0
  6
HIDDEN
 62
     7
370
     0
100
AcDbLine
 10
170.0221444874
 20
89.0093583581
 30
0.0
 11
170.0221444874
 21
48.4093583581
 31
0.0
  0
LINE
  5
302
330
1F
100
AcDbEntity
  8
0
  6
HIDDEN
 62
     7
370
     0
100
AcDbLine
 10
170.7235377466
 20
89.0093583581
 30
0.0
 11
170.7235377466
 21
48.4093583581
 31
0.0
  0
LINE
  5
303
330
1F
100
AcDbEntity
  8
0
  6
HIDDEN
 62
     7
370
     0
100
AcDbLine
 10
170.8788291737
 20
88.9889138539
 30
0.0
 11
170.8788291737
 21
48.4298028623
 31
0.0
  0
LINE
  5
304
330
1F
100
AcDbEntity
  8
0
  6
HIDDEN
 62
     7
370
     0
100
AcDbLine
 10
63.8721444874
 20
77.2093583581
 30
0.0
 11
63.8721444874
 21
60.2093583581
 31
0.0
  0
LINE
  5
305
330
1F
100
AcDbEntity
  8
0
  6
HIDDEN
 62
     7
370
     0
100
AcDbLine
 10
135.5221444874
 20
95.1093583581
 30
0.0
 11
134.5221444874
 21
95.1093583581
 31
0.0
  0
LINE
  5
306
330
1F
100
AcDbEntity
  8
0
  6
HIDDEN
 62
     7
370
     0
100
AcDbLine
 10
134.5221444874
 20
44.5093583581
 30
0.0
 11
135.5221444874
 21
44.5093583581
 31
0.0
  0
LINE
  5
307
330
1F
100
AcDbEntity
  8
0
  6
HIDDEN
 62
     7
370
     0
100
AcDbLine
 10
71.8412043798
 20
77.4343583581
 30
0.0
 11
71.8412043798
 21
59.9843583581
 31
0.0
  0
LINE
  5
308
330
1F
100
AcDbEntity
  8
0
  6
HIDDEN
 62
     7
370
     0
100
AcDbLine
 10
72.1876145413
 20
77.2343583581
 30
0.0
 11
72.1876145413
 21
60.1843583581
 31
0.0
  0
LINE
  5
309
330
1F
100
AcDbEntity
  8
0
  6
HIDDEN
 62
     7
370
     0
100
AcDbLine
 10
70.9645169182
 20
77.4343583581
 30
0.0
 11
70.9645169182
 21
59.9843583581
 31
0.0
  0
LINE
  5
30A
330
1F
100
AcDbEntity
  8
0
  6
HIDDEN
 62
     7
370
     0
100
AcDbLine
 10
70.8609893001
 20
77.4207286886
 30
0.0
 11
70.8609893001
 21
59.9979880276
 31
0.0
  0
LINE
  5
30B
330
1F
100
AcDbEntity
  8
0
  6
HIDDEN
 62
     7
370
     0
100
AcDbLine
 10
150.3721444874
 20
95.1093583581
 30
0.0
 11
135.5221444874
 21
95.1093583581
 31
0.0
  0
LINE
  5
30C
330
1F
100
AcDbEntity
  8
0
  6
HIDDEN
 62
     7
370
     0
100
AcDbLine
 10
135.5221444874
 20
44.5093583581
 30
0.0
 11
150.3721444874
 21
44.5093583581
 31
0.0
  0
ARC
  5
30D
330
1F
100
AcDbEntity
  8
0
  6
HIDDEN
 62
     7
370
     0
100
AcDbCircle
 10
149.4948489476
 20
45.2236417331
 30
0.0
 40
1.888335246362062
100
AcDbArc
 50
353.8014707459
 51
27.9724063794
  0
ARC
  5
30E
330
1F
100
AcDbEntity
  8
0
  6
HIDDEN
 62
     7
370
     0
100
AcDbCircle
 10
126.0908660768
 20
44.9092508037
 30
0.0
 40
24.41655515457328
100
AcDbArc
 50
359.0615722126
 51
2.8173021836
  0
LINE
  5
30F
330
1F
100
AcDbEntity
  8
0
  6
HIDDEN
 62
     7
370
     0
100
AcDbLine
 10
150.3721444874
 20
44.5093583581
 30
0.0
 11
150.5041463081
 21
44.5093583581
 31
0.0
  0
LINE
  5
310
330
1F
100
AcDbEntity
  8
0
  6
HIDDEN
 62
     7
370
     0
100
AcDbLine
 10
155.4162003951
 20
44.5093583581
 30
0.0
 11
158.3955952202
 21
44.5093583581
 31
0.0
  0
LWPOLYLINE
  5
311
330
1F
100
AcDbEntity
  8
0
  6
HIDDEN
 62
     7
370
     0
100
AcDbPolyline
 90
        9
 70
   128
 43
0.0
 10
155.4162003951
 20
44.5093583581
 10
155.3969367688
 20
44.8215028733
 10
155.3398861802
 20
45.1216518499
 10
155.2472410515
 20
45.3982707309
 10
155.1225616829
 20
45.640729208
 10
154.9706394328
 20
45.8397097378
 10
154.7973125879
 20
45.9875656101
 10
154.6092420018
 20
46.0786148067
 10
154.4136551216
 20
46.1093583581
  0
LWPOLYLINE
  5
312
330
1F
100
AcDbEntity
  8
0
  6
HIDDEN
 62
     7
370
     0
100
AcDbPolyline
 90
        9
 70
   128
 43
0.0
 10
155.4162003951
 20
44.5093583581
 10
155.3969367688
 20
44.8215028733
 10
155.3398861802
 20
45.1216518499
 10
155.2472410515
 20
45.3982707309
 10
155.1225616829
 20
45.640729208
 10
154.9706394328
 20
45.8397097378
 10
154.7973125879
 20
45.9875656101
 10
154.6092420018
 20
46.0786148067
 10
154.4136551216
 20
46.1093583581
  0
LINE
  5
313
330
1F
100
AcDbEntity
  8
0
  6
HIDDEN
 62
     7
370
     0
100
AcDbLine
 10
141.3121444874
 20
95.5272162144
 30
0.0
 11
141.3121444874
 21
41.8915005018
 31
0.0
  0
LINE
  5
314
330
1F
100
AcDbEntity
  8
0
  6
HIDDEN
 62
     7
370
     0
100
AcDbLine
 10
143.5321444874
 20
95.5272162144
 30
0.0
 11
143.5321444874
 21
41.8915005018
 31
0.0
  0
LINE
  5
315
330
1F
100
AcDbEntity
  8
0
  6
HIDDEN
 62
     7
370
     0
100
AcDbLine
 10
149.7721444874
 20
99.2056944373
 30
0.0
 11
149.7721444874
 21
38.2612660095
 31
0.0
  0
LINE
  5
316
330
1F
100
AcDbEntity
  8
0
  6
HIDDEN
 62
     7
370
     0
100
AcDbLine
 10
135.1221444874
 20
99.2056944373
 30
0.0
 11
135.1221444874
 21
38.2612660095
 31
0.0
  0
LINE
  5
317
330
1F
100
AcDbEntity
  8
VERMASSUNG
  6
CENTERX2
 62
     7
370
     0
100
AcDbLine
 10
150.3721444874
 20
41.7093583634
 30
0.0
 11
150.3721444874
 21
46.5093583581
 31
0.0
  0
LINE
  5
318
330
1F
100
AcDbEntity
  8
VERMASSUNG
  6
CENTERX2
 62
     7
370
     0
100
AcDbLine
 10
150.3721444874
 20
95.7093582703
 30
0.0
 11
150.3721444874
 21
91.5093583581
 31
0.0
  0
LINE
  5
319
330
1F
100
AcDbEntity
  8
VERMASSUNG
  6
CENTERX2
 62
     7
370
     0
100
AcDbLine
 10
150.3721444874
 20
89.1080202913
 30
0.0
 11
150.3721444874
 21
85.066264937
 31
0.0
  0
LINE
  5
31A
330
1F
100
AcDbEntity
  8
VERMASSUNG
  6
CENTERX2
 62
     7
370
     0
100
AcDbLine
 10
203.3721444874
 20
87.5093583581
 30
0.0
 11
211.6721444874
 21
87.5093583581
 31
0.0
  0
LINE
  5
31B
330
1F
100
AcDbEntity
  8
VERMASSUNG
  6
CENTERX2
 62
     7
370
     0
100
AcDbLine
 10
203.3721444874
 20
49.9093583581
 30
0.0
 11
211.6721444874
 21
49.9093583581
 31
0.0
  0
LINE
  5
31C
330
1F
100
AcDbEntity
  8
VERMASSUNG
  6
CENTERX2
 62
     7
370
     0
100
AcDbLine
 10
61.0721444874
 20
68.7093583581
 30
0.0
 11
212.4221444874
 21
68.7093583581
 31
0.0
  0
OLE2FRAME
  5
31D
330
1F
100
AcDbEntity
  8
0
100
AcDbOle2Frame
 70
     2
  3
Paintbrush-Bild
 10
13.8511154363
 20
38.264191557
 30
0.0
 11
51.6290888628
 21
31.9806341108
 31
0.0
 71
     2
 72
     0
 73
     1
 90
    12928
310
80552BED0767C5B32B40DDAF6807D121434000000000000000006FFBDDFB85D0
310
4940DDAF6807D121434000000000000000006FFBDDFB85D04940416F4BD60AFB
310
3F4000000000000000002BED0767C5B32B40416F4BD60AFB3F40000000000000
310
0000000000000100000000010000010000000100000000000100000000320000
310
D0CF11E0A1B11AE1000000000000000000000000000000003E000300FEFF0900
310
0600000000000000000000000100000001000000000000000010000002000000
310
01000000FEFFFFFF0000000000000000FFFFFFFFFFFFFFFFFFFFFFFFFFFFFFFF
310
FFFFFFFFFFFFFFFFFFFFFFFFFFFFFFFFFFFFFFFFFFFFFFFFFFFFFFFFFFFFFFFF
310
FFFFFFFFFFFFFFFFFFFFFFFFFFFFFFFFFFFFFFFFFFFFFFFFFFFFFFFFFFFFFFFF
310
FFFFFFFFFFFFFFFFFFFFFFFFFFFFFFFFFFFFFFFFFFFFFFFFFFFFFFFFFFFFFFFF
310
FFFFFFFFFFFFFFFFFFFFFFFFFFFFFFFFFFFFFFFFFFFFFFFFFFFFFFFFFFFFFFFF
310
FFFFFFFFFFFFFFFFFFFFFFFFFFFFFFFFFFFFFFFFFFFFFFFFFFFFFFFFFFFFFFFF
310
FFFFFFFFFFFFFFFFFFFFFFFFFFFFFFFFFFFFFFFFFFFFFFFFFFFFFFFFFFFFFFFF
310
FFFFFFFFFFFFFFFFFFFFFFFFFFFFFFFFFFFFFFFFFFFFFFFFFFFFFFFFFFFFFFFF
310
FFFFFFFFFFFFFFFFFFFFFFFFFFFFFFFFFFFFFFFFFFFFFFFFFFFFFFFFFFFFFFFF
310
FFFFFFFFFFFFFFFFFFFFFFFFFFFFFFFFFFFFFFFFFFFFFFFFFFFFFFFFFFFFFFFF
310
FFFFFFFFFFFFFFFFFFFFFFFFFFFFFFFFFFFFFFFFFFFFFFFFFFFFFFFFFFFFFFFF
310
FFFFFFFFFFFFFFFFFFFFFFFFFFFFFFFFFFFFFFFFFFFFFFFFFFFFFFFFFFFFFFFF
310
FFFFFFFFFFFFFFFFFFFFFFFFFFFFFFFFFFFFFFFFFFFFFFFFFFFFFFFFFFFFFFFF
310
FFFFFFFFFFFFFFFFFFFFFFFFFFFFFFFFFFFFFFFFFFFFFFFFFFFFFFFFFFFFFFFF
310
FDFFFFFFFEFFFFFFFEFFFFFFFEFFFFFF05000000060000000700000008000000
310
090000000A0000000B0000000C0000000D0000000E0000000F00000010000000
310
11000000120000001300000014000000150000001600000017000000FEFFFFFF
310
FFFFFFFFFFFFFFFFFFFFFFFFFFFFFFFFFFFFFFFFFFFFFFFFFFFFFFFFFFFFFFFF
310
FFFFFFFFFFFFFFFFFFFFFFFFFFFFFFFFFFFFFFFFFFFFFFFFFFFFFFFFFFFFFFFF
310
FFFFFFFFFFFFFFFFFFFFFFFFFFFFFFFFFFFFFFFFFFFFFFFFFFFFFFFFFFFFFFFF
310
FFFFFFFFFFFFFFFFFFFFFFFFFFFFFFFFFFFFFFFFFFFFFFFFFFFFFFFFFFFFFFFF
310
FFFFFFFFFFFFFFFFFFFFFFFFFFFFFFFFFFFFFFFFFFFFFFFFFFFFFFFFFFFFFFFF
310
FFFFFFFFFFFFFFFFFFFFFFFFFFFFFFFFFFFFFFFFFFFFFFFFFFFFFFFFFFFFFFFF
310
FFFFFFFFFFFFFFFFFFFFFFFFFFFFFFFFFFFFFFFFFFFFFFFFFFFFFFFFFFFFFFFF
310
FFFFFFFFFFFFFFFFFFFFFFFFFFFFFFFFFFFFFFFFFFFFFFFFFFFFFFFFFFFFFFFF
310
FFFFFFFFFFFFFFFFFFFFFFFFFFFFFFFFFFFFFFFFFFFFFFFFFFFFFFFFFFFFFFFF
310
FFFFFFFFFFFFFFFFFFFFFFFFFFFFFFFFFFFFFFFFFFFFFFFFFFFFFFFFFFFFFFFF
310
FFFFFFFFFFFFFFFFFFFFFFFFFFFFFFFFFFFFFFFFFFFFFFFFFFFFFFFFFFFFFFFF
310
FFFFFFFFFFFFFFFFFFFFFFFFFFFFFFFFFFFFFFFFFFFFFFFFFFFFFFFFFFFFFFFF
310
FFFFFFFFFFFFFFFFFFFFFFFFFFFFFFFFFFFFFFFFFFFFFFFFFFFFFFFFFFFFFFFF
310
52006F006F007400200045006E00740072007900000000000000000000000000
310
0000000000000000000000000000000000000000000000000000000000000000
310
16000500FFFFFFFFFFFFFFFF020000000A00030000000000C000000000000046
310
000000000000000000000000F061D939D2FED10103000000C000000000000000
310
01004F006C006500000000000000000000000000000000000000000000000000
310
0000000000000000000000000000000000000000000000000000000000000000
310
0A000200FFFFFFFFFFFFFFFFFFFFFFFF00000000000000000000000000000000
310
0000000000000000000000000000000000000000000000001400000000000000
310
010043006F006D0070004F0062006A0000000000000000000000000000000000
310
0000000000000000000000000000000000000000000000000000000000000000
310
120002010100000003000000FFFFFFFF00000000000000000000000000000000
310
0000000000000000000000000000000000000000010000004D00000000000000
310
01004F006C006500310030004E00610074006900760065000000000000000000
310
0000000000000000000000000000000000000000000000000000000000000000
310
1A000200FFFFFFFFFFFFFFFFFFFFFFFF00000000000000000000000000000000
310
0000000000000000000000000000000000000000040000002426000000000000
310
FEFFFFFF02000000FEFFFFFFFFFFFFFFFFFFFFFFFFFFFFFFFFFFFFFFFFFFFFFF
310
FFFFFFFFFFFFFFFFFFFFFFFFFFFFFFFFFFFFFFFFFFFFFFFFFFFFFFFFFFFFFFFF
310
FFFFFFFFFFFFFFFFFFFFFFFFFFFFFFFFFFFFFFFFFFFFFFFFFFFFFFFFFFFFFFFF
310
FFFFFFFFFFFFFFFFFFFFFFFFFFFFFFFFFFFFFFFFFFFFFFFFFFFFFFFFFFFFFFFF
310
FFFFFFFFFFFFFFFFFFFFFFFFFFFFFFFFFFFFFFFFFFFFFFFFFFFFFFFFFFFFFFFF
310
FFFFFFFFFFFFFFFFFFFFFFFFFFFFFFFFFFFFFFFFFFFFFFFFFFFFFFFFFFFFFFFF
310
FFFFFFFFFFFFFFFFFFFFFFFFFFFFFFFFFFFFFFFFFFFFFFFFFFFFFFFFFFFFFFFF
310
FFFFFFFFFFFFFFFFFFFFFFFFFFFFFFFFFFFFFFFFFFFFFFFFFFFFFFFFFFFFFFFF
310
FFFFFFFFFFFFFFFFFFFFFFFFFFFFFFFFFFFFFFFFFFFFFFFFFFFFFFFFFFFFFFFF
310
FFFFFFFFFFFFFFFFFFFFFFFFFFFFFFFFFFFFFFFFFFFFFFFFFFFFFFFFFFFFFFFF
310
FFFFFFFFFFFFFFFFFFFFFFFFFFFFFFFFFFFFFFFFFFFFFFFFFFFFFFFFFFFFFFFF
310
FFFFFFFFFFFFFFFFFFFFFFFFFFFFFFFFFFFFFFFFFFFFFFFFFFFFFFFFFFFFFFFF
310
FFFFFFFFFFFFFFFFFFFFFFFFFFFFFFFFFFFFFFFFFFFFFFFFFFFFFFFFFFFFFFFF
310
FFFFFFFFFFFFFFFFFFFFFFFFFFFFFFFFFFFFFFFFFFFFFFFFFFFFFFFFFFFFFFFF
310
FFFFFFFFFFFFFFFFFFFFFFFFFFFFFFFFFFFFFFFFFFFFFFFFFFFFFFFFFFFFFFFF
310
FFFFFFFFFFFFFFFFFFFFFFFFFFFFFFFFFFFFFFFFFFFFFFFFFFFFFFFFFFFFFFFF
310
0100000200000000000000000000000000000000000000000000000000000000
310
0000000000000000000000000000000000000000000000000000000000000000
310
0100FEFF030A0000FFFFFFFF0A00030000000000C00000000000004607000000
310
5042727573680007000000504272757368000700000050427275736800F439B2
310
7100000000000000000000000000000000000000000000000000000000000000
310
0000000000000000000000000000000000000000000000000000000000000000
310
0000000000000000000000000000000000000000000000000000000000000000
310
0000000000000000000000000000000000000000000000000000000000000000
310
0000000000000000000000000000000000000000000000000000000000000000
310
0000000000000000000000000000000000000000000000000000000000000000
310
0000000000000000000000000000000000000000000000000000000000000000
310
0000000000000000000000000000000000000000000000000000000000000000
310
0000000000000000000000000000000000000000000000000000000000000000
310
0000000000000000000000000000000000000000000000000000000000000000
310
0000000000000000000000000000000000000000000000000000000000000000
310
0000000000000000000000000000000000000000000000000000000000000000
310
20260000424D0E260000000000003E00000028000000B40200006E0000000100
310
01000000000000000000130B0000130B00000200000002000000000000FFFFFF
310
FFFFFFFFFFFFFFFFFFFFFFFFFFFFFFFFFFFFFFFFFFFFFFFFFFFFFFFFFFFFFFFF
310
FFFFFFFFFFFFFFFFFFFFFFFFFFFFFFFFFFFFFFFFFFFFFFFFFFFFFFFFFFFFFFFF
310
FFFFFFFFFFFFFFFFFFFFFFFFFFFFFFFFFFFFFFFFFFFFFFFFF000FFFFFFFFFFFF
310
FFFFFFFFFFFFFFFFFFFFFFFFFFFFFFFFFFFFFFFFFFFFFFFFFFFFFFFFFFFFFFFF
310
FFFFFFFFFFFFFFFFFFFFFFFFFFFFFFFFFFFFFFFFFFFFFFFFFFFFFFFFFFFFFFFF
310
FFFFFFFFFFFFFFFFFFFFFFFFFFFFFFFFF000FFFFFFFFFFFFFFFFFFFFFFFFFFFF
310
FFFFFFFFFFFFFFFFFFFFFFFFFFFFFFFFFFFFFFFFFFFFFFFFFFFFFFFFFFFFFFFF
310
FFFFFFFFFFFFFFFFFFFFFFFFFFFFFFFFFFFFFFFFFFFFFFFFFFFFFFFFFFFFFFFF
310
FFFFFFFFFFFFFFFFF000FFFFFFFFFFFFFFFFFFFFFFFFFFFFFFFFFFFFFFFFFFFF
310
FFFFFFFFFFFFFFFFFFFFFFFFFFFFFFFFFFFFFFFFFFFFFFFFFFFFFFFFFFFFFFFF
310
FFFFFFFFFFFFFFFFFFFFFFFFFFFFFFFFFFFFFFFFFFFFFFFFFFFFFFFFFFFFFFFF
310
F000FFFFFFFFFFFFFFFFFFFFFFFFFFFFFFFFFFFFFFFFFFFFFFFFFFFFFFFFFFFF
310
FFFFFFFFFFFFFFFFFFFFFFFFFFFFFFFFFFFFFFFFFFFFFFFFFFFFFFFFFFFFFFFF
310
FFFFFFFFFFFFFFFFFFFFFFFFFFFFFFFFFFFFFFFFFFFFFFFFF000FFFFFFFFFFFF
310
FFFFFFFFFFFFFFFFFFFFFFFFFFFFFFFFFFFFFFFFFFFFFFFFFFFFFFFFFFFFFFFF
310
FFFFFFFFFFFFFFFFFFFFFFFFFFFFFFFFFFFFFFFFFFFFFFFFFFFFFFFFFFFFFFFF
310
FFFFFFFFFFFFFFFFFFFFFFFFFFFFFFFFF000FFFFFFFFFFFFFFFFFFFFFFFFFFFF
310
FFFFFFFFFFFFFFFFFFFFFFFFFFFFFFFFFFFFFFFFFFFFFFFFFFFFFFFFFFFFFFFF
310
FFFFFFFFFFFFFFFFFFFFFFFFFFFFFFFFFFFFFFFFFFFFFFFFFFFFFFFFFFFFFFFF
310
FFFFFFFFFFFFFFFFF000FFFFFFFFFFFFFFFFFFFFFFFFFFFFFFFFFFFFFFFFFFFF
310
FFFFFFFFFFFFFFFFFFFFFFFFFFFFFFFFFFFFFFFFFFFFFFFFFFFFFFFFFFFFFFFF
310
FFFFFFFFFFFFFFFFFFFFFFFFFFFFFFFFFFFFFFFFFFFFFFFFFFFFFFFFFFFFFFFF
310
F000FFFFFFFFFFFFFFFFFFFFFFFFFFFFFFFFFFFFFFFFFFFFFFFFFFFFFFFFFFFF
310
FFFFFFFFFFFFFFFFFFFFFFFFFFFFFFFFFFFFFFFFFFFFFFFFFFFFFFFFFFFFFFFF
310
FFFFFFFFFFFFFFFFFFFFFFFFFFFFFFFFFFFFFFFFFFFFFFFFF000FFFFFFFFFFFF
310
FFFFFFFFFFFFFFFFFFFFFFFFFFFFFFFFFFFFFFFFFFFFFFFFFFFFFFFFFFFFFFFF
310
FFFFFFFFFFFFFFFFFFFFFFFFFFFFFFFFFFFFFFFFFFFFFFFFFFFFFFFFFFFFFFFF
310
FFFFFFFFFFFFFFFFFFFFFFFFFFFFFFFFF000FFFFFFFFFFFFFFFFFFFFFFFFFFFF
310
FFFFFFFFFFFFFFFFFFFFFFFFFFFFFFFFFFFFFFFFFFFFFFFFFFFFFFFFFFFFFFFF
310
FFFFFFFFFFFFFFFFFFFFFFFFFFFFFFFFFFFFFFFFFFFFFFFFFFFFFFFFFFFFFFFF
310
FFFFFFFFFFFFFFFFF000FFFFFFFFFFFFFFFFFFFFFFFFFFFFFFFFFFFFFFFFFFFF
310
FFFFFFFFFFFFFFFFFFFFFFFFFFFFFFFFFFFFFFFFFFFFFFFFFFFFFFFFFFFFFFFF
310
FFFFFFFFFFFFFFFFFFFFFFFFFFFFFFFFFFFFFFFFFFFFFFFFFFFFFFFFFFFFFFFF
310
F000FFFFFFFFFFFFFFFFFFFFFFFFFFFFFFFFFFFFFFFFFFFFFFFFFFFFFFFFFFFF
310
FFFFFFFFFFFFFFFFFFFFFFFFFFFFFFFFFFFFFFFFFFFFFFFFFFFFFFFFFFFFFFFF
310
FFFFFFFFFFFFFFFFFFFFFFFFFFFFFFFFFFFFFFFFFFFFFFFFF000FFFFFFFFFFFF
310
FFFFFFFFFFFFFFFFFFFFFFFFFFFFFFFFFFFFFFFFFFFFFFFFFFFFFFFFFFFFFFFF
310
FFFFFFFFFFFFFFFFFFFFFFFFFFFFFFFFFFFFFFFFFFFFFFFFFFFFFFFFFFFFFFFF
310
FFFFFFFFFFFFFFFFFFFFFFFFFFFFFFFFF000FFFFFFFFFFFFFFFFFFFFFFFFFFFF
310
FFFFFFFFFFFFFFFFFFFFFFFFFFFFFFFFFFFFFFFFFFFFFFFFFFFFFFFFFFFFFFFF
310
FFFFFFFFFFFFFFFFFFFFFFFFFFFFFFFFFFFFFFFFFFFFFFFFFFFFFFFFFFFFFFFF
310
FFFFFFFFFFFFFFFFF000FFFFFFFFFFFFFFFFFFFFFFFFFFFFFFFFFFFFFFFFFFFF
310
FFFFFFFFFFFFFFFFFFFFFFFFFFFFFFFFFFFFFFFFFFFFFFFFFFFFFFFFFFFFFFFF
310
FFFFFFFFFFFFFFFFFFFFFFFFFFFFFFFFFFFFFFFFFFFFFFFFFFFFFFFFFFFFFFFF
310
F000FFFFFFFFFFFFFFFFFFFFFFFFFFFFFFFFFFFFFFFFFFFFFFFFFFFFFFFFFFFF
310
FFFFFFFFFFFFFFFFFFFFFFFFFFFFFFFFFFFFFFFFFFFFFFFFFFFFFFFFFFFFFFFF
310
FFFFFFFFFFFFFFFFFFFFFFFFFFFFFFFFFFFFFFFFFFFFFFFFF000FFFFFFFFFFFF
310
FFFFFFFFFFFFFFFFFFFFFFFFFFFFFFFFFFFFFFFFFFFFFFFFFFFFFFFFFFFFFFFF
310
FFFFFFFFFFFFFFFFFFFFFFFFFFFFFFFFFFFFFFFFFFFFFFFFFFFFFFFFFFFFFFFF
310
FFFFFFFFFFFFFFFFFFFFFFFFFFFFFFFFF000FFFFFFFFFFFFFFFFFFFFFFFFFFFF
310
FFFFFFFFFFFFFFFFFFFFFFFFFFFFFFFFFFFFFFFFFFFFFFFFFFFFFFFFFFFFFFFF
310
FFFFFFFFFFFFFFFFFFFFFFFFFFFFFFFFFFFFFFFFFFFFFFFFFFFFFFFFFFFFFFFF
310
FFFFFFFFFFFFFFFFF000FFFFF80003FFFFFFFFFFFFFFFFFFFFFFFFFFFFFFFFFF
310
FFFFF00007FFFFFFFFFF00007FFFFFF800000000000000007FFFFFFFFFFFFFFF
310
FFFFFFFC001FFFFFFFFFFFFFFC001FFFFFFFFFFFFFFFFFFFFFFFFFFE0007FFFF
310
F000FFFF8000007FFFFFFFF8000FFFFFC0007FFFFF80007FFFFF0000007FFFFF
310
FFF8000007FFFFF800000000000000007FFFFFF0001FFFFFFFFFFFC00001FFFF
310
FFFFFFFFC00001FFFFFFFF000000000003FFFFE000007FFFF000FFFE0000000F
310
FFFFFFF0000FFFFF80007FFFFF80007FFFFC0000001FFFFFFFC0000001FFFFF8
310
00000000000000007FFFFFF0001FFFFFFFFFFE0000003FFFFFFFFFFE0000003F
310
FFFFFF000000000003FFFF0000000FFFF000FFF800000003FFFFFFF00007FFFF
310
80007FFFFF80007FFFF000000007FFFFFF000000003FFFF80000000000000000
310
7FFFFFF0001FFFFFFFFFF80000000FFFFFFFFFF80000000FFFFFFF0000000000
310
03FFFC00000003FFF000FFE000000000FFFFFFF00007FFFF80003FFFFF80007F
310
FFC000000001FFFFFC000000001FFFF800000000000000007FFFFFF0001FFFFF
310
FFFFE000000003FFFFFFFFE000000003FFFFFF000000000003FFF000000000FF
310
F000FF80000000007FFFFFF00007FFFF80003FFFFF80007FFF8000000000FFFF
310
F80000000007FFF800000000000000007FFFFFF0001FFFFFFFFFC000000001FF
310
FFFFFFC000000001FFFFFF000000000003FFC0000000007FF000FF0000000000
310
3FFFFFE00007FFFF00003FFFFF80007FFE00000000003FFFF00000000003FFF8
310
00000000000000007FFFFFF0001FFFFFFFFF8000000000FFFFFFFF8000000000
310
FFFFFF000000000003FF80000000003FF000FE00000000001FFFFFE00003FFFF
310
00003FFFFF80007FFC00000000001FFFE00000000001FFF8000001FFFE000000
310
7FFFFFF0001FFFFFFFFE00000000003FFFFFFE00000000003FFFFF0000000000
310
03FF00000000001FF000FC00000000000FFFFFE00003FFFF00001FFFFF80007F
310
F800000000001FFFC00000000000FFF8000001FFFE0000007FFFFFF0001FFFFF
310
FFFC00000000001FFFFFFC00000000001FFFFF000000000003FE00000000000F
310
F000F8000000000007FFFFE00003FFFF00001FFFFF80007FF800000000000FFF
310
800000000000FFF8000001FFFE0000007FFFFFF0001FFFFFFFF800000000000F
310
FFFFF800000000000FFFFF000000000003FC000000000007F000F80000000000
310
03FFFFC00003FFFE00001FFFFF80007FF0000000000007FF0000000000007FF8
310
000001FFFE0000007FFFFFF0001FFFFFFFF0000000000007FFFFF00000000000
310
07FFFF000000000003F8000000000003F000F0000000000003FFFFC00001FFFE
310
00001FFFFF80007FE0000000000007FE0000000000003FF8000001FFFE000000
310
7FFFFFF0001FFFFFFFF0000000000007FFFFF0000000000007FFFF0000000000
310
03F800001F800003F000E00001FFF00001FFFFC00001FFFE00000FFFFF80007F
310
E00001FFE00003FE00001FFF00003FF8000001FFFE0000007FFFFFF0001FFFFF
310
FFE000003E000003FFFFE000003E000003FFFF000000000003F00001FFF80001
310
F000E00007FFFC0001FFFFC00001FFFE00000FFFFF80007FC0000FFFFC0003FC
310
0000FFFFC0001FF8000001FFFE0000007FFFFFF0001FFFFFFFC00003FFE00001
310
FFFFC00003FFE00001FFFF0001FFFFFFFFF00007FFFE0001F000E0000FFFFF00
310
00FFFF800001FFFC00000FFFFF80007FC0001FFFFE0001FC0001FFFFE0001FF8
310
000001FFFE0000007FFFFFF0001FFFFFFF80000FFFF80000FFFF80000FFFF800
310
00FFFF0003FFFFFFFFE0000FFFFF8000F000C0003FFFFF8000FFFF800000FFFC
310
000007FFFF80007F80003FFFFF0001FC0003FFFFF0001FF8000001FFFE000000
310
7FFFFFF0001FFFFFFF80003FFFFE0000FFFF80003FFFFE0000FFFF0003FFFFFF
310
FFE0003FFFFF8000F000C0003FFFFF8000FFFF800000FFFC000007FFFF80007F
310
80007FFFFF8001F80007FFFFF8000FF8000001FFFE0000007FFFFFF0001FFFFF
310
FF00007FFFFF00007FFF00007FFFFF00007FFF0003FFFFFFFFE0003FFFFFC000
310
F000C0007FFFFFC000FFFF000000FFFC000007FFFF80007F8000FFFFFF8000F8
310
000FFFFFF8000FF8000001FFFE0000007FFFFFF0001FFFFFFF0000FFFFFF8000
310
7FFF0000FFFFFF80007FFF0003FFFFFFFFC0007FFFFFC00070008000FFFFFFC0
310
00FFFF000000FFF8000007FFFF80007F8000FFFFFF8000F8000FFFFFF8000FF8
310
000001FFFE0000007FFFFFF0001FFFFFFE0001FFFFFFC0003FFE0001FFFFFFC0
310
003FFF0003FFFFFFFFC0007FFFFFE00070008000FFFFFFC0007FFF0000007FF8
310
000003FFFF80007F0001FFFFFF8000F8000FFFFFF8000FF8000001FFFE000000
310
7FFFFFF0001FFFFFFE0001FFFFFFC0003FFE0001FFFFFFC0003FFF0003FFFFFF
310
FFC000FFFFFFE00070008000FFFFFFC0007FFF0000007FF8000003FFFF80007F
310
0001FFFFFF8000F8001FFFFFF8000FF8000001FFFE0000007FFFFFF0001FFFFF
310
FE0003FFFFFFE0003FFE0003FFFFFFE0003FFF0003FFFFFFFFC000FFFFFFE000
310
70008000FFFFFFC0007FFE0000007FF8000003FFFF80007F0001FFFFFF8000F0
310
001FFFFFF8000FF8000001FFFE0000007FFFFFF0001FFFFFFC0003FFFFFFE000
310
1FFC0003FFFFFFE0001FFF0003FFFFFFFFC000FFFFFFC00070008000FFFFFF80
310
007FFE0000007FF0000003FFFF80007F0001FFFFFF0000F0001FFFFFF8000FF8
310
000001FFFE0000007FFFFFF0001FFFFFFC0007FFFFFFF0001FFC0007FFFFFFF0
310
001FFF0003FFFFFFFFC000FFFFFFC00070008001FFFFFF0000FFFE0000003FF0
310
000001FFFF80007F0001FFFFFF0000F8001FFFFFF0000FF8000001FFFE000000
310
7FFFFFF0001FFFFFFC0007FFFFFFF0001FFC0007FFFFFFF0001FFF0003FFFFFF
310
FFC001FFFFFF80007000FFFFFFFFFE0000FFFE0008003FF0008001FFFF80007F
310
FFFFFFFFFC0000FFFFFFFFFFE0000FF8000001FFFE0000007FFFFFF0001FFFFF
310
F8000FFFFFFFF8000FF8000FFFFFFFF8000FFF0003FFFFFFFFFFFFFFFFFF0000
310
7000FFFFFFFFFC0000FFFC0008003FF0008001FFFF80007FFFFFFFFFF80001FF
310
FFFFFFFF80000FF8000001FFFE0000007FFFFFF0001FFFFFF8000FFFFFFFF800
310
0FF8000FFFFFFFF8000FFF0003FFFFFFFFFFFFFFFFFE0000F000FFFFFFFFE000
310
00FFFC000C003FE000C001FFFF80007FFFFFFFFFC00001FFFFFFFFFE00001FF8
310
000001FFFE0000007FFFFFF0001FFFFFF8000FFFFFFFF8000FF8000FFFFFFFF8
310
000FFF0003FFFFFFFFFFFFFFFFF00000F000FFFFFFFE000001FFFC000C001FE0
310
00C000FFFF80007FFFFFFFFE000001FFFFFFFFE000001FF80FFFFFFFFFFFFFC0
310
7FFFFFF0001FFFFFF8000FFFFFFFF8000FF8000FFFFFFFF8000FFF0003FFFFFF
310
FFFFFFFFFF800000F000FFFFFFC0000001FFFC001C001FE001C000FFFF80007F
310
FFFFFF80000003FFFFFFF80000001FF80FFFFFFFFFFFFFC07FFFFFF0001FFFFF
310
F8001FFFFFFFFC000FF8001FFFFFFFFC000FFF0003FFFFFFFFFFFFFFF0000001
310
F000FFFFF800000001FFF8001C001FE001C000FFFF80007FFFFFF800000003FF
310
FFFF800000003FF80FFFFFFFFFFFFFC07FFFFFF0001FFFFFF8001FFFFFFFFC00
310
0FF8001FFFFFFFFC000FFF0003FFFFFFFFFFFFFE00000001F000FFFFC0000000
310
03FFF8001E001FC001E000FFFF80007FFFFF8000000007FFFFFC000000003FF8
310
0FFFFFFFFFFFFFC07FFFFFF0001FFFFFF8001FFFFFFFFC000FF8001FFFFFFFFC
310
000FFF0003FFFFFFFFFFFFE000000003F000FFFE0000000007FFF8001E000FC0
310
01E0007FFF80007FFFFE0000000007FFFFE0000000007FF80FFFFFFFFFFFFFC0
310
7FFFFFF0001FFFFFF0001FFFFFFFFC0007F0001FFFFFFFFC0007FF0003FFFFFF
310
FFFFFF0000000003F000FFF80000000007FFF8001E000FC003E0007FFF80007F
310
FFF0000000000FFFFF8000000000FFF80FFFFFFFFFFFFFC07FFFFFF0001FFFFF
310
F0001FFFFFFFFC0007F0001FFFFFFFFC0007FF0003FFFFFFFFFFFC0000000007
310
F000FFE0000000000FFFF0003E000FC003E0007FFF80007FFFC0000000001FFF
310
FE0000000001FFF80FFFFFFFFFFFFFC07FFFFFF0001FFFFFF0001FFFFFFFFC00
310
07F0001FFFFFFFFC0007FF0003FFFFFFFFFFF0000000000FF000FFC000000000
310
1FFFF0003F000F8003F0003FFF80007FFF80000000003FFFF80000000003FFF8
310
0FFFFFFFFFFFFFC07FFFFFF0001FFFFFF0001FFFFFFFFC0007F0001FFFFFFFFC
310
0007FF0003FFFFFFFFFFE0000000001FF000FF00000000007FFFF0003F000780
310
03F0003FFF80007FFF00000000007FFFF00000000007FFF80FFFFFFFFFFFFFC0
310
7FFFFFF0001FFFFFF0001FFFFFFFFC0007F0001FFFFFFFFC0007FF0003FFFFFF
310
FFFF80000000007FF000FE0000000000FFFFE0003F00078007F0003FFF80007F
310
FE0000000001FFFFE0000000001FFFF80FFFFFFFFFFFFFC07FFFFFF0001FFFFF
310
F0001FFFFFFFFC0007F0001FFFFFFFFC0007FF0003FFFFFFFFFF0000000000FF
310
F000FC0000000003FFFFE0007F00078007F0003FFF80007FFC0000000007FFFF
310
C0000000007FFFF80FFFFFFFFFFFFFC07FFFFFF0001FFFFFF8001FFFFFFFFC00
310
0FF8001FFFFFFFFC000FFF0003FFFFFFFFFE0000000003FFF000FC000000000F
310
FFFFE0007F80070007F8001FFF80007FF8000000001FFFFF8000000001FFFFF8
310
0FFFFFFFFFFFFFC07FFFFFF0001FFFFFF8001FFFFFFFFC000FF8001FFFFFFFFC
310
000FFF0003FFFFFFFFFC000000000FFFF000F8000000007FFFFFE0007F800700
310
07F8001FFF80007FF000000000FFFFFF800000000FFFFFF80FFFFFFFFFFFFFC0
310
7FFFFFF0001FFFFFF8000FFFFFFFF8000FF8000FFFFFFFF8000FFF0003FFFFFF
310
FFFC000000007FFFF000F800000007FFFFFFC0007F8003000FF8001FFF80007F
310
F000000007FFFFFF000000007FFFFFF80FFFFFFFFFFFFFC07FFFFFF0001FFFFF
310
F8000FFFFFFFF8000FF8000FFFFFFFF8000FFF0003FFFFFFFFF80000000FFFFF
310
F000F0000000FFFFFFFFC000FF8003000FF8001FFF80007FE0000000FFFFFFFF
310
0000000FFFFFFFF8000001FFFE0000007FFFFFF0001FFFFFF8000FFFFFFFF800
310
0FF8000FFFFFFFF8000FFF0003FFFFFFFFF8000000FFFFFFF000F000000FFFFF
310
FFFFC000FFC002000FF8000FFF80007FE000001FFFFFFFFE000001FFFFFFFFF8
310
000001FFFE0000007FFFFFF0001FFFFFF8000FFFFFFFF8000FF8000FFFFFFFF8
310
000FFF0003FFFFFFFFF000001FFFFFFFF000E00000FFFFFFFFFFC000FFC00200
310
0FFC000FFF80007FE00001FFFFFFFFFE00001FFFFFFFFFF8000001FFFE000000
310
7FFFFFF0001FFFFFFC000FFFFFFFF8001FFC000FFFFFFFF8001FFF0003FFFFFF
310
FFF00001FFFFFFFFF000E00007FFFFFFFFFF8000FFC000001FFC000FFF80007F
310
C0000FFFFFFFFFFE0000FFFFFFFFFFF8000001FFFE0000007FFFFFF0001FFFFF
310
FC0007FFFFFFF0001FFC0007FFFFFFF0001FFF0003FFFFFFFFF00007FFFFFFFF
310
F000E0001FFFFFFFFFFF8000FFC000001FFC000FFF80007FC0003FFFFFFFFFFE
310
0001FFFFFFFFFFF8000001FFFE0000007FFFFFF0001FFFFFFC0007FFFFFFF000
310
1FFC0007FFFFFFF0001FFF0003FFFFFFFFF0001FFFFFFFFFF000E0003FFFFF00
310
03FF8001FFE000001FFC0007FF80007FC0007FFFFF0007FC0003FFFFF0003FF8
310
000001FFFE0000007FFFFFF0001FFFFFFC0003FFFFFFE0001FFC0003FFFFFFE0
310
001FFF0003FFFFFFFFF0003FFFFFFFFFF000E0003FFFFF0001FF8001FFE00000
310
1FFE0007FF80007FC0007FFFFE0003FC0007FFFFE0003FF8000001FFFE000000
310
7FFFFFF0001FFFFFFE0003FFFFFFE0003FFE0003FFFFFFE0003FFF0003FFFFFF
310
FFF0003FFFFF8001F000E0003FFFFF0001FF0001FFE000001FFE0007FF80007F
310
C0007FFFFE0003FC0007FFFFE0003FF8000001FFFE0000007FFFFFF0001FFFFF
310
FE0001FFFFFFC0003FFE0001FFFFFFC0003FFF0003FFFFFFFFF0003FFFFF0001
310
F000E0003FFFFF0003FF0001FFE000003FFE0007FF80007FC0007FFFFE0003FC
310
0007FFFFE0003FF8000001FFFE0000007FFFFFF0001FFFFFFF0001FFFFFFC000
310
7FFF0001FFFFFFC0007FFF0003FFFFFFFFF0003FFFFF0001F000E0003FFFFE00
310
03FF0003FFF000003FFE0003FF80007FC0007FFFFC0003FE0007FFFFE0003FF8
310
000001FFFE0000007FFFFFF0001FFFFFFF0000FFFFFF80007FFF0000FFFFFF80
310
007FFF0003FFFFFFFFF0003FFFFF0001F000E0003FFFFE0003FF0003FFF00000
310
3FFF0003FF80007FC0007FFFFC0007FE0007FFFFC0003FF8000001FFFE000000
310
7FFFFFF0001FFFFFFF80007FFFFF0000FFFF80007FFFFF0000FFFF0003FFFFFF
310
FFF0003FFFFF0003F000E0003FFFFC0003FE0003FFF000003FFF0003FF80007F
310
E0003FFFF80007FE0003FFFFC0007FF8000001FFFE0000007FFFFFF0001FFFFF
310
FF80003FFFFE0000FFFF80003FFFFE0000FFFF0003FFFFFFFFF0001FFFFE0003
310
F000F0001FFFF80003FE0003FFF000007FFF0001FF80007FE0003FFFF00007FE
310
0001FFFF80007FF8000001FFFE0000007FFFFFF0001FFFFFFFC0000FFFF80001
310
FFFFC0000FFFF80001FFFF0003FFFFFFFFF0001FFFFC0003F000F0000FFFF000
310
07FE0007FFF800007FFF0001FF80007FE0001FFFE00007FF0000FFFE00007FF8
310
000001FFFE0000007FFFFFF0001FFFFFFFC00003FFE00001FFFFC00003FFE000
310
01FFFF0003FFFFFFFFF8000FFFF80003F000F00003FFC00007FC0007FFF80000
310
7FFF8001FF80007FF00007FF80000FFF00007FF80000FFF8000001FFFE000000
310
7F80000000000001FFE000003E000003FFFFE000003E000003FFFF0003FFFFFF
310
FFF80003FFE00007F000F800000000000FFC0007FFF800007FFF8001FF80007F
310
F000000000000FFF000000000000FFF8000001FFFE0000007F80000000000001
310
FFF0000000000007FFFFF0000000000007FFFF0003FFFFFFFFFC00007E000007
310
F000F800000000000FFC0007FFF80000FFFF8000FF80007FF800000000001FFF
310
800000000001FFF8000001FFFE0000007F80000000000001FFF800000000000F
310
FFFFF800000000000FFFFF0003FFFFFFFFFC00000000000FF000FC0000000000
310
1FFC0007FFFC0000FFFF8000FF80007FF800000000003FFFC00000000001FFF8
310
000001FFFE0000007F80000000000001FFF800000000000FFFFFF80000000000
310
0FFFFF0003FFFFFFFFFE00000000001FF000FE00000000003FF8000FFFFC0000
310
FFFF8000FF80007FFC00000000003FFFC00000000003FFF8000001FFFE000000
310
7F80000000000001FFFC00000000001FFFFFFC00000000001FFFFF0003FFFFFF
310
FFFF00000000001FF000FF00000000003FF8000FFFFC0000FFFFC000FF80007F
310
FE00000000007FFFE00000000007FFF8000001FFFE0000007F80000000000001
310
FFFE00000000003FFFFFFE00000000003FFFFF0003FFFFFFFFFF80000000003F
310
F000FF80000000007FF8000FFFFC0001FFFFC0007F80007FFF0000000000FFFF
310
F0000000000FFFF800000000000000007F80000000000001FFFF8000000000FF
310
FFFFFF8000000000FFFFFF0003FFFFFFFFFFC0000000007FF000FFC000000000
310
FFF8000FFFFE0001FFFFC0007F80007FFF8000000001FFFFF8000000001FFFF8
310
00000000000000007F80000000000001FFFFC000000001FFFFFFFFC000000001
310
FFFFFF0003FFFFFFFFFFE000000000FFF000FFE000000003FFF0001FFFFE0001
310
FFFFC0007F80007FFFC000000007FFFFFE000000003FFFF80000000000000000
310
7F80000000000001FFFFE000000003FFFFFFFFE000000003FFFFFF0003FFFFFF
310
FFFFF000000003FFF000FFF80000000FFFF0001FFFFE0001FFFFE0007F80007F
310
FFF00000000FFFFFFF00000000FFFFF800000000000000007F80000000000001
310
FFFFF80000000FFFFFFFFFF80000000FFFFFFF0003FFFFFFFFFFFC0000000FFF
310
F000FFFE0000003FFFF0001FFFFE0003FFFFE0003F80007FFFFC0000003FFFFF
310
FFC0000003FFFFF800000000000000007F80000000000001FFFFFE0000003FFF
310
FFFFFFFE0000003FFFFFFF0003FFFFFFFFFFFF0000003FFFF000FFFF800000FF
310
FFF0001FFFFF0003FFFFE0003F80007FFFFF000001FFFFFFFFF800001FFFFFF8
310
00000000000000007F80000000000001FFFFFFC00001FFFFFFFFFFFFC00001FF
310
FFFFFF0003FFFFFFFFFFFFC00000FFFFF000FFFFF8000FFFFFFFFFFFFFFFFFFF
310
FFFFFFFFFFFFFFFFFFFFF0001FFFFFFFFFFF0000FFFFFFF80000000000000000
310
7FFFFFFFFFFFFFFFFFFFFFFC001FFFFFFFFFFFFFFC001FFFFFFFFFFFFFFFFFFF
310
FFFFFFFC001FFFFFF000FFFFFFFFFFFFFFFFFFFFFFFFFFFFFFFFFFFFFFFFFFFF
310
FFFFFFFFFFFFFFFFFFFFFFFFFFFFFFFFFFFFFFFFFFFFFFFFFFFFFFFFFFFFFFFF
310
FFFFFFFFFFFFFFFFFFFFFFFFFFFFFFFFFFFFFFFFFFFFFFFFFFFFFFFFFFFFFFFF
310
F000FFFFFFFFFFFFFFFFFFFFFFFFFFFFFFFFFFFFFFFFFFFFFFFFFFFFFFFFFFFF
310
FFFFFFFFFFFFFFFFFFFFFFFFFFFFFFFFFFFFFFFFFFFFFFFFFFFFFFFFFFFFFFFF
310
FFFFFFFFFFFFFFFFFFFFFFFFFFFFFFFFFFFFFFFFFFFFFFFFF000FFFFFFFFFFFF
310
FFFFFFFFFFFFFFFFFFFFFFFFFFFFFFFFFFFFFFFFFFFFFFFFFFFFFFFFFFFFFFFF
310
FFFFFFFFFFFFFFFFFFFFFFFFFFFFFFFFFFFFFFFFFFFFFFFFFFFFFFFFFFFFFFFF
310
FFFFFFFFFFFFFFFFFFFFFFFFFFFFFFFFF000FFFFFFFFFFFFFFFFFFFFFFFFFFFF
310
FFFFFFFFFFFFFFFFFFFFFFFFFFFFFFFFFFFFFFFFFFFFFFFFFFFFFFFFFFFFFFFF
310
FFFFFFFFFFFFFFFFFFFFFFFFFFFFFFFFFFFFFFFFFFFFFFFFFFFFFFFFFFFFFFFF
310
FFFFFFFFFFFFFFFFF000FFFFFFFFFFFFFFFFFFFFFFFFFFFFFFFFFFFFFFFFFFFF
310
FFFFFFFFFFFFFFFFFFFFFFFFFFFFFFFFFFFFFFFFFFFFFFFFFFFFFFFFFFFFFFFF
310
FFFFFFFFFFFFFFFFFFFFFFFFFFFFFFFFFFFFFFFFFFFFFFFFFFFFFFFFFFFFFFFF
310
F000FFFFFFFFFFFFFFFFFFFFFFFFFFFFFFFFFFFFFFFFFFFFFFFFFFFFFFFFFFFF
310
FFFFFFFFFFFFFFFFFFFFFFFFFFFFFFFFFFFFFFFFFFFFFFFFFFFFFFFFFFFFFFFF
310
FFFFFFFFFFFFFFFFFFFFFFFFFFFFFFFFFFFFFFFFFFFFFFFFF000FFFFFFFFFFFF
310
FFFFFFFFFFFFFFFFFFFFFFFFFFFFFFFFFFFFFFFFFFFFFFFFFFFFFFFFFFFFFFFF
310
FFFFFFFFFFFFFFFFFFFFFFFFFFFFFFFFFFFFFFFFFFFFFFFFFFFFFFFFFFFFFFFF
310
FFFFFFFFFFFFFFFFFFFFFFFFFFFFFFFFF000FFFFFFFFFFFFFFFFFFFFFFFFFFFF
310
FFFFFFFFFFFFFFFFFFFFFFFFFFFFFFFFFFFFFFFFFFFFFFFFFFFFFFFFFFFFFFFF
310
FFFFFFFFFFFFFFFFFFFFFFFFFFFFFFFFFFFFFFFFFFFFFFFFFFFFFFFFFFFFFFFF
310
FFFFFFFFFFFFFFFFF000FFFFFFFFFFFFFFFFFFFFFFFFFFFFFFFFFFFFFFFFFFFF
310
FFFFFFFFFFFFFFFFFFFFFFFFFFFFFFFFFFFFFFFFFFFFFFFFFFFFFFFFFFFFFFFF
310
FFFFFFFFFFFFFFFFFFFFFFFFFFFFFFFFFFFFFFFFFFFFFFFFFFFFFFFFFFFFFFFF
310
F000FFFFFFFFFFFFFFFFFFFFFFFFFFFFFFFFFFFFFFFFFFFFFFFFFFFFFFFFFFFF
310
FFFFFFFFFFFFFFFFFFFFFFFFFFFFFFFFFFFFFFFFFFFFFFFFFFFFFFFFFFFFFFFF
310
FFFFFFFFFFFFFFFFFFFFFFFFFFFFFFFFFFFFFFFFFFFFFFFFF000FFFFFFFFFFFF
310
FFFFFFFFFFFFFFFFFFFFFFFFFFFFFFFFFFFFFFFFFFFFFFFFFFFFFFFFFFFFFFFF
310
FFFFFFFFFFFFFFFFFFFFFFFFFFFFFFFFFFFFFFFFFFFFFFFFFFFFFFFFFFFFFFFF
310
FFFFFFFFFFFFFFFFFFFFFFFFFFFFFFFFF000FFFFFFFFFFFFFFFFFFFFFFFFFFFF
310
FFFFFFFFFFFFFFFFFFFFFFFFFFFFFFFFFFFFFFFFFFFFFFFFFFFFFFFFFFFFFFFF
310
FFFFFFFFFFFFFFFFFFFFFFFFFFFFFFFFFFFFFFFFFFFFFFFFFFFFFFFFFFFFFFFF
310
FFFFFFFFFFFFFFFFF000FFFFFFFFFFFFFFFFFFFFFFFFFFFFFFFFFFFFFFFFFFFF
310
FFFFFFFFFFFFFFFFFFFFFFFFFFFFFFFFFFFFFFFFFFFFFFFFFFFFFFFFFFFFFFFF
310
FFFFFFFFFFFFFFFFFFFFFFFFFFFFFFFFFFFFFFFFFFFFFFFFFFFFFFFFFFFFFFFF
310
F000FFFFFFFFFFFFFFFFFFFFFFFFFFFFFFFFFFFFFFFFFFFFFFFFFFFFFFFFFFFF
310
FFFFFFFFFFFFFFFFFFFFFFFFFFFFFFFFFFFFFFFFFFFFFFFFFFFFFFFFFFFFFFFF
310
FFFFFFFFFFFFFFFFFFFFFFFFFFFFFFFFFFFFFFFFFFFFFFFFF000FFFFFFFFFFFF
310
FFFFFFFFFFFFFFFFFFFFFFFFFFFFFFFFFFFFFFFFFFFFFFFFFFFFFFFFFFFFFFFF
310
FFFFFFFFFFFFFFFFFFFFFFFFFFFFFFFFFFFFFFFFFFFFFFFFFFFFFFFFFFFFFFFF
310
FFFFFFFFFFFFFFFFFFFFFFFFFFFFFFFFF000FFFFFFFFFFFFFFFFFFFFFFFFFFFF
310
FFFFFFFFFFFFFFFFFFFFFFFFFFFFFFFFFFFFFFFFFFFFFFFFFFFFFFFFFFFFFFFF
310
FFFFFFFFFFFFFFFFFFFFFFFFFFFFFFFFFFFFFFFFFFFFFFFFFFFFFFFFFFFFFFFF
310
FFFFFFFFFFFFFFFFF000FFFFFFFFFFFFFFFFFFFFFFFFFFFFFFFFFFFFFFFFFFFF
310
FFFFFFFFFFFFFFFFFFFFFFFFFFFFFFFFFFFFFFFFFFFFFFFFFFFFFFFFFFFFFFFF
310
FFFFFFFFFFFFFFFFFFFFFFFFFFFFFFFFFFFFFFFFFFFFFFFFFFFFFFFFFFFFFFFF
310
F000FFFFFFFFFFFFFFFFFFFFFFFFFFFFFFFFFFFFFFFFFFFFFFFFFFFFFFFFFFFF
310
FFFFFFFFFFFFFFFFFFFFFFFFFFFFFFFFFFFFFFFFFFFFFFFFFFFFFFFFFFFFFFFF
310
FFFFFFFFFFFFFFFFFFFFFFFFFFFFFFFFFFFFFFFFFFFFFFFFF000FFFFFFFFFFFF
310
FFFFFFFFFFFFFFFFFFFFFFFFFFFFFFFFFFFFFFFFFFFFFFFFFFFFFFFFFFFFFFFF
310
FFFFFFFFFFFFFFFFFFFFFFFFFFFFFFFFFFFFFFFFFFFFFFFFFFFFFFFFFFFFFFFF
310
FFFFFFFFFFFFFFFFFFFFFFFFFFFFFFFFF000FFFFFFFFFFFFFFFFFFFFFFFFFFFF
310
FFFFFFFFFFFFFFFFFFFFFFFFFFFFFFFFFFFFFFFFFFFFFFFFFFFFFFFFFFFFFFFF
310
FFFFFFFFFFFFFFFFFFFFFFFFFFFFFFFFFFFFFFFFFFFFFFFFFFFFFFFFFFFFFFFF
310
FFFFFFFFFFFFFFFFF000FFFFFFFFFFFFFFFFFFFFFFFFFFFFFFFFFFFFFFFFFFFF
310
FFFFFFFFFFFFFFFFFFFFFFFFFFFFFFFFFFFFFFFFFFFFFFFFFFFFFFFFFFFFFFFF
310
FFFFFFFFFFFFFFFFFFFFFFFFFFFFFFFFFFFFFFFFFFFFFFFFFFFFFFFFFFFFFFFF
310
F000FFFFFFFFFFFFFFFFFFFFFFFFFFFFFFFFFFFFFFFFFFFFFFFFFFFFFFFFFFFF
310
FFFFFFFFFFFFFFFFFFFFFFFFFFFFFFFFFFFFFFFFFFFFFFFFFFFFFFFFFFFFFFFF
310
FFFFFFFFFFFFFFFFFFFFFFFFFFFFFFFFFFFFFFFFFFFFFFFFF000FFFFFFFFFFFF
310
FFFFFFFFFFFFFFFFFFFFFFFFFFFFFFFFFFFFFFFFFFFFFFFFFFFFFFFFFFFFFFFF
310
FFFFFFFFFFFFFFFFFFFFFFFFFFFFFFFFFFFFFFFFFFFFFFFFFFFFFFFFFFFFFFFF
310
FFFFFFFFFFFFFFFFFFFFFFFFFFFFFFFFF0000000000000000000000000000000
310
0000000000000000000000000000000000000000000000000000000000000000
310
0000000000000000000000000000000000000000000000000000000000000000
310
0000000000000000000000000000000000000000000000000000000000000000
310
0000000000000000000000000000000000000000000000000000000000000000
310
0000000000000000000000000000000000000000000000000000000000000000
310
0000000000000000000000000000000000000000000000000000000000000000
310
0000000000000000000000000000000000000000000000000000000000000000
310
0000000000000000000000000000000000000000000000000000000000000000
310
0000000000000000000000000000000000000000000000000000000000000000
310
0000000000000000000000000000000000000000000000000000000000000000
310
0000000000000000000000000000000000000000000000000000000000000000
310
0000000000000000000000000000000000000000000000000000000000000000
310
0000000000000000000000000000000000000000000000000000000000000000
310
0000000000000000000000000000000000000000000000000000000000000000
310
0000000000000000000000000000000000000000000000000000000000000000
  1
OLE
  0
ENDSEC
  0
SECTION
  2
OBJECTS
  0
DICTIONARY
  5
C
330
0
100
AcDbDictionary
281
     1
  3
ACAD_GROUP
350
D
  3
ACAD_LAYOUT
350
1A
  3
ACAD_MLINESTYLE
350
17
  3
ACAD_PLOTSETTINGS
350
19
  3
ACAD_PLOTSTYLENAME
350
E
  3
ACAD_SCALELIST
350
47
  0
DICTIONARY
  5
D
102
{ACAD_REACTORS
330
C
102
}
330
C
100
AcDbDictionary
281
     1
  0
DICTIONARY
  5
1A
102
{ACAD_REACTORS
330
C
102
}
330
C
100
AcDbDictionary
281
     1
  3
Layout1
350
1E
  3
Layout2
350
26
  3
Model
350
22
  0
DICTIONARY
  5
17
102
{ACAD_REACTORS
330
C
102
}
330
C
100
AcDbDictionary
281
     1
  3
Standard
350
18
  0
DICTIONARY
  5
19
102
{ACAD_REACTORS
330
C
102
}
330
C
100
AcDbDictionary
281
     1
  0
ACDBDICTIONARYWDFLT
  5
E
102
{ACAD_REACTORS
330
C
102
}
330
C
100
AcDbDictionary
281
     1
  3
Normal
350
F
100
AcDbDictionaryWithDefault
340
F
  0
DICTIONARY
  5
47
102
{ACAD_REACTORS
330
C
102
}
330
C
100
AcDbDictionary
281
     1
  3
A0
350
48
  3
A1
350
49
  3
A2
350
4A
  3
A3
350
4B
  3
A4
350
4C
  3
A5
350
4D
  3
A6
350
4E
  3
A7
350
4F
  3
A8
350
50
  3
A9
350
51
  3
B0
350
52
  3
B1
350
53
  3
B2
350
54
  3
B3
350
55
  3
B4
350
56
  3
B5
350
57
  3
B6
350
58
  3
B7
350
59
  3
B8
350
5A
  3
B9
350
5B
  3
C0
350
5C
  3
C1
350
5D
  3
C2
350
5E
  3
C3
350
5F
  3
C4
350
60
  3
C5
350
61
  3
C6
350
62
  3
C7
350
63
  3
C8
350
64
  3
C9
350
65
  3
D0
350
66
  3
D1
350
67
  3
D2
350
68
  0
LAYOUT
  5
1E
102
{ACAD_REACTORS
330
1A
102
}
330
1A
100
AcDbPlotSettings
  1

  2
none_device
  4

  6

 40
0.0
 41
0.0
 42
0.0
 43
0.0
 44
0.0
 45
0.0
 46
0.0
 47
0.0
 48
0.0
 49
0.0
140
0.0
141
0.0
142
1.0
143
1.0
 70
   688
 72
     1
 73
     0
 74
     5
  7

 75
    16
147
1.0
148
0.0
149
0.0
100
AcDbLayout
  1
Layout1
 70
     1
 71
     1
 10
0.0
 20
0.0
 11
420.0
 21
297.0
 12
0.0
 22
0.0
 32
0.0
 14
1.0000000000E+20
 24
1.0000000000E+20
 34
1.0000000000E+20
 15
-1.0000000000E+20
 25
-1.0000000000E+20
 35
-1.0000000000E+20
146
0.0
 13
0.0
 23
0.0
 33
0.0
 16
1.0
 26
0.0
 36
0.0
 17
0.0
 27
1.0
 37
0.0
 76
     0
330
1B
  0
LAYOUT
  5
26
102
{ACAD_REACTORS
330
1A
102
}
330
1A
100
AcDbPlotSettings
  1

  2
none_device
  4

  6

 40
0.0
 41
0.0
 42
0.0
 43
0.0
 44
0.0
 45
0.0
 46
0.0
 47
0.0
 48
0.0
 49
0.0
140
0.0
141
0.0
142
1.0
143
1.0
 70
   688
 72
     1
 73
     0
 74
     5
  7

 75
    16
147
1.0
148
0.0
149
0.0
100
AcDbLayout
  1
Layout2
 70
     1
 71
     2
 10
0.0
 20
0.0
 11
0.0
 21
0.0
 12
0.0
 22
0.0
 32
0.0
 14
0.0
 24
0.0
 34
0.0
 15
0.0
 25
0.0
 35
0.0
146
0.0
 13
0.0
 23
0.0
 33
0.0
 16
1.0
 26
0.0
 36
0.0
 17
0.0
 27
1.0
 37
0.0
 76
     0
330
23
  0
LAYOUT
  5
22
102
{ACAD_REACTORS
330
1A
102
}
330
1A
100
AcDbPlotSettings
  1

  2
none_device
  4
Letter_(8.50_x_11.00_Inches)
  6

 40
6.35
 41
6.35
 42
6.35000508
 43
6.35000508
 44
215.9
 45
279.4
 46
0.0
 47
0.0
 48
0.0
 49
0.0
140
0.0
141
0.0
142
1.0
143
1.0
 70
  1712
 72
     1
 73
     0
 74
     0
  7

 75
     0
147
1.0
148
0.0
149
0.0
100
AcDbLayout
  1
Model
 70
     1
 71
     0
 10
0.0
 20
0.0
 11
297.0
 21
210.0
 12
0.0
 22
0.0
 32
0.0
 14
0.0
 24
0.0
 34
0.0
 15
297.0
 25
210.0
 35
0.0
146
0.0
 13
0.0
 23
0.0
 33
0.0
 16
1.0
 26
0.0
 36
0.0
 17
0.0
 27
1.0
 37
0.0
 76
     0
330
1F
331
29
  0
MLINESTYLE
  5
18
102
{ACAD_REACTORS
330
17
102
}
330
17
100
AcDbMlineStyle
  2
Standard
 70
     0
  3

 62
   256
 51
90.0
 52
90.0
 71
     2
 49
0.5
 62
   256
  6
BYLAYER
 49
-0.5
 62
   256
  6
BYLAYER
  0
ACDBPLACEHOLDER
  5
F
102
{ACAD_REACTORS
330
E
102
}
330
E
  0
SCALE
  5
48
102
{ACAD_REACTORS
330
47
102
}
330
47
100
AcDbScale
 70
     0
300
1:1
140
1.0
141
1.0
290
     1
  0
SCALE
  5
49
102
{ACAD_REACTORS
330
47
102
}
330
47
100
AcDbScale
 70
     0
300
1:2
140
1.0
141
2.0
290
     0
  0
SCALE
  5
4A
102
{ACAD_REACTORS
330
47
102
}
330
47
100
AcDbScale
 70
     0
300
1:4
140
1.0
141
4.0
290
     0
  0
SCALE
  5
4B
102
{ACAD_REACTORS
330
47
102
}
330
47
100
AcDbScale
 70
     0
300
1:5
140
1.0
141
5.0
290
     0
  0
SCALE
  5
4C
102
{ACAD_REACTORS
330
47
102
}
330
47
100
AcDbScale
 70
     0
300
1:8
140
1.0
141
8.0
290
     0
  0
SCALE
  5
4D
102
{ACAD_REACTORS
330
47
102
}
330
47
100
AcDbScale
 70
     0
300
1:10
140
1.0
141
10.0
290
     0
  0
SCALE
  5
4E
102
{ACAD_REACTORS
330
47
102
}
330
47
100
AcDbScale
 70
     0
300
1:16
140
1.0
141
16.0
290
     0
  0
SCALE
  5
4F
102
{ACAD_REACTORS
330
47
102
}
330
47
100
AcDbScale
 70
     0
300
1:20
140
1.0
141
20.0
290
     0
  0
SCALE
  5
50
102
{ACAD_REACTORS
330
47
102
}
330
47
100
AcDbScale
 70
     0
300
1:30
140
1.0
141
30.0
290
     0
  0
SCALE
  5
51
102
{ACAD_REACTORS
330
47
102
}
330
47
100
AcDbScale
 70
     0
300
1:40
140
1.0
141
40.0
290
     0
  0
SCALE
  5
52
102
{ACAD_REACTORS
330
47
102
}
330
47
100
AcDbScale
 70
     0
300
1:50
140
1.0
141
50.0
290
     0
  0
SCALE
  5
53
102
{ACAD_REACTORS
330
47
102
}
330
47
100
AcDbScale
 70
     0
300
1:100
140
1.0
141
100.0
290
     0
  0
SCALE
  5
54
102
{ACAD_REACTORS
330
47
102
}
330
47
100
AcDbScale
 70
     0
300
2:1
140
2.0
141
1.0
290
     0
  0
SCALE
  5
55
102
{ACAD_REACTORS
330
47
102
}
330
47
100
AcDbScale
 70
     0
300
4:1
140
4.0
141
1.0
290
     0
  0
SCALE
  5
56
102
{ACAD_REACTORS
330
47
102
}
330
47
100
AcDbScale
 70
     0
300
8:1
140
8.0
141
1.0
290
     0
  0
SCALE
  5
57
102
{ACAD_REACTORS
330
47
102
}
330
47
100
AcDbScale
 70
     0
300
10:1
140
10.0
141
1.0
290
     0
  0
SCALE
  5
58
102
{ACAD_REACTORS
330
47
102
}
330
47
100
AcDbScale
 70
     0
300
100:1
140
100.0
141
1.0
290
     0
  0
SCALE
  5
59
102
{ACAD_REACTORS
330
47
102
}
330
47
100
AcDbScale
 70
     0
300
1/128" = 1'-0"
140
0.0078125
141
12.0
290
     0
  0
SCALE
  5
5A
102
{ACAD_REACTORS
330
47
102
}
330
47
100
AcDbScale
 70
     0
300
1/64" = 1'-0"
140
0.015625
141
12.0
290
     0
  0
SCALE
  5
5B
102
{ACAD_REACTORS
330
47
102
}
330
47
100
AcDbScale
 70
     0
300
1/32" = 1'-0"
140
0.03125
141
12.0
290
     0
  0
SCALE
  5
5C
102
{ACAD_REACTORS
330
47
102
}
330
47
100
AcDbScale
 70
     0
300
1/16" = 1'-0"
140
0.0625
141
12.0
290
     0
  0
SCALE
  5
5D
102
{ACAD_REACTORS
330
47
102
}
330
47
100
AcDbScale
 70
     0
300
3/32" = 1'-0"
140
0.09375
141
12.0
290
     0
  0
SCALE
  5
5E
102
{ACAD_REACTORS
330
47
102
}
330
47
100
AcDbScale
 70
     0
300
1/8" = 1'-0"
140
0.125
141
12.0
290
     0
  0
SCALE
  5
5F
102
{ACAD_REACTORS
330
47
102
}
330
47
100
AcDbScale
 70
     0
300
3/16" = 1'-0"
140
0.1875
141
12.0
290
     0
  0
SCALE
  5
60
102
{ACAD_REACTORS
330
47
102
}
330
47
100
AcDbScale
 70
     0
300
1/4" = 1'-0"
140
0.25
141
12.0
290
     0
  0
SCALE
  5
61
102
{ACAD_REACTORS
330
47
102
}
330
47
100
AcDbScale
 70
     0
300
3/8" = 1'-0"
140
0.375
141
12.0
290
     0
  0
SCALE
  5
62
102
{ACAD_REACTORS
330
47
102
}
330
47
100
AcDbScale
 70
     0
300
1/2" = 1'-0"
140
0.5
141
12.0
290
     0
  0
SCALE
  5
63
102
{ACAD_REACTORS
330
47
102
}
330
47
100
AcDbScale
 70
     0
300
3/4" = 1'-0"
140
0.75
141
12.0
290
     0
  0
SCALE
  5
64
102
{ACAD_REACTORS
330
47
102
}
330
47
100
AcDbScale
 70
     0
300
1" = 1'-0"
140
1.0
141
12.0
290
     0
  0
SCALE
  5
65
102
{ACAD_REACTORS
330
47
102
}
330
47
100
AcDbScale
 70
     0
300
1-1/2" = 1'-0"
140
1.5
141
12.0
290
     0
  0
SCALE
  5
66
102
{ACAD_REACTORS
330
47
102
}
330
47
100
AcDbScale
 70
     0
300
3" = 1'-0"
140
3.0
141
12.0
290
     0
  0
SCALE
  5
67
102
{ACAD_REACTORS
330
47
102
}
330
47
100
AcDbScale
 70
     0
300
6" = 1'-0"
140
6.0
141
12.0
290
     0
  0
SCALE
  5
68
102
{ACAD_REACTORS
330
47
102
}
330
47
100
AcDbScale
 70
     0
300
1'-0" = 1'-0"
140
12.0
141
12.0
290
     0
  0
ENDSEC
  0
EOF
