  0
SECTION
  2
HEADER
  9
$ACADVER
  1
AC1015
  9
$ACADMAINTVER
 70
     6
  9
$DWGCODEPAGE
  3
ANSI_1252
  9
$INSBASE
 10
0.0
 20
0.0
 30
0.0
  9
$EXTMIN
 10
0.0
 20
0.0
 30
0.0
  9
$EXTMAX
 10
297.0
 20
210.0
 30
0.0
  9
$LIMMIN
 10
0.0
 20
0.0
  9
$LIMMAX
 10
297.0
 20
210.0
  9
$ORTHOMODE
 70
     0
  9
$REGENMODE
 70
     1
  9
$FILLMODE
 70
     1
  9
$QTEXTMODE
 70
     0
  9
$MIRRTEXT
 70
     1
  9
$LTSCALE
 40
1.0
  9
$ATTMODE
 70
     1
  9
$TEXTSIZE
 40
2.0
  9
$TRACEWID
 40
1.0
  9
$TEXTSTYLE
  7
Standard
  9
$CLAYER
  8
0
  9
$CELTYPE
  6
ByLayer
  9
$CECOLOR
 62
   256
  9
$CELTSCALE
 40
1.0
  9
$DISPSILH
 70
     0
  9
$DIMSCALE
 40
1.0
  9
$DIMASZ
 40
3.0
  9
$DIMEXO
 40
0.0
  9
$DIMDLI
 40
3.75
  9
$DIMRND
 40
0.0
  9
$DIMDLE
 40
0.0
  9
$DIMEXE
 40
1.0
  9
$DIMTP
 40
0.0
  9
$DIMTM
 40
0.0
  9
$DIMTXT
 40
2.0
  9
$DIMCEN
 40
2.5
  9
$DIMTSZ
 40
0.0
  9
$DIMTOL
 70
     0
  9
$DIMLIM
 70
     0
  9
$DIMTIH
 70
     1
  9
$DIMTOH
 70
     1
  9
$DIMSE1
 70
     0
  9
$DIMSE2
 70
     0
  9
$DIMTAD
 70
     1
  9
$DIMZIN
 70
     0
  9
$DIMBLK
  1

  9
$DIMASO
 70
     1
  9
$DIMSHO
 70
     1
  9
$DIMPOST
  1

  9
$DIMAPOST
  1

  9
$DIMALT
 70
     0
  9
$DIMALTD
 70
     3
  9
$DIMALTF
 40
0.0393700787
  9
$DIMLFAC
 40
1.0
  9
$DIMTOFL
 70
     1
  9
$DIMTVP
 40
0.0
  9
$DIMTIX
 70
     0
  9
$DIMSOXD
 70
     0
  9
$DIMSAH
 70
     0
  9
$DIMBLK1
  1

  9
$DIMBLK2
  1

  9
$DIMSTYLE
  2
ISO-25
  9
$DIMCLRD
 70
     0
  9
$DIMCLRE
 70
     0
  9
$DIMCLRT
 70
     0
  9
$DIMTFAC
 40
1.0
  9
$DIMGAP
 40
1.524
  9
$DIMJUST
 70
     0
  9
$DIMSD1
 70
     0
  9
$DIMSD2
 70
     0
  9
$DIMTOLJ
 70
     0
  9
$DIMTZIN
 70
     0
  9
$DIMALTZ
 70
     0
  9
$DIMALTTZ
 70
     0
  9
$DIMUPT
 70
     0
  9
$DIMDEC
 70
     2
  9
$DIMTDEC
 70
     3
  9
$DIMALTU
 70
     2
  9
$DIMALTTD
 70
     3
  9
$DIMTXSTY
  7
Standard
  9
$DIMAUNIT
 70
     0
  9
$DIMADEC
 70
     2
  9
$DIMALTRND
 40
0.0
  9
$DIMAZIN
 70
     0
  9
$DIMDSEP
 70
    44
  9
$DIMATFIT
 70
     3
  9
$DIMFRAC
 70
     0
  9
$DIMLDRBLK
  1

  9
$DIMLUNIT
 70
     2
  9
$DIMLWD
 70
    -2
  9
$DIMLWE
 70
    -2
  9
$DIMTMOVE
 70
     0
  9
$LUNITS
 70
     2
  9
$LUPREC
 70
     2
  9
$SKETCHINC
 40
1.0
  9
$FILLETRAD
 40
10.0
  9
$AUNITS
 70
     0
  9
$AUPREC
 70
     2
  9
$MENU
  1
.
  9
$ELEVATION
 40
0.0
  9
$PELEVATION
 40
0.0
  9
$THICKNESS
 40
0.0
  9
$LIMCHECK
 70
     0
  9
$CHAMFERA
 40
0.0
  9
$CHAMFERB
 40
0.0
  9
$CHAMFERC
 40
0.0
  9
$CHAMFERD
 40
0.0
  9
$SKPOLY
 70
     0
  9
$TDCREATE
 40
2457627.62561037
  9
$TDUCREATE
 40
2457627.542277037
  9
$TDUPDATE
 40
2457627.62561184
  9
$TDUUPDATE
 40
2457627.542278507
  9
$TDINDWG
 40
0.0000000116
  9
$TDUSRTIMER
 40
0.0000000116
  9
$USRTIMER
 70
     1
  9
$ANGBASE
 50
0.0
  9
$ANGDIR
 70
     0
  9
$PDMODE
 70
     0
  9
$PDSIZE
 40
-1.0
  9
$PLINEWID
 40
0.0
  9
$SPLFRAME
 70
     0
  9
$SPLINETYPE
 70
     6
  9
$SPLINESEGS
 70
     8
  9
$HANDSEED
  5
2D9
  9
$SURFTAB1
 70
     6
  9
$SURFTAB2
 70
     6
  9
$SURFTYPE
 70
     6
  9
$SURFU
 70
     6
  9
$SURFV
 70
     6
  9
$UCSBASE
  2

  9
$UCSNAME
  2

  9
$UCSORG
 10
0.0
 20
0.0
 30
0.0
  9
$UCSXDIR
 10
1.0
 20
0.0
 30
0.0
  9
$UCSYDIR
 10
0.0
 20
1.0
 30
0.0
  9
$UCSORTHOREF
  2

  9
$UCSORTHOVIEW
 70
     0
  9
$UCSORGTOP
 10
0.0
 20
0.0
 30
0.0
  9
$UCSORGBOTTOM
 10
0.0
 20
0.0
 30
0.0
  9
$UCSORGLEFT
 10
0.0
 20
0.0
 30
0.0
  9
$UCSORGRIGHT
 10
0.0
 20
0.0
 30
0.0
  9
$UCSORGFRONT
 10
0.0
 20
0.0
 30
0.0
  9
$UCSORGBACK
 10
0.0
 20
0.0
 30
0.0
  9
$PUCSBASE
  2

  9
$PUCSNAME
  2

  9
$PUCSORG
 10
0.0
 20
0.0
 30
0.0
  9
$PUCSXDIR
 10
1.0
 20
0.0
 30
0.0
  9
$PUCSYDIR
 10
0.0
 20
1.0
 30
0.0
  9
$PUCSORTHOREF
  2

  9
$PUCSORTHOVIEW
 70
     0
  9
$PUCSORGTOP
 10
0.0
 20
0.0
 30
0.0
  9
$PUCSORGBOTTOM
 10
0.0
 20
0.0
 30
0.0
  9
$PUCSORGLEFT
 10
0.0
 20
0.0
 30
0.0
  9
$PUCSORGRIGHT
 10
0.0
 20
0.0
 30
0.0
  9
$PUCSORGFRONT
 10
0.0
 20
0.0
 30
0.0
  9
$PUCSORGBACK
 10
0.0
 20
0.0
 30
0.0
  9
$USERI1
 70
     0
  9
$USERI2
 70
     0
  9
$USERI3
 70
     0
  9
$USERI4
 70
     0
  9
$USERI5
 70
     0
  9
$USERR1
 40
0.0
  9
$USERR2
 40
0.0
  9
$USERR3
 40
0.0
  9
$USERR4
 40
0.0
  9
$USERR5
 40
0.0
  9
$WORLDVIEW
 70
     1
  9
$SHADEDGE
 70
     3
  9
$SHADEDIF
 70
    70
  9
$TILEMODE
 70
     1
  9
$MAXACTVP
 70
    64
  9
$PINSBASE
 10
0.0
 20
0.0
 30
0.0
  9
$PLIMCHECK
 70
     0
  9
$PEXTMIN
 10
1.0000000000E+20
 20
1.0000000000E+20
 30
1.0000000000E+20
  9
$PEXTMAX
 10
-1.0000000000E+20
 20
-1.0000000000E+20
 30
-1.0000000000E+20
  9
$PLIMMIN
 10
0.0
 20
0.0
  9
$PLIMMAX
 10
420.0
 20
297.0
  9
$UNITMODE
 70
     0
  9
$VISRETAIN
 70
     1
  9
$PLINEGEN
 70
     0
  9
$PSLTSCALE
 70
     1
  9
$TREEDEPTH
 70
  3020
  9
$CMLSTYLE
  2
Standard
  9
$CMLJUST
 70
     0
  9
$CMLSCALE
 40
20.0
  9
$PROXYGRAPHICS
 70
     1
  9
$MEASUREMENT
 70
     1
  9
$CELWEIGHT
370
    -1
  9
$ENDCAPS
280
     0
  9
$JOINSTYLE
280
     0
  9
$LWDISPLAY
290
     1
  9
$INSUNITS
 70
     4
  9
$HYPERLINKBASE
  1

  9
$STYLESHEET
  1

  9
$XEDIT
290
     1
  9
$CEPSNTYPE
380
     0
  9
$PSTYLEMODE
290
     1
  9
$FINGERPRINTGUID
  2
{B56DE200-E9EE-4023-85C0-8E57576305A7}
  9
$VERSIONGUID
  2
{FAEB1C32-E019-11D5-929B-00C0DF256EC4}
  9
$EXTNAMES
290
     1
  9
$PSVPSCALE
 40
0.0
  9
$OLESTARTUP
290
     0
  0
ENDSEC
  0
SECTION
  2
CLASSES
  0
CLASS
  1
ACDBDICTIONARYWDFLT
  2
AcDbDictionaryWithDefault
  3
ObjectDBX Classes
 90
        0
280
     0
281
     0
  0
CLASS
  1
VISUALSTYLE
  2
AcDbVisualStyle
  3
ObjectDBX Classes
 90
     4095
280
     0
281
     0
  0
CLASS
  1
MATERIAL
  2
AcDbMaterial
  3
ObjectDBX Classes
 90
     1153
280
     0
281
     0
  0
CLASS
  1
SCALE
  2
AcDbScale
  3
ObjectDBX Classes
 90
     1153
280
     0
281
     0
  0
CLASS
  1
TABLESTYLE
  2
AcDbTableStyle
  3
ObjectDBX Classes
 90
     4095
280
     0
281
     0
  0
CLASS
  1
MLEADERSTYLE
  2
AcDbMLeaderStyle
  3
ACDB_MLEADERSTYLE_CLASS
 90
     4095
280
     0
281
     0
  0
CLASS
  1
SUN
  2
AcDbSun
  3
SCENEOE
 90
     1153
280
     0
281
     0
  0
CLASS
  1
ACDBPLACEHOLDER
  2
AcDbPlaceHolder
  3
ObjectDBX Classes
 90
        0
280
     0
281
     0
  0
CLASS
  1
LAYOUT
  2
AcDbLayout
  3
ObjectDBX Classes
 90
        0
280
     0
281
     0
  0
ENDSEC
  0
SECTION
  2
TABLES
  0
TABLE
  2
VPORT
  5
8
330
0
100
AcDbSymbolTable
 70
     1
  0
VPORT
  5
29
330
8
100
AcDbSymbolTableRecord
100
AcDbViewportTableRecord
  2
*Active
 70
     0
 10
0.0
 20
0.0
 11
1.0
 21
1.0
 12
148.5
 22
105.0
 13
0.0
 23
0.0
 14
10.0
 24
10.0
 15
10.0
 25
10.0
 16
0.0
 26
0.0
 36
1.0
 17
0.0
 27
0.0
 37
0.0
 40
210.0
 41
1.4142857143
 42
50.0
 43
0.0
 44
0.0
 50
0.0
 51
0.0
 71
     0
 72
  2000
 73
     1
 74
     3
 75
     0
 76
     0
 77
     0
 78
     0
281
     0
 65
     1
110
0.0
120
0.0
130
0.0
111
1.0
121
0.0
131
0.0
112
0.0
122
1.0
132
0.0
 79
     0
146
0.0
  0
ENDTAB
  0
TABLE
  2
LTYPE
  5
5
330
0
100
AcDbSymbolTable
 70
     6
  0
LTYPE
  5
14
330
5
100
AcDbSymbolTableRecord
100
AcDbLinetypeTableRecord
  2
ByBlock
 70
     0
  3

 72
    65
 73
     0
 40
0.0
  0
LTYPE
  5
15
330
5
100
AcDbSymbolTableRecord
100
AcDbLinetypeTableRecord
  2
ByLayer
 70
     0
  3

 72
    65
 73
     0
 40
0.0
  0
LTYPE
  5
16
330
5
100
AcDbSymbolTableRecord
100
AcDbLinetypeTableRecord
  2
Continuous
 70
     0
  3
Solid line
 72
    65
 73
     0
 40
0.0
  0
LTYPE
  5
6E
330
5
100
AcDbSymbolTableRecord
100
AcDbLinetypeTableRecord
  2
HIDDEN
 70
     0
  3
Hidden __ __ __ __ __ __ __ __ __ __ __ __ __ __
 72
    65
 73
     2
 40
1.905
 49
1.27
 74
     0
 49
-0.635
 74
     0
  0
LTYPE
  5
6F
330
5
100
AcDbSymbolTableRecord
100
AcDbLinetypeTableRecord
  2
PHANTOM
 70
     0
  3
Phantom ______  __  __  ______  __  __  ______
 72
    65
 73
     6
 40
12.7
 49
6.35
 74
     0
 49
-1.27
 74
     0
 49
1.27
 74
     0
 49
-1.27
 74
     0
 49
1.27
 74
     0
 49
-1.27
 74
     0
  0
LTYPE
  5
70
330
5
100
AcDbSymbolTableRecord
100
AcDbLinetypeTableRecord
  2
CENTER
 70
     0
  3
Center ____ _ ____ _ ____ _ ____ _ ____ _ ____
 72
    65
 73
     4
 40
10.16
 49
6.35
 74
     0
 49
-1.27
 74
     0
 49
1.27
 74
     0
 49
-1.27
 74
     0
  0
LTYPE
  5
71
330
5
100
AcDbSymbolTableRecord
100
AcDbLinetypeTableRecord
  2
CENTERX2
 70
     0
  3
Center (2x) ________  __  ________  __  _____
 72
    65
 73
     4
 40
20.32
 49
12.7
 74
     0
 49
-2.54
 74
     0
 49
2.54
 74
     0
 49
-2.54
 74
     0
  0
LTYPE
  5
72
330
5
100
AcDbSymbolTableRecord
100
AcDbLinetypeTableRecord
  2
DOT2
 70
     0
  3
Dot (.5x) ........................................
 72
    65
 73
     2
 40
0.635
 49
0.0
 74
     0
 49
-0.635
 74
     0
  0
ENDTAB
  0
TABLE
  2
LAYER
  5
2
330
0
100
AcDbSymbolTable
 70
     5
  0
LAYER
  5
10
330
2
100
AcDbSymbolTableRecord
100
AcDbLayerTableRecord
  2
0
 70
     0
 62
     7
  6
Continuous
370
    -3
390
F
  0
LAYER
  5
73
330
2
100
AcDbSymbolTableRecord
100
AcDbLayerTableRecord
  2
FORMAT
 70
     0
 62
     7
  6
Continuous
370
    -3
390
F
  0
LAYER
  5
74
330
2
100
AcDbSymbolTableRecord
100
AcDbLayerTableRecord
  2
VERMASSUNG
 70
     0
 62
     7
  6
Continuous
370
    -3
390
F
  0
LAYER
  5
75
330
2
100
AcDbSymbolTableRecord
100
AcDbLayerTableRecord
  2
KOPF_DÜNN
 70
     0
 62
     7
  6
Continuous
370
    -3
390
F
  0
LAYER
  5
76
330
2
100
AcDbSymbolTableRecord
100
AcDbLayerTableRecord
  2
KOPF_DICK
 70
     0
 62
     7
  6
Continuous
370
    15
390
F
  0
ENDTAB
  0
TABLE
  2
STYLE
  5
3
330
0
100
AcDbSymbolTable
 70
     2
  0
STYLE
  5
11
330
3
100
AcDbSymbolTableRecord
100
AcDbTextStyleTableRecord
  2
Standard
 70
     0
 40
0.0
 41
1.0
 50
0.0
 71
     0
 42
2.0
  3
txt
  4

  0
STYLE
  5
77
330
3
100
AcDbSymbolTableRecord
100
AcDbTextStyleTableRecord
  2
SLDTEXTSTYLE0
 70
     0
 40
0.0
 41
0.7
 50
0.0
 71
     0
 42
2.0
  3
TXT
  4

  0
ENDTAB
  0
TABLE
  2
VIEW
  5
6
330
0
100
AcDbSymbolTable
 70
     0
  0
ENDTAB
  0
TABLE
  2
UCS
  5
7
330
0
100
AcDbSymbolTable
 70
     0
  0
ENDTAB
  0
TABLE
  2
APPID
  5
9
330
0
100
AcDbSymbolTable
 70
     1
  0
APPID
  5
12
330
9
100
AcDbSymbolTableRecord
100
AcDbRegAppTableRecord
  2
ACAD
 70
     0
  0
ENDTAB
  0
TABLE
  2
DIMSTYLE
  5
A
330
0
100
AcDbSymbolTable
 70
     2
100
AcDbDimStyleTable
  0
DIMSTYLE
105
27
330
A
100
AcDbSymbolTableRecord
100
AcDbDimStyleTableRecord
  2
ISO-25
 70
     0
 41
2.5
 42
0.625
 43
3.75
 44
1.25
 73
     0
 74
     0
 77
     1
 78
     8
140
2.5
141
2.5
143
0.0393700787
147
0.625
171
     3
172
     1
178
     0
271
     2
272
     2
274
     3
278
    44
283
     0
284
     8
340
11
  0
DIMSTYLE
105
1E1
102
{ACAD_REACTORS
330
1E0
330
1ED
330
1F9
330
203
330
20D
102
}
330
A
100
AcDbSymbolTableRecord
100
AcDbDimStyleTableRecord
  2
SLDDIMSTYLE0
 70
     0
 41
3.0
 44
0.0
 45
0.000000001
 73
     0
 74
     0
 77
     1
 78
    12
 79
     3
140
2.0
147
0.5
173
     1
178
     0
271
     2
272
     3
276
     2
284
    12
340
77
  0
ENDTAB
  0
TABLE
  2
BLOCK_RECORD
  5
1
330
0
100
AcDbSymbolTable
 70
     6
  0
BLOCK_RECORD
  5
1F
330
1
100
AcDbSymbolTableRecord
100
AcDbBlockTableRecord
  2
*Model_Space
340
22
  0
BLOCK_RECORD
  5
1B
330
1
100
AcDbSymbolTableRecord
100
AcDbBlockTableRecord
  2
*Paper_Space
340
1E
  0
BLOCK_RECORD
  5
23
330
1
100
AcDbSymbolTableRecord
100
AcDbBlockTableRecord
  2
*Paper_Space0
340
26
  0
BLOCK_RECORD
  5
1E2
330
1
100
AcDbSymbolTableRecord
100
AcDbBlockTableRecord
  2
_D
340
0
  0
BLOCK_RECORD
  5
1EE
330
1
100
AcDbSymbolTableRecord
100
AcDbBlockTableRecord
  2
_D_1
340
0
  0
BLOCK_RECORD
  5
1FA
330
1
100
AcDbSymbolTableRecord
100
AcDbBlockTableRecord
  2
_D_2
340
0
  0
BLOCK_RECORD
  5
204
330
1
100
AcDbSymbolTableRecord
100
AcDbBlockTableRecord
  2
_D_3
340
0
  0
BLOCK_RECORD
  5
20E
330
1
100
AcDbSymbolTableRecord
100
AcDbBlockTableRecord
  2
_D_4
340
0
  0
ENDTAB
  0
ENDSEC
  0
SECTION
  2
BLOCKS
  0
BLOCK
  5
20
330
1F
100
AcDbEntity
  8
0
100
AcDbBlockBegin
  2
*Model_Space
 70
     0
 10
0.0
 20
0.0
 30
0.0
  3
*Model_Space
  1

  0
ENDBLK
  5
21
330
1F
100
AcDbEntity
  8
0
100
AcDbBlockEnd
  0
BLOCK
  5
1C
330
1B
100
AcDbEntity
 67
     1
  8
0
100
AcDbBlockBegin
  2
*Paper_Space
 70
     0
 10
0.0
 20
0.0
 30
0.0
  3
*Paper_Space
  1

  0
ENDBLK
  5
1D
330
1B
100
AcDbEntity
 67
     1
  8
0
100
AcDbBlockEnd
  0
BLOCK
  5
24
330
23
100
AcDbEntity
  8
0
100
AcDbBlockBegin
  2
*Paper_Space0
 70
     0
 10
0.0
 20
0.0
 30
0.0
  3
*Paper_Space0
  1

  0
ENDBLK
  5
25
330
23
100
AcDbEntity
  8
0
100
AcDbBlockEnd
  0
BLOCK
  5
1E3
330
1E2
100
AcDbEntity
  8
0
100
AcDbBlockBegin
  2
_D
 70
     0
 10
0.0
 20
0.0
 30
0.0
  3
_D
  1

  0
SOLID
  5
1E5
330
1E2
100
AcDbEntity
  8
VERMASSUNG
100
AcDbTrace
 10
92.8766939384
 20
75.3155572387
 30
0.0
 11
93.3266939384
 21
78.3155572387
 31
0.0
 12
92.4266939384
 22
78.3155572387
 32
0.0
 13
92.4266939384
 23
78.3155572387
 33
0.0
  0
SOLID
  5
1E6
330
1E2
100
AcDbEntity
  8
VERMASSUNG
100
AcDbTrace
 10
92.8766939384
 20
138.8155572387
 30
0.0
 11
92.4266939384
 21
135.8155572387
 31
0.0
 12
93.3266939384
 22
135.8155572387
 32
0.0
 13
93.3266939384
 23
135.8155572387
 33
0.0
  0
LINE
  5
1E7
330
1E2
100
AcDbEntity
  8
VERMASSUNG
100
AcDbLine
 10
186.9374056427
 20
75.3155572387
 30
0.0
 11
91.8766939384
 21
75.3155572387
 31
0.0
  0
LINE
  5
1E8
330
1E2
100
AcDbEntity
  8
VERMASSUNG
100
AcDbLine
 10
186.9374056427
 20
138.8155572387
 30
0.0
 11
91.8766939384
 21
138.8155572387
 31
0.0
  0
LINE
  5
1E9
330
1E2
100
AcDbEntity
  8
VERMASSUNG
100
AcDbLine
 10
92.8766939384
 20
75.3155572387
 30
0.0
 11
92.8766939384
 21
138.8155572387
 31
0.0
  0
MTEXT
  5
1EA
330
1E2
100
AcDbEntity
  8
VERMASSUNG
100
AcDbMText
 10
90.0985586821
 20
98.2626210904
 30
0.0
 40
2.0
 41
0.0
 71
     1
 72
     1
  1
ISO 40
  7
SLDTEXTSTYLE0
 11
3.391901413832837E-15
 21
1.0
 31
0.0
 73
     1
 44
1.0
  0
MTEXT
  5
1EB
330
1E2
100
AcDbEntity
  8
VERMASSUNG
100
AcDbMText
 10
90.2985586334
 20
107.4626212945
 30
0.0
 40
2.0
 41
0.0
 71
     1
 72
     1
  1
%%c
  7
SLDTEXTSTYLE0
 11
3.391901413832837E-15
 21
1.0
 31
0.0
 73
     1
 44
1.0
  0
MTEXT
  5
1EC
330
1E2
100
AcDbEntity
  8
VERMASSUNG
100
AcDbMText
 10
90.2985583424
 20
111.0705016259
 30
0.0
 40
2.0
 41
0.0
 71
     1
 72
     1
  1
63.5
  7
SLDTEXTSTYLE0
 11
3.391901413832837E-15
 21
1.0
 31
0.0
 73
     1
 44
1.0
  0
ENDBLK
  5
1E4
330
1E2
100
AcDbEntity
  8
0
100
AcDbBlockEnd
  0
BLOCK
  5
1EF
330
1EE
100
AcDbEntity
  8
0
100
AcDbBlockBegin
  2
_D_1
 70
     0
 10
0.0
 20
0.0
 30
0.0
  3
_D_1
  1

  0
ARC
  5
1F1
330
1EE
100
AcDbEntity
  8
VERMASSUNG
100
AcDbCircle
 10
150.0245462194
 20
157.0954287301
 30
0.0
 40
4.247059938537386
100
AcDbArc
 50
153.4349488229
 51
206.5650511771
  0
ARC
  5
1F2
330
1EE
100
AcDbEntity
  8
VERMASSUNG
100
AcDbCircle
 10
152.8002650659
 20
157.0954287301
 30
0.0
 40
4.247059938537361
100
AcDbArc
 50
333.4349488229
 51
26.5650511771
  0
SOLID
  5
1F3
330
1EE
100
AcDbEntity
  8
VERMASSUNG
100
AcDbTrace
 10
100.2374056427
 20
155.1960857847
 30
0.0
 11
103.2374056427
 21
154.7460857847
 31
0.0
 12
103.2374056427
 22
155.6460857847
 32
0.0
 13
103.2374056427
 23
155.6460857847
 33
0.0
  0
SOLID
  5
1F4
330
1EE
100
AcDbEntity
  8
VERMASSUNG
100
AcDbTrace
 10
202.5874056427
 20
155.1960857847
 30
0.0
 11
199.5874056427
 21
155.6460857847
 31
0.0
 12
199.5874056427
 22
154.7460857847
 32
0.0
 13
199.5874056427
 23
154.7460857847
 33
0.0
  0
LINE
  5
1F5
330
1EE
100
AcDbEntity
  8
VERMASSUNG
100
AcDbLine
 10
100.2374056427
 20
118.4726878357
 30
0.0
 11
100.2374056427
 21
156.1960857847
 31
0.0
  0
LINE
  5
1F6
330
1EE
100
AcDbEntity
  8
VERMASSUNG
100
AcDbLine
 10
202.5874056427
 20
116.8655572387
 30
0.0
 11
202.5874056427
 21
156.1960857847
 31
0.0
  0
LINE
  5
1F7
330
1EE
100
AcDbEntity
  8
VERMASSUNG
100
AcDbLine
 10
100.2374056427
 20
155.1960857847
 30
0.0
 11
202.5874056427
 21
155.1960857847
 31
0.0
  0
MTEXT
  5
1F8
330
1EE
100
AcDbEntity
  8
VERMASSUNG
100
AcDbMText
 10
147.8133603286
 20
157.7742213807
 30
0.0
 40
2.0
 41
0.0
 71
     1
 72
     1
  1
102.35
  7
SLDTEXTSTYLE0
 73
     1
 44
1.0
  0
ENDBLK
  5
1F0
330
1EE
100
AcDbEntity
  8
0
100
AcDbBlockEnd
  0
BLOCK
  5
1FB
330
1FA
100
AcDbEntity
  8
0
100
AcDbBlockBegin
  2
_D_2
 70
     0
 10
0.0
 20
0.0
 30
0.0
  3
_D_2
  1

  0
SOLID
  5
1FD
330
1FA
100
AcDbEntity
  8
VERMASSUNG
100
AcDbTrace
 10
168.4874056427
 20
149.1960857847
 30
0.0
 11
171.4874056427
 21
148.7460857847
 31
0.0
 12
171.4874056427
 22
149.6460857847
 32
0.0
 13
171.4874056427
 23
149.6460857847
 33
0.0
  0
SOLID
  5
1FE
330
1FA
100
AcDbEntity
  8
VERMASSUNG
100
AcDbTrace
 10
202.5874056427
 20
149.1960857847
 30
0.0
 11
199.5874056427
 21
149.6460857847
 31
0.0
 12
199.5874056427
 22
148.7460857847
 32
0.0
 13
199.5874056427
 23
148.7460857847
 33
0.0
  0
LINE
  5
1FF
330
1FA
100
AcDbEntity
  8
VERMASSUNG
100
AcDbLine
 10
168.4874056427
 20
129.2905572387
 30
0.0
 11
168.4874056427
 21
150.1960857847
 31
0.0
  0
LINE
  5
200
330
1FA
100
AcDbEntity
  8
VERMASSUNG
100
AcDbLine
 10
202.5874056427
 20
116.8655572387
 30
0.0
 11
202.5874056427
 21
150.1960857847
 31
0.0
  0
LINE
  5
201
330
1FA
100
AcDbEntity
  8
VERMASSUNG
100
AcDbLine
 10
168.4874056427
 20
149.1960857847
 30
0.0
 11
202.5874056427
 21
149.1960857847
 31
0.0
  0
MTEXT
  5
202
330
1FA
100
AcDbEntity
  8
VERMASSUNG
100
AcDbMText
 10
183.2376785572
 20
151.7742213807
 30
0.0
 40
2.0
 41
0.0
 71
     1
 72
     1
  1
34.1
  7
SLDTEXTSTYLE0
 73
     1
 44
1.0
  0
ENDBLK
  5
1FC
330
1FA
100
AcDbEntity
  8
0
100
AcDbBlockEnd
  0
BLOCK
  5
205
330
204
100
AcDbEntity
  8
0
100
AcDbBlockBegin
  2
_D_3
 70
     0
 10
0.0
 20
0.0
 30
0.0
  3
_D_3
  1

  0
SOLID
  5
207
330
204
100
AcDbEntity
  8
VERMASSUNG
100
AcDbTrace
 10
187.5374056427
 20
143.1960857847
 30
0.0
 11
190.5374056427
 21
142.7460857847
 31
0.0
 12
190.5374056427
 22
143.6460857847
 32
0.0
 13
190.5374056427
 23
143.6460857847
 33
0.0
  0
SOLID
  5
208
330
204
100
AcDbEntity
  8
VERMASSUNG
100
AcDbTrace
 10
202.5874056427
 20
143.1960857847
 30
0.0
 11
199.5874056427
 21
143.6460857847
 31
0.0
 12
199.5874056427
 22
142.7460857847
 32
0.0
 13
199.5874056427
 23
142.7460857847
 33
0.0
  0
LINE
  5
209
330
204
100
AcDbEntity
  8
VERMASSUNG
100
AcDbLine
 10
187.5374056427
 20
137.0761083721
 30
0.0
 11
187.5374056427
 21
144.1960857847
 31
0.0
  0
LINE
  5
20A
330
204
100
AcDbEntity
  8
VERMASSUNG
100
AcDbLine
 10
202.5874056427
 20
116.8655572387
 30
0.0
 11
202.5874056427
 21
144.1960857847
 31
0.0
  0
LINE
  5
20B
330
204
100
AcDbEntity
  8
VERMASSUNG
100
AcDbLine
 10
187.5374056427
 20
143.1960857847
 30
0.0
 11
202.5874056427
 21
143.1960857847
 31
0.0
  0
MTEXT
  5
20C
330
204
100
AcDbEntity
  8
VERMASSUNG
100
AcDbMText
 10
192.1626538404
 20
145.7742213807
 30
0.0
 40
2.0
 41
0.0
 71
     1
 72
     1
  1
15.05
  7
SLDTEXTSTYLE0
 73
     1
 44
1.0
  0
ENDBLK
  5
206
330
204
100
AcDbEntity
  8
0
100
AcDbBlockEnd
  0
BLOCK
  5
20F
330
20E
100
AcDbEntity
  8
0
100
AcDbBlockBegin
  2
_D_4
 70
     0
 10
0.0
 20
0.0
 30
0.0
  3
_D_4
  1

  0
SOLID
  5
211
330
20E
100
AcDbEntity
  8
VERMASSUNG
100
AcDbTrace
 10
211.174812381
 20
117.0655572387
 30
0.0
 11
210.724812381
 21
114.0655572387
 31
0.0
 12
211.624812381
 22
114.0655572387
 32
0.0
 13
211.624812381
 23
114.0655572387
 33
0.0
  0
SOLID
  5
212
330
20E
100
AcDbEntity
  8
VERMASSUNG
100
AcDbTrace
 10
211.174812381
 20
97.0655572387
 30
0.0
 11
211.624812381
 21
100.0655572387
 31
0.0
 12
210.724812381
 22
100.0655572387
 32
0.0
 13
210.724812381
 23
100.0655572387
 33
0.0
  0
LINE
  5
213
330
20E
100
AcDbEntity
  8
VERMASSUNG
100
AcDbLine
 10
202.3874056427
 20
117.0655572387
 30
0.0
 11
212.174812381
 21
117.0655572387
 31
0.0
  0
LINE
  5
214
330
20E
100
AcDbEntity
  8
VERMASSUNG
100
AcDbLine
 10
202.3874056427
 20
97.0655572387
 30
0.0
 11
212.174812381
 21
97.0655572387
 31
0.0
  0
LINE
  5
215
330
20E
100
AcDbEntity
  8
VERMASSUNG
100
AcDbLine
 10
211.174812381
 20
117.0655572387
 30
0.0
 11
211.174812381
 21
97.0655572387
 31
0.0
  0
MTEXT
  5
216
330
20E
100
AcDbEntity
  8
VERMASSUNG
100
AcDbMText
 10
208.3966771248
 20
100.6605575951
 30
0.0
 40
2.0
 41
0.0
 71
     1
 72
     1
  1
MBM
  7
SLDTEXTSTYLE0
 11
-7.044195017643634E-15
 21
1.0
 31
0.0
 73
     1
 44
1.0
  0
MTEXT
  5
217
330
20E
100
AcDbEntity
  8
VERMASSUNG
100
AcDbMText
 10
208.5966770761
 20
107.0605574334
 30
0.0
 40
2.0
 41
0.0
 71
     1
 72
     1
  1
%%c
  7
SLDTEXTSTYLE0
 11
-7.044195017643634E-15
 21
1.0
 31
0.0
 73
     1
 44
1.0
  0
MTEXT
  5
218
330
20E
100
AcDbEntity
  8
VERMASSUNG
100
AcDbMText
 10
208.3966771248
 20
110.6705579134
 30
0.0
 40
2.0
 41
0.0
 71
     1
 72
     1
  1
20
  7
SLDTEXTSTYLE0
 11
-7.044195017643634E-15
 21
1.0
 31
0.0
 73
     1
 44
1.0
  0
ENDBLK
  5
210
330
20E
100
AcDbEntity
  8
0
100
AcDbBlockEnd
  0
ENDSEC
  0
SECTION
  2
ENTITIES
  0
MTEXT
  5
78
330
1F
100
AcDbEntity
  8
KOPF_DÜNN
100
AcDbMText
 10
13.8892156294
 20
23.8442973028
 30
0.0
 40
3.0
 41
0.0
 71
     1
 72
     1
  1
102.425.201
  7
SLDTEXTSTYLE0
 73
     1
 44
1.0
  0
MTEXT
  5
79
330
1F
100
AcDbEntity
  8
VERMASSUNG
100
AcDbMText
 10
13.9329988022
 20
28.8834360957
 30
0.0
 40
3.0
 41
0.0
 71
     1
 72
     1
  1
Aufnahme_Master shank MBM 20
  7
SLDTEXTSTYLE0
 73
     1
 44
1.0
  0
MTEXT
  5
7A
330
1F
100
AcDbEntity
  8
VERMASSUNG
100
AcDbMText
 10
98.8601118557
 20
13.8365368761
 30
0.0
 40
2.0
 41
0.0
 71
     1
 72
     1
  1
Datum: 01.11.2007
  7
SLDTEXTSTYLE0
 73
     1
 44
1.0
  0
MTEXT
  5
7B
330
1F
100
AcDbEntity
  8
VERMASSUNG
100
AcDbMText
 10
13.933048693
 20
18.0482802738
 30
0.0
 40
2.0
 41
0.0
 71
     1
 72
     1
  1
DIN 69871 B 40
  7
SLDTEXTSTYLE0
 73
     1
 44
1.0
  0
MTEXT
  5
7C
330
1F
100
AcDbEntity
  8
VERMASSUNG
100
AcDbMText
 10
13.9808475933
 20
13.9090974274
 30
0.0
 40
2.0
 41
0.0
 71
     1
 72
     1
  1
Gewicht: 836g
  7
SLDTEXTSTYLE0
 73
     1
 44
1.0
  0
ARC
  5
7D
330
1F
100
AcDbEntity
  8
0
  6
Continuous
 62
     7
370
    15
100
AcDbCircle
 10
181.4874056427
 20
98.3440435839
 30
0.0
 40
1.50000000000001
100
AcDbArc
 50
191.5274417157
 51
336.072864307
  0
ARC
  5
7E
330
1F
100
AcDbEntity
  8
0
  6
Continuous
 62
     7
370
    15
100
AcDbCircle
 10
171.0874056427
 20
84.2405572387
 30
0.0
 40
0.5999999999999943
100
AcDbArc
 50
0.0
 51
90.0
  0
ARC
  5
7F
330
1F
100
AcDbEntity
  8
0
  6
Continuous
 62
     7
370
    15
100
AcDbCircle
 10
171.0874056427
 20
129.8905572387
 30
0.0
 40
0.5999999999999943
100
AcDbArc
 50
270.0
 51
0.0
  0
LINE
  5
80
330
1F
100
AcDbEntity
  8
0
  6
Continuous
 62
     7
370
    15
100
AcDbLine
 10
168.4874056427
 20
129.2905572029
 30
0.0
 11
101.0930968968
 21
119.462220666
 31
0.0
  0
LINE
  5
81
330
1F
100
AcDbEntity
  8
0
  6
Continuous
 62
     7
370
    15
100
AcDbLine
 10
101.0930968968
 20
94.6688938113
 30
0.0
 11
168.4874056427
 21
84.8405572744
 31
0.0
  0
LINE
  5
82
330
1F
100
AcDbEntity
  8
0
  6
Continuous
 62
     7
370
    15
100
AcDbLine
 10
168.4874056427
 20
84.8405572744
 30
0.0
 11
171.0874056497
 21
84.8405572744
 31
0.0
  0
LINE
  5
83
330
1F
100
AcDbEntity
  8
0
  6
Continuous
 62
     7
370
    15
100
AcDbLine
 10
171.0874056497
 20
129.2905572029
 30
0.0
 11
168.4874056427
 21
129.2905572029
 31
0.0
  0
ARC
  5
84
330
1F
100
AcDbEntity
  8
0
  6
Continuous
 62
     7
370
    15
100
AcDbCircle
 10
191.5374056427
 20
93.0655572387
 30
0.0
 40
4.0
100
AcDbArc
 50
90.0
 51
180.0
  0
ARC
  5
85
330
1F
100
AcDbEntity
  8
0
  6
Continuous
 62
     7
370
    15
100
AcDbCircle
 10
191.5374056427
 20
121.0655572387
 30
0.0
 40
4.0
100
AcDbArc
 50
180.0
 51
270.0
  0
ARC
  5
86
330
1F
100
AcDbEntity
  8
0
  6
Continuous
 62
     7
370
    15
100
AcDbCircle
 10
101.2374056427
 20
95.6584266416
 30
0.0
 40
1.0
100
AcDbArc
 50
180.0
 51
261.7028550302
  0
ARC
  5
87
330
1F
100
AcDbEntity
  8
0
  6
Continuous
 62
     7
370
    15
100
AcDbCircle
 10
101.2374056427
 20
118.4726878357
 30
0.0
 40
1.0
100
AcDbArc
 50
98.2971449698
 51
180.0
  0
LINE
  5
88
330
1F
100
AcDbEntity
  8
0
  6
Continuous
 62
     7
370
    15
100
AcDbLine
 10
191.5374065338
 20
97.0655574622
 30
0.0
 11
202.3874057976
 21
97.0655574622
 31
0.0
  0
LINE
  5
89
330
1F
100
AcDbEntity
  8
0
  6
Continuous
 62
     7
370
    15
100
AcDbLine
 10
202.3874057976
 20
117.0655570151
 30
0.0
 11
191.5374065338
 21
117.0655570151
 31
0.0
  0
LINE
  5
8A
330
1F
100
AcDbEntity
  8
0
  6
Continuous
 62
     7
370
    15
100
AcDbLine
 10
202.3874057976
 20
97.0655574622
 30
0.0
 11
202.5874054579
 21
97.2655571224
 31
0.0
  0
LINE
  5
8B
330
1F
100
AcDbEntity
  8
0
  6
Continuous
 62
     7
370
    15
100
AcDbLine
 10
202.5874054579
 20
116.8655573549
 30
0.0
 11
202.3874057976
 21
117.0655570151
 31
0.0
  0
ARC
  5
8C
330
1F
100
AcDbEntity
  8
0
  6
Continuous
 62
     7
370
    15
100
AcDbCircle
 10
181.4966494457
 20
97.9175879886
 30
0.0
 40
2.022063978242041
100
AcDbArc
 50
188.2692598767
 51
333.6212643012
  0
ARC
  5
8D
330
1F
100
AcDbEntity
  8
0
  6
Continuous
 62
     7
370
    15
100
AcDbCircle
 10
181.5079036447
 20
97.8493082788
 30
0.0
 40
1.897944785305398
100
AcDbArc
 50
170.3823636759
 51
337.036249445
  0
ARC
  5
8E
330
1F
100
AcDbEntity
  8
0
  6
Continuous
 62
     7
370
    15
100
AcDbCircle
 10
181.4747642675
 20
97.6452960622
 30
0.0
 40
1.526877330252257
100
AcDbArc
 50
89.6497568041
 51
146.9082381558
  0
LWPOLYLINE
  5
8F
330
1F
100
AcDbEntity
  8
0
  6
Continuous
 62
     7
370
    15
100
AcDbPolyline
 90
       13
 70
   128
 43
0.0
 10
182.9727387575
 20
97.5659785019
 10
182.9515986664
 20
97.456466143
 10
182.7792611493
 20
97.0462762909
 10
182.4804677216
 20
96.7062057154
 10
182.0844665689
 20
96.4695436107
 10
181.6300211994
 20
96.3594556945
 10
181.1616153045
 20
96.3867183002
 10
180.7250997571
 20
96.5486622574
 10
180.3632045684
 20
96.8294364559
 10
180.1113535238
 20
97.2015557038
 10
179.9942005945
 20
97.6285950439
 10
180.0232131554
 20
98.0687520625
 10
180.1955506725
 20
98.478942846
  0
SPLINE
  5
90
330
1F
100
AcDbEntity
  8
0
  6
Continuous
 62
     7
370
    15
100
AcDbSpline
210
0.0
220
0.0
230
1.0
 70
     8
 71
     3
 72
    11
 73
     7
 74
     0
 42
0.000000001
 43
0.00000001
 40
0.0
 40
0.0
 40
0.0
 40
0.0
 40
0.1285560757838806
 40
0.4801537366951078
 40
0.8150692887073959
 40
0.9999999999999999
 40
0.9999999999999999
 40
0.9999999999999999
 40
0.9999999999999999
 10
198.2637962845992
 20
107.5001612755159
 30
0.0
 10
198.2512390371705
 20
107.4434049228469
 30
0.0
 10
198.2043380312188
 20
107.2314213612065
 30
0.0
 10
198.1163802442032
 20
106.8339059708947
 30
0.0
 10
198.0211478739433
 20
106.4034796271311
 30
0.0
 10
197.9701295064754
 20
106.1728972064005
 30
0.0
 10
197.9519801733921
 20
106.0908695492117
 30
0.0
  0
SPLINE
  5
91
330
1F
100
AcDbEntity
  8
0
  6
Continuous
 62
     7
370
    15
100
AcDbSpline
210
0.0
220
0.0
230
1.0
 70
     8
 71
     3
 72
    10
 73
     6
 74
     0
 42
0.000000001
 43
0.00000001
 40
0.0
 40
0.0
 40
0.0
 40
0.0
 40
0.4391116570435726
 40
0.7513636506171305
 40
1.0
 40
1.0
 40
1.0
 40
1.0
 10
197.199223801298
 20
108.4748489940693
 30
0.0
 10
197.351623481225
 20
108.3353163236669
 30
0.0
 10
197.6123944674333
 20
108.0965620684967
 30
0.0
 10
197.9914750874983
 20
107.7494905352754
 30
0.0
 10
198.1801559102566
 20
107.5767399364605
 30
0.0
 10
198.2637962845992
 20
107.5001612755159
 30
0.0
  0
SPLINE
  5
92
330
1F
100
AcDbEntity
  8
0
  6
Continuous
 62
     7
370
    15
100
AcDbSpline
210
0.0
220
0.0
230
1.0
 70
     8
 71
     3
 72
    10
 73
     6
 74
     0
 42
0.000000001
 43
0.00000001
 40
0.0
 40
0.0
 40
0.0
 40
0.0
 40
0.4391115648435385
 40
0.7513636528222997
 40
1.0
 40
1.0
 40
1.0
 40
1.0
 10
195.8228314814995
 20
108.0402449281109
 30
0.0
 10
196.0198702131785
 20
108.1024612521727
 30
0.0
 10
196.3570231215392
 20
108.2089195836196
 30
0.0
 10
196.8471374769557
 20
108.3636753186147
 30
0.0
 10
197.0910844836563
 20
108.4407032616958
 30
0.0
 10
197.199223801298
 20
108.4748489940693
 30
0.0
  0
SPLINE
  5
93
330
1F
100
AcDbEntity
  8
0
  6
Continuous
 62
     7
370
    15
100
AcDbSpline
210
0.0
220
0.0
230
1.0
 70
     8
 71
     3
 72
    11
 73
     7
 74
     0
 42
0.000000001
 43
0.00000001
 40
0.0
 40
0.0
 40
0.0
 40
0.0
 40
0.1849307284287187
 40
0.519846279977281
 40
0.8714439588754872
 40
1.0
 40
1.0
 40
1.0
 40
1.0
 10
195.5110153702925
 20
106.6309532018067
 30
0.0
 10
195.5291647028368
 20
106.7129808690512
 30
0.0
 10
195.5801830656983
 20
106.9435633040773
 30
0.0
 10
195.6754154492129
 20
107.3739896557203
 30
0.0
 10
195.7633732137116
 20
107.771505057871
 30
0.0
 10
195.8102742333546
 20
107.9834885952648
 30
0.0
 10
195.8228314814995
 20
108.0402449281109
 30
0.0
  0
SPLINE
  5
94
330
1F
100
AcDbEntity
  8
0
  6
Continuous
 62
     7
370
    15
100
AcDbSpline
210
0.0
220
0.0
230
1.0
 70
     8
 71
     3
 72
    10
 73
     6
 74
     0
 42
0.000000001
 43
0.00000001
 40
0.0
 40
0.0
 40
0.0
 40
0.0
 40
0.4391127169260803
 40
0.7513636421178883
 40
0.9999999999999999
 40
0.9999999999999999
 40
0.9999999999999999
 40
0.9999999999999999
 10
197.9519801733921
 20
106.0908695492117
 30
0.0
 10
197.7549407689178
 20
106.0286533788698
 30
0.0
 10
197.4177875987183
 20
105.9221955912794
 30
0.0
 10
196.9276737130926
 20
105.7674388498489
 30
0.0
 10
196.6837271855892
 20
105.6904111703776
 30
0.0
 10
196.5755878535937
 20
105.6562654832533
 30
0.0
  0
CIRCLE
  5
95
330
1F
100
AcDbEntity
  8
0
  6
Continuous
 62
     7
370
    15
100
AcDbCircle
 10
196.8874056427
 20
107.0655572387
 30
0.0
 40
1.500000000000002
  0
SPLINE
  5
96
330
1F
100
AcDbEntity
  8
0
  6
Continuous
 62
     7
370
    15
100
AcDbSpline
210
0.0
220
0.0
230
1.0
 70
     8
 71
     3
 72
    10
 73
     6
 74
     0
 42
0.000000001
 43
0.00000001
 40
0.0
 40
0.0
 40
0.0
 40
0.0
 40
0.4391116570435726
 40
0.7513636506171305
 40
1.0
 40
1.0
 40
1.0
 40
1.0
 10
196.5755878535937
 20
105.6562654832533
 30
0.0
 10
196.4231881736667
 20
105.7957981536558
 30
0.0
 10
196.1624171874583
 20
106.0345524088259
 30
0.0
 10
195.7833365673934
 20
106.3816239420472
 30
0.0
 10
195.594655744635
 20
106.5543745408621
 30
0.0
 10
195.5110153702925
 20
106.6309532018067
 30
0.0
  0
CIRCLE
  5
97
330
1F
100
AcDbEntity
  8
0
  6
Continuous
 62
     7
370
    15
100
AcDbCircle
 10
196.8874056427
 20
107.0655572387
 30
0.0
 40
2.199999999999989
  0
CIRCLE
  5
98
330
1F
100
AcDbEntity
  8
0
  6
Continuous
 62
     7
370
    15
100
AcDbCircle
 10
196.8874056427
 20
107.0655572387
 30
0.0
 40
2.500000000000004
  0
ARC
  5
99
330
1F
100
AcDbEntity
  8
0
  6
Continuous
 62
     7
370
    15
100
AcDbCircle
 10
196.8874056427
 20
107.0655572387
 30
0.0
 40
1.25
100
AcDbArc
 50
107.523834216
 51
167.523834216
  0
ARC
  5
9A
330
1F
100
AcDbEntity
  8
0
  6
Continuous
 62
     7
370
    15
100
AcDbCircle
 10
196.8874056427
 20
107.0655572387
 30
0.0
 40
1.250000000000005
100
AcDbArc
 50
347.523834216
 51
47.523834216
  0
ARC
  5
9B
330
1F
100
AcDbEntity
  8
0
  6
Continuous
 62
     7
370
    15
100
AcDbCircle
 10
196.8874056427
 20
107.0655572387
 30
0.0
 40
1.250000000000005
100
AcDbArc
 50
47.523834216
 51
107.523834216
  0
ARC
  5
9C
330
1F
100
AcDbEntity
  8
0
  6
Continuous
 62
     7
370
    15
100
AcDbCircle
 10
196.8874056427
 20
107.0655572387
 30
0.0
 40
1.250000000000016
100
AcDbArc
 50
167.523834216
 51
227.523834216
  0
ARC
  5
9D
330
1F
100
AcDbEntity
  8
0
  6
Continuous
 62
     7
370
    15
100
AcDbCircle
 10
196.8874056427
 20
107.0655572387
 30
0.0
 40
1.250000000000012
100
AcDbArc
 50
287.523834216
 51
347.523834216
  0
ARC
  5
9E
330
1F
100
AcDbEntity
  8
0
  6
Continuous
 62
     7
370
    15
100
AcDbCircle
 10
196.8874056427
 20
107.0655572387
 30
0.0
 40
1.250000000000016
100
AcDbArc
 50
227.523834216
 51
287.523834216
  0
SPLINE
  5
9F
330
1F
100
AcDbEntity
  8
0
  6
Continuous
 62
     7
370
    15
100
AcDbSpline
210
0.0
220
0.0
230
1.0
 70
     8
 71
     3
 72
     8
 73
     4
 74
     0
 42
0.000000001
 43
0.00000001
 40
0.0
 40
0.0
 40
0.0
 40
0.0
 40
1.0
 40
1.0
 40
1.0
 40
1.0
 10
177.6774056426714
 20
79.24873077915984
 30
0.0
 10
177.293270894087
 20
78.55608935721565
 30
0.0
 10
176.9082846175941
 20
77.86390318289193
 30
0.0
 10
176.5226160389677
 20
77.17210889204776
 30
0.0
  0
SPLINE
  5
A0
330
1F
100
AcDbEntity
  8
0
  6
Continuous
 62
     7
370
    15
100
AcDbSpline
210
0.0
220
0.0
230
1.0
 70
     8
 71
     3
 72
     8
 73
     4
 74
     0
 42
0.000000001
 43
0.00000001
 40
0.0
 40
0.0
 40
0.0
 40
0.0
 40
0.0011901715795577
 40
0.0011901715795577
 40
0.0011901715795577
 40
0.0011901715795577
 10
176.0655690006147
 20
76.61746489002462
 30
0.0
 10
176.2194151901107
 20
76.80203012770819
 30
0.0
 10
176.3718104577833
 20
76.98690548823683
 30
0.0
 10
176.5226160389678
 20
77.17210889204776
 30
0.0
  0
LINE
  5
A1
330
1F
100
AcDbEntity
  8
0
  6
Continuous
 62
     7
370
    15
100
AcDbLine
 10
176.0655690504
 20
76.617465091
 30
0.0
 11
176.0655690504
 21
125.4155568006
 31
0.0
  0
SPLINE
  5
A2
330
1F
100
AcDbEntity
  8
0
  6
Continuous
 62
     7
370
    15
100
AcDbSpline
210
0.0
220
0.0
230
1.0
 70
    24
 71
     3
 72
     8
 73
     4
 74
     0
 42
0.000000001
 43
0.00000001
 40
0.0
 40
0.0
 40
0.0
 40
0.0
 40
1.0
 40
1.0
 40
1.0
 40
1.0
 10
177.6774056426714
 20
125.4155572386613
 30
0.0
 10
177.1526731543095
 20
125.4155572386613
 30
0.0
 10
176.6139976700907
 20
125.4155572386613
 30
0.0
 10
176.0655690006147
 20
125.4155572386613
 30
0.0
  0
LINE
  5
A3
330
1F
100
AcDbEntity
  8
0
  6
Continuous
 62
     7
370
    15
100
AcDbLine
 10
177.677405305
 20
79.248730761
 30
0.0
 11
177.677405305
 21
125.4155568006
 31
0.0
  0
LINE
  5
A4
330
1F
100
AcDbEntity
  8
0
  6
Continuous
 62
     7
370
    15
100
AcDbLine
 10
183.1092427073
 20
97.3135369988
 30
0.0
 11
183.1092427073
 21
125.4155568006
 31
0.0
  0
LINE
  5
A5
330
1F
100
AcDbEntity
  8
0
  6
Continuous
 62
     7
370
    15
100
AcDbLine
 10
186.9374050347
 20
125.4155568006
 30
0.0
 11
183.1092427073
 21
125.4155568006
 31
0.0
  0
LINE
  5
A6
330
1F
100
AcDbEntity
  8
0
  6
Continuous
 62
     7
370
    15
100
AcDbLine
 10
183.1092427073
 20
76.617465091
 30
0.0
 11
186.9374050347
 21
76.617465091
 31
0.0
  0
LINE
  5
A7
330
1F
100
AcDbEntity
  8
0
  6
Continuous
 62
     7
370
    15
100
AcDbLine
 10
183.1092427073
 20
76.617465091
 30
0.0
 11
183.1092427073
 21
95.1140576201
 31
0.0
  0
SPLINE
  5
A8
330
1F
100
AcDbEntity
  8
0
  6
Continuous
 62
     7
370
    15
100
AcDbSpline
210
0.0
220
0.0
230
1.0
 70
     8
 71
     3
 72
    12
 73
     8
 74
     0
 42
0.000000001
 43
0.00000001
 40
0.0
 40
0.0
 40
0.0
 40
0.0
 40
0.2499999999999997
 40
0.2499999999999997
 40
0.4999999999999993
 40
0.4999999999999993
 40
1.0
 40
1.0
 40
1.0
 40
1.0
 10
183.1092422847281
 20
95.11405744045427
 30
0.0
 10
183.2321897785237
 20
95.27201428914935
 30
0.0
 10
183.3257339816325
 20
95.44384765612689
 30
0.0
 10
183.4546733707948
 20
95.81552036577271
 30
0.0
 10
183.4872261281799
 20
96.00870881196397
 30
0.0
 10
183.4877624699137
 20
96.5970053502402
 30
0.0
 10
183.3551388129457
 20
96.98902358812892
 30
0.0
 10
183.1092422847281
 20
97.3135371708376
 30
0.0
  0
LINE
  5
A9
330
1F
100
AcDbEntity
  8
0
  6
Continuous
 62
     7
370
    15
100
AcDbLine
 10
172.2874057067
 20
76.617465091
 30
0.0
 11
176.0655690504
 21
76.617465091
 31
0.0
  0
LINE
  5
AA
330
1F
100
AcDbEntity
  8
0
  6
Continuous
 62
     7
370
    15
100
AcDbLine
 10
176.0655690504
 20
125.4155568006
 30
0.0
 11
172.2874057067
 21
125.4155568006
 31
0.0
  0
SPLINE
  5
AB
330
1F
100
AcDbEntity
  8
0
  6
Continuous
 62
     7
370
    15
100
AcDbSpline
210
0.0
220
0.0
230
1.0
 70
     8
 71
     3
 72
    12
 73
     8
 74
     0
 42
0.000000001
 43
0.00000001
 40
0.0
 40
0.0
 40
0.0
 40
0.0
 40
0.250000000000001
 40
0.250000000000001
 40
0.500000000000002
 40
0.500000000000002
 40
1.0
 40
1.0
 40
1.0
 40
1.0
 10
186.9374056426714
 20
76.61746489002462
 30
0.0
 10
187.0329475528074
 20
76.61746489002462
 30
0.0
 10
187.1250924946702
 20
76.63371855922082
 30
0.0
 10
187.2814187712801
 20
76.6873269801343
 30
0.0
 10
187.3450869139
 20
76.72373810541599
 30
0.0
 10
187.4939547593304
 20
76.84586174510248
 30
0.0
 10
187.5374056426714
 20
76.94101442053952
 30
0.0
 10
187.5374056426714
 20
77.0366408761592
 30
0.0
  0
SPLINE
  5
AC
330
1F
100
AcDbEntity
  8
0
  6
Continuous
 62
     7
370
    15
100
AcDbSpline
210
0.0
220
0.0
230
1.0
 70
    24
 71
     3
 72
    12
 73
     8
 74
     0
 42
0.000000001
 43
0.00000001
 40
0.0
 40
0.0
 40
0.0
 40
0.0
 40
0.4999999999999931
 40
0.4999999999999931
 40
0.7499999999999966
 40
0.7499999999999966
 40
1.0
 40
1.0
 40
1.0
 40
1.0
 10
187.5374056426714
 20
125.4155572386613
 30
0.0
 10
187.5374056426714
 20
125.4155572386613
 30
0.0
 10
187.4877256477164
 20
125.4155572386613
 30
0.0
 10
187.3318070906988
 20
125.4155572386613
 30
0.0
 10
187.2659260261227
 20
125.4155572386613
 30
0.0
 10
187.113280370634
 20
125.4155572386613
 30
0.0
 10
187.0260304627731
 20
125.4155572386613
 30
0.0
 10
186.9374056426713
 20
125.4155572386613
 30
0.0
  0
LINE
  5
AD
330
1F
100
AcDbEntity
  8
0
  6
Continuous
 62
     7
370
    15
100
AcDbLine
 10
187.5374058781
 20
77.0366403433
 30
0.0
 11
187.5374058781
 21
125.4155568006
 31
0.0
  0
SPLINE
  5
AE
330
1F
100
AcDbEntity
  8
0
  6
Continuous
 62
     7
370
    15
100
AcDbSpline
210
0.0
220
0.0
230
1.0
 70
     8
 71
     3
 72
    10
 73
     6
 74
     0
 42
0.000000001
 43
0.00000001
 40
0.0
 40
0.0
 40
0.0
 40
0.0
 40
0.5
 40
0.5
 40
1.0
 40
1.0
 40
1.0
 40
1.0
 10
171.9035501840187
 20
76.71382738919309
 30
0.0
 10
171.952320157
 20
76.68559938198507
 30
0.0
 10
172.0097722803023
 20
76.66150477774347
 30
0.0
 10
172.140369183291
 20
76.62724130465091
 30
0.0
 10
172.2128588631332
 20
76.6174648900246
 30
0.0
 10
172.2874056426714
 20
76.6174648900246
 30
0.0
  0
SPLINE
  5
AF
330
1F
100
AcDbEntity
  8
0
  6
Continuous
 62
     7
370
    15
100
AcDbSpline
210
0.0
220
0.0
230
1.0
 70
     8
 71
     3
 72
    10
 73
     6
 74
     0
 42
0.000000001
 43
0.00000001
 40
0.0
 40
0.0
 40
0.0
 40
0.0
 40
0.5
 40
0.5
 40
1.0
 40
1.0
 40
1.0
 40
1.0
 10
171.9035501840186
 20
76.71382738919309
 30
0.0
 10
171.8454275239425
 20
76.78113254905487
 30
0.0
 10
171.793024357939
 20
76.86121793608852
 30
0.0
 10
171.7141213363927
 20
77.0452373777773
 30
0.0
 10
171.6874056426714
 20
77.15044873519774
 30
0.0
 10
171.6874056426714
 20
77.25918208165841
 30
0.0
  0
LINE
  5
B0
330
1F
100
AcDbEntity
  8
0
  6
Continuous
 62
     7
370
    15
100
AcDbLine
 10
171.6874055618
 20
77.2591817351
 30
0.0
 11
171.6874055618
 21
125.4155568006
 31
0.0
  0
SPLINE
  5
B1
330
1F
100
AcDbEntity
  8
0
  6
Continuous
 62
     7
370
    15
100
AcDbSpline
210
0.0
220
0.0
230
1.0
 70
    24
 71
     3
 72
    12
 73
     8
 74
     0
 42
0.000000001
 43
0.00000001
 40
0.0
 40
0.0
 40
0.0
 40
0.0
 40
0.2499999999999998
 40
0.2499999999999998
 40
0.4999999999999997
 40
0.4999999999999997
 40
1.0
 40
1.0
 40
1.0
 40
1.0
 10
172.2874056426714
 20
125.4155572386613
 30
0.0
 10
172.1989902653609
 20
125.4155572386613
 30
0.0
 10
172.1117198281904
 20
125.4155572386613
 30
0.0
 10
171.9592561034185
 20
125.4155572386613
 30
0.0
 10
171.8936174911961
 20
125.4155572386613
 30
0.0
 10
171.7369590899121
 20
125.4155572386613
 30
0.0
 10
171.6874056426714
 20
125.4155572386613
 30
0.0
 10
171.6874056426714
 20
125.4155572386613
 30
0.0
  0
LINE
  5
B2
330
1F
100
AcDbEntity
  8
0
  6
Continuous
 62
     7
370
    15
100
AcDbLine
 10
181.4974055214
 20
99.0642744275
 30
0.0
 11
181.4974055214
 21
125.4155568006
 31
0.0
  0
SPLINE
  5
B3
330
1F
100
AcDbEntity
  8
0
  6
Continuous
 62
     7
370
    15
100
AcDbSpline
210
0.0
220
0.0
230
1.0
 70
    24
 71
     3
 72
     8
 73
     4
 74
     0
 42
0.000000001
 43
0.00000001
 40
0.0
 40
0.0
 40
0.0
 40
0.0
 40
1.0
 40
1.0
 40
1.0
 40
1.0
 10
183.1092422847281
 20
125.4155572386613
 30
0.0
 10
182.5608136152521
 20
125.4155572386613
 30
0.0
 10
182.0221381310333
 20
125.4155572386613
 30
0.0
 10
181.4974056426714
 20
125.4155572386613
 30
0.0
  0
SPLINE
  5
B4
330
1F
100
AcDbEntity
  8
0
  6
Continuous
 62
     7
370
    15
100
AcDbSpline
210
0.0
220
0.0
230
1.0
 70
     8
 71
     3
 72
    12
 73
     8
 74
     0
 42
0.000000001
 43
0.00000001
 40
0.0
 40
0.0
 40
0.0
 40
0.0
 40
0.2499999999999994
 40
0.2499999999999994
 40
0.4999999999999989
 40
0.4999999999999989
 40
1.0
 40
1.0
 40
1.0
 40
1.0
 10
183.1092422847281
 20
97.3135371708376
 30
0.0
 10
182.9943462334675
 20
97.53327760589416
 30
0.0
 10
182.8675802169948
 20
97.73024595751589
 30
0.0
 10
182.6073652833763
 20
98.0839635303548
 30
0.0
 10
182.4738578254141
 20
98.24078882422704
 30
0.0
 10
182.0654595568259
 20
98.66733139513472
 30
0.0
 10
181.7818064218883
 20
98.89402357408996
 30
0.0
 10
181.4974056426715
 20
99.06427471848542
 30
0.0
  0
SPLINE
  5
B5
330
1F
100
AcDbEntity
  8
0
  6
Continuous
 62
     7
370
    15
100
AcDbSpline
210
0.0
220
0.0
230
1.0
 70
     8
 71
     3
 72
    14
 73
    10
 74
     0
 42
0.000000001
 43
0.00000001
 40
0.0
 40
0.0
 40
0.0
 40
0.0
 40
0.25
 40
0.25
 40
0.5
 40
0.5
 40
0.75
 40
0.75
 40
1.0
 40
1.0
 40
1.0
 40
1.0
 10
181.4974056426714
 20
99.11851836833165
 30
0.0
 10
181.4974056426714
 20
99.15516923649545
 30
0.0
 10
181.4760778539596
 20
99.19163603374439
 30
0.0
 10
181.393619451303
 20
99.25677488828525
 30
0.0
 10
181.3325032594478
 20
99.28484601887617
 30
0.0
 10
181.1812001663857
 20
99.31867390060303
 30
0.0
 10
181.0898221429951
 20
99.32413704199953
 30
0.0
 10
180.8974484299423
 20
99.30321112398696
 30
0.0
 10
180.7952680904633
 20
99.27667569861164
 30
0.0
 10
180.6974056426714
 20
99.23618952533036
 30
0.0
  0
SPLINE
  5
B6
330
1F
100
AcDbEntity
  8
0
  6
Continuous
 62
     7
370
    15
100
AcDbSpline
210
0.0
220
0.0
230
1.0
 70
     8
 71
     3
 72
    12
 73
     8
 74
     0
 42
0.000000001
 43
0.00000001
 40
0.0
 40
0.0
 40
0.0
 40
0.0
 40
0.500000000000001
 40
0.500000000000001
 40
0.7500000000000004
 40
0.7500000000000004
 40
1.0
 40
1.0
 40
1.0
 40
1.0
 10
181.4974056426714
 20
95.30555122026436
 30
0.0
 10
181.7816121772367
 20
95.13808705797064
 30
0.0
 10
182.0603079113405
 20
95.02644995845904
 30
0.0
 10
182.4696539545298
 20
94.95913669281967
 30
0.0
 10
182.6057932918493
 20
94.9539856528057
 30
0.0
 10
182.8671133408453
 20
94.99175159042508
 30
0.0
 10
182.9925345232771
 20
95.03330134876934
 30
0.0
 10
183.1092422847285
 20
95.11405744045216
 30
0.0
  0
LINE
  5
B7
330
1F
100
AcDbEntity
  8
0
  6
Continuous
 62
     7
370
    15
100
AcDbLine
 10
181.4974055214
 20
95.359794532
 30
0.0
 11
181.4974055214
 21
95.3055515113
 31
0.0
  0
SPLINE
  5
B8
330
1F
100
AcDbEntity
  8
0
  6
Continuous
 62
     7
370
    15
100
AcDbSpline
210
0.0
220
0.0
230
1.0
 70
     8
 71
     3
 72
    14
 73
    10
 74
     0
 42
0.000000001
 43
0.00000001
 40
0.0
 40
0.0
 40
0.0
 40
0.0
 40
0.25
 40
0.25
 40
0.5
 40
0.5
 40
0.75
 40
0.75
 40
1.0
 40
1.0
 40
1.0
 40
1.0
 10
180.6974056426678
 20
95.78307804855453
 30
0.0
 10
180.7948150626517
 20
95.74466332916035
 30
0.0
 10
180.8971393056653
 20
95.7069629243776
 30
0.0
 10
181.0891409912028
 20
95.63591813878347
 30
0.0
 10
181.1805756208572
 20
95.60171667742542
 30
0.0
 10
181.3323544881522
 20
95.53472025202002
 30
0.0
 10
181.3933313780668
 20
95.50157878371053
 30
0.0
 10
181.4763493166311
 20
95.43190121606045
 30
0.0
 10
181.4974056426714
 20
95.39616750489326
 30
0.0
 10
181.4974056426714
 20
95.35979487011247
 30
0.0
  0
SPLINE
  5
B9
330
1F
100
AcDbEntity
  8
0
  6
Continuous
 62
     7
370
    15
100
AcDbSpline
210
0.0
220
0.0
230
1.0
 70
     8
 71
     3
 72
    22
 73
    18
 74
     0
 42
0.000000001
 43
0.00000001
 40
0.0
 40
0.0
 40
0.0
 40
0.0
 40
0.125
 40
0.125
 40
0.25
 40
0.25
 40
0.375
 40
0.375
 40
0.5
 40
0.5
 40
0.625
 40
0.625
 40
0.75
 40
0.75
 40
0.875
 40
0.875
 40
1.0
 40
1.0
 40
1.0
 40
1.0
 10
180.6974056426714
 20
99.23618952533037
 30
0.0
 10
180.5173889481021
 20
99.16171573835383
 30
0.0
 10
180.3529571262319
 20
99.06426647636987
 30
0.0
 10
180.0545608924735
 20
98.82489704280573
 30
0.0
 10
179.9242571651086
 20
98.68500043073534
 30
0.0
 10
179.7110383814896
 20
98.37674884067535
 30
0.0
 10
179.6274105243781
 20
98.20658562255623
 30
0.0
 10
179.5162796474598
 20
97.85609088776594
 30
0.0
 10
179.487443652606
 20
97.67096592661473
 30
0.0
 10
179.4873677099461
 20
97.30775905199768
 30
0.0
 10
179.5160263353732
 20
97.12438903829019
 30
0.0
 10
179.6271774284855
 20
96.77849792579697
 30
0.0
 10
179.7102445491293
 20
96.61297839852953
 30
0.0
 10
179.9239305072476
 20
96.31243866112573
 30
0.0
 10
180.0529374971717
 20
96.1785667398417
 30
0.0
 10
180.3525467766609
 20
95.94731997043738
 30
0.0
 10
180.517389474922
 20
95.8540698537774
 30
0.0
 10
180.6974056426714
 20
95.78307804855312
 30
0.0
  0
SPLINE
  5
BA
330
1F
100
AcDbEntity
  8
0
  6
Continuous
 62
     7
370
    15
100
AcDbSpline
210
0.0
220
0.0
230
1.0
 70
     8
 71
     3
 72
     8
 73
     4
 74
     0
 42
0.000000001
 43
0.00000001
 40
0.0
 40
0.0
 40
0.0
 40
0.0
 40
0.0011901715795577
 40
0.0011901715795577
 40
0.0011901715795577
 40
0.0011901715795577
 10
182.6521952463751
 20
77.17210889204776
 30
0.0
 10
182.8030008275596
 20
76.98690548823683
 30
0.0
 10
182.9553960952322
 20
76.80203012770819
 30
0.0
 10
183.1092422847281
 20
76.61746489002462
 30
0.0
  0
SPLINE
  5
BB
330
1F
100
AcDbEntity
  8
0
  6
Continuous
 62
     7
370
    15
100
AcDbSpline
210
0.0
220
0.0
230
1.0
 70
     8
 71
     3
 72
     8
 73
     4
 74
     0
 42
0.000000001
 43
0.00000001
 40
0.0
 40
0.0
 40
0.0
 40
0.0
 40
1.0
 40
1.0
 40
1.0
 40
1.0
 10
182.6521952463751
 20
77.17210889204776
 30
0.0
 10
182.2665266677487
 20
77.86390318289193
 30
0.0
 10
181.8815403912558
 20
78.55608935721564
 30
0.0
 10
181.4974056426714
 20
79.24873077915984
 30
0.0
  0
LINE
  5
BC
330
1F
100
AcDbEntity
  8
0
  6
Continuous
 62
     7
370
    15
100
AcDbLine
 10
181.4974055214
 20
79.248730761
 30
0.0
 11
181.4974055214
 21
95.3055515113
 31
0.0
  0
SPLINE
  5
BD
330
1F
100
AcDbEntity
  8
0
  6
Continuous
 62
     7
370
    15
100
AcDbSpline
210
0.0
220
0.0
230
1.0
 70
     8
 71
     3
 72
    12
 73
     8
 74
     0
 42
0.000000001
 43
0.00000001
 40
0.0
 40
0.0
 40
0.0
 40
0.0
 40
0.2500000000000015
 40
0.2500000000000015
 40
0.500000000000003
 40
0.500000000000003
 40
1.0
 40
1.0
 40
1.0
 40
1.0
 10
178.4774056426714
 20
80.24769938237456
 30
0.0
 10
178.3710037923139
 20
80.24769938237458
 30
0.0
 10
178.2636883809174
 20
80.22492861835606
 30
0.0
 10
178.0682167898902
 20
80.13868567170395
 30
0.0
 10
177.9780346739526
 20
80.07400935123343
 30
0.0
 10
177.7598131872319
 20
79.84108002717663
 30
0.0
 10
177.6774056426711
 20
79.62649478928562
 30
0.0
 10
177.6774056426714
 20
79.41347775085289
 30
0.0
  0
SPLINE
  5
BE
330
1F
100
AcDbEntity
  8
0
  6
Continuous
 62
     7
370
    15
100
AcDbSpline
210
0.0
220
0.0
230
1.0
 70
    24
 71
     3
 72
    14
 73
    10
 74
     0
 42
0.000000001
 43
0.00000001
 40
0.0
 40
0.0
 40
0.0
 40
0.0
 40
0.1250000000000018
 40
0.1250000000000018
 40
0.2500000000000037
 40
0.2500000000000037
 40
0.5000000000000004
 40
0.5000000000000004
 40
1.0
 40
1.0
 40
1.0
 40
1.0
 10
178.4774056426714
 20
125.4155572386613
 30
0.0
 10
178.4167883192538
 20
125.4155572386613
 30
0.0
 10
178.3546631711188
 20
125.4155572386613
 30
0.0
 10
178.2384455080974
 20
125.4155572386613
 30
0.0
 10
178.183828868405
 20
125.4155572386613
 30
0.0
 10
178.0291525298968
 20
125.4155572386613
 30
0.0
 10
177.9430357811128
 20
125.4155572386613
 30
0.0
 10
177.7417282005722
 20
125.4155572386613
 30
0.0
 10
177.6774056426714
 20
125.4155572386613
 30
0.0
 10
177.6774056426714
 20
125.4155572386613
 30
0.0
  0
SPLINE
  5
BF
330
1F
100
AcDbEntity
  8
0
  6
Continuous
 62
     7
370
    15
100
AcDbSpline
210
0.0
220
0.0
230
1.0
 70
    24
 71
     3
 72
    14
 73
    10
 74
     0
 42
0.000000001
 43
0.00000001
 40
0.0
 40
0.0
 40
0.0
 40
0.0
 40
0.25
 40
0.25
 40
0.5
 40
0.5
 40
0.75
 40
0.75
 40
1.0
 40
1.0
 40
1.0
 40
1.0
 10
181.4974056426714
 20
125.4155572386613
 30
0.0
 10
181.4974056426714
 20
125.4155572386613
 30
0.0
 10
181.4813240412116
 20
125.4155572386613
 30
0.0
 10
181.4158325279447
 20
125.4155572386613
 30
0.0
 10
181.3665245548174
 20
125.4155572386613
 30
0.0
 10
181.2319550331204
 20
125.4155572386613
 30
0.0
 10
181.1464319570352
 20
125.4155572386613
 30
0.0
 10
180.9394364614801
 20
125.4155572386613
 30
0.0
 10
180.8187428275365
 20
125.4155572386613
 30
0.0
 10
180.6974056426714
 20
125.4155572386613
 30
0.0
  0
LINE
  5
C0
330
1F
100
AcDbEntity
  8
0
  6
Continuous
 62
     7
370
    15
100
AcDbLine
 10
180.697405949
 20
80.2476990195
 30
0.0
 11
178.4774058087
 21
80.2476990195
 31
0.0
  0
LINE
  5
C1
330
1F
100
AcDbEntity
  8
0
  6
Continuous
 62
     7
370
    15
100
AcDbLine
 10
180.697405949
 20
125.4155568006
 30
0.0
 11
178.4774058087
 21
125.4155568006
 31
0.0
  0
SPLINE
  5
C2
330
1F
100
AcDbEntity
  8
0
  6
Continuous
 62
     7
370
    15
100
AcDbSpline
210
0.0
220
0.0
230
1.0
 70
     8
 71
     3
 72
    12
 73
     8
 74
     0
 42
0.000000001
 43
0.00000001
 40
0.0
 40
0.0
 40
0.0
 40
0.0
 40
0.5
 40
0.5
 40
0.75
 40
0.75
 40
1.0
 40
1.0
 40
1.0
 40
1.0
 10
181.4974056426714
 20
79.41347775085426
 30
0.0
 10
181.4974056426714
 20
79.62630030978713
 30
0.0
 10
181.4154802848517
 20
79.8405568164251
 30
0.0
 10
181.1965584813833
 20
80.07424644487499
 30
0.0
 10
181.1065111898923
 20
80.13873126971896
 30
0.0
 10
180.9110977218724
 20
80.22493088087454
 30
0.0
 10
180.8038147548886
 20
80.24769938237458
 30
0.0
 10
180.6974056426714
 20
80.24769938237458
 30
0.0
  0
LINE
  5
C3
330
1F
100
AcDbEntity
  8
0
  6
Continuous
 62
     7
370
    15
100
AcDbLine
 10
168.4874056427
 20
84.8405572744
 30
0.0
 11
168.4874056427
 21
129.2905572029
 31
0.0
  0
SPLINE
  5
C4
330
1F
100
AcDbEntity
  8
0
  6
Continuous
 62
     7
370
    15
100
AcDbSpline
210
0.0
220
0.0
230
1.0
 70
     8
 71
     3
 72
    12
 73
     8
 74
     0
 42
0.000000001
 43
0.00000001
 40
0.0
 40
0.0
 40
0.0
 40
0.0
 40
0.5000000000000042
 40
0.5000000000000042
 40
0.7500000000000021
 40
0.7500000000000021
 40
1.0
 40
1.0
 40
1.0
 40
1.0
 10
187.5374056426714
 20
137.0761083721025
 30
0.0
 10
187.5374056426714
 20
137.1964354051556
 30
0.0
 10
187.4836108310785
 20
137.3145329786374
 30
0.0
 10
187.3226872611122
 20
137.4541757210764
 30
0.0
 10
187.2579358000096
 20
137.4924516744709
 30
0.0
 10
187.1057156166919
 20
137.5472915041053
 30
0.0
 10
187.022908101167
 20
137.5618933178769
 30
0.0
 10
186.9374056426714
 20
137.5618933178769
 30
0.0
  0
SPLINE
  5
C5
330
1F
100
AcDbEntity
  8
0
  6
Continuous
 62
     7
370
    15
100
AcDbSpline
210
0.0
220
0.0
230
1.0
 70
     8
 71
     3
 72
    14
 73
    10
 74
     0
 42
0.000000001
 43
0.00000001
 40
0.0
 40
0.0
 40
0.0
 40
0.0
 40
0.25
 40
0.25
 40
0.5
 40
0.5
 40
0.75
 40
0.75
 40
1.0
 40
1.0
 40
1.0
 40
1.0
 10
186.9374056426714
 20
132.9757868787089
 30
0.0
 10
187.0258281807939
 20
132.9757868787089
 30
0.0
 10
187.1138821704869
 20
132.9507145282495
 30
0.0
 10
187.2657119343583
 20
132.8643724632782
 30
0.0
 10
187.3315548789221
 20
132.8028292087653
 30
0.0
 10
187.4353539394676
 20
132.6610014625144
 30
0.0
 10
187.4738260489423
 20
132.5809528725443
 30
0.0
 10
187.5250487122169
 20
132.4119403758706
 30
0.0
 10
187.5374056426714
 20
132.325161069001
 30
0.0
 10
187.5374056426714
 20
132.2369695947449
 30
0.0
  0
LINE
  5
C6
330
1F
100
AcDbEntity
  8
0
  6
Continuous
 62
     7
370
    15
100
AcDbLine
 10
187.5374058781
 20
132.2369693937
 30
0.0
 11
187.5374058781
 21
137.0761084529
 31
0.0
  0
SPLINE
  5
C7
330
1F
100
AcDbEntity
  8
0
  6
Continuous
 62
     7
370
    15
100
AcDbSpline
210
0.0
220
0.0
230
1.0
 70
     8
 71
     3
 72
    12
 73
     8
 74
     0
 42
0.000000001
 43
0.00000001
 40
0.0
 40
0.0
 40
0.0
 40
0.0
 40
0.5000000000000003
 40
0.5000000000000003
 40
0.7500000000000001
 40
0.7500000000000001
 40
1.0
 40
1.0
 40
1.0
 40
1.0
 10
171.6874056426714
 20
132.2369695947449
 30
0.0
 10
171.6874056426714
 20
132.4135859912667
 30
0.0
 10
171.7367462774932
 20
132.5886431626404
 30
0.0
 10
171.8929618357814
 20
132.802593375133
 30
0.0
 10
171.9582644156821
 20
132.86392601798
 30
0.0
 10
172.1120334336424
 20
132.9513141159512
 30
0.0
 10
172.1990465402529
 20
132.9757868787089
 30
0.0
 10
172.2874056426714
 20
132.9757868787089
 30
0.0
  0
LINE
  5
C8
330
1F
100
AcDbEntity
  8
0
  6
Continuous
 62
     7
370
    15
100
AcDbLine
 10
172.2874057067
 20
132.9757875921
 30
0.0
 11
176.0655690504
 21
132.9757875921
 31
0.0
  0
SPLINE
  5
C9
330
1F
100
AcDbEntity
  8
0
  6
Continuous
 62
     7
370
    15
100
AcDbSpline
210
0.0
220
0.0
230
1.0
 70
     8
 71
     3
 72
     8
 73
     4
 74
     0
 42
0.000000001
 43
0.00000001
 40
0.0
 40
0.0
 40
0.0
 40
0.0
 40
1.0
 40
1.0
 40
1.0
 40
1.0
 10
176.0655690006147
 20
132.9757868787089
 30
0.0
 10
176.6145137788116
 20
131.8106907663952
 30
0.0
 10
177.1531241533283
 20
130.6415324495707
 30
0.0
 10
177.6774056426714
 20
129.4676962945198
 30
0.0
  0
LINE
  5
CA
330
1F
100
AcDbEntity
  8
0
  6
Continuous
 62
     7
370
    15
100
AcDbLine
 10
177.677405305
 20
129.4676966192
 30
0.0
 11
177.677405305
 21
129.2627982022
 31
0.0
  0
SPLINE
  5
CB
330
1F
100
AcDbEntity
  8
0
  6
Continuous
 62
     7
370
    15
100
AcDbSpline
210
0.0
220
0.0
230
1.0
 70
     8
 71
     3
 72
    14
 73
    10
 74
     0
 42
0.000000001
 43
0.00000001
 40
0.0
 40
0.0
 40
0.0
 40
0.0
 40
0.25
 40
0.25
 40
0.5
 40
0.5
 40
0.75
 40
0.75
 40
1.0
 40
1.0
 40
1.0
 40
1.0
 10
177.6774056426714
 20
129.2627980581866
 30
0.0
 10
177.6774056426714
 20
129.140862723005
 30
0.0
 10
177.6934500102114
 20
129.0213084825036
 30
0.0
 10
177.7591793523907
 20
128.7871924993604
 30
0.0
 10
177.8083867226391
 20
128.6752599592257
 30
0.0
 10
177.9433997035379
 20
128.4728601499888
 30
0.0
 10
178.0293197721442
 20
128.3829949564258
 30
0.0
 10
178.2358345741496
 20
128.2526604468156
 30
0.0
 10
178.3559732865207
 20
128.2144933821178
 30
0.0
 10
178.4774056426714
 20
128.2144933821178
 30
0.0
  0
LINE
  5
CC
330
1F
100
AcDbEntity
  8
0
  6
Continuous
 62
     7
370
    15
100
AcDbLine
 10
178.4774058087
 20
128.2144940617
 30
0.0
 11
180.697405949
 21
128.2144940617
 31
0.0
  0
SPLINE
  5
CD
330
1F
100
AcDbEntity
  8
0
  6
Continuous
 62
     7
370
    15
100
AcDbSpline
210
0.0
220
0.0
230
1.0
 70
     8
 71
     3
 72
    12
 73
     8
 74
     0
 42
0.000000001
 43
0.00000001
 40
0.0
 40
0.0
 40
0.0
 40
0.0
 40
0.2499999999999986
 40
0.2499999999999986
 40
0.4999999999999971
 40
0.4999999999999971
 40
1.0
 40
1.0
 40
1.0
 40
1.0
 10
180.6974056426714
 20
128.2144933821178
 30
0.0
 10
180.8194876401597
 20
128.2144933821178
 30
0.0
 10
180.9400781826454
 20
128.2532197382915
 30
0.0
 10
181.1455734663452
 20
128.3831833260378
 30
0.0
 10
181.2310899492977
 20
128.4723895625845
 30
0.0
 10
181.4344843008419
 20
128.7772661001302
 30
0.0
 10
181.4974056426714
 20
129.0200367142322
 30
0.0
 10
181.4974056426714
 20
129.2627980581866
 30
0.0
  0
LINE
  5
CE
330
1F
100
AcDbEntity
  8
0
  6
Continuous
 62
     7
370
    15
100
AcDbLine
 10
181.4974055214
 20
129.2627982022
 30
0.0
 11
181.4974055214
 21
129.4676966192
 31
0.0
  0
SPLINE
  5
CF
330
1F
100
AcDbEntity
  8
0
  6
Continuous
 62
     7
370
    15
100
AcDbSpline
210
0.0
220
0.0
230
1.0
 70
     8
 71
     3
 72
     8
 73
     4
 74
     0
 42
0.000000001
 43
0.00000001
 40
0.0
 40
0.0
 40
0.0
 40
0.0
 40
1.0
 40
1.0
 40
1.0
 40
1.0
 10
181.4974056426714
 20
129.4676962945198
 30
0.0
 10
182.0221967621674
 20
130.6426734822245
 30
0.0
 10
182.5607130133502
 20
131.8115726499627
 30
0.0
 10
183.1092422847281
 20
132.9757868787089
 30
0.0
  0
LINE
  5
D0
330
1F
100
AcDbEntity
  8
0
  6
Continuous
 62
     7
370
    15
100
AcDbLine
 10
183.1092427073
 20
132.9757875921
 30
0.0
 11
186.9374050347
 21
132.9757875921
 31
0.0
  0
LINE
  5
D1
330
1F
100
AcDbEntity
  8
0
  6
Continuous
 62
     7
370
    15
100
AcDbLine
 10
171.6874055618
 20
132.2369693937
 30
0.0
 11
171.6874055618
 21
125.4155568006
 31
0.0
  0
LINE
  5
D2
330
1F
100
AcDbEntity
  8
0
  6
Continuous
 62
     7
370
    15
100
AcDbLine
 10
187.5374058781
 20
132.2369693937
 30
0.0
 11
187.5374058781
 21
125.4155568006
 31
0.0
  0
SPLINE
  5
D3
330
1F
100
AcDbEntity
  8
0
  6
Continuous
 62
     7
370
    15
100
AcDbSpline
210
0.0
220
0.0
230
1.0
 70
     8
 71
     3
 72
     8
 73
     4
 74
     0
 42
0.000000001
 43
0.00000001
 40
0.0
 40
0.0
 40
0.0
 40
0.0
 40
1.0
 40
1.0
 40
1.0
 40
1.0
 10
182.5513603289675
 20
136.7780953949258
 30
0.0
 10
182.1994163060592
 20
136.146534006912
 30
0.0
 10
181.848057882999
 20
135.5146521072132
 30
0.0
 10
181.4974056426714
 20
134.8823836981628
 30
0.0
  0
SPLINE
  5
D4
330
1F
100
AcDbEntity
  8
0
  6
Continuous
 62
     7
370
    15
100
AcDbSpline
210
0.0
220
0.0
230
1.0
 70
     8
 71
     3
 72
     8
 73
     4
 74
     0
 42
0.000000001
 43
0.00000001
 40
0.0
 40
0.0
 40
0.0
 40
0.0
 40
0.0012409313617635
 40
0.0012409313617635
 40
0.0012409313617635
 40
0.0012409313617635
 10
183.1092422847281
 20
137.5618933178769
 30
0.0
 10
182.922569356496
 20
137.3008814401783
 30
0.0
 10
182.7365841685234
 20
137.039622938403
 30
0.0
 10
182.5513603289675
 20
136.7780953949258
 30
0.0
  0
LINE
  5
D5
330
1F
100
AcDbEntity
  8
0
  6
Continuous
 62
     7
370
    15
100
AcDbLine
 10
183.1092427073
 20
132.9757875921
 30
0.0
 11
183.1092427073
 21
137.5618937584
 31
0.0
  0
LINE
  5
D6
330
1F
100
AcDbEntity
  8
0
  6
Continuous
 62
     7
370
    15
100
AcDbLine
 10
181.4974055214
 20
129.4676966192
 30
0.0
 11
181.4974055214
 21
134.8823837163
 31
0.0
  0
LINE
  5
D7
330
1F
100
AcDbEntity
  8
0
  6
Continuous
 62
     7
370
    15
100
AcDbLine
 10
186.9374050347
 20
137.5618937584
 30
0.0
 11
183.1092427073
 21
137.5618937584
 31
0.0
  0
LINE
  5
D8
330
1F
100
AcDbEntity
  8
0
  6
Continuous
 62
     7
370
    15
100
AcDbLine
 10
180.697405949
 20
133.8834154578
 30
0.0
 11
178.4774058087
 21
133.8834154578
 31
0.0
  0
SPLINE
  5
D9
330
1F
100
AcDbEntity
  8
0
  6
Continuous
 62
     7
370
    15
100
AcDbSpline
210
0.0
220
0.0
230
1.0
 70
     8
 71
     3
 72
    12
 73
     8
 74
     0
 42
0.000000001
 43
0.00000001
 40
0.0
 40
0.0
 40
0.0
 40
0.0
 40
0.5
 40
0.5
 40
0.75
 40
0.75
 40
1.0
 40
1.0
 40
1.0
 40
1.0
 10
181.4974056426714
 20
134.7176367264684
 30
0.0
 10
181.4974056426714
 20
134.5044993248169
 30
0.0
 10
181.4147632275235
 20
134.2895198000792
 30
0.0
 10
181.1961798167131
 20
134.0566007311934
 30
0.0
 10
181.1070898637324
 20
133.9927338213729
 30
0.0
 10
180.9116845458349
 20
133.9063476669912
 30
0.0
 10
180.8051604988915
 20
133.883415094948
 30
0.0
 10
180.6974056426714
 20
133.883415094948
 30
0.0
  0
SPLINE
  5
DA
330
1F
100
AcDbEntity
  8
0
  6
Continuous
 62
     7
370
    15
100
AcDbSpline
210
0.0
220
0.0
230
1.0
 70
     8
 71
     3
 72
     8
 73
     4
 74
     0
 42
0.000000001
 43
0.00000001
 40
0.0
 40
0.0
 40
0.0
 40
0.0
 40
0.0012409313617635
 40
0.0012409313617635
 40
0.0012409313617635
 40
0.0012409313617635
 10
176.6234509563754
 20
136.7780953949258
 30
0.0
 10
176.4382271168194
 20
137.039622938403
 30
0.0
 10
176.2522419288469
 20
137.3008814401783
 30
0.0
 10
176.0655690006147
 20
137.5618933178769
 30
0.0
  0
SPLINE
  5
DB
330
1F
100
AcDbEntity
  8
0
  6
Continuous
 62
     7
370
    15
100
AcDbSpline
210
0.0
220
0.0
230
1.0
 70
     8
 71
     3
 72
     8
 73
     4
 74
     0
 42
0.000000001
 43
0.00000001
 40
0.0
 40
0.0
 40
0.0
 40
0.0
 40
1.0
 40
1.0
 40
1.0
 40
1.0
 10
177.6774056426714
 20
134.8823836981628
 30
0.0
 10
177.3267534023439
 20
135.5146521072132
 30
0.0
 10
176.9753949792837
 20
136.146534006912
 30
0.0
 10
176.6234509563754
 20
136.7780953949258
 30
0.0
  0
LINE
  5
DC
330
1F
100
AcDbEntity
  8
0
  6
Continuous
 62
     7
370
    15
100
AcDbLine
 10
176.0655690504
 20
132.9757875921
 30
0.0
 11
176.0655690504
 21
137.5618937584
 31
0.0
  0
LINE
  5
DD
330
1F
100
AcDbEntity
  8
0
  6
Continuous
 62
     7
370
    15
100
AcDbLine
 10
177.677405305
 20
129.4676966192
 30
0.0
 11
177.677405305
 21
134.8823837163
 31
0.0
  0
SPLINE
  5
DE
330
1F
100
AcDbEntity
  8
0
  6
Continuous
 62
     7
370
    15
100
AcDbSpline
210
0.0
220
0.0
230
1.0
 70
     8
 71
     3
 72
    10
 73
     6
 74
     0
 42
0.000000001
 43
0.00000001
 40
0.0
 40
0.0
 40
0.0
 40
0.0
 40
0.5
 40
0.5
 40
1.0
 40
1.0
 40
1.0
 40
1.0
 10
171.974647243979
 20
137.4908537936183
 30
0.0
 10
171.8988076499755
 20
137.4208046072897
 30
0.0
 10
171.8314841322495
 20
137.335585833716
 30
0.0
 10
171.7248404939444
 20
137.1253597070542
 30
0.0
 10
171.6874056426714
 20
137.0018505161869
 30
0.0
 10
171.6874056426714
 20
136.8719323956642
 30
0.0
  0
SPLINE
  5
DF
330
1F
100
AcDbEntity
  8
0
  6
Continuous
 62
     7
370
    15
100
AcDbSpline
210
0.0
220
0.0
230
1.0
 70
     8
 71
     3
 72
     8
 73
     4
 74
     0
 42
0.000000001
 43
0.00000001
 40
0.0
 40
0.0
 40
0.0
 40
0.0
 40
1.0
 40
1.0
 40
1.0
 40
1.0
 10
172.2874056426714
 20
137.5618933178769
 30
0.0
 10
172.1752273884917
 20
137.5618933178769
 30
0.0
 10
172.0665578757633
 20
137.5362122526159
 30
0.0
 10
171.974647243979
 20
137.4908537936183
 30
0.0
  0
LINE
  5
E0
330
1F
100
AcDbEntity
  8
0
  6
Continuous
 62
     7
370
    15
100
AcDbLine
 10
171.6874055618
 20
132.2369693937
 30
0.0
 11
171.6874055618
 21
136.8719327422
 31
0.0
  0
SPLINE
  5
E1
330
1F
100
AcDbEntity
  8
0
  6
Continuous
 62
     7
370
    15
100
AcDbSpline
210
0.0
220
0.0
230
1.0
 70
     8
 71
     3
 72
    14
 73
    10
 74
     0
 42
0.000000001
 43
0.00000001
 40
0.0
 40
0.0
 40
0.0
 40
0.0
 40
0.25
 40
0.25
 40
0.5
 40
0.5
 40
0.75
 40
0.75
 40
1.0
 40
1.0
 40
1.0
 40
1.0
 10
178.4774056426714
 20
133.883415094948
 30
0.0
 10
178.3700365981571
 20
133.883415094948
 30
0.0
 10
178.2632311063942
 20
133.906340090353
 30
0.0
 10
178.0680897378774
 20
133.9925325242272
 30
0.0
 10
177.9788800202875
 20
134.0563765208912
 30
0.0
 10
177.8329532274711
 20
134.2117926288326
 30
0.0
 10
177.774963483673
 20
134.3044472070403
 30
0.0
 10
177.6973696421505
 20
134.5036805470898
 30
0.0
 10
177.6774056426714
 20
134.610285642145
 30
0.0
 10
177.6774056426714
 20
134.7176367264684
 30
0.0
  0
LINE
  5
E2
330
1F
100
AcDbEntity
  8
0
  6
Continuous
 62
     7
370
    15
100
AcDbLine
 10
176.0655690504
 20
137.5618937584
 30
0.0
 11
172.2874057067
 21
137.5618937584
 31
0.0
  0
LINE
  5
E3
330
1F
100
AcDbEntity
  8
0
  6
Continuous
 62
     7
370
    15
100
AcDbLine
 10
100.2374051658
 20
95.6584268408
 30
0.0
 11
100.2374051658
 21
118.4726876365
 31
0.0
  0
LINE
  5
E4
330
1F
100
AcDbEntity
  8
0
  6
Continuous
 62
     7
370
    15
100
AcDbLine
 10
202.3874057976
 20
97.0655574622
 30
0.0
 11
202.3874057976
 21
117.0655570151
 31
0.0
  0
SPLINE
  5
E5
330
1F
100
AcDbEntity
  8
0
  6
Continuous
 62
     7
370
    15
100
AcDbSpline
210
0.0
220
0.0
230
1.0
 70
     8
 71
     3
 72
    36
 73
    32
 74
     0
 42
0.000000001
 43
0.00000001
 40
0.0
 40
0.0
 40
0.0
 40
0.0
 40
0.0625000000000003
 40
0.0625000000000003
 40
0.1250000000000006
 40
0.1250000000000006
 40
0.1875000000000008
 40
0.1875000000000008
 40
0.2500000000000004
 40
0.2500000000000004
 40
0.3750000000000004
 40
0.3750000000000004
 40
0.4375000000000004
 40
0.4375000000000004
 40
0.5000000000000004
 40
0.5000000000000004
 40
0.5625000000000003
 40
0.5625000000000003
 40
0.6250000000000003
 40
0.6250000000000003
 40
0.6875000000000002
 40
0.6875000000000002
 40
0.7500000000000002
 40
0.7500000000000002
 40
0.8125000000000001
 40
0.8125000000000001
 40
0.8750000000000001
 40
0.8750000000000001
 40
0.9375
 40
0.9375
 40
1.0
 40
1.0
 40
1.0
 40
1.0
 10
200.2624056426714
 20
107.0655572386613
 30
0.0
 10
200.2624056426714
 20
106.8589958645971
 30
0.0
 10
200.2362664443266
 20
106.6488856489413
 30
0.0
 10
200.1357253544955
 20
106.2470210243031
 30
0.0
 10
200.061612767309
 20
106.0530690498435
 30
0.0
 10
199.8701932359948
 20
105.6837183918028
 30
0.0
 10
199.7555452196513
 20
105.5128908502963
 30
0.0
 10
199.4922129659954
 20
105.1957019541165
 30
0.0
 10
199.3432721994849
 20
105.0498761883308
 30
0.0
 10
198.8648998941241
 20
104.6623682055437
 30
0.0
 10
198.494710591134
 20
104.4628792701866
 30
0.0
 10
197.9095361924295
 20
104.2642736050883
 30
0.0
 10
197.7061927850724
 20
104.21372702395
 30
0.0
 10
197.296519845412
 20
104.1470818182501
 30
0.0
 10
197.0907673461912
 20
104.1306944740963
 30
0.0
 10
196.6774620074268
 20
104.1310490930932
 30
0.0
 10
196.4679228176542
 20
104.1482191853967
 30
0.0
 10
196.0588803064923
 20
104.215888293054
 30
0.0
 10
195.8592836671921
 20
104.2659616098377
 30
0.0
 10
195.4698800042869
 20
104.3988245925109
 30
0.0
 10
195.2782273034767
 20
104.4827311917671
 30
0.0
 10
194.9170954201075
 20
104.6804433447881
 30
0.0
 10
194.7472481751708
 20
104.7938772572886
 30
0.0
 10
194.429737224504
 20
105.0515970166828
 30
0.0
 10
194.2805879388082
 20
105.1978449441882
 30
0.0
 10
194.0179340144359
 20
105.5147774506328
 30
0.0
 10
193.9037019334554
 20
105.6853020291804
 30
0.0
 10
193.7130733366691
 20
106.0534956394585
 30
0.0
 10
193.6385526852286
 20
106.2489408393573
 30
0.0
 10
193.5387643127683
 20
106.6482206599174
 30
0.0
 10
193.5124056426714
 20
106.8572548776112
 30
0.0
 10
193.5124056426714
 20
107.0655572386613
 30
0.0
  0
SPLINE
  5
E6
330
1F
100
AcDbEntity
  8
0
  6
Continuous
 62
     7
370
    15
100
AcDbSpline
210
0.0
220
0.0
230
1.0
 70
     8
 71
     3
 72
    36
 73
    32
 74
     0
 42
0.000000001
 43
0.00000001
 40
0.0
 40
0.0
 40
0.0
 40
0.0
 40
0.0625000000000003
 40
0.0625000000000003
 40
0.1250000000000006
 40
0.1250000000000006
 40
0.1875000000000009
 40
0.1875000000000009
 40
0.2500000000000013
 40
0.2500000000000013
 40
0.3750000000000019
 40
0.3750000000000019
 40
0.4375000000000017
 40
0.4375000000000017
 40
0.5000000000000016
 40
0.5000000000000016
 40
0.5625000000000013
 40
0.5625000000000013
 40
0.6250000000000012
 40
0.6250000000000012
 40
0.6875000000000011
 40
0.6875000000000011
 40
0.7500000000000009
 40
0.7500000000000009
 40
0.8125000000000007
 40
0.8125000000000007
 40
0.8750000000000004
 40
0.8750000000000004
 40
0.9375000000000002
 40
0.9375000000000002
 40
1.0
 40
1.0
 40
1.0
 40
1.0
 10
193.5124056426714
 20
107.0655572386613
 30
0.0
 10
193.5124056426714
 20
107.2741178458626
 30
0.0
 10
193.5379797498997
 20
107.4796346759376
 30
0.0
 10
193.6391627307716
 20
107.8847342826364
 30
0.0
 10
193.7141968976581
 20
108.0801459635117
 30
0.0
 10
193.9046082952432
 20
108.4472022300933
 30
0.0
 10
194.0217894457525
 20
108.6216800729996
 30
0.0
 10
194.2851040745362
 20
108.938005721829
 30
0.0
 10
194.4319748612687
 20
109.0818348818458
 30
0.0
 10
194.916055288308
 20
109.4732306499863
 30
0.0
 10
195.2781620463133
 20
109.6678490939862
 30
0.0
 10
195.869495594455
 20
109.8681362402099
 30
0.0
 10
196.0699193074285
 20
109.9176024852221
 30
0.0
 10
196.4771133173448
 20
109.983837584403
 30
0.0
 10
196.6852133767686
 20
110.0005776956567
 30
0.0
 10
197.102062223553
 20
109.9999003893154
 30
0.0
 10
197.3078959417652
 20
109.9827176494572
 30
0.0
 10
197.7145299628402
 20
109.9154689209241
 30
0.0
 10
197.9167359543098
 20
109.8649144981492
 30
0.0
 10
198.3093006838794
 20
109.7306226635132
 30
0.0
 10
198.4971780703725
 20
109.6480242806166
 30
0.0
 10
198.8562326123956
 20
109.45151685286
 30
0.0
 10
199.0288093071461
 20
109.3364882993145
 30
0.0
 10
199.348886740943
 20
109.0761559711096
 30
0.0
 10
199.4943520339785
 20
108.9329612942586
 30
0.0
 10
199.7549181551848
 20
108.6188528887716
 30
0.0
 10
199.8712300621203
 20
108.4455943278166
 30
0.0
 10
200.0617020076758
 20
108.0776732221799
 30
0.0
 10
200.1355081126702
 20
107.8850461683535
 30
0.0
 10
200.2366072193263
 20
107.4807822454651
 30
0.0
 10
200.2624056426714
 20
107.2723747004606
 30
0.0
 10
200.2624056426714
 20
107.0655572386613
 30
0.0
  0
LINE
  5
E7
330
1F
100
AcDbEntity
  8
0
  6
Continuous
 62
     7
370
    15
100
AcDbLine
 10
202.5874054579
 20
97.2655571224
 30
0.0
 11
202.5874054579
 21
116.8655573549
 31
0.0
  0
LWPOLYLINE
  5
E8
330
1F
100
AcDbEntity
  8
0
  6
HIDDEN
 62
     7
370
     0
100
AcDbPolyline
 90
       21
 70
   128
 43
0.0
 10
182.7623678891
 20
114.2934590737
 10
182.9324516056
 20
114.6982849734
 10
182.9610841868
 20
115.1326864185
 10
182.8454632832
 20
115.5541415485
 10
182.5969053952
 20
115.9213946359
 10
182.2397431878
 20
116.1984966295
 10
181.8089357166
 20
116.3583236905
 10
181.3466551302
 20
116.3852295997
 10
180.89815253
 20
116.2765805768
 10
180.5073295308
 20
116.043013257
 10
180.2124439327
 20
115.7073906781
 10
180.0423602162
 20
115.3025643127
 10
180.0137267036
 20
114.868162402
 10
180.1293485386
 20
114.4467077376
 10
180.3779054953
 20
114.0794546502
 10
180.735068634
 20
113.802352191
 10
181.1658751739
 20
113.6425255956
 10
181.6281557603
 20
113.6156196864
 10
182.0766583605
 20
113.7242682437
 10
182.4674813596
 20
113.9578355635
 10
182.7623678891
 20
114.2934590737
  0
LWPOLYLINE
  5
E9
330
1F
100
AcDbEntity
  8
0
  6
HIDDEN
 62
     7
370
     0
100
AcDbPolyline
 90
       25
 70
   128
 43
0.0
 10
183.2098795621
 20
114.1479198979
 10
183.4142527131
 20
114.5993878292
 10
183.4873149691
 20
115.0851787226
 10
183.4240874795
 20
115.572184992
 10
183.2288776113
 20
116.0272198888
 10
182.9149893073
 20
116.4192731651
 10
182.5038131846
 20
116.7216261076
 10
182.0233708767
 20
116.913675067
 10
181.5064039601
 20
116.9823312359
 10
180.9881415738
 20
116.9229156496
 10
180.5039031951
 20
116.73947863
 10
180.0866893081
 20
116.4445203887
 10
179.7649322597
 20
116.0581416609
 10
179.5605581773
 20
115.6066737296
 10
179.4874959214
 20
115.1208828362
 10
179.5507243423
 20
114.6338756355
 10
179.7459342105
 20
114.1788407387
 10
180.0598225145
 20
113.7867879281
 10
180.4709977059
 20
113.4844349856
 10
180.9514400137
 20
113.2923864918
 10
181.4684078617
 20
113.2237303229
 10
181.9866693167
 20
113.2831454436
 10
182.4709076954
 20
113.4665824631
 10
182.8881215824
 20
113.7615411701
 10
183.2098795621
 20
114.1479198979
  0
ARC
  5
EA
330
1F
100
AcDbEntity
  8
0
  6
HIDDEN
 62
     7
370
     0
100
AcDbCircle
 10
181.4603376763
 20
115.3835286076
 30
0.0
 40
1.972372368607041
100
AcDbArc
 50
332.5016500668
 51
180.000940122
  0
ARC
  5
EB
330
1F
100
AcDbEntity
  8
0
  6
HIDDEN
 62
     7
370
     0
100
AcDbCircle
 10
181.4938485278
 20
115.5808837922
 30
0.0
 40
2.042676245884544
100
AcDbArc
 50
199.4348157661
 51
327.1495805048
  0
LWPOLYLINE
  5
EC
330
1F
100
AcDbEntity
  8
0
  6
HIDDEN
 62
     7
370
     0
100
AcDbPolyline
 90
       21
 70
   128
 43
0.0
 10
182.7792611493
 20
115.6521716314
 10
182.9515986664
 20
116.0623624148
 10
182.9806102959
 20
116.5025194334
 10
182.8634573666
 20
116.9295587735
 10
182.611606322
 20
117.3016780215
 10
182.2497111333
 20
117.5824522199
 10
181.8131965173
 20
117.7443961771
 10
181.3447906224
 20
117.7716587829
 10
180.8903452529
 20
117.6615708666
 10
180.4943441002
 20
117.4249087619
 10
180.1955506725
 20
117.0848381864
 10
180.0232131554
 20
116.6746483343
 10
179.9942005945
 20
116.2344903844
 10
180.1113535238
 20
115.8074510442
 10
180.3632045684
 20
115.4353317963
 10
180.7250997571
 20
115.1545585292
 10
181.1616153045
 20
114.9926136406
 10
181.6300211994
 20
114.9653519662
 10
182.0844665689
 20
115.0754398825
 10
182.4804677216
 20
115.3121019872
 10
182.7792611493
 20
115.6521716314
  0
LWPOLYLINE
  5
ED
330
1F
100
AcDbEntity
  8
0
  6
HIDDEN
 62
     7
370
     0
100
AcDbPolyline
 90
       21
 70
   128
 43
0.0
 10
182.7792611493
 20
114.648693909
 10
182.9515986664
 20
115.0588837611
 10
182.9806102959
 20
115.4990407797
 10
182.8634573666
 20
115.9260801198
 10
182.611606322
 20
116.2981993677
 10
182.2497111333
 20
116.5789735662
 10
181.8131965173
 20
116.7409175234
 10
181.3447906224
 20
116.7681801291
 10
180.8903452529
 20
116.6580922129
 10
180.4943441002
 20
116.4214301082
 10
180.1955506725
 20
116.0813595327
 10
180.0232131554
 20
115.6711696806
 10
179.9942005945
 20
115.231012662
 10
180.1113535238
 20
114.8039728562
 10
180.3632045684
 20
114.4318536082
 10
180.7250997571
 20
114.1510798754
 10
181.1616153045
 20
113.9891354526
 10
181.6300211994
 20
113.9618733125
 10
182.0844665689
 20
114.0719612288
 10
182.4804677216
 20
114.3086233335
 10
182.7792611493
 20
114.648693909
  0
LWPOLYLINE
  5
EE
330
1F
100
AcDbEntity
  8
0
  6
HIDDEN
 62
     7
370
     0
100
AcDbPolyline
 90
       25
 70
   128
 43
0.0
 10
183.2098795621
 20
114.6652253503
 10
183.4142527131
 20
115.1166937472
 10
183.4873149691
 20
115.6024837094
 10
183.4240874795
 20
116.0894909101
 10
183.2288776113
 20
116.5445258068
 10
182.9149893073
 20
116.9365790831
 10
182.5038131846
 20
117.2389320256
 10
182.0233708767
 20
117.4309800537
 10
181.5064039601
 20
117.4996362226
 10
180.9881415738
 20
117.4402215677
 10
180.5039031951
 20
117.2567845481
 10
180.0866893081
 20
116.9618253755
 10
179.7649322597
 20
116.5754466476
 10
179.5605581773
 20
116.1239787163
 10
179.4874959214
 20
115.6381887542
 10
179.5507243423
 20
115.1511815535
 10
179.7459342105
 20
114.6961461911
 10
180.0598225145
 20
114.3040933805
 10
180.4709977059
 20
114.0017404379
 10
180.9514400137
 20
113.8096919442
 10
181.4684078617
 20
113.7410357753
 10
181.9866693167
 20
113.8004508959
 10
182.4709076954
 20
113.9838879155
 10
182.8881215824
 20
114.2788466225
 10
183.2098795621
 20
114.6652253503
  0
LWPOLYLINE
  5
EF
330
1F
100
AcDbEntity
  8
0
  6
HIDDEN
 62
     7
370
     0
100
AcDbPolyline
 90
       24
 70
   128
 43
0.0
 10
183.0720810739
 20
114.5973445075
 10
183.2656033857
 20
115.0316854166
 10
183.3272439016
 20
115.4989830377
 10
183.2524316905
 20
115.9645791324
 10
183.0467165036
 20
116.3939430537
 10
182.725354336
 20
116.7552310201
 10
182.3121786637
 20
117.0216479497
 10
181.8378337247
 20
117.1734339716
 10
181.3374983666
 20
117.1993331211
 10
180.8482820688
 20
117.0974231484
 10
180.4064663647
 20
116.8752635988
 10
180.0448179765
 20
116.5493305
 10
179.7901608569
 20
116.1437972607
 10
179.6613803653
 20
115.6887390809
 10
179.6680272145
 20
115.2179070907
 10
179.8096096663
 20
114.7662198329
 10
180.0756261272
 20
114.3671774464
 10
180.4463483913
 20
114.0503745685
 10
180.8942810221
 20
113.8393070707
 10
181.386202812
 20
113.7496290887
 10
181.8856301306
 20
113.7879916625
 10
182.3555233477
 20
113.9515496018
 10
182.7610314412
 20
114.2281724299
 10
183.0720810739
 20
114.5973445075
  0
LWPOLYLINE
  5
F0
330
1F
100
AcDbEntity
  8
0
  6
HIDDEN
 62
     7
370
     0
100
AcDbPolyline
 90
       25
 70
   128
 43
0.0
 10
183.2098795621
 20
114.8576114485
 10
183.4142527131
 20
115.3090798455
 10
183.4873149691
 20
115.7948698076
 10
183.4240874795
 20
116.2818770083
 10
183.2288776113
 20
116.736911905
 10
182.9149893073
 20
117.1289651813
 10
182.5038131846
 20
117.4313181238
 10
182.0233708767
 20
117.6233670833
 10
181.5064039601
 20
117.6920232522
 10
180.9881415738
 20
117.6326076659
 10
180.5039031951
 20
117.4491706463
 10
180.0866893081
 20
117.154212405
 10
179.7649322597
 20
116.7678327458
 10
179.5605581773
 20
116.3163648145
 10
179.4874959214
 20
115.8305748524
 10
179.5507243423
 20
115.3435676517
 10
179.7459342105
 20
114.888532755
 10
180.0598225145
 20
114.4964799443
 10
180.4709977059
 20
114.1941265362
 10
180.9514400137
 20
114.0020780424
 10
181.4684078617
 20
113.9334218735
 10
181.9866693167
 20
113.9928369941
 10
182.4709076954
 20
114.1762744794
 10
182.8881215824
 20
114.4712327207
 10
183.2098795621
 20
114.8576114485
  0
LWPOLYLINE
  5
F1
330
1F
100
AcDbEntity
  8
0
  6
HIDDEN
 62
     7
370
     0
100
AcDbPolyline
 90
       24
 70
   128
 43
0.0
 10
183.0720810739
 20
114.7897306057
 10
183.2656033857
 20
115.2240724461
 10
183.3272439016
 20
115.6913691359
 10
183.2524316905
 20
116.1569661619
 10
183.0467165036
 20
116.5863300832
 10
182.725354336
 20
116.9476171183
 10
182.3121786637
 20
117.2140340479
 10
181.8378337247
 20
117.3658200698
 10
181.3374983666
 20
117.3917192193
 10
180.8482820688
 20
117.2898101779
 10
180.4064663647
 20
117.0676506283
 10
180.0448179765
 20
116.7417175295
 10
179.7901608569
 20
116.3361833589
 10
179.6613803653
 20
115.8811251791
 10
179.6680272145
 20
115.4102931889
 10
179.8096096663
 20
114.9586063968
 10
180.0756261272
 20
114.5595635446
 10
180.4463483913
 20
114.2427606667
 10
180.8942810221
 20
114.0316931689
 10
181.386202812
 20
113.9420156526
 10
181.8856301306
 20
113.9803782264
 10
182.3555233477
 20
114.1439361656
 10
182.7610314412
 20
114.4205589937
 10
183.0720810739
 20
114.7897306057
  0
LWPOLYLINE
  5
F2
330
1F
100
AcDbEntity
  8
0
  6
HIDDEN
 62
     7
370
     0
100
AcDbPolyline
 90
       25
 70
   128
 43
0.0
 10
183.2098795621
 20
115.0499980124
 10
183.4142527131
 20
115.5014659437
 10
183.4873149691
 20
115.9872568371
 10
183.4240874795
 20
116.4742631065
 10
183.2288776113
 20
116.9292980032
 10
182.9149893073
 20
117.3213512795
 10
182.5038131846
 20
117.623704222
 10
182.0233708767
 20
117.8157531815
 10
181.5064039601
 20
117.8844093504
 10
180.9881415738
 20
117.8249937641
 10
180.5039031951
 20
117.6415567445
 10
180.0866893081
 20
117.3465985032
 10
179.7649322597
 20
116.9602197753
 10
179.5605581773
 20
116.5087518441
 10
179.4874959214
 20
116.0229609506
 10
179.5507243423
 20
115.5359537499
 10
179.7459342105
 20
115.0809188532
 10
180.0598225145
 20
114.6888660425
 10
180.4709977059
 20
114.3865131
 10
180.9514400137
 20
114.1944646062
 10
181.4684078617
 20
114.1258084374
 10
181.9866693167
 20
114.185223558
 10
182.4709076954
 20
114.3686605776
 10
182.8881215824
 20
114.6636192845
 10
183.2098795621
 20
115.0499980124
  0
LWPOLYLINE
  5
F3
330
1F
100
AcDbEntity
  8
0
  6
HIDDEN
 62
     7
370
     0
100
AcDbPolyline
 90
       24
 70
   128
 43
0.0
 10
183.0720810739
 20
114.9821167039
 10
183.2656033857
 20
115.4164585443
 10
183.3272439016
 20
115.8837561654
 10
183.2524316905
 20
116.3493522601
 10
183.0467165036
 20
116.7787161814
 10
182.725354336
 20
117.1400041478
 10
182.3121786637
 20
117.4064201461
 10
181.8378337247
 20
117.5582070993
 10
181.3374983666
 20
117.5841053175
 10
180.8482820688
 20
117.4821962761
 10
180.4064663647
 20
117.2600367265
 10
180.0448179765
 20
116.9341036277
 10
179.7901608569
 20
116.5285694571
 10
179.6613803653
 20
116.0735122087
 10
179.6680272145
 20
115.6026792871
 10
179.8096096663
 20
115.150992495
 10
180.0756261272
 20
114.7519501085
 10
180.4463483913
 20
114.4351472305
 10
180.8942810221
 20
114.2240797328
 10
181.386202812
 20
114.1344017508
 10
181.8856301306
 20
114.1727643246
 10
182.3555233477
 20
114.3363222638
 10
182.7610314412
 20
114.6129450919
 10
183.0720810739
 20
114.9821167039
  0
LWPOLYLINE
  5
F4
330
1F
100
AcDbEntity
  8
0
  6
HIDDEN
 62
     7
370
     0
100
AcDbPolyline
 90
       25
 70
   128
 43
0.0
 10
183.2098795621
 20
115.2423841106
 10
183.4142527131
 20
115.6938520419
 10
183.4873149691
 20
116.1796429353
 10
183.4240874795
 20
116.666650136
 10
183.2288776113
 20
117.1216850327
 10
182.9149893073
 20
117.5137373777
 10
182.5038131846
 20
117.8160912516
 10
182.0233708767
 20
118.0081392797
 10
181.5064039601
 20
118.0767954486
 10
180.9881415738
 20
118.0173807936
 10
180.5039031951
 20
117.8339428427
 10
180.0866893081
 20
117.5389846014
 10
179.7649322597
 20
117.1526058735
 10
179.5605581773
 20
116.7011379423
 10
179.4874959214
 20
116.2153470488
 10
179.5507243423
 20
115.7283398481
 10
179.7459342105
 20
115.2733049514
 10
180.0598225145
 20
114.8812526064
 10
180.4709977059
 20
114.5788991982
 10
180.9514400137
 20
114.3868507045
 10
181.4684078617
 20
114.3181945356
 10
181.9866693167
 20
114.3776096562
 10
182.4709076954
 20
114.5610471415
 10
182.8881215824
 20
114.8560053827
 10
183.2098795621
 20
115.2423841106
  0
LWPOLYLINE
  5
F5
330
1F
100
AcDbEntity
  8
0
  6
HIDDEN
 62
     7
370
     0
100
AcDbPolyline
 90
       24
 70
   128
 43
0.0
 10
183.0720810739
 20
115.1745037334
 10
183.2656033857
 20
115.6088446425
 10
183.3272439016
 20
116.0761422636
 10
183.2524316905
 20
116.5417383583
 10
183.0467165036
 20
116.9711022796
 10
182.725354336
 20
117.332390246
 10
182.3121786637
 20
117.5988071757
 10
181.8378337247
 20
117.7505931975
 10
181.3374983666
 20
117.776492347
 10
180.8482820688
 20
117.6745823743
 10
180.4064663647
 20
117.4524228247
 10
180.0448179765
 20
117.1264897259
 10
179.7901608569
 20
116.7209564867
 10
179.6613803653
 20
116.2658983069
 10
179.6680272145
 20
115.7950663166
 10
179.8096096663
 20
115.3433785932
 10
180.0756261272
 20
114.9443366723
 10
180.4463483913
 20
114.6275333287
 10
180.8942810221
 20
114.416465831
 10
181.386202812
 20
114.3267883146
 10
181.8856301306
 20
114.3651508885
 10
182.3555233477
 20
114.5287088277
 10
182.7610314412
 20
114.8053316558
 10
183.0720810739
 20
115.1745037334
  0
LWPOLYLINE
  5
F6
330
1F
100
AcDbEntity
  8
0
  6
HIDDEN
 62
     7
370
     0
100
AcDbPolyline
 90
       25
 70
   128
 43
0.0
 10
183.2098795621
 20
115.3791926028
 10
183.4142527131
 20
115.8306605341
 10
183.4873149691
 20
116.3164504962
 10
183.4240874795
 20
116.8034576969
 10
183.2288776113
 20
117.2584925937
 10
182.9149893073
 20
117.65054587
 10
182.5038131846
 20
117.9528988125
 10
182.0233708767
 20
118.1449477719
 10
181.5064039601
 20
118.2136039408
 10
180.9881415738
 20
118.1541883545
 10
180.5039031951
 20
117.9707513349
 10
180.0866893081
 20
117.6757930936
 10
179.7649322597
 20
117.2894134345
 10
179.5605581773
 20
116.8379455032
 10
179.4874959214
 20
116.3521555411
 10
179.5507243423
 20
115.8651483404
 10
179.7459342105
 20
115.4101134436
 10
180.0598225145
 20
115.0180601673
 10
180.4709977059
 20
114.7157072248
 10
180.9514400137
 20
114.523658731
 10
181.4684078617
 20
114.4550025622
 10
181.9866693167
 20
114.5144176828
 10
182.4709076954
 20
114.697855168
 10
182.8881215824
 20
114.992813875
 10
183.2098795621
 20
115.3791926028
  0
LWPOLYLINE
  5
F7
330
1F
100
AcDbEntity
  8
0
  6
HIDDEN
 62
     7
370
     0
100
AcDbPolyline
 90
       24
 70
   128
 43
0.0
 10
183.123755507
 20
115.4611499207
 10
183.3235875292
 20
115.9096543836
 10
183.3872387705
 20
116.3921893733
 10
183.3099874256
 20
116.8729688199
 10
183.0975639222
 20
117.3163333135
 10
182.7657215817
 20
117.6894025104
 10
182.339073397
 20
117.9645068171
 10
181.8492601214
 20
118.1212428184
 10
181.3326107858
 20
118.1479857462
 10
180.8274409322
 20
118.0427537458
 10
180.3712176679
 20
117.8133494379
 10
179.9977778045
 20
117.4767880859
 10
179.7348160816
 20
117.0580300661
 10
179.6018362565
 20
116.588134055
 10
179.6087001039
 20
116.1019482808
 10
179.7548991216
 20
115.6355326222
 10
180.029589921
 20
115.223477331
 10
180.4124007521
 20
114.8963437574
 10
180.8749402461
 20
114.6783937859
 10
181.3829022048
 20
114.5857919166
 10
181.8986155612
 20
114.6254052567
 10
182.3838308973
 20
114.7942968803
 10
182.8025628401
 20
115.0799400332
 10
183.123755507
 20
115.4611499207
  0
ARC
  5
F8
330
1F
100
AcDbEntity
  8
0
  6
HIDDEN
 62
     7
370
     0
100
AcDbCircle
 10
181.4672756396
 20
97.7438916537
 30
0.0
 40
1.978407922803906
100
AcDbArc
 50
338.5117260132
 51
149.3684129769
  0
ARC
  5
F9
330
1F
100
AcDbEntity
  8
0
  6
HIDDEN
 62
     7
370
     0
100
AcDbCircle
 10
181.2729591295
 20
97.7961405226
 30
0.0
 40
1.785402764805392
100
AcDbArc
 50
147.6336418319
 51
185.4436860099
  0
ARC
  5
FA
330
1F
100
AcDbEntity
  8
0
  6
HIDDEN
 62
     7
370
     0
100
AcDbCircle
 10
181.4723186291
 20
97.712913557
 30
0.0
 40
1.882668618585678
100
AcDbArc
 50
341.2846446527
 51
149.4461405244
  0
LWPOLYLINE
  5
FB
330
1F
100
AcDbEntity
  8
0
  6
HIDDEN
 62
     7
370
     0
100
AcDbPolyline
 90
        3
 70
   128
 43
0.0
 10
179.6366351245
 20
98.1664021658
 10
179.6512233613
 20
98.2214600938
 10
179.8510553835
 20
98.6699645566
  0
ARC
  5
FC
330
1F
100
AcDbEntity
  8
0
  6
HIDDEN
 62
     7
370
     0
100
AcDbCircle
 10
181.5382734304
 20
97.7294156824
 30
0.0
 40
1.443745991054598
100
AcDbArc
 50
353.4999802528
 51
92.1504896735
  0
LWPOLYLINE
  5
FD
330
1F
100
AcDbEntity
  8
0
  6
HIDDEN
 62
     7
370
     0
100
AcDbPolyline
 90
       25
 70
   128
 43
0.0
 10
179.7649322597
 20
98.8887303667
 10
180.0866893081
 20
99.2751090946
 10
180.5039031951
 20
99.5700673359
 10
180.9881415738
 20
99.7535048211
 10
181.5064039601
 20
99.8129199417
 10
182.0233708767
 20
99.7442637729
 10
182.5038131846
 20
99.5522152791
 10
182.9149893073
 20
99.2498618709
 10
183.2288776113
 20
98.8578095259
 10
183.4240874795
 20
98.4027746292
 10
183.4873149691
 20
97.9157674285
 10
183.4142527131
 20
97.429976535
 10
183.2098795621
 20
96.9785086038
 10
182.8881215824
 20
96.5921298759
 10
182.4709076954
 20
96.2971716346
 10
181.9866693167
 20
96.1137336837
 10
181.4684078617
 20
96.0543190288
 10
180.9514400137
 20
96.1229751976
 10
180.4709977059
 20
96.3150232257
 10
180.0598225145
 20
96.6173770996
 10
179.7459342105
 20
97.0094294446
 10
179.5507243423
 20
97.4644643413
 10
179.4874959214
 20
97.951471542
 10
179.5605581773
 20
98.4372624355
 10
179.7649322597
 20
98.8887303667
  0
LWPOLYLINE
  5
FE
330
1F
100
AcDbEntity
  8
0
  6
HIDDEN
 62
     7
370
     0
100
AcDbPolyline
 90
       21
 70
   128
 43
0.0
 10
180.1955506725
 20
99.4824205684
 10
180.4943441002
 20
99.8224911438
 10
180.8903452529
 20
100.0591532486
 10
181.3447906224
 20
100.1692411648
 10
181.8131965173
 20
100.1419790248
 10
182.2497111333
 20
99.9800346019
 10
182.611606322
 20
99.6992608691
 10
182.8634573666
 20
99.3271416212
 10
182.9806102959
 20
98.9001018154
 10
182.9515986664
 20
98.4599447968
 10
182.7792611493
 20
98.0497549446
 10
182.4804677216
 20
97.7096843692
 10
182.0844665689
 20
97.4730222644
 10
181.6300211994
 20
97.3629343482
 10
181.1616153045
 20
97.3901969539
 10
180.7250997571
 20
97.5521409111
 10
180.3632045684
 20
97.8329151096
 10
180.1113535238
 20
98.2050343575
 10
179.9942005945
 20
98.6320736976
 10
180.0232131554
 20
99.0722307163
 10
180.1955506725
 20
99.4824205684
  0
LWPOLYLINE
  5
FF
330
1F
100
AcDbEntity
  8
0
  6
HIDDEN
 62
     7
370
     0
100
AcDbPolyline
 90
       25
 70
   128
 43
0.0
 10
179.7649322597
 20
99.0811164649
 10
180.0866893081
 20
99.4674951928
 10
180.5039031951
 20
99.7624538997
 10
180.9881415738
 20
99.9458909193
 10
181.5064039601
 20
100.00530604
 10
182.0233708767
 20
99.9366498711
 10
182.5038131846
 20
99.7446013773
 10
182.9149893073
 20
99.4422484348
 10
183.2288776113
 20
99.0501956241
 10
183.4240874795
 20
98.5951607274
 10
183.4873149691
 20
98.1081535267
 10
183.4142527131
 20
97.6223626333
 10
183.2098795621
 20
97.170894702
 10
182.8881215824
 20
96.7845159741
 10
182.4709076954
 20
96.4895577328
 10
181.9866693167
 20
96.3061207133
 10
181.4684078617
 20
96.246705127
 10
180.9514400137
 20
96.3153612958
 10
180.4709977059
 20
96.5074102553
 10
180.0598225145
 20
96.8097631978
 10
179.7459342105
 20
97.2018164741
 10
179.5507243423
 20
97.6568513708
 10
179.4874959214
 20
98.1438576402
 10
179.5605581773
 20
98.6296485337
 10
179.7649322597
 20
99.0811164649
  0
LWPOLYLINE
  5
100
330
1F
100
AcDbEntity
  8
0
  6
HIDDEN
 62
     7
370
     0
100
AcDbPolyline
 90
       24
 70
   128
 43
0.0
 10
179.9027298165
 20
98.9566107439
 10
180.2137794493
 20
99.3257828215
 10
180.6192884741
 20
99.6024056496
 10
181.0891816912
 20
99.7659635889
 10
181.5886090098
 20
99.8043261627
 10
182.0805307997
 20
99.7146486463
 10
182.5284624992
 20
99.5035811486
 10
182.8991847632
 20
99.186777805
 10
183.1652012242
 20
98.7877358841
 10
183.306783676
 20
98.3360481607
 10
183.3134314565
 20
97.8652161705
 10
183.1846500335
 20
97.4101579907
 10
182.929992914
 20
97.0046247514
 10
182.5683454571
 20
96.6786916526
 10
182.126529753
 20
96.456532103
 10
181.6373125238
 20
96.3546221303
 10
181.1369780971
 20
96.3805212798
 10
180.6626322267
 20
96.5323073017
 10
180.2494574858
 20
96.7987242313
 10
179.9280943869
 20
97.1600121977
 10
179.7223792
 20
97.589376119
 10
179.6475679202
 20
98.0549722137
 10
179.7092084361
 20
98.5222698348
 10
179.9027298165
 20
98.9566107439
  0
LWPOLYLINE
  5
101
330
1F
100
AcDbEntity
  8
0
  6
HIDDEN
 62
     7
370
     0
100
AcDbPolyline
 90
       25
 70
   128
 43
0.0
 10
179.7649322597
 20
99.2735030288
 10
180.0866893081
 20
99.6598817567
 10
180.5039031951
 20
99.9548399979
 10
180.9881415738
 20
100.1382774832
 10
181.5064039601
 20
100.1976926038
 10
182.0233708767
 20
100.1290364349
 10
182.5038131846
 20
99.9369879412
 10
182.9149893073
 20
99.634634533
 10
183.2288776113
 20
99.2425817223
 10
183.4240874795
 20
98.7875468256
 10
183.4873149691
 20
98.3005396249
 10
183.4142527131
 20
97.8147496628
 10
183.2098795621
 20
97.3632817315
 10
182.8881215824
 20
96.9769020723
 10
182.4709076954
 20
96.681943831
 10
181.9866693167
 20
96.4985068115
 10
181.4684078617
 20
96.4390912252
 10
180.9514400137
 20
96.507747394
 10
180.4709977059
 20
96.6997963535
 10
180.0598225145
 20
97.002149296
 10
179.7459342105
 20
97.3942025723
 10
179.5507243423
 20
97.849237469
 10
179.4874959214
 20
98.3362446698
 10
179.5605581773
 20
98.8220346319
 10
179.7649322597
 20
99.2735030288
  0
LWPOLYLINE
  5
102
330
1F
100
AcDbEntity
  8
0
  6
HIDDEN
 62
     7
370
     0
100
AcDbPolyline
 90
       24
 70
   128
 43
0.0
 10
179.9027298165
 20
99.1489977734
 10
180.2137794493
 20
99.5181693854
 10
180.6192884741
 20
99.7947922135
 10
181.0891816912
 20
99.9583501527
 10
181.5886090098
 20
99.9967127266
 10
182.0805307997
 20
99.9070347445
 10
182.5284624992
 20
99.6959672468
 10
182.8991847632
 20
99.3791643689
 10
183.1652012242
 20
98.9801219823
 10
183.306783676
 20
98.5284351902
 10
183.3134314565
 20
98.0576022687
 10
183.1846500335
 20
97.6025450202
 10
182.929992914
 20
97.1970108496
 10
182.5683454571
 20
96.8710777508
 10
182.126529753
 20
96.6489182012
 10
181.6373125238
 20
96.5470091598
 10
181.1369780971
 20
96.572907378
 10
180.6626322267
 20
96.7246943312
 10
180.2494574858
 20
96.9911103295
 10
179.9280943869
 20
97.3523982959
 10
179.7223792
 20
97.7817622172
 10
179.6475679202
 20
98.2473583119
 10
179.7092084361
 20
98.714655933
 10
179.9027298165
 20
99.1489977734
  0
LWPOLYLINE
  5
103
330
1F
100
AcDbEntity
  8
0
  6
HIDDEN
 62
     7
370
     0
100
AcDbPolyline
 90
       25
 70
   128
 43
0.0
 10
179.7649322597
 20
99.465889127
 10
180.0866893081
 20
99.8522678549
 10
180.5039031951
 20
100.1472265618
 10
180.9881415738
 20
100.3306635814
 10
181.5064039601
 20
100.390078702
 10
182.0233708767
 20
100.3214225331
 10
182.5038131846
 20
100.1293740394
 10
182.9149893073
 20
99.8270210968
 10
183.2288776113
 20
99.4349682862
 10
183.4240874795
 20
98.9799329238
 10
183.4873149691
 20
98.4929257231
 10
183.4142527131
 20
98.007135761
 10
183.2098795621
 20
97.5556678297
 10
182.8881215824
 20
97.1692891019
 10
182.4709076954
 20
96.8743299293
 10
181.9866693167
 20
96.6908929097
 10
181.4684078617
 20
96.6314782547
 10
180.9514400137
 20
96.7001344236
 10
180.4709977059
 20
96.8921824517
 10
180.0598225145
 20
97.1945353942
 10
179.7459342105
 20
97.5865886705
 10
179.5507243423
 20
98.0416235672
 10
179.4874959214
 20
98.528630768
 10
179.5605581773
 20
99.0144207301
 10
179.7649322597
 20
99.465889127
  0
LWPOLYLINE
  5
104
330
1F
100
AcDbEntity
  8
0
  6
HIDDEN
 62
     7
370
     0
100
AcDbPolyline
 90
       24
 70
   128
 43
0.0
 10
179.9027298165
 20
99.3413838716
 10
180.2137794493
 20
99.7105554836
 10
180.6192884741
 20
99.9871783117
 10
181.0891816912
 20
100.1507362509
 10
181.5886090098
 20
100.1890988248
 10
182.0805307997
 20
100.0994213084
 10
182.5284624992
 20
99.8883538107
 10
182.8991847632
 20
99.5715509327
 10
183.1652012242
 20
99.1725080805
 10
183.306783676
 20
98.7208212884
 10
183.3134314565
 20
98.2499892982
 10
183.1846500335
 20
97.7949311184
 10
182.929992914
 20
97.3893969478
 10
182.5683454571
 20
97.063463849
 10
182.126529753
 20
96.8413042994
 10
181.6373125238
 20
96.739395258
 10
181.1369780971
 20
96.7652944075
 10
180.6626322267
 20
96.9170804294
 10
180.2494574858
 20
97.1834973591
 10
179.9280943869
 20
97.5447843941
 10
179.7223792
 20
97.9741483154
 10
179.6475679202
 20
98.4397453414
 10
179.7092084361
 20
98.9070420312
 10
179.9027298165
 20
99.3413838716
  0
LWPOLYLINE
  5
105
330
1F
100
AcDbEntity
  8
0
  6
HIDDEN
 62
     7
370
     0
100
AcDbPolyline
 90
       25
 70
   128
 43
0.0
 10
179.7649322597
 20
99.6582756909
 10
180.0866893081
 20
100.0446544187
 10
180.5039031951
 20
100.33961266
 10
180.9881415738
 20
100.5230501453
 10
181.5064039601
 20
100.5824652659
 10
182.0233708767
 20
100.513809097
 10
182.5038131846
 20
100.3217606032
 10
182.9149893073
 20
100.0194071951
 10
183.2288776113
 20
99.6273543844
 10
183.4240874795
 20
99.1723199533
 10
183.4873149691
 20
98.6853127526
 10
183.4142527131
 20
98.1995218592
 10
183.2098795621
 20
97.7480539279
 10
182.8881215824
 20
97.3616752001
 10
182.4709076954
 20
97.0667169588
 10
181.9866693167
 20
96.8832790079
 10
181.4684078617
 20
96.8238643529
 10
180.9514400137
 20
96.8925205218
 10
180.4709977059
 20
97.0845685499
 10
180.0598225145
 20
97.3869224237
 10
179.7459342105
 20
97.7789747687
 10
179.5507243423
 20
98.2340096655
 10
179.4874959214
 20
98.7210168662
 10
179.5605581773
 20
99.2068077596
 10
179.7649322597
 20
99.6582756909
  0
LWPOLYLINE
  5
106
330
1F
100
AcDbEntity
  8
0
  6
HIDDEN
 62
     7
370
     0
100
AcDbPolyline
 90
       24
 70
   128
 43
0.0
 10
179.9027298165
 20
99.5337699698
 10
180.2137794493
 20
99.9029420475
 10
180.6192884741
 20
100.1795648756
 10
181.0891816912
 20
100.3431228148
 10
181.5886090098
 20
100.3814853886
 10
182.0805307997
 20
100.2918074066
 10
182.5284624992
 20
100.0807399089
 10
182.8991847632
 20
99.7639370309
 10
183.1652012242
 20
99.3648946444
 10
183.306783676
 20
98.9132073866
 10
183.3134314565
 20
98.4423753964
 10
183.1846500335
 20
97.9873172166
 10
182.929992914
 20
97.5817839774
 10
182.5683454571
 20
97.2558508786
 10
182.126529753
 20
97.033691329
 10
181.6373125238
 20
96.9317813562
 10
181.1369780971
 20
96.9576805057
 10
180.6626322267
 20
97.1094665276
 10
180.2494574858
 20
97.3758834573
 10
179.9280943869
 20
97.7371714236
 10
179.7223792
 20
98.1665353449
 10
179.6475679202
 20
98.6321314396
 10
179.7092084361
 20
99.0994290607
 10
179.9027298165
 20
99.5337699698
  0
LWPOLYLINE
  5
107
330
1F
100
AcDbEntity
  8
0
  6
HIDDEN
 62
     7
370
     0
100
AcDbPolyline
 90
       25
 70
   128
 43
0.0
 10
179.7649322597
 20
99.9831945794
 10
180.0866893081
 20
100.3695733072
 10
180.5039031951
 20
100.6645320142
 10
180.9881415738
 20
100.8479690338
 10
181.5064039601
 20
100.9073841544
 10
182.0233708767
 20
100.8387279855
 10
182.5038131846
 20
100.6466794918
 10
182.9149893073
 20
100.3443265492
 10
183.2288776113
 20
99.9522737386
 10
183.4240874795
 20
99.4972388419
 10
183.4873149691
 20
99.0102316411
 10
183.4142527131
 20
98.5244407477
 10
183.2098795621
 20
98.0729728164
 10
182.8881215824
 20
97.6865940886
 10
182.4709076954
 20
97.3916358473
 10
181.9866693167
 20
97.2081988277
 10
181.4684078617
 20
97.1487832414
 10
180.9514400137
 20
97.2174394103
 10
180.4709977059
 20
97.4094883697
 10
180.0598225145
 20
97.7118413123
 10
179.7459342105
 20
98.1038945886
 10
179.5507243423
 20
98.5589294853
 10
179.4874959214
 20
99.0459357547
 10
179.5605581773
 20
99.5317266481
 10
179.7649322597
 20
99.9831945794
  0
LWPOLYLINE
  5
108
330
1F
100
AcDbEntity
  8
0
  6
HIDDEN
 62
     7
370
     0
100
AcDbPolyline
 90
       21
 70
   128
 43
0.0
 10
180.2124439327
 20
99.8376554037
 10
180.5073295308
 20
100.1732789138
 10
180.89815253
 20
100.4068462337
 10
181.3466551302
 20
100.5154947909
 10
181.8089357166
 20
100.4885888817
 10
182.2397431878
 20
100.3287622864
 10
182.5969053952
 20
100.0516598271
 10
182.8454632832
 20
99.6844067397
 10
182.9610841868
 20
99.2629520754
 10
182.9324516056
 20
98.8285501646
 10
182.7623678891
 20
98.4237237992
 10
182.4674813596
 20
98.0881012203
 10
182.0766583605
 20
97.8545339005
 10
181.6281557603
 20
97.7458848776
 10
181.1658751739
 20
97.7727907868
 10
180.735068634
 20
97.9326178478
 10
180.3779054953
 20
98.2097198414
 10
180.1293485386
 20
98.5769729288
 10
180.0137267036
 20
98.9984280588
 10
180.0423602162
 20
99.4328295039
 10
180.2124439327
 20
99.8376554037
  0
LWPOLYLINE
  5
109
330
1F
100
AcDbEntity
  8
0
  6
HIDDEN
 62
     7
370
     0
100
AcDbPolyline
 90
       22
 70
   128
 43
0.0
 10
173.4077574273
 20
96.5914323153
 10
173.6495040877
 20
96.6890302645
 10
173.8417067153
 20
96.9179847436
 10
173.9672871826
 20
97.2579528736
 10
174.0150873138
 20
97.6787272068
 10
173.9808593465
 20
98.1429197984
 10
173.8676449804
 20
98.6092851656
 10
173.6855034305
 20
99.0363841104
 10
173.4506192205
 20
99.3862680318
 10
173.1838628238
 20
99.6278479854
 10
172.9089363998
 20
99.7396579171
 10
172.6502685396
 20
99.7117638746
 10
172.4308433531
 20
99.5466436418
 10
172.2701569142
 20
99.2589688087
 10
172.1824875621
 20
98.8743013861
 10
172.1756248789
 20
98.4268195154
 10
172.250178648
 20
97.9562855484
 10
172.3995248375
 20
97.5045074867
 10
172.6103925666
 20
97.111627196
 10
172.864046186
 20
96.8125553029
 10
173.1379467582
 20
96.6338643031
 10
173.4077574273
 20
96.5914323153
  0
LWPOLYLINE
  5
10A
330
1F
100
AcDbEntity
  8
0
  6
HIDDEN
 62
     7
370
     0
100
AcDbPolyline
 90
       25
 70
   128
 43
0.0
 10
173.6687112188
 20
96.2538548904
 10
173.9343416465
 20
96.3506481769
 10
174.1551321519
 20
96.574258727
 10
174.3160353562
 20
96.9094482409
 10
174.4060867986
 20
97.333372307
 10
174.419149529
 20
97.8171431618
 10
174.3543327374
 20
98.3277910547
 10
174.2160546182
 20
98.8305180492
 10
174.0137373617
 20
99.2910621846
 10
173.7611696644
 20
99.6780392872
 10
173.4755628331
 20
99.9650770957
 10
173.1763810439
 20
100.1326145763
 10
172.884012345
 20
100.1692341799
 10
172.6183819173
 20
100.0724408934
 10
172.3975918775
 20
99.8488303432
 10
172.2366882076
 20
99.513641295
 10
172.1466367653
 20
99.0897172289
 10
172.1335742677
 20
98.6059463741
 10
172.1983908264
 20
98.0952975499
 10
172.3366691785
 20
97.5925714867
 10
172.5389862021
 20
97.1320268857
 10
172.7915538995
 20
96.7450502487
 10
173.0771607308
 20
96.4580119746
 10
173.3763429856
 20
96.290474494
 10
173.6687112188
 20
96.2538548904
  0
LWPOLYLINE
  5
10B
330
1F
100
AcDbEntity
  8
0
  6
HIDDEN
 62
     7
370
     0
100
AcDbPolyline
 90
       25
 70
   128
 43
0.0
 10
176.9656615851
 20
97.0434255125
 10
177.2312924785
 20
97.140218799
 10
177.4520820526
 20
97.3638293492
 10
177.6129857225
 20
97.699018863
 10
177.7030371649
 20
98.1229429292
 10
177.7160998953
 20
98.6067137839
 10
177.6512835694
 20
99.1173616769
 10
177.5130045188
 20
99.6200882057
 10
177.310687728
 20
100.0806328068
 10
177.0581204964
 20
100.4676094437
 10
176.7725136651
 20
100.7546477178
 10
176.4733309446
 20
100.9221851984
 10
176.180963177
 20
100.9588048021
 10
175.9153322836
 20
100.8620110499
 10
175.6945422439
 20
100.6384004997
 10
175.533638574
 20
100.3032119172
 10
175.4435871316
 20
99.8792873854
 10
175.4305248668
 20
99.3955165306
 10
175.4953411927
 20
98.884868172
 10
175.6336197777
 20
98.3821421089
 10
175.8359365685
 20
97.9215975078
 10
176.0885047315
 20
97.5346208709
 10
176.3741115628
 20
97.2475825967
 10
176.6732933519
 20
97.0800451161
 10
176.9656615851
 20
97.0434255125
  0
LINE
  5
10C
330
1F
100
AcDbEntity
  8
0
  6
HIDDEN
 62
     7
370
     0
100
AcDbLine
 10
173.517639987
 20
98.7906322973
 30
0.0
 11
172.8653933441
 21
99.2976452382
 31
0.0
  0
LINE
  5
10D
330
1F
100
AcDbEntity
  8
0
  6
HIDDEN
 62
     7
370
     0
100
AcDbLine
 10
172.4396690315
 20
98.6743855449
 30
0.0
 11
172.8653933441
 21
99.2976452382
 31
0.0
  0
LINE
  5
10E
330
1F
100
AcDbEntity
  8
0
  6
HIDDEN
 62
     7
370
     0
100
AcDbLine
 10
172.666192293
 20
97.5441129105
 30
0.0
 11
172.4396690315
 21
98.6743855449
 31
0.0
  0
LINE
  5
10F
330
1F
100
AcDbEntity
  8
0
  6
HIDDEN
 62
     7
370
     0
100
AcDbLine
 10
172.666192293
 20
97.5441129105
 30
0.0
 11
173.3184394015
 21
97.0370999696
 31
0.0
  0
LINE
  5
110
330
1F
100
AcDbEntity
  8
0
  6
HIDDEN
 62
     7
370
     0
100
AcDbLine
 10
173.7441632485
 20
97.660359663
 30
0.0
 11
173.3184394015
 21
97.0370999696
 31
0.0
  0
LINE
  5
111
330
1F
100
AcDbEntity
  8
0
  6
HIDDEN
 62
     7
370
     0
100
AcDbLine
 10
173.7441632485
 20
97.660359663
 30
0.0
 11
173.517639987
 21
98.7906322973
 31
0.0
  0
LINE
  5
112
330
1F
100
AcDbEntity
  8
0
  6
HIDDEN
 62
     7
370
     0
100
AcDbLine
 10
175.565520074
 20
99.2810690934
 30
0.0
 11
173.517639987
 21
98.7906322973
 31
0.0
  0
LINE
  5
113
330
1F
100
AcDbEntity
  8
0
  6
HIDDEN
 62
     7
370
     0
100
AcDbLine
 10
175.7920433355
 20
98.1507969247
 30
0.0
 11
173.7441632485
 21
97.660359663
 31
0.0
  0
LINE
  5
114
330
1F
100
AcDbEntity
  8
0
  6
HIDDEN
 62
     7
370
     0
100
AcDbLine
 10
174.4875491185
 20
99.1648218753
 30
0.0
 11
174.9132734312
 21
99.7880820343
 31
0.0
  0
LINE
  5
115
330
1F
100
AcDbEntity
  8
0
  6
HIDDEN
 62
     7
370
     0
100
AcDbLine
 10
174.4875491185
 20
99.1648218753
 30
0.0
 11
172.4396690315
 21
98.6743855449
 31
0.0
  0
LINE
  5
116
330
1F
100
AcDbEntity
  8
0
  6
HIDDEN
 62
     7
370
     0
100
AcDbLine
 10
174.9132734312
 20
99.7880820343
 30
0.0
 11
172.8653933441
 21
99.2976452382
 31
0.0
  0
LINE
  5
117
330
1F
100
AcDbEntity
  8
0
  6
HIDDEN
 62
     7
370
     0
100
AcDbLine
 10
174.71407238
 20
98.034549241
 30
0.0
 11
172.666192293
 21
97.5441129105
 31
0.0
  0
LINE
  5
118
330
1F
100
AcDbEntity
  8
0
  6
HIDDEN
 62
     7
370
     0
100
AcDbLine
 10
174.71407238
 20
98.034549241
 30
0.0
 11
175.3663194885
 21
97.5275372313
 31
0.0
  0
LINE
  5
119
330
1F
100
AcDbEntity
  8
0
  6
HIDDEN
 62
     7
370
     0
100
AcDbLine
 10
175.3663194885
 20
97.5275372313
 30
0.0
 11
173.3184394015
 21
97.0370999696
 31
0.0
  0
LINE
  5
11A
330
1F
100
AcDbEntity
  8
0
  6
HIDDEN
 62
     7
370
     0
100
AcDbLine
 10
174.71407238
 20
98.034549241
 30
0.0
 11
174.4875491185
 21
99.1648218753
 31
0.0
  0
LINE
  5
11B
330
1F
100
AcDbEntity
  8
0
  6
HIDDEN
 62
     7
370
     0
100
AcDbLine
 10
175.7920433355
 20
98.1507969247
 30
0.0
 11
175.3663194885
 21
97.5275372313
 31
0.0
  0
LINE
  5
11C
330
1F
100
AcDbEntity
  8
0
  6
HIDDEN
 62
     7
370
     0
100
AcDbLine
 10
175.7920433355
 20
98.1507969247
 30
0.0
 11
175.565520074
 21
99.2810690934
 31
0.0
  0
LINE
  5
11D
330
1F
100
AcDbEntity
  8
0
  6
HIDDEN
 62
     7
370
     0
100
AcDbLine
 10
175.565520074
 20
99.2810690934
 30
0.0
 11
174.9132734312
 21
99.7880820343
 31
0.0
  0
LWPOLYLINE
  5
11E
330
1F
100
AcDbEntity
  8
0
  6
HIDDEN
 62
     7
370
     0
100
AcDbPolyline
 90
       20
 70
   128
 43
0.0
 10
177.4328949449
 20
97.9246904301
 10
177.6383689193
 20
98.0145770284
 10
177.7950024752
 20
98.2273134561
 10
177.8858241213
 20
98.5398485484
 10
177.9009897781
 20
98.9183119657
 10
177.8388575239
 20
99.3216929184
 10
177.7061589582
 20
99.706277919
 10
177.5172755642
 20
100.0303916792
 10
177.2926740868
 20
100.2589112306
 10
177.0566946415
 20
100.3670731718
 10
176.8349094836
 20
100.3431558767
 10
176.6513523234
 20
100.1897521475
 10
176.5259134171
 20
99.9234846952
 10
176.4721872805
 20
99.5732082212
 10
176.4959956108
 20
99.17688064
 10
176.5947577132
 20
98.7774494263
 10
176.7577726914
 20
98.4182010563
 10
176.967373356
 20
98.1380629512
 10
177.2008475436
 20
97.9673952954
 10
177.4328949449
 20
97.9246904301
  0
LWPOLYLINE
  5
11F
330
1F
100
AcDbEntity
  8
0
  6
HIDDEN
 62
     7
370
     0
100
AcDbPolyline
 90
       25
 70
   128
 43
0.0
 10
176.180963177
 20
116.7043985026
 10
176.4733309446
 20
116.9533969062
 10
176.7725136651
 20
117.0781335952
 10
177.0581204964
 20
117.0701074572
 10
177.310687728
 20
116.9298670413
 10
177.5130045188
 20
116.6669686483
 10
177.6512835694
 20
116.2993281307
 10
177.7160998953
 20
115.8519989969
 10
177.7030371649
 20
115.3554680916
 10
177.6129857225
 20
114.8435708294
 10
177.4520820526
 20
114.3511936227
 10
177.2312924785
 20
113.9118910926
 10
176.9656615851
 20
113.5556001375
 10
176.6732933519
 20
113.3066017339
 10
176.3741115628
 20
113.1818655105
 10
176.0885047315
 20
113.1898907172
 10
175.8359365685
 20
113.3301315988
 10
175.6336197777
 20
113.5930304574
 10
175.4953411927
 20
113.9606709751
 10
175.4305248668
 20
114.4079991775
 10
175.4435871316
 20
114.9045310142
 10
175.533638574
 20
115.4164278107
 10
175.6945422439
 20
115.9088050174
 10
175.9153322836
 20
116.3481080132
 10
176.180963177
 20
116.7043985026
  0
LWPOLYLINE
  5
120
330
1F
100
AcDbEntity
  8
0
  6
HIDDEN
 62
     7
370
     0
100
AcDbPolyline
 90
       20
 70
   128
 43
0.0
 10
176.9424576832
 20
115.9668683233
 10
177.1745050846
 20
116.1508520292
 10
177.4079792721
 20
116.2082671346
 10
177.6175808681
 20
116.1328914734
 10
177.780594915
 20
115.9328927444
 10
177.8793570174
 20
115.6299446868
 10
177.9031653477
 20
115.2568754899
 10
177.849439211
 20
114.8541129353
 10
177.7240003047
 20
114.4653034555
 10
177.5404431445
 20
114.1325800838
 10
177.3186579866
 20
113.891998508
 10
177.0826785413
 20
113.7696297066
 10
176.8580779953
 20
113.7787343161
 10
176.66919367
 20
113.9183251346
 10
176.5364951042
 20
114.1732760864
 10
176.47436285
 20
114.5159590217
 10
176.4895285068
 20
114.9092388498
 10
176.580350153
 20
115.3104973184
 10
176.7369846402
 20
115.6762519078
 10
176.9424576832
 20
115.9668683233
  0
LWPOLYLINE
  5
121
330
1F
100
AcDbEntity
  8
0
  6
HIDDEN
 62
     7
370
     0
100
AcDbPolyline
 90
       25
 70
   128
 43
0.0
 10
172.884012345
 20
117.4939691248
 10
173.1763810439
 20
117.7429675283
 10
173.4755628331
 20
117.8677042173
 10
173.7611696644
 20
117.8596780794
 10
174.0137373617
 20
117.7194376635
 10
174.2160546182
 20
117.4565392705
 10
174.3543327374
 20
117.0888978215
 10
174.419149529
 20
116.6415696191
 10
174.4060867986
 20
116.1450387137
 10
174.3160353562
 20
115.6331409859
 10
174.1551321519
 20
115.1407637792
 10
173.9343416465
 20
114.701461249
 10
173.6687112188
 20
114.3451707596
 10
173.3763429856
 20
114.0961723561
 10
173.0771607308
 20
113.971435667
 10
172.7915538995
 20
113.9794613393
 10
172.5389862021
 20
114.1197022209
 10
172.3366691785
 20
114.3826006139
 10
172.1983908264
 20
114.7502415972
 10
172.1335742677
 20
115.1975697996
 10
172.1466367653
 20
115.6941016363
 10
172.2366882076
 20
116.2059984328
 10
172.3975918775
 20
116.6983756395
 10
172.6183819173
 20
117.1376786353
 10
172.884012345
 20
117.4939691248
  0
LINE
  5
122
330
1F
100
AcDbEntity
  8
0
  6
HIDDEN
 62
     7
370
     0
100
AcDbLine
 10
174.4875491185
 20
115.3431308614
 30
0.0
 11
174.9132734312
 21
116.3822847577
 31
0.0
  0
LINE
  5
123
330
1F
100
AcDbEntity
  8
0
  6
HIDDEN
 62
     7
370
     0
100
AcDbLine
 10
174.4875491185
 20
115.3431308614
 30
0.0
 11
174.71407238
 21
114.4341507154
 31
0.0
  0
LINE
  5
124
330
1F
100
AcDbEntity
  8
0
  6
HIDDEN
 62
     7
370
     0
100
AcDbLine
 10
174.4875491185
 20
115.3431308614
 30
0.0
 11
172.4396690315
 21
115.8335671919
 31
0.0
  0
LINE
  5
125
330
1F
100
AcDbEntity
  8
0
  6
HIDDEN
 62
     7
370
     0
100
AcDbLine
 10
175.565520074
 20
116.5124594392
 30
0.0
 11
174.9132734312
 21
116.3822847577
 31
0.0
  0
LINE
  5
126
330
1F
100
AcDbEntity
  8
0
  6
HIDDEN
 62
     7
370
     0
100
AcDbLine
 10
174.9132734312
 20
116.3822847577
 30
0.0
 11
172.8653933441
 21
116.8727220195
 31
0.0
  0
LINE
  5
127
330
1F
100
AcDbEntity
  8
0
  6
HIDDEN
 62
     7
370
     0
100
AcDbLine
 10
173.517639987
 20
117.0028957697
 30
0.0
 11
172.8653933441
 21
116.8727220195
 31
0.0
  0
LINE
  5
128
330
1F
100
AcDbEntity
  8
0
  6
HIDDEN
 62
     7
370
     0
100
AcDbLine
 10
172.4396690315
 20
115.8335671919
 30
0.0
 11
172.666192293
 21
114.9245879771
 31
0.0
  0
LWPOLYLINE
  5
129
330
1F
100
AcDbEntity
  8
0
  6
HIDDEN
 62
     7
370
     0
100
AcDbPolyline
 90
       22
 70
   128
 43
0.0
 10
172.7760748526
 20
117.2311331304
 10
173.0458855217
 20
117.452282195
 10
173.3197860939
 20
117.5411685528
 10
173.5734397134
 20
117.4898927258
 10
173.7843074424
 20
117.3030116754
 10
173.9336533992
 20
116.9971308829
 10
174.0082076339
 20
116.5994291352
 10
174.0013447178
 20
116.1452436047
 10
173.9136755986
 20
115.6749312924
 10
173.7529893925
 20
115.2302806424
 10
173.5335637404
 20
114.8508011522
 10
173.2748958802
 20
114.5702113556
 10
172.9999694561
 20
114.4134427579
 10
172.7332130594
 20
114.394425151
 10
172.4983288495
 20
114.5148484195
 10
172.3161875324
 20
114.7640121328
 10
172.2029729335
 20
115.119776425
 10
172.168745199
 20
115.5505317422
 10
172.2165450973
 20
116.0180016579
 10
172.3421255646
 20
116.480651048
 10
172.5343281923
 20
116.8973704027
 10
172.7760748526
 20
117.2311331304
  0
LINE
  5
12A
330
1F
100
AcDbEntity
  8
0
  6
HIDDEN
 62
     7
370
     0
100
AcDbLine
 10
172.4396690315
 20
115.8335671919
 30
0.0
 11
172.8653933441
 21
116.8727220195
 31
0.0
  0
LINE
  5
12B
330
1F
100
AcDbEntity
  8
0
  6
HIDDEN
 62
     7
370
     0
100
AcDbLine
 10
175.3663194885
 20
114.5643253969
 30
0.0
 11
173.3184394015
 21
115.0547617274
 31
0.0
  0
LINE
  5
12C
330
1F
100
AcDbEntity
  8
0
  6
HIDDEN
 62
     7
370
     0
100
AcDbLine
 10
172.666192293
 20
114.9245879771
 30
0.0
 11
173.3184394015
 21
115.0547617274
 31
0.0
  0
LINE
  5
12D
330
1F
100
AcDbEntity
  8
0
  6
HIDDEN
 62
     7
370
     0
100
AcDbLine
 10
174.71407238
 20
114.4341507154
 30
0.0
 11
172.666192293
 21
114.9245879771
 31
0.0
  0
LINE
  5
12E
330
1F
100
AcDbEntity
  8
0
  6
HIDDEN
 62
     7
370
     0
100
AcDbLine
 10
174.71407238
 20
114.4341507154
 30
0.0
 11
175.3663194885
 21
114.5643253969
 31
0.0
  0
LINE
  5
12F
330
1F
100
AcDbEntity
  8
0
  6
HIDDEN
 62
     7
370
     0
100
AcDbLine
 10
175.7920433355
 20
115.6034792932
 30
0.0
 11
173.7441632485
 21
116.0939156236
 31
0.0
  0
LINE
  5
130
330
1F
100
AcDbEntity
  8
0
  6
HIDDEN
 62
     7
370
     0
100
AcDbLine
 10
173.517639987
 20
117.0028957697
 30
0.0
 11
173.7441632485
 21
116.0939156236
 31
0.0
  0
LINE
  5
131
330
1F
100
AcDbEntity
  8
0
  6
HIDDEN
 62
     7
370
     0
100
AcDbLine
 10
175.565520074
 20
116.5124594392
 30
0.0
 11
173.517639987
 21
117.0028957697
 31
0.0
  0
LINE
  5
132
330
1F
100
AcDbEntity
  8
0
  6
HIDDEN
 62
     7
370
     0
100
AcDbLine
 10
175.565520074
 20
116.5124594392
 30
0.0
 11
175.7920433355
 21
115.6034792932
 31
0.0
  0
LINE
  5
133
330
1F
100
AcDbEntity
  8
0
  6
HIDDEN
 62
     7
370
     0
100
AcDbLine
 10
173.7441632485
 20
116.0939156236
 30
0.0
 11
173.3184394015
 21
115.0547617274
 31
0.0
  0
LINE
  5
134
330
1F
100
AcDbEntity
  8
0
  6
HIDDEN
 62
     7
370
     0
100
AcDbLine
 10
175.7920433355
 20
115.6034792932
 30
0.0
 11
175.3663194885
 21
114.5643253969
 31
0.0
  0
CIRCLE
  5
135
330
1F
100
AcDbEntity
  8
0
  6
HIDDEN
 62
     7
370
     0
100
AcDbCircle
 10
196.8874056427
 20
107.0655572387
 30
0.0
 40
2.105669347724866
  0
CIRCLE
  5
136
330
1F
100
AcDbEntity
  8
0
  6
HIDDEN
 62
     7
370
     0
100
AcDbCircle
 10
196.8874056427
 20
107.0655572387
 30
0.0
 40
1.695534221835437
  0
LWPOLYLINE
  5
137
330
1F
100
AcDbEntity
  8
0
  6
HIDDEN
 62
     7
370
     0
100
AcDbPolyline
 90
        3
 70
   128
 43
0.0
 10
198.2499847708
 20
106.7640751409
 10
198.0901325641
 20
106.3577703592
 10
197.8126673547
 20
106.0208532419
  0
LWPOLYLINE
  5
138
330
1F
100
AcDbEntity
  8
0
  6
HIDDEN
 62
     7
370
     0
100
AcDbPolyline
 90
        3
 70
   128
 43
0.0
 10
196.7255252002
 20
105.6794437738
 10
196.5859236715
 20
105.7029772476
 10
196.4758487938
 20
105.7320894599
  0
LINE
  5
139
330
1F
100
AcDbEntity
  8
0
  6
HIDDEN
 62
     7
370
     0
100
AcDbLine
 10
195.6035702078
 20
106.5184903839
 30
0.0
 11
195.52361989
 21
106.7695804797
 31
0.0
  0
LINE
  5
13A
330
1F
100
AcDbEntity
  8
0
  6
HIDDEN
 62
     7
370
     0
100
AcDbLine
 10
195.7986543475
 20
107.9385621981
 30
0.0
 11
195.9623175261
 21
108.1104158349
 31
0.0
  0
ARC
  5
13B
330
1F
100
AcDbEntity
  8
0
  6
HIDDEN
 62
     7
370
     0
100
AcDbCircle
 10
196.8874056427
 20
107.0655572387
 30
0.0
 40
1.395534221835437
100
AcDbArc
 50
347.523834216
 51
83.5861719374
  0
SPLINE
  5
13C
330
1F
100
AcDbEntity
  8
0
  6
HIDDEN
 62
     7
370
     0
100
AcDbSpline
210
0.0
220
0.0
230
1.0
 70
     8
 71
     3
 72
    10
 73
     6
 74
     0
 42
0.000000001
 43
0.00000001
 40
0.0
 40
0.0
 40
0.0
 40
0.0
 40
0.5
 40
0.5
 40
1.0
 40
1.0
 40
1.0
 40
1.0
 10
179.511514880031
 20
99.31901806919268
 30
0.0
 10
179.4959088290498
 20
99.21374586858411
 30
0.0
 10
179.4874043660212
 20
99.10980737079315
 30
0.0
 10
179.4874069196109
 20
98.91029409883706
 30
0.0
 10
179.4959045072114
 20
98.81908160416664
 30
0.0
 10
179.511514880031
 20
98.73714967182349
 30
0.0
  0
LWPOLYLINE
  5
13D
330
1F
100
AcDbEntity
  8
0
  6
HIDDEN
 62
     7
370
     0
100
AcDbPolyline
 90
       23
 70
   128
 43
0.0
 10
179.5115147306
 20
98.7371492358
 10
179.6668965889
 20
98.2499268996
 10
179.9556196256
 20
97.8196996423
 10
180.3565372301
 20
97.4779796945
 10
180.8402838705
 20
97.2497954192
 10
181.371429242
 20
97.1518612625
 10
181.9110692067
 20
97.1913493397
 10
182.4196775032
 20
97.3653669628
 10
182.8600030912
 20
97.6611699136
 10
183.1997933386
 20
98.0570909726
 10
183.4141614435
 20
98.5241315486
 10
183.4874053074
 20
99.0280841636
 10
183.4141614435
 20
99.5320363129
 10
183.1997933386
 20
99.9990768889
 10
182.8600030912
 20
100.3949979479
 10
182.4196775032
 20
100.6908004331
 10
181.9110692067
 20
100.8648185218
 10
181.371429242
 20
100.904306599
 10
180.8402838705
 20
100.8063719766
 10
180.3565372301
 20
100.578188167
 10
179.9556196256
 20
100.2364682192
 10
179.6668965889
 20
99.8062409619
 10
179.5115147306
 20
99.31901816
  0
LWPOLYLINE
  5
13E
330
1F
100
AcDbEntity
  8
0
  6
HIDDEN
 62
     7
370
     0
100
AcDbPolyline
 90
       25
 70
   128
 43
0.0
 10
171.9376172459
 20
98.1673726039
 10
172.066021716
 20
97.6344139474
 10
172.2643394077
 20
97.1377750086
 10
172.5190549677
 20
96.7113019126
 10
172.8128099402
 20
96.3840575116
 10
173.1255857794
 20
96.178343256
 10
173.4360668396
 20
96.1081774132
 10
173.7230948692
 20
96.178343256
 10
173.9671088343
 20
96.3840575116
 10
174.1514799705
 20
96.7113019126
 10
174.2636438047
 20
97.1377750086
 10
174.2959560415
 20
97.6344139474
 10
174.2462150341
 20
98.1673726039
 10
174.1178103311
 20
98.7003312605
 10
173.9194931051
 20
99.1969701993
 10
173.6647773122
 20
99.6234432953
 10
173.3710223397
 20
99.9506876962
 10
173.0582465006
 20
100.1564019518
 10
172.7477654403
 20
100.2265673289
 10
172.4607374107
 20
100.1564019518
 10
172.2167234456
 20
99.9506876962
 10
172.0323523095
 20
99.6234432953
 10
171.920188708
 20
99.1969701993
 10
171.8878762385
 20
98.7003312605
 10
171.9376172459
 20
98.1673726039
  0
LWPOLYLINE
  5
13F
330
1F
100
AcDbEntity
  8
0
  6
HIDDEN
 62
     7
370
     0
100
AcDbPolyline
 90
       22
 70
   128
 43
0.0
 10
172.3191330729
 20
98.1995032327
 10
172.43912933
 20
97.7226074012
 10
172.6290497517
 20
97.2880858155
 10
172.8720192386
 20
96.9345483156
 10
173.146448802
 20
96.6934065493
 10
173.4279540887
 20
96.5860883864
 10
173.6915221026
 20
96.6221296387
 10
173.9137338063
 20
96.7983274879
 10
174.0748446954
 20
97.0990254702
 10
174.1605389452
 20
97.4975058036
 10
174.1632029934
 20
97.9583623978
 10
174.0825998185
 20
98.4406449991
 10
173.9258912912
 20
98.9015006619
 10
173.7070016151
 20
99.2999814609
 10
173.4453800654
 20
99.6006794432
 10
173.1642729191
 20
99.7768772924
 10
172.888657782
 20
99.8129180791
 10
172.6430242469
 20
99.7056003818
 10
172.449198324
 20
99.4644590812
 10
172.3244017975
 20
99.11092065
 10
172.2797234597
 20
98.6763990643
 10
172.3191330729
 20
98.1995032327
  0
ELLIPSE
  5
140
330
1F
100
AcDbEntity
  8
0
  6
HIDDEN
 62
     7
370
     0
100
AcDbEllipse
 10
181.4874056427
 20
100.1779671781
 30
0.0
 11
1.383467579512143
 21
-1.091267719176599
 31
0.0
210
0.0
220
0.0
230
1.0
 40
0.8239737799
 41
2.147131942757417
 42
5.288724596347223
  0
ELLIPSE
  5
141
330
1F
100
AcDbEntity
  8
0
  6
HIDDEN
 62
     7
370
     0
100
AcDbEllipse
 10
181.4874056427
 20
100.1779671781
 30
0.0
 11
1.383467579512143
 21
1.753907414218503
 31
0.0
210
0.0
220
0.0
230
1.0
 40
0.5126701559
 41
0.9944607108323779
 42
4.136053364422184
  0
SPLINE
  5
142
330
1F
100
AcDbEntity
  8
0
  6
HIDDEN
 62
     7
370
     0
100
AcDbSpline
210
0.0
220
0.0
230
1.0
 70
     8
 71
     3
 72
    14
 73
    10
 74
     0
 42
0.000000001
 43
0.00000001
 40
0.0
 40
0.0
 40
0.0
 40
0.0
 40
0.25
 40
0.25
 40
0.5
 40
0.5
 40
0.75
 40
0.75
 40
1.0
 40
1.0
 40
1.0
 40
1.0
 10
179.511514880031
 20
98.7371496718235
 30
0.0
 10
179.5478787080613
 20
98.78264430722533
 30
0.0
 10
179.5803564352715
 20
98.83103611344158
 30
0.0
 10
179.6291100646872
 20
98.93652125737117
 30
0.0
 10
179.6440138423617
 20
98.99310576561408
 30
0.0
 10
179.6440242760193
 20
99.10199335956455
 30
0.0
 10
179.6291339802112
 20
99.15417802532716
 30
0.0
 10
179.5802450493336
 20
99.2454554242707
 30
0.0
 10
179.5478728710632
 20
99.28412212964489
 30
0.0
 10
179.511514880031
 20
99.31901806919264
 30
0.0
  0
LWPOLYLINE
  5
143
330
1F
100
AcDbEntity
  8
0
  6
HIDDEN
 62
     7
370
     0
100
AcDbPolyline
 90
       22
 70
   128
 43
0.0
 10
181.4874059109
 20
97.5211604657
 10
181.9737518726
 20
97.5900448086
 10
182.4168835355
 20
97.790576254
 10
182.7774273751
 20
98.1049376698
 10
183.0233477576
 20
98.5051949667
 10
183.1327921299
 20
98.9557855921
 10
183.0960365532
 20
99.4166705916
 10
182.9163471756
 20
99.8469001772
 10
182.6096905915
 20
100.2082454199
 10
182.203313574
 20
100.4685994396
 10
181.733325362
 20
100.6048286492
 10
181.2414855285
 20
100.6048286492
 10
180.7714973165
 20
100.4685994396
 10
180.365120299
 20
100.2082454199
 10
180.0584637148
 20
99.8469001772
 10
179.8787743373
 20
99.4166705916
 10
179.8420196919
 20
98.9557855921
 10
179.9514640642
 20
98.5051949667
 10
180.1973835153
 20
98.1049376698
 10
180.557927355
 20
97.790576254
 10
181.0010599492
 20
97.5900448086
 10
181.4874059109
 20
97.5211604657
  0
SPLINE
  5
144
330
1F
100
AcDbEntity
  8
0
  6
HIDDEN
 62
     7
370
     0
100
AcDbSpline
210
0.0
220
0.0
230
1.0
 70
    11
 71
     3
 72
    60
 73
    56
 74
     0
 42
0.000000001
 43
0.00000001
 40
0.0
 40
0.0
 40
0.0
 40
0.0
 40
0.0312500000000002
 40
0.0312500000000002
 40
0.0625000000000004
 40
0.0625000000000004
 40
0.1250000000000003
 40
0.1250000000000003
 40
0.1875000000000002
 40
0.1875000000000002
 40
0.2187500000000001
 40
0.2187500000000001
 40
0.2499999999999999
 40
0.2499999999999999
 40
0.2812499999999997
 40
0.2812499999999997
 40
0.3124999999999996
 40
0.3124999999999996
 40
0.3437499999999994
 40
0.3437499999999994
 40
0.3749999999999993
 40
0.3749999999999993
 40
0.4062499999999991
 40
0.4062499999999991
 40
0.4374999999999989
 40
0.4374999999999989
 40
0.4999999999999987
 40
0.4999999999999987
 40
0.5312499999999988
 40
0.5312499999999988
 40
0.5624999999999988
 40
0.5624999999999988
 40
0.5937499999999989
 40
0.5937499999999989
 40
0.6249999999999989
 40
0.6249999999999989
 40
0.656249999999999
 40
0.656249999999999
 40
0.6874999999999991
 40
0.6874999999999991
 40
0.7187499999999991
 40
0.7187499999999991
 40
0.7499999999999992
 40
0.7499999999999992
 40
0.8124999999999994
 40
0.8124999999999994
 40
0.8437499999999997
 40
0.8437499999999997
 40
0.8749999999999998
 40
0.8749999999999998
 40
0.90625
 40
0.90625
 40
0.9375000000000002
 40
0.9375000000000002
 40
1.0
 40
1.0
 40
1.0
 40
1.0
 10
181.4874056426714
 20
104.1754976481011
 30
0.0
 10
181.3772127317011
 20
104.1754976481011
 30
0.0
 10
181.2691035284137
 20
104.1841729171918
 30
0.0
 10
181.0567983739273
 20
104.2181892147352
 30
0.0
 10
180.9514897104683
 20
104.2439932598323
 30
0.0
 10
180.6526917498597
 20
104.3448108119448
 30
0.0
 10
180.4712695454737
 20
104.4446468287506
 30
0.0
 10
180.1700636448168
 20
104.69828274387
 30
0.0
 10
180.0475091660246
 20
104.8549915462628
 30
0.0
 10
179.9233757154054
 20
105.1190346205893
 30
0.0
 10
179.8910725985694
 20
105.2136573792383
 30
0.0
 10
179.8482229367375
 20
105.4087451754867
 30
0.0
 10
179.837477769225
 20
105.5086359992063
 30
0.0
 10
179.837334232872
 20
105.713263533986
 30
0.0
 10
179.8483173539083
 20
105.8185575723335
 30
0.0
 10
179.8909890134356
 20
106.0239610090625
 30
0.0
 10
179.922551907543
 20
106.1253019964117
 30
0.0
 10
180.0065170030307
 20
106.3248996777298
 30
0.0
 10
180.0575515560314
 20
106.4199112277536
 30
0.0
 10
180.1767848868102
 20
106.6003961386989
 30
0.0
 10
180.2458439441447
 20
106.6866555468681
 30
0.0
 10
180.3971424679991
 20
106.843395485008
 30
0.0
 10
180.4793751727541
 20
106.914285845201
 30
0.0
 10
180.6574876899022
 20
107.0404387098571
 30
0.0
 10
180.7536225741065
 20
107.0954843079749
 30
0.0
 10
181.0508692592254
 20
107.2281490815324
 30
0.0
 10
181.2699270000044
 20
107.2764105973012
 30
0.0
 10
181.5953806748923
 20
107.2765195184972
 30
0.0
 10
181.7052172760853
 20
107.2647557935373
 30
0.0
 10
181.9191495730677
 20
107.2183497313089
 30
0.0
 10
182.0223892340112
 20
107.184210688398
 30
0.0
 10
182.2218182905737
 20
107.0952035383644
 30
0.0
 10
182.3179107978472
 20
107.0400516676487
 30
0.0
 10
182.4954548474132
 20
106.9142436178084
 30
0.0
 10
182.5781514145264
 20
106.8430322219717
 30
0.0
 10
182.7306259728915
 20
106.6847986399598
 30
0.0
 10
182.7983028939333
 20
106.6000073572977
 30
0.0
 10
182.917280558202
 20
106.4198498714022
 30
0.0
 10
182.9690248414022
 20
106.323303413042
 30
0.0
 10
183.0522015480584
 20
106.1252979427816
 30
0.0
 10
183.0837125850074
 20
106.0243646867661
 30
0.0
 10
183.1264481924592
 20
105.8189015979288
 30
0.0
 10
183.1374538968794
 20
105.7134892073321
 30
0.0
 10
183.1373086438758
 20
105.4068660655917
 30
0.0
 10
183.0929557552915
 20
105.2072215929378
 30
0.0
 10
182.9683705470099
 20
104.9424131007664
 30
0.0
 10
182.9165867333438
 20
104.8583129286529
 30
0.0
 10
182.7966290550136
 20
104.7042273560094
 30
0.0
 10
182.7287779930179
 20
104.6341810178329
 30
0.0
 10
182.5772522542627
 20
104.5068481658703
 30
0.0
 10
182.4932829809998
 20
104.449684171115
 30
0.0
 10
182.3157917126608
 20
104.3520035938978
 30
0.0
 10
182.2215101777065
 20
104.3107555854225
 30
0.0
 10
181.9206250704771
 20
104.2095623384901
 30
0.0
 10
181.7077914646121
 20
104.1754976481011
 30
0.0
 10
181.4874056426714
 20
104.1754976481011
 30
0.0
  0
ELLIPSE
  5
145
330
1F
100
AcDbEntity
  8
0
  6
HIDDEN
 62
     7
370
     0
100
AcDbEllipse
 10
181.4874056427
 20
100.1779671781
 30
0.0
 11
1.383467579512143
 21
-1.091267719176599
 31
0.0
210
0.0
220
0.0
230
1.0
 40
0.8239737799
 41
5.288724596347225
 42
5.331125843581829
  0
SPLINE
  5
146
330
1F
100
AcDbEntity
  8
0
  6
HIDDEN
 62
     7
370
     0
100
AcDbSpline
210
0.0
220
0.0
230
1.0
 70
     8
 71
     3
 72
     8
 73
     4
 74
     0
 42
0.000000001
 43
0.00000001
 40
0.0
 40
0.0
 40
0.0
 40
0.0
 40
1.0
 40
1.0
 40
1.0
 40
1.0
 10
181.5573467387787
 20
98.61641531231221
 30
0.0
 10
181.5403620127082
 20
98.62353102235004
 30
0.0
 10
181.523357868199
 20
98.63140615185694
 30
0.0
 10
181.5063589841514
 20
98.64002927129361
 30
0.0
  0
ELLIPSE
  5
147
330
1F
100
AcDbEntity
  8
0
  6
HIDDEN
 62
     7
370
     0
100
AcDbEllipse
 10
181.4874056427
 20
100.1779671781
 30
0.0
 11
1.383467579512143
 21
1.753907414218503
 31
0.0
210
0.0
220
0.0
230
1.0
 40
0.5126701559
 41
4.136053364422175
 42
4.147540490634041
  0
ELLIPSE
  5
148
330
1F
100
AcDbEntity
  8
0
  6
HIDDEN
 62
     7
370
     0
100
AcDbEllipse
 10
181.4874056427
 20
100.1779671781
 30
0.0
 11
1.383467579512143
 21
1.753907414218503
 31
0.0
210
0.0
220
0.0
230
1.0
 40
0.5126701559
 41
0.9829735846204858
 42
0.994460710832369
  0
SPLINE
  5
149
330
1F
100
AcDbEntity
  8
0
  6
HIDDEN
 62
     7
370
     0
100
AcDbSpline
210
0.0
220
0.0
230
1.0
 70
     8
 71
     3
 72
     8
 73
     4
 74
     0
 42
0.000000001
 43
0.00000001
 40
0.0
 40
0.0
 40
0.0
 40
0.0
 40
1.0
 40
1.0
 40
1.0
 40
1.0
 10
181.5063589841514
 20
101.7408103283018
 30
0.0
 10
181.523357868199
 20
101.732827054802
 30
0.0
 10
181.5403620127082
 20
101.7240906523706
 30
0.0
 10
181.5573467387787
 20
101.7146138005522
 30
0.0
  0
ELLIPSE
  5
14A
330
1F
100
AcDbEntity
  8
0
  6
HIDDEN
 62
     7
370
     0
100
AcDbEllipse
 10
181.4874056427
 20
100.1779671781
 30
0.0
 11
1.383467579512143
 21
-1.091267719176599
 31
0.0
210
0.0
220
0.0
230
1.0
 40
0.8239737799
 41
2.104730695522921
 42
2.14713194275742
  0
CIRCLE
  5
14B
330
1F
100
AcDbEntity
  8
0
  6
HIDDEN
 62
     7
370
     0
100
AcDbCircle
 10
196.8874056427
 20
107.0655572387
 30
0.0
 40
2.099999999999994
  0
LINE
  5
14C
330
1F
100
AcDbEntity
  8
0
  6
HIDDEN
 62
     7
370
     0
100
AcDbLine
 10
171.6874055618
 20
131.8655579509
 30
0.0
 11
172.0246640088
 21
131.8655579509
 31
0.0
  0
ELLIPSE
  5
14D
330
1F
100
AcDbEntity
  8
0
  6
HIDDEN
 62
     7
370
     0
100
AcDbEllipse
 10
172.0246639429
 20
133.4655572387
 30
0.0
 11
0.0
 21
1.600000000000023
 31
0.0
210
0.0
220
0.0
230
1.0
 40
0.4142135624
 41
3.141592653589793
 42
4.712388980384695
  0
LINE
  5
14E
330
1F
100
AcDbEntity
  8
0
  6
HIDDEN
 62
     7
370
     0
100
AcDbLine
 10
172.0246640088
 20
84.4655565145
 30
0.0
 11
171.6874055618
 21
84.4655565145
 31
0.0
  0
ELLIPSE
  5
14F
330
1F
100
AcDbEntity
  8
0
  6
HIDDEN
 62
     7
370
     0
100
AcDbEllipse
 10
172.0246639429
 20
82.8655572387
 30
0.0
 11
0.0
 21
1.599999999999994
 31
0.0
210
0.0
220
0.0
230
1.0
 40
0.4142135624
 41
4.712388980384695
 42
6.283185307179586
  0
LINE
  5
150
330
1F
100
AcDbEntity
  8
0
  6
HIDDEN
 62
     7
370
     0
100
AcDbLine
 10
172.6874054929
 20
77.1721086623
 30
0.0
 11
171.9035501646
 21
76.7138271751
 31
0.0
  0
LINE
  5
151
330
1F
100
AcDbEntity
  8
0
  6
HIDDEN
 62
     7
370
     0
100
AcDbLine
 10
171.9746473299
 20
137.490854335
 30
0.0
 11
172.6874054929
 21
136.7780945422
 31
0.0
  0
LINE
  5
152
330
1F
100
AcDbEntity
  8
0
  6
HIDDEN
 62
     7
370
     0
100
AcDbLine
 10
107.2374044506
 20
98.5655567767
 30
0.0
 11
107.2374044506
 21
115.5655577006
 31
0.0
  0
LINE
  5
153
330
1F
100
AcDbEntity
  8
0
  6
HIDDEN
 62
     7
370
     0
100
AcDbLine
 10
110.2333350627
 20
100.0655570226
 30
0.0
 11
110.2333350627
 21
114.0655574547
 31
0.0
  0
LINE
  5
154
330
1F
100
AcDbEntity
  8
0
  6
HIDDEN
 62
     7
370
     0
100
AcDbLine
 10
176.5226156039
 20
77.1721086623
 30
0.0
 11
172.6874054929
 21
77.1721086623
 31
0.0
  0
LINE
  5
155
330
1F
100
AcDbEntity
  8
0
  6
HIDDEN
 62
     7
370
     0
100
AcDbLine
 10
187.5374058781
 20
77.1721086623
 30
0.0
 11
182.6521952225
 21
77.1721086623
 31
0.0
  0
LINE
  5
156
330
1F
100
AcDbEntity
  8
0
  6
HIDDEN
 62
     7
370
     0
100
AcDbLine
 10
172.6874054929
 20
77.1721086623
 30
0.0
 11
172.6874054929
 21
82.8655573698
 31
0.0
  0
LINE
  5
157
330
1F
100
AcDbEntity
  8
0
  6
HIDDEN
 62
     7
370
     0
100
AcDbLine
 10
187.5374058781
 20
84.4655565145
 30
0.0
 11
172.0246640088
 21
84.4655565145
 31
0.0
  0
LINE
  5
158
330
1F
100
AcDbEntity
  8
0
  6
HIDDEN
 62
     7
370
     0
100
AcDbLine
 10
172.6874054929
 20
136.7780945422
 30
0.0
 11
176.6234508304
 21
136.7780945422
 31
0.0
  0
LINE
  5
159
330
1F
100
AcDbEntity
  8
0
  6
HIDDEN
 62
     7
370
     0
100
AcDbLine
 10
182.551359996
 20
136.7780945422
 30
0.0
 11
187.5374058781
 21
136.7780945422
 31
0.0
  0
LINE
  5
15A
330
1F
100
AcDbEntity
  8
0
  6
HIDDEN
 62
     7
370
     0
100
AcDbLine
 10
172.6874054929
 20
136.7780945422
 30
0.0
 11
172.6874054929
 21
133.4655570956
 31
0.0
  0
LINE
  5
15B
330
1F
100
AcDbEntity
  8
0
  6
HIDDEN
 62
     7
370
     0
100
AcDbLine
 10
172.0246640088
 20
131.8655579509
 30
0.0
 11
187.5374058781
 21
131.8655579509
 31
0.0
  0
LINE
  5
15C
330
1F
100
AcDbEntity
  8
0
  6
HIDDEN
 62
     7
370
     0
100
AcDbLine
 10
202.2374069838
 20
102.9587683426
 30
0.0
 11
202.2374069838
 21
111.1723461347
 31
0.0
  0
LINE
  5
15D
330
1F
100
AcDbEntity
  8
0
  6
HIDDEN
 62
     7
370
     0
100
AcDbLine
 10
143.2374047635
 20
100.0655570226
 30
0.0
 11
143.2374047635
 21
114.0655574547
 31
0.0
  0
LINE
  5
15E
330
1F
100
AcDbEntity
  8
0
  6
HIDDEN
 62
     7
370
     0
100
AcDbLine
 10
144.8897721765
 20
102.8155570077
 30
0.0
 11
144.8897721765
 21
111.3155574696
 31
0.0
  0
LINE
  5
15F
330
1F
100
AcDbEntity
  8
0
  6
HIDDEN
 62
     7
370
     0
100
AcDbLine
 10
200.237406656
 20
105.3701589974
 30
0.0
 11
200.237406656
 21
108.7609554799
 31
0.0
  0
LINE
  5
160
330
1F
100
AcDbEntity
  8
0
  6
HIDDEN
 62
     7
370
     0
100
AcDbLine
 10
200.9383684544
 20
105.3701589974
 30
0.0
 11
200.9383684544
 21
108.7609554799
 31
0.0
  0
LINE
  5
161
330
1F
100
AcDbEntity
  8
0
  6
HIDDEN
 62
     7
370
     0
100
AcDbLine
 10
202.5549619047
 20
114.1565495329
 30
0.0
 11
202.4824863819
 21
114.1454593437
 31
0.0
  0
LINE
  5
162
330
1F
100
AcDbEntity
  8
0
  6
HIDDEN
 62
     7
370
     0
100
AcDbLine
 10
200.237406656
 20
114.1454593437
 30
0.0
 11
202.4824863819
 21
114.1454593437
 31
0.0
  0
LINE
  5
163
330
1F
100
AcDbEntity
  8
0
  6
HIDDEN
 62
     7
370
     0
100
AcDbLine
 10
200.237406656
 20
114.1655572849
 30
0.0
 11
200.237406656
 21
111.9655572968
 31
0.0
  0
LINE
  5
164
330
1F
100
AcDbEntity
  8
0
  6
HIDDEN
 62
     7
370
     0
100
AcDbLine
 10
200.237406656
 20
108.7609554799
 30
0.0
 11
200.9383684544
 21
108.7609554799
 31
0.0
  0
LINE
  5
165
330
1F
100
AcDbEntity
  8
0
  6
HIDDEN
 62
     7
370
     0
100
AcDbLine
 10
200.237406656
 20
111.9655572968
 30
0.0
 11
200.237406656
 21
108.7609554799
 31
0.0
  0
SPLINE
  5
166
330
1F
100
AcDbEntity
  8
0
  6
HIDDEN
 62
     7
370
     0
100
AcDbSpline
210
0.0
220
0.0
230
1.0
 70
     8
 71
     3
 72
    10
 73
     6
 74
     0
 42
0.000000001
 43
0.00000001
 40
0.0
 40
0.0
 40
0.0
 40
0.0
 40
0.5
 40
0.5
 40
1.0
 40
1.0
 40
1.0
 40
1.0
 10
200.9383675369947
 20
108.7609554219799
 30
0.0
 10
201.0990220540072
 20
109.116565415028
 30
0.0
 10
201.2966243794862
 20
109.4516676090367
 30
0.0
 10
201.7387385751285
 20
110.0958349584492
 30
0.0
 10
201.9830144187771
 20
110.4037008384291
 30
0.0
 10
202.2374056426714
 20
110.6969309456763
 30
0.0
  0
SPLINE
  5
167
330
1F
100
AcDbEntity
  8
0
  6
HIDDEN
 62
     7
370
     0
100
AcDbSpline
210
0.0
220
0.0
230
1.0
 70
     8
 71
     3
 72
     8
 73
     4
 74
     0
 42
0.000000001
 43
0.00000001
 40
0.0
 40
0.0
 40
0.0
 40
0.0
 40
1.0
 40
1.0
 40
1.0
 40
1.0
 10
202.2374056426714
 20
111.1723460085813
 30
0.0
 10
202.305262362453
 20
111.4380791820982
 30
0.0
 10
202.3773536211029
 20
111.7023936560438
 30
0.0
 10
202.4528800637485
 20
111.9655572386613
 30
0.0
  0
LINE
  5
168
330
1F
100
AcDbEntity
  8
0
  6
HIDDEN
 62
     7
370
     0
100
AcDbLine
 10
200.9383684544
 20
105.3701589974
 30
0.0
 11
200.237406656
 21
105.3701589974
 31
0.0
  0
LINE
  5
169
330
1F
100
AcDbEntity
  8
0
  6
HIDDEN
 62
     7
370
     0
100
AcDbLine
 10
200.237406656
 20
105.3701589974
 30
0.0
 11
200.237406656
 21
102.1655571805
 31
0.0
  0
SPLINE
  5
16A
330
1F
100
AcDbEntity
  8
0
  6
HIDDEN
 62
     7
370
     0
100
AcDbSpline
210
0.0
220
0.0
230
1.0
 70
     8
 71
     3
 72
    10
 73
     6
 74
     0
 42
0.000000001
 43
0.00000001
 40
0.0
 40
0.0
 40
0.0
 40
0.0
 40
0.5
 40
0.5
 40
1.0
 40
1.0
 40
1.0
 40
1.0
 10
202.2374056426711
 20
103.434183531646
 30
0.0
 10
201.9811047775405
 20
103.7296148323777
 30
0.0
 10
201.7366783714054
 20
104.0380933683585
 30
0.0
 10
201.2960980559204
 20
104.6804027357866
 30
0.0
 10
201.0989133793605
 20
105.0147896144497
 30
0.0
 10
200.9383675369947
 20
105.3701590553426
 30
0.0
  0
SPLINE
  5
16B
330
1F
100
AcDbEntity
  8
0
  6
HIDDEN
 62
     7
370
     0
100
AcDbSpline
210
0.0
220
0.0
230
1.0
 70
     8
 71
     3
 72
     8
 73
     4
 74
     0
 42
0.000000001
 43
0.00000001
 40
0.0
 40
0.0
 40
0.0
 40
0.0
 40
1.0
 40
1.0
 40
1.0
 40
1.0
 10
202.4528800637485
 20
102.1655572386613
 30
0.0
 10
202.3773450546655
 20
102.4287506700879
 30
0.0
 10
202.3052541138657
 20
102.6930675974531
 30
0.0
 10
202.2374056426714
 20
102.9587684687413
 30
0.0
  0
LINE
  5
16C
330
1F
100
AcDbEntity
  8
0
  6
HIDDEN
 62
     7
370
     0
100
AcDbLine
 10
202.4824863819
 20
99.9856551336
 30
0.0
 11
202.5549619047
 21
99.9745649444
 31
0.0
  0
LINE
  5
16D
330
1F
100
AcDbEntity
  8
0
  6
HIDDEN
 62
     7
370
     0
100
AcDbLine
 10
200.237406656
 20
99.9856551336
 30
0.0
 11
202.4824863819
 21
99.9856551336
 31
0.0
  0
LINE
  5
16E
330
1F
100
AcDbEntity
  8
0
  6
HIDDEN
 62
     7
370
     0
100
AcDbLine
 10
200.237406656
 20
102.1655571805
 30
0.0
 11
200.237406656
 21
99.9655571925
 31
0.0
  0
LINE
  5
16F
330
1F
100
AcDbEntity
  8
0
  6
HIDDEN
 62
     7
370
     0
100
AcDbLine
 10
199.7374056427
 20
101.5655572685
 30
0.0
 11
199.7374056427
 21
112.5655572089
 31
0.0
  0
LINE
  5
170
330
1F
100
AcDbEntity
  8
0
  6
HIDDEN
 62
     7
370
     0
100
AcDbLine
 10
190.5874053536
 20
101.9655570546
 30
0.0
 11
190.5874053536
 21
112.1655574227
 31
0.0
  0
LINE
  5
171
330
1F
100
AcDbEntity
  8
0
  6
HIDDEN
 62
     7
370
     0
100
AcDbLine
 10
192.5874056814
 20
101.5655572685
 30
0.0
 11
192.5874056814
 21
112.5655572089
 31
0.0
  0
SPLINE
  5
172
330
1F
100
AcDbEntity
  8
0
  6
HIDDEN
 62
     7
370
     0
100
AcDbSpline
210
0.0
220
0.0
230
1.0
 70
    11
 71
     3
 72
    60
 73
    56
 74
     0
 42
0.000000001
 43
0.00000001
 40
0.0
 40
0.0
 40
0.0
 40
0.0
 40
0.0312499999999997
 40
0.0312499999999997
 40
0.0624999999999995
 40
0.0624999999999995
 40
0.1249999999999989
 40
0.1249999999999989
 40
0.1874999999999984
 40
0.1874999999999984
 40
0.2187499999999983
 40
0.2187499999999983
 40
0.2499999999999981
 40
0.2499999999999981
 40
0.2812499999999979
 40
0.2812499999999979
 40
0.3124999999999977
 40
0.3124999999999977
 40
0.3437499999999977
 40
0.3437499999999977
 40
0.3749999999999976
 40
0.3749999999999976
 40
0.4062499999999974
 40
0.4062499999999974
 40
0.4374999999999973
 40
0.4374999999999973
 40
0.4999999999999971
 40
0.4999999999999971
 40
0.5312499999999973
 40
0.5312499999999973
 40
0.5624999999999974
 40
0.5624999999999974
 40
0.5937499999999977
 40
0.5937499999999977
 40
0.6249999999999978
 40
0.6249999999999978
 40
0.656249999999998
 40
0.656249999999998
 40
0.6874999999999982
 40
0.6874999999999982
 40
0.7187499999999983
 40
0.7187499999999983
 40
0.7499999999999986
 40
0.7499999999999986
 40
0.8124999999999989
 40
0.8124999999999989
 40
0.8437499999999991
 40
0.8437499999999991
 40
0.8749999999999992
 40
0.8749999999999992
 40
0.9062499999999994
 40
0.9062499999999994
 40
0.9374999999999997
 40
0.9374999999999997
 40
1.0
 40
1.0
 40
1.0
 40
1.0
 10
181.4874056426714
 20
106.854631180628
 30
0.0
 10
181.5975985536417
 20
106.854631180628
 30
0.0
 10
181.7057077569291
 20
106.8664888029327
 30
0.0
 10
181.9180129114156
 20
106.9124945298229
 30
0.0
 10
182.0233215748746
 20
106.9472543821366
 30
0.0
 10
182.3221195354831
 20
107.0808082203009
 30
0.0
 10
182.5035417398691
 20
107.2107166334445
 30
0.0
 10
182.804747640526
 20
107.5231751205548
 30
0.0
 10
182.9273021193182
 20
107.7089526033824
 30
0.0
 10
183.0514355699375
 20
108.003763351886
 30
0.0
 10
183.0837386867734
 20
108.1067424383072
 30
0.0
 10
183.1265883486053
 20
108.3130200780121
 30
0.0
 10
183.1373335161178
 20
108.4157880629315
 30
0.0
 10
183.1374770524709
 20
108.6204537164499
 30
0.0
 10
183.1264939314345
 20
108.722807802644
 30
0.0
 10
183.0838222719073
 20
108.9170679116513
 30
0.0
 10
183.0522593777998
 20
109.0102362203948
 30
0.0
 10
182.9682942823121
 20
109.189019741037
 30
0.0
 10
182.9172597293114
 20
109.2717371327487
 30
0.0
 10
182.7980263985327
 20
109.4252887481626
 30
0.0
 10
182.7289673411981
 20
109.4967392089159
 30
0.0
 10
182.5776688173438
 20
109.6239512513033
 30
0.0
 10
182.4954361125888
 20
109.6800941351505
 30
0.0
 10
182.3173235954406
 20
109.7784159479944
 30
0.0
 10
182.2211887112363
 20
109.8204102421457
 30
0.0
 10
181.9239420261174
 20
109.9205493524222
 30
0.0
 10
181.7048842853384
 20
109.9555634603231
 30
0.0
 10
181.3794306104506
 20
109.9556434197831
 30
0.0
 10
181.2695940092575
 20
109.9470380153602
 30
0.0
 10
181.0556617122751
 20
109.912725219886
 30
0.0
 10
180.9524220513316
 20
109.8873834066914
 30
0.0
 10
180.7529929947691
 20
109.8201983175066
 30
0.0
 10
180.6569004874957
 20
109.778116332448
 30
0.0
 10
180.4793564379297
 20
109.6800591768841
 30
0.0
 10
180.3966598708164
 20
109.6236697125602
 30
0.0
 10
180.2441853124513
 20
109.4952186429106
 30
0.0
 10
180.1765083914096
 20
109.4249611262776
 30
0.0
 10
180.0575307271408
 20
109.2716817819095
 30
0.0
 10
180.0057864439406
 20
109.18760260515
 30
0.0
 10
179.9226097372844
 20
109.0102198172657
 30
0.0
 10
179.8910987003354
 20
108.9174431749908
 30
0.0
 10
179.8483630928837
 20
108.7231396553391
 30
0.0
 10
179.8373573884635
 20
108.6206732404008
 30
0.0
 10
179.837502641467
 20
108.3140115240295
 30
0.0
 10
179.8818555300514
 20
108.1022396396309
 30
0.0
 10
180.0064407383329
 20
107.8065542985566
 30
0.0
 10
180.058224551999
 20
107.7099777707175
 30
0.0
 10
180.1781822303292
 20
107.5288135224019
 30
0.0
 10
180.246033292325
 20
107.4442242037025
 30
0.0
 10
180.3975590310801
 20
107.2873261709095
 30
0.0
 10
180.4815283043431
 20
107.2151299399565
 30
0.0
 10
180.659019572682
 20
107.0897680967274
 30
0.0
 10
180.7533011076363
 20
107.0357017436165
 30
0.0
 10
181.0541862148657
 20
106.9016297616005
 30
0.0
 10
181.2670198207308
 20
106.854631180628
 30
0.0
 10
181.4874056426714
 20
106.854631180628
 30
0.0
  0
LINE
  5
173
330
1F
100
AcDbEntity
  8
0
  6
HIDDEN
 62
     7
370
     0
100
AcDbLine
 10
202.4824863819
 20
99.0405573668
 30
0.0
 11
202.4824863819
 21
99.9856551336
 31
0.0
  0
LINE
  5
174
330
1F
100
AcDbEntity
  8
0
  6
HIDDEN
 62
     7
370
     0
100
AcDbLine
 10
202.4824863819
 20
114.1454593437
 30
0.0
 11
202.4824863819
 21
115.0905571105
 31
0.0
  0
LINE
  5
175
330
1F
100
AcDbEntity
  8
0
  6
HIDDEN
 62
     7
370
     0
100
AcDbLine
 10
200.237406656
 20
115.0905571105
 30
0.0
 11
200.237406656
 21
114.1454593437
 31
0.0
  0
LINE
  5
176
330
1F
100
AcDbEntity
  8
0
  6
HIDDEN
 62
     7
370
     0
100
AcDbLine
 10
200.237406656
 20
99.9856551336
 30
0.0
 11
200.237406656
 21
99.0405573668
 31
0.0
  0
ELLIPSE
  5
177
330
1F
100
AcDbEntity
  8
0
  6
HIDDEN
 62
     7
370
     0
100
AcDbEllipse
 10
181.4874056427
 20
113.9531472992
 30
0.0
 11
-1.383467579512143
 21
1.753907414218517
 31
0.0
210
0.0
220
0.0
230
1.0
 40
0.5126701559
 41
5.277237470129057
 42
5.288724596347228
  0
ELLIPSE
  5
178
330
1F
100
AcDbEntity
  8
0
  6
HIDDEN
 62
     7
370
     0
100
AcDbEllipse
 10
181.4874056427
 20
113.9531472992
 30
0.0
 11
1.383467579512143
 21
1.091267719176599
 31
0.0
210
0.0
220
0.0
230
1.0
 40
0.8239737799
 41
0.9944607108323756
 42
4.136053364422182
  0
ELLIPSE
  5
179
330
1F
100
AcDbEntity
  8
0
  6
HIDDEN
 62
     7
370
     0
100
AcDbEllipse
 10
181.4874056427
 20
113.9531472992
 30
0.0
 11
-1.383467579512143
 21
1.753907414218517
 31
0.0
210
0.0
220
0.0
230
1.0
 40
0.5126701559
 41
2.147131942757422
 42
2.158619068973577
  0
SPLINE
  5
17A
330
1F
100
AcDbEntity
  8
0
  6
HIDDEN
 62
     7
370
     0
100
AcDbSpline
210
0.0
220
0.0
230
1.0
 70
     8
 71
     3
 72
     8
 73
     4
 74
     0
 42
0.000000001
 43
0.00000001
 40
0.0
 40
0.0
 40
0.0
 40
0.0
 40
1.0
 40
1.0
 40
1.0
 40
1.0
 10
181.5063589841321
 20
112.3903041490119
 30
0.0
 10
181.5233578681925
 20
112.3982874225172
 30
0.0
 10
181.5403620127146
 20
112.4070238249552
 30
0.0
 10
181.557346738798
 20
112.4165006767813
 30
0.0
  0
ELLIPSE
  5
17B
330
1F
100
AcDbEntity
  8
0
  6
HIDDEN
 62
     7
370
     0
100
AcDbEllipse
 10
181.4874056427
 20
113.9531472992
 30
0.0
 11
1.383467579512143
 21
1.091267719176599
 31
0.0
210
0.0
220
0.0
230
1.0
 40
0.8239737799
 41
4.136053364422185
 42
4.178454611672613
  0
ELLIPSE
  5
17C
330
1F
100
AcDbEntity
  8
0
  6
HIDDEN
 62
     7
370
     0
100
AcDbEllipse
 10
181.4874056427
 20
113.9531472992
 30
0.0
 11
-1.383467579512143
 21
1.753907414218517
 31
0.0
210
0.0
220
0.0
230
1.0
 40
0.5126701559
 41
5.288724596347235
 42
8.430317249937016
  0
ELLIPSE
  5
17D
330
1F
100
AcDbEntity
  8
0
  6
HIDDEN
 62
     7
370
     0
100
AcDbEllipse
 10
181.4874056427
 20
113.9531472992
 30
0.0
 11
1.383467579512143
 21
1.091267719176599
 31
0.0
210
0.0
220
0.0
230
1.0
 40
0.8239737799
 41
0.9520594635743816
 42
0.9944607108323791
  0
SPLINE
  5
17E
330
1F
100
AcDbEntity
  8
0
  6
HIDDEN
 62
     7
370
     0
100
AcDbSpline
210
0.0
220
0.0
230
1.0
 70
     8
 71
     3
 72
     8
 73
     4
 74
     0
 42
0.000000001
 43
0.00000001
 40
0.0
 40
0.0
 40
0.0
 40
0.0
 40
1.0
 40
1.0
 40
1.0
 40
1.0
 10
181.5573467388069
 20
115.5146991650223
 30
0.0
 10
181.5403620127177
 20
115.5075834549775
 30
0.0
 10
181.5233578681896
 20
115.4997083254619
 30
0.0
 10
181.5063589841232
 20
115.4910852060148
 30
0.0
  0
LWPOLYLINE
  5
17F
330
1F
100
AcDbEntity
  8
0
  6
HIDDEN
 62
     7
370
     0
100
AcDbPolyline
 90
       22
 70
   128
 43
0.0
 10
181.4874059109
 20
113.5089678848
 10
181.9737518726
 20
113.5778522277
 10
182.4168835355
 20
113.7783836732
 10
182.7774273751
 20
114.0927441577
 10
183.0233477576
 20
114.4930023858
 10
183.1327921299
 20
114.9435925456
 10
183.0960365532
 20
115.4044780107
 10
182.9163471756
 20
115.8347071307
 10
182.6096905915
 20
116.1960528391
 10
182.203313574
 20
116.4564068588
 10
181.733325362
 20
116.5926360684
 10
181.2414855285
 20
116.5926360684
 10
180.7714973165
 20
116.4564068588
 10
180.365120299
 20
116.1960528391
 10
180.0584637148
 20
115.8347071307
 10
179.8787743373
 20
115.4044780107
 10
179.8420196919
 20
114.9435925456
 10
179.9514640642
 20
114.4930023858
 10
180.1973835153
 20
114.0927441577
 10
180.557927355
 20
113.7783836732
 10
181.0010599492
 20
113.5778522277
 10
181.4874059109
 20
113.5089678848
  0
LINE
  5
180
330
1F
100
AcDbEntity
  8
0
  6
HIDDEN
 62
     7
370
     0
100
AcDbLine
 10
177.677405305
 20
129.2627982022
 30
0.0
 11
177.677405305
 21
125.4155568006
 31
0.0
  0
SPLINE
  5
181
330
1F
100
AcDbEntity
  8
0
  6
HIDDEN
 62
     7
370
     0
100
AcDbSpline
210
0.0
220
0.0
230
1.0
 70
     8
 71
     3
 72
    14
 73
    10
 74
     0
 42
0.000000001
 43
0.00000001
 40
0.0
 40
0.0
 40
0.0
 40
0.0
 40
0.25
 40
0.25
 40
0.5
 40
0.5
 40
0.75
 40
0.75
 40
1.0
 40
1.0
 40
1.0
 40
1.0
 10
180.6974056426713
 20
118.3480364287694
 30
0.0
 10
180.7950878937853
 20
118.3865587428018
 30
0.0
 10
180.8972014028226
 20
118.4241741022606
 30
0.0
 10
181.0893735739915
 20
118.4952828278475
 30
0.0
 10
181.1807922473184
 20
118.5294888783516
 30
0.0
 10
181.3323082363326
 20
118.5963783567085
 30
0.0
 10
181.3934554388715
 20
118.6296488192694
 30
0.0
 10
181.4761621405599
 20
118.6990471693633
 30
0.0
 10
181.4974056426714
 20
118.7348242749592
 30
0.0
 10
181.4974056426714
 20
118.7713196072099
 30
0.0
  0
LINE
  5
182
330
1F
100
AcDbEntity
  8
0
  6
HIDDEN
 62
     7
370
     0
100
AcDbLine
 10
181.4974055214
 20
129.2627982022
 30
0.0
 11
181.4974055214
 21
125.4155568006
 31
0.0
  0
SPLINE
  5
183
330
1F
100
AcDbEntity
  8
0
  6
HIDDEN
 62
     7
370
     0
100
AcDbSpline
210
0.0
220
0.0
230
1.0
 70
     8
 71
     3
 72
    14
 73
    10
 74
     0
 42
0.000000001
 43
0.00000001
 40
0.0
 40
0.0
 40
0.0
 40
0.0
 40
0.2499999999999995
 40
0.2499999999999995
 40
0.4999999999999997
 40
0.4999999999999997
 40
0.7499999999999998
 40
0.7499999999999998
 40
1.0
 40
1.0
 40
1.0
 40
1.0
 10
181.4974056426714
 20
115.0125961089909
 30
0.0
 10
181.4974056426714
 20
114.9761071780837
 30
0.0
 10
181.4762362664991
 20
114.9396083863499
 30
0.0
 10
181.3934906486468
 20
114.874233038613
 30
0.0
 10
181.332637023819
 20
114.8462962042666
 30
0.0
 10
181.1810321571279
 20
114.8124051750199
 30
0.0
 10
181.0898098466607
 20
114.8069797224335
 30
0.0
 10
180.8974792969574
 20
114.827899046246
 30
0.0
 10
180.7952284124804
 20
114.8544551936865
 30
0.0
 10
180.6974056426713
 20
114.8949249519923
 30
0.0
  0
LINE
  5
184
330
1F
100
AcDbEntity
  8
0
  6
HIDDEN
 62
     7
370
     0
100
AcDbLine
 10
181.4974055214
 20
99.0642744275
 30
0.0
 11
181.4974055214
 21
95.3055515113
 31
0.0
  0
LINE
  5
185
330
1F
100
AcDbEntity
  8
0
  6
HIDDEN
 62
     7
370
     0
100
AcDbLine
 10
176.0655690504
 20
132.9757875921
 30
0.0
 11
176.0655690504
 21
125.4155568006
 31
0.0
  0
LINE
  5
186
330
1F
100
AcDbEntity
  8
0
  6
HIDDEN
 62
     7
370
     0
100
AcDbLine
 10
183.1092427073
 20
97.3135369988
 30
0.0
 11
183.1092427073
 21
95.1140576201
 31
0.0
  0
LINE
  5
187
330
1F
100
AcDbEntity
  8
0
  6
HIDDEN
 62
     7
370
     0
100
AcDbLine
 10
183.1092427073
 20
132.9757875921
 30
0.0
 11
183.1092427073
 21
125.4155568006
 31
0.0
  0
SPLINE
  5
188
330
1F
100
AcDbEntity
  8
0
  6
HIDDEN
 62
     7
370
     0
100
AcDbSpline
210
0.0
220
0.0
230
1.0
 70
     8
 71
     3
 72
    10
 73
     6
 74
     0
 42
0.000000001
 43
0.00000001
 40
0.0
 40
0.0
 40
0.0
 40
0.0
 40
0.5
 40
0.5
 40
1.0
 40
1.0
 40
1.0
 40
1.0
 10
179.511514880031
 20
114.8120964081302
 30
0.0
 10
179.4959088290498
 20
114.9173686087387
 30
0.0
 10
179.4874043660212
 20
115.0213071065296
 30
0.0
 10
179.4874069196109
 20
115.2208203784856
 30
0.0
 10
179.4959045072114
 20
115.312032873156
 30
0.0
 10
179.511514880031
 20
115.3939648054991
 30
0.0
  0
SPLINE
  5
189
330
1F
100
AcDbEntity
  8
0
  6
HIDDEN
 62
     7
370
     0
100
AcDbSpline
210
0.0
220
0.0
230
1.0
 70
     8
 71
     3
 72
    14
 73
    10
 74
     0
 42
0.000000001
 43
0.00000001
 40
0.0
 40
0.0
 40
0.0
 40
0.0
 40
0.25
 40
0.25
 40
0.5
 40
0.5
 40
0.75
 40
0.75
 40
1.0
 40
1.0
 40
1.0
 40
1.0
 10
179.511514880031
 20
115.3939648054991
 30
0.0
 10
179.5478787080612
 20
115.3484701700973
 30
0.0
 10
179.5803564352714
 20
115.300078363881
 30
0.0
 10
179.6291100646871
 20
115.1945932199515
 30
0.0
 10
179.6440138423616
 20
115.1380087117086
 30
0.0
 10
179.6440242760192
 20
115.0291211177581
 30
0.0
 10
179.6291339802111
 20
114.9769364519955
 30
0.0
 10
179.5802450493335
 20
114.885659053052
 30
0.0
 10
179.5478728710631
 20
114.8469923476779
 30
0.0
 10
179.511514880031
 20
114.8120964081302
 30
0.0
  0
LWPOLYLINE
  5
18A
330
1F
100
AcDbEntity
  8
0
  6
HIDDEN
 62
     7
370
     0
100
AcDbPolyline
 90
       22
 70
   128
 43
0.0
 10
172.3191330729
 20
115.0456031012
 10
172.43912933
 20
114.6859323764
 10
172.6290497517
 20
114.4369460801
 10
172.8720192386
 20
114.3207673142
 10
173.146448802
 20
114.3477193238
 10
173.4279540887
 20
114.5154067474
 10
173.6915221026
 20
114.8089302862
 10
173.9137338063
 20
115.2022087174
 10
174.0748446954
 20
115.6602983521
 10
174.1605389452
 20
116.1424943404
 10
174.1632029934
 20
116.6059530499
 10
174.0825998185
 20
117.0094932588
 10
173.9258912912
 20
117.3172590481
 10
173.7070016151
 20
117.5019039931
 10
173.4453800654
 20
117.5470209839
 10
173.1642729191
 20
117.4486025395
 10
172.888657782
 20
117.2153919162
 10
172.6430242469
 20
116.8681119727
 10
172.449198324
 20
116.4376202198
 10
172.3244017975
 20
115.9621670069
 10
172.2797234597
 20
115.4839989888
 10
172.3191330729
 20
115.0456031012
  0
LWPOLYLINE
  5
18B
330
1F
100
AcDbEntity
  8
0
  6
HIDDEN
 62
     7
370
     0
100
AcDbPolyline
 90
       23
 70
   128
 43
0.0
 10
179.5115147306
 20
114.8120963173
 10
179.6668965889
 20
114.3248735154
 10
179.9556196256
 20
113.8946462581
 10
180.3565372301
 20
113.5529263104
 10
180.8402838705
 20
113.3247425007
 10
181.371429242
 20
113.2268078784
 10
181.9110692067
 20
113.2662959555
 10
182.4196775032
 20
113.4403140443
 10
182.8600030912
 20
113.7361165295
 10
183.1997933386
 20
114.1320375884
 10
183.4141614435
 20
114.5990781645
 10
183.4874053074
 20
115.1030303138
 10
183.4141614435
 20
115.6069829287
 10
183.1997933386
 20
116.0740235048
 10
182.8600030912
 20
116.4699445637
 10
182.4196775032
 20
116.7657475146
 10
181.9110692067
 20
116.9397651376
 10
181.371429242
 20
116.9792532148
 10
180.8402838705
 20
116.8813190581
 10
180.3565372301
 20
116.6531347828
 10
179.9556196256
 20
116.3114148351
 10
179.6668965889
 20
115.8811875777
 10
179.5115147306
 20
115.3939652415
  0
SPLINE
  5
18C
330
1F
100
AcDbEntity
  8
0
  6
HIDDEN
 62
     7
370
     0
100
AcDbSpline
210
0.0
220
0.0
230
1.0
 70
     8
 71
     3
 72
    12
 73
     8
 74
     0
 42
0.000000001
 43
0.00000001
 40
0.0
 40
0.0
 40
0.0
 40
0.0
 40
0.2499999999999997
 40
0.2499999999999997
 40
0.4999999999999993
 40
0.4999999999999993
 40
1.0
 40
1.0
 40
1.0
 40
1.0
 10
183.1092422847281
 20
119.0170570368683
 30
0.0
 10
183.2321897785237
 20
118.8591001881732
 30
0.0
 10
183.3257339816326
 20
118.6872668211957
 30
0.0
 10
183.4546733707948
 20
118.3155941115499
 30
0.0
 10
183.4872261281799
 20
118.1224056653586
 30
0.0
 10
183.4877624699137
 20
117.5341091270824
 30
0.0
 10
183.3551388129457
 20
117.1420908891937
 30
0.0
 10
183.1092422847281
 20
116.817577306485
 30
0.0
  0
SPLINE
  5
18D
330
1F
100
AcDbEntity
  8
0
  6
HIDDEN
 62
     7
370
     0
100
AcDbSpline
210
0.0
220
0.0
230
1.0
 70
     8
 71
     3
 72
    12
 73
     8
 74
     0
 42
0.000000001
 43
0.00000001
 40
0.0
 40
0.0
 40
0.0
 40
0.0
 40
0.2500000000000003
 40
0.2500000000000003
 40
0.5000000000000007
 40
0.5000000000000007
 40
1.0
 40
1.0
 40
1.0
 40
1.0
 10
183.1092422847281
 20
116.817577306485
 30
0.0
 10
182.9943462334675
 20
116.5978368714284
 30
0.0
 10
182.8675802169948
 20
116.4008685198067
 30
0.0
 10
182.6073652833763
 20
116.0471509469678
 30
0.0
 10
182.4738578254141
 20
115.8903256530956
 30
0.0
 10
182.0654595568259
 20
115.4637830821879
 30
0.0
 10
181.7818064218883
 20
115.2370909032326
 30
0.0
 10
181.4974056426716
 20
115.0668397588372
 30
0.0
  0
SPLINE
  5
18E
330
1F
100
AcDbEntity
  8
0
  6
HIDDEN
 62
     7
370
     0
100
AcDbSpline
210
0.0
220
0.0
230
1.0
 70
     8
 71
     3
 72
    12
 73
     8
 74
     0
 42
0.000000001
 43
0.00000001
 40
0.0
 40
0.0
 40
0.0
 40
0.0
 40
0.5000000000000013
 40
0.5000000000000013
 40
0.7500000000000007
 40
0.7500000000000007
 40
1.0
 40
1.0
 40
1.0
 40
1.0
 10
181.4974056426714
 20
118.8255632570582
 30
0.0
 10
181.7816121772367
 20
118.993027419352
 30
0.0
 10
182.0603079113405
 20
119.1046645188636
 30
0.0
 10
182.4696539545298
 20
119.171977784503
 30
0.0
 10
182.6057932918493
 20
119.1771288245169
 30
0.0
 10
182.8671133408454
 20
119.1393628868975
 30
0.0
 10
182.9925345232771
 20
119.0978131285533
 30
0.0
 10
183.1092422847285
 20
119.0170570368704
 30
0.0
  0
SPLINE
  5
18F
330
1F
100
AcDbEntity
  8
0
  6
HIDDEN
 62
     7
370
     0
100
AcDbSpline
210
0.0
220
0.0
230
1.0
 70
     8
 71
     3
 72
    22
 73
    18
 74
     0
 42
0.000000001
 43
0.00000001
 40
0.0
 40
0.0
 40
0.0
 40
0.0
 40
0.125
 40
0.125
 40
0.25
 40
0.25
 40
0.375
 40
0.375
 40
0.5
 40
0.5
 40
0.625
 40
0.625
 40
0.75
 40
0.75
 40
0.875
 40
0.875
 40
1.0
 40
1.0
 40
1.0
 40
1.0
 10
180.6974056426714
 20
114.8949249519922
 30
0.0
 10
180.5173889481021
 20
114.9693987389688
 30
0.0
 10
180.3529571262317
 20
115.0668480009529
 30
0.0
 10
180.0545608924731
 20
115.3062174345172
 30
0.0
 10
179.9242571651083
 20
115.4461140465876
 30
0.0
 10
179.7110383814893
 20
115.7543656366479
 30
0.0
 10
179.6274105243778
 20
115.9245288547671
 30
0.0
 10
179.5162796474596
 20
116.2750235895576
 30
0.0
 10
179.4874436526059
 20
116.4601485507089
 30
0.0
 10
179.4873677099463
 20
116.8233554253262
 30
0.0
 10
179.5160263353735
 20
117.0067254390337
 30
0.0
 10
179.6271774284862
 20
117.352616551527
 30
0.0
 10
179.7102445491302
 20
117.5181360787945
 30
0.0
 10
179.9239305072488
 20
117.8186758161983
 30
0.0
 10
180.0529374971732
 20
117.9525477374823
 30
0.0
 10
180.3525467766627
 20
118.1837945068864
 30
0.0
 10
180.5173894749219
 20
118.2770446235452
 30
0.0
 10
180.6974056426714
 20
118.3480364287695
 30
0.0
  0
LWPOLYLINE
  5
190
330
1F
100
AcDbEntity
  8
0
  6
HIDDEN
 62
     7
370
     0
100
AcDbPolyline
 90
       25
 70
   128
 43
0.0
 10
171.9376172459
 20
114.8360946374
 10
172.066021716
 20
114.4285758184
 10
172.2643394077
 20
114.1256757239
 10
172.5190549677
 20
113.948036653
 10
172.8128099402
 20
113.9077648679
 10
173.1255857794
 20
114.0076045105
 10
173.4360668396
 20
114.2407513382
 10
173.7230948692
 20
114.5913174534
 10
173.9671088343
 20
115.0354116382
 10
174.1514799705
 20
115.5427700998
 10
174.2636438047
 20
116.0788179534
 10
174.2959560415
 20
116.6070222082
 10
174.2462150341
 20
117.0913891094
 10
174.1178103311
 20
117.4989079284
 10
173.9194931051
 20
117.8018075572
 10
173.6647773122
 20
117.9794470938
 10
173.3710223397
 20
118.0197184133
 10
173.0582465006
 20
117.9198787706
 10
172.7477654403
 20
117.6867324086
 10
172.4607374107
 20
117.3361658277
 10
172.2167234456
 20
116.8920721086
 10
172.0323523095
 20
116.3847127156
 10
171.920188708
 20
115.8486657934
 10
171.8878762385
 20
115.3204615386
 10
171.9376172459
 20
114.8360946374
  0
LINE
  5
191
330
1F
100
AcDbEntity
  8
0
  6
HIDDEN
 62
     7
370
     0
100
AcDbLine
 10
183.4874053074
 20
115.1030303138
 30
0.0
 11
183.4874053074
 21
115.4279501336
 31
0.0
  0
LINE
  5
192
330
1F
100
AcDbEntity
  8
0
  6
HIDDEN
 62
     7
370
     0
100
AcDbLine
 10
179.4874055831
 20
115.4279501336
 30
0.0
 11
179.4874055831
 21
115.1030303138
 31
0.0
  0
LINE
  5
193
330
1F
100
AcDbEntity
  8
0
  6
HIDDEN
 62
     7
370
     0
100
AcDbLine
 10
182.9874052254
 20
115.3650271865
 30
0.0
 11
182.9874052254
 21
116.3685049089
 31
0.0
  0
LINE
  5
194
330
1F
100
AcDbEntity
  8
0
  6
HIDDEN
 62
     7
370
     0
100
AcDbLine
 10
179.987405665
 20
116.3685049089
 30
0.0
 11
179.987405665
 21
115.3650271865
 31
0.0
  0
LINE
  5
195
330
1F
100
AcDbEntity
  8
0
  6
HIDDEN
 62
     7
370
     0
100
AcDbLine
 10
183.4874053074
 20
116.1974954577
 30
0.0
 11
183.4874053074
 21
116.3343030187
 31
0.0
  0
LINE
  5
196
330
1F
100
AcDbEntity
  8
0
  6
HIDDEN
 62
     7
370
     0
100
AcDbLine
 10
179.4874055831
 20
116.3343030187
 30
0.0
 11
179.4874055831
 21
116.1974954577
 31
0.0
  0
LINE
  5
197
330
1F
100
AcDbEntity
  8
0
  6
HIDDEN
 62
     7
370
     0
100
AcDbLine
 10
179.4874055831
 20
97.9336190196
 30
0.0
 11
179.4874055831
 21
97.7968114587
 31
0.0
  0
LINE
  5
198
330
1F
100
AcDbEntity
  8
0
  6
HIDDEN
 62
     7
370
     0
100
AcDbLine
 10
183.4874053074
 20
97.7968114587
 30
0.0
 11
183.4874053074
 21
97.9336190196
 31
0.0
  0
LINE
  5
199
330
1F
100
AcDbEntity
  8
0
  6
HIDDEN
 62
     7
370
     0
100
AcDbLine
 10
179.987405665
 20
98.7660872908
 30
0.0
 11
179.987405665
 21
97.7626095684
 31
0.0
  0
LINE
  5
19A
330
1F
100
AcDbEntity
  8
0
  6
HIDDEN
 62
     7
370
     0
100
AcDbLine
 10
182.9874052254
 20
97.7626095684
 30
0.0
 11
182.9874052254
 21
98.7660872908
 31
0.0
  0
LINE
  5
19B
330
1F
100
AcDbEntity
  8
0
  6
HIDDEN
 62
     7
370
     0
100
AcDbLine
 10
179.4874055831
 20
99.0280841636
 30
0.0
 11
179.4874055831
 21
98.7031643437
 31
0.0
  0
LINE
  5
19C
330
1F
100
AcDbEntity
  8
0
  6
HIDDEN
 62
     7
370
     0
100
AcDbLine
 10
183.4874053074
 20
98.7031643437
 30
0.0
 11
183.4874053074
 21
99.0280841636
 31
0.0
  0
CIRCLE
  5
19D
330
1F
100
AcDbEntity
  8
0
  6
HIDDEN
 62
     7
370
     0
100
AcDbCircle
 10
181.4874056427
 20
115.7870708935
 30
0.0
 40
1.499999999999994
  0
ARC
  5
19E
330
1F
100
AcDbEntity
  8
0
  6
HIDDEN
 62
     7
370
     0
100
AcDbCircle
 10
181.4874056427
 20
98.3440435839
 30
0.0
 40
1.50000000000001
100
AcDbArc
 50
60.9916552514
 51
191.5274417157
  0
ARC
  5
19F
330
1F
100
AcDbEntity
  8
0
  6
HIDDEN
 62
     7
370
     0
100
AcDbCircle
 10
181.4874056427
 20
98.3440435839
 30
0.0
 40
1.499999999999994
100
AcDbArc
 50
336.072864307
 51
60.9916552514
  0
LINE
  5
1A0
330
1F
100
AcDbEntity
  8
0
  6
HIDDEN
 62
     7
370
     0
100
AcDbLine
 10
173.742160905
 20
96.2665432291
 30
0.0
 11
177.0391112713
 21
97.0561138513
 31
0.0
  0
LINE
  5
1A1
330
1F
100
AcDbEntity
  8
0
  6
HIDDEN
 62
     7
370
     0
100
AcDbLine
 10
176.1075134909
 20
100.946116929
 30
0.0
 11
172.8105631245
 21
100.1565463068
 31
0.0
  0
LINE
  5
1A2
330
1F
100
AcDbEntity
  8
0
  6
HIDDEN
 62
     7
370
     0
100
AcDbLine
 10
177.6020752786
 20
97.6670893999
 30
0.0
 11
177.830652572
 21
98.3144796612
 31
0.0
  0
LINE
  5
1A3
330
1F
100
AcDbEntity
  8
0
  6
HIDDEN
 62
     7
370
     0
100
AcDbLine
 10
177.3832126109
 20
100.1828240389
 30
0.0
 11
176.8861704094
 21
100.6564392867
 31
0.0
  0
LINE
  5
1A4
330
1F
100
AcDbEntity
  8
0
  6
HIDDEN
 62
     7
370
     0
100
AcDbLine
 10
176.8861704094
 20
113.4746751907
 30
0.0
 11
177.3832126109
 21
113.9482904384
 31
0.0
  0
LINE
  5
1A5
330
1F
100
AcDbEntity
  8
0
  6
HIDDEN
 62
     7
370
     0
100
AcDbLine
 10
177.830652572
 20
115.8166348161
 30
0.0
 11
177.6020752786
 21
116.4640250774
 31
0.0
  0
LINE
  5
1A6
330
1F
100
AcDbEntity
  8
0
  6
HIDDEN
 62
     7
370
     0
100
AcDbLine
 10
172.8105631245
 20
113.9745681705
 30
0.0
 11
176.1075134909
 21
113.1849975484
 31
0.0
  0
LINE
  5
1A7
330
1F
100
AcDbEntity
  8
0
  6
HIDDEN
 62
     7
370
     0
100
AcDbLine
 10
177.0391112713
 20
117.0750006261
 30
0.0
 11
173.742160905
 21
117.8645712482
 31
0.0
  0
LINE
  5
1A8
330
1F
100
AcDbEntity
  8
0
  6
HIDDEN
 62
     7
370
     0
100
AcDbLine
 10
183.4874053074
 20
96.2067141356
 30
0.0
 11
183.4874053074
 21
99.0280841636
 31
0.0
  0
LINE
  5
1A9
330
1F
100
AcDbEntity
  8
0
  6
HIDDEN
 62
     7
370
     0
100
AcDbLine
 10
179.4874055831
 20
99.0111294361
 30
0.0
 11
179.4874055831
 21
97.4896733808
 31
0.0
  0
LINE
  5
1AA
330
1F
100
AcDbEntity
  8
0
  6
HIDDEN
 62
     7
370
     0
100
AcDbLine
 10
171.6874055618
 20
95.6716320636
 30
0.0
 11
173.5810048466
 21
96.1251209648
 31
0.0
  0
LINE
  5
1AB
330
1F
100
AcDbEntity
  8
0
  6
HIDDEN
 62
     7
370
     0
100
AcDbLine
 10
172.6028274333
 20
100.209624243
 30
0.0
 11
171.6874055618
 21
99.9903946342
 31
0.0
  0
LINE
  5
1AC
330
1F
100
AcDbEntity
  8
0
  6
HIDDEN
 62
     7
370
     0
100
AcDbLine
 10
173.6103661878
 20
96.5948772775
 30
0.0
 11
180.8174264206
 21
98.3208601521
 31
0.0
  0
LINE
  5
1AD
330
1F
100
AcDbEntity
  8
0
  6
HIDDEN
 62
     7
370
     0
100
AcDbLine
 10
180.8174264206
 20
101.7141739996
 30
0.0
 11
172.8417982867
 21
99.8041296536
 31
0.0
  0
LINE
  5
1AE
330
1F
100
AcDbEntity
  8
0
  6
HIDDEN
 62
     7
370
     0
100
AcDbLine
 10
183.137405902
 20
99.0716532963
 30
0.0
 11
183.137405902
 21
105.6144667948
 31
0.0
  0
LINE
  5
1AF
330
1F
100
AcDbEntity
  8
0
  6
HIDDEN
 62
     7
370
     0
100
AcDbLine
 10
179.8374059198
 20
99.0938932793
 30
0.0
 11
179.8374059198
 21
99.0716532963
 31
0.0
  0
LINE
  5
1B0
330
1F
100
AcDbEntity
  8
0
  6
HIDDEN
 62
     7
370
     0
100
AcDbLine
 10
179.8374059198
 20
105.6141747087
 30
0.0
 11
179.8374059198
 21
100.471740325
 31
0.0
  0
ARC
  5
1B1
330
1F
100
AcDbEntity
  8
0
  6
HIDDEN
 62
     7
370
     0
100
AcDbCircle
 10
101.0374056427
 20
97.7655572387
 30
0.0
 40
0.7999999999999972
100
AcDbArc
 50
90.0
 51
180.0
  0
ARC
  5
1B2
330
1F
100
AcDbEntity
  8
0
  6
HIDDEN
 62
     7
370
     0
100
AcDbCircle
 10
101.0374056427
 20
116.3655572387
 30
0.0
 40
0.7999999999999972
100
AcDbArc
 50
180.0
 51
270.0
  0
ARC
  5
1B3
330
1F
100
AcDbEntity
  8
0
  6
HIDDEN
 62
     7
370
     0
100
AcDbCircle
 10
109.006465535
 20
98.7405572387
 30
0.0
 40
0.4000000000000244
100
AcDbArc
 50
270.0
 51
330.0
  0
ARC
  5
1B4
330
1F
100
AcDbEntity
  8
0
  6
HIDDEN
 62
     7
370
     0
100
AcDbCircle
 10
109.006465535
 20
115.3905572387
 30
0.0
 40
0.4000000000000199
100
AcDbArc
 50
30.0
 51
90.0
  0
LINE
  5
1B5
330
1F
100
AcDbEntity
  8
0
  6
HIDDEN
 62
     7
370
     0
100
AcDbLine
 10
108.1297791151
 20
98.3405576246
 30
0.0
 11
109.0064665822
 21
98.3405576246
 31
0.0
  0
LINE
  5
1B6
330
1F
100
AcDbEntity
  8
0
  6
HIDDEN
 62
     7
370
     0
100
AcDbLine
 10
109.0064665822
 20
115.7905568527
 30
0.0
 11
108.1297791151
 21
115.7905568527
 31
0.0
  0
ARC
  5
1B7
330
1F
100
AcDbEntity
  8
0
  6
HIDDEN
 62
     7
370
     0
100
AcDbCircle
 10
108.1297780734
 20
98.7405572387
 30
0.0
 40
0.4000000000000057
100
AcDbArc
 50
255.0
 51
270.0
  0
ARC
  5
1B8
330
1F
100
AcDbEntity
  8
0
  6
HIDDEN
 62
     7
370
     0
100
AcDbCircle
 10
108.1297780734
 20
115.3905572387
 30
0.0
 40
0.4000000000000057
100
AcDbArc
 50
90.0
 51
105.0
  0
LINE
  5
1B9
330
1F
100
AcDbEntity
  8
0
  6
HIDDEN
 62
     7
370
     0
100
AcDbLine
 10
108.0262495724
 20
115.7769278782
 30
0.0
 11
107.2374044506
 21
115.5655577006
 31
0.0
  0
LINE
  5
1BA
330
1F
100
AcDbEntity
  8
0
  6
HIDDEN
 62
     7
370
     0
100
AcDbLine
 10
107.2374044506
 20
98.5655567767
 30
0.0
 11
108.0262495724
 21
98.3541865992
 31
0.0
  0
LINE
  5
1BB
330
1F
100
AcDbEntity
  8
0
  6
HIDDEN
 62
     7
370
     0
100
AcDbLine
 10
109.3528738765
 20
98.5405572849
 30
0.0
 11
110.2333350627
 21
100.0655570226
 31
0.0
  0
LINE
  5
1BC
330
1F
100
AcDbEntity
  8
0
  6
HIDDEN
 62
     7
370
     0
100
AcDbLine
 10
110.2333350627
 20
114.0655574547
 30
0.0
 11
109.3528738765
 21
115.5905571925
 31
0.0
  0
LINE
  5
1BD
330
1F
100
AcDbEntity
  8
0
  6
HIDDEN
 62
     7
370
     0
100
AcDbLine
 10
101.0374038068
 20
98.5655567767
 30
0.0
 11
107.2374044506
 21
98.5655567767
 31
0.0
  0
LINE
  5
1BE
330
1F
100
AcDbEntity
  8
0
  6
HIDDEN
 62
     7
370
     0
100
AcDbLine
 10
107.2374044506
 20
115.5655577006
 30
0.0
 11
101.0374038068
 21
115.5655577006
 31
0.0
  0
LINE
  5
1BF
330
1F
100
AcDbEntity
  8
0
  6
HIDDEN
 62
     7
370
     0
100
AcDbLine
 10
110.2333350627
 20
100.0655570226
 30
0.0
 11
143.2374047635
 21
100.0655570226
 31
0.0
  0
LINE
  5
1C0
330
1F
100
AcDbEntity
  8
0
  6
HIDDEN
 62
     7
370
     0
100
AcDbLine
 10
143.2374047635
 20
114.0655574547
 30
0.0
 11
110.2333350627
 21
114.0655574547
 31
0.0
  0
LINE
  5
1C1
330
1F
100
AcDbEntity
  8
0
  6
HIDDEN
 62
     7
370
     0
100
AcDbLine
 10
143.2374047635
 20
100.0655570226
 30
0.0
 11
144.8897721765
 21
102.8155570077
 31
0.0
  0
LINE
  5
1C2
330
1F
100
AcDbEntity
  8
0
  6
HIDDEN
 62
     7
370
     0
100
AcDbLine
 10
144.8897721765
 20
111.3155574696
 30
0.0
 11
143.2374047635
 21
114.0655574547
 31
0.0
  0
LINE
  5
1C3
330
1F
100
AcDbEntity
  8
0
  6
HIDDEN
 62
     7
370
     0
100
AcDbLine
 10
202.5874054579
 20
114.1655572849
 30
0.0
 11
200.237406656
 21
114.1655572849
 31
0.0
  0
LINE
  5
1C4
330
1F
100
AcDbEntity
  8
0
  6
HIDDEN
 62
     7
370
     0
100
AcDbLine
 10
200.237406656
 20
99.9655571925
 30
0.0
 11
202.5874054579
 21
99.9655571925
 31
0.0
  0
LINE
  5
1C5
330
1F
100
AcDbEntity
  8
0
  6
HIDDEN
 62
     7
370
     0
100
AcDbLine
 10
200.237406656
 20
112.8542322824
 30
0.0
 11
199.7374056427
 21
112.5655572089
 31
0.0
  0
LINE
  5
1C6
330
1F
100
AcDbEntity
  8
0
  6
HIDDEN
 62
     7
370
     0
100
AcDbLine
 10
199.7374056427
 20
101.5655572685
 30
0.0
 11
200.237406656
 21
101.2768821949
 31
0.0
  0
LINE
  5
1C7
330
1F
100
AcDbEntity
  8
0
  6
HIDDEN
 62
     7
370
     0
100
AcDbLine
 10
191.187406197
 20
101.3655571425
 30
0.0
 11
191.7620042859
 21
101.3655571425
 31
0.0
  0
LINE
  5
1C8
330
1F
100
AcDbEntity
  8
0
  6
HIDDEN
 62
     7
370
     0
100
AcDbLine
 10
191.7620042859
 20
112.7655573348
 30
0.0
 11
191.187406197
 21
112.7655573348
 31
0.0
  0
ARC
  5
1C9
330
1F
100
AcDbEntity
  8
0
  6
HIDDEN
 62
     7
370
     0
100
AcDbCircle
 10
191.7620039826
 20
101.9655572387
 30
0.0
 40
0.599999999999987
100
AcDbArc
 50
270.0
 51
285.0
  0
ARC
  5
1CA
330
1F
100
AcDbEntity
  8
0
  6
HIDDEN
 62
     7
370
     0
100
AcDbCircle
 10
191.7620039826
 20
112.1655572387
 30
0.0
 40
0.6000000000000008
100
AcDbArc
 50
75.0
 51
90.0
  0
ARC
  5
1CB
330
1F
100
AcDbEntity
  8
0
  6
HIDDEN
 62
     7
370
     0
100
AcDbCircle
 10
191.1874056427
 20
101.9655572387
 30
0.0
 40
0.5999999999999943
100
AcDbArc
 50
180.0
 51
270.0
  0
ARC
  5
1CC
330
1F
100
AcDbEntity
  8
0
  6
HIDDEN
 62
     7
370
     0
100
AcDbCircle
 10
191.1874056427
 20
112.1655572387
 30
0.0
 40
0.5999999999999943
100
AcDbArc
 50
90.0
 51
180.0
  0
LINE
  5
1CD
330
1F
100
AcDbEntity
  8
0
  6
HIDDEN
 62
     7
370
     0
100
AcDbLine
 10
191.9172948746
 20
101.3860015357
 30
0.0
 11
192.5874056814
 21
101.5655572685
 31
0.0
  0
LINE
  5
1CE
330
1F
100
AcDbEntity
  8
0
  6
HIDDEN
 62
     7
370
     0
100
AcDbLine
 10
192.5874056814
 20
112.5655572089
 30
0.0
 11
191.9172948746
 21
112.7451129416
 31
0.0
  0
LINE
  5
1CF
330
1F
100
AcDbEntity
  8
0
  6
HIDDEN
 62
     7
370
     0
100
AcDbLine
 10
192.5874056814
 20
101.5655572685
 30
0.0
 11
199.7374056427
 21
101.5655572685
 31
0.0
  0
LINE
  5
1D0
330
1F
100
AcDbEntity
  8
0
  6
HIDDEN
 62
     7
370
     0
100
AcDbLine
 10
199.7374056427
 20
112.5655572089
 30
0.0
 11
192.5874056814
 21
112.5655572089
 31
0.0
  0
LINE
  5
1D1
330
1F
100
AcDbEntity
  8
0
  6
HIDDEN
 62
     7
370
     0
100
AcDbLine
 10
144.8897721765
 20
102.8155570077
 30
0.0
 11
190.5874053536
 21
102.8155570077
 31
0.0
  0
LINE
  5
1D2
330
1F
100
AcDbEntity
  8
0
  6
HIDDEN
 62
     7
370
     0
100
AcDbLine
 10
190.5874053536
 20
111.3155574696
 30
0.0
 11
144.8897721765
 21
111.3155574696
 31
0.0
  0
LINE
  5
1D3
330
1F
100
AcDbEntity
  8
0
  6
HIDDEN
 62
     7
370
     0
100
AcDbLine
 10
202.4824863819
 20
99.0405573668
 30
0.0
 11
202.5874054579
 21
98.8155572834
 31
0.0
  0
LINE
  5
1D4
330
1F
100
AcDbEntity
  8
0
  6
HIDDEN
 62
     7
370
     0
100
AcDbLine
 10
202.5874054579
 20
115.315557194
 30
0.0
 11
202.4824863819
 21
115.0905571105
 31
0.0
  0
LINE
  5
1D5
330
1F
100
AcDbEntity
  8
0
  6
HIDDEN
 62
     7
370
     0
100
AcDbLine
 10
202.4824863819
 20
115.0905571105
 30
0.0
 11
200.237406656
 21
115.0905571105
 31
0.0
  0
LINE
  5
1D6
330
1F
100
AcDbEntity
  8
0
  6
HIDDEN
 62
     7
370
     0
100
AcDbLine
 10
200.237406656
 20
99.0405573668
 30
0.0
 11
202.4824863819
 21
99.0405573668
 31
0.0
  0
LINE
  5
1D7
330
1F
100
AcDbEntity
  8
0
  6
HIDDEN
 62
     7
370
     0
100
AcDbLine
 10
183.137405902
 20
108.5169397686
 30
0.0
 11
183.137405902
 21
115.0594611811
 31
0.0
  0
LINE
  5
1D8
330
1F
100
AcDbEntity
  8
0
  6
HIDDEN
 62
     7
370
     0
100
AcDbLine
 10
179.8374059198
 20
113.6593741523
 30
0.0
 11
179.8374059198
 21
108.5166476825
 31
0.0
  0
LINE
  5
1D9
330
1F
100
AcDbEntity
  8
0
  6
HIDDEN
 62
     7
370
     0
100
AcDbLine
 10
179.8374059198
 20
115.0594611811
 30
0.0
 11
179.8374059198
 21
115.037221198
 31
0.0
  0
LINE
  5
1DA
330
1F
100
AcDbEntity
  8
0
  6
HIDDEN
 62
     7
370
     0
100
AcDbLine
 10
172.8417982867
 20
114.3269848237
 30
0.0
 11
180.8174264206
 21
112.4169404777
 31
0.0
  0
LINE
  5
1DB
330
1F
100
AcDbEntity
  8
0
  6
HIDDEN
 62
     7
370
     0
100
AcDbLine
 10
180.8174264206
 20
115.8102543252
 30
0.0
 11
173.6103661878
 21
117.5362371998
 31
0.0
  0
LINE
  5
1DC
330
1F
100
AcDbEntity
  8
0
  6
HIDDEN
 62
     7
370
     0
100
AcDbLine
 10
183.4874053074
 20
115.1030303138
 30
0.0
 11
183.4874053074
 21
117.9244003417
 31
0.0
  0
LINE
  5
1DD
330
1F
100
AcDbEntity
  8
0
  6
HIDDEN
 62
     7
370
     0
100
AcDbLine
 10
179.4874055831
 20
116.6414410966
 30
0.0
 11
179.4874055831
 21
115.1199850412
 31
0.0
  0
LINE
  5
1DE
330
1F
100
AcDbEntity
  8
0
  6
HIDDEN
 62
     7
370
     0
100
AcDbLine
 10
171.6874055618
 20
114.1407198431
 30
0.0
 11
172.6028274333
 21
113.9214902343
 31
0.0
  0
LINE
  5
1DF
330
1F
100
AcDbEntity
  8
0
  6
HIDDEN
 62
     7
370
     0
100
AcDbLine
 10
173.5810048466
 20
118.0059935125
 30
0.0
 11
171.6874055618
 21
118.4594824137
 31
0.0
  0
DIMENSION
  5
1E0
330
1F
100
AcDbEntity
  8
VERMASSUNG
100
AcDbDimension
  2
_D
 10
92.8766939384
 20
138.8155572387
 30
0.0
 11
92.8766939384
 21
107.0655572387
 31
0.0
 70
   160
  1
ISO 40 %%c<>
 71
     2
 42
-1.0
  3
SLDDIMSTYLE0
100
AcDbAlignedDimension
 13
186.9374056427
 23
75.3155572387
 33
0.0
 14
186.9374056427
 24
138.8155572387
 34
0.0
 50
90.0
100
AcDbRotatedDimension
  0
DIMENSION
  5
1ED
330
1F
100
AcDbEntity
  8
VERMASSUNG
100
AcDbDimension
  2
_D_1
 10
202.5874056427
 20
155.1960857847
 30
0.0
 11
151.4124056427
 21
155.1960857847
 31
0.0
 70
   160
  1
(<>)
 71
     2
 42
-1.0
  3
SLDDIMSTYLE0
100
AcDbAlignedDimension
 13
100.2374056427
 23
118.4726878357
 33
0.0
 14
202.5874056427
 24
116.8655572387
 34
0.0
100
AcDbRotatedDimension
  0
DIMENSION
  5
1F9
330
1F
100
AcDbEntity
  8
VERMASSUNG
100
AcDbDimension
  2
_D_2
 10
202.5874056427
 20
149.1960857847
 30
0.0
 11
185.5374056427
 21
149.1960857847
 31
0.0
 70
   160
  1
<>
 71
     2
 42
-1.0
  3
SLDDIMSTYLE0
100
AcDbAlignedDimension
 13
168.4874056427
 23
129.2905572387
 33
0.0
 14
202.5874056427
 24
116.8655572387
 34
0.0
100
AcDbRotatedDimension
  0
DIMENSION
  5
203
330
1F
100
AcDbEntity
  8
VERMASSUNG
100
AcDbDimension
  2
_D_3
 10
202.5874056427
 20
143.1960857847
 30
0.0
 11
195.0624056427
 21
143.1960857847
 31
0.0
 70
   160
  1
<>
 71
     2
 42
-1.0
  3
SLDDIMSTYLE0
100
AcDbAlignedDimension
 13
187.5374056427
 23
137.0761083721
 33
0.0
 14
202.5874056427
 24
116.8655572387
 34
0.0
100
AcDbRotatedDimension
  0
DIMENSION
  5
20D
330
1F
100
AcDbEntity
  8
VERMASSUNG
100
AcDbDimension
  2
_D_4
 10
211.174812381
 20
97.0655572387
 30
0.0
 11
211.174812381
 21
107.0655572387
 31
0.0
 70
   160
  1
MBM %%c<>
 71
     2
 42
-1.0
  3
SLDDIMSTYLE0
100
AcDbAlignedDimension
 13
202.3874056427
 23
117.0655572387
 33
0.0
 14
202.3874056427
 24
97.0655572387
 34
0.0
 50
90.0
100
AcDbRotatedDimension
  0
LINE
  5
219
330
1F
100
AcDbEntity
  8
VERMASSUNG
  6
CENTERX2
 62
     7
370
     0
100
AcDbLine
 10
98.2374056427
 20
107.0655572387
 30
0.0
 11
204.5874056427
 21
107.0655572387
 31
0.0
  0
LINE
  5
21A
330
1F
100
AcDbEntity
  8
VERMASSUNG
  6
CENTERX2
370
     0
100
AcDbLine
 10
171.2810806455
 20
116.397409884
 30
0.0
 11
182.7624284481
 21
113.6477983574
 31
0.0
  0
LINE
  5
21B
330
1F
100
AcDbEntity
  8
VERMASSUNG
  6
CENTERX2
370
     0
100
AcDbLine
 10
171.2810806455
 20
97.7337045934
 30
0.0
 11
182.7624284481
 21
100.48331612
 31
0.0
  0
LINE
  5
21C
330
1F
100
AcDbEntity
  8
0
  6
Continuous
 62
     7
370
    15
100
AcDbLine
 10
278.8434452833
 20
31.0284510549
 30
0.0
 11
278.7373621595
 21
31.0897112536
 31
0.0
  0
LINE
  5
21D
330
1F
100
AcDbEntity
  8
0
  6
Continuous
 62
     7
370
    15
100
AcDbLine
 10
277.1814744121
 20
31.0897112789
 30
0.0
 11
277.0753913392
 21
31.0284509195
 31
0.0
  0
LINE
  5
21E
330
1F
100
AcDbEntity
  8
0
  6
Continuous
 62
     7
370
    15
100
AcDbLine
 10
279.2094184697
 20
30.2835230759
 30
0.0
 11
279.2094184697
 21
30.5182787308
 31
0.0
  0
LINE
  5
21F
330
1F
100
AcDbEntity
  8
0
  6
Continuous
 62
     7
370
    15
100
AcDbLine
 10
276.7094180581
 20
30.518279016
 30
0.0
 11
276.7094180581
 21
30.283523361
 31
0.0
  0
SPLINE
  5
220
330
1F
100
AcDbEntity
  8
0
  6
Continuous
 62
     7
370
    15
100
AcDbSpline
210
0.0
220
0.0
230
1.0
 70
     8
 71
     3
 72
    33
 73
    29
 74
     0
 42
0.000000001
 43
0.00000001
 40
0.0
 40
0.0
 40
0.0
 40
0.0
 40
0.0086470784830558
 40
0.0489829865977087
 40
0.0894210445999743
 40
0.1300147369371301
 40
0.1707519977758399
 40
0.2116034575497069
 40
0.252534373598908
 40
0.293513121796816
 40
0.3345150284114903
 40
0.3755214110969846
 40
0.416520675349056
 40
0.457508187869031
 40
0.4984822277869309
 40
0.5394429145312912
 40
0.5803915026399068
 40
0.6213299414466731
 40
0.6622605998060931
 40
0.7031859597857749
 40
0.7441086638919916
 40
0.7850314537395511
 40
0.8259564197129992
 40
0.8668860513474044
 40
0.90782304981745
 40
0.9487702251362264
 40
0.989730185168736
 40
1.0
 40
1.0
 40
1.0
 40
1.0
 10
275.70028091765
 20
45.91956167887562
 30
0.0
 10
275.6489458972377
 20
45.93270488399186
 30
0.0
 10
275.3581491128929
 20
46.00715701731314
 30
0.0
 10
274.8019716269851
 20
46.08266215404888
 30
0.0
 10
274.0218560648887
 20
46.1103879947735
 30
0.0
 10
273.2116164096489
 20
46.04716934110436
 30
0.0
 10
272.3776349912351
 20
45.89746032029421
 30
0.0
 10
271.5245178558956
 20
45.66080267373704
 30
0.0
 10
270.6577610717714
 20
45.33889983424107
 30
0.0
 10
269.7827814112786
 20
44.9337121518069
 30
0.0
 10
268.9050367409533
 20
44.4478937343521
 30
0.0
 10
268.0299043335946
 20
43.88457893008231
 30
0.0
 10
267.1626551713626
 20
43.24737109936713
 30
0.0
 10
266.308432101115
 20
42.54025428436474
 30
0.0
 10
265.4722535317275
 20
41.76758014369605
 30
0.0
 10
264.6590178540472
 20
40.93405484794819
 30
0.0
 10
263.8734883142384
 20
40.04471423598172
 30
0.0
 10
263.1202699694572
 20
39.10490323052983
 30
0.0
 10
262.403788828932
 20
38.120244886161
 30
0.0
 10
261.7282653550714
 20
37.09661700036017
 30
0.0
 10
261.0976872189112
 20
36.04011438451507
 30
0.0
 10
260.5158080501326
 20
34.95702274703559
 30
0.0
 10
259.9860587164218
 20
33.85376862759734
 30
0.0
 10
259.5117445407434
 20
32.73693159611013
 30
0.0
 10
259.0952251594677
 20
31.61299246535659
 30
0.0
 10
258.7408966066545
 20
30.48906507527143
 30
0.0
 10
258.5181747416018
 20
29.64962729122383
 30
0.0
 10
258.4166418342162
 20
29.18790755538356
 30
0.0
 10
258.3962879645983
 20
29.09534856593594
 30
0.0
  0
LINE
  5
221
330
1F
100
AcDbEntity
  8
0
  6
Continuous
 62
     7
370
    15
100
AcDbLine
 10
279.9045365253
 20
21.3531224263
 30
0.0
 11
279.9752355908
 21
21.3939493981
 31
0.0
  0
LINE
  5
222
330
1F
100
AcDbEntity
  8
0
  6
Continuous
 62
     7
370
    15
100
AcDbLine
 10
283.4394957285
 20
27.3948742327
 30
0.0
 11
283.4394957285
 21
27.4765149052
 31
0.0
  0
LINE
  5
223
330
1F
100
AcDbEntity
  8
0
  6
Continuous
 62
     7
370
    15
100
AcDbLine
 10
273.5681111172
 20
23.3197573402
 30
0.0
 11
277.4041651449
 21
21.1052504871
 31
0.0
  0
LINE
  5
224
330
1F
100
AcDbEntity
  8
0
  6
Continuous
 62
     7
370
    15
100
AcDbLine
 10
282.4037586583
 20
29.7657388554
 30
0.0
 11
278.5677046306
 21
31.9802457085
 31
0.0
  0
LINE
  5
225
330
1F
100
AcDbEntity
  8
0
  6
Continuous
 62
     7
370
    15
100
AcDbLine
 10
268.1607531006
 20
43.9556351514
 30
0.0
 11
246.8537694499
 21
51.6338275235
 31
0.0
  0
LINE
  5
226
330
1F
100
AcDbEntity
  8
0
  6
Continuous
 62
     7
370
    15
100
AcDbLine
 10
240.6889874553
 20
40.9549548783
 30
0.0
 11
260.9852255529
 21
23.8169797907
 31
0.0
  0
SPLINE
  5
227
330
1F
100
AcDbEntity
  8
0
  6
Continuous
 62
     7
370
    15
100
AcDbSpline
210
0.0
220
0.0
230
1.0
 70
     8
 71
     3
 72
    32
 73
    28
 74
     0
 42
0.000000001
 43
0.00000001
 40
0.0
 40
0.0
 40
0.0
 40
0.0
 40
0.0045638224103819
 40
0.0471508267196869
 40
0.0899011205814935
 40
0.1327974582402184
 40
0.1758069009763633
 40
0.2188929900609798
 40
0.2620236966665929
 40
0.3051746327811966
 40
0.3483269603753482
 40
0.3914705400587725
 40
0.4346011958085612
 40
0.4777175657556943
 40
0.5208200657334537
 40
0.5639102022953634
 40
0.6069901257066093
 40
0.6500623390144965
 40
0.6931295403240869
 40
0.7361945039965077
 40
0.7792600864871254
 40
0.8223283631625113
 40
0.865402095397439
 40
0.9084841844066479
 40
0.9515775265868166
 40
0.9946848448255917
 40
1.0
 40
1.0
 40
1.0
 40
1.0
 10
268.9744799998822
 20
14.09610278131285
 30
0.0
 10
269.0014488757441
 20
14.09255869702205
 30
0.0
 10
269.2800760172597
 20
14.05594322664454
 30
0.0
 10
269.8405791670699
 20
14.06897477425429
 30
0.0
 10
270.6530465072134
 20
14.1415057722623
 30
0.0
 10
271.4919476507606
 20
14.31039574377
 30
0.0
 10
272.34796215099
 20
14.56333602843446
 30
0.0
 10
273.2168149739697
 20
14.90188995256888
 30
0.0
 10
274.0927502116339
 20
15.32306422871807
 30
0.0
 10
274.970408278766
 20
15.82434303675322
 30
0.0
 10
275.8444069069819
 20
16.40243100844329
 30
0.0
 10
276.7095040304924
 20
17.05366655717792
 30
0.0
 10
277.560581774355
 20
17.77398605218668
 30
0.0
 10
278.3926463351148
 20
18.5589660901882
 30
0.0
 10
279.2008232520988
 20
19.40383627904757
 30
0.0
 10
279.9803779914731
 20
20.30349835526251
 30
0.0
 10
280.7267389768887
 20
21.25255022578957
 30
0.0
 10
281.4355195423545
 20
22.24531583896788
 30
0.0
 10
282.1025409127322
 20
23.27587293019422
 30
0.0
 10
282.723864544841
 20
24.33808795841978
 30
0.0
 10
283.2957834648506
 20
25.42563966772066
 30
0.0
 10
283.8149431012424
 20
26.5320831812988
 30
0.0
 10
284.2780189421034
 20
27.65080150828619
 30
0.0
 10
284.6830106972501
 20
28.77538370890309
 30
0.0
 10
285.0244927176503
 20
29.89842259504642
 30
0.0
 10
285.2275116603634
 20
30.68938999589153
 30
0.0
 10
285.314391000819
 20
31.10306593191011
 30
0.0
 10
285.3239274235464
 20
31.14847360394487
 30
0.0
  0
LINE
  5
228
330
1F
100
AcDbEntity
  8
0
  6
Continuous
 62
     7
370
    15
100
AcDbLine
 10
265.1512471752
 20
15.6216813785
 30
0.0
 11
266.5047069458
 21
14.8403456842
 31
0.0
  0
LINE
  5
229
330
1F
100
AcDbEntity
  8
0
  6
Continuous
 62
     7
370
    15
100
AcDbLine
 10
261.3251500112
 20
17.8304402566
 30
0.0
 11
262.6609324716
 21
17.0593094562
 31
0.0
  0
SPLINE
  5
22A
330
1F
100
AcDbEntity
  8
0
  6
Continuous
 62
     7
370
    15
100
AcDbSpline
210
0.0
220
0.0
230
1.0
 70
     8
 71
     3
 72
    11
 73
     7
 74
     0
 42
0.000000001
 43
0.00000001
 40
0.0
 40
0.0
 40
0.0
 40
0.0
 40
0.1044446363886662
 40
0.4328448432231602
 40
0.7607571053195715
 40
1.0
 40
1.0
 40
1.0
 40
1.0
 10
258.4050703964748
 20
21.82747177725965
 30
0.0
 10
258.4311852842537
 20
21.7385904695127
 30
0.0
 10
258.5394119476544
 20
21.37024397468613
 30
0.0
 10
258.7788331749156
 20
20.76628925978442
 30
0.0
 10
259.1059209073921
 20
20.09916825174966
 30
0.0
 10
259.360646081746
 20
19.72886330064125
 30
0.0
 10
259.4680967278915
 20
19.57265767091349
 30
0.0
  0
SPLINE
  5
22B
330
1F
100
AcDbEntity
  8
0
  6
Continuous
 62
     7
370
    15
100
AcDbSpline
210
0.0
220
0.0
230
1.0
 70
     8
 71
     3
 72
    13
 73
     9
 74
     0
 42
0.000000001
 43
0.00000001
 40
0.0
 40
0.0
 40
0.0
 40
0.0
 40
0.090018337471311
 40
0.3206323816743947
 40
0.5509003128800997
 40
0.7804678820288041
 40
0.9960675924861897
 40
1.0
 40
1.0
 40
1.0
 40
1.0
 10
285.3122823810117
 20
38.2952348867275
 30
0.0
 10
285.2801558074771
 20
38.40424934337479
 30
0.0
 10
285.165725569408
 20
38.7925431716506
 30
0.0
 10
284.9202454165217
 20
39.41687563259816
 30
0.0
 10
284.5536284673919
 20
40.14091210095995
 30
0.0
 10
284.1300811161568
 20
40.77901700863322
 30
0.0
 10
283.8137456617162
 20
41.16226981286605
 30
0.0
 10
283.647021518297
 20
41.33346802937299
 30
0.0
 10
283.6440350428766
 20
41.33653464741123
 30
0.0
  0
SPLINE
  5
22C
330
1F
100
AcDbEntity
  8
0
  6
Continuous
 62
     7
370
    15
100
AcDbSpline
210
0.0
220
0.0
230
1.0
 70
     8
 71
     3
 72
    25
 73
    21
 74
     0
 42
0.000000001
 43
0.00000001
 40
0.0
 40
0.0
 40
0.0
 40
0.0
 40
0.042646078368127
 40
0.0967728008674864
 40
0.1519347804933086
 40
0.2082208259553532
 40
0.2653686947395198
 40
0.3229888017295008
 40
0.3807514131589635
 40
0.438454153578244
 40
0.4960517020069772
 40
0.553549454563768
 40
0.6109764555504428
 40
0.6683716632745355
 40
0.7257782077490754
 40
0.7832282312065376
 40
0.8407657405748863
 40
0.89843605545126
 40
0.9562791518507568
 40
1.0
 40
1.0
 40
1.0
 40
1.0
 10
246.688882582123
 20
51.67905402073461
 30
0.0
 10
246.5647076915298
 20
51.71163515271558
 30
0.0
 10
246.2829290985163
 20
51.78556850175685
 30
0.0
 10
245.8087205067437
 20
51.79669247744243
 30
0.0
 10
245.2799254652644
 20
51.73167833147765
 30
0.0
 10
244.7313990777191
 20
51.57655846121045
 30
0.0
 10
244.1722198856627
 20
51.33585030650573
 30
0.0
 10
243.6115189705756
 20
51.01208275007581
 30
0.0
 10
243.0592237389545
 20
50.61142913054741
 30
0.0
 10
242.5243829236375
 20
50.14119760279113
 30
0.0
 10
242.0150451822165
 20
49.60954033142369
 30
0.0
 10
241.5384563379389
 20
49.02494730881618
 30
0.0
 10
241.1013389547059
 20
48.39639640805268
 30
0.0
 10
240.7099366804253
 20
47.73329450971698
 30
0.0
 10
240.3699582591049
 20
47.04542242634733
 30
0.0
 10
240.0866392381564
 20
46.34287126176419
 30
0.0
 10
239.8640639985567
 20
45.635555095076
 30
0.0
 10
239.7075869387571
 20
44.93420109685756
 30
0.0
 10
239.6223980332259
 20
44.30265826617119
 30
0.0
 10
239.6130375234636
 20
43.91784751034258
 30
0.0
 10
239.6090080479668
 20
43.75219568678914
 30
0.0
  0
SPLINE
  5
22D
330
1F
100
AcDbEntity
  8
0
  6
Continuous
 62
     7
370
    15
100
AcDbSpline
210
0.0
220
0.0
230
1.0
 70
     8
 71
     3
 72
    13
 73
     9
 74
     0
 42
0.000000001
 43
0.00000001
 40
0.0
 40
0.0
 40
0.0
 40
0.0
 40
0.1032192234966699
 40
0.2983171608060651
 40
0.4934543105055945
 40
0.6871154381736974
 40
0.8776580867031898
 40
1.0
 40
1.0
 40
1.0
 40
1.0
 10
239.6090080479668
 20
43.75219568678914
 30
0.0
 10
239.6110490720326
 20
43.6378803973113
 30
0.0
 10
239.6169479006018
 20
43.30749414329288
 30
0.0
 10
239.6831332010094
 20
42.78984797933342
 30
0.0
 10
239.8316086880013
 20
42.22184690866521
 30
0.0
 10
240.0573011981804
 20
41.71689774282262
 30
0.0
 10
240.3106116970445
 20
41.32079436746555
 30
0.0
 10
240.5147397447345
 20
41.12918055620228
 30
0.0
 10
240.5945564533831
 20
41.05425707596659
 30
0.0
  0
LWPOLYLINE
  5
22E
330
1F
100
AcDbEntity
  8
0
  6
Continuous
 62
     7
370
    15
100
AcDbPolyline
 90
        3
 70
   128
 43
0.0
 10
268.3712341328
 20
38.4098818399
 10
268.4513931581
 20
38.5263806746
 10
268.6617092249
 20
38.7271611015
  0
LWPOLYLINE
  5
22F
330
1F
100
AcDbEntity
  8
0
  6
Continuous
 62
     7
370
    15
100
AcDbPolyline
 90
        3
 70
   128
 43
0.0
 10
268.4292021838
 20
38.4741131229
 10
268.4592795579
 20
38.5167922416
 10
268.6360006351
 20
38.6995380779
  0
LWPOLYLINE
  5
230
330
1F
100
AcDbEntity
  8
0
  6
Continuous
 62
     7
370
    15
100
AcDbPolyline
 90
       21
 70
   128
 43
0.0
 10
278.5508336464
 20
30.1053343256
 10
278.2352790598
 20
30.0260363654
 10
277.8927215758
 20
30.0069116935
 10
277.5566923671
 20
30.0498326809
 10
277.2600853201
 20
30.1505974551
 10
277.0319333161
 20
30.299343061
 10
276.8945707276
 20
30.4815085256
 10
276.8614421111
 20
30.6792629656
 10
276.9357915391
 20
30.8732481898
 10
277.110340361
 20
31.0444760042
 10
277.3680028813
 20
31.1761852486
 10
277.683557468
 20
31.2554832088
 10
278.0261149519
 20
31.2746078808
 10
278.3621435022
 20
31.2316872735
 10
278.6587512077
 20
31.1309221191
 10
278.8869025531
 20
30.9821768934
 10
279.0242658001
 20
30.8000110487
 10
279.0573944167
 20
30.6022566087
 10
278.9830449887
 20
30.4082713844
 10
278.8084961668
 20
30.23704357
 10
278.5508336464
 20
30.1053343256
  0
LWPOLYLINE
  5
231
330
1F
100
AcDbEntity
  8
0
  6
Continuous
 62
     7
370
    15
100
AcDbPolyline
 90
       11
 70
   128
 43
0.0
 10
278.6314812295
 20
29.9098408322
 10
278.290963155
 20
29.8225148057
 10
277.9209858533
 20
29.7970105068
 10
277.5544239282
 20
29.8355937823
 10
277.2238466036
 20
29.9348371651
 10
276.9586288336
 20
30.0859214321
 10
276.7823355634
 20
30.2754225552
 10
276.7106308501
 20
30.4865027732
 10
276.7498862766
 20
30.7004065111
 10
276.8966145822
 20
30.8981270329
 10
277.0753913392
 20
31.0284509195
  0
LWPOLYLINE
  5
232
330
1F
100
AcDbEntity
  8
0
  6
Continuous
 62
     7
370
    15
100
AcDbPolyline
 90
        7
 70
   128
 43
0.0
 10
278.8434452833
 20
31.0284510549
 10
279.0606543355
 20
30.8596990686
 10
279.1860540514
 20
30.6571460084
 10
279.202461729
 20
30.4422539957
 10
279.1084191654
 20
30.2341173245
 10
278.912283661
 20
30.0512291811
 10
278.6314812295
 20
29.9098408322
  0
LWPOLYLINE
  5
233
330
1F
100
AcDbEntity
  8
0
  6
Continuous
 62
     7
370
    15
100
AcDbPolyline
 90
       17
 70
   128
 43
0.0
 10
278.3626561791
 20
30.2756968888
 10
278.0899613359
 20
30.2144032049
 10
277.7973929777
 20
30.2180181906
 10
277.5294916389
 20
30.2859916691
 10
277.3270424625
 20
30.4079755174
 10
277.2208668955
 20
30.5653985906
 10
277.2271284396
 20
30.7342951008
 10
277.3448751481
 20
30.8889513111
 10
277.5561803487
 20
31.0058226855
 10
277.8288745333
 20
31.0671167495
 10
278.12144355
 20
31.0635013836
 10
278.3893448888
 20
30.9955279051
 10
278.5917940653
 20
30.8735440568
 10
278.6979696322
 20
30.7161209836
 10
278.6917074296
 20
30.5472248536
 10
278.5739613797
 20
30.3925682631
 10
278.3626561791
 20
30.2756968888
  0
SPLINE
  5
234
330
1F
100
AcDbEntity
  8
0
  6
Continuous
 62
     7
370
    15
100
AcDbSpline
210
0.0
220
0.0
230
1.0
 70
     8
 71
     3
 72
     9
 73
     5
 74
     0
 42
0.000000001
 43
0.00000001
 40
0.0
 40
0.0
 40
0.0
 40
0.0
 40
0.412214989083911
 40
0.9999999999999999
 40
0.9999999999999999
 40
0.9999999999999999
 40
0.9999999999999999
 10
278.5997015075772
 20
30.42542119694037
 30
0.0
 10
278.575331136416
 20
30.40457157783091
 30
0.0
 10
278.5162106002718
 20
30.35399209949657
 30
0.0
 10
278.4506516000324
 20
30.31983327919209
 30
0.0
 10
278.4121170023609
 20
30.29975523662655
 30
0.0
  0
SPLINE
  5
235
330
1F
100
AcDbEntity
  8
0
  6
Continuous
 62
     7
370
    15
100
AcDbSpline
210
0.0
220
0.0
230
1.0
 70
     8
 71
     3
 72
    10
 73
     6
 74
     0
 42
0.000000001
 43
0.00000001
 40
0.0
 40
0.0
 40
0.0
 40
0.0
 40
0.4391116570435726
 40
0.7513636506171305
 40
1.0
 40
1.0
 40
1.0
 40
1.0
 10
278.567922444238
 20
30.8416383396682
 30
0.0
 10
278.5724716190822
 20
30.74710187544385
 30
0.0
 10
278.5802557089905
 20
30.58534059733458
 30
0.0
 10
278.5915726301739
 20
30.46371442697619
 30
0.0
 10
278.597204814862
 20
30.43718252925337
 30
0.0
 10
278.5997015075772
 20
30.42542119694037
 30
0.0
  0
SPLINE
  5
236
330
1F
100
AcDbEntity
  8
0
  6
Continuous
 62
     7
370
    15
100
AcDbSpline
210
0.0
220
0.0
230
1.0
 70
     8
 71
     3
 72
    10
 73
     6
 74
     0
 42
0.000000001
 43
0.00000001
 40
0.0
 40
0.0
 40
0.0
 40
0.0
 40
0.4391115648435385
 40
0.7513636528222997
 40
1.0
 40
1.0
 40
1.0
 40
1.0
 10
277.9276385317016
 20
31.03385923218179
 30
0.0
 10
278.0192990356871
 20
30.9713892292807
 30
0.0
 10
278.1761392936264
 20
30.86449682805618
 30
0.0
 10
278.4041353005836
 20
30.82263240641706
 30
0.0
 10
278.5176170823744
 20
30.83580088302525
 30
0.0
 10
278.567922444238
 20
30.8416383396682
 30
0.0
  0
SPLINE
  5
237
330
1F
100
AcDbEntity
  8
0
  6
Continuous
 62
     7
370
    15
100
AcDbSpline
210
0.0
220
0.0
230
1.0
 70
     8
 71
     3
 72
    11
 73
     7
 74
     0
 42
0.000000001
 43
0.00000001
 40
0.0
 40
0.0
 40
0.0
 40
0.0
 40
0.1849307284287187
 40
0.519846279977281
 40
0.8714439588754872
 40
1.0
 40
1.0
 40
1.0
 40
1.0
 10
277.3191350201728
 20
30.80986223350855
 30
0.0
 10
277.3545529381076
 20
30.80697649939846
 30
0.0
 10
277.4541138549945
 20
30.79886460715168
 30
0.0
 10
277.6399622831044
 20
30.83420734690698
 30
0.0
 10
277.8116029672154
 20
30.93788563721172
 30
0.0
 10
277.903132480128
 20
31.01359015452057
 30
0.0
 10
277.9276385317016
 20
31.03385923218179
 30
0.0
  0
SPLINE
  5
238
330
1F
100
AcDbEntity
  8
0
  6
Continuous
 62
     7
370
    15
100
AcDbSpline
210
0.0
220
0.0
230
1.0
 70
     8
 71
     3
 72
    10
 73
     6
 74
     0
 42
0.000000001
 43
0.00000001
 40
0.0
 40
0.0
 40
0.0
 40
0.0
 40
0.4391116570435726
 40
0.7513636506171305
 40
1.0
 40
1.0
 40
1.0
 40
1.0
 10
277.350914083512
 20
30.39364509078072
 30
0.0
 10
277.3463649086678
 20
30.4182765960126
 30
0.0
 10
277.3385808187595
 20
30.46042354746415
 30
0.0
 10
277.3272638975761
 20
30.63521563128593
 30
0.0
 10
277.321631712888
 20
30.75622150578316
 30
0.0
 10
277.3191350201728
 20
30.80986223350855
 30
0.0
  0
SPLINE
  5
239
330
1F
100
AcDbEntity
  8
0
  6
Continuous
 62
     7
370
    15
100
AcDbSpline
210
0.0
220
0.0
230
1.0
 70
     8
 71
     3
 72
     9
 73
     5
 74
     0
 42
0.000000001
 43
0.00000001
 40
0.0
 40
0.0
 40
0.0
 40
0.0
 40
0.0061606436416232
 40
0.9999999999999999
 40
0.9999999999999999
 40
0.9999999999999999
 40
0.9999999999999999
 10
277.5056793280365
 20
30.29061146577493
 30
0.0
 10
277.5053393408132
 20
30.29074816449076
 30
0.0
 10
277.4501523760815
 20
30.31293719599129
 30
0.0
 10
277.4003799145976
 20
30.35341583060749
 30
0.0
 10
277.350914083512
 20
30.39364509078072
 30
0.0
  0
LINE
  5
23A
330
1F
100
AcDbEntity
  8
0
  6
Continuous
 62
     7
370
    15
100
AcDbLine
 10
278.5679224442
 20
30.3998287917
 30
0.0
 11
278.5679224442
 21
30.8416383397
 31
0.0
  0
LINE
  5
23B
330
1F
100
AcDbEntity
  8
0
  6
Continuous
 62
     7
370
    15
100
AcDbLine
 10
277.9276385317
 20
30.208183226
 30
0.0
 11
277.9276385317
 21
31.0338592322
 31
0.0
  0
SPLINE
  5
23C
330
1F
100
AcDbEntity
  8
0
  6
Continuous
 62
     7
370
    15
100
AcDbSpline
210
0.0
220
0.0
230
1.0
 70
     8
 71
     3
 72
    12
 73
     8
 74
     0
 42
0.000000001
 43
0.00000001
 40
0.0
 40
0.0
 40
0.0
 40
0.0
 40
0.250000000000001
 40
0.250000000000001
 40
0.500000000000002
 40
0.500000000000002
 40
1.0
 40
1.0
 40
1.0
 40
1.0
 10
263.6765356751868
 20
26.04824680098033
 30
0.0
 10
263.710314841459
 20
26.02874650336682
 30
0.0
 10
263.7486395379345
 20
26.00190675478965
 30
0.0
 10
263.8228626620471
 20
25.94350625146701
 30
0.0
 10
263.8582460265418
 20
25.91251659298611
 30
0.0
 10
263.9540559849268
 20
25.82177723996536
 30
0.0
 10
264.0030597430811
 20
25.76588311124782
 30
0.0
 10
264.0368688006958
 20
25.71862324748116
 30
0.0
  0
SPLINE
  5
23D
330
1F
100
AcDbEntity
  8
0
  6
Continuous
 62
     7
370
    15
100
AcDbSpline
210
0.0
220
0.0
230
1.0
 70
     8
 71
     3
 72
    12
 73
     8
 74
     0
 42
0.000000001
 43
0.00000001
 40
0.0
 40
0.0
 40
0.0
 40
0.0
 40
0.4999999999999931
 40
0.4999999999999931
 40
0.7499999999999966
 40
0.7499999999999966
 40
1.0
 40
1.0
 40
1.0
 40
1.0
 10
281.1413987138869
 20
42.48842477180271
 30
0.0
 10
281.1413987138869
 20
42.55984380352738
 30
0.0
 10
281.1238341832259
 20
42.64237356272059
 30
0.0
 10
281.0687086487359
 20
42.76131827875345
 30
0.0
 10
281.0454161749792
 20
42.79995116597804
 30
0.0
 10
280.9914477859218
 20
42.86651367725509
 30
0.0
 10
280.9606002851685
 20
42.89443471550775
 30
0.0
 10
280.9292666795309
 20
42.91252322101771
 30
0.0
  0
LWPOLYLINE
  5
23E
330
1F
100
AcDbEntity
  8
0
  6
Continuous
 62
     7
370
    15
100
AcDbPolyline
 90
       12
 70
   128
 43
0.0
 10
269.6402421557
 20
39.7157869396
 10
270.5530796741
 20
40.5344871174
 10
271.4839649341
 20
41.2737041116
 10
272.4262705495
 20
41.9281762597
 10
273.3732880097
 20
42.4932429814
 10
274.3182751359
 20
42.9648828211
 10
275.2545041553
 20
43.3397358771
 10
276.1753098977
 20
43.6151361878
 10
277.0741365525
 20
43.7891212336
 10
277.9445852074
 20
43.8604525355
 10
278.7804592877
 20
43.8286236364
 10
279.5758065391
 20
43.6938592413
  0
LINE
  5
23F
330
1F
100
AcDbEntity
  8
0
  6
Continuous
 62
     7
370
    15
100
AcDbLine
 10
280.9292663097
 20
42.912523547
 30
0.0
 11
279.5758065391
 21
43.6938592413
 31
0.0
  0
LINE
  5
240
330
1F
100
AcDbEntity
  8
0
  6
Continuous
 62
     7
370
    15
100
AcDbLine
 10
262.3230757607
 20
26.829582685
 30
0.0
 11
263.6765355313
 21
26.0482469906
 31
0.0
  0
ARC
  5
241
330
1F
100
AcDbEntity
  8
0
  6
Continuous
 62
     7
370
    15
100
AcDbCircle
 10
287.9973879162
 20
20.7865527317
 30
0.0
 40
26.37590786444472
100
AcDbArc
 50
136.5074846213
 51
166.7552186088
  0
SPLINE
  5
242
330
1F
100
AcDbEntity
  8
0
  6
Continuous
 62
     7
370
    15
100
AcDbSpline
210
0.0
220
0.0
230
1.0
 70
     8
 71
     3
 72
    12
 73
     8
 74
     0
 42
0.000000001
 43
0.00000001
 40
0.0
 40
0.0
 40
0.0
 40
0.0
 40
0.2499999999999997
 40
0.2499999999999997
 40
0.4999999999999993
 40
0.4999999999999993
 40
1.0
 40
1.0
 40
1.0
 40
1.0
 10
268.8626085508676
 20
38.94003016411485
 30
0.0
 10
268.9619232335876
 20
38.97337824841067
 30
0.0
 10
269.055748373279
 20
39.01726044991519
 30
0.0
 10
269.2327414781846
 20
39.12539071871092
 30
0.0
 10
269.3125530461056
 20
39.1877962088921
 30
0.0
 10
269.520736907326
 20
39.39519378668187
 30
0.0
 10
269.612446740912
 20
39.55660432447564
 30
0.0
 10
269.6402420670858
 20
39.71578733201473
 30
0.0
  0
LINE
  5
243
330
1F
100
AcDbEntity
  8
0
  6
Continuous
 62
     7
370
    15
100
AcDbLine
 10
285.1586623865
 20
37.8173757777
 30
0.0
 11
285.2640262151
 21
37.9998709012
 31
0.0
  0
LINE
  5
244
330
1F
100
AcDbEntity
  8
0
  6
Continuous
 62
     7
370
    15
100
AcDbLine
 10
283.9875035408
 20
37.1412801671
 30
0.0
 11
285.1586623865
 21
37.8173757777
 31
0.0
  0
ARC
  5
245
330
1F
100
AcDbEntity
  8
0
  6
Continuous
 62
     7
370
    15
100
AcDbCircle
 10
284.6499913685
 20
36.1055957474
 30
0.0
 40
1.229443914554686
100
AcDbArc
 50
122.6054968531
 51
177.3945222572
  0
LINE
  5
246
330
1F
100
AcDbEntity
  8
0
  6
Continuous
 62
     7
370
    15
100
AcDbLine
 10
283.4218184183
 20
30.8947960009
 30
0.0
 11
283.4218184183
 21
36.1614844164
 31
0.0
  0
ARC
  5
247
330
1F
100
AcDbEntity
  8
0
  6
Continuous
 62
     7
370
    15
100
AcDbCircle
 10
283.7666778614
 20
30.8388541894
 30
0.0
 40
0.3493673163989788
100
AcDbArc
 50
170.7859529282
 51
309.2032375553
  0
LINE
  5
248
330
1F
100
AcDbEntity
  8
0
  6
Continuous
 62
     7
370
    15
100
AcDbLine
 10
285.1586623865
 20
31.2442220011
 30
0.0
 11
283.9875035408
 21
30.5681263905
 31
0.0
  0
LINE
  5
249
330
1F
100
AcDbEntity
  8
0
  6
Continuous
 62
     7
370
    15
100
AcDbLine
 10
285.2640262151
 20
31.1833773645
 30
0.0
 11
285.1586623865
 21
31.2442220011
 31
0.0
  0
LINE
  5
24A
330
1F
100
AcDbEntity
  8
0
  6
Continuous
 62
     7
370
    15
100
AcDbLine
 10
264.0847639791
 20
19.0785194047
 30
0.0
 11
264.0368686955
 21
18.9562707438
 31
0.0
  0
LINE
  5
24B
330
1F
100
AcDbEntity
  8
0
  6
Continuous
 62
     7
370
    15
100
AcDbLine
 10
264.0847639791
 20
19.0785194047
 30
0.0
 11
266.0977020737
 21
20.2405638319
 31
0.0
  0
ARC
  5
24C
330
1F
100
AcDbEntity
  8
0
  6
Continuous
 62
     7
370
    15
100
AcDbCircle
 10
265.435214246
 20
21.2762482516
 30
0.0
 40
1.229443914554865
100
AcDbArc
 50
302.6054968531
 51
357.3945222572
  0
LINE
  5
24D
330
1F
100
AcDbEntity
  8
0
  6
Continuous
 62
     7
370
    15
100
AcDbLine
 10
266.6633871963
 20
26.4870479981
 30
0.0
 11
266.6633871963
 21
21.2203595826
 31
0.0
  0
ARC
  5
24E
330
1F
100
AcDbEntity
  8
0
  6
Continuous
 62
     7
370
    15
100
AcDbCircle
 10
266.3185277532
 20
26.5429898097
 30
0.0
 40
0.3493673163990228
100
AcDbArc
 50
350.7859529282
 51
129.2032375553
  0
LINE
  5
24F
330
1F
100
AcDbEntity
  8
0
  6
Continuous
 62
     7
370
    15
100
AcDbLine
 10
266.0977020737
 20
26.8137176085
 30
0.0
 11
264.0847639791
 21
25.6516731813
 31
0.0
  0
LINE
  5
250
330
1F
100
AcDbEntity
  8
0
  6
Continuous
 62
     7
370
    15
100
AcDbLine
 10
264.0368686955
 20
25.7186231249
 30
0.0
 11
264.0847639791
 21
25.6516731813
 31
0.0
  0
LINE
  5
251
330
1F
100
AcDbEntity
  8
0
  6
Continuous
 62
     7
370
    15
100
AcDbLine
 10
281.1413986422
 20
39.7034436638
 30
0.0
 11
281.1413986422
 21
42.4884245522
 31
0.0
  0
LINE
  5
252
330
1F
100
AcDbEntity
  8
0
  6
Continuous
 62
     7
370
    15
100
AcDbLine
 10
283.5531321932
 20
41.0957078075
 30
0.0
 11
281.1413986422
 21
39.7034436638
 31
0.0
  0
SPLINE
  5
253
330
1F
100
AcDbEntity
  8
0
  6
Continuous
 62
     7
370
    15
100
AcDbSpline
210
0.0
220
0.0
230
1.0
 70
     8
 71
     3
 72
     8
 73
     4
 74
     0
 42
0.000000001
 43
0.00000001
 40
0.0
 40
0.0
 40
0.0
 40
0.0
 40
1.0
 40
1.0
 40
1.0
 40
1.0
 10
261.3329242549492
 20
28.08796188985002
 30
0.0
 10
260.9522263889488
 20
28.02499505217942
 30
0.0
 10
260.5713884167088
 20
27.96229493004438
 30
0.0
 10
260.1904477659692
 20
27.89981405137135
 30
0.0
  0
SPLINE
  5
254
330
1F
100
AcDbEntity
  8
0
  6
Continuous
 62
     7
370
    15
100
AcDbSpline
210
0.0
220
0.0
230
1.0
 70
     8
 71
     3
 72
     8
 73
     4
 74
     0
 42
0.000000001
 43
0.00000001
 40
0.0
 40
0.0
 40
0.0
 40
0.0
 40
0.0011901715795577
 40
0.0011901715795577
 40
0.0011901715795577
 40
0.0011901715795577
 10
259.8327609684113
 20
28.26721070722696
 30
0.0
 10
259.9524074759062
 20
28.14459579747147
 30
0.0
 10
260.0716506500543
 20
28.02212375697576
 30
0.0
 10
260.1904477659692
 20
27.89981405137135
 30
0.0
  0
LWPOLYLINE
  5
255
330
1F
100
AcDbEntity
  8
0
  6
Continuous
 62
     7
370
    15
100
AcDbPolyline
 90
       24
 70
   128
 43
0.0
 10
259.8327610571
 20
28.2672107626
 10
260.1319319001
 20
29.4529530849
 10
260.5024573577
 20
30.6479328987
 10
260.9418105946
 20
31.8440020812
 10
261.4469972088
 20
33.033008371
 10
262.0145716956
 20
34.2068421348
 10
262.6406651058
 20
35.3575032858
 10
263.3210087541
 20
36.477145008
 10
264.0509645115
 20
37.5581345904
 10
264.8255550985
 20
38.5931013332
 10
265.6395003053
 20
39.5749901571
 10
266.4872495895
 20
40.4971062776
 10
267.363024223
 20
41.3531623494
 10
268.260852689
 20
42.1373217148
 10
269.1746139808
 20
42.8442386088
 10
270.0980782262
 20
43.469094539
 10
271.0249494104
 20
44.0076275114
 10
271.9489083051
 20
44.4561666993
 10
272.8636553557
 20
44.8116533991
 10
273.7629543515
 20
45.0716647194
 10
274.640673667
 20
45.234428264
 10
275.4908292728
 20
45.2988332729
 10
276.3076249895
 20
45.2644416931
 10
277.0854918355
 20
45.131487319
  0
SPLINE
  5
256
330
1F
100
AcDbEntity
  8
0
  6
Continuous
 62
     7
370
    15
100
AcDbSpline
210
0.0
220
0.0
230
1.0
 70
     8
 71
     3
 72
     9
 73
     5
 74
     0
 42
0.000000001
 43
0.00000001
 40
0.0
 40
0.0
 40
0.0
 40
0.0
 40
0.0063231204499019
 40
0.9999999999999999
 40
0.9999999999999999
 40
0.9999999999999999
 40
0.9999999999999999
 10
277.5209208056064
 20
43.79285607140392
 30
0.0
 10
277.520023603906
 20
43.79567647741576
 30
0.0
 10
277.3781313676994
 20
44.24172301949702
 30
0.0
 10
277.231347535661
 20
44.68801615184206
 30
0.0
 10
277.0854918354727
 20
45.13148731895533
 30
0.0
  0
LWPOLYLINE
  5
257
330
1F
100
AcDbEntity
  8
0
  6
Continuous
 62
     7
370
    15
100
AcDbPolyline
 90
       23
 70
   128
 43
0.0
 10
261.3329241292
 20
28.0879620755
 10
261.613315917
 20
29.2119101849
 10
261.9641423328
 20
30.3451985346
 10
262.3828166135
 20
31.4794721616
 10
262.8662521612
 20
32.6063689252
 10
263.4108855915
 20
33.7175822435
 10
264.0127010999
 20
34.8049196462
 10
264.6672627307
 20
35.8603655104
 10
265.3697446697
 20
36.8761384721
 10
266.1149691107
 20
37.8447520697
 10
266.897441817
 20
38.7590641713
 10
267.7113939385
 20
39.6123345749
 10
268.5508256409
 20
40.3982737699
 10
269.4095484169
 20
41.1110878949
 10
270.281231925
 20
41.7455209867
 10
271.1594501388
 20
42.2968968308
 10
272.037728837
 20
42.76115094
 10
272.9095934449
 20
43.1348604532
 10
273.7686165172
 20
43.4152707873
 10
274.6084655722
 20
43.6003141249
 10
275.4229491391
 20
43.6886268715
 10
276.2060626092
 20
43.6795571136
 10
276.3817023563
 20
43.6636290874
  0
LINE
  5
258
330
1F
100
AcDbEntity
  8
0
  6
Continuous
 62
     7
370
    15
100
AcDbLine
 10
258.4969785967
 20
29.038341563
 30
0.0
 11
259.8327610571
 21
28.2672107626
 31
0.0
  0
LINE
  5
259
330
1F
100
AcDbEntity
  8
0
  6
Continuous
 62
     7
370
    15
100
AcDbLine
 10
277.0854918355
 20
45.131487319
 30
0.0
 11
275.7497093751
 21
45.9026181193
 31
0.0
  0
LINE
  5
25A
330
1F
100
AcDbEntity
  8
0
  6
Continuous
 62
     7
370
    15
100
AcDbLine
 10
262.5594662387
 20
27.7876772822
 30
0.0
 11
261.9689556346
 21
28.1285717978
 31
0.0
  0
SPLINE
  5
25B
330
1F
100
AcDbEntity
  8
0
  6
Continuous
 62
     7
370
    15
100
AcDbSpline
210
0.0
220
0.0
230
1.0
 70
     8
 71
     3
 72
    14
 73
    10
 74
     0
 42
0.000000001
 43
0.00000001
 40
0.0
 40
0.0
 40
0.0
 40
0.0
 40
0.1129019881793213
 40
0.2869623384818963
 40
0.4610524936945712
 40
0.6347819077295914
 40
0.8082753218061115
 40
0.9820232195931088
 40
0.9999999999999999
 40
0.9999999999999999
 40
0.9999999999999999
 40
0.9999999999999999
 10
269.3536910010029
 20
39.24033766198651
 30
0.0
 10
269.2841402475218
 20
39.24368760162503
 30
0.0
 10
269.1073634946586
 20
39.25220212407009
 30
0.0
 10
268.8125358470849
 20
39.1670585065973
 30
0.0
 10
268.5198576111902
 20
39.00361298455
 30
0.0
 10
268.2944345535338
 20
38.77296209191537
 30
0.0
 10
268.1748984543892
 20
38.51009128263355
 30
0.0
 10
268.1415077409137
 20
38.31269873231699
 30
0.0
 10
268.1744629078546
 20
38.2246765951357
 30
0.0
 10
268.1775529002591
 20
38.21642332984946
 30
0.0
  0
SPLINE
  5
25C
330
1F
100
AcDbEntity
  8
0
  6
Continuous
 62
     7
370
    15
100
AcDbSpline
210
0.0
220
0.0
230
1.0
 70
     8
 71
     3
 72
    12
 73
     8
 74
     0
 42
0.000000001
 43
0.00000001
 40
0.0
 40
0.0
 40
0.0
 40
0.0
 40
0.2500000000000015
 40
0.2500000000000015
 40
0.500000000000003
 40
0.500000000000003
 40
1.0
 40
1.0
 40
1.0
 40
1.0
 10
261.9689557041866
 20
28.12857178526566
 30
0.0
 10
261.9313369692273
 20
28.15028861870185
 30
0.0
 10
261.88534456084
 20
28.1675443526845
 30
0.0
 10
261.7857434308641
 20
28.18983814051232
 30
0.0
 10
261.73099270561
 20
28.19504392509176
 30
0.0
 10
261.5714868067907
 20
28.19204202566463
 30
0.0
 10
261.4664840015731
 20
28.16506429040543
 30
0.0
 10
261.3911711053813
 20
28.12158708087213
 30
0.0
  0
SPLINE
  5
25D
330
1F
100
AcDbEntity
  8
0
  6
Continuous
 62
     7
370
    15
100
AcDbSpline
210
0.0
220
0.0
230
1.0
 70
     8
 71
     3
 72
    10
 73
     6
 74
     0
 42
0.000000001
 43
0.00000001
 40
0.0
 40
0.0
 40
0.0
 40
0.0
 40
0.5
 40
0.5
 40
1.0
 40
1.0
 40
1.0
 40
1.0
 10
258.3953343923978
 20
29.06906356182478
 30
0.0
 10
258.4025970740465
 20
29.07306016731261
 30
0.0
 10
258.4143907380122
 20
29.07324194569778
 30
0.0
 10
258.4484497487795
 20
29.06352031618803
 30
0.0
 10
258.4706222363317
 20
29.05355665941233
 30
0.0
 10
258.4969785029953
 20
29.03834151053102
 30
0.0
  0
LINE
  5
25E
330
1F
100
AcDbEntity
  8
0
  6
Continuous
 62
     7
370
    15
100
AcDbLine
 10
261.3911710738
 20
28.1215873209
 30
0.0
 11
261.3329241292
 21
28.0879620755
 31
0.0
  0
LINE
  5
25F
330
1F
100
AcDbEntity
  8
0
  6
Continuous
 62
     7
370
    15
100
AcDbLine
 10
264.0847639791
 20
25.6516731813
 30
0.0
 11
262.357581188
 21
26.6487545831
 31
0.0
  0
SPLINE
  5
260
330
1F
100
AcDbEntity
  8
0
  6
Continuous
 62
     7
370
    15
100
AcDbSpline
210
0.0
220
0.0
230
1.0
 70
     8
 71
     3
 72
     8
 73
     4
 74
     0
 42
0.000000001
 43
0.00000001
 40
0.0
 40
0.0
 40
0.0
 40
0.0
 40
0.0011901715795577
 40
0.0011901715795577
 40
0.0011901715795577
 40
0.0011901715795577
 10
262.3575812776581
 20
26.64875450462456
 30
0.0
 10
262.3454198108395
 20
26.70950476033539
 30
0.0
 10
262.3339363638835
 20
26.76976843446544
 30
0.0
 10
262.3230755402409
 20
26.82958270568218
 30
0.0
  0
LWPOLYLINE
  5
261
330
1F
100
AcDbEntity
  8
0
  6
Continuous
 62
     7
370
    15
100
AcDbPolyline
 90
       43
 70
   128
 43
0.0
 10
276.5098491907
 20
23.3944744373
 10
276.5485485587
 20
24.0131406858
 10
276.6637816645
 20
24.6626679873
 10
276.852974587
 20
25.3285470939
 10
277.1119011166
 20
25.9959033203
 10
277.4347772571
 20
26.6498290947
 10
277.8143904642
 20
27.2757168869
 10
278.2422608251
 20
27.8595851466
 10
278.7088303894
 20
28.3883915963
 10
279.2036767848
 20
28.8503234704
 10
279.7157458888
 20
29.235061303
 10
280.2335990304
 20
29.5340115583
 10
280.7456681345
 20
29.7404961287
 10
281.2405145298
 20
29.8499017414
 10
281.7070840941
 20
29.8597850443
 10
282.134954455
 20
29.769925388
 10
282.5145676621
 20
29.5823296755
 10
282.8374438026
 20
29.301188758
 10
283.0963703322
 20
28.9327827394
 10
283.2855632547
 20
28.4853411314
 10
283.4007963605
 20
27.968859142
 10
283.4394957285
 20
27.3948742327
 10
283.4007963605
 20
26.7762079842
 10
283.2855632547
 20
26.1266806827
 10
283.0963703322
 20
25.4608015761
 10
282.8374438026
 20
24.7934453497
 10
282.5145676621
 20
24.1395195753
 10
282.134954455
 20
23.5136317831
 10
281.7070840941
 20
22.9297635235
 10
281.2405145298
 20
22.4009570738
 10
280.7456681345
 20
21.9390251996
 10
280.2335990304
 20
21.554287367
 10
279.7157458888
 20
21.2553371117
 10
279.2036767848
 20
21.0488525413
 10
278.7088303894
 20
20.9394469287
 10
278.2422608251
 20
20.9295636258
 10
277.8143904642
 20
21.019423282
 10
277.4347772571
 20
21.2070189945
 10
277.1119011166
 20
21.4881599121
 10
276.852974587
 20
21.8565659307
 10
276.6637816645
 20
22.3040075386
 10
276.5485485587
 20
22.8204895281
 10
276.5098491907
 20
23.3944744373
  0
LWPOLYLINE
  5
262
330
1F
100
AcDbEntity
  8
0
  6
Continuous
 62
     7
370
    15
100
AcDbPolyline
 90
       23
 70
   128
 43
0.0
 10
276.3684280747
 20
23.3944744373
 10
276.4061047231
 20
24.0106711786
 10
276.518332561
 20
24.6572358085
 10
276.7027190964
 20
25.3203875857
 10
276.9553344647
 20
25.985992678
 10
277.2707945709
 20
26.6398646801
 10
277.6423761692
 20
27.2680678849
 10
278.0621596036
 20
27.8572128048
 10
278.5211978882
 20
28.3947431359
 10
279.0097073567
 20
28.869202092
 10
279.5172762968
 20
29.270477563
 10
280.0330867569
 20
29.5900172339
 10
280.5461451594
 20
29.8210103848
 10
281.0455165375
 20
29.9585337595
 10
281.5205576183
 20
29.9996564633
 10
281.9611438152
 20
29.9435018008
 10
282.3578847772
 20
29.7912669561
 10
282.7023246283
 20
29.5461965724
 10
282.9871220789
 20
29.2135133421
 10
283.2062076536
 20
28.8003085808
 10
283.3549112841
 20
28.3153884117
 10
283.4300640541
 20
27.7690883932
 10
283.4394957285
 20
27.4765149052
  0
LWPOLYLINE
  5
263
330
1F
100
AcDbEntity
  8
0
  6
Continuous
 62
     7
370
    15
100
AcDbPolyline
 90
       12
 70
   128
 43
0.0
 10
279.9045365253
 20
21.3531224263
 10
279.5172762968
 20
21.1540540834
 10
279.0097073567
 20
20.96930293
 10
278.5211978882
 20
20.8797408593
 10
278.0621596036
 20
20.8872768682
 10
277.6423761692
 20
20.9917501514
 10
277.2707945709
 20
21.1909343746
 10
276.9553344647
 20
21.4805838909
 10
276.7027190964
 20
21.8545254871
 10
276.518332561
 20
22.3047891021
 10
276.4061047231
 20
22.8217782284
 10
276.3684280747
 20
23.3944744373
  0
SPLINE
  5
264
330
1F
100
AcDbEntity
  8
0
  6
Continuous
 62
     7
370
    15
100
AcDbSpline
210
0.0
220
0.0
230
1.0
 70
     8
 71
     3
 72
    36
 73
    32
 74
     0
 42
0.000000001
 43
0.00000001
 40
0.0
 40
0.0
 40
0.0
 40
0.0
 40
0.0625000000000003
 40
0.0625000000000003
 40
0.1250000000000006
 40
0.1250000000000006
 40
0.1875000000000008
 40
0.1875000000000008
 40
0.2500000000000004
 40
0.2500000000000004
 40
0.3750000000000004
 40
0.3750000000000004
 40
0.4375000000000004
 40
0.4375000000000004
 40
0.5000000000000004
 40
0.5000000000000004
 40
0.5625000000000003
 40
0.5625000000000003
 40
0.6250000000000003
 40
0.6250000000000003
 40
0.6875000000000002
 40
0.6875000000000002
 40
0.7500000000000002
 40
0.7500000000000002
 40
0.8125000000000001
 40
0.8125000000000001
 40
0.8750000000000001
 40
0.8750000000000001
 40
0.9375
 40
0.9375
 40
1.0
 40
1.0
 40
1.0
 40
1.0
 10
279.1526608917997
 20
29.95191557173502
 30
0.0
 10
279.0796304176337
 20
29.90975597639121
 30
0.0
 10
278.9961036362881
 20
29.86948944344382
 30
0.0
 10
278.818476392484
 20
29.7978363258597
 30
0.0
 10
278.7237012578162
 20
29.76597635672713
 30
0.0
 10
278.5254390560261
 20
29.711476859984
 30
0.0
 10
278.4245082046167
 20
29.68948725413899
 30
0.0
 10
278.2192629837812
 20
29.65600259249132
 30
0.0
 10
278.1150472768545
 20
29.64467292809401
 30
0.0
 10
277.8089123651319
 20
29.62847672661493
 30
0.0
 10
277.607500692417
 20
29.6411900548763
 30
0.0
 10
277.3303925933802
 20
29.69703300525942
 30
0.0
 10
277.2406289271099
 20
29.72206313945138
 30
0.0
 10
277.0722250318167
 20
29.7838768489638
 30
0.0
 10
276.9936867370058
 20
29.8204530705787
 30
0.0
 10
276.847686609884
 20
29.90492635233921
 30
0.0
 10
276.7796738632284
 20
29.95336977695282
 30
0.0
 10
276.658980138961
 20
30.05898730534629
 30
0.0
 10
276.6061156613126
 20
30.11603995184246
 30
0.0
 10
276.5154148339914
 20
30.23804826387703
 30
0.0
 10
276.4773208344638
 20
30.30372793933626
 30
0.0
 10
276.4195432347093
 20
30.4384885042164
 30
0.0
 10
276.3995981097519
 20
30.50754079355543
 30
0.0
 10
276.3784587313498
 20
30.64802933271893
 30
0.0
 10
276.3774329463243
 20
30.72030872328005
 30
0.0
 10
276.3966233230526
 20
30.86105046244627
 30
0.0
 10
276.4165257264323
 20
30.92965872050872
 30
0.0
 10
276.4793044390031
 20
31.06182645732882
 30
0.0
 10
276.5220577231166
 20
31.12436791753595
 30
0.0
 10
276.6279439400459
 20
31.23630553408482
 30
0.0
 10
276.6925294992773
 20
31.28708932611758
 30
0.0
 10
276.7661755052951
 20
31.32960426043585
 30
0.0
  0
SPLINE
  5
265
330
1F
100
AcDbEntity
  8
0
  6
Continuous
 62
     7
370
    15
100
AcDbSpline
210
0.0
220
0.0
230
1.0
 70
     8
 71
     3
 72
    36
 73
    32
 74
     0
 42
0.000000001
 43
0.00000001
 40
0.0
 40
0.0
 40
0.0
 40
0.0
 40
0.0625000000000003
 40
0.0625000000000003
 40
0.1250000000000006
 40
0.1250000000000006
 40
0.1875000000000009
 40
0.1875000000000009
 40
0.2500000000000013
 40
0.2500000000000013
 40
0.3750000000000019
 40
0.3750000000000019
 40
0.4375000000000017
 40
0.4375000000000017
 40
0.5000000000000016
 40
0.5000000000000016
 40
0.5625000000000013
 40
0.5625000000000013
 40
0.6250000000000012
 40
0.6250000000000012
 40
0.6875000000000011
 40
0.6875000000000011
 40
0.7500000000000009
 40
0.7500000000000009
 40
0.8125000000000007
 40
0.8125000000000007
 40
0.8750000000000004
 40
0.8750000000000004
 40
0.9375000000000002
 40
0.9375000000000002
 40
1.0
 40
1.0
 40
1.0
 40
1.0
 10
276.7661755052951
 20
31.32960426043585
 30
0.0
 10
276.8399128151153
 20
31.3721719033173
 30
0.0
 10
276.9216157995343
 20
31.40623829679155
 30
0.0
 10
277.1006137249682
 20
31.45805044323727
 30
0.0
 10
277.1962307714163
 20
31.47513118686053
 30
0.0
 10
277.3933253542286
 20
31.49309972484599
 30
0.0
 10
277.4964423802476
 20
31.49404374676296
 30
0.0
 10
277.7013761657222
 20
31.48239135737975
 30
0.0
 10
277.8041541175407
 20
31.46996687416137
 30
0.0
 10
278.1136816947302
 20
31.41592693897385
 30
0.0
 10
278.3105137775278
 20
31.36008834642559
 30
0.0
 10
278.5903939580846
 20
31.25701651158321
 30
0.0
 10
278.6787434000057
 20
31.22017598471337
 30
0.0
 10
278.8461258667325
 20
31.14243705507091
 30
0.0
 10
278.925618871417
 20
31.10126276354348
 30
0.0
 10
279.0727577306091
 20
31.01612971775225
 30
0.0
 10
279.1394559236449
 20
30.9727843172197
 30
0.0
 10
279.2594467445406
 20
30.88433202464908
 30
0.0
 10
279.3130636708414
 20
30.83889797196326
 30
0.0
 10
279.4043769285435
 20
30.74693799288049
 30
0.0
 10
279.4415986772233
 20
30.70101686476065
 30
0.0
 10
279.4990677606035
 20
30.60820092392353
 30
0.0
 10
279.5194141010488
 20
30.56090031352457
 30
0.0
 10
279.5405371857022
 20
30.46573084657436
 30
0.0
 10
279.541339969753
 20
30.41852812529891
 30
0.0
 10
279.5224099136054
 20
30.32349764288341
 30
0.0
 10
279.5022762309939
 20
30.27506674070911
 30
0.0
 10
279.4395384787892
 20
30.17919391686678
 30
0.0
 10
279.3975289294562
 20
30.13218289876083
 30
0.0
 10
279.2903439807687
 20
30.03924616746972
 30
0.0
 10
279.2257819066527
 20
29.9941274351049
 30
0.0
 10
279.1526608917997
 20
29.95191557173502
 30
0.0
  0
ARC
  5
266
330
1F
100
AcDbEntity
  8
0
  6
Continuous
 62
     7
370
    15
100
AcDbCircle
 10
277.9142930246
 20
22.1795629351
 30
0.0
 40
0.4510551640458331
100
AcDbArc
 50
173.8039502847
 51
288.0938743032
  0
LWPOLYLINE
  5
267
330
1F
100
AcDbEntity
  8
0
  6
Continuous
 62
     7
370
    15
100
AcDbPolyline
 90
        9
 70
   128
 43
0.0
 10
281.8949655251
 20
23.9679361069
 10
281.4717372444
 20
23.3681703151
 10
281.00031857
 20
22.833637512
 10
280.495884384
 20
22.381544242
 10
279.9746724596
 20
22.0264435042
 10
279.4534605352
 20
21.7797657633
 10
278.9490263492
 20
21.6494517191
 10
278.4776076748
 20
21.6396961061
 10
278.0543793941
 20
21.7508129262
  0
ARC
  5
268
330
1F
100
AcDbEntity
  8
0
  6
Continuous
 62
     7
370
    15
100
AcDbCircle
 10
280.7424941447
 20
25.2823233903
 30
0.0
 40
1.748085871290293
100
AcDbArc
 50
311.2446937139
 51
354.8314078119
  0
ARC
  5
269
330
1F
100
AcDbEntity
  8
0
  6
Continuous
 62
     7
370
    15
100
AcDbCircle
 10
279.1380059751
 20
26.8429735847
 30
0.0
 40
3.760865957482541
100
AcDbArc
 50
332.8163506303
 51
27.1836493697
  0
ARC
  5
26A
330
1F
100
AcDbEntity
  8
0
  6
Continuous
 62
     7
370
    15
100
AcDbCircle
 10
282.0350518946
 20
28.609785735
 30
0.0
 40
0.4510551640457902
100
AcDbArc
 50
353.8039502847
 51
108.0938743032
  0
LWPOLYLINE
  5
26B
330
1F
100
AcDbEntity
  8
0
  6
Continuous
 62
     7
370
    15
100
AcDbPolyline
 90
        9
 70
   128
 43
0.0
 10
278.0543793941
 20
26.8214125632
 10
278.4776076748
 20
27.4211783549
 10
278.9490263492
 20
27.955711158
 10
279.4534605352
 20
28.4078044281
 10
279.9746724596
 20
28.7629051658
 10
280.495884384
 20
29.0095829068
 10
281.00031857
 20
29.1398969509
 10
281.4717372444
 20
29.1496525639
 10
281.8949655251
 20
29.0385357438
  0
ARC
  5
26C
330
1F
100
AcDbEntity
  8
0
  6
Continuous
 62
     7
370
    15
100
AcDbCircle
 10
279.2068507745
 20
25.5070252798
 30
0.0
 40
1.748085871290058
100
AcDbArc
 50
131.2446937139
 51
174.8314078119
  0
ARC
  5
26D
330
1F
100
AcDbEntity
  8
0
  6
Continuous
 62
     7
370
    15
100
AcDbCircle
 10
280.8113389441
 20
23.9463750853
 30
0.0
 40
3.760865957482641
100
AcDbArc
 50
152.8163506303
 51
207.1836493697
  0
ARC
  5
26E
330
1F
100
AcDbEntity
  8
0
  6
Continuous
 62
     7
370
    15
100
AcDbCircle
 10
271.3356362337
 20
27.073541461
 30
0.0
 40
10.35672967895727
100
AcDbArc
 50
174.7069945611
 51
187.1554305083
  0
LINE
  5
26F
330
1F
100
AcDbEntity
  8
0
  6
Continuous
 62
     7
370
    15
100
AcDbLine
 10
261.0595658436
 20
28.0428199849
 30
0.0
 11
261.0595658436
 21
25.7834922447
 31
0.0
  0
LINE
  5
270
330
1F
100
AcDbEntity
  8
0
  6
Continuous
 62
     7
370
    15
100
AcDbLine
 10
261.0595658436
 20
25.7834922447
 30
0.0
 11
261.0595658436
 21
24.3176843373
 31
0.0
  0
SPLINE
  5
271
330
1F
100
AcDbEntity
  8
0
  6
Continuous
 62
     7
370
    15
100
AcDbSpline
210
0.0
220
0.0
230
1.0
 70
     8
 71
     3
 72
     8
 73
     4
 74
     0
 42
0.000000001
 43
0.00000001
 40
0.0
 40
0.0
 40
0.0
 40
0.0
 40
1.0
 40
1.0
 40
1.0
 40
1.0
 10
281.6595221642864
 20
28.98412797505377
 30
0.0
 10
281.740610101798
 20
29.01006170390425
 30
0.0
 10
281.8190778873406
 20
29.02839005642296
 30
0.0
 10
281.8949656478659
 20
29.03853579307228
 30
0.0
  0
SPLINE
  5
272
330
1F
100
AcDbEntity
  8
0
  6
Continuous
 62
     7
370
    15
100
AcDbSpline
210
0.0
220
0.0
230
1.0
 70
     8
 71
     3
 72
     8
 73
     4
 74
     0
 42
0.000000001
 43
0.00000001
 40
0.0
 40
0.0
 40
0.0
 40
0.0
 40
1.0
 40
1.0
 40
1.0
 40
1.0
 10
281.302897932277
 20
28.86621072071162
 30
0.0
 10
281.4208397701203
 20
28.90659770620367
 30
0.0
 10
281.5397771574945
 20
28.94583085426569
 30
0.0
 10
281.6595221642864
 20
28.98412797505378
 30
0.0
  0
ARC
  5
273
330
1F
100
AcDbEntity
  8
0
  6
Continuous
 62
     7
370
    15
100
AcDbCircle
 10
281.3296211114
 20
25.4665596886
 30
0.0
 40
3.399755828751172
100
AcDbArc
 50
90.4503592317
 51
149.5442642356
  0
SPLINE
  5
274
330
1F
100
AcDbEntity
  8
0
  6
Continuous
 62
     7
370
    15
100
AcDbSpline
210
0.0
220
0.0
230
1.0
 70
     8
 71
     3
 72
     8
 73
     4
 74
     0
 42
0.000000001
 43
0.00000001
 40
0.0
 40
0.0
 40
0.0
 40
0.0
 40
1.0
 40
1.0
 40
1.0
 40
1.0
 10
278.1946989364723
 20
26.98392810108814
 30
0.0
 10
278.2610462079653
 20
27.05306326272241
 30
0.0
 10
278.3290083572756
 20
27.12172479083512
 30
0.0
 10
278.3989597441658
 20
27.18980288805908
 30
0.0
  0
SPLINE
  5
275
330
1F
100
AcDbEntity
  8
0
  6
Continuous
 62
     7
370
    15
100
AcDbSpline
210
0.0
220
0.0
230
1.0
 70
     8
 71
     3
 72
     8
 73
     4
 74
     0
 42
0.000000001
 43
0.00000001
 40
0.0
 40
0.0
 40
0.0
 40
0.0
 40
1.0
 40
1.0
 40
1.0
 40
1.0
 10
278.0543794019922
 20
26.82141254612462
 30
0.0
 10
278.1029360384157
 20
26.88310703067179
 30
0.0
 10
278.1497755329292
 20
26.93711703116433
 30
0.0
 10
278.1946989364723
 20
26.98392810108814
 30
0.0
  0
LINE
  5
276
330
1F
100
AcDbEntity
  8
0
  6
Continuous
 62
     7
370
    15
100
AcDbLine
 10
258.8344959926
 20
28.682588375
 30
0.0
 11
258.3953343098
 21
29.0690634943
 31
0.0
  0
LINE
  5
277
330
1F
100
AcDbEntity
  8
0
  6
Continuous
 62
     7
370
    15
100
AcDbLine
 10
260.1904475309
 20
27.8998142137
 30
0.0
 11
258.8344959926
 21
28.682588375
 31
0.0
  0
LINE
  5
278
330
1F
100
AcDbEntity
  8
0
  6
Continuous
 62
     7
370
    15
100
AcDbLine
 10
260.0607778124
 20
27.8183858866
 30
0.0
 11
260.0619236799
 21
27.974009341
 31
0.0
  0
ARC
  5
279
330
1F
100
AcDbEntity
  8
0
  6
Continuous
 62
     7
370
    15
100
AcDbCircle
 10
266.8503209892
 20
27.5210053866
 30
0.0
 40
6.796052656624151
100
AcDbArc
 50
177.4920603826
 51
211.0972977524
  0
SPLINE
  5
27A
330
1F
100
AcDbEntity
  8
0
  6
Continuous
 62
     7
370
    15
100
AcDbSpline
210
0.0
220
0.0
230
1.0
 70
     8
 71
     3
 72
     8
 73
     4
 74
     0
 42
0.000000001
 43
0.00000001
 40
0.0
 40
0.0
 40
0.0
 40
0.0
 40
1.0
 40
1.0
 40
1.0
 40
1.0
 10
277.4658728118864
 20
22.22824569999212
 30
0.0
 10
277.4518295221775
 20
22.2919002009272
 30
0.0
 10
277.4414456708373
 20
22.35868090109624
 30
0.0
 10
277.4344545411098
 20
22.4284948811981
 30
0.0
  0
ARC
  5
27B
330
1F
100
AcDbEntity
  8
0
  6
Continuous
 62
     7
370
    15
100
AcDbCircle
 10
280.7723436272
 20
23.9710661538
 30
0.0
 40
3.677095228451471
100
AcDbArc
 50
155.1964645707
 51
204.8035354293
  0
SPLINE
  5
27C
330
1F
100
AcDbEntity
  8
0
  6
Continuous
 62
     7
370
    15
100
AcDbSpline
210
0.0
220
0.0
230
1.0
 70
     8
 71
     3
 72
     8
 73
     4
 74
     0
 42
0.000000001
 43
0.00000001
 40
0.0
 40
0.0
 40
0.0
 40
0.0
 40
1.0
 40
1.0
 40
1.0
 40
1.0
 10
277.4344545411098
 20
25.51363736207807
 30
0.0
 10
277.4414456708373
 20
25.55962158082943
 30
0.0
 10
277.4518295221775
 20
25.60988492369275
 30
0.0
 10
277.4658728118864
 20
25.66450440178002
 30
0.0
  0
LWPOLYLINE
  5
27D
330
1F
100
AcDbEntity
  8
0
  6
Continuous
 62
     7
370
    15
100
AcDbPolyline
 90
       23
 70
   128
 43
0.0
 10
280.0172532066
 20
28.5158491355
 10
280.2808556492
 20
28.4957585894
 10
280.5909912584
 20
28.3808838122
 10
280.8455129484
 20
28.1696829019
 10
281.0346395225
 20
27.8702722461
 10
281.1511031187
 20
27.4941580452
 10
281.190428104
 20
27.0557941718
 10
281.1511031187
 20
26.5720266369
 10
281.0346395225
 20
26.0614464299
 10
280.8455129484
 20
25.5436748796
 10
280.5909912584
 20
25.038609481
 10
280.2808556492
 20
24.5656597514
 10
279.9270245419
 20
24.1430010138
 10
279.5430953986
 20
23.7868755748
 10
279.1438224153
 20
23.5109691462
 10
278.744549432
 20
23.3258848007
 10
278.3606202887
 20
23.2387350863
 10
278.0067891813
 20
23.252869123
 10
277.6966535722
 20
23.3677439002
 10
277.4421318821
 20
23.5789448105
 10
277.2530053081
 20
23.8783554663
 10
277.1365417118
 20
24.2544696672
 10
277.1273731259
 20
24.3060300066
  0
LINE
  5
27E
330
1F
100
AcDbEntity
  8
0
  6
Continuous
 62
     7
370
    15
100
AcDbLine
 10
277.4114107808
 20
22.3123170894
 30
0.0
 11
278.5444086187
 21
22.966382819
 31
0.0
  0
LINE
  5
27F
330
1F
100
AcDbEntity
  8
0
  6
Continuous
 62
     7
370
    15
100
AcDbLine
 10
281.6469458096
 20
28.8619074515
 30
0.0
 11
281.6539795588
 21
28.9993147362
 31
0.0
  0
ARC
  5
280
330
1F
100
AcDbEntity
  8
0
  6
Continuous
 62
     7
370
    15
100
AcDbCircle
 10
278.3090567526
 20
27.3193362336
 30
0.0
 40
3.677095228451422
100
AcDbArc
 50
335.1964645707
 51
24.8035354293
  0
ARC
  5
281
330
1F
100
AcDbEntity
  8
0
  6
Continuous
 62
     7
370
    15
100
AcDbCircle
 10
280.0007347705
 20
25.7082962562
 30
0.0
 40
1.647634290771054
100
AcDbArc
 50
302.0978965074
 51
2.3816577075
  0
LINE
  5
282
330
1F
100
AcDbEntity
  8
0
  6
Continuous
 62
     7
370
    15
100
AcDbLine
 10
279.7432362119
 20
23.6584512575
 30
0.0
 11
280.8762340497
 21
24.3125169871
 31
0.0
  0
ARC
  5
283
330
1F
100
AcDbEntity
  8
0
  6
Continuous
 62
     7
370
    15
100
AcDbCircle
 10
277.6651159033
 20
25.8738893873
 30
0.0
 40
3.03755660424985
100
AcDbArc
 50
286.8264491711
 51
313.1681742962
  0
LINE
  5
284
330
1F
100
AcDbEntity
  8
0
  6
Continuous
 62
     7
370
    15
100
AcDbLine
 10
281.1348137734
 20
28.7691772744
 30
0.0
 11
281.302898451
 21
28.8662104934
 31
0.0
  0
ARC
  5
285
330
1F
100
AcDbEntity
  8
0
  6
Continuous
 62
     7
370
    15
100
AcDbCircle
 10
281.3296252031
 20
25.4665526008
 30
0.0
 40
3.308365340717265
100
AcDbArc
 50
93.3757859468
 51
146.6188375205
  0
LINE
  5
286
330
1F
100
AcDbEntity
  8
0
  6
Continuous
 62
     7
370
    15
100
AcDbLine
 10
278.3989601737
 20
27.1898026093
 30
0.0
 11
278.5670448514
 21
27.2868358283
 31
0.0
  0
SPLINE
  5
287
330
1F
100
AcDbEntity
  8
0
  6
Continuous
 62
     7
370
    15
100
AcDbSpline
210
0.0
220
0.0
230
1.0
 70
     8
 71
     3
 72
     9
 73
     5
 74
     0
 42
0.000000001
 43
0.00000001
 40
0.0
 40
0.0
 40
0.0
 40
0.0
 40
0.4515137290780097
 40
1.0
 40
1.0
 40
1.0
 40
1.0
 10
280.3881376533049
 20
28.69601899473404
 30
0.0
 10
280.4984161353085
 20
28.71389503664133
 30
0.0
 10
280.7426578380554
 20
28.75348639512291
 30
0.0
 10
280.9959089922261
 20
28.76361943898542
 30
0.0
 10
281.1348137733838
 20
28.76917727442666
 30
0.0
  0
LWPOLYLINE
  5
288
330
1F
100
AcDbEntity
  8
0
  6
Continuous
 62
     7
370
    15
100
AcDbPolyline
 90
        3
 70
   128
 43
0.0
 10
246.7128542608
 20
51.6791944677
 10
246.7591453299
 20
51.6654595863
 10
246.8537694499
 20
51.6338275235
  0
LWPOLYLINE
  5
289
330
1F
100
AcDbEntity
  8
0
  6
Continuous
 62
     7
370
    15
100
AcDbPolyline
 90
        3
 70
   128
 43
0.0
 10
240.6889874553
 20
40.9549548783
 10
240.6138412708
 20
41.0214807593
 10
240.6009380789
 20
41.0335474742
  0
LWPOLYLINE
  5
28A
330
1F
100
AcDbEntity
  8
0
  6
Continuous
 62
     7
370
    15
100
AcDbPolyline
 90
       21
 70
   128
 43
0.0
 10
279.9503730728
 20
28.481250072
 10
280.0473759379
 20
28.4670811034
 10
280.3420453823
 20
28.3579349661
 10
280.5838743679
 20
28.1572664696
 10
280.7635694321
 20
27.8727871519
 10
280.8742251597
 20
27.5154293625
 10
280.9115889995
 20
27.0989262247
 10
280.8742251597
 20
26.6392837156
 10
280.7635694321
 20
26.1541655427
 10
280.5838743679
 20
25.66221472
 10
280.3420453823
 20
25.1823364199
 10
280.0473759379
 20
24.7329721838
 10
279.7111900367
 20
24.3313909664
 10
279.3464070049
 20
23.9930250546
 10
278.9670453617
 20
23.7308778565
 10
278.5876837186
 20
23.5550234245
 10
278.2229006867
 20
23.4722198126
 10
277.8867147856
 20
23.4856490506
 10
277.5920453411
 20
23.5947951879
 10
277.3502163556
 20
23.7954636844
 10
277.1937838822
 20
24.0311895395
  0
LINE
  5
28B
330
1F
100
AcDbEntity
  8
0
  6
Continuous
 62
     7
370
    15
100
AcDbLine
 10
262.357581188
 20
20.0756008065
 30
0.0
 11
264.0847639791
 21
19.0785194047
 31
0.0
  0
SPLINE
  5
28C
330
1F
100
AcDbEntity
  8
0
  6
Continuous
 62
     7
370
    15
100
AcDbSpline
210
0.0
220
0.0
230
1.0
 70
     8
 71
     3
 72
    14
 73
    10
 74
     0
 42
0.000000001
 43
0.00000001
 40
0.0
 40
0.0
 40
0.0
 40
0.0
 40
0.25
 40
0.25
 40
0.5
 40
0.5
 40
0.75
 40
0.75
 40
1.0
 40
1.0
 40
1.0
 40
1.0
 10
264.0368688006958
 20
18.95627093480721
 30
0.0
 10
264.0199606031578
 20
18.91311408525807
 30
0.0
 10
263.9994374122768
 20
18.87309811276906
 30
0.0
 10
263.9506539767144
 20
18.79978848578414
 30
0.0
 10
263.9221969983386
 20
18.76650132717807
 30
0.0
 10
263.8588343758304
 20
18.71357848084774
 30
0.0
 10
263.8235153150895
 20
18.69351481442249
 30
0.0
 10
263.7486972380383
 20
18.67675582394045
 30
0.0
 10
263.7103277639737
 20
18.68095271955163
 30
0.0
 10
263.6765356751867
 20
18.70046047717407
 30
0.0
  0
LINE
  5
28D
330
1F
100
AcDbEntity
  8
0
  6
Continuous
 62
     7
370
    15
100
AcDbLine
 10
263.6765355313
 20
18.7004606177
 30
0.0
 11
262.3230757607
 21
19.4817963121
 31
0.0
  0
SPLINE
  5
28E
330
1F
100
AcDbEntity
  8
0
  6
Continuous
 62
     7
370
    15
100
AcDbSpline
210
0.0
220
0.0
230
1.0
 70
     8
 71
     3
 72
     8
 73
     4
 74
     0
 42
0.000000001
 43
0.00000001
 40
0.0
 40
0.0
 40
0.0
 40
0.0
 40
0.0011901715795577
 40
0.0011901715795577
 40
0.0011901715795577
 40
0.0011901715795577
 10
262.3230755402409
 20
19.48179638187592
 30
0.0
 10
262.3339363638835
 20
19.67975157023408
 30
0.0
 10
262.3454198108395
 20
19.87769048273565
 30
0.0
 10
262.3575812776581
 20
20.07560096894427
 30
0.0
  0
SPLINE
  5
28F
330
1F
100
AcDbEntity
  8
0
  6
Continuous
 62
     7
370
    15
100
AcDbSpline
210
0.0
220
0.0
230
1.0
 70
     8
 71
     3
 72
    10
 73
     6
 74
     0
 42
0.000000001
 43
0.00000001
 40
0.0
 40
0.0
 40
0.0
 40
0.0
 40
0.0109369376650239
 40
0.4814089913362763
 40
1.0
 40
1.0
 40
1.0
 40
1.0
 10
285.3246452370601
 20
31.14836257525047
 30
0.0
 10
285.3247448327827
 20
31.14830513664787
 30
0.0
 10
285.329128717729
 20
31.1457768731991
 30
0.0
 10
285.3125041769513
 20
31.15538099446455
 30
0.0
 10
285.2807012837502
 20
31.17374739299591
 30
0.0
 10
285.2640262151003
 20
31.18337736453424
 30
0.0
  0
ARC
  5
290
330
1F
100
AcDbEntity
  8
0
  6
Continuous
 62
     7
370
    15
100
AcDbCircle
 10
269.2673040732
 20
19.6238248913
 30
0.0
 40
5.519094352756905
100
AcDbArc
 50
214.7649776476
 51
266.0912936044
  0
SPLINE
  5
291
330
1F
100
AcDbEntity
  8
0
  6
Continuous
 62
     7
370
    15
100
AcDbSpline
210
0.0
220
0.0
230
1.0
 70
     8
 71
     3
 72
     8
 73
     4
 74
     0
 42
0.000000001
 43
0.00000001
 40
0.0
 40
0.0
 40
0.0
 40
0.0
 40
1.0
 40
1.0
 40
1.0
 40
1.0
 10
262.6834982070155
 20
20.73513860737904
 30
0.0
 10
262.5744246266285
 20
20.51536640731982
 30
0.0
 10
262.4658130611605
 20
20.29551332565016
 30
0.0
 10
262.3575812776581
 20
20.07560096894427
 30
0.0
  0
LINE
  5
292
330
1F
100
AcDbEntity
  8
0
  6
Continuous
 62
     7
370
    15
100
AcDbLine
 10
262.7417451024
 20
20.7687637534
 30
0.0
 11
262.6834981577
 21
20.735138508
 31
0.0
  0
SPLINE
  5
293
330
1F
100
AcDbEntity
  8
0
  6
Continuous
 62
     7
370
    15
100
AcDbSpline
210
0.0
220
0.0
230
1.0
 70
     8
 71
     3
 72
    12
 73
     8
 74
     0
 42
0.000000001
 43
0.00000001
 40
0.0
 40
0.0
 40
0.0
 40
0.0
 40
0.2499999999999986
 40
0.2499999999999986
 40
0.4999999999999971
 40
0.4999999999999971
 40
1.0
 40
1.0
 40
1.0
 40
1.0
 10
262.7538442313037
 20
21.10231174752376
 30
0.0
 10
262.7918818388563
 20
21.08035310408652
 30
0.0
 10
262.8213552427679
 20
21.05409616748186
 30
0.0
 10
262.8601489528108
 20
20.99622815818254
 30
0.0
 10
262.8689711557574
 20
20.96544602337341
 30
0.0
 10
262.8638618830706
 20
20.87246603998667
 30
0.0
 10
262.8172381413012
 20
20.81234502805736
 30
0.0
 10
262.741745057448
 20
20.76876379840143
 30
0.0
  0
LINE
  5
294
330
1F
100
AcDbEntity
  8
0
  6
Continuous
 62
     7
370
    15
100
AcDbLine
 10
261.9689556346
 20
21.5554180212
 30
0.0
 11
262.7538442113
 21
21.1023114905
 31
0.0
  0
SPLINE
  5
295
330
1F
100
AcDbEntity
  8
0
  6
Continuous
 62
     7
370
    15
100
AcDbSpline
210
0.0
220
0.0
230
1.0
 70
     8
 71
     3
 72
    12
 73
     8
 74
     0
 42
0.000000001
 43
0.00000001
 40
0.0
 40
0.0
 40
0.0
 40
0.0
 40
0.5
 40
0.5
 40
0.75
 40
0.75
 40
1.0
 40
1.0
 40
1.0
 40
1.0
 10
261.3911711053817
 20
21.54843354519211
 30
0.0
 10
261.467101913133
 20
21.59226746747566
 30
0.0
 10
261.5709918725572
 20
21.61892480998486
 30
0.0
 10
261.7316939523895
 20
21.62188067275859
 30
0.0
 10
261.7854787528123
 20
21.61672740112265
 30
0.0
 10
261.885247638255
 20
21.59442889851929
 30
0.0
 10
261.9307998640823
 20
21.57744514722187
 30
0.0
 10
261.9689557041866
 20
21.55541824958537
 30
0.0
  0
LINE
  5
296
330
1F
100
AcDbEntity
  8
0
  6
Continuous
 62
     7
370
    15
100
AcDbLine
 10
261.3329241292
 20
21.5148082989
 30
0.0
 11
261.3911710738
 21
21.5484335443
 31
0.0
  0
SPLINE
  5
297
330
1F
100
AcDbEntity
  8
0
  6
Continuous
 62
     7
370
    15
100
AcDbSpline
210
0.0
220
0.0
230
1.0
 70
     8
 71
     3
 72
     8
 73
     4
 74
     0
 42
0.000000001
 43
0.00000001
 40
0.0
 40
0.0
 40
0.0
 40
0.0
 40
1.0
 40
1.0
 40
1.0
 40
1.0
 10
260.1904477659692
 20
21.32666051569106
 30
0.0
 10
260.5713884167088
 20
21.3891413943641
 30
0.0
 10
260.9522263889488
 20
21.45184151649913
 30
0.0
 10
261.3329242549492
 20
21.51480835416973
 30
0.0
  0
LINE
  5
298
330
1F
100
AcDbEntity
  8
0
  6
Continuous
 62
     7
370
    15
100
AcDbLine
 10
258.8344959926
 20
22.1094345984
 30
0.0
 11
260.1904475309
 21
21.3266604371
 31
0.0
  0
LINE
  5
299
330
1F
100
AcDbEntity
  8
0
  6
Continuous
 62
     7
370
    15
100
AcDbLine
 10
258.8344959926
 20
22.1094345984
 30
0.0
 11
260.8474340872
 21
23.2714790257
 31
0.0
  0
ARC
  5
29A
330
1F
100
AcDbEntity
  8
0
  6
Continuous
 62
     7
370
    15
100
AcDbCircle
 10
268.5595285473
 20
21.0849188047
 30
0.0
 40
6.439203761766701
100
AcDbArc
 50
194.4161472332
 51
238.0417156746
  0
SPLINE
  5
29B
330
1F
100
AcDbEntity
  8
0
  6
Continuous
 62
     7
370
    15
100
AcDbSpline
210
0.0
220
0.0
230
1.0
 70
     8
 71
     3
 72
     8
 73
     4
 74
     0
 42
0.000000001
 43
0.00000001
 40
0.0
 40
0.0
 40
0.0
 40
0.0
 40
1.0
 40
1.0
 40
1.0
 40
1.0
 10
278.1946989364723
 20
21.86013450650506
 30
0.0
 10
278.1497755329292
 20
21.81332343658125
 30
0.0
 10
278.1029360384157
 20
21.77673646029712
 30
0.0
 10
278.0543794019922
 20
21.75081280154637
 30
0.0
  0
ELLIPSE
  5
29C
330
1F
100
AcDbEntity
  8
0
  6
Continuous
 62
     7
370
    15
100
AcDbEllipse
 10
260.6131195188
 20
24.0599786633
 30
0.0
 11
-6.005970379874270E-5
 21
0.8534489614827194
 31
0.0
210
0.0
220
0.0
230
1.0
 40
0.7174342186
 41
3.534193645557511
 42
5.104989972352427
  0
SPLINE
  5
29D
330
1F
100
AcDbEntity
  8
0
  6
Continuous
 62
     7
370
    15
100
AcDbSpline
210
0.0
220
0.0
230
1.0
 70
     8
 71
     3
 72
     8
 73
     4
 74
     0
 42
0.000000001
 43
0.00000001
 40
0.0
 40
0.0
 40
0.0
 40
0.0
 40
1.0
 40
1.0
 40
1.0
 40
1.0
 10
282.4834722379717
 20
28.56110289462653
 30
0.0
 10
282.4756468307625
 20
28.51007292370155
 30
0.0
 10
282.4613408296474
 20
28.45754537196822
 30
0.0
 10
282.4407014146282
 20
28.40368216582687
 30
0.0
  0
LINE
  5
29E
330
1F
100
AcDbEntity
  8
0
  6
Continuous
 62
     7
370
    15
100
AcDbLine
 10
281.6469458096
 20
28.8619074515
 30
0.0
 11
282.4407013589
 21
28.4036821265
 31
0.0
  0
ARC
  5
29F
330
1F
100
AcDbEntity
  8
0
  6
Continuous
 62
     7
370
    15
100
AcDbCircle
 10
278.3722375134
 20
25.4656597781
 30
0.0
 40
3.399755828751023
100
AcDbArc
 50
270.4503592317
 51
329.5442642356
  0
SPLINE
  5
2A0
330
1F
100
AcDbEntity
  8
0
  6
Continuous
 62
     7
370
    15
100
AcDbSpline
210
0.0
220
0.0
230
1.0
 70
     8
 71
     3
 72
     8
 73
     4
 74
     0
 42
0.000000001
 43
0.00000001
 40
0.0
 40
0.0
 40
0.0
 40
0.0
 40
1.0
 40
1.0
 40
1.0
 40
1.0
 10
281.6595221642864
 20
23.86033438047069
 30
0.0
 10
281.5397635756538
 20
23.82203291590739
 30
0.0
 10
281.4208254332419
 20
23.7827992022236
 30
0.0
 10
281.302897932277
 20
23.74241712612855
 30
0.0
  0
SPLINE
  5
2A1
330
1F
100
AcDbEntity
  8
0
  6
Continuous
 62
     7
370
    15
100
AcDbSpline
210
0.0
220
0.0
230
1.0
 70
     8
 71
     3
 72
     8
 73
     4
 74
     0
 42
0.000000001
 43
0.00000001
 40
0.0
 40
0.0
 40
0.0
 40
0.0
 40
1.0
 40
1.0
 40
1.0
 40
1.0
 10
281.8949656478659
 20
23.96793604849402
 30
0.0
 10
281.8190778873406
 20
23.92201948604829
 30
0.0
 10
281.740610101798
 20
23.88626810932116
 30
0.0
 10
281.6595221642864
 20
23.86033438047069
 30
0.0
  0
SPLINE
  5
2A2
330
1F
100
AcDbEntity
  8
0
  6
Continuous
 62
     7
370
    15
100
AcDbSpline
210
0.0
220
0.0
230
1.0
 70
     8
 71
     3
 72
     8
 73
     4
 74
     0
 42
0.000000001
 43
0.00000001
 40
0.0
 40
0.0
 40
0.0
 40
0.0
 40
1.0
 40
1.0
 40
1.0
 40
1.0
 10
278.3989597441658
 20
22.06600929347599
 30
0.0
 10
278.3289998530291
 20
21.99792291974825
 30
0.0
 10
278.2610386835106
 20
21.92926182750961
 30
0.0
 10
278.1946989364723
 20
21.86013450650506
 30
0.0
  0
LINE
  5
2A3
330
1F
100
AcDbEntity
  8
0
  6
Continuous
 62
     7
370
    15
100
AcDbLine
 10
278.5444086187
 20
22.966382819
 30
0.0
 11
278.7922360392
 21
22.8233150944
 31
0.0
  0
SPLINE
  5
2A4
330
1F
100
AcDbEntity
  8
0
  6
Continuous
 62
     7
370
    15
100
AcDbSpline
210
0.0
220
0.0
230
1.0
 70
     8
 71
     3
 72
    10
 73
     6
 74
     0
 42
0.000000001
 43
0.00000001
 40
0.0
 40
0.0
 40
0.0
 40
0.0
 40
0.5
 40
0.5
 40
1.0
 40
1.0
 40
1.0
 40
1.0
 10
278.7922357353316
 20
22.82331531415489
 30
0.0
 10
278.7233085657645
 20
22.71794468068998
 30
0.0
 10
278.6746950210397
 20
22.60921860796137
 30
0.0
 10
278.6032584434441
 20
22.38750634168487
 30
0.0
 10
278.5807759704912
 20
22.27481309617336
 30
0.0
 10
278.567044351595
 20
22.16304247193558
 30
0.0
  0
LINE
  5
2A5
330
1F
100
AcDbEntity
  8
0
  6
Continuous
 62
     7
370
    15
100
AcDbLine
 10
278.5670448514
 20
22.1630421923
 30
0.0
 11
278.3989601737
 21
22.0660089733
 31
0.0
  0
ARC
  5
2A6
330
1F
100
AcDbEntity
  8
0
  6
Continuous
 62
     7
370
    15
100
AcDbCircle
 10
268.0065528347
 20
23.3856222652
 30
0.0
 40
6.930892077923573
100
AcDbArc
 50
195.6597431986
 51
215.4054751945
  0
ARC
  5
2A7
330
1F
100
AcDbEntity
  8
0
  6
Continuous
 62
     7
370
    15
100
AcDbCircle
 10
265.7064386882
 20
22.2991794584
 30
0.0
 40
6.033557239683211
100
AcDbArc
 50
193.2193819823
 51
253.6140846436
  0
SPLINE
  5
2A8
330
1F
100
AcDbEntity
  8
0
  6
Continuous
 62
     7
370
    15
100
AcDbSpline
210
0.0
220
0.0
230
1.0
 70
     8
 71
     3
 72
     8
 73
     4
 74
     0
 42
0.000000001
 43
0.00000001
 40
0.0
 40
0.0
 40
0.0
 40
0.0
 40
0.0011901715795577
 40
0.0011901715795577
 40
0.0011901715795577
 40
0.0011901715795577
 10
260.1904477659692
 20
21.32666051569106
 30
0.0
 10
260.0716506500543
 20
21.19030947937602
 30
0.0
 10
259.9524074759062
 20
21.05457893324011
 30
0.0
 10
259.8327609684113
 20
20.91942438342069
 30
0.0
  0
ARC
  5
2A9
330
1F
100
AcDbEntity
  8
0
  6
Continuous
 62
     7
370
    15
100
AcDbCircle
 10
278.3722334217
 20
25.4656668659
 30
0.0
 40
3.308365340717371
100
AcDbArc
 50
273.3757859468
 51
326.6188375205
  0
LINE
  5
2AA
330
1F
100
AcDbEntity
  8
0
  6
Continuous
 62
     7
370
    15
100
AcDbLine
 10
281.302898451
 20
23.7424168575
 30
0.0
 11
281.1348137734
 21
23.6453836385
 31
0.0
  0
SPLINE
  5
2AB
330
1F
100
AcDbEntity
  8
0
  6
Continuous
 62
     7
370
    15
100
AcDbSpline
210
0.0
220
0.0
230
1.0
 70
     8
 71
     3
 72
     8
 73
     4
 74
     0
 42
0.000000001
 43
0.00000001
 40
0.0
 40
0.0
 40
0.0
 40
0.0
 40
1.0
 40
1.0
 40
1.0
 40
1.0
 10
282.4407014146282
 20
25.31853968494689
 30
0.0
 10
282.4613408296474
 20
25.25660469223504
 30
0.0
 10
282.4756468307625
 20
25.19208820093601
 30
0.0
 10
282.4834722379717
 20
25.12484419283864
 30
0.0
  0
ARC
  5
2AC
330
1F
100
AcDbEntity
  8
0
  6
Continuous
 62
     7
370
    15
100
AcDbCircle
 10
279.1028123019
 20
26.8611109086
 30
0.0
 40
3.677095228451625
100
AcDbArc
 50
335.1964645707
 51
24.8035354293
  0
ARC
  5
2AD
330
1F
100
AcDbEntity
  8
0
  6
Continuous
 62
     7
370
    15
100
AcDbCircle
 10
277.9129433238
 20
25.7308216627
 30
0.0
 40
3.03755660424916
100
AcDbArc
 50
286.8264491711
 51
313.1681742962
  0
SPLINE
  5
2AE
330
1F
100
AcDbEntity
  8
0
  6
Continuous
 62
     7
370
    15
100
AcDbSpline
210
0.0
220
0.0
230
1.0
 70
     8
 71
     3
 72
    10
 73
     6
 74
     0
 42
0.000000001
 43
0.00000001
 40
0.0
 40
0.0
 40
0.0
 40
0.0
 40
0.5
 40
0.5
 40
1.0
 40
1.0
 40
1.0
 40
1.0
 10
281.1348133248479
 20
23.64538394766907
 30
0.0
 10
280.9397465469078
 20
23.63739734640812
 30
0.0
 10
280.744265129947
 20
23.62432417681174
 30
0.0
 10
280.3614058109146
 20
23.58315086821256
 30
0.0
 10
280.1734668852225
 20
23.55514762052331
 30
0.0
 10
279.9910632875675
 20
23.51538372897032
 30
0.0
  0
LINE
  5
2AF
330
1F
100
AcDbEntity
  8
0
  6
Continuous
 62
     7
370
    15
100
AcDbLine
 10
281.6469458096
 20
25.7767650156
 30
0.0
 11
282.4407013589
 21
25.3185396907
 31
0.0
  0
LINE
  5
2B0
330
1F
100
AcDbEntity
  8
0
  6
Continuous
 62
     7
370
    15
100
AcDbLine
 10
258.3953343098
 20
21.8558600416
 30
0.0
 11
258.8344959926
 21
22.1094345984
 31
0.0
  0
LINE
  5
2B1
330
1F
100
AcDbEntity
  8
0
  6
Continuous
 62
     7
370
    15
100
AcDbLine
 10
259.8327610571
 20
20.9194243897
 30
0.0
 11
258.4969785967
 21
21.6905551901
 31
0.0
  0
SPLINE
  5
2B2
330
1F
100
AcDbEntity
  8
0
  6
Continuous
 62
     7
370
    15
100
AcDbSpline
210
0.0
220
0.0
230
1.0
 70
     8
 71
     3
 72
    10
 73
     6
 74
     0
 42
0.000000001
 43
0.00000001
 40
0.0
 40
0.0
 40
0.0
 40
0.0
 40
0.5
 40
0.5
 40
1.0
 40
1.0
 40
1.0
 40
1.0
 10
258.4969785029953
 20
21.69055518672475
 30
0.0
 10
258.4706742506183
 20
21.70574030839752
 30
0.0
 10
258.4484761364998
 20
21.72936995933139
 30
0.0
 10
258.4144642500681
 20
21.78681235214129
 30
0.0
 10
258.402593369662
 20
21.82045063029191
 30
0.0
 10
258.3953343923978
 20
21.85586005353503
 30
0.0
  0
ARC
  5
2B3
330
1F
100
AcDbEntity
  8
0
  6
Continuous
 62
     7
370
    15
100
AcDbCircle
 10
264.1835866608
 20
22.7026043881
 30
0.0
 40
5.648773619456923
100
AcDbArc
 50
214.4261877663
 51
239.6003942817
  0
LINE
  5
2B4
330
1F
100
AcDbEntity
  8
0
  6
Continuous
 62
     7
370
    15
100
AcDbLine
 10
279.9910636324
 20
23.5153835329
 30
0.0
 11
279.7432362119
 21
23.6584512575
 31
0.0
  0
ELLIPSE
  5
2B5
330
1F
100
AcDbEntity
  8
0
  6
Continuous
 62
     7
370
    15
100
AcDbEllipse
 10
260.4938807032
 20
23.9911211831
 30
0.0
 11
0.26000757892092
 21
0.9705436209909345
 31
0.0
210
0.0
220
0.0
230
1.0
 40
0.5176380889
 41
3.619174351347694
 42
5.189970678142642
  0
SPLINE
  5
2B6
330
1F
100
AcDbEntity
  8
0
  6
Continuous
 62
     7
370
    15
100
AcDbSpline
210
0.0
220
0.0
230
1.0
 70
     8
 71
     3
 72
    12
 73
     8
 74
     0
 42
0.000000001
 43
0.00000001
 40
0.0
 40
0.0
 40
0.0
 40
0.0
 40
0.5000000000000003
 40
0.5000000000000003
 40
0.7500000000000001
 40
0.7500000000000001
 40
1.0
 40
1.0
 40
1.0
 40
1.0
 10
277.9493109401117
 20
44.33072521857677
 30
0.0
 10
278.0117542659363
 20
44.36677298327708
 30
0.0
 10
278.0910908711585
 20
44.39243198333488
 30
0.0
 10
278.2219642344996
 20
44.40421574334135
 30
0.0
 10
278.2667365468706
 20
44.40340547113782
 30
0.0
 10
278.3519984628739
 20
44.38985699075047
 30
0.0
 10
278.3914146699922
 20
44.37709237974107
 30
0.0
 10
278.422654330242
 20
44.35905810774911
 30
0.0
  0
LINE
  5
2B7
330
1F
100
AcDbEntity
  8
0
  6
Continuous
 62
     7
370
    15
100
AcDbLine
 10
278.4226546051
 20
44.3590580614
 30
0.0
 11
279.5743178992
 21
43.6942169933
 31
0.0
  0
SPLINE
  5
2B8
330
1F
100
AcDbEntity
  8
0
  6
Continuous
 62
     7
370
    15
100
AcDbSpline
210
0.0
220
0.0
230
1.0
 70
     8
 71
     3
 72
     9
 73
     5
 74
     0
 42
0.000000001
 43
0.00000001
 40
0.0
 40
0.0
 40
0.0
 40
0.0
 40
0.8664443272572582
 40
1.0
 40
1.0
 40
1.0
 40
1.0
 10
281.1413986422373
 20
41.91390285053828
 30
0.0
 10
281.4605753403632
 20
41.9831928417742
 30
0.0
 10
281.8289506509111
 20
42.06316334773302
 30
0.0
 10
282.1992907482752
 20
42.14003282822412
 30
0.0
 10
282.2487517691224
 20
42.1502991834045
 30
0.0
  0
LINE
  5
2B9
330
1F
100
AcDbEntity
  8
0
  6
Continuous
 62
     7
370
    15
100
AcDbLine
 10
282.2487517691
 20
42.1502991834
 30
0.0
 11
283.6022115397
 21
41.368963489
 31
0.0
  0
SPLINE
  5
2BA
330
1F
100
AcDbEntity
  8
0
  6
Continuous
 62
     7
370
    15
100
AcDbSpline
210
0.0
220
0.0
230
1.0
 70
     8
 71
     3
 72
    14
 73
    10
 74
     0
 42
0.000000001
 43
0.00000001
 40
0.0
 40
0.0
 40
0.0
 40
0.0
 40
0.25
 40
0.25
 40
0.5
 40
0.5
 40
0.75
 40
0.75
 40
1.0
 40
1.0
 40
1.0
 40
1.0
 10
283.6022115024335
 20
41.36896339819843
 30
0.0
 10
283.6334735905916
 20
41.35091617885065
 30
0.0
 10
283.6557409626877
 20
41.32782686341033
 30
0.0
 10
283.678894360676
 20
41.27921551014163
 30
0.0
 10
283.680414530672
 20
41.25321572857651
 30
0.0
 10
283.666969359901
 20
41.20308279918909
 30
0.0
 10
283.652269854253
 20
41.17889248407769
 30
0.0
 10
283.6106248592773
 20
41.1339420413051
 30
0.0
 10
283.5843125757597
 20
41.11370813422334
 30
0.0
 10
283.5531321810151
 20
41.09570807547929
 30
0.0
  0
LINE
  5
2BB
330
1F
100
AcDbEntity
  8
0
  6
Continuous
 62
     7
370
    15
100
AcDbLine
 10
277.9493108404
 20
44.3307250152
 30
0.0
 11
277.4413899494
 21
44.0375085261
 31
0.0
  0
SPLINE
  5
2BC
330
1F
100
AcDbEntity
  8
0
  6
Continuous
 62
     7
370
    15
100
AcDbSpline
210
0.0
220
0.0
230
1.0
 70
     8
 71
     3
 72
    10
 73
     6
 74
     0
 42
0.000000001
 43
0.00000001
 40
0.0
 40
0.0
 40
0.0
 40
0.0
 40
0.4051603616189169
 40
0.8114380484263116
 40
1.0
 40
1.0
 40
1.0
 40
1.0
 10
285.2640262151003
 20
37.99987090122266
 30
0.0
 10
285.2823461153641
 20
38.03879744815536
 30
0.0
 10
285.3190364373347
 20
38.11675789114845
 30
0.0
 10
285.3330500825426
 20
38.22432579090177
 30
0.0
 10
285.3149539283901
 20
38.27749465891426
 30
0.0
 10
285.3092175148715
 20
38.29434899219758
 30
0.0
  0
LINE
  5
2BD
330
1F
100
AcDbEntity
  8
0
  6
Continuous
 62
     7
370
    15
100
AcDbLine
 10
285.1586623865
 20
31.2442220011
 30
0.0
 11
283.4218177597
 21
32.2468810619
 31
0.0
  0
LWPOLYLINE
  5
2BE
330
1F
100
AcDbEntity
  8
0
  6
Continuous
 62
     7
370
     0
100
AcDbPolyline
 90
       24
 70
   128
 43
0.0
 10
263.6765355313
 20
26.0482469906
 10
263.9757063744
 20
27.2339893129
 10
264.346231832
 20
28.4289691267
 10
264.7855850688
 20
29.6250383092
 10
265.290771683
 20
30.814044599
 10
265.8583461698
 20
31.9878783628
 10
266.48443958
 20
33.1385395138
 10
267.1647832283
 20
34.258181236
 10
267.8947389857
 20
35.3391708184
 10
268.6693295727
 20
36.3741375612
 10
269.4832747795
 20
37.3560263851
 10
270.3310240637
 20
38.2781425056
 10
271.2067986972
 20
39.1341985774
 10
272.1046271632
 20
39.9183579428
 10
273.018388455
 20
40.6252748368
 10
273.9418527004
 20
41.250130767
 10
274.8687238846
 20
41.7886637394
 10
275.7926827793
 20
42.2372029273
 10
276.7074298299
 20
42.5926896271
 10
277.6067288257
 20
42.8527009474
 10
278.4844481412
 20
43.015464492
 10
279.3346037471
 20
43.079869501
 10
280.1513994638
 20
43.0454779211
 10
280.9292663097
 20
42.912523547
  0
LWPOLYLINE
  5
2BF
330
1F
100
AcDbEntity
  8
0
  6
Continuous
 62
     7
370
     0
100
AcDbPolyline
 90
       24
 70
   128
 43
0.0
 10
264.0368686955
 20
25.7186231249
 10
264.3199051982
 20
26.8985205224
 10
264.6757852845
 20
28.0894701165
 10
265.1020005584
 20
29.283076632
 10
265.5955467399
 20
30.4709269697
 10
266.1529447383
 20
31.6446472387
 10
266.7702650187
 20
32.795963211
 10
267.4431559188
 20
33.916759635
 10
268.1668746011
 20
34.9991365068
 10
268.9363199798
 20
36.0354638202
 10
269.7460672947
 20
37.0184365075
 10
270.5904089403
 20
37.9411246257
 10
271.4633929915
 20
38.7970244941
 10
272.3588656791
 20
39.5801029875
 10
273.270514854
 20
40.2848408783
 10
274.1919142331
 20
40.9062690256
 10
275.1165687154
 20
41.4400074637
 10
276.0379603978
 20
41.8822934873
 10
276.9495942615
 20
42.230010307
 10
277.8450439001
 20
42.4807066033
 10
278.7179976583
 20
42.6326147972
 10
279.5623017669
 20
42.6846637838
 10
280.3720046299
 20
42.6364870081
 10
281.1413986422
 20
42.4884245522
  0
LWPOLYLINE
  5
2C0
330
1F
100
AcDbEntity
  8
0
  6
Continuous
 62
     7
370
     0
100
AcDbPolyline
 90
       32
 70
   128
 43
0.0
 10
285.2640262151
 20
31.1833773645
 10
284.9793314974
 20
30.0041348811
 10
284.6219795641
 20
28.814072125
 10
284.1944840797
 20
27.6215623171
 10
283.6998545925
 20
26.434998404
 10
283.1415708516
 20
25.2627280406
 10
282.5235610752
 20
24.1130011202
 10
281.8501742911
 20
22.9939070389
 10
281.1261487271
 20
21.9133203256
 10
280.3565788834
 20
20.8788458917
 10
279.5468803009
 20
19.8977614291
 10
278.7027503773
 20
18.9769719768
 10
277.8301288548
 20
18.1229551706
 10
276.9351560025
 20
17.3417218935
 10
276.0241293991
 20
16.6387677526
 10
275.1034595638
 20
16.019040621
 10
274.1796249283
 20
15.486900195
 10
273.25912615
 20
15.0460916195
 10
272.3484404257
 20
14.6997160723
 10
271.4539758051
 20
14.4502119943
 10
270.5820263273
 20
14.2993337532
 10
269.7387274868
 20
14.248143425
 10
268.9300130991
 20
14.297001863
 10
268.1615746349
 20
14.4455649939
 10
267.4388180861
 20
14.6927862939
 10
266.7668300505
 20
15.0369276279
 10
266.1503382192
 20
15.4755668583
 10
265.5936817418
 20
16.0056172392
 10
265.1007763241
 20
16.6233494734
 10
264.6750911785
 20
17.3244164296
 10
264.319622024
 20
18.1038854642
 10
264.0368686955
 20
18.9562707438
  0
ARC
  5
2C1
330
1F
100
AcDbEntity
  8
0
  6
Continuous
 62
     7
370
     0
100
AcDbCircle
 10
278.4652684919
 20
36.2632575538
 30
0.0
 40
7.017045852609993
100
AcDbArc
 50
14.3287351339
 51
43.52515955
  0
LWPOLYLINE
  5
2C2
330
1F
100
AcDbEntity
  8
0
  6
Continuous
 62
     7
370
     0
100
AcDbPolyline
 90
       27
 70
   128
 43
0.0
 10
269.7039464587
 20
25.6089812904
 10
269.7414630807
 20
26.3330422932
 10
269.8534442938
 20
27.0894430732
 10
270.0381920408
 20
27.8667171024
 10
270.2929061905
 20
28.6530817939
 10
270.6137253672
 20
29.4366168739
 10
270.9957865489
 20
30.2054447487
 10
271.4332978368
 20
30.9479101568
 10
271.919627029
 20
31.6527588698
 10
272.4474017199
 20
32.3093059352
 10
273.008621746
 20
32.9075983098
 10
273.594779371
 20
33.4385671312
 10
274.1969890183
 20
33.8941626879
 10
274.8061218411
 20
34.267479253
 10
275.4129440371
 20
34.5528573657
 10
276.0082567478
 20
34.7459714376
 10
276.5830357114
 20
34.843893642
 10
277.1285678903
 20
34.8451397077
 10
277.6365832824
 20
34.7496906385
 10
278.0993813623
 20
34.5589934624
 10
278.509946326
 20
34.2759387869
 10
278.8620542694
 20
33.9048177274
 10
279.1503676891
 20
33.451255929
 10
279.370516484
 20
32.9221291467
 10
279.5191628211
 20
32.3254579154
 10
279.5940534903
 20
31.6702874874
 10
279.6031796001
 20
31.3824787856
  0
LWPOLYLINE
  5
2C3
330
1F
100
AcDbEntity
  8
0
  6
Continuous
 62
     7
370
     0
100
AcDbPolyline
 90
       14
 70
   128
 43
0.0
 10
274.6035860404
 20
22.7219903134
 10
274.1969890183
 20
22.511356412
 10
273.594779371
 20
22.2716555097
 10
273.008621746
 20
22.1258611427
 10
272.4474017199
 20
22.0761826675
 10
271.919627029
 20
22.1233740453
 10
271.4332978368
 20
22.266719025
 10
270.9957865489
 20
22.5040446523
 10
270.6137253672
 20
22.8317540761
 10
270.2929061905
 20
23.2448792191
 10
270.0381920408
 20
23.7371572132
 10
269.8534442938
 20
24.301126034
 10
269.7414630807
 20
24.9282360574
 10
269.7039464587
 20
25.6089812904
  0
LWPOLYLINE
  5
2C4
330
1F
100
AcDbEntity
  8
0
  6
Continuous
 62
     7
370
     0
100
AcDbPolyline
 90
       24
 70
   128
 43
0.0
 10
258.4969785967
 20
29.038341563
 10
258.7961494398
 20
30.2240838853
 10
259.1666748974
 20
31.4190636991
 10
259.6060281342
 20
32.6151328816
 10
260.1112147485
 20
33.8041391714
 10
260.6787892352
 20
34.9779729352
 10
261.3048826455
 20
36.1286340862
 10
261.9852262937
 20
37.2482758084
 10
262.7151820511
 20
38.3292653908
 10
263.4897726381
 20
39.3642321336
 10
264.3037178449
 20
40.3461209575
 10
265.1514671291
 20
41.2682370779
 10
266.0272417627
 20
42.1242931498
 10
266.9250702286
 20
42.9084525152
 10
267.8388315204
 20
43.6153694092
 10
268.7622957658
 20
44.2402253394
 10
269.6891669501
 20
44.7787583118
 10
270.6131258447
 20
45.2272974997
 10
271.5278728953
 20
45.5827841994
 10
272.4271718911
 20
45.8427955198
 10
273.3048912066
 20
46.0055590644
 10
274.1550468125
 20
46.0699640733
 10
274.9718425292
 20
46.0355724935
 10
275.7497093751
 20
45.9026181193
  0
LWPOLYLINE
  5
2C5
330
1F
100
AcDbEntity
  8
0
  6
Continuous
 62
     7
370
     0
100
AcDbPolyline
 90
       19
 70
   128
 43
0.0
 10
261.9689556346
 20
28.1285717978
 10
262.265454104
 20
29.2771809679
 10
262.6373434073
 20
30.4343135563
 10
263.0815711906
 20
31.590471668
 10
263.5944904345
 20
32.7361654484
 10
264.1718917224
 20
33.8619902678
 10
264.809036168
 20
34.9587073269
 10
265.5006929524
 20
36.0173128557
 10
266.2411860804
 20
37.0291187181
 10
267.0244371862
 20
37.9858204691
 10
267.8440172291
 20
38.8795644611
 10
268.6931990123
 20
39.703015425
 10
269.5650128299
 20
40.4494144504
 10
270.4523026081
 20
41.1126357295
 10
271.3477856163
 20
41.687233956
 10
272.2441117468
 20
42.168494516
 10
273.1339238327
 20
42.5524667881
 10
274.0099185848
 20
42.8359985607
 10
274.0789773485
 20
42.8542126765
  0
LWPOLYLINE
  5
2C6
330
1F
100
AcDbEntity
  8
0
  6
Continuous
 62
     7
370
     0
100
AcDbPolyline
 90
       22
 70
   128
 43
0.0
 10
261.3911710738
 20
28.1215873209
 10
261.6718144257
 20
29.2413022901
 10
262.0226678417
 20
30.3701674048
 10
262.4411373152
 20
31.4998364482
 10
262.9241276868
 20
32.6219560257
 10
263.4680689867
 20
33.7282305826
 10
264.0689388253
 20
34.8104805774
 10
264.7222946611
 20
35.8607025549
 10
265.4233054116
 20
36.8711334028
 10
266.1667889903
 20
37.8343009187
 10
266.9472475381
 20
38.7430844539
 10
267.7589105589
 20
39.5907649096
 10
268.5957770658
 20
40.3710734028
 10
269.4516593747
 20
41.078242403
 10
270.3202292844
 20
41.7070415174
 10
271.1950648695
 20
42.2528227548
 10
272.0696977979
 20
42.7115508832
 10
272.9376612704
 20
43.0798326259
 10
273.7925378172
 20
43.3549472954
 10
274.6280065634
 20
43.53485887
 10
275.4378905262
 20
43.6182372145
 10
276.1520896184
 20
43.6093706927
  0
ARC
  5
2C7
330
1F
100
AcDbEntity
  8
0
  6
Continuous
 62
     7
370
     0
100
AcDbCircle
 10
275.0015213915
 20
25.3472063994
 30
0.0
 40
2.482985038636856
100
AcDbArc
 50
173.948203114
 51
234.7396178643
  0
LWPOLYLINE
  5
2C8
330
1F
100
AcDbEntity
  8
0
  6
Continuous
 62
     7
370
     0
100
AcDbPolyline
 90
       18
 70
   128
 43
0.0
 10
278.5677046306
 20
31.9802457085
 10
278.5218307495
 20
32.0057738092
 10
278.1250897875
 20
32.1580086538
 10
277.6845035907
 20
32.2141633164
 10
277.2094625098
 20
32.1730406126
 10
276.7100911317
 20
32.0355172379
 10
276.1970327292
 20
31.8045240869
 10
275.6812222692
 20
31.4849844161
 10
275.173653329
 20
31.0837089451
 10
274.6851438605
 20
30.609249989
 10
274.2261055759
 20
30.0717196579
 10
273.8063221415
 20
29.482574738
 10
273.4347405432
 20
28.8543715332
 10
273.1192804371
 20
28.2004995311
 10
272.8666650687
 20
27.5348944388
 10
272.6822785334
 20
26.8717426616
 10
272.5700506954
 20
26.2251780316
 10
272.532374047
 20
25.6089812904
  0
LINE
  5
2C9
330
1F
100
AcDbEntity
  8
0
  6
Continuous
 62
     7
370
     0
100
AcDbLine
 10
266.6633871963
 20
26.4870479981
 30
0.0
 11
266.0976098775
 21
26.813664292
 31
0.0
  0
LWPOLYLINE
  5
2CA
330
1F
100
AcDbEntity
  8
0
  6
Continuous
 62
     7
370
     0
100
AcDbPolyline
 90
        3
 70
   128
 43
0.0
 10
260.9807225902
 20
27.166482514
 10
260.9800166305
 20
27.2877206125
 10
261.0048437584
 20
28.0227914569
  0
LINE
  5
2CB
330
1F
100
AcDbEntity
  8
0
  6
Continuous
 62
     7
370
     0
100
AcDbLine
 10
261.178804711
 20
24.3865416573
 30
0.0
 11
266.6633871963
 21
21.2203595826
 31
0.0
  0
LINE
  5
2CC
330
1F
100
AcDbEntity
  8
0
  6
Continuous
 62
     7
370
     0
100
AcDbLine
 10
261.0595658436
 20
24.3176843373
 30
0.0
 11
261.178804711
 21
24.3865416573
 31
0.0
  0
LWPOLYLINE
  5
2CD
330
1F
100
AcDbEntity
  8
0
  6
Continuous
 62
     7
370
     0
100
AcDbPolyline
 90
       18
 70
   128
 43
0.0
 10
239.7081331551
 20
43.5796843929
 10
239.7456293623
 20
44.261948456
 10
239.8574762323
 20
44.9758309128
 10
240.0417600347
 20
45.7091170552
 10
240.2953279877
 20
46.4492601592
 10
240.6138412708
 20
47.1835963583
 10
240.9918497696
 20
47.8995604651
 10
241.422885754
 20
48.5849025047
 10
241.8995743485
 20
49.2278963559
 10
242.4137589856
 20
49.8175397417
 10
242.9566420869
 20
50.3437436183
 10
243.5189345939
 20
50.7975048104
 10
244.0910155419
 20
51.1710593481
 10
244.6630964899
 20
51.4580154136
 10
245.2253889969
 20
51.6534633313
 10
245.7682720982
 20
51.7540589416
 10
246.2824567353
 20
51.7580805013
 10
246.7128542608
 20
51.6791944677
  0
ARC
  5
2CE
330
1F
100
AcDbEntity
  8
0
  6
Continuous
 62
     7
370
     0
100
AcDbCircle
 10
243.1813620252
 20
43.367975007
 30
0.0
 40
3.479675221612174
100
AcDbArc
 50
176.5118726083
 51
222.1346429798
  0
ARC
  5
2CF
330
1F
100
AcDbEntity
  8
0
  6
Continuous
 62
     7
370
     0
100
AcDbCircle
 10
270.9818899807
 20
20.8094665824
 30
0.0
 40
7.603690537520498
100
AcDbArc
 50
196.1030678332
 51
214.7372894561
  0
LINE
  5
2D0
330
1F
100
AcDbEntity
  8
0
  6
Continuous
 62
     7
370
     0
100
AcDbLine
 10
266.0977020737
 20
20.2405638319
 30
0.0
 11
260.8474340872
 21
23.2714790257
 31
0.0
  0
LINE
  5
2D1
330
1F
100
AcDbEntity
  8
0
  6
Continuous
 62
     7
370
     0
100
AcDbLine
 10
277.4114107808
 20
22.3123170894
 30
0.0
 11
278.1946994237
 21
21.8601341808
 31
0.0
  0
LINE
  5
2D2
330
1F
100
AcDbEntity
  8
0
  6
Continuous
 62
     7
370
     0
100
AcDbLine
 10
262.8308833821
 20
20.8638044676
 30
0.0
 11
262.7538442113
 21
21.1023114905
 31
0.0
  0
LWPOLYLINE
  5
2D3
330
1F
100
AcDbEntity
  8
0
  6
Continuous
 62
     7
370
     0
100
AcDbPolyline
 90
        3
 70
   128
 43
0.0
 10
262.4720151501
 20
20.3173334284
 10
262.2565835095
 20
20.769587236
 10
261.9689556346
 20
21.5554180212
  0
ARC
  5
2D4
330
1F
100
AcDbEntity
  8
0
  6
Continuous
 62
     7
370
     0
100
AcDbCircle
 10
268.0815247161
 20
23.4448828856
 30
0.0
 40
6.953945064742454
100
AcDbArc
 50
195.8259253299
 51
213.7995197828
  0
ARC
  5
2D5
330
1F
100
AcDbEntity
  8
0
  6
Continuous
 62
     7
370
     0
100
AcDbCircle
 10
265.8218661962
 20
23.8070876024
 30
0.0
 40
7.624545087952141
100
AcDbArc
 50
196.1166942107
 51
214.3123188368
  0
LINE
  5
2D6
330
1F
100
AcDbEntity
  8
0
  6
Continuous
 62
     7
370
     0
100
AcDbLine
 10
280.8762340497
 20
24.3125169871
 30
0.0
 11
281.6595226926
 21
23.8603340785
 31
0.0
  0
LINE
  5
2D7
330
1F
100
AcDbEntity
  8
0
  6
Continuous
 62
     7
370
     0
100
AcDbLine
 10
283.4218177597
 20
30.8946898408
 30
0.0
 11
283.9875035408
 21
30.5681263905
 31
0.0
  0
OLE2FRAME
  5
2D8
330
1F
100
AcDbEntity
  8
0
100
AcDbOle2Frame
 70
     2
  3
Paintbrush-Bild
 10
13.8511154363
 20
38.264191557
 30
0.0
 11
51.6290888628
 21
31.9806341108
 31
0.0
 71
     2
 72
     0
 73
     1
 90
    12928
310
80552BED0767C5B32B40DDAF6807D121434000000000000000006FFBDDFB85D0
310
4940DDAF6807D121434000000000000000006FFBDDFB85D04940416F4BD60AFB
310
3F4000000000000000002BED0767C5B32B40416F4BD60AFB3F40000000000000
310
0000000000000100000000010000010000000100000000000100000000320000
310
D0CF11E0A1B11AE1000000000000000000000000000000003E000300FEFF0900
310
0600000000000000000000000100000001000000000000000010000002000000
310
01000000FEFFFFFF0000000000000000FFFFFFFFFFFFFFFFFFFFFFFFFFFFFFFF
310
FFFFFFFFFFFFFFFFFFFFFFFFFFFFFFFFFFFFFFFFFFFFFFFFFFFFFFFFFFFFFFFF
310
FFFFFFFFFFFFFFFFFFFFFFFFFFFFFFFFFFFFFFFFFFFFFFFFFFFFFFFFFFFFFFFF
310
FFFFFFFFFFFFFFFFFFFFFFFFFFFFFFFFFFFFFFFFFFFFFFFFFFFFFFFFFFFFFFFF
310
FFFFFFFFFFFFFFFFFFFFFFFFFFFFFFFFFFFFFFFFFFFFFFFFFFFFFFFFFFFFFFFF
310
FFFFFFFFFFFFFFFFFFFFFFFFFFFFFFFFFFFFFFFFFFFFFFFFFFFFFFFFFFFFFFFF
310
FFFFFFFFFFFFFFFFFFFFFFFFFFFFFFFFFFFFFFFFFFFFFFFFFFFFFFFFFFFFFFFF
310
FFFFFFFFFFFFFFFFFFFFFFFFFFFFFFFFFFFFFFFFFFFFFFFFFFFFFFFFFFFFFFFF
310
FFFFFFFFFFFFFFFFFFFFFFFFFFFFFFFFFFFFFFFFFFFFFFFFFFFFFFFFFFFFFFFF
310
FFFFFFFFFFFFFFFFFFFFFFFFFFFFFFFFFFFFFFFFFFFFFFFFFFFFFFFFFFFFFFFF
310
FFFFFFFFFFFFFFFFFFFFFFFFFFFFFFFFFFFFFFFFFFFFFFFFFFFFFFFFFFFFFFFF
310
FFFFFFFFFFFFFFFFFFFFFFFFFFFFFFFFFFFFFFFFFFFFFFFFFFFFFFFFFFFFFFFF
310
FFFFFFFFFFFFFFFFFFFFFFFFFFFFFFFFFFFFFFFFFFFFFFFFFFFFFFFFFFFFFFFF
310
FFFFFFFFFFFFFFFFFFFFFFFFFFFFFFFFFFFFFFFFFFFFFFFFFFFFFFFFFFFFFFFF
310
FDFFFFFFFEFFFFFFFEFFFFFFFEFFFFFF05000000060000000700000008000000
310
090000000A0000000B0000000C0000000D0000000E0000000F00000010000000
310
11000000120000001300000014000000150000001600000017000000FEFFFFFF
310
FFFFFFFFFFFFFFFFFFFFFFFFFFFFFFFFFFFFFFFFFFFFFFFFFFFFFFFFFFFFFFFF
310
FFFFFFFFFFFFFFFFFFFFFFFFFFFFFFFFFFFFFFFFFFFFFFFFFFFFFFFFFFFFFFFF
310
FFFFFFFFFFFFFFFFFFFFFFFFFFFFFFFFFFFFFFFFFFFFFFFFFFFFFFFFFFFFFFFF
310
FFFFFFFFFFFFFFFFFFFFFFFFFFFFFFFFFFFFFFFFFFFFFFFFFFFFFFFFFFFFFFFF
310
FFFFFFFFFFFFFFFFFFFFFFFFFFFFFFFFFFFFFFFFFFFFFFFFFFFFFFFFFFFFFFFF
310
FFFFFFFFFFFFFFFFFFFFFFFFFFFFFFFFFFFFFFFFFFFFFFFFFFFFFFFFFFFFFFFF
310
FFFFFFFFFFFFFFFFFFFFFFFFFFFFFFFFFFFFFFFFFFFFFFFFFFFFFFFFFFFFFFFF
310
FFFFFFFFFFFFFFFFFFFFFFFFFFFFFFFFFFFFFFFFFFFFFFFFFFFFFFFFFFFFFFFF
310
FFFFFFFFFFFFFFFFFFFFFFFFFFFFFFFFFFFFFFFFFFFFFFFFFFFFFFFFFFFFFFFF
310
FFFFFFFFFFFFFFFFFFFFFFFFFFFFFFFFFFFFFFFFFFFFFFFFFFFFFFFFFFFFFFFF
310
FFFFFFFFFFFFFFFFFFFFFFFFFFFFFFFFFFFFFFFFFFFFFFFFFFFFFFFFFFFFFFFF
310
FFFFFFFFFFFFFFFFFFFFFFFFFFFFFFFFFFFFFFFFFFFFFFFFFFFFFFFFFFFFFFFF
310
FFFFFFFFFFFFFFFFFFFFFFFFFFFFFFFFFFFFFFFFFFFFFFFFFFFFFFFFFFFFFFFF
310
52006F006F007400200045006E00740072007900000000000000000000000000
310
0000000000000000000000000000000000000000000000000000000000000000
310
16000500FFFFFFFFFFFFFFFF020000000A00030000000000C000000000000046
310
000000000000000000000000D0FA4BE099FFD10103000000C000000000000000
310
01004F006C006500000000000000000000000000000000000000000000000000
310
0000000000000000000000000000000000000000000000000000000000000000
310
0A000200FFFFFFFFFFFFFFFFFFFFFFFF00000000000000000000000000000000
310
0000000000000000000000000000000000000000000000001400000000000000
310
010043006F006D0070004F0062006A0000000000000000000000000000000000
310
0000000000000000000000000000000000000000000000000000000000000000
310
120002010100000003000000FFFFFFFF00000000000000000000000000000000
310
0000000000000000000000000000000000000000010000004D00000000000000
310
01004F006C006500310030004E00610074006900760065000000000000000000
310
0000000000000000000000000000000000000000000000000000000000000000
310
1A000200FFFFFFFFFFFFFFFFFFFFFFFF00000000000000000000000000000000
310
0000000000000000000000000000000000000000040000002426000000000000
310
FEFFFFFF02000000FEFFFFFFFFFFFFFFFFFFFFFFFFFFFFFFFFFFFFFFFFFFFFFF
310
FFFFFFFFFFFFFFFFFFFFFFFFFFFFFFFFFFFFFFFFFFFFFFFFFFFFFFFFFFFFFFFF
310
FFFFFFFFFFFFFFFFFFFFFFFFFFFFFFFFFFFFFFFFFFFFFFFFFFFFFFFFFFFFFFFF
310
FFFFFFFFFFFFFFFFFFFFFFFFFFFFFFFFFFFFFFFFFFFFFFFFFFFFFFFFFFFFFFFF
310
FFFFFFFFFFFFFFFFFFFFFFFFFFFFFFFFFFFFFFFFFFFFFFFFFFFFFFFFFFFFFFFF
310
FFFFFFFFFFFFFFFFFFFFFFFFFFFFFFFFFFFFFFFFFFFFFFFFFFFFFFFFFFFFFFFF
310
FFFFFFFFFFFFFFFFFFFFFFFFFFFFFFFFFFFFFFFFFFFFFFFFFFFFFFFFFFFFFFFF
310
FFFFFFFFFFFFFFFFFFFFFFFFFFFFFFFFFFFFFFFFFFFFFFFFFFFFFFFFFFFFFFFF
310
FFFFFFFFFFFFFFFFFFFFFFFFFFFFFFFFFFFFFFFFFFFFFFFFFFFFFFFFFFFFFFFF
310
FFFFFFFFFFFFFFFFFFFFFFFFFFFFFFFFFFFFFFFFFFFFFFFFFFFFFFFFFFFFFFFF
310
FFFFFFFFFFFFFFFFFFFFFFFFFFFFFFFFFFFFFFFFFFFFFFFFFFFFFFFFFFFFFFFF
310
FFFFFFFFFFFFFFFFFFFFFFFFFFFFFFFFFFFFFFFFFFFFFFFFFFFFFFFFFFFFFFFF
310
FFFFFFFFFFFFFFFFFFFFFFFFFFFFFFFFFFFFFFFFFFFFFFFFFFFFFFFFFFFFFFFF
310
FFFFFFFFFFFFFFFFFFFFFFFFFFFFFFFFFFFFFFFFFFFFFFFFFFFFFFFFFFFFFFFF
310
FFFFFFFFFFFFFFFFFFFFFFFFFFFFFFFFFFFFFFFFFFFFFFFFFFFFFFFFFFFFFFFF
310
FFFFFFFFFFFFFFFFFFFFFFFFFFFFFFFFFFFFFFFFFFFFFFFFFFFFFFFFFFFFFFFF
310
0100000200000000000000000000000000000000000000000000000000000000
310
0000000000000000000000000000000000000000000000000000000000000000
310
0100FEFF030A0000FFFFFFFF0A00030000000000C00000000000004607000000
310
5042727573680007000000504272757368000700000050427275736800F439B2
310
7100000000000000000000000000000000000000000000000000000000000000
310
0000000000000000000000000000000000000000000000000000000000000000
310
0000000000000000000000000000000000000000000000000000000000000000
310
0000000000000000000000000000000000000000000000000000000000000000
310
0000000000000000000000000000000000000000000000000000000000000000
310
0000000000000000000000000000000000000000000000000000000000000000
310
0000000000000000000000000000000000000000000000000000000000000000
310
0000000000000000000000000000000000000000000000000000000000000000
310
0000000000000000000000000000000000000000000000000000000000000000
310
0000000000000000000000000000000000000000000000000000000000000000
310
0000000000000000000000000000000000000000000000000000000000000000
310
0000000000000000000000000000000000000000000000000000000000000000
310
20260000424D0E260000000000003E00000028000000B40200006E0000000100
310
01000000000000000000130B0000130B00000200000002000000000000FFFFFF
310
FFFFFFFFFFFFFFFFFFFFFFFFFFFFFFFFFFFFFFFFFFFFFFFFFFFFFFFFFFFFFFFF
310
FFFFFFFFFFFFFFFFFFFFFFFFFFFFFFFFFFFFFFFFFFFFFFFFFFFFFFFFFFFFFFFF
310
FFFFFFFFFFFFFFFFFFFFFFFFFFFFFFFFFFFFFFFFFFFFFFFFF000FFFFFFFFFFFF
310
FFFFFFFFFFFFFFFFFFFFFFFFFFFFFFFFFFFFFFFFFFFFFFFFFFFFFFFFFFFFFFFF
310
FFFFFFFFFFFFFFFFFFFFFFFFFFFFFFFFFFFFFFFFFFFFFFFFFFFFFFFFFFFFFFFF
310
FFFFFFFFFFFFFFFFFFFFFFFFFFFFFFFFF000FFFFFFFFFFFFFFFFFFFFFFFFFFFF
310
FFFFFFFFFFFFFFFFFFFFFFFFFFFFFFFFFFFFFFFFFFFFFFFFFFFFFFFFFFFFFFFF
310
FFFFFFFFFFFFFFFFFFFFFFFFFFFFFFFFFFFFFFFFFFFFFFFFFFFFFFFFFFFFFFFF
310
FFFFFFFFFFFFFFFFF000FFFFFFFFFFFFFFFFFFFFFFFFFFFFFFFFFFFFFFFFFFFF
310
FFFFFFFFFFFFFFFFFFFFFFFFFFFFFFFFFFFFFFFFFFFFFFFFFFFFFFFFFFFFFFFF
310
FFFFFFFFFFFFFFFFFFFFFFFFFFFFFFFFFFFFFFFFFFFFFFFFFFFFFFFFFFFFFFFF
310
F000FFFFFFFFFFFFFFFFFFFFFFFFFFFFFFFFFFFFFFFFFFFFFFFFFFFFFFFFFFFF
310
FFFFFFFFFFFFFFFFFFFFFFFFFFFFFFFFFFFFFFFFFFFFFFFFFFFFFFFFFFFFFFFF
310
FFFFFFFFFFFFFFFFFFFFFFFFFFFFFFFFFFFFFFFFFFFFFFFFF000FFFFFFFFFFFF
310
FFFFFFFFFFFFFFFFFFFFFFFFFFFFFFFFFFFFFFFFFFFFFFFFFFFFFFFFFFFFFFFF
310
FFFFFFFFFFFFFFFFFFFFFFFFFFFFFFFFFFFFFFFFFFFFFFFFFFFFFFFFFFFFFFFF
310
FFFFFFFFFFFFFFFFFFFFFFFFFFFFFFFFF000FFFFFFFFFFFFFFFFFFFFFFFFFFFF
310
FFFFFFFFFFFFFFFFFFFFFFFFFFFFFFFFFFFFFFFFFFFFFFFFFFFFFFFFFFFFFFFF
310
FFFFFFFFFFFFFFFFFFFFFFFFFFFFFFFFFFFFFFFFFFFFFFFFFFFFFFFFFFFFFFFF
310
FFFFFFFFFFFFFFFFF000FFFFFFFFFFFFFFFFFFFFFFFFFFFFFFFFFFFFFFFFFFFF
310
FFFFFFFFFFFFFFFFFFFFFFFFFFFFFFFFFFFFFFFFFFFFFFFFFFFFFFFFFFFFFFFF
310
FFFFFFFFFFFFFFFFFFFFFFFFFFFFFFFFFFFFFFFFFFFFFFFFFFFFFFFFFFFFFFFF
310
F000FFFFFFFFFFFFFFFFFFFFFFFFFFFFFFFFFFFFFFFFFFFFFFFFFFFFFFFFFFFF
310
FFFFFFFFFFFFFFFFFFFFFFFFFFFFFFFFFFFFFFFFFFFFFFFFFFFFFFFFFFFFFFFF
310
FFFFFFFFFFFFFFFFFFFFFFFFFFFFFFFFFFFFFFFFFFFFFFFFF000FFFFFFFFFFFF
310
FFFFFFFFFFFFFFFFFFFFFFFFFFFFFFFFFFFFFFFFFFFFFFFFFFFFFFFFFFFFFFFF
310
FFFFFFFFFFFFFFFFFFFFFFFFFFFFFFFFFFFFFFFFFFFFFFFFFFFFFFFFFFFFFFFF
310
FFFFFFFFFFFFFFFFFFFFFFFFFFFFFFFFF000FFFFFFFFFFFFFFFFFFFFFFFFFFFF
310
FFFFFFFFFFFFFFFFFFFFFFFFFFFFFFFFFFFFFFFFFFFFFFFFFFFFFFFFFFFFFFFF
310
FFFFFFFFFFFFFFFFFFFFFFFFFFFFFFFFFFFFFFFFFFFFFFFFFFFFFFFFFFFFFFFF
310
FFFFFFFFFFFFFFFFF000FFFFFFFFFFFFFFFFFFFFFFFFFFFFFFFFFFFFFFFFFFFF
310
FFFFFFFFFFFFFFFFFFFFFFFFFFFFFFFFFFFFFFFFFFFFFFFFFFFFFFFFFFFFFFFF
310
FFFFFFFFFFFFFFFFFFFFFFFFFFFFFFFFFFFFFFFFFFFFFFFFFFFFFFFFFFFFFFFF
310
F000FFFFFFFFFFFFFFFFFFFFFFFFFFFFFFFFFFFFFFFFFFFFFFFFFFFFFFFFFFFF
310
FFFFFFFFFFFFFFFFFFFFFFFFFFFFFFFFFFFFFFFFFFFFFFFFFFFFFFFFFFFFFFFF
310
FFFFFFFFFFFFFFFFFFFFFFFFFFFFFFFFFFFFFFFFFFFFFFFFF000FFFFFFFFFFFF
310
FFFFFFFFFFFFFFFFFFFFFFFFFFFFFFFFFFFFFFFFFFFFFFFFFFFFFFFFFFFFFFFF
310
FFFFFFFFFFFFFFFFFFFFFFFFFFFFFFFFFFFFFFFFFFFFFFFFFFFFFFFFFFFFFFFF
310
FFFFFFFFFFFFFFFFFFFFFFFFFFFFFFFFF000FFFFFFFFFFFFFFFFFFFFFFFFFFFF
310
FFFFFFFFFFFFFFFFFFFFFFFFFFFFFFFFFFFFFFFFFFFFFFFFFFFFFFFFFFFFFFFF
310
FFFFFFFFFFFFFFFFFFFFFFFFFFFFFFFFFFFFFFFFFFFFFFFFFFFFFFFFFFFFFFFF
310
FFFFFFFFFFFFFFFFF000FFFFFFFFFFFFFFFFFFFFFFFFFFFFFFFFFFFFFFFFFFFF
310
FFFFFFFFFFFFFFFFFFFFFFFFFFFFFFFFFFFFFFFFFFFFFFFFFFFFFFFFFFFFFFFF
310
FFFFFFFFFFFFFFFFFFFFFFFFFFFFFFFFFFFFFFFFFFFFFFFFFFFFFFFFFFFFFFFF
310
F000FFFFFFFFFFFFFFFFFFFFFFFFFFFFFFFFFFFFFFFFFFFFFFFFFFFFFFFFFFFF
310
FFFFFFFFFFFFFFFFFFFFFFFFFFFFFFFFFFFFFFFFFFFFFFFFFFFFFFFFFFFFFFFF
310
FFFFFFFFFFFFFFFFFFFFFFFFFFFFFFFFFFFFFFFFFFFFFFFFF000FFFFFFFFFFFF
310
FFFFFFFFFFFFFFFFFFFFFFFFFFFFFFFFFFFFFFFFFFFFFFFFFFFFFFFFFFFFFFFF
310
FFFFFFFFFFFFFFFFFFFFFFFFFFFFFFFFFFFFFFFFFFFFFFFFFFFFFFFFFFFFFFFF
310
FFFFFFFFFFFFFFFFFFFFFFFFFFFFFFFFF000FFFFFFFFFFFFFFFFFFFFFFFFFFFF
310
FFFFFFFFFFFFFFFFFFFFFFFFFFFFFFFFFFFFFFFFFFFFFFFFFFFFFFFFFFFFFFFF
310
FFFFFFFFFFFFFFFFFFFFFFFFFFFFFFFFFFFFFFFFFFFFFFFFFFFFFFFFFFFFFFFF
310
FFFFFFFFFFFFFFFFF000FFFFF80003FFFFFFFFFFFFFFFFFFFFFFFFFFFFFFFFFF
310
FFFFF00007FFFFFFFFFF00007FFFFFF800000000000000007FFFFFFFFFFFFFFF
310
FFFFFFFC001FFFFFFFFFFFFFFC001FFFFFFFFFFFFFFFFFFFFFFFFFFE0007FFFF
310
F000FFFF8000007FFFFFFFF8000FFFFFC0007FFFFF80007FFFFF0000007FFFFF
310
FFF8000007FFFFF800000000000000007FFFFFF0001FFFFFFFFFFFC00001FFFF
310
FFFFFFFFC00001FFFFFFFF000000000003FFFFE000007FFFF000FFFE0000000F
310
FFFFFFF0000FFFFF80007FFFFF80007FFFFC0000001FFFFFFFC0000001FFFFF8
310
00000000000000007FFFFFF0001FFFFFFFFFFE0000003FFFFFFFFFFE0000003F
310
FFFFFF000000000003FFFF0000000FFFF000FFF800000003FFFFFFF00007FFFF
310
80007FFFFF80007FFFF000000007FFFFFF000000003FFFF80000000000000000
310
7FFFFFF0001FFFFFFFFFF80000000FFFFFFFFFF80000000FFFFFFF0000000000
310
03FFFC00000003FFF000FFE000000000FFFFFFF00007FFFF80003FFFFF80007F
310
FFC000000001FFFFFC000000001FFFF800000000000000007FFFFFF0001FFFFF
310
FFFFE000000003FFFFFFFFE000000003FFFFFF000000000003FFF000000000FF
310
F000FF80000000007FFFFFF00007FFFF80003FFFFF80007FFF8000000000FFFF
310
F80000000007FFF800000000000000007FFFFFF0001FFFFFFFFFC000000001FF
310
FFFFFFC000000001FFFFFF000000000003FFC0000000007FF000FF0000000000
310
3FFFFFE00007FFFF00003FFFFF80007FFE00000000003FFFF00000000003FFF8
310
00000000000000007FFFFFF0001FFFFFFFFF8000000000FFFFFFFF8000000000
310
FFFFFF000000000003FF80000000003FF000FE00000000001FFFFFE00003FFFF
310
00003FFFFF80007FFC00000000001FFFE00000000001FFF8000001FFFE000000
310
7FFFFFF0001FFFFFFFFE00000000003FFFFFFE00000000003FFFFF0000000000
310
03FF00000000001FF000FC00000000000FFFFFE00003FFFF00001FFFFF80007F
310
F800000000001FFFC00000000000FFF8000001FFFE0000007FFFFFF0001FFFFF
310
FFFC00000000001FFFFFFC00000000001FFFFF000000000003FE00000000000F
310
F000F8000000000007FFFFE00003FFFF00001FFFFF80007FF800000000000FFF
310
800000000000FFF8000001FFFE0000007FFFFFF0001FFFFFFFF800000000000F
310
FFFFF800000000000FFFFF000000000003FC000000000007F000F80000000000
310
03FFFFC00003FFFE00001FFFFF80007FF0000000000007FF0000000000007FF8
310
000001FFFE0000007FFFFFF0001FFFFFFFF0000000000007FFFFF00000000000
310
07FFFF000000000003F8000000000003F000F0000000000003FFFFC00001FFFE
310
00001FFFFF80007FE0000000000007FE0000000000003FF8000001FFFE000000
310
7FFFFFF0001FFFFFFFF0000000000007FFFFF0000000000007FFFF0000000000
310
03F800001F800003F000E00001FFF00001FFFFC00001FFFE00000FFFFF80007F
310
E00001FFE00003FE00001FFF00003FF8000001FFFE0000007FFFFFF0001FFFFF
310
FFE000003E000003FFFFE000003E000003FFFF000000000003F00001FFF80001
310
F000E00007FFFC0001FFFFC00001FFFE00000FFFFF80007FC0000FFFFC0003FC
310
0000FFFFC0001FF8000001FFFE0000007FFFFFF0001FFFFFFFC00003FFE00001
310
FFFFC00003FFE00001FFFF0001FFFFFFFFF00007FFFE0001F000E0000FFFFF00
310
00FFFF800001FFFC00000FFFFF80007FC0001FFFFE0001FC0001FFFFE0001FF8
310
000001FFFE0000007FFFFFF0001FFFFFFF80000FFFF80000FFFF80000FFFF800
310
00FFFF0003FFFFFFFFE0000FFFFF8000F000C0003FFFFF8000FFFF800000FFFC
310
000007FFFF80007F80003FFFFF0001FC0003FFFFF0001FF8000001FFFE000000
310
7FFFFFF0001FFFFFFF80003FFFFE0000FFFF80003FFFFE0000FFFF0003FFFFFF
310
FFE0003FFFFF8000F000C0003FFFFF8000FFFF800000FFFC000007FFFF80007F
310
80007FFFFF8001F80007FFFFF8000FF8000001FFFE0000007FFFFFF0001FFFFF
310
FF00007FFFFF00007FFF00007FFFFF00007FFF0003FFFFFFFFE0003FFFFFC000
310
F000C0007FFFFFC000FFFF000000FFFC000007FFFF80007F8000FFFFFF8000F8
310
000FFFFFF8000FF8000001FFFE0000007FFFFFF0001FFFFFFF0000FFFFFF8000
310
7FFF0000FFFFFF80007FFF0003FFFFFFFFC0007FFFFFC00070008000FFFFFFC0
310
00FFFF000000FFF8000007FFFF80007F8000FFFFFF8000F8000FFFFFF8000FF8
310
000001FFFE0000007FFFFFF0001FFFFFFE0001FFFFFFC0003FFE0001FFFFFFC0
310
003FFF0003FFFFFFFFC0007FFFFFE00070008000FFFFFFC0007FFF0000007FF8
310
000003FFFF80007F0001FFFFFF8000F8000FFFFFF8000FF8000001FFFE000000
310
7FFFFFF0001FFFFFFE0001FFFFFFC0003FFE0001FFFFFFC0003FFF0003FFFFFF
310
FFC000FFFFFFE00070008000FFFFFFC0007FFF0000007FF8000003FFFF80007F
310
0001FFFFFF8000F8001FFFFFF8000FF8000001FFFE0000007FFFFFF0001FFFFF
310
FE0003FFFFFFE0003FFE0003FFFFFFE0003FFF0003FFFFFFFFC000FFFFFFE000
310
70008000FFFFFFC0007FFE0000007FF8000003FFFF80007F0001FFFFFF8000F0
310
001FFFFFF8000FF8000001FFFE0000007FFFFFF0001FFFFFFC0003FFFFFFE000
310
1FFC0003FFFFFFE0001FFF0003FFFFFFFFC000FFFFFFC00070008000FFFFFF80
310
007FFE0000007FF0000003FFFF80007F0001FFFFFF0000F0001FFFFFF8000FF8
310
000001FFFE0000007FFFFFF0001FFFFFFC0007FFFFFFF0001FFC0007FFFFFFF0
310
001FFF0003FFFFFFFFC000FFFFFFC00070008001FFFFFF0000FFFE0000003FF0
310
000001FFFF80007F0001FFFFFF0000F8001FFFFFF0000FF8000001FFFE000000
310
7FFFFFF0001FFFFFFC0007FFFFFFF0001FFC0007FFFFFFF0001FFF0003FFFFFF
310
FFC001FFFFFF80007000FFFFFFFFFE0000FFFE0008003FF0008001FFFF80007F
310
FFFFFFFFFC0000FFFFFFFFFFE0000FF8000001FFFE0000007FFFFFF0001FFFFF
310
F8000FFFFFFFF8000FF8000FFFFFFFF8000FFF0003FFFFFFFFFFFFFFFFFF0000
310
7000FFFFFFFFFC0000FFFC0008003FF0008001FFFF80007FFFFFFFFFF80001FF
310
FFFFFFFF80000FF8000001FFFE0000007FFFFFF0001FFFFFF8000FFFFFFFF800
310
0FF8000FFFFFFFF8000FFF0003FFFFFFFFFFFFFFFFFE0000F000FFFFFFFFE000
310
00FFFC000C003FE000C001FFFF80007FFFFFFFFFC00001FFFFFFFFFE00001FF8
310
000001FFFE0000007FFFFFF0001FFFFFF8000FFFFFFFF8000FF8000FFFFFFFF8
310
000FFF0003FFFFFFFFFFFFFFFFF00000F000FFFFFFFE000001FFFC000C001FE0
310
00C000FFFF80007FFFFFFFFE000001FFFFFFFFE000001FF80FFFFFFFFFFFFFC0
310
7FFFFFF0001FFFFFF8000FFFFFFFF8000FF8000FFFFFFFF8000FFF0003FFFFFF
310
FFFFFFFFFF800000F000FFFFFFC0000001FFFC001C001FE001C000FFFF80007F
310
FFFFFF80000003FFFFFFF80000001FF80FFFFFFFFFFFFFC07FFFFFF0001FFFFF
310
F8001FFFFFFFFC000FF8001FFFFFFFFC000FFF0003FFFFFFFFFFFFFFF0000001
310
F000FFFFF800000001FFF8001C001FE001C000FFFF80007FFFFFF800000003FF
310
FFFF800000003FF80FFFFFFFFFFFFFC07FFFFFF0001FFFFFF8001FFFFFFFFC00
310
0FF8001FFFFFFFFC000FFF0003FFFFFFFFFFFFFE00000001F000FFFFC0000000
310
03FFF8001E001FC001E000FFFF80007FFFFF8000000007FFFFFC000000003FF8
310
0FFFFFFFFFFFFFC07FFFFFF0001FFFFFF8001FFFFFFFFC000FF8001FFFFFFFFC
310
000FFF0003FFFFFFFFFFFFE000000003F000FFFE0000000007FFF8001E000FC0
310
01E0007FFF80007FFFFE0000000007FFFFE0000000007FF80FFFFFFFFFFFFFC0
310
7FFFFFF0001FFFFFF0001FFFFFFFFC0007F0001FFFFFFFFC0007FF0003FFFFFF
310
FFFFFF0000000003F000FFF80000000007FFF8001E000FC003E0007FFF80007F
310
FFF0000000000FFFFF8000000000FFF80FFFFFFFFFFFFFC07FFFFFF0001FFFFF
310
F0001FFFFFFFFC0007F0001FFFFFFFFC0007FF0003FFFFFFFFFFFC0000000007
310
F000FFE0000000000FFFF0003E000FC003E0007FFF80007FFFC0000000001FFF
310
FE0000000001FFF80FFFFFFFFFFFFFC07FFFFFF0001FFFFFF0001FFFFFFFFC00
310
07F0001FFFFFFFFC0007FF0003FFFFFFFFFFF0000000000FF000FFC000000000
310
1FFFF0003F000F8003F0003FFF80007FFF80000000003FFFF80000000003FFF8
310
0FFFFFFFFFFFFFC07FFFFFF0001FFFFFF0001FFFFFFFFC0007F0001FFFFFFFFC
310
0007FF0003FFFFFFFFFFE0000000001FF000FF00000000007FFFF0003F000780
310
03F0003FFF80007FFF00000000007FFFF00000000007FFF80FFFFFFFFFFFFFC0
310
7FFFFFF0001FFFFFF0001FFFFFFFFC0007F0001FFFFFFFFC0007FF0003FFFFFF
310
FFFF80000000007FF000FE0000000000FFFFE0003F00078007F0003FFF80007F
310
FE0000000001FFFFE0000000001FFFF80FFFFFFFFFFFFFC07FFFFFF0001FFFFF
310
F0001FFFFFFFFC0007F0001FFFFFFFFC0007FF0003FFFFFFFFFF0000000000FF
310
F000FC0000000003FFFFE0007F00078007F0003FFF80007FFC0000000007FFFF
310
C0000000007FFFF80FFFFFFFFFFFFFC07FFFFFF0001FFFFFF8001FFFFFFFFC00
310
0FF8001FFFFFFFFC000FFF0003FFFFFFFFFE0000000003FFF000FC000000000F
310
FFFFE0007F80070007F8001FFF80007FF8000000001FFFFF8000000001FFFFF8
310
0FFFFFFFFFFFFFC07FFFFFF0001FFFFFF8001FFFFFFFFC000FF8001FFFFFFFFC
310
000FFF0003FFFFFFFFFC000000000FFFF000F8000000007FFFFFE0007F800700
310
07F8001FFF80007FF000000000FFFFFF800000000FFFFFF80FFFFFFFFFFFFFC0
310
7FFFFFF0001FFFFFF8000FFFFFFFF8000FF8000FFFFFFFF8000FFF0003FFFFFF
310
FFFC000000007FFFF000F800000007FFFFFFC0007F8003000FF8001FFF80007F
310
F000000007FFFFFF000000007FFFFFF80FFFFFFFFFFFFFC07FFFFFF0001FFFFF
310
F8000FFFFFFFF8000FF8000FFFFFFFF8000FFF0003FFFFFFFFF80000000FFFFF
310
F000F0000000FFFFFFFFC000FF8003000FF8001FFF80007FE0000000FFFFFFFF
310
0000000FFFFFFFF8000001FFFE0000007FFFFFF0001FFFFFF8000FFFFFFFF800
310
0FF8000FFFFFFFF8000FFF0003FFFFFFFFF8000000FFFFFFF000F000000FFFFF
310
FFFFC000FFC002000FF8000FFF80007FE000001FFFFFFFFE000001FFFFFFFFF8
310
000001FFFE0000007FFFFFF0001FFFFFF8000FFFFFFFF8000FF8000FFFFFFFF8
310
000FFF0003FFFFFFFFF000001FFFFFFFF000E00000FFFFFFFFFFC000FFC00200
310
0FFC000FFF80007FE00001FFFFFFFFFE00001FFFFFFFFFF8000001FFFE000000
310
7FFFFFF0001FFFFFFC000FFFFFFFF8001FFC000FFFFFFFF8001FFF0003FFFFFF
310
FFF00001FFFFFFFFF000E00007FFFFFFFFFF8000FFC000001FFC000FFF80007F
310
C0000FFFFFFFFFFE0000FFFFFFFFFFF8000001FFFE0000007FFFFFF0001FFFFF
310
FC0007FFFFFFF0001FFC0007FFFFFFF0001FFF0003FFFFFFFFF00007FFFFFFFF
310
F000E0001FFFFFFFFFFF8000FFC000001FFC000FFF80007FC0003FFFFFFFFFFE
310
0001FFFFFFFFFFF8000001FFFE0000007FFFFFF0001FFFFFFC0007FFFFFFF000
310
1FFC0007FFFFFFF0001FFF0003FFFFFFFFF0001FFFFFFFFFF000E0003FFFFF00
310
03FF8001FFE000001FFC0007FF80007FC0007FFFFF0007FC0003FFFFF0003FF8
310
000001FFFE0000007FFFFFF0001FFFFFFC0003FFFFFFE0001FFC0003FFFFFFE0
310
001FFF0003FFFFFFFFF0003FFFFFFFFFF000E0003FFFFF0001FF8001FFE00000
310
1FFE0007FF80007FC0007FFFFE0003FC0007FFFFE0003FF8000001FFFE000000
310
7FFFFFF0001FFFFFFE0003FFFFFFE0003FFE0003FFFFFFE0003FFF0003FFFFFF
310
FFF0003FFFFF8001F000E0003FFFFF0001FF0001FFE000001FFE0007FF80007F
310
C0007FFFFE0003FC0007FFFFE0003FF8000001FFFE0000007FFFFFF0001FFFFF
310
FE0001FFFFFFC0003FFE0001FFFFFFC0003FFF0003FFFFFFFFF0003FFFFF0001
310
F000E0003FFFFF0003FF0001FFE000003FFE0007FF80007FC0007FFFFE0003FC
310
0007FFFFE0003FF8000001FFFE0000007FFFFFF0001FFFFFFF0001FFFFFFC000
310
7FFF0001FFFFFFC0007FFF0003FFFFFFFFF0003FFFFF0001F000E0003FFFFE00
310
03FF0003FFF000003FFE0003FF80007FC0007FFFFC0003FE0007FFFFE0003FF8
310
000001FFFE0000007FFFFFF0001FFFFFFF0000FFFFFF80007FFF0000FFFFFF80
310
007FFF0003FFFFFFFFF0003FFFFF0001F000E0003FFFFE0003FF0003FFF00000
310
3FFF0003FF80007FC0007FFFFC0007FE0007FFFFC0003FF8000001FFFE000000
310
7FFFFFF0001FFFFFFF80007FFFFF0000FFFF80007FFFFF0000FFFF0003FFFFFF
310
FFF0003FFFFF0003F000E0003FFFFC0003FE0003FFF000003FFF0003FF80007F
310
E0003FFFF80007FE0003FFFFC0007FF8000001FFFE0000007FFFFFF0001FFFFF
310
FF80003FFFFE0000FFFF80003FFFFE0000FFFF0003FFFFFFFFF0001FFFFE0003
310
F000F0001FFFF80003FE0003FFF000007FFF0001FF80007FE0003FFFF00007FE
310
0001FFFF80007FF8000001FFFE0000007FFFFFF0001FFFFFFFC0000FFFF80001
310
FFFFC0000FFFF80001FFFF0003FFFFFFFFF0001FFFFC0003F000F0000FFFF000
310
07FE0007FFF800007FFF0001FF80007FE0001FFFE00007FF0000FFFE00007FF8
310
000001FFFE0000007FFFFFF0001FFFFFFFC00003FFE00001FFFFC00003FFE000
310
01FFFF0003FFFFFFFFF8000FFFF80003F000F00003FFC00007FC0007FFF80000
310
7FFF8001FF80007FF00007FF80000FFF00007FF80000FFF8000001FFFE000000
310
7F80000000000001FFE000003E000003FFFFE000003E000003FFFF0003FFFFFF
310
FFF80003FFE00007F000F800000000000FFC0007FFF800007FFF8001FF80007F
310
F000000000000FFF000000000000FFF8000001FFFE0000007F80000000000001
310
FFF0000000000007FFFFF0000000000007FFFF0003FFFFFFFFFC00007E000007
310
F000F800000000000FFC0007FFF80000FFFF8000FF80007FF800000000001FFF
310
800000000001FFF8000001FFFE0000007F80000000000001FFF800000000000F
310
FFFFF800000000000FFFFF0003FFFFFFFFFC00000000000FF000FC0000000000
310
1FFC0007FFFC0000FFFF8000FF80007FF800000000003FFFC00000000001FFF8
310
000001FFFE0000007F80000000000001FFF800000000000FFFFFF80000000000
310
0FFFFF0003FFFFFFFFFE00000000001FF000FE00000000003FF8000FFFFC0000
310
FFFF8000FF80007FFC00000000003FFFC00000000003FFF8000001FFFE000000
310
7F80000000000001FFFC00000000001FFFFFFC00000000001FFFFF0003FFFFFF
310
FFFF00000000001FF000FF00000000003FF8000FFFFC0000FFFFC000FF80007F
310
FE00000000007FFFE00000000007FFF8000001FFFE0000007F80000000000001
310
FFFE00000000003FFFFFFE00000000003FFFFF0003FFFFFFFFFF80000000003F
310
F000FF80000000007FF8000FFFFC0001FFFFC0007F80007FFF0000000000FFFF
310
F0000000000FFFF800000000000000007F80000000000001FFFF8000000000FF
310
FFFFFF8000000000FFFFFF0003FFFFFFFFFFC0000000007FF000FFC000000000
310
FFF8000FFFFE0001FFFFC0007F80007FFF8000000001FFFFF8000000001FFFF8
310
00000000000000007F80000000000001FFFFC000000001FFFFFFFFC000000001
310
FFFFFF0003FFFFFFFFFFE000000000FFF000FFE000000003FFF0001FFFFE0001
310
FFFFC0007F80007FFFC000000007FFFFFE000000003FFFF80000000000000000
310
7F80000000000001FFFFE000000003FFFFFFFFE000000003FFFFFF0003FFFFFF
310
FFFFF000000003FFF000FFF80000000FFFF0001FFFFE0001FFFFE0007F80007F
310
FFF00000000FFFFFFF00000000FFFFF800000000000000007F80000000000001
310
FFFFF80000000FFFFFFFFFF80000000FFFFFFF0003FFFFFFFFFFFC0000000FFF
310
F000FFFE0000003FFFF0001FFFFE0003FFFFE0003F80007FFFFC0000003FFFFF
310
FFC0000003FFFFF800000000000000007F80000000000001FFFFFE0000003FFF
310
FFFFFFFE0000003FFFFFFF0003FFFFFFFFFFFF0000003FFFF000FFFF800000FF
310
FFF0001FFFFF0003FFFFE0003F80007FFFFF000001FFFFFFFFF800001FFFFFF8
310
00000000000000007F80000000000001FFFFFFC00001FFFFFFFFFFFFC00001FF
310
FFFFFF0003FFFFFFFFFFFFC00000FFFFF000FFFFF8000FFFFFFFFFFFFFFFFFFF
310
FFFFFFFFFFFFFFFFFFFFF0001FFFFFFFFFFF0000FFFFFFF80000000000000000
310
7FFFFFFFFFFFFFFFFFFFFFFC001FFFFFFFFFFFFFFC001FFFFFFFFFFFFFFFFFFF
310
FFFFFFFC001FFFFFF000FFFFFFFFFFFFFFFFFFFFFFFFFFFFFFFFFFFFFFFFFFFF
310
FFFFFFFFFFFFFFFFFFFFFFFFFFFFFFFFFFFFFFFFFFFFFFFFFFFFFFFFFFFFFFFF
310
FFFFFFFFFFFFFFFFFFFFFFFFFFFFFFFFFFFFFFFFFFFFFFFFFFFFFFFFFFFFFFFF
310
F000FFFFFFFFFFFFFFFFFFFFFFFFFFFFFFFFFFFFFFFFFFFFFFFFFFFFFFFFFFFF
310
FFFFFFFFFFFFFFFFFFFFFFFFFFFFFFFFFFFFFFFFFFFFFFFFFFFFFFFFFFFFFFFF
310
FFFFFFFFFFFFFFFFFFFFFFFFFFFFFFFFFFFFFFFFFFFFFFFFF000FFFFFFFFFFFF
310
FFFFFFFFFFFFFFFFFFFFFFFFFFFFFFFFFFFFFFFFFFFFFFFFFFFFFFFFFFFFFFFF
310
FFFFFFFFFFFFFFFFFFFFFFFFFFFFFFFFFFFFFFFFFFFFFFFFFFFFFFFFFFFFFFFF
310
FFFFFFFFFFFFFFFFFFFFFFFFFFFFFFFFF000FFFFFFFFFFFFFFFFFFFFFFFFFFFF
310
FFFFFFFFFFFFFFFFFFFFFFFFFFFFFFFFFFFFFFFFFFFFFFFFFFFFFFFFFFFFFFFF
310
FFFFFFFFFFFFFFFFFFFFFFFFFFFFFFFFFFFFFFFFFFFFFFFFFFFFFFFFFFFFFFFF
310
FFFFFFFFFFFFFFFFF000FFFFFFFFFFFFFFFFFFFFFFFFFFFFFFFFFFFFFFFFFFFF
310
FFFFFFFFFFFFFFFFFFFFFFFFFFFFFFFFFFFFFFFFFFFFFFFFFFFFFFFFFFFFFFFF
310
FFFFFFFFFFFFFFFFFFFFFFFFFFFFFFFFFFFFFFFFFFFFFFFFFFFFFFFFFFFFFFFF
310
F000FFFFFFFFFFFFFFFFFFFFFFFFFFFFFFFFFFFFFFFFFFFFFFFFFFFFFFFFFFFF
310
FFFFFFFFFFFFFFFFFFFFFFFFFFFFFFFFFFFFFFFFFFFFFFFFFFFFFFFFFFFFFFFF
310
FFFFFFFFFFFFFFFFFFFFFFFFFFFFFFFFFFFFFFFFFFFFFFFFF000FFFFFFFFFFFF
310
FFFFFFFFFFFFFFFFFFFFFFFFFFFFFFFFFFFFFFFFFFFFFFFFFFFFFFFFFFFFFFFF
310
FFFFFFFFFFFFFFFFFFFFFFFFFFFFFFFFFFFFFFFFFFFFFFFFFFFFFFFFFFFFFFFF
310
FFFFFFFFFFFFFFFFFFFFFFFFFFFFFFFFF000FFFFFFFFFFFFFFFFFFFFFFFFFFFF
310
FFFFFFFFFFFFFFFFFFFFFFFFFFFFFFFFFFFFFFFFFFFFFFFFFFFFFFFFFFFFFFFF
310
FFFFFFFFFFFFFFFFFFFFFFFFFFFFFFFFFFFFFFFFFFFFFFFFFFFFFFFFFFFFFFFF
310
FFFFFFFFFFFFFFFFF000FFFFFFFFFFFFFFFFFFFFFFFFFFFFFFFFFFFFFFFFFFFF
310
FFFFFFFFFFFFFFFFFFFFFFFFFFFFFFFFFFFFFFFFFFFFFFFFFFFFFFFFFFFFFFFF
310
FFFFFFFFFFFFFFFFFFFFFFFFFFFFFFFFFFFFFFFFFFFFFFFFFFFFFFFFFFFFFFFF
310
F000FFFFFFFFFFFFFFFFFFFFFFFFFFFFFFFFFFFFFFFFFFFFFFFFFFFFFFFFFFFF
310
FFFFFFFFFFFFFFFFFFFFFFFFFFFFFFFFFFFFFFFFFFFFFFFFFFFFFFFFFFFFFFFF
310
FFFFFFFFFFFFFFFFFFFFFFFFFFFFFFFFFFFFFFFFFFFFFFFFF000FFFFFFFFFFFF
310
FFFFFFFFFFFFFFFFFFFFFFFFFFFFFFFFFFFFFFFFFFFFFFFFFFFFFFFFFFFFFFFF
310
FFFFFFFFFFFFFFFFFFFFFFFFFFFFFFFFFFFFFFFFFFFFFFFFFFFFFFFFFFFFFFFF
310
FFFFFFFFFFFFFFFFFFFFFFFFFFFFFFFFF000FFFFFFFFFFFFFFFFFFFFFFFFFFFF
310
FFFFFFFFFFFFFFFFFFFFFFFFFFFFFFFFFFFFFFFFFFFFFFFFFFFFFFFFFFFFFFFF
310
FFFFFFFFFFFFFFFFFFFFFFFFFFFFFFFFFFFFFFFFFFFFFFFFFFFFFFFFFFFFFFFF
310
FFFFFFFFFFFFFFFFF000FFFFFFFFFFFFFFFFFFFFFFFFFFFFFFFFFFFFFFFFFFFF
310
FFFFFFFFFFFFFFFFFFFFFFFFFFFFFFFFFFFFFFFFFFFFFFFFFFFFFFFFFFFFFFFF
310
FFFFFFFFFFFFFFFFFFFFFFFFFFFFFFFFFFFFFFFFFFFFFFFFFFFFFFFFFFFFFFFF
310
F000FFFFFFFFFFFFFFFFFFFFFFFFFFFFFFFFFFFFFFFFFFFFFFFFFFFFFFFFFFFF
310
FFFFFFFFFFFFFFFFFFFFFFFFFFFFFFFFFFFFFFFFFFFFFFFFFFFFFFFFFFFFFFFF
310
FFFFFFFFFFFFFFFFFFFFFFFFFFFFFFFFFFFFFFFFFFFFFFFFF000FFFFFFFFFFFF
310
FFFFFFFFFFFFFFFFFFFFFFFFFFFFFFFFFFFFFFFFFFFFFFFFFFFFFFFFFFFFFFFF
310
FFFFFFFFFFFFFFFFFFFFFFFFFFFFFFFFFFFFFFFFFFFFFFFFFFFFFFFFFFFFFFFF
310
FFFFFFFFFFFFFFFFFFFFFFFFFFFFFFFFF000FFFFFFFFFFFFFFFFFFFFFFFFFFFF
310
FFFFFFFFFFFFFFFFFFFFFFFFFFFFFFFFFFFFFFFFFFFFFFFFFFFFFFFFFFFFFFFF
310
FFFFFFFFFFFFFFFFFFFFFFFFFFFFFFFFFFFFFFFFFFFFFFFFFFFFFFFFFFFFFFFF
310
FFFFFFFFFFFFFFFFF000FFFFFFFFFFFFFFFFFFFFFFFFFFFFFFFFFFFFFFFFFFFF
310
FFFFFFFFFFFFFFFFFFFFFFFFFFFFFFFFFFFFFFFFFFFFFFFFFFFFFFFFFFFFFFFF
310
FFFFFFFFFFFFFFFFFFFFFFFFFFFFFFFFFFFFFFFFFFFFFFFFFFFFFFFFFFFFFFFF
310
F000FFFFFFFFFFFFFFFFFFFFFFFFFFFFFFFFFFFFFFFFFFFFFFFFFFFFFFFFFFFF
310
FFFFFFFFFFFFFFFFFFFFFFFFFFFFFFFFFFFFFFFFFFFFFFFFFFFFFFFFFFFFFFFF
310
FFFFFFFFFFFFFFFFFFFFFFFFFFFFFFFFFFFFFFFFFFFFFFFFF000FFFFFFFFFFFF
310
FFFFFFFFFFFFFFFFFFFFFFFFFFFFFFFFFFFFFFFFFFFFFFFFFFFFFFFFFFFFFFFF
310
FFFFFFFFFFFFFFFFFFFFFFFFFFFFFFFFFFFFFFFFFFFFFFFFFFFFFFFFFFFFFFFF
310
FFFFFFFFFFFFFFFFFFFFFFFFFFFFFFFFF000FFFFFFFFFFFFFFFFFFFFFFFFFFFF
310
FFFFFFFFFFFFFFFFFFFFFFFFFFFFFFFFFFFFFFFFFFFFFFFFFFFFFFFFFFFFFFFF
310
FFFFFFFFFFFFFFFFFFFFFFFFFFFFFFFFFFFFFFFFFFFFFFFFFFFFFFFFFFFFFFFF
310
FFFFFFFFFFFFFFFFF000FFFFFFFFFFFFFFFFFFFFFFFFFFFFFFFFFFFFFFFFFFFF
310
FFFFFFFFFFFFFFFFFFFFFFFFFFFFFFFFFFFFFFFFFFFFFFFFFFFFFFFFFFFFFFFF
310
FFFFFFFFFFFFFFFFFFFFFFFFFFFFFFFFFFFFFFFFFFFFFFFFFFFFFFFFFFFFFFFF
310
F000FFFFFFFFFFFFFFFFFFFFFFFFFFFFFFFFFFFFFFFFFFFFFFFFFFFFFFFFFFFF
310
FFFFFFFFFFFFFFFFFFFFFFFFFFFFFFFFFFFFFFFFFFFFFFFFFFFFFFFFFFFFFFFF
310
FFFFFFFFFFFFFFFFFFFFFFFFFFFFFFFFFFFFFFFFFFFFFFFFF000FFFFFFFFFFFF
310
FFFFFFFFFFFFFFFFFFFFFFFFFFFFFFFFFFFFFFFFFFFFFFFFFFFFFFFFFFFFFFFF
310
FFFFFFFFFFFFFFFFFFFFFFFFFFFFFFFFFFFFFFFFFFFFFFFFFFFFFFFFFFFFFFFF
310
FFFFFFFFFFFFFFFFFFFFFFFFFFFFFFFFF0000000000000000000000000000000
310
0000000000000000000000000000000000000000000000000000000000000000
310
0000000000000000000000000000000000000000000000000000000000000000
310
0000000000000000000000000000000000000000000000000000000000000000
310
0000000000000000000000000000000000000000000000000000000000000000
310
0000000000000000000000000000000000000000000000000000000000000000
310
0000000000000000000000000000000000000000000000000000000000000000
310
0000000000000000000000000000000000000000000000000000000000000000
310
0000000000000000000000000000000000000000000000000000000000000000
310
0000000000000000000000000000000000000000000000000000000000000000
310
0000000000000000000000000000000000000000000000000000000000000000
310
0000000000000000000000000000000000000000000000000000000000000000
310
0000000000000000000000000000000000000000000000000000000000000000
310
0000000000000000000000000000000000000000000000000000000000000000
310
0000000000000000000000000000000000000000000000000000000000000000
310
0000000000000000000000000000000000000000000000000000000000000000
  1
OLE
  0
ENDSEC
  0
SECTION
  2
OBJECTS
  0
DICTIONARY
  5
C
330
0
100
AcDbDictionary
281
     1
  3
ACAD_GROUP
350
D
  3
ACAD_LAYOUT
350
1A
  3
ACAD_MLINESTYLE
350
17
  3
ACAD_PLOTSETTINGS
350
19
  3
ACAD_PLOTSTYLENAME
350
E
  3
ACAD_SCALELIST
350
47
  0
DICTIONARY
  5
D
102
{ACAD_REACTORS
330
C
102
}
330
C
100
AcDbDictionary
281
     1
  0
DICTIONARY
  5
1A
102
{ACAD_REACTORS
330
C
102
}
330
C
100
AcDbDictionary
281
     1
  3
Layout1
350
1E
  3
Layout2
350
26
  3
Model
350
22
  0
DICTIONARY
  5
17
102
{ACAD_REACTORS
330
C
102
}
330
C
100
AcDbDictionary
281
     1
  3
Standard
350
18
  0
DICTIONARY
  5
19
102
{ACAD_REACTORS
330
C
102
}
330
C
100
AcDbDictionary
281
     1
  0
ACDBDICTIONARYWDFLT
  5
E
102
{ACAD_REACTORS
330
C
102
}
330
C
100
AcDbDictionary
281
     1
  3
Normal
350
F
100
AcDbDictionaryWithDefault
340
F
  0
DICTIONARY
  5
47
102
{ACAD_REACTORS
330
C
102
}
330
C
100
AcDbDictionary
281
     1
  3
A0
350
48
  3
A1
350
49
  3
A2
350
4A
  3
A3
350
4B
  3
A4
350
4C
  3
A5
350
4D
  3
A6
350
4E
  3
A7
350
4F
  3
A8
350
50
  3
A9
350
51
  3
B0
350
52
  3
B1
350
53
  3
B2
350
54
  3
B3
350
55
  3
B4
350
56
  3
B5
350
57
  3
B6
350
58
  3
B7
350
59
  3
B8
350
5A
  3
B9
350
5B
  3
C0
350
5C
  3
C1
350
5D
  3
C2
350
5E
  3
C3
350
5F
  3
C4
350
60
  3
C5
350
61
  3
C6
350
62
  3
C7
350
63
  3
C8
350
64
  3
C9
350
65
  3
D0
350
66
  3
D1
350
67
  3
D2
350
68
  0
LAYOUT
  5
1E
102
{ACAD_REACTORS
330
1A
102
}
330
1A
100
AcDbPlotSettings
  1

  2
none_device
  4

  6

 40
0.0
 41
0.0
 42
0.0
 43
0.0
 44
0.0
 45
0.0
 46
0.0
 47
0.0
 48
0.0
 49
0.0
140
0.0
141
0.0
142
1.0
143
1.0
 70
   688
 72
     1
 73
     0
 74
     5
  7

 75
    16
147
1.0
148
0.0
149
0.0
100
AcDbLayout
  1
Layout1
 70
     1
 71
     1
 10
0.0
 20
0.0
 11
420.0
 21
297.0
 12
0.0
 22
0.0
 32
0.0
 14
1.0000000000E+20
 24
1.0000000000E+20
 34
1.0000000000E+20
 15
-1.0000000000E+20
 25
-1.0000000000E+20
 35
-1.0000000000E+20
146
0.0
 13
0.0
 23
0.0
 33
0.0
 16
1.0
 26
0.0
 36
0.0
 17
0.0
 27
1.0
 37
0.0
 76
     0
330
1B
  0
LAYOUT
  5
26
102
{ACAD_REACTORS
330
1A
102
}
330
1A
100
AcDbPlotSettings
  1

  2
none_device
  4

  6

 40
0.0
 41
0.0
 42
0.0
 43
0.0
 44
0.0
 45
0.0
 46
0.0
 47
0.0
 48
0.0
 49
0.0
140
0.0
141
0.0
142
1.0
143
1.0
 70
   688
 72
     1
 73
     0
 74
     5
  7

 75
    16
147
1.0
148
0.0
149
0.0
100
AcDbLayout
  1
Layout2
 70
     1
 71
     2
 10
0.0
 20
0.0
 11
0.0
 21
0.0
 12
0.0
 22
0.0
 32
0.0
 14
0.0
 24
0.0
 34
0.0
 15
0.0
 25
0.0
 35
0.0
146
0.0
 13
0.0
 23
0.0
 33
0.0
 16
1.0
 26
0.0
 36
0.0
 17
0.0
 27
1.0
 37
0.0
 76
     0
330
23
  0
LAYOUT
  5
22
102
{ACAD_REACTORS
330
1A
102
}
330
1A
100
AcDbPlotSettings
  1

  2
none_device
  4
Letter_(8.50_x_11.00_Inches)
  6

 40
6.35
 41
6.35
 42
6.35000508
 43
6.35000508
 44
215.9
 45
279.4
 46
0.0
 47
0.0
 48
0.0
 49
0.0
140
0.0
141
0.0
142
1.0
143
1.0
 70
  1712
 72
     1
 73
     0
 74
     0
  7

 75
     0
147
1.0
148
0.0
149
0.0
100
AcDbLayout
  1
Model
 70
     1
 71
     0
 10
0.0
 20
0.0
 11
297.0
 21
210.0
 12
0.0
 22
0.0
 32
0.0
 14
0.0
 24
0.0
 34
0.0
 15
297.0
 25
210.0
 35
0.0
146
0.0
 13
0.0
 23
0.0
 33
0.0
 16
1.0
 26
0.0
 36
0.0
 17
0.0
 27
1.0
 37
0.0
 76
     0
330
1F
331
29
  0
MLINESTYLE
  5
18
102
{ACAD_REACTORS
330
17
102
}
330
17
100
AcDbMlineStyle
  2
Standard
 70
     0
  3

 62
   256
 51
90.0
 52
90.0
 71
     2
 49
0.5
 62
   256
  6
BYLAYER
 49
-0.5
 62
   256
  6
BYLAYER
  0
ACDBPLACEHOLDER
  5
F
102
{ACAD_REACTORS
330
E
102
}
330
E
  0
SCALE
  5
48
102
{ACAD_REACTORS
330
47
102
}
330
47
100
AcDbScale
 70
     0
300
1:1
140
1.0
141
1.0
290
     1
  0
SCALE
  5
49
102
{ACAD_REACTORS
330
47
102
}
330
47
100
AcDbScale
 70
     0
300
1:2
140
1.0
141
2.0
290
     0
  0
SCALE
  5
4A
102
{ACAD_REACTORS
330
47
102
}
330
47
100
AcDbScale
 70
     0
300
1:4
140
1.0
141
4.0
290
     0
  0
SCALE
  5
4B
102
{ACAD_REACTORS
330
47
102
}
330
47
100
AcDbScale
 70
     0
300
1:5
140
1.0
141
5.0
290
     0
  0
SCALE
  5
4C
102
{ACAD_REACTORS
330
47
102
}
330
47
100
AcDbScale
 70
     0
300
1:8
140
1.0
141
8.0
290
     0
  0
SCALE
  5
4D
102
{ACAD_REACTORS
330
47
102
}
330
47
100
AcDbScale
 70
     0
300
1:10
140
1.0
141
10.0
290
     0
  0
SCALE
  5
4E
102
{ACAD_REACTORS
330
47
102
}
330
47
100
AcDbScale
 70
     0
300
1:16
140
1.0
141
16.0
290
     0
  0
SCALE
  5
4F
102
{ACAD_REACTORS
330
47
102
}
330
47
100
AcDbScale
 70
     0
300
1:20
140
1.0
141
20.0
290
     0
  0
SCALE
  5
50
102
{ACAD_REACTORS
330
47
102
}
330
47
100
AcDbScale
 70
     0
300
1:30
140
1.0
141
30.0
290
     0
  0
SCALE
  5
51
102
{ACAD_REACTORS
330
47
102
}
330
47
100
AcDbScale
 70
     0
300
1:40
140
1.0
141
40.0
290
     0
  0
SCALE
  5
52
102
{ACAD_REACTORS
330
47
102
}
330
47
100
AcDbScale
 70
     0
300
1:50
140
1.0
141
50.0
290
     0
  0
SCALE
  5
53
102
{ACAD_REACTORS
330
47
102
}
330
47
100
AcDbScale
 70
     0
300
1:100
140
1.0
141
100.0
290
     0
  0
SCALE
  5
54
102
{ACAD_REACTORS
330
47
102
}
330
47
100
AcDbScale
 70
     0
300
2:1
140
2.0
141
1.0
290
     0
  0
SCALE
  5
55
102
{ACAD_REACTORS
330
47
102
}
330
47
100
AcDbScale
 70
     0
300
4:1
140
4.0
141
1.0
290
     0
  0
SCALE
  5
56
102
{ACAD_REACTORS
330
47
102
}
330
47
100
AcDbScale
 70
     0
300
8:1
140
8.0
141
1.0
290
     0
  0
SCALE
  5
57
102
{ACAD_REACTORS
330
47
102
}
330
47
100
AcDbScale
 70
     0
300
10:1
140
10.0
141
1.0
290
     0
  0
SCALE
  5
58
102
{ACAD_REACTORS
330
47
102
}
330
47
100
AcDbScale
 70
     0
300
100:1
140
100.0
141
1.0
290
     0
  0
SCALE
  5
59
102
{ACAD_REACTORS
330
47
102
}
330
47
100
AcDbScale
 70
     0
300
1/128" = 1'-0"
140
0.0078125
141
12.0
290
     0
  0
SCALE
  5
5A
102
{ACAD_REACTORS
330
47
102
}
330
47
100
AcDbScale
 70
     0
300
1/64" = 1'-0"
140
0.015625
141
12.0
290
     0
  0
SCALE
  5
5B
102
{ACAD_REACTORS
330
47
102
}
330
47
100
AcDbScale
 70
     0
300
1/32" = 1'-0"
140
0.03125
141
12.0
290
     0
  0
SCALE
  5
5C
102
{ACAD_REACTORS
330
47
102
}
330
47
100
AcDbScale
 70
     0
300
1/16" = 1'-0"
140
0.0625
141
12.0
290
     0
  0
SCALE
  5
5D
102
{ACAD_REACTORS
330
47
102
}
330
47
100
AcDbScale
 70
     0
300
3/32" = 1'-0"
140
0.09375
141
12.0
290
     0
  0
SCALE
  5
5E
102
{ACAD_REACTORS
330
47
102
}
330
47
100
AcDbScale
 70
     0
300
1/8" = 1'-0"
140
0.125
141
12.0
290
     0
  0
SCALE
  5
5F
102
{ACAD_REACTORS
330
47
102
}
330
47
100
AcDbScale
 70
     0
300
3/16" = 1'-0"
140
0.1875
141
12.0
290
     0
  0
SCALE
  5
60
102
{ACAD_REACTORS
330
47
102
}
330
47
100
AcDbScale
 70
     0
300
1/4" = 1'-0"
140
0.25
141
12.0
290
     0
  0
SCALE
  5
61
102
{ACAD_REACTORS
330
47
102
}
330
47
100
AcDbScale
 70
     0
300
3/8" = 1'-0"
140
0.375
141
12.0
290
     0
  0
SCALE
  5
62
102
{ACAD_REACTORS
330
47
102
}
330
47
100
AcDbScale
 70
     0
300
1/2" = 1'-0"
140
0.5
141
12.0
290
     0
  0
SCALE
  5
63
102
{ACAD_REACTORS
330
47
102
}
330
47
100
AcDbScale
 70
     0
300
3/4" = 1'-0"
140
0.75
141
12.0
290
     0
  0
SCALE
  5
64
102
{ACAD_REACTORS
330
47
102
}
330
47
100
AcDbScale
 70
     0
300
1" = 1'-0"
140
1.0
141
12.0
290
     0
  0
SCALE
  5
65
102
{ACAD_REACTORS
330
47
102
}
330
47
100
AcDbScale
 70
     0
300
1-1/2" = 1'-0"
140
1.5
141
12.0
290
     0
  0
SCALE
  5
66
102
{ACAD_REACTORS
330
47
102
}
330
47
100
AcDbScale
 70
     0
300
3" = 1'-0"
140
3.0
141
12.0
290
     0
  0
SCALE
  5
67
102
{ACAD_REACTORS
330
47
102
}
330
47
100
AcDbScale
 70
     0
300
6" = 1'-0"
140
6.0
141
12.0
290
     0
  0
SCALE
  5
68
102
{ACAD_REACTORS
330
47
102
}
330
47
100
AcDbScale
 70
     0
300
1'-0" = 1'-0"
140
12.0
141
12.0
290
     0
  0
ENDSEC
  0
EOF
