  0
SECTION
  2
HEADER
  9
$ACADVER
  1
AC1015
  9
$ACADMAINTVER
 70
     6
  9
$DWGCODEPAGE
  3
ANSI_1252
  9
$INSBASE
 10
0.0
 20
0.0
 30
0.0
  9
$EXTMIN
 10
0.0
 20
0.0
 30
0.0
  9
$EXTMAX
 10
297.0
 20
210.0
 30
0.0
  9
$LIMMIN
 10
0.0
 20
0.0
  9
$LIMMAX
 10
297.0
 20
210.0
  9
$ORTHOMODE
 70
     0
  9
$REGENMODE
 70
     1
  9
$FILLMODE
 70
     1
  9
$QTEXTMODE
 70
     0
  9
$MIRRTEXT
 70
     1
  9
$LTSCALE
 40
1.0
  9
$ATTMODE
 70
     1
  9
$TEXTSIZE
 40
2.0
  9
$TRACEWID
 40
1.0
  9
$TEXTSTYLE
  7
Standard
  9
$CLAYER
  8
0
  9
$CELTYPE
  6
ByLayer
  9
$CECOLOR
 62
   256
  9
$CELTSCALE
 40
1.0
  9
$DISPSILH
 70
     0
  9
$DIMSCALE
 40
1.0
  9
$DIMASZ
 40
3.0
  9
$DIMEXO
 40
0.0
  9
$DIMDLI
 40
3.75
  9
$DIMRND
 40
0.0
  9
$DIMDLE
 40
0.0
  9
$DIMEXE
 40
1.0
  9
$DIMTP
 40
0.0
  9
$DIMTM
 40
0.0
  9
$DIMTXT
 40
2.0
  9
$DIMCEN
 40
2.5
  9
$DIMTSZ
 40
0.0
  9
$DIMTOL
 70
     0
  9
$DIMLIM
 70
     0
  9
$DIMTIH
 70
     1
  9
$DIMTOH
 70
     1
  9
$DIMSE1
 70
     0
  9
$DIMSE2
 70
     0
  9
$DIMTAD
 70
     1
  9
$DIMZIN
 70
     0
  9
$DIMBLK
  1

  9
$DIMASO
 70
     1
  9
$DIMSHO
 70
     1
  9
$DIMPOST
  1

  9
$DIMAPOST
  1

  9
$DIMALT
 70
     0
  9
$DIMALTD
 70
     3
  9
$DIMALTF
 40
0.0393700787
  9
$DIMLFAC
 40
1.0
  9
$DIMTOFL
 70
     1
  9
$DIMTVP
 40
0.0
  9
$DIMTIX
 70
     0
  9
$DIMSOXD
 70
     0
  9
$DIMSAH
 70
     0
  9
$DIMBLK1
  1

  9
$DIMBLK2
  1

  9
$DIMSTYLE
  2
ISO-25
  9
$DIMCLRD
 70
     0
  9
$DIMCLRE
 70
     0
  9
$DIMCLRT
 70
     0
  9
$DIMTFAC
 40
1.0
  9
$DIMGAP
 40
1.524
  9
$DIMJUST
 70
     0
  9
$DIMSD1
 70
     0
  9
$DIMSD2
 70
     0
  9
$DIMTOLJ
 70
     0
  9
$DIMTZIN
 70
     0
  9
$DIMALTZ
 70
     0
  9
$DIMALTTZ
 70
     0
  9
$DIMUPT
 70
     0
  9
$DIMDEC
 70
     2
  9
$DIMTDEC
 70
     3
  9
$DIMALTU
 70
     2
  9
$DIMALTTD
 70
     3
  9
$DIMTXSTY
  7
Standard
  9
$DIMAUNIT
 70
     0
  9
$DIMADEC
 70
     2
  9
$DIMALTRND
 40
0.0
  9
$DIMAZIN
 70
     0
  9
$DIMDSEP
 70
    44
  9
$DIMATFIT
 70
     3
  9
$DIMFRAC
 70
     0
  9
$DIMLDRBLK
  1

  9
$DIMLUNIT
 70
     2
  9
$DIMLWD
 70
    -2
  9
$DIMLWE
 70
    -2
  9
$DIMTMOVE
 70
     0
  9
$LUNITS
 70
     2
  9
$LUPREC
 70
     2
  9
$SKETCHINC
 40
1.0
  9
$FILLETRAD
 40
10.0
  9
$AUNITS
 70
     0
  9
$AUPREC
 70
     2
  9
$MENU
  1
.
  9
$ELEVATION
 40
0.0
  9
$PELEVATION
 40
0.0
  9
$THICKNESS
 40
0.0
  9
$LIMCHECK
 70
     0
  9
$CHAMFERA
 40
0.0
  9
$CHAMFERB
 40
0.0
  9
$CHAMFERC
 40
0.0
  9
$CHAMFERD
 40
0.0
  9
$SKPOLY
 70
     0
  9
$TDCREATE
 40
2457627.624488484
  9
$TDUCREATE
 40
2457627.541155151
  9
$TDUPDATE
 40
2457627.624489827
  9
$TDUUPDATE
 40
2457627.541156493
  9
$TDINDWG
 40
0.0000000116
  9
$TDUSRTIMER
 40
0.0000000116
  9
$USRTIMER
 70
     1
  9
$ANGBASE
 50
0.0
  9
$ANGDIR
 70
     0
  9
$PDMODE
 70
     0
  9
$PDSIZE
 40
-1.0
  9
$PLINEWID
 40
0.0
  9
$SPLFRAME
 70
     0
  9
$SPLINETYPE
 70
     6
  9
$SPLINESEGS
 70
     8
  9
$HANDSEED
  5
2D8
  9
$SURFTAB1
 70
     6
  9
$SURFTAB2
 70
     6
  9
$SURFTYPE
 70
     6
  9
$SURFU
 70
     6
  9
$SURFV
 70
     6
  9
$UCSBASE
  2

  9
$UCSNAME
  2

  9
$UCSORG
 10
0.0
 20
0.0
 30
0.0
  9
$UCSXDIR
 10
1.0
 20
0.0
 30
0.0
  9
$UCSYDIR
 10
0.0
 20
1.0
 30
0.0
  9
$UCSORTHOREF
  2

  9
$UCSORTHOVIEW
 70
     0
  9
$UCSORGTOP
 10
0.0
 20
0.0
 30
0.0
  9
$UCSORGBOTTOM
 10
0.0
 20
0.0
 30
0.0
  9
$UCSORGLEFT
 10
0.0
 20
0.0
 30
0.0
  9
$UCSORGRIGHT
 10
0.0
 20
0.0
 30
0.0
  9
$UCSORGFRONT
 10
0.0
 20
0.0
 30
0.0
  9
$UCSORGBACK
 10
0.0
 20
0.0
 30
0.0
  9
$PUCSBASE
  2

  9
$PUCSNAME
  2

  9
$PUCSORG
 10
0.0
 20
0.0
 30
0.0
  9
$PUCSXDIR
 10
1.0
 20
0.0
 30
0.0
  9
$PUCSYDIR
 10
0.0
 20
1.0
 30
0.0
  9
$PUCSORTHOREF
  2

  9
$PUCSORTHOVIEW
 70
     0
  9
$PUCSORGTOP
 10
0.0
 20
0.0
 30
0.0
  9
$PUCSORGBOTTOM
 10
0.0
 20
0.0
 30
0.0
  9
$PUCSORGLEFT
 10
0.0
 20
0.0
 30
0.0
  9
$PUCSORGRIGHT
 10
0.0
 20
0.0
 30
0.0
  9
$PUCSORGFRONT
 10
0.0
 20
0.0
 30
0.0
  9
$PUCSORGBACK
 10
0.0
 20
0.0
 30
0.0
  9
$USERI1
 70
     0
  9
$USERI2
 70
     0
  9
$USERI3
 70
     0
  9
$USERI4
 70
     0
  9
$USERI5
 70
     0
  9
$USERR1
 40
0.0
  9
$USERR2
 40
0.0
  9
$USERR3
 40
0.0
  9
$USERR4
 40
0.0
  9
$USERR5
 40
0.0
  9
$WORLDVIEW
 70
     1
  9
$SHADEDGE
 70
     3
  9
$SHADEDIF
 70
    70
  9
$TILEMODE
 70
     1
  9
$MAXACTVP
 70
    64
  9
$PINSBASE
 10
0.0
 20
0.0
 30
0.0
  9
$PLIMCHECK
 70
     0
  9
$PEXTMIN
 10
1.0000000000E+20
 20
1.0000000000E+20
 30
1.0000000000E+20
  9
$PEXTMAX
 10
-1.0000000000E+20
 20
-1.0000000000E+20
 30
-1.0000000000E+20
  9
$PLIMMIN
 10
0.0
 20
0.0
  9
$PLIMMAX
 10
420.0
 20
297.0
  9
$UNITMODE
 70
     0
  9
$VISRETAIN
 70
     1
  9
$PLINEGEN
 70
     0
  9
$PSLTSCALE
 70
     1
  9
$TREEDEPTH
 70
  3020
  9
$CMLSTYLE
  2
Standard
  9
$CMLJUST
 70
     0
  9
$CMLSCALE
 40
20.0
  9
$PROXYGRAPHICS
 70
     1
  9
$MEASUREMENT
 70
     1
  9
$CELWEIGHT
370
    -1
  9
$ENDCAPS
280
     0
  9
$JOINSTYLE
280
     0
  9
$LWDISPLAY
290
     1
  9
$INSUNITS
 70
     4
  9
$HYPERLINKBASE
  1

  9
$STYLESHEET
  1

  9
$XEDIT
290
     1
  9
$CEPSNTYPE
380
     0
  9
$PSTYLEMODE
290
     1
  9
$FINGERPRINTGUID
  2
{489AE9D2-CBA5-4556-AD55-D9C3616822C8}
  9
$VERSIONGUID
  2
{FAEB1C32-E019-11D5-929B-00C0DF256EC4}
  9
$EXTNAMES
290
     1
  9
$PSVPSCALE
 40
0.0
  9
$OLESTARTUP
290
     0
  0
ENDSEC
  0
SECTION
  2
CLASSES
  0
CLASS
  1
ACDBDICTIONARYWDFLT
  2
AcDbDictionaryWithDefault
  3
ObjectDBX Classes
 90
        0
280
     0
281
     0
  0
CLASS
  1
VISUALSTYLE
  2
AcDbVisualStyle
  3
ObjectDBX Classes
 90
     4095
280
     0
281
     0
  0
CLASS
  1
MATERIAL
  2
AcDbMaterial
  3
ObjectDBX Classes
 90
     1153
280
     0
281
     0
  0
CLASS
  1
SCALE
  2
AcDbScale
  3
ObjectDBX Classes
 90
     1153
280
     0
281
     0
  0
CLASS
  1
TABLESTYLE
  2
AcDbTableStyle
  3
ObjectDBX Classes
 90
     4095
280
     0
281
     0
  0
CLASS
  1
MLEADERSTYLE
  2
AcDbMLeaderStyle
  3
ACDB_MLEADERSTYLE_CLASS
 90
     4095
280
     0
281
     0
  0
CLASS
  1
SUN
  2
AcDbSun
  3
SCENEOE
 90
     1153
280
     0
281
     0
  0
CLASS
  1
ACDBPLACEHOLDER
  2
AcDbPlaceHolder
  3
ObjectDBX Classes
 90
        0
280
     0
281
     0
  0
CLASS
  1
LAYOUT
  2
AcDbLayout
  3
ObjectDBX Classes
 90
        0
280
     0
281
     0
  0
ENDSEC
  0
SECTION
  2
TABLES
  0
TABLE
  2
VPORT
  5
8
330
0
100
AcDbSymbolTable
 70
     1
  0
VPORT
  5
29
330
8
100
AcDbSymbolTableRecord
100
AcDbViewportTableRecord
  2
*Active
 70
     0
 10
0.0
 20
0.0
 11
1.0
 21
1.0
 12
148.5
 22
105.0
 13
0.0
 23
0.0
 14
10.0
 24
10.0
 15
10.0
 25
10.0
 16
0.0
 26
0.0
 36
1.0
 17
0.0
 27
0.0
 37
0.0
 40
210.0
 41
1.4142857143
 42
50.0
 43
0.0
 44
0.0
 50
0.0
 51
0.0
 71
     0
 72
  2000
 73
     1
 74
     3
 75
     0
 76
     0
 77
     0
 78
     0
281
     0
 65
     1
110
0.0
120
0.0
130
0.0
111
1.0
121
0.0
131
0.0
112
0.0
122
1.0
132
0.0
 79
     0
146
0.0
  0
ENDTAB
  0
TABLE
  2
LTYPE
  5
5
330
0
100
AcDbSymbolTable
 70
     6
  0
LTYPE
  5
14
330
5
100
AcDbSymbolTableRecord
100
AcDbLinetypeTableRecord
  2
ByBlock
 70
     0
  3

 72
    65
 73
     0
 40
0.0
  0
LTYPE
  5
15
330
5
100
AcDbSymbolTableRecord
100
AcDbLinetypeTableRecord
  2
ByLayer
 70
     0
  3

 72
    65
 73
     0
 40
0.0
  0
LTYPE
  5
16
330
5
100
AcDbSymbolTableRecord
100
AcDbLinetypeTableRecord
  2
Continuous
 70
     0
  3
Solid line
 72
    65
 73
     0
 40
0.0
  0
LTYPE
  5
6E
330
5
100
AcDbSymbolTableRecord
100
AcDbLinetypeTableRecord
  2
HIDDEN
 70
     0
  3
Hidden __ __ __ __ __ __ __ __ __ __ __ __ __ __
 72
    65
 73
     2
 40
1.905
 49
1.27
 74
     0
 49
-0.635
 74
     0
  0
LTYPE
  5
6F
330
5
100
AcDbSymbolTableRecord
100
AcDbLinetypeTableRecord
  2
PHANTOM
 70
     0
  3
Phantom ______  __  __  ______  __  __  ______
 72
    65
 73
     6
 40
12.7
 49
6.35
 74
     0
 49
-1.27
 74
     0
 49
1.27
 74
     0
 49
-1.27
 74
     0
 49
1.27
 74
     0
 49
-1.27
 74
     0
  0
LTYPE
  5
70
330
5
100
AcDbSymbolTableRecord
100
AcDbLinetypeTableRecord
  2
CENTER
 70
     0
  3
Center ____ _ ____ _ ____ _ ____ _ ____ _ ____
 72
    65
 73
     4
 40
10.16
 49
6.35
 74
     0
 49
-1.27
 74
     0
 49
1.27
 74
     0
 49
-1.27
 74
     0
  0
LTYPE
  5
71
330
5
100
AcDbSymbolTableRecord
100
AcDbLinetypeTableRecord
  2
CENTERX2
 70
     0
  3
Center (2x) ________  __  ________  __  _____
 72
    65
 73
     4
 40
20.32
 49
12.7
 74
     0
 49
-2.54
 74
     0
 49
2.54
 74
     0
 49
-2.54
 74
     0
  0
LTYPE
  5
72
330
5
100
AcDbSymbolTableRecord
100
AcDbLinetypeTableRecord
  2
DOT2
 70
     0
  3
Dot (.5x) ........................................
 72
    65
 73
     2
 40
0.635
 49
0.0
 74
     0
 49
-0.635
 74
     0
  0
ENDTAB
  0
TABLE
  2
LAYER
  5
2
330
0
100
AcDbSymbolTable
 70
     5
  0
LAYER
  5
10
330
2
100
AcDbSymbolTableRecord
100
AcDbLayerTableRecord
  2
0
 70
     0
 62
     7
  6
Continuous
370
    -3
390
F
  0
LAYER
  5
73
330
2
100
AcDbSymbolTableRecord
100
AcDbLayerTableRecord
  2
FORMAT
 70
     0
 62
     7
  6
Continuous
370
    -3
390
F
  0
LAYER
  5
74
330
2
100
AcDbSymbolTableRecord
100
AcDbLayerTableRecord
  2
VERMASSUNG
 70
     0
 62
     7
  6
Continuous
370
    -3
390
F
  0
LAYER
  5
75
330
2
100
AcDbSymbolTableRecord
100
AcDbLayerTableRecord
  2
KOPF_DÜNN
 70
     0
 62
     7
  6
Continuous
370
    -3
390
F
  0
LAYER
  5
76
330
2
100
AcDbSymbolTableRecord
100
AcDbLayerTableRecord
  2
KOPF_DICK
 70
     0
 62
     7
  6
Continuous
370
    15
390
F
  0
ENDTAB
  0
TABLE
  2
STYLE
  5
3
330
0
100
AcDbSymbolTable
 70
     2
  0
STYLE
  5
11
330
3
100
AcDbSymbolTableRecord
100
AcDbTextStyleTableRecord
  2
Standard
 70
     0
 40
0.0
 41
1.0
 50
0.0
 71
     0
 42
2.0
  3
txt
  4

  0
STYLE
  5
77
330
3
100
AcDbSymbolTableRecord
100
AcDbTextStyleTableRecord
  2
SLDTEXTSTYLE0
 70
     0
 40
0.0
 41
0.7
 50
0.0
 71
     0
 42
2.0
  3
TXT
  4

  0
ENDTAB
  0
TABLE
  2
VIEW
  5
6
330
0
100
AcDbSymbolTable
 70
     0
  0
ENDTAB
  0
TABLE
  2
UCS
  5
7
330
0
100
AcDbSymbolTable
 70
     0
  0
ENDTAB
  0
TABLE
  2
APPID
  5
9
330
0
100
AcDbSymbolTable
 70
     1
  0
APPID
  5
12
330
9
100
AcDbSymbolTableRecord
100
AcDbRegAppTableRecord
  2
ACAD
 70
     0
  0
ENDTAB
  0
TABLE
  2
DIMSTYLE
  5
A
330
0
100
AcDbSymbolTable
 70
     2
100
AcDbDimStyleTable
  0
DIMSTYLE
105
27
330
A
100
AcDbSymbolTableRecord
100
AcDbDimStyleTableRecord
  2
ISO-25
 70
     0
 41
2.5
 42
0.625
 43
3.75
 44
1.25
 73
     0
 74
     0
 77
     1
 78
     8
140
2.5
141
2.5
143
0.0393700787
147
0.625
171
     3
172
     1
178
     0
271
     2
272
     2
274
     3
278
    44
283
     0
284
     8
340
11
  0
DIMSTYLE
105
1E9
102
{ACAD_REACTORS
330
1E8
330
1F5
330
201
330
20B
330
215
102
}
330
A
100
AcDbSymbolTableRecord
100
AcDbDimStyleTableRecord
  2
SLDDIMSTYLE0
 70
     0
 41
3.0
 44
0.0
 45
0.000000001
 73
     0
 74
     0
 77
     1
 78
    12
 79
     3
140
2.0
147
0.5
173
     1
178
     0
271
     2
272
     3
276
     2
284
    12
340
77
  0
ENDTAB
  0
TABLE
  2
BLOCK_RECORD
  5
1
330
0
100
AcDbSymbolTable
 70
     6
  0
BLOCK_RECORD
  5
1F
330
1
100
AcDbSymbolTableRecord
100
AcDbBlockTableRecord
  2
*Model_Space
340
22
  0
BLOCK_RECORD
  5
1B
330
1
100
AcDbSymbolTableRecord
100
AcDbBlockTableRecord
  2
*Paper_Space
340
1E
  0
BLOCK_RECORD
  5
23
330
1
100
AcDbSymbolTableRecord
100
AcDbBlockTableRecord
  2
*Paper_Space0
340
26
  0
BLOCK_RECORD
  5
1EA
330
1
100
AcDbSymbolTableRecord
100
AcDbBlockTableRecord
  2
_D
340
0
  0
BLOCK_RECORD
  5
1F6
330
1
100
AcDbSymbolTableRecord
100
AcDbBlockTableRecord
  2
_D_1
340
0
  0
BLOCK_RECORD
  5
202
330
1
100
AcDbSymbolTableRecord
100
AcDbBlockTableRecord
  2
_D_2
340
0
  0
BLOCK_RECORD
  5
20C
330
1
100
AcDbSymbolTableRecord
100
AcDbBlockTableRecord
  2
_D_3
340
0
  0
BLOCK_RECORD
  5
216
330
1
100
AcDbSymbolTableRecord
100
AcDbBlockTableRecord
  2
_D_4
340
0
  0
ENDTAB
  0
ENDSEC
  0
SECTION
  2
BLOCKS
  0
BLOCK
  5
20
330
1F
100
AcDbEntity
  8
0
100
AcDbBlockBegin
  2
*Model_Space
 70
     0
 10
0.0
 20
0.0
 30
0.0
  3
*Model_Space
  1

  0
ENDBLK
  5
21
330
1F
100
AcDbEntity
  8
0
100
AcDbBlockEnd
  0
BLOCK
  5
1C
330
1B
100
AcDbEntity
 67
     1
  8
0
100
AcDbBlockBegin
  2
*Paper_Space
 70
     0
 10
0.0
 20
0.0
 30
0.0
  3
*Paper_Space
  1

  0
ENDBLK
  5
1D
330
1B
100
AcDbEntity
 67
     1
  8
0
100
AcDbBlockEnd
  0
BLOCK
  5
24
330
23
100
AcDbEntity
  8
0
100
AcDbBlockBegin
  2
*Paper_Space0
 70
     0
 10
0.0
 20
0.0
 30
0.0
  3
*Paper_Space0
  1

  0
ENDBLK
  5
25
330
23
100
AcDbEntity
  8
0
100
AcDbBlockEnd
  0
BLOCK
  5
1EB
330
1EA
100
AcDbEntity
  8
0
100
AcDbBlockBegin
  2
_D
 70
     0
 10
0.0
 20
0.0
 30
0.0
  3
_D
  1

  0
SOLID
  5
1ED
330
1EA
100
AcDbEntity
  8
VERMASSUNG
100
AcDbTrace
 10
91.4373689613
 20
77.7743120782
 30
0.0
 11
91.8873689613
 21
80.7743120782
 31
0.0
 12
90.9873689613
 22
80.7743120782
 32
0.0
 13
90.9873689613
 23
80.7743120782
 33
0.0
  0
SOLID
  5
1EE
330
1EA
100
AcDbEntity
  8
VERMASSUNG
100
AcDbTrace
 10
91.4373689613
 20
141.2743120782
 30
0.0
 11
90.9873689613
 21
138.2743120782
 31
0.0
 12
91.8873689613
 22
138.2743120782
 32
0.0
 13
91.8873689613
 23
138.2743120782
 33
0.0
  0
LINE
  5
1EF
330
1EA
100
AcDbEntity
  8
VERMASSUNG
100
AcDbLine
 10
186.2408775444
 20
77.7743120782
 30
0.0
 11
90.4373689613
 21
77.7743120782
 31
0.0
  0
LINE
  5
1F0
330
1EA
100
AcDbEntity
  8
VERMASSUNG
100
AcDbLine
 10
186.2408775444
 20
141.2743120782
 30
0.0
 11
90.4373689613
 21
141.2743120782
 31
0.0
  0
LINE
  5
1F1
330
1EA
100
AcDbEntity
  8
VERMASSUNG
100
AcDbLine
 10
91.4373689613
 20
77.7743120782
 30
0.0
 11
91.4373689613
 21
141.2743120782
 31
0.0
  0
MTEXT
  5
1F2
330
1EA
100
AcDbEntity
  8
VERMASSUNG
100
AcDbMText
 10
88.6592337051
 20
100.7213759299
 30
0.0
 40
2.0
 41
0.0
 71
     1
 72
     1
  1
ISO 40
  7
SLDTEXTSTYLE0
 11
3.391901413832837E-15
 21
1.0
 31
0.0
 73
     1
 44
1.0
  0
MTEXT
  5
1F3
330
1EA
100
AcDbEntity
  8
VERMASSUNG
100
AcDbMText
 10
88.8592336564
 20
109.921376134
 30
0.0
 40
2.0
 41
0.0
 71
     1
 72
     1
  1
%%c
  7
SLDTEXTSTYLE0
 11
3.391901413832837E-15
 21
1.0
 31
0.0
 73
     1
 44
1.0
  0
MTEXT
  5
1F4
330
1EA
100
AcDbEntity
  8
VERMASSUNG
100
AcDbMText
 10
88.8592333653
 20
113.5292564654
 30
0.0
 40
2.0
 41
0.0
 71
     1
 72
     1
  1
63.5
  7
SLDTEXTSTYLE0
 11
3.391901413832837E-15
 21
1.0
 31
0.0
 73
     1
 44
1.0
  0
ENDBLK
  5
1EC
330
1EA
100
AcDbEntity
  8
0
100
AcDbBlockEnd
  0
BLOCK
  5
1F7
330
1F6
100
AcDbEntity
  8
0
100
AcDbBlockBegin
  2
_D_1
 70
     0
 10
0.0
 20
0.0
 30
0.0
  3
_D_1
  1

  0
ARC
  5
1F9
330
1F6
100
AcDbEntity
  8
VERMASSUNG
100
AcDbCircle
 10
154.5276586979
 20
158.8259688717
 30
0.0
 40
4.247059938537386
100
AcDbArc
 50
153.4349488229
 51
206.5650511771
  0
ARC
  5
1FA
330
1F6
100
AcDbEntity
  8
VERMASSUNG
100
AcDbCircle
 10
156.904096391
 20
158.8259688717
 30
0.0
 40
4.247059938537386
100
AcDbArc
 50
333.4349488229
 51
26.5650511771
  0
SOLID
  5
1FB
330
1F6
100
AcDbEntity
  8
VERMASSUNG
100
AcDbTrace
 10
99.5408775444
 20
156.9266259263
 30
0.0
 11
102.5408775444
 21
156.4766259263
 31
0.0
 12
102.5408775444
 22
157.3766259263
 32
0.0
 13
102.5408775444
 23
157.3766259263
 33
0.0
  0
SOLID
  5
1FC
330
1F6
100
AcDbEntity
  8
VERMASSUNG
100
AcDbTrace
 10
211.8908775444
 20
156.9266259263
 30
0.0
 11
208.8908775444
 21
157.3766259263
 31
0.0
 12
208.8908775444
 22
156.4766259263
 32
0.0
 13
208.8908775444
 23
156.4766259263
 33
0.0
  0
LINE
  5
1FD
330
1F6
100
AcDbEntity
  8
VERMASSUNG
100
AcDbLine
 10
99.5408775444
 20
120.9314426752
 30
0.0
 11
99.5408775444
 21
157.9266259263
 31
0.0
  0
LINE
  5
1FE
330
1F6
100
AcDbEntity
  8
VERMASSUNG
100
AcDbLine
 10
211.8908775444
 20
121.8243120782
 30
0.0
 11
211.8908775444
 21
157.9266259263
 31
0.0
  0
LINE
  5
1FF
330
1F6
100
AcDbEntity
  8
VERMASSUNG
100
AcDbLine
 10
99.5408775444
 20
156.9266259263
 30
0.0
 11
211.8908775444
 21
156.9266259263
 31
0.0
  0
MTEXT
  5
200
330
1F6
100
AcDbEntity
  8
VERMASSUNG
100
AcDbMText
 10
152.3164728071
 20
159.5047615223
 30
0.0
 40
2.0
 41
0.0
 71
     1
 72
     1
  1
112.35
  7
SLDTEXTSTYLE0
 73
     1
 44
1.0
  0
ENDBLK
  5
1F8
330
1F6
100
AcDbEntity
  8
0
100
AcDbBlockEnd
  0
BLOCK
  5
203
330
202
100
AcDbEntity
  8
0
100
AcDbBlockBegin
  2
_D_2
 70
     0
 10
0.0
 20
0.0
 30
0.0
  3
_D_2
  1

  0
SOLID
  5
205
330
202
100
AcDbEntity
  8
VERMASSUNG
100
AcDbTrace
 10
167.7908775444
 20
150.9266259263
 30
0.0
 11
170.7908775444
 21
150.4766259263
 31
0.0
 12
170.7908775444
 22
151.3766259263
 32
0.0
 13
170.7908775444
 23
151.3766259263
 33
0.0
  0
SOLID
  5
206
330
202
100
AcDbEntity
  8
VERMASSUNG
100
AcDbTrace
 10
211.8908775444
 20
150.9266259263
 30
0.0
 11
208.8908775444
 21
151.3766259263
 31
0.0
 12
208.8908775444
 22
150.4766259263
 32
0.0
 13
208.8908775444
 23
150.4766259263
 33
0.0
  0
LINE
  5
207
330
202
100
AcDbEntity
  8
VERMASSUNG
100
AcDbLine
 10
167.7908775444
 20
131.7493120782
 30
0.0
 11
167.7908775444
 21
151.9266259263
 31
0.0
  0
LINE
  5
208
330
202
100
AcDbEntity
  8
VERMASSUNG
100
AcDbLine
 10
211.8908775444
 20
119.7743120782
 30
0.0
 11
211.8908775444
 21
151.9266259263
 31
0.0
  0
LINE
  5
209
330
202
100
AcDbEntity
  8
VERMASSUNG
100
AcDbLine
 10
167.7908775444
 20
150.9266259263
 30
0.0
 11
211.8908775444
 21
150.9266259263
 31
0.0
  0
MTEXT
  5
20A
330
202
100
AcDbEntity
  8
VERMASSUNG
100
AcDbMText
 10
187.4418816639
 20
153.5047615223
 30
0.0
 40
2.0
 41
0.0
 71
     1
 72
     1
  1
44.1
  7
SLDTEXTSTYLE0
 73
     1
 44
1.0
  0
ENDBLK
  5
204
330
202
100
AcDbEntity
  8
0
100
AcDbBlockEnd
  0
BLOCK
  5
20D
330
20C
100
AcDbEntity
  8
0
100
AcDbBlockBegin
  2
_D_3
 70
     0
 10
0.0
 20
0.0
 30
0.0
  3
_D_3
  1

  0
SOLID
  5
20F
330
20C
100
AcDbEntity
  8
VERMASSUNG
100
AcDbTrace
 10
186.8408775444
 20
144.9266259263
 30
0.0
 11
189.8408775444
 21
144.4766259263
 31
0.0
 12
189.8408775444
 22
145.3766259263
 32
0.0
 13
189.8408775444
 23
145.3766259263
 33
0.0
  0
SOLID
  5
210
330
20C
100
AcDbEntity
  8
VERMASSUNG
100
AcDbTrace
 10
211.8908775444
 20
144.9266259263
 30
0.0
 11
208.8908775444
 21
145.3766259263
 31
0.0
 12
208.8908775444
 22
144.4766259263
 32
0.0
 13
208.8908775444
 23
144.4766259263
 33
0.0
  0
LINE
  5
211
330
20C
100
AcDbEntity
  8
VERMASSUNG
100
AcDbLine
 10
186.8408775444
 20
134.6957244342
 30
0.0
 11
186.8408775444
 21
145.9266259263
 31
0.0
  0
LINE
  5
212
330
20C
100
AcDbEntity
  8
VERMASSUNG
100
AcDbLine
 10
211.8908775444
 20
121.8243120782
 30
0.0
 11
211.8908775444
 21
145.9266259263
 31
0.0
  0
LINE
  5
213
330
20C
100
AcDbEntity
  8
VERMASSUNG
100
AcDbLine
 10
186.8408775444
 20
144.9266259263
 30
0.0
 11
211.8908775444
 21
144.9266259263
 31
0.0
  0
MTEXT
  5
214
330
20C
100
AcDbEntity
  8
VERMASSUNG
100
AcDbMText
 10
196.2664851655
 20
147.5047615223
 30
0.0
 40
2.0
 41
0.0
 71
     1
 72
     1
  1
25.05
  7
SLDTEXTSTYLE0
 73
     1
 44
1.0
  0
ENDBLK
  5
20E
330
20C
100
AcDbEntity
  8
0
100
AcDbBlockEnd
  0
BLOCK
  5
217
330
216
100
AcDbEntity
  8
0
100
AcDbBlockBegin
  2
_D_4
 70
     0
 10
0.0
 20
0.0
 30
0.0
  3
_D_4
  1

  0
SOLID
  5
219
330
216
100
AcDbEntity
  8
VERMASSUNG
100
AcDbTrace
 10
218.2470249671
 20
122.0243120782
 30
0.0
 11
217.7970249671
 21
119.0243120782
 31
0.0
 12
218.6970249671
 22
119.0243120782
 32
0.0
 13
218.6970249671
 23
119.0243120782
 33
0.0
  0
SOLID
  5
21A
330
216
100
AcDbEntity
  8
VERMASSUNG
100
AcDbTrace
 10
218.2470249671
 20
97.0243120782
 30
0.0
 11
218.6970249671
 21
100.0243120782
 31
0.0
 12
217.7970249671
 22
100.0243120782
 32
0.0
 13
217.7970249671
 23
100.0243120782
 33
0.0
  0
LINE
  5
21B
330
216
100
AcDbEntity
  8
VERMASSUNG
100
AcDbLine
 10
211.6908775444
 20
122.0243120782
 30
0.0
 11
219.2470249671
 21
122.0243120782
 31
0.0
  0
LINE
  5
21C
330
216
100
AcDbEntity
  8
VERMASSUNG
100
AcDbLine
 10
211.6908775444
 20
97.0243120782
 30
0.0
 11
219.2470249671
 21
97.0243120782
 31
0.0
  0
LINE
  5
21D
330
216
100
AcDbEntity
  8
VERMASSUNG
100
AcDbLine
 10
218.2470249671
 20
122.0243120782
 30
0.0
 11
218.2470249671
 21
97.0243120782
 31
0.0
  0
MTEXT
  5
21E
330
216
100
AcDbEntity
  8
VERMASSUNG
100
AcDbMText
 10
215.4688897109
 20
103.1193124346
 30
0.0
 40
2.0
 41
0.0
 71
     1
 72
     1
  1
MBM
  7
SLDTEXTSTYLE0
 11
-7.044195017643634E-15
 21
1.0
 31
0.0
 73
     1
 44
1.0
  0
MTEXT
  5
21F
330
216
100
AcDbEntity
  8
VERMASSUNG
100
AcDbMText
 10
215.6688896622
 20
109.5193122729
 30
0.0
 40
2.0
 41
0.0
 71
     1
 72
     1
  1
%%c
  7
SLDTEXTSTYLE0
 11
-7.044195017643634E-15
 21
1.0
 31
0.0
 73
     1
 44
1.0
  0
MTEXT
  5
220
330
216
100
AcDbEntity
  8
VERMASSUNG
100
AcDbMText
 10
215.4688897109
 20
113.1293127529
 30
0.0
 40
2.0
 41
0.0
 71
     1
 72
     1
  1
25
  7
SLDTEXTSTYLE0
 11
-7.044195017643634E-15
 21
1.0
 31
0.0
 73
     1
 44
1.0
  0
ENDBLK
  5
218
330
216
100
AcDbEntity
  8
0
100
AcDbBlockEnd
  0
ENDSEC
  0
SECTION
  2
ENTITIES
  0
MTEXT
  5
78
330
1F
100
AcDbEntity
  8
KOPF_DÜNN
100
AcDbMText
 10
13.8892156294
 20
23.8442973028
 30
0.0
 40
3.0
 41
0.0
 71
     1
 72
     1
  1
102.425.251
  7
SLDTEXTSTYLE0
 73
     1
 44
1.0
  0
MTEXT
  5
79
330
1F
100
AcDbEntity
  8
VERMASSUNG
100
AcDbMText
 10
13.9329988022
 20
28.8834360957
 30
0.0
 40
3.0
 41
0.0
 71
     1
 72
     1
  1
Aufnahme_Master shank MBM 25
  7
SLDTEXTSTYLE0
 73
     1
 44
1.0
  0
MTEXT
  5
7A
330
1F
100
AcDbEntity
  8
VERMASSUNG
100
AcDbMText
 10
98.8601118557
 20
13.8365368761
 30
0.0
 40
2.0
 41
0.0
 71
     1
 72
     1
  1
Datum: 01.11.2007
  7
SLDTEXTSTYLE0
 73
     1
 44
1.0
  0
MTEXT
  5
7B
330
1F
100
AcDbEntity
  8
VERMASSUNG
100
AcDbMText
 10
13.933048693
 20
18.0482802738
 30
0.0
 40
2.0
 41
0.0
 71
     1
 72
     1
  1
DIN 69871 B 40
  7
SLDTEXTSTYLE0
 73
     1
 44
1.0
  0
MTEXT
  5
7C
330
1F
100
AcDbEntity
  8
VERMASSUNG
100
AcDbMText
 10
13.9808475933
 20
13.9090974274
 30
0.0
 40
2.0
 41
0.0
 71
     1
 72
     1
  1
Gewicht: 883g
  7
SLDTEXTSTYLE0
 73
     1
 44
1.0
  0
ARC
  5
7D
330
1F
100
AcDbEntity
  8
0
  6
Continuous
 62
     7
370
    15
100
AcDbCircle
 10
170.3908775444
 20
86.6993120782
 30
0.0
 40
0.6000000000000085
100
AcDbArc
 50
0.0
 51
90.0
  0
ARC
  5
7E
330
1F
100
AcDbEntity
  8
0
  6
Continuous
 62
     7
370
    15
100
AcDbCircle
 10
170.3908775444
 20
132.3493120782
 30
0.0
 40
0.6000000000000227
100
AcDbArc
 50
270.0
 51
0.0
  0
LINE
  5
7F
330
1F
100
AcDbEntity
  8
0
  6
Continuous
 62
     7
370
    15
100
AcDbLine
 10
167.7908775444
 20
131.7493120424
 30
0.0
 11
100.3965687986
 21
121.9209755055
 31
0.0
  0
LINE
  5
80
330
1F
100
AcDbEntity
  8
0
  6
Continuous
 62
     7
370
    15
100
AcDbLine
 10
100.3965687986
 20
97.1276486508
 30
0.0
 11
167.7908775444
 21
87.2993121139
 31
0.0
  0
LINE
  5
81
330
1F
100
AcDbEntity
  8
0
  6
Continuous
 62
     7
370
    15
100
AcDbLine
 10
167.7908775444
 20
87.2993121139
 30
0.0
 11
170.3908775515
 21
87.2993121139
 31
0.0
  0
LINE
  5
82
330
1F
100
AcDbEntity
  8
0
  6
Continuous
 62
     7
370
    15
100
AcDbLine
 10
170.3908775515
 20
131.7493120424
 30
0.0
 11
167.7908775444
 21
131.7493120424
 31
0.0
  0
ARC
  5
83
330
1F
100
AcDbEntity
  8
0
  6
Continuous
 62
     7
370
    15
100
AcDbCircle
 10
190.8408775444
 20
93.0243120782
 30
0.0
 40
4.000000000000014
100
AcDbArc
 50
90.0
 51
180.0
  0
ARC
  5
84
330
1F
100
AcDbEntity
  8
0
  6
Continuous
 62
     7
370
    15
100
AcDbCircle
 10
190.8408775444
 20
126.0243120782
 30
0.0
 40
4.0
100
AcDbArc
 50
180.0
 51
270.0
  0
LINE
  5
85
330
1F
100
AcDbEntity
  8
0
  6
Continuous
 62
     7
370
    15
100
AcDbLine
 10
211.6908793385
 20
97.0243118919
 30
0.0
 11
211.8908789988
 21
97.2243124835
 31
0.0
  0
LINE
  5
86
330
1F
100
AcDbEntity
  8
0
  6
Continuous
 62
     7
370
    15
100
AcDbLine
 10
211.8908789988
 20
121.8243116728
 30
0.0
 11
211.6908793385
 21
122.0243122644
 31
0.0
  0
LINE
  5
87
330
1F
100
AcDbEntity
  8
0
  6
Continuous
 62
     7
370
    15
100
AcDbLine
 10
190.8408784355
 20
97.0243118919
 30
0.0
 11
211.6908793385
 21
97.0243118919
 31
0.0
  0
LINE
  5
88
330
1F
100
AcDbEntity
  8
0
  6
Continuous
 62
     7
370
    15
100
AcDbLine
 10
211.6908793385
 20
122.0243122644
 30
0.0
 11
190.8408784355
 21
122.0243122644
 31
0.0
  0
ARC
  5
89
330
1F
100
AcDbEntity
  8
0
  6
Continuous
 62
     7
370
    15
100
AcDbCircle
 10
100.5408775444
 20
98.1171814811
 30
0.0
 40
1.0
100
AcDbArc
 50
180.0
 51
261.7028550302
  0
ARC
  5
8A
330
1F
100
AcDbEntity
  8
0
  6
Continuous
 62
     7
370
    15
100
AcDbCircle
 10
100.5408775444
 20
120.9314426752
 30
0.0
 40
1.0
100
AcDbArc
 50
98.2971449698
 51
180.0
  0
ARC
  5
8B
330
1F
100
AcDbEntity
  8
0
  6
Continuous
 62
     7
370
    15
100
AcDbCircle
 10
180.7908775444
 20
100.8027984234
 30
0.0
 40
1.500000000000004
100
AcDbArc
 50
191.5274417161
 51
336.2988525406
  0
SPLINE
  5
8C
330
1F
100
AcDbEntity
  8
0
  6
Continuous
 62
     7
370
    15
100
AcDbSpline
210
0.0
220
0.0
230
1.0
 70
     8
 71
     3
 72
    11
 73
     7
 74
     0
 42
0.000000001
 43
0.00000001
 40
0.0
 40
0.0
 40
0.0
 40
0.0
 40
0.1336648389971822
 40
0.4825472256831061
 40
0.815635360979782
 40
1.0
 40
1.0
 40
1.0
 40
1.0
 10
206.3191336627428
 20
109.9526249146061
 30
0.0
 10
206.2995193073352
 20
109.8827653753599
 30
0.0
 10
206.2287089666612
 20
109.6305634716753
 30
0.0
 10
206.0964286101648
 20
109.159419335374
 30
0.0
 10
205.9543622559495
 20
108.6534150470711
 30
0.0
 10
205.8781052619772
 20
108.3818216522365
 30
0.0
 10
205.8509354527419
 20
108.2850549119962
 30
0.0
  0
SPLINE
  5
8D
330
1F
100
AcDbEntity
  8
0
  6
Continuous
 62
     7
370
    15
100
AcDbSpline
210
0.0
220
0.0
230
1.0
 70
     8
 71
     3
 72
    10
 73
     6
 74
     0
 42
0.000000001
 43
0.00000001
 40
0.0
 40
0.0
 40
0.0
 40
0.0
 40
0.4391162917556749
 40
0.7513674875009481
 40
1.0
 40
1.0
 40
1.0
 40
1.0
 10
205.1090774174158
 20
111.1918820516644
 30
0.0
 10
205.2823058059828
 20
111.0144725667361
 30
0.0
 10
205.5787151661571
 20
110.7109089744665
 30
0.0
 10
206.0096016106693
 20
110.2696290494074
 30
0.0
 10
206.2240648675365
 20
110.0499886640759
 30
0.0
 10
206.3191336627428
 20
109.9526249146061
 30
0.0
  0
SPLINE
  5
8E
330
1F
100
AcDbEntity
  8
0
  6
Continuous
 62
     7
370
    15
100
AcDbSpline
210
0.0
220
0.0
230
1.0
 70
     8
 71
     3
 72
    10
 73
     6
 74
     0
 42
0.000000001
 43
0.00000001
 40
0.0
 40
0.0
 40
0.0
 40
0.0
 40
0.4391161921244525
 40
0.7513666260441089
 40
1.0
 40
1.0
 40
1.0
 40
1.0
 10
203.4308192367976
 20
110.7635692443205
 30
0.0
 10
203.6710746313169
 20
110.8248855200539
 30
0.0
 10
204.0821728518029
 20
110.9298030886739
 30
0.0
 10
204.6797767992349
 20
111.0823194263982
 30
0.0
 10
204.977222944731
 20
111.1582312215266
 30
0.0
 10
205.1090774174158
 20
111.1918820516644
 30
0.0
  0
SPLINE
  5
8F
330
1F
100
AcDbEntity
  8
0
  6
Continuous
 62
     7
370
    15
100
AcDbSpline
210
0.0
220
0.0
230
1.0
 70
     8
 71
     3
 72
    11
 73
     7
 74
     0
 42
0.000000001
 43
0.00000001
 40
0.0
 40
0.0
 40
0.0
 40
0.0
 40
0.1843641404358638
 40
0.5174528069874662
 40
0.8663351586153778
 40
0.9999999999999999
 40
0.9999999999999999
 40
0.9999999999999999
 40
0.9999999999999999
 10
202.9626210267966
 20
109.0959992417106
 30
0.0
 10
202.9897892102777
 20
109.1927661002157
 30
0.0
 10
203.0660418523038
 20
109.4643605786128
 30
0.0
 10
203.2081161837481
 20
109.9703628280895
 30
0.0
 10
203.3403943743699
 20
110.4415078448032
 30
0.0
 10
203.4112048439929
 20
110.6937097098102
 30
0.0
 10
203.4308192367976
 20
110.7635692443205
 30
0.0
  0
SPLINE
  5
90
330
1F
100
AcDbEntity
  8
0
  6
Continuous
 62
     7
370
    15
100
AcDbSpline
210
0.0
220
0.0
230
1.0
 70
     8
 71
     3
 72
    10
 73
     6
 74
     0
 42
0.000000001
 43
0.00000001
 40
0.0
 40
0.0
 40
0.0
 40
0.0
 40
0.4391162917556749
 40
0.7513674875009481
 40
1.0
 40
1.0
 40
1.0
 40
1.0
 10
204.1726772721236
 20
107.8567421046523
 30
0.0
 10
203.9994488835566
 20
108.0341515895806
 30
0.0
 10
203.7030395233823
 20
108.3377151818502
 30
0.0
 10
203.2721530788701
 20
108.7789951069093
 30
0.0
 10
203.0576898220029
 20
108.9986354922408
 30
0.0
 10
202.9626210267966
 20
109.0959992417106
 30
0.0
  0
SPLINE
  5
91
330
1F
100
AcDbEntity
  8
0
  6
Continuous
 62
     7
370
    15
100
AcDbSpline
210
0.0
220
0.0
230
1.0
 70
     8
 71
     3
 72
    10
 73
     6
 74
     0
 42
0.000000001
 43
0.00000001
 40
0.0
 40
0.0
 40
0.0
 40
0.0
 40
0.4391161921244525
 40
0.7513666260441089
 40
1.0
 40
1.0
 40
1.0
 40
1.0
 10
205.8509354527419
 20
108.2850549119962
 30
0.0
 10
205.6106800582225
 20
108.2237386362628
 30
0.0
 10
205.1995818377365
 20
108.1188210676428
 30
0.0
 10
204.6019778903045
 20
107.9663047299185
 30
0.0
 10
204.3045317448084
 20
107.8903929347901
 30
0.0
 10
204.1726772721236
 20
107.8567421046523
 30
0.0
  0
CIRCLE
  5
92
330
1F
100
AcDbEntity
  8
0
  6
Continuous
 62
     7
370
    15
100
AcDbCircle
 10
204.6408775444
 20
109.5243120782
 30
0.0
 40
1.749999999999998
  0
CIRCLE
  5
93
330
1F
100
AcDbEntity
  8
0
  6
Continuous
 62
     7
370
    15
100
AcDbCircle
 10
204.6408775444
 20
109.5243120782
 30
0.0
 40
2.600000000000021
  0
CIRCLE
  5
94
330
1F
100
AcDbEntity
  8
0
  6
Continuous
 62
     7
370
    15
100
AcDbCircle
 10
204.6408775444
 20
109.5243120782
 30
0.0
 40
3.000000000000015
  0
ARC
  5
95
330
1F
100
AcDbEntity
  8
0
  6
Continuous
 62
     7
370
    15
100
AcDbCircle
 10
204.6408775444
 20
109.5243120782
 30
0.0
 40
1.500000000000031
100
AcDbArc
 50
284.3170005442
 51
344.3170005442
  0
ARC
  5
96
330
1F
100
AcDbEntity
  8
0
  6
Continuous
 62
     7
370
    15
100
AcDbCircle
 10
204.6408775444
 20
109.5243120782
 30
0.0
 40
1.499999999999995
100
AcDbArc
 50
164.3170005442
 51
224.3170005442
  0
ARC
  5
97
330
1F
100
AcDbEntity
  8
0
  6
Continuous
 62
     7
370
    15
100
AcDbCircle
 10
204.6408775444
 20
109.5243120782
 30
0.0
 40
1.500000000000005
100
AcDbArc
 50
44.3170005442
 51
104.3170005442
  0
ARC
  5
98
330
1F
100
AcDbEntity
  8
0
  6
Continuous
 62
     7
370
    15
100
AcDbCircle
 10
204.6408775444
 20
109.5243120782
 30
0.0
 40
1.499999999999996
100
AcDbArc
 50
104.3170005442
 51
164.3170005442
  0
ARC
  5
99
330
1F
100
AcDbEntity
  8
0
  6
Continuous
 62
     7
370
    15
100
AcDbCircle
 10
204.6408775444
 20
109.5243120782
 30
0.0
 40
1.500000000000031
100
AcDbArc
 50
344.3170005442
 51
44.3170005442
  0
ARC
  5
9A
330
1F
100
AcDbEntity
  8
0
  6
Continuous
 62
     7
370
    15
100
AcDbCircle
 10
204.6408775444
 20
109.5243120782
 30
0.0
 40
1.50000000000001
100
AcDbArc
 50
224.3170005442
 51
284.3170005442
  0
SPLINE
  5
9B
330
1F
100
AcDbEntity
  8
0
  6
Continuous
 62
     7
370
    15
100
AcDbSpline
210
0.0
220
0.0
230
1.0
 70
     8
 71
     3
 72
    12
 73
     8
 74
     0
 42
0.000000001
 43
0.00000001
 40
0.0
 40
0.0
 40
0.0
 40
0.0
 40
0.2499999999999992
 40
0.2499999999999992
 40
0.4999999999999983
 40
0.4999999999999983
 40
1.0
 40
1.0
 40
1.0
 40
1.0
 10
186.2408775444453
 20
79.07621972952168
 30
0.0
 10
186.3364194545813
 20
79.07621972952168
 30
0.0
 10
186.428564396444
 20
79.09247339871789
 30
0.0
 10
186.5848906730539
 20
79.14608181963138
 30
0.0
 10
186.6485588156739
 20
79.18249294491305
 30
0.0
 10
186.7974266611043
 20
79.30461658459953
 30
0.0
 10
186.8408775444452
 20
79.39976926003658
 30
0.0
 10
186.8408775444452
 20
79.49539571565626
 30
0.0
  0
SPLINE
  5
9C
330
1F
100
AcDbEntity
  8
0
  6
Continuous
 62
     7
370
    15
100
AcDbSpline
210
0.0
220
0.0
230
1.0
 70
    24
 71
     3
 72
    12
 73
     8
 74
     0
 42
0.000000001
 43
0.00000001
 40
0.0
 40
0.0
 40
0.0
 40
0.0
 40
0.4999999999999971
 40
0.4999999999999971
 40
0.7499999999999986
 40
0.7499999999999986
 40
1.0
 40
1.0
 40
1.0
 40
1.0
 10
186.8408775444453
 20
127.8743120781584
 30
0.0
 10
186.8408775444453
 20
127.8743120781584
 30
0.0
 10
186.7911975494902
 20
127.8743120781584
 30
0.0
 10
186.6352789924727
 20
127.8743120781584
 30
0.0
 10
186.5693979278965
 20
127.8743120781584
 30
0.0
 10
186.4167522724078
 20
127.8743120781584
 30
0.0
 10
186.3295023645469
 20
127.8743120781584
 30
0.0
 10
186.2408775444451
 20
127.8743120781584
 30
0.0
  0
LINE
  5
9D
330
1F
100
AcDbEntity
  8
0
  6
Continuous
 62
     7
370
    15
100
AcDbLine
 10
186.8408777799
 20
79.4953951828
 30
0.0
 11
186.8408777799
 21
127.8743116401
 31
0.0
  0
LINE
  5
9E
330
1F
100
AcDbEntity
  8
0
  6
Continuous
 62
     7
370
    15
100
AcDbLine
 10
171.5908776085
 20
79.0762199305
 30
0.0
 11
175.3690409522
 21
79.0762199305
 31
0.0
  0
LINE
  5
9F
330
1F
100
AcDbEntity
  8
0
  6
Continuous
 62
     7
370
    15
100
AcDbLine
 10
175.3690409522
 20
127.8743116401
 30
0.0
 11
171.5908776085
 21
127.8743116401
 31
0.0
  0
LINE
  5
A0
330
1F
100
AcDbEntity
  8
0
  6
Continuous
 62
     7
370
    15
100
AcDbLine
 10
175.3690409522
 20
79.0762199305
 30
0.0
 11
175.3690409522
 21
127.8743116401
 31
0.0
  0
SPLINE
  5
A1
330
1F
100
AcDbEntity
  8
0
  6
Continuous
 62
     7
370
    15
100
AcDbSpline
210
0.0
220
0.0
230
1.0
 70
     8
 71
     3
 72
     8
 73
     4
 74
     0
 42
0.000000001
 43
0.00000001
 40
0.0
 40
0.0
 40
0.0
 40
0.0
 40
1.0
 40
1.0
 40
1.0
 40
1.0
 10
176.9808775444453
 20
81.7074856186569
 30
0.0
 10
176.5967427958609
 20
81.0148441967127
 30
0.0
 10
176.211756519368
 20
80.32265802238899
 30
0.0
 10
175.8260879407416
 20
79.63086373154484
 30
0.0
  0
SPLINE
  5
A2
330
1F
100
AcDbEntity
  8
0
  6
Continuous
 62
     7
370
    15
100
AcDbSpline
210
0.0
220
0.0
230
1.0
 70
     8
 71
     3
 72
     8
 73
     4
 74
     0
 42
0.000000001
 43
0.00000001
 40
0.0
 40
0.0
 40
0.0
 40
0.0
 40
0.0011901715795577
 40
0.0011901715795577
 40
0.0011901715795577
 40
0.0011901715795577
 10
175.3690409023885
 20
79.07621972952168
 30
0.0
 10
175.5228870918845
 20
79.26078496720527
 30
0.0
 10
175.6752823595571
 20
79.44566032773389
 30
0.0
 10
175.8260879407416
 20
79.63086373154484
 30
0.0
  0
SPLINE
  5
A3
330
1F
100
AcDbEntity
  8
0
  6
Continuous
 62
     7
370
    15
100
AcDbSpline
210
0.0
220
0.0
230
1.0
 70
    24
 71
     3
 72
     8
 73
     4
 74
     0
 42
0.000000001
 43
0.00000001
 40
0.0
 40
0.0
 40
0.0
 40
0.0
 40
1.0
 40
1.0
 40
1.0
 40
1.0
 10
176.9808775444453
 20
127.8743120781584
 30
0.0
 10
176.4561450560834
 20
127.8743120781584
 30
0.0
 10
175.9174695718646
 20
127.8743120781584
 30
0.0
 10
175.3690409023885
 20
127.8743120781584
 30
0.0
  0
LINE
  5
A4
330
1F
100
AcDbEntity
  8
0
  6
Continuous
 62
     7
370
    15
100
AcDbLine
 10
176.9808772068
 20
81.7074856005
 30
0.0
 11
176.9808772068
 21
127.8743116401
 31
0.0
  0
LINE
  5
A5
330
1F
100
AcDbEntity
  8
0
  6
Continuous
 62
     7
370
    15
100
AcDbLine
 10
182.4127146091
 20
99.7722918383
 30
0.0
 11
182.4127146091
 21
127.8743116401
 31
0.0
  0
LINE
  5
A6
330
1F
100
AcDbEntity
  8
0
  6
Continuous
 62
     7
370
    15
100
AcDbLine
 10
186.2408769365
 20
127.8743116401
 30
0.0
 11
182.4127146091
 21
127.8743116401
 31
0.0
  0
LINE
  5
A7
330
1F
100
AcDbEntity
  8
0
  6
Continuous
 62
     7
370
    15
100
AcDbLine
 10
182.4127146091
 20
79.0762199305
 30
0.0
 11
186.2408769365
 21
79.0762199305
 31
0.0
  0
LINE
  5
A8
330
1F
100
AcDbEntity
  8
0
  6
Continuous
 62
     7
370
    15
100
AcDbLine
 10
182.4127146091
 20
79.0762199305
 30
0.0
 11
182.4127146091
 21
97.5728124596
 31
0.0
  0
SPLINE
  5
A9
330
1F
100
AcDbEntity
  8
0
  6
Continuous
 62
     7
370
    15
100
AcDbSpline
210
0.0
220
0.0
230
1.0
 70
     8
 71
     3
 72
    12
 73
     8
 74
     0
 42
0.000000001
 43
0.00000001
 40
0.0
 40
0.0
 40
0.0
 40
0.0
 40
0.2499999999999997
 40
0.2499999999999997
 40
0.4999999999999993
 40
0.4999999999999993
 40
1.0
 40
1.0
 40
1.0
 40
1.0
 10
182.412714186502
 20
97.57281227995131
 30
0.0
 10
182.5356616802976
 20
97.7307691286464
 30
0.0
 10
182.6292058834064
 20
97.90260249562392
 30
0.0
 10
182.7581452725686
 20
98.27427520526977
 30
0.0
 10
182.7906980299537
 20
98.467463651461
 30
0.0
 10
182.7912343716876
 20
99.05576018973724
 30
0.0
 10
182.6586107147196
 20
99.44777842762598
 30
0.0
 10
182.412714186502
 20
99.77229201033467
 30
0.0
  0
SPLINE
  5
AA
330
1F
100
AcDbEntity
  8
0
  6
Continuous
 62
     7
370
    15
100
AcDbSpline
210
0.0
220
0.0
230
1.0
 70
     8
 71
     3
 72
    10
 73
     6
 74
     0
 42
0.000000001
 43
0.00000001
 40
0.0
 40
0.0
 40
0.0
 40
0.0
 40
0.5
 40
0.5
 40
1.0
 40
1.0
 40
1.0
 40
1.0
 10
171.2070220857925
 20
79.17258222869015
 30
0.0
 10
171.2557920587738
 20
79.14435422148212
 30
0.0
 10
171.3132441820761
 20
79.12025961724054
 30
0.0
 10
171.4438410850649
 20
79.08599614414798
 30
0.0
 10
171.5163307649071
 20
79.07621972952167
 30
0.0
 10
171.5908775444453
 20
79.07621972952167
 30
0.0
  0
SPLINE
  5
AB
330
1F
100
AcDbEntity
  8
0
  6
Continuous
 62
     7
370
    15
100
AcDbSpline
210
0.0
220
0.0
230
1.0
 70
     8
 71
     3
 72
    10
 73
     6
 74
     0
 42
0.000000001
 43
0.00000001
 40
0.0
 40
0.0
 40
0.0
 40
0.0
 40
0.5
 40
0.5
 40
1.0
 40
1.0
 40
1.0
 40
1.0
 10
171.2070220857925
 20
79.17258222869015
 30
0.0
 10
171.1488994257163
 20
79.23988738855195
 30
0.0
 10
171.0964962597128
 20
79.31997277558558
 30
0.0
 10
171.0175932381665
 20
79.50399221727434
 30
0.0
 10
170.9908775444453
 20
79.6092035746948
 30
0.0
 10
170.9908775444453
 20
79.71793692115544
 30
0.0
  0
LINE
  5
AC
330
1F
100
AcDbEntity
  8
0
  6
Continuous
 62
     7
370
    15
100
AcDbLine
 10
170.9908774636
 20
79.7179365746
 30
0.0
 11
170.9908774636
 21
127.8743116401
 31
0.0
  0
SPLINE
  5
AD
330
1F
100
AcDbEntity
  8
0
  6
Continuous
 62
     7
370
    15
100
AcDbSpline
210
0.0
220
0.0
230
1.0
 70
    24
 71
     3
 72
    12
 73
     8
 74
     0
 42
0.000000001
 43
0.00000001
 40
0.0
 40
0.0
 40
0.0
 40
0.0
 40
0.25
 40
0.25
 40
0.5
 40
0.5
 40
1.0
 40
1.0
 40
1.0
 40
1.0
 10
171.5908775444453
 20
127.8743120781584
 30
0.0
 10
171.5024621671348
 20
127.8743120781584
 30
0.0
 10
171.4151917299642
 20
127.8743120781584
 30
0.0
 10
171.2627280051923
 20
127.8743120781584
 30
0.0
 10
171.19708939297
 20
127.8743120781584
 30
0.0
 10
171.040430991686
 20
127.8743120781584
 30
0.0
 10
170.9908775444453
 20
127.8743120781584
 30
0.0
 10
170.9908775444453
 20
127.8743120781584
 30
0.0
  0
LINE
  5
AE
330
1F
100
AcDbEntity
  8
0
  6
Continuous
 62
     7
370
    15
100
AcDbLine
 10
180.8008774231
 20
101.523029267
 30
0.0
 11
180.8008774231
 21
127.8743116401
 31
0.0
  0
SPLINE
  5
AF
330
1F
100
AcDbEntity
  8
0
  6
Continuous
 62
     7
370
    15
100
AcDbSpline
210
0.0
220
0.0
230
1.0
 70
    24
 71
     3
 72
     8
 73
     4
 74
     0
 42
0.000000001
 43
0.00000001
 40
0.0
 40
0.0
 40
0.0
 40
0.0
 40
1.0
 40
1.0
 40
1.0
 40
1.0
 10
182.412714186502
 20
127.8743120781584
 30
0.0
 10
181.864285517026
 20
127.8743120781584
 30
0.0
 10
181.3256100328072
 20
127.8743120781584
 30
0.0
 10
180.8008775444453
 20
127.8743120781584
 30
0.0
  0
SPLINE
  5
B0
330
1F
100
AcDbEntity
  8
0
  6
Continuous
 62
     7
370
    15
100
AcDbSpline
210
0.0
220
0.0
230
1.0
 70
     8
 71
     3
 72
    12
 73
     8
 74
     0
 42
0.000000001
 43
0.00000001
 40
0.0
 40
0.0
 40
0.0
 40
0.0
 40
0.2499999999999994
 40
0.2499999999999994
 40
0.4999999999999989
 40
0.4999999999999989
 40
1.0
 40
1.0
 40
1.0
 40
1.0
 10
182.412714186502
 20
99.77229201033467
 30
0.0
 10
182.2978181352414
 20
99.99203244539122
 30
0.0
 10
182.1710521187687
 20
100.189000797013
 30
0.0
 10
181.9108371851501
 20
100.5427183698519
 30
0.0
 10
181.7773297271879
 20
100.6995436637241
 30
0.0
 10
181.3689314585997
 20
101.1260862346318
 30
0.0
 10
181.0852783236622
 20
101.352778413587
 30
0.0
 10
180.8008775444454
 20
101.5230295579825
 30
0.0
  0
SPLINE
  5
B1
330
1F
100
AcDbEntity
  8
0
  6
Continuous
 62
     7
370
    15
100
AcDbSpline
210
0.0
220
0.0
230
1.0
 70
     8
 71
     3
 72
    14
 73
    10
 74
     0
 42
0.000000001
 43
0.00000001
 40
0.0
 40
0.0
 40
0.0
 40
0.0
 40
0.2499999999999995
 40
0.2499999999999995
 40
0.4999999999999997
 40
0.4999999999999997
 40
0.7499999999999998
 40
0.7499999999999998
 40
1.0
 40
1.0
 40
1.0
 40
1.0
 10
180.8008775444453
 20
101.5772732078287
 30
0.0
 10
180.8008775444453
 20
101.6139240759925
 30
0.0
 10
180.7795497557335
 20
101.6503908732414
 30
0.0
 10
180.6970913530768
 20
101.7155297277823
 30
0.0
 10
180.6359751612217
 20
101.7436008583732
 30
0.0
 10
180.4846720681595
 20
101.7774287401001
 30
0.0
 10
180.393294044769
 20
101.7828918814966
 30
0.0
 10
180.2009203317161
 20
101.761965963484
 30
0.0
 10
180.0987399922371
 20
101.7354305381087
 30
0.0
 10
180.0008775444452
 20
101.6949443648274
 30
0.0
  0
SPLINE
  5
B2
330
1F
100
AcDbEntity
  8
0
  6
Continuous
 62
     7
370
    15
100
AcDbSpline
210
0.0
220
0.0
230
1.0
 70
     8
 71
     3
 72
    12
 73
     8
 74
     0
 42
0.000000001
 43
0.00000001
 40
0.0
 40
0.0
 40
0.0
 40
0.0
 40
0.499999999999999
 40
0.499999999999999
 40
0.7499999999999994
 40
0.7499999999999994
 40
1.0
 40
1.0
 40
1.0
 40
1.0
 10
180.8008775444453
 20
97.76430605976141
 30
0.0
 10
181.0850840790106
 20
97.59684189746767
 30
0.0
 10
181.3637798131143
 20
97.48520479795607
 30
0.0
 10
181.7731258563036
 20
97.41789153231672
 30
0.0
 10
181.9092651936232
 20
97.41274049230275
 30
0.0
 10
182.1705852426192
 20
97.45050642992211
 30
0.0
 10
182.296006425051
 20
97.49205618826639
 30
0.0
 10
182.4127141865024
 20
97.57281227994922
 30
0.0
  0
LINE
  5
B3
330
1F
100
AcDbEntity
  8
0
  6
Continuous
 62
     7
370
    15
100
AcDbLine
 10
180.8008774231
 20
97.8185493715
 30
0.0
 11
180.8008774231
 21
97.7643063507
 31
0.0
  0
SPLINE
  5
B4
330
1F
100
AcDbEntity
  8
0
  6
Continuous
 62
     7
370
    15
100
AcDbSpline
210
0.0
220
0.0
230
1.0
 70
     8
 71
     3
 72
    14
 73
    10
 74
     0
 42
0.000000001
 43
0.00000001
 40
0.0
 40
0.0
 40
0.0
 40
0.0
 40
0.25
 40
0.25
 40
0.5
 40
0.5
 40
0.75
 40
0.75
 40
1.0
 40
1.0
 40
1.0
 40
1.0
 10
180.0008775444417
 20
98.24183288805158
 30
0.0
 10
180.0982869644255
 20
98.2034181686574
 30
0.0
 10
180.2006112074391
 20
98.16571776387464
 30
0.0
 10
180.3926128929766
 20
98.0946729782805
 30
0.0
 10
180.484047522631
 20
98.06047151692246
 30
0.0
 10
180.6358263899261
 20
97.99347509151707
 30
0.0
 10
180.6968032798406
 20
97.96033362320757
 30
0.0
 10
180.779821218405
 20
97.8906560555575
 30
0.0
 10
180.8008775444453
 20
97.85492234439029
 30
0.0
 10
180.8008775444453
 20
97.81854970960951
 30
0.0
  0
SPLINE
  5
B5
330
1F
100
AcDbEntity
  8
0
  6
Continuous
 62
     7
370
    15
100
AcDbSpline
210
0.0
220
0.0
230
1.0
 70
     8
 71
     3
 72
    22
 73
    18
 74
     0
 42
0.000000001
 43
0.00000001
 40
0.0
 40
0.0
 40
0.0
 40
0.0
 40
0.125
 40
0.125
 40
0.25
 40
0.25
 40
0.375
 40
0.375
 40
0.5
 40
0.5
 40
0.625
 40
0.625
 40
0.75
 40
0.75
 40
0.875
 40
0.875
 40
1.0
 40
1.0
 40
1.0
 40
1.0
 10
180.0008775444453
 20
101.6949443648274
 30
0.0
 10
179.8208608498759
 20
101.6204705778509
 30
0.0
 10
179.6564290280057
 20
101.5230213158669
 30
0.0
 10
179.3580327942473
 20
101.2836518823028
 30
0.0
 10
179.2277290668824
 20
101.1437552702324
 30
0.0
 10
179.0145102832634
 20
100.8355036801724
 30
0.0
 10
178.930882426152
 20
100.6653404620533
 30
0.0
 10
178.8197515492336
 20
100.314845727263
 30
0.0
 10
178.7909155543798
 20
100.1297207661118
 30
0.0
 10
178.79083961172
 20
99.76651389149471
 30
0.0
 10
178.8194982371471
 20
99.58314387778725
 30
0.0
 10
178.9306493302594
 20
99.23725276529402
 30
0.0
 10
179.0137164509032
 20
99.07173323802658
 30
0.0
 10
179.2274024090215
 20
98.77119350062276
 30
0.0
 10
179.3564093989455
 20
98.63732157933873
 30
0.0
 10
179.6560186784347
 20
98.40607480993441
 30
0.0
 10
179.8208613766958
 20
98.31282469327445
 30
0.0
 10
180.0008775444453
 20
98.24183288805018
 30
0.0
  0
SPLINE
  5
B6
330
1F
100
AcDbEntity
  8
0
  6
Continuous
 62
     7
370
    15
100
AcDbSpline
210
0.0
220
0.0
230
1.0
 70
     8
 71
     3
 72
     8
 73
     4
 74
     0
 42
0.000000001
 43
0.00000001
 40
0.0
 40
0.0
 40
0.0
 40
0.0
 40
0.0011901715795577
 40
0.0011901715795577
 40
0.0011901715795577
 40
0.0011901715795577
 10
181.9556671481489
 20
79.63086373154482
 30
0.0
 10
182.1064727293334
 20
79.44566032773389
 30
0.0
 10
182.2588679970061
 20
79.26078496720527
 30
0.0
 10
182.412714186502
 20
79.07621972952168
 30
0.0
  0
SPLINE
  5
B7
330
1F
100
AcDbEntity
  8
0
  6
Continuous
 62
     7
370
    15
100
AcDbSpline
210
0.0
220
0.0
230
1.0
 70
     8
 71
     3
 72
     8
 73
     4
 74
     0
 42
0.000000001
 43
0.00000001
 40
0.0
 40
0.0
 40
0.0
 40
0.0
 40
1.0
 40
1.0
 40
1.0
 40
1.0
 10
181.9556671481489
 20
79.63086373154482
 30
0.0
 10
181.5699985695225
 20
80.32265802238899
 30
0.0
 10
181.1850122930296
 20
81.0148441967127
 30
0.0
 10
180.8008775444453
 20
81.70748561865689
 30
0.0
  0
LINE
  5
B8
330
1F
100
AcDbEntity
  8
0
  6
Continuous
 62
     7
370
    15
100
AcDbLine
 10
180.8008774231
 20
81.7074856005
 30
0.0
 11
180.8008774231
 21
97.7643063507
 31
0.0
  0
SPLINE
  5
B9
330
1F
100
AcDbEntity
  8
0
  6
Continuous
 62
     7
370
    15
100
AcDbSpline
210
0.0
220
0.0
230
1.0
 70
    24
 71
     3
 72
    14
 73
    10
 74
     0
 42
0.000000001
 43
0.00000001
 40
0.0
 40
0.0
 40
0.0
 40
0.0
 40
0.25
 40
0.25
 40
0.5
 40
0.5
 40
0.75
 40
0.75
 40
1.0
 40
1.0
 40
1.0
 40
1.0
 10
180.8008775444453
 20
127.8743120781584
 30
0.0
 10
180.8008775444453
 20
127.8743120781584
 30
0.0
 10
180.7847959429855
 20
127.8743120781584
 30
0.0
 10
180.7193044297186
 20
127.8743120781584
 30
0.0
 10
180.6699964565912
 20
127.8743120781584
 30
0.0
 10
180.5354269348943
 20
127.8743120781584
 30
0.0
 10
180.449903858809
 20
127.8743120781584
 30
0.0
 10
180.242908363254
 20
127.8743120781584
 30
0.0
 10
180.1222147293104
 20
127.8743120781584
 30
0.0
 10
180.0008775444453
 20
127.8743120781584
 30
0.0
  0
SPLINE
  5
BA
330
1F
100
AcDbEntity
  8
0
  6
Continuous
 62
     7
370
    15
100
AcDbSpline
210
0.0
220
0.0
230
1.0
 70
     8
 71
     3
 72
    12
 73
     8
 74
     0
 42
0.000000001
 43
0.00000001
 40
0.0
 40
0.0
 40
0.0
 40
0.0
 40
0.2500000000000015
 40
0.2500000000000015
 40
0.500000000000003
 40
0.500000000000003
 40
1.0
 40
1.0
 40
1.0
 40
1.0
 10
177.7808775444453
 20
82.70645422187161
 30
0.0
 10
177.6744756940878
 20
82.70645422187162
 30
0.0
 10
177.5671602826913
 20
82.68368345785312
 30
0.0
 10
177.371688691664
 20
82.59744051120101
 30
0.0
 10
177.2815065757265
 20
82.53276419073048
 30
0.0
 10
177.0632850890057
 20
82.29983486667368
 30
0.0
 10
176.9808775444449
 20
82.08524962878266
 30
0.0
 10
176.9808775444452
 20
81.87223259034994
 30
0.0
  0
SPLINE
  5
BB
330
1F
100
AcDbEntity
  8
0
  6
Continuous
 62
     7
370
    15
100
AcDbSpline
210
0.0
220
0.0
230
1.0
 70
    24
 71
     3
 72
    14
 73
    10
 74
     0
 42
0.000000001
 43
0.00000001
 40
0.0
 40
0.0
 40
0.0
 40
0.0
 40
0.1250000000000007
 40
0.1250000000000007
 40
0.2500000000000014
 40
0.2500000000000014
 40
0.499999999999999
 40
0.499999999999999
 40
1.0
 40
1.0
 40
1.0
 40
1.0
 10
177.7808775444453
 20
127.8743120781584
 30
0.0
 10
177.7202602210277
 20
127.8743120781584
 30
0.0
 10
177.6581350728927
 20
127.8743120781584
 30
0.0
 10
177.5419174098712
 20
127.8743120781584
 30
0.0
 10
177.4873007701788
 20
127.8743120781584
 30
0.0
 10
177.3326244316706
 20
127.8743120781584
 30
0.0
 10
177.2465076828866
 20
127.8743120781584
 30
0.0
 10
177.045200102346
 20
127.8743120781584
 30
0.0
 10
176.9808775444452
 20
127.8743120781584
 30
0.0
 10
176.9808775444452
 20
127.8743120781584
 30
0.0
  0
LINE
  5
BC
330
1F
100
AcDbEntity
  8
0
  6
Continuous
 62
     7
370
    15
100
AcDbLine
 10
180.0008778508
 20
82.706453859
 30
0.0
 11
177.7808777104
 21
82.706453859
 31
0.0
  0
LINE
  5
BD
330
1F
100
AcDbEntity
  8
0
  6
Continuous
 62
     7
370
    15
100
AcDbLine
 10
180.0008778508
 20
127.8743116401
 30
0.0
 11
177.7808777104
 21
127.8743116401
 31
0.0
  0
SPLINE
  5
BE
330
1F
100
AcDbEntity
  8
0
  6
Continuous
 62
     7
370
    15
100
AcDbSpline
210
0.0
220
0.0
230
1.0
 70
     8
 71
     3
 72
    12
 73
     8
 74
     0
 42
0.000000001
 43
0.00000001
 40
0.0
 40
0.0
 40
0.0
 40
0.0
 40
0.5000000000000013
 40
0.5000000000000013
 40
0.7500000000000007
 40
0.7500000000000007
 40
1.0
 40
1.0
 40
1.0
 40
1.0
 10
180.8008775444453
 20
81.8722325903513
 30
0.0
 10
180.8008775444453
 20
82.08505514928419
 30
0.0
 10
180.7189521866255
 20
82.29931165592215
 30
0.0
 10
180.5000303831571
 20
82.53300128437202
 30
0.0
 10
180.4099830916661
 20
82.597486109216
 30
0.0
 10
180.2145696236463
 20
82.68368572037159
 30
0.0
 10
180.1072866566625
 20
82.70645422187161
 30
0.0
 10
180.0008775444453
 20
82.70645422187161
 30
0.0
  0
LINE
  5
BF
330
1F
100
AcDbEntity
  8
0
  6
Continuous
 62
     7
370
    15
100
AcDbLine
 10
167.7908775444
 20
87.2993121139
 30
0.0
 11
167.7908775444
 21
131.7493120424
 31
0.0
  0
SPLINE
  5
C0
330
1F
100
AcDbEntity
  8
0
  6
Continuous
 62
     7
370
    15
100
AcDbSpline
210
0.0
220
0.0
230
1.0
 70
     8
 71
     3
 72
     8
 73
     4
 74
     0
 42
0.000000001
 43
0.00000001
 40
0.0
 40
0.0
 40
0.0
 40
0.0
 40
0.0012409313617635
 40
0.0012409313617635
 40
0.0012409313617635
 40
0.0012409313617635
 10
175.9269228581492
 20
139.2368502344229
 30
0.0
 10
175.7416990185933
 20
139.4983777779
 30
0.0
 10
175.5557138306207
 20
139.7596362796754
 30
0.0
 10
175.3690409023885
 20
140.0206481573739
 30
0.0
  0
SPLINE
  5
C1
330
1F
100
AcDbEntity
  8
0
  6
Continuous
 62
     7
370
    15
100
AcDbSpline
210
0.0
220
0.0
230
1.0
 70
     8
 71
     3
 72
     8
 73
     4
 74
     0
 42
0.000000001
 43
0.00000001
 40
0.0
 40
0.0
 40
0.0
 40
0.0
 40
1.0
 40
1.0
 40
1.0
 40
1.0
 10
176.9808775444453
 20
137.3411385376598
 30
0.0
 10
176.6302253041177
 20
137.9734069467102
 30
0.0
 10
176.2788668810575
 20
138.605288846409
 30
0.0
 10
175.9269228581492
 20
139.2368502344229
 30
0.0
  0
SPLINE
  5
C2
330
1F
100
AcDbEntity
  8
0
  6
Continuous
 62
     7
370
    15
100
AcDbSpline
210
0.0
220
0.0
230
1.0
 70
     8
 71
     3
 72
     8
 73
     4
 74
     0
 42
0.000000001
 43
0.00000001
 40
0.0
 40
0.0
 40
0.0
 40
0.0
 40
1.0
 40
1.0
 40
1.0
 40
1.0
 10
175.3690409023885
 20
135.4345417182059
 30
0.0
 10
175.9179856805854
 20
134.2694456058922
 30
0.0
 10
176.4565960551022
 20
133.1002872890678
 30
0.0
 10
176.9808775444453
 20
131.9264511340168
 30
0.0
  0
LINE
  5
C3
330
1F
100
AcDbEntity
  8
0
  6
Continuous
 62
     7
370
    15
100
AcDbLine
 10
175.3690409522
 20
135.4345424316
 30
0.0
 11
175.3690409522
 21
140.0206485979
 31
0.0
  0
LINE
  5
C4
330
1F
100
AcDbEntity
  8
0
  6
Continuous
 62
     7
370
    15
100
AcDbLine
 10
176.9808772068
 20
131.9264514587
 30
0.0
 11
176.9808772068
 21
137.3411385558
 31
0.0
  0
LINE
  5
C5
330
1F
100
AcDbEntity
  8
0
  6
Continuous
 62
     7
370
    15
100
AcDbLine
 10
186.2408769365
 20
140.0206485979
 30
0.0
 11
182.4127146091
 21
140.0206485979
 31
0.0
  0
LINE
  5
C6
330
1F
100
AcDbEntity
  8
0
  6
Continuous
 62
     7
370
    15
100
AcDbLine
 10
182.4127146091
 20
135.4345424316
 30
0.0
 11
186.2408769365
 21
135.4345424316
 31
0.0
  0
LINE
  5
C7
330
1F
100
AcDbEntity
  8
0
  6
Continuous
 62
     7
370
    15
100
AcDbLine
 10
182.4127146091
 20
135.4345424316
 30
0.0
 11
182.4127146091
 21
140.0206485979
 31
0.0
  0
SPLINE
  5
C8
330
1F
100
AcDbEntity
  8
0
  6
Continuous
 62
     7
370
    15
100
AcDbSpline
210
0.0
220
0.0
230
1.0
 70
     8
 71
     3
 72
    12
 73
     8
 74
     0
 42
0.000000001
 43
0.00000001
 40
0.0
 40
0.0
 40
0.0
 40
0.0
 40
0.5
 40
0.5
 40
0.75
 40
0.75
 40
1.0
 40
1.0
 40
1.0
 40
1.0
 10
180.8008775444453
 20
137.1763915659654
 30
0.0
 10
180.8008775444453
 20
136.9632541643139
 30
0.0
 10
180.7182351292973
 20
136.7482746395762
 30
0.0
 10
180.499651718487
 20
136.5153555706905
 30
0.0
 10
180.4105617655062
 20
136.45148866087
 30
0.0
 10
180.2151564476087
 20
136.3651025064882
 30
0.0
 10
180.1086324006654
 20
136.3421699344451
 30
0.0
 10
180.0008775444453
 20
136.3421699344451
 30
0.0
  0
SPLINE
  5
C9
330
1F
100
AcDbEntity
  8
0
  6
Continuous
 62
     7
370
    15
100
AcDbSpline
210
0.0
220
0.0
230
1.0
 70
     8
 71
     3
 72
    12
 73
     8
 74
     0
 42
0.000000001
 43
0.00000001
 40
0.0
 40
0.0
 40
0.0
 40
0.0
 40
0.2500000000000015
 40
0.2500000000000015
 40
0.500000000000003
 40
0.500000000000003
 40
1.0
 40
1.0
 40
1.0
 40
1.0
 10
180.0008775444453
 20
130.6732482216148
 30
0.0
 10
180.1229595419336
 20
130.6732482216148
 30
0.0
 10
180.2435500844193
 20
130.7119745777885
 30
0.0
 10
180.4490453681191
 20
130.8419381655348
 30
0.0
 10
180.5345618510716
 20
130.9311444020816
 30
0.0
 10
180.7379562026158
 20
131.2360209396272
 30
0.0
 10
180.8008775444453
 20
131.4787915537293
 30
0.0
 10
180.8008775444453
 20
131.7215528976836
 30
0.0
  0
SPLINE
  5
CA
330
1F
100
AcDbEntity
  8
0
  6
Continuous
 62
     7
370
    15
100
AcDbSpline
210
0.0
220
0.0
230
1.0
 70
     8
 71
     3
 72
     8
 73
     4
 74
     0
 42
0.000000001
 43
0.00000001
 40
0.0
 40
0.0
 40
0.0
 40
0.0
 40
1.0
 40
1.0
 40
1.0
 40
1.0
 10
181.8548322307413
 20
139.2368502344229
 30
0.0
 10
181.502888207833
 20
138.605288846409
 30
0.0
 10
181.1515297847728
 20
137.9734069467102
 30
0.0
 10
180.8008775444453
 20
137.3411385376598
 30
0.0
  0
SPLINE
  5
CB
330
1F
100
AcDbEntity
  8
0
  6
Continuous
 62
     7
370
    15
100
AcDbSpline
210
0.0
220
0.0
230
1.0
 70
     8
 71
     3
 72
     8
 73
     4
 74
     0
 42
0.000000001
 43
0.00000001
 40
0.0
 40
0.0
 40
0.0
 40
0.0
 40
0.0012409313617635
 40
0.0012409313617635
 40
0.0012409313617635
 40
0.0012409313617635
 10
182.412714186502
 20
140.0206481573739
 30
0.0
 10
182.2260412582698
 20
139.7596362796754
 30
0.0
 10
182.0400560702973
 20
139.4983777779
 30
0.0
 10
181.8548322307413
 20
139.2368502344229
 30
0.0
  0
SPLINE
  5
CC
330
1F
100
AcDbEntity
  8
0
  6
Continuous
 62
     7
370
    15
100
AcDbSpline
210
0.0
220
0.0
230
1.0
 70
     8
 71
     3
 72
     8
 73
     4
 74
     0
 42
0.000000001
 43
0.00000001
 40
0.0
 40
0.0
 40
0.0
 40
0.0
 40
1.0
 40
1.0
 40
1.0
 40
1.0
 10
180.8008775444453
 20
131.9264511340168
 30
0.0
 10
181.3256686639412
 20
133.1014283217216
 30
0.0
 10
181.864184915124
 20
134.2703274894597
 30
0.0
 10
182.412714186502
 20
135.4345417182059
 30
0.0
  0
LINE
  5
CD
330
1F
100
AcDbEntity
  8
0
  6
Continuous
 62
     7
370
    15
100
AcDbLine
 10
180.8008774231
 20
131.9264514587
 30
0.0
 11
180.8008774231
 21
137.3411385558
 31
0.0
  0
SPLINE
  5
CE
330
1F
100
AcDbEntity
  8
0
  6
Continuous
 62
     7
370
    15
100
AcDbSpline
210
0.0
220
0.0
230
1.0
 70
     8
 71
     3
 72
    12
 73
     8
 74
     0
 42
0.000000001
 43
0.00000001
 40
0.0
 40
0.0
 40
0.0
 40
0.0
 40
0.5000000000000003
 40
0.5000000000000003
 40
0.7500000000000001
 40
0.7500000000000001
 40
1.0
 40
1.0
 40
1.0
 40
1.0
 10
170.9908775444453
 20
134.695724434242
 30
0.0
 10
170.9908775444453
 20
134.8723408307637
 30
0.0
 10
171.0402181792671
 20
135.0473980021374
 30
0.0
 10
171.1964337375552
 20
135.2613482146301
 30
0.0
 10
171.2617363174559
 20
135.322680857477
 30
0.0
 10
171.4155053354163
 20
135.4100689554483
 30
0.0
 10
171.5025184420267
 20
135.4345417182059
 30
0.0
 10
171.5908775444453
 20
135.4345417182059
 30
0.0
  0
LINE
  5
CF
330
1F
100
AcDbEntity
  8
0
  6
Continuous
 62
     7
370
    15
100
AcDbLine
 10
171.5908776085
 20
135.4345424316
 30
0.0
 11
175.3690409522
 21
135.4345424316
 31
0.0
  0
SPLINE
  5
D0
330
1F
100
AcDbEntity
  8
0
  6
Continuous
 62
     7
370
    15
100
AcDbSpline
210
0.0
220
0.0
230
1.0
 70
     8
 71
     3
 72
    14
 73
    10
 74
     0
 42
0.000000001
 43
0.00000001
 40
0.0
 40
0.0
 40
0.0
 40
0.0
 40
0.25
 40
0.25
 40
0.5
 40
0.5
 40
0.75
 40
0.75
 40
1.0
 40
1.0
 40
1.0
 40
1.0
 10
176.9808775444453
 20
131.7215528976836
 30
0.0
 10
176.9808775444453
 20
131.5996175625021
 30
0.0
 10
176.9969219119852
 20
131.4800633220007
 30
0.0
 10
177.0626512541646
 20
131.2459473388574
 30
0.0
 10
177.1118586244129
 20
131.1340147987227
 30
0.0
 10
177.2468716053117
 20
130.9316149894859
 30
0.0
 10
177.332791673918
 20
130.8417497959229
 30
0.0
 10
177.5393064759235
 20
130.7114152863127
 30
0.0
 10
177.6594451882945
 20
130.6732482216149
 30
0.0
 10
177.7808775444453
 20
130.6732482216149
 30
0.0
  0
LINE
  5
D1
330
1F
100
AcDbEntity
  8
0
  6
Continuous
 62
     7
370
    15
100
AcDbLine
 10
177.7808777104
 20
130.6732489012
 30
0.0
 11
180.0008778508
 21
130.6732489012
 31
0.0
  0
SPLINE
  5
D2
330
1F
100
AcDbEntity
  8
0
  6
Continuous
 62
     7
370
    15
100
AcDbSpline
210
0.0
220
0.0
230
1.0
 70
     8
 71
     3
 72
    14
 73
    10
 74
     0
 42
0.000000001
 43
0.00000001
 40
0.0
 40
0.0
 40
0.0
 40
0.0
 40
0.25
 40
0.25
 40
0.5
 40
0.5
 40
0.75
 40
0.75
 40
1.0
 40
1.0
 40
1.0
 40
1.0
 10
186.2408775444453
 20
135.4345417182059
 30
0.0
 10
186.3293000825678
 20
135.4345417182059
 30
0.0
 10
186.4173540722608
 20
135.4094693677465
 30
0.0
 10
186.5691838361322
 20
135.3231273027752
 30
0.0
 10
186.6350267806959
 20
135.2615840482623
 30
0.0
 10
186.7388258412415
 20
135.1197563020114
 30
0.0
 10
186.7772979507161
 20
135.0397077120413
 30
0.0
 10
186.8285206139907
 20
134.8706952153676
 30
0.0
 10
186.8408775444452
 20
134.783915908498
 30
0.0
 10
186.8408775444452
 20
134.695724434242
 30
0.0
  0
LINE
  5
D3
330
1F
100
AcDbEntity
  8
0
  6
Continuous
 62
     7
370
    15
100
AcDbLine
 10
180.8008774231
 20
131.7215530417
 30
0.0
 11
180.8008774231
 21
131.9264514587
 31
0.0
  0
LINE
  5
D4
330
1F
100
AcDbEntity
  8
0
  6
Continuous
 62
     7
370
    15
100
AcDbLine
 10
176.9808772068
 20
131.9264514587
 30
0.0
 11
176.9808772068
 21
131.7215530417
 31
0.0
  0
LINE
  5
D5
330
1F
100
AcDbEntity
  8
0
  6
Continuous
 62
     7
370
    15
100
AcDbLine
 10
170.9908774636
 20
134.6957242332
 30
0.0
 11
170.9908774636
 21
127.8743116401
 31
0.0
  0
LINE
  5
D6
330
1F
100
AcDbEntity
  8
0
  6
Continuous
 62
     7
370
    15
100
AcDbLine
 10
186.8408777799
 20
134.6957242332
 30
0.0
 11
186.8408777799
 21
127.8743116401
 31
0.0
  0
SPLINE
  5
D7
330
1F
100
AcDbEntity
  8
0
  6
Continuous
 62
     7
370
    15
100
AcDbSpline
210
0.0
220
0.0
230
1.0
 70
     8
 71
     3
 72
    12
 73
     8
 74
     0
 42
0.000000001
 43
0.00000001
 40
0.0
 40
0.0
 40
0.0
 40
0.0
 40
0.4999999999999971
 40
0.4999999999999971
 40
0.7499999999999986
 40
0.7499999999999986
 40
1.0
 40
1.0
 40
1.0
 40
1.0
 10
186.8408775444452
 20
139.5348632115995
 30
0.0
 10
186.8408775444452
 20
139.6551902446527
 30
0.0
 10
186.7870827328523
 20
139.7732878181345
 30
0.0
 10
186.626159162886
 20
139.9129305605735
 30
0.0
 10
186.5614077017835
 20
139.9512065139679
 30
0.0
 10
186.4091875184658
 20
140.0060463436023
 30
0.0
 10
186.3263800029408
 20
140.0206481573739
 30
0.0
 10
186.2408775444453
 20
140.0206481573739
 30
0.0
  0
LINE
  5
D8
330
1F
100
AcDbEntity
  8
0
  6
Continuous
 62
     7
370
    15
100
AcDbLine
 10
186.8408777799
 20
134.6957242332
 30
0.0
 11
186.8408777799
 21
139.5348632924
 31
0.0
  0
LINE
  5
D9
330
1F
100
AcDbEntity
  8
0
  6
Continuous
 62
     7
370
    15
100
AcDbLine
 10
180.0008778508
 20
136.3421702973
 30
0.0
 11
177.7808777104
 21
136.3421702973
 31
0.0
  0
SPLINE
  5
DA
330
1F
100
AcDbEntity
  8
0
  6
Continuous
 62
     7
370
    15
100
AcDbSpline
210
0.0
220
0.0
230
1.0
 70
     8
 71
     3
 72
    14
 73
    10
 74
     0
 42
0.000000001
 43
0.00000001
 40
0.0
 40
0.0
 40
0.0
 40
0.0
 40
0.25
 40
0.25
 40
0.5
 40
0.5
 40
0.75
 40
0.75
 40
1.0
 40
1.0
 40
1.0
 40
1.0
 10
177.7808775444453
 20
136.3421699344451
 30
0.0
 10
177.6735084999309
 20
136.3421699344451
 30
0.0
 10
177.566703008168
 20
136.3650949298501
 30
0.0
 10
177.3715616396512
 20
136.4512873637242
 30
0.0
 10
177.2823519220613
 20
136.5151313603882
 30
0.0
 10
177.136425129245
 20
136.6705474683296
 30
0.0
 10
177.0784353854469
 20
136.7632020465373
 30
0.0
 10
177.0008415439243
 20
136.9624353865869
 30
0.0
 10
176.9808775444453
 20
137.0690404816421
 30
0.0
 10
176.9808775444453
 20
137.1763915659654
 30
0.0
  0
LINE
  5
DB
330
1F
100
AcDbEntity
  8
0
  6
Continuous
 62
     7
370
    15
100
AcDbLine
 10
175.3690409522
 20
140.0206485979
 30
0.0
 11
171.5908776085
 21
140.0206485979
 31
0.0
  0
SPLINE
  5
DC
330
1F
100
AcDbEntity
  8
0
  6
Continuous
 62
     7
370
    15
100
AcDbSpline
210
0.0
220
0.0
230
1.0
 70
     8
 71
     3
 72
    10
 73
     6
 74
     0
 42
0.000000001
 43
0.00000001
 40
0.0
 40
0.0
 40
0.0
 40
0.0
 40
0.5
 40
0.5
 40
1.0
 40
1.0
 40
1.0
 40
1.0
 10
171.2781191457528
 20
139.9496086331153
 30
0.0
 10
171.2022795517493
 20
139.8795594467867
 30
0.0
 10
171.1349560340233
 20
139.794340673213
 30
0.0
 10
171.0283123957182
 20
139.5841145465512
 30
0.0
 10
170.9908775444453
 20
139.4606053556839
 30
0.0
 10
170.9908775444453
 20
139.3306872351613
 30
0.0
  0
SPLINE
  5
DD
330
1F
100
AcDbEntity
  8
0
  6
Continuous
 62
     7
370
    15
100
AcDbSpline
210
0.0
220
0.0
230
1.0
 70
     8
 71
     3
 72
     8
 73
     4
 74
     0
 42
0.000000001
 43
0.00000001
 40
0.0
 40
0.0
 40
0.0
 40
0.0
 40
1.0
 40
1.0
 40
1.0
 40
1.0
 10
171.5908775444453
 20
140.0206481573739
 30
0.0
 10
171.4786992902656
 20
140.0206481573739
 30
0.0
 10
171.3700297775372
 20
139.9949670921129
 30
0.0
 10
171.2781191457528
 20
139.9496086331153
 30
0.0
  0
LINE
  5
DE
330
1F
100
AcDbEntity
  8
0
  6
Continuous
 62
     7
370
    15
100
AcDbLine
 10
170.9908774636
 20
134.6957242332
 30
0.0
 11
170.9908774636
 21
139.3306875817
 31
0.0
  0
LINE
  5
DF
330
1F
100
AcDbEntity
  8
0
  6
Continuous
 62
     7
370
    15
100
AcDbLine
 10
211.8908789988
 20
97.2243124835
 30
0.0
 11
211.8908789988
 21
121.8243116728
 31
0.0
  0
LINE
  5
E0
330
1F
100
AcDbEntity
  8
0
  6
Continuous
 62
     7
370
    15
100
AcDbLine
 10
211.6908793385
 20
97.0243118919
 30
0.0
 11
211.6908793385
 21
122.0243122644
 31
0.0
  0
SPLINE
  5
E1
330
1F
100
AcDbEntity
  8
0
  6
Continuous
 62
     7
370
    15
100
AcDbSpline
210
0.0
220
0.0
230
1.0
 70
     8
 71
     3
 72
    38
 73
    34
 74
     0
 42
0.000000001
 43
0.00000001
 40
0.0
 40
0.0
 40
0.0
 40
0.0
 40
0.0625
 40
0.0625
 40
0.125
 40
0.125
 40
0.1875000000000001
 40
0.1875000000000001
 40
0.25
 40
0.25
 40
0.3125
 40
0.3125
 40
0.3749999999999999
 40
0.3749999999999999
 40
0.4374999999999999
 40
0.4374999999999999
 40
0.4999999999999999
 40
0.4999999999999999
 40
0.5624999999999999
 40
0.5624999999999999
 40
0.6249999999999999
 40
0.6249999999999999
 40
0.6874999999999999
 40
0.6874999999999999
 40
0.7499999999999999
 40
0.7499999999999999
 40
0.8125
 40
0.8125
 40
0.875
 40
0.875
 40
0.9375
 40
0.9375
 40
1.0
 40
1.0
 40
1.0
 40
1.0
 10
208.5158775444453
 20
109.5243120781584
 30
0.0
 10
208.5158775444453
 20
109.2859263616391
 30
0.0
 10
208.486914641083
 20
109.0470369170245
 30
0.0
 10
208.3720780616171
 20
108.5795414507994
 30
0.0
 10
208.288114691806
 20
108.3566986448706
 30
0.0
 10
208.0712397761483
 20
107.9309343890203
 30
0.0
 10
207.938503567978
 20
107.7297642361305
 30
0.0
 10
207.6381803912599
 20
107.3625284913785
 30
0.0
 10
207.4676001343068
 20
107.1927875956907
 30
0.0
 10
207.1000269519002
 20
106.890831554388
 30
0.0
 10
206.9036050396245
 20
106.7583795279829
 30
0.0
 10
206.4866825142755
 20
106.5280963042432
 30
0.0
 10
206.2659675477587
 20
106.4307392938927
 30
0.0
 10
205.8163684230464
 20
106.2764211490602
 30
0.0
 10
205.5855821776473
 20
106.2183107807488
 30
0.0
 10
205.1118839558582
 20
106.1402343767407
 30
0.0
 10
204.871545210506
 20
106.1210189268807
 30
0.0
 10
204.395433894586
 20
106.1218246547162
 30
0.0
 10
204.1579303586884
 20
106.1415337669621
 30
0.0
 10
203.6840641618156
 20
106.2210101196781
 30
0.0
 10
203.4514453068336
 20
106.2804068630006
 30
0.0
 10
203.0035958646232
 20
106.4357713692843
 30
0.0
 10
202.7869021883243
 20
106.5319437552329
 30
0.0
 10
202.3688606350614
 20
106.7642041922423
 30
0.0
 10
202.1717024500538
 20
106.8982569066381
 30
0.0
 10
201.8084198359497
 20
107.1983454165736
 30
0.0
 10
201.6410616516257
 20
107.3649803627052
 30
0.0
 10
201.3384607999668
 20
107.7362585814977
 30
0.0
 10
201.2081336785185
 20
107.9352601854245
 30
0.0
 10
200.9940534673633
 20
108.35624072059
 30
0.0
 10
200.9090078580794
 20
108.5816270585736
 30
0.0
 10
200.7945924899774
 20
109.0486900317498
 30
0.0
 10
200.7658775444453
 20
109.2850641766611
 30
0.0
 10
200.7658775444453
 20
109.5243120781584
 30
0.0
  0
SPLINE
  5
E2
330
1F
100
AcDbEntity
  8
0
  6
Continuous
 62
     7
370
    15
100
AcDbSpline
210
0.0
220
0.0
230
1.0
 70
     8
 71
     3
 72
    34
 73
    30
 74
     0
 42
0.000000001
 43
0.00000001
 40
0.0
 40
0.0
 40
0.0
 40
0.0
 40
0.0625000000000004
 40
0.0625000000000004
 40
0.1250000000000007
 40
0.1250000000000007
 40
0.2500000000000007
 40
0.2500000000000007
 40
0.3750000000000006
 40
0.3750000000000006
 40
0.4375000000000006
 40
0.4375000000000006
 40
0.5000000000000004
 40
0.5000000000000004
 40
0.5625000000000004
 40
0.5625000000000004
 40
0.6250000000000004
 40
0.6250000000000004
 40
0.6875000000000003
 40
0.6875000000000003
 40
0.7500000000000002
 40
0.7500000000000002
 40
0.8125000000000002
 40
0.8125000000000002
 40
0.8750000000000001
 40
0.8750000000000001
 40
0.9375000000000001
 40
0.9375000000000001
 40
1.0
 40
1.0
 40
1.0
 40
1.0
 10
200.7658775444453
 20
109.5243120781584
 30
0.0
 10
200.7658775444453
 20
109.7636462038199
 30
0.0
 10
200.795795450008
 20
110.0065019207291
 30
0.0
 10
200.9102159847457
 20
110.4702363535968
 30
0.0
 10
200.9958487506169
 20
110.6972602583097
 30
0.0
 10
201.3229554894408
 20
111.3363920754491
 30
0.0
 10
201.634057509028
 20
111.7094027249551
 30
0.0
 10
202.3761632329778
 20
112.3159750463236
 30
0.0
 10
202.7921658383912
 20
112.5419061205191
 30
0.0
 10
203.4739868025423
 20
112.7747589510236
 30
0.0
 10
203.7050564164786
 20
112.8321433976475
 30
0.0
 10
204.17414206122
 20
112.9087175058759
 30
0.0
 10
204.4134029075467
 20
112.9278983164836
 30
0.0
 10
204.894096696278
 20
112.9264809628122
 30
0.0
 10
205.1312717806481
 20
112.9060993399075
 30
0.0
 10
205.5994751012263
 20
112.8270516984464
 30
0.0
 10
205.8319291121335
 20
112.7678884174648
 30
0.0
 10
206.2839039336309
 20
112.6106231617012
 30
0.0
 10
206.4999548161545
 20
112.5140200158932
 30
0.0
 10
206.9123404711192
 20
112.2845516239512
 30
0.0
 10
207.110194493766
 20
112.1504557063825
 30
0.0
 10
207.4770684537702
 20
111.8469871220667
 30
0.0
 10
207.6434528051791
 20
111.68028725161
 30
0.0
 10
207.9408776746124
 20
111.3153015393705
 30
0.0
 10
208.0733803854646
 20
111.1140819172865
 30
0.0
 10
208.2892972863803
 20
110.6890001069889
 30
0.0
 10
208.3723470891514
 20
110.4675475342937
 30
0.0
 10
208.4860096042773
 20
110.005709123479
 30
0.0
 10
208.5158775444453
 20
109.7627837081132
 30
0.0
 10
208.5158775444453
 20
109.5243120781584
 30
0.0
  0
LINE
  5
E3
330
1F
100
AcDbEntity
  8
0
  6
Continuous
 62
     7
370
    15
100
AcDbLine
 10
99.5408770676
 20
98.1171816803
 30
0.0
 11
99.5408770676
 21
120.931442476
 31
0.0
  0
ARC
  5
E4
330
1F
100
AcDbEntity
  8
0
  6
Continuous
 62
     7
370
    15
100
AcDbCircle
 10
180.5989280436
 20
100.2613867414
 30
0.0
 40
1.808059927289385
100
AcDbArc
 50
180.1844448874
 51
221.7051935363
  0
ARC
  5
E5
330
1F
100
AcDbEntity
  8
0
  6
Continuous
 62
     7
370
    15
100
AcDbCircle
 10
180.7859623973
 20
100.425881334
 30
0.0
 40
2.057134209254524
100
AcDbArc
 50
221.6599179748
 51
332.5372585983
  0
ARC
  5
E6
330
1F
100
AcDbEntity
  8
0
  6
Continuous
 62
     7
370
    15
100
AcDbCircle
 10
180.5936121047
 20
100.219956856
 30
0.0
 40
1.701914858180615
100
AcDbArc
 50
156.8283391768
 51
221.864877267
  0
ARC
  5
E7
330
1F
100
AcDbEntity
  8
0
  6
Continuous
 62
     7
370
    15
100
AcDbCircle
 10
180.7854772023
 20
100.3759961865
 30
0.0
 40
1.948973682253562
100
AcDbArc
 50
221.5167902317
 51
335.5199372683
  0
ARC
  5
E8
330
1F
100
AcDbEntity
  8
0
  6
Continuous
 62
     7
370
    15
100
AcDbCircle
 10
180.7197607012
 20
100.2229754349
 30
0.0
 40
1.409502780719625
100
AcDbArc
 50
87.285729354
 51
219.6511438461
  0
ARC
  5
E9
330
1F
100
AcDbEntity
  8
0
  6
Continuous
 62
     7
370
    15
100
AcDbCircle
 10
180.7840523488
 20
100.3204230441
 30
0.0
 40
1.52156619550651
100
AcDbArc
 50
220.9316963527
 51
348.4725778729
  0
LWPOLYLINE
  5
EA
330
1F
100
AcDbEntity
  8
0
  6
HIDDEN
 62
     7
370
     0
100
AcDbPolyline
 90
       22
 70
   128
 43
0.0
 10
172.467996278
 20
99.0824407182
 10
172.7361217189
 20
99.0535408474
 10
172.9739717256
 20
99.1643738217
 10
173.1604117948
 20
99.4050890423
 10
173.2788764919
 20
99.7542986862
 10
173.318839078
 20
100.1809748105
 10
173.2767488855
 20
100.6472042046
 10
173.1563461061
 20
101.1115616403
 10
172.9683288421
 20
101.5327858023
 10
172.7294036235
 20
101.8734486989
 10
172.4607990171
 20
102.1032823465
 10
172.1863824922
 20
102.2018637724
 10
171.9305374707
 20
102.1604343533
 10
171.7159961398
 20
101.9826751418
 10
171.5618217412
 20
101.684380903
 10
171.4817133314
 20
101.2920556806
 10
171.482789009
 20
100.8405607409
 10
171.5649530805
 20
100.3700118727
 10
171.7209051411
 20
99.9222198717
 10
171.9367875765
 20
99.5369727008
 10
172.1934190999
 20
99.2485029838
 10
172.467996278
 20
99.0824407182
  0
LWPOLYLINE
  5
EB
330
1F
100
AcDbEntity
  8
0
  6
HIDDEN
 62
     7
370
     0
100
AcDbPolyline
 90
       24
 70
   128
 43
0.0
 10
172.6700304124
 20
98.752675227
 10
172.9752252858
 20
98.7129459373
 10
173.2510960709
 20
98.8183846913
 10
173.4771825421
 20
99.0611702419
 10
173.6367167021
 20
99.4232982613
 10
173.7178665634
 20
99.8779112689
 10
173.7146139193
 20
100.3912916623
 10
173.6271999824
 20
100.9253641806
 10
173.4621072236
 20
101.4405206061
 10
173.231580672
 20
101.8985524989
 10
172.9527166161
 20
102.265491265
 10
172.6461978677
 20
102.5141213305
 10
172.3347570795
 20
102.6260039053
 10
172.0414924483
 20
102.5928404398
 10
171.7881540816
 20
102.417091488
 10
171.5935311794
 20
102.1117904439
 10
171.4720578446
 20
101.6995810188
 10
171.4327429935
 20
101.2110343419
 10
171.4785028297
 20
100.6823839835
 10
171.6059431481
 20
100.1528367616
 10
171.8056126545
 20
99.6616684116
 10
172.0627023886
 20
99.2453048221
 10
172.3581453833
 20
98.9346267871
 10
172.6700304124
 20
98.752675227
  0
LWPOLYLINE
  5
EC
330
1F
100
AcDbEntity
  8
0
  6
HIDDEN
 62
     7
370
     0
100
AcDbPolyline
 90
       24
 70
   128
 43
0.0
 10
175.1478285577
 20
99.3460711307
 10
175.4530238967
 20
99.306341841
 10
175.7288946818
 20
99.4117796637
 10
175.9549806874
 20
99.6545661456
 10
176.1145153131
 20
100.016694165
 10
176.1956651743
 20
100.4713071726
 10
176.1924120645
 20
100.984687566
 10
176.1049981277
 20
101.5187600843
 10
175.9399053688
 20
102.0339160442
 10
175.7093788172
 20
102.4919484026
 10
175.430515227
 20
102.8588867031
 10
175.123996013
 20
103.1075172342
 10
174.8125556904
 20
103.2193993434
 10
174.5192910592
 20
103.1862363435
 10
174.2659526925
 20
103.0104869261
 10
174.0713295575
 20
102.7051863476
 10
173.9498562227
 20
102.2929764568
 10
173.9105413716
 20
101.8044297799
 10
173.9563014406
 20
101.2757789559
 10
174.0837417591
 20
100.7462326653
 10
174.2834107998
 20
100.255063384
 10
174.5405009996
 20
99.8387007258
 10
174.8359439942
 20
99.5280226908
 10
175.1478285577
 20
99.3460711307
  0
LINE
  5
ED
330
1F
100
AcDbEntity
  8
0
  6
HIDDEN
 62
     7
370
     0
100
AcDbLine
 10
172.9411514524
 20
100.9742837615
 30
0.0
 11
172.34331314
 21
101.7332683533
 31
0.0
  0
LINE
  5
EE
330
1F
100
AcDbEntity
  8
0
  6
HIDDEN
 62
     7
370
     0
100
AcDbLine
 10
171.7975497294
 20
101.3851125009
 30
0.0
 11
172.34331314
 21
101.7332683533
 31
0.0
  0
LINE
  5
EF
330
1F
100
AcDbEntity
  8
0
  6
HIDDEN
 62
     7
370
     0
100
AcDbLine
 10
171.8496246311
 20
100.2779720567
 30
0.0
 11
171.7975497294
 21
101.3851125009
 31
0.0
  0
LINE
  5
F0
330
1F
100
AcDbEntity
  8
0
  6
HIDDEN
 62
     7
370
     0
100
AcDbLine
 10
171.8496246311
 20
100.2779720567
 30
0.0
 11
172.4474629435
 21
99.5189869992
 31
0.0
  0
LINE
  5
F1
330
1F
100
AcDbEntity
  8
0
  6
HIDDEN
 62
     7
370
     0
100
AcDbLine
 10
172.9932263541
 20
99.8671423859
 30
0.0
 11
172.4474629435
 21
99.5189869992
 31
0.0
  0
LINE
  5
F2
330
1F
100
AcDbEntity
  8
0
  6
HIDDEN
 62
     7
370
     0
100
AcDbLine
 10
172.9932263541
 20
99.8671423859
 30
0.0
 11
172.9411514524
 21
100.9742837615
 31
0.0
  0
LINE
  5
F3
330
1F
100
AcDbEntity
  8
0
  6
HIDDEN
 62
     7
370
     0
100
AcDbLine
 10
174.1698793183
 20
101.2685453735
 30
0.0
 11
172.9411514524
 21
100.9742837615
 31
0.0
  0
LINE
  5
F4
330
1F
100
AcDbEntity
  8
0
  6
HIDDEN
 62
     7
370
     0
100
AcDbLine
 10
174.2219542201
 20
100.1614049293
 30
0.0
 11
172.9932263541
 21
99.8671423859
 31
0.0
  0
LWPOLYLINE
  5
F5
330
1F
100
AcDbEntity
  8
0
  6
HIDDEN
 62
     7
370
     0
100
AcDbPolyline
 90
       19
 70
   128
 43
0.0
 10
175.7283694159
 20
100.2123110212
 10
175.9694282945
 20
100.1967709727
 10
176.1746135588
 20
100.3276627726
 10
176.3191753115
 20
100.5892014347
 10
176.3856773313
 20
100.9498393379
 10
176.3660990681
 20
101.3660790614
 10
176.262802356
 20
101.7877157993
 10
176.0882454972
 20
102.1638946823
 10
175.8634819697
 20
102.4492421403
 10
175.615623505
 20
102.6093411475
 10
175.3745641607
 20
102.6248816616
 10
175.169379362
 20
102.493989396
 10
175.0248176094
 20
102.2324516654
 10
174.9583151239
 20
101.8718137621
 10
174.9778929214
 20
101.4555735729
 10
175.0811900991
 20
101.033936835
 10
175.2557474236
 20
100.657757952
 10
175.4805100198
 20
100.3724109597
 10
175.7283694159
 20
100.2123110212
  0
LINE
  5
F6
330
1F
100
AcDbEntity
  8
0
  6
HIDDEN
 62
     7
370
     0
100
AcDbLine
 10
173.026278061
 20
101.6793741129
 30
0.0
 11
173.572041006
 21
102.027530431
 31
0.0
  0
LINE
  5
F7
330
1F
100
AcDbEntity
  8
0
  6
HIDDEN
 62
     7
370
     0
100
AcDbLine
 10
173.026278061
 20
101.6793741129
 30
0.0
 11
171.7975497294
 21
101.3851125009
 31
0.0
  0
LINE
  5
F8
330
1F
100
AcDbEntity
  8
0
  6
HIDDEN
 62
     7
370
     0
100
AcDbLine
 10
173.572041006
 20
102.027530431
 30
0.0
 11
172.34331314
 21
101.7332683533
 31
0.0
  0
LINE
  5
F9
330
1F
100
AcDbEntity
  8
0
  6
HIDDEN
 62
     7
370
     0
100
AcDbLine
 10
173.0783529627
 20
100.5722336687
 30
0.0
 11
173.6761912751
 21
99.8132486112
 31
0.0
  0
LINE
  5
FA
330
1F
100
AcDbEntity
  8
0
  6
HIDDEN
 62
     7
370
     0
100
AcDbLine
 10
173.0783529627
 20
100.5722336687
 30
0.0
 11
173.026278061
 21
101.6793741129
 31
0.0
  0
LINE
  5
FB
330
1F
100
AcDbEntity
  8
0
  6
HIDDEN
 62
     7
370
     0
100
AcDbLine
 10
174.2219542201
 20
100.1614049293
 30
0.0
 11
173.6761912751
 21
99.8132486112
 31
0.0
  0
LINE
  5
FC
330
1F
100
AcDbEntity
  8
0
  6
HIDDEN
 62
     7
370
     0
100
AcDbLine
 10
174.2219542201
 20
100.1614049293
 30
0.0
 11
174.1698793183
 21
101.2685453735
 31
0.0
  0
LINE
  5
FD
330
1F
100
AcDbEntity
  8
0
  6
HIDDEN
 62
     7
370
     0
100
AcDbLine
 10
174.1698793183
 20
101.2685453735
 30
0.0
 11
173.572041006
 21
102.027530431
 31
0.0
  0
LINE
  5
FE
330
1F
100
AcDbEntity
  8
0
  6
HIDDEN
 62
     7
370
     0
100
AcDbLine
 10
173.0783529627
 20
100.5722336687
 30
0.0
 11
171.8496246311
 21
100.2779720567
 31
0.0
  0
LINE
  5
FF
330
1F
100
AcDbEntity
  8
0
  6
HIDDEN
 62
     7
370
     0
100
AcDbLine
 10
173.6761912751
 20
99.8132486112
 30
0.0
 11
172.4474629435
 21
99.5189869992
 31
0.0
  0
LWPOLYLINE
  5
100
330
1F
100
AcDbEntity
  8
0
  6
HIDDEN
 62
     7
370
     0
100
AcDbPolyline
 90
       24
 70
   128
 43
0.0
 10
174.6652828577
 20
115.8272392332
 10
174.388999031
 20
115.9311985813
 10
174.1623048718
 20
116.1726406991
 10
174.0020130809
 20
116.5336590476
 10
173.9200115252
 20
116.9874781027
 10
173.9223822068
 20
117.5004407979
 10
174.0089491058
 20
118.0345021404
 10
174.1732921499
 20
118.550054378
 10
174.4032226551
 20
119.0088601998
 10
174.6816876392
 20
119.3768928043
 10
174.9880345586
 20
119.6268569894
 10
175.2995433334
 20
119.7402138479
 10
175.59311111
 20
119.7085553996
 10
175.8469640325
 20
119.5342313714
 10
176.0422763462
 20
119.2301685206
 10
176.1645627256
 20
118.8189197547
 10
176.2047520886
 20
118.3309840254
 10
176.1598651345
 20
117.8025506652
 10
176.0332304101
 20
117.2728097282
 10
175.8342403035
 20
116.781050454
 10
175.577653018
 20
116.3637443661
 10
175.2824978019
 20
116.0518407106
 10
174.9706653926
 20
115.8684726089
 10
174.6652828577
 20
115.8272392332
  0
LWPOLYLINE
  5
101
330
1F
100
AcDbEntity
  8
0
  6
HIDDEN
 62
     7
370
     0
100
AcDbPolyline
 90
       19
 70
   128
 43
0.0
 10
175.4267778295
 20
116.4142420731
 10
175.2111366066
 20
116.5128803096
 10
175.0510813716
 20
116.7472006037
 10
174.9659179758
 20
117.0889401093
 10
174.9659179758
 20
117.4968803517
 10
175.0510813716
 20
117.9218167655
 10
175.2111366066
 20
118.312496341
 10
175.4267778295
 20
118.6217969499
 10
175.6719964604
 20
118.8124135352
 10
175.9172146256
 20
118.8613536052
 10
176.1328558485
 20
118.7627153687
 10
176.2929110836
 20
118.5283946089
 10
176.3780740138
 20
118.1866551034
 10
176.3780740138
 20
117.7787153266
 10
176.2929110836
 20
117.3537789128
 10
176.1328558485
 20
116.9630993373
 10
175.9172146256
 20
116.6537982627
 10
175.6719964604
 20
116.4631821431
 10
175.4267778295
 20
116.4142420731
  0
LWPOLYLINE
  5
102
330
1F
100
AcDbEntity
  8
0
  6
HIDDEN
 62
     7
370
     0
100
AcDbPolyline
 90
       24
 70
   128
 43
0.0
 10
172.1874842468
 20
116.4206351369
 10
171.9112004201
 20
116.524594485
 10
171.6845062609
 20
116.7660366028
 10
171.52421447
 20
117.1270549513
 10
171.4422129142
 20
117.5808735407
 10
171.4445835959
 20
118.0938367016
 10
171.5311504948
 20
118.6278980441
 10
171.695493539
 20
119.1434502817
 10
171.9254240441
 20
119.6022561036
 10
172.2038890283
 20
119.970288708
 10
172.5102364133
 20
120.2202528931
 10
172.8217451881
 20
120.3336088202
 10
173.1153124991
 20
120.3019513033
 10
173.3691658872
 20
120.1276272751
 10
173.564478201
 20
119.8235644243
 10
173.686763649
 20
119.4123156584
 10
173.7269534777
 20
118.9243799291
 10
173.6820665236
 20
118.3959465689
 10
173.5554322648
 20
117.8662056319
 10
173.3564421582
 20
117.3744458921
 10
173.099854407
 20
116.9571402698
 10
172.804699191
 20
116.6452366143
 10
172.4928667817
 20
116.4618685126
 10
172.1874842468
 20
116.4206351369
  0
LINE
  5
103
330
1F
100
AcDbEntity
  8
0
  6
HIDDEN
 62
     7
370
     0
100
AcDbLine
 10
173.1983920607
 20
118.751493863
 30
0.0
 11
173.8506391692
 21
119.2585068039
 31
0.0
  0
LINE
  5
104
330
1F
100
AcDbEntity
  8
0
  6
HIDDEN
 62
     7
370
     0
100
AcDbLine
 10
173.1983920607
 20
118.751493863
 30
0.0
 11
171.9696641947
 21
119.0457564063
 31
0.0
  0
LINE
  5
105
330
1F
100
AcDbEntity
  8
0
  6
HIDDEN
 62
     7
370
     0
100
AcDbLine
 10
172.9718692649
 20
117.6212212286
 30
0.0
 11
173.1983920607
 21
118.751493863
 31
0.0
  0
LINE
  5
106
330
1F
100
AcDbEntity
  8
0
  6
HIDDEN
 62
     7
370
     0
100
AcDbLine
 10
172.9718692649
 20
117.6212212286
 30
0.0
 11
171.7431409332
 21
117.915483772
 31
0.0
  0
LINE
  5
107
330
1F
100
AcDbEntity
  8
0
  6
HIDDEN
 62
     7
370
     0
100
AcDbLine
 10
172.9718692649
 20
117.6212212286
 30
0.0
 11
173.3975931119
 21
116.9979620009
 31
0.0
  0
LINE
  5
108
330
1F
100
AcDbEntity
  8
0
  6
HIDDEN
 62
     7
370
     0
100
AcDbLine
 10
171.7431409332
 20
117.915483772
 30
0.0
 11
172.1688652459
 21
117.2922240786
 31
0.0
  0
LINE
  5
109
330
1F
100
AcDbEntity
  8
0
  6
HIDDEN
 62
     7
370
     0
100
AcDbLine
 10
171.7431409332
 20
117.915483772
 30
0.0
 11
171.9696641947
 21
119.0457564063
 31
0.0
  0
LINE
  5
10A
330
1F
100
AcDbEntity
  8
0
  6
HIDDEN
 62
     7
370
     0
100
AcDbLine
 10
171.9696641947
 20
119.0457564063
 30
0.0
 11
172.6219113033
 21
119.5527693472
 31
0.0
  0
LWPOLYLINE
  5
10B
330
1F
100
AcDbEntity
  8
0
  6
HIDDEN
 62
     7
370
     0
100
AcDbPolyline
 90
       22
 70
   128
 43
0.0
 10
172.0795467544
 20
116.8465564243
 10
171.8378000941
 20
116.9441539078
 10
171.6455974664
 20
117.1731083869
 10
171.5200169991
 20
117.5130769826
 10
171.4722171008
 20
117.9338513158
 10
171.5064448352
 20
118.3980439074
 10
171.6196594342
 20
118.8644083432
 10
171.8018007513
 20
119.2915082193
 10
172.0366849612
 20
119.6413921408
 10
172.3034413579
 20
119.8829716287
 10
172.5783677819
 20
119.9947815604
 10
172.8370356421
 20
119.966887518
 10
173.0564612943
 20
119.8017677508
 10
173.2171475004
 20
119.514092452
 10
173.3048166196
 20
119.1294254951
 10
173.3116795357
 20
118.6819436244
 10
173.2371253009
 20
118.2114096574
 10
173.0877793442
 20
117.7596306644
 10
172.8769116151
 20
117.366751305
 10
172.6232579957
 20
117.0676789462
 10
172.3493574235
 20
116.8889884121
 10
172.0795467544
 20
116.8465564243
  0
LINE
  5
10C
330
1F
100
AcDbEntity
  8
0
  6
HIDDEN
 62
     7
370
     0
100
AcDbLine
 10
174.2763630162
 20
118.6352471105
 30
0.0
 11
173.0476351503
 21
118.9295096538
 31
0.0
  0
LINE
  5
10D
330
1F
100
AcDbEntity
  8
0
  6
HIDDEN
 62
     7
370
     0
100
AcDbLine
 10
173.0476351503
 20
118.9295096538
 30
0.0
 11
172.6219113033
 21
119.5527693472
 31
0.0
  0
LINE
  5
10E
330
1F
100
AcDbEntity
  8
0
  6
HIDDEN
 62
     7
370
     0
100
AcDbLine
 10
173.8506391692
 20
119.2585068039
 30
0.0
 11
172.6219113033
 21
119.5527693472
 31
0.0
  0
LINE
  5
10F
330
1F
100
AcDbEntity
  8
0
  6
HIDDEN
 62
     7
370
     0
100
AcDbLine
 10
174.2763630162
 20
118.6352471105
 30
0.0
 11
173.8506391692
 21
119.2585068039
 31
0.0
  0
LINE
  5
110
330
1F
100
AcDbEntity
  8
0
  6
HIDDEN
 62
     7
370
     0
100
AcDbLine
 10
174.0498402204
 20
117.5049744762
 30
0.0
 11
172.8211118887
 21
117.7992370195
 31
0.0
  0
LINE
  5
111
330
1F
100
AcDbEntity
  8
0
  6
HIDDEN
 62
     7
370
     0
100
AcDbLine
 10
172.8211118887
 20
117.7992370195
 30
0.0
 11
172.1688652459
 21
117.2922240786
 31
0.0
  0
LINE
  5
112
330
1F
100
AcDbEntity
  8
0
  6
HIDDEN
 62
     7
370
     0
100
AcDbLine
 10
173.3975931119
 20
116.9979620009
 30
0.0
 11
172.1688652459
 21
117.2922240786
 31
0.0
  0
LINE
  5
113
330
1F
100
AcDbEntity
  8
0
  6
HIDDEN
 62
     7
370
     0
100
AcDbLine
 10
174.0498402204
 20
117.5049744762
 30
0.0
 11
173.3975931119
 21
116.9979620009
 31
0.0
  0
LINE
  5
114
330
1F
100
AcDbEntity
  8
0
  6
HIDDEN
 62
     7
370
     0
100
AcDbLine
 10
172.8211118887
 20
117.7992370195
 30
0.0
 11
173.0476351503
 21
118.9295096538
 31
0.0
  0
LINE
  5
115
330
1F
100
AcDbEntity
  8
0
  6
HIDDEN
 62
     7
370
     0
100
AcDbLine
 10
174.0498402204
 20
117.5049744762
 30
0.0
 11
174.2763630162
 21
118.6352471105
 31
0.0
  0
CIRCLE
  5
116
330
1F
100
AcDbEntity
  8
0
  6
HIDDEN
 62
     7
370
     0
100
AcDbCircle
 10
204.6408775444
 20
109.5243120782
 30
0.0
 40
2.477364010367811
  0
CIRCLE
  5
117
330
1F
100
AcDbEntity
  8
0
  6
HIDDEN
 62
     7
370
     0
100
AcDbCircle
 10
204.6408775444
 20
109.5243120782
 30
0.0
 40
1.845534221835434
  0
ARC
  5
118
330
1F
100
AcDbEntity
  8
0
  6
HIDDEN
 62
     7
370
     0
100
AcDbCircle
 10
204.6408775444
 20
109.5243120782
 30
0.0
 40
1.545534221835443
100
AcDbArc
 50
297.6312376457
 51
344.3170005442
  0
ARC
  5
119
330
1F
100
AcDbEntity
  8
0
  6
HIDDEN
 62
     7
370
     0
100
AcDbCircle
 10
204.6408775444
 20
109.5243120782
 30
0.0
 40
1.545534221835454
100
AcDbArc
 50
234.6174645736
 51
272.5436652464
  0
ARC
  5
11A
330
1F
100
AcDbEntity
  8
0
  6
HIDDEN
 62
     7
370
     0
100
AcDbCircle
 10
204.6408775444
 20
109.5243120782
 30
0.0
 40
1.545534221835436
100
AcDbArc
 50
172.2845889886
 51
216.1434388965
  0
ARC
  5
11B
330
1F
100
AcDbEntity
  8
0
  6
HIDDEN
 62
     7
370
     0
100
AcDbCircle
 10
204.6408775444
 20
109.5243120782
 30
0.0
 40
1.545534221835431
100
AcDbArc
 50
116.7485246301
 51
154.6025751228
  0
ARC
  5
11C
330
1F
100
AcDbEntity
  8
0
  6
HIDDEN
 62
     7
370
     0
100
AcDbCircle
 10
204.6408775444
 20
109.5243120782
 30
0.0
 40
1.545534221835443
100
AcDbArc
 50
53.3158527423
 51
90.9896228682
  0
ARC
  5
11D
330
1F
100
AcDbEntity
  8
0
  6
HIDDEN
 62
     7
370
     0
100
AcDbCircle
 10
204.6408775444
 20
109.5243120782
 30
0.0
 40
1.545534221835445
100
AcDbArc
 50
344.3170005442
 51
36.1356007934
  0
SPLINE
  5
11E
330
1F
100
AcDbEntity
  8
0
  6
HIDDEN
 62
     7
370
     0
100
AcDbSpline
210
0.0
220
0.0
230
1.0
 70
     8
 71
     3
 72
    10
 73
     6
 74
     0
 42
0.000000001
 43
0.00000001
 40
0.0
 40
0.0
 40
0.0
 40
0.0
 40
0.5
 40
0.5
 40
1.0
 40
1.0
 40
1.0
 40
1.0
 10
178.8149867818049
 20
101.7777729086897
 30
0.0
 10
178.7993807308237
 20
101.6725007080812
 30
0.0
 10
178.7908762677951
 20
101.5685622102902
 30
0.0
 10
178.7908788213848
 20
101.3690489383341
 30
0.0
 10
178.7993764089852
 20
101.2778364436637
 30
0.0
 10
178.8149867818049
 20
101.1959045113205
 30
0.0
  0
LWPOLYLINE
  5
11F
330
1F
100
AcDbEntity
  8
0
  6
HIDDEN
 62
     7
370
     0
100
AcDbPolyline
 90
       23
 70
   128
 43
0.0
 10
178.8149866323
 20
101.1959040753
 10
178.9703684907
 20
100.7086817391
 10
179.2590915273
 20
100.2784544818
 10
179.6600091319
 20
99.936734534
 10
180.1437557723
 20
99.7085502587
 10
180.6749011438
 20
99.610616102
 10
181.2145411085
 20
99.6501041792
 10
181.723149405
 20
99.8241218023
 10
182.163474993
 20
100.1199247531
 10
182.5032652404
 20
100.5158458121
 10
182.7176333453
 20
100.9828863881
 10
182.7908772092
 20
101.4868390031
 10
182.7176333453
 20
101.9907911524
 10
182.5032652404
 20
102.4578317284
 10
182.163474993
 20
102.8537527874
 10
181.723149405
 20
103.1495552726
 10
181.2145411085
 20
103.3235733613
 10
180.6749011438
 20
103.3630614385
 10
180.1437557723
 20
103.2651268161
 10
179.6600091319
 20
103.0369430065
 10
179.2590915273
 20
102.6952230587
 10
178.9703684907
 20
102.2649958014
 10
178.8149866323
 20
101.7777729995
  0
LWPOLYLINE
  5
120
330
1F
100
AcDbEntity
  8
0
  6
HIDDEN
 62
     7
370
     0
100
AcDbPolyline
 90
       25
 70
   128
 43
0.0
 10
171.2410891476
 20
100.6261274434
 10
171.3694936178
 20
100.0931687869
 10
171.5678113095
 20
99.5965298481
 10
171.8225268695
 20
99.1700567521
 10
172.116281842
 20
98.8428123511
 10
172.4290576811
 20
98.6370980955
 10
172.7395387414
 20
98.5669322527
 10
173.026566771
 20
98.6370980955
 10
173.2705807361
 20
98.8428123511
 10
173.4549518722
 20
99.1700567521
 10
173.5671157065
 20
99.5965298481
 10
173.5994279432
 20
100.0931687869
 10
173.5496869359
 20
100.6261274434
 10
173.4212822329
 20
101.1590861
 10
173.2229650068
 20
101.6557250387
 10
172.968249214
 20
102.0821981348
 10
172.6744942415
 20
102.4094425357
 10
172.3617184024
 20
102.6151567913
 10
172.0512373421
 20
102.6853221684
 10
171.7642093125
 20
102.6151567913
 10
171.5201953474
 20
102.4094425357
 10
171.3358242113
 20
102.0821981348
 10
171.2236606098
 20
101.6557250387
 10
171.1913481403
 20
101.1590861
 10
171.2410891476
 20
100.6261274434
  0
LWPOLYLINE
  5
121
330
1F
100
AcDbEntity
  8
0
  6
HIDDEN
 62
     7
370
     0
100
AcDbPolyline
 90
       22
 70
   128
 43
0.0
 10
171.6226049747
 20
100.6582580722
 10
171.7426012318
 20
100.1813622407
 10
171.9325216535
 20
99.746840655
 10
172.1754911403
 20
99.3933031551
 10
172.4499207038
 20
99.1521613888
 10
172.7314259905
 20
99.0448432259
 10
172.9949940044
 20
99.0808844782
 10
173.217205708
 20
99.2570823274
 10
173.3783165972
 20
99.5577803097
 10
173.4640108469
 20
99.9562606431
 10
173.4666748951
 20
100.4171172373
 10
173.3860717203
 20
100.8993998385
 10
173.2293631929
 20
101.3602555014
 10
173.0104735169
 20
101.7587363004
 10
172.7488519672
 20
102.0594342827
 10
172.4677448209
 20
102.2356321319
 10
172.1921296838
 20
102.2716729186
 10
171.9464961487
 20
102.1643552213
 10
171.7526702258
 20
101.9232139207
 10
171.6278736993
 20
101.5696754895
 10
171.5831953614
 20
101.1351539038
 10
171.6226049747
 20
100.6582580722
  0
ELLIPSE
  5
122
330
1F
100
AcDbEntity
  8
0
  6
HIDDEN
 62
     7
370
     0
100
AcDbEllipse
 10
180.7908775444
 20
102.6367220176
 30
0.0
 11
1.383467579512086
 21
-1.091267719176614
 31
0.0
210
0.0
220
0.0
230
1.0
 40
0.8239737799
 41
2.147131942757461
 42
5.288724596347267
  0
ELLIPSE
  5
123
330
1F
100
AcDbEntity
  8
0
  6
HIDDEN
 62
     7
370
     0
100
AcDbEllipse
 10
180.7908775444
 20
102.6367220176
 30
0.0
 11
1.383467579512086
 21
1.753907414218489
 31
0.0
210
0.0
220
0.0
230
1.0
 40
0.5126701559
 41
0.9944607108323444
 42
4.136053364422151
  0
SPLINE
  5
124
330
1F
100
AcDbEntity
  8
0
  6
HIDDEN
 62
     7
370
     0
100
AcDbSpline
210
0.0
220
0.0
230
1.0
 70
     8
 71
     3
 72
    14
 73
    10
 74
     0
 42
0.000000001
 43
0.00000001
 40
0.0
 40
0.0
 40
0.0
 40
0.0
 40
0.25
 40
0.25
 40
0.5
 40
0.5
 40
0.75
 40
0.75
 40
1.0
 40
1.0
 40
1.0
 40
1.0
 10
178.8149867818049
 20
101.1959045113205
 30
0.0
 10
178.8513506098351
 20
101.2413991467224
 30
0.0
 10
178.8838283370453
 20
101.2897909529386
 30
0.0
 10
178.932581966461
 20
101.3952760968682
 30
0.0
 10
178.9474857441355
 20
101.4518606051111
 30
0.0
 10
178.9474961777932
 20
101.5607481990616
 30
0.0
 10
178.932605881985
 20
101.6129328648242
 30
0.0
 10
178.8837169511075
 20
101.7042102637678
 30
0.0
 10
178.8513447728371
 20
101.742876969142
 30
0.0
 10
178.8149867818049
 20
101.7777729086897
 30
0.0
  0
LWPOLYLINE
  5
125
330
1F
100
AcDbEntity
  8
0
  6
HIDDEN
 62
     7
370
     0
100
AcDbPolyline
 90
       22
 70
   128
 43
0.0
 10
180.7908778127
 20
99.9799153052
 10
181.2772237744
 20
100.0487996481
 10
181.7203554373
 20
100.2493310935
 10
182.0808992769
 20
100.5636925093
 10
182.3268196593
 20
100.9639498062
 10
182.4362640317
 20
101.4145404316
 10
182.399508455
 20
101.8754254311
 10
182.2198190774
 20
102.3056550167
 10
181.9131624933
 20
102.6670002594
 10
181.5067854758
 20
102.9273542791
 10
181.0367972638
 20
103.0635834887
 10
180.5449574302
 20
103.0635834887
 10
180.0749692182
 20
102.9273542791
 10
179.6685922007
 20
102.6670002594
 10
179.3619356166
 20
102.3056550167
 10
179.182246239
 20
101.8754254311
 10
179.1454915936
 20
101.4145404316
 10
179.254935966
 20
100.9639498062
 10
179.5008554171
 20
100.5636925093
 10
179.8613992567
 20
100.2493310935
 10
180.304531851
 20
100.0487996481
 10
180.7908778127
 20
99.9799153052
  0
SPLINE
  5
126
330
1F
100
AcDbEntity
  8
0
  6
HIDDEN
 62
     7
370
     0
100
AcDbSpline
210
0.0
220
0.0
230
1.0
 70
    11
 71
     3
 72
    60
 73
    56
 74
     0
 42
0.000000001
 43
0.00000001
 40
0.0
 40
0.0
 40
0.0
 40
0.0
 40
0.0312500000000001
 40
0.0312500000000001
 40
0.0625000000000002
 40
0.0625000000000002
 40
0.1250000000000003
 40
0.1250000000000003
 40
0.1875000000000005
 40
0.1875000000000005
 40
0.2187500000000004
 40
0.2187500000000004
 40
0.2500000000000004
 40
0.2500000000000004
 40
0.2812500000000004
 40
0.2812500000000004
 40
0.3125000000000004
 40
0.3125000000000004
 40
0.3437500000000004
 40
0.3437500000000004
 40
0.3750000000000003
 40
0.3750000000000003
 40
0.4062500000000003
 40
0.4062500000000003
 40
0.4375000000000003
 40
0.4375000000000003
 40
0.5000000000000003
 40
0.5000000000000003
 40
0.5312500000000003
 40
0.5312500000000003
 40
0.5625000000000003
 40
0.5625000000000003
 40
0.5937500000000002
 40
0.5937500000000002
 40
0.6250000000000002
 40
0.6250000000000002
 40
0.6562500000000002
 40
0.6562500000000002
 40
0.6875000000000002
 40
0.6875000000000002
 40
0.7187500000000002
 40
0.7187500000000002
 40
0.7500000000000001
 40
0.7500000000000001
 40
0.8125000000000001
 40
0.8125000000000001
 40
0.8437500000000001
 40
0.8437500000000001
 40
0.8750000000000001
 40
0.8750000000000001
 40
0.9062500000000001
 40
0.9062500000000001
 40
0.9375
 40
0.9375
 40
1.0
 40
1.0
 40
1.0
 40
1.0
 10
180.7908775444453
 20
106.6342524875982
 30
0.0
 10
180.680684633475
 20
106.6342524875982
 30
0.0
 10
180.5725754301875
 20
106.6429277566888
 30
0.0
 10
180.3602702757011
 20
106.6769440542322
 30
0.0
 10
180.2549616122421
 20
106.7027480993293
 30
0.0
 10
179.9561636516336
 20
106.8035656514418
 30
0.0
 10
179.7747414472475
 20
106.9034016682477
 30
0.0
 10
179.4735355465906
 20
107.157037583367
 30
0.0
 10
179.3509810677985
 20
107.3137463857598
 30
0.0
 10
179.2268476171792
 20
107.5777894600864
 30
0.0
 10
179.1945445003433
 20
107.6724122187354
 30
0.0
 10
179.1516948385113
 20
107.8675000149837
 30
0.0
 10
179.1409496709989
 20
107.9673908387034
 30
0.0
 10
179.1408061346458
 20
108.1720183734831
 30
0.0
 10
179.1517892556822
 20
108.2773124118306
 30
0.0
 10
179.1944609152094
 20
108.4827158485595
 30
0.0
 10
179.2260238093168
 20
108.5840568359088
 30
0.0
 10
179.3099889048045
 20
108.7836545172268
 30
0.0
 10
179.3610234578053
 20
108.8786660672506
 30
0.0
 10
179.480256788584
 20
109.059150978196
 30
0.0
 10
179.5493158459186
 20
109.1454103863652
 30
0.0
 10
179.7006143697729
 20
109.3021503245051
 30
0.0
 10
179.7828470745279
 20
109.3730406846981
 30
0.0
 10
179.9609595916761
 20
109.4991935493542
 30
0.0
 10
180.0570944758804
 20
109.5542391474719
 30
0.0
 10
180.3543411609993
 20
109.6869039210294
 30
0.0
 10
180.5733989017783
 20
109.7351654367982
 30
0.0
 10
180.8988525766661
 20
109.7352743579942
 30
0.0
 10
181.0086891778592
 20
109.7235106330344
 30
0.0
 10
181.2226214748416
 20
109.677104570806
 30
0.0
 10
181.3258611357851
 20
109.6429655278951
 30
0.0
 10
181.5252901923476
 20
109.5539583778615
 30
0.0
 10
181.621382699621
 20
109.4988065071457
 30
0.0
 10
181.798926749187
 20
109.3729984573054
 30
0.0
 10
181.8816233163003
 20
109.3017870614688
 30
0.0
 10
182.0340978746654
 20
109.1435534794568
 30
0.0
 10
182.1017747957071
 20
109.0587621967947
 30
0.0
 10
182.2207524599759
 20
108.8786047108993
 30
0.0
 10
182.272496743176
 20
108.782058252539
 30
0.0
 10
182.3556734498322
 20
108.5840527822786
 30
0.0
 10
182.3871844867813
 20
108.4831195262632
 30
0.0
 10
182.4299200942331
 20
108.2776564374259
 30
0.0
 10
182.4409257986532
 20
108.1722440468292
 30
0.0
 10
182.4407805456497
 20
107.8656209050888
 30
0.0
 10
182.3964276570653
 20
107.6659764324349
 30
0.0
 10
182.2718424487838
 20
107.4011679402634
 30
0.0
 10
182.2200586351177
 20
107.3170677681499
 30
0.0
 10
182.1001009567875
 20
107.1629821955064
 30
0.0
 10
182.0322498947917
 20
107.0929358573299
 30
0.0
 10
181.8807241560366
 20
106.9656030053673
 30
0.0
 10
181.7967548827736
 20
106.9084390106121
 30
0.0
 10
181.6192636144347
 20
106.8107584333949
 30
0.0
 10
181.5249820794804
 20
106.7695104249195
 30
0.0
 10
181.224096972251
 20
106.6683171779871
 30
0.0
 10
181.0112633663859
 20
106.6342524875982
 30
0.0
 10
180.7908775444453
 20
106.6342524875982
 30
0.0
  0
ELLIPSE
  5
127
330
1F
100
AcDbEntity
  8
0
  6
HIDDEN
 62
     7
370
     0
100
AcDbEllipse
 10
180.7908775444
 20
102.6367220176
 30
0.0
 11
1.383467579512086
 21
-1.091267719176614
 31
0.0
210
0.0
220
0.0
230
1.0
 40
0.8239737799
 41
5.288724596347254
 42
5.331125843614815
  0
SPLINE
  5
128
330
1F
100
AcDbEntity
  8
0
  6
HIDDEN
 62
     7
370
     0
100
AcDbSpline
210
0.0
220
0.0
230
1.0
 70
     8
 71
     3
 72
     8
 73
     4
 74
     0
 42
0.000000001
 43
0.00000001
 40
0.0
 40
0.0
 40
0.0
 40
0.0
 40
1.0
 40
1.0
 40
1.0
 40
1.0
 10
180.8608186405891
 20
101.0751701517939
 30
0.0
 10
180.8438339144943
 20
101.0822858618409
 30
0.0
 10
180.8268297699606
 20
101.0901609913591
 30
0.0
 10
180.8098308858887
 20
101.0987841108092
 30
0.0
  0
ELLIPSE
  5
129
330
1F
100
AcDbEntity
  8
0
  6
HIDDEN
 62
     7
370
     0
100
AcDbEllipse
 10
180.7908775444
 20
102.6367220176
 30
0.0
 11
1.383467579512086
 21
1.753907414218489
 31
0.0
210
0.0
220
0.0
230
1.0
 40
0.5126701559
 41
4.136053364422157
 42
4.147540490642136
  0
ELLIPSE
  5
12A
330
1F
100
AcDbEntity
  8
0
  6
HIDDEN
 62
     7
370
     0
100
AcDbEllipse
 10
180.7908775444
 20
102.6367220176
 30
0.0
 11
1.383467579512086
 21
1.753907414218489
 31
0.0
210
0.0
220
0.0
230
1.0
 40
0.5126701559
 41
0.9829735846123354
 42
0.9944607108323498
  0
SPLINE
  5
12B
330
1F
100
AcDbEntity
  8
0
  6
HIDDEN
 62
     7
370
     0
100
AcDbSpline
210
0.0
220
0.0
230
1.0
 70
     8
 71
     3
 72
     8
 73
     4
 74
     0
 42
0.000000001
 43
0.00000001
 40
0.0
 40
0.0
 40
0.0
 40
0.0
 40
1.0
 40
1.0
 40
1.0
 40
1.0
 10
180.8098308858885
 20
104.1995651678161
 30
0.0
 10
180.8268297699606
 20
104.1915818943058
 30
0.0
 10
180.8438339144944
 20
104.1828454918619
 30
0.0
 10
180.8608186405893
 20
104.1733686400288
 30
0.0
  0
ELLIPSE
  5
12C
330
1F
100
AcDbEntity
  8
0
  6
HIDDEN
 62
     7
370
     0
100
AcDbEllipse
 10
180.7908775444
 20
102.6367220176
 30
0.0
 11
1.383467579512086
 21
-1.091267719176614
 31
0.0
210
0.0
220
0.0
230
1.0
 40
0.8239737799
 41
2.104730695490147
 42
2.147131942757448
  0
CIRCLE
  5
12D
330
1F
100
AcDbEntity
  8
0
  6
HIDDEN
 62
     7
370
     0
100
AcDbCircle
 10
204.6408775444
 20
109.5243120782
 30
0.0
 40
2.625000000000014
  0
LINE
  5
12E
330
1F
100
AcDbEntity
  8
0
  6
HIDDEN
 62
     7
370
     0
100
AcDbLine
 10
211.5528051789
 20
99.9993119604
 30
0.0
 11
211.5528051789
 21
101.3311637781
 31
0.0
  0
LINE
  5
12F
330
1F
100
AcDbEntity
  8
0
  6
HIDDEN
 62
     7
370
     0
100
AcDbLine
 10
211.5528051789
 20
117.7174603782
 30
0.0
 11
211.5528051789
 21
119.0493121959
 31
0.0
  0
LINE
  5
130
330
1F
100
AcDbEntity
  8
0
  6
HIDDEN
 62
     7
370
     0
100
AcDbLine
 10
211.5426798399
 20
115.0243120484
 30
0.0
 11
211.6908793385
 21
115.6854365237
 31
0.0
  0
LINE
  5
131
330
1F
100
AcDbEntity
  8
0
  6
HIDDEN
 62
     7
370
     0
100
AcDbLine
 10
211.6908793385
 20
117.6538566343
 30
0.0
 11
211.5528051789
 21
117.7174603782
 31
0.0
  0
SPLINE
  5
132
330
1F
100
AcDbEntity
  8
0
  6
HIDDEN
 62
     7
370
     0
100
AcDbSpline
210
0.0
220
0.0
230
1.0
 70
     8
 71
     3
 72
     8
 73
     4
 74
     0
 42
0.000000001
 43
0.00000001
 40
0.0
 40
0.0
 40
0.0
 40
0.0
 40
1.0
 40
1.0
 40
1.0
 40
1.0
 10
211.4408775444452
 20
114.6378434332547
 30
0.0
 10
211.4740274903804
 20
114.7669266995888
 30
0.0
 10
211.507982858539
 20
114.8957425868911
 30
0.0
 10
211.5426804421256
 20
115.0243120781584
 30
0.0
  0
LINE
  5
133
330
1F
100
AcDbEntity
  8
0
  6
HIDDEN
 62
     7
370
     0
100
AcDbLine
 10
211.4408788319
 20
104.4107807084
 30
0.0
 11
211.4408788319
 21
114.6378434479
 31
0.0
  0
SPLINE
  5
134
330
1F
100
AcDbEntity
  8
0
  6
HIDDEN
 62
     7
370
     0
100
AcDbSpline
210
0.0
220
0.0
230
1.0
 70
     8
 71
     3
 72
     8
 73
     4
 74
     0
 42
0.000000001
 43
0.00000001
 40
0.0
 40
0.0
 40
0.0
 40
0.0
 40
1.0
 40
1.0
 40
1.0
 40
1.0
 10
211.5426804421256
 20
104.0243120781583
 30
0.0
 10
211.5079781835403
 20
104.1528988923093
 30
0.0
 10
211.4740229018689
 20
104.2817153240284
 30
0.0
 10
211.4408775444452
 20
104.410780723062
 30
0.0
  0
LINE
  5
135
330
1F
100
AcDbEntity
  8
0
  6
HIDDEN
 62
     7
370
     0
100
AcDbLine
 10
211.5528051789
 20
101.3311637781
 30
0.0
 11
211.6908793385
 21
101.3895102061
 31
0.0
  0
LINE
  5
136
330
1F
100
AcDbEntity
  8
0
  6
HIDDEN
 62
     7
370
     0
100
AcDbLine
 10
211.6908793385
 20
103.3568760596
 30
0.0
 11
211.5426798399
 21
104.024312108
 31
0.0
  0
LINE
  5
137
330
1F
100
AcDbEntity
  8
0
  6
HIDDEN
 62
     7
370
     0
100
AcDbLine
 10
170.9908774636
 20
134.3243127904
 30
0.0
 11
171.3281359106
 21
134.3243127904
 31
0.0
  0
ELLIPSE
  5
138
330
1F
100
AcDbEntity
  8
0
  6
HIDDEN
 62
     7
370
     0
100
AcDbEllipse
 10
171.3281358446
 20
135.9243120782
 30
0.0
 11
0.0
 21
1.599999999999994
 31
0.0
210
0.0
220
0.0
230
1.0
 40
0.4142135624
 41
3.141592653589793
 42
4.712388980384695
  0
LINE
  5
139
330
1F
100
AcDbEntity
  8
0
  6
HIDDEN
 62
     7
370
     0
100
AcDbLine
 10
171.3281359106
 20
86.924311354
 30
0.0
 11
170.9908774636
 21
86.924311354
 31
0.0
  0
ELLIPSE
  5
13A
330
1F
100
AcDbEntity
  8
0
  6
HIDDEN
 62
     7
370
     0
100
AcDbEllipse
 10
171.3281358446
 20
85.3243120782
 30
0.0
 11
0.0
 21
1.599999999999994
 31
0.0
210
0.0
220
0.0
230
1.0
 40
0.4142135624
 41
4.712388980384695
 42
6.283185307179586
  0
LINE
  5
13B
330
1F
100
AcDbEntity
  8
0
  6
HIDDEN
 62
     7
370
     0
100
AcDbLine
 10
171.9908773947
 20
79.6308635018
 30
0.0
 11
171.2070220664
 21
79.1725820146
 31
0.0
  0
LINE
  5
13C
330
1F
100
AcDbEntity
  8
0
  6
HIDDEN
 62
     7
370
     0
100
AcDbLine
 10
171.2781192317
 20
139.9496091745
 30
0.0
 11
171.9908773947
 21
139.2368493817
 31
0.0
  0
LINE
  5
13D
330
1F
100
AcDbEntity
  8
0
  6
HIDDEN
 62
     7
370
     0
100
AcDbLine
 10
106.5408763524
 20
101.0243116162
 30
0.0
 11
106.5408763524
 21
118.0243125401
 31
0.0
  0
LINE
  5
13E
330
1F
100
AcDbEntity
  8
0
  6
HIDDEN
 62
     7
370
     0
100
AcDbLine
 10
109.5368069644
 20
102.5243118621
 30
0.0
 11
109.5368069644
 21
116.5243122942
 31
0.0
  0
LINE
  5
13F
330
1F
100
AcDbEntity
  8
0
  6
HIDDEN
 62
     7
370
     0
100
AcDbLine
 10
175.8260875057
 20
79.6308635018
 30
0.0
 11
171.9908773947
 21
79.6308635018
 31
0.0
  0
LINE
  5
140
330
1F
100
AcDbEntity
  8
0
  6
HIDDEN
 62
     7
370
     0
100
AcDbLine
 10
186.8408777799
 20
79.6308635018
 30
0.0
 11
181.9556671243
 21
79.6308635018
 31
0.0
  0
LINE
  5
141
330
1F
100
AcDbEntity
  8
0
  6
HIDDEN
 62
     7
370
     0
100
AcDbLine
 10
171.9908773947
 20
79.6308635018
 30
0.0
 11
171.9908773947
 21
85.3243122093
 31
0.0
  0
LINE
  5
142
330
1F
100
AcDbEntity
  8
0
  6
HIDDEN
 62
     7
370
     0
100
AcDbLine
 10
186.8408777799
 20
86.924311354
 30
0.0
 11
171.3281359106
 21
86.924311354
 31
0.0
  0
LINE
  5
143
330
1F
100
AcDbEntity
  8
0
  6
HIDDEN
 62
     7
370
     0
100
AcDbLine
 10
171.3281359106
 20
134.3243127904
 30
0.0
 11
186.8408777799
 21
134.3243127904
 31
0.0
  0
LINE
  5
144
330
1F
100
AcDbEntity
  8
0
  6
HIDDEN
 62
     7
370
     0
100
AcDbLine
 10
171.9908773947
 20
139.2368493817
 30
0.0
 11
175.9269227322
 21
139.2368493817
 31
0.0
  0
LINE
  5
145
330
1F
100
AcDbEntity
  8
0
  6
HIDDEN
 62
     7
370
     0
100
AcDbLine
 10
181.8548318978
 20
139.2368493817
 30
0.0
 11
186.8408777799
 21
139.2368493817
 31
0.0
  0
LINE
  5
146
330
1F
100
AcDbEntity
  8
0
  6
HIDDEN
 62
     7
370
     0
100
AcDbLine
 10
171.9908773947
 20
139.2368493817
 30
0.0
 11
171.9908773947
 21
135.9243119351
 31
0.0
  0
LINE
  5
147
330
1F
100
AcDbEntity
  8
0
  6
HIDDEN
 62
     7
370
     0
100
AcDbLine
 10
209.0408791836
 20
107.5399984821
 30
0.0
 11
209.0408791836
 21
111.5086256742
 31
0.0
  0
LINE
  5
148
330
1F
100
AcDbEntity
  8
0
  6
HIDDEN
 62
     7
370
     0
100
AcDbLine
 10
209.7088274594
 20
107.5399984821
 30
0.0
 11
209.7088274594
 21
111.5086256742
 31
0.0
  0
LINE
  5
149
330
1F
100
AcDbEntity
  8
0
  6
HIDDEN
 62
     7
370
     0
100
AcDbLine
 10
209.0408791836
 20
117.7174603782
 30
0.0
 11
211.5528051789
 21
117.7174603782
 31
0.0
  0
LINE
  5
14A
330
1F
100
AcDbEntity
  8
0
  6
HIDDEN
 62
     7
370
     0
100
AcDbLine
 10
209.0408791836
 20
117.7243121184
 30
0.0
 11
209.0408791836
 21
115.0243120484
 31
0.0
  0
LINE
  5
14B
330
1F
100
AcDbEntity
  8
0
  6
HIDDEN
 62
     7
370
     0
100
AcDbLine
 10
209.0408791836
 20
111.5086256742
 30
0.0
 11
209.7088274594
 21
111.5086256742
 31
0.0
  0
LINE
  5
14C
330
1F
100
AcDbEntity
  8
0
  6
HIDDEN
 62
     7
370
     0
100
AcDbLine
 10
209.0408791836
 20
115.0243120484
 30
0.0
 11
209.0408791836
 21
111.5086256742
 31
0.0
  0
SPLINE
  5
14D
330
1F
100
AcDbEntity
  8
0
  6
HIDDEN
 62
     7
370
     0
100
AcDbSpline
210
0.0
220
0.0
230
1.0
 70
     8
 71
     3
 72
    10
 73
     6
 74
     0
 42
0.000000001
 43
0.00000001
 40
0.0
 40
0.0
 40
0.0
 40
0.0
 40
0.5
 40
0.5
 40
1.0
 40
1.0
 40
1.0
 40
1.0
 10
209.7088267368764
 20
111.5086255614568
 30
0.0
 10
209.9147930371294
 20
111.9880445641333
 30
0.0
 10
210.1772417656109
 20
112.4390891538842
 30
0.0
 10
210.7725881387987
 20
113.3057877402078
 30
0.0
 10
211.09848273155
 20
113.7112451277978
 30
0.0
 10
211.4408775444453
 20
114.1000633825891
 30
0.0
  0
LINE
  5
14E
330
1F
100
AcDbEntity
  8
0
  6
HIDDEN
 62
     7
370
     0
100
AcDbLine
 10
209.0408791836
 20
101.3311637781
 30
0.0
 11
211.5528051789
 21
101.3311637781
 31
0.0
  0
LINE
  5
14F
330
1F
100
AcDbEntity
  8
0
  6
HIDDEN
 62
     7
370
     0
100
AcDbLine
 10
209.0408791836
 20
104.024312108
 30
0.0
 11
209.0408791836
 21
101.3243120379
 31
0.0
  0
LINE
  5
150
330
1F
100
AcDbEntity
  8
0
  6
HIDDEN
 62
     7
370
     0
100
AcDbLine
 10
209.7088274594
 20
107.5399984821
 30
0.0
 11
209.0408791836
 21
107.5399984821
 31
0.0
  0
LINE
  5
151
330
1F
100
AcDbEntity
  8
0
  6
HIDDEN
 62
     7
370
     0
100
AcDbLine
 10
209.0408791836
 20
107.5399984821
 30
0.0
 11
209.0408791836
 21
104.024312108
 31
0.0
  0
SPLINE
  5
152
330
1F
100
AcDbEntity
  8
0
  6
HIDDEN
 62
     7
370
     0
100
AcDbSpline
210
0.0
220
0.0
230
1.0
 70
     8
 71
     3
 72
    10
 73
     6
 74
     0
 42
0.000000001
 43
0.00000001
 40
0.0
 40
0.0
 40
0.0
 40
0.0
 40
0.5
 40
0.5
 40
1.0
 40
1.0
 40
1.0
 40
1.0
 10
211.4408775444453
 20
104.9485607737276
 30
0.0
 10
211.0976294655205
 20
105.3383479842272
 30
0.0
 10
210.7696777810507
 20
105.7469339040864
 30
0.0
 10
210.178382936395
 20
106.6080134946059
 30
0.0
 10
209.9159458177701
 20
107.057896313684
 30
0.0
 10
209.7088267368764
 20
107.5399985948599
 30
0.0
  0
LINE
  5
153
330
1F
100
AcDbEntity
  8
0
  6
HIDDEN
 62
     7
370
     0
100
AcDbLine
 10
208.4408764775
 20
102.5243118621
 30
0.0
 11
208.4408764775
 21
116.5243122942
 31
0.0
  0
LINE
  5
154
330
1F
100
AcDbEntity
  8
0
  6
HIDDEN
 62
     7
370
     0
100
AcDbLine
 10
196.8908784028
 20
102.9243121139
 30
0.0
 11
196.8908784028
 21
116.1243120424
 31
0.0
  0
LINE
  5
155
330
1F
100
AcDbEntity
  8
0
  6
HIDDEN
 62
     7
370
     0
100
AcDbLine
 10
198.8908768679
 20
102.5243118621
 30
0.0
 11
198.8908768679
 21
116.5243122942
 31
0.0
  0
LINE
  5
156
330
1F
100
AcDbEntity
  8
0
  6
HIDDEN
 62
     7
370
     0
100
AcDbLine
 10
142.5408766653
 20
102.5243118621
 30
0.0
 11
142.5408766653
 21
116.5243122942
 31
0.0
  0
LINE
  5
157
330
1F
100
AcDbEntity
  8
0
  6
HIDDEN
 62
     7
370
     0
100
AcDbLine
 10
144.1932440783
 20
105.2743118472
 30
0.0
 11
144.1932440783
 21
113.7743123091
 31
0.0
  0
LINE
  5
158
330
1F
100
AcDbEntity
  8
0
  6
HIDDEN
 62
     7
370
     0
100
AcDbLine
 10
209.0408791836
 20
119.0493121959
 30
0.0
 11
209.0408791836
 21
117.7174603782
 31
0.0
  0
LINE
  5
159
330
1F
100
AcDbEntity
  8
0
  6
HIDDEN
 62
     7
370
     0
100
AcDbLine
 10
209.0408791836
 20
101.3311637781
 30
0.0
 11
209.0408791836
 21
99.9993119604
 31
0.0
  0
SPLINE
  5
15A
330
1F
100
AcDbEntity
  8
0
  6
HIDDEN
 62
     7
370
     0
100
AcDbSpline
210
0.0
220
0.0
230
1.0
 70
    11
 71
     3
 72
    60
 73
    56
 74
     0
 42
0.000000001
 43
0.00000001
 40
0.0
 40
0.0
 40
0.0
 40
0.0
 40
0.0312500000000001
 40
0.0312500000000001
 40
0.0625000000000001
 40
0.0625000000000001
 40
0.1250000000000002
 40
0.1250000000000002
 40
0.1875000000000003
 40
0.1875000000000003
 40
0.2187500000000002
 40
0.2187500000000002
 40
0.2500000000000002
 40
0.2500000000000002
 40
0.2812500000000002
 40
0.2812500000000002
 40
0.3125000000000001
 40
0.3125000000000001
 40
0.3437499999999999
 40
0.3437499999999999
 40
0.3749999999999998
 40
0.3749999999999998
 40
0.4062499999999996
 40
0.4062499999999996
 40
0.4374999999999994
 40
0.4374999999999994
 40
0.4999999999999991
 40
0.4999999999999991
 40
0.5312499999999991
 40
0.5312499999999991
 40
0.5624999999999992
 40
0.5624999999999992
 40
0.5937499999999992
 40
0.5937499999999992
 40
0.6249999999999993
 40
0.6249999999999993
 40
0.6562499999999993
 40
0.6562499999999993
 40
0.6874999999999994
 40
0.6874999999999994
 40
0.7187499999999994
 40
0.7187499999999994
 40
0.7499999999999996
 40
0.7499999999999996
 40
0.8124999999999997
 40
0.8124999999999997
 40
0.8437499999999997
 40
0.8437499999999997
 40
0.8749999999999998
 40
0.8749999999999998
 40
0.9062499999999998
 40
0.9062499999999998
 40
0.9374999999999999
 40
0.9374999999999999
 40
1.0
 40
1.0
 40
1.0
 40
1.0
 10
180.7908775444453
 20
109.313386020125
 30
0.0
 10
180.9010704554156
 20
109.313386020125
 30
0.0
 10
181.009179658703
 20
109.3252436424297
 30
0.0
 10
181.2214848131894
 20
109.3712493693199
 30
0.0
 10
181.3267934766484
 20
109.4060092216336
 30
0.0
 10
181.625591437257
 20
109.539563059798
 30
0.0
 10
181.807013641643
 20
109.6694714729415
 30
0.0
 10
182.1082195422999
 20
109.9819299600519
 30
0.0
 10
182.2307740210921
 20
110.1677074428794
 30
0.0
 10
182.3549074717113
 20
110.4625181913831
 30
0.0
 10
182.3872105885472
 20
110.5654972778042
 30
0.0
 10
182.4300602503792
 20
110.7717749175092
 30
0.0
 10
182.4408054178917
 20
110.8745429024285
 30
0.0
 10
182.4409489542448
 20
111.0792085559469
 30
0.0
 10
182.4299658332084
 20
111.1815626421411
 30
0.0
 10
182.3872941736811
 20
111.3758227511483
 30
0.0
 10
182.3557312795737
 20
111.4689910598919
 30
0.0
 10
182.271766184086
 20
111.647774580534
 30
0.0
 10
182.2207316310853
 20
111.7304919722458
 30
0.0
 10
182.1014983003065
 20
111.8840435876597
 30
0.0
 10
182.032439242972
 20
111.955494048413
 30
0.0
 10
181.8811407191176
 20
112.0827060908003
 30
0.0
 10
181.7989080143627
 20
112.1388489746475
 30
0.0
 10
181.6207954972145
 20
112.2371707874915
 30
0.0
 10
181.5246606130102
 20
112.2791650816428
 30
0.0
 10
181.2274139278913
 20
112.3793041919193
 30
0.0
 10
181.0083561871123
 20
112.4143182998201
 30
0.0
 10
180.6829025122244
 20
112.4143982592801
 30
0.0
 10
180.5730659110314
 20
112.4057928548573
 30
0.0
 10
180.359133614049
 20
112.3714800593831
 30
0.0
 10
180.2558939531055
 20
112.3461382461884
 30
0.0
 10
180.056464896543
 20
112.2789531570037
 30
0.0
 10
179.9603723892695
 20
112.236871171945
 30
0.0
 10
179.7828283397035
 20
112.1388140163811
 30
0.0
 10
179.7001317725903
 20
112.0824245520573
 30
0.0
 10
179.5476572142251
 20
111.9539734824077
 30
0.0
 10
179.4799802931834
 20
111.8837159657746
 30
0.0
 10
179.3610026289147
 20
111.7304366214065
 30
0.0
 10
179.3092583457145
 20
111.6463574446471
 30
0.0
 10
179.2260816390583
 20
111.4689746567628
 30
0.0
 10
179.1945706021093
 20
111.3761980144878
 30
0.0
 10
179.1518349946575
 20
111.1818944948362
 30
0.0
 10
179.1408292902373
 20
111.0794280798979
 30
0.0
 10
179.1409745432409
 20
110.7727663635265
 30
0.0
 10
179.1853274318252
 20
110.560994479128
 30
0.0
 10
179.3099126401068
 20
110.2653091380536
 30
0.0
 10
179.3616964537729
 20
110.1687326102146
 30
0.0
 10
179.4816541321031
 20
109.987568361899
 30
0.0
 10
179.5495051940988
 20
109.9029790431995
 30
0.0
 10
179.701030932854
 20
109.7460810104066
 30
0.0
 10
179.7850002061169
 20
109.6738847794535
 30
0.0
 10
179.9624914744559
 20
109.5485229362245
 30
0.0
 10
180.0567730094101
 20
109.4944565831135
 30
0.0
 10
180.3576581166396
 20
109.3603846010975
 30
0.0
 10
180.5704917225046
 20
109.313386020125
 30
0.0
 10
180.7908775444453
 20
109.313386020125
 30
0.0
  0
LINE
  5
15B
330
1F
100
AcDbEntity
  8
0
  6
HIDDEN
 62
     7
370
     0
100
AcDbLine
 10
186.8908767636
 20
105.2743118472
 30
0.0
 11
186.8908767636
 21
113.7743123091
 31
0.0
  0
ELLIPSE
  5
15C
330
1F
100
AcDbEntity
  8
0
  6
HIDDEN
 62
     7
370
     0
100
AcDbEllipse
 10
180.7908775444
 20
116.4119021387
 30
0.0
 11
-1.383467579512143
 21
1.753907414218517
 31
0.0
210
0.0
220
0.0
230
1.0
 40
0.5126701559
 41
5.277237470118411
 42
5.288724596347228
  0
ELLIPSE
  5
15D
330
1F
100
AcDbEntity
  8
0
  6
HIDDEN
 62
     7
370
     0
100
AcDbEllipse
 10
180.7908775444
 20
116.4119021387
 30
0.0
 11
1.383467579512086
 21
1.091267719176614
 31
0.0
210
0.0
220
0.0
230
1.0
 40
0.8239737799
 41
0.9944607108323325
 42
4.136053364422121
  0
ELLIPSE
  5
15E
330
1F
100
AcDbEntity
  8
0
  6
HIDDEN
 62
     7
370
     0
100
AcDbEllipse
 10
180.7908775444
 20
116.4119021387
 30
0.0
 11
-1.383467579512143
 21
1.753907414218517
 31
0.0
210
0.0
220
0.0
230
1.0
 40
0.5126701559
 41
2.147131942757405
 42
2.158619068984206
  0
SPLINE
  5
15F
330
1F
100
AcDbEntity
  8
0
  6
HIDDEN
 62
     7
370
     0
100
AcDbSpline
210
0.0
220
0.0
230
1.0
 70
     8
 71
     3
 72
     8
 73
     4
 74
     0
 42
0.000000001
 43
0.00000001
 40
0.0
 40
0.0
 40
0.0
 40
0.0
 40
1.0
 40
1.0
 40
1.0
 40
1.0
 10
180.809830885858
 20
114.8490589884864
 30
0.0
 10
180.8268297699504
 20
114.8570422620054
 30
0.0
 10
180.8438339145045
 20
114.8657786644598
 30
0.0
 10
180.8608186406197
 20
114.8752555163051
 30
0.0
  0
ELLIPSE
  5
160
330
1F
100
AcDbEntity
  8
0
  6
HIDDEN
 62
     7
370
     0
100
AcDbEllipse
 10
180.7908775444
 20
116.4119021387
 30
0.0
 11
1.383467579512086
 21
1.091267719176614
 31
0.0
210
0.0
220
0.0
230
1.0
 40
0.8239737799
 41
4.136053364422134
 42
4.178454611707988
  0
ELLIPSE
  5
161
330
1F
100
AcDbEntity
  8
0
  6
HIDDEN
 62
     7
370
     0
100
AcDbEllipse
 10
180.7908775444
 20
116.4119021387
 30
0.0
 11
-1.383467579512143
 21
1.753907414218517
 31
0.0
210
0.0
220
0.0
230
1.0
 40
0.5126701559
 41
5.288724596347226
 42
8.430317249936989
  0
ELLIPSE
  5
162
330
1F
100
AcDbEntity
  8
0
  6
HIDDEN
 62
     7
370
     0
100
AcDbEllipse
 10
180.7908775444
 20
116.4119021387
 30
0.0
 11
1.383467579512086
 21
1.091267719176614
 31
0.0
210
0.0
220
0.0
230
1.0
 40
0.8239737799
 41
0.9520594635345898
 42
0.9944607108323451
  0
SPLINE
  5
163
330
1F
100
AcDbEntity
  8
0
  6
HIDDEN
 62
     7
370
     0
100
AcDbSpline
210
0.0
220
0.0
230
1.0
 70
     8
 71
     3
 72
     8
 73
     4
 74
     0
 42
0.000000001
 43
0.00000001
 40
0.0
 40
0.0
 40
0.0
 40
0.0
 40
1.0
 40
1.0
 40
1.0
 40
1.0
 10
180.8608186406287
 20
117.9734540045395
 30
0.0
 10
180.8438339145075
 20
117.9663382944827
 30
0.0
 10
180.8268297699474
 20
117.9584631649522
 30
0.0
 10
180.8098308858491
 20
117.9498400454875
 30
0.0
  0
LWPOLYLINE
  5
164
330
1F
100
AcDbEntity
  8
0
  6
HIDDEN
 62
     7
370
     0
100
AcDbPolyline
 90
       22
 70
   128
 43
0.0
 10
180.7908778127
 20
115.9677227243
 10
181.2772237744
 20
116.0366070672
 10
181.7203554373
 20
116.2371385127
 10
182.0808992769
 20
116.5514989972
 10
182.3268196593
 20
116.9517572253
 10
182.4362640317
 20
117.4023473851
 10
182.399508455
 20
117.8632328502
 10
182.2198190774
 20
118.2934619702
 10
181.9131624933
 20
118.6548076786
 10
181.5067854758
 20
118.9151616983
 10
181.0367972638
 20
119.0513909079
 10
180.5449574302
 20
119.0513909079
 10
180.0749692182
 20
118.9151616983
 10
179.6685922007
 20
118.6548076786
 10
179.3619356166
 20
118.2934619702
 10
179.182246239
 20
117.8632328502
 10
179.1454915936
 20
117.4023473851
 10
179.254935966
 20
116.9517572253
 10
179.5008554171
 20
116.5514989972
 10
179.8613992567
 20
116.2371385127
 10
180.304531851
 20
116.0366070672
 10
180.7908778127
 20
115.9677227243
  0
LINE
  5
165
330
1F
100
AcDbEntity
  8
0
  6
HIDDEN
 62
     7
370
     0
100
AcDbLine
 10
176.9808772068
 20
131.7215530417
 30
0.0
 11
176.9808772068
 21
127.8743116401
 31
0.0
  0
SPLINE
  5
166
330
1F
100
AcDbEntity
  8
0
  6
HIDDEN
 62
     7
370
     0
100
AcDbSpline
210
0.0
220
0.0
230
1.0
 70
     8
 71
     3
 72
    14
 73
    10
 74
     0
 42
0.000000001
 43
0.00000001
 40
0.0
 40
0.0
 40
0.0
 40
0.0
 40
0.25
 40
0.25
 40
0.5
 40
0.5
 40
0.75
 40
0.75
 40
1.0
 40
1.0
 40
1.0
 40
1.0
 10
180.0008775444452
 20
120.8067912682665
 30
0.0
 10
180.0985597955592
 20
120.8453135822989
 30
0.0
 10
180.2006733045965
 20
120.8829289417576
 30
0.0
 10
180.3928454757654
 20
120.9540376673446
 30
0.0
 10
180.4842641490922
 20
120.9882437178486
 30
0.0
 10
180.6357801381064
 20
121.0551331962056
 30
0.0
 10
180.6969273406453
 20
121.0884036587665
 30
0.0
 10
180.7796340423338
 20
121.1578020088603
 30
0.0
 10
180.8008775444453
 20
121.1935791144563
 30
0.0
 10
180.8008775444453
 20
121.230074446707
 30
0.0
  0
LINE
  5
167
330
1F
100
AcDbEntity
  8
0
  6
HIDDEN
 62
     7
370
     0
100
AcDbLine
 10
180.8008774231
 20
131.7215530417
 30
0.0
 11
180.8008774231
 21
127.8743116401
 31
0.0
  0
LINE
  5
168
330
1F
100
AcDbEntity
  8
0
  6
HIDDEN
 62
     7
370
     0
100
AcDbLine
 10
180.8008774231
 20
101.523029267
 30
0.0
 11
180.8008774231
 21
97.7643063507
 31
0.0
  0
SPLINE
  5
169
330
1F
100
AcDbEntity
  8
0
  6
HIDDEN
 62
     7
370
     0
100
AcDbSpline
210
0.0
220
0.0
230
1.0
 70
     8
 71
     3
 72
    14
 73
    10
 74
     0
 42
0.000000001
 43
0.00000001
 40
0.0
 40
0.0
 40
0.0
 40
0.0
 40
0.2500000000000005
 40
0.2500000000000005
 40
0.5000000000000003
 40
0.5000000000000003
 40
0.7500000000000001
 40
0.7500000000000001
 40
1.0
 40
1.0
 40
1.0
 40
1.0
 10
180.8008775444453
 20
117.471350948488
 30
0.0
 10
180.8008775444453
 20
117.4348620175807
 30
0.0
 10
180.779708168273
 20
117.398363225847
 30
0.0
 10
180.6969625504206
 20
117.33298787811
 30
0.0
 10
180.6361089255929
 20
117.3050510437637
 30
0.0
 10
180.4845040589018
 20
117.271160014517
 30
0.0
 10
180.3932817484346
 20
117.2657345619305
 30
0.0
 10
180.2009511987313
 20
117.2866538857431
 30
0.0
 10
180.0987003142543
 20
117.3132100331836
 30
0.0
 10
180.0008775444452
 20
117.3536797914893
 30
0.0
  0
LINE
  5
16A
330
1F
100
AcDbEntity
  8
0
  6
HIDDEN
 62
     7
370
     0
100
AcDbLine
 10
182.4127146091
 20
99.7722918383
 30
0.0
 11
182.4127146091
 21
97.5728124596
 31
0.0
  0
LINE
  5
16B
330
1F
100
AcDbEntity
  8
0
  6
HIDDEN
 62
     7
370
     0
100
AcDbLine
 10
182.4127146091
 20
135.4345424316
 30
0.0
 11
182.4127146091
 21
127.8743116401
 31
0.0
  0
LINE
  5
16C
330
1F
100
AcDbEntity
  8
0
  6
HIDDEN
 62
     7
370
     0
100
AcDbLine
 10
175.3690409522
 20
135.4345424316
 30
0.0
 11
175.3690409522
 21
127.8743116401
 31
0.0
  0
SPLINE
  5
16D
330
1F
100
AcDbEntity
  8
0
  6
HIDDEN
 62
     7
370
     0
100
AcDbSpline
210
0.0
220
0.0
230
1.0
 70
     8
 71
     3
 72
    10
 73
     6
 74
     0
 42
0.000000001
 43
0.00000001
 40
0.0
 40
0.0
 40
0.0
 40
0.0
 40
0.5
 40
0.5
 40
1.0
 40
1.0
 40
1.0
 40
1.0
 10
178.8149867818049
 20
117.2708512476272
 30
0.0
 10
178.7993807308237
 20
117.3761234482358
 30
0.0
 10
178.7908762677951
 20
117.4800619460266
 30
0.0
 10
178.7908788213848
 20
117.6795752179826
 30
0.0
 10
178.7993764089852
 20
117.770787712653
 30
0.0
 10
178.8149867818049
 20
117.8527196449961
 30
0.0
  0
SPLINE
  5
16E
330
1F
100
AcDbEntity
  8
0
  6
HIDDEN
 62
     7
370
     0
100
AcDbSpline
210
0.0
220
0.0
230
1.0
 70
     8
 71
     3
 72
    14
 73
    10
 74
     0
 42
0.000000001
 43
0.00000001
 40
0.0
 40
0.0
 40
0.0
 40
0.0
 40
0.25
 40
0.25
 40
0.5
 40
0.5
 40
0.75
 40
0.75
 40
1.0
 40
1.0
 40
1.0
 40
1.0
 10
178.8149867818049
 20
117.8527196449961
 30
0.0
 10
178.8513506098351
 20
117.8072250095943
 30
0.0
 10
178.8838283370453
 20
117.7588332033781
 30
0.0
 10
178.932581966461
 20
117.6533480594485
 30
0.0
 10
178.9474857441355
 20
117.5967635512056
 30
0.0
 10
178.9474961777931
 20
117.4878759572552
 30
0.0
 10
178.9326058819849
 20
117.4356912914926
 30
0.0
 10
178.8837169511073
 20
117.344413892549
 30
0.0
 10
178.851344772837
 20
117.3057471871749
 30
0.0
 10
178.8149867818049
 20
117.2708512476272
 30
0.0
  0
LWPOLYLINE
  5
16F
330
1F
100
AcDbEntity
  8
0
  6
HIDDEN
 62
     7
370
     0
100
AcDbPolyline
 90
       22
 70
   128
 43
0.0
 10
171.6226049747
 20
117.5043579407
 10
171.7426012318
 20
117.1446872159
 10
171.9325216535
 20
116.8957009196
 10
172.1754911403
 20
116.7795221537
 10
172.4499207038
 20
116.8064741633
 10
172.7314259905
 20
116.9741615869
 10
172.9949940044
 20
117.2676851257
 10
173.217205708
 20
117.6609635569
 10
173.3783165972
 20
118.1190531916
 10
173.4640108469
 20
118.6012491799
 10
173.4666748951
 20
119.0647078894
 10
173.3860717203
 20
119.4682480983
 10
173.2293631929
 20
119.7760138876
 10
173.0104735169
 20
119.9606588326
 10
172.7488519672
 20
120.0057758234
 10
172.4677448209
 20
119.907357379
 10
172.1921296838
 20
119.6741467557
 10
171.9464961487
 20
119.3268668122
 10
171.7526702258
 20
118.8963750593
 10
171.6278736993
 20
118.4209218464
 10
171.5831953614
 20
117.9427538283
 10
171.6226049747
 20
117.5043579407
  0
LWPOLYLINE
  5
170
330
1F
100
AcDbEntity
  8
0
  6
HIDDEN
 62
     7
370
     0
100
AcDbPolyline
 90
       23
 70
   128
 43
0.0
 10
178.8149866323
 20
117.2708511568
 10
178.9703684907
 20
116.7836283549
 10
179.2590915273
 20
116.3534010976
 10
179.6600091319
 20
116.0116811499
 10
180.1437557723
 20
115.7834973402
 10
180.6749011438
 20
115.6855627179
 10
181.2145411085
 20
115.725050795
 10
181.723149405
 20
115.8990688838
 10
182.163474993
 20
116.194871369
 10
182.5032652404
 20
116.5907924279
 10
182.7176333453
 20
117.0578330039
 10
182.7908772092
 20
117.5617851533
 10
182.7176333453
 20
118.0657377682
 10
182.5032652404
 20
118.5327783443
 10
182.163474993
 20
118.9286994032
 10
181.723149405
 20
119.2245023541
 10
181.2145411085
 20
119.3985199771
 10
180.6749011438
 20
119.4380080543
 10
180.1437557723
 20
119.3400738976
 10
179.6600091319
 20
119.1118896223
 10
179.2590915273
 20
118.7701696746
 10
178.9703684907
 20
118.3399424172
 10
178.8149866323
 20
117.852720081
  0
SPLINE
  5
171
330
1F
100
AcDbEntity
  8
0
  6
HIDDEN
 62
     7
370
     0
100
AcDbSpline
210
0.0
220
0.0
230
1.0
 70
     8
 71
     3
 72
    12
 73
     8
 74
     0
 42
0.000000001
 43
0.00000001
 40
0.0
 40
0.0
 40
0.0
 40
0.0
 40
0.2499999999999992
 40
0.2499999999999992
 40
0.4999999999999983
 40
0.4999999999999983
 40
1.0
 40
1.0
 40
1.0
 40
1.0
 10
182.412714186502
 20
121.4758118763654
 30
0.0
 10
182.5356616802976
 20
121.3178550276703
 30
0.0
 10
182.6292058834064
 20
121.1460216606928
 30
0.0
 10
182.7581452725686
 20
120.7743489510469
 30
0.0
 10
182.7906980299537
 20
120.5811605048557
 30
0.0
 10
182.7912343716876
 20
119.9928639665795
 30
0.0
 10
182.6586107147196
 20
119.6008457286907
 30
0.0
 10
182.412714186502
 20
119.2763321459821
 30
0.0
  0
SPLINE
  5
172
330
1F
100
AcDbEntity
  8
0
  6
HIDDEN
 62
     7
370
     0
100
AcDbSpline
210
0.0
220
0.0
230
1.0
 70
     8
 71
     3
 72
    12
 73
     8
 74
     0
 42
0.000000001
 43
0.00000001
 40
0.0
 40
0.0
 40
0.0
 40
0.0
 40
0.2499999999999997
 40
0.2499999999999997
 40
0.4999999999999993
 40
0.4999999999999993
 40
1.0
 40
1.0
 40
1.0
 40
1.0
 10
182.412714186502
 20
119.2763321459821
 30
0.0
 10
182.2978181352414
 20
119.0565917109255
 30
0.0
 10
182.1710521187687
 20
118.8596233593038
 30
0.0
 10
181.9108371851501
 20
118.5059057864649
 30
0.0
 10
181.7773297271879
 20
118.3490804925926
 30
0.0
 10
181.3689314585997
 20
117.9225379216849
 30
0.0
 10
181.0852783236622
 20
117.6958457427297
 30
0.0
 10
180.8008775444454
 20
117.5255945983342
 30
0.0
  0
SPLINE
  5
173
330
1F
100
AcDbEntity
  8
0
  6
HIDDEN
 62
     7
370
     0
100
AcDbSpline
210
0.0
220
0.0
230
1.0
 70
     8
 71
     3
 72
    12
 73
     8
 74
     0
 42
0.000000001
 43
0.00000001
 40
0.0
 40
0.0
 40
0.0
 40
0.0
 40
0.5000000000000013
 40
0.5000000000000013
 40
0.7500000000000007
 40
0.7500000000000007
 40
1.0
 40
1.0
 40
1.0
 40
1.0
 10
180.8008775444453
 20
121.2843180965553
 30
0.0
 10
181.0850840790106
 20
121.451782258849
 30
0.0
 10
181.3637798131143
 20
121.5634193583606
 30
0.0
 10
181.7731258563036
 20
121.630732624
 30
0.0
 10
181.9092651936232
 20
121.635883664014
 30
0.0
 10
182.1705852426192
 20
121.5981177263946
 30
0.0
 10
182.296006425051
 20
121.5565679680503
 30
0.0
 10
182.4127141865024
 20
121.4758118763675
 30
0.0
  0
SPLINE
  5
174
330
1F
100
AcDbEntity
  8
0
  6
HIDDEN
 62
     7
370
     0
100
AcDbSpline
210
0.0
220
0.0
230
1.0
 70
     8
 71
     3
 72
    22
 73
    18
 74
     0
 42
0.000000001
 43
0.00000001
 40
0.0
 40
0.0
 40
0.0
 40
0.0
 40
0.125
 40
0.125
 40
0.25
 40
0.25
 40
0.375
 40
0.375
 40
0.5
 40
0.5
 40
0.625
 40
0.625
 40
0.75
 40
0.75
 40
0.875
 40
0.875
 40
1.0
 40
1.0
 40
1.0
 40
1.0
 10
180.0008775444453
 20
117.3536797914893
 30
0.0
 10
179.8208608498759
 20
117.4281535784659
 30
0.0
 10
179.6564290280056
 20
117.5256028404499
 30
0.0
 10
179.358032794247
 20
117.7649722740142
 30
0.0
 10
179.2277290668821
 20
117.9048688860847
 30
0.0
 10
179.0145102832631
 20
118.2131204761449
 30
0.0
 10
178.9308824261516
 20
118.3832836942642
 30
0.0
 10
178.8197515492334
 20
118.7337784290547
 30
0.0
 10
178.7909155543797
 20
118.918903390206
 30
0.0
 10
178.7908396117201
 20
119.2821102648232
 30
0.0
 10
178.8194982371473
 20
119.4654802785308
 30
0.0
 10
178.93064933026
 20
119.8113713910241
 30
0.0
 10
179.013716450904
 20
119.9768909182916
 30
0.0
 10
179.2274024090227
 20
120.2774306556953
 30
0.0
 10
179.356409398947
 20
120.4113025769793
 30
0.0
 10
179.6560186784365
 20
120.6425493463834
 30
0.0
 10
179.8208613766957
 20
120.7357994630422
 30
0.0
 10
180.0008775444453
 20
120.8067912682665
 30
0.0
  0
LWPOLYLINE
  5
175
330
1F
100
AcDbEntity
  8
0
  6
HIDDEN
 62
     7
370
     0
100
AcDbPolyline
 90
       25
 70
   128
 43
0.0
 10
171.2410891476
 20
117.2948494769
 10
171.3694936178
 20
116.8873306579
 10
171.5678113095
 20
116.5844305634
 10
171.8225268695
 20
116.4067914925
 10
172.116281842
 20
116.3665197074
 10
172.4290576811
 20
116.46635935
 10
172.7395387414
 20
116.6995061777
 10
173.026566771
 20
117.0500722929
 10
173.2705807361
 20
117.4941664777
 10
173.4549518722
 20
118.0015249393
 10
173.5671157065
 20
118.5375727929
 10
173.5994279432
 20
119.0657770477
 10
173.5496869359
 20
119.5501439489
 10
173.4212822329
 20
119.9576627679
 10
173.2229650068
 20
120.2605623967
 10
172.968249214
 20
120.4382019333
 10
172.6744942415
 20
120.4784732528
 10
172.3617184024
 20
120.3786336101
 10
172.0512373421
 20
120.1454872481
 10
171.7642093125
 20
119.7949206672
 10
171.5201953474
 20
119.3508269481
 10
171.3358242113
 20
118.8434675551
 10
171.2236606098
 20
118.3074206329
 10
171.1913481403
 20
117.7792163781
 10
171.2410891476
 20
117.2948494769
  0
LWPOLYLINE
  5
176
330
1F
100
AcDbEntity
  8
0
  6
HIDDEN
 62
     7
370
     0
100
AcDbPolyline
 90
       21
 70
   128
 43
0.0
 10
181.4522099729
 20
116.2145995751
 10
181.8291208755
 20
116.4675519086
 10
182.1044012021
 20
116.8175718031
 10
182.2511049967
 20
117.2303968325
 10
182.2548712652
 20
117.6656164444
 10
182.1153312038
 20
118.0806286849
 10
181.8461454521
 20
118.4348087973
 10
181.4736620571
 20
118.6934882991
 10
181.0343432288
 20
118.8313445292
 10
180.5711918558
 20
118.834883555
 10
180.1295456524
 20
118.7037589244
 10
179.7526347499
 20
118.4508070565
 10
179.4773534919
 20
118.100787162
 10
179.3306506287
 20
117.687961667
 10
179.3268843602
 20
117.2527425207
 10
179.4664234902
 20
116.8377302803
 10
179.7356101732
 20
116.4835497021
 10
180.1080926369
 20
116.2248711317
 10
180.5474123965
 20
116.0870144359
 10
181.0105628382
 20
116.0834754101
 10
181.4522099729
 20
116.2145995751
  0
LWPOLYLINE
  5
177
330
1F
100
AcDbEntity
  8
0
  6
HIDDEN
 62
     7
370
     0
100
AcDbPolyline
 90
       24
 70
   128
 43
0.0
 10
181.684337468
 20
115.8803581476
 10
182.1339632432
 20
116.1692255392
 10
182.4839784812
 20
116.5613724134
 10
182.7084234963
 20
117.0277154289
 10
182.7906536918
 20
117.5336685247
 10
182.7245689045
 20
118.0417059205
 10
182.5150716166
 20
118.5141509614
 10
182.1776990827
 20
118.9159626357
 10
181.7374712835
 20
119.2173414148
 10
181.2270394574
 20
119.3959346257
 10
180.6842600043
 20
119.43849793
 10
180.1493874799
 20
119.3418741442
 10
179.6620915692
 20
119.1132297955
 10
179.2585122447
 20
118.7695205427
 10
178.9685812827
 20
118.33624041
 10
178.81380199
 20
117.8455218888
 10
178.8056529175
 20
117.3337596684
 10
178.9447394247
 20
116.8389093346
 10
179.2207452516
 20
116.3976715162
 10
179.6132008593
 20
116.04277056
 10
180.0929996233
 20
115.8005284361
 10
180.624555708
 20
115.6889098912
 10
181.1684480916
 20
115.716194383
 10
181.684337468
 20
115.8803581476
  0
LWPOLYLINE
  5
178
330
1F
100
AcDbEntity
  8
0
  6
HIDDEN
 62
     7
370
     0
100
AcDbPolyline
 90
       24
 70
   128
 43
0.0
 10
181.684337468
 20
116.2052770361
 10
182.1339632432
 20
116.4941444277
 10
182.4839784812
 20
116.8862917676
 10
182.7084234963
 20
117.3526343174
 10
182.7906536918
 20
117.8585874132
 10
182.7245689045
 20
118.3666257403
 10
182.5150716166
 20
118.8390698499
 10
182.1776990827
 20
119.2408815242
 10
181.7374712835
 20
119.5422603033
 10
181.2270394574
 20
119.7208544455
 10
180.6842600043
 20
119.7634177498
 10
180.1493874799
 20
119.666793964
 10
179.6620915692
 20
119.438148684
 10
179.2585122447
 20
119.0944403626
 10
178.9685812827
 20
118.6611592985
 10
178.81380199
 20
118.1704407773
 10
178.8056529175
 20
117.6586790226
 10
178.9447394247
 20
117.1638286888
 10
179.2207452516
 20
116.7225908704
 10
179.6132008593
 20
116.3676899142
 10
180.0929996233
 20
116.1254473246
 10
180.624555708
 20
116.0138292454
 10
181.1684480916
 20
116.0411137372
 10
181.684337468
 20
116.2052770361
  0
LWPOLYLINE
  5
179
330
1F
100
AcDbEntity
  8
0
  6
HIDDEN
 62
     7
370
     0
100
AcDbPolyline
 90
       21
 70
   128
 43
0.0
 10
181.460972787
 20
117.5661893777
 10
181.8428774412
 20
117.8224930755
 10
182.1218057583
 20
118.1771509565
 10
182.2704532232
 20
118.595446109
 10
182.2742688517
 20
119.0364320047
 10
182.1328810464
 20
119.4569437049
 10
181.8601273979
 20
119.8158167518
 10
181.4827089246
 20
120.0779235206
 10
181.0375693302
 20
120.2176060743
 10
180.5682814728
 20
120.2211925975
 10
180.1207828383
 20
120.0883301191
 10
179.7388772528
 20
119.8320264212
 10
179.459949867
 20
119.4773685403
 10
179.3113024022
 20
119.0590743191
 10
179.3074858423
 20
118.6180874921
 10
179.4488745789
 20
118.1975767232
 10
179.7216272961
 20
117.8387036763
 10
180.0990457694
 20
117.5765969075
 10
180.5441862951
 20
117.4369143538
 10
181.0134741525
 20
117.4333278305
 10
181.460972787
 20
117.5661893777
  0
LWPOLYLINE
  5
17A
330
1F
100
AcDbEntity
  8
0
  6
HIDDEN
 62
     7
370
     0
100
AcDbPolyline
 90
       21
 70
   128
 43
0.0
 10
181.460972787
 20
116.5627111896
 10
181.8428774412
 20
116.8190148875
 10
182.1218057583
 20
117.1736727684
 10
182.2704532232
 20
117.5919674552
 10
182.2742688517
 20
118.0329533509
 10
182.1328810464
 20
118.4534650512
 10
181.8601273979
 20
118.8123380981
 10
181.4827089246
 20
119.0744448669
 10
181.0375693302
 20
119.2141274206
 10
180.5682814728
 20
119.2177139438
 10
180.1207828383
 20
119.0848523966
 10
179.7388772528
 20
118.8285477675
 10
179.459949867
 20
118.4738908179
 10
179.3113024022
 20
118.0555956654
 10
179.3074858423
 20
117.6146097697
 10
179.4488745789
 20
117.1940980695
 10
179.7216272961
 20
116.8352250225
 10
180.0990457694
 20
116.5731182537
 10
180.5441862951
 20
116.4334357
 10
181.0134741525
 20
116.4298491768
 10
181.460972787
 20
116.5627111896
  0
LWPOLYLINE
  5
17B
330
1F
100
AcDbEntity
  8
0
  6
HIDDEN
 62
     7
370
     0
100
AcDbPolyline
 90
       24
 70
   128
 43
0.0
 10
181.684337468
 20
116.3976635999
 10
182.1339632432
 20
116.6865309916
 10
182.4839784812
 20
117.0786778658
 10
182.7084234963
 20
117.5450213469
 10
182.7906536918
 20
118.0509735114
 10
182.7245689045
 20
118.5590118385
 10
182.5150716166
 20
119.0314559482
 10
182.1776990827
 20
119.4332676224
 10
181.7374712835
 20
119.7346464015
 10
181.2270394574
 20
119.9132405437
 10
180.6842600043
 20
119.955803848
 10
180.1493874799
 20
119.8591800622
 10
179.6620915692
 20
119.6305347822
 10
179.2585122447
 20
119.2868264608
 10
178.9685812827
 20
118.8535453967
 10
178.81380199
 20
118.3628268755
 10
178.8056529175
 20
117.8510651208
 10
178.9447394247
 20
117.3562152527
 10
179.2207452516
 20
116.9149769686
 10
179.6132008593
 20
116.5600760124
 10
180.0929996233
 20
116.3178338885
 10
180.624555708
 20
116.2062158092
 10
181.1684480916
 20
116.2334998354
 10
181.684337468
 20
116.3976635999
  0
LWPOLYLINE
  5
17C
330
1F
100
AcDbEntity
  8
0
  6
HIDDEN
 62
     7
370
     0
100
AcDbPolyline
 90
       23
 70
   128
 43
0.0
 10
181.6128603231
 20
116.3878879725
 10
182.0433502133
 20
116.6681625165
 10
182.3723715778
 20
117.0510520443
 10
182.5732699643
 20
117.5055379264
 10
182.6297695796
 20
117.9948007903
 10
182.5372929733
 20
118.4792021505
 10
182.303331704
 20
118.9194997988
 10
181.9468409802
 20
119.280022218
 10
181.4967011149
 20
119.5315631322
 10
180.9893789749
 20
119.6537442721
 10
180.465975688
 20
119.63666661
 10
179.968894371
 20
119.4817140914
 10
179.5384044807
 20
119.2014400132
 10
179.2093831162
 20
118.8185500197
 10
179.0084847297
 20
118.3640646032
 10
178.9519860457
 20
117.8748017393
 10
179.0444626521
 20
117.3904003791
 10
179.27842299
 20
116.9501027308
 10
179.6349137138
 20
116.5895798459
 10
180.0850545104
 20
116.3380389317
 10
180.5923757191
 20
116.2158577919
 10
181.115779006
 20
116.2329354539
 10
181.6128603231
 20
116.3878879725
  0
LWPOLYLINE
  5
17D
330
1F
100
AcDbEntity
  8
0
  6
HIDDEN
 62
     7
370
     0
100
AcDbPolyline
 90
       24
 70
   128
 43
0.0
 10
181.684337468
 20
116.5900496982
 10
182.1339632432
 20
116.8789170898
 10
182.4839784812
 20
117.2710644297
 10
182.7084234963
 20
117.7374074451
 10
182.7906536918
 20
118.2433596096
 10
182.7245689045
 20
118.7513979367
 10
182.5150716166
 20
119.2238420464
 10
182.1776990827
 20
119.6256546519
 10
181.7374712835
 20
119.927033431
 10
181.2270394574
 20
120.1056266419
 10
180.6842600043
 20
120.1481899462
 10
180.1493874799
 20
120.0515661604
 10
179.6620915692
 20
119.8229208804
 10
179.2585122447
 20
119.479212559
 10
178.9685812827
 20
119.0459324263
 10
178.81380199
 20
118.5552139051
 10
178.8056529175
 20
118.043451219
 10
178.9447394247
 20
117.5486013509
 10
179.2207452516
 20
117.1073635324
 10
179.6132008593
 20
116.7524625763
 10
180.0929996233
 20
116.5102199867
 10
180.624555708
 20
116.3986019074
 10
181.1684480916
 20
116.4258863992
 10
181.684337468
 20
116.5900496982
  0
LWPOLYLINE
  5
17E
330
1F
100
AcDbEntity
  8
0
  6
HIDDEN
 62
     7
370
     0
100
AcDbPolyline
 90
       23
 70
   128
 43
0.0
 10
181.6128603231
 20
116.5802745364
 10
182.0433502133
 20
116.8605486147
 10
182.3723715778
 20
117.2434386081
 10
182.5732699643
 20
117.6979249559
 10
182.6297695796
 20
118.1871868886
 10
182.5372929733
 20
118.6715882487
 10
182.303331704
 20
119.111885897
 10
181.9468409802
 20
119.4724083162
 10
181.4967011149
 20
119.7239501617
 10
180.9893789749
 20
119.8461313016
 10
180.465975688
 20
119.8290536396
 10
179.968894371
 20
119.6741011209
 10
179.5384044807
 20
119.3938261114
 10
179.2093831162
 20
119.0109361179
 10
179.0084847297
 20
118.5564507015
 10
178.9519860457
 20
118.0671878375
 10
179.0444626521
 20
117.5827864773
 10
179.27842299
 20
117.1424892947
 10
179.6349137138
 20
116.7819664098
 10
180.0850545104
 20
116.5304250299
 10
180.5923757191
 20
116.4082438901
 10
181.115779006
 20
116.4253215521
 10
181.6128603231
 20
116.5802745364
  0
LWPOLYLINE
  5
17F
330
1F
100
AcDbEntity
  8
0
  6
HIDDEN
 62
     7
370
     0
100
AcDbPolyline
 90
       24
 70
   128
 43
0.0
 10
181.684337468
 20
116.782436262
 10
182.1339632432
 20
117.0713036537
 10
182.4839784812
 20
117.4634505279
 10
182.7084234963
 20
117.9297935433
 10
182.7906536918
 20
118.4357466392
 10
182.7245689045
 20
118.9437840349
 10
182.5150716166
 20
119.4162290759
 10
182.1776990827
 20
119.8180407501
 10
181.7374712835
 20
120.1194195292
 10
181.2270394574
 20
120.2980127401
 10
180.6842600043
 20
120.3405760444
 10
180.1493874799
 20
120.2439522586
 10
179.6620915692
 20
120.0153079099
 10
179.2585122447
 20
119.6715986572
 10
178.9685812827
 20
119.2383185245
 10
178.81380199
 20
118.7476000033
 10
178.8056529175
 20
118.2358382485
 10
178.9447394247
 20
117.7409874491
 10
179.2207452516
 20
117.2997496306
 10
179.6132008593
 20
116.9448486745
 10
180.0929996233
 20
116.7026065506
 10
180.624555708
 20
116.5909884713
 10
181.1684480916
 20
116.6182724975
 10
181.684337468
 20
116.782436262
  0
LWPOLYLINE
  5
180
330
1F
100
AcDbEntity
  8
0
  6
HIDDEN
 62
     7
370
     0
100
AcDbPolyline
 90
       23
 70
   128
 43
0.0
 10
181.6128603231
 20
116.7726606346
 10
182.0433502133
 20
117.0529351785
 10
182.3723715778
 20
117.4358247064
 10
182.5732699643
 20
117.8903110541
 10
182.6297695796
 20
118.3795729868
 10
182.5372929733
 20
118.8639743469
 10
182.303331704
 20
119.3042719952
 10
181.9468409802
 20
119.6647953458
 10
181.4967011149
 20
119.9163362599
 10
180.9893789749
 20
120.0385173998
 10
180.465975688
 20
120.0214397378
 10
179.968894371
 20
119.8664872191
 10
179.5384044807
 20
119.5862122096
 10
179.2093831162
 20
119.2033231474
 10
179.0084847297
 20
118.7488367997
 10
178.9519860457
 20
118.259574867
 10
179.0444626521
 20
117.7751725755
 10
179.27842299
 20
117.3348753929
 10
179.6349137138
 20
116.974352508
 10
180.0850545104
 20
116.7228115938
 10
180.5923757191
 20
116.6006304539
 10
181.115779006
 20
116.617708116
 10
181.6128603231
 20
116.7726606346
  0
LWPOLYLINE
  5
181
330
1F
100
AcDbEntity
  8
0
  6
HIDDEN
 62
     7
370
     0
100
AcDbPolyline
 90
       24
 70
   128
 43
0.0
 10
181.684337468
 20
116.9748223602
 10
182.1339632432
 20
117.2636897519
 10
182.4839784812
 20
117.6558366261
 10
182.7084234963
 20
118.1221796415
 10
182.7906536918
 20
118.6281327374
 10
182.7245689045
 20
119.1361710645
 10
182.5150716166
 20
119.6086151741
 10
182.1776990827
 20
120.0104268483
 10
181.7374712835
 20
120.3118056274
 10
181.2270394574
 20
120.4903997696
 10
180.6842600043
 20
120.5329630739
 10
180.1493874799
 20
120.4363392882
 10
179.6620915692
 20
120.2076940082
 10
179.2585122447
 20
119.8639856867
 10
178.9685812827
 20
119.4307046227
 10
178.81380199
 20
118.9399861015
 10
178.8056529175
 20
118.4282243467
 10
178.9447394247
 20
117.9333735473
 10
179.2207452516
 20
117.4921361945
 10
179.6132008593
 20
117.1372352384
 10
180.0929996233
 20
116.8949926488
 10
180.624555708
 20
116.7833745695
 10
181.1684480916
 20
116.8106590613
 10
181.684337468
 20
116.9748223602
  0
LWPOLYLINE
  5
182
330
1F
100
AcDbEntity
  8
0
  6
HIDDEN
 62
     7
370
     0
100
AcDbPolyline
 90
       23
 70
   128
 43
0.0
 10
181.6128603231
 20
116.9650471985
 10
182.0433502133
 20
117.2453212767
 10
182.3723715778
 20
117.6282108046
 10
182.5732699643
 20
118.0826971523
 10
182.6297695796
 20
118.571959085
 10
182.5372929733
 20
119.0563613764
 10
182.303331704
 20
119.4966580934
 10
181.9468409802
 20
119.857181444
 10
181.4967011149
 20
120.1087223581
 10
180.9893789749
 20
120.230903498
 10
180.465975688
 20
120.213825836
 10
179.968894371
 20
120.0588733173
 10
179.5384044807
 20
119.7785992391
 10
179.2093831162
 20
119.3957092456
 10
179.0084847297
 20
118.9412228979
 10
178.9519860457
 20
118.4519609652
 10
179.0444626521
 20
117.967559605
 10
179.27842299
 20
117.5272619567
 10
179.6349137138
 20
117.1667390719
 10
180.0850545104
 20
116.915197692
 10
180.5923757191
 20
116.7930165521
 10
181.115779006
 20
116.8100942142
 10
181.6128603231
 20
116.9650471985
  0
LWPOLYLINE
  5
183
330
1F
100
AcDbEntity
  8
0
  6
HIDDEN
 62
     7
370
     0
100
AcDbPolyline
 90
       24
 70
   128
 43
0.0
 10
181.684337468
 20
117.1116303868
 10
182.1339632432
 20
117.4004977785
 10
182.4839784812
 20
117.7926451183
 10
182.7084234963
 20
118.2589881338
 10
182.7906536918
 20
118.7649402983
 10
182.7245689045
 20
119.2729786254
 10
182.5150716166
 20
119.745422735
 10
182.1776990827
 20
120.1472353406
 10
181.7374712835
 20
120.4486141197
 10
181.2270394574
 20
120.6272073306
 10
180.6842600043
 20
120.6697706349
 10
180.1493874799
 20
120.5731468491
 10
179.6620915692
 20
120.3445015691
 10
179.2585122447
 20
120.0007932476
 10
178.9685812827
 20
119.5675131149
 10
178.81380199
 20
119.0767945937
 10
178.8056529175
 20
118.5650319077
 10
178.9447394247
 20
118.0701820395
 10
179.2207452516
 20
117.6289437554
 10
179.6132008593
 20
117.2740432649
 10
180.0929996233
 20
117.0318006753
 10
180.624555708
 20
116.9201825961
 10
181.1684480916
 20
116.9474670879
 10
181.684337468
 20
117.1116303868
  0
LWPOLYLINE
  5
184
330
1F
100
AcDbEntity
  8
0
  6
HIDDEN
 62
     7
370
     0
100
AcDbPolyline
 90
       23
 70
   128
 43
0.0
 10
181.6396647181
 20
117.2299041628
 10
182.0841915022
 20
117.5193177752
 10
182.4239417027
 20
117.9146930791
 10
182.6313910122
 20
118.383999563
 10
182.6897327836
 20
118.8892159827
 10
182.5942414861
 20
119.3894125737
 10
182.3526508223
 20
119.8440674908
 10
181.9845353301
 20
120.2163469262
 10
181.5197168897
 20
120.4760909296
 10
180.9958516668
 20
120.6022562675
 10
180.4553809624
 20
120.5846216745
 10
179.9420909073
 20
120.4246157996
 10
179.4975631918
 20
120.1352026529
 10
179.1578129913
 20
119.7398264177
 10
178.9503636818
 20
119.2705208651
 10
178.8920219104
 20
118.7653044454
 10
178.9875141393
 20
118.2651069231
 10
179.2291038717
 20
117.810452006
 10
179.5972193639
 20
117.4381725706
 10
180.0620378043
 20
117.1784290328
 10
180.5859030272
 20
117.0522641606
 10
181.1263737317
 20
117.0698987536
 10
181.6396647181
 20
117.2299041628
  0
ARC
  5
185
330
1F
100
AcDbEntity
  8
0
  6
HIDDEN
 62
     7
370
     0
100
AcDbCircle
 10
180.7710804267
 20
100.2099574641
 30
0.0
 40
1.980728112759865
100
AcDbArc
 50
338.287533044
 51
178.6805737435
  0
ARC
  5
186
330
1F
100
AcDbEntity
  8
0
  6
HIDDEN
 62
     7
370
     0
100
AcDbCircle
 10
180.7666126842
 20
100.1555166411
 30
0.0
 40
1.886336571468363
100
AcDbArc
 50
341.8651911313
 51
157.0965949308
  0
ARC
  5
187
330
1F
100
AcDbEntity
  8
0
  6
HIDDEN
 62
     7
370
     0
100
AcDbCircle
 10
180.8437350492
 20
100.1903084556
 30
0.0
 40
1.441724670485591
100
AcDbArc
 50
353.0701257241
 51
92.2748638353
  0
LWPOLYLINE
  5
188
330
1F
100
AcDbEntity
  8
0
  6
HIDDEN
 62
     7
370
     0
100
AcDbPolyline
 90
       24
 70
   128
 43
0.0
 10
179.2490704964
 20
99.1952955938
 10
178.9625500377
 20
99.6305752761
 10
178.8116273518
 20
100.1223527111
 10
178.8074978675
 20
100.6341573067
 10
178.9504651959
 20
101.1280302174
 10
179.2299280922
 20
101.5673425264
 10
179.6251599725
 20
101.9195128448
 10
180.1068474586
 20
102.1584222309
 10
180.6392659481
 20
102.2663518071
 10
181.1829292263
 20
102.2352973215
 10
181.6975156824
 20
102.0675614692
 10
182.1448606487
 20
101.7755843915
 10
182.4917866896
 20
101.3810212008
 10
182.7125650878
 20
100.9131349839
 10
182.7908203985
 20
100.4066258884
 10
182.7207486193
 20
99.8990597419
 10
182.5075474616
 20
99.4280806027
 10
182.1670289199
 20
99.0286186553
 10
181.7244467373
 20
98.7303002022
 10
181.2126272406
 20
98.5552506737
 10
180.6695274125
 20
98.5164517752
 10
180.1354278858
 20
98.6167812936
 10
179.6499406035
 20
98.8487988926
 10
179.2490704964
 20
99.1952955938
  0
LWPOLYLINE
  5
189
330
1F
100
AcDbEntity
  8
0
  6
HIDDEN
 62
     7
370
     0
100
AcDbPolyline
 90
       21
 70
   128
 43
0.0
 10
179.6345225583
 20
100.3270341299
 10
179.3958748739
 20
100.7067594893
 10
179.2937804993
 20
101.1371981568
 10
179.3382315944
 20
101.5762161679
 10
179.5248779516
 20
101.9808399707
 10
179.8354498159
 20
102.3114608816
 10
180.239545093
 20
102.5357163727
 10
180.6976086508
 20
102.6316542394
 10
181.1648019637
 20
102.5898834906
 10
181.5953933682
 20
102.4144930981
 10
181.9472321357
 20
102.1226515278
 10
182.1858798202
 20
101.7429261684
 10
182.2879751261
 20
101.3124870352
 10
182.2435240309
 20
100.8734690241
 10
182.0568767424
 20
100.468845687
 10
181.7463058095
 20
100.1382243104
 10
181.3422105323
 20
99.913969285
 10
180.8841469745
 20
99.8180309526
 10
180.4169536616
 20
99.8598017014
 10
179.9863622572
 20
100.0351920939
 10
179.6345225583
 20
100.3270341299
  0
LWPOLYLINE
  5
18A
330
1F
100
AcDbEntity
  8
0
  6
HIDDEN
 62
     7
370
     0
100
AcDbPolyline
 90
       24
 70
   128
 43
0.0
 10
179.2490704964
 20
99.3876826234
 10
178.9625500377
 20
99.8229613743
 10
178.8116273518
 20
100.3147397406
 10
178.8074978675
 20
100.8265443362
 10
178.9504651959
 20
101.3204163156
 10
179.2299280922
 20
101.7597286246
 10
179.6251599725
 20
102.111898943
 10
180.1068474586
 20
102.3508083291
 10
180.6392659481
 20
102.4587379053
 10
181.1829292263
 20
102.4276834197
 10
181.6975156824
 20
102.2599475674
 10
182.1448606487
 20
101.9679709553
 10
182.4917866896
 20
101.5734082303
 10
182.7125650878
 20
101.1055210821
 10
182.7908203985
 20
100.5990119867
 10
182.7207486193
 20
100.0914458401
 10
182.5075474616
 20
99.6204667009
 10
182.1670289199
 20
99.2210056848
 10
181.7244467373
 20
98.9226872317
 10
181.2126272406
 20
98.7476367719
 10
180.6695274125
 20
98.7088378734
 10
180.1354278858
 20
98.8091673918
 10
179.6499406035
 20
99.0411849908
 10
179.2490704964
 20
99.3876826234
  0
LWPOLYLINE
  5
18B
330
1F
100
AcDbEntity
  8
0
  6
HIDDEN
 62
     7
370
     0
100
AcDbPolyline
 90
       23
 70
   128
 43
0.0
 10
179.3724157895
 20
99.435351438
 10
179.0996844928
 20
99.8554896779
 10
178.9639647167
 20
100.3308115743
 10
178.9762497927
 20
100.822810664
 10
179.1355459999
 20
101.2916272722
 10
179.4289470698
 20
101.6992820642
 10
179.8326828565
 20
102.012748479
 10
180.3140462424
 20
102.206630747
 10
180.8340399574
 20
102.2652225784
 10
181.3505374874
 20
102.1837770223
 10
181.8216935779
 20
101.9688915677
 10
182.2093398358
 20
101.6379758931
 10
182.4820702012
 20
101.2178385846
 10
182.6177909087
 20
100.7425166882
 10
182.6055049013
 20
100.2505175985
 10
182.4462096255
 20
99.781700059
 10
182.1528085555
 20
99.3740461982
 10
181.7490718375
 20
99.0605797834
 10
181.2677084516
 20
98.8666970498
 10
180.7477147366
 20
98.808105684
 10
180.2312181379
 20
98.8895507745
 10
179.7600611161
 20
99.1044357635
 10
179.3724157895
 20
99.435351438
  0
LWPOLYLINE
  5
18C
330
1F
100
AcDbEntity
  8
0
  6
HIDDEN
 62
     7
370
     0
100
AcDbPolyline
 90
       24
 70
   128
 43
0.0
 10
179.2490704964
 20
99.5800687216
 10
178.9625500377
 20
100.0153474725
 10
178.8116273518
 20
100.5071258388
 10
178.8074978675
 20
101.0189304344
 10
178.9504651959
 20
101.5128024138
 10
179.2299280922
 20
101.9521151885
 10
179.6251599725
 20
102.3042855069
 10
180.1068474586
 20
102.543194893
 10
180.6392659481
 20
102.6511244691
 10
181.1829292263
 20
102.6200699836
 10
181.6975156824
 20
102.4523341313
 10
182.1448606487
 20
102.1603570535
 10
182.4917866896
 20
101.7657943286
 10
182.7125650878
 20
101.2979071803
 10
182.7908203985
 20
100.7913980849
 10
182.7207486193
 20
100.2838328696
 10
182.5075474616
 20
99.8128537304
 10
182.1670289199
 20
99.413391783
 10
181.7244467373
 20
99.1150733299
 10
181.2126272406
 20
98.9400228701
 10
180.6695274125
 20
98.9012239716
 10
180.1354278858
 20
99.0015544213
 10
179.6499406035
 20
99.233571089
 10
179.2490704964
 20
99.5800687216
  0
LWPOLYLINE
  5
18D
330
1F
100
AcDbEntity
  8
0
  6
HIDDEN
 62
     7
370
     0
100
AcDbPolyline
 90
       23
 70
   128
 43
0.0
 10
179.3724157895
 20
99.6277384676
 10
179.0996844928
 20
100.0478757761
 10
178.9639647167
 20
100.5231976725
 10
178.9762497927
 20
101.0151967622
 10
179.1355459999
 20
101.4840143017
 10
179.4289470698
 20
101.8916686281
 10
179.8326828565
 20
102.2051345773
 10
180.3140462424
 20
102.3990173108
 10
180.8340399574
 20
102.4576091423
 10
181.3505374874
 20
102.3761631205
 10
181.8216935779
 20
102.1612781316
 10
182.2093398358
 20
101.830362457
 10
182.4820702012
 20
101.4102246828
 10
182.6177909087
 20
100.9349027864
 10
182.6055049013
 20
100.4429036967
 10
182.4462096255
 20
99.9740870885
 10
182.1528085555
 20
99.5664322964
 10
181.7490718375
 20
99.2529658816
 10
181.2677084516
 20
99.059083148
 10
180.7477147366
 20
99.0004917822
 10
180.2312181379
 20
99.081937804
 10
179.7600611161
 20
99.296822793
 10
179.3724157895
 20
99.6277384676
  0
LWPOLYLINE
  5
18E
330
1F
100
AcDbEntity
  8
0
  6
HIDDEN
 62
     7
370
     0
100
AcDbPolyline
 90
       24
 70
   128
 43
0.0
 10
179.2490704964
 20
99.7724548198
 10
178.9625500377
 20
100.2077335707
 10
178.8116273518
 20
100.699511937
 10
178.8074978675
 20
101.2113165326
 10
178.9504651959
 20
101.7051894433
 10
179.2299280922
 20
102.1445012867
 10
179.6251599725
 20
102.4966716051
 10
180.1068474586
 20
102.7355809912
 10
180.6392659481
 20
102.8435105673
 10
181.1829292263
 20
102.8124560818
 10
181.6975156824
 20
102.6447202295
 10
182.1448606487
 20
102.3527436174
 10
182.4917866896
 20
101.9581804268
 10
182.7125650878
 20
101.4902942098
 10
182.7908203985
 20
100.9837851144
 10
182.7207486193
 20
100.4762189678
 10
182.5075474616
 20
100.0052398286
 10
182.1670289199
 20
99.6057778812
 10
181.7244467373
 20
99.3074594281
 10
181.2126272406
 20
99.1324098996
 10
180.6695274125
 20
99.0936110012
 10
180.1354278858
 20
99.1939405195
 10
179.6499406035
 20
99.4259571872
 10
179.2490704964
 20
99.7724548198
  0
LWPOLYLINE
  5
18F
330
1F
100
AcDbEntity
  8
0
  6
HIDDEN
 62
     7
370
     0
100
AcDbPolyline
 90
       23
 70
   128
 43
0.0
 10
179.3724157895
 20
99.8201245658
 10
179.0996844928
 20
100.2402618743
 10
178.9639647167
 20
100.7155837707
 10
178.9762497927
 20
101.2075828604
 10
179.1355459999
 20
101.6764003999
 10
179.4289470698
 20
102.0840547263
 10
179.8326828565
 20
102.3975211411
 10
180.3140462424
 20
102.591403409
 10
180.8340399574
 20
102.6499952405
 10
181.3505374874
 20
102.5685496844
 10
181.8216935779
 20
102.3536642298
 10
182.2093398358
 20
102.0227490209
 10
182.4820702012
 20
101.6026117123
 10
182.6177909087
 20
101.1272888846
 10
182.6055049013
 20
100.6352897949
 10
182.4462096255
 20
100.1664731867
 10
182.1528085555
 20
99.7588183946
 10
181.7490718375
 20
99.4453519798
 10
181.2677084516
 20
99.2514701776
 10
180.7477147366
 20
99.1928778804
 10
180.2312181379
 20
99.2743239022
 10
179.7600611161
 20
99.4892088912
 10
179.3724157895
 20
99.8201245658
  0
LWPOLYLINE
  5
190
330
1F
100
AcDbEntity
  8
0
  6
HIDDEN
 62
     7
370
     0
100
AcDbPolyline
 90
       24
 70
   128
 43
0.0
 10
179.2490704964
 20
99.964840918
 10
178.9625500377
 20
100.4001206003
 10
178.8116273518
 20
100.8918980352
 10
178.8074978675
 20
101.4037026308
 10
178.9504651959
 20
101.8975755415
 10
179.2299280922
 20
102.3368878506
 10
179.6251599725
 20
102.6890581689
 10
180.1068474586
 20
102.927967555
 10
180.6392659481
 20
103.0358971312
 10
181.1829292263
 20
103.0048426456
 10
181.6975156824
 20
102.8371067933
 10
182.1448606487
 20
102.5451297156
 10
182.4917866896
 20
102.1505669906
 10
182.7125650878
 20
101.682680308
 10
182.7908203985
 20
101.1761712126
 10
182.7207486193
 20
100.668605066
 10
182.5075474616
 20
100.1976259268
 10
182.1670289199
 20
99.7981639795
 10
181.7244467373
 20
99.4998455263
 10
181.2126272406
 20
99.3247959978
 10
180.6695274125
 20
99.2859970994
 10
180.1354278858
 20
99.3863266177
 10
179.6499406035
 20
99.6183442167
 10
179.2490704964
 20
99.964840918
  0
LWPOLYLINE
  5
191
330
1F
100
AcDbEntity
  8
0
  6
HIDDEN
 62
     7
370
     0
100
AcDbPolyline
 90
       23
 70
   128
 43
0.0
 10
179.3724157895
 20
100.012510664
 10
179.0996844928
 20
100.4326479725
 10
178.9639647167
 20
100.9079708002
 10
178.9762497927
 20
101.3999698899
 10
179.1355459999
 20
101.8687864981
 10
179.4289470698
 20
102.2764412902
 10
179.8326828565
 20
102.5899072393
 10
180.3140462424
 20
102.7837899729
 10
180.8340399574
 20
102.8423818044
 10
181.3505374874
 20
102.7609357826
 10
181.8216935779
 20
102.5460507936
 10
182.2093398358
 20
102.2151351191
 10
182.4820702012
 20
101.7949978105
 10
182.6177909087
 20
101.3196759141
 10
182.6055049013
 20
100.8276768244
 10
182.4462096255
 20
100.3588592849
 10
182.1528085555
 20
99.9512044928
 10
181.7490718375
 20
99.6377390094
 10
181.2677084516
 20
99.4438562758
 10
180.7477147366
 20
99.3852639786
 10
180.2312181379
 20
99.4667100004
 10
179.7600611161
 20
99.6815949894
 10
179.3724157895
 20
100.012510664
  0
LWPOLYLINE
  5
192
330
1F
100
AcDbEntity
  8
0
  6
HIDDEN
 62
     7
370
     0
100
AcDbPolyline
 90
       24
 70
   128
 43
0.0
 10
179.2490704964
 20
100.2897607378
 10
178.9625500377
 20
100.7250394888
 10
178.8116273518
 20
101.216817855
 10
178.8074978675
 20
101.728621985
 10
178.9504651959
 20
102.22249443
 10
179.2299280922
 20
102.6618067391
 10
179.6251599725
 20
103.0139770574
 10
180.1068474586
 20
103.2528864435
 10
180.6392659481
 20
103.3608160197
 10
181.1829292263
 20
103.3297615341
 10
181.6975156824
 20
103.1620256818
 10
182.1448606487
 20
102.8700490698
 10
182.4917866896
 20
102.4754858791
 10
182.7125650878
 20
102.0075991965
 10
182.7908203985
 20
101.5010901011
 10
182.7207486193
 20
100.9935239546
 10
182.5075474616
 20
100.5225448153
 10
182.1670289199
 20
100.1230837993
 10
181.7244467373
 20
99.8247653461
 10
181.2126272406
 20
99.6497148863
 10
180.6695274125
 20
99.6109159879
 10
180.1354278858
 20
99.7112455062
 10
179.6499406035
 20
99.9432631053
 10
179.2490704964
 20
100.2897607378
  0
LWPOLYLINE
  5
193
330
1F
100
AcDbEntity
  8
0
  6
HIDDEN
 62
     7
370
     0
100
AcDbPolyline
 90
       21
 70
   128
 43
0.0
 10
179.6496435116
 20
100.7033759944
 10
179.4141176205
 20
101.0781364731
 10
179.3133568998
 20
101.502946227
 10
179.357227781
 20
101.9362235657
 10
179.5414331417
 20
102.3355560593
 10
179.8479435082
 20
102.6618533052
 10
180.2467544611
 20
102.8831760615
 10
180.698827752
 20
102.9778594367
 10
181.1599125202
 20
102.9366353742
 10
181.584872217
 20
102.7635383635
 10
181.9321111824
 20
102.4755128875
 10
182.1676380049
 20
102.1007533401
 10
182.2683977942
 20
101.6759431205
 10
182.2245278444
 20
101.2426657818
 10
182.0403215523
 20
100.8433332882
 10
181.7338121171
 20
100.5170360423
 10
181.3350002329
 20
100.2957128204
 10
180.882926942
 20
100.2010299108
 10
180.4218431051
 20
100.2422539733
 10
179.996882477
 20
100.4153514496
 10
179.6496435116
 20
100.7033759944
  0
LINE
  5
194
330
1F
100
AcDbEntity
  8
0
  6
HIDDEN
 62
     7
370
     0
100
AcDbLine
 10
173.0456328067
 20
98.7252980686
 30
0.0
 11
175.523430952
 21
99.3186939723
 31
0.0
  0
LINE
  5
195
330
1F
100
AcDbEntity
  8
0
  6
HIDDEN
 62
     7
370
     0
100
AcDbLine
 10
174.5918331716
 20
103.20869705
 30
0.0
 11
172.1140350263
 21
102.6153011463
 31
0.0
  0
LINE
  5
196
330
1F
100
AcDbEntity
  8
0
  6
HIDDEN
 62
     7
370
     0
100
AcDbLine
 10
176.0863949593
 20
99.929669521
 30
0.0
 11
176.314973184
 21
100.5770597822
 31
0.0
  0
LINE
  5
197
330
1F
100
AcDbEntity
  8
0
  6
HIDDEN
 62
     7
370
     0
100
AcDbLine
 10
175.8675322916
 20
102.44540416
 30
0.0
 11
175.3704900901
 21
102.9190194077
 31
0.0
  0
LINE
  5
198
330
1F
100
AcDbEntity
  8
0
  6
HIDDEN
 62
     7
370
     0
100
AcDbLine
 10
175.3704900901
 20
116.1296047486
 30
0.0
 11
175.8675322916
 21
116.6032199963
 31
0.0
  0
LINE
  5
199
330
1F
100
AcDbEntity
  8
0
  6
HIDDEN
 62
     7
370
     0
100
AcDbLine
 10
176.314973184
 20
118.4715643741
 30
0.0
 11
176.0863949593
 21
119.1189546354
 31
0.0
  0
LINE
  5
19A
330
1F
100
AcDbEntity
  8
0
  6
HIDDEN
 62
     7
370
     0
100
AcDbLine
 10
172.1140350263
 20
116.43332301
 30
0.0
 11
174.5918331716
 21
115.8399271063
 31
0.0
  0
LINE
  5
19B
330
1F
100
AcDbEntity
  8
0
  6
HIDDEN
 62
     7
370
     0
100
AcDbLine
 10
175.523430952
 20
119.729930184
 30
0.0
 11
173.0456328067
 21
120.3233260877
 31
0.0
  0
LINE
  5
19C
330
1F
100
AcDbEntity
  8
0
  6
HIDDEN
 62
     7
370
     0
100
AcDbLine
 10
182.7908772092
 20
98.6654689751
 30
0.0
 11
182.7908772092
 21
101.4868390031
 31
0.0
  0
LINE
  5
19D
330
1F
100
AcDbEntity
  8
0
  6
HIDDEN
 62
     7
370
     0
100
AcDbLine
 10
178.7908774848
 20
101.4698842756
 30
0.0
 11
178.7908774848
 21
99.9484282203
 31
0.0
  0
LINE
  5
19E
330
1F
100
AcDbEntity
  8
0
  6
HIDDEN
 62
     7
370
     0
100
AcDbLine
 10
170.9908774636
 20
98.1303869031
 30
0.0
 11
172.8844767484
 21
98.5838758043
 31
0.0
  0
LINE
  5
19F
330
1F
100
AcDbEntity
  8
0
  6
HIDDEN
 62
     7
370
     0
100
AcDbLine
 10
171.9062993351
 20
102.6683790825
 30
0.0
 11
170.9908774636
 21
102.4491494737
 31
0.0
  0
LINE
  5
1A0
330
1F
100
AcDbEntity
  8
0
  6
HIDDEN
 62
     7
370
     0
100
AcDbLine
 10
172.9138380896
 20
99.053632117
 30
0.0
 11
180.1208983223
 21
100.7796149916
 31
0.0
  0
LINE
  5
1A1
330
1F
100
AcDbEntity
  8
0
  6
HIDDEN
 62
     7
370
     0
100
AcDbLine
 10
180.1208983223
 20
104.1729288391
 30
0.0
 11
172.1452701885
 21
102.2628844931
 31
0.0
  0
LINE
  5
1A2
330
1F
100
AcDbEntity
  8
0
  6
HIDDEN
 62
     7
370
     0
100
AcDbLine
 10
182.4408778037
 20
101.5304081358
 30
0.0
 11
182.4408778037
 21
108.0732216343
 31
0.0
  0
LINE
  5
1A3
330
1F
100
AcDbEntity
  8
0
  6
HIDDEN
 62
     7
370
     0
100
AcDbLine
 10
179.1408778216
 20
101.5526481188
 30
0.0
 11
179.1408778216
 21
101.5304081358
 31
0.0
  0
LINE
  5
1A4
330
1F
100
AcDbEntity
  8
0
  6
HIDDEN
 62
     7
370
     0
100
AcDbLine
 10
179.1408778216
 20
108.0729295482
 30
0.0
 11
179.1408778216
 21
102.9304951645
 31
0.0
  0
LINE
  5
1A5
330
1F
100
AcDbEntity
  8
0
  6
HIDDEN
 62
     7
370
     0
100
AcDbLine
 10
211.8908789988
 20
119.7743123613
 30
0.0
 11
211.5528051789
 21
119.0493121959
 31
0.0
  0
LINE
  5
1A6
330
1F
100
AcDbEntity
  8
0
  6
HIDDEN
 62
     7
370
     0
100
AcDbLine
 10
211.5528051789
 20
99.9993119604
 30
0.0
 11
211.8908789988
 21
99.274311795
 31
0.0
  0
ARC
  5
1A7
330
1F
100
AcDbEntity
  8
0
  6
HIDDEN
 62
     7
370
     0
100
AcDbCircle
 10
100.3408775444
 20
100.2243120782
 30
0.0
 40
0.7999999999999972
100
AcDbArc
 50
90.0
 51
180.0
  0
ARC
  5
1A8
330
1F
100
AcDbEntity
  8
0
  6
HIDDEN
 62
     7
370
     0
100
AcDbCircle
 10
100.3408775444
 20
118.8243120782
 30
0.0
 40
0.7999999999999972
100
AcDbArc
 50
180.0
 51
270.0
  0
ARC
  5
1A9
330
1F
100
AcDbEntity
  8
0
  6
HIDDEN
 62
     7
370
     0
100
AcDbCircle
 10
108.3099374368
 20
101.1993120782
 30
0.0
 40
0.4000000000000199
100
AcDbArc
 50
270.0
 51
330.0
  0
ARC
  5
1AA
330
1F
100
AcDbEntity
  8
0
  6
HIDDEN
 62
     7
370
     0
100
AcDbCircle
 10
108.3099374368
 20
117.8493120782
 30
0.0
 40
0.4000000000000244
100
AcDbArc
 50
30.0
 51
90.0
  0
LINE
  5
1AB
330
1F
100
AcDbEntity
  8
0
  6
HIDDEN
 62
     7
370
     0
100
AcDbLine
 10
107.4332510169
 20
100.7993124641
 30
0.0
 11
108.309938484
 21
100.7993124641
 31
0.0
  0
LINE
  5
1AC
330
1F
100
AcDbEntity
  8
0
  6
HIDDEN
 62
     7
370
     0
100
AcDbLine
 10
108.309938484
 20
118.2493116922
 30
0.0
 11
107.4332510169
 21
118.2493116922
 31
0.0
  0
ARC
  5
1AD
330
1F
100
AcDbEntity
  8
0
  6
HIDDEN
 62
     7
370
     0
100
AcDbCircle
 10
107.4332499752
 20
101.1993120782
 30
0.0
 40
0.4000000000000057
100
AcDbArc
 50
255.0
 51
270.0
  0
ARC
  5
1AE
330
1F
100
AcDbEntity
  8
0
  6
HIDDEN
 62
     7
370
     0
100
AcDbCircle
 10
107.4332499752
 20
117.8493120782
 30
0.0
 40
0.4000000000000057
100
AcDbArc
 50
90.0
 51
105.0
  0
LINE
  5
1AF
330
1F
100
AcDbEntity
  8
0
  6
HIDDEN
 62
     7
370
     0
100
AcDbLine
 10
107.3297214742
 20
118.2356827177
 30
0.0
 11
106.5408763524
 21
118.0243125401
 31
0.0
  0
LINE
  5
1B0
330
1F
100
AcDbEntity
  8
0
  6
HIDDEN
 62
     7
370
     0
100
AcDbLine
 10
106.5408763524
 20
101.0243116162
 30
0.0
 11
107.3297214742
 21
100.8129414387
 31
0.0
  0
LINE
  5
1B1
330
1F
100
AcDbEntity
  8
0
  6
HIDDEN
 62
     7
370
     0
100
AcDbLine
 10
108.6563457783
 20
100.9993121244
 30
0.0
 11
109.5368069644
 21
102.5243118621
 31
0.0
  0
LINE
  5
1B2
330
1F
100
AcDbEntity
  8
0
  6
HIDDEN
 62
     7
370
     0
100
AcDbLine
 10
109.5368069644
 20
116.5243122942
 30
0.0
 11
108.6563457783
 21
118.049312032
 31
0.0
  0
LINE
  5
1B3
330
1F
100
AcDbEntity
  8
0
  6
HIDDEN
 62
     7
370
     0
100
AcDbLine
 10
100.3408757086
 20
101.0243116162
 30
0.0
 11
106.5408763524
 21
101.0243116162
 31
0.0
  0
LINE
  5
1B4
330
1F
100
AcDbEntity
  8
0
  6
HIDDEN
 62
     7
370
     0
100
AcDbLine
 10
106.5408763524
 20
118.0243125401
 30
0.0
 11
100.3408757086
 21
118.0243125401
 31
0.0
  0
LINE
  5
1B5
330
1F
100
AcDbEntity
  8
0
  6
HIDDEN
 62
     7
370
     0
100
AcDbLine
 10
211.593716317
 20
117.7243121184
 30
0.0
 11
209.0408791836
 21
117.7243121184
 31
0.0
  0
LINE
  5
1B6
330
1F
100
AcDbEntity
  8
0
  6
HIDDEN
 62
     7
370
     0
100
AcDbLine
 10
209.0408791836
 20
101.3243120379
 30
0.0
 11
211.5941819783
 21
101.3243120379
 31
0.0
  0
LINE
  5
1B7
330
1F
100
AcDbEntity
  8
0
  6
HIDDEN
 62
     7
370
     0
100
AcDbLine
 10
209.0408791836
 20
116.8707223825
 30
0.0
 11
208.4408764775
 21
116.5243122942
 31
0.0
  0
LINE
  5
1B8
330
1F
100
AcDbEntity
  8
0
  6
HIDDEN
 62
     7
370
     0
100
AcDbLine
 10
208.4408764775
 20
102.5243118621
 30
0.0
 11
209.0408791836
 21
102.1779017739
 31
0.0
  0
ARC
  5
1B9
330
1F
100
AcDbEntity
  8
0
  6
HIDDEN
 62
     7
370
     0
100
AcDbCircle
 10
197.4908775444
 20
102.9243120782
 30
0.0
 40
0.6000000000000227
100
AcDbArc
 50
180.0
 51
270.0
  0
ARC
  5
1BA
330
1F
100
AcDbEntity
  8
0
  6
HIDDEN
 62
     7
370
     0
100
AcDbCircle
 10
197.4908775444
 20
116.1243120782
 30
0.0
 40
0.6000000000000227
100
AcDbArc
 50
90.0
 51
180.0
  0
LINE
  5
1BB
330
1F
100
AcDbEntity
  8
0
  6
HIDDEN
 62
     7
370
     0
100
AcDbLine
 10
197.4908773835
 20
102.3243122018
 30
0.0
 11
198.0654754724
 21
102.3243122018
 31
0.0
  0
LINE
  5
1BC
330
1F
100
AcDbEntity
  8
0
  6
HIDDEN
 62
     7
370
     0
100
AcDbLine
 10
198.0654754724
 20
116.7243119545
 30
0.0
 11
197.4908773835
 21
116.7243119545
 31
0.0
  0
ARC
  5
1BD
330
1F
100
AcDbEntity
  8
0
  6
HIDDEN
 62
     7
370
     0
100
AcDbCircle
 10
198.0654758844
 20
102.9243120782
 30
0.0
 40
0.6000000000000145
100
AcDbArc
 50
270.0
 51
285.0
  0
ARC
  5
1BE
330
1F
100
AcDbEntity
  8
0
  6
HIDDEN
 62
     7
370
     0
100
AcDbCircle
 10
198.0654758844
 20
116.1243120782
 30
0.0
 40
0.6000000000000008
100
AcDbArc
 50
75.0
 51
90.0
  0
LINE
  5
1BF
330
1F
100
AcDbEntity
  8
0
  6
HIDDEN
 62
     7
370
     0
100
AcDbLine
 10
198.2207679238
 20
102.344756595
 30
0.0
 11
198.8908768679
 21
102.5243118621
 31
0.0
  0
LINE
  5
1C0
330
1F
100
AcDbEntity
  8
0
  6
HIDDEN
 62
     7
370
     0
100
AcDbLine
 10
198.8908768679
 20
116.5243122942
 30
0.0
 11
198.2207679238
 21
116.7038675613
 31
0.0
  0
LINE
  5
1C1
330
1F
100
AcDbEntity
  8
0
  6
HIDDEN
 62
     7
370
     0
100
AcDbLine
 10
109.5368069644
 20
102.5243118621
 30
0.0
 11
142.5408766653
 21
102.5243118621
 31
0.0
  0
LINE
  5
1C2
330
1F
100
AcDbEntity
  8
0
  6
HIDDEN
 62
     7
370
     0
100
AcDbLine
 10
142.5408766653
 20
116.5243122942
 30
0.0
 11
109.5368069644
 21
116.5243122942
 31
0.0
  0
LINE
  5
1C3
330
1F
100
AcDbEntity
  8
0
  6
HIDDEN
 62
     7
370
     0
100
AcDbLine
 10
142.5408766653
 20
102.5243118621
 30
0.0
 11
144.1932440783
 21
105.2743118472
 31
0.0
  0
LINE
  5
1C4
330
1F
100
AcDbEntity
  8
0
  6
HIDDEN
 62
     7
370
     0
100
AcDbLine
 10
144.1932440783
 20
113.7743123091
 30
0.0
 11
142.5408766653
 21
116.5243122942
 31
0.0
  0
LINE
  5
1C5
330
1F
100
AcDbEntity
  8
0
  6
HIDDEN
 62
     7
370
     0
100
AcDbLine
 10
198.8908768679
 20
102.5243118621
 30
0.0
 11
208.4408764775
 21
102.5243118621
 31
0.0
  0
LINE
  5
1C6
330
1F
100
AcDbEntity
  8
0
  6
HIDDEN
 62
     7
370
     0
100
AcDbLine
 10
208.4408764775
 20
116.5243122942
 30
0.0
 11
198.8908768679
 21
116.5243122942
 31
0.0
  0
LINE
  5
1C7
330
1F
100
AcDbEntity
  8
0
  6
HIDDEN
 62
     7
370
     0
100
AcDbLine
 10
211.5528051789
 20
119.0493121959
 30
0.0
 11
209.0408791836
 21
119.0493121959
 31
0.0
  0
LINE
  5
1C8
330
1F
100
AcDbEntity
  8
0
  6
HIDDEN
 62
     7
370
     0
100
AcDbLine
 10
209.0408791836
 20
99.9993119604
 30
0.0
 11
211.5528051789
 21
99.9993119604
 31
0.0
  0
LINE
  5
1C9
330
1F
100
AcDbEntity
  8
0
  6
HIDDEN
 62
     7
370
     0
100
AcDbLine
 10
144.1932440783
 20
105.2743118472
 30
0.0
 11
186.8408777799
 21
105.2743118472
 31
0.0
  0
LINE
  5
1CA
330
1F
100
AcDbEntity
  8
0
  6
HIDDEN
 62
     7
370
     0
100
AcDbLine
 10
186.8408777799
 20
113.7743123091
 30
0.0
 11
144.1932440783
 21
113.7743123091
 31
0.0
  0
LINE
  5
1CB
330
1F
100
AcDbEntity
  8
0
  6
HIDDEN
 62
     7
370
     0
100
AcDbLine
 10
186.8908767636
 20
105.2743118472
 30
0.0
 11
196.8908784028
 21
105.2743118472
 31
0.0
  0
LINE
  5
1CC
330
1F
100
AcDbEntity
  8
0
  6
HIDDEN
 62
     7
370
     0
100
AcDbLine
 10
196.8908784028
 20
113.7743123091
 30
0.0
 11
186.8908767636
 21
113.7743123091
 31
0.0
  0
LINE
  5
1CD
330
1F
100
AcDbEntity
  8
0
  6
HIDDEN
 62
     7
370
     0
100
AcDbLine
 10
186.8908767636
 20
113.7743123091
 30
0.0
 11
186.8408777799
 21
113.6910981714
 31
0.0
  0
LINE
  5
1CE
330
1F
100
AcDbEntity
  8
0
  6
HIDDEN
 62
     7
370
     0
100
AcDbLine
 10
186.8408777799
 20
105.3575259849
 30
0.0
 11
186.8908767636
 21
105.2743118472
 31
0.0
  0
LINE
  5
1CF
330
1F
100
AcDbEntity
  8
0
  6
HIDDEN
 62
     7
370
     0
100
AcDbLine
 10
182.4408778037
 20
110.9756946081
 30
0.0
 11
182.4408778037
 21
117.5182160206
 31
0.0
  0
LINE
  5
1D0
330
1F
100
AcDbEntity
  8
0
  6
HIDDEN
 62
     7
370
     0
100
AcDbLine
 10
179.1408778216
 20
116.1181289918
 30
0.0
 11
179.1408778216
 21
110.975402522
 31
0.0
  0
LINE
  5
1D1
330
1F
100
AcDbEntity
  8
0
  6
HIDDEN
 62
     7
370
     0
100
AcDbLine
 10
179.1408778216
 20
117.5182160206
 30
0.0
 11
179.1408778216
 21
117.4959760375
 31
0.0
  0
LINE
  5
1D2
330
1F
100
AcDbEntity
  8
0
  6
HIDDEN
 62
     7
370
     0
100
AcDbLine
 10
211.5941819783
 20
117.7243121184
 30
0.0
 11
211.593716317
 21
117.7243121184
 31
0.0
  0
LINE
  5
1D3
330
1F
100
AcDbEntity
  8
0
  6
HIDDEN
 62
     7
370
     0
100
AcDbLine
 10
172.1452701885
 20
116.7857396632
 30
0.0
 11
180.1208983223
 21
114.8756953172
 31
0.0
  0
LINE
  5
1D4
330
1F
100
AcDbEntity
  8
0
  6
HIDDEN
 62
     7
370
     0
100
AcDbLine
 10
180.1208983223
 20
118.2690091647
 30
0.0
 11
172.9138380896
 21
119.9949920393
 31
0.0
  0
LINE
  5
1D5
330
1F
100
AcDbEntity
  8
0
  6
HIDDEN
 62
     7
370
     0
100
AcDbLine
 10
182.7908772092
 20
117.5617851533
 30
0.0
 11
182.7908772092
 21
120.3831551812
 31
0.0
  0
LINE
  5
1D6
330
1F
100
AcDbEntity
  8
0
  6
HIDDEN
 62
     7
370
     0
100
AcDbLine
 10
178.7908774848
 20
119.1001959361
 30
0.0
 11
178.7908774848
 21
117.5787398807
 31
0.0
  0
LINE
  5
1D7
330
1F
100
AcDbEntity
  8
0
  6
HIDDEN
 62
     7
370
     0
100
AcDbLine
 10
170.9908774636
 20
116.5994746826
 30
0.0
 11
171.9062993351
 21
116.3802450738
 31
0.0
  0
LINE
  5
1D8
330
1F
100
AcDbEntity
  8
0
  6
HIDDEN
 62
     7
370
     0
100
AcDbLine
 10
172.8844767484
 20
120.464748352
 30
0.0
 11
170.9908774636
 21
120.9182372532
 31
0.0
  0
LINE
  5
1D9
330
1F
100
AcDbEntity
  8
0
  6
HIDDEN
 62
     7
370
     0
100
AcDbLine
 10
182.7908772092
 20
117.5617851533
 30
0.0
 11
182.7908772092
 21
117.8867049731
 31
0.0
  0
LINE
  5
1DA
330
1F
100
AcDbEntity
  8
0
  6
HIDDEN
 62
     7
370
     0
100
AcDbLine
 10
178.7908774848
 20
117.8867049731
 30
0.0
 11
178.7908774848
 21
117.5617851533
 31
0.0
  0
LINE
  5
1DB
330
1F
100
AcDbEntity
  8
0
  6
HIDDEN
 62
     7
370
     0
100
AcDbLine
 10
182.2908771272
 20
117.823782026
 30
0.0
 11
182.2908771272
 21
118.8272597484
 31
0.0
  0
LINE
  5
1DC
330
1F
100
AcDbEntity
  8
0
  6
HIDDEN
 62
     7
370
     0
100
AcDbLine
 10
179.2908775668
 20
118.8272597484
 30
0.0
 11
179.2908775668
 21
117.823782026
 31
0.0
  0
LINE
  5
1DD
330
1F
100
AcDbEntity
  8
0
  6
HIDDEN
 62
     7
370
     0
100
AcDbLine
 10
182.7908772092
 20
118.6562502972
 30
0.0
 11
182.7908772092
 21
118.7930578581
 31
0.0
  0
LINE
  5
1DE
330
1F
100
AcDbEntity
  8
0
  6
HIDDEN
 62
     7
370
     0
100
AcDbLine
 10
178.7908774848
 20
118.7930578581
 30
0.0
 11
178.7908774848
 21
118.6562502972
 31
0.0
  0
LINE
  5
1DF
330
1F
100
AcDbEntity
  8
0
  6
HIDDEN
 62
     7
370
     0
100
AcDbLine
 10
178.7908774848
 20
100.3923738591
 30
0.0
 11
178.7908774848
 21
100.2555662982
 31
0.0
  0
LINE
  5
1E0
330
1F
100
AcDbEntity
  8
0
  6
HIDDEN
 62
     7
370
     0
100
AcDbLine
 10
182.7908772092
 20
100.2555662982
 30
0.0
 11
182.7908772092
 21
100.3923738591
 31
0.0
  0
LINE
  5
1E1
330
1F
100
AcDbEntity
  8
0
  6
HIDDEN
 62
     7
370
     0
100
AcDbLine
 10
179.2908775668
 20
101.2248421303
 30
0.0
 11
179.2908775668
 21
100.2213644079
 31
0.0
  0
LINE
  5
1E2
330
1F
100
AcDbEntity
  8
0
  6
HIDDEN
 62
     7
370
     0
100
AcDbLine
 10
182.2908771272
 20
100.2213644079
 30
0.0
 11
182.2908771272
 21
101.2248421303
 31
0.0
  0
LINE
  5
1E3
330
1F
100
AcDbEntity
  8
0
  6
HIDDEN
 62
     7
370
     0
100
AcDbLine
 10
178.7908774848
 20
101.4868390031
 30
0.0
 11
178.7908774848
 21
101.1619191832
 31
0.0
  0
LINE
  5
1E4
330
1F
100
AcDbEntity
  8
0
  6
HIDDEN
 62
     7
370
     0
100
AcDbLine
 10
182.7908772092
 20
101.1619191832
 30
0.0
 11
182.7908772092
 21
101.4868390031
 31
0.0
  0
ARC
  5
1E5
330
1F
100
AcDbEntity
  8
0
  6
HIDDEN
 62
     7
370
     0
100
AcDbCircle
 10
180.7908775444
 20
100.8027984234
 30
0.0
 40
1.500000000000012
100
AcDbArc
 50
127.8262207356
 51
191.5274417161
  0
ARC
  5
1E6
330
1F
100
AcDbEntity
  8
0
  6
HIDDEN
 62
     7
370
     0
100
AcDbCircle
 10
180.7908775444
 20
100.8027984234
 30
0.0
 40
1.500000000000012
100
AcDbArc
 50
336.2988525406
 51
127.8262207356
  0
CIRCLE
  5
1E7
330
1F
100
AcDbEntity
  8
0
  6
HIDDEN
 62
     7
370
     0
100
AcDbCircle
 10
180.7908775444
 20
118.245825733
 30
0.0
 40
1.5
  0
DIMENSION
  5
1E8
330
1F
100
AcDbEntity
  8
VERMASSUNG
100
AcDbDimension
  2
_D
 10
91.4373689613
 20
141.2743120782
 30
0.0
 11
91.4373689613
 21
109.5243120782
 31
0.0
 70
   160
  1
ISO 40 %%c<>
 71
     2
 42
-1.0
  3
SLDDIMSTYLE0
100
AcDbAlignedDimension
 13
186.2408775444
 23
77.7743120782
 33
0.0
 14
186.2408775444
 24
141.2743120782
 34
0.0
 50
90.0
100
AcDbRotatedDimension
  0
DIMENSION
  5
1F5
330
1F
100
AcDbEntity
  8
VERMASSUNG
100
AcDbDimension
  2
_D_1
 10
211.8908775444
 20
156.9266259263
 30
0.0
 11
155.7158775444
 21
156.9266259263
 31
0.0
 70
   160
  1
(<>)
 71
     2
 42
-1.0
  3
SLDDIMSTYLE0
100
AcDbAlignedDimension
 13
99.5408775444
 23
120.9314426752
 33
0.0
 14
211.8908775444
 24
121.8243120782
 34
0.0
100
AcDbRotatedDimension
  0
DIMENSION
  5
201
330
1F
100
AcDbEntity
  8
VERMASSUNG
100
AcDbDimension
  2
_D_2
 10
211.8908775444
 20
150.9266259263
 30
0.0
 11
189.8408775444
 21
150.9266259263
 31
0.0
 70
   160
  1
<>
 71
     2
 42
-1.0
  3
SLDDIMSTYLE0
100
AcDbAlignedDimension
 13
167.7908775444
 23
131.7493120782
 33
0.0
 14
211.8908775444
 24
119.7743120782
 34
0.0
100
AcDbRotatedDimension
  0
DIMENSION
  5
20B
330
1F
100
AcDbEntity
  8
VERMASSUNG
100
AcDbDimension
  2
_D_3
 10
211.8908775444
 20
144.9266259263
 30
0.0
 11
199.3658775444
 21
144.9266259263
 31
0.0
 70
   160
  1
<>
 71
     2
 42
-1.0
  3
SLDDIMSTYLE0
100
AcDbAlignedDimension
 13
186.8408775444
 23
134.6957244342
 33
0.0
 14
211.8908775444
 24
121.8243120782
 34
0.0
100
AcDbRotatedDimension
  0
DIMENSION
  5
215
330
1F
100
AcDbEntity
  8
VERMASSUNG
100
AcDbDimension
  2
_D_4
 10
218.2470249671
 20
97.0243120782
 30
0.0
 11
218.2470249671
 21
109.5243120782
 31
0.0
 70
   160
  1
MBM %%c<>
 71
     2
 42
-1.0
  3
SLDDIMSTYLE0
100
AcDbAlignedDimension
 13
211.6908775444
 23
122.0243120782
 33
0.0
 14
211.6908775444
 24
97.0243120782
 34
0.0
 50
90.0
100
AcDbRotatedDimension
  0
LINE
  5
221
330
1F
100
AcDbEntity
  8
VERMASSUNG
  6
CENTERX2
 62
     7
370
     0
100
AcDbLine
 10
97.5408775444
 20
109.5243120782
 30
0.0
 11
213.8908775444
 21
109.5243120782
 31
0.0
  0
LINE
  5
222
330
1F
100
AcDbEntity
  8
VERMASSUNG
  6
CENTERX2
370
     0
100
AcDbLine
 10
170.5845525473
 20
118.8561647234
 30
0.0
 11
182.0659003499
 21
116.1065531968
 31
0.0
  0
LINE
  5
223
330
1F
100
AcDbEntity
  8
VERMASSUNG
  6
CENTERX2
370
     0
100
AcDbLine
 10
170.5845525473
 20
100.1924594329
 30
0.0
 11
182.0659003499
 21
102.9420709595
 31
0.0
  0
LINE
  5
224
330
1F
100
AcDbEntity
  8
0
  6
Continuous
 62
     7
370
    15
100
AcDbLine
 10
278.9164254525
 20
32.5091692628
 30
0.0
 11
278.7749816991
 21
32.5908496387
 31
0.0
  0
LINE
  5
225
330
1F
100
AcDbEntity
  8
0
  6
Continuous
 62
     7
370
    15
100
AcDbLine
 10
276.9362047839
 20
32.5908499408
 30
0.0
 11
276.7947606867
 21
32.5091690813
 31
0.0
  0
LINE
  5
226
330
1F
100
AcDbEntity
  8
0
  6
Continuous
 62
     7
370
    15
100
AcDbLine
 10
279.3555932268
 20
31.7030341419
 30
0.0
 11
279.3555932268
 21
31.8969624454
 31
0.0
  0
LINE
  5
227
330
1F
100
AcDbEntity
  8
0
  6
Continuous
 62
     7
370
    15
100
AcDbLine
 10
276.355593556
 20
31.8969623503
 30
0.0
 11
276.355593556
 21
31.7030340468
 31
0.0
  0
LINE
  5
228
330
1F
100
AcDbEntity
  8
0
  6
Continuous
 62
     7
370
    15
100
AcDbLine
 10
280.3488637796
 20
20.4150053123
 30
0.0
 11
280.4195628452
 21
20.4558326644
 31
0.0
  0
LINE
  5
229
330
1F
100
AcDbEntity
  8
0
  6
Continuous
 62
     7
370
    15
100
AcDbLine
 10
284.767562619
 20
27.9876053336
 30
0.0
 11
284.7675629483
 21
28.0692461961
 31
0.0
  0
LINE
  5
22A
330
1F
100
AcDbEntity
  8
0
  6
Continuous
 62
     7
370
    15
100
AcDbLine
 10
269.851811041
 20
24.3606928556
 30
0.0
 11
277.2233995541
 21
20.1051653884
 31
0.0
  0
LINE
  5
22B
330
1F
100
AcDbEntity
  8
0
  6
Continuous
 62
     7
370
    15
100
AcDbLine
 10
283.4728914459
 20
30.930776229
 30
0.0
 11
276.1013029328
 21
35.1863036961
 31
0.0
  0
SPLINE
  5
22C
330
1F
100
AcDbEntity
  8
0
  6
Continuous
 62
     7
370
    15
100
AcDbSpline
210
0.0
220
0.0
230
1.0
 70
     8
 71
     3
 72
    32
 73
    28
 74
     0
 42
0.000000001
 43
0.00000001
 40
0.0
 40
0.0
 40
0.0
 40
0.0
 40
0.0091423564724296
 40
0.0503986373278896
 40
0.0917620963018035
 40
0.1332882037131704
 40
0.1749631398369373
 40
0.2167548148412395
 40
0.2586261319610518
 40
0.3005439799865124
 40
0.3424830643073752
 40
0.3844240190571729
 40
0.4263563405046508
 40
0.4682758124266438
 40
0.5101811360456626
 40
0.5520728005517702
 40
0.5939524236015704
 40
0.6358222154226398
 40
0.6776847238189955
 40
0.7195427539218501
 40
0.7613991193659463
 40
0.8032566910124002
 40
0.8451174864861514
 40
0.8869844566667364
 40
0.9288605750829616
 40
0.9707487307309076
 40
1.0
 40
1.0
 40
1.0
 40
1.0
 10
272.6088584961979
 20
48.04288605033939
 30
0.0
 10
272.5545720084114
 20
48.05676012877046
 30
0.0
 10
272.2553094476038
 20
48.13324310656886
 30
0.0
 10
271.6839218130283
 20
48.20913395060757
 30
0.0
 10
270.8845533442543
 20
48.23334066559941
 30
0.0
 10
270.0539889778348
 20
48.16247544146901
 30
0.0
 10
269.198996567552
 20
48.0011564607095
 30
0.0
 10
268.3245432797031
 20
47.74900124418439
 30
0.0
 10
267.4365175371206
 20
47.40789863446508
 30
0.0
 10
266.5407195328684
 20
46.98003229084873
 30
0.0
 10
265.6429868281661
 20
46.46832661429541
 30
0.0
 10
264.749057736919
 20
45.87623913151398
 30
0.0
 10
263.8645515422043
 20
45.20770765491629
 30
0.0
 10
262.9949427418451
 20
44.46708990776778
 30
0.0
 10
262.1455719494741
 20
43.65914222652027
 30
0.0
 10
261.3216452369815
 20
42.78899874021103
 30
0.0
 10
260.5282126902953
 20
41.86215090464587
 30
0.0
 10
259.7701443605051
 20
40.88441784348837
 30
0.0
 10
259.0521046041456
 20
39.86191549017725
 30
0.0
 10
258.3785207711196
 20
38.80102170371035
 30
0.0
 10
257.7535723961235
 20
37.70834431289088
 30
0.0
 10
257.1811056216657
 20
36.59067107967724
 30
0.0
 10
256.6648575701864
 20
35.45498211054147
 30
0.0
 10
256.2074689000438
 20
34.30818300823348
 30
0.0
 10
255.8140792527006
 20
33.15787683594274
 30
0.0
 10
255.5125763876382
 20
32.12489330040649
 30
0.0
 10
255.3668645393357
 20
31.4824961064963
 30
0.0
 10
255.3069504127404
 20
31.21835377868454
 30
0.0
  0
LINE
  5
22D
330
1F
100
AcDbEntity
  8
0
  6
Continuous
 62
     7
370
    15
100
AcDbLine
 10
265.0738144617
 20
46.0775413588
 30
0.0
 11
243.7624185629
 21
53.7573242751
 31
0.0
  0
LINE
  5
22E
330
1F
100
AcDbEntity
  8
0
  6
Continuous
 62
     7
370
    15
100
AcDbLine
 10
237.5976365682
 20
43.0784516298
 30
0.0
 11
257.8938746658
 21
25.9404765422
 31
0.0
  0
SPLINE
  5
22F
330
1F
100
AcDbEntity
  8
0
  6
Continuous
 62
     7
370
    15
100
AcDbSpline
210
0.0
220
0.0
230
1.0
 70
     8
 71
     3
 72
    19
 73
    15
 74
     0
 42
0.000000001
 43
0.00000001
 40
0.0
 40
0.0
 40
0.0
 40
0.0
 40
0.0150957384271519
 40
0.1045023330217107
 40
0.1942548856724896
 40
0.2843043804877762
 40
0.3745743037545031
 40
0.4649863496580729
 40
0.5554752094725786
 40
0.6459933776694825
 40
0.7365028953390542
 40
0.8269892774538288
 40
0.917446249953363
 40
1.0
 40
1.0
 40
1.0
 40
1.0
 10
266.0187211221152
 20
16.21249322135943
 30
0.0
 10
266.0626043331131
 20
16.2078198626221
 30
0.0
 10
266.3663919187218
 20
16.17546789166983
 30
0.0
 10
266.9612136902266
 20
16.20397220187362
 30
0.0
 10
267.7995016482039
 20
16.30334630816498
 30
0.0
 10
268.6634843567005
 20
16.50238763954329
 30
0.0
 10
269.5437828050379
 20
16.78919252809161
 30
0.0
 10
270.43560275147
 20
17.16482510415568
 30
0.0
 10
271.3328533438678
 20
17.62594359369377
 30
0.0
 10
272.229741794554
 20
18.16975479255522
 30
0.0
 10
273.1207666060394
 20
18.79205830077742
 30
0.0
 10
273.9995732239973
 20
19.49058979101225
 30
0.0
 10
274.8386364743424
 20
20.23183111700569
 30
0.0
 10
275.3708085440235
 20
20.77085270742375
 30
0.0
 10
275.6247396263038
 20
21.02805210518499
 30
0.0
  0
SPLINE
  5
230
330
1F
100
AcDbEntity
  8
0
  6
Continuous
 62
     7
370
    15
100
AcDbSpline
210
0.0
220
0.0
230
1.0
 70
     8
 71
     3
 72
     9
 73
     5
 74
     0
 42
0.000000001
 43
0.00000001
 40
0.0
 40
0.0
 40
0.0
 40
0.0
 40
0.7004675126573308
 40
1.0
 40
1.0
 40
1.0
 40
1.0
 10
281.8733444586539
 20
31.85417481865658
 30
0.0
 10
281.9672463245979
 20
32.18737071515644
 30
0.0
 10
282.1013023147005
 20
32.66304716050055
 30
0.0
 10
282.2006845286972
 20
33.13214113772497
 30
0.0
 10
282.2304527304532
 20
33.27265002352047
 30
0.0
  0
LINE
  5
231
330
1F
100
AcDbEntity
  8
0
  6
Continuous
 62
     7
370
    15
100
AcDbLine
 10
262.0598962882
 20
17.7451781301
 30
0.0
 11
263.4133560588
 21
16.9638424357
 31
0.0
  0
LINE
  5
232
330
1F
100
AcDbEntity
  8
0
  6
Continuous
 62
     7
370
    15
100
AcDbLine
 10
258.2337991242
 20
19.9539370081
 30
0.0
 11
259.5695815846
 21
19.1828062077
 31
0.0
  0
SPLINE
  5
233
330
1F
100
AcDbEntity
  8
0
  6
Continuous
 62
     7
370
    15
100
AcDbSpline
210
0.0
220
0.0
230
1.0
 70
     8
 71
     3
 72
    11
 73
     7
 74
     0
 42
0.000000001
 43
0.00000001
 40
0.0
 40
0.0
 40
0.0
 40
0.0
 40
0.1181389575533868
 40
0.4841589670133378
 40
0.8496188057479795
 40
1.0
 40
1.0
 40
1.0
 40
1.0
 10
255.3137968883996
 20
23.95106757224193
 30
0.0
 10
255.340915312212
 20
23.85880994428981
 30
0.0
 10
255.4520524707919
 20
23.48071825655662
 30
0.0
 10
255.6999629748163
 20
22.86426531017373
 30
0.0
 10
255.9936409830075
 20
22.25903205092473
 30
0.0
 10
256.2067580615177
 20
21.95061434093403
 30
0.0
 10
256.2688872810494
 20
21.86070248710508
 30
0.0
  0
SPLINE
  5
234
330
1F
100
AcDbEntity
  8
0
  6
Continuous
 62
     7
370
    15
100
AcDbSpline
210
0.0
220
0.0
230
1.0
 70
     8
 71
     3
 72
    12
 73
     8
 74
     0
 42
0.000000001
 43
0.00000001
 40
0.0
 40
0.0
 40
0.0
 40
0.0
 40
0.092803680878865
 40
0.3286841829188933
 40
0.5642001068999755
 40
0.7989746946093221
 40
1.0
 40
1.0
 40
1.0
 40
1.0
 10
282.2208788103961
 20
40.41867422799435
 30
0.0
 10
282.1877198737875
 20
40.53102687358199
 30
0.0
 10
282.070280372655
 20
40.92894791684265
 30
0.0
 10
281.8178926956816
 20
41.5676149156868
 30
0.0
 10
281.4384405281782
 20
42.3031256495045
 30
0.0
 10
281.0183349100645
 20
42.9393367914684
 30
0.0
 10
280.6982348558685
 20
43.29384297313811
 30
0.0
 10
280.5505794475742
 20
43.45736920286272
 30
0.0
  0
SPLINE
  5
235
330
1F
100
AcDbEntity
  8
0
  6
Continuous
 62
     7
370
    15
100
AcDbSpline
210
0.0
220
0.0
230
1.0
 70
     8
 71
     3
 72
    25
 73
    21
 74
     0
 42
0.000000001
 43
0.00000001
 40
0.0
 40
0.0
 40
0.0
 40
0.0
 40
0.0308121532954567
 40
0.0858564805981491
 40
0.1418823011776256
 40
0.199097685016753
 40
0.2572910413269311
 40
0.3160548846340454
 40
0.3750239539436982
 40
0.4339450021222601
 40
0.4927593995315794
 40
0.5514686979906913
 40
0.6101023820260214
 40
0.6687016291515425
 40
0.7273123966794908
 40
0.7859691991650454
 40
0.8447189127639223
 40
0.903609960392893
 40
0.9626845640685602
 40
1.0
 40
1.0
 40
1.0
 40
1.0
 10
243.6119070631328
 20
53.7938079137243
 30
0.0
 10
243.5235416811304
 20
53.82132832439757
 30
0.0
 10
243.2773160884983
 20
53.89801253346159
 30
0.0
 10
242.8363742155098
 20
53.92295513405649
 30
0.0
 10
242.3012676453196
 20
53.87736695366212
 30
0.0
 10
241.7436124611599
 20
53.73610504067319
 30
0.0
 10
241.1732508071782
 20
53.50544172085191
 30
0.0
 10
240.5994288609186
 20
53.18698073767451
 30
0.0
 10
240.0328909581247
 20
52.7870758732839
 30
0.0
 10
239.4834472663176
 20
52.3133530657277
 30
0.0
 10
238.9599129854606
 20
51.77450320478509
 30
0.0
 10
238.470086188911
 20
51.17958545493639
 30
0.0
 10
238.0212185989925
 20
50.53817619462694
 30
0.0
 10
237.6200049515712
 20
49.86033635914579
 30
0.0
 10
237.2725740948377
 20
49.15652853604681
 30
0.0
 10
236.9845106715294
 20
48.43755033855728
 30
0.0
 10
236.7602220878277
 20
47.71402730261207
 30
0.0
 10
236.6051984543497
 20
46.99737101641101
 30
0.0
 10
236.5283396202586
 20
46.38237444089713
 30
0.0
 10
236.5206384945165
 20
46.01710070696023
 30
0.0
 10
236.5176571609119
 20
45.87569243830799
 30
0.0
  0
SPLINE
  5
236
330
1F
100
AcDbEntity
  8
0
  6
Continuous
 62
     7
370
    15
100
AcDbSpline
210
0.0
220
0.0
230
1.0
 70
     8
 71
     3
 72
    13
 73
     9
 74
     0
 42
0.000000001
 43
0.00000001
 40
0.0
 40
0.0
 40
0.0
 40
0.0
 40
0.1023554988015257
 40
0.2958510937173642
 40
0.4893752184615462
 40
0.68134106842605
 40
0.8700407960514425
 40
1.0
 40
1.0
 40
1.0
 40
1.0
 10
236.5176571609119
 20
45.87569243830799
 30
0.0
 10
236.5197926375153
 20
45.75879760441127
 30
0.0
 10
236.5259650766722
 20
45.42092162448647
 30
0.0
 10
236.5952102356872
 20
44.89226959897173
 30
0.0
 10
236.7506538455521
 20
44.31376435980273
 30
0.0
 10
236.9865096102909
 20
43.80164441520432
 30
0.0
 10
237.2566154306739
 20
43.39600313216101
 30
0.0
 10
237.4756954535119
 20
43.20055625592178
 30
0.0
 10
237.5650432249001
 20
43.12084683015793
 30
0.0
  0
LWPOLYLINE
  5
237
330
1F
100
AcDbEntity
  8
0
  6
Continuous
 62
     7
370
    15
100
AcDbPolyline
 90
       22
 70
   128
 43
0.0
 10
278.4921268518
 20
31.4059143769
 10
278.1297417658
 20
31.326674155
 10
277.7429987442
 20
31.3126164792
 10
277.3662589313
 20
31.3649918819
 10
277.0329982848
 20
31.4791460412
 10
276.7728305634
 20
31.6449347001
 10
276.6088688683
 20
31.8476290408
 10
276.5556855547
 20
32.0692166727
 10
276.61800428
 20
32.2900097026
 10
276.7902890619
 20
32.4903889467
 10
277.0572304178
 20
32.6525505079
 10
277.3951095604
 20
32.7620855822
 10
277.7739042791
 20
32.8092615471
 10
278.1599580104
 20
32.789886082
 10
278.5189670886
 20
32.7056813078
 10
278.8190334699
 20
32.5641285117
 10
279.0334930987
 20
32.3778062246
 10
279.1432914837
 20
32.1632692191
 10
279.1386730287
 20
31.9395800093
 10
279.0200460314
 20
31.7266153855
 10
278.797952691
 20
31.5432972776
 10
278.4921268518
 20
31.4059143769
  0
LWPOLYLINE
  5
238
330
1F
100
AcDbEntity
  8
0
  6
Continuous
 62
     7
370
    15
100
AcDbPolyline
 90
       12
 70
   128
 43
0.0
 10
278.5900552807
 20
31.1419357978
 10
278.2099563558
 20
31.0555413651
 10
277.8035749607
 20
31.0315518047
 10
277.4010523072
 20
31.0717453362
 10
277.0322412879
 20
31.1731412871
 10
276.7244933965
 20
31.3282203768
 10
276.5006354321
 20
31.5254796221
 10
276.377266832
 20
31.7502909501
 10
276.3635403361
 20
31.9859795259
 10
276.4604721196
 20
32.2150663131
 10
276.6608736342
 20
32.4205608409
 10
276.7947606867
 20
32.5091690813
  0
LWPOLYLINE
  5
239
330
1F
100
AcDbEntity
  8
0
  6
Continuous
 62
     7
370
    15
100
AcDbPolyline
 90
        8
 70
   128
 43
0.0
 10
278.9164254525
 20
32.5091692628
 10
279.1103088582
 20
32.3714946249
 10
279.2855538903
 20
32.1584755417
 10
279.3547469971
 20
31.9260602504
 10
279.3127528897
 20
31.6914879477
 10
279.1626887681
 20
31.4721542348
 10
278.9156830942
 20
31.2843267885
 10
278.5900552807
 20
31.1419357978
  0
LWPOLYLINE
  5
23A
330
1F
100
AcDbEntity
  8
0
  6
Continuous
 62
     7
370
    15
100
AcDbPolyline
 90
       18
 70
   128
 43
0.0
 10
278.2840291128
 20
31.6198387034
 10
277.9794941366
 20
31.5602340183
 10
277.6582271085
 20
31.5681612921
 10
277.3636134757
 20
31.6425517967
 10
277.1354453374
 20
31.7733570066
 10
277.0045375552
 20
31.9429113409
 10
276.9885694973
 20
32.1283157084
 10
277.0896965283
 20
32.3045309655
 10
277.2942631054
 20
32.4477569922
 10
277.574641285
 20
32.5386503614
 10
277.892962623
 20
32.5649364435
 10
278.2062373492
 20
32.523064463
 10
278.4721553166
 20
32.4186898354
 10
278.654803459
 20
32.265908491
 10
278.729513399
 20
32.085354922
 10
278.6861962346
 20
31.9014132097
 10
278.5307014977
 20
31.7389261164
 10
278.2840291128
 20
31.6198387034
  0
SPLINE
  5
23B
330
1F
100
AcDbEntity
  8
0
  6
Continuous
 62
     7
370
    15
100
AcDbSpline
210
0.0
220
0.0
230
1.0
 70
     8
 71
     3
 72
     9
 73
     5
 74
     0
 42
0.000000001
 43
0.00000001
 40
0.0
 40
0.0
 40
0.0
 40
0.0
 40
0.512497338891214
 40
0.9999999999999999
 40
0.9999999999999999
 40
0.9999999999999999
 40
0.9999999999999999
 10
278.6003780584743
 20
31.79782646297608
 30
0.0
 10
278.5690225098789
 20
31.77255213377081
 30
0.0
 10
278.5078406339626
 20
31.72323611339898
 30
0.0
 10
278.4399704035811
 20
31.6908029199861
 30
0.0
 10
278.40688348566
 20
31.67499165188907
 30
0.0
  0
SPLINE
  5
23C
330
1F
100
AcDbEntity
  8
0
  6
Continuous
 62
     7
370
    15
100
AcDbSpline
210
0.0
220
0.0
230
1.0
 70
     8
 71
     3
 72
    10
 73
     6
 74
     0
 42
0.000000001
 43
0.00000001
 40
0.0
 40
0.0
 40
0.0
 40
0.0
 40
0.4391162917556749
 40
0.7513674875009481
 40
1.0
 40
1.0
 40
1.0
 40
1.0
 10
278.6107021327543
 20
32.29773629141989
 30
0.0
 10
278.6092238919593
 20
32.18422700630637
 30
0.0
 10
278.606694488945
 20
31.9900024057506
 30
0.0
 10
278.6030198386575
 20
31.84389206684532
 30
0.0
 10
278.6011894473355
 20
31.81197492169291
 30
0.0
 10
278.6003780584743
 20
31.79782646297608
 30
0.0
  0
SPLINE
  5
23D
330
1F
100
AcDbEntity
  8
0
  6
Continuous
 62
     7
370
    15
100
AcDbSpline
210
0.0
220
0.0
230
1.0
 70
     8
 71
     3
 72
    10
 73
     6
 74
     0
 42
0.000000001
 43
0.00000001
 40
0.0
 40
0.0
 40
0.0
 40
0.0
 40
0.4391161921244525
 40
0.7513666260441089
 40
1.0
 40
1.0
 40
1.0
 40
1.0
 10
277.8659168174349
 20
32.55285267693901
 30
0.0
 10
277.9725385039596
 20
32.47438741897736
 30
0.0
 10
278.1549776357977
 20
32.3401264256601
 30
0.0
 10
278.4201852059675
 20
32.28118396495675
 30
0.0
 10
278.5521871717802
 20
32.29265244531049
 30
0.0
 10
278.6107021327543
 20
32.29773629141989
 30
0.0
  0
SPLINE
  5
23E
330
1F
100
AcDbEntity
  8
0
  6
Continuous
 62
     7
370
    15
100
AcDbSpline
210
0.0
220
0.0
230
1.0
 70
     8
 71
     3
 72
    11
 73
     7
 74
     0
 42
0.000000001
 43
0.00000001
 40
0.0
 40
0.0
 40
0.0
 40
0.0
 40
0.1843641404358638
 40
0.5174528069874662
 40
0.8663351586153778
 40
0.9999999999999999
 40
0.9999999999999999
 40
0.9999999999999999
 40
0.9999999999999999
 10
277.110808724345
 20
32.30805846179471
 30
0.0
 10
277.1546263786525
 20
32.30321073109242
 30
0.0
 10
277.2776089074862
 20
32.28960465860192
 30
0.0
 10
277.5067385800349
 20
32.32409176092025
 30
0.0
 10
277.7200809009511
 20
32.44097206900803
 30
0.0
 10
277.834283007063
 20
32.52858423867695
 30
0.0
 10
277.8659168174349
 20
32.55285267693901
 30
0.0
  0
SPLINE
  5
23F
330
1F
100
AcDbEntity
  8
0
  6
Continuous
 62
     7
370
    15
100
AcDbSpline
210
0.0
220
0.0
230
1.0
 70
     8
 71
     3
 72
    10
 73
     6
 74
     0
 42
0.000000001
 43
0.00000001
 40
0.0
 40
0.0
 40
0.0
 40
0.0
 40
0.4391162917556749
 40
0.7513674875009481
 40
1.0
 40
1.0
 40
1.0
 40
1.0
 10
277.100484650065
 20
31.80814863335089
 30
0.0
 10
277.10196289086
 20
31.83777115035427
 30
0.0
 10
277.1044922938743
 20
31.88845794242317
 30
0.0
 10
277.1081669441618
 20
32.0983694530064
 30
0.0
 10
277.1099973354839
 20
32.24365517528539
 30
0.0
 10
277.110808724345
 20
32.30805846179471
 30
0.0
  0
SPLINE
  5
240
330
1F
100
AcDbEntity
  8
0
  6
Continuous
 62
     7
370
    15
100
AcDbSpline
210
0.0
220
0.0
230
1.0
 70
     8
 71
     3
 72
     9
 73
     5
 74
     0
 42
0.000000001
 43
0.00000001
 40
0.0
 40
0.0
 40
0.0
 40
0.0
 40
0.1296542294352978
 40
1.0
 40
1.0
 40
1.0
 40
1.0
 10
277.3078289524466
 20
31.66635642458122
 30
0.0
 10
277.2982858603943
 20
31.67047537794537
 30
0.0
 10
277.2246816895638
 20
31.70224413228594
 30
0.0
 10
277.1582784386498
 20
31.75886708550222
 30
0.0
 10
277.100484650065
 20
31.80814863335089
 30
0.0
  0
LINE
  5
241
330
1F
100
AcDbEntity
  8
0
  6
Continuous
 62
     7
370
    15
100
AcDbLine
 10
277.1108087243
 20
31.8007008149
 30
0.0
 11
277.1108087243
 21
32.3080584618
 31
0.0
  0
LINE
  5
242
330
1F
100
AcDbEntity
  8
0
  6
Continuous
 62
     7
370
    15
100
AcDbLine
 10
277.8659168174
 20
31.5551789763
 30
0.0
 11
277.8659168174
 21
32.5528526769
 31
0.0
  0
SPLINE
  5
243
330
1F
100
AcDbEntity
  8
0
  6
Continuous
 62
     7
370
    15
100
AcDbSpline
210
0.0
220
0.0
230
1.0
 70
     8
 71
     3
 72
    12
 73
     8
 74
     0
 42
0.000000001
 43
0.00000001
 40
0.0
 40
0.0
 40
0.0
 40
0.0
 40
0.2499999999999992
 40
0.2499999999999992
 40
0.4999999999999983
 40
0.4999999999999983
 40
1.0
 40
1.0
 40
1.0
 40
1.0
 10
260.5851847881318
 20
28.1717435524992
 30
0.0
 10
260.6189639544041
 20
28.15224325488569
 30
0.0
 10
260.6572886508796
 20
28.12540350630852
 30
0.0
 10
260.7315117749922
 20
28.06700300298587
 30
0.0
 10
260.7668951394869
 20
28.03601334450498
 30
0.0
 10
260.8627050978719
 20
27.94527399148422
 30
0.0
 10
260.9117088560262
 20
27.88937986276669
 30
0.0
 10
260.9455179136409
 20
27.84211999900003
 30
0.0
  0
SPLINE
  5
244
330
1F
100
AcDbEntity
  8
0
  6
Continuous
 62
     7
370
    15
100
AcDbSpline
210
0.0
220
0.0
230
1.0
 70
     8
 71
     3
 72
    12
 73
     8
 74
     0
 42
0.000000001
 43
0.00000001
 40
0.0
 40
0.0
 40
0.0
 40
0.0
 40
0.4999999999999971
 40
0.4999999999999971
 40
0.7499999999999986
 40
0.7499999999999986
 40
1.0
 40
1.0
 40
1.0
 40
1.0
 10
278.050047826832
 20
44.61192152332156
 30
0.0
 10
278.050047826832
 20
44.68334055504624
 30
0.0
 10
278.032483296171
 20
44.76587031423944
 30
0.0
 10
277.977357761681
 20
44.88481503027231
 30
0.0
 10
277.9540652879242
 20
44.9234479174969
 30
0.0
 10
277.9000968988669
 20
44.99001042877395
 30
0.0
 10
277.8692493981137
 20
45.01793146702661
 30
0.0
 10
277.8379157924759
 20
45.03601997253656
 30
0.0
  0
LWPOLYLINE
  5
245
330
1F
100
AcDbEntity
  8
0
  6
Continuous
 62
     7
370
    15
100
AcDbPolyline
 90
       12
 70
   128
 43
0.0
 10
266.5488912686
 20
41.8392836911
 10
267.4617287871
 20
42.6579838689
 10
268.3926140471
 20
43.3972008631
 10
269.3349196624
 20
44.0516730112
 10
270.2819371226
 20
44.6167397329
 10
271.2269242489
 20
45.0883795726
 10
272.1631532683
 20
45.4632326286
 10
273.0839590107
 20
45.7386329394
 10
273.9827856655
 20
45.9126179851
 10
274.8532343203
 20
45.983949287
 10
275.6891084007
 20
45.952120388
 10
276.484455652
 20
45.8173559928
  0
LINE
  5
246
330
1F
100
AcDbEntity
  8
0
  6
Continuous
 62
     7
370
    15
100
AcDbLine
 10
277.8379154226
 20
45.0360202985
 30
0.0
 11
276.484455652
 21
45.8173559928
 31
0.0
  0
LINE
  5
247
330
1F
100
AcDbEntity
  8
0
  6
Continuous
 62
     7
370
    15
100
AcDbLine
 10
259.2317248736
 20
28.9530794365
 30
0.0
 11
260.5851846442
 21
28.1717437421
 31
0.0
  0
ARC
  5
248
330
1F
100
AcDbEntity
  8
0
  6
Continuous
 62
     7
370
    15
100
AcDbCircle
 10
284.8476722794
 20
22.9415659246
 30
0.0
 40
26.31188051429265
100
AcDbArc
 50
136.4697995832
 51
166.7929036469
  0
SPLINE
  5
249
330
1F
100
AcDbEntity
  8
0
  6
Continuous
 62
     7
370
    15
100
AcDbSpline
210
0.0
220
0.0
230
1.0
 70
     8
 71
     3
 72
    12
 73
     8
 74
     0
 42
0.000000001
 43
0.00000001
 40
0.0
 40
0.0
 40
0.0
 40
0.0
 40
0.2499999999999997
 40
0.2499999999999997
 40
0.4999999999999993
 40
0.4999999999999993
 40
1.0
 40
1.0
 40
1.0
 40
1.0
 10
265.7712576638127
 20
41.0635269156337
 30
0.0
 10
265.8705723465326
 20
41.09687499992952
 30
0.0
 10
265.9643974862241
 20
41.14075720143404
 30
0.0
 10
266.1413905911297
 20
41.24888747022976
 30
0.0
 10
266.2212021590507
 20
41.31129296041095
 30
0.0
 10
266.4293860202711
 20
41.51869053820072
 30
0.0
 10
266.5210958538572
 20
41.6801010759945
 30
0.0
 10
266.5488911800309
 20
41.83928408353359
 30
0.0
  0
LINE
  5
24A
330
1F
100
AcDbEntity
  8
0
  6
Continuous
 62
     7
370
    15
100
AcDbLine
 10
282.0673114995
 20
39.9408725292
 30
0.0
 11
282.172675328
 21
40.1233676527
 31
0.0
  0
LINE
  5
24B
330
1F
100
AcDbEntity
  8
0
  6
Continuous
 62
     7
370
    15
100
AcDbLine
 10
280.8961526538
 20
39.2647769186
 30
0.0
 11
282.0673114995
 21
39.9408725292
 31
0.0
  0
ARC
  5
24C
330
1F
100
AcDbEntity
  8
0
  6
Continuous
 62
     7
370
    15
100
AcDbCircle
 10
281.5586404815
 20
38.2290924989
 30
0.0
 40
1.229443914555037
100
AcDbArc
 50
122.6054968531
 51
177.3945222572
  0
LINE
  5
24D
330
1F
100
AcDbEntity
  8
0
  6
Continuous
 62
     7
370
    15
100
AcDbLine
 10
280.3304675312
 20
33.0182927524
 30
0.0
 11
280.3304675312
 21
38.2849811679
 31
0.0
  0
ARC
  5
24E
330
1F
100
AcDbEntity
  8
0
  6
Continuous
 62
     7
370
    15
100
AcDbCircle
 10
280.6753269743
 20
32.9623509409
 30
0.0
 40
0.3493673163990618
100
AcDbArc
 50
170.7859529282
 51
309.2032375553
  0
LINE
  5
24F
330
1F
100
AcDbEntity
  8
0
  6
Continuous
 62
     7
370
    15
100
AcDbLine
 10
282.0673114995
 20
33.3677187526
 30
0.0
 11
280.8961526538
 21
32.691623142
 31
0.0
  0
LINE
  5
250
330
1F
100
AcDbEntity
  8
0
  6
Continuous
 62
     7
370
    15
100
AcDbLine
 10
282.172675328
 20
33.3068741161
 30
0.0
 11
282.0673114995
 21
33.3677187526
 31
0.0
  0
LINE
  5
251
330
1F
100
AcDbEntity
  8
0
  6
Continuous
 62
     7
370
    15
100
AcDbLine
 10
260.993413092
 20
21.2020161562
 30
0.0
 11
260.9455178085
 21
21.0797674953
 31
0.0
  0
LINE
  5
252
330
1F
100
AcDbEntity
  8
0
  6
Continuous
 62
     7
370
    15
100
AcDbLine
 10
260.993413092
 20
21.2020161562
 30
0.0
 11
263.0063511867
 21
22.3640605834
 31
0.0
  0
ARC
  5
253
330
1F
100
AcDbEntity
  8
0
  6
Continuous
 62
     7
370
    15
100
AcDbCircle
 10
262.343863359
 20
23.3997450031
 30
0.0
 40
1.229443914555038
100
AcDbArc
 50
302.6054968531
 51
357.3945222572
  0
LINE
  5
254
330
1F
100
AcDbEntity
  8
0
  6
Continuous
 62
     7
370
    15
100
AcDbLine
 10
263.5720363092
 20
28.6105447497
 30
0.0
 11
263.5720363092
 21
23.3438563341
 31
0.0
  0
ARC
  5
255
330
1F
100
AcDbEntity
  8
0
  6
Continuous
 62
     7
370
    15
100
AcDbCircle
 10
263.2271768661
 20
28.6664865612
 30
0.0
 40
0.3493673163990607
100
AcDbArc
 50
350.7859529282
 51
129.2032375553
  0
LINE
  5
256
330
1F
100
AcDbEntity
  8
0
  6
Continuous
 62
     7
370
    15
100
AcDbLine
 10
263.0063511867
 20
28.93721436
 30
0.0
 11
260.993413092
 21
27.7751699328
 31
0.0
  0
LINE
  5
257
330
1F
100
AcDbEntity
  8
0
  6
Continuous
 62
     7
370
    15
100
AcDbLine
 10
260.9455178085
 20
27.8421198764
 30
0.0
 11
260.993413092
 21
27.7751699328
 31
0.0
  0
LINE
  5
258
330
1F
100
AcDbEntity
  8
0
  6
Continuous
 62
     7
370
    15
100
AcDbLine
 10
278.0500477552
 20
41.8269404153
 30
0.0
 11
278.0500477552
 21
44.6119213038
 31
0.0
  0
LINE
  5
259
330
1F
100
AcDbEntity
  8
0
  6
Continuous
 62
     7
370
    15
100
AcDbLine
 10
280.4617813061
 20
43.219204559
 30
0.0
 11
278.0500477552
 21
41.8269404153
 31
0.0
  0
SPLINE
  5
25A
330
1F
100
AcDbEntity
  8
0
  6
Continuous
 62
     7
370
    15
100
AcDbSpline
210
0.0
220
0.0
230
1.0
 70
     8
 71
     3
 72
     8
 73
     4
 74
     0
 42
0.000000001
 43
0.00000001
 40
0.0
 40
0.0
 40
0.0
 40
0.0
 40
1.0
 40
1.0
 40
1.0
 40
1.0
 10
258.2415733678943
 20
30.21145864136887
 30
0.0
 10
257.8608755018939
 20
30.14849180369827
 30
0.0
 10
257.480037529654
 20
30.08579168156324
 30
0.0
 10
257.0990968789143
 20
30.0233108028902
 30
0.0
  0
SPLINE
  5
25B
330
1F
100
AcDbEntity
  8
0
  6
Continuous
 62
     7
370
    15
100
AcDbSpline
210
0.0
220
0.0
230
1.0
 70
     8
 71
     3
 72
     8
 73
     4
 74
     0
 42
0.000000001
 43
0.00000001
 40
0.0
 40
0.0
 40
0.0
 40
0.0
 40
0.0011901715795577
 40
0.0011901715795577
 40
0.0011901715795577
 40
0.0011901715795577
 10
256.7414100813564
 20
30.39070745874583
 30
0.0
 10
256.8610565888513
 20
30.26809254899034
 30
0.0
 10
256.9802997629994
 20
30.14562050849463
 30
0.0
 10
257.0990968789143
 20
30.0233108028902
 30
0.0
  0
LWPOLYLINE
  5
25C
330
1F
100
AcDbEntity
  8
0
  6
Continuous
 62
     7
370
    15
100
AcDbPolyline
 90
       23
 70
   128
 43
0.0
 10
256.74141017
 20
30.3907075141
 10
257.0558921729
 20
31.6306279587
 10
257.4482450882
 20
32.8802404203
 10
257.9155443198
 20
34.1302336855
 10
258.4543088014
 20
35.3712935513
 10
259.0605233872
 20
36.5941724052
 10
259.7296711203
 20
37.7897584244
 10
260.4567661603
 20
38.9491428737
 10
261.2363900029
 20
40.0636858823
 10
262.062734615
 20
41.1250846909
 10
262.9296419468
 20
42.1254284016
 10
263.8306520059
 20
43.0572637536
 10
264.7590519189
 20
43.9136485405
 10
265.7079231818
 20
44.6881994206
 10
266.6701959079
 20
45.3751475681
 10
267.6386996688
 20
45.9693710647
 10
268.6062178973
 20
46.4664453175
 10
269.5655412494
 20
46.8626639779
 10
270.5095218316
 20
47.1550770911
 10
271.431125236
 20
47.341503644
 10
272.3234843252
 20
47.4205557709
 10
273.1799501045
 20
47.3916437863
 10
273.9941409484
 20
47.2549840705
  0
SPLINE
  5
25D
330
1F
100
AcDbEntity
  8
0
  6
Continuous
 62
     7
370
    15
100
AcDbSpline
210
0.0
220
0.0
230
1.0
 70
     8
 71
     3
 72
     9
 73
     5
 74
     0
 42
0.000000001
 43
0.00000001
 40
0.0
 40
0.0
 40
0.0
 40
0.0
 40
0.0038982316465572
 40
1.0
 40
1.0
 40
1.0
 40
1.0
 10
274.4285336987682
 20
45.91961035860123
 30
0.0
 10
274.4279818631142
 20
45.92134492143152
 30
0.0
 10
274.2864213546441
 20
46.36630637769015
 30
0.0
 10
274.1399957510701
 20
46.81151298332184
 30
0.0
 10
273.9941409484179
 20
47.25498407047418
 30
0.0
  0
LWPOLYLINE
  5
25E
330
1F
100
AcDbEntity
  8
0
  6
Continuous
 62
     7
370
    15
100
AcDbPolyline
 90
       22
 70
   128
 43
0.0
 10
258.2415732421
 20
30.211458827
 10
258.5364016427
 20
31.3867805536
 10
258.9080920655
 20
32.5718959137
 10
259.3536501087
 20
33.7572571965
 10
259.8694853877
 20
34.9333133249
 10
260.4514424865
 20
36.0905889411
 10
261.0948319097
 20
37.2197600693
 10
261.794470912
 20
38.3117290177
 10
262.544721694
 20
39.3576989006
 10
263.3395404634
 20
40.3492407438
 10
264.1725222163
 20
41.2783672463
 10
265.0369567134
 20
42.1375917101
 10
265.9258790235
 20
42.9199922001
 10
266.832126981
 20
43.619263725
 10
267.7483991795
 20
44.2297737698
 10
268.6673132939
 20
44.7466020481
 10
269.5814656788
 20
45.1655855539
 10
270.4834912136
 20
45.4833485469
 10
271.3661222833
 20
45.6973305174
 10
272.2222475951
 20
45.8058079732
 10
273.0449695538
 20
45.8079062689
 10
273.2903514693
 20
45.787125839
  0
LINE
  5
25F
330
1F
100
AcDbEntity
  8
0
  6
Continuous
 62
     7
370
    15
100
AcDbLine
 10
255.4056277096
 20
31.1618383145
 30
0.0
 11
256.74141017
 21
30.3907075141
 31
0.0
  0
LINE
  5
260
330
1F
100
AcDbEntity
  8
0
  6
Continuous
 62
     7
370
    15
100
AcDbLine
 10
273.9941409484
 20
47.2549840705
 30
0.0
 11
272.658358488
 21
48.0261148709
 31
0.0
  0
LWPOLYLINE
  5
261
330
1F
100
AcDbEntity
  8
0
  6
Continuous
 62
     7
370
    15
100
AcDbPolyline
 90
       47
 70
   128
 43
0.0
 10
276.070149497
 20
22.9666956113
 10
276.1106536062
 20
23.6738697325
 10
276.2314112419
 20
24.4146354749
 10
276.4301731453
 20
25.1751939753
 10
276.7032366499
 20
25.9413773017
 10
277.045515158
 20
26.6989129936
 10
277.4506326415
 20
27.4336893592
 10
277.9110425097
 20
28.1320193449
 10
278.4181682082
 20
28.7808943267
 10
278.9625629161
 20
29.3682264927
 10
279.5340855418
 20
29.8830751592
 10
280.1220898079
 20
30.3158502248
 10
280.7156223081
 20
30.6584892439
 10
281.3036265742
 20
30.9046094532
 10
281.8751491999
 20
31.0496267647
 10
282.4195439078
 20
31.0908393495
 10
282.9266696063
 20
31.0274792362
 10
283.3870794745
 20
30.8607271693
 10
283.792196958
 20
30.5936894941
 10
284.1344754661
 20
30.2313401558
 10
284.4075389707
 20
29.780429241
 10
284.6063008741
 20
29.2493563496
 10
284.7270585098
 20
28.6480144057
 10
284.767562619
 20
27.9876053336
 10
284.7270585098
 20
27.2804312124
 10
284.6063008741
 20
26.5396654699
 10
284.4075389707
 20
25.7791069696
 10
284.1344754661
 20
25.0129236432
 10
283.792196958
 20
24.2553879513
 10
283.3870794745
 20
23.5206115857
 10
282.9266696063
 20
22.8222816
 10
282.4195439078
 20
22.1734066182
 10
281.8751491999
 20
21.5860744522
 10
281.3036265742
 20
21.0712257857
 10
280.7156223081
 20
20.6384507201
 10
280.1220898079
 20
20.295811701
 10
279.5340855418
 20
20.0496914916
 10
278.9625629161
 20
19.9046741802
 10
278.4181682082
 20
19.8634615954
 10
277.9110425097
 20
19.9268217087
 10
277.4506326415
 20
20.0935737755
 10
277.045515158
 20
20.3606114508
 10
276.7032366499
 20
20.7229607891
 10
276.4301731453
 20
21.1738717038
 10
276.2314112419
 20
21.7049445952
 10
276.1106536062
 20
22.3062865392
 10
276.070149497
 20
22.9666956113
  0
LWPOLYLINE
  5
262
330
1F
100
AcDbEntity
  8
0
  6
Continuous
 62
     7
370
    15
100
AcDbPolyline
 90
       25
 70
   128
 43
0.0
 10
275.9287280517
 20
22.9666954212
 10
275.9681603798
 20
23.6696732186
 10
276.0857537091
 20
24.405633988
 10
276.2794092584
 20
25.1614441619
 10
276.5456716446
 20
25.9236168749
 10
276.8797894691
 20
26.6785506483
 10
277.2757999406
 20
27.4127738712
 10
277.7266365473
 20
28.113184241
 10
278.2242541802
 20
28.7672833543
 10
278.7597725313
 20
29.3633978935
 10
279.3236354612
 20
29.89089102
 10
279.9057808626
 20
30.3403490285
 10
280.4958202267
 20
30.7037519294
 10
281.083224322
 20
30.9746140988
 10
281.6575109413
 20
31.1481025489
 10
282.2084318253
 20
31.2211208817
 10
282.7261559745
 20
31.1923668241
 10
283.2014443388
 20
31.0623524642
 10
283.6258156881
 20
30.8333988651
 10
283.9916967606
 20
30.5095913737
 10
284.2925587459
 20
30.0967082195
 10
284.5230325308
 20
29.6021172707
 10
284.6790051756
 20
29.0346446555
 10
284.757693671
 20
28.4044169827
 10
284.7675629483
 20
28.0692461961
  0
LWPOLYLINE
  5
263
330
1F
100
AcDbEntity
  8
0
  6
Continuous
 62
     7
370
    15
100
AcDbPolyline
 90
       13
 70
   128
 43
0.0
 10
280.3488637796
 20
20.4150053123
 10
279.9057808626
 20
20.18484925
 10
279.3236354612
 20
19.9621764848
 10
278.7597725313
 20
19.8386473298
 10
278.2242541802
 20
19.8164655416
 10
277.7266365473
 20
19.8960275654
 10
277.2757999406
 20
20.0759130687
 10
276.8797894691
 20
20.3529123335
 10
276.5456716446
 20
20.722081878
 10
276.2794092584
 20
21.1768345835
 10
276.0857537091
 20
21.7090548194
 10
275.9681603798
 20
22.3092452207
 10
275.9287280517
 20
22.9666954212
  0
SPLINE
  5
264
330
1F
100
AcDbEntity
  8
0
  6
Continuous
 62
     7
370
    15
100
AcDbSpline
210
0.0
220
0.0
230
1.0
 70
     8
 71
     3
 72
    38
 73
    34
 74
     0
 42
0.000000001
 43
0.00000001
 40
0.0
 40
0.0
 40
0.0
 40
0.0
 40
0.0625
 40
0.0625
 40
0.125
 40
0.125
 40
0.1875000000000001
 40
0.1875000000000001
 40
0.25
 40
0.25
 40
0.3125
 40
0.3125
 40
0.3749999999999999
 40
0.3749999999999999
 40
0.4374999999999999
 40
0.4374999999999999
 40
0.4999999999999999
 40
0.4999999999999999
 40
0.5624999999999999
 40
0.5624999999999999
 40
0.6249999999999999
 40
0.6249999999999999
 40
0.6874999999999999
 40
0.6874999999999999
 40
0.7499999999999999
 40
0.7499999999999999
 40
0.8125
 40
0.8125
 40
0.875
 40
0.875
 40
0.9375
 40
0.9375
 40
1.0
 40
1.0
 40
1.0
 40
1.0
 10
279.2256128505546
 20
31.26937518790775
 30
0.0
 10
279.1413307722102
 20
31.2207201797305
 30
0.0
 10
279.0466306664046
 20
31.17504812184692
 30
0.0
 10
278.8407451971994
 20
31.09219539548251
 30
0.0
 10
278.7322728335117
 20
31.05598931921538
 30
0.0
 10
278.5050655754969
 20
30.99403903871305
 30
0.0
 10
278.3870118494035
 20
30.96865254987783
 30
0.0
 10
278.1509941292969
 20
30.93096560074877
 30
0.0
 10
278.0306724318902
 20
30.91829602298674
 30
0.0
 10
277.7939581047464
 20
30.90670763189096
 30
0.0
 10
277.677683608648
 20
30.90764036592381
 30
0.0
 10
277.4488618216463
 20
30.92346445144285
 30
0.0
 10
277.3364063957721
 20
30.93853072579079
 30
0.0
 10
277.1228893974867
 20
30.98227642501945
 30
0.0
 10
277.0207490201785
 20
31.01099510632704
 30
0.0
 10
276.8256672303846
 20
31.0828892484786
 30
0.0
 10
276.7339009646246
 20
31.12578009083888
 30
0.0
 10
276.5658550623893
 20
31.22321289336879
 30
0.0
 10
276.488853105455
 20
31.27800848589515
 30
0.0
 10
276.3494152388378
 20
31.39995283404327
 30
0.0
 10
276.2881719739348
 20
31.46621451493893
 30
0.0
 10
276.1847629331405
 20
31.60594020245797
 30
0.0
 10
276.1421522222985
 20
31.67977394753629
 30
0.0
 10
276.0764686787389
 20
31.83492267093094
 30
0.0
 10
276.0541575256391
 20
31.91475154622335
 30
0.0
 10
276.0318150358448
 20
32.07490584423147
 30
0.0
 10
276.0315593325296
 20
32.1556783982989
 30
0.0
 10
276.0558404485367
 20
32.31745661761891
 30
0.0
 10
276.0801205446642
 20
32.3959055426505
 30
0.0
 10
276.153270855733
 20
32.54459416474545
 30
0.0
 10
276.202888796203
 20
32.61591161908634
 30
0.0
 10
276.3275685526617
 20
32.74542814422936
 30
0.0
 10
276.40098716669
 20
32.80233492268451
 30
0.0
 10
276.4855740734567
 20
32.85116590456425
 30
0.0
  0
SPLINE
  5
265
330
1F
100
AcDbEntity
  8
0
  6
Continuous
 62
     7
370
    15
100
AcDbSpline
210
0.0
220
0.0
230
1.0
 70
     8
 71
     3
 72
    34
 73
    30
 74
     0
 42
0.000000001
 43
0.00000001
 40
0.0
 40
0.0
 40
0.0
 40
0.0
 40
0.0625000000000004
 40
0.0625000000000004
 40
0.1250000000000007
 40
0.1250000000000007
 40
0.2500000000000007
 40
0.2500000000000007
 40
0.3750000000000006
 40
0.3750000000000006
 40
0.4375000000000006
 40
0.4375000000000006
 40
0.5000000000000004
 40
0.5000000000000004
 40
0.5625000000000004
 40
0.5625000000000004
 40
0.6250000000000004
 40
0.6250000000000004
 40
0.6875000000000003
 40
0.6875000000000003
 40
0.7500000000000002
 40
0.7500000000000002
 40
0.8125000000000002
 40
0.8125000000000002
 40
0.8750000000000001
 40
0.8750000000000001
 40
0.9375000000000001
 40
0.9375000000000001
 40
1.0
 40
1.0
 40
1.0
 40
1.0
 10
276.4855740734567
 20
32.85116590456425
 30
0.0
 10
276.570191465069
 20
32.90001448497076
 30
0.0
 10
276.6666315041584
 20
32.94055851903072
 30
0.0
 10
276.8710401532437
 20
33.00102116503935
 30
0.0
 10
276.9815809792203
 20
33.02186539581789
 30
0.0
 10
277.323197896803
 20
33.05643812924868
 30
0.0
 10
277.5650682505088
 20
33.04295997962218
 30
0.0
 10
278.0418979462497
 20
32.96499165017863
 30
0.0
 10
278.2688557752114
 20
32.90298841742028
 30
0.0
 10
278.5922417965987
 20
32.78640558624001
 30
0.0
 10
278.6942257077402
 20
32.74450485854091
 30
0.0
 10
278.8871455635129
 20
32.65570671334048
 30
0.0
 10
278.9785184875927
 20
32.60855189832667
 30
0.0
 10
279.1479682962396
 20
32.51031574924068
 30
0.0
 10
279.2246163595991
 20
32.46012249174486
 30
0.0
 10
279.3622036694196
 20
32.35738265064364
 30
0.0
 10
279.4234711945432
 20
32.30449984063495
 30
0.0
 10
279.5276667607486
 20
32.19695713538869
 30
0.0
 10
279.5698979130631
 20
32.14314819951009
 30
0.0
 10
279.6345689316028
 20
32.03428544969447
 30
0.0
 10
279.657110825831
 20
31.97878081675153
 30
0.0
 10
279.6795280113874
 20
31.86698346840107
 30
0.0
 10
279.6794164585583
 20
31.81156150454088
 30
0.0
 10
279.6555300935128
 20
31.70018689898155
 30
0.0
 10
279.6312349965558
 20
31.6434755977531
 30
0.0
 10
279.5572840336507
 20
31.53188484910605
 30
0.0
 10
279.5083512650764
 20
31.47751223638345
 30
0.0
 10
279.3852524966329
 20
31.37081367965245
 30
0.0
 10
279.3099253038854
 20
31.31804773119143
 30
0.0
 10
279.2256128505546
 20
31.26937518790775
 30
0.0
  0
LWPOLYLINE
  5
266
330
1F
100
AcDbEntity
  8
0
  6
Continuous
 62
     7
370
    15
100
AcDbPolyline
 90
       43
 70
   128
 43
0.0
 10
276.7949337043
 20
23.3851046281
 10
276.8354101547
 20
24.0321790369
 10
276.9559346656
 20
24.7115315767
 10
277.1538147779
 20
25.4079866552
 10
277.4246309994
 20
26.1059868995
 10
277.762333117
 20
26.7899399661
 10
278.1593775034
 20
27.4445675324
 10
278.6068948812
 20
28.0552461591
 10
279.094888627
 20
28.6083343174
 10
279.6124575243
 20
29.0914772193
 10
280.1480400012
 20
29.4938818444
 10
280.6896721148
 20
29.806559408
 10
281.2252545917
 20
30.0225251484
 10
281.742823489
 20
30.1369545757
 10
282.2308172348
 20
30.1472920034
 10
282.6783346126
 20
30.053305943
 10
283.075378999
 20
29.8570960675
 10
283.4130811166
 20
29.5630455666
 10
283.6838973381
 20
29.177723076
 10
283.8817774504
 20
28.7097355122
 10
284.0023019613
 20
28.1695376107
 10
284.0427784117
 20
27.5691963168
 10
284.0023019613
 20
26.922121908
 10
283.8817774504
 20
26.2427693682
 10
283.6838973381
 20
25.5463142897
 10
283.4130811166
 20
24.8483140454
 10
283.075378999
 20
24.1643609788
 10
282.6783346126
 20
23.5097334124
 10
282.2308172348
 20
22.8990547858
 10
281.742823489
 20
22.3459666275
 10
281.2252545917
 20
21.8628237256
 10
280.6896721148
 20
21.4604191005
 10
280.1480400012
 20
21.1477415368
 10
279.6124575243
 20
20.9317757965
 10
279.094888627
 20
20.8173463692
 10
278.6068948812
 20
20.8070089415
 10
278.1593775034
 20
20.9009950018
 10
277.762333117
 20
21.0972048774
 10
277.4246309994
 20
21.3912553783
 10
277.1538147779
 20
21.7765778688
 10
276.9559346656
 20
22.2445654327
 10
276.8354101547
 20
22.7847633342
 10
276.7949337043
 20
23.3851046281
  0
LINE
  5
267
330
1F
100
AcDbEntity
  8
0
  6
Continuous
 62
     7
370
    15
100
AcDbLine
 10
259.4681153517
 20
29.9111740337
 30
0.0
 11
258.8776047475
 21
30.2520685493
 31
0.0
  0
SPLINE
  5
268
330
1F
100
AcDbEntity
  8
0
  6
Continuous
 62
     7
370
    15
100
AcDbSpline
210
0.0
220
0.0
230
1.0
 70
     8
 71
     3
 72
    14
 73
    10
 74
     0
 42
0.000000001
 43
0.00000001
 40
0.0
 40
0.0
 40
0.0
 40
0.0
 40
0.1132780729633204
 40
0.2879182310292658
 40
0.4625882932876478
 40
0.6368964127131157
 40
0.8109677460469529
 40
0.9852944107951284
 40
0.9999999999999999
 40
0.9999999999999999
 40
0.9999999999999999
 40
0.9999999999999999
 10
266.2623401139481
 20
41.36383441350536
 30
0.0
 10
266.1927895458225
 20
41.36718441021797
 30
0.0
 10
266.0160132640766
 20
41.37569907772788
 30
0.0
 10
265.7211806017923
 20
41.29055391614232
 30
0.0
 10
265.4285228242273
 20
41.12711469355489
 30
0.0
 10
265.2030237945186
 20
40.8964404078622
 30
0.0
 10
265.0837708172728
 20
40.63365677652038
 30
0.0
 10
265.0499488349407
 20
40.43783236328167
 30
0.0
 10
265.0820730425538
 20
40.35125336579934
 30
0.0
 10
265.0845721155469
 20
40.34451803283832
 30
0.0
  0
SPLINE
  5
269
330
1F
100
AcDbEntity
  8
0
  6
Continuous
 62
     7
370
    15
100
AcDbSpline
210
0.0
220
0.0
230
1.0
 70
     8
 71
     3
 72
    12
 73
     8
 74
     0
 42
0.000000001
 43
0.00000001
 40
0.0
 40
0.0
 40
0.0
 40
0.0
 40
0.2500000000000015
 40
0.2500000000000015
 40
0.500000000000003
 40
0.500000000000003
 40
1.0
 40
1.0
 40
1.0
 40
1.0
 10
258.8776048171317
 20
30.25206853678451
 30
0.0
 10
258.8399860821724
 20
30.2737853702207
 30
0.0
 10
258.7939936737851
 20
30.29104110420335
 30
0.0
 10
258.6943925438092
 20
30.31333489203117
 30
0.0
 10
258.6396418185551
 20
30.31854067661061
 30
0.0
 10
258.4801359197358
 20
30.31553877718349
 30
0.0
 10
258.3751331145182
 20
30.28856104192428
 30
0.0
 10
258.2998202183263
 20
30.24508383239099
 30
0.0
  0
SPLINE
  5
26A
330
1F
100
AcDbEntity
  8
0
  6
Continuous
 62
     7
370
    15
100
AcDbSpline
210
0.0
220
0.0
230
1.0
 70
     8
 71
     3
 72
    10
 73
     6
 74
     0
 42
0.000000001
 43
0.00000001
 40
0.0
 40
0.0
 40
0.0
 40
0.0
 40
0.5
 40
0.5
 40
1.0
 40
1.0
 40
1.0
 40
1.0
 10
255.303983505343
 20
31.19256031334365
 30
0.0
 10
255.3112461869916
 20
31.19655691883148
 30
0.0
 10
255.3230398509573
 20
31.19673869721665
 30
0.0
 10
255.3570988617245
 20
31.1870170677069
 30
0.0
 10
255.3792713492768
 20
31.17705341093119
 30
0.0
 10
255.4056276159403
 20
31.16183826204989
 30
0.0
  0
LINE
  5
26B
330
1F
100
AcDbEntity
  8
0
  6
Continuous
 62
     7
370
    15
100
AcDbLine
 10
258.2998201867
 20
30.2450840724
 30
0.0
 11
258.2415732421
 21
30.211458827
 31
0.0
  0
ARC
  5
26C
330
1F
100
AcDbEntity
  8
0
  6
Continuous
 62
     7
370
    15
100
AcDbCircle
 10
281.265362246
 20
23.8739138413
 30
0.0
 40
4.342147436750087
100
AcDbArc
 50
152.8222845666
 51
207.1777154334
  0
SPLINE
  5
26D
330
1F
100
AcDbEntity
  8
0
  6
Continuous
 62
     7
370
    15
100
AcDbSpline
210
0.0
220
0.0
230
1.0
 70
     8
 71
     3
 72
    22
 73
    18
 74
     0
 42
0.000000001
 43
0.00000001
 40
0.0
 40
0.0
 40
0.0
 40
0.0
 40
0.1250000000000003
 40
0.1250000000000003
 40
0.2500000000000006
 40
0.2500000000000006
 40
0.3750000000000009
 40
0.3750000000000009
 40
0.5000000000000012
 40
0.5000000000000012
 40
0.6250000000000011
 40
0.6250000000000011
 40
0.7500000000000007
 40
0.7500000000000007
 40
0.8750000000000003
 40
0.8750000000000003
 40
1.0
 40
1.0
 40
1.0
 40
1.0
 10
278.351205629424
 20
21.26156170416964
 30
0.0
 10
278.3041679556401
 20
21.21433353422359
 30
0.0
 10
278.255687190459
 20
21.1760936160233
 30
0.0
 10
278.1562306062935
 20
21.11748759102586
 30
0.0
 10
278.1046298730562
 20
21.09708769351012
 30
0.0
 10
278.003190543338
 20
21.0767938246712
 30
0.0
 10
277.9531584221209
 20
21.07652125057713
 30
0.0
 10
277.8547093331211
 20
21.09630471486314
 30
0.0
 10
277.8068185329891
 20
21.11652666541955
 30
0.0
 10
277.7174345286484
 20
21.175746051256
 30
0.0
 10
277.6749493963812
 20
21.21538662606379
 30
0.0
 10
277.5975961569301
 20
21.3121278147045
 30
0.0
 10
277.563040771637
 20
21.36850701939161
 30
0.0
 10
277.5017822254928
 20
21.49690769837288
 30
0.0
 10
277.4752435153731
 20
21.56909190175534
 30
0.0
 10
277.4321368236868
 20
21.72215509903581
 30
0.0
 10
277.4151615478697
 20
21.80380230003237
 30
0.0
 10
277.4026132785787
 20
21.8906295970998
 30
0.0
  0
SPLINE
  5
26E
330
1F
100
AcDbEntity
  8
0
  6
Continuous
 62
     7
370
    15
100
AcDbSpline
210
0.0
220
0.0
230
1.0
 70
     8
 71
     3
 72
     8
 73
     4
 74
     0
 42
0.000000001
 43
0.00000001
 40
0.0
 40
0.0
 40
0.0
 40
0.0
 40
1.0
 40
1.0
 40
1.0
 40
1.0
 10
278.4518501695405
 20
21.36121891620409
 30
0.0
 10
278.4179326188427
 20
21.32810678857818
 30
0.0
 10
278.384394360666
 20
21.29488484524569
 30
0.0
 10
278.351205629424
 20
21.26156170416964
 30
0.0
  0
LWPOLYLINE
  5
26F
330
1F
100
AcDbEntity
  8
0
  6
Continuous
 62
     7
370
    15
100
AcDbPolyline
 90
        9
 70
   128
 43
0.0
 10
282.0676633269
 20
23.4485829473
 10
281.6503672152
 20
22.9379278306
 10
281.2035581843
 20
22.4831115679
 10
280.7367188638
 20
22.0937871083
 10
280.2597569732
 20
21.7782170444
 10
279.7827950827
 20
21.5430986312
 10
279.3159557621
 20
21.3934218843
 10
278.8691467313
 20
21.3323634207
 10
278.4518506196
 20
21.3612187022
  0
SPLINE
  5
270
330
1F
100
AcDbEntity
  8
0
  6
Continuous
 62
     7
370
    15
100
AcDbSpline
210
0.0
220
0.0
230
1.0
 70
     8
 71
     3
 72
     8
 73
     4
 74
     0
 42
0.000000001
 43
0.00000001
 40
0.0
 40
0.0
 40
0.0
 40
0.0
 40
1.0
 40
1.0
 40
1.0
 40
1.0
 10
282.24029292595
 20
23.50668401168208
 30
0.0
 10
282.1825615206373
 20
23.48752198349741
 30
0.0
 10
282.1250130294754
 20
23.46816063039846
 30
0.0
 10
282.0676628665393
 20
23.44858315538428
 30
0.0
  0
SPLINE
  5
271
330
1F
100
AcDbEntity
  8
0
  6
Continuous
 62
     7
370
    15
100
AcDbSpline
210
0.0
220
0.0
230
1.0
 70
     8
 71
     3
 72
    22
 73
    18
 74
     0
 42
0.000000001
 43
0.00000001
 40
0.0
 40
0.0
 40
0.0
 40
0.0
 40
0.1249999999999998
 40
0.1249999999999998
 40
0.2499999999999996
 40
0.2499999999999996
 40
0.3749999999999993
 40
0.3749999999999993
 40
0.4999999999999991
 40
0.4999999999999991
 40
0.6249999999999993
 40
0.6249999999999993
 40
0.7499999999999996
 40
0.7499999999999996
 40
0.8749999999999998
 40
0.8749999999999998
 40
1.0
 40
1.0
 40
1.0
 40
1.0
 10
283.1960440613146
 20
25.23510599879137
 30
0.0
 10
283.2177757152779
 20
25.15357798437304
 30
0.0
 10
283.2309470548647
 20
25.06966052069876
 30
0.0
 10
283.2404514720973
 20
24.89692990061366
 30
0.0
 10
283.2365475215397
 20
24.80702289587741
 30
0.0
 10
283.2114124865639
 20
24.62910889543238
 30
0.0
 10
283.1904319400288
 20
24.54076127147048
 30
0.0
 10
283.1312424924787
 20
24.3652535016265
 30
0.0
 10
283.0931356605612
 20
24.27906619321864
 30
0.0
 10
283.0030933520518
 20
24.11626333009639
 30
0.0
 10
282.9501606854386
 20
24.03784539199991
 30
0.0
 10
282.8322409584708
 20
23.89313026450473
 30
0.0
 10
282.7679727444541
 20
23.82737875272262
 30
0.0
 10
282.6289641128272
 20
23.70883521307152
 30
0.0
 10
282.5541990443371
 20
23.65636681725078
 30
0.0
 10
282.4011913158055
 20
23.56925917393994
 30
0.0
 10
282.3221015413894
 20
23.53383767243759
 30
0.0
 10
282.24029292595
 20
23.50668401168209
 30
0.0
  0
ARC
  5
272
330
1F
100
AcDbEntity
  8
0
  6
Continuous
 62
     7
370
    15
100
AcDbCircle
 10
279.3332955794
 20
27.2183902081
 30
0.0
 40
4.342147436749482
100
AcDbArc
 50
332.8222845666
 51
27.1777154334
  0
SPLINE
  5
273
330
1F
100
AcDbEntity
  8
0
  6
Continuous
 62
     7
370
    15
100
AcDbSpline
210
0.0
220
0.0
230
1.0
 70
     8
 71
     3
 72
    22
 73
    18
 74
     0
 42
0.000000001
 43
0.00000001
 40
0.0
 40
0.0
 40
0.0
 40
0.0
 40
0.1249999999999999
 40
0.1249999999999999
 40
0.2499999999999998
 40
0.2499999999999998
 40
0.3749999999999998
 40
0.3749999999999998
 40
0.4999999999999997
 40
0.4999999999999997
 40
0.6249999999999996
 40
0.6249999999999996
 40
0.7499999999999997
 40
0.7499999999999997
 40
0.8749999999999999
 40
0.8749999999999999
 40
1.0
 40
1.0
 40
1.0
 40
1.0
 10
282.24029292595
 20
29.83487530379665
 30
0.0
 10
282.3221033801781
 20
29.86202957487718
 30
0.0
 10
282.4012621576478
 20
29.8825594535521
 30
0.0
 10
282.5545159445211
 20
29.91010901448173
 30
0.0
 10
282.629420677738
 20
29.91705579916679
 30
0.0
 10
282.7680976902152
 20
29.91585281132245
 30
0.0
 10
282.8322846511033
 20
29.90795397040791
 30
0.0
 10
282.9501572355219
 20
29.8769575608908
 30
0.0
 10
283.0031018628214
 20
29.85381809801163
 30
0.0
 10
283.093139338873
 20
29.79422147098629
 30
0.0
 10
283.1312371843923
 20
29.75711362290744
 30
0.0
 10
283.190448135629
 20
29.67084575432206
 30
0.0
 10
283.2114570331447
 20
29.62228677057073
 30
0.0
 10
283.2365994901139
 20
29.5147354660788
 30
0.0
 10
283.2404462262476
 20
29.45565106044146
 30
0.0
 10
283.2309297542341
 20
29.33296656893587
 30
0.0
 10
283.2177752134195
 20
29.26871294084819
 30
0.0
 10
283.1960440613146
 20
29.20167473253003
 30
0.0
  0
SPLINE
  5
274
330
1F
100
AcDbEntity
  8
0
  6
Continuous
 62
     7
370
    15
100
AcDbSpline
210
0.0
220
0.0
230
1.0
 70
     8
 71
     3
 72
     8
 73
     4
 74
     0
 42
0.000000001
 43
0.00000001
 40
0.0
 40
0.0
 40
0.0
 40
0.0
 40
1.0
 40
1.0
 40
1.0
 40
1.0
 10
282.0676628665393
 20
29.77677444749884
 30
0.0
 10
282.1250209688038
 20
29.79635463274079
 30
0.0
 10
282.1825692980632
 20
29.81571585707095
 30
0.0
 10
282.24029292595
 20
29.83487530379665
 30
0.0
  0
LWPOLYLINE
  5
275
330
1F
100
AcDbEntity
  8
0
  6
Continuous
 62
     7
370
    15
100
AcDbPolyline
 90
        9
 70
   128
 43
0.0
 10
278.4518506196
 20
27.6894098909
 10
278.8691467313
 20
28.2000650075
 10
279.3159557621
 20
28.6548812702
 10
279.7827950827
 20
29.0442057299
 10
280.2597569732
 20
29.3597757937
 10
280.7367188638
 20
29.5948942069
 10
281.2035581843
 20
29.7445709539
 10
281.6503672152
 20
29.8056294175
 10
282.0676633269
 20
29.776774136
  0
SPLINE
  5
276
330
1F
100
AcDbEntity
  8
0
  6
Continuous
 62
     7
370
    15
100
AcDbSpline
210
0.0
220
0.0
230
1.0
 70
     8
 71
     3
 72
     8
 73
     4
 74
     0
 42
0.000000001
 43
0.00000001
 40
0.0
 40
0.0
 40
0.0
 40
0.0
 40
1.0
 40
1.0
 40
1.0
 40
1.0
 10
278.351205629424
 20
27.5897529962842
 30
0.0
 10
278.3843988323686
 20
27.62308062717265
 30
0.0
 10
278.4179373136035
 20
27.65630266396948
 30
0.0
 10
278.4518501695405
 20
27.68941020831865
 30
0.0
  0
SPLINE
  5
277
330
1F
100
AcDbEntity
  8
0
  6
Continuous
 62
     7
370
    15
100
AcDbSpline
210
0.0
220
0.0
230
1.0
 70
     8
 71
     3
 72
    22
 73
    18
 74
     0
 42
0.000000001
 43
0.00000001
 40
0.0
 40
0.0
 40
0.0
 40
0.0
 40
0.125
 40
0.125
 40
0.25
 40
0.25
 40
0.375
 40
0.375
 40
0.5
 40
0.5
 40
0.625
 40
0.625
 40
0.75
 40
0.75
 40
0.875
 40
0.875
 40
1.0
 40
1.0
 40
1.0
 40
1.0
 10
277.4026132785787
 20
25.85719833083846
 30
0.0
 10
277.4151618376588
 20
25.91893679949916
 30
0.0
 10
277.4321470790132
 20
25.98544523955753
 30
0.0
 10
277.4753355502053
 20
26.12775690264084
 30
0.0
 10
277.5019516913165
 20
26.20455243885588
 30
0.0
 10
277.5631062959701
 20
26.36167278433136
 30
0.0
 10
277.597618196537
 20
26.44220892388278
 30
0.0
 10
277.6749415800698
 20
26.60724819531223
 30
0.0
 10
277.7174385960706
 20
26.69090110439496
 30
0.0
 10
277.8068265661263
 20
26.85408170906608
 30
0.0
 10
277.85470727674
 20
26.93541607928313
 30
0.0
 10
277.9531940895876
 20
27.09134958930991
 30
0.0
 10
278.0032906617536
 20
27.16528221579253
 30
0.0
 10
278.1049550809449
 20
27.3053841104001
 30
0.0
 10
278.156441182688
 20
27.37129116767399
 30
0.0
 10
278.2557282331958
 20
27.48941109829289
 30
0.0
 10
278.3041690128686
 20
27.54252588784828
 30
0.0
 10
278.351205629424
 20
27.5897529962842
 30
0.0
  0
LWPOLYLINE
  5
278
330
1F
100
AcDbEntity
  8
0
  6
Continuous
 62
     7
370
    15
100
AcDbPolyline
 90
       25
 70
   128
 43
0.0
 10
280.5851819279
 20
29.4120271113
 10
280.709903096
 20
29.4060387878
 10
281.0807721492
 20
29.3202618921
 10
281.4009131897
 20
29.1353883236
 10
281.6605985273
 20
28.857035584
 10
281.8519379755
 20
28.4936610461
 10
281.9691175743
 20
28.0563056557
 10
282.0085772319
 20
27.5582584557
 10
281.9691175743
 20
27.0146521047
 10
281.8519379755
 20
26.4420040294
 10
281.6605985273
 20
25.8577136669
 10
281.4009131897
 20
25.2795346185
 10
281.0807721492
 20
24.7250340724
 10
280.709903096
 20
24.2110608823
 10
280.2995743852
 20
23.753231427
 10
279.8622537459
 20
23.3654569201
 10
279.4112289601
 20
23.0595192972
 10
278.9602041743
 20
22.8447147867
 10
278.5228835351
 20
22.7275696311
 10
278.1125548242
 20
22.711643641
 10
277.741685771
 20
22.7974205367
 10
277.4215447306
 20
22.9822941051
 10
277.161859393
 20
23.2606468448
 10
276.9705199448
 20
23.6240213827
 10
276.9389040461
 20
23.7122540144
  0
LINE
  5
279
330
1F
100
AcDbEntity
  8
0
  6
Continuous
 62
     7
370
    15
100
AcDbLine
 10
277.4666853224
 20
21.7721844724
 30
0.0
 11
278.7096681603
 21
22.489743191
 31
0.0
  0
LINE
  5
27A
330
1F
100
AcDbEntity
  8
0
  6
Continuous
 62
     7
370
    15
100
AcDbLine
 10
282.3079443213
 20
29.7143637663
 30
0.0
 11
282.3097082327
 21
29.8348007705
 31
0.0
  0
ARC
  5
27B
330
1F
100
AcDbEntity
  8
0
  6
Continuous
 62
     7
370
    15
100
AcDbCircle
 10
278.4451956269
 20
27.7310793978
 30
0.0
 40
4.342147436749887
100
AcDbArc
 50
332.8222845666
 51
27.1777154334
  0
ARC
  5
27C
330
1F
100
AcDbEntity
  8
0
  6
Continuous
 62
     7
370
    15
100
AcDbCircle
 10
280.2584748601
 20
25.7482784546
 30
0.0
 40
2.049469518178414
100
AcDbArc
 50
302.3714316784
 51
359.9864851711
  0
LINE
  5
27D
330
1F
100
AcDbEntity
  8
0
  6
Continuous
 62
     7
370
    15
100
AcDbLine
 10
280.11278976
 20
23.2997480491
 30
0.0
 11
281.3557725979
 21
24.0173067677
 31
0.0
  0
ARC
  5
27E
330
1F
100
AcDbEntity
  8
0
  6
Continuous
 62
     7
370
    15
100
AcDbCircle
 10
277.5849411367
 20
26.0583116985
 30
0.0
 40
3.741616237729538
100
AcDbArc
 50
287.4935988326
 51
312.5010246347
  0
LINE
  5
27F
330
1F
100
AcDbEntity
  8
0
  6
Continuous
 62
     7
370
    15
100
AcDbLine
 10
260.993413092
 20
27.7751699328
 30
0.0
 11
259.2662303009
 21
28.7722513346
 31
0.0
  0
SPLINE
  5
280
330
1F
100
AcDbEntity
  8
0
  6
Continuous
 62
     7
370
    15
100
AcDbSpline
210
0.0
220
0.0
230
1.0
 70
     8
 71
     3
 72
     8
 73
     4
 74
     0
 42
0.000000001
 43
0.00000001
 40
0.0
 40
0.0
 40
0.0
 40
0.0
 40
0.0011901715795577
 40
0.0011901715795577
 40
0.0011901715795577
 40
0.0011901715795577
 10
259.2662303906032
 20
28.77225125614342
 30
0.0
 10
259.2540689237845
 20
28.83300151185425
 30
0.0
 10
259.2425854768285
 20
28.8932651859843
 30
0.0
 10
259.231724653186
 20
28.95307945720105
 30
0.0
  0
LINE
  5
281
330
1F
100
AcDbEntity
  8
0
  6
Continuous
 62
     7
370
    15
100
AcDbLine
 10
281.8775293444
 20
29.6670121242
 30
0.0
 11
282.0676633269
 21
29.776774136
 31
0.0
  0
ARC
  5
282
330
1F
100
AcDbEntity
  8
0
  6
Continuous
 62
     7
370
    15
100
AcDbCircle
 10
282.0860339878
 20
25.5695446585
 30
0.0
 40
4.102769042838206
100
AcDbArc
 50
92.9130531898
 51
147.0815702775
  0
LINE
  5
283
330
1F
100
AcDbEntity
  8
0
  6
Continuous
 62
     7
370
    15
100
AcDbLine
 10
278.4518506196
 20
27.6894098909
 30
0.0
 11
278.6419846021
 21
27.7991719026
 31
0.0
  0
LINE
  5
284
330
1F
100
AcDbEntity
  8
0
  6
Continuous
 62
     7
370
    15
100
AcDbLine
 10
281.3892375249
 20
29.6334677599
 30
0.0
 11
281.8775293444
 21
29.6670121242
 31
0.0
  0
LWPOLYLINE
  5
285
330
1F
100
AcDbEntity
  8
0
  6
Continuous
 62
     7
370
    15
100
AcDbPolyline
 90
       23
 70
   128
 43
0.0
 10
280.4869908015
 20
29.3652289024
 10
280.562496469
 20
29.3534982838
 10
280.9093887398
 20
29.2343042407
 10
281.2013108189
 20
29.0169843685
 10
281.4288800932
 20
28.7085231637
 10
281.5847822737
 20
28.318835182
 10
281.6640066597
 20
27.860445171
 10
281.6640066597
 20
27.3480861022
 10
281.5847822737
 20
26.7982255621
 10
281.4288800932
 20
26.2285367543
 10
281.2013108189
 20
25.657329658
 10
280.9093887398
 20
25.1029637276
 10
280.562496469
 20
24.5832563937
 10
280.1717833295
 20
24.1149116033
 10
279.7498071889
 20
23.712982349
 10
279.310130761
 20
23.3903868564
 10
278.8668855776
 20
23.1574937506
 10
278.4343179422
 20
23.0217884579
 10
278.026330851
 20
22.9876323366
 10
277.656037448
 20
23.0561237142
 10
277.3353391142
 20
23.2250605993
 10
277.0745436352
 20
23.4890138882
 10
276.9333498817
 20
23.7235319341
  0
ARC
  5
286
330
1F
100
AcDbEntity
  8
0
  6
Continuous
 62
     7
370
    15
100
AcDbCircle
 10
268.244181631
 20
29.1970294255
 30
0.0
 40
10.35662567655385
100
AcDbArc
 50
174.7084071246
 51
187.155453746
  0
LINE
  5
287
330
1F
100
AcDbEntity
  8
0
  6
Continuous
 62
     7
370
    15
100
AcDbLine
 10
257.9682149565
 20
30.1663167364
 30
0.0
 11
257.9682149565
 21
27.9069889962
 31
0.0
  0
LINE
  5
288
330
1F
100
AcDbEntity
  8
0
  6
Continuous
 62
     7
370
    15
100
AcDbLine
 10
257.9682149565
 20
27.9069889962
 30
0.0
 11
257.9682149565
 21
26.4411810889
 31
0.0
  0
LINE
  5
289
330
1F
100
AcDbEntity
  8
0
  6
Continuous
 62
     7
370
    15
100
AcDbLine
 10
255.7431451055
 20
30.8060851265
 30
0.0
 11
255.3039834228
 21
31.1925602458
 31
0.0
  0
LINE
  5
28A
330
1F
100
AcDbEntity
  8
0
  6
Continuous
 62
     7
370
    15
100
AcDbLine
 10
257.0990966439
 20
30.0233109653
 30
0.0
 11
255.7431451055
 21
30.8060851265
 31
0.0
  0
LINE
  5
28B
330
1F
100
AcDbEntity
  8
0
  6
Continuous
 62
     7
370
    15
100
AcDbLine
 10
256.9694269254
 20
29.9418826381
 30
0.0
 11
256.9701183971
 21
30.062666918
 31
0.0
  0
ARC
  5
28C
330
1F
100
AcDbEntity
  8
0
  6
Continuous
 62
     7
370
    15
100
AcDbCircle
 10
263.7425345591
 20
29.6403143962
 30
0.0
 40
6.779817875307782
100
AcDbArc
 50
177.4506261827
 51
211.1387319524
  0
LINE
  5
28D
330
1F
100
AcDbEntity
  8
0
  6
Continuous
 62
     7
370
    15
100
AcDbLine
 10
282.3079443213
 20
29.7143637663
 30
0.0
 11
283.1960442738
 21
29.2016745766
 31
0.0
  0
LINE
  5
28E
330
1F
100
AcDbEntity
  8
0
  6
Continuous
 62
     7
370
    15
100
AcDbLine
 10
243.6355348169
 20
53.7986452857
 30
0.0
 11
243.7624185629
 21
53.7573242751
 31
0.0
  0
LINE
  5
28F
330
1F
100
AcDbEntity
  8
0
  6
Continuous
 62
     7
370
    15
100
AcDbLine
 10
237.5976365682
 20
43.0784516298
 30
0.0
 11
237.5630251153
 21
43.1083169244
 31
0.0
  0
LINE
  5
290
330
1F
100
AcDbEntity
  8
0
  6
Continuous
 62
     7
370
    15
100
AcDbLine
 10
259.2662303009
 20
22.199097558
 30
0.0
 11
260.993413092
 21
21.2020161562
 31
0.0
  0
SPLINE
  5
291
330
1F
100
AcDbEntity
  8
0
  6
Continuous
 62
     7
370
    15
100
AcDbSpline
210
0.0
220
0.0
230
1.0
 70
     8
 71
     3
 72
    14
 73
    10
 74
     0
 42
0.000000001
 43
0.00000001
 40
0.0
 40
0.0
 40
0.0
 40
0.0
 40
0.25
 40
0.25
 40
0.5
 40
0.5
 40
0.75
 40
0.75
 40
1.0
 40
1.0
 40
1.0
 40
1.0
 10
260.9455179136409
 20
21.07976768632605
 30
0.0
 10
260.9286097161029
 20
21.03661083677691
 30
0.0
 10
260.9080865252218
 20
20.99659486428791
 30
0.0
 10
260.8593030896595
 20
20.92328523730299
 30
0.0
 10
260.8308461112837
 20
20.88999807869691
 30
0.0
 10
260.7674834887755
 20
20.83707523236659
 30
0.0
 10
260.7321644280345
 20
20.81701156594133
 30
0.0
 10
260.6573463509834
 20
20.80025257545929
 30
0.0
 10
260.6189768769188
 20
20.80444947107047
 30
0.0
 10
260.5851847881318
 20
20.82395722869291
 30
0.0
  0
LINE
  5
292
330
1F
100
AcDbEntity
  8
0
  6
Continuous
 62
     7
370
    15
100
AcDbLine
 10
260.5851846442
 20
20.8239573693
 30
0.0
 11
259.2317248736
 21
21.6052930636
 31
0.0
  0
SPLINE
  5
293
330
1F
100
AcDbEntity
  8
0
  6
Continuous
 62
     7
370
    15
100
AcDbSpline
210
0.0
220
0.0
230
1.0
 70
     8
 71
     3
 72
     8
 73
     4
 74
     0
 42
0.000000001
 43
0.00000001
 40
0.0
 40
0.0
 40
0.0
 40
0.0
 40
0.0011901715795577
 40
0.0011901715795577
 40
0.0011901715795577
 40
0.0011901715795577
 10
259.231724653186
 20
21.60529313339476
 30
0.0
 10
259.2425854768285
 20
21.80324832175292
 30
0.0
 10
259.2540689237845
 20
22.0011872342545
 30
0.0
 10
259.2662303906032
 20
22.19909772046313
 30
0.0
  0
LINE
  5
294
330
1F
100
AcDbEntity
  8
0
  6
Continuous
 62
     7
370
    15
100
AcDbLine
 10
278.7096681603
 20
22.489743191
 30
0.0
 11
278.9458235379
 21
22.3534135933
 31
0.0
  0
SPLINE
  5
295
330
1F
100
AcDbEntity
  8
0
  6
Continuous
 62
     7
370
    15
100
AcDbSpline
210
0.0
220
0.0
230
1.0
 70
     8
 71
     3
 72
    10
 73
     6
 74
     0
 42
0.000000001
 43
0.00000001
 40
0.0
 40
0.0
 40
0.0
 40
0.0
 40
0.5
 40
0.5
 40
1.0
 40
1.0
 40
1.0
 40
1.0
 10
278.945823322324
 20
22.35341371210025
 30
0.0
 10
278.8491431922153
 20
22.21352518184131
 30
0.0
 10
278.7824644860116
 20
22.06789974865727
 30
0.0
 10
278.6865269910125
 20
21.7694934074586
 30
0.0
 10
278.6583972951321
 20
21.62022298512154
 30
0.0
 10
278.6419841298468
 20
21.47098091513902
 30
0.0
  0
LINE
  5
296
330
1F
100
AcDbEntity
  8
0
  6
Continuous
 62
     7
370
    15
100
AcDbLine
 10
278.6419846021
 20
21.4709807139
 30
0.0
 11
278.4518506196
 21
21.3612187022
 31
0.0
  0
SPLINE
  5
297
330
1F
100
AcDbEntity
  8
0
  6
Continuous
 62
     7
370
    15
100
AcDbSpline
210
0.0
220
0.0
230
1.0
 70
     8
 71
     3
 72
     9
 73
     5
 74
     0
 42
0.000000001
 43
0.00000001
 40
0.0
 40
0.0
 40
0.0
 40
0.0
 40
0.4729716414108775
 40
0.9999999999999999
 40
0.9999999999999999
 40
0.9999999999999999
 40
0.9999999999999999
 10
282.2334240832732
 20
33.27178470165425
 30
0.0
 10
282.2305039888876
 20
33.27347334908822
 30
0.0
 10
282.2243300576622
 20
33.27704364228579
 30
0.0
 10
282.1905030960826
 20
33.29657862577154
 30
0.0
 10
282.1726753280453
 20
33.30687411605309
 30
0.0
  0
ARC
  5
298
330
1F
100
AcDbEntity
  8
0
  6
Continuous
 62
     7
370
    15
100
AcDbCircle
 10
266.1903278221
 20
21.7749674404
 30
0.0
 40
5.549091920763091
100
AcDbArc
 50
212.4013190339
 51
267.3336417151
  0
ARC
  5
299
330
1F
100
AcDbEntity
  8
0
  6
Continuous
 62
     7
370
    15
100
AcDbCircle
 10
278.4334799586
 20
25.5684481796
 30
0.0
 40
4.102769042837755
100
AcDbArc
 50
272.9130531898
 51
327.0815702775
  0
LINE
  5
29A
330
1F
100
AcDbEntity
  8
0
  6
Continuous
 62
     7
370
    15
100
AcDbLine
 10
282.0676633269
 20
23.4485829473
 30
0.0
 11
281.8775293444
 21
23.3388209355
 31
0.0
  0
SPLINE
  5
29B
330
1F
100
AcDbEntity
  8
0
  6
Continuous
 62
     7
370
    15
100
AcDbSpline
210
0.0
220
0.0
230
1.0
 70
     8
 71
     3
 72
     8
 73
     4
 74
     0
 42
0.000000001
 43
0.00000001
 40
0.0
 40
0.0
 40
0.0
 40
0.0
 40
1.0
 40
1.0
 40
1.0
 40
1.0
 10
259.5921473199605
 20
22.8586353588979
 30
0.0
 10
259.4830737395735
 20
22.63886315883867
 30
0.0
 10
259.3744621741056
 20
22.41901007716901
 30
0.0
 10
259.2662303906032
 20
22.19909772046313
 30
0.0
  0
LINE
  5
29C
330
1F
100
AcDbEntity
  8
0
  6
Continuous
 62
     7
370
    15
100
AcDbLine
 10
259.6503942153
 20
22.8922605049
 30
0.0
 11
259.5921472707
 21
22.8586352595
 31
0.0
  0
SPLINE
  5
29D
330
1F
100
AcDbEntity
  8
0
  6
Continuous
 62
     7
370
    15
100
AcDbSpline
210
0.0
220
0.0
230
1.0
 70
     8
 71
     3
 72
    12
 73
     8
 74
     0
 42
0.000000001
 43
0.00000001
 40
0.0
 40
0.0
 40
0.0
 40
0.0
 40
0.2499999999999986
 40
0.2499999999999986
 40
0.4999999999999971
 40
0.4999999999999971
 40
1.0
 40
1.0
 40
1.0
 40
1.0
 10
259.6624933442487
 20
23.22580849904262
 30
0.0
 10
259.7005309518013
 20
23.20384985560537
 30
0.0
 10
259.730004355713
 20
23.17759291900071
 30
0.0
 10
259.7687980657559
 20
23.1197249097014
 30
0.0
 10
259.7776202687025
 20
23.08894277489227
 30
0.0
 10
259.7725109960157
 20
22.99596279150552
 30
0.0
 10
259.7258872542463
 20
22.93584177957621
 30
0.0
 10
259.6503941703931
 20
22.89226054992028
 30
0.0
  0
LINE
  5
29E
330
1F
100
AcDbEntity
  8
0
  6
Continuous
 62
     7
370
    15
100
AcDbLine
 10
258.8776047475
 20
23.6789147727
 30
0.0
 11
259.6624933243
 21
23.225808242
 31
0.0
  0
SPLINE
  5
29F
330
1F
100
AcDbEntity
  8
0
  6
Continuous
 62
     7
370
    15
100
AcDbSpline
210
0.0
220
0.0
230
1.0
 70
     8
 71
     3
 72
    12
 73
     8
 74
     0
 42
0.000000001
 43
0.00000001
 40
0.0
 40
0.0
 40
0.0
 40
0.0
 40
0.4999999999999984
 40
0.4999999999999984
 40
0.7499999999999992
 40
0.7499999999999992
 40
1.0
 40
1.0
 40
1.0
 40
1.0
 10
258.2998202183268
 20
23.67193029671097
 30
0.0
 10
258.3757510260781
 20
23.71576421899452
 30
0.0
 10
258.4796409855023
 20
23.74242156150372
 30
0.0
 10
258.6403430653345
 20
23.74537742427744
 30
0.0
 10
258.6941278657575
 20
23.7402241526415
 30
0.0
 10
258.7938967512
 20
23.71792565003814
 30
0.0
 10
258.8394489770274
 20
23.70094189874072
 30
0.0
 10
258.8776048171317
 20
23.67891500110422
 30
0.0
  0
LINE
  5
2A0
330
1F
100
AcDbEntity
  8
0
  6
Continuous
 62
     7
370
    15
100
AcDbLine
 10
258.2415732421
 20
23.6383050504
 30
0.0
 11
258.2998201867
 21
23.6719302959
 31
0.0
  0
SPLINE
  5
2A1
330
1F
100
AcDbEntity
  8
0
  6
Continuous
 62
     7
370
    15
100
AcDbSpline
210
0.0
220
0.0
230
1.0
 70
     8
 71
     3
 72
     8
 73
     4
 74
     0
 42
0.000000001
 43
0.00000001
 40
0.0
 40
0.0
 40
0.0
 40
0.0
 40
1.0
 40
1.0
 40
1.0
 40
1.0
 10
257.0990968789143
 20
23.45015726720992
 30
0.0
 10
257.480037529654
 20
23.51263814588295
 30
0.0
 10
257.8608755018939
 20
23.57533826801798
 30
0.0
 10
258.2415733678943
 20
23.63830510568858
 30
0.0
  0
LINE
  5
2A2
330
1F
100
AcDbEntity
  8
0
  6
Continuous
 62
     7
370
    15
100
AcDbLine
 10
255.7431451055
 20
24.23293135
 30
0.0
 11
257.0990966439
 21
23.4501571887
 31
0.0
  0
LINE
  5
2A3
330
1F
100
AcDbEntity
  8
0
  6
Continuous
 62
     7
370
    15
100
AcDbLine
 10
255.7431451055
 20
24.23293135
 30
0.0
 11
257.7560832002
 21
25.3949757772
 31
0.0
  0
ARC
  5
2A4
330
1F
100
AcDbEntity
  8
0
  6
Continuous
 62
     7
370
    15
100
AcDbCircle
 10
277.8210965143
 20
25.9219821009
 30
0.0
 40
3.741616237730516
100
AcDbArc
 50
287.4935988326
 51
312.5010246347
  0
SPLINE
  5
2A5
330
1F
100
AcDbEntity
  8
0
  6
Continuous
 62
     7
370
    15
100
AcDbSpline
210
0.0
220
0.0
230
1.0
 70
     8
 71
     3
 72
    10
 73
     6
 74
     0
 42
0.000000001
 43
0.00000001
 40
0.0
 40
0.0
 40
0.0
 40
0.0
 40
0.5
 40
0.5
 40
1.0
 40
1.0
 40
1.0
 40
1.0
 10
281.877528906233
 20
23.33882115644933
 30
0.0
 10
281.6183617942325
 20
23.3293224253156
 30
0.0
 10
281.3579564269224
 20
23.31286481434997
 30
0.0
 10
280.8444645209553
 20
23.25780120060767
 30
0.0
 10
280.5926213917933
 20
23.2195431530136
 30
0.0
 10
280.3489448423642
 20
23.16341852418226
 30
0.0
  0
LINE
  5
2A6
330
1F
100
AcDbEntity
  8
0
  6
Continuous
 62
     7
370
    15
100
AcDbLine
 10
282.3079443213
 20
25.7477950293
 30
0.0
 11
283.1960442738
 21
25.2351058395
 31
0.0
  0
ARC
  5
2A7
330
1F
100
AcDbEntity
  8
0
  6
Continuous
 62
     7
370
    15
100
AcDbCircle
 10
265.4681776602
 20
23.2084155562
 30
0.0
 40
6.439203761766712
100
AcDbArc
 50
194.4161472332
 51
238.0417156746
  0
ELLIPSE
  5
2A8
330
1F
100
AcDbEntity
  8
0
  6
Continuous
 62
     7
370
    15
100
AcDbEllipse
 10
257.5217686317
 20
26.1834754148
 30
0.0
 11
-6.005970379874270E-5
 21
0.853448961482723
 31
0.0
210
0.0
220
0.0
230
1.0
 40
0.7174342186
 41
3.534193645557633
 42
5.104989972352357
  0
LINE
  5
2A9
330
1F
100
AcDbEntity
  8
0
  6
Continuous
 62
     7
370
    15
100
AcDbLine
 10
280.3489451377
 20
23.1634184514
 30
0.0
 11
280.11278976
 21
23.2997480491
 31
0.0
  0
ARC
  5
2AA
330
1F
100
AcDbEntity
  8
0
  6
Continuous
 62
     7
370
    15
100
AcDbCircle
 10
264.9005982386
 20
25.5021431996
 30
0.0
 40
6.914948051164792
100
AcDbArc
 50
195.6367501838
 51
215.4284682093
  0
ARC
  5
2AB
330
1F
100
AcDbEntity
  8
0
  6
Continuous
 62
     7
370
    15
100
AcDbCircle
 10
262.6033275281
 20
24.4115485646
 30
0.0
 40
6.019569431173158
100
AcDbArc
 50
193.1418706541
 51
253.6915959719
  0
SPLINE
  5
2AC
330
1F
100
AcDbEntity
  8
0
  6
Continuous
 62
     7
370
    15
100
AcDbSpline
210
0.0
220
0.0
230
1.0
 70
     8
 71
     3
 72
     8
 73
     4
 74
     0
 42
0.000000001
 43
0.00000001
 40
0.0
 40
0.0
 40
0.0
 40
0.0
 40
0.0011901715795577
 40
0.0011901715795577
 40
0.0011901715795577
 40
0.0011901715795577
 10
257.0990968789143
 20
23.45015726720992
 30
0.0
 10
256.9802997629994
 20
23.31380623089487
 30
0.0
 10
256.8610565888513
 20
23.17807568475896
 30
0.0
 10
256.7414100813564
 20
23.04292113493953
 30
0.0
  0
LINE
  5
2AD
330
1F
100
AcDbEntity
  8
0
  6
Continuous
 62
     7
370
    15
100
AcDbLine
 10
255.3039834228
 20
23.9793567931
 30
0.0
 11
255.7431451055
 21
24.23293135
 31
0.0
  0
LINE
  5
2AE
330
1F
100
AcDbEntity
  8
0
  6
Continuous
 62
     7
370
    15
100
AcDbLine
 10
256.74141017
 20
23.0429211413
 30
0.0
 11
255.4056277096
 21
23.8140519417
 31
0.0
  0
SPLINE
  5
2AF
330
1F
100
AcDbEntity
  8
0
  6
Continuous
 62
     7
370
    15
100
AcDbSpline
210
0.0
220
0.0
230
1.0
 70
     8
 71
     3
 72
    10
 73
     6
 74
     0
 42
0.000000001
 43
0.00000001
 40
0.0
 40
0.0
 40
0.0
 40
0.0
 40
0.5
 40
0.5
 40
1.0
 40
1.0
 40
1.0
 40
1.0
 10
255.4056276159403
 20
23.81405193824359
 30
0.0
 10
255.3793233635635
 20
23.82923705991636
 30
0.0
 10
255.3571252494449
 20
23.85286671085024
 30
0.0
 10
255.3231133630132
 20
23.91030910366013
 30
0.0
 10
255.3112424826071
 20
23.94394738181075
 30
0.0
 10
255.303983505343
 20
23.97935680505388
 30
0.0
  0
ARC
  5
2B0
330
1F
100
AcDbEntity
  8
0
  6
Continuous
 62
     7
370
    15
100
AcDbCircle
 10
261.1211622526
 20
24.8617103432
 30
0.0
 40
5.694128989071112
100
AcDbArc
 50
212.628075595
 51
239.5306594528
  0
ELLIPSE
  5
2B1
330
1F
100
AcDbEntity
  8
0
  6
Continuous
 62
     7
370
    15
100
AcDbEllipse
 10
257.4025298162
 20
26.1146179347
 30
0.0
 11
0.2600075789209199
 21
0.9705436209909308
 31
0.0
210
0.0
220
0.0
230
1.0
 40
0.5176380889
 41
3.619174351347693
 42
5.189970678142645
  0
SPLINE
  5
2B2
330
1F
100
AcDbEntity
  8
0
  6
Continuous
 62
     7
370
    15
100
AcDbSpline
210
0.0
220
0.0
230
1.0
 70
     8
 71
     3
 72
    12
 73
     8
 74
     0
 42
0.000000001
 43
0.00000001
 40
0.0
 40
0.0
 40
0.0
 40
0.0
 40
0.5000000000000003
 40
0.5000000000000003
 40
0.7500000000000001
 40
0.7500000000000001
 40
1.0
 40
1.0
 40
1.0
 40
1.0
 10
274.8579600530568
 20
46.45422197009562
 30
0.0
 10
274.9204033788815
 20
46.49026973479593
 30
0.0
 10
274.9997399841035
 20
46.51592873485373
 30
0.0
 10
275.1306133474447
 20
46.52771249486021
 30
0.0
 10
275.1753856598156
 20
46.52690222265668
 30
0.0
 10
275.260647575819
 20
46.51335374226933
 30
0.0
 10
275.3000637829373
 20
46.50058913125992
 30
0.0
 10
275.3313034431872
 20
46.48255485926796
 30
0.0
  0
LINE
  5
2B3
330
1F
100
AcDbEntity
  8
0
  6
Continuous
 62
     7
370
    15
100
AcDbLine
 10
275.3313037181
 20
46.4825548129
 30
0.0
 11
276.4829670122
 21
45.8177137448
 31
0.0
  0
SPLINE
  5
2B4
330
1F
100
AcDbEntity
  8
0
  6
Continuous
 62
     7
370
    15
100
AcDbSpline
210
0.0
220
0.0
230
1.0
 70
     8
 71
     3
 72
     9
 73
     5
 74
     0
 42
0.000000001
 43
0.00000001
 40
0.0
 40
0.0
 40
0.0
 40
0.0
 40
0.8664443272572582
 40
1.0
 40
1.0
 40
1.0
 40
1.0
 10
278.0500477551823
 20
44.03739960205713
 30
0.0
 10
278.3692244533083
 20
44.10668959329304
 30
0.0
 10
278.7375997638562
 20
44.18666009925187
 30
0.0
 10
279.1079398612204
 20
44.26352957974298
 30
0.0
 10
279.1574008820674
 20
44.27379593492335
 30
0.0
  0
LINE
  5
2B5
330
1F
100
AcDbEntity
  8
0
  6
Continuous
 62
     7
370
    15
100
AcDbLine
 10
279.1574008821
 20
44.2737959349
 30
0.0
 11
280.5108606527
 21
43.4924602406
 31
0.0
  0
SPLINE
  5
2B6
330
1F
100
AcDbEntity
  8
0
  6
Continuous
 62
     7
370
    15
100
AcDbSpline
210
0.0
220
0.0
230
1.0
 70
     8
 71
     3
 72
    14
 73
    10
 74
     0
 42
0.000000001
 43
0.00000001
 40
0.0
 40
0.0
 40
0.0
 40
0.0
 40
0.25
 40
0.25
 40
0.5
 40
0.5
 40
0.75
 40
0.75
 40
1.0
 40
1.0
 40
1.0
 40
1.0
 10
280.5108606153786
 20
43.49246014971729
 30
0.0
 10
280.5421227035367
 20
43.4744129303695
 30
0.0
 10
280.5643900756328
 20
43.45132361492919
 30
0.0
 10
280.5875434736211
 20
43.40271226166048
 30
0.0
 10
280.5890636436171
 20
43.37671248009536
 30
0.0
 10
280.5756184728462
 20
43.32657955070794
 30
0.0
 10
280.5609189671981
 20
43.30238923559654
 30
0.0
 10
280.5192739722224
 20
43.25743879282395
 30
0.0
 10
280.4929616887048
 20
43.23720488574219
 30
0.0
 10
280.4617812939602
 20
43.21920482699814
 30
0.0
  0
LINE
  5
2B7
330
1F
100
AcDbEntity
  8
0
  6
Continuous
 62
     7
370
    15
100
AcDbLine
 10
274.8579599534
 20
46.4542217667
 30
0.0
 11
274.3500390624
 21
46.1610052776
 31
0.0
  0
SPLINE
  5
2B8
330
1F
100
AcDbEntity
  8
0
  6
Continuous
 62
     7
370
    15
100
AcDbSpline
210
0.0
220
0.0
230
1.0
 70
     8
 71
     3
 72
    10
 73
     6
 74
     0
 42
0.000000001
 43
0.00000001
 40
0.0
 40
0.0
 40
0.0
 40
0.0
 40
0.4052181973123014
 40
0.8115538793086363
 40
1.0
 40
1.0
 40
1.0
 40
1.0
 10
282.1726753280453
 20
40.12336765274152
 30
0.0
 10
282.1909949277396
 20
40.16229408542895
 30
0.0
 10
282.227684647742
 20
40.24025429961643
 30
0.0
 10
282.2417000076952
 20
40.34780825850386
 30
0.0
 10
282.2236089856814
 20
40.40096485409272
 30
0.0
 10
282.2178771645288
 20
40.41780658358514
 30
0.0
  0
LINE
  5
2B9
330
1F
100
AcDbEntity
  8
0
  6
Continuous
 62
     7
370
    15
100
AcDbLine
 10
282.0673114995
 20
33.3677187526
 30
0.0
 11
280.3304668727
 21
34.3703778134
 31
0.0
  0
LWPOLYLINE
  5
2BA
330
1F
100
AcDbEntity
  8
0
  6
Continuous
 62
     7
370
    15
100
AcDbPolyline
 90
        3
 70
   128
 43
0.0
 10
265.2798832457
 20
40.5333785914
 10
265.4443076507
 20
40.7430589773
 10
265.5703583378
 20
40.8506578531
  0
LWPOLYLINE
  5
2BB
330
1F
100
AcDbEntity
  8
0
  6
Continuous
 62
     7
370
    15
100
AcDbPolyline
 90
        3
 70
   128
 43
0.0
 10
265.3378512968
 20
40.5976098744
 10
265.467317525
 20
40.7537819874
 10
265.5446497481
 20
40.8230348294
  0
LWPOLYLINE
  5
2BC
330
1F
100
AcDbEntity
  8
0
  6
Continuous
 62
     7
370
     0
100
AcDbPolyline
 90
       23
 70
   128
 43
0.0
 10
260.5851846442
 20
28.1717437421
 10
260.8996666471
 20
29.4116641867
 10
261.2920195624
 20
30.6612766483
 10
261.759318794
 20
31.9112699135
 10
262.2980832756
 20
33.1523297793
 10
262.9042978614
 20
34.3752086332
 10
263.5734455945
 20
35.5707946524
 10
264.3005406345
 20
36.7301791017
 10
265.0801644772
 20
37.8447221103
 10
265.9065090892
 20
38.9061209189
 10
266.773416421
 20
39.9064646296
 10
267.6744264801
 20
40.8382999816
 10
268.6028263931
 20
41.6946847685
 10
269.5516976561
 20
42.4692356486
 10
270.5139703821
 20
43.1561837961
 10
271.482474143
 20
43.7504072927
 10
272.4499923715
 20
44.2474815455
 10
273.4093157237
 20
44.6437002059
 10
274.3532963058
 20
44.9361133191
 10
275.2748997102
 20
45.122539872
 10
276.1672587994
 20
45.2015919989
 10
277.0237245787
 20
45.1726800143
 10
277.8379154226
 20
45.0360202985
  0
LWPOLYLINE
  5
2BD
330
1F
100
AcDbEntity
  8
0
  6
Continuous
 62
     7
370
     0
100
AcDbPolyline
 90
       23
 70
   128
 43
0.0
 10
260.9455178085
 20
27.8421198764
 10
261.2431674137
 20
29.0759749275
 10
261.620316512
 20
30.3214933428
 10
262.0740596049
 20
31.5690794941
 10
262.6009011382
 20
32.809122599
 10
263.1967818435
 20
34.0320678224
 10
263.8571110071
 20
35.2284953608
 10
264.5768020312
 20
36.3891865999
 10
265.350309971
 20
37.5051997769
 10
266.1716759866
 20
38.5679367068
 10
267.0345717945
 20
39.5692110302
 10
267.9323500465
 20
40.5013084748
 10
268.8580937202
 20
41.3570473076
 10
269.8046712726
 20
42.1298360302
 10
270.7647898172
 20
42.813720047
 10
271.7310528805
 20
43.4034317375
 10
272.6960162033
 20
43.8944264717
 10
273.6522455487
 20
44.2829228268
 10
274.592374304
 20
44.5659274743
 10
275.5091594675
 20
44.7412598961
 10
276.3955379848
 20
44.8075696976
 10
277.2446814077
 20
44.7643461083
 10
278.0500477552
 20
44.6119213038
  0
LWPOLYLINE
  5
2BE
330
1F
100
AcDbEntity
  8
0
  6
Continuous
 62
     7
370
     0
100
AcDbPolyline
 90
        3
 70
   128
 43
0.0
 10
282.172675328
 20
33.3068741161
 10
281.8772265785
 20
32.0880908528
 10
281.8206576053
 20
31.8845902074
  0
LWPOLYLINE
  5
2BF
330
1F
100
AcDbEntity
  8
0
  6
Continuous
 62
     7
370
     0
100
AcDbPolyline
 90
       21
 70
   128
 43
0.0
 10
275.5711657135
 20
21.0589797471
 10
275.2944255549
 20
20.7792473865
 10
274.3831214573
 20
19.9249051197
 10
273.4506239157
 20
19.150690919
 10
272.5039395145
 20
18.4624222385
 10
271.5501806551
 20
17.8652696281
 10
270.5965131739
 20
17.3637204107
 10
269.6501021509
 20
16.9615428347
 10
268.7180581818
 20
16.6617581001
 10
267.8073843114
 20
16.4666188488
 10
266.924921829
 20
16.3775908016
 10
266.0773016196
 20
16.3953429236
 10
265.270891479
 20
16.5197421069
 10
264.5117510047
 20
16.7498537443
 10
263.8055825335
 20
17.0839491487
 10
263.1576926172
 20
17.5195175342
 10
262.5729492166
 20
18.0532869327
 10
262.0557448236
 20
18.6812462508
 10
261.6099655094
 20
19.3986787329
 10
261.2389606314
 20
20.2001927632
 10
260.9455178085
 20
21.0797674953
  0
ARC
  5
2C0
330
1F
100
AcDbEntity
  8
0
  6
Continuous
 62
     7
370
     0
100
AcDbCircle
 10
275.3739176048
 20
38.3867543053
 30
0.0
 40
7.017045852609553
100
AcDbArc
 50
14.3287351339
 51
43.52515955
  0
LWPOLYLINE
  5
2C1
330
1F
100
AcDbEntity
  8
0
  6
Continuous
 62
     7
370
     0
100
AcDbPolyline
 90
       28
 70
   128
 43
0.0
 10
265.7287122795
 20
27.2222230785
 10
265.7681571199
 20
28.0270495747
 10
265.88595822
 20
28.8665342293
 10
266.0805232193
 20
29.7293248115
 10
266.3492202445
 20
30.6037532158
 10
266.6884157764
 20
31.477994395
 10
267.0935227232
 20
32.3402254829
 10
267.5590626532
 20
33.1787866257
 10
268.07874021
 20
33.9823374411
 10
268.6455277361
 20
34.7400117639
 10
269.2517599379
 20
35.4415627906
 10
269.8892389242
 20
36.0775039456
 10
270.549343771
 20
36.6392344896
 10
271.2231477225
 20
37.1191577488
 10
271.9015386629
 20
37.5107845026
 10
272.5753426143
 20
37.8088187266
 10
273.2354474612
 20
38.0092290161
 10
273.8729264475
 20
38.1093054321
 10
274.4791586493
 20
38.1076952069
 10
275.0459461753
 20
38.0044198325
 10
275.5656237322
 20
37.8008759527
 10
276.0311636621
 20
37.4998157719
 10
276.4362706089
 20
37.105311209
 10
276.7754661408
 20
36.6226968549
 10
277.0441631661
 20
36.0584994325
 10
277.2387281653
 20
35.4203488168
 10
277.3565292655
 20
34.7168744174
 10
277.3798904733
 20
34.4481908949
  0
LWPOLYLINE
  5
2C2
330
1F
100
AcDbEntity
  8
0
  6
Continuous
 62
     7
370
     0
100
AcDbPolyline
 90
       14
 70
   128
 43
0.0
 10
271.1303983757
 20
23.6225798405
 10
270.549343771
 20
23.3709943165
 10
269.8892389242
 20
23.1705840269
 10
269.2517599379
 20
23.0705076109
 10
268.6455277361
 20
23.0721178361
 10
268.07874021
 20
23.1753932105
 10
267.5590626532
 20
23.3789370903
 10
267.0935227232
 20
23.6799972711
 10
266.6884157764
 20
24.074501834
 10
266.3492202445
 20
24.5571161881
 10
266.0805232193
 20
25.1213136105
 10
265.88595822
 20
25.7594642262
 10
265.7681571199
 20
26.4629386256
 10
265.7287122795
 20
27.2222230785
  0
LWPOLYLINE
  5
2C3
330
1F
100
AcDbEntity
  8
0
  6
Continuous
 62
     7
370
     0
100
AcDbPolyline
 90
       23
 70
   128
 43
0.0
 10
255.4056277096
 20
31.1618383145
 10
255.7201097125
 20
32.401758759
 10
256.1124626278
 20
33.6513712207
 10
256.5797618594
 20
34.9013644859
 10
257.118526341
 20
36.1424243517
 10
257.7247409268
 20
37.3653032056
 10
258.3938886599
 20
38.5608892248
 10
259.1209836999
 20
39.7202736741
 10
259.9006075426
 20
40.8348166827
 10
260.7269521546
 20
41.8962154913
 10
261.5938594864
 20
42.896559202
 10
262.4948695455
 20
43.828394554
 10
263.4232694585
 20
44.6847793409
 10
264.3721407215
 20
45.459330221
 10
265.3344134475
 20
46.1462783685
 10
266.3029172084
 20
46.7405018651
 10
267.270435437
 20
47.2375761178
 10
268.2297587891
 20
47.6337947783
 10
269.1737393712
 20
47.9262078915
 10
270.0953427757
 20
48.1126344444
 10
270.9877018648
 20
48.1916865713
 10
271.8441676441
 20
48.1627745867
 10
272.658358488
 20
48.0261148709
  0
ARC
  5
2C4
330
1F
100
AcDbEntity
  8
0
  6
Continuous
 62
     7
370
     0
100
AcDbCircle
 10
271.6903436965
 20
26.9161649161
 30
0.0
 40
3.148116862116527
100
AcDbArc
 50
174.4209276035
 51
234.2668974176
  0
LWPOLYLINE
  5
2C5
330
1F
100
AcDbEntity
  8
0
  6
Continuous
 62
     7
370
     0
100
AcDbPolyline
 90
       19
 70
   128
 43
0.0
 10
276.1013029328
 20
35.1863036961
 10
275.8298558257
 20
35.3178799314
 10
275.3545674614
 20
35.4478942913
 10
274.8368433122
 20
35.4766483489
 10
274.2859224282
 20
35.4036300161
 10
273.7116358089
 20
35.230141566
 10
273.1242317135
 20
34.9592793966
 10
272.5341923495
 20
34.5958764957
 10
271.9520469481
 20
34.1464184871
 10
271.3881840182
 20
33.6189253607
 10
270.8526656671
 20
33.0228108215
 10
270.3550480342
 20
32.3687117082
 10
269.9042114275
 20
31.6683013384
 10
269.5082009559
 20
30.9340781155
 10
269.1740831315
 20
30.179144342
 10
268.9078207453
 20
29.4169716291
 10
268.714165196
 20
28.6611614552
 10
268.5965718666
 20
27.9252006858
 10
268.5571395386
 20
27.2222228884
  0
LWPOLYLINE
  5
2C6
330
1F
100
AcDbEntity
  8
0
  6
Continuous
 62
     7
370
     0
100
AcDbPolyline
 90
       19
 70
   128
 43
0.0
 10
258.8776047475
 20
30.2520685493
 10
259.174103217
 20
31.4006777194
 10
259.5459925203
 20
32.5578103078
 10
259.9902203036
 20
33.7139684195
 10
260.5031395474
 20
34.8596621999
 10
261.0805408353
 20
35.9854870193
 10
261.717685281
 20
37.0822040784
 10
262.4093420653
 20
38.1408096073
 10
263.1498351934
 20
39.1526154696
 10
263.9330862992
 20
40.1093172206
 10
264.7526663421
 20
41.0030612126
 10
265.6018481252
 20
41.8265121766
 10
266.4736619428
 20
42.5729112019
 10
267.360951721
 20
43.236132481
 10
268.2564347293
 20
43.8107307075
 10
269.1527608597
 20
44.2919912675
 10
270.0425729457
 20
44.6759635396
 10
270.9185676977
 20
44.9594953122
 10
270.9876264615
 20
44.977709428
  0
LWPOLYLINE
  5
2C7
330
1F
100
AcDbEntity
  8
0
  6
Continuous
 62
     7
370
     0
100
AcDbPolyline
 90
       22
 70
   128
 43
0.0
 10
258.2998201867
 20
30.2450840724
 10
258.5949060782
 20
31.415975318
 10
258.9666090134
 20
32.5964541347
 10
259.4119240537
 20
33.7769796568
 10
259.9272535704
 20
34.948014116
 10
260.5084335867
 20
36.1000935621
 10
261.1507667046
 20
37.2239088493
 10
261.8490635932
 20
38.3103790165
 10
262.5976808555
 20
39.3507237185
 10
263.390569431
 20
40.3365375561
 10
264.2213220107
 20
41.2598531906
 10
265.083225392
 20
42.1132103504
 10
265.9693151375
 20
42.8897124807
 10
266.8724308927
 20
43.5830860543
 10
267.7852747702
 20
44.1877272038
 10
268.7004703925
 20
44.6987510158
 10
269.610622243
 20
45.1120265536
 10
270.5083759642
 20
45.4242154692
 10
271.3864765769
 20
45.632794966
 10
272.2378287581
 20
45.7360789082
 10
273.0555530226
 20
45.7332327629
 10
273.0607387313
 20
45.7328674442
  0
LINE
  5
2C8
330
1F
100
AcDbEntity
  8
0
  6
Continuous
 62
     7
370
     0
100
AcDbLine
 10
263.5720363092
 20
28.6105447497
 30
0.0
 11
263.0062589905
 21
28.9371610436
 31
0.0
  0
LWPOLYLINE
  5
2C9
330
1F
100
AcDbEntity
  8
0
  6
Continuous
 62
     7
370
     0
100
AcDbPolyline
 90
        3
 70
   128
 43
0.0
 10
257.8893717031
 20
29.2899792655
 10
257.8886657434
 20
29.411217364
 10
257.9134691637
 20
30.1459278463
  0
LINE
  5
2CA
330
1F
100
AcDbEntity
  8
0
  6
Continuous
 62
     7
370
     0
100
AcDbLine
 10
258.0874538239
 20
26.5100384088
 30
0.0
 11
263.5720363092
 21
23.3438563341
 31
0.0
  0
LINE
  5
2CB
330
1F
100
AcDbEntity
  8
0
  6
Continuous
 62
     7
370
     0
100
AcDbLine
 10
257.9682149565
 20
26.4411810889
 30
0.0
 11
258.0874538239
 21
26.5100384088
 31
0.0
  0
LINE
  5
2CC
330
1F
100
AcDbEntity
  8
0
  6
Continuous
 62
     7
370
     0
100
AcDbLine
 10
277.4666853224
 20
21.7721844724
 30
0.0
 11
278.351205427
 21
21.2615618849
 31
0.0
  0
LWPOLYLINE
  5
2CD
330
1F
100
AcDbEntity
  8
0
  6
Continuous
 62
     7
370
     0
100
AcDbPolyline
 90
       18
 70
   128
 43
0.0
 10
236.6167822681
 20
45.7031811444
 10
236.6558886166
 20
46.4003474675
 10
236.772509605
 20
47.1302240071
 10
236.9645645618
 20
47.879786273
 10
237.228625763
 20
48.635657997
 10
237.5599813225
 20
49.3843509106
 10
237.95271784
 20
50.1125042359
 10
238.3998275787
 20
50.8071243156
 10
238.8933312841
 20
51.4558157831
 10
239.4244225698
 20
52.047002748
 10
239.983624157
 20
52.5701349621
 10
240.5609569974
 20
53.0158774679
 10
241.1461185738
 20
53.3762758871
 10
241.7286666751
 20
53.6448990143
 10
242.2982056824
 20
53.8169532015
 10
242.8445721549
 20
53.8893678215
 10
243.3580164233
 20
53.8608514299
 10
243.6355348169
 20
53.7986452857
  0
ARC
  5
2CE
330
1F
100
AcDbEntity
  8
0
  6
Continuous
 62
     7
370
     0
100
AcDbCircle
 10
239.90295772
 20
45.4315569486
 30
0.0
 40
3.297382113827545
100
AcDbArc
 50
175.2748651823
 51
224.7949013671
  0
ARC
  5
2CF
330
1F
100
AcDbEntity
  8
0
  6
Continuous
 62
     7
370
     0
100
AcDbCircle
 10
267.9678815603
 20
22.9616914804
 30
0.0
 40
7.685969092081764
100
AcDbArc
 50
196.1489046431
 51
212.7701311658
  0
LINE
  5
2D0
330
1F
100
AcDbEntity
  8
0
  6
Continuous
 62
     7
370
     0
100
AcDbLine
 10
263.0063511867
 20
22.3640605834
 30
0.0
 11
257.7560832002
 21
25.3949757772
 31
0.0
  0
LINE
  5
2D1
330
1F
100
AcDbEntity
  8
0
  6
Continuous
 62
     7
370
     0
100
AcDbLine
 10
281.3557725979
 20
24.0173067677
 30
0.0
 11
282.2402927025
 21
23.5066841802
 31
0.0
  0
LINE
  5
2D2
330
1F
100
AcDbEntity
  8
0
  6
Continuous
 62
     7
370
     0
100
AcDbLine
 10
259.740524263
 20
22.9843900741
 30
0.0
 11
259.6624933243
 21
23.225808242
 31
0.0
  0
LWPOLYLINE
  5
2D3
330
1F
100
AcDbEntity
  8
0
  6
Continuous
 62
     7
370
     0
100
AcDbPolyline
 90
        3
 70
   128
 43
0.0
 10
259.3754387123
 20
22.4508277154
 10
259.1768427621
 20
22.8663571903
 10
258.8776047475
 20
23.6789147727
  0
ARC
  5
2D4
330
1F
100
AcDbEntity
  8
0
  6
Continuous
 62
     7
370
     0
100
AcDbCircle
 10
264.9780936563
 20
25.5625833708
 30
0.0
 40
6.940742437522958
100
AcDbArc
 50
195.8070865658
 51
213.755635272
  0
ARC
  5
2D5
330
1F
100
AcDbEntity
  8
0
  6
Continuous
 62
     7
370
     0
100
AcDbCircle
 10
262.7882776663
 20
25.95176759
 30
0.0
 40
7.68591885046306
100
AcDbArc
 50
196.1488698059
 51
212.7708491058
  0
LINE
  5
2D6
330
1F
100
AcDbEntity
  8
0
  6
Continuous
 62
     7
370
     0
100
AcDbLine
 10
280.3304668727
 20
33.0181865924
 30
0.0
 11
280.8961526538
 21
32.691623142
 31
0.0
  0
OLE2FRAME
  5
2D7
330
1F
100
AcDbEntity
  8
0
100
AcDbOle2Frame
 70
     2
  3
Paintbrush-Bild
 10
13.8511154363
 20
38.264191557
 30
0.0
 11
51.6290888628
 21
31.9806341108
 31
0.0
 71
     2
 72
     0
 73
     1
 90
    12928
310
80552BED0767C5B32B40DDAF6807D121434000000000000000006FFBDDFB85D0
310
4940DDAF6807D121434000000000000000006FFBDDFB85D04940416F4BD60AFB
310
3F4000000000000000002BED0767C5B32B40416F4BD60AFB3F40000000000000
310
0000000000000100000000010000010000000100000000000100000000320000
310
D0CF11E0A1B11AE1000000000000000000000000000000003E000300FEFF0900
310
0600000000000000000000000100000001000000000000000010000002000000
310
01000000FEFFFFFF0000000000000000FFFFFFFFFFFFFFFFFFFFFFFFFFFFFFFF
310
FFFFFFFFFFFFFFFFFFFFFFFFFFFFFFFFFFFFFFFFFFFFFFFFFFFFFFFFFFFFFFFF
310
FFFFFFFFFFFFFFFFFFFFFFFFFFFFFFFFFFFFFFFFFFFFFFFFFFFFFFFFFFFFFFFF
310
FFFFFFFFFFFFFFFFFFFFFFFFFFFFFFFFFFFFFFFFFFFFFFFFFFFFFFFFFFFFFFFF
310
FFFFFFFFFFFFFFFFFFFFFFFFFFFFFFFFFFFFFFFFFFFFFFFFFFFFFFFFFFFFFFFF
310
FFFFFFFFFFFFFFFFFFFFFFFFFFFFFFFFFFFFFFFFFFFFFFFFFFFFFFFFFFFFFFFF
310
FFFFFFFFFFFFFFFFFFFFFFFFFFFFFFFFFFFFFFFFFFFFFFFFFFFFFFFFFFFFFFFF
310
FFFFFFFFFFFFFFFFFFFFFFFFFFFFFFFFFFFFFFFFFFFFFFFFFFFFFFFFFFFFFFFF
310
FFFFFFFFFFFFFFFFFFFFFFFFFFFFFFFFFFFFFFFFFFFFFFFFFFFFFFFFFFFFFFFF
310
FFFFFFFFFFFFFFFFFFFFFFFFFFFFFFFFFFFFFFFFFFFFFFFFFFFFFFFFFFFFFFFF
310
FFFFFFFFFFFFFFFFFFFFFFFFFFFFFFFFFFFFFFFFFFFFFFFFFFFFFFFFFFFFFFFF
310
FFFFFFFFFFFFFFFFFFFFFFFFFFFFFFFFFFFFFFFFFFFFFFFFFFFFFFFFFFFFFFFF
310
FFFFFFFFFFFFFFFFFFFFFFFFFFFFFFFFFFFFFFFFFFFFFFFFFFFFFFFFFFFFFFFF
310
FFFFFFFFFFFFFFFFFFFFFFFFFFFFFFFFFFFFFFFFFFFFFFFFFFFFFFFFFFFFFFFF
310
FDFFFFFFFEFFFFFFFEFFFFFFFEFFFFFF05000000060000000700000008000000
310
090000000A0000000B0000000C0000000D0000000E0000000F00000010000000
310
11000000120000001300000014000000150000001600000017000000FEFFFFFF
310
FFFFFFFFFFFFFFFFFFFFFFFFFFFFFFFFFFFFFFFFFFFFFFFFFFFFFFFFFFFFFFFF
310
FFFFFFFFFFFFFFFFFFFFFFFFFFFFFFFFFFFFFFFFFFFFFFFFFFFFFFFFFFFFFFFF
310
FFFFFFFFFFFFFFFFFFFFFFFFFFFFFFFFFFFFFFFFFFFFFFFFFFFFFFFFFFFFFFFF
310
FFFFFFFFFFFFFFFFFFFFFFFFFFFFFFFFFFFFFFFFFFFFFFFFFFFFFFFFFFFFFFFF
310
FFFFFFFFFFFFFFFFFFFFFFFFFFFFFFFFFFFFFFFFFFFFFFFFFFFFFFFFFFFFFFFF
310
FFFFFFFFFFFFFFFFFFFFFFFFFFFFFFFFFFFFFFFFFFFFFFFFFFFFFFFFFFFFFFFF
310
FFFFFFFFFFFFFFFFFFFFFFFFFFFFFFFFFFFFFFFFFFFFFFFFFFFFFFFFFFFFFFFF
310
FFFFFFFFFFFFFFFFFFFFFFFFFFFFFFFFFFFFFFFFFFFFFFFFFFFFFFFFFFFFFFFF
310
FFFFFFFFFFFFFFFFFFFFFFFFFFFFFFFFFFFFFFFFFFFFFFFFFFFFFFFFFFFFFFFF
310
FFFFFFFFFFFFFFFFFFFFFFFFFFFFFFFFFFFFFFFFFFFFFFFFFFFFFFFFFFFFFFFF
310
FFFFFFFFFFFFFFFFFFFFFFFFFFFFFFFFFFFFFFFFFFFFFFFFFFFFFFFFFFFFFFFF
310
FFFFFFFFFFFFFFFFFFFFFFFFFFFFFFFFFFFFFFFFFFFFFFFFFFFFFFFFFFFFFFFF
310
FFFFFFFFFFFFFFFFFFFFFFFFFFFFFFFFFFFFFFFFFFFFFFFFFFFFFFFFFFFFFFFF
310
52006F006F007400200045006E00740072007900000000000000000000000000
310
0000000000000000000000000000000000000000000000000000000000000000
310
16000500FFFFFFFFFFFFFFFF020000000A00030000000000C000000000000046
310
000000000000000000000000F0CD83A699FFD10103000000C000000000000000
310
01004F006C006500000000000000000000000000000000000000000000000000
310
0000000000000000000000000000000000000000000000000000000000000000
310
0A000200FFFFFFFFFFFFFFFFFFFFFFFF00000000000000000000000000000000
310
0000000000000000000000000000000000000000000000001400000000000000
310
010043006F006D0070004F0062006A0000000000000000000000000000000000
310
0000000000000000000000000000000000000000000000000000000000000000
310
120002010100000003000000FFFFFFFF00000000000000000000000000000000
310
0000000000000000000000000000000000000000010000004D00000000000000
310
01004F006C006500310030004E00610074006900760065000000000000000000
310
0000000000000000000000000000000000000000000000000000000000000000
310
1A000200FFFFFFFFFFFFFFFFFFFFFFFF00000000000000000000000000000000
310
0000000000000000000000000000000000000000040000002426000000000000
310
FEFFFFFF02000000FEFFFFFFFFFFFFFFFFFFFFFFFFFFFFFFFFFFFFFFFFFFFFFF
310
FFFFFFFFFFFFFFFFFFFFFFFFFFFFFFFFFFFFFFFFFFFFFFFFFFFFFFFFFFFFFFFF
310
FFFFFFFFFFFFFFFFFFFFFFFFFFFFFFFFFFFFFFFFFFFFFFFFFFFFFFFFFFFFFFFF
310
FFFFFFFFFFFFFFFFFFFFFFFFFFFFFFFFFFFFFFFFFFFFFFFFFFFFFFFFFFFFFFFF
310
FFFFFFFFFFFFFFFFFFFFFFFFFFFFFFFFFFFFFFFFFFFFFFFFFFFFFFFFFFFFFFFF
310
FFFFFFFFFFFFFFFFFFFFFFFFFFFFFFFFFFFFFFFFFFFFFFFFFFFFFFFFFFFFFFFF
310
FFFFFFFFFFFFFFFFFFFFFFFFFFFFFFFFFFFFFFFFFFFFFFFFFFFFFFFFFFFFFFFF
310
FFFFFFFFFFFFFFFFFFFFFFFFFFFFFFFFFFFFFFFFFFFFFFFFFFFFFFFFFFFFFFFF
310
FFFFFFFFFFFFFFFFFFFFFFFFFFFFFFFFFFFFFFFFFFFFFFFFFFFFFFFFFFFFFFFF
310
FFFFFFFFFFFFFFFFFFFFFFFFFFFFFFFFFFFFFFFFFFFFFFFFFFFFFFFFFFFFFFFF
310
FFFFFFFFFFFFFFFFFFFFFFFFFFFFFFFFFFFFFFFFFFFFFFFFFFFFFFFFFFFFFFFF
310
FFFFFFFFFFFFFFFFFFFFFFFFFFFFFFFFFFFFFFFFFFFFFFFFFFFFFFFFFFFFFFFF
310
FFFFFFFFFFFFFFFFFFFFFFFFFFFFFFFFFFFFFFFFFFFFFFFFFFFFFFFFFFFFFFFF
310
FFFFFFFFFFFFFFFFFFFFFFFFFFFFFFFFFFFFFFFFFFFFFFFFFFFFFFFFFFFFFFFF
310
FFFFFFFFFFFFFFFFFFFFFFFFFFFFFFFFFFFFFFFFFFFFFFFFFFFFFFFFFFFFFFFF
310
FFFFFFFFFFFFFFFFFFFFFFFFFFFFFFFFFFFFFFFFFFFFFFFFFFFFFFFFFFFFFFFF
310
0100000200000000000000000000000000000000000000000000000000000000
310
0000000000000000000000000000000000000000000000000000000000000000
310
0100FEFF030A0000FFFFFFFF0A00030000000000C00000000000004607000000
310
5042727573680007000000504272757368000700000050427275736800F439B2
310
7100000000000000000000000000000000000000000000000000000000000000
310
0000000000000000000000000000000000000000000000000000000000000000
310
0000000000000000000000000000000000000000000000000000000000000000
310
0000000000000000000000000000000000000000000000000000000000000000
310
0000000000000000000000000000000000000000000000000000000000000000
310
0000000000000000000000000000000000000000000000000000000000000000
310
0000000000000000000000000000000000000000000000000000000000000000
310
0000000000000000000000000000000000000000000000000000000000000000
310
0000000000000000000000000000000000000000000000000000000000000000
310
0000000000000000000000000000000000000000000000000000000000000000
310
0000000000000000000000000000000000000000000000000000000000000000
310
0000000000000000000000000000000000000000000000000000000000000000
310
20260000424D0E260000000000003E00000028000000B40200006E0000000100
310
01000000000000000000130B0000130B00000200000002000000000000FFFFFF
310
FFFFFFFFFFFFFFFFFFFFFFFFFFFFFFFFFFFFFFFFFFFFFFFFFFFFFFFFFFFFFFFF
310
FFFFFFFFFFFFFFFFFFFFFFFFFFFFFFFFFFFFFFFFFFFFFFFFFFFFFFFFFFFFFFFF
310
FFFFFFFFFFFFFFFFFFFFFFFFFFFFFFFFFFFFFFFFFFFFFFFFF000FFFFFFFFFFFF
310
FFFFFFFFFFFFFFFFFFFFFFFFFFFFFFFFFFFFFFFFFFFFFFFFFFFFFFFFFFFFFFFF
310
FFFFFFFFFFFFFFFFFFFFFFFFFFFFFFFFFFFFFFFFFFFFFFFFFFFFFFFFFFFFFFFF
310
FFFFFFFFFFFFFFFFFFFFFFFFFFFFFFFFF000FFFFFFFFFFFFFFFFFFFFFFFFFFFF
310
FFFFFFFFFFFFFFFFFFFFFFFFFFFFFFFFFFFFFFFFFFFFFFFFFFFFFFFFFFFFFFFF
310
FFFFFFFFFFFFFFFFFFFFFFFFFFFFFFFFFFFFFFFFFFFFFFFFFFFFFFFFFFFFFFFF
310
FFFFFFFFFFFFFFFFF000FFFFFFFFFFFFFFFFFFFFFFFFFFFFFFFFFFFFFFFFFFFF
310
FFFFFFFFFFFFFFFFFFFFFFFFFFFFFFFFFFFFFFFFFFFFFFFFFFFFFFFFFFFFFFFF
310
FFFFFFFFFFFFFFFFFFFFFFFFFFFFFFFFFFFFFFFFFFFFFFFFFFFFFFFFFFFFFFFF
310
F000FFFFFFFFFFFFFFFFFFFFFFFFFFFFFFFFFFFFFFFFFFFFFFFFFFFFFFFFFFFF
310
FFFFFFFFFFFFFFFFFFFFFFFFFFFFFFFFFFFFFFFFFFFFFFFFFFFFFFFFFFFFFFFF
310
FFFFFFFFFFFFFFFFFFFFFFFFFFFFFFFFFFFFFFFFFFFFFFFFF000FFFFFFFFFFFF
310
FFFFFFFFFFFFFFFFFFFFFFFFFFFFFFFFFFFFFFFFFFFFFFFFFFFFFFFFFFFFFFFF
310
FFFFFFFFFFFFFFFFFFFFFFFFFFFFFFFFFFFFFFFFFFFFFFFFFFFFFFFFFFFFFFFF
310
FFFFFFFFFFFFFFFFFFFFFFFFFFFFFFFFF000FFFFFFFFFFFFFFFFFFFFFFFFFFFF
310
FFFFFFFFFFFFFFFFFFFFFFFFFFFFFFFFFFFFFFFFFFFFFFFFFFFFFFFFFFFFFFFF
310
FFFFFFFFFFFFFFFFFFFFFFFFFFFFFFFFFFFFFFFFFFFFFFFFFFFFFFFFFFFFFFFF
310
FFFFFFFFFFFFFFFFF000FFFFFFFFFFFFFFFFFFFFFFFFFFFFFFFFFFFFFFFFFFFF
310
FFFFFFFFFFFFFFFFFFFFFFFFFFFFFFFFFFFFFFFFFFFFFFFFFFFFFFFFFFFFFFFF
310
FFFFFFFFFFFFFFFFFFFFFFFFFFFFFFFFFFFFFFFFFFFFFFFFFFFFFFFFFFFFFFFF
310
F000FFFFFFFFFFFFFFFFFFFFFFFFFFFFFFFFFFFFFFFFFFFFFFFFFFFFFFFFFFFF
310
FFFFFFFFFFFFFFFFFFFFFFFFFFFFFFFFFFFFFFFFFFFFFFFFFFFFFFFFFFFFFFFF
310
FFFFFFFFFFFFFFFFFFFFFFFFFFFFFFFFFFFFFFFFFFFFFFFFF000FFFFFFFFFFFF
310
FFFFFFFFFFFFFFFFFFFFFFFFFFFFFFFFFFFFFFFFFFFFFFFFFFFFFFFFFFFFFFFF
310
FFFFFFFFFFFFFFFFFFFFFFFFFFFFFFFFFFFFFFFFFFFFFFFFFFFFFFFFFFFFFFFF
310
FFFFFFFFFFFFFFFFFFFFFFFFFFFFFFFFF000FFFFFFFFFFFFFFFFFFFFFFFFFFFF
310
FFFFFFFFFFFFFFFFFFFFFFFFFFFFFFFFFFFFFFFFFFFFFFFFFFFFFFFFFFFFFFFF
310
FFFFFFFFFFFFFFFFFFFFFFFFFFFFFFFFFFFFFFFFFFFFFFFFFFFFFFFFFFFFFFFF
310
FFFFFFFFFFFFFFFFF000FFFFFFFFFFFFFFFFFFFFFFFFFFFFFFFFFFFFFFFFFFFF
310
FFFFFFFFFFFFFFFFFFFFFFFFFFFFFFFFFFFFFFFFFFFFFFFFFFFFFFFFFFFFFFFF
310
FFFFFFFFFFFFFFFFFFFFFFFFFFFFFFFFFFFFFFFFFFFFFFFFFFFFFFFFFFFFFFFF
310
F000FFFFFFFFFFFFFFFFFFFFFFFFFFFFFFFFFFFFFFFFFFFFFFFFFFFFFFFFFFFF
310
FFFFFFFFFFFFFFFFFFFFFFFFFFFFFFFFFFFFFFFFFFFFFFFFFFFFFFFFFFFFFFFF
310
FFFFFFFFFFFFFFFFFFFFFFFFFFFFFFFFFFFFFFFFFFFFFFFFF000FFFFFFFFFFFF
310
FFFFFFFFFFFFFFFFFFFFFFFFFFFFFFFFFFFFFFFFFFFFFFFFFFFFFFFFFFFFFFFF
310
FFFFFFFFFFFFFFFFFFFFFFFFFFFFFFFFFFFFFFFFFFFFFFFFFFFFFFFFFFFFFFFF
310
FFFFFFFFFFFFFFFFFFFFFFFFFFFFFFFFF000FFFFFFFFFFFFFFFFFFFFFFFFFFFF
310
FFFFFFFFFFFFFFFFFFFFFFFFFFFFFFFFFFFFFFFFFFFFFFFFFFFFFFFFFFFFFFFF
310
FFFFFFFFFFFFFFFFFFFFFFFFFFFFFFFFFFFFFFFFFFFFFFFFFFFFFFFFFFFFFFFF
310
FFFFFFFFFFFFFFFFF000FFFFFFFFFFFFFFFFFFFFFFFFFFFFFFFFFFFFFFFFFFFF
310
FFFFFFFFFFFFFFFFFFFFFFFFFFFFFFFFFFFFFFFFFFFFFFFFFFFFFFFFFFFFFFFF
310
FFFFFFFFFFFFFFFFFFFFFFFFFFFFFFFFFFFFFFFFFFFFFFFFFFFFFFFFFFFFFFFF
310
F000FFFFFFFFFFFFFFFFFFFFFFFFFFFFFFFFFFFFFFFFFFFFFFFFFFFFFFFFFFFF
310
FFFFFFFFFFFFFFFFFFFFFFFFFFFFFFFFFFFFFFFFFFFFFFFFFFFFFFFFFFFFFFFF
310
FFFFFFFFFFFFFFFFFFFFFFFFFFFFFFFFFFFFFFFFFFFFFFFFF000FFFFFFFFFFFF
310
FFFFFFFFFFFFFFFFFFFFFFFFFFFFFFFFFFFFFFFFFFFFFFFFFFFFFFFFFFFFFFFF
310
FFFFFFFFFFFFFFFFFFFFFFFFFFFFFFFFFFFFFFFFFFFFFFFFFFFFFFFFFFFFFFFF
310
FFFFFFFFFFFFFFFFFFFFFFFFFFFFFFFFF000FFFFFFFFFFFFFFFFFFFFFFFFFFFF
310
FFFFFFFFFFFFFFFFFFFFFFFFFFFFFFFFFFFFFFFFFFFFFFFFFFFFFFFFFFFFFFFF
310
FFFFFFFFFFFFFFFFFFFFFFFFFFFFFFFFFFFFFFFFFFFFFFFFFFFFFFFFFFFFFFFF
310
FFFFFFFFFFFFFFFFF000FFFFF80003FFFFFFFFFFFFFFFFFFFFFFFFFFFFFFFFFF
310
FFFFF00007FFFFFFFFFF00007FFFFFF800000000000000007FFFFFFFFFFFFFFF
310
FFFFFFFC001FFFFFFFFFFFFFFC001FFFFFFFFFFFFFFFFFFFFFFFFFFE0007FFFF
310
F000FFFF8000007FFFFFFFF8000FFFFFC0007FFFFF80007FFFFF0000007FFFFF
310
FFF8000007FFFFF800000000000000007FFFFFF0001FFFFFFFFFFFC00001FFFF
310
FFFFFFFFC00001FFFFFFFF000000000003FFFFE000007FFFF000FFFE0000000F
310
FFFFFFF0000FFFFF80007FFFFF80007FFFFC0000001FFFFFFFC0000001FFFFF8
310
00000000000000007FFFFFF0001FFFFFFFFFFE0000003FFFFFFFFFFE0000003F
310
FFFFFF000000000003FFFF0000000FFFF000FFF800000003FFFFFFF00007FFFF
310
80007FFFFF80007FFFF000000007FFFFFF000000003FFFF80000000000000000
310
7FFFFFF0001FFFFFFFFFF80000000FFFFFFFFFF80000000FFFFFFF0000000000
310
03FFFC00000003FFF000FFE000000000FFFFFFF00007FFFF80003FFFFF80007F
310
FFC000000001FFFFFC000000001FFFF800000000000000007FFFFFF0001FFFFF
310
FFFFE000000003FFFFFFFFE000000003FFFFFF000000000003FFF000000000FF
310
F000FF80000000007FFFFFF00007FFFF80003FFFFF80007FFF8000000000FFFF
310
F80000000007FFF800000000000000007FFFFFF0001FFFFFFFFFC000000001FF
310
FFFFFFC000000001FFFFFF000000000003FFC0000000007FF000FF0000000000
310
3FFFFFE00007FFFF00003FFFFF80007FFE00000000003FFFF00000000003FFF8
310
00000000000000007FFFFFF0001FFFFFFFFF8000000000FFFFFFFF8000000000
310
FFFFFF000000000003FF80000000003FF000FE00000000001FFFFFE00003FFFF
310
00003FFFFF80007FFC00000000001FFFE00000000001FFF8000001FFFE000000
310
7FFFFFF0001FFFFFFFFE00000000003FFFFFFE00000000003FFFFF0000000000
310
03FF00000000001FF000FC00000000000FFFFFE00003FFFF00001FFFFF80007F
310
F800000000001FFFC00000000000FFF8000001FFFE0000007FFFFFF0001FFFFF
310
FFFC00000000001FFFFFFC00000000001FFFFF000000000003FE00000000000F
310
F000F8000000000007FFFFE00003FFFF00001FFFFF80007FF800000000000FFF
310
800000000000FFF8000001FFFE0000007FFFFFF0001FFFFFFFF800000000000F
310
FFFFF800000000000FFFFF000000000003FC000000000007F000F80000000000
310
03FFFFC00003FFFE00001FFFFF80007FF0000000000007FF0000000000007FF8
310
000001FFFE0000007FFFFFF0001FFFFFFFF0000000000007FFFFF00000000000
310
07FFFF000000000003F8000000000003F000F0000000000003FFFFC00001FFFE
310
00001FFFFF80007FE0000000000007FE0000000000003FF8000001FFFE000000
310
7FFFFFF0001FFFFFFFF0000000000007FFFFF0000000000007FFFF0000000000
310
03F800001F800003F000E00001FFF00001FFFFC00001FFFE00000FFFFF80007F
310
E00001FFE00003FE00001FFF00003FF8000001FFFE0000007FFFFFF0001FFFFF
310
FFE000003E000003FFFFE000003E000003FFFF000000000003F00001FFF80001
310
F000E00007FFFC0001FFFFC00001FFFE00000FFFFF80007FC0000FFFFC0003FC
310
0000FFFFC0001FF8000001FFFE0000007FFFFFF0001FFFFFFFC00003FFE00001
310
FFFFC00003FFE00001FFFF0001FFFFFFFFF00007FFFE0001F000E0000FFFFF00
310
00FFFF800001FFFC00000FFFFF80007FC0001FFFFE0001FC0001FFFFE0001FF8
310
000001FFFE0000007FFFFFF0001FFFFFFF80000FFFF80000FFFF80000FFFF800
310
00FFFF0003FFFFFFFFE0000FFFFF8000F000C0003FFFFF8000FFFF800000FFFC
310
000007FFFF80007F80003FFFFF0001FC0003FFFFF0001FF8000001FFFE000000
310
7FFFFFF0001FFFFFFF80003FFFFE0000FFFF80003FFFFE0000FFFF0003FFFFFF
310
FFE0003FFFFF8000F000C0003FFFFF8000FFFF800000FFFC000007FFFF80007F
310
80007FFFFF8001F80007FFFFF8000FF8000001FFFE0000007FFFFFF0001FFFFF
310
FF00007FFFFF00007FFF00007FFFFF00007FFF0003FFFFFFFFE0003FFFFFC000
310
F000C0007FFFFFC000FFFF000000FFFC000007FFFF80007F8000FFFFFF8000F8
310
000FFFFFF8000FF8000001FFFE0000007FFFFFF0001FFFFFFF0000FFFFFF8000
310
7FFF0000FFFFFF80007FFF0003FFFFFFFFC0007FFFFFC00070008000FFFFFFC0
310
00FFFF000000FFF8000007FFFF80007F8000FFFFFF8000F8000FFFFFF8000FF8
310
000001FFFE0000007FFFFFF0001FFFFFFE0001FFFFFFC0003FFE0001FFFFFFC0
310
003FFF0003FFFFFFFFC0007FFFFFE00070008000FFFFFFC0007FFF0000007FF8
310
000003FFFF80007F0001FFFFFF8000F8000FFFFFF8000FF8000001FFFE000000
310
7FFFFFF0001FFFFFFE0001FFFFFFC0003FFE0001FFFFFFC0003FFF0003FFFFFF
310
FFC000FFFFFFE00070008000FFFFFFC0007FFF0000007FF8000003FFFF80007F
310
0001FFFFFF8000F8001FFFFFF8000FF8000001FFFE0000007FFFFFF0001FFFFF
310
FE0003FFFFFFE0003FFE0003FFFFFFE0003FFF0003FFFFFFFFC000FFFFFFE000
310
70008000FFFFFFC0007FFE0000007FF8000003FFFF80007F0001FFFFFF8000F0
310
001FFFFFF8000FF8000001FFFE0000007FFFFFF0001FFFFFFC0003FFFFFFE000
310
1FFC0003FFFFFFE0001FFF0003FFFFFFFFC000FFFFFFC00070008000FFFFFF80
310
007FFE0000007FF0000003FFFF80007F0001FFFFFF0000F0001FFFFFF8000FF8
310
000001FFFE0000007FFFFFF0001FFFFFFC0007FFFFFFF0001FFC0007FFFFFFF0
310
001FFF0003FFFFFFFFC000FFFFFFC00070008001FFFFFF0000FFFE0000003FF0
310
000001FFFF80007F0001FFFFFF0000F8001FFFFFF0000FF8000001FFFE000000
310
7FFFFFF0001FFFFFFC0007FFFFFFF0001FFC0007FFFFFFF0001FFF0003FFFFFF
310
FFC001FFFFFF80007000FFFFFFFFFE0000FFFE0008003FF0008001FFFF80007F
310
FFFFFFFFFC0000FFFFFFFFFFE0000FF8000001FFFE0000007FFFFFF0001FFFFF
310
F8000FFFFFFFF8000FF8000FFFFFFFF8000FFF0003FFFFFFFFFFFFFFFFFF0000
310
7000FFFFFFFFFC0000FFFC0008003FF0008001FFFF80007FFFFFFFFFF80001FF
310
FFFFFFFF80000FF8000001FFFE0000007FFFFFF0001FFFFFF8000FFFFFFFF800
310
0FF8000FFFFFFFF8000FFF0003FFFFFFFFFFFFFFFFFE0000F000FFFFFFFFE000
310
00FFFC000C003FE000C001FFFF80007FFFFFFFFFC00001FFFFFFFFFE00001FF8
310
000001FFFE0000007FFFFFF0001FFFFFF8000FFFFFFFF8000FF8000FFFFFFFF8
310
000FFF0003FFFFFFFFFFFFFFFFF00000F000FFFFFFFE000001FFFC000C001FE0
310
00C000FFFF80007FFFFFFFFE000001FFFFFFFFE000001FF80FFFFFFFFFFFFFC0
310
7FFFFFF0001FFFFFF8000FFFFFFFF8000FF8000FFFFFFFF8000FFF0003FFFFFF
310
FFFFFFFFFF800000F000FFFFFFC0000001FFFC001C001FE001C000FFFF80007F
310
FFFFFF80000003FFFFFFF80000001FF80FFFFFFFFFFFFFC07FFFFFF0001FFFFF
310
F8001FFFFFFFFC000FF8001FFFFFFFFC000FFF0003FFFFFFFFFFFFFFF0000001
310
F000FFFFF800000001FFF8001C001FE001C000FFFF80007FFFFFF800000003FF
310
FFFF800000003FF80FFFFFFFFFFFFFC07FFFFFF0001FFFFFF8001FFFFFFFFC00
310
0FF8001FFFFFFFFC000FFF0003FFFFFFFFFFFFFE00000001F000FFFFC0000000
310
03FFF8001E001FC001E000FFFF80007FFFFF8000000007FFFFFC000000003FF8
310
0FFFFFFFFFFFFFC07FFFFFF0001FFFFFF8001FFFFFFFFC000FF8001FFFFFFFFC
310
000FFF0003FFFFFFFFFFFFE000000003F000FFFE0000000007FFF8001E000FC0
310
01E0007FFF80007FFFFE0000000007FFFFE0000000007FF80FFFFFFFFFFFFFC0
310
7FFFFFF0001FFFFFF0001FFFFFFFFC0007F0001FFFFFFFFC0007FF0003FFFFFF
310
FFFFFF0000000003F000FFF80000000007FFF8001E000FC003E0007FFF80007F
310
FFF0000000000FFFFF8000000000FFF80FFFFFFFFFFFFFC07FFFFFF0001FFFFF
310
F0001FFFFFFFFC0007F0001FFFFFFFFC0007FF0003FFFFFFFFFFFC0000000007
310
F000FFE0000000000FFFF0003E000FC003E0007FFF80007FFFC0000000001FFF
310
FE0000000001FFF80FFFFFFFFFFFFFC07FFFFFF0001FFFFFF0001FFFFFFFFC00
310
07F0001FFFFFFFFC0007FF0003FFFFFFFFFFF0000000000FF000FFC000000000
310
1FFFF0003F000F8003F0003FFF80007FFF80000000003FFFF80000000003FFF8
310
0FFFFFFFFFFFFFC07FFFFFF0001FFFFFF0001FFFFFFFFC0007F0001FFFFFFFFC
310
0007FF0003FFFFFFFFFFE0000000001FF000FF00000000007FFFF0003F000780
310
03F0003FFF80007FFF00000000007FFFF00000000007FFF80FFFFFFFFFFFFFC0
310
7FFFFFF0001FFFFFF0001FFFFFFFFC0007F0001FFFFFFFFC0007FF0003FFFFFF
310
FFFF80000000007FF000FE0000000000FFFFE0003F00078007F0003FFF80007F
310
FE0000000001FFFFE0000000001FFFF80FFFFFFFFFFFFFC07FFFFFF0001FFFFF
310
F0001FFFFFFFFC0007F0001FFFFFFFFC0007FF0003FFFFFFFFFF0000000000FF
310
F000FC0000000003FFFFE0007F00078007F0003FFF80007FFC0000000007FFFF
310
C0000000007FFFF80FFFFFFFFFFFFFC07FFFFFF0001FFFFFF8001FFFFFFFFC00
310
0FF8001FFFFFFFFC000FFF0003FFFFFFFFFE0000000003FFF000FC000000000F
310
FFFFE0007F80070007F8001FFF80007FF8000000001FFFFF8000000001FFFFF8
310
0FFFFFFFFFFFFFC07FFFFFF0001FFFFFF8001FFFFFFFFC000FF8001FFFFFFFFC
310
000FFF0003FFFFFFFFFC000000000FFFF000F8000000007FFFFFE0007F800700
310
07F8001FFF80007FF000000000FFFFFF800000000FFFFFF80FFFFFFFFFFFFFC0
310
7FFFFFF0001FFFFFF8000FFFFFFFF8000FF8000FFFFFFFF8000FFF0003FFFFFF
310
FFFC000000007FFFF000F800000007FFFFFFC0007F8003000FF8001FFF80007F
310
F000000007FFFFFF000000007FFFFFF80FFFFFFFFFFFFFC07FFFFFF0001FFFFF
310
F8000FFFFFFFF8000FF8000FFFFFFFF8000FFF0003FFFFFFFFF80000000FFFFF
310
F000F0000000FFFFFFFFC000FF8003000FF8001FFF80007FE0000000FFFFFFFF
310
0000000FFFFFFFF8000001FFFE0000007FFFFFF0001FFFFFF8000FFFFFFFF800
310
0FF8000FFFFFFFF8000FFF0003FFFFFFFFF8000000FFFFFFF000F000000FFFFF
310
FFFFC000FFC002000FF8000FFF80007FE000001FFFFFFFFE000001FFFFFFFFF8
310
000001FFFE0000007FFFFFF0001FFFFFF8000FFFFFFFF8000FF8000FFFFFFFF8
310
000FFF0003FFFFFFFFF000001FFFFFFFF000E00000FFFFFFFFFFC000FFC00200
310
0FFC000FFF80007FE00001FFFFFFFFFE00001FFFFFFFFFF8000001FFFE000000
310
7FFFFFF0001FFFFFFC000FFFFFFFF8001FFC000FFFFFFFF8001FFF0003FFFFFF
310
FFF00001FFFFFFFFF000E00007FFFFFFFFFF8000FFC000001FFC000FFF80007F
310
C0000FFFFFFFFFFE0000FFFFFFFFFFF8000001FFFE0000007FFFFFF0001FFFFF
310
FC0007FFFFFFF0001FFC0007FFFFFFF0001FFF0003FFFFFFFFF00007FFFFFFFF
310
F000E0001FFFFFFFFFFF8000FFC000001FFC000FFF80007FC0003FFFFFFFFFFE
310
0001FFFFFFFFFFF8000001FFFE0000007FFFFFF0001FFFFFFC0007FFFFFFF000
310
1FFC0007FFFFFFF0001FFF0003FFFFFFFFF0001FFFFFFFFFF000E0003FFFFF00
310
03FF8001FFE000001FFC0007FF80007FC0007FFFFF0007FC0003FFFFF0003FF8
310
000001FFFE0000007FFFFFF0001FFFFFFC0003FFFFFFE0001FFC0003FFFFFFE0
310
001FFF0003FFFFFFFFF0003FFFFFFFFFF000E0003FFFFF0001FF8001FFE00000
310
1FFE0007FF80007FC0007FFFFE0003FC0007FFFFE0003FF8000001FFFE000000
310
7FFFFFF0001FFFFFFE0003FFFFFFE0003FFE0003FFFFFFE0003FFF0003FFFFFF
310
FFF0003FFFFF8001F000E0003FFFFF0001FF0001FFE000001FFE0007FF80007F
310
C0007FFFFE0003FC0007FFFFE0003FF8000001FFFE0000007FFFFFF0001FFFFF
310
FE0001FFFFFFC0003FFE0001FFFFFFC0003FFF0003FFFFFFFFF0003FFFFF0001
310
F000E0003FFFFF0003FF0001FFE000003FFE0007FF80007FC0007FFFFE0003FC
310
0007FFFFE0003FF8000001FFFE0000007FFFFFF0001FFFFFFF0001FFFFFFC000
310
7FFF0001FFFFFFC0007FFF0003FFFFFFFFF0003FFFFF0001F000E0003FFFFE00
310
03FF0003FFF000003FFE0003FF80007FC0007FFFFC0003FE0007FFFFE0003FF8
310
000001FFFE0000007FFFFFF0001FFFFFFF0000FFFFFF80007FFF0000FFFFFF80
310
007FFF0003FFFFFFFFF0003FFFFF0001F000E0003FFFFE0003FF0003FFF00000
310
3FFF0003FF80007FC0007FFFFC0007FE0007FFFFC0003FF8000001FFFE000000
310
7FFFFFF0001FFFFFFF80007FFFFF0000FFFF80007FFFFF0000FFFF0003FFFFFF
310
FFF0003FFFFF0003F000E0003FFFFC0003FE0003FFF000003FFF0003FF80007F
310
E0003FFFF80007FE0003FFFFC0007FF8000001FFFE0000007FFFFFF0001FFFFF
310
FF80003FFFFE0000FFFF80003FFFFE0000FFFF0003FFFFFFFFF0001FFFFE0003
310
F000F0001FFFF80003FE0003FFF000007FFF0001FF80007FE0003FFFF00007FE
310
0001FFFF80007FF8000001FFFE0000007FFFFFF0001FFFFFFFC0000FFFF80001
310
FFFFC0000FFFF80001FFFF0003FFFFFFFFF0001FFFFC0003F000F0000FFFF000
310
07FE0007FFF800007FFF0001FF80007FE0001FFFE00007FF0000FFFE00007FF8
310
000001FFFE0000007FFFFFF0001FFFFFFFC00003FFE00001FFFFC00003FFE000
310
01FFFF0003FFFFFFFFF8000FFFF80003F000F00003FFC00007FC0007FFF80000
310
7FFF8001FF80007FF00007FF80000FFF00007FF80000FFF8000001FFFE000000
310
7F80000000000001FFE000003E000003FFFFE000003E000003FFFF0003FFFFFF
310
FFF80003FFE00007F000F800000000000FFC0007FFF800007FFF8001FF80007F
310
F000000000000FFF000000000000FFF8000001FFFE0000007F80000000000001
310
FFF0000000000007FFFFF0000000000007FFFF0003FFFFFFFFFC00007E000007
310
F000F800000000000FFC0007FFF80000FFFF8000FF80007FF800000000001FFF
310
800000000001FFF8000001FFFE0000007F80000000000001FFF800000000000F
310
FFFFF800000000000FFFFF0003FFFFFFFFFC00000000000FF000FC0000000000
310
1FFC0007FFFC0000FFFF8000FF80007FF800000000003FFFC00000000001FFF8
310
000001FFFE0000007F80000000000001FFF800000000000FFFFFF80000000000
310
0FFFFF0003FFFFFFFFFE00000000001FF000FE00000000003FF8000FFFFC0000
310
FFFF8000FF80007FFC00000000003FFFC00000000003FFF8000001FFFE000000
310
7F80000000000001FFFC00000000001FFFFFFC00000000001FFFFF0003FFFFFF
310
FFFF00000000001FF000FF00000000003FF8000FFFFC0000FFFFC000FF80007F
310
FE00000000007FFFE00000000007FFF8000001FFFE0000007F80000000000001
310
FFFE00000000003FFFFFFE00000000003FFFFF0003FFFFFFFFFF80000000003F
310
F000FF80000000007FF8000FFFFC0001FFFFC0007F80007FFF0000000000FFFF
310
F0000000000FFFF800000000000000007F80000000000001FFFF8000000000FF
310
FFFFFF8000000000FFFFFF0003FFFFFFFFFFC0000000007FF000FFC000000000
310
FFF8000FFFFE0001FFFFC0007F80007FFF8000000001FFFFF8000000001FFFF8
310
00000000000000007F80000000000001FFFFC000000001FFFFFFFFC000000001
310
FFFFFF0003FFFFFFFFFFE000000000FFF000FFE000000003FFF0001FFFFE0001
310
FFFFC0007F80007FFFC000000007FFFFFE000000003FFFF80000000000000000
310
7F80000000000001FFFFE000000003FFFFFFFFE000000003FFFFFF0003FFFFFF
310
FFFFF000000003FFF000FFF80000000FFFF0001FFFFE0001FFFFE0007F80007F
310
FFF00000000FFFFFFF00000000FFFFF800000000000000007F80000000000001
310
FFFFF80000000FFFFFFFFFF80000000FFFFFFF0003FFFFFFFFFFFC0000000FFF
310
F000FFFE0000003FFFF0001FFFFE0003FFFFE0003F80007FFFFC0000003FFFFF
310
FFC0000003FFFFF800000000000000007F80000000000001FFFFFE0000003FFF
310
FFFFFFFE0000003FFFFFFF0003FFFFFFFFFFFF0000003FFFF000FFFF800000FF
310
FFF0001FFFFF0003FFFFE0003F80007FFFFF000001FFFFFFFFF800001FFFFFF8
310
00000000000000007F80000000000001FFFFFFC00001FFFFFFFFFFFFC00001FF
310
FFFFFF0003FFFFFFFFFFFFC00000FFFFF000FFFFF8000FFFFFFFFFFFFFFFFFFF
310
FFFFFFFFFFFFFFFFFFFFF0001FFFFFFFFFFF0000FFFFFFF80000000000000000
310
7FFFFFFFFFFFFFFFFFFFFFFC001FFFFFFFFFFFFFFC001FFFFFFFFFFFFFFFFFFF
310
FFFFFFFC001FFFFFF000FFFFFFFFFFFFFFFFFFFFFFFFFFFFFFFFFFFFFFFFFFFF
310
FFFFFFFFFFFFFFFFFFFFFFFFFFFFFFFFFFFFFFFFFFFFFFFFFFFFFFFFFFFFFFFF
310
FFFFFFFFFFFFFFFFFFFFFFFFFFFFFFFFFFFFFFFFFFFFFFFFFFFFFFFFFFFFFFFF
310
F000FFFFFFFFFFFFFFFFFFFFFFFFFFFFFFFFFFFFFFFFFFFFFFFFFFFFFFFFFFFF
310
FFFFFFFFFFFFFFFFFFFFFFFFFFFFFFFFFFFFFFFFFFFFFFFFFFFFFFFFFFFFFFFF
310
FFFFFFFFFFFFFFFFFFFFFFFFFFFFFFFFFFFFFFFFFFFFFFFFF000FFFFFFFFFFFF
310
FFFFFFFFFFFFFFFFFFFFFFFFFFFFFFFFFFFFFFFFFFFFFFFFFFFFFFFFFFFFFFFF
310
FFFFFFFFFFFFFFFFFFFFFFFFFFFFFFFFFFFFFFFFFFFFFFFFFFFFFFFFFFFFFFFF
310
FFFFFFFFFFFFFFFFFFFFFFFFFFFFFFFFF000FFFFFFFFFFFFFFFFFFFFFFFFFFFF
310
FFFFFFFFFFFFFFFFFFFFFFFFFFFFFFFFFFFFFFFFFFFFFFFFFFFFFFFFFFFFFFFF
310
FFFFFFFFFFFFFFFFFFFFFFFFFFFFFFFFFFFFFFFFFFFFFFFFFFFFFFFFFFFFFFFF
310
FFFFFFFFFFFFFFFFF000FFFFFFFFFFFFFFFFFFFFFFFFFFFFFFFFFFFFFFFFFFFF
310
FFFFFFFFFFFFFFFFFFFFFFFFFFFFFFFFFFFFFFFFFFFFFFFFFFFFFFFFFFFFFFFF
310
FFFFFFFFFFFFFFFFFFFFFFFFFFFFFFFFFFFFFFFFFFFFFFFFFFFFFFFFFFFFFFFF
310
F000FFFFFFFFFFFFFFFFFFFFFFFFFFFFFFFFFFFFFFFFFFFFFFFFFFFFFFFFFFFF
310
FFFFFFFFFFFFFFFFFFFFFFFFFFFFFFFFFFFFFFFFFFFFFFFFFFFFFFFFFFFFFFFF
310
FFFFFFFFFFFFFFFFFFFFFFFFFFFFFFFFFFFFFFFFFFFFFFFFF000FFFFFFFFFFFF
310
FFFFFFFFFFFFFFFFFFFFFFFFFFFFFFFFFFFFFFFFFFFFFFFFFFFFFFFFFFFFFFFF
310
FFFFFFFFFFFFFFFFFFFFFFFFFFFFFFFFFFFFFFFFFFFFFFFFFFFFFFFFFFFFFFFF
310
FFFFFFFFFFFFFFFFFFFFFFFFFFFFFFFFF000FFFFFFFFFFFFFFFFFFFFFFFFFFFF
310
FFFFFFFFFFFFFFFFFFFFFFFFFFFFFFFFFFFFFFFFFFFFFFFFFFFFFFFFFFFFFFFF
310
FFFFFFFFFFFFFFFFFFFFFFFFFFFFFFFFFFFFFFFFFFFFFFFFFFFFFFFFFFFFFFFF
310
FFFFFFFFFFFFFFFFF000FFFFFFFFFFFFFFFFFFFFFFFFFFFFFFFFFFFFFFFFFFFF
310
FFFFFFFFFFFFFFFFFFFFFFFFFFFFFFFFFFFFFFFFFFFFFFFFFFFFFFFFFFFFFFFF
310
FFFFFFFFFFFFFFFFFFFFFFFFFFFFFFFFFFFFFFFFFFFFFFFFFFFFFFFFFFFFFFFF
310
F000FFFFFFFFFFFFFFFFFFFFFFFFFFFFFFFFFFFFFFFFFFFFFFFFFFFFFFFFFFFF
310
FFFFFFFFFFFFFFFFFFFFFFFFFFFFFFFFFFFFFFFFFFFFFFFFFFFFFFFFFFFFFFFF
310
FFFFFFFFFFFFFFFFFFFFFFFFFFFFFFFFFFFFFFFFFFFFFFFFF000FFFFFFFFFFFF
310
FFFFFFFFFFFFFFFFFFFFFFFFFFFFFFFFFFFFFFFFFFFFFFFFFFFFFFFFFFFFFFFF
310
FFFFFFFFFFFFFFFFFFFFFFFFFFFFFFFFFFFFFFFFFFFFFFFFFFFFFFFFFFFFFFFF
310
FFFFFFFFFFFFFFFFFFFFFFFFFFFFFFFFF000FFFFFFFFFFFFFFFFFFFFFFFFFFFF
310
FFFFFFFFFFFFFFFFFFFFFFFFFFFFFFFFFFFFFFFFFFFFFFFFFFFFFFFFFFFFFFFF
310
FFFFFFFFFFFFFFFFFFFFFFFFFFFFFFFFFFFFFFFFFFFFFFFFFFFFFFFFFFFFFFFF
310
FFFFFFFFFFFFFFFFF000FFFFFFFFFFFFFFFFFFFFFFFFFFFFFFFFFFFFFFFFFFFF
310
FFFFFFFFFFFFFFFFFFFFFFFFFFFFFFFFFFFFFFFFFFFFFFFFFFFFFFFFFFFFFFFF
310
FFFFFFFFFFFFFFFFFFFFFFFFFFFFFFFFFFFFFFFFFFFFFFFFFFFFFFFFFFFFFFFF
310
F000FFFFFFFFFFFFFFFFFFFFFFFFFFFFFFFFFFFFFFFFFFFFFFFFFFFFFFFFFFFF
310
FFFFFFFFFFFFFFFFFFFFFFFFFFFFFFFFFFFFFFFFFFFFFFFFFFFFFFFFFFFFFFFF
310
FFFFFFFFFFFFFFFFFFFFFFFFFFFFFFFFFFFFFFFFFFFFFFFFF000FFFFFFFFFFFF
310
FFFFFFFFFFFFFFFFFFFFFFFFFFFFFFFFFFFFFFFFFFFFFFFFFFFFFFFFFFFFFFFF
310
FFFFFFFFFFFFFFFFFFFFFFFFFFFFFFFFFFFFFFFFFFFFFFFFFFFFFFFFFFFFFFFF
310
FFFFFFFFFFFFFFFFFFFFFFFFFFFFFFFFF000FFFFFFFFFFFFFFFFFFFFFFFFFFFF
310
FFFFFFFFFFFFFFFFFFFFFFFFFFFFFFFFFFFFFFFFFFFFFFFFFFFFFFFFFFFFFFFF
310
FFFFFFFFFFFFFFFFFFFFFFFFFFFFFFFFFFFFFFFFFFFFFFFFFFFFFFFFFFFFFFFF
310
FFFFFFFFFFFFFFFFF000FFFFFFFFFFFFFFFFFFFFFFFFFFFFFFFFFFFFFFFFFFFF
310
FFFFFFFFFFFFFFFFFFFFFFFFFFFFFFFFFFFFFFFFFFFFFFFFFFFFFFFFFFFFFFFF
310
FFFFFFFFFFFFFFFFFFFFFFFFFFFFFFFFFFFFFFFFFFFFFFFFFFFFFFFFFFFFFFFF
310
F000FFFFFFFFFFFFFFFFFFFFFFFFFFFFFFFFFFFFFFFFFFFFFFFFFFFFFFFFFFFF
310
FFFFFFFFFFFFFFFFFFFFFFFFFFFFFFFFFFFFFFFFFFFFFFFFFFFFFFFFFFFFFFFF
310
FFFFFFFFFFFFFFFFFFFFFFFFFFFFFFFFFFFFFFFFFFFFFFFFF000FFFFFFFFFFFF
310
FFFFFFFFFFFFFFFFFFFFFFFFFFFFFFFFFFFFFFFFFFFFFFFFFFFFFFFFFFFFFFFF
310
FFFFFFFFFFFFFFFFFFFFFFFFFFFFFFFFFFFFFFFFFFFFFFFFFFFFFFFFFFFFFFFF
310
FFFFFFFFFFFFFFFFFFFFFFFFFFFFFFFFF000FFFFFFFFFFFFFFFFFFFFFFFFFFFF
310
FFFFFFFFFFFFFFFFFFFFFFFFFFFFFFFFFFFFFFFFFFFFFFFFFFFFFFFFFFFFFFFF
310
FFFFFFFFFFFFFFFFFFFFFFFFFFFFFFFFFFFFFFFFFFFFFFFFFFFFFFFFFFFFFFFF
310
FFFFFFFFFFFFFFFFF000FFFFFFFFFFFFFFFFFFFFFFFFFFFFFFFFFFFFFFFFFFFF
310
FFFFFFFFFFFFFFFFFFFFFFFFFFFFFFFFFFFFFFFFFFFFFFFFFFFFFFFFFFFFFFFF
310
FFFFFFFFFFFFFFFFFFFFFFFFFFFFFFFFFFFFFFFFFFFFFFFFFFFFFFFFFFFFFFFF
310
F000FFFFFFFFFFFFFFFFFFFFFFFFFFFFFFFFFFFFFFFFFFFFFFFFFFFFFFFFFFFF
310
FFFFFFFFFFFFFFFFFFFFFFFFFFFFFFFFFFFFFFFFFFFFFFFFFFFFFFFFFFFFFFFF
310
FFFFFFFFFFFFFFFFFFFFFFFFFFFFFFFFFFFFFFFFFFFFFFFFF000FFFFFFFFFFFF
310
FFFFFFFFFFFFFFFFFFFFFFFFFFFFFFFFFFFFFFFFFFFFFFFFFFFFFFFFFFFFFFFF
310
FFFFFFFFFFFFFFFFFFFFFFFFFFFFFFFFFFFFFFFFFFFFFFFFFFFFFFFFFFFFFFFF
310
FFFFFFFFFFFFFFFFFFFFFFFFFFFFFFFFF0000000000000000000000000000000
310
0000000000000000000000000000000000000000000000000000000000000000
310
0000000000000000000000000000000000000000000000000000000000000000
310
0000000000000000000000000000000000000000000000000000000000000000
310
0000000000000000000000000000000000000000000000000000000000000000
310
0000000000000000000000000000000000000000000000000000000000000000
310
0000000000000000000000000000000000000000000000000000000000000000
310
0000000000000000000000000000000000000000000000000000000000000000
310
0000000000000000000000000000000000000000000000000000000000000000
310
0000000000000000000000000000000000000000000000000000000000000000
310
0000000000000000000000000000000000000000000000000000000000000000
310
0000000000000000000000000000000000000000000000000000000000000000
310
0000000000000000000000000000000000000000000000000000000000000000
310
0000000000000000000000000000000000000000000000000000000000000000
310
0000000000000000000000000000000000000000000000000000000000000000
310
0000000000000000000000000000000000000000000000000000000000000000
  1
OLE
  0
ENDSEC
  0
SECTION
  2
OBJECTS
  0
DICTIONARY
  5
C
330
0
100
AcDbDictionary
281
     1
  3
ACAD_GROUP
350
D
  3
ACAD_LAYOUT
350
1A
  3
ACAD_MLINESTYLE
350
17
  3
ACAD_PLOTSETTINGS
350
19
  3
ACAD_PLOTSTYLENAME
350
E
  3
ACAD_SCALELIST
350
47
  0
DICTIONARY
  5
D
102
{ACAD_REACTORS
330
C
102
}
330
C
100
AcDbDictionary
281
     1
  0
DICTIONARY
  5
1A
102
{ACAD_REACTORS
330
C
102
}
330
C
100
AcDbDictionary
281
     1
  3
Layout1
350
1E
  3
Layout2
350
26
  3
Model
350
22
  0
DICTIONARY
  5
17
102
{ACAD_REACTORS
330
C
102
}
330
C
100
AcDbDictionary
281
     1
  3
Standard
350
18
  0
DICTIONARY
  5
19
102
{ACAD_REACTORS
330
C
102
}
330
C
100
AcDbDictionary
281
     1
  0
ACDBDICTIONARYWDFLT
  5
E
102
{ACAD_REACTORS
330
C
102
}
330
C
100
AcDbDictionary
281
     1
  3
Normal
350
F
100
AcDbDictionaryWithDefault
340
F
  0
DICTIONARY
  5
47
102
{ACAD_REACTORS
330
C
102
}
330
C
100
AcDbDictionary
281
     1
  3
A0
350
48
  3
A1
350
49
  3
A2
350
4A
  3
A3
350
4B
  3
A4
350
4C
  3
A5
350
4D
  3
A6
350
4E
  3
A7
350
4F
  3
A8
350
50
  3
A9
350
51
  3
B0
350
52
  3
B1
350
53
  3
B2
350
54
  3
B3
350
55
  3
B4
350
56
  3
B5
350
57
  3
B6
350
58
  3
B7
350
59
  3
B8
350
5A
  3
B9
350
5B
  3
C0
350
5C
  3
C1
350
5D
  3
C2
350
5E
  3
C3
350
5F
  3
C4
350
60
  3
C5
350
61
  3
C6
350
62
  3
C7
350
63
  3
C8
350
64
  3
C9
350
65
  3
D0
350
66
  3
D1
350
67
  3
D2
350
68
  0
LAYOUT
  5
1E
102
{ACAD_REACTORS
330
1A
102
}
330
1A
100
AcDbPlotSettings
  1

  2
none_device
  4

  6

 40
0.0
 41
0.0
 42
0.0
 43
0.0
 44
0.0
 45
0.0
 46
0.0
 47
0.0
 48
0.0
 49
0.0
140
0.0
141
0.0
142
1.0
143
1.0
 70
   688
 72
     1
 73
     0
 74
     5
  7

 75
    16
147
1.0
148
0.0
149
0.0
100
AcDbLayout
  1
Layout1
 70
     1
 71
     1
 10
0.0
 20
0.0
 11
420.0
 21
297.0
 12
0.0
 22
0.0
 32
0.0
 14
1.0000000000E+20
 24
1.0000000000E+20
 34
1.0000000000E+20
 15
-1.0000000000E+20
 25
-1.0000000000E+20
 35
-1.0000000000E+20
146
0.0
 13
0.0
 23
0.0
 33
0.0
 16
1.0
 26
0.0
 36
0.0
 17
0.0
 27
1.0
 37
0.0
 76
     0
330
1B
  0
LAYOUT
  5
26
102
{ACAD_REACTORS
330
1A
102
}
330
1A
100
AcDbPlotSettings
  1

  2
none_device
  4

  6

 40
0.0
 41
0.0
 42
0.0
 43
0.0
 44
0.0
 45
0.0
 46
0.0
 47
0.0
 48
0.0
 49
0.0
140
0.0
141
0.0
142
1.0
143
1.0
 70
   688
 72
     1
 73
     0
 74
     5
  7

 75
    16
147
1.0
148
0.0
149
0.0
100
AcDbLayout
  1
Layout2
 70
     1
 71
     2
 10
0.0
 20
0.0
 11
0.0
 21
0.0
 12
0.0
 22
0.0
 32
0.0
 14
0.0
 24
0.0
 34
0.0
 15
0.0
 25
0.0
 35
0.0
146
0.0
 13
0.0
 23
0.0
 33
0.0
 16
1.0
 26
0.0
 36
0.0
 17
0.0
 27
1.0
 37
0.0
 76
     0
330
23
  0
LAYOUT
  5
22
102
{ACAD_REACTORS
330
1A
102
}
330
1A
100
AcDbPlotSettings
  1

  2
none_device
  4
Letter_(8.50_x_11.00_Inches)
  6

 40
6.35
 41
6.35
 42
6.35000508
 43
6.35000508
 44
215.9
 45
279.4
 46
0.0
 47
0.0
 48
0.0
 49
0.0
140
0.0
141
0.0
142
1.0
143
1.0
 70
  1712
 72
     1
 73
     0
 74
     0
  7

 75
     0
147
1.0
148
0.0
149
0.0
100
AcDbLayout
  1
Model
 70
     1
 71
     0
 10
0.0
 20
0.0
 11
297.0
 21
210.0
 12
0.0
 22
0.0
 32
0.0
 14
0.0
 24
0.0
 34
0.0
 15
297.0
 25
210.0
 35
0.0
146
0.0
 13
0.0
 23
0.0
 33
0.0
 16
1.0
 26
0.0
 36
0.0
 17
0.0
 27
1.0
 37
0.0
 76
     0
330
1F
331
29
  0
MLINESTYLE
  5
18
102
{ACAD_REACTORS
330
17
102
}
330
17
100
AcDbMlineStyle
  2
Standard
 70
     0
  3

 62
   256
 51
90.0
 52
90.0
 71
     2
 49
0.5
 62
   256
  6
BYLAYER
 49
-0.5
 62
   256
  6
BYLAYER
  0
ACDBPLACEHOLDER
  5
F
102
{ACAD_REACTORS
330
E
102
}
330
E
  0
SCALE
  5
48
102
{ACAD_REACTORS
330
47
102
}
330
47
100
AcDbScale
 70
     0
300
1:1
140
1.0
141
1.0
290
     1
  0
SCALE
  5
49
102
{ACAD_REACTORS
330
47
102
}
330
47
100
AcDbScale
 70
     0
300
1:2
140
1.0
141
2.0
290
     0
  0
SCALE
  5
4A
102
{ACAD_REACTORS
330
47
102
}
330
47
100
AcDbScale
 70
     0
300
1:4
140
1.0
141
4.0
290
     0
  0
SCALE
  5
4B
102
{ACAD_REACTORS
330
47
102
}
330
47
100
AcDbScale
 70
     0
300
1:5
140
1.0
141
5.0
290
     0
  0
SCALE
  5
4C
102
{ACAD_REACTORS
330
47
102
}
330
47
100
AcDbScale
 70
     0
300
1:8
140
1.0
141
8.0
290
     0
  0
SCALE
  5
4D
102
{ACAD_REACTORS
330
47
102
}
330
47
100
AcDbScale
 70
     0
300
1:10
140
1.0
141
10.0
290
     0
  0
SCALE
  5
4E
102
{ACAD_REACTORS
330
47
102
}
330
47
100
AcDbScale
 70
     0
300
1:16
140
1.0
141
16.0
290
     0
  0
SCALE
  5
4F
102
{ACAD_REACTORS
330
47
102
}
330
47
100
AcDbScale
 70
     0
300
1:20
140
1.0
141
20.0
290
     0
  0
SCALE
  5
50
102
{ACAD_REACTORS
330
47
102
}
330
47
100
AcDbScale
 70
     0
300
1:30
140
1.0
141
30.0
290
     0
  0
SCALE
  5
51
102
{ACAD_REACTORS
330
47
102
}
330
47
100
AcDbScale
 70
     0
300
1:40
140
1.0
141
40.0
290
     0
  0
SCALE
  5
52
102
{ACAD_REACTORS
330
47
102
}
330
47
100
AcDbScale
 70
     0
300
1:50
140
1.0
141
50.0
290
     0
  0
SCALE
  5
53
102
{ACAD_REACTORS
330
47
102
}
330
47
100
AcDbScale
 70
     0
300
1:100
140
1.0
141
100.0
290
     0
  0
SCALE
  5
54
102
{ACAD_REACTORS
330
47
102
}
330
47
100
AcDbScale
 70
     0
300
2:1
140
2.0
141
1.0
290
     0
  0
SCALE
  5
55
102
{ACAD_REACTORS
330
47
102
}
330
47
100
AcDbScale
 70
     0
300
4:1
140
4.0
141
1.0
290
     0
  0
SCALE
  5
56
102
{ACAD_REACTORS
330
47
102
}
330
47
100
AcDbScale
 70
     0
300
8:1
140
8.0
141
1.0
290
     0
  0
SCALE
  5
57
102
{ACAD_REACTORS
330
47
102
}
330
47
100
AcDbScale
 70
     0
300
10:1
140
10.0
141
1.0
290
     0
  0
SCALE
  5
58
102
{ACAD_REACTORS
330
47
102
}
330
47
100
AcDbScale
 70
     0
300
100:1
140
100.0
141
1.0
290
     0
  0
SCALE
  5
59
102
{ACAD_REACTORS
330
47
102
}
330
47
100
AcDbScale
 70
     0
300
1/128" = 1'-0"
140
0.0078125
141
12.0
290
     0
  0
SCALE
  5
5A
102
{ACAD_REACTORS
330
47
102
}
330
47
100
AcDbScale
 70
     0
300
1/64" = 1'-0"
140
0.015625
141
12.0
290
     0
  0
SCALE
  5
5B
102
{ACAD_REACTORS
330
47
102
}
330
47
100
AcDbScale
 70
     0
300
1/32" = 1'-0"
140
0.03125
141
12.0
290
     0
  0
SCALE
  5
5C
102
{ACAD_REACTORS
330
47
102
}
330
47
100
AcDbScale
 70
     0
300
1/16" = 1'-0"
140
0.0625
141
12.0
290
     0
  0
SCALE
  5
5D
102
{ACAD_REACTORS
330
47
102
}
330
47
100
AcDbScale
 70
     0
300
3/32" = 1'-0"
140
0.09375
141
12.0
290
     0
  0
SCALE
  5
5E
102
{ACAD_REACTORS
330
47
102
}
330
47
100
AcDbScale
 70
     0
300
1/8" = 1'-0"
140
0.125
141
12.0
290
     0
  0
SCALE
  5
5F
102
{ACAD_REACTORS
330
47
102
}
330
47
100
AcDbScale
 70
     0
300
3/16" = 1'-0"
140
0.1875
141
12.0
290
     0
  0
SCALE
  5
60
102
{ACAD_REACTORS
330
47
102
}
330
47
100
AcDbScale
 70
     0
300
1/4" = 1'-0"
140
0.25
141
12.0
290
     0
  0
SCALE
  5
61
102
{ACAD_REACTORS
330
47
102
}
330
47
100
AcDbScale
 70
     0
300
3/8" = 1'-0"
140
0.375
141
12.0
290
     0
  0
SCALE
  5
62
102
{ACAD_REACTORS
330
47
102
}
330
47
100
AcDbScale
 70
     0
300
1/2" = 1'-0"
140
0.5
141
12.0
290
     0
  0
SCALE
  5
63
102
{ACAD_REACTORS
330
47
102
}
330
47
100
AcDbScale
 70
     0
300
3/4" = 1'-0"
140
0.75
141
12.0
290
     0
  0
SCALE
  5
64
102
{ACAD_REACTORS
330
47
102
}
330
47
100
AcDbScale
 70
     0
300
1" = 1'-0"
140
1.0
141
12.0
290
     0
  0
SCALE
  5
65
102
{ACAD_REACTORS
330
47
102
}
330
47
100
AcDbScale
 70
     0
300
1-1/2" = 1'-0"
140
1.5
141
12.0
290
     0
  0
SCALE
  5
66
102
{ACAD_REACTORS
330
47
102
}
330
47
100
AcDbScale
 70
     0
300
3" = 1'-0"
140
3.0
141
12.0
290
     0
  0
SCALE
  5
67
102
{ACAD_REACTORS
330
47
102
}
330
47
100
AcDbScale
 70
     0
300
6" = 1'-0"
140
6.0
141
12.0
290
     0
  0
SCALE
  5
68
102
{ACAD_REACTORS
330
47
102
}
330
47
100
AcDbScale
 70
     0
300
1'-0" = 1'-0"
140
12.0
141
12.0
290
     0
  0
ENDSEC
  0
EOF
