  0
SECTION
  2
HEADER
  9
$ACADVER
  1
AC1015
  9
$ACADMAINTVER
 70
     6
  9
$DWGCODEPAGE
  3
ANSI_1252
  9
$INSBASE
 10
0.0
 20
0.0
 30
0.0
  9
$EXTMIN
 10
0.0
 20
0.0
 30
0.0
  9
$EXTMAX
 10
297.0
 20
210.0
 30
0.0
  9
$LIMMIN
 10
0.0
 20
0.0
  9
$LIMMAX
 10
297.0
 20
210.0
  9
$ORTHOMODE
 70
     0
  9
$REGENMODE
 70
     1
  9
$FILLMODE
 70
     1
  9
$QTEXTMODE
 70
     0
  9
$MIRRTEXT
 70
     1
  9
$LTSCALE
 40
1.0
  9
$ATTMODE
 70
     1
  9
$TEXTSIZE
 40
2.0
  9
$TRACEWID
 40
1.0
  9
$TEXTSTYLE
  7
Standard
  9
$CLAYER
  8
0
  9
$CELTYPE
  6
ByLayer
  9
$CECOLOR
 62
   256
  9
$CELTSCALE
 40
1.0
  9
$DISPSILH
 70
     0
  9
$DIMSCALE
 40
1.0
  9
$DIMASZ
 40
3.0
  9
$DIMEXO
 40
0.0
  9
$DIMDLI
 40
3.75
  9
$DIMRND
 40
0.0
  9
$DIMDLE
 40
0.0
  9
$DIMEXE
 40
1.0
  9
$DIMTP
 40
0.0
  9
$DIMTM
 40
0.0
  9
$DIMTXT
 40
2.0
  9
$DIMCEN
 40
2.5
  9
$DIMTSZ
 40
0.0
  9
$DIMTOL
 70
     0
  9
$DIMLIM
 70
     0
  9
$DIMTIH
 70
     1
  9
$DIMTOH
 70
     1
  9
$DIMSE1
 70
     0
  9
$DIMSE2
 70
     0
  9
$DIMTAD
 70
     1
  9
$DIMZIN
 70
     0
  9
$DIMBLK
  1

  9
$DIMASO
 70
     1
  9
$DIMSHO
 70
     1
  9
$DIMPOST
  1

  9
$DIMAPOST
  1

  9
$DIMALT
 70
     0
  9
$DIMALTD
 70
     3
  9
$DIMALTF
 40
0.0393700787
  9
$DIMLFAC
 40
1.0
  9
$DIMTOFL
 70
     1
  9
$DIMTVP
 40
0.0
  9
$DIMTIX
 70
     0
  9
$DIMSOXD
 70
     0
  9
$DIMSAH
 70
     0
  9
$DIMBLK1
  1

  9
$DIMBLK2
  1

  9
$DIMSTYLE
  2
ISO-25
  9
$DIMCLRD
 70
     0
  9
$DIMCLRE
 70
     0
  9
$DIMCLRT
 70
     0
  9
$DIMTFAC
 40
1.0
  9
$DIMGAP
 40
1.524
  9
$DIMJUST
 70
     0
  9
$DIMSD1
 70
     0
  9
$DIMSD2
 70
     0
  9
$DIMTOLJ
 70
     0
  9
$DIMTZIN
 70
     0
  9
$DIMALTZ
 70
     0
  9
$DIMALTTZ
 70
     0
  9
$DIMUPT
 70
     0
  9
$DIMDEC
 70
     2
  9
$DIMTDEC
 70
     3
  9
$DIMALTU
 70
     2
  9
$DIMALTTD
 70
     3
  9
$DIMTXSTY
  7
Standard
  9
$DIMAUNIT
 70
     0
  9
$DIMADEC
 70
     2
  9
$DIMALTRND
 40
0.0
  9
$DIMAZIN
 70
     0
  9
$DIMDSEP
 70
    44
  9
$DIMATFIT
 70
     3
  9
$DIMFRAC
 70
     0
  9
$DIMLDRBLK
  1

  9
$DIMLUNIT
 70
     2
  9
$DIMLWD
 70
    -2
  9
$DIMLWE
 70
    -2
  9
$DIMTMOVE
 70
     0
  9
$LUNITS
 70
     2
  9
$LUPREC
 70
     2
  9
$SKETCHINC
 40
1.0
  9
$FILLETRAD
 40
10.0
  9
$AUNITS
 70
     0
  9
$AUPREC
 70
     2
  9
$MENU
  1
.
  9
$ELEVATION
 40
0.0
  9
$PELEVATION
 40
0.0
  9
$THICKNESS
 40
0.0
  9
$LIMCHECK
 70
     0
  9
$CHAMFERA
 40
0.0
  9
$CHAMFERB
 40
0.0
  9
$CHAMFERC
 40
0.0
  9
$CHAMFERD
 40
0.0
  9
$SKPOLY
 70
     0
  9
$TDCREATE
 40
2457632.475618576
  9
$TDUCREATE
 40
2457632.392285243
  9
$TDUPDATE
 40
2457632.475619907
  9
$TDUUPDATE
 40
2457632.392286574
  9
$TDINDWG
 40
0.0000000116
  9
$TDUSRTIMER
 40
0.0000000116
  9
$USRTIMER
 70
     1
  9
$ANGBASE
 50
0.0
  9
$ANGDIR
 70
     0
  9
$PDMODE
 70
     0
  9
$PDSIZE
 40
-1.0
  9
$PLINEWID
 40
0.0
  9
$SPLFRAME
 70
     0
  9
$SPLINETYPE
 70
     6
  9
$SPLINESEGS
 70
     8
  9
$HANDSEED
  5
2C1
  9
$SURFTAB1
 70
     6
  9
$SURFTAB2
 70
     6
  9
$SURFTYPE
 70
     6
  9
$SURFU
 70
     6
  9
$SURFV
 70
     6
  9
$UCSBASE
  2

  9
$UCSNAME
  2

  9
$UCSORG
 10
0.0
 20
0.0
 30
0.0
  9
$UCSXDIR
 10
1.0
 20
0.0
 30
0.0
  9
$UCSYDIR
 10
0.0
 20
1.0
 30
0.0
  9
$UCSORTHOREF
  2

  9
$UCSORTHOVIEW
 70
     0
  9
$UCSORGTOP
 10
0.0
 20
0.0
 30
0.0
  9
$UCSORGBOTTOM
 10
0.0
 20
0.0
 30
0.0
  9
$UCSORGLEFT
 10
0.0
 20
0.0
 30
0.0
  9
$UCSORGRIGHT
 10
0.0
 20
0.0
 30
0.0
  9
$UCSORGFRONT
 10
0.0
 20
0.0
 30
0.0
  9
$UCSORGBACK
 10
0.0
 20
0.0
 30
0.0
  9
$PUCSBASE
  2

  9
$PUCSNAME
  2

  9
$PUCSORG
 10
0.0
 20
0.0
 30
0.0
  9
$PUCSXDIR
 10
1.0
 20
0.0
 30
0.0
  9
$PUCSYDIR
 10
0.0
 20
1.0
 30
0.0
  9
$PUCSORTHOREF
  2

  9
$PUCSORTHOVIEW
 70
     0
  9
$PUCSORGTOP
 10
0.0
 20
0.0
 30
0.0
  9
$PUCSORGBOTTOM
 10
0.0
 20
0.0
 30
0.0
  9
$PUCSORGLEFT
 10
0.0
 20
0.0
 30
0.0
  9
$PUCSORGRIGHT
 10
0.0
 20
0.0
 30
0.0
  9
$PUCSORGFRONT
 10
0.0
 20
0.0
 30
0.0
  9
$PUCSORGBACK
 10
0.0
 20
0.0
 30
0.0
  9
$USERI1
 70
     0
  9
$USERI2
 70
     0
  9
$USERI3
 70
     0
  9
$USERI4
 70
     0
  9
$USERI5
 70
     0
  9
$USERR1
 40
0.0
  9
$USERR2
 40
0.0
  9
$USERR3
 40
0.0
  9
$USERR4
 40
0.0
  9
$USERR5
 40
0.0
  9
$WORLDVIEW
 70
     1
  9
$SHADEDGE
 70
     3
  9
$SHADEDIF
 70
    70
  9
$TILEMODE
 70
     1
  9
$MAXACTVP
 70
    64
  9
$PINSBASE
 10
0.0
 20
0.0
 30
0.0
  9
$PLIMCHECK
 70
     0
  9
$PEXTMIN
 10
1.0000000000E+20
 20
1.0000000000E+20
 30
1.0000000000E+20
  9
$PEXTMAX
 10
-1.0000000000E+20
 20
-1.0000000000E+20
 30
-1.0000000000E+20
  9
$PLIMMIN
 10
0.0
 20
0.0
  9
$PLIMMAX
 10
420.0
 20
297.0
  9
$UNITMODE
 70
     0
  9
$VISRETAIN
 70
     1
  9
$PLINEGEN
 70
     0
  9
$PSLTSCALE
 70
     1
  9
$TREEDEPTH
 70
  3020
  9
$CMLSTYLE
  2
Standard
  9
$CMLJUST
 70
     0
  9
$CMLSCALE
 40
20.0
  9
$PROXYGRAPHICS
 70
     1
  9
$MEASUREMENT
 70
     1
  9
$CELWEIGHT
370
    -1
  9
$ENDCAPS
280
     0
  9
$JOINSTYLE
280
     0
  9
$LWDISPLAY
290
     1
  9
$INSUNITS
 70
     4
  9
$HYPERLINKBASE
  1

  9
$STYLESHEET
  1

  9
$XEDIT
290
     1
  9
$CEPSNTYPE
380
     0
  9
$PSTYLEMODE
290
     1
  9
$FINGERPRINTGUID
  2
{08D0E914-01E3-446D-BADB-817596F31944}
  9
$VERSIONGUID
  2
{FAEB1C32-E019-11D5-929B-00C0DF256EC4}
  9
$EXTNAMES
290
     1
  9
$PSVPSCALE
 40
0.0
  9
$OLESTARTUP
290
     0
  0
ENDSEC
  0
SECTION
  2
CLASSES
  0
CLASS
  1
ACDBDICTIONARYWDFLT
  2
AcDbDictionaryWithDefault
  3
ObjectDBX Classes
 90
        0
280
     0
281
     0
  0
CLASS
  1
VISUALSTYLE
  2
AcDbVisualStyle
  3
ObjectDBX Classes
 90
     4095
280
     0
281
     0
  0
CLASS
  1
MATERIAL
  2
AcDbMaterial
  3
ObjectDBX Classes
 90
     1153
280
     0
281
     0
  0
CLASS
  1
SCALE
  2
AcDbScale
  3
ObjectDBX Classes
 90
     1153
280
     0
281
     0
  0
CLASS
  1
TABLESTYLE
  2
AcDbTableStyle
  3
ObjectDBX Classes
 90
     4095
280
     0
281
     0
  0
CLASS
  1
MLEADERSTYLE
  2
AcDbMLeaderStyle
  3
ACDB_MLEADERSTYLE_CLASS
 90
     4095
280
     0
281
     0
  0
CLASS
  1
SUN
  2
AcDbSun
  3
SCENEOE
 90
     1153
280
     0
281
     0
  0
CLASS
  1
ACDBPLACEHOLDER
  2
AcDbPlaceHolder
  3
ObjectDBX Classes
 90
        0
280
     0
281
     0
  0
CLASS
  1
LAYOUT
  2
AcDbLayout
  3
ObjectDBX Classes
 90
        0
280
     0
281
     0
  0
ENDSEC
  0
SECTION
  2
TABLES
  0
TABLE
  2
VPORT
  5
8
330
0
100
AcDbSymbolTable
 70
     1
  0
VPORT
  5
29
330
8
100
AcDbSymbolTableRecord
100
AcDbViewportTableRecord
  2
*Active
 70
     0
 10
0.0
 20
0.0
 11
1.0
 21
1.0
 12
148.5
 22
105.0
 13
0.0
 23
0.0
 14
10.0
 24
10.0
 15
10.0
 25
10.0
 16
0.0
 26
0.0
 36
1.0
 17
0.0
 27
0.0
 37
0.0
 40
210.0
 41
1.4142857143
 42
50.0
 43
0.0
 44
0.0
 50
0.0
 51
0.0
 71
     0
 72
  2000
 73
     1
 74
     3
 75
     0
 76
     0
 77
     0
 78
     0
281
     0
 65
     1
110
0.0
120
0.0
130
0.0
111
1.0
121
0.0
131
0.0
112
0.0
122
1.0
132
0.0
 79
     0
146
0.0
  0
ENDTAB
  0
TABLE
  2
LTYPE
  5
5
330
0
100
AcDbSymbolTable
 70
     6
  0
LTYPE
  5
14
330
5
100
AcDbSymbolTableRecord
100
AcDbLinetypeTableRecord
  2
ByBlock
 70
     0
  3

 72
    65
 73
     0
 40
0.0
  0
LTYPE
  5
15
330
5
100
AcDbSymbolTableRecord
100
AcDbLinetypeTableRecord
  2
ByLayer
 70
     0
  3

 72
    65
 73
     0
 40
0.0
  0
LTYPE
  5
16
330
5
100
AcDbSymbolTableRecord
100
AcDbLinetypeTableRecord
  2
Continuous
 70
     0
  3
Solid line
 72
    65
 73
     0
 40
0.0
  0
LTYPE
  5
6E
330
5
100
AcDbSymbolTableRecord
100
AcDbLinetypeTableRecord
  2
HIDDEN
 70
     0
  3
Hidden __ __ __ __ __ __ __ __ __ __ __ __ __ __
 72
    65
 73
     2
 40
1.905
 49
1.27
 74
     0
 49
-0.635
 74
     0
  0
LTYPE
  5
6F
330
5
100
AcDbSymbolTableRecord
100
AcDbLinetypeTableRecord
  2
PHANTOM
 70
     0
  3
Phantom ______  __  __  ______  __  __  ______
 72
    65
 73
     6
 40
12.7
 49
6.35
 74
     0
 49
-1.27
 74
     0
 49
1.27
 74
     0
 49
-1.27
 74
     0
 49
1.27
 74
     0
 49
-1.27
 74
     0
  0
LTYPE
  5
70
330
5
100
AcDbSymbolTableRecord
100
AcDbLinetypeTableRecord
  2
CENTER
 70
     0
  3
Center ____ _ ____ _ ____ _ ____ _ ____ _ ____
 72
    65
 73
     4
 40
10.16
 49
6.35
 74
     0
 49
-1.27
 74
     0
 49
1.27
 74
     0
 49
-1.27
 74
     0
  0
LTYPE
  5
71
330
5
100
AcDbSymbolTableRecord
100
AcDbLinetypeTableRecord
  2
CENTERX2
 70
     0
  3
Center (2x) ________  __  ________  __  _____
 72
    65
 73
     4
 40
20.32
 49
12.7
 74
     0
 49
-2.54
 74
     0
 49
2.54
 74
     0
 49
-2.54
 74
     0
  0
LTYPE
  5
72
330
5
100
AcDbSymbolTableRecord
100
AcDbLinetypeTableRecord
  2
DOT2
 70
     0
  3
Dot (.5x) ........................................
 72
    65
 73
     2
 40
0.635
 49
0.0
 74
     0
 49
-0.635
 74
     0
  0
ENDTAB
  0
TABLE
  2
LAYER
  5
2
330
0
100
AcDbSymbolTable
 70
     5
  0
LAYER
  5
10
330
2
100
AcDbSymbolTableRecord
100
AcDbLayerTableRecord
  2
0
 70
     0
 62
     7
  6
Continuous
370
    -3
390
F
  0
LAYER
  5
73
330
2
100
AcDbSymbolTableRecord
100
AcDbLayerTableRecord
  2
FORMAT
 70
     0
 62
     7
  6
Continuous
370
    -3
390
F
  0
LAYER
  5
74
330
2
100
AcDbSymbolTableRecord
100
AcDbLayerTableRecord
  2
VERMASSUNG
 70
     0
 62
     7
  6
Continuous
370
    -3
390
F
  0
LAYER
  5
75
330
2
100
AcDbSymbolTableRecord
100
AcDbLayerTableRecord
  2
KOPF_DÜNN
 70
     0
 62
     7
  6
Continuous
370
    -3
390
F
  0
LAYER
  5
76
330
2
100
AcDbSymbolTableRecord
100
AcDbLayerTableRecord
  2
KOPF_DICK
 70
     0
 62
     7
  6
Continuous
370
    15
390
F
  0
ENDTAB
  0
TABLE
  2
STYLE
  5
3
330
0
100
AcDbSymbolTable
 70
     2
  0
STYLE
  5
11
330
3
100
AcDbSymbolTableRecord
100
AcDbTextStyleTableRecord
  2
Standard
 70
     0
 40
0.0
 41
1.0
 50
0.0
 71
     0
 42
2.0
  3
txt
  4

  0
STYLE
  5
77
330
3
100
AcDbSymbolTableRecord
100
AcDbTextStyleTableRecord
  2
SLDTEXTSTYLE0
 70
     0
 40
0.0
 41
0.7
 50
0.0
 71
     0
 42
2.0
  3
TXT
  4

  0
ENDTAB
  0
TABLE
  2
VIEW
  5
6
330
0
100
AcDbSymbolTable
 70
     0
  0
ENDTAB
  0
TABLE
  2
UCS
  5
7
330
0
100
AcDbSymbolTable
 70
     0
  0
ENDTAB
  0
TABLE
  2
APPID
  5
9
330
0
100
AcDbSymbolTable
 70
     1
  0
APPID
  5
12
330
9
100
AcDbSymbolTableRecord
100
AcDbRegAppTableRecord
  2
ACAD
 70
     0
  0
ENDTAB
  0
TABLE
  2
DIMSTYLE
  5
A
330
0
100
AcDbSymbolTable
 70
     2
100
AcDbDimStyleTable
  0
DIMSTYLE
105
27
330
A
100
AcDbSymbolTableRecord
100
AcDbDimStyleTableRecord
  2
ISO-25
 70
     0
 41
2.5
 42
0.625
 43
3.75
 44
1.25
 73
     0
 74
     0
 77
     1
 78
     8
140
2.5
141
2.5
143
0.0393700787
147
0.625
171
     3
172
     1
178
     0
271
     2
272
     2
274
     3
278
    44
283
     0
284
     8
340
11
  0
DIMSTYLE
105
1D7
102
{ACAD_REACTORS
330
1D6
330
1E3
330
1EF
330
1F9
330
203
102
}
330
A
100
AcDbSymbolTableRecord
100
AcDbDimStyleTableRecord
  2
SLDDIMSTYLE0
 70
     0
 41
3.0
 44
0.0
 45
0.000000001
 73
     0
 74
     0
 77
     1
 78
    12
 79
     3
140
2.0
147
0.5
173
     1
178
     0
271
     2
272
     3
276
     2
284
    12
340
77
  0
ENDTAB
  0
TABLE
  2
BLOCK_RECORD
  5
1
330
0
100
AcDbSymbolTable
 70
     6
  0
BLOCK_RECORD
  5
1F
330
1
100
AcDbSymbolTableRecord
100
AcDbBlockTableRecord
  2
*Model_Space
340
22
  0
BLOCK_RECORD
  5
1B
330
1
100
AcDbSymbolTableRecord
100
AcDbBlockTableRecord
  2
*Paper_Space
340
1E
  0
BLOCK_RECORD
  5
23
330
1
100
AcDbSymbolTableRecord
100
AcDbBlockTableRecord
  2
*Paper_Space0
340
26
  0
BLOCK_RECORD
  5
1D8
330
1
100
AcDbSymbolTableRecord
100
AcDbBlockTableRecord
  2
_D
340
0
  0
BLOCK_RECORD
  5
1E4
330
1
100
AcDbSymbolTableRecord
100
AcDbBlockTableRecord
  2
_D_1
340
0
  0
BLOCK_RECORD
  5
1F0
330
1
100
AcDbSymbolTableRecord
100
AcDbBlockTableRecord
  2
_D_2
340
0
  0
BLOCK_RECORD
  5
1FA
330
1
100
AcDbSymbolTableRecord
100
AcDbBlockTableRecord
  2
_D_3
340
0
  0
BLOCK_RECORD
  5
204
330
1
100
AcDbSymbolTableRecord
100
AcDbBlockTableRecord
  2
_D_4
340
0
  0
ENDTAB
  0
ENDSEC
  0
SECTION
  2
BLOCKS
  0
BLOCK
  5
20
330
1F
100
AcDbEntity
  8
0
100
AcDbBlockBegin
  2
*Model_Space
 70
     0
 10
0.0
 20
0.0
 30
0.0
  3
*Model_Space
  1

  0
ENDBLK
  5
21
330
1F
100
AcDbEntity
  8
0
100
AcDbBlockEnd
  0
BLOCK
  5
1C
330
1B
100
AcDbEntity
 67
     1
  8
0
100
AcDbBlockBegin
  2
*Paper_Space
 70
     0
 10
0.0
 20
0.0
 30
0.0
  3
*Paper_Space
  1

  0
ENDBLK
  5
1D
330
1B
100
AcDbEntity
 67
     1
  8
0
100
AcDbBlockEnd
  0
BLOCK
  5
24
330
23
100
AcDbEntity
  8
0
100
AcDbBlockBegin
  2
*Paper_Space0
 70
     0
 10
0.0
 20
0.0
 30
0.0
  3
*Paper_Space0
  1

  0
ENDBLK
  5
25
330
23
100
AcDbEntity
  8
0
100
AcDbBlockEnd
  0
BLOCK
  5
1D9
330
1D8
100
AcDbEntity
  8
0
100
AcDbBlockBegin
  2
_D
 70
     0
 10
0.0
 20
0.0
 30
0.0
  3
_D
  1

  0
SOLID
  5
1DB
330
1D8
100
AcDbEntity
  8
VERMASSUNG
100
AcDbTrace
 10
49.1341968296
 20
62.4795741432
 30
0.0
 11
49.5841968296
 21
65.4795741432
 31
0.0
 12
48.6841968296
 22
65.4795741432
 32
0.0
 13
48.6841968296
 23
65.4795741432
 33
0.0
  0
SOLID
  5
1DC
330
1D8
100
AcDbEntity
  8
VERMASSUNG
100
AcDbTrace
 10
49.1341968296
 20
159.9295741432
 30
0.0
 11
48.6841968296
 21
156.9295741432
 31
0.0
 12
49.5841968296
 22
156.9295741432
 32
0.0
 13
49.5841968296
 23
156.9295741432
 33
0.0
  0
LINE
  5
1DD
330
1D8
100
AcDbEntity
  8
VERMASSUNG
100
AcDbLine
 10
177.5661601643
 20
62.4795741432
 30
0.0
 11
48.1341968296
 21
62.4795741432
 31
0.0
  0
LINE
  5
1DE
330
1D8
100
AcDbEntity
  8
VERMASSUNG
100
AcDbLine
 10
177.5661601643
 20
159.9295741432
 30
0.0
 11
48.1341968296
 21
159.9295741432
 31
0.0
  0
LINE
  5
1DF
330
1D8
100
AcDbEntity
  8
VERMASSUNG
100
AcDbLine
 10
49.1341968296
 20
62.4795741432
 30
0.0
 11
49.1341968296
 21
159.9295741432
 31
0.0
  0
MTEXT
  5
1E0
330
1D8
100
AcDbEntity
  8
VERMASSUNG
100
AcDbMText
 10
46.3560615734
 20
101.7001385098
 30
0.0
 40
2.0
 41
0.0
 71
     1
 72
     1
  1
ISO 50
  7
SLDTEXTSTYLE0
 11
3.391901413832837E-15
 21
1.0
 31
0.0
 73
     1
 44
1.0
  0
MTEXT
  5
1E1
330
1D8
100
AcDbEntity
  8
VERMASSUNG
100
AcDbMText
 10
46.5560615246
 20
110.7001381224
 30
0.0
 40
2.0
 41
0.0
 71
     1
 72
     1
  1
%%c
  7
SLDTEXTSTYLE0
 11
3.391901413832837E-15
 21
1.0
 31
0.0
 73
     1
 44
1.0
  0
MTEXT
  5
1E2
330
1D8
100
AcDbEntity
  8
VERMASSUNG
100
AcDbMText
 10
46.5560612336
 20
114.3094814553
 30
0.0
 40
2.0
 41
0.0
 71
     1
 72
     1
  1
97.45
  7
SLDTEXTSTYLE0
 11
3.391901413832837E-15
 21
1.0
 31
0.0
 73
     1
 44
1.0
  0
ENDBLK
  5
1DA
330
1D8
100
AcDbEntity
  8
0
100
AcDbBlockEnd
  0
BLOCK
  5
1E5
330
1E4
100
AcDbEntity
  8
0
100
AcDbBlockBegin
  2
_D_1
 70
     0
 10
0.0
 20
0.0
 30
0.0
  3
_D_1
  1

  0
ARC
  5
1E7
330
1E4
100
AcDbEntity
  8
VERMASSUNG
100
AcDbCircle
 10
149.6775942528
 20
178.198889766
 30
0.0
 40
4.247059938537221
100
AcDbArc
 50
153.4349488229
 51
206.5650511771
  0
ARC
  5
1E8
330
1E4
100
AcDbEntity
  8
VERMASSUNG
100
AcDbCircle
 10
151.0547260757
 20
178.198889766
 30
0.0
 40
4.247059938537221
100
AcDbArc
 50
333.4349488229
 51
26.5650511771
  0
SOLID
  5
1E9
330
1E4
100
AcDbEntity
  8
VERMASSUNG
100
AcDbTrace
 10
57.5161601643
 20
176.2995468206
 30
0.0
 11
60.5161601643
 21
175.8495468206
 31
0.0
 12
60.5161601643
 22
176.7495468206
 32
0.0
 13
60.5161601643
 23
176.7495468206
 33
0.0
  0
SOLID
  5
1EA
330
1E4
100
AcDbEntity
  8
VERMASSUNG
100
AcDbTrace
 10
243.2161601643
 20
176.2995468206
 30
0.0
 11
240.2161601643
 21
176.7495468206
 31
0.0
 12
240.2161601643
 22
175.8495468206
 32
0.0
 13
240.2161601643
 23
175.8495468206
 33
0.0
  0
LINE
  5
1EB
330
1E4
100
AcDbEntity
  8
VERMASSUNG
100
AcDbLine
 10
57.5161601643
 20
129.5834186706
 30
0.0
 11
57.5161601643
 21
177.2995468206
 31
0.0
  0
LINE
  5
1EC
330
1E4
100
AcDbEntity
  8
VERMASSUNG
100
AcDbLine
 10
243.2161601643
 20
126.9045741432
 30
0.0
 11
243.2161601643
 21
177.2995468206
 31
0.0
  0
LINE
  5
1ED
330
1E4
100
AcDbEntity
  8
VERMASSUNG
100
AcDbLine
 10
57.5161601643
 20
176.2995468206
 30
0.0
 11
243.2161601643
 21
176.2995468206
 31
0.0
  0
MTEXT
  5
1EE
330
1E4
100
AcDbEntity
  8
VERMASSUNG
100
AcDbMText
 10
147.466408362
 20
178.8776824165
 30
0.0
 40
2.0
 41
0.0
 71
     1
 72
     1
  1
185.7
  7
SLDTEXTSTYLE0
 73
     1
 44
1.0
  0
ENDBLK
  5
1E6
330
1E4
100
AcDbEntity
  8
0
100
AcDbBlockEnd
  0
BLOCK
  5
1F1
330
1F0
100
AcDbEntity
  8
0
100
AcDbBlockBegin
  2
_D_2
 70
     0
 10
0.0
 20
0.0
 30
0.0
  3
_D_2
  1

  0
SOLID
  5
1F3
330
1F0
100
AcDbEntity
  8
VERMASSUNG
100
AcDbTrace
 10
159.1161601643
 20
170.2995468206
 30
0.0
 11
162.1161601643
 21
169.8495468206
 31
0.0
 12
162.1161601643
 22
170.7495468206
 32
0.0
 13
162.1161601643
 23
170.7495468206
 33
0.0
  0
SOLID
  5
1F4
330
1F0
100
AcDbEntity
  8
VERMASSUNG
100
AcDbTrace
 10
243.2161601643
 20
170.2995468206
 30
0.0
 11
240.2161601643
 21
170.7495468206
 31
0.0
 12
240.2161601643
 22
169.8495468206
 32
0.0
 13
240.2161601643
 23
169.8495468206
 33
0.0
  0
LINE
  5
1F5
330
1F0
100
AcDbEntity
  8
VERMASSUNG
100
AcDbLine
 10
159.1161601643
 20
146.1295741432
 30
0.0
 11
159.1161601643
 21
171.2995468206
 31
0.0
  0
LINE
  5
1F6
330
1F0
100
AcDbEntity
  8
VERMASSUNG
100
AcDbLine
 10
243.2161601643
 20
126.9045741432
 30
0.0
 11
243.2161601643
 21
171.2995468206
 31
0.0
  0
LINE
  5
1F7
330
1F0
100
AcDbEntity
  8
VERMASSUNG
100
AcDbLine
 10
159.1161601643
 20
170.2995468206
 30
0.0
 11
243.2161601643
 21
170.2995468206
 31
0.0
  0
MTEXT
  5
1F8
330
1F0
100
AcDbEntity
  8
VERMASSUNG
100
AcDbMText
 10
198.8664330788
 20
172.8776824165
 30
0.0
 40
2.0
 41
0.0
 71
     1
 72
     1
  1
84.1
  7
SLDTEXTSTYLE0
 73
     1
 44
1.0
  0
ENDBLK
  5
1F2
330
1F0
100
AcDbEntity
  8
0
100
AcDbBlockEnd
  0
BLOCK
  5
1FB
330
1FA
100
AcDbEntity
  8
0
100
AcDbBlockBegin
  2
_D_3
 70
     0
 10
0.0
 20
0.0
 30
0.0
  3
_D_3
  1

  0
SOLID
  5
1FD
330
1FA
100
AcDbEntity
  8
VERMASSUNG
100
AcDbTrace
 10
178.1661601643
 20
165.1749743858
 30
0.0
 11
181.1661601643
 21
164.7249743858
 31
0.0
 12
181.1661601643
 22
165.6249743858
 32
0.0
 13
181.1661601643
 23
165.6249743858
 33
0.0
  0
SOLID
  5
1FE
330
1FA
100
AcDbEntity
  8
VERMASSUNG
100
AcDbTrace
 10
243.2161601643
 20
165.1749743858
 30
0.0
 11
240.2161601643
 21
165.6249743858
 31
0.0
 12
240.2161601643
 22
164.7249743858
 32
0.0
 13
240.2161601643
 23
164.7249743858
 33
0.0
  0
LINE
  5
1FF
330
1FA
100
AcDbEntity
  8
VERMASSUNG
100
AcDbLine
 10
178.1661601643
 20
157.4995610964
 30
0.0
 11
178.1661601643
 21
166.1749743858
 31
0.0
  0
LINE
  5
200
330
1FA
100
AcDbEntity
  8
VERMASSUNG
100
AcDbLine
 10
243.2161601643
 20
126.9045741432
 30
0.0
 11
243.2161601643
 21
166.1749743858
 31
0.0
  0
LINE
  5
201
330
1FA
100
AcDbEntity
  8
VERMASSUNG
100
AcDbLine
 10
178.1661601643
 20
165.1749743858
 30
0.0
 11
243.2161601643
 21
165.1749743858
 31
0.0
  0
MTEXT
  5
202
330
1FA
100
AcDbEntity
  8
VERMASSUNG
100
AcDbMText
 10
207.5917677853
 20
167.7531099817
 30
0.0
 40
2.0
 41
0.0
 71
     1
 72
     1
  1
65.05
  7
SLDTEXTSTYLE0
 73
     1
 44
1.0
  0
ENDBLK
  5
1FC
330
1FA
100
AcDbEntity
  8
0
100
AcDbBlockEnd
  0
BLOCK
  5
205
330
204
100
AcDbEntity
  8
0
100
AcDbBlockBegin
  2
_D_4
 70
     0
 10
0.0
 20
0.0
 30
0.0
  3
_D_4
  1

  0
SOLID
  5
207
330
204
100
AcDbEntity
  8
VERMASSUNG
100
AcDbTrace
 10
250.9224914841
 20
127.2045741432
 30
0.0
 11
250.4724914841
 21
124.2045741432
 31
0.0
 12
251.3724914841
 22
124.2045741432
 32
0.0
 13
251.3724914841
 23
124.2045741432
 33
0.0
  0
SOLID
  5
208
330
204
100
AcDbEntity
  8
VERMASSUNG
100
AcDbTrace
 10
250.9224914841
 20
95.2045741432
 30
0.0
 11
251.3724914841
 21
98.2045741432
 31
0.0
 12
250.4724914841
 22
98.2045741432
 32
0.0
 13
250.4724914841
 23
98.2045741432
 33
0.0
  0
LINE
  5
209
330
204
100
AcDbEntity
  8
VERMASSUNG
100
AcDbLine
 10
242.9161601643
 20
127.2045741432
 30
0.0
 11
251.9224914841
 21
127.2045741432
 31
0.0
  0
LINE
  5
20A
330
204
100
AcDbEntity
  8
VERMASSUNG
100
AcDbLine
 10
242.9161601643
 20
95.2045741432
 30
0.0
 11
251.9224914841
 21
95.2045741432
 31
0.0
  0
LINE
  5
20B
330
204
100
AcDbEntity
  8
VERMASSUNG
100
AcDbLine
 10
250.9224914841
 20
127.2045741432
 30
0.0
 11
250.9224914841
 21
95.2045741432
 31
0.0
  0
MTEXT
  5
20C
330
204
100
AcDbEntity
  8
VERMASSUNG
100
AcDbMText
 10
248.1443562279
 20
104.7995744997
 30
0.0
 40
2.0
 41
0.0
 71
     1
 72
     1
  1
MBM
  7
SLDTEXTSTYLE0
 11
-7.044195017643634E-15
 21
1.0
 31
0.0
 73
     1
 44
1.0
  0
MTEXT
  5
20D
330
204
100
AcDbEntity
  8
VERMASSUNG
100
AcDbMText
 10
248.3443561792
 20
111.199574338
 30
0.0
 40
2.0
 41
0.0
 71
     1
 72
     1
  1
%%c
  7
SLDTEXTSTYLE0
 11
-7.044195017643634E-15
 21
1.0
 31
0.0
 73
     1
 44
1.0
  0
MTEXT
  5
20E
330
204
100
AcDbEntity
  8
VERMASSUNG
100
AcDbMText
 10
248.1443562279
 20
114.8095748179
 30
0.0
 40
2.0
 41
0.0
 71
     1
 72
     1
  1
32
  7
SLDTEXTSTYLE0
 11
-7.044195017643634E-15
 21
1.0
 31
0.0
 73
     1
 44
1.0
  0
ENDBLK
  5
206
330
204
100
AcDbEntity
  8
0
100
AcDbBlockEnd
  0
ENDSEC
  0
SECTION
  2
ENTITIES
  0
MTEXT
  5
78
330
1F
100
AcDbEntity
  8
KOPF_DÜNN
100
AcDbMText
 10
13.8892156294
 20
23.8442973028
 30
0.0
 40
3.0
 41
0.0
 71
     1
 72
     1
  1
102.525.322
  7
SLDTEXTSTYLE0
 73
     1
 44
1.0
  0
MTEXT
  5
79
330
1F
100
AcDbEntity
  8
VERMASSUNG
100
AcDbMText
 10
13.9329988022
 20
28.8834360957
 30
0.0
 40
3.0
 41
0.0
 71
     1
 72
     1
  1
Aufnahme_Master shank MBM 32
  7
SLDTEXTSTYLE0
 73
     1
 44
1.0
  0
MTEXT
  5
7A
330
1F
100
AcDbEntity
  8
VERMASSUNG
100
AcDbMText
 10
98.8601118557
 20
13.8365368761
 30
0.0
 40
2.0
 41
0.0
 71
     1
 72
     1
  1
Datum: 01.11.2007
  7
SLDTEXTSTYLE0
 73
     1
 44
1.0
  0
MTEXT
  5
7B
330
1F
100
AcDbEntity
  8
VERMASSUNG
100
AcDbMText
 10
13.933048693
 20
18.0482802738
 30
0.0
 40
2.0
 41
0.0
 71
     1
 72
     1
  1
DIN 69871 B 50
  7
SLDTEXTSTYLE0
 73
     1
 44
1.0
  0
MTEXT
  5
7C
330
1F
100
AcDbEntity
  8
VERMASSUNG
100
AcDbMText
 10
13.9808475933
 20
13.9090974274
 30
0.0
 40
2.0
 41
0.0
 71
     1
 72
     1
  1
Gewicht: 2985g
  7
SLDTEXTSTYLE0
 73
     1
 44
1.0
  0
ARC
  5
7D
330
1F
100
AcDbEntity
  8
0
  6
Continuous
 62
     7
370
    15
100
AcDbCircle
 10
161.7161601643
 20
75.6795741432
 30
0.0
 40
0.6000000000000227
100
AcDbArc
 50
0.0
 51
90.0
  0
ARC
  5
7E
330
1F
100
AcDbEntity
  8
0
  6
Continuous
 62
     7
370
    15
100
AcDbCircle
 10
161.7161601643
 20
146.7295741432
 30
0.0
 40
0.6000000000000227
100
AcDbArc
 50
270.0
 51
0.0
  0
LINE
  5
7F
330
1F
100
AcDbEntity
  8
0
  6
Continuous
 62
     7
370
    15
100
AcDbLine
 10
159.1161601643
 20
76.2795752638
 30
0.0
 11
161.7161601713
 21
76.2795752638
 31
0.0
  0
LINE
  5
80
330
1F
100
AcDbEntity
  8
0
  6
Continuous
 62
     7
370
    15
100
AcDbLine
 10
161.7161601713
 20
146.1295730226
 30
0.0
 11
159.1161601643
 21
146.1295730226
 31
0.0
  0
LINE
  5
81
330
1F
100
AcDbEntity
  8
0
  6
Continuous
 62
     7
370
    15
100
AcDbLine
 10
159.1161601643
 20
146.1295730226
 30
0.0
 11
59.2275448541
 21
131.5624846869
 31
0.0
  0
LINE
  5
82
330
1F
100
AcDbEntity
  8
0
  6
Continuous
 62
     7
370
    15
100
AcDbLine
 10
59.2275448541
 20
90.8466635995
 30
0.0
 11
159.1161601643
 21
76.2795752638
 31
0.0
  0
ARC
  5
83
330
1F
100
AcDbEntity
  8
0
  6
Continuous
 62
     7
370
    15
100
AcDbCircle
 10
59.5161601643
 20
92.8257296158
 30
0.0
 40
1.999999999999993
100
AcDbArc
 50
180.0
 51
261.7028550302
  0
ARC
  5
84
330
1F
100
AcDbEntity
  8
0
  6
Continuous
 62
     7
370
    15
100
AcDbCircle
 10
59.5161601643
 20
129.5834186706
 30
0.0
 40
2.000000000000021
100
AcDbArc
 50
98.2971449698
 51
180.0
  0
ARC
  5
85
330
1F
100
AcDbEntity
  8
0
  6
Continuous
 62
     7
370
    15
100
AcDbCircle
 10
182.1661601643
 20
91.2045741432
 30
0.0
 40
4.000000000000028
100
AcDbArc
 50
90.0
 51
180.0
  0
ARC
  5
86
330
1F
100
AcDbEntity
  8
0
  6
Continuous
 62
     7
370
    15
100
AcDbCircle
 10
182.1661601643
 20
131.2045741432
 30
0.0
 40
4.000000000000028
100
AcDbArc
 50
180.0
 51
270.0
  0
LINE
  5
87
330
1F
100
AcDbEntity
  8
0
  6
Continuous
 62
     7
370
    15
100
AcDbLine
 10
242.9161630968
 20
95.2045733833
 30
0.0
 11
243.2161607246
 21
95.5045747363
 31
0.0
  0
LINE
  5
88
330
1F
100
AcDbEntity
  8
0
  6
Continuous
 62
     7
370
    15
100
AcDbLine
 10
243.2161607246
 20
126.9045735501
 30
0.0
 11
242.9161630968
 21
127.2045749032
 31
0.0
  0
LINE
  5
89
330
1F
100
AcDbEntity
  8
0
  6
Continuous
 62
     7
370
    15
100
AcDbLine
 10
182.1661610554
 20
95.2045733833
 30
0.0
 11
242.9161630968
 21
95.2045733833
 31
0.0
  0
LINE
  5
8A
330
1F
100
AcDbEntity
  8
0
  6
Continuous
 62
     7
370
    15
100
AcDbLine
 10
242.9161630968
 20
127.2045749032
 30
0.0
 11
182.1661610554
 21
127.2045749032
 31
0.0
  0
ARC
  5
8B
330
1F
100
AcDbEntity
  8
0
  6
Continuous
 62
     7
370
    15
100
AcDbCircle
 10
173.3161601643
 20
96.7388321813
 30
0.0
 40
2.000000000000053
100
AcDbArc
 50
192.2156859341
 51
339.9857998566
  0
SPLINE
  5
8C
330
1F
100
AcDbEntity
  8
0
  6
Continuous
 62
     7
370
    15
100
AcDbSpline
210
0.0
220
0.0
230
1.0
 70
     8
 71
     3
 72
    12
 73
     8
 74
     0
 42
0.000000001
 43
0.00000001
 40
0.0
 40
0.0
 40
0.0
 40
0.0
 40
0.2499999999999992
 40
0.2499999999999992
 40
0.4999999999999984
 40
0.4999999999999984
 40
1.0
 40
1.0
 40
1.0
 40
1.0
 10
177.5661601642711
 20
64.47531480186886
 30
0.0
 10
177.6621329174459
 20
64.47531480186885
 30
0.0
 10
177.7545608816004
 20
64.49158812597746
 30
0.0
 10
177.9109909817098
 20
64.54496184797387
 30
0.0
 10
177.9744694064827
 20
64.5810901055082
 30
0.0
 10
178.1227485673098
 20
64.70179130178747
 30
0.0
 10
178.166160164271
 20
64.79564088815265
 30
0.0
 10
178.166160164271
 20
64.88994516309987
 30
0.0
  0
SPLINE
  5
8D
330
1F
100
AcDbEntity
  8
0
  6
Continuous
 62
     7
370
    15
100
AcDbSpline
210
0.0
220
0.0
230
1.0
 70
    24
 71
     3
 72
    14
 73
    10
 74
     0
 42
0.000000001
 43
0.00000001
 40
0.0
 40
0.0
 40
0.0
 40
0.0
 40
0.25
 40
0.25
 40
0.5
 40
0.5
 40
0.75
 40
0.75
 40
1.0
 40
1.0
 40
1.0
 40
1.0
 10
178.166160164271
 20
141.0545741432149
 30
0.0
 10
178.166160164271
 20
141.0545741432149
 30
0.0
 10
178.1540904381115
 20
141.0545741432149
 30
0.0
 10
178.1043263550191
 20
141.0545741432149
 30
0.0
 10
178.0667749278979
 20
141.0545741432149
 30
0.0
 10
177.9641751961956
 20
141.0545741432149
 30
0.0
 10
177.8990305754741
 20
141.0545741432149
 30
0.0
 10
177.7444287116961
 20
141.0545741432149
 30
0.0
 10
177.6555039986184
 20
141.0545741432149
 30
0.0
 10
177.5661601642717
 20
141.0545741432149
 30
0.0
  0
LINE
  5
8E
330
1F
100
AcDbEntity
  8
0
  6
Continuous
 62
     7
370
    15
100
AcDbLine
 10
178.1661603997
 20
64.8899434858
 30
0.0
 11
178.1661603997
 21
141.0545746588
 31
0.0
  0
LINE
  5
8F
330
1F
100
AcDbEntity
  8
0
  6
Continuous
 62
     7
370
    15
100
AcDbLine
 10
173.4493216897
 20
96.9074268617
 30
0.0
 11
173.4493216897
 21
141.0545746588
 31
0.0
  0
LINE
  5
90
330
1F
100
AcDbEntity
  8
0
  6
Continuous
 62
     7
370
    15
100
AcDbLine
 10
177.5661595563
 20
141.0545746588
 30
0.0
 11
173.4493216897
 21
141.0545746588
 31
0.0
  0
LINE
  5
91
330
1F
100
AcDbEntity
  8
0
  6
Continuous
 62
     7
370
    15
100
AcDbLine
 10
173.4493216897
 20
64.4753149503
 30
0.0
 11
177.5661595563
 21
64.4753149503
 31
0.0
  0
LINE
  5
92
330
1F
100
AcDbEntity
  8
0
  6
Continuous
 62
     7
370
    15
100
AcDbLine
 10
173.4493216897
 20
64.4753149503
 30
0.0
 11
173.4493216897
 21
92.2156332784
 31
0.0
  0
SPLINE
  5
93
330
1F
100
AcDbEntity
  8
0
  6
Continuous
 62
     7
370
    15
100
AcDbSpline
210
0.0
220
0.0
230
1.0
 70
     8
 71
     3
 72
    34
 73
    30
 74
     0
 42
0.000000001
 43
0.00000001
 40
0.0
 40
0.0
 40
0.0
 40
0.0
 40
0.0624999999999989
 40
0.0624999999999989
 40
0.1249999999999978
 40
0.1249999999999978
 40
0.1874999999999968
 40
0.1874999999999968
 40
0.2499999999999962
 40
0.2499999999999962
 40
0.3124999999999957
 40
0.3124999999999957
 40
0.3749999999999952
 40
0.3749999999999952
 40
0.499999999999995
 40
0.499999999999995
 40
0.6249999999999948
 40
0.6249999999999948
 40
0.6874999999999954
 40
0.6874999999999954
 40
0.749999999999996
 40
0.749999999999996
 40
0.8124999999999966
 40
0.8124999999999966
 40
0.8749999999999977
 40
0.8749999999999977
 40
0.9374999999999989
 40
0.9374999999999989
 40
1.0
 40
1.0
 40
1.0
 40
1.0
 10
173.4493216717329
 20
92.21563375521369
 30
0.0
 10
173.6087134995208
 20
92.22347385113646
 30
0.0
 10
173.7647159829644
 20
92.2451324992269
 30
0.0
 10
174.0702254990416
 20
92.3149807267197
 30
0.0
 10
174.2211198340538
 20
92.36380642904795
 30
0.0
 10
174.5090191787446
 20
92.48673038245528
 30
0.0
 10
174.6449655817044
 20
92.56003789058958
 30
0.0
 10
174.9011481972964
 20
92.73004851436093
 30
0.0
 10
175.0223304850555
 20
92.8279223065624
 30
0.0
 10
175.2394765569283
 20
93.04050648199436
 30
0.0
 10
175.3364384298886
 20
93.15555242052395
 30
0.0
 10
175.5070008657141
 20
93.40341354064408
 30
0.0
 10
175.5802409189261
 20
93.53644703770969
 30
0.0
 10
175.7551213756749
 20
93.94595505383982
 30
0.0
 10
175.8161593366509
 20
94.24391570361487
 30
0.0
 10
175.8161609918739
 20
94.83535725948933
 30
0.0
 10
175.7551263822877
 20
95.1355308094659
 30
0.0
 10
175.5802366148858
 20
95.5507620897337
 30
0.0
 10
175.5069929094613
 20
95.68611720798052
 30
0.0
 10
175.3364321937247
 20
95.93901653936715
 30
0.0
 10
175.2394684781312
 20
96.05678181697492
 30
0.0
 10
175.022308149544
 20
96.27491211234356
 30
0.0
 10
174.9011268908572
 20
96.37561543749051
 30
0.0
 10
174.6449566639185
 20
96.55085913032376
 30
0.0
 10
174.5090133142558
 20
96.62660409941435
 30
0.0
 10
174.2211106110726
 20
96.75377247471663
 30
0.0
 10
174.0702204151559
 20
96.8043737470441
 30
0.0
 10
173.7647149114503
 20
96.87680284679195
 30
0.0
 10
173.6087135131868
 20
96.89928861818892
 30
0.0
 10
173.4493216717329
 20
96.90742707808377
 30
0.0
  0
LINE
  5
94
330
1F
100
AcDbEntity
  8
0
  6
Continuous
 62
     7
370
    15
100
AcDbLine
 10
162.9161602283
 20
64.4753149503
 30
0.0
 11
166.9829991112
 21
64.4753149503
 31
0.0
  0
LINE
  5
95
330
1F
100
AcDbEntity
  8
0
  6
Continuous
 62
     7
370
    15
100
AcDbLine
 10
166.9829991112
 20
141.0545746588
 30
0.0
 11
162.9161602283
 21
141.0545746588
 31
0.0
  0
LINE
  5
96
330
1F
100
AcDbEntity
  8
0
  6
Continuous
 62
     7
370
    15
100
AcDbLine
 10
166.9829991112
 20
64.4753149503
 30
0.0
 11
166.9829991112
 21
141.0545746588
 31
0.0
  0
SPLINE
  5
97
330
1F
100
AcDbEntity
  8
0
  6
Continuous
 62
     7
370
    15
100
AcDbSpline
210
0.0
220
0.0
230
1.0
 70
     8
 71
     3
 72
     8
 73
     4
 74
     0
 42
0.000000001
 43
0.00000001
 40
0.0
 40
0.0
 40
0.0
 40
0.0
 40
1.0
 40
1.0
 40
1.0
 40
1.0
 10
168.3061601642711
 20
66.58483473438508
 30
0.0
 10
168.0164317182465
 20
66.06261472422156
 30
0.0
 10
167.7264065680288
 20
65.54056134196159
 30
0.0
 10
167.4361123337669
 20
65.01865907623849
 30
0.0
  0
SPLINE
  5
98
330
1F
100
AcDbEntity
  8
0
  6
Continuous
 62
     7
370
    15
100
AcDbSpline
210
0.0
220
0.0
230
1.0
 70
     8
 71
     3
 72
     8
 73
     4
 74
     0
 42
0.000000001
 43
0.00000001
 40
0.0
 40
0.0
 40
0.0
 40
0.0
 40
0.0011862984959113
 40
0.0011862984959113
 40
0.0011862984959113
 40
0.0011862984959113
 10
166.9829986568091
 20
64.47531480186886
 30
0.0
 10
167.13502341868
 20
64.65622665148686
 30
0.0
 10
167.2860808638958
 20
64.8373389819277
 30
0.0
 10
167.4361123337669
 20
65.01865907623849
 30
0.0
  0
SPLINE
  5
99
330
1F
100
AcDbEntity
  8
0
  6
Continuous
 62
     7
370
    15
100
AcDbSpline
210
0.0
220
0.0
230
1.0
 70
    24
 71
     3
 72
     8
 73
     4
 74
     0
 42
0.000000001
 43
0.00000001
 40
0.0
 40
0.0
 40
0.0
 40
0.0
 40
1.0
 40
1.0
 40
1.0
 40
1.0
 10
168.3061601642711
 20
141.0545741432149
 30
0.0
 10
167.8709600595674
 20
141.0545741432149
 30
0.0
 10
167.4296003768285
 20
141.0545741432149
 30
0.0
 10
166.9829986568091
 20
141.0545741432149
 30
0.0
  0
LINE
  5
9A
330
1F
100
AcDbEntity
  8
0
  6
Continuous
 62
     7
370
    15
100
AcDbLine
 10
168.3061598266
 20
66.5848350876
 30
0.0
 11
168.3061598266
 21
141.0545746588
 31
0.0
  0
LINE
  5
9B
330
1F
100
AcDbEntity
  8
0
  6
Continuous
 62
     7
370
    15
100
AcDbLine
 10
172.126160043
 20
97.407312391
 30
0.0
 11
172.126160043
 21
141.0545746588
 31
0.0
  0
SPLINE
  5
9C
330
1F
100
AcDbEntity
  8
0
  6
Continuous
 62
     7
370
    15
100
AcDbSpline
210
0.0
220
0.0
230
1.0
 70
    24
 71
     3
 72
     8
 73
     4
 74
     0
 42
0.000000001
 43
0.00000001
 40
0.0
 40
0.0
 40
0.0
 40
0.0
 40
1.0
 40
1.0
 40
1.0
 40
1.0
 10
173.4493216717329
 20
141.0545741432149
 30
0.0
 10
173.0027199517136
 20
141.0545741432149
 30
0.0
 10
172.5613602689747
 20
141.0545741432149
 30
0.0
 10
172.1261601642711
 20
141.0545741432149
 30
0.0
  0
SPLINE
  5
9D
330
1F
100
AcDbEntity
  8
0
  6
Continuous
 62
     7
370
    15
100
AcDbSpline
210
0.0
220
0.0
230
1.0
 70
     8
 71
     3
 72
    10
 73
     6
 74
     0
 42
0.000000001
 43
0.00000001
 40
0.0
 40
0.0
 40
0.0
 40
0.0
 40
0.5
 40
0.5
 40
1.0
 40
1.0
 40
1.0
 40
1.0
 10
173.4493216717329
 20
96.90742707808377
 30
0.0
 10
173.2265946448595
 20
97.05091557837753
 30
0.0
 10
173.0049087576344
 20
97.16563632411042
 30
0.0
 10
172.5636879197824
 20
97.33539675346829
 30
0.0
 10
172.3441292723836
 20
97.39081674785565
 30
0.0
 10
172.1261601642713
 20
97.40731207722531
 30
0.0
  0
SPLINE
  5
9E
330
1F
100
AcDbEntity
  8
0
  6
Continuous
 62
     7
370
    15
100
AcDbSpline
210
0.0
220
0.0
230
1.0
 70
     8
 71
     3
 72
    10
 73
     6
 74
     0
 42
0.000000001
 43
0.00000001
 40
0.0
 40
0.0
 40
0.0
 40
0.0
 40
0.5
 40
0.5
 40
1.0
 40
1.0
 40
1.0
 40
1.0
 10
162.5318201954251
 20
64.57111987602265
 30
0.0
 10
162.5804707640047
 20
64.54316288475523
 30
0.0
 10
162.6378559759641
 20
64.51922059972843
 30
0.0
 10
162.7685690841302
 20
64.48510213663269
 30
0.0
 10
162.8413086178688
 20
64.47531480186885
 30
0.0
 10
162.916160164271
 20
64.47531480186885
 30
0.0
  0
SPLINE
  5
9F
330
1F
100
AcDbEntity
  8
0
  6
Continuous
 62
     7
370
    15
100
AcDbSpline
210
0.0
220
0.0
230
1.0
 70
     8
 71
     3
 72
    10
 73
     6
 74
     0
 42
0.000000001
 43
0.00000001
 40
0.0
 40
0.0
 40
0.0
 40
0.0
 40
0.5
 40
0.5
 40
1.0
 40
1.0
 40
1.0
 40
1.0
 10
162.5318201954251
 20
64.57111987602262
 30
0.0
 10
162.4736321888429
 20
64.63870360620145
 30
0.0
 10
162.4211897223166
 20
64.71917984084321
 30
0.0
 10
162.3428374151379
 20
64.90221546382595
 30
0.0
 10
162.316160164271
 20
65.00809116662157
 30
0.0
 10
162.316160164271
 20
65.11560447584219
 30
0.0
  0
LINE
  5
A0
330
1F
100
AcDbEntity
  8
0
  6
Continuous
 62
     7
370
    15
100
AcDbLine
 10
162.3161600834
 20
65.1156029456
 30
0.0
 11
162.3161600834
 21
141.0545746588
 31
0.0
  0
SPLINE
  5
A1
330
1F
100
AcDbEntity
  8
0
  6
Continuous
 62
     7
370
    15
100
AcDbSpline
210
0.0
220
0.0
230
1.0
 70
    24
 71
     3
 72
    12
 73
     8
 74
     0
 42
0.000000001
 43
0.00000001
 40
0.0
 40
0.0
 40
0.0
 40
0.0
 40
0.25
 40
0.25
 40
0.5
 40
0.5
 40
1.0
 40
1.0
 40
1.0
 40
1.0
 10
162.916160164271
 20
141.0545741432149
 30
0.0
 10
162.825750529508
 20
141.0545741432149
 30
0.0
 10
162.737525604381
 20
141.0545741432149
 30
0.0
 10
162.5838516628729
 20
141.0545741432149
 30
0.0
 10
162.5182484431114
 20
141.0545741432149
 30
0.0
 10
162.3643611027869
 20
141.0545741432149
 30
0.0
 10
162.3161601642711
 20
141.0545741432149
 30
0.0
 10
162.3161601642711
 20
141.0545741432149
 30
0.0
  0
SPLINE
  5
A2
330
1F
100
AcDbEntity
  8
0
  6
Continuous
 62
     7
370
    15
100
AcDbSpline
210
0.0
220
0.0
230
1.0
 70
     8
 71
     3
 72
    14
 73
    10
 74
     0
 42
0.000000001
 43
0.00000001
 40
0.0
 40
0.0
 40
0.0
 40
0.0
 40
0.25
 40
0.25
 40
0.5
 40
0.5
 40
0.75
 40
0.75
 40
1.0
 40
1.0
 40
1.0
 40
1.0
 10
172.126160164271
 20
97.45292629923782
 30
0.0
 10
172.126160164271
 20
97.49482999075985
 30
0.0
 10
172.096689700625
 20
97.52270578832933
 30
0.0
 10
171.9898627310663
 20
97.53627730701353
 30
0.0
 10
171.9136093362103
 20
97.52161985335947
 30
0.0
 10
171.7459053347094
 20
97.4497345989453
 30
0.0
 10
171.655741759767
 20
97.39334376980462
 30
0.0
 10
171.4828179924706
 20
97.25123190454603
 30
0.0
 10
171.4009317369861
 20
97.1667665069098
 30
0.0
 10
171.3261601642685
 20
97.07324842933825
 30
0.0
  0
SPLINE
  5
A3
330
1F
100
AcDbEntity
  8
0
  6
Continuous
 62
     7
370
    15
100
AcDbSpline
210
0.0
220
0.0
230
1.0
 70
     8
 71
     3
 72
    10
 73
     6
 74
     0
 42
0.000000001
 43
0.00000001
 40
0.0
 40
0.0
 40
0.0
 40
0.0
 40
0.5
 40
0.5
 40
1.0
 40
1.0
 40
1.0
 40
1.0
 10
172.1261601642713
 20
93.27527087859377
 30
0.0
 10
172.3430509967921
 20
93.03823193914523
 30
0.0
 10
172.562203633451
 20
92.83606170415173
 30
0.0
 10
173.0036881337198
 20
92.48530963263305
 30
0.0
 10
173.2268905989933
 20
92.33663354023619
 30
0.0
 10
173.449321671733
 20
92.21563375521369
 30
0.0
  0
LINE
  5
A4
330
1F
100
AcDbEntity
  8
0
  6
Continuous
 62
     7
370
    15
100
AcDbLine
 10
172.126160043
 20
93.3208859318
 30
0.0
 11
172.126160043
 21
93.2752716147
 31
0.0
  0
SPLINE
  5
A5
330
1F
100
AcDbEntity
  8
0
  6
Continuous
 62
     7
370
    15
100
AcDbSpline
210
0.0
220
0.0
230
1.0
 70
     8
 71
     3
 72
    16
 73
    12
 74
     0
 42
0.000000001
 43
0.00000001
 40
0.0
 40
0.0
 40
0.0
 40
0.0
 40
0.2499999999999974
 40
0.2499999999999974
 40
0.4999999999999949
 40
0.4999999999999949
 40
0.6249999999999948
 40
0.6249999999999948
 40
0.7499999999999948
 40
0.7499999999999948
 40
1.0
 40
1.0
 40
1.0
 40
1.0
 10
171.326160164271
 20
94.22928458628078
 30
0.0
 10
171.4010131456409
 20
94.13790533312088
 30
0.0
 10
171.4821727753211
 20
94.04951972220275
 30
0.0
 10
171.6553957038958
 20
93.87383956163738
 30
0.0
 10
171.7458990338611
 20
93.78847674471332
 30
0.0
 10
171.8722281057921
 20
93.66705513330488
 30
0.0
 10
171.9117251092007
 20
93.62857972160091
 30
0.0
 10
171.9838396795
 20
93.55451904669727
 30
0.0
 10
172.0167318574299
 20
93.51852428143603
 30
0.0
 10
172.0964045270634
 20
93.41981819420222
 30
0.0
 10
172.126160164271
 20
93.36318573377713
 30
0.0
 10
172.126160164271
 20
93.32088510060643
 30
0.0
  0
SPLINE
  5
A6
330
1F
100
AcDbEntity
  8
0
  6
Continuous
 62
     7
370
    15
100
AcDbSpline
210
0.0
220
0.0
230
1.0
 70
     8
 71
     3
 72
    16
 73
    12
 74
     0
 42
0.000000001
 43
0.00000001
 40
0.0
 40
0.0
 40
0.0
 40
0.0
 40
0.2500000000000001
 40
0.2500000000000001
 40
0.5000000000000002
 40
0.5000000000000002
 40
0.7500000000000003
 40
0.7500000000000003
 40
0.8750000000000001
 40
0.8750000000000001
 40
1.0
 40
1.0
 40
1.0
 40
1.0
 10
171.326160164271
 20
97.07324842933443
 30
0.0
 10
171.1607460577908
 20
96.86636219330907
 30
0.0
 10
171.0345487268153
 20
96.6404934955003
 30
0.0
 10
170.8601424284844
 20
96.15162424988742
 30
0.0
 10
170.8163123893875
 20
95.89985719654284
 30
0.0
 10
170.8160087164175
 20
95.3880778719605
 30
0.0
 10
170.8598655764779
 20
95.1370231628778
 30
0.0
 10
170.9897873357451
 20
94.77617459473569
 30
0.0
 10
171.043902147153
 20
94.65890182638712
 30
0.0
 10
171.1705791372965
 20
94.43641287504828
 30
0.0
 10
171.2434528576572
 20
94.33025226680502
 30
0.0
 10
171.326160164271
 20
94.22928458628078
 30
0.0
  0
SPLINE
  5
A7
330
1F
100
AcDbEntity
  8
0
  6
Continuous
 62
     7
370
    15
100
AcDbSpline
210
0.0
220
0.0
230
1.0
 70
     8
 71
     3
 72
    14
 73
    10
 74
     0
 42
0.000000001
 43
0.00000001
 40
0.0
 40
0.0
 40
0.0
 40
0.0
 40
0.25
 40
0.25
 40
0.5
 40
0.5
 40
0.75
 40
0.75
 40
1.0
 40
1.0
 40
1.0
 40
1.0
 10
169.106160164271
 20
67.55680787734508
 30
0.0
 10
168.9997151563618
 20
67.55680787734508
 30
0.0
 10
168.8928164050883
 20
67.53423832791198
 30
0.0
 10
168.6965981496458
 20
67.44779523667005
 30
0.0
 10
168.6069398361814
 20
67.38349131900291
 30
0.0
 10
168.4614861233003
 20
67.22852180495994
 30
0.0
 10
168.4034503405741
 20
67.1357563187162
 30
0.0
 10
168.3261651861895
 20
66.93728943707283
 30
0.0
 10
168.306160164271
 20
66.83026501527905
 30
0.0
 10
168.306160164271
 20
66.72348265480824
 30
0.0
  0
SPLINE
  5
A8
330
1F
100
AcDbEntity
  8
0
  6
Continuous
 62
     7
370
    15
100
AcDbSpline
210
0.0
220
0.0
230
1.0
 70
    24
 71
     3
 72
    14
 73
    10
 74
     0
 42
0.000000001
 43
0.00000001
 40
0.0
 40
0.0
 40
0.0
 40
0.0
 40
0.25
 40
0.25
 40
0.5
 40
0.5
 40
0.75
 40
0.75
 40
1.0
 40
1.0
 40
1.0
 40
1.0
 10
169.106160164271
 20
141.0545741432149
 30
0.0
 10
168.9831788647248
 20
141.0545741432149
 30
0.0
 10
168.8629889763227
 20
141.0545741432149
 30
0.0
 10
168.6579651466436
 20
141.0545741432149
 30
0.0
 10
168.5713706578414
 20
141.0545741432149
 30
0.0
 10
168.436262771079
 20
141.0545741432149
 30
0.0
 10
168.3877396860509
 20
141.0545741432149
 30
0.0
 10
168.3220571773241
 20
141.0545741432149
 30
0.0
 10
168.3061601642711
 20
141.0545741432149
 30
0.0
 10
168.3061601642711
 20
141.0545741432149
 30
0.0
  0
SPLINE
  5
A9
330
1F
100
AcDbEntity
  8
0
  6
Continuous
 62
     7
370
    15
100
AcDbSpline
210
0.0
220
0.0
230
1.0
 70
    24
 71
     3
 72
    14
 73
    10
 74
     0
 42
0.000000001
 43
0.00000001
 40
0.0
 40
0.0
 40
0.0
 40
0.0
 40
0.25
 40
0.25
 40
0.5
 40
0.5
 40
0.75
 40
0.75
 40
1.0
 40
1.0
 40
1.0
 40
1.0
 10
172.126160164271
 20
141.0545741432149
 30
0.0
 10
172.126160164271
 20
141.0545741432149
 30
0.0
 10
172.1098791294953
 20
141.0545741432149
 30
0.0
 10
172.0452160669707
 20
141.0545741432149
 30
0.0
 10
171.9957362706819
 20
141.0545741432149
 30
0.0
 10
171.8617665135432
 20
141.0545741432149
 30
0.0
 10
171.7756517869437
 20
141.0545741432149
 30
0.0
 10
171.5701956712307
 20
141.0545741432149
 30
0.0
 10
171.4487751340379
 20
141.0545741432149
 30
0.0
 10
171.326160164271
 20
141.0545741432149
 30
0.0
  0
LINE
  5
AA
330
1F
100
AcDbEntity
  8
0
  6
Continuous
 62
     7
370
    15
100
AcDbLine
 10
171.3261604706
 20
67.5568080299
 30
0.0
 11
169.1061603303
 21
67.5568080299
 31
0.0
  0
LINE
  5
AB
330
1F
100
AcDbEntity
  8
0
  6
Continuous
 62
     7
370
    15
100
AcDbLine
 10
171.3261604706
 20
141.0545746588
 30
0.0
 11
169.1061603303
 21
141.0545746588
 31
0.0
  0
SPLINE
  5
AC
330
1F
100
AcDbEntity
  8
0
  6
Continuous
 62
     7
370
    15
100
AcDbSpline
210
0.0
220
0.0
230
1.0
 70
     8
 71
     3
 72
     8
 73
     4
 74
     0
 42
0.000000001
 43
0.00000001
 40
0.0000000000000004
 40
0.0000000000000004
 40
0.0000000000000004
 40
0.0000000000000004
 40
0.0011862984959128
 40
0.0011862984959128
 40
0.0011862984959128
 40
0.0011862984959128
 10
172.9962079947712
 20
65.01865907623849
 30
0.0
 10
173.1462394646425
 20
64.83733898192746
 30
0.0
 10
173.2972969098619
 20
64.6562266514871
 30
0.0
 10
173.4493216717329
 20
64.47531480186886
 30
0.0
  0
SPLINE
  5
AD
330
1F
100
AcDbEntity
  8
0
  6
Continuous
 62
     7
370
    15
100
AcDbSpline
210
0.0
220
0.0
230
1.0
 70
     8
 71
     3
 72
     8
 73
     4
 74
     0
 42
0.000000001
 43
0.00000001
 40
0.0
 40
0.0
 40
0.0
 40
0.0
 40
1.0
 40
1.0
 40
1.0
 40
1.0
 10
172.9962079947742
 20
65.01865907624016
 30
0.0
 10
172.7059137605127
 20
65.5405613419627
 30
0.0
 10
172.4158886102953
 20
66.06261472422212
 30
0.0
 10
172.1261601642711
 20
66.58483473438508
 30
0.0
  0
LINE
  5
AE
330
1F
100
AcDbEntity
  8
0
  6
Continuous
 62
     7
370
    15
100
AcDbLine
 10
172.126160043
 20
66.5848350876
 30
0.0
 11
172.126160043
 21
93.2752716147
 31
0.0
  0
SPLINE
  5
AF
330
1F
100
AcDbEntity
  8
0
  6
Continuous
 62
     7
370
    15
100
AcDbSpline
210
0.0
220
0.0
230
1.0
 70
     8
 71
     3
 72
    14
 73
    10
 74
     0
 42
0.000000001
 43
0.00000001
 40
0.0
 40
0.0
 40
0.0
 40
0.0
 40
0.25
 40
0.25
 40
0.5
 40
0.5
 40
0.75
 40
0.75
 40
1.0
 40
1.0
 40
1.0
 40
1.0
 10
172.126160164271
 20
66.72348265480824
 30
0.0
 10
172.126160164271
 20
66.83054664114904
 30
0.0
 10
172.1061763380311
 20
66.93728596752356
 30
0.0
 10
172.0287412555976
 20
67.13603586971435
 30
0.0
 10
171.9708023334381
 20
67.22859008620688
 30
0.0
 10
171.8251645276774
 20
67.38368702961245
 30
0.0
 10
171.736375531342
 20
67.44742718652533
 30
0.0
 10
171.5398271711375
 20
67.53417574361292
 30
0.0
 10
171.4336879414381
 20
67.55680787734508
 30
0.0
 10
171.326160164271
 20
67.55680787734508
 30
0.0
  0
LINE
  5
B0
330
1F
100
AcDbEntity
  8
0
  6
Continuous
 62
     7
370
    15
100
AcDbLine
 10
159.1161601643
 20
76.2795752638
 30
0.0
 11
159.1161601643
 21
146.1295730226
 31
0.0
  0
SPLINE
  5
B1
330
1F
100
AcDbEntity
  8
0
  6
Continuous
 62
     7
370
    15
100
AcDbSpline
210
0.0
220
0.0
230
1.0
 70
     8
 71
     3
 72
    14
 73
    10
 74
     0
 42
0.000000001
 43
0.00000001
 40
0.0
 40
0.0
 40
0.0
 40
0.0
 40
0.25
 40
0.25
 40
0.5
 40
0.5
 40
0.75
 40
0.75
 40
1.0
 40
1.0
 40
1.0
 40
1.0
 10
162.3161601642711
 20
148.9536552578752
 30
0.0
 10
162.3161601642725
 20
149.043378936217
 30
0.0
 10
162.3283736177195
 20
149.1322275117549
 30
0.0
 10
162.3779514731297
 20
149.3033056330583
 30
0.0
 10
162.4158151627699
 20
149.3861972283146
 30
0.0
 10
162.5180792161261
 20
149.5326913455974
 30
0.0
 10
162.5843044014164
 20
149.5979660711101
 30
0.0
 10
162.7379917255391
 20
149.6893315922275
 30
0.0
 10
162.826512102703
 20
149.71565209489
 30
0.0
 10
162.916160164271
 20
149.71565209489
 30
0.0
  0
LINE
  5
B2
330
1F
100
AcDbEntity
  8
0
  6
Continuous
 62
     7
370
    15
100
AcDbLine
 10
162.9161602283
 20
149.7156529479
 30
0.0
 11
166.9829991112
 21
149.7156529479
 31
0.0
  0
SPLINE
  5
B3
330
1F
100
AcDbEntity
  8
0
  6
Continuous
 62
     7
370
    15
100
AcDbSpline
210
0.0
220
0.0
230
1.0
 70
     8
 71
     3
 72
     8
 73
     4
 74
     0
 42
0.000000001
 43
0.00000001
 40
0.0
 40
0.0
 40
0.0
 40
0.0
 40
1.0
 40
1.0
 40
1.0
 40
1.0
 10
166.9829986568091
 20
149.71565209489
 30
0.0
 10
167.4298473847368
 20
148.7364161966337
 30
0.0
 10
167.8712137426327
 20
147.7552142039069
 30
0.0
 10
168.3061601642711
 20
146.7717098855245
 30
0.0
  0
LINE
  5
B4
330
1F
100
AcDbEntity
  8
0
  6
Continuous
 62
     7
370
    15
100
AcDbLine
 10
168.3061598266
 20
146.771708762
 30
0.0
 11
168.3061598266
 21
146.5976184957
 31
0.0
  0
SPLINE
  5
B5
330
1F
100
AcDbEntity
  8
0
  6
Continuous
 62
     7
370
    15
100
AcDbSpline
210
0.0
220
0.0
230
1.0
 70
     8
 71
     3
 72
    12
 73
     8
 74
     0
 42
0.000000001
 43
0.00000001
 40
0.0
 40
0.0
 40
0.0
 40
0.0
 40
0.499999999999994
 40
0.499999999999994
 40
0.749999999999997
 40
0.749999999999997
 40
1.0
 40
1.0
 40
1.0
 40
1.0
 10
168.3061601642711
 20
146.5976172449319
 30
0.0
 10
168.3061601642711
 20
146.3551941489511
 30
0.0
 10
168.3690813057129
 20
146.1094236283498
 30
0.0
 10
168.5711102027153
 20
145.8044774489329
 30
0.0
 10
168.6574039273625
 20
145.7138845823345
 30
0.0
 10
168.8628777219293
 20
145.5834510193976
 30
0.0
 10
168.9828282825289
 20
145.5444562047479
 30
0.0
 10
169.106160164271
 20
145.5444562047479
 30
0.0
  0
LINE
  5
B6
330
1F
100
AcDbEntity
  8
0
  6
Continuous
 62
     7
370
    15
100
AcDbLine
 10
169.1061603303
 20
145.5444565766
 30
0.0
 11
171.3261604706
 21
145.5444565766
 31
0.0
  0
SPLINE
  5
B7
330
1F
100
AcDbEntity
  8
0
  6
Continuous
 62
     7
370
    15
100
AcDbSpline
210
0.0
220
0.0
230
1.0
 70
     8
 71
     3
 72
    14
 73
    10
 74
     0
 42
0.000000001
 43
0.00000001
 40
0.0
 40
0.0
 40
0.0
 40
0.0
 40
0.25
 40
0.25
 40
0.5
 40
0.5
 40
0.75
 40
0.75
 40
1.0
 40
1.0
 40
1.0
 40
1.0
 10
171.326160164271
 20
145.5444562047479
 30
0.0
 10
171.4474866942568
 20
145.5444562047479
 30
0.0
 10
171.569191402819
 20
145.5832377201811
 30
0.0
 10
171.7756312817051
 20
145.714392341875
 30
0.0
 10
171.8615818201612
 20
145.8050444264621
 30
0.0
 10
171.9954935799095
 20
146.0071614614034
 30
0.0
 10
172.0450580167287
 20
146.1208964049426
 30
0.0
 10
172.1099120446966
 20
146.3538560220091
 30
0.0
 10
172.126160164271
 20
146.4765542883383
 30
0.0
 10
172.126160164271
 20
146.5976172449319
 30
0.0
  0
LINE
  5
B8
330
1F
100
AcDbEntity
  8
0
  6
Continuous
 62
     7
370
    15
100
AcDbLine
 10
172.126160043
 20
146.5976184957
 30
0.0
 11
172.126160043
 21
146.771708762
 31
0.0
  0
SPLINE
  5
B9
330
1F
100
AcDbEntity
  8
0
  6
Continuous
 62
     7
370
    15
100
AcDbSpline
210
0.0
220
0.0
230
1.0
 70
     8
 71
     3
 72
     8
 73
     4
 74
     0
 42
0.000000001
 43
0.00000001
 40
0.0
 40
0.0
 40
0.0
 40
0.0
 40
1.0
 40
1.0
 40
1.0
 40
1.0
 10
172.1261601642711
 20
146.7717098855245
 30
0.0
 10
172.5611065859094
 20
147.7552142039069
 30
0.0
 10
173.0024729438053
 20
148.7364161966337
 30
0.0
 10
173.4493216717329
 20
149.71565209489
 30
0.0
  0
LINE
  5
BA
330
1F
100
AcDbEntity
  8
0
  6
Continuous
 62
     7
370
    15
100
AcDbLine
 10
173.4493216897
 20
149.7156529479
 30
0.0
 11
177.5661595563
 21
149.7156529479
 31
0.0
  0
SPLINE
  5
BB
330
1F
100
AcDbEntity
  8
0
  6
Continuous
 62
     7
370
    15
100
AcDbSpline
210
0.0
220
0.0
230
1.0
 70
     8
 71
     3
 72
    12
 73
     8
 74
     0
 42
0.000000001
 43
0.00000001
 40
0.0
 40
0.0
 40
0.0
 40
0.0
 40
0.250000000000004
 40
0.250000000000004
 40
0.500000000000008
 40
0.500000000000008
 40
1.0
 40
1.0
 40
1.0
 40
1.0
 10
177.5661601642715
 20
149.7156520948901
 30
0.0
 10
177.6556972224426
 20
149.71565209489
 30
0.0
 10
177.7455964012313
 20
149.688824796059
 30
0.0
 10
177.8990212602305
 20
149.5971178307994
 30
0.0
 10
177.9640703176083
 20
149.5328628892006
 30
0.0
 10
178.1173895488726
 20
149.3134507431391
 30
0.0
 10
178.166160164271
 20
149.1316354333422
 30
0.0
 10
178.166160164271
 20
148.9536552578592
 30
0.0
  0
LINE
  5
BC
330
1F
100
AcDbEntity
  8
0
  6
Continuous
 62
     7
370
    15
100
AcDbLine
 10
162.3161600834
 20
148.9536559933
 30
0.0
 11
162.3161600834
 21
141.0545746588
 31
0.0
  0
LINE
  5
BD
330
1F
100
AcDbEntity
  8
0
  6
Continuous
 62
     7
370
    15
100
AcDbLine
 10
178.1661603997
 20
148.9536559933
 30
0.0
 11
178.1661603997
 21
141.0545746588
 31
0.0
  0
SPLINE
  5
BE
330
1F
100
AcDbEntity
  8
0
  6
Continuous
 62
     7
370
    15
100
AcDbSpline
210
0.0
220
0.0
230
1.0
 70
     8
 71
     3
 72
    12
 73
     8
 74
     0
 42
0.000000001
 43
0.00000001
 40
0.0
 40
0.0
 40
0.0
 40
0.0
 40
0.2500000000000007
 40
0.2500000000000007
 40
0.5000000000000014
 40
0.5000000000000014
 40
1.0
 40
1.0
 40
1.0
 40
1.0
 10
169.106160164271
 20
154.8523404090846
 30
0.0
 10
168.9998151843951
 20
154.8523404090847
 30
0.0
 10
168.8925388369925
 20
154.8750556469442
 30
0.0
 10
168.6971630475964
 20
154.9610808138265
 30
0.0
 10
168.6086093115194
 20
155.0240595407549
 30
0.0
 10
168.3873513873882
 20
155.259251051192
 30
0.0
 10
168.3061601642711
 20
155.4724272656773
 30
0.0
 10
168.306160164271
 20
155.6856656316213
 30
0.0
  0
SPLINE
  5
BF
330
1F
100
AcDbEntity
  8
0
  6
Continuous
 62
     7
370
    15
100
AcDbSpline
210
0.0
220
0.0
230
1.0
 70
     8
 71
     3
 72
    12
 73
     8
 74
     0
 42
0.000000001
 43
0.00000001
 40
0.0
 40
0.0
 40
0.0
 40
0.0
 40
0.4999999999999982
 40
0.4999999999999982
 40
0.7499999999999991
 40
0.7499999999999991
 40
1.0
 40
1.0
 40
1.0
 40
1.0
 10
178.166160164271
 20
157.4995610964453
 30
0.0
 10
178.166160164271
 20
157.6197537031105
 30
0.0
 10
178.112191734002
 20
157.7376610036255
 30
0.0
 10
177.9511050930691
 20
157.8770405481088
 30
0.0
 10
177.886342673596
 20
157.9152058456728
 30
0.0
 10
177.7342886720315
 20
157.9698581080062
 30
0.0
 10
177.6515588988823
 20
157.9844187979904
 30
0.0
 10
177.5661601642711
 20
157.9844187979904
 30
0.0
  0
LINE
  5
C0
330
1F
100
AcDbEntity
  8
0
  6
Continuous
 62
     7
370
    15
100
AcDbLine
 10
178.1661603997
 20
148.9536559933
 30
0.0
 11
178.1661603997
 21
157.4995613449
 31
0.0
  0
LINE
  5
C1
330
1F
100
AcDbEntity
  8
0
  6
Continuous
 62
     7
370
    15
100
AcDbLine
 10
177.5661595563
 20
157.9844190531
 30
0.0
 11
173.4493216897
 21
157.9844190531
 31
0.0
  0
LINE
  5
C2
330
1F
100
AcDbEntity
  8
0
  6
Continuous
 62
     7
370
    15
100
AcDbLine
 10
173.4493216897
 20
149.7156529479
 30
0.0
 11
173.4493216897
 21
157.9844190531
 31
0.0
  0
SPLINE
  5
C3
330
1F
100
AcDbEntity
  8
0
  6
Continuous
 62
     7
370
    15
100
AcDbSpline
210
0.0
220
0.0
230
1.0
 70
     8
 71
     3
 72
    14
 73
    10
 74
     0
 42
0.000000001
 43
0.00000001
 40
0.0
 40
0.0
 40
0.0
 40
0.0
 40
0.25
 40
0.25
 40
0.5
 40
0.5
 40
0.75
 40
0.75
 40
1.0
 40
1.0
 40
1.0
 40
1.0
 10
172.126160164271
 20
155.6856656316215
 30
0.0
 10
172.126160164271
 20
155.578323259474
 30
0.0
 10
172.1061639722068
 20
155.4716942526262
 30
0.0
 10
172.0284658878622
 20
155.272542473475
 30
0.0
 10
171.9704727429686
 20
155.1800595751596
 30
0.0
 10
171.8244262501458
 20
155.0248237400504
 30
0.0
 10
171.7350885109781
 20
154.961089798438
 30
0.0
 10
171.5403334989177
 20
154.8752595320428
 30
0.0
 10
171.4328032277088
 20
154.8523404090843
 30
0.0
 10
171.326160164269
 20
154.8523404090846
 30
0.0
  0
SPLINE
  5
C4
330
1F
100
AcDbEntity
  8
0
  6
Continuous
 62
     7
370
    15
100
AcDbSpline
210
0.0
220
0.0
230
1.0
 70
     8
 71
     3
 72
     8
 73
     4
 74
     0
 42
0.000000001
 43
0.00000001
 40
0.0
 40
0.0
 40
0.0
 40
0.0
 40
1.0
 40
1.0
 40
1.0
 40
1.0
 10
172.8928311864375
 20
157.2046073878822
 30
0.0
 10
172.637054875682
 20
156.7446290326175
 30
0.0
 10
172.3814914775761
 20
156.2845345723096
 30
0.0
 10
172.1261601642711
 20
155.8243135520446
 30
0.0
  0
SPLINE
  5
C5
330
1F
100
AcDbEntity
  8
0
  6
Continuous
 62
     7
370
    15
100
AcDbSpline
210
0.0
220
0.0
230
1.0
 70
     8
 71
     3
 72
     8
 73
     4
 74
     0
 42
0.000000001
 43
0.00000001
 40
0.0
 40
0.0
 40
0.0
 40
0.0
 40
0.0012352705496738
 40
0.0012352705496738
 40
0.0012352705496738
 40
0.0012352705496738
 10
173.4493216717329
 20
157.9844187979904
 30
0.0
 10
173.2633732464108
 20
157.7246430422387
 30
0.0
 10
173.0778664372398
 20
157.4647089636115
 30
0.0
 10
172.8928311864376
 20
157.2046073878828
 30
0.0
  0
LINE
  5
C6
330
1F
100
AcDbEntity
  8
0
  6
Continuous
 62
     7
370
    15
100
AcDbLine
 10
172.126160043
 20
146.771708762
 30
0.0
 11
172.126160043
 21
155.8243131988
 31
0.0
  0
LINE
  5
C7
330
1F
100
AcDbEntity
  8
0
  6
Continuous
 62
     7
370
    15
100
AcDbLine
 10
166.9829991112
 20
157.9844190531
 30
0.0
 11
162.9161602283
 21
157.9844190531
 31
0.0
  0
LINE
  5
C8
330
1F
100
AcDbEntity
  8
0
  6
Continuous
 62
     7
370
    15
100
AcDbLine
 10
166.9829991112
 20
149.7156529479
 30
0.0
 11
166.9829991112
 21
157.9844190531
 31
0.0
  0
SPLINE
  5
C9
330
1F
100
AcDbEntity
  8
0
  6
Continuous
 62
     7
370
    15
100
AcDbSpline
210
0.0
220
0.0
230
1.0
 70
     8
 71
     3
 72
    10
 73
     6
 74
     0
 42
0.000000001
 43
0.00000001
 40
0.0
 40
0.0
 40
0.0
 40
0.0
 40
0.5
 40
0.5
 40
1.0
 40
1.0
 40
1.0
 40
1.0
 10
162.6060290832174
 20
157.9147384689376
 30
0.0
 10
162.5295759932986
 20
157.844475697717
 30
0.0
 10
162.4607142710295
 20
157.7573807826753
 30
0.0
 10
162.3542020399566
 20
157.548211654423
 30
0.0
 10
162.316160164271
 20
157.4228941051835
 30
0.0
 10
162.316160164271
 20
157.2935438105876
 30
0.0
  0
SPLINE
  5
CA
330
1F
100
AcDbEntity
  8
0
  6
Continuous
 62
     7
370
    15
100
AcDbSpline
210
0.0
220
0.0
230
1.0
 70
     8
 71
     3
 72
     8
 73
     4
 74
     0
 42
0.000000001
 43
0.00000001
 40
0.0
 40
0.0
 40
0.0
 40
0.0
 40
1.0
 40
1.0
 40
1.0
 40
1.0
 10
162.916160164271
 20
157.9844187979904
 30
0.0
 10
162.8050819789336
 20
157.9844187979904
 30
0.0
 10
162.6974179750314
 20
157.9592696224358
 30
0.0
 10
162.6060290832174
 20
157.9147384689376
 30
0.0
  0
LINE
  5
CB
330
1F
100
AcDbEntity
  8
0
  6
Continuous
 62
     7
370
    15
100
AcDbLine
 10
162.3161600834
 20
148.9536559933
 30
0.0
 11
162.3161600834
 21
157.2935453408
 31
0.0
  0
LINE
  5
CC
330
1F
100
AcDbEntity
  8
0
  6
Continuous
 62
     7
370
    15
100
AcDbLine
 10
171.3261604706
 20
154.8523402565
 30
0.0
 11
169.1061603303
 21
154.8523402565
 31
0.0
  0
SPLINE
  5
CD
330
1F
100
AcDbEntity
  8
0
  6
Continuous
 62
     7
370
    15
100
AcDbSpline
210
0.0
220
0.0
230
1.0
 70
     8
 71
     3
 72
     8
 73
     4
 74
     0
 42
0.000000001
 43
0.00000001
 40
0.0
 40
0.0
 40
0.0
 40
0.0
 40
0.0012352705496723
 40
0.0012352705496723
 40
0.0012352705496723
 40
0.0012352705496723
 10
167.5394891421037
 20
157.204607387884
 30
0.0
 10
167.3544538913017
 20
157.4647089636122
 30
0.0
 10
167.168947082131
 20
157.7246430422391
 30
0.0
 10
166.9829986568091
 20
157.9844187979904
 30
0.0
  0
SPLINE
  5
CE
330
1F
100
AcDbEntity
  8
0
  6
Continuous
 62
     7
370
    15
100
AcDbSpline
210
0.0
220
0.0
230
1.0
 70
     8
 71
     3
 72
     8
 73
     4
 74
     0
 42
0.000000001
 43
0.00000001
 40
0.0
 40
0.0
 40
0.0
 40
0.0
 40
1.0
 40
1.0
 40
1.0
 40
1.0
 10
168.3061601642711
 20
155.8243135520446
 30
0.0
 10
168.0508288509657
 20
156.2845345723102
 30
0.0
 10
167.7952654528594
 20
156.7446290326186
 30
0.0
 10
167.5394891421037
 20
157.204607387884
 30
0.0
  0
LINE
  5
CF
330
1F
100
AcDbEntity
  8
0
  6
Continuous
 62
     7
370
    15
100
AcDbLine
 10
168.3061598266
 20
146.771708762
 30
0.0
 11
168.3061598266
 21
155.8243131988
 31
0.0
  0
LINE
  5
D0
330
1F
100
AcDbEntity
  8
0
  6
Continuous
 62
     7
370
    15
100
AcDbLine
 10
57.5161613921
 20
92.8257296585
 30
0.0
 11
57.5161613921
 21
129.5834186279
 31
0.0
  0
LINE
  5
D1
330
1F
100
AcDbEntity
  8
0
  6
Continuous
 62
     7
370
    15
100
AcDbLine
 10
243.2161607246
 20
95.5045747363
 30
0.0
 11
243.2161607246
 21
126.9045735501
 31
0.0
  0
LINE
  5
D2
330
1F
100
AcDbEntity
  8
0
  6
Continuous
 62
     7
370
    15
100
AcDbLine
 10
242.9161630968
 20
95.2045733833
 30
0.0
 11
242.9161630968
 21
127.2045749032
 31
0.0
  0
SPLINE
  5
D3
330
1F
100
AcDbEntity
  8
0
  6
Continuous
 62
     7
370
    15
100
AcDbSpline
210
0.0
220
0.0
230
1.0
 70
     8
 71
     3
 72
    42
 73
    38
 74
     0
 42
0.000000001
 43
0.00000001
 40
0.0
 40
0.0
 40
0.0
 40
0.0
 40
0.0312500000000001
 40
0.0312500000000001
 40
0.0625000000000002
 40
0.0625000000000002
 40
0.1249999999999996
 40
0.1249999999999996
 40
0.1874999999999991
 40
0.1874999999999991
 40
0.2499999999999986
 40
0.2499999999999986
 40
0.312499999999998
 40
0.312499999999998
 40
0.3749999999999974
 40
0.3749999999999974
 40
0.4374999999999968
 40
0.4374999999999968
 40
0.4999999999999963
 40
0.4999999999999963
 40
0.5624999999999957
 40
0.5624999999999957
 40
0.6249999999999951
 40
0.6249999999999951
 40
0.6874999999999944
 40
0.6874999999999944
 40
0.7499999999999939
 40
0.7499999999999939
 40
0.7812499999999947
 40
0.7812499999999947
 40
0.8124999999999954
 40
0.8124999999999954
 40
0.874999999999997
 40
0.874999999999997
 40
0.9374999999999986
 40
0.9374999999999986
 40
1.0
 40
1.0
 40
1.0
 40
1.0
 10
239.166160164271
 20
111.2045741432149
 30
0.0
 10
239.166160164271
 20
111.0436413722076
 30
0.0
 10
239.1563595105158
 20
110.8825699923276
 30
0.0
 10
239.116730967517
 20
110.5601442302347
 30
0.0
 10
239.0867433647931
 20
110.3989746301559
 30
0.0
 10
238.9696841122366
 20
109.9285816191722
 30
0.0
 10
238.8553169981334
 20
109.6275117920665
 30
0.0
 10
238.5575358916225
 20
109.0498852737166
 30
0.0
 10
238.3792684543828
 20
108.7831110656692
 30
0.0
 10
237.9703275757383
 20
108.2882386987602
 30
0.0
 10
237.7383077837183
 20
108.0599829276642
 30
0.0
 10
237.2417436142228
 20
107.6560806406614
 30
0.0
 10
236.9752107166456
 20
107.4778033751232
 30
0.0
 10
236.406998992572
 20
107.1671475582961
 30
0.0
 10
236.1127517845174
 20
107.0388101698932
 30
0.0
 10
235.5051476197498
 20
106.8320403273641
 30
0.0
 10
235.1893099681096
 20
106.7532913799558
 30
0.0
 10
234.5495106160254
 20
106.6491005412444
 30
0.0
 10
234.2286403730988
 20
106.6237072903869
 30
0.0
 10
233.5850088983009
 20
106.6247173374596
 30
0.0
 10
233.2593849136599
 20
106.651674041663
 30
0.0
 10
232.6207960812588
 20
106.7582421256487
 30
0.0
 10
232.3097028592899
 20
106.8369724341366
 30
0.0
 10
231.7036969329002
 20
107.0452815489352
 30
0.0
 10
231.4060151199631
 20
107.1764529752677
 30
0.0
 10
230.8428308011663
 20
107.4869364757346
 30
0.0
 10
230.5785340008412
 20
107.6648249917825
 30
0.0
 10
230.2087027409127
 20
107.9672538192512
 30
0.0
 10
230.0898924272384
 20
108.0740380480943
 30
0.0
 10
229.8617651909595
 20
108.300439990229
 30
0.0
 10
229.7521735779184
 20
108.4205457193079
 30
0.0
 10
229.4465373531557
 20
108.7922366421722
 30
0.0
 10
229.270553416436
 20
109.0575260999995
 30
0.0
 10
228.9780077602968
 20
109.6261360818506
 30
0.0
 10
228.8607813208702
 20
109.9344033428703
 30
0.0
 10
228.7060056696091
 20
110.5596461618049
 30
0.0
 10
228.666160164271
 20
110.8786902663411
 30
0.0
 10
228.666160164271
 20
111.2045741432149
 30
0.0
  0
SPLINE
  5
D4
330
1F
100
AcDbEntity
  8
0
  6
Continuous
 62
     7
370
    15
100
AcDbSpline
210
0.0
220
0.0
230
1.0
 70
     8
 71
     3
 72
    42
 73
    38
 74
     0
 42
0.000000001
 43
0.00000001
 40
0.0
 40
0.0
 40
0.0
 40
0.0
 40
0.0312499999999993
 40
0.0312499999999993
 40
0.0624999999999986
 40
0.0624999999999986
 40
0.1249999999999979
 40
0.1249999999999979
 40
0.1874999999999972
 40
0.1874999999999972
 40
0.2499999999999964
 40
0.2499999999999964
 40
0.3124999999999957
 40
0.3124999999999957
 40
0.3749999999999948
 40
0.3749999999999948
 40
0.4999999999999931
 40
0.4999999999999931
 40
0.5624999999999936
 40
0.5624999999999936
 40
0.6249999999999941
 40
0.6249999999999941
 40
0.6874999999999946
 40
0.6874999999999946
 40
0.7499999999999951
 40
0.7499999999999951
 40
0.8124999999999954
 40
0.8124999999999954
 40
0.8437499999999957
 40
0.8437499999999957
 40
0.8749999999999959
 40
0.8749999999999959
 40
0.9374999999999976
 40
0.9374999999999976
 40
0.9687499999999988
 40
0.9687499999999988
 40
1.0
 40
1.0
 40
1.0
 40
1.0
 10
228.666160164271
 20
111.2045741432149
 30
0.0
 10
228.666160164271
 20
111.3675185735677
 30
0.0
 10
228.676377069609
 20
111.5313546013782
 30
0.0
 10
228.7162074141027
 20
111.8526063393893
 30
0.0
 10
228.7457978465031
 20
112.0112100031766
 30
0.0
 10
228.8628495765018
 20
112.4811252895318
 30
0.0
 10
228.9802851094579
 20
112.7888023735665
 30
0.0
 10
229.2760478642807
 20
113.3609013795016
 30
0.0
 10
229.4562621548802
 20
113.6307613868665
 30
0.0
 10
229.8688049593466
 20
114.1282932875703
 30
0.0
 10
230.0982714925154
 20
114.3533593610286
 30
0.0
 10
230.6003739056732
 20
114.760286083698
 30
0.0
 10
230.8681307916406
 20
114.9378980393705
 30
0.0
 10
231.4283725056018
 20
115.2431278850093
 30
0.0
 10
231.7218436734906
 20
115.3714561013997
 30
0.0
 10
232.6429032671741
 20
115.6838553719469
 30
0.0
 10
233.2800290097953
 20
115.7864483409721
 30
0.0
 10
234.2551091187745
 20
115.7841663390302
 30
0.0
 10
234.5757212908586
 20
115.7570004027437
 30
0.0
 10
235.208419138546
 20
115.6514332720508
 30
0.0
 10
235.5219206522764
 20
115.5725564326099
 30
0.0
 10
236.1337987081387
 20
115.3619456782898
 30
0.0
 10
236.4262213316293
 20
115.2325420527812
 30
0.0
 10
236.9843647449773
 20
114.9252347493989
 30
0.0
 10
237.2516287347308
 20
114.7461354762528
 30
0.0
 10
237.7499587349392
 20
114.338531327089
 30
0.0
 10
237.9759658798698
 20
114.114625315236
 30
0.0
 10
238.2790919765391
 20
113.7469880032585
 30
0.0
 10
238.374108571235
 20
113.6191069937636
 30
0.0
 10
238.5512588671393
 20
113.351837454618
 30
0.0
 10
238.6338688942247
 20
113.2114330748363
 30
0.0
 10
238.8555906000275
 20
112.7806222952082
 30
0.0
 10
238.9697802707147
 20
112.4804409389625
 30
0.0
 10
239.0869807585591
 20
112.0090888939493
 30
0.0
 10
239.1169353255181
 20
111.8476191317439
 30
0.0
 10
239.1563586621509
 20
111.5263059870134
 30
0.0
 10
239.166160164271
 20
111.3655093754113
 30
0.0
 10
239.166160164271
 20
111.2045741432149
 30
0.0
  0
SPLINE
  5
D5
330
1F
100
AcDbEntity
  8
0
  6
Continuous
 62
     7
370
    15
100
AcDbSpline
210
0.0
220
0.0
230
1.0
 70
     8
 71
     3
 72
    11
 73
     7
 74
     0
 42
0.000000001
 43
0.00000001
 40
0.0
 40
0.0
 40
0.0
 40
0.0
 40
0.1323873771658325
 40
0.4819430599281648
 40
0.8154870547598975
 40
1.0
 40
1.0
 40
1.0
 40
1.0
 10
236.2087481121165
 20
110.9264160007506
 30
0.0
 10
236.1511973405593
 20
110.8498144052687
 30
0.0
 10
235.9416894891364
 20
110.5709539269341
 30
0.0
 10
235.5499277347728
 20
110.0495142370864
 30
0.0
 10
235.1283105357891
 20
109.4883459719929
 30
0.0
 10
234.9021218909684
 20
109.1872829368651
 30
0.0
 10
234.8215617636782
 20
109.0800552886713
 30
0.0
  0
SPLINE
  5
D6
330
1F
100
AcDbEntity
  8
0
  6
Continuous
 62
     7
370
    15
100
AcDbSpline
210
0.0
220
0.0
230
1.0
 70
     8
 71
     3
 72
    10
 73
     6
 74
     0
 42
0.000000001
 43
0.00000001
 40
0.0
 40
0.0
 40
0.0
 40
0.0
 40
0.4391227876623446
 40
0.7513713080545272
 40
1.0
 40
1.0
 40
1.0
 40
1.0
 10
235.3033461073977
 20
113.0509347679827
 30
0.0
 10
235.4329653932734
 20
112.7467897022459
 30
0.0
 10
235.6547535015516
 20
112.2263751796984
 30
0.0
 10
235.9771450804922
 20
111.469861563107
 30
0.0
 10
236.1376144014188
 20
111.0933278893451
 30
0.0
 10
236.2087481121165
 20
110.9264160007506
 30
0.0
  0
SPLINE
  5
D7
330
1F
100
AcDbEntity
  8
0
  6
Continuous
 62
     7
370
    15
100
AcDbSpline
210
0.0
220
0.0
230
1.0
 70
     8
 71
     3
 72
    10
 73
     6
 74
     0
 42
0.000000001
 43
0.00000001
 40
0.0
 40
0.0
 40
0.0
 40
0.0
 40
0.4391220885725839
 40
0.7513720055799724
 40
1.0
 40
1.0
 40
1.0
 40
1.0
 10
233.0107577542407
 20
113.3290929977584
 30
0.0
 10
233.3389639332536
 20
113.2892719584986
 30
0.0
 10
233.9005502013694
 20
113.2211350669333
 30
0.0
 10
234.7169076013051
 20
113.1220871368381
 30
0.0
 10
235.1232300284819
 20
113.0727881857762
 30
0.0
 10
235.3033461073977
 20
113.0509347679827
 30
0.0
  0
SPLINE
  5
D8
330
1F
100
AcDbEntity
  8
0
  6
Continuous
 62
     7
370
    15
100
AcDbSpline
210
0.0
220
0.0
230
1.0
 70
     8
 71
     3
 72
    11
 73
     7
 74
     0
 42
0.000000001
 43
0.00000001
 40
0.0
 40
0.0
 40
0.0
 40
0.0
 40
0.1845129541575469
 40
0.5180569299346606
 40
0.8676126316496575
 40
1.0
 40
1.0
 40
1.0
 40
1.0
 10
231.6235714058024
 20
111.4827322856791
 30
0.0
 10
231.7041315305302
 20
111.5899599457005
 30
0.0
 10
231.930320152799
 20
111.8910229935956
 30
0.0
 10
232.3519374222216
 20
112.4521912047981
 30
0.0
 10
232.7436991056103
 20
112.9736309507927
 30
0.0
 10
232.9532069811119
 20
113.2524914133284
 30
0.0
 10
233.0107577542407
 20
113.3290929977584
 30
0.0
  0
SPLINE
  5
D9
330
1F
100
AcDbEntity
  8
0
  6
Continuous
 62
     7
370
    15
100
AcDbSpline
210
0.0
220
0.0
230
1.0
 70
     8
 71
     3
 72
    10
 73
     6
 74
     0
 42
0.000000001
 43
0.00000001
 40
0.0
 40
0.0
 40
0.0
 40
0.0
 40
0.4391227876623446
 40
0.7513713080545272
 40
1.0
 40
1.0
 40
1.0
 40
1.0
 10
232.5289734105212
 20
109.358213518447
 30
0.0
 10
232.3993541246455
 20
109.6623585841838
 30
0.0
 10
232.1775660163673
 20
110.1827731067313
 30
0.0
 10
231.8551744374268
 20
110.9392867233227
 30
0.0
 10
231.6947051165001
 20
111.3158203970847
 30
0.0
 10
231.6235714058024
 20
111.4827322856791
 30
0.0
  0
SPLINE
  5
DA
330
1F
100
AcDbEntity
  8
0
  6
Continuous
 62
     7
370
    15
100
AcDbSpline
210
0.0
220
0.0
230
1.0
 70
     8
 71
     3
 72
    10
 73
     6
 74
     0
 42
0.000000001
 43
0.00000001
 40
0.0
 40
0.0
 40
0.0
 40
0.0
 40
0.4391220885725839
 40
0.7513720055799724
 40
1.0
 40
1.0
 40
1.0
 40
1.0
 10
234.8215617636782
 20
109.0800552886713
 30
0.0
 10
234.4933555846653
 20
109.1198763279312
 30
0.0
 10
233.9317693165496
 20
109.1880132194964
 30
0.0
 10
233.1154119166138
 20
109.2870611495916
 30
0.0
 10
232.709089489437
 20
109.3363601006536
 30
0.0
 10
232.5289734105212
 20
109.358213518447
 30
0.0
  0
CIRCLE
  5
DB
330
1F
100
AcDbEntity
  8
0
  6
Continuous
 62
     7
370
    15
100
AcDbCircle
 10
233.9161601643
 20
111.2045741432
 30
0.0
 40
2.350000000000013
  0
CIRCLE
  5
DC
330
1F
100
AcDbEntity
  8
0
  6
Continuous
 62
     7
370
    15
100
AcDbCircle
 10
233.9161601643
 20
111.2045741432
 30
0.0
 40
3.500000000000007
  0
CIRCLE
  5
DD
330
1F
100
AcDbEntity
  8
0
  6
Continuous
 62
     7
370
    15
100
AcDbCircle
 10
233.9161601643
 20
111.2045741432
 30
0.0
 40
4.000000000000027
  0
ARC
  5
DE
330
1F
100
AcDbEntity
  8
0
  6
Continuous
 62
     7
370
    15
100
AcDbCircle
 10
233.9161601643
 20
111.2045741432
 30
0.0
 40
2.000000000000002
100
AcDbArc
 50
263.0821559528
 51
323.0821559528
  0
ARC
  5
DF
330
1F
100
AcDbEntity
  8
0
  6
Continuous
 62
     7
370
    15
100
AcDbCircle
 10
233.9161601643
 20
111.2045741432
 30
0.0
 40
2.000000000000002
100
AcDbArc
 50
203.0821559528
 51
263.0821559528
  0
ARC
  5
E0
330
1F
100
AcDbEntity
  8
0
  6
Continuous
 62
     7
370
    15
100
AcDbCircle
 10
233.9161601643
 20
111.2045741432
 30
0.0
 40
2.000000000000002
100
AcDbArc
 50
143.0821559528
 51
203.0821559528
  0
ARC
  5
E1
330
1F
100
AcDbEntity
  8
0
  6
Continuous
 62
     7
370
    15
100
AcDbCircle
 10
233.9161601643
 20
111.2045741432
 30
0.0
 40
2.000000000000002
100
AcDbArc
 50
323.0821559528
 51
23.0821559528
  0
ARC
  5
E2
330
1F
100
AcDbEntity
  8
0
  6
Continuous
 62
     7
370
    15
100
AcDbCircle
 10
233.9161601643
 20
111.2045741432
 30
0.0
 40
2.000000000000011
100
AcDbArc
 50
83.0821559528
 51
143.0821559528
  0
ARC
  5
E3
330
1F
100
AcDbEntity
  8
0
  6
Continuous
 62
     7
370
    15
100
AcDbCircle
 10
233.9161601643
 20
111.2045741432
 30
0.0
 40
2.000000000000011
100
AcDbArc
 50
23.0821559528
 51
83.0821559528
  0
ARC
  5
E4
330
1F
100
AcDbEntity
  8
0
  6
Continuous
 62
     7
370
    15
100
AcDbCircle
 10
173.2808299638
 20
96.0522845374
 30
0.0
 40
2.466184685718926
100
AcDbArc
 50
182.0081288183
 51
294.2383330822
  0
ARC
  5
E5
330
1F
100
AcDbEntity
  8
0
  6
Continuous
 62
     7
370
    15
100
AcDbCircle
 10
173.4290225589
 20
96.0467460383
 30
0.0
 40
2.40397036472645
100
AcDbArc
 50
291.0702769694
 51
340.9690249741
  0
ARC
  5
E6
330
1F
100
AcDbEntity
  8
0
  6
Continuous
 62
     7
370
    15
100
AcDbCircle
 10
173.2739307968
 20
95.9520717606
 30
0.0
 40
2.288585151390049
100
AcDbArc
 50
159.4120604285
 51
294.9291111896
  0
ARC
  5
E7
330
1F
100
AcDbEntity
  8
0
  6
Continuous
 62
     7
370
    15
100
AcDbCircle
 10
173.444826485
 20
95.97095307
 30
0.0
 40
2.239609843773836
100
AcDbArc
 50
290.7571544487
 51
346.5792979566
  0
ARC
  5
E8
330
1F
100
AcDbEntity
  8
0
  6
Continuous
 62
     7
370
    15
100
AcDbCircle
 10
173.2530504996
 20
95.8940251134
 30
0.0
 40
1.903653556574462
100
AcDbArc
 50
126.1134944313
 51
296.345399632
  0
ARC
  5
E9
330
1F
100
AcDbEntity
  8
0
  6
Continuous
 62
     7
370
    15
100
AcDbCircle
 10
173.4436305369
 20
95.942794561
 30
0.0
 40
1.872694405040117
100
AcDbArc
 50
290.447570528
 51
359.2408946989
  0
LWPOLYLINE
  5
EA
330
1F
100
AcDbEntity
  8
0
  6
HIDDEN
 62
     7
370
     0
100
AcDbPolyline
 90
       21
 70
   128
 43
0.0
 10
173.3161602567
 20
95.3472575896
 10
174.0887025769
 20
95.462236812
 10
174.7856233666
 20
95.7959203773
 10
175.3387023161
 20
96.3156449401
 10
175.6938007126
 20
96.9705360734
 10
175.8161597351
 20
97.6964889818
 10
175.6938007126
 20
98.4224409588
 10
175.3387023161
 20
99.0773320921
 10
174.7856233666
 20
99.5970566549
 10
174.0887025769
 20
99.9307402202
 10
173.3161602567
 20
100.0457203739
 10
172.5436179365
 20
99.9307402202
 10
171.8466971467
 20
99.5970566549
 10
171.2936172659
 20
99.0773320921
 10
170.9385188694
 20
98.4224409588
 10
170.8161598469
 20
97.6964889818
 10
170.9385188694
 20
96.9705360734
 10
171.2936172659
 20
96.3156449401
 10
171.8466971467
 20
95.7959203773
 10
172.5436179365
 20
95.462236812
 10
173.3161602567
 20
95.3472575896
  0
LWPOLYLINE
  5
EB
330
1F
100
AcDbEntity
  8
0
  6
HIDDEN
 62
     7
370
     0
100
AcDbPolyline
 90
       23
 70
   128
 43
0.0
 10
162.5878911397
 20
97.2997139
 10
162.7931991058
 20
96.4709392541
 10
163.1154665189
 20
95.7093073779
 10
163.5285849149
 20
95.0765202545
 10
163.99908582
 20
94.6238434666
 10
164.4888520638
 20
94.3879487716
 10
164.9582060451
 20
94.3879487716
 10
165.3691232602
 20
94.6238434666
 10
165.6883135835
 20
95.0765202545
 10
165.8899179126
 20
95.7093073779
 10
165.957604109
 20
96.4709392541
 10
165.8858880798
 20
97.2997139
 10
165.6805798809
 20
98.1284885459
 10
165.3583124677
 20
98.8901213535
 10
164.9451940718
 20
99.5229075455
 10
164.4746931667
 20
99.9755852648
 10
163.9849269229
 20
100.2114790284
 10
163.5155729415
 20
100.2114790284
 10
163.1046557265
 20
99.9755852648
 10
162.785465636
 20
99.5229075455
 10
162.5838610741
 20
98.8901213535
 10
162.5161751105
 20
98.1284885459
 10
162.5878911397
 20
97.2997139
  0
LWPOLYLINE
  5
EC
330
1F
100
AcDbEntity
  8
0
  6
HIDDEN
 62
     7
370
     0
100
AcDbPolyline
 90
       19
 70
   128
 43
0.0
 10
163.3509230266
 20
97.363976089
 10
163.5382422643
 20
96.659689469
 10
163.8421933564
 20
96.0403506436
 10
164.226115721
 20
95.5806609967
 10
164.643702137
 20
95.3360649549
 10
165.0445857483
 20
95.3360649549
 10
165.3804146151
 20
95.5806609967
 10
165.6106817933
 20
96.0403506436
 10
165.7076143126
 20
96.659689469
 10
165.6595208148
 20
97.363976089
 10
165.4722015771
 20
98.0682617777
 10
165.1682500193
 20
98.687600603
 10
164.7843281204
 20
99.1472911813
 10
164.3667412388
 20
99.3918862917
 10
163.9658576275
 20
99.3918862917
 10
163.6300292263
 20
99.1472911813
 10
163.3997615824
 20
98.687600603
 10
163.3028290632
 20
98.0682617777
 10
163.3509230266
 20
97.363976089
  0
ELLIPSE
  5
ED
330
1F
100
AcDbEntity
  8
0
  6
HIDDEN
 62
     7
370
     0
100
AcDbEllipse
 10
173.3161601643
 20
99.4740640319
 30
0.0
 11
1.760776919379111
 21
2.232245799914451
 31
0.0
210
0.0
220
0.0
230
1.0
 40
0.5126701559
 41
1.100887047646285
 42
4.02962702760831
  0
ARC
  5
EE
330
1F
100
AcDbEntity
  8
0
  6
HIDDEN
 62
     7
370
     0
100
AcDbCircle
 10
172.6195606957
 20
100.651603913
 30
0.0
 40
0.7945949542257861
100
AcDbArc
 50
53.4208190544
 51
99.1663888759
  0
ELLIPSE
  5
EF
330
1F
100
AcDbEntity
  8
0
  6
HIDDEN
 62
     7
370
     0
100
AcDbEllipse
 10
173.3161601643
 20
99.4740640319
 30
0.0
 11
1.760776919379083
 21
-1.388886188042932
 31
0.0
210
0.0
220
0.0
230
1.0
 40
0.8239737799
 41
2.549926265248534
 42
4.885930273856097
  0
ARC
  5
F0
330
1F
100
AcDbEntity
  8
0
  6
HIDDEN
 62
     7
370
     0
100
AcDbCircle
 10
173.5622129262
 20
98.6345864679
 30
0.0
 40
1.353195702694776
100
AcDbArc
 50
217.8001040701
 51
249.7155767561
  0
LWPOLYLINE
  5
F1
330
1F
100
AcDbEntity
  8
0
  6
HIDDEN
 62
     7
370
     0
100
AcDbPolyline
 90
       19
 70
   128
 43
0.0
 10
173.3161602567
 20
95.7729278856
 10
174.0344027455
 20
95.8919360095
 10
174.6660145397
 20
96.2346049749
 10
175.1348134528
 20
96.7596054801
 10
175.3842570285
 20
97.4036131778
 10
175.3842570285
 20
98.08895204
 10
175.1348134528
 20
98.7329597377
 10
174.6660145397
 20
99.2579602429
 10
174.0344027455
 20
99.6006292083
 10
173.3161602567
 20
99.7196373322
 10
172.5979177679
 20
99.6006292083
 10
171.9663059736
 20
99.2579602429
 10
171.4975070606
 20
98.7329597377
 10
171.2480634848
 20
98.08895204
 10
171.2480634848
 20
97.4036131778
 10
171.4975070606
 20
96.7596054801
 10
171.9663059736
 20
96.2346049749
 10
172.5979177679
 20
95.8919360095
 10
173.3161602567
 20
95.7729278856
  0
SPLINE
  5
F2
330
1F
100
AcDbEntity
  8
0
  6
HIDDEN
 62
     7
370
     0
100
AcDbSpline
210
0.0
220
0.0
230
1.0
 70
    11
 71
     3
 72
    62
 73
    58
 74
     0
 42
0.000000001
 43
0.00000001
 40
0.0
 40
0.0
 40
0.0
 40
0.0
 40
0.0312499999999996
 40
0.0312499999999996
 40
0.0624999999999993
 40
0.0624999999999993
 40
0.1249999999999989
 40
0.1249999999999989
 40
0.1874999999999986
 40
0.1874999999999986
 40
0.2187499999999984
 40
0.2187499999999984
 40
0.2499999999999982
 40
0.2499999999999982
 40
0.281249999999998
 40
0.281249999999998
 40
0.3124999999999978
 40
0.3124999999999978
 40
0.3437499999999976
 40
0.3437499999999976
 40
0.3749999999999974
 40
0.3749999999999974
 40
0.4374999999999969
 40
0.4374999999999969
 40
0.4687499999999969
 40
0.4687499999999969
 40
0.4999999999999969
 40
0.4999999999999969
 40
0.5312499999999969
 40
0.5312499999999969
 40
0.5624999999999968
 40
0.5624999999999968
 40
0.5937499999999968
 40
0.5937499999999968
 40
0.6249999999999968
 40
0.6249999999999968
 40
0.6562499999999969
 40
0.6562499999999969
 40
0.6874999999999971
 40
0.6874999999999971
 40
0.7187499999999973
 40
0.7187499999999973
 40
0.7499999999999974
 40
0.7499999999999974
 40
0.7812499999999977
 40
0.7812499999999977
 40
0.8124999999999979
 40
0.8124999999999979
 40
0.8749999999999982
 40
0.8749999999999982
 40
0.9062499999999987
 40
0.9062499999999987
 40
0.9374999999999991
 40
0.9374999999999991
 40
0.9687499999999994
 40
0.9687499999999994
 40
1.0
 40
1.0
 40
1.0
 40
1.0
 10
173.316160164271
 20
107.9674795079871
 30
0.0
 10
173.1749619402912
 20
107.9674795079871
 30
0.0
 10
173.0366840632774
 20
107.9779474443707
 30
0.0
 10
172.7655179920696
 20
108.0189709253061
 30
0.0
 10
172.63131466461
 20
108.0500973787217
 30
0.0
 10
172.2522514848199
 20
108.1714713666335
 30
0.0
 10
172.0232445631261
 20
108.2916261406416
 30
0.0
 10
171.6422139441233
 20
108.6004050396645
 30
0.0
 10
171.4865908672017
 20
108.7925742078283
 30
0.0
 10
171.327520390633
 20
109.1225585196666
 30
0.0
 10
171.2857932454897
 20
109.2420578829787
 30
0.0
 10
171.2305225443476
 20
109.4886422821344
 30
0.0
 10
171.2164426128578
 20
109.6158142125715
 30
0.0
 10
171.2158860465366
 20
109.8783034052677
 30
0.0
 10
171.2298753239572
 20
110.0134457739647
 30
0.0
 10
171.2843568431929
 20
110.2779308673245
 30
0.0
 10
171.3252073013478
 20
110.4100807715704
 30
0.0
 10
171.4318212682072
 20
110.6667765224923
 30
0.0
 10
171.4965734104802
 20
110.7895144069462
 30
0.0
 10
171.6481319524328
 20
111.0238851557045
 30
0.0
 10
171.7354700756059
 20
111.135702656718
 30
0.0
 10
172.0212464965674
 20
111.4408861218464
 30
0.0
 10
172.2507828450332
 20
111.6117004410262
 30
0.0
 10
172.6271009810275
 20
111.7882108040002
 30
0.0
 10
172.7594338893882
 20
111.834695611194
 30
0.0
 10
173.033466548379
 20
111.8977993239341
 30
0.0
 10
173.1714917080011
 20
111.9137570136784
 30
0.0
 10
173.4495630892199
 20
111.9146028825401
 30
0.0
 10
173.5912760278902
 20
111.898878207567
 30
0.0
 10
173.8636982835705
 20
111.8374377650678
 30
0.0
 10
173.9955264280676
 20
111.7921161213814
 30
0.0
 10
174.2509253236722
 20
111.6735683183803
 30
0.0
 10
174.3710913268615
 20
111.601881235164
 30
0.0
 10
174.5962627394178
 20
111.4371526691657
 30
0.0
 10
174.7024138007522
 20
111.3428933961308
 30
0.0
 10
174.8938610894544
 20
111.139328721987
 30
0.0
 10
174.9797951033739
 20
111.0298614317479
 30
0.0
 10
175.1322074214139
 20
110.7957638292639
 30
0.0
 10
175.1983909117014
 20
110.670869606366
 30
0.0
 10
175.3045726102525
 20
110.4171378548313
 30
0.0
 10
175.3455526734683
 20
110.2869681700476
 30
0.0
 10
175.4016328142657
 20
110.0199044749187
 30
0.0
 10
175.4158569897069
 20
109.8859512449035
 30
0.0
 10
175.4164536735784
 20
109.6244945024354
 30
0.0
 10
175.40268510608
 20
109.494377133048
 30
0.0
 10
175.3478350391379
 20
109.2461862775642
 30
0.0
 10
175.3073385258614
 20
109.1288307864834
 30
0.0
 10
175.1478760546853
 20
108.7950816647437
 30
0.0
 10
174.9932076303711
 20
108.6032420928177
 30
0.0
 10
174.7048995990265
 20
108.369119524848
 30
0.0
 10
174.6008747836787
 20
108.3009631154848
 30
0.0
 10
174.3764555254999
 20
108.1822521762607
 30
0.0
 10
174.2545247376394
 20
108.1313302398924
 30
0.0
 10
174.0020675862134
 20
108.0503804050707
 30
0.0
 10
173.8711810562962
 20
108.0198450860717
 30
0.0
 10
173.5992401385834
 20
107.9782870573273
 30
0.0
 10
173.4573583882509
 20
107.9674795079871
 30
0.0
 10
173.316160164271
 20
107.9674795079871
 30
0.0
  0
SPLINE
  5
F3
330
1F
100
AcDbEntity
  8
0
  6
HIDDEN
 62
     7
370
     0
100
AcDbSpline
210
0.0
220
0.0
230
1.0
 70
     8
 71
     3
 72
     8
 73
     4
 74
     0
 42
0.000000001
 43
0.00000001
 40
0.0
 40
0.0
 40
0.0
 40
0.0
 40
1.0
 40
1.0
 40
1.0
 40
1.0
 10
172.4929799881116
 20
101.4360521077362
 30
0.0
 10
172.7044073781129
 20
101.4285425979538
 30
0.0
 10
172.9068759246456
 20
101.3744190683191
 30
0.0
 10
173.093086523783
 20
101.2896907810939
 30
0.0
  0
SPLINE
  5
F4
330
1F
100
AcDbEntity
  8
0
  6
HIDDEN
 62
     7
370
     0
100
AcDbSpline
210
0.0
220
0.0
230
1.0
 70
     8
 71
     3
 72
     8
 73
     4
 74
     0
 42
0.000000001
 43
0.00000001
 40
0.0
 40
0.0
 40
0.0
 40
0.0
 40
1.0
 40
1.0
 40
1.0
 40
1.0
 10
173.093086523783
 20
97.3653120131597
 30
0.0
 10
172.9065621744985
 20
97.48763242906016
 30
0.0
 10
172.7040072759729
 20
97.6287175897249
 30
0.0
 10
172.4929799881116
 20
97.80520122550975
 30
0.0
  0
LINE
  5
F5
330
1F
100
AcDbEntity
  8
0
  6
HIDDEN
 62
     7
370
     0
100
AcDbLine
 10
162.4877329847
 20
75.9045726412
 30
0.0
 11
162.3161600834
 21
75.9045726412
 31
0.0
  0
ELLIPSE
  5
F6
330
1F
100
AcDbEntity
  8
0
  6
HIDDEN
 62
     7
370
     0
100
AcDbEllipse
 10
162.4877330395
 20
73.9045741432
 30
0.0
 11
0.0
 21
2.0
 31
0.0
210
0.0
220
0.0
230
1.0
 40
0.4142135624
 41
4.712388980384695
 42
6.283185307179586
  0
LINE
  5
F7
330
1F
100
AcDbEntity
  8
0
  6
HIDDEN
 62
     7
370
     0
100
AcDbLine
 10
162.3161600834
 20
148.7045756333
 30
0.0
 11
162.4877329847
 21
148.7045756333
 31
0.0
  0
ELLIPSE
  5
F8
330
1F
100
AcDbEntity
  8
0
  6
HIDDEN
 62
     7
370
     0
100
AcDbEllipse
 10
162.4877330395
 20
150.7045741432
 30
0.0
 11
0.0
 21
2.0
 31
0.0
210
0.0
220
0.0
230
1.0
 40
0.4142135624
 41
3.141592653589793
 42
4.712388980384695
  0
LINE
  5
F9
330
1F
100
AcDbEntity
  8
0
  6
HIDDEN
 62
     7
370
     0
100
AcDbLine
 10
163.3161600145
 20
65.0186597162
 30
0.0
 11
162.5318201656
 21
64.5711182409
 31
0.0
  0
LINE
  5
FA
330
1F
100
AcDbEntity
  8
0
  6
HIDDEN
 62
     7
370
     0
100
AcDbLine
 10
162.6060291125
 20
157.9147374981
 30
0.0
 11
163.3161600145
 21
157.2046077602
 31
0.0
  0
LINE
  5
FB
330
1F
100
AcDbEntity
  8
0
  6
HIDDEN
 62
     7
370
     0
100
AcDbLine
 10
242.7661605577
 20
122.0045483463
 30
0.0
 11
242.7661605577
 21
123.7395464235
 31
0.0
  0
LINE
  5
FC
330
1F
100
AcDbEntity
  8
0
  6
HIDDEN
 62
     7
370
     0
100
AcDbLine
 10
242.7661605577
 20
103.0230077707
 30
0.0
 11
242.7661605577
 21
119.3861405157
 31
0.0
  0
LINE
  5
FD
330
1F
100
AcDbEntity
  8
0
  6
HIDDEN
 62
     7
370
     0
100
AcDbLine
 10
242.7661605577
 20
98.669601863
 30
0.0
 11
242.7661605577
 21
100.4045999401
 31
0.0
  0
LINE
  5
FE
330
1F
100
AcDbEntity
  8
0
  6
HIDDEN
 62
     7
370
     0
100
AcDbLine
 10
167.4361126895
 20
65.0186597162
 30
0.0
 11
163.3161600145
 21
65.0186597162
 31
0.0
  0
LINE
  5
FF
330
1F
100
AcDbEntity
  8
0
  6
HIDDEN
 62
     7
370
     0
100
AcDbLine
 10
178.1661603997
 20
65.0186597162
 30
0.0
 11
172.9962081114
 21
65.0186597162
 31
0.0
  0
LINE
  5
100
330
1F
100
AcDbEntity
  8
0
  6
HIDDEN
 62
     7
370
     0
100
AcDbLine
 10
163.3161600145
 20
65.0186597162
 30
0.0
 11
163.3161600145
 21
73.9045723134
 31
0.0
  0
LINE
  5
101
330
1F
100
AcDbEntity
  8
0
  6
HIDDEN
 62
     7
370
     0
100
AcDbLine
 10
163.3161600145
 20
157.2046077602
 30
0.0
 11
167.5394894953
 21
157.2046077602
 31
0.0
  0
LINE
  5
102
330
1F
100
AcDbEntity
  8
0
  6
HIDDEN
 62
     7
370
     0
100
AcDbLine
 10
172.8928313057
 20
157.2046077602
 30
0.0
 11
178.1661603997
 21
157.2046077602
 31
0.0
  0
LINE
  5
103
330
1F
100
AcDbEntity
  8
0
  6
HIDDEN
 62
     7
370
     0
100
AcDbLine
 10
163.3161600145
 20
157.2046077602
 30
0.0
 11
163.3161600145
 21
150.7045759612
 31
0.0
  0
LINE
  5
104
330
1F
100
AcDbEntity
  8
0
  6
HIDDEN
 62
     7
370
     0
100
AcDbLine
 10
178.1661603997
 20
75.9045726412
 30
0.0
 11
162.4877329847
 21
75.9045726412
 31
0.0
  0
LINE
  5
105
330
1F
100
AcDbEntity
  8
0
  6
HIDDEN
 62
     7
370
     0
100
AcDbLine
 10
162.4877329847
 20
148.7045756333
 30
0.0
 11
178.1661603997
 21
148.7045756333
 31
0.0
  0
LINE
  5
106
330
1F
100
AcDbEntity
  8
0
  6
HIDDEN
 62
     7
370
     0
100
AcDbLine
 10
67.516159306
 20
98.704573957
 30
0.0
 11
67.516159306
 21
123.7045743295
 31
0.0
  0
LINE
  5
107
330
1F
100
AcDbEntity
  8
0
  6
HIDDEN
 62
     7
370
     0
100
AcDbLine
 10
70.8007626633
 20
100.7045742848
 30
0.0
 11
70.8007626633
 21
121.7045740017
 31
0.0
  0
LINE
  5
108
330
1F
100
AcDbEntity
  8
0
  6
HIDDEN
 62
     7
370
     0
100
AcDbLine
 10
239.8661636213
 20
106.8402298518
 30
0.0
 11
239.8661636213
 21
115.5689184346
 31
0.0
  0
LINE
  5
109
330
1F
100
AcDbEntity
  8
0
  6
HIDDEN
 62
     7
370
     0
100
AcDbLine
 10
241.0341091851
 20
106.8402298518
 30
0.0
 11
241.0341091851
 21
115.5689184346
 31
0.0
  0
LINE
  5
10A
330
1F
100
AcDbEntity
  8
0
  6
HIDDEN
 62
     7
370
     0
100
AcDbLine
 10
119.5161603788
 20
100.7045742848
 30
0.0
 11
119.5161603788
 21
121.7045740017
 31
0.0
  0
LINE
  5
10B
330
1F
100
AcDbEntity
  8
0
  6
HIDDEN
 62
     7
370
     0
100
AcDbLine
 10
123.2715398471
 20
106.9545739122
 30
0.0
 11
123.2715398471
 21
115.4545743742
 31
0.0
  0
LINE
  5
10C
330
1F
100
AcDbEntity
  8
0
  6
HIDDEN
 62
     7
370
     0
100
AcDbLine
 10
242.7661605577
 20
122.0045483463
 30
0.0
 11
242.7661605577
 21
121.9447378793
 31
0.0
  0
LINE
  5
10D
330
1F
100
AcDbEntity
  8
0
  6
HIDDEN
 62
     7
370
     0
100
AcDbLine
 10
239.8661636213
 20
121.9447378793
 30
0.0
 11
242.7661605577
 21
121.9447378793
 31
0.0
  0
LINE
  5
10E
330
1F
100
AcDbEntity
  8
0
  6
HIDDEN
 62
     7
370
     0
100
AcDbLine
 10
239.8661636213
 20
122.0045744234
 30
0.0
 11
239.8661636213
 21
118.8045742714
 31
0.0
  0
LINE
  5
10F
330
1F
100
AcDbEntity
  8
0
  6
HIDDEN
 62
     7
370
     0
100
AcDbLine
 10
239.8661636213
 20
115.5689184346
 30
0.0
 11
241.0341091851
 21
115.5689184346
 31
0.0
  0
LINE
  5
110
330
1F
100
AcDbEntity
  8
0
  6
HIDDEN
 62
     7
370
     0
100
AcDbLine
 10
239.8661636213
 20
118.8045742714
 30
0.0
 11
239.8661636213
 21
115.5689184346
 31
0.0
  0
SPLINE
  5
111
330
1F
100
AcDbEntity
  8
0
  6
HIDDEN
 62
     7
370
     0
100
AcDbSpline
210
0.0
220
0.0
230
1.0
 70
     8
 71
     3
 72
     8
 73
     4
 74
     0
 42
0.000000001
 43
0.00000001
 40
0.0
 40
0.0
 40
0.0
 40
0.0
 40
1.0
 40
1.0
 40
1.0
 40
1.0
 10
241.0341093567021
 20
115.5689183092953
 30
0.0
 10
241.5608562501592
 20
116.3005822698295
 30
0.0
 10
242.1483815452223
 20
116.9711901284756
 30
0.0
 10
242.766160164271
 20
117.6114064338246
 30
0.0
  0
LINE
  5
112
330
1F
100
AcDbEntity
  8
0
  6
HIDDEN
 62
     7
370
     0
100
AcDbLine
 10
239.8661636213
 20
100.4644104072
 30
0.0
 11
242.7661605577
 21
100.4644104072
 31
0.0
  0
LINE
  5
113
330
1F
100
AcDbEntity
  8
0
  6
HIDDEN
 62
     7
370
     0
100
AcDbLine
 10
242.7661605577
 20
100.4644104072
 30
0.0
 11
242.7661605577
 21
100.4045999401
 31
0.0
  0
LINE
  5
114
330
1F
100
AcDbEntity
  8
0
  6
HIDDEN
 62
     7
370
     0
100
AcDbLine
 10
239.8661636213
 20
103.6045740151
 30
0.0
 11
239.8661636213
 21
100.4045738631
 31
0.0
  0
LINE
  5
115
330
1F
100
AcDbEntity
  8
0
  6
HIDDEN
 62
     7
370
     0
100
AcDbLine
 10
241.0341091851
 20
106.8402298518
 30
0.0
 11
239.8661636213
 21
106.8402298518
 31
0.0
  0
LINE
  5
116
330
1F
100
AcDbEntity
  8
0
  6
HIDDEN
 62
     7
370
     0
100
AcDbLine
 10
239.8661636213
 20
106.8402298518
 30
0.0
 11
239.8661636213
 21
103.6045740151
 31
0.0
  0
SPLINE
  5
117
330
1F
100
AcDbEntity
  8
0
  6
HIDDEN
 62
     7
370
     0
100
AcDbSpline
210
0.0
220
0.0
230
1.0
 70
     8
 71
     3
 72
     8
 73
     4
 74
     0
 42
0.000000001
 43
0.00000001
 40
0.0
 40
0.0
 40
0.0
 40
0.0
 40
1.0
 40
1.0
 40
1.0
 40
1.0
 10
242.766160164271
 20
104.7977418526051
 30
0.0
 10
242.1430180754366
 20
105.4435164286747
 30
0.0
 10
241.5552418881595
 20
106.1163644989219
 30
0.0
 10
241.0341093567021
 20
106.8402299771345
 30
0.0
  0
LINE
  5
118
330
1F
100
AcDbEntity
  8
0
  6
HIDDEN
 62
     7
370
     0
100
AcDbLine
 10
239.0661575297
 20
102.2045745306
 30
0.0
 11
239.0661575297
 21
120.2045737558
 31
0.0
  0
LINE
  5
119
330
1F
100
AcDbEntity
  8
0
  6
HIDDEN
 62
     7
370
     0
100
AcDbLine
 10
224.2161594729
 20
102.6045738512
 30
0.0
 11
224.2161594729
 21
119.8045744353
 31
0.0
  0
LINE
  5
11A
330
1F
100
AcDbEntity
  8
0
  6
HIDDEN
 62
     7
370
     0
100
AcDbLine
 10
226.216163526
 20
102.2045745306
 30
0.0
 11
226.216163526
 21
120.2045737558
 31
0.0
  0
LINE
  5
11B
330
1F
100
AcDbEntity
  8
0
  6
HIDDEN
 62
     7
370
     0
100
AcDbLine
 10
239.8661636213
 20
123.3795744159
 30
0.0
 11
239.8661636213
 21
122.0045744234
 31
0.0
  0
LINE
  5
11C
330
1F
100
AcDbEntity
  8
0
  6
HIDDEN
 62
     7
370
     0
100
AcDbLine
 10
239.8661636213
 20
100.4045738631
 30
0.0
 11
239.8661636213
 21
99.0295738705
 31
0.0
  0
SPLINE
  5
11D
330
1F
100
AcDbEntity
  8
0
  6
HIDDEN
 62
     7
370
     0
100
AcDbSpline
210
0.0
220
0.0
230
1.0
 70
    11
 71
     3
 72
    62
 73
    58
 74
     0
 42
0.000000001
 43
0.00000001
 40
0.0
 40
0.0
 40
0.0
 40
0.0
 40
0.0312500000000004
 40
0.0312500000000004
 40
0.0625000000000007
 40
0.0625000000000007
 40
0.1250000000000011
 40
0.1250000000000011
 40
0.1875000000000015
 40
0.1875000000000015
 40
0.2187500000000016
 40
0.2187500000000016
 40
0.2500000000000016
 40
0.2500000000000016
 40
0.2812500000000017
 40
0.2812500000000017
 40
0.3125000000000017
 40
0.3125000000000017
 40
0.3437500000000017
 40
0.3437500000000017
 40
0.3750000000000018
 40
0.3750000000000018
 40
0.4375000000000019
 40
0.4375000000000019
 40
0.4687500000000018
 40
0.4687500000000018
 40
0.5000000000000017
 40
0.5000000000000017
 40
0.5312500000000016
 40
0.5312500000000016
 40
0.5625000000000016
 40
0.5625000000000016
 40
0.5937500000000014
 40
0.5937500000000014
 40
0.6250000000000013
 40
0.6250000000000013
 40
0.6562500000000013
 40
0.6562500000000013
 40
0.6875000000000012
 40
0.6875000000000012
 40
0.7187500000000012
 40
0.7187500000000012
 40
0.7500000000000011
 40
0.7500000000000011
 40
0.781250000000001
 40
0.781250000000001
 40
0.812500000000001
 40
0.812500000000001
 40
0.8750000000000008
 40
0.8750000000000008
 40
0.9062500000000007
 40
0.9062500000000007
 40
0.9375000000000004
 40
0.9375000000000004
 40
0.9687500000000003
 40
0.9687500000000003
 40
1.0
 40
1.0
 40
1.0
 40
1.0
 10
173.316160164271
 20
110.4949597711418
 30
0.0
 10
173.4573583882509
 20
110.4949597711418
 30
0.0
 10
173.5956362652647
 20
110.5109711811333
 30
0.0
 10
173.8668023364725
 20
110.5727007467562
 30
0.0
 10
174.0010056639321
 20
110.6192385102109
 30
0.0
 10
174.3800688437223
 20
110.7962148389459
 30
0.0
 10
174.609075765416
 20
110.9666411326551
 30
0.0
 10
174.9901063844188
 20
111.3725274100784
 30
0.0
 10
175.1457294613404
 20
111.6121978514144
 30
0.0
 10
175.3047999379091
 20
111.992674678731
 30
0.0
 10
175.3465270830525
 20
112.1259434140361
 30
0.0
 10
175.4017977841945
 20
112.3909246496649
 30
0.0
 10
175.4158777156843
 20
112.5228899643828
 30
0.0
 10
175.4164342820055
 20
112.785567274197
 30
0.0
 10
175.4024450045849
 20
112.9159471381546
 30
0.0
 10
175.3479634853492
 20
113.1622910688777
 30
0.0
 10
175.3071130271943
 20
113.2809453388605
 30
0.0
 10
175.2004990603349
 20
113.5037716056159
 30
0.0
 10
175.1357469180619
 20
113.6064567166003
 30
0.0
 10
174.9841883761093
 20
113.7965799695137
 30
0.0
 10
174.8968502529362
 20
113.884086760733
 30
0.0
 10
174.6110738319747
 20
114.1163542561817
 30
0.0
 10
174.3815374835089
 20
114.2368029988242
 30
0.0
 10
174.0052193475146
 20
114.3578995911259
 30
0.0
 10
173.8728864391539
 20
114.3890077245621
 30
0.0
 10
173.5988537801631
 20
114.4309549641178
 30
0.0
 10
173.460828620541
 20
114.4413851987274
 30
0.0
 10
173.1827572393223
 20
114.4419410975942
 30
0.0
 10
173.0410443006519
 20
114.4316626387641
 30
0.0
 10
172.7686220449716
 20
114.390839454071
 30
0.0
 10
172.6367939004745
 20
114.3605461181963
 30
0.0
 10
172.3813950048699
 20
114.2792789279053
 30
0.0
 10
172.2612290016806
 20
114.229331077047
 30
0.0
 10
172.0360575891243
 20
114.111009865849
 30
0.0
 10
171.9299065277899
 20
114.0417167567665
 30
0.0
 10
171.7384592390877
 20
113.8869021081727
 30
0.0
 10
171.6525252251682
 20
113.8013161203021
 30
0.0
 10
171.5001129071282
 20
113.611632448225
 30
0.0
 10
171.4339294168407
 20
113.5072111871545
 30
0.0
 10
171.3277477182896
 20
113.2871798473472
 30
0.0
 10
171.2867676550738
 20
113.1705313612377
 30
0.0
 10
171.2306875142764
 20
112.9221299802484
 30
0.0
 10
171.2164633388352
 20
112.7930199914443
 30
0.0
 10
171.2158666549637
 20
112.5317649256121
 30
0.0
 10
171.2296352224621
 20
112.3969586349394
 30
0.0
 10
171.2844852894042
 20
112.130503520585
 30
0.0
 10
171.3249818026806
 20
111.9997695858864
 30
0.0
 10
171.4844442738568
 20
111.6153541318829
 30
0.0
 10
171.639112698171
 20
111.3761951000061
 30
0.0
 10
171.9274207295156
 20
111.0685357405622
 30
0.0
 10
172.0314455448634
 20
110.9758626237979
 30
0.0
 10
172.2558648030422
 20
110.8107197811583
 30
0.0
 10
172.3777955909027
 20
110.7376789124791
 30
0.0
 10
172.6302527423287
 20
110.6196569962068
 30
0.0
 10
172.7611392722459
 20
110.5740092905891
 30
0.0
 10
173.0330801899587
 20
110.5114888511218
 30
0.0
 10
173.1749619402912
 20
110.4949597711418
 30
0.0
 10
173.316160164271
 20
110.4949597711418
 30
0.0
  0
ELLIPSE
  5
11E
330
1F
100
AcDbEntity
  8
0
  6
HIDDEN
 62
     7
370
     0
100
AcDbEllipse
 10
173.3161601643
 20
122.9350842546
 30
0.0
 11
-1.760776919379055
 21
2.232245799914452
 31
0.0
210
0.0
220
0.0
230
1.0
 40
0.5126701559
 41
5.395150933160717
 42
8.323890913122789
  0
SPLINE
  5
11F
330
1F
100
AcDbEntity
  8
0
  6
HIDDEN
 62
     7
370
     0
100
AcDbSpline
210
0.0
220
0.0
230
1.0
 70
     8
 71
     3
 72
     8
 73
     4
 74
     0
 42
0.000000001
 43
0.00000001
 40
0.0
 40
0.0
 40
0.0
 40
0.0
 40
1.0
 40
1.0
 40
1.0
 40
1.0
 10
173.0930865237838
 20
125.0438362732705
 30
0.0
 10
172.9065621744992
 20
124.9215158573699
 30
0.0
 10
172.7040072759733
 20
124.7804306967051
 30
0.0
 10
172.4929799881118
 20
124.60394706092
 30
0.0
  0
ELLIPSE
  5
120
330
1F
100
AcDbEntity
  8
0
  6
HIDDEN
 62
     7
370
     0
100
AcDbEllipse
 10
173.3161601643
 20
122.9350842546
 30
0.0
 11
1.760776919379112
 21
1.388886188042946
 31
0.0
210
0.0
220
0.0
230
1.0
 40
0.8239737799
 41
1.397255033323476
 42
3.733259041931063
  0
SPLINE
  5
121
330
1F
100
AcDbEntity
  8
0
  6
HIDDEN
 62
     7
370
     0
100
AcDbSpline
210
0.0
220
0.0
230
1.0
 70
     8
 71
     3
 72
     8
 73
     4
 74
     0
 42
0.000000001
 43
0.00000001
 40
0.0
 40
0.0
 40
0.0
 40
0.0
 40
1.0
 40
1.0
 40
1.0
 40
1.0
 10
172.4929799881116
 20
120.9730961786935
 30
0.0
 10
172.7044073781125
 20
120.980605688476
 30
0.0
 10
172.906875924645
 20
121.0347292181105
 30
0.0
 10
173.0930865237821
 20
121.1194575053355
 30
0.0
  0
LWPOLYLINE
  5
122
330
1F
100
AcDbEntity
  8
0
  6
HIDDEN
 62
     7
370
     0
100
AcDbPolyline
 90
       19
 70
   128
 43
0.0
 10
173.3161602567
 20
122.6895109542
 10
174.0344027455
 20
122.8085190781
 10
174.6660145397
 20
123.1511880436
 10
175.1348134528
 20
123.6761885487
 10
175.3842570285
 20
124.3201962464
 10
175.3842570285
 20
125.0055351087
 10
175.1348134528
 20
125.6495428064
 10
174.6660145397
 20
126.1745433115
 10
174.0344027455
 20
126.517212277
 10
173.3161602567
 20
126.6362204009
 10
172.5979177679
 20
126.517212277
 10
171.9663059736
 20
126.1745433115
 10
171.4975070606
 20
125.6495428064
 10
171.2480634848
 20
125.0055351087
 10
171.2480634848
 20
124.3201962464
 10
171.4975070606
 20
123.6761885487
 10
171.9663059736
 20
123.1511880436
 10
172.5979177679
 20
122.8085190781
 10
173.3161602567
 20
122.6895109542
  0
LINE
  5
123
330
1F
100
AcDbEntity
  8
0
  6
HIDDEN
 62
     7
370
     0
100
AcDbLine
 10
168.3061598266
 20
146.5976184957
 30
0.0
 11
168.3061598266
 21
141.0545746588
 31
0.0
  0
LINE
  5
124
330
1F
100
AcDbEntity
  8
0
  6
HIDDEN
 62
     7
370
     0
100
AcDbLine
 10
172.126160043
 20
146.5976184957
 30
0.0
 11
172.126160043
 21
141.0545746588
 31
0.0
  0
SPLINE
  5
125
330
1F
100
AcDbEntity
  8
0
  6
HIDDEN
 62
     7
370
     0
100
AcDbSpline
210
0.0
220
0.0
230
1.0
 70
     8
 71
     3
 72
    16
 73
    12
 74
     0
 42
0.000000001
 43
0.00000001
 40
0.0
 40
0.0
 40
0.0
 40
0.0
 40
0.2500000000000051
 40
0.2500000000000051
 40
0.5000000000000102
 40
0.5000000000000102
 40
0.6250000000000115
 40
0.6250000000000115
 40
0.7500000000000129
 40
0.7500000000000129
 40
1.0
 40
1.0
 40
1.0
 40
1.0
 10
171.326160164271
 20
128.179863700149
 30
0.0
 10
171.4010131456409
 20
128.2712429533088
 30
0.0
 10
171.4821727753211
 20
128.359628564227
 30
0.0
 10
171.6553957038958
 20
128.5353087247923
 30
0.0
 10
171.7458990338611
 20
128.6206715417164
 30
0.0
 10
171.8722281057921
 20
128.7420931531248
 30
0.0
 10
171.9117251092007
 20
128.7805685648288
 30
0.0
 10
171.9838396795
 20
128.8546292397324
 30
0.0
 10
172.0167318574299
 20
128.8906240049937
 30
0.0
 10
172.0964045270634
 20
128.9893300922275
 30
0.0
 10
172.1261601642711
 20
129.0459625526526
 30
0.0
 10
172.126160164271
 20
129.0882631858233
 30
0.0
  0
SPLINE
  5
126
330
1F
100
AcDbEntity
  8
0
  6
HIDDEN
 62
     7
370
     0
100
AcDbSpline
210
0.0
220
0.0
230
1.0
 70
     8
 71
     3
 72
    14
 73
    10
 74
     0
 42
0.000000001
 43
0.00000001
 40
0.0
 40
0.0
 40
0.0
 40
0.0
 40
0.25
 40
0.25
 40
0.5
 40
0.5
 40
0.75
 40
0.75
 40
1.0
 40
1.0
 40
1.0
 40
1.0
 10
172.126160164271
 20
124.9562219871919
 30
0.0
 10
172.126160164271
 20
124.9143182956699
 30
0.0
 10
172.096689700625
 20
124.8864424981004
 30
0.0
 10
171.9898627310663
 20
124.8728709794162
 30
0.0
 10
171.9136093362103
 20
124.8875284330703
 30
0.0
 10
171.7459053347094
 20
124.9594136874845
 30
0.0
 10
171.655741759767
 20
125.0158045166251
 30
0.0
 10
171.4828179924706
 20
125.1579163818837
 30
0.0
 10
171.4009317369861
 20
125.24238177952
 30
0.0
 10
171.3261601642685
 20
125.3358998570915
 30
0.0
  0
LINE
  5
127
330
1F
100
AcDbEntity
  8
0
  6
HIDDEN
 62
     7
370
     0
100
AcDbLine
 10
172.126160043
 20
97.407312391
 30
0.0
 11
172.126160043
 21
93.2752716147
 31
0.0
  0
LINE
  5
128
330
1F
100
AcDbEntity
  8
0
  6
HIDDEN
 62
     7
370
     0
100
AcDbLine
 10
173.4493216897
 20
96.9074268617
 30
0.0
 11
173.4493216897
 21
92.2156332784
 31
0.0
  0
LINE
  5
129
330
1F
100
AcDbEntity
  8
0
  6
HIDDEN
 62
     7
370
     0
100
AcDbLine
 10
173.4493216897
 20
149.7156529479
 30
0.0
 11
173.4493216897
 21
141.0545746588
 31
0.0
  0
LINE
  5
12A
330
1F
100
AcDbEntity
  8
0
  6
HIDDEN
 62
     7
370
     0
100
AcDbLine
 10
166.9829991112
 20
149.7156529479
 30
0.0
 11
166.9829991112
 21
141.0545746588
 31
0.0
  0
ARC
  5
12B
330
1F
100
AcDbEntity
  8
0
  6
HIDDEN
 62
     7
370
     0
100
AcDbCircle
 10
173.5622129262
 20
123.7745618186
 30
0.0
 40
1.353195702694776
100
AcDbArc
 50
110.2844232439
 51
142.1998959299
  0
ARC
  5
12C
330
1F
100
AcDbEntity
  8
0
  6
HIDDEN
 62
     7
370
     0
100
AcDbCircle
 10
172.6195606957
 20
121.7575443734
 30
0.0
 40
0.7945949542257861
100
AcDbArc
 50
260.8336111241
 51
306.5791809456
  0
LWPOLYLINE
  5
12D
330
1F
100
AcDbEntity
  8
0
  6
HIDDEN
 62
     7
370
     0
100
AcDbPolyline
 90
       19
 70
   128
 43
0.0
 10
163.3509230266
 20
123.9175258928
 10
163.5382422643
 20
123.3962339141
 10
163.8421933564
 20
123.0738277339
 10
164.226115721
 20
122.9891956576
 10
164.643702137
 20
123.1525449806
 10
165.0445857483
 20
123.5441726425
 10
165.3804146151
 20
124.1168428936
 10
165.6106817933
 20
124.8014832639
 10
165.7076143126
 20
125.515517106
 10
165.6595208148
 20
126.1728194334
 10
165.4722015771
 20
126.6941114121
 10
165.1682500193
 20
127.016516661
 10
164.7843281204
 20
127.1011496686
 10
164.3667412388
 20
126.937801277
 10
163.9658576275
 20
126.5461726838
 10
163.6300292263
 20
125.9735024326
 10
163.3997615824
 20
125.2888620623
 10
163.3028290632
 20
124.5748282202
 10
163.3509230266
 20
123.9175258928
  0
LWPOLYLINE
  5
12E
330
1F
100
AcDbEntity
  8
0
  6
HIDDEN
 62
     7
370
     0
100
AcDbPolyline
 90
       23
 70
   128
 43
0.0
 10
162.5878911397
 20
123.4985098966
 10
162.7931991058
 20
122.8703030177
 10
163.1154665189
 20
122.4234972873
 10
163.5285849149
 20
122.1942904197
 10
163.99908582
 20
122.2012501933
 10
164.4888520638
 20
122.4438150205
 10
164.9582060451
 20
122.9023312011
 10
165.3691232602
 20
123.5396547966
 10
165.6883135835
 20
124.3041523524
 10
165.8899179126
 20
125.1338890546
 10
165.957604109
 20
125.9616439023
 10
165.8858880798
 20
126.7203588762
 10
165.6805798809
 20
127.3485648238
 10
165.3583124677
 20
127.7953705543
 10
164.9451940718
 20
128.0245783531
 10
164.4746931667
 20
128.0176176482
 10
163.9849269229
 20
127.775052821
 10
163.5155729415
 20
127.3165366404
 10
163.1046557265
 20
126.6792139762
 10
162.785465636
 20
125.9147164204
 10
162.5838610741
 20
125.0849797183
 10
162.5161751105
 20
124.2572239392
 10
162.5878911397
 20
123.4985098966
  0
LWPOLYLINE
  5
12F
330
1F
100
AcDbEntity
  8
0
  6
HIDDEN
 62
     7
370
     0
100
AcDbPolyline
 90
       21
 70
   128
 43
0.0
 10
173.3161602567
 20
122.3634279125
 10
174.0887025769
 20
122.4784080663
 10
174.7856233666
 20
122.8120916315
 10
175.3387023161
 20
123.3318161943
 10
175.6938007126
 20
123.9867073276
 10
175.8161597351
 20
124.7126593047
 10
175.6938007126
 20
125.4386122131
 10
175.3387023161
 20
126.0935033464
 10
174.7856233666
 20
126.6132279091
 10
174.0887025769
 20
126.9469114744
 10
173.3161602567
 20
127.0618906968
 10
172.5436179365
 20
126.9469114744
 10
171.8466971467
 20
126.6132279091
 10
171.2936172659
 20
126.0935033464
 10
170.9385188694
 20
125.4386122131
 10
170.8161598469
 20
124.7126593047
 10
170.9385188694
 20
123.9867073276
 10
171.2936172659
 20
123.3318161943
 10
171.8466971467
 20
122.8120916315
 10
172.5436179365
 20
122.4784080663
 10
173.3161602567
 20
122.3634279125
  0
SPLINE
  5
130
330
1F
100
AcDbEntity
  8
0
  6
HIDDEN
 62
     7
370
     0
100
AcDbSpline
210
0.0
220
0.0
230
1.0
 70
     8
 71
     3
 72
    34
 73
    30
 74
     0
 42
0.000000001
 43
0.00000001
 40
0.0
 40
0.0
 40
0.0
 40
0.0
 40
0.062499999999999
 40
0.062499999999999
 40
0.124999999999998
 40
0.124999999999998
 40
0.1874999999999971
 40
0.1874999999999971
 40
0.2499999999999966
 40
0.2499999999999966
 40
0.3124999999999962
 40
0.3124999999999962
 40
0.3749999999999957
 40
0.3749999999999957
 40
0.4999999999999958
 40
0.4999999999999958
 40
0.6249999999999958
 40
0.6249999999999958
 40
0.6874999999999964
 40
0.6874999999999964
 40
0.7499999999999971
 40
0.7499999999999971
 40
0.8124999999999979
 40
0.8124999999999979
 40
0.8749999999999986
 40
0.8749999999999986
 40
0.9374999999999992
 40
0.9374999999999992
 40
1.0
 40
1.0
 40
1.0
 40
1.0
 10
173.449321671733
 20
130.193514531216
 30
0.0
 10
173.6087134995208
 20
130.1856744352932
 30
0.0
 10
173.7647159829644
 20
130.1640157872028
 30
0.0
 10
174.0702254990416
 20
130.09416755971
 30
0.0
 10
174.2211198340538
 20
130.0453418573818
 30
0.0
 10
174.5090191787446
 20
129.9224179039745
 30
0.0
 10
174.6449655817044
 20
129.8491103958401
 30
0.0
 10
174.9011481972964
 20
129.6790997720688
 30
0.0
 10
175.0223304850555
 20
129.5812259798673
 30
0.0
 10
175.2394765569283
 20
129.3686418044354
 30
0.0
 10
175.3364384298886
 20
129.2535958659058
 30
0.0
 10
175.5070008657141
 20
129.0057347457856
 30
0.0
 10
175.5802409189261
 20
128.8727012487201
 30
0.0
 10
175.7551213756749
 20
128.4631932325899
 30
0.0
 10
175.8161593366509
 20
128.1652325828148
 30
0.0
 10
175.8161609918739
 20
127.5737910269404
 30
0.0
 10
175.7551263822877
 20
127.2736174769638
 30
0.0
 10
175.5802366148858
 20
126.858386196696
 30
0.0
 10
175.5069929094613
 20
126.7230310784492
 30
0.0
 10
175.3364321937247
 20
126.4701317470626
 30
0.0
 10
175.2394684781312
 20
126.3523664694548
 30
0.0
 10
175.022308149544
 20
126.1342361740862
 30
0.0
 10
174.9011268908572
 20
126.0335328489392
 30
0.0
 10
174.6449566639185
 20
125.858289156106
 30
0.0
 10
174.5090133142558
 20
125.7825441870154
 30
0.0
 10
174.2211106110726
 20
125.6553758117131
 30
0.0
 10
174.0702204151559
 20
125.6047745393856
 30
0.0
 10
173.7647149114503
 20
125.5323454396378
 30
0.0
 10
173.6087135131868
 20
125.5098596682408
 30
0.0
 10
173.449321671733
 20
125.501721208346
 30
0.0
  0
SPLINE
  5
131
330
1F
100
AcDbEntity
  8
0
  6
HIDDEN
 62
     7
370
     0
100
AcDbSpline
210
0.0
220
0.0
230
1.0
 70
     8
 71
     3
 72
    10
 73
     6
 74
     0
 42
0.000000001
 43
0.00000001
 40
0.0
 40
0.0
 40
0.0
 40
0.0
 40
0.5
 40
0.5
 40
1.0
 40
1.0
 40
1.0
 40
1.0
 10
173.449321671733
 20
125.501721208346
 30
0.0
 10
173.2265946448595
 20
125.3582327080522
 30
0.0
 10
173.0049087576344
 20
125.2435119623193
 30
0.0
 10
172.5636879197824
 20
125.0737515329615
 30
0.0
 10
172.3441292723836
 20
125.0183315385741
 30
0.0
 10
172.1261601642713
 20
125.0018362092044
 30
0.0
  0
SPLINE
  5
132
330
1F
100
AcDbEntity
  8
0
  6
HIDDEN
 62
     7
370
     0
100
AcDbSpline
210
0.0
220
0.0
230
1.0
 70
     8
 71
     3
 72
    10
 73
     6
 74
     0
 42
0.000000001
 43
0.00000001
 40
0.0
 40
0.0
 40
0.0
 40
0.0
 40
0.5
 40
0.5
 40
1.0
 40
1.0
 40
1.0
 40
1.0
 10
172.1261601642713
 20
129.1338774078359
 30
0.0
 10
172.3430509967921
 20
129.3709163472845
 30
0.0
 10
172.562203633451
 20
129.573086582278
 30
0.0
 10
173.0036881337199
 20
129.9238386537967
 30
0.0
 10
173.2268905989933
 20
130.0725147461935
 30
0.0
 10
173.449321671733
 20
130.193514531216
 30
0.0
  0
SPLINE
  5
133
330
1F
100
AcDbEntity
  8
0
  6
HIDDEN
 62
     7
370
     0
100
AcDbSpline
210
0.0
220
0.0
230
1.0
 70
     8
 71
     3
 72
    16
 73
    12
 74
     0
 42
0.000000001
 43
0.00000001
 40
0.0
 40
0.0
 40
0.0
 40
0.0
 40
0.2500000000000001
 40
0.2500000000000001
 40
0.5000000000000001
 40
0.5000000000000001
 40
0.7499999999999986
 40
0.7499999999999986
 40
0.8749999999999993
 40
0.8749999999999993
 40
1.0
 40
1.0
 40
1.0
 40
1.0
 10
171.326160164271
 20
125.3358998570953
 30
0.0
 10
171.1607460577909
 20
125.5427860931207
 30
0.0
 10
171.0345487268153
 20
125.7686547909294
 30
0.0
 10
170.8601424284844
 20
126.2575240365423
 30
0.0
 10
170.8163123893876
 20
126.5092910898869
 30
0.0
 10
170.8160087164176
 20
127.0210704144692
 30
0.0
 10
170.8598655764779
 20
127.2721251235519
 30
0.0
 10
170.9897873357451
 20
127.632973691694
 30
0.0
 10
171.0439021471531
 20
127.7502464600426
 30
0.0
 10
171.1705791372965
 20
127.9727354113814
 30
0.0
 10
171.2434528576573
 20
128.0788960196247
 30
0.0
 10
171.326160164271
 20
128.179863700149
 30
0.0
  0
CIRCLE
  5
134
330
1F
100
AcDbEntity
  8
0
  6
HIDDEN
 62
     7
370
     0
100
AcDbCircle
 10
233.9161601643
 20
111.2045741432
 30
0.0
 40
3.50827075990336
  0
CIRCLE
  5
135
330
1F
100
AcDbEntity
  8
0
  6
HIDDEN
 62
     7
370
     0
100
AcDbCircle
 10
233.9161601643
 20
111.2045741432
 30
0.0
 40
2.49956004487801
  0
LWPOLYLINE
  5
136
330
1F
100
AcDbEntity
  8
0
  6
HIDDEN
 62
     7
370
     0
100
AcDbPolyline
 90
        3
 70
   128
 43
0.0
 10
235.6747053961
 20
109.883366062
 10
235.1504229406
 20
109.3839548087
 10
234.4956882695
 20
109.0827328411
  0
LWPOLYLINE
  5
137
330
1F
100
AcDbEntity
  8
0
  6
HIDDEN
 62
     7
370
     0
100
AcDbPolyline
 90
        3
 70
   128
 43
0.0
 10
232.8547053436
 20
109.2780818256
 10
232.4542440871
 20
109.5611419554
 10
232.3795073132
 20
109.6307983647
  0
LWPOLYLINE
  5
138
330
1F
100
AcDbEntity
  8
0
  6
HIDDEN
 62
     7
370
     0
100
AcDbPolyline
 90
        3
 70
   128
 43
0.0
 10
231.7166217069
 20
111.1953520134
 10
231.7407392363
 20
111.5295680032
 10
231.7794077496
 20
111.7264487224
  0
LWPOLYLINE
  5
139
330
1F
100
AcDbEntity
  8
0
  6
HIDDEN
 62
     7
370
     0
100
AcDbPolyline
 90
        3
 70
   128
 43
0.0
 10
232.8220270971
 20
113.1127000811
 10
232.9983897904
 20
113.2035160229
 10
233.3474867443
 20
113.3293512069
  0
LWPOLYLINE
  5
13A
330
1F
100
AcDbEntity
  8
0
  6
HIDDEN
 62
     7
370
     0
100
AcDbPolyline
 90
        3
 70
   128
 43
0.0
 10
234.9802740316
 20
113.1296006755
 10
235.087636898
 20
113.0662153267
 10
235.3977524141
 20
112.83028594
  0
LWPOLYLINE
  5
13B
330
1F
100
AcDbEntity
  8
0
  6
HIDDEN
 62
     7
370
     0
100
AcDbPolyline
 90
        3
 70
   128
 43
0.0
 10
236.1155860523
 20
111.1803621974
 10
236.008416901
 20
110.525950757
 10
235.6747053961
 20
109.883366062
  0
LWPOLYLINE
  5
13C
330
1F
100
AcDbEntity
  8
0
  6
HIDDEN
 62
     7
370
     0
100
AcDbPolyline
 90
       21
 70
   128
 43
0.0
 10
167.2278484727
 20
121.8285796025
 10
166.8354631799
 20
121.9932523348
 10
166.5294948431
 20
122.3813465589
 10
166.3398929338
 20
122.9548726954
 10
166.285218245
 20
123.6576887571
 10
166.3708216908
 20
124.4209998079
 10
166.5883246275
 20
125.1700877004
 10
166.9164360898
 20
125.8316247516
 10
167.3230380217
 20
126.3408570342
 10
167.7683294217
 20
126.6479364388
 10
168.2087220649
 20
126.722803598
 10
168.6011078233
 20
126.5581308656
 10
168.9070770914
 20
126.1700366416
 10
169.0966785351
 20
125.5965114363
 10
169.1513536895
 20
124.8936944433
 10
169.0657493124
 20
124.1303833925
 10
168.8482463757
 20
123.3812955
 10
168.5201349134
 20
122.7197584488
 10
168.1135334472
 20
122.2105261662
 10
167.6682420472
 20
121.9034467616
 10
167.2278484727
 20
121.8285796025
  0
LWPOLYLINE
  5
13D
330
1F
100
AcDbEntity
  8
0
  6
HIDDEN
 62
     7
370
     0
100
AcDbPolyline
 90
       18
 70
   128
 43
0.0
 10
167.9893443758
 20
122.4155819767
 10
167.6717950428
 20
122.5680003666
 10
167.4434971462
 20
122.9311798491
 10
167.3352849136
 20
123.4560732522
 10
167.3617726589
 20
124.0717892327
 10
167.5193822409
 20
124.695172792
 10
167.786828282
 20
125.242031438
 10
168.1279903675
 20
125.6385112905
 10
168.4967931757
 20
125.8310622328
 10
168.8434267814
 20
125.7936817386
 10
169.1210782553
 20
125.5314175763
 10
169.2922469626
 20
125.079689806
 10
169.333817477
 20
124.4995065757
 10
169.2401748548
 20
123.8692247101
 10
169.0239655251
 20
123.2739680239
 10
168.714390176
 20
122.7941282817
 10
168.3532586719
 20
122.4945115649
 10
167.9893443758
 20
122.4155819767
  0
LWPOLYLINE
  5
13E
330
1F
100
AcDbEntity
  8
0
  6
HIDDEN
 62
     7
370
     0
100
AcDbPolyline
 90
       21
 70
   128
 43
0.0
 10
163.9569099458
 20
122.6119206079
 10
163.5645246531
 20
122.7765933403
 10
163.2585558506
 20
123.1646875643
 10
163.0689539413
 20
123.7382137009
 10
163.0142792525
 20
124.4410297626
 10
163.0998826983
 20
125.2043417447
 10
163.317385635
 20
125.9534287059
 10
163.6454970973
 20
126.6149657571
 10
164.0520990292
 20
127.1241980397
 10
164.4973904292
 20
127.4312774443
 10
164.937783538
 20
127.5061446034
 10
165.3301688308
 20
127.3414718711
 10
165.6361376333
 20
126.9533785783
 10
165.8257395426
 20
126.3798524418
 10
165.8804142314
 20
125.6770354488
 10
165.7948107856
 20
124.9137243979
 10
165.5773078489
 20
124.1646365055
 10
165.2491963866
 20
123.5030994543
 10
164.8425944547
 20
122.9938671716
 10
164.3973030547
 20
122.686787767
 10
163.9569099458
 20
122.6119206079
  0
LINE
  5
13F
330
1F
100
AcDbEntity
  8
0
  6
HIDDEN
 62
     7
370
     0
100
AcDbLine
 10
165.3430383118
 20
125.4961595663
 30
0.0
 11
166.1583474303
 21
126.1299255096
 31
0.0
  0
LINE
  5
140
330
1F
100
AcDbEntity
  8
0
  6
HIDDEN
 62
     7
370
     0
100
AcDbLine
 10
165.0598845842
 20
124.0833190062
 30
0.0
 11
165.3430383118
 21
125.4961595663
 31
0.0
  0
LINE
  5
141
330
1F
100
AcDbEntity
  8
0
  6
HIDDEN
 62
     7
370
     0
100
AcDbLine
 10
165.3430383118
 20
125.4961595663
 30
0.0
 11
163.7047343353
 21
125.8885090031
 31
0.0
  0
LINE
  5
142
330
1F
100
AcDbEntity
  8
0
  6
HIDDEN
 62
     7
370
     0
100
AcDbLine
 10
165.0598845842
 20
124.0833190062
 30
0.0
 11
163.4215806077
 21
124.4756684431
 31
0.0
  0
LINE
  5
143
330
1F
100
AcDbEntity
  8
0
  6
HIDDEN
 62
     7
370
     0
100
AcDbLine
 10
165.0598845842
 20
124.0833190062
 30
0.0
 11
165.592039975
 21
123.3042443895
 31
0.0
  0
LINE
  5
144
330
1F
100
AcDbEntity
  8
0
  6
HIDDEN
 62
     7
370
     0
100
AcDbLine
 10
163.4215806077
 20
124.4756684431
 30
0.0
 11
163.9537355329
 21
123.6965938263
 31
0.0
  0
LINE
  5
145
330
1F
100
AcDbEntity
  8
0
  6
HIDDEN
 62
     7
370
     0
100
AcDbLine
 10
163.4215806077
 20
124.4756684431
 30
0.0
 11
163.7047343353
 21
125.8885090031
 31
0.0
  0
LINE
  5
146
330
1F
100
AcDbEntity
  8
0
  6
HIDDEN
 62
     7
370
     0
100
AcDbLine
 10
163.7047343353
 20
125.8885090031
 30
0.0
 11
164.5200434538
 21
126.5222749465
 31
0.0
  0
LWPOLYLINE
  5
147
330
1F
100
AcDbEntity
  8
0
  6
HIDDEN
 62
     7
370
     0
100
AcDbPolyline
 90
       19
 70
   128
 43
0.0
 10
163.8337504516
 20
123.0979080104
 10
163.4792359943
 20
123.2600698971
 10
163.216105702
 20
123.6452928536
 10
163.0760971854
 20
124.2071122655
 10
163.0760971854
 20
124.877765102
 10
163.216105702
 20
125.5763613411
 10
163.4792359943
 20
126.2186386415
 10
163.8337504516
 20
126.7271295913
 10
164.2368892605
 20
127.0405019426
 10
164.6400285351
 20
127.1209607624
 10
164.9945429924
 20
126.9587988757
 10
165.2576732847
 20
126.5735759192
 10
165.3976818013
 20
126.0117555761
 10
165.3976818013
 20
125.3411027395
 10
165.2576732847
 20
124.6425074317
 10
164.9945429924
 20
124.0002301314
 10
164.6400285351
 20
123.4917391815
 10
164.2368892605
 20
123.178365899
 10
163.8337504516
 20
123.0979080104
  0
LINE
  5
148
330
1F
100
AcDbEntity
  8
0
  6
HIDDEN
 62
     7
370
     0
100
AcDbLine
 10
166.6905023555
 20
125.3508508929
 30
0.0
 11
165.052198379
 21
125.7432003298
 31
0.0
  0
LINE
  5
149
330
1F
100
AcDbEntity
  8
0
  6
HIDDEN
 62
     7
370
     0
100
AcDbLine
 10
165.052198379
 20
125.7432003298
 30
0.0
 11
164.5200434538
 21
126.5222749465
 31
0.0
  0
LINE
  5
14A
330
1F
100
AcDbEntity
  8
0
  6
HIDDEN
 62
     7
370
     0
100
AcDbLine
 10
166.6905023555
 20
125.3508508929
 30
0.0
 11
166.1583474303
 21
126.1299255096
 31
0.0
  0
LINE
  5
14B
330
1F
100
AcDbEntity
  8
0
  6
HIDDEN
 62
     7
370
     0
100
AcDbLine
 10
166.1583474303
 20
126.1299255096
 30
0.0
 11
164.5200434538
 21
126.5222749465
 31
0.0
  0
LINE
  5
14C
330
1F
100
AcDbEntity
  8
0
  6
HIDDEN
 62
     7
370
     0
100
AcDbLine
 10
166.4073486278
 20
123.9380103328
 30
0.0
 11
164.7690446513
 21
124.3303597697
 31
0.0
  0
LINE
  5
14D
330
1F
100
AcDbEntity
  8
0
  6
HIDDEN
 62
     7
370
     0
100
AcDbLine
 10
164.7690446513
 20
124.3303597697
 30
0.0
 11
163.9537355329
 21
123.6965938263
 31
0.0
  0
LINE
  5
14E
330
1F
100
AcDbEntity
  8
0
  6
HIDDEN
 62
     7
370
     0
100
AcDbLine
 10
165.592039975
 20
123.3042443895
 30
0.0
 11
163.9537355329
 21
123.6965938263
 31
0.0
  0
LINE
  5
14F
330
1F
100
AcDbEntity
  8
0
  6
HIDDEN
 62
     7
370
     0
100
AcDbLine
 10
166.4073486278
 20
123.9380103328
 30
0.0
 11
165.592039975
 21
123.3042443895
 31
0.0
  0
LINE
  5
150
330
1F
100
AcDbEntity
  8
0
  6
HIDDEN
 62
     7
370
     0
100
AcDbLine
 10
164.7690446513
 20
124.3303597697
 30
0.0
 11
165.052198379
 21
125.7432003298
 31
0.0
  0
LINE
  5
151
330
1F
100
AcDbEntity
  8
0
  6
HIDDEN
 62
     7
370
     0
100
AcDbLine
 10
166.4073486278
 20
123.9380103328
 30
0.0
 11
166.6905023555
 21
125.3508508929
 31
0.0
  0
LWPOLYLINE
  5
152
330
1F
100
AcDbEntity
  8
0
  6
HIDDEN
 62
     7
370
     0
100
AcDbPolyline
 90
       19
 70
   128
 43
0.0
 10
164.6400285351
 20
95.288187524
 10
164.9945429924
 20
95.4503494107
 10
165.2576732847
 20
95.8355723672
 10
165.3976818013
 20
96.3973927104
 10
165.3976818013
 20
97.0680455469
 10
165.2576732847
 20
97.7666408547
 10
164.9945429924
 20
98.4089181551
 10
164.6400285351
 20
98.9174091049
 10
164.2368892605
 20
99.2307823875
 10
163.8337504516
 20
99.311240276
 10
163.4792359943
 20
99.1490783893
 10
163.216105702
 20
98.7638554328
 10
163.0760971854
 20
98.202036021
 10
163.0760971854
 20
97.5313831844
 10
163.216105702
 20
96.8327869453
 10
163.4792359943
 20
96.190509645
 10
163.8337504516
 20
95.6820186951
 10
164.2368892605
 20
95.3686463439
 10
164.6400285351
 20
95.288187524
  0
LWPOLYLINE
  5
153
330
1F
100
AcDbEntity
  8
0
  6
HIDDEN
 62
     7
370
     0
100
AcDbPolyline
 90
       21
 70
   128
 43
0.0
 10
164.937783538
 20
94.903003683
 10
165.3301688308
 20
95.0676764154
 10
165.6361376333
 20
95.4557697081
 10
165.8257395426
 20
96.0292958447
 10
165.8804142314
 20
96.7321128377
 10
165.7948107856
 20
97.4954238885
 10
165.5773078489
 20
98.244511781
 10
165.2491963866
 20
98.9060488322
 10
164.8425944547
 20
99.4152811148
 10
164.3973030547
 20
99.7223605194
 10
163.9569099458
 20
99.7972276785
 10
163.5645246531
 20
99.6325549462
 10
163.2585558506
 20
99.2444607221
 10
163.0689539413
 20
98.6709345856
 10
163.0142792525
 20
97.9681185239
 10
163.0998826983
 20
97.2048065417
 10
163.317385635
 20
96.4557195806
 10
163.6454970973
 20
95.7941825294
 10
164.0520990292
 20
95.2849502467
 10
164.4973904292
 20
94.9778708421
 10
164.937783538
 20
94.903003683
  0
LWPOLYLINE
  5
154
330
1F
100
AcDbEntity
  8
0
  6
HIDDEN
 62
     7
370
     0
100
AcDbPolyline
 90
       21
 70
   128
 43
0.0
 10
168.2087220649
 20
95.6863446885
 10
168.6011078233
 20
95.8510174208
 10
168.9070770914
 20
96.2391116448
 10
169.0966785351
 20
96.8126368501
 10
169.1513536895
 20
97.5154538431
 10
169.0657493124
 20
98.2787648939
 10
168.8482463757
 20
99.0278527864
 10
168.5201349134
 20
99.6893898376
 10
168.1135334472
 20
100.1986221202
 10
167.6682420472
 20
100.5057015248
 10
167.2278484727
 20
100.580568684
 10
166.8354631799
 20
100.4158959516
 10
166.5294948431
 20
100.0278017276
 10
166.3398929338
 20
99.454275591
 10
166.285218245
 20
98.7514595293
 10
166.3708216908
 20
97.9881484785
 10
166.5883246275
 20
97.239060586
 10
166.9164360898
 20
96.5775235348
 10
167.3230380217
 20
96.0682912522
 10
167.7683294217
 20
95.7612118476
 10
168.2087220649
 20
95.6863446885
  0
LINE
  5
155
330
1F
100
AcDbEntity
  8
0
  6
HIDDEN
 62
     7
370
     0
100
AcDbLine
 10
164.7690446513
 20
98.0787885167
 30
0.0
 11
163.9537355329
 21
98.7125544601
 31
0.0
  0
LINE
  5
156
330
1F
100
AcDbEntity
  8
0
  6
HIDDEN
 62
     7
370
     0
100
AcDbLine
 10
163.4215806077
 20
97.9334798434
 30
0.0
 11
163.9537355329
 21
98.7125544601
 31
0.0
  0
LINE
  5
157
330
1F
100
AcDbEntity
  8
0
  6
HIDDEN
 62
     7
370
     0
100
AcDbLine
 10
163.7047343353
 20
96.5206392833
 30
0.0
 11
163.4215806077
 21
97.9334798434
 31
0.0
  0
LINE
  5
158
330
1F
100
AcDbEntity
  8
0
  6
HIDDEN
 62
     7
370
     0
100
AcDbLine
 10
163.7047343353
 20
96.5206392833
 30
0.0
 11
164.5200434538
 21
95.8868733399
 31
0.0
  0
LINE
  5
159
330
1F
100
AcDbEntity
  8
0
  6
HIDDEN
 62
     7
370
     0
100
AcDbLine
 10
165.052198379
 20
96.6659479567
 30
0.0
 11
164.5200434538
 21
95.8868733399
 31
0.0
  0
LINE
  5
15A
330
1F
100
AcDbEntity
  8
0
  6
HIDDEN
 62
     7
370
     0
100
AcDbLine
 10
165.052198379
 20
96.6659479567
 30
0.0
 11
164.7690446513
 21
98.0787885167
 31
0.0
  0
LINE
  5
15B
330
1F
100
AcDbEntity
  8
0
  6
HIDDEN
 62
     7
370
     0
100
AcDbLine
 10
166.4073486278
 20
98.4711379536
 30
0.0
 11
164.7690446513
 21
98.0787885167
 31
0.0
  0
LINE
  5
15C
330
1F
100
AcDbEntity
  8
0
  6
HIDDEN
 62
     7
370
     0
100
AcDbLine
 10
166.6905023555
 20
97.0582973935
 30
0.0
 11
165.052198379
 21
96.6659479567
 31
0.0
  0
LINE
  5
15D
330
1F
100
AcDbEntity
  8
0
  6
HIDDEN
 62
     7
370
     0
100
AcDbLine
 10
165.0598845842
 20
98.3258292802
 30
0.0
 11
165.592039975
 21
99.104903897
 31
0.0
  0
LINE
  5
15E
330
1F
100
AcDbEntity
  8
0
  6
HIDDEN
 62
     7
370
     0
100
AcDbLine
 10
165.0598845842
 20
98.3258292802
 30
0.0
 11
163.4215806077
 21
97.9334798434
 31
0.0
  0
LINE
  5
15F
330
1F
100
AcDbEntity
  8
0
  6
HIDDEN
 62
     7
370
     0
100
AcDbLine
 10
165.592039975
 20
99.104903897
 30
0.0
 11
163.9537355329
 21
98.7125544601
 31
0.0
  0
LINE
  5
160
330
1F
100
AcDbEntity
  8
0
  6
HIDDEN
 62
     7
370
     0
100
AcDbLine
 10
165.3430383118
 20
96.9129887202
 30
0.0
 11
166.1583474303
 21
96.2792227768
 31
0.0
  0
LINE
  5
161
330
1F
100
AcDbEntity
  8
0
  6
HIDDEN
 62
     7
370
     0
100
AcDbLine
 10
165.3430383118
 20
96.9129887202
 30
0.0
 11
165.0598845842
 21
98.3258292802
 31
0.0
  0
LINE
  5
162
330
1F
100
AcDbEntity
  8
0
  6
HIDDEN
 62
     7
370
     0
100
AcDbLine
 10
166.6905023555
 20
97.0582973935
 30
0.0
 11
166.1583474303
 21
96.2792227768
 31
0.0
  0
LINE
  5
163
330
1F
100
AcDbEntity
  8
0
  6
HIDDEN
 62
     7
370
     0
100
AcDbLine
 10
166.6905023555
 20
97.0582973935
 30
0.0
 11
166.4073486278
 21
98.4711379536
 31
0.0
  0
LINE
  5
164
330
1F
100
AcDbEntity
  8
0
  6
HIDDEN
 62
     7
370
     0
100
AcDbLine
 10
166.4073486278
 20
98.4711379536
 30
0.0
 11
165.592039975
 21
99.104903897
 31
0.0
  0
LINE
  5
165
330
1F
100
AcDbEntity
  8
0
  6
HIDDEN
 62
     7
370
     0
100
AcDbLine
 10
165.3430383118
 20
96.9129887202
 30
0.0
 11
163.7047343353
 21
96.5206392833
 31
0.0
  0
LINE
  5
166
330
1F
100
AcDbEntity
  8
0
  6
HIDDEN
 62
     7
370
     0
100
AcDbLine
 10
166.1583474303
 20
96.2792227768
 30
0.0
 11
164.5200434538
 21
95.8868733399
 31
0.0
  0
LWPOLYLINE
  5
167
330
1F
100
AcDbEntity
  8
0
  6
HIDDEN
 62
     7
370
     0
100
AcDbPolyline
 90
       18
 70
   128
 43
0.0
 10
168.6759554247
 20
96.567609606
 10
168.9935047577
 20
96.7200270646
 10
169.221801723
 20
97.0832065471
 10
169.3300139556
 20
97.6080999502
 10
169.3035271416
 20
98.2238159307
 10
169.1459175597
 20
98.84719949
 10
168.8784715186
 20
99.3940590673
 10
168.537309433
 20
99.7905379885
 10
168.1685066248
 20
99.9830898621
 10
167.8218720878
 20
99.9457093679
 10
167.5442215453
 20
99.6834442743
 10
167.3730519066
 20
99.231716504
 10
167.3314823235
 20
98.6515332737
 10
167.4251249457
 20
98.0212514081
 10
167.6413342754
 20
97.4259947219
 10
167.9509096245
 20
96.946155911
 10
168.3120411287
 20
96.6465391942
 10
168.6759554247
 20
96.567609606
  0
ARC
  5
168
330
1F
100
AcDbEntity
  8
0
  6
HIDDEN
 62
     7
370
     0
100
AcDbCircle
 10
173.2978961359
 20
95.8855093628
 30
0.0
 40
2.483036898379371
100
AcDbArc
 50
345.4774652789
 51
178.1454504359
  0
ARC
  5
169
330
1F
100
AcDbEntity
  8
0
  6
HIDDEN
 62
     7
370
     0
100
AcDbCircle
 10
173.294169958
 20
95.8176920163
 30
0.0
 40
2.357774451080217
100
AcDbArc
 50
351.0562447065
 51
156.5268138358
  0
ARC
  5
16A
330
1F
100
AcDbEntity
  8
0
  6
HIDDEN
 62
     7
370
     0
100
AcDbCircle
 10
173.3203322392
 20
95.8264839189
 30
0.0
 40
1.997924693203242
100
AcDbArc
 50
2.6249300818
 51
126.5306359791
  0
LWPOLYLINE
  5
16B
330
1F
100
AcDbEntity
  8
0
  6
HIDDEN
 62
     7
370
     0
100
AcDbPolyline
 90
       21
 70
   128
 43
0.0
 10
174.2932806189
 20
93.9916151368
 10
173.5343663419
 20
93.8137120359
 10
172.7540921817
 20
93.8648900741
 10
172.0288377653
 20
94.1401387357
 10
171.4295950184
 20
94.6125167214
 10
171.0150223623
 20
95.2357838654
 10
170.8257012467
 20
95.9489310884
 10
170.8801631282
 20
96.6821483129
 10
171.1730780477
 20
97.3636650272
 10
171.6757724459
 20
97.9267696642
 10
172.3390398944
 20
98.3163400345
 10
173.0979541714
 20
98.4942440667
 10
173.8782283316
 20
98.4430660286
 10
174.6034827481
 20
98.1678164356
 10
175.2027254949
 20
97.6954375186
 10
175.6172981511
 20
97.0721703746
 10
175.8066192667
 20
96.3590240829
 10
175.7521573851
 20
95.6258068585
 10
175.4592415343
 20
94.9442910754
 10
174.9565471361
 20
94.3811855071
 10
174.2932806189
 20
93.9916151368
  0
LWPOLYLINE
  5
16C
330
1F
100
AcDbEntity
  8
0
  6
HIDDEN
 62
     7
370
     0
100
AcDbPolyline
 90
       19
 70
   128
 43
0.0
 10
174.0978565464
 20
95.6058700361
 10
173.4210858519
 20
95.4589622819
 10
172.7316603462
 20
95.5384245866
 10
172.1127331654
 20
95.8346717783
 10
171.6389572645
 20
96.3119727352
 10
171.3674776653
 20
96.9127568208
 10
171.3310368756
 20
97.5645615511
 10
171.5340316693
 20
98.1887693309
 10
171.9519775758
 20
98.7100920432
 10
172.5344639669
 20
99.0656495818
 10
173.2112337301
 20
99.2125564047
 10
173.9006601671
 20
99.1330950313
 10
174.5195873479
 20
98.8368478396
 10
174.9933623175
 20
98.3595468827
 10
175.264842848
 20
97.758762797
 10
175.3012836377
 20
97.1069580667
 10
175.098288844
 20
96.4827493557
 10
174.6803429375
 20
95.9614275747
 10
174.0978565464
 20
95.6058700361
  0
LWPOLYLINE
  5
16D
330
1F
100
AcDbEntity
  8
0
  6
HIDDEN
 62
     7
370
     0
100
AcDbPolyline
 90
       21
 70
   128
 43
0.0
 10
174.2932806189
 20
94.2276085519
 10
173.5343663419
 20
94.0497054511
 10
172.7540921817
 20
94.1008834892
 10
172.0288377653
 20
94.3761340135
 10
171.4295950184
 20
94.8485119992
 10
171.0150223623
 20
95.4717791431
 10
170.8257012467
 20
96.1849245035
 10
170.8801631282
 20
96.9181426593
 10
171.1730780477
 20
97.5996593737
 10
171.6757724459
 20
98.1627630793
 10
172.3390398944
 20
98.5523334496
 10
173.0979541714
 20
98.7302374818
 10
173.8782283316
 20
98.6790594437
 10
174.6034827481
 20
98.4038098507
 10
175.2027254949
 20
97.931431865
 10
175.6172981511
 20
97.3081647211
 10
175.8066192667
 20
96.5950184294
 10
175.7521573851
 20
95.8618002736
 10
175.4592415343
 20
95.1802844905
 10
174.9565471361
 20
94.6171807849
 10
174.2932806189
 20
94.2276085519
  0
LWPOLYLINE
  5
16E
330
1F
100
AcDbEntity
  8
0
  6
HIDDEN
 62
     7
370
     0
100
AcDbPolyline
 90
       20
 70
   128
 43
0.0
 10
174.2151109899
 20
94.339125117
 10
173.4789992149
 20
94.172628855
 10
172.725241671
 20
94.2397548609
 10
172.0355190734
 20
94.5332276427
 10
171.484573784
 20
95.0212462597
 10
171.1321091677
 20
95.6509264909
 10
171.0163206259
 20
96.3540312626
 10
171.1497549365
 20
97.0543700062
 10
171.5179533164
 20
97.6760483139
 10
172.0810151125
 20
98.1516989671
 10
172.7779237951
 20
98.4297779181
 10
173.5331593479
 20
98.4801494309
 10
174.2648790056
 20
98.2973568865
 10
174.8937908957
 20
97.9012076535
 10
175.3517408321
 20
97.334631046
 10
175.5891051541
 20
96.6590245046
 10
175.5801607321
 20
95.9475992971
 10
175.3258761416
 20
95.2774512374
 10
174.853807355
 20
94.7212002032
 10
174.2151109899
 20
94.339125117
  0
LWPOLYLINE
  5
16F
330
1F
100
AcDbEntity
  8
0
  6
HIDDEN
 62
     7
370
     0
100
AcDbPolyline
 90
       21
 70
   128
 43
0.0
 10
174.2932806189
 20
94.4636038297
 10
173.5343663419
 20
94.2856988662
 10
172.7540921817
 20
94.3368769043
 10
172.0288377653
 20
94.6121274286
 10
171.4295950184
 20
95.0845054143
 10
171.0150223623
 20
95.7077725583
 10
170.8257012467
 20
96.4209188499
 10
170.8801631282
 20
97.1541360744
 10
171.1730780477
 20
97.8356527888
 10
171.6757724459
 20
98.3987574258
 10
172.3390398944
 20
98.7883277961
 10
173.0979541714
 20
98.9662318283
 10
173.8782283316
 20
98.9150537901
 10
174.6034827481
 20
98.6398041972
 10
175.2027254949
 20
98.1674252801
 10
175.6172981511
 20
97.5441581362
 10
175.8066192667
 20
96.8310118445
 10
175.7521573851
 20
96.09779462
 10
175.4592415343
 20
95.4162779056
 10
174.9565471361
 20
94.8531742
 10
174.2932806189
 20
94.4636038297
  0
LWPOLYLINE
  5
170
330
1F
100
AcDbEntity
  8
0
  6
HIDDEN
 62
     7
370
     0
100
AcDbPolyline
 90
       20
 70
   128
 43
0.0
 10
174.2151109899
 20
94.5751185321
 10
173.4789992149
 20
94.4086222702
 10
172.725241671
 20
94.475748276
 10
172.0355190734
 20
94.7692210578
 10
171.484573784
 20
95.2572396749
 10
171.1321091677
 20
95.8869199061
 10
171.0163206259
 20
96.5900256091
 10
171.1497549365
 20
97.2903634214
 10
171.5179533164
 20
97.9120426603
 10
172.0810151125
 20
98.3876933136
 10
172.7779237951
 20
98.6657713332
 10
173.5331593479
 20
98.7161437773
 10
174.2648790056
 20
98.5333512329
 10
174.8937908957
 20
98.1372019999
 10
175.3517408321
 20
97.5706253924
 10
175.5891051541
 20
96.8950179198
 10
175.5801607321
 20
96.1835936435
 10
175.3258761416
 20
95.5134446525
 10
174.853807355
 20
94.9571936183
 10
174.2151109899
 20
94.5751185321
  0
LWPOLYLINE
  5
171
330
1F
100
AcDbEntity
  8
0
  6
HIDDEN
 62
     7
370
     0
100
AcDbPolyline
 90
       21
 70
   128
 43
0.0
 10
174.2932806189
 20
94.6995972448
 10
173.5343663419
 20
94.5216941439
 10
172.7540921817
 20
94.5728721821
 10
172.0288377653
 20
94.8481208437
 10
171.4295950184
 20
95.3204988294
 10
171.0150223623
 20
95.9437669047
 10
170.8257012467
 20
96.656912265
 10
170.8801631282
 20
97.3901304208
 10
171.1730780477
 20
98.0716471352
 10
171.6757724459
 20
98.6347508409
 10
172.3390398944
 20
99.0243221425
 10
173.0979541714
 20
99.2022252434
 10
173.8782283316
 20
99.1510472053
 10
174.6034827481
 20
98.8757976123
 10
175.2027254949
 20
98.4034196266
 10
175.6172981511
 20
97.7801524826
 10
175.8066192667
 20
97.0670061909
 10
175.7521573851
 20
96.3337889665
 10
175.4592415343
 20
95.6522722521
 10
174.9565471361
 20
95.0891676151
 10
174.2932806189
 20
94.6995972448
  0
LWPOLYLINE
  5
172
330
1F
100
AcDbEntity
  8
0
  6
HIDDEN
 62
     7
370
     0
100
AcDbPolyline
 90
       20
 70
   128
 43
0.0
 10
174.2151109899
 20
94.8111119472
 10
173.4789992149
 20
94.6446156853
 10
172.725241671
 20
94.7117416912
 10
172.0355190734
 20
95.0052163356
 10
171.484573784
 20
95.4932349526
 10
171.1321091677
 20
96.1229142525
 10
171.0163206259
 20
96.8260190242
 10
171.1497549365
 20
97.5263577678
 10
171.5179533164
 20
98.1480360755
 10
172.0810151125
 20
98.6236867287
 10
172.7779237951
 20
98.9017656796
 10
173.5331593479
 20
98.9521371924
 10
174.2648790056
 20
98.769344648
 10
174.8937908957
 20
98.3731954151
 10
175.3517408321
 20
97.8066188075
 10
175.5891051541
 20
97.1310122662
 10
175.5801607321
 20
96.4195870586
 10
175.3258761416
 20
95.7494389989
 10
174.853807355
 20
95.1931870335
 10
174.2151109899
 20
94.8111119472
  0
LWPOLYLINE
  5
173
330
1F
100
AcDbEntity
  8
0
  6
HIDDEN
 62
     7
370
     0
100
AcDbPolyline
 90
       21
 70
   128
 43
0.0
 10
174.2932806189
 20
94.9355906599
 10
173.5343663419
 20
94.7576875591
 10
172.7540921817
 20
94.8088655972
 10
172.0288377653
 20
95.0841142588
 10
171.4295950184
 20
95.5564941072
 10
171.0150223623
 20
96.1797603198
 10
170.8257012467
 20
96.8929066115
 10
170.8801631282
 20
97.626123836
 10
171.1730780477
 20
98.3076405504
 10
171.6757724459
 20
98.8707451873
 10
172.3390398944
 20
99.2603155576
 10
173.0979541714
 20
99.4382195898
 10
173.8782283316
 20
99.3870415517
 10
174.6034827481
 20
99.1117919587
 10
175.2027254949
 20
98.6394130417
 10
175.6172981511
 20
98.0161458977
 10
175.8066192667
 20
97.3029996061
 10
175.7521573851
 20
96.5697823816
 10
175.4592415343
 20
95.8882656672
 10
174.9565471361
 20
95.3251610302
 10
174.2932806189
 20
94.9355906599
  0
LWPOLYLINE
  5
174
330
1F
100
AcDbEntity
  8
0
  6
HIDDEN
 62
     7
370
     0
100
AcDbPolyline
 90
       20
 70
   128
 43
0.0
 10
174.2151109899
 20
95.0471053623
 10
173.4789992149
 20
94.8806091004
 10
172.725241671
 20
94.9477351063
 10
172.0355190734
 20
95.2412097507
 10
171.484573784
 20
95.7292283677
 10
171.1321091677
 20
96.3589085989
 10
171.0163206259
 20
97.0620133706
 10
171.1497549365
 20
97.7623511829
 10
171.5179533164
 20
98.3840304219
 10
172.0810151125
 20
98.8596810751
 10
172.7779237951
 20
99.1377590948
 10
173.5331593479
 20
99.1881315389
 10
174.2648790056
 20
99.0053389945
 10
174.8937908957
 20
98.6091897615
 10
175.3517408321
 20
98.042613154
 10
175.5891051541
 20
97.3670056813
 10
175.5801607321
 20
96.6555814051
 10
175.3258761416
 20
95.985432414
 10
174.853807355
 20
95.4291823112
 10
174.2151109899
 20
95.0471053623
  0
LWPOLYLINE
  5
175
330
1F
100
AcDbEntity
  8
0
  6
HIDDEN
 62
     7
370
     0
100
AcDbPolyline
 90
       21
 70
   128
 43
0.0
 10
174.2932806189
 20
95.5341256016
 10
173.5343663419
 20
95.3562225007
 10
172.7540921817
 20
95.4074005388
 10
172.0288377653
 20
95.6826501318
 10
171.4295950184
 20
96.1550281175
 10
171.0150223623
 20
96.7782952615
 10
170.8257012467
 20
97.4914415532
 10
170.8801631282
 20
98.224659709
 10
171.1730780477
 20
98.9061764234
 10
171.6757724459
 20
99.469280129
 10
172.3390398944
 20
99.8588504993
 10
173.0979541714
 20
100.0367545315
 10
173.8782283316
 20
99.9855764934
 10
174.6034827481
 20
99.7103269004
 10
175.2027254949
 20
99.2379489147
 10
175.6172981511
 20
98.6146817707
 10
175.8066192667
 20
97.9015354791
 10
175.7521573851
 20
97.1683173233
 10
175.4592415343
 20
96.4868006089
 10
174.9565471361
 20
95.9236969032
 10
174.2932806189
 20
95.5341256016
  0
LWPOLYLINE
  5
176
330
1F
100
AcDbEntity
  8
0
  6
HIDDEN
 62
     7
370
     0
100
AcDbPolyline
 90
       19
 70
   128
 43
0.0
 10
174.090189899
 20
96.086170783
 10
173.4200567404
 20
95.9407047161
 10
172.7373926366
 20
96.0193875038
 10
172.1245358164
 20
96.3127289691
 10
171.6554072152
 20
96.7853481673
 10
171.3865893359
 20
97.3802407064
 10
171.3505061741
 20
98.0256528386
 10
171.5515098001
 20
98.6437390351
 10
171.9653569559
 20
99.1599478551
 10
172.5421306143
 20
99.5120185219
 10
173.2122628416
 20
99.6574845888
 10
173.8949278767
 20
99.5788018011
 10
174.5077846969
 20
99.2854603358
 10
174.9769132982
 20
98.8128411376
 10
175.2457302461
 20
98.2179485985
 10
175.2818134079
 20
97.5725364663
 10
175.0808097819
 20
96.9544502699
 10
174.6669635574
 20
96.4382414498
 10
174.090189899
 20
96.086170783
  0
LWPOLYLINE
  5
177
330
1F
100
AcDbEntity
  8
0
  6
HIDDEN
 62
     7
370
     0
100
AcDbPolyline
 90
       19
 70
   128
 43
0.0
 10
175.2658449511
 20
124.936457982
 10
175.0294622431
 20
125.543389728
 10
174.586431163
 20
126.0377478578
 10
173.9901863436
 20
126.3599044435
 10
173.3126445139
 20
126.4710037761
 10
172.6355255047
 20
126.357645055
 10
172.0405016492
 20
126.0335000955
 10
171.5993415962
 20
125.5376676821
 10
171.3652545984
 20
124.9299508312
 10
171.3664755622
 20
124.283649286
 10
171.6028573389
 20
123.67671754
 10
172.0458884189
 20
123.1823594102
 10
172.6421341697
 20
122.8602028244
 10
173.3196759994
 20
122.7491034918
 10
173.9967950086
 20
122.8624631443
 10
174.5918188641
 20
123.1866071724
 10
175.0329789172
 20
123.6824405172
 10
175.2670668463
 20
124.2901573681
 10
175.2658449511
 20
124.936457982
  0
LWPOLYLINE
  5
178
330
1F
100
AcDbEntity
  8
0
  6
HIDDEN
 62
     7
370
     0
100
AcDbPolyline
 90
       21
 70
   128
 43
0.0
 10
175.7774055401
 20
125.124706214
 10
175.5214427064
 20
125.8192381614
 10
175.0496104757
 20
126.4054498427
 10
174.4080968598
 20
126.8259606116
 10
173.6596972148
 20
127.0396060102
 10
172.8776693741
 20
127.0254741215
 10
172.1385643283
 20
126.7849470281
 10
171.5147300089
 20
126.3415704273
 10
171.0672332371
 20
125.7387448826
 10
170.8398759762
 20
125.0354789921
 10
170.8549149732
 20
124.3006133267
 10
171.1108787383
 20
123.6060813793
 10
171.5827100376
 20
123.0198687666
 10
172.2242236535
 20
122.599358929
 10
172.9726232986
 20
122.3857135304
 10
173.7546511392
 20
122.3998463505
 10
174.493756185
 20
122.6403725126
 10
175.1175895731
 20
123.0837491133
 10
175.5650882075
 20
123.6865746581
 10
175.7924445371
 20
124.3898405486
 10
175.7774055401
 20
125.124706214
  0
LWPOLYLINE
  5
179
330
1F
100
AcDbEntity
  8
0
  6
HIDDEN
 62
     7
370
     0
100
AcDbPolyline
 90
       21
 70
   128
 43
0.0
 10
175.7774055401
 20
125.723242087
 10
175.5214427064
 20
126.417773103
 10
175.0496104757
 20
127.0039847844
 10
174.4080968598
 20
127.4244955533
 10
173.6596972148
 20
127.6381409519
 10
172.8776693741
 20
127.6240090632
 10
172.1385643283
 20
127.3834819698
 10
171.5147300089
 20
126.940105369
 10
171.0672332371
 20
126.3372798242
 10
170.8398759762
 20
125.6340139338
 10
170.8549149732
 20
124.8991482683
 10
171.1108787383
 20
124.204616321
 10
171.5827100376
 20
123.6184046396
 10
172.2242236535
 20
123.197894802
 10
172.9726232986
 20
122.9842494034
 10
173.7546511392
 20
122.9983812921
 10
174.493756185
 20
123.2389083856
 10
175.1175895731
 20
123.682284055
 10
175.5650882075
 20
124.2851105311
 10
175.7924445371
 20
124.9883764216
 10
175.7774055401
 20
125.723242087
  0
LWPOLYLINE
  5
17A
330
1F
100
AcDbEntity
  8
0
  6
HIDDEN
 62
     7
370
     0
100
AcDbPolyline
 90
       19
 70
   128
 43
0.0
 10
175.285156856
 20
126.8208020159
 10
175.0464328031
 20
127.4337454491
 10
174.599013331
 20
127.9329995417
 10
173.9968629951
 20
128.2583477699
 10
173.3126091237
 20
128.3705460631
 10
172.6287845919
 20
128.2560641669
 10
172.0278663958
 20
127.9287098699
 10
171.5823365773
 20
127.4279656612
 10
171.3459315176
 20
126.8142296725
 10
171.3471645887
 20
126.1615271472
 10
171.5858877102
 20
125.548583714
 10
172.0333071823
 20
125.0493296214
 10
172.6354575182
 20
124.7239813932
 10
173.3197113896
 20
124.6117821687
 10
174.0035359214
 20
124.7262640648
 10
174.6044531862
 20
125.0536192932
 10
175.0499830047
 20
125.5543635019
 10
175.2863899271
 20
126.1680994906
 10
175.285156856
 20
126.8208020159
  0
LWPOLYLINE
  5
17B
330
1F
100
AcDbEntity
  8
0
  6
HIDDEN
 62
     7
370
     0
100
AcDbPolyline
 90
       19
 70
   128
 43
0.0
 10
175.285156856
 20
125.4030263775
 10
175.0464328031
 20
126.0159698107
 10
174.599013331
 20
126.5152239033
 10
173.9968629951
 20
126.8405712002
 10
173.3126091237
 20
126.952771356
 10
172.6287845919
 20
126.8382894599
 10
172.0278663958
 20
126.5109342315
 10
171.5823365773
 20
126.0101900228
 10
171.3459315176
 20
125.3964540341
 10
171.3471645887
 20
124.7437515088
 10
171.5858877102
 20
124.1308080756
 10
172.0333071823
 20
123.6315530517
 10
172.6354575182
 20
123.3062057548
 10
173.3197113896
 20
123.1940065303
 10
174.0035359214
 20
123.3084884264
 10
174.6044531862
 20
123.6358427235
 10
175.0499830047
 20
124.1365869322
 10
175.2863899271
 20
124.7503229209
 10
175.285156856
 20
125.4030263775
  0
LWPOLYLINE
  5
17C
330
1F
100
AcDbEntity
  8
0
  6
HIDDEN
 62
     7
370
     0
100
AcDbPolyline
 90
       21
 70
   128
 43
0.0
 10
175.7774055401
 20
125.9592355021
 10
175.5214427064
 20
126.6537674495
 10
175.0496104757
 20
127.2399800622
 10
174.4080968598
 20
127.6604889684
 10
173.6596972148
 20
127.874134367
 10
172.8776693741
 20
127.8600024783
 10
172.1385643283
 20
127.6194753849
 10
171.5147300089
 20
127.1760987841
 10
171.0672332371
 20
126.5732741707
 10
170.8398759762
 20
125.8700073489
 10
170.8549149732
 20
125.1351416834
 10
171.1108787383
 20
124.4406106674
 10
171.5827100376
 20
123.8543980547
 10
172.2242236535
 20
123.4338882171
 10
172.9726232986
 20
123.2202428185
 10
173.7546511392
 20
123.2343756386
 10
174.493756185
 20
123.4749018007
 10
175.1175895731
 20
123.9182784014
 10
175.5650882075
 20
124.5211039462
 10
175.7924445371
 20
125.2243698367
 10
175.7774055401
 20
125.9592355021
  0
LWPOLYLINE
  5
17D
330
1F
100
AcDbEntity
  8
0
  6
HIDDEN
 62
     7
370
     0
100
AcDbPolyline
 90
       20
 70
   128
 43
0.0
 10
175.5805053214
 20
125.7517517336
 10
175.3268298159
 20
126.422103753
 10
174.8552658061
 20
126.9787329041
 10
174.2169168244
 20
127.3613202178
 10
173.4809568549
 20
127.5284069382
 10
172.7271378438
 20
127.461886292
 10
172.0371498192
 20
127.1689648532
 10
171.4857612203
 20
126.6813876831
 10
171.1327257032
 20
126.0519905739
 10
171.0162982742
 20
125.3489789345
 10
171.1490974228
 20
124.6485340201
 10
171.5167304898
 20
124.0265604832
 10
172.0793601523
 20
123.5504581385
 10
172.7760164464
 20
123.2718213253
 10
173.5312054331
 20
123.2208435216
 10
174.2630917976
 20
123.4030493327
 10
174.8923622469
 20
123.7986947202
 10
175.350828136
 20
124.3649043866
 10
175.5888052682
 20
125.0403200068
 10
175.5805053214
 20
125.7517517336
  0
LWPOLYLINE
  5
17E
330
1F
100
AcDbEntity
  8
0
  6
HIDDEN
 62
     7
370
     0
100
AcDbPolyline
 90
       21
 70
   128
 43
0.0
 10
175.7774055401
 20
126.1952298485
 10
175.5214427064
 20
126.8897617959
 10
175.0496104757
 20
127.4759734773
 10
174.4080968598
 20
127.8964823835
 10
173.6596972148
 20
128.1101277821
 10
172.8776693741
 20
128.0959958934
 10
172.1385643283
 20
127.8554688
 10
171.5147300089
 20
127.4120940619
 10
171.0672332371
 20
126.8092675858
 10
170.8398759762
 20
126.1060016953
 10
170.8549149732
 20
125.3711360299
 10
171.1108787383
 20
124.6766040825
 10
171.5827100376
 20
124.0903924011
 10
172.2242236535
 20
123.6698825636
 10
172.9726232986
 20
123.456237165
 10
173.7546511392
 20
123.4703690537
 10
174.493756185
 20
123.7108961471
 10
175.1175895731
 20
124.1542727479
 10
175.5650882075
 20
124.7570982926
 10
175.7924445371
 20
125.4603641831
 10
175.7774055401
 20
126.1952298485
  0
LWPOLYLINE
  5
17F
330
1F
100
AcDbEntity
  8
0
  6
HIDDEN
 62
     7
370
     0
100
AcDbPolyline
 90
       20
 70
   128
 43
0.0
 10
175.5805053214
 20
125.9877460801
 10
175.3268298159
 20
126.6580980995
 10
174.8552658061
 20
127.2147281819
 10
174.2169168244
 20
127.5973154955
 10
173.4809568549
 20
127.7644003534
 10
172.7271378438
 20
127.6978797071
 10
172.0371498192
 20
127.4049582683
 10
171.4857612203
 20
126.9173810982
 10
171.1327257032
 20
126.2879849204
 10
171.0162982742
 20
125.5849723496
 10
171.1490974228
 20
124.8845274352
 10
171.5167304898
 20
124.2625538983
 10
172.0793601523
 20
123.7864524849
 10
172.7760164464
 20
123.5078147405
 10
173.5312054331
 20
123.456837868
 10
174.2630917976
 20
123.6390436792
 10
174.8923622469
 20
124.0346881353
 10
175.350828136
 20
124.6008978017
 10
175.5888052682
 20
125.2763143533
 10
175.5805053214
 20
125.9877460801
  0
LWPOLYLINE
  5
180
330
1F
100
AcDbEntity
  8
0
  6
HIDDEN
 62
     7
370
     0
100
AcDbPolyline
 90
       21
 70
   128
 43
0.0
 10
175.7774055401
 20
126.4312232637
 10
175.5214427064
 20
127.125755211
 10
175.0496104757
 20
127.7119668924
 10
174.4080968598
 20
128.1324776613
 10
173.6596972148
 20
128.3461230599
 10
172.8776693741
 20
128.3319893085
 10
172.1385643283
 20
128.0914640778
 10
171.5147300089
 20
127.648087477
 10
171.0672332371
 20
127.0452610009
 10
170.8398759762
 20
126.3419960418
 10
170.8549149732
 20
125.607129445
 10
171.1108787383
 20
124.9125984289
 10
171.5827100376
 20
124.3263858163
 10
172.2242236535
 20
123.9058759787
 10
172.9726232986
 20
123.6922305801
 10
173.7546511392
 20
123.7063634001
 10
174.493756185
 20
123.9468895622
 10
175.1175895731
 20
124.390266163
 10
175.5650882075
 20
124.9930917077
 10
175.7924445371
 20
125.6963575982
 10
175.7774055401
 20
126.4312232637
  0
LWPOLYLINE
  5
181
330
1F
100
AcDbEntity
  8
0
  6
HIDDEN
 62
     7
370
     0
100
AcDbPolyline
 90
       20
 70
   128
 43
0.0
 10
175.5805053214
 20
126.2237394952
 10
175.3268298159
 20
126.8940924459
 10
174.8552658061
 20
127.450721597
 10
174.2169168244
 20
127.8333089107
 10
173.4809568549
 20
128.0003956311
 10
172.7271378438
 20
127.9338731223
 10
172.0371498192
 20
127.6409535461
 10
171.4857612203
 20
127.153376376
 10
171.1327257032
 20
126.5239783355
 10
171.0162982742
 20
125.8209666961
 10
171.1490974228
 20
125.1205217817
 10
171.5167304898
 20
124.4985482448
 10
172.0793601523
 20
124.0224459001
 10
172.7760164464
 20
123.7438090869
 10
173.5312054331
 20
123.6928312831
 10
174.2630917976
 20
123.8750370943
 10
174.8923622469
 20
124.2706824817
 10
175.350828136
 20
124.8368921482
 10
175.5888052682
 20
125.5123077684
 10
175.5805053214
 20
126.2237394952
  0
LWPOLYLINE
  5
182
330
1F
100
AcDbEntity
  8
0
  6
HIDDEN
 62
     7
370
     0
100
AcDbPolyline
 90
       21
 70
   128
 43
0.0
 10
175.7774055401
 20
126.6672176101
 10
175.5214427064
 20
127.3617486262
 10
175.0496104757
 20
127.9479603075
 10
174.4080968598
 20
128.3684710764
 10
173.6596972148
 20
128.582116475
 10
172.8776693741
 20
128.5679845863
 10
172.1385643283
 20
128.3274574929
 10
171.5147300089
 20
127.8840808921
 10
171.0672332371
 20
127.2812562787
 10
170.8398759762
 20
126.5779894569
 10
170.8549149732
 20
125.8431237914
 10
171.1108787383
 20
125.1485918441
 10
171.5827100376
 20
124.5623801627
 10
172.2242236535
 20
124.1418703251
 10
172.9726232986
 20
123.9282249265
 10
173.7546511392
 20
123.9423568153
 10
174.493756185
 20
124.1828839087
 10
175.1175895731
 20
124.6262605094
 10
175.5650882075
 20
125.2290860542
 10
175.7924445371
 20
125.9323519447
 10
175.7774055401
 20
126.6672176101
  0
LWPOLYLINE
  5
183
330
1F
100
AcDbEntity
  8
0
  6
HIDDEN
 62
     7
370
     0
100
AcDbPolyline
 90
       20
 70
   128
 43
0.0
 10
175.5805053214
 20
126.4597338416
 10
175.3268298159
 20
127.130085861
 10
174.8552658061
 20
127.6867150121
 10
174.2169168244
 20
128.0693023258
 10
173.4809568549
 20
128.2363890462
 10
172.7271378438
 20
128.1698665374
 10
172.0371498192
 20
127.8769469612
 10
171.4857612203
 20
127.3893697911
 10
171.1327257032
 20
126.7599726819
 10
171.0162982742
 20
126.0569601112
 10
171.1490974228
 20
125.3565151968
 10
171.5167304898
 20
124.7345416599
 10
172.0793601523
 20
124.2584402465
 10
172.7760164464
 20
123.979802502
 10
173.5312054331
 20
123.9288256296
 10
174.2630917976
 20
124.1110314407
 10
174.8923622469
 20
124.5066758969
 10
175.350828136
 20
125.0728855633
 10
175.5888052682
 20
125.7483021148
 10
175.5805053214
 20
126.4597338416
  0
LWPOLYLINE
  5
184
330
1F
100
AcDbEntity
  8
0
  6
HIDDEN
 62
     7
370
     0
100
AcDbPolyline
 90
       21
 70
   128
 43
0.0
 10
175.7774055401
 20
126.8553289377
 10
175.5214427064
 20
127.5498608851
 10
175.0496104757
 20
128.1360725664
 10
174.4080968598
 20
128.5565814727
 10
173.6596972148
 20
128.7702268713
 10
172.8776693741
 20
128.7560949825
 10
172.1385643283
 20
128.5155678891
 10
171.5147300089
 20
128.0721912884
 10
171.0672332371
 20
127.4693666749
 10
170.8398759762
 20
126.7661007845
 10
170.8549149732
 20
126.031235119
 10
171.1108787383
 20
125.3367031717
 10
171.5827100376
 20
124.7504914903
 10
172.2242236535
 20
124.3299807214
 10
172.9726232986
 20
124.1163362541
 10
173.7546511392
 20
124.1304681429
 10
174.493756185
 20
124.3709943049
 10
175.1175895731
 20
124.8143709057
 10
175.5650882075
 20
125.4171964505
 10
175.7924445371
 20
126.1204623409
 10
175.7774055401
 20
126.8553289377
  0
LWPOLYLINE
  5
185
330
1F
100
AcDbEntity
  8
0
  6
HIDDEN
 62
     7
370
     0
100
AcDbPolyline
 90
       21
 70
   128
 43
0.0
 10
175.639575387
 20
126.8801375084
 10
175.3979456077
 20
127.5357736998
 10
174.9525368611
 20
128.0891581231
 10
174.3469480822
 20
128.4861194693
 10
173.6404588843
 20
128.6878010982
 10
172.9022246251
 20
128.6744608336
 10
172.2045094172
 20
128.4474025273
 10
171.6156099389
 20
128.0288549864
 10
171.1931731949
 20
127.4597889536
 10
170.978548045
 20
126.7959059008
 10
170.9927451263
 20
126.102192586
 10
171.2343739743
 20
125.446554532
 10
171.6797827209
 20
124.8931701087
 10
172.2853714998
 20
124.4962087625
 10
172.991861629
 20
124.294528065
 10
173.7300958882
 20
124.3078683295
 10
174.4278110961
 20
124.5349257045
 10
175.0167105744
 20
124.9534732454
 10
175.4391473184
 20
125.5225402095
 10
175.6537724684
 20
126.1864232623
 10
175.639575387
 20
126.8801375084
  0
LINE
  5
186
330
1F
100
AcDbEntity
  8
0
  6
HIDDEN
 62
     7
370
     0
100
AcDbLine
 10
175.8161597351
 20
94.5402609908
 30
0.0
 11
175.8161597351
 21
97.6964889818
 31
0.0
  0
LINE
  5
187
330
1F
100
AcDbEntity
  8
0
  6
HIDDEN
 62
     7
370
     0
100
AcDbLine
 10
170.8161598469
 20
97.6964889818
 30
0.0
 11
170.8161598469
 21
95.6428295725
 31
0.0
  0
LINE
  5
188
330
1F
100
AcDbEntity
  8
0
  6
HIDDEN
 62
     7
370
     0
100
AcDbLine
 10
162.3161600834
 20
93.7548971527
 30
0.0
 11
164.9355879451
 21
94.3822118246
 31
0.0
  0
LINE
  5
189
330
1F
100
AcDbEntity
  8
0
  6
HIDDEN
 62
     7
370
     0
100
AcDbLine
 10
163.5381910416
 20
100.2172169068
 30
0.0
 11
162.3161600834
 21
99.9245581009
 31
0.0
  0
LINE
  5
18A
330
1F
100
AcDbEntity
  8
0
  6
HIDDEN
 62
     7
370
     0
100
AcDbLine
 10
164.9943106274
 20
95.3217244499
 30
0.0
 11
172.4634599338
 21
97.1104738095
 31
0.0
  0
LINE
  5
18B
330
1F
100
AcDbEntity
  8
0
  6
HIDDEN
 62
     7
370
     0
100
AcDbLine
 10
172.4634599338
 20
101.4292363801
 30
0.0
 11
164.0161327484
 21
99.4062277281
 31
0.0
  0
LINE
  5
18C
330
1F
100
AcDbEntity
  8
0
  6
HIDDEN
 62
     7
370
     0
100
AcDbLine
 10
175.4161604146
 20
97.7462830745
 30
0.0
 11
175.4161604146
 21
109.7555728887
 31
0.0
  0
LINE
  5
18D
330
1F
100
AcDbEntity
  8
0
  6
HIDDEN
 62
     7
370
     0
100
AcDbLine
 10
171.2161600987
 20
98.0943332218
 30
0.0
 11
171.2161600987
 21
97.7462830745
 31
0.0
  0
LINE
  5
18E
330
1F
100
AcDbEntity
  8
0
  6
HIDDEN
 62
     7
370
     0
100
AcDbLine
 10
171.2161600987
 20
109.7538558791
 30
0.0
 11
171.2161600987
 21
99.8479577505
 31
0.0
  0
ARC
  5
18F
330
1F
100
AcDbEntity
  8
0
  6
HIDDEN
 62
     7
370
     0
100
AcDbCircle
 10
58.7161601643
 20
97.5045741432
 30
0.0
 40
1.20000000000001
100
AcDbArc
 50
90.0
 51
180.0
  0
ARC
  5
190
330
1F
100
AcDbEntity
  8
0
  6
HIDDEN
 62
     7
370
     0
100
AcDbCircle
 10
58.7161601643
 20
124.9045741432
 30
0.0
 40
1.20000000000001
100
AcDbArc
 50
180.0
 51
270.0
  0
LINE
  5
191
330
1F
100
AcDbEntity
  8
0
  6
HIDDEN
 62
     7
370
     0
100
AcDbLine
 10
243.2161607246
 20
124.7045744934
 30
0.0
 11
242.7661605577
 21
123.7395464235
 31
0.0
  0
LINE
  5
192
330
1F
100
AcDbEntity
  8
0
  6
HIDDEN
 62
     7
370
     0
100
AcDbLine
 10
242.7661605577
 20
98.669601863
 30
0.0
 11
243.2161607246
 21
97.704573793
 31
0.0
  0
LINE
  5
193
330
1F
100
AcDbEntity
  8
0
  6
HIDDEN
 62
     7
370
     0
100
AcDbLine
 10
68.4085302452
 20
98.4795738735
 30
0.0
 11
69.2852177123
 21
98.4795738735
 31
0.0
  0
LINE
  5
194
330
1F
100
AcDbEntity
  8
0
  6
HIDDEN
 62
     7
370
     0
100
AcDbLine
 10
69.2852177123
 20
123.9295744129
 30
0.0
 11
68.4085302452
 21
123.9295744129
 31
0.0
  0
ARC
  5
195
330
1F
100
AcDbEntity
  8
0
  6
HIDDEN
 62
     7
370
     0
100
AcDbCircle
 10
68.408532595
 20
98.8795741432
 30
0.0
 40
0.4000000000000057
100
AcDbArc
 50
255.0
 51
270.0
  0
ARC
  5
196
330
1F
100
AcDbEntity
  8
0
  6
HIDDEN
 62
     7
370
     0
100
AcDbCircle
 10
68.408532595
 20
123.5295741432
 30
0.0
 40
0.4000000000000197
100
AcDbArc
 50
90.0
 51
105.0
  0
ARC
  5
197
330
1F
100
AcDbEntity
  8
0
  6
HIDDEN
 62
     7
370
     0
100
AcDbCircle
 10
69.2852200566
 20
98.8795741432
 30
0.0
 40
0.4000000000000121
100
AcDbArc
 50
270.0
 51
330.0
  0
ARC
  5
198
330
1F
100
AcDbEntity
  8
0
  6
HIDDEN
 62
     7
370
     0
100
AcDbCircle
 10
69.2852200566
 20
123.5295741432
 30
0.0
 40
0.4000000000000121
100
AcDbArc
 50
30.0
 51
90.0
  0
LINE
  5
199
330
1F
100
AcDbEntity
  8
0
  6
HIDDEN
 62
     7
370
     0
100
AcDbLine
 10
68.3050044278
 20
123.915944507
 30
0.0
 11
67.516159306
 21
123.7045743295
 31
0.0
  0
LINE
  5
19A
330
1F
100
AcDbEntity
  8
0
  6
HIDDEN
 62
     7
370
     0
100
AcDbLine
 10
67.516159306
 20
98.704573957
 30
0.0
 11
68.3050044278
 21
98.4932037794
 31
0.0
  0
LINE
  5
19B
330
1F
100
AcDbEntity
  8
0
  6
HIDDEN
 62
     7
370
     0
100
AcDbLine
 10
69.6316324572
 20
98.6795744651
 30
0.0
 11
70.8007626633
 21
100.7045742848
 31
0.0
  0
LINE
  5
19C
330
1F
100
AcDbEntity
  8
0
  6
HIDDEN
 62
     7
370
     0
100
AcDbLine
 10
70.8007626633
 20
121.7045740017
 30
0.0
 11
69.6316324572
 21
123.7295738213
 31
0.0
  0
LINE
  5
19D
330
1F
100
AcDbEntity
  8
0
  6
HIDDEN
 62
     7
370
     0
100
AcDbLine
 10
58.7161593536
 20
98.704573957
 30
0.0
 11
67.516159306
 21
98.704573957
 31
0.0
  0
LINE
  5
19E
330
1F
100
AcDbEntity
  8
0
  6
HIDDEN
 62
     7
370
     0
100
AcDbLine
 10
67.516159306
 20
123.7045743295
 30
0.0
 11
58.7161593536
 21
123.7045743295
 31
0.0
  0
LINE
  5
19F
330
1F
100
AcDbEntity
  8
0
  6
HIDDEN
 62
     7
370
     0
100
AcDbLine
 10
70.8007626633
 20
100.7045742848
 30
0.0
 11
119.5161603788
 21
100.7045742848
 31
0.0
  0
LINE
  5
1A0
330
1F
100
AcDbEntity
  8
0
  6
HIDDEN
 62
     7
370
     0
100
AcDbLine
 10
119.5161603788
 20
121.7045740017
 30
0.0
 11
70.8007626633
 21
121.7045740017
 31
0.0
  0
LINE
  5
1A1
330
1F
100
AcDbEntity
  8
0
  6
HIDDEN
 62
     7
370
     0
100
AcDbLine
 10
119.5161603788
 20
100.7045742848
 30
0.0
 11
123.2715398471
 21
106.9545739122
 31
0.0
  0
LINE
  5
1A2
330
1F
100
AcDbEntity
  8
0
  6
HIDDEN
 62
     7
370
     0
100
AcDbLine
 10
123.2715398471
 20
115.4545743742
 30
0.0
 11
119.5161603788
 21
121.7045740017
 31
0.0
  0
LINE
  5
1A3
330
1F
100
AcDbEntity
  8
0
  6
HIDDEN
 62
     7
370
     0
100
AcDbLine
 10
242.7633367876
 20
122.0045744234
 30
0.0
 11
239.8661636213
 21
122.0045744234
 31
0.0
  0
LINE
  5
1A4
330
1F
100
AcDbEntity
  8
0
  6
HIDDEN
 62
     7
370
     0
100
AcDbLine
 10
239.8661636213
 20
100.4045738631
 30
0.0
 11
242.7661605577
 21
100.4045738631
 31
0.0
  0
LINE
  5
1A5
330
1F
100
AcDbEntity
  8
0
  6
HIDDEN
 62
     7
370
     0
100
AcDbLine
 10
239.8661636213
 20
120.6664548048
 30
0.0
 11
239.0661575297
 21
120.2045737558
 31
0.0
  0
LINE
  5
1A6
330
1F
100
AcDbEntity
  8
0
  6
HIDDEN
 62
     7
370
     0
100
AcDbLine
 10
239.0661575297
 20
102.2045745306
 30
0.0
 11
239.8661636213
 21
101.7426934817
 31
0.0
  0
LINE
  5
1A7
330
1F
100
AcDbEntity
  8
0
  6
HIDDEN
 62
     7
370
     0
100
AcDbLine
 10
224.8161621789
 20
102.0045739391
 30
0.0
 11
225.3907584051
 21
102.0045739391
 31
0.0
  0
LINE
  5
1A8
330
1F
100
AcDbEntity
  8
0
  6
HIDDEN
 62
     7
370
     0
100
AcDbLine
 10
225.3907584051
 20
120.4045743474
 30
0.0
 11
224.8161621789
 21
120.4045743474
 31
0.0
  0
ARC
  5
1A9
330
1F
100
AcDbEntity
  8
0
  6
HIDDEN
 62
     7
370
     0
100
AcDbCircle
 10
225.3907585042
 20
102.6045741432
 30
0.0
 40
0.6000000000000085
100
AcDbArc
 50
270.0
 51
285.0
  0
ARC
  5
1AA
330
1F
100
AcDbEntity
  8
0
  6
HIDDEN
 62
     7
370
     0
100
AcDbCircle
 10
225.3907585042
 20
119.8045741432
 30
0.0
 40
0.6000000000000085
100
AcDbArc
 50
75.0
 51
90.0
  0
ARC
  5
1AB
330
1F
100
AcDbEntity
  8
0
  6
HIDDEN
 62
     7
370
     0
100
AcDbCircle
 10
224.8161601643
 20
102.6045741432
 30
0.0
 40
0.5999999999999943
100
AcDbArc
 50
180.0
 51
270.0
  0
ARC
  5
1AC
330
1F
100
AcDbEntity
  8
0
  6
HIDDEN
 62
     7
370
     0
100
AcDbCircle
 10
224.8161601643
 20
119.8045741432
 30
0.0
 40
0.5999999999999943
100
AcDbArc
 50
90.0
 51
180.0
  0
LINE
  5
1AD
330
1F
100
AcDbEntity
  8
0
  6
HIDDEN
 62
     7
370
     0
100
AcDbLine
 10
225.5460508565
 20
102.0250183322
 30
0.0
 11
226.216163526
 21
102.2045745306
 31
0.0
  0
LINE
  5
1AE
330
1F
100
AcDbEntity
  8
0
  6
HIDDEN
 62
     7
370
     0
100
AcDbLine
 10
226.216163526
 20
120.2045737558
 30
0.0
 11
225.5460508565
 21
120.3841299542
 31
0.0
  0
LINE
  5
1AF
330
1F
100
AcDbEntity
  8
0
  6
HIDDEN
 62
     7
370
     0
100
AcDbLine
 10
226.216163526
 20
102.2045745306
 30
0.0
 11
239.0661575297
 21
102.2045745306
 31
0.0
  0
LINE
  5
1B0
330
1F
100
AcDbEntity
  8
0
  6
HIDDEN
 62
     7
370
     0
100
AcDbLine
 10
239.0661575297
 20
120.2045737558
 30
0.0
 11
226.216163526
 21
120.2045737558
 31
0.0
  0
LINE
  5
1B1
330
1F
100
AcDbEntity
  8
0
  6
HIDDEN
 62
     7
370
     0
100
AcDbLine
 10
242.7661605577
 20
123.3795744159
 30
0.0
 11
239.8661636213
 21
123.3795744159
 31
0.0
  0
LINE
  5
1B2
330
1F
100
AcDbEntity
  8
0
  6
HIDDEN
 62
     7
370
     0
100
AcDbLine
 10
239.8661636213
 20
99.0295738705
 30
0.0
 11
242.7661605577
 21
99.0295738705
 31
0.0
  0
LINE
  5
1B3
330
1F
100
AcDbEntity
  8
0
  6
HIDDEN
 62
     7
370
     0
100
AcDbLine
 10
123.2715398471
 20
106.9545739122
 30
0.0
 11
224.2161594729
 21
106.9545739122
 31
0.0
  0
LINE
  5
1B4
330
1F
100
AcDbEntity
  8
0
  6
HIDDEN
 62
     7
370
     0
100
AcDbLine
 10
224.2161594729
 20
115.4545743742
 30
0.0
 11
123.2715398471
 21
115.4545743742
 31
0.0
  0
LINE
  5
1B5
330
1F
100
AcDbEntity
  8
0
  6
HIDDEN
 62
     7
370
     0
100
AcDbLine
 10
175.4161604146
 20
112.6552924073
 30
0.0
 11
175.4161604146
 21
124.6628652119
 31
0.0
  0
LINE
  5
1B6
330
1F
100
AcDbEntity
  8
0
  6
HIDDEN
 62
     7
370
     0
100
AcDbLine
 10
171.2161600987
 20
122.5611905359
 30
0.0
 11
171.2161600987
 21
112.6535753977
 31
0.0
  0
LINE
  5
1B7
330
1F
100
AcDbEntity
  8
0
  6
HIDDEN
 62
     7
370
     0
100
AcDbLine
 10
171.2161600987
 20
124.6628652119
 30
0.0
 11
171.2161600987
 21
124.3148150646
 31
0.0
  0
LINE
  5
1B8
330
1F
100
AcDbEntity
  8
0
  6
HIDDEN
 62
     7
370
     0
100
AcDbLine
 10
242.7638285259
 20
122.0045744234
 30
0.0
 11
242.7633367876
 21
122.0045744234
 31
0.0
  0
LINE
  5
1B9
330
1F
100
AcDbEntity
  8
0
  6
HIDDEN
 62
     7
370
     0
100
AcDbLine
 10
164.0161327484
 20
123.0029205584
 30
0.0
 11
172.4634599338
 21
120.9799119063
 31
0.0
  0
LINE
  5
1BA
330
1F
100
AcDbEntity
  8
0
  6
HIDDEN
 62
     7
370
     0
100
AcDbLine
 10
172.4634599338
 20
125.298674477
 30
0.0
 11
164.9943106274
 21
127.0874238365
 31
0.0
  0
LINE
  5
1BB
330
1F
100
AcDbEntity
  8
0
  6
HIDDEN
 62
     7
370
     0
100
AcDbLine
 10
162.3161600834
 20
122.4845901855
 30
0.0
 11
163.5381910416
 21
122.1919313797
 31
0.0
  0
LINE
  5
1BC
330
1F
100
AcDbEntity
  8
0
  6
HIDDEN
 62
     7
370
     0
100
AcDbLine
 10
164.9355879451
 20
128.0269364618
 30
0.0
 11
162.3161600834
 21
128.6542511337
 31
0.0
  0
LINE
  5
1BD
330
1F
100
AcDbEntity
  8
0
  6
HIDDEN
 62
     7
370
     0
100
AcDbLine
 10
175.8161597351
 20
124.7126593047
 30
0.0
 11
175.8161597351
 21
127.8688872956
 31
0.0
  0
LINE
  5
1BE
330
1F
100
AcDbEntity
  8
0
  6
HIDDEN
 62
     7
370
     0
100
AcDbLine
 10
170.8161598469
 20
126.7663187139
 30
0.0
 11
170.8161598469
 21
124.7126593047
 31
0.0
  0
LINE
  5
1BF
330
1F
100
AcDbEntity
  8
0
  6
HIDDEN
 62
     7
370
     0
100
AcDbLine
 10
168.1093583281
 20
122.2065363803
 30
0.0
 11
168.6064005295
 21
122.6801520937
 31
0.0
  0
LINE
  5
1C0
330
1F
100
AcDbEntity
  8
0
  6
HIDDEN
 62
     7
370
     0
100
AcDbLine
 10
169.2328174064
 20
125.2958339431
 30
0.0
 11
169.0042391817
 21
125.9432242044
 31
0.0
  0
LINE
  5
1C1
330
1F
100
AcDbEntity
  8
0
  6
HIDDEN
 62
     7
370
     0
100
AcDbLine
 10
163.8650983038
 20
122.6277810314
 30
0.0
 11
167.1360368306
 21
121.8444400259
 31
0.0
  0
LINE
  5
1C2
330
1F
100
AcDbEntity
  8
0
  6
HIDDEN
 62
     7
370
     0
100
AcDbLine
 10
168.3005346383
 20
126.7069441058
 30
0.0
 11
165.0295951801
 21
127.49028418
 31
0.0
  0
LINE
  5
1C3
330
1F
100
AcDbEntity
  8
0
  6
HIDDEN
 62
     7
370
     0
100
AcDbLine
 10
165.0295951801
 20
94.9188641065
 30
0.0
 11
168.3005346383
 21
95.7022041806
 31
0.0
  0
LINE
  5
1C4
330
1F
100
AcDbEntity
  8
0
  6
HIDDEN
 62
     7
370
     0
100
AcDbLine
 10
167.1360368306
 20
100.5647082605
 30
0.0
 11
163.8650983038
 21
99.7813672551
 31
0.0
  0
LINE
  5
1C5
330
1F
100
AcDbEntity
  8
0
  6
HIDDEN
 62
     7
370
     0
100
AcDbLine
 10
169.0042391817
 20
96.465924082
 30
0.0
 11
169.2328174064
 21
97.1133143433
 31
0.0
  0
LINE
  5
1C6
330
1F
100
AcDbEntity
  8
0
  6
HIDDEN
 62
     7
370
     0
100
AcDbLine
 10
168.6064005295
 20
99.7289961927
 30
0.0
 11
168.1093583281
 21
100.2026119062
 31
0.0
  0
LINE
  5
1C7
330
1F
100
AcDbEntity
  8
0
  6
HIDDEN
 62
     7
370
     0
100
AcDbLine
 10
170.8161598469
 20
96.1539775857
 30
0.0
 11
170.8161598469
 21
95.9658662581
 31
0.0
  0
LINE
  5
1C8
330
1F
100
AcDbEntity
  8
0
  6
HIDDEN
 62
     7
370
     0
100
AcDbLine
 10
175.8161597351
 20
95.9658662581
 30
0.0
 11
175.8161597351
 21
96.1539775857
 31
0.0
  0
LINE
  5
1C9
330
1F
100
AcDbEntity
  8
0
  6
HIDDEN
 62
     7
370
     0
100
AcDbLine
 10
171.3161599288
 20
97.3357598089
 30
0.0
 11
171.3161599288
 21
95.9179841705
 31
0.0
  0
LINE
  5
1CA
330
1F
100
AcDbEntity
  8
0
  6
HIDDEN
 62
     7
370
     0
100
AcDbLine
 10
175.3161605845
 20
95.9179841705
 30
0.0
 11
175.3161605845
 21
97.3357598089
 31
0.0
  0
LINE
  5
1CB
330
1F
100
AcDbEntity
  8
0
  6
HIDDEN
 62
     7
370
     0
100
AcDbLine
 10
170.8161598469
 20
97.6964889818
 30
0.0
 11
170.8161598469
 21
97.0979531088
 31
0.0
  0
LINE
  5
1CC
330
1F
100
AcDbEntity
  8
0
  6
HIDDEN
 62
     7
370
     0
100
AcDbLine
 10
175.8161597351
 20
97.0979531088
 30
0.0
 11
175.8161597351
 21
97.6964889818
 31
0.0
  0
LINE
  5
1CD
330
1F
100
AcDbEntity
  8
0
  6
HIDDEN
 62
     7
370
     0
100
AcDbLine
 10
175.8161597351
 20
124.7126593047
 30
0.0
 11
175.8161597351
 21
125.3111951777
 31
0.0
  0
LINE
  5
1CE
330
1F
100
AcDbEntity
  8
0
  6
HIDDEN
 62
     7
370
     0
100
AcDbLine
 10
170.8161598469
 20
125.3111951777
 30
0.0
 11
170.8161598469
 21
124.7126593047
 31
0.0
  0
LINE
  5
1CF
330
1F
100
AcDbEntity
  8
0
  6
HIDDEN
 62
     7
370
     0
100
AcDbLine
 10
175.3161605845
 20
125.0733884775
 30
0.0
 11
175.3161605845
 21
126.4911641159
 31
0.0
  0
LINE
  5
1D0
330
1F
100
AcDbEntity
  8
0
  6
HIDDEN
 62
     7
370
     0
100
AcDbLine
 10
171.3161599288
 20
126.4911641159
 30
0.0
 11
171.3161599288
 21
125.0733884775
 31
0.0
  0
LINE
  5
1D1
330
1F
100
AcDbEntity
  8
0
  6
HIDDEN
 62
     7
370
     0
100
AcDbLine
 10
175.8161597351
 20
126.2551707008
 30
0.0
 11
175.8161597351
 21
126.4432820284
 31
0.0
  0
LINE
  5
1D2
330
1F
100
AcDbEntity
  8
0
  6
HIDDEN
 62
     7
370
     0
100
AcDbLine
 10
170.8161598469
 20
126.4432820284
 30
0.0
 11
170.8161598469
 21
126.2551707008
 31
0.0
  0
CIRCLE
  5
1D3
330
1F
100
AcDbEntity
  8
0
  6
HIDDEN
 62
     7
370
     0
100
AcDbCircle
 10
173.3161601643
 20
125.6703161052
 30
0.0
 40
2.00000000000002
  0
ARC
  5
1D4
330
1F
100
AcDbEntity
  8
0
  6
HIDDEN
 62
     7
370
     0
100
AcDbCircle
 10
173.3161601643
 20
96.7388321813
 30
0.0
 40
1.999999999999988
100
AcDbArc
 50
111.7528366232
 51
192.2156859341
  0
ARC
  5
1D5
330
1F
100
AcDbEntity
  8
0
  6
HIDDEN
 62
     7
370
     0
100
AcDbCircle
 10
173.3161601643
 20
96.7388321813
 30
0.0
 40
2.000000000000053
100
AcDbArc
 50
339.9857998566
 51
111.7528366232
  0
DIMENSION
  5
1D6
330
1F
100
AcDbEntity
  8
VERMASSUNG
100
AcDbDimension
  2
_D
 10
49.1341968296
 20
159.9295741432
 30
0.0
 11
49.1341968296
 21
111.2045741432
 31
0.0
 70
   160
  1
ISO 50 %%c<>
 71
     2
 42
-1.0
  3
SLDDIMSTYLE0
100
AcDbAlignedDimension
 13
177.5661601643
 23
62.4795741432
 33
0.0
 14
177.5661601643
 24
159.9295741432
 34
0.0
 50
90.0
100
AcDbRotatedDimension
  0
DIMENSION
  5
1E3
330
1F
100
AcDbEntity
  8
VERMASSUNG
100
AcDbDimension
  2
_D_1
 10
243.2161601643
 20
176.2995468206
 30
0.0
 11
150.3661601643
 21
176.2995468206
 31
0.0
 70
   160
  1
(<>)
 71
     2
 42
-1.0
  3
SLDDIMSTYLE0
100
AcDbAlignedDimension
 13
57.5161601643
 23
129.5834186706
 33
0.0
 14
243.2161601643
 24
126.9045741432
 34
0.0
100
AcDbRotatedDimension
  0
DIMENSION
  5
1EF
330
1F
100
AcDbEntity
  8
VERMASSUNG
100
AcDbDimension
  2
_D_2
 10
243.2161601643
 20
170.2995468206
 30
0.0
 11
201.1661601643
 21
170.2995468206
 31
0.0
 70
   160
  1
<>
 71
     2
 42
-1.0
  3
SLDDIMSTYLE0
100
AcDbAlignedDimension
 13
159.1161601643
 23
146.1295741432
 33
0.0
 14
243.2161601643
 24
126.9045741432
 34
0.0
100
AcDbRotatedDimension
  0
DIMENSION
  5
1F9
330
1F
100
AcDbEntity
  8
VERMASSUNG
100
AcDbDimension
  2
_D_3
 10
243.2161601643
 20
165.1749743858
 30
0.0
 11
210.6911601643
 21
165.1749743858
 31
0.0
 70
   160
  1
<>
 71
     2
 42
-1.0
  3
SLDDIMSTYLE0
100
AcDbAlignedDimension
 13
178.1661601643
 23
157.4995610964
 33
0.0
 14
243.2161601643
 24
126.9045741432
 34
0.0
100
AcDbRotatedDimension
  0
DIMENSION
  5
203
330
1F
100
AcDbEntity
  8
VERMASSUNG
100
AcDbDimension
  2
_D_4
 10
250.9224914841
 20
95.2045741432
 30
0.0
 11
250.9224914841
 21
111.2045741432
 31
0.0
 70
   160
  1
MBM %%c<>
 71
     2
 42
-1.0
  3
SLDDIMSTYLE0
100
AcDbAlignedDimension
 13
242.9161601643
 23
127.2045741432
 33
0.0
 14
242.9161601643
 24
95.2045741432
 34
0.0
 50
90.0
100
AcDbRotatedDimension
  0
LINE
  5
20F
330
1F
100
AcDbEntity
  8
VERMASSUNG
  6
CENTERX2
 62
     7
370
     0
100
AcDbLine
 10
55.5161601643
 20
111.2045741432
 30
0.0
 11
245.2161601643
 21
111.2045741432
 31
0.0
  0
LINE
  5
210
330
1F
100
AcDbEntity
  8
VERMASSUNG
  6
CENTERX2
370
     0
100
AcDbLine
 10
160.3711585181
 20
126.0352190427
 30
0.0
 11
171.633530209
 21
123.3380490283
 31
0.0
  0
LINE
  5
211
330
1F
100
AcDbEntity
  8
VERMASSUNG
  6
CENTERX2
370
     0
100
AcDbLine
 10
160.3711585181
 20
96.3739292437
 30
0.0
 11
171.633530209
 21
99.0710992581
 31
0.0
  0
LINE
  5
212
330
1F
100
AcDbEntity
  8
0
  6
Continuous
 62
     7
370
    15
100
AcDbLine
 10
274.529311468
 20
28.7276212103
 30
0.0
 11
274.6353594077
 21
28.7888620481
 31
0.0
  0
LINE
  5
213
330
1F
100
AcDbEntity
  8
0
  6
Continuous
 62
     7
370
    15
100
AcDbLine
 10
280.1852452712
 20
38.4025880918
 30
0.0
 11
280.1852465883
 21
38.5250491005
 31
0.0
  0
LINE
  5
214
330
1F
100
AcDbEntity
  8
0
  6
Continuous
 62
     7
370
    15
100
AcDbLine
 10
249.0503478615
 20
40.7302242284
 30
0.0
 11
270.5287170618
 21
28.3310256134
 31
0.0
  0
LINE
  5
215
330
1F
100
AcDbEntity
  8
0
  6
Continuous
 62
     7
370
    15
100
AcDbLine
 10
278.5280670784
 20
42.1878073828
 30
0.0
 11
257.0496978781
 21
54.5870059978
 31
0.0
  0
SPLINE
  5
216
330
1F
100
AcDbEntity
  8
0
  6
Continuous
 62
     7
370
    15
100
AcDbSpline
210
0.0
220
0.0
230
1.0
 70
     8
 71
     3
 72
    10
 73
     6
 74
     0
 42
0.000000001
 43
0.00000001
 40
0.0
 40
0.0
 40
0.0
 40
0.0
 40
0.134195124446517
 40
0.6045542330645128
 40
1.0
 40
1.0
 40
1.0
 40
1.0
 10
230.6931769454805
 20
51.51480926799725
 30
0.0
 10
230.6321450857316
 20
51.34439810418115
 30
0.0
 10
230.3571941937735
 20
50.57668921109438
 30
0.0
 10
229.9897885047443
 20
49.30654227609267
 30
0.0
 10
229.7380533234842
 20
48.22091216112588
 30
0.0
 10
229.623076364323
 20
47.72506390992856
 30
0.0
  0
SPLINE
  5
217
330
1F
100
AcDbEntity
  8
0
  6
Continuous
 62
     7
370
    15
100
AcDbSpline
210
0.0
220
0.0
230
1.0
 70
     8
 71
     3
 72
    19
 73
    15
 74
     0
 42
0.000000001
 43
0.00000001
 40
0.0
 40
0.0
 40
0.0
 40
0.0
 40
0.0322518670420541
 40
0.1267981326814274
 40
0.2214319228444567
 40
0.3161097108905252
 40
0.4107995680169471
 40
0.5054797862936263
 40
0.6001421720025398
 40
0.6947836094698621
 40
0.7894041357995022
 40
0.884005857290241
 40
0.9785918871585876
 40
1.0
 40
1.0
 40
1.0
 40
1.0
 10
250.6239057189784
 20
73.39721438140464
 30
0.0
 10
250.4710298573527
 20
73.36105021627236
 30
0.0
 10
249.8699987988739
 20
73.2188708936683
 30
0.0
 10
248.7943735361723
 20
72.82515946159634
 30
0.0
 10
247.407385744365
 20
72.21900627853888
 30
0.0
 10
246.011317947892
 20
71.46871114588166
 30
0.0
 10
244.6177383003648
 20
70.59183425774242
 30
0.0
 10
243.2351161500248
 20
69.59093755427932
 30
0.0
 10
241.8724007296171
 20
68.47373650051404
 30
0.0
 10
240.5387492721549
 20
67.24682626161784
 30
0.0
 10
239.2408708861948
 20
65.92029082485276
 30
0.0
 10
237.993820561368
 20
64.49534800657962
 30
0.0
 10
237.0931881202537
 20
63.39214429132764
 30
0.0
 10
236.6310831849113
 20
62.74561377656475
 30
0.0
 10
236.5457961663664
 20
62.62628880125032
 30
0.0
  0
LINE
  5
218
330
1F
100
AcDbEntity
  8
0
  6
Continuous
 62
     7
370
    15
100
AcDbLine
 10
244.8829600062
 20
70.7369825119
 30
0.0
 11
214.1216769571
 21
81.822129518
 31
0.0
  0
LINE
  5
219
330
1F
100
AcDbEntity
  8
0
  6
Continuous
 62
     7
370
    15
100
AcDbLine
 10
203.9978175767
 20
64.2851911176
 30
0.0
 11
233.4653286952
 21
39.4030686793
 31
0.0
  0
SPLINE
  5
21A
330
1F
100
AcDbEntity
  8
0
  6
Continuous
 62
     7
370
    15
100
AcDbSpline
210
0.0
220
0.0
230
1.0
 70
     8
 71
     3
 72
    10
 73
     6
 74
     0
 42
0.000000001
 43
0.00000001
 40
0.0
 40
0.0
 40
0.0
 40
0.0
 40
0.1137351343741229
 40
0.6200602105694482
 40
1.0
 40
1.0
 40
1.0
 40
1.0
 10
267.0894212829022
 20
49.007762351236
 30
0.0
 10
267.1363956820444
 20
49.14195357376572
 30
0.0
 10
267.3924903003326
 20
49.87353610678183
 30
0.0
 10
267.7247927022427
 20
51.05275405335503
 30
0.0
 10
267.9563310502261
 20
52.08337233565287
 30
0.0
 10
268.0555910283543
 20
52.5251961158193
 30
0.0
  0
SPLINE
  5
21B
330
1F
100
AcDbEntity
  8
0
  6
Continuous
 62
     7
370
    15
100
AcDbSpline
210
0.0
220
0.0
230
1.0
 70
     8
 71
     3
 72
    17
 73
    13
 74
     0
 42
0.000000001
 43
0.00000001
 40
0.0
 40
0.0
 40
0.0
 40
0.0
 40
0.0511952794159643
 40
0.1646039350426215
 40
0.2781099890911756
 40
0.3916633244106299
 40
0.5052266779250771
 40
0.618776804846656
 40
0.7323047654080386
 40
0.8458074241428
 40
0.9592851947993044
 40
1.0
 40
1.0
 40
1.0
 40
1.0
 10
247.0674924091731
 20
26.7956319832604
 30
0.0
 10
247.2702852658078
 20
26.84573331168611
 30
0.0
 10
247.9223083152259
 20
27.00681995685764
 30
0.0
 10
249.0498272683726
 20
27.42962928791131
 30
0.0
 10
250.4385383504024
 20
28.05452359492447
 30
0.0
 10
251.834772476876
 20
28.82128885974711
 30
0.0
 10
253.2275059571888
 20
29.71427245233787
 30
0.0
 10
254.6078952626244
 20
30.73073446353713
 30
0.0
 10
255.9680531452642
 20
31.86116941296026
 30
0.0
 10
257.2950974094471
 20
33.10575673779056
 30
0.0
 10
258.3182688679782
 20
34.14594424871191
 30
0.0
 10
258.8790982617583
 20
34.79842938365956
 30
0.0
 10
259.0271861926567
 20
34.9707191649156
 30
0.0
  0
LINE
  5
21C
330
1F
100
AcDbEntity
  8
0
  6
Continuous
 62
     7
370
    15
100
AcDbLine
 10
237.7878946613
 20
28.3386244806
 30
0.0
 11
239.2434166475
 21
27.4983695232
 31
0.0
  0
LINE
  5
21D
330
1F
100
AcDbEntity
  8
0
  6
Continuous
 62
     7
370
    15
100
AcDbLine
 10
234.0638597129
 20
30.4884640956
 30
0.0
 11
235.501704389
 21
29.6584140322
 31
0.0
  0
LINE
  5
21E
330
1F
100
AcDbEntity
  8
0
  6
Continuous
 62
     7
370
    15
100
AcDbLine
 10
229.6319772519
 20
36.5540448516
 30
0.0
 11
229.6763384563
 21
36.4081790261
 31
0.0
  0
LINE
  5
21F
330
1F
100
AcDbEntity
  8
0
  6
Continuous
 62
     7
370
    15
100
AcDbLine
 10
268.0508942889
 20
63.5854424413
 30
0.0
 11
267.999301278
 21
63.7512974829
 31
0.0
  0
SPLINE
  5
220
330
1F
100
AcDbEntity
  8
0
  6
Continuous
 62
     7
370
    15
100
AcDbSpline
210
0.0
220
0.0
230
1.0
 70
     8
 71
     3
 72
    26
 73
    22
 74
     0
 42
0.000000001
 43
0.00000001
 40
0.0
 40
0.0
 40
0.0
 40
0.0
 40
0.0206098635346963
 40
0.0728944510643923
 40
0.1258585040611578
 40
0.1800156137396773
 40
0.2354401611125397
 40
0.2918299514627566
 40
0.3487416667418533
 40
0.4057939356565405
 40
0.4627674603426434
 40
0.5196158025351038
 40
0.5763503990457023
 40
0.6330092550266897
 40
0.6896415235028057
 40
0.7462991724022513
 40
0.8030217144057956
 40
0.8598660589598679
 40
0.9168873020481363
 40
0.9741306256673679
 40
1.0
 40
1.0
 40
1.0
 40
1.0
 10
214.1730131356967
 20
81.7833299398124
 30
0.0
 10
214.0761410070034
 20
81.82493176263185
 30
0.0
 10
213.7335166789653
 20
81.97207208855374
 30
0.0
 10
213.0814112779227
 20
82.07491666213097
 30
0.0
 10
212.2358680984458
 20
82.09333909026654
 30
0.0
 10
211.3489599376076
 20
81.95836487664262
 30
0.0
 10
210.4346897777889
 20
81.68103630515341
 30
0.0
 10
209.504790114433
 20
81.25980837890992
 30
0.0
 10
208.5759287247914
 20
80.70189160401367
 30
0.0
 10
207.6647448282712
 20
80.01762644380935
 30
0.0
 10
206.786428037669
 20
79.2201351055105
 30
0.0
 10
205.9541869761616
 20
78.32342798089708
 30
0.0
 10
205.1797345581901
 20
77.34198544377671
 30
0.0
 10
204.4739151030371
 20
76.29090708033043
 30
0.0
 10
203.8467884057506
 20
75.18589532776284
 30
0.0
 10
203.307562813255
 20
74.0432028837194
 30
0.0
 10
202.8646476295943
 20
72.879443277368
 30
0.0
 10
202.5248338538346
 20
71.71090582553366
 30
0.0
 10
202.2962924120698
 20
70.55478983790108
 30
0.0
 10
202.1993728582067
 20
69.63173133205103
 30
0.0
 10
202.1913075199823
 20
69.10463231432001
 30
0.0
 10
202.1887971303694
 20
68.94056927538527
 30
0.0
  0
SPLINE
  5
221
330
1F
100
AcDbEntity
  8
0
  6
Continuous
 62
     7
370
    15
100
AcDbSpline
210
0.0
220
0.0
230
1.0
 70
     8
 71
     3
 72
    13
 73
     9
 74
     0
 42
0.000000001
 43
0.00000001
 40
0.0
 40
0.0
 40
0.0
 40
0.0
 40
0.1013708038922181
 40
0.2925452651573772
 40
0.4837075735181394
 40
0.673017314708729
 40
0.8585816591153959
 40
1.0
 40
1.0
 40
1.0
 40
1.0
 10
202.1887971303694
 20
68.94056927538527
 30
0.0
 10
202.1922530381281
 20
68.74980309775187
 30
0.0
 10
202.2022264171761
 20
68.19927237415052
 30
0.0
 10
202.3140776270402
 20
67.33537985754937
 30
0.0
 10
202.5656987791478
 20
66.38655133474052
 30
0.0
 10
202.9475761607349
 20
65.54118996966818
 30
0.0
 10
203.3994294026403
 20
64.85113204562064
 30
0.0
 10
203.7721106502125
 20
64.50804771256051
 30
0.0
 10
203.9332933858167
 20
64.3596654912767
 30
0.0
  0
LINE
  5
222
330
1F
100
AcDbEntity
  8
0
  6
Continuous
 62
     7
370
    15
100
AcDbLine
 10
272.760853013
 20
44.2408023762
 30
0.0
 11
272.5840473951
 21
44.3429037371
 31
0.0
  0
LINE
  5
223
330
1F
100
AcDbEntity
  8
0
  6
Continuous
 62
     7
370
    15
100
AcDbLine
 10
270.1087725484
 20
44.3429031769
 30
0.0
 11
269.9319667683
 21
44.2408021976
 31
0.0
  0
LINE
  5
224
330
1F
100
AcDbEntity
  8
0
  6
Continuous
 62
     7
370
    15
100
AcDbLine
 10
273.34641021
 20
43.1183240502
 30
0.0
 11
273.34641021
 21
43.4245267147
 31
0.0
  0
LINE
  5
225
330
1F
100
AcDbEntity
  8
0
  6
Continuous
 62
     7
370
    15
100
AcDbLine
 10
269.3464105393
 20
43.4245265246
 30
0.0
 11
269.3464105393
 21
43.1183238601
 31
0.0
  0
LWPOLYLINE
  5
226
330
1F
100
AcDbEntity
  8
0
  6
Continuous
 62
     7
370
    15
100
AcDbPolyline
 90
       43
 70
   128
 43
0.0
 10
269.0836692259
 20
31.993784656
 10
269.1456665815
 20
32.9849128436
 10
269.3302750464
 20
34.0254822378
 10
269.6333698269
 20
35.0922476813
 10
270.0481807563
 20
36.1613798492
 10
270.5654414548
 20
37.2089957528
 10
271.1735974298
 20
38.2116934211
 10
271.8590632372
 20
39.1470745042
 10
272.606526565
 20
39.9942437741
 10
273.3992906755
 20
40.7342771577
 10
274.2196463191
 20
41.3506429028
 10
275.049268178
 20
41.8295734076
 10
275.8696238216
 20
42.1603701278
 10
276.6623879321
 20
42.3356427033
 10
277.4098512599
 20
42.351476222
 10
278.0953170673
 20
42.2075171144
 10
278.7034730423
 20
41.9069813888
 10
279.2207337408
 20
41.4565819756
 10
279.6355446702
 20
40.8663803125
 10
279.9386394507
 20
40.1495606538
 10
280.1232479156
 20
39.3221356561
 10
280.1852452712
 20
38.4025880918
 10
280.1232479156
 20
37.4114599042
 10
279.9386394507
 20
36.37089051
 10
279.6355446702
 20
35.3041250665
 10
279.2207337408
 20
34.2349928986
 10
278.7034730423
 20
33.187376995
 10
278.0953170673
 20
32.1846793267
 10
277.4098512599
 20
31.2492982436
 10
276.6623879321
 20
30.4021289737
 10
275.8696238216
 20
29.6620955901
 10
275.049268178
 20
29.045729845
 10
274.2196463191
 20
28.5667993402
 10
273.3992906755
 20
28.23600262
 10
272.606526565
 20
28.0607300445
 10
271.8590632372
 20
28.0448965258
 10
271.1735974298
 20
28.1888556334
 10
270.5654414548
 20
28.489391359
 10
270.0481807563
 20
28.9397907722
 10
269.6333698269
 20
29.5299924353
 10
269.3302750464
 20
30.246812094
 10
269.1456665815
 20
31.0742370917
 10
269.0836692259
 20
31.993784656
  0
LWPOLYLINE
  5
227
330
1F
100
AcDbEntity
  8
0
  6
Continuous
 62
     7
370
    15
100
AcDbPolyline
 90
       23
 70
   128
 43
0.0
 10
268.8715375519
 20
31.9937838957
 10
268.9347202876
 20
33.0038513003
 10
269.1228559169
 20
34.0643039967
 10
269.4317425963
 20
35.1514536749
 10
269.8544797674
 20
36.2410149346
 10
270.3816245605
 20
37.3086490964
 10
271.0014012118
 20
38.3305066775
 10
271.699964811
 20
39.2837608315
 10
272.4617111459
 20
40.1471181607
 10
273.2696235911
 20
40.9012923562
 10
274.1056548167
 20
41.529435963
 10
274.9511293235
 20
42.0175180066
 10
275.7871605491
 20
42.3546355068
 10
276.5950729943
 20
42.5332571654
 10
277.3568193292
 20
42.5493934339
 10
278.0553829284
 20
42.4026836437
 10
278.6751595797
 20
42.0964049527
 10
279.2023043727
 20
41.6373992139
 10
279.6250415438
 20
41.0359199029
 10
279.9339282233
 20
40.3054031937
 10
280.1220638525
 20
39.4621672712
 10
280.1852465883
 20
38.5250491005
 10
280.1852465883
 20
38.5250491005
  0
LWPOLYLINE
  5
228
330
1F
100
AcDbEntity
  8
0
  6
Continuous
 62
     7
370
    15
100
AcDbPolyline
 90
       12
 70
   128
 43
0.0
 10
274.529311468
 20
28.7276212103
 10
274.1056548167
 20
28.5013149895
 10
273.2696235911
 20
28.1641974894
 10
272.4617111459
 20
27.9855758308
 10
271.699964811
 20
27.9694395622
 10
271.0014012118
 20
28.1161493525
 10
270.3816245605
 20
28.4224280435
 10
269.8544797674
 20
28.8814337823
 10
269.4317425963
 20
29.4829130933
 10
269.1228559169
 20
30.2134298025
 10
268.9347202876
 20
31.056665725
 10
268.8715375519
 20
31.9937838957
  0
SPLINE
  5
229
330
1F
100
AcDbEntity
  8
0
  6
Continuous
 62
     7
370
    15
100
AcDbSpline
210
0.0
220
0.0
230
1.0
 70
     8
 71
     3
 72
    42
 73
    38
 74
     0
 42
0.000000001
 43
0.00000001
 40
0.0
 40
0.0
 40
0.0
 40
0.0
 40
0.0312500000000001
 40
0.0312500000000001
 40
0.0625000000000002
 40
0.0625000000000002
 40
0.1249999999999996
 40
0.1249999999999996
 40
0.1874999999999991
 40
0.1874999999999991
 40
0.2499999999999986
 40
0.2499999999999986
 40
0.312499999999998
 40
0.312499999999998
 40
0.3749999999999974
 40
0.3749999999999974
 40
0.4374999999999968
 40
0.4374999999999968
 40
0.4999999999999963
 40
0.4999999999999963
 40
0.5624999999999957
 40
0.5624999999999957
 40
0.6249999999999951
 40
0.6249999999999951
 40
0.6874999999999944
 40
0.6874999999999944
 40
0.7499999999999939
 40
0.7499999999999939
 40
0.7812499999999947
 40
0.7812499999999947
 40
0.8124999999999954
 40
0.8124999999999954
 40
0.874999999999997
 40
0.874999999999997
 40
0.9374999999999986
 40
0.9374999999999986
 40
1.0
 40
1.0
 40
1.0
 40
1.0
 10
273.2025658185538
 20
42.55712619655809
 30
0.0
 10
273.1456674917066
 20
42.52427949163099
 30
0.0
 10
273.0852551048573
 20
42.49241376286863
 30
0.0
 10
272.9572495777132
 20
42.43071688823125
 30
0.0
 10
272.889665300526
 20
42.40094066786653
 30
0.0
 10
272.6819695609397
 20
42.31725195139499
 30
0.0
 10
272.5350904217976
 20
42.26796305950843
 30
0.0
 10
272.2255870878769
 20
42.18315552390474
 30
0.0
 10
272.0682411052304
 20
42.14907736676719
 30
0.0
 10
271.7486948678018
 20
42.09735787793283
 30
0.0
 10
271.5859628818549
 20
42.07988750644819
 30
0.0
 10
271.2675999130444
 20
42.06352927050365
 30
0.0
 10
271.1103357717047
 20
42.06432753515002
 30
0.0
 10
270.7996091727368
 20
42.08517405214486
 30
0.0
 10
270.6502029558468
 20
42.10495437082569
 30
0.0
 10
270.3622782643561
 20
42.1633935762777
 30
0.0
 10
270.2227708343797
 20
42.20244736789714
 30
0.0
 10
269.9597305798558
 20
42.29928892627846
 30
0.0
 10
269.8373079475898
 20
42.35646861722959
 30
0.0
 10
269.6101069629496
 20
42.48816446650077
 30
0.0
 10
269.5045121332917
 20
42.56344522527217
 30
0.0
 10
269.3164143938234
 20
42.72828359474855
 30
0.0
 10
269.2342616979141
 20
42.81717094064707
 30
0.0
 10
269.0936546417479
 20
43.0068863212673
 30
0.0
 10
269.0347843299949
 20
43.10877323929175
 30
0.0
 10
268.9454410988686
 20
43.31871420185382
 30
0.0
 10
268.9148911569871
 20
43.42609751403984
 30
0.0
 10
268.8910607984567
 20
43.58964730611707
 30
0.0
 10
268.8868089353891
 20
43.6445787271168
 30
0.0
 10
268.8861989517946
 20
43.75509891059036
 30
0.0
 10
268.8899162531689
 20
43.81087020598896
 30
0.0
 10
268.9132701156473
 20
43.9746998992102
 30
0.0
 10
268.9448443854337
 20
44.08059634657497
 30
0.0
 10
269.0424478638109
 20
44.28357184705814
 30
0.0
 10
269.1099909940268
 20
44.38186954257953
 30
0.0
 10
269.2763262563206
 20
44.55637731698858
 30
0.0
 10
269.3750378677161
 20
44.63368392994472
 30
0.0
 10
269.4902552173244
 20
44.70019749009271
 30
0.0
  0
SPLINE
  5
22A
330
1F
100
AcDbEntity
  8
0
  6
Continuous
 62
     7
370
    15
100
AcDbSpline
210
0.0
220
0.0
230
1.0
 70
     8
 71
     3
 72
    42
 73
    38
 74
     0
 42
0.000000001
 43
0.00000001
 40
0.0
 40
0.0
 40
0.0
 40
0.0
 40
0.0312499999999993
 40
0.0312499999999993
 40
0.0624999999999986
 40
0.0624999999999986
 40
0.1249999999999979
 40
0.1249999999999979
 40
0.1874999999999972
 40
0.1874999999999972
 40
0.2499999999999964
 40
0.2499999999999964
 40
0.3124999999999957
 40
0.3124999999999957
 40
0.3749999999999948
 40
0.3749999999999948
 40
0.4999999999999931
 40
0.4999999999999931
 40
0.5624999999999936
 40
0.5624999999999936
 40
0.6249999999999941
 40
0.6249999999999941
 40
0.6874999999999946
 40
0.6874999999999946
 40
0.7499999999999951
 40
0.7499999999999951
 40
0.8124999999999954
 40
0.8124999999999954
 40
0.8437499999999957
 40
0.8437499999999957
 40
0.8749999999999959
 40
0.8749999999999959
 40
0.9374999999999976
 40
0.9374999999999976
 40
0.9687499999999988
 40
0.9687499999999988
 40
1.0
 40
1.0
 40
1.0
 40
1.0
 10
269.4902552173244
 20
44.70019749009271
 30
0.0
 10
269.5478647731539
 20
44.7334547787718
 30
0.0
 10
269.6094017778113
 20
44.76377573676503
 30
0.0
 10
269.7370635723634
 20
44.8172171191706
 30
0.0
 10
269.8036002331601
 20
44.84058714714849
 30
0.0
 10
270.0111244119585
 20
44.90103591314575
 30
0.0
 10
270.1614244190796
 20
44.92839193914563
 30
0.0
 10
270.4682598871618
 20
44.95730158942017
 30
0.0
 10
270.627385181226
 20
44.95940961884597
 30
0.0
 10
270.9491451789321
 20
44.94231148624349
 30
0.0
 10
271.1098467231403
 20
44.92339029995045
 30
0.0
 10
271.43123705626
 20
44.86836655585956
 30
0.0
 10
271.5886987202865
 20
44.83276241524545
 30
0.0
 10
271.894689124645
 20
44.74951409563212
 30
0.0
 10
272.0438177271072
 20
44.70173667432662
 30
0.0
 10
272.4799112907132
 20
44.54217970542178
 30
0.0
 10
272.7414413493011
 20
44.42009327293281
 30
0.0
 10
273.0853774184068
 20
44.22089004614167
 30
0.0
 10
273.1891263300299
 20
44.15325052890518
 30
0.0
 10
273.3754951823092
 20
44.01519980353714
 30
0.0
 10
273.4584475314211
 20
43.94446053084312
 30
0.0
 10
273.6003169464155
 20
43.80035609127754
 30
0.0
 10
273.6579528658832
 20
43.72841251071169
 30
0.0
 10
273.7466368230448
 20
43.58308466723331
 30
0.0
 10
273.777807757532
 20
43.50925940282287
 30
0.0
 10
273.8098841897833
 20
43.359852710816
 30
0.0
 10
273.810627052507
 20
43.28584396110045
 30
0.0
 10
273.7878188936035
 20
43.17429384378686
 30
0.0
 10
273.7761995683214
 20
43.13702210732131
 30
0.0
 10
273.7443376043158
 20
43.06203110397816
 30
0.0
 10
273.7239042149628
 20
43.02405259795191
 30
0.0
 10
273.6499800639759
 20
42.91149239363884
 30
0.0
 10
273.5842220729245
 20
42.8380812412217
 30
0.0
 10
273.4590105891037
 20
42.7295433975002
 30
0.0
 10
273.4125129459097
 20
42.6934718936267
 30
0.0
 10
273.3128498484831
 20
42.62380170684633
 30
0.0
 10
273.2594650155627
 20
42.5899734038189
 30
0.0
 10
273.2025658185538
 20
42.55712619655809
 30
0.0
  0
LWPOLYLINE
  5
22B
330
1F
100
AcDbEntity
  8
0
  6
Continuous
 62
     7
370
    15
100
AcDbPolyline
 90
       39
 70
   128
 43
0.0
 10
269.8614863517
 20
32.442808925
 10
269.9265834763
 20
33.3875765323
 10
270.1200990849
 20
34.3817328999
 10
270.436754614
 20
35.3981599409
 10
270.8679125937
 20
36.409132084
 10
271.4018120777
 20
37.3870731965
 10
272.0238896836
 20
38.3053068463
 10
272.7171766949
 20
39.1387864988
 10
273.462762183
 20
39.8647767536
 10
274.2403084412
 20
40.463474475
 10
275.0286060559
 20
40.9185490014
 10
275.8061523141
 20
41.217587081
 10
276.5517378022
 20
41.3524315073
 10
277.2450248135
 20
41.3194039999
 10
277.8671024194
 20
41.1194058658
 10
278.4010019034
 20
40.7578919765
 10
278.8321598831
 20
40.2447242408
 10
279.1488154122
 20
39.5938998915
 10
279.3423310207
 20
38.8231718898
 10
279.4074281454
 20
37.9535638228
 10
279.3423310207
 20
37.0087962155
 10
279.1488154122
 20
36.0146398479
 10
278.8321598831
 20
34.9982128069
 10
278.4010019034
 20
33.9872406638
 10
277.8671024194
 20
33.0092995513
 10
277.2450248135
 20
32.0910659015
 10
276.5517378022
 20
31.257586249
 10
275.8061523141
 20
30.5315959942
 10
275.0286060559
 20
29.9328982728
 10
274.2403084412
 20
29.4778237464
 10
273.462762183
 20
29.1787856668
 10
272.7171766949
 20
29.0439412405
 10
272.0238896836
 20
29.0769687479
 10
271.4018120777
 20
29.276966882
 10
270.8679125937
 20
29.6384807713
 10
270.436754614
 20
30.151648507
 10
270.1200990849
 20
30.8024728563
 10
269.9265834763
 20
31.573200858
 10
269.8614863517
 20
32.442808925
  0
SPLINE
  5
22C
330
1F
100
AcDbEntity
  8
0
  6
Continuous
 62
     7
370
    15
100
AcDbSpline
210
0.0
220
0.0
230
1.0
 70
     8
 71
     3
 72
    12
 73
     8
 74
     0
 42
0.000000001
 43
0.00000001
 40
0.0
 40
0.0
 40
0.0
 40
0.0
 40
0.2499999999999992
 40
0.2499999999999992
 40
0.4999999999999984
 40
0.4999999999999984
 40
1.0
 40
1.0
 40
1.0
 40
1.0
 10
234.9023888779629
 20
44.69499589104988
 30
0.0
 10
234.9363203702524
 20
44.6754076574984
 30
0.0
 10
234.9747520792797
 20
44.64822046856199
 30
0.0
 10
235.0489289319446
 20
44.58899654102617
 30
0.0
 10
235.0841452122001
 20
44.5575638620094
 30
0.0
 10
235.179244129458
 20
44.46557114520742
 30
0.0
 10
235.2277732862199
 20
44.40871447968277
 30
0.0
 10
235.261114882375
 20
44.36048567368044
 30
0.0
  0
ARC
  5
22D
330
1F
100
AcDbEntity
  8
0
  6
Continuous
 62
     7
370
    15
100
AcDbCircle
 10
258.9776816383
 20
59.965514796
 30
0.0
 40
10.86942928536178
100
AcDbArc
 50
73.9805689162
 51
106.2233053919
  0
SPLINE
  5
22E
330
1F
100
AcDbEntity
  8
0
  6
Continuous
 62
     7
370
    15
100
AcDbSpline
210
0.0
220
0.0
230
1.0
 70
     8
 71
     3
 72
    14
 73
    10
 74
     0
 42
0.000000001
 43
0.00000001
 40
0.0
 40
0.0
 40
0.0
 40
0.0
 40
0.25
 40
0.25
 40
0.5
 40
0.5
 40
0.75
 40
0.75
 40
1.0
 40
1.0
 40
1.0
 40
1.0
 10
262.1893777015733
 20
69.97930161189176
 30
0.0
 10
262.1893777015733
 20
70.01604273016873
 30
0.0
 10
262.1851104089661
 20
70.05444187103372
 30
0.0
 10
262.167516148659
 20
70.13476021743371
 30
0.0
 10
262.1542397142787
 20
70.17600709976405
 30
0.0
 10
262.1179652312615
 20
70.25698452806387
 30
0.0
 10
262.0949331297264
 20
70.29657974535498
 30
0.0
 10
262.0402731165956
 20
70.36575839992085
 30
0.0
 10
262.0088334827796
 20
70.39462832887125
 30
0.0
 10
261.9772456672176
 20
70.41286358664681
 30
0.0
  0
LWPOLYLINE
  5
22F
330
1F
100
AcDbEntity
  8
0
  6
Continuous
 62
     7
370
    15
100
AcDbPolyline
 90
       17
 70
   128
 43
0.0
 10
235.3412908494
 20
44.7244523735
 10
235.7152413969
 20
46.2164580247
 10
236.2854671839
 20
48.0888999003
 10
236.9676376346
 20
49.9641586728
 10
237.7567741527
 20
51.8285563633
 10
238.6471250104
 20
53.668499477
 10
239.6321956418
 20
55.4705687345
 10
240.7048033019
 20
57.2216236309
 10
241.8571251405
 20
58.9088933061
 10
243.0807581297
 20
60.5200742591
 10
244.3667789914
 20
62.0434158942
 10
245.7058093933
 20
63.4678098691
 10
247.0880844374
 20
64.782869177
 10
248.5035241122
 20
65.9790028553
 10
249.9418057325
 20
67.0474882225
 10
251.3924408658
 20
67.980533538
 10
251.8343003378
 20
68.2362858309
  0
LWPOLYLINE
  5
230
330
1F
100
AcDbEntity
  8
0
  6
Continuous
 62
     7
370
    15
100
AcDbPolyline
 90
       12
 70
   128
 43
0.0
 10
244.9133498596
 20
65.5369904141
 10
246.3637068813
 20
66.8095937248
 10
247.8413388409
 20
67.9507427619
 10
249.3350645993
 20
68.9518017838
 10
250.8335811043
 20
69.8051962385
 10
252.3255488369
 20
70.5044696957
 10
253.7996779983
 20
71.0443275174
 10
255.2448134205
 20
71.4206873974
 10
256.6500199722
 20
71.6306997665
 10
258.0046644644
 20
71.6727753046
 10
259.298495664
 20
71.5465976704
 10
260.5217236483
 20
71.2531191216
  0
LINE
  5
231
330
1F
100
AcDbEntity
  8
0
  6
Continuous
 62
     7
370
    15
100
AcDbLine
 10
261.9772456346
 20
70.4128641642
 30
0.0
 11
260.5217236483
 21
71.2531191216
 31
0.0
  0
LINE
  5
232
330
1F
100
AcDbEntity
  8
0
  6
Continuous
 62
     7
370
    15
100
AcDbLine
 10
233.4468667292
 20
45.5352510335
 30
0.0
 11
234.9023887155
 21
44.6949960762
 31
0.0
  0
ARC
  5
233
330
1F
100
AcDbEntity
  8
0
  6
Continuous
 62
     7
370
    15
100
AcDbCircle
 10
272.7795906009
 20
36.3041501686
 30
0.0
 40
40.40144044883903
100
AcDbArc
 50
136.9528122493
 51
166.7921386576
  0
SPLINE
  5
234
330
1F
100
AcDbEntity
  8
0
  6
Continuous
 62
     7
370
    15
100
AcDbSpline
210
0.0
220
0.0
230
1.0
 70
     8
 71
     3
 72
    34
 73
    30
 74
     0
 42
0.000000001
 43
0.00000001
 40
0.0
 40
0.0
 40
0.0
 40
0.0
 40
0.0624999999999989
 40
0.0624999999999989
 40
0.1249999999999978
 40
0.1249999999999978
 40
0.1874999999999968
 40
0.1874999999999968
 40
0.2499999999999962
 40
0.2499999999999962
 40
0.3124999999999957
 40
0.3124999999999957
 40
0.3749999999999952
 40
0.3749999999999952
 40
0.499999999999995
 40
0.499999999999995
 40
0.6249999999999948
 40
0.6249999999999948
 40
0.6874999999999954
 40
0.6874999999999954
 40
0.749999999999996
 40
0.749999999999996
 40
0.8124999999999966
 40
0.8124999999999966
 40
0.8749999999999977
 40
0.8749999999999977
 40
0.9374999999999989
 40
0.9374999999999989
 40
1.0
 40
1.0
 40
1.0
 40
1.0
 10
243.2545504924951
 20
63.88219278208219
 30
0.0
 10
243.3136759061384
 20
63.85261529822396
 30
0.0
 10
243.3764886015689
 20
63.82893927602844
 30
0.0
 10
243.5091976044935
 20
63.7928597656087
 30
0.0
 10
243.5798093008646
 20
63.78041187546945
 30
0.0
 10
243.7250572708419
 20
63.76770198174407
 30
0.0
 10
243.7990397006041
 20
63.76735980184674
 30
0.0
 10
243.949721765429
 20
63.77836614666935
 30
0.0
 10
244.0271697852291
 20
63.78995281065483
 30
0.0
 10
244.1791023712042
 20
63.82412735339364
 30
0.0
 10
244.2540584517887
 20
63.84663975578363
 30
0.0
 10
244.4019935186974
 20
63.90245182838169
 30
0.0
 10
244.4749222317877
 20
63.93589667458799
 30
0.0
 10
244.6815347577977
 20
64.04825893390729
 30
0.0
 10
244.808459933847
 20
64.14229633492803
 30
0.0
 10
245.0175666864739
 20
64.35089765010393
 30
0.0
 10
245.1021150696718
 20
64.46782174424764
 30
0.0
 10
245.1870886264458
 20
64.6463469942203
 30
0.0
 10
245.2090483270437
 20
64.70756357314698
 30
0.0
 10
245.2381594237835
 20
64.82836955566081
 30
0.0
 10
245.2455138865633
 20
64.88797008210598
 30
0.0
 10
245.2458568216077
 20
65.00571137223925
 30
0.0
 10
245.2386167787723
 20
65.06416276037633
 30
0.0
 10
245.2100049282504
 20
65.1749253847678
 30
0.0
 10
245.1887215866909
 20
65.22783782949043
 30
0.0
 10
245.1318934200839
 20
65.32875603679967
 30
0.0
 10
245.0964359311099
 20
65.37627105143079
 30
0.0
 10
245.0140309782234
 20
65.46253102931422
 30
0.0
 10
244.9668260756475
 20
65.50177658173428
 30
0.0
 10
244.9133499297586
 20
65.5369897098479
 30
0.0
  0
LINE
  5
235
330
1F
100
AcDbEntity
  8
0
  6
Continuous
 62
     7
370
    15
100
AcDbLine
 10
267.8992769283
 20
63.1099980557
 30
0.0
 11
268.0035587682
 21
63.2906198804
 31
0.0
  0
LINE
  5
236
330
1F
100
AcDbEntity
  8
0
  6
Continuous
 62
     7
370
    15
100
AcDbLine
 10
265.6011686468
 20
61.7833283837
 30
0.0
 11
267.8992769283
 21
63.1099980557
 31
0.0
  0
ARC
  5
237
330
1F
100
AcDbEntity
  8
0
  6
Continuous
 62
     7
370
    15
100
AcDbCircle
 10
266.4292717444
 20
60.4887261007
 30
0.0
 40
1.536798559128353
100
AcDbArc
 50
122.6053519586
 51
177.394632491
  0
LINE
  5
238
330
1F
100
AcDbEntity
  8
0
  6
Continuous
 62
     7
370
    15
100
AcDbLine
 10
264.8940617497
 20
51.699115727
 30
0.0
 11
264.8940617497
 21
60.5585836954
 31
0.0
  0
ARC
  5
239
330
1F
100
AcDbEntity
  8
0
  6
Continuous
 62
     7
370
    15
100
AcDbCircle
 10
265.3251352328
 20
51.62918718
 30
0.0
 40
0.4367085406723743
100
AcDbArc
 50
170.7857695821
 51
309.2035248725
  0
LINE
  5
23A
330
1F
100
AcDbEntity
  8
0
  6
Continuous
 62
     7
370
    15
100
AcDbLine
 10
267.8992769283
 20
52.6174489563
 30
0.0
 11
265.6011686468
 21
51.2907792843
 31
0.0
  0
LINE
  5
23B
330
1F
100
AcDbEntity
  8
0
  6
Continuous
 62
     7
370
    15
100
AcDbLine
 10
268.0035587682
 20
52.5572283811
 30
0.0
 11
267.8992769283
 21
52.6174489563
 31
0.0
  0
LINE
  5
23C
330
1F
100
AcDbEntity
  8
0
  6
Continuous
 62
     7
370
    15
100
AcDbLine
 10
235.3066224323
 20
33.8021100115
 30
0.0
 11
235.2611143726
 21
33.6837413885
 31
0.0
  0
LINE
  5
23D
330
1F
100
AcDbEntity
  8
0
  6
Continuous
 62
     7
370
    15
100
AcDbLine
 10
235.3066224323
 20
33.8021100115
 30
0.0
 11
238.4482669595
 21
35.6157427928
 31
0.0
  0
ARC
  5
23E
330
1F
100
AcDbEntity
  8
0
  6
Continuous
 62
     7
370
    15
100
AcDbCircle
 10
237.6201638619
 20
36.9103450758
 30
0.0
 40
1.536798559128181
100
AcDbArc
 50
302.6053519586
 51
357.394632491
  0
LINE
  5
23F
330
1F
100
AcDbEntity
  8
0
  6
Continuous
 62
     7
370
    15
100
AcDbLine
 10
239.1553738566
 20
45.6999554495
 30
0.0
 11
239.1553738566
 21
36.8404874811
 31
0.0
  0
ARC
  5
240
330
1F
100
AcDbEntity
  8
0
  6
Continuous
 62
     7
370
    15
100
AcDbCircle
 10
238.7243003735
 20
45.7698839965
 30
0.0
 40
0.4367085406723172
100
AcDbArc
 50
350.7857695821
 51
129.2035248725
  0
LINE
  5
241
330
1F
100
AcDbEntity
  8
0
  6
Continuous
 62
     7
370
    15
100
AcDbLine
 10
238.4482669595
 20
46.1082918922
 30
0.0
 11
235.3066224323
 21
44.2946591108
 31
0.0
  0
LINE
  5
242
330
1F
100
AcDbEntity
  8
0
  6
Continuous
 62
     7
370
    15
100
AcDbLine
 10
235.2611143726
 20
44.3604852466
 30
0.0
 11
235.3066224323
 21
44.2946591108
 31
0.0
  0
LINE
  5
243
330
1F
100
AcDbEntity
  8
0
  6
Continuous
 62
     7
370
    15
100
AcDbLine
 10
262.1893779671
 20
66.7543408263
 30
0.0
 11
262.1893779671
 21
69.9793019693
 31
0.0
  0
LINE
  5
244
330
1F
100
AcDbEntity
  8
0
  6
Continuous
 62
     7
370
    15
100
AcDbLine
 10
264.9821249555
 20
68.3665593457
 30
0.0
 11
262.1893779671
 21
66.7543408263
 31
0.0
  0
SPLINE
  5
245
330
1F
100
AcDbEntity
  8
0
  6
Continuous
 62
     7
370
    15
100
AcDbSpline
210
0.0
220
0.0
230
1.0
 70
     8
 71
     3
 72
    22
 73
    18
 74
     0
 42
0.000000001
 43
0.00000001
 40
0.0
 40
0.0
 40
0.0
 40
0.0
 40
0.1249999999999998
 40
0.1249999999999998
 40
0.2499999999999997
 40
0.2499999999999997
 40
0.3749999999999995
 40
0.3749999999999995
 40
0.4999999999999993
 40
0.4999999999999993
 40
0.6249999999999991
 40
0.6249999999999991
 40
0.7499999999999994
 40
0.7499999999999994
 40
0.8749999999999997
 40
0.8749999999999997
 40
1.0
 40
1.0
 40
1.0
 40
1.0
 10
271.5827374682054
 20
29.74293266850264
 30
0.0
 10
271.5343601662065
 20
29.71102521645817
 30
0.0
 10
271.4856683616817
 20
29.68721060062296
 30
0.0
 10
271.3878928802934
 20
29.65553216523239
 30
0.0
 10
271.3385028477166
 20
29.64767236939221
 30
0.0
 10
271.2408403979931
 20
29.6490758030587
 30
0.0
 10
271.193415121244
 20
29.65821778219091
 30
0.0
 10
271.1014354012975
 20
29.69305666336814
 30
0.0
 10
271.056464650874
 20
29.71911612675082
 30
0.0
 10
270.9717788553559
 20
29.78720194338424
 30
0.0
 10
270.932310385401
 20
29.82880304131677
 30
0.0
 10
270.8589525338138
 20
29.92677854338628
 30
0.0
 10
270.8247896105701
 20
29.9838493242495
 30
0.0
 10
270.7643281482414
 20
30.10915381018724
 30
0.0
 10
270.7378144721409
 20
30.17743690007239
 30
0.0
 10
270.6918780138364
 20
30.32502981143689
 30
0.0
 10
270.6724524591444
 20
30.40466682433106
 30
0.0
 10
270.6569905525656
 20
30.48796540569193
 30
0.0
  0
LWPOLYLINE
  5
246
330
1F
100
AcDbEntity
  8
0
  6
Continuous
 62
     7
370
    15
100
AcDbPolyline
 90
        9
 70
   128
 43
0.0
 10
277.3679786951
 20
33.082681235
 10
276.7285928933
 20
32.1839537516
 10
276.0181748344
 20
31.3831434813
 10
275.2591203825
 20
30.7054964984
 10
274.4753581638
 20
30.1723740992
 10
273.6915959451
 20
29.8005839023
 10
272.9325414932
 20
29.6018452694
 10
272.2221234343
 20
29.5824243081
 10
271.5827376324
 20
29.742932658
  0
SPLINE
  5
247
330
1F
100
AcDbEntity
  8
0
  6
Continuous
 62
     7
370
    15
100
AcDbSpline
210
0.0
220
0.0
230
1.0
 70
     8
 71
     3
 72
    22
 73
    18
 74
     0
 42
0.000000001
 43
0.00000001
 40
0.0
 40
0.0
 40
0.0
 40
0.0
 40
0.125
 40
0.125
 40
0.25
 40
0.25
 40
0.375
 40
0.375
 40
0.5
 40
0.5
 40
0.625
 40
0.625
 40
0.75
 40
0.75
 40
0.875
 40
0.875
 40
1.0
 40
1.0
 40
1.0
 40
1.0
 10
278.2937254968136
 20
34.89655864946058
 30
0.0
 10
278.3086644291191
 20
34.81297626950236
 30
0.0
 10
278.316248419956
 20
34.72794895032552
 30
0.0
 10
278.3170251704682
 20
34.55495751038762
 30
0.0
 10
278.3101277770406
 20
34.46643843202761
 30
0.0
 10
278.2813504148392
 20
34.28864180294919
 30
0.0
 10
278.2598177421693
 20
34.20092145772703
 30
0.0
 10
278.2027918243116
 20
34.02775205583769
 30
0.0
 10
278.166857664779
 20
33.94148306267037
 30
0.0
 10
278.0822330037832
 20
33.77556499869922
 30
0.0
 10
278.0339913749754
 20
33.69644015207864
 30
0.0
 10
277.9259008339839
 20
33.54569634625658
 30
0.0
 10
277.8653534609117
 20
33.47345713527216
 30
0.0
 10
277.7364967182668
 20
33.3415261978179
 30
0.0
 10
277.6680827510691
 20
33.28143338503941
 30
0.0
 10
277.5233656414922
 20
33.17279066681782
 30
0.0
 10
277.4467691564585
 20
33.12418549377312
 30
0.0
 10
277.3679785811738
 20
33.08268127447139
 30
0.0
  0
LWPOLYLINE
  5
248
330
1F
100
AcDbEntity
  8
0
  6
Continuous
 62
     7
370
    15
100
AcDbPolyline
 90
        9
 70
   128
 43
0.0
 10
278.2937256616
 20
40.0920992813
 10
278.5584967738
 20
39.6368149621
 10
278.7510370779
 20
39.1046359909
 10
278.8679409112
 20
38.5049769327
 10
278.9071401145
 20
37.8484455833
 10
278.8679409112
 20
37.1466557972
 10
278.7510370779
 20
36.4120224461
 10
278.5584967738
 20
35.6575411715
 10
278.2937256616
 20
34.8965586332
  0
SPLINE
  5
249
330
1F
100
AcDbEntity
  8
0
  6
Continuous
 62
     7
370
    15
100
AcDbSpline
210
0.0
220
0.0
230
1.0
 70
     8
 71
     3
 72
    22
 73
    18
 74
     0
 42
0.000000001
 43
0.00000001
 40
0.0
 40
0.0
 40
0.0
 40
0.0
 40
0.1249999999999998
 40
0.1249999999999998
 40
0.2499999999999997
 40
0.2499999999999997
 40
0.3749999999999995
 40
0.3749999999999995
 40
0.4999999999999993
 40
0.4999999999999993
 40
0.6249999999999991
 40
0.6249999999999991
 40
0.7499999999999994
 40
0.7499999999999994
 40
0.8749999999999997
 40
0.8749999999999997
 40
1.0
 40
1.0
 40
1.0
 40
1.0
 10
277.3679785811738
 20
40.83713213316067
 30
0.0
 10
277.4467536861562
 20
40.85149130706833
 30
0.0
 10
277.5221341282705
 20
40.85989890037084
 30
0.0
 10
277.6663223956869
 20
40.86478380470373
 30
0.0
 10
277.7355348244037
 20
40.86120037482819
 30
0.0
 10
277.8651902517051
 20
40.84132778833292
 30
0.0
 10
277.9245573207141
 20
40.82529195926886
 30
0.0
 10
278.032635380083
 20
40.78115970455811
 30
0.0
 10
278.0817507715531
 20
40.75270759082821
 30
0.0
 10
278.1664646436612
 20
40.68460556592432
 30
0.0
 10
278.2019095018465
 20
40.64532724962465
 30
0.0
 10
278.259271593771
 20
40.55658590305389
 30
0.0
 10
278.2812655235381
 20
40.50654013259311
 30
0.0
 10
278.3099625257713
 20
40.39957287914957
 30
0.0
 10
278.3169331097883
 20
40.34257177618033
 30
0.0
 10
278.3163545208834
 20
40.22183142999695
 30
0.0
 10
278.3086673629114
 20
40.15784625296497
 30
0.0
 10
278.2937254968136
 20
40.09209939597138
 30
0.0
  0
LWPOLYLINE
  5
24A
330
1F
100
AcDbEntity
  8
0
  6
Continuous
 62
     7
370
    15
100
AcDbPolyline
 90
        9
 70
   128
 43
0.0
 10
271.5827376324
 20
37.4973834061
 10
272.2221234343
 20
38.3961108895
 10
272.9325414932
 20
39.1969211598
 10
273.6915959451
 20
39.8745681427
 10
274.4753581638
 20
40.4076905419
 10
275.2591203825
 20
40.7794807387
 10
276.0181748344
 20
40.9782193717
 10
276.7285928933
 20
40.997640333
 10
277.3679786951
 20
40.8371319831
  0
SPLINE
  5
24B
330
1F
100
AcDbEntity
  8
0
  6
Continuous
 62
     7
370
    15
100
AcDbSpline
210
0.0
220
0.0
230
1.0
 70
     8
 71
     3
 72
    22
 73
    18
 74
     0
 42
0.000000001
 43
0.00000001
 40
0.0
 40
0.0
 40
0.0
 40
0.0
 40
0.125
 40
0.125
 40
0.25
 40
0.25
 40
0.375
 40
0.375
 40
0.5
 40
0.5
 40
0.625
 40
0.625
 40
0.75
 40
0.75
 40
0.875
 40
0.875
 40
1.0
 40
1.0
 40
1.0
 40
1.0
 10
270.6569905525656
 20
35.68350615220272
 30
0.0
 10
270.6724494232437
 20
35.74954025402414
 30
0.0
 10
270.6915540699962
 20
35.81916055066826
 30
0.0
 10
270.7371901055121
 20
35.96535845954848
 30
0.0
 10
270.7639098950797
 20
36.0424343121928
 30
0.0
 10
270.824680234859
 20
36.20176178844245
 30
0.0
 10
270.8581546997887
 20
36.28258828373272
 30
0.0
 10
270.9312789570688
 20
36.44646431208856
 30
0.0
 10
270.9713577576481
 20
36.53034065490865
 30
0.0
 10
271.056010495234
 20
36.69624251060934
 30
0.0
 10
271.100228512272
 20
36.77769013886277
 30
0.0
 10
271.1923232936009
 20
36.93766810018359
 30
0.0
 10
271.2407016731966
 20
37.01693232157045
 30
0.0
 10
271.3377939557458
 20
37.1672004915189
 30
0.0
 10
271.3866648308601
 20
37.23857529121329
 30
0.0
 10
271.4848668932275
 20
37.37407057461602
 30
0.0
 10
271.5343506655973
 20
37.43832758352291
 30
0.0
 10
271.5827374682054
 20
37.49738352719192
 30
0.0
  0
LWPOLYLINE
  5
24C
330
1F
100
AcDbEntity
  8
0
  6
Continuous
 62
     7
370
    15
100
AcDbPolyline
 90
        9
 70
   128
 43
0.0
 10
270.6569906659
 20
30.4879653598
 10
270.3922195538
 20
30.943249679
 10
270.1996792496
 20
31.4754286502
 10
270.0827754164
 20
32.0750877084
 10
270.0435762131
 20
32.7316190578
 10
270.0827754164
 20
33.4334088439
 10
270.1996792496
 20
34.168042195
 10
270.3922195538
 20
34.9225234695
 10
270.6569906659
 20
35.6835060079
  0
SPLINE
  5
24D
330
1F
100
AcDbEntity
  8
0
  6
Continuous
 62
     7
370
    15
100
AcDbSpline
210
0.0
220
0.0
230
1.0
 70
     8
 71
     3
 72
     8
 73
     4
 74
     0
 42
0.000000001
 43
0.00000001
 40
0.0
 40
0.0
 40
0.0
 40
0.0
 40
1.0
 40
1.0
 40
1.0
 40
1.0
 10
232.3743124057344
 20
46.62676481858136
 30
0.0
 10
232.0872452760621
 20
46.57931281885801
 30
0.0
 10
231.8001321574766
 20
46.53195538615522
 30
0.0
 10
231.5129773310789
 20
46.48468371724314
 30
0.0
  0
SPLINE
  5
24E
330
1F
100
AcDbEntity
  8
0
  6
Continuous
 62
     7
370
    15
100
AcDbSpline
210
0.0
220
0.0
230
1.0
 70
     8
 71
     3
 72
     8
 73
     4
 74
     0
 42
0.000000001
 43
0.00000001
 40
0.0
 40
0.0
 40
0.0
 40
0.0
 40
0.0011862984959113
 40
0.0011862984959113
 40
0.0011862984959113
 40
0.0011862984959113
 10
231.1606762438035
 20
46.85504061690533
 30
0.0
 10
231.278387111648
 20
46.73149066579288
 30
0.0
 10
231.395826862084
 20
46.60803561667759
 30
0.0
 10
231.5129773310789
 20
46.48468371724314
 30
0.0
  0
LWPOLYLINE
  5
24F
330
1F
100
AcDbEntity
  8
0
  6
Continuous
 62
     7
370
    15
100
AcDbPolyline
 90
       23
 70
   128
 43
0.0
 10
231.1606764569
 20
46.8550405852
 10
231.6554778243
 20
48.8014548205
 10
232.2752011335
 20
50.7631164021
 10
233.0150179363
 20
52.7247340151
 10
233.8691606999
 20
54.6710183338
 10
234.8309702221
 20
56.5867972273
 10
235.8929509495
 20
58.4571389497
 10
237.0468249775
 20
60.2674624018
 10
238.2835979053
 20
62.0036595596
 10
239.5936286412
 20
63.6521950881
 10
240.9667064527
 20
65.2002192635
 10
242.3921280159
 20
66.6356656846
 10
243.858782697
 20
67.9473446121
 10
245.3552386575
 20
69.1250337409
 10
246.8698306867
 20
70.1595517186
 10
248.3907532219
 20
71.042834659
 10
249.9061508157
 20
71.7679974927
 10
251.4042114845
 20
72.3293893779
 10
252.8732579993
 20
72.7226327125
 10
254.3018395883
 20
72.9446623846
 10
255.6788199345
 20
72.9937476749
 10
256.9934670675
 20
72.8695076481
 10
258.235533376
 20
72.5729086733
  0
LINE
  5
250
330
1F
100
AcDbEntity
  8
0
  6
Continuous
 62
     7
370
    15
100
AcDbLine
 10
258.5459775132
 20
71.5960785423
 30
0.0
 11
258.235533376
 21
72.5729086733
 31
0.0
  0
LWPOLYLINE
  5
251
330
1F
100
AcDbEntity
  8
0
  6
Continuous
 62
     7
370
    15
100
AcDbPolyline
 90
       22
 70
   128
 43
0.0
 10
232.3743124112
 20
46.6267647929
 10
232.8488213881
 20
48.5236934294
 10
233.4482654778
 20
50.4366568704
 10
234.1677490603
 20
52.3500356673
 10
235.0013966017
 20
54.2482051406
 10
235.942402703
 20
56.1156684554
 10
236.9830834668
 20
57.9371767705
 10
238.1149410348
 20
59.69785775
 10
239.328734052
 20
61.3833345694
 10
240.614552082
 20
62.9798449211
 10
241.9618966083
 20
64.4743546956
 10
243.3597649985
 20
65.8546596861
 10
244.7967446763
 20
67.109488622
 10
246.2611023542
 20
68.2285972681
 10
247.7408810454
 20
69.2028487627
 10
249.223998475
 20
70.024285639
 10
250.6983446267
 20
70.6862028675
 10
252.1518814306
 20
71.1831962789
 10
253.5727405974
 20
71.5112053544
 10
254.9493208778
 20
71.6675541632
 10
256.2703815757
 20
71.6509642812
 10
256.5653436608
 20
71.6226580309
  0
ARC
  5
252
330
1F
100
AcDbEntity
  8
0
  6
Continuous
 62
     7
370
    15
100
AcDbCircle
 10
277.8202025232
 20
39.6114357008
 30
0.0
 40
1.306460013516409
100
AcDbArc
 50
110.2516703451
 51
120.2336532865
  0
LINE
  5
253
330
1F
100
AcDbEntity
  8
0
  6
Continuous
 62
     7
370
    15
100
AcDbLine
 10
276.7405155123
 20
40.4966620411
 30
0.0
 11
277.1623639776
 21
40.7401899765
 31
0.0
  0
LWPOLYLINE
  5
254
330
1F
100
AcDbEntity
  8
0
  6
Continuous
 62
     7
370
    15
100
AcDbPolyline
 90
        9
 70
   128
 43
0.0
 10
272.2102008152
 20
37.8813670347
 10
272.7318515361
 20
38.52505173
 10
273.2914820827
 20
39.0982654709
 10
273.8769018497
 20
39.5885220539
 10
274.4753581638
 20
39.985141998
 10
275.0738144778
 20
40.2794850065
 10
275.6592342448
 20
40.4651396993
 10
276.2188647915
 20
40.5380616343
 10
276.7405155123
 20
40.4966620411
  0
LINE
  5
255
330
1F
100
AcDbEntity
  8
0
  6
Continuous
 62
     7
370
    15
100
AcDbLine
 10
271.78835235
 20
37.6378390993
 30
0.0
 11
272.2102008152
 21
37.8813670347
 31
0.0
  0
ARC
  5
256
330
1F
100
AcDbEntity
  8
0
  6
Continuous
 62
     7
370
    15
100
AcDbCircle
 10
272.6510819876
 20
36.1541504502
 30
0.0
 40
1.716285068158551
100
AcDbArc
 50
120.1769820595
 51
128.4970899924
  0
LWPOLYLINE
  5
257
330
1F
100
AcDbEntity
  8
0
  6
Continuous
 62
     7
370
    15
100
AcDbPolyline
 90
       22
 70
   128
 43
0.0
 10
274.8899583589
 20
40.2000104604
 10
275.3085923038
 20
40.1668103388
 10
275.8155243903
 20
39.9790417466
 10
276.2315528039
 20
39.6338233749
 10
276.5406900595
 20
39.1444218582
 10
276.7310555204
 20
38.5296442259
 10
276.7953344035
 20
37.8131166076
 10
276.7310555204
 20
37.0223741707
 10
276.5406900595
 20
36.1878052556
 10
276.2315528039
 20
35.3414814608
 10
275.8155243903
 20
34.515926907
 10
275.3085923038
 20
33.7428669861
 10
274.7302376081
 20
33.0520096343
 10
274.1026861392
 20
32.4699048746
 10
273.4500544142
 20
32.0189217176
 10
272.7974226893
 20
31.716392324
 10
272.1698712203
 20
31.5739415802
 10
271.5915165246
 20
31.5970448138
 10
271.0845844382
 20
31.784813406
 10
270.6685560246
 20
32.1300317777
 10
270.3594187689
 20
32.6194332945
 10
270.1820447448
 20
33.169863663
  0
LINE
  5
258
330
1F
100
AcDbEntity
  8
0
  6
Continuous
 62
     7
370
    15
100
AcDbLine
 10
270.7630486004
 20
30.4317699203
 30
0.0
 11
271.9070256923
 21
31.0921738384
 31
0.0
  0
LWPOLYLINE
  5
259
330
1F
100
AcDbEntity
  8
0
  6
Continuous
 62
     7
370
    15
100
AcDbPolyline
 90
        3
 70
   128
 43
0.0
 10
277.2472757186
 20
40.4150664245
 10
277.2680225048
 20
40.7136144141
 10
277.2638532595
 20
40.7935103674
  0
ARC
  5
25A
330
1F
100
AcDbEntity
  8
0
  6
Continuous
 62
     7
370
    15
100
AcDbCircle
 10
272.1837175243
 20
38.0740167754
 30
0.0
 40
5.578542376498955
100
AcDbArc
 50
335.1873452281
 51
24.812654772
  0
ARC
  5
25B
330
1F
100
AcDbEntity
  8
0
  6
Continuous
 62
     7
370
    15
100
AcDbCircle
 10
274.8923776231
 20
35.5422728261
 30
0.0
 40
2.362606475190286
100
AcDbArc
 50
301.7912526661
 51
4.6295804276
  0
LINE
  5
25C
330
1F
100
AcDbEntity
  8
0
  6
Continuous
 62
     7
370
    15
100
AcDbLine
 10
274.9930831362
 20
32.8737168795
 30
0.0
 11
276.137060228
 21
33.5341207976
 31
0.0
  0
ARC
  5
25D
330
1F
100
AcDbEntity
  8
0
  6
Continuous
 62
     7
370
    15
100
AcDbCircle
 10
271.1996011605
 20
35.8812671257
 30
0.0
 40
4.841060212683576
100
AcDbArc
 50
278.4027252788
 51
321.5918981885
  0
LINE
  5
25E
330
1F
100
AcDbEntity
  8
0
  6
Continuous
 62
     7
370
    15
100
AcDbLine
 10
229.7228317809
 20
47.6850906486
 30
0.0
 11
231.1606764569
 21
46.8550405852
 31
0.0
  0
ARC
  5
25F
330
1F
100
AcDbEntity
  8
0
  6
Continuous
 62
     7
370
    15
100
AcDbCircle
 10
253.7981298357
 20
62.9556484402
 30
0.0
 40
10.86939031458828
100
AcDbArc
 50
73.9805380809
 51
106.2228094608
  0
LINE
  5
260
330
1F
100
AcDbEntity
  8
0
  6
Continuous
 62
     7
370
    15
100
AcDbLine
 10
258.235533376
 20
72.5729086733
 30
0.0
 11
256.7976887
 21
73.4029587366
 31
0.0
  0
ARC
  5
261
330
1F
100
AcDbEntity
  8
0
  6
Continuous
 62
     7
370
    15
100
AcDbCircle
 10
272.3813908139
 20
30.4876687993
 30
0.0
 40
1.72440017348882
100
AcDbArc
 50
171.017860925
 51
179.990146335
  0
ARC
  5
262
330
1F
100
AcDbEntity
  8
0
  6
Continuous
 62
     7
370
    15
100
AcDbCircle
 10
275.7416950537
 20
33.0979431214
 30
0.0
 40
5.57854237649942
100
AcDbArc
 50
155.1873452281
 51
204.8126547719
  0
ARC
  5
263
330
1F
100
AcDbEntity
  8
0
  6
Continuous
 62
     7
370
    15
100
AcDbCircle
 10
271.9563683983
 20
35.6727088439
 30
0.0
 40
1.299422591051881
100
AcDbArc
 50
179.5239123517
 51
190.3616916501
  0
SPLINE
  5
264
330
1F
100
AcDbEntity
  8
0
  6
Continuous
 62
     7
370
    15
100
AcDbSpline
210
0.0
220
0.0
230
1.0
 70
     8
 71
     3
 72
     8
 73
     4
 74
     0
 42
0.000000001
 43
0.00000001
 40
0.0
 40
0.0
 40
0.0
 40
0.0
 40
1.0
 40
1.0
 40
1.0
 40
1.0
 10
275.4060142666275
 20
40.43330135492675
 30
0.0
 10
275.8509296908155
 20
40.47512534387991
 30
0.0
 10
276.2957469331271
 20
40.49208266359497
 30
0.0
 10
276.7405153039971
 20
40.49666224087148
 30
0.0
  0
LINE
  5
265
330
1F
100
AcDbEntity
  8
0
  6
Continuous
 62
     7
370
    15
100
AcDbLine
 10
233.6269032488
 20
46.3004227914
 30
0.0
 11
233.0007996311
 21
46.6618647164
 31
0.0
  0
SPLINE
  5
266
330
1F
100
AcDbEntity
  8
0
  6
Continuous
 62
     7
370
    15
100
AcDbSpline
210
0.0
220
0.0
230
1.0
 70
     8
 71
     3
 72
    11
 73
     7
 74
     0
 42
0.000000001
 43
0.00000001
 40
0.0
 40
0.0
 40
0.0
 40
0.0
 40
0.3165694752064712
 40
0.6331520400060429
 40
0.9494411625907934
 40
1.0
 40
1.0
 40
1.0
 40
1.0
 10
244.2213259366723
 20
64.64451146433507
 30
0.0
 10
244.0877357564686
 20
64.597332801415
 30
0.0
 10
243.8205498723412
 20
64.50297352481985
 30
0.0
 10
243.5045996731426
 20
64.24315782562665
 30
0.0
 10
243.3238969821859
 20
64.01996644015418
 30
0.0
 10
243.2889620186358
 20
63.89121726265637
 30
0.0
 10
243.2841472960951
 20
63.87347310310923
 30
0.0
  0
SPLINE
  5
267
330
1F
100
AcDbEntity
  8
0
  6
Continuous
 62
     7
370
    15
100
AcDbSpline
210
0.0
220
0.0
230
1.0
 70
     8
 71
     3
 72
    14
 73
    10
 74
     0
 42
0.000000001
 43
0.00000001
 40
0.0
 40
0.0
 40
0.0
 40
0.0
 40
0.25
 40
0.25
 40
0.5
 40
0.5
 40
0.75
 40
0.75
 40
1.0
 40
1.0
 40
1.0
 40
1.0
 10
233.0007995184681
 20
46.66186488581341
 30
0.0
 10
232.96316552501
 20
46.68359052779344
 30
0.0
 10
232.9173915683209
 20
46.70080228890495
 30
0.0
 10
232.8174556908109
 20
46.72320762253745
 30
0.0
 10
232.7630218219711
 20
46.72838250613727
 30
0.0
 10
232.6568061714791
 20
46.72644031182251
 30
0.0
 10
232.603489871529
 20
46.71935190890428
 30
0.0
 10
232.5059968042283
 20
46.6946184726196
 30
0.0
 10
232.4610851136987
 20
46.67685763663355
 30
0.0
 10
232.4233318480987
 20
46.65506314031155
 30
0.0
  0
LINE
  5
268
330
1F
100
AcDbEntity
  8
0
  6
Continuous
 62
     7
370
    15
100
AcDbLine
 10
232.4233318302
 20
46.6550631011
 30
0.0
 11
232.3743124112
 21
46.6267647929
 31
0.0
  0
LWPOLYLINE
  5
269
330
1F
100
AcDbEntity
  8
0
  6
Continuous
 62
     7
370
    15
100
AcDbPolyline
 90
       20
 70
   128
 43
0.0
 10
274.7731134654
 20
40.1444266058
 10
275.1149188092
 20
40.0752521064
 10
275.5815631183
 20
39.8324121005
 10
275.9493635187
 20
39.4345235562
 10
276.2032620611
 20
38.8978761461
 10
276.3328642788
 20
38.2444403096
 10
276.3328642788
 20
37.5009677279
 10
276.2032620611
 20
36.6978963558
 10
275.9493635187
 20
35.8681039286
 10
275.5815631183
 20
35.045562081
 10
275.1149188092
 20
34.2639460239
 10
274.5685351323
 20
33.5552550988
 10
273.9647810335
 20
32.9485035238
 10
273.3283742194
 20
32.4685313417
 10
272.6853693244
 20
32.1349887382
 10
272.0620910273
 20
31.9615311687
 10
271.4840563842
 20
31.9552597821
 10
270.9749301921
 20
32.1164314856
 10
270.5555562078
 20
32.4384479732
 10
270.263848485
 20
32.8655052967
  0
SPLINE
  5
26A
330
1F
100
AcDbEntity
  8
0
  6
Continuous
 62
     7
370
    15
100
AcDbSpline
210
0.0
220
0.0
230
1.0
 70
     8
 71
     3
 72
    10
 73
     6
 74
     0
 42
0.000000001
 43
0.00000001
 40
0.0
 40
0.0
 40
0.0
 40
0.0
 40
0.5
 40
0.5
 40
1.0
 40
1.0
 40
1.0
 40
1.0
 10
229.6208192154485
 20
47.71453882749005
 30
0.0
 10
229.6281354998708
 20
47.71890682738322
 30
0.0
 10
229.6399593600791
 20
47.71943887997148
 30
0.0
 10
229.6741107243569
 20
47.71020883033319
 30
0.0
 10
229.6963676877497
 20
47.70036795301688
 30
0.0
 10
229.7228317057714
 20
47.68509060060057
 30
0.0
  0
ARC
  5
26B
330
1F
100
AcDbEntity
  8
0
  6
Continuous
 62
     7
370
    15
100
AcDbCircle
 10
269.4411930285
 20
38.2059161101
 30
0.0
 40
40.92045494687211
100
AcDbArc
 50
143.5835897407
 51
160.8037648338
  0
ARC
  5
26C
330
1F
100
AcDbEntity
  8
0
  6
Continuous
 62
     7
370
    15
100
AcDbCircle
 10
271.1305138044
 20
30.9686289402
 30
0.0
 40
1.306460013510391
100
AcDbArc
 50
290.2516703451
 51
300.2336532865
  0
ARC
  5
26D
330
1F
100
AcDbEntity
  8
0
  6
Continuous
 62
     7
370
    15
100
AcDbCircle
 10
276.5693255136
 20
40.0923958418
 30
0.0
 40
1.724400173490924
100
AcDbArc
 50
351.017860925
 51
359.990146335
  0
LINE
  5
26E
330
1F
100
AcDbEntity
  8
0
  6
Continuous
 62
     7
370
    15
100
AcDbLine
 10
277.2472757186
 20
40.4150664245
 30
0.0
 11
278.2725794682
 21
39.8231711687
 31
0.0
  0
SPLINE
  5
26F
330
1F
100
AcDbEntity
  8
0
  6
Continuous
 62
     7
370
    15
100
AcDbSpline
210
0.0
220
0.0
230
1.0
 70
     8
 71
     3
 72
    14
 73
    10
 74
     0
 42
0.000000001
 43
0.00000001
 40
0.0
 40
0.0
 40
0.0
 40
0.0
 40
0.25
 40
0.25
 40
0.5
 40
0.5
 40
0.75
 40
0.75
 40
1.0
 40
1.0
 40
1.0
 40
1.0
 10
244.638404791698
 20
64.95096327347332
 30
0.0
 10
244.653219983914
 20
64.91251195613592
 30
0.0
 10
244.6526561843158
 20
64.87465315346316
 30
0.0
 10
244.6196854034677
 20
64.80856602578923
 30
0.0
 10
244.5875435647353
 20
64.78032918379392
 30
0.0
 10
244.5028359709569
 20
64.73248959064995
 30
0.0
 10
244.4510211644869
 20
64.71280229678436
 30
0.0
 10
244.3396392484394
 20
64.6768736668135
 30
0.0
 10
244.2808250574477
 20
64.66081290455533
 30
0.0
 10
244.2213256809863
 20
64.64451169028332
 30
0.0
  0
LINE
  5
270
330
1F
100
AcDbEntity
  8
0
  6
Continuous
 62
     7
370
    15
100
AcDbLine
 10
244.6222777969
 20
64.9928191161
 30
0.0
 11
244.6384048934
 21
64.9509636264
 31
0.0
  0
SPLINE
  5
271
330
1F
100
AcDbEntity
  8
0
  6
Continuous
 62
     7
370
    15
100
AcDbSpline
210
0.0
220
0.0
230
1.0
 70
     8
 71
     3
 72
    10
 73
     6
 74
     0
 42
0.000000001
 43
0.00000001
 40
0.0
 40
0.0
 40
0.0
 40
0.0
 40
0.5
 40
0.5
 40
1.0
 40
1.0
 40
1.0
 40
1.0
 10
244.9133499297586
 20
65.5369897098479
 30
0.0
 10
244.8853348800208
 20
65.46496360715987
 30
0.0
 10
244.8475169915709
 20
65.38401712185643
 30
0.0
 10
244.751541243736
 20
65.20362208551651
 30
0.0
 10
244.6935094664364
 20
65.10429587854172
 30
0.0
 10
244.6222777288463
 20
64.99281941697764
 30
0.0
  0
LWPOLYLINE
  5
272
330
1F
100
AcDbEntity
  8
0
  6
Continuous
 62
     7
370
    15
100
AcDbPolyline
 90
        9
 70
   128
 43
0.0
 10
276.7405155123
 20
32.6986976064
 10
276.2188647915
 20
32.055012911
 10
275.6592342448
 20
31.4817991702
 10
275.0738144778
 20
30.9915425872
 10
274.4753581638
 20
30.5949226431
 10
273.8769018497
 20
30.3005796346
 10
273.2914820827
 20
30.1149249417
 10
272.7318515361
 20
30.0420030068
 10
272.2102008152
 20
30.0834025999
  0
LINE
  5
273
330
1F
100
AcDbEntity
  8
0
  6
Continuous
 62
     7
370
    15
100
AcDbLine
 10
277.1623639776
 20
32.9422255418
 30
0.0
 11
276.7405155123
 21
32.6986976064
 31
0.0
  0
ARC
  5
274
330
1F
100
AcDbEntity
  8
0
  6
Continuous
 62
     7
370
    15
100
AcDbCircle
 10
276.2996343399
 20
34.4259141909
 30
0.0
 40
1.716285068152938
100
AcDbArc
 50
300.1769820595
 51
308.4970899924
  0
LINE
  5
275
330
1F
100
AcDbEntity
  8
0
  6
Continuous
 62
     7
370
    15
100
AcDbLine
 10
272.2102008152
 20
30.0834025999
 30
0.0
 11
271.78835235
 21
29.8398746646
 31
0.0
  0
LINE
  5
276
330
1F
100
AcDbEntity
  8
0
  6
Continuous
 62
     7
370
    15
100
AcDbLine
 10
271.9070256923
 20
31.0921738384
 30
0.0
 11
272.3199568064
 21
30.8537937803
 31
0.0
  0
SPLINE
  5
277
330
1F
100
AcDbEntity
  8
0
  6
Continuous
 62
     7
370
    15
100
AcDbSpline
210
0.0
220
0.0
230
1.0
 70
     8
 71
     3
 72
     8
 73
     4
 74
     0
 42
0.000000001
 43
0.00000001
 40
0.0
 40
0.0
 40
0.0
 40
0.0
 40
1.0
 40
1.0
 40
1.0
 40
1.0
 10
272.31995691136
 20
30.85379361143075
 30
0.0
 10
272.2475077875045
 20
30.59694940412969
 30
0.0
 10
272.2181336654506
 20
30.34016187601937
 30
0.0
 10
272.210200745382
 20
30.08340256079183
 30
0.0
  0
ARC
  5
278
330
1F
100
AcDbEntity
  8
0
  6
Continuous
 62
     7
370
    15
100
AcDbCircle
 10
271.6125322746
 20
35.6428870676
 30
0.0
 40
4.841060212683351
100
AcDbArc
 50
278.4027252788
 51
321.5918981885
  0
SPLINE
  5
279
330
1F
100
AcDbEntity
  8
0
  6
Continuous
 62
     7
370
    15
100
AcDbSpline
210
0.0
220
0.0
230
1.0
 70
     8
 71
     3
 72
     8
 73
     4
 74
     0
 42
0.000000001
 43
0.00000001
 40
0.0
 40
0.0
 40
0.0
 40
0.0
 40
1.0
 40
1.0
 40
1.0
 40
1.0
 10
276.7405153039971
 20
32.69869748736257
 30
0.0
 10
276.29188551474
 20
32.6940781508202
 30
0.0
 10
275.8461875342282
 20
32.67671480698399
 30
0.0
 10
275.4060142666275
 20
32.63533660141783
 30
0.0
  0
LINE
  5
27A
330
1F
100
AcDbEntity
  8
0
  6
Continuous
 62
     7
370
    15
100
AcDbLine
 10
235.3066224323
 20
44.2946591108
 30
0.0
 11
233.4787682715
 21
45.3498568573
 31
0.0
  0
SPLINE
  5
27B
330
1F
100
AcDbEntity
  8
0
  6
Continuous
 62
     7
370
    15
100
AcDbSpline
210
0.0
220
0.0
230
1.0
 70
     8
 71
     3
 72
     8
 73
     4
 74
     0
 42
0.000000001
 43
0.00000001
 40
0.0000000000000004
 40
0.0000000000000004
 40
0.0000000000000004
 40
0.0000000000000004
 40
0.0011862984959128
 40
0.0011862984959128
 40
0.0011862984959128
 40
0.0011862984959128
 10
233.4787680040499
 20
45.34985691720461
 30
0.0
 10
233.4677058047922
 20
45.41196536212339
 30
0.0
 10
233.4570797982185
 20
45.47375814942501
 30
0.0
 10
233.4468666704011
 20
45.5352509761429
 30
0.0
  0
ARC
  5
27C
330
1F
100
AcDbEntity
  8
0
  6
Continuous
 62
     7
370
    15
100
AcDbCircle
 10
276.9943479292
 20
34.9073557972
 30
0.0
 40
1.299422591053017
100
AcDbArc
 50
359.5239123517
 51
10.3616916501
  0
ARC
  5
27D
330
1F
100
AcDbEntity
  8
0
  6
Continuous
 62
     7
370
    15
100
AcDbCircle
 10
273.2090212739
 20
37.4821215196
 30
0.0
 40
5.57854237650009
100
AcDbArc
 50
335.1873452281
 51
24.8126547719
  0
LINE
  5
27E
330
1F
100
AcDbEntity
  8
0
  6
Continuous
 62
     7
370
    15
100
AcDbLine
 10
277.2472757186
 20
35.7329671264
 30
0.0
 11
278.2725794682
 21
35.1410718706
 31
0.0
  0
LINE
  5
27F
330
1F
100
AcDbEntity
  8
0
  6
Continuous
 62
     7
370
    15
100
AcDbLine
 10
275.4060142503
 20
32.6353368214
 30
0.0
 11
274.9930831362
 21
32.8737168795
 31
0.0
  0
LINE
  5
280
330
1F
100
AcDbEntity
  8
0
  6
Continuous
 62
     7
370
    15
100
AcDbLine
 10
233.5515525039
 20
46.1350317525
 30
0.0
 11
233.5316591914
 21
45.9056859961
 31
0.0
  0
ARC
  5
281
330
1F
100
AcDbEntity
  8
0
  6
Continuous
 62
     7
370
    15
100
AcDbCircle
 10
249.5343356659
 20
44.478385815
 30
0.0
 40
16.06296283247883
100
AcDbArc
 50
176.9225000953
 51
185.727139394
  0
LINE
  5
282
330
1F
100
AcDbEntity
  8
0
  6
Continuous
 62
     7
370
    15
100
AcDbLine
 10
232.5527651313
 20
45.2349039417
 30
0.0
 11
232.6145379232
 21
46.6950501099
 31
0.0
  0
ARC
  5
283
330
1F
100
AcDbEntity
  8
0
  6
Continuous
 62
     7
370
    15
100
AcDbCircle
 10
244.387752853
 20
44.9600445587
 30
0.0
 40
11.83817900076306
100
AcDbArc
 50
178.6695844123
 51
203.7430473282
  0
LINE
  5
284
330
1F
100
AcDbEntity
  8
0
  6
Continuous
 62
     7
370
    15
100
AcDbLine
 10
214.1216769571
 20
81.822129518
 30
0.0
 11
214.1713756648
 21
81.8037937065
 31
0.0
  0
LINE
  5
285
330
1F
100
AcDbEntity
  8
0
  6
Continuous
 62
     7
370
    15
100
AcDbLine
 10
203.9978175767
 20
64.2851911176
 30
0.0
 11
203.9362002013
 21
64.3384566784
 31
0.0
  0
LINE
  5
286
330
1F
100
AcDbEntity
  8
0
  6
Continuous
 62
     7
370
    15
100
AcDbLine
 10
230.0563544458
 20
47.3255743046
 30
0.0
 11
229.6208186268
 21
47.7145384743
 31
0.0
  0
LINE
  5
287
330
1F
100
AcDbEntity
  8
0
  6
Continuous
 62
     7
370
    15
100
AcDbLine
 10
231.5129776831
 20
46.4846836086
 30
0.0
 11
230.0563544458
 21
47.3255743046
 31
0.0
  0
LINE
  5
288
330
1F
100
AcDbEntity
  8
0
  6
Continuous
 62
     7
370
    15
100
AcDbLine
 10
233.5515525039
 20
46.1350317525
 30
0.0
 11
233.5515525039
 21
45.9898819153
 31
0.0
  0
LINE
  5
289
330
1F
100
AcDbEntity
  8
0
  6
Continuous
 62
     7
370
    15
100
AcDbLine
 10
233.5515525039
 20
45.3078387179
 30
0.0
 11
233.5515525039
 21
42.8754455934
 31
0.0
  0
LINE
  5
28A
330
1F
100
AcDbEntity
  8
0
  6
Continuous
 62
     7
370
    15
100
AcDbLine
 10
233.5515525039
 20
46.343921403
 30
0.0
 11
233.5515525039
 21
46.1350317525
 31
0.0
  0
LINE
  5
28B
330
1F
100
AcDbEntity
  8
0
  6
Continuous
 62
     7
370
    15
100
AcDbLine
 10
233.5515525039
 20
42.8754455934
 30
0.0
 11
233.5515525039
 21
40.0054565507
 31
0.0
  0
LINE
  5
28C
330
1F
100
AcDbEntity
  8
0
  6
Continuous
 62
     7
370
    15
100
AcDbLine
 10
233.4787682715
 20
34.857307758
 30
0.0
 11
235.3066224323
 21
33.8021100115
 31
0.0
  0
SPLINE
  5
28D
330
1F
100
AcDbEntity
  8
0
  6
Continuous
 62
     7
370
    15
100
AcDbSpline
210
0.0
220
0.0
230
1.0
 70
     8
 71
     3
 72
    14
 73
    10
 74
     0
 42
0.000000001
 43
0.00000001
 40
0.0
 40
0.0
 40
0.0
 40
0.0
 40
0.25
 40
0.25
 40
0.5
 40
0.5
 40
0.75
 40
0.75
 40
1.0
 40
1.0
 40
1.0
 40
1.0
 10
235.261114882375
 20
33.68374174214394
 30
0.0
 10
235.2444400393086
 20
33.64036912403736
 30
0.0
 10
235.2241447963926
 20
33.60013879459151
 30
0.0
 10
235.1758478173222
 20
33.52636690691938
 30
0.0
 10
235.1476289695171
 20
33.49279730024226
 30
0.0
 10
235.084703621094
 20
33.43924589457964
 30
0.0
 10
235.049540445077
 20
33.41878986521998
 30
0.0
 10
234.9748574558685
 20
33.4013575717081
 30
0.0
 10
234.9363325806601
 20
33.405304880693
 30
0.0
 10
234.9023888779629
 20
33.42490016316282
 30
0.0
  0
LINE
  5
28E
330
1F
100
AcDbEntity
  8
0
  6
Continuous
 62
     7
370
    15
100
AcDbLine
 10
234.9023887155
 20
33.4249002868
 30
0.0
 11
233.4468667292
 21
34.2651552441
 31
0.0
  0
SPLINE
  5
28F
330
1F
100
AcDbEntity
  8
0
  6
Continuous
 62
     7
370
    15
100
AcDbSpline
210
0.0
220
0.0
230
1.0
 70
     8
 71
     3
 72
     8
 73
     4
 74
     0
 42
0.000000001
 43
0.00000001
 40
0.0
 40
0.0
 40
0.0
 40
0.0
 40
0.0011862984959113
 40
0.0011862984959113
 40
0.0011862984959113
 40
0.0011862984959113
 10
233.4468666704011
 20
34.26515524825584
 30
0.0
 10
233.4570797982185
 20
34.46255415014478
 30
0.0
 10
233.4677058047937
 20
34.65993998712158
 30
0.0
 10
233.4787680040513
 20
34.85730748447192
 30
0.0
  0
SPLINE
  5
290
330
1F
100
AcDbEntity
  8
0
  6
Continuous
 62
     7
370
    15
100
AcDbSpline
210
0.0
220
0.0
230
1.0
 70
     8
 71
     3
 72
     9
 73
     5
 74
     0
 42
0.000000001
 43
0.00000001
 40
0.0
 40
0.0
 40
0.0
 40
0.0
 40
0.4529515425247135
 40
1.0
 40
1.0
 40
1.0
 40
1.0
 10
268.0628020907167
 20
52.5230092360008
 30
0.0
 10
268.060034740454
 20
52.52460966871083
 30
0.0
 10
268.0539251459323
 20
52.52814301071272
 30
0.0
 10
268.021368714067
 20
52.54694356622022
 30
0.0
 10
268.0035587682341
 20
52.55722838111028
 30
0.0
  0
LWPOLYLINE
  5
291
330
1F
100
AcDbEntity
  8
0
  6
Continuous
 62
     7
370
    15
100
AcDbPolyline
 90
       13
 70
   128
 43
0.0
 10
246.9294664194
 20
26.7989443285
 10
245.6634676156
 20
26.5242350642
 10
244.2950055426
 20
26.372362909
 10
242.9788628551
 20
26.3836062754
 10
241.7246997425
 20
26.557885549
 10
240.5417200228
 20
26.8939192467
 10
239.4386066055
 20
27.3892430342
 10
238.4234549781
 20
28.0402199985
 10
237.5037172303
 20
28.842074494
 10
236.6861408091
 20
29.7889183837
 10
235.9767290062
 20
30.8738050364
 10
235.3806869575
 20
32.088771917
 10
234.9289675718
 20
33.3373533048
  0
SPLINE
  5
292
330
1F
100
AcDbEntity
  8
0
  6
Continuous
 62
     7
370
    15
100
AcDbSpline
210
0.0
220
0.0
230
1.0
 70
     8
 71
     3
 72
     8
 73
     4
 74
     0
 42
0.000000001
 43
0.00000001
 40
0.0
 40
0.0
 40
0.0
 40
0.0
 40
1.0
 40
1.0
 40
1.0
 40
1.0
 10
233.7248863578006
 20
35.35454563905878
 30
0.0
 10
233.642688177015
 20
35.18882531255531
 30
0.0
 10
233.5606538088631
 20
35.02307843721734
 30
0.0
 10
233.4787680040513
 20
34.85730748447192
 30
0.0
  0
LINE
  5
293
330
1F
100
AcDbEntity
  8
0
  6
Continuous
 62
     7
370
    15
100
AcDbLine
 10
233.7739058588
 20
35.3828442108
 30
0.0
 11
233.7248864398
 21
35.3545459026
 31
0.0
  0
SPLINE
  5
294
330
1F
100
AcDbEntity
  8
0
  6
Continuous
 62
     7
370
    15
100
AcDbSpline
210
0.0
220
0.0
230
1.0
 70
     8
 71
     3
 72
    12
 73
     8
 74
     0
 42
0.000000001
 43
0.00000001
 40
0.0
 40
0.0
 40
0.0
 40
0.0
 40
0.249999999999997
 40
0.249999999999997
 40
0.499999999999994
 40
0.499999999999994
 40
1.0
 40
1.0
 40
1.0
 40
1.0
 10
233.7856880455851
 20
35.71620895101992
 30
0.0
 10
233.8232868301598
 20
35.69450363469562
 30
0.0
 10
233.8534643894062
 20
35.66770176412245
 30
0.0
 10
233.8920541240871
 20
35.61007805929245
 30
0.0
 10
233.9009136092769
 20
35.57902993372109
 30
0.0
 10
233.8958661754386
 20
35.48684095731578
 30
0.0
 10
233.8491638883633
 20
35.42628953034092
 30
0.0
 10
233.773905800165
 20
35.38284396078898
 30
0.0
  0
LINE
  5
295
330
1F
100
AcDbEntity
  8
0
  6
Continuous
 62
     7
370
    15
100
AcDbLine
 10
233.0007996311
 20
36.169315617
 30
0.0
 11
233.7856882079
 21
35.7162090863
 31
0.0
  0
SPLINE
  5
296
330
1F
100
AcDbEntity
  8
0
  6
Continuous
 62
     7
370
    15
100
AcDbSpline
210
0.0
220
0.0
230
1.0
 70
     8
 71
     3
 72
    10
 73
     6
 74
     0
 42
0.000000001
 43
0.00000001
 40
0.0
 40
0.0
 40
0.0
 40
0.0
 40
0.5
 40
0.5
 40
1.0
 40
1.0
 40
1.0
 40
1.0
 10
232.4233318480987
 20
36.16251370757967
 30
0.0
 10
232.4994692384372
 20
36.20646688745238
 30
0.0
 10
232.6029770191216
 20
36.23295355363117
 30
0.0
 10
232.8174723112074
 20
36.2367816240185
 30
0.0
 10
232.9249025556256
 20
36.2131298371151
 30
0.0
 10
233.0007995184681
 20
36.16931545308152
 30
0.0
  0
LINE
  5
297
330
1F
100
AcDbEntity
  8
0
  6
Continuous
 62
     7
370
    15
100
AcDbLine
 10
232.3743124112
 20
36.1342156935
 30
0.0
 11
232.4233318302
 21
36.1625140018
 31
0.0
  0
SPLINE
  5
298
330
1F
100
AcDbEntity
  8
0
  6
Continuous
 62
     7
370
    15
100
AcDbSpline
210
0.0
220
0.0
230
1.0
 70
     8
 71
     3
 72
     8
 73
     4
 74
     0
 42
0.000000001
 43
0.00000001
 40
0.0
 40
0.0
 40
0.0
 40
0.0
 40
1.0
 40
1.0
 40
1.0
 40
1.0
 10
231.5129773310798
 20
35.99213428451141
 30
0.0
 10
231.8001321574772
 20
36.03940595342343
 30
0.0
 10
232.0872452760624
 20
36.08676338612617
 30
0.0
 10
232.3743124057344
 20
36.13421538584947
 30
0.0
  0
LINE
  5
299
330
1F
100
AcDbEntity
  8
0
  6
Continuous
 62
     7
370
    15
100
AcDbLine
 10
230.0563544458
 20
36.8330252053
 30
0.0
 11
231.5129776831
 21
35.9921345092
 31
0.0
  0
LINE
  5
29A
330
1F
100
AcDbEntity
  8
0
  6
Continuous
 62
     7
370
    15
100
AcDbLine
 10
230.0563544458
 20
36.8330252053
 30
0.0
 11
233.197998973
 21
38.6466579866
 31
0.0
  0
ARC
  5
29B
330
1F
100
AcDbEntity
  8
0
  6
Continuous
 62
     7
370
    15
100
AcDbCircle
 10
242.987288965
 20
36.7001538606
 30
0.0
 40
9.846261965767647
100
AcDbArc
 50
194.3179057184
 51
238.1256858466
  0
ELLIPSE
  5
29C
330
1F
100
AcDbEntity
  8
0
  6
Continuous
 62
     7
370
    15
100
AcDbEllipse
 10
232.9051064541
 20
39.6322826309
 30
0.0
 11
-7.507462981948265E-5
 21
1.066811201853405
 31
0.0
210
0.0
220
0.0
230
1.0
 40
0.7174342186
 41
3.534193645557482
 42
5.104989972352354
  0
ARC
  5
29D
330
1F
100
AcDbEntity
  8
0
  6
Continuous
 62
     7
370
    15
100
AcDbCircle
 10
243.0498206193
 20
39.1016725177
 30
0.0
 40
11.0802651368934
100
AcDbArc
 50
195.5342643695
 51
215.7345697398
  0
ARC
  5
29E
330
1F
100
AcDbEntity
  8
0
  6
Continuous
 62
     7
370
    15
100
AcDbCircle
 10
240.471859044
 20
37.9178567689
 30
0.0
 40
9.598989501195852
100
AcDbArc
 50
194.065870688
 51
246.8527503441
  0
SPLINE
  5
29F
330
1F
100
AcDbEntity
  8
0
  6
Continuous
 62
     7
370
    15
100
AcDbSpline
210
0.0
220
0.0
230
1.0
 70
     8
 71
     3
 72
     8
 73
     4
 74
     0
 42
0.000000001
 43
0.00000001
 40
0.0000000000000004
 40
0.0000000000000004
 40
0.0000000000000004
 40
0.0000000000000004
 40
0.0011862984959128
 40
0.0011862984959128
 40
0.0011862984959128
 40
0.0011862984959128
 10
231.5129773310804
 20
35.99213428451045
 30
0.0
 10
231.3958268620853
 20
35.85601024167568
 30
0.0
 10
231.2783871116481
 20
35.72028666651273
 30
0.0
 10
231.1606762438035
 20
35.58494488901827
 30
0.0
  0
LINE
  5
2A0
330
1F
100
AcDbEntity
  8
0
  6
Continuous
 62
     7
370
    15
100
AcDbLine
 10
229.6208186268
 20
36.5815434977
 30
0.0
 11
230.0563544458
 21
36.8330252053
 31
0.0
  0
LINE
  5
2A1
330
1F
100
AcDbEntity
  8
0
  6
Continuous
 62
     7
370
    15
100
AcDbLine
 10
231.1606764569
 20
35.5849447958
 30
0.0
 11
229.7228317809
 21
36.4149948592
 31
0.0
  0
SPLINE
  5
2A2
330
1F
100
AcDbEntity
  8
0
  6
Continuous
 62
     7
370
    15
100
AcDbSpline
210
0.0
220
0.0
230
1.0
 70
     8
 71
     3
 72
    10
 73
     6
 74
     0
 42
0.000000001
 43
0.00000001
 40
0.0
 40
0.0
 40
0.0
 40
0.0
 40
0.5
 40
0.5
 40
1.0
 40
1.0
 40
1.0
 40
1.0
 10
229.7228317057714
 20
36.41499487271351
 30
0.0
 10
229.6964222764907
 20
36.43024071172043
 30
0.0
 10
229.6741388722816
 20
36.45409813413269
 30
0.0
 10
229.6400317374601
 20
36.51202422586697
 30
0.0
 10
229.6281317074052
 20
36.54592275734783
 30
0.0
 10
229.6208192154485
 20
36.58154379980219
 30
0.0
  0
ARC
  5
2A3
330
1F
100
AcDbEntity
  8
0
  6
Continuous
 62
     7
370
    15
100
AcDbCircle
 10
239.2593064684
 20
38.839315531
 30
0.0
 40
9.835109896964559
100
AcDbArc
 50
194.9325993597
 51
238.1123668138
  0
ELLIPSE
  5
2A4
330
1F
100
AcDbEntity
  8
0
  6
Continuous
 62
     7
370
    15
100
AcDbEllipse
 10
232.8444462823
 20
39.5972528752
 30
0.0
 11
0.3250094736511642
 21
1.213179526238662
 31
0.0
210
0.0
220
0.0
230
1.0
 40
0.5176380889
 41
3.619174351347739
 42
5.1899706781426
  0
SPLINE
  5
2A5
330
1F
100
AcDbEntity
  8
0
  6
Continuous
 62
     7
370
    15
100
AcDbSpline
210
0.0
220
0.0
230
1.0
 70
     8
 71
     3
 72
    14
 73
    10
 74
     0
 42
0.000000001
 43
0.00000001
 40
0.0
 40
0.0
 40
0.0
 40
0.0
 40
0.25
 40
0.25
 40
0.5
 40
0.5
 40
0.75
 40
0.75
 40
1.0
 40
1.0
 40
1.0
 40
1.0
 10
259.3783033713294
 20
71.60157617622625
 30
0.0
 10
259.4100254820242
 20
71.61988896093114
 30
0.0
 10
259.445756305032
 20
71.63553034476254
 30
0.0
 10
259.5237699737538
 20
71.66032879542851
 30
0.0
 10
259.5664634141611
 20
71.66951908227932
 30
0.0
 10
259.6544127088282
 20
71.67854652802336
 30
0.0
 10
259.7009049481554
 20
71.67835253725526
 30
0.0
 10
259.7875442124645
 20
71.66563253087604
 30
0.0
 10
259.8281465949059
 20
71.65293741035171
 30
0.0
 10
259.8598419710333
 20
71.63464005918338
 30
0.0
  0
LINE
  5
2A6
330
1F
100
AcDbEntity
  8
0
  6
Continuous
 62
     7
370
    15
100
AcDbLine
 10
259.8598422953
 20
71.6346404307
 30
0.0
 11
260.5195106095
 21
71.2538220189
 31
0.0
  0
LINE
  5
2A7
330
1F
100
AcDbEntity
  8
0
  6
Continuous
 62
     7
370
    15
100
AcDbLine
 10
262.1893776378
 20
69.1790258023
 30
0.0
 11
263.5838772436
 21
69.4848008157
 31
0.0
  0
LINE
  5
2A8
330
1F
100
AcDbEntity
  8
0
  6
Continuous
 62
     7
370
    15
100
AcDbLine
 10
263.5838772436
 20
69.4848008157
 30
0.0
 11
265.0393992299
 21
68.6445458583
 31
0.0
  0
SPLINE
  5
2A9
330
1F
100
AcDbEntity
  8
0
  6
Continuous
 62
     7
370
    15
100
AcDbSpline
210
0.0
220
0.0
230
1.0
 70
     8
 71
     3
 72
    12
 73
     8
 74
     0
 42
0.000000001
 43
0.00000001
 40
0.0
 40
0.0
 40
0.0
 40
0.0
 40
0.250000000000004
 40
0.250000000000004
 40
0.500000000000008
 40
0.500000000000008
 40
1.0
 40
1.0
 40
1.0
 40
1.0
 10
265.039399143225
 20
68.64454534963262
 30
0.0
 10
265.0710552737251
 20
68.62627065448268
 30
0.0
 10
265.0933545507352
 20
68.6024465436844
 30
0.0
 10
265.1151751213272
 20
68.5524146412367
 30
0.0
 10
265.1154558836533
 20
68.5260234328228
 30
0.0
 10
265.0920885095326
 20
68.44994820282787
 30
0.0
 10
265.0450501067276
 20
68.40288514787747
 30
0.0
 10
264.9821246122272
 20
68.3665590331255
 30
0.0
  0
LINE
  5
2AA
330
1F
100
AcDbEntity
  8
0
  6
Continuous
 62
     7
370
    15
100
AcDbLine
 10
259.3783036027
 20
71.6015765533
 30
0.0
 11
259.286513035
 21
71.5485869865
 31
0.0
  0
SPLINE
  5
2AB
330
1F
100
AcDbEntity
  8
0
  6
Continuous
 62
     7
370
    15
100
AcDbSpline
210
0.0
220
0.0
230
1.0
 70
     8
 71
     3
 72
    10
 73
     6
 74
     0
 42
0.000000001
 43
0.00000001
 40
0.0
 40
0.0
 40
0.0
 40
0.0
 40
0.403890055881665
 40
0.8088426875932694
 40
1.0
 40
1.0
 40
1.0
 40
1.0
 10
268.0035587682341
 20
63.29061988041401
 30
0.0
 10
268.0217995327458
 20
63.32938370650695
 30
0.0
 10
268.0583290505602
 20
63.40701334066559
 30
0.0
 10
268.072269564525
 20
63.51439328395189
 30
0.0
 10
268.0542210182791
 20
63.56764995898217
 30
0.0
 10
268.0484333080971
 20
63.58472802145531
 30
0.0
  0
ARC
  5
2AC
330
1F
100
AcDbEntity
  8
0
  6
Continuous
 62
     7
370
    15
100
AcDbCircle
 10
257.7103427178
 20
60.9772930057
 30
0.0
 40
10.60668825138521
100
AcDbArc
 50
15.7413341421
 51
46.2919137943
  0
LWPOLYLINE
  5
2AD
330
1F
100
AcDbEntity
  8
0
  6
Continuous
 62
     7
370
    15
100
AcDbPolyline
 90
        3
 70
   128
 43
0.0
 10
262.1893773086
 20
69.8600155887
 10
262.2278323566
 20
69.8125514913
 10
262.6080878093
 20
69.3062703408
  0
LINE
  5
2AE
330
1F
100
AcDbEntity
  8
0
  6
Continuous
 62
     7
370
    15
100
AcDbLine
 10
267.8992769283
 20
52.6174489563
 30
0.0
 11
266.0348735474
 21
53.6937461185
 31
0.0
  0
LINE
  5
2AF
330
1F
100
AcDbEntity
  8
0
  6
Continuous
 62
     7
370
    15
100
AcDbLine
 10
265.2267870818
 20
53.5402060506
 30
0.0
 11
265.2758065008
 21
53.5685043588
 31
0.0
  0
SPLINE
  5
2B0
330
1F
100
AcDbEntity
  8
0
  6
Continuous
 62
     7
370
    15
100
AcDbSpline
210
0.0
220
0.0
230
1.0
 70
     8
 71
     3
 72
    10
 73
     6
 74
     0
 42
0.000000001
 43
0.00000001
 40
0.0
 40
0.0
 40
0.0
 40
0.0
 40
0.348286225286859
 40
0.7262043038763673
 40
0.9999999999999999
 40
0.9999999999999999
 40
0.9999999999999999
 40
0.9999999999999999
 10
264.8940617496875
 20
53.4690335395378
 30
0.0
 10
264.9367094093636
 20
53.4691211629125
 30
0.0
 10
265.0256331501217
 20
53.46930386457339
 30
0.0
 10
265.14159010485
 20
53.49752703857335
 30
0.0
 10
265.2015830548911
 20
53.5275802156478
 30
0.0
 10
265.2267870818065
 20
53.54020605057273
 30
0.0
  0
SPLINE
  5
2B1
330
1F
100
AcDbEntity
  8
0
  6
Continuous
 62
     7
370
    15
100
AcDbSpline
210
0.0
220
0.0
230
1.0
 70
     8
 71
     3
 72
     8
 73
     4
 74
     0
 42
0.000000001
 43
0.00000001
 40
0.0
 40
0.0
 40
0.0
 40
0.0
 40
1.0
 40
1.0
 40
1.0
 40
1.0
 10
265.2758066685609
 20
53.56850423945076
 30
0.0
 10
265.5287926222418
 20
53.61032264414859
 30
0.0
 10
265.781815884589
 20
53.65206784872397
 30
0.0
 10
266.0348733735938
 20
53.69374590012107
 30
0.0
  0
LWPOLYLINE
  5
2B2
330
1F
100
AcDbEntity
  8
0
  6
Continuous
 62
     7
370
    15
100
AcDbPolyline
 90
       20
 70
   128
 43
0.0
 10
271.592448859
 20
42.628442534
 10
271.0165366226
 20
42.6365192858
 10
270.4763725692
 20
42.7521093934
 10
270.0304911807
 20
42.9626872647
 10
269.7272095381
 20
43.2454341667
 10
269.5993937047
 20
43.5697096135
 10
269.6608939416
 20
43.9003736212
 10
269.9050464368
 20
44.2015932992
 10
270.3053917363
 20
44.4407277803
 10
270.8185494556
 20
44.5918612317
 10
271.3889090506
 20
44.638617228
 10
271.9546626617
 20
44.5759291532
 10
272.454501483
 20
44.4105908528
 10
272.8342636035
 20
44.1605171088
 10
273.0527924612
 20
43.8528093604
 10
273.0864091827
 20
43.5208113849
 10
272.9314701647
 20
43.2005006086
 10
272.6047652619
 20
42.9265878128
 10
272.1416971222
 20
42.7287562369
 10
271.592448859
 20
42.628442534
  0
LWPOLYLINE
  5
2B3
330
1F
100
AcDbEntity
  8
0
  6
Continuous
 62
     7
370
    15
100
AcDbPolyline
 90
       10
 70
   128
 43
0.0
 10
271.6275961202
 20
42.2814190606
 10
271.0314501861
 20
42.2843571067
 10
270.4632885246
 20
42.3886050903
 10
269.9735944992
 20
42.5849001778
 10
269.6058825084
 20
42.8557989025
 10
269.3928251678
 20
43.1772309654
 10
269.3533532447
 20
43.5206358838
 10
269.4909702372
 20
43.8555027858
 10
269.7934528595
 20
44.1520746285
 10
269.9319667683
 20
44.2408021976
  0
LWPOLYLINE
  5
2B4
330
1F
100
AcDbEntity
  8
0
  6
Continuous
 62
     7
370
    15
100
AcDbPolyline
 90
        9
 70
   128
 43
0.0
 10
272.760853013
 20
44.2408023762
 10
272.9206648076
 20
44.1366580363
 10
273.2143307125
 20
43.8371466031
 10
273.3420207639
 20
43.500973747
 10
273.2923944138
 20
43.1580068791
 10
273.069858354
 20
42.838721753
 10
272.6941880483
 20
42.5714870262
 10
272.198759263
 20
42.3800500376
 10
271.6275961202
 20
42.2814190606
  0
LWPOLYLINE
  5
2B5
330
1F
100
AcDbEntity
  8
0
  6
Continuous
 62
     7
370
    15
100
AcDbPolyline
 90
       17
 70
   128
 43
0.0
 10
271.5116073758
 20
42.957086344
 10
271.0538452269
 20
42.9717122546
 10
270.6406249294
 20
43.0863519856
 10
270.3348518484
 20
43.2835549182
 10
270.1830812938
 20
43.5332961088
 10
270.2084164066
 20
43.7975563585
 10
270.4070002251
 20
44.0361042913
 10
270.7486016568
 20
44.2126223297
 10
271.1812133735
 20
44.3002381287
 10
271.6389755224
 20
44.285612218
 10
272.0521958199
 20
44.1709724871
 10
272.3579689009
 20
43.9737695544
 10
272.5097394554
 20
43.7240283639
 10
272.4844043427
 20
43.4597681141
 10
272.2858205242
 20
43.2212201814
 10
271.9442190925
 20
43.0447021429
 10
271.5116073758
 20
42.957086344
  0
SPLINE
  5
2B6
330
1F
100
AcDbEntity
  8
0
  6
Continuous
 62
     7
370
    15
100
AcDbSpline
210
0.0
220
0.0
230
1.0
 70
     8
 71
     3
 72
    10
 73
     6
 74
     0
 42
0.000000001
 43
0.00000001
 40
0.0
 40
0.0
 40
0.0
 40
0.0
 40
0.5081092805010489
 40
0.8694122588287984
 40
1.0
 40
1.0
 40
1.0
 40
1.0
 10
272.4896418706595
 20
43.70580482766355
 30
0.0
 10
272.428080065002
 20
43.56231054950147
 30
0.0
 10
272.3227432987429
 20
43.31678131141537
 30
0.0
 10
272.1889386764185
 20
43.15539814616051
 30
0.0
 10
272.1306179368326
 20
43.12674942438316
 30
0.0
 10
272.1151348765835
 20
43.11914372719058
 30
0.0
  0
SPLINE
  5
2B7
330
1F
100
AcDbEntity
  8
0
  6
Continuous
 62
     7
370
    15
100
AcDbSpline
210
0.0
220
0.0
230
1.0
 70
     8
 71
     3
 72
    10
 73
     6
 74
     0
 42
0.000000001
 43
0.00000001
 40
0.0
 40
0.0
 40
0.0
 40
0.0
 40
0.4391220885725839
 40
0.7513720055799724
 40
1.0
 40
1.0
 40
1.0
 40
1.0
 10
271.7774332704248
 20
44.23049941860025
 30
0.0
 10
271.8793928143812
 20
44.09945892591501
 30
0.0
 10
272.0538535145467
 20
43.87523846339818
 30
0.0
 10
272.3074607097136
 20
43.73094002151571
 30
0.0
 10
272.4336875702153
 20
43.7135247377861
 30
0.0
 10
272.4896418706595
 20
43.70580482766355
 30
0.0
  0
SPLINE
  5
2B8
330
1F
100
AcDbEntity
  8
0
  6
Continuous
 62
     7
370
    15
100
AcDbSpline
210
0.0
220
0.0
230
1.0
 70
     8
 71
     3
 72
    11
 73
     7
 74
     0
 42
0.000000001
 43
0.00000001
 40
0.0
 40
0.0
 40
0.0
 40
0.0
 40
0.1845129541575469
 40
0.5180569299346606
 40
0.8676126316496575
 40
1.0
 40
1.0
 40
1.0
 40
1.0
 10
270.6342017435359
 20
44.13678099979585
 30
0.0
 10
270.700594751546
 20
44.11680050429392
 30
0.0
 10
270.8870063672284
 20
44.06070127697642
 30
0.0
 10
271.2344735061292
 20
44.036166878419
 30
0.0
 10
271.5573389677823
 20
44.12654956260637
 30
0.0
 10
271.7300032495538
 20
44.20809836695951
 30
0.0
 10
271.7774332704248
 20
44.23049941860025
 30
0.0
  0
SPLINE
  5
2B9
330
1F
100
AcDbEntity
  8
0
  6
Continuous
 62
     7
370
    15
100
AcDbSpline
210
0.0
220
0.0
230
1.0
 70
     8
 71
     3
 72
    10
 73
     6
 74
     0
 42
0.000000001
 43
0.00000001
 40
0.0
 40
0.0
 40
0.0
 40
0.0
 40
0.4391227876623446
 40
0.7513713080545272
 40
1.0
 40
1.0
 40
1.0
 40
1.0
 10
270.2031788786202
 20
43.51836802569566
 30
0.0
 10
270.2648830598361
 20
43.55097473372842
 30
0.0
 10
270.3704634411217
 20
43.6067672035211
 30
0.0
 10
270.5239487594644
 20
43.86951188553675
 30
0.0
 10
270.6003390439956
 20
44.0546929385179
 30
0.0
 10
270.6342017435359
 20
44.13678099979585
 30
0.0
  0
SPLINE
  5
2BA
330
1F
100
AcDbEntity
  8
0
  6
Continuous
 62
     7
370
    15
100
AcDbSpline
210
0.0
220
0.0
230
1.0
 70
     8
 71
     3
 72
    10
 73
     6
 74
     0
 42
0.000000001
 43
0.00000001
 40
0.0
 40
0.0
 40
0.0
 40
0.0
 40
0.0689403545027313
 40
0.5872765041570641
 40
0.9999999999999999
 40
0.9999999999999999
 40
0.9999999999999999
 40
0.9999999999999999
 10
270.6334606237205
 20
43.08894240543939
 30
0.0
 10
270.6236819127878
 20
43.09193511451206
 30
0.0
 10
270.5403808155845
 20
43.11742885812329
 30
0.0
 10
270.384677884019
 20
43.28098501910531
 30
0.0
 10
270.2589236648849
 20
43.4454592792472
 30
0.0
 10
270.2031788786202
 20
43.51836802569566
 30
0.0
  0
LINE
  5
2BB
330
1F
100
AcDbEntity
  8
0
  6
Continuous
 62
     7
370
    15
100
AcDbLine
 10
270.6342017435
 20
43.0891578151
 30
0.0
 11
270.6342017435
 21
44.1367809998
 31
0.0
  0
LINE
  5
2BC
330
1F
100
AcDbEntity
  8
0
  6
Continuous
 62
     7
370
    15
100
AcDbLine
 10
271.7774332704
 20
42.997634698
 30
0.0
 11
271.7774332704
 21
44.2304994186
 31
0.0
  0
ARC
  5
2BD
330
1F
100
AcDbEntity
  8
0
  6
Continuous
 62
     7
370
    15
100
AcDbCircle
 10
244.7580608568
 20
62.8651669409
 30
0.0
 40
1.556458503833311
100
AcDbArc
 50
79.4787617164
 51
142.816863183
  0
ARC
  5
2BE
330
1F
100
AcDbEntity
  8
0
  6
Continuous
 62
     7
370
    15
100
AcDbCircle
 10
244.7259987282
 20
62.9487438905
 30
0.0
 40
1.462418884452263
100
AcDbArc
 50
78.1686521449
 51
144.4051799797
  0
ARC
  5
2BF
330
1F
100
AcDbEntity
  8
0
  6
Continuous
 62
     7
370
    15
100
AcDbCircle
 10
244.697769441
 20
63.0220357374
 30
0.0
 40
1.248830400126187
100
AcDbArc
 50
80.6448978854
 51
142.1902255163
  0
OLE2FRAME
  5
2C0
330
1F
100
AcDbEntity
  8
0
100
AcDbOle2Frame
 70
     2
  3
Paintbrush-Bild
 10
13.8511154363
 20
38.264191557
 30
0.0
 11
51.6290888628
 21
31.9806341108
 31
0.0
 71
     2
 72
     0
 73
     1
 90
    12928
310
80552BED0767C5B32B40DDAF6807D121434000000000000000006FFBDDFB85D0
310
4940DDAF6807D121434000000000000000006FFBDDFB85D04940416F4BD60AFB
310
3F4000000000000000002BED0767C5B32B40416F4BD60AFB3F40000000000000
310
0000000000000100000000010000010000000100000000000100000000320000
310
D0CF11E0A1B11AE1000000000000000000000000000000003E000300FEFF0900
310
0600000000000000000000000100000001000000000000000010000002000000
310
01000000FEFFFFFF0000000000000000FFFFFFFFFFFFFFFFFFFFFFFFFFFFFFFF
310
FFFFFFFFFFFFFFFFFFFFFFFFFFFFFFFFFFFFFFFFFFFFFFFFFFFFFFFFFFFFFFFF
310
FFFFFFFFFFFFFFFFFFFFFFFFFFFFFFFFFFFFFFFFFFFFFFFFFFFFFFFFFFFFFFFF
310
FFFFFFFFFFFFFFFFFFFFFFFFFFFFFFFFFFFFFFFFFFFFFFFFFFFFFFFFFFFFFFFF
310
FFFFFFFFFFFFFFFFFFFFFFFFFFFFFFFFFFFFFFFFFFFFFFFFFFFFFFFFFFFFFFFF
310
FFFFFFFFFFFFFFFFFFFFFFFFFFFFFFFFFFFFFFFFFFFFFFFFFFFFFFFFFFFFFFFF
310
FFFFFFFFFFFFFFFFFFFFFFFFFFFFFFFFFFFFFFFFFFFFFFFFFFFFFFFFFFFFFFFF
310
FFFFFFFFFFFFFFFFFFFFFFFFFFFFFFFFFFFFFFFFFFFFFFFFFFFFFFFFFFFFFFFF
310
FFFFFFFFFFFFFFFFFFFFFFFFFFFFFFFFFFFFFFFFFFFFFFFFFFFFFFFFFFFFFFFF
310
FFFFFFFFFFFFFFFFFFFFFFFFFFFFFFFFFFFFFFFFFFFFFFFFFFFFFFFFFFFFFFFF
310
FFFFFFFFFFFFFFFFFFFFFFFFFFFFFFFFFFFFFFFFFFFFFFFFFFFFFFFFFFFFFFFF
310
FFFFFFFFFFFFFFFFFFFFFFFFFFFFFFFFFFFFFFFFFFFFFFFFFFFFFFFFFFFFFFFF
310
FFFFFFFFFFFFFFFFFFFFFFFFFFFFFFFFFFFFFFFFFFFFFFFFFFFFFFFFFFFFFFFF
310
FFFFFFFFFFFFFFFFFFFFFFFFFFFFFFFFFFFFFFFFFFFFFFFFFFFFFFFFFFFFFFFF
310
FDFFFFFFFEFFFFFFFEFFFFFFFEFFFFFF05000000060000000700000008000000
310
090000000A0000000B0000000C0000000D0000000E0000000F00000010000000
310
11000000120000001300000014000000150000001600000017000000FEFFFFFF
310
FFFFFFFFFFFFFFFFFFFFFFFFFFFFFFFFFFFFFFFFFFFFFFFFFFFFFFFFFFFFFFFF
310
FFFFFFFFFFFFFFFFFFFFFFFFFFFFFFFFFFFFFFFFFFFFFFFFFFFFFFFFFFFFFFFF
310
FFFFFFFFFFFFFFFFFFFFFFFFFFFFFFFFFFFFFFFFFFFFFFFFFFFFFFFFFFFFFFFF
310
FFFFFFFFFFFFFFFFFFFFFFFFFFFFFFFFFFFFFFFFFFFFFFFFFFFFFFFFFFFFFFFF
310
FFFFFFFFFFFFFFFFFFFFFFFFFFFFFFFFFFFFFFFFFFFFFFFFFFFFFFFFFFFFFFFF
310
FFFFFFFFFFFFFFFFFFFFFFFFFFFFFFFFFFFFFFFFFFFFFFFFFFFFFFFFFFFFFFFF
310
FFFFFFFFFFFFFFFFFFFFFFFFFFFFFFFFFFFFFFFFFFFFFFFFFFFFFFFFFFFFFFFF
310
FFFFFFFFFFFFFFFFFFFFFFFFFFFFFFFFFFFFFFFFFFFFFFFFFFFFFFFFFFFFFFFF
310
FFFFFFFFFFFFFFFFFFFFFFFFFFFFFFFFFFFFFFFFFFFFFFFFFFFFFFFFFFFFFFFF
310
FFFFFFFFFFFFFFFFFFFFFFFFFFFFFFFFFFFFFFFFFFFFFFFFFFFFFFFFFFFFFFFF
310
FFFFFFFFFFFFFFFFFFFFFFFFFFFFFFFFFFFFFFFFFFFFFFFFFFFFFFFFFFFFFFFF
310
FFFFFFFFFFFFFFFFFFFFFFFFFFFFFFFFFFFFFFFFFFFFFFFFFFFFFFFFFFFFFFFF
310
FFFFFFFFFFFFFFFFFFFFFFFFFFFFFFFFFFFFFFFFFFFFFFFFFFFFFFFFFFFFFFFF
310
52006F006F007400200045006E00740072007900000000000000000000000000
310
0000000000000000000000000000000000000000000000000000000000000000
310
16000500FFFFFFFFFFFFFFFF020000000A00030000000000C000000000000046
310
000000000000000000000000600504886903D20103000000C000000000000000
310
01004F006C006500000000000000000000000000000000000000000000000000
310
0000000000000000000000000000000000000000000000000000000000000000
310
0A000200FFFFFFFFFFFFFFFFFFFFFFFF00000000000000000000000000000000
310
0000000000000000000000000000000000000000000000001400000000000000
310
010043006F006D0070004F0062006A0000000000000000000000000000000000
310
0000000000000000000000000000000000000000000000000000000000000000
310
120002010100000003000000FFFFFFFF00000000000000000000000000000000
310
0000000000000000000000000000000000000000010000004D00000000000000
310
01004F006C006500310030004E00610074006900760065000000000000000000
310
0000000000000000000000000000000000000000000000000000000000000000
310
1A000200FFFFFFFFFFFFFFFFFFFFFFFF00000000000000000000000000000000
310
0000000000000000000000000000000000000000040000002426000000000000
310
FEFFFFFF02000000FEFFFFFFFFFFFFFFFFFFFFFFFFFFFFFFFFFFFFFFFFFFFFFF
310
FFFFFFFFFFFFFFFFFFFFFFFFFFFFFFFFFFFFFFFFFFFFFFFFFFFFFFFFFFFFFFFF
310
FFFFFFFFFFFFFFFFFFFFFFFFFFFFFFFFFFFFFFFFFFFFFFFFFFFFFFFFFFFFFFFF
310
FFFFFFFFFFFFFFFFFFFFFFFFFFFFFFFFFFFFFFFFFFFFFFFFFFFFFFFFFFFFFFFF
310
FFFFFFFFFFFFFFFFFFFFFFFFFFFFFFFFFFFFFFFFFFFFFFFFFFFFFFFFFFFFFFFF
310
FFFFFFFFFFFFFFFFFFFFFFFFFFFFFFFFFFFFFFFFFFFFFFFFFFFFFFFFFFFFFFFF
310
FFFFFFFFFFFFFFFFFFFFFFFFFFFFFFFFFFFFFFFFFFFFFFFFFFFFFFFFFFFFFFFF
310
FFFFFFFFFFFFFFFFFFFFFFFFFFFFFFFFFFFFFFFFFFFFFFFFFFFFFFFFFFFFFFFF
310
FFFFFFFFFFFFFFFFFFFFFFFFFFFFFFFFFFFFFFFFFFFFFFFFFFFFFFFFFFFFFFFF
310
FFFFFFFFFFFFFFFFFFFFFFFFFFFFFFFFFFFFFFFFFFFFFFFFFFFFFFFFFFFFFFFF
310
FFFFFFFFFFFFFFFFFFFFFFFFFFFFFFFFFFFFFFFFFFFFFFFFFFFFFFFFFFFFFFFF
310
FFFFFFFFFFFFFFFFFFFFFFFFFFFFFFFFFFFFFFFFFFFFFFFFFFFFFFFFFFFFFFFF
310
FFFFFFFFFFFFFFFFFFFFFFFFFFFFFFFFFFFFFFFFFFFFFFFFFFFFFFFFFFFFFFFF
310
FFFFFFFFFFFFFFFFFFFFFFFFFFFFFFFFFFFFFFFFFFFFFFFFFFFFFFFFFFFFFFFF
310
FFFFFFFFFFFFFFFFFFFFFFFFFFFFFFFFFFFFFFFFFFFFFFFFFFFFFFFFFFFFFFFF
310
FFFFFFFFFFFFFFFFFFFFFFFFFFFFFFFFFFFFFFFFFFFFFFFFFFFFFFFFFFFFFFFF
310
0100000200000000000000000000000000000000000000000000000000000000
310
0000000000000000000000000000000000000000000000000000000000000000
310
0100FEFF030A0000FFFFFFFF0A00030000000000C00000000000004607000000
310
5042727573680007000000504272757368000700000050427275736800F439B2
310
7100000000000000000000000000000000000000000000000000000000000000
310
0000000000000000000000000000000000000000000000000000000000000000
310
0000000000000000000000000000000000000000000000000000000000000000
310
0000000000000000000000000000000000000000000000000000000000000000
310
0000000000000000000000000000000000000000000000000000000000000000
310
0000000000000000000000000000000000000000000000000000000000000000
310
0000000000000000000000000000000000000000000000000000000000000000
310
0000000000000000000000000000000000000000000000000000000000000000
310
0000000000000000000000000000000000000000000000000000000000000000
310
0000000000000000000000000000000000000000000000000000000000000000
310
0000000000000000000000000000000000000000000000000000000000000000
310
0000000000000000000000000000000000000000000000000000000000000000
310
20260000424D0E260000000000003E00000028000000B40200006E0000000100
310
01000000000000000000130B0000130B00000200000002000000000000FFFFFF
310
FFFFFFFFFFFFFFFFFFFFFFFFFFFFFFFFFFFFFFFFFFFFFFFFFFFFFFFFFFFFFFFF
310
FFFFFFFFFFFFFFFFFFFFFFFFFFFFFFFFFFFFFFFFFFFFFFFFFFFFFFFFFFFFFFFF
310
FFFFFFFFFFFFFFFFFFFFFFFFFFFFFFFFFFFFFFFFFFFFFFFFF000FFFFFFFFFFFF
310
FFFFFFFFFFFFFFFFFFFFFFFFFFFFFFFFFFFFFFFFFFFFFFFFFFFFFFFFFFFFFFFF
310
FFFFFFFFFFFFFFFFFFFFFFFFFFFFFFFFFFFFFFFFFFFFFFFFFFFFFFFFFFFFFFFF
310
FFFFFFFFFFFFFFFFFFFFFFFFFFFFFFFFF000FFFFFFFFFFFFFFFFFFFFFFFFFFFF
310
FFFFFFFFFFFFFFFFFFFFFFFFFFFFFFFFFFFFFFFFFFFFFFFFFFFFFFFFFFFFFFFF
310
FFFFFFFFFFFFFFFFFFFFFFFFFFFFFFFFFFFFFFFFFFFFFFFFFFFFFFFFFFFFFFFF
310
FFFFFFFFFFFFFFFFF000FFFFFFFFFFFFFFFFFFFFFFFFFFFFFFFFFFFFFFFFFFFF
310
FFFFFFFFFFFFFFFFFFFFFFFFFFFFFFFFFFFFFFFFFFFFFFFFFFFFFFFFFFFFFFFF
310
FFFFFFFFFFFFFFFFFFFFFFFFFFFFFFFFFFFFFFFFFFFFFFFFFFFFFFFFFFFFFFFF
310
F000FFFFFFFFFFFFFFFFFFFFFFFFFFFFFFFFFFFFFFFFFFFFFFFFFFFFFFFFFFFF
310
FFFFFFFFFFFFFFFFFFFFFFFFFFFFFFFFFFFFFFFFFFFFFFFFFFFFFFFFFFFFFFFF
310
FFFFFFFFFFFFFFFFFFFFFFFFFFFFFFFFFFFFFFFFFFFFFFFFF000FFFFFFFFFFFF
310
FFFFFFFFFFFFFFFFFFFFFFFFFFFFFFFFFFFFFFFFFFFFFFFFFFFFFFFFFFFFFFFF
310
FFFFFFFFFFFFFFFFFFFFFFFFFFFFFFFFFFFFFFFFFFFFFFFFFFFFFFFFFFFFFFFF
310
FFFFFFFFFFFFFFFFFFFFFFFFFFFFFFFFF000FFFFFFFFFFFFFFFFFFFFFFFFFFFF
310
FFFFFFFFFFFFFFFFFFFFFFFFFFFFFFFFFFFFFFFFFFFFFFFFFFFFFFFFFFFFFFFF
310
FFFFFFFFFFFFFFFFFFFFFFFFFFFFFFFFFFFFFFFFFFFFFFFFFFFFFFFFFFFFFFFF
310
FFFFFFFFFFFFFFFFF000FFFFFFFFFFFFFFFFFFFFFFFFFFFFFFFFFFFFFFFFFFFF
310
FFFFFFFFFFFFFFFFFFFFFFFFFFFFFFFFFFFFFFFFFFFFFFFFFFFFFFFFFFFFFFFF
310
FFFFFFFFFFFFFFFFFFFFFFFFFFFFFFFFFFFFFFFFFFFFFFFFFFFFFFFFFFFFFFFF
310
F000FFFFFFFFFFFFFFFFFFFFFFFFFFFFFFFFFFFFFFFFFFFFFFFFFFFFFFFFFFFF
310
FFFFFFFFFFFFFFFFFFFFFFFFFFFFFFFFFFFFFFFFFFFFFFFFFFFFFFFFFFFFFFFF
310
FFFFFFFFFFFFFFFFFFFFFFFFFFFFFFFFFFFFFFFFFFFFFFFFF000FFFFFFFFFFFF
310
FFFFFFFFFFFFFFFFFFFFFFFFFFFFFFFFFFFFFFFFFFFFFFFFFFFFFFFFFFFFFFFF
310
FFFFFFFFFFFFFFFFFFFFFFFFFFFFFFFFFFFFFFFFFFFFFFFFFFFFFFFFFFFFFFFF
310
FFFFFFFFFFFFFFFFFFFFFFFFFFFFFFFFF000FFFFFFFFFFFFFFFFFFFFFFFFFFFF
310
FFFFFFFFFFFFFFFFFFFFFFFFFFFFFFFFFFFFFFFFFFFFFFFFFFFFFFFFFFFFFFFF
310
FFFFFFFFFFFFFFFFFFFFFFFFFFFFFFFFFFFFFFFFFFFFFFFFFFFFFFFFFFFFFFFF
310
FFFFFFFFFFFFFFFFF000FFFFFFFFFFFFFFFFFFFFFFFFFFFFFFFFFFFFFFFFFFFF
310
FFFFFFFFFFFFFFFFFFFFFFFFFFFFFFFFFFFFFFFFFFFFFFFFFFFFFFFFFFFFFFFF
310
FFFFFFFFFFFFFFFFFFFFFFFFFFFFFFFFFFFFFFFFFFFFFFFFFFFFFFFFFFFFFFFF
310
F000FFFFFFFFFFFFFFFFFFFFFFFFFFFFFFFFFFFFFFFFFFFFFFFFFFFFFFFFFFFF
310
FFFFFFFFFFFFFFFFFFFFFFFFFFFFFFFFFFFFFFFFFFFFFFFFFFFFFFFFFFFFFFFF
310
FFFFFFFFFFFFFFFFFFFFFFFFFFFFFFFFFFFFFFFFFFFFFFFFF000FFFFFFFFFFFF
310
FFFFFFFFFFFFFFFFFFFFFFFFFFFFFFFFFFFFFFFFFFFFFFFFFFFFFFFFFFFFFFFF
310
FFFFFFFFFFFFFFFFFFFFFFFFFFFFFFFFFFFFFFFFFFFFFFFFFFFFFFFFFFFFFFFF
310
FFFFFFFFFFFFFFFFFFFFFFFFFFFFFFFFF000FFFFFFFFFFFFFFFFFFFFFFFFFFFF
310
FFFFFFFFFFFFFFFFFFFFFFFFFFFFFFFFFFFFFFFFFFFFFFFFFFFFFFFFFFFFFFFF
310
FFFFFFFFFFFFFFFFFFFFFFFFFFFFFFFFFFFFFFFFFFFFFFFFFFFFFFFFFFFFFFFF
310
FFFFFFFFFFFFFFFFF000FFFFFFFFFFFFFFFFFFFFFFFFFFFFFFFFFFFFFFFFFFFF
310
FFFFFFFFFFFFFFFFFFFFFFFFFFFFFFFFFFFFFFFFFFFFFFFFFFFFFFFFFFFFFFFF
310
FFFFFFFFFFFFFFFFFFFFFFFFFFFFFFFFFFFFFFFFFFFFFFFFFFFFFFFFFFFFFFFF
310
F000FFFFFFFFFFFFFFFFFFFFFFFFFFFFFFFFFFFFFFFFFFFFFFFFFFFFFFFFFFFF
310
FFFFFFFFFFFFFFFFFFFFFFFFFFFFFFFFFFFFFFFFFFFFFFFFFFFFFFFFFFFFFFFF
310
FFFFFFFFFFFFFFFFFFFFFFFFFFFFFFFFFFFFFFFFFFFFFFFFF000FFFFFFFFFFFF
310
FFFFFFFFFFFFFFFFFFFFFFFFFFFFFFFFFFFFFFFFFFFFFFFFFFFFFFFFFFFFFFFF
310
FFFFFFFFFFFFFFFFFFFFFFFFFFFFFFFFFFFFFFFFFFFFFFFFFFFFFFFFFFFFFFFF
310
FFFFFFFFFFFFFFFFFFFFFFFFFFFFFFFFF000FFFFFFFFFFFFFFFFFFFFFFFFFFFF
310
FFFFFFFFFFFFFFFFFFFFFFFFFFFFFFFFFFFFFFFFFFFFFFFFFFFFFFFFFFFFFFFF
310
FFFFFFFFFFFFFFFFFFFFFFFFFFFFFFFFFFFFFFFFFFFFFFFFFFFFFFFFFFFFFFFF
310
FFFFFFFFFFFFFFFFF000FFFFF80003FFFFFFFFFFFFFFFFFFFFFFFFFFFFFFFFFF
310
FFFFF00007FFFFFFFFFF00007FFFFFF800000000000000007FFFFFFFFFFFFFFF
310
FFFFFFFC001FFFFFFFFFFFFFFC001FFFFFFFFFFFFFFFFFFFFFFFFFFE0007FFFF
310
F000FFFF8000007FFFFFFFF8000FFFFFC0007FFFFF80007FFFFF0000007FFFFF
310
FFF8000007FFFFF800000000000000007FFFFFF0001FFFFFFFFFFFC00001FFFF
310
FFFFFFFFC00001FFFFFFFF000000000003FFFFE000007FFFF000FFFE0000000F
310
FFFFFFF0000FFFFF80007FFFFF80007FFFFC0000001FFFFFFFC0000001FFFFF8
310
00000000000000007FFFFFF0001FFFFFFFFFFE0000003FFFFFFFFFFE0000003F
310
FFFFFF000000000003FFFF0000000FFFF000FFF800000003FFFFFFF00007FFFF
310
80007FFFFF80007FFFF000000007FFFFFF000000003FFFF80000000000000000
310
7FFFFFF0001FFFFFFFFFF80000000FFFFFFFFFF80000000FFFFFFF0000000000
310
03FFFC00000003FFF000FFE000000000FFFFFFF00007FFFF80003FFFFF80007F
310
FFC000000001FFFFFC000000001FFFF800000000000000007FFFFFF0001FFFFF
310
FFFFE000000003FFFFFFFFE000000003FFFFFF000000000003FFF000000000FF
310
F000FF80000000007FFFFFF00007FFFF80003FFFFF80007FFF8000000000FFFF
310
F80000000007FFF800000000000000007FFFFFF0001FFFFFFFFFC000000001FF
310
FFFFFFC000000001FFFFFF000000000003FFC0000000007FF000FF0000000000
310
3FFFFFE00007FFFF00003FFFFF80007FFE00000000003FFFF00000000003FFF8
310
00000000000000007FFFFFF0001FFFFFFFFF8000000000FFFFFFFF8000000000
310
FFFFFF000000000003FF80000000003FF000FE00000000001FFFFFE00003FFFF
310
00003FFFFF80007FFC00000000001FFFE00000000001FFF8000001FFFE000000
310
7FFFFFF0001FFFFFFFFE00000000003FFFFFFE00000000003FFFFF0000000000
310
03FF00000000001FF000FC00000000000FFFFFE00003FFFF00001FFFFF80007F
310
F800000000001FFFC00000000000FFF8000001FFFE0000007FFFFFF0001FFFFF
310
FFFC00000000001FFFFFFC00000000001FFFFF000000000003FE00000000000F
310
F000F8000000000007FFFFE00003FFFF00001FFFFF80007FF800000000000FFF
310
800000000000FFF8000001FFFE0000007FFFFFF0001FFFFFFFF800000000000F
310
FFFFF800000000000FFFFF000000000003FC000000000007F000F80000000000
310
03FFFFC00003FFFE00001FFFFF80007FF0000000000007FF0000000000007FF8
310
000001FFFE0000007FFFFFF0001FFFFFFFF0000000000007FFFFF00000000000
310
07FFFF000000000003F8000000000003F000F0000000000003FFFFC00001FFFE
310
00001FFFFF80007FE0000000000007FE0000000000003FF8000001FFFE000000
310
7FFFFFF0001FFFFFFFF0000000000007FFFFF0000000000007FFFF0000000000
310
03F800001F800003F000E00001FFF00001FFFFC00001FFFE00000FFFFF80007F
310
E00001FFE00003FE00001FFF00003FF8000001FFFE0000007FFFFFF0001FFFFF
310
FFE000003E000003FFFFE000003E000003FFFF000000000003F00001FFF80001
310
F000E00007FFFC0001FFFFC00001FFFE00000FFFFF80007FC0000FFFFC0003FC
310
0000FFFFC0001FF8000001FFFE0000007FFFFFF0001FFFFFFFC00003FFE00001
310
FFFFC00003FFE00001FFFF0001FFFFFFFFF00007FFFE0001F000E0000FFFFF00
310
00FFFF800001FFFC00000FFFFF80007FC0001FFFFE0001FC0001FFFFE0001FF8
310
000001FFFE0000007FFFFFF0001FFFFFFF80000FFFF80000FFFF80000FFFF800
310
00FFFF0003FFFFFFFFE0000FFFFF8000F000C0003FFFFF8000FFFF800000FFFC
310
000007FFFF80007F80003FFFFF0001FC0003FFFFF0001FF8000001FFFE000000
310
7FFFFFF0001FFFFFFF80003FFFFE0000FFFF80003FFFFE0000FFFF0003FFFFFF
310
FFE0003FFFFF8000F000C0003FFFFF8000FFFF800000FFFC000007FFFF80007F
310
80007FFFFF8001F80007FFFFF8000FF8000001FFFE0000007FFFFFF0001FFFFF
310
FF00007FFFFF00007FFF00007FFFFF00007FFF0003FFFFFFFFE0003FFFFFC000
310
F000C0007FFFFFC000FFFF000000FFFC000007FFFF80007F8000FFFFFF8000F8
310
000FFFFFF8000FF8000001FFFE0000007FFFFFF0001FFFFFFF0000FFFFFF8000
310
7FFF0000FFFFFF80007FFF0003FFFFFFFFC0007FFFFFC00070008000FFFFFFC0
310
00FFFF000000FFF8000007FFFF80007F8000FFFFFF8000F8000FFFFFF8000FF8
310
000001FFFE0000007FFFFFF0001FFFFFFE0001FFFFFFC0003FFE0001FFFFFFC0
310
003FFF0003FFFFFFFFC0007FFFFFE00070008000FFFFFFC0007FFF0000007FF8
310
000003FFFF80007F0001FFFFFF8000F8000FFFFFF8000FF8000001FFFE000000
310
7FFFFFF0001FFFFFFE0001FFFFFFC0003FFE0001FFFFFFC0003FFF0003FFFFFF
310
FFC000FFFFFFE00070008000FFFFFFC0007FFF0000007FF8000003FFFF80007F
310
0001FFFFFF8000F8001FFFFFF8000FF8000001FFFE0000007FFFFFF0001FFFFF
310
FE0003FFFFFFE0003FFE0003FFFFFFE0003FFF0003FFFFFFFFC000FFFFFFE000
310
70008000FFFFFFC0007FFE0000007FF8000003FFFF80007F0001FFFFFF8000F0
310
001FFFFFF8000FF8000001FFFE0000007FFFFFF0001FFFFFFC0003FFFFFFE000
310
1FFC0003FFFFFFE0001FFF0003FFFFFFFFC000FFFFFFC00070008000FFFFFF80
310
007FFE0000007FF0000003FFFF80007F0001FFFFFF0000F0001FFFFFF8000FF8
310
000001FFFE0000007FFFFFF0001FFFFFFC0007FFFFFFF0001FFC0007FFFFFFF0
310
001FFF0003FFFFFFFFC000FFFFFFC00070008001FFFFFF0000FFFE0000003FF0
310
000001FFFF80007F0001FFFFFF0000F8001FFFFFF0000FF8000001FFFE000000
310
7FFFFFF0001FFFFFFC0007FFFFFFF0001FFC0007FFFFFFF0001FFF0003FFFFFF
310
FFC001FFFFFF80007000FFFFFFFFFE0000FFFE0008003FF0008001FFFF80007F
310
FFFFFFFFFC0000FFFFFFFFFFE0000FF8000001FFFE0000007FFFFFF0001FFFFF
310
F8000FFFFFFFF8000FF8000FFFFFFFF8000FFF0003FFFFFFFFFFFFFFFFFF0000
310
7000FFFFFFFFFC0000FFFC0008003FF0008001FFFF80007FFFFFFFFFF80001FF
310
FFFFFFFF80000FF8000001FFFE0000007FFFFFF0001FFFFFF8000FFFFFFFF800
310
0FF8000FFFFFFFF8000FFF0003FFFFFFFFFFFFFFFFFE0000F000FFFFFFFFE000
310
00FFFC000C003FE000C001FFFF80007FFFFFFFFFC00001FFFFFFFFFE00001FF8
310
000001FFFE0000007FFFFFF0001FFFFFF8000FFFFFFFF8000FF8000FFFFFFFF8
310
000FFF0003FFFFFFFFFFFFFFFFF00000F000FFFFFFFE000001FFFC000C001FE0
310
00C000FFFF80007FFFFFFFFE000001FFFFFFFFE000001FF80FFFFFFFFFFFFFC0
310
7FFFFFF0001FFFFFF8000FFFFFFFF8000FF8000FFFFFFFF8000FFF0003FFFFFF
310
FFFFFFFFFF800000F000FFFFFFC0000001FFFC001C001FE001C000FFFF80007F
310
FFFFFF80000003FFFFFFF80000001FF80FFFFFFFFFFFFFC07FFFFFF0001FFFFF
310
F8001FFFFFFFFC000FF8001FFFFFFFFC000FFF0003FFFFFFFFFFFFFFF0000001
310
F000FFFFF800000001FFF8001C001FE001C000FFFF80007FFFFFF800000003FF
310
FFFF800000003FF80FFFFFFFFFFFFFC07FFFFFF0001FFFFFF8001FFFFFFFFC00
310
0FF8001FFFFFFFFC000FFF0003FFFFFFFFFFFFFE00000001F000FFFFC0000000
310
03FFF8001E001FC001E000FFFF80007FFFFF8000000007FFFFFC000000003FF8
310
0FFFFFFFFFFFFFC07FFFFFF0001FFFFFF8001FFFFFFFFC000FF8001FFFFFFFFC
310
000FFF0003FFFFFFFFFFFFE000000003F000FFFE0000000007FFF8001E000FC0
310
01E0007FFF80007FFFFE0000000007FFFFE0000000007FF80FFFFFFFFFFFFFC0
310
7FFFFFF0001FFFFFF0001FFFFFFFFC0007F0001FFFFFFFFC0007FF0003FFFFFF
310
FFFFFF0000000003F000FFF80000000007FFF8001E000FC003E0007FFF80007F
310
FFF0000000000FFFFF8000000000FFF80FFFFFFFFFFFFFC07FFFFFF0001FFFFF
310
F0001FFFFFFFFC0007F0001FFFFFFFFC0007FF0003FFFFFFFFFFFC0000000007
310
F000FFE0000000000FFFF0003E000FC003E0007FFF80007FFFC0000000001FFF
310
FE0000000001FFF80FFFFFFFFFFFFFC07FFFFFF0001FFFFFF0001FFFFFFFFC00
310
07F0001FFFFFFFFC0007FF0003FFFFFFFFFFF0000000000FF000FFC000000000
310
1FFFF0003F000F8003F0003FFF80007FFF80000000003FFFF80000000003FFF8
310
0FFFFFFFFFFFFFC07FFFFFF0001FFFFFF0001FFFFFFFFC0007F0001FFFFFFFFC
310
0007FF0003FFFFFFFFFFE0000000001FF000FF00000000007FFFF0003F000780
310
03F0003FFF80007FFF00000000007FFFF00000000007FFF80FFFFFFFFFFFFFC0
310
7FFFFFF0001FFFFFF0001FFFFFFFFC0007F0001FFFFFFFFC0007FF0003FFFFFF
310
FFFF80000000007FF000FE0000000000FFFFE0003F00078007F0003FFF80007F
310
FE0000000001FFFFE0000000001FFFF80FFFFFFFFFFFFFC07FFFFFF0001FFFFF
310
F0001FFFFFFFFC0007F0001FFFFFFFFC0007FF0003FFFFFFFFFF0000000000FF
310
F000FC0000000003FFFFE0007F00078007F0003FFF80007FFC0000000007FFFF
310
C0000000007FFFF80FFFFFFFFFFFFFC07FFFFFF0001FFFFFF8001FFFFFFFFC00
310
0FF8001FFFFFFFFC000FFF0003FFFFFFFFFE0000000003FFF000FC000000000F
310
FFFFE0007F80070007F8001FFF80007FF8000000001FFFFF8000000001FFFFF8
310
0FFFFFFFFFFFFFC07FFFFFF0001FFFFFF8001FFFFFFFFC000FF8001FFFFFFFFC
310
000FFF0003FFFFFFFFFC000000000FFFF000F8000000007FFFFFE0007F800700
310
07F8001FFF80007FF000000000FFFFFF800000000FFFFFF80FFFFFFFFFFFFFC0
310
7FFFFFF0001FFFFFF8000FFFFFFFF8000FF8000FFFFFFFF8000FFF0003FFFFFF
310
FFFC000000007FFFF000F800000007FFFFFFC0007F8003000FF8001FFF80007F
310
F000000007FFFFFF000000007FFFFFF80FFFFFFFFFFFFFC07FFFFFF0001FFFFF
310
F8000FFFFFFFF8000FF8000FFFFFFFF8000FFF0003FFFFFFFFF80000000FFFFF
310
F000F0000000FFFFFFFFC000FF8003000FF8001FFF80007FE0000000FFFFFFFF
310
0000000FFFFFFFF8000001FFFE0000007FFFFFF0001FFFFFF8000FFFFFFFF800
310
0FF8000FFFFFFFF8000FFF0003FFFFFFFFF8000000FFFFFFF000F000000FFFFF
310
FFFFC000FFC002000FF8000FFF80007FE000001FFFFFFFFE000001FFFFFFFFF8
310
000001FFFE0000007FFFFFF0001FFFFFF8000FFFFFFFF8000FF8000FFFFFFFF8
310
000FFF0003FFFFFFFFF000001FFFFFFFF000E00000FFFFFFFFFFC000FFC00200
310
0FFC000FFF80007FE00001FFFFFFFFFE00001FFFFFFFFFF8000001FFFE000000
310
7FFFFFF0001FFFFFFC000FFFFFFFF8001FFC000FFFFFFFF8001FFF0003FFFFFF
310
FFF00001FFFFFFFFF000E00007FFFFFFFFFF8000FFC000001FFC000FFF80007F
310
C0000FFFFFFFFFFE0000FFFFFFFFFFF8000001FFFE0000007FFFFFF0001FFFFF
310
FC0007FFFFFFF0001FFC0007FFFFFFF0001FFF0003FFFFFFFFF00007FFFFFFFF
310
F000E0001FFFFFFFFFFF8000FFC000001FFC000FFF80007FC0003FFFFFFFFFFE
310
0001FFFFFFFFFFF8000001FFFE0000007FFFFFF0001FFFFFFC0007FFFFFFF000
310
1FFC0007FFFFFFF0001FFF0003FFFFFFFFF0001FFFFFFFFFF000E0003FFFFF00
310
03FF8001FFE000001FFC0007FF80007FC0007FFFFF0007FC0003FFFFF0003FF8
310
000001FFFE0000007FFFFFF0001FFFFFFC0003FFFFFFE0001FFC0003FFFFFFE0
310
001FFF0003FFFFFFFFF0003FFFFFFFFFF000E0003FFFFF0001FF8001FFE00000
310
1FFE0007FF80007FC0007FFFFE0003FC0007FFFFE0003FF8000001FFFE000000
310
7FFFFFF0001FFFFFFE0003FFFFFFE0003FFE0003FFFFFFE0003FFF0003FFFFFF
310
FFF0003FFFFF8001F000E0003FFFFF0001FF0001FFE000001FFE0007FF80007F
310
C0007FFFFE0003FC0007FFFFE0003FF8000001FFFE0000007FFFFFF0001FFFFF
310
FE0001FFFFFFC0003FFE0001FFFFFFC0003FFF0003FFFFFFFFF0003FFFFF0001
310
F000E0003FFFFF0003FF0001FFE000003FFE0007FF80007FC0007FFFFE0003FC
310
0007FFFFE0003FF8000001FFFE0000007FFFFFF0001FFFFFFF0001FFFFFFC000
310
7FFF0001FFFFFFC0007FFF0003FFFFFFFFF0003FFFFF0001F000E0003FFFFE00
310
03FF0003FFF000003FFE0003FF80007FC0007FFFFC0003FE0007FFFFE0003FF8
310
000001FFFE0000007FFFFFF0001FFFFFFF0000FFFFFF80007FFF0000FFFFFF80
310
007FFF0003FFFFFFFFF0003FFFFF0001F000E0003FFFFE0003FF0003FFF00000
310
3FFF0003FF80007FC0007FFFFC0007FE0007FFFFC0003FF8000001FFFE000000
310
7FFFFFF0001FFFFFFF80007FFFFF0000FFFF80007FFFFF0000FFFF0003FFFFFF
310
FFF0003FFFFF0003F000E0003FFFFC0003FE0003FFF000003FFF0003FF80007F
310
E0003FFFF80007FE0003FFFFC0007FF8000001FFFE0000007FFFFFF0001FFFFF
310
FF80003FFFFE0000FFFF80003FFFFE0000FFFF0003FFFFFFFFF0001FFFFE0003
310
F000F0001FFFF80003FE0003FFF000007FFF0001FF80007FE0003FFFF00007FE
310
0001FFFF80007FF8000001FFFE0000007FFFFFF0001FFFFFFFC0000FFFF80001
310
FFFFC0000FFFF80001FFFF0003FFFFFFFFF0001FFFFC0003F000F0000FFFF000
310
07FE0007FFF800007FFF0001FF80007FE0001FFFE00007FF0000FFFE00007FF8
310
000001FFFE0000007FFFFFF0001FFFFFFFC00003FFE00001FFFFC00003FFE000
310
01FFFF0003FFFFFFFFF8000FFFF80003F000F00003FFC00007FC0007FFF80000
310
7FFF8001FF80007FF00007FF80000FFF00007FF80000FFF8000001FFFE000000
310
7F80000000000001FFE000003E000003FFFFE000003E000003FFFF0003FFFFFF
310
FFF80003FFE00007F000F800000000000FFC0007FFF800007FFF8001FF80007F
310
F000000000000FFF000000000000FFF8000001FFFE0000007F80000000000001
310
FFF0000000000007FFFFF0000000000007FFFF0003FFFFFFFFFC00007E000007
310
F000F800000000000FFC0007FFF80000FFFF8000FF80007FF800000000001FFF
310
800000000001FFF8000001FFFE0000007F80000000000001FFF800000000000F
310
FFFFF800000000000FFFFF0003FFFFFFFFFC00000000000FF000FC0000000000
310
1FFC0007FFFC0000FFFF8000FF80007FF800000000003FFFC00000000001FFF8
310
000001FFFE0000007F80000000000001FFF800000000000FFFFFF80000000000
310
0FFFFF0003FFFFFFFFFE00000000001FF000FE00000000003FF8000FFFFC0000
310
FFFF8000FF80007FFC00000000003FFFC00000000003FFF8000001FFFE000000
310
7F80000000000001FFFC00000000001FFFFFFC00000000001FFFFF0003FFFFFF
310
FFFF00000000001FF000FF00000000003FF8000FFFFC0000FFFFC000FF80007F
310
FE00000000007FFFE00000000007FFF8000001FFFE0000007F80000000000001
310
FFFE00000000003FFFFFFE00000000003FFFFF0003FFFFFFFFFF80000000003F
310
F000FF80000000007FF8000FFFFC0001FFFFC0007F80007FFF0000000000FFFF
310
F0000000000FFFF800000000000000007F80000000000001FFFF8000000000FF
310
FFFFFF8000000000FFFFFF0003FFFFFFFFFFC0000000007FF000FFC000000000
310
FFF8000FFFFE0001FFFFC0007F80007FFF8000000001FFFFF8000000001FFFF8
310
00000000000000007F80000000000001FFFFC000000001FFFFFFFFC000000001
310
FFFFFF0003FFFFFFFFFFE000000000FFF000FFE000000003FFF0001FFFFE0001
310
FFFFC0007F80007FFFC000000007FFFFFE000000003FFFF80000000000000000
310
7F80000000000001FFFFE000000003FFFFFFFFE000000003FFFFFF0003FFFFFF
310
FFFFF000000003FFF000FFF80000000FFFF0001FFFFE0001FFFFE0007F80007F
310
FFF00000000FFFFFFF00000000FFFFF800000000000000007F80000000000001
310
FFFFF80000000FFFFFFFFFF80000000FFFFFFF0003FFFFFFFFFFFC0000000FFF
310
F000FFFE0000003FFFF0001FFFFE0003FFFFE0003F80007FFFFC0000003FFFFF
310
FFC0000003FFFFF800000000000000007F80000000000001FFFFFE0000003FFF
310
FFFFFFFE0000003FFFFFFF0003FFFFFFFFFFFF0000003FFFF000FFFF800000FF
310
FFF0001FFFFF0003FFFFE0003F80007FFFFF000001FFFFFFFFF800001FFFFFF8
310
00000000000000007F80000000000001FFFFFFC00001FFFFFFFFFFFFC00001FF
310
FFFFFF0003FFFFFFFFFFFFC00000FFFFF000FFFFF8000FFFFFFFFFFFFFFFFFFF
310
FFFFFFFFFFFFFFFFFFFFF0001FFFFFFFFFFF0000FFFFFFF80000000000000000
310
7FFFFFFFFFFFFFFFFFFFFFFC001FFFFFFFFFFFFFFC001FFFFFFFFFFFFFFFFFFF
310
FFFFFFFC001FFFFFF000FFFFFFFFFFFFFFFFFFFFFFFFFFFFFFFFFFFFFFFFFFFF
310
FFFFFFFFFFFFFFFFFFFFFFFFFFFFFFFFFFFFFFFFFFFFFFFFFFFFFFFFFFFFFFFF
310
FFFFFFFFFFFFFFFFFFFFFFFFFFFFFFFFFFFFFFFFFFFFFFFFFFFFFFFFFFFFFFFF
310
F000FFFFFFFFFFFFFFFFFFFFFFFFFFFFFFFFFFFFFFFFFFFFFFFFFFFFFFFFFFFF
310
FFFFFFFFFFFFFFFFFFFFFFFFFFFFFFFFFFFFFFFFFFFFFFFFFFFFFFFFFFFFFFFF
310
FFFFFFFFFFFFFFFFFFFFFFFFFFFFFFFFFFFFFFFFFFFFFFFFF000FFFFFFFFFFFF
310
FFFFFFFFFFFFFFFFFFFFFFFFFFFFFFFFFFFFFFFFFFFFFFFFFFFFFFFFFFFFFFFF
310
FFFFFFFFFFFFFFFFFFFFFFFFFFFFFFFFFFFFFFFFFFFFFFFFFFFFFFFFFFFFFFFF
310
FFFFFFFFFFFFFFFFFFFFFFFFFFFFFFFFF000FFFFFFFFFFFFFFFFFFFFFFFFFFFF
310
FFFFFFFFFFFFFFFFFFFFFFFFFFFFFFFFFFFFFFFFFFFFFFFFFFFFFFFFFFFFFFFF
310
FFFFFFFFFFFFFFFFFFFFFFFFFFFFFFFFFFFFFFFFFFFFFFFFFFFFFFFFFFFFFFFF
310
FFFFFFFFFFFFFFFFF000FFFFFFFFFFFFFFFFFFFFFFFFFFFFFFFFFFFFFFFFFFFF
310
FFFFFFFFFFFFFFFFFFFFFFFFFFFFFFFFFFFFFFFFFFFFFFFFFFFFFFFFFFFFFFFF
310
FFFFFFFFFFFFFFFFFFFFFFFFFFFFFFFFFFFFFFFFFFFFFFFFFFFFFFFFFFFFFFFF
310
F000FFFFFFFFFFFFFFFFFFFFFFFFFFFFFFFFFFFFFFFFFFFFFFFFFFFFFFFFFFFF
310
FFFFFFFFFFFFFFFFFFFFFFFFFFFFFFFFFFFFFFFFFFFFFFFFFFFFFFFFFFFFFFFF
310
FFFFFFFFFFFFFFFFFFFFFFFFFFFFFFFFFFFFFFFFFFFFFFFFF000FFFFFFFFFFFF
310
FFFFFFFFFFFFFFFFFFFFFFFFFFFFFFFFFFFFFFFFFFFFFFFFFFFFFFFFFFFFFFFF
310
FFFFFFFFFFFFFFFFFFFFFFFFFFFFFFFFFFFFFFFFFFFFFFFFFFFFFFFFFFFFFFFF
310
FFFFFFFFFFFFFFFFFFFFFFFFFFFFFFFFF000FFFFFFFFFFFFFFFFFFFFFFFFFFFF
310
FFFFFFFFFFFFFFFFFFFFFFFFFFFFFFFFFFFFFFFFFFFFFFFFFFFFFFFFFFFFFFFF
310
FFFFFFFFFFFFFFFFFFFFFFFFFFFFFFFFFFFFFFFFFFFFFFFFFFFFFFFFFFFFFFFF
310
FFFFFFFFFFFFFFFFF000FFFFFFFFFFFFFFFFFFFFFFFFFFFFFFFFFFFFFFFFFFFF
310
FFFFFFFFFFFFFFFFFFFFFFFFFFFFFFFFFFFFFFFFFFFFFFFFFFFFFFFFFFFFFFFF
310
FFFFFFFFFFFFFFFFFFFFFFFFFFFFFFFFFFFFFFFFFFFFFFFFFFFFFFFFFFFFFFFF
310
F000FFFFFFFFFFFFFFFFFFFFFFFFFFFFFFFFFFFFFFFFFFFFFFFFFFFFFFFFFFFF
310
FFFFFFFFFFFFFFFFFFFFFFFFFFFFFFFFFFFFFFFFFFFFFFFFFFFFFFFFFFFFFFFF
310
FFFFFFFFFFFFFFFFFFFFFFFFFFFFFFFFFFFFFFFFFFFFFFFFF000FFFFFFFFFFFF
310
FFFFFFFFFFFFFFFFFFFFFFFFFFFFFFFFFFFFFFFFFFFFFFFFFFFFFFFFFFFFFFFF
310
FFFFFFFFFFFFFFFFFFFFFFFFFFFFFFFFFFFFFFFFFFFFFFFFFFFFFFFFFFFFFFFF
310
FFFFFFFFFFFFFFFFFFFFFFFFFFFFFFFFF000FFFFFFFFFFFFFFFFFFFFFFFFFFFF
310
FFFFFFFFFFFFFFFFFFFFFFFFFFFFFFFFFFFFFFFFFFFFFFFFFFFFFFFFFFFFFFFF
310
FFFFFFFFFFFFFFFFFFFFFFFFFFFFFFFFFFFFFFFFFFFFFFFFFFFFFFFFFFFFFFFF
310
FFFFFFFFFFFFFFFFF000FFFFFFFFFFFFFFFFFFFFFFFFFFFFFFFFFFFFFFFFFFFF
310
FFFFFFFFFFFFFFFFFFFFFFFFFFFFFFFFFFFFFFFFFFFFFFFFFFFFFFFFFFFFFFFF
310
FFFFFFFFFFFFFFFFFFFFFFFFFFFFFFFFFFFFFFFFFFFFFFFFFFFFFFFFFFFFFFFF
310
F000FFFFFFFFFFFFFFFFFFFFFFFFFFFFFFFFFFFFFFFFFFFFFFFFFFFFFFFFFFFF
310
FFFFFFFFFFFFFFFFFFFFFFFFFFFFFFFFFFFFFFFFFFFFFFFFFFFFFFFFFFFFFFFF
310
FFFFFFFFFFFFFFFFFFFFFFFFFFFFFFFFFFFFFFFFFFFFFFFFF000FFFFFFFFFFFF
310
FFFFFFFFFFFFFFFFFFFFFFFFFFFFFFFFFFFFFFFFFFFFFFFFFFFFFFFFFFFFFFFF
310
FFFFFFFFFFFFFFFFFFFFFFFFFFFFFFFFFFFFFFFFFFFFFFFFFFFFFFFFFFFFFFFF
310
FFFFFFFFFFFFFFFFFFFFFFFFFFFFFFFFF000FFFFFFFFFFFFFFFFFFFFFFFFFFFF
310
FFFFFFFFFFFFFFFFFFFFFFFFFFFFFFFFFFFFFFFFFFFFFFFFFFFFFFFFFFFFFFFF
310
FFFFFFFFFFFFFFFFFFFFFFFFFFFFFFFFFFFFFFFFFFFFFFFFFFFFFFFFFFFFFFFF
310
FFFFFFFFFFFFFFFFF000FFFFFFFFFFFFFFFFFFFFFFFFFFFFFFFFFFFFFFFFFFFF
310
FFFFFFFFFFFFFFFFFFFFFFFFFFFFFFFFFFFFFFFFFFFFFFFFFFFFFFFFFFFFFFFF
310
FFFFFFFFFFFFFFFFFFFFFFFFFFFFFFFFFFFFFFFFFFFFFFFFFFFFFFFFFFFFFFFF
310
F000FFFFFFFFFFFFFFFFFFFFFFFFFFFFFFFFFFFFFFFFFFFFFFFFFFFFFFFFFFFF
310
FFFFFFFFFFFFFFFFFFFFFFFFFFFFFFFFFFFFFFFFFFFFFFFFFFFFFFFFFFFFFFFF
310
FFFFFFFFFFFFFFFFFFFFFFFFFFFFFFFFFFFFFFFFFFFFFFFFF000FFFFFFFFFFFF
310
FFFFFFFFFFFFFFFFFFFFFFFFFFFFFFFFFFFFFFFFFFFFFFFFFFFFFFFFFFFFFFFF
310
FFFFFFFFFFFFFFFFFFFFFFFFFFFFFFFFFFFFFFFFFFFFFFFFFFFFFFFFFFFFFFFF
310
FFFFFFFFFFFFFFFFFFFFFFFFFFFFFFFFF000FFFFFFFFFFFFFFFFFFFFFFFFFFFF
310
FFFFFFFFFFFFFFFFFFFFFFFFFFFFFFFFFFFFFFFFFFFFFFFFFFFFFFFFFFFFFFFF
310
FFFFFFFFFFFFFFFFFFFFFFFFFFFFFFFFFFFFFFFFFFFFFFFFFFFFFFFFFFFFFFFF
310
FFFFFFFFFFFFFFFFF000FFFFFFFFFFFFFFFFFFFFFFFFFFFFFFFFFFFFFFFFFFFF
310
FFFFFFFFFFFFFFFFFFFFFFFFFFFFFFFFFFFFFFFFFFFFFFFFFFFFFFFFFFFFFFFF
310
FFFFFFFFFFFFFFFFFFFFFFFFFFFFFFFFFFFFFFFFFFFFFFFFFFFFFFFFFFFFFFFF
310
F000FFFFFFFFFFFFFFFFFFFFFFFFFFFFFFFFFFFFFFFFFFFFFFFFFFFFFFFFFFFF
310
FFFFFFFFFFFFFFFFFFFFFFFFFFFFFFFFFFFFFFFFFFFFFFFFFFFFFFFFFFFFFFFF
310
FFFFFFFFFFFFFFFFFFFFFFFFFFFFFFFFFFFFFFFFFFFFFFFFF000FFFFFFFFFFFF
310
FFFFFFFFFFFFFFFFFFFFFFFFFFFFFFFFFFFFFFFFFFFFFFFFFFFFFFFFFFFFFFFF
310
FFFFFFFFFFFFFFFFFFFFFFFFFFFFFFFFFFFFFFFFFFFFFFFFFFFFFFFFFFFFFFFF
310
FFFFFFFFFFFFFFFFFFFFFFFFFFFFFFFFF0000000000000000000000000000000
310
0000000000000000000000000000000000000000000000000000000000000000
310
0000000000000000000000000000000000000000000000000000000000000000
310
0000000000000000000000000000000000000000000000000000000000000000
310
0000000000000000000000000000000000000000000000000000000000000000
310
0000000000000000000000000000000000000000000000000000000000000000
310
0000000000000000000000000000000000000000000000000000000000000000
310
0000000000000000000000000000000000000000000000000000000000000000
310
0000000000000000000000000000000000000000000000000000000000000000
310
0000000000000000000000000000000000000000000000000000000000000000
310
0000000000000000000000000000000000000000000000000000000000000000
310
0000000000000000000000000000000000000000000000000000000000000000
310
0000000000000000000000000000000000000000000000000000000000000000
310
0000000000000000000000000000000000000000000000000000000000000000
310
0000000000000000000000000000000000000000000000000000000000000000
310
0000000000000000000000000000000000000000000000000000000000000000
  1
OLE
  0
ENDSEC
  0
SECTION
  2
OBJECTS
  0
DICTIONARY
  5
C
330
0
100
AcDbDictionary
281
     1
  3
ACAD_GROUP
350
D
  3
ACAD_LAYOUT
350
1A
  3
ACAD_MLINESTYLE
350
17
  3
ACAD_PLOTSETTINGS
350
19
  3
ACAD_PLOTSTYLENAME
350
E
  3
ACAD_SCALELIST
350
47
  0
DICTIONARY
  5
D
102
{ACAD_REACTORS
330
C
102
}
330
C
100
AcDbDictionary
281
     1
  0
DICTIONARY
  5
1A
102
{ACAD_REACTORS
330
C
102
}
330
C
100
AcDbDictionary
281
     1
  3
Layout1
350
1E
  3
Layout2
350
26
  3
Model
350
22
  0
DICTIONARY
  5
17
102
{ACAD_REACTORS
330
C
102
}
330
C
100
AcDbDictionary
281
     1
  3
Standard
350
18
  0
DICTIONARY
  5
19
102
{ACAD_REACTORS
330
C
102
}
330
C
100
AcDbDictionary
281
     1
  0
ACDBDICTIONARYWDFLT
  5
E
102
{ACAD_REACTORS
330
C
102
}
330
C
100
AcDbDictionary
281
     1
  3
Normal
350
F
100
AcDbDictionaryWithDefault
340
F
  0
DICTIONARY
  5
47
102
{ACAD_REACTORS
330
C
102
}
330
C
100
AcDbDictionary
281
     1
  3
A0
350
48
  3
A1
350
49
  3
A2
350
4A
  3
A3
350
4B
  3
A4
350
4C
  3
A5
350
4D
  3
A6
350
4E
  3
A7
350
4F
  3
A8
350
50
  3
A9
350
51
  3
B0
350
52
  3
B1
350
53
  3
B2
350
54
  3
B3
350
55
  3
B4
350
56
  3
B5
350
57
  3
B6
350
58
  3
B7
350
59
  3
B8
350
5A
  3
B9
350
5B
  3
C0
350
5C
  3
C1
350
5D
  3
C2
350
5E
  3
C3
350
5F
  3
C4
350
60
  3
C5
350
61
  3
C6
350
62
  3
C7
350
63
  3
C8
350
64
  3
C9
350
65
  3
D0
350
66
  3
D1
350
67
  3
D2
350
68
  0
LAYOUT
  5
1E
102
{ACAD_REACTORS
330
1A
102
}
330
1A
100
AcDbPlotSettings
  1

  2
none_device
  4

  6

 40
0.0
 41
0.0
 42
0.0
 43
0.0
 44
0.0
 45
0.0
 46
0.0
 47
0.0
 48
0.0
 49
0.0
140
0.0
141
0.0
142
1.0
143
1.0
 70
   688
 72
     1
 73
     0
 74
     5
  7

 75
    16
147
1.0
148
0.0
149
0.0
100
AcDbLayout
  1
Layout1
 70
     1
 71
     1
 10
0.0
 20
0.0
 11
420.0
 21
297.0
 12
0.0
 22
0.0
 32
0.0
 14
1.0000000000E+20
 24
1.0000000000E+20
 34
1.0000000000E+20
 15
-1.0000000000E+20
 25
-1.0000000000E+20
 35
-1.0000000000E+20
146
0.0
 13
0.0
 23
0.0
 33
0.0
 16
1.0
 26
0.0
 36
0.0
 17
0.0
 27
1.0
 37
0.0
 76
     0
330
1B
  0
LAYOUT
  5
26
102
{ACAD_REACTORS
330
1A
102
}
330
1A
100
AcDbPlotSettings
  1

  2
none_device
  4

  6

 40
0.0
 41
0.0
 42
0.0
 43
0.0
 44
0.0
 45
0.0
 46
0.0
 47
0.0
 48
0.0
 49
0.0
140
0.0
141
0.0
142
1.0
143
1.0
 70
   688
 72
     1
 73
     0
 74
     5
  7

 75
    16
147
1.0
148
0.0
149
0.0
100
AcDbLayout
  1
Layout2
 70
     1
 71
     2
 10
0.0
 20
0.0
 11
0.0
 21
0.0
 12
0.0
 22
0.0
 32
0.0
 14
0.0
 24
0.0
 34
0.0
 15
0.0
 25
0.0
 35
0.0
146
0.0
 13
0.0
 23
0.0
 33
0.0
 16
1.0
 26
0.0
 36
0.0
 17
0.0
 27
1.0
 37
0.0
 76
     0
330
23
  0
LAYOUT
  5
22
102
{ACAD_REACTORS
330
1A
102
}
330
1A
100
AcDbPlotSettings
  1

  2
none_device
  4
Letter_(8.50_x_11.00_Inches)
  6

 40
6.35
 41
6.35
 42
6.35000508
 43
6.35000508
 44
215.9
 45
279.4
 46
0.0
 47
0.0
 48
0.0
 49
0.0
140
0.0
141
0.0
142
1.0
143
1.0
 70
  1712
 72
     1
 73
     0
 74
     0
  7

 75
     0
147
1.0
148
0.0
149
0.0
100
AcDbLayout
  1
Model
 70
     1
 71
     0
 10
0.0
 20
0.0
 11
297.0
 21
210.0
 12
0.0
 22
0.0
 32
0.0
 14
0.0
 24
0.0
 34
0.0
 15
297.0
 25
210.0
 35
0.0
146
0.0
 13
0.0
 23
0.0
 33
0.0
 16
1.0
 26
0.0
 36
0.0
 17
0.0
 27
1.0
 37
0.0
 76
     0
330
1F
331
29
  0
MLINESTYLE
  5
18
102
{ACAD_REACTORS
330
17
102
}
330
17
100
AcDbMlineStyle
  2
Standard
 70
     0
  3

 62
   256
 51
90.0
 52
90.0
 71
     2
 49
0.5
 62
   256
  6
BYLAYER
 49
-0.5
 62
   256
  6
BYLAYER
  0
ACDBPLACEHOLDER
  5
F
102
{ACAD_REACTORS
330
E
102
}
330
E
  0
SCALE
  5
48
102
{ACAD_REACTORS
330
47
102
}
330
47
100
AcDbScale
 70
     0
300
1:1
140
1.0
141
1.0
290
     1
  0
SCALE
  5
49
102
{ACAD_REACTORS
330
47
102
}
330
47
100
AcDbScale
 70
     0
300
1:2
140
1.0
141
2.0
290
     0
  0
SCALE
  5
4A
102
{ACAD_REACTORS
330
47
102
}
330
47
100
AcDbScale
 70
     0
300
1:4
140
1.0
141
4.0
290
     0
  0
SCALE
  5
4B
102
{ACAD_REACTORS
330
47
102
}
330
47
100
AcDbScale
 70
     0
300
1:5
140
1.0
141
5.0
290
     0
  0
SCALE
  5
4C
102
{ACAD_REACTORS
330
47
102
}
330
47
100
AcDbScale
 70
     0
300
1:8
140
1.0
141
8.0
290
     0
  0
SCALE
  5
4D
102
{ACAD_REACTORS
330
47
102
}
330
47
100
AcDbScale
 70
     0
300
1:10
140
1.0
141
10.0
290
     0
  0
SCALE
  5
4E
102
{ACAD_REACTORS
330
47
102
}
330
47
100
AcDbScale
 70
     0
300
1:16
140
1.0
141
16.0
290
     0
  0
SCALE
  5
4F
102
{ACAD_REACTORS
330
47
102
}
330
47
100
AcDbScale
 70
     0
300
1:20
140
1.0
141
20.0
290
     0
  0
SCALE
  5
50
102
{ACAD_REACTORS
330
47
102
}
330
47
100
AcDbScale
 70
     0
300
1:30
140
1.0
141
30.0
290
     0
  0
SCALE
  5
51
102
{ACAD_REACTORS
330
47
102
}
330
47
100
AcDbScale
 70
     0
300
1:40
140
1.0
141
40.0
290
     0
  0
SCALE
  5
52
102
{ACAD_REACTORS
330
47
102
}
330
47
100
AcDbScale
 70
     0
300
1:50
140
1.0
141
50.0
290
     0
  0
SCALE
  5
53
102
{ACAD_REACTORS
330
47
102
}
330
47
100
AcDbScale
 70
     0
300
1:100
140
1.0
141
100.0
290
     0
  0
SCALE
  5
54
102
{ACAD_REACTORS
330
47
102
}
330
47
100
AcDbScale
 70
     0
300
2:1
140
2.0
141
1.0
290
     0
  0
SCALE
  5
55
102
{ACAD_REACTORS
330
47
102
}
330
47
100
AcDbScale
 70
     0
300
4:1
140
4.0
141
1.0
290
     0
  0
SCALE
  5
56
102
{ACAD_REACTORS
330
47
102
}
330
47
100
AcDbScale
 70
     0
300
8:1
140
8.0
141
1.0
290
     0
  0
SCALE
  5
57
102
{ACAD_REACTORS
330
47
102
}
330
47
100
AcDbScale
 70
     0
300
10:1
140
10.0
141
1.0
290
     0
  0
SCALE
  5
58
102
{ACAD_REACTORS
330
47
102
}
330
47
100
AcDbScale
 70
     0
300
100:1
140
100.0
141
1.0
290
     0
  0
SCALE
  5
59
102
{ACAD_REACTORS
330
47
102
}
330
47
100
AcDbScale
 70
     0
300
1/128" = 1'-0"
140
0.0078125
141
12.0
290
     0
  0
SCALE
  5
5A
102
{ACAD_REACTORS
330
47
102
}
330
47
100
AcDbScale
 70
     0
300
1/64" = 1'-0"
140
0.015625
141
12.0
290
     0
  0
SCALE
  5
5B
102
{ACAD_REACTORS
330
47
102
}
330
47
100
AcDbScale
 70
     0
300
1/32" = 1'-0"
140
0.03125
141
12.0
290
     0
  0
SCALE
  5
5C
102
{ACAD_REACTORS
330
47
102
}
330
47
100
AcDbScale
 70
     0
300
1/16" = 1'-0"
140
0.0625
141
12.0
290
     0
  0
SCALE
  5
5D
102
{ACAD_REACTORS
330
47
102
}
330
47
100
AcDbScale
 70
     0
300
3/32" = 1'-0"
140
0.09375
141
12.0
290
     0
  0
SCALE
  5
5E
102
{ACAD_REACTORS
330
47
102
}
330
47
100
AcDbScale
 70
     0
300
1/8" = 1'-0"
140
0.125
141
12.0
290
     0
  0
SCALE
  5
5F
102
{ACAD_REACTORS
330
47
102
}
330
47
100
AcDbScale
 70
     0
300
3/16" = 1'-0"
140
0.1875
141
12.0
290
     0
  0
SCALE
  5
60
102
{ACAD_REACTORS
330
47
102
}
330
47
100
AcDbScale
 70
     0
300
1/4" = 1'-0"
140
0.25
141
12.0
290
     0
  0
SCALE
  5
61
102
{ACAD_REACTORS
330
47
102
}
330
47
100
AcDbScale
 70
     0
300
3/8" = 1'-0"
140
0.375
141
12.0
290
     0
  0
SCALE
  5
62
102
{ACAD_REACTORS
330
47
102
}
330
47
100
AcDbScale
 70
     0
300
1/2" = 1'-0"
140
0.5
141
12.0
290
     0
  0
SCALE
  5
63
102
{ACAD_REACTORS
330
47
102
}
330
47
100
AcDbScale
 70
     0
300
3/4" = 1'-0"
140
0.75
141
12.0
290
     0
  0
SCALE
  5
64
102
{ACAD_REACTORS
330
47
102
}
330
47
100
AcDbScale
 70
     0
300
1" = 1'-0"
140
1.0
141
12.0
290
     0
  0
SCALE
  5
65
102
{ACAD_REACTORS
330
47
102
}
330
47
100
AcDbScale
 70
     0
300
1-1/2" = 1'-0"
140
1.5
141
12.0
290
     0
  0
SCALE
  5
66
102
{ACAD_REACTORS
330
47
102
}
330
47
100
AcDbScale
 70
     0
300
3" = 1'-0"
140
3.0
141
12.0
290
     0
  0
SCALE
  5
67
102
{ACAD_REACTORS
330
47
102
}
330
47
100
AcDbScale
 70
     0
300
6" = 1'-0"
140
6.0
141
12.0
290
     0
  0
SCALE
  5
68
102
{ACAD_REACTORS
330
47
102
}
330
47
100
AcDbScale
 70
     0
300
1'-0" = 1'-0"
140
12.0
141
12.0
290
     0
  0
ENDSEC
  0
EOF
