  0
SECTION
  2
HEADER
  9
$ACADVER
  1
AC1015
  9
$ACADMAINTVER
 70
     6
  9
$DWGCODEPAGE
  3
ANSI_1252
  9
$INSBASE
 10
0.0
 20
0.0
 30
0.0
  9
$EXTMIN
 10
0.0
 20
0.0
 30
0.0
  9
$EXTMAX
 10
297.0
 20
210.0
 30
0.0
  9
$LIMMIN
 10
0.0
 20
0.0
  9
$LIMMAX
 10
297.0
 20
210.0
  9
$ORTHOMODE
 70
     0
  9
$REGENMODE
 70
     1
  9
$FILLMODE
 70
     1
  9
$QTEXTMODE
 70
     0
  9
$MIRRTEXT
 70
     1
  9
$LTSCALE
 40
1.0
  9
$ATTMODE
 70
     1
  9
$TEXTSIZE
 40
2.0
  9
$TRACEWID
 40
1.0
  9
$TEXTSTYLE
  7
Standard
  9
$CLAYER
  8
0
  9
$CELTYPE
  6
ByLayer
  9
$CECOLOR
 62
   256
  9
$CELTSCALE
 40
1.0
  9
$DISPSILH
 70
     0
  9
$DIMSCALE
 40
1.0
  9
$DIMASZ
 40
3.0
  9
$DIMEXO
 40
0.0
  9
$DIMDLI
 40
3.75
  9
$DIMRND
 40
0.0
  9
$DIMDLE
 40
0.0
  9
$DIMEXE
 40
1.0
  9
$DIMTP
 40
0.0
  9
$DIMTM
 40
0.0
  9
$DIMTXT
 40
2.0
  9
$DIMCEN
 40
2.5
  9
$DIMTSZ
 40
0.0
  9
$DIMTOL
 70
     0
  9
$DIMLIM
 70
     0
  9
$DIMTIH
 70
     1
  9
$DIMTOH
 70
     1
  9
$DIMSE1
 70
     0
  9
$DIMSE2
 70
     0
  9
$DIMTAD
 70
     1
  9
$DIMZIN
 70
     0
  9
$DIMBLK
  1

  9
$DIMASO
 70
     1
  9
$DIMSHO
 70
     1
  9
$DIMPOST
  1

  9
$DIMAPOST
  1

  9
$DIMALT
 70
     0
  9
$DIMALTD
 70
     3
  9
$DIMALTF
 40
0.0393700787
  9
$DIMLFAC
 40
1.0
  9
$DIMTOFL
 70
     1
  9
$DIMTVP
 40
0.0
  9
$DIMTIX
 70
     0
  9
$DIMSOXD
 70
     0
  9
$DIMSAH
 70
     0
  9
$DIMBLK1
  1

  9
$DIMBLK2
  1

  9
$DIMSTYLE
  2
ISO-25
  9
$DIMCLRD
 70
     0
  9
$DIMCLRE
 70
     0
  9
$DIMCLRT
 70
     0
  9
$DIMTFAC
 40
1.0
  9
$DIMGAP
 40
1.524
  9
$DIMJUST
 70
     0
  9
$DIMSD1
 70
     0
  9
$DIMSD2
 70
     0
  9
$DIMTOLJ
 70
     0
  9
$DIMTZIN
 70
     0
  9
$DIMALTZ
 70
     0
  9
$DIMALTTZ
 70
     0
  9
$DIMUPT
 70
     0
  9
$DIMDEC
 70
     2
  9
$DIMTDEC
 70
     3
  9
$DIMALTU
 70
     2
  9
$DIMALTTD
 70
     3
  9
$DIMTXSTY
  7
Standard
  9
$DIMAUNIT
 70
     0
  9
$DIMADEC
 70
     2
  9
$DIMALTRND
 40
0.0
  9
$DIMAZIN
 70
     0
  9
$DIMDSEP
 70
    44
  9
$DIMATFIT
 70
     3
  9
$DIMFRAC
 70
     0
  9
$DIMLDRBLK
  1

  9
$DIMLUNIT
 70
     2
  9
$DIMLWD
 70
    -2
  9
$DIMLWE
 70
    -2
  9
$DIMTMOVE
 70
     0
  9
$LUNITS
 70
     2
  9
$LUPREC
 70
     2
  9
$SKETCHINC
 40
1.0
  9
$FILLETRAD
 40
10.0
  9
$AUNITS
 70
     0
  9
$AUPREC
 70
     2
  9
$MENU
  1
.
  9
$ELEVATION
 40
0.0
  9
$PELEVATION
 40
0.0
  9
$THICKNESS
 40
0.0
  9
$LIMCHECK
 70
     0
  9
$CHAMFERA
 40
0.0
  9
$CHAMFERB
 40
0.0
  9
$CHAMFERC
 40
0.0
  9
$CHAMFERD
 40
0.0
  9
$SKPOLY
 70
     0
  9
$TDCREATE
 40
2457632.461984803
  9
$TDUCREATE
 40
2457632.37865147
  9
$TDUPDATE
 40
2457632.461986123
  9
$TDUUPDATE
 40
2457632.378652789
  9
$TDINDWG
 40
0.0000000116
  9
$TDUSRTIMER
 40
0.0000000116
  9
$USRTIMER
 70
     1
  9
$ANGBASE
 50
0.0
  9
$ANGDIR
 70
     0
  9
$PDMODE
 70
     0
  9
$PDSIZE
 40
-1.0
  9
$PLINEWID
 40
0.0
  9
$SPLFRAME
 70
     0
  9
$SPLINETYPE
 70
     6
  9
$SPLINESEGS
 70
     8
  9
$HANDSEED
  5
2C4
  9
$SURFTAB1
 70
     6
  9
$SURFTAB2
 70
     6
  9
$SURFTYPE
 70
     6
  9
$SURFU
 70
     6
  9
$SURFV
 70
     6
  9
$UCSBASE
  2

  9
$UCSNAME
  2

  9
$UCSORG
 10
0.0
 20
0.0
 30
0.0
  9
$UCSXDIR
 10
1.0
 20
0.0
 30
0.0
  9
$UCSYDIR
 10
0.0
 20
1.0
 30
0.0
  9
$UCSORTHOREF
  2

  9
$UCSORTHOVIEW
 70
     0
  9
$UCSORGTOP
 10
0.0
 20
0.0
 30
0.0
  9
$UCSORGBOTTOM
 10
0.0
 20
0.0
 30
0.0
  9
$UCSORGLEFT
 10
0.0
 20
0.0
 30
0.0
  9
$UCSORGRIGHT
 10
0.0
 20
0.0
 30
0.0
  9
$UCSORGFRONT
 10
0.0
 20
0.0
 30
0.0
  9
$UCSORGBACK
 10
0.0
 20
0.0
 30
0.0
  9
$PUCSBASE
  2

  9
$PUCSNAME
  2

  9
$PUCSORG
 10
0.0
 20
0.0
 30
0.0
  9
$PUCSXDIR
 10
1.0
 20
0.0
 30
0.0
  9
$PUCSYDIR
 10
0.0
 20
1.0
 30
0.0
  9
$PUCSORTHOREF
  2

  9
$PUCSORTHOVIEW
 70
     0
  9
$PUCSORGTOP
 10
0.0
 20
0.0
 30
0.0
  9
$PUCSORGBOTTOM
 10
0.0
 20
0.0
 30
0.0
  9
$PUCSORGLEFT
 10
0.0
 20
0.0
 30
0.0
  9
$PUCSORGRIGHT
 10
0.0
 20
0.0
 30
0.0
  9
$PUCSORGFRONT
 10
0.0
 20
0.0
 30
0.0
  9
$PUCSORGBACK
 10
0.0
 20
0.0
 30
0.0
  9
$USERI1
 70
     0
  9
$USERI2
 70
     0
  9
$USERI3
 70
     0
  9
$USERI4
 70
     0
  9
$USERI5
 70
     0
  9
$USERR1
 40
0.0
  9
$USERR2
 40
0.0
  9
$USERR3
 40
0.0
  9
$USERR4
 40
0.0
  9
$USERR5
 40
0.0
  9
$WORLDVIEW
 70
     1
  9
$SHADEDGE
 70
     3
  9
$SHADEDIF
 70
    70
  9
$TILEMODE
 70
     1
  9
$MAXACTVP
 70
    64
  9
$PINSBASE
 10
0.0
 20
0.0
 30
0.0
  9
$PLIMCHECK
 70
     0
  9
$PEXTMIN
 10
1.0000000000E+20
 20
1.0000000000E+20
 30
1.0000000000E+20
  9
$PEXTMAX
 10
-1.0000000000E+20
 20
-1.0000000000E+20
 30
-1.0000000000E+20
  9
$PLIMMIN
 10
0.0
 20
0.0
  9
$PLIMMAX
 10
420.0
 20
297.0
  9
$UNITMODE
 70
     0
  9
$VISRETAIN
 70
     1
  9
$PLINEGEN
 70
     0
  9
$PSLTSCALE
 70
     1
  9
$TREEDEPTH
 70
  3020
  9
$CMLSTYLE
  2
Standard
  9
$CMLJUST
 70
     0
  9
$CMLSCALE
 40
20.0
  9
$PROXYGRAPHICS
 70
     1
  9
$MEASUREMENT
 70
     1
  9
$CELWEIGHT
370
    -1
  9
$ENDCAPS
280
     0
  9
$JOINSTYLE
280
     0
  9
$LWDISPLAY
290
     1
  9
$INSUNITS
 70
     4
  9
$HYPERLINKBASE
  1

  9
$STYLESHEET
  1

  9
$XEDIT
290
     1
  9
$CEPSNTYPE
380
     0
  9
$PSTYLEMODE
290
     1
  9
$FINGERPRINTGUID
  2
{0ABD34AA-6A1E-48FC-B365-F2FED7B19ED4}
  9
$VERSIONGUID
  2
{FAEB1C32-E019-11D5-929B-00C0DF256EC4}
  9
$EXTNAMES
290
     1
  9
$PSVPSCALE
 40
0.0
  9
$OLESTARTUP
290
     0
  0
ENDSEC
  0
SECTION
  2
CLASSES
  0
CLASS
  1
ACDBDICTIONARYWDFLT
  2
AcDbDictionaryWithDefault
  3
ObjectDBX Classes
 90
        0
280
     0
281
     0
  0
CLASS
  1
VISUALSTYLE
  2
AcDbVisualStyle
  3
ObjectDBX Classes
 90
     4095
280
     0
281
     0
  0
CLASS
  1
MATERIAL
  2
AcDbMaterial
  3
ObjectDBX Classes
 90
     1153
280
     0
281
     0
  0
CLASS
  1
SCALE
  2
AcDbScale
  3
ObjectDBX Classes
 90
     1153
280
     0
281
     0
  0
CLASS
  1
TABLESTYLE
  2
AcDbTableStyle
  3
ObjectDBX Classes
 90
     4095
280
     0
281
     0
  0
CLASS
  1
MLEADERSTYLE
  2
AcDbMLeaderStyle
  3
ACDB_MLEADERSTYLE_CLASS
 90
     4095
280
     0
281
     0
  0
CLASS
  1
SUN
  2
AcDbSun
  3
SCENEOE
 90
     1153
280
     0
281
     0
  0
CLASS
  1
ACDBPLACEHOLDER
  2
AcDbPlaceHolder
  3
ObjectDBX Classes
 90
        0
280
     0
281
     0
  0
CLASS
  1
LAYOUT
  2
AcDbLayout
  3
ObjectDBX Classes
 90
        0
280
     0
281
     0
  0
ENDSEC
  0
SECTION
  2
TABLES
  0
TABLE
  2
VPORT
  5
8
330
0
100
AcDbSymbolTable
 70
     1
  0
VPORT
  5
29
330
8
100
AcDbSymbolTableRecord
100
AcDbViewportTableRecord
  2
*Active
 70
     0
 10
0.0
 20
0.0
 11
1.0
 21
1.0
 12
148.5
 22
105.0
 13
0.0
 23
0.0
 14
10.0
 24
10.0
 15
10.0
 25
10.0
 16
0.0
 26
0.0
 36
1.0
 17
0.0
 27
0.0
 37
0.0
 40
210.0
 41
1.4142857143
 42
50.0
 43
0.0
 44
0.0
 50
0.0
 51
0.0
 71
     0
 72
  2000
 73
     1
 74
     3
 75
     0
 76
     0
 77
     0
 78
     0
281
     0
 65
     1
110
0.0
120
0.0
130
0.0
111
1.0
121
0.0
131
0.0
112
0.0
122
1.0
132
0.0
 79
     0
146
0.0
  0
ENDTAB
  0
TABLE
  2
LTYPE
  5
5
330
0
100
AcDbSymbolTable
 70
     6
  0
LTYPE
  5
14
330
5
100
AcDbSymbolTableRecord
100
AcDbLinetypeTableRecord
  2
ByBlock
 70
     0
  3

 72
    65
 73
     0
 40
0.0
  0
LTYPE
  5
15
330
5
100
AcDbSymbolTableRecord
100
AcDbLinetypeTableRecord
  2
ByLayer
 70
     0
  3

 72
    65
 73
     0
 40
0.0
  0
LTYPE
  5
16
330
5
100
AcDbSymbolTableRecord
100
AcDbLinetypeTableRecord
  2
Continuous
 70
     0
  3
Solid line
 72
    65
 73
     0
 40
0.0
  0
LTYPE
  5
6E
330
5
100
AcDbSymbolTableRecord
100
AcDbLinetypeTableRecord
  2
HIDDEN
 70
     0
  3
Hidden __ __ __ __ __ __ __ __ __ __ __ __ __ __
 72
    65
 73
     2
 40
1.905
 49
1.27
 74
     0
 49
-0.635
 74
     0
  0
LTYPE
  5
6F
330
5
100
AcDbSymbolTableRecord
100
AcDbLinetypeTableRecord
  2
PHANTOM
 70
     0
  3
Phantom ______  __  __  ______  __  __  ______
 72
    65
 73
     6
 40
12.7
 49
6.35
 74
     0
 49
-1.27
 74
     0
 49
1.27
 74
     0
 49
-1.27
 74
     0
 49
1.27
 74
     0
 49
-1.27
 74
     0
  0
LTYPE
  5
70
330
5
100
AcDbSymbolTableRecord
100
AcDbLinetypeTableRecord
  2
CENTER
 70
     0
  3
Center ____ _ ____ _ ____ _ ____ _ ____ _ ____
 72
    65
 73
     4
 40
10.16
 49
6.35
 74
     0
 49
-1.27
 74
     0
 49
1.27
 74
     0
 49
-1.27
 74
     0
  0
LTYPE
  5
71
330
5
100
AcDbSymbolTableRecord
100
AcDbLinetypeTableRecord
  2
CENTERX2
 70
     0
  3
Center (2x) ________  __  ________  __  _____
 72
    65
 73
     4
 40
20.32
 49
12.7
 74
     0
 49
-2.54
 74
     0
 49
2.54
 74
     0
 49
-2.54
 74
     0
  0
LTYPE
  5
72
330
5
100
AcDbSymbolTableRecord
100
AcDbLinetypeTableRecord
  2
DOT2
 70
     0
  3
Dot (.5x) ........................................
 72
    65
 73
     2
 40
0.635
 49
0.0
 74
     0
 49
-0.635
 74
     0
  0
ENDTAB
  0
TABLE
  2
LAYER
  5
2
330
0
100
AcDbSymbolTable
 70
     5
  0
LAYER
  5
10
330
2
100
AcDbSymbolTableRecord
100
AcDbLayerTableRecord
  2
0
 70
     0
 62
     7
  6
Continuous
370
    -3
390
F
  0
LAYER
  5
73
330
2
100
AcDbSymbolTableRecord
100
AcDbLayerTableRecord
  2
FORMAT
 70
     0
 62
     7
  6
Continuous
370
    -3
390
F
  0
LAYER
  5
74
330
2
100
AcDbSymbolTableRecord
100
AcDbLayerTableRecord
  2
VERMASSUNG
 70
     0
 62
     7
  6
Continuous
370
    -3
390
F
  0
LAYER
  5
75
330
2
100
AcDbSymbolTableRecord
100
AcDbLayerTableRecord
  2
KOPF_DÜNN
 70
     0
 62
     7
  6
Continuous
370
    -3
390
F
  0
LAYER
  5
76
330
2
100
AcDbSymbolTableRecord
100
AcDbLayerTableRecord
  2
KOPF_DICK
 70
     0
 62
     7
  6
Continuous
370
    15
390
F
  0
ENDTAB
  0
TABLE
  2
STYLE
  5
3
330
0
100
AcDbSymbolTable
 70
     2
  0
STYLE
  5
11
330
3
100
AcDbSymbolTableRecord
100
AcDbTextStyleTableRecord
  2
Standard
 70
     0
 40
0.0
 41
1.0
 50
0.0
 71
     0
 42
2.0
  3
txt
  4

  0
STYLE
  5
77
330
3
100
AcDbSymbolTableRecord
100
AcDbTextStyleTableRecord
  2
SLDTEXTSTYLE0
 70
     0
 40
0.0
 41
0.7
 50
0.0
 71
     0
 42
2.0
  3
TXT
  4

  0
ENDTAB
  0
TABLE
  2
VIEW
  5
6
330
0
100
AcDbSymbolTable
 70
     0
  0
ENDTAB
  0
TABLE
  2
UCS
  5
7
330
0
100
AcDbSymbolTable
 70
     0
  0
ENDTAB
  0
TABLE
  2
APPID
  5
9
330
0
100
AcDbSymbolTable
 70
     1
  0
APPID
  5
12
330
9
100
AcDbSymbolTableRecord
100
AcDbRegAppTableRecord
  2
ACAD
 70
     0
  0
ENDTAB
  0
TABLE
  2
DIMSTYLE
  5
A
330
0
100
AcDbSymbolTable
 70
     2
100
AcDbDimStyleTable
  0
DIMSTYLE
105
27
330
A
100
AcDbSymbolTableRecord
100
AcDbDimStyleTableRecord
  2
ISO-25
 70
     0
 41
2.5
 42
0.625
 43
3.75
 44
1.25
 73
     0
 74
     0
 77
     1
 78
     8
140
2.5
141
2.5
143
0.0393700787
147
0.625
171
     3
172
     1
178
     0
271
     2
272
     2
274
     3
278
    44
283
     0
284
     8
340
11
  0
DIMSTYLE
105
1CE
102
{ACAD_REACTORS
330
1CD
330
1DA
330
1E6
330
1F0
330
1FA
102
}
330
A
100
AcDbSymbolTableRecord
100
AcDbDimStyleTableRecord
  2
SLDDIMSTYLE0
 70
     0
 41
3.0
 44
0.0
 45
0.000000001
 73
     0
 74
     0
 77
     1
 78
    12
 79
     3
140
2.0
147
0.5
173
     1
178
     0
271
     2
272
     3
276
     2
284
    12
340
77
  0
ENDTAB
  0
TABLE
  2
BLOCK_RECORD
  5
1
330
0
100
AcDbSymbolTable
 70
     6
  0
BLOCK_RECORD
  5
1F
330
1
100
AcDbSymbolTableRecord
100
AcDbBlockTableRecord
  2
*Model_Space
340
22
  0
BLOCK_RECORD
  5
1B
330
1
100
AcDbSymbolTableRecord
100
AcDbBlockTableRecord
  2
*Paper_Space
340
1E
  0
BLOCK_RECORD
  5
23
330
1
100
AcDbSymbolTableRecord
100
AcDbBlockTableRecord
  2
*Paper_Space0
340
26
  0
BLOCK_RECORD
  5
1CF
330
1
100
AcDbSymbolTableRecord
100
AcDbBlockTableRecord
  2
_D
340
0
  0
BLOCK_RECORD
  5
1DB
330
1
100
AcDbSymbolTableRecord
100
AcDbBlockTableRecord
  2
_D_1
340
0
  0
BLOCK_RECORD
  5
1E7
330
1
100
AcDbSymbolTableRecord
100
AcDbBlockTableRecord
  2
_D_2
340
0
  0
BLOCK_RECORD
  5
1F1
330
1
100
AcDbSymbolTableRecord
100
AcDbBlockTableRecord
  2
_D_3
340
0
  0
BLOCK_RECORD
  5
1FB
330
1
100
AcDbSymbolTableRecord
100
AcDbBlockTableRecord
  2
_D_4
340
0
  0
ENDTAB
  0
ENDSEC
  0
SECTION
  2
BLOCKS
  0
BLOCK
  5
20
330
1F
100
AcDbEntity
  8
0
100
AcDbBlockBegin
  2
*Model_Space
 70
     0
 10
0.0
 20
0.0
 30
0.0
  3
*Model_Space
  1

  0
ENDBLK
  5
21
330
1F
100
AcDbEntity
  8
0
100
AcDbBlockEnd
  0
BLOCK
  5
1C
330
1B
100
AcDbEntity
 67
     1
  8
0
100
AcDbBlockBegin
  2
*Paper_Space
 70
     0
 10
0.0
 20
0.0
 30
0.0
  3
*Paper_Space
  1

  0
ENDBLK
  5
1D
330
1B
100
AcDbEntity
 67
     1
  8
0
100
AcDbBlockEnd
  0
BLOCK
  5
24
330
23
100
AcDbEntity
  8
0
100
AcDbBlockBegin
  2
*Paper_Space0
 70
     0
 10
0.0
 20
0.0
 30
0.0
  3
*Paper_Space0
  1

  0
ENDBLK
  5
25
330
23
100
AcDbEntity
  8
0
100
AcDbBlockEnd
  0
BLOCK
  5
1D0
330
1CF
100
AcDbEntity
  8
0
100
AcDbBlockBegin
  2
_D
 70
     0
 10
0.0
 20
0.0
 30
0.0
  3
_D
  1

  0
SOLID
  5
1D2
330
1CF
100
AcDbEntity
  8
VERMASSUNG
100
AcDbTrace
 10
64.4770769441
 20
68.3778617492
 30
0.0
 11
64.9270769441
 21
71.3778617492
 31
0.0
 12
64.0270769441
 22
71.3778617492
 32
0.0
 13
64.0270769441
 23
71.3778617492
 33
0.0
  0
SOLID
  5
1D3
330
1CF
100
AcDbEntity
  8
VERMASSUNG
100
AcDbTrace
 10
64.4770769441
 20
165.8278617492
 30
0.0
 11
64.0270769441
 21
162.8278617492
 31
0.0
 12
64.9270769441
 22
162.8278617492
 32
0.0
 13
64.9270769441
 23
162.8278617492
 33
0.0
  0
LINE
  5
1D4
330
1CF
100
AcDbEntity
  8
VERMASSUNG
100
AcDbLine
 10
192.3824711592
 20
68.3778617492
 30
0.0
 11
63.4770769441
 21
68.3778617492
 31
0.0
  0
LINE
  5
1D5
330
1CF
100
AcDbEntity
  8
VERMASSUNG
100
AcDbLine
 10
192.3824711592
 20
165.8278617492
 30
0.0
 11
63.4770769441
 21
165.8278617492
 31
0.0
  0
LINE
  5
1D6
330
1CF
100
AcDbEntity
  8
VERMASSUNG
100
AcDbLine
 10
64.4770769441
 20
68.3778617492
 30
0.0
 11
64.4770769441
 21
165.8278617492
 31
0.0
  0
MTEXT
  5
1D7
330
1CF
100
AcDbEntity
  8
VERMASSUNG
100
AcDbMText
 10
61.6989416878
 20
107.5984261158
 30
0.0
 40
2.0
 41
0.0
 71
     1
 72
     1
  1
ISO 50
  7
SLDTEXTSTYLE0
 11
3.391901413832837E-15
 21
1.0
 31
0.0
 73
     1
 44
1.0
  0
MTEXT
  5
1D8
330
1CF
100
AcDbEntity
  8
VERMASSUNG
100
AcDbMText
 10
61.8989416391
 20
116.5984257284
 30
0.0
 40
2.0
 41
0.0
 71
     1
 72
     1
  1
%%c
  7
SLDTEXTSTYLE0
 11
3.391901413832837E-15
 21
1.0
 31
0.0
 73
     1
 44
1.0
  0
MTEXT
  5
1D9
330
1CF
100
AcDbEntity
  8
VERMASSUNG
100
AcDbMText
 10
61.8989413481
 20
120.2077690613
 30
0.0
 40
2.0
 41
0.0
 71
     1
 72
     1
  1
97.45
  7
SLDTEXTSTYLE0
 11
3.391901413832837E-15
 21
1.0
 31
0.0
 73
     1
 44
1.0
  0
ENDBLK
  5
1D1
330
1CF
100
AcDbEntity
  8
0
100
AcDbBlockEnd
  0
BLOCK
  5
1DC
330
1DB
100
AcDbEntity
  8
0
100
AcDbBlockBegin
  2
_D_1
 70
     0
 10
0.0
 20
0.0
 30
0.0
  3
_D_1
  1

  0
ARC
  5
1DE
330
1DB
100
AcDbEntity
  8
VERMASSUNG
100
AcDbCircle
 10
151.9939052478
 20
185.8784334103
 30
0.0
 40
4.247059938537284
100
AcDbArc
 50
153.4349488229
 51
206.5650511771
  0
ARC
  5
1DF
330
1DB
100
AcDbEntity
  8
VERMASSUNG
100
AcDbCircle
 10
153.3710370706
 20
185.8784334103
 30
0.0
 40
4.247059938537284
100
AcDbArc
 50
333.4349488229
 51
26.5650511771
  0
SOLID
  5
1E0
330
1DB
100
AcDbEntity
  8
VERMASSUNG
100
AcDbTrace
 10
72.3324711592
 20
183.9790904648
 30
0.0
 11
75.3324711592
 21
183.5290904648
 31
0.0
 12
75.3324711592
 22
184.4290904648
 32
0.0
 13
75.3324711592
 23
184.4290904648
 33
0.0
  0
SOLID
  5
1E1
330
1DB
100
AcDbEntity
  8
VERMASSUNG
100
AcDbTrace
 10
233.0324711592
 20
183.9790904648
 30
0.0
 11
230.0324711592
 21
184.4290904648
 31
0.0
 12
230.0324711592
 22
183.5290904648
 32
0.0
 13
230.0324711592
 23
183.5290904648
 33
0.0
  0
LINE
  5
1E2
330
1DB
100
AcDbEntity
  8
VERMASSUNG
100
AcDbLine
 10
72.3324711592
 20
135.4817062766
 30
0.0
 11
72.3324711592
 21
184.9790904648
 31
0.0
  0
LINE
  5
1E3
330
1DB
100
AcDbEntity
  8
VERMASSUNG
100
AcDbLine
 10
233.0324711592
 20
144.1028617492
 30
0.0
 11
233.0324711592
 21
184.9790904648
 31
0.0
  0
LINE
  5
1E4
330
1DB
100
AcDbEntity
  8
VERMASSUNG
100
AcDbLine
 10
72.3324711592
 20
183.9790904648
 30
0.0
 11
233.0324711592
 21
183.9790904648
 31
0.0
  0
MTEXT
  5
1E5
330
1DB
100
AcDbEntity
  8
VERMASSUNG
100
AcDbMText
 10
149.782719357
 20
186.5572260608
 30
0.0
 40
2.0
 41
0.0
 71
     1
 72
     1
  1
160.7
  7
SLDTEXTSTYLE0
 73
     1
 44
1.0
  0
ENDBLK
  5
1DD
330
1DB
100
AcDbEntity
  8
0
100
AcDbBlockEnd
  0
BLOCK
  5
1E8
330
1E7
100
AcDbEntity
  8
0
100
AcDbBlockBegin
  2
_D_2
 70
     0
 10
0.0
 20
0.0
 30
0.0
  3
_D_2
  1

  0
SOLID
  5
1EA
330
1E7
100
AcDbEntity
  8
VERMASSUNG
100
AcDbTrace
 10
173.9324711592
 20
177.9790904648
 30
0.0
 11
176.9324711592
 21
177.5290904648
 31
0.0
 12
176.9324711592
 22
178.4290904648
 32
0.0
 13
176.9324711592
 23
178.4290904648
 33
0.0
  0
SOLID
  5
1EB
330
1E7
100
AcDbEntity
  8
VERMASSUNG
100
AcDbTrace
 10
233.0324711592
 20
177.9790904648
 30
0.0
 11
230.0324711592
 21
178.4290904648
 31
0.0
 12
230.0324711592
 22
177.5290904648
 32
0.0
 13
230.0324711592
 23
177.5290904648
 33
0.0
  0
LINE
  5
1EC
330
1E7
100
AcDbEntity
  8
VERMASSUNG
100
AcDbLine
 10
173.9324711592
 20
152.0278617492
 30
0.0
 11
173.9324711592
 21
178.9790904648
 31
0.0
  0
LINE
  5
1ED
330
1E7
100
AcDbEntity
  8
VERMASSUNG
100
AcDbLine
 10
233.0324711592
 20
144.1028617492
 30
0.0
 11
233.0324711592
 21
178.9790904648
 31
0.0
  0
LINE
  5
1EE
330
1E7
100
AcDbEntity
  8
VERMASSUNG
100
AcDbLine
 10
173.9324711592
 20
177.9790904648
 30
0.0
 11
233.0324711592
 21
177.9790904648
 31
0.0
  0
MTEXT
  5
1EF
330
1E7
100
AcDbEntity
  8
VERMASSUNG
100
AcDbMText
 10
201.2831158554
 20
180.5572260608
 30
0.0
 40
2.0
 41
0.0
 71
     1
 72
     1
  1
59.1
  7
SLDTEXTSTYLE0
 73
     1
 44
1.0
  0
ENDBLK
  5
1E9
330
1E7
100
AcDbEntity
  8
0
100
AcDbBlockEnd
  0
BLOCK
  5
1F2
330
1F1
100
AcDbEntity
  8
0
100
AcDbBlockBegin
  2
_D_3
 70
     0
 10
0.0
 20
0.0
 30
0.0
  3
_D_3
  1

  0
SOLID
  5
1F4
330
1F1
100
AcDbEntity
  8
VERMASSUNG
100
AcDbTrace
 10
192.9824711592
 20
171.9790904648
 30
0.0
 11
195.9824711592
 21
171.5290904648
 31
0.0
 12
195.9824711592
 22
172.4290904648
 32
0.0
 13
195.9824711592
 23
172.4290904648
 33
0.0
  0
SOLID
  5
1F5
330
1F1
100
AcDbEntity
  8
VERMASSUNG
100
AcDbTrace
 10
233.0324711592
 20
171.9790904648
 30
0.0
 11
230.0324711592
 21
172.4290904648
 31
0.0
 12
230.0324711592
 22
171.5290904648
 32
0.0
 13
230.0324711592
 23
171.5290904648
 33
0.0
  0
LINE
  5
1F6
330
1F1
100
AcDbEntity
  8
VERMASSUNG
100
AcDbLine
 10
192.9824711592
 20
154.8519428638
 30
0.0
 11
192.9824711592
 21
172.9790904648
 31
0.0
  0
LINE
  5
1F7
330
1F1
100
AcDbEntity
  8
VERMASSUNG
100
AcDbLine
 10
233.0324711592
 20
144.1028617492
 30
0.0
 11
233.0324711592
 21
172.9790904648
 31
0.0
  0
LINE
  5
1F8
330
1F1
100
AcDbEntity
  8
VERMASSUNG
100
AcDbLine
 10
192.9824711592
 20
171.9790904648
 30
0.0
 11
233.0324711592
 21
171.9790904648
 31
0.0
  0
MTEXT
  5
1F9
330
1F1
100
AcDbEntity
  8
VERMASSUNG
100
AcDbMText
 10
209.8077069986
 20
174.5572260608
 30
0.0
 40
2.0
 41
0.0
 71
     1
 72
     1
  1
40.05
  7
SLDTEXTSTYLE0
 73
     1
 44
1.0
  0
ENDBLK
  5
1F3
330
1F1
100
AcDbEntity
  8
0
100
AcDbBlockEnd
  0
BLOCK
  5
1FC
330
1FB
100
AcDbEntity
  8
0
100
AcDbBlockBegin
  2
_D_4
 70
     0
 10
0.0
 20
0.0
 30
0.0
  3
_D_4
  1

  0
SOLID
  5
1FE
330
1FB
100
AcDbEntity
  8
VERMASSUNG
100
AcDbTrace
 10
240.0550774779
 20
144.6028617492
 30
0.0
 11
239.6050774779
 21
141.6028617492
 31
0.0
 12
240.5050774779
 22
141.6028617492
 32
0.0
 13
240.5050774779
 23
141.6028617492
 33
0.0
  0
SOLID
  5
1FF
330
1FB
100
AcDbEntity
  8
VERMASSUNG
100
AcDbTrace
 10
240.0550774779
 20
89.6028617492
 30
0.0
 11
240.5050774779
 21
92.6028617492
 31
0.0
 12
239.6050774779
 22
92.6028617492
 32
0.0
 13
239.6050774779
 23
92.6028617492
 33
0.0
  0
LINE
  5
200
330
1FB
100
AcDbEntity
  8
VERMASSUNG
100
AcDbLine
 10
232.5324711592
 20
144.6028617492
 30
0.0
 11
241.0550774779
 21
144.6028617492
 31
0.0
  0
LINE
  5
201
330
1FB
100
AcDbEntity
  8
VERMASSUNG
100
AcDbLine
 10
232.5324711592
 20
89.6028617492
 30
0.0
 11
241.0550774779
 21
89.6028617492
 31
0.0
  0
LINE
  5
202
330
1FB
100
AcDbEntity
  8
VERMASSUNG
100
AcDbLine
 10
240.0550774779
 20
144.6028617492
 30
0.0
 11
240.0550774779
 21
89.6028617492
 31
0.0
  0
MTEXT
  5
203
330
1FB
100
AcDbEntity
  8
VERMASSUNG
100
AcDbMText
 10
237.2769422217
 20
110.6978621056
 30
0.0
 40
2.0
 41
0.0
 71
     1
 72
     1
  1
MBM
  7
SLDTEXTSTYLE0
 11
-7.044195017643634E-15
 21
1.0
 31
0.0
 73
     1
 44
1.0
  0
MTEXT
  5
204
330
1FB
100
AcDbEntity
  8
VERMASSUNG
100
AcDbMText
 10
237.4769421729
 20
117.097861944
 30
0.0
 40
2.0
 41
0.0
 71
     1
 72
     1
  1
%%c
  7
SLDTEXTSTYLE0
 11
-7.044195017643634E-15
 21
1.0
 31
0.0
 73
     1
 44
1.0
  0
MTEXT
  5
205
330
1FB
100
AcDbEntity
  8
VERMASSUNG
100
AcDbMText
 10
237.2769422217
 20
120.7078624239
 30
0.0
 40
2.0
 41
0.0
 71
     1
 72
     1
  1
55
  7
SLDTEXTSTYLE0
 11
-7.044195017643634E-15
 21
1.0
 31
0.0
 73
     1
 44
1.0
  0
ENDBLK
  5
1FD
330
1FB
100
AcDbEntity
  8
0
100
AcDbBlockEnd
  0
ENDSEC
  0
SECTION
  2
ENTITIES
  0
MTEXT
  5
78
330
1F
100
AcDbEntity
  8
KOPF_DÜNN
100
AcDbMText
 10
13.8892156294
 20
23.8442973028
 30
0.0
 40
3.0
 41
0.0
 71
     1
 72
     1
  1
102.525.551
  7
SLDTEXTSTYLE0
 73
     1
 44
1.0
  0
MTEXT
  5
79
330
1F
100
AcDbEntity
  8
VERMASSUNG
100
AcDbMText
 10
13.9329988022
 20
28.8834360957
 30
0.0
 40
3.0
 41
0.0
 71
     1
 72
     1
  1
Aufnahme_Master shank MBM 55
  7
SLDTEXTSTYLE0
 73
     1
 44
1.0
  0
MTEXT
  5
7A
330
1F
100
AcDbEntity
  8
VERMASSUNG
100
AcDbMText
 10
98.8601118557
 20
13.8365368761
 30
0.0
 40
2.0
 41
0.0
 71
     1
 72
     1
  1
Datum: 01.11.2007
  7
SLDTEXTSTYLE0
 73
     1
 44
1.0
  0
MTEXT
  5
7B
330
1F
100
AcDbEntity
  8
VERMASSUNG
100
AcDbMText
 10
13.933048693
 20
18.0482802738
 30
0.0
 40
2.0
 41
0.0
 71
     1
 72
     1
  1
DIN 69871 B 50
  7
SLDTEXTSTYLE0
 73
     1
 44
1.0
  0
MTEXT
  5
7C
330
1F
100
AcDbEntity
  8
VERMASSUNG
100
AcDbMText
 10
13.9808475933
 20
13.9090974274
 30
0.0
 40
2.0
 41
0.0
 71
     1
 72
     1
  1
Gewicht: 3175g
  7
SLDTEXTSTYLE0
 73
     1
 44
1.0
  0
ARC
  5
7D
330
1F
100
AcDbEntity
  8
0
  6
Continuous
 62
     7
370
    15
100
AcDbCircle
 10
176.5324711592
 20
81.5778617492
 30
0.0
 40
0.6000000000000227
100
AcDbArc
 50
0.0
 51
90.0
  0
ARC
  5
7E
330
1F
100
AcDbEntity
  8
0
  6
Continuous
 62
     7
370
    15
100
AcDbCircle
 10
176.5324711592
 20
152.6278617492
 30
0.0
 40
0.5999999999999943
100
AcDbArc
 50
270.0
 51
0.0
  0
LINE
  5
7F
330
1F
100
AcDbEntity
  8
0
  6
Continuous
 62
     7
370
    15
100
AcDbLine
 10
173.9324711592
 20
152.0278606286
 30
0.0
 11
74.043855849
 21
137.4607722929
 31
0.0
  0
LINE
  5
80
330
1F
100
AcDbEntity
  8
0
  6
Continuous
 62
     7
370
    15
100
AcDbLine
 10
74.043855849
 20
96.7449512055
 30
0.0
 11
173.9324711592
 21
82.1778628698
 31
0.0
  0
LINE
  5
81
330
1F
100
AcDbEntity
  8
0
  6
Continuous
 62
     7
370
    15
100
AcDbLine
 10
173.9324711592
 20
82.1778628698
 30
0.0
 11
176.5324711663
 21
82.1778628698
 31
0.0
  0
LINE
  5
82
330
1F
100
AcDbEntity
  8
0
  6
Continuous
 62
     7
370
    15
100
AcDbLine
 10
176.5324711663
 20
152.0278606286
 30
0.0
 11
173.9324711592
 21
152.0278606286
 31
0.0
  0
ARC
  5
83
330
1F
100
AcDbEntity
  8
0
  6
Continuous
 62
     7
370
    15
100
AcDbCircle
 10
196.9824711592
 20
85.6028617492
 30
0.0
 40
4.0
100
AcDbArc
 50
90.0
 51
180.0
  0
ARC
  5
84
330
1F
100
AcDbEntity
  8
0
  6
Continuous
 62
     7
370
    15
100
AcDbCircle
 10
196.9824711592
 20
148.6028617492
 30
0.0
 40
4.0
100
AcDbArc
 50
180.0
 51
270.0
  0
LINE
  5
85
330
1F
100
AcDbEntity
  8
0
  6
Continuous
 62
     7
370
    15
100
AcDbLine
 10
232.5324721963
 20
89.6028618982
 30
0.0
 11
233.0324694843
 21
90.1028610488
 31
0.0
  0
LINE
  5
86
330
1F
100
AcDbEntity
  8
0
  6
Continuous
 62
     7
370
    15
100
AcDbLine
 10
233.0324694843
 20
144.1028624496
 30
0.0
 11
232.5324721963
 21
144.6028616002
 31
0.0
  0
LINE
  5
87
330
1F
100
AcDbEntity
  8
0
  6
Continuous
 62
     7
370
    15
100
AcDbLine
 10
196.9824720503
 20
89.6028618982
 30
0.0
 11
232.5324721963
 21
89.6028618982
 31
0.0
  0
LINE
  5
88
330
1F
100
AcDbEntity
  8
0
  6
Continuous
 62
     7
370
    15
100
AcDbLine
 10
232.5324721963
 20
144.6028616002
 30
0.0
 11
196.9824720503
 21
144.6028616002
 31
0.0
  0
ARC
  5
89
330
1F
100
AcDbEntity
  8
0
  6
Continuous
 62
     7
370
    15
100
AcDbCircle
 10
74.3324711592
 20
98.7240172218
 30
0.0
 40
1.999999999999986
100
AcDbArc
 50
180.0
 51
261.7028550302
  0
ARC
  5
8A
330
1F
100
AcDbEntity
  8
0
  6
Continuous
 62
     7
370
    15
100
AcDbCircle
 10
74.3324711592
 20
135.4817062766
 30
0.0
 40
2.000000000000022
100
AcDbArc
 50
98.2971449698
 51
180.0
  0
ARC
  5
8B
330
1F
100
AcDbEntity
  8
0
  6
Continuous
 62
     7
370
    15
100
AcDbCircle
 10
188.1324711592
 20
102.6371197872
 30
0.0
 40
2.000000000000003
100
AcDbArc
 50
192.2156859339
 51
340.5078316132
  0
SPLINE
  5
8C
330
1F
100
AcDbEntity
  8
0
  6
Continuous
 62
     7
370
    15
100
AcDbSpline
210
0.0
220
0.0
230
1.0
 70
     8
 71
     3
 72
    11
 73
     7
 74
     0
 42
0.000000001
 43
0.00000001
 40
0.0
 40
0.0
 40
0.0
 40
0.0
 40
0.1336653282047241
 40
0.4825476578858277
 40
0.8156356583844565
 40
1.0
 40
1.0
 40
1.0
 40
1.0
 10
221.6497592957001
 20
115.699903452964
 30
0.0
 10
221.5325147740715
 20
115.6143800710077
 30
0.0
 10
221.1092481717914
 20
115.3056305380377
 30
0.0
 10
220.3185399940577
 20
114.7288455506315
 30
0.0
 10
219.4693272632247
 20
114.109385498062
 30
0.0
 10
219.0135177884357
 20
113.7768952980998
 30
0.0
 10
218.8511163325291
 20
113.6584315637215
 30
0.0
  0
SPLINE
  5
8D
330
1F
100
AcDbEntity
  8
0
  6
Continuous
 62
     7
370
    15
100
AcDbSpline
210
0.0
220
0.0
230
1.0
 70
     8
 71
     3
 72
    11
 73
     7
 74
     0
 42
0.000000001
 43
0.00000001
 40
0.0
 40
0.0
 40
0.0
 40
0.0
 40
0.2164553328627719
 40
0.4403113183377433
 40
0.7519005782937882
 40
1.0
 40
1.0
 40
1.0
 40
1.0
 10
221.2811120183449
 20
119.1443336384459
 30
0.0
 10
221.3063643260423
 20
118.908386814582
 30
0.0
 10
221.3577323230616
 20
118.4284260961322
 30
0.0
 10
221.4530628238856
 20
117.537748055187
 30
0.0
 10
221.5553124793701
 20
116.5823350920449
 30
0.0
 10
221.6207514402789
 20
115.9709284636547
 30
0.0
 10
221.6497592957001
 20
115.699903452964
 30
0.0
  0
SPLINE
  5
8E
330
1F
100
AcDbEntity
  8
0
  6
Continuous
 62
     7
370
    15
100
AcDbSpline
210
0.0
220
0.0
230
1.0
 70
     8
 71
     3
 72
    11
 73
     7
 74
     0
 42
0.000000001
 43
0.00000001
 40
0.0
 40
0.0
 40
0.0
 40
0.0
 40
0.2164556131517167
 40
0.4403112641149465
 40
0.7519004647151031
 40
0.9999999999999999
 40
0.9999999999999999
 40
0.9999999999999999
 40
0.9999999999999999
 10
218.113825503109
 20
120.5472919346853
 30
0.0
 10
218.3307881451105
 20
120.4511881006714
 30
0.0
 10
218.7721308008834
 20
120.2556948998954
 30
0.0
 10
219.5911431620328
 20
119.8929095665867
 30
0.0
 10
220.4696816031657
 20
119.5037589736618
 30
0.0
 10
221.0318938554835
 20
119.2547255094588
 30
0.0
 10
221.2811120183449
 20
119.1443336384459
 30
0.0
  0
SPLINE
  5
8F
330
1F
100
AcDbEntity
  8
0
  6
Continuous
 62
     7
370
    15
100
AcDbSpline
210
0.0
220
0.0
230
1.0
 70
     8
 71
     3
 72
    11
 73
     7
 74
     0
 42
0.000000001
 43
0.00000001
 40
0.0
 40
0.0
 40
0.0
 40
0.0
 40
0.1843643475533045
 40
0.5174531312593947
 40
0.8663354762690956
 40
1.0
 40
1.0
 40
1.0
 40
1.0
 10
215.315182539938
 20
118.5058200454427
 30
0.0
 10
215.4775839439929
 20
118.6242838990433
 30
0.0
 10
215.9333939537065
 20
118.9567749299838
 30
0.0
 10
216.7826093821938
 20
119.576233010002
 30
0.0
 10
217.5733185136085
 20
120.1530177572032
 30
0.0
 10
217.9965822807222
 20
120.4617685724164
 30
0.0
 10
218.113825503109
 20
120.5472919346853
 30
0.0
  0
SPLINE
  5
90
330
1F
100
AcDbEntity
  8
0
  6
Continuous
 62
     7
370
    15
100
AcDbSpline
210
0.0
220
0.0
230
1.0
 70
     8
 71
     3
 72
    11
 73
     7
 74
     0
 42
0.000000001
 43
0.00000001
 40
0.0
 40
0.0
 40
0.0
 40
0.0
 40
0.2164547295932369
 40
0.4403112940717558
 40
0.7519004779943956
 40
1.0
 40
1.0
 40
1.0
 40
1.0
 10
218.8511163325291
 20
113.6584315637215
 30
0.0
 10
218.6341550752626
 20
113.7545356482148
 30
0.0
 10
218.1928134047432
 20
113.9500301698098
 30
0.0
 10
217.3737991941225
 20
114.3128126708208
 30
0.0
 10
216.4952603450355
 20
114.7019646991551
 30
0.0
 10
215.9330480147267
 20
114.9509980425153
 30
0.0
 10
215.6838298172932
 20
115.0613898599608
 30
0.0
  0
CIRCLE
  5
91
330
1F
100
AcDbEntity
  8
0
  6
Continuous
 62
     7
370
    15
100
AcDbCircle
 10
218.4824711592
 20
117.1028617492
 30
0.0
 40
3.500000000000011
  0
SPLINE
  5
92
330
1F
100
AcDbEntity
  8
0
  6
Continuous
 62
     7
370
    15
100
AcDbSpline
210
0.0
220
0.0
230
1.0
 70
     8
 71
     3
 72
    11
 73
     7
 74
     0
 42
0.000000001
 43
0.00000001
 40
0.0
 40
0.0
 40
0.0
 40
0.0
 40
0.2164553328627719
 40
0.4403113183377433
 40
0.7519005782937882
 40
1.0
 40
1.0
 40
1.0
 40
1.0
 10
215.6838298172932
 20
115.0613898599608
 30
0.0
 10
215.6585775095959
 20
115.2973366838247
 30
0.0
 10
215.6072095125766
 20
115.7772974022745
 30
0.0
 10
215.5118790117526
 20
116.6679754432197
 30
0.0
 10
215.4096293562681
 20
117.6233884063619
 30
0.0
 10
215.3441903953593
 20
118.2347950347521
 30
0.0
 10
215.315182539938
 20
118.5058200454427
 30
0.0
  0
CIRCLE
  5
93
330
1F
100
AcDbEntity
  8
0
  6
Continuous
 62
     7
370
    15
100
AcDbCircle
 10
218.4824711592
 20
117.1028617492
 30
0.0
 40
5.500000000000025
  0
CIRCLE
  5
94
330
1F
100
AcDbEntity
  8
0
  6
Continuous
 62
     7
370
    15
100
AcDbCircle
 10
218.4824711592
 20
117.1028617492
 30
0.0
 40
6.000000000000024
  0
ARC
  5
95
330
1F
100
AcDbEntity
  8
0
  6
Continuous
 62
     7
370
    15
100
AcDbCircle
 10
218.4824711592
 20
117.1028617492
 30
0.0
 40
3.000000000000019
100
AcDbArc
 50
306.1089242151
 51
6.1089242151
  0
ARC
  5
96
330
1F
100
AcDbEntity
  8
0
  6
Continuous
 62
     7
370
    15
100
AcDbCircle
 10
218.4824711592
 20
117.1028617492
 30
0.0
 40
3.000000000000023
100
AcDbArc
 50
246.1089242151
 51
306.1089242151
  0
ARC
  5
97
330
1F
100
AcDbEntity
  8
0
  6
Continuous
 62
     7
370
    15
100
AcDbCircle
 10
218.4824711592
 20
117.1028617492
 30
0.0
 40
3.000000000000023
100
AcDbArc
 50
186.1089242151
 51
246.1089242151
  0
ARC
  5
98
330
1F
100
AcDbEntity
  8
0
  6
Continuous
 62
     7
370
    15
100
AcDbCircle
 10
218.4824711592
 20
117.1028617492
 30
0.0
 40
2.999999999999993
100
AcDbArc
 50
126.1089242151
 51
186.1089242151
  0
ARC
  5
99
330
1F
100
AcDbEntity
  8
0
  6
Continuous
 62
     7
370
    15
100
AcDbCircle
 10
218.4824711592
 20
117.1028617492
 30
0.0
 40
2.999999999999996
100
AcDbArc
 50
66.1089242151
 51
126.1089242151
  0
ARC
  5
9A
330
1F
100
AcDbEntity
  8
0
  6
Continuous
 62
     7
370
    15
100
AcDbCircle
 10
218.4824711592
 20
117.1028617492
 30
0.0
 40
3.000000000000019
100
AcDbArc
 50
6.1089242151
 51
66.1089242151
  0
LINE
  5
9B
330
1F
100
AcDbEntity
  8
0
  6
Continuous
 62
     7
370
    15
100
AcDbLine
 10
177.7324712233
 20
70.3736025563
 30
0.0
 11
181.7993101062
 21
70.3736025563
 31
0.0
  0
LINE
  5
9C
330
1F
100
AcDbEntity
  8
0
  6
Continuous
 62
     7
370
    15
100
AcDbLine
 10
181.7993101062
 20
146.9528622648
 30
0.0
 11
177.7324712233
 21
146.9528622648
 31
0.0
  0
LINE
  5
9D
330
1F
100
AcDbEntity
  8
0
  6
Continuous
 62
     7
370
    15
100
AcDbLine
 10
181.7993101062
 20
70.3736025563
 30
0.0
 11
181.7993101062
 21
146.9528622648
 31
0.0
  0
SPLINE
  5
9E
330
1F
100
AcDbEntity
  8
0
  6
Continuous
 62
     7
370
    15
100
AcDbSpline
210
0.0
220
0.0
230
1.0
 70
     8
 71
     3
 72
     8
 73
     4
 74
     0
 42
0.000000001
 43
0.00000001
 40
0.0
 40
0.0
 40
0.0
 40
0.0
 40
1.0
 40
1.0
 40
1.0
 40
1.0
 10
183.1224711592179
 20
72.4831223403736
 30
0.0
 10
182.8327427131934
 20
71.96090233021008
 30
0.0
 10
182.5427175629756
 20
71.4388489479501
 30
0.0
 10
182.2524233287138
 20
70.916946682227
 30
0.0
  0
SPLINE
  5
9F
330
1F
100
AcDbEntity
  8
0
  6
Continuous
 62
     7
370
    15
100
AcDbSpline
210
0.0
220
0.0
230
1.0
 70
     8
 71
     3
 72
     8
 73
     4
 74
     0
 42
0.000000001
 43
0.00000001
 40
0.0
 40
0.0
 40
0.0
 40
0.0
 40
0.0011862984959113
 40
0.0011862984959113
 40
0.0011862984959113
 40
0.0011862984959113
 10
181.799309651756
 20
70.37360240785738
 30
0.0
 10
181.9513344136269
 20
70.55451425747538
 30
0.0
 10
182.1023918588427
 20
70.73562658791622
 30
0.0
 10
182.2524233287138
 20
70.916946682227
 30
0.0
  0
SPLINE
  5
A0
330
1F
100
AcDbEntity
  8
0
  6
Continuous
 62
     7
370
    15
100
AcDbSpline
210
0.0
220
0.0
230
1.0
 70
    24
 71
     3
 72
     8
 73
     4
 74
     0
 42
0.000000001
 43
0.00000001
 40
0.0
 40
0.0
 40
0.0
 40
0.0
 40
1.0
 40
1.0
 40
1.0
 40
1.0
 10
183.1224711592179
 20
146.9528617492034
 30
0.0
 10
182.6872710545143
 20
146.9528617492034
 30
0.0
 10
182.2459113717754
 20
146.9528617492034
 30
0.0
 10
181.799309651756
 20
146.9528617492034
 30
0.0
  0
LINE
  5
A1
330
1F
100
AcDbEntity
  8
0
  6
Continuous
 62
     7
370
    15
100
AcDbLine
 10
183.1224708216
 20
72.4831226936
 30
0.0
 11
183.1224708216
 21
146.9528622648
 31
0.0
  0
LINE
  5
A2
330
1F
100
AcDbEntity
  8
0
  6
Continuous
 62
     7
370
    15
100
AcDbLine
 10
188.2656326846
 20
102.8057144677
 30
0.0
 11
188.2656326846
 21
146.9528622648
 31
0.0
  0
LINE
  5
A3
330
1F
100
AcDbEntity
  8
0
  6
Continuous
 62
     7
370
    15
100
AcDbLine
 10
192.3824705513
 20
146.9528622648
 30
0.0
 11
188.2656326846
 21
146.9528622648
 31
0.0
  0
LINE
  5
A4
330
1F
100
AcDbEntity
  8
0
  6
Continuous
 62
     7
370
    15
100
AcDbLine
 10
188.2656326846
 20
70.3736025563
 30
0.0
 11
192.3824705513
 21
70.3736025563
 31
0.0
  0
LINE
  5
A5
330
1F
100
AcDbEntity
  8
0
  6
Continuous
 62
     7
370
    15
100
AcDbLine
 10
188.2656326846
 20
70.3736025563
 30
0.0
 11
188.2656326846
 21
98.1139208844
 31
0.0
  0
SPLINE
  5
A6
330
1F
100
AcDbEntity
  8
0
  6
Continuous
 62
     7
370
    15
100
AcDbSpline
210
0.0
220
0.0
230
1.0
 70
     8
 71
     3
 72
    34
 73
    30
 74
     0
 42
0.000000001
 43
0.00000001
 40
0.0
 40
0.0
 40
0.0
 40
0.0
 40
0.0624999999999988
 40
0.0624999999999988
 40
0.1249999999999975
 40
0.1249999999999975
 40
0.1874999999999963
 40
0.1874999999999963
 40
0.2499999999999956
 40
0.2499999999999956
 40
0.3124999999999949
 40
0.3124999999999949
 40
0.3749999999999942
 40
0.3749999999999942
 40
0.4999999999999938
 40
0.4999999999999938
 40
0.6249999999999947
 40
0.6249999999999947
 40
0.6874999999999953
 40
0.6874999999999953
 40
0.7499999999999958
 40
0.7499999999999958
 40
0.8124999999999963
 40
0.8124999999999963
 40
0.8749999999999976
 40
0.8749999999999976
 40
0.9374999999999988
 40
0.9374999999999988
 40
1.0
 40
1.0
 40
1.0
 40
1.0
 10
188.2656326666798
 20
98.1139213612022
 30
0.0
 10
188.4250244944677
 20
98.12176145712498
 30
0.0
 10
188.5810269779113
 20
98.14342010521541
 30
0.0
 10
188.8865364939885
 20
98.21326833270821
 30
0.0
 10
189.0374308290007
 20
98.26209403503647
 30
0.0
 10
189.3253301736915
 20
98.38501798844379
 30
0.0
 10
189.4612765766512
 20
98.45832549657808
 30
0.0
 10
189.7174591922433
 20
98.62833612034943
 30
0.0
 10
189.8386414800023
 20
98.7262099125509
 30
0.0
 10
190.0557875518751
 20
98.93879408798287
 30
0.0
 10
190.1527494248355
 20
99.05384002651246
 30
0.0
 10
190.323311860661
 20
99.30170114663258
 30
0.0
 10
190.396551913873
 20
99.43473464369818
 30
0.0
 10
190.5714323706218
 20
99.84424265982832
 30
0.0
 10
190.6324703315977
 20
100.1422033096034
 30
0.0
 10
190.6324719868208
 20
100.7336448654778
 30
0.0
 10
190.5714373772345
 20
101.0338184154544
 30
0.0
 10
190.3965476098326
 20
101.4490496957222
 30
0.0
 10
190.3233039044082
 20
101.584404813969
 30
0.0
 10
190.1527431886716
 20
101.8373041453557
 30
0.0
 10
190.055779473078
 20
101.9550694229634
 30
0.0
 10
189.8386191444909
 20
102.1731997183321
 30
0.0
 10
189.7174378858041
 20
102.273903043479
 30
0.0
 10
189.4612676588654
 20
102.4491467363123
 30
0.0
 10
189.3253243092026
 20
102.5248917054029
 30
0.0
 10
189.0374216060195
 20
102.6520600807051
 30
0.0
 10
188.8865314101027
 20
102.7026613530326
 30
0.0
 10
188.5810259063971
 20
102.7750904527805
 30
0.0
 10
188.4250245081336
 20
102.7975762241774
 30
0.0
 10
188.2656326666798
 20
102.8057146840723
 30
0.0
  0
SPLINE
  5
A7
330
1F
100
AcDbEntity
  8
0
  6
Continuous
 62
     7
370
    15
100
AcDbSpline
210
0.0
220
0.0
230
1.0
 70
     8
 71
     3
 72
    12
 73
     8
 74
     0
 42
0.000000001
 43
0.00000001
 40
0.0
 40
0.0
 40
0.0
 40
0.0
 40
0.2499999999999992
 40
0.2499999999999992
 40
0.4999999999999984
 40
0.4999999999999984
 40
1.0
 40
1.0
 40
1.0
 40
1.0
 10
192.3824711592179
 20
70.37360240785738
 30
0.0
 10
192.4784439123928
 20
70.37360240785736
 30
0.0
 10
192.5708718765472
 20
70.38987573196596
 30
0.0
 10
192.7273019766567
 20
70.44324945396238
 30
0.0
 10
192.7907804014295
 20
70.47937771149671
 30
0.0
 10
192.9390595622567
 20
70.60007890777598
 30
0.0
 10
192.9824711592179
 20
70.69392849414116
 30
0.0
 10
192.9824711592179
 20
70.78823276908838
 30
0.0
  0
SPLINE
  5
A8
330
1F
100
AcDbEntity
  8
0
  6
Continuous
 62
     7
370
    15
100
AcDbSpline
210
0.0
220
0.0
230
1.0
 70
    24
 71
     3
 72
    12
 73
     8
 74
     0
 42
0.000000001
 43
0.00000001
 40
0.0
 40
0.0
 40
0.0
 40
0.0
 40
0.5
 40
0.5
 40
0.75
 40
0.75
 40
1.0
 40
1.0
 40
1.0
 40
1.0
 10
192.9824711592179
 20
146.9528617492034
 30
0.0
 10
192.9824711592179
 20
146.9528617492034
 30
0.0
 10
192.9343404708326
 20
146.9528617492034
 30
0.0
 10
192.7804434150295
 20
146.9528617492034
 30
0.0
 10
192.7149788500227
 20
146.9528617492034
 30
0.0
 10
192.5614495294126
 20
146.9528617492034
 30
0.0
 10
192.4731008686767
 20
146.9528617492034
 30
0.0
 10
192.3824711592177
 20
146.9528617492034
 30
0.0
  0
LINE
  5
A9
330
1F
100
AcDbEntity
  8
0
  6
Continuous
 62
     7
370
    15
100
AcDbLine
 10
192.9824713947
 20
70.7882310918
 30
0.0
 11
192.9824713947
 21
146.9528622648
 31
0.0
  0
SPLINE
  5
AA
330
1F
100
AcDbEntity
  8
0
  6
Continuous
 62
     7
370
    15
100
AcDbSpline
210
0.0
220
0.0
230
1.0
 70
     8
 71
     3
 72
    10
 73
     6
 74
     0
 42
0.000000001
 43
0.00000001
 40
0.0
 40
0.0
 40
0.0
 40
0.0
 40
0.5
 40
0.5
 40
1.0
 40
1.0
 40
1.0
 40
1.0
 10
177.348131190372
 20
70.46940748201116
 30
0.0
 10
177.3967817589516
 20
70.44145049074373
 30
0.0
 10
177.454166970911
 20
70.41750820571696
 30
0.0
 10
177.5848800790771
 20
70.3833897426212
 30
0.0
 10
177.6576196128156
 20
70.37360240785736
 30
0.0
 10
177.7324711592179
 20
70.37360240785736
 30
0.0
  0
SPLINE
  5
AB
330
1F
100
AcDbEntity
  8
0
  6
Continuous
 62
     7
370
    15
100
AcDbSpline
210
0.0
220
0.0
230
1.0
 70
     8
 71
     3
 72
    10
 73
     6
 74
     0
 42
0.000000001
 43
0.00000001
 40
0.0
 40
0.0
 40
0.0
 40
0.0
 40
0.5
 40
0.5
 40
1.0
 40
1.0
 40
1.0
 40
1.0
 10
177.348131190372
 20
70.46940748201114
 30
0.0
 10
177.2899431837897
 20
70.53699121218996
 30
0.0
 10
177.2375007172635
 20
70.61746744683172
 30
0.0
 10
177.1591484100848
 20
70.80050306981445
 30
0.0
 10
177.1324711592179
 20
70.90637877261008
 30
0.0
 10
177.1324711592179
 20
71.0138920818307
 30
0.0
  0
LINE
  5
AC
330
1F
100
AcDbEntity
  8
0
  6
Continuous
 62
     7
370
    15
100
AcDbLine
 10
177.1324710784
 20
71.0138905516
 30
0.0
 11
177.1324710784
 21
146.9528622648
 31
0.0
  0
SPLINE
  5
AD
330
1F
100
AcDbEntity
  8
0
  6
Continuous
 62
     7
370
    15
100
AcDbSpline
210
0.0
220
0.0
230
1.0
 70
    24
 71
     3
 72
    14
 73
    10
 74
     0
 42
0.000000001
 43
0.00000001
 40
0.0
 40
0.0
 40
0.0
 40
0.0
 40
0.25
 40
0.25
 40
0.5
 40
0.5
 40
0.75
 40
0.75
 40
1.0
 40
1.0
 40
1.0
 40
1.0
 10
177.7324711592179
 20
146.9528617492034
 30
0.0
 10
177.6434492068742
 20
146.9528617492034
 30
0.0
 10
177.5537625076007
 20
146.9528617492034
 30
0.0
 10
177.4000356820434
 20
146.9528617492034
 30
0.0
 10
177.3348307874166
 20
146.9528617492034
 30
0.0
 10
177.2322400932462
 20
146.9528617492034
 30
0.0
 10
177.1946026389303
 20
146.9528617492034
 30
0.0
 10
177.1445107235451
 20
146.9528617492034
 30
0.0
 10
177.1324711592179
 20
146.9528617492034
 30
0.0
 10
177.1324711592179
 20
146.9528617492034
 30
0.0
  0
LINE
  5
AE
330
1F
100
AcDbEntity
  8
0
  6
Continuous
 62
     7
370
    15
100
AcDbLine
 10
186.9424710379
 20
103.305599997
 30
0.0
 11
186.9424710379
 21
146.9528622648
 31
0.0
  0
SPLINE
  5
AF
330
1F
100
AcDbEntity
  8
0
  6
Continuous
 62
     7
370
    15
100
AcDbSpline
210
0.0
220
0.0
230
1.0
 70
    24
 71
     3
 72
     8
 73
     4
 74
     0
 42
0.000000001
 43
0.00000001
 40
0.0
 40
0.0
 40
0.0
 40
0.0
 40
1.0
 40
1.0
 40
1.0
 40
1.0
 10
188.2656326666798
 20
146.9528617492034
 30
0.0
 10
187.8190309466604
 20
146.9528617492034
 30
0.0
 10
187.3776712639215
 20
146.9528617492034
 30
0.0
 10
186.9424711592179
 20
146.9528617492034
 30
0.0
  0
SPLINE
  5
B0
330
1F
100
AcDbEntity
  8
0
  6
Continuous
 62
     7
370
    15
100
AcDbSpline
210
0.0
220
0.0
230
1.0
 70
     8
 71
     3
 72
    10
 73
     6
 74
     0
 42
0.000000001
 43
0.00000001
 40
0.0
 40
0.0
 40
0.0
 40
0.0
 40
0.5
 40
0.5
 40
1.0
 40
1.0
 40
1.0
 40
1.0
 10
188.2656326666798
 20
102.8057146840723
 30
0.0
 10
188.0429056398063
 20
102.949203184366
 30
0.0
 10
187.8212197525813
 20
103.0639239300989
 30
0.0
 10
187.3799989147293
 20
103.2336843594568
 30
0.0
 10
187.1604402673305
 20
103.2891043538442
 30
0.0
 10
186.9424711592182
 20
103.3055996832138
 30
0.0
  0
SPLINE
  5
B1
330
1F
100
AcDbEntity
  8
0
  6
Continuous
 62
     7
370
    15
100
AcDbSpline
210
0.0
220
0.0
230
1.0
 70
     8
 71
     3
 72
    14
 73
    10
 74
     0
 42
0.000000001
 43
0.00000001
 40
0.0
 40
0.0
 40
0.0
 40
0.0
 40
0.25
 40
0.25
 40
0.5
 40
0.5
 40
0.75
 40
0.75
 40
1.0
 40
1.0
 40
1.0
 40
1.0
 10
186.9424711592179
 20
103.3512139052263
 30
0.0
 10
186.9424711592179
 20
103.3931902870799
 30
0.0
 10
186.9128282052467
 20
103.4210406747208
 30
0.0
 10
186.8061733715167
 20
103.4345395500108
 30
0.0
 10
186.7298949769125
 20
103.4199240479731
 30
0.0
 10
186.561843433846
 20
103.3478348438049
 30
0.0
 10
186.4707236272377
 20
103.2906972333222
 30
0.0
 10
186.298046514985
 20
103.1484695327309
 30
0.0
 10
186.2171240754569
 20
103.0649057072189
 30
0.0
 10
186.1424711592179
 20
102.9715360353229
 30
0.0
  0
SPLINE
  5
B2
330
1F
100
AcDbEntity
  8
0
  6
Continuous
 62
     7
370
    15
100
AcDbSpline
210
0.0
220
0.0
230
1.0
 70
     8
 71
     3
 72
    10
 73
     6
 74
     0
 42
0.000000001
 43
0.00000001
 40
0.0
 40
0.0
 40
0.0
 40
0.0
 40
0.5
 40
0.5
 40
1.0
 40
1.0
 40
1.0
 40
1.0
 10
186.9424711592182
 20
99.17355848458229
 30
0.0
 10
187.159361991739
 20
98.93651954513375
 30
0.0
 10
187.3785146283979
 20
98.73434931014025
 30
0.0
 10
187.8199991286667
 20
98.38359723862156
 30
0.0
 10
188.0432015939401
 20
98.2349211462247
 30
0.0
 10
188.2656326666798
 20
98.1139213612022
 30
0.0
  0
LINE
  5
B3
330
1F
100
AcDbEntity
  8
0
  6
Continuous
 62
     7
370
    15
100
AcDbLine
 10
186.9424710379
 20
99.2191735378
 30
0.0
 11
186.9424710379
 21
99.1735592207
 31
0.0
  0
SPLINE
  5
B4
330
1F
100
AcDbEntity
  8
0
  6
Continuous
 62
     7
370
    15
100
AcDbSpline
210
0.0
220
0.0
230
1.0
 70
     8
 71
     3
 72
    16
 73
    12
 74
     0
 42
0.000000001
 43
0.00000001
 40
0.0
 40
0.0
 40
0.0
 40
0.0
 40
0.2500000000000017
 40
0.2500000000000017
 40
0.5000000000000034
 40
0.5000000000000034
 40
0.6250000000000056
 40
0.6250000000000056
 40
0.7500000000000077
 40
0.7500000000000077
 40
1.0
 40
1.0
 40
1.0
 40
1.0
 10
186.1424711592179
 20
100.1275721922693
 30
0.0
 10
186.2164790494401
 20
100.0372246120836
 30
0.0
 10
186.2970970444291
 20
99.94926503928397
 30
0.0
 10
186.4708650299333
 20
99.7729301152224
 30
0.0
 10
186.5616161608748
 20
99.6873228745564
 30
0.0
 10
186.6877292583363
 20
99.5661271785314
 30
0.0
 10
186.7273060191995
 20
99.52759559954053
 30
0.0
 10
186.7997886759007
 20
99.45319961341123
 30
0.0
 10
186.8327166663696
 20
99.41718282548973
 30
0.0
 10
186.9125068363645
 20
99.31843014967275
 30
0.0
 10
186.9424711592179
 20
99.26166614789062
 30
0.0
 10
186.9424711592179
 20
99.21917270659509
 30
0.0
  0
SPLINE
  5
B5
330
1F
100
AcDbEntity
  8
0
  6
Continuous
 62
     7
370
    15
100
AcDbSpline
210
0.0
220
0.0
230
1.0
 70
     8
 71
     3
 72
    16
 73
    12
 74
     0
 42
0.000000001
 43
0.00000001
 40
0.0
 40
0.0
 40
0.0
 40
0.0
 40
0.2499999999999992
 40
0.2499999999999992
 40
0.4999999999999983
 40
0.4999999999999983
 40
0.7499999999999976
 40
0.7499999999999976
 40
0.8749999999999988
 40
0.8749999999999988
 40
1.0
 40
1.0
 40
1.0
 40
1.0
 10
186.1424711592179
 20
102.9715360353229
 30
0.0
 10
185.9770570527377
 20
102.7646497992976
 30
0.0
 10
185.8508597217622
 20
102.5387811014888
 30
0.0
 10
185.6764534234313
 20
102.0499118558759
 30
0.0
 10
185.6326233843344
 20
101.7981448025314
 30
0.0
 10
185.6323197113644
 20
101.286365477949
 30
0.0
 10
185.6761765714247
 20
101.0353107688663
 30
0.0
 10
185.806098330692
 20
100.6744622007242
 30
0.0
 10
185.8602131420999
 20
100.5571894323756
 30
0.0
 10
185.9868901322433
 20
100.3347004810368
 30
0.0
 10
186.0597638526041
 20
100.2285398727935
 30
0.0
 10
186.1424711592179
 20
100.1275721922693
 30
0.0
  0
SPLINE
  5
B6
330
1F
100
AcDbEntity
  8
0
  6
Continuous
 62
     7
370
    15
100
AcDbSpline
210
0.0
220
0.0
230
1.0
 70
    24
 71
     3
 72
    14
 73
    10
 74
     0
 42
0.000000001
 43
0.00000001
 40
0.0
 40
0.0
 40
0.0
 40
0.0
 40
0.25
 40
0.25
 40
0.5
 40
0.5
 40
0.75
 40
0.75
 40
1.0
 40
1.0
 40
1.0
 40
1.0
 10
186.9424711592179
 20
146.9528617492034
 30
0.0
 10
186.9424711592179
 20
146.9528617492034
 30
0.0
 10
186.9261901244421
 20
146.9528617492034
 30
0.0
 10
186.8615270619175
 20
146.9528617492034
 30
0.0
 10
186.8120472656288
 20
146.9528617492034
 30
0.0
 10
186.6780775084901
 20
146.9528617492034
 30
0.0
 10
186.5919627818906
 20
146.9528617492034
 30
0.0
 10
186.3865066661776
 20
146.9528617492034
 30
0.0
 10
186.2650861289848
 20
146.9528617492034
 30
0.0
 10
186.1424711592179
 20
146.9528617492034
 30
0.0
  0
SPLINE
  5
B7
330
1F
100
AcDbEntity
  8
0
  6
Continuous
 62
     7
370
    15
100
AcDbSpline
210
0.0
220
0.0
230
1.0
 70
     8
 71
     3
 72
    14
 73
    10
 74
     0
 42
0.000000001
 43
0.00000001
 40
0.0
 40
0.0
 40
0.0
 40
0.0
 40
0.25
 40
0.25
 40
0.5
 40
0.5
 40
0.75
 40
0.75
 40
1.0
 40
1.0
 40
1.0
 40
1.0
 10
183.9224711592179
 20
73.4550954833336
 30
0.0
 10
183.8160261513086
 20
73.4550954833336
 30
0.0
 10
183.7091274000352
 20
73.43252593390048
 30
0.0
 10
183.5129091445927
 20
73.34608284265856
 30
0.0
 10
183.4232508311282
 20
73.28177892499143
 30
0.0
 10
183.2777971182471
 20
73.12680941094845
 30
0.0
 10
183.2197613355209
 20
73.03404392470472
 30
0.0
 10
183.1424761811363
 20
72.83557704306135
 30
0.0
 10
183.1224711592179
 20
72.72855262126757
 30
0.0
 10
183.1224711592179
 20
72.62177026079675
 30
0.0
  0
SPLINE
  5
B8
330
1F
100
AcDbEntity
  8
0
  6
Continuous
 62
     7
370
    15
100
AcDbSpline
210
0.0
220
0.0
230
1.0
 70
    24
 71
     3
 72
    14
 73
    10
 74
     0
 42
0.000000001
 43
0.00000001
 40
0.0
 40
0.0
 40
0.0
 40
0.0
 40
0.25
 40
0.25
 40
0.5
 40
0.5
 40
0.75
 40
0.75
 40
1.0
 40
1.0
 40
1.0
 40
1.0
 10
183.9224711592179
 20
146.9528617492034
 30
0.0
 10
183.7994898596716
 20
146.9528617492034
 30
0.0
 10
183.6792999712696
 20
146.9528617492034
 30
0.0
 10
183.4742761415904
 20
146.9528617492034
 30
0.0
 10
183.3876816527883
 20
146.9528617492034
 30
0.0
 10
183.2525737660259
 20
146.9528617492034
 30
0.0
 10
183.2040506809978
 20
146.9528617492034
 30
0.0
 10
183.138368172271
 20
146.9528617492034
 30
0.0
 10
183.1224711592179
 20
146.9528617492034
 30
0.0
 10
183.1224711592179
 20
146.9528617492034
 30
0.0
  0
LINE
  5
B9
330
1F
100
AcDbEntity
  8
0
  6
Continuous
 62
     7
370
    15
100
AcDbLine
 10
186.1424714656
 20
73.4550956359
 30
0.0
 11
183.9224713252
 21
73.4550956359
 31
0.0
  0
LINE
  5
BA
330
1F
100
AcDbEntity
  8
0
  6
Continuous
 62
     7
370
    15
100
AcDbLine
 10
186.1424714656
 20
146.9528622648
 30
0.0
 11
183.9224713252
 21
146.9528622648
 31
0.0
  0
SPLINE
  5
BB
330
1F
100
AcDbEntity
  8
0
  6
Continuous
 62
     7
370
    15
100
AcDbSpline
210
0.0
220
0.0
230
1.0
 70
     8
 71
     3
 72
     8
 73
     4
 74
     0
 42
0.000000001
 43
0.00000001
 40
0.0000000000000004
 40
0.0000000000000004
 40
0.0000000000000004
 40
0.0000000000000004
 40
0.0011862984959128
 40
0.0011862984959128
 40
0.0011862984959128
 40
0.0011862984959128
 10
187.8125189897181
 20
70.916946682227
 30
0.0
 10
187.9625504595894
 20
70.73562658791597
 30
0.0
 10
188.1136079048088
 20
70.5545142574756
 30
0.0
 10
188.2656326666798
 20
70.37360240785738
 30
0.0
  0
SPLINE
  5
BC
330
1F
100
AcDbEntity
  8
0
  6
Continuous
 62
     7
370
    15
100
AcDbSpline
210
0.0
220
0.0
230
1.0
 70
     8
 71
     3
 72
     8
 73
     4
 74
     0
 42
0.000000001
 43
0.00000001
 40
0.0
 40
0.0
 40
0.0
 40
0.0
 40
1.0
 40
1.0
 40
1.0
 40
1.0
 10
187.8125189897211
 20
70.91694668222867
 30
0.0
 10
187.5222247554596
 20
71.43884894795121
 30
0.0
 10
187.2321996052422
 20
71.96090233021063
 30
0.0
 10
186.9424711592179
 20
72.4831223403736
 30
0.0
  0
LINE
  5
BD
330
1F
100
AcDbEntity
  8
0
  6
Continuous
 62
     7
370
    15
100
AcDbLine
 10
186.9424710379
 20
72.4831226936
 30
0.0
 11
186.9424710379
 21
99.1735592207
 31
0.0
  0
SPLINE
  5
BE
330
1F
100
AcDbEntity
  8
0
  6
Continuous
 62
     7
370
    15
100
AcDbSpline
210
0.0
220
0.0
230
1.0
 70
     8
 71
     3
 72
    14
 73
    10
 74
     0
 42
0.000000001
 43
0.00000001
 40
0.0
 40
0.0
 40
0.0
 40
0.0
 40
0.25
 40
0.25
 40
0.5
 40
0.5
 40
0.75
 40
0.75
 40
1.0
 40
1.0
 40
1.0
 40
1.0
 10
186.9424711592179
 20
72.62177026079675
 30
0.0
 10
186.9424711592179
 20
72.72883424713756
 30
0.0
 10
186.9224873329779
 20
72.83557357351208
 30
0.0
 10
186.8450522505444
 20
73.03432347570286
 30
0.0
 10
186.787113328385
 20
73.1268776921954
 30
0.0
 10
186.6414755226242
 20
73.28197463560096
 30
0.0
 10
186.5526865262889
 20
73.34571479251383
 30
0.0
 10
186.3561381660843
 20
73.43246334960143
 30
0.0
 10
186.249998936385
 20
73.4550954833336
 30
0.0
 10
186.1424711592179
 20
73.4550954833336
 30
0.0
  0
LINE
  5
BF
330
1F
100
AcDbEntity
  8
0
  6
Continuous
 62
     7
370
    15
100
AcDbLine
 10
173.9324711592
 20
82.1778628698
 30
0.0
 11
173.9324711592
 21
152.0278606286
 31
0.0
  0
SPLINE
  5
C0
330
1F
100
AcDbEntity
  8
0
  6
Continuous
 62
     7
370
    15
100
AcDbSpline
210
0.0
220
0.0
230
1.0
 70
     8
 71
     3
 72
    14
 73
    10
 74
     0
 42
0.000000001
 43
0.00000001
 40
0.0
 40
0.0
 40
0.0
 40
0.0
 40
0.25
 40
0.25
 40
0.5
 40
0.5
 40
0.75
 40
0.75
 40
1.0
 40
1.0
 40
1.0
 40
1.0
 10
186.9424711592179
 20
161.58395323761
 30
0.0
 10
186.9424711592179
 20
161.4766108654625
 30
0.0
 10
186.9224749671537
 20
161.3699818586147
 30
0.0
 10
186.844776882809
 20
161.1708300794635
 30
0.0
 10
186.7867837379155
 20
161.0783471811481
 30
0.0
 10
186.6407372450927
 20
160.9231113460389
 30
0.0
 10
186.551399505925
 20
160.8593774044265
 30
0.0
 10
186.3566444938645
 20
160.7735471380313
 30
0.0
 10
186.2491142226556
 20
160.7506280150729
 30
0.0
 10
186.1424711592158
 20
160.7506280150731
 30
0.0
  0
SPLINE
  5
C1
330
1F
100
AcDbEntity
  8
0
  6
Continuous
 62
     7
370
    15
100
AcDbSpline
210
0.0
220
0.0
230
1.0
 70
     8
 71
     3
 72
    14
 73
    10
 74
     0
 42
0.000000001
 43
0.00000001
 40
0.0
 40
0.0
 40
0.0
 40
0.0
 40
0.25
 40
0.25
 40
0.5
 40
0.5
 40
0.75
 40
0.75
 40
1.0
 40
1.0
 40
1.0
 40
1.0
 10
186.1424711592179
 20
151.4427438107364
 30
0.0
 10
186.2637976892036
 20
151.4427438107364
 30
0.0
 10
186.3855023977659
 20
151.4815253261696
 30
0.0
 10
186.591942276652
 20
151.6126799478635
 30
0.0
 10
186.677892815108
 20
151.7033320324506
 30
0.0
 10
186.8118045748564
 20
151.9054490673919
 30
0.0
 10
186.8613690116755
 20
152.0191840109311
 30
0.0
 10
186.9262230396434
 20
152.2521436279976
 30
0.0
 10
186.9424711592179
 20
152.3748418943268
 30
0.0
 10
186.9424711592179
 20
152.4959048509204
 30
0.0
  0
LINE
  5
C2
330
1F
100
AcDbEntity
  8
0
  6
Continuous
 62
     7
370
    15
100
AcDbLine
 10
186.1424714656
 20
160.7506278625
 30
0.0
 11
183.9224713252
 21
160.7506278625
 31
0.0
  0
LINE
  5
C3
330
1F
100
AcDbEntity
  8
0
  6
Continuous
 62
     7
370
    15
100
AcDbLine
 10
183.9224713252
 20
151.4427441826
 30
0.0
 11
186.1424714656
 21
151.4427441826
 31
0.0
  0
SPLINE
  5
C4
330
1F
100
AcDbEntity
  8
0
  6
Continuous
 62
     7
370
    15
100
AcDbSpline
210
0.0
220
0.0
230
1.0
 70
     8
 71
     3
 72
    12
 73
     8
 74
     0
 42
0.000000001
 43
0.00000001
 40
0.0
 40
0.0
 40
0.0
 40
0.0
 40
0.5000000000000003
 40
0.5000000000000003
 40
0.7500000000000001
 40
0.7500000000000001
 40
1.0
 40
1.0
 40
1.0
 40
1.0
 10
177.1324711592179
 20
154.8519428638477
 30
0.0
 10
177.1324711592179
 20
155.030303131087
 30
0.0
 10
177.1797832805939
 20
155.209075542791
 30
0.0
 10
177.3341433584753
 20
155.4308374081427
 30
0.0
 10
177.3990288933943
 20
155.4951294467592
 30
0.0
 10
177.5542615926225
 20
155.5877739309188
 30
0.0
 10
177.6433370052908
 20
155.6139397008786
 30
0.0
 10
177.7324711592179
 20
155.6139397008786
 30
0.0
  0
LINE
  5
C5
330
1F
100
AcDbEntity
  8
0
  6
Continuous
 62
     7
370
    15
100
AcDbLine
 10
177.7324712233
 20
155.6139405539
 30
0.0
 11
181.7993101062
 21
155.6139405539
 31
0.0
  0
SPLINE
  5
C6
330
1F
100
AcDbEntity
  8
0
  6
Continuous
 62
     7
370
    15
100
AcDbSpline
210
0.0
220
0.0
230
1.0
 70
     8
 71
     3
 72
     8
 73
     4
 74
     0
 42
0.000000001
 43
0.00000001
 40
0.0
 40
0.0
 40
0.0
 40
0.0
 40
1.0
 40
1.0
 40
1.0
 40
1.0
 10
181.799309651756
 20
155.6139397008785
 30
0.0
 10
182.2461583796837
 20
154.6347038026222
 30
0.0
 10
182.6875247375795
 20
153.6535018098954
 30
0.0
 10
183.1224711592179
 20
152.669997491513
 30
0.0
  0
LINE
  5
C7
330
1F
100
AcDbEntity
  8
0
  6
Continuous
 62
     7
370
    15
100
AcDbLine
 10
183.1224708216
 20
152.669996368
 30
0.0
 11
183.1224708216
 21
152.4959061017
 31
0.0
  0
SPLINE
  5
C8
330
1F
100
AcDbEntity
  8
0
  6
Continuous
 62
     7
370
    15
100
AcDbSpline
210
0.0
220
0.0
230
1.0
 70
     8
 71
     3
 72
    12
 73
     8
 74
     0
 42
0.000000001
 43
0.00000001
 40
0.0
 40
0.0
 40
0.0
 40
0.0
 40
0.499999999999994
 40
0.499999999999994
 40
0.749999999999997
 40
0.749999999999997
 40
1.0
 40
1.0
 40
1.0
 40
1.0
 10
183.1224711592179
 20
152.4959048509204
 30
0.0
 10
183.1224711592179
 20
152.2534817549397
 30
0.0
 10
183.1853923006597
 20
152.0077112343383
 30
0.0
 10
183.3874211976622
 20
151.7027650549214
 30
0.0
 10
183.4737149223094
 20
151.6121721883229
 30
0.0
 10
183.6791887168761
 20
151.4817386253861
 30
0.0
 10
183.7991392774758
 20
151.4427438107364
 30
0.0
 10
183.9224711592179
 20
151.4427438107364
 30
0.0
  0
LINE
  5
C9
330
1F
100
AcDbEntity
  8
0
  6
Continuous
 62
     7
370
    15
100
AcDbLine
 10
186.9424710379
 20
152.4959061017
 30
0.0
 11
186.9424710379
 21
152.669996368
 31
0.0
  0
SPLINE
  5
CA
330
1F
100
AcDbEntity
  8
0
  6
Continuous
 62
     7
370
    15
100
AcDbSpline
210
0.0
220
0.0
230
1.0
 70
     8
 71
     3
 72
     8
 73
     4
 74
     0
 42
0.000000001
 43
0.00000001
 40
0.0
 40
0.0
 40
0.0
 40
0.0
 40
1.0
 40
1.0
 40
1.0
 40
1.0
 10
186.9424711592179
 20
152.669997491513
 30
0.0
 10
187.3774175808563
 20
153.6535018098954
 30
0.0
 10
187.8187839387521
 20
154.6347038026223
 30
0.0
 10
188.2656326666798
 20
155.6139397008785
 30
0.0
  0
LINE
  5
CB
330
1F
100
AcDbEntity
  8
0
  6
Continuous
 62
     7
370
    15
100
AcDbLine
 10
188.2656326846
 20
155.6139405539
 30
0.0
 11
192.3824705513
 21
155.6139405539
 31
0.0
  0
SPLINE
  5
CC
330
1F
100
AcDbEntity
  8
0
  6
Continuous
 62
     7
370
    15
100
AcDbSpline
210
0.0
220
0.0
230
1.0
 70
     8
 71
     3
 72
    12
 73
     8
 74
     0
 42
0.000000001
 43
0.00000001
 40
0.0
 40
0.0
 40
0.0
 40
0.0
 40
0.2499999999999946
 40
0.2499999999999946
 40
0.4999999999999892
 40
0.4999999999999892
 40
1.0
 40
1.0
 40
1.0
 40
1.0
 10
192.3824711592184
 20
155.6139397008786
 30
0.0
 10
192.4720082173895
 20
155.6139397008785
 30
0.0
 10
192.5619073961781
 20
155.5871124020475
 30
0.0
 10
192.7153322551774
 20
155.495405436788
 30
0.0
 10
192.7803813125551
 20
155.4311504951891
 30
0.0
 10
192.9337005438194
 20
155.2117383491276
 30
0.0
 10
192.9824711592179
 20
155.0299230393307
 30
0.0
 10
192.9824711592179
 20
154.8519428638477
 30
0.0
  0
LINE
  5
CD
330
1F
100
AcDbEntity
  8
0
  6
Continuous
 62
     7
370
    15
100
AcDbLine
 10
177.1324710784
 20
154.8519435993
 30
0.0
 11
177.1324710784
 21
146.9528622648
 31
0.0
  0
LINE
  5
CE
330
1F
100
AcDbEntity
  8
0
  6
Continuous
 62
     7
370
    15
100
AcDbLine
 10
192.9824713947
 20
154.8519435993
 30
0.0
 11
192.9824713947
 21
146.9528622648
 31
0.0
  0
SPLINE
  5
CF
330
1F
100
AcDbEntity
  8
0
  6
Continuous
 62
     7
370
    15
100
AcDbSpline
210
0.0
220
0.0
230
1.0
 70
     8
 71
     3
 72
    12
 73
     8
 74
     0
 42
0.000000001
 43
0.00000001
 40
0.0
 40
0.0
 40
0.0
 40
0.0
 40
0.2500000000000007
 40
0.2500000000000007
 40
0.5000000000000014
 40
0.5000000000000014
 40
1.0
 40
1.0
 40
1.0
 40
1.0
 10
183.9224711592179
 20
160.7506280150732
 30
0.0
 10
183.8161261793419
 20
160.7506280150732
 30
0.0
 10
183.7088498319393
 20
160.7733432529327
 30
0.0
 10
183.5134740425433
 20
160.859368419815
 30
0.0
 10
183.4249203064663
 20
160.9223471467434
 30
0.0
 10
183.2036623823351
 20
161.1575386571805
 30
0.0
 10
183.1224711592179
 20
161.3707148716658
 30
0.0
 10
183.1224711592179
 20
161.5839532376098
 30
0.0
  0
SPLINE
  5
D0
330
1F
100
AcDbEntity
  8
0
  6
Continuous
 62
     7
370
    15
100
AcDbSpline
210
0.0
220
0.0
230
1.0
 70
     8
 71
     3
 72
    12
 73
     8
 74
     0
 42
0.000000001
 43
0.00000001
 40
0.0
 40
0.0
 40
0.0
 40
0.0
 40
0.4999999999999982
 40
0.4999999999999982
 40
0.7499999999999991
 40
0.7499999999999991
 40
1.0
 40
1.0
 40
1.0
 40
1.0
 10
192.9824711592179
 20
163.3978487024338
 30
0.0
 10
192.9824711592179
 20
163.518041309099
 30
0.0
 10
192.9285027289488
 20
163.635948609614
 30
0.0
 10
192.7674160880159
 20
163.7753281540973
 30
0.0
 10
192.7026536685428
 20
163.8134934516613
 30
0.0
 10
192.5505996669784
 20
163.8681457139947
 30
0.0
 10
192.4678698938292
 20
163.8827064039789
 30
0.0
 10
192.3824711592179
 20
163.8827064039789
 30
0.0
  0
LINE
  5
D1
330
1F
100
AcDbEntity
  8
0
  6
Continuous
 62
     7
370
    15
100
AcDbLine
 10
192.9824713947
 20
154.8519435993
 30
0.0
 11
192.9824713947
 21
163.3978489509
 31
0.0
  0
LINE
  5
D2
330
1F
100
AcDbEntity
  8
0
  6
Continuous
 62
     7
370
    15
100
AcDbLine
 10
192.3824705513
 20
163.8827066591
 30
0.0
 11
188.2656326846
 21
163.8827066591
 31
0.0
  0
LINE
  5
D3
330
1F
100
AcDbEntity
  8
0
  6
Continuous
 62
     7
370
    15
100
AcDbLine
 10
188.2656326846
 20
155.6139405539
 30
0.0
 11
188.2656326846
 21
163.8827066591
 31
0.0
  0
SPLINE
  5
D4
330
1F
100
AcDbEntity
  8
0
  6
Continuous
 62
     7
370
    15
100
AcDbSpline
210
0.0
220
0.0
230
1.0
 70
     8
 71
     3
 72
     8
 73
     4
 74
     0
 42
0.000000001
 43
0.00000001
 40
0.0
 40
0.0
 40
0.0
 40
0.0
 40
0.0012352705496723
 40
0.0012352705496723
 40
0.0012352705496723
 40
0.0012352705496723
 10
182.3558001370505
 20
163.1028949938725
 30
0.0
 10
182.1707648862486
 20
163.3629965696007
 30
0.0
 10
181.9852580770778
 20
163.6229306482277
 30
0.0
 10
181.799309651756
 20
163.8827064039789
 30
0.0
  0
SPLINE
  5
D5
330
1F
100
AcDbEntity
  8
0
  6
Continuous
 62
     7
370
    15
100
AcDbSpline
210
0.0
220
0.0
230
1.0
 70
     8
 71
     3
 72
     8
 73
     4
 74
     0
 42
0.000000001
 43
0.00000001
 40
0.0
 40
0.0
 40
0.0
 40
0.0
 40
1.0
 40
1.0
 40
1.0
 40
1.0
 10
183.1224711592179
 20
161.7226011580332
 30
0.0
 10
182.8671398459126
 20
162.1828221782987
 30
0.0
 10
182.6115764478063
 20
162.6429166386071
 30
0.0
 10
182.3558001370505
 20
163.1028949938725
 30
0.0
  0
LINE
  5
D6
330
1F
100
AcDbEntity
  8
0
  6
Continuous
 62
     7
370
    15
100
AcDbLine
 10
181.7993101062
 20
155.6139405539
 30
0.0
 11
181.7993101062
 21
163.8827066591
 31
0.0
  0
LINE
  5
D7
330
1F
100
AcDbEntity
  8
0
  6
Continuous
 62
     7
370
    15
100
AcDbLine
 10
183.1224708216
 20
152.669996368
 30
0.0
 11
183.1224708216
 21
161.7226008048
 31
0.0
  0
LINE
  5
D8
330
1F
100
AcDbEntity
  8
0
  6
Continuous
 62
     7
370
    15
100
AcDbLine
 10
181.7993101062
 20
163.8827066591
 30
0.0
 11
177.7324712233
 21
163.8827066591
 31
0.0
  0
SPLINE
  5
D9
330
1F
100
AcDbEntity
  8
0
  6
Continuous
 62
     7
370
    15
100
AcDbSpline
210
0.0
220
0.0
230
1.0
 70
     8
 71
     3
 72
     8
 73
     4
 74
     0
 42
0.000000001
 43
0.00000001
 40
0.0
 40
0.0
 40
0.0
 40
0.0
 40
1.0
 40
1.0
 40
1.0
 40
1.0
 10
187.7091421813844
 20
163.1028949938708
 30
0.0
 10
187.4533658706289
 20
162.642916638606
 30
0.0
 10
187.1978024725229
 20
162.1828221782982
 30
0.0
 10
186.9424711592179
 20
161.7226011580332
 30
0.0
  0
SPLINE
  5
DA
330
1F
100
AcDbEntity
  8
0
  6
Continuous
 62
     7
370
    15
100
AcDbSpline
210
0.0
220
0.0
230
1.0
 70
     8
 71
     3
 72
     8
 73
     4
 74
     0
 42
0.000000001
 43
0.00000001
 40
0.0
 40
0.0
 40
0.0
 40
0.0
 40
0.0012352705496738
 40
0.0012352705496738
 40
0.0012352705496738
 40
0.0012352705496738
 10
188.2656326666798
 20
163.8827064039789
 30
0.0
 10
188.0796842413577
 20
163.6229306482273
 30
0.0
 10
187.8941774321867
 20
163.3629965696
 30
0.0
 10
187.7091421813845
 20
163.1028949938713
 30
0.0
  0
LINE
  5
DB
330
1F
100
AcDbEntity
  8
0
  6
Continuous
 62
     7
370
    15
100
AcDbLine
 10
186.9424710379
 20
152.669996368
 30
0.0
 11
186.9424710379
 21
161.7226008048
 31
0.0
  0
SPLINE
  5
DC
330
1F
100
AcDbEntity
  8
0
  6
Continuous
 62
     7
370
    15
100
AcDbSpline
210
0.0
220
0.0
230
1.0
 70
     8
 71
     3
 72
    10
 73
     6
 74
     0
 42
0.000000001
 43
0.00000001
 40
0.0
 40
0.0
 40
0.0
 40
0.0
 40
0.5
 40
0.5
 40
1.0
 40
1.0
 40
1.0
 40
1.0
 10
177.4223400781642
 20
163.8130260749261
 30
0.0
 10
177.3458869882454
 20
163.7427633037055
 30
0.0
 10
177.2770252659763
 20
163.6556683886638
 30
0.0
 10
177.1705130349034
 20
163.4464992604115
 30
0.0
 10
177.1324711592179
 20
163.321181711172
 30
0.0
 10
177.1324711592179
 20
163.1918314165761
 30
0.0
  0
SPLINE
  5
DD
330
1F
100
AcDbEntity
  8
0
  6
Continuous
 62
     7
370
    15
100
AcDbSpline
210
0.0
220
0.0
230
1.0
 70
     8
 71
     3
 72
     8
 73
     4
 74
     0
 42
0.000000001
 43
0.00000001
 40
0.0
 40
0.0
 40
0.0
 40
0.0
 40
1.0
 40
1.0
 40
1.0
 40
1.0
 10
177.7324711592179
 20
163.8827064039789
 30
0.0
 10
177.6213929738804
 20
163.8827064039789
 30
0.0
 10
177.5137289699782
 20
163.8575572284244
 30
0.0
 10
177.4223400781642
 20
163.8130260749261
 30
0.0
  0
LINE
  5
DE
330
1F
100
AcDbEntity
  8
0
  6
Continuous
 62
     7
370
    15
100
AcDbLine
 10
177.1324710784
 20
154.8519435993
 30
0.0
 11
177.1324710784
 21
163.1918329468
 31
0.0
  0
SPLINE
  5
DF
330
1F
100
AcDbEntity
  8
0
  6
Continuous
 62
     7
370
    15
100
AcDbSpline
210
0.0
220
0.0
230
1.0
 70
     8
 71
     3
 72
    48
 73
    44
 74
     0
 42
0.000000001
 43
0.00000001
 40
0.0
 40
0.0
 40
0.0
 40
0.0
 40
0.0312500000000004
 40
0.0312500000000004
 40
0.0625000000000009
 40
0.0625000000000009
 40
0.1250000000000017
 40
0.1250000000000017
 40
0.1562500000000024
 40
0.1562500000000024
 40
0.1875000000000031
 40
0.1875000000000031
 40
0.2187500000000037
 40
0.2187500000000037
 40
0.2500000000000044
 40
0.2500000000000044
 40
0.312500000000005
 40
0.312500000000005
 40
0.3437500000000048
 40
0.3437500000000048
 40
0.3750000000000046
 40
0.3750000000000046
 40
0.4375000000000043
 40
0.4375000000000043
 40
0.5000000000000039
 40
0.5000000000000039
 40
0.5625000000000037
 40
0.5625000000000037
 40
0.6250000000000033
 40
0.6250000000000033
 40
0.687500000000003
 40
0.687500000000003
 40
0.7500000000000026
 40
0.7500000000000026
 40
0.8125000000000022
 40
0.8125000000000022
 40
0.8750000000000019
 40
0.8750000000000019
 40
0.9062500000000014
 40
0.9062500000000014
 40
0.937500000000001
 40
0.937500000000001
 40
1.0
 40
1.0
 40
1.0
 40
1.0
 10
225.7324711592179
 20
117.1028617492034
 30
0.0
 10
225.7324711592179
 20
116.8785638901065
 30
0.0
 10
225.7193530923932
 20
116.6544232485461
 30
0.0
 10
225.6665736567269
 20
116.2064598861377
 30
0.0
 10
225.6264813610699
 20
115.9812173871882
 30
0.0
 10
225.4688751505042
 20
115.3214677337052
 30
0.0
 10
225.3148553971766
 20
114.9000061128757
 30
0.0
 10
225.0144561367785
 20
114.2936606079027
 30
0.0
 10
224.9023055732457
 20
114.09561406217
 30
0.0
 10
224.6602485468645
 20
113.7166658798631
 30
0.0
 10
224.5298268392787
 20
113.534591201866
 30
0.0
 10
224.2510482271766
 20
113.184483132394
 30
0.0
 10
224.1026884592904
 20
113.0164521482803
 30
0.0
 10
223.7882719202892
 20
112.694151957158
 30
0.0
 10
223.62210942182
 20
112.5399800223867
 30
0.0
 10
223.1073900808679
 20
112.1063103032474
 30
0.0
 10
222.7397109924699
 20
111.8520579053176
 30
0.0
 10
222.1529379778305
 20
111.5200457400171
 30
0.0
 10
221.9504694899583
 20
111.417282502102
 30
0.0
 10
221.5398783901362
 20
111.2313461180186
 30
0.0
 10
221.3315080983267
 20
111.1479138646728
 30
0.0
 10
220.697462581249
 20
110.9251629728987
 30
0.0
 10
220.2629258197048
 20
110.8131554397023
 30
0.0
 10
219.3698197304607
 20
110.6625886967635
 30
0.0
 10
218.9182110215083
 20
110.6256780792142
 30
0.0
 10
218.021377129388
 20
110.6270911288003
 30
0.0
 10
217.5735842838619
 20
110.6649575065498
 30
0.0
 10
216.679298266051
 20
110.8183117739628
 30
0.0
 10
216.2435972529535
 20
110.9321524349993
 30
0.0
 10
215.4013966191542
 20
111.2309095506202
 30
0.0
 10
214.9936937511908
 20
111.4159797227734
 30
0.0
 10
214.2070292957513
 20
111.8636708039671
 30
0.0
 10
213.840677996281
 20
112.1191293522769
 30
0.0
 10
213.161783102017
 20
112.6939744291642
 30
0.0
 10
212.8477005921099
 20
113.0151409242097
 30
0.0
 10
212.2864489649646
 20
113.7226303900035
 30
0.0
 10
212.046701109791
 20
114.0989313078157
 30
0.0
 10
211.7500417099341
 20
114.6985150664675
 30
0.0
 10
211.6617275381267
 20
114.9042743739971
 30
0.0
 10
211.5076135164324
 20
115.3284061576184
 30
0.0
 10
211.4418035926245
 20
115.5476498813418
 30
0.0
 10
211.2852693559465
 20
116.2058567032022
 30
0.0
 10
211.2324711592179
 20
116.651069800681
 30
0.0
 10
211.2324711592179
 20
117.1028617492034
 30
0.0
  0
SPLINE
  5
E0
330
1F
100
AcDbEntity
  8
0
  6
Continuous
 62
     7
370
    15
100
AcDbSpline
210
0.0
220
0.0
230
1.0
 70
     8
 71
     3
 72
    52
 73
    48
 74
     0
 42
0.000000001
 43
0.00000001
 40
0.0
 40
0.0
 40
0.0
 40
0.0
 40
0.0312500000000007
 40
0.0312500000000007
 40
0.0625000000000013
 40
0.0625000000000013
 40
0.093750000000002
 40
0.093750000000002
 40
0.1250000000000026
 40
0.1250000000000026
 40
0.187500000000004
 40
0.187500000000004
 40
0.2500000000000054
 40
0.2500000000000054
 40
0.3125000000000069
 40
0.3125000000000069
 40
0.3750000000000083
 40
0.3750000000000083
 40
0.4375000000000097
 40
0.4375000000000097
 40
0.4687500000000099
 40
0.4687500000000099
 40
0.5000000000000101
 40
0.5000000000000101
 40
0.5625000000000097
 40
0.5625000000000097
 40
0.5937500000000094
 40
0.5937500000000094
 40
0.6250000000000092
 40
0.6250000000000092
 40
0.6875000000000079
 40
0.6875000000000079
 40
0.7187500000000072
 40
0.7187500000000072
 40
0.7500000000000064
 40
0.7500000000000064
 40
0.8125000000000051
 40
0.8125000000000051
 40
0.8437500000000041
 40
0.8437500000000041
 40
0.8750000000000031
 40
0.8750000000000031
 40
0.9375000000000016
 40
0.9375000000000016
 40
0.9687500000000008
 40
0.9687500000000008
 40
1.0
 40
1.0
 40
1.0
 40
1.0
 10
211.2324711592179
 20
117.1028617492034
 30
0.0
 10
211.2324711592179
 20
117.3288013863511
 30
0.0
 10
211.2460685397259
 20
117.5578100533926
 30
0.0
 10
211.2996296265965
 20
118.0074432658039
 30
0.0
 10
211.3394257535728
 20
118.2291005969639
 30
0.0
 10
211.4441417332719
 20
118.6663283629583
 30
0.0
 10
211.5090638610635
 20
118.8818982277174
 30
0.0
 10
211.6639591787384
 20
119.3069871013372
 30
0.0
 10
211.7542137828832
 20
119.5166579474963
 30
0.0
 10
212.0552463766705
 20
120.1219403837413
 30
0.0
 10
212.297655710649
 20
120.4993756387161
 30
0.0
 10
212.861325614253
 20
121.2055045776723
 30
0.0
 10
213.1787705438626
 20
121.5286822709413
 30
0.0
 10
213.8716525110915
 20
122.110088887575
 30
0.0
 10
214.2411121504361
 20
122.3636714040525
 30
0.0
 10
215.018029367667
 20
122.8011971591696
 30
0.0
 10
215.4275053323077
 20
122.986085872264
 30
0.0
 10
216.2813505191297
 20
123.2847968036582
 30
0.0
 10
216.71593344891
 20
123.395443771829
 30
0.0
 10
217.3787896893664
 20
123.5063905648936
 30
0.0
 10
217.6015842294879
 20
123.5341375704969
 30
0.0
 10
218.0509121771994
 20
123.5709316397417
 30
0.0
 10
218.2785171590117
 20
123.5799362217354
 30
0.0
 10
218.9563349707094
 20
123.5780840889739
 30
0.0
 10
219.4028455376963
 20
123.5391178336827
 30
0.0
 10
220.0647343498046
 20
123.4251298825067
 30
0.0
 10
220.2840433315612
 20
123.3778194390676
 30
0.0
 10
220.7199517153857
 20
123.2640176156862
 30
0.0
 10
220.9373537583211
 20
123.1971656619017
 30
0.0
 10
221.5732386452956
 20
122.9709242421285
 30
0.0
 10
221.9789109406391
 20
122.7855156019271
 30
0.0
 10
222.5599303818466
 20
122.4546580267121
 30
0.0
 10
222.7489922923671
 20
122.3355230194394
 30
0.0
 10
223.1174692019234
 20
122.0786060162466
 30
0.0
 10
223.2972029656196
 20
121.9403893776662
 30
0.0
 10
223.8094326748449
 20
121.505971110824
 30
0.0
 10
224.1193668770014
 20
121.1876278825935
 30
0.0
 10
224.5347659666677
 20
120.6644063614929
 30
0.0
 10
224.6649221429189
 20
120.4823266705937
 30
0.0
 10
224.9073698798308
 20
120.1015714012004
 30
0.0
 10
225.0186615055037
 20
119.9041624244071
 30
0.0
 10
225.3161359279
 20
119.3019276593857
 30
0.0
 10
225.4691217906589
 20
118.8829565093168
 30
0.0
 10
225.6260775163868
 20
118.2263296753837
 30
0.0
 10
225.6663238101494
 20
118.0010191681021
 30
0.0
 10
225.7193486225518
 20
117.5517014466784
 30
0.0
 10
225.7324711592179
 20
117.327202962291
 30
0.0
 10
225.7324711592179
 20
117.1028617492034
 30
0.0
  0
LINE
  5
E1
330
1F
100
AcDbEntity
  8
0
  6
Continuous
 62
     7
370
    15
100
AcDbLine
 10
233.0324694843
 20
90.1028610488
 30
0.0
 11
233.0324694843
 21
144.1028624496
 31
0.0
  0
LINE
  5
E2
330
1F
100
AcDbEntity
  8
0
  6
Continuous
 62
     7
370
    15
100
AcDbLine
 10
232.5324721963
 20
89.6028618982
 30
0.0
 11
232.5324721963
 21
144.6028616002
 31
0.0
  0
LINE
  5
E3
330
1F
100
AcDbEntity
  8
0
  6
Continuous
 62
     7
370
    15
100
AcDbLine
 10
72.3324723871
 20
98.7240172645
 30
0.0
 11
72.3324723871
 21
135.4817062339
 31
0.0
  0
ARC
  5
E4
330
1F
100
AcDbEntity
  8
0
  6
Continuous
 62
     7
370
    15
100
AcDbCircle
 10
187.9348320766
 20
101.8875892085
 30
0.0
 40
2.304345426293933
100
AcDbArc
 50
186.382035643
 51
232.4491905421
  0
ARC
  5
E5
330
1F
100
AcDbEntity
  8
0
  6
Continuous
 62
     7
370
    15
100
AcDbCircle
 10
188.1234223635
 20
102.0649197212
 30
0.0
 40
2.560209924925297
100
AcDbArc
 50
231.5217467907
 51
338.8289442259
  0
ARC
  5
E6
330
1F
100
AcDbEntity
  8
0
  6
Continuous
 62
     7
370
    15
100
AcDbCircle
 10
187.9112515226
 20
101.8155919985
 30
0.0
 40
2.136149471051553
100
AcDbArc
 50
160.1681141741
 51
232.8132193166
  0
ARC
  5
E7
330
1F
100
AcDbEntity
  8
0
  6
Continuous
 62
     7
370
    15
100
AcDbCircle
 10
188.1227296595
 20
101.9887703521
 30
0.0
 40
2.402783339096292
100
AcDbArc
 50
231.2915367939
 51
344.9319616514
  0
ARC
  5
E8
330
1F
100
AcDbEntity
  8
0
  6
Continuous
 62
     7
370
    15
100
AcDbCircle
 10
187.960271591
 20
101.8169749719
 30
0.0
 40
1.820583194096799
100
AcDbArc
 50
124.5384734255
 51
232.4545792103
  0
ARC
  5
E9
330
1F
100
AcDbEntity
  8
0
  6
Continuous
 62
     7
370
    15
100
AcDbCircle
 10
188.1218499404
 20
101.9359964314
 30
0.0
 40
2.014183052357004
100
AcDbArc
 50
230.8733350579
 51
356.5922842378
  0
LWPOLYLINE
  5
EA
330
1F
100
AcDbEntity
  8
0
  6
HIDDEN
 62
     7
370
     0
100
AcDbPolyline
 90
       22
 70
   128
 43
0.0
 10
181.2250077122
 20
127.9230419269
 10
180.8496246443
 20
128.0745904615
 10
180.5511734777
 20
128.4301107472
 10
180.3561726914
 20
128.9580113908
 10
180.2819490762
 20
129.6113872623
 10
180.3350982585
 20
130.3321834376
 10
180.510897036
 20
131.0563528633
 10
180.7937252664
 20
131.7195504626
 10
181.1584521414
 20
132.2628486624
 10
181.5726699637
 20
132.6379723569
 10
181.999574262
 20
132.811591374
 10
182.401232268
 20
132.7682774237
 10
182.7419557006
 20
132.5118787309
 10
182.9914681942
 20
132.0651791712
 10
183.1276005463
 20
131.4678689187
 10
183.1382567392
 20
130.7730221843
 10
183.0224905492
 20
130.0423791355
 10
182.7905865715
 20
129.3408594748
 10
182.4631521807
 20
128.7307975536
 10
182.0692800314
 20
128.2664000711
 10
181.6439687603
 20
127.9889302051
 10
181.2250077122
 20
127.9230419269
  0
LWPOLYLINE
  5
EB
330
1F
100
AcDbEntity
  8
0
  6
HIDDEN
 62
     7
370
     0
100
AcDbPolyline
 90
       19
 70
   128
 43
0.0
 10
181.9865031497
 20
128.5100443011
 10
181.6846051582
 20
128.6481389498
 10
181.4605280155
 20
128.9761870822
 10
181.3412991681
 20
129.4546223899
 10
181.3412991681
 20
130.0257382637
 10
181.4605280155
 20
130.6206494292
 10
181.6846051582
 20
131.1676012075
 10
181.9865031497
 20
131.6006224325
 10
182.3298082085
 20
131.8674854657
 10
182.6731141986
 20
131.9360010048
 10
182.9750126557
 20
131.7979072874
 10
183.1990888671
 20
131.4698591551
 10
183.3183177145
 20
130.9914238473
 10
183.3183177145
 20
130.4203079736
 10
183.1990888671
 20
129.8253968081
 10
182.9750126557
 20
129.2784450298
 10
182.6731141986
 20
128.8454238048
 10
182.3298082085
 20
128.5785607716
 10
181.9865031497
 20
128.5100443011
  0
LWPOLYLINE
  5
EC
330
1F
100
AcDbEntity
  8
0
  6
HIDDEN
 62
     7
370
     0
100
AcDbPolyline
 90
       22
 70
   128
 43
0.0
 10
178.7732209408
 20
128.5102082139
 10
178.3978378729
 20
128.6617567485
 10
178.0993862407
 20
129.0172770342
 10
177.90438592
 20
129.5451776778
 10
177.8301623048
 20
130.1985535493
 10
177.8833114871
 20
130.9193497246
 10
178.0591102646
 20
131.6435191503
 10
178.3419380293
 20
132.306717681
 10
178.7066649043
 20
132.8500158807
 10
179.1208831922
 20
133.2251395753
 10
179.5477874906
 20
133.3987567296
 10
179.9494459623
 20
133.3554427793
 10
180.2901684636
 20
133.0990459493
 10
180.5396814228
 20
132.6523454582
 10
180.6758142405
 20
132.0550352058
 10
180.6864704334
 20
131.3601884713
 10
180.5707033121
 20
130.6295454225
 10
180.3387998001
 20
129.9280257618
 10
180.0113649437
 20
129.3179638406
 10
179.61749326
 20
128.8535663581
 10
179.1921815233
 20
128.5760964921
 10
178.7732209408
 20
128.5102082139
  0
LINE
  5
ED
330
1F
100
AcDbEntity
  8
0
  6
HIDDEN
 62
     7
370
     0
100
AcDbLine
 10
180.1593493068
 20
131.3944471723
 30
0.0
 11
180.9746584253
 21
132.0282131156
 31
0.0
  0
LINE
  5
EE
330
1F
100
AcDbEntity
  8
0
  6
HIDDEN
 62
     7
370
     0
100
AcDbLine
 10
180.1593493068
 20
131.3944471723
 30
0.0
 11
178.5210453303
 21
131.7867966091
 31
0.0
  0
LINE
  5
EF
330
1F
100
AcDbEntity
  8
0
  6
HIDDEN
 62
     7
370
     0
100
AcDbLine
 10
179.8761955791
 20
129.9816066122
 30
0.0
 11
180.1593493068
 21
131.3944471723
 31
0.0
  0
LINE
  5
F0
330
1F
100
AcDbEntity
  8
0
  6
HIDDEN
 62
     7
370
     0
100
AcDbLine
 10
179.8761955791
 20
129.9816066122
 30
0.0
 11
178.2378916026
 21
130.3739560491
 31
0.0
  0
LINE
  5
F1
330
1F
100
AcDbEntity
  8
0
  6
HIDDEN
 62
     7
370
     0
100
AcDbLine
 10
179.8761955791
 20
129.9816066122
 30
0.0
 11
180.40835097
 21
129.2025319954
 31
0.0
  0
LINE
  5
F2
330
1F
100
AcDbEntity
  8
0
  6
HIDDEN
 62
     7
370
     0
100
AcDbLine
 10
178.2378916026
 20
130.3739560491
 30
0.0
 11
178.7700465278
 21
129.5948814323
 31
0.0
  0
LINE
  5
F3
330
1F
100
AcDbEntity
  8
0
  6
HIDDEN
 62
     7
370
     0
100
AcDbLine
 10
178.2378916026
 20
130.3739560491
 30
0.0
 11
178.5210453303
 21
131.7867966091
 31
0.0
  0
LINE
  5
F4
330
1F
100
AcDbEntity
  8
0
  6
HIDDEN
 62
     7
370
     0
100
AcDbLine
 10
178.5210453303
 20
131.7867966091
 30
0.0
 11
179.3363544488
 21
132.4205625525
 31
0.0
  0
LWPOLYLINE
  5
F5
330
1F
100
AcDbEntity
  8
0
  6
HIDDEN
 62
     7
370
     0
100
AcDbPolyline
 90
       20
 70
   128
 43
0.0
 10
178.6500614465
 20
128.9961956164
 10
178.3122623668
 20
129.1439685693
 10
178.0547558659
 20
129.4937090671
 10
177.9054457651
 20
130.0075150749
 10
177.8805133284
 20
130.6297102666
 10
177.9826593914
 20
131.292867819
 10
178.2008151853
 20
131.9251259511
 10
178.5113400177
 20
132.4579691237
 10
178.8805838072
 20
132.8336544057
 10
179.2685336762
 20
133.0114736876
 10
179.6331487925
 20
132.9721532485
 10
179.9349173301
 20
132.7199576145
 10
180.1411382252
 20
132.2822136527
 10
180.2294639268
 20
131.7063592097
 10
180.1903236986
 20
131.0547966233
 10
180.027958318
 20
130.3981322518
 10
179.7599627965
 20
129.8075275218
 10
179.4153785662
 20
129.3469810581
 10
179.0315465399
 20
129.0664024374
 10
178.6500614465
 20
128.9961956164
  0
LINE
  5
F6
330
1F
100
AcDbEntity
  8
0
  6
HIDDEN
 62
     7
370
     0
100
AcDbLine
 10
181.5068133504
 20
131.2491384989
 30
0.0
 11
179.8685093739
 21
131.6414879358
 31
0.0
  0
LINE
  5
F7
330
1F
100
AcDbEntity
  8
0
  6
HIDDEN
 62
     7
370
     0
100
AcDbLine
 10
179.8685093739
 20
131.6414879358
 30
0.0
 11
179.3363544488
 21
132.4205625525
 31
0.0
  0
LINE
  5
F8
330
1F
100
AcDbEntity
  8
0
  6
HIDDEN
 62
     7
370
     0
100
AcDbLine
 10
180.9746584253
 20
132.0282131156
 30
0.0
 11
179.3363544488
 21
132.4205625525
 31
0.0
  0
LINE
  5
F9
330
1F
100
AcDbEntity
  8
0
  6
HIDDEN
 62
     7
370
     0
100
AcDbLine
 10
181.5068133504
 20
131.2491384989
 30
0.0
 11
180.9746584253
 21
132.0282131156
 31
0.0
  0
LINE
  5
FA
330
1F
100
AcDbEntity
  8
0
  6
HIDDEN
 62
     7
370
     0
100
AcDbLine
 10
181.2236596228
 20
129.8362979388
 30
0.0
 11
179.5853556463
 21
130.2286473757
 31
0.0
  0
LINE
  5
FB
330
1F
100
AcDbEntity
  8
0
  6
HIDDEN
 62
     7
370
     0
100
AcDbLine
 10
179.5853556463
 20
130.2286473757
 30
0.0
 11
178.7700465278
 21
129.5948814323
 31
0.0
  0
LINE
  5
FC
330
1F
100
AcDbEntity
  8
0
  6
HIDDEN
 62
     7
370
     0
100
AcDbLine
 10
180.40835097
 20
129.2025319954
 30
0.0
 11
178.7700465278
 21
129.5948814323
 31
0.0
  0
LINE
  5
FD
330
1F
100
AcDbEntity
  8
0
  6
HIDDEN
 62
     7
370
     0
100
AcDbLine
 10
181.2236596228
 20
129.8362979388
 30
0.0
 11
180.40835097
 21
129.2025319954
 31
0.0
  0
LINE
  5
FE
330
1F
100
AcDbEntity
  8
0
  6
HIDDEN
 62
     7
370
     0
100
AcDbLine
 10
179.5853556463
 20
130.2286473757
 30
0.0
 11
179.8685093739
 21
131.6414879358
 31
0.0
  0
LINE
  5
FF
330
1F
100
AcDbEntity
  8
0
  6
HIDDEN
 62
     7
370
     0
100
AcDbLine
 10
181.2236596228
 20
129.8362979388
 30
0.0
 11
181.5068133504
 21
131.2491384989
 31
0.0
  0
LWPOLYLINE
  5
100
330
1F
100
AcDbEntity
  8
0
  6
HIDDEN
 62
     7
370
     0
100
AcDbPolyline
 90
       20
 70
   128
 43
0.0
 10
180.1757936695
 20
103.2383547818
 10
179.9982947626
 20
103.8903290128
 10
179.7183801749
 20
104.4672786912
 10
179.3663830825
 20
104.9066822698
 10
178.9804476642
 20
105.1609249508
 10
178.6023963572
 20
105.2024535557
 10
178.2731961788
 20
105.0267688653
 10
178.028521906
 20
104.6529089755
 10
177.8948878267
 20
104.1213873496
 10
177.8867741444
 20
103.4898025638
 10
178.0050614246
 20
102.8265965825
 10
178.2369304777
 20
102.2036377063
 10
178.557255152
 20
101.6884347146
 10
178.9313231924
 20
101.3368148079
 10
179.3185987839
 20
101.1868849119
 10
179.6771142029
 20
101.2548900863
 10
179.9680183971
 20
101.5334626382
 10
180.1597884254
 20
101.9924128151
 10
180.2316422903
 20
102.58200706
 10
180.1757936695
 20
103.2383547818
  0
LWPOLYLINE
  5
101
330
1F
100
AcDbEntity
  8
0
  6
HIDDEN
 62
     7
370
     0
100
AcDbPolyline
 90
       22
 70
   128
 43
0.0
 10
180.6293431067
 20
103.2974937653
 10
180.4398203598
 20
104.0177376663
 10
180.1457906471
 20
104.6696224904
 10
179.7733794295
 20
105.1952255612
 10
179.3556770639
 20
105.5478447771
 10
178.9297986173
 20
105.6961495152
 10
178.5335846574
 20
105.6269606298
 10
178.2022415058
 20
105.3464257812
 10
177.9652092004
 20
104.8794736808
 10
177.8435500668
 20
104.2675928867
 10
177.8480739662
 20
103.5651530793
 10
177.9783781016
 20
102.8345687037
 10
178.2228856677
 20
102.1407548061
 10
178.5598698401
 20
101.5453602841
 10
178.9593890638
 20
101.1012889167
 10
179.3859436506
 20
100.8479989788
 10
179.8016324968
 20
100.8079949489
 10
180.1695202806
 20
100.9848307541
 10
180.4569180453
 20
101.3627949825
 10
180.6382893914
 20
101.9083050734
 10
180.6975187131
 20
102.5728884807
 10
180.6293431067
 20
103.2974937653
  0
LWPOLYLINE
  5
102
330
1F
100
AcDbEntity
  8
0
  6
HIDDEN
 62
     7
370
     0
100
AcDbPolyline
 90
       22
 70
   128
 43
0.0
 10
183.0811303438
 20
103.8846600523
 10
182.8916071312
 20
104.6049039533
 10
182.5975774185
 20
105.2567887774
 10
182.2251657353
 20
105.7823918482
 10
181.8074638353
 20
106.1350119954
 10
181.3815853887
 20
106.2833158022
 10
180.9853718945
 20
106.2141269168
 10
180.6540282772
 20
105.9335920682
 10
180.4169964374
 20
105.4666399678
 10
180.2953368382
 20
104.8547591737
 10
180.2998607376
 20
104.1523193663
 10
180.4301653386
 20
103.4217349907
 10
180.6746724391
 20
102.7279210931
 10
181.0116566115
 20
102.1325275024
 10
181.4111758352
 20
101.6884561351
 10
181.8377299563
 20
101.4351643344
 10
182.2534192682
 20
101.3951603046
 10
182.6213065864
 20
101.5719970411
 10
182.908704351
 20
101.9499622008
 10
183.0900756971
 20
102.4954713604
 10
183.1493050189
 20
103.1600547677
 10
183.0811303438
 20
103.8846600523
  0
LINE
  5
103
330
1F
100
AcDbEntity
  8
0
  6
HIDDEN
 62
     7
370
     0
100
AcDbLine
 10
178.4403913983
 20
104.409295479
 30
0.0
 11
178.264721609
 21
103.1696594974
 31
0.0
  0
LINE
  5
104
330
1F
100
AcDbEntity
  8
0
  6
HIDDEN
 62
     7
370
     0
100
AcDbLine
 10
178.8775309318
 20
101.9583645931
 30
0.0
 11
178.264721609
 21
103.1696594974
 31
0.0
  0
LINE
  5
105
330
1F
100
AcDbEntity
  8
0
  6
HIDDEN
 62
     7
370
     0
100
AcDbLine
 10
179.6660095782
 20
101.986707533
 30
0.0
 11
178.8775309318
 21
101.9583645931
 31
0.0
  0
LINE
  5
106
330
1F
100
AcDbEntity
  8
0
  6
HIDDEN
 62
     7
370
     0
100
AcDbLine
 10
179.6660095782
 20
101.986707533
 30
0.0
 11
179.8416793675
 21
103.2263444459
 31
0.0
  0
LINE
  5
107
330
1F
100
AcDbEntity
  8
0
  6
HIDDEN
 62
     7
370
     0
100
AcDbLine
 10
179.2288700448
 20
104.4376384189
 30
0.0
 11
179.8416793675
 21
103.2263444459
 31
0.0
  0
LINE
  5
108
330
1F
100
AcDbEntity
  8
0
  6
HIDDEN
 62
     7
370
     0
100
AcDbLine
 10
179.2288700448
 20
104.4376384189
 30
0.0
 11
178.4403913983
 21
104.409295479
 31
0.0
  0
LINE
  5
109
330
1F
100
AcDbEntity
  8
0
  6
HIDDEN
 62
     7
370
     0
100
AcDbLine
 10
181.479983344
 20
103.6186938828
 30
0.0
 11
179.8416793675
 21
103.2263444459
 31
0.0
  0
LINE
  5
10A
330
1F
100
AcDbEntity
  8
0
  6
HIDDEN
 62
     7
370
     0
100
AcDbLine
 10
180.8671744869
 20
104.8299878558
 30
0.0
 11
179.2288700448
 21
104.4376384189
 31
0.0
  0
LWPOLYLINE
  5
10B
330
1F
100
AcDbEntity
  8
0
  6
HIDDEN
 62
     7
370
     0
100
AcDbPolyline
 90
       19
 70
   128
 43
0.0
 10
183.2857884796
 20
104.0170643201
 10
183.1234785126
 20
104.6017793661
 10
182.8654397608
 20
105.111823762
 10
182.5427970247
 20
105.4856799265
 10
182.1944637553
 20
105.6782550832
 10
181.8624556394
 20
105.6663201844
 10
181.5868172192
 20
105.4513169175
 10
181.4007943825
 20
105.0591760969
 10
181.326824087
 20
104.5371968022
 10
181.3738288687
 20
103.9483373707
 10
181.5361388357
 20
103.3636223247
 10
181.7941775874
 20
102.8535769975
 10
182.1168203236
 20
102.479720833
 10
182.4651535929
 20
102.2871466076
 10
182.7971617089
 20
102.2990805751
 10
183.0727996634
 20
102.5140847733
 10
183.2588229657
 20
102.9062246626
 10
183.3327932612
 20
103.4282039574
 10
183.2857884796
 20
104.0170643201
  0
LINE
  5
10C
330
1F
100
AcDbEntity
  8
0
  6
HIDDEN
 62
     7
370
     0
100
AcDbLine
 10
180.5158349083
 20
102.3507140299
 30
0.0
 11
178.8775309318
 21
101.9583645931
 31
0.0
  0
LINE
  5
10D
330
1F
100
AcDbEntity
  8
0
  6
HIDDEN
 62
     7
370
     0
100
AcDbLine
 10
181.3043135547
 20
102.3790569699
 30
0.0
 11
180.5158349083
 21
102.3507140299
 31
0.0
  0
LINE
  5
10E
330
1F
100
AcDbEntity
  8
0
  6
HIDDEN
 62
     7
370
     0
100
AcDbLine
 10
181.3043135547
 20
102.3790569699
 30
0.0
 11
179.6660095782
 21
101.986707533
 31
0.0
  0
LINE
  5
10F
330
1F
100
AcDbEntity
  8
0
  6
HIDDEN
 62
     7
370
     0
100
AcDbLine
 10
180.5158349083
 20
102.3507140299
 30
0.0
 11
179.9030255855
 21
103.5620089343
 31
0.0
  0
LINE
  5
110
330
1F
100
AcDbEntity
  8
0
  6
HIDDEN
 62
     7
370
     0
100
AcDbLine
 10
180.0786953748
 20
104.8016449159
 30
0.0
 11
179.9030255855
 21
103.5620089343
 31
0.0
  0
LINE
  5
111
330
1F
100
AcDbEntity
  8
0
  6
HIDDEN
 62
     7
370
     0
100
AcDbLine
 10
180.8671744869
 20
104.8299878558
 30
0.0
 11
180.0786953748
 21
104.8016449159
 31
0.0
  0
LINE
  5
112
330
1F
100
AcDbEntity
  8
0
  6
HIDDEN
 62
     7
370
     0
100
AcDbLine
 10
181.3043135547
 20
102.3790569699
 30
0.0
 11
181.479983344
 21
103.6186938828
 31
0.0
  0
LINE
  5
113
330
1F
100
AcDbEntity
  8
0
  6
HIDDEN
 62
     7
370
     0
100
AcDbLine
 10
180.8671744869
 20
104.8299878558
 30
0.0
 11
181.479983344
 21
103.6186938828
 31
0.0
  0
LINE
  5
114
330
1F
100
AcDbEntity
  8
0
  6
HIDDEN
 62
     7
370
     0
100
AcDbLine
 10
179.9030255855
 20
103.5620089343
 30
0.0
 11
178.264721609
 21
103.1696594974
 31
0.0
  0
LINE
  5
115
330
1F
100
AcDbEntity
  8
0
  6
HIDDEN
 62
     7
370
     0
100
AcDbLine
 10
180.0786953748
 20
104.8016449159
 30
0.0
 11
178.4403913983
 21
104.409295479
 31
0.0
  0
CIRCLE
  5
116
330
1F
100
AcDbEntity
  8
0
  6
HIDDEN
 62
     7
370
     0
100
AcDbCircle
 10
218.4824711592
 20
117.1028617492
 30
0.0
 40
5.258613578496414
  0
CIRCLE
  5
117
330
1F
100
AcDbEntity
  8
0
  6
HIDDEN
 62
     7
370
     0
100
AcDbCircle
 10
218.4824711592
 20
117.1028617492
 30
0.0
 40
4.094716599621021
  0
CIRCLE
  5
118
330
1F
100
AcDbEntity
  8
0
  6
HIDDEN
 62
     7
370
     0
100
AcDbCircle
 10
218.4824711592
 20
117.1028617492
 30
0.0
 40
3.694716599621021
  0
LWPOLYLINE
  5
119
330
1F
100
AcDbEntity
  8
0
  6
HIDDEN
 62
     7
370
     0
100
AcDbPolyline
 90
       22
 70
   128
 43
0.0
 10
188.1324712516
 20
101.2455451956
 10
188.8693588184
 20
101.3499147913
 10
189.5407716141
 20
101.6537503993
 10
190.0870491148
 20
102.1300539097
 10
190.4596563758
 20
102.7365050932
 10
190.6254802228
 20
103.4192176258
 10
190.5697908581
 20
104.1175298115
 10
190.2975354673
 20
104.7693922838
 10
189.8329023601
 20
105.3168851605
 10
189.2171807916
 20
105.7113608068
 10
188.5050766499
 20
105.9177688977
 10
187.7598658533
 20
105.9177688977
 10
187.0477617116
 20
105.7113608068
 10
186.4320392118
 20
105.3168851605
 10
185.9674079673
 20
104.7693922838
 10
185.6951516451
 20
104.1175298115
 10
185.6394613491
 20
103.4192176258
 10
185.8052870588
 20
102.7365050932
 10
186.1778924571
 20
102.1300539097
 10
186.7241708891
 20
101.6537503993
 10
187.3955836849
 20
101.3499147913
 10
188.1324712516
 20
101.2455451956
  0
LWPOLYLINE
  5
11A
330
1F
100
AcDbEntity
  8
0
  6
HIDDEN
 62
     7
370
     0
100
AcDbPolyline
 90
       24
 70
   128
 43
0.0
 10
177.4042021347
 20
103.198001506
 10
177.5979952284
 20
102.4043386525
 10
177.899714406
 20
101.6695381796
 10
178.2869825469
 20
101.0480973592
 10
178.7310771973
 20
100.5861036202
 10
179.1990626001
 20
100.3178231141
 10
179.6562297599
 20
100.2631526163
 10
180.0686734126
 20
100.4261471054
 10
180.4058038027
 20
100.7947161516
 10
180.642617713
 20
101.3415254375
 10
180.7615517968
 20
102.0260223841
 10
180.7537854978
 20
102.7974396667
 10
180.6198943735
 20
103.5985642767
 10
180.3698091165
 20
104.3699806279
 10
180.0220765502
 20
105.0544775745
 10
179.602487325
 20
105.6012877917
 10
179.1421597221
 20
105.969856838
 10
178.6752341644
 20
106.1328503957
 10
178.2363409505
 20
106.0781798979
 10
177.8580307358
 20
105.8098993918
 10
177.5683603113
 20
105.3479065841
 10
177.3888138918
 20
104.7264657637
 10
177.3327075274
 20
103.9916643595
 10
177.4042021347
 20
103.198001506
  0
LWPOLYLINE
  5
11B
330
1F
100
AcDbEntity
  8
0
  6
HIDDEN
 62
     7
370
     0
100
AcDbPolyline
 90
       20
 70
   128
 43
0.0
 10
178.1672340215
 20
103.262263695
 10
178.3415226595
 20
102.5936439356
 10
178.6220104763
 20
101.9974801412
 10
178.9783023627
 20
101.5383744335
 10
179.3717889444
 20
101.2660789957
 10
179.7598291517
 20
101.2101009211
 10
180.1003733048
 20
101.3765077761
 10
180.3565182121
 20
101.747264499
 10
180.5005058044
 20
102.2821947655
 10
180.5167336346
 20
102.9233311957
 10
180.4034429
 20
103.6011952629
 10
180.1729107605
 20
104.2423316931
 10
179.8501180814
 20
104.7772619596
 10
179.4700453387
 20
105.1480186826
 10
179.0738788762
 20
105.3144246062
 10
178.7045494051
 20
105.2584474629
 10
178.4020795816
 20
104.9861520251
 10
178.1992468381
 20
104.5270472488
 10
178.1180313186
 20
103.930882523
 10
178.1672340215
 20
103.262263695
  0
ELLIPSE
  5
11C
330
1F
100
AcDbEntity
  8
0
  6
HIDDEN
 62
     7
370
     0
100
AcDbEllipse
 10
188.1324711592
 20
105.3723516379
 30
0.0
 11
1.760776919379083
 21
2.232245799914452
 31
0.0
210
0.0
220
0.0
230
1.0
 40
0.5126701559
 41
1.10088704764627
 42
4.029627027608291
  0
ARC
  5
11D
330
1F
100
AcDbEntity
  8
0
  6
HIDDEN
 62
     7
370
     0
100
AcDbCircle
 10
187.4358716906
 20
106.549891519
 30
0.0
 40
0.7945949542257933
100
AcDbArc
 50
53.4208190544
 51
99.1663888759
  0
ELLIPSE
  5
11E
330
1F
100
AcDbEntity
  8
0
  6
HIDDEN
 62
     7
370
     0
100
AcDbEllipse
 10
188.1324711592
 20
105.3723516379
 30
0.0
 11
1.760776919379083
 21
-1.388886188042932
 31
0.0
210
0.0
220
0.0
230
1.0
 40
0.8239737799
 41
2.549926265248549
 42
4.885930273856088
  0
ARC
  5
11F
330
1F
100
AcDbEntity
  8
0
  6
HIDDEN
 62
     7
370
     0
100
AcDbCircle
 10
188.3785239211
 20
104.5328740738
 30
0.0
 40
1.353195702694764
100
AcDbArc
 50
217.8001040701
 51
249.7155767561
  0
LWPOLYLINE
  5
120
330
1F
100
AcDbEntity
  8
0
  6
HIDDEN
 62
     7
370
     0
100
AcDbPolyline
 90
       20
 70
   128
 43
0.0
 10
188.1324712516
 20
101.6712154916
 10
188.8143400059
 20
101.7781378424
 10
189.4223176272
 20
102.0873164481
 10
189.8905214251
 20
102.5652479103
 10
190.1682120146
 20
103.1601404494
 10
190.2252983631
 20
103.807528848
 10
190.0555946262
 20
104.437257508
 10
189.6774906994
 20
104.9810865617
 10
189.1319610507
 20
105.3800837791
 10
188.478119518
 20
105.5910106471
 10
187.7868229852
 20
105.5910106471
 10
187.1329814525
 20
105.3800837791
 10
186.5874508725
 20
104.9810865617
 10
186.2093469457
 20
104.437257508
 10
186.0396441401
 20
103.807528848
 10
186.0967304887
 20
103.1601404494
 10
186.3744220094
 20
102.5652479103
 10
186.842624876
 20
102.0873164481
 10
187.4506024973
 20
101.7781378424
 10
188.1324712516
 20
101.6712154916
  0
SPLINE
  5
121
330
1F
100
AcDbEntity
  8
0
  6
HIDDEN
 62
     7
370
     0
100
AcDbSpline
210
0.0
220
0.0
230
1.0
 70
    11
 71
     3
 72
    64
 73
    60
 74
     0
 42
0.000000001
 43
0.00000001
 40
0.0
 40
0.0
 40
0.0
 40
0.0
 40
0.03125
 40
0.03125
 40
0.0625
 40
0.0625
 40
0.09375
 40
0.09375
 40
0.1249999999999999
 40
0.1249999999999999
 40
0.1875000000000001
 40
0.1875000000000001
 40
0.2187500000000002
 40
0.2187500000000002
 40
0.2500000000000004
 40
0.2500000000000004
 40
0.2812500000000006
 40
0.2812500000000006
 40
0.3125000000000007
 40
0.3125000000000007
 40
0.3437500000000008
 40
0.3437500000000008
 40
0.375000000000001
 40
0.375000000000001
 40
0.4062500000000012
 40
0.4062500000000012
 40
0.4375000000000013
 40
0.4375000000000013
 40
0.500000000000002
 40
0.500000000000002
 40
0.5312500000000021
 40
0.5312500000000021
 40
0.5625000000000022
 40
0.5625000000000022
 40
0.5937500000000023
 40
0.5937500000000023
 40
0.6250000000000023
 40
0.6250000000000023
 40
0.6562500000000022
 40
0.6562500000000022
 40
0.6875000000000021
 40
0.6875000000000021
 40
0.718750000000002
 40
0.718750000000002
 40
0.7500000000000019
 40
0.7500000000000019
 40
0.8125000000000017
 40
0.8125000000000017
 40
0.8437500000000016
 40
0.8437500000000016
 40
0.8750000000000013
 40
0.8750000000000013
 40
0.906250000000001
 40
0.906250000000001
 40
0.9375000000000007
 40
0.9375000000000007
 40
0.9687500000000003
 40
0.9687500000000003
 40
1.0
 40
1.0
 40
1.0
 40
1.0
 10
188.1324711592179
 20
113.5399412625516
 30
0.0
 10
187.9920601049444
 20
113.5399412625516
 30
0.0
 10
187.8543496030593
 20
113.5508601277961
 30
0.0
 10
187.5839841318376
 20
113.5936686716912
 30
0.0
 10
187.4499256394883
 20
113.626145157332
 30
0.0
 10
187.1965772174396
 20
113.7106975015516
 30
0.0
 10
187.0766666437922
 20
113.7625910908318
 30
0.0
 10
186.8497036186986
 20
113.8866155228221
 30
0.0
 10
186.7436576236502
 20
113.9584961469226
 30
0.0
 10
186.4565144386886
 20
114.1982961272187
 30
0.0
 10
186.3005936467733
 20
114.3961579428026
 30
0.0
 10
186.1423744079437
 20
114.7307950524384
 30
0.0
 10
186.1011236398375
 20
114.8509874643139
 30
0.0
 10
186.046405769569
 20
115.0988480898868
 30
0.0
 10
186.0326287074426
 20
115.2259503662437
 30
0.0
 10
186.032316271919
 20
115.486725398313
 30
0.0
 10
186.0462657034766
 20
115.6209689841452
 30
0.0
 10
186.1005352680924
 20
115.8829935089492
 30
0.0
 10
186.1408056854615
 20
116.0126325684129
 30
0.0
 10
186.2475503586242
 20
116.2672815188288
 30
0.0
 10
186.3124005552001
 20
116.388566697252
 30
0.0
 10
186.4640058114739
 20
116.6192793905528
 30
0.0
 10
186.5517952928561
 20
116.7295947724769
 30
0.0
 10
186.7438277006245
 20
116.929967936286
 30
0.0
 10
186.8482657614106
 20
117.0207764468454
 30
0.0
 10
187.0747571654787
 20
117.1826655530917
 30
0.0
 10
187.1967370978914
 20
117.2532242904364
 30
0.0
 10
187.5744984702993
 20
117.4237671886107
 30
0.0
 10
187.8535345729258
 20
117.4862889172769
 30
0.0
 10
188.2681933953069
 20
117.4868285087871
 30
0.0
 10
188.4084145893856
 20
117.4717605532084
 30
0.0
 10
188.6806627766515
 20
117.4123422122946
 30
0.0
 10
188.8121220994437
 20
117.3685786634785
 30
0.0
 10
189.0662204973883
 20
117.2543701707866
 30
0.0
 10
189.1882332269103
 20
117.1838375944572
 30
0.0
 10
189.4140158546808
 20
117.0228968564673
 30
0.0
 10
189.5196694283099
 20
116.9313841465654
 30
0.0
 10
189.7131689069036
 20
116.729663017939
 30
0.0
 10
189.7992634313852
 20
116.6214909471574
 30
0.0
 10
189.9509130087217
 20
116.3913726491759
 30
0.0
 10
190.0170187033756
 20
116.2678579206107
 30
0.0
 10
190.1230174627179
 20
116.0156120884083
 30
0.0
 10
190.1633450430891
 20
115.8868776221632
 30
0.0
 10
190.2182036912425
 20
115.6244613631594
 30
0.0
 10
190.232372948077
 20
115.4900991848582
 30
0.0
 10
190.2326660140752
 20
115.0996549433248
 30
0.0
 10
190.1764232552388
 20
114.8455508163691
 30
0.0
 10
190.018079333156
 20
114.5093803795156
 30
0.0
 10
189.952149151213
 20
114.4026523970902
 30
0.0
 10
189.8000248143498
 20
114.207964346325
 30
0.0
 10
189.7138828111645
 20
114.119398209143
 30
0.0
 10
189.5211294591848
 20
113.958307938036
 30
0.0
 10
189.4148435208873
 20
113.8864359919932
 30
0.0
 10
189.1895748490856
 20
113.7632647578191
 30
0.0
 10
189.0696732462594
 20
113.7111368448225
 30
0.0
 10
188.8137950769339
 20
113.6257346978858
 30
0.0
 10
188.6822581489655
 20
113.5939602398439
 30
0.0
 10
188.4124348103556
 20
113.5510670524621
 30
0.0
 10
188.2728822134914
 20
113.5399412625516
 30
0.0
 10
188.1324711592179
 20
113.5399412625516
 30
0.0
  0
SPLINE
  5
122
330
1F
100
AcDbEntity
  8
0
  6
HIDDEN
 62
     7
370
     0
100
AcDbSpline
210
0.0
220
0.0
230
1.0
 70
     8
 71
     3
 72
     8
 73
     4
 74
     0
 42
0.000000001
 43
0.00000001
 40
0.0
 40
0.0
 40
0.0
 40
0.0
 40
1.0
 40
1.0
 40
1.0
 40
1.0
 10
187.3092909830585
 20
107.3343397137248
 30
0.0
 10
187.5207183730597
 20
107.3268302039423
 30
0.0
 10
187.7231869195925
 20
107.2727066743076
 30
0.0
 10
187.9093975187298
 20
107.1879783870825
 30
0.0
  0
SPLINE
  5
123
330
1F
100
AcDbEntity
  8
0
  6
HIDDEN
 62
     7
370
     0
100
AcDbSpline
210
0.0
220
0.0
230
1.0
 70
     8
 71
     3
 72
     8
 73
     4
 74
     0
 42
0.000000001
 43
0.00000001
 40
0.0
 40
0.0
 40
0.0
 40
0.0
 40
1.0
 40
1.0
 40
1.0
 40
1.0
 10
187.9093975187298
 20
103.2635996191482
 30
0.0
 10
187.7228731694454
 20
103.3859200350487
 30
0.0
 10
187.5203182709198
 20
103.5270051957134
 30
0.0
 10
187.3092909830585
 20
103.7034888314983
 30
0.0
  0
LINE
  5
124
330
1F
100
AcDbEntity
  8
0
  6
HIDDEN
 62
     7
370
     0
100
AcDbLine
 10
232.48247135
 20
136.2694039663
 30
0.0
 11
232.48247135
 21
139.4233837446
 31
0.0
  0
LINE
  5
125
330
1F
100
AcDbEntity
  8
0
  6
HIDDEN
 62
     7
370
     0
100
AcDbLine
 10
232.48247135
 20
101.2434348187
 30
0.0
 11
232.48247135
 21
132.9622886798
 31
0.0
  0
LINE
  5
126
330
1F
100
AcDbEntity
  8
0
  6
HIDDEN
 62
     7
370
     0
100
AcDbLine
 10
232.48247135
 20
94.7823397538
 30
0.0
 11
232.48247135
 21
97.9363195321
 31
0.0
  0
LINE
  5
127
330
1F
100
AcDbEntity
  8
0
  6
HIDDEN
 62
     7
370
     0
100
AcDbLine
 10
228.4824706943
 20
107.9024545571
 30
0.0
 11
228.4824706943
 21
126.3032689413
 31
0.0
  0
LINE
  5
128
330
1F
100
AcDbEntity
  8
0
  6
HIDDEN
 62
     7
370
     0
100
AcDbLine
 10
228.4824706943
 20
131.1028621813
 30
0.0
 11
228.4824706943
 21
126.3032689413
 31
0.0
  0
LINE
  5
129
330
1F
100
AcDbEntity
  8
0
  6
HIDDEN
 62
     7
370
     0
100
AcDbLine
 10
228.4824706943
 20
126.3032689413
 30
0.0
 11
232.48247135
 21
126.3032689413
 31
0.0
  0
LINE
  5
12A
330
1F
100
AcDbEntity
  8
0
  6
HIDDEN
 62
     7
370
     0
100
AcDbLine
 10
232.48247135
 20
136.2694039663
 30
0.0
 11
232.48247135
 21
136.1295994094
 31
0.0
  0
LINE
  5
12B
330
1F
100
AcDbEntity
  8
0
  6
HIDDEN
 62
     7
370
     0
100
AcDbLine
 10
228.4824706943
 20
136.1295994094
 30
0.0
 11
232.48247135
 21
136.1295994094
 31
0.0
  0
LINE
  5
12C
330
1F
100
AcDbEntity
  8
0
  6
HIDDEN
 62
     7
370
     0
100
AcDbLine
 10
228.4824706943
 20
136.3028626612
 30
0.0
 11
228.4824706943
 21
131.1028621813
 31
0.0
  0
LINE
  5
12D
330
1F
100
AcDbEntity
  8
0
  6
HIDDEN
 62
     7
370
     0
100
AcDbLine
 10
228.4824706943
 20
98.076124089
 30
0.0
 11
232.48247135
 21
98.076124089
 31
0.0
  0
LINE
  5
12E
330
1F
100
AcDbEntity
  8
0
  6
HIDDEN
 62
     7
370
     0
100
AcDbLine
 10
232.48247135
 20
98.076124089
 30
0.0
 11
232.48247135
 21
97.9363195321
 31
0.0
  0
LINE
  5
12F
330
1F
100
AcDbEntity
  8
0
  6
HIDDEN
 62
     7
370
     0
100
AcDbLine
 10
228.4824706943
 20
103.1028613171
 30
0.0
 11
228.4824706943
 21
97.9028608373
 31
0.0
  0
LINE
  5
130
330
1F
100
AcDbEntity
  8
0
  6
HIDDEN
 62
     7
370
     0
100
AcDbLine
 10
228.4824706943
 20
107.9024545571
 30
0.0
 11
228.4824706943
 21
103.1028613171
 31
0.0
  0
LINE
  5
131
330
1F
100
AcDbEntity
  8
0
  6
HIDDEN
 62
     7
370
     0
100
AcDbLine
 10
232.48247135
 20
107.9024545571
 30
0.0
 11
228.4824706943
 21
107.9024545571
 31
0.0
  0
LINE
  5
132
330
1F
100
AcDbEntity
  8
0
  6
HIDDEN
 62
     7
370
     0
100
AcDbLine
 10
227.2824727328
 20
102.1028620845
 30
0.0
 11
227.2824727328
 21
132.1028614139
 31
0.0
  0
LINE
  5
133
330
1F
100
AcDbEntity
  8
0
  6
HIDDEN
 62
     7
370
     0
100
AcDbLine
 10
202.0324718536
 20
102.4028615749
 30
0.0
 11
202.0324718536
 21
131.8028619235
 31
0.0
  0
LINE
  5
134
330
1F
100
AcDbEntity
  8
0
  6
HIDDEN
 62
     7
370
     0
100
AcDbLine
 10
204.5324713321
 20
102.1028620845
 30
0.0
 11
204.5324713321
 21
132.1028614139
 31
0.0
  0
LINE
  5
135
330
1F
100
AcDbEntity
  8
0
  6
HIDDEN
 62
     7
370
     0
100
AcDbLine
 10
177.3040439797
 20
81.8028602472
 30
0.0
 11
177.1324710784
 21
81.8028602472
 31
0.0
  0
ELLIPSE
  5
136
330
1F
100
AcDbEntity
  8
0
  6
HIDDEN
 62
     7
370
     0
100
AcDbEllipse
 10
177.3040440345
 20
79.8028617492
 30
0.0
 11
0.0
 21
2.0
 31
0.0
210
0.0
220
0.0
230
1.0
 40
0.4142135624
 41
4.712388980384695
 42
6.283185307179586
  0
LINE
  5
137
330
1F
100
AcDbEntity
  8
0
  6
HIDDEN
 62
     7
370
     0
100
AcDbLine
 10
177.1324710784
 20
154.6028632393
 30
0.0
 11
177.3040439797
 21
154.6028632393
 31
0.0
  0
ELLIPSE
  5
138
330
1F
100
AcDbEntity
  8
0
  6
HIDDEN
 62
     7
370
     0
100
AcDbEllipse
 10
177.3040440345
 20
156.6028617492
 30
0.0
 11
0.0
 21
2.0
 31
0.0
210
0.0
220
0.0
230
1.0
 40
0.4142135624
 41
3.141592653589793
 42
4.712388980384695
  0
LINE
  5
139
330
1F
100
AcDbEntity
  8
0
  6
HIDDEN
 62
     7
370
     0
100
AcDbLine
 10
178.1324710095
 20
70.9169473222
 30
0.0
 11
177.3481311606
 21
70.4694058469
 31
0.0
  0
LINE
  5
13A
330
1F
100
AcDbEntity
  8
0
  6
HIDDEN
 62
     7
370
     0
100
AcDbLine
 10
177.4223401075
 20
163.8130251041
 30
0.0
 11
178.1324710095
 21
163.1028953662
 31
0.0
  0
LINE
  5
13B
330
1F
100
AcDbEntity
  8
0
  6
HIDDEN
 62
     7
370
     0
100
AcDbLine
 10
182.2524236844
 20
70.9169473222
 30
0.0
 11
178.1324710095
 21
70.9169473222
 31
0.0
  0
LINE
  5
13C
330
1F
100
AcDbEntity
  8
0
  6
HIDDEN
 62
     7
370
     0
100
AcDbLine
 10
192.9824713947
 20
70.9169473222
 30
0.0
 11
187.8125191064
 21
70.9169473222
 31
0.0
  0
LINE
  5
13D
330
1F
100
AcDbEntity
  8
0
  6
HIDDEN
 62
     7
370
     0
100
AcDbLine
 10
178.1324710095
 20
70.9169473222
 30
0.0
 11
178.1324710095
 21
79.8028599193
 31
0.0
  0
LINE
  5
13E
330
1F
100
AcDbEntity
  8
0
  6
HIDDEN
 62
     7
370
     0
100
AcDbLine
 10
178.1324710095
 20
163.1028953662
 30
0.0
 11
182.3558004902
 21
163.1028953662
 31
0.0
  0
LINE
  5
13F
330
1F
100
AcDbEntity
  8
0
  6
HIDDEN
 62
     7
370
     0
100
AcDbLine
 10
187.7091423006
 20
163.1028953662
 30
0.0
 11
192.9824713947
 21
163.1028953662
 31
0.0
  0
LINE
  5
140
330
1F
100
AcDbEntity
  8
0
  6
HIDDEN
 62
     7
370
     0
100
AcDbLine
 10
178.1324710095
 20
163.1028953662
 30
0.0
 11
178.1324710095
 21
156.6028635671
 31
0.0
  0
LINE
  5
141
330
1F
100
AcDbEntity
  8
0
  6
HIDDEN
 62
     7
370
     0
100
AcDbLine
 10
177.3040439797
 20
154.6028632393
 30
0.0
 11
192.9824713947
 21
154.6028632393
 31
0.0
  0
LINE
  5
142
330
1F
100
AcDbEntity
  8
0
  6
HIDDEN
 62
     7
370
     0
100
AcDbLine
 10
192.9824713947
 20
81.8028602472
 30
0.0
 11
177.3040439797
 21
81.8028602472
 31
0.0
  0
LINE
  5
143
330
1F
100
AcDbEntity
  8
0
  6
HIDDEN
 62
     7
370
     0
100
AcDbLine
 10
82.3324703009
 20
104.6028615629
 30
0.0
 11
82.3324703009
 21
129.6028619355
 31
0.0
  0
LINE
  5
144
330
1F
100
AcDbEntity
  8
0
  6
HIDDEN
 62
     7
370
     0
100
AcDbLine
 10
85.6170736582
 20
106.6028618908
 30
0.0
 11
85.6170736582
 21
127.6028616076
 31
0.0
  0
LINE
  5
145
330
1F
100
AcDbEntity
  8
0
  6
HIDDEN
 62
     7
370
     0
100
AcDbLine
 10
134.3324713738
 20
106.6028618908
 30
0.0
 11
134.3324713738
 21
127.6028616076
 31
0.0
  0
LINE
  5
146
330
1F
100
AcDbEntity
  8
0
  6
HIDDEN
 62
     7
370
     0
100
AcDbLine
 10
137.5771172674
 20
112.0028615652
 30
0.0
 11
137.5771172674
 21
122.2028619332
 31
0.0
  0
LINE
  5
147
330
1F
100
AcDbEntity
  8
0
  6
HIDDEN
 62
     7
370
     0
100
AcDbLine
 10
228.4824706943
 20
138.3778623959
 30
0.0
 11
228.4824706943
 21
136.3028626612
 31
0.0
  0
LINE
  5
148
330
1F
100
AcDbEntity
  8
0
  6
HIDDEN
 62
     7
370
     0
100
AcDbLine
 10
228.4824706943
 20
97.9028608373
 30
0.0
 11
228.4824706943
 21
95.8278611025
 31
0.0
  0
SPLINE
  5
149
330
1F
100
AcDbEntity
  8
0
  6
HIDDEN
 62
     7
370
     0
100
AcDbSpline
210
0.0
220
0.0
230
1.0
 70
    11
 71
     3
 72
    64
 73
    60
 74
     0
 42
0.000000001
 43
0.00000001
 40
0.0
 40
0.0
 40
0.0
 40
0.0
 40
0.0312499999999998
 40
0.0312499999999998
 40
0.0624999999999996
 40
0.0624999999999996
 40
0.0937499999999994
 40
0.0937499999999994
 40
0.1249999999999992
 40
0.1249999999999992
 40
0.1874999999999988
 40
0.1874999999999988
 40
0.2187499999999986
 40
0.2187499999999986
 40
0.2499999999999984
 40
0.2499999999999984
 40
0.2812499999999982
 40
0.2812499999999982
 40
0.3124999999999981
 40
0.3124999999999981
 40
0.3437499999999978
 40
0.3437499999999978
 40
0.3749999999999976
 40
0.3749999999999976
 40
0.4062499999999974
 40
0.4062499999999974
 40
0.4374999999999972
 40
0.4374999999999972
 40
0.4999999999999972
 40
0.4999999999999972
 40
0.5312499999999974
 40
0.5312499999999974
 40
0.5624999999999977
 40
0.5624999999999977
 40
0.593749999999998
 40
0.593749999999998
 40
0.6249999999999982
 40
0.6249999999999982
 40
0.6562499999999983
 40
0.6562499999999983
 40
0.6874999999999984
 40
0.6874999999999984
 40
0.7187499999999986
 40
0.7187499999999986
 40
0.7499999999999987
 40
0.7499999999999987
 40
0.812499999999999
 40
0.812499999999999
 40
0.8437499999999992
 40
0.8437499999999992
 40
0.8749999999999993
 40
0.8749999999999993
 40
0.9062499999999994
 40
0.9062499999999994
 40
0.9374999999999997
 40
0.9374999999999997
 40
0.9687499999999998
 40
0.9687499999999998
 40
1.0
 40
1.0
 40
1.0
 40
1.0
 10
188.1324711592179
 20
116.7190732285543
 30
0.0
 10
188.2728822134914
 20
116.7190732285543
 30
0.0
 10
188.4105927153765
 20
116.7343472160103
 30
0.0
 10
188.6809581865982
 20
116.793537703409
 30
0.0
 10
188.8150166789475
 20
116.8382438032977
 30
0.0
 10
189.0683651009962
 20
116.9525233569407
 30
0.0
 10
189.1882756746436
 20
117.0218554783213
 30
0.0
 10
189.4152386997372
 20
117.1837593236213
 30
0.0
 10
189.5212846947856
 20
117.2759497872103
 30
0.0
 10
189.8084278797472
 20
117.5755145314921
 30
0.0
 10
189.9643486716625
 20
117.8126838583366
 30
0.0
 10
190.1225679104921
 20
118.1889630978242
 30
0.0
 10
190.1638186785983
 20
118.3204777635909
 30
0.0
 10
190.2185365488668
 20
118.5834974940111
 30
0.0
 10
190.2323136109932
 20
118.7145114525811
 30
0.0
 10
190.2326260465168
 20
118.9753744863334
 30
0.0
 10
190.2186766149592
 20
119.105658311568
 30
0.0
 10
190.1644070503434
 20
119.3526457071486
 30
0.0
 10
190.1241366329743
 20
119.4712193227752
 30
0.0
 10
190.0173919598116
 20
119.6977623028454
 30
0.0
 10
189.9525417632358
 20
119.8024431450958
 30
0.0
 10
189.8009365069619
 20
119.9967167904494
 30
0.0
 10
189.7131470255797
 20
120.0869834343518
 30
0.0
 10
189.5211146178113
 20
120.2473845694314
 30
0.0
 10
189.4166765570252
 20
120.3181858489512
 30
0.0
 10
189.1901851529571
 20
120.4422233750209
 30
0.0
 10
189.0682052205444
 20
120.4950419345595
 30
0.0
 10
188.6904438481365
 20
120.6212277771738
 30
0.0
 10
188.41140774551
 20
120.6655229525071
 30
0.0
 10
187.9967489231289
 20
120.6659101286417
 30
0.0
 10
187.8565277290502
 20
120.6551402644642
 30
0.0
 10
187.5842795417843
 20
120.6121689673474
 30
0.0
 10
187.4528202189921
 20
120.5803831709917
 30
0.0
 10
187.1987218210476
 20
120.495899774203
 30
0.0
 10
187.0767090915255
 20
120.4431045121318
 30
0.0
 10
186.850926463755
 20
120.3198270074329
 30
0.0
 10
186.7452728901259
 20
120.2485087520615
 30
0.0
 10
186.5517734115322
 20
120.0870475067193
 30
0.0
 10
186.4656788870507
 20
119.9985415023745
 30
0.0
 10
186.3140293097141
 20
119.8048426602931
 30
0.0
 10
186.2479236150602
 20
119.6982450348648
 30
0.0
 10
186.1419248557178
 20
119.4738996196539
 30
0.0
 10
186.1015972753467
 20
119.3562379583961
 30
0.0
 10
186.0467386271933
 20
119.1090173167897
 30
0.0
 10
186.0325693703589
 20
118.9786769842775
 30
0.0
 10
186.0322763043606
 20
118.5883152887651
 30
0.0
 10
186.088519063197
 20
118.317905863712
 30
0.0
 10
186.2468629852799
 20
117.9400415616782
 30
0.0
 10
186.3127931672228
 20
117.8164285126498
 30
0.0
 10
186.464917504086
 20
117.5851886340247
 30
0.0
 10
186.5510595072714
 20
117.4769446371625
 30
0.0
 10
186.743812859251
 20
117.2757230678461
 30
0.0
 10
186.8500987975486
 20
117.1835206862376
 30
0.0
 10
187.0753674693503
 20
117.0227391533016
 30
0.0
 10
187.1952690721764
 20
116.9531169736427
 30
0.0
 10
187.4511472415019
 20
116.8376892254316
 30
0.0
 10
187.5826841694704
 20
116.7939390456137
 30
0.0
 10
187.8525075080802
 20
116.7346351086719
 30
0.0
 10
187.9920601049444
 20
116.7190732285543
 30
0.0
 10
188.1324711592179
 20
116.7190732285543
 30
0.0
  0
SPLINE
  5
14A
330
1F
100
AcDbEntity
  8
0
  6
HIDDEN
 62
     7
370
     0
100
AcDbSpline
210
0.0
220
0.0
230
1.0
 70
     8
 71
     3
 72
     8
 73
     4
 74
     0
 42
0.000000001
 43
0.00000001
 40
0.0
 40
0.0
 40
0.0
 40
0.0
 40
1.0
 40
1.0
 40
1.0
 40
1.0
 10
187.3092909830584
 20
126.871383784682
 30
0.0
 10
187.5207183730597
 20
126.8788932944645
 30
0.0
 10
187.7231869195924
 20
126.9330168240992
 30
0.0
 10
187.9093975187297
 20
127.0177451113243
 30
0.0
  0
ELLIPSE
  5
14B
330
1F
100
AcDbEntity
  8
0
  6
HIDDEN
 62
     7
370
     0
100
AcDbEllipse
 10
188.1324711592
 20
128.8333718605
 30
0.0
 11
-1.760776919379055
 21
2.232245799914466
 31
0.0
210
0.0
220
0.0
230
1.0
 40
0.5126701559
 41
5.39515093316073
 42
8.323890913123098
  0
SPLINE
  5
14C
330
1F
100
AcDbEntity
  8
0
  6
HIDDEN
 62
     7
370
     0
100
AcDbSpline
210
0.0
220
0.0
230
1.0
 70
     8
 71
     3
 72
     8
 73
     4
 74
     0
 42
0.000000001
 43
0.00000001
 40
0.0
 40
0.0
 40
0.0
 40
0.0
 40
1.0
 40
1.0
 40
1.0
 40
1.0
 10
187.9093975187306
 20
130.942123879259
 30
0.0
 10
187.7228731694458
 20
130.8198034633583
 30
0.0
 10
187.5203182709196
 20
130.6787183026932
 30
0.0
 10
187.3092909830578
 20
130.5022346669079
 30
0.0
  0
ELLIPSE
  5
14D
330
1F
100
AcDbEntity
  8
0
  6
HIDDEN
 62
     7
370
     0
100
AcDbEllipse
 10
188.1324711592
 20
128.8333718605
 30
0.0
 11
1.760776919379055
 21
1.388886188042932
 31
0.0
210
0.0
220
0.0
230
1.0
 40
0.8239737799
 41
1.397255033323928
 42
3.733259041931023
  0
LWPOLYLINE
  5
14E
330
1F
100
AcDbEntity
  8
0
  6
HIDDEN
 62
     7
370
     0
100
AcDbPolyline
 90
       20
 70
   128
 43
0.0
 10
188.1324712516
 20
128.5877985602
 10
188.8143400059
 20
128.6947209111
 10
189.4223176272
 20
129.0038995167
 10
189.8905214251
 20
129.481830979
 10
190.1682120146
 20
130.076723518
 10
190.2252983631
 20
130.7241119167
 10
190.0555946262
 20
131.3538405767
 10
189.6774906994
 20
131.8976696303
 10
189.1319610507
 20
132.2966668477
 10
188.478119518
 20
132.5075937158
 10
187.7868229852
 20
132.5075937158
 10
187.1329814525
 20
132.2966668477
 10
186.5874508725
 20
131.8976696303
 10
186.2093469457
 20
131.3538405767
 10
186.0396441401
 20
130.7241119167
 10
186.0967304887
 20
130.076723518
 10
186.3744220094
 20
129.481830979
 10
186.842624876
 20
129.0038995167
 10
187.4506024973
 20
128.6947209111
 10
188.1324712516
 20
128.5877985602
  0
LINE
  5
14F
330
1F
100
AcDbEntity
  8
0
  6
HIDDEN
 62
     7
370
     0
100
AcDbLine
 10
183.1224708216
 20
152.4959061017
 30
0.0
 11
183.1224708216
 21
146.9528622648
 31
0.0
  0
LINE
  5
150
330
1F
100
AcDbEntity
  8
0
  6
HIDDEN
 62
     7
370
     0
100
AcDbLine
 10
186.9424710379
 20
152.4959061017
 30
0.0
 11
186.9424710379
 21
146.9528622648
 31
0.0
  0
SPLINE
  5
151
330
1F
100
AcDbEntity
  8
0
  6
HIDDEN
 62
     7
370
     0
100
AcDbSpline
210
0.0
220
0.0
230
1.0
 70
     8
 71
     3
 72
    14
 73
    10
 74
     0
 42
0.000000001
 43
0.00000001
 40
0.0
 40
0.0
 40
0.0
 40
0.0
 40
0.25
 40
0.25
 40
0.5
 40
0.5
 40
0.75
 40
0.75
 40
1.0
 40
1.0
 40
1.0
 40
1.0
 10
186.1424711592177
 20
134.0781513061372
 30
0.0
 10
186.2168967113523
 20
134.1690087609188
 30
0.0
 10
186.2987749709658
 20
134.2582193441245
 30
0.0
 10
186.4717611171414
 20
134.4336436629165
 30
0.0
 10
186.5624329370024
 20
134.5191786185432
 30
0.0
 10
186.7297964863467
 20
134.6800302314817
 30
0.0
 10
186.8062473113132
 20
134.7557623203782
 30
0.0
 10
186.9125403961517
 20
134.8873533439536
 30
0.0
 10
186.9424711592179
 20
134.9443535188599
 30
0.0
 10
186.9424711592179
 20
134.986550791812
 30
0.0
  0
SPLINE
  5
152
330
1F
100
AcDbEntity
  8
0
  6
HIDDEN
 62
     7
370
     0
100
AcDbSpline
210
0.0
220
0.0
230
1.0
 70
     8
 71
     3
 72
    14
 73
    10
 74
     0
 42
0.000000001
 43
0.00000001
 40
0.0
 40
0.0
 40
0.0
 40
0.0
 40
0.25
 40
0.25
 40
0.5
 40
0.5
 40
0.75
 40
0.75
 40
1.0
 40
1.0
 40
1.0
 40
1.0
 10
186.9424711592179
 20
130.8545095931804
 30
0.0
 10
186.9424711592179
 20
130.8120091755259
 30
0.0
 10
186.9127577004012
 20
130.7847372690433
 30
0.0
 10
186.806676333509
 20
130.7711844950761
 30
0.0
 10
186.7303094043445
 20
130.785630052217
 30
0.0
 10
186.561549859816
 20
130.8580062162369
 30
0.0
 10
186.4707530473441
 20
130.9150791513544
 30
0.0
 10
186.2991881071368
 20
131.0562370848712
 30
0.0
 10
186.2171268668422
 20
131.1408142999548
 30
0.0
 10
186.1424711592177
 20
131.2341874630841
 30
0.0
  0
LINE
  5
153
330
1F
100
AcDbEntity
  8
0
  6
HIDDEN
 62
     7
370
     0
100
AcDbLine
 10
186.9424710379
 20
103.305599997
 30
0.0
 11
186.9424710379
 21
99.1735592207
 31
0.0
  0
LINE
  5
154
330
1F
100
AcDbEntity
  8
0
  6
HIDDEN
 62
     7
370
     0
100
AcDbLine
 10
188.2656326846
 20
102.8057144677
 30
0.0
 11
188.2656326846
 21
98.1139208844
 31
0.0
  0
LINE
  5
155
330
1F
100
AcDbEntity
  8
0
  6
HIDDEN
 62
     7
370
     0
100
AcDbLine
 10
188.2656326846
 20
155.6139405539
 30
0.0
 11
188.2656326846
 21
146.9528622648
 31
0.0
  0
LINE
  5
156
330
1F
100
AcDbEntity
  8
0
  6
HIDDEN
 62
     7
370
     0
100
AcDbLine
 10
181.7993101062
 20
155.6139405539
 30
0.0
 11
181.7993101062
 21
146.9528622648
 31
0.0
  0
ARC
  5
157
330
1F
100
AcDbEntity
  8
0
  6
HIDDEN
 62
     7
370
     0
100
AcDbCircle
 10
188.3785239211
 20
129.6728494246
 30
0.0
 40
1.353195702694764
100
AcDbArc
 50
110.2844232439
 51
142.1998959299
  0
ARC
  5
158
330
1F
100
AcDbEntity
  8
0
  6
HIDDEN
 62
     7
370
     0
100
AcDbCircle
 10
187.4358716906
 20
127.6558319794
 30
0.0
 40
0.7945949542258047
100
AcDbArc
 50
260.8336111241
 51
306.5791809456
  0
LWPOLYLINE
  5
159
330
1F
100
AcDbEntity
  8
0
  6
HIDDEN
 62
     7
370
     0
100
AcDbPolyline
 90
       20
 70
   128
 43
0.0
 10
178.1672340215
 20
129.8158134988
 10
178.3415226595
 20
129.3174581325
 10
178.6220104763
 20
128.995305272
 10
178.9783023627
 20
128.8842664754
 10
179.3717889444
 20
128.9963716364
 10
179.7598291517
 20
129.3194753772
 10
180.1003733048
 20
129.8185618317
 10
180.3565182121
 20
130.439549098
 10
180.5005058044
 20
131.1151435321
 10
180.5167336346
 20
131.7721329352
 10
180.4034429
 20
132.339322353
 10
180.1729107605
 20
132.7552482208
 10
179.8501180814
 20
132.9748391828
 10
179.4700453387
 20
132.9742990157
 10
179.0738788762
 20
132.7536854616
 10
178.7045494051
 20
132.3369065022
 10
178.4020795816
 20
131.7691256946
 10
178.1992468381
 20
131.1118708646
 10
178.1180313186
 20
130.4363658374
 10
178.1672340215
 20
129.8158134988
  0
LWPOLYLINE
  5
15A
330
1F
100
AcDbEntity
  8
0
  6
HIDDEN
 62
     7
370
     0
100
AcDbPolyline
 90
       24
 70
   128
 43
0.0
 10
177.4042021347
 20
129.3967975026
 10
177.5979952284
 20
128.7924529707
 10
177.899714406
 20
128.3524049169
 10
178.2869825469
 20
128.109289678
 10
178.7310771973
 20
128.0811376592
 10
179.1990626001
 20
128.270037817
 10
179.6562297599
 20
128.6619784033
 10
180.0686734126
 20
129.2278928405
 10
180.4058038027
 20
129.9258082828
 10
180.642617713
 20
130.7039646154
 10
180.7615517968
 20
131.5046496412
 10
180.7537854978
 20
132.2684794387
 10
180.6198943735
 20
132.9388044497
 10
180.3698091165
 20
133.4659106752
 10
180.0220765502
 20
133.8107030561
 10
179.602487325
 20
133.9476111999
 10
179.1421597221
 20
133.8664818278
 10
178.6752341644
 20
133.5733312836
 10
178.2363409505
 20
133.0899022242
 10
177.8580307358
 20
132.4520459121
 10
177.5683603113
 20
131.7070707401
 10
177.3888138918
 20
130.9102283513
 10
177.3327075274
 20
130.120616751
 10
177.4042021347
 20
129.3967975026
  0
LWPOLYLINE
  5
15B
330
1F
100
AcDbEntity
  8
0
  6
HIDDEN
 62
     7
370
     0
100
AcDbPolyline
 90
       22
 70
   128
 43
0.0
 10
188.1324712516
 20
128.2617155185
 10
188.8693588184
 20
128.3660851142
 10
189.5407716141
 20
128.6699207222
 10
190.0870491148
 20
129.1462251639
 10
190.4596563758
 20
129.7526763475
 10
190.6254802228
 20
130.43538888
 10
190.5697908581
 20
131.1337001344
 10
190.2975354673
 20
131.785563538
 10
189.8329023601
 20
132.3330554834
 10
189.2171807916
 20
132.727532061
 10
188.5050766499
 20
132.9339392206
 10
187.7598658533
 20
132.9339392206
 10
187.0477617116
 20
132.727532061
 10
186.4320392118
 20
132.3330554834
 10
185.9674079673
 20
131.785563538
 10
185.6951516451
 20
131.1337001344
 10
185.6394613491
 20
130.43538888
 10
185.8052870588
 20
129.7526763475
 10
186.1778924571
 20
129.1462251639
 10
186.7241708891
 20
128.6699207222
 10
187.3955836849
 20
128.3660851142
 10
188.1324712516
 20
128.2617155185
  0
SPLINE
  5
15C
330
1F
100
AcDbEntity
  8
0
  6
HIDDEN
 62
     7
370
     0
100
AcDbSpline
210
0.0
220
0.0
230
1.0
 70
     8
 71
     3
 72
    34
 73
    30
 74
     0
 42
0.000000001
 43
0.00000001
 40
0.0
 40
0.0
 40
0.0
 40
0.0
 40
0.062499999999999
 40
0.062499999999999
 40
0.124999999999998
 40
0.124999999999998
 40
0.1874999999999971
 40
0.1874999999999971
 40
0.2499999999999966
 40
0.2499999999999966
 40
0.3124999999999962
 40
0.3124999999999962
 40
0.3749999999999957
 40
0.3749999999999957
 40
0.4999999999999958
 40
0.4999999999999958
 40
0.6249999999999958
 40
0.6249999999999958
 40
0.6874999999999964
 40
0.6874999999999964
 40
0.7499999999999971
 40
0.7499999999999971
 40
0.8124999999999979
 40
0.8124999999999979
 40
0.8749999999999986
 40
0.8749999999999986
 40
0.9374999999999992
 40
0.9374999999999992
 40
1.0
 40
1.0
 40
1.0
 40
1.0
 10
188.2656326666798
 20
136.0918021372045
 30
0.0
 10
188.4250244944677
 20
136.0839620412818
 30
0.0
 10
188.5810269779113
 20
136.0623033931913
 30
0.0
 10
188.8865364939885
 20
135.9924551656985
 30
0.0
 10
189.0374308290007
 20
135.9436294633703
 30
0.0
 10
189.3253301736915
 20
135.8207055099629
 30
0.0
 10
189.4612765766512
 20
135.7473980018286
 30
0.0
 10
189.7174591922433
 20
135.5773873780573
 30
0.0
 10
189.8386414800024
 20
135.4795135858559
 30
0.0
 10
190.0557875518751
 20
135.2669294104239
 30
0.0
 10
190.1527494248355
 20
135.1518834718943
 30
0.0
 10
190.323311860661
 20
134.9040223517742
 30
0.0
 10
190.3965519138729
 20
134.7709888547085
 30
0.0
 10
190.5714323706218
 20
134.3614808385784
 30
0.0
 10
190.6324703315977
 20
134.0635201888034
 30
0.0
 10
190.6324719868208
 20
133.4720786329289
 30
0.0
 10
190.5714373772345
 20
133.1719050829523
 30
0.0
 10
190.3965476098326
 20
132.7566738026846
 30
0.0
 10
190.3233039044082
 20
132.6213186844377
 30
0.0
 10
190.1527431886716
 20
132.3684193530511
 30
0.0
 10
190.055779473078
 20
132.2506540754434
 30
0.0
 10
189.8386191444909
 20
132.0325237800747
 30
0.0
 10
189.7174378858041
 20
131.9318204549277
 30
0.0
 10
189.4612676588654
 20
131.7565767620945
 30
0.0
 10
189.3253243092026
 20
131.6808317930039
 30
0.0
 10
189.0374216060195
 20
131.5536634177016
 30
0.0
 10
188.8865314101027
 20
131.5030621453742
 30
0.0
 10
188.5810259063971
 20
131.4306330456263
 30
0.0
 10
188.4250245081336
 20
131.4081472742293
 30
0.0
 10
188.2656326666798
 20
131.4000088143345
 30
0.0
  0
SPLINE
  5
15D
330
1F
100
AcDbEntity
  8
0
  6
HIDDEN
 62
     7
370
     0
100
AcDbSpline
210
0.0
220
0.0
230
1.0
 70
     8
 71
     3
 72
    10
 73
     6
 74
     0
 42
0.000000001
 43
0.00000001
 40
0.0
 40
0.0
 40
0.0
 40
0.0
 40
0.5
 40
0.5
 40
1.0
 40
1.0
 40
1.0
 40
1.0
 10
188.2656326666798
 20
131.4000088143345
 30
0.0
 10
188.0429056398064
 20
131.2565203140407
 30
0.0
 10
187.8212197525813
 20
131.1417995683078
 30
0.0
 10
187.3799989147293
 20
130.97203913895
 30
0.0
 10
187.1604402673305
 20
130.9166191445626
 30
0.0
 10
186.9424711592182
 20
130.900123815193
 30
0.0
  0
SPLINE
  5
15E
330
1F
100
AcDbEntity
  8
0
  6
HIDDEN
 62
     7
370
     0
100
AcDbSpline
210
0.0
220
0.0
230
1.0
 70
     8
 71
     3
 72
    10
 73
     6
 74
     0
 42
0.000000001
 43
0.00000001
 40
0.0
 40
0.0
 40
0.0
 40
0.0
 40
0.5
 40
0.5
 40
1.0
 40
1.0
 40
1.0
 40
1.0
 10
186.9424711592182
 20
135.0321650138245
 30
0.0
 10
187.159361991739
 20
135.269203953273
 30
0.0
 10
187.3785146283979
 20
135.4713741882665
 30
0.0
 10
187.8199991286667
 20
135.8221262597852
 30
0.0
 10
188.0432015939401
 20
135.970802352182
 30
0.0
 10
188.2656326666798
 20
136.0918021372045
 30
0.0
  0
SPLINE
  5
15F
330
1F
100
AcDbEntity
  8
0
  6
HIDDEN
 62
     7
370
     0
100
AcDbSpline
210
0.0
220
0.0
230
1.0
 70
     8
 71
     3
 72
    16
 73
    12
 74
     0
 42
0.000000001
 43
0.00000001
 40
0.0
 40
0.0
 40
0.0
 40
0.0
 40
0.2500000000000014
 40
0.2500000000000014
 40
0.5000000000000028
 40
0.5000000000000028
 40
0.7500000000000042
 40
0.7500000000000042
 40
0.8750000000000021
 40
0.8750000000000021
 40
1.0
 40
1.0
 40
1.0
 40
1.0
 10
186.1424711592179
 20
131.2341874630838
 30
0.0
 10
185.9770570527378
 20
131.4410736991092
 30
0.0
 10
185.8508597217621
 20
131.6669423969181
 30
0.0
 10
185.6764534234313
 20
132.1558116425309
 30
0.0
 10
185.6326233843344
 20
132.4075786958754
 30
0.0
 10
185.6323197113645
 20
132.9193580204577
 30
0.0
 10
185.6761765714247
 20
133.1704127295404
 30
0.0
 10
185.8060983306919
 20
133.5312612976824
 30
0.0
 10
185.8602131420998
 20
133.6485340660309
 30
0.0
 10
185.9868901322432
 20
133.8710230173697
 30
0.0
 10
186.0597638526041
 20
133.9771836256132
 30
0.0
 10
186.1424711592179
 20
134.0781513061374
 30
0.0
  0
ARC
  5
160
330
1F
100
AcDbEntity
  8
0
  6
HIDDEN
 62
     7
370
     0
100
AcDbCircle
 10
188.119293606
 20
101.7969550043
 30
0.0
 40
2.480055494466613
100
AcDbArc
 50
344.6462374092
 51
183.8265751243
  0
ARC
  5
161
330
1F
100
AcDbEntity
  8
0
  6
HIDDEN
 62
     7
370
     0
100
AcDbCircle
 10
188.1136344237
 20
101.7255359137
 30
0.0
 40
2.357136703329173
100
AcDbArc
 50
351.1803527581
 51
159.7778728132
  0
ARC
  5
162
330
1F
100
AcDbEntity
  8
0
  6
HIDDEN
 62
     7
370
     0
100
AcDbCircle
 10
188.1312305447
 20
101.7142392749
 30
0.0
 40
2.00384039049142
100
AcDbArc
 50
2.9186759847
 51
126.9003429779
  0
LWPOLYLINE
  5
163
330
1F
100
AcDbEntity
  8
0
  6
HIDDEN
 62
     7
370
     0
100
AcDbPolyline
 90
       22
 70
   128
 43
0.0
 10
186.5304148154
 20
100.2487860343
 10
186.0358890475
 20
100.7726456693
 10
185.7276538716
 20
101.4102048894
 10
185.6330966906
 20
102.1048150679
 10
185.7606198968
 20
102.7947546637
 10
186.0988930197
 20
103.4187221622
 10
186.6178585545
 20
103.9212731367
 10
187.2714029954
 20
104.257754395
 10
188.0014583797
 20
104.3982686197
 10
188.7431543649
 20
104.3303305006
 10
189.4305877717
 20
104.0599759391
 10
190.0026787401
 20
103.6112274697
 10
190.4085938216
 20
103.0239578059
 10
190.6122647555
 20
102.3503498828
 10
190.5955940814
 20
101.650256077
 10
190.3600663276
 20
100.9858812859
 10
189.9266064496
 20
100.4162601849
 10
189.3337283612
 20
99.9920054993
 10
188.6341141866
 20
99.7508134415
 10
187.8899269135
 20
99.7141156068
 10
187.1672904448
 20
99.8851734867
 10
186.5304148154
 20
100.2487860343
  0
LWPOLYLINE
  5
164
330
1F
100
AcDbEntity
  8
0
  6
HIDDEN
 62
     7
370
     0
100
AcDbPolyline
 90
       20
 70
   128
 43
0.0
 10
186.8508261026
 20
101.7912639028
 10
186.4217331962
 20
102.2604902929
 10
186.1780247049
 20
102.8352169043
 10
186.1461110742
 20
103.453162471
 10
186.3294493736
 20
104.0473639688
 10
186.7081744925
 20
104.5534297546
 10
187.2412439765
 20
104.9165207615
 10
187.8708906801
 20
105.0972886106
 10
188.5288849802
 20
105.0761457255
 10
189.1439210953
 20
104.8553831598
 10
189.6493517191
 20
104.4589237964
 10
189.9904039086
 20
103.9297295457
 10
190.1301209213
 20
103.3251475265
 10
190.0533613147
 20
102.7106934881
 10
189.768443662
 20
102.1529523378
 10
189.3062422381
 20
101.7123659795
 10
188.7168454335
 20
101.4366768023
 10
188.0641224192
 20
101.3557597717
 10
187.4188062133
 20
101.4783851525
 10
186.8508261026
 20
101.7912639028
  0
LWPOLYLINE
  5
165
330
1F
100
AcDbEntity
  8
0
  6
HIDDEN
 62
     7
370
     0
100
AcDbPolyline
 90
       22
 70
   128
 43
0.0
 10
186.5304148154
 20
100.4847794494
 10
186.0358890475
 20
101.0086390844
 10
185.7276538716
 20
101.6461992359
 10
185.6330966906
 20
102.340808483
 10
185.7606198968
 20
103.0307490101
 10
186.0988930197
 20
103.6547155773
 10
186.6178585545
 20
104.1572665518
 10
187.2714029954
 20
104.4937487414
 10
188.0014583797
 20
104.6342629662
 10
188.7431543649
 20
104.5663239157
 10
189.4305877717
 20
104.2959693542
 10
190.0026787401
 20
103.8472208848
 10
190.4085938216
 20
103.2599521523
 10
190.6122647555
 20
102.5863442293
 10
190.5955940814
 20
101.8862494921
 10
190.3600663276
 20
101.2218747011
 10
189.9266064496
 20
100.6522536
 10
189.3337283612
 20
100.2279989144
 10
188.6341141866
 20
99.9868068567
 10
187.8899269135
 20
99.9501090219
 10
187.1672904448
 20
100.1211669019
 10
186.5304148154
 20
100.4847794494
  0
LWPOLYLINE
  5
166
330
1F
100
AcDbEntity
  8
0
  6
HIDDEN
 62
     7
370
     0
100
AcDbPolyline
 90
       21
 70
   128
 43
0.0
 10
186.6585797028
 20
100.5675833395
 10
186.1850906492
 20
101.0767820945
 10
185.9022237689
 20
101.6985488778
 10
185.837670076
 20
102.3720236218
 10
185.9977476628
 20
103.0312817266
 10
186.3667860956
 20
103.6117899885
 10
186.9086621658
 20
104.056724692
 10
187.5703333275
 20
104.3225316053
 10
188.2870307521
 20
104.3831923699
 10
188.9885988415
 20
104.2327698043
 10
189.6063618691
 20
103.8859862557
 10
190.079851854
 20
103.3767893633
 10
190.3627187343
 20
102.7550216487
 10
190.4272724272
 20
102.0815469047
 10
190.2671948404
 20
101.4222878685
 10
189.8981564076
 20
100.8417796066
 10
189.3562803374
 20
100.3968458345
 10
188.6946082444
 20
100.1310389211
 10
187.9779117511
 20
100.0703781566
 10
187.2763436617
 20
100.2208016535
 10
186.6585797028
 20
100.5675833395
  0
LWPOLYLINE
  5
167
330
1F
100
AcDbEntity
  8
0
  6
HIDDEN
 62
     7
370
     0
100
AcDbPolyline
 90
       22
 70
   128
 43
0.0
 10
186.5304148154
 20
100.7207728645
 10
186.0358890475
 20
101.2446324995
 10
185.7276538716
 20
101.882192651
 10
185.6330966906
 20
102.5768028295
 10
185.7606198968
 20
103.2667424252
 10
186.0988930197
 20
103.8907099238
 10
186.6178585545
 20
104.3932608983
 10
187.2714029954
 20
104.7297421565
 10
188.0014583797
 20
104.8702563813
 10
188.7431543649
 20
104.8023182621
 10
189.4305877717
 20
104.5319637006
 10
190.0026787401
 20
104.0832152313
 10
190.4085938216
 20
103.4959464988
 10
190.6122647555
 20
102.8223376444
 10
190.5955940814
 20
102.1222438386
 10
190.3600663276
 20
101.4578699788
 10
189.9266064496
 20
100.8882488778
 10
189.3337283612
 20
100.4639941922
 10
188.6341141866
 20
100.2228021344
 10
187.8899269135
 20
100.1861042997
 10
187.1672904448
 20
100.357160317
 10
186.5304148154
 20
100.7207728645
  0
LWPOLYLINE
  5
168
330
1F
100
AcDbEntity
  8
0
  6
HIDDEN
 62
     7
370
     0
100
AcDbPolyline
 90
       21
 70
   128
 43
0.0
 10
186.6585797028
 20
100.8035786172
 10
186.1850906492
 20
101.3127755096
 10
185.9022237689
 20
101.9345422929
 10
185.837670076
 20
102.6080179682
 10
185.9977476628
 20
103.2672760731
 10
186.3667860956
 20
103.847784335
 10
186.9086621658
 20
104.2927181071
 10
187.5703333275
 20
104.5585259518
 10
188.2870307521
 20
104.6191867163
 10
188.9885988415
 20
104.4687632194
 10
189.6063618691
 20
104.1219806021
 10
190.079851854
 20
103.6127827784
 10
190.3627187343
 20
102.9910159951
 10
190.4272724272
 20
102.3175403198
 10
190.2671948404
 20
101.658282215
 10
189.8981564076
 20
101.0777748844
 10
189.3562803374
 20
100.6328392496
 10
188.6946082444
 20
100.3670323363
 10
187.9779117511
 20
100.3063715717
 10
187.2763436617
 20
100.4567950687
 10
186.6585797028
 20
100.8035786172
  0
LWPOLYLINE
  5
169
330
1F
100
AcDbEntity
  8
0
  6
HIDDEN
 62
     7
370
     0
100
AcDbPolyline
 90
       22
 70
   128
 43
0.0
 10
186.5304148154
 20
100.9567681423
 10
186.0358890475
 20
101.4806268459
 10
185.7276538716
 20
102.1181869974
 10
185.6330966906
 20
102.8127962446
 10
185.7606198968
 20
103.5027367717
 10
186.0988930197
 20
104.1267033389
 10
186.6178585545
 20
104.6292543134
 10
187.2714029954
 20
104.965736503
 10
188.0014583797
 20
105.1062507277
 10
188.7431543649
 20
105.0383116772
 10
189.4305877717
 20
104.7679571157
 10
190.0026787401
 20
104.3192086464
 10
190.4085938216
 20
103.7319399139
 10
190.6122647555
 20
103.0583319908
 10
190.5955940814
 20
102.3582372537
 10
190.3600663276
 20
101.6938633939
 10
189.9266064496
 20
101.1242422929
 10
189.3337283612
 20
100.6999876073
 10
188.6341141866
 20
100.4587955495
 10
187.8899269135
 20
100.4220977148
 10
187.1672904448
 20
100.5931555947
 10
186.5304148154
 20
100.9567681423
  0
LWPOLYLINE
  5
16A
330
1F
100
AcDbEntity
  8
0
  6
HIDDEN
 62
     7
370
     0
100
AcDbPolyline
 90
       21
 70
   128
 43
0.0
 10
186.6585797028
 20
101.0395720324
 10
186.1850906492
 20
101.5487689247
 10
185.9022237689
 20
102.1705366394
 10
185.837670076
 20
102.8440113833
 10
185.9977476628
 20
103.5032694882
 10
186.3667860956
 20
104.0837777501
 10
186.9086621658
 20
104.5287124535
 10
187.5703333275
 20
104.7945193669
 10
188.2870307521
 20
104.8551801315
 10
188.9885988415
 20
104.7047575658
 10
189.6063618691
 20
104.3579740172
 10
190.079851854
 20
103.8487771249
 10
190.3627187343
 20
103.2270094102
 10
190.4272724272
 20
102.5535346663
 10
190.2671948404
 20
101.8942765614
 10
189.8981564076
 20
101.3137682995
 10
189.3562803374
 20
100.8688345274
 10
188.6946082444
 20
100.6030257514
 10
187.9779117511
 20
100.5423649868
 10
187.2763436617
 20
100.6927884838
 10
186.6585797028
 20
101.0395720324
  0
LWPOLYLINE
  5
16B
330
1F
100
AcDbEntity
  8
0
  6
HIDDEN
 62
     7
370
     0
100
AcDbPolyline
 90
       22
 70
   128
 43
0.0
 10
186.5304148154
 20
101.1927615574
 10
186.0358890475
 20
101.7166211924
 10
185.7276538716
 20
102.3541804126
 10
185.6330966906
 20
103.048790591
 10
185.7606198968
 20
103.7387311181
 10
186.0988930197
 20
104.3626976853
 10
186.6178585545
 20
104.8652486598
 10
187.2714029954
 20
105.2017299181
 10
188.0014583797
 20
105.3422441429
 10
188.7431543649
 20
105.2743060237
 10
189.4305877717
 20
105.0039514622
 10
190.0026787401
 20
104.5552029928
 10
190.4085938216
 20
103.9679342603
 10
190.6122647555
 20
103.2943254059
 10
190.5955940814
 20
102.5942316001
 10
190.3600663276
 20
101.9298568091
 10
189.9266064496
 20
101.360235708
 10
189.3337283612
 20
100.9359810224
 10
188.6341141866
 20
100.6947889647
 10
187.8899269135
 20
100.6580911299
 10
187.1672904448
 20
100.8291490099
 10
186.5304148154
 20
101.1927615574
  0
LWPOLYLINE
  5
16C
330
1F
100
AcDbEntity
  8
0
  6
HIDDEN
 62
     7
370
     0
100
AcDbPolyline
 90
       21
 70
   128
 43
0.0
 10
186.6585797028
 20
101.2755654475
 10
186.1850906492
 20
101.7847632712
 10
185.9022237689
 20
102.4065300545
 10
185.837670076
 20
103.0800057298
 10
185.9977476628
 20
103.7392638346
 10
186.3667860956
 20
104.3197720965
 10
186.9086621658
 20
104.7647068
 10
187.5703333275
 20
105.0305137133
 10
188.2870307521
 20
105.0911744779
 10
188.9885988415
 20
104.9407509809
 10
189.6063618691
 20
104.5939683637
 10
190.079851854
 20
104.08477054
 10
190.3627187343
 20
103.4630037567
 10
190.4272724272
 20
102.7895280814
 10
190.2671948404
 20
102.1302699765
 10
189.8981564076
 20
101.5497617146
 10
189.3562803374
 20
101.1048279425
 10
188.6946082444
 20
100.8390210291
 10
187.9779117511
 20
100.7783602646
 10
187.2763436617
 20
100.9287818989
 10
186.6585797028
 20
101.2755654475
  0
LWPOLYLINE
  5
16D
330
1F
100
AcDbEntity
  8
0
  6
HIDDEN
 62
     7
370
     0
100
AcDbPolyline
 90
       22
 70
   128
 43
0.0
 10
186.5304148154
 20
101.791296499
 10
186.0358890475
 20
102.315156134
 10
185.7276538716
 20
102.9527162856
 10
185.6330966906
 20
103.6473255327
 10
185.7606198968
 20
104.3372660598
 10
186.0988930197
 20
104.961232627
 10
186.6178585545
 20
105.4637836015
 10
187.2714029954
 20
105.8002657911
 10
188.0014583797
 20
105.9407800159
 10
188.7431543649
 20
105.8728409654
 10
189.4305877717
 20
105.6024864039
 10
190.0026787401
 20
105.1537379345
 10
190.4085938216
 20
104.566469202
 10
190.6122647555
 20
103.8928612789
 10
190.5955940814
 20
103.1927665418
 10
190.3600663276
 20
102.528392682
 10
189.9266064496
 20
101.958771581
 10
189.3337283612
 20
101.5345159641
 10
188.6341141866
 20
101.2933239063
 10
187.8899269135
 20
101.2566260716
 10
187.1672904448
 20
101.4276839515
 10
186.5304148154
 20
101.791296499
  0
LWPOLYLINE
  5
16E
330
1F
100
AcDbEntity
  8
0
  6
HIDDEN
 62
     7
370
     0
100
AcDbPolyline
 90
       20
 70
   128
 43
0.0
 10
186.8633961634
 20
102.2687492615
 10
186.4385109724
 20
102.7333730554
 10
186.1971931861
 20
103.3024633026
 10
186.1655924798
 20
103.9143487534
 10
186.3471333266
 20
104.5027220344
 10
186.7221433998
 20
105.0038248023
 10
187.2499844388
 20
105.3633544317
 10
187.8734564738
 20
105.5423499739
 10
188.5249967085
 20
105.5214138424
 10
189.1340015785
 20
105.3028166017
 10
189.6344747723
 20
104.91024551
 10
189.9721816511
 20
104.38624152
 10
190.1105277569
 20
103.7875892317
 10
190.034520659
 20
103.1791608503
 10
189.7523969741
 20
102.6268902889
 10
189.2947301598
 20
102.190624336
 10
188.7111140744
 20
101.9176387882
 10
188.0647929714
 20
101.8375161758
 10
187.4258051024
 20
101.9589392191
 10
186.8633961634
 20
102.2687492615
  0
LWPOLYLINE
  5
16F
330
1F
100
AcDbEntity
  8
0
  6
HIDDEN
 62
     7
370
     0
100
AcDbPolyline
 90
       20
 70
   128
 43
0.0
 10
188.8098026023
 20
128.7596173307
 10
189.3773533733
 20
129.061034294
 10
189.810001138
 20
129.5192887729
 10
190.0608640493
 20
130.0847226476
 10
190.1027549387
 20
130.6960623434
 10
189.93113454
 20
131.2870591601
 10
189.5646013648
 20
131.7936697697
 10
189.0428744585
 20
132.1609955004
 10
188.4224916206
 20
132.3492306938
 10
187.770680371
 20
132.3379765919
 10
187.1580750079
 20
132.128453227
 10
186.6510602043
 20
131.7433653122
 10
186.3045793356
 20
131.2244435495
 10
186.1561786712
 20
130.6279211959
 10
186.2219402896
 20
130.01844042
 10
186.4947377102
 20
129.4620478248
 10
186.9450088919
 20
129.0190372339
 10
187.5239599825
 20
128.7374164632
 10
188.1688524367
 20
128.6477021596
 10
188.8098026023
 20
128.7596173307
  0
LWPOLYLINE
  5
170
330
1F
100
AcDbEntity
  8
0
  6
HIDDEN
 62
     7
370
     0
100
AcDbPolyline
 90
       22
 70
   128
 43
0.0
 10
188.9875213013
 20
128.4033920338
 10
189.6419830949
 20
128.7382984256
 10
190.1623167427
 20
129.2395986339
 10
190.5022885979
 20
129.8627484312
 10
190.631694007
 20
130.5523797592
 10
190.5390311362
 20
131.2472143864
 10
190.2325366021
 20
131.8855140081
 10
189.7394404144
 20
132.410562942
 10
189.1035585062
 20
132.7757075152
 10
188.3813904927
 20
132.9485051056
 10
187.6371054308
 20
132.9135991355
 10
186.9368365363
 20
132.6740927717
 10
186.342803608
 20
132.2512676662
 10
185.9077912153
 20
131.6826915091
 10
185.6704520391
 20
131.0188866874
 10
185.651873085
 20
130.3188347912
 10
185.8537065194
 20
129.644738855
 10
186.2580178635
 20
129.0564940965
 10
186.8288832114
 20
128.6063691324
 10
187.5155780793
 20
128.334360542
 10
188.2570859374
 20
128.2646361461
 10
188.9875213013
 20
128.4033920338
  0
LWPOLYLINE
  5
171
330
1F
100
AcDbEntity
  8
0
  6
HIDDEN
 62
     7
370
     0
100
AcDbPolyline
 90
       22
 70
   128
 43
0.0
 10
188.9875213013
 20
129.0019269755
 10
189.6419830949
 20
129.3368333673
 10
190.1623167427
 20
129.8381335756
 10
190.5022885979
 20
130.4612833729
 10
190.631694007
 20
131.1509147009
 10
190.5390311362
 20
131.8457493281
 10
190.2325366021
 20
132.4840489497
 10
189.7394404144
 20
133.009098815
 10
189.1035585062
 20
133.3742443195
 10
188.3813904927
 20
133.5470400473
 10
187.6371054308
 20
133.5121340772
 10
186.9368365363
 20
133.2726277134
 10
186.342803608
 20
132.8498016765
 10
185.9077912153
 20
132.2812273821
 10
185.6704520391
 20
131.6174225604
 10
185.651873085
 20
130.9173706642
 10
185.8537065194
 20
130.2432737967
 10
186.2580178635
 20
129.6550290382
 10
186.8288832114
 20
129.2049050054
 10
187.5155780793
 20
128.9328954836
 10
188.2570859374
 20
128.8631710878
 10
188.9875213013
 20
129.0019269755
  0
LWPOLYLINE
  5
172
330
1F
100
AcDbEntity
  8
0
  6
HIDDEN
 62
     7
370
     0
100
AcDbPolyline
 90
       20
 70
   128
 43
0.0
 10
188.8165118502
 20
130.6234080067
 10
189.3896840842
 20
130.9278098589
 10
189.8266177953
 20
131.390603604
 10
190.0799636127
 20
131.9616375214
 10
190.1222698719
 20
132.5790326765
 10
189.9489488782
 20
133.1758837869
 10
189.5787854077
 20
133.6875114312
 10
189.0518915237
 20
134.0584758392
 10
188.4253638194
 20
134.2485755405
 10
187.7670966418
 20
134.2372096798
 10
187.1484237121
 20
134.0256113282
 10
186.6363872172
 20
133.6367077848
 10
186.2864744247
 20
133.1126469841
 10
186.1366041334
 20
132.5102163201
 10
186.2030176775
 20
131.8946987113
 10
186.4785168649
 20
131.3327954805
 10
186.9332472191
 20
130.8853974288
 10
187.5179324628
 20
130.6009864157
 10
188.1692128585
 20
130.5103836304
 10
188.8165118502
 20
130.6234080067
  0
LWPOLYLINE
  5
173
330
1F
100
AcDbEntity
  8
0
  6
HIDDEN
 62
     7
370
     0
100
AcDbPolyline
 90
       20
 70
   128
 43
0.0
 10
188.8165118502
 20
129.205631437
 10
189.3896840842
 20
129.5100332892
 10
189.8266177953
 20
129.9728270343
 10
190.0799636127
 20
130.543861883
 10
190.1222698719
 20
131.1612561068
 10
189.9489488782
 20
131.7581072172
 10
189.5787854077
 20
132.2697357928
 10
189.0518915237
 20
132.6406992694
 10
188.4253638194
 20
132.8307989707
 10
187.7670966418
 20
132.81943311
 10
187.1484237121
 20
132.6078347584
 10
186.6363872172
 20
132.2189330777
 10
186.2864744247
 20
131.6948713457
 10
186.1366041334
 20
131.0924406817
 10
186.2030176775
 20
130.4769230729
 10
186.4785168649
 20
129.9150198421
 10
186.9332472191
 20
129.4676208591
 10
187.5179324628
 20
129.1832107773
 10
188.1692128585
 20
129.092607992
 10
188.8165118502
 20
129.205631437
  0
LWPOLYLINE
  5
174
330
1F
100
AcDbEntity
  8
0
  6
HIDDEN
 62
     7
370
     0
100
AcDbPolyline
 90
       22
 70
   128
 43
0.0
 10
188.9875213013
 20
129.237921322
 10
189.6419830949
 20
129.5728277138
 10
190.1623167427
 20
130.0741269907
 10
190.5022885979
 20
130.6972777194
 10
190.631694007
 20
131.386908116
 10
190.5390311362
 20
132.0817436745
 10
190.2325366021
 20
132.7200432962
 10
189.7394404144
 20
133.2450922301
 10
189.1035585062
 20
133.6102377346
 10
188.3813904927
 20
133.7830334624
 10
187.6371054308
 20
133.748129355
 10
186.9368365363
 20
133.5086229911
 10
186.342803608
 20
133.0857969543
 10
185.9077912153
 20
132.5172207972
 10
185.6704520391
 20
131.8534159755
 10
185.651873085
 20
131.1533640793
 10
185.8537065194
 20
130.4792681431
 10
186.2580178635
 20
129.8910233846
 10
186.8288832114
 20
129.4408984205
 10
187.5155780793
 20
129.1688898301
 10
188.2570859374
 20
129.0991654342
 10
188.9875213013
 20
129.237921322
  0
LWPOLYLINE
  5
175
330
1F
100
AcDbEntity
  8
0
  6
HIDDEN
 62
     7
370
     0
100
AcDbPolyline
 90
       21
 70
   128
 43
0.0
 10
188.9191175209
 20
129.2400056219
 10
189.5484922783
 20
129.5678339621
 10
190.0392573656
 20
130.0623764938
 10
190.3433733017
 20
130.6752230695
 10
190.4310703607
 20
131.3463844081
 10
190.2937636108
 20
132.0101622215
 10
189.9448957623
 20
132.6015818587
 10
189.4186146886
 20
133.0627504459
 10
188.7664374293
 20
133.3485249152
 10
188.0522024215
 20
133.4309339246
 10
187.3458249823
 20
133.3019084951
 10
186.7164502249
 20
132.9740792235
 10
186.2256851376
 20
132.4795366919
 10
185.9215692015
 20
131.8666901162
 10
185.8338721426
 20
131.1955287775
 10
185.971177961
 20
130.5317509642
 10
186.3200467409
 20
129.940331327
 10
186.8463278146
 20
129.4791636711
 10
187.4985050739
 20
129.1933882704
 10
188.2127400817
 20
129.1109801924
 10
188.9191175209
 20
129.2400056219
  0
LWPOLYLINE
  5
176
330
1F
100
AcDbEntity
  8
0
  6
HIDDEN
 62
     7
370
     0
100
AcDbPolyline
 90
       22
 70
   128
 43
0.0
 10
188.9875213013
 20
129.4739147371
 10
189.6419830949
 20
129.8088211289
 10
190.1623167427
 20
130.3101213371
 10
190.5022885979
 20
130.9332711345
 10
190.631694007
 20
131.6229024625
 10
190.5390311362
 20
132.3177370897
 10
190.2325366021
 20
132.9560376426
 10
189.7394404144
 20
133.4810856452
 10
189.1035585062
 20
133.8462311497
 10
188.3813904927
 20
134.0190287402
 10
187.6371054308
 20
133.9841227701
 10
186.9368365363
 20
133.7446164062
 10
186.342803608
 20
133.3217903694
 10
185.9077912153
 20
132.7532142123
 10
185.6704520391
 20
132.089410322
 10
185.651873085
 20
131.3893584257
 10
185.8537065194
 20
130.7152615583
 10
186.2580178635
 20
130.1270167997
 10
186.8288832114
 20
129.6768927669
 10
187.5155780793
 20
129.4048832452
 10
188.2570859374
 20
129.3351588493
 10
188.9875213013
 20
129.4739147371
  0
LWPOLYLINE
  5
177
330
1F
100
AcDbEntity
  8
0
  6
HIDDEN
 62
     7
370
     0
100
AcDbPolyline
 90
       21
 70
   128
 43
0.0
 10
188.9191175209
 20
129.475999037
 10
189.5484922783
 20
129.8038283086
 10
190.0392573656
 20
130.2983708402
 10
190.3433733017
 20
130.9112174159
 10
190.4310703607
 20
131.5823787546
 10
190.2937636108
 20
132.2461565679
 10
189.9448957623
 20
132.8375752738
 10
189.4186146886
 20
133.298743861
 10
188.7664374293
 20
133.5845183304
 10
188.0522024215
 20
133.6669273397
 10
187.3458249823
 20
133.5379019102
 10
186.7164502249
 20
133.2100726387
 10
186.2256851376
 20
132.715530107
 10
185.9215692015
 20
132.1026835313
 10
185.8338721426
 20
131.4315221926
 10
185.971177961
 20
130.7677443793
 10
186.3200467409
 20
130.1763256734
 10
186.8463278146
 20
129.7151570862
 10
187.4985050739
 20
129.4293826168
 10
188.2127400817
 20
129.3469736075
 10
188.9191175209
 20
129.475999037
  0
LWPOLYLINE
  5
178
330
1F
100
AcDbEntity
  8
0
  6
HIDDEN
 62
     7
370
     0
100
AcDbPolyline
 90
       22
 70
   128
 43
0.0
 10
188.9875213013
 20
129.7099090835
 10
189.6419830949
 20
130.0448154753
 10
190.1623167427
 20
130.5461147523
 10
190.5022885979
 20
131.1692654809
 10
190.631694007
 20
131.8588958776
 10
190.5390311362
 20
132.5537314361
 10
190.2325366021
 20
133.1920310577
 10
189.7394404144
 20
133.717080923
 10
189.1035585062
 20
134.0822245648
 10
188.3813904927
 20
134.2550221553
 10
187.6371054308
 20
134.2201161852
 10
186.9368365363
 20
133.9806098214
 10
186.342803608
 20
133.5577837845
 10
185.9077912153
 20
132.9892094901
 10
185.6704520391
 20
132.3254037371
 10
185.651873085
 20
131.6253518408
 10
185.8537065194
 20
130.9512559047
 10
186.2580178635
 20
130.3630111462
 10
186.8288832114
 20
129.912886182
 10
187.5155780793
 20
129.6408775916
 10
188.2570859374
 20
129.5711531958
 10
188.9875213013
 20
129.7099090835
  0
LWPOLYLINE
  5
179
330
1F
100
AcDbEntity
  8
0
  6
HIDDEN
 62
     7
370
     0
100
AcDbPolyline
 90
       21
 70
   128
 43
0.0
 10
188.9191175209
 20
129.7119933834
 10
189.5484922783
 20
130.039822655
 10
190.0392573656
 20
130.5343642553
 10
190.3433733017
 20
131.147210831
 10
190.4310703607
 20
131.8183721697
 10
190.2937636108
 20
132.482149983
 10
189.9448957623
 20
133.0735686889
 10
189.4186146886
 20
133.5347372761
 10
188.7664374293
 20
133.8205117455
 10
188.0522024215
 20
133.9029207548
 10
187.3458249823
 20
133.7738953253
 10
186.7164502249
 20
133.4460660538
 10
186.2256851376
 20
132.9515244534
 10
185.9215692015
 20
132.3386778778
 10
185.8338721426
 20
131.6675165391
 10
185.971177961
 20
131.0037387258
 10
186.3200467409
 20
130.4123190885
 10
186.8463278146
 20
129.9511514327
 10
187.4985050739
 20
129.665376032
 10
188.2127400817
 20
129.582967954
 10
188.9191175209
 20
129.7119933834
  0
LWPOLYLINE
  5
17A
330
1F
100
AcDbEntity
  8
0
  6
HIDDEN
 62
     7
370
     0
100
AcDbPolyline
 90
       22
 70
   128
 43
0.0
 10
188.9875213013
 20
129.9459024986
 10
189.6419830949
 20
130.2808088904
 10
190.1623167427
 20
130.7821090987
 10
190.5022885979
 20
131.405258896
 10
190.631694007
 20
132.094890224
 10
190.5390311362
 20
132.7897257825
 10
190.2325366021
 20
133.4280244729
 10
189.7394404144
 20
133.9530743381
 10
189.1035585062
 20
134.3182198426
 10
188.3813904927
 20
134.4910155704
 10
187.6371054308
 20
134.4561096003
 10
186.9368365363
 20
134.2166032365
 10
186.342803608
 20
133.7937771997
 10
185.9077912153
 20
133.2252029052
 10
185.6704520391
 20
132.5613980835
 10
185.651873085
 20
131.8613461873
 10
185.8537065194
 20
131.1872493198
 10
186.2580178635
 20
130.5990045613
 10
186.8288832114
 20
130.1488805285
 10
187.5155780793
 20
129.8768710068
 10
188.2570859374
 20
129.8071466109
 10
188.9875213013
 20
129.9459024986
  0
LWPOLYLINE
  5
17B
330
1F
100
AcDbEntity
  8
0
  6
HIDDEN
 62
     7
370
     0
100
AcDbPolyline
 90
       21
 70
   128
 43
0.0
 10
188.9191175209
 20
129.9479867986
 10
189.5484922783
 20
130.2758160701
 10
190.0392573656
 20
130.7703586018
 10
190.3433733017
 20
131.3832051775
 10
190.4310703607
 20
132.0543665161
 10
190.2937636108
 20
132.7181443295
 10
189.9448957623
 20
133.3095639667
 10
189.4186146886
 20
133.7707306912
 10
188.7664374293
 20
134.0565070232
 10
188.0522024215
 20
134.1389141699
 10
187.3458249823
 20
134.0098887405
 10
186.7164502249
 20
133.6820613315
 10
186.2256851376
 20
133.1875178685
 10
185.9215692015
 20
132.5746712929
 10
185.8338721426
 20
131.9035099542
 10
185.971177961
 20
131.2397321409
 10
186.3200467409
 20
130.648313435
 10
186.8463278146
 20
130.1871448478
 10
187.4985050739
 20
129.9013703784
 10
188.2127400817
 20
129.8189623004
 10
188.9191175209
 20
129.9479867986
  0
LWPOLYLINE
  5
17C
330
1F
100
AcDbEntity
  8
0
  6
HIDDEN
 62
     7
370
     0
100
AcDbPolyline
 90
       22
 70
   128
 43
0.0
 10
188.9875213013
 20
130.1340138262
 10
189.6419830949
 20
130.468920218
 10
190.1623167427
 20
130.9702204263
 10
190.5022885979
 20
131.5933702236
 10
190.631694007
 20
132.2830015516
 10
190.5390311362
 20
132.9778361788
 10
190.2325366021
 20
133.6161367318
 10
189.7394404144
 20
134.1411847344
 10
189.1035585062
 20
134.5063302389
 10
188.3813904927
 20
134.6791278293
 10
187.6371054308
 20
134.6442218592
 10
186.9368365363
 20
134.4047154954
 10
186.342803608
 20
133.9818894586
 10
185.9077912153
 20
133.4133133015
 10
185.6704520391
 20
132.7495094111
 10
185.651873085
 20
132.0494575149
 10
185.8537065194
 20
131.3753606474
 10
186.2580178635
 20
130.7871158889
 10
186.8288832114
 20
130.3369909247
 10
187.5155780793
 20
130.0649823343
 10
188.2570859374
 20
129.9952579385
 10
188.9875213013
 20
130.1340138262
  0
LWPOLYLINE
  5
17D
330
1F
100
AcDbEntity
  8
0
  6
HIDDEN
 62
     7
370
     0
100
AcDbPolyline
 90
       21
 70
   128
 43
0.0
 10
188.9396382825
 20
130.3055196723
 10
189.5854313256
 20
130.6419003477
 10
190.0889993043
 20
131.149344491
 10
190.4010482461
 20
131.77817815
 10
190.4910326333
 20
132.4668474218
 10
190.3501458795
 20
133.1479422471
 10
189.9921771468
 20
133.7547883114
 10
189.4521665157
 20
134.2279877236
 10
188.7829749243
 20
134.5212183615
 10
188.0501088084
 20
134.6057750007
 10
187.3253032894
 20
134.4733837715
 10
186.6795102463
 20
134.137003096
 10
186.1759422676
 20
133.6295608154
 10
185.8638933257
 20
133.000726225
 10
185.7739089386
 20
132.312056022
 10
185.9147966237
 20
131.6309630593
 10
186.2727653564
 20
131.0241151324
 10
186.8127759875
 20
130.5509166515
 10
187.4819666476
 20
130.2576860136
 10
188.2148336948
 20
130.173128443
 10
188.9396382825
 20
130.3055196723
  0
LINE
  5
17E
330
1F
100
AcDbEntity
  8
0
  6
HIDDEN
 62
     7
370
     0
100
AcDbLine
 10
182.1065171019
 20
128.3009987047
 30
0.0
 11
182.6035593034
 21
128.7746144181
 31
0.0
  0
LINE
  5
17F
330
1F
100
AcDbEntity
  8
0
  6
HIDDEN
 62
     7
370
     0
100
AcDbLine
 10
183.2299761803
 20
131.3902962675
 30
0.0
 11
183.0013979555
 21
132.0376865288
 31
0.0
  0
LINE
  5
180
330
1F
100
AcDbEntity
  8
0
  6
HIDDEN
 62
     7
370
     0
100
AcDbLine
 10
178.6814092987
 20
128.5260686373
 30
0.0
 11
181.1331960702
 21
127.9389023503
 31
0.0
  0
LINE
  5
181
330
1F
100
AcDbEntity
  8
0
  6
HIDDEN
 62
     7
370
     0
100
AcDbLine
 10
182.2976934121
 20
132.8014064303
 30
0.0
 11
179.845906175
 21
133.388571786
 31
0.0
  0
LINE
  5
182
330
1F
100
AcDbEntity
  8
0
  6
HIDDEN
 62
     7
370
     0
100
AcDbLine
 10
179.845906175
 20
100.8171517124
 30
0.0
 11
182.2976934121
 21
101.4043170681
 31
0.0
  0
LINE
  5
183
330
1F
100
AcDbEntity
  8
0
  6
HIDDEN
 62
     7
370
     0
100
AcDbLine
 10
181.1331960702
 20
106.2668211481
 30
0.0
 11
178.6814092987
 21
105.6796548611
 31
0.0
  0
LINE
  5
184
330
1F
100
AcDbEntity
  8
0
  6
HIDDEN
 62
     7
370
     0
100
AcDbLine
 10
183.0013979555
 20
102.1680369696
 30
0.0
 11
183.2299761803
 21
102.8154272309
 31
0.0
  0
LINE
  5
185
330
1F
100
AcDbEntity
  8
0
  6
HIDDEN
 62
     7
370
     0
100
AcDbLine
 10
182.6035593034
 20
105.4311090803
 30
0.0
 11
182.1065171019
 21
105.9047247937
 31
0.0
  0
LINE
  5
186
330
1F
100
AcDbEntity
  8
0
  6
HIDDEN
 62
     7
370
     0
100
AcDbLine
 10
190.6324707301
 20
100.4385485968
 30
0.0
 11
190.6324707301
 21
103.5947765878
 31
0.0
  0
LINE
  5
187
330
1F
100
AcDbEntity
  8
0
  6
HIDDEN
 62
     7
370
     0
100
AcDbLine
 10
185.6324708418
 20
103.5947765878
 30
0.0
 11
185.6324708418
 21
101.5411171785
 31
0.0
  0
LINE
  5
188
330
1F
100
AcDbEntity
  8
0
  6
HIDDEN
 62
     7
370
     0
100
AcDbLine
 10
177.1324710784
 20
99.6531847587
 30
0.0
 11
179.75189894
 21
100.2804994306
 31
0.0
  0
LINE
  5
189
330
1F
100
AcDbEntity
  8
0
  6
HIDDEN
 62
     7
370
     0
100
AcDbLine
 10
178.3545020365
 20
106.1155045128
 30
0.0
 11
177.1324710784
 21
105.8228457069
 31
0.0
  0
LINE
  5
18A
330
1F
100
AcDbEntity
  8
0
  6
HIDDEN
 62
     7
370
     0
100
AcDbLine
 10
179.8106216223
 20
101.2200120559
 30
0.0
 11
187.2797709287
 21
103.0087614155
 31
0.0
  0
LINE
  5
18B
330
1F
100
AcDbEntity
  8
0
  6
HIDDEN
 62
     7
370
     0
100
AcDbLine
 10
187.2797709287
 20
107.3275239861
 30
0.0
 11
178.8324437433
 21
105.304515334
 31
0.0
  0
LINE
  5
18C
330
1F
100
AcDbEntity
  8
0
  6
HIDDEN
 62
     7
370
     0
100
AcDbLine
 10
190.2324714096
 20
103.6445706805
 30
0.0
 11
190.2324714096
 21
115.3621327786
 31
0.0
  0
LINE
  5
18D
330
1F
100
AcDbEntity
  8
0
  6
HIDDEN
 62
     7
370
     0
100
AcDbLine
 10
186.0324710937
 20
103.9926208278
 30
0.0
 11
186.0324710937
 21
103.6445706805
 31
0.0
  0
LINE
  5
18E
330
1F
100
AcDbEntity
  8
0
  6
HIDDEN
 62
     7
370
     0
100
AcDbLine
 10
186.0324710937
 20
115.3614217138
 30
0.0
 11
186.0324710937
 21
105.7462453565
 31
0.0
  0
LINE
  5
18F
330
1F
100
AcDbEntity
  8
0
  6
HIDDEN
 62
     7
370
     0
100
AcDbLine
 10
233.0324694843
 20
140.6028609445
 30
0.0
 11
232.48247135
 21
139.4233837446
 31
0.0
  0
LINE
  5
190
330
1F
100
AcDbEntity
  8
0
  6
HIDDEN
 62
     7
370
     0
100
AcDbLine
 10
232.48247135
 20
94.7823397538
 30
0.0
 11
233.0324694843
 21
93.6028625539
 31
0.0
  0
LINE
  5
191
330
1F
100
AcDbEntity
  8
0
  6
HIDDEN
 62
     7
370
     0
100
AcDbLine
 10
232.48247135
 20
136.3028626612
 30
0.0
 11
228.4824706943
 21
136.3028626612
 31
0.0
  0
LINE
  5
192
330
1F
100
AcDbEntity
  8
0
  6
HIDDEN
 62
     7
370
     0
100
AcDbLine
 10
228.4824706943
 20
97.9028608373
 30
0.0
 11
232.48247135
 21
97.9028608373
 31
0.0
  0
LINE
  5
193
330
1F
100
AcDbEntity
  8
0
  6
HIDDEN
 62
     7
370
     0
100
AcDbLine
 10
228.4824706943
 20
132.7956825217
 30
0.0
 11
227.2824727328
 21
132.1028614139
 31
0.0
  0
LINE
  5
194
330
1F
100
AcDbEntity
  8
0
  6
HIDDEN
 62
     7
370
     0
100
AcDbLine
 10
227.2824727328
 20
102.1028620845
 30
0.0
 11
228.4824706943
 21
101.4100409767
 31
0.0
  0
ARC
  5
195
330
1F
100
AcDbEntity
  8
0
  6
HIDDEN
 62
     7
370
     0
100
AcDbCircle
 10
202.6324711592
 20
102.4028617492
 30
0.0
 40
0.6000000000000085
100
AcDbArc
 50
180.0
 51
270.0
  0
ARC
  5
196
330
1F
100
AcDbEntity
  8
0
  6
HIDDEN
 62
     7
370
     0
100
AcDbCircle
 10
202.6324711592
 20
131.8028617492
 30
0.0
 40
0.5999999999999943
100
AcDbArc
 50
90.0
 51
180.0
  0
LINE
  5
197
330
1F
100
AcDbEntity
  8
0
  6
HIDDEN
 62
     7
370
     0
100
AcDbLine
 10
202.6324708344
 20
101.8028616628
 30
0.0
 11
203.3338647665
 21
101.8028616628
 31
0.0
  0
LINE
  5
198
330
1F
100
AcDbEntity
  8
0
  6
HIDDEN
 62
     7
370
     0
100
AcDbLine
 10
203.3338647665
 20
132.4028618356
 30
0.0
 11
202.6324708344
 21
132.4028618356
 31
0.0
  0
ARC
  5
199
330
1F
100
AcDbEntity
  8
0
  6
HIDDEN
 62
     7
370
     0
100
AcDbCircle
 10
203.3338644184
 20
102.4028617492
 30
0.0
 40
0.6000000000000085
100
AcDbArc
 50
270.0
 51
285.0
  0
ARC
  5
19A
330
1F
100
AcDbEntity
  8
0
  6
HIDDEN
 62
     7
370
     0
100
AcDbCircle
 10
203.3338644184
 20
131.8028617492
 30
0.0
 40
0.5999999999999943
100
AcDbArc
 50
75.0
 51
90.0
  0
LINE
  5
19B
330
1F
100
AcDbEntity
  8
0
  6
HIDDEN
 62
     7
370
     0
100
AcDbLine
 10
203.4891553552
 20
101.8233060559
 30
0.0
 11
204.5324713321
 21
102.1028620845
 31
0.0
  0
LINE
  5
19C
330
1F
100
AcDbEntity
  8
0
  6
HIDDEN
 62
     7
370
     0
100
AcDbLine
 10
204.5324713321
 20
132.1028614139
 30
0.0
 11
203.4891553552
 21
132.3824174425
 31
0.0
  0
LINE
  5
19D
330
1F
100
AcDbEntity
  8
0
  6
HIDDEN
 62
     7
370
     0
100
AcDbLine
 10
204.5324713321
 20
102.1028620845
 30
0.0
 11
227.2824727328
 21
102.1028620845
 31
0.0
  0
LINE
  5
19E
330
1F
100
AcDbEntity
  8
0
  6
HIDDEN
 62
     7
370
     0
100
AcDbLine
 10
227.2824727328
 20
132.1028614139
 30
0.0
 11
204.5324713321
 21
132.1028614139
 31
0.0
  0
ARC
  5
19F
330
1F
100
AcDbEntity
  8
0
  6
HIDDEN
 62
     7
370
     0
100
AcDbCircle
 10
73.5324711592
 20
103.4028617492
 30
0.0
 40
1.200000000000003
100
AcDbArc
 50
90.0
 51
180.0
  0
ARC
  5
1A0
330
1F
100
AcDbEntity
  8
0
  6
HIDDEN
 62
     7
370
     0
100
AcDbCircle
 10
73.5324711592
 20
130.8028617492
 30
0.0
 40
1.200000000000003
100
AcDbArc
 50
180.0
 51
270.0
  0
LINE
  5
1A1
330
1F
100
AcDbEntity
  8
0
  6
HIDDEN
 62
     7
370
     0
100
AcDbLine
 10
83.2248412402
 20
104.3778614795
 30
0.0
 11
84.1015287073
 21
104.3778614795
 31
0.0
  0
LINE
  5
1A2
330
1F
100
AcDbEntity
  8
0
  6
HIDDEN
 62
     7
370
     0
100
AcDbLine
 10
84.1015287073
 20
129.8278620189
 30
0.0
 11
83.2248412402
 21
129.8278620189
 31
0.0
  0
ARC
  5
1A3
330
1F
100
AcDbEntity
  8
0
  6
HIDDEN
 62
     7
370
     0
100
AcDbCircle
 10
83.22484359
 20
104.7778617492
 30
0.0
 40
0.4000000000000199
100
AcDbArc
 50
255.0
 51
270.0
  0
ARC
  5
1A4
330
1F
100
AcDbEntity
  8
0
  6
HIDDEN
 62
     7
370
     0
100
AcDbCircle
 10
83.22484359
 20
129.4278617492
 30
0.0
 40
0.400000000000006
100
AcDbArc
 50
90.0
 51
105.0
  0
ARC
  5
1A5
330
1F
100
AcDbEntity
  8
0
  6
HIDDEN
 62
     7
370
     0
100
AcDbCircle
 10
84.1015310515
 20
104.7778617492
 30
0.0
 40
0.4000000000000199
100
AcDbArc
 50
270.0
 51
330.0
  0
ARC
  5
1A6
330
1F
100
AcDbEntity
  8
0
  6
HIDDEN
 62
     7
370
     0
100
AcDbCircle
 10
84.1015310515
 20
129.4278617492
 30
0.0
 40
0.4000000000000192
100
AcDbArc
 50
30.0
 51
90.0
  0
LINE
  5
1A7
330
1F
100
AcDbEntity
  8
0
  6
HIDDEN
 62
     7
370
     0
100
AcDbLine
 10
83.1213154228
 20
129.814232113
 30
0.0
 11
82.3324703009
 21
129.6028619355
 31
0.0
  0
LINE
  5
1A8
330
1F
100
AcDbEntity
  8
0
  6
HIDDEN
 62
     7
370
     0
100
AcDbLine
 10
82.3324703009
 20
104.6028615629
 30
0.0
 11
83.1213154228
 21
104.3914913854
 31
0.0
  0
LINE
  5
1A9
330
1F
100
AcDbEntity
  8
0
  6
HIDDEN
 62
     7
370
     0
100
AcDbLine
 10
84.4479434521
 20
104.5778620711
 30
0.0
 11
85.6170736582
 21
106.6028618908
 31
0.0
  0
LINE
  5
1AA
330
1F
100
AcDbEntity
  8
0
  6
HIDDEN
 62
     7
370
     0
100
AcDbLine
 10
85.6170736582
 20
127.6028616076
 30
0.0
 11
84.4479434521
 21
129.6278614273
 31
0.0
  0
LINE
  5
1AB
330
1F
100
AcDbEntity
  8
0
  6
HIDDEN
 62
     7
370
     0
100
AcDbLine
 10
73.5324703486
 20
104.6028615629
 30
0.0
 11
82.3324703009
 21
104.6028615629
 31
0.0
  0
LINE
  5
1AC
330
1F
100
AcDbEntity
  8
0
  6
HIDDEN
 62
     7
370
     0
100
AcDbLine
 10
82.3324703009
 20
129.6028619355
 30
0.0
 11
73.5324703486
 21
129.6028619355
 31
0.0
  0
LINE
  5
1AD
330
1F
100
AcDbEntity
  8
0
  6
HIDDEN
 62
     7
370
     0
100
AcDbLine
 10
85.6170736582
 20
106.6028618908
 30
0.0
 11
134.3324713738
 21
106.6028618908
 31
0.0
  0
LINE
  5
1AE
330
1F
100
AcDbEntity
  8
0
  6
HIDDEN
 62
     7
370
     0
100
AcDbLine
 10
134.3324713738
 20
127.6028616076
 30
0.0
 11
85.6170736582
 21
127.6028616076
 31
0.0
  0
LINE
  5
1AF
330
1F
100
AcDbEntity
  8
0
  6
HIDDEN
 62
     7
370
     0
100
AcDbLine
 10
134.3324713738
 20
106.6028618908
 30
0.0
 11
137.5771172674
 21
112.0028615652
 31
0.0
  0
LINE
  5
1B0
330
1F
100
AcDbEntity
  8
0
  6
HIDDEN
 62
     7
370
     0
100
AcDbLine
 10
137.5771172674
 20
122.2028619332
 30
0.0
 11
134.3324713738
 21
127.6028616076
 31
0.0
  0
LINE
  5
1B1
330
1F
100
AcDbEntity
  8
0
  6
HIDDEN
 62
     7
370
     0
100
AcDbLine
 10
232.48247135
 20
138.3778623959
 30
0.0
 11
228.4824706943
 21
138.3778623959
 31
0.0
  0
LINE
  5
1B2
330
1F
100
AcDbEntity
  8
0
  6
HIDDEN
 62
     7
370
     0
100
AcDbLine
 10
228.4824706943
 20
95.8278611025
 30
0.0
 11
232.48247135
 21
95.8278611025
 31
0.0
  0
LINE
  5
1B3
330
1F
100
AcDbEntity
  8
0
  6
HIDDEN
 62
     7
370
     0
100
AcDbLine
 10
137.5771172674
 20
112.0028615652
 30
0.0
 11
202.0324718536
 21
112.0028615652
 31
0.0
  0
LINE
  5
1B4
330
1F
100
AcDbEntity
  8
0
  6
HIDDEN
 62
     7
370
     0
100
AcDbLine
 10
202.0324718536
 20
122.2028619332
 30
0.0
 11
137.5771172674
 21
122.2028619332
 31
0.0
  0
LINE
  5
1B5
330
1F
100
AcDbEntity
  8
0
  6
HIDDEN
 62
     7
370
     0
100
AcDbLine
 10
190.2324714096
 20
118.8443017846
 30
0.0
 11
190.2324714096
 21
130.5611528179
 31
0.0
  0
LINE
  5
1B6
330
1F
100
AcDbEntity
  8
0
  6
HIDDEN
 62
     7
370
     0
100
AcDbLine
 10
186.0324710937
 20
128.4594781419
 30
0.0
 11
186.0324710937
 21
118.8435907198
 31
0.0
  0
LINE
  5
1B7
330
1F
100
AcDbEntity
  8
0
  6
HIDDEN
 62
     7
370
     0
100
AcDbLine
 10
186.0324710937
 20
130.5611528179
 30
0.0
 11
186.0324710937
 21
130.2131026706
 31
0.0
  0
LINE
  5
1B8
330
1F
100
AcDbEntity
  8
0
  6
HIDDEN
 62
     7
370
     0
100
AcDbLine
 10
178.8324437433
 20
128.9012081644
 30
0.0
 11
187.2797709287
 21
126.8781995123
 31
0.0
  0
LINE
  5
1B9
330
1F
100
AcDbEntity
  8
0
  6
HIDDEN
 62
     7
370
     0
100
AcDbLine
 10
187.2797709287
 20
131.196962083
 30
0.0
 11
179.8106216223
 21
132.9857114425
 31
0.0
  0
LINE
  5
1BA
330
1F
100
AcDbEntity
  8
0
  6
HIDDEN
 62
     7
370
     0
100
AcDbLine
 10
177.1324710784
 20
128.3828777915
 30
0.0
 11
178.3545020365
 21
128.0902189856
 31
0.0
  0
LINE
  5
1BB
330
1F
100
AcDbEntity
  8
0
  6
HIDDEN
 62
     7
370
     0
100
AcDbLine
 10
179.75189894
 20
133.9252240678
 30
0.0
 11
177.1324710784
 21
134.5525387397
 31
0.0
  0
LINE
  5
1BC
330
1F
100
AcDbEntity
  8
0
  6
HIDDEN
 62
     7
370
     0
100
AcDbLine
 10
190.6324707301
 20
130.6109469107
 30
0.0
 11
190.6324707301
 21
133.7671749016
 31
0.0
  0
LINE
  5
1BD
330
1F
100
AcDbEntity
  8
0
  6
HIDDEN
 62
     7
370
     0
100
AcDbLine
 10
185.6324708418
 20
132.6646063199
 30
0.0
 11
185.6324708418
 21
130.6109469107
 31
0.0
  0
LINE
  5
1BE
330
1F
100
AcDbEntity
  8
0
  6
HIDDEN
 62
     7
370
     0
100
AcDbLine
 10
185.6324708418
 20
102.0522651916
 30
0.0
 11
185.6324708418
 21
101.8641538641
 31
0.0
  0
LINE
  5
1BF
330
1F
100
AcDbEntity
  8
0
  6
HIDDEN
 62
     7
370
     0
100
AcDbLine
 10
190.6324707301
 20
101.8641538641
 30
0.0
 11
190.6324707301
 21
102.0522651916
 31
0.0
  0
LINE
  5
1C0
330
1F
100
AcDbEntity
  8
0
  6
HIDDEN
 62
     7
370
     0
100
AcDbLine
 10
186.1324709238
 20
103.2340474149
 30
0.0
 11
186.1324709238
 21
101.8162717765
 31
0.0
  0
LINE
  5
1C1
330
1F
100
AcDbEntity
  8
0
  6
HIDDEN
 62
     7
370
     0
100
AcDbLine
 10
190.1324715794
 20
101.8162717765
 30
0.0
 11
190.1324715794
 21
103.2340474149
 31
0.0
  0
LINE
  5
1C2
330
1F
100
AcDbEntity
  8
0
  6
HIDDEN
 62
     7
370
     0
100
AcDbLine
 10
185.6324708418
 20
103.5947765878
 30
0.0
 11
185.6324708418
 21
102.9962407148
 31
0.0
  0
LINE
  5
1C3
330
1F
100
AcDbEntity
  8
0
  6
HIDDEN
 62
     7
370
     0
100
AcDbLine
 10
190.6324707301
 20
102.9962407148
 30
0.0
 11
190.6324707301
 21
103.5947765878
 31
0.0
  0
LINE
  5
1C4
330
1F
100
AcDbEntity
  8
0
  6
HIDDEN
 62
     7
370
     0
100
AcDbLine
 10
190.6324707301
 20
130.6109469107
 30
0.0
 11
190.6324707301
 21
131.2094827836
 31
0.0
  0
LINE
  5
1C5
330
1F
100
AcDbEntity
  8
0
  6
HIDDEN
 62
     7
370
     0
100
AcDbLine
 10
185.6324708418
 20
131.2094827836
 30
0.0
 11
185.6324708418
 21
130.6109469107
 31
0.0
  0
LINE
  5
1C6
330
1F
100
AcDbEntity
  8
0
  6
HIDDEN
 62
     7
370
     0
100
AcDbLine
 10
190.1324715794
 20
130.9716760835
 30
0.0
 11
190.1324715794
 21
132.3894517219
 31
0.0
  0
LINE
  5
1C7
330
1F
100
AcDbEntity
  8
0
  6
HIDDEN
 62
     7
370
     0
100
AcDbLine
 10
186.1324709238
 20
132.3894517219
 30
0.0
 11
186.1324709238
 21
130.9716760835
 31
0.0
  0
LINE
  5
1C8
330
1F
100
AcDbEntity
  8
0
  6
HIDDEN
 62
     7
370
     0
100
AcDbLine
 10
190.6324707301
 20
132.1534583068
 30
0.0
 11
190.6324707301
 21
132.3415696343
 31
0.0
  0
LINE
  5
1C9
330
1F
100
AcDbEntity
  8
0
  6
HIDDEN
 62
     7
370
     0
100
AcDbLine
 10
185.6324708418
 20
132.3415696343
 30
0.0
 11
185.6324708418
 21
132.1534583068
 31
0.0
  0
ARC
  5
1CA
330
1F
100
AcDbEntity
  8
0
  6
HIDDEN
 62
     7
370
     0
100
AcDbCircle
 10
188.1324711592
 20
102.6371197872
 30
0.0
 40
1.999999999999999
100
AcDbArc
 50
51.8893292253
 51
192.2156859339
  0
ARC
  5
1CB
330
1F
100
AcDbEntity
  8
0
  6
HIDDEN
 62
     7
370
     0
100
AcDbCircle
 10
188.1324711592
 20
102.6371197872
 30
0.0
 40
2.000000000000003
100
AcDbArc
 50
340.5078316132
 51
51.8893292253
  0
CIRCLE
  5
1CC
330
1F
100
AcDbEntity
  8
0
  6
HIDDEN
 62
     7
370
     0
100
AcDbCircle
 10
188.1324711592
 20
131.5686037112
 30
0.0
 40
2.000000000000007
  0
DIMENSION
  5
1CD
330
1F
100
AcDbEntity
  8
VERMASSUNG
100
AcDbDimension
  2
_D
 10
64.4770769441
 20
165.8278617492
 30
0.0
 11
64.4770769441
 21
117.1028617492
 31
0.0
 70
   160
  1
ISO 50 %%c<>
 71
     2
 42
-1.0
  3
SLDDIMSTYLE0
100
AcDbAlignedDimension
 13
192.3824711592
 23
68.3778617492
 33
0.0
 14
192.3824711592
 24
165.8278617492
 34
0.0
 50
90.0
100
AcDbRotatedDimension
  0
DIMENSION
  5
1DA
330
1F
100
AcDbEntity
  8
VERMASSUNG
100
AcDbDimension
  2
_D_1
 10
233.0324711592
 20
183.9790904648
 30
0.0
 11
152.6824711592
 21
183.9790904648
 31
0.0
 70
   160
  1
(<>)
 71
     2
 42
-1.0
  3
SLDDIMSTYLE0
100
AcDbAlignedDimension
 13
72.3324711592
 23
135.4817062766
 33
0.0
 14
233.0324711592
 24
144.1028617492
 34
0.0
100
AcDbRotatedDimension
  0
DIMENSION
  5
1E6
330
1F
100
AcDbEntity
  8
VERMASSUNG
100
AcDbDimension
  2
_D_2
 10
233.0324711592
 20
177.9790904648
 30
0.0
 11
203.4824711592
 21
177.9790904648
 31
0.0
 70
   160
  1
<>
 71
     2
 42
-1.0
  3
SLDDIMSTYLE0
100
AcDbAlignedDimension
 13
173.9324711592
 23
152.0278617492
 33
0.0
 14
233.0324711592
 24
144.1028617492
 34
0.0
100
AcDbRotatedDimension
  0
DIMENSION
  5
1F0
330
1F
100
AcDbEntity
  8
VERMASSUNG
100
AcDbDimension
  2
_D_3
 10
233.0324711592
 20
171.9790904648
 30
0.0
 11
213.0074711592
 21
171.9790904648
 31
0.0
 70
   160
  1
<>
 71
     2
 42
-1.0
  3
SLDDIMSTYLE0
100
AcDbAlignedDimension
 13
192.9824711592
 23
154.8519428638
 33
0.0
 14
233.0324711592
 24
144.1028617492
 34
0.0
100
AcDbRotatedDimension
  0
DIMENSION
  5
1FA
330
1F
100
AcDbEntity
  8
VERMASSUNG
100
AcDbDimension
  2
_D_4
 10
240.0550774779
 20
89.6028617492
 30
0.0
 11
240.0550774779
 21
117.1028617492
 31
0.0
 70
   160
  1
MBM %%c<>
 71
     2
 42
-1.0
  3
SLDDIMSTYLE0
100
AcDbAlignedDimension
 13
232.5324711592
 23
144.6028617492
 33
0.0
 14
232.5324711592
 24
89.6028617492
 34
0.0
 50
90.0
100
AcDbRotatedDimension
  0
LINE
  5
206
330
1F
100
AcDbEntity
  8
VERMASSUNG
  6
CENTERX2
 62
     7
370
     0
100
AcDbLine
 10
70.3324711592
 20
117.1028617492
 30
0.0
 11
235.0324711592
 21
117.1028617492
 31
0.0
  0
LINE
  5
207
330
1F
100
AcDbEntity
  8
VERMASSUNG
  6
CENTERX2
370
     0
100
AcDbLine
 10
175.1874695131
 20
131.9335066487
 30
0.0
 11
186.449841204
 21
129.2363366343
 31
0.0
  0
LINE
  5
208
330
1F
100
AcDbEntity
  8
VERMASSUNG
  6
CENTERX2
370
     0
100
AcDbLine
 10
175.1874695131
 20
102.2722168497
 30
0.0
 11
186.449841204
 21
104.9693868641
 31
0.0
  0
LINE
  5
209
330
1F
100
AcDbEntity
  8
0
  6
Continuous
 62
     7
370
    15
100
AcDbLine
 10
270.9426570103
 20
47.8931225758
 30
0.0
 11
270.76585131
 21
47.9952231287
 31
0.0
  0
LINE
  5
20A
330
1F
100
AcDbEntity
  8
0
  6
Continuous
 62
     7
370
    15
100
AcDbLine
 10
266.8761332586
 20
47.9952224317
 30
0.0
 11
266.6993274786
 21
47.8931222128
 31
0.0
  0
LINE
  5
20B
330
1F
100
AcDbEntity
  8
0
  6
Continuous
 62
     7
370
    15
100
AcDbLine
 10
271.8209925588
 20
46.362505516
 30
0.0
 11
271.8209925588
 21
46.668708941
 31
0.0
  0
LINE
  5
20C
330
1F
100
AcDbEntity
  8
0
  6
Continuous
 62
     7
370
    15
100
AcDbLine
 10
265.8209919002
 20
46.6687095112
 30
0.0
 11
265.8209919002
 21
46.3625060862
 31
0.0
  0
LINE
  5
20D
330
1F
100
AcDbEntity
  8
0
  6
Continuous
 62
     7
370
    15
100
AcDbLine
 10
273.7899980345
 20
21.5512503622
 30
0.0
 11
273.9667450397
 21
21.6533189322
 31
0.0
  0
LINE
  5
20E
330
1F
100
AcDbEntity
  8
0
  6
Continuous
 62
     7
370
    15
100
AcDbLine
 10
283.5111353494
 20
38.1864786633
 30
0.0
 11
283.511136008
 21
38.3905799644
 31
0.0
  0
LINE
  5
20F
330
1F
100
AcDbEntity
  8
0
  6
Continuous
 62
     7
370
    15
100
AcDbLine
 10
254.3451533219
 20
28.1254290828
 30
0.0
 11
266.9139764091
 21
20.8696019592
 31
0.0
  0
LINE
  5
210
330
1F
100
AcDbEntity
  8
0
  6
Continuous
 62
     7
370
    15
100
AcDbLine
 10
280.6628592296
 20
44.6859464928
 30
0.0
 11
268.0940361424
 21
51.9417736164
 31
0.0
  0
SPLINE
  5
211
330
1F
100
AcDbEntity
  8
0
  6
Continuous
 62
     7
370
    15
100
AcDbSpline
210
0.0
220
0.0
230
1.0
 70
     8
 71
     3
 72
    28
 73
    24
 74
     0
 42
0.000000001
 43
0.00000001
 40
0.0
 40
0.0
 40
0.0
 40
0.0
 40
0.0335962435386038
 40
0.0827003115125533
 40
0.1318527590274293
 40
0.1810312183300915
 40
0.2302195424135135
 40
0.279404764849689
 40
0.3285819208398859
 40
0.377748806523927
 40
0.4269049645832018
 40
0.4760510890721161
 40
0.5251885042547129
 40
0.5743189480700673
 40
0.6234443409010216
 40
0.6725667442953766
 40
0.721688287534935
 40
0.7708108744025447
 40
0.8199361863611215
 40
0.8690663281293769
 40
0.9182034939940129
 40
0.9673498211794163
 40
1.0
 40
1.0
 40
1.0
 40
1.0
 10
259.4677598213104
 20
65.93454568990342
 30
0.0
 10
259.1726423849889
 20
65.87137237308333
 30
0.0
 10
258.4461830744853
 20
65.71586531544754
 30
0.0
 10
257.2590941769515
 20
65.31493734246125
 30
0.0
 10
255.9198277822268
 20
64.75563802890147
 30
0.0
 10
254.570651532066
 20
64.06457309093535
 30
0.0
 10
253.2212534790823
 20
63.25256848570177
 30
0.0
 10
251.879513113264
 20
62.32306212399752
 30
0.0
 10
250.5536389045342
 20
61.28234649518881
 30
0.0
 10
249.2515452923233
 20
60.13674157993855
 30
0.0
 10
247.9810179301466
 20
58.89331313498393
 30
0.0
 10
246.749639355993
 20
57.55964467253319
 30
0.0
 10
245.5647644638807
 20
56.14384374419637
 30
0.0
 10
244.4334765951934
 20
54.65449252360136
 30
0.0
 10
243.3625491837931
 20
53.10059995538051
 30
0.0
 10
242.3584058364569
 20
51.4915443415919
 30
0.0
 10
241.4270973630965
 20
49.8370383695122
 30
0.0
 10
240.5741801293091
 20
48.14704008761714
 30
0.0
 10
239.8050470822258
 20
46.43178402383268
 30
0.0
 10
239.1234915202541
 20
44.70138289275479
 30
0.0
 10
238.5369396147224
 20
42.96699293568695
 30
0.0
 10
238.0927756370878
 20
41.42994723668154
 30
0.0
 10
237.8777158270503
 20
40.48125433926298
 30
0.0
 10
237.7918718026817
 20
40.10257077123544
 30
0.0
  0
LINE
  5
212
330
1F
100
AcDbEntity
  8
0
  6
Continuous
 62
     7
370
    15
100
AcDbLine
 10
253.0494360508
 20
63.1130844862
 30
0.0
 11
222.2912488195
 21
74.1971157545
 31
0.0
  0
LINE
  5
213
330
1F
100
AcDbEntity
  8
0
  6
Continuous
 62
     7
370
    15
100
AcDbLine
 10
212.167389439
 20
56.6601773541
 30
0.0
 11
241.6349005576
 21
31.7780549158
 31
0.0
  0
SPLINE
  5
214
330
1F
100
AcDbEntity
  8
0
  6
Continuous
 62
     7
370
    15
100
AcDbSpline
210
0.0
220
0.0
230
1.0
 70
     8
 71
     3
 72
    14
 73
    10
 74
     0
 42
0.000000001
 43
0.00000001
 40
0.0
 40
0.0
 40
0.0
 40
0.0
 40
0.0860688399435913
 40
0.246299177059783
 40
0.4066990287808769
 40
0.5671927214077443
 40
0.7277247544996139
 40
0.8882513377562824
 40
1.0
 40
1.0
 40
1.0
 40
1.0
 10
254.5502408745345
 20
19.00494566190369
 30
0.0
 10
254.7812809572998
 20
19.05174799824254
 30
0.0
 10
255.4424375650828
 20
19.1856800569561
 30
0.0
 10
256.5628326738848
 20
19.55290955260446
 30
0.0
 10
257.8998982731677
 20
20.09328773946788
 30
0.0
 10
259.248566479865
 20
20.7664571100838
 30
0.0
 10
260.5978021172364
 20
21.56481113481813
 30
0.0
 10
261.8070165779934
 20
22.37529979860101
 30
0.0
 10
262.5559288356043
 20
22.96569475674954
 30
0.0
 10
262.8633014091636
 20
23.20800781259597
 30
0.0
  0
LINE
  5
215
330
1F
100
AcDbEntity
  8
0
  6
Continuous
 62
     7
370
    15
100
AcDbLine
 10
245.9574665236
 20
20.7136107171
 30
0.0
 11
247.4129885099
 21
19.8733557598
 31
0.0
  0
LINE
  5
216
330
1F
100
AcDbEntity
  8
0
  6
Continuous
 62
     7
370
    15
100
AcDbLine
 10
242.2334315753
 20
22.8634503321
 30
0.0
 11
243.6712762513
 21
22.0334002688
 31
0.0
  0
SPLINE
  5
217
330
1F
100
AcDbEntity
  8
0
  6
Continuous
 62
     7
370
    15
100
AcDbSpline
210
0.0
220
0.0
230
1.0
 70
     8
 71
     3
 72
     9
 73
     5
 74
     0
 42
0.000000001
 43
0.00000001
 40
0.0
 40
0.0
 40
0.0
 40
0.0
 40
0.8654855684553308
 40
1.0
 40
1.0
 40
1.0
 40
1.0
 10
237.8013785511989
 20
28.92880638679798
 30
0.0
 10
237.8393727159977
 20
28.78827817476743
 30
0.0
 10
237.8832719630604
 20
28.62590896012951
 30
0.0
 10
237.9416299511008
 20
28.47682861029002
 30
0.0
 10
237.9494799426882
 20
28.45677515177688
 30
0.0
  0
SPLINE
  5
218
330
1F
100
AcDbEntity
  8
0
  6
Continuous
 62
     7
370
    15
100
AcDbSpline
210
0.0
220
0.0
230
1.0
 70
     8
 71
     3
 72
     9
 73
     5
 74
     0
 42
0.000000001
 43
0.00000001
 40
0.0
 40
0.0
 40
0.0
 40
0.0
 40
0.6083089533864134
 40
1.0
 40
1.0
 40
1.0
 40
1.0
 10
276.2205537376766
 20
55.96052562902353
 30
0.0
 10
276.1678377595617
 20
56.14440953544872
 30
0.0
 10
276.0811778841457
 20
56.4466965647642
 30
0.0
 10
275.9673224712404
 20
56.72381560267609
 30
0.0
 10
275.9227263253969
 20
56.83236064867236
 30
0.0
  0
SPLINE
  5
219
330
1F
100
AcDbEntity
  8
0
  6
Continuous
 62
     7
370
    15
100
AcDbSpline
210
0.0
220
0.0
230
1.0
 70
     8
 71
     3
 72
    27
 73
    23
 74
     0
 42
0.000000001
 43
0.00000001
 40
0.0
 40
0.0
 40
0.0
 40
0.0
 40
0.0147910448042976
 40
0.0653712859640096
 40
0.1165264260733419
 40
0.1687613104903414
 40
0.2222015550385086
 40
0.276618819364111
 40
0.3316156305183879
 40
0.3868317716261255
 40
0.4420022934786439
 40
0.4970601932488548
 40
0.552002068391464
 40
0.6068556716216379
 40
0.6616625288267103
 40
0.71646987790081
 40
0.7713174412066262
 40
0.8262500408354313
 40
0.8813187704230651
 40
0.9365708583458405
 40
0.9890556610264705
 40
1.0
 40
1.0
 40
1.0
 40
1.0
 10
222.3371273104204
 20
74.16412811058049
 30
0.0
 10
222.2680300601523
 20
74.19475685459447
 30
0.0
 10
221.9626441887438
 20
74.33012527583504
 30
0.0
 10
221.3617181144207
 20
74.43521649175628
 30
0.0
 10
220.5500766265892
 20
74.47513746883892
 30
0.0
 10
219.697465695198
 20
74.36986775635614
 30
0.0
 10
218.8173362288126
 20
74.13160065912797
 30
0.0
 10
217.9194459171838
 20
73.75766469499064
 30
0.0
 10
217.0186119272121
 20
73.25380637399665
 30
0.0
 10
216.1300709543729
 20
72.6285577387904
 30
0.0
 10
215.2680446988219
 20
71.8933220907724
 30
0.0
 10
214.4449969802396
 20
71.06061819856363
 30
0.0
 10
213.6718470232228
 20
70.1432915249679
 30
0.0
 10
212.9586900278578
 20
69.15475766298785
 30
0.0
 10
212.3149158586608
 20
68.1089778159939
 30
0.0
 10
211.7492451740393
 20
67.02044687728774
 30
0.0
 10
211.2696081729705
 20
65.90401709772831
 30
0.0
 10
210.8831481418169
 20
64.77472839895938
 30
0.0
 10
210.5958103863918
 20
63.64729941735842
 30
0.0
 10
210.4172423879312
 20
62.55684806103562
 30
0.0
 10
210.3615427902322
 20
61.78519831410829
 30
0.0
 10
210.3588360290135
 20
61.38466522658012
 30
0.0
 10
210.358368992703
 20
61.31555551193313
 30
0.0
  0
SPLINE
  5
21A
330
1F
100
AcDbEntity
  8
0
  6
Continuous
 62
     7
370
    15
100
AcDbSpline
210
0.0
220
0.0
230
1.0
 70
     8
 71
     3
 72
    14
 73
    10
 74
     0
 42
0.000000001
 43
0.00000001
 40
0.0
 40
0.0
 40
0.0
 40
0.0
 40
0.0953174528024731
 40
0.2750317067567173
 40
0.4547527557180948
 40
0.6328810613140445
 40
0.8077519950049141
 40
0.9781912771630799
 40
1.0
 40
1.0
 40
1.0
 40
1.0
 10
210.358368992703
 20
61.31555551193313
 30
0.0
 10
210.3616112985286
 20
61.13098005659922
 30
0.0
 10
210.3709667405682
 20
60.59840075434823
 30
0.0
 10
210.4752667769918
 20
59.76061663426265
 30
0.0
 10
210.7117772604513
 20
58.83920293916321
 30
0.0
 10
211.0644748272302
 20
58.00545017103695
 30
0.0
 10
211.5367339458667
 20
57.29387168010418
 30
0.0
 10
211.9227001814549
 20
56.83871538277005
 30
0.0
 10
212.171718820102
 20
56.66398146862876
 30
0.0
 10
212.1999676358524
 20
56.64415955420205
 30
0.0
  0
LWPOLYLINE
  5
21B
330
1F
100
AcDbEntity
  8
0
  6
Continuous
 62
     7
370
    15
100
AcDbPolyline
 90
       26
 70
   128
 43
0.0
 10
268.3959620064
 20
45.304378718
 10
267.7336349834
 20
45.4146751532
 10
267.1396316238
 20
45.616593045
 10
266.6512739499
 20
45.8974459418
 10
266.2992479953
 20
46.2395866535
 10
266.1056726238
 20
46.6215171566
 10
266.0827100823
 20
47.0192397645
 10
266.231804065
 20
47.40776374
 10
266.5435861177
 20
47.762676869
 10
266.9984659922
 20
48.0616784769
 10
267.5678629494
 20
48.285980633
 10
268.2159969389
 20
48.4214912027
 10
268.9021458217
 20
48.4596941659
 10
269.5831965821
 20
48.3981887038
 10
270.2163535408
 20
48.2408414269
 10
270.7618359995
 20
47.9975371263
 10
271.1853675399
 20
47.6835644197
 10
271.4603360492
 20
47.3186516408
 10
271.5694665877
 20
46.9257260611
 10
271.5058990973
 20
46.529478559
 10
271.273629585
 20
46.1548056609
 10
270.8872509031
 20
45.8252502279
 10
270.3710429292
 20
45.5615182001
 10
269.7574383216
 20
45.3801823132
 10
269.0849951495
 20
45.2926348973
 10
268.3959620064
 20
45.304378718
  0
LWPOLYLINE
  5
21C
330
1F
100
AcDbEntity
  8
0
  6
Continuous
 62
     7
370
    15
100
AcDbPolyline
 90
       11
 70
   128
 43
0.0
 10
268.3573222367
 20
44.9576564816
 10
267.6614759568
 20
45.0714341303
 10
267.0330163961
 20
45.2780396089
 10
266.5084672562
 20
45.5654661142
 10
266.1183137149
 20
45.9170088966
 10
265.8852291303
 20
46.3122382094
 10
265.8227622325
 20
46.7281833467
 10
265.9345400376
 20
47.1406729794
 10
266.2140688029
 20
47.5257333242
 10
266.6451020604
 20
47.8609867341
 10
266.6993274786
 20
47.8931222128
  0
LWPOLYLINE
  5
21D
330
1F
100
AcDbEntity
  8
0
  6
Continuous
 62
     7
370
    15
100
AcDbPolyline
 90
       12
 70
   128
 43
0.0
 10
270.9426570103
 20
47.8931225758
 10
271.1335172027
 20
47.771952338
 10
271.523670744
 20
47.4204095556
 10
271.7567553287
 20
47.0251802428
 10
271.8192222265
 20
46.6092351055
 10
271.7074444214
 20
46.1967454728
 10
271.4279156561
 20
45.811685128
 10
270.9968823985
 20
45.4764317182
 10
270.4393944984
 20
45.2104690152
 10
269.7878509771
 20
45.0292539272
 10
269.0801157463
 20
44.9433188108
 10
268.3573222367
 20
44.9576564816
  0
LWPOLYLINE
  5
21E
330
1F
100
AcDbEntity
  8
0
  6
Continuous
 62
     7
370
    15
100
AcDbPolyline
 90
       21
 70
   128
 43
0.0
 10
268.5505184512
 20
45.8747297596
 10
268.0294751553
 20
45.9718310289
 10
267.5859106086
 20
46.1571299468
 10
267.2632442969
 20
46.412488049
 10
267.0930610849
 20
46.7129090381
 10
267.0920205846
 20
47.0289851284
 10
267.2602238414
 20
47.3297771394
 10
267.5812049917
 20
47.585841913
 10
268.0235464437
 20
47.7721127273
 10
268.5439464239
 20
47.8703574994
 10
269.0914660078
 20
47.8709584051
 10
269.6125093037
 20
47.7738571357
 10
270.0560738503
 20
47.5885582178
 10
270.378740162
 20
47.3332001156
 10
270.5489233741
 20
47.0327791265
 10
270.5499638744
 20
46.7167030362
 10
270.3817619347
 20
46.4159102649
 10
270.0607794672
 20
46.1598462516
 10
269.6184380152
 20
45.9735754374
 10
269.098038035
 20
45.8753306652
 10
268.5505184512
 20
45.8747297596
  0
SPLINE
  5
21F
330
1F
100
AcDbEntity
  8
0
  6
Continuous
 62
     7
370
    15
100
AcDbSpline
210
0.0
220
0.0
230
1.0
 70
     8
 71
     3
 72
     9
 73
     5
 74
     0
 42
0.000000001
 43
0.00000001
 40
0.0
 40
0.0
 40
0.0
 40
0.0
 40
0.7450309256718846
 40
1.0
 40
1.0
 40
1.0
 40
1.0
 10
270.532230587866
 20
46.7036479094778
 30
0.0
 10
270.3759946596968
 20
46.49775548963333
 30
0.0
 10
270.1662907094504
 20
46.22140129714286
 30
0.0
 10
269.9444631360755
 20
46.10927435152502
 30
0.0
 10
269.8879039650316
 20
46.0806854479936
 30
0.0
  0
SPLINE
  5
220
330
1F
100
AcDbEntity
  8
0
  6
Continuous
 62
     7
370
    15
100
AcDbSpline
210
0.0
220
0.0
230
1.0
 70
     8
 71
     3
 72
    10
 73
     6
 74
     0
 42
0.000000001
 43
0.00000001
 40
0.0
 40
0.0
 40
0.0
 40
0.0
 40
0.4391279131077677
 40
0.7513759073743239
 40
1.0
 40
1.0
 40
1.0
 40
1.0
 10
269.9084463639203
 20
47.63644414375381
 30
0.0
 10
269.9977483993044
 20
47.4190146037426
 30
0.0
 10
270.1505498857601
 20
47.04697877308971
 30
0.0
 10
270.3726700907738
 20
46.7786328545978
 30
0.0
 10
270.4832240763935
 20
46.72667836275573
 30
0.0
 10
270.532230587866
 20
46.7036479094778
 30
0.0
  0
SPLINE
  5
221
330
1F
100
AcDbEntity
  8
0
  6
Continuous
 62
     7
370
    15
100
AcDbSpline
210
0.0
220
0.0
230
1.0
 70
     8
 71
     3
 72
    11
 73
     7
 74
     0
 42
0.000000001
 43
0.00000001
 40
0.0
 40
0.0
 40
0.0
 40
0.0
 40
0.1843643475533045
 40
0.5174531312593947
 40
0.8663354762690956
 40
1.0
 40
1.0
 40
1.0
 40
1.0
 10
268.1972073469887
 20
47.790984295452
 30
0.0
 10
268.2965082111327
 20
47.74391063035418
 30
0.0
 10
268.5752147168641
 20
47.6117895574462
 30
0.0
 10
269.0944692154708
 20
47.48531294894476
 30
0.0
 10
269.5779513128709
 20
47.53708411933514
 30
0.0
 10
269.8367575504163
 20
47.61489162053845
 30
0.0
 10
269.9084463639203
 20
47.63644414375381
 30
0.0
  0
SPLINE
  5
222
330
1F
100
AcDbEntity
  8
0
  6
Continuous
 62
     7
370
    15
100
AcDbSpline
210
0.0
220
0.0
230
1.0
 70
     8
 71
     3
 72
    10
 73
     6
 74
     0
 42
0.000000001
 43
0.00000001
 40
0.0
 40
0.0
 40
0.0
 40
0.0
 40
0.4391279577676606
 40
0.7513760169032746
 40
1.0
 40
1.0
 40
1.0
 40
1.0
 10
267.1097538710917
 20
47.01272745253486
 30
0.0
 10
267.2654352274503
 20
47.04025544087751
 30
0.0
 10
267.5318159836232
 20
47.08735758927956
 30
0.0
 10
267.9190439766781
 20
47.42829115987743
 30
0.0
 10
268.1117738390847
 20
47.67958879851706
 30
0.0
 10
268.1972073469887
 20
47.790984295452
 30
0.0
  0
SPLINE
  5
223
330
1F
100
AcDbEntity
  8
0
  6
Continuous
 62
     7
370
    15
100
AcDbSpline
210
0.0
220
0.0
230
1.0
 70
     8
 71
     3
 72
    10
 73
     6
 74
     0
 42
0.000000001
 43
0.00000001
 40
0.0
 40
0.0
 40
0.0
 40
0.0
 40
0.3655481162021735
 40
0.7187593613404509
 40
1.0
 40
1.0
 40
1.0
 40
1.0
 10
267.661512835245
 20
46.13844487685064
 30
0.0
 10
267.5956537887778
 20
46.17711936767122
 30
0.0
 10
267.4661583705848
 20
46.25316312522403
 30
0.0
 10
267.269223040493
 20
46.6118819801608
 30
0.0
 10
267.1587323326921
 20
46.8896140341226
 30
0.0
 10
267.1097538710917
 20
47.01272745253486
 30
0.0
  0
LINE
  5
224
330
1F
100
AcDbEntity
  8
0
  6
Continuous
 62
     7
370
    15
100
AcDbLine
 10
269.9084463639
 20
46.0813188242
 30
0.0
 11
269.9084463639
 21
47.6364441438
 31
0.0
  0
LINE
  5
225
330
1F
100
AcDbEntity
  8
0
  6
Continuous
 62
     7
370
    15
100
AcDbLine
 10
268.197207347
 20
45.9289490809
 30
0.0
 11
268.197207347
 21
47.7909842955
 31
0.0
  0
SPLINE
  5
226
330
1F
100
AcDbEntity
  8
0
  6
Continuous
 62
     7
370
    15
100
AcDbSpline
210
0.0
220
0.0
230
1.0
 70
     8
 71
     3
 72
    12
 73
     8
 74
     0
 42
0.000000001
 43
0.00000001
 40
0.0
 40
0.0
 40
0.0
 40
0.0
 40
0.2499999999999992
 40
0.2499999999999992
 40
0.4999999999999984
 40
0.4999999999999984
 40
1.0
 40
1.0
 40
1.0
 40
1.0
 10
243.0719607402965
 20
37.06998212759773
 30
0.0
 10
243.105892232586
 20
37.05039389404624
 30
0.0
 10
243.1443239416133
 20
37.02320670510984
 30
0.0
 10
243.2185007942782
 20
36.96398277757401
 30
0.0
 10
243.2537170745337
 20
36.93255009855725
 30
0.0
 10
243.3488159917916
 20
36.84055738175526
 30
0.0
 10
243.3973451485535
 20
36.78370071623062
 30
0.0
 10
243.4306867447085
 20
36.73547191022828
 30
0.0
  0
ARC
  5
227
330
1F
100
AcDbEntity
  8
0
  6
Continuous
 62
     7
370
    15
100
AcDbCircle
 10
267.1792575004
 20
52.6165180237
 30
0.0
 40
10.59539591799425
100
AcDbArc
 50
73.7350120919
 51
103.110917164
  0
SPLINE
  5
228
330
1F
100
AcDbEntity
  8
0
  6
Continuous
 62
     7
370
    15
100
AcDbSpline
210
0.0
220
0.0
230
1.0
 70
     8
 71
     3
 72
    12
 73
     8
 74
     0
 42
0.000000001
 43
0.00000001
 40
0.0
 40
0.0
 40
0.0
 40
0.0
 40
0.5
 40
0.5
 40
0.75
 40
0.75
 40
1.0
 40
1.0
 40
1.0
 40
1.0
 10
270.358949563907
 20
62.35428784843959
 30
0.0
 10
270.358949563907
 20
62.4269708456324
 30
0.0
 10
270.3419327958367
 20
62.51055369237268
 30
0.0
 10
270.2875219699553
 20
62.63199787024837
 30
0.0
 10
270.2643767510334
 20
62.67171274792972
 30
0.0
 10
270.2100959391762
 20
62.74044251979552
 30
0.0
 10
270.1788599706187
 20
62.76935211570117
 30
0.0
 10
270.146817529551
 20
62.78784982319478
 30
0.0
  0
LWPOLYLINE
  5
229
330
1F
100
AcDbEntity
  8
0
  6
Continuous
 62
     7
370
    15
100
AcDbPolyline
 90
       16
 70
   128
 43
0.0
 10
243.5451425875
 20
37.2492853666
 10
243.8848132593
 20
38.5914442613
 10
244.4550390462
 20
40.4638861369
 10
245.137209497
 20
42.3391449093
 10
245.926346015
 20
44.2035425999
 10
246.8166968728
 20
46.0434857135
 10
247.8017675041
 20
47.845554971
 10
248.8743751642
 20
49.5966098674
 10
250.0266970028
 20
51.2838795427
 10
251.250329992
 20
52.8950604957
 10
252.5363508538
 20
54.4184021307
 10
253.8753812556
 20
55.8427961056
 10
255.2576562997
 20
57.1578554136
 10
256.6730959745
 20
58.3539890919
 10
258.1113775948
 20
59.422474459
 10
258.7899076115
 20
59.8767782424
  0
LWPOLYLINE
  5
22A
330
1F
100
AcDbEntity
  8
0
  6
Continuous
 62
     7
370
    15
100
AcDbPolyline
 90
       58
 70
   128
 43
0.0
 10
264.4192517622
 20
27.1649688678
 10
264.4771891909
 20
28.4110691417
 10
264.6502981515
 20
29.7089366258
 10
264.9364772285
 20
31.0428168175
 10
265.3322532582
 20
32.3965184568
 10
265.8328208413
 20
33.7536091521
 10
266.4321042461
 20
35.0976151857
 10
267.1228298485
 20
36.41222379
 10
267.8966117429
 20
37.6814755371
 10
268.7440584259
 20
38.8899647103
 10
269.6548824445
 20
40.0230208543
 10
270.6180278243
 20
41.0668910847
 10
271.6218034246
 20
42.008904525
 10
272.6540245257
 20
42.8376247667
 10
273.7021614127
 20
43.5429942001
 10
274.7534911705
 20
44.1164490206
 10
275.7952520296
 20
44.5510288632
 10
276.8147986184
 20
44.8414595835
 10
277.7997546631
 20
44.9842140324
 10
278.7381644526
 20
44.9775599517
 10
279.6186368134
 20
44.8215784491
 10
280.4304838974
 20
44.5181627493
 10
281.1638509153
 20
44.070995748
 10
281.809836321
 20
43.485505324
 10
282.360598825
 20
42.7687994993
 10
282.8094515664
 20
41.9295766956
 10
283.1509477235
 20
40.9780251552
 10
283.3809411002
 20
39.9256947974
 10
283.4966394677
 20
38.7853593318
 10
283.4966394677
 20
37.570861406
 10
283.3809411002
 20
36.2969434487
 10
283.1509477235
 20
34.9790683904
 10
282.8094515664
 20
33.6332337795
 10
282.360598825
 20
32.2757766316
 10
281.809836321
 20
30.9231739552
 10
281.1638509153
 20
29.5918446574
 10
280.4304838974
 20
28.2979501204
 10
279.6186368134
 20
27.0571957291
 10
278.7381644526
 20
25.8846424771
 10
277.7997546631
 20
24.7945235157
 10
276.8147986184
 20
23.8000719216
 10
275.7952520296
 20
22.9133592065
 10
274.7534911705
 20
22.1451475633
 10
273.7021614127
 20
21.5047628828
 10
272.6540245257
 20
20.9999792253
 10
271.6218034246
 20
20.6369223514
 10
270.6180278243
 20
20.4200011522
 10
269.6548824445
 20
20.3518473972
 10
268.7440584259
 20
20.4332885135
 10
267.8966117429
 20
20.6633365732
 10
267.1228298485
 20
21.0391987614
 10
266.4321042461
 20
21.5563125603
 10
265.8328208413
 20
22.2084007026
 10
265.3322532582
 20
22.9875483684
 10
264.9364772285
 20
23.8842967304
 10
264.6502981515
 20
24.8877615928
 10
264.4771891909
 20
25.9857617252
 10
264.4192517622
 20
27.1649688678
  0
LWPOLYLINE
  5
22B
330
1F
100
AcDbEntity
  8
0
  6
Continuous
 62
     7
370
    15
100
AcDbPolyline
 90
       30
 70
   128
 43
0.0
 10
264.0656996307
 20
27.1649684876
 10
264.1247098284
 20
28.4341446221
 10
264.3010245837
 20
29.7560467104
 10
264.5925029684
 20
31.1146283308
 10
264.9956079399
 20
32.4933983219
 10
265.5054451955
 20
33.8756203052
 10
266.1158270509
 20
35.2445160083
 10
266.8193435633
 20
36.5834684912
 10
267.6074547276
 20
37.8762251819
 10
268.4705948555
 20
39.1070934955
 10
269.3982861746
 20
40.2611326501
 10
270.3792675739
 20
41.3243336945
 10
271.4016315807
 20
42.2837913599
 10
272.4529678416
 20
43.1278591335
 10
273.5205147107
 20
43.8462900009
 10
274.5913135548
 20
44.430365069
 10
275.6523663106
 20
44.8729928863
 10
276.6907933705
 20
45.1688013494
 10
277.6939891224
 20
45.314199357
 10
278.6497769137
 20
45.3074221617
 10
279.5465545072
 20
45.1485522219
 10
280.3734355038
 20
44.8395171918
 10
281.1203836851
 20
44.3840693764
 10
281.7783322103
 20
43.7877374314
 10
282.3392935931
 20
43.057758671
 10
282.7964584832
 20
42.2029950282
 10
283.1442786433
 20
41.2338220186
 10
283.3785308273
 20
40.1620038293
 10
283.4963720986
 20
39.0005512488
 10
283.511136008
 20
38.3905799644
  0
LWPOLYLINE
  5
22C
330
1F
100
AcDbEntity
  8
0
  6
Continuous
 62
     7
370
    15
100
AcDbPolyline
 90
       16
 70
   128
 43
0.0
 10
273.7899980345
 20
21.5512503622
 10
273.5205147107
 20
21.3999441057
 10
272.4529678416
 20
20.885811594
 10
271.4016315807
 20
20.5160323582
 10
270.3792675739
 20
20.2950936668
 10
269.3982861746
 20
20.225677696
 10
268.4705948555
 20
20.3086272523
 10
267.6074547276
 20
20.5429351866
 10
266.8193435633
 20
20.9257580955
 10
266.1158270509
 20
21.4524477027
 10
265.5054451955
 20
22.1166115161
 10
264.9956079399
 20
22.9101879339
 10
264.5925029684
 20
23.8235428316
 10
264.3010245837
 20
24.8455906723
 10
264.1247098284
 20
25.9639240772
 10
264.0656996307
 20
27.1649684876
  0
LWPOLYLINE
  5
22D
330
1F
100
AcDbEntity
  8
0
  6
Continuous
 62
     7
370
    15
100
AcDbPolyline
 90
       12
 70
   128
 43
0.0
 10
253.082921722
 20
57.9119766506
 10
254.5332787436
 20
59.1845799613
 10
256.0109107032
 20
60.3257289985
 10
257.5046364616
 20
61.3267880204
 10
259.0031529666
 20
62.1801824751
 10
260.4951206993
 20
62.8794559322
 10
261.9692498606
 20
63.4193137539
 10
263.4143852829
 20
63.7956736339
 10
264.8195918346
 20
64.0056860031
 10
266.1742363267
 20
64.0477615412
 10
267.4680675263
 20
63.921583907
 10
268.6912955106
 20
63.6281053581
  0
LINE
  5
22E
330
1F
100
AcDbEntity
  8
0
  6
Continuous
 62
     7
370
    15
100
AcDbLine
 10
270.1468174969
 20
62.7878504008
 30
0.0
 11
268.6912955106
 21
63.6281053581
 31
0.0
  0
LINE
  5
22F
330
1F
100
AcDbEntity
  8
0
  6
Continuous
 62
     7
370
    15
100
AcDbLine
 10
241.6164385916
 20
37.9102372701
 30
0.0
 11
243.0719605778
 21
37.0699823127
 31
0.0
  0
ARC
  5
230
330
1F
100
AcDbEntity
  8
0
  6
Continuous
 62
     7
370
    15
100
AcDbCircle
 10
280.9491624632
 20
28.6791364051
 30
0.0
 40
40.40144044883903
100
AcDbArc
 50
136.9528122493
 51
166.7921386576
  0
SPLINE
  5
231
330
1F
100
AcDbEntity
  8
0
  6
Continuous
 62
     7
370
    15
100
AcDbSpline
210
0.0
220
0.0
230
1.0
 70
     8
 71
     3
 72
    34
 73
    30
 74
     0
 42
0.000000001
 43
0.00000001
 40
0.0
 40
0.0
 40
0.0
 40
0.0
 40
0.0624999999999988
 40
0.0624999999999988
 40
0.1249999999999975
 40
0.1249999999999975
 40
0.1874999999999963
 40
0.1874999999999963
 40
0.2499999999999956
 40
0.2499999999999956
 40
0.3124999999999949
 40
0.3124999999999949
 40
0.3749999999999942
 40
0.3749999999999942
 40
0.4999999999999938
 40
0.4999999999999938
 40
0.6249999999999947
 40
0.6249999999999947
 40
0.6874999999999953
 40
0.6874999999999953
 40
0.7499999999999958
 40
0.7499999999999958
 40
0.8124999999999963
 40
0.8124999999999963
 40
0.8749999999999976
 40
0.8749999999999976
 40
0.9374999999999988
 40
0.9374999999999988
 40
1.0
 40
1.0
 40
1.0
 40
1.0
 10
251.4241223548286
 20
56.25717901863004
 30
0.0
 10
251.483247768472
 20
56.22760153477181
 30
0.0
 10
251.5460604639025
 20
56.20392551257628
 30
0.0
 10
251.6787694668271
 20
56.16784600215654
 30
0.0
 10
251.7493811631982
 20
56.15539811201729
 30
0.0
 10
251.8946291331756
 20
56.14268821829191
 30
0.0
 10
251.9686115629377
 20
56.14234603839458
 30
0.0
 10
252.1192936277626
 20
56.1533523832172
 30
0.0
 10
252.1967416475627
 20
56.16493904720268
 30
0.0
 10
252.3486742335378
 20
56.19911358994148
 30
0.0
 10
252.4236303141223
 20
56.22162599233147
 30
0.0
 10
252.571565381031
 20
56.27743806492953
 30
0.0
 10
252.6444940941213
 20
56.31088291113583
 30
0.0
 10
252.8511066201313
 20
56.42324517045514
 30
0.0
 10
252.9780317961806
 20
56.51728257147588
 30
0.0
 10
253.1871385488075
 20
56.72588388665179
 30
0.0
 10
253.2716869320054
 20
56.8428079807955
 30
0.0
 10
253.3566604887794
 20
57.02133323076814
 30
0.0
 10
253.3786201893774
 20
57.08254980969482
 30
0.0
 10
253.4077312861172
 20
57.20335579220867
 30
0.0
 10
253.4150857488969
 20
57.26295631865383
 30
0.0
 10
253.4154286839413
 20
57.3806976087871
 30
0.0
 10
253.4081886411059
 20
57.43914899692418
 30
0.0
 10
253.379576790584
 20
57.54991162131564
 30
0.0
 10
253.3582934490245
 20
57.60282406603827
 30
0.0
 10
253.3014652824175
 20
57.70374227334753
 30
0.0
 10
253.2660077934435
 20
57.75125728797864
 30
0.0
 10
253.183602840557
 20
57.83751726586206
 30
0.0
 10
253.1363979379811
 20
57.87676281828213
 30
0.0
 10
253.0829217920922
 20
57.91197594639574
 30
0.0
  0
SPLINE
  5
232
330
1F
100
AcDbEntity
  8
0
  6
Continuous
 62
     7
370
    15
100
AcDbSpline
210
0.0
220
0.0
230
1.0
 70
     8
 71
     3
 72
    48
 73
    44
 74
     0
 42
0.000000001
 43
0.00000001
 40
0.0
 40
0.0
 40
0.0
 40
0.0
 40
0.0312500000000004
 40
0.0312500000000004
 40
0.0625000000000009
 40
0.0625000000000009
 40
0.1250000000000017
 40
0.1250000000000017
 40
0.1562500000000024
 40
0.1562500000000024
 40
0.1875000000000031
 40
0.1875000000000031
 40
0.2187500000000037
 40
0.2187500000000037
 40
0.2500000000000044
 40
0.2500000000000044
 40
0.312500000000005
 40
0.312500000000005
 40
0.3437500000000048
 40
0.3437500000000048
 40
0.3750000000000046
 40
0.3750000000000046
 40
0.4375000000000043
 40
0.4375000000000043
 40
0.5000000000000039
 40
0.5000000000000039
 40
0.5625000000000037
 40
0.5625000000000037
 40
0.6250000000000033
 40
0.6250000000000033
 40
0.687500000000003
 40
0.687500000000003
 40
0.7500000000000026
 40
0.7500000000000026
 40
0.8125000000000022
 40
0.8125000000000022
 40
0.8750000000000019
 40
0.8750000000000019
 40
0.9062500000000014
 40
0.9062500000000014
 40
0.937500000000001
 40
0.937500000000001
 40
1.0
 40
1.0
 40
1.0
 40
1.0
 10
271.3842543966275
 20
45.39310439119689
 30
0.0
 10
271.3049531280409
 20
45.34732474328911
 30
0.0
 10
271.2210695072436
 20
45.3031344117492
 30
0.0
 10
271.0440301931691
 20
45.21800326795149
 30
0.0
 10
270.9502201768937
 20
45.17682460697579
 30
0.0
 10
270.6612412398379
 20
45.06118016314829
 30
0.0
 10
270.4577778487814
 20
44.99388204602931
 30
0.0
 10
270.1371951625817
 20
44.90786282509865
 30
0.0
 10
270.0275239228487
 20
44.88169630834021
 30
0.0
 10
269.8079654257409
 20
44.83564922732448
 30
0.0
 10
269.69748126907
 20
44.8155928079852
 30
0.0
 10
269.4751362505004
 20
44.78139456656134
 30
0.0
 10
269.3632752273786
 20
44.76725321429789
 30
0.0
 10
269.1381618685959
 20
44.74507299772124
 30
0.0
 10
269.0249065436
 20
44.73707545273243
 30
0.0
 10
268.6896003758031
 20
44.72285567443992
 30
0.0
 10
268.4697143900951
 20
44.72605688948156
 30
0.0
 10
268.1448747745006
 20
44.75053083925595
 30
0.0
 10
268.0369590629318
 20
44.76207072266351
 30
0.0
 10
267.826054748415
 20
44.79160755681396
 30
0.0
 10
267.7228869691916
 20
44.80958311390638
 30
0.0
 10
267.4199636937939
 20
44.87309340208662
 30
0.0
 10
267.2267311052789
 20
44.92814845719854
 30
0.0
 10
266.8577370367906
 20
45.06507717358167
 30
0.0
 10
266.6850193725356
 20
45.14603105813696
 30
0.0
 10
266.3684402976497
 20
45.32950487895067
 30
0.0
 10
266.2235094050733
 20
45.43241057808294
 30
0.0
 10
265.961550472522
 20
45.66112261341355
 30
0.0
 10
265.8477556537533
 20
45.78422243284497
 30
0.0
 10
265.6556193553054
 20
46.04446545442714
 30
0.0
 10
265.5769068108447
 20
46.18191162408286
 30
0.0
 10
265.4570616250593
 20
46.47089462074557
 30
0.0
 10
265.4178551168943
 20
46.61778479729374
 30
0.0
 10
265.3810679511702
 20
46.91435275506503
 30
0.0
 10
265.3835725181348
 20
47.06482821329746
 30
0.0
 10
265.4352754018219
 20
47.36336738014002
 30
0.0
 10
265.4835542001137
 20
47.50730937039936
 30
0.0
 10
265.5906541342589
 20
47.71352052110554
 30
0.0
 10
265.6321772602022
 20
47.78063301921139
 30
0.0
 10
265.7276429554519
 20
47.9111955421868
 30
0.0
 10
265.7818899956437
 20
47.97482696089033
 30
0.0
 10
265.9592580391026
 20
48.15418604517865
 30
0.0
 10
266.0979976577821
 20
48.26037214364676
 30
0.0
 10
266.257730233025
 20
48.35258379655422
 30
0.0
  0
SPLINE
  5
233
330
1F
100
AcDbEntity
  8
0
  6
Continuous
 62
     7
370
    15
100
AcDbSpline
210
0.0
220
0.0
230
1.0
 70
     8
 71
     3
 72
    52
 73
    48
 74
     0
 42
0.000000001
 43
0.00000001
 40
0.0
 40
0.0
 40
0.0
 40
0.0
 40
0.0312500000000007
 40
0.0312500000000007
 40
0.0625000000000013
 40
0.0625000000000013
 40
0.093750000000002
 40
0.093750000000002
 40
0.1250000000000026
 40
0.1250000000000026
 40
0.187500000000004
 40
0.187500000000004
 40
0.2500000000000054
 40
0.2500000000000054
 40
0.3125000000000069
 40
0.3125000000000069
 40
0.3750000000000083
 40
0.3750000000000083
 40
0.4375000000000097
 40
0.4375000000000097
 40
0.4687500000000099
 40
0.4687500000000099
 40
0.5000000000000101
 40
0.5000000000000101
 40
0.5625000000000097
 40
0.5625000000000097
 40
0.5937500000000094
 40
0.5937500000000094
 40
0.6250000000000092
 40
0.6250000000000092
 40
0.6875000000000079
 40
0.6875000000000079
 40
0.7187500000000072
 40
0.7187500000000072
 40
0.7500000000000064
 40
0.7500000000000064
 40
0.8125000000000051
 40
0.8125000000000051
 40
0.8437500000000041
 40
0.8437500000000041
 40
0.8750000000000031
 40
0.8750000000000031
 40
0.9375000000000016
 40
0.9375000000000016
 40
0.9687500000000008
 40
0.9687500000000008
 40
1.0
 40
1.0
 40
1.0
 40
1.0
 10
266.257730233025
 20
48.35258379655422
 30
0.0
 10
266.337611957808
 20
48.39869853469165
 30
0.0
 10
266.4233861484975
 20
48.44150334872084
 30
0.0
 10
266.6012921991359
 20
48.5178034218565
 30
0.0
 10
266.6937299557422
 20
48.55155817538757
 30
0.0
 10
266.885336004543
 20
48.61068438085511
 30
0.0
 10
266.9845048995436
 20
48.63605490653048
 30
0.0
 10
267.1895602768663
 20
48.67860009502807
 30
0.0
 10
267.2955999367464
 20
48.69572822377121
 30
0.0
 10
267.61603068856
 20
48.73421543097508
 30
0.0
 10
267.8351788446254
 20
48.74339869206205
 30
0.0
 10
268.2841205307839
 20
48.73279624617659
 30
0.0
 10
268.5106148311934
 20
48.71295719354902
 30
0.0
 10
268.9611438806124
 20
48.64888101797165
 30
0.0
 10
269.1814225472858
 20
48.60527551130294
 30
0.0
 10
269.6107929778416
 20
48.49968360555137
 30
0.0
 10
269.8209326249038
 20
48.43738508228444
 30
0.0
 10
270.2284227483481
 20
48.29666034695425
 30
0.0
 10
270.4211906274215
 20
48.21988986741108
 30
0.0
 10
270.6947713135742
 20
48.09646459786336
 30
0.0
 10
270.7833511265497
 20
48.05392807494802
 30
0.0
 10
270.9552212138867
 20
47.96610484011426
 30
0.0
 10
271.0388753274171
 20
47.92059503381275
 30
0.0
 10
271.2778652851296
 20
47.78205625779384
 30
0.0
 10
271.4219539583466
 20
47.68685804120989
 30
0.0
 10
271.6156661654383
 20
47.53956338051293
 30
0.0
 10
271.6764768318375
 20
47.4897050346456
 30
0.0
 10
271.7903586984145
 20
47.38829293609732
 30
0.0
 10
271.8435861928879
 20
47.33653421153378
 30
0.0
 10
271.9884170296513
 20
47.1812912200794
 30
0.0
 10
272.0662919917513
 20
47.07711317349146
 30
0.0
 10
272.1547375676701
 20
46.91837225565175
 30
0.0
 10
272.179460461407
 20
46.86504073333042
 30
0.0
 10
272.2189028445561
 20
46.75720949316378
 30
0.0
 10
272.2335813649085
 20
46.70258164248884
 30
0.0
 10
272.26109186419
 20
46.54008490799624
 30
0.0
 10
272.2581188245099
 20
46.43243420237931
 30
0.0
 10
272.2199978382943
 20
46.27015170764705
 30
0.0
 10
272.201640103639
 20
46.21592363052449
 30
0.0
 10
272.1527410065856
 20
46.10687625621888
 30
0.0
 10
272.1222939251081
 20
46.05244587873357
 30
0.0
 10
272.0145448726547
 20
45.89216937359442
 30
0.0
 10
271.9205048724782
 20
45.78805770423975
 30
0.0
 10
271.7438444579907
 20
45.63510518780194
 30
0.0
 10
271.6784143778236
 20
45.58430631151796
 30
0.0
 10
271.5383036761711
 20
45.48627120896739
 30
0.0
 10
271.4635709931644
 20
45.43889288774211
 30
0.0
 10
271.3842543966275
 20
45.39310439119689
 30
0.0
  0
LINE
  5
234
330
1F
100
AcDbEntity
  8
0
  6
Continuous
 62
     7
370
    15
100
AcDbLine
 10
276.0688487906
 20
55.4849842922
 30
0.0
 11
276.1731306306
 21
55.665606117
 31
0.0
  0
LINE
  5
235
330
1F
100
AcDbEntity
  8
0
  6
Continuous
 62
     7
370
    15
100
AcDbLine
 10
273.7707405091
 20
54.1583146202
 30
0.0
 11
276.0688487906
 21
55.4849842922
 31
0.0
  0
ARC
  5
236
330
1F
100
AcDbEntity
  8
0
  6
Continuous
 62
     7
370
    15
100
AcDbCircle
 10
274.5988436067
 20
52.8637123373
 30
0.0
 40
1.53679855912836
100
AcDbArc
 50
122.6053519586
 51
177.394632491
  0
LINE
  5
237
330
1F
100
AcDbEntity
  8
0
  6
Continuous
 62
     7
370
    15
100
AcDbLine
 10
273.063633612
 20
49.0728861942
 30
0.0
 11
273.063633612
 21
52.9335699319
 31
0.0
  0
LINE
  5
238
330
1F
100
AcDbEntity
  8
0
  6
Continuous
 62
     7
370
    15
100
AcDbLine
 10
243.4761942946
 20
26.177096248
 30
0.0
 11
243.4306862349
 21
26.058727625
 31
0.0
  0
LINE
  5
239
330
1F
100
AcDbEntity
  8
0
  6
Continuous
 62
     7
370
    15
100
AcDbLine
 10
243.4761942946
 20
26.177096248
 30
0.0
 11
246.6178388219
 21
27.9907290294
 31
0.0
  0
ARC
  5
23A
330
1F
100
AcDbEntity
  8
0
  6
Continuous
 62
     7
370
    15
100
AcDbCircle
 10
245.7897357243
 20
29.2853313123
 30
0.0
 40
1.536798559128215
100
AcDbArc
 50
302.6053519586
 51
357.394632491
  0
LINE
  5
23B
330
1F
100
AcDbEntity
  8
0
  6
Continuous
 62
     7
370
    15
100
AcDbLine
 10
247.3249457189
 20
38.074941686
 30
0.0
 11
247.3249457189
 21
29.2154737177
 31
0.0
  0
ARC
  5
23C
330
1F
100
AcDbEntity
  8
0
  6
Continuous
 62
     7
370
    15
100
AcDbCircle
 10
246.8938722359
 20
38.1448702331
 30
0.0
 40
0.4367085406723195
100
AcDbArc
 50
350.7857695821
 51
129.2035248725
  0
LINE
  5
23D
330
1F
100
AcDbEntity
  8
0
  6
Continuous
 62
     7
370
    15
100
AcDbLine
 10
246.6178388219
 20
38.4832781287
 30
0.0
 11
243.4761942946
 21
36.6696453474
 31
0.0
  0
LINE
  5
23E
330
1F
100
AcDbEntity
  8
0
  6
Continuous
 62
     7
370
    15
100
AcDbLine
 10
243.4306862349
 20
36.7354714831
 30
0.0
 11
243.4761942946
 21
36.6696453474
 31
0.0
  0
LINE
  5
23F
330
1F
100
AcDbEntity
  8
0
  6
Continuous
 62
     7
370
    15
100
AcDbLine
 10
270.3589498294
 20
59.1293270629
 30
0.0
 11
270.3589498294
 21
62.3542882059
 31
0.0
  0
LINE
  5
240
330
1F
100
AcDbEntity
  8
0
  6
Continuous
 62
     7
370
    15
100
AcDbLine
 10
273.1516968178
 20
60.7415455822
 30
0.0
 11
270.3589498294
 21
59.1293270629
 31
0.0
  0
LWPOLYLINE
  5
241
330
1F
100
AcDbEntity
  8
0
  6
Continuous
 62
     7
370
    15
100
AcDbPolyline
 90
       54
 70
   128
 43
0.0
 10
265.6566891613
 20
27.8793262728
 10
265.7150052532
 20
29.0477461774
 10
265.8891369334
 20
30.2670955819
 10
266.1766377093
 20
31.5202559358
 10
266.5734733371
 20
32.7896373503
 10
267.0740725302
 20
34.0574192807
 10
267.6714079604
 20
35.3058056536
 10
268.3570943803
 20
36.5172712477
 10
269.1215058448
 20
37.6748092137
 10
269.9539123591
 20
38.7621723182
 10
270.84262838
 20
39.7640936541
 10
271.7751782759
 20
40.6665102963
 10
272.7384714166
 20
41.4567541138
 10
273.71898492
 20
42.1237317922
 10
274.7029546296
 20
42.6580791899
 10
275.6765678213
 20
43.0522969199
 10
276.6261570624
 20
43.3008500947
 10
277.5383921773
 20
43.4002502485
 10
278.4004674387
 20
43.3491010422
 10
279.2002812682
 20
43.1481206327
 10
279.9266058111
 20
42.8001315811
 10
280.5692451522
 20
42.310017206
 10
281.1191785486
 20
41.6846594023
 10
281.5686852247
 20
40.9328350164
 10
281.9114556655
 20
40.065099485
 10
282.1426778862
 20
39.0936330236
 10
282.2591065796
 20
38.0320734126
 10
282.2591065796
 20
36.895322266
 10
282.1426778862
 20
35.699336947
 10
281.9114556655
 20
34.4609069919
 10
281.5686852247
 20
33.1974171335
 10
281.1191785486
 20
31.9266033864
 10
280.5692451522
 20
30.6663059982
 10
279.9266058111
 20
29.4342160333
 10
279.2002812682
 20
28.2476305145
 10
278.4004674387
 20
27.1232047136
 10
277.5383921773
 20
26.0767245967
 10
276.6261570624
 20
25.1228805057
 10
275.6765678213
 20
24.2750612797
 10
274.7029546296
 20
23.5451691459
 10
273.71898492
 20
22.9434492988
 10
272.7384714166
 20
22.4783501831
 10
271.7751782759
 20
22.1563994141
 10
270.84262838
 20
21.9821168647
 10
269.9539123591
 20
21.9579485237
 10
269.1215058448
 20
22.0842355239
 10
268.3570943803
 20
22.359202799
 10
267.6714079604
 20
22.7789917041
 10
267.0740725302
 20
23.3377092693
 10
266.5734733371
 20
24.0275116739
 10
266.1766377093
 20
24.8387164251
 10
265.8891369334
 20
25.7599354487
 10
265.7150052532
 20
26.7782366946
 10
265.6566891613
 20
27.8793262728
  0
SPLINE
  5
242
330
1F
100
AcDbEntity
  8
0
  6
Continuous
 62
     7
370
    15
100
AcDbSpline
210
0.0
220
0.0
230
1.0
 70
     8
 71
     3
 72
    18
 73
    14
 74
     0
 42
0.000000001
 43
0.00000001
 40
0.0
 40
0.0
 40
0.0
 40
0.0
 40
0.2500000000000003
 40
0.2500000000000003
 40
0.3750000000000003
 40
0.3750000000000003
 40
0.5000000000000002
 40
0.5000000000000002
 40
0.6250000000000001
 40
0.6250000000000001
 40
0.7500000000000001
 40
0.7500000000000001
 40
1.0
 40
1.0
 40
1.0
 40
1.0
 10
268.1635856076828
 20
23.13866786618318
 30
0.0
 10
268.0399779482116
 20
23.09916144190596
 30
0.0
 10
267.9187352573881
 20
23.09311092087362
 30
0.0
 10
267.7412507446678
 20
23.13478818811019
 30
0.0
 10
267.6828010483995
 20
23.15746118603582
 30
0.0
 10
267.571277209211
 20
23.21877862112184
 30
0.0
 10
267.5176983504664
 20
23.25749076092388
 30
0.0
 10
267.4149355970281
 20
23.35103958464072
 30
0.0
 10
267.3653778224279
 20
23.40642570373583
 30
0.0
 10
267.2729991261842
 20
23.53126905398635
 30
0.0
 10
267.2302125384636
 20
23.60044403068093
 30
0.0
 10
267.1116403246441
 20
23.82760613707099
 30
0.0
 10
267.0452337773172
 20
24.0070669762179
 30
0.0
 10
266.9943441196627
 20
24.2058686893078
 30
0.0
  0
LWPOLYLINE
  5
243
330
1F
100
AcDbEntity
  8
0
  6
Continuous
 62
     7
370
    15
100
AcDbPolyline
 90
       14
 70
   128
 43
0.0
 10
279.3778940147
 20
29.6125500704
 10
278.6630511953
 20
28.4619451562
 10
277.8759838241
 20
27.3752042287
 10
277.0283112603
 20
26.3683719646
 10
276.1325476606
 20
25.4563114826
 10
275.2019169281
 20
24.6524864878
 10
274.2501580709
 20
23.9687652574
 10
273.2913216302
 20
23.4152407623
 10
272.339562773
 20
23.0000846065
 10
271.4089320405
 20
22.7294262285
 10
270.5131684409
 20
22.6072600725
 10
269.6654958771
 20
22.6353904267
 10
268.8784285058
 20
22.8134027102
 10
268.1635856864
 20
23.138667673
  0
SPLINE
  5
244
330
1F
100
AcDbEntity
  8
0
  6
Continuous
 62
     7
370
    15
100
AcDbSpline
210
0.0
220
0.0
230
1.0
 70
     8
 71
     3
 72
    18
 73
    14
 74
     0
 42
0.000000001
 43
0.00000001
 40
0.0
 40
0.0
 40
0.0
 40
0.0
 40
0.2500000000000003
 40
0.2500000000000003
 40
0.3750000000000006
 40
0.3750000000000006
 40
0.5000000000000009
 40
0.5000000000000009
 40
0.6250000000000012
 40
0.6250000000000012
 40
0.7500000000000014
 40
0.7500000000000014
 40
1.0
 40
1.0
 40
1.0
 40
1.0
 10
280.5471354466014
 20
32.02972858680896
 30
0.0
 10
280.5602711790521
 20
31.80917167950471
 30
0.0
 10
280.5436831499863
 20
31.58632944337976
 30
0.0
 10
280.4740607394073
 20
31.24829727084886
 30
0.0
 10
280.4431033007675
 20
31.13489401221111
 30
0.0
 10
280.3678506542157
 20
30.91416171905057
 30
0.0
 10
280.3234029697651
 20
30.80588399941115
 30
0.0
 10
280.2208604156367
 20
30.59350193142313
 30
0.0
 10
280.1622051305483
 20
30.48857386350472
 30
0.0
 10
280.0335077869966
 20
30.28776435113955
 30
0.0
 10
279.9637248766556
 20
30.19201519679392
 30
0.0
 10
279.7385284126045
 20
29.9183349829019
 30
0.0
 10
279.5655507934329
 20
29.75273856035018
 30
0.0
 10
279.3778939585812
 20
29.61255027669515
 30
0.0
  0
LWPOLYLINE
  5
245
330
1F
100
AcDbEntity
  8
0
  6
Continuous
 62
     7
370
    15
100
AcDbPolyline
 90
        9
 70
   128
 43
0.0
 10
280.5471358374
 20
41.370090579
 10
281.0283106018
 20
40.5562178147
 10
281.3783546666
 20
39.6019873121
 10
281.5909433705
 20
38.524640499
 10
281.6622360819
 20
37.3436433044
 10
281.5909433705
 20
36.0803332974
 10
281.3783546666
 20
34.7575367914
 10
281.0283106018
 20
33.3991540141
 10
280.5471358374
 20
32.0297286921
  0
SPLINE
  5
246
330
1F
100
AcDbEntity
  8
0
  6
Continuous
 62
     7
370
    15
100
AcDbSpline
210
0.0
220
0.0
230
1.0
 70
     8
 71
     3
 72
    18
 73
    14
 74
     0
 42
0.000000001
 43
0.00000001
 40
0.0
 40
0.0
 40
0.0
 40
0.0
 40
0.2499999999999994
 40
0.2499999999999994
 40
0.3749999999999996
 40
0.3749999999999996
 40
0.4999999999999999
 40
0.4999999999999999
 40
0.6250000000000001
 40
0.6250000000000001
 40
0.7500000000000003
 40
0.7500000000000003
 40
1.0
 40
1.0
 40
1.0
 40
1.0
 10
279.3778939585812
 20
42.43729121195084
 30
0.0
 10
279.5655181579016
 20
42.43984167440288
 30
0.0
 10
279.7349733656893
 20
42.4180597018231
 30
0.0
 10
279.9619763884533
 20
42.3477960072175
 30
0.0
 10
280.0329957797434
 20
42.31786667881111
 30
0.0
 10
280.1610889099551
 20
42.24698399561944
 30
0.0
 10
280.2188287745818
 20
42.20586975825176
 30
0.0
 10
280.32169195239
 20
42.11226296078019
 30
0.0
 10
280.3671041493224
 20
42.05927003273218
 30
0.0
 10
280.4428921077016
 20
41.94400431158531
 30
0.0
 10
280.4733359039424
 20
41.88195467674482
 30
0.0
 10
280.542961232526
 20
41.68304900574635
 30
0.0
 10
280.5602734638938
 20
41.53192971193587
 30
0.0
 10
280.5471354466014
 20
41.37009038882621
 30
0.0
  0
LWPOLYLINE
  5
247
330
1F
100
AcDbEntity
  8
0
  6
Continuous
 62
     7
370
    15
100
AcDbPolyline
 90
       14
 70
   128
 43
0.0
 10
268.1635856864
 20
35.9634089298
 10
268.8784285058
 20
37.1140138441
 10
269.6654958771
 20
38.2007547716
 10
270.5131684409
 20
39.2075870357
 10
271.4089320405
 20
40.1196475177
 10
272.339562773
 20
40.9234725124
 10
273.2913216302
 20
41.6071937429
 10
274.2501580709
 20
42.160718238
 10
275.2019169281
 20
42.5758743938
 10
276.1325476606
 20
42.8465327718
 10
277.0283112603
 20
42.9686989278
 10
277.8759838241
 20
42.9405685736
 10
278.6630511953
 20
42.7625562901
 10
279.3778940147
 20
42.4372913273
  0
SPLINE
  5
248
330
1F
100
AcDbEntity
  8
0
  6
Continuous
 62
     7
370
    15
100
AcDbSpline
210
0.0
220
0.0
230
1.0
 70
     8
 71
     3
 72
    18
 73
    14
 74
     0
 42
0.000000001
 43
0.00000001
 40
0.0
 40
0.0
 40
0.0
 40
0.0
 40
0.2499999999999997
 40
0.2499999999999997
 40
0.3749999999999997
 40
0.3749999999999997
 40
0.4999999999999998
 40
0.4999999999999998
 40
0.6249999999999998
 40
0.6249999999999998
 40
0.7499999999999999
 40
0.7499999999999999
 40
1.0
 40
1.0
 40
1.0
 40
1.0
 10
266.9943441196627
 20
33.54623049132506
 30
0.0
 10
267.0452249270612
 20
33.72983143680415
 30
0.0
 10
267.1100254730911
 20
33.92484117931696
 30
0.0
 10
267.2291663937139
 20
34.23428692447884
 30
0.0
 10
267.2726935273755
 20
34.34043385263582
 30
0.0
 10
267.3645154649505
 20
34.55160089769071
 30
0.0
 10
267.4131241552831
 20
34.65747651976449
 30
0.0
 10
267.5157671337814
 20
34.86980061399777
 30
0.0
 10
267.570276841202
 20
34.9771218729633
 30
0.0
 10
267.6823834468892
 20
35.18750901443212
 30
0.0
 10
267.7398235657503
 20
35.29038351063182
 30
0.0
 10
267.9160731445655
 20
35.59232015991544
 30
0.0
 10
268.0399564477781
 20
35.7862581278036
 30
0.0
 10
268.1635856076828
 20
35.96340880143886
 30
0.0
  0
LWPOLYLINE
  5
249
330
1F
100
AcDbEntity
  8
0
  6
Continuous
 62
     7
370
    15
100
AcDbPolyline
 90
        9
 70
   128
 43
0.0
 10
266.9943438637
 20
24.2058684213
 10
266.5131690994
 20
25.0197411855
 10
266.1631250345
 20
25.9739716882
 10
265.9505363306
 20
27.0513185013
 10
265.8792436193
 20
28.2323156958
 10
265.9505363306
 20
29.4956257028
 10
266.1631250345
 20
30.8184222089
 10
266.5131690994
 20
32.1768049862
 10
266.9943438637
 20
33.5462303082
  0
SPLINE
  5
24A
330
1F
100
AcDbEntity
  8
0
  6
Continuous
 62
     7
370
    15
100
AcDbSpline
210
0.0
220
0.0
230
1.0
 70
     8
 71
     3
 72
     8
 73
     4
 74
     0
 42
0.000000001
 43
0.00000001
 40
0.0
 40
0.0
 40
0.0
 40
0.0
 40
1.0
 40
1.0
 40
1.0
 40
1.0
 10
240.543884268068
 20
39.0017510551292
 30
0.0
 10
240.2568171383957
 20
38.95429905540585
 30
0.0
 10
239.9697040198102
 20
38.90694162270307
 30
0.0
 10
239.6825491934125
 20
38.85966995379099
 30
0.0
  0
SPLINE
  5
24B
330
1F
100
AcDbEntity
  8
0
  6
Continuous
 62
     7
370
    15
100
AcDbSpline
210
0.0
220
0.0
230
1.0
 70
     8
 71
     3
 72
     8
 73
     4
 74
     0
 42
0.000000001
 43
0.00000001
 40
0.0
 40
0.0
 40
0.0
 40
0.0
 40
0.0011862984959113
 40
0.0011862984959113
 40
0.0011862984959113
 40
0.0011862984959113
 10
239.3302481061371
 20
39.23002685345317
 30
0.0
 10
239.4479589739816
 20
39.10647690234072
 30
0.0
 10
239.5653987244176
 20
38.98302185322544
 30
0.0
 10
239.6825491934125
 20
38.85966995379099
 30
0.0
  0
LWPOLYLINE
  5
24C
330
1F
100
AcDbEntity
  8
0
  6
Continuous
 62
     7
370
    15
100
AcDbPolyline
 90
       24
 70
   128
 43
0.0
 10
239.3302483193
 20
39.2300268218
 10
239.8009074449
 20
41.0913870689
 10
240.3860413624
 20
42.9673051425
 10
241.0814762167
 20
44.8444007091
 10
241.8822531675
 20
46.709287806
 10
242.7826613169
 20
48.5486641915
 10
243.7762772218
 20
50.3494132441
 10
244.8560149433
 20
52.0986891289
 10
246.014174779
 20
53.7840179353
 10
247.242495288
 20
55.3933786608
 10
248.5322165113
 20
56.9152944609
 10
249.8741405578
 20
58.3389086899
 10
251.2586954829
 20
59.6540704464
 10
252.6760070705
 20
60.8513988263
 10
254.1159668268
 20
61.9223525936
 10
255.5683050591
 20
62.859296702
 10
257.0226632531
 20
63.655545599
 10
258.4686687774
 20
64.3054230816
 10
259.8960088453
 20
64.8042928267
 10
261.2945028528
 20
65.1485971084
 10
262.6541773079
 20
65.3358802822
 10
263.9653348135
 20
65.3648073149
 10
265.218623379
 20
65.2351703369
 10
266.4051052383
 20
64.9478949098
  0
LINE
  5
24D
330
1F
100
AcDbEntity
  8
0
  6
Continuous
 62
     7
370
    15
100
AcDbLine
 10
266.7019395655
 20
64.0138891596
 30
0.0
 11
266.4051052383
 21
64.9478949098
 31
0.0
  0
LWPOLYLINE
  5
24E
330
1F
100
AcDbEntity
  8
0
  6
Continuous
 62
     7
370
    15
100
AcDbPolyline
 90
       23
 70
   128
 43
0.0
 10
240.5438842736
 20
39.0017510294
 10
240.9951334584
 20
40.8157586935
 10
241.5608692889
 20
42.6450568887
 10
242.2368652263
 20
44.4759797331
 10
243.0180715515
 20
46.2948477335
 10
243.8986509257
 20
48.0880719658
 10
244.8720244896
 20
49.8422559727
 10
245.930921253
 20
51.5442942385
 10
247.0674294624
 20
53.1814718058
 10
248.2730585033
 20
54.741554764
 10
249.5388014625
 20
56.2128902447
 10
250.8552009823
 20
57.5844839825
 10
252.212423347
 20
58.8460902331
 10
253.6003284527
 20
59.9882841054
 10
255.0085471046
 20
61.0025305192
 10
256.4265586633
 20
61.8812533638
 10
257.8437693083
 20
62.6178867628
 10
259.2495907759
 20
63.206928133
 10
260.6335207423
 20
63.6439769838
 10
261.9852195649
 20
63.9257670515
 10
263.2945884636
 20
64.0501947029
 10
264.5518460769
 20
64.0163281478
 10
264.7349155232
 20
63.9976442675
  0
LINE
  5
24F
330
1F
100
AcDbEntity
  8
0
  6
Continuous
 62
     7
370
    15
100
AcDbLine
 10
237.8924036432
 20
40.0600768851
 30
0.0
 11
239.3302483193
 21
39.2300268218
 31
0.0
  0
ARC
  5
250
330
1F
100
AcDbEntity
  8
0
  6
Continuous
 62
     7
370
    15
100
AcDbCircle
 10
261.9997051518
 20
55.6066538325
 30
0.0
 40
10.59535504754534
100
AcDbArc
 50
73.7349734435
 51
103.1105571538
  0
LINE
  5
251
330
1F
100
AcDbEntity
  8
0
  6
Continuous
 62
     7
370
    15
100
AcDbLine
 10
266.4051052383
 20
64.9478949098
 30
0.0
 11
264.9672605623
 21
65.7779449732
 31
0.0
  0
LINE
  5
252
330
1F
100
AcDbEntity
  8
0
  6
Continuous
 62
     7
370
    15
100
AcDbLine
 10
241.7964751111
 20
38.6754090279
 30
0.0
 11
241.1703714934
 21
39.0368509529
 31
0.0
  0
SPLINE
  5
253
330
1F
100
AcDbEntity
  8
0
  6
Continuous
 62
     7
370
    15
100
AcDbSpline
210
0.0
220
0.0
230
1.0
 70
     8
 71
     3
 72
    11
 73
     7
 74
     0
 42
0.000000001
 43
0.00000001
 40
0.0
 40
0.0
 40
0.0
 40
0.0
 40
0.3165694752064712
 40
0.6331520400060429
 40
0.9494411625907934
 40
1.0
 40
1.0
 40
1.0
 40
1.0
 10
252.3908977990059
 20
57.01949770088292
 30
0.0
 10
252.2573076188022
 20
56.97231903796286
 30
0.0
 10
251.9901217346749
 20
56.87795976136769
 30
0.0
 10
251.6741715354762
 20
56.6181440621745
 30
0.0
 10
251.4934688445195
 20
56.39495267670202
 30
0.0
 10
251.4585338809694
 20
56.26620349920422
 30
0.0
 10
251.4537191584287
 20
56.24845933965707
 30
0.0
  0
SPLINE
  5
254
330
1F
100
AcDbEntity
  8
0
  6
Continuous
 62
     7
370
    15
100
AcDbSpline
210
0.0
220
0.0
230
1.0
 70
     8
 71
     3
 72
    14
 73
    10
 74
     0
 42
0.000000001
 43
0.00000001
 40
0.0
 40
0.0
 40
0.0
 40
0.0
 40
0.25
 40
0.25
 40
0.5
 40
0.5
 40
0.75
 40
0.75
 40
1.0
 40
1.0
 40
1.0
 40
1.0
 10
241.1703713808017
 20
39.03685112236125
 30
0.0
 10
241.1327373873436
 20
39.05857676434129
 30
0.0
 10
241.0869634306545
 20
39.07578852545279
 30
0.0
 10
240.9870275531445
 20
39.09819385908529
 30
0.0
 10
240.9325936843046
 20
39.10336874268512
 30
0.0
 10
240.8263780338127
 20
39.10142654837036
 30
0.0
 10
240.7730617338626
 20
39.09433814545213
 30
0.0
 10
240.6755686665619
 20
39.06960470916744
 30
0.0
 10
240.6306569760323
 20
39.05184387318139
 30
0.0
 10
240.5929037104323
 20
39.0300493768594
 30
0.0
  0
LINE
  5
255
330
1F
100
AcDbEntity
  8
0
  6
Continuous
 62
     7
370
    15
100
AcDbLine
 10
240.5929036926
 20
39.0300493377
 30
0.0
 11
240.5438842736
 21
39.0017510294
 31
0.0
  0
SPLINE
  5
256
330
1F
100
AcDbEntity
  8
0
  6
Continuous
 62
     7
370
    15
100
AcDbSpline
210
0.0
220
0.0
230
1.0
 70
     8
 71
     3
 72
    10
 73
     6
 74
     0
 42
0.000000001
 43
0.00000001
 40
0.0
 40
0.0
 40
0.0
 40
0.0
 40
0.5
 40
0.5
 40
1.0
 40
1.0
 40
1.0
 40
1.0
 10
237.7903910777821
 20
40.08952506403789
 30
0.0
 10
237.7977073622043
 20
40.09389306393108
 30
0.0
 10
237.8095312224127
 20
40.09442511651934
 30
0.0
 10
237.8436825866905
 20
40.08519506688103
 30
0.0
 10
237.8659395500833
 20
40.07535418956473
 30
0.0
 10
237.892403568105
 20
40.06007683714841
 30
0.0
  0
ARC
  5
257
330
1F
100
AcDbEntity
  8
0
  6
Continuous
 62
     7
370
    15
100
AcDbCircle
 10
279.6604522431
 20
40.6373585885
 30
0.0
 40
1.821976129508538
100
AcDbArc
 50
98.9216324289
 51
121.0578987032
  0
LINE
  5
258
330
1F
100
AcDbEntity
  8
0
  6
Continuous
 62
     7
370
    15
100
AcDbLine
 10
277.0235750082
 20
41.2185411768
 30
0.0
 11
278.7204874717
 21
42.1981478905
 31
0.0
  0
LWPOLYLINE
  5
259
330
1F
100
AcDbEntity
  8
0
  6
Continuous
 62
     7
370
    15
100
AcDbPolyline
 90
        9
 70
   128
 43
0.0
 10
270.517904693
 20
37.462897645
 10
271.2817307114
 20
38.3358548625
 10
272.0876438155
 20
39.1150032272
 10
272.9220162498
 20
39.7871675723
 10
273.7707398506
 20
40.3409821074
 10
274.6194634514
 20
40.7670829837
 10
275.4538358856
 20
41.0582645458
 10
276.2597489897
 20
41.2096036451
 10
277.0235750082
 20
41.2185411768
  0
LINE
  5
25A
330
1F
100
AcDbEntity
  8
0
  6
Continuous
 62
     7
370
    15
100
AcDbLine
 10
268.8209922295
 20
36.4832909313
 30
0.0
 11
270.517904693
 21
37.462897645
 31
0.0
  0
ARC
  5
25B
330
1F
100
AcDbEntity
  8
0
  6
Continuous
 62
     7
370
    15
100
AcDbCircle
 10
270.4097288954
 20
33.798689032
 30
0.0
 40
3.119482577506411
100
AcDbArc
 50
120.6168768957
 51
136.0575441067
  0
ARC
  5
25C
330
1F
100
AcDbEntity
  8
0
  6
Continuous
 62
     7
370
    15
100
AcDbCircle
 10
278.3801440072
 20
29.9634456641
 30
0.0
 40
11.58015442641815
100
AcDbArc
 50
145.7999476878
 51
177.8323383693
  0
LWPOLYLINE
  5
25D
330
1F
100
AcDbEntity
  8
0
  6
Continuous
 62
     7
370
    15
100
AcDbPolyline
 90
       32
 70
   128
 43
0.0
 10
274.6014741557
 20
40.7593873627
 10
274.8934207655
 20
40.7668448245
 10
275.5848248334
 20
40.6787226227
 10
276.2074230187
 20
40.4398231506
 10
276.7479464727
 20
40.055238287
 10
277.1948739592
 20
39.5331646214
 10
277.5386806198
 20
38.8847295704
 10
277.7720388296
 20
38.1237531432
 10
277.8899746021
 20
37.2664542937
 10
277.8899746021
 20
36.3311048997
 10
277.7720388296
 20
35.3376403057
 10
277.5386806198
 20
34.3072342243
 10
277.1948739592
 20
33.2618484524
 10
276.7479464727
 20
32.2237632945
 10
276.2074230187
 20
31.2151033347
 10
275.5848248334
 20
30.2573672988
 10
274.8934207655
 20
29.3709669519
 10
274.14794723
 20
28.5747947071
 10
273.3642926834
 20
27.8858194207
 10
272.5591593577
 20
27.3187257154
 10
271.7497072561
 20
26.8855997171
 10
270.953188454
 20
26.5956730741
 10
270.1865794265
 20
26.4551251526
 10
269.4662189919
 20
26.4669512136
 10
268.8074604569
 20
26.6308996242
 10
268.2243439905
 20
26.9434755004
 10
267.7292976446
 20
27.3980171618
 10
267.3328729486
 20
27.9848368421
 10
267.0435186992
 20
28.6914277461
 10
266.8674018366
 20
29.5027295633
 10
266.8082760643
 20
30.4014512018
 10
266.8082760643
 20
30.4014512018
  0
LINE
  5
25E
330
1F
100
AcDbEntity
  8
0
  6
Continuous
 62
     7
370
    15
100
AcDbLine
 10
267.4067784353
 20
24.1942193555
 30
0.0
 11
269.1036908988
 21
25.1738260691
 31
0.0
  0
LINE
  5
25F
330
1F
100
AcDbEntity
  8
0
  6
Continuous
 62
     7
370
    15
100
AcDbLine
 10
267.0465838947
 20
24.0274275575
 30
0.0
 11
267.4067784353
 21
24.1942193555
 31
0.0
  0
ARC
  5
260
330
1F
100
AcDbEntity
  8
0
  6
Continuous
 62
     7
370
    15
100
AcDbCircle
 10
276.7550171789
 20
41.9219661373
 30
0.0
 40
2.392071943297689
100
AcDbArc
 50
346.7587053597
 51
10.8660999186
  0
LWPOLYLINE
  5
261
330
1F
100
AcDbEntity
  8
0
  6
Continuous
 62
     7
370
    15
100
AcDbPolyline
 90
        9
 70
   128
 43
0.0
 10
279.0834936681
 20
33.6015108865
 10
279.4277227849
 20
34.7251750567
 10
279.676957515
 20
35.83378242
 10
279.8278504767
 20
36.9124403854
 10
279.8783746699
 20
37.9466585225
 10
279.8278504767
 20
38.9225426679
 10
279.676957515
 20
39.826983328
 10
279.4277227849
 20
40.6478303971
 10
279.0834936681
 20
41.3740560887
  0
ARC
  5
262
330
1F
100
AcDbEntity
  8
0
  6
Continuous
 62
     7
370
    15
100
AcDbCircle
 10
275.3430899403
 20
33.1279014916
 30
0.0
 40
3.770268678167588
100
AcDbArc
 50
301.3793039235
 51
7.2163813133
  0
LINE
  5
263
330
1F
100
AcDbEntity
  8
0
  6
Continuous
 62
     7
370
    15
100
AcDbLine
 10
275.609361214
 20
28.929469601
 30
0.0
 11
277.3062736775
 21
29.9090763146
 31
0.0
  0
LWPOLYLINE
  5
264
330
1F
100
AcDbEntity
  8
0
  6
Continuous
 62
     7
370
    15
100
AcDbPolyline
 90
        9
 70
   128
 43
0.0
 10
275.609361214
 20
28.929469601
 10
274.8455351955
 20
28.0565123834
 10
274.0396220915
 20
27.2773640187
 10
273.2052496572
 20
26.6051996736
 10
272.3565260564
 20
26.0513851385
 10
271.5078024556
 20
25.6252842622
 10
270.6734300213
 20
25.3341027001
 10
269.8675169173
 20
25.1827636008
 10
269.1036908988
 20
25.1738260691
  0
ARC
  5
265
330
1F
100
AcDbEntity
  8
0
  6
Continuous
 62
     7
370
    15
100
AcDbCircle
 10
269.6923468077
 20
24.4494490102
 30
0.0
 40
2.70897607752888
100
AcDbArc
 50
167.8781416141
 51
185.1587809378
  0
LWPOLYLINE
  5
266
330
1F
100
AcDbEntity
  8
0
  6
Continuous
 62
     7
370
    15
100
AcDbPolyline
 90
        9
 70
   128
 43
0.0
 10
267.0437722389
 20
25.0183111573
 10
266.699543122
 20
25.7445368488
 10
266.4503083919
 20
26.5653839179
 10
266.2994154302
 20
27.469824578
 10
266.248891237
 20
28.4457087234
 10
266.2994154302
 20
29.4799268605
 10
266.4503083919
 20
30.5585848259
 10
266.699543122
 20
31.6671921892
 10
267.0437722389
 20
32.7908563594
  0
ARC
  5
267
330
1F
100
AcDbEntity
  8
0
  6
Continuous
 62
     7
370
    15
100
AcDbCircle
 10
269.1643104117
 20
33.3089192874
 30
0.0
 40
2.182904335877888
100
AcDbArc
 50
173.7588441556
 51
193.7288526261
  0
LWPOLYLINE
  5
268
330
1F
100
AcDbEntity
  8
0
  6
Continuous
 62
     7
370
    15
100
AcDbPolyline
 90
       28
 70
   128
 43
0.0
 10
274.4508158005
 20
40.6926426872
 10
274.5839130786
 20
40.6836629149
 10
275.2388166586
 20
40.5461224152
 10
275.8198573927
 20
40.2589864989
 10
276.3140555333
 20
39.8286687019
 10
276.7103715695
 20
39.2647817409
 10
276.9999526874
 20
38.5799221834
 10
277.1763300044
 20
37.7893885833
 10
277.2355634487
 20
36.9108401142
 10
277.1763300044
 20
35.9639021659
 10
276.9999526874
 20
34.9697276502
 10
276.7103715695
 20
33.9505248506
 10
276.3140555333
 20
32.929061134
 10
275.8198573927
 20
31.9281543093
 10
275.2388166586
 20
30.9701630409
 10
274.5839130786
 20
30.0764869626
 10
273.8697760542
 20
29.2670894189
 10
273.1123581677
 20
28.5600511997
 10
272.328578868
 20
27.9711663635
 10
271.5359465487
 20
27.5135894653
 10
270.7521672491
 20
27.1975419842
 10
269.9947493626
 20
27.0300841258
 10
269.2806123382
 20
27.0149566117
 10
268.6257087582
 20
27.1524971113
 10
268.0446680241
 20
27.4396330277
 10
267.5504698835
 20
27.8699508246
 10
267.1541538473
 20
28.4338377856
 10
267.0812286041
 20
28.5742047852
  0
SPLINE
  5
269
330
1F
100
AcDbEntity
  8
0
  6
Continuous
 62
     7
370
    15
100
AcDbSpline
210
0.0
220
0.0
230
1.0
 70
     8
 71
     3
 72
    14
 73
    10
 74
     0
 42
0.000000001
 43
0.00000001
 40
0.0
 40
0.0
 40
0.0
 40
0.0
 40
0.25
 40
0.25
 40
0.5
 40
0.5
 40
0.75
 40
0.75
 40
1.0
 40
1.0
 40
1.0
 40
1.0
 10
252.8079766540316
 20
57.32594951002117
 30
0.0
 10
252.8228175461608
 20
57.28743149118558
 30
0.0
 10
252.8221837782568
 20
57.24951285303211
 30
0.0
 10
252.7892481732964
 20
57.18357190326283
 30
0.0
 10
252.7571123279544
 20
57.15529834572087
 30
0.0
 10
252.67220975255
 20
57.10737931953337
 30
0.0
 10
252.6197928400569
 20
57.08750222208563
 30
0.0
 10
252.5084571757617
 20
57.05164529606925
 30
0.0
 10
252.4503024990508
 20
57.03577327238582
 30
0.0
 10
252.3908975433194
 20
57.01949792683109
 30
0.0
  0
LINE
  5
26A
330
1F
100
AcDbEntity
  8
0
  6
Continuous
 62
     7
370
    15
100
AcDbLine
 10
252.7918496592
 20
57.3678053526
 30
0.0
 11
252.8079767557
 21
57.325949863
 31
0.0
  0
SPLINE
  5
26B
330
1F
100
AcDbEntity
  8
0
  6
Continuous
 62
     7
370
    15
100
AcDbSpline
210
0.0
220
0.0
230
1.0
 70
     8
 71
     3
 72
    10
 73
     6
 74
     0
 42
0.000000001
 43
0.00000001
 40
0.0
 40
0.0
 40
0.0
 40
0.0
 40
0.5
 40
0.5
 40
1.0
 40
1.0
 40
1.0
 40
1.0
 10
253.0829217920922
 20
57.91197594639575
 30
0.0
 10
253.0549067423544
 20
57.83994984370772
 30
0.0
 10
253.0170888539046
 20
57.75900335840427
 30
0.0
 10
252.9211131060696
 20
57.57860832206436
 30
0.0
 10
252.86308132877
 20
57.47928211508955
 30
0.0
 10
252.7918495911799
 20
57.36780565352549
 30
0.0
  0
LINE
  5
26C
330
1F
100
AcDbEntity
  8
0
  6
Continuous
 62
     7
370
    15
100
AcDbLine
 10
243.4761942946
 20
36.6696453474
 30
0.0
 11
241.6483401339
 21
37.7248430939
 31
0.0
  0
SPLINE
  5
26D
330
1F
100
AcDbEntity
  8
0
  6
Continuous
 62
     7
370
    15
100
AcDbSpline
210
0.0
220
0.0
230
1.0
 70
     8
 71
     3
 72
     8
 73
     4
 74
     0
 42
0.000000001
 43
0.00000001
 40
0.0000000000000004
 40
0.0000000000000004
 40
0.0000000000000004
 40
0.0000000000000004
 40
0.0011862984959128
 40
0.0011862984959128
 40
0.0011862984959128
 40
0.0011862984959128
 10
241.6483398663835
 20
37.72484315375246
 30
0.0
 10
241.6372776671259
 20
37.78695159867124
 30
0.0
 10
241.6266516605521
 20
37.84874438597286
 30
0.0
 10
241.6164385327347
 20
37.91023721269075
 30
0.0
  0
LINE
  5
26E
330
1F
100
AcDbEntity
  8
0
  6
Continuous
 62
     7
370
    15
100
AcDbLine
 10
241.7211243662
 20
38.5100179891
 30
0.0
 11
241.7012310537
 21
38.2806722326
 31
0.0
  0
ARC
  5
26F
330
1F
100
AcDbEntity
  8
0
  6
Continuous
 62
     7
370
    15
100
AcDbCircle
 10
257.7039075282
 20
36.8533720515
 30
0.0
 40
16.06296283249491
100
AcDbArc
 50
176.9225000953
 51
185.727139394
  0
LWPOLYLINE
  5
270
330
1F
100
AcDbEntity
  8
0
  6
Continuous
 62
     7
370
    15
100
AcDbPolyline
 90
        3
 70
   128
 43
0.0
 10
240.7223369936
 20
37.6098901782
 10
240.7817943431
 20
39.0418252916
 10
240.7842454457
 20
39.0716840667
  0
ARC
  5
271
330
1F
100
AcDbEntity
  8
0
  6
Continuous
 62
     7
370
    15
100
AcDbCircle
 10
252.3964256281
 20
37.3031534859
 30
0.0
 40
11.6781176926974
100
AcDbArc
 50
178.4948996252
 51
203.9177321152
  0
LINE
  5
272
330
1F
100
AcDbEntity
  8
0
  6
Continuous
 62
     7
370
    15
100
AcDbLine
 10
238.2259263081
 20
39.7005605411
 30
0.0
 11
237.7903904891
 21
40.0895247108
 31
0.0
  0
LINE
  5
273
330
1F
100
AcDbEntity
  8
0
  6
Continuous
 62
     7
370
    15
100
AcDbLine
 10
239.6825495454
 20
38.8596698451
 30
0.0
 11
238.2259263081
 21
39.7005605411
 31
0.0
  0
ARC
  5
274
330
1F
100
AcDbEntity
  8
0
  6
Continuous
 62
     7
370
    15
100
AcDbCircle
 10
267.8810274581
 20
24.9386004117
 30
0.0
 40
1.821976129509219
100
AcDbArc
 50
278.9216324289
 51
301.0578987032
  0
LINE
  5
275
330
1F
100
AcDbEntity
  8
0
  6
Continuous
 62
     7
370
    15
100
AcDbLine
 10
241.7211243662
 20
38.5100179891
 30
0.0
 11
241.7211243662
 21
38.3648681519
 31
0.0
  0
LINE
  5
276
330
1F
100
AcDbEntity
  8
0
  6
Continuous
 62
     7
370
    15
100
AcDbLine
 10
241.7211243662
 20
37.6828249545
 30
0.0
 11
241.7211243662
 21
35.2504318299
 31
0.0
  0
LINE
  5
277
330
1F
100
AcDbEntity
  8
0
  6
Continuous
 62
     7
370
    15
100
AcDbLine
 10
241.7211243662
 20
38.7189076395
 30
0.0
 11
241.7211243662
 21
38.5100179891
 31
0.0
  0
LINE
  5
278
330
1F
100
AcDbEntity
  8
0
  6
Continuous
 62
     7
370
    15
100
AcDbLine
 10
241.7211243662
 20
35.2504318299
 30
0.0
 11
241.7211243662
 21
32.3804427873
 31
0.0
  0
ARC
  5
279
330
1F
100
AcDbEntity
  8
0
  6
Continuous
 62
     7
370
    15
100
AcDbCircle
 10
277.8491328935
 20
41.12650999
 30
0.0
 40
2.708976077524319
100
AcDbArc
 50
347.878141614
 51
5.1587809378
  0
LINE
  5
27A
330
1F
100
AcDbEntity
  8
0
  6
Continuous
 62
     7
370
    15
100
AcDbLine
 10
279.0834936681
 20
41.3740560887
 30
0.0
 11
280.4977074622
 21
40.557647843
 31
0.0
  0
LWPOLYLINE
  5
27B
330
1F
100
AcDbEntity
  8
0
  6
Continuous
 62
     7
370
    15
100
AcDbPolyline
 90
        9
 70
   128
 43
0.0
 10
277.0235750082
 20
28.1130613553
 10
276.2597489897
 20
27.2401041377
 10
275.4538358856
 20
26.4609557731
 10
274.6194634514
 20
25.788791428
 10
273.7707398506
 20
25.2349768929
 10
272.9220162498
 20
24.8088760166
 10
272.0876438155
 20
24.5176944545
 10
271.2817307114
 20
24.3663553552
 10
270.517904693
 20
24.3574178235
  0
LINE
  5
27C
330
1F
100
AcDbEntity
  8
0
  6
Continuous
 62
     7
370
    15
100
AcDbLine
 10
278.7204874717
 20
29.092668069
 30
0.0
 11
277.0235750082
 21
28.1130613553
 31
0.0
  0
ARC
  5
27D
330
1F
100
AcDbEntity
  8
0
  6
Continuous
 62
     7
370
    15
100
AcDbCircle
 10
277.1317508057
 20
31.7772699683
 30
0.0
 40
3.119482577506908
100
AcDbArc
 50
300.6168768957
 51
316.0575441067
  0
LINE
  5
27E
330
1F
100
AcDbEntity
  8
0
  6
Continuous
 62
     7
370
    15
100
AcDbLine
 10
270.517904693
 20
24.3574178235
 30
0.0
 11
268.8209922295
 21
23.3778111098
 31
0.0
  0
LINE
  5
27F
330
1F
100
AcDbEntity
  8
0
  6
Continuous
 62
     7
370
    15
100
AcDbLine
 10
269.1036908988
 20
25.1738260691
 30
0.0
 11
270.517904693
 21
24.3574178235
 31
0.0
  0
LINE
  5
280
330
1F
100
AcDbEntity
  8
0
  6
Continuous
 62
     7
370
    15
100
AcDbLine
 10
241.6483401339
 20
27.2322939945
 30
0.0
 11
243.4761942946
 21
26.177096248
 31
0.0
  0
SPLINE
  5
281
330
1F
100
AcDbEntity
  8
0
  6
Continuous
 62
     7
370
    15
100
AcDbSpline
210
0.0
220
0.0
230
1.0
 70
     8
 71
     3
 72
    14
 73
    10
 74
     0
 42
0.000000001
 43
0.00000001
 40
0.0
 40
0.0
 40
0.0
 40
0.0
 40
0.25
 40
0.25
 40
0.5
 40
0.5
 40
0.75
 40
0.75
 40
1.0
 40
1.0
 40
1.0
 40
1.0
 10
243.4306867447085
 20
26.05872797869178
 30
0.0
 10
243.4140119016422
 20
26.0153553605852
 30
0.0
 10
243.3937166587262
 20
25.97512503113935
 30
0.0
 10
243.3454196796558
 20
25.90135314346722
 30
0.0
 10
243.3172008318507
 20
25.8677835367901
 30
0.0
 10
243.2542754834276
 20
25.81423213112748
 30
0.0
 10
243.2191123074106
 20
25.79377610176783
 30
0.0
 10
243.1444293182022
 20
25.77634380825595
 30
0.0
 10
243.1059044429937
 20
25.78029111724085
 30
0.0
 10
243.0719607402965
 20
25.79988639971067
 30
0.0
  0
LINE
  5
282
330
1F
100
AcDbEntity
  8
0
  6
Continuous
 62
     7
370
    15
100
AcDbLine
 10
243.0719605778
 20
25.7998865233
 30
0.0
 11
241.6164385916
 21
26.6401414807
 31
0.0
  0
SPLINE
  5
283
330
1F
100
AcDbEntity
  8
0
  6
Continuous
 62
     7
370
    15
100
AcDbSpline
210
0.0
220
0.0
230
1.0
 70
     8
 71
     3
 72
     8
 73
     4
 74
     0
 42
0.000000001
 43
0.00000001
 40
0.0
 40
0.0
 40
0.0
 40
0.0
 40
0.0011862984959113
 40
0.0011862984959113
 40
0.0011862984959113
 40
0.0011862984959113
 10
241.6164385327347
 20
26.64014148480369
 30
0.0
 10
241.6266516605521
 20
26.83754038669263
 30
0.0
 10
241.6372776671273
 20
27.03492622366942
 30
0.0
 10
241.6483398663849
 20
27.23229372101977
 30
0.0
  0
ARC
  5
284
330
1F
100
AcDbEntity
  8
0
  6
Continuous
 62
     7
370
    15
100
AcDbCircle
 10
252.0116694881
 20
27.8233266379
 30
0.0
 40
9.135356213740655
100
AcDbArc
 50
195.9732930088
 51
285.2934981896
  0
SPLINE
  5
285
330
1F
100
AcDbEntity
  8
0
  6
Continuous
 62
     7
370
    15
100
AcDbSpline
210
0.0
220
0.0
230
1.0
 70
     8
 71
     3
 72
     8
 73
     4
 74
     0
 42
0.000000001
 43
0.00000001
 40
0.0
 40
0.0
 40
0.0
 40
0.0
 40
1.0
 40
1.0
 40
1.0
 40
1.0
 10
241.8944582201343
 20
27.72953187560663
 30
0.0
 10
241.8122600393486
 20
27.56381154910315
 30
0.0
 10
241.7302256711967
 20
27.39806467376519
 30
0.0
 10
241.6483398663849
 20
27.23229372101977
 30
0.0
  0
LINE
  5
286
330
1F
100
AcDbEntity
  8
0
  6
Continuous
 62
     7
370
    15
100
AcDbLine
 10
241.9434777211
 20
27.7578304474
 30
0.0
 11
241.8944583021
 21
27.7295321391
 31
0.0
  0
SPLINE
  5
287
330
1F
100
AcDbEntity
  8
0
  6
Continuous
 62
     7
370
    15
100
AcDbSpline
210
0.0
220
0.0
230
1.0
 70
     8
 71
     3
 72
    12
 73
     8
 74
     0
 42
0.000000001
 43
0.00000001
 40
0.0
 40
0.0
 40
0.0
 40
0.0
 40
0.249999999999997
 40
0.249999999999997
 40
0.499999999999994
 40
0.499999999999994
 40
1.0
 40
1.0
 40
1.0
 40
1.0
 10
241.9552599079188
 20
28.09119518756776
 30
0.0
 10
241.9928586924934
 20
28.06948987124347
 30
0.0
 10
242.0230362517398
 20
28.04268800067029
 30
0.0
 10
242.0616259864207
 20
27.9850642958403
 30
0.0
 10
242.0704854716105
 20
27.95401617026893
 30
0.0
 10
242.0654380377722
 20
27.86182719386363
 30
0.0
 10
242.0187357506969
 20
27.80127576688877
 30
0.0
 10
241.9434776624986
 20
27.75783019733683
 30
0.0
  0
LINE
  5
288
330
1F
100
AcDbEntity
  8
0
  6
Continuous
 62
     7
370
    15
100
AcDbLine
 10
241.1703714934
 20
28.5443018536
 30
0.0
 11
241.9552600702
 21
28.0911953229
 31
0.0
  0
SPLINE
  5
289
330
1F
100
AcDbEntity
  8
0
  6
Continuous
 62
     7
370
    15
100
AcDbSpline
210
0.0
220
0.0
230
1.0
 70
     8
 71
     3
 72
    10
 73
     6
 74
     0
 42
0.000000001
 43
0.00000001
 40
0.0
 40
0.0
 40
0.0
 40
0.0
 40
0.5
 40
0.5
 40
1.0
 40
1.0
 40
1.0
 40
1.0
 10
240.5929037104323
 20
28.53749994412752
 30
0.0
 10
240.6690411007708
 20
28.58145312400023
 30
0.0
 10
240.7725488814552
 20
28.60793979017901
 30
0.0
 10
240.987044173541
 20
28.61176786056634
 30
0.0
 10
241.0944744179592
 20
28.58811607366295
 30
0.0
 10
241.1703713808017
 20
28.54430168962936
 30
0.0
  0
LINE
  5
28A
330
1F
100
AcDbEntity
  8
0
  6
Continuous
 62
     7
370
    15
100
AcDbLine
 10
240.5438842736
 20
28.5092019301
 30
0.0
 11
240.5929036926
 21
28.5375002383
 31
0.0
  0
SPLINE
  5
28B
330
1F
100
AcDbEntity
  8
0
  6
Continuous
 62
     7
370
    15
100
AcDbSpline
210
0.0
220
0.0
230
1.0
 70
     8
 71
     3
 72
     8
 73
     4
 74
     0
 42
0.000000001
 43
0.00000001
 40
0.0
 40
0.0
 40
0.0
 40
0.0
 40
1.0
 40
1.0
 40
1.0
 40
1.0
 10
239.6825491934135
 20
28.36712052105925
 30
0.0
 10
239.9697040198108
 20
28.41439218997128
 30
0.0
 10
240.256817138396
 20
28.46174962267401
 30
0.0
 10
240.543884268068
 20
28.50920162239731
 30
0.0
  0
LINE
  5
28C
330
1F
100
AcDbEntity
  8
0
  6
Continuous
 62
     7
370
    15
100
AcDbLine
 10
238.2259263081
 20
29.2080114418
 30
0.0
 11
239.6825495454
 21
28.3671207458
 31
0.0
  0
LINE
  5
28D
330
1F
100
AcDbEntity
  8
0
  6
Continuous
 62
     7
370
    15
100
AcDbLine
 10
238.2259263081
 20
29.2080114418
 30
0.0
 11
241.3675708354
 21
31.0216442231
 31
0.0
  0
LINE
  5
28E
330
1F
100
AcDbEntity
  8
0
  6
Continuous
 62
     7
370
    15
100
AcDbLine
 10
277.0235750082
 20
28.1130613553
 30
0.0
 11
275.609361214
 21
28.929469601
 31
0.0
  0
ARC
  5
28F
330
1F
100
AcDbEntity
  8
0
  6
Continuous
 62
     7
370
    15
100
AcDbCircle
 10
251.1953664203
 20
29.1033444314
 30
0.0
 40
9.890562528246951
100
AcDbArc
 50
194.4210541018
 51
238.0225374632
  0
ARC
  5
290
330
1F
100
AcDbEntity
  8
0
  6
Continuous
 62
     7
370
    15
100
AcDbCircle
 10
278.3771692895
 20
32.2670397129
 30
0.0
 40
2.182904335874637
100
AcDbArc
 50
353.7588441556
 51
13.7288526262
  0
LWPOLYLINE
  5
291
330
1F
100
AcDbEntity
  8
0
  6
Continuous
 62
     7
370
    15
100
AcDbPolyline
 90
        9
 70
   128
 43
0.0
 10
280.4977074622
 20
40.557647843
 10
280.8419365791
 20
39.8314221515
 10
281.0911713092
 20
39.0105750824
 10
281.2420642709
 20
38.1061344222
 10
281.2925884641
 20
37.1302502769
 10
281.2420642709
 20
36.0960321397
 10
281.0911713092
 20
35.0173741744
 10
280.8419365791
 20
33.9087668111
 10
280.4977074622
 20
32.7851026409
  0
LINE
  5
292
330
1F
100
AcDbEntity
  8
0
  6
Continuous
 62
     7
370
    15
100
AcDbLine
 10
279.0834936681
 20
33.6015108865
 30
0.0
 11
280.4977074622
 21
32.7851026409
 31
0.0
  0
ELLIPSE
  5
293
330
1F
100
AcDbEntity
  8
0
  6
Continuous
 62
     7
370
    15
100
AcDbEllipse
 10
241.0746783164
 20
32.0072688674
 30
0.0
 11
-7.507462981948265E-5
 21
1.06681120185339
 31
0.0
210
0.0
220
0.0
230
1.0
 40
0.7174342186
 41
3.534193645557472
 42
5.104989972352353
  0
ARC
  5
294
330
1F
100
AcDbEntity
  8
0
  6
Continuous
 62
     7
370
    15
100
AcDbCircle
 10
251.2427868948
 20
31.4878847626
 30
0.0
 40
11.10581238431559
100
AcDbArc
 50
195.5577410858
 51
215.7110930235
  0
ARC
  5
295
330
1F
100
AcDbEntity
  8
0
  6
Continuous
 62
     7
370
    15
100
AcDbCircle
 10
248.4502787431
 20
30.1298182654
 30
0.0
 40
9.37461282062431
100
AcDbArc
 50
193.3832905048
 51
247.5353305273
  0
SPLINE
  5
296
330
1F
100
AcDbEntity
  8
0
  6
Continuous
 62
     7
370
    15
100
AcDbSpline
210
0.0
220
0.0
230
1.0
 70
     8
 71
     3
 72
     8
 73
     4
 74
     0
 42
0.000000001
 43
0.00000001
 40
0.0000000000000004
 40
0.0000000000000004
 40
0.0000000000000004
 40
0.0000000000000004
 40
0.0011862984959128
 40
0.0011862984959128
 40
0.0011862984959128
 40
0.0011862984959128
 10
239.6825491934139
 20
28.3671205210583
 30
0.0
 10
239.5653987244189
 20
28.23099647822352
 30
0.0
 10
239.4479589739817
 20
28.09527290306059
 30
0.0
 10
239.3302481061371
 20
27.95993112556611
 30
0.0
  0
LINE
  5
297
330
1F
100
AcDbEntity
  8
0
  6
Continuous
 62
     7
370
    15
100
AcDbLine
 10
237.7903904891
 20
28.9565297342
 30
0.0
 11
238.2259263081
 21
29.2080114418
 31
0.0
  0
LINE
  5
298
330
1F
100
AcDbEntity
  8
0
  6
Continuous
 62
     7
370
    15
100
AcDbLine
 10
239.3302483193
 20
27.9599310324
 30
0.0
 11
237.8924036432
 21
28.7899810957
 31
0.0
  0
SPLINE
  5
299
330
1F
100
AcDbEntity
  8
0
  6
Continuous
 62
     7
370
    15
100
AcDbSpline
210
0.0
220
0.0
230
1.0
 70
     8
 71
     3
 72
    10
 73
     6
 74
     0
 42
0.000000001
 43
0.00000001
 40
0.0
 40
0.0
 40
0.0
 40
0.0
 40
0.5
 40
0.5
 40
1.0
 40
1.0
 40
1.0
 40
1.0
 10
237.892403568105
 20
28.78998110926134
 30
0.0
 10
237.8659941388243
 20
28.80522694826827
 30
0.0
 10
237.8437107346152
 20
28.82908437068054
 30
0.0
 10
237.8096035997937
 20
28.88701046241482
 30
0.0
 10
237.7977035697388
 20
28.92090899389568
 30
0.0
 10
237.7903910777821
 20
28.95653003635003
 30
0.0
  0
ARC
  5
29A
330
1F
100
AcDbEntity
  8
0
  6
Continuous
 62
     7
370
    15
100
AcDbCircle
 10
247.3875628067
 20
31.1620986594
 30
0.0
 40
9.768962729485438
100
AcDbArc
 50
196.6862093971
 51
238.1563776098
  0
ELLIPSE
  5
29B
330
1F
100
AcDbEntity
  8
0
  6
Continuous
 62
     7
370
    15
100
AcDbEllipse
 10
241.0140181447
 20
31.9722391118
 30
0.0
 11
0.3250094736511642
 21
1.213179526238676
 31
0.0
210
0.0
220
0.0
230
1.0
 40
0.5176380889
 41
3.619174351347738
 42
5.1899706781426
  0
SPLINE
  5
29C
330
1F
100
AcDbEntity
  8
0
  6
Continuous
 62
     7
370
    15
100
AcDbSpline
210
0.0
220
0.0
230
1.0
 70
     8
 71
     3
 72
    12
 73
     8
 74
     0
 42
0.000000001
 43
0.00000001
 40
0.0
 40
0.0
 40
0.0
 40
0.0
 40
0.5000000000000003
 40
0.5000000000000003
 40
0.7500000000000001
 40
0.7500000000000001
 40
1.0
 40
1.0
 40
1.0
 40
1.0
 10
267.5478752336574
 20
63.97656241277083
 30
0.0
 10
267.6109351108869
 20
64.01296610502109
 30
0.0
 10
267.6908680641181
 20
64.03979741687269
 30
0.0
 10
267.8238472524247
 20
64.05355425838322
 30
0.0
 10
267.8695184215368
 20
64.05343312458427
 30
0.0
 10
267.9571562401742
 20
64.04065874296263
 30
0.0
 10
267.9979001510284
 20
64.02781875730787
 30
0.0
 10
268.029413833367
 20
64.00962629573124
 30
0.0
  0
LINE
  5
29D
330
1F
100
AcDbEntity
  8
0
  6
Continuous
 62
     7
370
    15
100
AcDbLine
 10
268.0294141576
 20
64.0096266673
 30
0.0
 11
268.6890824718
 21
63.6288082554
 31
0.0
  0
LINE
  5
29E
330
1F
100
AcDbEntity
  8
0
  6
Continuous
 62
     7
370
    15
100
AcDbLine
 10
270.3589495002
 20
61.5540120388
 30
0.0
 11
271.7534491059
 21
61.8597870522
 31
0.0
  0
LINE
  5
29F
330
1F
100
AcDbEntity
  8
0
  6
Continuous
 62
     7
370
    15
100
AcDbLine
 10
271.7534491059
 20
61.8597870522
 30
0.0
 11
273.2089710922
 21
61.0195320949
 31
0.0
  0
SPLINE
  5
2A0
330
1F
100
AcDbEntity
  8
0
  6
Continuous
 62
     7
370
    15
100
AcDbSpline
210
0.0
220
0.0
230
1.0
 70
     8
 71
     3
 72
    12
 73
     8
 74
     0
 42
0.000000001
 43
0.00000001
 40
0.0
 40
0.0
 40
0.0
 40
0.0
 40
0.2499999999999946
 40
0.2499999999999946
 40
0.4999999999999892
 40
0.4999999999999892
 40
1.0
 40
1.0
 40
1.0
 40
1.0
 10
273.2089710055586
 20
61.01953158618046
 30
0.0
 10
273.2406271360587
 20
61.00125689103053
 30
0.0
 10
273.2629264130688
 20
60.97743278023223
 30
0.0
 10
273.2847469836608
 20
60.92740087778454
 30
0.0
 10
273.285027745987
 20
60.90100966937064
 30
0.0
 10
273.2616603718662
 20
60.82493443937572
 30
0.0
 10
273.2146219690612
 20
60.77787138442531
 30
0.0
 10
273.1516964745608
 20
60.74154526967334
 30
0.0
  0
LINE
  5
2A1
330
1F
100
AcDbEntity
  8
0
  6
Continuous
 62
     7
370
    15
100
AcDbLine
 10
267.5478754651
 20
63.9765627899
 30
0.0
 11
267.4560848974
 21
63.923573223
 31
0.0
  0
SPLINE
  5
2A2
330
1F
100
AcDbEntity
  8
0
  6
Continuous
 62
     7
370
    15
100
AcDbSpline
210
0.0
220
0.0
230
1.0
 70
     8
 71
     3
 72
    10
 73
     6
 74
     0
 42
0.000000001
 43
0.00000001
 40
0.0
 40
0.0
 40
0.0
 40
0.0
 40
0.4037910463417926
 40
0.8086444080338657
 40
1.0
 40
1.0
 40
1.0
 40
1.0
 10
276.1731306305678
 20
55.66560611696186
 30
0.0
 10
276.191371914889
 20
55.70437013841209
 30
0.0
 10
276.22790247369
 20
55.78200016379927
 30
0.0
 10
276.2418399590921
 20
55.88940401378322
 30
0.0
 10
276.223782879833
 20
55.94268182956948
 30
0.0
 10
276.217987389729
 20
55.95978155260432
 30
0.0
  0
ARC
  5
2A3
330
1F
100
AcDbEntity
  8
0
  6
Continuous
 62
     7
370
    15
100
AcDbCircle
 10
266.0687228902
 20
53.5033471281
 30
0.0
 40
10.36707195120277
100
AcDbArc
 50
19.3456110409
 51
46.4693116546
  0
LWPOLYLINE
  5
2A4
330
1F
100
AcDbEntity
  8
0
  6
Continuous
 62
     7
370
    15
100
AcDbPolyline
 90
        3
 70
   128
 43
0.0
 10
270.3589491709
 20
62.2350018253
 10
270.3974042189
 20
62.1875377279
 10
270.7814950348
 20
61.6757793638
  0
ARC
  5
2A5
330
1F
100
AcDbEntity
  8
0
  6
Continuous
 62
     7
370
    15
100
AcDbCircle
 10
252.9302077206
 20
55.2337799197
 30
0.0
 40
1.56233737800067
100
AcDbArc
 50
79.7775047336
 51
142.7430532459
  0
ARC
  5
2A6
330
1F
100
AcDbEntity
  8
0
  6
Continuous
 62
     7
370
    15
100
AcDbCircle
 10
252.8964095198
 20
55.3218277154
 30
0.0
 40
1.464179181151003
100
AcDbArc
 50
78.3573018219
 51
144.4178597851
  0
ARC
  5
2A7
330
1F
100
AcDbEntity
  8
0
  6
Continuous
 62
     7
370
    15
100
AcDbCircle
 10
252.8679496168
 20
55.3957107546
 30
0.0
 40
1.250063697724812
100
AcDbArc
 50
80.8176670507
 51
142.3064347002
  0
LWPOLYLINE
  5
2A8
330
1F
100
AcDbEntity
  8
0
  6
Continuous
 62
     7
370
     0
100
AcDbPolyline
 90
       20
 70
   128
 43
0.0
 10
243.0719605778
 20
37.0699823127
 10
243.5426197035
 20
38.9313425599
 10
244.127753621
 20
40.8072606334
 10
244.8231884752
 20
42.6843562001
 10
245.623965426
 20
44.5492432969
 10
246.5243735755
 20
46.3886196825
 10
247.5179894804
 20
48.189368735
 10
248.5977272019
 20
49.9386446199
 10
249.7558870375
 20
51.6239734263
 10
250.9842075466
 20
53.2333341518
 10
252.2739287699
 20
54.7552499519
 10
253.6158528163
 20
56.1788641808
 10
255.0004077415
 20
57.4940259373
 10
256.417719329
 20
58.6913543173
 10
257.8576790854
 20
59.7623080846
 10
259.3100173176
 20
60.699252193
 10
260.7643755117
 20
61.49550109
 10
262.2103810359
 20
62.1453785726
 10
263.6377211039
 20
62.6442483177
 10
264.7758308935
 20
62.9357212489
  0
LINE
  5
2A9
330
1F
100
AcDbEntity
  8
0
  6
Continuous
 62
     7
370
     0
100
AcDbLine
 10
243.4306862349
 20
36.7354714831
 30
0.0
 11
243.5451425875
 21
37.2492853666
 31
0.0
  0
LWPOLYLINE
  5
2AA
330
1F
100
AcDbEntity
  8
0
  6
Continuous
 62
     7
370
     0
100
AcDbPolyline
 90
       10
 70
   128
 43
0.0
 10
258.7899076115
 20
59.8767782424
 10
259.5620127281
 20
60.3555197745
 10
261.0144227211
 20
61.146320007
 10
262.4580156675
 20
61.789110392
 10
263.8822643629
 20
62.279202309
 10
265.2767820787
 20
62.613020941
 10
266.6313995705
 20
62.7881314796
 10
267.9362383415
 20
62.8032586048
 10
269.1817830822
 20
62.6582918018
 10
270.3589498294
 20
62.3542882059
  0
LWPOLYLINE
  5
2AB
330
1F
100
AcDbEntity
  8
0
  6
Continuous
 62
     7
370
     0
100
AcDbPolyline
 90
        9
 70
   128
 43
0.0
 10
251.4968765435
 20
34.4207956113
 10
251.5558867412
 20
33.2197512008
 10
251.7322014965
 20
32.1014177959
 10
252.0236798812
 20
31.0793699552
 10
252.4267848527
 20
30.1660150576
 10
252.9366221082
 20
29.3724386398
 10
253.5470039636
 20
28.7082748263
 10
254.2505204761
 20
28.1815852192
 10
254.3451533219
 20
28.1254290828
  0
LWPOLYLINE
  5
2AC
330
1F
100
AcDbEntity
  8
0
  6
Continuous
 62
     7
370
     0
100
AcDbPolyline
 90
       23
 70
   128
 43
0.0
 10
268.0940361424
 20
51.9417736164
 10
267.8046124166
 20
52.0953443154
 10
266.97773142
 20
52.4043793456
 10
266.0809538264
 20
52.5632492854
 10
265.1251660352
 20
52.5700264806
 10
264.1219702833
 20
52.424628473
 10
263.0835432234
 20
52.1288200099
 10
262.0224904676
 20
51.6861921926
 10
260.9516916234
 20
51.1021171246
 10
259.8841447544
 20
50.3836862571
 10
258.8328084935
 20
49.5396184835
 10
257.8104444866
 20
48.5801608181
 10
256.8294630874
 20
47.5169597737
 10
255.9017717683
 20
46.3629206191
 10
255.0386316404
 20
45.1320523056
 10
254.2505204761
 20
43.8392956148
 10
253.5470039636
 20
42.5003431319
 10
252.9366221082
 20
41.1314474289
 10
252.4267848527
 20
39.7492254455
 10
252.0236798812
 20
38.3704554544
 10
251.7322014965
 20
37.011873834
 10
251.5558867412
 20
35.6899717458
 10
251.4968765435
 20
34.4207956113
  0
LWPOLYLINE
  5
2AD
330
1F
100
AcDbEntity
  8
0
  6
Continuous
 62
     7
370
     0
100
AcDbPolyline
 90
       19
 70
   128
 43
0.0
 10
262.8052088932
 20
23.2415427589
 10
261.9193071622
 20
22.574571412
 10
260.5031555185
 20
21.6213413876
 10
259.0821368193
 20
20.8022351828
 10
257.6661628179
 20
20.1229625638
 10
256.2651102004
 20
19.5882609528
 10
254.8887508616
 20
19.201862783
 10
253.5466858866
 20
18.9664619488
 10
252.2482751686
 20
18.883700552
 10
251.00257567
 20
18.9541545538
 10
249.8182768857
 20
19.1773345415
 10
248.7036389395
 20
19.5516834527
 10
247.6664352906
 20
20.0745876075
 10
246.7139020263
 20
20.7424029492
 10
245.8526838606
 20
21.5504710191
 10
245.0887854022
 20
22.4931531819
 10
244.4275355934
 20
23.5638754964
 10
243.8735481969
 20
24.7551705444
 10
243.4306862349
 20
26.058727625
  0
ARC
  5
2AE
330
1F
100
AcDbEntity
  8
0
  6
Continuous
 62
     7
370
     0
100
AcDbCircle
 10
265.9929912278
 20
53.0431348225
 30
0.0
 40
10.5124970368496
100
AcDbArc
 50
14.4456939373
 51
47.0804331381
  0
LWPOLYLINE
  5
2AF
330
1F
100
AcDbEntity
  8
0
  6
Continuous
 62
     7
370
     0
100
AcDbPolyline
 90
       29
 70
   128
 43
0.0
 10
248.6684489551
 20
34.4207956113
 10
248.7274756165
 20
35.7772022561
 10
248.9039319588
 20
37.1873825708
 10
249.1959457402
 20
38.6363873612
 10
249.6004218014
 20
40.1088565181
 10
250.1130736761
 20
41.5891828934
 10
250.7284657381
 20
43.0616737046
 10
251.4400757626
 20
44.5107199222
 10
252.2403601221
 20
45.9209620443
 10
253.1208354464
 20
47.2774501666
 10
254.0721688426
 20
48.5658070929
 10
255.0842753602
 20
49.7723735746
 10
256.1464269799
 20
50.8843609633
 10
257.2473642369
 20
51.8899818098
 10
258.3754172287
 20
52.7785759948
 10
259.5186281863
 20
53.5407255944
 10
260.6648788208
 20
54.1683489283
 10
261.8020185743
 20
54.6547951301
 10
262.9179935306
 20
54.9949071585
 10
264.0009739252
 20
55.1850794381
 10
265.0394798458
 20
55.2232969641
 10
266.0225033915
 20
55.1091541117
 10
266.9396234249
 20
54.8438600442
 10
267.7811188412
 20
54.4302280558
 10
268.538069655
 20
53.8726426716
 10
269.2024515015
 20
53.1770138216
 10
269.7672225643
 20
52.3507159949
 10
270.2263953567
 20
51.4025076243
 10
270.5207074584
 20
50.5408858186
  0
LWPOLYLINE
  5
2B0
330
1F
100
AcDbEntity
  8
0
  6
Continuous
 62
     7
370
     0
100
AcDbPolyline
 90
       14
 70
   128
 43
0.0
 10
256.7718246379
 20
26.7245424257
 10
256.1464269799
 20
26.5911199091
 10
255.0842753602
 20
26.476773141
 10
254.0721688426
 20
26.5147863108
 10
253.1208354464
 20
26.7047570776
 10
252.2403601221
 20
27.0446700289
 10
251.4400757626
 20
27.5309234972
 10
250.7284657381
 20
28.158362269
 10
250.1130736761
 20
28.9203365292
 10
249.6004218014
 20
29.8087676487
 10
249.1959457402
 20
30.8142386856
 10
248.9039319588
 20
31.9260915406
 10
248.7274756165
 20
33.1325396989
 10
248.6684489551
 20
34.4207956113
  0
LWPOLYLINE
  5
2B1
330
1F
100
AcDbEntity
  8
0
  6
Continuous
 62
     7
370
     0
100
AcDbPolyline
 90
       20
 70
   128
 43
0.0
 10
237.8924036432
 20
40.0600768851
 10
238.3630627689
 20
41.9214371323
 10
238.9481966864
 20
43.7973552058
 10
239.6436315406
 20
45.6744507725
 10
240.4444084915
 20
47.5393378693
 10
241.3448166409
 20
49.3787142549
 10
242.3384325458
 20
51.1794633074
 10
243.4181702673
 20
52.9287391923
 10
244.576330103
 20
54.6140679987
 10
245.804650612
 20
56.2234287242
 10
247.0943718353
 20
57.7453445243
 10
248.4362958817
 20
59.1689587532
 10
249.8208508069
 20
60.4841205097
 10
251.2381623944
 20
61.6814488897
 10
252.6781221508
 20
62.752402657
 10
254.1304603831
 20
63.6893467654
 10
255.5848185771
 20
64.4855956624
 10
257.0308241013
 20
65.135473145
 10
258.4581641693
 20
65.6343428901
 10
259.5963526549
 20
65.925832354
  0
LWPOLYLINE
  5
2B2
330
1F
100
AcDbEntity
  8
0
  6
Continuous
 62
     7
370
     0
100
AcDbPolyline
 90
       20
 70
   128
 43
0.0
 10
241.1703714934
 20
39.0368509529
 10
241.6232499174
 20
40.8261274504
 10
242.1893255568
 20
42.6295584685
 10
242.8643191895
 20
44.4335153928
 10
243.6431297298
 20
46.2243658837
 10
244.5198724237
 20
47.9885757749
 10
245.4879223138
 20
49.7128140131
 10
246.5399629703
 20
51.3840499927
 10
247.6680437856
 20
52.9896550722
 10
248.8636405595
 20
54.5174930637
 10
250.1177180613
 20
55.9560209885
 10
251.4207985185
 20
57.2943651164
 10
252.7630350443
 20
58.5224135457
 10
254.1342842423
 20
59.6308839727
 10
255.5241834208
 20
60.6114032473
 10
256.9222291241
 20
61.4565572716
 10
258.3178561581
 20
62.1599609547
 10
259.7005179325
 20
62.716300031
 10
261.0597656508
 20
63.1213676494
 10
261.1862480139
 20
63.1516144095
  0
LINE
  5
2B3
330
1F
100
AcDbEntity
  8
0
  6
Continuous
 62
     7
370
     0
100
AcDbLine
 10
252.390897799
 20
57.0194977009
 30
0.0
 11
252.7501766335
 21
57.3571083716
 31
0.0
  0
LWPOLYLINE
  5
2B4
330
1F
100
AcDbEntity
  8
0
  6
Continuous
 62
     7
370
     0
100
AcDbPolyline
 90
       22
 70
   128
 43
0.0
 10
240.5929036926
 20
39.0300493377
 10
241.0443767825
 20
40.8405162655
 10
241.6101494915
 20
42.6661125239
 10
242.2859913295
 20
44.4931783149
 10
243.0668420406
 20
46.3080417511
 10
243.9468616521
 20
48.0971222737
 10
244.9194620847
 20
49.8470310307
 10
245.9773670801
 20
51.5446761955
 10
247.1126596163
 20
53.177352697
 10
248.3168457861
 20
54.7328444959
 10
249.5809134081
 20
56.1995108916
 10
250.8954041367
 20
57.5663768206
 10
252.2504816219
 20
58.8232147899
 10
253.6360059246
 20
59.9606212965
 10
255.0416095786
 20
60.97008203
 10
256.4567743728
 20
61.8440466164
 10
257.8709107263
 20
62.5759729198
 10
259.2734370018
 20
63.1603849962
 10
260.6538579138
 20
63.5929092319
 10
262.0018438625
 20
63.8703094957
 10
263.3073089093
 20
63.9905108606
 10
264.4323670053
 20
63.9639613366
  0
LWPOLYLINE
  5
2B5
330
1F
100
AcDbEntity
  8
0
  6
Continuous
 62
     7
370
     0
100
AcDbPolyline
 90
        3
 70
   128
 43
0.0
 10
241.6420275732
 20
36.9575459868
 10
241.6415758117
 20
37.0792249041
 10
241.6538405446
 20
37.7216683171
  0
LWPOLYLINE
  5
2B6
330
1F
100
AcDbEntity
  8
0
  6
Continuous
 62
     7
370
     0
100
AcDbPolyline
 90
       19
 70
   128
 43
0.0
 10
210.5566218412
 20
60.9705314035
 10
210.615714357
 20
62.0674999481
 10
210.7920205512
 20
63.2146824559
 10
211.0826461207
 20
64.3932426278
 10
211.4828192521
 20
65.583828747
 10
211.9859689882
 20
66.7668910696
 10
212.5838329003
 20
67.923003396
 10
213.266594724
 20
69.0331832121
 10
214.0230433976
 20
70.0792009929
 10
214.8407581132
 20
71.0438809483
 10
215.7063119714
 20
71.9113828506
 10
216.6054925938
 20
72.6674632326
 10
217.5235354333
 20
73.299707414
 10
218.4453662619
 20
73.7977326053
 10
219.3558485783
 20
74.1533619118
 10
220.240032496
 20
74.3607558465
 10
221.0833994957
 20
74.416509516
 10
221.8721017037
 20
74.3197071014
 10
222.2912488195
 20
74.1971157545
  0
ARC
  5
2B7
330
1F
100
AcDbEntity
  8
0
  6
Continuous
 62
     7
370
     0
100
AcDbCircle
 10
215.9584626564
 20
60.5330378781
 30
0.0
 40
5.419528095470232
100
AcDbArc
 50
175.3697375515
 51
225.6114209446
  0
LINE
  5
2B8
330
1F
100
AcDbEntity
  8
0
  6
Continuous
 62
     7
370
     0
100
AcDbLine
 10
247.3249457189
 20
38.074941686
 30
0.0
 11
246.6177242351
 21
38.4832119584
 31
0.0
  0
LINE
  5
2B9
330
1F
100
AcDbEntity
  8
0
  6
Continuous
 62
     7
370
     0
100
AcDbLine
 10
267.4067784353
 20
24.1942193555
 30
0.0
 11
268.8209922295
 21
23.3778111098
 31
0.0
  0
LINE
  5
2BA
330
1F
100
AcDbEntity
  8
0
  6
Continuous
 62
     7
370
     0
100
AcDbLine
 10
241.7817845472
 20
32.4154725482
 30
0.0
 11
247.3249457189
 21
29.2154737177
 31
0.0
  0
LINE
  5
2BB
330
1F
100
AcDbEntity
  8
0
  6
Continuous
 62
     7
370
     0
100
AcDbLine
 10
241.7211243662
 20
32.3804427873
 30
0.0
 11
241.7817845472
 21
32.4154725482
 31
0.0
  0
LINE
  5
2BC
330
1F
100
AcDbEntity
  8
0
  6
Continuous
 62
     7
370
     0
100
AcDbLine
 10
243.2290287113
 20
25.3093747412
 30
0.0
 11
243.0719605778
 21
25.7998865233
 31
0.0
  0
LINE
  5
2BD
330
1F
100
AcDbEntity
  8
0
  6
Continuous
 62
     7
370
     0
100
AcDbLine
 10
246.6178388219
 20
27.9907290294
 30
0.0
 11
241.3675708354
 21
31.0216442231
 31
0.0
  0
LINE
  5
2BE
330
1F
100
AcDbEntity
  8
0
  6
Continuous
 62
     7
370
     0
100
AcDbLine
 10
242.0321490928
 20
27.8429095218
 30
0.0
 11
241.9552600702
 21
28.0911953229
 31
0.0
  0
LWPOLYLINE
  5
2BF
330
1F
100
AcDbEntity
  8
0
  6
Continuous
 62
     7
370
     0
100
AcDbPolyline
 90
        3
 70
   128
 43
0.0
 10
241.6339157043
 20
27.2527003508
 10
241.6154817264
 20
27.2963724225
 10
241.1703714934
 20
28.5443018536
  0
ARC
  5
2C0
330
1F
100
AcDbEntity
  8
0
  6
Continuous
 62
     7
370
     0
100
AcDbCircle
 10
251.3553640609
 20
31.5563747195
 30
0.0
 40
11.17784220286586
100
AcDbArc
 50
195.6688296447
 51
214.1331604714
  0
LINE
  5
2C1
330
1F
100
AcDbEntity
  8
0
  6
Continuous
 62
     7
370
     0
100
AcDbLine
 10
238.0299551517
 20
28.3571366657
 30
0.0
 11
237.8924036432
 21
28.7899810957
 31
0.0
  0
LINE
  5
2C2
330
1F
100
AcDbEntity
  8
0
  6
Continuous
 62
     7
370
     0
100
AcDbLine
 10
277.3062736775
 20
29.9090763146
 30
0.0
 11
278.7204874717
 21
29.092668069
 31
0.0
  0
OLE2FRAME
  5
2C3
330
1F
100
AcDbEntity
  8
0
100
AcDbOle2Frame
 70
     2
  3
Paintbrush-Bild
 10
13.8511154363
 20
38.264191557
 30
0.0
 11
51.6290888628
 21
31.9806341108
 31
0.0
 71
     2
 72
     0
 73
     1
 90
    12928
310
80552BED0767C5B32B40DDAF6807D121434000000000000000006FFBDDFB85D0
310
4940DDAF6807D121434000000000000000006FFBDDFB85D04940416F4BD60AFB
310
3F4000000000000000002BED0767C5B32B40416F4BD60AFB3F40000000000000
310
0000000000000100000000010000010000000100000000000100000000320000
310
D0CF11E0A1B11AE1000000000000000000000000000000003E000300FEFF0900
310
0600000000000000000000000100000001000000000000000010000002000000
310
01000000FEFFFFFF0000000000000000FFFFFFFFFFFFFFFFFFFFFFFFFFFFFFFF
310
FFFFFFFFFFFFFFFFFFFFFFFFFFFFFFFFFFFFFFFFFFFFFFFFFFFFFFFFFFFFFFFF
310
FFFFFFFFFFFFFFFFFFFFFFFFFFFFFFFFFFFFFFFFFFFFFFFFFFFFFFFFFFFFFFFF
310
FFFFFFFFFFFFFFFFFFFFFFFFFFFFFFFFFFFFFFFFFFFFFFFFFFFFFFFFFFFFFFFF
310
FFFFFFFFFFFFFFFFFFFFFFFFFFFFFFFFFFFFFFFFFFFFFFFFFFFFFFFFFFFFFFFF
310
FFFFFFFFFFFFFFFFFFFFFFFFFFFFFFFFFFFFFFFFFFFFFFFFFFFFFFFFFFFFFFFF
310
FFFFFFFFFFFFFFFFFFFFFFFFFFFFFFFFFFFFFFFFFFFFFFFFFFFFFFFFFFFFFFFF
310
FFFFFFFFFFFFFFFFFFFFFFFFFFFFFFFFFFFFFFFFFFFFFFFFFFFFFFFFFFFFFFFF
310
FFFFFFFFFFFFFFFFFFFFFFFFFFFFFFFFFFFFFFFFFFFFFFFFFFFFFFFFFFFFFFFF
310
FFFFFFFFFFFFFFFFFFFFFFFFFFFFFFFFFFFFFFFFFFFFFFFFFFFFFFFFFFFFFFFF
310
FFFFFFFFFFFFFFFFFFFFFFFFFFFFFFFFFFFFFFFFFFFFFFFFFFFFFFFFFFFFFFFF
310
FFFFFFFFFFFFFFFFFFFFFFFFFFFFFFFFFFFFFFFFFFFFFFFFFFFFFFFFFFFFFFFF
310
FFFFFFFFFFFFFFFFFFFFFFFFFFFFFFFFFFFFFFFFFFFFFFFFFFFFFFFFFFFFFFFF
310
FFFFFFFFFFFFFFFFFFFFFFFFFFFFFFFFFFFFFFFFFFFFFFFFFFFFFFFFFFFFFFFF
310
FDFFFFFFFEFFFFFFFEFFFFFFFEFFFFFF05000000060000000700000008000000
310
090000000A0000000B0000000C0000000D0000000E0000000F00000010000000
310
11000000120000001300000014000000150000001600000017000000FEFFFFFF
310
FFFFFFFFFFFFFFFFFFFFFFFFFFFFFFFFFFFFFFFFFFFFFFFFFFFFFFFFFFFFFFFF
310
FFFFFFFFFFFFFFFFFFFFFFFFFFFFFFFFFFFFFFFFFFFFFFFFFFFFFFFFFFFFFFFF
310
FFFFFFFFFFFFFFFFFFFFFFFFFFFFFFFFFFFFFFFFFFFFFFFFFFFFFFFFFFFFFFFF
310
FFFFFFFFFFFFFFFFFFFFFFFFFFFFFFFFFFFFFFFFFFFFFFFFFFFFFFFFFFFFFFFF
310
FFFFFFFFFFFFFFFFFFFFFFFFFFFFFFFFFFFFFFFFFFFFFFFFFFFFFFFFFFFFFFFF
310
FFFFFFFFFFFFFFFFFFFFFFFFFFFFFFFFFFFFFFFFFFFFFFFFFFFFFFFFFFFFFFFF
310
FFFFFFFFFFFFFFFFFFFFFFFFFFFFFFFFFFFFFFFFFFFFFFFFFFFFFFFFFFFFFFFF
310
FFFFFFFFFFFFFFFFFFFFFFFFFFFFFFFFFFFFFFFFFFFFFFFFFFFFFFFFFFFFFFFF
310
FFFFFFFFFFFFFFFFFFFFFFFFFFFFFFFFFFFFFFFFFFFFFFFFFFFFFFFFFFFFFFFF
310
FFFFFFFFFFFFFFFFFFFFFFFFFFFFFFFFFFFFFFFFFFFFFFFFFFFFFFFFFFFFFFFF
310
FFFFFFFFFFFFFFFFFFFFFFFFFFFFFFFFFFFFFFFFFFFFFFFFFFFFFFFFFFFFFFFF
310
FFFFFFFFFFFFFFFFFFFFFFFFFFFFFFFFFFFFFFFFFFFFFFFFFFFFFFFFFFFFFFFF
310
FFFFFFFFFFFFFFFFFFFFFFFFFFFFFFFFFFFFFFFFFFFFFFFFFFFFFFFFFFFFFFFF
310
52006F006F007400200045006E00740072007900000000000000000000000000
310
0000000000000000000000000000000000000000000000000000000000000000
310
16000500FFFFFFFFFFFFFFFF020000000A00030000000000C000000000000046
310
000000000000000000000000F0BDE5C96603D20103000000C000000000000000
310
01004F006C006500000000000000000000000000000000000000000000000000
310
0000000000000000000000000000000000000000000000000000000000000000
310
0A000200FFFFFFFFFFFFFFFFFFFFFFFF00000000000000000000000000000000
310
0000000000000000000000000000000000000000000000001400000000000000
310
010043006F006D0070004F0062006A0000000000000000000000000000000000
310
0000000000000000000000000000000000000000000000000000000000000000
310
120002010100000003000000FFFFFFFF00000000000000000000000000000000
310
0000000000000000000000000000000000000000010000004D00000000000000
310
01004F006C006500310030004E00610074006900760065000000000000000000
310
0000000000000000000000000000000000000000000000000000000000000000
310
1A000200FFFFFFFFFFFFFFFFFFFFFFFF00000000000000000000000000000000
310
0000000000000000000000000000000000000000040000002426000000000000
310
FEFFFFFF02000000FEFFFFFFFFFFFFFFFFFFFFFFFFFFFFFFFFFFFFFFFFFFFFFF
310
FFFFFFFFFFFFFFFFFFFFFFFFFFFFFFFFFFFFFFFFFFFFFFFFFFFFFFFFFFFFFFFF
310
FFFFFFFFFFFFFFFFFFFFFFFFFFFFFFFFFFFFFFFFFFFFFFFFFFFFFFFFFFFFFFFF
310
FFFFFFFFFFFFFFFFFFFFFFFFFFFFFFFFFFFFFFFFFFFFFFFFFFFFFFFFFFFFFFFF
310
FFFFFFFFFFFFFFFFFFFFFFFFFFFFFFFFFFFFFFFFFFFFFFFFFFFFFFFFFFFFFFFF
310
FFFFFFFFFFFFFFFFFFFFFFFFFFFFFFFFFFFFFFFFFFFFFFFFFFFFFFFFFFFFFFFF
310
FFFFFFFFFFFFFFFFFFFFFFFFFFFFFFFFFFFFFFFFFFFFFFFFFFFFFFFFFFFFFFFF
310
FFFFFFFFFFFFFFFFFFFFFFFFFFFFFFFFFFFFFFFFFFFFFFFFFFFFFFFFFFFFFFFF
310
FFFFFFFFFFFFFFFFFFFFFFFFFFFFFFFFFFFFFFFFFFFFFFFFFFFFFFFFFFFFFFFF
310
FFFFFFFFFFFFFFFFFFFFFFFFFFFFFFFFFFFFFFFFFFFFFFFFFFFFFFFFFFFFFFFF
310
FFFFFFFFFFFFFFFFFFFFFFFFFFFFFFFFFFFFFFFFFFFFFFFFFFFFFFFFFFFFFFFF
310
FFFFFFFFFFFFFFFFFFFFFFFFFFFFFFFFFFFFFFFFFFFFFFFFFFFFFFFFFFFFFFFF
310
FFFFFFFFFFFFFFFFFFFFFFFFFFFFFFFFFFFFFFFFFFFFFFFFFFFFFFFFFFFFFFFF
310
FFFFFFFFFFFFFFFFFFFFFFFFFFFFFFFFFFFFFFFFFFFFFFFFFFFFFFFFFFFFFFFF
310
FFFFFFFFFFFFFFFFFFFFFFFFFFFFFFFFFFFFFFFFFFFFFFFFFFFFFFFFFFFFFFFF
310
FFFFFFFFFFFFFFFFFFFFFFFFFFFFFFFFFFFFFFFFFFFFFFFFFFFFFFFFFFFFFFFF
310
0100000200000000000000000000000000000000000000000000000000000000
310
0000000000000000000000000000000000000000000000000000000000000000
310
0100FEFF030A0000FFFFFFFF0A00030000000000C00000000000004607000000
310
5042727573680007000000504272757368000700000050427275736800F439B2
310
7100000000000000000000000000000000000000000000000000000000000000
310
0000000000000000000000000000000000000000000000000000000000000000
310
0000000000000000000000000000000000000000000000000000000000000000
310
0000000000000000000000000000000000000000000000000000000000000000
310
0000000000000000000000000000000000000000000000000000000000000000
310
0000000000000000000000000000000000000000000000000000000000000000
310
0000000000000000000000000000000000000000000000000000000000000000
310
0000000000000000000000000000000000000000000000000000000000000000
310
0000000000000000000000000000000000000000000000000000000000000000
310
0000000000000000000000000000000000000000000000000000000000000000
310
0000000000000000000000000000000000000000000000000000000000000000
310
0000000000000000000000000000000000000000000000000000000000000000
310
20260000424D0E260000000000003E00000028000000B40200006E0000000100
310
01000000000000000000130B0000130B00000200000002000000000000FFFFFF
310
FFFFFFFFFFFFFFFFFFFFFFFFFFFFFFFFFFFFFFFFFFFFFFFFFFFFFFFFFFFFFFFF
310
FFFFFFFFFFFFFFFFFFFFFFFFFFFFFFFFFFFFFFFFFFFFFFFFFFFFFFFFFFFFFFFF
310
FFFFFFFFFFFFFFFFFFFFFFFFFFFFFFFFFFFFFFFFFFFFFFFFF000FFFFFFFFFFFF
310
FFFFFFFFFFFFFFFFFFFFFFFFFFFFFFFFFFFFFFFFFFFFFFFFFFFFFFFFFFFFFFFF
310
FFFFFFFFFFFFFFFFFFFFFFFFFFFFFFFFFFFFFFFFFFFFFFFFFFFFFFFFFFFFFFFF
310
FFFFFFFFFFFFFFFFFFFFFFFFFFFFFFFFF000FFFFFFFFFFFFFFFFFFFFFFFFFFFF
310
FFFFFFFFFFFFFFFFFFFFFFFFFFFFFFFFFFFFFFFFFFFFFFFFFFFFFFFFFFFFFFFF
310
FFFFFFFFFFFFFFFFFFFFFFFFFFFFFFFFFFFFFFFFFFFFFFFFFFFFFFFFFFFFFFFF
310
FFFFFFFFFFFFFFFFF000FFFFFFFFFFFFFFFFFFFFFFFFFFFFFFFFFFFFFFFFFFFF
310
FFFFFFFFFFFFFFFFFFFFFFFFFFFFFFFFFFFFFFFFFFFFFFFFFFFFFFFFFFFFFFFF
310
FFFFFFFFFFFFFFFFFFFFFFFFFFFFFFFFFFFFFFFFFFFFFFFFFFFFFFFFFFFFFFFF
310
F000FFFFFFFFFFFFFFFFFFFFFFFFFFFFFFFFFFFFFFFFFFFFFFFFFFFFFFFFFFFF
310
FFFFFFFFFFFFFFFFFFFFFFFFFFFFFFFFFFFFFFFFFFFFFFFFFFFFFFFFFFFFFFFF
310
FFFFFFFFFFFFFFFFFFFFFFFFFFFFFFFFFFFFFFFFFFFFFFFFF000FFFFFFFFFFFF
310
FFFFFFFFFFFFFFFFFFFFFFFFFFFFFFFFFFFFFFFFFFFFFFFFFFFFFFFFFFFFFFFF
310
FFFFFFFFFFFFFFFFFFFFFFFFFFFFFFFFFFFFFFFFFFFFFFFFFFFFFFFFFFFFFFFF
310
FFFFFFFFFFFFFFFFFFFFFFFFFFFFFFFFF000FFFFFFFFFFFFFFFFFFFFFFFFFFFF
310
FFFFFFFFFFFFFFFFFFFFFFFFFFFFFFFFFFFFFFFFFFFFFFFFFFFFFFFFFFFFFFFF
310
FFFFFFFFFFFFFFFFFFFFFFFFFFFFFFFFFFFFFFFFFFFFFFFFFFFFFFFFFFFFFFFF
310
FFFFFFFFFFFFFFFFF000FFFFFFFFFFFFFFFFFFFFFFFFFFFFFFFFFFFFFFFFFFFF
310
FFFFFFFFFFFFFFFFFFFFFFFFFFFFFFFFFFFFFFFFFFFFFFFFFFFFFFFFFFFFFFFF
310
FFFFFFFFFFFFFFFFFFFFFFFFFFFFFFFFFFFFFFFFFFFFFFFFFFFFFFFFFFFFFFFF
310
F000FFFFFFFFFFFFFFFFFFFFFFFFFFFFFFFFFFFFFFFFFFFFFFFFFFFFFFFFFFFF
310
FFFFFFFFFFFFFFFFFFFFFFFFFFFFFFFFFFFFFFFFFFFFFFFFFFFFFFFFFFFFFFFF
310
FFFFFFFFFFFFFFFFFFFFFFFFFFFFFFFFFFFFFFFFFFFFFFFFF000FFFFFFFFFFFF
310
FFFFFFFFFFFFFFFFFFFFFFFFFFFFFFFFFFFFFFFFFFFFFFFFFFFFFFFFFFFFFFFF
310
FFFFFFFFFFFFFFFFFFFFFFFFFFFFFFFFFFFFFFFFFFFFFFFFFFFFFFFFFFFFFFFF
310
FFFFFFFFFFFFFFFFFFFFFFFFFFFFFFFFF000FFFFFFFFFFFFFFFFFFFFFFFFFFFF
310
FFFFFFFFFFFFFFFFFFFFFFFFFFFFFFFFFFFFFFFFFFFFFFFFFFFFFFFFFFFFFFFF
310
FFFFFFFFFFFFFFFFFFFFFFFFFFFFFFFFFFFFFFFFFFFFFFFFFFFFFFFFFFFFFFFF
310
FFFFFFFFFFFFFFFFF000FFFFFFFFFFFFFFFFFFFFFFFFFFFFFFFFFFFFFFFFFFFF
310
FFFFFFFFFFFFFFFFFFFFFFFFFFFFFFFFFFFFFFFFFFFFFFFFFFFFFFFFFFFFFFFF
310
FFFFFFFFFFFFFFFFFFFFFFFFFFFFFFFFFFFFFFFFFFFFFFFFFFFFFFFFFFFFFFFF
310
F000FFFFFFFFFFFFFFFFFFFFFFFFFFFFFFFFFFFFFFFFFFFFFFFFFFFFFFFFFFFF
310
FFFFFFFFFFFFFFFFFFFFFFFFFFFFFFFFFFFFFFFFFFFFFFFFFFFFFFFFFFFFFFFF
310
FFFFFFFFFFFFFFFFFFFFFFFFFFFFFFFFFFFFFFFFFFFFFFFFF000FFFFFFFFFFFF
310
FFFFFFFFFFFFFFFFFFFFFFFFFFFFFFFFFFFFFFFFFFFFFFFFFFFFFFFFFFFFFFFF
310
FFFFFFFFFFFFFFFFFFFFFFFFFFFFFFFFFFFFFFFFFFFFFFFFFFFFFFFFFFFFFFFF
310
FFFFFFFFFFFFFFFFFFFFFFFFFFFFFFFFF000FFFFFFFFFFFFFFFFFFFFFFFFFFFF
310
FFFFFFFFFFFFFFFFFFFFFFFFFFFFFFFFFFFFFFFFFFFFFFFFFFFFFFFFFFFFFFFF
310
FFFFFFFFFFFFFFFFFFFFFFFFFFFFFFFFFFFFFFFFFFFFFFFFFFFFFFFFFFFFFFFF
310
FFFFFFFFFFFFFFFFF000FFFFFFFFFFFFFFFFFFFFFFFFFFFFFFFFFFFFFFFFFFFF
310
FFFFFFFFFFFFFFFFFFFFFFFFFFFFFFFFFFFFFFFFFFFFFFFFFFFFFFFFFFFFFFFF
310
FFFFFFFFFFFFFFFFFFFFFFFFFFFFFFFFFFFFFFFFFFFFFFFFFFFFFFFFFFFFFFFF
310
F000FFFFFFFFFFFFFFFFFFFFFFFFFFFFFFFFFFFFFFFFFFFFFFFFFFFFFFFFFFFF
310
FFFFFFFFFFFFFFFFFFFFFFFFFFFFFFFFFFFFFFFFFFFFFFFFFFFFFFFFFFFFFFFF
310
FFFFFFFFFFFFFFFFFFFFFFFFFFFFFFFFFFFFFFFFFFFFFFFFF000FFFFFFFFFFFF
310
FFFFFFFFFFFFFFFFFFFFFFFFFFFFFFFFFFFFFFFFFFFFFFFFFFFFFFFFFFFFFFFF
310
FFFFFFFFFFFFFFFFFFFFFFFFFFFFFFFFFFFFFFFFFFFFFFFFFFFFFFFFFFFFFFFF
310
FFFFFFFFFFFFFFFFFFFFFFFFFFFFFFFFF000FFFFFFFFFFFFFFFFFFFFFFFFFFFF
310
FFFFFFFFFFFFFFFFFFFFFFFFFFFFFFFFFFFFFFFFFFFFFFFFFFFFFFFFFFFFFFFF
310
FFFFFFFFFFFFFFFFFFFFFFFFFFFFFFFFFFFFFFFFFFFFFFFFFFFFFFFFFFFFFFFF
310
FFFFFFFFFFFFFFFFF000FFFFF80003FFFFFFFFFFFFFFFFFFFFFFFFFFFFFFFFFF
310
FFFFF00007FFFFFFFFFF00007FFFFFF800000000000000007FFFFFFFFFFFFFFF
310
FFFFFFFC001FFFFFFFFFFFFFFC001FFFFFFFFFFFFFFFFFFFFFFFFFFE0007FFFF
310
F000FFFF8000007FFFFFFFF8000FFFFFC0007FFFFF80007FFFFF0000007FFFFF
310
FFF8000007FFFFF800000000000000007FFFFFF0001FFFFFFFFFFFC00001FFFF
310
FFFFFFFFC00001FFFFFFFF000000000003FFFFE000007FFFF000FFFE0000000F
310
FFFFFFF0000FFFFF80007FFFFF80007FFFFC0000001FFFFFFFC0000001FFFFF8
310
00000000000000007FFFFFF0001FFFFFFFFFFE0000003FFFFFFFFFFE0000003F
310
FFFFFF000000000003FFFF0000000FFFF000FFF800000003FFFFFFF00007FFFF
310
80007FFFFF80007FFFF000000007FFFFFF000000003FFFF80000000000000000
310
7FFFFFF0001FFFFFFFFFF80000000FFFFFFFFFF80000000FFFFFFF0000000000
310
03FFFC00000003FFF000FFE000000000FFFFFFF00007FFFF80003FFFFF80007F
310
FFC000000001FFFFFC000000001FFFF800000000000000007FFFFFF0001FFFFF
310
FFFFE000000003FFFFFFFFE000000003FFFFFF000000000003FFF000000000FF
310
F000FF80000000007FFFFFF00007FFFF80003FFFFF80007FFF8000000000FFFF
310
F80000000007FFF800000000000000007FFFFFF0001FFFFFFFFFC000000001FF
310
FFFFFFC000000001FFFFFF000000000003FFC0000000007FF000FF0000000000
310
3FFFFFE00007FFFF00003FFFFF80007FFE00000000003FFFF00000000003FFF8
310
00000000000000007FFFFFF0001FFFFFFFFF8000000000FFFFFFFF8000000000
310
FFFFFF000000000003FF80000000003FF000FE00000000001FFFFFE00003FFFF
310
00003FFFFF80007FFC00000000001FFFE00000000001FFF8000001FFFE000000
310
7FFFFFF0001FFFFFFFFE00000000003FFFFFFE00000000003FFFFF0000000000
310
03FF00000000001FF000FC00000000000FFFFFE00003FFFF00001FFFFF80007F
310
F800000000001FFFC00000000000FFF8000001FFFE0000007FFFFFF0001FFFFF
310
FFFC00000000001FFFFFFC00000000001FFFFF000000000003FE00000000000F
310
F000F8000000000007FFFFE00003FFFF00001FFFFF80007FF800000000000FFF
310
800000000000FFF8000001FFFE0000007FFFFFF0001FFFFFFFF800000000000F
310
FFFFF800000000000FFFFF000000000003FC000000000007F000F80000000000
310
03FFFFC00003FFFE00001FFFFF80007FF0000000000007FF0000000000007FF8
310
000001FFFE0000007FFFFFF0001FFFFFFFF0000000000007FFFFF00000000000
310
07FFFF000000000003F8000000000003F000F0000000000003FFFFC00001FFFE
310
00001FFFFF80007FE0000000000007FE0000000000003FF8000001FFFE000000
310
7FFFFFF0001FFFFFFFF0000000000007FFFFF0000000000007FFFF0000000000
310
03F800001F800003F000E00001FFF00001FFFFC00001FFFE00000FFFFF80007F
310
E00001FFE00003FE00001FFF00003FF8000001FFFE0000007FFFFFF0001FFFFF
310
FFE000003E000003FFFFE000003E000003FFFF000000000003F00001FFF80001
310
F000E00007FFFC0001FFFFC00001FFFE00000FFFFF80007FC0000FFFFC0003FC
310
0000FFFFC0001FF8000001FFFE0000007FFFFFF0001FFFFFFFC00003FFE00001
310
FFFFC00003FFE00001FFFF0001FFFFFFFFF00007FFFE0001F000E0000FFFFF00
310
00FFFF800001FFFC00000FFFFF80007FC0001FFFFE0001FC0001FFFFE0001FF8
310
000001FFFE0000007FFFFFF0001FFFFFFF80000FFFF80000FFFF80000FFFF800
310
00FFFF0003FFFFFFFFE0000FFFFF8000F000C0003FFFFF8000FFFF800000FFFC
310
000007FFFF80007F80003FFFFF0001FC0003FFFFF0001FF8000001FFFE000000
310
7FFFFFF0001FFFFFFF80003FFFFE0000FFFF80003FFFFE0000FFFF0003FFFFFF
310
FFE0003FFFFF8000F000C0003FFFFF8000FFFF800000FFFC000007FFFF80007F
310
80007FFFFF8001F80007FFFFF8000FF8000001FFFE0000007FFFFFF0001FFFFF
310
FF00007FFFFF00007FFF00007FFFFF00007FFF0003FFFFFFFFE0003FFFFFC000
310
F000C0007FFFFFC000FFFF000000FFFC000007FFFF80007F8000FFFFFF8000F8
310
000FFFFFF8000FF8000001FFFE0000007FFFFFF0001FFFFFFF0000FFFFFF8000
310
7FFF0000FFFFFF80007FFF0003FFFFFFFFC0007FFFFFC00070008000FFFFFFC0
310
00FFFF000000FFF8000007FFFF80007F8000FFFFFF8000F8000FFFFFF8000FF8
310
000001FFFE0000007FFFFFF0001FFFFFFE0001FFFFFFC0003FFE0001FFFFFFC0
310
003FFF0003FFFFFFFFC0007FFFFFE00070008000FFFFFFC0007FFF0000007FF8
310
000003FFFF80007F0001FFFFFF8000F8000FFFFFF8000FF8000001FFFE000000
310
7FFFFFF0001FFFFFFE0001FFFFFFC0003FFE0001FFFFFFC0003FFF0003FFFFFF
310
FFC000FFFFFFE00070008000FFFFFFC0007FFF0000007FF8000003FFFF80007F
310
0001FFFFFF8000F8001FFFFFF8000FF8000001FFFE0000007FFFFFF0001FFFFF
310
FE0003FFFFFFE0003FFE0003FFFFFFE0003FFF0003FFFFFFFFC000FFFFFFE000
310
70008000FFFFFFC0007FFE0000007FF8000003FFFF80007F0001FFFFFF8000F0
310
001FFFFFF8000FF8000001FFFE0000007FFFFFF0001FFFFFFC0003FFFFFFE000
310
1FFC0003FFFFFFE0001FFF0003FFFFFFFFC000FFFFFFC00070008000FFFFFF80
310
007FFE0000007FF0000003FFFF80007F0001FFFFFF0000F0001FFFFFF8000FF8
310
000001FFFE0000007FFFFFF0001FFFFFFC0007FFFFFFF0001FFC0007FFFFFFF0
310
001FFF0003FFFFFFFFC000FFFFFFC00070008001FFFFFF0000FFFE0000003FF0
310
000001FFFF80007F0001FFFFFF0000F8001FFFFFF0000FF8000001FFFE000000
310
7FFFFFF0001FFFFFFC0007FFFFFFF0001FFC0007FFFFFFF0001FFF0003FFFFFF
310
FFC001FFFFFF80007000FFFFFFFFFE0000FFFE0008003FF0008001FFFF80007F
310
FFFFFFFFFC0000FFFFFFFFFFE0000FF8000001FFFE0000007FFFFFF0001FFFFF
310
F8000FFFFFFFF8000FF8000FFFFFFFF8000FFF0003FFFFFFFFFFFFFFFFFF0000
310
7000FFFFFFFFFC0000FFFC0008003FF0008001FFFF80007FFFFFFFFFF80001FF
310
FFFFFFFF80000FF8000001FFFE0000007FFFFFF0001FFFFFF8000FFFFFFFF800
310
0FF8000FFFFFFFF8000FFF0003FFFFFFFFFFFFFFFFFE0000F000FFFFFFFFE000
310
00FFFC000C003FE000C001FFFF80007FFFFFFFFFC00001FFFFFFFFFE00001FF8
310
000001FFFE0000007FFFFFF0001FFFFFF8000FFFFFFFF8000FF8000FFFFFFFF8
310
000FFF0003FFFFFFFFFFFFFFFFF00000F000FFFFFFFE000001FFFC000C001FE0
310
00C000FFFF80007FFFFFFFFE000001FFFFFFFFE000001FF80FFFFFFFFFFFFFC0
310
7FFFFFF0001FFFFFF8000FFFFFFFF8000FF8000FFFFFFFF8000FFF0003FFFFFF
310
FFFFFFFFFF800000F000FFFFFFC0000001FFFC001C001FE001C000FFFF80007F
310
FFFFFF80000003FFFFFFF80000001FF80FFFFFFFFFFFFFC07FFFFFF0001FFFFF
310
F8001FFFFFFFFC000FF8001FFFFFFFFC000FFF0003FFFFFFFFFFFFFFF0000001
310
F000FFFFF800000001FFF8001C001FE001C000FFFF80007FFFFFF800000003FF
310
FFFF800000003FF80FFFFFFFFFFFFFC07FFFFFF0001FFFFFF8001FFFFFFFFC00
310
0FF8001FFFFFFFFC000FFF0003FFFFFFFFFFFFFE00000001F000FFFFC0000000
310
03FFF8001E001FC001E000FFFF80007FFFFF8000000007FFFFFC000000003FF8
310
0FFFFFFFFFFFFFC07FFFFFF0001FFFFFF8001FFFFFFFFC000FF8001FFFFFFFFC
310
000FFF0003FFFFFFFFFFFFE000000003F000FFFE0000000007FFF8001E000FC0
310
01E0007FFF80007FFFFE0000000007FFFFE0000000007FF80FFFFFFFFFFFFFC0
310
7FFFFFF0001FFFFFF0001FFFFFFFFC0007F0001FFFFFFFFC0007FF0003FFFFFF
310
FFFFFF0000000003F000FFF80000000007FFF8001E000FC003E0007FFF80007F
310
FFF0000000000FFFFF8000000000FFF80FFFFFFFFFFFFFC07FFFFFF0001FFFFF
310
F0001FFFFFFFFC0007F0001FFFFFFFFC0007FF0003FFFFFFFFFFFC0000000007
310
F000FFE0000000000FFFF0003E000FC003E0007FFF80007FFFC0000000001FFF
310
FE0000000001FFF80FFFFFFFFFFFFFC07FFFFFF0001FFFFFF0001FFFFFFFFC00
310
07F0001FFFFFFFFC0007FF0003FFFFFFFFFFF0000000000FF000FFC000000000
310
1FFFF0003F000F8003F0003FFF80007FFF80000000003FFFF80000000003FFF8
310
0FFFFFFFFFFFFFC07FFFFFF0001FFFFFF0001FFFFFFFFC0007F0001FFFFFFFFC
310
0007FF0003FFFFFFFFFFE0000000001FF000FF00000000007FFFF0003F000780
310
03F0003FFF80007FFF00000000007FFFF00000000007FFF80FFFFFFFFFFFFFC0
310
7FFFFFF0001FFFFFF0001FFFFFFFFC0007F0001FFFFFFFFC0007FF0003FFFFFF
310
FFFF80000000007FF000FE0000000000FFFFE0003F00078007F0003FFF80007F
310
FE0000000001FFFFE0000000001FFFF80FFFFFFFFFFFFFC07FFFFFF0001FFFFF
310
F0001FFFFFFFFC0007F0001FFFFFFFFC0007FF0003FFFFFFFFFF0000000000FF
310
F000FC0000000003FFFFE0007F00078007F0003FFF80007FFC0000000007FFFF
310
C0000000007FFFF80FFFFFFFFFFFFFC07FFFFFF0001FFFFFF8001FFFFFFFFC00
310
0FF8001FFFFFFFFC000FFF0003FFFFFFFFFE0000000003FFF000FC000000000F
310
FFFFE0007F80070007F8001FFF80007FF8000000001FFFFF8000000001FFFFF8
310
0FFFFFFFFFFFFFC07FFFFFF0001FFFFFF8001FFFFFFFFC000FF8001FFFFFFFFC
310
000FFF0003FFFFFFFFFC000000000FFFF000F8000000007FFFFFE0007F800700
310
07F8001FFF80007FF000000000FFFFFF800000000FFFFFF80FFFFFFFFFFFFFC0
310
7FFFFFF0001FFFFFF8000FFFFFFFF8000FF8000FFFFFFFF8000FFF0003FFFFFF
310
FFFC000000007FFFF000F800000007FFFFFFC0007F8003000FF8001FFF80007F
310
F000000007FFFFFF000000007FFFFFF80FFFFFFFFFFFFFC07FFFFFF0001FFFFF
310
F8000FFFFFFFF8000FF8000FFFFFFFF8000FFF0003FFFFFFFFF80000000FFFFF
310
F000F0000000FFFFFFFFC000FF8003000FF8001FFF80007FE0000000FFFFFFFF
310
0000000FFFFFFFF8000001FFFE0000007FFFFFF0001FFFFFF8000FFFFFFFF800
310
0FF8000FFFFFFFF8000FFF0003FFFFFFFFF8000000FFFFFFF000F000000FFFFF
310
FFFFC000FFC002000FF8000FFF80007FE000001FFFFFFFFE000001FFFFFFFFF8
310
000001FFFE0000007FFFFFF0001FFFFFF8000FFFFFFFF8000FF8000FFFFFFFF8
310
000FFF0003FFFFFFFFF000001FFFFFFFF000E00000FFFFFFFFFFC000FFC00200
310
0FFC000FFF80007FE00001FFFFFFFFFE00001FFFFFFFFFF8000001FFFE000000
310
7FFFFFF0001FFFFFFC000FFFFFFFF8001FFC000FFFFFFFF8001FFF0003FFFFFF
310
FFF00001FFFFFFFFF000E00007FFFFFFFFFF8000FFC000001FFC000FFF80007F
310
C0000FFFFFFFFFFE0000FFFFFFFFFFF8000001FFFE0000007FFFFFF0001FFFFF
310
FC0007FFFFFFF0001FFC0007FFFFFFF0001FFF0003FFFFFFFFF00007FFFFFFFF
310
F000E0001FFFFFFFFFFF8000FFC000001FFC000FFF80007FC0003FFFFFFFFFFE
310
0001FFFFFFFFFFF8000001FFFE0000007FFFFFF0001FFFFFFC0007FFFFFFF000
310
1FFC0007FFFFFFF0001FFF0003FFFFFFFFF0001FFFFFFFFFF000E0003FFFFF00
310
03FF8001FFE000001FFC0007FF80007FC0007FFFFF0007FC0003FFFFF0003FF8
310
000001FFFE0000007FFFFFF0001FFFFFFC0003FFFFFFE0001FFC0003FFFFFFE0
310
001FFF0003FFFFFFFFF0003FFFFFFFFFF000E0003FFFFF0001FF8001FFE00000
310
1FFE0007FF80007FC0007FFFFE0003FC0007FFFFE0003FF8000001FFFE000000
310
7FFFFFF0001FFFFFFE0003FFFFFFE0003FFE0003FFFFFFE0003FFF0003FFFFFF
310
FFF0003FFFFF8001F000E0003FFFFF0001FF0001FFE000001FFE0007FF80007F
310
C0007FFFFE0003FC0007FFFFE0003FF8000001FFFE0000007FFFFFF0001FFFFF
310
FE0001FFFFFFC0003FFE0001FFFFFFC0003FFF0003FFFFFFFFF0003FFFFF0001
310
F000E0003FFFFF0003FF0001FFE000003FFE0007FF80007FC0007FFFFE0003FC
310
0007FFFFE0003FF8000001FFFE0000007FFFFFF0001FFFFFFF0001FFFFFFC000
310
7FFF0001FFFFFFC0007FFF0003FFFFFFFFF0003FFFFF0001F000E0003FFFFE00
310
03FF0003FFF000003FFE0003FF80007FC0007FFFFC0003FE0007FFFFE0003FF8
310
000001FFFE0000007FFFFFF0001FFFFFFF0000FFFFFF80007FFF0000FFFFFF80
310
007FFF0003FFFFFFFFF0003FFFFF0001F000E0003FFFFE0003FF0003FFF00000
310
3FFF0003FF80007FC0007FFFFC0007FE0007FFFFC0003FF8000001FFFE000000
310
7FFFFFF0001FFFFFFF80007FFFFF0000FFFF80007FFFFF0000FFFF0003FFFFFF
310
FFF0003FFFFF0003F000E0003FFFFC0003FE0003FFF000003FFF0003FF80007F
310
E0003FFFF80007FE0003FFFFC0007FF8000001FFFE0000007FFFFFF0001FFFFF
310
FF80003FFFFE0000FFFF80003FFFFE0000FFFF0003FFFFFFFFF0001FFFFE0003
310
F000F0001FFFF80003FE0003FFF000007FFF0001FF80007FE0003FFFF00007FE
310
0001FFFF80007FF8000001FFFE0000007FFFFFF0001FFFFFFFC0000FFFF80001
310
FFFFC0000FFFF80001FFFF0003FFFFFFFFF0001FFFFC0003F000F0000FFFF000
310
07FE0007FFF800007FFF0001FF80007FE0001FFFE00007FF0000FFFE00007FF8
310
000001FFFE0000007FFFFFF0001FFFFFFFC00003FFE00001FFFFC00003FFE000
310
01FFFF0003FFFFFFFFF8000FFFF80003F000F00003FFC00007FC0007FFF80000
310
7FFF8001FF80007FF00007FF80000FFF00007FF80000FFF8000001FFFE000000
310
7F80000000000001FFE000003E000003FFFFE000003E000003FFFF0003FFFFFF
310
FFF80003FFE00007F000F800000000000FFC0007FFF800007FFF8001FF80007F
310
F000000000000FFF000000000000FFF8000001FFFE0000007F80000000000001
310
FFF0000000000007FFFFF0000000000007FFFF0003FFFFFFFFFC00007E000007
310
F000F800000000000FFC0007FFF80000FFFF8000FF80007FF800000000001FFF
310
800000000001FFF8000001FFFE0000007F80000000000001FFF800000000000F
310
FFFFF800000000000FFFFF0003FFFFFFFFFC00000000000FF000FC0000000000
310
1FFC0007FFFC0000FFFF8000FF80007FF800000000003FFFC00000000001FFF8
310
000001FFFE0000007F80000000000001FFF800000000000FFFFFF80000000000
310
0FFFFF0003FFFFFFFFFE00000000001FF000FE00000000003FF8000FFFFC0000
310
FFFF8000FF80007FFC00000000003FFFC00000000003FFF8000001FFFE000000
310
7F80000000000001FFFC00000000001FFFFFFC00000000001FFFFF0003FFFFFF
310
FFFF00000000001FF000FF00000000003FF8000FFFFC0000FFFFC000FF80007F
310
FE00000000007FFFE00000000007FFF8000001FFFE0000007F80000000000001
310
FFFE00000000003FFFFFFE00000000003FFFFF0003FFFFFFFFFF80000000003F
310
F000FF80000000007FF8000FFFFC0001FFFFC0007F80007FFF0000000000FFFF
310
F0000000000FFFF800000000000000007F80000000000001FFFF8000000000FF
310
FFFFFF8000000000FFFFFF0003FFFFFFFFFFC0000000007FF000FFC000000000
310
FFF8000FFFFE0001FFFFC0007F80007FFF8000000001FFFFF8000000001FFFF8
310
00000000000000007F80000000000001FFFFC000000001FFFFFFFFC000000001
310
FFFFFF0003FFFFFFFFFFE000000000FFF000FFE000000003FFF0001FFFFE0001
310
FFFFC0007F80007FFFC000000007FFFFFE000000003FFFF80000000000000000
310
7F80000000000001FFFFE000000003FFFFFFFFE000000003FFFFFF0003FFFFFF
310
FFFFF000000003FFF000FFF80000000FFFF0001FFFFE0001FFFFE0007F80007F
310
FFF00000000FFFFFFF00000000FFFFF800000000000000007F80000000000001
310
FFFFF80000000FFFFFFFFFF80000000FFFFFFF0003FFFFFFFFFFFC0000000FFF
310
F000FFFE0000003FFFF0001FFFFE0003FFFFE0003F80007FFFFC0000003FFFFF
310
FFC0000003FFFFF800000000000000007F80000000000001FFFFFE0000003FFF
310
FFFFFFFE0000003FFFFFFF0003FFFFFFFFFFFF0000003FFFF000FFFF800000FF
310
FFF0001FFFFF0003FFFFE0003F80007FFFFF000001FFFFFFFFF800001FFFFFF8
310
00000000000000007F80000000000001FFFFFFC00001FFFFFFFFFFFFC00001FF
310
FFFFFF0003FFFFFFFFFFFFC00000FFFFF000FFFFF8000FFFFFFFFFFFFFFFFFFF
310
FFFFFFFFFFFFFFFFFFFFF0001FFFFFFFFFFF0000FFFFFFF80000000000000000
310
7FFFFFFFFFFFFFFFFFFFFFFC001FFFFFFFFFFFFFFC001FFFFFFFFFFFFFFFFFFF
310
FFFFFFFC001FFFFFF000FFFFFFFFFFFFFFFFFFFFFFFFFFFFFFFFFFFFFFFFFFFF
310
FFFFFFFFFFFFFFFFFFFFFFFFFFFFFFFFFFFFFFFFFFFFFFFFFFFFFFFFFFFFFFFF
310
FFFFFFFFFFFFFFFFFFFFFFFFFFFFFFFFFFFFFFFFFFFFFFFFFFFFFFFFFFFFFFFF
310
F000FFFFFFFFFFFFFFFFFFFFFFFFFFFFFFFFFFFFFFFFFFFFFFFFFFFFFFFFFFFF
310
FFFFFFFFFFFFFFFFFFFFFFFFFFFFFFFFFFFFFFFFFFFFFFFFFFFFFFFFFFFFFFFF
310
FFFFFFFFFFFFFFFFFFFFFFFFFFFFFFFFFFFFFFFFFFFFFFFFF000FFFFFFFFFFFF
310
FFFFFFFFFFFFFFFFFFFFFFFFFFFFFFFFFFFFFFFFFFFFFFFFFFFFFFFFFFFFFFFF
310
FFFFFFFFFFFFFFFFFFFFFFFFFFFFFFFFFFFFFFFFFFFFFFFFFFFFFFFFFFFFFFFF
310
FFFFFFFFFFFFFFFFFFFFFFFFFFFFFFFFF000FFFFFFFFFFFFFFFFFFFFFFFFFFFF
310
FFFFFFFFFFFFFFFFFFFFFFFFFFFFFFFFFFFFFFFFFFFFFFFFFFFFFFFFFFFFFFFF
310
FFFFFFFFFFFFFFFFFFFFFFFFFFFFFFFFFFFFFFFFFFFFFFFFFFFFFFFFFFFFFFFF
310
FFFFFFFFFFFFFFFFF000FFFFFFFFFFFFFFFFFFFFFFFFFFFFFFFFFFFFFFFFFFFF
310
FFFFFFFFFFFFFFFFFFFFFFFFFFFFFFFFFFFFFFFFFFFFFFFFFFFFFFFFFFFFFFFF
310
FFFFFFFFFFFFFFFFFFFFFFFFFFFFFFFFFFFFFFFFFFFFFFFFFFFFFFFFFFFFFFFF
310
F000FFFFFFFFFFFFFFFFFFFFFFFFFFFFFFFFFFFFFFFFFFFFFFFFFFFFFFFFFFFF
310
FFFFFFFFFFFFFFFFFFFFFFFFFFFFFFFFFFFFFFFFFFFFFFFFFFFFFFFFFFFFFFFF
310
FFFFFFFFFFFFFFFFFFFFFFFFFFFFFFFFFFFFFFFFFFFFFFFFF000FFFFFFFFFFFF
310
FFFFFFFFFFFFFFFFFFFFFFFFFFFFFFFFFFFFFFFFFFFFFFFFFFFFFFFFFFFFFFFF
310
FFFFFFFFFFFFFFFFFFFFFFFFFFFFFFFFFFFFFFFFFFFFFFFFFFFFFFFFFFFFFFFF
310
FFFFFFFFFFFFFFFFFFFFFFFFFFFFFFFFF000FFFFFFFFFFFFFFFFFFFFFFFFFFFF
310
FFFFFFFFFFFFFFFFFFFFFFFFFFFFFFFFFFFFFFFFFFFFFFFFFFFFFFFFFFFFFFFF
310
FFFFFFFFFFFFFFFFFFFFFFFFFFFFFFFFFFFFFFFFFFFFFFFFFFFFFFFFFFFFFFFF
310
FFFFFFFFFFFFFFFFF000FFFFFFFFFFFFFFFFFFFFFFFFFFFFFFFFFFFFFFFFFFFF
310
FFFFFFFFFFFFFFFFFFFFFFFFFFFFFFFFFFFFFFFFFFFFFFFFFFFFFFFFFFFFFFFF
310
FFFFFFFFFFFFFFFFFFFFFFFFFFFFFFFFFFFFFFFFFFFFFFFFFFFFFFFFFFFFFFFF
310
F000FFFFFFFFFFFFFFFFFFFFFFFFFFFFFFFFFFFFFFFFFFFFFFFFFFFFFFFFFFFF
310
FFFFFFFFFFFFFFFFFFFFFFFFFFFFFFFFFFFFFFFFFFFFFFFFFFFFFFFFFFFFFFFF
310
FFFFFFFFFFFFFFFFFFFFFFFFFFFFFFFFFFFFFFFFFFFFFFFFF000FFFFFFFFFFFF
310
FFFFFFFFFFFFFFFFFFFFFFFFFFFFFFFFFFFFFFFFFFFFFFFFFFFFFFFFFFFFFFFF
310
FFFFFFFFFFFFFFFFFFFFFFFFFFFFFFFFFFFFFFFFFFFFFFFFFFFFFFFFFFFFFFFF
310
FFFFFFFFFFFFFFFFFFFFFFFFFFFFFFFFF000FFFFFFFFFFFFFFFFFFFFFFFFFFFF
310
FFFFFFFFFFFFFFFFFFFFFFFFFFFFFFFFFFFFFFFFFFFFFFFFFFFFFFFFFFFFFFFF
310
FFFFFFFFFFFFFFFFFFFFFFFFFFFFFFFFFFFFFFFFFFFFFFFFFFFFFFFFFFFFFFFF
310
FFFFFFFFFFFFFFFFF000FFFFFFFFFFFFFFFFFFFFFFFFFFFFFFFFFFFFFFFFFFFF
310
FFFFFFFFFFFFFFFFFFFFFFFFFFFFFFFFFFFFFFFFFFFFFFFFFFFFFFFFFFFFFFFF
310
FFFFFFFFFFFFFFFFFFFFFFFFFFFFFFFFFFFFFFFFFFFFFFFFFFFFFFFFFFFFFFFF
310
F000FFFFFFFFFFFFFFFFFFFFFFFFFFFFFFFFFFFFFFFFFFFFFFFFFFFFFFFFFFFF
310
FFFFFFFFFFFFFFFFFFFFFFFFFFFFFFFFFFFFFFFFFFFFFFFFFFFFFFFFFFFFFFFF
310
FFFFFFFFFFFFFFFFFFFFFFFFFFFFFFFFFFFFFFFFFFFFFFFFF000FFFFFFFFFFFF
310
FFFFFFFFFFFFFFFFFFFFFFFFFFFFFFFFFFFFFFFFFFFFFFFFFFFFFFFFFFFFFFFF
310
FFFFFFFFFFFFFFFFFFFFFFFFFFFFFFFFFFFFFFFFFFFFFFFFFFFFFFFFFFFFFFFF
310
FFFFFFFFFFFFFFFFFFFFFFFFFFFFFFFFF000FFFFFFFFFFFFFFFFFFFFFFFFFFFF
310
FFFFFFFFFFFFFFFFFFFFFFFFFFFFFFFFFFFFFFFFFFFFFFFFFFFFFFFFFFFFFFFF
310
FFFFFFFFFFFFFFFFFFFFFFFFFFFFFFFFFFFFFFFFFFFFFFFFFFFFFFFFFFFFFFFF
310
FFFFFFFFFFFFFFFFF000FFFFFFFFFFFFFFFFFFFFFFFFFFFFFFFFFFFFFFFFFFFF
310
FFFFFFFFFFFFFFFFFFFFFFFFFFFFFFFFFFFFFFFFFFFFFFFFFFFFFFFFFFFFFFFF
310
FFFFFFFFFFFFFFFFFFFFFFFFFFFFFFFFFFFFFFFFFFFFFFFFFFFFFFFFFFFFFFFF
310
F000FFFFFFFFFFFFFFFFFFFFFFFFFFFFFFFFFFFFFFFFFFFFFFFFFFFFFFFFFFFF
310
FFFFFFFFFFFFFFFFFFFFFFFFFFFFFFFFFFFFFFFFFFFFFFFFFFFFFFFFFFFFFFFF
310
FFFFFFFFFFFFFFFFFFFFFFFFFFFFFFFFFFFFFFFFFFFFFFFFF000FFFFFFFFFFFF
310
FFFFFFFFFFFFFFFFFFFFFFFFFFFFFFFFFFFFFFFFFFFFFFFFFFFFFFFFFFFFFFFF
310
FFFFFFFFFFFFFFFFFFFFFFFFFFFFFFFFFFFFFFFFFFFFFFFFFFFFFFFFFFFFFFFF
310
FFFFFFFFFFFFFFFFFFFFFFFFFFFFFFFFF000FFFFFFFFFFFFFFFFFFFFFFFFFFFF
310
FFFFFFFFFFFFFFFFFFFFFFFFFFFFFFFFFFFFFFFFFFFFFFFFFFFFFFFFFFFFFFFF
310
FFFFFFFFFFFFFFFFFFFFFFFFFFFFFFFFFFFFFFFFFFFFFFFFFFFFFFFFFFFFFFFF
310
FFFFFFFFFFFFFFFFF000FFFFFFFFFFFFFFFFFFFFFFFFFFFFFFFFFFFFFFFFFFFF
310
FFFFFFFFFFFFFFFFFFFFFFFFFFFFFFFFFFFFFFFFFFFFFFFFFFFFFFFFFFFFFFFF
310
FFFFFFFFFFFFFFFFFFFFFFFFFFFFFFFFFFFFFFFFFFFFFFFFFFFFFFFFFFFFFFFF
310
F000FFFFFFFFFFFFFFFFFFFFFFFFFFFFFFFFFFFFFFFFFFFFFFFFFFFFFFFFFFFF
310
FFFFFFFFFFFFFFFFFFFFFFFFFFFFFFFFFFFFFFFFFFFFFFFFFFFFFFFFFFFFFFFF
310
FFFFFFFFFFFFFFFFFFFFFFFFFFFFFFFFFFFFFFFFFFFFFFFFF000FFFFFFFFFFFF
310
FFFFFFFFFFFFFFFFFFFFFFFFFFFFFFFFFFFFFFFFFFFFFFFFFFFFFFFFFFFFFFFF
310
FFFFFFFFFFFFFFFFFFFFFFFFFFFFFFFFFFFFFFFFFFFFFFFFFFFFFFFFFFFFFFFF
310
FFFFFFFFFFFFFFFFFFFFFFFFFFFFFFFFF0000000000000000000000000000000
310
0000000000000000000000000000000000000000000000000000000000000000
310
0000000000000000000000000000000000000000000000000000000000000000
310
0000000000000000000000000000000000000000000000000000000000000000
310
0000000000000000000000000000000000000000000000000000000000000000
310
0000000000000000000000000000000000000000000000000000000000000000
310
0000000000000000000000000000000000000000000000000000000000000000
310
0000000000000000000000000000000000000000000000000000000000000000
310
0000000000000000000000000000000000000000000000000000000000000000
310
0000000000000000000000000000000000000000000000000000000000000000
310
0000000000000000000000000000000000000000000000000000000000000000
310
0000000000000000000000000000000000000000000000000000000000000000
310
0000000000000000000000000000000000000000000000000000000000000000
310
0000000000000000000000000000000000000000000000000000000000000000
310
0000000000000000000000000000000000000000000000000000000000000000
310
0000000000000000000000000000000000000000000000000000000000000000
  1
OLE
  0
ENDSEC
  0
SECTION
  2
OBJECTS
  0
DICTIONARY
  5
C
330
0
100
AcDbDictionary
281
     1
  3
ACAD_GROUP
350
D
  3
ACAD_LAYOUT
350
1A
  3
ACAD_MLINESTYLE
350
17
  3
ACAD_PLOTSETTINGS
350
19
  3
ACAD_PLOTSTYLENAME
350
E
  3
ACAD_SCALELIST
350
47
  0
DICTIONARY
  5
D
102
{ACAD_REACTORS
330
C
102
}
330
C
100
AcDbDictionary
281
     1
  0
DICTIONARY
  5
1A
102
{ACAD_REACTORS
330
C
102
}
330
C
100
AcDbDictionary
281
     1
  3
Layout1
350
1E
  3
Layout2
350
26
  3
Model
350
22
  0
DICTIONARY
  5
17
102
{ACAD_REACTORS
330
C
102
}
330
C
100
AcDbDictionary
281
     1
  3
Standard
350
18
  0
DICTIONARY
  5
19
102
{ACAD_REACTORS
330
C
102
}
330
C
100
AcDbDictionary
281
     1
  0
ACDBDICTIONARYWDFLT
  5
E
102
{ACAD_REACTORS
330
C
102
}
330
C
100
AcDbDictionary
281
     1
  3
Normal
350
F
100
AcDbDictionaryWithDefault
340
F
  0
DICTIONARY
  5
47
102
{ACAD_REACTORS
330
C
102
}
330
C
100
AcDbDictionary
281
     1
  3
A0
350
48
  3
A1
350
49
  3
A2
350
4A
  3
A3
350
4B
  3
A4
350
4C
  3
A5
350
4D
  3
A6
350
4E
  3
A7
350
4F
  3
A8
350
50
  3
A9
350
51
  3
B0
350
52
  3
B1
350
53
  3
B2
350
54
  3
B3
350
55
  3
B4
350
56
  3
B5
350
57
  3
B6
350
58
  3
B7
350
59
  3
B8
350
5A
  3
B9
350
5B
  3
C0
350
5C
  3
C1
350
5D
  3
C2
350
5E
  3
C3
350
5F
  3
C4
350
60
  3
C5
350
61
  3
C6
350
62
  3
C7
350
63
  3
C8
350
64
  3
C9
350
65
  3
D0
350
66
  3
D1
350
67
  3
D2
350
68
  0
LAYOUT
  5
1E
102
{ACAD_REACTORS
330
1A
102
}
330
1A
100
AcDbPlotSettings
  1

  2
none_device
  4

  6

 40
0.0
 41
0.0
 42
0.0
 43
0.0
 44
0.0
 45
0.0
 46
0.0
 47
0.0
 48
0.0
 49
0.0
140
0.0
141
0.0
142
1.0
143
1.0
 70
   688
 72
     1
 73
     0
 74
     5
  7

 75
    16
147
1.0
148
0.0
149
0.0
100
AcDbLayout
  1
Layout1
 70
     1
 71
     1
 10
0.0
 20
0.0
 11
420.0
 21
297.0
 12
0.0
 22
0.0
 32
0.0
 14
1.0000000000E+20
 24
1.0000000000E+20
 34
1.0000000000E+20
 15
-1.0000000000E+20
 25
-1.0000000000E+20
 35
-1.0000000000E+20
146
0.0
 13
0.0
 23
0.0
 33
0.0
 16
1.0
 26
0.0
 36
0.0
 17
0.0
 27
1.0
 37
0.0
 76
     0
330
1B
  0
LAYOUT
  5
26
102
{ACAD_REACTORS
330
1A
102
}
330
1A
100
AcDbPlotSettings
  1

  2
none_device
  4

  6

 40
0.0
 41
0.0
 42
0.0
 43
0.0
 44
0.0
 45
0.0
 46
0.0
 47
0.0
 48
0.0
 49
0.0
140
0.0
141
0.0
142
1.0
143
1.0
 70
   688
 72
     1
 73
     0
 74
     5
  7

 75
    16
147
1.0
148
0.0
149
0.0
100
AcDbLayout
  1
Layout2
 70
     1
 71
     2
 10
0.0
 20
0.0
 11
0.0
 21
0.0
 12
0.0
 22
0.0
 32
0.0
 14
0.0
 24
0.0
 34
0.0
 15
0.0
 25
0.0
 35
0.0
146
0.0
 13
0.0
 23
0.0
 33
0.0
 16
1.0
 26
0.0
 36
0.0
 17
0.0
 27
1.0
 37
0.0
 76
     0
330
23
  0
LAYOUT
  5
22
102
{ACAD_REACTORS
330
1A
102
}
330
1A
100
AcDbPlotSettings
  1

  2
none_device
  4
Letter_(8.50_x_11.00_Inches)
  6

 40
6.35
 41
6.35
 42
6.35000508
 43
6.35000508
 44
215.9
 45
279.4
 46
0.0
 47
0.0
 48
0.0
 49
0.0
140
0.0
141
0.0
142
1.0
143
1.0
 70
  1712
 72
     1
 73
     0
 74
     0
  7

 75
     0
147
1.0
148
0.0
149
0.0
100
AcDbLayout
  1
Model
 70
     1
 71
     0
 10
0.0
 20
0.0
 11
297.0
 21
210.0
 12
0.0
 22
0.0
 32
0.0
 14
0.0
 24
0.0
 34
0.0
 15
297.0
 25
210.0
 35
0.0
146
0.0
 13
0.0
 23
0.0
 33
0.0
 16
1.0
 26
0.0
 36
0.0
 17
0.0
 27
1.0
 37
0.0
 76
     0
330
1F
331
29
  0
MLINESTYLE
  5
18
102
{ACAD_REACTORS
330
17
102
}
330
17
100
AcDbMlineStyle
  2
Standard
 70
     0
  3

 62
   256
 51
90.0
 52
90.0
 71
     2
 49
0.5
 62
   256
  6
BYLAYER
 49
-0.5
 62
   256
  6
BYLAYER
  0
ACDBPLACEHOLDER
  5
F
102
{ACAD_REACTORS
330
E
102
}
330
E
  0
SCALE
  5
48
102
{ACAD_REACTORS
330
47
102
}
330
47
100
AcDbScale
 70
     0
300
1:1
140
1.0
141
1.0
290
     1
  0
SCALE
  5
49
102
{ACAD_REACTORS
330
47
102
}
330
47
100
AcDbScale
 70
     0
300
1:2
140
1.0
141
2.0
290
     0
  0
SCALE
  5
4A
102
{ACAD_REACTORS
330
47
102
}
330
47
100
AcDbScale
 70
     0
300
1:4
140
1.0
141
4.0
290
     0
  0
SCALE
  5
4B
102
{ACAD_REACTORS
330
47
102
}
330
47
100
AcDbScale
 70
     0
300
1:5
140
1.0
141
5.0
290
     0
  0
SCALE
  5
4C
102
{ACAD_REACTORS
330
47
102
}
330
47
100
AcDbScale
 70
     0
300
1:8
140
1.0
141
8.0
290
     0
  0
SCALE
  5
4D
102
{ACAD_REACTORS
330
47
102
}
330
47
100
AcDbScale
 70
     0
300
1:10
140
1.0
141
10.0
290
     0
  0
SCALE
  5
4E
102
{ACAD_REACTORS
330
47
102
}
330
47
100
AcDbScale
 70
     0
300
1:16
140
1.0
141
16.0
290
     0
  0
SCALE
  5
4F
102
{ACAD_REACTORS
330
47
102
}
330
47
100
AcDbScale
 70
     0
300
1:20
140
1.0
141
20.0
290
     0
  0
SCALE
  5
50
102
{ACAD_REACTORS
330
47
102
}
330
47
100
AcDbScale
 70
     0
300
1:30
140
1.0
141
30.0
290
     0
  0
SCALE
  5
51
102
{ACAD_REACTORS
330
47
102
}
330
47
100
AcDbScale
 70
     0
300
1:40
140
1.0
141
40.0
290
     0
  0
SCALE
  5
52
102
{ACAD_REACTORS
330
47
102
}
330
47
100
AcDbScale
 70
     0
300
1:50
140
1.0
141
50.0
290
     0
  0
SCALE
  5
53
102
{ACAD_REACTORS
330
47
102
}
330
47
100
AcDbScale
 70
     0
300
1:100
140
1.0
141
100.0
290
     0
  0
SCALE
  5
54
102
{ACAD_REACTORS
330
47
102
}
330
47
100
AcDbScale
 70
     0
300
2:1
140
2.0
141
1.0
290
     0
  0
SCALE
  5
55
102
{ACAD_REACTORS
330
47
102
}
330
47
100
AcDbScale
 70
     0
300
4:1
140
4.0
141
1.0
290
     0
  0
SCALE
  5
56
102
{ACAD_REACTORS
330
47
102
}
330
47
100
AcDbScale
 70
     0
300
8:1
140
8.0
141
1.0
290
     0
  0
SCALE
  5
57
102
{ACAD_REACTORS
330
47
102
}
330
47
100
AcDbScale
 70
     0
300
10:1
140
10.0
141
1.0
290
     0
  0
SCALE
  5
58
102
{ACAD_REACTORS
330
47
102
}
330
47
100
AcDbScale
 70
     0
300
100:1
140
100.0
141
1.0
290
     0
  0
SCALE
  5
59
102
{ACAD_REACTORS
330
47
102
}
330
47
100
AcDbScale
 70
     0
300
1/128" = 1'-0"
140
0.0078125
141
12.0
290
     0
  0
SCALE
  5
5A
102
{ACAD_REACTORS
330
47
102
}
330
47
100
AcDbScale
 70
     0
300
1/64" = 1'-0"
140
0.015625
141
12.0
290
     0
  0
SCALE
  5
5B
102
{ACAD_REACTORS
330
47
102
}
330
47
100
AcDbScale
 70
     0
300
1/32" = 1'-0"
140
0.03125
141
12.0
290
     0
  0
SCALE
  5
5C
102
{ACAD_REACTORS
330
47
102
}
330
47
100
AcDbScale
 70
     0
300
1/16" = 1'-0"
140
0.0625
141
12.0
290
     0
  0
SCALE
  5
5D
102
{ACAD_REACTORS
330
47
102
}
330
47
100
AcDbScale
 70
     0
300
3/32" = 1'-0"
140
0.09375
141
12.0
290
     0
  0
SCALE
  5
5E
102
{ACAD_REACTORS
330
47
102
}
330
47
100
AcDbScale
 70
     0
300
1/8" = 1'-0"
140
0.125
141
12.0
290
     0
  0
SCALE
  5
5F
102
{ACAD_REACTORS
330
47
102
}
330
47
100
AcDbScale
 70
     0
300
3/16" = 1'-0"
140
0.1875
141
12.0
290
     0
  0
SCALE
  5
60
102
{ACAD_REACTORS
330
47
102
}
330
47
100
AcDbScale
 70
     0
300
1/4" = 1'-0"
140
0.25
141
12.0
290
     0
  0
SCALE
  5
61
102
{ACAD_REACTORS
330
47
102
}
330
47
100
AcDbScale
 70
     0
300
3/8" = 1'-0"
140
0.375
141
12.0
290
     0
  0
SCALE
  5
62
102
{ACAD_REACTORS
330
47
102
}
330
47
100
AcDbScale
 70
     0
300
1/2" = 1'-0"
140
0.5
141
12.0
290
     0
  0
SCALE
  5
63
102
{ACAD_REACTORS
330
47
102
}
330
47
100
AcDbScale
 70
     0
300
3/4" = 1'-0"
140
0.75
141
12.0
290
     0
  0
SCALE
  5
64
102
{ACAD_REACTORS
330
47
102
}
330
47
100
AcDbScale
 70
     0
300
1" = 1'-0"
140
1.0
141
12.0
290
     0
  0
SCALE
  5
65
102
{ACAD_REACTORS
330
47
102
}
330
47
100
AcDbScale
 70
     0
300
1-1/2" = 1'-0"
140
1.5
141
12.0
290
     0
  0
SCALE
  5
66
102
{ACAD_REACTORS
330
47
102
}
330
47
100
AcDbScale
 70
     0
300
3" = 1'-0"
140
3.0
141
12.0
290
     0
  0
SCALE
  5
67
102
{ACAD_REACTORS
330
47
102
}
330
47
100
AcDbScale
 70
     0
300
6" = 1'-0"
140
6.0
141
12.0
290
     0
  0
SCALE
  5
68
102
{ACAD_REACTORS
330
47
102
}
330
47
100
AcDbScale
 70
     0
300
1'-0" = 1'-0"
140
12.0
141
12.0
290
     0
  0
ENDSEC
  0
EOF
