  0
SECTION
  2
HEADER
  9
$ACADVER
  1
AC1015
  9
$ACADMAINTVER
 70
     6
  9
$DWGCODEPAGE
  3
ANSI_1252
  9
$INSBASE
 10
0.0
 20
0.0
 30
0.0
  9
$EXTMIN
 10
0.0
 20
0.0
 30
0.0
  9
$EXTMAX
 10
297.0
 20
210.0
 30
0.0
  9
$LIMMIN
 10
0.0
 20
0.0
  9
$LIMMAX
 10
297.0
 20
210.0
  9
$ORTHOMODE
 70
     0
  9
$REGENMODE
 70
     1
  9
$FILLMODE
 70
     1
  9
$QTEXTMODE
 70
     0
  9
$MIRRTEXT
 70
     1
  9
$LTSCALE
 40
1.0
  9
$ATTMODE
 70
     1
  9
$TEXTSIZE
 40
2.0
  9
$TRACEWID
 40
1.0
  9
$TEXTSTYLE
  7
Standard
  9
$CLAYER
  8
0
  9
$CELTYPE
  6
ByLayer
  9
$CECOLOR
 62
   256
  9
$CELTSCALE
 40
1.0
  9
$DISPSILH
 70
     0
  9
$DIMSCALE
 40
1.0
  9
$DIMASZ
 40
3.0
  9
$DIMEXO
 40
0.0
  9
$DIMDLI
 40
3.75
  9
$DIMRND
 40
0.0
  9
$DIMDLE
 40
0.0
  9
$DIMEXE
 40
1.0
  9
$DIMTP
 40
0.0
  9
$DIMTM
 40
0.0
  9
$DIMTXT
 40
2.0
  9
$DIMCEN
 40
2.5
  9
$DIMTSZ
 40
0.0
  9
$DIMTOL
 70
     0
  9
$DIMLIM
 70
     0
  9
$DIMTIH
 70
     1
  9
$DIMTOH
 70
     1
  9
$DIMSE1
 70
     0
  9
$DIMSE2
 70
     0
  9
$DIMTAD
 70
     1
  9
$DIMZIN
 70
     0
  9
$DIMBLK
  1

  9
$DIMASO
 70
     1
  9
$DIMSHO
 70
     1
  9
$DIMPOST
  1

  9
$DIMAPOST
  1

  9
$DIMALT
 70
     0
  9
$DIMALTD
 70
     3
  9
$DIMALTF
 40
0.0393700787
  9
$DIMLFAC
 40
1.0
  9
$DIMTOFL
 70
     1
  9
$DIMTVP
 40
0.0
  9
$DIMTIX
 70
     0
  9
$DIMSOXD
 70
     0
  9
$DIMSAH
 70
     0
  9
$DIMBLK1
  1

  9
$DIMBLK2
  1

  9
$DIMSTYLE
  2
ISO-25
  9
$DIMCLRD
 70
     0
  9
$DIMCLRE
 70
     0
  9
$DIMCLRT
 70
     0
  9
$DIMTFAC
 40
1.0
  9
$DIMGAP
 40
1.524
  9
$DIMJUST
 70
     0
  9
$DIMSD1
 70
     0
  9
$DIMSD2
 70
     0
  9
$DIMTOLJ
 70
     0
  9
$DIMTZIN
 70
     0
  9
$DIMALTZ
 70
     0
  9
$DIMALTTZ
 70
     0
  9
$DIMUPT
 70
     0
  9
$DIMDEC
 70
     2
  9
$DIMTDEC
 70
     3
  9
$DIMALTU
 70
     2
  9
$DIMALTTD
 70
     3
  9
$DIMTXSTY
  7
Standard
  9
$DIMAUNIT
 70
     0
  9
$DIMADEC
 70
     2
  9
$DIMALTRND
 40
0.0
  9
$DIMAZIN
 70
     0
  9
$DIMDSEP
 70
    44
  9
$DIMATFIT
 70
     3
  9
$DIMFRAC
 70
     0
  9
$DIMLDRBLK
  1

  9
$DIMLUNIT
 70
     2
  9
$DIMLWD
 70
    -2
  9
$DIMLWE
 70
    -2
  9
$DIMTMOVE
 70
     0
  9
$LUNITS
 70
     2
  9
$LUPREC
 70
     2
  9
$SKETCHINC
 40
1.0
  9
$FILLETRAD
 40
10.0
  9
$AUNITS
 70
     0
  9
$AUPREC
 70
     2
  9
$MENU
  1
.
  9
$ELEVATION
 40
0.0
  9
$PELEVATION
 40
0.0
  9
$THICKNESS
 40
0.0
  9
$LIMCHECK
 70
     0
  9
$CHAMFERA
 40
0.0
  9
$CHAMFERB
 40
0.0
  9
$CHAMFERC
 40
0.0
  9
$CHAMFERD
 40
0.0
  9
$SKPOLY
 70
     0
  9
$TDCREATE
 40
2457632.461006366
  9
$TDUCREATE
 40
2457632.377673032
  9
$TDUPDATE
 40
2457632.461007639
  9
$TDUUPDATE
 40
2457632.377674305
  9
$TDINDWG
 40
0.0000000116
  9
$TDUSRTIMER
 40
0.0000000116
  9
$USRTIMER
 70
     1
  9
$ANGBASE
 50
0.0
  9
$ANGDIR
 70
     0
  9
$PDMODE
 70
     0
  9
$PDSIZE
 40
-1.0
  9
$PLINEWID
 40
0.0
  9
$SPLFRAME
 70
     0
  9
$SPLINETYPE
 70
     6
  9
$SPLINESEGS
 70
     8
  9
$HANDSEED
  5
2C8
  9
$SURFTAB1
 70
     6
  9
$SURFTAB2
 70
     6
  9
$SURFTYPE
 70
     6
  9
$SURFU
 70
     6
  9
$SURFV
 70
     6
  9
$UCSBASE
  2

  9
$UCSNAME
  2

  9
$UCSORG
 10
0.0
 20
0.0
 30
0.0
  9
$UCSXDIR
 10
1.0
 20
0.0
 30
0.0
  9
$UCSYDIR
 10
0.0
 20
1.0
 30
0.0
  9
$UCSORTHOREF
  2

  9
$UCSORTHOVIEW
 70
     0
  9
$UCSORGTOP
 10
0.0
 20
0.0
 30
0.0
  9
$UCSORGBOTTOM
 10
0.0
 20
0.0
 30
0.0
  9
$UCSORGLEFT
 10
0.0
 20
0.0
 30
0.0
  9
$UCSORGRIGHT
 10
0.0
 20
0.0
 30
0.0
  9
$UCSORGFRONT
 10
0.0
 20
0.0
 30
0.0
  9
$UCSORGBACK
 10
0.0
 20
0.0
 30
0.0
  9
$PUCSBASE
  2

  9
$PUCSNAME
  2

  9
$PUCSORG
 10
0.0
 20
0.0
 30
0.0
  9
$PUCSXDIR
 10
1.0
 20
0.0
 30
0.0
  9
$PUCSYDIR
 10
0.0
 20
1.0
 30
0.0
  9
$PUCSORTHOREF
  2

  9
$PUCSORTHOVIEW
 70
     0
  9
$PUCSORGTOP
 10
0.0
 20
0.0
 30
0.0
  9
$PUCSORGBOTTOM
 10
0.0
 20
0.0
 30
0.0
  9
$PUCSORGLEFT
 10
0.0
 20
0.0
 30
0.0
  9
$PUCSORGRIGHT
 10
0.0
 20
0.0
 30
0.0
  9
$PUCSORGFRONT
 10
0.0
 20
0.0
 30
0.0
  9
$PUCSORGBACK
 10
0.0
 20
0.0
 30
0.0
  9
$USERI1
 70
     0
  9
$USERI2
 70
     0
  9
$USERI3
 70
     0
  9
$USERI4
 70
     0
  9
$USERI5
 70
     0
  9
$USERR1
 40
0.0
  9
$USERR2
 40
0.0
  9
$USERR3
 40
0.0
  9
$USERR4
 40
0.0
  9
$USERR5
 40
0.0
  9
$WORLDVIEW
 70
     1
  9
$SHADEDGE
 70
     3
  9
$SHADEDIF
 70
    70
  9
$TILEMODE
 70
     1
  9
$MAXACTVP
 70
    64
  9
$PINSBASE
 10
0.0
 20
0.0
 30
0.0
  9
$PLIMCHECK
 70
     0
  9
$PEXTMIN
 10
1.0000000000E+20
 20
1.0000000000E+20
 30
1.0000000000E+20
  9
$PEXTMAX
 10
-1.0000000000E+20
 20
-1.0000000000E+20
 30
-1.0000000000E+20
  9
$PLIMMIN
 10
0.0
 20
0.0
  9
$PLIMMAX
 10
420.0
 20
297.0
  9
$UNITMODE
 70
     0
  9
$VISRETAIN
 70
     1
  9
$PLINEGEN
 70
     0
  9
$PSLTSCALE
 70
     1
  9
$TREEDEPTH
 70
  3020
  9
$CMLSTYLE
  2
Standard
  9
$CMLJUST
 70
     0
  9
$CMLSCALE
 40
20.0
  9
$PROXYGRAPHICS
 70
     1
  9
$MEASUREMENT
 70
     1
  9
$CELWEIGHT
370
    -1
  9
$ENDCAPS
280
     0
  9
$JOINSTYLE
280
     0
  9
$LWDISPLAY
290
     1
  9
$INSUNITS
 70
     4
  9
$HYPERLINKBASE
  1

  9
$STYLESHEET
  1

  9
$XEDIT
290
     1
  9
$CEPSNTYPE
380
     0
  9
$PSTYLEMODE
290
     1
  9
$FINGERPRINTGUID
  2
{B8528A69-33C9-4040-AA52-624921182761}
  9
$VERSIONGUID
  2
{FAEB1C32-E019-11D5-929B-00C0DF256EC4}
  9
$EXTNAMES
290
     1
  9
$PSVPSCALE
 40
0.0
  9
$OLESTARTUP
290
     0
  0
ENDSEC
  0
SECTION
  2
CLASSES
  0
CLASS
  1
ACDBDICTIONARYWDFLT
  2
AcDbDictionaryWithDefault
  3
ObjectDBX Classes
 90
        0
280
     0
281
     0
  0
CLASS
  1
VISUALSTYLE
  2
AcDbVisualStyle
  3
ObjectDBX Classes
 90
     4095
280
     0
281
     0
  0
CLASS
  1
MATERIAL
  2
AcDbMaterial
  3
ObjectDBX Classes
 90
     1153
280
     0
281
     0
  0
CLASS
  1
SCALE
  2
AcDbScale
  3
ObjectDBX Classes
 90
     1153
280
     0
281
     0
  0
CLASS
  1
TABLESTYLE
  2
AcDbTableStyle
  3
ObjectDBX Classes
 90
     4095
280
     0
281
     0
  0
CLASS
  1
MLEADERSTYLE
  2
AcDbMLeaderStyle
  3
ACDB_MLEADERSTYLE_CLASS
 90
     4095
280
     0
281
     0
  0
CLASS
  1
SUN
  2
AcDbSun
  3
SCENEOE
 90
     1153
280
     0
281
     0
  0
CLASS
  1
ACDBPLACEHOLDER
  2
AcDbPlaceHolder
  3
ObjectDBX Classes
 90
        0
280
     0
281
     0
  0
CLASS
  1
LAYOUT
  2
AcDbLayout
  3
ObjectDBX Classes
 90
        0
280
     0
281
     0
  0
ENDSEC
  0
SECTION
  2
TABLES
  0
TABLE
  2
VPORT
  5
8
330
0
100
AcDbSymbolTable
 70
     1
  0
VPORT
  5
29
330
8
100
AcDbSymbolTableRecord
100
AcDbViewportTableRecord
  2
*Active
 70
     0
 10
0.0
 20
0.0
 11
1.0
 21
1.0
 12
148.5
 22
105.0
 13
0.0
 23
0.0
 14
10.0
 24
10.0
 15
10.0
 25
10.0
 16
0.0
 26
0.0
 36
1.0
 17
0.0
 27
0.0
 37
0.0
 40
210.0
 41
1.4142857143
 42
50.0
 43
0.0
 44
0.0
 50
0.0
 51
0.0
 71
     0
 72
  2000
 73
     1
 74
     3
 75
     0
 76
     0
 77
     0
 78
     0
281
     0
 65
     1
110
0.0
120
0.0
130
0.0
111
1.0
121
0.0
131
0.0
112
0.0
122
1.0
132
0.0
 79
     0
146
0.0
  0
ENDTAB
  0
TABLE
  2
LTYPE
  5
5
330
0
100
AcDbSymbolTable
 70
     6
  0
LTYPE
  5
14
330
5
100
AcDbSymbolTableRecord
100
AcDbLinetypeTableRecord
  2
ByBlock
 70
     0
  3

 72
    65
 73
     0
 40
0.0
  0
LTYPE
  5
15
330
5
100
AcDbSymbolTableRecord
100
AcDbLinetypeTableRecord
  2
ByLayer
 70
     0
  3

 72
    65
 73
     0
 40
0.0
  0
LTYPE
  5
16
330
5
100
AcDbSymbolTableRecord
100
AcDbLinetypeTableRecord
  2
Continuous
 70
     0
  3
Solid line
 72
    65
 73
     0
 40
0.0
  0
LTYPE
  5
6E
330
5
100
AcDbSymbolTableRecord
100
AcDbLinetypeTableRecord
  2
HIDDEN
 70
     0
  3
Hidden __ __ __ __ __ __ __ __ __ __ __ __ __ __
 72
    65
 73
     2
 40
1.905
 49
1.27
 74
     0
 49
-0.635
 74
     0
  0
LTYPE
  5
6F
330
5
100
AcDbSymbolTableRecord
100
AcDbLinetypeTableRecord
  2
PHANTOM
 70
     0
  3
Phantom ______  __  __  ______  __  __  ______
 72
    65
 73
     6
 40
12.7
 49
6.35
 74
     0
 49
-1.27
 74
     0
 49
1.27
 74
     0
 49
-1.27
 74
     0
 49
1.27
 74
     0
 49
-1.27
 74
     0
  0
LTYPE
  5
70
330
5
100
AcDbSymbolTableRecord
100
AcDbLinetypeTableRecord
  2
CENTER
 70
     0
  3
Center ____ _ ____ _ ____ _ ____ _ ____ _ ____
 72
    65
 73
     4
 40
10.16
 49
6.35
 74
     0
 49
-1.27
 74
     0
 49
1.27
 74
     0
 49
-1.27
 74
     0
  0
LTYPE
  5
71
330
5
100
AcDbSymbolTableRecord
100
AcDbLinetypeTableRecord
  2
CENTERX2
 70
     0
  3
Center (2x) ________  __  ________  __  _____
 72
    65
 73
     4
 40
20.32
 49
12.7
 74
     0
 49
-2.54
 74
     0
 49
2.54
 74
     0
 49
-2.54
 74
     0
  0
LTYPE
  5
72
330
5
100
AcDbSymbolTableRecord
100
AcDbLinetypeTableRecord
  2
DOT2
 70
     0
  3
Dot (.5x) ........................................
 72
    65
 73
     2
 40
0.635
 49
0.0
 74
     0
 49
-0.635
 74
     0
  0
ENDTAB
  0
TABLE
  2
LAYER
  5
2
330
0
100
AcDbSymbolTable
 70
     5
  0
LAYER
  5
10
330
2
100
AcDbSymbolTableRecord
100
AcDbLayerTableRecord
  2
0
 70
     0
 62
     7
  6
Continuous
370
    -3
390
F
  0
LAYER
  5
73
330
2
100
AcDbSymbolTableRecord
100
AcDbLayerTableRecord
  2
FORMAT
 70
     0
 62
     7
  6
Continuous
370
    -3
390
F
  0
LAYER
  5
74
330
2
100
AcDbSymbolTableRecord
100
AcDbLayerTableRecord
  2
VERMASSUNG
 70
     0
 62
     7
  6
Continuous
370
    -3
390
F
  0
LAYER
  5
75
330
2
100
AcDbSymbolTableRecord
100
AcDbLayerTableRecord
  2
KOPF_DÜNN
 70
     0
 62
     7
  6
Continuous
370
    -3
390
F
  0
LAYER
  5
76
330
2
100
AcDbSymbolTableRecord
100
AcDbLayerTableRecord
  2
KOPF_DICK
 70
     0
 62
     7
  6
Continuous
370
    15
390
F
  0
ENDTAB
  0
TABLE
  2
STYLE
  5
3
330
0
100
AcDbSymbolTable
 70
     2
  0
STYLE
  5
11
330
3
100
AcDbSymbolTableRecord
100
AcDbTextStyleTableRecord
  2
Standard
 70
     0
 40
0.0
 41
1.0
 50
0.0
 71
     0
 42
2.0
  3
txt
  4

  0
STYLE
  5
77
330
3
100
AcDbSymbolTableRecord
100
AcDbTextStyleTableRecord
  2
SLDTEXTSTYLE0
 70
     0
 40
0.0
 41
0.7
 50
0.0
 71
     0
 42
2.0
  3
TXT
  4

  0
ENDTAB
  0
TABLE
  2
VIEW
  5
6
330
0
100
AcDbSymbolTable
 70
     0
  0
ENDTAB
  0
TABLE
  2
UCS
  5
7
330
0
100
AcDbSymbolTable
 70
     0
  0
ENDTAB
  0
TABLE
  2
APPID
  5
9
330
0
100
AcDbSymbolTable
 70
     1
  0
APPID
  5
12
330
9
100
AcDbSymbolTableRecord
100
AcDbRegAppTableRecord
  2
ACAD
 70
     0
  0
ENDTAB
  0
TABLE
  2
DIMSTYLE
  5
A
330
0
100
AcDbSymbolTable
 70
     2
100
AcDbDimStyleTable
  0
DIMSTYLE
105
27
330
A
100
AcDbSymbolTableRecord
100
AcDbDimStyleTableRecord
  2
ISO-25
 70
     0
 41
2.5
 42
0.625
 43
3.75
 44
1.25
 73
     0
 74
     0
 77
     1
 78
     8
140
2.5
141
2.5
143
0.0393700787
147
0.625
171
     3
172
     1
178
     0
271
     2
272
     2
274
     3
278
    44
283
     0
284
     8
340
11
  0
DIMSTYLE
105
1CE
102
{ACAD_REACTORS
330
1CD
330
1DA
330
1E6
330
1F0
330
1FA
102
}
330
A
100
AcDbSymbolTableRecord
100
AcDbDimStyleTableRecord
  2
SLDDIMSTYLE0
 70
     0
 41
3.0
 44
0.0
 45
0.000000001
 73
     0
 74
     0
 77
     1
 78
    12
 79
     3
140
2.0
147
0.5
173
     1
178
     0
271
     2
272
     3
276
     2
284
    12
340
77
  0
ENDTAB
  0
TABLE
  2
BLOCK_RECORD
  5
1
330
0
100
AcDbSymbolTable
 70
     6
  0
BLOCK_RECORD
  5
1F
330
1
100
AcDbSymbolTableRecord
100
AcDbBlockTableRecord
  2
*Model_Space
340
22
  0
BLOCK_RECORD
  5
1B
330
1
100
AcDbSymbolTableRecord
100
AcDbBlockTableRecord
  2
*Paper_Space
340
1E
  0
BLOCK_RECORD
  5
23
330
1
100
AcDbSymbolTableRecord
100
AcDbBlockTableRecord
  2
*Paper_Space0
340
26
  0
BLOCK_RECORD
  5
1CF
330
1
100
AcDbSymbolTableRecord
100
AcDbBlockTableRecord
  2
_D
340
0
  0
BLOCK_RECORD
  5
1DB
330
1
100
AcDbSymbolTableRecord
100
AcDbBlockTableRecord
  2
_D_1
340
0
  0
BLOCK_RECORD
  5
1E7
330
1
100
AcDbSymbolTableRecord
100
AcDbBlockTableRecord
  2
_D_2
340
0
  0
BLOCK_RECORD
  5
1F1
330
1
100
AcDbSymbolTableRecord
100
AcDbBlockTableRecord
  2
_D_3
340
0
  0
BLOCK_RECORD
  5
1FB
330
1
100
AcDbSymbolTableRecord
100
AcDbBlockTableRecord
  2
_D_4
340
0
  0
ENDTAB
  0
ENDSEC
  0
SECTION
  2
BLOCKS
  0
BLOCK
  5
20
330
1F
100
AcDbEntity
  8
0
100
AcDbBlockBegin
  2
*Model_Space
 70
     0
 10
0.0
 20
0.0
 30
0.0
  3
*Model_Space
  1

  0
ENDBLK
  5
21
330
1F
100
AcDbEntity
  8
0
100
AcDbBlockEnd
  0
BLOCK
  5
1C
330
1B
100
AcDbEntity
 67
     1
  8
0
100
AcDbBlockBegin
  2
*Paper_Space
 70
     0
 10
0.0
 20
0.0
 30
0.0
  3
*Paper_Space
  1

  0
ENDBLK
  5
1D
330
1B
100
AcDbEntity
 67
     1
  8
0
100
AcDbBlockEnd
  0
BLOCK
  5
24
330
23
100
AcDbEntity
  8
0
100
AcDbBlockBegin
  2
*Paper_Space0
 70
     0
 10
0.0
 20
0.0
 30
0.0
  3
*Paper_Space0
  1

  0
ENDBLK
  5
25
330
23
100
AcDbEntity
  8
0
100
AcDbBlockEnd
  0
BLOCK
  5
1D0
330
1CF
100
AcDbEntity
  8
0
100
AcDbBlockBegin
  2
_D
 70
     0
 10
0.0
 20
0.0
 30
0.0
  3
_D
  1

  0
SOLID
  5
1D2
330
1CF
100
AcDbEntity
  8
VERMASSUNG
100
AcDbTrace
 10
32.4955815687
 20
74.5658063558
 30
0.0
 11
32.9455815687
 21
77.5658063558
 31
0.0
 12
32.0455815687
 22
77.5658063558
 32
0.0
 13
32.0455815687
 23
77.5658063558
 33
0.0
  0
SOLID
  5
1D3
330
1CF
100
AcDbEntity
  8
VERMASSUNG
100
AcDbTrace
 10
32.4955815687
 20
172.0158063558
 30
0.0
 11
32.0455815687
 21
169.0158063558
 31
0.0
 12
32.9455815687
 22
169.0158063558
 32
0.0
 13
32.9455815687
 23
169.0158063558
 33
0.0
  0
LINE
  5
1D4
330
1CF
100
AcDbEntity
  8
VERMASSUNG
100
AcDbLine
 10
160.9485494537
 20
74.5658063558
 30
0.0
 11
31.4955815687
 21
74.5658063558
 31
0.0
  0
LINE
  5
1D5
330
1CF
100
AcDbEntity
  8
VERMASSUNG
100
AcDbLine
 10
160.9485494537
 20
172.0158063558
 30
0.0
 11
31.4955815687
 21
172.0158063558
 31
0.0
  0
LINE
  5
1D6
330
1CF
100
AcDbEntity
  8
VERMASSUNG
100
AcDbLine
 10
32.4955815687
 20
74.5658063558
 30
0.0
 11
32.4955815687
 21
172.0158063558
 31
0.0
  0
MTEXT
  5
1D7
330
1CF
100
AcDbEntity
  8
VERMASSUNG
100
AcDbMText
 10
29.7174463124
 20
113.7863707225
 30
0.0
 40
2.0
 41
0.0
 71
     1
 72
     1
  1
ISO 50
  7
SLDTEXTSTYLE0
 11
3.391901413832837E-15
 21
1.0
 31
0.0
 73
     1
 44
1.0
  0
MTEXT
  5
1D8
330
1CF
100
AcDbEntity
  8
VERMASSUNG
100
AcDbMText
 10
29.9174462637
 20
122.786370335
 30
0.0
 40
2.0
 41
0.0
 71
     1
 72
     1
  1
%%c
  7
SLDTEXTSTYLE0
 11
3.391901413832837E-15
 21
1.0
 31
0.0
 73
     1
 44
1.0
  0
MTEXT
  5
1D9
330
1CF
100
AcDbEntity
  8
VERMASSUNG
100
AcDbMText
 10
29.9174459727
 20
126.3957136679
 30
0.0
 40
2.0
 41
0.0
 71
     1
 72
     1
  1
97.45
  7
SLDTEXTSTYLE0
 11
3.391901413832837E-15
 21
1.0
 31
0.0
 73
     1
 44
1.0
  0
ENDBLK
  5
1D1
330
1CF
100
AcDbEntity
  8
0
100
AcDbBlockEnd
  0
BLOCK
  5
1DC
330
1DB
100
AcDbEntity
  8
0
100
AcDbBlockBegin
  2
_D_1
 70
     0
 10
0.0
 20
0.0
 30
0.0
  3
_D_1
  1

  0
ARC
  5
1DE
330
1DB
100
AcDbEntity
  8
VERMASSUNG
100
AcDbCircle
 10
150.3603429655
 20
190.1758236021
 30
0.0
 40
4.247059938537233
100
AcDbArc
 50
153.4349488229
 51
206.5650511771
  0
ARC
  5
1DF
330
1DB
100
AcDbEntity
  8
VERMASSUNG
100
AcDbCircle
 10
152.1367559418
 20
190.1758236021
 30
0.0
 40
4.24705993853726
100
AcDbArc
 50
333.4349488229
 51
26.5650511771
  0
SOLID
  5
1E0
330
1DB
100
AcDbEntity
  8
VERMASSUNG
100
AcDbTrace
 10
40.8985494537
 20
188.2764806567
 30
0.0
 11
43.8985494537
 21
187.8264806567
 31
0.0
 12
43.8985494537
 22
188.7264806567
 32
0.0
 13
43.8985494537
 23
188.7264806567
 33
0.0
  0
SOLID
  5
1E1
330
1DB
100
AcDbEntity
  8
VERMASSUNG
100
AcDbTrace
 10
261.5985494537
 20
188.2764806567
 30
0.0
 11
258.5985494537
 21
188.7264806567
 31
0.0
 12
258.5985494537
 22
187.8264806567
 32
0.0
 13
258.5985494537
 23
187.8264806567
 33
0.0
  0
LINE
  5
1E2
330
1DB
100
AcDbEntity
  8
VERMASSUNG
100
AcDbLine
 10
40.8985494537
 20
141.6696508832
 30
0.0
 11
40.8985494537
 21
189.2764806567
 31
0.0
  0
LINE
  5
1E3
330
1DB
100
AcDbEntity
  8
VERMASSUNG
100
AcDbLine
 10
261.5985494537
 20
150.2908063558
 30
0.0
 11
261.5985494537
 21
189.2764806567
 31
0.0
  0
LINE
  5
1E4
330
1DB
100
AcDbEntity
  8
VERMASSUNG
100
AcDbLine
 10
40.8985494537
 20
188.2764806567
 30
0.0
 11
261.5985494537
 21
188.2764806567
 31
0.0
  0
MTEXT
  5
1E5
330
1DB
100
AcDbEntity
  8
VERMASSUNG
100
AcDbMText
 10
148.1491570747
 20
190.8546162526
 30
0.0
 40
2.0
 41
0.0
 71
     1
 72
     1
  1
220.7
  7
SLDTEXTSTYLE0
 73
     1
 44
1.0
  0
ENDBLK
  5
1DD
330
1DB
100
AcDbEntity
  8
0
100
AcDbBlockEnd
  0
BLOCK
  5
1E8
330
1E7
100
AcDbEntity
  8
0
100
AcDbBlockBegin
  2
_D_2
 70
     0
 10
0.0
 20
0.0
 30
0.0
  3
_D_2
  1

  0
SOLID
  5
1EA
330
1E7
100
AcDbEntity
  8
VERMASSUNG
100
AcDbTrace
 10
142.4985494537
 20
182.2764806567
 30
0.0
 11
145.4985494537
 21
181.8264806567
 31
0.0
 12
145.4985494537
 22
182.7264806567
 32
0.0
 13
145.4985494537
 23
182.7264806567
 33
0.0
  0
SOLID
  5
1EB
330
1E7
100
AcDbEntity
  8
VERMASSUNG
100
AcDbTrace
 10
261.5985494537
 20
182.2764806567
 30
0.0
 11
258.5985494537
 21
182.7264806567
 31
0.0
 12
258.5985494537
 22
181.8264806567
 32
0.0
 13
258.5985494537
 23
181.8264806567
 33
0.0
  0
LINE
  5
1EC
330
1E7
100
AcDbEntity
  8
VERMASSUNG
100
AcDbLine
 10
142.4985494537
 20
158.2158063558
 30
0.0
 11
142.4985494537
 21
183.2764806567
 31
0.0
  0
LINE
  5
1ED
330
1E7
100
AcDbEntity
  8
VERMASSUNG
100
AcDbLine
 10
261.5985494537
 20
150.2908063558
 30
0.0
 11
261.5985494537
 21
183.2764806567
 31
0.0
  0
LINE
  5
1EE
330
1E7
100
AcDbEntity
  8
VERMASSUNG
100
AcDbLine
 10
142.4985494537
 20
182.2764806567
 30
0.0
 11
261.5985494537
 21
182.2764806567
 31
0.0
  0
MTEXT
  5
1EF
330
1E7
100
AcDbEntity
  8
VERMASSUNG
100
AcDbMText
 10
199.5491817915
 20
184.8546162526
 30
0.0
 40
2.0
 41
0.0
 71
     1
 72
     1
  1
119.1
  7
SLDTEXTSTYLE0
 73
     1
 44
1.0
  0
ENDBLK
  5
1E9
330
1E7
100
AcDbEntity
  8
0
100
AcDbBlockEnd
  0
BLOCK
  5
1F2
330
1F1
100
AcDbEntity
  8
0
100
AcDbBlockBegin
  2
_D_3
 70
     0
 10
0.0
 20
0.0
 30
0.0
  3
_D_3
  1

  0
SOLID
  5
1F4
330
1F1
100
AcDbEntity
  8
VERMASSUNG
100
AcDbTrace
 10
161.5485494537
 20
176.2764806567
 30
0.0
 11
164.5485494537
 21
175.8264806567
 31
0.0
 12
164.5485494537
 22
176.7264806567
 32
0.0
 13
164.5485494537
 23
176.7264806567
 33
0.0
  0
SOLID
  5
1F5
330
1F1
100
AcDbEntity
  8
VERMASSUNG
100
AcDbTrace
 10
261.5985494537
 20
176.2764806567
 30
0.0
 11
258.5985494537
 21
176.7264806567
 31
0.0
 12
258.5985494537
 22
175.8264806567
 32
0.0
 13
258.5985494537
 23
175.8264806567
 33
0.0
  0
LINE
  5
1F6
330
1F1
100
AcDbEntity
  8
VERMASSUNG
100
AcDbLine
 10
161.5485494537
 20
169.5857933091
 30
0.0
 11
161.5485494537
 21
177.2764806567
 31
0.0
  0
LINE
  5
1F7
330
1F1
100
AcDbEntity
  8
VERMASSUNG
100
AcDbLine
 10
261.5985494537
 20
150.2908063558
 30
0.0
 11
261.5985494537
 21
177.2764806567
 31
0.0
  0
LINE
  5
1F8
330
1F1
100
AcDbEntity
  8
VERMASSUNG
100
AcDbLine
 10
161.5485494537
 20
176.2764806567
 30
0.0
 11
261.5985494537
 21
176.2764806567
 31
0.0
  0
MTEXT
  5
1F9
330
1F1
100
AcDbEntity
  8
VERMASSUNG
100
AcDbMText
 10
207.9745041396
 20
178.8546162526
 30
0.0
 40
2.0
 41
0.0
 71
     1
 72
     1
  1
100.05
  7
SLDTEXTSTYLE0
 73
     1
 44
1.0
  0
ENDBLK
  5
1F3
330
1F1
100
AcDbEntity
  8
0
100
AcDbBlockEnd
  0
BLOCK
  5
1FC
330
1FB
100
AcDbEntity
  8
0
100
AcDbBlockBegin
  2
_D_4
 70
     0
 10
0.0
 20
0.0
 30
0.0
  3
_D_4
  1

  0
SOLID
  5
1FE
330
1FB
100
AcDbEntity
  8
VERMASSUNG
100
AcDbTrace
 10
270.7455669705
 20
150.7908063558
 30
0.0
 11
270.2955669705
 21
147.7908063558
 31
0.0
 12
271.1955669705
 22
147.7908063558
 32
0.0
 13
271.1955669705
 23
147.7908063558
 33
0.0
  0
SOLID
  5
1FF
330
1FB
100
AcDbEntity
  8
VERMASSUNG
100
AcDbTrace
 10
270.7455669705
 20
95.7908063558
 30
0.0
 11
271.1955669705
 21
98.7908063558
 31
0.0
 12
270.2955669705
 22
98.7908063558
 32
0.0
 13
270.2955669705
 23
98.7908063558
 33
0.0
  0
LINE
  5
200
330
1FB
100
AcDbEntity
  8
VERMASSUNG
100
AcDbLine
 10
261.0985494537
 20
150.7908063558
 30
0.0
 11
271.7455669705
 21
150.7908063558
 31
0.0
  0
LINE
  5
201
330
1FB
100
AcDbEntity
  8
VERMASSUNG
100
AcDbLine
 10
261.0985494537
 20
95.7908063558
 30
0.0
 11
271.7455669705
 21
95.7908063558
 31
0.0
  0
LINE
  5
202
330
1FB
100
AcDbEntity
  8
VERMASSUNG
100
AcDbLine
 10
270.7455669705
 20
150.7908063558
 30
0.0
 11
270.7455669705
 21
95.7908063558
 31
0.0
  0
MTEXT
  5
203
330
1FB
100
AcDbEntity
  8
VERMASSUNG
100
AcDbMText
 10
267.9674317143
 20
116.8858067123
 30
0.0
 40
2.0
 41
0.0
 71
     1
 72
     1
  1
MBM
  7
SLDTEXTSTYLE0
 11
-7.044195017643634E-15
 21
1.0
 31
0.0
 73
     1
 44
1.0
  0
MTEXT
  5
204
330
1FB
100
AcDbEntity
  8
VERMASSUNG
100
AcDbMText
 10
268.1674316656
 20
123.2858065506
 30
0.0
 40
2.0
 41
0.0
 71
     1
 72
     1
  1
%%c
  7
SLDTEXTSTYLE0
 11
-7.044195017643634E-15
 21
1.0
 31
0.0
 73
     1
 44
1.0
  0
MTEXT
  5
205
330
1FB
100
AcDbEntity
  8
VERMASSUNG
100
AcDbMText
 10
267.9674317143
 20
126.8958070305
 30
0.0
 40
2.0
 41
0.0
 71
     1
 72
     1
  1
55
  7
SLDTEXTSTYLE0
 11
-7.044195017643634E-15
 21
1.0
 31
0.0
 73
     1
 44
1.0
  0
ENDBLK
  5
1FD
330
1FB
100
AcDbEntity
  8
0
100
AcDbBlockEnd
  0
ENDSEC
  0
SECTION
  2
ENTITIES
  0
MTEXT
  5
78
330
1F
100
AcDbEntity
  8
KOPF_DÜNN
100
AcDbMText
 10
13.8892156294
 20
23.8442973028
 30
0.0
 40
3.0
 41
0.0
 71
     1
 72
     1
  1
102.525.552
  7
SLDTEXTSTYLE0
 73
     1
 44
1.0
  0
MTEXT
  5
79
330
1F
100
AcDbEntity
  8
VERMASSUNG
100
AcDbMText
 10
13.9329988022
 20
28.8834360957
 30
0.0
 40
3.0
 41
0.0
 71
     1
 72
     1
  1
Aufnahme_Master shank MBM 55
  7
SLDTEXTSTYLE0
 73
     1
 44
1.0
  0
MTEXT
  5
7A
330
1F
100
AcDbEntity
  8
VERMASSUNG
100
AcDbMText
 10
98.8601118557
 20
13.8365368761
 30
0.0
 40
2.0
 41
0.0
 71
     1
 72
     1
  1
Datum: 01.11.2007
  7
SLDTEXTSTYLE0
 73
     1
 44
1.0
  0
MTEXT
  5
7B
330
1F
100
AcDbEntity
  8
VERMASSUNG
100
AcDbMText
 10
13.933048693
 20
18.0482802738
 30
0.0
 40
2.0
 41
0.0
 71
     1
 72
     1
  1
DIN 69871 B 50
  7
SLDTEXTSTYLE0
 73
     1
 44
1.0
  0
MTEXT
  5
7C
330
1F
100
AcDbEntity
  8
VERMASSUNG
100
AcDbMText
 10
13.9808475933
 20
13.9090974274
 30
0.0
 40
2.0
 41
0.0
 71
     1
 72
     1
  1
Gewicht: 4280g
  7
SLDTEXTSTYLE0
 73
     1
 44
1.0
  0
ARC
  5
7D
330
1F
100
AcDbEntity
  8
0
  6
Continuous
 62
     7
370
    15
100
AcDbCircle
 10
145.0985494537
 20
87.7658063558
 30
0.0
 40
0.6000000000000227
100
AcDbArc
 50
0.0
 51
90.0
  0
ARC
  5
7E
330
1F
100
AcDbEntity
  8
0
  6
Continuous
 62
     7
370
    15
100
AcDbCircle
 10
145.0985494537
 20
158.8158063558
 30
0.0
 40
0.5999999999999943
100
AcDbArc
 50
270.0
 51
0.0
  0
LINE
  5
7F
330
1F
100
AcDbEntity
  8
0
  6
Continuous
 62
     7
370
    15
100
AcDbLine
 10
142.4985494537
 20
88.3658074764
 30
0.0
 11
145.0985494607
 21
88.3658074764
 31
0.0
  0
LINE
  5
80
330
1F
100
AcDbEntity
  8
0
  6
Continuous
 62
     7
370
    15
100
AcDbLine
 10
145.0985494607
 20
158.2158052353
 30
0.0
 11
142.4985494537
 21
158.2158052353
 31
0.0
  0
LINE
  5
81
330
1F
100
AcDbEntity
  8
0
  6
Continuous
 62
     7
370
    15
100
AcDbLine
 10
142.4985494537
 20
158.2158052353
 30
0.0
 11
42.6099341435
 21
143.6487168995
 31
0.0
  0
LINE
  5
82
330
1F
100
AcDbEntity
  8
0
  6
Continuous
 62
     7
370
    15
100
AcDbLine
 10
42.6099341435
 20
102.9328958121
 30
0.0
 11
142.4985494537
 21
88.3658074764
 31
0.0
  0
ARC
  5
83
330
1F
100
AcDbEntity
  8
0
  6
Continuous
 62
     7
370
    15
100
AcDbCircle
 10
165.5485494537
 20
91.7908063558
 30
0.0
 40
4.0
100
AcDbArc
 50
90.0
 51
180.0
  0
ARC
  5
84
330
1F
100
AcDbEntity
  8
0
  6
Continuous
 62
     7
370
    15
100
AcDbCircle
 10
165.5485494537
 20
154.7908063558
 30
0.0
 40
4.0
100
AcDbArc
 50
180.0
 51
270.0
  0
LINE
  5
85
330
1F
100
AcDbEntity
  8
0
  6
Continuous
 62
     7
370
    15
100
AcDbLine
 10
261.098552875
 20
95.7908065048
 30
0.0
 11
261.5985464377
 21
96.2908056555
 31
0.0
  0
LINE
  5
86
330
1F
100
AcDbEntity
  8
0
  6
Continuous
 62
     7
370
    15
100
AcDbLine
 10
261.5985464377
 20
150.2908070562
 30
0.0
 11
261.098552875
 21
150.7908062068
 31
0.0
  0
LINE
  5
87
330
1F
100
AcDbEntity
  8
0
  6
Continuous
 62
     7
370
    15
100
AcDbLine
 10
165.5485503448
 20
95.7908065048
 30
0.0
 11
261.098552875
 21
95.7908065048
 31
0.0
  0
LINE
  5
88
330
1F
100
AcDbEntity
  8
0
  6
Continuous
 62
     7
370
    15
100
AcDbLine
 10
261.098552875
 20
150.7908062068
 30
0.0
 11
165.5485503448
 21
150.7908062068
 31
0.0
  0
ARC
  5
89
330
1F
100
AcDbEntity
  8
0
  6
Continuous
 62
     7
370
    15
100
AcDbCircle
 10
42.8985494537
 20
104.9119618284
 30
0.0
 40
1.999999999999986
100
AcDbArc
 50
180.0
 51
261.7028550302
  0
ARC
  5
8A
330
1F
100
AcDbEntity
  8
0
  6
Continuous
 62
     7
370
    15
100
AcDbCircle
 10
42.8985494537
 20
141.6696508832
 30
0.0
 40
1.999999999999993
100
AcDbArc
 50
98.2971449698
 51
180.0
  0
ARC
  5
8B
330
1F
100
AcDbEntity
  8
0
  6
Continuous
 62
     7
370
    15
100
AcDbCircle
 10
156.6985494537
 20
108.8250643939
 30
0.0
 40
2.000000000000011
100
AcDbArc
 50
192.2156859341
 51
340.3453161116
  0
LINE
  5
8C
330
1F
100
AcDbEntity
  8
0
  6
Continuous
 62
     7
370
    15
100
AcDbLine
 10
156.8317109791
 20
108.9936590744
 30
0.0
 11
156.8317109791
 21
153.1408068714
 31
0.0
  0
LINE
  5
8D
330
1F
100
AcDbEntity
  8
0
  6
Continuous
 62
     7
370
    15
100
AcDbLine
 10
160.9485488457
 20
153.1408068714
 30
0.0
 11
156.8317109791
 21
153.1408068714
 31
0.0
  0
LINE
  5
8E
330
1F
100
AcDbEntity
  8
0
  6
Continuous
 62
     7
370
    15
100
AcDbLine
 10
156.8317109791
 20
76.5615471629
 30
0.0
 11
160.9485488457
 21
76.5615471629
 31
0.0
  0
LINE
  5
8F
330
1F
100
AcDbEntity
  8
0
  6
Continuous
 62
     7
370
    15
100
AcDbLine
 10
156.8317109791
 20
76.5615471629
 30
0.0
 11
156.8317109791
 21
104.301865491
 31
0.0
  0
SPLINE
  5
90
330
1F
100
AcDbEntity
  8
0
  6
Continuous
 62
     7
370
    15
100
AcDbSpline
210
0.0
220
0.0
230
1.0
 70
     8
 71
     3
 72
    34
 73
    30
 74
     0
 42
0.000000001
 43
0.00000001
 40
0.0
 40
0.0
 40
0.0
 40
0.0
 40
0.062499999999999
 40
0.062499999999999
 40
0.124999999999998
 40
0.124999999999998
 40
0.1874999999999971
 40
0.1874999999999971
 40
0.2499999999999966
 40
0.2499999999999966
 40
0.3124999999999962
 40
0.3124999999999962
 40
0.3749999999999957
 40
0.3749999999999957
 40
0.4999999999999958
 40
0.4999999999999958
 40
0.6249999999999958
 40
0.6249999999999958
 40
0.6874999999999964
 40
0.6874999999999964
 40
0.7499999999999971
 40
0.7499999999999971
 40
0.8124999999999979
 40
0.8124999999999979
 40
0.8749999999999986
 40
0.8749999999999986
 40
0.9374999999999992
 40
0.9374999999999992
 40
1.0
 40
1.0
 40
1.0
 40
1.0
 10
156.8317109611253
 20
104.3018659678186
 30
0.0
 10
156.9911027889131
 20
104.3097060637414
 30
0.0
 10
157.1471052723567
 20
104.3313647118318
 30
0.0
 10
157.4526147884339
 20
104.4012129393246
 30
0.0
 10
157.6035091234462
 20
104.4500386416529
 30
0.0
 10
157.891408468137
 20
104.5729625950602
 30
0.0
 10
158.0273548710967
 20
104.6462701031945
 30
0.0
 10
158.2835374866887
 20
104.8162807269658
 30
0.0
 10
158.4047197744478
 20
104.9141545191673
 30
0.0
 10
158.6218658463206
 20
105.1267386945993
 30
0.0
 10
158.7188277192809
 20
105.2417846331289
 30
0.0
 10
158.8893901551065
 20
105.489645753249
 30
0.0
 10
158.9626302083184
 20
105.6226792503146
 30
0.0
 10
159.1375106650672
 20
106.0321872664447
 30
0.0
 10
159.1985486260432
 20
106.3301479162198
 30
0.0
 10
159.1985502812663
 20
106.9215894720942
 30
0.0
 10
159.13751567168
 20
107.2217630220708
 30
0.0
 10
158.9626259042781
 20
107.6369943023386
 30
0.0
 10
158.8893821988537
 20
107.7723494205854
 30
0.0
 10
158.718821483117
 20
108.0252487519721
 30
0.0
 10
158.6218577675235
 20
108.1430140295798
 30
0.0
 10
158.4046974389364
 20
108.3611443249485
 30
0.0
 10
158.2835161802495
 20
108.4618476500954
 30
0.0
 10
158.0273459533108
 20
108.6370913429287
 30
0.0
 10
157.8914026036481
 20
108.7128363120193
 30
0.0
 10
157.603499900465
 20
108.8400046873215
 30
0.0
 10
157.4526097045482
 20
108.890605959649
 30
0.0
 10
157.1471042008426
 20
108.9630350593968
 30
0.0
 10
156.9911028025791
 20
108.9855208307938
 30
0.0
 10
156.8317109611253
 20
108.9936592906887
 30
0.0
  0
LINE
  5
91
330
1F
100
AcDbEntity
  8
0
  6
Continuous
 62
     7
370
    15
100
AcDbLine
 10
146.2985495177
 20
76.5615471629
 30
0.0
 11
150.3653884006
 21
76.5615471629
 31
0.0
  0
LINE
  5
92
330
1F
100
AcDbEntity
  8
0
  6
Continuous
 62
     7
370
    15
100
AcDbLine
 10
150.3653884006
 20
153.1408068714
 30
0.0
 11
146.2985495177
 21
153.1408068714
 31
0.0
  0
LINE
  5
93
330
1F
100
AcDbEntity
  8
0
  6
Continuous
 62
     7
370
    15
100
AcDbLine
 10
150.3653884006
 20
76.5615471629
 30
0.0
 11
150.3653884006
 21
153.1408068714
 31
0.0
  0
SPLINE
  5
94
330
1F
100
AcDbEntity
  8
0
  6
Continuous
 62
     7
370
    15
100
AcDbSpline
210
0.0
220
0.0
230
1.0
 70
     8
 71
     3
 72
     8
 73
     4
 74
     0
 42
0.000000001
 43
0.00000001
 40
0.0
 40
0.0
 40
0.0
 40
0.0
 40
1.0
 40
1.0
 40
1.0
 40
1.0
 10
151.6885494536634
 20
78.67106694699
 30
0.0
 10
151.3988210076388
 20
78.14884693682647
 30
0.0
 10
151.1087958574211
 20
77.6267935545665
 30
0.0
 10
150.8185016231593
 20
77.1048912888434
 30
0.0
  0
SPLINE
  5
95
330
1F
100
AcDbEntity
  8
0
  6
Continuous
 62
     7
370
    15
100
AcDbSpline
210
0.0
220
0.0
230
1.0
 70
     8
 71
     3
 72
     8
 73
     4
 74
     0
 42
0.000000001
 43
0.00000001
 40
0.0
 40
0.0
 40
0.0
 40
0.0
 40
0.0011862984959113
 40
0.0011862984959113
 40
0.0011862984959113
 40
0.0011862984959113
 10
150.3653879462015
 20
76.56154701447377
 30
0.0
 10
150.5174127080723
 20
76.74245886409177
 30
0.0
 10
150.6684701532881
 20
76.92357119453261
 30
0.0
 10
150.8185016231593
 20
77.1048912888434
 30
0.0
  0
SPLINE
  5
96
330
1F
100
AcDbEntity
  8
0
  6
Continuous
 62
     7
370
    15
100
AcDbSpline
210
0.0
220
0.0
230
1.0
 70
    24
 71
     3
 72
     8
 73
     4
 74
     0
 42
0.000000001
 43
0.00000001
 40
0.0
 40
0.0
 40
0.0
 40
0.0
 40
1.0
 40
1.0
 40
1.0
 40
1.0
 10
151.6885494536634
 20
153.1408063558198
 30
0.0
 10
151.2533493489597
 20
153.1408063558198
 30
0.0
 10
150.8119896662208
 20
153.1408063558198
 30
0.0
 10
150.3653879462015
 20
153.1408063558198
 30
0.0
  0
LINE
  5
97
330
1F
100
AcDbEntity
  8
0
  6
Continuous
 62
     7
370
    15
100
AcDbLine
 10
151.688549116
 20
78.6710673002
 30
0.0
 11
151.688549116
 21
153.1408068714
 31
0.0
  0
LINE
  5
98
330
1F
100
AcDbEntity
  8
0
  6
Continuous
 62
     7
370
    15
100
AcDbLine
 10
155.5085493324
 20
109.4935446036
 30
0.0
 11
155.5085493324
 21
153.1408068714
 31
0.0
  0
SPLINE
  5
99
330
1F
100
AcDbEntity
  8
0
  6
Continuous
 62
     7
370
    15
100
AcDbSpline
210
0.0
220
0.0
230
1.0
 70
    24
 71
     3
 72
     8
 73
     4
 74
     0
 42
0.000000001
 43
0.00000001
 40
0.0
 40
0.0
 40
0.0
 40
0.0
 40
1.0
 40
1.0
 40
1.0
 40
1.0
 10
156.8317109611253
 20
153.1408063558198
 30
0.0
 10
156.3851092411059
 20
153.1408063558198
 30
0.0
 10
155.943749558367
 20
153.1408063558198
 30
0.0
 10
155.5085494536634
 20
153.1408063558198
 30
0.0
  0
SPLINE
  5
9A
330
1F
100
AcDbEntity
  8
0
  6
Continuous
 62
     7
370
    15
100
AcDbSpline
210
0.0
220
0.0
230
1.0
 70
     8
 71
     3
 72
    10
 73
     6
 74
     0
 42
0.000000001
 43
0.00000001
 40
0.0
 40
0.0
 40
0.0
 40
0.0
 40
0.5
 40
0.5
 40
1.0
 40
1.0
 40
1.0
 40
1.0
 10
156.8317109611253
 20
108.9936592906887
 30
0.0
 10
156.6089839342519
 20
109.1371477909824
 30
0.0
 10
156.3872980470267
 20
109.2518685367153
 30
0.0
 10
155.9460772091747
 20
109.4216289660732
 30
0.0
 10
155.7265185617759
 20
109.4770489604606
 30
0.0
 10
155.5085494536636
 20
109.4935442898302
 30
0.0
  0
SPLINE
  5
9B
330
1F
100
AcDbEntity
  8
0
  6
Continuous
 62
     7
370
    15
100
AcDbSpline
210
0.0
220
0.0
230
1.0
 70
     8
 71
     3
 72
    12
 73
     8
 74
     0
 42
0.000000001
 43
0.00000001
 40
0.0
 40
0.0
 40
0.0
 40
0.0
 40
0.2499999999999992
 40
0.2499999999999992
 40
0.4999999999999984
 40
0.4999999999999984
 40
1.0
 40
1.0
 40
1.0
 40
1.0
 10
160.9485494536634
 20
76.56154701447377
 30
0.0
 10
161.0445222068382
 20
76.56154701447376
 30
0.0
 10
161.1369501709927
 20
76.57782033858236
 30
0.0
 10
161.2933802711022
 20
76.63119406057878
 30
0.0
 10
161.356858695875
 20
76.66732231811311
 30
0.0
 10
161.5051378567021
 20
76.78802351439238
 30
0.0
 10
161.5485494536634
 20
76.88187310075756
 30
0.0
 10
161.5485494536634
 20
76.97617737570478
 30
0.0
  0
SPLINE
  5
9C
330
1F
100
AcDbEntity
  8
0
  6
Continuous
 62
     7
370
    15
100
AcDbSpline
210
0.0
220
0.0
230
1.0
 70
    24
 71
     3
 72
    12
 73
     8
 74
     0
 42
0.000000001
 43
0.00000001
 40
0.0
 40
0.0
 40
0.0
 40
0.0
 40
0.5
 40
0.5
 40
0.75
 40
0.75
 40
1.0
 40
1.0
 40
1.0
 40
1.0
 10
161.5485494536634
 20
153.1408063558198
 30
0.0
 10
161.5485494536634
 20
153.1408063558198
 30
0.0
 10
161.500418765278
 20
153.1408063558198
 30
0.0
 10
161.346521709475
 20
153.1408063558198
 30
0.0
 10
161.2810571444682
 20
153.1408063558198
 30
0.0
 10
161.127527823858
 20
153.1408063558198
 30
0.0
 10
161.0391791631222
 20
153.1408063558198
 30
0.0
 10
160.9485494536632
 20
153.1408063558198
 30
0.0
  0
LINE
  5
9D
330
1F
100
AcDbEntity
  8
0
  6
Continuous
 62
     7
370
    15
100
AcDbLine
 10
161.5485496891
 20
76.9761756984
 30
0.0
 11
161.5485496891
 21
153.1408068714
 31
0.0
  0
SPLINE
  5
9E
330
1F
100
AcDbEntity
  8
0
  6
Continuous
 62
     7
370
    15
100
AcDbSpline
210
0.0
220
0.0
230
1.0
 70
     8
 71
     3
 72
    10
 73
     6
 74
     0
 42
0.000000001
 43
0.00000001
 40
0.0
 40
0.0
 40
0.0
 40
0.0
 40
0.5
 40
0.5
 40
1.0
 40
1.0
 40
1.0
 40
1.0
 10
145.9142094848174
 20
76.65735208862756
 30
0.0
 10
145.962860053397
 20
76.62939509736013
 30
0.0
 10
146.0202452653565
 20
76.60545281233335
 30
0.0
 10
146.1509583735225
 20
76.5713343492376
 30
0.0
 10
146.2236979072611
 20
76.56154701447376
 30
0.0
 10
146.2985494536634
 20
76.56154701447376
 30
0.0
  0
SPLINE
  5
9F
330
1F
100
AcDbEntity
  8
0
  6
Continuous
 62
     7
370
    15
100
AcDbSpline
210
0.0
220
0.0
230
1.0
 70
     8
 71
     3
 72
    10
 73
     6
 74
     0
 42
0.000000001
 43
0.00000001
 40
0.0
 40
0.0
 40
0.0
 40
0.0
 40
0.5
 40
0.5
 40
1.0
 40
1.0
 40
1.0
 40
1.0
 10
145.9142094848174
 20
76.65735208862753
 30
0.0
 10
145.8560214782352
 20
76.72493581880634
 30
0.0
 10
145.8035790117089
 20
76.80541205344812
 30
0.0
 10
145.7252267045303
 20
76.98844767643084
 30
0.0
 10
145.6985494536633
 20
77.09432337922648
 30
0.0
 10
145.6985494536633
 20
77.2018366884471
 30
0.0
  0
LINE
  5
A0
330
1F
100
AcDbEntity
  8
0
  6
Continuous
 62
     7
370
    15
100
AcDbLine
 10
145.6985493728
 20
77.2018351582
 30
0.0
 11
145.6985493728
 21
153.1408068714
 31
0.0
  0
SPLINE
  5
A1
330
1F
100
AcDbEntity
  8
0
  6
Continuous
 62
     7
370
    15
100
AcDbSpline
210
0.0
220
0.0
230
1.0
 70
    24
 71
     3
 72
    14
 73
    10
 74
     0
 42
0.000000001
 43
0.00000001
 40
0.0
 40
0.0
 40
0.0
 40
0.0
 40
0.25
 40
0.25
 40
0.5
 40
0.5
 40
0.75
 40
0.75
 40
1.0
 40
1.0
 40
1.0
 40
1.0
 10
146.2985494536634
 20
153.1408063558198
 30
0.0
 10
146.2095275013197
 20
153.1408063558198
 30
0.0
 10
146.1198408020462
 20
153.1408063558198
 30
0.0
 10
145.9661139764889
 20
153.1408063558198
 30
0.0
 10
145.9009090818621
 20
153.1408063558198
 30
0.0
 10
145.7983183876916
 20
153.1408063558198
 30
0.0
 10
145.7606809333757
 20
153.1408063558198
 30
0.0
 10
145.7105890179906
 20
153.1408063558198
 30
0.0
 10
145.6985494536634
 20
153.1408063558198
 30
0.0
 10
145.6985494536634
 20
153.1408063558198
 30
0.0
  0
SPLINE
  5
A2
330
1F
100
AcDbEntity
  8
0
  6
Continuous
 62
     7
370
    15
100
AcDbSpline
210
0.0
220
0.0
230
1.0
 70
     8
 71
     3
 72
    14
 73
    10
 74
     0
 42
0.000000001
 43
0.00000001
 40
0.0
 40
0.0
 40
0.0
 40
0.0
 40
0.25
 40
0.25
 40
0.5
 40
0.5
 40
0.75
 40
0.75
 40
1.0
 40
1.0
 40
1.0
 40
1.0
 10
155.5085494536634
 20
109.5391585118427
 30
0.0
 10
155.5085494536634
 20
109.5811348936963
 30
0.0
 10
155.4789064996922
 20
109.6089852813372
 30
0.0
 10
155.3722516659621
 20
109.6224841566272
 30
0.0
 10
155.295973271358
 20
109.6078686545895
 30
0.0
 10
155.1279217282914
 20
109.5357794504213
 30
0.0
 10
155.0368019216831
 20
109.4786418399386
 30
0.0
 10
154.8641248094305
 20
109.3364141393473
 30
0.0
 10
154.7832023699024
 20
109.2528503138353
 30
0.0
 10
154.7085494536634
 20
109.1594806419393
 30
0.0
  0
SPLINE
  5
A3
330
1F
100
AcDbEntity
  8
0
  6
Continuous
 62
     7
370
    15
100
AcDbSpline
210
0.0
220
0.0
230
1.0
 70
     8
 71
     3
 72
    10
 73
     6
 74
     0
 42
0.000000001
 43
0.00000001
 40
0.0
 40
0.0
 40
0.0
 40
0.0
 40
0.5
 40
0.5
 40
1.0
 40
1.0
 40
1.0
 40
1.0
 10
155.5085494536637
 20
105.3615030911987
 30
0.0
 10
155.7254402861844
 20
105.1244641517501
 30
0.0
 10
155.9445929228433
 20
104.9222939167566
 30
0.0
 10
156.3860774231122
 20
104.571541845238
 30
0.0
 10
156.6092798883856
 20
104.4228657528411
 30
0.0
 10
156.8317109611253
 20
104.3018659678186
 30
0.0
  0
LINE
  5
A4
330
1F
100
AcDbEntity
  8
0
  6
Continuous
 62
     7
370
    15
100
AcDbLine
 10
155.5085493324
 20
105.4071181444
 30
0.0
 11
155.5085493324
 21
105.3615038273
 31
0.0
  0
SPLINE
  5
A5
330
1F
100
AcDbEntity
  8
0
  6
Continuous
 62
     7
370
    15
100
AcDbSpline
210
0.0
220
0.0
230
1.0
 70
     8
 71
     3
 72
    16
 73
    12
 74
     0
 42
0.000000001
 43
0.00000001
 40
0.0
 40
0.0
 40
0.0
 40
0.0
 40
0.2500000000000029
 40
0.2500000000000029
 40
0.5000000000000059
 40
0.5000000000000059
 40
0.6250000000000073
 40
0.6250000000000073
 40
0.7500000000000089
 40
0.7500000000000089
 40
1.0
 40
1.0
 40
1.0
 40
1.0
 10
154.7085494536634
 20
106.3155167988857
 30
0.0
 10
154.7825573438856
 20
106.2251692187
 30
0.0
 10
154.8631753388745
 20
106.1372096459004
 30
0.0
 10
155.0369433243788
 20
105.9608747218388
 30
0.0
 10
155.1276944553203
 20
105.8752674811728
 30
0.0
 10
155.2538075527817
 20
105.7540717851478
 30
0.0
 10
155.293384313645
 20
105.7155402061569
 30
0.0
 10
155.3658669703462
 20
105.6411442200276
 30
0.0
 10
155.3987949608151
 20
105.6051274321061
 30
0.0
 10
155.47858513081
 20
105.5063747562891
 30
0.0
 10
155.5085494536634
 20
105.449610754507
 30
0.0
 10
155.5085494536634
 20
105.4071173132115
 30
0.0
  0
SPLINE
  5
A6
330
1F
100
AcDbEntity
  8
0
  6
Continuous
 62
     7
370
    15
100
AcDbSpline
210
0.0
220
0.0
230
1.0
 70
     8
 71
     3
 72
    16
 73
    12
 74
     0
 42
0.000000001
 43
0.00000001
 40
0.0
 40
0.0
 40
0.0
 40
0.0
 40
0.2500000000000008
 40
0.2500000000000008
 40
0.5000000000000017
 40
0.5000000000000017
 40
0.7500000000000024
 40
0.7500000000000024
 40
0.8750000000000012
 40
0.8750000000000012
 40
1.0
 40
1.0
 40
1.0
 40
1.0
 10
154.7085494536634
 20
109.1594806419393
 30
0.0
 10
154.5431353471832
 20
108.952594405914
 30
0.0
 10
154.4169380162076
 20
108.7267257081052
 30
0.0
 10
154.2425317178767
 20
108.2378564624923
 30
0.0
 10
154.1987016787799
 20
107.9860894091478
 30
0.0
 10
154.1983980058099
 20
107.4743100845654
 30
0.0
 10
154.2422548658702
 20
107.2232553754827
 30
0.0
 10
154.3721766251374
 20
106.8624068073406
 30
0.0
 10
154.4262914365454
 20
106.745134038992
 30
0.0
 10
154.5529684266888
 20
106.5226450876532
 30
0.0
 10
154.6258421470496
 20
106.4164844794099
 30
0.0
 10
154.7085494536634
 20
106.3155167988857
 30
0.0
  0
SPLINE
  5
A7
330
1F
100
AcDbEntity
  8
0
  6
Continuous
 62
     7
370
    15
100
AcDbSpline
210
0.0
220
0.0
230
1.0
 70
     8
 71
     3
 72
    14
 73
    10
 74
     0
 42
0.000000001
 43
0.00000001
 40
0.0
 40
0.0
 40
0.0
 40
0.0
 40
0.25
 40
0.25
 40
0.5
 40
0.5
 40
0.75
 40
0.75
 40
1.0
 40
1.0
 40
1.0
 40
1.0
 10
152.4885494536634
 20
79.64304008994999
 30
0.0
 10
152.3821044457541
 20
79.64304008994999
 30
0.0
 10
152.2752056944806
 20
79.62047054051688
 30
0.0
 10
152.0789874390381
 20
79.53402744927496
 30
0.0
 10
151.9893291255737
 20
79.46972353160783
 30
0.0
 10
151.8438754126926
 20
79.31475401756485
 30
0.0
 10
151.7858396299664
 20
79.22198853132112
 30
0.0
 10
151.7085544755818
 20
79.02352164967775
 30
0.0
 10
151.6885494536634
 20
78.91649722788397
 30
0.0
 10
151.6885494536634
 20
78.80971486741315
 30
0.0
  0
SPLINE
  5
A8
330
1F
100
AcDbEntity
  8
0
  6
Continuous
 62
     7
370
    15
100
AcDbSpline
210
0.0
220
0.0
230
1.0
 70
    24
 71
     3
 72
    14
 73
    10
 74
     0
 42
0.000000001
 43
0.00000001
 40
0.0
 40
0.0
 40
0.0
 40
0.0
 40
0.25
 40
0.25
 40
0.5
 40
0.5
 40
0.75
 40
0.75
 40
1.0
 40
1.0
 40
1.0
 40
1.0
 10
152.4885494536634
 20
153.1408063558198
 30
0.0
 10
152.3655681541171
 20
153.1408063558198
 30
0.0
 10
152.2453782657151
 20
153.1408063558198
 30
0.0
 10
152.0403544360359
 20
153.1408063558198
 30
0.0
 10
151.9537599472338
 20
153.1408063558198
 30
0.0
 10
151.8186520604714
 20
153.1408063558198
 30
0.0
 10
151.7701289754432
 20
153.1408063558198
 30
0.0
 10
151.7044464667165
 20
153.1408063558198
 30
0.0
 10
151.6885494536634
 20
153.1408063558198
 30
0.0
 10
151.6885494536634
 20
153.1408063558198
 30
0.0
  0
SPLINE
  5
A9
330
1F
100
AcDbEntity
  8
0
  6
Continuous
 62
     7
370
    15
100
AcDbSpline
210
0.0
220
0.0
230
1.0
 70
    24
 71
     3
 72
    14
 73
    10
 74
     0
 42
0.000000001
 43
0.00000001
 40
0.0
 40
0.0
 40
0.0
 40
0.0
 40
0.25
 40
0.25
 40
0.5
 40
0.5
 40
0.75
 40
0.75
 40
1.0
 40
1.0
 40
1.0
 40
1.0
 10
155.5085494536634
 20
153.1408063558198
 30
0.0
 10
155.5085494536634
 20
153.1408063558198
 30
0.0
 10
155.4922684188876
 20
153.1408063558198
 30
0.0
 10
155.427605356363
 20
153.1408063558198
 30
0.0
 10
155.3781255600743
 20
153.1408063558198
 30
0.0
 10
155.2441558029356
 20
153.1408063558198
 30
0.0
 10
155.1580410763361
 20
153.1408063558198
 30
0.0
 10
154.9525849606231
 20
153.1408063558198
 30
0.0
 10
154.8311644234302
 20
153.1408063558198
 30
0.0
 10
154.7085494536634
 20
153.1408063558198
 30
0.0
  0
LINE
  5
AA
330
1F
100
AcDbEntity
  8
0
  6
Continuous
 62
     7
370
    15
100
AcDbLine
 10
154.70854976
 20
79.6430402425
 30
0.0
 11
152.4885496197
 21
79.6430402425
 31
0.0
  0
LINE
  5
AB
330
1F
100
AcDbEntity
  8
0
  6
Continuous
 62
     7
370
    15
100
AcDbLine
 10
154.70854976
 20
153.1408068714
 30
0.0
 11
152.4885496197
 21
153.1408068714
 31
0.0
  0
SPLINE
  5
AC
330
1F
100
AcDbEntity
  8
0
  6
Continuous
 62
     7
370
    15
100
AcDbSpline
210
0.0
220
0.0
230
1.0
 70
     8
 71
     3
 72
     8
 73
     4
 74
     0
 42
0.000000001
 43
0.00000001
 40
0.0000000000000004
 40
0.0000000000000004
 40
0.0000000000000004
 40
0.0000000000000004
 40
0.0011862984959128
 40
0.0011862984959128
 40
0.0011862984959128
 40
0.0011862984959128
 10
156.3785972841635
 20
77.1048912888434
 30
0.0
 10
156.5286287540349
 20
76.92357119453237
 30
0.0
 10
156.6796861992542
 20
76.742458864092
 30
0.0
 10
156.8317109611253
 20
76.56154701447377
 30
0.0
  0
SPLINE
  5
AD
330
1F
100
AcDbEntity
  8
0
  6
Continuous
 62
     7
370
    15
100
AcDbSpline
210
0.0
220
0.0
230
1.0
 70
     8
 71
     3
 72
     8
 73
     4
 74
     0
 42
0.000000001
 43
0.00000001
 40
0.0
 40
0.0
 40
0.0
 40
0.0
 40
1.0
 40
1.0
 40
1.0
 40
1.0
 10
156.3785972841665
 20
77.10489128884507
 30
0.0
 10
156.0883030499051
 20
77.62679355456761
 30
0.0
 10
155.7982778996876
 20
78.14884693682703
 30
0.0
 10
155.5085494536634
 20
78.67106694699
 30
0.0
  0
LINE
  5
AE
330
1F
100
AcDbEntity
  8
0
  6
Continuous
 62
     7
370
    15
100
AcDbLine
 10
155.5085493324
 20
78.6710673002
 30
0.0
 11
155.5085493324
 21
105.3615038273
 31
0.0
  0
SPLINE
  5
AF
330
1F
100
AcDbEntity
  8
0
  6
Continuous
 62
     7
370
    15
100
AcDbSpline
210
0.0
220
0.0
230
1.0
 70
     8
 71
     3
 72
    14
 73
    10
 74
     0
 42
0.000000001
 43
0.00000001
 40
0.0
 40
0.0
 40
0.0
 40
0.0
 40
0.25
 40
0.25
 40
0.5
 40
0.5
 40
0.75
 40
0.75
 40
1.0
 40
1.0
 40
1.0
 40
1.0
 10
155.5085494536634
 20
78.80971486741315
 30
0.0
 10
155.5085494536634
 20
78.91677885375395
 30
0.0
 10
155.4885656274234
 20
79.02351818012846
 30
0.0
 10
155.4111305449899
 20
79.22226808231926
 30
0.0
 10
155.3531916228305
 20
79.31482229881179
 30
0.0
 10
155.2075538170697
 20
79.46991924221736
 30
0.0
 10
155.1187648207343
 20
79.53365939913023
 30
0.0
 10
154.9222164605298
 20
79.62040795621783
 30
0.0
 10
154.8160772308304
 20
79.64304008994999
 30
0.0
 10
154.7085494536634
 20
79.64304008994999
 30
0.0
  0
LINE
  5
B0
330
1F
100
AcDbEntity
  8
0
  6
Continuous
 62
     7
370
    15
100
AcDbLine
 10
142.4985494537
 20
88.3658074764
 30
0.0
 11
142.4985494537
 21
158.2158052353
 31
0.0
  0
SPLINE
  5
B1
330
1F
100
AcDbEntity
  8
0
  6
Continuous
 62
     7
370
    15
100
AcDbSpline
210
0.0
220
0.0
230
1.0
 70
     8
 71
     3
 72
    12
 73
     8
 74
     0
 42
0.000000001
 43
0.00000001
 40
0.0
 40
0.0
 40
0.0
 40
0.0
 40
0.2500000000000007
 40
0.2500000000000007
 40
0.5000000000000014
 40
0.5000000000000014
 40
1.0
 40
1.0
 40
1.0
 40
1.0
 10
152.4885494536634
 20
166.9385726216895
 30
0.0
 10
152.3822044737874
 20
166.9385726216896
 30
0.0
 10
152.2749281263848
 20
166.9612878595491
 30
0.0
 10
152.0795523369887
 20
167.0473130264315
 30
0.0
 10
151.9909986009118
 20
167.1102917533598
 30
0.0
 10
151.7697406767805
 20
167.3454832637969
 30
0.0
 10
151.6885494536634
 20
167.5586594782822
 30
0.0
 10
151.6885494536634
 20
167.7718978442263
 30
0.0
  0
SPLINE
  5
B2
330
1F
100
AcDbEntity
  8
0
  6
Continuous
 62
     7
370
    15
100
AcDbSpline
210
0.0
220
0.0
230
1.0
 70
     8
 71
     3
 72
    12
 73
     8
 74
     0
 42
0.000000001
 43
0.00000001
 40
0.0
 40
0.0
 40
0.0
 40
0.0
 40
0.499999999999994
 40
0.499999999999994
 40
0.749999999999997
 40
0.749999999999997
 40
1.0
 40
1.0
 40
1.0
 40
1.0
 10
151.6885494536634
 20
158.6838494575368
 30
0.0
 10
151.6885494536634
 20
158.4414263615561
 30
0.0
 10
151.7514705951052
 20
158.1956558409547
 30
0.0
 10
151.9534994921077
 20
157.8907096615378
 30
0.0
 10
152.0397932167548
 20
157.8001167949394
 30
0.0
 10
152.2452670113216
 20
157.6696832320025
 30
0.0
 10
152.3652175719212
 20
157.6306884173528
 30
0.0
 10
152.4885494536634
 20
157.6306884173528
 30
0.0
  0
SPLINE
  5
B3
330
1F
100
AcDbEntity
  8
0
  6
Continuous
 62
     7
370
    15
100
AcDbSpline
210
0.0
220
0.0
230
1.0
 70
     8
 71
     3
 72
    12
 73
     8
 74
     0
 42
0.000000001
 43
0.00000001
 40
0.0
 40
0.0
 40
0.0
 40
0.0
 40
0.5000000000000003
 40
0.5000000000000003
 40
0.7500000000000001
 40
0.7500000000000001
 40
1.0
 40
1.0
 40
1.0
 40
1.0
 10
145.6985494536634
 20
161.0398874704641
 30
0.0
 10
145.6985494536634
 20
161.2182477377034
 30
0.0
 10
145.7458615750393
 20
161.3970201494074
 30
0.0
 10
145.9002216529207
 20
161.6187820147591
 30
0.0
 10
145.9651071878397
 20
161.6830740533756
 30
0.0
 10
146.120339887068
 20
161.7757185375352
 30
0.0
 10
146.2094152997362
 20
161.801884307495
 30
0.0
 10
146.2985494536634
 20
161.801884307495
 30
0.0
  0
LINE
  5
B4
330
1F
100
AcDbEntity
  8
0
  6
Continuous
 62
     7
370
    15
100
AcDbLine
 10
146.2985495177
 20
161.8018851606
 30
0.0
 11
150.3653884006
 21
161.8018851606
 31
0.0
  0
SPLINE
  5
B5
330
1F
100
AcDbEntity
  8
0
  6
Continuous
 62
     7
370
    15
100
AcDbSpline
210
0.0
220
0.0
230
1.0
 70
     8
 71
     3
 72
     8
 73
     4
 74
     0
 42
0.000000001
 43
0.00000001
 40
0.0
 40
0.0
 40
0.0
 40
0.0
 40
1.0
 40
1.0
 40
1.0
 40
1.0
 10
150.3653879462015
 20
161.8018843074949
 30
0.0
 10
150.8122366741292
 20
160.8226484092387
 30
0.0
 10
151.253603032025
 20
159.8414464165118
 30
0.0
 10
151.6885494536634
 20
158.8579420981294
 30
0.0
  0
LINE
  5
B6
330
1F
100
AcDbEntity
  8
0
  6
Continuous
 62
     7
370
    15
100
AcDbLine
 10
151.688549116
 20
158.8579409746
 30
0.0
 11
151.688549116
 21
158.6838507084
 31
0.0
  0
LINE
  5
B7
330
1F
100
AcDbEntity
  8
0
  6
Continuous
 62
     7
370
    15
100
AcDbLine
 10
152.4885496197
 20
157.6306887892
 30
0.0
 11
154.70854976
 21
157.6306887892
 31
0.0
  0
SPLINE
  5
B8
330
1F
100
AcDbEntity
  8
0
  6
Continuous
 62
     7
370
    15
100
AcDbSpline
210
0.0
220
0.0
230
1.0
 70
     8
 71
     3
 72
    14
 73
    10
 74
     0
 42
0.000000001
 43
0.00000001
 40
0.0
 40
0.0
 40
0.0
 40
0.0
 40
0.25
 40
0.25
 40
0.5
 40
0.5
 40
0.75
 40
0.75
 40
1.0
 40
1.0
 40
1.0
 40
1.0
 10
154.7085494536634
 20
157.6306884173528
 30
0.0
 10
154.8298759836491
 20
157.6306884173528
 30
0.0
 10
154.9515806922113
 20
157.669469932786
 30
0.0
 10
155.1580205710975
 20
157.8006245544799
 30
0.0
 10
155.2439711095535
 20
157.8912766390671
 30
0.0
 10
155.3778828693018
 20
158.0933936740083
 30
0.0
 10
155.427447306121
 20
158.2071286175475
 30
0.0
 10
155.4923013340889
 20
158.440088234614
 30
0.0
 10
155.5085494536634
 20
158.5627865009432
 30
0.0
 10
155.5085494536634
 20
158.6838494575368
 30
0.0
  0
LINE
  5
B9
330
1F
100
AcDbEntity
  8
0
  6
Continuous
 62
     7
370
    15
100
AcDbLine
 10
155.5085493324
 20
158.6838507084
 30
0.0
 11
155.5085493324
 21
158.8579409746
 31
0.0
  0
SPLINE
  5
BA
330
1F
100
AcDbEntity
  8
0
  6
Continuous
 62
     7
370
    15
100
AcDbSpline
210
0.0
220
0.0
230
1.0
 70
     8
 71
     3
 72
     8
 73
     4
 74
     0
 42
0.000000001
 43
0.00000001
 40
0.0
 40
0.0
 40
0.0
 40
0.0
 40
1.0
 40
1.0
 40
1.0
 40
1.0
 10
155.5085494536634
 20
158.8579420981294
 30
0.0
 10
155.9434958753017
 20
159.8414464165118
 30
0.0
 10
156.3848622331976
 20
160.8226484092387
 30
0.0
 10
156.8317109611253
 20
161.8018843074949
 30
0.0
  0
LINE
  5
BB
330
1F
100
AcDbEntity
  8
0
  6
Continuous
 62
     7
370
    15
100
AcDbLine
 10
156.8317109791
 20
161.8018851606
 30
0.0
 11
160.9485488457
 21
161.8018851606
 31
0.0
  0
SPLINE
  5
BC
330
1F
100
AcDbEntity
  8
0
  6
Continuous
 62
     7
370
    15
100
AcDbSpline
210
0.0
220
0.0
230
1.0
 70
     8
 71
     3
 72
    12
 73
     8
 74
     0
 42
0.000000001
 43
0.00000001
 40
0.0
 40
0.0
 40
0.0
 40
0.0
 40
0.2499999999999946
 40
0.2499999999999946
 40
0.4999999999999892
 40
0.4999999999999892
 40
1.0
 40
1.0
 40
1.0
 40
1.0
 10
160.9485494536639
 20
161.801884307495
 30
0.0
 10
161.038086511835
 20
161.8018843074949
 30
0.0
 10
161.1279856906236
 20
161.7750570086639
 30
0.0
 10
161.2814105496229
 20
161.6833500434044
 30
0.0
 10
161.3464596070006
 20
161.6190951018055
 30
0.0
 10
161.4997788382649
 20
161.3996829557439
 30
0.0
 10
161.5485494536634
 20
161.217867645947
 30
0.0
 10
161.5485494536634
 20
161.0398874704641
 30
0.0
  0
LINE
  5
BD
330
1F
100
AcDbEntity
  8
0
  6
Continuous
 62
     7
370
    15
100
AcDbLine
 10
145.6985493728
 20
161.0398882059
 30
0.0
 11
145.6985493728
 21
153.1408068714
 31
0.0
  0
LINE
  5
BE
330
1F
100
AcDbEntity
  8
0
  6
Continuous
 62
     7
370
    15
100
AcDbLine
 10
161.5485496891
 20
161.0398882059
 30
0.0
 11
161.5485496891
 21
153.1408068714
 31
0.0
  0
SPLINE
  5
BF
330
1F
100
AcDbEntity
  8
0
  6
Continuous
 62
     7
370
    15
100
AcDbSpline
210
0.0
220
0.0
230
1.0
 70
     8
 71
     3
 72
    14
 73
    10
 74
     0
 42
0.000000001
 43
0.00000001
 40
0.0
 40
0.0
 40
0.0
 40
0.0
 40
0.25
 40
0.25
 40
0.5
 40
0.5
 40
0.75
 40
0.75
 40
1.0
 40
1.0
 40
1.0
 40
1.0
 10
155.5085494536634
 20
167.7718978442264
 30
0.0
 10
155.5085494536634
 20
167.6645554720789
 30
0.0
 10
155.4885532615992
 20
167.5579264652311
 30
0.0
 10
155.4108551772545
 20
167.3587746860799
 30
0.0
 10
155.3528620323609
 20
167.2662917877645
 30
0.0
 10
155.2068155395381
 20
167.1110559526553
 30
0.0
 10
155.1174778003704
 20
167.0473220110429
 30
0.0
 10
154.92272278831
 20
166.9614917446477
 30
0.0
 10
154.8151925171011
 20
166.9385726216893
 30
0.0
 10
154.7085494536613
 20
166.9385726216895
 30
0.0
  0
SPLINE
  5
C0
330
1F
100
AcDbEntity
  8
0
  6
Continuous
 62
     7
370
    15
100
AcDbSpline
210
0.0
220
0.0
230
1.0
 70
     8
 71
     3
 72
     8
 73
     4
 74
     0
 42
0.000000001
 43
0.00000001
 40
0.0
 40
0.0
 40
0.0
 40
0.0
 40
1.0
 40
1.0
 40
1.0
 40
1.0
 10
156.2752204758298
 20
169.2908396004871
 30
0.0
 10
156.0194441650744
 20
168.8308612452224
 30
0.0
 10
155.7638807669684
 20
168.3707667849146
 30
0.0
 10
155.5085494536634
 20
167.9105457646495
 30
0.0
  0
SPLINE
  5
C1
330
1F
100
AcDbEntity
  8
0
  6
Continuous
 62
     7
370
    15
100
AcDbSpline
210
0.0
220
0.0
230
1.0
 70
     8
 71
     3
 72
     8
 73
     4
 74
     0
 42
0.000000001
 43
0.00000001
 40
0.0
 40
0.0
 40
0.0
 40
0.0
 40
0.0012352705496738
 40
0.0012352705496738
 40
0.0012352705496738
 40
0.0012352705496738
 10
156.8317109611253
 20
170.0706510105953
 30
0.0
 10
156.6457625358032
 20
169.8108752548436
 30
0.0
 10
156.4602557266321
 20
169.5509411762164
 30
0.0
 10
156.2752204758299
 20
169.2908396004877
 30
0.0
  0
LINE
  5
C2
330
1F
100
AcDbEntity
  8
0
  6
Continuous
 62
     7
370
    15
100
AcDbLine
 10
156.8317109791
 20
161.8018851606
 30
0.0
 11
156.8317109791
 21
170.0706512657
 31
0.0
  0
LINE
  5
C3
330
1F
100
AcDbEntity
  8
0
  6
Continuous
 62
     7
370
    15
100
AcDbLine
 10
155.5085493324
 20
158.8579409746
 30
0.0
 11
155.5085493324
 21
167.9105454115
 31
0.0
  0
LINE
  5
C4
330
1F
100
AcDbEntity
  8
0
  6
Continuous
 62
     7
370
    15
100
AcDbLine
 10
160.9485488457
 20
170.0706512657
 30
0.0
 11
156.8317109791
 21
170.0706512657
 31
0.0
  0
SPLINE
  5
C5
330
1F
100
AcDbEntity
  8
0
  6
Continuous
 62
     7
370
    15
100
AcDbSpline
210
0.0
220
0.0
230
1.0
 70
     8
 71
     3
 72
    12
 73
     8
 74
     0
 42
0.000000001
 43
0.00000001
 40
0.0
 40
0.0
 40
0.0
 40
0.0
 40
0.4999999999999982
 40
0.4999999999999982
 40
0.7499999999999991
 40
0.7499999999999991
 40
1.0
 40
1.0
 40
1.0
 40
1.0
 10
161.5485494536634
 20
169.5857933090502
 30
0.0
 10
161.5485494536634
 20
169.7059859157154
 30
0.0
 10
161.4945810233943
 20
169.8238932162304
 30
0.0
 10
161.3334943824614
 20
169.9632727607137
 30
0.0
 10
161.2687319629883
 20
170.0014380582777
 30
0.0
 10
161.1166779614238
 20
170.0560903206111
 30
0.0
 10
161.0339481882746
 20
170.0706510105953
 30
0.0
 10
160.9485494536634
 20
170.0706510105953
 30
0.0
  0
LINE
  5
C6
330
1F
100
AcDbEntity
  8
0
  6
Continuous
 62
     7
370
    15
100
AcDbLine
 10
161.5485496891
 20
161.0398882059
 30
0.0
 11
161.5485496891
 21
169.5857935575
 31
0.0
  0
LINE
  5
C7
330
1F
100
AcDbEntity
  8
0
  6
Continuous
 62
     7
370
    15
100
AcDbLine
 10
150.3653884006
 20
170.0706512657
 30
0.0
 11
146.2985495177
 21
170.0706512657
 31
0.0
  0
LINE
  5
C8
330
1F
100
AcDbEntity
  8
0
  6
Continuous
 62
     7
370
    15
100
AcDbLine
 10
150.3653884006
 20
161.8018851606
 30
0.0
 11
150.3653884006
 21
170.0706512657
 31
0.0
  0
LINE
  5
C9
330
1F
100
AcDbEntity
  8
0
  6
Continuous
 62
     7
370
    15
100
AcDbLine
 10
154.70854976
 20
166.9385724691
 30
0.0
 11
152.4885496197
 21
166.9385724691
 31
0.0
  0
SPLINE
  5
CA
330
1F
100
AcDbEntity
  8
0
  6
Continuous
 62
     7
370
    15
100
AcDbSpline
210
0.0
220
0.0
230
1.0
 70
     8
 71
     3
 72
    10
 73
     6
 74
     0
 42
0.000000001
 43
0.00000001
 40
0.0
 40
0.0
 40
0.0
 40
0.0
 40
0.5
 40
0.5
 40
1.0
 40
1.0
 40
1.0
 40
1.0
 10
145.9884183726097
 20
170.0009706815426
 30
0.0
 10
145.9119652826909
 20
169.930707910322
 30
0.0
 10
145.8431035604218
 20
169.8436129952802
 30
0.0
 10
145.7365913293489
 20
169.6344438670279
 30
0.0
 10
145.6985494536633
 20
169.5091263177884
 30
0.0
 10
145.6985494536633
 20
169.3797760231924
 30
0.0
  0
SPLINE
  5
CB
330
1F
100
AcDbEntity
  8
0
  6
Continuous
 62
     7
370
    15
100
AcDbSpline
210
0.0
220
0.0
230
1.0
 70
     8
 71
     3
 72
     8
 73
     4
 74
     0
 42
0.000000001
 43
0.00000001
 40
0.0
 40
0.0
 40
0.0
 40
0.0
 40
1.0
 40
1.0
 40
1.0
 40
1.0
 10
146.2985494536634
 20
170.0706510105953
 30
0.0
 10
146.1874712683259
 20
170.0706510105953
 30
0.0
 10
146.0798072644237
 20
170.0455018350407
 30
0.0
 10
145.9884183726097
 20
170.0009706815426
 30
0.0
  0
LINE
  5
CC
330
1F
100
AcDbEntity
  8
0
  6
Continuous
 62
     7
370
    15
100
AcDbLine
 10
145.6985493728
 20
161.0398882059
 30
0.0
 11
145.6985493728
 21
169.3797775534
 31
0.0
  0
SPLINE
  5
CD
330
1F
100
AcDbEntity
  8
0
  6
Continuous
 62
     7
370
    15
100
AcDbSpline
210
0.0
220
0.0
230
1.0
 70
     8
 71
     3
 72
     8
 73
     4
 74
     0
 42
0.000000001
 43
0.00000001
 40
0.0
 40
0.0
 40
0.0
 40
0.0
 40
0.0012352705496723
 40
0.0012352705496723
 40
0.0012352705496723
 40
0.0012352705496723
 10
150.921878431496
 20
169.2908396004889
 30
0.0
 10
150.7368431806941
 20
169.5509411762171
 30
0.0
 10
150.5513363715233
 20
169.810875254844
 30
0.0
 10
150.3653879462015
 20
170.0706510105953
 30
0.0
  0
SPLINE
  5
CE
330
1F
100
AcDbEntity
  8
0
  6
Continuous
 62
     7
370
    15
100
AcDbSpline
210
0.0
220
0.0
230
1.0
 70
     8
 71
     3
 72
     8
 73
     4
 74
     0
 42
0.000000001
 43
0.00000001
 40
0.0
 40
0.0
 40
0.0
 40
0.0
 40
1.0
 40
1.0
 40
1.0
 40
1.0
 10
151.6885494536634
 20
167.9105457646495
 30
0.0
 10
151.433218140358
 20
168.3707667849151
 30
0.0
 10
151.1776547422517
 20
168.8308612452235
 30
0.0
 10
150.921878431496
 20
169.2908396004889
 30
0.0
  0
LINE
  5
CF
330
1F
100
AcDbEntity
  8
0
  6
Continuous
 62
     7
370
    15
100
AcDbLine
 10
151.688549116
 20
158.8579409746
 30
0.0
 11
151.688549116
 21
167.9105454115
 31
0.0
  0
LINE
  5
D0
330
1F
100
AcDbEntity
  8
0
  6
Continuous
 62
     7
370
    15
100
AcDbLine
 10
261.5985464377
 20
96.2908056555
 30
0.0
 11
261.5985464377
 21
150.2908070562
 31
0.0
  0
LINE
  5
D1
330
1F
100
AcDbEntity
  8
0
  6
Continuous
 62
     7
370
    15
100
AcDbLine
 10
261.098552875
 20
95.7908065048
 30
0.0
 11
261.098552875
 21
150.7908062068
 31
0.0
  0
SPLINE
  5
D2
330
1F
100
AcDbEntity
  8
0
  6
Continuous
 62
     7
370
    15
100
AcDbSpline
210
0.0
220
0.0
230
1.0
 70
     8
 71
     3
 72
    50
 73
    46
 74
     0
 42
0.000000001
 43
0.00000001
 40
0.0
 40
0.0
 40
0.0
 40
0.0
 40
0.0312500000000011
 40
0.0312500000000011
 40
0.0625000000000022
 40
0.0625000000000022
 40
0.1250000000000045
 40
0.1250000000000045
 40
0.1562500000000057
 40
0.1562500000000057
 40
0.1875000000000069
 40
0.1875000000000069
 40
0.218750000000008
 40
0.218750000000008
 40
0.2500000000000092
 40
0.2500000000000092
 40
0.3125000000000114
 40
0.3125000000000114
 40
0.3437500000000125
 40
0.3437500000000125
 40
0.3750000000000137
 40
0.3750000000000137
 40
0.4375000000000141
 40
0.4375000000000141
 40
0.4687500000000135
 40
0.4687500000000135
 40
0.5000000000000128
 40
0.5000000000000128
 40
0.5625000000000114
 40
0.5625000000000114
 40
0.6250000000000101
 40
0.6250000000000101
 40
0.6875000000000089
 40
0.6875000000000089
 40
0.7500000000000075
 40
0.7500000000000075
 40
0.8125000000000062
 40
0.8125000000000062
 40
0.8750000000000049
 40
0.8750000000000049
 40
0.9062500000000039
 40
0.9062500000000039
 40
0.9375000000000028
 40
0.9375000000000028
 40
1.0
 40
1.0
 40
1.0
 40
1.0
 10
254.5485494536634
 20
123.2908063558198
 30
0.0
 10
254.5485494536634
 20
123.0590597960641
 30
0.0
 10
254.5349150465975
 20
122.8275711937069
 30
0.0
 10
254.4801254661131
 20
122.3651143337356
 30
0.0
 10
254.4385238172108
 20
122.1325995341788
 30
0.0
 10
254.2747599458894
 20
121.4508451341089
 30
0.0
 10
254.1148013854959
 20
121.0157909139312
 30
0.0
 10
253.8032679512544
 20
120.3904195517069
 30
0.0
 10
253.6869409671145
 20
120.1861078415937
 30
0.0
 10
253.4359274610241
 20
119.7952535316572
 30
0.0
 10
253.3007355820247
 20
119.6075384353793
 30
0.0
 10
253.0118931788727
 20
119.2467106780129
 30
0.0
 10
252.8582395130678
 20
119.0736006864405
 30
0.0
 10
252.5327476257179
 20
118.7416640306612
 30
0.0
 10
252.3607250750949
 20
118.5828647963799
 30
0.0
 10
251.8279942008955
 20
118.1362739056214
 30
0.0
 10
251.4476622859926
 20
117.8745922411278
 30
0.0
 10
250.8410363120694
 20
117.5329922157869
 30
0.0
 10
250.6317634851974
 20
117.4272762151618
 30
0.0
 10
250.2072803619249
 20
117.2359495405759
 30
0.0
 10
249.9918979123345
 20
117.1501132602879
 30
0.0
 10
249.3366260763216
 20
116.9209731356602
 30
0.0
 10
248.8876863339464
 20
116.8057972141323
 30
0.0
 10
248.1958833141992
 20
116.6896901653034
 30
0.0
 10
247.9626205890459
 20
116.6606769019434
 30
0.0
 10
247.4986078322641
 20
116.6226133852045
 30
0.0
 10
247.2667941935253
 20
116.6133657878003
 30
0.0
 10
246.571922162281
 20
116.6144794145044
 30
0.0
 10
246.1094280202717
 20
116.6534458509677
 30
0.0
 10
245.186006763854
 20
116.8110910309051
 30
0.0
 10
244.7352462827354
 20
116.9283223333008
 30
0.0
 10
243.8649057424486
 20
117.2356954460114
 30
0.0
 10
243.4436442319537
 20
117.4260667864385
 30
0.0
 10
242.6308865100957
 20
117.8863874651038
 30
0.0
 10
242.2512076393528
 20
118.1498037339747
 30
0.0
 10
241.5487507027795
 20
118.7416832772752
 30
0.0
 10
241.2242915034266
 20
119.0716437778585
 30
0.0
 10
240.6421336238394
 20
119.8015581322976
 30
0.0
 10
240.3935208678454
 20
120.1897361341798
 30
0.0
 10
240.0858898389115
 20
120.8081262870548
 30
0.0
 10
239.9943094234373
 20
121.0203208781137
 30
0.0
 10
239.8344767106951
 20
121.4576717572083
 30
0.0
 10
239.7660775283901
 20
121.6841267877124
 30
0.0
 10
239.6033425857186
 20
122.364442183684
 30
0.0
 10
239.5485494536633
 20
122.8243624316103
 30
0.0
 10
239.5485494536633
 20
123.2908063558198
 30
0.0
  0
SPLINE
  5
D3
330
1F
100
AcDbEntity
  8
0
  6
Continuous
 62
     7
370
    15
100
AcDbSpline
210
0.0
220
0.0
230
1.0
 70
     8
 71
     3
 72
    50
 73
    46
 74
     0
 42
0.000000001
 43
0.00000001
 40
0.0
 40
0.0
 40
0.0
 40
0.0
 40
0.0312500000000001
 40
0.0312500000000001
 40
0.0625000000000002
 40
0.0625000000000002
 40
0.0937500000000003
 40
0.0937500000000003
 40
0.1250000000000004
 40
0.1250000000000004
 40
0.1875000000000007
 40
0.1875000000000007
 40
0.2500000000000009
 40
0.2500000000000009
 40
0.375
 40
0.375
 40
0.4375000000000004
 40
0.4375000000000004
 40
0.4687500000000006
 40
0.4687500000000006
 40
0.5000000000000008
 40
0.5000000000000008
 40
0.5624999999999993
 40
0.5624999999999993
 40
0.5937499999999986
 40
0.5937499999999986
 40
0.6249999999999978
 40
0.6249999999999978
 40
0.6874999999999964
 40
0.6874999999999964
 40
0.7187499999999957
 40
0.7187499999999957
 40
0.7499999999999949
 40
0.7499999999999949
 40
0.8124999999999948
 40
0.8124999999999948
 40
0.8437499999999953
 40
0.8437499999999953
 40
0.8749999999999959
 40
0.8749999999999959
 40
0.937499999999998
 40
0.937499999999998
 40
0.968749999999999
 40
0.968749999999999
 40
1.0
 40
1.0
 40
1.0
 40
1.0
 10
239.5485494536633
 20
123.2908063558198
 30
0.0
 10
239.5485494536633
 20
123.5240789133087
 30
0.0
 10
239.5626567509354
 20
123.7606058875984
 30
0.0
 10
239.6183435885967
 20
124.2254032747048
 30
0.0
 10
239.6597164010081
 20
124.4544321243939
 30
0.0
 10
239.7685141417965
 20
124.9060136385589
 30
0.0
 10
239.8359417568653
 20
125.1285656153019
 30
0.0
 10
239.9967163411274
 20
125.5672470106185
 30
0.0
 10
240.0904219697303
 20
125.7836980119488
 30
0.0
 10
240.4028685236696
 20
126.4083639240287
 30
0.0
 10
240.6542854723501
 20
126.7975492458966
 30
0.0
 10
241.2383248255666
 20
127.5252016421244
 30
0.0
 10
241.5671198950161
 20
127.8581154764197
 30
0.0
 10
242.6426643101868
 20
128.7559253414217
 30
0.0
 10
243.4512411801889
 20
129.2041490308752
 30
0.0
 10
244.7752673362391
 20
129.6651358505886
 30
0.0
 10
245.2243582864183
 20
129.7789053211226
 30
0.0
 10
245.9090916215979
 20
129.8929437893978
 30
0.0
 10
246.1391978072732
 20
129.9214539931457
 30
0.0
 10
246.6031852463642
 20
129.9592506707998
 30
0.0
 10
246.8381967687955
 20
129.9685020833482
 30
0.0
 10
247.5387300257318
 20
129.9665587780634
 30
0.0
 10
248.0000596001999
 20
129.9264202443014
 30
0.0
 10
248.6837186862966
 20
129.8091504364949
 30
0.0
 10
248.9102076313065
 20
129.7604905459013
 30
0.0
 10
249.3603222992064
 20
129.6434860228086
 30
0.0
 10
249.5849261931743
 20
129.5747344187124
 30
0.0
 10
250.2424231443659
 20
129.3418420365096
 30
0.0
 10
250.6617803692642
 20
129.1510113473159
 30
0.0
 10
251.2623142716042
 20
128.8106155988158
 30
0.0
 10
251.4577110319116
 20
128.6880653110542
 30
0.0
 10
251.8385159838131
 20
128.4238387811226
 30
0.0
 10
252.0245378942414
 20
128.2815116356255
 30
0.0
 10
252.5549820896731
 20
127.8338763722376
 30
0.0
 10
252.8758750562886
 20
127.5058985637802
 30
0.0
 10
253.3059671734578
 20
126.96698094981
 30
0.0
 10
253.440727822859
 20
126.7794602138849
 30
0.0
 10
253.6917732330727
 20
126.3873823305288
 30
0.0
 10
253.8074819311485
 20
126.1833344552524
 30
0.0
 10
254.1163198736739
 20
125.561543290989
 30
0.0
 10
254.2750504809289
 20
125.1291247587587
 30
0.0
 10
254.4379201553471
 20
124.4517419838309
 30
0.0
 10
254.4797254568172
 20
124.2192954780114
 30
0.0
 10
254.5349101202686
 20
123.7546580770764
 30
0.0
 10
254.5485494536634
 20
123.5226031908846
 30
0.0
 10
254.5485494536634
 20
123.2908063558198
 30
0.0
  0
LINE
  5
D4
330
1F
100
AcDbEntity
  8
0
  6
Continuous
 62
     7
370
    15
100
AcDbLine
 10
40.8985506815
 20
104.9119618711
 30
0.0
 11
40.8985506815
 21
141.6696508405
 31
0.0
  0
SPLINE
  5
D5
330
1F
100
AcDbEntity
  8
0
  6
Continuous
 62
     7
370
    15
100
AcDbSpline
210
0.0
220
0.0
230
1.0
 70
     8
 71
     3
 72
    11
 73
     7
 74
     0
 42
0.000000001
 43
0.00000001
 40
0.0
 40
0.0
 40
0.0
 40
0.0
 40
0.1336659942973109
 40
0.482547259389015
 40
0.8156350224178921
 40
1.0
 40
1.0
 40
1.0
 40
1.0
 10
250.2158399743314
 20
121.8878480595804
 30
0.0
 10
250.0985941069502
 20
121.8023248004438
 30
0.0
 10
249.6753251051602
 20
121.4935775044145
 30
0.0
 10
248.8846205820055
 20
120.9167887926907
 30
0.0
 10
248.0354079542973
 20
120.2973289309849
 30
0.0
 10
247.5795960444937
 20
119.9648398304195
 30
0.0
 10
247.4171932858701
 20
119.8463761703379
 30
0.0
  0
SPLINE
  5
D6
330
1F
100
AcDbEntity
  8
0
  6
Continuous
 62
     7
370
    15
100
AcDbSpline
210
0.0
220
0.0
230
1.0
 70
     8
 71
     3
 72
    10
 73
     6
 74
     0
 42
0.000000001
 43
0.00000001
 40
0.0
 40
0.0
 40
0.0
 40
0.0
 40
0.4391278537703046
 40
0.7513759138917457
 40
0.9999999999999999
 40
0.9999999999999999
 40
0.9999999999999999
 40
0.9999999999999999
 10
249.8471926969762
 20
125.3322782450623
 30
0.0
 10
249.8999684464499
 20
124.8391676657791
 30
0.0
 10
249.990271137686
 20
123.9954238472593
 30
0.0
 10
250.1215347797472
 20
122.7689129913374
 30
0.0
 10
250.1868756112101
 20
122.1584533505123
 30
0.0
 10
250.2158399743314
 20
121.8878480595804
 30
0.0
  0
SPLINE
  5
D7
330
1F
100
AcDbEntity
  8
0
  6
Continuous
 62
     7
370
    15
100
AcDbSpline
210
0.0
220
0.0
230
1.0
 70
     8
 71
     3
 72
    10
 73
     6
 74
     0
 42
0.000000001
 43
0.00000001
 40
0.0
 40
0.0
 40
0.0
 40
0.0
 40
0.4391270196105782
 40
0.7513750223580498
 40
1.0
 40
1.0
 40
1.0
 40
1.0
 10
246.6799061817403
 20
126.7352365413017
 30
0.0
 10
247.1333391680244
 20
126.5343865207193
 30
0.0
 10
247.909192634088
 20
126.1907190123078
 30
0.0
 10
249.0370156998883
 20
125.6911461184969
 30
0.0
 10
249.5983591628227
 20
125.4424990505923
 30
0.0
 10
249.8471926969762
 20
125.3322782450623
 30
0.0
  0
SPLINE
  5
D8
330
1F
100
AcDbEntity
  8
0
  6
Continuous
 62
     7
370
    15
100
AcDbSpline
210
0.0
220
0.0
230
1.0
 70
     8
 71
     3
 72
    11
 73
     7
 74
     0
 42
0.000000001
 43
0.00000001
 40
0.0
 40
0.0
 40
0.0
 40
0.0
 40
0.1843649747639811
 40
0.5174526823399824
 40
0.8663355779109948
 40
1.0
 40
1.0
 40
1.0
 40
1.0
 10
243.881259493279
 20
124.6937646520592
 30
0.0
 10
244.0436623099768
 20
124.8122282953388
 30
0.0
 10
244.4994743384135
 20
125.1447173163868
 30
0.0
 10
245.3486864869954
 20
125.7641804268268
 30
0.0
 10
246.1393987045277
 20
126.3409615570721
 30
0.0
 10
246.5626630087916
 20
126.649713117271
 30
0.0
 10
246.6799061817403
 20
126.7352365413017
 30
0.0
  0
SPLINE
  5
D9
330
1F
100
AcDbEntity
  8
0
  6
Continuous
 62
     7
370
    15
100
AcDbSpline
210
0.0
220
0.0
230
1.0
 70
     8
 71
     3
 72
    10
 73
     6
 74
     0
 42
0.000000001
 43
0.00000001
 40
0.0
 40
0.0
 40
0.0
 40
0.0
 40
0.4391278537703046
 40
0.7513759138917457
 40
0.9999999999999999
 40
0.9999999999999999
 40
0.9999999999999999
 40
0.9999999999999999
 10
244.2499067706342
 20
121.2493344665772
 30
0.0
 10
244.1971310211605
 20
121.7424450458604
 30
0.0
 10
244.1068283299245
 20
122.5861888643803
 30
0.0
 10
243.9755646878632
 20
123.8126997203021
 30
0.0
 10
243.9102238564003
 20
124.4231593611272
 30
0.0
 10
243.881259493279
 20
124.6937646520591
 30
0.0
  0
SPLINE
  5
DA
330
1F
100
AcDbEntity
  8
0
  6
Continuous
 62
     7
370
    15
100
AcDbSpline
210
0.0
220
0.0
230
1.0
 70
     8
 71
     3
 72
    10
 73
     6
 74
     0
 42
0.000000001
 43
0.00000001
 40
0.0
 40
0.0
 40
0.0
 40
0.0
 40
0.4391270196105782
 40
0.7513750223580498
 40
1.0
 40
1.0
 40
1.0
 40
1.0
 10
247.4171932858701
 20
119.8463761703379
 30
0.0
 10
246.963760299586
 20
120.0472261909203
 30
0.0
 10
246.1879068335224
 20
120.3908936993318
 30
0.0
 10
245.0600837677222
 20
120.8904665931426
 30
0.0
 10
244.4987403047877
 20
121.1391136610472
 30
0.0
 10
244.2499067706342
 20
121.2493344665772
 30
0.0
  0
CIRCLE
  5
DB
330
1F
100
AcDbEntity
  8
0
  6
Continuous
 62
     7
370
    15
100
AcDbCircle
 10
247.0485494537
 20
123.2908063558
 30
0.0
 40
3.500000000000016
  0
CIRCLE
  5
DC
330
1F
100
AcDbEntity
  8
0
  6
Continuous
 62
     7
370
    15
100
AcDbCircle
 10
247.0485494537
 20
123.2908063558
 30
0.0
 40
5.50000000000003
  0
CIRCLE
  5
DD
330
1F
100
AcDbEntity
  8
0
  6
Continuous
 62
     7
370
    15
100
AcDbCircle
 10
247.0485494537
 20
123.2908063558
 30
0.0
 40
6.000000000000012
  0
ARC
  5
DE
330
1F
100
AcDbEntity
  8
0
  6
Continuous
 62
     7
370
    15
100
AcDbCircle
 10
247.0485494537
 20
123.2908063558
 30
0.0
 40
3.000000000000001
100
AcDbArc
 50
66.1089242151
 51
126.1089242151
  0
ARC
  5
DF
330
1F
100
AcDbEntity
  8
0
  6
Continuous
 62
     7
370
    15
100
AcDbCircle
 10
247.0485494537
 20
123.2908063558
 30
0.0
 40
2.999999999999998
100
AcDbArc
 50
186.1089242151
 51
246.1089242151
  0
ARC
  5
E0
330
1F
100
AcDbEntity
  8
0
  6
Continuous
 62
     7
370
    15
100
AcDbCircle
 10
247.0485494537
 20
123.2908063558
 30
0.0
 40
3.00000000000002
100
AcDbArc
 50
6.1089242151
 51
66.1089242151
  0
ARC
  5
E1
330
1F
100
AcDbEntity
  8
0
  6
Continuous
 62
     7
370
    15
100
AcDbCircle
 10
247.0485494537
 20
123.2908063558
 30
0.0
 40
3.000000000000006
100
AcDbArc
 50
246.1089242151
 51
306.1089242151
  0
ARC
  5
E2
330
1F
100
AcDbEntity
  8
0
  6
Continuous
 62
     7
370
    15
100
AcDbCircle
 10
247.0485494537
 20
123.2908063558
 30
0.0
 40
3.00000000000002
100
AcDbArc
 50
306.1089242151
 51
6.1089242151
  0
ARC
  5
E3
330
1F
100
AcDbEntity
  8
0
  6
Continuous
 62
     7
370
    15
100
AcDbCircle
 10
247.0485494537
 20
123.2908063558
 30
0.0
 40
3.000000000000001
100
AcDbArc
 50
126.1089242151
 51
186.1089242151
  0
ARC
  5
E4
330
1F
100
AcDbEntity
  8
0
  6
Continuous
 62
     7
370
    15
100
AcDbCircle
 10
156.5555181532
 20
108.0917427502
 30
0.0
 40
2.357302402279272
100
AcDbArc
 50
180.9636256177
 51
252.4193430322
  0
ARC
  5
E5
330
1F
100
AcDbEntity
  8
0
  6
Continuous
 62
     7
370
    15
100
AcDbCircle
 10
156.7053083926
 20
108.2305781213
 30
0.0
 40
2.53690270598469
100
AcDbArc
 50
250.1408490644
 51
339.5647116831
  0
ARC
  5
E6
330
1F
100
AcDbEntity
  8
0
  6
Continuous
 62
     7
370
    15
100
AcDbCircle
 10
156.5245936488
 20
108.0054871699
 30
0.0
 40
2.179226557208981
100
AcDbArc
 50
159.2064632866
 51
253.108075085
  0
ARC
  5
E7
330
1F
100
AcDbEntity
  8
0
  6
Continuous
 62
     7
370
    15
100
AcDbCircle
 10
156.7079392417
 20
108.1544679683
 30
0.0
 40
2.378727164308454
100
AcDbArc
 50
249.9234668096
 51
345.2391044553
  0
ARC
  5
E8
330
1F
100
AcDbEntity
  8
0
  6
Continuous
 62
     7
370
    15
100
AcDbCircle
 10
156.5512636553
 20
107.9983980308
 30
0.0
 40
1.840246043845181
100
AcDbArc
 50
124.5146402154
 51
253.0417068353
  0
ARC
  5
E9
330
1F
100
AcDbEntity
  8
0
  6
Continuous
 62
     7
370
    15
100
AcDbCircle
 10
156.726009319
 20
108.0794597637
 30
0.0
 40
1.973975128216943
100
AcDbArc
 50
248.8727554591
 51
357.8154877723
  0
LWPOLYLINE
  5
EA
330
1F
100
AcDbEntity
  8
0
  6
HIDDEN
 62
     7
370
     0
100
AcDbPolyline
 90
       20
 70
   128
 43
0.0
 10
156.6985495461
 20
107.4334898022
 10
157.5102977527
 20
107.5607773838
 10
158.2340806795
 20
107.9288472411
 10
158.7914660645
 20
108.4978126911
 10
159.1220501882
 20
109.2060183165
 10
159.1900106591
 20
109.9767184806
 10
158.9879825783
 20
110.7263959003
 10
158.5378594769
 20
111.3738122386
 10
157.8884175119
 20
111.8488081721
 10
157.1100357992
 20
112.099912296
 10
156.2870632929
 20
112.099912296
 10
155.5086806489
 20
111.8488081721
 10
154.8592396152
 20
111.3738122386
 10
154.4091165138
 20
110.7263959003
 10
154.207088433
 20
109.9767184806
 10
154.2750489039
 20
109.2060183165
 10
154.6056330276
 20
108.4978126911
 10
155.1630174813
 20
107.9288472411
 10
155.8868004081
 20
107.5607773838
 10
156.6985495461
 20
107.4334898022
  0
LWPOLYLINE
  5
EB
330
1F
100
AcDbEntity
  8
0
  6
HIDDEN
 62
     7
370
     0
100
AcDbPolyline
 90
       22
 70
   128
 43
0.0
 10
145.9702804291
 20
109.3859461126
 10
146.1884553151
 20
108.5188633752
 10
146.5337652785
 20
107.7288242978
 10
146.9755278972
 20
107.0860263882
 10
147.4744904858
 20
106.6475895223
 10
147.9863178988
 20
106.4524644044
 10
148.4655327236
 20
106.5179941234
 10
148.8695539606
 20
106.838354188
 10
149.16248285
 20
107.3850777922
 10
149.3182912541
 20
108.1095871506
 10
149.3231350628
 20
108.9475073842
 10
149.1765835394
 20
109.8243848411
 10
148.8916589019
 20
110.6623050747
 10
148.4936772918
 20
111.3868153644
 10
148.0180019585
 20
111.9335389686
 10
147.5068981831
 20
112.2538981018
 10
147.0057800484
 20
112.3194278208
 10
146.559173621
 20
112.1243036342
 10
146.2067625557
 20
111.6858658371
 10
145.9798595474
 20
111.0430688587
 10
145.8986261
 20
110.2530297813
 10
145.9702804291
 20
109.3859461126
  0
LWPOLYLINE
  5
EC
330
1F
100
AcDbEntity
  8
0
  6
HIDDEN
 62
     7
370
     0
100
AcDbPolyline
 90
       18
 70
   128
 43
0.0
 10
146.733312316
 20
109.4502083016
 10
146.9355811437
 20
108.7063414035
 10
147.2664265034
 20
108.0629372028
 10
147.6811667976
 20
107.6068927524
 10
148.1237885614
 20
107.3997964141
 10
148.5345129927
 20
107.4696213928
 10
148.8578695876
 20
107.8069352535
 10
149.0501876992
 20
108.366181421
 10
149.0854932067
 20
109.0718314973
 10
148.9590182041
 20
109.8285841746
 10
148.6878436131
 20
110.5342342508
 10
148.3085932282
 20
111.0934804184
 10
147.8724869971
 20
111.430794279
 10
147.4384231565
 20
111.5006183264
 10
147.065024737
 20
111.2935238508
 10
146.8027209935
 20
110.8374784691
 10
146.6869380397
 20
110.1940751997
 10
146.733312316
 20
109.4502083016
  0
ELLIPSE
  5
ED
330
1F
100
AcDbEntity
  8
0
  6
HIDDEN
 62
     7
370
     0
100
AcDbEllipse
 10
156.6985494537
 20
111.5602962445
 30
0.0
 11
1.760776919379055
 21
2.232245799914452
 31
0.0
210
0.0
220
0.0
230
1.0
 40
0.5126701559
 41
1.100887047646267
 42
4.029627027608258
  0
ARC
  5
EE
330
1F
100
AcDbEntity
  8
0
  6
HIDDEN
 62
     7
370
     0
100
AcDbCircle
 10
156.0019499851
 20
112.7378361256
 30
0.0
 40
0.794594954225782
100
AcDbArc
 50
53.4208190544
 51
99.1663888759
  0
ELLIPSE
  5
EF
330
1F
100
AcDbEntity
  8
0
  6
HIDDEN
 62
     7
370
     0
100
AcDbEllipse
 10
156.6985494537
 20
111.5602962445
 30
0.0
 11
1.760776919379055
 21
-1.388886188042932
 31
0.0
210
0.0
220
0.0
230
1.0
 40
0.8239737799
 41
2.549926265248554
 42
4.885930273856118
  0
ARC
  5
F0
330
1F
100
AcDbEntity
  8
0
  6
HIDDEN
 62
     7
370
     0
100
AcDbCircle
 10
156.9446022156
 20
110.7208186805
 30
0.0
 40
1.353195702694778
100
AcDbArc
 50
217.8001040701
 51
249.7155767561
  0
LWPOLYLINE
  5
F1
330
1F
100
AcDbEntity
  8
0
  6
HIDDEN
 62
     7
370
     0
100
AcDbPolyline
 90
       18
 70
   128
 43
0.0
 10
156.6985495461
 20
107.8591600982
 10
157.4571574179
 20
107.9924165261
 10
158.1133104933
 20
108.3741880012
 10
158.5783924979
 20
108.952914643
 10
158.7895903808
 20
109.6504370672
 10
158.7183833194
 20
110.3725492013
 10
158.374386288
 20
111.0217266706
 10
157.8040573818
 20
111.510294768
 10
157.0844234971
 20
111.7722692889
 10
156.312675595
 20
111.7722692889
 10
155.5930417103
 20
111.510294768
 10
155.0227137354
 20
111.0217266706
 10
154.6787157727
 20
110.3725492013
 10
154.6075077799
 20
109.6504370672
 10
154.8187065942
 20
108.952914643
 10
155.2837885988
 20
108.3741880012
 10
155.9399416742
 20
107.9924165261
 10
156.6985495461
 20
107.8591600982
  0
SPLINE
  5
F2
330
1F
100
AcDbEntity
  8
0
  6
HIDDEN
 62
     7
370
     0
100
AcDbSpline
210
0.0
220
0.0
230
1.0
 70
    11
 71
     3
 72
    62
 73
    58
 74
     0
 42
0.000000001
 43
0.00000001
 40
0.0
 40
0.0
 40
0.0
 40
0.0
 40
0.0312500000000003
 40
0.0312500000000003
 40
0.0625000000000007
 40
0.0625000000000007
 40
0.125000000000001
 40
0.125000000000001
 40
0.1875000000000013
 40
0.1875000000000013
 40
0.2187500000000014
 40
0.2187500000000014
 40
0.2500000000000016
 40
0.2500000000000016
 40
0.2812500000000018
 40
0.2812500000000018
 40
0.3125000000000019
 40
0.3125000000000019
 40
0.3437500000000022
 40
0.3437500000000022
 40
0.3750000000000023
 40
0.3750000000000023
 40
0.4375000000000026
 40
0.4375000000000026
 40
0.4687500000000027
 40
0.4687500000000027
 40
0.5000000000000027
 40
0.5000000000000027
 40
0.5312500000000027
 40
0.5312500000000027
 40
0.5625000000000027
 40
0.5625000000000027
 40
0.5937500000000027
 40
0.5937500000000027
 40
0.6250000000000027
 40
0.6250000000000027
 40
0.6562500000000024
 40
0.6562500000000024
 40
0.6875000000000021
 40
0.6875000000000021
 40
0.7187500000000019
 40
0.7187500000000019
 40
0.7500000000000017
 40
0.7500000000000017
 40
0.7812500000000014
 40
0.7812500000000014
 40
0.8125000000000011
 40
0.8125000000000011
 40
0.8750000000000004
 40
0.8750000000000004
 40
0.9062500000000004
 40
0.9062500000000004
 40
0.9375000000000003
 40
0.9375000000000003
 40
0.9687500000000002
 40
0.9687500000000002
 40
1.0
 40
1.0
 40
1.0
 40
1.0
 10
156.6985494536634
 20
120.053711720592
 30
0.0
 10
156.5573512296835
 20
120.053711720592
 30
0.0
 10
156.4190733526697
 20
120.0641796569756
 30
0.0
 10
156.1479072814619
 20
120.105203137911
 30
0.0
 10
156.0137039540024
 20
120.1363295913266
 30
0.0
 10
155.6346407742122
 20
120.2577035792384
 30
0.0
 10
155.4056338525184
 20
120.3778583532465
 30
0.0
 10
155.0246032335156
 20
120.6866372522694
 30
0.0
 10
154.868980156594
 20
120.8788064204332
 30
0.0
 10
154.7099096800254
 20
121.2087907322715
 30
0.0
 10
154.668182534882
 20
121.3282900955836
 30
0.0
 10
154.6129118337399
 20
121.5748744947393
 30
0.0
 10
154.5988319022501
 20
121.7020464251764
 30
0.0
 10
154.5982753359289
 20
121.9645356178726
 30
0.0
 10
154.6122646133496
 20
122.0996779865696
 30
0.0
 10
154.6667461325852
 20
122.3641630799294
 30
0.0
 10
154.7075965907401
 20
122.4963129841754
 30
0.0
 10
154.8142105575995
 20
122.7530087350972
 30
0.0
 10
154.8789626998725
 20
122.8757466195511
 30
0.0
 10
155.0305212418251
 20
123.1101173683095
 30
0.0
 10
155.1178593649982
 20
123.221934869323
 30
0.0
 10
155.4036357859598
 20
123.5271183344513
 30
0.0
 10
155.6331721344255
 20
123.6979326536311
 30
0.0
 10
156.0094902704198
 20
123.8744430166051
 30
0.0
 10
156.1418231787805
 20
123.9209278237989
 30
0.0
 10
156.4158558377713
 20
123.984031536539
 30
0.0
 10
156.5538809973935
 20
123.9999892262833
 30
0.0
 10
156.8319523786122
 20
124.000835095145
 30
0.0
 10
156.9736653172826
 20
123.9851104201719
 30
0.0
 10
157.2460875729629
 20
123.9236699776727
 30
0.0
 10
157.3779157174599
 20
123.8783483339863
 30
0.0
 10
157.6333146130645
 20
123.7598005309853
 30
0.0
 10
157.7534806162539
 20
123.6881134477689
 30
0.0
 10
157.9786520288102
 20
123.5233848817706
 30
0.0
 10
158.0848030901445
 20
123.4291256087357
 30
0.0
 10
158.2762503788467
 20
123.225560934592
 30
0.0
 10
158.3621843927663
 20
123.1160936443528
 30
0.0
 10
158.5145967108062
 20
122.8819960418688
 30
0.0
 10
158.5807802010937
 20
122.757101818971
 30
0.0
 10
158.6869618996448
 20
122.5033700674362
 30
0.0
 10
158.7279419628606
 20
122.3732003826525
 30
0.0
 10
158.784022103658
 20
122.1061366875236
 30
0.0
 10
158.7982462790993
 20
121.9721834575084
 30
0.0
 10
158.7988429629708
 20
121.7107267150403
 30
0.0
 10
158.7850743954723
 20
121.5806093456529
 30
0.0
 10
158.7302243285303
 20
121.3324184901691
 30
0.0
 10
158.6897278152538
 20
121.2150629990883
 30
0.0
 10
158.5302653440776
 20
120.8813138773486
 30
0.0
 10
158.3755969197634
 20
120.6894743054226
 30
0.0
 10
158.0872888884188
 20
120.4553517374529
 30
0.0
 10
157.983264073071
 20
120.3871953280897
 30
0.0
 10
157.7588448148922
 20
120.2684843888656
 30
0.0
 10
157.6369140270317
 20
120.2175624524973
 30
0.0
 10
157.3844568756057
 20
120.1366126176756
 30
0.0
 10
157.2535703456885
 20
120.1060772986766
 30
0.0
 10
156.9816294279757
 20
120.0645192699322
 30
0.0
 10
156.8397476776433
 20
120.053711720592
 30
0.0
 10
156.6985494536634
 20
120.053711720592
 30
0.0
  0
SPLINE
  5
F3
330
1F
100
AcDbEntity
  8
0
  6
HIDDEN
 62
     7
370
     0
100
AcDbSpline
210
0.0
220
0.0
230
1.0
 70
     8
 71
     3
 72
     8
 73
     4
 74
     0
 42
0.000000001
 43
0.00000001
 40
0.0
 40
0.0
 40
0.0
 40
0.0
 40
1.0
 40
1.0
 40
1.0
 40
1.0
 10
155.875369277504
 20
113.5222843203412
 30
0.0
 10
156.0867966675052
 20
113.5147748105587
 30
0.0
 10
156.289265214038
 20
113.460651280924
 30
0.0
 10
156.4754758131753
 20
113.3759229936989
 30
0.0
  0
SPLINE
  5
F4
330
1F
100
AcDbEntity
  8
0
  6
HIDDEN
 62
     7
370
     0
100
AcDbSpline
210
0.0
220
0.0
230
1.0
 70
     8
 71
     3
 72
     8
 73
     4
 74
     0
 42
0.000000001
 43
0.00000001
 40
0.0
 40
0.0
 40
0.0
 40
0.0
 40
1.0
 40
1.0
 40
1.0
 40
1.0
 10
156.4754758131753
 20
109.4515442257646
 30
0.0
 10
156.2889514638909
 20
109.5738646416651
 30
0.0
 10
156.0863965653653
 20
109.7149498023298
 30
0.0
 10
155.875369277504
 20
109.8914334381146
 30
0.0
  0
LINE
  5
F5
330
1F
100
AcDbEntity
  8
0
  6
HIDDEN
 62
     7
370
     0
100
AcDbLine
 10
261.0485520286
 20
142.457348573
 30
0.0
 11
261.0485520286
 21
145.6113283512
 31
0.0
  0
LINE
  5
F6
330
1F
100
AcDbEntity
  8
0
  6
HIDDEN
 62
     7
370
     0
100
AcDbLine
 10
261.0485520286
 20
107.4313794253
 30
0.0
 11
261.0485520286
 21
139.1502332864
 31
0.0
  0
LINE
  5
F7
330
1F
100
AcDbEntity
  8
0
  6
HIDDEN
 62
     7
370
     0
100
AcDbLine
 10
261.0485520286
 20
100.9702843604
 30
0.0
 11
261.0485520286
 21
104.1242641387
 31
0.0
  0
LINE
  5
F8
330
1F
100
AcDbEntity
  8
0
  6
HIDDEN
 62
     7
370
     0
100
AcDbLine
 10
257.0485513729
 20
114.0903991637
 30
0.0
 11
257.0485513729
 21
132.4912135479
 31
0.0
  0
LINE
  5
F9
330
1F
100
AcDbEntity
  8
0
  6
HIDDEN
 62
     7
370
     0
100
AcDbLine
 10
257.0485513729
 20
132.4912135479
 30
0.0
 11
261.0485520286
 21
132.4912135479
 31
0.0
  0
LINE
  5
FA
330
1F
100
AcDbEntity
  8
0
  6
HIDDEN
 62
     7
370
     0
100
AcDbLine
 10
257.0485513729
 20
137.290806788
 30
0.0
 11
257.0485513729
 21
132.4912135479
 31
0.0
  0
LINE
  5
FB
330
1F
100
AcDbEntity
  8
0
  6
HIDDEN
 62
     7
370
     0
100
AcDbLine
 10
261.0485520286
 20
142.457348573
 30
0.0
 11
261.0485520286
 21
142.317544016
 31
0.0
  0
LINE
  5
FC
330
1F
100
AcDbEntity
  8
0
  6
HIDDEN
 62
     7
370
     0
100
AcDbLine
 10
257.0485513729
 20
142.317544016
 30
0.0
 11
261.0485520286
 21
142.317544016
 31
0.0
  0
LINE
  5
FD
330
1F
100
AcDbEntity
  8
0
  6
HIDDEN
 62
     7
370
     0
100
AcDbLine
 10
257.0485513729
 20
142.4908072678
 30
0.0
 11
257.0485513729
 21
137.290806788
 31
0.0
  0
LINE
  5
FE
330
1F
100
AcDbEntity
  8
0
  6
HIDDEN
 62
     7
370
     0
100
AcDbLine
 10
257.0485513729
 20
104.2640686957
 30
0.0
 11
261.0485520286
 21
104.2640686957
 31
0.0
  0
LINE
  5
FF
330
1F
100
AcDbEntity
  8
0
  6
HIDDEN
 62
     7
370
     0
100
AcDbLine
 10
261.0485520286
 20
104.2640686957
 30
0.0
 11
261.0485520286
 21
104.1242641387
 31
0.0
  0
LINE
  5
100
330
1F
100
AcDbEntity
  8
0
  6
HIDDEN
 62
     7
370
     0
100
AcDbLine
 10
257.0485513729
 20
109.2908059237
 30
0.0
 11
257.0485513729
 21
104.0908054439
 31
0.0
  0
LINE
  5
101
330
1F
100
AcDbEntity
  8
0
  6
HIDDEN
 62
     7
370
     0
100
AcDbLine
 10
261.0485520286
 20
114.0903991637
 30
0.0
 11
257.0485513729
 21
114.0903991637
 31
0.0
  0
LINE
  5
102
330
1F
100
AcDbEntity
  8
0
  6
HIDDEN
 62
     7
370
     0
100
AcDbLine
 10
257.0485513729
 20
114.0903991637
 30
0.0
 11
257.0485513729
 21
109.2908059237
 31
0.0
  0
LINE
  5
103
330
1F
100
AcDbEntity
  8
0
  6
HIDDEN
 62
     7
370
     0
100
AcDbLine
 10
255.8485459608
 20
108.2908066911
 30
0.0
 11
255.8485459608
 21
138.2908060205
 31
0.0
  0
LINE
  5
104
330
1F
100
AcDbEntity
  8
0
  6
HIDDEN
 62
     7
370
     0
100
AcDbLine
 10
230.5985506696
 20
108.5908061815
 30
0.0
 11
230.5985506696
 21
137.9908065302
 31
0.0
  0
LINE
  5
105
330
1F
100
AcDbEntity
  8
0
  6
HIDDEN
 62
     7
370
     0
100
AcDbLine
 10
233.0985482854
 20
108.2908066911
 30
0.0
 11
233.0985482854
 21
138.2908060205
 31
0.0
  0
LINE
  5
106
330
1F
100
AcDbEntity
  8
0
  6
HIDDEN
 62
     7
370
     0
100
AcDbLine
 10
145.8701222741
 20
87.9908048538
 30
0.0
 11
145.6985493728
 21
87.9908048538
 31
0.0
  0
ELLIPSE
  5
107
330
1F
100
AcDbEntity
  8
0
  6
HIDDEN
 62
     7
370
     0
100
AcDbEllipse
 10
145.8701223289
 20
85.9908063558
 30
0.0
 11
0.0
 21
2.0
 31
0.0
210
0.0
220
0.0
230
1.0
 40
0.4142135624
 41
4.712388980384695
 42
6.283185307179586
  0
LINE
  5
108
330
1F
100
AcDbEntity
  8
0
  6
HIDDEN
 62
     7
370
     0
100
AcDbLine
 10
145.6985493728
 20
160.7908078459
 30
0.0
 11
145.8701222741
 21
160.7908078459
 31
0.0
  0
ELLIPSE
  5
109
330
1F
100
AcDbEntity
  8
0
  6
HIDDEN
 62
     7
370
     0
100
AcDbEllipse
 10
145.8701223289
 20
162.7908063558
 30
0.0
 11
0.0
 21
2.0
 31
0.0
210
0.0
220
0.0
230
1.0
 40
0.4142135624
 41
3.141592653589793
 42
4.712388980384695
  0
LINE
  5
10A
330
1F
100
AcDbEntity
  8
0
  6
HIDDEN
 62
     7
370
     0
100
AcDbLine
 10
146.6985493039
 20
77.1048919288
 30
0.0
 11
145.914209455
 21
76.6573504535
 31
0.0
  0
LINE
  5
10B
330
1F
100
AcDbEntity
  8
0
  6
HIDDEN
 62
     7
370
     0
100
AcDbLine
 10
145.9884184019
 20
170.0009697107
 30
0.0
 11
146.6985493039
 21
169.2908399728
 31
0.0
  0
LINE
  5
10C
330
1F
100
AcDbEntity
  8
0
  6
HIDDEN
 62
     7
370
     0
100
AcDbLine
 10
150.8185019789
 20
77.1048919288
 30
0.0
 11
146.6985493039
 21
77.1048919288
 31
0.0
  0
LINE
  5
10D
330
1F
100
AcDbEntity
  8
0
  6
HIDDEN
 62
     7
370
     0
100
AcDbLine
 10
161.5485496891
 20
77.1048919288
 30
0.0
 11
156.3785974008
 21
77.1048919288
 31
0.0
  0
LINE
  5
10E
330
1F
100
AcDbEntity
  8
0
  6
HIDDEN
 62
     7
370
     0
100
AcDbLine
 10
146.6985493039
 20
77.1048919288
 30
0.0
 11
146.6985493039
 21
85.990804526
 31
0.0
  0
LINE
  5
10F
330
1F
100
AcDbEntity
  8
0
  6
HIDDEN
 62
     7
370
     0
100
AcDbLine
 10
145.8701222741
 20
160.7908078459
 30
0.0
 11
161.5485496891
 21
160.7908078459
 31
0.0
  0
LINE
  5
110
330
1F
100
AcDbEntity
  8
0
  6
HIDDEN
 62
     7
370
     0
100
AcDbLine
 10
146.6985493039
 20
169.2908399728
 30
0.0
 11
150.9218787846
 21
169.2908399728
 31
0.0
  0
LINE
  5
111
330
1F
100
AcDbEntity
  8
0
  6
HIDDEN
 62
     7
370
     0
100
AcDbLine
 10
156.275220595
 20
169.2908399728
 30
0.0
 11
161.5485496891
 21
169.2908399728
 31
0.0
  0
LINE
  5
112
330
1F
100
AcDbEntity
  8
0
  6
HIDDEN
 62
     7
370
     0
100
AcDbLine
 10
146.6985493039
 20
169.2908399728
 30
0.0
 11
146.6985493039
 21
162.7908081738
 31
0.0
  0
LINE
  5
113
330
1F
100
AcDbEntity
  8
0
  6
HIDDEN
 62
     7
370
     0
100
AcDbLine
 10
161.5485496891
 20
87.9908048538
 30
0.0
 11
145.8701222741
 21
87.9908048538
 31
0.0
  0
LINE
  5
114
330
1F
100
AcDbEntity
  8
0
  6
HIDDEN
 62
     7
370
     0
100
AcDbLine
 10
50.8985485954
 20
110.7908061696
 30
0.0
 11
50.8985485954
 21
135.7908065421
 31
0.0
  0
LINE
  5
115
330
1F
100
AcDbEntity
  8
0
  6
HIDDEN
 62
     7
370
     0
100
AcDbLine
 10
54.1831519527
 20
112.7908064974
 30
0.0
 11
54.1831519527
 21
133.7908062143
 31
0.0
  0
LINE
  5
116
330
1F
100
AcDbEntity
  8
0
  6
HIDDEN
 62
     7
370
     0
100
AcDbLine
 10
102.8985496682
 20
112.7908064974
 30
0.0
 11
102.8985496682
 21
133.7908062143
 31
0.0
  0
LINE
  5
117
330
1F
100
AcDbEntity
  8
0
  6
HIDDEN
 62
     7
370
     0
100
AcDbLine
 10
106.6539291364
 20
119.0408061249
 30
0.0
 11
106.6539291364
 21
127.5408065868
 31
0.0
  0
LINE
  5
118
330
1F
100
AcDbEntity
  8
0
  6
HIDDEN
 62
     7
370
     0
100
AcDbLine
 10
257.0485513729
 20
144.5658070025
 30
0.0
 11
257.0485513729
 21
142.4908072678
 31
0.0
  0
LINE
  5
119
330
1F
100
AcDbEntity
  8
0
  6
HIDDEN
 62
     7
370
     0
100
AcDbLine
 10
257.0485513729
 20
104.0908054439
 30
0.0
 11
257.0485513729
 21
102.0158057091
 31
0.0
  0
SPLINE
  5
11A
330
1F
100
AcDbEntity
  8
0
  6
HIDDEN
 62
     7
370
     0
100
AcDbSpline
210
0.0
220
0.0
230
1.0
 70
    11
 71
     3
 72
    62
 73
    58
 74
     0
 42
0.000000001
 43
0.00000001
 40
0.0
 40
0.0
 40
0.0
 40
0.0
 40
0.03125
 40
0.03125
 40
0.0624999999999999
 40
0.0624999999999999
 40
0.1249999999999995
 40
0.1249999999999995
 40
0.1874999999999991
 40
0.1874999999999991
 40
0.218749999999999
 40
0.218749999999999
 40
0.2499999999999989
 40
0.2499999999999989
 40
0.2812499999999989
 40
0.2812499999999989
 40
0.3124999999999988
 40
0.3124999999999988
 40
0.3437499999999987
 40
0.3437499999999987
 40
0.3749999999999987
 40
0.3749999999999987
 40
0.4374999999999984
 40
0.4374999999999984
 40
0.4687499999999986
 40
0.4687499999999986
 40
0.4999999999999986
 40
0.4999999999999986
 40
0.5312499999999988
 40
0.5312499999999988
 40
0.5624999999999988
 40
0.5624999999999988
 40
0.5937499999999989
 40
0.5937499999999989
 40
0.624999999999999
 40
0.624999999999999
 40
0.656249999999999
 40
0.656249999999999
 40
0.6874999999999991
 40
0.6874999999999991
 40
0.7187499999999992
 40
0.7187499999999992
 40
0.7499999999999993
 40
0.7499999999999993
 40
0.7812499999999996
 40
0.7812499999999996
 40
0.8124999999999998
 40
0.8124999999999998
 40
0.875
 40
0.875
 40
0.90625
 40
0.90625
 40
0.9375
 40
0.9375
 40
0.9687499999999999
 40
0.9687499999999999
 40
1.0
 40
1.0
 40
1.0
 40
1.0
 10
156.6985494536634
 20
122.5811919837467
 30
0.0
 10
156.8397476776433
 20
122.5811919837467
 30
0.0
 10
156.978025554657
 20
122.5972033937382
 30
0.0
 10
157.2491916258649
 20
122.6589329593611
 30
0.0
 10
157.3833949533244
 20
122.7054707228158
 30
0.0
 10
157.7624581331146
 20
122.8824470515508
 30
0.0
 10
157.9914650548083
 20
123.05287334526
 30
0.0
 10
158.3724956738111
 20
123.4587596226833
 30
0.0
 10
158.5281187507328
 20
123.6984300640193
 30
0.0
 10
158.6871892273014
 20
124.0789068913359
 30
0.0
 10
158.7289163724448
 20
124.212175626641
 30
0.0
 10
158.7841870735868
 20
124.4771568622698
 30
0.0
 10
158.7982670050766
 20
124.6091221769877
 30
0.0
 10
158.7988235713978
 20
124.8717994868019
 30
0.0
 10
158.7848342939772
 20
125.0021793507595
 30
0.0
 10
158.7303527747415
 20
125.2485232814826
 30
0.0
 10
158.6895023165866
 20
125.3671775514655
 30
0.0
 10
158.5828883497272
 20
125.5900038182208
 30
0.0
 10
158.5181362074542
 20
125.6926889292052
 30
0.0
 10
158.3665776655016
 20
125.8828121821186
 30
0.0
 10
158.2792395423286
 20
125.9703189733379
 30
0.0
 10
157.993463121367
 20
126.2025864687866
 30
0.0
 10
157.7639267729012
 20
126.3230352114291
 30
0.0
 10
157.3876086369069
 20
126.4441318037308
 30
0.0
 10
157.2552757285463
 20
126.4752399371671
 30
0.0
 10
156.9812430695554
 20
126.5171871767227
 30
0.0
 10
156.8432179099333
 20
126.5276174113323
 30
0.0
 10
156.5651465287146
 20
126.5281733101991
 30
0.0
 10
156.4234335900442
 20
126.5178948513691
 30
0.0
 10
156.1510113343639
 20
126.4770716666759
 30
0.0
 10
156.0191831898668
 20
126.4467783308012
 30
0.0
 10
155.7637842942622
 20
126.3655111405103
 30
0.0
 10
155.6436182910729
 20
126.315563289652
 30
0.0
 10
155.4184468785166
 20
126.197242078454
 30
0.0
 10
155.3122958171822
 20
126.1279489693714
 30
0.0
 10
155.12084852848
 20
125.9731343207776
 30
0.0
 10
155.0349145145605
 20
125.887548332907
 30
0.0
 10
154.8825021965205
 20
125.6978646608299
 30
0.0
 10
154.816318706233
 20
125.5934433997594
 30
0.0
 10
154.7101370076819
 20
125.3734120599521
 30
0.0
 10
154.6691569444661
 20
125.2567635738426
 30
0.0
 10
154.6130768036687
 20
125.0083621928533
 30
0.0
 10
154.5988526282275
 20
124.8792522040492
 30
0.0
 10
154.598255944356
 20
124.617997138217
 30
0.0
 10
154.6120245118544
 20
124.4831908475443
 30
0.0
 10
154.6668745787965
 20
124.2167357331899
 30
0.0
 10
154.7073710920729
 20
124.0860017984913
 30
0.0
 10
154.8668335632491
 20
123.7015863444878
 30
0.0
 10
155.0215019875633
 20
123.462427312611
 30
0.0
 10
155.3098100189079
 20
123.1547679531671
 30
0.0
 10
155.4138348342557
 20
123.0620948364028
 30
0.0
 10
155.6382540924345
 20
122.8969519937632
 30
0.0
 10
155.760184880295
 20
122.823911125084
 30
0.0
 10
156.012642031721
 20
122.7058892088117
 30
0.0
 10
156.1435285616382
 20
122.6602415031939
 30
0.0
 10
156.415469479351
 20
122.5977210637267
 30
0.0
 10
156.5573512296835
 20
122.5811919837467
 30
0.0
 10
156.6985494536634
 20
122.5811919837467
 30
0.0
  0
ELLIPSE
  5
11B
330
1F
100
AcDbEntity
  8
0
  6
HIDDEN
 62
     7
370
     0
100
AcDbEllipse
 10
156.6985494537
 20
135.0213164672
 30
0.0
 11
-1.760776919379083
 21
2.232245799914466
 31
0.0
210
0.0
220
0.0
230
1.0
 40
0.5126701559
 41
5.39515093316073
 42
8.323890913122751
  0
SPLINE
  5
11C
330
1F
100
AcDbEntity
  8
0
  6
HIDDEN
 62
     7
370
     0
100
AcDbSpline
210
0.0
220
0.0
230
1.0
 70
     8
 71
     3
 72
     8
 73
     4
 74
     0
 42
0.000000001
 43
0.00000001
 40
0.0
 40
0.0
 40
0.0
 40
0.0
 40
1.0
 40
1.0
 40
1.0
 40
1.0
 10
156.4754758131761
 20
137.1300684858754
 30
0.0
 10
156.2889514638915
 20
137.0077480699748
 30
0.0
 10
156.0863965653656
 20
136.86666290931
 30
0.0
 10
155.8753692775041
 20
136.690179273525
 30
0.0
  0
ELLIPSE
  5
11D
330
1F
100
AcDbEntity
  8
0
  6
HIDDEN
 62
     7
370
     0
100
AcDbEllipse
 10
156.6985494537
 20
135.0213164672
 30
0.0
 11
1.760776919379055
 21
1.38888618804296
 31
0.0
210
0.0
220
0.0
230
1.0
 40
0.8239737799
 41
1.397255033323465
 42
3.733259041931014
  0
SPLINE
  5
11E
330
1F
100
AcDbEntity
  8
0
  6
HIDDEN
 62
     7
370
     0
100
AcDbSpline
210
0.0
220
0.0
230
1.0
 70
     8
 71
     3
 72
     8
 73
     4
 74
     0
 42
0.000000001
 43
0.00000001
 40
0.0
 40
0.0
 40
0.0
 40
0.0
 40
1.0
 40
1.0
 40
1.0
 40
1.0
 10
155.8753692775039
 20
133.0593283912984
 30
0.0
 10
156.0867966675048
 20
133.0668379010809
 30
0.0
 10
156.2892652140373
 20
133.1209614307154
 30
0.0
 10
156.4754758131745
 20
133.2056897179404
 30
0.0
  0
LWPOLYLINE
  5
11F
330
1F
100
AcDbEntity
  8
0
  6
HIDDEN
 62
     7
370
     0
100
AcDbPolyline
 90
       18
 70
   128
 43
0.0
 10
156.6985495461
 20
134.7757431668
 10
157.4571574179
 20
134.9089995948
 10
158.1133104933
 20
135.2907710699
 10
158.5783924979
 20
135.8694977117
 10
158.7895903808
 20
136.5670201359
 10
158.7183833194
 20
137.28913227
 10
158.374386288
 20
137.9383097393
 10
157.8040573818
 20
138.4268778366
 10
157.0844234971
 20
138.6888523576
 10
156.312675595
 20
138.6888523576
 10
155.5930417103
 20
138.4268778366
 10
155.0227137354
 20
137.9383097393
 10
154.6787157727
 20
137.28913227
 10
154.6075077799
 20
136.5670201359
 10
154.8187065942
 20
135.8694977117
 10
155.2837885988
 20
135.2907710699
 10
155.9399416742
 20
134.9089995948
 10
156.6985495461
 20
134.7757431668
  0
LINE
  5
120
330
1F
100
AcDbEntity
  8
0
  6
HIDDEN
 62
     7
370
     0
100
AcDbLine
 10
151.688549116
 20
158.6838507084
 30
0.0
 11
151.688549116
 21
153.1408068714
 31
0.0
  0
LINE
  5
121
330
1F
100
AcDbEntity
  8
0
  6
HIDDEN
 62
     7
370
     0
100
AcDbLine
 10
155.5085493324
 20
158.6838507084
 30
0.0
 11
155.5085493324
 21
153.1408068714
 31
0.0
  0
SPLINE
  5
122
330
1F
100
AcDbEntity
  8
0
  6
HIDDEN
 62
     7
370
     0
100
AcDbSpline
210
0.0
220
0.0
230
1.0
 70
     8
 71
     3
 72
    14
 73
    10
 74
     0
 42
0.000000001
 43
0.00000001
 40
0.0
 40
0.0
 40
0.0
 40
0.0
 40
0.25
 40
0.25
 40
0.5
 40
0.5
 40
0.75
 40
0.75
 40
1.0
 40
1.0
 40
1.0
 40
1.0
 10
154.7085494536632
 20
140.2660959127536
 30
0.0
 10
154.7829750057978
 20
140.3569533675352
 30
0.0
 10
154.8648532654113
 20
140.446163950741
 30
0.0
 10
155.0378394115868
 20
140.6215882695329
 30
0.0
 10
155.1285112314478
 20
140.7071232251596
 30
0.0
 10
155.2958747807922
 20
140.8679748380981
 30
0.0
 10
155.3723256057587
 20
140.9437069269945
 30
0.0
 10
155.4786186905972
 20
141.07529795057
 30
0.0
 10
155.5085494536634
 20
141.1322981254763
 30
0.0
 10
155.5085494536634
 20
141.1744953984283
 30
0.0
  0
LINE
  5
123
330
1F
100
AcDbEntity
  8
0
  6
HIDDEN
 62
     7
370
     0
100
AcDbLine
 10
155.5085493324
 20
109.4935446036
 30
0.0
 11
155.5085493324
 21
105.3615038273
 31
0.0
  0
SPLINE
  5
124
330
1F
100
AcDbEntity
  8
0
  6
HIDDEN
 62
     7
370
     0
100
AcDbSpline
210
0.0
220
0.0
230
1.0
 70
     8
 71
     3
 72
    14
 73
    10
 74
     0
 42
0.000000001
 43
0.00000001
 40
0.0
 40
0.0
 40
0.0
 40
0.0
 40
0.25
 40
0.25
 40
0.5
 40
0.5
 40
0.75
 40
0.75
 40
1.0
 40
1.0
 40
1.0
 40
1.0
 10
155.5085494536634
 20
137.0424541997968
 30
0.0
 10
155.5085494536634
 20
136.9999537821423
 30
0.0
 10
155.4788359948466
 20
136.9726818756596
 30
0.0
 10
155.3727546279545
 20
136.9591291016925
 30
0.0
 10
155.2963876987899
 20
136.9735746588335
 30
0.0
 10
155.1276281542615
 20
137.0459508228533
 30
0.0
 10
155.0368313417896
 20
137.1030237579707
 30
0.0
 10
154.8652664015822
 20
137.2441816914876
 30
0.0
 10
154.7832051612877
 20
137.3287589065712
 30
0.0
 10
154.7085494536632
 20
137.4221320697005
 30
0.0
  0
LINE
  5
125
330
1F
100
AcDbEntity
  8
0
  6
HIDDEN
 62
     7
370
     0
100
AcDbLine
 10
150.3653884006
 20
161.8018851606
 30
0.0
 11
150.3653884006
 21
153.1408068714
 31
0.0
  0
LINE
  5
126
330
1F
100
AcDbEntity
  8
0
  6
HIDDEN
 62
     7
370
     0
100
AcDbLine
 10
156.8317109791
 20
108.9936590744
 30
0.0
 11
156.8317109791
 21
104.301865491
 31
0.0
  0
LINE
  5
127
330
1F
100
AcDbEntity
  8
0
  6
HIDDEN
 62
     7
370
     0
100
AcDbLine
 10
156.8317109791
 20
161.8018851606
 30
0.0
 11
156.8317109791
 21
153.1408068714
 31
0.0
  0
ARC
  5
128
330
1F
100
AcDbEntity
  8
0
  6
HIDDEN
 62
     7
370
     0
100
AcDbCircle
 10
156.9446022156
 20
135.8607940312
 30
0.0
 40
1.353195702694791
100
AcDbArc
 50
110.2844232439
 51
142.1998959299
  0
ARC
  5
129
330
1F
100
AcDbEntity
  8
0
  6
HIDDEN
 62
     7
370
     0
100
AcDbCircle
 10
156.0019499851
 20
133.843776586
 30
0.0
 40
0.7945949542257933
100
AcDbArc
 50
260.8336111241
 51
306.5791809456
  0
LWPOLYLINE
  5
12A
330
1F
100
AcDbEntity
  8
0
  6
HIDDEN
 62
     7
370
     0
100
AcDbPolyline
 90
       18
 70
   128
 43
0.0
 10
146.733312316
 20
136.0037581054
 10
146.9355811437
 20
135.4574889866
 10
147.2664265034
 20
135.1372928349
 10
147.6811667976
 20
135.0864118886
 10
148.1237885614
 20
135.3117183772
 10
148.5345129927
 20
135.7827841294
 10
148.8578695876
 20
136.4359877062
 10
149.0501876992
 20
137.1831123707
 10
149.0854932067
 20
137.9232530472
 10
148.9590182041
 20
138.5564499525
 10
148.6878436131
 20
138.997187185
 10
148.3085932282
 20
139.1859401939
 10
147.8724869971
 20
139.0972168175
 10
147.4384231565
 20
138.7429985208
 10
147.065024737
 20
138.1711273444
 10
146.8027209935
 20
137.4588350755
 10
146.6869380397
 20
136.7023208169
 10
146.733312316
 20
136.0037581054
  0
LWPOLYLINE
  5
12B
330
1F
100
AcDbEntity
  8
0
  6
HIDDEN
 62
     7
370
     0
100
AcDbPolyline
 90
       22
 70
   128
 43
0.0
 10
145.9702804291
 20
135.5847421092
 10
146.1884553151
 20
134.9307962683
 10
146.5337652785
 20
134.4780943346
 10
146.9755278972
 20
134.2668601302
 10
147.4744904858
 20
134.3158635301
 10
147.9863178988
 20
134.62074967
 10
148.4655327236
 20
135.1544291702
 10
148.8695539606
 20
135.8694809479
 10
149.16248285
 20
136.702370177
 10
149.3182912541
 20
137.5790911717
 10
149.3231350628
 20
138.4217434553
 10
149.1765835394
 20
139.1554524181
 10
148.8916589019
 20
139.7150264112
 10
148.4936772918
 20
140.0507439849
 10
148.0180019585
 20
140.1327767399
 10
147.5068981831
 20
139.9538324205
 10
147.0057800484
 20
139.5298142907
 10
146.559173621
 20
138.8983962116
 10
146.2067625557
 20
138.1156829176
 10
145.9798595474
 20
137.2512227846
 10
145.8986261
 20
136.3818257106
 10
145.9702804291
 20
135.5847421092
  0
LWPOLYLINE
  5
12C
330
1F
100
AcDbEntity
  8
0
  6
HIDDEN
 62
     7
370
     0
100
AcDbPolyline
 90
       20
 70
   128
 43
0.0
 10
156.6985495461
 20
134.4496601251
 10
157.5102977527
 20
134.576948638
 10
158.2340806795
 20
134.9450184954
 10
158.7914660645
 20
135.5139839453
 10
159.1220501882
 20
136.2221895707
 10
159.1900106591
 20
136.9928897348
 10
158.9879825783
 20
137.7425671545
 10
158.5378594769
 20
138.3899834928
 10
157.8884175119
 20
138.8649794263
 10
157.1100357992
 20
139.1160835502
 10
156.2870632929
 20
139.1160835502
 10
155.5086806489
 20
138.8649794263
 10
154.8592396152
 20
138.3899834928
 10
154.4091165138
 20
137.7425671545
 10
154.207088433
 20
136.9928897348
 10
154.2750489039
 20
136.2221895707
 10
154.6056330276
 20
135.5139839453
 10
155.1630174813
 20
134.9450184954
 10
155.8868004081
 20
134.576948638
 10
156.6985495461
 20
134.4496601251
  0
SPLINE
  5
12D
330
1F
100
AcDbEntity
  8
0
  6
HIDDEN
 62
     7
370
     0
100
AcDbSpline
210
0.0
220
0.0
230
1.0
 70
     8
 71
     3
 72
    34
 73
    30
 74
     0
 42
0.000000001
 43
0.00000001
 40
0.0
 40
0.0
 40
0.0
 40
0.0
 40
0.0624999999999992
 40
0.0624999999999992
 40
0.1249999999999984
 40
0.1249999999999984
 40
0.1874999999999976
 40
0.1874999999999976
 40
0.2499999999999973
 40
0.2499999999999973
 40
0.3124999999999971
 40
0.3124999999999971
 40
0.3749999999999968
 40
0.3749999999999968
 40
0.4999999999999972
 40
0.4999999999999972
 40
0.6249999999999976
 40
0.6249999999999976
 40
0.687499999999998
 40
0.687499999999998
 40
0.7499999999999984
 40
0.7499999999999984
 40
0.8124999999999989
 40
0.8124999999999989
 40
0.8749999999999992
 40
0.8749999999999992
 40
0.9374999999999997
 40
0.9374999999999997
 40
1.0
 40
1.0
 40
1.0
 40
1.0
 10
156.8317109611253
 20
142.2797467438209
 30
0.0
 10
156.9911027889131
 20
142.2719066478982
 30
0.0
 10
157.1471052723567
 20
142.2502479998077
 30
0.0
 10
157.4526147884339
 20
142.180399772315
 30
0.0
 10
157.6035091234462
 20
142.1315740699867
 30
0.0
 10
157.8914084681369
 20
142.0086501165794
 30
0.0
 10
158.0273548710967
 20
141.935342608445
 30
0.0
 10
158.2835374866887
 20
141.7653319846737
 30
0.0
 10
158.4047197744478
 20
141.6674581924723
 30
0.0
 10
158.6218658463206
 20
141.4548740170403
 30
0.0
 10
158.7188277192809
 20
141.3398280785107
 30
0.0
 10
158.8893901551065
 20
141.0919669583905
 30
0.0
 10
158.9626302083184
 20
140.958933461325
 30
0.0
 10
159.1375106650672
 20
140.5494254451948
 30
0.0
 10
159.1985486260432
 20
140.2514647954198
 30
0.0
 10
159.1985502812663
 20
139.6600232395453
 30
0.0
 10
159.13751567168
 20
139.3598496895687
 30
0.0
 10
158.9626259042781
 20
138.9446184093009
 30
0.0
 10
158.8893821988537
 20
138.8092632910541
 30
0.0
 10
158.718821483117
 20
138.5563639596675
 30
0.0
 10
158.6218577675235
 20
138.4385986820597
 30
0.0
 10
158.4046974389364
 20
138.2204683866911
 30
0.0
 10
158.2835161802495
 20
138.1197650615441
 30
0.0
 10
158.0273459533108
 20
137.9445213687109
 30
0.0
 10
157.8914026036481
 20
137.8687763996203
 30
0.0
 10
157.603499900465
 20
137.741608024318
 30
0.0
 10
157.4526097045483
 20
137.6910067519906
 30
0.0
 10
157.1471042008426
 20
137.6185776522427
 30
0.0
 10
156.9911028025791
 20
137.5960918808457
 30
0.0
 10
156.8317109611253
 20
137.5879534209509
 30
0.0
  0
SPLINE
  5
12E
330
1F
100
AcDbEntity
  8
0
  6
HIDDEN
 62
     7
370
     0
100
AcDbSpline
210
0.0
220
0.0
230
1.0
 70
     8
 71
     3
 72
    10
 73
     6
 74
     0
 42
0.000000001
 43
0.00000001
 40
0.0
 40
0.0
 40
0.0
 40
0.0
 40
0.5
 40
0.5
 40
1.0
 40
1.0
 40
1.0
 40
1.0
 10
156.8317109611253
 20
137.5879534209509
 30
0.0
 10
156.6089839342519
 20
137.4444649206571
 30
0.0
 10
156.3872980470267
 20
137.3297441749242
 30
0.0
 10
155.9460772091747
 20
137.1599837455663
 30
0.0
 10
155.7265185617759
 20
137.104563751179
 30
0.0
 10
155.5085494536636
 20
137.0880684218093
 30
0.0
  0
SPLINE
  5
12F
330
1F
100
AcDbEntity
  8
0
  6
HIDDEN
 62
     7
370
     0
100
AcDbSpline
210
0.0
220
0.0
230
1.0
 70
     8
 71
     3
 72
    10
 73
     6
 74
     0
 42
0.000000001
 43
0.00000001
 40
0.0
 40
0.0
 40
0.0
 40
0.0
 40
0.5
 40
0.5
 40
1.0
 40
1.0
 40
1.0
 40
1.0
 10
155.5085494536637
 20
141.2201096204408
 30
0.0
 10
155.7254402861844
 20
141.4571485598894
 30
0.0
 10
155.9445929228433
 20
141.6593187948829
 30
0.0
 10
156.3860774231122
 20
142.0100708664016
 30
0.0
 10
156.6092798883856
 20
142.1587469587984
 30
0.0
 10
156.8317109611253
 20
142.2797467438209
 30
0.0
  0
SPLINE
  5
130
330
1F
100
AcDbEntity
  8
0
  6
HIDDEN
 62
     7
370
     0
100
AcDbSpline
210
0.0
220
0.0
230
1.0
 70
     8
 71
     3
 72
    16
 73
    12
 74
     0
 42
0.000000001
 43
0.00000001
 40
0.0
 40
0.0
 40
0.0
 40
0.0
 40
0.2499999999999994
 40
0.2499999999999994
 40
0.4999999999999989
 40
0.4999999999999989
 40
0.7499999999999983
 40
0.7499999999999983
 40
0.8749999999999991
 40
0.8749999999999991
 40
1.0
 40
1.0
 40
1.0
 40
1.0
 10
154.7085494536634
 20
137.4221320697002
 30
0.0
 10
154.5431353471832
 20
137.6290183057255
 30
0.0
 10
154.4169380162076
 20
137.8548870035345
 30
0.0
 10
154.2425317178767
 20
138.3437562491473
 30
0.0
 10
154.1987016787799
 20
138.5955233024918
 30
0.0
 10
154.1983980058099
 20
139.1073026270741
 30
0.0
 10
154.2422548658702
 20
139.3583573361568
 30
0.0
 10
154.3721766251373
 20
139.7192059042988
 30
0.0
 10
154.4262914365453
 20
139.8364786726473
 30
0.0
 10
154.5529684266887
 20
140.0589676239861
 30
0.0
 10
154.6258421470496
 20
140.1651282322296
 30
0.0
 10
154.7085494536634
 20
140.2660959127539
 30
0.0
  0
CIRCLE
  5
131
330
1F
100
AcDbEntity
  8
0
  6
HIDDEN
 62
     7
370
     0
100
AcDbCircle
 10
247.0485494537
 20
123.2908063558
 30
0.0
 40
5.258613578496431
  0
CIRCLE
  5
132
330
1F
100
AcDbEntity
  8
0
  6
HIDDEN
 62
     7
370
     0
100
AcDbCircle
 10
247.0485494537
 20
123.2908063558
 30
0.0
 40
4.094716599621037
  0
CIRCLE
  5
133
330
1F
100
AcDbEntity
  8
0
  6
HIDDEN
 62
     7
370
     0
100
AcDbCircle
 10
247.0485494537
 20
123.2908063558
 30
0.0
 40
3.694716599621021
  0
LWPOLYLINE
  5
134
330
1F
100
AcDbEntity
  8
0
  6
HIDDEN
 62
     7
370
     0
100
AcDbPolyline
 90
       20
 70
   128
 43
0.0
 10
150.6102377621
 20
138.3299234313
 10
151.0743325648
 20
138.6978917745
 10
151.5412809399
 20
138.8127219853
 10
151.9604832006
 20
138.6619706628
 10
152.2865112943
 20
138.261973205
 10
152.4840364305
 20
137.6560761583
 10
152.5316521597
 20
136.9099377645
 10
152.4241998864
 20
136.1044126553
 10
152.1733230052
 20
135.3267936957
 10
151.8062077535
 20
134.6613469524
 10
151.3626374376
 20
134.1801847321
 10
150.8906794784
 20
133.9354471294
 10
150.4414774549
 20
133.953655417
 10
150.0637097356
 20
134.2328379852
 10
149.7983135355
 20
134.7427398888
 10
149.6740480957
 20
135.428104828
 10
149.704379875
 20
136.2146644843
 10
149.8860222359
 20
137.0171814216
 10
150.1992907447
 20
137.7486906004
 10
150.6102377621
 20
138.3299234313
  0
LWPOLYLINE
  5
135
330
1F
100
AcDbEntity
  8
0
  6
HIDDEN
 62
     7
370
     0
100
AcDbPolyline
 90
       17
 70
   128
 43
0.0
 10
151.3717336652
 20
137.5923923207
 10
151.7588220609
 20
137.8790757609
 10
152.1392459122
 20
137.9123873067
 10
152.4550871996
 20
137.6872559068
 10
152.6582636011
 20
137.2379551632
 10
152.7178421689
 20
136.6328869936
 10
152.6247536836
 20
135.9641685141
 10
152.3931682182
 20
135.3336044577
 10
152.0583447141
 20
134.837193693
 10
151.6712553871
 20
134.5505093214
 10
151.2908324671
 20
134.5171977756
 10
150.9749902484
 20
134.7423301068
 10
150.7718138469
 20
135.1916308505
 10
150.7122352791
 20
135.79669902
 10
150.8053246958
 20
136.4654174996
 10
151.0369092298
 20
137.0959815559
 10
151.3717336652
 20
137.5923923207
  0
LWPOLYLINE
  5
136
330
1F
100
AcDbEntity
  8
0
  6
HIDDEN
 62
     7
370
     0
100
AcDbPolyline
 90
       20
 70
   128
 43
0.0
 10
147.3392992352
 20
139.1132635054
 10
147.8033931067
 20
139.48123278
 10
148.2703419474
 20
139.5960629908
 10
148.6895442081
 20
139.4453116683
 10
149.0155727675
 20
139.0453142104
 10
149.213097438
 20
138.4394171638
 10
149.2607136329
 20
137.6932787699
 10
149.1532613595
 20
136.8877536607
 10
148.9023840127
 20
136.1101347012
 10
148.5352692266
 20
135.4446879578
 10
148.0916984451
 20
134.9635257376
 10
147.6197404859
 20
134.7187881348
 10
147.1705384624
 20
134.7369973538
 10
146.7927707431
 20
135.0161789906
 10
146.527374543
 20
135.5260808942
 10
146.4031091032
 20
136.2114458335
 10
146.4334408825
 20
136.9980054898
 10
146.6150832434
 20
137.800522427
 10
146.9283517522
 20
138.5320316059
 10
147.3392992352
 20
139.1132635054
  0
LINE
  5
137
330
1F
100
AcDbEntity
  8
0
  6
HIDDEN
 62
     7
370
     0
100
AcDbLine
 10
148.4422738736
 20
136.6405992759
 30
0.0
 11
148.9744292644
 21
137.939541879
 31
0.0
  0
LINE
  5
138
330
1F
100
AcDbEntity
  8
0
  6
HIDDEN
 62
     7
370
     0
100
AcDbLine
 10
146.8039698971
 20
137.0329487128
 30
0.0
 11
147.3361248222
 21
138.3318913159
 31
0.0
  0
LWPOLYLINE
  5
139
330
1F
100
AcDbEntity
  8
0
  6
HIDDEN
 62
     7
370
     0
100
AcDbPolyline
 90
       18
 70
   128
 43
0.0
 10
147.216139741
 20
138.8133618039
 10
147.6434794327
 20
139.1381484446
 10
148.0675511134
 20
139.2005936233
 10
148.4310807732
 20
138.9922604886
 10
148.6849723456
 20
138.541288021
 10
148.7949359303
 20
137.9085819227
 10
148.7461201919
 20
137.1795929027
 10
148.5451188942
 20
136.4527747956
 10
148.2190772963
 20
135.8262880695
 10
147.8120297266
 20
135.3847433803
 10
147.3789502939
 20
135.1877742437
 10
146.9783283842
 20
135.2619810951
 10
146.6642701139
 20
135.597343835
 10
146.4791911726
 20
136.1485685212
 10
146.4480877926
 20
136.8412098837
 10
146.575159773
 20
137.5817221579
 10
146.8432460984
 20
138.2700962005
 10
147.216139741
 20
138.8133618039
  0
LINE
  5
13A
330
1F
100
AcDbEntity
  8
0
  6
HIDDEN
 62
     7
370
     0
100
AcDbLine
 10
146.8039698971
 20
137.0329487128
 30
0.0
 11
147.0871236247
 21
135.8967239959
 31
0.0
  0
LINE
  5
13B
330
1F
100
AcDbEntity
  8
0
  6
HIDDEN
 62
     7
370
     0
100
AcDbLine
 10
148.4422738736
 20
136.6405992759
 30
0.0
 11
148.7254276012
 21
135.504374559
 31
0.0
  0
LINE
  5
13C
330
1F
100
AcDbEntity
  8
0
  6
HIDDEN
 62
     7
370
     0
100
AcDbLine
 10
148.4422738736
 20
136.6405992759
 30
0.0
 11
146.8039698971
 21
137.0329487128
 31
0.0
  0
LINE
  5
13D
330
1F
100
AcDbEntity
  8
0
  6
HIDDEN
 62
     7
370
     0
100
AcDbLine
 10
148.1514339407
 20
138.4946092022
 30
0.0
 11
147.3361248222
 21
138.3318913159
 31
0.0
  0
LINE
  5
13E
330
1F
100
AcDbEntity
  8
0
  6
HIDDEN
 62
     7
370
     0
100
AcDbLine
 10
149.7897379172
 20
138.1022597653
 30
0.0
 11
148.9744292644
 21
137.939541879
 31
0.0
  0
LINE
  5
13F
330
1F
100
AcDbEntity
  8
0
  6
HIDDEN
 62
     7
370
     0
100
AcDbLine
 10
148.9744292644
 20
137.939541879
 30
0.0
 11
147.3361248222
 21
138.3318913159
 31
0.0
  0
LINE
  5
140
330
1F
100
AcDbEntity
  8
0
  6
HIDDEN
 62
     7
370
     0
100
AcDbLine
 10
149.5407367197
 20
135.6670924452
 30
0.0
 11
147.9024327432
 21
136.0594418821
 31
0.0
  0
LINE
  5
141
330
1F
100
AcDbEntity
  8
0
  6
HIDDEN
 62
     7
370
     0
100
AcDbLine
 10
148.7254276012
 20
135.504374559
 30
0.0
 11
147.0871236247
 21
135.8967239959
 31
0.0
  0
LINE
  5
142
330
1F
100
AcDbEntity
  8
0
  6
HIDDEN
 62
     7
370
     0
100
AcDbLine
 10
147.0871236247
 20
135.8967239959
 30
0.0
 11
147.9024327432
 21
136.0594418821
 31
0.0
  0
LINE
  5
143
330
1F
100
AcDbEntity
  8
0
  6
HIDDEN
 62
     7
370
     0
100
AcDbLine
 10
148.7254276012
 20
135.504374559
 30
0.0
 11
149.5407367197
 21
135.6670924452
 31
0.0
  0
LINE
  5
144
330
1F
100
AcDbEntity
  8
0
  6
HIDDEN
 62
     7
370
     0
100
AcDbLine
 10
150.0728916449
 20
136.9660350484
 30
0.0
 11
148.4345876684
 21
137.3583844853
 31
0.0
  0
LINE
  5
145
330
1F
100
AcDbEntity
  8
0
  6
HIDDEN
 62
     7
370
     0
100
AcDbLine
 10
149.7897379172
 20
138.1022597653
 30
0.0
 11
148.1514339407
 21
138.4946092022
 31
0.0
  0
LINE
  5
146
330
1F
100
AcDbEntity
  8
0
  6
HIDDEN
 62
     7
370
     0
100
AcDbLine
 10
148.1514339407
 20
138.4946092022
 30
0.0
 11
148.4345876684
 21
137.3583844853
 31
0.0
  0
LINE
  5
147
330
1F
100
AcDbEntity
  8
0
  6
HIDDEN
 62
     7
370
     0
100
AcDbLine
 10
149.7897379172
 20
138.1022597653
 30
0.0
 11
150.0728916449
 21
136.9660350484
 31
0.0
  0
LINE
  5
148
330
1F
100
AcDbEntity
  8
0
  6
HIDDEN
 62
     7
370
     0
100
AcDbLine
 10
148.4345876684
 20
137.3583844853
 30
0.0
 11
147.9024327432
 21
136.0594418821
 31
0.0
  0
LINE
  5
149
330
1F
100
AcDbEntity
  8
0
  6
HIDDEN
 62
     7
370
     0
100
AcDbLine
 10
150.0728916449
 20
136.9660350484
 30
0.0
 11
149.5407367197
 21
135.6670924452
 31
0.0
  0
LWPOLYLINE
  5
14A
330
1F
100
AcDbEntity
  8
0
  6
HIDDEN
 62
     7
370
     0
100
AcDbPolyline
 90
       18
 70
   128
 43
0.0
 10
148.0224178245
 20
107.3744197366
 10
148.3953114671
 20
107.553401309
 10
148.6633977925
 20
107.9798790616
 10
148.7904697729
 20
108.5962534872
 10
148.7593659272
 20
109.3192801801
 10
148.5742874516
 20
110.0513108996
 10
148.2602291812
 20
110.6934801665
 10
147.8596072716
 20
111.1590594975
 10
147.4265278389
 20
111.3851697174
 10
147.0194802692
 20
111.3412746218
 10
146.6934386713
 20
111.0333011476
 10
146.4924373736
 20
110.5028440235
 10
146.4436216352
 20
109.8215424446
 10
146.5535852199
 20
109.0814120126
 10
146.8074767922
 20
108.3824106482
 10
147.171006452
 20
107.8189418641
 10
147.5950776671
 20
107.4671068219
 10
148.0224178245
 20
107.3744197366
  0
LWPOLYLINE
  5
14B
330
1F
100
AcDbEntity
  8
0
  6
HIDDEN
 62
     7
370
     0
100
AcDbPolyline
 90
       20
 70
   128
 43
0.0
 10
148.3201728274
 20
106.9892358956
 10
148.7311203105
 20
107.1690090922
 10
149.0443888192
 20
107.5944819478
 10
149.2260311802
 20
108.2195521322
 10
149.2563629595
 20
108.9764789668
 10
149.1320975197
 20
109.7832408724
 10
148.8667013196
 20
110.5524108735
 10
148.4889336002
 20
111.2006383938
 10
148.0397315768
 20
111.6576774967
 10
147.5677736176
 20
111.8740013791
 10
147.1242028361
 20
111.8261677203
 10
146.75708805
 20
111.5193593306
 10
146.5062107032
 20
110.9868244258
 10
146.3987584298
 20
110.286271478
 10
146.4463746247
 20
109.4936163155
 10
146.6438992952
 20
108.6947548193
 10
146.9699278546
 20
107.9762571481
 10
147.3891301153
 20
107.4159828005
 10
147.856078956
 20
107.0746456263
 10
148.3201728274
 20
106.9892358956
  0
LWPOLYLINE
  5
14C
330
1F
100
AcDbEntity
  8
0
  6
HIDDEN
 62
     7
370
     0
100
AcDbPolyline
 90
       20
 70
   128
 43
0.0
 10
151.5911113543
 20
107.7725769011
 10
152.002059303
 20
107.9523500976
 10
152.3153282774
 20
108.3778238845
 10
152.4969697071
 20
109.0028931377
 10
152.527301952
 20
109.7598209036
 10
152.4030365122
 20
110.5665818778
 10
152.1376403121
 20
111.335751879
 10
151.7598725927
 20
111.9839793992
 10
151.3106705693
 20
112.4410185022
 10
150.8387126101
 20
112.6573423845
 10
150.3951422942
 20
112.6095087257
 10
150.0280265768
 20
112.302700336
 10
149.7771496957
 20
111.7701654312
 10
149.6696974223
 20
111.0696124834
 10
149.7173136172
 20
110.2769573209
 10
149.9148382877
 20
109.4780958248
 10
150.2408668471
 20
108.7595981536
 10
150.6600691078
 20
108.1993228746
 10
151.1270174829
 20
107.8579866317
 10
151.5911113543
 20
107.7725769011
  0
LINE
  5
14D
330
1F
100
AcDbEntity
  8
0
  6
HIDDEN
 62
     7
370
     0
100
AcDbLine
 10
148.1514339407
 20
110.1650207293
 30
0.0
 11
147.3361248222
 21
110.7987866727
 31
0.0
  0
LINE
  5
14E
330
1F
100
AcDbEntity
  8
0
  6
HIDDEN
 62
     7
370
     0
100
AcDbLine
 10
146.8039698971
 20
110.019712056
 30
0.0
 11
147.3361248222
 21
110.7987866727
 31
0.0
  0
LINE
  5
14F
330
1F
100
AcDbEntity
  8
0
  6
HIDDEN
 62
     7
370
     0
100
AcDbLine
 10
147.0871236247
 20
108.6068714959
 30
0.0
 11
146.8039698971
 21
110.019712056
 31
0.0
  0
LINE
  5
150
330
1F
100
AcDbEntity
  8
0
  6
HIDDEN
 62
     7
370
     0
100
AcDbLine
 10
147.0871236247
 20
108.6068714959
 30
0.0
 11
147.9024327432
 21
107.9731055525
 31
0.0
  0
LINE
  5
151
330
1F
100
AcDbEntity
  8
0
  6
HIDDEN
 62
     7
370
     0
100
AcDbLine
 10
148.4345876684
 20
108.7521801693
 30
0.0
 11
147.9024327432
 21
107.9731055525
 31
0.0
  0
LINE
  5
152
330
1F
100
AcDbEntity
  8
0
  6
HIDDEN
 62
     7
370
     0
100
AcDbLine
 10
148.4345876684
 20
108.7521801693
 30
0.0
 11
148.1514339407
 21
110.1650207293
 31
0.0
  0
LINE
  5
153
330
1F
100
AcDbEntity
  8
0
  6
HIDDEN
 62
     7
370
     0
100
AcDbLine
 10
149.7897379172
 20
110.5573701662
 30
0.0
 11
148.1514339407
 21
110.1650207293
 31
0.0
  0
LINE
  5
154
330
1F
100
AcDbEntity
  8
0
  6
HIDDEN
 62
     7
370
     0
100
AcDbLine
 10
150.0728916449
 20
109.1445296061
 30
0.0
 11
148.4345876684
 21
108.7521801693
 31
0.0
  0
LINE
  5
155
330
1F
100
AcDbEntity
  8
0
  6
HIDDEN
 62
     7
370
     0
100
AcDbLine
 10
148.4422738736
 20
110.4120614928
 30
0.0
 11
148.9744292644
 21
111.1911361096
 31
0.0
  0
LINE
  5
156
330
1F
100
AcDbEntity
  8
0
  6
HIDDEN
 62
     7
370
     0
100
AcDbLine
 10
148.4422738736
 20
110.4120614928
 30
0.0
 11
146.8039698971
 21
110.019712056
 31
0.0
  0
LINE
  5
157
330
1F
100
AcDbEntity
  8
0
  6
HIDDEN
 62
     7
370
     0
100
AcDbLine
 10
148.9744292644
 20
111.1911361096
 30
0.0
 11
147.3361248222
 21
110.7987866727
 31
0.0
  0
LINE
  5
158
330
1F
100
AcDbEntity
  8
0
  6
HIDDEN
 62
     7
370
     0
100
AcDbLine
 10
148.7254276012
 20
108.9992209328
 30
0.0
 11
149.5407367197
 21
108.3654549894
 31
0.0
  0
LINE
  5
159
330
1F
100
AcDbEntity
  8
0
  6
HIDDEN
 62
     7
370
     0
100
AcDbLine
 10
148.7254276012
 20
108.9992209328
 30
0.0
 11
148.4422738736
 21
110.4120614928
 31
0.0
  0
LINE
  5
15A
330
1F
100
AcDbEntity
  8
0
  6
HIDDEN
 62
     7
370
     0
100
AcDbLine
 10
150.0728916449
 20
109.1445296061
 30
0.0
 11
149.5407367197
 21
108.3654549894
 31
0.0
  0
LINE
  5
15B
330
1F
100
AcDbEntity
  8
0
  6
HIDDEN
 62
     7
370
     0
100
AcDbLine
 10
150.0728916449
 20
109.1445296061
 30
0.0
 11
149.7897379172
 21
110.5573701662
 31
0.0
  0
LINE
  5
15C
330
1F
100
AcDbEntity
  8
0
  6
HIDDEN
 62
     7
370
     0
100
AcDbLine
 10
149.7897379172
 20
110.5573701662
 30
0.0
 11
148.9744292644
 21
111.1911361096
 31
0.0
  0
LINE
  5
15D
330
1F
100
AcDbEntity
  8
0
  6
HIDDEN
 62
     7
370
     0
100
AcDbLine
 10
148.7254276012
 20
108.9992209328
 30
0.0
 11
147.0871236247
 21
108.6068714959
 31
0.0
  0
LINE
  5
15E
330
1F
100
AcDbEntity
  8
0
  6
HIDDEN
 62
     7
370
     0
100
AcDbLine
 10
149.5407367197
 20
108.3654549894
 30
0.0
 11
147.9024327432
 21
107.9731055525
 31
0.0
  0
LWPOLYLINE
  5
15F
330
1F
100
AcDbEntity
  8
0
  6
HIDDEN
 62
     7
370
     0
100
AcDbPolyline
 90
       17
 70
   128
 43
0.0
 10
152.0583447141
 20
108.6538418186
 10
152.3931682182
 20
108.8231590566
 10
152.6247536836
 20
109.2274853018
 10
152.7178421689
 20
109.8052647886
 10
152.6582636011
 20
110.4685359624
 10
152.4550871996
 20
111.1163220358
 10
152.1392459122
 20
111.6500024674
 10
151.7588220609
 20
111.9883305383
 10
151.3717336652
 20
112.0797985223
 10
151.0369092298
 20
111.910480353
 10
150.8053246958
 20
111.5061541078
 10
150.7122352791
 20
110.928374621
 10
150.7718138469
 20
110.2651034472
 10
150.9749902484
 20
109.6173183051
 10
151.2908324671
 20
109.0836369423
 10
151.6712553871
 20
108.7453088713
 10
152.0583447141
 20
108.6538418186
  0
ARC
  5
160
330
1F
100
AcDbEntity
  8
0
  6
HIDDEN
 62
     7
370
     0
100
AcDbCircle
 10
156.6804851036
 20
107.9742060695
 30
0.0
 40
2.483157943432058
100
AcDbArc
 50
345.3175426338
 51
178.2024348986
  0
ARC
  5
161
330
1F
100
AcDbEntity
  8
0
  6
HIDDEN
 62
     7
370
     0
100
AcDbCircle
 10
156.6807515806
 20
107.9177013389
 30
0.0
 40
2.356527848236092
100
AcDbArc
 50
350.9838216252
 51
158.5589367077
  0
ARC
  5
162
330
1F
100
AcDbEntity
  8
0
  6
HIDDEN
 62
     7
370
     0
100
AcDbCircle
 10
156.698767635
 20
107.9046247806
 30
0.0
 40
2.002260595030738
100
AcDbArc
 50
2.8510444699
 51
126.4725260548
  0
LWPOLYLINE
  5
163
330
1F
100
AcDbEntity
  8
0
  6
HIDDEN
 62
     7
370
     0
100
AcDbPolyline
 90
       20
 70
   128
 43
0.0
 10
155.8434994963
 20
106.0326539901
 10
155.127033971
 20
106.4131570039
 10
154.5808663664
 20
106.9916480211
 10
154.2641831634
 20
107.705441582
 10
154.2113017363
 20
108.4771848274
 10
154.4279515815
 20
109.2232487154
 10
154.8906559197
 20
109.8627842021
 10
155.5492732746
 20
110.326489712
 10
156.3324336035
 20
110.564113873
 10
157.1552673427
 20
110.5499065471
 10
157.9286087376
 20
110.285408142
 10
158.5686545891
 20
109.7992810411
 10
159.0060446483
 20
109.1442036432
 10
159.1933820469
 20
108.3911650804
 10
159.1103658152
 20
107.6217678366
 10
158.7659925294
 20
106.9193885652
 10
158.1975784225
 20
106.360140535
 10
157.4667221007
 20
106.0046286312
 10
156.6526223046
 20
105.8913742182
 10
155.8434994963
 20
106.0326539901
  0
LWPOLYLINE
  5
164
330
1F
100
AcDbEntity
  8
0
  6
HIDDEN
 62
     7
370
     0
100
AcDbPolyline
 90
       18
 70
   128
 43
0.0
 10
156.0145089475
 20
107.655947375
 10
155.3817888794
 20
108.007406163
 10
154.9269039256
 20
108.5499127385
 10
154.711289711
 20
109.2101980922
 10
154.7640658987
 20
109.8990871561
 10
155.0781050769
 20
110.5235426677
 10
155.6109938843
 20
110.9992268485
 10
156.2907634375
 20
111.2618970675
 10
157.0256067512
 20
111.2760783163
 10
157.7162783665
 20
111.0398539332
 10
158.2695007396
 20
110.5851291669
 10
158.610558517
 20
109.9733163593
 10
158.6933866215
 20
109.2870433805
 10
158.5068017316
 20
108.6189963845
 10
158.0760035736
 20
108.059398177
 10
157.4591709373
 20
107.6838265163
 10
156.739613421
 20
107.5430021611
 10
156.0145089475
 20
107.655947375
  0
LWPOLYLINE
  5
165
330
1F
100
AcDbEntity
  8
0
  6
HIDDEN
 62
     7
370
     0
100
AcDbPolyline
 90
       20
 70
   128
 43
0.0
 10
155.8434994963
 20
106.2686474053
 10
155.127033971
 20
106.649150419
 10
154.5808663664
 20
107.2276432989
 10
154.2641831634
 20
107.9414359284
 10
154.2113017363
 20
108.7131791738
 10
154.4279515815
 20
109.4592421306
 10
154.8906559197
 20
110.0987785486
 10
155.5492732746
 20
110.5624831272
 10
156.3324336035
 20
110.8001072881
 10
157.1552673427
 20
110.7858999622
 10
157.9286087376
 20
110.5214015571
 10
158.5686545891
 20
110.0352744562
 10
159.0060446483
 20
109.3801979897
 10
159.1933820469
 20
108.6271594269
 10
159.1103658152
 20
107.857762183
 10
158.7659925294
 20
107.1553819803
 10
158.1975784225
 20
106.5961358127
 10
157.4667221007
 20
106.2406220463
 10
156.6526223046
 20
106.127369496
 10
155.8434994963
 20
106.2686474053
  0
LWPOLYLINE
  5
166
330
1F
100
AcDbEntity
  8
0
  6
HIDDEN
 62
     7
370
     0
100
AcDbPolyline
 90
       19
 70
   128
 43
0.0
 10
155.9119032768
 20
106.3837793646
 10
155.2201382888
 20
106.7590837357
 10
154.7066908402
 20
107.3340841559
 10
154.4334920195
 20
108.0394250331
 10
154.4334920195
 20
108.7900347066
 10
154.7066908402
 20
109.4953765151
 10
155.2201382888
 20
110.070376004
 10
155.9119032768
 20
110.4456813065
 10
156.6985495461
 20
110.5760226948
 10
157.4851958153
 20
110.4456813065
 10
158.1769608033
 20
110.070376004
 10
158.6904082519
 20
109.4953765151
 10
158.9636080039
 20
108.7900347066
 10
158.9636080039
 20
108.0394250331
 10
158.6904082519
 20
107.3340841559
 10
158.1769608033
 20
106.7590837357
 10
157.4851958153
 20
106.3837793646
 10
156.6985495461
 20
106.253437045
 10
155.9119032768
 20
106.3837793646
  0
LWPOLYLINE
  5
167
330
1F
100
AcDbEntity
  8
0
  6
HIDDEN
 62
     7
370
     0
100
AcDbPolyline
 90
       20
 70
   128
 43
0.0
 10
155.8434994963
 20
106.504642683
 10
155.127033971
 20
106.8851438341
 10
154.5808663664
 20
107.463636714
 10
154.2641831634
 20
108.1774293435
 10
154.2113017363
 20
108.9491725889
 10
154.4279515815
 20
109.695236477
 10
154.8906559197
 20
110.3347719637
 10
155.5492732746
 20
110.7984774736
 10
156.3324336035
 20
111.0361016345
 10
157.1552673427
 20
111.0218943087
 10
157.9286087376
 20
110.7573959035
 10
158.5686545891
 20
110.2712688026
 10
159.0060446483
 20
109.6161914048
 10
159.1933820469
 20
108.863152842
 10
159.1103658152
 20
108.0937555981
 10
158.7659925294
 20
107.391377258
 10
158.1975784225
 20
106.8321292279
 10
157.4667221007
 20
106.4766154615
 10
156.6526223046
 20
106.3633629111
 10
155.8434994963
 20
106.504642683
  0
LWPOLYLINE
  5
168
330
1F
100
AcDbEntity
  8
0
  6
HIDDEN
 62
     7
370
     0
100
AcDbPolyline
 90
       19
 70
   128
 43
0.0
 10
155.9119032768
 20
106.6197727797
 10
155.2201382888
 20
106.9950771508
 10
154.7066908402
 20
107.570077571
 10
154.4334920195
 20
108.2754193795
 10
154.4334920195
 20
109.0260281218
 10
154.7066908402
 20
109.7313699303
 10
155.2201382888
 20
110.3063703505
 10
155.9119032768
 20
110.6816747216
 10
156.6985495461
 20
110.8120170412
 10
157.4851958153
 20
110.6816747216
 10
158.1769608033
 20
110.3063703505
 10
158.6904082519
 20
109.7313699303
 10
158.9636080039
 20
109.0260281218
 10
158.9636080039
 20
108.2754193795
 10
158.6904082519
 20
107.570077571
 10
158.1769608033
 20
106.9950771508
 10
157.4851958153
 20
106.6197727797
 10
156.6985495461
 20
106.4894304601
 10
155.9119032768
 20
106.6197727797
  0
LWPOLYLINE
  5
169
330
1F
100
AcDbEntity
  8
0
  6
HIDDEN
 62
     7
370
     0
100
AcDbPolyline
 90
       20
 70
   128
 43
0.0
 10
155.8434994963
 20
106.7406360981
 10
155.127033971
 20
107.1211391119
 10
154.5808663664
 20
107.6996301291
 10
154.2641831634
 20
108.4134236899
 10
154.2113017363
 20
109.1851669354
 10
154.4279515815
 20
109.9312298921
 10
154.8906559197
 20
110.5707663101
 10
155.5492732746
 20
111.0344708887
 10
156.3324336035
 20
111.2720950497
 10
157.1552673427
 20
111.2578886551
 10
157.9286087376
 20
110.99339025
 10
158.5686545891
 20
110.5072622177
 10
159.0060446483
 20
109.8521857512
 10
159.1933820469
 20
109.0991471884
 10
159.1103658152
 20
108.3297499446
 10
158.7659925294
 20
107.6273706732
 10
158.1975784225
 20
107.068122643
 10
157.4667221007
 20
106.7126088766
 10
156.6526223046
 20
106.5993563262
 10
155.8434994963
 20
106.7406360981
  0
LWPOLYLINE
  5
16A
330
1F
100
AcDbEntity
  8
0
  6
HIDDEN
 62
     7
370
     0
100
AcDbPolyline
 90
       19
 70
   128
 43
0.0
 10
155.9119032768
 20
106.8557661948
 10
155.2201382888
 20
107.2310705659
 10
154.7066908402
 20
107.8060709861
 10
154.4334920195
 20
108.5114127946
 10
154.4334920195
 20
109.2620224682
 10
154.7066908402
 20
109.9673642767
 10
155.2201382888
 20
110.5423637656
 10
155.9119032768
 20
110.917669068
 10
156.6985495461
 20
111.0480104563
 10
157.4851958153
 20
110.917669068
 10
158.1769608033
 20
110.5423637656
 10
158.6904082519
 20
109.9673642767
 10
158.9636080039
 20
109.2620224682
 10
158.9636080039
 20
108.5114127946
 10
158.6904082519
 20
107.8060709861
 10
158.1769608033
 20
107.2310705659
 10
157.4851958153
 20
106.8557661948
 10
156.6985495461
 20
106.7254238752
 10
155.9119032768
 20
106.8557661948
  0
LWPOLYLINE
  5
16B
330
1F
100
AcDbEntity
  8
0
  6
HIDDEN
 62
     7
370
     0
100
AcDbPolyline
 90
       20
 70
   128
 43
0.0
 10
155.8434994963
 20
106.9766295132
 10
155.127033971
 20
107.357132527
 10
154.5808663664
 20
107.9356244755
 10
154.2641831634
 20
108.6494171051
 10
154.2113017363
 20
109.4211603505
 10
154.4279515815
 20
110.1672242386
 10
154.8906559197
 20
110.8067606566
 10
155.5492732746
 20
111.2704652352
 10
156.3324336035
 20
111.5080893961
 10
157.1552673427
 20
111.4938820702
 10
157.9286087376
 20
111.2293836651
 10
158.5686545891
 20
110.7432565642
 10
159.0060446483
 20
110.0881791664
 10
159.1933820469
 20
109.3351406035
 10
159.1103658152
 20
108.565744291
 10
158.7659925294
 20
107.8633650196
 10
158.1975784225
 20
107.3041160581
 10
157.4667221007
 20
106.9486041543
 10
156.6526223046
 20
106.8353497413
 10
155.8434994963
 20
106.9766295132
  0
LWPOLYLINE
  5
16C
330
1F
100
AcDbEntity
  8
0
  6
HIDDEN
 62
     7
370
     0
100
AcDbPolyline
 90
       19
 70
   128
 43
0.0
 10
155.9119032768
 20
107.0917596099
 10
155.2201382888
 20
107.4670658437
 10
154.7066908402
 20
108.0420653326
 10
154.4334920195
 20
108.7474071411
 10
154.4334920195
 20
109.4980158833
 10
154.7066908402
 20
110.2033576918
 10
155.2201382888
 20
110.778358112
 10
155.9119032768
 20
111.1536624831
 10
156.6985495461
 20
111.2840048027
 10
157.4851958153
 20
111.1536624831
 10
158.1769608033
 20
110.778358112
 10
158.6904082519
 20
110.2033576918
 10
158.9636080039
 20
109.4980158833
 10
158.9636080039
 20
108.7474071411
 10
158.6904082519
 20
108.0420653326
 10
158.1769608033
 20
107.4670658437
 10
157.4851958153
 20
107.0917596099
 10
156.6985495461
 20
106.961419153
 10
155.9119032768
 20
107.0917596099
  0
LWPOLYLINE
  5
16D
330
1F
100
AcDbEntity
  8
0
  6
HIDDEN
 62
     7
370
     0
100
AcDbPolyline
 90
       20
 70
   128
 43
0.0
 10
155.8434994963
 20
107.5751644549
 10
155.127033971
 20
107.9556674687
 10
154.5808663664
 20
108.5341594172
 10
154.2641831634
 20
109.2479529781
 10
154.2113017363
 20
110.0196962235
 10
154.4279515815
 20
110.7657591802
 10
154.8906559197
 20
111.4052955983
 10
155.5492732746
 20
111.8690001768
 10
156.3324336035
 20
112.1066243378
 10
157.1552673427
 20
112.0924170119
 10
157.9286087376
 20
111.8279186067
 10
158.5686545891
 20
111.3417915059
 10
159.0060446483
 20
110.6867150394
 10
159.1933820469
 20
109.9336764765
 10
159.1103658152
 20
109.1642792327
 10
158.7659925294
 20
108.4618999613
 10
158.1975784225
 20
107.9026519311
 10
157.4667221007
 20
107.547139096
 10
156.6526223046
 20
107.4338865456
 10
155.8434994963
 20
107.5751644549
  0
LWPOLYLINE
  5
16E
330
1F
100
AcDbEntity
  8
0
  6
HIDDEN
 62
     7
370
     0
100
AcDbPolyline
 90
       18
 70
   128
 43
0.0
 10
156.0212181953
 20
108.1366029558
 10
155.3947025982
 20
108.4846149189
 10
154.9442796109
 20
109.0218008486
 10
154.7307804299
 20
109.6756097851
 10
154.7830388022
 20
110.357743035
 10
155.0939980966
 20
110.9760741693
 10
155.6216603217
 20
111.4470933554
 10
156.2947625366
 20
111.7071866048
 10
157.0223992762
 20
111.7212290866
 10
157.7062973825
 20
111.487321834
 10
158.2540929389
 20
111.0370562402
 10
158.5918054057
 20
110.4312439439
 10
158.6738213969
 20
109.7517016334
 10
158.4890674872
 20
109.0902064917
 10
158.0624938083
 20
108.5360965682
 10
157.4517110435
 20
108.1642082882
 10
156.7392101583
 20
108.0247660158
 10
156.0212181953
 20
108.1366029558
  0
LWPOLYLINE
  5
16F
330
1F
100
AcDbEntity
  8
0
  6
HIDDEN
 62
     7
370
     0
100
AcDbPolyline
 90
       18
 70
   128
 43
0.0
 10
157.3758808968
 20
138.4450097558
 10
156.6578889338
 20
138.5568466959
 10
155.9453871173
 20
138.4174044234
 10
155.3346052838
 20
138.0455161435
 10
154.9080316049
 20
137.4914062199
 10
154.7232767639
 20
136.8299110783
 10
154.8052936864
 20
136.1503687677
 10
155.1430052218
 20
135.5445564715
 10
155.6908017096
 20
135.0942908776
 10
156.3746998159
 20
134.8603836251
 10
157.1023365555
 20
134.8744261069
 10
157.7754387704
 20
135.1345193562
 10
158.3031009955
 20
135.6055385423
 10
158.6140602899
 20
136.2238696766
 10
158.6663186622
 20
136.9060029266
 10
158.4528185499
 20
137.5598118631
 10
158.0023955626
 20
138.0969977928
 10
157.3758808968
 20
138.4450097558
  0
LWPOLYLINE
  5
170
330
1F
100
AcDbEntity
  8
0
  6
HIDDEN
 62
     7
370
     0
100
AcDbPolyline
 90
       20
 70
   128
 43
0.0
 10
157.5535995958
 20
139.0064482567
 10
156.7444767875
 20
139.147726166
 10
155.9303760601
 20
139.0344736156
 10
155.1995197383
 20
138.6789607805
 10
154.6311065627
 20
138.1197127504
 10
154.2867323456
 20
137.417333479
 10
154.2037161139
 20
136.6479362351
 10
154.3910535124
 20
135.8948976723
 10
154.828444503
 20
135.2398212058
 10
155.4684903545
 20
134.7536941049
 10
156.2418317494
 20
134.4891956997
 10
157.0646654886
 20
134.4749883739
 10
157.8478258175
 20
134.7126125348
 10
158.5064441038
 20
135.1763171134
 10
158.9691475106
 20
135.8158535314
 10
159.1857973558
 20
136.5619164882
 10
159.1329149974
 20
137.3336597336
 10
158.8162317944
 20
138.0474532944
 10
158.2700651211
 20
138.625945243
 10
157.5535995958
 20
139.0064482567
  0
LWPOLYLINE
  5
171
330
1F
100
AcDbEntity
  8
0
  6
HIDDEN
 62
     7
370
     0
100
AcDbPolyline
 90
       20
 70
   128
 43
0.0
 10
157.5535995958
 20
139.6049831984
 10
156.7444767875
 20
139.7462629703
 10
155.9303760601
 20
139.6330085573
 10
155.1995197383
 20
139.2774966535
 10
154.6311065627
 20
138.718247692
 10
154.2867323456
 20
138.0158684206
 10
154.2037161139
 20
137.2464721081
 10
154.3910535124
 20
136.4934335453
 10
154.828444503
 20
135.8383561475
 10
155.4684903545
 20
135.3522290466
 10
156.2418317494
 20
135.0877306414
 10
157.0646654886
 20
135.0735233155
 10
157.8478258175
 20
135.3111474765
 10
158.5064441038
 20
135.7748520551
 10
158.9691475106
 20
136.4143884731
 10
159.1857973558
 20
137.1604523612
 10
159.1329149974
 20
137.9321956066
 10
158.8162317944
 20
138.6459882361
 10
158.2700651211
 20
139.2244801847
 10
157.5535995958
 20
139.6049831984
  0
LWPOLYLINE
  5
172
330
1F
100
AcDbEntity
  8
0
  6
HIDDEN
 62
     7
370
     0
100
AcDbPolyline
 90
       18
 70
   128
 43
0.0
 10
157.3825901446
 20
140.3434419063
 10
156.6574856711
 20
140.4563852576
 10
155.9379272235
 20
140.3155618337
 10
155.3210955185
 20
139.9399911044
 10
154.8902964291
 20
139.3803928969
 10
154.7037124706
 20
138.7123449696
 10
154.7865415064
 20
138.0260729221
 10
155.1275974212
 20
137.4142591832
 10
155.6808197943
 20
136.9595344168
 10
156.3714923409
 20
136.723310965
 10
157.1063356546
 20
136.7374912826
 10
157.7861052078
 20
137.0001615015
 10
158.3189930839
 20
137.4758456824
 10
158.6330331934
 20
138.1003011939
 10
158.6858093811
 20
138.7891902578
 10
158.4701951665
 20
139.4494765428
 10
158.0153102127
 20
139.9919831184
 10
157.3825901446
 20
140.3434419063
  0
LWPOLYLINE
  5
173
330
1F
100
AcDbEntity
  8
0
  6
HIDDEN
 62
     7
370
     0
100
AcDbPolyline
 90
       18
 70
   128
 43
0.0
 10
157.3825901446
 20
138.9256653366
 10
156.6574856711
 20
139.0386105505
 10
155.9379272235
 20
138.8977861953
 10
155.3210955185
 20
138.5222145346
 10
154.8902964291
 20
137.9626163272
 10
154.7037124706
 20
137.2945693312
 10
154.7865415064
 20
136.6082963524
 10
155.1275974212
 20
135.9964835448
 10
155.6808197943
 20
135.5417587784
 10
156.3714923409
 20
135.3055343953
 10
157.1063356546
 20
135.3197156442
 10
157.7861052078
 20
135.5823858631
 10
158.3189930839
 20
136.058070044
 10
158.6330331934
 20
136.6825255555
 10
158.6858093811
 20
137.3714146194
 10
158.4701951665
 20
138.0316999731
 10
158.0153102127
 20
138.5742065487
 10
157.3825901446
 20
138.9256653366
  0
LWPOLYLINE
  5
174
330
1F
100
AcDbEntity
  8
0
  6
HIDDEN
 62
     7
370
     0
100
AcDbPolyline
 90
       20
 70
   128
 43
0.0
 10
157.5535995958
 20
139.8409766135
 10
156.7444767875
 20
139.9822563854
 10
155.9303760601
 20
139.8690038351
 10
155.1995197383
 20
139.5134900687
 10
154.6311065627
 20
138.9542420385
 10
154.2867323456
 20
138.2518627671
 10
154.2037161139
 20
137.4824655232
 10
154.3910535124
 20
136.7294269604
 10
154.828444503
 20
136.0743504939
 10
155.4684903545
 20
135.5882224617
 10
156.2418317494
 20
135.3237240565
 10
157.0646654886
 20
135.309517662
 10
157.8478258175
 20
135.5471418229
 10
158.5064441038
 20
136.0108464015
 10
158.9691475106
 20
136.6503828195
 10
159.1857973558
 20
137.3964457763
 10
159.1329149974
 20
138.1681890217
 10
158.8162317944
 20
138.8819825826
 10
158.2700651211
 20
139.4604735998
 10
157.5535995958
 20
139.8409766135
  0
LWPOLYLINE
  5
175
330
1F
100
AcDbEntity
  8
0
  6
HIDDEN
 62
     7
370
     0
100
AcDbPolyline
 90
       19
 70
   128
 43
0.0
 10
157.4851958153
 20
139.4898531017
 10
156.6985495461
 20
139.6201935587
 10
155.9119032768
 20
139.4898531017
 10
155.2201382888
 20
139.114546868
 10
154.7066908402
 20
138.5395473791
 10
154.4334920195
 20
137.8342055706
 10
154.4334920195
 20
137.0835968283
 10
154.7066908402
 20
136.3782550198
 10
155.2201382888
 20
135.8032545996
 10
155.9119032768
 20
135.4279502285
 10
156.6985495461
 20
135.2976079089
 10
157.4851958153
 20
135.4279502285
 10
158.1769608033
 20
135.8032545996
 10
158.6904082519
 20
136.3782550198
 10
158.9636080039
 20
137.0835968283
 10
158.9636080039
 20
137.8342055706
 10
158.6904082519
 20
138.5395473791
 10
158.1769608033
 20
139.114546868
 10
157.4851958153
 20
139.4898531017
  0
LWPOLYLINE
  5
176
330
1F
100
AcDbEntity
  8
0
  6
HIDDEN
 62
     7
370
     0
100
AcDbPolyline
 90
       20
 70
   128
 43
0.0
 10
157.5535995958
 20
140.0769700286
 10
156.7444767875
 20
140.2182498005
 10
155.9303760601
 20
140.1049972502
 10
155.1995197383
 20
139.7494834838
 10
154.6311065627
 20
139.1902354536
 10
154.2867323456
 20
138.4878571135
 10
154.2037161139
 20
137.7184598697
 10
154.3910535124
 20
136.9654213068
 10
154.828444503
 20
136.310343909
 10
155.4684903545
 20
135.8242168081
 10
156.2418317494
 20
135.559718403
 10
157.0646654886
 20
135.5455110771
 10
157.8478258175
 20
135.783135238
 10
158.5064441038
 20
136.2468407479
 10
158.9691475106
 20
136.8863762346
 10
159.1857973558
 20
137.6324401227
 10
159.1329149974
 20
138.4041833681
 10
158.8162317944
 20
139.1179759977
 10
158.2700651211
 20
139.6964688775
 10
157.5535995958
 20
140.0769700286
  0
LWPOLYLINE
  5
177
330
1F
100
AcDbEntity
  8
0
  6
HIDDEN
 62
     7
370
     0
100
AcDbPolyline
 90
       19
 70
   128
 43
0.0
 10
157.4851958153
 20
139.7258465168
 10
156.6985495461
 20
139.8561888364
 10
155.9119032768
 20
139.7258465168
 10
155.2201382888
 20
139.3505421457
 10
154.7066908402
 20
138.7755417255
 10
154.4334920195
 20
138.070199917
 10
154.4334920195
 20
137.3195902434
 10
154.7066908402
 20
136.6142484349
 10
155.2201382888
 20
136.0392489461
 10
155.9119032768
 20
135.6639436436
 10
156.6985495461
 20
135.5336022553
 10
157.4851958153
 20
135.6639436436
 10
158.1769608033
 20
136.0392489461
 10
158.6904082519
 20
136.6142484349
 10
158.9636080039
 20
137.3195902434
 10
158.9636080039
 20
138.070199917
 10
158.6904082519
 20
138.7755417255
 10
158.1769608033
 20
139.3505421457
 10
157.4851958153
 20
139.7258465168
  0
LWPOLYLINE
  5
178
330
1F
100
AcDbEntity
  8
0
  6
HIDDEN
 62
     7
370
     0
100
AcDbPolyline
 90
       20
 70
   128
 43
0.0
 10
157.5535995958
 20
140.3129653064
 10
156.7444767875
 20
140.4542432157
 10
155.9303760601
 20
140.3409906653
 10
155.1995197383
 20
139.9854768989
 10
154.6311065627
 20
139.4262307314
 10
154.2867323456
 20
138.7238505286
 10
154.2037161139
 20
137.9544532848
 10
154.3910535124
 20
137.201414722
 10
154.828444503
 20
136.5463382555
 10
155.4684903545
 20
136.0602111546
 10
156.2418317494
 20
135.7957127494
 10
157.0646654886
 20
135.7815054235
 10
157.8478258175
 20
136.0191295845
 10
158.5064441038
 20
136.4828341631
 10
158.9691475106
 20
137.1223705811
 10
159.1857973558
 20
137.8684335378
 10
159.1329149974
 20
138.6401767832
 10
158.8162317944
 20
139.3539694128
 10
158.2700651211
 20
139.9324622927
 10
157.5535995958
 20
140.3129653064
  0
LWPOLYLINE
  5
179
330
1F
100
AcDbEntity
  8
0
  6
HIDDEN
 62
     7
370
     0
100
AcDbPolyline
 90
       19
 70
   128
 43
0.0
 10
157.4851958153
 20
139.961839932
 10
156.6985495461
 20
140.0921822516
 10
155.9119032768
 20
139.961839932
 10
155.2201382888
 20
139.5865355608
 10
154.7066908402
 20
139.0115351406
 10
154.4334920195
 20
138.3061933321
 10
154.4334920195
 20
137.5555845899
 10
154.7066908402
 20
136.8502427814
 10
155.2201382888
 20
136.2752423612
 10
155.9119032768
 20
135.8999379901
 10
156.6985495461
 20
135.7695956704
 10
157.4851958153
 20
135.8999379901
 10
158.1769608033
 20
136.2752423612
 10
158.6904082519
 20
136.8502427814
 10
158.9636080039
 20
137.5555845899
 10
158.9636080039
 20
138.3061933321
 10
158.6904082519
 20
139.0115351406
 10
158.1769608033
 20
139.5865355608
 10
157.4851958153
 20
139.961839932
  0
LWPOLYLINE
  5
17A
330
1F
100
AcDbEntity
  8
0
  6
HIDDEN
 62
     7
370
     0
100
AcDbPolyline
 90
       20
 70
   128
 43
0.0
 10
157.5535995958
 20
140.5489587215
 10
156.7444767875
 20
140.6902384934
 10
155.9303760601
 20
140.5769840804
 10
155.1995197383
 20
140.2214721767
 10
154.6311065627
 20
139.6622241465
 10
154.2867323456
 20
138.9598448751
 10
154.2037161139
 20
138.1904476312
 10
154.3910535124
 20
137.4374090684
 10
154.828444503
 20
136.7823316706
 10
155.4684903545
 20
136.2962045697
 10
156.2418317494
 20
136.0317061645
 10
157.0646654886
 20
136.0174988386
 10
157.8478258175
 20
136.2551229996
 10
158.5064441038
 20
136.7188285095
 10
158.9691475106
 20
137.3583639962
 10
159.1857973558
 20
138.1044278843
 10
159.1329149974
 20
138.8761711297
 10
158.8162317944
 20
139.5899646906
 10
158.2700651211
 20
140.1684557078
 10
157.5535995958
 20
140.5489587215
  0
LWPOLYLINE
  5
17B
330
1F
100
AcDbEntity
  8
0
  6
HIDDEN
 62
     7
370
     0
100
AcDbPolyline
 90
       19
 70
   128
 43
0.0
 10
157.4851958153
 20
140.1978333471
 10
156.6985495461
 20
140.3281756667
 10
155.9119032768
 20
140.1978333471
 10
155.2201382888
 20
139.8225289759
 10
154.7066908402
 20
139.2475285557
 10
154.4334920195
 20
138.5421876786
 10
154.4334920195
 20
137.791578005
 10
154.7066908402
 20
137.0862361965
 10
155.2201382888
 20
136.5112367076
 10
155.9119032768
 20
136.1359314052
 10
156.6985495461
 20
136.0055900169
 10
157.4851958153
 20
136.1359314052
 10
158.1769608033
 20
136.5112367076
 10
158.6904082519
 20
137.0862361965
 10
158.9636080039
 20
137.791578005
 10
158.9636080039
 20
138.5421876786
 10
158.6904082519
 20
139.2475285557
 10
158.1769608033
 20
139.8225289759
 10
157.4851958153
 20
140.1978333471
  0
LWPOLYLINE
  5
17C
330
1F
100
AcDbEntity
  8
0
  6
HIDDEN
 62
     7
370
     0
100
AcDbPolyline
 90
       20
 70
   128
 43
0.0
 10
157.5535995958
 20
140.7370691178
 10
156.7444767875
 20
140.8783488897
 10
155.9303760601
 20
140.7650963393
 10
155.1995197383
 20
140.4095825729
 10
154.6311065627
 20
139.8503345427
 10
154.2867323456
 20
139.1479552713
 10
154.2037161139
 20
138.3785589588
 10
154.3910535124
 20
137.6255194647
 10
154.828444503
 20
136.9704429982
 10
155.4684903545
 20
136.4843158973
 10
156.2418317494
 20
136.2198174921
 10
157.0646654886
 20
136.2056101662
 10
157.8478258175
 20
136.4432343272
 10
158.5064441038
 20
136.9069389058
 10
158.9691475106
 20
137.5464753238
 10
159.1857973558
 20
138.2925382805
 10
159.1329149974
 20
139.064281526
 10
158.8162317944
 20
139.7780750868
 10
158.2700651211
 20
140.356566104
 10
157.5535995958
 20
140.7370691178
  0
LWPOLYLINE
  5
17D
330
1F
100
AcDbEntity
  8
0
  6
HIDDEN
 62
     7
370
     0
100
AcDbPolyline
 90
       19
 70
   128
 43
0.0
 10
157.5057165769
 20
140.6613283781
 10
156.6985495461
 20
140.7950718877
 10
155.8913815839
 20
140.6613283781
 10
155.1815703583
 20
140.276233944
 10
154.6547295598
 20
139.6862336424
 10
154.3744033275
 20
138.9624916938
 10
154.3744033275
 20
138.1923018945
 10
154.6547295598
 20
137.4685590145
 10
155.1815703583
 20
136.8785596443
 10
155.8913815839
 20
136.4934642789
 10
156.6985495461
 20
136.3597217006
 10
157.5057165769
 20
136.4934642789
 10
158.2155287338
 20
136.8785596443
 10
158.742368601
 20
137.4685590145
 10
159.0226948333
 20
138.1923018945
 10
159.0226948333
 20
138.9624916938
 10
158.742368601
 20
139.6862336424
 10
158.2155287338
 20
140.276233944
 10
157.5057165769
 20
140.6613283781
  0
LINE
  5
17E
330
1F
100
AcDbEntity
  8
0
  6
HIDDEN
 62
     7
370
     0
100
AcDbLine
 10
159.1985490245
 20
106.6264932034
 30
0.0
 11
159.1985490245
 21
109.7827211944
 31
0.0
  0
LINE
  5
17F
330
1F
100
AcDbEntity
  8
0
  6
HIDDEN
 62
     7
370
     0
100
AcDbLine
 10
154.1985491363
 20
109.7827211944
 30
0.0
 11
154.1985491363
 21
107.7290617851
 31
0.0
  0
LINE
  5
180
330
1F
100
AcDbEntity
  8
0
  6
HIDDEN
 62
     7
370
     0
100
AcDbLine
 10
145.6985493728
 20
105.8411293653
 30
0.0
 11
148.3179772345
 21
106.4684440372
 31
0.0
  0
LINE
  5
181
330
1F
100
AcDbEntity
  8
0
  6
HIDDEN
 62
     7
370
     0
100
AcDbLine
 10
146.920580331
 20
112.3034491194
 30
0.0
 11
145.6985493728
 21
112.0107903135
 31
0.0
  0
LINE
  5
182
330
1F
100
AcDbEntity
  8
0
  6
HIDDEN
 62
     7
370
     0
100
AcDbLine
 10
148.3766999168
 20
107.4079566625
 30
0.0
 11
155.8458492232
 21
109.1967060221
 31
0.0
  0
LINE
  5
183
330
1F
100
AcDbEntity
  8
0
  6
HIDDEN
 62
     7
370
     0
100
AcDbLine
 10
155.8458492232
 20
113.5154685927
 30
0.0
 11
147.3985220378
 21
111.4924599407
 31
0.0
  0
LINE
  5
184
330
1F
100
AcDbEntity
  8
0
  6
HIDDEN
 62
     7
370
     0
100
AcDbLine
 10
158.798549704
 20
109.8325152871
 30
0.0
 11
158.798549704
 21
121.8418051013
 31
0.0
  0
LINE
  5
185
330
1F
100
AcDbEntity
  8
0
  6
HIDDEN
 62
     7
370
     0
100
AcDbLine
 10
154.5985493881
 20
110.1805654344
 30
0.0
 11
154.5985493881
 21
109.8325152871
 31
0.0
  0
LINE
  5
186
330
1F
100
AcDbEntity
  8
0
  6
HIDDEN
 62
     7
370
     0
100
AcDbLine
 10
154.5985493881
 20
121.8400880917
 30
0.0
 11
154.5985493881
 21
111.9341899631
 31
0.0
  0
LINE
  5
187
330
1F
100
AcDbEntity
  8
0
  6
HIDDEN
 62
     7
370
     0
100
AcDbLine
 10
261.5985464377
 20
146.7908055512
 30
0.0
 11
261.0485520286
 21
145.6113283512
 31
0.0
  0
LINE
  5
188
330
1F
100
AcDbEntity
  8
0
  6
HIDDEN
 62
     7
370
     0
100
AcDbLine
 10
261.0485520286
 20
100.9702843604
 30
0.0
 11
261.5985464377
 21
99.7908071605
 31
0.0
  0
LINE
  5
189
330
1F
100
AcDbEntity
  8
0
  6
HIDDEN
 62
     7
370
     0
100
AcDbLine
 10
261.0485520286
 20
142.4908072678
 30
0.0
 11
257.0485513729
 21
142.4908072678
 31
0.0
  0
LINE
  5
18A
330
1F
100
AcDbEntity
  8
0
  6
HIDDEN
 62
     7
370
     0
100
AcDbLine
 10
257.0485513729
 20
104.0908054439
 30
0.0
 11
261.0485520286
 21
104.0908054439
 31
0.0
  0
LINE
  5
18B
330
1F
100
AcDbEntity
  8
0
  6
HIDDEN
 62
     7
370
     0
100
AcDbLine
 10
257.0485513729
 20
138.9836271283
 30
0.0
 11
255.8485459608
 21
138.2908060205
 31
0.0
  0
LINE
  5
18C
330
1F
100
AcDbEntity
  8
0
  6
HIDDEN
 62
     7
370
     0
100
AcDbLine
 10
255.8485459608
 20
108.2908066911
 30
0.0
 11
257.0485513729
 21
107.5979855833
 31
0.0
  0
ARC
  5
18D
330
1F
100
AcDbEntity
  8
0
  6
HIDDEN
 62
     7
370
     0
100
AcDbCircle
 10
231.1985494537
 20
108.5908063558
 30
0.0
 40
0.5999999999999943
100
AcDbArc
 50
180.0
 51
270.0
  0
ARC
  5
18E
330
1F
100
AcDbEntity
  8
0
  6
HIDDEN
 62
     7
370
     0
100
AcDbCircle
 10
231.1985494537
 20
137.9908063558
 30
0.0
 40
0.5999999999999943
100
AcDbArc
 50
90.0
 51
180.0
  0
LINE
  5
18F
330
1F
100
AcDbEntity
  8
0
  6
HIDDEN
 62
     7
370
     0
100
AcDbLine
 10
231.1985459251
 20
107.9908062694
 30
0.0
 11
231.8999435825
 21
107.9908062694
 31
0.0
  0
LINE
  5
190
330
1F
100
AcDbEntity
  8
0
  6
HIDDEN
 62
     7
370
     0
100
AcDbLine
 10
231.8999435825
 20
138.5908064422
 30
0.0
 11
231.1985459251
 21
138.5908064422
 31
0.0
  0
ARC
  5
191
330
1F
100
AcDbEntity
  8
0
  6
HIDDEN
 62
     7
370
     0
100
AcDbCircle
 10
231.8999427128
 20
108.5908063558
 30
0.0
 40
0.6000000000000085
100
AcDbArc
 50
270.0
 51
285.0
  0
ARC
  5
192
330
1F
100
AcDbEntity
  8
0
  6
HIDDEN
 62
     7
370
     0
100
AcDbCircle
 10
231.8999427128
 20
137.9908063558
 30
0.0
 40
0.5999999999999943
100
AcDbArc
 50
75.0
 51
90.0
  0
LINE
  5
193
330
1F
100
AcDbEntity
  8
0
  6
HIDDEN
 62
     7
370
     0
100
AcDbLine
 10
232.0552360338
 20
108.0112506626
 30
0.0
 11
233.0985482854
 21
108.2908066911
 31
0.0
  0
LINE
  5
194
330
1F
100
AcDbEntity
  8
0
  6
HIDDEN
 62
     7
370
     0
100
AcDbLine
 10
233.0985482854
 20
138.2908060205
 30
0.0
 11
232.0552360338
 21
138.5703620491
 31
0.0
  0
LINE
  5
195
330
1F
100
AcDbEntity
  8
0
  6
HIDDEN
 62
     7
370
     0
100
AcDbLine
 10
233.0985482854
 20
108.2908066911
 30
0.0
 11
255.8485459608
 21
108.2908066911
 31
0.0
  0
LINE
  5
196
330
1F
100
AcDbEntity
  8
0
  6
HIDDEN
 62
     7
370
     0
100
AcDbLine
 10
255.8485459608
 20
138.2908060205
 30
0.0
 11
233.0985482854
 21
138.2908060205
 31
0.0
  0
ARC
  5
197
330
1F
100
AcDbEntity
  8
0
  6
HIDDEN
 62
     7
370
     0
100
AcDbCircle
 10
42.0985494537
 20
109.5908063558
 30
0.0
 40
1.200000000000003
100
AcDbArc
 50
90.0
 51
180.0
  0
ARC
  5
198
330
1F
100
AcDbEntity
  8
0
  6
HIDDEN
 62
     7
370
     0
100
AcDbCircle
 10
42.0985494537
 20
136.9908063558
 30
0.0
 40
1.200000000000017
100
AcDbArc
 50
180.0
 51
270.0
  0
ARC
  5
199
330
1F
100
AcDbEntity
  8
0
  6
HIDDEN
 62
     7
370
     0
100
AcDbCircle
 10
51.7909218844
 20
110.9658063558
 30
0.0
 40
0.4000000000000199
100
AcDbArc
 50
255.0
 51
270.0
  0
ARC
  5
19A
330
1F
100
AcDbEntity
  8
0
  6
HIDDEN
 62
     7
370
     0
100
AcDbCircle
 10
51.7909218844
 20
135.6158063558
 30
0.0
 40
0.4000000000000341
100
AcDbArc
 50
90.0
 51
105.0
  0
LINE
  5
19B
330
1F
100
AcDbEntity
  8
0
  6
HIDDEN
 62
     7
370
     0
100
AcDbLine
 10
51.7909195346
 20
110.5658060861
 30
0.0
 11
52.6676070017
 21
110.5658060861
 31
0.0
  0
LINE
  5
19C
330
1F
100
AcDbEntity
  8
0
  6
HIDDEN
 62
     7
370
     0
100
AcDbLine
 10
52.6676070017
 20
136.0158066255
 30
0.0
 11
51.7909195346
 21
136.0158066255
 31
0.0
  0
ARC
  5
19D
330
1F
100
AcDbEntity
  8
0
  6
HIDDEN
 62
     7
370
     0
100
AcDbCircle
 10
52.667609346
 20
110.9658063558
 30
0.0
 40
0.4000000000000057
100
AcDbArc
 50
270.0
 51
330.0
  0
ARC
  5
19E
330
1F
100
AcDbEntity
  8
0
  6
HIDDEN
 62
     7
370
     0
100
AcDbCircle
 10
52.667609346
 20
135.6158063558
 30
0.0
 40
0.4000000000000341
100
AcDbArc
 50
30.0
 51
90.0
  0
LINE
  5
19F
330
1F
100
AcDbEntity
  8
0
  6
HIDDEN
 62
     7
370
     0
100
AcDbLine
 10
51.6873937172
 20
136.0021767197
 30
0.0
 11
50.8985485954
 21
135.7908065421
 31
0.0
  0
LINE
  5
1A0
330
1F
100
AcDbEntity
  8
0
  6
HIDDEN
 62
     7
370
     0
100
AcDbLine
 10
50.8985485954
 20
110.7908061696
 30
0.0
 11
51.6873937172
 21
110.579435992
 31
0.0
  0
LINE
  5
1A1
330
1F
100
AcDbEntity
  8
0
  6
HIDDEN
 62
     7
370
     0
100
AcDbLine
 10
53.0140217466
 20
110.7658066777
 30
0.0
 11
54.1831519527
 21
112.7908064974
 31
0.0
  0
LINE
  5
1A2
330
1F
100
AcDbEntity
  8
0
  6
HIDDEN
 62
     7
370
     0
100
AcDbLine
 10
54.1831519527
 20
133.7908062143
 30
0.0
 11
53.0140217466
 21
135.815806034
 31
0.0
  0
LINE
  5
1A3
330
1F
100
AcDbEntity
  8
0
  6
HIDDEN
 62
     7
370
     0
100
AcDbLine
 10
42.098548643
 20
110.7908061696
 30
0.0
 11
50.8985485954
 21
110.7908061696
 31
0.0
  0
LINE
  5
1A4
330
1F
100
AcDbEntity
  8
0
  6
HIDDEN
 62
     7
370
     0
100
AcDbLine
 10
50.8985485954
 20
135.7908065421
 30
0.0
 11
42.098548643
 21
135.7908065421
 31
0.0
  0
LINE
  5
1A5
330
1F
100
AcDbEntity
  8
0
  6
HIDDEN
 62
     7
370
     0
100
AcDbLine
 10
102.8985496682
 20
112.7908064974
 30
0.0
 11
106.6539291364
 21
119.0408061249
 31
0.0
  0
LINE
  5
1A6
330
1F
100
AcDbEntity
  8
0
  6
HIDDEN
 62
     7
370
     0
100
AcDbLine
 10
106.6539291364
 20
127.5408065868
 30
0.0
 11
102.8985496682
 21
133.7908062143
 31
0.0
  0
LINE
  5
1A7
330
1F
100
AcDbEntity
  8
0
  6
HIDDEN
 62
     7
370
     0
100
AcDbLine
 10
54.1831519527
 20
112.7908064974
 30
0.0
 11
102.8985496682
 21
112.7908064974
 31
0.0
  0
LINE
  5
1A8
330
1F
100
AcDbEntity
  8
0
  6
HIDDEN
 62
     7
370
     0
100
AcDbLine
 10
102.8985496682
 20
133.7908062143
 30
0.0
 11
54.1831519527
 21
133.7908062143
 31
0.0
  0
LINE
  5
1A9
330
1F
100
AcDbEntity
  8
0
  6
HIDDEN
 62
     7
370
     0
100
AcDbLine
 10
261.0485520286
 20
144.5658070025
 30
0.0
 11
257.0485513729
 21
144.5658070025
 31
0.0
  0
LINE
  5
1AA
330
1F
100
AcDbEntity
  8
0
  6
HIDDEN
 62
     7
370
     0
100
AcDbLine
 10
257.0485513729
 20
102.0158057091
 30
0.0
 11
261.0485520286
 21
102.0158057091
 31
0.0
  0
LINE
  5
1AB
330
1F
100
AcDbEntity
  8
0
  6
HIDDEN
 62
     7
370
     0
100
AcDbLine
 10
106.6539291364
 20
119.0408061249
 30
0.0
 11
230.5985506696
 21
119.0408061249
 31
0.0
  0
LINE
  5
1AC
330
1F
100
AcDbEntity
  8
0
  6
HIDDEN
 62
     7
370
     0
100
AcDbLine
 10
230.5985506696
 20
127.5408065868
 30
0.0
 11
106.6539291364
 21
127.5408065868
 31
0.0
  0
LINE
  5
1AD
330
1F
100
AcDbEntity
  8
0
  6
HIDDEN
 62
     7
370
     0
100
AcDbLine
 10
158.798549704
 20
124.7415246199
 30
0.0
 11
158.798549704
 21
136.7490974245
 31
0.0
  0
LINE
  5
1AE
330
1F
100
AcDbEntity
  8
0
  6
HIDDEN
 62
     7
370
     0
100
AcDbLine
 10
154.5985493881
 20
134.6474227486
 30
0.0
 11
154.5985493881
 21
124.7398076103
 31
0.0
  0
LINE
  5
1AF
330
1F
100
AcDbEntity
  8
0
  6
HIDDEN
 62
     7
370
     0
100
AcDbLine
 10
154.5985493881
 20
136.7490974245
 30
0.0
 11
154.5985493881
 21
136.4010472772
 31
0.0
  0
LINE
  5
1B0
330
1F
100
AcDbEntity
  8
0
  6
HIDDEN
 62
     7
370
     0
100
AcDbLine
 10
147.3985220378
 20
135.089152771
 30
0.0
 11
155.8458492232
 21
133.066144119
 31
0.0
  0
LINE
  5
1B1
330
1F
100
AcDbEntity
  8
0
  6
HIDDEN
 62
     7
370
     0
100
AcDbLine
 10
155.8458492232
 20
137.3849066896
 30
0.0
 11
148.3766999168
 21
139.1736560491
 31
0.0
  0
LINE
  5
1B2
330
1F
100
AcDbEntity
  8
0
  6
HIDDEN
 62
     7
370
     0
100
AcDbLine
 10
145.6985493728
 20
134.5708223981
 30
0.0
 11
146.920580331
 21
134.2781635923
 31
0.0
  0
LINE
  5
1B3
330
1F
100
AcDbEntity
  8
0
  6
HIDDEN
 62
     7
370
     0
100
AcDbLine
 10
148.3179772345
 20
140.1131686745
 30
0.0
 11
145.6985493728
 21
140.7404833463
 31
0.0
  0
LINE
  5
1B4
330
1F
100
AcDbEntity
  8
0
  6
HIDDEN
 62
     7
370
     0
100
AcDbLine
 10
159.1985490245
 20
136.7988915173
 30
0.0
 11
159.1985490245
 21
139.9551195083
 31
0.0
  0
LINE
  5
1B5
330
1F
100
AcDbEntity
  8
0
  6
HIDDEN
 62
     7
370
     0
100
AcDbLine
 10
154.1985491363
 20
138.8525509266
 30
0.0
 11
154.1985491363
 21
136.7988915173
 31
0.0
  0
LINE
  5
1B6
330
1F
100
AcDbEntity
  8
0
  6
HIDDEN
 62
     7
370
     0
100
AcDbLine
 10
151.4917476175
 20
134.2927685929
 30
0.0
 11
151.9887898189
 21
134.7663843063
 31
0.0
  0
LINE
  5
1B7
330
1F
100
AcDbEntity
  8
0
  6
HIDDEN
 62
     7
370
     0
100
AcDbLine
 10
152.6152066958
 20
137.3820661557
 30
0.0
 11
152.3866284711
 21
138.029456417
 31
0.0
  0
LINE
  5
1B8
330
1F
100
AcDbEntity
  8
0
  6
HIDDEN
 62
     7
370
     0
100
AcDbLine
 10
147.2474875932
 20
134.714013244
 30
0.0
 11
150.51842612
 21
133.9306722385
 31
0.0
  0
LINE
  5
1B9
330
1F
100
AcDbEntity
  8
0
  6
HIDDEN
 62
     7
370
     0
100
AcDbLine
 10
151.6829239277
 20
138.7931763185
 30
0.0
 11
148.4119844695
 21
139.5765163926
 31
0.0
  0
LINE
  5
1BA
330
1F
100
AcDbEntity
  8
0
  6
HIDDEN
 62
     7
370
     0
100
AcDbLine
 10
148.4119844695
 20
107.0050963191
 30
0.0
 11
151.6829239277
 21
107.7884363932
 31
0.0
  0
LINE
  5
1BB
330
1F
100
AcDbEntity
  8
0
  6
HIDDEN
 62
     7
370
     0
100
AcDbLine
 10
150.51842612
 20
112.6509404731
 30
0.0
 11
147.2474875932
 21
111.8675994677
 31
0.0
  0
LINE
  5
1BC
330
1F
100
AcDbEntity
  8
0
  6
HIDDEN
 62
     7
370
     0
100
AcDbLine
 10
152.3866284711
 20
108.5521562946
 30
0.0
 11
152.6152066958
 21
109.1995465559
 31
0.0
  0
LINE
  5
1BD
330
1F
100
AcDbEntity
  8
0
  6
HIDDEN
 62
     7
370
     0
100
AcDbLine
 10
151.9887898189
 20
111.8152284053
 30
0.0
 11
151.4917476175
 21
112.2888441188
 31
0.0
  0
LINE
  5
1BE
330
1F
100
AcDbEntity
  8
0
  6
HIDDEN
 62
     7
370
     0
100
AcDbLine
 10
154.1985491363
 20
108.2402097983
 30
0.0
 11
154.1985491363
 21
108.0520984707
 31
0.0
  0
LINE
  5
1BF
330
1F
100
AcDbEntity
  8
0
  6
HIDDEN
 62
     7
370
     0
100
AcDbLine
 10
159.1985490245
 20
108.0520984707
 30
0.0
 11
159.1985490245
 21
108.2402097983
 31
0.0
  0
LINE
  5
1C0
330
1F
100
AcDbEntity
  8
0
  6
HIDDEN
 62
     7
370
     0
100
AcDbLine
 10
154.6985492182
 20
109.4219920215
 30
0.0
 11
154.6985492182
 21
108.0042163831
 31
0.0
  0
LINE
  5
1C1
330
1F
100
AcDbEntity
  8
0
  6
HIDDEN
 62
     7
370
     0
100
AcDbLine
 10
158.6985498739
 20
108.0042163831
 30
0.0
 11
158.6985498739
 21
109.4219920215
 31
0.0
  0
LINE
  5
1C2
330
1F
100
AcDbEntity
  8
0
  6
HIDDEN
 62
     7
370
     0
100
AcDbLine
 10
154.1985491363
 20
109.7827211944
 30
0.0
 11
154.1985491363
 21
109.1841853214
 31
0.0
  0
LINE
  5
1C3
330
1F
100
AcDbEntity
  8
0
  6
HIDDEN
 62
     7
370
     0
100
AcDbLine
 10
159.1985490245
 20
109.1841853214
 30
0.0
 11
159.1985490245
 21
109.7827211944
 31
0.0
  0
LINE
  5
1C4
330
1F
100
AcDbEntity
  8
0
  6
HIDDEN
 62
     7
370
     0
100
AcDbLine
 10
159.1985490245
 20
136.7988915173
 30
0.0
 11
159.1985490245
 21
137.3974273903
 31
0.0
  0
LINE
  5
1C5
330
1F
100
AcDbEntity
  8
0
  6
HIDDEN
 62
     7
370
     0
100
AcDbLine
 10
154.1985491363
 20
137.3974273903
 30
0.0
 11
154.1985491363
 21
136.7988915173
 31
0.0
  0
LINE
  5
1C6
330
1F
100
AcDbEntity
  8
0
  6
HIDDEN
 62
     7
370
     0
100
AcDbLine
 10
158.6985498739
 20
137.1596206901
 30
0.0
 11
158.6985498739
 21
138.5773963285
 31
0.0
  0
LINE
  5
1C7
330
1F
100
AcDbEntity
  8
0
  6
HIDDEN
 62
     7
370
     0
100
AcDbLine
 10
154.6985492182
 20
138.5773963285
 30
0.0
 11
154.6985492182
 21
137.1596206901
 31
0.0
  0
LINE
  5
1C8
330
1F
100
AcDbEntity
  8
0
  6
HIDDEN
 62
     7
370
     0
100
AcDbLine
 10
159.1985490245
 20
138.3414029134
 30
0.0
 11
159.1985490245
 21
138.529514241
 31
0.0
  0
LINE
  5
1C9
330
1F
100
AcDbEntity
  8
0
  6
HIDDEN
 62
     7
370
     0
100
AcDbLine
 10
154.1985491363
 20
138.529514241
 30
0.0
 11
154.1985491363
 21
138.3414029134
 31
0.0
  0
ARC
  5
1CA
330
1F
100
AcDbEntity
  8
0
  6
HIDDEN
 62
     7
370
     0
100
AcDbCircle
 10
156.6985494537
 20
108.8250643939
 30
0.0
 40
2.000000000000011
100
AcDbArc
 50
71.1182787691
 51
192.2156859341
  0
ARC
  5
1CB
330
1F
100
AcDbEntity
  8
0
  6
HIDDEN
 62
     7
370
     0
100
AcDbCircle
 10
156.6985494537
 20
108.8250643939
 30
0.0
 40
1.999999999999989
100
AcDbArc
 50
340.3453161116
 51
71.1182787691
  0
CIRCLE
  5
1CC
330
1F
100
AcDbEntity
  8
0
  6
HIDDEN
 62
     7
370
     0
100
AcDbCircle
 10
156.6985494537
 20
137.7565483178
 30
0.0
 40
2.000000000000007
  0
DIMENSION
  5
1CD
330
1F
100
AcDbEntity
  8
VERMASSUNG
100
AcDbDimension
  2
_D
 10
32.4955815687
 20
172.0158063558
 30
0.0
 11
32.4955815687
 21
123.2908063558
 31
0.0
 70
   160
  1
ISO 50 %%c<>
 71
     2
 42
-1.0
  3
SLDDIMSTYLE0
100
AcDbAlignedDimension
 13
160.9485494537
 23
74.5658063558
 33
0.0
 14
160.9485494537
 24
172.0158063558
 34
0.0
 50
90.0
100
AcDbRotatedDimension
  0
DIMENSION
  5
1DA
330
1F
100
AcDbEntity
  8
VERMASSUNG
100
AcDbDimension
  2
_D_1
 10
261.5985494537
 20
188.2764806567
 30
0.0
 11
151.2485494537
 21
188.2764806567
 31
0.0
 70
   160
  1
(<>)
 71
     2
 42
-1.0
  3
SLDDIMSTYLE0
100
AcDbAlignedDimension
 13
40.8985494537
 23
141.6696508832
 33
0.0
 14
261.5985494537
 24
150.2908063558
 34
0.0
100
AcDbRotatedDimension
  0
DIMENSION
  5
1E6
330
1F
100
AcDbEntity
  8
VERMASSUNG
100
AcDbDimension
  2
_D_2
 10
261.5985494537
 20
182.2764806567
 30
0.0
 11
202.0485494537
 21
182.2764806567
 31
0.0
 70
   160
  1
<>
 71
     2
 42
-1.0
  3
SLDDIMSTYLE0
100
AcDbAlignedDimension
 13
142.4985494537
 23
158.2158063558
 33
0.0
 14
261.5985494537
 24
150.2908063558
 34
0.0
100
AcDbRotatedDimension
  0
DIMENSION
  5
1F0
330
1F
100
AcDbEntity
  8
VERMASSUNG
100
AcDbDimension
  2
_D_3
 10
261.5985494537
 20
176.2764806567
 30
0.0
 11
211.5735494537
 21
176.2764806567
 31
0.0
 70
   160
  1
<>
 71
     2
 42
-1.0
  3
SLDDIMSTYLE0
100
AcDbAlignedDimension
 13
161.5485494537
 23
169.5857933091
 33
0.0
 14
261.5985494537
 24
150.2908063558
 34
0.0
100
AcDbRotatedDimension
  0
DIMENSION
  5
1FA
330
1F
100
AcDbEntity
  8
VERMASSUNG
100
AcDbDimension
  2
_D_4
 10
270.7455669705
 20
95.7908063558
 30
0.0
 11
270.7455669705
 21
123.2908063558
 31
0.0
 70
   160
  1
MBM %%c<>
 71
     2
 42
-1.0
  3
SLDDIMSTYLE0
100
AcDbAlignedDimension
 13
261.0985494537
 23
150.7908063558
 33
0.0
 14
261.0985494537
 24
95.7908063558
 34
0.0
 50
90.0
100
AcDbRotatedDimension
  0
LINE
  5
206
330
1F
100
AcDbEntity
  8
VERMASSUNG
  6
CENTERX2
 62
     7
370
     0
100
AcDbLine
 10
38.8985494537
 20
123.2908063558
 30
0.0
 11
263.5985494537
 21
123.2908063558
 31
0.0
  0
LINE
  5
207
330
1F
100
AcDbEntity
  8
VERMASSUNG
  6
CENTERX2
370
     0
100
AcDbLine
 10
143.7535478075
 20
138.1214512553
 30
0.0
 11
155.0159194984
 21
135.4242812409
 31
0.0
  0
LINE
  5
208
330
1F
100
AcDbEntity
  8
VERMASSUNG
  6
CENTERX2
370
     0
100
AcDbLine
 10
143.7535478075
 20
108.4601614563
 30
0.0
 11
155.0159194984
 21
111.1573314707
 31
0.0
  0
LINE
  5
209
330
1F
100
AcDbEntity
  8
0
  6
Continuous
 62
     7
370
    15
100
AcDbLine
 10
275.5727077013
 20
13.6634104581
 30
0.0
 11
275.7494533894
 21
13.7654797885
 31
0.0
  0
LINE
  5
20A
330
1F
100
AcDbEntity
  8
0
  6
Continuous
 62
     7
370
    15
100
AcDbLine
 10
285.2938436991
 20
30.2986395196
 30
0.0
 11
285.2938456748
 21
30.5027400603
 31
0.0
  0
LINE
  5
20B
330
1F
100
AcDbEntity
  8
0
  6
Continuous
 62
     7
370
    15
100
AcDbLine
 10
234.9146587101
 20
32.4837113427
 30
0.0
 11
268.6966860759
 21
12.9817620551
 31
0.0
  0
LINE
  5
20C
330
1F
100
AcDbEntity
  8
0
  6
Continuous
 62
     7
370
    15
100
AcDbLine
 10
282.4455688964
 20
36.7981065887
 30
0.0
 11
248.6635415307
 21
56.3000558763
 31
0.0
  0
SPLINE
  5
20D
330
1F
100
AcDbEntity
  8
0
  6
Continuous
 62
     7
370
    15
100
AcDbSpline
210
0.0
220
0.0
230
1.0
 70
     8
 71
     3
 72
    10
 73
     6
 74
     0
 42
0.000000001
 43
0.00000001
 40
0.0
 40
0.0
 40
0.0
 40
0.0
 40
0.134195124446517
 40
0.6045542330645128
 40
1.0
 40
1.0
 40
1.0
 40
1.0
 10
219.432254196092
 20
48.24807776443065
 30
0.0
 10
219.3712223363431
 20
48.07766660061454
 30
0.0
 10
219.096271444385
 20
47.30995770752778
 30
0.0
 10
218.7288657553559
 20
46.03981077252607
 30
0.0
 10
218.4771305740957
 20
44.95418065755928
 30
0.0
 10
218.3621536149345
 20
44.45833240636195
 30
0.0
  0
SPLINE
  5
20E
330
1F
100
AcDbEntity
  8
0
  6
Continuous
 62
     7
370
    15
100
AcDbSpline
210
0.0
220
0.0
230
1.0
 70
     8
 71
     3
 72
    19
 73
    15
 74
     0
 42
0.000000001
 43
0.00000001
 40
0.0
 40
0.0
 40
0.0
 40
0.0
 40
0.0322518670420541
 40
0.1267981326814274
 40
0.2214319228444567
 40
0.3161097108905252
 40
0.4107995680169471
 40
0.5054797862936263
 40
0.6001421720025398
 40
0.6947836094698621
 40
0.7894041357995022
 40
0.884005857290241
 40
0.9785918871585876
 40
1.0
 40
1.0
 40
1.0
 40
1.0
 10
239.3629829695899
 20
70.13048287783802
 30
0.0
 10
239.2101071079642
 20
70.09431871270576
 30
0.0
 10
238.6090760494855
 20
69.95213939010169
 30
0.0
 10
237.5334507867838
 20
69.55842795802974
 30
0.0
 10
236.1464629949765
 20
68.9522747749723
 30
0.0
 10
234.7503951985036
 20
68.20197964231504
 30
0.0
 10
233.3568155509764
 20
67.3251027541758
 30
0.0
 10
231.9741934006363
 20
66.3242060507127
 30
0.0
 10
230.6114779802287
 20
65.20700499694743
 30
0.0
 10
229.2778265227664
 20
63.98009475805124
 30
0.0
 10
227.9799481368063
 20
62.65355932128616
 30
0.0
 10
226.7328978119795
 20
61.22861650301301
 30
0.0
 10
225.8322653708652
 20
60.12541278776104
 30
0.0
 10
225.3701604355228
 20
59.47888227299814
 30
0.0
 10
225.284873416978
 20
59.35955729768371
 30
0.0
  0
LINE
  5
20F
330
1F
100
AcDbEntity
  8
0
  6
Continuous
 62
     7
370
    15
100
AcDbLine
 10
233.6220372568
 20
67.4702510083
 30
0.0
 11
202.8607542077
 21
78.5553980144
 31
0.0
  0
LINE
  5
210
330
1F
100
AcDbEntity
  8
0
  6
Continuous
 62
     7
370
    15
100
AcDbLine
 10
192.7368948273
 20
61.018459614
 30
0.0
 11
222.2044059458
 21
36.1363371757
 31
0.0
  0
SPLINE
  5
211
330
1F
100
AcDbEntity
  8
0
  6
Continuous
 62
     7
370
    15
100
AcDbSpline
210
0.0
220
0.0
230
1.0
 70
     8
 71
     3
 72
    14
 73
    10
 74
     0
 42
0.000000001
 43
0.00000001
 40
0.0
 40
0.0
 40
0.0
 40
0.0
 40
0.0816825196209152
 40
0.2626270294289307
 40
0.4437269392776999
 40
0.6249022868109991
 40
0.8060936184627252
 40
0.9872638469689304
 40
1.0
 40
1.0
 40
1.0
 40
1.0
 10
235.8065696597846
 20
23.52890047969379
 30
0.0
 10
236.0093617494423
 20
23.57900538797083
 30
0.0
 10
236.6613823328629
 20
23.74010354314135
 30
0.0
 10
237.7889373079185
 20
24.1627447425864
 30
0.0
 10
239.1774956063722
 20
24.78835216417778
 30
0.0
 10
240.5742970914471
 20
25.55246929298939
 30
0.0
 10
241.964913748076
 20
26.45533312184242
 30
0.0
 10
242.9230499697607
 20
27.13140759418577
 30
0.0
 10
243.4074043768504
 20
27.53601338632672
 30
0.0
 10
243.4392177282268
 20
27.56258869161121
 30
0.0
  0
LINE
  5
212
330
1F
100
AcDbEntity
  8
0
  6
Continuous
 62
     7
370
    15
100
AcDbLine
 10
226.5269719119
 20
25.071892977
 30
0.0
 11
227.9824938981
 21
24.2316380196
 31
0.0
  0
LINE
  5
213
330
1F
100
AcDbEntity
  8
0
  6
Continuous
 62
     7
370
    15
100
AcDbLine
 10
222.8029369635
 20
27.221732592
 30
0.0
 11
224.2407816396
 21
26.3916825287
 31
0.0
  0
LINE
  5
214
330
1F
100
AcDbEntity
  8
0
  6
Continuous
 62
     7
370
    15
100
AcDbLine
 10
218.3710545025
 20
33.2873133481
 30
0.0
 11
218.4154157069
 21
33.1414475225
 31
0.0
  0
LINE
  5
215
330
1F
100
AcDbEntity
  8
0
  6
Continuous
 62
     7
370
    15
100
AcDbLine
 10
256.7899715395
 20
60.3187109377
 30
0.0
 11
256.7383785286
 21
60.4845659793
 31
0.0
  0
SPLINE
  5
216
330
1F
100
AcDbEntity
  8
0
  6
Continuous
 62
     7
370
    15
100
AcDbSpline
210
0.0
220
0.0
230
1.0
 70
     8
 71
     3
 72
    26
 73
    22
 74
     0
 42
0.000000001
 43
0.00000001
 40
0.0
 40
0.0
 40
0.0
 40
0.0
 40
0.0206098635346963
 40
0.0728944510643923
 40
0.1258585040611578
 40
0.1800156137396773
 40
0.2354401611125397
 40
0.2918299514627566
 40
0.3487416667418533
 40
0.4057939356565405
 40
0.4627674603426434
 40
0.5196158025351038
 40
0.5763503990457023
 40
0.6330092550266897
 40
0.6896415235028057
 40
0.7462991724022513
 40
0.8030217144057956
 40
0.8598660589598679
 40
0.9168873020481363
 40
0.9741306256673679
 40
1.0
 40
1.0
 40
1.0
 40
1.0
 10
202.9120903863082
 20
78.51659843624581
 30
0.0
 10
202.815218257615
 20
78.55820025906523
 30
0.0
 10
202.4725939295768
 20
78.70534058498713
 30
0.0
 10
201.8204885285342
 20
78.80818515856436
 30
0.0
 10
200.9749453490574
 20
78.82660758669994
 30
0.0
 10
200.0880371882191
 20
78.69163337307603
 30
0.0
 10
199.1737670284005
 20
78.4143048015868
 30
0.0
 10
198.2438673650446
 20
77.99307687534332
 30
0.0
 10
197.315005975403
 20
77.43516010044706
 30
0.0
 10
196.4038220788827
 20
76.75089494024273
 30
0.0
 10
195.5255052882805
 20
75.95340360194389
 30
0.0
 10
194.6932642267732
 20
75.05669647733048
 30
0.0
 10
193.9188118088016
 20
74.0752539402101
 30
0.0
 10
193.2129923536487
 20
73.02417557676382
 30
0.0
 10
192.5858656563621
 20
71.91916382419623
 30
0.0
 10
192.0466400638665
 20
70.7764713801528
 30
0.0
 10
191.6037248802059
 20
69.61271177380138
 30
0.0
 10
191.2639111044461
 20
68.44417432196705
 30
0.0
 10
191.0353696626814
 20
67.2880583343345
 30
0.0
 10
190.9384501088182
 20
66.36499982848441
 30
0.0
 10
190.9303847705939
 20
65.8379008107534
 30
0.0
 10
190.9278743809809
 20
65.67383777181868
 30
0.0
  0
SPLINE
  5
217
330
1F
100
AcDbEntity
  8
0
  6
Continuous
 62
     7
370
    15
100
AcDbSpline
210
0.0
220
0.0
230
1.0
 70
     8
 71
     3
 72
    13
 73
     9
 74
     0
 42
0.000000001
 43
0.00000001
 40
0.0
 40
0.0
 40
0.0
 40
0.0
 40
0.1013708038922181
 40
0.2925452651573772
 40
0.4837075735181394
 40
0.673017314708729
 40
0.8585816591153959
 40
1.0
 40
1.0
 40
1.0
 40
1.0
 10
190.9278743809809
 20
65.67383777181868
 30
0.0
 10
190.9313302887396
 20
65.48307159418525
 30
0.0
 10
190.9413036677876
 20
64.9325408705839
 30
0.0
 10
191.0531548776517
 20
64.06864835398277
 30
0.0
 10
191.3047760297594
 20
63.1198198311739
 30
0.0
 10
191.6866534113464
 20
62.27445846610157
 30
0.0
 10
192.1385066532518
 20
61.58440054205403
 30
0.0
 10
192.511187900824
 20
61.2413162089939
 30
0.0
 10
192.6723706364282
 20
61.09293398771009
 30
0.0
  0
LINE
  5
218
330
1F
100
AcDbEntity
  8
0
  6
Continuous
 62
     7
370
    15
100
AcDbLine
 10
272.72536536
 20
40.005283432
 30
0.0
 11
272.5485596597
 21
40.107383985
 31
0.0
  0
LINE
  5
219
330
1F
100
AcDbEntity
  8
0
  6
Continuous
 62
     7
370
    15
100
AcDbLine
 10
268.6588416083
 20
40.107383288
 30
0.0
 11
268.4820358283
 21
40.0052830691
 31
0.0
  0
LINE
  5
21A
330
1F
100
AcDbEntity
  8
0
  6
Continuous
 62
     7
370
    15
100
AcDbLine
 10
273.6037009085
 20
38.3725993244
 30
0.0
 11
273.6037009085
 21
38.7808697972
 31
0.0
  0
LINE
  5
21B
330
1F
100
AcDbEntity
  8
0
  6
Continuous
 62
     7
370
    15
100
AcDbLine
 10
267.603701567
 20
38.7808696072
 30
0.0
 11
267.603701567
 21
38.3725991343
 31
0.0
  0
LWPOLYLINE
  5
21C
330
1F
100
AcDbEntity
  8
0
  6
Continuous
 62
     7
370
    15
100
AcDbPolyline
 90
       56
 70
   128
 43
0.0
 10
266.2019601119
 20
19.2771297241
 10
266.2641833483
 20
20.5696120336
 10
266.450041072
 20
21.9170858825
 10
266.7571104979
 20
23.3019849001
 10
267.1813889925
 20
24.7062550274
 10
267.7173447817
 20
26.1115892099
 10
268.3579913671
 20
27.4996666506
 10
269.0949764285
 20
28.8523925388
 10
269.9186931187
 20
30.1521311205
 10
270.8184018939
 20
31.3819380087
 10
271.7823744056
 20
32.525781655
 10
272.798043649
 20
33.568750181
 10
273.8521689282
 20
34.4972462318
 10
274.931007901
 20
35.2991661436
 10
276.0204963001
 20
35.9640554059
 10
277.1064310694
 20
36.4832463242
 10
278.1746552103
 20
36.8499700514
 10
279.21124312
 20
37.0594468522
 10
280.202680889
 20
37.1089437977
 10
281.1360439227
 20
36.9978179888
 10
281.999163965
 20
36.7275163972
 10
282.7807897829
 20
36.3015636834
 10
283.4707310589
 20
35.7255129434
 10
284.0599927334
 20
35.0068726909
 10
284.5408942018
 20
34.1550125494
 10
284.9071654619
 20
33.1810377668
 10
285.1540320659
 20
32.0976454794
 10
285.2782750484
 20
30.9189590684
 10
285.2782750484
 20
29.6603447892
 10
285.1540320659
 20
28.338210484
 10
284.9071654619
 20
26.9697920825
 10
284.5408942018
 20
25.5729295044
 10
284.0599927334
 20
24.1658323461
 10
283.4707310589
 20
22.7668450458
 10
282.7807897829
 20
21.3942050644
 10
281.999163965
 20
20.0658063903
 10
281.1360439227
 20
18.7989676098
 10
280.202680889
 20
17.6102037803
 10
279.21124312
 20
16.5150110432
 10
278.1746552103
 20
15.5276689184
 10
277.1064310694
 20
14.6610473051
 10
276.0204963001
 20
13.9264446264
 10
274.931007901
 20
13.3334373583
 10
273.8521689282
 20
12.8897563054
 10
272.798043649
 20
12.6011852148
 10
271.7823744056
 20
12.4714869933
 10
270.8184018939
 20
12.502351668
 10
269.9186931187
 20
12.6933769155
 10
269.0949764285
 20
13.0420724502
 10
268.3579913671
 20
13.5438934985
 10
267.7173447817
 20
14.1922961362
 10
267.1813889925
 20
14.9788289359
 10
266.7571104979
 20
15.8932375405
 10
266.450041072
 20
16.9236017455
 10
266.2641833483
 20
18.056488834
 10
266.2019601119
 20
19.2771297241
  0
LWPOLYLINE
  5
21D
330
1F
100
AcDbEntity
  8
0
  6
Continuous
 62
     7
370
    15
100
AcDbPolyline
 90
       29
 70
   128
 43
0.0
 10
265.8484092975
 20
19.2771285836
 10
265.9117843282
 20
20.593545499
 10
266.1010842642
 20
21.9659727591
 10
266.4138402219
 20
23.3765180443
 10
266.8459751524
 20
24.8067929839
 10
267.3918565245
 20
26.2381519367
 10
268.0443667891
 20
27.6519345717
 10
268.7950001855
 20
29.029710728
 10
269.6339700836
 20
30.3535180498
 10
270.5503403641
 20
31.6060994284
 10
271.532164371
 20
32.7711254242
 10
272.5666423041
 20
33.8334083231
 10
273.6402883243
 20
34.7790989846
 10
274.7391058088
 20
35.5958693847
 10
275.8487699125
 20
36.2730712385
 10
276.9548146143
 20
36.8018766795
 10
278.0428206914
 20
37.1753920982
 10
279.0986046795
 20
37.3887474547
 10
280.1084023401
 20
37.439161887
 10
281.0590498622
 20
37.3259775942
 10
281.9381537676
 20
37.0506704669
 10
282.7342537353
 20
36.6168292541
 10
283.4369720918
 20
36.0301110626
 10
284.0371465073
 20
35.2981632064
 10
284.5269534731
 20
34.4305279476
 10
284.9000070831
 20
33.43851625
 10
285.1514453031
 20
32.3350611917
 10
285.2779892401
 20
31.1345473312
 10
285.2938456748
 20
30.5027400603
  0
LWPOLYLINE
  5
21E
330
1F
100
AcDbEntity
  8
0
  6
Continuous
 62
     7
370
    15
100
AcDbPolyline
 90
       15
 70
   128
 43
0.0
 10
275.5727077013
 20
13.6634104581
 10
274.7391058088
 20
13.2233674781
 10
273.6402883243
 20
12.7714702149
 10
272.5666423041
 20
12.4775555673
 10
271.532164371
 20
12.3454556678
 10
270.5503403641
 20
12.3768917943
 10
269.6339700836
 20
12.5714545676
 10
268.7950001855
 20
12.9266078634
 10
268.0443667891
 20
13.4377211478
 10
267.3918565245
 20
14.0981314671
 10
266.8459751524
 20
14.8992292032
 10
266.4138402219
 20
15.8305717722
 10
266.1010842642
 20
16.8800167148
 10
265.9117843282
 20
18.033882921
 10
265.8484092975
 20
19.2771285836
  0
SPLINE
  5
21F
330
1F
100
AcDbEntity
  8
0
  6
Continuous
 62
     7
370
    15
100
AcDbSpline
210
0.0
220
0.0
230
1.0
 70
     8
 71
     3
 72
    50
 73
    46
 74
     0
 42
0.000000001
 43
0.00000001
 40
0.0
 40
0.0
 40
0.0
 40
0.0
 40
0.0312500000000011
 40
0.0312500000000011
 40
0.0625000000000022
 40
0.0625000000000022
 40
0.1250000000000045
 40
0.1250000000000045
 40
0.1562500000000057
 40
0.1562500000000057
 40
0.1875000000000069
 40
0.1875000000000069
 40
0.218750000000008
 40
0.218750000000008
 40
0.2500000000000092
 40
0.2500000000000092
 40
0.3125000000000114
 40
0.3125000000000114
 40
0.3437500000000125
 40
0.3437500000000125
 40
0.3750000000000137
 40
0.3750000000000137
 40
0.4375000000000141
 40
0.4375000000000141
 40
0.4687500000000135
 40
0.4687500000000135
 40
0.5000000000000128
 40
0.5000000000000128
 40
0.5625000000000114
 40
0.5625000000000114
 40
0.6250000000000101
 40
0.6250000000000101
 40
0.6875000000000089
 40
0.6875000000000089
 40
0.7500000000000075
 40
0.7500000000000075
 40
0.8125000000000062
 40
0.8125000000000062
 40
0.8750000000000049
 40
0.8750000000000049
 40
0.9062500000000039
 40
0.9062500000000039
 40
0.9375000000000028
 40
0.9375000000000028
 40
1.0
 40
1.0
 40
1.0
 40
1.0
 10
273.25535156815
 20
37.45423946675287
 30
0.0
 10
273.1734167861901
 20
37.40693952393497
 30
0.0
 10
273.0867527150962
 20
37.36127921916808
 30
0.0
 10
272.9038784823007
 20
37.27330398327009
 30
0.0
 10
272.8069636825306
 20
37.23072614095248
 30
0.0
 10
272.5080278308717
 20
37.1109625329597
 30
0.0
 10
272.2976590448544
 20
37.04125455809454
 30
0.0
 10
271.9664131774009
 20
36.9520860756523
 30
0.0
 10
271.8530502798923
 20
36.92492788869068
 30
0.0
 10
271.6261157372232
 20
36.87709706277449
 30
0.0
 10
271.5119508812678
 20
36.85624615289075
 30
0.0
 10
271.2822577932492
 20
36.8206490085642
 30
0.0
 10
271.1667293942608
 20
36.80590330528234
 30
0.0
 10
270.9342933037646
 20
36.7827079335417
 30
0.0
 10
270.8173301400296
 20
36.77429638493529
 30
0.0
 10
270.4710876095469
 20
36.75916198811512
 30
0.0
 10
270.2441015317444
 20
36.76217336616664
 30
0.0
 10
269.9088530146559
 20
36.78702008338298
 30
0.0
 10
269.7974876466952
 20
36.7987960255211
 30
0.0
 10
269.5797660047019
 20
36.8290448034269
 30
0.0
 10
269.4732691014431
 20
36.84749014656949
 30
0.0
 10
269.1605822540774
 20
36.91275276393554
 30
0.0
 10
268.9611372484177
 20
36.96943200565395
 30
0.0
 10
268.6754979043782
 20
37.07528424544657
 30
0.0
 10
268.5827693393682
 20
37.11402696242356
 30
0.0
 10
268.4052585705285
 20
37.19709174033276
 30
0.0
 10
268.3200305531495
 20
37.24157063404986
 30
0.0
 10
268.0747499169717
 20
37.3837365163855
 30
0.0
 10
267.9250102606657
 20
37.49010507275148
 30
0.0
 10
267.6542675323909
 20
37.72655882115123
 30
0.0
 10
267.5363471603916
 20
37.85411993240234
 30
0.0
 10
267.3373081175785
 20
38.12357736978193
 30
0.0
 10
267.2556761150964
 20
38.26589828519369
 30
0.0
 10
267.1310708035049
 20
38.56507760611095
 30
0.0
 10
267.0899657664139
 20
38.71760918440992
 30
0.0
 10
267.0508707540993
 20
39.02503679139888
 30
0.0
 10
267.052815757802
 20
39.18070050599815
 30
0.0
 10
267.105055560468
 20
39.49067936596479
 30
0.0
 10
267.1543993263608
 20
39.64004305435828
 30
0.0
 10
267.2642692682879
 20
39.85384997447236
 30
0.0
 10
267.3069128190195
 20
39.92340456855935
 30
0.0
 10
267.4050303076846
 20
40.05865058477812
 30
0.0
 10
267.4609114887185
 20
40.12465024590735
 30
0.0
 10
267.6439038128876
 20
40.3106733100722
 30
0.0
 10
267.787137878325
 20
40.42056773522928
 30
0.0
 10
267.952050709251
 20
40.51576988608804
 30
0.0
  0
SPLINE
  5
220
330
1F
100
AcDbEntity
  8
0
  6
Continuous
 62
     7
370
    15
100
AcDbSpline
210
0.0
220
0.0
230
1.0
 70
     8
 71
     3
 72
    50
 73
    46
 74
     0
 42
0.000000001
 43
0.00000001
 40
0.0
 40
0.0
 40
0.0
 40
0.0
 40
0.0312500000000001
 40
0.0312500000000001
 40
0.0625000000000002
 40
0.0625000000000002
 40
0.0937500000000003
 40
0.0937500000000003
 40
0.1250000000000004
 40
0.1250000000000004
 40
0.1875000000000007
 40
0.1875000000000007
 40
0.2500000000000009
 40
0.2500000000000009
 40
0.375
 40
0.375
 40
0.4375000000000004
 40
0.4375000000000004
 40
0.4687500000000006
 40
0.4687500000000006
 40
0.5000000000000008
 40
0.5000000000000008
 40
0.5624999999999993
 40
0.5624999999999993
 40
0.5937499999999986
 40
0.5937499999999986
 40
0.6249999999999978
 40
0.6249999999999978
 40
0.6874999999999964
 40
0.6874999999999964
 40
0.7187499999999957
 40
0.7187499999999957
 40
0.7499999999999949
 40
0.7499999999999949
 40
0.8124999999999948
 40
0.8124999999999948
 40
0.8437499999999953
 40
0.8437499999999953
 40
0.8749999999999959
 40
0.8749999999999959
 40
0.937499999999998
 40
0.937499999999998
 40
0.968749999999999
 40
0.968749999999999
 40
1.0
 40
1.0
 40
1.0
 40
1.0
 10
267.952050709251
 20
40.51576988608804
 30
0.0
 10
268.0345250128835
 20
40.56338128813794
 30
0.0
 10
268.1231376093931
 20
40.60754034002193
 30
0.0
 10
268.30715657181
 20
40.68619355223176
 30
0.0
 10
268.4027579962677
 20
40.72090304533541
 30
0.0
 10
268.6008819818746
 20
40.78153897594543
 30
0.0
 10
268.7034052497626
 20
40.80746434023187
 30
0.0
 10
268.915344943854
 20
40.85075066461223
 30
0.0
 10
269.0250018719819
 20
40.86807709020972
 30
0.0
 10
269.3563211617101
 20
40.90663008440824
 30
0.0
 10
269.5828082664843
 20
40.91517311483732
 30
0.0
 10
270.0465613319135
 20
40.90225115461602
 30
0.0
 10
270.2805107584183
 20
40.88073762307972
 30
0.0
 10
270.9781968550151
 20
40.77855448699554
 30
0.0
 10
271.4225429541101
 20
40.66426438278199
 30
0.0
 10
272.0536403439444
 20
40.44440977730083
 30
0.0
 10
272.2526415541183
 20
40.36465446001268
 30
0.0
 10
272.53505003354
 20
40.23673037321582
 30
0.0
 10
272.6264847348835
 20
40.19269014705218
 30
0.0
 10
272.8038922107046
 20
40.101858332644
 30
0.0
 10
272.890252199563
 20
40.05483256540838
 30
0.0
 10
273.1372410456037
 20
39.91165425423831
 30
0.0
 10
273.286154566133
 20
39.81344083294583
 30
0.0
 10
273.4864034158681
 20
39.66172528465338
 30
0.0
 10
273.549275481003
 20
39.61041002754567
 30
0.0
 10
273.6670477021406
 20
39.50611210713186
 30
0.0
 10
273.7221498076565
 20
39.45288482453558
 30
0.0
 10
273.8722701926839
 20
39.29318151984927
 30
0.0
 10
273.9530665242227
 20
39.18613924730556
 30
0.0
 10
274.0450392505355
 20
39.02317858517653
 30
0.0
 10
274.0707943678968
 20
38.96845321634166
 30
0.0
 10
274.1120110642543
 20
38.85784417002015
 30
0.0
 10
274.1274594965469
 20
38.80174578207771
 30
0.0
 10
274.1567368752424
 20
38.63480333663777
 30
0.0
 10
274.1542320053874
 20
38.52426355148319
 30
0.0
 10
274.1157563820104
 20
38.35764437993673
 30
0.0
 10
274.0971028745318
 20
38.30197042860272
 30
0.0
 10
274.0472403654686
 20
38.19001240039047
 30
0.0
 10
274.0160077498471
 20
38.13390773423053
 30
0.0
 10
273.9053620772046
 20
37.96887177652187
 30
0.0
 10
273.8085987833651
 20
37.86167282879546
 30
0.0
 10
273.6266909321753
 20
37.70413909393287
 30
0.0
 10
273.5592890879907
 20
37.65179299578528
 30
0.0
 10
273.4145256843657
 20
37.55050004973049
 30
0.0
 10
273.337304125116
 20
37.50154967086329
 30
0.0
 10
273.25535156815
 20
37.45423946675287
 30
0.0
  0
LWPOLYLINE
  5
221
330
1F
100
AcDbEntity
  8
0
  6
Continuous
 62
     7
370
    15
100
AcDbPolyline
 90
       52
 70
   128
 43
0.0
 10
267.4393975111
 20
19.9914871291
 10
267.5023714882
 20
21.2068750662
 10
267.6903398471
 20
22.4765477548
 10
268.0004517486
 20
23.7812575762
 10
268.4280078192
 20
25.1012270427
 10
268.9665260051
 20
26.4164465122
 10
269.6078429888
 20
27.7069785546
 10
270.3422366776
 20
28.9532607939
 10
271.1585750351
 20
30.1363998137
 10
272.044482693
 20
31.2384604975
 10
272.986530447
 20
32.2427366405
 10
273.9704379242
 20
33.134005591
 10
274.9812898322
 20
33.8987557507
 10
276.003762787
 20
34.5253943264
 10
277.0223571616
 20
35.0044222381
 10
278.0216321864
 20
35.3285774447
 10
278.9864397326
 20
35.4929470902
 10
279.9021541027
 20
35.4950378008
 10
280.7548944958
 20
35.3348204604
 10
281.5317343415
 20
35.0147217785
 10
282.2208965593
 20
34.539594043
 10
282.8119349869
 20
33.9166407682
 10
283.2958901262
 20
33.1553050824
 10
283.6654251329
 20
32.2671276983
 10
283.9149384273
 20
31.2655723766
 10
284.0406479884
 20
30.1658222088
 10
284.0406479884
 20
28.9845478611
 10
283.9149384273
 20
27.7396565234
 10
283.6654251329
 20
26.4500192839
 10
283.2958901262
 20
25.1351858628
 10
282.8119349869
 20
23.8150874667
 10
282.2208965593
 20
22.5097357487
 10
281.5317343415
 20
21.2389182533
 10
280.7548944958
 20
20.0218993769
 10
279.9021541027
 20
18.8771289356
 10
278.9864397326
 20
17.8219583388
 10
278.0216321864
 20
16.8723849024
 10
277.0223571616
 20
16.0428017234
 10
276.003762787
 20
15.345785603
 10
274.9812898322
 20
14.7919020331
 10
273.9704379242
 20
14.3895474224
 10
272.986530447
 20
14.1448209801
 10
272.044482693
 20
14.061431938
 10
271.1585750351
 20
14.1406454118
 10
270.3422366776
 20
14.3812602262
 10
269.6078429888
 20
14.7796295608
 10
268.9665260051
 20
15.3297127747
 10
268.4280078192
 20
16.0231723813
 10
268.0004517486
 20
16.8494961163
 10
267.6903398471
 20
17.7961583575
 10
267.5023714882
 20
18.8488073983
 10
267.4393975111
 20
19.9914871291
  0
SPLINE
  5
222
330
1F
100
AcDbEntity
  8
0
  6
Continuous
 62
     7
370
    15
100
AcDbSpline
210
0.0
220
0.0
230
1.0
 70
     8
 71
     3
 72
    18
 73
    14
 74
     0
 42
0.000000001
 43
0.00000001
 40
0.0
 40
0.0
 40
0.0
 40
0.0
 40
0.25
 40
0.25
 40
0.375
 40
0.375
 40
0.5
 40
0.5
 40
0.625
 40
0.625
 40
0.75
 40
0.75
 40
1.0
 40
1.0
 40
1.0
 40
1.0
 10
269.9462944315571
 20
15.25082844872807
 30
0.0
 10
269.8226867720859
 20
15.21132202445086
 30
0.0
 10
269.7014440812624
 20
15.20527150341853
 30
0.0
 10
269.5239595685421
 20
15.24694877065509
 30
0.0
 10
269.4655098722739
 20
15.2696217685807
 30
0.0
 10
269.3539860330853
 20
15.33093920366674
 30
0.0
 10
269.3004071743406
 20
15.36965134346877
 30
0.0
 10
269.1976444209025
 20
15.46320016718561
 30
0.0
 10
269.1480866463023
 20
15.51858628628074
 30
0.0
 10
269.0557079500585
 20
15.64342963653126
 30
0.0
 10
269.0129213623379
 20
15.71260461322582
 30
0.0
 10
268.8943491485184
 20
15.93976671961587
 30
0.0
 10
268.8279426011915
 20
16.11922755876279
 30
0.0
 10
268.7770529435371
 20
16.31802927185269
 30
0.0
  0
LWPOLYLINE
  5
223
330
1F
100
AcDbEntity
  8
0
  6
Continuous
 62
     7
370
    15
100
AcDbPolyline
 90
       13
 70
   128
 43
0.0
 10
281.1606036815
 20
21.7247101664
 10
280.3827766776
 20
20.4808763204
 10
279.5212954233
 20
19.3135928151
 10
278.5910825372
 20
18.2430804795
 10
277.6082514511
 20
17.2878825447
 10
276.5898266105
 20
16.4645457036
 10
275.5534495174
 20
15.7873310201
 10
274.5170724242
 20
15.2679701817
 10
273.4986475837
 20
14.9154587305
 10
272.5158164975
 20
14.7359040471
 10
271.5856036115
 20
14.7324154453
 10
270.7241223572
 20
14.905053866
 10
269.9462953532
 20
15.2508277689
  0
SPLINE
  5
224
330
1F
100
AcDbEntity
  8
0
  6
Continuous
 62
     7
370
    15
100
AcDbSpline
210
0.0
220
0.0
230
1.0
 70
     8
 71
     3
 72
    18
 73
    14
 74
     0
 42
0.000000001
 43
0.00000001
 40
0.0
 40
0.0
 40
0.0
 40
0.0
 40
0.2500000000000002
 40
0.2500000000000002
 40
0.3749999999999999
 40
0.3749999999999999
 40
0.4999999999999997
 40
0.4999999999999997
 40
0.6249999999999994
 40
0.6249999999999994
 40
0.7499999999999991
 40
0.7499999999999991
 40
1.0
 40
1.0
 40
1.0
 40
1.0
 10
282.3298442704756
 20
24.14188916935386
 30
0.0
 10
282.3429800029263
 20
23.9213322620496
 30
0.0
 10
282.3263919738606
 20
23.69849002592466
 30
0.0
 10
282.2567695632816
 20
23.36045785339375
 30
0.0
 10
282.2258121246418
 20
23.247054594756
 30
0.0
 10
282.1505594780899
 20
23.02632230159547
 30
0.0
 10
282.1061117936395
 20
22.91804458195605
 30
0.0
 10
282.003569239511
 20
22.70566251396803
 30
0.0
 10
281.9449139544226
 20
22.60073444604961
 30
0.0
 10
281.8162166108709
 20
22.39992493368445
 30
0.0
 10
281.74643370053
 20
22.30417577933882
 30
0.0
 10
281.5212372364788
 20
22.03049556544679
 30
0.0
 10
281.3482596173072
 20
21.86489914289508
 30
0.0
 10
281.1606027824556
 20
21.72471085924005
 30
0.0
  0
LWPOLYLINE
  5
225
330
1F
100
AcDbEntity
  8
0
  6
Continuous
 62
     7
370
    15
100
AcDbPolyline
 90
        9
 70
   128
 43
0.0
 10
282.3298455042
 20
33.4822506749
 10
282.8110202686
 20
32.6683779107
 10
283.1610643334
 20
31.714147408
 10
283.3736530373
 20
30.6368005949
 10
283.4449457487
 20
29.4558034004
 10
283.3736530373
 20
28.1924933934
 10
283.1610643334
 20
26.8696968873
 10
282.8110202686
 20
25.51131411
 10
282.3298455042
 20
24.141888788
  0
SPLINE
  5
226
330
1F
100
AcDbEntity
  8
0
  6
Continuous
 62
     7
370
    15
100
AcDbSpline
210
0.0
220
0.0
230
1.0
 70
     8
 71
     3
 72
    18
 73
    14
 74
     0
 42
0.000000001
 43
0.00000001
 40
0.0
 40
0.0
 40
0.0
 40
0.0
 40
0.2499999999999989
 40
0.2499999999999989
 40
0.3749999999999991
 40
0.3749999999999991
 40
0.4999999999999992
 40
0.4999999999999992
 40
0.6249999999999994
 40
0.6249999999999994
 40
0.7499999999999996
 40
0.7499999999999996
 40
1.0
 40
1.0
 40
1.0
 40
1.0
 10
281.1606027824556
 20
34.54945179449573
 30
0.0
 10
281.348226981776
 20
34.55200225694778
 30
0.0
 10
281.5176821895636
 20
34.53022028436799
 30
0.0
 10
281.7446852123276
 20
34.45995658976238
 30
0.0
 10
281.8157046036177
 20
34.43002726135601
 30
0.0
 10
281.9437977338295
 20
34.35914457816434
 30
0.0
 10
282.0015375984561
 20
34.31803034079665
 30
0.0
 10
282.1044007762643
 20
34.22442354332509
 30
0.0
 10
282.1498129731967
 20
34.17143061527708
 30
0.0
 10
282.2256009315759
 20
34.05616489413021
 30
0.0
 10
282.2560447278167
 20
33.99411525928971
 30
0.0
 10
282.3256700564003
 20
33.79520958829125
 30
0.0
 10
282.3429822877681
 20
33.64409029448076
 30
0.0
 10
282.3298442704756
 20
33.48225097137111
 30
0.0
  0
LWPOLYLINE
  5
227
330
1F
100
AcDbEntity
  8
0
  6
Continuous
 62
     7
370
    15
100
AcDbPolyline
 90
       13
 70
   128
 43
0.0
 10
269.9462953532
 20
28.0755690258
 10
270.7241223572
 20
29.3194028717
 10
271.5856036115
 20
30.486686377
 10
272.5158164975
 20
31.5571987126
 10
273.4986475837
 20
32.5123966474
 10
274.5170724242
 20
33.3357334885
 10
275.5534495174
 20
34.012948172
 10
276.5898266105
 20
34.5323090104
 10
277.6082514511
 20
34.8848204616
 10
278.5910825372
 20
35.064375145
 10
279.5212954233
 20
35.0678637468
 10
280.3827766776
 20
34.8952253262
 10
281.1606036815
 20
34.5494514232
  0
SPLINE
  5
228
330
1F
100
AcDbEntity
  8
0
  6
Continuous
 62
     7
370
    15
100
AcDbSpline
210
0.0
220
0.0
230
1.0
 70
     8
 71
     3
 72
    18
 73
    14
 74
     0
 42
0.000000001
 43
0.00000001
 40
0.0
 40
0.0
 40
0.0
 40
0.0
 40
0.2500000000000005
 40
0.2500000000000005
 40
0.3750000000000004
 40
0.3750000000000004
 40
0.5000000000000003
 40
0.5000000000000003
 40
0.6250000000000002
 40
0.6250000000000002
 40
0.7500000000000001
 40
0.7500000000000001
 40
1.0
 40
1.0
 40
1.0
 40
1.0
 10
268.7770529435371
 20
25.65839107386995
 30
0.0
 10
268.8279337509355
 20
25.84199201934904
 30
0.0
 10
268.8927342969654
 20
26.03700176186185
 30
0.0
 10
269.0118752175882
 20
26.34644750702373
 30
0.0
 10
269.0554023512498
 20
26.45259443518071
 30
0.0
 10
269.1472242888248
 20
26.66376148023562
 30
0.0
 10
269.1958329791574
 20
26.76963710230938
 30
0.0
 10
269.2984759576557
 20
26.98196119654267
 30
0.0
 10
269.3529856650763
 20
27.0892824555082
 30
0.0
 10
269.4650922707635
 20
27.29966959697701
 30
0.0
 10
269.5225323896246
 20
27.40254409317671
 30
0.0
 10
269.6987819684398
 20
27.70448074246035
 30
0.0
 10
269.8226652716523
 20
27.89841871034849
 30
0.0
 10
269.9462944315571
 20
28.07556938398375
 30
0.0
  0
LWPOLYLINE
  5
229
330
1F
100
AcDbEntity
  8
0
  6
Continuous
 62
     7
370
    15
100
AcDbPolyline
 90
        9
 70
   128
 43
0.0
 10
268.7770535306
 20
16.3180285172
 10
268.2958787662
 20
17.1319012815
 10
267.9458347013
 20
18.0861317841
 10
267.7332459974
 20
19.1634785972
 10
267.6619532861
 20
20.3444757918
 10
267.7332459974
 20
21.6077857988
 10
267.9458347013
 20
22.9305823048
 10
268.2958787662
 20
24.2889650821
 10
268.7770535306
 20
25.6583904041
  0
ARC
  5
22A
330
1F
100
AcDbEntity
  8
0
  6
Continuous
 62
     7
370
    15
100
AcDbCircle
 10
281.4431619099
 20
32.7495186845
 30
0.0
 40
1.821976129509201
100
AcDbArc
 50
98.9216324289
 51
121.0578987032
  0
LINE
  5
22B
330
1F
100
AcDbEntity
  8
0
  6
Continuous
 62
     7
370
    15
100
AcDbLine
 10
278.806284675
 20
33.3307012727
 30
0.0
 11
280.5031971385
 21
34.3103079864
 31
0.0
  0
LWPOLYLINE
  5
22C
330
1F
100
AcDbEntity
  8
0
  6
Continuous
 62
     7
370
    15
100
AcDbPolyline
 90
        9
 70
   128
 43
0.0
 10
272.3006143598
 20
29.5750577409
 10
273.0644403782
 20
30.4480149585
 10
273.8703534823
 20
31.2271633231
 10
274.7047259166
 20
31.8993276682
 10
275.5534495174
 20
32.4531422033
 10
276.4021731182
 20
32.8792430796
 10
277.2365455524
 20
33.1704246417
 10
278.0424586565
 20
33.321763741
 10
278.806284675
 20
33.3307012727
  0
LINE
  5
22D
330
1F
100
AcDbEntity
  8
0
  6
Continuous
 62
     7
370
    15
100
AcDbLine
 10
270.6037018963
 20
28.5954510272
 30
0.0
 11
272.3006143598
 21
29.5750577409
 31
0.0
  0
ARC
  5
22E
330
1F
100
AcDbEntity
  8
0
  6
Continuous
 62
     7
370
    15
100
AcDbCircle
 10
272.1924385622
 20
25.9108491279
 30
0.0
 40
3.119482577506246
100
AcDbArc
 50
120.6168768957
 51
136.0575441067
  0
ARC
  5
22F
330
1F
100
AcDbEntity
  8
0
  6
Continuous
 62
     7
370
    15
100
AcDbCircle
 10
280.1851835487
 20
22.0682710416
 30
0.0
 40
11.60274756160377
100
AcDbArc
 50
145.8319707615
 51
177.8003152956
  0
LWPOLYLINE
  5
230
330
1F
100
AcDbEntity
  8
0
  6
Continuous
 62
     7
370
    15
100
AcDbPolyline
 90
       31
 70
   128
 43
0.0
 10
276.3841838225
 20
32.8715474587
 10
276.9133607192
 20
32.8665666778
 10
277.5985130595
 20
32.7226733796
 10
278.2063907994
 20
32.4222747536
 10
278.7234147512
 20
31.9720812579
 10
279.1380360198
 20
31.3821497671
 10
279.440992506
 20
30.6656578808
 10
279.6255163478
 20
29.8386112214
 10
279.6874857153
 20
28.9194843857
 10
279.6255163478
 20
27.9288092413
 10
279.440992506
 20
26.8887158889
 10
279.1380360198
 20
25.8224378891
 10
278.7234147512
 20
24.7537948712
 10
278.2063907994
 20
23.7066582271
 10
277.5985130595
 20
22.7044189018
 10
276.9133607192
 20
21.7694655497
 10
276.1662390115
 20
20.9226836084
 10
275.3738374297
 20
20.1829887869
 10
274.5538569506
 20
19.5669042591
 10
273.7246144958
 20
19.0881927795
 10
272.9046340167
 20
18.7575479979
 10
272.1122324349
 20
18.582355427
 10
271.3651107271
 20
18.5665290056
 10
270.6799583869
 20
18.7104223038
 10
270.072080647
 20
19.0108209298
 10
269.5550566952
 20
19.4610144255
 10
269.1404354266
 20
20.0509459164
 10
268.8374789404
 20
20.7674378026
 10
268.6529550986
 20
21.594484462
 10
268.5909857311
 20
22.5136112977
 10
268.5909857311
 20
22.5136112977
  0
LINE
  5
231
330
1F
100
AcDbEntity
  8
0
  6
Continuous
 62
     7
370
    15
100
AcDbLine
 10
269.1894881021
 20
16.3063794514
 30
0.0
 11
270.8864005656
 21
17.285986165
 31
0.0
  0
LINE
  5
232
330
1F
100
AcDbEntity
  8
0
  6
Continuous
 62
     7
370
    15
100
AcDbLine
 10
268.8292935615
 20
16.1395876534
 30
0.0
 11
269.1894881021
 21
16.3063794514
 31
0.0
  0
ARC
  5
233
330
1F
100
AcDbEntity
  8
0
  6
Continuous
 62
     7
370
    15
100
AcDbCircle
 10
278.5377268458
 20
34.0341262333
 30
0.0
 40
2.392071943285705
100
AcDbArc
 50
346.7587053596
 51
10.8660999187
  0
LWPOLYLINE
  5
234
330
1F
100
AcDbEntity
  8
0
  6
Continuous
 62
     7
370
    15
100
AcDbPolyline
 90
        9
 70
   128
 43
0.0
 10
280.8662033349
 20
25.7136709825
 10
281.2104324517
 20
26.8373351526
 10
281.4596671819
 20
27.945942516
 10
281.6105601435
 20
29.0246004813
 10
281.6610843367
 20
30.0588186185
 10
281.6105601435
 20
31.0347027638
 10
281.4596671819
 20
31.9391434239
 10
281.2104324517
 20
32.759990493
 10
280.8662033349
 20
33.4862161846
  0
ARC
  5
235
330
1F
100
AcDbEntity
  8
0
  6
Continuous
 62
     7
370
    15
100
AcDbCircle
 10
277.1257996071
 20
25.2400615875
 30
0.0
 40
3.770268678167484
100
AcDbArc
 50
301.3793039235
 51
7.2163813133
  0
LINE
  5
236
330
1F
100
AcDbEntity
  8
0
  6
Continuous
 62
     7
370
    15
100
AcDbLine
 10
277.3920708808
 20
21.0416296969
 30
0.0
 11
279.0889833443
 21
22.0212364105
 31
0.0
  0
LWPOLYLINE
  5
237
330
1F
100
AcDbEntity
  8
0
  6
Continuous
 62
     7
370
    15
100
AcDbPolyline
 90
        9
 70
   128
 43
0.0
 10
277.3920708808
 20
21.0416296969
 10
276.6282448623
 20
20.1686724793
 10
275.8223317583
 20
19.3895241146
 10
274.987959324
 20
18.7173597696
 10
274.1392357232
 20
18.1635452344
 10
273.2905121224
 20
17.7374443582
 10
272.4561396881
 20
17.446262796
 10
271.6502265841
 20
17.2949236967
 10
270.8864005656
 20
17.285986165
  0
ARC
  5
238
330
1F
100
AcDbEntity
  8
0
  6
Continuous
 62
     7
370
    15
100
AcDbCircle
 10
271.4750564745
 20
16.5616091062
 30
0.0
 40
2.70897607752588
100
AcDbArc
 50
167.878141614
 51
185.1587809378
  0
LWPOLYLINE
  5
239
330
1F
100
AcDbEntity
  8
0
  6
Continuous
 62
     7
370
    15
100
AcDbPolyline
 90
        9
 70
   128
 43
0.0
 10
268.8264819057
 20
17.1304712532
 10
268.4822527888
 20
17.8566969447
 10
268.2330180587
 20
18.6775440138
 10
268.0821250971
 20
19.581984674
 10
268.0316009039
 20
20.5578688193
 10
268.0821250971
 20
21.5920869565
 10
268.2330180587
 20
22.6707449218
 10
268.4822527888
 20
23.7793522851
 10
268.8264819057
 20
24.9030164553
  0
ARC
  5
23A
330
1F
100
AcDbEntity
  8
0
  6
Continuous
 62
     7
370
    15
100
AcDbCircle
 10
270.9470200785
 20
25.4210793834
 30
0.0
 40
2.182904335875627
100
AcDbArc
 50
173.7588441556
 51
193.7288526262
  0
LWPOLYLINE
  5
23B
330
1F
100
AcDbEntity
  8
0
  6
Continuous
 62
     7
370
    15
100
AcDbPolyline
 90
       27
 70
   128
 43
0.0
 10
276.2335228331
 20
32.8048043038
 10
276.5976719336
 20
32.7659407092
 10
277.2433919458
 20
32.5703198624
 10
277.8064089753
 20
32.2197934507
 10
278.2735261193
 20
31.7225770423
 10
278.6337944169
 20
31.0903251882
 10
278.8787696812
 20
30.3378573458
 10
279.0027097332
 20
29.4828106141
 10
279.0027097332
 20
28.54522679
 10
278.8787696812
 20
27.5470819202
 10
278.6337944169
 20
26.5117716581
 10
278.2735261193
 20
25.4635628815
 10
277.8064089753
 20
24.4270244984
 10
277.2433919458
 20
23.4264524611
 10
276.5976719336
 20
22.4852991573
 10
275.8843837731
 20
21.6256242904
 10
275.1202464277
 20
20.8675777027
 10
274.3231704558
 20
20.2289279016
 10
273.511838827
 20
19.7246444025
 10
272.7052683926
 20
19.366546472
 10
271.9223645044
 20
19.1630281437
 10
271.181477896
 20
19.1188594457
 10
270.4999738923
 20
19.2350757349
 10
269.8938268074
 20
19.5089530552
 10
269.3772444097
 20
19.9340719566
 10
268.9623340401
 20
20.5004680987
 10
268.8639356368
 20
20.6863664018
  0
ARC
  5
23C
330
1F
100
AcDbEntity
  8
0
  6
Continuous
 62
     7
370
    15
100
AcDbCircle
 10
269.6637371249
 20
17.0507605077
 30
0.0
 40
1.821976129509784
100
AcDbArc
 50
278.9216324289
 51
301.0578987032
  0
ARC
  5
23D
330
1F
100
AcDbEntity
  8
0
  6
Continuous
 62
     7
370
    15
100
AcDbCircle
 10
279.6318425603
 20
33.238670086
 30
0.0
 40
2.70897607752757
100
AcDbArc
 50
347.8781416141
 51
5.1587809378
  0
LINE
  5
23E
330
1F
100
AcDbEntity
  8
0
  6
Continuous
 62
     7
370
    15
100
AcDbLine
 10
280.8662033349
 20
33.4862161846
 30
0.0
 11
282.2804171291
 21
32.6698079389
 31
0.0
  0
LWPOLYLINE
  5
23F
330
1F
100
AcDbEntity
  8
0
  6
Continuous
 62
     7
370
    15
100
AcDbPolyline
 90
        9
 70
   128
 43
0.0
 10
278.806284675
 20
20.2252214512
 10
278.0424586565
 20
19.3522642337
 10
277.2365455524
 20
18.573115869
 10
276.4021731182
 20
17.9009515239
 10
275.5534495174
 20
17.3471369888
 10
274.7047259166
 20
16.9210361125
 10
273.8703534823
 20
16.6298545504
 10
273.0644403782
 20
16.4785154511
 10
272.3006143598
 20
16.4695779194
  0
LINE
  5
240
330
1F
100
AcDbEntity
  8
0
  6
Continuous
 62
     7
370
    15
100
AcDbLine
 10
280.5031971385
 20
21.2048281649
 30
0.0
 11
278.806284675
 21
20.2252214512
 31
0.0
  0
ARC
  5
241
330
1F
100
AcDbEntity
  8
0
  6
Continuous
 62
     7
370
    15
100
AcDbCircle
 10
278.9144604725
 20
23.8894300642
 30
0.0
 40
3.119482577507519
100
AcDbArc
 50
300.6168768957
 51
316.0575441067
  0
LINE
  5
242
330
1F
100
AcDbEntity
  8
0
  6
Continuous
 62
     7
370
    15
100
AcDbLine
 10
272.3006143598
 20
16.4695779194
 30
0.0
 11
270.6037018963
 21
15.4899712057
 31
0.0
  0
LINE
  5
243
330
1F
100
AcDbEntity
  8
0
  6
Continuous
 62
     7
370
    15
100
AcDbLine
 10
270.8864005656
 20
17.285986165
 30
0.0
 11
272.3006143598
 21
16.4695779194
 31
0.0
  0
SPLINE
  5
244
330
1F
100
AcDbEntity
  8
0
  6
Continuous
 62
     7
370
    15
100
AcDbSpline
210
0.0
220
0.0
230
1.0
 70
     8
 71
     3
 72
    12
 73
     8
 74
     0
 42
0.000000001
 43
0.00000001
 40
0.0
 40
0.0
 40
0.0
 40
0.0
 40
0.2499999999999992
 40
0.2499999999999992
 40
0.4999999999999984
 40
0.4999999999999984
 40
1.0
 40
1.0
 40
1.0
 40
1.0
 10
223.6414661285744
 20
41.42826438748327
 30
0.0
 10
223.6753976208639
 20
41.40867615393179
 30
0.0
 10
223.7138293298912
 20
41.38148896499539
 30
0.0
 10
223.7880061825562
 20
41.32226503745956
 30
0.0
 10
223.8232224628116
 20
41.2908323584428
 30
0.0
 10
223.9183213800696
 20
41.19883964164081
 30
0.0
 10
223.9668505368315
 20
41.14198297611617
 30
0.0
 10
224.0001921329865
 20
41.09375417011383
 30
0.0
  0
ARC
  5
245
330
1F
100
AcDbEntity
  8
0
  6
Continuous
 62
     7
370
    15
100
AcDbCircle
 10
247.7167588889
 20
56.6987832924
 30
0.0
 40
10.8694292853626
100
AcDbArc
 50
73.9805689162
 51
106.2233053919
  0
SPLINE
  5
246
330
1F
100
AcDbEntity
  8
0
  6
Continuous
 62
     7
370
    15
100
AcDbSpline
210
0.0
220
0.0
230
1.0
 70
     8
 71
     3
 72
    12
 73
     8
 74
     0
 42
0.000000001
 43
0.00000001
 40
0.0
 40
0.0
 40
0.0
 40
0.0
 40
0.5
 40
0.5
 40
0.75
 40
0.75
 40
1.0
 40
1.0
 40
1.0
 40
1.0
 10
250.9284549521849
 20
66.71257010832514
 30
0.0
 10
250.9284549521849
 20
66.78525310551794
 30
0.0
 10
250.9114381841146
 20
66.86883595225824
 30
0.0
 10
250.8570273582332
 20
66.99028013013391
 30
0.0
 10
250.8338821393114
 20
67.02999500781527
 30
0.0
 10
250.7796013274541
 20
67.09872477968106
 30
0.0
 10
250.7483653588966
 20
67.12763437558672
 30
0.0
 10
250.7163229178288
 20
67.14613208308033
 30
0.0
  0
LWPOLYLINE
  5
247
330
1F
100
AcDbEntity
  8
0
  6
Continuous
 62
     7
370
    15
100
AcDbPolyline
 90
       17
 70
   128
 43
0.0
 10
224.0803681
 20
41.4577208699
 10
224.4543186476
 20
42.9497265212
 10
225.0245444345
 20
44.8221683967
 10
225.7067148852
 20
46.6974271692
 10
226.4958514033
 20
48.5618248598
 10
227.386202261
 20
50.4017679734
 10
228.3712728924
 20
52.2038372309
 10
229.4438805525
 20
53.9548921273
 10
230.5962023911
 20
55.6421618025
 10
231.8198353803
 20
57.2533427556
 10
233.105856242
 20
58.7766843906
 10
234.4448866439
 20
60.2010783655
 10
235.827161688
 20
61.5161376735
 10
237.2426013628
 20
62.7122713517
 10
238.6808829831
 20
63.7807567189
 10
240.1315181164
 20
64.7138020344
 10
240.5733775884
 20
64.9695543273
  0
LWPOLYLINE
  5
248
330
1F
100
AcDbEntity
  8
0
  6
Continuous
 62
     7
370
    15
100
AcDbPolyline
 90
       12
 70
   128
 43
0.0
 10
233.6524271102
 20
62.2702589105
 10
235.1027841319
 20
63.5428622212
 10
236.5804160915
 20
64.6840112584
 10
238.0741418499
 20
65.6850702803
 10
239.5726583549
 20
66.538464735
 10
241.0646260875
 20
67.2377381921
 10
242.5387552489
 20
67.7775960138
 10
243.9838906712
 20
68.1539558938
 10
245.3890972228
 20
68.363968263
 10
246.743741715
 20
68.4060438011
 10
248.0375729146
 20
68.2798661668
 10
249.2608008989
 20
67.986387618
  0
LINE
  5
249
330
1F
100
AcDbEntity
  8
0
  6
Continuous
 62
     7
370
    15
100
AcDbLine
 10
250.7163228852
 20
67.1461326607
 30
0.0
 11
249.2608008989
 21
67.986387618
 31
0.0
  0
LINE
  5
24A
330
1F
100
AcDbEntity
  8
0
  6
Continuous
 62
     7
370
    15
100
AcDbLine
 10
222.1859439798
 20
42.26851953
 30
0.0
 11
223.6414659661
 21
41.4282645726
 31
0.0
  0
ARC
  5
24B
330
1F
100
AcDbEntity
  8
0
  6
Continuous
 62
     7
370
    15
100
AcDbCircle
 10
261.5186678515
 20
33.037418665
 30
0.0
 40
40.401440448839
100
AcDbArc
 50
136.9528122493
 51
166.7921386576
  0
SPLINE
  5
24C
330
1F
100
AcDbEntity
  8
0
  6
Continuous
 62
     7
370
    15
100
AcDbSpline
210
0.0
220
0.0
230
1.0
 70
     8
 71
     3
 72
    34
 73
    30
 74
     0
 42
0.000000001
 43
0.00000001
 40
0.0
 40
0.0
 40
0.0
 40
0.0
 40
0.062499999999999
 40
0.062499999999999
 40
0.124999999999998
 40
0.124999999999998
 40
0.1874999999999971
 40
0.1874999999999971
 40
0.2499999999999966
 40
0.2499999999999966
 40
0.3124999999999962
 40
0.3124999999999962
 40
0.3749999999999957
 40
0.3749999999999957
 40
0.4999999999999958
 40
0.4999999999999958
 40
0.6249999999999958
 40
0.6249999999999958
 40
0.6874999999999964
 40
0.6874999999999964
 40
0.7499999999999971
 40
0.7499999999999971
 40
0.8124999999999979
 40
0.8124999999999979
 40
0.8749999999999986
 40
0.8749999999999986
 40
0.9374999999999992
 40
0.9374999999999992
 40
1.0
 40
1.0
 40
1.0
 40
1.0
 10
231.9936277431066
 20
60.6154612785156
 30
0.0
 10
232.0527531567499
 20
60.58588379465736
 30
0.0
 10
232.1155658521804
 20
60.56220777246183
 30
0.0
 10
232.248274855105
 20
60.52612826204209
 30
0.0
 10
232.3188865514762
 20
60.51368037190284
 30
0.0
 10
232.4641345214535
 20
60.50097047817746
 30
0.0
 10
232.5381169512157
 20
60.50062829828013
 30
0.0
 10
232.6887990160405
 20
60.51163464310275
 30
0.0
 10
232.7662470358406
 20
60.52322130708824
 30
0.0
 10
232.9181796218157
 20
60.55739584982703
 30
0.0
 10
232.9931357024003
 20
60.57990825221702
 30
0.0
 10
233.1410707693089
 20
60.63572032481508
 30
0.0
 10
233.2139994823993
 20
60.66916517102138
 30
0.0
 10
233.4206120084093
 20
60.7815274303407
 30
0.0
 10
233.5475371844585
 20
60.87556483136143
 30
0.0
 10
233.7566439370854
 20
61.08416614653733
 30
0.0
 10
233.8411923202833
 20
61.20109024068105
 30
0.0
 10
233.9261658770574
 20
61.3796154906537
 30
0.0
 10
233.9481255776553
 20
61.44083206958037
 30
0.0
 10
233.9772366743951
 20
61.56163805209421
 30
0.0
 10
233.9845911371749
 20
61.62123857853938
 30
0.0
 10
233.9849340722192
 20
61.73897986867264
 30
0.0
 10
233.9776940293839
 20
61.79743125680974
 30
0.0
 10
233.9490821788619
 20
61.90819388120119
 30
0.0
 10
233.9277988373024
 20
61.96110632592383
 30
0.0
 10
233.8709706706954
 20
62.06202453323309
 30
0.0
 10
233.8355131817215
 20
62.10953954786418
 30
0.0
 10
233.7531082288349
 20
62.19579952574761
 30
0.0
 10
233.7059033262591
 20
62.23504507816768
 30
0.0
 10
233.6524271803702
 20
62.2702582062813
 30
0.0
  0
LINE
  5
24D
330
1F
100
AcDbEntity
  8
0
  6
Continuous
 62
     7
370
    15
100
AcDbLine
 10
256.6383541789
 20
59.8432665521
 30
0.0
 11
256.7426360188
 21
60.0238883768
 31
0.0
  0
LINE
  5
24E
330
1F
100
AcDbEntity
  8
0
  6
Continuous
 62
     7
370
    15
100
AcDbLine
 10
254.3402458974
 20
58.5165968801
 30
0.0
 11
256.6383541789
 21
59.8432665521
 31
0.0
  0
ARC
  5
24F
330
1F
100
AcDbEntity
  8
0
  6
Continuous
 62
     7
370
    15
100
AcDbCircle
 10
255.168348995
 20
57.2219945971
 30
0.0
 40
1.536798559128206
100
AcDbArc
 50
122.6053519586
 51
177.394632491
  0
LINE
  5
250
330
1F
100
AcDbEntity
  8
0
  6
Continuous
 62
     7
370
    15
100
AcDbLine
 10
253.6331390003
 20
53.4311684541
 30
0.0
 11
253.6331390003
 21
57.2918521918
 31
0.0
  0
LINE
  5
251
330
1F
100
AcDbEntity
  8
0
  6
Continuous
 62
     7
370
    15
100
AcDbLine
 10
224.0456996829
 20
30.5353785079
 30
0.0
 11
224.0001916232
 21
30.4170098849
 31
0.0
  0
LINE
  5
252
330
1F
100
AcDbEntity
  8
0
  6
Continuous
 62
     7
370
    15
100
AcDbLine
 10
224.0456996829
 20
30.5353785079
 30
0.0
 11
227.1873442101
 21
32.3490112893
 31
0.0
  0
ARC
  5
253
330
1F
100
AcDbEntity
  8
0
  6
Continuous
 62
     7
370
    15
100
AcDbCircle
 10
226.3592411125
 20
33.6436135722
 30
0.0
 40
1.536798559128175
100
AcDbArc
 50
302.6053519586
 51
357.394632491
  0
LINE
  5
254
330
1F
100
AcDbEntity
  8
0
  6
Continuous
 62
     7
370
    15
100
AcDbLine
 10
227.8944511072
 20
42.4332239459
 30
0.0
 11
227.8944511072
 21
33.5737559776
 31
0.0
  0
ARC
  5
255
330
1F
100
AcDbEntity
  8
0
  6
Continuous
 62
     7
370
    15
100
AcDbCircle
 10
227.4633776242
 20
42.5031524929
 30
0.0
 40
0.4367085406722903
100
AcDbArc
 50
350.7857695821
 51
129.2035248725
  0
LINE
  5
256
330
1F
100
AcDbEntity
  8
0
  6
Continuous
 62
     7
370
    15
100
AcDbLine
 10
227.1873442101
 20
42.8415603886
 30
0.0
 11
224.0456996829
 21
41.0279276073
 31
0.0
  0
LINE
  5
257
330
1F
100
AcDbEntity
  8
0
  6
Continuous
 62
     7
370
    15
100
AcDbLine
 10
224.0001916232
 20
41.093753743
 30
0.0
 11
224.0456996829
 21
41.0279276073
 31
0.0
  0
LINE
  5
258
330
1F
100
AcDbEntity
  8
0
  6
Continuous
 62
     7
370
    15
100
AcDbLine
 10
250.9284552177
 20
63.4876093227
 30
0.0
 11
250.9284552177
 21
66.7125704657
 31
0.0
  0
LINE
  5
259
330
1F
100
AcDbEntity
  8
0
  6
Continuous
 62
     7
370
    15
100
AcDbLine
 10
253.7212022061
 20
65.0998278421
 30
0.0
 11
250.9284552177
 21
63.4876093227
 31
0.0
  0
LINE
  5
25A
330
1F
100
AcDbEntity
  8
0
  6
Continuous
 62
     7
370
    15
100
AcDbLine
 10
278.806284675
 20
20.2252214512
 30
0.0
 11
277.3920708808
 21
21.0416296969
 31
0.0
  0
ARC
  5
25B
330
1F
100
AcDbEntity
  8
0
  6
Continuous
 62
     7
370
    15
100
AcDbCircle
 10
280.1598789563
 20
24.3791998088
 30
0.0
 40
2.182904335876861
100
AcDbArc
 50
353.7588441556
 51
13.7288526261
  0
LWPOLYLINE
  5
25C
330
1F
100
AcDbEntity
  8
0
  6
Continuous
 62
     7
370
    15
100
AcDbPolyline
 90
        9
 70
   128
 43
0.0
 10
282.2804171291
 20
32.6698079389
 10
282.6246462459
 20
31.9435822474
 10
282.873880976
 20
31.1227351783
 10
283.0247739377
 20
30.2182945182
 10
283.0752981309
 20
29.2424103728
 10
283.0247739377
 20
28.2081922357
 10
282.873880976
 20
27.1295342703
 10
282.6246462459
 20
26.020926907
 10
282.2804171291
 20
24.8972627368
  0
LINE
  5
25D
330
1F
100
AcDbEntity
  8
0
  6
Continuous
 62
     7
370
    15
100
AcDbLine
 10
280.8662033349
 20
25.7136709825
 30
0.0
 11
282.2804171291
 21
24.8972627368
 31
0.0
  0
SPLINE
  5
25E
330
1F
100
AcDbEntity
  8
0
  6
Continuous
 62
     7
370
    15
100
AcDbSpline
210
0.0
220
0.0
230
1.0
 70
     8
 71
     3
 72
     8
 73
     4
 74
     0
 42
0.000000001
 43
0.00000001
 40
0.0
 40
0.0
 40
0.0
 40
0.0
 40
1.0
 40
1.0
 40
1.0
 40
1.0
 10
221.1133896563459
 20
43.36003331501475
 30
0.0
 10
220.8263225266736
 20
43.3125813152914
 30
0.0
 10
220.5392094080881
 20
43.26522388258861
 30
0.0
 10
220.2520545816905
 20
43.21795221367654
 30
0.0
  0
SPLINE
  5
25F
330
1F
100
AcDbEntity
  8
0
  6
Continuous
 62
     7
370
    15
100
AcDbSpline
210
0.0
220
0.0
230
1.0
 70
     8
 71
     3
 72
     8
 73
     4
 74
     0
 42
0.000000001
 43
0.00000001
 40
0.0
 40
0.0
 40
0.0
 40
0.0
 40
0.0011862984959113
 40
0.0011862984959113
 40
0.0011862984959113
 40
0.0011862984959113
 10
219.899753494415
 20
43.58830911333872
 30
0.0
 10
220.0174643622595
 20
43.46475916222627
 30
0.0
 10
220.1349041126956
 20
43.34130411311099
 30
0.0
 10
220.2520545816905
 20
43.21795221367654
 30
0.0
  0
LWPOLYLINE
  5
260
330
1F
100
AcDbEntity
  8
0
  6
Continuous
 62
     7
370
    15
100
AcDbPolyline
 90
       23
 70
   128
 43
0.0
 10
219.8997537075
 20
43.5883090816
 10
220.3945550749
 20
45.5347233169
 10
221.0142783841
 20
47.4963848986
 10
221.7540951869
 20
49.4580025116
 10
222.6082379505
 20
51.4042868302
 10
223.5700474727
 20
53.3200657237
 10
224.6320282001
 20
55.1904074461
 10
225.7859022281
 20
57.0007308982
 10
227.0226751559
 20
58.736928056
 10
228.3327058918
 20
60.3854635846
 10
229.7057837033
 20
61.9334877599
 10
231.1312052665
 20
63.368934181
 10
232.5978599477
 20
64.6806131086
 10
234.0943159081
 20
65.8583022373
 10
235.6089079373
 20
66.8928202151
 10
237.1298304726
 20
67.7761031554
 10
238.6452280663
 20
68.5012659891
 10
240.1432887351
 20
69.0626578744
 10
241.6123352499
 20
69.4559012089
 10
243.0409168389
 20
69.677930881
 10
244.4178971852
 20
69.7270161713
 10
245.7325443181
 20
69.6027761445
 10
246.9746106266
 20
69.3061771697
  0
LINE
  5
261
330
1F
100
AcDbEntity
  8
0
  6
Continuous
 62
     7
370
    15
100
AcDbLine
 10
247.2850547638
 20
68.3293470387
 30
0.0
 11
246.9746106266
 21
69.3061771697
 31
0.0
  0
LWPOLYLINE
  5
262
330
1F
100
AcDbEntity
  8
0
  6
Continuous
 62
     7
370
    15
100
AcDbPolyline
 90
       22
 70
   128
 43
0.0
 10
221.1133896618
 20
43.3600332893
 10
221.5878986387
 20
45.2569619259
 10
222.1873427284
 20
47.1699253668
 10
222.9068263109
 20
49.0833041637
 10
223.7404738523
 20
50.981473637
 10
224.6814799536
 20
52.8489369518
 10
225.7221607174
 20
54.6704452669
 10
226.8540182854
 20
56.4311262465
 10
228.0678113026
 20
58.1166030659
 10
229.3536293326
 20
59.7131134175
 10
230.7009738589
 20
61.207623192
 10
232.0988422491
 20
62.5879281825
 10
233.5358219269
 20
63.8427571184
 10
235.0001796049
 20
64.9618657645
 10
236.479958296
 20
65.9361172591
 10
237.9630757256
 20
66.7575541354
 10
239.4374218773
 20
67.4194713639
 10
240.8909586812
 20
67.9164647753
 10
242.311817848
 20
68.2444738508
 10
243.6883981284
 20
68.4008226596
 10
245.0094588263
 20
68.3842327776
 10
245.3044209114
 20
68.3559265274
  0
LINE
  5
263
330
1F
100
AcDbEntity
  8
0
  6
Continuous
 62
     7
370
    15
100
AcDbLine
 10
218.4619090315
 20
44.418359145
 30
0.0
 11
219.8997537075
 21
43.5883090816
 31
0.0
  0
ARC
  5
264
330
1F
100
AcDbEntity
  8
0
  6
Continuous
 62
     7
370
    15
100
AcDbCircle
 10
242.5372070863
 20
59.6889169366
 30
0.0
 40
10.86939031458841
100
AcDbArc
 50
73.9805380809
 51
106.2228094608
  0
LINE
  5
265
330
1F
100
AcDbEntity
  8
0
  6
Continuous
 62
     7
370
    15
100
AcDbLine
 10
246.9746106266
 20
69.3061771697
 30
0.0
 11
245.5367659506
 21
70.1362272331
 31
0.0
  0
LINE
  5
266
330
1F
100
AcDbEntity
  8
0
  6
Continuous
 62
     7
370
    15
100
AcDbLine
 10
222.3659804994
 20
43.0336912878
 30
0.0
 11
221.7398768817
 21
43.3951332128
 31
0.0
  0
SPLINE
  5
267
330
1F
100
AcDbEntity
  8
0
  6
Continuous
 62
     7
370
    15
100
AcDbSpline
210
0.0
220
0.0
230
1.0
 70
     8
 71
     3
 72
    11
 73
     7
 74
     0
 42
0.000000001
 43
0.00000001
 40
0.0
 40
0.0
 40
0.0
 40
0.0
 40
0.3165694752064712
 40
0.6331520400060429
 40
0.9494411625907934
 40
1.0
 40
1.0
 40
1.0
 40
1.0
 10
232.9604031872838
 20
61.37777996076847
 30
0.0
 10
232.8268130070801
 20
61.33060129784841
 30
0.0
 10
232.5596271229528
 20
61.23624202125325
 30
0.0
 10
232.2436769237541
 20
60.97642632206005
 30
0.0
 10
232.0629742327974
 20
60.75323493658757
 30
0.0
 10
232.0280392692474
 20
60.62448575908977
 30
0.0
 10
232.0232245467066
 20
60.60674159954262
 30
0.0
  0
SPLINE
  5
268
330
1F
100
AcDbEntity
  8
0
  6
Continuous
 62
     7
370
    15
100
AcDbSpline
210
0.0
220
0.0
230
1.0
 70
     8
 71
     3
 72
    14
 73
    10
 74
     0
 42
0.000000001
 43
0.00000001
 40
0.0
 40
0.0
 40
0.0
 40
0.0
 40
0.25
 40
0.25
 40
0.5
 40
0.5
 40
0.75
 40
0.75
 40
1.0
 40
1.0
 40
1.0
 40
1.0
 10
221.7398767690796
 20
43.3951333822468
 30
0.0
 10
221.7022427756216
 20
43.41685902422684
 30
0.0
 10
221.6564688189324
 20
43.43407078533834
 30
0.0
 10
221.5565329414225
 20
43.45647611897084
 30
0.0
 10
221.5020990725826
 20
43.46165100257066
 30
0.0
 10
221.3958834220906
 20
43.4597088082559
 30
0.0
 10
221.3425671221405
 20
43.45262040533768
 30
0.0
 10
221.2450740548398
 20
43.42788696905299
 30
0.0
 10
221.2001623643102
 20
43.41012613306695
 30
0.0
 10
221.1624090987102
 20
43.38833163674495
 30
0.0
  0
LINE
  5
269
330
1F
100
AcDbEntity
  8
0
  6
Continuous
 62
     7
370
    15
100
AcDbLine
 10
221.1624090808
 20
43.3883315976
 30
0.0
 11
221.1133896618
 21
43.3600332893
 31
0.0
  0
SPLINE
  5
26A
330
1F
100
AcDbEntity
  8
0
  6
Continuous
 62
     7
370
    15
100
AcDbSpline
210
0.0
220
0.0
230
1.0
 70
     8
 71
     3
 72
    10
 73
     6
 74
     0
 42
0.000000001
 43
0.00000001
 40
0.0
 40
0.0
 40
0.0
 40
0.0
 40
0.5
 40
0.5
 40
1.0
 40
1.0
 40
1.0
 40
1.0
 10
218.35989646606
 20
44.44780732392344
 30
0.0
 10
218.3672127504823
 20
44.45217532381663
 30
0.0
 10
218.3790366106907
 20
44.45270737640489
 30
0.0
 10
218.4131879749685
 20
44.44347732676658
 30
0.0
 10
218.4354449383613
 20
44.43363644945028
 30
0.0
 10
218.4619089563829
 20
44.41835909703396
 30
0.0
  0
ARC
  5
26B
330
1F
100
AcDbEntity
  8
0
  6
Continuous
 62
     7
370
    15
100
AcDbCircle
 10
258.1802702791
 20
34.9391846065
 30
0.0
 40
40.92045494687287
100
AcDbArc
 50
143.5835897407
 51
160.8037648338
  0
SPLINE
  5
26C
330
1F
100
AcDbEntity
  8
0
  6
Continuous
 62
     7
370
    15
100
AcDbSpline
210
0.0
220
0.0
230
1.0
 70
     8
 71
     3
 72
    14
 73
    10
 74
     0
 42
0.000000001
 43
0.00000001
 40
0.0
 40
0.0
 40
0.0
 40
0.0
 40
0.25
 40
0.25
 40
0.5
 40
0.5
 40
0.75
 40
0.75
 40
1.0
 40
1.0
 40
1.0
 40
1.0
 10
233.3774820423095
 20
61.68423176990672
 30
0.0
 10
233.3923229344387
 20
61.64571375107112
 30
0.0
 10
233.3916891665347
 20
61.60779511291766
 30
0.0
 10
233.3587535615743
 20
61.54185416314838
 30
0.0
 10
233.3266177162323
 20
61.51358060560642
 30
0.0
 10
233.2417151408279
 20
61.46566157941892
 30
0.0
 10
233.1892982283348
 20
61.44578448197118
 30
0.0
 10
233.0779625640396
 20
61.4099275559548
 30
0.0
 10
233.0198078873287
 20
61.39405553227137
 30
0.0
 10
232.9604029315973
 20
61.37778018671664
 30
0.0
  0
LINE
  5
26D
330
1F
100
AcDbEntity
  8
0
  6
Continuous
 62
     7
370
    15
100
AcDbLine
 10
233.3613550475
 20
61.7260876125
 30
0.0
 11
233.377482144
 21
61.6842321229
 31
0.0
  0
SPLINE
  5
26E
330
1F
100
AcDbEntity
  8
0
  6
Continuous
 62
     7
370
    15
100
AcDbSpline
210
0.0
220
0.0
230
1.0
 70
     8
 71
     3
 72
    10
 73
     6
 74
     0
 42
0.000000001
 43
0.00000001
 40
0.0
 40
0.0
 40
0.0
 40
0.0
 40
0.5
 40
0.5
 40
1.0
 40
1.0
 40
1.0
 40
1.0
 10
233.6524271803702
 20
62.2702582062813
 30
0.0
 10
233.6244121306323
 20
62.19823210359327
 30
0.0
 10
233.5865942421825
 20
62.11728561828982
 30
0.0
 10
233.4906184943476
 20
61.9368905819499
 30
0.0
 10
233.4325867170479
 20
61.83756437497511
 30
0.0
 10
233.3613549794578
 20
61.72608791341104
 30
0.0
  0
LINE
  5
26F
330
1F
100
AcDbEntity
  8
0
  6
Continuous
 62
     7
370
    15
100
AcDbLine
 10
224.0456996829
 20
41.0279276073
 30
0.0
 11
222.2178455222
 21
42.0831253537
 31
0.0
  0
SPLINE
  5
270
330
1F
100
AcDbEntity
  8
0
  6
Continuous
 62
     7
370
    15
100
AcDbSpline
210
0.0
220
0.0
230
1.0
 70
     8
 71
     3
 72
     8
 73
     4
 74
     0
 42
0.000000001
 43
0.00000001
 40
0.0000000000000004
 40
0.0000000000000004
 40
0.0000000000000004
 40
0.0000000000000004
 40
0.0011862984959128
 40
0.0011862984959128
 40
0.0011862984959128
 40
0.0011862984959128
 10
222.2178452546615
 20
42.08312541363801
 30
0.0
 10
222.2067830554038
 20
42.14523385855679
 30
0.0
 10
222.19615704883
 20
42.20702664585841
 30
0.0
 10
222.1859439210127
 20
42.2685194725763
 30
0.0
  0
LINE
  5
271
330
1F
100
AcDbEntity
  8
0
  6
Continuous
 62
     7
370
    15
100
AcDbLine
 10
222.2906297545
 20
42.868300249
 30
0.0
 11
222.270736442
 21
42.6389544925
 31
0.0
  0
ARC
  5
272
330
1F
100
AcDbEntity
  8
0
  6
Continuous
 62
     7
370
    15
100
AcDbCircle
 10
238.2734129165
 20
41.2116543114
 30
0.0
 40
16.06296283248748
100
AcDbArc
 50
176.9225000953
 51
185.727139394
  0
LINE
  5
273
330
1F
100
AcDbEntity
  8
0
  6
Continuous
 62
     7
370
    15
100
AcDbLine
 10
221.2918423819
 20
41.9681724381
 30
0.0
 11
221.3536151738
 21
43.4283186064
 31
0.0
  0
ARC
  5
274
330
1F
100
AcDbEntity
  8
0
  6
Continuous
 62
     7
370
    15
100
AcDbCircle
 10
233.1268301036
 20
41.6933130551
 30
0.0
 40
11.83817900076216
100
AcDbArc
 50
178.6695844123
 51
203.7430473282
  0
LINE
  5
275
330
1F
100
AcDbEntity
  8
0
  6
Continuous
 62
     7
370
    15
100
AcDbLine
 10
202.8607542077
 20
78.5553980144
 30
0.0
 11
202.9104529154
 21
78.5370622029
 31
0.0
  0
LINE
  5
276
330
1F
100
AcDbEntity
  8
0
  6
Continuous
 62
     7
370
    15
100
AcDbLine
 10
192.7368948273
 20
61.018459614
 30
0.0
 11
192.6752774519
 21
61.0717251748
 31
0.0
  0
LINE
  5
277
330
1F
100
AcDbEntity
  8
0
  6
Continuous
 62
     7
370
    15
100
AcDbLine
 10
218.7954316964
 20
44.058842801
 30
0.0
 11
218.3598958774
 21
44.4478069707
 31
0.0
  0
LINE
  5
278
330
1F
100
AcDbEntity
  8
0
  6
Continuous
 62
     7
370
    15
100
AcDbLine
 10
220.2520549337
 20
43.217952105
 30
0.0
 11
218.7954316964
 21
44.058842801
 31
0.0
  0
LINE
  5
279
330
1F
100
AcDbEntity
  8
0
  6
Continuous
 62
     7
370
    15
100
AcDbLine
 10
222.2906297545
 20
42.868300249
 30
0.0
 11
222.2906297545
 21
42.7231504117
 31
0.0
  0
LINE
  5
27A
330
1F
100
AcDbEntity
  8
0
  6
Continuous
 62
     7
370
    15
100
AcDbLine
 10
222.2906297545
 20
42.0411072143
 30
0.0
 11
222.2906297545
 21
39.6087140898
 31
0.0
  0
LINE
  5
27B
330
1F
100
AcDbEntity
  8
0
  6
Continuous
 62
     7
370
    15
100
AcDbLine
 10
222.2906297545
 20
43.0771898994
 30
0.0
 11
222.2906297545
 21
42.868300249
 31
0.0
  0
LINE
  5
27C
330
1F
100
AcDbEntity
  8
0
  6
Continuous
 62
     7
370
    15
100
AcDbLine
 10
222.2906297545
 20
39.6087140898
 30
0.0
 11
222.2906297545
 21
36.7387250472
 31
0.0
  0
LINE
  5
27D
330
1F
100
AcDbEntity
  8
0
  6
Continuous
 62
     7
370
    15
100
AcDbLine
 10
222.2178455222
 20
31.5905762544
 30
0.0
 11
224.0456996829
 21
30.5353785079
 31
0.0
  0
SPLINE
  5
27E
330
1F
100
AcDbEntity
  8
0
  6
Continuous
 62
     7
370
    15
100
AcDbSpline
210
0.0
220
0.0
230
1.0
 70
     8
 71
     3
 72
    14
 73
    10
 74
     0
 42
0.000000001
 43
0.00000001
 40
0.0
 40
0.0
 40
0.0
 40
0.0
 40
0.25
 40
0.25
 40
0.5
 40
0.5
 40
0.75
 40
0.75
 40
1.0
 40
1.0
 40
1.0
 40
1.0
 10
224.0001921329865
 20
30.41701023857733
 30
0.0
 10
223.9835172899201
 20
30.37363762047075
 30
0.0
 10
223.9632220470041
 20
30.3334072910249
 30
0.0
 10
223.9149250679338
 20
30.25963540335277
 30
0.0
 10
223.8867062201286
 20
30.22606579667565
 30
0.0
 10
223.8237808717055
 20
30.17251439101303
 30
0.0
 10
223.7886176956885
 20
30.15205836165338
 30
0.0
 10
223.7139347064801
 20
30.1346260681415
 30
0.0
 10
223.6754098312717
 20
30.1385733771264
 30
0.0
 10
223.6414661285744
 20
30.15816865959621
 30
0.0
  0
LINE
  5
27F
330
1F
100
AcDbEntity
  8
0
  6
Continuous
 62
     7
370
    15
100
AcDbLine
 10
223.6414659661
 20
30.1581687832
 30
0.0
 11
222.1859439798
 21
30.9984237406
 31
0.0
  0
SPLINE
  5
280
330
1F
100
AcDbEntity
  8
0
  6
Continuous
 62
     7
370
    15
100
AcDbSpline
210
0.0
220
0.0
230
1.0
 70
     8
 71
     3
 72
     8
 73
     4
 74
     0
 42
0.000000001
 43
0.00000001
 40
0.0
 40
0.0
 40
0.0
 40
0.0
 40
0.0011862984959113
 40
0.0011862984959113
 40
0.0011862984959113
 40
0.0011862984959113
 10
222.1859439210127
 20
30.99842374468924
 30
0.0
 10
222.19615704883
 20
31.19582264657818
 30
0.0
 10
222.2067830554052
 20
31.39320848355497
 30
0.0
 10
222.2178452546628
 20
31.59057598090531
 30
0.0
  0
LWPOLYLINE
  5
281
330
1F
100
AcDbEntity
  8
0
  6
Continuous
 62
     7
370
    15
100
AcDbPolyline
 90
       13
 70
   128
 43
0.0
 10
235.66854367
 20
23.5322128249
 10
234.4025448662
 20
23.2575035606
 10
233.0340827932
 20
23.1056314054
 10
231.7179401057
 20
23.1168747718
 10
230.4637769931
 20
23.2911540454
 10
229.2807972735
 20
23.6271877431
 10
228.1776838561
 20
24.1225115306
 10
227.1625322287
 20
24.7734884949
 10
226.2427944809
 20
25.5753429904
 10
225.4252180597
 20
26.5221868801
 10
224.7158062568
 20
27.6070735328
 10
224.1197642081
 20
28.8220404135
 10
223.6680448224
 20
30.0706218012
  0
SPLINE
  5
282
330
1F
100
AcDbEntity
  8
0
  6
Continuous
 62
     7
370
    15
100
AcDbSpline
210
0.0
220
0.0
230
1.0
 70
     8
 71
     3
 72
     8
 73
     4
 74
     0
 42
0.000000001
 43
0.00000001
 40
0.0
 40
0.0
 40
0.0
 40
0.0
 40
1.0
 40
1.0
 40
1.0
 40
1.0
 10
222.4639636084122
 20
32.08781413549217
 30
0.0
 10
222.3817654276265
 20
31.9220938089887
 30
0.0
 10
222.2997310594747
 20
31.75634693365074
 30
0.0
 10
222.2178452546629
 20
31.59057598090532
 30
0.0
  0
LINE
  5
283
330
1F
100
AcDbEntity
  8
0
  6
Continuous
 62
     7
370
    15
100
AcDbLine
 10
222.5129831094
 20
32.1161127073
 30
0.0
 11
222.4639636904
 21
32.087814399
 31
0.0
  0
SPLINE
  5
284
330
1F
100
AcDbEntity
  8
0
  6
Continuous
 62
     7
370
    15
100
AcDbSpline
210
0.0
220
0.0
230
1.0
 70
     8
 71
     3
 72
    12
 73
     8
 74
     0
 42
0.000000001
 43
0.00000001
 40
0.0
 40
0.0
 40
0.0
 40
0.0
 40
0.249999999999997
 40
0.249999999999997
 40
0.499999999999994
 40
0.499999999999994
 40
1.0
 40
1.0
 40
1.0
 40
1.0
 10
222.5247652961967
 20
32.4494774474533
 30
0.0
 10
222.5623640807713
 20
32.42777213112902
 30
0.0
 10
222.5925416400177
 20
32.40097026055584
 30
0.0
 10
222.6311313746986
 20
32.34334655572585
 30
0.0
 10
222.6399908598885
 20
32.31229843015448
 30
0.0
 10
222.6349434260501
 20
32.22010945374917
 30
0.0
 10
222.5882411389748
 20
32.15955802677432
 30
0.0
 10
222.5129830507765
 20
32.11611245722237
 30
0.0
  0
LINE
  5
285
330
1F
100
AcDbEntity
  8
0
  6
Continuous
 62
     7
370
    15
100
AcDbLine
 10
221.7398768817
 20
32.9025841135
 30
0.0
 11
222.5247654585
 21
32.4494775828
 31
0.0
  0
SPLINE
  5
286
330
1F
100
AcDbEntity
  8
0
  6
Continuous
 62
     7
370
    15
100
AcDbSpline
210
0.0
220
0.0
230
1.0
 70
     8
 71
     3
 72
    10
 73
     6
 74
     0
 42
0.000000001
 43
0.00000001
 40
0.0
 40
0.0
 40
0.0
 40
0.0
 40
0.5
 40
0.5
 40
1.0
 40
1.0
 40
1.0
 40
1.0
 10
221.1624090987102
 20
32.89578220401307
 30
0.0
 10
221.2385464890488
 20
32.93973538388578
 30
0.0
 10
221.3420542697331
 20
32.96622205006457
 30
0.0
 10
221.5565495618189
 20
32.97005012045189
 30
0.0
 10
221.6639798062371
 20
32.94639833354849
 30
0.0
 10
221.7398767690796
 20
32.90258394951491
 30
0.0
  0
LINE
  5
287
330
1F
100
AcDbEntity
  8
0
  6
Continuous
 62
     7
370
    15
100
AcDbLine
 10
221.1133896618
 20
32.86748419
 30
0.0
 11
221.1624090808
 21
32.8957824982
 31
0.0
  0
SPLINE
  5
288
330
1F
100
AcDbEntity
  8
0
  6
Continuous
 62
     7
370
    15
100
AcDbSpline
210
0.0
220
0.0
230
1.0
 70
     8
 71
     3
 72
     8
 73
     4
 74
     0
 42
0.000000001
 43
0.00000001
 40
0.0
 40
0.0
 40
0.0
 40
0.0
 40
1.0
 40
1.0
 40
1.0
 40
1.0
 10
220.2520545816914
 20
32.7254027809448
 30
0.0
 10
220.5392094080887
 20
32.77267444985683
 30
0.0
 10
220.8263225266739
 20
32.82003188255957
 30
0.0
 10
221.1133896563459
 20
32.86748388228286
 30
0.0
  0
LINE
  5
289
330
1F
100
AcDbEntity
  8
0
  6
Continuous
 62
     7
370
    15
100
AcDbLine
 10
218.7954316964
 20
33.5662937017
 30
0.0
 11
220.2520549337
 21
32.7254030057
 31
0.0
  0
LINE
  5
28A
330
1F
100
AcDbEntity
  8
0
  6
Continuous
 62
     7
370
    15
100
AcDbLine
 10
218.7954316964
 20
33.5662937017
 30
0.0
 11
221.9370762236
 21
35.379926483
 31
0.0
  0
ARC
  5
28B
330
1F
100
AcDbEntity
  8
0
  6
Continuous
 62
     7
370
    15
100
AcDbCircle
 10
231.7263662156
 20
33.433422357
 30
0.0
 40
9.846261965767397
100
AcDbArc
 50
194.3179057184
 51
238.1256858466
  0
ELLIPSE
  5
28C
330
1F
100
AcDbEntity
  8
0
  6
Continuous
 62
     7
370
    15
100
AcDbEllipse
 10
221.6441837047
 20
36.3655511273
 30
0.0
 11
-7.507462979106094E-5
 21
1.06681120185339
 31
0.0
210
0.0
220
0.0
230
1.0
 40
0.7174342186
 41
3.53419364555752
 42
5.104989972352361
  0
ARC
  5
28D
330
1F
100
AcDbEntity
  8
0
  6
Continuous
 62
     7
370
    15
100
AcDbCircle
 10
231.7888978699
 20
35.8349410141
 30
0.0
 40
11.08026513689323
100
AcDbArc
 50
195.5342643695
 51
215.7345697398
  0
ARC
  5
28E
330
1F
100
AcDbEntity
  8
0
  6
Continuous
 62
     7
370
    15
100
AcDbCircle
 10
229.2109362946
 20
34.6511252653
 30
0.0
 40
9.598989501195883
100
AcDbArc
 50
194.065870688
 51
246.8527503441
  0
SPLINE
  5
28F
330
1F
100
AcDbEntity
  8
0
  6
Continuous
 62
     7
370
    15
100
AcDbSpline
210
0.0
220
0.0
230
1.0
 70
     8
 71
     3
 72
     8
 73
     4
 74
     0
 42
0.000000001
 43
0.00000001
 40
0.0000000000000004
 40
0.0000000000000004
 40
0.0000000000000004
 40
0.0000000000000004
 40
0.0011862984959128
 40
0.0011862984959128
 40
0.0011862984959128
 40
0.0011862984959128
 10
220.2520545816919
 20
32.72540278094385
 30
0.0
 10
220.1349041126968
 20
32.58927873810907
 30
0.0
 10
220.0174643622597
 20
32.45355516294614
 30
0.0
 10
219.899753494415
 20
32.31821338545166
 30
0.0
  0
LINE
  5
290
330
1F
100
AcDbEntity
  8
0
  6
Continuous
 62
     7
370
    15
100
AcDbLine
 10
218.3598958774
 20
33.3148119941
 30
0.0
 11
218.7954316964
 21
33.5662937017
 31
0.0
  0
LINE
  5
291
330
1F
100
AcDbEntity
  8
0
  6
Continuous
 62
     7
370
    15
100
AcDbLine
 10
219.8997537075
 20
32.3182132922
 30
0.0
 11
218.4619090315
 21
33.1482633556
 31
0.0
  0
SPLINE
  5
292
330
1F
100
AcDbEntity
  8
0
  6
Continuous
 62
     7
370
    15
100
AcDbSpline
210
0.0
220
0.0
230
1.0
 70
     8
 71
     3
 72
    10
 73
     6
 74
     0
 42
0.000000001
 43
0.00000001
 40
0.0
 40
0.0
 40
0.0
 40
0.0
 40
0.5
 40
0.5
 40
1.0
 40
1.0
 40
1.0
 40
1.0
 10
218.4619089563829
 20
33.1482633691469
 30
0.0
 10
218.4354995271023
 20
33.16350920815382
 30
0.0
 10
218.4132161228932
 20
33.18736663056609
 30
0.0
 10
218.3791089880716
 20
33.24529272230037
 30
0.0
 10
218.3672089580168
 20
33.27919125378123
 30
0.0
 10
218.35989646606
 20
33.31481229623559
 30
0.0
  0
ARC
  5
293
330
1F
100
AcDbEntity
  8
0
  6
Continuous
 62
     7
370
    15
100
AcDbCircle
 10
227.998383719
 20
35.5725840274
 30
0.0
 40
9.83510989696445
100
AcDbArc
 50
194.9325993597
 51
238.1123668138
  0
ELLIPSE
  5
294
330
1F
100
AcDbEntity
  8
0
  6
Continuous
 62
     7
370
    15
100
AcDbEllipse
 10
221.5835235329
 20
36.3305213716
 30
0.0
 11
0.3250094736511642
 21
1.213179526238669
 31
0.0
210
0.0
220
0.0
230
1.0
 40
0.5176380889
 41
3.619174351347722
 42
5.18997067814262
  0
SPLINE
  5
295
330
1F
100
AcDbEntity
  8
0
  6
Continuous
 62
     7
370
    15
100
AcDbSpline
210
0.0
220
0.0
230
1.0
 70
     8
 71
     3
 72
    12
 73
     8
 74
     0
 42
0.000000001
 43
0.00000001
 40
0.0
 40
0.0
 40
0.0
 40
0.0
 40
0.5000000000000003
 40
0.5000000000000003
 40
0.7500000000000001
 40
0.7500000000000001
 40
1.0
 40
1.0
 40
1.0
 40
1.0
 10
248.1173806219353
 20
68.33484467265637
 30
0.0
 10
248.1804404991649
 20
68.37124836490665
 30
0.0
 10
248.260373452396
 20
68.39807967675823
 30
0.0
 10
248.3933526407026
 20
68.41183651826877
 30
0.0
 10
248.4390238098147
 20
68.41171538446983
 30
0.0
 10
248.5266616284522
 20
68.39894100284819
 30
0.0
 10
248.5674055393063
 20
68.38610101719341
 30
0.0
 10
248.5989192216449
 20
68.36790855561678
 30
0.0
  0
LINE
  5
296
330
1F
100
AcDbEntity
  8
0
  6
Continuous
 62
     7
370
    15
100
AcDbLine
 10
248.5989195459
 20
68.3679089271
 30
0.0
 11
249.2585878601
 21
67.9870905153
 31
0.0
  0
LINE
  5
297
330
1F
100
AcDbEntity
  8
0
  6
Continuous
 62
     7
370
    15
100
AcDbLine
 10
250.9284548884
 20
65.9122942987
 30
0.0
 11
252.3229544942
 21
66.2180693121
 31
0.0
  0
LINE
  5
298
330
1F
100
AcDbEntity
  8
0
  6
Continuous
 62
     7
370
    15
100
AcDbLine
 10
252.3229544942
 20
66.2180693121
 30
0.0
 11
253.7784764805
 21
65.3778143548
 31
0.0
  0
SPLINE
  5
299
330
1F
100
AcDbEntity
  8
0
  6
Continuous
 62
     7
370
    15
100
AcDbSpline
210
0.0
220
0.0
230
1.0
 70
     8
 71
     3
 72
    12
 73
     8
 74
     0
 42
0.000000001
 43
0.00000001
 40
0.0
 40
0.0
 40
0.0
 40
0.0
 40
0.2499999999999946
 40
0.2499999999999946
 40
0.4999999999999892
 40
0.4999999999999892
 40
1.0
 40
1.0
 40
1.0
 40
1.0
 10
253.7784763938365
 20
65.377813846066
 30
0.0
 10
253.8101325243366
 20
65.35953915091608
 30
0.0
 10
253.8324318013467
 20
65.33571504011779
 30
0.0
 10
253.8542523719387
 20
65.28568313767008
 30
0.0
 10
253.8545331342649
 20
65.2592919292562
 30
0.0
 10
253.8311657601441
 20
65.18321669926128
 30
0.0
 10
253.7841273573391
 20
65.13615364431085
 30
0.0
 10
253.7212018628387
 20
65.0998275295589
 30
0.0
  0
LINE
  5
29A
330
1F
100
AcDbEntity
  8
0
  6
Continuous
 62
     7
370
    15
100
AcDbLine
 10
248.1173808534
 20
68.3348450498
 30
0.0
 11
248.0255902857
 21
68.2818554829
 31
0.0
  0
SPLINE
  5
29B
330
1F
100
AcDbEntity
  8
0
  6
Continuous
 62
     7
370
    15
100
AcDbSpline
210
0.0
220
0.0
230
1.0
 70
     8
 71
     3
 72
    10
 73
     6
 74
     0
 42
0.000000001
 43
0.00000001
 40
0.0
 40
0.0
 40
0.0
 40
0.0
 40
0.403890055881665
 40
0.8088426875932694
 40
1.0
 40
1.0
 40
1.0
 40
1.0
 10
256.7426360188456
 20
60.02388837684741
 30
0.0
 10
256.7608767833573
 20
60.06265220294036
 30
0.0
 10
256.7974063011717
 20
60.14028183709899
 30
0.0
 10
256.8113468151365
 20
60.24766178038528
 30
0.0
 10
256.7932982688907
 20
60.30091845541557
 30
0.0
 10
256.7875105587086
 20
60.3179965178887
 30
0.0
  0
ARC
  5
29C
330
1F
100
AcDbEntity
  8
0
  6
Continuous
 62
     7
370
    15
100
AcDbCircle
 10
246.4494199684
 20
57.7105615022
 30
0.0
 40
10.60668825138533
100
AcDbArc
 50
15.7413341421
 51
46.2919137943
  0
LWPOLYLINE
  5
29D
330
1F
100
AcDbEntity
  8
0
  6
Continuous
 62
     7
370
    15
100
AcDbPolyline
 90
        3
 70
   128
 43
0.0
 10
250.9284545592
 20
66.5932840851
 10
250.9669096072
 20
66.5458199877
 10
251.3471650599
 20
66.0395388373
  0
LWPOLYLINE
  5
29E
330
1F
100
AcDbEntity
  8
0
  6
Continuous
 62
     7
370
    15
100
AcDbPolyline
 90
       25
 70
   128
 43
0.0
 10
270.1786716732
 20
37.4165388139
 10
269.489952162
 20
37.5334893586
 10
268.8771369846
 20
37.7493557699
 10
268.3819806618
 20
38.04943166
 10
268.038232941
 20
38.4132642819
 10
267.8693167686
 20
38.8160603964
 10
267.8867449843
 20
39.2303695686
 10
268.089329574
 20
39.6279573588
 10
268.4632637814
 20
39.9817292423
 10
268.9830646302
 20
40.2675764159
 10
269.6133105546
 20
40.4660175968
 10
270.3110487505
 20
40.56353097
 10
271.0287308023
 20
40.5534703029
 10
271.7174476794
 20
40.4365212789
 10
272.3302654909
 20
40.2206533469
 10
272.8254218137
 20
39.9205774568
 10
273.1691695345
 20
39.5567448349
 10
273.3380857069
 20
39.1539487205
 10
273.3206574911
 20
38.7396395482
 10
273.1180729015
 20
38.342051758
 10
272.7441386941
 20
37.9882798745
 10
272.2243378453
 20
37.7024327009
 10
271.5940919209
 20
37.5039915201
 10
270.896353725
 20
37.4064781468
 10
270.1786716732
 20
37.4165388139
  0
LWPOLYLINE
  5
29F
330
1F
100
AcDbEntity
  8
0
  6
Continuous
 62
     7
370
    15
100
AcDbPolyline
 90
       10
 70
   128
 43
0.0
 10
270.1400305864
 20
37.0698173378
 10
269.4174926744
 20
37.1901402725
 10
268.7694903115
 20
37.4104137054
 10
268.236736201
 20
37.7167987961
 10
267.8527063004
 20
38.0900442284
 10
267.6415344551
 20
38.5066947705
 10
267.6164833397
 20
38.9405747438
 10
267.7791329672
 20
39.3644180957
 10
268.1192592694
 20
39.7515957478
 10
268.4820358283
 20
40.0052830691
  0
LWPOLYLINE
  5
2A0
330
1F
100
AcDbEntity
  8
0
  6
Continuous
 62
     7
370
    15
100
AcDbPolyline
 90
       11
 70
   128
 43
0.0
 10
272.72536536
 20
40.005283432
 10
273.183019878
 20
39.6652918193
 10
273.4829845965
 20
39.2672057217
 10
273.6020372604
 20
38.8385589263
 10
273.5326914536
 20
38.4062886863
 10
273.2793054647
 20
37.997555106
 10
272.8578014902
 20
37.6380401125
 10
272.2946650687
 20
37.350332739
 10
271.6252791894
 20
37.1525112228
 10
270.8917023428
 20
37.0570062858
 10
270.1400305864
 20
37.0698173378
  0
LWPOLYLINE
  5
2A1
330
1F
100
AcDbEntity
  8
0
  6
Continuous
 62
     7
370
    15
100
AcDbPolyline
 90
       20
 70
   128
 43
0.0
 10
270.333228118
 20
37.9868898555
 10
269.7864866867
 20
38.0916695539
 10
269.3283023697
 20
38.2932564129
 10
269.0083287641
 20
38.5698039834
 10
268.861237086
 20
38.8913458678
 10
268.9029688457
 20
39.2230369276
 10
269.1290017151
 20
39.5289332032
 10
269.5148416767
 20
39.7758861167
 10
270.0186750746
 20
39.9371355084
 10
270.5859064596
 20
39.9952060426
 10
271.1550657337
 20
39.943805775
 10
271.6644745238
 20
39.7885054741
 10
272.0589344522
 20
39.5461319239
 10
272.2956961847
 20
39.2429522337
 10
272.349104062
 20
38.9118198569
 10
272.213370548
 20
38.5886181043
 10
271.9032044349
 20
38.3083709811
 10
271.4522157713
 20
38.1014482895
 10
270.9092797189
 20
37.9902712745
 10
270.333228118
 20
37.9868898555
  0
SPLINE
  5
2A2
330
1F
100
AcDbEntity
  8
0
  6
Continuous
 62
     7
370
    15
100
AcDbSpline
210
0.0
220
0.0
230
1.0
 70
     8
 71
     3
 72
     9
 73
     5
 74
     0
 42
0.000000001
 43
0.00000001
 40
0.0
 40
0.0
 40
0.0
 40
0.0
 40
0.7450308800845169
 40
1.0
 40
1.0
 40
1.0
 40
1.0
 10
272.3149402546773
 20
38.81580800540554
 30
0.0
 10
272.1587037090898
 20
38.60991592688173
 30
0.0
 10
271.9489989172969
 20
38.33356217561111
 30
0.0
 10
271.7271714650312
 20
38.2214352163757
 30
0.0
 10
271.6706123147539
 20
38.19284630426064
 30
0.0
  0
SPLINE
  5
2A3
330
1F
100
AcDbEntity
  8
0
  6
Continuous
 62
     7
370
    15
100
AcDbSpline
210
0.0
220
0.0
230
1.0
 70
     8
 71
     3
 72
    10
 73
     6
 74
     0
 42
0.000000001
 43
0.00000001
 40
0.0
 40
0.0
 40
0.0
 40
0.0
 40
0.4391270196105782
 40
0.7513750223580498
 40
1.0
 40
1.0
 40
1.0
 40
1.0
 10
271.6911560307317
 20
39.74860423968156
 30
0.0
 10
271.7804575946616
 20
39.53117493055925
 30
0.0
 10
271.9332584053563
 20
39.1591391761938
 30
0.0
 10
272.155378383804
 20
38.89079369550127
 30
0.0
 10
272.2659332544931
 20
38.83883871887251
 30
0.0
 10
272.3149402546773
 20
38.81580800540554
 30
0.0
  0
SPLINE
  5
2A4
330
1F
100
AcDbEntity
  8
0
  6
Continuous
 62
     7
370
    15
100
AcDbSpline
210
0.0
220
0.0
230
1.0
 70
     8
 71
     3
 72
    11
 73
     7
 74
     0
 42
0.000000001
 43
0.00000001
 40
0.0
 40
0.0
 40
0.0
 40
0.0
 40
0.1843649747639811
 40
0.5174526823399824
 40
0.8663355779109948
 40
1.0
 40
1.0
 40
1.0
 40
1.0
 10
269.979915696711
 20
39.90314515171904
 30
0.0
 10
270.07921698594
 20
39.85607116687795
 30
0.0
 10
270.3579234947936
 20
39.72394976065294
 30
0.0
 10
270.8771786123011
 20
39.59747428377036
 30
0.0
 10
271.3606605220216
 20
39.64924398088034
 30
0.0
 10
271.6194672128706
 20
39.72705169416094
 30
0.0
 10
271.6911560307317
 20
39.74860423968156
 30
0.0
  0
SPLINE
  5
2A5
330
1F
100
AcDbEntity
  8
0
  6
Continuous
 62
     7
370
    15
100
AcDbSpline
210
0.0
220
0.0
230
1.0
 70
     8
 71
     3
 72
    10
 73
     6
 74
     0
 42
0.000000001
 43
0.00000001
 40
0.0
 40
0.0
 40
0.0
 40
0.0
 40
0.4391278537703046
 40
0.7513759138917457
 40
0.9999999999999999
 40
0.9999999999999999
 40
0.9999999999999999
 40
0.9999999999999999
 10
268.892462220814
 20
39.12488830880191
 30
0.0
 10
269.0481440928894
 20
39.1524160082087
 30
0.0
 10
269.314525758053
 20
39.19951766692046
 30
0.0
 10
269.7017541240513
 20
39.54045110288761
 30
0.0
 10
269.8944827273774
 20
39.79174935662414
 30
0.0
 10
269.979915696711
 20
39.90314515171904
 30
0.0
  0
SPLINE
  5
2A6
330
1F
100
AcDbEntity
  8
0
  6
Continuous
 62
     7
370
    15
100
AcDbSpline
210
0.0
220
0.0
230
1.0
 70
     8
 71
     3
 72
    10
 73
     6
 74
     0
 42
0.000000001
 43
0.00000001
 40
0.0
 40
0.0
 40
0.0
 40
0.0
 40
0.365547103228025
 40
0.7187583592183721
 40
1.0
 40
1.0
 40
1.0
 40
1.0
 10
269.4442211849673
 20
38.25060573311769
 30
0.0
 10
269.3783626153692
 20
38.28927998766606
 30
0.0
 10
269.2488679565229
 20
38.36532338535056
 30
0.0
 10
269.0519327515372
 20
38.72404265909069
 30
0.0
 10
268.9414411672612
 20
39.00177466817002
 30
0.0
 10
268.892462220814
 20
39.12488830880191
 30
0.0
  0
LINE
  5
2A7
330
1F
100
AcDbEntity
  8
0
  6
Continuous
 62
     7
370
    15
100
AcDbLine
 10
271.6911560307
 20
38.1934789201
 30
0.0
 11
271.6911560307
 21
39.7486042397
 31
0.0
  0
LINE
  5
2A8
330
1F
100
AcDbEntity
  8
0
  6
Continuous
 62
     7
370
    15
100
AcDbLine
 10
269.9799156967
 20
38.0411099371
 30
0.0
 11
269.9799156967
 21
39.9031451517
 31
0.0
  0
ARC
  5
2A9
330
1F
100
AcDbEntity
  8
0
  6
Continuous
 62
     7
370
    15
100
AcDbCircle
 10
233.4976490571
 20
59.5972404604
 30
0.0
 40
1.557574315952388
100
AcDbArc
 50
79.5861017376
 51
142.8221932109
  0
ARC
  5
2AA
330
1F
100
AcDbEntity
  8
0
  6
Continuous
 62
     7
370
    15
100
AcDbCircle
 10
233.4655571575
 20
59.680905853
 30
0.0
 40
1.463439891085816
100
AcDbArc
 50
78.2685922876
 51
144.4072601206
  0
ARC
  5
2AB
330
1F
100
AcDbEntity
  8
0
  6
Continuous
 62
     7
370
    15
100
AcDbCircle
 10
233.4371809483
 20
59.7545350437
 30
0.0
 40
1.249547245185292
100
AcDbArc
 50
80.705870252
 51
142.2259793291
  0
LWPOLYLINE
  5
2AC
330
1F
100
AcDbEntity
  8
0
  6
Continuous
 62
     7
370
     0
100
AcDbPolyline
 90
        8
 70
   128
 43
0.0
 10
232.0663819318
 20
38.7790778711
 10
232.1297569625
 20
37.5358322086
 10
232.3190568984
 20
36.3819660024
 10
232.6318128561
 20
35.3325210598
 10
233.0639477866
 20
34.4011784908
 10
233.6098291587
 20
33.6000807547
 10
234.2623394234
 20
32.9396704354
 10
234.9146587101
 20
32.4837113427
  0
LWPOLYLINE
  5
2AD
330
1F
100
AcDbEntity
  8
0
  6
Continuous
 62
     7
370
     0
100
AcDbPolyline
 90
       22
 70
   128
 43
0.0
 10
248.6635415307
 20
56.3000558763
 10
248.1561264018
 20
56.5526197544
 10
247.2770224965
 20
56.8279268818
 10
246.3263749744
 20
56.9411111746
 10
245.3165773138
 20
56.8906967423
 10
244.2607933256
 20
56.6773413858
 10
243.1727872485
 20
56.3038259671
 10
242.0667425467
 20
55.7750205261
 10
240.9570784431
 20
55.0978186723
 10
239.8582609585
 20
54.2810482721
 10
238.7846149384
 20
53.3353576106
 10
237.7501370053
 20
52.2730747118
 10
236.7683129983
 20
51.1080487159
 10
235.8519427178
 20
49.8554673374
 10
235.0129728197
 20
48.5316600156
 10
234.2623394234
 20
47.1538838593
 10
233.6098291587
 20
45.7401012243
 10
233.0639477866
 20
44.3087422715
 10
232.6318128561
 20
42.8784673319
 10
232.3190568984
 20
41.4679220467
 10
232.1297569625
 20
40.0954947866
 10
232.0663819318
 20
38.7790778711
  0
LINE
  5
2AE
330
1F
100
AcDbEntity
  8
0
  6
Continuous
 62
     7
370
     0
100
AcDbLine
 10
269.1894881021
 20
16.3063794514
 30
0.0
 11
270.6037018963
 21
15.4899712057
 31
0.0
  0
LWPOLYLINE
  5
2AF
330
1F
100
AcDbEntity
  8
0
  6
Continuous
 62
     7
370
     0
100
AcDbPolyline
 90
       19
 70
   128
 43
0.0
 10
223.6414659661
 20
41.4282645726
 10
224.1362673334
 20
43.3746788079
 10
224.7559906427
 20
45.3363403896
 10
225.4958074455
 20
47.2979580025
 10
226.349950209
 20
49.2442423212
 10
227.3117597313
 20
51.1600212147
 10
228.3737404587
 20
53.0303629371
 10
229.5276144867
 20
54.8406863892
 10
230.7643874145
 20
56.576883547
 10
232.0744181504
 20
58.2254190756
 10
233.4474959619
 20
59.7734432509
 10
234.872917525
 20
61.208889672
 10
236.3395722062
 20
62.5205685995
 10
237.8360281666
 20
63.6982577283
 10
239.3506201959
 20
64.732775706
 10
240.8715427311
 20
65.6160586464
 10
242.3869403249
 20
66.3412214801
 10
243.8850009937
 20
66.9026133653
 10
244.6800393876
 20
67.1353932622
  0
LINE
  5
2B0
330
1F
100
AcDbEntity
  8
0
  6
Continuous
 62
     7
370
     0
100
AcDbLine
 10
224.0001916232
 20
41.093753743
 30
0.0
 11
224.0803681
 21
41.4577208699
 31
0.0
  0
LWPOLYLINE
  5
2B1
330
1F
100
AcDbEntity
  8
0
  6
Continuous
 62
     7
370
     0
100
AcDbPolyline
 90
        9
 70
   128
 43
0.0
 10
240.5733775884
 20
64.9695543273
 10
241.5839281094
 20
65.5046022669
 10
243.0275210558
 20
66.1473926519
 10
244.4517697512
 20
66.6374845689
 10
245.846287467
 20
66.9713032008
 10
247.2009049588
 20
67.1464137394
 10
248.5057437298
 20
67.1615408647
 10
249.7512884704
 20
67.0165740617
 10
250.9284552177
 20
66.7125704657
  0
LWPOLYLINE
  5
2B2
330
1F
100
AcDbEntity
  8
0
  6
Continuous
 62
     7
370
     0
100
AcDbPolyline
 90
       19
 70
   128
 43
0.0
 10
243.3747142815
 20
27.5998250187
 10
243.2853833775
 20
27.5300635923
 10
241.8291773282
 20
26.4717236265
 10
240.3621404288
 20
25.5529255687
 10
238.8951985553
 20
24.7805121586
 10
237.4392766679
 20
24.1602351035
 10
236.005217635
 20
23.6967127794
 10
234.603701896
 20
23.3933990619
 10
233.2451673814
 20
23.2525523068
 10
231.9397313105
 20
23.2752221445
 10
230.6971164344
 20
23.4612388397
 10
229.5265772791
 20
23.8092163409
 10
228.4368309982
 20
24.3165655947
 10
227.4359934942
 20
24.9795048181
 10
226.531519491
 20
25.7931001888
 10
225.7301432646
 20
26.7512894253
 10
225.0378351797
 20
27.8469380648
 10
224.4597490056
 20
29.071885857
 10
224.0001916232
 20
30.4170098849
  0
ARC
  5
2B3
330
1F
100
AcDbEntity
  8
0
  6
Continuous
 62
     7
370
     0
100
AcDbCircle
 10
246.5624966161
 20
57.4014170824
 30
0.0
 40
10.51249703684708
100
AcDbArc
 50
14.4456939373
 51
47.0804331381
  0
LWPOLYLINE
  5
2B4
330
1F
100
AcDbEntity
  8
0
  6
Continuous
 62
     7
370
     0
100
AcDbPolyline
 90
       28
 70
   128
 43
0.0
 10
229.2379543434
 20
38.7790778711
 10
229.3010468585
 20
40.1824896766
 10
229.4896112002
 20
41.642846288
 10
229.801509733
 20
43.1436006135
 10
230.2332087071
 20
44.6677486543
 10
230.7798171123
 20
46.1980217076
 10
231.4351413376
 20
47.7170798995
 10
232.1917569523
 20
49.2077135108
 10
233.0410897068
 20
50.6530311838
 10
233.9735182658
 20
52.0366580133
 10
234.9784762828
 20
53.3429169078
 10
236.0445778524
 20
54.5570067154
 10
237.1597439513
 20
55.6651725564
 10
238.3113384275
 20
56.6548573323
 10
239.4863139503
 20
57.5148483389
 10
240.6713572603
 20
58.2354006619
 10
241.8530414994
 20
58.8083509699
 10
243.0179775934
 20
59.2272071882
 10
244.152966376
 20
59.4872233895
 10
245.2451482837
 20
59.5854535114
 10
246.2821477837
 20
59.5207853024
 10
247.2522161127
 20
59.2939504797
 10
248.1443608456
 20
58.9075189184
 10
248.9484746415
 20
58.3658695516
 10
249.6554465369
 20
57.6751405502
 10
250.2572659966
 20
56.8431566882
 10
250.7471137922
 20
55.8793449233
 10
251.0902128467
 20
54.8991680785
  0
LWPOLYLINE
  5
2B5
330
1F
100
AcDbEntity
  8
0
  6
Continuous
 62
     7
370
     0
100
AcDbPolyline
 90
       14
 70
   128
 43
0.0
 10
237.3413300262
 20
31.0828246856
 10
237.1597439513
 20
31.0392867826
 10
236.0445778524
 20
30.8599092519
 10
234.9784762828
 20
30.8431043876
 10
233.9735182658
 20
30.9890634533
 10
233.0410897068
 20
31.2961311838
 10
232.1917569523
 20
31.7608301316
 10
231.4351413376
 20
32.3778939486
 10
230.7798171123
 20
33.1403308951
 10
230.2332087071
 20
34.0395033171
 10
229.801509733
 20
35.0652223318
 10
229.4896112002
 20
36.2058662765
 10
229.3010468585
 20
37.4485111331
 10
229.2379543434
 20
38.7790778711
  0
LWPOLYLINE
  5
2B6
330
1F
100
AcDbEntity
  8
0
  6
Continuous
 62
     7
370
     0
100
AcDbPolyline
 90
       19
 70
   128
 43
0.0
 10
218.4619090315
 20
44.418359145
 10
218.9567103988
 20
46.3647733803
 10
219.5764337081
 20
48.3264349619
 10
220.3162505109
 20
50.2880525749
 10
221.1703932744
 20
52.2343368936
 10
222.1322027967
 20
54.1501157871
 10
223.1941835241
 20
56.0204575095
 10
224.3480575521
 20
57.8307809616
 10
225.5848304799
 20
59.5669781193
 10
226.8948612158
 20
61.2155136479
 10
228.2679390273
 20
62.7635378233
 10
229.6933605905
 20
64.1989842444
 10
231.1600152716
 20
65.5106631719
 10
232.6564712321
 20
66.6883523007
 10
234.1710632613
 20
67.7228702784
 10
235.6919857965
 20
68.6061532187
 10
237.2073833903
 20
69.3313160525
 10
238.7054440591
 20
69.8927079377
 10
239.500588808
 20
70.1255157716
  0
LWPOLYLINE
  5
2B7
330
1F
100
AcDbEntity
  8
0
  6
Continuous
 62
     7
370
     0
100
AcDbPolyline
 90
       19
 70
   128
 43
0.0
 10
221.7398768817
 20
43.3951332128
 10
222.2160598787
 20
45.2661793378
 10
222.8157634349
 20
47.1520200849
 10
223.5340352956
 20
49.0370793575
 10
224.3649432918
 20
50.9057887554
 10
225.3016240728
 20
52.7427145677
 10
226.3363417161
 20
54.5326843847
 10
227.4605502896
 20
56.2609144687
 10
228.6649649744
 20
57.9131337038
 10
229.9396384557
 20
59.4756923342
 10
231.2740419239
 20
60.9356862926
 10
232.6571556244
 20
62.2810581431
 10
234.0775554564
 20
63.500695743
 10
235.5235104374
 20
64.5845265313
 10
236.9830780272
 20
65.5235984137
 10
238.4442033217
 20
66.3101537564
 10
239.8948187398
 20
66.9376991007
 10
241.3229434635
 20
67.4010504022
 10
241.7557534021
 20
67.5098966694
  0
LINE
  5
2B8
330
1F
100
AcDbEntity
  8
0
  6
Continuous
 62
     7
370
     0
100
AcDbLine
 10
232.9604031873
 20
61.3777799608
 30
0.0
 11
233.3206299966
 21
61.7162679266
 31
0.0
  0
LWPOLYLINE
  5
2B9
330
1F
100
AcDbEntity
  8
0
  6
Continuous
 62
     7
370
     0
100
AcDbPolyline
 90
       21
 70
   128
 43
0.0
 10
221.1624090808
 20
43.3883315976
 10
221.6371472312
 20
45.2815544769
 10
222.2366176626
 20
47.1906372733
 10
222.9559155357
 20
49.0999651018
 10
223.7891587307
 20
50.9939246904
 10
224.7295339463
 20
52.8570268098
 10
225.7693493827
 20
54.6740332658
 10
226.9001012545
 20
56.4300865521
 10
228.1125435968
 20
58.1108246738
 10
229.3967593881
 20
59.7025012934
 10
230.7422468188
 20
61.1921001728
 10
232.138002269
 20
62.5674393487
 10
233.5726108573
 20
63.8172705549
 10
235.0343401195
 20
64.9313743661
 10
236.5112357851
 20
65.9006352608
 10
237.9912196953
 20
66.7171300877
 10
239.4621882545
 20
67.3741818589
 10
240.9121117893
 20
67.8664140659
 10
242.3291323002
 20
68.1898025489
 10
243.7016612148
 20
68.34170303
 10
245.0018723936
 20
68.3222435965
  0
LINE
  5
2BA
330
1F
100
AcDbEntity
  8
0
  6
Continuous
 62
     7
370
     0
100
AcDbLine
 10
279.0889833443
 20
22.0212364105
 30
0.0
 11
280.5031971385
 21
21.2048281649
 31
0.0
  0
LWPOLYLINE
  5
2BB
330
1F
100
AcDbEntity
  8
0
  6
Continuous
 62
     7
370
     0
100
AcDbPolyline
 90
        3
 70
   128
 43
0.0
 10
222.2115329615
 20
41.3158282467
 10
222.2110811999
 20
41.437507164
 10
222.2233459328
 20
42.079950577
  0
LWPOLYLINE
  5
2BC
330
1F
100
AcDbEntity
  8
0
  6
Continuous
 62
     7
370
     0
100
AcDbPolyline
 90
       18
 70
   128
 43
0.0
 10
191.1261272295
 20
65.3288136633
 10
191.1903478313
 20
66.4737062883
 10
191.3818644281
 20
67.6723163335
 10
191.6972585151
 20
68.9032539147
 10
192.1309021711
 20
70.1445533041
 10
192.6750568395
 20
71.3740631339
 10
193.3200126108
 20
72.5698428697
 10
194.0542601027
 20
73.7105542421
 10
194.8646962551
 20
74.7758416495
 10
195.7368591013
 20
75.7466935458
 10
196.6551849297
 20
76.6057859555
 10
197.6032859425
 20
77.3377883913
 10
198.5642434523
 20
77.9296380566
 10
199.520909104
 20
78.3707730536
 10
200.4562111396
 20
78.6533221139
 10
201.3534590986
 20
78.772242475
 10
202.1966413767
 20
78.7254118091
 10
202.8607542077
 20
78.5553980144
  0
ARC
  5
2BD
330
1F
100
AcDbEntity
  8
0
  6
Continuous
 62
     7
370
     0
100
AcDbCircle
 10
196.5243173315
 20
64.8827982673
 30
0.0
 40
5.416584358380627
100
AcDbArc
 50
175.2767713464
 51
224.7160200039
  0
LINE
  5
2BE
330
1F
100
AcDbEntity
  8
0
  6
Continuous
 62
     7
370
     0
100
AcDbLine
 10
227.8944511072
 20
42.4332239459
 30
0.0
 11
227.1872296234
 21
42.8414942183
 31
0.0
  0
LINE
  5
2BF
330
1F
100
AcDbEntity
  8
0
  6
Continuous
 62
     7
370
     0
100
AcDbLine
 10
222.3512899355
 20
36.7737548081
 30
0.0
 11
227.8944511072
 21
33.5737559776
 31
0.0
  0
LINE
  5
2C0
330
1F
100
AcDbEntity
  8
0
  6
Continuous
 62
     7
370
     0
100
AcDbLine
 10
222.2906297545
 20
36.7387250472
 30
0.0
 11
222.3512899355
 21
36.7737548081
 31
0.0
  0
LINE
  5
2C1
330
1F
100
AcDbEntity
  8
0
  6
Continuous
 62
     7
370
     0
100
AcDbLine
 10
223.6680448224
 20
30.0706218012
 30
0.0
 11
223.6414659661
 21
30.1581687832
 31
0.0
  0
LINE
  5
2C2
330
1F
100
AcDbEntity
  8
0
  6
Continuous
 62
     7
370
     0
100
AcDbLine
 10
227.1873442101
 20
32.3490112893
 30
0.0
 11
221.9370762236
 21
35.379926483
 31
0.0
  0
LINE
  5
2C3
330
1F
100
AcDbEntity
  8
0
  6
Continuous
 62
     7
370
     0
100
AcDbLine
 10
222.6022116097
 20
32.1994506496
 30
0.0
 11
222.5247654585
 21
32.4494775828
 31
0.0
  0
LWPOLYLINE
  5
2C4
330
1F
100
AcDbEntity
  8
0
  6
Continuous
 62
     7
370
     0
100
AcDbPolyline
 90
        3
 70
   128
 43
0.0
 10
222.2112301133
 20
31.5926303874
 10
222.2023160548
 20
31.6135857788
 10
221.7398768817
 20
32.9025841135
  0
ARC
  5
2C5
330
1F
100
AcDbEntity
  8
0
  6
Continuous
 62
     7
370
     0
100
AcDbCircle
 10
231.9010510306
 20
35.9036003348
 30
0.0
 40
11.15192355892379
100
AcDbArc
 50
195.6471844777
 51
214.1548056384
  0
LINE
  5
2C6
330
1F
100
AcDbEntity
  8
0
  6
Continuous
 62
     7
370
     0
100
AcDbLine
 10
218.4954091906
 20
33.0382474678
 30
0.0
 11
218.4619090315
 21
33.1482633556
 31
0.0
  0
OLE2FRAME
  5
2C7
330
1F
100
AcDbEntity
  8
0
100
AcDbOle2Frame
 70
     2
  3
Paintbrush-Bild
 10
13.8511154363
 20
38.264191557
 30
0.0
 11
51.6290888628
 21
31.9806341108
 31
0.0
 71
     2
 72
     0
 73
     1
 90
    12928
310
80552BED0767C5B32B40DDAF6807D121434000000000000000006FFBDDFB85D0
310
4940DDAF6807D121434000000000000000006FFBDDFB85D04940416F4BD60AFB
310
3F4000000000000000002BED0767C5B32B40416F4BD60AFB3F40000000000000
310
0000000000000100000000010000010000000100000000000100000000320000
310
D0CF11E0A1B11AE1000000000000000000000000000000003E000300FEFF0900
310
0600000000000000000000000100000001000000000000000010000002000000
310
01000000FEFFFFFF0000000000000000FFFFFFFFFFFFFFFFFFFFFFFFFFFFFFFF
310
FFFFFFFFFFFFFFFFFFFFFFFFFFFFFFFFFFFFFFFFFFFFFFFFFFFFFFFFFFFFFFFF
310
FFFFFFFFFFFFFFFFFFFFFFFFFFFFFFFFFFFFFFFFFFFFFFFFFFFFFFFFFFFFFFFF
310
FFFFFFFFFFFFFFFFFFFFFFFFFFFFFFFFFFFFFFFFFFFFFFFFFFFFFFFFFFFFFFFF
310
FFFFFFFFFFFFFFFFFFFFFFFFFFFFFFFFFFFFFFFFFFFFFFFFFFFFFFFFFFFFFFFF
310
FFFFFFFFFFFFFFFFFFFFFFFFFFFFFFFFFFFFFFFFFFFFFFFFFFFFFFFFFFFFFFFF
310
FFFFFFFFFFFFFFFFFFFFFFFFFFFFFFFFFFFFFFFFFFFFFFFFFFFFFFFFFFFFFFFF
310
FFFFFFFFFFFFFFFFFFFFFFFFFFFFFFFFFFFFFFFFFFFFFFFFFFFFFFFFFFFFFFFF
310
FFFFFFFFFFFFFFFFFFFFFFFFFFFFFFFFFFFFFFFFFFFFFFFFFFFFFFFFFFFFFFFF
310
FFFFFFFFFFFFFFFFFFFFFFFFFFFFFFFFFFFFFFFFFFFFFFFFFFFFFFFFFFFFFFFF
310
FFFFFFFFFFFFFFFFFFFFFFFFFFFFFFFFFFFFFFFFFFFFFFFFFFFFFFFFFFFFFFFF
310
FFFFFFFFFFFFFFFFFFFFFFFFFFFFFFFFFFFFFFFFFFFFFFFFFFFFFFFFFFFFFFFF
310
FFFFFFFFFFFFFFFFFFFFFFFFFFFFFFFFFFFFFFFFFFFFFFFFFFFFFFFFFFFFFFFF
310
FFFFFFFFFFFFFFFFFFFFFFFFFFFFFFFFFFFFFFFFFFFFFFFFFFFFFFFFFFFFFFFF
310
FDFFFFFFFEFFFFFFFEFFFFFFFEFFFFFF05000000060000000700000008000000
310
090000000A0000000B0000000C0000000D0000000E0000000F00000010000000
310
11000000120000001300000014000000150000001600000017000000FEFFFFFF
310
FFFFFFFFFFFFFFFFFFFFFFFFFFFFFFFFFFFFFFFFFFFFFFFFFFFFFFFFFFFFFFFF
310
FFFFFFFFFFFFFFFFFFFFFFFFFFFFFFFFFFFFFFFFFFFFFFFFFFFFFFFFFFFFFFFF
310
FFFFFFFFFFFFFFFFFFFFFFFFFFFFFFFFFFFFFFFFFFFFFFFFFFFFFFFFFFFFFFFF
310
FFFFFFFFFFFFFFFFFFFFFFFFFFFFFFFFFFFFFFFFFFFFFFFFFFFFFFFFFFFFFFFF
310
FFFFFFFFFFFFFFFFFFFFFFFFFFFFFFFFFFFFFFFFFFFFFFFFFFFFFFFFFFFFFFFF
310
FFFFFFFFFFFFFFFFFFFFFFFFFFFFFFFFFFFFFFFFFFFFFFFFFFFFFFFFFFFFFFFF
310
FFFFFFFFFFFFFFFFFFFFFFFFFFFFFFFFFFFFFFFFFFFFFFFFFFFFFFFFFFFFFFFF
310
FFFFFFFFFFFFFFFFFFFFFFFFFFFFFFFFFFFFFFFFFFFFFFFFFFFFFFFFFFFFFFFF
310
FFFFFFFFFFFFFFFFFFFFFFFFFFFFFFFFFFFFFFFFFFFFFFFFFFFFFFFFFFFFFFFF
310
FFFFFFFFFFFFFFFFFFFFFFFFFFFFFFFFFFFFFFFFFFFFFFFFFFFFFFFFFFFFFFFF
310
FFFFFFFFFFFFFFFFFFFFFFFFFFFFFFFFFFFFFFFFFFFFFFFFFFFFFFFFFFFFFFFF
310
FFFFFFFFFFFFFFFFFFFFFFFFFFFFFFFFFFFFFFFFFFFFFFFFFFFFFFFFFFFFFFFF
310
FFFFFFFFFFFFFFFFFFFFFFFFFFFFFFFFFFFFFFFFFFFFFFFFFFFFFFFFFFFFFFFF
310
52006F006F007400200045006E00740072007900000000000000000000000000
310
0000000000000000000000000000000000000000000000000000000000000000
310
16000500FFFFFFFFFFFFFFFF020000000A00030000000000C000000000000046
310
00000000000000000000000020CF81976603D20103000000C000000000000000
310
01004F006C006500000000000000000000000000000000000000000000000000
310
0000000000000000000000000000000000000000000000000000000000000000
310
0A000200FFFFFFFFFFFFFFFFFFFFFFFF00000000000000000000000000000000
310
0000000000000000000000000000000000000000000000001400000000000000
310
010043006F006D0070004F0062006A0000000000000000000000000000000000
310
0000000000000000000000000000000000000000000000000000000000000000
310
120002010100000003000000FFFFFFFF00000000000000000000000000000000
310
0000000000000000000000000000000000000000010000004D00000000000000
310
01004F006C006500310030004E00610074006900760065000000000000000000
310
0000000000000000000000000000000000000000000000000000000000000000
310
1A000200FFFFFFFFFFFFFFFFFFFFFFFF00000000000000000000000000000000
310
0000000000000000000000000000000000000000040000002426000000000000
310
FEFFFFFF02000000FEFFFFFFFFFFFFFFFFFFFFFFFFFFFFFFFFFFFFFFFFFFFFFF
310
FFFFFFFFFFFFFFFFFFFFFFFFFFFFFFFFFFFFFFFFFFFFFFFFFFFFFFFFFFFFFFFF
310
FFFFFFFFFFFFFFFFFFFFFFFFFFFFFFFFFFFFFFFFFFFFFFFFFFFFFFFFFFFFFFFF
310
FFFFFFFFFFFFFFFFFFFFFFFFFFFFFFFFFFFFFFFFFFFFFFFFFFFFFFFFFFFFFFFF
310
FFFFFFFFFFFFFFFFFFFFFFFFFFFFFFFFFFFFFFFFFFFFFFFFFFFFFFFFFFFFFFFF
310
FFFFFFFFFFFFFFFFFFFFFFFFFFFFFFFFFFFFFFFFFFFFFFFFFFFFFFFFFFFFFFFF
310
FFFFFFFFFFFFFFFFFFFFFFFFFFFFFFFFFFFFFFFFFFFFFFFFFFFFFFFFFFFFFFFF
310
FFFFFFFFFFFFFFFFFFFFFFFFFFFFFFFFFFFFFFFFFFFFFFFFFFFFFFFFFFFFFFFF
310
FFFFFFFFFFFFFFFFFFFFFFFFFFFFFFFFFFFFFFFFFFFFFFFFFFFFFFFFFFFFFFFF
310
FFFFFFFFFFFFFFFFFFFFFFFFFFFFFFFFFFFFFFFFFFFFFFFFFFFFFFFFFFFFFFFF
310
FFFFFFFFFFFFFFFFFFFFFFFFFFFFFFFFFFFFFFFFFFFFFFFFFFFFFFFFFFFFFFFF
310
FFFFFFFFFFFFFFFFFFFFFFFFFFFFFFFFFFFFFFFFFFFFFFFFFFFFFFFFFFFFFFFF
310
FFFFFFFFFFFFFFFFFFFFFFFFFFFFFFFFFFFFFFFFFFFFFFFFFFFFFFFFFFFFFFFF
310
FFFFFFFFFFFFFFFFFFFFFFFFFFFFFFFFFFFFFFFFFFFFFFFFFFFFFFFFFFFFFFFF
310
FFFFFFFFFFFFFFFFFFFFFFFFFFFFFFFFFFFFFFFFFFFFFFFFFFFFFFFFFFFFFFFF
310
FFFFFFFFFFFFFFFFFFFFFFFFFFFFFFFFFFFFFFFFFFFFFFFFFFFFFFFFFFFFFFFF
310
0100000200000000000000000000000000000000000000000000000000000000
310
0000000000000000000000000000000000000000000000000000000000000000
310
0100FEFF030A0000FFFFFFFF0A00030000000000C00000000000004607000000
310
5042727573680007000000504272757368000700000050427275736800F439B2
310
7100000000000000000000000000000000000000000000000000000000000000
310
0000000000000000000000000000000000000000000000000000000000000000
310
0000000000000000000000000000000000000000000000000000000000000000
310
0000000000000000000000000000000000000000000000000000000000000000
310
0000000000000000000000000000000000000000000000000000000000000000
310
0000000000000000000000000000000000000000000000000000000000000000
310
0000000000000000000000000000000000000000000000000000000000000000
310
0000000000000000000000000000000000000000000000000000000000000000
310
0000000000000000000000000000000000000000000000000000000000000000
310
0000000000000000000000000000000000000000000000000000000000000000
310
0000000000000000000000000000000000000000000000000000000000000000
310
0000000000000000000000000000000000000000000000000000000000000000
310
20260000424D0E260000000000003E00000028000000B40200006E0000000100
310
01000000000000000000130B0000130B00000200000002000000000000FFFFFF
310
FFFFFFFFFFFFFFFFFFFFFFFFFFFFFFFFFFFFFFFFFFFFFFFFFFFFFFFFFFFFFFFF
310
FFFFFFFFFFFFFFFFFFFFFFFFFFFFFFFFFFFFFFFFFFFFFFFFFFFFFFFFFFFFFFFF
310
FFFFFFFFFFFFFFFFFFFFFFFFFFFFFFFFFFFFFFFFFFFFFFFFF000FFFFFFFFFFFF
310
FFFFFFFFFFFFFFFFFFFFFFFFFFFFFFFFFFFFFFFFFFFFFFFFFFFFFFFFFFFFFFFF
310
FFFFFFFFFFFFFFFFFFFFFFFFFFFFFFFFFFFFFFFFFFFFFFFFFFFFFFFFFFFFFFFF
310
FFFFFFFFFFFFFFFFFFFFFFFFFFFFFFFFF000FFFFFFFFFFFFFFFFFFFFFFFFFFFF
310
FFFFFFFFFFFFFFFFFFFFFFFFFFFFFFFFFFFFFFFFFFFFFFFFFFFFFFFFFFFFFFFF
310
FFFFFFFFFFFFFFFFFFFFFFFFFFFFFFFFFFFFFFFFFFFFFFFFFFFFFFFFFFFFFFFF
310
FFFFFFFFFFFFFFFFF000FFFFFFFFFFFFFFFFFFFFFFFFFFFFFFFFFFFFFFFFFFFF
310
FFFFFFFFFFFFFFFFFFFFFFFFFFFFFFFFFFFFFFFFFFFFFFFFFFFFFFFFFFFFFFFF
310
FFFFFFFFFFFFFFFFFFFFFFFFFFFFFFFFFFFFFFFFFFFFFFFFFFFFFFFFFFFFFFFF
310
F000FFFFFFFFFFFFFFFFFFFFFFFFFFFFFFFFFFFFFFFFFFFFFFFFFFFFFFFFFFFF
310
FFFFFFFFFFFFFFFFFFFFFFFFFFFFFFFFFFFFFFFFFFFFFFFFFFFFFFFFFFFFFFFF
310
FFFFFFFFFFFFFFFFFFFFFFFFFFFFFFFFFFFFFFFFFFFFFFFFF000FFFFFFFFFFFF
310
FFFFFFFFFFFFFFFFFFFFFFFFFFFFFFFFFFFFFFFFFFFFFFFFFFFFFFFFFFFFFFFF
310
FFFFFFFFFFFFFFFFFFFFFFFFFFFFFFFFFFFFFFFFFFFFFFFFFFFFFFFFFFFFFFFF
310
FFFFFFFFFFFFFFFFFFFFFFFFFFFFFFFFF000FFFFFFFFFFFFFFFFFFFFFFFFFFFF
310
FFFFFFFFFFFFFFFFFFFFFFFFFFFFFFFFFFFFFFFFFFFFFFFFFFFFFFFFFFFFFFFF
310
FFFFFFFFFFFFFFFFFFFFFFFFFFFFFFFFFFFFFFFFFFFFFFFFFFFFFFFFFFFFFFFF
310
FFFFFFFFFFFFFFFFF000FFFFFFFFFFFFFFFFFFFFFFFFFFFFFFFFFFFFFFFFFFFF
310
FFFFFFFFFFFFFFFFFFFFFFFFFFFFFFFFFFFFFFFFFFFFFFFFFFFFFFFFFFFFFFFF
310
FFFFFFFFFFFFFFFFFFFFFFFFFFFFFFFFFFFFFFFFFFFFFFFFFFFFFFFFFFFFFFFF
310
F000FFFFFFFFFFFFFFFFFFFFFFFFFFFFFFFFFFFFFFFFFFFFFFFFFFFFFFFFFFFF
310
FFFFFFFFFFFFFFFFFFFFFFFFFFFFFFFFFFFFFFFFFFFFFFFFFFFFFFFFFFFFFFFF
310
FFFFFFFFFFFFFFFFFFFFFFFFFFFFFFFFFFFFFFFFFFFFFFFFF000FFFFFFFFFFFF
310
FFFFFFFFFFFFFFFFFFFFFFFFFFFFFFFFFFFFFFFFFFFFFFFFFFFFFFFFFFFFFFFF
310
FFFFFFFFFFFFFFFFFFFFFFFFFFFFFFFFFFFFFFFFFFFFFFFFFFFFFFFFFFFFFFFF
310
FFFFFFFFFFFFFFFFFFFFFFFFFFFFFFFFF000FFFFFFFFFFFFFFFFFFFFFFFFFFFF
310
FFFFFFFFFFFFFFFFFFFFFFFFFFFFFFFFFFFFFFFFFFFFFFFFFFFFFFFFFFFFFFFF
310
FFFFFFFFFFFFFFFFFFFFFFFFFFFFFFFFFFFFFFFFFFFFFFFFFFFFFFFFFFFFFFFF
310
FFFFFFFFFFFFFFFFF000FFFFFFFFFFFFFFFFFFFFFFFFFFFFFFFFFFFFFFFFFFFF
310
FFFFFFFFFFFFFFFFFFFFFFFFFFFFFFFFFFFFFFFFFFFFFFFFFFFFFFFFFFFFFFFF
310
FFFFFFFFFFFFFFFFFFFFFFFFFFFFFFFFFFFFFFFFFFFFFFFFFFFFFFFFFFFFFFFF
310
F000FFFFFFFFFFFFFFFFFFFFFFFFFFFFFFFFFFFFFFFFFFFFFFFFFFFFFFFFFFFF
310
FFFFFFFFFFFFFFFFFFFFFFFFFFFFFFFFFFFFFFFFFFFFFFFFFFFFFFFFFFFFFFFF
310
FFFFFFFFFFFFFFFFFFFFFFFFFFFFFFFFFFFFFFFFFFFFFFFFF000FFFFFFFFFFFF
310
FFFFFFFFFFFFFFFFFFFFFFFFFFFFFFFFFFFFFFFFFFFFFFFFFFFFFFFFFFFFFFFF
310
FFFFFFFFFFFFFFFFFFFFFFFFFFFFFFFFFFFFFFFFFFFFFFFFFFFFFFFFFFFFFFFF
310
FFFFFFFFFFFFFFFFFFFFFFFFFFFFFFFFF000FFFFFFFFFFFFFFFFFFFFFFFFFFFF
310
FFFFFFFFFFFFFFFFFFFFFFFFFFFFFFFFFFFFFFFFFFFFFFFFFFFFFFFFFFFFFFFF
310
FFFFFFFFFFFFFFFFFFFFFFFFFFFFFFFFFFFFFFFFFFFFFFFFFFFFFFFFFFFFFFFF
310
FFFFFFFFFFFFFFFFF000FFFFFFFFFFFFFFFFFFFFFFFFFFFFFFFFFFFFFFFFFFFF
310
FFFFFFFFFFFFFFFFFFFFFFFFFFFFFFFFFFFFFFFFFFFFFFFFFFFFFFFFFFFFFFFF
310
FFFFFFFFFFFFFFFFFFFFFFFFFFFFFFFFFFFFFFFFFFFFFFFFFFFFFFFFFFFFFFFF
310
F000FFFFFFFFFFFFFFFFFFFFFFFFFFFFFFFFFFFFFFFFFFFFFFFFFFFFFFFFFFFF
310
FFFFFFFFFFFFFFFFFFFFFFFFFFFFFFFFFFFFFFFFFFFFFFFFFFFFFFFFFFFFFFFF
310
FFFFFFFFFFFFFFFFFFFFFFFFFFFFFFFFFFFFFFFFFFFFFFFFF000FFFFFFFFFFFF
310
FFFFFFFFFFFFFFFFFFFFFFFFFFFFFFFFFFFFFFFFFFFFFFFFFFFFFFFFFFFFFFFF
310
FFFFFFFFFFFFFFFFFFFFFFFFFFFFFFFFFFFFFFFFFFFFFFFFFFFFFFFFFFFFFFFF
310
FFFFFFFFFFFFFFFFFFFFFFFFFFFFFFFFF000FFFFFFFFFFFFFFFFFFFFFFFFFFFF
310
FFFFFFFFFFFFFFFFFFFFFFFFFFFFFFFFFFFFFFFFFFFFFFFFFFFFFFFFFFFFFFFF
310
FFFFFFFFFFFFFFFFFFFFFFFFFFFFFFFFFFFFFFFFFFFFFFFFFFFFFFFFFFFFFFFF
310
FFFFFFFFFFFFFFFFF000FFFFF80003FFFFFFFFFFFFFFFFFFFFFFFFFFFFFFFFFF
310
FFFFF00007FFFFFFFFFF00007FFFFFF800000000000000007FFFFFFFFFFFFFFF
310
FFFFFFFC001FFFFFFFFFFFFFFC001FFFFFFFFFFFFFFFFFFFFFFFFFFE0007FFFF
310
F000FFFF8000007FFFFFFFF8000FFFFFC0007FFFFF80007FFFFF0000007FFFFF
310
FFF8000007FFFFF800000000000000007FFFFFF0001FFFFFFFFFFFC00001FFFF
310
FFFFFFFFC00001FFFFFFFF000000000003FFFFE000007FFFF000FFFE0000000F
310
FFFFFFF0000FFFFF80007FFFFF80007FFFFC0000001FFFFFFFC0000001FFFFF8
310
00000000000000007FFFFFF0001FFFFFFFFFFE0000003FFFFFFFFFFE0000003F
310
FFFFFF000000000003FFFF0000000FFFF000FFF800000003FFFFFFF00007FFFF
310
80007FFFFF80007FFFF000000007FFFFFF000000003FFFF80000000000000000
310
7FFFFFF0001FFFFFFFFFF80000000FFFFFFFFFF80000000FFFFFFF0000000000
310
03FFFC00000003FFF000FFE000000000FFFFFFF00007FFFF80003FFFFF80007F
310
FFC000000001FFFFFC000000001FFFF800000000000000007FFFFFF0001FFFFF
310
FFFFE000000003FFFFFFFFE000000003FFFFFF000000000003FFF000000000FF
310
F000FF80000000007FFFFFF00007FFFF80003FFFFF80007FFF8000000000FFFF
310
F80000000007FFF800000000000000007FFFFFF0001FFFFFFFFFC000000001FF
310
FFFFFFC000000001FFFFFF000000000003FFC0000000007FF000FF0000000000
310
3FFFFFE00007FFFF00003FFFFF80007FFE00000000003FFFF00000000003FFF8
310
00000000000000007FFFFFF0001FFFFFFFFF8000000000FFFFFFFF8000000000
310
FFFFFF000000000003FF80000000003FF000FE00000000001FFFFFE00003FFFF
310
00003FFFFF80007FFC00000000001FFFE00000000001FFF8000001FFFE000000
310
7FFFFFF0001FFFFFFFFE00000000003FFFFFFE00000000003FFFFF0000000000
310
03FF00000000001FF000FC00000000000FFFFFE00003FFFF00001FFFFF80007F
310
F800000000001FFFC00000000000FFF8000001FFFE0000007FFFFFF0001FFFFF
310
FFFC00000000001FFFFFFC00000000001FFFFF000000000003FE00000000000F
310
F000F8000000000007FFFFE00003FFFF00001FFFFF80007FF800000000000FFF
310
800000000000FFF8000001FFFE0000007FFFFFF0001FFFFFFFF800000000000F
310
FFFFF800000000000FFFFF000000000003FC000000000007F000F80000000000
310
03FFFFC00003FFFE00001FFFFF80007FF0000000000007FF0000000000007FF8
310
000001FFFE0000007FFFFFF0001FFFFFFFF0000000000007FFFFF00000000000
310
07FFFF000000000003F8000000000003F000F0000000000003FFFFC00001FFFE
310
00001FFFFF80007FE0000000000007FE0000000000003FF8000001FFFE000000
310
7FFFFFF0001FFFFFFFF0000000000007FFFFF0000000000007FFFF0000000000
310
03F800001F800003F000E00001FFF00001FFFFC00001FFFE00000FFFFF80007F
310
E00001FFE00003FE00001FFF00003FF8000001FFFE0000007FFFFFF0001FFFFF
310
FFE000003E000003FFFFE000003E000003FFFF000000000003F00001FFF80001
310
F000E00007FFFC0001FFFFC00001FFFE00000FFFFF80007FC0000FFFFC0003FC
310
0000FFFFC0001FF8000001FFFE0000007FFFFFF0001FFFFFFFC00003FFE00001
310
FFFFC00003FFE00001FFFF0001FFFFFFFFF00007FFFE0001F000E0000FFFFF00
310
00FFFF800001FFFC00000FFFFF80007FC0001FFFFE0001FC0001FFFFE0001FF8
310
000001FFFE0000007FFFFFF0001FFFFFFF80000FFFF80000FFFF80000FFFF800
310
00FFFF0003FFFFFFFFE0000FFFFF8000F000C0003FFFFF8000FFFF800000FFFC
310
000007FFFF80007F80003FFFFF0001FC0003FFFFF0001FF8000001FFFE000000
310
7FFFFFF0001FFFFFFF80003FFFFE0000FFFF80003FFFFE0000FFFF0003FFFFFF
310
FFE0003FFFFF8000F000C0003FFFFF8000FFFF800000FFFC000007FFFF80007F
310
80007FFFFF8001F80007FFFFF8000FF8000001FFFE0000007FFFFFF0001FFFFF
310
FF00007FFFFF00007FFF00007FFFFF00007FFF0003FFFFFFFFE0003FFFFFC000
310
F000C0007FFFFFC000FFFF000000FFFC000007FFFF80007F8000FFFFFF8000F8
310
000FFFFFF8000FF8000001FFFE0000007FFFFFF0001FFFFFFF0000FFFFFF8000
310
7FFF0000FFFFFF80007FFF0003FFFFFFFFC0007FFFFFC00070008000FFFFFFC0
310
00FFFF000000FFF8000007FFFF80007F8000FFFFFF8000F8000FFFFFF8000FF8
310
000001FFFE0000007FFFFFF0001FFFFFFE0001FFFFFFC0003FFE0001FFFFFFC0
310
003FFF0003FFFFFFFFC0007FFFFFE00070008000FFFFFFC0007FFF0000007FF8
310
000003FFFF80007F0001FFFFFF8000F8000FFFFFF8000FF8000001FFFE000000
310
7FFFFFF0001FFFFFFE0001FFFFFFC0003FFE0001FFFFFFC0003FFF0003FFFFFF
310
FFC000FFFFFFE00070008000FFFFFFC0007FFF0000007FF8000003FFFF80007F
310
0001FFFFFF8000F8001FFFFFF8000FF8000001FFFE0000007FFFFFF0001FFFFF
310
FE0003FFFFFFE0003FFE0003FFFFFFE0003FFF0003FFFFFFFFC000FFFFFFE000
310
70008000FFFFFFC0007FFE0000007FF8000003FFFF80007F0001FFFFFF8000F0
310
001FFFFFF8000FF8000001FFFE0000007FFFFFF0001FFFFFFC0003FFFFFFE000
310
1FFC0003FFFFFFE0001FFF0003FFFFFFFFC000FFFFFFC00070008000FFFFFF80
310
007FFE0000007FF0000003FFFF80007F0001FFFFFF0000F0001FFFFFF8000FF8
310
000001FFFE0000007FFFFFF0001FFFFFFC0007FFFFFFF0001FFC0007FFFFFFF0
310
001FFF0003FFFFFFFFC000FFFFFFC00070008001FFFFFF0000FFFE0000003FF0
310
000001FFFF80007F0001FFFFFF0000F8001FFFFFF0000FF8000001FFFE000000
310
7FFFFFF0001FFFFFFC0007FFFFFFF0001FFC0007FFFFFFF0001FFF0003FFFFFF
310
FFC001FFFFFF80007000FFFFFFFFFE0000FFFE0008003FF0008001FFFF80007F
310
FFFFFFFFFC0000FFFFFFFFFFE0000FF8000001FFFE0000007FFFFFF0001FFFFF
310
F8000FFFFFFFF8000FF8000FFFFFFFF8000FFF0003FFFFFFFFFFFFFFFFFF0000
310
7000FFFFFFFFFC0000FFFC0008003FF0008001FFFF80007FFFFFFFFFF80001FF
310
FFFFFFFF80000FF8000001FFFE0000007FFFFFF0001FFFFFF8000FFFFFFFF800
310
0FF8000FFFFFFFF8000FFF0003FFFFFFFFFFFFFFFFFE0000F000FFFFFFFFE000
310
00FFFC000C003FE000C001FFFF80007FFFFFFFFFC00001FFFFFFFFFE00001FF8
310
000001FFFE0000007FFFFFF0001FFFFFF8000FFFFFFFF8000FF8000FFFFFFFF8
310
000FFF0003FFFFFFFFFFFFFFFFF00000F000FFFFFFFE000001FFFC000C001FE0
310
00C000FFFF80007FFFFFFFFE000001FFFFFFFFE000001FF80FFFFFFFFFFFFFC0
310
7FFFFFF0001FFFFFF8000FFFFFFFF8000FF8000FFFFFFFF8000FFF0003FFFFFF
310
FFFFFFFFFF800000F000FFFFFFC0000001FFFC001C001FE001C000FFFF80007F
310
FFFFFF80000003FFFFFFF80000001FF80FFFFFFFFFFFFFC07FFFFFF0001FFFFF
310
F8001FFFFFFFFC000FF8001FFFFFFFFC000FFF0003FFFFFFFFFFFFFFF0000001
310
F000FFFFF800000001FFF8001C001FE001C000FFFF80007FFFFFF800000003FF
310
FFFF800000003FF80FFFFFFFFFFFFFC07FFFFFF0001FFFFFF8001FFFFFFFFC00
310
0FF8001FFFFFFFFC000FFF0003FFFFFFFFFFFFFE00000001F000FFFFC0000000
310
03FFF8001E001FC001E000FFFF80007FFFFF8000000007FFFFFC000000003FF8
310
0FFFFFFFFFFFFFC07FFFFFF0001FFFFFF8001FFFFFFFFC000FF8001FFFFFFFFC
310
000FFF0003FFFFFFFFFFFFE000000003F000FFFE0000000007FFF8001E000FC0
310
01E0007FFF80007FFFFE0000000007FFFFE0000000007FF80FFFFFFFFFFFFFC0
310
7FFFFFF0001FFFFFF0001FFFFFFFFC0007F0001FFFFFFFFC0007FF0003FFFFFF
310
FFFFFF0000000003F000FFF80000000007FFF8001E000FC003E0007FFF80007F
310
FFF0000000000FFFFF8000000000FFF80FFFFFFFFFFFFFC07FFFFFF0001FFFFF
310
F0001FFFFFFFFC0007F0001FFFFFFFFC0007FF0003FFFFFFFFFFFC0000000007
310
F000FFE0000000000FFFF0003E000FC003E0007FFF80007FFFC0000000001FFF
310
FE0000000001FFF80FFFFFFFFFFFFFC07FFFFFF0001FFFFFF0001FFFFFFFFC00
310
07F0001FFFFFFFFC0007FF0003FFFFFFFFFFF0000000000FF000FFC000000000
310
1FFFF0003F000F8003F0003FFF80007FFF80000000003FFFF80000000003FFF8
310
0FFFFFFFFFFFFFC07FFFFFF0001FFFFFF0001FFFFFFFFC0007F0001FFFFFFFFC
310
0007FF0003FFFFFFFFFFE0000000001FF000FF00000000007FFFF0003F000780
310
03F0003FFF80007FFF00000000007FFFF00000000007FFF80FFFFFFFFFFFFFC0
310
7FFFFFF0001FFFFFF0001FFFFFFFFC0007F0001FFFFFFFFC0007FF0003FFFFFF
310
FFFF80000000007FF000FE0000000000FFFFE0003F00078007F0003FFF80007F
310
FE0000000001FFFFE0000000001FFFF80FFFFFFFFFFFFFC07FFFFFF0001FFFFF
310
F0001FFFFFFFFC0007F0001FFFFFFFFC0007FF0003FFFFFFFFFF0000000000FF
310
F000FC0000000003FFFFE0007F00078007F0003FFF80007FFC0000000007FFFF
310
C0000000007FFFF80FFFFFFFFFFFFFC07FFFFFF0001FFFFFF8001FFFFFFFFC00
310
0FF8001FFFFFFFFC000FFF0003FFFFFFFFFE0000000003FFF000FC000000000F
310
FFFFE0007F80070007F8001FFF80007FF8000000001FFFFF8000000001FFFFF8
310
0FFFFFFFFFFFFFC07FFFFFF0001FFFFFF8001FFFFFFFFC000FF8001FFFFFFFFC
310
000FFF0003FFFFFFFFFC000000000FFFF000F8000000007FFFFFE0007F800700
310
07F8001FFF80007FF000000000FFFFFF800000000FFFFFF80FFFFFFFFFFFFFC0
310
7FFFFFF0001FFFFFF8000FFFFFFFF8000FF8000FFFFFFFF8000FFF0003FFFFFF
310
FFFC000000007FFFF000F800000007FFFFFFC0007F8003000FF8001FFF80007F
310
F000000007FFFFFF000000007FFFFFF80FFFFFFFFFFFFFC07FFFFFF0001FFFFF
310
F8000FFFFFFFF8000FF8000FFFFFFFF8000FFF0003FFFFFFFFF80000000FFFFF
310
F000F0000000FFFFFFFFC000FF8003000FF8001FFF80007FE0000000FFFFFFFF
310
0000000FFFFFFFF8000001FFFE0000007FFFFFF0001FFFFFF8000FFFFFFFF800
310
0FF8000FFFFFFFF8000FFF0003FFFFFFFFF8000000FFFFFFF000F000000FFFFF
310
FFFFC000FFC002000FF8000FFF80007FE000001FFFFFFFFE000001FFFFFFFFF8
310
000001FFFE0000007FFFFFF0001FFFFFF8000FFFFFFFF8000FF8000FFFFFFFF8
310
000FFF0003FFFFFFFFF000001FFFFFFFF000E00000FFFFFFFFFFC000FFC00200
310
0FFC000FFF80007FE00001FFFFFFFFFE00001FFFFFFFFFF8000001FFFE000000
310
7FFFFFF0001FFFFFFC000FFFFFFFF8001FFC000FFFFFFFF8001FFF0003FFFFFF
310
FFF00001FFFFFFFFF000E00007FFFFFFFFFF8000FFC000001FFC000FFF80007F
310
C0000FFFFFFFFFFE0000FFFFFFFFFFF8000001FFFE0000007FFFFFF0001FFFFF
310
FC0007FFFFFFF0001FFC0007FFFFFFF0001FFF0003FFFFFFFFF00007FFFFFFFF
310
F000E0001FFFFFFFFFFF8000FFC000001FFC000FFF80007FC0003FFFFFFFFFFE
310
0001FFFFFFFFFFF8000001FFFE0000007FFFFFF0001FFFFFFC0007FFFFFFF000
310
1FFC0007FFFFFFF0001FFF0003FFFFFFFFF0001FFFFFFFFFF000E0003FFFFF00
310
03FF8001FFE000001FFC0007FF80007FC0007FFFFF0007FC0003FFFFF0003FF8
310
000001FFFE0000007FFFFFF0001FFFFFFC0003FFFFFFE0001FFC0003FFFFFFE0
310
001FFF0003FFFFFFFFF0003FFFFFFFFFF000E0003FFFFF0001FF8001FFE00000
310
1FFE0007FF80007FC0007FFFFE0003FC0007FFFFE0003FF8000001FFFE000000
310
7FFFFFF0001FFFFFFE0003FFFFFFE0003FFE0003FFFFFFE0003FFF0003FFFFFF
310
FFF0003FFFFF8001F000E0003FFFFF0001FF0001FFE000001FFE0007FF80007F
310
C0007FFFFE0003FC0007FFFFE0003FF8000001FFFE0000007FFFFFF0001FFFFF
310
FE0001FFFFFFC0003FFE0001FFFFFFC0003FFF0003FFFFFFFFF0003FFFFF0001
310
F000E0003FFFFF0003FF0001FFE000003FFE0007FF80007FC0007FFFFE0003FC
310
0007FFFFE0003FF8000001FFFE0000007FFFFFF0001FFFFFFF0001FFFFFFC000
310
7FFF0001FFFFFFC0007FFF0003FFFFFFFFF0003FFFFF0001F000E0003FFFFE00
310
03FF0003FFF000003FFE0003FF80007FC0007FFFFC0003FE0007FFFFE0003FF8
310
000001FFFE0000007FFFFFF0001FFFFFFF0000FFFFFF80007FFF0000FFFFFF80
310
007FFF0003FFFFFFFFF0003FFFFF0001F000E0003FFFFE0003FF0003FFF00000
310
3FFF0003FF80007FC0007FFFFC0007FE0007FFFFC0003FF8000001FFFE000000
310
7FFFFFF0001FFFFFFF80007FFFFF0000FFFF80007FFFFF0000FFFF0003FFFFFF
310
FFF0003FFFFF0003F000E0003FFFFC0003FE0003FFF000003FFF0003FF80007F
310
E0003FFFF80007FE0003FFFFC0007FF8000001FFFE0000007FFFFFF0001FFFFF
310
FF80003FFFFE0000FFFF80003FFFFE0000FFFF0003FFFFFFFFF0001FFFFE0003
310
F000F0001FFFF80003FE0003FFF000007FFF0001FF80007FE0003FFFF00007FE
310
0001FFFF80007FF8000001FFFE0000007FFFFFF0001FFFFFFFC0000FFFF80001
310
FFFFC0000FFFF80001FFFF0003FFFFFFFFF0001FFFFC0003F000F0000FFFF000
310
07FE0007FFF800007FFF0001FF80007FE0001FFFE00007FF0000FFFE00007FF8
310
000001FFFE0000007FFFFFF0001FFFFFFFC00003FFE00001FFFFC00003FFE000
310
01FFFF0003FFFFFFFFF8000FFFF80003F000F00003FFC00007FC0007FFF80000
310
7FFF8001FF80007FF00007FF80000FFF00007FF80000FFF8000001FFFE000000
310
7F80000000000001FFE000003E000003FFFFE000003E000003FFFF0003FFFFFF
310
FFF80003FFE00007F000F800000000000FFC0007FFF800007FFF8001FF80007F
310
F000000000000FFF000000000000FFF8000001FFFE0000007F80000000000001
310
FFF0000000000007FFFFF0000000000007FFFF0003FFFFFFFFFC00007E000007
310
F000F800000000000FFC0007FFF80000FFFF8000FF80007FF800000000001FFF
310
800000000001FFF8000001FFFE0000007F80000000000001FFF800000000000F
310
FFFFF800000000000FFFFF0003FFFFFFFFFC00000000000FF000FC0000000000
310
1FFC0007FFFC0000FFFF8000FF80007FF800000000003FFFC00000000001FFF8
310
000001FFFE0000007F80000000000001FFF800000000000FFFFFF80000000000
310
0FFFFF0003FFFFFFFFFE00000000001FF000FE00000000003FF8000FFFFC0000
310
FFFF8000FF80007FFC00000000003FFFC00000000003FFF8000001FFFE000000
310
7F80000000000001FFFC00000000001FFFFFFC00000000001FFFFF0003FFFFFF
310
FFFF00000000001FF000FF00000000003FF8000FFFFC0000FFFFC000FF80007F
310
FE00000000007FFFE00000000007FFF8000001FFFE0000007F80000000000001
310
FFFE00000000003FFFFFFE00000000003FFFFF0003FFFFFFFFFF80000000003F
310
F000FF80000000007FF8000FFFFC0001FFFFC0007F80007FFF0000000000FFFF
310
F0000000000FFFF800000000000000007F80000000000001FFFF8000000000FF
310
FFFFFF8000000000FFFFFF0003FFFFFFFFFFC0000000007FF000FFC000000000
310
FFF8000FFFFE0001FFFFC0007F80007FFF8000000001FFFFF8000000001FFFF8
310
00000000000000007F80000000000001FFFFC000000001FFFFFFFFC000000001
310
FFFFFF0003FFFFFFFFFFE000000000FFF000FFE000000003FFF0001FFFFE0001
310
FFFFC0007F80007FFFC000000007FFFFFE000000003FFFF80000000000000000
310
7F80000000000001FFFFE000000003FFFFFFFFE000000003FFFFFF0003FFFFFF
310
FFFFF000000003FFF000FFF80000000FFFF0001FFFFE0001FFFFE0007F80007F
310
FFF00000000FFFFFFF00000000FFFFF800000000000000007F80000000000001
310
FFFFF80000000FFFFFFFFFF80000000FFFFFFF0003FFFFFFFFFFFC0000000FFF
310
F000FFFE0000003FFFF0001FFFFE0003FFFFE0003F80007FFFFC0000003FFFFF
310
FFC0000003FFFFF800000000000000007F80000000000001FFFFFE0000003FFF
310
FFFFFFFE0000003FFFFFFF0003FFFFFFFFFFFF0000003FFFF000FFFF800000FF
310
FFF0001FFFFF0003FFFFE0003F80007FFFFF000001FFFFFFFFF800001FFFFFF8
310
00000000000000007F80000000000001FFFFFFC00001FFFFFFFFFFFFC00001FF
310
FFFFFF0003FFFFFFFFFFFFC00000FFFFF000FFFFF8000FFFFFFFFFFFFFFFFFFF
310
FFFFFFFFFFFFFFFFFFFFF0001FFFFFFFFFFF0000FFFFFFF80000000000000000
310
7FFFFFFFFFFFFFFFFFFFFFFC001FFFFFFFFFFFFFFC001FFFFFFFFFFFFFFFFFFF
310
FFFFFFFC001FFFFFF000FFFFFFFFFFFFFFFFFFFFFFFFFFFFFFFFFFFFFFFFFFFF
310
FFFFFFFFFFFFFFFFFFFFFFFFFFFFFFFFFFFFFFFFFFFFFFFFFFFFFFFFFFFFFFFF
310
FFFFFFFFFFFFFFFFFFFFFFFFFFFFFFFFFFFFFFFFFFFFFFFFFFFFFFFFFFFFFFFF
310
F000FFFFFFFFFFFFFFFFFFFFFFFFFFFFFFFFFFFFFFFFFFFFFFFFFFFFFFFFFFFF
310
FFFFFFFFFFFFFFFFFFFFFFFFFFFFFFFFFFFFFFFFFFFFFFFFFFFFFFFFFFFFFFFF
310
FFFFFFFFFFFFFFFFFFFFFFFFFFFFFFFFFFFFFFFFFFFFFFFFF000FFFFFFFFFFFF
310
FFFFFFFFFFFFFFFFFFFFFFFFFFFFFFFFFFFFFFFFFFFFFFFFFFFFFFFFFFFFFFFF
310
FFFFFFFFFFFFFFFFFFFFFFFFFFFFFFFFFFFFFFFFFFFFFFFFFFFFFFFFFFFFFFFF
310
FFFFFFFFFFFFFFFFFFFFFFFFFFFFFFFFF000FFFFFFFFFFFFFFFFFFFFFFFFFFFF
310
FFFFFFFFFFFFFFFFFFFFFFFFFFFFFFFFFFFFFFFFFFFFFFFFFFFFFFFFFFFFFFFF
310
FFFFFFFFFFFFFFFFFFFFFFFFFFFFFFFFFFFFFFFFFFFFFFFFFFFFFFFFFFFFFFFF
310
FFFFFFFFFFFFFFFFF000FFFFFFFFFFFFFFFFFFFFFFFFFFFFFFFFFFFFFFFFFFFF
310
FFFFFFFFFFFFFFFFFFFFFFFFFFFFFFFFFFFFFFFFFFFFFFFFFFFFFFFFFFFFFFFF
310
FFFFFFFFFFFFFFFFFFFFFFFFFFFFFFFFFFFFFFFFFFFFFFFFFFFFFFFFFFFFFFFF
310
F000FFFFFFFFFFFFFFFFFFFFFFFFFFFFFFFFFFFFFFFFFFFFFFFFFFFFFFFFFFFF
310
FFFFFFFFFFFFFFFFFFFFFFFFFFFFFFFFFFFFFFFFFFFFFFFFFFFFFFFFFFFFFFFF
310
FFFFFFFFFFFFFFFFFFFFFFFFFFFFFFFFFFFFFFFFFFFFFFFFF000FFFFFFFFFFFF
310
FFFFFFFFFFFFFFFFFFFFFFFFFFFFFFFFFFFFFFFFFFFFFFFFFFFFFFFFFFFFFFFF
310
FFFFFFFFFFFFFFFFFFFFFFFFFFFFFFFFFFFFFFFFFFFFFFFFFFFFFFFFFFFFFFFF
310
FFFFFFFFFFFFFFFFFFFFFFFFFFFFFFFFF000FFFFFFFFFFFFFFFFFFFFFFFFFFFF
310
FFFFFFFFFFFFFFFFFFFFFFFFFFFFFFFFFFFFFFFFFFFFFFFFFFFFFFFFFFFFFFFF
310
FFFFFFFFFFFFFFFFFFFFFFFFFFFFFFFFFFFFFFFFFFFFFFFFFFFFFFFFFFFFFFFF
310
FFFFFFFFFFFFFFFFF000FFFFFFFFFFFFFFFFFFFFFFFFFFFFFFFFFFFFFFFFFFFF
310
FFFFFFFFFFFFFFFFFFFFFFFFFFFFFFFFFFFFFFFFFFFFFFFFFFFFFFFFFFFFFFFF
310
FFFFFFFFFFFFFFFFFFFFFFFFFFFFFFFFFFFFFFFFFFFFFFFFFFFFFFFFFFFFFFFF
310
F000FFFFFFFFFFFFFFFFFFFFFFFFFFFFFFFFFFFFFFFFFFFFFFFFFFFFFFFFFFFF
310
FFFFFFFFFFFFFFFFFFFFFFFFFFFFFFFFFFFFFFFFFFFFFFFFFFFFFFFFFFFFFFFF
310
FFFFFFFFFFFFFFFFFFFFFFFFFFFFFFFFFFFFFFFFFFFFFFFFF000FFFFFFFFFFFF
310
FFFFFFFFFFFFFFFFFFFFFFFFFFFFFFFFFFFFFFFFFFFFFFFFFFFFFFFFFFFFFFFF
310
FFFFFFFFFFFFFFFFFFFFFFFFFFFFFFFFFFFFFFFFFFFFFFFFFFFFFFFFFFFFFFFF
310
FFFFFFFFFFFFFFFFFFFFFFFFFFFFFFFFF000FFFFFFFFFFFFFFFFFFFFFFFFFFFF
310
FFFFFFFFFFFFFFFFFFFFFFFFFFFFFFFFFFFFFFFFFFFFFFFFFFFFFFFFFFFFFFFF
310
FFFFFFFFFFFFFFFFFFFFFFFFFFFFFFFFFFFFFFFFFFFFFFFFFFFFFFFFFFFFFFFF
310
FFFFFFFFFFFFFFFFF000FFFFFFFFFFFFFFFFFFFFFFFFFFFFFFFFFFFFFFFFFFFF
310
FFFFFFFFFFFFFFFFFFFFFFFFFFFFFFFFFFFFFFFFFFFFFFFFFFFFFFFFFFFFFFFF
310
FFFFFFFFFFFFFFFFFFFFFFFFFFFFFFFFFFFFFFFFFFFFFFFFFFFFFFFFFFFFFFFF
310
F000FFFFFFFFFFFFFFFFFFFFFFFFFFFFFFFFFFFFFFFFFFFFFFFFFFFFFFFFFFFF
310
FFFFFFFFFFFFFFFFFFFFFFFFFFFFFFFFFFFFFFFFFFFFFFFFFFFFFFFFFFFFFFFF
310
FFFFFFFFFFFFFFFFFFFFFFFFFFFFFFFFFFFFFFFFFFFFFFFFF000FFFFFFFFFFFF
310
FFFFFFFFFFFFFFFFFFFFFFFFFFFFFFFFFFFFFFFFFFFFFFFFFFFFFFFFFFFFFFFF
310
FFFFFFFFFFFFFFFFFFFFFFFFFFFFFFFFFFFFFFFFFFFFFFFFFFFFFFFFFFFFFFFF
310
FFFFFFFFFFFFFFFFFFFFFFFFFFFFFFFFF000FFFFFFFFFFFFFFFFFFFFFFFFFFFF
310
FFFFFFFFFFFFFFFFFFFFFFFFFFFFFFFFFFFFFFFFFFFFFFFFFFFFFFFFFFFFFFFF
310
FFFFFFFFFFFFFFFFFFFFFFFFFFFFFFFFFFFFFFFFFFFFFFFFFFFFFFFFFFFFFFFF
310
FFFFFFFFFFFFFFFFF000FFFFFFFFFFFFFFFFFFFFFFFFFFFFFFFFFFFFFFFFFFFF
310
FFFFFFFFFFFFFFFFFFFFFFFFFFFFFFFFFFFFFFFFFFFFFFFFFFFFFFFFFFFFFFFF
310
FFFFFFFFFFFFFFFFFFFFFFFFFFFFFFFFFFFFFFFFFFFFFFFFFFFFFFFFFFFFFFFF
310
F000FFFFFFFFFFFFFFFFFFFFFFFFFFFFFFFFFFFFFFFFFFFFFFFFFFFFFFFFFFFF
310
FFFFFFFFFFFFFFFFFFFFFFFFFFFFFFFFFFFFFFFFFFFFFFFFFFFFFFFFFFFFFFFF
310
FFFFFFFFFFFFFFFFFFFFFFFFFFFFFFFFFFFFFFFFFFFFFFFFF000FFFFFFFFFFFF
310
FFFFFFFFFFFFFFFFFFFFFFFFFFFFFFFFFFFFFFFFFFFFFFFFFFFFFFFFFFFFFFFF
310
FFFFFFFFFFFFFFFFFFFFFFFFFFFFFFFFFFFFFFFFFFFFFFFFFFFFFFFFFFFFFFFF
310
FFFFFFFFFFFFFFFFFFFFFFFFFFFFFFFFF000FFFFFFFFFFFFFFFFFFFFFFFFFFFF
310
FFFFFFFFFFFFFFFFFFFFFFFFFFFFFFFFFFFFFFFFFFFFFFFFFFFFFFFFFFFFFFFF
310
FFFFFFFFFFFFFFFFFFFFFFFFFFFFFFFFFFFFFFFFFFFFFFFFFFFFFFFFFFFFFFFF
310
FFFFFFFFFFFFFFFFF000FFFFFFFFFFFFFFFFFFFFFFFFFFFFFFFFFFFFFFFFFFFF
310
FFFFFFFFFFFFFFFFFFFFFFFFFFFFFFFFFFFFFFFFFFFFFFFFFFFFFFFFFFFFFFFF
310
FFFFFFFFFFFFFFFFFFFFFFFFFFFFFFFFFFFFFFFFFFFFFFFFFFFFFFFFFFFFFFFF
310
F000FFFFFFFFFFFFFFFFFFFFFFFFFFFFFFFFFFFFFFFFFFFFFFFFFFFFFFFFFFFF
310
FFFFFFFFFFFFFFFFFFFFFFFFFFFFFFFFFFFFFFFFFFFFFFFFFFFFFFFFFFFFFFFF
310
FFFFFFFFFFFFFFFFFFFFFFFFFFFFFFFFFFFFFFFFFFFFFFFFF000FFFFFFFFFFFF
310
FFFFFFFFFFFFFFFFFFFFFFFFFFFFFFFFFFFFFFFFFFFFFFFFFFFFFFFFFFFFFFFF
310
FFFFFFFFFFFFFFFFFFFFFFFFFFFFFFFFFFFFFFFFFFFFFFFFFFFFFFFFFFFFFFFF
310
FFFFFFFFFFFFFFFFFFFFFFFFFFFFFFFFF0000000000000000000000000000000
310
0000000000000000000000000000000000000000000000000000000000000000
310
0000000000000000000000000000000000000000000000000000000000000000
310
0000000000000000000000000000000000000000000000000000000000000000
310
0000000000000000000000000000000000000000000000000000000000000000
310
0000000000000000000000000000000000000000000000000000000000000000
310
0000000000000000000000000000000000000000000000000000000000000000
310
0000000000000000000000000000000000000000000000000000000000000000
310
0000000000000000000000000000000000000000000000000000000000000000
310
0000000000000000000000000000000000000000000000000000000000000000
310
0000000000000000000000000000000000000000000000000000000000000000
310
0000000000000000000000000000000000000000000000000000000000000000
310
0000000000000000000000000000000000000000000000000000000000000000
310
0000000000000000000000000000000000000000000000000000000000000000
310
0000000000000000000000000000000000000000000000000000000000000000
310
0000000000000000000000000000000000000000000000000000000000000000
  1
OLE
  0
ENDSEC
  0
SECTION
  2
OBJECTS
  0
DICTIONARY
  5
C
330
0
100
AcDbDictionary
281
     1
  3
ACAD_GROUP
350
D
  3
ACAD_LAYOUT
350
1A
  3
ACAD_MLINESTYLE
350
17
  3
ACAD_PLOTSETTINGS
350
19
  3
ACAD_PLOTSTYLENAME
350
E
  3
ACAD_SCALELIST
350
47
  0
DICTIONARY
  5
D
102
{ACAD_REACTORS
330
C
102
}
330
C
100
AcDbDictionary
281
     1
  0
DICTIONARY
  5
1A
102
{ACAD_REACTORS
330
C
102
}
330
C
100
AcDbDictionary
281
     1
  3
Layout1
350
1E
  3
Layout2
350
26
  3
Model
350
22
  0
DICTIONARY
  5
17
102
{ACAD_REACTORS
330
C
102
}
330
C
100
AcDbDictionary
281
     1
  3
Standard
350
18
  0
DICTIONARY
  5
19
102
{ACAD_REACTORS
330
C
102
}
330
C
100
AcDbDictionary
281
     1
  0
ACDBDICTIONARYWDFLT
  5
E
102
{ACAD_REACTORS
330
C
102
}
330
C
100
AcDbDictionary
281
     1
  3
Normal
350
F
100
AcDbDictionaryWithDefault
340
F
  0
DICTIONARY
  5
47
102
{ACAD_REACTORS
330
C
102
}
330
C
100
AcDbDictionary
281
     1
  3
A0
350
48
  3
A1
350
49
  3
A2
350
4A
  3
A3
350
4B
  3
A4
350
4C
  3
A5
350
4D
  3
A6
350
4E
  3
A7
350
4F
  3
A8
350
50
  3
A9
350
51
  3
B0
350
52
  3
B1
350
53
  3
B2
350
54
  3
B3
350
55
  3
B4
350
56
  3
B5
350
57
  3
B6
350
58
  3
B7
350
59
  3
B8
350
5A
  3
B9
350
5B
  3
C0
350
5C
  3
C1
350
5D
  3
C2
350
5E
  3
C3
350
5F
  3
C4
350
60
  3
C5
350
61
  3
C6
350
62
  3
C7
350
63
  3
C8
350
64
  3
C9
350
65
  3
D0
350
66
  3
D1
350
67
  3
D2
350
68
  0
LAYOUT
  5
1E
102
{ACAD_REACTORS
330
1A
102
}
330
1A
100
AcDbPlotSettings
  1

  2
none_device
  4

  6

 40
0.0
 41
0.0
 42
0.0
 43
0.0
 44
0.0
 45
0.0
 46
0.0
 47
0.0
 48
0.0
 49
0.0
140
0.0
141
0.0
142
1.0
143
1.0
 70
   688
 72
     1
 73
     0
 74
     5
  7

 75
    16
147
1.0
148
0.0
149
0.0
100
AcDbLayout
  1
Layout1
 70
     1
 71
     1
 10
0.0
 20
0.0
 11
420.0
 21
297.0
 12
0.0
 22
0.0
 32
0.0
 14
1.0000000000E+20
 24
1.0000000000E+20
 34
1.0000000000E+20
 15
-1.0000000000E+20
 25
-1.0000000000E+20
 35
-1.0000000000E+20
146
0.0
 13
0.0
 23
0.0
 33
0.0
 16
1.0
 26
0.0
 36
0.0
 17
0.0
 27
1.0
 37
0.0
 76
     0
330
1B
  0
LAYOUT
  5
26
102
{ACAD_REACTORS
330
1A
102
}
330
1A
100
AcDbPlotSettings
  1

  2
none_device
  4

  6

 40
0.0
 41
0.0
 42
0.0
 43
0.0
 44
0.0
 45
0.0
 46
0.0
 47
0.0
 48
0.0
 49
0.0
140
0.0
141
0.0
142
1.0
143
1.0
 70
   688
 72
     1
 73
     0
 74
     5
  7

 75
    16
147
1.0
148
0.0
149
0.0
100
AcDbLayout
  1
Layout2
 70
     1
 71
     2
 10
0.0
 20
0.0
 11
0.0
 21
0.0
 12
0.0
 22
0.0
 32
0.0
 14
0.0
 24
0.0
 34
0.0
 15
0.0
 25
0.0
 35
0.0
146
0.0
 13
0.0
 23
0.0
 33
0.0
 16
1.0
 26
0.0
 36
0.0
 17
0.0
 27
1.0
 37
0.0
 76
     0
330
23
  0
LAYOUT
  5
22
102
{ACAD_REACTORS
330
1A
102
}
330
1A
100
AcDbPlotSettings
  1

  2
none_device
  4
Letter_(8.50_x_11.00_Inches)
  6

 40
6.35
 41
6.35
 42
6.35000508
 43
6.35000508
 44
215.9
 45
279.4
 46
0.0
 47
0.0
 48
0.0
 49
0.0
140
0.0
141
0.0
142
1.0
143
1.0
 70
  1712
 72
     1
 73
     0
 74
     0
  7

 75
     0
147
1.0
148
0.0
149
0.0
100
AcDbLayout
  1
Model
 70
     1
 71
     0
 10
0.0
 20
0.0
 11
297.0
 21
210.0
 12
0.0
 22
0.0
 32
0.0
 14
0.0
 24
0.0
 34
0.0
 15
297.0
 25
210.0
 35
0.0
146
0.0
 13
0.0
 23
0.0
 33
0.0
 16
1.0
 26
0.0
 36
0.0
 17
0.0
 27
1.0
 37
0.0
 76
     0
330
1F
331
29
  0
MLINESTYLE
  5
18
102
{ACAD_REACTORS
330
17
102
}
330
17
100
AcDbMlineStyle
  2
Standard
 70
     0
  3

 62
   256
 51
90.0
 52
90.0
 71
     2
 49
0.5
 62
   256
  6
BYLAYER
 49
-0.5
 62
   256
  6
BYLAYER
  0
ACDBPLACEHOLDER
  5
F
102
{ACAD_REACTORS
330
E
102
}
330
E
  0
SCALE
  5
48
102
{ACAD_REACTORS
330
47
102
}
330
47
100
AcDbScale
 70
     0
300
1:1
140
1.0
141
1.0
290
     1
  0
SCALE
  5
49
102
{ACAD_REACTORS
330
47
102
}
330
47
100
AcDbScale
 70
     0
300
1:2
140
1.0
141
2.0
290
     0
  0
SCALE
  5
4A
102
{ACAD_REACTORS
330
47
102
}
330
47
100
AcDbScale
 70
     0
300
1:4
140
1.0
141
4.0
290
     0
  0
SCALE
  5
4B
102
{ACAD_REACTORS
330
47
102
}
330
47
100
AcDbScale
 70
     0
300
1:5
140
1.0
141
5.0
290
     0
  0
SCALE
  5
4C
102
{ACAD_REACTORS
330
47
102
}
330
47
100
AcDbScale
 70
     0
300
1:8
140
1.0
141
8.0
290
     0
  0
SCALE
  5
4D
102
{ACAD_REACTORS
330
47
102
}
330
47
100
AcDbScale
 70
     0
300
1:10
140
1.0
141
10.0
290
     0
  0
SCALE
  5
4E
102
{ACAD_REACTORS
330
47
102
}
330
47
100
AcDbScale
 70
     0
300
1:16
140
1.0
141
16.0
290
     0
  0
SCALE
  5
4F
102
{ACAD_REACTORS
330
47
102
}
330
47
100
AcDbScale
 70
     0
300
1:20
140
1.0
141
20.0
290
     0
  0
SCALE
  5
50
102
{ACAD_REACTORS
330
47
102
}
330
47
100
AcDbScale
 70
     0
300
1:30
140
1.0
141
30.0
290
     0
  0
SCALE
  5
51
102
{ACAD_REACTORS
330
47
102
}
330
47
100
AcDbScale
 70
     0
300
1:40
140
1.0
141
40.0
290
     0
  0
SCALE
  5
52
102
{ACAD_REACTORS
330
47
102
}
330
47
100
AcDbScale
 70
     0
300
1:50
140
1.0
141
50.0
290
     0
  0
SCALE
  5
53
102
{ACAD_REACTORS
330
47
102
}
330
47
100
AcDbScale
 70
     0
300
1:100
140
1.0
141
100.0
290
     0
  0
SCALE
  5
54
102
{ACAD_REACTORS
330
47
102
}
330
47
100
AcDbScale
 70
     0
300
2:1
140
2.0
141
1.0
290
     0
  0
SCALE
  5
55
102
{ACAD_REACTORS
330
47
102
}
330
47
100
AcDbScale
 70
     0
300
4:1
140
4.0
141
1.0
290
     0
  0
SCALE
  5
56
102
{ACAD_REACTORS
330
47
102
}
330
47
100
AcDbScale
 70
     0
300
8:1
140
8.0
141
1.0
290
     0
  0
SCALE
  5
57
102
{ACAD_REACTORS
330
47
102
}
330
47
100
AcDbScale
 70
     0
300
10:1
140
10.0
141
1.0
290
     0
  0
SCALE
  5
58
102
{ACAD_REACTORS
330
47
102
}
330
47
100
AcDbScale
 70
     0
300
100:1
140
100.0
141
1.0
290
     0
  0
SCALE
  5
59
102
{ACAD_REACTORS
330
47
102
}
330
47
100
AcDbScale
 70
     0
300
1/128" = 1'-0"
140
0.0078125
141
12.0
290
     0
  0
SCALE
  5
5A
102
{ACAD_REACTORS
330
47
102
}
330
47
100
AcDbScale
 70
     0
300
1/64" = 1'-0"
140
0.015625
141
12.0
290
     0
  0
SCALE
  5
5B
102
{ACAD_REACTORS
330
47
102
}
330
47
100
AcDbScale
 70
     0
300
1/32" = 1'-0"
140
0.03125
141
12.0
290
     0
  0
SCALE
  5
5C
102
{ACAD_REACTORS
330
47
102
}
330
47
100
AcDbScale
 70
     0
300
1/16" = 1'-0"
140
0.0625
141
12.0
290
     0
  0
SCALE
  5
5D
102
{ACAD_REACTORS
330
47
102
}
330
47
100
AcDbScale
 70
     0
300
3/32" = 1'-0"
140
0.09375
141
12.0
290
     0
  0
SCALE
  5
5E
102
{ACAD_REACTORS
330
47
102
}
330
47
100
AcDbScale
 70
     0
300
1/8" = 1'-0"
140
0.125
141
12.0
290
     0
  0
SCALE
  5
5F
102
{ACAD_REACTORS
330
47
102
}
330
47
100
AcDbScale
 70
     0
300
3/16" = 1'-0"
140
0.1875
141
12.0
290
     0
  0
SCALE
  5
60
102
{ACAD_REACTORS
330
47
102
}
330
47
100
AcDbScale
 70
     0
300
1/4" = 1'-0"
140
0.25
141
12.0
290
     0
  0
SCALE
  5
61
102
{ACAD_REACTORS
330
47
102
}
330
47
100
AcDbScale
 70
     0
300
3/8" = 1'-0"
140
0.375
141
12.0
290
     0
  0
SCALE
  5
62
102
{ACAD_REACTORS
330
47
102
}
330
47
100
AcDbScale
 70
     0
300
1/2" = 1'-0"
140
0.5
141
12.0
290
     0
  0
SCALE
  5
63
102
{ACAD_REACTORS
330
47
102
}
330
47
100
AcDbScale
 70
     0
300
3/4" = 1'-0"
140
0.75
141
12.0
290
     0
  0
SCALE
  5
64
102
{ACAD_REACTORS
330
47
102
}
330
47
100
AcDbScale
 70
     0
300
1" = 1'-0"
140
1.0
141
12.0
290
     0
  0
SCALE
  5
65
102
{ACAD_REACTORS
330
47
102
}
330
47
100
AcDbScale
 70
     0
300
1-1/2" = 1'-0"
140
1.5
141
12.0
290
     0
  0
SCALE
  5
66
102
{ACAD_REACTORS
330
47
102
}
330
47
100
AcDbScale
 70
     0
300
3" = 1'-0"
140
3.0
141
12.0
290
     0
  0
SCALE
  5
67
102
{ACAD_REACTORS
330
47
102
}
330
47
100
AcDbScale
 70
     0
300
6" = 1'-0"
140
6.0
141
12.0
290
     0
  0
SCALE
  5
68
102
{ACAD_REACTORS
330
47
102
}
330
47
100
AcDbScale
 70
     0
300
1'-0" = 1'-0"
140
12.0
141
12.0
290
     0
  0
ENDSEC
  0
EOF
