  0
SECTION
  2
HEADER
  9
$ACADVER
  1
AC1015
  9
$ACADMAINTVER
 70
     6
  9
$DWGCODEPAGE
  3
ANSI_1252
  9
$INSBASE
 10
0.0
 20
0.0
 30
0.0
  9
$EXTMIN
 10
0.0
 20
0.0
 30
0.0
  9
$EXTMAX
 10
297.0
 20
210.0
 30
0.0
  9
$LIMMIN
 10
0.0
 20
0.0
  9
$LIMMAX
 10
297.0
 20
210.0
  9
$ORTHOMODE
 70
     0
  9
$REGENMODE
 70
     1
  9
$FILLMODE
 70
     1
  9
$QTEXTMODE
 70
     0
  9
$MIRRTEXT
 70
     1
  9
$LTSCALE
 40
1.0
  9
$ATTMODE
 70
     1
  9
$TEXTSIZE
 40
2.0
  9
$TRACEWID
 40
1.0
  9
$TEXTSTYLE
  7
Standard
  9
$CLAYER
  8
0
  9
$CELTYPE
  6
ByLayer
  9
$CECOLOR
 62
   256
  9
$CELTSCALE
 40
1.0
  9
$DISPSILH
 70
     0
  9
$DIMSCALE
 40
1.0
  9
$DIMASZ
 40
3.0
  9
$DIMEXO
 40
0.0
  9
$DIMDLI
 40
3.75
  9
$DIMRND
 40
0.0
  9
$DIMDLE
 40
0.0
  9
$DIMEXE
 40
1.0
  9
$DIMTP
 40
0.0
  9
$DIMTM
 40
0.0
  9
$DIMTXT
 40
2.0
  9
$DIMCEN
 40
2.5
  9
$DIMTSZ
 40
0.0
  9
$DIMTOL
 70
     0
  9
$DIMLIM
 70
     0
  9
$DIMTIH
 70
     1
  9
$DIMTOH
 70
     1
  9
$DIMSE1
 70
     0
  9
$DIMSE2
 70
     0
  9
$DIMTAD
 70
     1
  9
$DIMZIN
 70
     0
  9
$DIMBLK
  1

  9
$DIMASO
 70
     1
  9
$DIMSHO
 70
     1
  9
$DIMPOST
  1

  9
$DIMAPOST
  1

  9
$DIMALT
 70
     0
  9
$DIMALTD
 70
     3
  9
$DIMALTF
 40
0.0393700787
  9
$DIMLFAC
 40
1.0
  9
$DIMTOFL
 70
     1
  9
$DIMTVP
 40
0.0
  9
$DIMTIX
 70
     0
  9
$DIMSOXD
 70
     0
  9
$DIMSAH
 70
     0
  9
$DIMBLK1
  1

  9
$DIMBLK2
  1

  9
$DIMSTYLE
  2
ISO-25
  9
$DIMCLRD
 70
     0
  9
$DIMCLRE
 70
     0
  9
$DIMCLRT
 70
     0
  9
$DIMTFAC
 40
1.0
  9
$DIMGAP
 40
1.524
  9
$DIMJUST
 70
     0
  9
$DIMSD1
 70
     0
  9
$DIMSD2
 70
     0
  9
$DIMTOLJ
 70
     0
  9
$DIMTZIN
 70
     0
  9
$DIMALTZ
 70
     0
  9
$DIMALTTZ
 70
     0
  9
$DIMUPT
 70
     0
  9
$DIMDEC
 70
     2
  9
$DIMTDEC
 70
     3
  9
$DIMALTU
 70
     2
  9
$DIMALTTD
 70
     3
  9
$DIMTXSTY
  7
Standard
  9
$DIMAUNIT
 70
     0
  9
$DIMADEC
 70
     2
  9
$DIMALTRND
 40
0.0
  9
$DIMAZIN
 70
     0
  9
$DIMDSEP
 70
    44
  9
$DIMATFIT
 70
     3
  9
$DIMFRAC
 70
     0
  9
$DIMLDRBLK
  1

  9
$DIMLUNIT
 70
     2
  9
$DIMLWD
 70
    -2
  9
$DIMLWE
 70
    -2
  9
$DIMTMOVE
 70
     0
  9
$LUNITS
 70
     2
  9
$LUPREC
 70
     2
  9
$SKETCHINC
 40
1.0
  9
$FILLETRAD
 40
10.0
  9
$AUNITS
 70
     0
  9
$AUPREC
 70
     2
  9
$MENU
  1
.
  9
$ELEVATION
 40
0.0
  9
$PELEVATION
 40
0.0
  9
$THICKNESS
 40
0.0
  9
$LIMCHECK
 70
     0
  9
$CHAMFERA
 40
0.0
  9
$CHAMFERB
 40
0.0
  9
$CHAMFERC
 40
0.0
  9
$CHAMFERD
 40
0.0
  9
$SKPOLY
 70
     0
  9
$TDCREATE
 40
2457662.421143079
  9
$TDUCREATE
 40
2457662.337809745
  9
$TDUPDATE
 40
2457662.421144166
  9
$TDUUPDATE
 40
2457662.337810833
  9
$TDINDWG
 40
0.0000000116
  9
$TDUSRTIMER
 40
0.0000000116
  9
$USRTIMER
 70
     1
  9
$ANGBASE
 50
0.0
  9
$ANGDIR
 70
     0
  9
$PDMODE
 70
     0
  9
$PDSIZE
 40
-1.0
  9
$PLINEWID
 40
0.0
  9
$SPLFRAME
 70
     0
  9
$SPLINETYPE
 70
     6
  9
$SPLINESEGS
 70
     8
  9
$HANDSEED
  5
204
  9
$SURFTAB1
 70
     6
  9
$SURFTAB2
 70
     6
  9
$SURFTYPE
 70
     6
  9
$SURFU
 70
     6
  9
$SURFV
 70
     6
  9
$UCSBASE
  2

  9
$UCSNAME
  2

  9
$UCSORG
 10
0.0
 20
0.0
 30
0.0
  9
$UCSXDIR
 10
1.0
 20
0.0
 30
0.0
  9
$UCSYDIR
 10
0.0
 20
1.0
 30
0.0
  9
$UCSORTHOREF
  2

  9
$UCSORTHOVIEW
 70
     0
  9
$UCSORGTOP
 10
0.0
 20
0.0
 30
0.0
  9
$UCSORGBOTTOM
 10
0.0
 20
0.0
 30
0.0
  9
$UCSORGLEFT
 10
0.0
 20
0.0
 30
0.0
  9
$UCSORGRIGHT
 10
0.0
 20
0.0
 30
0.0
  9
$UCSORGFRONT
 10
0.0
 20
0.0
 30
0.0
  9
$UCSORGBACK
 10
0.0
 20
0.0
 30
0.0
  9
$PUCSBASE
  2

  9
$PUCSNAME
  2

  9
$PUCSORG
 10
0.0
 20
0.0
 30
0.0
  9
$PUCSXDIR
 10
1.0
 20
0.0
 30
0.0
  9
$PUCSYDIR
 10
0.0
 20
1.0
 30
0.0
  9
$PUCSORTHOREF
  2

  9
$PUCSORTHOVIEW
 70
     0
  9
$PUCSORGTOP
 10
0.0
 20
0.0
 30
0.0
  9
$PUCSORGBOTTOM
 10
0.0
 20
0.0
 30
0.0
  9
$PUCSORGLEFT
 10
0.0
 20
0.0
 30
0.0
  9
$PUCSORGRIGHT
 10
0.0
 20
0.0
 30
0.0
  9
$PUCSORGFRONT
 10
0.0
 20
0.0
 30
0.0
  9
$PUCSORGBACK
 10
0.0
 20
0.0
 30
0.0
  9
$USERI1
 70
     0
  9
$USERI2
 70
     0
  9
$USERI3
 70
     0
  9
$USERI4
 70
     0
  9
$USERI5
 70
     0
  9
$USERR1
 40
0.0
  9
$USERR2
 40
0.0
  9
$USERR3
 40
0.0
  9
$USERR4
 40
0.0
  9
$USERR5
 40
0.0
  9
$WORLDVIEW
 70
     1
  9
$SHADEDGE
 70
     3
  9
$SHADEDIF
 70
    70
  9
$TILEMODE
 70
     1
  9
$MAXACTVP
 70
    64
  9
$PINSBASE
 10
0.0
 20
0.0
 30
0.0
  9
$PLIMCHECK
 70
     0
  9
$PEXTMIN
 10
1.0000000000E+20
 20
1.0000000000E+20
 30
1.0000000000E+20
  9
$PEXTMAX
 10
-1.0000000000E+20
 20
-1.0000000000E+20
 30
-1.0000000000E+20
  9
$PLIMMIN
 10
0.0
 20
0.0
  9
$PLIMMAX
 10
420.0
 20
297.0
  9
$UNITMODE
 70
     0
  9
$VISRETAIN
 70
     1
  9
$PLINEGEN
 70
     0
  9
$PSLTSCALE
 70
     1
  9
$TREEDEPTH
 70
  3020
  9
$CMLSTYLE
  2
Standard
  9
$CMLJUST
 70
     0
  9
$CMLSCALE
 40
20.0
  9
$PROXYGRAPHICS
 70
     1
  9
$MEASUREMENT
 70
     1
  9
$CELWEIGHT
370
    -1
  9
$ENDCAPS
280
     0
  9
$JOINSTYLE
280
     0
  9
$LWDISPLAY
290
     1
  9
$INSUNITS
 70
     4
  9
$HYPERLINKBASE
  1

  9
$STYLESHEET
  1

  9
$XEDIT
290
     1
  9
$CEPSNTYPE
380
     0
  9
$PSTYLEMODE
290
     1
  9
$FINGERPRINTGUID
  2
{3433C9EB-F86D-4D58-8DE5-6A6FA375A88C}
  9
$VERSIONGUID
  2
{FAEB1C32-E019-11D5-929B-00C0DF256EC4}
  9
$EXTNAMES
290
     1
  9
$PSVPSCALE
 40
0.0
  9
$OLESTARTUP
290
     0
  0
ENDSEC
  0
SECTION
  2
CLASSES
  0
CLASS
  1
ACDBDICTIONARYWDFLT
  2
AcDbDictionaryWithDefault
  3
ObjectDBX Classes
 90
        0
280
     0
281
     0
  0
CLASS
  1
VISUALSTYLE
  2
AcDbVisualStyle
  3
ObjectDBX Classes
 90
     4095
280
     0
281
     0
  0
CLASS
  1
MATERIAL
  2
AcDbMaterial
  3
ObjectDBX Classes
 90
     1153
280
     0
281
     0
  0
CLASS
  1
SCALE
  2
AcDbScale
  3
ObjectDBX Classes
 90
     1153
280
     0
281
     0
  0
CLASS
  1
TABLESTYLE
  2
AcDbTableStyle
  3
ObjectDBX Classes
 90
     4095
280
     0
281
     0
  0
CLASS
  1
MLEADERSTYLE
  2
AcDbMLeaderStyle
  3
ACDB_MLEADERSTYLE_CLASS
 90
     4095
280
     0
281
     0
  0
CLASS
  1
SUN
  2
AcDbSun
  3
SCENEOE
 90
     1153
280
     0
281
     0
  0
CLASS
  1
ACDBPLACEHOLDER
  2
AcDbPlaceHolder
  3
ObjectDBX Classes
 90
        0
280
     0
281
     0
  0
CLASS
  1
LAYOUT
  2
AcDbLayout
  3
ObjectDBX Classes
 90
        0
280
     0
281
     0
  0
ENDSEC
  0
SECTION
  2
TABLES
  0
TABLE
  2
VPORT
  5
8
330
0
100
AcDbSymbolTable
 70
     1
  0
VPORT
  5
29
330
8
100
AcDbSymbolTableRecord
100
AcDbViewportTableRecord
  2
*Active
 70
     0
 10
0.0
 20
0.0
 11
1.0
 21
1.0
 12
148.5
 22
105.0
 13
0.0
 23
0.0
 14
10.0
 24
10.0
 15
10.0
 25
10.0
 16
0.0
 26
0.0
 36
1.0
 17
0.0
 27
0.0
 37
0.0
 40
210.0
 41
1.4142857143
 42
50.0
 43
0.0
 44
0.0
 50
0.0
 51
0.0
 71
     0
 72
  2000
 73
     1
 74
     3
 75
     0
 76
     0
 77
     0
 78
     0
281
     0
 65
     1
110
0.0
120
0.0
130
0.0
111
1.0
121
0.0
131
0.0
112
0.0
122
1.0
132
0.0
 79
     0
146
0.0
  0
ENDTAB
  0
TABLE
  2
LTYPE
  5
5
330
0
100
AcDbSymbolTable
 70
     6
  0
LTYPE
  5
14
330
5
100
AcDbSymbolTableRecord
100
AcDbLinetypeTableRecord
  2
ByBlock
 70
     0
  3

 72
    65
 73
     0
 40
0.0
  0
LTYPE
  5
15
330
5
100
AcDbSymbolTableRecord
100
AcDbLinetypeTableRecord
  2
ByLayer
 70
     0
  3

 72
    65
 73
     0
 40
0.0
  0
LTYPE
  5
16
330
5
100
AcDbSymbolTableRecord
100
AcDbLinetypeTableRecord
  2
Continuous
 70
     0
  3
Solid line
 72
    65
 73
     0
 40
0.0
  0
LTYPE
  5
6E
330
5
100
AcDbSymbolTableRecord
100
AcDbLinetypeTableRecord
  2
HIDDEN
 70
     0
  3
Hidden __ __ __ __ __ __ __ __ __ __ __ __ __ __
 72
    65
 73
     2
 40
1.905
 49
1.27
 74
     0
 49
-0.635
 74
     0
  0
LTYPE
  5
6F
330
5
100
AcDbSymbolTableRecord
100
AcDbLinetypeTableRecord
  2
PHANTOM
 70
     0
  3
Phantom ______  __  __  ______  __  __  ______
 72
    65
 73
     6
 40
12.7
 49
6.35
 74
     0
 49
-1.27
 74
     0
 49
1.27
 74
     0
 49
-1.27
 74
     0
 49
1.27
 74
     0
 49
-1.27
 74
     0
  0
LTYPE
  5
70
330
5
100
AcDbSymbolTableRecord
100
AcDbLinetypeTableRecord
  2
CENTER
 70
     0
  3
Center ____ _ ____ _ ____ _ ____ _ ____ _ ____
 72
    65
 73
     4
 40
10.16
 49
6.35
 74
     0
 49
-1.27
 74
     0
 49
1.27
 74
     0
 49
-1.27
 74
     0
  0
LTYPE
  5
71
330
5
100
AcDbSymbolTableRecord
100
AcDbLinetypeTableRecord
  2
CENTERX2
 70
     0
  3
Center (2x) ________  __  ________  __  _____
 72
    65
 73
     4
 40
20.32
 49
12.7
 74
     0
 49
-2.54
 74
     0
 49
2.54
 74
     0
 49
-2.54
 74
     0
  0
LTYPE
  5
72
330
5
100
AcDbSymbolTableRecord
100
AcDbLinetypeTableRecord
  2
DOT2
 70
     0
  3
Dot (.5x) ........................................
 72
    65
 73
     2
 40
0.635
 49
0.0
 74
     0
 49
-0.635
 74
     0
  0
ENDTAB
  0
TABLE
  2
LAYER
  5
2
330
0
100
AcDbSymbolTable
 70
     5
  0
LAYER
  5
10
330
2
100
AcDbSymbolTableRecord
100
AcDbLayerTableRecord
  2
0
 70
     0
 62
     7
  6
Continuous
370
    -3
390
F
  0
LAYER
  5
73
330
2
100
AcDbSymbolTableRecord
100
AcDbLayerTableRecord
  2
FORMAT
 70
     0
 62
     7
  6
Continuous
370
    -3
390
F
  0
LAYER
  5
74
330
2
100
AcDbSymbolTableRecord
100
AcDbLayerTableRecord
  2
VERMASSUNG
 70
     0
 62
     7
  6
Continuous
370
    -3
390
F
  0
LAYER
  5
75
330
2
100
AcDbSymbolTableRecord
100
AcDbLayerTableRecord
  2
KOPF_DÜNN
 70
     0
 62
     7
  6
Continuous
370
    -3
390
F
  0
LAYER
  5
76
330
2
100
AcDbSymbolTableRecord
100
AcDbLayerTableRecord
  2
KOPF_DICK
 70
     0
 62
     7
  6
Continuous
370
    15
390
F
  0
ENDTAB
  0
TABLE
  2
STYLE
  5
3
330
0
100
AcDbSymbolTable
 70
     2
  0
STYLE
  5
11
330
3
100
AcDbSymbolTableRecord
100
AcDbTextStyleTableRecord
  2
Standard
 70
     0
 40
0.0
 41
1.0
 50
0.0
 71
     0
 42
2.0
  3
txt
  4

  0
STYLE
  5
77
330
3
100
AcDbSymbolTableRecord
100
AcDbTextStyleTableRecord
  2
SLDTEXTSTYLE0
 70
     0
 40
0.0
 41
0.7
 50
0.0
 71
     0
 42
2.0
  3
TXT
  4

  0
ENDTAB
  0
TABLE
  2
VIEW
  5
6
330
0
100
AcDbSymbolTable
 70
     0
  0
ENDTAB
  0
TABLE
  2
UCS
  5
7
330
0
100
AcDbSymbolTable
 70
     0
  0
ENDTAB
  0
TABLE
  2
APPID
  5
9
330
0
100
AcDbSymbolTable
 70
     1
  0
APPID
  5
12
330
9
100
AcDbSymbolTableRecord
100
AcDbRegAppTableRecord
  2
ACAD
 70
     0
  0
ENDTAB
  0
TABLE
  2
DIMSTYLE
  5
A
330
0
100
AcDbSymbolTable
 70
     3
100
AcDbDimStyleTable
  0
DIMSTYLE
105
27
330
A
100
AcDbSymbolTableRecord
100
AcDbDimStyleTableRecord
  2
ISO-25
 70
     0
 41
2.5
 42
0.625
 43
3.75
 44
1.25
 73
     0
 74
     0
 77
     1
 78
     8
140
2.5
141
2.5
143
0.0393700787
147
0.625
171
     3
172
     1
178
     0
271
     2
272
     2
274
     3
278
    44
283
     0
284
     8
340
11
  0
DIMSTYLE
105
114
102
{ACAD_REACTORS
330
113
102
}
330
A
100
AcDbSymbolTableRecord
100
AcDbDimStyleTableRecord
  2
SLDDIMSTYLE0
 70
     0
 41
3.0
 44
0.0
 45
0.000000001
 73
     0
 74
     0
 77
     1
 78
    12
 79
     3
140
2.0
147
0.5
173
     1
178
     0
271
     3
272
     3
276
     2
284
    12
340
77
  0
DIMSTYLE
105
121
102
{ACAD_REACTORS
330
120
330
12B
330
137
330
143
330
14E
102
}
330
A
100
AcDbSymbolTableRecord
100
AcDbDimStyleTableRecord
  2
SLDDIMSTYLE1
 70
     0
 41
3.0
 44
0.0
 45
0.000000001
 73
     0
 74
     0
 77
     1
 78
    12
 79
     3
140
2.0
147
0.5
173
     1
178
     0
271
     2
272
     3
276
     2
284
    12
340
77
  0
ENDTAB
  0
TABLE
  2
BLOCK_RECORD
  5
1
330
0
100
AcDbSymbolTable
 70
     7
  0
BLOCK_RECORD
  5
1F
330
1
100
AcDbSymbolTableRecord
100
AcDbBlockTableRecord
  2
*Model_Space
340
22
  0
BLOCK_RECORD
  5
1B
330
1
100
AcDbSymbolTableRecord
100
AcDbBlockTableRecord
  2
*Paper_Space
340
1E
  0
BLOCK_RECORD
  5
23
330
1
100
AcDbSymbolTableRecord
100
AcDbBlockTableRecord
  2
*Paper_Space0
340
26
  0
BLOCK_RECORD
  5
115
330
1
100
AcDbSymbolTableRecord
100
AcDbBlockTableRecord
  2
_D
340
0
  0
BLOCK_RECORD
  5
122
330
1
100
AcDbSymbolTableRecord
100
AcDbBlockTableRecord
  2
_D_1
340
0
  0
BLOCK_RECORD
  5
12C
330
1
100
AcDbSymbolTableRecord
100
AcDbBlockTableRecord
  2
_D_2
340
0
  0
BLOCK_RECORD
  5
138
330
1
100
AcDbSymbolTableRecord
100
AcDbBlockTableRecord
  2
_D_3
340
0
  0
BLOCK_RECORD
  5
144
330
1
100
AcDbSymbolTableRecord
100
AcDbBlockTableRecord
  2
_D_4
340
0
  0
BLOCK_RECORD
  5
14F
330
1
100
AcDbSymbolTableRecord
100
AcDbBlockTableRecord
  2
_D_5
340
0
  0
ENDTAB
  0
ENDSEC
  0
SECTION
  2
BLOCKS
  0
BLOCK
  5
20
330
1F
100
AcDbEntity
  8
0
100
AcDbBlockBegin
  2
*Model_Space
 70
     0
 10
0.0
 20
0.0
 30
0.0
  3
*Model_Space
  1

  0
ENDBLK
  5
21
330
1F
100
AcDbEntity
  8
0
100
AcDbBlockEnd
  0
BLOCK
  5
1C
330
1B
100
AcDbEntity
 67
     1
  8
0
100
AcDbBlockBegin
  2
*Paper_Space
 70
     0
 10
0.0
 20
0.0
 30
0.0
  3
*Paper_Space
  1

  0
ENDBLK
  5
1D
330
1B
100
AcDbEntity
 67
     1
  8
0
100
AcDbBlockEnd
  0
BLOCK
  5
24
330
23
100
AcDbEntity
  8
0
100
AcDbBlockBegin
  2
*Paper_Space0
 70
     0
 10
0.0
 20
0.0
 30
0.0
  3
*Paper_Space0
  1

  0
ENDBLK
  5
25
330
23
100
AcDbEntity
  8
0
100
AcDbBlockEnd
  0
BLOCK
  5
116
330
115
100
AcDbEntity
  8
0
100
AcDbBlockBegin
  2
_D
 70
     0
 10
0.0
 20
0.0
 30
0.0
  3
_D
  1

  0
SOLID
  5
118
330
115
100
AcDbEntity
  8
VERMASSUNG
100
AcDbTrace
 10
79.0506358454
 20
73.8692769885
 30
0.0
 11
79.5006358454
 21
76.8692769885
 31
0.0
 12
78.6006358454
 22
76.8692769885
 32
0.0
 13
78.6006358454
 23
76.8692769885
 33
0.0
  0
SOLID
  5
119
330
115
100
AcDbEntity
  8
VERMASSUNG
100
AcDbTrace
 10
79.0506358454
 20
137.3692769885
 30
0.0
 11
78.6006358454
 21
134.3692769885
 31
0.0
 12
79.5006358454
 22
134.3692769885
 32
0.0
 13
79.5006358454
 23
134.3692769885
 33
0.0
  0
LINE
  5
11A
330
115
100
AcDbEntity
  8
VERMASSUNG
100
AcDbLine
 10
172.2312478918
 20
73.8692769885
 30
0.0
 11
78.0506358454
 21
73.8692769885
 31
0.0
  0
LINE
  5
11B
330
115
100
AcDbEntity
  8
VERMASSUNG
100
AcDbLine
 10
172.2312478918
 20
137.3692769885
 30
0.0
 11
78.0506358454
 21
137.3692769885
 31
0.0
  0
LINE
  5
11C
330
115
100
AcDbEntity
  8
VERMASSUNG
100
AcDbLine
 10
79.0506358454
 20
73.8692769885
 30
0.0
 11
79.0506358454
 21
137.3692769885
 31
0.0
  0
MTEXT
  5
11D
330
115
100
AcDbEntity
  8
VERMASSUNG
100
AcDbMText
 10
76.2725005892
 20
96.3155849185
 30
0.0
 40
2.0
 41
0.0
 71
     1
 72
     1
  1
CAT 40
  7
SLDTEXTSTYLE0
 11
3.391901413832837E-15
 21
1.0
 31
0.0
 73
     1
 44
1.0
  0
MTEXT
  5
11E
330
115
100
AcDbEntity
  8
VERMASSUNG
100
AcDbMText
 10
76.4725005405
 20
106.5155843552
 30
0.0
 40
2.0
 41
0.0
 71
     1
 72
     1
  1
%%c
  7
SLDTEXTSTYLE0
 11
3.391901413832837E-15
 21
1.0
 31
0.0
 73
     1
 44
1.0
  0
MTEXT
  5
11F
330
115
100
AcDbEntity
  8
VERMASSUNG
100
AcDbMText
 10
76.4725002494
 20
110.1249772975
 30
0.0
 40
2.0
 41
0.0
 71
     1
 72
     1
  1
63.5
  7
SLDTEXTSTYLE0
 11
3.391901413832837E-15
 21
1.0
 31
0.0
 73
     1
 44
1.0
  0
ENDBLK
  5
117
330
115
100
AcDbEntity
  8
0
100
AcDbBlockEnd
  0
BLOCK
  5
123
330
122
100
AcDbEntity
  8
0
100
AcDbBlockBegin
  2
_D_1
 70
     0
 10
0.0
 20
0.0
 30
0.0
  3
_D_1
  1

  0
SOLID
  5
125
330
122
100
AcDbEntity
  8
VERMASSUNG
100
AcDbTrace
 10
153.7812478918
 20
146.1271124932
 30
0.0
 11
156.7812478918
 21
145.6771124932
 31
0.0
 12
156.7812478918
 22
146.5771124932
 32
0.0
 13
156.7812478918
 23
146.5771124932
 33
0.0
  0
SOLID
  5
126
330
122
100
AcDbEntity
  8
VERMASSUNG
100
AcDbTrace
 10
204.7812478918
 20
146.1271124932
 30
0.0
 11
201.7812478918
 21
146.5771124932
 31
0.0
 12
201.7812478918
 22
145.6771124932
 32
0.0
 13
201.7812478918
 23
145.6771124932
 33
0.0
  0
LINE
  5
127
330
122
100
AcDbEntity
  8
VERMASSUNG
100
AcDbLine
 10
153.7812478918
 20
127.8442769885
 30
0.0
 11
153.7812478918
 21
147.1271124932
 31
0.0
  0
LINE
  5
128
330
122
100
AcDbEntity
  8
VERMASSUNG
100
AcDbLine
 10
204.7812478918
 20
115.4192769885
 30
0.0
 11
204.7812478918
 21
147.1271124932
 31
0.0
  0
LINE
  5
129
330
122
100
AcDbEntity
  8
VERMASSUNG
100
AcDbLine
 10
153.7812478918
 20
146.1271124932
 30
0.0
 11
204.7812478918
 21
146.1271124932
 31
0.0
  0
MTEXT
  5
12A
330
122
100
AcDbEntity
  8
VERMASSUNG
100
AcDbMText
 10
178.0823014449
 20
148.7052480891
 30
0.0
 40
2.0
 41
0.0
 71
     1
 72
     1
  1
51
  7
SLDTEXTSTYLE0
 73
     1
 44
1.0
  0
ENDBLK
  5
124
330
122
100
AcDbEntity
  8
0
100
AcDbBlockEnd
  0
BLOCK
  5
12D
330
12C
100
AcDbEntity
  8
0
100
AcDbBlockBegin
  2
_D_2
 70
     0
 10
0.0
 20
0.0
 30
0.0
  3
_D_2
  1

  0
ARC
  5
12F
330
12C
100
AcDbEntity
  8
VERMASSUNG
100
AcDbCircle
 10
197.7934873357
 20
141.9814982341
 30
0.0
 40
4.247059938537221
100
AcDbArc
 50
153.4349488229
 51
206.5650511771
  0
ARC
  5
130
330
12C
100
AcDbEntity
  8
VERMASSUNG
100
AcDbCircle
 10
195.7690084479
 20
141.9814982341
 30
0.0
 40
4.247059938537246
100
AcDbArc
 50
333.4349488229
 51
26.5650511771
  0
SOLID
  5
131
330
12C
100
AcDbEntity
  8
VERMASSUNG
100
AcDbTrace
 10
188.7812478918
 20
140.0821552887
 30
0.0
 11
191.7812478918
 21
139.6321552887
 31
0.0
 12
191.7812478918
 22
140.5321552887
 32
0.0
 13
191.7812478918
 23
140.5321552887
 33
0.0
  0
SOLID
  5
132
330
12C
100
AcDbEntity
  8
VERMASSUNG
100
AcDbTrace
 10
204.7812478918
 20
140.0821552887
 30
0.0
 11
201.7812478918
 21
140.5321552887
 31
0.0
 12
201.7812478918
 22
139.6321552887
 32
0.0
 13
201.7812478918
 23
139.6321552887
 33
0.0
  0
LINE
  5
133
330
12C
100
AcDbEntity
  8
VERMASSUNG
100
AcDbLine
 10
188.7812478918
 20
126.8442769885
 30
0.0
 11
188.7812478918
 21
141.0821552887
 31
0.0
  0
LINE
  5
134
330
12C
100
AcDbEntity
  8
VERMASSUNG
100
AcDbLine
 10
204.7812478918
 20
115.4192769885
 30
0.0
 11
204.7812478918
 21
141.0821552887
 31
0.0
  0
LINE
  5
135
330
12C
100
AcDbEntity
  8
VERMASSUNG
100
AcDbLine
 10
188.7812478918
 20
140.0821552887
 30
0.0
 11
204.7812478918
 21
140.0821552887
 31
0.0
  0
MTEXT
  5
136
330
12C
100
AcDbEntity
  8
VERMASSUNG
100
AcDbMText
 10
195.5823014449
 20
142.6602908846
 30
0.0
 40
2.0
 41
0.0
 71
     1
 72
     1
  1
16
  7
SLDTEXTSTYLE0
 73
     1
 44
1.0
  0
ENDBLK
  5
12E
330
12C
100
AcDbEntity
  8
0
100
AcDbBlockEnd
  0
BLOCK
  5
139
330
138
100
AcDbEntity
  8
0
100
AcDbBlockBegin
  2
_D_3
 70
     0
 10
0.0
 20
0.0
 30
0.0
  3
_D_3
  1

  0
ARC
  5
13B
330
138
100
AcDbEntity
  8
VERMASSUNG
100
AcDbCircle
 10
143.9680290453
 20
154.0264554386
 30
0.0
 40
4.247059938537221
100
AcDbArc
 50
153.4349488229
 51
206.5650511771
  0
ARC
  5
13C
330
138
100
AcDbEntity
  8
VERMASSUNG
100
AcDbCircle
 10
146.3444667384
 20
154.0264554386
 30
0.0
 40
4.247059938537246
100
AcDbArc
 50
333.4349488229
 51
26.5650511771
  0
SOLID
  5
13D
330
138
100
AcDbEntity
  8
VERMASSUNG
100
AcDbTrace
 10
85.5312478918
 20
152.1271124932
 30
0.0
 11
88.5312478918
 21
151.6771124932
 31
0.0
 12
88.5312478918
 22
152.5771124932
 32
0.0
 13
88.5312478918
 23
152.5771124932
 33
0.0
  0
SOLID
  5
13E
330
138
100
AcDbEntity
  8
VERMASSUNG
100
AcDbTrace
 10
204.7812478918
 20
152.1271124932
 30
0.0
 11
201.7812478918
 21
152.5771124932
 31
0.0
 12
201.7812478918
 22
151.6771124932
 32
0.0
 13
201.7812478918
 23
151.6771124932
 33
0.0
  0
LINE
  5
13F
330
138
100
AcDbEntity
  8
VERMASSUNG
100
AcDbLine
 10
85.5312478918
 20
117.0264075856
 30
0.0
 11
85.5312478918
 21
153.1271124932
 31
0.0
  0
LINE
  5
140
330
138
100
AcDbEntity
  8
VERMASSUNG
100
AcDbLine
 10
204.7812478918
 20
115.4192769885
 30
0.0
 11
204.7812478918
 21
153.1271124932
 31
0.0
  0
LINE
  5
141
330
138
100
AcDbEntity
  8
VERMASSUNG
100
AcDbLine
 10
85.5312478918
 20
152.1271124932
 30
0.0
 11
204.7812478918
 21
152.1271124932
 31
0.0
  0
MTEXT
  5
142
330
138
100
AcDbEntity
  8
VERMASSUNG
100
AcDbMText
 10
141.7568431544
 20
154.7052480891
 30
0.0
 40
2.0
 41
0.0
 71
     1
 72
     1
  1
119.25
  7
SLDTEXTSTYLE0
 73
     1
 44
1.0
  0
ENDBLK
  5
13A
330
138
100
AcDbEntity
  8
0
100
AcDbBlockEnd
  0
BLOCK
  5
145
330
144
100
AcDbEntity
  8
0
100
AcDbBlockBegin
  2
_D_4
 70
     0
 10
0.0
 20
0.0
 30
0.0
  3
_D_4
  1

  0
SOLID
  5
147
330
144
100
AcDbEntity
  8
VERMASSUNG
100
AcDbTrace
 10
211.6432771367
 20
111.1192769885
 30
0.0
 11
211.1932771367
 21
108.1192769885
 31
0.0
 12
212.0932771367
 22
108.1192769885
 32
0.0
 13
212.0932771367
 23
108.1192769885
 33
0.0
  0
SOLID
  5
148
330
144
100
AcDbEntity
  8
VERMASSUNG
100
AcDbTrace
 10
211.6432771367
 20
100.1192769885
 30
0.0
 11
212.0932771367
 21
103.1192769885
 31
0.0
 12
211.1932771367
 22
103.1192769885
 32
0.0
 13
211.1932771367
 23
103.1192769885
 33
0.0
  0
LINE
  5
149
330
144
100
AcDbEntity
  8
VERMASSUNG
100
AcDbLine
 10
198.8812478918
 20
111.1192769885
 30
0.0
 11
212.6432771367
 21
111.1192769885
 31
0.0
  0
LINE
  5
14A
330
144
100
AcDbEntity
  8
VERMASSUNG
100
AcDbLine
 10
198.8812478918
 20
100.1192769885
 30
0.0
 11
212.6432771367
 21
100.1192769885
 31
0.0
  0
LINE
  5
14B
330
144
100
AcDbEntity
  8
VERMASSUNG
100
AcDbLine
 10
211.6432771367
 20
111.1192769885
 30
0.0
 11
211.6432771367
 21
100.1192769885
 31
0.0
  0
MTEXT
  5
14C
330
144
100
AcDbEntity
  8
VERMASSUNG
100
AcDbMText
 10
209.065141599
 20
102.8154850215
 30
0.0
 40
2.0
 41
0.0
 71
     1
 72
     1
  1
%%c
  7
SLDTEXTSTYLE0
 11
-7.044195017643634E-15
 21
1.0
 31
0.0
 73
     1
 44
1.0
  0
MTEXT
  5
14D
330
144
100
AcDbEntity
  8
VERMASSUNG
100
AcDbMText
 10
209.0651415408
 20
106.4244572151
 30
0.0
 40
2.0
 41
0.0
 71
     1
 72
     1
  1
11
  7
SLDTEXTSTYLE0
 11
-7.044195017643634E-15
 21
1.0
 31
0.0
 73
     1
 44
1.0
  0
ENDBLK
  5
146
330
144
100
AcDbEntity
  8
0
100
AcDbBlockEnd
  0
BLOCK
  5
150
330
14F
100
AcDbEntity
  8
0
100
AcDbBlockBegin
  2
_D_5
 70
     0
 10
0.0
 20
0.0
 30
0.0
  3
_D_5
  1

  0
SOLID
  5
152
330
14F
100
AcDbEntity
  8
VERMASSUNG
100
AcDbTrace
 10
217.6432771367
 20
115.6192769885
 30
0.0
 11
217.1932771367
 21
112.6192769885
 31
0.0
 12
218.0932771367
 22
112.6192769885
 32
0.0
 13
218.0932771367
 23
112.6192769885
 33
0.0
  0
SOLID
  5
153
330
14F
100
AcDbEntity
  8
VERMASSUNG
100
AcDbTrace
 10
217.6432771367
 20
95.6192769885
 30
0.0
 11
218.0932771367
 21
98.6192769885
 31
0.0
 12
217.1932771367
 22
98.6192769885
 32
0.0
 13
217.1932771367
 23
98.6192769885
 33
0.0
  0
LINE
  5
154
330
14F
100
AcDbEntity
  8
VERMASSUNG
100
AcDbLine
 10
204.5812478918
 20
115.6192769885
 30
0.0
 11
218.6432771367
 21
115.6192769885
 31
0.0
  0
LINE
  5
155
330
14F
100
AcDbEntity
  8
VERMASSUNG
100
AcDbLine
 10
204.5812478918
 20
95.6192769885
 30
0.0
 11
218.6432771367
 21
95.6192769885
 31
0.0
  0
LINE
  5
156
330
14F
100
AcDbEntity
  8
VERMASSUNG
100
AcDbLine
 10
217.6432771367
 20
115.6192769885
 30
0.0
 11
217.6432771367
 21
95.6192769885
 31
0.0
  0
MTEXT
  5
157
330
14F
100
AcDbEntity
  8
VERMASSUNG
100
AcDbMText
 10
214.8651418805
 20
99.7142774269
 30
0.0
 40
2.0
 41
0.0
 71
     1
 72
     1
  1
ST1
  7
SLDTEXTSTYLE0
 11
-7.044195017643634E-15
 21
1.0
 31
0.0
 73
     1
 44
1.0
  0
MTEXT
  5
158
330
14F
100
AcDbEntity
  8
VERMASSUNG
100
AcDbMText
 10
215.0651418318
 20
105.114277567
 30
0.0
 40
2.0
 41
0.0
 71
     1
 72
     1
  1
%%c
  7
SLDTEXTSTYLE0
 11
-7.044195017643634E-15
 21
1.0
 31
0.0
 73
     1
 44
1.0
  0
MTEXT
  5
159
330
14F
100
AcDbEntity
  8
VERMASSUNG
100
AcDbMText
 10
214.8651418805
 20
108.7242775813
 30
0.0
 40
2.0
 41
0.0
 71
     1
 72
     1
  1
20
  7
SLDTEXTSTYLE0
 11
-7.044195017643634E-15
 21
1.0
 31
0.0
 73
     1
 44
1.0
  0
ENDBLK
  5
151
330
14F
100
AcDbEntity
  8
0
100
AcDbBlockEnd
  0
ENDSEC
  0
SECTION
  2
ENTITIES
  0
MTEXT
  5
78
330
1F
100
AcDbEntity
  8
KOPF_DÜNN
100
AcDbMText
 10
13.8892156294
 20
23.8442973028
 30
0.0
 40
3.0
 41
0.0
 71
     1
 72
     1
  1
104.340.020.051
  7
SLDTEXTSTYLE0
 73
     1
 44
1.0
  0
MTEXT
  5
79
330
1F
100
AcDbEntity
  8
VERMASSUNG
100
AcDbMText
 10
13.9329988022
 20
28.8834360957
 30
0.0
 40
3.0
 41
0.0
 71
     1
 72
     1
  1
Aufnahme_Master shank ST1
  7
SLDTEXTSTYLE0
 73
     1
 44
1.0
  0
MTEXT
  5
7A
330
1F
100
AcDbEntity
  8
VERMASSUNG
100
AcDbMText
 10
98.8601118557
 20
13.8365368761
 30
0.0
 40
2.0
 41
0.0
 71
     1
 72
     1
  1
Datum: 07.05.2008
  7
SLDTEXTSTYLE0
 73
     1
 44
1.0
  0
MTEXT
  5
7B
330
1F
100
AcDbEntity
  8
VERMASSUNG
100
AcDbMText
 10
13.933048693
 20
18.0482802738
 30
0.0
 40
2.0
 41
0.0
 71
     1
 72
     1
  1
ANSI B5.50 CAT 40
  7
SLDTEXTSTYLE0
 73
     1
 44
1.0
  0
MTEXT
  5
7C
330
1F
100
AcDbEntity
  8
VERMASSUNG
100
AcDbMText
 10
13.9808475933
 20
13.9090974274
 30
0.0
 40
2.0
 41
0.0
 71
     1
 72
     1
  1
Gewicht: 1058g
  7
SLDTEXTSTYLE0
 73
     1
 44
1.0
  0
ARC
  5
7D
330
1F
100
AcDbEntity
  8
0
  6
Continuous
 62
     7
370
    15
100
AcDbCircle
 10
173.4312478918
 20
82.7942769885
 30
0.0
 40
0.6000000000000134
100
AcDbArc
 50
90.0
 51
134.8884779112
  0
ARC
  5
7E
330
1F
100
AcDbEntity
  8
0
  6
Continuous
 62
     7
370
    15
100
AcDbCircle
 10
173.4312478918
 20
128.4442769885
 30
0.0
 40
0.6000000000000227
100
AcDbArc
 50
180.0
 51
270.0
  0
ARC
  5
7F
330
1F
100
AcDbEntity
  8
0
  6
Continuous
 62
     7
370
    15
100
AcDbCircle
 10
156.3562478918
 20
82.7942769885
 30
0.0
 40
0.6000000000000192
100
AcDbArc
 50
45.0661854037
 51
90.0
  0
ARC
  5
80
330
1F
100
AcDbEntity
  8
0
  6
Continuous
 62
     7
370
    15
100
AcDbCircle
 10
156.3562478918
 20
128.4442769885
 30
0.0
 40
0.5999999999999943
100
AcDbArc
 50
270.0
 51
0.0
  0
LINE
  5
81
330
1F
100
AcDbEntity
  8
0
  6
Continuous
 62
     7
370
    15
100
AcDbLine
 10
153.7812478918
 20
127.8442769885
 30
0.0
 11
86.3869409987
 21
118.0159405666
 31
0.0
  0
LINE
  5
82
330
1F
100
AcDbEntity
  8
0
  6
Continuous
 62
     7
370
    15
100
AcDbLine
 10
86.3869409987
 20
93.2226134104
 30
0.0
 11
153.7812478918
 21
83.3942769885
 31
0.0
  0
LINE
  5
83
330
1F
100
AcDbEntity
  8
0
  6
Continuous
 62
     7
370
    15
100
AcDbLine
 10
153.7812478918
 20
83.3942769885
 30
0.0
 11
156.3562478918
 21
83.3942769885
 31
0.0
  0
LINE
  5
84
330
1F
100
AcDbEntity
  8
0
  6
Continuous
 62
     7
370
    15
100
AcDbLine
 10
156.3562478918
 20
127.8442769885
 30
0.0
 11
153.7812478918
 21
127.8442769885
 31
0.0
  0
ARC
  5
85
330
1F
100
AcDbEntity
  8
0
  6
Continuous
 62
     7
370
    15
100
AcDbCircle
 10
187.7812478918
 20
84.3942769885
 30
0.0
 40
1.0
100
AcDbArc
 50
270.0
 51
0.0
  0
ARC
  5
86
330
1F
100
AcDbEntity
  8
0
  6
Continuous
 62
     7
370
    15
100
AcDbCircle
 10
187.7812478918
 20
126.8442769885
 30
0.0
 40
1.0
100
AcDbArc
 50
0.0
 51
90.0
  0
LINE
  5
87
330
1F
100
AcDbEntity
  8
0
  6
Continuous
 62
     7
370
    15
100
AcDbLine
 10
173.4312478918
 20
83.3942769885
 30
0.0
 11
187.7812478918
 21
83.3942769885
 31
0.0
  0
LINE
  5
88
330
1F
100
AcDbEntity
  8
0
  6
Continuous
 62
     7
370
    15
100
AcDbLine
 10
187.7812478918
 20
127.8442769885
 30
0.0
 11
173.4312478918
 21
127.8442769885
 31
0.0
  0
ARC
  5
89
330
1F
100
AcDbEntity
  8
0
  6
Continuous
 62
     7
370
    15
100
AcDbCircle
 10
192.7812478918
 20
91.6192769885
 30
0.0
 40
4.0
100
AcDbArc
 50
90.0
 51
180.0
  0
ARC
  5
8A
330
1F
100
AcDbEntity
  8
0
  6
Continuous
 62
     7
370
    15
100
AcDbCircle
 10
192.7812478918
 20
119.6192769885
 30
0.0
 40
4.0
100
AcDbArc
 50
180.0
 51
270.0
  0
ARC
  5
8B
330
1F
100
AcDbEntity
  8
0
  6
Continuous
 62
     7
370
    15
100
AcDbCircle
 10
86.5312478918
 20
94.2121463915
 30
0.0
 40
0.9999999999999959
100
AcDbArc
 50
180.0
 51
261.7028550302
  0
ARC
  5
8C
330
1F
100
AcDbEntity
  8
0
  6
Continuous
 62
     7
370
    15
100
AcDbCircle
 10
86.5312478918
 20
117.0264075856
 30
0.0
 40
1.00000000000001
100
AcDbArc
 50
98.2971449698
 51
180.0
  0
LINE
  5
8D
330
1F
100
AcDbEntity
  8
0
  6
Continuous
 62
     7
370
    15
100
AcDbLine
 10
204.5812478918
 20
115.6192769885
 30
0.0
 11
192.7812478918
 21
115.6192769885
 31
0.0
  0
LINE
  5
8E
330
1F
100
AcDbEntity
  8
0
  6
Continuous
 62
     7
370
    15
100
AcDbLine
 10
192.7812478918
 20
95.6192769885
 30
0.0
 11
204.5812478918
 21
95.6192769885
 31
0.0
  0
LINE
  5
8F
330
1F
100
AcDbEntity
  8
0
  6
Continuous
 62
     7
370
    15
100
AcDbLine
 10
204.5812478918
 20
95.6192769885
 30
0.0
 11
204.7812478918
 21
95.8192769885
 31
0.0
  0
LINE
  5
90
330
1F
100
AcDbEntity
  8
0
  6
Continuous
 62
     7
370
    15
100
AcDbLine
 10
204.7812478918
 20
115.4192769885
 30
0.0
 11
204.5812478918
 21
115.6192769885
 31
0.0
  0
SPLINE
  5
91
330
1F
100
AcDbEntity
  8
0
  6
Continuous
 62
     7
370
    15
100
AcDbSpline
210
0.0
220
0.0
230
1.0
 70
    24
 71
     3
 72
    11
 73
     7
 74
     0
 42
0.000000001
 43
0.00000001
 40
0.0
 40
0.0
 40
0.0
 40
0.0
 40
0.1208913875340486
 40
0.4766714197330126
 40
0.8143663490172411
 40
1.0
 40
1.0
 40
1.0
 40
1.0
 10
200.3085981610091
 20
104.6192769885419
 30
0.0
 10
200.2648982316705
 20
104.6192769885419
 30
0.0
 10
200.09259061088
 20
104.6192769885419
 30
0.0
 10
199.7676338109488
 20
104.6192769885419
 30
0.0
 10
199.4115373384797
 20
104.6192769885419
 30
0.0
 10
199.221357635284
 20
104.6192769885419
 30
0.0
 10
199.1538976226299
 20
104.6192769885419
 30
0.0
  0
SPLINE
  5
92
330
1F
100
AcDbEntity
  8
0
  6
Continuous
 62
     7
370
    15
100
AcDbSpline
210
0.0
220
0.0
230
1.0
 70
    24
 71
     3
 72
    10
 73
     6
 74
     0
 42
0.000000001
 43
0.00000001
 40
0.0
 40
0.0
 40
0.0
 40
0.0
 40
0.4391051671061726
 40
0.7513578980692749
 40
1.0
 40
1.0
 40
1.0
 40
1.0
 10
200.8859484301988
 20
105.6192769885419
 30
0.0
 10
200.803298613916
 20
105.4761233075039
 30
0.0
 10
200.6618755633806
 20
105.2311713986151
 30
0.0
 10
200.4562887971367
 20
104.875084674117
 30
0.0
 10
200.35396003225
 20
104.6978460542575
 30
0.0
 10
200.3085981610091
 20
104.6192769885419
 30
0.0
  0
SPLINE
  5
93
330
1F
100
AcDbEntity
  8
0
  6
Continuous
 62
     7
370
    15
100
AcDbSpline
210
0.0
220
0.0
230
1.0
 70
    24
 71
     3
 72
    10
 73
     6
 74
     0
 42
0.000000001
 43
0.00000001
 40
0.0
 40
0.0
 40
0.0
 40
0.0
 40
0.4391051671061733
 40
0.7513578980692757
 40
1.0
 40
1.0
 40
1.0
 40
1.0
 10
200.3085981610091
 20
106.6192769885419
 30
0.0
 10
200.3912479772919
 20
106.4761233075039
 30
0.0
 10
200.5326710278273
 20
106.2311713986151
 30
0.0
 10
200.7382577940712
 20
105.875084674117
 30
0.0
 10
200.8405865589579
 20
105.6978460542575
 30
0.0
 10
200.8859484301988
 20
105.6192769885419
 30
0.0
  0
SPLINE
  5
94
330
1F
100
AcDbEntity
  8
0
  6
Continuous
 62
     7
370
    15
100
AcDbSpline
210
0.0
220
0.0
230
1.0
 70
    24
 71
     3
 72
    11
 73
     7
 74
     0
 42
0.000000001
 43
0.00000001
 40
0.0
 40
0.0
 40
0.0
 40
0.0
 40
0.1856336509827594
 40
0.5233285802669877
 40
0.8791086124659514
 40
1.0
 40
1.0
 40
1.0
 40
1.0
 10
199.1538976226299
 20
106.6192769885419
 30
0.0
 10
199.221357635284
 20
106.6192769885419
 30
0.0
 10
199.4115373384797
 20
106.6192769885419
 30
0.0
 10
199.7676338109488
 20
106.6192769885419
 30
0.0
 10
200.09259061088
 20
106.6192769885419
 30
0.0
 10
200.2648982316706
 20
106.6192769885419
 30
0.0
 10
200.3085981610091
 20
106.6192769885419
 30
0.0
  0
SPLINE
  5
95
330
1F
100
AcDbEntity
  8
0
  6
Continuous
 62
     7
370
    15
100
AcDbSpline
210
0.0
220
0.0
230
1.0
 70
    24
 71
     3
 72
    10
 73
     6
 74
     0
 42
0.000000001
 43
0.00000001
 40
0.0
 40
0.0
 40
0.0
 40
0.0
 40
0.4391051671061744
 40
0.7513578980692771
 40
1.0
 40
1.0
 40
1.0
 40
1.0
 10
198.5765473534403
 20
105.6192769885419
 30
0.0
 10
198.659197169723
 20
105.7624306695799
 30
0.0
 10
198.8006202202585
 20
106.0073825784686
 30
0.0
 10
199.0062069865024
 20
106.3634693029668
 30
0.0
 10
199.108535751389
 20
106.5407079228263
 30
0.0
 10
199.1538976226299
 20
106.6192769885419
 30
0.0
  0
SPLINE
  5
96
330
1F
100
AcDbEntity
  8
0
  6
Continuous
 62
     7
370
    15
100
AcDbSpline
210
0.0
220
0.0
230
1.0
 70
    24
 71
     3
 72
    10
 73
     6
 74
     0
 42
0.000000001
 43
0.00000001
 40
0.0
 40
0.0
 40
0.0
 40
0.0
 40
0.4391051671061727
 40
0.7513578980692753
 40
0.9999999999999999
 40
0.9999999999999999
 40
0.9999999999999999
 40
0.9999999999999999
 10
199.1538976226299
 20
104.6192769885419
 30
0.0
 10
199.0712478063471
 20
104.7624306695799
 30
0.0
 10
198.9298247558117
 20
105.0073825784686
 30
0.0
 10
198.7242379895679
 20
105.3634693029668
 30
0.0
 10
198.6219092246812
 20
105.5407079228263
 30
0.0
 10
198.5765473534403
 20
105.6192769885419
 30
0.0
  0
CIRCLE
  5
97
330
1F
100
AcDbEntity
  8
0
  6
Continuous
 62
     7
370
    15
100
AcDbCircle
 10
199.7312478918
 20
105.6192769885
 30
0.0
 40
1.249999999999986
  0
CIRCLE
  5
98
330
1F
100
AcDbEntity
  8
0
  6
Continuous
 62
     7
370
    15
100
AcDbCircle
 10
199.7312478918
 20
105.6192769885
 30
0.0
 40
1.749999999999986
  0
CIRCLE
  5
99
330
1F
100
AcDbEntity
  8
0
  6
Continuous
 62
     7
370
    15
100
AcDbCircle
 10
199.7312478918
 20
105.6192769885
 30
0.0
 40
1.999999999999986
  0
ARC
  5
9A
330
1F
100
AcDbEntity
  8
0
  6
Continuous
 62
     7
370
    15
100
AcDbCircle
 10
199.7312478918
 20
105.6192769885
 30
0.0
 40
1.0
100
AcDbArc
 50
30.0
 51
90.0
  0
ARC
  5
9B
330
1F
100
AcDbEntity
  8
0
  6
Continuous
 62
     7
370
    15
100
AcDbCircle
 10
199.7312478918
 20
105.6192769885
 30
0.0
 40
0.9999999999999858
100
AcDbArc
 50
270.0
 51
330.0
  0
ARC
  5
9C
330
1F
100
AcDbEntity
  8
0
  6
Continuous
 62
     7
370
    15
100
AcDbCircle
 10
199.7312478918
 20
105.6192769885
 30
0.0
 40
0.9999999999999836
100
AcDbArc
 50
330.0
 51
30.0
  0
ARC
  5
9D
330
1F
100
AcDbEntity
  8
0
  6
Continuous
 62
     7
370
    15
100
AcDbCircle
 10
199.7312478918
 20
105.6192769885
 30
0.0
 40
1.000000000000008
100
AcDbArc
 50
210.0
 51
270.0
  0
ARC
  5
9E
330
1F
100
AcDbEntity
  8
0
  6
Continuous
 62
     7
370
    15
100
AcDbCircle
 10
199.7312478918
 20
105.6192769885
 30
0.0
 40
1.000000000000015
100
AcDbArc
 50
90.0
 51
150.0
  0
ARC
  5
9F
330
1F
100
AcDbEntity
  8
0
  6
Continuous
 62
     7
370
    15
100
AcDbCircle
 10
199.7312478918
 20
105.6192769885
 30
0.0
 40
1.000000000000015
100
AcDbArc
 50
150.0
 51
210.0
  0
LINE
  5
A0
330
1F
100
AcDbEntity
  8
0
  6
Continuous
 62
     7
370
    15
100
AcDbLine
 10
156.9562478918
 20
75.852683297
 30
0.0
 11
156.9562478918
 21
135.3858706801
 31
0.0
  0
SPLINE
  5
A1
330
1F
100
AcDbEntity
  8
0
  6
Continuous
 62
     7
370
    15
100
AcDbSpline
210
0.0
220
0.0
230
1.0
 70
     8
 71
     3
 72
    10
 73
     6
 74
     0
 42
0.000000001
 43
0.00000001
 40
0.0
 40
0.0
 40
0.0
 40
0.0
 40
0.5
 40
0.5
 40
1.0
 40
1.0
 40
1.0
 40
1.0
 10
157.2452407280091
 20
136.008453915231
 30
0.0
 10
157.1689330291996
 20
135.9379371341202
 30
0.0
 10
157.1012705679483
 20
135.8522335816665
 30
0.0
 10
156.9939617189913
 20
135.640733917103
 30
0.0
 10
156.9562478918195
 20
135.5165809568518
 30
0.0
 10
156.9562478918195
 20
135.3858706801284
 30
0.0
  0
SPLINE
  5
A2
330
1F
100
AcDbEntity
  8
0
  6
Continuous
 62
     7
370
    15
100
AcDbSpline
210
0.0
220
0.0
230
1.0
 70
     8
 71
     3
 72
     8
 73
     4
 74
     0
 42
0.000000001
 43
0.00000001
 40
0.0
 40
0.0
 40
0.0
 40
0.0
 40
1.0
 40
1.0
 40
1.0
 40
1.0
 10
157.5562478918195
 20
136.0784715655565
 30
0.0
 10
157.4448267416052
 20
136.0784715655565
 30
0.0
 10
157.3368323110089
 20
136.0532047849894
 30
0.0
 10
157.2452407280091
 20
136.0084539152309
 30
0.0
  0
SPLINE
  5
A3
330
1F
100
AcDbEntity
  8
0
  6
Continuous
 62
     7
370
    15
100
AcDbSpline
210
0.0
220
0.0
230
1.0
 70
     8
 71
     3
 72
    10
 73
     6
 74
     0
 42
0.000000001
 43
0.00000001
 40
0.0
 40
0.0
 40
0.0
 40
0.0
 40
0.5
 40
0.5
 40
1.0
 40
1.0
 40
1.0
 40
1.0
 10
157.1731635571793
 20
75.30478970960033
 30
0.0
 10
157.2218988780474
 20
75.27688189163182
 30
0.0
 10
157.2792650870626
 20
75.25307196046191
 30
0.0
 10
157.4096034845981
 20
75.21921973950586
 30
0.0
 10
157.481899909322
 20
75.20956844708482
 30
0.0
 10
157.5562478918195
 20
75.20956844708482
 30
0.0
  0
SPLINE
  5
A4
330
1F
100
AcDbEntity
  8
0
  6
Continuous
 62
     7
370
    15
100
AcDbSpline
210
0.0
220
0.0
230
1.0
 70
     8
 71
     3
 72
    10
 73
     6
 74
     0
 42
0.000000001
 43
0.00000001
 40
0.0
 40
0.0
 40
0.0
 40
0.0
 40
0.5
 40
0.5
 40
1.0
 40
1.0
 40
1.0
 40
1.0
 10
157.1731635571793
 20
75.30478970960033
 30
0.0
 10
157.1148380222738
 20
75.37249061882669
 30
0.0
 10
157.0622786200284
 20
75.45297094383046
 30
0.0
 10
156.9830912169666
 20
75.637844084226
 30
0.0
 10
156.9562478918195
 20
75.74345952901386
 30
0.0
 10
156.9562478918195
 20
75.85268329695532
 30
0.0
  0
SPLINE
  5
A5
330
1F
100
AcDbEntity
  8
0
  6
Continuous
 62
     7
370
    15
100
AcDbSpline
210
0.0
220
0.0
230
1.0
 70
     8
 71
     3
 72
     8
 73
     4
 74
     0
 42
0.000000001
 43
0.00000001
 40
0.0
 40
0.0
 40
0.0
 40
0.0
 40
1.0
 40
1.0
 40
1.0
 40
1.0
 10
167.8487338987759
 20
135.2974467514206
 30
0.0
 10
167.4955858770192
 20
134.6629679122547
 30
0.0
 10
167.1430484462755
 20
134.0281554492145
 30
0.0
 10
166.7912478918196
 20
133.3929403606575
 30
0.0
  0
SPLINE
  5
A6
330
1F
100
AcDbEntity
  8
0
  6
Continuous
 62
     7
370
    15
100
AcDbSpline
210
0.0
220
0.0
230
1.0
 70
     8
 71
     3
 72
     8
 73
     4
 74
     0
 42
0.000000001
 43
0.00000001
 40
0.0
 40
0.0
 40
0.0
 40
0.0
 40
0.0012371390485494
 40
0.0012371390485494
 40
0.0012371390485494
 40
0.0012371390485494
 10
168.4059712852222
 20
136.0784715655565
 30
0.0
 10
168.2195296188959
 20
135.8183787860674
 30
0.0
 10
168.0337599153771
 20
135.5580445027616
 30
0.0
 10
167.8487338987759
 20
135.2974467514206
 30
0.0
  0
LINE
  5
A7
330
1F
100
AcDbEntity
  8
0
  6
Continuous
 62
     7
370
    15
100
AcDbLine
 10
168.4059712852
 20
75.2095684471
 30
0.0
 11
168.4059712852
 21
136.0784715656
 31
0.0
  0
SPLINE
  5
A8
330
1F
100
AcDbEntity
  8
0
  6
Continuous
 62
     7
370
    15
100
AcDbSpline
210
0.0
220
0.0
230
1.0
 70
     8
 71
     3
 72
     8
 73
     4
 74
     0
 42
0.000000001
 43
0.00000001
 40
0.0
 40
0.0
 40
0.0
 40
0.0
 40
0.0011858378198547
 40
0.0011858378198547
 40
0.0011858378198547
 40
0.0011858378198547
 10
167.9505717051335
 20
75.75818122049486
 30
0.0
 10
168.1008396916269
 20
75.57499293543147
 30
0.0
 10
168.2526852942959
 20
75.3921278762996
 30
0.0
 10
168.4059712852222
 20
75.20956844708482
 30
0.0
  0
SPLINE
  5
A9
330
1F
100
AcDbEntity
  8
0
  6
Continuous
 62
     7
370
    15
100
AcDbSpline
210
0.0
220
0.0
230
1.0
 70
     8
 71
     3
 72
     8
 73
     4
 74
     0
 42
0.000000001
 43
0.00000001
 40
0.0
 40
0.0
 40
0.0
 40
0.0
 40
1.0
 40
1.0
 40
1.0
 40
1.0
 10
167.9505717051335
 20
75.75818122049486
 30
0.0
 10
167.5633593750914
 20
76.4535612237251
 30
0.0
 10
167.1768587249538
 20
77.14935030354803
 30
0.0
 10
166.7912478918196
 20
77.84561361642628
 30
0.0
  0
LINE
  5
AA
330
1F
100
AcDbEntity
  8
0
  6
Continuous
 62
     7
370
    15
100
AcDbLine
 10
172.2312478918
 20
136.0784715656
 30
0.0
 11
168.4059712852
 21
136.0784715656
 31
0.0
  0
LINE
  5
AB
330
1F
100
AcDbEntity
  8
0
  6
Continuous
 62
     7
370
    15
100
AcDbLine
 10
168.4059712852
 20
75.2095684471
 30
0.0
 11
172.2312478918
 21
75.2095684471
 31
0.0
  0
SPLINE
  5
AC
330
1F
100
AcDbEntity
  8
0
  6
Continuous
 62
     7
370
    15
100
AcDbSpline
210
0.0
220
0.0
230
1.0
 70
     8
 71
     3
 72
    12
 73
     8
 74
     0
 42
0.000000001
 43
0.00000001
 40
0.0
 40
0.0
 40
0.0
 40
0.0
 40
0.4999999999999953
 40
0.4999999999999953
 40
0.7499999999999977
 40
0.7499999999999977
 40
1.0
 40
1.0
 40
1.0
 40
1.0
 10
172.8312478918195
 20
135.5938247827855
 30
0.0
 10
172.8312478918195
 20
135.7139949616555
 30
0.0
 10
172.7773357801315
 20
135.8318974536407
 30
0.0
 10
172.6162154242728
 20
135.9712163224937
 30
0.0
 10
172.5514173154307
 20
136.0093560134858
 30
0.0
 10
172.3993618881126
 20
136.063936098821
 30
0.0
 10
172.3166296256613
 20
136.0784715655565
 30
0.0
 10
172.2312478918195
 20
136.0784715655565
 30
0.0
  0
LINE
  5
AD
330
1F
100
AcDbEntity
  8
0
  6
Continuous
 62
     7
370
    15
100
AcDbLine
 10
172.8312478918
 20
75.6257042052
 30
0.0
 11
172.8312478918
 21
135.5938247828
 31
0.0
  0
SPLINE
  5
AE
330
1F
100
AcDbEntity
  8
0
  6
Continuous
 62
     7
370
    15
100
AcDbSpline
210
0.0
220
0.0
230
1.0
 70
     8
 71
     3
 72
    12
 73
     8
 74
     0
 42
0.000000001
 43
0.00000001
 40
0.0
 40
0.0
 40
0.0
 40
0.0
 40
0.2500000000000008
 40
0.2500000000000008
 40
0.5000000000000017
 40
0.5000000000000017
 40
1.0
 40
1.0
 40
1.0
 40
1.0
 10
172.2312478918195
 20
75.20956844708483
 30
0.0
 10
172.3267898019555
 20
75.20956844708483
 30
0.0
 10
172.4189347438183
 20
75.22570423056699
 30
0.0
 10
172.5752610204282
 20
75.27892383669032
 30
0.0
 10
172.6389291630482
 20
75.31507087689369
 30
0.0
 10
172.7877970084785
 20
75.43630876996559
 30
0.0
 10
172.8312478918195
 20
75.53077131562634
 30
0.0
 10
172.8312478918195
 20
75.6257042052047
 30
0.0
  0
LINE
  5
AF
330
1F
100
AcDbEntity
  8
0
  6
Continuous
 62
     7
370
    15
100
AcDbLine
 10
161.3565244984
 20
136.0784715656
 30
0.0
 11
157.5562478918
 21
136.0784715656
 31
0.0
  0
LINE
  5
B0
330
1F
100
AcDbEntity
  8
0
  6
Continuous
 62
     7
370
    15
100
AcDbLine
 10
161.3565244984
 20
75.2095684471
 30
0.0
 11
161.3565244984
 21
136.0784715656
 31
0.0
  0
LINE
  5
B1
330
1F
100
AcDbEntity
  8
0
  6
Continuous
 62
     7
370
    15
100
AcDbLine
 10
157.5562478918
 20
75.2095684471
 30
0.0
 11
161.3565244984
 21
75.2095684471
 31
0.0
  0
SPLINE
  5
B2
330
1F
100
AcDbEntity
  8
0
  6
Continuous
 62
     7
370
    15
100
AcDbSpline
210
0.0
220
0.0
230
1.0
 70
     8
 71
     3
 72
     8
 73
     4
 74
     0
 42
0.000000001
 43
0.00000001
 40
0.0
 40
0.0
 40
0.0
 40
0.0
 40
0.0012371390485494
 40
0.0012371390485494
 40
0.0012371390485494
 40
0.0012371390485494
 10
161.9137618848631
 20
135.2974467514206
 30
0.0
 10
161.7287358682619
 20
135.5580445027616
 30
0.0
 10
161.5429661647431
 20
135.8183787860674
 30
0.0
 10
161.3565244984169
 20
136.0784715655565
 30
0.0
  0
SPLINE
  5
B3
330
1F
100
AcDbEntity
  8
0
  6
Continuous
 62
     7
370
    15
100
AcDbSpline
210
0.0
220
0.0
230
1.0
 70
     8
 71
     3
 72
     8
 73
     4
 74
     0
 42
0.000000001
 43
0.00000001
 40
0.0
 40
0.0
 40
0.0
 40
0.0
 40
1.0
 40
1.0
 40
1.0
 40
1.0
 10
162.9712478918195
 20
133.3929403606575
 30
0.0
 10
162.6194473373635
 20
134.0281554492145
 30
0.0
 10
162.2669099066198
 20
134.6629679122548
 30
0.0
 10
161.9137618848631
 20
135.2974467514206
 30
0.0
  0
SPLINE
  5
B4
330
1F
100
AcDbEntity
  8
0
  6
Continuous
 62
     7
370
    15
100
AcDbSpline
210
0.0
220
0.0
230
1.0
 70
     8
 71
     3
 72
     8
 73
     4
 74
     0
 42
0.000000001
 43
0.00000001
 40
0.0
 40
0.0
 40
0.0
 40
0.0
 40
1.0
 40
1.0
 40
1.0
 40
1.0
 10
162.9712478918195
 20
77.84561361642626
 30
0.0
 10
162.5856370586852
 20
77.14935030354803
 30
0.0
 10
162.1991364085476
 20
76.4535612237251
 30
0.0
 10
161.8119240785056
 20
75.75818122049488
 30
0.0
  0
SPLINE
  5
B5
330
1F
100
AcDbEntity
  8
0
  6
Continuous
 62
     7
370
    15
100
AcDbSpline
210
0.0
220
0.0
230
1.0
 70
     8
 71
     3
 72
     8
 73
     4
 74
     0
 42
0.000000001
 43
0.00000001
 40
0.0
 40
0.0
 40
0.0
 40
0.0
 40
0.0011858378198547
 40
0.0011858378198547
 40
0.0011858378198547
 40
0.0011858378198547
 10
161.3565244984169
 20
75.20956844708482
 30
0.0
 10
161.5098104893431
 20
75.3921278762996
 30
0.0
 10
161.6616560920121
 20
75.57499293543147
 30
0.0
 10
161.8119240785056
 20
75.75818122049488
 30
0.0
  0
SPLINE
  5
B6
330
1F
100
AcDbEntity
  8
0
  6
Continuous
 62
     7
370
    15
100
AcDbSpline
210
0.0
220
0.0
230
1.0
 70
     8
 71
     3
 72
    12
 73
     8
 74
     0
 42
0.000000001
 43
0.00000001
 40
0.0
 40
0.0
 40
0.0
 40
0.0
 40
0.2500000000000015
 40
0.2500000000000015
 40
0.500000000000003
 40
0.500000000000003
 40
1.0
 40
1.0
 40
1.0
 40
1.0
 10
163.7712478918195
 20
78.65263092344881
 30
0.0
 10
163.6647879366328
 20
78.65263092344881
 30
0.0
 10
163.5565183303321
 20
78.62960432613279
 30
0.0
 10
163.3604779749454
 20
78.54260983716185
 30
0.0
 10
163.2720165548499
 20
78.478942497335
 30
0.0
 10
163.0533333530346
 20
78.24530666614434
 30
0.0
 10
162.9712478918195
 20
78.03066041521114
 30
0.0
 10
162.9712478918195
 20
77.81769429978115
 30
0.0
  0
LINE
  5
B7
330
1F
100
AcDbEntity
  8
0
  6
Continuous
 62
     7
370
    15
100
AcDbLine
 10
162.9712478918
 20
77.8176942998
 30
0.0
 11
162.9712478918
 21
133.4208596773
 31
0.0
  0
SPLINE
  5
B8
330
1F
100
AcDbEntity
  8
0
  6
Continuous
 62
     7
370
    15
100
AcDbSpline
210
0.0
220
0.0
230
1.0
 70
     8
 71
     3
 72
    12
 73
     8
 74
     0
 42
0.000000001
 43
0.00000001
 40
0.0
 40
0.0
 40
0.0
 40
0.0
 40
0.2500000000000015
 40
0.2500000000000015
 40
0.500000000000003
 40
0.500000000000003
 40
1.0
 40
1.0
 40
1.0
 40
1.0
 10
163.7712478918195
 20
132.585923053635
 30
0.0
 10
163.6647551513231
 20
132.585923053635
 30
0.0
 10
163.5576214482893
 20
132.6086416853613
 30
0.0
 10
163.3615770947345
 20
132.6952768734338
 30
0.0
 10
163.273107809151
 20
132.7585536779735
 30
0.0
 10
163.0523025101984
 20
132.9941333462844
 30
0.0
 10
162.9712478918195
 20
133.2078516257724
 30
0.0
 10
162.9712478918195
 20
133.4208596773026
 30
0.0
  0
SPLINE
  5
B9
330
1F
100
AcDbEntity
  8
0
  6
Continuous
 62
     7
370
    15
100
AcDbSpline
210
0.0
220
0.0
230
1.0
 70
     8
 71
     3
 72
    14
 73
    10
 74
     0
 42
0.000000001
 43
0.00000001
 40
0.0
 40
0.0
 40
0.0
 40
0.0
 40
0.25
 40
0.25
 40
0.5
 40
0.5
 40
0.75
 40
0.75
 40
1.0
 40
1.0
 40
1.0
 40
1.0
 10
166.7912478918196
 20
77.81769429978115
 30
0.0
 10
166.7912478918196
 20
77.9247236573488
 30
0.0
 10
166.771260203008
 20
78.03175798718485
 30
0.0
 10
166.6939953145342
 20
78.23058256770058
 30
0.0
 10
166.6360693495466
 20
78.32340661989059
 30
0.0
 10
166.4906125175207
 20
78.47879101283294
 30
0.0
 10
166.4018016551577
 20
78.54279821112661
 30
0.0
 10
166.2050670823448
 20
78.62991532549174
 30
0.0
 10
166.0987235076478
 20
78.65263092344881
 30
0.0
 10
165.9912478918195
 20
78.65263092344881
 30
0.0
  0
SPLINE
  5
BA
330
1F
100
AcDbEntity
  8
0
  6
Continuous
 62
     7
370
    15
100
AcDbSpline
210
0.0
220
0.0
230
1.0
 70
     8
 71
     3
 72
    12
 73
     8
 74
     0
 42
0.000000001
 43
0.00000001
 40
0.0
 40
0.0
 40
0.0
 40
0.0
 40
0.5
 40
0.5
 40
0.75
 40
0.75
 40
1.0
 40
1.0
 40
1.0
 40
1.0
 10
166.7912478918195
 20
133.4208596773026
 30
0.0
 10
166.7912478918195
 20
133.207691066124
 30
0.0
 10
166.7087469629753
 20
132.9926110182565
 30
0.0
 10
166.4901671855778
 20
132.7593746526064
 30
0.0
 10
166.4011669843846
 20
132.6954655534808
 30
0.0
 10
166.205589582936
 20
132.6088791986365
 30
0.0
 10
166.0991866518398
 20
132.585923053635
 30
0.0
 10
165.9912478918195
 20
132.585923053635
 30
0.0
  0
LINE
  5
BB
330
1F
100
AcDbEntity
  8
0
  6
Continuous
 62
     7
370
    15
100
AcDbLine
 10
166.7912478918
 20
77.8176942998
 30
0.0
 11
166.7912478918
 21
133.4208596773
 31
0.0
  0
LINE
  5
BC
330
1F
100
AcDbEntity
  8
0
  6
Continuous
 62
     7
370
    15
100
AcDbLine
 10
165.9912478918
 20
78.6526309234
 30
0.0
 11
163.7712478918
 21
78.6526309234
 31
0.0
  0
LINE
  5
BD
330
1F
100
AcDbEntity
  8
0
  6
Continuous
 62
     7
370
    15
100
AcDbLine
 10
165.9912478918
 20
132.5859230536
 30
0.0
 11
163.7712478918
 21
132.5859230536
 31
0.0
  0
SPLINE
  5
BE
330
1F
100
AcDbEntity
  8
0
  6
Continuous
 62
     7
370
    15
100
AcDbSpline
210
0.0
220
0.0
230
1.0
 70
    24
 71
     3
 72
     9
 73
     5
 74
     0
 42
0.000000001
 43
0.00000001
 40
0.0
 40
0.0
 40
0.0
 40
0.0
 40
0.9997455261227199
 40
1.0
 40
1.0
 40
1.0
 40
1.0
 10
172.9944085448639
 20
83.21927698854186
 30
0.0
 10
173.0024882236252
 20
83.2192769885392
 30
0.0
 10
173.0105699589771
 20
83.2192769885365
 30
0.0
 10
173.0077195831826
 20
83.21927698854188
 30
0.0
 10
173.0077188578364
 20
83.21927698854188
 30
0.0
  0
LINE
  5
BF
330
1F
100
AcDbEntity
  8
0
  6
Continuous
 62
     7
370
    15
100
AcDbLine
 10
156.7797770317
 20
83.2192769885
 30
0.0
 11
156.8012640624
 21
83.2192769885
 31
0.0
  0
LINE
  5
C0
330
1F
100
AcDbEntity
  8
0
  6
Continuous
 62
     7
370
    15
100
AcDbLine
 10
153.7812478918
 20
83.3942769885
 30
0.0
 11
153.7812478918
 21
127.8442769885
 31
0.0
  0
LINE
  5
C1
330
1F
100
AcDbEntity
  8
0
  6
Continuous
 62
     7
370
    15
100
AcDbLine
 10
188.7812478918
 20
126.8442769736
 30
0.0
 11
188.7812478918
 21
84.3942769885
 31
0.0
  0
LINE
  5
C2
330
1F
100
AcDbEntity
  8
0
  6
Continuous
 62
     7
370
    15
100
AcDbLine
 10
85.5312478918
 20
94.2121463915
 30
0.0
 11
85.5312478918
 21
117.0264075343
 31
0.0
  0
SPLINE
  5
C3
330
1F
100
AcDbEntity
  8
0
  6
Continuous
 62
     7
370
    15
100
AcDbSpline
210
0.0
220
0.0
230
1.0
 70
    11
 71
     3
 72
    60
 73
    56
 74
     0
 42
0.000000001
 43
0.00000001
 40
0.0
 40
0.0
 40
0.0
 40
0.0
 40
0.0625000000000018
 40
0.0625000000000018
 40
0.0937500000000021
 40
0.0937500000000021
 40
0.1250000000000024
 40
0.1250000000000024
 40
0.1562500000000026
 40
0.1562500000000026
 40
0.1875000000000029
 40
0.1875000000000029
 40
0.2187500000000031
 40
0.2187500000000031
 40
0.2500000000000033
 40
0.2500000000000033
 40
0.2812500000000036
 40
0.2812500000000036
 40
0.3125000000000039
 40
0.3125000000000039
 40
0.3437500000000041
 40
0.3437500000000041
 40
0.3750000000000044
 40
0.3750000000000044
 40
0.4062500000000046
 40
0.4062500000000046
 40
0.4375000000000049
 40
0.4375000000000049
 40
0.4687500000000051
 40
0.4687500000000051
 40
0.5000000000000053
 40
0.5000000000000053
 40
0.5312500000000056
 40
0.5312500000000056
 40
0.5625000000000058
 40
0.5625000000000058
 40
0.625000000000005
 40
0.625000000000005
 40
0.6875000000000041
 40
0.6875000000000041
 40
0.7500000000000033
 40
0.7500000000000033
 40
0.7812500000000029
 40
0.7812500000000029
 40
0.8125000000000024
 40
0.8125000000000024
 40
0.8437500000000021
 40
0.8437500000000021
 40
0.8750000000000017
 40
0.8750000000000017
 40
0.9062500000000012
 40
0.9062500000000012
 40
0.9375000000000008
 40
0.9375000000000008
 40
1.0
 40
1.0
 40
1.0
 40
1.0
 10
198.057426960394
 20
107.2837087085528
 30
0.0
 10
198.3000054203615
 20
107.4805368350662
 30
0.0
 10
198.5737373171491
 20
107.6273676056763
 30
0.0
 10
199.0178958060283
 20
107.7747116524279
 30
0.0
 10
199.1685777631942
 20
107.8104968422231
 30
0.0
 10
199.4750146161002
 20
107.8565323949976
 30
0.0
 10
199.6322748272234
 20
107.8666863507984
 30
0.0
 10
199.9438111290313
 20
107.8602783640025
 30
0.0
 10
200.0977220124308
 20
107.8440367251048
 30
0.0
 10
200.4018723812904
 20
107.7856943477442
 30
0.0
 10
200.5535760482006
 20
107.7429459425217
 30
0.0
 10
200.8436790365053
 20
107.6329576066932
 30
0.0
 10
200.9824194042428
 20
107.5659915131624
 30
0.0
 10
201.2470701423917
 20
107.4074340022186
 30
0.0
 10
201.374179930855
 20
107.3145979272825
 30
0.0
 10
201.6048536590726
 20
107.1092773952903
 30
0.0
 10
201.7092778785154
 20
106.9966759153512
 30
0.0
 10
201.8950090072505
 20
106.750147240755
 30
0.0
 10
201.9766628927909
 20
106.6146889353821
 30
0.0
 10
202.1061615230392
 20
106.334207524067
 30
0.0
 10
202.1553284504376
 20
106.187934747416
 30
0.0
 10
202.2199747226826
 20
105.8822672229418
 30
0.0
 10
202.2344425468465
 20
105.7253264144696
 30
0.0
 10
202.2268555151354
 20
105.4153467164343
 30
0.0
 10
202.2045466770481
 20
105.258462484763
 30
0.0
 10
202.1254067569539
 20
104.9570097772069
 30
0.0
 10
202.0692251778702
 20
104.8124396563175
 30
0.0
 10
201.9249232220803
 20
104.5350519368525
 30
0.0
 10
201.8382212319998
 20
104.4053550516697
 30
0.0
 10
201.641186918004
 20
104.1666162753043
 30
0.0
 10
201.5291950266439
 20
104.0559913556949
 30
0.0
 10
201.2889859960555
 20
103.8602395862617
 30
0.0
 10
201.1604611187263
 20
103.7743194926573
 30
0.0
 10
200.8870850441742
 20
103.6253558165455
 30
0.0
 10
200.7431343254454
 20
103.563110804705
 30
0.0
 10
200.3024871992038
 20
103.4162397972732
 30
0.0
 10
199.9876345043174
 20
103.3690066310927
 30
0.0
 10
199.3679485872413
 20
103.3810032982445
 30
0.0
 10
199.0551538359852
 20
103.4404838908859
 30
0.0
 10
198.4773631647635
 20
103.658910674027
 30
0.0
 10
198.2043669162571
 20
103.820978105323
 30
0.0
 10
197.8593640684538
 20
104.1275863173404
 30
0.0
 10
197.7527765004345
 20
104.2422611432193
 30
0.0
 10
197.565784602767
 20
104.4908712527674
 30
0.0
 10
197.4863563134636
 20
104.6229233245177
 30
0.0
 10
197.3567349489331
 20
104.9032880004677
 30
0.0
 10
197.3062693446431
 20
105.053895781094
 30
0.0
 10
197.2423298570667
 20
105.3581768439896
 30
0.0
 10
197.2279612254245
 20
105.5125268720115
 30
0.0
 10
197.2357796367638
 20
105.8258240259353
 30
0.0
 10
197.2582952763497
 20
105.9817842213118
 30
0.0
 10
197.3373808894407
 20
106.2822787731215
 30
0.0
 10
197.3949980584049
 20
106.4299480603354
 30
0.0
 10
197.610856571894
 20
106.8433311283845
 30
0.0
 10
197.8148485004265
 20
107.0868805820394
 30
0.0
 10
198.057426960394
 20
107.2837087085528
 30
0.0
  0
LINE
  5
C4
330
1F
100
AcDbEntity
  8
0
  6
Continuous
 62
     7
370
    15
100
AcDbLine
 10
204.5812478918
 20
105.6192769885
 30
0.0
 11
204.5812478918
 21
95.6192769885
 31
0.0
  0
LINE
  5
C5
330
1F
100
AcDbEntity
  8
0
  6
Continuous
 62
     7
370
    15
100
AcDbLine
 10
204.5812478918
 20
115.6192769885
 30
0.0
 11
204.5812478918
 21
105.6192769885
 31
0.0
  0
LINE
  5
C6
330
1F
100
AcDbEntity
  8
0
  6
Continuous
 62
     7
370
    15
100
AcDbLine
 10
204.7812478918
 20
105.6192769885
 30
0.0
 11
204.7812478918
 21
95.8192769885
 31
0.0
  0
LINE
  5
C7
330
1F
100
AcDbEntity
  8
0
  6
Continuous
 62
     7
370
    15
100
AcDbLine
 10
204.7812478918
 20
115.4192769885
 30
0.0
 11
204.7812478918
 21
105.6192769885
 31
0.0
  0
CIRCLE
  5
C8
330
1F
100
AcDbEntity
  8
0
  6
HIDDEN
 62
     7
370
     0
100
AcDbCircle
 10
199.7312478918
 20
105.6192769885
 30
0.0
 40
1.426794919243108
  0
CIRCLE
  5
C9
330
1F
100
AcDbEntity
  8
0
  6
HIDDEN
 62
     7
370
     0
100
AcDbCircle
 10
199.7312478918
 20
105.6192769885
 30
0.0
 40
1.326794919243099
  0
LINE
  5
CA
330
1F
100
AcDbEntity
  8
0
  6
HIDDEN
 62
     7
370
     0
100
AcDbLine
 10
156.9562478918
 20
130.4192769885
 30
0.0
 11
157.6248770419
 21
130.4192769885
 31
0.0
  0
ELLIPSE
  5
CB
330
1F
100
AcDbEntity
  8
0
  6
HIDDEN
 62
     7
370
     0
100
AcDbEllipse
 10
157.6248770419
 20
131.2192769885
 30
0.0
 11
0.0
 21
0.8000000000000114
 31
0.0
210
0.0
220
0.0
230
1.0
 40
0.4142135624
 41
3.141592653589793
 42
4.712388980384695
  0
LINE
  5
CC
330
1F
100
AcDbEntity
  8
0
  6
HIDDEN
 62
     7
370
     0
100
AcDbLine
 10
157.6248770419
 20
83.2192769885
 30
0.0
 11
156.9562478918
 21
83.2192769885
 31
0.0
  0
ELLIPSE
  5
CD
330
1F
100
AcDbEntity
  8
0
  6
HIDDEN
 62
     7
370
     0
100
AcDbEllipse
 10
157.6248770419
 20
82.4192769885
 30
0.0
 11
0.0
 21
0.8000000000000114
 31
0.0
210
0.0
220
0.0
230
1.0
 40
0.4142135624
 41
4.712388980384695
 42
6.283185307179586
  0
LINE
  5
CE
330
1F
100
AcDbEntity
  8
0
  6
HIDDEN
 62
     7
370
     0
100
AcDbLine
 10
157.9562478918
 20
75.7581812205
 30
0.0
 11
157.1731635572
 21
75.3047897096
 31
0.0
  0
LINE
  5
CF
330
1F
100
AcDbEntity
  8
0
  6
HIDDEN
 62
     7
370
     0
100
AcDbLine
 10
157.245240728
 20
136.0084539152
 30
0.0
 11
157.9562478918
 21
135.2974467514
 31
0.0
  0
LINE
  5
D0
330
1F
100
AcDbEntity
  8
0
  6
HIDDEN
 62
     7
370
     0
100
AcDbLine
 10
172.8312478918
 20
83.2192769885
 30
0.0
 11
157.6248770419
 21
83.2192769885
 31
0.0
  0
LINE
  5
D1
330
1F
100
AcDbEntity
  8
0
  6
HIDDEN
 62
     7
370
     0
100
AcDbLine
 10
161.8119240785
 20
75.7581812205
 30
0.0
 11
157.9562478918
 21
75.7581812205
 31
0.0
  0
LINE
  5
D2
330
1F
100
AcDbEntity
  8
0
  6
HIDDEN
 62
     7
370
     0
100
AcDbLine
 10
172.8312478918
 20
75.7581812205
 30
0.0
 11
167.9505717051
 21
75.7581812205
 31
0.0
  0
LINE
  5
D3
330
1F
100
AcDbEntity
  8
0
  6
HIDDEN
 62
     7
370
     0
100
AcDbLine
 10
157.9562478918
 20
75.7581812205
 30
0.0
 11
157.9562478918
 21
82.4192769885
 31
0.0
  0
LINE
  5
D4
330
1F
100
AcDbEntity
  8
0
  6
HIDDEN
 62
     7
370
     0
100
AcDbLine
 10
157.6248770419
 20
130.4192769885
 30
0.0
 11
172.8312478918
 21
130.4192769885
 31
0.0
  0
LINE
  5
D5
330
1F
100
AcDbEntity
  8
0
  6
HIDDEN
 62
     7
370
     0
100
AcDbLine
 10
157.9562478918
 20
135.2974467514
 30
0.0
 11
161.9137618849
 21
135.2974467514
 31
0.0
  0
LINE
  5
D6
330
1F
100
AcDbEntity
  8
0
  6
HIDDEN
 62
     7
370
     0
100
AcDbLine
 10
167.8487338988
 20
135.2974467514
 30
0.0
 11
172.8312478918
 21
135.2974467514
 31
0.0
  0
LINE
  5
D7
330
1F
100
AcDbEntity
  8
0
  6
HIDDEN
 62
     7
370
     0
100
AcDbLine
 10
157.9562478918
 20
135.2974467514
 30
0.0
 11
157.9562478918
 21
131.2192769885
 31
0.0
  0
LINE
  5
D8
330
1F
100
AcDbEntity
  8
0
  6
HIDDEN
 62
     7
370
     0
100
AcDbLine
 10
91.1570660362
 20
98.8692769885
 30
0.0
 11
91.1570660362
 21
112.3692769885
 31
0.0
  0
LINE
  5
D9
330
1F
100
AcDbEntity
  8
0
  6
HIDDEN
 62
     7
370
     0
100
AcDbLine
 10
128.5312478918
 20
98.8692769885
 30
0.0
 11
128.5312478918
 21
112.3692769885
 31
0.0
  0
LINE
  5
DA
330
1F
100
AcDbEntity
  8
0
  6
HIDDEN
 62
     7
370
     0
100
AcDbLine
 10
131.3252497703
 20
103.5192769885
 30
0.0
 11
131.3252497703
 21
107.7192769885
 31
0.0
  0
SPLINE
  5
DB
330
1F
100
AcDbEntity
  8
0
  6
HIDDEN
 62
     7
370
     0
100
AcDbSpline
210
0.0
220
0.0
230
1.0
 70
     8
 71
     3
 72
    16
 73
    12
 74
     0
 42
0.000000001
 43
0.00000001
 40
0.0
 40
0.0
 40
0.0
 40
0.0
 40
0.2499999999999972
 40
0.2499999999999972
 40
0.4999999999999944
 40
0.4999999999999944
 40
0.6249999999999994
 40
0.6249999999999994
 40
0.7500000000000046
 40
0.7500000000000046
 40
1.0
 40
1.0
 40
1.0
 40
1.0
 10
204.7812478918195
 20
111.0879130699754
 30
0.0
 10
204.7812478918195
 20
111.0187791686363
 30
0.0
 10
204.7767140825996
 20
110.9481580212016
 30
0.0
 10
204.7515502356187
 20
110.8016345348453
 30
0.0
 10
204.7312630930818
 20
110.7241926596947
 30
0.0
 10
204.6726537163113
 20
110.6185441957406
 30
0.0
 10
204.6481254197251
 20
110.5864639156705
 30
0.0
 10
204.5937795138835
 20
110.5393381923144
 30
0.0
 10
204.5641796891157
 20
110.524284843857
 30
0.0
 10
204.4802301309238
 20
110.5002794094859
 30
0.0
 10
204.4288717321926
 20
110.5078418442291
 30
0.0
 10
204.3812478919326
 20
110.521881199299
 30
0.0
  0
SPLINE
  5
DC
330
1F
100
AcDbEntity
  8
0
  6
HIDDEN
 62
     7
370
     0
100
AcDbSpline
210
0.0
220
0.0
230
1.0
 70
     8
 71
     3
 72
     8
 73
     4
 74
     0
 42
0.000000001
 43
0.00000001
 40
0.0
 40
0.0
 40
0.0
 40
0.0
 40
1.0
 40
1.0
 40
1.0
 40
1.0
 10
204.3812478919322
 20
110.5218811992992
 30
0.0
 10
204.32208158304
 20
110.4880319084707
 30
0.0
 10
204.2532985975157
 20
110.4659165322899
 30
0.0
 10
204.1812478918195
 20
110.4659165322899
 30
0.0
  0
SPLINE
  5
DD
330
1F
100
AcDbEntity
  8
0
  6
HIDDEN
 62
     7
370
     0
100
AcDbSpline
210
0.0
220
0.0
230
1.0
 70
     8
 71
     3
 72
     8
 73
     4
 74
     0
 42
0.000000001
 43
0.00000001
 40
0.0
 40
0.0
 40
0.0
 40
0.0
 40
1.0
 40
1.0
 40
1.0
 40
1.0
 10
204.3812478917547
 20
100.7166727778861
 30
0.0
 10
204.3220815829049
 20
100.7505220686575
 30
0.0
 10
204.2532985974436
 20
100.7726374447939
 30
0.0
 10
204.1812478918195
 20
100.7726374447939
 30
0.0
  0
SPLINE
  5
DE
330
1F
100
AcDbEntity
  8
0
  6
HIDDEN
 62
     7
370
     0
100
AcDbSpline
210
0.0
220
0.0
230
1.0
 70
     8
 71
     3
 72
    16
 73
    12
 74
     0
 42
0.000000001
 43
0.00000001
 40
0.0
 40
0.0
 40
0.0
 40
0.0
 40
0.2500000000000007
 40
0.2500000000000007
 40
0.3750000000000006
 40
0.3750000000000006
 40
0.5000000000000004
 40
0.5000000000000004
 40
0.7500000000000002
 40
0.7500000000000002
 40
1.0
 40
1.0
 40
1.0
 40
1.0
 10
204.3812478917423
 20
100.7166727778858
 30
0.0
 10
204.4285524796055
 20
100.7306179466767
 30
0.0
 10
204.4795506187592
 20
100.7381989340764
 30
0.0
 10
204.5631496250278
 20
100.7146901011155
 30
0.0
 10
204.5922869668629
 20
100.7001258335249
 30
0.0
 10
204.6466106388027
 20
100.653756146897
 30
0.0
 10
204.6710937857187
 20
100.622231683508
 30
0.0
 10
204.7299343420115
 20
100.5178565842861
 30
0.0
 10
204.7508157196667
 20
100.4400907590835
 30
0.0
 10
204.7765864302231
 20
100.2922032246135
 30
0.0
 10
204.7812475844465
 20
100.2200925726913
 30
0.0
 10
204.7812478918052
 20
100.1506462225529
 30
0.0
  0
LINE
  5
DF
330
1F
100
AcDbEntity
  8
0
  6
HIDDEN
 62
     7
370
     0
100
AcDbLine
 10
194.6472732956
 20
105.6192769885
 30
0.0
 11
194.6472732956
 21
100.1192769885
 31
0.0
  0
LINE
  5
E0
330
1F
100
AcDbEntity
  8
0
  6
HIDDEN
 62
     7
370
     0
100
AcDbLine
 10
194.6472732956
 20
111.1192769885
 30
0.0
 11
194.6472732956
 21
105.6192769885
 31
0.0
  0
LINE
  5
E1
330
1F
100
AcDbEntity
  8
0
  6
HIDDEN
 62
     7
370
     0
100
AcDbLine
 10
198.8812478918
 20
110.4659165323
 30
0.0
 11
204.1812478918
 21
110.4659165323
 31
0.0
  0
LINE
  5
E2
330
1F
100
AcDbEntity
  8
0
  6
HIDDEN
 62
     7
370
     0
100
AcDbLine
 10
198.8812478918
 20
100.7726374448
 30
0.0
 11
204.1812478918
 21
100.7726374448
 31
0.0
  0
LINE
  5
E3
330
1F
100
AcDbEntity
  8
0
  6
HIDDEN
 62
     7
370
     0
100
AcDbLine
 10
160.1312478918
 20
130.0192769885
 30
0.0
 11
169.6312478918
 21
130.0192769885
 31
0.0
  0
SPLINE
  5
E4
330
1F
100
AcDbEntity
  8
0
  6
HIDDEN
 62
     7
370
     0
100
AcDbSpline
210
0.0
220
0.0
230
1.0
 70
     8
 71
     3
 72
    14
 73
    10
 74
     0
 42
0.000000001
 43
0.00000001
 40
0.0
 40
0.0
 40
0.0
 40
0.0
 40
0.2500000000000005
 40
0.2500000000000005
 40
0.500000000000001
 40
0.500000000000001
 40
0.7500000000000004
 40
0.7500000000000004
 40
1.0
 40
1.0
 40
1.0
 40
1.0
 10
204.3812478918195
 20
113.0192769885419
 30
0.0
 10
204.3812478918196
 20
113.1150889892554
 30
0.0
 10
204.3813931064199
 20
113.2019046329612
 30
0.0
 10
204.3796658822066
 20
113.3581075255067
 30
0.0
 10
204.3777779818672
 20
113.427126882572
 30
0.0
 10
204.3734181450928
 20
113.5395279868095
 30
0.0
 10
204.370528317949
 20
113.5844995954207
 30
0.0
 10
204.3646540649131
 20
113.6467250178156
 30
0.0
 10
204.3618213861578
 20
113.6644832518551
 30
0.0
 10
204.3597638158932
 20
113.6684435981515
 30
0.0
  0
SPLINE
  5
E5
330
1F
100
AcDbEntity
  8
0
  6
HIDDEN
 62
     7
370
     0
100
AcDbSpline
210
0.0
220
0.0
230
1.0
 70
     8
 71
     3
 72
    18
 73
    14
 74
     0
 42
0.000000001
 43
0.00000001
 40
0.0
 40
0.0
 40
0.0
 40
0.0
 40
0.0794091730109357
 40
0.1604408643354776
 40
0.242657809782284
 40
0.2839672851968454
 40
0.4435208622071083
 40
0.5655015467333582
 40
0.6066284783195073
 40
0.7664526316892145
 40
0.8886384684032012
 40
0.9298376092102564
 40
1.0
 40
1.0
 40
1.0
 40
1.0
 10
204.3589486905077
 20
113.6670050549295
 30
0.0
 10
204.3583528883245
 20
113.666879679056
 30
0.0
 10
204.3571491103023
 20
113.6666263655818
 30
0.0
 10
204.3564206433743
 20
113.65101740293
 30
0.0
 10
204.3566207916596
 20
113.6315456411131
 30
0.0
 10
204.3577612114232
 20
113.5961811627184
 30
0.0
 10
204.3605444443345
 20
113.5412887853007
 30
0.0
 10
204.3649928162115
 20
113.4673562254384
 30
0.0
 10
204.3700676703999
 20
113.3832245620123
 30
0.0
 10
204.3754882103106
 20
113.286622601401
 30
0.0
 10
204.3792748912059
 20
113.1750690760552
 30
0.0
 10
204.3809460318645
 20
113.089358397949
 30
0.0
 10
204.3811311406463
 20
113.046364763912
 30
0.0
 10
204.3812477668681
 20
113.0192769885419
 30
0.0
  0
LWPOLYLINE
  5
E6
330
1F
100
AcDbEntity
  8
0
  6
HIDDEN
 62
     7
370
     0
100
AcDbPolyline
 90
        4
 70
   128
 43
0.0
 10
204.3812477669
 20
113.0192769885
 10
204.3812478906
 20
112.277166288
 10
204.3812479085
 20
111.5350555874
 10
204.3812478919
 20
110.5218811993
  0
LWPOLYLINE
  5
E7
330
1F
100
AcDbEntity
  8
0
  6
HIDDEN
 62
     7
370
     0
100
AcDbPolyline
 90
        3
 70
   128
 43
0.0
 10
204.381247942
 20
98.2192769885
 10
204.3812478874
 20
99.4959572167
 10
204.3812478917
 20
100.7166727779
  0
SPLINE
  5
E8
330
1F
100
AcDbEntity
  8
0
  6
HIDDEN
 62
     7
370
     0
100
AcDbSpline
210
0.0
220
0.0
230
1.0
 70
     8
 71
     3
 72
    14
 73
    10
 74
     0
 42
0.000000001
 43
0.00000001
 40
0.0
 40
0.0
 40
0.0
 40
0.0
 40
0.1189792839777962
 40
0.2834099110254141
 40
0.442525800378305
 40
0.6062444936362508
 40
0.7656292273444617
 40
0.9296212860965518
 40
1.0
 40
1.0
 40
1.0
 40
1.0
 10
204.3590206744387
 20
97.5727175991838
 30
0.0
 10
204.3581503235086
 20
97.57363281685103
 30
0.0
 10
204.356077138401
 20
97.57581287500035
 30
0.0
 10
204.3567292704025
 20
97.62209061469356
 30
0.0
 10
204.3608473577531
 20
97.70382293182975
 30
0.0
 10
204.3679907024929
 20
97.81854807107524
 30
0.0
 10
204.376113349312
 20
97.96396809598478
 30
0.0
 10
204.3806864226564
 20
98.10188531948323
 30
0.0
 10
204.3811182649896
 20
98.19216660753807
 30
0.0
 10
204.3812479420294
 20
98.21927698854186
 30
0.0
  0
LINE
  5
E9
330
1F
100
AcDbEntity
  8
0
  6
HIDDEN
 62
     7
370
     0
100
AcDbLine
 10
198.8812478918
 20
98.2192769885
 30
0.0
 11
198.8812478918
 21
100.7726374448
 31
0.0
  0
LINE
  5
EA
330
1F
100
AcDbEntity
  8
0
  6
HIDDEN
 62
     7
370
     0
100
AcDbLine
 10
198.8812478918
 20
113.0192769885
 30
0.0
 11
198.8812478918
 21
110.4659165323
 31
0.0
  0
LINE
  5
EB
330
1F
100
AcDbEntity
  8
0
  6
HIDDEN
 62
     7
370
     0
100
AcDbLine
 10
198.8812478918
 20
113.6692769885
 30
0.0
 11
198.8812478918
 21
113.0192769885
 31
0.0
  0
LINE
  5
EC
330
1F
100
AcDbEntity
  8
0
  6
HIDDEN
 62
     7
370
     0
100
AcDbLine
 10
198.8812478918
 20
97.5692769885
 30
0.0
 11
198.8812478918
 21
98.2192769885
 31
0.0
  0
ARC
  5
ED
330
1F
100
AcDbEntity
  8
0
  6
HIDDEN
 62
     7
370
     0
100
AcDbCircle
 10
192.0312478918
 20
110.8692769885
 30
0.0
 40
0.7500000000000284
100
AcDbArc
 50
0.0
 51
180.0
  0
ARC
  5
EE
330
1F
100
AcDbEntity
  8
0
  6
HIDDEN
 62
     7
370
     0
100
AcDbCircle
 10
192.0312478918
 20
110.8692769885
 30
0.0
 40
0.7500000000000284
100
AcDbArc
 50
180.0
 51
0.0
  0
ARC
  5
EF
330
1F
100
AcDbEntity
  8
0
  6
HIDDEN
 62
     7
370
     0
100
AcDbCircle
 10
192.0312478918
 20
100.3692769885
 30
0.0
 40
0.7500000000000284
100
AcDbArc
 50
180.0
 51
0.0
  0
ARC
  5
F0
330
1F
100
AcDbEntity
  8
0
  6
HIDDEN
 62
     7
370
     0
100
AcDbCircle
 10
192.0312478918
 20
100.3692769885
 30
0.0
 40
0.7500000000000284
100
AcDbArc
 50
0.0
 51
180.0
  0
LINE
  5
F1
330
1F
100
AcDbEntity
  8
0
  6
HIDDEN
 62
     7
370
     0
100
AcDbLine
 10
191.2812478918
 20
110.8692769885
 30
0.0
 11
191.2812478918
 21
100.3692769885
 31
0.0
  0
LINE
  5
F2
330
1F
100
AcDbEntity
  8
0
  6
HIDDEN
 62
     7
370
     0
100
AcDbLine
 10
192.7812478918
 20
100.3692769885
 30
0.0
 11
192.7812478918
 21
110.8692769885
 31
0.0
  0
ARC
  5
F3
330
1F
100
AcDbEntity
  8
0
  6
HIDDEN
 62
     7
370
     0
100
AcDbCircle
 10
86.3312478918
 20
96.6042769885
 30
0.0
 40
0.7999999999999972
100
AcDbArc
 50
90.0
 51
180.0
  0
ARC
  5
F4
330
1F
100
AcDbEntity
  8
0
  6
HIDDEN
 62
     7
370
     0
100
AcDbCircle
 10
86.3312478918
 20
114.6342769885
 30
0.0
 40
0.7999999999999972
100
AcDbArc
 50
180.0
 51
270.0
  0
ARC
  5
F5
330
1F
100
AcDbEntity
  8
0
  6
HIDDEN
 62
     7
370
     0
100
AcDbCircle
 10
90.0803077841
 20
97.8042769885
 30
0.0
 40
0.4000000000000199
100
AcDbArc
 50
270.0
 51
330.0
  0
ARC
  5
F6
330
1F
100
AcDbEntity
  8
0
  6
HIDDEN
 62
     7
370
     0
100
AcDbCircle
 10
90.0803077841
 20
113.4342769885
 30
0.0
 40
0.4000000000000199
100
AcDbArc
 50
30.0
 51
90.0
  0
LINE
  5
F7
330
1F
100
AcDbEntity
  8
0
  6
HIDDEN
 62
     7
370
     0
100
AcDbLine
 10
86.3312478918
 20
97.4042769885
 30
0.0
 11
90.0803077841
 21
97.4042769885
 31
0.0
  0
LINE
  5
F8
330
1F
100
AcDbEntity
  8
0
  6
HIDDEN
 62
     7
370
     0
100
AcDbLine
 10
90.0803077841
 20
113.8342769885
 30
0.0
 11
86.3312478918
 21
113.8342769885
 31
0.0
  0
LINE
  5
F9
330
1F
100
AcDbEntity
  8
0
  6
HIDDEN
 62
     7
370
     0
100
AcDbLine
 10
90.4267179457
 20
97.6042769885
 30
0.0
 11
91.1570660362
 21
98.8692769885
 31
0.0
  0
LINE
  5
FA
330
1F
100
AcDbEntity
  8
0
  6
HIDDEN
 62
     7
370
     0
100
AcDbLine
 10
91.1570660362
 20
112.3692769885
 30
0.0
 11
90.4267179457
 21
113.6342769885
 31
0.0
  0
LINE
  5
FB
330
1F
100
AcDbEntity
  8
0
  6
HIDDEN
 62
     7
370
     0
100
AcDbLine
 10
91.1570660362
 20
98.8692769885
 30
0.0
 11
128.5312478918
 21
98.8692769885
 31
0.0
  0
LINE
  5
FC
330
1F
100
AcDbEntity
  8
0
  6
HIDDEN
 62
     7
370
     0
100
AcDbLine
 10
128.5312478918
 20
112.3692769885
 30
0.0
 11
91.1570660362
 21
112.3692769885
 31
0.0
  0
LINE
  5
FD
330
1F
100
AcDbEntity
  8
0
  6
HIDDEN
 62
     7
370
     0
100
AcDbLine
 10
128.5312478918
 20
98.8692769885
 30
0.0
 11
131.3252497703
 21
103.5192769885
 31
0.0
  0
LINE
  5
FE
330
1F
100
AcDbEntity
  8
0
  6
HIDDEN
 62
     7
370
     0
100
AcDbLine
 10
131.3252497703
 20
107.7192769885
 30
0.0
 11
128.5312478918
 21
112.3692769885
 31
0.0
  0
ARC
  5
FF
330
1F
100
AcDbEntity
  8
0
  6
HIDDEN
 62
     7
370
     0
100
AcDbCircle
 10
192.6759258937
 20
110.8192769885
 30
0.0
 40
0.7999999999999908
100
AcDbArc
 50
75.0
 51
90.0
  0
ARC
  5
100
330
1F
100
AcDbEntity
  8
0
  6
HIDDEN
 62
     7
370
     0
100
AcDbCircle
 10
192.6759258937
 20
100.4192769885
 30
0.0
 40
0.8000000000000046
100
AcDbArc
 50
270.0
 51
285.0
  0
LINE
  5
101
330
1F
100
AcDbEntity
  8
0
  6
HIDDEN
 62
     7
370
     0
100
AcDbLine
 10
192.6759258937
 20
111.6192769885
 30
0.0
 11
192.0812478918
 21
111.6192769885
 31
0.0
  0
LINE
  5
102
330
1F
100
AcDbEntity
  8
0
  6
HIDDEN
 62
     7
370
     0
100
AcDbLine
 10
192.0812478918
 20
99.6192769885
 30
0.0
 11
192.6759258937
 21
99.6192769885
 31
0.0
  0
ARC
  5
103
330
1F
100
AcDbEntity
  8
0
  6
HIDDEN
 62
     7
370
     0
100
AcDbCircle
 10
192.0812478918
 20
110.8192769885
 30
0.0
 40
0.8000000000000114
100
AcDbArc
 50
90.0
 51
180.0
  0
ARC
  5
104
330
1F
100
AcDbEntity
  8
0
  6
HIDDEN
 62
     7
370
     0
100
AcDbCircle
 10
192.0812478918
 20
100.4192769885
 30
0.0
 40
0.8000000000000114
100
AcDbArc
 50
180.0
 51
270.0
  0
LINE
  5
105
330
1F
100
AcDbEntity
  8
0
  6
HIDDEN
 62
     7
370
     0
100
AcDbLine
 10
192.8829811298
 20
99.6465363275
 30
0.0
 11
194.6472732956
 21
100.1192769885
 31
0.0
  0
LINE
  5
106
330
1F
100
AcDbEntity
  8
0
  6
HIDDEN
 62
     7
370
     0
100
AcDbLine
 10
194.6472732956
 20
111.1192769885
 30
0.0
 11
192.8829811298
 21
111.5920176496
 31
0.0
  0
LINE
  5
107
330
1F
100
AcDbEntity
  8
0
  6
HIDDEN
 62
     7
370
     0
100
AcDbLine
 10
198.8812478918
 20
111.1192769885
 30
0.0
 11
194.6472732956
 21
111.1192769885
 31
0.0
  0
LINE
  5
108
330
1F
100
AcDbEntity
  8
0
  6
HIDDEN
 62
     7
370
     0
100
AcDbLine
 10
194.6472732956
 20
100.1192769885
 30
0.0
 11
198.8812478918
 21
100.1192769885
 31
0.0
  0
LINE
  5
109
330
1F
100
AcDbEntity
  8
0
  6
HIDDEN
 62
     7
370
     0
100
AcDbLine
 10
160.1312478918
 20
130.0192769885
 30
0.0
 11
164.8812478918
 21
127.1651890482
 31
0.0
  0
LINE
  5
10A
330
1F
100
AcDbEntity
  8
0
  6
HIDDEN
 62
     7
370
     0
100
AcDbLine
 10
164.8812478918
 20
127.1651890482
 30
0.0
 11
169.6312478918
 21
130.0192769885
 31
0.0
  0
LINE
  5
10B
330
1F
100
AcDbEntity
  8
0
  6
HIDDEN
 62
     7
370
     0
100
AcDbLine
 10
160.1312478918
 20
130.4192769885
 30
0.0
 11
160.1312478918
 21
130.0192769885
 31
0.0
  0
LINE
  5
10C
330
1F
100
AcDbEntity
  8
0
  6
HIDDEN
 62
     7
370
     0
100
AcDbLine
 10
169.6312478918
 20
130.0192769885
 30
0.0
 11
169.6312478918
 21
130.4192769885
 31
0.0
  0
LINE
  5
10D
330
1F
100
AcDbEntity
  8
0
  6
HIDDEN
 62
     7
370
     0
100
AcDbLine
 10
204.7812478918
 20
114.0915797206
 30
0.0
 11
204.353166971
 21
113.6636068011
 31
0.0
  0
LINE
  5
10E
330
1F
100
AcDbEntity
  8
0
  6
HIDDEN
 62
     7
370
     0
100
AcDbLine
 10
204.3531681712
 20
97.5749368322
 30
0.0
 11
204.7812478918
 21
97.1469688334
 31
0.0
  0
LINE
  5
10F
330
1F
100
AcDbEntity
  8
0
  6
HIDDEN
 62
     7
370
     0
100
AcDbLine
 10
131.3252497703
 20
103.5192769885
 30
0.0
 11
191.2812478918
 21
103.5192769885
 31
0.0
  0
LINE
  5
110
330
1F
100
AcDbEntity
  8
0
  6
HIDDEN
 62
     7
370
     0
100
AcDbLine
 10
191.2812478918
 20
107.7192769885
 30
0.0
 11
131.3252497703
 21
107.7192769885
 31
0.0
  0
LINE
  5
111
330
1F
100
AcDbEntity
  8
0
  6
HIDDEN
 62
     7
370
     0
100
AcDbLine
 10
204.3590666462
 20
113.6692769885
 30
0.0
 11
198.8812478918
 21
113.6692769885
 31
0.0
  0
LINE
  5
112
330
1F
100
AcDbEntity
  8
0
  6
HIDDEN
 62
     7
370
     0
100
AcDbLine
 10
198.8812478918
 20
97.5692769885
 30
0.0
 11
204.3591350274
 21
97.5692769885
 31
0.0
  0
DIMENSION
  5
113
330
1F
100
AcDbEntity
  8
VERMASSUNG
100
AcDbDimension
  2
_D
 10
77.1512929
 20
137.3692769885
 30
0.0
 11
77.1512929
 21
105.6192769885
 31
0.0
 70
   160
  1
CAT 40 %%c<>
 71
     2
 42
-1.0
  3
SLDDIMSTYLE0
100
AcDbAlignedDimension
 13
172.2312478918
 23
73.8692769885
 33
0.0
 14
172.2312478918
 24
137.3692769885
 34
0.0
 50
90.0
100
AcDbRotatedDimension
  0
DIMENSION
  5
120
330
1F
100
AcDbEntity
  8
VERMASSUNG
100
AcDbDimension
  2
_D_1
 10
204.7812478918
 20
146.1271124932
 30
0.0
 11
179.2812478918
 21
146.1271124932
 31
0.0
 70
   160
  1
<>
 71
     2
 42
-1.0
  3
SLDDIMSTYLE1
100
AcDbAlignedDimension
 13
153.7812478918
 23
127.8442769885
 33
0.0
 14
204.7812478918
 24
115.4192769885
 34
0.0
100
AcDbRotatedDimension
  0
DIMENSION
  5
12B
330
1F
100
AcDbEntity
  8
VERMASSUNG
100
AcDbDimension
  2
_D_2
 10
204.7812478918
 20
140.0821552887
 30
0.0
 11
196.7812478918
 21
140.0821552887
 31
0.0
 70
   160
  1
(<>)
 71
     2
 42
-1.0
  3
SLDDIMSTYLE1
100
AcDbAlignedDimension
 13
188.7812478918
 23
126.8442769885
 33
0.0
 14
204.7812478918
 24
115.4192769885
 34
0.0
100
AcDbRotatedDimension
  0
DIMENSION
  5
137
330
1F
100
AcDbEntity
  8
VERMASSUNG
100
AcDbDimension
  2
_D_3
 10
204.7812478918
 20
152.1271124932
 30
0.0
 11
145.1562478918
 21
152.1271124932
 31
0.0
 70
   160
  1
(<>)
 71
     2
 42
-1.0
  3
SLDDIMSTYLE1
100
AcDbAlignedDimension
 13
85.5312478918
 23
117.0264075856
 33
0.0
 14
204.7812478918
 24
115.4192769885
 34
0.0
100
AcDbRotatedDimension
  0
DIMENSION
  5
143
330
1F
100
AcDbEntity
  8
VERMASSUNG
100
AcDbDimension
  2
_D_4
 10
211.6432771367
 20
100.1192769885
 30
0.0
 11
211.6432771367
 21
105.6192769885
 31
0.0
 70
   160
  1
%%c<>
 71
     2
 42
-1.0
  3
SLDDIMSTYLE1
100
AcDbAlignedDimension
 13
198.8812478918
 23
111.1192769885
 33
0.0
 14
198.8812478918
 24
100.1192769885
 34
0.0
 50
90.0
100
AcDbRotatedDimension
  0
DIMENSION
  5
14E
330
1F
100
AcDbEntity
  8
VERMASSUNG
100
AcDbDimension
  2
_D_5
 10
217.6432771367
 20
95.6192769885
 30
0.0
 11
217.6432771367
 21
105.6192769885
 31
0.0
 70
   160
  1
ST1 %%c<>
 71
     2
 42
-1.0
  3
SLDDIMSTYLE1
100
AcDbAlignedDimension
 13
204.5812478918
 23
115.6192769885
 33
0.0
 14
204.5812478918
 24
95.6192769885
 34
0.0
 50
90.0
100
AcDbRotatedDimension
  0
LINE
  5
15A
330
1F
100
AcDbEntity
  8
VERMASSUNG
  6
CENTERX2
 62
     7
370
     0
100
AcDbLine
 10
83.5312478918
 20
105.6192769885
 30
0.0
 11
206.8365580006
 21
105.6192769885
 31
0.0
  0
LINE
  5
15B
330
1F
100
AcDbEntity
  8
0
  6
Continuous
 62
     7
370
    15
100
AcDbLine
 10
267.755812059
 20
40.5661158669
 30
0.0
 11
267.6674093492
 21
40.6171662538
 31
0.0
  0
LINE
  5
15C
330
1F
100
AcDbEntity
  8
0
  6
Continuous
 62
     7
370
    15
100
AcDbLine
 10
266.4297714129
 20
40.6171662538
 30
0.0
 11
266.3413687031
 21
40.5661158669
 31
0.0
  0
LINE
  5
15D
330
1F
100
AcDbEntity
  8
0
  6
Continuous
 62
     7
370
    15
100
AcDbLine
 10
268.0485903811
 20
40.0559105487
 30
0.0
 11
268.0485903811
 21
40.1579781502
 31
0.0
  0
LINE
  5
15E
330
1F
100
AcDbEntity
  8
0
  6
Continuous
 62
     7
370
    15
100
AcDbLine
 10
266.0485903811
 20
40.1579781502
 30
0.0
 11
266.0485903811
 21
40.0559105487
 31
0.0
  0
SPLINE
  5
15F
330
1F
100
AcDbEntity
  8
0
  6
Continuous
 62
     7
370
    15
100
AcDbSpline
210
0.0
220
0.0
230
1.0
 70
     8
 71
     3
 72
    11
 73
     7
 74
     0
 42
0.000000001
 43
0.00000001
 40
0.0
 40
0.0
 40
0.0
 40
0.0
 40
0.0887283683089267
 40
0.47404975658633
 40
0.858800669178516
 40
0.9999999999999999
 40
0.9999999999999999
 40
0.9999999999999999
 40
0.9999999999999999
 10
268.1826237747804
 20
51.54126366339617
 30
0.0
 10
268.1633978847969
 20
51.60844164127631
 30
0.0
 10
268.060679570006
 20
51.96735395611974
 30
0.0
 10
267.8214777451797
 20
52.57070550244953
 30
0.0
 10
267.5337898284483
 20
53.17895992908866
 30
0.0
 10
267.3259750883929
 20
53.48424710701366
 30
0.0
 10
267.2701840651961
 20
53.56620608653919
 30
0.0
  0
LINE
  5
160
330
1F
100
AcDbEntity
  8
0
  6
Continuous
 62
     7
370
    15
100
AcDbLine
 10
265.26272708
 20
55.5386731514
 30
0.0
 11
263.9102875658
 21
56.3194198643
 31
0.0
  0
SPLINE
  5
161
330
1F
100
AcDbEntity
  8
0
  6
Continuous
 62
     7
370
    15
100
AcDbSpline
210
0.0
220
0.0
230
1.0
 70
     8
 71
     3
 72
    20
 73
    16
 74
     0
 42
0.000000001
 43
0.00000001
 40
0.0
 40
0.0
 40
0.0
 40
0.0
 40
0.0182625039865045
 40
0.104163322277496
 40
0.1901141939270506
 40
0.2765824074185803
 40
0.3638774995407997
 40
0.452061823907937
 40
0.5409956963690135
 40
0.6304436184785374
 40
0.720173793918845
 40
0.8100110313485085
 40
0.8998229051104485
 40
0.9895659132043053
 40
0.9999999999999999
 40
0.9999999999999999
 40
0.9999999999999999
 40
0.9999999999999999
 10
257.3475275791472
 20
28.95742814062518
 30
0.0
 10
257.3861912516749
 20
28.93314994871866
 30
0.0
 10
257.6067161361542
 20
28.79467511910366
 30
0.0
 10
258.0586874686773
 20
28.63005138105004
 30
0.0
 10
258.696576928021
 20
28.47119379019047
 30
0.0
 10
259.3749051453695
 20
28.41371229991223
 30
0.0
 10
260.0834300369759
 20
28.44843898599855
 30
0.0
 10
260.8183642289125
 20
28.57838660036872
 30
0.0
 10
261.5727784625341
 20
28.80242867870524
 30
0.0
 10
262.3394454356098
 20
29.11882518214915
 30
0.0
 10
263.1103308113431
 20
29.52497375644441
 30
0.0
 10
263.8786013312808
 20
30.01428236004084
 30
0.0
 10
264.6335773713653
 20
30.58999541363467
 30
0.0
 10
265.1608161294794
 20
31.03090684259299
 30
0.0
 10
265.4263598078434
 20
31.29682537472536
 30
0.0
 10
265.4540178846838
 20
31.32452249498935
 30
0.0
  0
SPLINE
  5
162
330
1F
100
AcDbEntity
  8
0
  6
Continuous
 62
     7
370
    15
100
AcDbSpline
210
0.0
220
0.0
230
1.0
 70
     8
 71
     3
 72
    20
 73
    16
 74
     0
 42
0.000000001
 43
0.00000001
 40
0.0
 40
0.0
 40
0.0
 40
0.0
 40
0.0153172414765453
 40
0.1035444442617761
 40
0.191887309689638
 40
0.2803524437594979
 40
0.3689283817275681
 40
0.4575689740430429
 40
0.5461368103523873
 40
0.6344411295557015
 40
0.7222224801361536
 40
0.8092104652551156
 40
0.8952396950050668
 40
0.9803712734416019
 40
1.0
 40
1.0
 40
1.0
 40
1.0
 10
270.4524060708274
 20
39.98570702587664
 30
0.0
 10
270.4674102887286
 20
40.04213483844444
 30
0.0
 10
270.5688386958302
 20
40.42358645309631
 30
0.0
 10
270.6885878809047
 20
41.11851514854899
 30
0.0
 10
270.8048384840035
 20
42.059251178742
 30
0.0
 10
270.8401216766019
 20
42.96906836272598
 30
0.0
 10
270.801410806738
 20
43.84105136048075
 30
0.0
 10
270.6858981708456
 20
44.66663980466578
 30
0.0
 10
270.4942448840516
 20
45.43758916627321
 30
0.0
 10
270.2275208983341
 20
46.14573745371886
 30
0.0
 10
269.8878258764819
 20
46.78227109314453
 30
0.0
 10
269.4806791026744
 20
47.34238170112459
 30
0.0
 10
269.006309716096
 20
47.81017808374236
 30
0.0
 10
268.6218403280835
 20
48.11385282992833
 30
0.0
 10
268.3826186360702
 20
48.23147214812579
 30
0.0
 10
268.3377961512598
 20
48.25351024199153
 30
0.0
  0
LINE
  5
163
330
1F
100
AcDbEntity
  8
0
  6
Continuous
 62
     7
370
    15
100
AcDbLine
 10
252.1943377502
 20
31.9212570443
 30
0.0
 11
257.2678289053
 21
28.9923929432
 31
0.0
  0
LINE
  5
164
330
1F
100
AcDbEntity
  8
0
  6
Continuous
 62
     7
370
    15
100
AcDbLine
 10
268.3794258217
 20
48.2403289096
 30
0.0
 11
263.3059346667
 21
51.1691930107
 31
0.0
  0
LINE
  5
165
330
1F
100
AcDbEntity
  8
0
  6
Continuous
 62
     7
370
    15
100
AcDbLine
 10
268.7638989491
 20
31.1050745744
 30
0.0
 11
268.8345981348
 21
31.1459016145
 31
0.0
  0
LINE
  5
166
330
1F
100
AcDbEntity
  8
0
  6
Continuous
 62
     7
370
    15
100
AcDbLine
 10
272.2988582314
 20
37.1468263251
 30
0.0
 11
272.2988582314
 21
37.2284671363
 31
0.0
  0
LINE
  5
167
330
1F
100
AcDbEntity
  8
0
  6
Continuous
 62
     7
370
    15
100
AcDbLine
 10
271.263121157
 20
39.5176911686
 30
0.0
 11
267.091191148
 21
41.9260950985
 31
0.0
  0
LINE
  5
168
330
1F
100
AcDbEntity
  8
0
  6
Continuous
 62
     7
370
    15
100
AcDbLine
 10
262.0915974848
 20
33.2656064747
 30
0.0
 11
266.2635274938
 21
30.8572025448
 31
0.0
  0
LINE
  5
169
330
1F
100
AcDbEntity
  8
0
  6
Continuous
 62
     7
370
    15
100
AcDbLine
 10
261.4179317525
 20
57.7582262494
 30
0.0
 11
260.0743310731
 21
58.5338704116
 31
0.0
  0
SPLINE
  5
16A
330
1F
100
AcDbEntity
  8
0
  6
Continuous
 62
     7
370
    15
100
AcDbSpline
210
0.0
220
0.0
230
1.0
 70
     8
 71
     3
 72
    30
 73
    26
 74
     0
 42
0.000000001
 43
0.00000001
 40
0.0
 40
0.0
 40
0.0
 40
0.0
 40
0.0194345768710792
 40
0.0644942334582194
 40
0.1097242974136748
 40
0.1550924792663503
 40
0.2005575107083661
 40
0.2460808589231605
 40
0.2916323464821071
 40
0.3371893348866782
 40
0.3827379819532679
 40
0.4282729537252494
 40
0.4737924143558046
 40
0.5192967279636014
 40
0.5647875785491475
 40
0.6102674075559116
 40
0.6557390723591358
 40
0.7012056499141606
 40
0.7466703313223633
 40
0.7921362940219139
 40
0.837605813648988
 40
0.8830822016165668
 40
0.9285687634705531
 40
0.974068738592948
 40
1.0
 40
1.0
 40
1.0
 40
1.0
 10
257.3986588912591
 20
59.2837987439111
 30
0.0
 10
257.2833707351419
 20
59.29218274079528
 30
0.0
 10
256.9007834884571
 20
59.32000528902712
 30
0.0
 10
256.2178571898594
 20
59.26725883823001
 30
0.0
 10
255.3566519471138
 20
59.12883925850804
 30
0.0
 10
254.472344926412
 20
58.89122724029642
 30
0.0
 10
253.5732843423198
 20
58.56300905600632
 30
0.0
 10
252.6649269179564
 20
58.14449839285457
 30
0.0
 10
251.7535493659669
 20
57.63913033384488
 30
0.0
 10
250.8451333309678
 20
57.05029153178535
 30
0.0
 10
249.9455915776959
 20
56.38206601850773
 30
0.0
 10
249.0606726468253
 20
55.63894751860143
 30
0.0
 10
248.1959814887777
 20
54.82586222631168
 30
0.0
 10
247.3569802319353
 20
53.94814010063114
 30
0.0
 10
246.5489682647772
 20
53.01149229733029
 30
0.0
 10
245.777055541832
 20
52.02198044088831
 30
0.0
 10
245.0461357582908
 20
50.98598420752631
 30
0.0
 10
244.3608513716604
 20
49.91016323528321
 30
0.0
 10
243.7255861748952
 20
48.80142248583414
 30
0.0
 10
243.1443630958422
 20
47.66685951941793
 30
0.0
 10
242.6211061054515
 20
46.513778078161
 30
0.0
 10
242.1585219197929
 20
45.34939233831166
 30
0.0
 10
241.7621671599904
 20
44.18169615855091
 30
0.0
 10
241.4735243962081
 20
43.18322692827478
 30
0.0
 10
241.3370690163659
 20
42.58052034491759
 30
0.0
 10
241.2875324228949
 20
42.36172332103653
 30
0.0
  0
SPLINE
  5
16B
330
1F
100
AcDbEntity
  8
0
  6
Continuous
 62
     7
370
    15
100
AcDbSpline
210
0.0
220
0.0
230
1.0
 70
     8
 71
     3
 72
    18
 73
    14
 74
     0
 42
0.000000001
 43
0.00000001
 40
0.0
 40
0.0
 40
0.0
 40
0.0
 40
0.0134680799458588
 40
0.1176270013228356
 40
0.2220173181784393
 40
0.3263627672393445
 40
0.4303815130416361
 40
0.5338576898504735
 40
0.6366355336163869
 40
0.7387896008838803
 40
0.8408793491019722
 40
0.9444530579448125
 40
1.0
 40
1.0
 40
1.0
 40
1.0
 10
267.0296263038844
 20
35.31257147940195
 30
0.0
 10
267.0371780605693
 20
35.33339398127146
 30
0.0
 10
267.1031333041625
 20
35.51525275140022
 30
0.0
 10
267.268279025159
 20
35.85679439365645
 30
0.0
 10
267.5426148385847
 20
36.31480040396272
 30
0.0
 10
267.8620428986818
 20
36.73259824383663
 30
0.0
 10
268.2096497706409
 20
37.09382897223362
 30
0.0
 10
268.5715238049071
 20
37.38514909452415
 30
0.0
 10
268.9310756518462
 20
37.59649860321348
 30
0.0
 10
269.2725895136301
 20
37.72403369786228
 30
0.0
 10
269.5780888453168
 20
37.7639627221232
 30
0.0
 10
269.802966312646
 20
37.74375749826394
 30
0.0
 10
269.908933704672
 20
37.68572844137336
 30
0.0
 10
269.9459255379218
 20
37.66547125512867
 30
0.0
  0
LINE
  5
16C
330
1F
100
AcDbEntity
  8
0
  6
Continuous
 62
     7
370
    15
100
AcDbLine
 10
266.9724290075
 20
33.1611778552
 30
0.0
 11
266.9394965456
 21
33.2153501064
 31
0.0
  0
SPLINE
  5
16D
330
1F
100
AcDbEntity
  8
0
  6
Continuous
 62
     7
370
    15
100
AcDbSpline
210
0.0
220
0.0
230
1.0
 70
     8
 71
     3
 72
    10
 73
     6
 74
     0
 42
0.000000001
 43
0.00000001
 40
0.0
 40
0.0
 40
0.0
 40
0.0
 40
0.2895298853275102
 40
0.9275056549121415
 40
1.0
 40
1.0
 40
1.0
 40
1.0
 10
267.2978694736561
 20
32.87270998874138
 30
0.0
 10
267.2602256375457
 20
32.88876416159398
 30
0.0
 10
267.1396340418784
 20
32.94019351953009
 30
0.0
 10
267.0392855652908
 20
33.04966959193668
 30
0.0
 10
266.9786192276123
 20
33.15085335274628
 30
0.0
 10
266.9724290074636
 20
33.16117785524391
 30
0.0
  0
LINE
  5
16E
330
1F
100
AcDbEntity
  8
0
  6
Continuous
 62
     7
370
    15
100
AcDbLine
 10
251.036365192
 20
57.1600456087
 30
0.0
 11
229.7380801296
 21
64.8351033104
 31
0.0
  0
LINE
  5
16F
330
1F
100
AcDbEntity
  8
0
  6
Continuous
 62
     7
370
    15
100
AcDbLine
 10
223.5732983805
 20
54.1562310252
 30
0.0
 11
243.9942563596
 21
36.9129429253
 31
0.0
  0
SPLINE
  5
170
330
1F
100
AcDbEntity
  8
0
  6
Continuous
 62
     7
370
    15
100
AcDbSpline
210
0.0
220
0.0
230
1.0
 70
     8
 71
     3
 72
    14
 73
    10
 74
     0
 42
0.000000001
 43
0.00000001
 40
0.0
 40
0.0
 40
0.0
 40
0.0
 40
0.0486187664636541
 40
0.2071512856755526
 40
0.3662940063201381
 40
0.5259421352275553
 40
0.6859518707439839
 40
0.8461845330585598
 40
1.0
 40
1.0
 40
1.0
 40
1.0
 10
252.0511074759916
 20
27.29081728198244
 30
0.0
 10
252.1326499899756
 20
27.28376465216811
 30
0.0
 10
252.4800803720614
 20
27.25371532266641
 30
0.0
 10
253.1258728177539
 20
27.29643605915331
 30
0.0
 10
253.9832332441472
 20
27.42061427199965
 30
0.0
 10
254.8650067535857
 20
27.64497154614821
 30
0.0
 10
255.7622195402217
 20
27.96161678684945
 30
0.0
 10
256.6574501287076
 20
28.35689825420244
 30
0.0
 10
257.2521842775685
 20
28.69033223526946
 30
0.0
 10
257.5434750138954
 20
28.85364256484686
 30
0.0
  0
LINE
  5
171
330
1F
100
AcDbEntity
  8
0
  6
Continuous
 62
     7
370
    15
100
AcDbLine
 10
248.0365776852
 20
28.8223684837
 30
0.0
 11
249.3890171994
 21
28.0416217708
 31
0.0
  0
LINE
  5
172
330
1F
100
AcDbEntity
  8
0
  6
Continuous
 62
     7
370
    15
100
AcDbLine
 10
244.2006211925
 20
31.036819031
 30
0.0
 11
245.5442218719
 21
30.2611748688
 31
0.0
  0
SPLINE
  5
173
330
1F
100
AcDbEntity
  8
0
  6
Continuous
 62
     7
370
    15
100
AcDbSpline
210
0.0
220
0.0
230
1.0
 70
     8
 71
     3
 72
    11
 73
     7
 74
     0
 42
0.000000001
 43
0.00000001
 40
0.0
 40
0.0
 40
0.0
 40
0.0
 40
0.1275625466594383
 40
0.5185197286502442
 40
0.9088486628290423
 40
1.0
 40
1.0
 40
1.0
 40
1.0
 10
241.2943951850336
 20
34.98810297714176
 30
0.0
 10
241.3226421488963
 20
34.89379984005729
 30
0.0
 10
241.437461180194
 20
34.51047386913219
 30
0.0
 10
241.6943162074505
 20
33.88860668207283
 30
0.0
 10
241.9713263282048
 20
33.32017446181247
 30
0.0
 10
242.1618665264815
 20
33.04843944398606
 30
0.0
 10
242.1979386043863
 20
32.9969959857492
 30
0.0
  0
SPLINE
  5
174
330
1F
100
AcDbEntity
  8
0
  6
Continuous
 62
     7
370
    15
100
AcDbSpline
210
0.0
220
0.0
230
1.0
 70
     8
 71
     3
 72
    25
 73
    21
 74
     0
 42
0.000000001
 43
0.00000001
 40
0.0
 40
0.0
 40
0.0
 40
0.0
 40
0.0098827876406336
 40
0.0650482144670075
 40
0.1209165427394074
 40
0.177952299998927
 40
0.2361369163546242
 40
0.2951121033282456
 40
0.3544573626630291
 40
0.4138450581077346
 40
0.4731402182826915
 40
0.5323230490460342
 40
0.5914150216032681
 40
0.6504553161555762
 40
0.7094901998841151
 40
0.7685607353804722
 40
0.8277094908375475
 40
0.8869874145691803
 40
0.9464414659440613
 40
0.9999999999999999
 40
0.9999999999999999
 40
0.9999999999999999
 40
0.9999999999999999
 10
229.6549613773163
 20
64.8555976960984
 30
0.0
 10
229.6274698476956
 20
64.8669175201676
 30
0.0
 10
229.4465214169678
 20
64.94142426568902
 30
0.0
 10
229.0730589210685
 20
64.98876498830647
 30
0.0
 10
228.5442246917368
 20
64.99181837708554
 30
0.0
 10
227.9873562003153
 20
64.89247498068474
 30
0.0
 10
227.4138452801766
 20
64.70164870476309
 30
0.0
 10
226.8316824470327
 20
64.41819731860352
 30
0.0
 10
226.25214254268
 20
64.047876456861
 30
0.0
 10
225.685879547842
 20
63.59782929795191
 30
0.0
 10
225.1426209010485
 20
63.07685183946516
 30
0.0
 10
224.6309260387864
 20
62.49425238873178
 30
0.0
 10
224.1586036433919
 20
61.85985293308072
 30
0.0
 10
223.7328918195159
 20
61.18399648147802
 30
0.0
 10
223.360404696281
 20
60.47748069564512
 30
0.0
 10
223.0472634805783
 20
59.75153064371448
 30
0.0
 10
222.7982440705622
 20
59.01723240187299
 30
0.0
 10
222.6196211543782
 20
58.28668258293412
 30
0.0
 10
222.5122647225854
 20
57.59233478195213
 30
0.0
 10
222.4994092754668
 20
57.15888960817388
 30
0.0
 10
222.4933168663809
 20
56.95347276886623
 30
0.0
  0
SPLINE
  5
175
330
1F
100
AcDbEntity
  8
0
  6
Continuous
 62
     7
370
    15
100
AcDbSpline
210
0.0
220
0.0
230
1.0
 70
     8
 71
     3
 72
    13
 73
     9
 74
     0
 42
0.000000001
 43
0.00000001
 40
0.0
 40
0.0
 40
0.0
 40
0.0
 40
0.106908785706282
 40
0.3090336309798583
 40
0.5111804836696533
 40
0.7116306715139028
 40
0.9085451169982927
 40
1.0
 40
1.0
 40
1.0
 40
1.0
 10
222.4933168663809
 20
56.95347276886623
 30
0.0
 10
222.4955158148306
 20
56.83483152822465
 30
0.0
 10
222.5018721588792
 20
56.49188372335335
 30
0.0
 10
222.5733026105328
 20
55.95590090415282
 30
0.0
 10
222.7332260470316
 20
55.36999076926874
 30
0.0
 10
222.9772655873721
 20
54.85453453205807
 30
0.0
 10
223.2292096929277
 20
54.47695080743379
 30
0.0
 10
223.4231620603768
 20
54.30690091675579
 30
0.0
 10
223.4846730787853
 20
54.25297044870616
 30
0.0
  0
LWPOLYLINE
  5
176
330
1F
100
AcDbEntity
  8
0
  6
Continuous
 62
     7
370
    15
100
AcDbPolyline
 90
       18
 70
   128
 43
0.0
 10
266.4298719475
 20
39.9028672028
 10
266.2481457461
 20
40.0560144481
 10
266.1745240281
 20
40.2367172514
 10
266.2189498144
 20
40.4205706981
 10
266.3754231564
 20
40.5827443612
 10
266.6228114623
 20
40.701335789
 10
266.9277035705
 20
40.7603285519
 10
267.2489221123
 20
40.7517553506
 10
267.5430847437
 20
40.6767740432
 10
267.7704631713
 20
40.545511271
 10
267.9003486786
 20
40.3756947985
 10
267.9151995081
 20
40.1902592814
 10
267.8130099729
 20
40.0142488139
 10
267.607581336
 20
39.8714345848
 10
267.3266578732
 20
39.7811044472
 10
267.0081798547
 20
39.7554579866
 10
266.6951595018
 20
39.7979588998
 10
266.4298719475
 20
39.9028672028
  0
LWPOLYLINE
  5
177
330
1F
100
AcDbEntity
  8
0
  6
Continuous
 62
     7
370
    15
100
AcDbPolyline
 90
        6
 70
   128
 43
0.0
 10
266.3414835999
 20
39.7497740943
 10
266.142282594
 20
39.9140058208
 10
266.052395683
 20
40.1076642109
 10
266.0826645548
 20
40.3073912046
 10
266.2294383368
 20
40.4890967789
 10
266.3413687031
 20
40.5661158669
  0
LWPOLYLINE
  5
178
330
1F
100
AcDbEntity
  8
0
  6
Continuous
 62
     7
370
    15
100
AcDbPolyline
 90
       10
 70
   128
 43
0.0
 10
267.755812059
 20
40.5661158669
 10
267.9548981681
 20
40.4019504796
 10
268.0447850792
 20
40.2082920896
 10
268.0145162073
 20
40.0085650958
 10
267.8677424253
 20
39.8268595216
 10
267.6221668174
 20
39.6850917407
 10
267.3074094262
 20
39.6003610399
 10
266.9614346383
 20
39.5828871922
 10
266.6259721193
 20
39.6347778014
 10
266.3414835999
 20
39.7497740943
  0
LWPOLYLINE
  5
179
330
1F
100
AcDbEntity
  8
0
  6
Continuous
 62
     7
370
    15
100
AcDbPolyline
 90
       17
 70
   128
 43
0.0
 10
266.6066486428
 20
40.0049182168
 10
266.4711656732
 20
40.1219717248
 10
266.4235903811
 20
40.2600457517
 10
266.4711656732
 20
40.3981197787
 10
266.6066486428
 20
40.5151732867
 10
266.8094132358
 20
40.5933859402
 10
267.0485903811
 20
40.6208505718
 10
267.2877675263
 20
40.5933859402
 10
267.4905321193
 20
40.5151732867
 10
267.6260150889
 20
40.3981197787
 10
267.6735903811
 20
40.2600457517
 10
267.6260150889
 20
40.1219717248
 10
267.4905321193
 20
40.0049182168
 10
267.2877675263
 20
39.9267055632
 10
267.0485903811
 20
39.8992409317
 10
266.8094132358
 20
39.9267055632
 10
266.6066486428
 20
40.0049182168
  0
SPLINE
  5
17A
330
1F
100
AcDbEntity
  8
0
  6
Continuous
 62
     7
370
    15
100
AcDbSpline
210
0.0
220
0.0
230
1.0
 70
     8
 71
     3
 72
     9
 73
     5
 74
     0
 42
0.000000001
 43
0.00000001
 40
0.0
 40
0.0
 40
0.0
 40
0.0
 40
0.6286327601797476
 40
1.0
 40
1.0
 40
1.0
 40
1.0
 10
266.6951272307023
 20
39.9558750635066
 30
0.0
 10
266.6502941216676
 20
39.98649937922332
 30
0.0
 10
266.5789756796858
 20
40.03521512815752
 30
0.0
 10
266.5147603244591
 20
40.1078864036662
 30
0.0
 10
266.4909128452346
 20
40.13487413466608
 30
0.0
  0
SPLINE
  5
17B
330
1F
100
AcDbEntity
  8
0
  6
Continuous
 62
     7
370
    15
100
AcDbSpline
210
0.0
220
0.0
230
1.0
 70
     8
 71
     3
 72
    10
 73
     6
 74
     0
 42
0.000000001
 43
0.00000001
 40
0.0
 40
0.0
 40
0.0
 40
0.0
 40
0.4391051671061733
 40
0.7513578980692757
 40
1.0
 40
1.0
 40
1.0
 40
1.0
 10
267.606267916885
 20
40.30740146901271
 30
0.0
 10
267.5848765703568
 20
40.23335278895315
 30
0.0
 10
267.5482735914617
 20
40.10664724146206
 30
0.0
 10
267.4950638209368
 20
40.01327353994628
 30
0.0
 10
267.4685791877222
 20
39.99400343101264
 30
0.0
 10
267.4568386715237
 20
39.98546108027467
 30
0.0
  0
SPLINE
  5
17C
330
1F
100
AcDbEntity
  8
0
  6
Continuous
 62
     7
370
    15
100
AcDbSpline
210
0.0
220
0.0
230
1.0
 70
     8
 71
     3
 72
    11
 73
     7
 74
     0
 42
0.000000001
 43
0.00000001
 40
0.0
 40
0.0
 40
0.0
 40
0.0
 40
0.1856336509827594
 40
0.5233285802669877
 40
0.8791086124659514
 40
1.0
 40
1.0
 40
1.0
 40
1.0
 10
267.1980196264212
 20
40.54307819057743
 30
0.0
 10
267.2218703426245
 20
40.51652504292066
 30
0.0
 10
267.2891090215113
 20
40.4416678120723
 30
0.0
 10
267.4150081367311
 20
40.34262154684732
 30
0.0
 10
267.5298977151431
 20
40.30956909733807
 30
0.0
 10
267.5908176586987
 20
40.30783999629842
 30
0.0
 10
267.606267916885
 20
40.30740146901271
 30
0.0
  0
SPLINE
  5
17D
330
1F
100
AcDbEntity
  8
0
  6
Continuous
 62
     7
370
    15
100
AcDbSpline
210
0.0
220
0.0
230
1.0
 70
     8
 71
     3
 72
    10
 73
     6
 74
     0
 42
0.000000001
 43
0.00000001
 40
0.0
 40
0.0
 40
0.0
 40
0.0
 40
0.4391051671061744
 40
0.7513578980692771
 40
1.0
 40
1.0
 40
1.0
 40
1.0
 10
266.6403420905959
 20
40.45681452340411
 30
0.0
 10
266.7201756826815
 20
40.4412017565629
 30
0.0
 10
266.8567798596263
 20
40.41448657178343
 30
0.0
 10
267.0553614266844
 20
40.46646891546398
 30
0.0
 10
267.1542034234607
 20
40.51954833002113
 30
0.0
 10
267.1980196264212
 20
40.54307819057743
 30
0.0
  0
SPLINE
  5
17E
330
1F
100
AcDbEntity
  8
0
  6
Continuous
 62
     7
370
    15
100
AcDbSpline
210
0.0
220
0.0
230
1.0
 70
     8
 71
     3
 72
    10
 73
     6
 74
     0
 42
0.000000001
 43
0.00000001
 40
0.0
 40
0.0
 40
0.0
 40
0.0
 40
0.4391051671061727
 40
0.7513578980692753
 40
0.9999999999999999
 40
0.9999999999999999
 40
0.9999999999999999
 40
0.9999999999999999
 10
266.4909128452346
 20
40.13487413466608
 30
0.0
 10
266.5123041917627
 20
40.15299935805182
 30
0.0
 10
266.5489071706578
 20
40.18401363610027
 30
0.0
 10
266.6021169411828
 20
40.31991733160328
 30
0.0
 10
266.6286015743973
 20
40.41476776302356
 30
0.0
 10
266.6403420905959
 20
40.45681452340411
 30
0.0
  0
LINE
  5
17F
330
1F
100
AcDbEntity
  8
0
  6
Continuous
 62
     7
370
    15
100
AcDbLine
 10
266.6403420906
 20
39.9868487512
 30
0.0
 11
266.6403420906
 21
40.4568145234
 31
0.0
  0
LINE
  5
180
330
1F
100
AcDbEntity
  8
0
  6
Continuous
 62
     7
370
    15
100
AcDbLine
 10
267.1980196264
 20
39.9097049207
 30
0.0
 11
267.1980196264
 21
40.5430781906
 31
0.0
  0
SPLINE
  5
181
330
1F
100
AcDbEntity
  8
0
  6
Continuous
 62
     7
370
    15
100
AcDbSpline
210
0.0
220
0.0
230
1.0
 70
     8
 71
     3
 72
    10
 73
     6
 74
     0
 42
0.000000001
 43
0.00000001
 40
0.0
 40
0.0
 40
0.0
 40
0.0
 40
0.4033629212369192
 40
0.8078139943193613
 40
1.0
 40
1.0
 40
1.0
 40
1.0
 10
268.1356071782557
 20
51.24620653595051
 30
0.0
 10
268.153852538881
 20
51.28496419184908
 30
0.0
 10
268.1903924806269
 20
51.36258406014504
 30
0.0
 10
268.2043045683686
 20
51.47008160928124
 30
0.0
 10
268.1861905098636
 20
51.52343317423836
 30
0.0
 10
268.1803556922254
 20
51.5406185362128
 30
0.0
  0
SPLINE
  5
182
330
1F
100
AcDbEntity
  8
0
  6
Continuous
 62
     7
370
    15
100
AcDbSpline
210
0.0
220
0.0
230
1.0
 70
     8
 71
     3
 72
    12
 73
     8
 74
     0
 42
0.000000001
 43
0.00000001
 40
0.0
 40
0.0
 40
0.0
 40
0.0
 40
0.2500000000000008
 40
0.2500000000000008
 40
0.5000000000000017
 40
0.5000000000000017
 40
1.0
 40
1.0
 40
1.0
 40
1.0
 10
246.5744165779594
 20
39.30997186972023
 30
0.0
 10
246.6081957442317
 20
39.29047157210672
 30
0.0
 10
246.6464787618133
 20
39.26357976061188
 30
0.0
 10
246.7205644191385
 20
39.20500754155106
 30
0.0
 10
246.7558544154584
 20
39.17390125282534
 30
0.0
 10
246.8513512151246
 20
39.0827707196396
 30
0.0
 10
246.9001109755565
 20
39.02657180276334
 30
0.0
 10
246.9336748205457
 20
38.97900563324963
 30
0.0
  0
ARC
  5
183
330
1F
100
AcDbEntity
  8
0
  6
Continuous
 62
     7
370
    15
100
AcDbCircle
 10
262.4813449218
 20
50.7193442788
 30
0.0
 40
5.558204731023211
100
AcDbArc
 50
31.6844467077
 51
87.8752986671
  0
LINE
  5
184
330
1F
100
AcDbEntity
  8
0
  6
Continuous
 62
     7
370
    15
100
AcDbLine
 10
245.2219770637
 20
40.0907185826
 30
0.0
 11
246.574416578
 21
39.3099718697
 31
0.0
  0
LWPOLYLINE
  5
185
330
1F
100
AcDbEntity
  8
0
  6
Continuous
 62
     7
370
    15
100
AcDbPolyline
 90
       26
 70
   128
 43
0.0
 10
245.2219770637
 20
40.0907185826
 10
245.536674389
 20
41.3185458239
 10
245.927553487
 20
42.5555144208
 10
246.3917611863
 20
43.7925952801
 10
246.9259090624
 20
45.0207584896
 10
247.5260981718
 20
46.2310392299
 10
248.1879475112
 20
47.4146032127
 10
248.9066259967
 20
48.5628111651
 10
249.6768877273
 20
49.667281891
 10
250.4931102765
 20
50.7199534485
 10
251.3493357331
 20
51.7131419972
 10
252.2393141894
 20
52.6395978851
 10
253.1565493625
 20
53.4925585668
 10
254.0943460122
 20
54.2657979656
 10
255.0458588127
 20
54.9536719201
 10
256.0041423188
 20
55.551159383
 10
256.9622016635
 20
56.0538990713
 10
257.9130436159
 20
56.4582213016
 10
258.8497276276
 20
56.7611747758
 10
259.7654164943
 20
56.9605481239
 10
260.653426263
 20
57.054886046
 10
261.5072750209
 20
57.0434999344
 10
262.3207302087
 20
56.9264729007
 10
263.0878541151
 20
56.7046591686
 10
263.803047218
 20
56.3796778389
 10
263.9102875658
 20
56.3194198643
  0
ARC
  5
186
330
1F
100
AcDbEntity
  8
0
  6
Continuous
 62
     7
370
    15
100
AcDbCircle
 10
249.0043217843
 20
34.1107095631
 30
0.0
 40
0.6147219230287636
100
AcDbArc
 50
302.60547834
 51
357.3945215144
  0
LINE
  5
187
330
1F
100
AcDbEntity
  8
0
  6
Continuous
 62
     7
370
    15
100
AcDbLine
 10
249.6184082248
 20
35.3058889263
 30
0.0
 11
249.6184082248
 21
34.0827652222
 31
0.0
  0
LINE
  5
188
330
1F
100
AcDbEntity
  8
0
  6
Continuous
 62
     7
370
    15
100
AcDbLine
 10
249.6184082248
 20
40.108836414
 30
0.0
 11
249.6184082248
 21
38.8857127099
 31
0.0
  0
ARC
  5
189
330
1F
100
AcDbEntity
  8
0
  6
Continuous
 62
     7
370
    15
100
AcDbCircle
 10
249.4459784778
 20
40.1368072927
 30
0.0
 40
0.174683678971417
100
AcDbArc
 50
350.7859630095
 51
129.2032852357
  0
LINE
  5
18A
330
1F
100
AcDbEntity
  8
0
  6
Continuous
 62
     7
370
    15
100
AcDbLine
 10
249.3355655123
 20
40.2721711163
 30
0.0
 11
246.9805125185
 21
38.9126279617
 31
0.0
  0
LINE
  5
18B
330
1F
100
AcDbEntity
  8
0
  6
Continuous
 62
     7
370
    15
100
AcDbLine
 10
246.9336748205
 20
38.9790056332
 30
0.0
 11
246.9805125185
 21
38.9126279617
 31
0.0
  0
LINE
  5
18C
330
1F
100
AcDbEntity
  8
0
  6
Continuous
 62
     7
370
    15
100
AcDbLine
 10
268.0308217204
 20
51.0647127995
 30
0.0
 11
268.1356071783
 21
51.246206536
 31
0.0
  0
LINE
  5
18D
330
1F
100
AcDbEntity
  8
0
  6
Continuous
 62
     7
370
    15
100
AcDbLine
 10
266.5889709733
 20
50.2323500806
 30
0.0
 11
268.0308217204
 21
51.0647127995
 31
0.0
  0
ARC
  5
18E
330
1F
100
AcDbEntity
  8
0
  6
Continuous
 62
     7
370
    15
100
AcDbCircle
 10
266.9202147014
 20
49.7145077926
 30
0.0
 40
0.6147219230287684
100
AcDbArc
 50
122.60547834
 51
177.3945215144
  0
LINE
  5
18F
330
1F
100
AcDbEntity
  8
0
  6
Continuous
 62
     7
370
    15
100
AcDbLine
 10
266.3061282608
 20
49.437218115
 30
0.0
 11
266.3061282608
 21
49.7424521335
 31
0.0
  0
LINE
  5
190
330
1F
100
AcDbEntity
  8
0
  6
Continuous
 62
     7
370
    15
100
AcDbLine
 10
246.9805125185
 20
32.2333241205
 30
0.0
 11
246.9336748205
 21
32.1128687939
 31
0.0
  0
LINE
  5
191
330
1F
100
AcDbEntity
  8
0
  6
Continuous
 62
     7
370
    15
100
AcDbLine
 10
246.9805125185
 20
32.2333241205
 30
0.0
 11
249.3355655123
 21
33.5928672751
 31
0.0
  0
LINE
  5
192
330
1F
100
AcDbEntity
  8
0
  6
Continuous
 62
     7
370
    15
100
AcDbLine
 10
268.3454634327
 20
48.2596967673
 30
0.0
 11
268.3794258217
 21
48.2403289096
 31
0.0
  0
LINE
  5
193
330
1F
100
AcDbEntity
  8
0
  6
Continuous
 62
     7
370
    15
100
AcDbLine
 10
257.3369297792
 20
28.9534818859
 30
0.0
 11
257.2678289053
 21
28.9923929432
 31
0.0
  0
ARC
  5
194
330
1F
100
AcDbEntity
  8
0
  6
Continuous
 62
     7
370
    15
100
AcDbCircle
 10
261.3683659017
 20
47.7714996783
 30
0.0
 40
3.91132876399893
100
AcDbArc
 50
60.3056151813
 51
83.6006942567
  0
ARC
  5
195
330
1F
100
AcDbEntity
  8
0
  6
Continuous
 62
     7
370
    15
100
AcDbCircle
 10
254.1667111896
 20
35.2981274332
 30
0.0
 40
3.910691832290642
100
AcDbArc
 50
215.8077777241
 51
239.7115148772
  0
SPLINE
  5
196
330
1F
100
AcDbEntity
  8
0
  6
Continuous
 62
     7
370
    15
100
AcDbSpline
210
0.0
220
0.0
230
1.0
 70
     8
 71
     3
 72
     8
 73
     4
 74
     0
 42
0.000000001
 43
0.00000001
 40
0.0
 40
0.0
 40
0.0
 40
0.0
 40
1.0
 40
1.0
 40
1.0
 40
1.0
 10
244.2324948884433
 20
41.35112314254901
 30
0.0
 10
243.8499946159254
 20
41.28771834144382
 30
0.0
 10
243.4673474122936
 20
41.22459194572181
 30
0.0
 10
243.0845932222349
 20
41.16169429867372
 30
0.0
  0
SPLINE
  5
197
330
1F
100
AcDbEntity
  8
0
  6
Continuous
 62
     7
370
    15
100
AcDbSpline
210
0.0
220
0.0
230
1.0
 70
     8
 71
     3
 72
     8
 73
     4
 74
     0
 42
0.000000001
 43
0.00000001
 40
0.0
 40
0.0
 40
0.0
 40
0.0
 40
0.0011858378198547
 40
0.0011858378198547
 40
0.0011858378198547
 40
0.0011858378198547
 10
242.7296212504579
 20
41.52952496777076
 30
0.0
 10
242.848360537464
 20
41.40676749725451
 30
0.0
 10
242.9666986268114
 20
41.28415087688717
 30
0.0
 10
243.0845932222349
 20
41.16169429867372
 30
0.0
  0
LWPOLYLINE
  5
198
330
1F
100
AcDbEntity
  8
0
  6
Continuous
 62
     7
370
    15
100
AcDbPolyline
 90
       28
 70
   128
 43
0.0
 10
242.7296212505
 20
41.5295249678
 10
243.0443185757
 20
42.7573522091
 10
243.4351976737
 20
43.9943208059
 10
243.899405373
 20
45.2314016653
 10
244.4335532491
 20
46.4595648747
 10
245.0337423585
 20
47.6698456151
 10
245.6955916979
 20
48.8534095979
 10
246.4142701835
 20
50.0016175503
 10
247.184531914
 20
51.1060882762
 10
248.0007544632
 20
52.1587598337
 10
248.8569799198
 20
53.1519483824
 10
249.7469583762
 20
54.0784042703
 10
250.6641935492
 20
54.931364952
 10
251.601990199
 20
55.7046043508
 10
252.5535029995
 20
56.3924783053
 10
253.5117865056
 20
56.9899657681
 10
254.4698458502
 20
57.4927054565
 10
255.4206878026
 20
57.8970276868
 10
256.3573718143
 20
58.1999811609
 10
257.273060681
 20
58.3993545091
 10
258.1610704498
 20
58.4936924311
 10
259.0149192076
 20
58.4823063196
 10
259.8283743954
 20
58.3652792859
 10
260.5954983019
 20
58.1434655538
 10
261.3106914048
 20
57.8184842241
 10
261.9687332441
 20
57.3927074561
 10
262.5648205283
 20
56.8692431526
 10
262.5656991874
 20
56.8683526488
  0
LWPOLYLINE
  5
199
330
1F
100
AcDbEntity
  8
0
  6
Continuous
 62
     7
370
    15
100
AcDbPolyline
 90
       42
 70
   128
 43
0.0
 10
268.8340350036
 20
39.1476764294
 10
268.3051322179
 20
38.7954567401
 10
267.7886264652
 20
38.3577115615
 10
267.2966242027
 20
37.8447012695
 10
266.8406575462
 20
37.2684503906
 10
266.4314139679
 20
36.6424657568
 10
266.0784857903
 20
35.9814199176
 10
265.7901453507
 20
35.300807227
 10
265.5731511047
 20
34.6165806698
 10
265.4325892135
 20
33.9447779364
 10
265.3717543287
 20
33.3011455135
 10
265.3920723684
 20
32.7007695997
 10
265.493067095
 20
32.1577224974
 10
265.6723712777
 20
31.6847327706
 10
265.9257821785
 20
31.2928868975
 10
266.2473600605
 20
30.9913694132
 10
266.6295674109
 20
30.787247632
 10
267.0634456132
 20
30.6853059956
 10
267.5388249301
 20
30.6879339293
 10
268.0445628734
 20
30.7950698368
 10
268.5688053743
 20
31.0042025431
 10
269.0992646329
 20
31.3104301549
 10
269.6235071337
 20
31.7065749564
 10
270.129245077
 20
32.1833516493
 10
270.604624394
 20
32.729584992
 10
271.0385025963
 20
33.3324717379
 10
271.4207099466
 20
33.9778807327
 10
271.7422878286
 20
34.6506841366
 10
271.9956987294
 20
35.3351120079
 10
272.1750029121
 20
36.0151219376
 10
272.2759976387
 20
36.6747750692
 10
272.2963156784
 20
37.2986096923
 10
272.2354807936
 20
37.8720036522
 10
272.0949189024
 20
38.3815170805
 10
271.8779246564
 20
38.8152074141
 10
271.5895842169
 20
39.1629093194
 10
271.2366560392
 20
39.4164729582
 10
270.8274124609
 20
39.5699550139
 10
270.3714458044
 20
39.6197579971
 10
269.8794435419
 20
39.5647145681
 10
269.3629377892
 20
39.4061148982
 10
268.8340350036
 20
39.1476764294
  0
LWPOLYLINE
  5
19A
330
1F
100
AcDbEntity
  8
0
  6
Continuous
 62
     7
370
    15
100
AcDbPolyline
 90
       22
 70
   128
 43
0.0
 10
268.7633243254
 20
39.2701509161
 10
268.2236276054
 20
38.91074307
 10
267.696580919
 20
38.4640643163
 10
267.1945377939
 20
37.9405844265
 10
266.7292656955
 20
37.3525733255
 10
266.3116702074
 20
36.7138134952
 10
265.9515394139
 20
36.0392769245
 10
265.6573144756
 20
35.3447741791
 10
265.4358917756
 20
34.6465838145
 10
265.2924612744
 20
33.9610708213
 10
265.2303848613
 20
33.3043030428
 10
265.2511175549
 20
32.6916745593
 10
265.3541733983
 20
32.1375448632
 10
265.5371368501
 20
31.6549022847
 10
265.7957194019
 20
31.255059557
 10
266.1238600978
 20
30.9473886547
 10
266.5138675982
 20
30.7391011229
 10
266.9566004577
 20
30.6350790449
 10
267.4416813933
 20
30.63776061
 10
267.9577405191
 20
30.7470829646
 10
268.4926818466
 20
30.9604836853
 10
268.7638989491
 20
31.1050745744
  0
LWPOLYLINE
  5
19B
330
1F
100
AcDbEntity
  8
0
  6
Continuous
 62
     7
370
    15
100
AcDbPolyline
 90
       12
 70
   128
 43
0.0
 10
272.2988582314
 20
37.2284671363
 10
272.2962637896
 20
37.3833481232
 10
272.2341873765
 20
37.9684440007
 10
272.0907568753
 20
38.4883556622
 10
271.8693341753
 20
38.930896819
 10
271.575109237
 20
39.2856946814
 10
271.2149784435
 20
39.5444330884
 10
270.7973829554
 20
39.7010474309
 10
270.332110857
 20
39.7518668016
 10
269.8300677319
 20
39.6957000373
 10
269.3030210455
 20
39.5338636395
 10
268.7633243254
 20
39.2701509161
  0
SPLINE
  5
19C
330
1F
100
AcDbEntity
  8
0
  6
Continuous
 62
     7
370
    15
100
AcDbSpline
210
0.0
220
0.0
230
1.0
 70
    11
 71
     3
 72
    60
 73
    56
 74
     0
 42
0.000000001
 43
0.00000001
 40
0.0
 40
0.0
 40
0.0
 40
0.0
 40
0.0625000000000018
 40
0.0625000000000018
 40
0.0937500000000021
 40
0.0937500000000021
 40
0.1250000000000024
 40
0.1250000000000024
 40
0.1562500000000026
 40
0.1562500000000026
 40
0.1875000000000029
 40
0.1875000000000029
 40
0.2187500000000031
 40
0.2187500000000031
 40
0.2500000000000033
 40
0.2500000000000033
 40
0.2812500000000036
 40
0.2812500000000036
 40
0.3125000000000039
 40
0.3125000000000039
 40
0.3437500000000041
 40
0.3437500000000041
 40
0.3750000000000044
 40
0.3750000000000044
 40
0.4062500000000046
 40
0.4062500000000046
 40
0.4375000000000049
 40
0.4375000000000049
 40
0.4687500000000051
 40
0.4687500000000051
 40
0.5000000000000053
 40
0.5000000000000053
 40
0.5312500000000056
 40
0.5312500000000056
 40
0.5625000000000058
 40
0.5625000000000058
 40
0.625000000000005
 40
0.625000000000005
 40
0.6875000000000041
 40
0.6875000000000041
 40
0.7500000000000033
 40
0.7500000000000033
 40
0.7812500000000029
 40
0.7812500000000029
 40
0.8125000000000024
 40
0.8125000000000024
 40
0.8437500000000021
 40
0.8437500000000021
 40
0.8750000000000017
 40
0.8750000000000017
 40
0.9062500000000012
 40
0.9062500000000012
 40
0.9375000000000008
 40
0.9375000000000008
 40
1.0
 40
1.0
 40
1.0
 40
1.0
 10
267.0452707935292
 20
40.88444051189349
 30
0.0
 10
267.2006244820285
 20
40.86153834330209
 30
0.0
 10
267.3493158390439
 20
40.82319872123981
 30
0.0
 10
267.5584435660607
 20
40.74965667992139
 30
0.0
 10
267.624369658103
 20
40.72291190567193
 30
0.0
 10
267.748987472222
 20
40.66549589160159
 30
0.0
 10
267.8081773185713
 20
40.63450590219989
 30
0.0
 10
267.9160564689097
 20
40.57021532340427
 30
0.0
 10
267.9647298970838
 20
40.53702431154176
 30
0.0
 10
268.0516361459132
 20
40.46839938367348
 30
0.0
 10
268.0901576481059
 20
40.43259158268874
 30
0.0
 10
268.1538377941843
 20
40.36042689403348
 30
0.0
 10
268.1792138321875
 20
40.32403478985163
 30
0.0
 10
268.2167234523848
 20
40.24996231437971
 30
0.0
 10
268.2288410400106
 20
40.21186390729773
 30
0.0
 10
268.2378047484984
 20
40.13639989477235
 30
0.0
 10
268.2349136503242
 20
40.09885931916057
 30
0.0
 10
268.2134184718453
 20
40.02335758328363
 30
0.0
 10
268.1943957367846
 20
39.98504704474276
 30
0.0
 10
268.1410152626173
 20
39.91119805166619
 30
0.0
 10
268.1066831603675
 20
39.8752220909375
 30
0.0
 10
268.0214692794369
 20
39.80483406199631
 30
0.0
 10
267.9710974727668
 20
39.77104434290106
 30
0.0
 10
267.8588206787253
 20
39.70870601089452
 30
0.0
 10
267.7954663613413
 20
39.67940429570665
 30
0.0
 10
267.6609065474007
 20
39.6277258024054
 30
0.0
 10
267.5899301032079
 20
39.60526957996235
 30
0.0
 10
267.4408402887434
 20
39.56735025091644
 30
0.0
 10
267.3643317326734
 20
39.55234948365098
 30
0.0
 10
267.2102626790469
 20
39.5307248585565
 30
0.0
 10
267.1315557507256
 20
39.52401852455397
 30
0.0
 10
266.9774203317122
 20
39.51962934398907
 30
0.0
 10
266.9016025851429
 20
39.52181398749248
 30
0.0
 10
266.7522829343134
 20
39.53531209613578
 30
0.0
 10
266.6793817346448
 20
39.54666561740122
 30
0.0
 10
266.4716627064495
 20
39.59371360130266
 30
0.0
 10
266.3436460225834
 20
39.6437217037518
 30
0.0
 10
266.1287954278456
 20
39.77377739278183
 30
0.0
 10
266.0392353481821
 20
39.85551843735541
 30
0.0
 10
265.9121810270944
 20
40.03689238127848
 30
0.0
 10
265.8729617676552
 20
40.13898098319606
 30
0.0
 10
265.8593872139925
 20
40.29218670579923
 30
0.0
 10
265.8622464914293
 20
40.34423476118502
 30
0.0
 10
265.884031819162
 20
40.44595800490676
 30
0.0
 10
265.902637135872
 20
40.49496551542838
 30
0.0
 10
265.9559329447335
 20
40.58848074616946
 30
0.0
 10
265.9913385507187
 20
40.63353686004546
 30
0.0
 10
266.0763121295734
 20
40.71382945571654
 30
0.0
 10
266.1258030268833
 20
40.74945202403654
 30
0.0
 10
266.2393345237544
 20
40.81116259596057
 30
0.0
 10
266.3024352603443
 20
40.83654771610147
 30
0.0
 10
266.4366371146469
 20
40.87543881577528
 30
0.0
 10
266.5092168372716
 20
40.889293452533
 30
0.0
 10
266.7316873319267
 20
40.91352867716477
 30
0.0
 10
266.8899171050298
 20
40.90734268048489
 30
0.0
 10
267.0452707935292
 20
40.88444051189349
 30
0.0
  0
LINE
  5
19D
330
1F
100
AcDbEntity
  8
0
  6
Continuous
 62
     7
370
    15
100
AcDbLine
 10
270.7674429413
 20
35.1592600031
 30
0.0
 11
271.5210407721
 21
36.0967285402
 31
0.0
  0
SPLINE
  5
19E
330
1F
100
AcDbEntity
  8
0
  6
Continuous
 62
     7
370
    15
100
AcDbSpline
210
0.0
220
0.0
230
1.0
 70
     8
 71
     3
 72
    21
 73
    17
 74
     0
 42
0.000000001
 43
0.00000001
 40
0.0
 40
0.0
 40
0.0
 40
0.0
 40
0.0416666666666671
 40
0.0833333333333332
 40
0.1250000000000024
 40
0.1666666666666666
 40
0.2083333333333333
 40
0.2499999999976954
 40
0.3339999999999608
 40
0.4179999999999999
 40
0.4330099753158393
 40
0.4330099753158393
 40
0.5019999999997413
 40
0.5859999999988206
 40
0.6699999999999805
 40
0.8156536847925747
 40
0.8156536847925747
 40
0.8156536847925747
 40
0.8156536847925747
 10
271.5210407720642
 20
36.09672854020853
 30
0.0
 10
271.5510172391592
 20
36.1340189802938
 30
0.0
 10
271.6091641875198
 20
36.21433198735325
 30
0.0
 10
271.6892303899393
 20
36.35228143679704
 30
0.0
 10
271.7570638577224
 20
36.50488838467268
 30
0.0
 10
271.8065978439965
 20
36.66578936025708
 30
0.0
 10
271.8320188139521
 20
36.82573547864011
 30
0.0
 10
271.8278945866613
 20
37.02531647920365
 30
0.0
 10
271.7520310975889
 20
37.21553799528461
 30
0.0
 10
271.6094736286698
 20
37.2864131572845
 30
0.0
 10
271.5356055203452
 20
37.29782201711502
 30
0.0
 10
271.4764780884653
 20
37.30408207003855
 30
0.0
 10
271.3882450180182
 20
37.3100547053352
 30
0.0
 10
271.2550185424625
 20
37.32285539172861
 30
0.0
 10
271.1227747258525
 20
37.33440819368258
 30
0.0
 10
270.915139694876
 20
37.35295843278271
 30
0.0
 10
270.7674898320673
 20
37.36617569867589
 30
0.0
  0
SPLINE
  5
19F
330
1F
100
AcDbEntity
  8
0
  6
Continuous
 62
     7
370
    15
100
AcDbSpline
210
0.0
220
0.0
230
1.0
 70
     8
 71
     3
 72
    21
 73
    17
 74
     0
 42
0.000000001
 43
0.00000001
 40
0.0
 40
0.0
 40
0.0
 40
0.0
 40
0.0416666666666671
 40
0.0833333333333332
 40
0.1250000000000024
 40
0.1666666666666666
 40
0.2083333333333333
 40
0.2499999999976954
 40
0.3339999999999608
 40
0.4179999999999999
 40
0.4330099753158393
 40
0.4330099753158393
 40
0.5019999999997413
 40
0.5859999999988206
 40
0.6699999999999805
 40
0.8133971939531374
 40
0.8133971939531374
 40
0.8133971939531374
 40
0.8133971939531374
 10
266.1470292350475
 20
32.99437771528283
 30
0.0
 10
266.1179559885172
 20
32.9969773016276
 30
0.0
 10
266.0584866331301
 20
33.01027351339818
 30
0.0
 10
265.9789519389412
 20
33.05573297214188
 30
0.0
 10
265.9109760487755
 20
33.13003378607978
 30
0.0
 10
265.861480243801
 20
33.23374067592683
 30
0.0
 10
265.8360489710297
 20
33.36433709633585
 30
0.0
 10
265.8401772544315
 20
33.56868042507428
 30
0.0
 10
265.9160335656665
 20
33.84648532709623
 30
0.0
 10
266.0586080545413
 20
34.08197449855234
 30
0.0
 10
266.132460235149
 20
34.17864977673224
 30
0.0
 10
266.1915736388717
 20
34.2531594195718
 30
0.0
 10
266.2797768477332
 20
34.36096674399528
 30
0.0
 10
266.413301471959
 20
34.5279582917956
 30
0.0
 10
266.543132047372
 20
34.68919647494742
 30
0.0
 10
266.7534188323078
 20
34.95077414189181
 30
0.0
 10
266.9005797669693
 20
35.13385508083198
 30
0.0
  0
LINE
  5
1A0
330
1F
100
AcDbEntity
  8
0
  6
Continuous
 62
     7
370
    15
100
AcDbLine
 10
266.9006270658
 20
32.9269947132
 30
0.0
 11
266.147029235
 21
32.9943777153
 31
0.0
  0
LINE
  5
1A1
330
1F
100
AcDbEntity
  8
0
  6
Continuous
 62
     7
370
    15
100
AcDbLine
 10
241.386020571
 20
42.30516913
 30
0.0
 11
242.7296212505
 21
41.5295249678
 31
0.0
  0
ARC
  5
1A2
330
1F
100
AcDbEntity
  8
0
  6
Continuous
 62
     7
370
    15
100
AcDbCircle
 10
257.2723294823
 20
53.5966087282
 30
0.0
 40
5.676950400068796
100
AcDbArc
 50
60.4241627019
 51
87.8122806925
  0
LINE
  5
1A3
330
1F
100
AcDbEntity
  8
0
  6
Continuous
 62
     7
370
    15
100
AcDbLine
 10
245.4430071799
 20
40.9817370093
 30
0.0
 11
244.8006613061
 21
41.3525553891
 31
0.0
  0
SPLINE
  5
1A4
330
1F
100
AcDbEntity
  8
0
  6
Continuous
 62
     7
370
    15
100
AcDbSpline
210
0.0
220
0.0
230
1.0
 70
     8
 71
     3
 72
    12
 73
     8
 74
     0
 42
0.000000001
 43
0.00000001
 40
0.0
 40
0.0
 40
0.0
 40
0.0
 40
0.2500000000000015
 40
0.2500000000000015
 40
0.500000000000003
 40
0.500000000000003
 40
1.0
 40
1.0
 40
1.0
 40
1.0
 10
244.8006613060832
 20
41.3525553891431
 30
0.0
 10
244.7630220279646
 20
41.37428408189278
 30
0.0
 10
244.7166018100039
 20
41.39168235289559
 30
0.0
 10
244.6165338811252
 20
41.41393883537124
 30
0.0
 10
244.5627482422479
 20
41.41899935743536
 30
0.0
 10
244.4028293144987
 20
41.41594749545659
 30
0.0
 10
244.2979188115722
 20
41.38889156944771
 30
0.0
 10
244.2226239193804
 20
41.34542475340261
 30
0.0
  0
LWPOLYLINE
  5
1A5
330
1F
100
AcDbEntity
  8
0
  6
Continuous
 62
     7
370
    15
100
AcDbPolyline
 90
       21
 70
   128
 43
0.0
 10
244.2226239194
 20
41.3454247534
 10
244.5289806535
 20
42.5483002696
 10
244.9154641497
 20
43.7606990614
 10
245.3788225215
 20
44.972419961
 10
245.9151570547
 20
46.1732675045
 10
246.519955011
 20
47.3531377165
 10
247.1881275981
 20
48.5021031261
 10
247.9140527874
 20
49.610496296
 10
248.6916226179
 20
50.6689911657
 10
249.5142945885
 20
51.6686815205
 10
250.3751467071
 20
52.6011559293
 10
251.2669357326
 20
53.4585685181
 10
252.1821581193
 20
54.2337049862
 10
253.1131131526
 20
54.9200433068
 10
254.0519677429
 20
55.5118086042
 10
254.9908223331
 20
56.0040217435
 10
255.9217773664
 20
56.3925412254
 10
256.8369997531
 20
56.6740980327
 10
257.7287887786
 20
56.8463231362
 10
258.5896408972
 20
56.9077674275
 10
259.299864288
 20
56.8715694705
  0
SPLINE
  5
1A6
330
1F
100
AcDbEntity
  8
0
  6
Continuous
 62
     7
370
    15
100
AcDbSpline
210
0.0
220
0.0
230
1.0
 70
     8
 71
     3
 72
    10
 73
     6
 74
     0
 42
0.000000001
 43
0.00000001
 40
0.0
 40
0.0
 40
0.0
 40
0.0
 40
0.5
 40
0.5
 40
1.0
 40
1.0
 40
1.0
 40
1.0
 10
241.2842456058268
 20
42.33564676063678
 30
0.0
 10
241.2916092400945
 20
42.3396830082925
 30
0.0
 10
241.3034731759024
 20
42.33990442604318
 30
0.0
 10
241.3375861907775
 20
42.33026376621022
 30
0.0
 10
241.3597345897073
 20
42.32034370397196
 30
0.0
 10
241.3860205710031
 20
42.30516912996981
 30
0.0
  0
SPLINE
  5
1A7
330
1F
100
AcDbEntity
  8
0
  6
Continuous
 62
     7
370
    15
100
AcDbSpline
210
0.0
220
0.0
230
1.0
 70
     8
 71
     3
 72
    14
 73
    10
 74
     0
 42
0.000000001
 43
0.00000001
 40
0.0
 40
0.0
 40
0.0
 40
0.0
 40
0.25
 40
0.25
 40
0.5
 40
0.5
 40
0.75
 40
0.75
 40
1.0
 40
1.0
 40
1.0
 40
1.0
 10
249.6184082248114
 20
38.88571270986902
 30
0.0
 10
249.6184082248114
 20
38.58729558302797
 30
0.0
 10
249.6349006868727
 20
38.28003314468021
 30
0.0
 10
249.66629597556
 20
37.66636082841828
 30
0.0
 10
249.6807450021911
 20
37.3601943345606
 30
0.0
 10
249.6808564355062
 20
36.76330031646128
 30
0.0
 10
249.6664365494597
 20
36.47257217924982
 30
0.0
 10
249.6349598105511
 20
35.89357838309181
 30
0.0
 10
249.6184082248114
 20
35.60455527933473
 30
0.0
 10
249.6184082248114
 20
35.30588892631748
 30
0.0
  0
SPLINE
  5
1A8
330
1F
100
AcDbEntity
  8
0
  6
Continuous
 62
     7
370
    15
100
AcDbSpline
210
0.0
220
0.0
230
1.0
 70
     8
 71
     3
 72
    14
 73
    10
 74
     0
 42
0.000000001
 43
0.00000001
 40
0.0
 40
0.0
 40
0.0
 40
0.0
 40
0.1565661336278853
 40
0.3176712552773647
 40
0.4742387954740347
 40
0.6353472579220718
 40
0.7919406654288014
 40
0.9530649038097531
 40
1.0
 40
1.0
 40
1.0
 40
1.0
 10
266.0763185569282
 20
33.25826794931889
 30
0.0
 10
266.0549079059424
 20
33.26180801120279
 30
0.0
 10
266.0114658906267
 20
33.26899076443531
 30
0.0
 10
265.9558617777259
 20
33.30096886034389
 30
0.0
 10
265.9087790190963
 20
33.34802364331394
 30
0.0
 10
265.872435520031
 20
33.40944600643266
 30
0.0
 10
265.8487853645385
 20
33.48453520974049
 30
0.0
 10
265.8378517620404
 20
33.54830418525874
 30
0.0
 10
265.8395885805285
 20
33.58876319741526
 30
0.0
 10
265.8399803809876
 20
33.5978901497399
 30
0.0
  0
ARC
  5
1A9
330
1F
100
AcDbEntity
  8
0
  6
Continuous
 62
     7
370
    15
100
AcDbCircle
 10
265.5049891974
 20
36.2623141768
 30
0.0
 40
1.794740362583027
100
AcDbArc
 50
321.0413794125
 51
328.069198652
  0
SPLINE
  5
1AA
330
1F
100
AcDbEntity
  8
0
  6
Continuous
 62
     7
370
    15
100
AcDbSpline
210
0.0
220
0.0
230
1.0
 70
     8
 71
     3
 72
    16
 73
    12
 74
     0
 42
0.000000001
 43
0.00000001
 40
0.0
 40
0.0
 40
0.0
 40
0.0
 40
0.2499999999999972
 40
0.2499999999999972
 40
0.4999999999999944
 40
0.4999999999999944
 40
0.6249999999999994
 40
0.6249999999999994
 40
0.7500000000000046
 40
0.7500000000000046
 40
1.0
 40
1.0
 40
1.0
 40
1.0
 10
270.7674898320674
 20
37.3661756986759
 30
0.0
 10
270.743047306844
 20
37.36836373562244
 30
0.0
 10
270.7164760170988
 20
37.36938857646227
 30
0.0
 10
270.6557753782755
 20
37.36730741619615
 30
0.0
 10
270.6212229527127
 20
37.36434216395762
 30
0.0
 10
270.5631490361931
 20
37.35203212739439
 30
0.0
 10
270.5431348819796
 20
37.34649549030458
 30
0.0
 10
270.5072592434277
 20
37.3334674974367
 30
0.0
 10
270.4914719626332
 20
37.32603455213883
 30
0.0
 10
270.4533041089811
 20
37.30435946657771
 30
0.0
 10
270.4378198974188
 20
37.29039169672998
 30
0.0
 10
270.4259459888085
 20
37.27721675038291
 30
0.0
  0
SPLINE
  5
1AB
330
1F
100
AcDbEntity
  8
0
  6
Continuous
 62
     7
370
    15
100
AcDbSpline
210
0.0
220
0.0
230
1.0
 70
     8
 71
     3
 72
     8
 73
     4
 74
     0
 42
0.000000001
 43
0.00000001
 40
0.0
 40
0.0
 40
0.0
 40
0.0
 40
1.0
 40
1.0
 40
1.0
 40
1.0
 10
270.4259459888085
 20
37.27721675038288
 30
0.0
 10
270.3930600081492
 20
37.29036279167307
 30
0.0
 10
270.3609225841689
 20
37.30510067191271
 30
0.0
 10
270.3354488128754
 20
37.31980636706094
 30
0.0
  0
LINE
  5
1AC
330
1F
100
AcDbEntity
  8
0
  6
Continuous
 62
     7
370
    15
100
AcDbLine
 10
269.9967912266
 20
37.6507220394
 30
0.0
 11
269.9390055706
 21
37.6813881911
 31
0.0
  0
LINE
  5
1AD
330
1F
100
AcDbEntity
  8
0
  6
Continuous
 62
     7
370
    15
100
AcDbLine
 10
269.5886095977
 20
37.7509474689
 30
0.0
 11
270.3354488129
 21
37.3198063671
 31
0.0
  0
ARC
  5
1AE
330
1F
100
AcDbEntity
  8
0
  6
Continuous
 62
     7
370
    15
100
AcDbCircle
 10
265.1465429509
 20
37.5408784679
 30
0.0
 40
3.547285990839746
100
AcDbArc
 50
339.1536032755
 51
358.376547468
  0
LINE
  5
1AF
330
1F
100
AcDbEntity
  8
0
  6
Continuous
 62
     7
370
    15
100
AcDbLine
 10
268.4616158427
 20
36.2785276362
 30
0.0
 11
270.3354488129
 21
35.196786888
 31
0.0
  0
LINE
  5
1B0
330
1F
100
AcDbEntity
  8
0
  6
Continuous
 62
     7
370
    15
100
AcDbLine
 10
267.2470147118
 20
32.8874532963
 30
0.0
 11
267.3047865197
 21
32.8567938736
 31
0.0
  0
LINE
  5
1B1
330
1F
100
AcDbEntity
  8
0
  6
Continuous
 62
     7
370
    15
100
AcDbLine
 10
265.9277580304
 20
33.7844567768
 30
0.0
 11
266.9083571255
 21
33.2183689687
 31
0.0
  0
LINE
  5
1B2
330
1F
100
AcDbEntity
  8
0
  6
Continuous
 62
     7
370
    15
100
AcDbLine
 10
246.9805125185
 20
38.9126279617
 30
0.0
 11
245.2549329043
 21
39.9087838692
 31
0.0
  0
SPLINE
  5
1B3
330
1F
100
AcDbEntity
  8
0
  6
Continuous
 62
     7
370
    15
100
AcDbSpline
210
0.0
220
0.0
230
1.0
 70
     8
 71
     3
 72
     8
 73
     4
 74
     0
 42
0.000000001
 43
0.00000001
 40
0.0
 40
0.0
 40
0.0
 40
0.0
 40
0.0011858378198547
 40
0.0011858378198547
 40
0.0011858378198547
 40
0.0011858378198547
 10
245.2549329042865
 20
39.90878386917366
 30
0.0
 10
245.2432938211078
 20
39.96990044582685
 30
0.0
 10
245.232326787101
 20
40.03053307531241
 30
0.0
 10
245.2219770637398
 20
40.09071858261816
 30
0.0
  0
LINE
  5
1B4
330
1F
100
AcDbEntity
  8
0
  6
Continuous
 62
     7
370
    15
100
AcDbLine
 10
266.9592813059
 20
33.1793177742
 30
0.0
 11
266.0763185569
 21
33.2582679493
 31
0.0
  0
SPLINE
  5
1B5
330
1F
100
AcDbEntity
  8
0
  6
Continuous
 62
     7
370
    15
100
AcDbSpline
210
0.0
220
0.0
230
1.0
 70
     8
 71
     3
 72
    16
 73
    12
 74
     0
 42
0.000000001
 43
0.00000001
 40
0.0
 40
0.0
 40
0.0
 40
0.0
 40
0.2499999999999897
 40
0.2499999999999897
 40
0.4999999999999793
 40
0.4999999999999793
 40
0.6249999999999806
 40
0.6249999999999806
 40
0.7499999999999819
 40
0.7499999999999819
 40
1.0
 40
1.0
 40
1.0
 40
1.0
 10
266.900627065763
 20
32.92699471324576
 30
0.0
 10
266.9249530775437
 20
32.92481960122372
 30
0.0
 10
266.9487646667515
 20
32.92566653676594
 30
0.0
 10
266.9917026768667
 20
32.93818205421188
 30
0.0
 10
267.0121668034186
 20
32.95002252898927
 30
0.0
 10
267.0282730642759
 20
32.98609505386585
 30
0.0
 10
267.0308794148233
 20
33.00168213244451
 30
0.0
 10
267.0280826848203
 20
33.03725738656073
 30
0.0
 10
267.022865427555
 20
33.05660629707116
 30
0.0
 10
267.0016267188117
 20
33.11225604910959
 30
0.0
 10
266.9808214477551
 20
33.14709317451161
 30
0.0
 10
266.9592813058912
 20
33.17931777418953
 30
0.0
  0
SPLINE
  5
1B6
330
1F
100
AcDbEntity
  8
0
  6
Continuous
 62
     7
370
    15
100
AcDbSpline
210
0.0
220
0.0
230
1.0
 70
     8
 71
     3
 72
     8
 73
     4
 74
     0
 42
0.000000001
 43
0.00000001
 40
0.0
 40
0.0
 40
0.0
 40
0.0
 40
1.0
 40
1.0
 40
1.0
 40
1.0
 10
266.9083571255243
 20
33.21836896871891
 30
0.0
 10
266.9337831839092
 20
33.20369081764652
 30
0.0
 10
266.9503312803408
 20
33.19032256333564
 30
0.0
 10
266.9592813058915
 20
33.17931777418938
 30
0.0
  0
SPLINE
  5
1B7
330
1F
100
AcDbEntity
  8
0
  6
Continuous
 62
     7
370
    15
100
AcDbSpline
210
0.0
220
0.0
230
1.0
 70
     8
 71
     3
 72
     8
 73
     4
 74
     0
 42
0.000000001
 43
0.00000001
 40
0.0
 40
0.0
 40
0.0
 40
0.0
 40
1.0
 40
1.0
 40
1.0
 40
1.0
 10
270.3354488128754
 20
35.19678688801719
 30
0.0
 10
270.3608748712602
 20
35.18210873694488
 30
0.0
 10
270.3930632854533
 20
35.17776944589087
 30
0.0
 10
270.425945988746
 20
35.18058069752242
 30
0.0
  0
SPLINE
  5
1B8
330
1F
100
AcDbEntity
  8
0
  6
Continuous
 62
     7
370
    15
100
AcDbSpline
210
0.0
220
0.0
230
1.0
 70
     8
 71
     3
 72
    16
 73
    12
 74
     0
 42
0.000000001
 43
0.00000001
 40
0.0
 40
0.0
 40
0.0
 40
0.0
 40
0.2499999999999881
 40
0.2499999999999881
 40
0.3749999999999901
 40
0.3749999999999901
 40
0.499999999999992
 40
0.499999999999992
 40
0.749999999999996
 40
0.749999999999996
 40
1.0
 40
1.0
 40
1.0
 40
1.0
 10
270.4259459887458
 20
35.18058069752279
 30
0.0
 10
270.4376581453268
 20
35.14275669472855
 30
0.0
 10
270.4531164105053
 20
35.1048228837738
 30
0.0
 10
270.4905312872118
 20
35.05899962331968
 30
0.0
 10
270.5059440961642
 20
35.04554187208122
 30
0.0
 10
270.5419816184919
 20
35.02891970109046
 30
0.0
 10
270.561999229073
 20
35.02627599020146
 30
0.0
 10
270.6197333781557
 20
35.03252642827707
 30
0.0
 10
270.6549432158415
 20
35.05288872711196
 30
0.0
 10
270.7162045533587
 20
35.1005945226125
 30
0.0
 10
270.7429092439421
 20
35.12874031678237
 30
0.0
 10
270.7674429413486
 20
35.15926000311863
 30
0.0
  0
SPLINE
  5
1B9
330
1F
100
AcDbEntity
  8
0
  6
Continuous
 62
     7
370
    15
100
AcDbSpline
210
0.0
220
0.0
230
1.0
 70
     8
 71
     3
 72
    20
 73
    16
 74
     0
 42
0.000000001
 43
0.00000001
 40
0.0
 40
0.0
 40
0.0
 40
0.0
 40
0.1249999999999999
 40
0.1249999999999999
 40
0.2499999999999999
 40
0.2499999999999999
 40
0.4999999999999999
 40
0.4999999999999999
 40
0.6249999999999999
 40
0.6249999999999999
 40
0.75
 40
0.75
 40
0.875
 40
0.875
 40
1.0
 40
1.0
 40
1.0
 40
1.0
 10
271.3089087377087
 20
36.27897796306291
 30
0.0
 10
271.3439722825471
 20
36.32259667949891
 30
0.0
 10
271.3756906392094
 20
36.36895854536261
 30
0.0
 10
271.4317063434744
 20
36.4675357059619
 30
0.0
 10
271.4557980020832
 20
36.51959115747851
 30
0.0
 10
271.5132103437753
 20
36.67532522424093
 30
0.0
 10
271.5321666742577
 20
36.78203512004184
 30
0.0
 10
271.5301666552907
 20
36.9226857688013
 30
0.0
 10
271.5246173410659
 20
36.96558203240834
 30
0.0
 10
271.504393968327
 20
37.04305380302006
 30
0.0
 10
271.4897264535527
 20
37.07678813885697
 30
0.0
 10
271.4521722683916
 20
37.13233677722885
 30
0.0
 10
271.4289249318751
 20
37.15450279940043
 30
0.0
 10
271.375090311053
 20
37.18565656924193
 30
0.0
 10
271.3439782413428
 20
37.19513083850025
 30
0.0
 10
271.3089086935329
 20
37.19826660078239
 30
0.0
  0
LWPOLYLINE
  5
1BA
330
1F
100
AcDbEntity
  8
0
  6
Continuous
 62
     7
370
    15
100
AcDbPolyline
 90
        4
 70
   128
 43
0.0
 10
271.3089086935
 20
37.1982666008
 10
271.0465329829
 20
37.2217269217
 10
270.7841572348
 20
37.2451872642
 10
270.4259459888
 20
37.2772167504
  0
SPLINE
  5
1BB
330
1F
100
AcDbEntity
  8
0
  6
Continuous
 62
     7
370
    15
100
AcDbSpline
210
0.0
220
0.0
230
1.0
 70
     8
 71
     3
 72
    11
 73
     7
 74
     0
 42
0.000000001
 43
0.00000001
 40
0.0
 40
0.0
 40
0.0
 40
0.0
 40
0.3263245032545917
 40
0.652613551547449
 40
0.8311541116541911
 40
1.0
 40
1.0
 40
1.0
 40
1.0
 10
244.0057481491432
 20
38.54600862011385
 30
0.0
 10
243.9962065496729
 20
38.84984422204208
 30
0.0
 10
243.9771243874215
 20
39.45748241434245
 30
0.0
 10
243.9343862148725
 20
40.24186650147745
 30
0.0
 10
243.9526658979036
 20
40.84772751772893
 30
0.0
 10
243.9659419427567
 20
41.15750807831578
 30
0.0
 10
243.9723947148695
 20
41.30807576504491
 30
0.0
  0
LINE
  5
1BC
330
1F
100
AcDbEntity
  8
0
  6
Continuous
 62
     7
370
    15
100
AcDbLine
 10
244.0057481491
 20
37.0499034215
 30
0.0
 11
244.0057481491
 21
38.5460086201
 31
0.0
  0
LINE
  5
1BD
330
1F
100
AcDbEntity
  8
0
  6
Continuous
 62
     7
370
    15
100
AcDbLine
 10
241.7214058334
 20
41.9486456275
 30
0.0
 11
241.2842456058
 21
42.3356467606
 31
0.0
  0
LINE
  5
1BE
330
1F
100
AcDbEntity
  8
0
  6
Continuous
 62
     7
370
    15
100
AcDbLine
 10
243.0845932222
 20
41.1616942987
 30
0.0
 11
241.7214058334
 21
41.9486456275
 31
0.0
  0
LINE
  5
1BF
330
1F
100
AcDbEntity
  8
0
  6
Continuous
 62
     7
370
    15
100
AcDbLine
 10
242.9450879774
 20
41.0196623055
 30
0.0
 11
242.9466335828
 21
41.2005179845
 31
0.0
  0
ARC
  5
1C0
330
1F
100
AcDbEntity
  8
0
  6
Continuous
 62
     7
370
    15
100
AcDbCircle
 10
249.6133705151
 20
40.7016389453
 30
0.0
 40
6.67586180663844
100
AcDbArc
 50
177.2695217907
 51
212.8614866677
  0
LINE
  5
1C1
330
1F
100
AcDbEntity
  8
0
  6
Continuous
 62
     7
370
    15
100
AcDbLine
 10
270.4259459887
 20
35.1805806975
 30
0.0
 11
271.3089087377
 21
36.2789779631
 31
0.0
  0
LINE
  5
1C2
330
1F
100
AcDbEntity
  8
0
  6
Continuous
 62
     7
370
    15
100
AcDbLine
 10
268.4616158427
 20
36.2785276362
 30
0.0
 11
269.3643650894
 21
37.4015391168
 31
0.0
  0
ARC
  5
1C3
330
1F
100
AcDbEntity
  8
0
  6
Continuous
 62
     7
370
    15
100
AcDbCircle
 10
268.5085938258
 20
38.0895982094
 30
0.0
 40
1.098075484908352
100
AcDbArc
 50
321.1999458669
 51
341.9787861193
  0
LINE
  5
1C4
330
1F
100
AcDbEntity
  8
0
  6
Continuous
 62
     7
370
    15
100
AcDbLine
 10
229.668356952
 20
64.8588821207
 30
0.0
 11
229.7380801296
 21
64.8351033104
 31
0.0
  0
LINE
  5
1C5
330
1F
100
AcDbEntity
  8
0
  6
Continuous
 62
     7
370
    15
100
AcDbLine
 10
223.5732983805
 20
54.1562310252
 30
0.0
 11
223.4893228479
 21
54.2309925784
 31
0.0
  0
LINE
  5
1C6
330
1F
100
AcDbEntity
  8
0
  6
Continuous
 62
     7
370
    15
100
AcDbLine
 10
245.2549329043
 20
33.2294800279
 30
0.0
 11
246.9805125185
 21
32.2333241205
 31
0.0
  0
SPLINE
  5
1C7
330
1F
100
AcDbEntity
  8
0
  6
Continuous
 62
     7
370
    15
100
AcDbSpline
210
0.0
220
0.0
230
1.0
 70
     8
 71
     3
 72
    14
 73
    10
 74
     0
 42
0.000000001
 43
0.00000001
 40
0.0
 40
0.0
 40
0.0
 40
0.0
 40
0.25
 40
0.25
 40
0.5
 40
0.5
 40
0.75
 40
0.75
 40
1.0
 40
1.0
 40
1.0
 40
1.0
 10
246.9336748205457
 20
32.11286879392058
 30
0.0
 10
246.9168892559292
 20
32.06970034721712
 30
0.0
 10
246.8964862554363
 20
32.02967300855939
 30
0.0
 10
246.8479379729746
 20
31.95634114360803
 30
0.0
 10
246.8195962054519
 20
31.92304308973806
 30
0.0
 10
246.7564409955471
 20
31.87010062880557
 30
0.0
 10
246.7212156814426
 20
31.85002809694521
 30
0.0
 10
246.6465365353084
 20
31.83325596803947
 30
0.0
 10
246.6082086667464
 20
31.83744892910007
 30
0.0
 10
246.5744165779594
 20
31.8569566867225
 30
0.0
  0
LINE
  5
1C8
330
1F
100
AcDbEntity
  8
0
  6
Continuous
 62
     7
370
    15
100
AcDbLine
 10
246.574416578
 20
31.8569566867
 30
0.0
 11
245.2219770637
 21
32.6377033996
 31
0.0
  0
SPLINE
  5
1C9
330
1F
100
AcDbEntity
  8
0
  6
Continuous
 62
     7
370
    15
100
AcDbSpline
210
0.0
220
0.0
230
1.0
 70
     8
 71
     3
 72
     8
 73
     4
 74
     0
 42
0.000000001
 43
0.00000001
 40
0.0
 40
0.0
 40
0.0
 40
0.0
 40
0.0011858378198546
 40
0.0011858378198546
 40
0.0011858378198546
 40
0.0011858378198546
 10
245.2219770637398
 20
32.63770339962043
 30
0.0
 10
245.232326787101
 20
32.83498236958702
 30
0.0
 10
245.2432938211078
 20
33.03224524877645
 30
0.0
 10
245.2549329042865
 20
33.22948002794822
 30
0.0
  0
ARC
  5
1CA
330
1F
100
AcDbEntity
  8
0
  6
Continuous
 62
     7
370
    15
100
AcDbCircle
 10
252.1699857684
 20
32.8597082166
 30
0.0
 40
5.556911585473835
100
AcDbArc
 50
211.8836981162
 51
267.8511918606
  0
SPLINE
  5
1CB
330
1F
100
AcDbEntity
  8
0
  6
Continuous
 62
     7
370
    15
100
AcDbSpline
210
0.0
220
0.0
230
1.0
 70
     8
 71
     3
 72
     8
 73
     4
 74
     0
 42
0.000000001
 43
0.00000001
 40
0.0
 40
0.0
 40
0.0
 40
0.0
 40
1.0
 40
1.0
 40
1.0
 40
1.0
 10
245.5830688405096
 20
33.89214955453289
 30
0.0
 10
245.473236603
 20
33.67133684733891
 30
0.0
 10
245.3638866300135
 20
33.45043931861836
 30
0.0
 10
245.2549329042865
 20
33.22948002794822
 30
0.0
  0
LINE
  5
1CC
330
1F
100
AcDbEntity
  8
0
  6
Continuous
 62
     7
370
    15
100
AcDbLine
 10
245.5731978714
 20
33.8864511654
 30
0.0
 11
245.5830688405
 21
33.8921495545
 31
0.0
  0
SPLINE
  5
1CD
330
1F
100
AcDbEntity
  8
0
  6
Continuous
 62
     7
370
    15
100
AcDbSpline
210
0.0
220
0.0
230
1.0
 70
     8
 71
     3
 72
    12
 73
     8
 74
     0
 42
0.000000001
 43
0.00000001
 40
0.0
 40
0.0
 40
0.0
 40
0.0
 40
0.2500000000000022
 40
0.2500000000000022
 40
0.5000000000000043
 40
0.5000000000000043
 40
1.0
 40
1.0
 40
1.0
 40
1.0
 10
245.5855498332003
 20
34.22014504585606
 30
0.0
 10
245.623189111319
 20
34.19841635310638
 30
0.0
 10
245.6533270661699
 20
34.17161853168533
 30
0.0
 10
245.6918806019714
 20
34.1138505459698
 30
0.0
 10
245.700646633117
 20
34.08280075755928
 30
0.0
 10
245.695360080303
 20
33.99048152563982
 30
0.0
 10
245.6484927636385
 20
33.92991798143158
 30
0.0
 10
245.5731978714468
 20
33.88645116538648
 30
0.0
  0
LINE
  5
1CE
330
1F
100
AcDbEntity
  8
0
  6
Continuous
 62
     7
370
    15
100
AcDbLine
 10
244.8006613061
 20
34.6732515479
 30
0.0
 11
245.5855498332
 21
34.2201450459
 31
0.0
  0
SPLINE
  5
1CF
330
1F
100
AcDbEntity
  8
0
  6
Continuous
 62
     7
370
    15
100
AcDbSpline
210
0.0
220
0.0
230
1.0
 70
     8
 71
     3
 72
    14
 73
    10
 74
     0
 42
0.000000001
 43
0.00000001
 40
0.0
 40
0.0
 40
0.0
 40
0.0
 40
0.25
 40
0.25
 40
0.5
 40
0.5
 40
0.75
 40
0.75
 40
1.0
 40
1.0
 40
1.0
 40
1.0
 10
244.2226239193804
 20
34.66612091217718
 30
0.0
 10
244.2604645116415
 20
34.68796582110753
 30
0.0
 10
244.3053735770143
 20
34.70573221706735
 30
0.0
 10
244.4029859448827
 20
34.73054279673078
 30
0.0
 10
244.4562841245878
 20
34.73766556710058
 30
0.0
 10
244.5626475597056
 20
34.73969180241628
 30
0.0
 10
244.6166769031946
 20
34.73462932427899
 30
0.0
 10
244.717033629622
 20
34.71225617871046
 30
0.0
 10
244.762662937701
 20
34.69518753906399
 30
0.0
 10
244.8006613060832
 20
34.67325154791766
 30
0.0
  0
LINE
  5
1D0
330
1F
100
AcDbEntity
  8
0
  6
Continuous
 62
     7
370
    15
100
AcDbLine
 10
244.2324948884
 20
34.6718193013
 30
0.0
 11
244.2226239194
 21
34.6661209122
 31
0.0
  0
SPLINE
  5
1D1
330
1F
100
AcDbEntity
  8
0
  6
Continuous
 62
     7
370
    15
100
AcDbSpline
210
0.0
220
0.0
230
1.0
 70
     8
 71
     3
 72
     8
 73
     4
 74
     0
 42
0.000000001
 43
0.00000001
 40
0.0
 40
0.0
 40
0.0
 40
0.0
 40
1.0
 40
1.0
 40
1.0
 40
1.0
 10
243.0845932222349
 20
34.48239045744828
 30
0.0
 10
243.4673474122936
 20
34.54528810449637
 30
0.0
 10
243.8499946159254
 20
34.60841450021839
 30
0.0
 10
244.2324948884433
 20
34.67181930132357
 30
0.0
  0
LINE
  5
1D2
330
1F
100
AcDbEntity
  8
0
  6
Continuous
 62
     7
370
    15
100
AcDbLine
 10
241.7214058334
 20
35.2693417863
 30
0.0
 11
243.0845932222
 21
34.4823904574
 31
0.0
  0
LINE
  5
1D3
330
1F
100
AcDbEntity
  8
0
  6
Continuous
 62
     7
370
    15
100
AcDbLine
 10
241.7214058334
 20
35.2693417863
 30
0.0
 11
244.0764588273
 21
36.628884941
 31
0.0
  0
ARC
  5
1D4
330
1F
100
AcDbEntity
  8
0
  6
Continuous
 62
     7
370
    15
100
AcDbCircle
 10
251.4190741076
 20
34.2635042108
 30
0.0
 40
6.4068120034923
100
AcDbArc
 50
194.7001975396
 51
238.1327401892
  0
ELLIPSE
  5
1D5
330
1F
100
AcDbEntity
  8
0
  6
Continuous
 62
     7
370
    15
100
AcDbEllipse
 10
243.9593015397
 20
37.0231347282
 30
0.0
 11
-3.002985189937135E-5
 21
0.4267244807413703
 31
0.0
210
0.0
220
0.0
230
1.0
 40
0.7174342186
 41
3.534193645557644
 42
5.104989972352373
  0
ARC
  5
1D6
330
1F
100
AcDbEntity
  8
0
  6
Continuous
 62
     7
370
    15
100
AcDbCircle
 10
248.568360636
 20
35.4768770848
 30
0.0
 40
6.004323957582998
100
AcDbArc
 50
193.4871024631
 51
253.7562982386
  0
SPLINE
  5
1D7
330
1F
100
AcDbEntity
  8
0
  6
Continuous
 62
     7
370
    15
100
AcDbSpline
210
0.0
220
0.0
230
1.0
 70
     8
 71
     3
 72
     8
 73
     4
 74
     0
 42
0.000000001
 43
0.00000001
 40
0.0
 40
0.0
 40
0.0
 40
0.0
 40
0.0011858378198546
 40
0.0011858378198546
 40
0.0011858378198546
 40
0.0011858378198546
 10
243.0845932222349
 20
34.48239045744828
 30
0.0
 10
242.9666986268114
 20
34.34649567983677
 30
0.0
 10
242.8483605374639
 20
34.21121679152913
 30
0.0
 10
242.7296212504579
 20
34.07650978477304
 30
0.0
  0
LINE
  5
1D8
330
1F
100
AcDbEntity
  8
0
  6
Continuous
 62
     7
370
    15
100
AcDbLine
 10
241.2842456058
 20
35.016922601
 30
0.0
 11
241.7214058334
 21
35.2693417863
 31
0.0
  0
LINE
  5
1D9
330
1F
100
AcDbEntity
  8
0
  6
Continuous
 62
     7
370
    15
100
AcDbLine
 10
242.7296212505
 20
34.0765097848
 30
0.0
 11
241.386020571
 21
34.852153947
 31
0.0
  0
SPLINE
  5
1DA
330
1F
100
AcDbEntity
  8
0
  6
Continuous
 62
     7
370
    15
100
AcDbSpline
210
0.0
220
0.0
230
1.0
 70
     8
 71
     3
 72
    10
 73
     6
 74
     0
 42
0.000000001
 43
0.00000001
 40
0.0
 40
0.0
 40
0.0
 40
0.0
 40
0.5
 40
0.5
 40
1.0
 40
1.0
 40
1.0
 40
1.0
 10
241.3860205710031
 20
34.85215394697207
 30
0.0
 10
241.3597861805292
 20
34.86729873822671
 30
0.0
 10
241.3376115597749
 20
34.89084326105818
 30
0.0
 10
241.3035471383989
 20
34.94809204123746
 30
0.0
 10
241.2916055053486
 20
34.98161822827809
 30
0.0
 10
241.2842456058268
 20
35.01692260102912
 30
0.0
  0
ARC
  5
1DB
330
1F
100
AcDbEntity
  8
0
  6
Continuous
 62
     7
370
    15
100
AcDbCircle
 10
250.8194230699
 20
36.5476530992
 30
0.0
 40
6.859877725094207
100
AcDbArc
 50
195.9191542404
 51
215.7602476364
  0
ARC
  5
1DC
330
1F
100
AcDbEntity
  8
0
  6
Continuous
 62
     7
370
    15
100
AcDbCircle
 10
247.0918567783
 20
35.9504386095
 30
0.0
 40
5.701131517017938
100
AcDbArc
 50
212.0305022637
 51
239.5269090667
  0
ELLIPSE
  5
1DD
330
1F
100
AcDbEntity
  8
0
  6
Continuous
 62
     7
370
    15
100
AcDbEllipse
 10
243.7229054367
 20
36.8866217991
 30
0.0
 11
0.13000378946046
 21
0.4852718104954619
 31
0.0
210
0.0
220
0.0
230
1.0
 40
0.5176380889
 41
3.619174351347737
 42
5.18997067814261
  0
LWPOLYLINE
  5
1DE
330
1F
100
AcDbEntity
  8
0
  6
Continuous
 62
     7
370
     0
100
AcDbPolyline
 90
       31
 70
   128
 43
0.0
 10
246.9336748205
 20
38.9790056332
 10
247.2298612757
 20
40.1941430577
 10
247.6029892363
 20
41.4202792267
 10
248.0502736199
 20
42.6482620784
 10
248.5683758297
 20
43.8689257668
 10
249.1534286741
 20
45.0731590774
 10
249.8010652318
 20
46.2519734343
 10
250.5064514478
 20
47.3965699926
 10
251.2643222149
 20
48.4984053141
 10
252.0690206734
 20
49.5492551367
 10
252.9145404347
 20
50.5412757616
 10
253.7945704142
 20
51.4670626001
 10
254.7025419378
 20
52.319705442
 10
255.6316777715
 20
53.0928400348
 10
256.5750427078
 20
53.7806955875
 10
257.5255953312
 20
54.3781378443
 10
258.4762405759
 20
54.8807074077
 10
259.4198826852
 20
55.284653024
 10
260.3494781746
 20
55.5869595834
 10
261.2580884056
 20
55.7853706249
 10
262.1389313769
 20
55.8784051791
 10
262.985432346
 20
55.8653688222
 10
263.7912729044
 20
55.7463588597
 10
264.5504381388
 20
55.5222635995
 10
265.2572615274
 20
55.1947557218
 10
265.9064672358
 20
54.7662797939
 10
266.4932094963
 20
54.2400340236
 10
267.0131087779
 20
53.6199463873
 10
267.4622844753
 20
52.910645311
 10
267.8373838746
 20
52.1174251229
 10
268.1356071783
 20
51.246206536
  0
LWPOLYLINE
  5
1DF
330
1F
100
AcDbEntity
  8
0
  6
Continuous
 62
     7
370
     0
100
AcDbPolyline
 90
       22
 70
   128
 43
0.0
 10
246.574416578
 20
39.3099718697
 10
246.8891139032
 20
40.537799111
 10
247.2799930012
 20
41.7747677079
 10
247.7442007005
 20
43.0118485672
 10
248.2783485766
 20
44.2400117767
 10
248.878537686
 20
45.450292517
 10
249.5403870254
 20
46.6338564998
 10
250.259065511
 20
47.7820644522
 10
251.0293272415
 20
48.8865351781
 10
251.8455497907
 20
49.9392067356
 10
252.7017752473
 20
50.9323952843
 10
253.5917537037
 20
51.8588511722
 10
254.5089888767
 20
52.7118118539
 10
255.4467855265
 20
53.4850512527
 10
256.398298327
 20
54.1729252072
 10
257.3565818331
 20
54.7704126701
 10
258.3146411777
 20
55.2731523584
 10
259.2654831301
 20
55.6774745887
 10
260.2021671418
 20
55.9804280629
 10
261.1178560085
 20
56.179801411
 10
262.0058657773
 20
56.2741393331
 10
262.6874127795
 20
56.2737277613
  0
LWPOLYLINE
  5
1E0
330
1F
100
AcDbEntity
  8
0
  6
Continuous
 62
     7
370
     0
100
AcDbPolyline
 90
       25
 70
   128
 43
0.0
 10
249.6184082248
 20
38.8857127099
 10
249.812584337
 20
39.9013589848
 10
250.0838622417
 20
40.9346336864
 10
250.4295345116
 20
41.9752244522
 10
250.8461512433
 20
43.0127459029
 10
251.3295544886
 20
44.0368432921
 10
251.8749197514
 20
45.0372958492
 10
252.4768041381
 20
46.0041187854
 10
253.1292006785
 20
46.9276629446
 10
253.8255982777
 20
47.7987111048
 10
254.5590466982
 20
48.6085699682
 10
255.322225925
 20
49.3491569231
 10
256.1075192217
 20
50.01308071
 10
256.9070891477
 20
50.5937151889
 10
257.7129557773
 20
51.0852654695
 10
258.5170763422
 20
51.4828257465
 10
259.3114255005
 20
51.7824282599
 10
260.0880754313
 20
51.9810828951
 10
260.8392749569
 20
52.0768070249
 10
261.5575269017
 20
52.0686452964
 10
262.2356629156
 20
51.9566791658
 10
262.8669150168
 20
51.7420260856
 10
263.4449831375
 20
51.4268283519
 10
263.9640980005
 20
51.0142317239
 10
264.3936678449
 20
50.5412580129
  0
ARC
  5
1E1
330
1F
100
AcDbEntity
  8
0
  6
Continuous
 62
     7
370
     0
100
AcDbCircle
 10
254.0906975232
 20
35.7104680562
 30
0.0
 40
4.490551841417143
100
AcDbArc
 50
185.1691090549
 51
259.6259952197
  0
LWPOLYLINE
  5
1E2
330
1F
100
AcDbEntity
  8
0
  6
Continuous
 62
     7
370
     0
100
AcDbPolyline
 90
       16
 70
   128
 43
0.0
 10
257.4097756024
 20
28.8769003738
 10
256.5750427078
 20
28.4428652577
 10
255.6316777715
 20
28.0415348389
 10
254.7025419378
 20
27.7419120324
 10
253.7945704142
 20
27.5462332673
 10
252.9145404347
 20
27.4559591189
 10
252.0690206734
 20
27.4717634068
 10
251.2643222149
 20
27.5935281654
 10
250.5064514478
 20
27.8203445245
 10
249.8010652318
 20
28.1505194933
 10
249.1534286741
 20
28.5815885968
 10
248.5683758297
 20
29.1103342715
 10
248.0502736199
 20
29.7328098812
 10
247.6029892363
 20
30.4443691759
 10
247.2298612757
 20
31.2397009716
 10
246.9336748205
 20
32.1128687939
  0
LWPOLYLINE
  5
1E3
330
1F
100
AcDbEntity
  8
0
  6
Continuous
 62
     7
370
     0
100
AcDbPolyline
 90
       25
 70
   128
 43
0.0
 10
254.9659032575
 20
34.080193355
 10
255.0062186988
 20
35.0214490726
 10
255.1267513316
 20
35.9995934504
 10
255.326264328
 20
37.0045894036
 10
255.6027104148
 20
38.0261243137
 10
255.9532528808
 20
39.0537158501
 10
256.3742946862
 20
40.0768195332
 10
256.8615153722
 20
41.0849369347
 10
257.4099153953
 20
42.0677234058
 10
258.013867429
 20
43.0150942275
 10
258.6671741084
 20
43.917328093
 10
259.3631316227
 20
44.765166862
 10
260.0945985061
 20
45.5499105615
 10
260.8540689185
 20
46.2635066592
 10
261.6337496659
 20
46.8986326933
 10
262.4256401685
 20
47.4487714115
 10
263.2216145584
 20
47.9082776459
 10
264.0135050611
 20
48.2724362408
 10
264.7931858084
 20
48.5375104362
 10
265.5526562209
 20
48.7007802121
 10
266.2841231043
 20
48.7605701998
 10
266.9800806186
 20
48.7162668731
 10
267.6333872979
 20
48.568324844
 10
268.2373393317
 20
48.3182621979
 10
268.3454634327
 20
48.2596967673
  0
LWPOLYLINE
  5
1E4
330
1F
100
AcDbEntity
  8
0
  6
Continuous
 62
     7
370
     0
100
AcDbPolyline
 90
        9
 70
   128
 43
0.0
 10
257.2678289053
 20
28.9923929432
 10
256.8615153722
 20
29.2640769367
 10
256.3742946862
 20
29.709661308
 10
255.9532528808
 20
30.2466404701
 10
255.6027104148
 20
30.8695042901
 10
255.326264328
 20
31.5718613423
 10
255.1267513316
 20
32.346504493
 10
255.0062186988
 20
33.1854848552
 10
254.9659032575
 20
34.080193355
  0
LWPOLYLINE
  5
1E5
330
1F
100
AcDbEntity
  8
0
  6
Continuous
 62
     7
370
     0
100
AcDbPolyline
 90
       19
 70
   128
 43
0.0
 10
255.6730100387
 20
34.080193355
 10
255.7141186711
 20
33.19812935
 10
255.8369941734
 20
32.3731924395
 10
256.0402902958
 20
31.6144208048
 10
256.3217796837
 20
30.9301277068
 10
256.6783782802
 20
30.3278104039
 10
257.1061791167
 20
29.8140680105
 10
257.6004951175
 20
29.3945291957
 10
258.1559104531
 20
29.0737905147
 10
258.7663398769
 20
28.8553660474
 10
259.4250953964
 20
28.7416488982
 10
260.1249595482
 20
28.7338849758
 10
260.8582644743
 20
28.8321593434
 10
261.6169759325
 20
29.0353952865
 10
262.3927813211
 20
29.3413661096
 10
263.1771807541
 20
29.7467195323
 10
263.961580187
 20
30.2470144176
 10
264.7373855757
 20
30.8367694302
 10
265.3581797363
 20
31.3798486804
  0
LWPOLYLINE
  5
1E6
330
1F
100
AcDbEntity
  8
0
  6
Continuous
 62
     7
370
     0
100
AcDbPolyline
 90
       35
 70
   128
 43
0.0
 10
270.3577733995
 20
40.0403373042
 10
270.5173673348
 20
40.8479914744
 10
270.6402428371
 20
41.8147974201
 10
270.6813514694
 20
42.7443244418
 10
270.6402428371
 20
43.6263884468
 10
270.5173673348
 20
44.4513253573
 10
270.3140712123
 20
45.210096992
 10
270.0325818244
 20
45.89439009
 10
269.6759832279
 20
46.4967073929
 10
269.2481823915
 20
47.0104497863
 10
268.7538663907
 20
47.4299886011
 10
268.198451055
 20
47.7507272821
 10
267.5880216312
 20
47.9691517494
 10
266.9292661117
 20
48.0828688987
 10
266.2294019599
 20
48.0906328211
 10
265.4960970338
 20
47.9923584534
 10
264.7373855757
 20
47.7891225103
 10
263.961580187
 20
47.4831516872
 10
263.1771807541
 20
47.0777982645
 10
262.3927813211
 20
46.5775033792
 10
261.6169759325
 20
45.9877483666
 10
260.8582644743
 20
45.3149947061
 10
260.1249595482
 20
44.5666132277
 10
259.4250953964
 20
43.7508033553
 10
258.7663398769
 20
42.8765032727
 10
258.1559104531
 20
41.9532919945
 10
257.6004951175
 20
40.9912844167
 10
257.1061791167
 20
40.0010204957
 10
256.6783782802
 20
38.9933497701
 10
256.3217796837
 20
37.9793124913
 10
256.0402902958
 20
36.9700186639
 10
255.8369941734
 20
35.9765263224
 10
255.7141186711
 20
35.0097203767
 10
255.6730100387
 20
34.080193355
 10
255.6730100387
 20
34.080193355
  0
LWPOLYLINE
  5
1E7
330
1F
100
AcDbEntity
  8
0
  6
Continuous
 62
     7
370
     0
100
AcDbPolyline
 90
       22
 70
   128
 43
0.0
 10
249.8924121025
 20
37.0090574562
 10
249.9327275438
 20
37.9503131737
 10
250.0532601766
 20
38.9284575516
 10
250.252773173
 20
39.9334535048
 10
250.5292192598
 20
40.9549884149
 10
250.8797617258
 20
41.9825799513
 10
251.3008035312
 20
43.0056836344
 10
251.7880242172
 20
44.0138010359
 10
252.3364242402
 20
44.996587507
 10
252.940376274
 20
45.9439583286
 10
253.5936829533
 20
46.8461921942
 10
254.2896404676
 20
47.6940309632
 10
255.0211073511
 20
48.4787746627
 10
255.7805777635
 20
49.1923707603
 10
256.5602585109
 20
49.8274967945
 10
257.3521490135
 20
50.3776355126
 10
258.1481234034
 20
50.837141747
 10
258.9400139061
 20
51.2013003419
 10
259.7196946534
 20
51.4663745373
 10
260.4791650659
 20
51.6296443133
 10
261.2106319493
 20
51.689434301
 10
261.804310444
 20
51.658458008
  0
ARC
  5
1E8
330
1F
100
AcDbEntity
  8
0
  6
Continuous
 62
     7
370
     0
100
AcDbCircle
 10
256.5215283565
 20
36.685633802
 30
0.0
 40
6.637001218064239
100
AcDbArc
 50
177.2068481453
 51
213.627633267
  0
LWPOLYLINE
  5
1E9
330
1F
100
AcDbEntity
  8
0
  6
Continuous
 62
     7
370
     0
100
AcDbPolyline
 90
       26
 70
   128
 43
0.0
 10
258.2274332858
 20
35.554830507
 10
258.2680706441
 20
36.3092084046
 10
258.3893154546
 20
37.0981183331
 10
258.5891768811
 20
37.9086064134
 10
258.8643732042
 20
38.7273644535
 10
259.2103857082
 20
39.5409484692
 10
259.6215328771
 20
40.3359994333
 10
260.0910636858
 20
41.099462631
 10
260.6112684515
 20
41.8188020177
 10
261.1736054262
 20
42.4822060606
 10
261.7688410525
 20
43.0787816836
 10
262.3872015777
 20
43.5987331314
 10
263.0185335391
 20
44.0335228158
 10
263.6524704834
 20
44.376011502
 10
264.2786031836
 20
44.6205755354
 10
264.8866505578
 20
44.7631991812
 10
265.4666284852
 20
44.8015405631
 10
266.0090137441
 20
44.7349701168
 10
266.5049003836
 20
44.5645809271
 10
266.9461459588
 20
44.2931707797
 10
267.3255052295
 20
43.9251962218
 10
267.636749127
 20
43.4666993855
 10
267.8747670351
 20
42.9252087762
 10
268.0356507064
 20
42.3096156546
 10
268.1167584353
 20
41.6300280428
 10
268.1266663758
 20
41.3283279733
  0
LWPOLYLINE
  5
1EA
330
1F
100
AcDbEntity
  8
0
  6
Continuous
 62
     7
370
     0
100
AcDbPolyline
 90
       14
 70
   128
 43
0.0
 10
263.1270727127
 20
32.6678393495
 10
263.0185335391
 20
32.6078248055
 10
262.3872015777
 20
32.3136941227
 10
261.7688410525
 20
32.1197017049
 10
261.1736054262
 20
32.0290329022
 10
260.6112684515
 20
32.043176494
 10
260.0910636858
 20
32.1619002427
 10
259.6215328771
 20
32.3832547077
 10
259.2103857082
 20
32.7036052549
 10
258.8643732042
 20
33.1176917371
 10
258.5891768811
 20
33.6187148657
 10
258.3893154546
 20
34.1984478547
 10
258.2680706441
 20
34.8473715047
 10
258.2274332858
 20
35.554830507
  0
ARC
  5
1EB
330
1F
100
AcDbEntity
  8
0
  6
Continuous
 62
     7
370
     0
100
AcDbCircle
 10
263.5047513173
 20
35.2838907184
 30
0.0
 40
2.463833403968216
100
AcDbArc
 50
173.6866002849
 51
235.0012193218
  0
LWPOLYLINE
  5
1EC
330
1F
100
AcDbEntity
  8
0
  6
Continuous
 62
     7
370
     0
100
AcDbPolyline
 90
       17
 70
   128
 43
0.0
 10
267.091191148
 20
41.9260950985
 10
266.9436758879
 20
42.0017499016
 10
266.5131958196
 20
42.1321638121
 10
266.037670353
 20
42.15625039
 10
265.5282454019
 20
42.0734450665
 10
264.9968614554
 20
41.8856887281
 10
264.4559737028
 20
41.5973822242
 10
263.9182600946
 20
41.215283215
 10
263.396324182
 20
40.7483477773
 10
262.9023997006
 20
40.2075204821
 10
262.4480638213
 20
39.6054778628
 10
262.0439657923
 20
38.9563312881
 10
261.6995773288
 20
38.2752962036
 10
261.4229706045
 20
37.5783354943
 10
261.2206290465
 20
36.8817853286
 10
261.0972953696
 20
36.2019722521
 10
261.0558604105
 20
35.554830507
  0
LWPOLYLINE
  5
1ED
330
1F
100
AcDbEntity
  8
0
  6
Continuous
 62
     7
370
     0
100
AcDbPolyline
 90
       12
 70
   128
 43
0.0
 10
266.9006270658
 20
32.9269947132
 10
267.1318417901
 20
32.6347107155
 10
267.4323702642
 20
32.4447125791
 10
267.7899748906
 20
32.3647370774
 10
268.1900939161
 20
32.3980408336
 10
268.6164343899
 20
32.5432677102
 10
269.0516356172
 20
32.7945040311
 10
269.477976091
 20
33.1415193878
 10
269.8780951165
 20
33.5701832251
 10
270.2356997429
 20
34.0630402401
 10
270.5362282171
 20
34.600021167
 10
270.7674429413
 20
35.1592600031
  0
LWPOLYLINE
  5
1EE
330
1F
100
AcDbEntity
  8
0
  6
Continuous
 62
     7
370
     0
100
AcDbPolyline
 90
       12
 70
   128
 43
0.0
 10
270.7674898321
 20
37.3661756987
 10
270.5362813344
 20
37.6584940069
 10
270.2357507991
 20
37.8485193778
 10
269.8781369889
 20
37.928513245
 10
269.4780033178
 20
37.8952179499
 10
269.0516447726
 20
37.7499894051
 10
268.6164243181
 20
37.4987418773
 10
268.1900658103
 20
37.1517071352
 10
267.7899322123
 20
36.7230177723
 10
267.4323185081
 20
36.2301316732
 10
267.1317881072
 20
35.6931210614
 10
266.900579767
 20
35.1338550808
  0
LWPOLYLINE
  5
1EF
330
1F
100
AcDbEntity
  8
0
  6
Continuous
 62
     7
370
     0
100
AcDbPolyline
 90
       22
 70
   128
 43
0.0
 10
241.386020571
 20
42.30516913
 10
241.7007178962
 20
43.5329963713
 10
242.0915969943
 20
44.7699649681
 10
242.5558046935
 20
46.0070458275
 10
243.0899525697
 20
47.2352090369
 10
243.690141679
 20
48.4454897773
 10
244.3519910185
 20
49.6290537601
 10
245.070669504
 20
50.7772617125
 10
245.8409312345
 20
51.8817324384
 10
246.6571537838
 20
52.9344039959
 10
247.5133792403
 20
53.9275925446
 10
248.4033576967
 20
54.8540484325
 10
249.3205928698
 20
55.7070091142
 10
250.2583895195
 20
56.480248513
 10
251.20990232
 20
57.1681224675
 10
252.1681858261
 20
57.7656099303
 10
253.1262451708
 20
58.2683496187
 10
254.0770871231
 20
58.672671849
 10
255.0137711348
 20
58.9756253231
 10
255.9294600016
 20
59.1749986713
 10
256.8174697703
 20
59.2693365933
 10
257.4890392732
 20
59.2694213209
  0
LWPOLYLINE
  5
1F0
330
1F
100
AcDbEntity
  8
0
  6
Continuous
 62
     7
370
     0
100
AcDbPolyline
 90
       19
 70
   128
 43
0.0
 10
244.8006613061
 20
41.3525553891
 10
245.1035355469
 20
42.5158179874
 10
245.4830747489
 20
43.6873940773
 10
245.936126871
 20
44.8575538182
 10
246.4589293535
 20
46.0165791319
 10
247.0471403657
 20
47.1548444106
 10
247.6958748647
 20
48.262896457
 10
248.399745165
 20
49.3315329922
 10
249.1529056831
 20
50.3518790795
 10
249.9491014842
 20
51.3154608308
 10
250.7817202293
 20
52.2142757805
 10
251.6438470896
 20
53.0408593462
 10
252.5283221742
 20
53.7883468209
 10
253.427799992
 20
54.4505303841
 10
254.3348104553
 20
55.021910657
 10
255.2418209187
 20
55.4977423746
 10
256.1412987364
 20
55.8740737943
 10
257.025773821
 20
56.1477795156
 10
257.3173991807
 20
56.2160941695
  0
LINE
  5
1F1
330
1F
100
AcDbEntity
  8
0
  6
Continuous
 62
     7
370
     0
100
AcDbLine
 10
266.0763185569
 20
33.2582679493
 30
0.0
 11
266.147029235
 21
32.9943777153
 31
0.0
  0
LWPOLYLINE
  5
1F2
330
1F
100
AcDbEntity
  8
0
  6
Continuous
 62
     7
370
     0
100
AcDbPolyline
 90
        3
 70
   128
 43
0.0
 10
270.3354488129
 20
37.3198063671
 10
270.0990162247
 20
37.5821995121
 10
269.9967912266
 20
37.6507220394
  0
LWPOLYLINE
  5
1F3
330
1F
100
AcDbEntity
  8
0
  6
Continuous
 62
     7
370
     0
100
AcDbPolyline
 90
       10
 70
   128
 43
0.0
 10
267.3047865197
 20
32.8567938736
 10
267.4496697441
 20
32.8007691714
 10
267.8088694861
 20
32.7599410796
 10
268.2057441066
 20
32.8353834672
 10
268.6219029692
 20
33.0236004352
 10
269.0380618318
 20
33.3158702625
 10
269.4349364523
 20
33.6986495582
 10
269.7941361943
 20
34.1542008445
 10
270.0990162247
 20
34.6614144872
 10
270.3354488129
 20
35.196786888
  0
LINE
  5
1F4
330
1F
100
AcDbEntity
  8
0
  6
Continuous
 62
     7
370
     0
100
AcDbLine
 10
265.9075451762
 20
33.3556987481
 30
0.0
 11
266.0763185569
 21
33.2582679493
 31
0.0
  0
LINE
  5
1F5
330
1F
100
AcDbEntity
  8
0
  6
Continuous
 62
     7
370
     0
100
AcDbLine
 10
271.5210407721
 20
36.0967285402
 30
0.0
 11
271.3089087377
 21
36.2789779631
 31
0.0
  0
LINE
  5
1F6
330
1F
100
AcDbEntity
  8
0
  6
Continuous
 62
     7
370
     0
100
AcDbLine
 10
249.6184082248
 20
40.108836414
 30
0.0
 11
249.3355195387
 21
40.2721445763
 31
0.0
  0
LINE
  5
1F7
330
1F
100
AcDbEntity
  8
0
  6
Continuous
 62
     7
370
     0
100
AcDbLine
 10
244.2421442522
 20
37.1864163505
 30
0.0
 11
249.6184082248
 21
34.0827652222
 31
0.0
  0
LINE
  5
1F8
330
1F
100
AcDbEntity
  8
0
  6
Continuous
 62
     7
370
     0
100
AcDbLine
 10
244.0057481491
 20
37.0499034215
 30
0.0
 11
244.2421442522
 21
37.1864163505
 31
0.0
  0
LINE
  5
1F9
330
1F
100
AcDbEntity
  8
0
  6
Continuous
 62
     7
370
     0
100
AcDbLine
 10
243.8554879581
 20
40.4940995836
 30
0.0
 11
243.8839186578
 21
41.2816942315
 31
0.0
  0
LWPOLYLINE
  5
1FA
330
1F
100
AcDbEntity
  8
0
  6
Continuous
 62
     7
370
     0
100
AcDbPolyline
 90
        3
 70
   128
 43
0.0
 10
243.9561822475
 20
39.1042480805
 10
243.8958033994
 20
39.5993910837
 10
243.8554879581
 20
40.4940995836
  0
LINE
  5
1FB
330
1F
100
AcDbEntity
  8
0
  6
Continuous
 62
     7
370
     0
100
AcDbLine
 10
269.3643650894
 20
37.4015391168
 30
0.0
 11
271.3089087377
 21
36.2789779631
 31
0.0
  0
LWPOLYLINE
  5
1FC
330
1F
100
AcDbEntity
  8
0
  6
Continuous
 62
     7
370
     0
100
AcDbPolyline
 90
       18
 70
   128
 43
0.0
 10
222.5924439345
 20
56.7809604102
 10
222.6332663381
 20
57.4936920836
 10
222.7549731046
 20
58.2402794583
 10
222.9552970674
 20
59.0068150242
 10
223.2305065699
 20
59.779019674
 10
223.57547498
 20
60.5425086962
 10
223.9837761887
 20
61.2830597349
 10
224.4478043172
 20
61.9868777254
 10
224.9589153994
 20
62.6408518701
 10
225.5075884028
 20
63.2327998682
 10
226.0836025876
 20
63.7516948485
 10
226.6762278994
 20
64.1878707792
 10
227.2744248498
 20
64.5332025281
 10
227.8670501615
 20
64.781257218
 10
228.4430643463
 20
64.9274140595
 10
228.9917373497
 20
64.9689504271
 10
229.5028484319
 20
64.9050925768
 10
229.668356952
 20
64.8588821207
  0
ARC
  5
1FD
330
1F
100
AcDbEntity
  8
0
  6
Continuous
 62
     7
370
     0
100
AcDbCircle
 10
226.0402929068
 20
56.5609337819
 30
0.0
 40
3.454862407208113
100
AcDbArc
 50
176.3485855088
 51
222.4071696993
  0
ARC
  5
1FE
330
1F
100
AcDbEntity
  8
0
  6
Continuous
 62
     7
370
     0
100
AcDbCircle
 10
253.9340636027
 20
34.0321131478
 30
0.0
 40
7.674354041784095
100
AcDbArc
 50
196.4651362557
 51
212.3595384269
  0
LINE
  5
1FF
330
1F
100
AcDbEntity
  8
0
  6
Continuous
 62
     7
370
     0
100
AcDbLine
 10
249.3355655123
 20
33.5928672751
 30
0.0
 11
244.0764588273
 21
36.628884941
 31
0.0
  0
LINE
  5
200
330
1F
100
AcDbEntity
  8
0
  6
Continuous
 62
     7
370
     0
100
AcDbLine
 10
245.6660127502
 20
33.9743627926
 30
0.0
 11
245.5855498332
 21
34.2201450459
 31
0.0
  0
LWPOLYLINE
  5
201
330
1F
100
AcDbEntity
  8
0
  6
Continuous
 62
     7
370
     0
100
AcDbPolyline
 90
        3
 70
   128
 43
0.0
 10
245.3253841658
 20
33.4037597585
 10
245.1035355469
 20
33.8596801047
 10
244.8006613061
 20
34.6732515479
  0
ARC
  5
202
330
1F
100
AcDbEntity
  8
0
  6
Continuous
 62
     7
370
     0
100
AcDbCircle
 10
248.7488179965
 20
37.0285526275
 30
0.0
 40
7.677727342517675
100
AcDbArc
 50
196.4673627591
 51
212.2930720093
  0
OLE2FRAME
  5
203
330
1F
100
AcDbEntity
  8
0
100
AcDbOle2Frame
 70
     2
  3
Paintbrush-Bild
 10
13.8511154363
 20
38.264191557
 30
0.0
 11
51.6290888628
 21
31.9806341108
 31
0.0
 71
     2
 72
     0
 73
     1
 90
    12928
310
80552BED0767C5B32B40DDAF6807D121434000000000000000006FFBDDFB85D0
310
4940DDAF6807D121434000000000000000006FFBDDFB85D04940416F4BD60AFB
310
3F4000000000000000002BED0767C5B32B40416F4BD60AFB3F40000000000000
310
0000000000000100000000010000010000000100000000000100000000320000
310
D0CF11E0A1B11AE1000000000000000000000000000000003E000300FEFF0900
310
0600000000000000000000000100000001000000000000000010000002000000
310
01000000FEFFFFFF0000000000000000FFFFFFFFFFFFFFFFFFFFFFFFFFFFFFFF
310
FFFFFFFFFFFFFFFFFFFFFFFFFFFFFFFFFFFFFFFFFFFFFFFFFFFFFFFFFFFFFFFF
310
FFFFFFFFFFFFFFFFFFFFFFFFFFFFFFFFFFFFFFFFFFFFFFFFFFFFFFFFFFFFFFFF
310
FFFFFFFFFFFFFFFFFFFFFFFFFFFFFFFFFFFFFFFFFFFFFFFFFFFFFFFFFFFFFFFF
310
FFFFFFFFFFFFFFFFFFFFFFFFFFFFFFFFFFFFFFFFFFFFFFFFFFFFFFFFFFFFFFFF
310
FFFFFFFFFFFFFFFFFFFFFFFFFFFFFFFFFFFFFFFFFFFFFFFFFFFFFFFFFFFFFFFF
310
FFFFFFFFFFFFFFFFFFFFFFFFFFFFFFFFFFFFFFFFFFFFFFFFFFFFFFFFFFFFFFFF
310
FFFFFFFFFFFFFFFFFFFFFFFFFFFFFFFFFFFFFFFFFFFFFFFFFFFFFFFFFFFFFFFF
310
FFFFFFFFFFFFFFFFFFFFFFFFFFFFFFFFFFFFFFFFFFFFFFFFFFFFFFFFFFFFFFFF
310
FFFFFFFFFFFFFFFFFFFFFFFFFFFFFFFFFFFFFFFFFFFFFFFFFFFFFFFFFFFFFFFF
310
FFFFFFFFFFFFFFFFFFFFFFFFFFFFFFFFFFFFFFFFFFFFFFFFFFFFFFFFFFFFFFFF
310
FFFFFFFFFFFFFFFFFFFFFFFFFFFFFFFFFFFFFFFFFFFFFFFFFFFFFFFFFFFFFFFF
310
FFFFFFFFFFFFFFFFFFFFFFFFFFFFFFFFFFFFFFFFFFFFFFFFFFFFFFFFFFFFFFFF
310
FFFFFFFFFFFFFFFFFFFFFFFFFFFFFFFFFFFFFFFFFFFFFFFFFFFFFFFFFFFFFFFF
310
FDFFFFFFFEFFFFFFFEFFFFFFFEFFFFFF05000000060000000700000008000000
310
090000000A0000000B0000000C0000000D0000000E0000000F00000010000000
310
11000000120000001300000014000000150000001600000017000000FEFFFFFF
310
FFFFFFFFFFFFFFFFFFFFFFFFFFFFFFFFFFFFFFFFFFFFFFFFFFFFFFFFFFFFFFFF
310
FFFFFFFFFFFFFFFFFFFFFFFFFFFFFFFFFFFFFFFFFFFFFFFFFFFFFFFFFFFFFFFF
310
FFFFFFFFFFFFFFFFFFFFFFFFFFFFFFFFFFFFFFFFFFFFFFFFFFFFFFFFFFFFFFFF
310
FFFFFFFFFFFFFFFFFFFFFFFFFFFFFFFFFFFFFFFFFFFFFFFFFFFFFFFFFFFFFFFF
310
FFFFFFFFFFFFFFFFFFFFFFFFFFFFFFFFFFFFFFFFFFFFFFFFFFFFFFFFFFFFFFFF
310
FFFFFFFFFFFFFFFFFFFFFFFFFFFFFFFFFFFFFFFFFFFFFFFFFFFFFFFFFFFFFFFF
310
FFFFFFFFFFFFFFFFFFFFFFFFFFFFFFFFFFFFFFFFFFFFFFFFFFFFFFFFFFFFFFFF
310
FFFFFFFFFFFFFFFFFFFFFFFFFFFFFFFFFFFFFFFFFFFFFFFFFFFFFFFFFFFFFFFF
310
FFFFFFFFFFFFFFFFFFFFFFFFFFFFFFFFFFFFFFFFFFFFFFFFFFFFFFFFFFFFFFFF
310
FFFFFFFFFFFFFFFFFFFFFFFFFFFFFFFFFFFFFFFFFFFFFFFFFFFFFFFFFFFFFFFF
310
FFFFFFFFFFFFFFFFFFFFFFFFFFFFFFFFFFFFFFFFFFFFFFFFFFFFFFFFFFFFFFFF
310
FFFFFFFFFFFFFFFFFFFFFFFFFFFFFFFFFFFFFFFFFFFFFFFFFFFFFFFFFFFFFFFF
310
FFFFFFFFFFFFFFFFFFFFFFFFFFFFFFFFFFFFFFFFFFFFFFFFFFFFFFFFFFFFFFFF
310
52006F006F007400200045006E00740072007900000000000000000000000000
310
0000000000000000000000000000000000000000000000000000000000000000
310
16000500FFFFFFFFFFFFFFFF020000000A00030000000000C000000000000046
310
000000000000000000000000607CFE8AF11AD20103000000C000000000000000
310
01004F006C006500000000000000000000000000000000000000000000000000
310
0000000000000000000000000000000000000000000000000000000000000000
310
0A000200FFFFFFFFFFFFFFFFFFFFFFFF00000000000000000000000000000000
310
0000000000000000000000000000000000000000000000001400000000000000
310
010043006F006D0070004F0062006A0000000000000000000000000000000000
310
0000000000000000000000000000000000000000000000000000000000000000
310
120002010100000003000000FFFFFFFF00000000000000000000000000000000
310
0000000000000000000000000000000000000000010000004D00000000000000
310
01004F006C006500310030004E00610074006900760065000000000000000000
310
0000000000000000000000000000000000000000000000000000000000000000
310
1A000200FFFFFFFFFFFFFFFFFFFFFFFF00000000000000000000000000000000
310
0000000000000000000000000000000000000000040000002426000000000000
310
FEFFFFFF02000000FEFFFFFFFFFFFFFFFFFFFFFFFFFFFFFFFFFFFFFFFFFFFFFF
310
FFFFFFFFFFFFFFFFFFFFFFFFFFFFFFFFFFFFFFFFFFFFFFFFFFFFFFFFFFFFFFFF
310
FFFFFFFFFFFFFFFFFFFFFFFFFFFFFFFFFFFFFFFFFFFFFFFFFFFFFFFFFFFFFFFF
310
FFFFFFFFFFFFFFFFFFFFFFFFFFFFFFFFFFFFFFFFFFFFFFFFFFFFFFFFFFFFFFFF
310
FFFFFFFFFFFFFFFFFFFFFFFFFFFFFFFFFFFFFFFFFFFFFFFFFFFFFFFFFFFFFFFF
310
FFFFFFFFFFFFFFFFFFFFFFFFFFFFFFFFFFFFFFFFFFFFFFFFFFFFFFFFFFFFFFFF
310
FFFFFFFFFFFFFFFFFFFFFFFFFFFFFFFFFFFFFFFFFFFFFFFFFFFFFFFFFFFFFFFF
310
FFFFFFFFFFFFFFFFFFFFFFFFFFFFFFFFFFFFFFFFFFFFFFFFFFFFFFFFFFFFFFFF
310
FFFFFFFFFFFFFFFFFFFFFFFFFFFFFFFFFFFFFFFFFFFFFFFFFFFFFFFFFFFFFFFF
310
FFFFFFFFFFFFFFFFFFFFFFFFFFFFFFFFFFFFFFFFFFFFFFFFFFFFFFFFFFFFFFFF
310
FFFFFFFFFFFFFFFFFFFFFFFFFFFFFFFFFFFFFFFFFFFFFFFFFFFFFFFFFFFFFFFF
310
FFFFFFFFFFFFFFFFFFFFFFFFFFFFFFFFFFFFFFFFFFFFFFFFFFFFFFFFFFFFFFFF
310
FFFFFFFFFFFFFFFFFFFFFFFFFFFFFFFFFFFFFFFFFFFFFFFFFFFFFFFFFFFFFFFF
310
FFFFFFFFFFFFFFFFFFFFFFFFFFFFFFFFFFFFFFFFFFFFFFFFFFFFFFFFFFFFFFFF
310
FFFFFFFFFFFFFFFFFFFFFFFFFFFFFFFFFFFFFFFFFFFFFFFFFFFFFFFFFFFFFFFF
310
FFFFFFFFFFFFFFFFFFFFFFFFFFFFFFFFFFFFFFFFFFFFFFFFFFFFFFFFFFFFFFFF
310
0100000200000000000000000000000000000000000000000000000000000000
310
0000000000000000000000000000000000000000000000000000000000000000
310
0100FEFF030A0000FFFFFFFF0A00030000000000C00000000000004607000000
310
5042727573680007000000504272757368000700000050427275736800F439B2
310
7100000000000000000000000000000000000000000000000000000000000000
310
0000000000000000000000000000000000000000000000000000000000000000
310
0000000000000000000000000000000000000000000000000000000000000000
310
0000000000000000000000000000000000000000000000000000000000000000
310
0000000000000000000000000000000000000000000000000000000000000000
310
0000000000000000000000000000000000000000000000000000000000000000
310
0000000000000000000000000000000000000000000000000000000000000000
310
0000000000000000000000000000000000000000000000000000000000000000
310
0000000000000000000000000000000000000000000000000000000000000000
310
0000000000000000000000000000000000000000000000000000000000000000
310
0000000000000000000000000000000000000000000000000000000000000000
310
0000000000000000000000000000000000000000000000000000000000000000
310
20260000424D0E260000000000003E00000028000000B40200006E0000000100
310
01000000000000000000130B0000130B00000200000002000000000000FFFFFF
310
FFFFFFFFFFFFFFFFFFFFFFFFFFFFFFFFFFFFFFFFFFFFFFFFFFFFFFFFFFFFFFFF
310
FFFFFFFFFFFFFFFFFFFFFFFFFFFFFFFFFFFFFFFFFFFFFFFFFFFFFFFFFFFFFFFF
310
FFFFFFFFFFFFFFFFFFFFFFFFFFFFFFFFFFFFFFFFFFFFFFFFF000FFFFFFFFFFFF
310
FFFFFFFFFFFFFFFFFFFFFFFFFFFFFFFFFFFFFFFFFFFFFFFFFFFFFFFFFFFFFFFF
310
FFFFFFFFFFFFFFFFFFFFFFFFFFFFFFFFFFFFFFFFFFFFFFFFFFFFFFFFFFFFFFFF
310
FFFFFFFFFFFFFFFFFFFFFFFFFFFFFFFFF000FFFFFFFFFFFFFFFFFFFFFFFFFFFF
310
FFFFFFFFFFFFFFFFFFFFFFFFFFFFFFFFFFFFFFFFFFFFFFFFFFFFFFFFFFFFFFFF
310
FFFFFFFFFFFFFFFFFFFFFFFFFFFFFFFFFFFFFFFFFFFFFFFFFFFFFFFFFFFFFFFF
310
FFFFFFFFFFFFFFFFF000FFFFFFFFFFFFFFFFFFFFFFFFFFFFFFFFFFFFFFFFFFFF
310
FFFFFFFFFFFFFFFFFFFFFFFFFFFFFFFFFFFFFFFFFFFFFFFFFFFFFFFFFFFFFFFF
310
FFFFFFFFFFFFFFFFFFFFFFFFFFFFFFFFFFFFFFFFFFFFFFFFFFFFFFFFFFFFFFFF
310
F000FFFFFFFFFFFFFFFFFFFFFFFFFFFFFFFFFFFFFFFFFFFFFFFFFFFFFFFFFFFF
310
FFFFFFFFFFFFFFFFFFFFFFFFFFFFFFFFFFFFFFFFFFFFFFFFFFFFFFFFFFFFFFFF
310
FFFFFFFFFFFFFFFFFFFFFFFFFFFFFFFFFFFFFFFFFFFFFFFFF000FFFFFFFFFFFF
310
FFFFFFFFFFFFFFFFFFFFFFFFFFFFFFFFFFFFFFFFFFFFFFFFFFFFFFFFFFFFFFFF
310
FFFFFFFFFFFFFFFFFFFFFFFFFFFFFFFFFFFFFFFFFFFFFFFFFFFFFFFFFFFFFFFF
310
FFFFFFFFFFFFFFFFFFFFFFFFFFFFFFFFF000FFFFFFFFFFFFFFFFFFFFFFFFFFFF
310
FFFFFFFFFFFFFFFFFFFFFFFFFFFFFFFFFFFFFFFFFFFFFFFFFFFFFFFFFFFFFFFF
310
FFFFFFFFFFFFFFFFFFFFFFFFFFFFFFFFFFFFFFFFFFFFFFFFFFFFFFFFFFFFFFFF
310
FFFFFFFFFFFFFFFFF000FFFFFFFFFFFFFFFFFFFFFFFFFFFFFFFFFFFFFFFFFFFF
310
FFFFFFFFFFFFFFFFFFFFFFFFFFFFFFFFFFFFFFFFFFFFFFFFFFFFFFFFFFFFFFFF
310
FFFFFFFFFFFFFFFFFFFFFFFFFFFFFFFFFFFFFFFFFFFFFFFFFFFFFFFFFFFFFFFF
310
F000FFFFFFFFFFFFFFFFFFFFFFFFFFFFFFFFFFFFFFFFFFFFFFFFFFFFFFFFFFFF
310
FFFFFFFFFFFFFFFFFFFFFFFFFFFFFFFFFFFFFFFFFFFFFFFFFFFFFFFFFFFFFFFF
310
FFFFFFFFFFFFFFFFFFFFFFFFFFFFFFFFFFFFFFFFFFFFFFFFF000FFFFFFFFFFFF
310
FFFFFFFFFFFFFFFFFFFFFFFFFFFFFFFFFFFFFFFFFFFFFFFFFFFFFFFFFFFFFFFF
310
FFFFFFFFFFFFFFFFFFFFFFFFFFFFFFFFFFFFFFFFFFFFFFFFFFFFFFFFFFFFFFFF
310
FFFFFFFFFFFFFFFFFFFFFFFFFFFFFFFFF000FFFFFFFFFFFFFFFFFFFFFFFFFFFF
310
FFFFFFFFFFFFFFFFFFFFFFFFFFFFFFFFFFFFFFFFFFFFFFFFFFFFFFFFFFFFFFFF
310
FFFFFFFFFFFFFFFFFFFFFFFFFFFFFFFFFFFFFFFFFFFFFFFFFFFFFFFFFFFFFFFF
310
FFFFFFFFFFFFFFFFF000FFFFFFFFFFFFFFFFFFFFFFFFFFFFFFFFFFFFFFFFFFFF
310
FFFFFFFFFFFFFFFFFFFFFFFFFFFFFFFFFFFFFFFFFFFFFFFFFFFFFFFFFFFFFFFF
310
FFFFFFFFFFFFFFFFFFFFFFFFFFFFFFFFFFFFFFFFFFFFFFFFFFFFFFFFFFFFFFFF
310
F000FFFFFFFFFFFFFFFFFFFFFFFFFFFFFFFFFFFFFFFFFFFFFFFFFFFFFFFFFFFF
310
FFFFFFFFFFFFFFFFFFFFFFFFFFFFFFFFFFFFFFFFFFFFFFFFFFFFFFFFFFFFFFFF
310
FFFFFFFFFFFFFFFFFFFFFFFFFFFFFFFFFFFFFFFFFFFFFFFFF000FFFFFFFFFFFF
310
FFFFFFFFFFFFFFFFFFFFFFFFFFFFFFFFFFFFFFFFFFFFFFFFFFFFFFFFFFFFFFFF
310
FFFFFFFFFFFFFFFFFFFFFFFFFFFFFFFFFFFFFFFFFFFFFFFFFFFFFFFFFFFFFFFF
310
FFFFFFFFFFFFFFFFFFFFFFFFFFFFFFFFF000FFFFFFFFFFFFFFFFFFFFFFFFFFFF
310
FFFFFFFFFFFFFFFFFFFFFFFFFFFFFFFFFFFFFFFFFFFFFFFFFFFFFFFFFFFFFFFF
310
FFFFFFFFFFFFFFFFFFFFFFFFFFFFFFFFFFFFFFFFFFFFFFFFFFFFFFFFFFFFFFFF
310
FFFFFFFFFFFFFFFFF000FFFFFFFFFFFFFFFFFFFFFFFFFFFFFFFFFFFFFFFFFFFF
310
FFFFFFFFFFFFFFFFFFFFFFFFFFFFFFFFFFFFFFFFFFFFFFFFFFFFFFFFFFFFFFFF
310
FFFFFFFFFFFFFFFFFFFFFFFFFFFFFFFFFFFFFFFFFFFFFFFFFFFFFFFFFFFFFFFF
310
F000FFFFFFFFFFFFFFFFFFFFFFFFFFFFFFFFFFFFFFFFFFFFFFFFFFFFFFFFFFFF
310
FFFFFFFFFFFFFFFFFFFFFFFFFFFFFFFFFFFFFFFFFFFFFFFFFFFFFFFFFFFFFFFF
310
FFFFFFFFFFFFFFFFFFFFFFFFFFFFFFFFFFFFFFFFFFFFFFFFF000FFFFFFFFFFFF
310
FFFFFFFFFFFFFFFFFFFFFFFFFFFFFFFFFFFFFFFFFFFFFFFFFFFFFFFFFFFFFFFF
310
FFFFFFFFFFFFFFFFFFFFFFFFFFFFFFFFFFFFFFFFFFFFFFFFFFFFFFFFFFFFFFFF
310
FFFFFFFFFFFFFFFFFFFFFFFFFFFFFFFFF000FFFFFFFFFFFFFFFFFFFFFFFFFFFF
310
FFFFFFFFFFFFFFFFFFFFFFFFFFFFFFFFFFFFFFFFFFFFFFFFFFFFFFFFFFFFFFFF
310
FFFFFFFFFFFFFFFFFFFFFFFFFFFFFFFFFFFFFFFFFFFFFFFFFFFFFFFFFFFFFFFF
310
FFFFFFFFFFFFFFFFF000FFFFF80003FFFFFFFFFFFFFFFFFFFFFFFFFFFFFFFFFF
310
FFFFF00007FFFFFFFFFF00007FFFFFF800000000000000007FFFFFFFFFFFFFFF
310
FFFFFFFC001FFFFFFFFFFFFFFC001FFFFFFFFFFFFFFFFFFFFFFFFFFE0007FFFF
310
F000FFFF8000007FFFFFFFF8000FFFFFC0007FFFFF80007FFFFF0000007FFFFF
310
FFF8000007FFFFF800000000000000007FFFFFF0001FFFFFFFFFFFC00001FFFF
310
FFFFFFFFC00001FFFFFFFF000000000003FFFFE000007FFFF000FFFE0000000F
310
FFFFFFF0000FFFFF80007FFFFF80007FFFFC0000001FFFFFFFC0000001FFFFF8
310
00000000000000007FFFFFF0001FFFFFFFFFFE0000003FFFFFFFFFFE0000003F
310
FFFFFF000000000003FFFF0000000FFFF000FFF800000003FFFFFFF00007FFFF
310
80007FFFFF80007FFFF000000007FFFFFF000000003FFFF80000000000000000
310
7FFFFFF0001FFFFFFFFFF80000000FFFFFFFFFF80000000FFFFFFF0000000000
310
03FFFC00000003FFF000FFE000000000FFFFFFF00007FFFF80003FFFFF80007F
310
FFC000000001FFFFFC000000001FFFF800000000000000007FFFFFF0001FFFFF
310
FFFFE000000003FFFFFFFFE000000003FFFFFF000000000003FFF000000000FF
310
F000FF80000000007FFFFFF00007FFFF80003FFFFF80007FFF8000000000FFFF
310
F80000000007FFF800000000000000007FFFFFF0001FFFFFFFFFC000000001FF
310
FFFFFFC000000001FFFFFF000000000003FFC0000000007FF000FF0000000000
310
3FFFFFE00007FFFF00003FFFFF80007FFE00000000003FFFF00000000003FFF8
310
00000000000000007FFFFFF0001FFFFFFFFF8000000000FFFFFFFF8000000000
310
FFFFFF000000000003FF80000000003FF000FE00000000001FFFFFE00003FFFF
310
00003FFFFF80007FFC00000000001FFFE00000000001FFF8000001FFFE000000
310
7FFFFFF0001FFFFFFFFE00000000003FFFFFFE00000000003FFFFF0000000000
310
03FF00000000001FF000FC00000000000FFFFFE00003FFFF00001FFFFF80007F
310
F800000000001FFFC00000000000FFF8000001FFFE0000007FFFFFF0001FFFFF
310
FFFC00000000001FFFFFFC00000000001FFFFF000000000003FE00000000000F
310
F000F8000000000007FFFFE00003FFFF00001FFFFF80007FF800000000000FFF
310
800000000000FFF8000001FFFE0000007FFFFFF0001FFFFFFFF800000000000F
310
FFFFF800000000000FFFFF000000000003FC000000000007F000F80000000000
310
03FFFFC00003FFFE00001FFFFF80007FF0000000000007FF0000000000007FF8
310
000001FFFE0000007FFFFFF0001FFFFFFFF0000000000007FFFFF00000000000
310
07FFFF000000000003F8000000000003F000F0000000000003FFFFC00001FFFE
310
00001FFFFF80007FE0000000000007FE0000000000003FF8000001FFFE000000
310
7FFFFFF0001FFFFFFFF0000000000007FFFFF0000000000007FFFF0000000000
310
03F800001F800003F000E00001FFF00001FFFFC00001FFFE00000FFFFF80007F
310
E00001FFE00003FE00001FFF00003FF8000001FFFE0000007FFFFFF0001FFFFF
310
FFE000003E000003FFFFE000003E000003FFFF000000000003F00001FFF80001
310
F000E00007FFFC0001FFFFC00001FFFE00000FFFFF80007FC0000FFFFC0003FC
310
0000FFFFC0001FF8000001FFFE0000007FFFFFF0001FFFFFFFC00003FFE00001
310
FFFFC00003FFE00001FFFF0001FFFFFFFFF00007FFFE0001F000E0000FFFFF00
310
00FFFF800001FFFC00000FFFFF80007FC0001FFFFE0001FC0001FFFFE0001FF8
310
000001FFFE0000007FFFFFF0001FFFFFFF80000FFFF80000FFFF80000FFFF800
310
00FFFF0003FFFFFFFFE0000FFFFF8000F000C0003FFFFF8000FFFF800000FFFC
310
000007FFFF80007F80003FFFFF0001FC0003FFFFF0001FF8000001FFFE000000
310
7FFFFFF0001FFFFFFF80003FFFFE0000FFFF80003FFFFE0000FFFF0003FFFFFF
310
FFE0003FFFFF8000F000C0003FFFFF8000FFFF800000FFFC000007FFFF80007F
310
80007FFFFF8001F80007FFFFF8000FF8000001FFFE0000007FFFFFF0001FFFFF
310
FF00007FFFFF00007FFF00007FFFFF00007FFF0003FFFFFFFFE0003FFFFFC000
310
F000C0007FFFFFC000FFFF000000FFFC000007FFFF80007F8000FFFFFF8000F8
310
000FFFFFF8000FF8000001FFFE0000007FFFFFF0001FFFFFFF0000FFFFFF8000
310
7FFF0000FFFFFF80007FFF0003FFFFFFFFC0007FFFFFC00070008000FFFFFFC0
310
00FFFF000000FFF8000007FFFF80007F8000FFFFFF8000F8000FFFFFF8000FF8
310
000001FFFE0000007FFFFFF0001FFFFFFE0001FFFFFFC0003FFE0001FFFFFFC0
310
003FFF0003FFFFFFFFC0007FFFFFE00070008000FFFFFFC0007FFF0000007FF8
310
000003FFFF80007F0001FFFFFF8000F8000FFFFFF8000FF8000001FFFE000000
310
7FFFFFF0001FFFFFFE0001FFFFFFC0003FFE0001FFFFFFC0003FFF0003FFFFFF
310
FFC000FFFFFFE00070008000FFFFFFC0007FFF0000007FF8000003FFFF80007F
310
0001FFFFFF8000F8001FFFFFF8000FF8000001FFFE0000007FFFFFF0001FFFFF
310
FE0003FFFFFFE0003FFE0003FFFFFFE0003FFF0003FFFFFFFFC000FFFFFFE000
310
70008000FFFFFFC0007FFE0000007FF8000003FFFF80007F0001FFFFFF8000F0
310
001FFFFFF8000FF8000001FFFE0000007FFFFFF0001FFFFFFC0003FFFFFFE000
310
1FFC0003FFFFFFE0001FFF0003FFFFFFFFC000FFFFFFC00070008000FFFFFF80
310
007FFE0000007FF0000003FFFF80007F0001FFFFFF0000F0001FFFFFF8000FF8
310
000001FFFE0000007FFFFFF0001FFFFFFC0007FFFFFFF0001FFC0007FFFFFFF0
310
001FFF0003FFFFFFFFC000FFFFFFC00070008001FFFFFF0000FFFE0000003FF0
310
000001FFFF80007F0001FFFFFF0000F8001FFFFFF0000FF8000001FFFE000000
310
7FFFFFF0001FFFFFFC0007FFFFFFF0001FFC0007FFFFFFF0001FFF0003FFFFFF
310
FFC001FFFFFF80007000FFFFFFFFFE0000FFFE0008003FF0008001FFFF80007F
310
FFFFFFFFFC0000FFFFFFFFFFE0000FF8000001FFFE0000007FFFFFF0001FFFFF
310
F8000FFFFFFFF8000FF8000FFFFFFFF8000FFF0003FFFFFFFFFFFFFFFFFF0000
310
7000FFFFFFFFFC0000FFFC0008003FF0008001FFFF80007FFFFFFFFFF80001FF
310
FFFFFFFF80000FF8000001FFFE0000007FFFFFF0001FFFFFF8000FFFFFFFF800
310
0FF8000FFFFFFFF8000FFF0003FFFFFFFFFFFFFFFFFE0000F000FFFFFFFFE000
310
00FFFC000C003FE000C001FFFF80007FFFFFFFFFC00001FFFFFFFFFE00001FF8
310
000001FFFE0000007FFFFFF0001FFFFFF8000FFFFFFFF8000FF8000FFFFFFFF8
310
000FFF0003FFFFFFFFFFFFFFFFF00000F000FFFFFFFE000001FFFC000C001FE0
310
00C000FFFF80007FFFFFFFFE000001FFFFFFFFE000001FF80FFFFFFFFFFFFFC0
310
7FFFFFF0001FFFFFF8000FFFFFFFF8000FF8000FFFFFFFF8000FFF0003FFFFFF
310
FFFFFFFFFF800000F000FFFFFFC0000001FFFC001C001FE001C000FFFF80007F
310
FFFFFF80000003FFFFFFF80000001FF80FFFFFFFFFFFFFC07FFFFFF0001FFFFF
310
F8001FFFFFFFFC000FF8001FFFFFFFFC000FFF0003FFFFFFFFFFFFFFF0000001
310
F000FFFFF800000001FFF8001C001FE001C000FFFF80007FFFFFF800000003FF
310
FFFF800000003FF80FFFFFFFFFFFFFC07FFFFFF0001FFFFFF8001FFFFFFFFC00
310
0FF8001FFFFFFFFC000FFF0003FFFFFFFFFFFFFE00000001F000FFFFC0000000
310
03FFF8001E001FC001E000FFFF80007FFFFF8000000007FFFFFC000000003FF8
310
0FFFFFFFFFFFFFC07FFFFFF0001FFFFFF8001FFFFFFFFC000FF8001FFFFFFFFC
310
000FFF0003FFFFFFFFFFFFE000000003F000FFFE0000000007FFF8001E000FC0
310
01E0007FFF80007FFFFE0000000007FFFFE0000000007FF80FFFFFFFFFFFFFC0
310
7FFFFFF0001FFFFFF0001FFFFFFFFC0007F0001FFFFFFFFC0007FF0003FFFFFF
310
FFFFFF0000000003F000FFF80000000007FFF8001E000FC003E0007FFF80007F
310
FFF0000000000FFFFF8000000000FFF80FFFFFFFFFFFFFC07FFFFFF0001FFFFF
310
F0001FFFFFFFFC0007F0001FFFFFFFFC0007FF0003FFFFFFFFFFFC0000000007
310
F000FFE0000000000FFFF0003E000FC003E0007FFF80007FFFC0000000001FFF
310
FE0000000001FFF80FFFFFFFFFFFFFC07FFFFFF0001FFFFFF0001FFFFFFFFC00
310
07F0001FFFFFFFFC0007FF0003FFFFFFFFFFF0000000000FF000FFC000000000
310
1FFFF0003F000F8003F0003FFF80007FFF80000000003FFFF80000000003FFF8
310
0FFFFFFFFFFFFFC07FFFFFF0001FFFFFF0001FFFFFFFFC0007F0001FFFFFFFFC
310
0007FF0003FFFFFFFFFFE0000000001FF000FF00000000007FFFF0003F000780
310
03F0003FFF80007FFF00000000007FFFF00000000007FFF80FFFFFFFFFFFFFC0
310
7FFFFFF0001FFFFFF0001FFFFFFFFC0007F0001FFFFFFFFC0007FF0003FFFFFF
310
FFFF80000000007FF000FE0000000000FFFFE0003F00078007F0003FFF80007F
310
FE0000000001FFFFE0000000001FFFF80FFFFFFFFFFFFFC07FFFFFF0001FFFFF
310
F0001FFFFFFFFC0007F0001FFFFFFFFC0007FF0003FFFFFFFFFF0000000000FF
310
F000FC0000000003FFFFE0007F00078007F0003FFF80007FFC0000000007FFFF
310
C0000000007FFFF80FFFFFFFFFFFFFC07FFFFFF0001FFFFFF8001FFFFFFFFC00
310
0FF8001FFFFFFFFC000FFF0003FFFFFFFFFE0000000003FFF000FC000000000F
310
FFFFE0007F80070007F8001FFF80007FF8000000001FFFFF8000000001FFFFF8
310
0FFFFFFFFFFFFFC07FFFFFF0001FFFFFF8001FFFFFFFFC000FF8001FFFFFFFFC
310
000FFF0003FFFFFFFFFC000000000FFFF000F8000000007FFFFFE0007F800700
310
07F8001FFF80007FF000000000FFFFFF800000000FFFFFF80FFFFFFFFFFFFFC0
310
7FFFFFF0001FFFFFF8000FFFFFFFF8000FF8000FFFFFFFF8000FFF0003FFFFFF
310
FFFC000000007FFFF000F800000007FFFFFFC0007F8003000FF8001FFF80007F
310
F000000007FFFFFF000000007FFFFFF80FFFFFFFFFFFFFC07FFFFFF0001FFFFF
310
F8000FFFFFFFF8000FF8000FFFFFFFF8000FFF0003FFFFFFFFF80000000FFFFF
310
F000F0000000FFFFFFFFC000FF8003000FF8001FFF80007FE0000000FFFFFFFF
310
0000000FFFFFFFF8000001FFFE0000007FFFFFF0001FFFFFF8000FFFFFFFF800
310
0FF8000FFFFFFFF8000FFF0003FFFFFFFFF8000000FFFFFFF000F000000FFFFF
310
FFFFC000FFC002000FF8000FFF80007FE000001FFFFFFFFE000001FFFFFFFFF8
310
000001FFFE0000007FFFFFF0001FFFFFF8000FFFFFFFF8000FF8000FFFFFFFF8
310
000FFF0003FFFFFFFFF000001FFFFFFFF000E00000FFFFFFFFFFC000FFC00200
310
0FFC000FFF80007FE00001FFFFFFFFFE00001FFFFFFFFFF8000001FFFE000000
310
7FFFFFF0001FFFFFFC000FFFFFFFF8001FFC000FFFFFFFF8001FFF0003FFFFFF
310
FFF00001FFFFFFFFF000E00007FFFFFFFFFF8000FFC000001FFC000FFF80007F
310
C0000FFFFFFFFFFE0000FFFFFFFFFFF8000001FFFE0000007FFFFFF0001FFFFF
310
FC0007FFFFFFF0001FFC0007FFFFFFF0001FFF0003FFFFFFFFF00007FFFFFFFF
310
F000E0001FFFFFFFFFFF8000FFC000001FFC000FFF80007FC0003FFFFFFFFFFE
310
0001FFFFFFFFFFF8000001FFFE0000007FFFFFF0001FFFFFFC0007FFFFFFF000
310
1FFC0007FFFFFFF0001FFF0003FFFFFFFFF0001FFFFFFFFFF000E0003FFFFF00
310
03FF8001FFE000001FFC0007FF80007FC0007FFFFF0007FC0003FFFFF0003FF8
310
000001FFFE0000007FFFFFF0001FFFFFFC0003FFFFFFE0001FFC0003FFFFFFE0
310
001FFF0003FFFFFFFFF0003FFFFFFFFFF000E0003FFFFF0001FF8001FFE00000
310
1FFE0007FF80007FC0007FFFFE0003FC0007FFFFE0003FF8000001FFFE000000
310
7FFFFFF0001FFFFFFE0003FFFFFFE0003FFE0003FFFFFFE0003FFF0003FFFFFF
310
FFF0003FFFFF8001F000E0003FFFFF0001FF0001FFE000001FFE0007FF80007F
310
C0007FFFFE0003FC0007FFFFE0003FF8000001FFFE0000007FFFFFF0001FFFFF
310
FE0001FFFFFFC0003FFE0001FFFFFFC0003FFF0003FFFFFFFFF0003FFFFF0001
310
F000E0003FFFFF0003FF0001FFE000003FFE0007FF80007FC0007FFFFE0003FC
310
0007FFFFE0003FF8000001FFFE0000007FFFFFF0001FFFFFFF0001FFFFFFC000
310
7FFF0001FFFFFFC0007FFF0003FFFFFFFFF0003FFFFF0001F000E0003FFFFE00
310
03FF0003FFF000003FFE0003FF80007FC0007FFFFC0003FE0007FFFFE0003FF8
310
000001FFFE0000007FFFFFF0001FFFFFFF0000FFFFFF80007FFF0000FFFFFF80
310
007FFF0003FFFFFFFFF0003FFFFF0001F000E0003FFFFE0003FF0003FFF00000
310
3FFF0003FF80007FC0007FFFFC0007FE0007FFFFC0003FF8000001FFFE000000
310
7FFFFFF0001FFFFFFF80007FFFFF0000FFFF80007FFFFF0000FFFF0003FFFFFF
310
FFF0003FFFFF0003F000E0003FFFFC0003FE0003FFF000003FFF0003FF80007F
310
E0003FFFF80007FE0003FFFFC0007FF8000001FFFE0000007FFFFFF0001FFFFF
310
FF80003FFFFE0000FFFF80003FFFFE0000FFFF0003FFFFFFFFF0001FFFFE0003
310
F000F0001FFFF80003FE0003FFF000007FFF0001FF80007FE0003FFFF00007FE
310
0001FFFF80007FF8000001FFFE0000007FFFFFF0001FFFFFFFC0000FFFF80001
310
FFFFC0000FFFF80001FFFF0003FFFFFFFFF0001FFFFC0003F000F0000FFFF000
310
07FE0007FFF800007FFF0001FF80007FE0001FFFE00007FF0000FFFE00007FF8
310
000001FFFE0000007FFFFFF0001FFFFFFFC00003FFE00001FFFFC00003FFE000
310
01FFFF0003FFFFFFFFF8000FFFF80003F000F00003FFC00007FC0007FFF80000
310
7FFF8001FF80007FF00007FF80000FFF00007FF80000FFF8000001FFFE000000
310
7F80000000000001FFE000003E000003FFFFE000003E000003FFFF0003FFFFFF
310
FFF80003FFE00007F000F800000000000FFC0007FFF800007FFF8001FF80007F
310
F000000000000FFF000000000000FFF8000001FFFE0000007F80000000000001
310
FFF0000000000007FFFFF0000000000007FFFF0003FFFFFFFFFC00007E000007
310
F000F800000000000FFC0007FFF80000FFFF8000FF80007FF800000000001FFF
310
800000000001FFF8000001FFFE0000007F80000000000001FFF800000000000F
310
FFFFF800000000000FFFFF0003FFFFFFFFFC00000000000FF000FC0000000000
310
1FFC0007FFFC0000FFFF8000FF80007FF800000000003FFFC00000000001FFF8
310
000001FFFE0000007F80000000000001FFF800000000000FFFFFF80000000000
310
0FFFFF0003FFFFFFFFFE00000000001FF000FE00000000003FF8000FFFFC0000
310
FFFF8000FF80007FFC00000000003FFFC00000000003FFF8000001FFFE000000
310
7F80000000000001FFFC00000000001FFFFFFC00000000001FFFFF0003FFFFFF
310
FFFF00000000001FF000FF00000000003FF8000FFFFC0000FFFFC000FF80007F
310
FE00000000007FFFE00000000007FFF8000001FFFE0000007F80000000000001
310
FFFE00000000003FFFFFFE00000000003FFFFF0003FFFFFFFFFF80000000003F
310
F000FF80000000007FF8000FFFFC0001FFFFC0007F80007FFF0000000000FFFF
310
F0000000000FFFF800000000000000007F80000000000001FFFF8000000000FF
310
FFFFFF8000000000FFFFFF0003FFFFFFFFFFC0000000007FF000FFC000000000
310
FFF8000FFFFE0001FFFFC0007F80007FFF8000000001FFFFF8000000001FFFF8
310
00000000000000007F80000000000001FFFFC000000001FFFFFFFFC000000001
310
FFFFFF0003FFFFFFFFFFE000000000FFF000FFE000000003FFF0001FFFFE0001
310
FFFFC0007F80007FFFC000000007FFFFFE000000003FFFF80000000000000000
310
7F80000000000001FFFFE000000003FFFFFFFFE000000003FFFFFF0003FFFFFF
310
FFFFF000000003FFF000FFF80000000FFFF0001FFFFE0001FFFFE0007F80007F
310
FFF00000000FFFFFFF00000000FFFFF800000000000000007F80000000000001
310
FFFFF80000000FFFFFFFFFF80000000FFFFFFF0003FFFFFFFFFFFC0000000FFF
310
F000FFFE0000003FFFF0001FFFFE0003FFFFE0003F80007FFFFC0000003FFFFF
310
FFC0000003FFFFF800000000000000007F80000000000001FFFFFE0000003FFF
310
FFFFFFFE0000003FFFFFFF0003FFFFFFFFFFFF0000003FFFF000FFFF800000FF
310
FFF0001FFFFF0003FFFFE0003F80007FFFFF000001FFFFFFFFF800001FFFFFF8
310
00000000000000007F80000000000001FFFFFFC00001FFFFFFFFFFFFC00001FF
310
FFFFFF0003FFFFFFFFFFFFC00000FFFFF000FFFFF8000FFFFFFFFFFFFFFFFFFF
310
FFFFFFFFFFFFFFFFFFFFF0001FFFFFFFFFFF0000FFFFFFF80000000000000000
310
7FFFFFFFFFFFFFFFFFFFFFFC001FFFFFFFFFFFFFFC001FFFFFFFFFFFFFFFFFFF
310
FFFFFFFC001FFFFFF000FFFFFFFFFFFFFFFFFFFFFFFFFFFFFFFFFFFFFFFFFFFF
310
FFFFFFFFFFFFFFFFFFFFFFFFFFFFFFFFFFFFFFFFFFFFFFFFFFFFFFFFFFFFFFFF
310
FFFFFFFFFFFFFFFFFFFFFFFFFFFFFFFFFFFFFFFFFFFFFFFFFFFFFFFFFFFFFFFF
310
F000FFFFFFFFFFFFFFFFFFFFFFFFFFFFFFFFFFFFFFFFFFFFFFFFFFFFFFFFFFFF
310
FFFFFFFFFFFFFFFFFFFFFFFFFFFFFFFFFFFFFFFFFFFFFFFFFFFFFFFFFFFFFFFF
310
FFFFFFFFFFFFFFFFFFFFFFFFFFFFFFFFFFFFFFFFFFFFFFFFF000FFFFFFFFFFFF
310
FFFFFFFFFFFFFFFFFFFFFFFFFFFFFFFFFFFFFFFFFFFFFFFFFFFFFFFFFFFFFFFF
310
FFFFFFFFFFFFFFFFFFFFFFFFFFFFFFFFFFFFFFFFFFFFFFFFFFFFFFFFFFFFFFFF
310
FFFFFFFFFFFFFFFFFFFFFFFFFFFFFFFFF000FFFFFFFFFFFFFFFFFFFFFFFFFFFF
310
FFFFFFFFFFFFFFFFFFFFFFFFFFFFFFFFFFFFFFFFFFFFFFFFFFFFFFFFFFFFFFFF
310
FFFFFFFFFFFFFFFFFFFFFFFFFFFFFFFFFFFFFFFFFFFFFFFFFFFFFFFFFFFFFFFF
310
FFFFFFFFFFFFFFFFF000FFFFFFFFFFFFFFFFFFFFFFFFFFFFFFFFFFFFFFFFFFFF
310
FFFFFFFFFFFFFFFFFFFFFFFFFFFFFFFFFFFFFFFFFFFFFFFFFFFFFFFFFFFFFFFF
310
FFFFFFFFFFFFFFFFFFFFFFFFFFFFFFFFFFFFFFFFFFFFFFFFFFFFFFFFFFFFFFFF
310
F000FFFFFFFFFFFFFFFFFFFFFFFFFFFFFFFFFFFFFFFFFFFFFFFFFFFFFFFFFFFF
310
FFFFFFFFFFFFFFFFFFFFFFFFFFFFFFFFFFFFFFFFFFFFFFFFFFFFFFFFFFFFFFFF
310
FFFFFFFFFFFFFFFFFFFFFFFFFFFFFFFFFFFFFFFFFFFFFFFFF000FFFFFFFFFFFF
310
FFFFFFFFFFFFFFFFFFFFFFFFFFFFFFFFFFFFFFFFFFFFFFFFFFFFFFFFFFFFFFFF
310
FFFFFFFFFFFFFFFFFFFFFFFFFFFFFFFFFFFFFFFFFFFFFFFFFFFFFFFFFFFFFFFF
310
FFFFFFFFFFFFFFFFFFFFFFFFFFFFFFFFF000FFFFFFFFFFFFFFFFFFFFFFFFFFFF
310
FFFFFFFFFFFFFFFFFFFFFFFFFFFFFFFFFFFFFFFFFFFFFFFFFFFFFFFFFFFFFFFF
310
FFFFFFFFFFFFFFFFFFFFFFFFFFFFFFFFFFFFFFFFFFFFFFFFFFFFFFFFFFFFFFFF
310
FFFFFFFFFFFFFFFFF000FFFFFFFFFFFFFFFFFFFFFFFFFFFFFFFFFFFFFFFFFFFF
310
FFFFFFFFFFFFFFFFFFFFFFFFFFFFFFFFFFFFFFFFFFFFFFFFFFFFFFFFFFFFFFFF
310
FFFFFFFFFFFFFFFFFFFFFFFFFFFFFFFFFFFFFFFFFFFFFFFFFFFFFFFFFFFFFFFF
310
F000FFFFFFFFFFFFFFFFFFFFFFFFFFFFFFFFFFFFFFFFFFFFFFFFFFFFFFFFFFFF
310
FFFFFFFFFFFFFFFFFFFFFFFFFFFFFFFFFFFFFFFFFFFFFFFFFFFFFFFFFFFFFFFF
310
FFFFFFFFFFFFFFFFFFFFFFFFFFFFFFFFFFFFFFFFFFFFFFFFF000FFFFFFFFFFFF
310
FFFFFFFFFFFFFFFFFFFFFFFFFFFFFFFFFFFFFFFFFFFFFFFFFFFFFFFFFFFFFFFF
310
FFFFFFFFFFFFFFFFFFFFFFFFFFFFFFFFFFFFFFFFFFFFFFFFFFFFFFFFFFFFFFFF
310
FFFFFFFFFFFFFFFFFFFFFFFFFFFFFFFFF000FFFFFFFFFFFFFFFFFFFFFFFFFFFF
310
FFFFFFFFFFFFFFFFFFFFFFFFFFFFFFFFFFFFFFFFFFFFFFFFFFFFFFFFFFFFFFFF
310
FFFFFFFFFFFFFFFFFFFFFFFFFFFFFFFFFFFFFFFFFFFFFFFFFFFFFFFFFFFFFFFF
310
FFFFFFFFFFFFFFFFF000FFFFFFFFFFFFFFFFFFFFFFFFFFFFFFFFFFFFFFFFFFFF
310
FFFFFFFFFFFFFFFFFFFFFFFFFFFFFFFFFFFFFFFFFFFFFFFFFFFFFFFFFFFFFFFF
310
FFFFFFFFFFFFFFFFFFFFFFFFFFFFFFFFFFFFFFFFFFFFFFFFFFFFFFFFFFFFFFFF
310
F000FFFFFFFFFFFFFFFFFFFFFFFFFFFFFFFFFFFFFFFFFFFFFFFFFFFFFFFFFFFF
310
FFFFFFFFFFFFFFFFFFFFFFFFFFFFFFFFFFFFFFFFFFFFFFFFFFFFFFFFFFFFFFFF
310
FFFFFFFFFFFFFFFFFFFFFFFFFFFFFFFFFFFFFFFFFFFFFFFFF000FFFFFFFFFFFF
310
FFFFFFFFFFFFFFFFFFFFFFFFFFFFFFFFFFFFFFFFFFFFFFFFFFFFFFFFFFFFFFFF
310
FFFFFFFFFFFFFFFFFFFFFFFFFFFFFFFFFFFFFFFFFFFFFFFFFFFFFFFFFFFFFFFF
310
FFFFFFFFFFFFFFFFFFFFFFFFFFFFFFFFF000FFFFFFFFFFFFFFFFFFFFFFFFFFFF
310
FFFFFFFFFFFFFFFFFFFFFFFFFFFFFFFFFFFFFFFFFFFFFFFFFFFFFFFFFFFFFFFF
310
FFFFFFFFFFFFFFFFFFFFFFFFFFFFFFFFFFFFFFFFFFFFFFFFFFFFFFFFFFFFFFFF
310
FFFFFFFFFFFFFFFFF000FFFFFFFFFFFFFFFFFFFFFFFFFFFFFFFFFFFFFFFFFFFF
310
FFFFFFFFFFFFFFFFFFFFFFFFFFFFFFFFFFFFFFFFFFFFFFFFFFFFFFFFFFFFFFFF
310
FFFFFFFFFFFFFFFFFFFFFFFFFFFFFFFFFFFFFFFFFFFFFFFFFFFFFFFFFFFFFFFF
310
F000FFFFFFFFFFFFFFFFFFFFFFFFFFFFFFFFFFFFFFFFFFFFFFFFFFFFFFFFFFFF
310
FFFFFFFFFFFFFFFFFFFFFFFFFFFFFFFFFFFFFFFFFFFFFFFFFFFFFFFFFFFFFFFF
310
FFFFFFFFFFFFFFFFFFFFFFFFFFFFFFFFFFFFFFFFFFFFFFFFF000FFFFFFFFFFFF
310
FFFFFFFFFFFFFFFFFFFFFFFFFFFFFFFFFFFFFFFFFFFFFFFFFFFFFFFFFFFFFFFF
310
FFFFFFFFFFFFFFFFFFFFFFFFFFFFFFFFFFFFFFFFFFFFFFFFFFFFFFFFFFFFFFFF
310
FFFFFFFFFFFFFFFFFFFFFFFFFFFFFFFFF000FFFFFFFFFFFFFFFFFFFFFFFFFFFF
310
FFFFFFFFFFFFFFFFFFFFFFFFFFFFFFFFFFFFFFFFFFFFFFFFFFFFFFFFFFFFFFFF
310
FFFFFFFFFFFFFFFFFFFFFFFFFFFFFFFFFFFFFFFFFFFFFFFFFFFFFFFFFFFFFFFF
310
FFFFFFFFFFFFFFFFF000FFFFFFFFFFFFFFFFFFFFFFFFFFFFFFFFFFFFFFFFFFFF
310
FFFFFFFFFFFFFFFFFFFFFFFFFFFFFFFFFFFFFFFFFFFFFFFFFFFFFFFFFFFFFFFF
310
FFFFFFFFFFFFFFFFFFFFFFFFFFFFFFFFFFFFFFFFFFFFFFFFFFFFFFFFFFFFFFFF
310
F000FFFFFFFFFFFFFFFFFFFFFFFFFFFFFFFFFFFFFFFFFFFFFFFFFFFFFFFFFFFF
310
FFFFFFFFFFFFFFFFFFFFFFFFFFFFFFFFFFFFFFFFFFFFFFFFFFFFFFFFFFFFFFFF
310
FFFFFFFFFFFFFFFFFFFFFFFFFFFFFFFFFFFFFFFFFFFFFFFFF000FFFFFFFFFFFF
310
FFFFFFFFFFFFFFFFFFFFFFFFFFFFFFFFFFFFFFFFFFFFFFFFFFFFFFFFFFFFFFFF
310
FFFFFFFFFFFFFFFFFFFFFFFFFFFFFFFFFFFFFFFFFFFFFFFFFFFFFFFFFFFFFFFF
310
FFFFFFFFFFFFFFFFFFFFFFFFFFFFFFFFF0000000000000000000000000000000
310
0000000000000000000000000000000000000000000000000000000000000000
310
0000000000000000000000000000000000000000000000000000000000000000
310
0000000000000000000000000000000000000000000000000000000000000000
310
0000000000000000000000000000000000000000000000000000000000000000
310
0000000000000000000000000000000000000000000000000000000000000000
310
0000000000000000000000000000000000000000000000000000000000000000
310
0000000000000000000000000000000000000000000000000000000000000000
310
0000000000000000000000000000000000000000000000000000000000000000
310
0000000000000000000000000000000000000000000000000000000000000000
310
0000000000000000000000000000000000000000000000000000000000000000
310
0000000000000000000000000000000000000000000000000000000000000000
310
0000000000000000000000000000000000000000000000000000000000000000
310
0000000000000000000000000000000000000000000000000000000000000000
310
0000000000000000000000000000000000000000000000000000000000000000
310
0000000000000000000000000000000000000000000000000000000000000000
  1
OLE
  0
ENDSEC
  0
SECTION
  2
OBJECTS
  0
DICTIONARY
  5
C
330
0
100
AcDbDictionary
281
     1
  3
ACAD_GROUP
350
D
  3
ACAD_LAYOUT
350
1A
  3
ACAD_MLINESTYLE
350
17
  3
ACAD_PLOTSETTINGS
350
19
  3
ACAD_PLOTSTYLENAME
350
E
  3
ACAD_SCALELIST
350
47
  0
DICTIONARY
  5
D
102
{ACAD_REACTORS
330
C
102
}
330
C
100
AcDbDictionary
281
     1
  0
DICTIONARY
  5
1A
102
{ACAD_REACTORS
330
C
102
}
330
C
100
AcDbDictionary
281
     1
  3
Layout1
350
1E
  3
Layout2
350
26
  3
Model
350
22
  0
DICTIONARY
  5
17
102
{ACAD_REACTORS
330
C
102
}
330
C
100
AcDbDictionary
281
     1
  3
Standard
350
18
  0
DICTIONARY
  5
19
102
{ACAD_REACTORS
330
C
102
}
330
C
100
AcDbDictionary
281
     1
  0
ACDBDICTIONARYWDFLT
  5
E
102
{ACAD_REACTORS
330
C
102
}
330
C
100
AcDbDictionary
281
     1
  3
Normal
350
F
100
AcDbDictionaryWithDefault
340
F
  0
DICTIONARY
  5
47
102
{ACAD_REACTORS
330
C
102
}
330
C
100
AcDbDictionary
281
     1
  3
A0
350
48
  3
A1
350
49
  3
A2
350
4A
  3
A3
350
4B
  3
A4
350
4C
  3
A5
350
4D
  3
A6
350
4E
  3
A7
350
4F
  3
A8
350
50
  3
A9
350
51
  3
B0
350
52
  3
B1
350
53
  3
B2
350
54
  3
B3
350
55
  3
B4
350
56
  3
B5
350
57
  3
B6
350
58
  3
B7
350
59
  3
B8
350
5A
  3
B9
350
5B
  3
C0
350
5C
  3
C1
350
5D
  3
C2
350
5E
  3
C3
350
5F
  3
C4
350
60
  3
C5
350
61
  3
C6
350
62
  3
C7
350
63
  3
C8
350
64
  3
C9
350
65
  3
D0
350
66
  3
D1
350
67
  3
D2
350
68
  0
LAYOUT
  5
1E
102
{ACAD_REACTORS
330
1A
102
}
330
1A
100
AcDbPlotSettings
  1

  2
none_device
  4

  6

 40
0.0
 41
0.0
 42
0.0
 43
0.0
 44
0.0
 45
0.0
 46
0.0
 47
0.0
 48
0.0
 49
0.0
140
0.0
141
0.0
142
1.0
143
1.0
 70
   688
 72
     1
 73
     0
 74
     5
  7

 75
    16
147
1.0
148
0.0
149
0.0
100
AcDbLayout
  1
Layout1
 70
     1
 71
     1
 10
0.0
 20
0.0
 11
420.0
 21
297.0
 12
0.0
 22
0.0
 32
0.0
 14
1.0000000000E+20
 24
1.0000000000E+20
 34
1.0000000000E+20
 15
-1.0000000000E+20
 25
-1.0000000000E+20
 35
-1.0000000000E+20
146
0.0
 13
0.0
 23
0.0
 33
0.0
 16
1.0
 26
0.0
 36
0.0
 17
0.0
 27
1.0
 37
0.0
 76
     0
330
1B
  0
LAYOUT
  5
26
102
{ACAD_REACTORS
330
1A
102
}
330
1A
100
AcDbPlotSettings
  1

  2
none_device
  4

  6

 40
0.0
 41
0.0
 42
0.0
 43
0.0
 44
0.0
 45
0.0
 46
0.0
 47
0.0
 48
0.0
 49
0.0
140
0.0
141
0.0
142
1.0
143
1.0
 70
   688
 72
     1
 73
     0
 74
     5
  7

 75
    16
147
1.0
148
0.0
149
0.0
100
AcDbLayout
  1
Layout2
 70
     1
 71
     2
 10
0.0
 20
0.0
 11
0.0
 21
0.0
 12
0.0
 22
0.0
 32
0.0
 14
0.0
 24
0.0
 34
0.0
 15
0.0
 25
0.0
 35
0.0
146
0.0
 13
0.0
 23
0.0
 33
0.0
 16
1.0
 26
0.0
 36
0.0
 17
0.0
 27
1.0
 37
0.0
 76
     0
330
23
  0
LAYOUT
  5
22
102
{ACAD_REACTORS
330
1A
102
}
330
1A
100
AcDbPlotSettings
  1

  2
none_device
  4
Letter_(8.50_x_11.00_Inches)
  6

 40
6.35
 41
6.35
 42
6.35000508
 43
6.35000508
 44
215.9
 45
279.4
 46
0.0
 47
0.0
 48
0.0
 49
0.0
140
0.0
141
0.0
142
1.0
143
1.0
 70
  1712
 72
     1
 73
     0
 74
     0
  7

 75
     0
147
1.0
148
0.0
149
0.0
100
AcDbLayout
  1
Model
 70
     1
 71
     0
 10
0.0
 20
0.0
 11
297.0
 21
210.0
 12
0.0
 22
0.0
 32
0.0
 14
0.0
 24
0.0
 34
0.0
 15
297.0
 25
210.0
 35
0.0
146
0.0
 13
0.0
 23
0.0
 33
0.0
 16
1.0
 26
0.0
 36
0.0
 17
0.0
 27
1.0
 37
0.0
 76
     0
330
1F
331
29
  0
MLINESTYLE
  5
18
102
{ACAD_REACTORS
330
17
102
}
330
17
100
AcDbMlineStyle
  2
Standard
 70
     0
  3

 62
   256
 51
90.0
 52
90.0
 71
     2
 49
0.5
 62
   256
  6
BYLAYER
 49
-0.5
 62
   256
  6
BYLAYER
  0
ACDBPLACEHOLDER
  5
F
102
{ACAD_REACTORS
330
E
102
}
330
E
  0
SCALE
  5
48
102
{ACAD_REACTORS
330
47
102
}
330
47
100
AcDbScale
 70
     0
300
1:1
140
1.0
141
1.0
290
     1
  0
SCALE
  5
49
102
{ACAD_REACTORS
330
47
102
}
330
47
100
AcDbScale
 70
     0
300
1:2
140
1.0
141
2.0
290
     0
  0
SCALE
  5
4A
102
{ACAD_REACTORS
330
47
102
}
330
47
100
AcDbScale
 70
     0
300
1:4
140
1.0
141
4.0
290
     0
  0
SCALE
  5
4B
102
{ACAD_REACTORS
330
47
102
}
330
47
100
AcDbScale
 70
     0
300
1:5
140
1.0
141
5.0
290
     0
  0
SCALE
  5
4C
102
{ACAD_REACTORS
330
47
102
}
330
47
100
AcDbScale
 70
     0
300
1:8
140
1.0
141
8.0
290
     0
  0
SCALE
  5
4D
102
{ACAD_REACTORS
330
47
102
}
330
47
100
AcDbScale
 70
     0
300
1:10
140
1.0
141
10.0
290
     0
  0
SCALE
  5
4E
102
{ACAD_REACTORS
330
47
102
}
330
47
100
AcDbScale
 70
     0
300
1:16
140
1.0
141
16.0
290
     0
  0
SCALE
  5
4F
102
{ACAD_REACTORS
330
47
102
}
330
47
100
AcDbScale
 70
     0
300
1:20
140
1.0
141
20.0
290
     0
  0
SCALE
  5
50
102
{ACAD_REACTORS
330
47
102
}
330
47
100
AcDbScale
 70
     0
300
1:30
140
1.0
141
30.0
290
     0
  0
SCALE
  5
51
102
{ACAD_REACTORS
330
47
102
}
330
47
100
AcDbScale
 70
     0
300
1:40
140
1.0
141
40.0
290
     0
  0
SCALE
  5
52
102
{ACAD_REACTORS
330
47
102
}
330
47
100
AcDbScale
 70
     0
300
1:50
140
1.0
141
50.0
290
     0
  0
SCALE
  5
53
102
{ACAD_REACTORS
330
47
102
}
330
47
100
AcDbScale
 70
     0
300
1:100
140
1.0
141
100.0
290
     0
  0
SCALE
  5
54
102
{ACAD_REACTORS
330
47
102
}
330
47
100
AcDbScale
 70
     0
300
2:1
140
2.0
141
1.0
290
     0
  0
SCALE
  5
55
102
{ACAD_REACTORS
330
47
102
}
330
47
100
AcDbScale
 70
     0
300
4:1
140
4.0
141
1.0
290
     0
  0
SCALE
  5
56
102
{ACAD_REACTORS
330
47
102
}
330
47
100
AcDbScale
 70
     0
300
8:1
140
8.0
141
1.0
290
     0
  0
SCALE
  5
57
102
{ACAD_REACTORS
330
47
102
}
330
47
100
AcDbScale
 70
     0
300
10:1
140
10.0
141
1.0
290
     0
  0
SCALE
  5
58
102
{ACAD_REACTORS
330
47
102
}
330
47
100
AcDbScale
 70
     0
300
100:1
140
100.0
141
1.0
290
     0
  0
SCALE
  5
59
102
{ACAD_REACTORS
330
47
102
}
330
47
100
AcDbScale
 70
     0
300
1/128" = 1'-0"
140
0.0078125
141
12.0
290
     0
  0
SCALE
  5
5A
102
{ACAD_REACTORS
330
47
102
}
330
47
100
AcDbScale
 70
     0
300
1/64" = 1'-0"
140
0.015625
141
12.0
290
     0
  0
SCALE
  5
5B
102
{ACAD_REACTORS
330
47
102
}
330
47
100
AcDbScale
 70
     0
300
1/32" = 1'-0"
140
0.03125
141
12.0
290
     0
  0
SCALE
  5
5C
102
{ACAD_REACTORS
330
47
102
}
330
47
100
AcDbScale
 70
     0
300
1/16" = 1'-0"
140
0.0625
141
12.0
290
     0
  0
SCALE
  5
5D
102
{ACAD_REACTORS
330
47
102
}
330
47
100
AcDbScale
 70
     0
300
3/32" = 1'-0"
140
0.09375
141
12.0
290
     0
  0
SCALE
  5
5E
102
{ACAD_REACTORS
330
47
102
}
330
47
100
AcDbScale
 70
     0
300
1/8" = 1'-0"
140
0.125
141
12.0
290
     0
  0
SCALE
  5
5F
102
{ACAD_REACTORS
330
47
102
}
330
47
100
AcDbScale
 70
     0
300
3/16" = 1'-0"
140
0.1875
141
12.0
290
     0
  0
SCALE
  5
60
102
{ACAD_REACTORS
330
47
102
}
330
47
100
AcDbScale
 70
     0
300
1/4" = 1'-0"
140
0.25
141
12.0
290
     0
  0
SCALE
  5
61
102
{ACAD_REACTORS
330
47
102
}
330
47
100
AcDbScale
 70
     0
300
3/8" = 1'-0"
140
0.375
141
12.0
290
     0
  0
SCALE
  5
62
102
{ACAD_REACTORS
330
47
102
}
330
47
100
AcDbScale
 70
     0
300
1/2" = 1'-0"
140
0.5
141
12.0
290
     0
  0
SCALE
  5
63
102
{ACAD_REACTORS
330
47
102
}
330
47
100
AcDbScale
 70
     0
300
3/4" = 1'-0"
140
0.75
141
12.0
290
     0
  0
SCALE
  5
64
102
{ACAD_REACTORS
330
47
102
}
330
47
100
AcDbScale
 70
     0
300
1" = 1'-0"
140
1.0
141
12.0
290
     0
  0
SCALE
  5
65
102
{ACAD_REACTORS
330
47
102
}
330
47
100
AcDbScale
 70
     0
300
1-1/2" = 1'-0"
140
1.5
141
12.0
290
     0
  0
SCALE
  5
66
102
{ACAD_REACTORS
330
47
102
}
330
47
100
AcDbScale
 70
     0
300
3" = 1'-0"
140
3.0
141
12.0
290
     0
  0
SCALE
  5
67
102
{ACAD_REACTORS
330
47
102
}
330
47
100
AcDbScale
 70
     0
300
6" = 1'-0"
140
6.0
141
12.0
290
     0
  0
SCALE
  5
68
102
{ACAD_REACTORS
330
47
102
}
330
47
100
AcDbScale
 70
     0
300
1'-0" = 1'-0"
140
12.0
141
12.0
290
     0
  0
ENDSEC
  0
EOF
