  0
SECTION
  2
HEADER
  9
$ACADVER
  1
AC1015
  9
$ACADMAINTVER
 70
     6
  9
$DWGCODEPAGE
  3
ANSI_1252
  9
$INSBASE
 10
0.0
 20
0.0
 30
0.0
  9
$EXTMIN
 10
0.0
 20
0.0
 30
0.0
  9
$EXTMAX
 10
297.0
 20
210.0
 30
0.0
  9
$LIMMIN
 10
0.0
 20
0.0
  9
$LIMMAX
 10
297.0
 20
210.0
  9
$ORTHOMODE
 70
     0
  9
$REGENMODE
 70
     1
  9
$FILLMODE
 70
     1
  9
$QTEXTMODE
 70
     0
  9
$MIRRTEXT
 70
     1
  9
$LTSCALE
 40
1.0
  9
$ATTMODE
 70
     1
  9
$TEXTSIZE
 40
2.0
  9
$TRACEWID
 40
1.0
  9
$TEXTSTYLE
  7
Standard
  9
$CLAYER
  8
0
  9
$CELTYPE
  6
ByLayer
  9
$CECOLOR
 62
   256
  9
$CELTSCALE
 40
1.0
  9
$DISPSILH
 70
     0
  9
$DIMSCALE
 40
1.0
  9
$DIMASZ
 40
3.0
  9
$DIMEXO
 40
0.0
  9
$DIMDLI
 40
3.75
  9
$DIMRND
 40
0.0
  9
$DIMDLE
 40
0.0
  9
$DIMEXE
 40
1.0
  9
$DIMTP
 40
0.0
  9
$DIMTM
 40
0.0
  9
$DIMTXT
 40
2.0
  9
$DIMCEN
 40
2.5
  9
$DIMTSZ
 40
0.0
  9
$DIMTOL
 70
     0
  9
$DIMLIM
 70
     0
  9
$DIMTIH
 70
     1
  9
$DIMTOH
 70
     1
  9
$DIMSE1
 70
     0
  9
$DIMSE2
 70
     0
  9
$DIMTAD
 70
     1
  9
$DIMZIN
 70
     0
  9
$DIMBLK
  1

  9
$DIMASO
 70
     1
  9
$DIMSHO
 70
     1
  9
$DIMPOST
  1

  9
$DIMAPOST
  1

  9
$DIMALT
 70
     0
  9
$DIMALTD
 70
     3
  9
$DIMALTF
 40
0.0393700787
  9
$DIMLFAC
 40
1.0
  9
$DIMTOFL
 70
     1
  9
$DIMTVP
 40
0.0
  9
$DIMTIX
 70
     0
  9
$DIMSOXD
 70
     0
  9
$DIMSAH
 70
     0
  9
$DIMBLK1
  1

  9
$DIMBLK2
  1

  9
$DIMSTYLE
  2
ISO-25
  9
$DIMCLRD
 70
     0
  9
$DIMCLRE
 70
     0
  9
$DIMCLRT
 70
     0
  9
$DIMTFAC
 40
1.0
  9
$DIMGAP
 40
1.524
  9
$DIMJUST
 70
     0
  9
$DIMSD1
 70
     0
  9
$DIMSD2
 70
     0
  9
$DIMTOLJ
 70
     0
  9
$DIMTZIN
 70
     0
  9
$DIMALTZ
 70
     0
  9
$DIMALTTZ
 70
     0
  9
$DIMUPT
 70
     0
  9
$DIMDEC
 70
     2
  9
$DIMTDEC
 70
     3
  9
$DIMALTU
 70
     2
  9
$DIMALTTD
 70
     3
  9
$DIMTXSTY
  7
Standard
  9
$DIMAUNIT
 70
     0
  9
$DIMADEC
 70
     2
  9
$DIMALTRND
 40
0.0
  9
$DIMAZIN
 70
     0
  9
$DIMDSEP
 70
    44
  9
$DIMATFIT
 70
     3
  9
$DIMFRAC
 70
     0
  9
$DIMLDRBLK
  1

  9
$DIMLUNIT
 70
     2
  9
$DIMLWD
 70
    -2
  9
$DIMLWE
 70
    -2
  9
$DIMTMOVE
 70
     0
  9
$LUNITS
 70
     2
  9
$LUPREC
 70
     2
  9
$SKETCHINC
 40
1.0
  9
$FILLETRAD
 40
10.0
  9
$AUNITS
 70
     0
  9
$AUPREC
 70
     2
  9
$MENU
  1
.
  9
$ELEVATION
 40
0.0
  9
$PELEVATION
 40
0.0
  9
$THICKNESS
 40
0.0
  9
$LIMCHECK
 70
     0
  9
$CHAMFERA
 40
0.0
  9
$CHAMFERB
 40
0.0
  9
$CHAMFERC
 40
0.0
  9
$CHAMFERD
 40
0.0
  9
$SKPOLY
 70
     0
  9
$TDCREATE
 40
2457662.419254977
  9
$TDUCREATE
 40
2457662.335921643
  9
$TDUPDATE
 40
2457662.419256088
  9
$TDUUPDATE
 40
2457662.335922755
  9
$TDINDWG
 40
0.0000000116
  9
$TDUSRTIMER
 40
0.0000000116
  9
$USRTIMER
 70
     1
  9
$ANGBASE
 50
0.0
  9
$ANGDIR
 70
     0
  9
$PDMODE
 70
     0
  9
$PDSIZE
 40
-1.0
  9
$PLINEWID
 40
0.0
  9
$SPLFRAME
 70
     0
  9
$SPLINETYPE
 70
     6
  9
$SPLINESEGS
 70
     8
  9
$HANDSEED
  5
204
  9
$SURFTAB1
 70
     6
  9
$SURFTAB2
 70
     6
  9
$SURFTYPE
 70
     6
  9
$SURFU
 70
     6
  9
$SURFV
 70
     6
  9
$UCSBASE
  2

  9
$UCSNAME
  2

  9
$UCSORG
 10
0.0
 20
0.0
 30
0.0
  9
$UCSXDIR
 10
1.0
 20
0.0
 30
0.0
  9
$UCSYDIR
 10
0.0
 20
1.0
 30
0.0
  9
$UCSORTHOREF
  2

  9
$UCSORTHOVIEW
 70
     0
  9
$UCSORGTOP
 10
0.0
 20
0.0
 30
0.0
  9
$UCSORGBOTTOM
 10
0.0
 20
0.0
 30
0.0
  9
$UCSORGLEFT
 10
0.0
 20
0.0
 30
0.0
  9
$UCSORGRIGHT
 10
0.0
 20
0.0
 30
0.0
  9
$UCSORGFRONT
 10
0.0
 20
0.0
 30
0.0
  9
$UCSORGBACK
 10
0.0
 20
0.0
 30
0.0
  9
$PUCSBASE
  2

  9
$PUCSNAME
  2

  9
$PUCSORG
 10
0.0
 20
0.0
 30
0.0
  9
$PUCSXDIR
 10
1.0
 20
0.0
 30
0.0
  9
$PUCSYDIR
 10
0.0
 20
1.0
 30
0.0
  9
$PUCSORTHOREF
  2

  9
$PUCSORTHOVIEW
 70
     0
  9
$PUCSORGTOP
 10
0.0
 20
0.0
 30
0.0
  9
$PUCSORGBOTTOM
 10
0.0
 20
0.0
 30
0.0
  9
$PUCSORGLEFT
 10
0.0
 20
0.0
 30
0.0
  9
$PUCSORGRIGHT
 10
0.0
 20
0.0
 30
0.0
  9
$PUCSORGFRONT
 10
0.0
 20
0.0
 30
0.0
  9
$PUCSORGBACK
 10
0.0
 20
0.0
 30
0.0
  9
$USERI1
 70
     0
  9
$USERI2
 70
     0
  9
$USERI3
 70
     0
  9
$USERI4
 70
     0
  9
$USERI5
 70
     0
  9
$USERR1
 40
0.0
  9
$USERR2
 40
0.0
  9
$USERR3
 40
0.0
  9
$USERR4
 40
0.0
  9
$USERR5
 40
0.0
  9
$WORLDVIEW
 70
     1
  9
$SHADEDGE
 70
     3
  9
$SHADEDIF
 70
    70
  9
$TILEMODE
 70
     1
  9
$MAXACTVP
 70
    64
  9
$PINSBASE
 10
0.0
 20
0.0
 30
0.0
  9
$PLIMCHECK
 70
     0
  9
$PEXTMIN
 10
1.0000000000E+20
 20
1.0000000000E+20
 30
1.0000000000E+20
  9
$PEXTMAX
 10
-1.0000000000E+20
 20
-1.0000000000E+20
 30
-1.0000000000E+20
  9
$PLIMMIN
 10
0.0
 20
0.0
  9
$PLIMMAX
 10
420.0
 20
297.0
  9
$UNITMODE
 70
     0
  9
$VISRETAIN
 70
     1
  9
$PLINEGEN
 70
     0
  9
$PSLTSCALE
 70
     1
  9
$TREEDEPTH
 70
  3020
  9
$CMLSTYLE
  2
Standard
  9
$CMLJUST
 70
     0
  9
$CMLSCALE
 40
20.0
  9
$PROXYGRAPHICS
 70
     1
  9
$MEASUREMENT
 70
     1
  9
$CELWEIGHT
370
    -1
  9
$ENDCAPS
280
     0
  9
$JOINSTYLE
280
     0
  9
$LWDISPLAY
290
     1
  9
$INSUNITS
 70
     4
  9
$HYPERLINKBASE
  1

  9
$STYLESHEET
  1

  9
$XEDIT
290
     1
  9
$CEPSNTYPE
380
     0
  9
$PSTYLEMODE
290
     1
  9
$FINGERPRINTGUID
  2
{A7745231-4784-43A9-9813-EB8FA77C9D10}
  9
$VERSIONGUID
  2
{FAEB1C32-E019-11D5-929B-00C0DF256EC4}
  9
$EXTNAMES
290
     1
  9
$PSVPSCALE
 40
0.0
  9
$OLESTARTUP
290
     0
  0
ENDSEC
  0
SECTION
  2
CLASSES
  0
CLASS
  1
ACDBDICTIONARYWDFLT
  2
AcDbDictionaryWithDefault
  3
ObjectDBX Classes
 90
        0
280
     0
281
     0
  0
CLASS
  1
VISUALSTYLE
  2
AcDbVisualStyle
  3
ObjectDBX Classes
 90
     4095
280
     0
281
     0
  0
CLASS
  1
MATERIAL
  2
AcDbMaterial
  3
ObjectDBX Classes
 90
     1153
280
     0
281
     0
  0
CLASS
  1
SCALE
  2
AcDbScale
  3
ObjectDBX Classes
 90
     1153
280
     0
281
     0
  0
CLASS
  1
TABLESTYLE
  2
AcDbTableStyle
  3
ObjectDBX Classes
 90
     4095
280
     0
281
     0
  0
CLASS
  1
MLEADERSTYLE
  2
AcDbMLeaderStyle
  3
ACDB_MLEADERSTYLE_CLASS
 90
     4095
280
     0
281
     0
  0
CLASS
  1
SUN
  2
AcDbSun
  3
SCENEOE
 90
     1153
280
     0
281
     0
  0
CLASS
  1
ACDBPLACEHOLDER
  2
AcDbPlaceHolder
  3
ObjectDBX Classes
 90
        0
280
     0
281
     0
  0
CLASS
  1
LAYOUT
  2
AcDbLayout
  3
ObjectDBX Classes
 90
        0
280
     0
281
     0
  0
ENDSEC
  0
SECTION
  2
TABLES
  0
TABLE
  2
VPORT
  5
8
330
0
100
AcDbSymbolTable
 70
     1
  0
VPORT
  5
29
330
8
100
AcDbSymbolTableRecord
100
AcDbViewportTableRecord
  2
*Active
 70
     0
 10
0.0
 20
0.0
 11
1.0
 21
1.0
 12
148.5
 22
105.0
 13
0.0
 23
0.0
 14
10.0
 24
10.0
 15
10.0
 25
10.0
 16
0.0
 26
0.0
 36
1.0
 17
0.0
 27
0.0
 37
0.0
 40
210.0
 41
1.4142857143
 42
50.0
 43
0.0
 44
0.0
 50
0.0
 51
0.0
 71
     0
 72
  2000
 73
     1
 74
     3
 75
     0
 76
     0
 77
     0
 78
     0
281
     0
 65
     1
110
0.0
120
0.0
130
0.0
111
1.0
121
0.0
131
0.0
112
0.0
122
1.0
132
0.0
 79
     0
146
0.0
  0
ENDTAB
  0
TABLE
  2
LTYPE
  5
5
330
0
100
AcDbSymbolTable
 70
     6
  0
LTYPE
  5
14
330
5
100
AcDbSymbolTableRecord
100
AcDbLinetypeTableRecord
  2
ByBlock
 70
     0
  3

 72
    65
 73
     0
 40
0.0
  0
LTYPE
  5
15
330
5
100
AcDbSymbolTableRecord
100
AcDbLinetypeTableRecord
  2
ByLayer
 70
     0
  3

 72
    65
 73
     0
 40
0.0
  0
LTYPE
  5
16
330
5
100
AcDbSymbolTableRecord
100
AcDbLinetypeTableRecord
  2
Continuous
 70
     0
  3
Solid line
 72
    65
 73
     0
 40
0.0
  0
LTYPE
  5
6E
330
5
100
AcDbSymbolTableRecord
100
AcDbLinetypeTableRecord
  2
HIDDEN
 70
     0
  3
Hidden __ __ __ __ __ __ __ __ __ __ __ __ __ __
 72
    65
 73
     2
 40
1.905
 49
1.27
 74
     0
 49
-0.635
 74
     0
  0
LTYPE
  5
6F
330
5
100
AcDbSymbolTableRecord
100
AcDbLinetypeTableRecord
  2
PHANTOM
 70
     0
  3
Phantom ______  __  __  ______  __  __  ______
 72
    65
 73
     6
 40
12.7
 49
6.35
 74
     0
 49
-1.27
 74
     0
 49
1.27
 74
     0
 49
-1.27
 74
     0
 49
1.27
 74
     0
 49
-1.27
 74
     0
  0
LTYPE
  5
70
330
5
100
AcDbSymbolTableRecord
100
AcDbLinetypeTableRecord
  2
CENTER
 70
     0
  3
Center ____ _ ____ _ ____ _ ____ _ ____ _ ____
 72
    65
 73
     4
 40
10.16
 49
6.35
 74
     0
 49
-1.27
 74
     0
 49
1.27
 74
     0
 49
-1.27
 74
     0
  0
LTYPE
  5
71
330
5
100
AcDbSymbolTableRecord
100
AcDbLinetypeTableRecord
  2
CENTERX2
 70
     0
  3
Center (2x) ________  __  ________  __  _____
 72
    65
 73
     4
 40
20.32
 49
12.7
 74
     0
 49
-2.54
 74
     0
 49
2.54
 74
     0
 49
-2.54
 74
     0
  0
LTYPE
  5
72
330
5
100
AcDbSymbolTableRecord
100
AcDbLinetypeTableRecord
  2
DOT2
 70
     0
  3
Dot (.5x) ........................................
 72
    65
 73
     2
 40
0.635
 49
0.0
 74
     0
 49
-0.635
 74
     0
  0
ENDTAB
  0
TABLE
  2
LAYER
  5
2
330
0
100
AcDbSymbolTable
 70
     5
  0
LAYER
  5
10
330
2
100
AcDbSymbolTableRecord
100
AcDbLayerTableRecord
  2
0
 70
     0
 62
     7
  6
Continuous
370
    -3
390
F
  0
LAYER
  5
73
330
2
100
AcDbSymbolTableRecord
100
AcDbLayerTableRecord
  2
FORMAT
 70
     0
 62
     7
  6
Continuous
370
    -3
390
F
  0
LAYER
  5
74
330
2
100
AcDbSymbolTableRecord
100
AcDbLayerTableRecord
  2
VERMASSUNG
 70
     0
 62
     7
  6
Continuous
370
    -3
390
F
  0
LAYER
  5
75
330
2
100
AcDbSymbolTableRecord
100
AcDbLayerTableRecord
  2
KOPF_DÜNN
 70
     0
 62
     7
  6
Continuous
370
    -3
390
F
  0
LAYER
  5
76
330
2
100
AcDbSymbolTableRecord
100
AcDbLayerTableRecord
  2
KOPF_DICK
 70
     0
 62
     7
  6
Continuous
370
    15
390
F
  0
ENDTAB
  0
TABLE
  2
STYLE
  5
3
330
0
100
AcDbSymbolTable
 70
     2
  0
STYLE
  5
11
330
3
100
AcDbSymbolTableRecord
100
AcDbTextStyleTableRecord
  2
Standard
 70
     0
 40
0.0
 41
1.0
 50
0.0
 71
     0
 42
2.0
  3
txt
  4

  0
STYLE
  5
77
330
3
100
AcDbSymbolTableRecord
100
AcDbTextStyleTableRecord
  2
SLDTEXTSTYLE0
 70
     0
 40
0.0
 41
0.7
 50
0.0
 71
     0
 42
2.0
  3
TXT
  4

  0
ENDTAB
  0
TABLE
  2
VIEW
  5
6
330
0
100
AcDbSymbolTable
 70
     0
  0
ENDTAB
  0
TABLE
  2
UCS
  5
7
330
0
100
AcDbSymbolTable
 70
     0
  0
ENDTAB
  0
TABLE
  2
APPID
  5
9
330
0
100
AcDbSymbolTable
 70
     1
  0
APPID
  5
12
330
9
100
AcDbSymbolTableRecord
100
AcDbRegAppTableRecord
  2
ACAD
 70
     0
  0
ENDTAB
  0
TABLE
  2
DIMSTYLE
  5
A
330
0
100
AcDbSymbolTable
 70
     3
100
AcDbDimStyleTable
  0
DIMSTYLE
105
27
330
A
100
AcDbSymbolTableRecord
100
AcDbDimStyleTableRecord
  2
ISO-25
 70
     0
 41
2.5
 42
0.625
 43
3.75
 44
1.25
 73
     0
 74
     0
 77
     1
 78
     8
140
2.5
141
2.5
143
0.0393700787
147
0.625
171
     3
172
     1
178
     0
271
     2
272
     2
274
     3
278
    44
283
     0
284
     8
340
11
  0
DIMSTYLE
105
114
102
{ACAD_REACTORS
330
113
102
}
330
A
100
AcDbSymbolTableRecord
100
AcDbDimStyleTableRecord
  2
SLDDIMSTYLE0
 70
     0
 41
3.0
 44
0.0
 45
0.000000001
 73
     0
 74
     0
 77
     1
 78
    12
 79
     3
140
2.0
147
0.5
173
     1
178
     0
271
     3
272
     3
276
     2
284
    12
340
77
  0
DIMSTYLE
105
121
102
{ACAD_REACTORS
330
120
330
12C
330
136
330
142
330
14E
102
}
330
A
100
AcDbSymbolTableRecord
100
AcDbDimStyleTableRecord
  2
SLDDIMSTYLE1
 70
     0
 41
3.0
 44
0.0
 45
0.000000001
 73
     0
 74
     0
 77
     1
 78
    12
 79
     3
140
2.0
147
0.5
173
     1
178
     0
271
     2
272
     3
276
     2
284
    12
340
77
  0
ENDTAB
  0
TABLE
  2
BLOCK_RECORD
  5
1
330
0
100
AcDbSymbolTable
 70
     7
  0
BLOCK_RECORD
  5
1F
330
1
100
AcDbSymbolTableRecord
100
AcDbBlockTableRecord
  2
*Model_Space
340
22
  0
BLOCK_RECORD
  5
1B
330
1
100
AcDbSymbolTableRecord
100
AcDbBlockTableRecord
  2
*Paper_Space
340
1E
  0
BLOCK_RECORD
  5
23
330
1
100
AcDbSymbolTableRecord
100
AcDbBlockTableRecord
  2
*Paper_Space0
340
26
  0
BLOCK_RECORD
  5
115
330
1
100
AcDbSymbolTableRecord
100
AcDbBlockTableRecord
  2
_D
340
0
  0
BLOCK_RECORD
  5
122
330
1
100
AcDbSymbolTableRecord
100
AcDbBlockTableRecord
  2
_D_1
340
0
  0
BLOCK_RECORD
  5
12D
330
1
100
AcDbSymbolTableRecord
100
AcDbBlockTableRecord
  2
_D_2
340
0
  0
BLOCK_RECORD
  5
137
330
1
100
AcDbSymbolTableRecord
100
AcDbBlockTableRecord
  2
_D_3
340
0
  0
BLOCK_RECORD
  5
143
330
1
100
AcDbSymbolTableRecord
100
AcDbBlockTableRecord
  2
_D_4
340
0
  0
BLOCK_RECORD
  5
14F
330
1
100
AcDbSymbolTableRecord
100
AcDbBlockTableRecord
  2
_D_5
340
0
  0
ENDTAB
  0
ENDSEC
  0
SECTION
  2
BLOCKS
  0
BLOCK
  5
20
330
1F
100
AcDbEntity
  8
0
100
AcDbBlockBegin
  2
*Model_Space
 70
     0
 10
0.0
 20
0.0
 30
0.0
  3
*Model_Space
  1

  0
ENDBLK
  5
21
330
1F
100
AcDbEntity
  8
0
100
AcDbBlockEnd
  0
BLOCK
  5
1C
330
1B
100
AcDbEntity
 67
     1
  8
0
100
AcDbBlockBegin
  2
*Paper_Space
 70
     0
 10
0.0
 20
0.0
 30
0.0
  3
*Paper_Space
  1

  0
ENDBLK
  5
1D
330
1B
100
AcDbEntity
 67
     1
  8
0
100
AcDbBlockEnd
  0
BLOCK
  5
24
330
23
100
AcDbEntity
  8
0
100
AcDbBlockBegin
  2
*Paper_Space0
 70
     0
 10
0.0
 20
0.0
 30
0.0
  3
*Paper_Space0
  1

  0
ENDBLK
  5
25
330
23
100
AcDbEntity
  8
0
100
AcDbBlockEnd
  0
BLOCK
  5
116
330
115
100
AcDbEntity
  8
0
100
AcDbBlockBegin
  2
_D
 70
     0
 10
0.0
 20
0.0
 30
0.0
  3
_D
  1

  0
SOLID
  5
118
330
115
100
AcDbEntity
  8
VERMASSUNG
100
AcDbTrace
 10
76.8025476582
 20
76.655444744
 30
0.0
 11
77.2525476582
 21
79.655444744
 31
0.0
 12
76.3525476582
 22
79.655444744
 32
0.0
 13
76.3525476582
 23
79.655444744
 33
0.0
  0
SOLID
  5
119
330
115
100
AcDbEntity
  8
VERMASSUNG
100
AcDbTrace
 10
76.8025476582
 20
140.155444744
 30
0.0
 11
76.3525476582
 21
137.155444744
 31
0.0
 12
77.2525476582
 22
137.155444744
 32
0.0
 13
77.2525476582
 23
137.155444744
 33
0.0
  0
LINE
  5
11A
330
115
100
AcDbEntity
  8
VERMASSUNG
100
AcDbLine
 10
169.9353222651
 20
76.655444744
 30
0.0
 11
75.8025476582
 21
76.655444744
 31
0.0
  0
LINE
  5
11B
330
115
100
AcDbEntity
  8
VERMASSUNG
100
AcDbLine
 10
169.9353222651
 20
140.155444744
 30
0.0
 11
75.8025476582
 21
140.155444744
 31
0.0
  0
LINE
  5
11C
330
115
100
AcDbEntity
  8
VERMASSUNG
100
AcDbLine
 10
76.8025476582
 20
76.655444744
 30
0.0
 11
76.8025476582
 21
140.155444744
 31
0.0
  0
MTEXT
  5
11D
330
115
100
AcDbEntity
  8
VERMASSUNG
100
AcDbMText
 10
74.0244124019
 20
99.101752674
 30
0.0
 40
2.0
 41
0.0
 71
     1
 72
     1
  1
CAT 40
  7
SLDTEXTSTYLE0
 11
3.391901413832837E-15
 21
1.0
 31
0.0
 73
     1
 44
1.0
  0
MTEXT
  5
11E
330
115
100
AcDbEntity
  8
VERMASSUNG
100
AcDbMText
 10
74.2244123532
 20
109.3017521107
 30
0.0
 40
2.0
 41
0.0
 71
     1
 72
     1
  1
%%c
  7
SLDTEXTSTYLE0
 11
3.391901413832837E-15
 21
1.0
 31
0.0
 73
     1
 44
1.0
  0
MTEXT
  5
11F
330
115
100
AcDbEntity
  8
VERMASSUNG
100
AcDbMText
 10
74.2244120622
 20
112.911145053
 30
0.0
 40
2.0
 41
0.0
 71
     1
 72
     1
  1
63.5
  7
SLDTEXTSTYLE0
 11
3.391901413832837E-15
 21
1.0
 31
0.0
 73
     1
 44
1.0
  0
ENDBLK
  5
117
330
115
100
AcDbEntity
  8
0
100
AcDbBlockEnd
  0
BLOCK
  5
123
330
122
100
AcDbEntity
  8
0
100
AcDbBlockBegin
  2
_D_1
 70
     0
 10
0.0
 20
0.0
 30
0.0
  3
_D_1
  1

  0
SOLID
  5
125
330
122
100
AcDbEntity
  8
VERMASSUNG
100
AcDbTrace
 10
214.1058215261
 20
115.405444744
 30
0.0
 11
213.6558215261
 21
112.405444744
 31
0.0
 12
214.5558215261
 22
112.405444744
 32
0.0
 13
214.5558215261
 23
112.405444744
 33
0.0
  0
SOLID
  5
126
330
122
100
AcDbEntity
  8
VERMASSUNG
100
AcDbTrace
 10
214.1058215261
 20
101.405444744
 30
0.0
 11
214.5558215261
 21
104.405444744
 31
0.0
 12
213.6558215261
 22
104.405444744
 32
0.0
 13
213.6558215261
 23
104.405444744
 33
0.0
  0
LINE
  5
127
330
122
100
AcDbEntity
  8
VERMASSUNG
100
AcDbLine
 10
200.5853222651
 20
115.405444744
 30
0.0
 11
215.1058215261
 21
115.405444744
 31
0.0
  0
LINE
  5
128
330
122
100
AcDbEntity
  8
VERMASSUNG
100
AcDbLine
 10
200.5853222651
 20
101.405444744
 30
0.0
 11
215.1058215261
 21
101.405444744
 31
0.0
  0
LINE
  5
129
330
122
100
AcDbEntity
  8
VERMASSUNG
100
AcDbLine
 10
214.1058215261
 20
115.405444744
 30
0.0
 11
214.1058215261
 21
101.405444744
 31
0.0
  0
MTEXT
  5
12A
330
122
100
AcDbEntity
  8
VERMASSUNG
100
AcDbMText
 10
211.5276859884
 20
105.3016404186
 30
0.0
 40
2.0
 41
0.0
 71
     1
 72
     1
  1
%%c
  7
SLDTEXTSTYLE0
 11
-7.044195017643634E-15
 21
1.0
 31
0.0
 73
     1
 44
1.0
  0
MTEXT
  5
12B
330
122
100
AcDbEntity
  8
VERMASSUNG
100
AcDbMText
 10
211.5276859302
 20
108.9106126122
 30
0.0
 40
2.0
 41
0.0
 71
     1
 72
     1
  1
14
  7
SLDTEXTSTYLE0
 11
-7.044195017643634E-15
 21
1.0
 31
0.0
 73
     1
 44
1.0
  0
ENDBLK
  5
124
330
122
100
AcDbEntity
  8
0
100
AcDbBlockEnd
  0
BLOCK
  5
12E
330
12D
100
AcDbEntity
  8
0
100
AcDbBlockBegin
  2
_D_2
 70
     0
 10
0.0
 20
0.0
 30
0.0
  3
_D_2
  1

  0
SOLID
  5
130
330
12D
100
AcDbEntity
  8
VERMASSUNG
100
AcDbTrace
 10
151.4853222651
 20
146.0267928714
 30
0.0
 11
154.4853222651
 21
145.5767928714
 31
0.0
 12
154.4853222651
 22
146.4767928714
 32
0.0
 13
154.4853222651
 23
146.4767928714
 33
0.0
  0
SOLID
  5
131
330
12D
100
AcDbEntity
  8
VERMASSUNG
100
AcDbTrace
 10
207.4853222651
 20
146.0267928714
 30
0.0
 11
204.4853222651
 21
146.4767928714
 31
0.0
 12
204.4853222651
 22
145.5767928714
 32
0.0
 13
204.4853222651
 23
145.5767928714
 33
0.0
  0
LINE
  5
132
330
12D
100
AcDbEntity
  8
VERMASSUNG
100
AcDbLine
 10
151.4853222651
 20
130.630444744
 30
0.0
 11
151.4853222651
 21
147.0267928714
 31
0.0
  0
LINE
  5
133
330
12D
100
AcDbEntity
  8
VERMASSUNG
100
AcDbLine
 10
207.4853222651
 20
120.705444744
 30
0.0
 11
207.4853222651
 21
147.0267928714
 31
0.0
  0
LINE
  5
134
330
12D
100
AcDbEntity
  8
VERMASSUNG
100
AcDbLine
 10
151.4853222651
 20
146.0267928714
 30
0.0
 11
207.4853222651
 21
146.0267928714
 31
0.0
  0
MTEXT
  5
135
330
12D
100
AcDbEntity
  8
VERMASSUNG
100
AcDbMText
 10
178.0856322548
 20
148.6049284673
 30
0.0
 40
2.0
 41
0.0
 71
     1
 72
     1
  1
56
  7
SLDTEXTSTYLE0
 73
     1
 44
1.0
  0
ENDBLK
  5
12F
330
12D
100
AcDbEntity
  8
0
100
AcDbBlockEnd
  0
BLOCK
  5
138
330
137
100
AcDbEntity
  8
0
100
AcDbBlockBegin
  2
_D_3
 70
     0
 10
0.0
 20
0.0
 30
0.0
  3
_D_3
  1

  0
ARC
  5
13A
330
137
100
AcDbEntity
  8
VERMASSUNG
100
AcDbCircle
 10
197.997561709
 20
141.9261358168
 30
0.0
 40
4.247059938537373
100
AcDbArc
 50
153.4349488229
 51
206.5650511771
  0
ARC
  5
13B
330
137
100
AcDbEntity
  8
VERMASSUNG
100
AcDbCircle
 10
195.9730828212
 20
141.9261358168
 30
0.0
 40
4.247059938537373
100
AcDbArc
 50
333.4349488229
 51
26.5650511771
  0
SOLID
  5
13C
330
137
100
AcDbEntity
  8
VERMASSUNG
100
AcDbTrace
 10
186.4853222651
 20
140.0267928714
 30
0.0
 11
189.4853222651
 21
139.5767928714
 31
0.0
 12
189.4853222651
 22
140.4767928714
 32
0.0
 13
189.4853222651
 23
140.4767928714
 33
0.0
  0
SOLID
  5
13D
330
137
100
AcDbEntity
  8
VERMASSUNG
100
AcDbTrace
 10
207.4853222651
 20
140.0267928714
 30
0.0
 11
204.4853222651
 21
140.4767928714
 31
0.0
 12
204.4853222651
 22
139.5767928714
 32
0.0
 13
204.4853222651
 23
139.5767928714
 33
0.0
  0
LINE
  5
13E
330
137
100
AcDbEntity
  8
VERMASSUNG
100
AcDbLine
 10
186.4853222651
 20
129.630444744
 30
0.0
 11
186.4853222651
 21
141.0267928714
 31
0.0
  0
LINE
  5
13F
330
137
100
AcDbEntity
  8
VERMASSUNG
100
AcDbLine
 10
207.4853222651
 20
120.705444744
 30
0.0
 11
207.4853222651
 21
141.0267928714
 31
0.0
  0
LINE
  5
140
330
137
100
AcDbEntity
  8
VERMASSUNG
100
AcDbLine
 10
186.4853222651
 20
140.0267928714
 30
0.0
 11
207.4853222651
 21
140.0267928714
 31
0.0
  0
MTEXT
  5
141
330
137
100
AcDbEntity
  8
VERMASSUNG
100
AcDbMText
 10
195.7863758181
 20
142.6049284673
 30
0.0
 40
2.0
 41
0.0
 71
     1
 72
     1
  1
21
  7
SLDTEXTSTYLE0
 73
     1
 44
1.0
  0
ENDBLK
  5
139
330
137
100
AcDbEntity
  8
0
100
AcDbBlockEnd
  0
BLOCK
  5
144
330
143
100
AcDbEntity
  8
0
100
AcDbBlockBegin
  2
_D_4
 70
     0
 10
0.0
 20
0.0
 30
0.0
  3
_D_4
  1

  0
SOLID
  5
146
330
143
100
AcDbEntity
  8
VERMASSUNG
100
AcDbTrace
 10
220.1058215261
 20
120.905444744
 30
0.0
 11
219.6558215261
 21
117.905444744
 31
0.0
 12
220.5558215261
 22
117.905444744
 32
0.0
 13
220.5558215261
 23
117.905444744
 33
0.0
  0
SOLID
  5
147
330
143
100
AcDbEntity
  8
VERMASSUNG
100
AcDbTrace
 10
220.1058215261
 20
95.905444744
 30
0.0
 11
220.5558215261
 21
98.905444744
 31
0.0
 12
219.6558215261
 22
98.905444744
 32
0.0
 13
219.6558215261
 23
98.905444744
 33
0.0
  0
LINE
  5
148
330
143
100
AcDbEntity
  8
VERMASSUNG
100
AcDbLine
 10
207.2853222651
 20
120.905444744
 30
0.0
 11
221.1058215261
 21
120.905444744
 31
0.0
  0
LINE
  5
149
330
143
100
AcDbEntity
  8
VERMASSUNG
100
AcDbLine
 10
207.2853222651
 20
95.905444744
 30
0.0
 11
221.1058215261
 21
95.905444744
 31
0.0
  0
LINE
  5
14A
330
143
100
AcDbEntity
  8
VERMASSUNG
100
AcDbLine
 10
220.1058215261
 20
120.905444744
 30
0.0
 11
220.1058215261
 21
95.905444744
 31
0.0
  0
MTEXT
  5
14B
330
143
100
AcDbEntity
  8
VERMASSUNG
100
AcDbMText
 10
217.3276862699
 20
102.3004455222
 30
0.0
 40
2.0
 41
0.0
 71
     1
 72
     1
  1
ST2
  7
SLDTEXTSTYLE0
 11
-7.044195017643634E-15
 21
1.0
 31
0.0
 73
     1
 44
1.0
  0
MTEXT
  5
14C
330
143
100
AcDbEntity
  8
VERMASSUNG
100
AcDbMText
 10
217.5276862212
 20
108.1004454484
 30
0.0
 40
2.0
 41
0.0
 71
     1
 72
     1
  1
%%c
  7
SLDTEXTSTYLE0
 11
-7.044195017643634E-15
 21
1.0
 31
0.0
 73
     1
 44
1.0
  0
MTEXT
  5
14D
330
143
100
AcDbEntity
  8
VERMASSUNG
100
AcDbMText
 10
217.3276862699
 20
111.7104449971
 30
0.0
 40
2.0
 41
0.0
 71
     1
 72
     1
  1
25
  7
SLDTEXTSTYLE0
 11
-7.044195017643634E-15
 21
1.0
 31
0.0
 73
     1
 44
1.0
  0
ENDBLK
  5
145
330
143
100
AcDbEntity
  8
0
100
AcDbBlockEnd
  0
BLOCK
  5
150
330
14F
100
AcDbEntity
  8
0
100
AcDbBlockBegin
  2
_D_5
 70
     0
 10
0.0
 20
0.0
 30
0.0
  3
_D_5
  1

  0
ARC
  5
152
330
14F
100
AcDbEntity
  8
VERMASSUNG
100
AcDbCircle
 10
145.4603221243
 20
153.9267931362
 30
0.0
 40
4.248529228887608
100
AcDbArc
 50
153.4349488229
 51
206.5650511771
  0
ARC
  5
153
330
14F
100
AcDbEntity
  8
VERMASSUNG
100
AcDbCircle
 10
145.2603219984
 20
153.9267931362
 30
0.0
 40
4.248529228887633
100
AcDbArc
 50
333.4349488229
 51
26.5650511771
  0
SOLID
  5
154
330
14F
100
AcDbEntity
  8
VERMASSUNG
100
AcDbTrace
 10
207.4853222651
 20
152.0267928714
 30
0.0
 11
204.4853222651
 21
152.4767928714
 31
0.0
 12
204.4853222651
 22
151.5767928714
 32
0.0
 13
204.4853222651
 23
151.5767928714
 33
0.0
  0
SOLID
  5
155
330
14F
100
AcDbEntity
  8
VERMASSUNG
100
AcDbTrace
 10
83.2353222651
 20
152.0267928714
 30
0.0
 11
86.2353222651
 21
151.5767928714
 31
0.0
 12
86.2353222651
 22
152.4767928714
 32
0.0
 13
86.2353222651
 23
152.4767928714
 33
0.0
  0
LINE
  5
156
330
14F
100
AcDbEntity
  8
VERMASSUNG
100
AcDbLine
 10
207.4853222651
 20
120.705444744
 30
0.0
 11
207.4853222651
 21
153.0267928714
 31
0.0
  0
LINE
  5
157
330
14F
100
AcDbEntity
  8
VERMASSUNG
100
AcDbLine
 10
83.2353222651
 20
119.8125753411
 30
0.0
 11
83.2353222651
 21
153.0267928714
 31
0.0
  0
LINE
  5
158
330
14F
100
AcDbEntity
  8
VERMASSUNG
100
AcDbLine
 10
207.4853222651
 20
152.0267928714
 30
0.0
 11
83.2353222651
 21
152.0267928714
 31
0.0
  0
MTEXT
  5
159
330
14F
100
AcDbEntity
  8
VERMASSUNG
100
AcDbMText
 10
141.6603220602
 20
154.6049287002
 30
0.0
 40
2.0
 41
0.0
 71
     1
 72
     1
  1
124.25
  7
SLDTEXTSTYLE0
 73
     1
 44
1.0
  0
ENDBLK
  5
151
330
14F
100
AcDbEntity
  8
0
100
AcDbBlockEnd
  0
ENDSEC
  0
SECTION
  2
ENTITIES
  0
MTEXT
  5
78
330
1F
100
AcDbEntity
  8
KOPF_DÜNN
100
AcDbMText
 10
13.8892156294
 20
23.8442973028
 30
0.0
 40
3.0
 41
0.0
 71
     1
 72
     1
  1
104.340.025.056
  7
SLDTEXTSTYLE0
 73
     1
 44
1.0
  0
MTEXT
  5
79
330
1F
100
AcDbEntity
  8
VERMASSUNG
100
AcDbMText
 10
13.9329988022
 20
28.8834360957
 30
0.0
 40
3.0
 41
0.0
 71
     1
 72
     1
  1
Aufnahme_Master shank ST2
  7
SLDTEXTSTYLE0
 73
     1
 44
1.0
  0
MTEXT
  5
7A
330
1F
100
AcDbEntity
  8
VERMASSUNG
100
AcDbMText
 10
98.8601118557
 20
13.8365368761
 30
0.0
 40
2.0
 41
0.0
 71
     1
 72
     1
  1
Datum: 07.05.2008
  7
SLDTEXTSTYLE0
 73
     1
 44
1.0
  0
MTEXT
  5
7B
330
1F
100
AcDbEntity
  8
VERMASSUNG
100
AcDbMText
 10
13.933048693
 20
18.0482802738
 30
0.0
 40
2.0
 41
0.0
 71
     1
 72
     1
  1
ANSI B5.50 CAT 40
  7
SLDTEXTSTYLE0
 73
     1
 44
1.0
  0
MTEXT
  5
7C
330
1F
100
AcDbEntity
  8
VERMASSUNG
100
AcDbMText
 10
13.9808475933
 20
13.9090974274
 30
0.0
 40
2.0
 41
0.0
 71
     1
 72
     1
  1
Gewicht: 1087g
  7
SLDTEXTSTYLE0
 73
     1
 44
1.0
  0
ARC
  5
7D
330
1F
100
AcDbEntity
  8
0
  6
Continuous
 62
     7
370
    15
100
AcDbCircle
 10
171.1353222651
 20
85.580444744
 30
0.0
 40
0.6000000000000164
100
AcDbArc
 50
90.0
 51
134.8884465765
  0
ARC
  5
7E
330
1F
100
AcDbEntity
  8
0
  6
Continuous
 62
     7
370
    15
100
AcDbCircle
 10
171.1353222651
 20
131.230444744
 30
0.0
 40
0.5999999999999943
100
AcDbArc
 50
180.0
 51
270.0
  0
ARC
  5
7F
330
1F
100
AcDbEntity
  8
0
  6
Continuous
 62
     7
370
    15
100
AcDbCircle
 10
154.0603222651
 20
85.580444744
 30
0.0
 40
0.6000000000000085
100
AcDbArc
 50
45.0661039237
 51
90.0
  0
ARC
  5
80
330
1F
100
AcDbEntity
  8
0
  6
Continuous
 62
     7
370
    15
100
AcDbCircle
 10
154.0603222651
 20
131.230444744
 30
0.0
 40
0.5999999999999943
100
AcDbArc
 50
270.0
 51
0.0
  0
LINE
  5
81
330
1F
100
AcDbEntity
  8
0
  6
Continuous
 62
     7
370
    15
100
AcDbLine
 10
151.4853222651
 20
130.630444744
 30
0.0
 11
84.091015372
 21
120.8021083221
 31
0.0
  0
LINE
  5
82
330
1F
100
AcDbEntity
  8
0
  6
Continuous
 62
     7
370
    15
100
AcDbLine
 10
84.091015372
 20
96.0087811659
 30
0.0
 11
151.4853222651
 21
86.180444744
 31
0.0
  0
LINE
  5
83
330
1F
100
AcDbEntity
  8
0
  6
Continuous
 62
     7
370
    15
100
AcDbLine
 10
151.4853222651
 20
86.180444744
 30
0.0
 11
154.0603222651
 21
86.180444744
 31
0.0
  0
LINE
  5
84
330
1F
100
AcDbEntity
  8
0
  6
Continuous
 62
     7
370
    15
100
AcDbLine
 10
154.0603222651
 20
130.630444744
 30
0.0
 11
151.4853222651
 21
130.630444744
 31
0.0
  0
ARC
  5
85
330
1F
100
AcDbEntity
  8
0
  6
Continuous
 62
     7
370
    15
100
AcDbCircle
 10
185.4853222651
 20
87.180444744
 30
0.0
 40
1.0
100
AcDbArc
 50
270.0
 51
0.0
  0
ARC
  5
86
330
1F
100
AcDbEntity
  8
0
  6
Continuous
 62
     7
370
    15
100
AcDbCircle
 10
185.4853222651
 20
129.630444744
 30
0.0
 40
1.0
100
AcDbArc
 50
0.0
 51
90.0
  0
LINE
  5
87
330
1F
100
AcDbEntity
  8
0
  6
Continuous
 62
     7
370
    15
100
AcDbLine
 10
171.1353222651
 20
86.180444744
 30
0.0
 11
185.4853222651
 21
86.180444744
 31
0.0
  0
LINE
  5
88
330
1F
100
AcDbEntity
  8
0
  6
Continuous
 62
     7
370
    15
100
AcDbLine
 10
185.4853222651
 20
130.630444744
 30
0.0
 11
171.1353222651
 21
130.630444744
 31
0.0
  0
ARC
  5
89
330
1F
100
AcDbEntity
  8
0
  6
Continuous
 62
     7
370
    15
100
AcDbCircle
 10
190.4853222651
 20
91.905444744
 30
0.0
 40
4.0
100
AcDbArc
 50
90.0
 51
180.0
  0
ARC
  5
8A
330
1F
100
AcDbEntity
  8
0
  6
Continuous
 62
     7
370
    15
100
AcDbCircle
 10
190.4853222651
 20
124.905444744
 30
0.0
 40
4.0
100
AcDbArc
 50
180.0
 51
270.0
  0
LINE
  5
8B
330
1F
100
AcDbEntity
  8
0
  6
Continuous
 62
     7
370
    15
100
AcDbLine
 10
207.2853222651
 20
95.905444744
 30
0.0
 11
207.4853222651
 21
96.105444744
 31
0.0
  0
LINE
  5
8C
330
1F
100
AcDbEntity
  8
0
  6
Continuous
 62
     7
370
    15
100
AcDbLine
 10
207.4853222651
 20
120.705444744
 30
0.0
 11
207.2853222651
 21
120.905444744
 31
0.0
  0
LINE
  5
8D
330
1F
100
AcDbEntity
  8
0
  6
Continuous
 62
     7
370
    15
100
AcDbLine
 10
207.2853222651
 20
120.905444744
 30
0.0
 11
190.4853222651
 21
120.905444744
 31
0.0
  0
LINE
  5
8E
330
1F
100
AcDbEntity
  8
0
  6
Continuous
 62
     7
370
    15
100
AcDbLine
 10
190.4853222651
 20
95.905444744
 30
0.0
 11
207.2853222651
 21
95.905444744
 31
0.0
  0
ARC
  5
8F
330
1F
100
AcDbEntity
  8
0
  6
Continuous
 62
     7
370
    15
100
AcDbCircle
 10
84.2353222651
 20
96.998314147
 30
0.0
 40
1.00000000000001
100
AcDbArc
 50
180.0
 51
261.7028550302
  0
ARC
  5
90
330
1F
100
AcDbEntity
  8
0
  6
Continuous
 62
     7
370
    15
100
AcDbCircle
 10
84.2353222651
 20
119.8125753411
 30
0.0
 40
1.00000000000001
100
AcDbArc
 50
98.2971449698
 51
180.0
  0
SPLINE
  5
91
330
1F
100
AcDbEntity
  8
0
  6
Continuous
 62
     7
370
    15
100
AcDbSpline
210
0.0
220
0.0
230
1.0
 70
    24
 71
     3
 72
    11
 73
     7
 74
     0
 42
0.000000001
 43
0.00000001
 40
0.0
 40
0.0
 40
0.0
 40
0.0
 40
0.1285561766306819
 40
0.4801535797842869
 40
0.8150691831754955
 40
1.0
 40
1.0
 40
1.0
 40
1.0
 10
201.6570101015709
 20
107.1554447440303
 30
0.0
 10
201.5988811095793
 20
107.1554447440303
 30
0.0
 10
201.3817710155676
 20
107.1554447440303
 30
0.0
 10
200.9746409632731
 20
107.1554447440303
 30
0.0
 10
200.5338049962801
 20
107.1554447440303
 30
0.0
 10
200.2976459452762
 20
107.1554447440303
 30
0.0
 10
200.2136344285969
 20
107.1554447440303
 30
0.0
  0
SPLINE
  5
92
330
1F
100
AcDbEntity
  8
0
  6
Continuous
 62
     7
370
    15
100
AcDbSpline
210
0.0
220
0.0
230
1.0
 70
    24
 71
     3
 72
    10
 73
     6
 74
     0
 42
0.000000001
 43
0.00000001
 40
0.0
 40
0.0
 40
0.0
 40
0.0
 40
0.4391119879276939
 40
0.7513633230734775
 40
0.9999999999999999
 40
0.9999999999999999
 40
0.9999999999999999
 40
0.9999999999999999
 10
202.3786979380579
 20
108.4054447440303
 30
0.0
 10
202.2753839238296
 20
108.226499622253
 30
0.0
 10
202.0986035962941
 20
107.9203071131828
 30
0.0
 10
201.841620474394
 20
107.4751992893641
 30
0.0
 10
201.7137111636246
 20
107.2536538643504
 30
0.0
 10
201.6570101015709
 20
107.1554447440303
 30
0.0
  0
SPLINE
  5
93
330
1F
100
AcDbEntity
  8
0
  6
Continuous
 62
     7
370
    15
100
AcDbSpline
210
0.0
220
0.0
230
1.0
 70
    24
 71
     3
 72
    10
 73
     6
 74
     0
 42
0.000000001
 43
0.00000001
 40
0.0
 40
0.0
 40
0.0
 40
0.0
 40
0.4391119879276942
 40
0.7513633230734779
 40
1.0
 40
1.0
 40
1.0
 40
1.0
 10
201.6570101015709
 20
109.6554447440303
 30
0.0
 10
201.7603241157992
 20
109.476499622253
 30
0.0
 10
201.9371044433348
 20
109.1703071131828
 30
0.0
 10
202.1940875652349
 20
108.7251992893641
 30
0.0
 10
202.3219968760043
 20
108.5036538643504
 30
0.0
 10
202.3786979380579
 20
108.4054447440303
 30
0.0
  0
SPLINE
  5
94
330
1F
100
AcDbEntity
  8
0
  6
Continuous
 62
     7
370
    15
100
AcDbSpline
210
0.0
220
0.0
230
1.0
 70
    24
 71
     3
 72
    11
 73
     7
 74
     0
 42
0.000000001
 43
0.00000001
 40
0.0
 40
0.0
 40
0.0
 40
0.0
 40
0.1849308168245045
 40
0.519846420215713
 40
0.871443823369318
 40
0.9999999999999999
 40
0.9999999999999999
 40
0.9999999999999999
 40
0.9999999999999999
 10
200.2136344285969
 20
109.6554447440303
 30
0.0
 10
200.2976459452762
 20
109.6554447440303
 30
0.0
 10
200.5338049962801
 20
109.6554447440303
 30
0.0
 10
200.974640963273
 20
109.6554447440303
 30
0.0
 10
201.3817710155677
 20
109.6554447440303
 30
0.0
 10
201.5988811095793
 20
109.6554447440303
 30
0.0
 10
201.6570101015709
 20
109.6554447440303
 30
0.0
  0
SPLINE
  5
95
330
1F
100
AcDbEntity
  8
0
  6
Continuous
 62
     7
370
    15
100
AcDbSpline
210
0.0
220
0.0
230
1.0
 70
    24
 71
     3
 72
    10
 73
     6
 74
     0
 42
0.000000001
 43
0.00000001
 40
0.0
 40
0.0
 40
0.0
 40
0.0
 40
0.439111987927694
 40
0.7513633230734793
 40
0.9999999999999999
 40
0.9999999999999999
 40
0.9999999999999999
 40
0.9999999999999999
 10
199.4919465921098
 20
108.4054447440303
 30
0.0
 10
199.5952606063381
 20
108.5843898658077
 30
0.0
 10
199.7720409338737
 20
108.8905823748779
 30
0.0
 10
200.0290240557738
 20
109.3356901986965
 30
0.0
 10
200.1569333665432
 20
109.5572356237103
 30
0.0
 10
200.2136344285969
 20
109.6554447440303
 30
0.0
  0
SPLINE
  5
96
330
1F
100
AcDbEntity
  8
0
  6
Continuous
 62
     7
370
    15
100
AcDbSpline
210
0.0
220
0.0
230
1.0
 70
    24
 71
     3
 72
    10
 73
     6
 74
     0
 42
0.000000001
 43
0.00000001
 40
0.0
 40
0.0
 40
0.0
 40
0.0
 40
0.4391119879276927
 40
0.7513633230734783
 40
1.0
 40
1.0
 40
1.0
 40
1.0
 10
200.2136344285969
 20
107.1554447440303
 30
0.0
 10
200.1103204143685
 20
107.3343898658077
 30
0.0
 10
199.933540086833
 20
107.6405823748779
 30
0.0
 10
199.6765569649329
 20
108.0856901986965
 30
0.0
 10
199.5486476541635
 20
108.3072356237103
 30
0.0
 10
199.4919465921098
 20
108.4054447440303
 30
0.0
  0
CIRCLE
  5
97
330
1F
100
AcDbEntity
  8
0
  6
Continuous
 62
     7
370
    15
100
AcDbCircle
 10
200.9353222651
 20
108.405444744
 30
0.0
 40
1.500000000000014
  0
CIRCLE
  5
98
330
1F
100
AcDbEntity
  8
0
  6
Continuous
 62
     7
370
    15
100
AcDbCircle
 10
200.9353222651
 20
108.405444744
 30
0.0
 40
2.250000000000014
  0
CIRCLE
  5
99
330
1F
100
AcDbEntity
  8
0
  6
Continuous
 62
     7
370
    15
100
AcDbCircle
 10
200.9353222651
 20
108.405444744
 30
0.0
 40
2.500000000000014
  0
ARC
  5
9A
330
1F
100
AcDbEntity
  8
0
  6
Continuous
 62
     7
370
    15
100
AcDbCircle
 10
200.9353222651
 20
108.405444744
 30
0.0
 40
1.249999999999997
100
AcDbArc
 50
30.0
 51
90.0
  0
ARC
  5
9B
330
1F
100
AcDbEntity
  8
0
  6
Continuous
 62
     7
370
    15
100
AcDbCircle
 10
200.9353222651
 20
108.405444744
 30
0.0
 40
1.250000000000014
100
AcDbArc
 50
270.0
 51
330.0
  0
ARC
  5
9C
330
1F
100
AcDbEntity
  8
0
  6
Continuous
 62
     7
370
    15
100
AcDbCircle
 10
200.9353222651
 20
108.405444744
 30
0.0
 40
1.250000000000004
100
AcDbArc
 50
330.0
 51
30.0
  0
ARC
  5
9D
330
1F
100
AcDbEntity
  8
0
  6
Continuous
 62
     7
370
    15
100
AcDbCircle
 10
200.9353222651
 20
108.405444744
 30
0.0
 40
1.250000000000011
100
AcDbArc
 50
150.0
 51
210.0
  0
ARC
  5
9E
330
1F
100
AcDbEntity
  8
0
  6
Continuous
 62
     7
370
    15
100
AcDbCircle
 10
200.9353222651
 20
108.405444744
 30
0.0
 40
1.250000000000004
100
AcDbArc
 50
90.0
 51
150.0
  0
ARC
  5
9F
330
1F
100
AcDbEntity
  8
0
  6
Continuous
 62
     7
370
    15
100
AcDbCircle
 10
200.9353222651
 20
108.405444744
 30
0.0
 40
1.250000000000014
100
AcDbArc
 50
210.0
 51
270.0
  0
LINE
  5
A0
330
1F
100
AcDbEntity
  8
0
  6
Continuous
 62
     7
370
    15
100
AcDbLine
 10
154.6603222651
 20
78.6388510524
 30
0.0
 11
154.6603222651
 21
138.1720384356
 31
0.0
  0
SPLINE
  5
A1
330
1F
100
AcDbEntity
  8
0
  6
Continuous
 62
     7
370
    15
100
AcDbSpline
210
0.0
220
0.0
230
1.0
 70
     8
 71
     3
 72
    10
 73
     6
 74
     0
 42
0.000000001
 43
0.00000001
 40
0.0
 40
0.0
 40
0.0
 40
0.0
 40
0.5
 40
0.5
 40
1.0
 40
1.0
 40
1.0
 40
1.0
 10
154.9493151012735
 20
138.7946216707194
 30
0.0
 10
154.8730074024639
 20
138.7241048896086
 30
0.0
 10
154.8053449412127
 20
138.6384013371549
 30
0.0
 10
154.6980360922556
 20
138.4269016725914
 30
0.0
 10
154.6603222650839
 20
138.3027487123402
 30
0.0
 10
154.6603222650839
 20
138.1720384356169
 30
0.0
  0
SPLINE
  5
A2
330
1F
100
AcDbEntity
  8
0
  6
Continuous
 62
     7
370
    15
100
AcDbSpline
210
0.0
220
0.0
230
1.0
 70
     8
 71
     3
 72
     8
 73
     4
 74
     0
 42
0.000000001
 43
0.00000001
 40
0.0
 40
0.0
 40
0.0
 40
0.0
 40
1.0
 40
1.0
 40
1.0
 40
1.0
 10
155.2603222650839
 20
138.864639321045
 30
0.0
 10
155.1489011148696
 20
138.864639321045
 30
0.0
 10
155.0409066842732
 20
138.8393725404778
 30
0.0
 10
154.9493151012735
 20
138.7946216707194
 30
0.0
  0
SPLINE
  5
A3
330
1F
100
AcDbEntity
  8
0
  6
Continuous
 62
     7
370
    15
100
AcDbSpline
210
0.0
220
0.0
230
1.0
 70
     8
 71
     3
 72
    10
 73
     6
 74
     0
 42
0.000000001
 43
0.00000001
 40
0.0
 40
0.0
 40
0.0
 40
0.0
 40
0.5
 40
0.5
 40
1.0
 40
1.0
 40
1.0
 40
1.0
 10
154.8772379304436
 20
78.09095746508878
 30
0.0
 10
154.9259732513117
 20
78.06304964712024
 30
0.0
 10
154.9833394603269
 20
78.03923971595034
 30
0.0
 10
155.1136778578625
 20
78.00538749499431
 30
0.0
 10
155.1859742825863
 20
77.99573620257326
 30
0.0
 10
155.2603222650839
 20
77.99573620257326
 30
0.0
  0
SPLINE
  5
A4
330
1F
100
AcDbEntity
  8
0
  6
Continuous
 62
     7
370
    15
100
AcDbSpline
210
0.0
220
0.0
230
1.0
 70
     8
 71
     3
 72
    10
 73
     6
 74
     0
 42
0.000000001
 43
0.00000001
 40
0.0
 40
0.0
 40
0.0
 40
0.0
 40
0.5
 40
0.5
 40
1.0
 40
1.0
 40
1.0
 40
1.0
 10
154.8772379304436
 20
78.09095746508879
 30
0.0
 10
154.8189123955381
 20
78.15865837431512
 30
0.0
 10
154.7663529932927
 20
78.23913869931893
 30
0.0
 10
154.6871655902309
 20
78.42401183971444
 30
0.0
 10
154.6603222650839
 20
78.5296272845023
 30
0.0
 10
154.6603222650839
 20
78.63885105244378
 30
0.0
  0
SPLINE
  5
A5
330
1F
100
AcDbEntity
  8
0
  6
Continuous
 62
     7
370
    15
100
AcDbSpline
210
0.0
220
0.0
230
1.0
 70
     8
 71
     3
 72
     8
 73
     4
 74
     0
 42
0.000000001
 43
0.00000001
 40
0.0
 40
0.0
 40
0.0
 40
0.0
 40
1.0
 40
1.0
 40
1.0
 40
1.0
 10
165.5528082720403
 20
138.083614506909
 30
0.0
 10
165.1996602502835
 20
137.4491356677432
 30
0.0
 10
164.8471228195399
 20
136.8143232047029
 30
0.0
 10
164.4953222650838
 20
136.1791081161459
 30
0.0
  0
SPLINE
  5
A6
330
1F
100
AcDbEntity
  8
0
  6
Continuous
 62
     7
370
    15
100
AcDbSpline
210
0.0
220
0.0
230
1.0
 70
     8
 71
     3
 72
     8
 73
     4
 74
     0
 42
0.000000001
 43
0.00000001
 40
0.0
 40
0.0
 40
0.0
 40
0.0
 40
0.0012371390485494
 40
0.0012371390485494
 40
0.0012371390485494
 40
0.0012371390485494
 10
166.1100456584865
 20
138.864639321045
 30
0.0
 10
165.9236039921602
 20
138.6045465415558
 30
0.0
 10
165.7378342886414
 20
138.3442122582501
 30
0.0
 10
165.5528082720403
 20
138.083614506909
 30
0.0
  0
LINE
  5
A7
330
1F
100
AcDbEntity
  8
0
  6
Continuous
 62
     7
370
    15
100
AcDbLine
 10
166.1100456585
 20
77.9957362026
 30
0.0
 11
166.1100456585
 21
138.864639321
 31
0.0
  0
SPLINE
  5
A8
330
1F
100
AcDbEntity
  8
0
  6
Continuous
 62
     7
370
    15
100
AcDbSpline
210
0.0
220
0.0
230
1.0
 70
     8
 71
     3
 72
     8
 73
     4
 74
     0
 42
0.000000001
 43
0.00000001
 40
0.0
 40
0.0
 40
0.0
 40
0.0
 40
0.0011858378198547
 40
0.0011858378198547
 40
0.0011858378198547
 40
0.0011858378198547
 10
165.6546460783978
 20
78.54434897598331
 30
0.0
 10
165.8049140648912
 20
78.3611606909199
 30
0.0
 10
165.9567596675602
 20
78.17829563178805
 30
0.0
 10
166.1100456584865
 20
77.99573620257327
 30
0.0
  0
SPLINE
  5
A9
330
1F
100
AcDbEntity
  8
0
  6
Continuous
 62
     7
370
    15
100
AcDbSpline
210
0.0
220
0.0
230
1.0
 70
     8
 71
     3
 72
     8
 73
     4
 74
     0
 42
0.000000001
 43
0.00000001
 40
0.0
 40
0.0
 40
0.0
 40
0.0
 40
1.0
 40
1.0
 40
1.0
 40
1.0
 10
165.6546460783978
 20
78.54434897598331
 30
0.0
 10
165.2674337483557
 20
79.23972897921352
 30
0.0
 10
164.8809330982182
 20
79.93551805903648
 30
0.0
 10
164.4953222650838
 20
80.63178137191473
 30
0.0
  0
LINE
  5
AA
330
1F
100
AcDbEntity
  8
0
  6
Continuous
 62
     7
370
    15
100
AcDbLine
 10
169.9353222651
 20
138.864639321
 30
0.0
 11
166.1100456585
 21
138.864639321
 31
0.0
  0
LINE
  5
AB
330
1F
100
AcDbEntity
  8
0
  6
Continuous
 62
     7
370
    15
100
AcDbLine
 10
166.1100456585
 20
77.9957362026
 30
0.0
 11
169.9353222651
 21
77.9957362026
 31
0.0
  0
SPLINE
  5
AC
330
1F
100
AcDbEntity
  8
0
  6
Continuous
 62
     7
370
    15
100
AcDbSpline
210
0.0
220
0.0
230
1.0
 70
     8
 71
     3
 72
    12
 73
     8
 74
     0
 42
0.000000001
 43
0.00000001
 40
0.0
 40
0.0
 40
0.0
 40
0.0
 40
0.4999999999999953
 40
0.4999999999999953
 40
0.7499999999999977
 40
0.7499999999999977
 40
1.0
 40
1.0
 40
1.0
 40
1.0
 10
170.5353222650838
 20
138.3799925382739
 30
0.0
 10
170.5353222650839
 20
138.500162717144
 30
0.0
 10
170.4814101533958
 20
138.6180652091291
 30
0.0
 10
170.3202897975371
 20
138.7573840779821
 30
0.0
 10
170.255491688695
 20
138.7955237689743
 30
0.0
 10
170.1034362613769
 20
138.8501038543095
 30
0.0
 10
170.0207039989256
 20
138.864639321045
 30
0.0
 10
169.9353222650838
 20
138.864639321045
 30
0.0
  0
LINE
  5
AD
330
1F
100
AcDbEntity
  8
0
  6
Continuous
 62
     7
370
    15
100
AcDbLine
 10
170.5353222651
 20
78.4118719607
 30
0.0
 11
170.5353222651
 21
138.3799925383
 31
0.0
  0
SPLINE
  5
AE
330
1F
100
AcDbEntity
  8
0
  6
Continuous
 62
     7
370
    15
100
AcDbSpline
210
0.0
220
0.0
230
1.0
 70
     8
 71
     3
 72
    12
 73
     8
 74
     0
 42
0.000000001
 43
0.00000001
 40
0.0
 40
0.0
 40
0.0
 40
0.0
 40
0.2500000000000008
 40
0.2500000000000008
 40
0.5000000000000017
 40
0.5000000000000017
 40
1.0
 40
1.0
 40
1.0
 40
1.0
 10
169.9353222650838
 20
77.99573620257327
 30
0.0
 10
170.0308641752198
 20
77.99573620257327
 30
0.0
 10
170.1230091170826
 20
78.01187198605543
 30
0.0
 10
170.2793353936925
 20
78.06509159217876
 30
0.0
 10
170.3430035363125
 20
78.10123863238213
 30
0.0
 10
170.4918713817429
 20
78.22247652545404
 30
0.0
 10
170.5353222650839
 20
78.31693907111479
 30
0.0
 10
170.5353222650839
 20
78.41187196069315
 30
0.0
  0
LINE
  5
AF
330
1F
100
AcDbEntity
  8
0
  6
Continuous
 62
     7
370
    15
100
AcDbLine
 10
159.0605988717
 20
138.864639321
 30
0.0
 11
155.2603222651
 21
138.864639321
 31
0.0
  0
LINE
  5
B0
330
1F
100
AcDbEntity
  8
0
  6
Continuous
 62
     7
370
    15
100
AcDbLine
 10
159.0605988717
 20
77.9957362026
 30
0.0
 11
159.0605988717
 21
138.864639321
 31
0.0
  0
LINE
  5
B1
330
1F
100
AcDbEntity
  8
0
  6
Continuous
 62
     7
370
    15
100
AcDbLine
 10
155.2603222651
 20
77.9957362026
 30
0.0
 11
159.0605988717
 21
77.9957362026
 31
0.0
  0
SPLINE
  5
B2
330
1F
100
AcDbEntity
  8
0
  6
Continuous
 62
     7
370
    15
100
AcDbSpline
210
0.0
220
0.0
230
1.0
 70
     8
 71
     3
 72
     8
 73
     4
 74
     0
 42
0.000000001
 43
0.00000001
 40
0.0
 40
0.0
 40
0.0
 40
0.0
 40
0.0012371390485494
 40
0.0012371390485494
 40
0.0012371390485494
 40
0.0012371390485494
 10
159.6178362581274
 20
138.083614506909
 30
0.0
 10
159.4328102415263
 20
138.3442122582501
 30
0.0
 10
159.2470405380075
 20
138.6045465415558
 30
0.0
 10
159.0605988716812
 20
138.864639321045
 30
0.0
  0
SPLINE
  5
B3
330
1F
100
AcDbEntity
  8
0
  6
Continuous
 62
     7
370
    15
100
AcDbSpline
210
0.0
220
0.0
230
1.0
 70
     8
 71
     3
 72
     8
 73
     4
 74
     0
 42
0.000000001
 43
0.00000001
 40
0.0
 40
0.0
 40
0.0
 40
0.0
 40
1.0
 40
1.0
 40
1.0
 40
1.0
 10
160.6753222650838
 20
136.1791081161459
 30
0.0
 10
160.3235217106279
 20
136.8143232047029
 30
0.0
 10
159.9709842798842
 20
137.4491356677432
 30
0.0
 10
159.6178362581274
 20
138.083614506909
 30
0.0
  0
SPLINE
  5
B4
330
1F
100
AcDbEntity
  8
0
  6
Continuous
 62
     7
370
    15
100
AcDbSpline
210
0.0
220
0.0
230
1.0
 70
     8
 71
     3
 72
     8
 73
     4
 74
     0
 42
0.000000001
 43
0.00000001
 40
0.0
 40
0.0
 40
0.0
 40
0.0
 40
1.0
 40
1.0
 40
1.0
 40
1.0
 10
160.6753222650838
 20
80.63178137191471
 30
0.0
 10
160.2897114319495
 20
79.93551805903648
 30
0.0
 10
159.903210781812
 20
79.23972897921352
 30
0.0
 10
159.5159984517699
 20
78.54434897598331
 30
0.0
  0
SPLINE
  5
B5
330
1F
100
AcDbEntity
  8
0
  6
Continuous
 62
     7
370
    15
100
AcDbSpline
210
0.0
220
0.0
230
1.0
 70
     8
 71
     3
 72
     8
 73
     4
 74
     0
 42
0.000000001
 43
0.00000001
 40
0.0
 40
0.0
 40
0.0
 40
0.0
 40
0.0011858378198547
 40
0.0011858378198547
 40
0.0011858378198547
 40
0.0011858378198547
 10
159.0605988716812
 20
77.99573620257326
 30
0.0
 10
159.2138848626075
 20
78.17829563178805
 30
0.0
 10
159.3657304652765
 20
78.3611606909199
 30
0.0
 10
159.5159984517699
 20
78.54434897598331
 30
0.0
  0
SPLINE
  5
B6
330
1F
100
AcDbEntity
  8
0
  6
Continuous
 62
     7
370
    15
100
AcDbSpline
210
0.0
220
0.0
230
1.0
 70
     8
 71
     3
 72
    12
 73
     8
 74
     0
 42
0.000000001
 43
0.00000001
 40
0.0
 40
0.0
 40
0.0
 40
0.0
 40
0.2500000000000015
 40
0.2500000000000015
 40
0.500000000000003
 40
0.500000000000003
 40
1.0
 40
1.0
 40
1.0
 40
1.0
 10
161.4753222650839
 20
81.43879867893725
 30
0.0
 10
161.3688623098971
 20
81.43879867893725
 30
0.0
 10
161.2605927035964
 20
81.41577208162124
 30
0.0
 10
161.0645523482097
 20
81.32877759265028
 30
0.0
 10
160.9760909281142
 20
81.26511025282346
 30
0.0
 10
160.7574077262989
 20
81.03147442163281
 30
0.0
 10
160.6753222650838
 20
80.81682817069958
 30
0.0
 10
160.6753222650838
 20
80.60386205526959
 30
0.0
  0
LINE
  5
B7
330
1F
100
AcDbEntity
  8
0
  6
Continuous
 62
     7
370
    15
100
AcDbLine
 10
160.6753222651
 20
80.6038620553
 30
0.0
 11
160.6753222651
 21
136.2070274328
 31
0.0
  0
SPLINE
  5
B8
330
1F
100
AcDbEntity
  8
0
  6
Continuous
 62
     7
370
    15
100
AcDbSpline
210
0.0
220
0.0
230
1.0
 70
     8
 71
     3
 72
    12
 73
     8
 74
     0
 42
0.000000001
 43
0.00000001
 40
0.0
 40
0.0
 40
0.0
 40
0.0
 40
0.2500000000000015
 40
0.2500000000000015
 40
0.500000000000003
 40
0.500000000000003
 40
1.0
 40
1.0
 40
1.0
 40
1.0
 10
161.4753222650839
 20
135.3720908091234
 30
0.0
 10
161.3688295245875
 20
135.3720908091234
 30
0.0
 10
161.2616958215536
 20
135.3948094408497
 30
0.0
 10
161.0656514679989
 20
135.4814446289222
 30
0.0
 10
160.9771821824154
 20
135.5447214334619
 30
0.0
 10
160.7563768834628
 20
135.7803011017728
 30
0.0
 10
160.6753222650838
 20
135.9940193812609
 30
0.0
 10
160.6753222650838
 20
136.207027432791
 30
0.0
  0
SPLINE
  5
B9
330
1F
100
AcDbEntity
  8
0
  6
Continuous
 62
     7
370
    15
100
AcDbSpline
210
0.0
220
0.0
230
1.0
 70
     8
 71
     3
 72
    14
 73
    10
 74
     0
 42
0.000000001
 43
0.00000001
 40
0.0
 40
0.0
 40
0.0
 40
0.0
 40
0.25
 40
0.25
 40
0.5
 40
0.5
 40
0.75
 40
0.75
 40
1.0
 40
1.0
 40
1.0
 40
1.0
 10
164.4953222650838
 20
80.60386205526959
 30
0.0
 10
164.4953222650838
 20
80.71089141283724
 30
0.0
 10
164.4753345762723
 20
80.8179257426733
 30
0.0
 10
164.3980696877985
 20
81.01675032318903
 30
0.0
 10
164.3401437228109
 20
81.10957437537904
 30
0.0
 10
164.1946868907851
 20
81.26495876832139
 30
0.0
 10
164.105876028422
 20
81.32896596661506
 30
0.0
 10
163.9091414556092
 20
81.4160830809802
 30
0.0
 10
163.8027978809121
 20
81.43879867893725
 30
0.0
 10
163.6953222650839
 20
81.43879867893725
 30
0.0
  0
SPLINE
  5
BA
330
1F
100
AcDbEntity
  8
0
  6
Continuous
 62
     7
370
    15
100
AcDbSpline
210
0.0
220
0.0
230
1.0
 70
     8
 71
     3
 72
    12
 73
     8
 74
     0
 42
0.000000001
 43
0.00000001
 40
0.0
 40
0.0
 40
0.0
 40
0.0
 40
0.5
 40
0.5
 40
0.75
 40
0.75
 40
1.0
 40
1.0
 40
1.0
 40
1.0
 10
164.4953222650838
 20
136.207027432791
 30
0.0
 10
164.4953222650838
 20
135.9938588216124
 30
0.0
 10
164.4128213362397
 20
135.7787787737449
 30
0.0
 10
164.1942415588421
 20
135.5455424080948
 30
0.0
 10
164.105241357649
 20
135.4816333089692
 30
0.0
 10
163.9096639562003
 20
135.395046954125
 30
0.0
 10
163.8032610251041
 20
135.3720908091234
 30
0.0
 10
163.6953222650839
 20
135.3720908091234
 30
0.0
  0
LINE
  5
BB
330
1F
100
AcDbEntity
  8
0
  6
Continuous
 62
     7
370
    15
100
AcDbLine
 10
164.4953222651
 20
80.6038620553
 30
0.0
 11
164.4953222651
 21
136.2070274328
 31
0.0
  0
LINE
  5
BC
330
1F
100
AcDbEntity
  8
0
  6
Continuous
 62
     7
370
    15
100
AcDbLine
 10
163.6953222651
 20
81.4387986789
 30
0.0
 11
161.4753222651
 21
81.4387986789
 31
0.0
  0
LINE
  5
BD
330
1F
100
AcDbEntity
  8
0
  6
Continuous
 62
     7
370
    15
100
AcDbLine
 10
163.6953222651
 20
135.3720908091
 30
0.0
 11
161.4753222651
 21
135.3720908091
 31
0.0
  0
SPLINE
  5
BE
330
1F
100
AcDbEntity
  8
0
  6
Continuous
 62
     7
370
    15
100
AcDbSpline
210
0.0
220
0.0
230
1.0
 70
    24
 71
     3
 72
    10
 73
     6
 74
     0
 42
0.000000001
 43
0.00000001
 40
0.0
 40
0.0
 40
0.0
 40
0.0
 40
0.5000000000000001
 40
0.5000000000000001
 40
1.0
 40
1.0
 40
1.0
 40
1.0
 10
170.5353222650838
 20
86.00544474403033
 30
0.0
 10
170.5353222650838
 20
86.00544474403033
 30
0.0
 10
170.5820719978503
 20
86.00544474403033
 30
0.0
 10
170.6709650294488
 20
86.00544474403033
 30
0.0
 10
170.7117983391793
 20
86.00544474403033
 30
0.0
 10
170.7117954062527
 20
86.00544474403033
 30
0.0
  0
LINE
  5
BF
330
1F
100
AcDbEntity
  8
0
  6
Continuous
 62
     7
370
    15
100
AcDbLine
 10
154.4838514527
 20
86.005444744
 30
0.0
 11
154.5016121812
 21
86.005444744
 31
0.0
  0
LINE
  5
C0
330
1F
100
AcDbEntity
  8
0
  6
Continuous
 62
     7
370
    15
100
AcDbLine
 10
151.4853222651
 20
86.180444744
 30
0.0
 11
151.4853222651
 21
130.630444744
 31
0.0
  0
LINE
  5
C1
330
1F
100
AcDbEntity
  8
0
  6
Continuous
 62
     7
370
    15
100
AcDbLine
 10
186.4853222651
 20
129.6304447435
 30
0.0
 11
186.4853222651
 21
87.180444744
 31
0.0
  0
LINE
  5
C2
330
1F
100
AcDbEntity
  8
0
  6
Continuous
 62
     7
370
    15
100
AcDbLine
 10
207.4853222651
 20
108.405444744
 30
0.0
 11
207.4853222651
 21
96.105444744
 31
0.0
  0
LINE
  5
C3
330
1F
100
AcDbEntity
  8
0
  6
Continuous
 62
     7
370
    15
100
AcDbLine
 10
207.4853222651
 20
120.705444744
 30
0.0
 11
207.4853222651
 21
108.405444744
 31
0.0
  0
LINE
  5
C4
330
1F
100
AcDbEntity
  8
0
  6
Continuous
 62
     7
370
    15
100
AcDbLine
 10
207.2853222651
 20
108.405444744
 30
0.0
 11
207.2853222651
 21
95.905444744
 31
0.0
  0
LINE
  5
C5
330
1F
100
AcDbEntity
  8
0
  6
Continuous
 62
     7
370
    15
100
AcDbLine
 10
207.2853222651
 20
120.905444744
 30
0.0
 11
207.2853222651
 21
108.405444744
 31
0.0
  0
SPLINE
  5
C6
330
1F
100
AcDbEntity
  8
0
  6
Continuous
 62
     7
370
    15
100
AcDbSpline
210
0.0
220
0.0
230
1.0
 70
    11
 71
     3
 72
    64
 73
    60
 74
     0
 42
0.000000001
 43
0.00000001
 40
0.0
 40
0.0
 40
0.0
 40
0.0
 40
0.03125
 40
0.03125
 40
0.0625000000000001
 40
0.0625000000000001
 40
0.0937500000000001
 40
0.0937500000000001
 40
0.1250000000000002
 40
0.1250000000000002
 40
0.1562500000000002
 40
0.1562500000000002
 40
0.1875000000000003
 40
0.1875000000000003
 40
0.2187500000000003
 40
0.2187500000000003
 40
0.2500000000000004
 40
0.2500000000000004
 40
0.2812500000000004
 40
0.2812500000000004
 40
0.3125000000000005
 40
0.3125000000000005
 40
0.3437500000000006
 40
0.3437500000000006
 40
0.3750000000000006
 40
0.3750000000000006
 40
0.4062500000000006
 40
0.4062500000000006
 40
0.4375000000000007
 40
0.4375000000000007
 40
0.4687500000000007
 40
0.4687500000000007
 40
0.5000000000000007
 40
0.5000000000000007
 40
0.5312500000000007
 40
0.5312500000000007
 40
0.5625000000000008
 40
0.5625000000000008
 40
0.6250000000000008
 40
0.6250000000000008
 40
0.6875000000000008
 40
0.6875000000000008
 40
0.7187500000000008
 40
0.7187500000000008
 40
0.7500000000000008
 40
0.7500000000000008
 40
0.7812500000000009
 40
0.7812500000000009
 40
0.8125000000000009
 40
0.8125000000000009
 40
0.8437500000000009
 40
0.8437500000000009
 40
0.8750000000000008
 40
0.8750000000000008
 40
0.9062500000000008
 40
0.9062500000000008
 40
0.9375000000000007
 40
0.9375000000000007
 40
1.0
 40
1.0
 40
1.0
 40
1.0
 10
198.9171195901908
 20
110.4027127854223
 30
0.0
 10
199.0622461088387
 20
110.5219280022557
 30
0.0
 10
199.2163937921493
 20
110.6254509401192
 30
0.0
 10
199.5412930575889
 20
110.8039695744285
 30
0.0
 10
199.7133323220589
 20
110.8793469767801
 30
0.0
 10
200.0686918859956
 20
110.9990193185209
 30
0.0
 10
200.2496312049952
 20
111.0427765503641
 30
0.0
 10
200.6178012888569
 20
111.0994650565775
 30
0.0
 10
200.8068628689046
 20
111.1122769992342
 30
0.0
 10
201.1812348849465
 20
111.1056198089667
 30
0.0
 10
201.3662744165753
 20
111.0865445318485
 30
0.0
 10
201.7321037149475
 20
111.0171228361168
 30
0.0
 10
201.9146322169093
 20
110.9659911946241
 30
0.0
 10
202.263427894961
 20
110.8342472151333
 30
0.0
 10
202.4303106545492
 20
110.7539013650455
 30
0.0
 10
202.7487700608486
 20
110.563408372809
 30
0.0
 10
202.9016982052287
 20
110.451808032102
 30
0.0
 10
203.1790391723054
 20
110.2051557011273
 30
0.0
 10
203.3046760445926
 20
110.0698080513871
 30
0.0
 10
203.5283057902224
 20
109.7733140196735
 30
0.0
 10
203.6265384299461
 20
109.610590234213
 30
0.0
 10
203.7825808421632
 20
109.2737364144385
 30
0.0
 10
203.8420318126533
 20
109.0979576163948
 30
0.0
 10
203.9206992893242
 20
108.7303772318276
 30
0.0
 10
203.9386322946297
 20
108.5421765131214
 30
0.0
 10
203.9309964426538
 20
108.1695694159896
 30
0.0
 10
203.905055421581
 20
107.9807931602475
 30
0.0
 10
203.8118787595435
 20
107.6180751868885
 30
0.0
 10
203.7453734121367
 20
107.4438975719257
 30
0.0
 10
203.5738990592569
 20
107.1093197048849
 30
0.0
 10
203.4706766078595
 20
106.9527840618129
 30
0.0
 10
203.2355939101292
 20
106.6642841079797
 30
0.0
 10
203.1017587647295
 20
106.5304347412922
 30
0.0
 10
202.8143530215878
 20
106.2933777769464
 30
0.0
 10
202.660423237644
 20
106.1892122314295
 30
0.0
 10
202.3327248766183
 20
106.0084022734735
 30
0.0
 10
202.1600395903799
 20
105.9327298378006
 30
0.0
 10
201.6311632244792
 20
105.753826043068
 30
0.0
 10
201.2529233864298
 20
105.6956914551242
 30
0.0
 10
200.5080693799623
 20
105.7080565938941
 30
0.0
 10
200.1319558578018
 20
105.7788249379349
 30
0.0
 10
199.6107387673374
 20
105.9751230470938
 30
0.0
 10
199.441512328373
 20
106.0562526376397
 30
0.0
 10
199.119959797137
 20
106.2486570553694
 30
0.0
 10
198.9703421790525
 20
106.3580372360272
 30
0.0
 10
198.6936366917815
 20
106.6037324759012
 30
0.0
 10
198.5652816417403
 20
106.7417509121378
 30
0.0
 10
198.3404658515269
 20
107.0403025113504
 30
0.0
 10
198.2448445487553
 20
107.1989508305327
 30
0.0
 10
198.0885191208348
 20
107.5359260968739
 30
0.0
 10
198.0275422017854
 20
107.7168882045865
 30
0.0
 10
197.9498061606937
 20
108.0822242150125
 30
0.0
 10
197.9319093919309
 20
108.2676885720682
 30
0.0
 10
197.9397945735127
 20
108.6444516939952
 30
0.0
 10
197.9659332652289
 20
108.8318062705679
 30
0.0
 10
198.0590301505055
 20
109.1934708382777
 30
0.0
 10
198.1272304498045
 20
109.3713913775302
 30
0.0
 10
198.3836051645944
 20
109.8698788647078
 30
0.0
 10
198.6268665528953
 20
110.1642823517555
 30
0.0
 10
198.9171195901909
 20
110.4027127854223
 30
0.0
  0
LINE
  5
C7
330
1F
100
AcDbEntity
  8
0
  6
Continuous
 62
     7
370
    15
100
AcDbLine
 10
83.2353222651
 20
96.998314147
 30
0.0
 11
83.2353222651
 21
119.8125753411
 31
0.0
  0
CIRCLE
  5
C8
330
1F
100
AcDbEntity
  8
0
  6
HIDDEN
 62
     7
370
     0
100
AcDbCircle
 10
200.9353222651
 20
108.405444744
 30
0.0
 40
1.77679491924313
  0
CIRCLE
  5
C9
330
1F
100
AcDbEntity
  8
0
  6
HIDDEN
 62
     7
370
     0
100
AcDbCircle
 10
200.9353222651
 20
108.405444744
 30
0.0
 40
1.676794919243122
  0
LINE
  5
CA
330
1F
100
AcDbEntity
  8
0
  6
HIDDEN
 62
     7
370
     0
100
AcDbLine
 10
154.6603222651
 20
133.205444744
 30
0.0
 11
155.3289514152
 21
133.205444744
 31
0.0
  0
ELLIPSE
  5
CB
330
1F
100
AcDbEntity
  8
0
  6
HIDDEN
 62
     7
370
     0
100
AcDbEllipse
 10
155.3289514152
 20
134.005444744
 30
0.0
 11
0.0
 21
0.7999999999999829
 31
0.0
210
0.0
220
0.0
230
1.0
 40
0.4142135624
 41
3.141592653589793
 42
4.712388980384695
  0
LINE
  5
CC
330
1F
100
AcDbEntity
  8
0
  6
HIDDEN
 62
     7
370
     0
100
AcDbLine
 10
155.3289514152
 20
86.005444744
 30
0.0
 11
154.6603222651
 21
86.005444744
 31
0.0
  0
ELLIPSE
  5
CD
330
1F
100
AcDbEntity
  8
0
  6
HIDDEN
 62
     7
370
     0
100
AcDbEllipse
 10
155.3289514152
 20
85.205444744
 30
0.0
 11
0.0
 21
0.7999999999999972
 31
0.0
210
0.0
220
0.0
230
1.0
 40
0.4142135624
 41
4.712388980384677
 42
6.283185307179586
  0
LINE
  5
CE
330
1F
100
AcDbEntity
  8
0
  6
HIDDEN
 62
     7
370
     0
100
AcDbLine
 10
155.6603222651
 20
78.544348976
 30
0.0
 11
154.8772379304
 21
78.0909574651
 31
0.0
  0
LINE
  5
CF
330
1F
100
AcDbEntity
  8
0
  6
HIDDEN
 62
     7
370
     0
100
AcDbLine
 10
154.9493151013
 20
138.7946216707
 30
0.0
 11
155.6603222651
 21
138.0836145069
 31
0.0
  0
LINE
  5
D0
330
1F
100
AcDbEntity
  8
0
  6
HIDDEN
 62
     7
370
     0
100
AcDbLine
 10
170.5353222651
 20
86.005444744
 30
0.0
 11
155.3289514152
 21
86.005444744
 31
0.0
  0
LINE
  5
D1
330
1F
100
AcDbEntity
  8
0
  6
HIDDEN
 62
     7
370
     0
100
AcDbLine
 10
159.5159984518
 20
78.544348976
 30
0.0
 11
155.6603222651
 21
78.544348976
 31
0.0
  0
LINE
  5
D2
330
1F
100
AcDbEntity
  8
0
  6
HIDDEN
 62
     7
370
     0
100
AcDbLine
 10
170.5353222651
 20
78.544348976
 30
0.0
 11
165.6546460784
 21
78.544348976
 31
0.0
  0
LINE
  5
D3
330
1F
100
AcDbEntity
  8
0
  6
HIDDEN
 62
     7
370
     0
100
AcDbLine
 10
155.6603222651
 20
78.544348976
 30
0.0
 11
155.6603222651
 21
85.205444744
 31
0.0
  0
LINE
  5
D4
330
1F
100
AcDbEntity
  8
0
  6
HIDDEN
 62
     7
370
     0
100
AcDbLine
 10
155.3289514152
 20
133.205444744
 30
0.0
 11
170.5353222651
 21
133.205444744
 31
0.0
  0
LINE
  5
D5
330
1F
100
AcDbEntity
  8
0
  6
HIDDEN
 62
     7
370
     0
100
AcDbLine
 10
155.6603222651
 20
138.0836145069
 30
0.0
 11
159.6178362581
 21
138.0836145069
 31
0.0
  0
LINE
  5
D6
330
1F
100
AcDbEntity
  8
0
  6
HIDDEN
 62
     7
370
     0
100
AcDbLine
 10
165.552808272
 20
138.0836145069
 30
0.0
 11
170.5353222651
 21
138.0836145069
 31
0.0
  0
LINE
  5
D7
330
1F
100
AcDbEntity
  8
0
  6
HIDDEN
 62
     7
370
     0
100
AcDbLine
 10
155.6603222651
 20
138.0836145069
 30
0.0
 11
155.6603222651
 21
134.005444744
 31
0.0
  0
LINE
  5
D8
330
1F
100
AcDbEntity
  8
0
  6
HIDDEN
 62
     7
370
     0
100
AcDbLine
 10
88.8611404094
 20
101.655444744
 30
0.0
 11
88.8611404094
 21
115.155444744
 31
0.0
  0
SPLINE
  5
D9
330
1F
100
AcDbEntity
  8
0
  6
HIDDEN
 62
     7
370
     0
100
AcDbSpline
210
0.0
220
0.0
230
1.0
 70
     8
 71
     3
 72
    16
 73
    12
 74
     0
 42
0.000000001
 43
0.00000001
 40
0.0
 40
0.0
 40
0.0
 40
0.0
 40
0.2499999999999957
 40
0.2499999999999957
 40
0.4999999999999913
 40
0.4999999999999913
 40
0.6249999999999933
 40
0.6249999999999933
 40
0.7499999999999954
 40
0.7499999999999954
 40
1.0
 40
1.0
 40
1.0
 40
1.0
 10
207.4853222650839
 20
115.2462818593981
 30
0.0
 10
207.4853222650838
 20
115.1778109372141
 30
0.0
 10
207.4807770549085
 20
115.1078826955612
 30
0.0
 10
207.4551070897843
 20
114.9627134654729
 30
0.0
 10
207.4333802099012
 20
114.8843627434011
 30
0.0
 10
207.3744207794397
 20
114.7821911945412
 30
0.0
 10
207.3497706524553
 20
114.7510028652744
 30
0.0
 10
207.2954536596583
 20
114.7047949481783
 30
0.0
 10
207.2666837279436
 20
114.6900579317062
 30
0.0
 10
207.1839813579344
 20
114.6648602829962
 30
0.0
 10
207.1326918813291
 20
114.670437120575
 30
0.0
 10
207.0853222650763
 20
114.682990473825
 30
0.0
  0
SPLINE
  5
DA
330
1F
100
AcDbEntity
  8
0
  6
HIDDEN
 62
     7
370
     0
100
AcDbSpline
210
0.0
220
0.0
230
1.0
 70
     8
 71
     3
 72
     8
 73
     4
 74
     0
 42
0.000000001
 43
0.00000001
 40
0.0
 40
0.0
 40
0.0
 40
0.0
 40
1.0
 40
1.0
 40
1.0
 40
1.0
 10
207.0853222650787
 20
114.6829904738343
 30
0.0
 10
207.0264269404506
 20
114.650038617162
 30
0.0
 10
206.9568173111711
 20
114.6283726612056
 30
0.0
 10
206.885322265084
 20
114.6283726612056
 30
0.0
  0
SPLINE
  5
DB
330
1F
100
AcDbEntity
  8
0
  6
HIDDEN
 62
     7
370
     0
100
AcDbSpline
210
0.0
220
0.0
230
1.0
 70
     8
 71
     3
 72
     8
 73
     4
 74
     0
 42
0.000000001
 43
0.00000001
 40
0.0
 40
0.0
 40
0.0
 40
0.0
 40
1.0
 40
1.0
 40
1.0
 40
1.0
 10
207.0853222650936
 20
102.127899014218
 30
0.0
 10
207.0264269404622
 20
102.1608508708948
 30
0.0
 10
206.9568173111771
 20
102.1825168268551
 30
0.0
 10
206.885322265084
 20
102.1825168268551
 30
0.0
  0
SPLINE
  5
DC
330
1F
100
AcDbEntity
  8
0
  6
HIDDEN
 62
     7
370
     0
100
AcDbSpline
210
0.0
220
0.0
230
1.0
 70
     8
 71
     3
 72
    16
 73
    12
 74
     0
 42
0.000000001
 43
0.00000001
 40
0.0
 40
0.0
 40
0.0
 40
0.0
 40
0.2500000000000122
 40
0.2500000000000122
 40
0.375000000000011
 40
0.375000000000011
 40
0.5000000000000098
 40
0.5000000000000098
 40
0.7500000000000049
 40
0.7500000000000049
 40
1.0
 40
1.0
 40
1.0
 40
1.0
 10
207.0853222650936
 20
102.1278990142178
 30
0.0
 10
207.1327042298595
 20
102.140455704901
 30
0.0
 10
207.1838854483885
 20
102.1460804626662
 30
0.0
 10
207.266840510304
 20
102.120779812015
 30
0.0
 10
207.2955228714652
 20
102.1060352552775
 30
0.0
 10
207.3496306763701
 20
102.0600236879061
 30
0.0
 10
207.3740264304888
 20
102.0292908723611
 30
0.0
 10
207.4333379932283
 20
101.9268089318569
 30
0.0
 10
207.4548655471289
 20
101.8491513730453
 30
0.0
 10
207.4806958018771
 20
101.703865252496
 30
0.0
 10
207.4853222650838
 20
101.6331329856824
 30
0.0
 10
207.4853222650838
 20
101.5646121124774
 30
0.0
  0
LINE
  5
DD
330
1F
100
AcDbEntity
  8
0
  6
HIDDEN
 62
     7
370
     0
100
AcDbLine
 10
194.3513476689
 20
108.405444744
 30
0.0
 11
194.3513476689
 21
101.405444744
 31
0.0
  0
LINE
  5
DE
330
1F
100
AcDbEntity
  8
0
  6
HIDDEN
 62
     7
370
     0
100
AcDbLine
 10
194.3513476689
 20
115.405444744
 30
0.0
 11
194.3513476689
 21
108.405444744
 31
0.0
  0
LINE
  5
DF
330
1F
100
AcDbEntity
  8
0
  6
HIDDEN
 62
     7
370
     0
100
AcDbLine
 10
200.5853222651
 20
114.6283726612
 30
0.0
 11
206.8853222651
 21
114.6283726612
 31
0.0
  0
LINE
  5
E0
330
1F
100
AcDbEntity
  8
0
  6
HIDDEN
 62
     7
370
     0
100
AcDbLine
 10
200.5853222651
 20
102.1825168269
 30
0.0
 11
206.8853222651
 21
102.1825168269
 31
0.0
  0
LINE
  5
E1
330
1F
100
AcDbEntity
  8
0
  6
HIDDEN
 62
     7
370
     0
100
AcDbLine
 10
126.2353222651
 20
101.655444744
 30
0.0
 11
126.2353222651
 21
115.155444744
 31
0.0
  0
LINE
  5
E2
330
1F
100
AcDbEntity
  8
0
  6
HIDDEN
 62
     7
370
     0
100
AcDbLine
 10
128.788979896
 20
105.905444744
 30
0.0
 11
128.788979896
 21
110.905444744
 31
0.0
  0
LINE
  5
E3
330
1F
100
AcDbEntity
  8
0
  6
HIDDEN
 62
     7
370
     0
100
AcDbLine
 10
157.8353222651
 20
132.805444744
 30
0.0
 11
167.3353222651
 21
132.805444744
 31
0.0
  0
SPLINE
  5
E4
330
1F
100
AcDbEntity
  8
0
  6
HIDDEN
 62
     7
370
     0
100
AcDbSpline
210
0.0
220
0.0
230
1.0
 70
     8
 71
     3
 72
    14
 73
    10
 74
     0
 42
0.000000001
 43
0.00000001
 40
0.0
 40
0.0
 40
0.0
 40
0.0
 40
0.25
 40
0.25
 40
0.5
 40
0.5
 40
0.75
 40
0.75
 40
1.0
 40
1.0
 40
1.0
 40
1.0
 10
207.0853222650838
 20
117.4804447440303
 30
0.0
 10
207.0853222650838
 20
117.6131173079671
 30
0.0
 10
207.0854899341087
 20
117.7333311067242
 30
0.0
 10
207.0831248966807
 20
117.9496239576527
 30
0.0
 10
207.0810579636918
 20
118.0451953247022
 30
0.0
 10
207.075597472601
 20
118.2008308806022
 30
0.0
 10
207.0718995026654
 20
118.2630989608374
 30
0.0
 10
207.0646949070765
 20
118.349249118774
 30
0.0
 10
207.0611558215562
 20
118.3738272841083
 30
0.0
 10
207.058570221689
 20
118.3792968728765
 30
0.0
  0
SPLINE
  5
E5
330
1F
100
AcDbEntity
  8
0
  6
HIDDEN
 62
     7
370
     0
100
AcDbSpline
210
0.0
220
0.0
230
1.0
 70
     8
 71
     3
 72
    18
 73
    14
 74
     0
 42
0.000000001
 43
0.00000001
 40
0.0
 40
0.0
 40
0.0
 40
0.0
 40
0.0719987319727327
 40
0.1536881520426581
 40
0.2365699393753168
 40
0.2782128398599852
 40
0.3584831115292689
 40
0.4393147248079831
 40
0.6037498884428109
 40
0.684154733925148
 40
0.765119326786663
 40
0.9298295713568606
 40
0.9999999999999999
 40
0.9999999999999999
 40
0.9999999999999999
 40
0.9999999999999999
 10
207.05742252042
 20
118.3769005171033
 30
0.0
 10
207.0567858892144
 20
118.3766892383665
 30
0.0
 10
207.0554269392601
 20
118.3762382437763
 30
0.0
 10
207.0547988679861
 20
118.3550765194118
 30
0.0
 10
207.0550484089217
 20
118.3281730298771
 30
0.0
 10
207.0561038698218
 20
118.2930036265234
 30
0.0
 10
207.0577869324805
 20
118.2507195025724
 30
0.0
 10
207.0619079257843
 20
118.1672791071405
 30
0.0
 10
207.0677062172103
 20
118.0607463517351
 30
0.0
 10
207.0740080298482
 20
117.9338916046281
 30
0.0
 10
207.0800601462984
 20
117.7941898756895
 30
0.0
 10
207.0845649621867
 20
117.6419955645348
 30
0.0
 10
207.0851480551002
 20
117.5176060270202
 30
0.0
 10
207.0853222536799
 20
117.4804447440303
 30
0.0
  0
LWPOLYLINE
  5
E6
330
1F
100
AcDbEntity
  8
0
  6
HIDDEN
 62
     7
370
     0
100
AcDbPolyline
 90
        4
 70
   128
 43
0.0
 10
207.0853222537
 20
117.480444744
 10
207.0853222688
 20
116.9997846363
 10
207.0853222641
 20
115.0771442055
 10
207.0853222651
 20
114.6829904738
  0
LINE
  5
E7
330
1F
100
AcDbEntity
  8
0
  6
HIDDEN
 62
     7
370
     0
100
AcDbLine
 10
207.0853222697
 20
99.330444744
 30
0.0
 11
207.0853222651
 21
102.1278990142
 31
0.0
  0
SPLINE
  5
E8
330
1F
100
AcDbEntity
  8
0
  6
HIDDEN
 62
     7
370
     0
100
AcDbSpline
210
0.0
220
0.0
230
1.0
 70
     8
 71
     3
 72
    14
 73
    10
 74
     0
 42
0.000000001
 43
0.00000001
 40
0.0
 40
0.0
 40
0.0
 40
0.0
 40
0.1122582900553072
 40
0.277976247788662
 40
0.4384585881335147
 40
0.6035827756124568
 40
0.76433271313342
 40
0.9297325884563896
 40
1.0
 40
1.0
 40
1.0
 40
1.0
 10
207.0575558964183
 20
98.43588415022431
 30
0.0
 10
207.056619943894
 20
98.43715882179893
 30
0.0
 10
207.0543023193274
 20
98.44031518932691
 30
0.0
 10
207.0552158013771
 20
98.50378380856758
 30
0.0
 10
207.0604398340703
 20
98.61694163748892
 30
0.0
 10
207.0691235525291
 20
98.77604483180714
 30
0.0
 10
207.0788700727591
 20
98.97767138212602
 30
0.0
 10
207.0846024178261
 20
99.16853197602761
 30
0.0
 10
207.0851569333212
 20
99.29325644481962
 30
0.0
 10
207.085322269669
 20
99.33044474403032
 30
0.0
  0
LINE
  5
E9
330
1F
100
AcDbEntity
  8
0
  6
HIDDEN
 62
     7
370
     0
100
AcDbLine
 10
200.5853222651
 20
99.330444744
 30
0.0
 11
200.5853222651
 21
102.1825168269
 31
0.0
  0
LINE
  5
EA
330
1F
100
AcDbEntity
  8
0
  6
HIDDEN
 62
     7
370
     0
100
AcDbLine
 10
200.5853222651
 20
117.480444744
 30
0.0
 11
200.5853222651
 21
114.6283726612
 31
0.0
  0
LINE
  5
EB
330
1F
100
AcDbEntity
  8
0
  6
HIDDEN
 62
     7
370
     0
100
AcDbLine
 10
200.5853222651
 20
118.380444744
 30
0.0
 11
200.5853222651
 21
117.480444744
 31
0.0
  0
LINE
  5
EC
330
1F
100
AcDbEntity
  8
0
  6
HIDDEN
 62
     7
370
     0
100
AcDbLine
 10
200.5853222651
 20
98.430444744
 30
0.0
 11
200.5853222651
 21
99.330444744
 31
0.0
  0
ARC
  5
ED
330
1F
100
AcDbEntity
  8
0
  6
HIDDEN
 62
     7
370
     0
100
AcDbCircle
 10
191.7353222651
 20
115.155444744
 30
0.0
 40
0.7500000000000284
100
AcDbArc
 50
0.0
 51
180.0
  0
ARC
  5
EE
330
1F
100
AcDbEntity
  8
0
  6
HIDDEN
 62
     7
370
     0
100
AcDbCircle
 10
191.7353222651
 20
115.155444744
 30
0.0
 40
0.7500000000000284
100
AcDbArc
 50
180.0
 51
0.0
  0
ARC
  5
EF
330
1F
100
AcDbEntity
  8
0
  6
HIDDEN
 62
     7
370
     0
100
AcDbCircle
 10
191.7353222651
 20
101.655444744
 30
0.0
 40
0.7500000000000284
100
AcDbArc
 50
180.0
 51
0.0
  0
ARC
  5
F0
330
1F
100
AcDbEntity
  8
0
  6
HIDDEN
 62
     7
370
     0
100
AcDbCircle
 10
191.7353222651
 20
101.655444744
 30
0.0
 40
0.7500000000000284
100
AcDbArc
 50
0.0
 51
180.0
  0
LINE
  5
F1
330
1F
100
AcDbEntity
  8
0
  6
HIDDEN
 62
     7
370
     0
100
AcDbLine
 10
190.9853222651
 20
115.155444744
 30
0.0
 11
190.9853222651
 21
101.655444744
 31
0.0
  0
LINE
  5
F2
330
1F
100
AcDbEntity
  8
0
  6
HIDDEN
 62
     7
370
     0
100
AcDbLine
 10
192.4853222651
 20
101.655444744
 30
0.0
 11
192.4853222651
 21
115.155444744
 31
0.0
  0
ARC
  5
F3
330
1F
100
AcDbEntity
  8
0
  6
HIDDEN
 62
     7
370
     0
100
AcDbCircle
 10
84.0353222651
 20
99.390444744
 30
0.0
 40
0.7999999999999972
100
AcDbArc
 50
90.0
 51
180.0
  0
ARC
  5
F4
330
1F
100
AcDbEntity
  8
0
  6
HIDDEN
 62
     7
370
     0
100
AcDbCircle
 10
84.0353222651
 20
117.420444744
 30
0.0
 40
0.7999999999999972
100
AcDbArc
 50
180.0
 51
270.0
  0
ARC
  5
F5
330
1F
100
AcDbEntity
  8
0
  6
HIDDEN
 62
     7
370
     0
100
AcDbCircle
 10
87.7843821574
 20
100.590444744
 30
0.0
 40
0.4000000000000057
100
AcDbArc
 50
270.0
 51
330.0
  0
ARC
  5
F6
330
1F
100
AcDbEntity
  8
0
  6
HIDDEN
 62
     7
370
     0
100
AcDbCircle
 10
87.7843821574
 20
116.220444744
 30
0.0
 40
0.4000000000000057
100
AcDbArc
 50
30.0
 51
90.0
  0
LINE
  5
F7
330
1F
100
AcDbEntity
  8
0
  6
HIDDEN
 62
     7
370
     0
100
AcDbLine
 10
84.0353222651
 20
100.190444744
 30
0.0
 11
87.7843821574
 21
100.190444744
 31
0.0
  0
LINE
  5
F8
330
1F
100
AcDbEntity
  8
0
  6
HIDDEN
 62
     7
370
     0
100
AcDbLine
 10
87.7843821574
 20
116.620444744
 30
0.0
 11
84.0353222651
 21
116.620444744
 31
0.0
  0
LINE
  5
F9
330
1F
100
AcDbEntity
  8
0
  6
HIDDEN
 62
     7
370
     0
100
AcDbLine
 10
88.1307923189
 20
100.390444744
 30
0.0
 11
88.8611404094
 21
101.655444744
 31
0.0
  0
LINE
  5
FA
330
1F
100
AcDbEntity
  8
0
  6
HIDDEN
 62
     7
370
     0
100
AcDbLine
 10
88.8611404094
 20
115.155444744
 30
0.0
 11
88.1307923189
 21
116.420444744
 31
0.0
  0
LINE
  5
FB
330
1F
100
AcDbEntity
  8
0
  6
HIDDEN
 62
     7
370
     0
100
AcDbLine
 10
192.380000267
 20
115.905444744
 30
0.0
 11
191.7853222651
 21
115.905444744
 31
0.0
  0
LINE
  5
FC
330
1F
100
AcDbEntity
  8
0
  6
HIDDEN
 62
     7
370
     0
100
AcDbLine
 10
191.7853222651
 20
100.905444744
 30
0.0
 11
192.380000267
 21
100.905444744
 31
0.0
  0
ARC
  5
FD
330
1F
100
AcDbEntity
  8
0
  6
HIDDEN
 62
     7
370
     0
100
AcDbCircle
 10
191.7853222651
 20
115.105444744
 30
0.0
 40
0.7999999999999972
100
AcDbArc
 50
90.0
 51
180.0
  0
ARC
  5
FE
330
1F
100
AcDbEntity
  8
0
  6
HIDDEN
 62
     7
370
     0
100
AcDbCircle
 10
191.7853222651
 20
101.705444744
 30
0.0
 40
0.7999999999999972
100
AcDbArc
 50
180.0
 51
270.0
  0
ARC
  5
FF
330
1F
100
AcDbEntity
  8
0
  6
HIDDEN
 62
     7
370
     0
100
AcDbCircle
 10
192.380000267
 20
115.105444744
 30
0.0
 40
0.8000000000000056
100
AcDbArc
 50
75.0
 51
90.0
  0
ARC
  5
100
330
1F
100
AcDbEntity
  8
0
  6
HIDDEN
 62
     7
370
     0
100
AcDbCircle
 10
192.380000267
 20
101.705444744
 30
0.0
 40
0.8000000000000056
100
AcDbArc
 50
270.0
 51
285.0
  0
LINE
  5
101
330
1F
100
AcDbEntity
  8
0
  6
HIDDEN
 62
     7
370
     0
100
AcDbLine
 10
192.5870555031
 20
100.932704083
 30
0.0
 11
194.3513476689
 21
101.405444744
 31
0.0
  0
LINE
  5
102
330
1F
100
AcDbEntity
  8
0
  6
HIDDEN
 62
     7
370
     0
100
AcDbLine
 10
194.3513476689
 20
115.405444744
 30
0.0
 11
192.5870555031
 21
115.8781854051
 31
0.0
  0
LINE
  5
103
330
1F
100
AcDbEntity
  8
0
  6
HIDDEN
 62
     7
370
     0
100
AcDbLine
 10
200.5853222651
 20
115.405444744
 30
0.0
 11
194.3513476689
 21
115.405444744
 31
0.0
  0
LINE
  5
104
330
1F
100
AcDbEntity
  8
0
  6
HIDDEN
 62
     7
370
     0
100
AcDbLine
 10
194.3513476689
 20
101.405444744
 30
0.0
 11
200.5853222651
 21
101.405444744
 31
0.0
  0
LINE
  5
105
330
1F
100
AcDbEntity
  8
0
  6
HIDDEN
 62
     7
370
     0
100
AcDbLine
 10
88.8611404094
 20
101.655444744
 30
0.0
 11
126.2353222651
 21
101.655444744
 31
0.0
  0
LINE
  5
106
330
1F
100
AcDbEntity
  8
0
  6
HIDDEN
 62
     7
370
     0
100
AcDbLine
 10
126.2353222651
 20
115.155444744
 30
0.0
 11
88.8611404094
 21
115.155444744
 31
0.0
  0
LINE
  5
107
330
1F
100
AcDbEntity
  8
0
  6
HIDDEN
 62
     7
370
     0
100
AcDbLine
 10
126.2353222651
 20
101.655444744
 30
0.0
 11
128.788979896
 21
105.905444744
 31
0.0
  0
LINE
  5
108
330
1F
100
AcDbEntity
  8
0
  6
HIDDEN
 62
     7
370
     0
100
AcDbLine
 10
128.788979896
 20
110.905444744
 30
0.0
 11
126.2353222651
 21
115.155444744
 31
0.0
  0
LINE
  5
109
330
1F
100
AcDbEntity
  8
0
  6
HIDDEN
 62
     7
370
     0
100
AcDbLine
 10
157.8353222651
 20
132.805444744
 30
0.0
 11
162.5853222651
 21
129.9513568036
 31
0.0
  0
LINE
  5
10A
330
1F
100
AcDbEntity
  8
0
  6
HIDDEN
 62
     7
370
     0
100
AcDbLine
 10
162.5853222651
 20
129.9513568036
 30
0.0
 11
167.3353222651
 21
132.805444744
 31
0.0
  0
LINE
  5
10B
330
1F
100
AcDbEntity
  8
0
  6
HIDDEN
 62
     7
370
     0
100
AcDbLine
 10
157.8353222651
 20
133.205444744
 30
0.0
 11
157.8353222651
 21
132.805444744
 31
0.0
  0
LINE
  5
10C
330
1F
100
AcDbEntity
  8
0
  6
HIDDEN
 62
     7
370
     0
100
AcDbLine
 10
167.3353222651
 20
132.805444744
 30
0.0
 11
167.3353222651
 21
133.205444744
 31
0.0
  0
LINE
  5
10D
330
1F
100
AcDbEntity
  8
0
  6
HIDDEN
 62
     7
370
     0
100
AcDbLine
 10
207.4853222651
 20
118.808393159
 30
0.0
 11
207.0513385348
 21
118.3744095768
 31
0.0
  0
LINE
  5
10E
330
1F
100
AcDbEntity
  8
0
  6
HIDDEN
 62
     7
370
     0
100
AcDbLine
 10
207.0513380005
 20
98.4364808691
 30
0.0
 11
207.4853222651
 21
98.0024966965
 31
0.0
  0
LINE
  5
10F
330
1F
100
AcDbEntity
  8
0
  6
HIDDEN
 62
     7
370
     0
100
AcDbLine
 10
128.788979896
 20
105.905444744
 30
0.0
 11
190.9853222651
 21
105.905444744
 31
0.0
  0
LINE
  5
110
330
1F
100
AcDbEntity
  8
0
  6
HIDDEN
 62
     7
370
     0
100
AcDbLine
 10
190.9853222651
 20
110.905444744
 30
0.0
 11
128.788979896
 21
110.905444744
 31
0.0
  0
LINE
  5
111
330
1F
100
AcDbEntity
  8
0
  6
HIDDEN
 62
     7
370
     0
100
AcDbLine
 10
207.0577535536
 20
118.380444744
 30
0.0
 11
200.5853222651
 21
118.380444744
 31
0.0
  0
LINE
  5
112
330
1F
100
AcDbEntity
  8
0
  6
HIDDEN
 62
     7
370
     0
100
AcDbLine
 10
200.5853222651
 20
98.430444744
 30
0.0
 11
207.0578504138
 21
98.430444744
 31
0.0
  0
DIMENSION
  5
113
330
1F
100
AcDbEntity
  8
VERMASSUNG
100
AcDbDimension
  2
_D
 10
74.9032047127
 20
140.155444744
 30
0.0
 11
74.9032047127
 21
108.405444744
 31
0.0
 70
   160
  1
CAT 40 %%c<>
 71
     2
 42
-1.0
  3
SLDDIMSTYLE0
100
AcDbAlignedDimension
 13
169.9353222651
 23
76.655444744
 33
0.0
 14
169.9353222651
 24
140.155444744
 34
0.0
 50
90.0
100
AcDbRotatedDimension
  0
DIMENSION
  5
120
330
1F
100
AcDbEntity
  8
VERMASSUNG
100
AcDbDimension
  2
_D_1
 10
214.1058215261
 20
101.405444744
 30
0.0
 11
214.1058215261
 21
108.405444744
 31
0.0
 70
   160
  1
%%c<>
 71
     2
 42
-1.0
  3
SLDDIMSTYLE1
100
AcDbAlignedDimension
 13
200.5853222651
 23
115.405444744
 33
0.0
 14
200.5853222651
 24
101.405444744
 34
0.0
 50
90.0
100
AcDbRotatedDimension
  0
DIMENSION
  5
12C
330
1F
100
AcDbEntity
  8
VERMASSUNG
100
AcDbDimension
  2
_D_2
 10
207.4853222651
 20
146.0267928714
 30
0.0
 11
179.4853222651
 21
146.0267928714
 31
0.0
 70
   160
  1
<>
 71
     2
 42
-1.0
  3
SLDDIMSTYLE1
100
AcDbAlignedDimension
 13
151.4853222651
 23
130.630444744
 33
0.0
 14
207.4853222651
 24
120.705444744
 34
0.0
100
AcDbRotatedDimension
  0
DIMENSION
  5
136
330
1F
100
AcDbEntity
  8
VERMASSUNG
100
AcDbDimension
  2
_D_3
 10
207.4853222651
 20
140.0267928714
 30
0.0
 11
196.9853222651
 21
140.0267928714
 31
0.0
 70
   160
  1
(<>)
 71
     2
 42
-1.0
  3
SLDDIMSTYLE1
100
AcDbAlignedDimension
 13
186.4853222651
 23
129.630444744
 33
0.0
 14
207.4853222651
 24
120.705444744
 34
0.0
100
AcDbRotatedDimension
  0
DIMENSION
  5
142
330
1F
100
AcDbEntity
  8
VERMASSUNG
100
AcDbDimension
  2
_D_4
 10
220.1058215261
 20
95.905444744
 30
0.0
 11
220.1058215261
 21
108.405444744
 31
0.0
 70
   160
  1
ST2 %%c<>
 71
     2
 42
-1.0
  3
SLDDIMSTYLE1
100
AcDbAlignedDimension
 13
207.2853222651
 23
120.905444744
 33
0.0
 14
207.2853222651
 24
95.905444744
 34
0.0
 50
90.0
100
AcDbRotatedDimension
  0
DIMENSION
  5
14E
330
1F
100
AcDbEntity
  8
VERMASSUNG
100
AcDbDimension
  2
_D_5
 10
83.2353222651
 20
152.0267928714
 30
0.0
 11
145.3603222651
 21
152.0267928714
 31
0.0
 70
   160
  1
(<>)
 71
     2
 42
-1.0
  3
SLDDIMSTYLE1
100
AcDbAlignedDimension
 13
207.4853222651
 23
120.705444744
 33
0.0
 14
83.2353222651
 24
119.8125753411
 34
0.0
100
AcDbRotatedDimension
  0
LINE
  5
15A
330
1F
100
AcDbEntity
  8
VERMASSUNG
  6
CENTERX2
 62
     7
370
     0
100
AcDbLine
 10
81.2353222651
 20
108.405444744
 30
0.0
 11
209.544143854
 21
108.405444744
 31
0.0
  0
LINE
  5
15B
330
1F
100
AcDbEntity
  8
0
  6
Continuous
 62
     7
370
    15
100
AcDbLine
 10
268.3861053221
 20
41.2917427609
 30
0.0
 11
268.2977026124
 21
41.3427931478
 31
0.0
  0
LINE
  5
15C
330
1F
100
AcDbEntity
  8
0
  6
Continuous
 62
     7
370
    15
100
AcDbLine
 10
266.7064538371
 20
41.3427931478
 30
0.0
 11
266.6180511273
 21
41.2917427609
 31
0.0
  0
LINE
  5
15D
330
1F
100
AcDbEntity
  8
0
  6
Continuous
 62
     7
370
    15
100
AcDbLine
 10
268.7520782247
 20
40.6795030135
 30
0.0
 11
268.7520782247
 21
40.781570615
 31
0.0
  0
LINE
  5
15E
330
1F
100
AcDbEntity
  8
0
  6
Continuous
 62
     7
370
    15
100
AcDbLine
 10
266.2520782247
 20
40.781570615
 30
0.0
 11
266.2520782247
 21
40.6795030135
 31
0.0
  0
SPLINE
  5
15F
330
1F
100
AcDbEntity
  8
0
  6
Continuous
 62
     7
370
    15
100
AcDbSpline
210
0.0
220
0.0
230
1.0
 70
     8
 71
     3
 72
    11
 73
     7
 74
     0
 42
0.000000001
 43
0.00000001
 40
0.0
 40
0.0
 40
0.0
 40
0.0
 40
0.0958349876761663
 40
0.5063775709982067
 40
0.9163036178089261
 40
0.9999999999999999
 40
0.9999999999999999
 40
0.9999999999999999
 40
0.9999999999999999
 10
267.3986169322296
 20
51.85847469703321
 30
0.0
 10
267.3789171010646
 20
51.92730502988493
 30
0.0
 10
267.2748261746061
 20
52.29099409173598
 30
0.0
 10
267.0310770570993
 20
52.89995938159318
 30
0.0
 10
266.7625476378213
 20
53.47505994602598
 30
0.0
 10
266.5778221491673
 20
53.74713046649404
 30
0.0
 10
266.5465009324023
 20
53.79326151104578
 30
0.0
  0
LINE
  5
160
330
1F
100
AcDbEntity
  8
0
  6
Continuous
 62
     7
370
    15
100
AcDbLine
 10
269.7478605346
 20
29.3812449118
 30
0.0
 11
269.8185597202
 21
29.4220719519
 31
0.0
  0
LINE
  5
161
330
1F
100
AcDbEntity
  8
0
  6
Continuous
 62
     7
370
    15
100
AcDbLine
 10
274.1665596374
 20
36.953844803
 30
0.0
 11
274.1665596374
 21
37.0354856142
 31
0.0
  0
LINE
  5
162
330
1F
100
AcDbEntity
  8
0
  6
Continuous
 62
     7
370
    15
100
AcDbLine
 10
272.8718882945
 20
39.8970156546
 30
0.0
 11
266.9321913325
 21
43.3259297242
 31
0.0
  0
LINE
  5
163
330
1F
100
AcDbEntity
  8
0
  6
Continuous
 62
     7
370
    15
100
AcDbLine
 10
260.6826992535
 20
32.5003189445
 30
0.0
 11
266.6223962155
 21
29.0714048748
 31
0.0
  0
LINE
  5
164
330
1F
100
AcDbEntity
  8
0
  6
Continuous
 62
     7
370
    15
100
AcDbLine
 10
264.4787780566
 20
55.8559466991
 30
0.0
 11
263.1263385424
 21
56.636693412
 31
0.0
  0
SPLINE
  5
165
330
1F
100
AcDbEntity
  8
0
  6
Continuous
 62
     7
370
    15
100
AcDbSpline
210
0.0
220
0.0
230
1.0
 70
     8
 71
     3
 72
    18
 73
    14
 74
     0
 42
0.000000001
 43
0.00000001
 40
0.0
 40
0.0
 40
0.0
 40
0.0
 40
0.0521611643948528
 40
0.148767612145662
 40
0.2454676172471866
 40
0.3428021042674348
 40
0.4410976147468794
 40
0.540394302952693
 40
0.6405108150608552
 40
0.7411717872509912
 40
0.842118400488884
 40
0.9431563875352176
 40
0.9999999999999999
 40
0.9999999999999999
 40
0.9999999999999999
 40
0.9999999999999999
 10
256.4311625539434
 20
29.35593597224841
 30
0.0
 10
256.5305542054235
 20
29.29377680990935
 30
0.0
 10
256.8140267626304
 20
29.116494146429
 30
0.0
 10
257.3374717945767
 20
28.92502975397958
 30
0.0
 10
257.9878533353643
 20
28.77725042452224
 30
0.0
 10
258.677013705056
 20
28.72973258412135
 30
0.0
 10
259.3968818072218
 20
28.77737984647172
 30
0.0
 10
260.1427575826036
 20
28.92196710050211
 30
0.0
 10
260.9074906057515
 20
29.16277021229876
 30
0.0
 10
261.6836754633081
 20
29.49663574042754
 30
0.0
 10
262.4623198103823
 20
29.92467860648473
 30
0.0
 10
263.1258160899894
 20
30.35209508120295
 30
0.0
 10
263.5213828325884
 20
30.66625477900018
 30
0.0
 10
263.6638024856062
 20
30.77936468014722
 30
0.0
  0
SPLINE
  5
166
330
1F
100
AcDbEntity
  8
0
  6
Continuous
 62
     7
370
    15
100
AcDbSpline
210
0.0
220
0.0
230
1.0
 70
     8
 71
     3
 72
    18
 73
    14
 74
     0
 42
0.000000001
 43
0.00000001
 40
0.0
 40
0.0
 40
0.0
 40
0.0
 40
0.0150821160456747
 40
0.1198549137982223
 40
0.2247730413131667
 40
0.3298119782602786
 40
0.4348815207689845
 40
0.5397924420417823
 40
0.6442797078028615
 40
0.7480116630582907
 40
0.8506908749033283
 40
0.9522120871077587
 40
1.0
 40
1.0
 40
1.0
 40
1.0
 10
269.9173502399494
 20
41.60263416835165
 30
0.0
 10
269.9253489310196
 20
41.64903201017734
 30
0.0
 10
269.9889131169613
 20
42.01774746864488
 30
0.0
 10
270.0363784627184
 20
42.68595894975083
 30
0.0
 10
270.0529662407275
 20
43.59522283558948
 30
0.0
 10
269.9847151021063
 20
44.46043886289934
 30
0.0
 10
269.8403294347523
 20
45.27586885829582
 30
0.0
 10
269.6178816596926
 20
46.03231253792158
 30
0.0
 10
269.3193637608862
 20
46.7209402589006
 30
0.0
 10
268.9488219416444
 20
47.33528192421593
 30
0.0
 10
268.507216400053
 20
47.86158826468943
 30
0.0
 10
268.1005094854598
 20
48.23907749428224
 30
0.0
 10
267.8226836091023
 20
48.40524041317567
 30
0.0
 10
267.7337625952662
 20
48.45842255518379
 30
0.0
  0
LINE
  5
167
330
1F
100
AcDbEntity
  8
0
  6
Continuous
 62
     7
370
    15
100
AcDbLine
 10
251.4103887268
 20
32.2385305921
 30
0.0
 11
256.4838798818
 21
29.3096664909
 31
0.0
  0
LINE
  5
168
330
1F
100
AcDbEntity
  8
0
  6
Continuous
 62
     7
370
    15
100
AcDbLine
 10
267.5954767983
 20
48.5576024573
 30
0.0
 11
262.5219856432
 21
51.4864665585
 31
0.0
  0
SPLINE
  5
169
330
1F
100
AcDbEntity
  8
0
  6
Continuous
 62
     7
370
    15
100
AcDbSpline
210
0.0
220
0.0
230
1.0
 70
     8
 71
     3
 72
    19
 73
    15
 74
     0
 42
0.000000001
 43
0.00000001
 40
0.0
 40
0.0
 40
0.0
 40
0.0
 40
0.015833717768992
 40
0.1079421735842992
 40
0.2002231645994577
 40
0.2925155641650206
 40
0.3846537112178969
 40
0.4765084001414891
 40
0.567967281271365
 40
0.6589797519970975
 40
0.7496825535229742
 40
0.8404726381043464
 40
0.9324800661188495
 40
1.0
 40
1.0
 40
1.0
 40
1.0
 10
267.5255348844292
 20
34.57348574304142
 30
0.0
 10
267.5366853796119
 20
34.60506661530087
 30
0.0
 10
267.6127009246735
 20
34.82036084026482
 30
0.0
 10
267.7965060210108
 20
35.21861590520224
 30
0.0
 10
268.0960745135886
 20
35.74809631241001
 30
0.0
 10
268.4452517876005
 20
36.24142568864366
 30
0.0
 10
268.8293403818183
 20
36.68308810336148
 30
0.0
 10
269.2365018877802
 20
37.05965962369397
 30
0.0
 10
269.6526446968063
 20
37.360300406174
 30
0.0
 10
270.0631574213393
 20
37.57704204430916
 30
0.0
 10
270.4540216995118
 20
37.70686982650548
 30
0.0
 10
270.8103098151349
 20
37.74689296793088
 30
0.0
 10
271.0994649135768
 20
37.71752693183793
 30
0.0
 10
271.2479938865925
 20
37.6423306033325
 30
0.0
 10
271.3108587538998
 20
37.61050376768211
 30
0.0
  0
LINE
  5
16A
330
1F
100
AcDbEntity
  8
0
  6
Continuous
 62
     7
370
    15
100
AcDbLine
 10
260.6339827291
 20
58.0754997972
 30
0.0
 11
259.2903820497
 21
58.8511439594
 31
0.0
  0
SPLINE
  5
16B
330
1F
100
AcDbEntity
  8
0
  6
Continuous
 62
     7
370
    15
100
AcDbSpline
210
0.0
220
0.0
230
1.0
 70
     8
 71
     3
 72
    30
 73
    26
 74
     0
 42
0.000000001
 43
0.00000001
 40
0.0
 40
0.0
 40
0.0
 40
0.0
 40
0.0176964399053967
 40
0.0635734186434149
 40
0.1096229001572342
 40
0.1558094784628831
 40
0.2020901127951833
 40
0.2484257467918533
 40
0.2947864737869832
 40
0.3411495854848364
 40
0.3875028402473777
 40
0.4338414795981233
 40
0.4801641263662793
 40
0.5264714994142244
 40
0.5727655570516305
 40
0.6190489581432043
 40
0.6653247402934511
 40
0.7115961385094729
 40
0.7578664903060195
 40
0.8041387997573457
 40
0.8504157525268985
 40
0.8967007942737398
 40
0.9429973506737794
 40
0.9893087480743396
 40
1.0
 40
1.0
 40
1.0
 40
1.0
 10
256.4901109268019
 20
59.6061861507898
 30
0.0
 10
256.3853754558517
 20
59.6123455102497
 30
0.0
 10
256.0091194418101
 20
59.63447264653321
 30
0.0
 10
255.3287297887342
 20
59.57196307395721
 30
0.0
 10
254.455350007622
 20
59.42024408093088
 30
0.0
 10
253.5590575968119
 20
59.16689475762731
 30
0.0
 10
252.6486114764762
 20
58.82139933030169
 30
0.0
 10
251.7296208672031
 20
58.38405324843941
 30
0.0
 10
250.8085699958828
 20
57.85854503725785
 30
0.0
 10
249.8916133805958
 20
57.24845802378689
 30
0.0
 10
248.9848330337265
 20
56.55810292743794
 30
0.0
 10
248.0941339195326
 20
55.79220325368644
 30
0.0
 10
247.2252755508188
 20
54.95593335453375
 30
0.0
 10
246.3838638862832
 20
54.05488298302036
 30
0.0
 10
245.5753292503079
 20
53.09503321821794
 30
0.0
 10
244.8048975121257
 20
52.08272319186337
 30
0.0
 10
244.0775613051468
 20
51.02461498278407
 30
0.0
 10
243.39804384683
 20
49.92765257807545
 30
0.0
 10
242.7707903084718
 20
48.79902693069942
 30
0.0
 10
242.1998665044968
 20
47.64611516924332
 30
0.0
 10
241.6892028679203
 20
46.47649483326485
 30
0.0
 10
241.2415457847401
 20
45.29763578653608
 30
0.0
 10
240.8622633965254
 20
44.11779747861417
 30
0.0
 10
240.6264191054475
 20
43.24392228585057
 30
0.0
 10
240.5208871669296
 20
42.76694527390012
 30
0.0
 10
240.5010939019809
 20
42.67748484604655
 30
0.0
  0
LINE
  5
16C
330
1F
100
AcDbEntity
  8
0
  6
Continuous
 62
     7
370
    15
100
AcDbLine
 10
267.4747780647
 20
31.9292764697
 30
0.0
 11
267.4367768285
 21
31.9868267754
 31
0.0
  0
SPLINE
  5
16D
330
1F
100
AcDbEntity
  8
0
  6
Continuous
 62
     7
370
    15
100
AcDbSpline
210
0.0
220
0.0
230
1.0
 70
     8
 71
     3
 72
    10
 73
     6
 74
     0
 42
0.000000001
 43
0.00000001
 40
0.0
 40
0.0
 40
0.0
 40
0.0
 40
0.187340607465592
 40
0.8624792221126543
 40
1.0
 40
1.0
 40
1.0
 40
1.0
 10
267.9006013733255
 20
31.52117902980552
 30
0.0
 10
267.8733370125562
 20
31.53230111237509
 30
0.0
 10
267.7478172708099
 20
31.5835049877796
 30
0.0
 10
267.6298267228109
 20
31.69038701871885
 30
0.0
 10
267.5520023681064
 20
31.8117351580418
 30
0.0
 10
267.5388326860774
 20
31.83227007176848
 30
0.0
  0
LINE
  5
16E
330
1F
100
AcDbEntity
  8
0
  6
Continuous
 62
     7
370
    15
100
AcDbLine
 10
250.2556659672
 20
57.4761480579
 30
0.0
 11
228.9541311062
 21
65.1523768582
 31
0.0
  0
LINE
  5
16F
330
1F
100
AcDbEntity
  8
0
  6
Continuous
 62
     7
370
    15
100
AcDbLine
 10
222.7893493571
 20
54.473504573
 30
0.0
 11
243.2103073362
 21
37.230216473
 31
0.0
  0
SPLINE
  5
170
330
1F
100
AcDbEntity
  8
0
  6
Continuous
 62
     7
370
    15
100
AcDbSpline
210
0.0
220
0.0
230
1.0
 70
     8
 71
     3
 72
    14
 73
    10
 74
     0
 42
0.000000001
 43
0.00000001
 40
0.0
 40
0.0
 40
0.0
 40
0.0
 40
0.0464093497229478
 40
0.210467406597539
 40
0.3751549202296856
 40
0.5403535745216034
 40
0.7059101420374133
 40
0.8716812846250207
 40
1.0
 40
1.0
 40
1.0
 40
1.0
 10
251.3748417257128
 20
27.6032047163882
 30
0.0
 10
251.4512442262948
 20
27.59763978183819
 30
0.0
 10
251.797731221934
 20
27.57240268307216
 30
0.0
 10
252.4466000978495
 20
27.62453239692375
 30
0.0
 10
253.3162401434693
 20
27.76204652319157
 30
0.0
 10
254.2100803216528
 20
28.00179964721339
 30
0.0
 10
255.1187834632393
 20
28.33638656975875
 30
0.0
 10
255.9677709692433
 20
28.72161143893153
 30
0.0
 10
256.5118027480356
 20
29.0343704636406
 30
0.0
 10
256.7491773364061
 20
29.17083500053634
 30
0.0
  0
LINE
  5
171
330
1F
100
AcDbEntity
  8
0
  6
Continuous
 62
     7
370
    15
100
AcDbLine
 10
247.2526286618
 20
29.1396420315
 30
0.0
 11
248.605068176
 21
28.3588953186
 31
0.0
  0
LINE
  5
172
330
1F
100
AcDbEntity
  8
0
  6
Continuous
 62
     7
370
    15
100
AcDbLine
 10
243.4166721691
 20
31.3540925788
 30
0.0
 11
244.7602728485
 21
30.5784484166
 31
0.0
  0
SPLINE
  5
173
330
1F
100
AcDbEntity
  8
0
  6
Continuous
 62
     7
370
    15
100
AcDbSpline
210
0.0
220
0.0
230
1.0
 70
     8
 71
     3
 72
    11
 73
     7
 74
     0
 42
0.000000001
 43
0.00000001
 40
0.0
 40
0.0
 40
0.0
 40
0.0
 40
0.1373285364130601
 40
0.5554581569192283
 40
0.9729063634934413
 40
1.0
 40
1.0
 40
1.0
 40
1.0
 10
240.5104835731272
 20
35.30542479153294
 30
0.0
 10
240.5392162710595
 20
35.20947524019664
 30
0.0
 10
240.6554325495818
 20
34.82138429905251
 30
0.0
 10
240.9173000884196
 20
34.19443760639849
 30
0.0
 10
241.173049336289
 20
33.65966779847239
 30
0.0
 10
241.3386869522327
 20
33.42192949803124
 30
0.0
 10
241.3487821219632
 20
33.40743998439805
 30
0.0
  0
SPLINE
  5
174
330
1F
100
AcDbEntity
  8
0
  6
Continuous
 62
     7
370
    15
100
AcDbSpline
210
0.0
220
0.0
230
1.0
 70
     8
 71
     3
 72
    25
 73
    21
 74
     0
 42
0.000000001
 43
0.00000001
 40
0.0
 40
0.0
 40
0.0
 40
0.0
 40
0.0278504686752238
 40
0.0838011665147058
 40
0.1406827869637511
 40
0.1988041590028836
 40
0.2579939157426682
 40
0.3178271148233081
 40
0.3779049877015512
 40
0.4379404391689392
 40
0.4978663044360839
 40
0.5576835940915766
 40
0.6174241199783702
 40
0.6771323117690738
 40
0.7368576288310699
 40
0.7966356892921367
 40
0.8565185119191504
 40
0.9165576791056768
 40
0.9767963406453715
 40
0.9999999999999999
 40
0.9999999999999999
 40
0.9999999999999999
 40
0.9999999999999999
 10
228.8628161889742
 20
65.16983323549525
 30
0.0
 10
228.7835594176923
 20
65.19772087906466
 30
0.0
 10
228.545078336276
 20
65.28163390364298
 30
0.0
 10
228.1071948512647
 20
65.3178289590087
 30
0.0
 10
227.5621541978358
 20
65.28453302663937
 30
0.0
 10
226.9923852505567
 20
65.15018917951916
 30
0.0
 10
226.4083670212247
 20
64.92182826509031
 30
0.0
 10
225.8197199636191
 20
64.60067983000883
 30
0.0
 10
225.2380624139251
 20
64.19341036770761
 30
0.0
 10
224.6740703631122
 20
63.70816255749712
 30
0.0
 10
224.1373253075979
 20
63.15434340417987
 30
0.0
 10
223.6362756419209
 20
62.54175188036558
 30
0.0
 10
223.1787287313272
 20
61.88076891332671
 30
0.0
 10
222.7718905728061
 20
61.1822884932221
 30
0.0
 10
222.4223210214575
 20
60.45766148437151
 30
0.0
 10
222.1359412805517
 20
59.71855443570596
 30
0.0
 10
221.917508111806
 20
58.9764933672393
 30
0.0
 10
221.7723856152049
 20
58.24358918689946
 30
0.0
 10
221.7149085944689
 20
57.67618115595641
 30
0.0
 10
221.7105733802901
 20
57.358959410848
 30
0.0
 10
221.7093678429566
 20
57.2707463166473
 30
0.0
  0
SPLINE
  5
175
330
1F
100
AcDbEntity
  8
0
  6
Continuous
 62
     7
370
    15
100
AcDbSpline
210
0.0
220
0.0
230
1.0
 70
     8
 71
     3
 72
    13
 73
     9
 74
     0
 42
0.000000001
 43
0.00000001
 40
0.0
 40
0.0
 40
0.0
 40
0.0
 40
0.1053249429773189
 40
0.3044707640027386
 40
0.5036325255856046
 40
0.7010727566729759
 40
0.89494072041864
 40
1.0
 40
1.0
 40
1.0
 40
1.0
 10
221.7093678429566
 20
57.2707463166473
 30
0.0
 10
221.7116146770938
 20
57.15085263448841
 30
0.0
 10
221.7181097701553
 20
56.80426691628985
 30
0.0
 10
221.7910556289091
 20
56.26293826293129
 30
0.0
 10
221.9545610287496
 20
55.67210513404949
 30
0.0
 10
222.2033880739683
 20
55.15299033947672
 30
0.0
 10
222.4699742513134
 20
54.76373998041679
 30
0.0
 10
222.6786927568845
 20
54.58606651242037
 30
0.0
 10
222.7520477833
 20
54.52362239946274
 30
0.0
  0
LWPOLYLINE
  5
176
330
1F
100
AcDbEntity
  8
0
  6
Continuous
 62
     7
370
    15
100
AcDbPolyline
 90
       20
 70
   128
 43
0.0
 10
266.7065830959
 20
40.4244086536
 10
266.4913883701
 20
40.5984025733
 10
266.3857175725
 20
40.8033062009
 10
266.4010217737
 20
41.0169150488
 10
266.535642526
 20
41.216081284
 10
266.7749915821
 20
41.3792221544
 10
267.0931317578
 20
41.4886588153
 10
267.4555876287
 20
41.5325321065
 10
267.823081477
 20
41.5060876761
 10
268.155789642
 20
41.4121911885
 10
268.4176580316
 20
41.261017785
 10
268.5803091425
 20
41.0689494496
 10
268.6261172029
 20
40.8567997667
 10
268.5501181988
 20
40.6475584463
 10
268.3605478014
 20
40.4639000321
 10
268.0779489049
 20
40.3257267632
 10
267.7329454847
 20
40.248011857
 10
267.3629240145
 20
40.2391769297
 10
267.0079820623
 20
40.3001793827
 10
266.7065830959
 20
40.4244086536
  0
LWPOLYLINE
  5
177
330
1F
100
AcDbEntity
  8
0
  6
Continuous
 62
     7
370
    15
100
AcDbPolyline
 90
        6
 70
   128
 43
0.0
 10
266.6181947482
 20
40.2713155451
 10
266.3883200695
 20
40.4539666939
 10
266.267467799
 20
40.668685997
 10
266.267467799
 20
40.894455233
 10
266.3883200695
 20
41.1091745362
 10
266.6180511273
 20
41.2917427609
  0
LWPOLYLINE
  5
178
330
1F
100
AcDbEntity
  8
0
  6
Continuous
 62
     7
370
    15
100
AcDbPolyline
 90
       11
 70
   128
 43
0.0
 10
268.3861053221
 20
41.2917427609
 10
268.6158363799
 20
41.1091745362
 10
268.7366886505
 20
40.894455233
 10
268.7366886505
 20
40.668685997
 10
268.6158363799
 20
40.4539666939
 10
268.3859617012
 20
40.2713155451
 10
268.0695663494
 20
40.1386117178
 10
267.697621306
 20
40.068845187
 10
267.3065351434
 20
40.068845187
 10
266.9345901
 20
40.1386117178
 10
266.6181947482
 20
40.2713155451
  0
LWPOLYLINE
  5
179
330
1F
100
AcDbEntity
  8
0
  6
Continuous
 62
     7
370
    15
100
AcDbPolyline
 90
       17
 70
   128
 43
0.0
 10
266.9717481388
 20
40.5774851746
 10
266.8091685753
 20
40.7179493842
 10
266.7520782247
 20
40.8836382165
 10
266.8091685753
 20
41.0493270489
 10
266.9717481388
 20
41.1897912584
 10
267.2150656504
 20
41.2836464427
 10
267.5020782247
 20
41.3166040006
 10
267.789090799
 20
41.2836464427
 10
268.0324083106
 20
41.1897912584
 10
268.1949878741
 20
41.0493270489
 10
268.2520782247
 20
40.8836382165
 10
268.1949878741
 20
40.7179493842
 10
268.0324083106
 20
40.5774851746
 10
267.789090799
 20
40.4836299903
 10
267.5020782247
 20
40.4506724325
 10
267.2150656504
 20
40.4836299903
 10
266.9717481388
 20
40.5774851746
  0
SPLINE
  5
17A
330
1F
100
AcDbEntity
  8
0
  6
Continuous
 62
     7
370
    15
100
AcDbSpline
210
0.0
220
0.0
230
1.0
 70
     8
 71
     3
 72
     9
 73
     5
 74
     0
 42
0.000000001
 43
0.00000001
 40
0.0
 40
0.0
 40
0.0
 40
0.0
 40
0.6300416123972751
 40
1.0
 40
1.0
 40
1.0
 40
1.0
 10
267.0602243091139
 20
40.52857785009103
 30
0.0
 10
267.0040758664283
 20
40.56711323331552
 30
0.0
 10
266.9149572406409
 20
40.62827646835623
 30
0.0
 10
266.8346803966829
 20
40.719092458343
 30
0.0
 10
266.8049813049304
 20
40.75269059556705
 30
0.0
  0
SPLINE
  5
17B
330
1F
100
AcDbEntity
  8
0
  6
Continuous
 62
     7
370
    15
100
AcDbSpline
210
0.0
220
0.0
230
1.0
 70
     8
 71
     3
 72
    10
 73
     6
 74
     0
 42
0.000000001
 43
0.00000001
 40
0.0
 40
0.0
 40
0.0
 40
0.0
 40
0.4391119879276942
 40
0.7513633230734779
 40
1.0
 40
1.0
 40
1.0
 40
1.0
 10
268.1991751444934
 20
40.96834976350035
 30
0.0
 10
268.1724355099852
 20
40.87578750125118
 30
0.0
 10
268.1266813944194
 20
40.71740446715789
 30
0.0
 10
268.0601692682019
 20
40.60068917510917
 30
0.0
 10
268.0270639025288
 20
40.57660193659593
 30
0.0
 10
268.0123885877917
 20
40.5659242775778
 30
0.0
  0
SPLINE
  5
17C
330
1F
100
AcDbEntity
  8
0
  6
Continuous
 62
     7
370
    15
100
AcDbSpline
210
0.0
220
0.0
230
1.0
 70
     8
 71
     3
 72
    11
 73
     7
 74
     0
 42
0.000000001
 43
0.00000001
 40
0.0
 40
0.0
 40
0.0
 40
0.0
 40
0.1849308168245046
 40
0.5198464202157133
 40
0.871443823369318
 40
1.0
 40
1.0
 40
1.0
 40
1.0
 10
267.6888647814136
 20
41.26294566545624
 30
0.0
 10
267.7185673379845
 20
41.22987523201353
 30
0.0
 10
267.8020621711862
 20
41.13691318958393
 30
0.0
 10
267.957921222012
 20
41.01386688772979
 30
0.0
 10
268.1018634324132
 20
40.97126798604163
 30
0.0
 10
268.178623442283
 20
40.9689660761658
 30
0.0
 10
268.1991751444934
 20
40.96834976350035
 30
0.0
  0
SPLINE
  5
17D
330
1F
100
AcDbEntity
  8
0
  6
Continuous
 62
     7
370
    15
100
AcDbSpline
210
0.0
220
0.0
230
1.0
 70
     8
 71
     3
 72
    10
 73
     6
 74
     0
 42
0.000000001
 43
0.00000001
 40
0.0
 40
0.0
 40
0.0
 40
0.0
 40
0.439111987927694
 40
0.7513633230734793
 40
0.9999999999999999
 40
0.9999999999999999
 40
0.9999999999999999
 40
0.9999999999999999
 10
266.9917678616321
 20
41.1551160814896
 30
0.0
 10
267.0915615361928
 20
41.13559994373549
 30
0.0
 10
267.2623182201393
 20
41.10220593373434
 30
0.0
 10
267.5105448545029
 20
41.16718546068627
 30
0.0
 10
267.634095761198
 20
41.23353396323225
 30
0.0
 10
267.6888647814136
 20
41.26294566545624
 30
0.0
  0
SPLINE
  5
17E
330
1F
100
AcDbEntity
  8
0
  6
Continuous
 62
     7
370
    15
100
AcDbSpline
210
0.0
220
0.0
230
1.0
 70
     8
 71
     3
 72
    10
 73
     6
 74
     0
 42
0.000000001
 43
0.00000001
 40
0.0
 40
0.0
 40
0.0
 40
0.0
 40
0.4391119879276927
 40
0.7513633230734783
 40
1.0
 40
1.0
 40
1.0
 40
1.0
 10
266.8049813049304
 20
40.75269059556705
 30
0.0
 10
266.8317209394387
 20
40.77534765745343
 30
0.0
 10
266.8774750550044
 20
40.81411609415763
 30
0.0
 10
266.943987181222
 20
40.98399717376993
 30
0.0
 10
266.9770925468951
 20
41.10255877576081
 30
0.0
 10
266.9917678616321
 20
41.1551160814896
 30
0.0
  0
LINE
  5
17F
330
1F
100
AcDbEntity
  8
0
  6
Continuous
 62
     7
370
    15
100
AcDbLine
 10
266.9917678616
 20
40.5663487198
 30
0.0
 11
266.9917678616
 21
41.1551160815
 31
0.0
  0
LINE
  5
180
330
1F
100
AcDbEntity
  8
0
  6
Continuous
 62
     7
370
    15
100
AcDbLine
 10
267.6888647814
 20
40.4643147722
 30
0.0
 11
267.6888647814
 21
41.2629456655
 31
0.0
  0
SPLINE
  5
181
330
1F
100
AcDbEntity
  8
0
  6
Continuous
 62
     7
370
    15
100
AcDbSpline
210
0.0
220
0.0
230
1.0
 70
     8
 71
     3
 72
    10
 73
     6
 74
     0
 42
0.000000001
 43
0.00000001
 40
0.0
 40
0.0
 40
0.0
 40
0.0
 40
0.4034260157553854
 40
0.8079403535663281
 40
1.0
 40
1.0
 40
1.0
 40
1.0
 10
267.3516581548314
 20
51.56348008373158
 30
0.0
 10
267.3699032268096
 20
51.6022376217711
 30
0.0
 10
267.4064425904827
 20
51.679857254031
 30
0.0
 10
267.420356085657
 20
51.78733945399102
 30
0.0
 10
267.402248271074
 20
51.84067764458532
 30
0.0
 10
267.3964186831967
 20
51.85784921809925
 30
0.0
  0
SPLINE
  5
182
330
1F
100
AcDbEntity
  8
0
  6
Continuous
 62
     7
370
    15
100
AcDbSpline
210
0.0
220
0.0
230
1.0
 70
     8
 71
     3
 72
    12
 73
     8
 74
     0
 42
0.000000001
 43
0.00000001
 40
0.0
 40
0.0
 40
0.0
 40
0.0
 40
0.2500000000000008
 40
0.2500000000000008
 40
0.5000000000000017
 40
0.5000000000000017
 40
1.0
 40
1.0
 40
1.0
 40
1.0
 10
245.790467554535
 20
39.6272454175013
 30
0.0
 10
245.8242467208074
 20
39.60774511988779
 30
0.0
 10
245.862529738389
 20
39.58085330839295
 30
0.0
 10
245.9366153957142
 20
39.52228108933213
 30
0.0
 10
245.9719053920341
 20
39.49117480060641
 30
0.0
 10
246.0674021917003
 20
39.40004426742066
 30
0.0
 10
246.1161619521322
 20
39.34384535054441
 30
0.0
 10
246.1497257971214
 20
39.29627918103069
 30
0.0
  0
ARC
  5
183
330
1F
100
AcDbEntity
  8
0
  6
Continuous
 62
     7
370
    15
100
AcDbCircle
 10
261.6856663326
 20
51.0166160144
 30
0.0
 40
5.58021527004283
100
AcDbArc
 50
30.6953630904
 51
88.994581249
  0
LWPOLYLINE
  5
184
330
1F
100
AcDbEntity
  8
0
  6
Continuous
 62
     7
370
    15
100
AcDbPolyline
 90
       46
 70
   128
 43
0.0
 10
269.8178529331
 20
39.4651158522
 10
269.2126299359
 20
39.0668569607
 10
268.6191869159
 20
38.5786075412
 10
268.0490745665
 20
38.0098708132
 10
267.513389476
 20
37.3717165902
 10
267.0225581454
 20
36.6765658184
 10
266.5861340483
 20
35.9379488167
 10
266.2126116832
 20
35.170241925
 10
265.9092612382
 20
34.3883876845
 10
265.6819870845
 20
33.6076039989
 10
265.5352128551
 20
32.8430879343
 10
265.4717953434
 20
32.1097199263
 10
265.4929688991
 20
31.4217741491
 10
265.5983214031
 20
30.7926406847
 10
265.7858022886
 20
30.2345649002
 10
266.0517624536
 20
29.7584091061
 10
266.3910252858
 20
29.3734411333
 10
266.7969874203
 20
29.0871539455
 10
267.2617472658
 20
28.9051197971
 10
267.7762588005
 20
28.8308817757
 10
268.3305076428
 20
28.8658848401
 10
268.9137059693
 20
29.0094476953
 10
269.5145024881
 20
29.2587760538
 10
270.1212033781
 20
29.6090170225
 10
270.7219998969
 20
30.0533535595
 10
271.3051982234
 20
30.5831371595
 10
271.8594470657
 20
31.1880561873
 10
272.3739586004
 20
31.8563365822
 10
272.8387184459
 20
32.5749710263
 10
273.2446805804
 20
33.3299721177
 10
273.5839434126
 20
34.106644619
 10
273.8499035776
 20
34.8898714833
 10
274.0373844631
 20
35.6644080907
 10
274.1427369671
 20
36.4151789671
 10
274.1639105228
 20
37.1275712114
 10
274.1004930111
 20
37.7877189189
 10
273.9537187817
 20
38.3827730653
 10
273.726444628
 20
38.9011515986
 10
273.423094183
 20
39.3327648703
 10
273.0495718179
 20
39.669212019
 10
272.6131477208
 20
39.9039444836
 10
272.1223163902
 20
40.0323934637
 10
271.5866312997
 20
40.0520588461
 10
271.0165189503
 20
39.9625578664
 10
270.4230759303
 20
39.7656325594
 10
269.8178529331
 20
39.4651158522
  0
LWPOLYLINE
  5
185
330
1F
100
AcDbEntity
  8
0
  6
Continuous
 62
     7
370
    15
100
AcDbPolyline
 90
       25
 70
   128
 43
0.0
 10
269.747142255
 20
39.587590339
 10
269.1453649991
 20
39.1926585663
 10
268.5547977148
 20
38.7100173105
 10
267.9864415533
 20
38.148657265
 10
267.4508839146
 20
37.5190355053
 10
266.958101224
 20
36.8328806934
 10
266.5172730908
 20
36.1029745953
 10
266.1366113089
 20
35.3429139805
 10
265.8232068872
 20
34.5668573403
 10
265.582897957
 20
33.7892611414
 10
265.420161019
 20
33.0246105298
 10
265.3380275545
 20
32.2871494995
 10
265.3380275545
 20
31.5906155544
 10
265.420161019
 20
30.9479838038
 10
265.582897957
 20
30.3712252613
 10
265.8232068872
 20
29.8710838474
 10
266.1366113089
 20
29.4568762503
 10
266.5172730908
 20
29.1363183738
 10
266.958101224
 20
28.9153816046
 10
267.4508839146
 20
28.7981815768
 10
267.9864415533
 20
28.786901505
 10
268.5547977148
 20
28.8817515157
 10
269.1453649991
 20
29.0809647326
 10
269.747142255
 20
29.3808301904
 10
269.7478605346
 20
29.3812449118
  0
LWPOLYLINE
  5
186
330
1F
100
AcDbEntity
  8
0
  6
Continuous
 62
     7
370
    15
100
AcDbPolyline
 90
       13
 70
   128
 43
0.0
 10
274.1665596374
 20
37.0354856142
 10
274.1562569554
 20
37.377804975
 10
274.0741234909
 20
38.0204367257
 10
273.911386553
 20
38.5971952681
 10
273.6710776228
 20
39.097336682
 10
273.3576732011
 20
39.5115442791
 10
272.9770114192
 20
39.8321021556
 10
272.536183286
 20
40.0530389248
 10
272.0434005954
 20
40.1702389526
 10
271.5078429566
 20
40.1815190244
 10
270.9394867952
 20
40.0866690138
 10
270.3489195109
 20
39.8874557968
 10
269.747142255
 20
39.587590339
  0
SPLINE
  5
187
330
1F
100
AcDbEntity
  8
0
  6
Continuous
 62
     7
370
    15
100
AcDbSpline
210
0.0
220
0.0
230
1.0
 70
    11
 71
     3
 72
    64
 73
    60
 74
     0
 42
0.000000001
 43
0.00000001
 40
0.0
 40
0.0
 40
0.0
 40
0.0
 40
0.03125
 40
0.03125
 40
0.0625000000000001
 40
0.0625000000000001
 40
0.0937500000000001
 40
0.0937500000000001
 40
0.1250000000000002
 40
0.1250000000000002
 40
0.1562500000000002
 40
0.1562500000000002
 40
0.1875000000000003
 40
0.1875000000000003
 40
0.2187500000000003
 40
0.2187500000000003
 40
0.2500000000000004
 40
0.2500000000000004
 40
0.2812500000000004
 40
0.2812500000000004
 40
0.3125000000000005
 40
0.3125000000000005
 40
0.3437500000000006
 40
0.3437500000000006
 40
0.3750000000000006
 40
0.3750000000000006
 40
0.4062500000000006
 40
0.4062500000000006
 40
0.4375000000000007
 40
0.4375000000000007
 40
0.4687500000000007
 40
0.4687500000000007
 40
0.5000000000000007
 40
0.5000000000000007
 40
0.5312500000000007
 40
0.5312500000000007
 40
0.5625000000000008
 40
0.5625000000000008
 40
0.6250000000000008
 40
0.6250000000000008
 40
0.6875000000000008
 40
0.6875000000000008
 40
0.7187500000000008
 40
0.7187500000000008
 40
0.7500000000000008
 40
0.7500000000000008
 40
0.7812500000000009
 40
0.7812500000000009
 40
0.8125000000000009
 40
0.8125000000000009
 40
0.8437500000000009
 40
0.8437500000000009
 40
0.8750000000000008
 40
0.8750000000000008
 40
0.9062500000000008
 40
0.9062500000000008
 40
0.9375000000000007
 40
0.9375000000000007
 40
1.0
 40
1.0
 40
1.0
 40
1.0
 10
267.4946767140568
 20
41.63763785072098
 30
0.0
 10
267.5881356309115
 20
41.62447119730824
 30
0.0
 10
267.6792359526839
 20
41.60658953331841
 30
0.0
 10
267.8572210580255
 20
41.56301246838538
 30
0.0
 10
267.9446960594695
 20
41.53709340598917
 30
0.0
 10
268.1126452003618
 20
41.47887561126232
 30
0.0
 10
268.1920874277669
 20
41.44700562026726
 30
0.0
 10
268.3422976228106
 20
41.37837978703248
 30
0.0
 10
268.4136706912337
 20
41.34123564948691
 30
0.0
 10
268.5436775146577
 20
41.26406890186782
 30
0.0
 10
268.6023547395573
 20
41.22414613767761
 30
0.0
 10
268.7071506524684
 20
41.1414501900702
 30
0.0
 10
268.7536064580005
 20
41.09822845298667
 30
0.0
 10
268.8303458219608
 20
41.01110423460091
 30
0.0
 10
268.8609412397261
 20
40.96711105940523
 30
0.0
 10
268.9061841993001
 20
40.8774853548572
 30
0.0
 10
268.9207957844145
 20
40.83137025196397
 30
0.0
 10
268.9316458557611
 20
40.7401009254903
 30
0.0
 10
268.9282125774673
 20
40.69467537527859
 30
0.0
 10
268.9024511620691
 20
40.60330829677456
 30
0.0
 10
268.8796500988306
 20
40.5570229603175
 30
0.0
 10
268.8157236126308
 20
40.46786745344024
 30
0.0
 10
268.7745955147789
 20
40.42443170092841
 30
0.0
 10
268.6724493766059
 20
40.33946428207629
 30
0.0
 10
268.6122506492246
 20
40.29882529494954
 30
0.0
 10
268.4778144653184
 20
40.22373063254543
 30
0.0
 10
268.4019004440815
 20
40.18843032413841
 30
0.0
 10
268.2407173499838
 20
40.1262285601157
 30
0.0
 10
268.15562307258
 20
40.09918805091475
 30
0.0
 10
267.9767065944098
 20
40.05351191983767
 30
0.0
 10
267.8848682393761
 20
40.03544524539112
 30
0.0
 10
267.6997538176601
 20
40.00937086110981
 30
0.0
 10
267.6051130508022
 20
40.00126861867893
 30
0.0
 10
267.4196874823303
 20
39.99590947787636
 30
0.0
 10
267.3284370035032
 20
39.99849214181689
 30
0.0
 10
267.1486521631824
 20
40.01461238173464
 30
0.0
 10
267.0608444485206
 20
40.02819832812465
 30
0.0
 10
266.810606372934
 20
40.08451785508613
 30
0.0
 10
266.656324715056
 20
40.14439350189848
 30
0.0
 10
266.3973507923096
 20
40.30006181552297
 30
0.0
 10
266.2893949692841
 20
40.39786603995064
 30
0.0
 10
266.1745187617755
 20
40.56064247308411
 30
0.0
 10
266.1433718223165
 20
40.618276924991
 30
0.0
 10
266.0977110688976
 20
40.73757064954174
 30
0.0
 10
266.0834849864666
 20
40.79814831799496
 30
0.0
 10
266.0725212083563
 20
40.92040196268282
 30
0.0
 10
266.0759377313103
 20
40.98277398890441
 30
0.0
 10
266.1020072765901
 20
41.10447128797703
 30
0.0
 10
266.1242906919411
 20
41.16316409808912
 30
0.0
 10
266.1881600548248
 20
41.27531183065361
 30
0.0
 10
266.2305812250977
 20
41.32938436568079
 30
0.0
 10
266.3322631693903
 20
41.42585771963699
 30
0.0
 10
266.3915072583848
 20
41.4687941986864
 30
0.0
 10
266.5275009702764
 20
41.5434599484901
 30
0.0
 10
266.6029822391487
 20
41.57428380727199
 30
0.0
 10
266.7637646927632
 20
41.62191802844419
 30
0.0
 10
266.8507815497288
 20
41.63912275167174
 30
0.0
 10
267.1176656406651
 20
41.67003005513448
 30
0.0
 10
267.3077588803474
 20
41.66397115754648
 30
0.0
 10
267.4946767140568
 20
41.63763785072099
 30
0.0
  0
LINE
  5
188
330
1F
100
AcDbEntity
  8
0
  6
Continuous
 62
     7
370
    15
100
AcDbLine
 10
244.4380280403
 20
40.4079921304
 30
0.0
 11
245.7904675545
 21
39.6272454175
 31
0.0
  0
LWPOLYLINE
  5
189
330
1F
100
AcDbEntity
  8
0
  6
Continuous
 62
     7
370
    15
100
AcDbPolyline
 90
       25
 70
   128
 43
0.0
 10
244.4380280403
 20
40.4079921304
 10
244.7649505998
 20
41.6783730034
 10
245.173300458
 20
42.9582037305
 10
245.6598879442
 20
44.2374873978
 10
246.2209122644
 20
45.5062313645
 10
246.8519911891
 20
46.7545253169
 10
247.5481952838
 20
47.9726186785
 10
248.3040864136
 20
49.1509967736
 10
249.1137602205
 20
50.2804551471
 10
249.9708922437
 20
51.3521714621
 10
250.8687873205
 20
52.3577744115
 10
251.8004318829
 20
53.2894091082
 10
252.7585487416
 20
54.1397984399
 10
253.7356539289
 20
54.9022999118
 10
254.7241151572
 20
55.570957532
 10
255.7162114351
 20
56.1405483342
 10
256.7041933777
 20
56.6066231751
 10
257.6803437375
 20
56.9655414874
 10
258.6370376849
 20
57.2144997164
 10
259.566802367
 20
57.351553219
 10
260.4623752784
 20
57.3756314534
 10
261.3167609898
 20
57.2865463418
 10
262.1232857903
 20
57.0849937388
 10
262.8756498162
 20
56.7725479964
 10
263.1263385424
 20
56.636693412
  0
LINE
  5
18A
330
1F
100
AcDbEntity
  8
0
  6
Continuous
 62
     7
370
    15
100
AcDbLine
 10
272.2365523305
 20
34.4881124286
 30
0.0
 11
273.0970606309
 21
35.5585765735
 31
0.0
  0
SPLINE
  5
18B
330
1F
100
AcDbEntity
  8
0
  6
Continuous
 62
     7
370
    15
100
AcDbSpline
210
0.0
220
0.0
230
1.0
 70
     8
 71
     3
 72
    22
 73
    18
 74
     0
 42
0.000000001
 43
0.00000001
 40
0.0
 40
0.0
 40
0.0
 40
0.0
 40
0.0416666666666666
 40
0.0833333333333333
 40
0.1250000000000032
 40
0.1666666666666682
 40
0.2083333333333338
 40
0.249999999999922
 40
0.2968749999997847
 40
0.34375
 40
0.390625
 40
0.4374999999999999
 40
0.486304925390498
 40
0.486304925390498
 40
0.53125
 40
0.6249999999999821
 40
0.828979133991729
 40
0.828979133991729
 40
0.828979133991729
 40
0.828979133991729
 10
273.0970606308525
 20
35.55857657345333
 30
0.0
 10
273.1314723094455
 20
35.60138437447729
 30
0.0
 10
273.1987339447476
 20
35.69321680182147
 30
0.0
 10
273.2927731750178
 20
35.84930847040229
 30
0.0
 10
273.3756189743103
 20
36.02194438785674
 30
0.0
 10
273.4415613693706
 20
36.20565879673861
 30
0.0
 10
273.4847985776705
 20
36.39242823104501
 30
0.0
 10
273.5014543755649
 20
36.58050814779773
 30
0.0
 10
273.4845340012656
 20
36.75725377205362
 30
0.0
 10
273.4298256486826
 20
36.90839657074241
 30
0.0
 10
273.3435748933507
 20
37.0195202814654
 30
0.0
 10
273.2298468995154
 20
37.08991933982747
 30
0.0
 10
273.1460152434299
 20
37.10981388827254
 30
0.0
 10
273.0646177063656
 20
37.117609280293
 30
0.0
 10
272.9573328209845
 20
37.12638901077059
 30
0.0
 10
272.7698816174125
 20
37.14383214368357
 30
0.0
 10
272.4617258302328
 20
37.17135118705883
 30
0.0
 10
272.2364540897316
 20
37.19141586959537
 30
0.0
  0
SPLINE
  5
18C
330
1F
100
AcDbEntity
  8
0
  6
Continuous
 62
     7
370
    15
100
AcDbSpline
210
0.0
220
0.0
230
1.0
 70
     8
 71
     3
 72
    22
 73
    18
 74
     0
 42
0.000000001
 43
0.00000001
 40
0.0
 40
0.0
 40
0.0
 40
0.0
 40
0.0416666666666666
 40
0.0833333333333333
 40
0.1250000000000032
 40
0.1666666666666682
 40
0.2083333333333338
 40
0.249999999999922
 40
0.2968749999997847
 40
0.34375
 40
0.390625
 40
0.4374999999999999
 40
0.486304925390498
 40
0.486304925390498
 40
0.53125
 40
0.6249999999999821
 40
0.826582907656694
 40
0.826582907656694
 40
0.826582907656694
 40
0.826582907656694
 10
266.5386452353432
 20
31.77248395487312
 30
0.0
 10
266.5050375663347
 20
31.77548898691668
 30
0.0
 10
266.4365987794799
 20
31.78976803841707
 30
0.0
 10
266.3430326736898
 20
31.83724201755984
 30
0.0
 10
266.260060103806
 20
31.91423754929758
 30
0.0
 10
266.1941516666308
 20
32.02181344212293
 30
0.0
 10
266.1509053973818
 20
32.15866310941019
 30
0.0
 10
266.1342519806453
 20
32.32751227930049
 30
0.0
 10
266.1511721049814
 20
32.52379444041264
 30
0.0
 10
266.2058787576799
 20
32.73809976586163
 30
0.0
 10
266.2921365721269
 20
32.94881533451907
 30
0.0
 10
266.4058376652005
 20
33.1504884568915
 30
0.0
 10
266.4897384988167
 20
33.26725903072392
 30
0.0
 10
266.5711596642737
 20
33.3690634134632
 30
0.0
 10
266.6784193502232
 20
33.50168029286012
 30
0.0
 10
266.8632089364582
 20
33.73223417781632
 30
0.0
 10
267.1752499851397
 20
34.12038083701665
 30
0.0
 10
267.3992533617312
 20
34.39896311059386
 30
0.0
  0
LINE
  5
18D
330
1F
100
AcDbEntity
  8
0
  6
Continuous
 62
     7
370
    15
100
AcDbLine
 10
267.3991535357
 20
31.6955415458
 30
0.0
 11
266.5386452353
 21
31.7724839549
 31
0.0
  0
ARC
  5
18E
330
1F
100
AcDbEntity
  8
0
  6
Continuous
 62
     7
370
    15
100
AcDbCircle
 10
248.2203727608
 20
34.4279831109
 30
0.0
 40
0.614721923028592
100
AcDbArc
 50
302.60547834
 51
357.3945215144
  0
LINE
  5
18F
330
1F
100
AcDbEntity
  8
0
  6
Continuous
 62
     7
370
    15
100
AcDbLine
 10
248.8344592014
 20
35.6231624741
 30
0.0
 11
248.8344592014
 21
34.40003877
 31
0.0
  0
LINE
  5
190
330
1F
100
AcDbEntity
  8
0
  6
Continuous
 62
     7
370
    15
100
AcDbLine
 10
248.8344592014
 20
40.4261099617
 30
0.0
 11
248.8344592014
 21
39.2029862577
 31
0.0
  0
ARC
  5
191
330
1F
100
AcDbEntity
  8
0
  6
Continuous
 62
     7
370
    15
100
AcDbCircle
 10
248.6620294544
 20
40.4540808405
 30
0.0
 40
0.1746836789714193
100
AcDbArc
 50
350.7859630095
 51
129.2032852357
  0
LINE
  5
192
330
1F
100
AcDbEntity
  8
0
  6
Continuous
 62
     7
370
    15
100
AcDbLine
 10
248.5516164889
 20
40.5894446641
 30
0.0
 11
246.1965634951
 21
39.2299015095
 31
0.0
  0
LINE
  5
193
330
1F
100
AcDbEntity
  8
0
  6
Continuous
 62
     7
370
    15
100
AcDbLine
 10
246.1497257971
 20
39.296279181
 30
0.0
 11
246.1965634951
 21
39.2299015095
 31
0.0
  0
LINE
  5
194
330
1F
100
AcDbEntity
  8
0
  6
Continuous
 62
     7
370
    15
100
AcDbLine
 10
267.2468726969
 20
51.3819863473
 30
0.0
 11
267.3516581548
 21
51.5634800837
 31
0.0
  0
LINE
  5
195
330
1F
100
AcDbEntity
  8
0
  6
Continuous
 62
     7
370
    15
100
AcDbLine
 10
265.8050219499
 20
50.5496236284
 30
0.0
 11
267.2468726969
 21
51.3819863473
 31
0.0
  0
ARC
  5
196
330
1F
100
AcDbEntity
  8
0
  6
Continuous
 62
     7
370
    15
100
AcDbCircle
 10
266.1362656779
 20
50.0317813403
 30
0.0
 40
0.6147219230287257
100
AcDbArc
 50
122.60547834
 51
177.3945215144
  0
LINE
  5
197
330
1F
100
AcDbEntity
  8
0
  6
Continuous
 62
     7
370
    15
100
AcDbLine
 10
265.5221792374
 20
49.7544916627
 30
0.0
 11
265.5221792374
 21
50.0597256812
 31
0.0
  0
LINE
  5
198
330
1F
100
AcDbEntity
  8
0
  6
Continuous
 62
     7
370
    15
100
AcDbLine
 10
246.1965634951
 20
32.5505976682
 30
0.0
 11
246.1497257971
 21
32.4301423417
 31
0.0
  0
LINE
  5
199
330
1F
100
AcDbEntity
  8
0
  6
Continuous
 62
     7
370
    15
100
AcDbLine
 10
246.1965634951
 20
32.5505976682
 30
0.0
 11
248.5516164889
 21
33.9101408229
 31
0.0
  0
LWPOLYLINE
  5
19A
330
1F
100
AcDbEntity
  8
0
  6
Continuous
 62
     7
370
    15
100
AcDbPolyline
 90
        3
 70
   128
 43
0.0
 10
267.5954767983
 20
48.5576024573
 10
267.6670046537
 20
48.5152332988
 10
267.7286932858
 20
48.4769191094
  0
LINE
  5
19B
330
1F
100
AcDbEntity
  8
0
  6
Continuous
 62
     7
370
    15
100
AcDbLine
 10
256.4838798818
 20
29.3096664909
 30
0.0
 11
256.4296986531
 21
29.3415606457
 31
0.0
  0
ARC
  5
19C
330
1F
100
AcDbEntity
  8
0
  6
Continuous
 62
     7
370
    15
100
AcDbCircle
 10
260.569697959
 20
48.0523637144
 30
0.0
 40
3.950251833197842
100
AcDbArc
 50
60.3817669828
 51
86.1507035624
  0
ARC
  5
19D
330
1F
100
AcDbEntity
  8
0
  6
Continuous
 62
     7
370
    15
100
AcDbCircle
 10
253.3885743184
 20
35.6252375406
 30
0.0
 40
3.922117054518034
100
AcDbArc
 50
214.0601676809
 51
239.710672463
  0
SPLINE
  5
19E
330
1F
100
AcDbEntity
  8
0
  6
Continuous
 62
     7
370
    15
100
AcDbSpline
210
0.0
220
0.0
230
1.0
 70
     8
 71
     3
 72
     8
 73
     4
 74
     0
 42
0.000000001
 43
0.00000001
 40
0.0
 40
0.0
 40
0.0
 40
0.0
 40
1.0
 40
1.0
 40
1.0
 40
1.0
 10
243.448545865019
 20
41.66839669033008
 30
0.0
 10
243.0660455925011
 20
41.60499188922488
 30
0.0
 10
242.6833983888693
 20
41.54186549350288
 30
0.0
 10
242.3006441988106
 20
41.47896784645479
 30
0.0
  0
SPLINE
  5
19F
330
1F
100
AcDbEntity
  8
0
  6
Continuous
 62
     7
370
    15
100
AcDbSpline
210
0.0
220
0.0
230
1.0
 70
     8
 71
     3
 72
     8
 73
     4
 74
     0
 42
0.000000001
 43
0.00000001
 40
0.0
 40
0.0
 40
0.0
 40
0.0
 40
0.0011858378198547
 40
0.0011858378198547
 40
0.0011858378198547
 40
0.0011858378198547
 10
241.9456722270336
 20
41.84679851555182
 30
0.0
 10
242.0644115140396
 20
41.72404104503558
 30
0.0
 10
242.1827496033871
 20
41.60142442466824
 30
0.0
 10
242.3006441988106
 20
41.47896784645479
 30
0.0
  0
LWPOLYLINE
  5
1A0
330
1F
100
AcDbEntity
  8
0
  6
Continuous
 62
     7
370
    15
100
AcDbPolyline
 90
       27
 70
   128
 43
0.0
 10
241.945672227
 20
41.8467985156
 10
242.2725947865
 20
43.1171793886
 10
242.6809446447
 20
44.3970101157
 10
243.167532131
 20
45.6762937829
 10
243.7285564511
 20
46.9450377497
 10
244.3596353758
 20
48.193331702
 10
245.0558394706
 20
49.4114250636
 10
245.8117306003
 20
50.5898031587
 10
246.6214044072
 20
51.7192615323
 10
247.4785364304
 20
52.7909778472
 10
248.3764315072
 20
53.7965807967
 10
249.3080760696
 20
54.7282154934
 10
250.2661929283
 20
55.5786048251
 10
251.2432981156
 20
56.341106297
 10
252.2317593439
 20
57.0097639171
 10
253.2238556218
 20
57.5793547193
 10
254.2118375644
 20
58.0454295603
 10
255.1879879242
 20
58.4043478726
 10
256.1446818717
 20
58.6533061016
 10
257.0744465538
 20
58.7903596041
 10
257.9700194651
 20
58.8144378386
 10
258.8244051765
 20
58.725352727
 10
259.630929977
 20
58.523800124
 10
260.3832940029
 20
58.2113543815
 10
261.0756204471
 20
57.7904560514
 10
261.7025014634
 20
57.2643928218
 10
261.7817501639
 20
57.1856261966
  0
SPLINE
  5
1A1
330
1F
100
AcDbEntity
  8
0
  6
Continuous
 62
     7
370
    15
100
AcDbSpline
210
0.0
220
0.0
230
1.0
 70
     8
 71
     3
 72
    14
 73
    10
 74
     0
 42
0.000000001
 43
0.00000001
 40
0.0
 40
0.0
 40
0.0
 40
0.0
 40
0.1564361641977119
 40
0.3174075991623471
 40
0.4738449617187218
 40
0.6348189984133211
 40
0.7912776075653278
 40
0.9522654301090179
 40
0.9999999999999999
 40
0.9999999999999999
 40
0.9999999999999999
 40
0.9999999999999999
 10
266.4679345572266
 20
32.03637418891585
 30
0.0
 10
266.4382659221458
 20
32.04128756333515
 30
0.0
 10
266.3780685229079
 20
32.05125675675162
 30
0.0
 10
266.3012535184076
 20
32.09544073539776
 30
0.0
 10
266.2361419891319
 20
32.16056365447425
 30
0.0
 10
266.1861260038448
 20
32.24546593740795
 30
0.0
 10
266.153665459881
 20
32.34930029709766
 30
0.0
 10
266.1387259130923
 20
32.43773126075678
 30
0.0
 10
266.1412690327926
 20
32.49393535313978
 30
0.0
 10
266.1418506413285
 20
32.50678916410237
 30
0.0
  0
SPLINE
  5
1A2
330
1F
100
AcDbEntity
  8
0
  6
Continuous
 62
     7
370
    15
100
AcDbSpline
210
0.0
220
0.0
230
1.0
 70
     8
 71
     3
 72
    13
 73
     9
 74
     0
 42
0.000000001
 43
0.00000001
 40
0.0
 40
0.0
 40
0.0
 40
0.0
 40
0.0231126591672174
 40
0.1673139963759795
 40
0.4109535162230969
 40
0.6349221685400309
 40
0.8642599167484541
 40
1.0
 40
1.0
 40
1.0
 40
1.0
 10
267.5234747605149
 20
34.57420239632123
 30
0.0
 10
267.5234373052551
 20
34.5737046301232
 30
0.0
 10
267.5231661642683
 20
34.57010126924425
 30
0.0
 10
267.5114032915551
 20
34.549652729064
 30
0.0
 10
267.488821721101
 20
34.51546645144222
 30
0.0
 10
267.4558403391269
 20
34.47092082617921
 30
0.0
 10
267.4259154147546
 20
34.43228804843391
 30
0.0
 10
267.4064797591718
 20
34.4079953949908
 30
0.0
 10
267.3992533617312
 20
34.39896311059386
 30
0.0
  0
SPLINE
  5
1A3
330
1F
100
AcDbEntity
  8
0
  6
Continuous
 62
     7
370
    15
100
AcDbSpline
210
0.0
220
0.0
230
1.0
 70
     8
 71
     3
 72
    16
 73
    12
 74
     0
 42
0.000000001
 43
0.00000001
 40
0.0
 40
0.0
 40
0.0
 40
0.0
 40
0.2499999999999957
 40
0.2499999999999957
 40
0.4999999999999913
 40
0.4999999999999913
 40
0.6249999999999933
 40
0.6249999999999933
 40
0.7499999999999954
 40
0.7499999999999954
 40
1.0
 40
1.0
 40
1.0
 40
1.0
 10
272.2364540897324
 20
37.1914158695953
 30
0.0
 10
272.2122459630372
 20
37.19357205827596
 30
0.0
 10
272.1859156216341
 20
37.19455553046868
 30
0.0
 10
272.1255148449206
 20
37.19224824284858
 30
0.0
 10
272.090132069427
 20
37.18889334589656
 30
0.0
 10
272.0331636653583
 20
37.1763249183936
 30
0.0
 10
272.0134217898251
 20
37.1707088949348
 30
0.0
 10
271.9778808670934
 20
37.15762974727435
 30
0.0
 10
271.9624988380476
 20
37.15039765690457
 30
0.0
 10
271.9243504205843
 20
37.12907165952601
 30
0.0
 10
271.9081885620636
 20
37.11518324507346
 30
0.0
 10
271.8958791542311
 20
37.10212307582446
 30
0.0
  0
SPLINE
  5
1A4
330
1F
100
AcDbEntity
  8
0
  6
Continuous
 62
     7
370
    15
100
AcDbSpline
210
0.0
220
0.0
230
1.0
 70
     8
 71
     3
 72
     8
 73
     4
 74
     0
 42
0.000000001
 43
0.00000001
 40
0.0
 40
0.0
 40
0.0
 40
0.0
 40
1.0
 40
1.0
 40
1.0
 40
1.0
 10
271.8958791542352
 20
37.10212307581903
 30
0.0
 10
271.8634062718701
 20
37.11518543808466
 30
0.0
 10
271.8311354792315
 20
37.13007783046922
 30
0.0
 10
271.8058581632768
 20
37.14467011436438
 30
0.0
  0
LINE
  5
1A5
330
1F
100
AcDbEntity
  8
0
  6
Continuous
 62
     7
370
    15
100
AcDbLine
 10
271.3555786809
 20
37.5970220942
 30
0.0
 11
271.3079850178
 21
37.6230420435
 31
0.0
  0
LINE
  5
1A6
330
1F
100
AcDbEntity
  8
0
  6
Continuous
 62
     7
370
    15
100
AcDbLine
 10
240.6020715476
 20
42.6224426778
 30
0.0
 11
241.945672227
 21
41.8467985156
 31
0.0
  0
ARC
  5
1A7
330
1F
100
AcDbEntity
  8
0
  6
Continuous
 62
     7
370
    15
100
AcDbCircle
 10
256.4702449729
 20
53.859071828
 30
0.0
 40
5.733581541818865
100
AcDbArc
 50
60.5368898571
 51
88.864311119
  0
LINE
  5
1A8
330
1F
100
AcDbEntity
  8
0
  6
Continuous
 62
     7
370
    15
100
AcDbLine
 10
270.7867804118
 20
37.732971178
 30
0.0
 11
271.8058581633
 21
37.1446701144
 31
0.0
  0
ARC
  5
1A9
330
1F
100
AcDbEntity
  8
0
  6
Continuous
 62
     7
370
    15
100
AcDbCircle
 10
265.5750143697
 20
37.3147409896
 30
0.0
 40
4.27581564079267
100
AcDbArc
 50
339.4396233403
 51
1.8260743065
  0
LINE
  5
1AA
330
1F
100
AcDbEntity
  8
0
  6
Continuous
 62
     7
370
    15
100
AcDbLine
 10
269.5784718025
 20
35.813099229
 30
0.0
 11
271.8058581633
 21
34.5272564529
 31
0.0
  0
LINE
  5
1AB
330
1F
100
AcDbEntity
  8
0
  6
Continuous
 62
     7
370
    15
100
AcDbLine
 10
267.8558631166
 20
31.5346800576
 30
0.0
 11
267.9034844857
 21
31.5086457869
 31
0.0
  0
LINE
  5
1AC
330
1F
100
AcDbEntity
  8
0
  6
Continuous
 62
     7
370
    15
100
AcDbLine
 10
266.2015921212
 20
32.6820815433
 30
0.0
 11
267.4055836342
 21
31.9870320374
 31
0.0
  0
LINE
  5
1AD
330
1F
100
AcDbEntity
  8
0
  6
Continuous
 62
     7
370
    15
100
AcDbLine
 10
244.6590581565
 20
41.299010557
 30
0.0
 11
244.0167122827
 21
41.6698289369
 31
0.0
  0
SPLINE
  5
1AE
330
1F
100
AcDbEntity
  8
0
  6
Continuous
 62
     7
370
    15
100
AcDbSpline
210
0.0
220
0.0
230
1.0
 70
     8
 71
     3
 72
    12
 73
     8
 74
     0
 42
0.000000001
 43
0.00000001
 40
0.0
 40
0.0
 40
0.0
 40
0.0
 40
0.2500000000000015
 40
0.2500000000000015
 40
0.500000000000003
 40
0.500000000000003
 40
1.0
 40
1.0
 40
1.0
 40
1.0
 10
244.0167122826589
 20
41.66982893692416
 30
0.0
 10
243.9790730045403
 20
41.69155762967385
 30
0.0
 10
243.9326527865795
 20
41.70895590067666
 30
0.0
 10
243.8325848577009
 20
41.73121238315231
 30
0.0
 10
243.7787992188236
 20
41.73627290521642
 30
0.0
 10
243.6188802910744
 20
41.73322104323765
 30
0.0
 10
243.5139697881478
 20
41.70616511722878
 30
0.0
 10
243.4386748959561
 20
41.66269830118367
 30
0.0
  0
LWPOLYLINE
  5
1AF
330
1F
100
AcDbEntity
  8
0
  6
Continuous
 62
     7
370
    15
100
AcDbPolyline
 90
       21
 70
   128
 43
0.0
 10
243.438674896
 20
41.6626983012
 10
243.7450316301
 20
42.8655738174
 10
244.1315151262
 20
44.0779726092
 10
244.5948734981
 20
45.2896935088
 10
245.1312080313
 20
46.4905410523
 10
245.7360059876
 20
47.6704112643
 10
246.4041785747
 20
48.8193766738
 10
247.130103764
 20
49.9277698438
 10
247.9076735945
 20
50.9862647135
 10
248.7303455651
 20
51.9859550683
 10
249.5911976837
 20
52.9184294771
 10
250.4829867091
 20
53.7758420659
 10
251.3982090959
 20
54.5509785339
 10
252.3291641292
 20
55.2373168545
 10
253.2680187194
 20
55.8290821519
 10
254.2068733097
 20
56.3212952913
 10
255.137828343
 20
56.7098147732
 10
256.0530507297
 20
56.9913715805
 10
256.9448397551
 20
57.163596684
 10
257.8056918738
 20
57.2250409753
 10
258.5159152645
 20
57.1888430182
  0
SPLINE
  5
1B0
330
1F
100
AcDbEntity
  8
0
  6
Continuous
 62
     7
370
    15
100
AcDbSpline
210
0.0
220
0.0
230
1.0
 70
     8
 71
     3
 72
    10
 73
     6
 74
     0
 42
0.000000001
 43
0.00000001
 40
0.0
 40
0.0
 40
0.0
 40
0.0
 40
0.5
 40
0.5
 40
1.0
 40
1.0
 40
1.0
 40
1.0
 10
240.5002965824025
 20
42.65292030841785
 30
0.0
 10
240.5076602166702
 20
42.65695655607357
 30
0.0
 10
240.5195241524781
 20
42.65717797382425
 30
0.0
 10
240.5536371673532
 20
42.64753731399129
 30
0.0
 10
240.575785566283
 20
42.63761725175303
 30
0.0
 10
240.6020715475788
 20
42.62244267775088
 30
0.0
  0
SPLINE
  5
1B1
330
1F
100
AcDbEntity
  8
0
  6
Continuous
 62
     7
370
    15
100
AcDbSpline
210
0.0
220
0.0
230
1.0
 70
     8
 71
     3
 72
    14
 73
    10
 74
     0
 42
0.000000001
 43
0.00000001
 40
0.0
 40
0.0
 40
0.0
 40
0.0
 40
0.25
 40
0.25
 40
0.5
 40
0.5
 40
0.75
 40
0.75
 40
1.0
 40
1.0
 40
1.0
 40
1.0
 10
248.8344592013871
 20
39.20298625765009
 30
0.0
 10
248.8344592013871
 20
38.90456913080904
 30
0.0
 10
248.8509516634483
 20
38.59730669246128
 30
0.0
 10
248.8823469521357
 20
37.98363437619935
 30
0.0
 10
248.8967959787668
 20
37.67746788234167
 30
0.0
 10
248.8969074120819
 20
37.08057386424234
 30
0.0
 10
248.8824875260354
 20
36.78984572703088
 30
0.0
 10
248.8510107871267
 20
36.21085193087288
 30
0.0
 10
248.8344592013871
 20
35.9218288271158
 30
0.0
 10
248.8344592013871
 20
35.62316247409855
 30
0.0
  0
LINE
  5
1B2
330
1F
100
AcDbEntity
  8
0
  6
Continuous
 62
     7
370
    15
100
AcDbLine
 10
267.4569839995
 20
31.9479382648
 30
0.0
 11
266.4679345572
 21
32.0363741889
 31
0.0
  0
SPLINE
  5
1B3
330
1F
100
AcDbEntity
  8
0
  6
Continuous
 62
     7
370
    15
100
AcDbSpline
210
0.0
220
0.0
230
1.0
 70
     8
 71
     3
 72
    16
 73
    12
 74
     0
 42
0.000000001
 43
0.00000001
 40
0.0
 40
0.0
 40
0.0
 40
0.0
 40
0.2499999999999988
 40
0.2499999999999988
 40
0.4999999999999976
 40
0.4999999999999976
 40
0.6249999999999981
 40
0.6249999999999981
 40
0.7499999999999988
 40
0.7499999999999988
 40
1.0
 40
1.0
 40
1.0
 40
1.0
 10
267.3991535356627
 20
31.69554154581885
 30
0.0
 10
267.4232063580466
 20
31.69339086104558
 30
0.0
 10
267.4467075381548
 20
31.69425941788877
 30
0.0
 10
267.4889570547666
 20
31.70709300849657
 30
0.0
 10
267.5089148323386
 20
31.71938575740281
 30
0.0
 10
267.524090134701
 20
31.75584745598144
 30
0.0
 10
267.5264015171526
 20
31.77145835662169
 30
0.0
 10
267.5235625333838
 20
31.80660528133869
 30
0.0
 10
267.5185885214203
 20
31.82567936032113
 30
0.0
 10
267.4982236243478
 20
31.88083276297884
 30
0.0
 10
267.4780898115463
 20
31.91566420879684
 30
0.0
 10
267.4569839994831
 20
31.94793826478488
 30
0.0
  0
SPLINE
  5
1B4
330
1F
100
AcDbEntity
  8
0
  6
Continuous
 62
     7
370
    15
100
AcDbSpline
210
0.0
220
0.0
230
1.0
 70
     8
 71
     3
 72
     8
 73
     4
 74
     0
 42
0.000000001
 43
0.00000001
 40
0.0
 40
0.0
 40
0.0
 40
0.0
 40
1.0
 40
1.0
 40
1.0
 40
1.0
 10
267.4055836342065
 20
31.98703203742084
 30
0.0
 10
267.4309355630757
 20
31.97239668040697
 30
0.0
 10
267.447740362304
 20
31.95900247931222
 30
0.0
 10
267.4569839994836
 20
31.94793826478467
 30
0.0
  0
SPLINE
  5
1B5
330
1F
100
AcDbEntity
  8
0
  6
Continuous
 62
     7
370
    15
100
AcDbSpline
210
0.0
220
0.0
230
1.0
 70
     8
 71
     3
 72
     8
 73
     4
 74
     0
 42
0.000000001
 43
0.00000001
 40
0.0
 40
0.0
 40
0.0
 40
0.0
 40
1.0
 40
1.0
 40
1.0
 40
1.0
 10
271.8058581632773
 20
34.52725645285641
 30
0.0
 10
271.8312100921464
 20
34.5126210958426
 30
0.0
 10
271.8631540759488
 20
34.50796655997362
 30
0.0
 10
271.8958791542382
 20
34.51045789286083
 30
0.0
  0
SPLINE
  5
1B6
330
1F
100
AcDbEntity
  8
0
  6
Continuous
 62
     7
370
    15
100
AcDbSpline
210
0.0
220
0.0
230
1.0
 70
     8
 71
     3
 72
    16
 73
    12
 74
     0
 42
0.000000001
 43
0.00000001
 40
0.0
 40
0.0
 40
0.0
 40
0.0
 40
0.2499999999999867
 40
0.2499999999999867
 40
0.3749999999999881
 40
0.3749999999999881
 40
0.4999999999999896
 40
0.4999999999999896
 40
0.7499999999999948
 40
0.7499999999999948
 40
1.0
 40
1.0
 40
1.0
 40
1.0
 10
271.895879154238
 20
34.51045789286143
 30
0.0
 10
271.908098372741
 20
34.47321217599058
 30
0.0
 10
271.9241670773554
 20
34.43610126823978
 30
0.0
 10
271.9624621655144
 20
34.39109429672827
 30
0.0
 10
271.9779192608676
 20
34.37812645891356
 30
0.0
 10
272.0132270906486
 20
34.36184410116525
 30
0.0
 10
272.0328104524938
 20
34.35884748265101
 30
0.0
 10
272.0901112279651
 20
34.36388124260993
 30
0.0
 10
272.1251815253181
 20
34.38352478835993
 30
0.0
 10
272.1857022838702
 20
34.43000754833405
 30
0.0
 10
272.2125273879318
 20
34.4582256283594
 30
0.0
 10
272.2365523305332
 20
34.48811242855471
 30
0.0
  0
LINE
  5
1B7
330
1F
100
AcDbEntity
  8
0
  6
Continuous
 62
     7
370
    15
100
AcDbLine
 10
246.1965634951
 20
39.2299015095
 30
0.0
 11
244.4709838809
 21
40.226057417
 31
0.0
  0
SPLINE
  5
1B8
330
1F
100
AcDbEntity
  8
0
  6
Continuous
 62
     7
370
    15
100
AcDbSpline
210
0.0
220
0.0
230
1.0
 70
     8
 71
     3
 72
     8
 73
     4
 74
     0
 42
0.000000001
 43
0.00000001
 40
0.0
 40
0.0
 40
0.0
 40
0.0
 40
0.0011858378198547
 40
0.0011858378198547
 40
0.0011858378198547
 40
0.0011858378198547
 10
244.4709838808622
 20
40.22605741695473
 30
0.0
 10
244.4593447976835
 20
40.28717399360792
 30
0.0
 10
244.4483777636766
 20
40.34780662309348
 30
0.0
 10
244.4380280403154
 20
40.40799213039923
 30
0.0
  0
SPLINE
  5
1B9
330
1F
100
AcDbEntity
  8
0
  6
Continuous
 62
     7
370
    15
100
AcDbSpline
210
0.0
220
0.0
230
1.0
 70
     8
 71
     3
 72
    22
 73
    18
 74
     0
 42
0.000000001
 43
0.00000001
 40
0.0
 40
0.0
 40
0.0
 40
0.0
 40
0.125
 40
0.125
 40
0.2500000000000001
 40
0.2500000000000001
 40
0.3750000000000002
 40
0.3750000000000002
 40
0.5000000000000002
 40
0.5000000000000002
 40
0.6250000000000002
 40
0.6250000000000002
 40
0.7500000000000003
 40
0.7500000000000003
 40
0.8750000000000002
 40
0.8750000000000002
 40
1.0
 40
1.0
 40
1.0
 40
1.0
 10
272.8849285964945
 20
35.74082599631139
 30
0.0
 10
272.9334775751862
 20
35.80122046425736
 30
0.0
 10
272.9773717475755
 20
35.86542597281425
 30
0.0
 10
273.0549652106456
 20
36.00189586524873
 30
0.0
 10
273.0885240945533
 20
36.07385815205028
 30
0.0
 10
273.1417266813799
 20
36.21749383540249
 30
0.0
 10
273.1620182253547
 20
36.29120277143404
 30
0.0
 10
273.1880357368592
 20
36.43271267743444
 30
0.0
 10
273.1941234687329
 20
36.50171562004695
 30
0.0
 10
273.1924956413022
 20
36.63142049753476
 30
0.0
 10
273.1849700971813
 20
36.69072242361907
 30
0.0
 10
273.1569211942308
 20
36.79801275837914
 30
0.0
 10
273.1365143306464
 20
36.84477850078189
 30
0.0
 10
273.0841727320749
 20
36.92189154642286
 30
0.0
 10
273.0516184335747
 20
36.95279604922368
 30
0.0
 10
272.9766750494516
 20
36.99616204089729
 30
0.0
 10
272.9334827568838
 20
37.00934568063911
 30
0.0
 10
272.8849285924626
 20
37.01368715401466
 30
0.0
  0
LINE
  5
1BA
330
1F
100
AcDbEntity
  8
0
  6
Continuous
 62
     7
370
    15
100
AcDbLine
 10
272.8849285925
 20
37.013687154
 30
0.0
 11
271.8958791542
 21
37.1021230758
 31
0.0
  0
SPLINE
  5
1BB
330
1F
100
AcDbEntity
  8
0
  6
Continuous
 62
     7
370
    15
100
AcDbSpline
210
0.0
220
0.0
230
1.0
 70
     8
 71
     3
 72
    12
 73
     8
 74
     0
 42
0.000000001
 43
0.00000001
 40
0.0
 40
0.0
 40
0.0
 40
0.0
 40
0.1628503295329019
 40
0.3259029173237739
 40
0.6517341605780991
 40
0.8300242165124612
 40
0.9999999999999999
 40
0.9999999999999999
 40
0.9999999999999999
 40
0.9999999999999999
 10
243.2217991257189
 20
38.86328216789492
 30
0.0
 10
243.2193577893028
 20
39.01390357574233
 30
0.0
 10
243.2144720843585
 20
39.31533346151339
 30
0.0
 10
243.1806237787013
 20
39.93075990420221
 30
0.0
 10
243.1518289769496
 20
40.55834480732121
 30
0.0
 10
243.1673727358349
 20
41.16709557585887
 30
0.0
 10
243.1846846067186
 20
41.47557011560349
 30
0.0
 10
243.1931338959799
 20
41.62612522507413
 30
0.0
  0
LINE
  5
1BC
330
1F
100
AcDbEntity
  8
0
  6
Continuous
 62
     7
370
    15
100
AcDbLine
 10
243.2217991257
 20
37.3671769693
 30
0.0
 11
243.2217991257
 21
38.8632821679
 31
0.0
  0
ARC
  5
1BD
330
1F
100
AcDbEntity
  8
0
  6
Continuous
 62
     7
370
    15
100
AcDbCircle
 10
269.4269278916
 20
38.0046787351
 30
0.0
 40
1.491207826005091
100
AcDbArc
 50
321.0621655031
 51
347.3474134538
  0
LINE
  5
1BE
330
1F
100
AcDbEntity
  8
0
  6
Continuous
 62
     7
370
    15
100
AcDbLine
 10
271.8958791542
 20
34.5104578929
 30
0.0
 11
272.8849285965
 21
35.7408259963
 31
0.0
  0
LINE
  5
1BF
330
1F
100
AcDbEntity
  8
0
  6
Continuous
 62
     7
370
    15
100
AcDbLine
 10
269.5784718025
 20
35.813099229
 30
0.0
 11
270.5868315576
 21
37.067489178
 31
0.0
  0
LINE
  5
1C0
330
1F
100
AcDbEntity
  8
0
  6
Continuous
 62
     7
370
    15
100
AcDbLine
 10
240.93745681
 20
42.2659191753
 30
0.0
 11
240.5002965824
 21
42.6529203084
 31
0.0
  0
LINE
  5
1C1
330
1F
100
AcDbEntity
  8
0
  6
Continuous
 62
     7
370
    15
100
AcDbLine
 10
242.3006441988
 20
41.4789678465
 30
0.0
 11
240.93745681
 21
42.2659191753
 31
0.0
  0
LINE
  5
1C2
330
1F
100
AcDbEntity
  8
0
  6
Continuous
 62
     7
370
    15
100
AcDbLine
 10
242.1611389539
 20
41.3369358533
 30
0.0
 11
242.1634468158
 21
41.5581702098
 31
0.0
  0
ARC
  5
1C3
330
1F
100
AcDbEntity
  8
0
  6
Continuous
 62
     7
370
    15
100
AcDbCircle
 10
248.8123567157
 20
41.0143190835
 30
0.0
 40
6.659037414974797
100
AcDbArc
 50
177.2230493701
 51
212.9079590882
  0
LWPOLYLINE
  5
1C4
330
1F
100
AcDbEntity
  8
0
  6
Continuous
 62
     7
370
    15
100
AcDbPolyline
 90
        3
 70
   128
 43
0.0
 10
228.879491204
 20
65.1777325795
 10
228.8897492204
 20
65.1744278896
 10
228.9541311062
 20
65.1523768582
  0
LINE
  5
1C5
330
1F
100
AcDbEntity
  8
0
  6
Continuous
 62
     7
370
    15
100
AcDbLine
 10
222.7893493571
 20
54.473504573
 30
0.0
 11
222.7499133523
 21
54.5076362275
 31
0.0
  0
LINE
  5
1C6
330
1F
100
AcDbEntity
  8
0
  6
Continuous
 62
     7
370
    15
100
AcDbLine
 10
244.4709838809
 20
33.5467535757
 30
0.0
 11
246.1965634951
 21
32.5505976682
 31
0.0
  0
SPLINE
  5
1C7
330
1F
100
AcDbEntity
  8
0
  6
Continuous
 62
     7
370
    15
100
AcDbSpline
210
0.0
220
0.0
230
1.0
 70
     8
 71
     3
 72
    14
 73
    10
 74
     0
 42
0.000000001
 43
0.00000001
 40
0.0
 40
0.0
 40
0.0
 40
0.0
 40
0.25
 40
0.25
 40
0.5
 40
0.5
 40
0.75
 40
0.75
 40
1.0
 40
1.0
 40
1.0
 40
1.0
 10
246.1497257971214
 20
32.43014234170165
 30
0.0
 10
246.1329402325049
 20
32.38697389499819
 30
0.0
 10
246.112537232012
 20
32.34694655634045
 30
0.0
 10
246.0639889495502
 20
32.2736146913891
 30
0.0
 10
246.0356471820276
 20
32.24031663751913
 30
0.0
 10
245.9724919721228
 20
32.18737417658664
 30
0.0
 10
245.9372666580182
 20
32.16730164472628
 30
0.0
 10
245.8625875118841
 20
32.15052951582054
 30
0.0
 10
245.8242596433221
 20
32.15472247688113
 30
0.0
 10
245.790467554535
 20
32.17423023450358
 30
0.0
  0
LINE
  5
1C8
330
1F
100
AcDbEntity
  8
0
  6
Continuous
 62
     7
370
    15
100
AcDbLine
 10
245.7904675545
 20
32.1742302345
 30
0.0
 11
244.4380280403
 21
32.9549769474
 31
0.0
  0
SPLINE
  5
1C9
330
1F
100
AcDbEntity
  8
0
  6
Continuous
 62
     7
370
    15
100
AcDbSpline
210
0.0
220
0.0
230
1.0
 70
     8
 71
     3
 72
     8
 73
     4
 74
     0
 42
0.000000001
 43
0.00000001
 40
0.0
 40
0.0
 40
0.0
 40
0.0
 40
0.0011858378198546
 40
0.0011858378198546
 40
0.0011858378198546
 40
0.0011858378198546
 10
244.4380280403154
 20
32.9549769474015
 30
0.0
 10
244.4483777636766
 20
33.15225591736808
 30
0.0
 10
244.4593447976834
 20
33.34951879655752
 30
0.0
 10
244.4709838808622
 20
33.54675357572928
 30
0.0
  0
ARC
  5
1CA
330
1F
100
AcDbEntity
  8
0
  6
Continuous
 62
     7
370
    15
100
AcDbCircle
 10
251.3999218243
 20
33.2016811343
 30
0.0
 40
5.583445366226342
100
AcDbArc
 50
210.7380617707
 51
268.7948787858
  0
SPLINE
  5
1CB
330
1F
100
AcDbEntity
  8
0
  6
Continuous
 62
     7
370
    15
100
AcDbSpline
210
0.0
220
0.0
230
1.0
 70
     8
 71
     3
 72
     8
 73
     4
 74
     0
 42
0.000000001
 43
0.00000001
 40
0.0
 40
0.0
 40
0.0
 40
0.0
 40
1.0
 40
1.0
 40
1.0
 40
1.0
 10
244.7991198170853
 20
34.20942310231395
 30
0.0
 10
244.6892875795757
 20
33.98861039511998
 30
0.0
 10
244.5799376065891
 20
33.76771286639943
 30
0.0
 10
244.4709838808622
 20
33.54675357572928
 30
0.0
  0
LINE
  5
1CC
330
1F
100
AcDbEntity
  8
0
  6
Continuous
 62
     7
370
    15
100
AcDbLine
 10
244.789248848
 20
34.2037247132
 30
0.0
 11
244.7991198171
 21
34.2094231023
 31
0.0
  0
SPLINE
  5
1CD
330
1F
100
AcDbEntity
  8
0
  6
Continuous
 62
     7
370
    15
100
AcDbSpline
210
0.0
220
0.0
230
1.0
 70
     8
 71
     3
 72
    12
 73
     8
 74
     0
 42
0.000000001
 43
0.00000001
 40
0.0
 40
0.0
 40
0.0
 40
0.0
 40
0.2500000000000022
 40
0.2500000000000022
 40
0.5000000000000043
 40
0.5000000000000043
 40
1.0
 40
1.0
 40
1.0
 40
1.0
 10
244.801600809776
 20
34.53741859363713
 30
0.0
 10
244.8392400878946
 20
34.51568990088744
 30
0.0
 10
244.8693780427456
 20
34.4888920794664
 30
0.0
 10
244.9079315785471
 20
34.43112409375087
 30
0.0
 10
244.9166976096926
 20
34.40007430534035
 30
0.0
 10
244.9114110568787
 20
34.30775507342088
 30
0.0
 10
244.8645437402141
 20
34.24719152921265
 30
0.0
 10
244.7892488480224
 20
34.20372471316755
 30
0.0
  0
LINE
  5
1CE
330
1F
100
AcDbEntity
  8
0
  6
Continuous
 62
     7
370
    15
100
AcDbLine
 10
244.0167122827
 20
34.9905250957
 30
0.0
 11
244.8016008098
 21
34.5374185936
 31
0.0
  0
SPLINE
  5
1CF
330
1F
100
AcDbEntity
  8
0
  6
Continuous
 62
     7
370
    15
100
AcDbSpline
210
0.0
220
0.0
230
1.0
 70
     8
 71
     3
 72
    14
 73
    10
 74
     0
 42
0.000000001
 43
0.00000001
 40
0.0
 40
0.0
 40
0.0
 40
0.0
 40
0.25
 40
0.25
 40
0.5
 40
0.5
 40
0.75
 40
0.75
 40
1.0
 40
1.0
 40
1.0
 40
1.0
 10
243.4386748959561
 20
34.98339445995824
 30
0.0
 10
243.4765154882172
 20
35.0052393688886
 30
0.0
 10
243.52142455359
 20
35.02300576484841
 30
0.0
 10
243.6190369214584
 20
35.04781634451184
 30
0.0
 10
243.6723351011635
 20
35.05493911488164
 30
0.0
 10
243.7786985362812
 20
35.05696535019735
 30
0.0
 10
243.8327278797703
 20
35.05190287206006
 30
0.0
 10
243.9330846061977
 20
35.02952972649153
 30
0.0
 10
243.9787139142767
 20
35.01246108684506
 30
0.0
 10
244.0167122826589
 20
34.99052509569873
 30
0.0
  0
LINE
  5
1D0
330
1F
100
AcDbEntity
  8
0
  6
Continuous
 62
     7
370
    15
100
AcDbLine
 10
243.448545865
 20
34.9890928491
 30
0.0
 11
243.438674896
 21
34.98339446
 31
0.0
  0
SPLINE
  5
1D1
330
1F
100
AcDbEntity
  8
0
  6
Continuous
 62
     7
370
    15
100
AcDbSpline
210
0.0
220
0.0
230
1.0
 70
     8
 71
     3
 72
     8
 73
     4
 74
     0
 42
0.000000001
 43
0.00000001
 40
0.0
 40
0.0
 40
0.0
 40
0.0
 40
1.0
 40
1.0
 40
1.0
 40
1.0
 10
242.3006441988106
 20
34.79966400522935
 30
0.0
 10
242.6833983888693
 20
34.86256165227744
 30
0.0
 10
243.0660455925011
 20
34.92568804799945
 30
0.0
 10
243.448545865019
 20
34.98909284910464
 30
0.0
  0
LINE
  5
1D2
330
1F
100
AcDbEntity
  8
0
  6
Continuous
 62
     7
370
    15
100
AcDbLine
 10
240.93745681
 20
35.5866153341
 30
0.0
 11
242.3006441988
 21
34.7996640052
 31
0.0
  0
LINE
  5
1D3
330
1F
100
AcDbEntity
  8
0
  6
Continuous
 62
     7
370
    15
100
AcDbLine
 10
240.93745681
 20
35.5866153341
 30
0.0
 11
243.2925098038
 21
36.9461584887
 31
0.0
  0
ARC
  5
1D4
330
1F
100
AcDbEntity
  8
0
  6
Continuous
 62
     7
370
    15
100
AcDbCircle
 10
250.6196327126
 20
34.5693489222
 30
0.0
 40
6.388930520590115
100
AcDbArc
 50
194.6363153028
 51
238.196622426
  0
ELLIPSE
  5
1D5
330
1F
100
AcDbEntity
  8
0
  6
Continuous
 62
     7
370
    15
100
AcDbEllipse
 10
243.1753525163
 20
37.340408276
 30
0.0
 11
-3.002985189937135E-5
 21
0.4267244807413632
 31
0.0
210
0.0
220
0.0
230
1.0
 40
0.7174342186
 41
3.534193645557639
 42
5.104989972352328
  0
ARC
  5
1D6
330
1F
100
AcDbEntity
  8
0
  6
Continuous
 62
     7
370
    15
100
AcDbCircle
 10
247.7727575171
 20
35.7830441678
 30
0.0
 40
5.990406384032537
100
AcDbArc
 50
193.4098001616
 51
253.8336005401
  0
SPLINE
  5
1D7
330
1F
100
AcDbEntity
  8
0
  6
Continuous
 62
     7
370
    15
100
AcDbSpline
210
0.0
220
0.0
230
1.0
 70
     8
 71
     3
 72
     8
 73
     4
 74
     0
 42
0.000000001
 43
0.00000001
 40
0.0
 40
0.0
 40
0.0
 40
0.0
 40
0.0011858378198546
 40
0.0011858378198546
 40
0.0011858378198546
 40
0.0011858378198546
 10
242.3006441988106
 20
34.79966400522935
 30
0.0
 10
242.182749603387
 20
34.66376922761784
 30
0.0
 10
242.0644115140396
 20
34.5284903393102
 30
0.0
 10
241.9456722270336
 20
34.39378333255411
 30
0.0
  0
LINE
  5
1D8
330
1F
100
AcDbEntity
  8
0
  6
Continuous
 62
     7
370
    15
100
AcDbLine
 10
240.5002965824
 20
35.3341961488
 30
0.0
 11
240.93745681
 21
35.5866153341
 31
0.0
  0
LINE
  5
1D9
330
1F
100
AcDbEntity
  8
0
  6
Continuous
 62
     7
370
    15
100
AcDbLine
 10
241.945672227
 20
34.3937833326
 30
0.0
 11
240.6020715476
 21
35.1694274948
 31
0.0
  0
SPLINE
  5
1DA
330
1F
100
AcDbEntity
  8
0
  6
Continuous
 62
     7
370
    15
100
AcDbSpline
210
0.0
220
0.0
230
1.0
 70
     8
 71
     3
 72
    10
 73
     6
 74
     0
 42
0.000000001
 43
0.00000001
 40
0.0
 40
0.0
 40
0.0
 40
0.0
 40
0.5
 40
0.5
 40
1.0
 40
1.0
 40
1.0
 40
1.0
 10
240.6020715475788
 20
35.16942749475314
 30
0.0
 10
240.5758371571049
 20
35.18457228600777
 30
0.0
 10
240.5536625363506
 20
35.20811680883924
 30
0.0
 10
240.5195981149746
 20
35.26536558901853
 30
0.0
 10
240.5076564819243
 20
35.29889177605916
 30
0.0
 10
240.5002965824025
 20
35.33419614881019
 30
0.0
  0
ARC
  5
1DB
330
1F
100
AcDbEntity
  8
0
  6
Continuous
 62
     7
370
    15
100
AcDbCircle
 10
250.0354740465
 20
36.864926647
 30
0.0
 40
6.859877725094282
100
AcDbArc
 50
195.9191542404
 51
215.7602476364
  0
ARC
  5
1DC
330
1F
100
AcDbEntity
  8
0
  6
Continuous
 62
     7
370
    15
100
AcDbCircle
 10
246.3089266825
 20
36.2725239766
 30
0.0
 40
5.705795613700833
100
AcDbArc
 50
210.9316531731
 51
239.5425947245
  0
ELLIPSE
  5
1DD
330
1F
100
AcDbEntity
  8
0
  6
Continuous
 62
     7
370
    15
100
AcDbEllipse
 10
242.9389564132
 20
37.2038953469
 30
0.0
 11
0.1300037894604884
 21
0.4852718104954619
 31
0.0
210
0.0
220
0.0
230
1.0
 40
0.5176380889
 41
3.619174351347832
 42
5.189970678142648
  0
LWPOLYLINE
  5
1DE
330
1F
100
AcDbEntity
  8
0
  6
Continuous
 62
     7
370
     0
100
AcDbPolyline
 90
       31
 70
   128
 43
0.0
 10
246.1497257971
 20
39.296279181
 10
246.4459122523
 20
40.5114166055
 10
246.8190402129
 20
41.7375527745
 10
247.2663245965
 20
42.9655356262
 10
247.7844268063
 20
44.1861993146
 10
248.3694796506
 20
45.3904326251
 10
249.0171162084
 20
46.5692469821
 10
249.7225024244
 20
47.7138435404
 10
250.4803731915
 20
48.8156788619
 10
251.2850716499
 20
49.8665286844
 10
252.1305914113
 20
50.8585493094
 10
253.0106213908
 20
51.7843361479
 10
253.9185929144
 20
52.6369789898
 10
254.8477287481
 20
53.4101135826
 10
255.7910936844
 20
54.0979691353
 10
256.7416463077
 20
54.6954113921
 10
257.6922915525
 20
55.1979809555
 10
258.6359336618
 20
55.6019265718
 10
259.5655291512
 20
55.9042331312
 10
260.4741393822
 20
56.1026441727
 10
261.3549823534
 20
56.1956787268
 10
262.2014833226
 20
56.18264237
 10
263.007323881
 20
56.0636324075
 10
263.7664891154
 20
55.8395371473
 10
264.473312504
 20
55.5120292696
 10
265.1225182124
 20
55.0835533417
 10
265.7092604729
 20
54.5573075714
 10
266.2291597545
 20
53.9372199351
 10
266.6783354519
 20
53.2279188587
 10
267.0534348512
 20
52.4346986706
 10
267.3516581548
 20
51.5634800837
  0
LWPOLYLINE
  5
1DF
330
1F
100
AcDbEntity
  8
0
  6
Continuous
 62
     7
370
     0
100
AcDbPolyline
 90
       21
 70
   128
 43
0.0
 10
245.7904675545
 20
39.6272454175
 10
246.117390114
 20
40.8976262905
 10
246.5257399722
 20
42.1774570176
 10
247.0123274585
 20
43.4567406849
 10
247.5733517786
 20
44.7254846516
 10
248.2044307033
 20
45.973778604
 10
248.9006347981
 20
47.1918719656
 10
249.6565259278
 20
48.3702500607
 10
250.4661997347
 20
49.4997084342
 10
251.3233317579
 20
50.5714247492
 10
252.2212268347
 20
51.5770276986
 10
253.1528713971
 20
52.5086623953
 10
254.1109882558
 20
53.359051727
 10
255.0880934431
 20
54.1215531989
 10
256.0765546714
 20
54.7902108191
 10
257.0686509493
 20
55.3598016213
 10
258.0566328919
 20
55.8258764622
 10
259.0327832517
 20
56.1847947745
 10
259.9894771992
 20
56.4337530035
 10
260.9192418813
 20
56.5708065061
 10
261.7835821858
 20
56.5959721552
  0
ARC
  5
1E0
330
1F
100
AcDbEntity
  8
0
  6
Continuous
 62
     7
370
     0
100
AcDbCircle
 10
262.510012389
 20
35.0507146689
 30
0.0
 40
3.137449863488462
100
AcDbArc
 50
174.3087434829
 51
234.3790761237
  0
LWPOLYLINE
  5
1E1
330
1F
100
AcDbEntity
  8
0
  6
Continuous
 62
     7
370
     0
100
AcDbPolyline
 90
       19
 70
   128
 43
0.0
 10
266.9321913325
 20
43.3259297242
 10
266.8239325186
 20
43.384239041
 10
266.3560363327
 20
43.553702498
 10
265.8406647178
 20
43.6180926561
 10
265.2874180721
 20
43.5762100486
 10
264.7066023337
 20
43.4288348693
 10
264.1090370009
 20
43.1787124388
 10
263.5058535852
 20
42.8305020648
 10
262.9082882524
 20
42.3906902477
 10
262.327472514
 20
41.8674698495
 10
261.7742258682
 20
41.2705874763
 10
261.2588542534
 20
40.6111619173
 10
260.7909580674
 20
39.9014770231
 10
260.3792533311
 20
39.1547528803
 10
260.0314093247
 20
38.384899547
 10
259.7539057238
 20
37.6062579341
 10
259.5519118955
 20
36.8333326616
 10
259.4291906026
 20
36.080521865
 10
259.3880279106
 20
35.3618489849
  0
LWPOLYLINE
  5
1E2
330
1F
100
AcDbEntity
  8
0
  6
Continuous
 62
     7
370
     0
100
AcDbPolyline
 90
       13
 70
   128
 43
0.0
 10
267.3991535357
 20
31.6955415458
 10
267.6584113677
 20
31.3503005796
 10
267.9927096952
 20
31.112544324
 10
268.3904316665
 20
30.9905347982
 10
268.8377564615
 20
30.9885118275
 10
269.3191395639
 20
31.1065457101
 10
269.8178529331
 20
31.340534774
 10
270.3165663023
 20
31.6823479098
 10
270.7979494047
 20
32.1201071269
 10
271.2452741997
 20
32.6386003125
 10
271.642996171
 20
33.2198098521
 10
271.9772944985
 20
33.8435387409
 10
272.2365523305
 20
34.4881124286
  0
LWPOLYLINE
  5
1E3
330
1F
100
AcDbEntity
  8
0
  6
Continuous
 62
     7
370
     0
100
AcDbPolyline
 90
       13
 70
   128
 43
0.0
 10
272.2364540897
 20
37.1914158696
 10
271.9771828383
 20
37.5365887998
 10
271.6428862739
 20
37.7742893987
 10
271.2451794371
 20
37.8962588257
 10
270.7978805404
 20
37.8982592872
 10
270.3165308589
 20
37.7802212776
 10
269.8178547525
 20
37.5462459946
 10
269.3191785828
 20
37.2044628438
 10
268.8378287139
 20
36.7667469852
 10
268.3905295121
 20
36.2483067338
 10
267.9928222629
 20
35.6671551508
 10
267.6585251934
 20
35.0434841854
 10
267.3992533617
 20
34.3989631106
  0
LWPOLYLINE
  5
1E4
330
1F
100
AcDbEntity
  8
0
  6
Continuous
 62
     7
370
     0
100
AcDbPolyline
 90
       25
 70
   128
 43
0.0
 10
248.8344592014
 20
39.2029862577
 10
249.0326660033
 20
40.2363276972
 10
249.3106122645
 20
41.287727413
 10
249.6654276097
 20
42.3463275083
 10
250.09344783
 20
43.4011957278
 10
250.590252723
 20
44.4414383551
 10
251.1507117415
 20
45.4563127141
 10
251.7690369761
 20
46.4353381086
 10
252.4388429284
 20
47.368404058
 10
253.1532124536
 20
48.2458747088
 10
253.9047681956
 20
49.0586883451
 10
254.6857487725
 20
49.7984509696
 10
255.4880889297
 20
50.457522989
 10
256.3035028306
 20
51.0290981092
 10
257.1235696246
 20
51.5072736241
 10
257.9398204104
 20
51.8871113733
 10
258.7438256949
 20
52.1646887392
 10
259.5272824454
 20
52.3371391564
 10
260.2820998358
 20
52.4026817141
 10
261.0004828008
 20
52.3606395487
 10
261.6750125371
 20
52.2114468334
 10
262.2987231172
 20
51.9566442942
 10
262.8651734275
 20
51.5988632994
 10
263.3685136863
 20
51.1417986843
 10
263.6097188215
 20
50.8585315607
  0
ARC
  5
1E5
330
1F
100
AcDbEntity
  8
0
  6
Continuous
 62
     7
370
     0
100
AcDbCircle
 10
253.3017473337
 20
36.0231753037
 30
0.0
 40
4.48516148218782
100
AcDbArc
 50
185.1167699734
 51
259.6783343013
  0
LWPOLYLINE
  5
1E6
330
1F
100
AcDbEntity
  8
0
  6
Continuous
 62
     7
370
     0
100
AcDbPolyline
 90
       16
 70
   128
 43
0.0
 10
256.6254584982
 20
29.1939663894
 10
255.7910936844
 20
28.7601388055
 10
254.8477287481
 20
28.3588083867
 10
253.9185929144
 20
28.0591855802
 10
253.0106213908
 20
27.8635068151
 10
252.1305914113
 20
27.7732326667
 10
251.2850716499
 20
27.7890369546
 10
250.4803731915
 20
27.9108017131
 10
249.7225024244
 20
28.1376180723
 10
249.0171162084
 20
28.467793041
 10
248.3694796506
 20
28.8988621446
 10
247.7844268063
 20
29.4276078192
 10
247.2663245965
 20
30.050083429
 10
246.8190402129
 20
30.7616427237
 10
246.4459122523
 20
31.5569745194
 10
246.1497257971
 20
32.4301423417
  0
LWPOLYLINE
  5
1E7
330
1F
100
AcDbEntity
  8
0
  6
Continuous
 62
     7
370
     0
100
AcDbPolyline
 90
       24
 70
   128
 43
0.0
 10
254.1819542341
 20
34.3974669028
 10
254.2236011493
 20
35.3544873238
 10
254.348100427
 20
36.3494475949
 10
254.5541323441
 20
37.3718008899
 10
254.839512911
 20
38.4107100093
 10
255.2012170226
 20
39.4551622582
 10
255.6354105253
 20
40.4940861828
 10
256.1374908601
 20
41.5164689312
 10
256.7021358505
 20
42.5114729917
 10
257.3233601191
 20
43.4685510739
 10
257.9945785341
 20
44.377557912
 10
258.7086760133
 20
45.2288578073
 10
259.4580829459
 20
46.0134267693
 10
260.2348554319
 20
46.7229481717
 10
261.0307594896
 20
47.3499009111
 10
261.8373583382
 20
47.8876391326
 10
262.6461018292
 20
48.3304626772
 10
263.4484170803
 20
48.6736775052
 10
264.2357993503
 20
48.913645454
 10
264.9999021912
 20
49.0478228037
 10
265.732625923
 20
49.074787241
 10
266.4262034916
 20
48.9942529361
 10
267.0732828024
 20
48.8070735728
 10
267.5954767983
 20
48.5576024573
  0
LWPOLYLINE
  5
1E8
330
1F
100
AcDbEntity
  8
0
  6
Continuous
 62
     7
370
     0
100
AcDbPolyline
 90
        9
 70
   128
 43
0.0
 10
256.4296986531
 20
29.3415606457
 10
256.1374908601
 20
29.5362794039
 10
255.6354105253
 20
29.9789725368
 10
255.2012170226
 20
30.5165873138
 10
254.839512911
 20
31.1434248846
 10
254.5541323441
 20
31.852840615
 10
254.348100427
 20
32.6373145219
 10
254.2236011493
 20
33.4885309866
 10
254.1819542341
 20
34.3974669028
  0
LWPOLYLINE
  5
1E9
330
1F
100
AcDbEntity
  8
0
  6
Continuous
 62
     7
370
     0
100
AcDbPolyline
 90
       18
 70
   128
 43
0.0
 10
254.8890610153
 20
34.3974669028
 10
254.9301696476
 20
33.5154028978
 10
255.0530451499
 20
32.6904659873
 10
255.2563412724
 20
31.9316943526
 10
255.5378306603
 20
31.2474012546
 10
255.8944292568
 20
30.6450839517
 10
256.3222300932
 20
30.1313415583
 10
256.816546094
 20
29.7118027435
 10
257.3719614297
 20
29.3910640625
 10
257.9823908535
 20
29.1726395952
 10
258.641146373
 20
29.0589224459
 10
259.3410105248
 20
29.0511585235
 10
260.0743154509
 20
29.1494328912
 10
260.833026909
 20
29.3526688343
 10
261.6088322977
 20
29.6586396574
 10
262.3932317306
 20
30.0639930801
 10
263.1776311636
 20
30.5642879654
 10
263.5572679265
 20
30.840865772
  0
LWPOLYLINE
  5
1EA
330
1F
100
AcDbEntity
  8
0
  6
Continuous
 62
     7
370
     0
100
AcDbPolyline
 90
       34
 70
   128
 43
0.0
 10
269.8067600055
 20
41.6664765518
 10
269.8562938136
 20
42.1320709679
 10
269.897402446
 20
43.0615979895
 10
269.8562938136
 20
43.9436619946
 10
269.7334183113
 20
44.7685989051
 10
269.5301221889
 20
45.5273705398
 10
269.248632801
 20
46.2116636378
 10
268.8920342045
 20
46.8139809407
 10
268.464233368
 20
47.3277233341
 10
267.9699173672
 20
47.7472621489
 10
267.4145020316
 20
48.0680008299
 10
266.8040726078
 20
48.2864252972
 10
266.1453170883
 20
48.4001424464
 10
265.4454529365
 20
48.4079063688
 10
264.7121480104
 20
48.3096320012
 10
263.9534365523
 20
48.1063960581
 10
263.1776311636
 20
47.800425235
 10
262.3932317306
 20
47.3950718123
 10
261.6088322977
 20
46.894776927
 10
260.833026909
 20
46.3050219144
 10
260.0743154509
 20
45.6322682539
 10
259.3410105248
 20
44.8838867755
 10
258.641146373
 20
44.0680769031
 10
257.9823908535
 20
43.1937768205
 10
257.3719614297
 20
42.2705655423
 10
256.816546094
 20
41.3085579645
 10
256.3222300932
 20
40.3182940434
 10
255.8944292568
 20
39.3106233178
 10
255.5378306603
 20
38.2965860391
 10
255.2563412724
 20
37.2872922117
 10
255.0530451499
 20
36.2937998702
 10
254.9301696476
 20
35.3269939245
 10
254.8890610153
 20
34.3974669028
 10
254.8890610153
 20
34.3974669028
  0
LWPOLYLINE
  5
1EB
330
1F
100
AcDbEntity
  8
0
  6
Continuous
 62
     7
370
     0
100
AcDbPolyline
 90
       22
 70
   128
 43
0.0
 10
249.1084630791
 20
37.326331004
 10
249.1501099942
 20
38.283351425
 10
249.274609272
 20
39.2783116961
 10
249.4806411891
 20
40.300664991
 10
249.766021756
 20
41.3395741105
 10
250.1277258675
 20
42.3840263594
 10
250.5619193703
 20
43.422950284
 10
251.0639997051
 20
44.4453330323
 10
251.6286446955
 20
45.4403370929
 10
252.249868964
 20
46.3974151751
 10
252.921087379
 20
47.3064220131
 10
253.6351848583
 20
48.1577219085
 10
254.3845917909
 20
48.9422908704
 10
255.1613642768
 20
49.6518122728
 10
255.9572683346
 20
50.2787650123
 10
256.7638671832
 20
50.8165032337
 10
257.5726106742
 20
51.2593267783
 10
258.3749259253
 20
51.6025416063
 10
259.1623081953
 20
51.8425095552
 10
259.9264110362
 20
51.9766869049
 10
260.6591347679
 20
52.0036513422
 10
260.834887724
 20
51.9937040872
  0
ARC
  5
1EC
330
1F
100
AcDbEntity
  8
0
  6
Continuous
 62
     7
370
     0
100
AcDbCircle
 10
255.7879447826
 20
37.0076809112
 30
0.0
 40
6.687078114470846
100
AcDbArc
 50
177.2687290886
 51
212.3590232026
  0
LWPOLYLINE
  5
1ED
330
1F
100
AcDbEntity
  8
0
  6
Continuous
 62
     7
370
     0
100
AcDbPolyline
 90
       27
 70
   128
 43
0.0
 10
256.5596007859
 20
35.3618489849
 10
256.6021345235
 20
36.1983939188
 10
256.7291154989
 20
37.071848552
 10
256.9386920434
 20
37.9694759492
 10
257.2278080591
 20
38.8781866816
 10
257.5922475835
 20
39.7847297005
 10
258.0266962676
 20
40.6758855673
 10
258.5248188713
 20
41.5386592229
 10
259.0793516455
 20
42.3604694844
 10
259.6822082534
 20
43.1293325078
 10
260.3245976884
 20
43.8340365387
 10
260.9971524659
 20
44.4643054057
 10
261.6900652227
 20
45.0109483693
 10
262.3932317306
 20
45.4659941442
 10
263.0963982386
 20
45.8228071384
 10
263.7893109954
 20
46.076184215
 10
264.4618657729
 20
46.2224305655
 10
265.1042552078
 20
46.2594135889
 10
265.7071118158
 20
46.1865939894
 10
266.2616445899
 20
46.0050336408
 10
266.7597671937
 20
45.7173801017
 10
267.1942158778
 20
45.3278280086
 10
267.5586554021
 20
44.8420579081
 10
267.8477714178
 20
44.2671534222
 10
268.0573479624
 20
43.6114979528
 10
268.1843289377
 20
42.8846524331
 10
268.210778975
 20
42.5878167894
  0
LWPOLYLINE
  5
1EE
330
1F
100
AcDbEntity
  8
0
  6
Continuous
 62
     7
370
     0
100
AcDbPolyline
 90
       14
 70
   128
 43
0.0
 10
261.961286896
 20
31.7622060097
 10
261.6900652227
 20
31.6362577539
 10
260.9971524659
 20
31.3828806774
 10
260.3245976884
 20
31.2366343269
 10
259.6822082534
 20
31.1996513035
 10
259.0793516455
 20
31.272470903
 10
258.5248188713
 20
31.4540312516
 10
258.0266962676
 20
31.7416847906
 10
257.5922475835
 20
32.1312368838
 10
257.2278080591
 20
32.6170069842
 10
256.9386920434
 20
33.1919114702
 10
256.7291154989
 20
33.8475669396
 10
256.6021345235
 20
34.5744124593
 10
256.5596007859
 20
35.3618489849
  0
LINE
  5
1EF
330
1F
100
AcDbEntity
  8
0
  6
Continuous
 62
     7
370
     0
100
AcDbLine
 10
266.4679345572
 20
32.0363741889
 30
0.0
 11
266.5386452353
 21
31.7724839549
 31
0.0
  0
LWPOLYLINE
  5
1F0
330
1F
100
AcDbEntity
  8
0
  6
Continuous
 62
     7
370
     0
100
AcDbPolyline
 90
        3
 70
   128
 43
0.0
 10
271.8058581633
 20
37.1446701144
 10
271.563603502
 20
37.4442331622
 10
271.3555786809
 20
37.5970220942
  0
LWPOLYLINE
  5
1F1
330
1F
100
AcDbEntity
  8
0
  6
Continuous
 62
     7
370
     0
100
AcDbPolyline
 90
       21
 70
   128
 43
0.0
 10
240.6020715476
 20
42.6224426778
 10
240.9289941071
 20
43.8928235508
 10
241.3373439652
 20
45.1726542779
 10
241.8239314515
 20
46.4519379451
 10
242.3849557717
 20
47.7206819119
 10
243.0160346963
 20
48.9689758642
 10
243.7122387911
 20
50.1870692258
 10
244.4681299208
 20
51.3654473209
 10
245.2778037277
 20
52.4949056945
 10
246.134935751
 20
53.5666220094
 10
247.0328308277
 20
54.5722249589
 10
247.9644753901
 20
55.5038596556
 10
248.9225922488
 20
56.3542489873
 10
249.8996974362
 20
57.1167504592
 10
250.8881586644
 20
57.7854080793
 10
251.8802549423
 20
58.3549988815
 10
252.8682368849
 20
58.8210737225
 10
253.8443872447
 20
59.1799920348
 10
254.8010811922
 20
59.4289502638
 10
255.7308458743
 20
59.5660037663
 10
256.5838857765
 20
59.5915270668
  0
LWPOLYLINE
  5
1F2
330
1F
100
AcDbEntity
  8
0
  6
Continuous
 62
     7
370
     0
100
AcDbPolyline
 90
       12
 70
   128
 43
0.0
 10
267.9034844857
 20
31.5086457869
 10
267.9551377881
 20
31.4835316332
 10
268.3172729996
 20
31.3819951807
 10
268.7222130639
 20
31.3862328792
 10
269.1565050505
 20
31.4961039436
 10
269.6057208987
 20
31.7079582343
 10
270.054936747
 20
32.0147575221
 10
270.4892287336
 20
32.4063093124
 10
270.8941687978
 20
32.8696054603
 10
271.2563040094
 20
33.3892543283
 10
271.563603502
 20
33.9479921268
 10
271.8058581633
 20
34.5272564529
  0
LWPOLYLINE
  5
1F3
330
1F
100
AcDbEntity
  8
0
  6
Continuous
 62
     7
370
     0
100
AcDbPolyline
 90
       19
 70
   128
 43
0.0
 10
244.0167122827
 20
41.6698289369
 10
244.3195865235
 20
42.8330915352
 10
244.6991257255
 20
44.0046676251
 10
245.1521778476
 20
45.174827366
 10
245.6749803301
 20
46.3338526797
 10
246.2631913423
 20
47.4721179584
 10
246.9119258413
 20
48.5801700048
 10
247.6157961416
 20
49.6488065399
 10
248.3689566597
 20
50.6691526273
 10
249.1651524608
 20
51.6327343785
 10
249.9977712058
 20
52.5315493283
 10
250.8598980662
 20
53.358132894
 10
251.7443731508
 20
54.1056203687
 10
252.6438509686
 20
54.7678039319
 10
253.5508614319
 20
55.3391842048
 10
254.4578718952
 20
55.8150159224
 10
255.357349713
 20
56.1913473421
 10
256.2418247976
 20
56.4650530634
 10
256.5334501573
 20
56.5333677173
  0
LINE
  5
1F4
330
1F
100
AcDbEntity
  8
0
  6
Continuous
 62
     7
370
     0
100
AcDbLine
 10
266.2345159988
 20
32.1711238545
 30
0.0
 11
266.4679345572
 21
32.0363741889
 31
0.0
  0
LINE
  5
1F5
330
1F
100
AcDbEntity
  8
0
  6
Continuous
 62
     7
370
     0
100
AcDbLine
 10
273.0970606309
 20
35.5585765735
 30
0.0
 11
272.8849285965
 21
35.7408259963
 31
0.0
  0
LINE
  5
1F6
330
1F
100
AcDbEntity
  8
0
  6
Continuous
 62
     7
370
     0
100
AcDbLine
 10
248.8344592014
 20
40.4261099617
 30
0.0
 11
248.5515705153
 21
40.5894181241
 31
0.0
  0
LINE
  5
1F7
330
1F
100
AcDbEntity
  8
0
  6
Continuous
 62
     7
370
     0
100
AcDbLine
 10
243.4581952288
 20
37.5036898983
 30
0.0
 11
248.8344592014
 21
34.40003877
 31
0.0
  0
LINE
  5
1F8
330
1F
100
AcDbEntity
  8
0
  6
Continuous
 62
     7
370
     0
100
AcDbLine
 10
243.2217991257
 20
37.3671769693
 30
0.0
 11
243.4581952288
 21
37.5036898983
 31
0.0
  0
LINE
  5
1F9
330
1F
100
AcDbEntity
  8
0
  6
Continuous
 62
     7
370
     0
100
AcDbLine
 10
243.0715389347
 20
40.8113731313
 30
0.0
 11
243.0999566026
 21
41.5987838131
 31
0.0
  0
LWPOLYLINE
  5
1FA
330
1F
100
AcDbEntity
  8
0
  6
Continuous
 62
     7
370
     0
100
AcDbPolyline
 90
        3
 70
   128
 43
0.0
 10
243.1907846712
 20
39.3054182111
 10
243.1131858499
 20
39.9024372151
 10
243.0715389347
 20
40.8113731313
  0
LINE
  5
1FB
330
1F
100
AcDbEntity
  8
0
  6
Continuous
 62
     7
370
     0
100
AcDbLine
 10
270.5868315576
 20
37.067489178
 30
0.0
 11
272.8849285965
 21
35.7408259963
 31
0.0
  0
LWPOLYLINE
  5
1FC
330
1F
100
AcDbEntity
  8
0
  6
Continuous
 62
     7
370
     0
100
AcDbPolyline
 90
       17
 70
   128
 43
0.0
 10
221.8084949111
 20
57.098233958
 10
221.8511488217
 20
57.8272391646
 10
221.9782803437
 20
58.591302271
 10
222.1874150066
 20
59.375551658
 10
222.4744822422
 20
60.1647228033
 10
222.8338946131
 20
60.9434553883
 10
223.2586565664
 20
61.696592269
 10
223.7405005939
 20
62.4094744926
 10
224.2700481496
 20
63.0682266177
 10
224.8369921928
 20
63.6600267833
 10
225.4302978025
 20
64.1733562724
 10
226.0384169599
 20
64.5982237105
 10
226.6495133173
 20
64.9263595361
 10
227.2516925792
 20
65.1513769586
 10
227.8332340114
 20
65.2688962699
 10
228.3828185712
 20
65.2766300903
 10
228.879491204
 20
65.1777325795
  0
ARC
  5
1FD
330
1F
100
AcDbEntity
  8
0
  6
Continuous
 62
     7
370
     0
100
AcDbCircle
 10
225.2146434549
 20
56.8696683333
 30
0.0
 40
3.4138087449702
100
AcDbArc
 50
176.1609889079
 51
223.781113749
  0
ARC
  5
1FE
330
1F
100
AcDbEntity
  8
0
  6
Continuous
 62
     7
370
     0
100
AcDbCircle
 10
253.181468283
 20
34.360931683
 30
0.0
 40
7.707694531641511
100
AcDbArc
 50
196.4813780106
 51
211.3760062362
  0
LINE
  5
1FF
330
1F
100
AcDbEntity
  8
0
  6
Continuous
 62
     7
370
     0
100
AcDbLine
 10
248.5516164889
 20
33.9101408229
 30
0.0
 11
243.2925098038
 21
36.9461584887
 31
0.0
  0
LINE
  5
200
330
1F
100
AcDbEntity
  8
0
  6
Continuous
 62
     7
370
     0
100
AcDbLine
 10
244.8812469114
 20
34.2940012013
 30
0.0
 11
244.8016008098
 21
34.5374185936
 31
0.0
  0
LWPOLYLINE
  5
201
330
1F
100
AcDbEntity
  8
0
  6
Continuous
 62
     7
370
     0
100
AcDbPolyline
 90
        3
 70
   128
 43
0.0
 10
244.5429818674
 20
33.7181450262
 10
244.3195865235
 20
34.1769536525
 10
244.0167122827
 20
34.9905250957
  0
ARC
  5
202
330
1F
100
AcDbEntity
  8
0
  6
Continuous
 62
     7
370
     0
100
AcDbCircle
 10
247.9915272025
 20
37.3555146898
 30
0.0
 40
7.706038677545283
100
AcDbArc
 50
196.4802577377
 51
211.4081545131
  0
OLE2FRAME
  5
203
330
1F
100
AcDbEntity
  8
0
100
AcDbOle2Frame
 70
     2
  3
Paintbrush-Bild
 10
13.8511154363
 20
38.264191557
 30
0.0
 11
51.6290888628
 21
31.9806341108
 31
0.0
 71
     2
 72
     0
 73
     1
 90
    12928
310
80552BED0767C5B32B40DDAF6807D121434000000000000000006FFBDDFB85D0
310
4940DDAF6807D121434000000000000000006FFBDDFB85D04940416F4BD60AFB
310
3F4000000000000000002BED0767C5B32B40416F4BD60AFB3F40000000000000
310
0000000000000100000000010000010000000100000000000100000000320000
310
D0CF11E0A1B11AE1000000000000000000000000000000003E000300FEFF0900
310
0600000000000000000000000100000001000000000000000010000002000000
310
01000000FEFFFFFF0000000000000000FFFFFFFFFFFFFFFFFFFFFFFFFFFFFFFF
310
FFFFFFFFFFFFFFFFFFFFFFFFFFFFFFFFFFFFFFFFFFFFFFFFFFFFFFFFFFFFFFFF
310
FFFFFFFFFFFFFFFFFFFFFFFFFFFFFFFFFFFFFFFFFFFFFFFFFFFFFFFFFFFFFFFF
310
FFFFFFFFFFFFFFFFFFFFFFFFFFFFFFFFFFFFFFFFFFFFFFFFFFFFFFFFFFFFFFFF
310
FFFFFFFFFFFFFFFFFFFFFFFFFFFFFFFFFFFFFFFFFFFFFFFFFFFFFFFFFFFFFFFF
310
FFFFFFFFFFFFFFFFFFFFFFFFFFFFFFFFFFFFFFFFFFFFFFFFFFFFFFFFFFFFFFFF
310
FFFFFFFFFFFFFFFFFFFFFFFFFFFFFFFFFFFFFFFFFFFFFFFFFFFFFFFFFFFFFFFF
310
FFFFFFFFFFFFFFFFFFFFFFFFFFFFFFFFFFFFFFFFFFFFFFFFFFFFFFFFFFFFFFFF
310
FFFFFFFFFFFFFFFFFFFFFFFFFFFFFFFFFFFFFFFFFFFFFFFFFFFFFFFFFFFFFFFF
310
FFFFFFFFFFFFFFFFFFFFFFFFFFFFFFFFFFFFFFFFFFFFFFFFFFFFFFFFFFFFFFFF
310
FFFFFFFFFFFFFFFFFFFFFFFFFFFFFFFFFFFFFFFFFFFFFFFFFFFFFFFFFFFFFFFF
310
FFFFFFFFFFFFFFFFFFFFFFFFFFFFFFFFFFFFFFFFFFFFFFFFFFFFFFFFFFFFFFFF
310
FFFFFFFFFFFFFFFFFFFFFFFFFFFFFFFFFFFFFFFFFFFFFFFFFFFFFFFFFFFFFFFF
310
FFFFFFFFFFFFFFFFFFFFFFFFFFFFFFFFFFFFFFFFFFFFFFFFFFFFFFFFFFFFFFFF
310
FDFFFFFFFEFFFFFFFEFFFFFFFEFFFFFF05000000060000000700000008000000
310
090000000A0000000B0000000C0000000D0000000E0000000F00000010000000
310
11000000120000001300000014000000150000001600000017000000FEFFFFFF
310
FFFFFFFFFFFFFFFFFFFFFFFFFFFFFFFFFFFFFFFFFFFFFFFFFFFFFFFFFFFFFFFF
310
FFFFFFFFFFFFFFFFFFFFFFFFFFFFFFFFFFFFFFFFFFFFFFFFFFFFFFFFFFFFFFFF
310
FFFFFFFFFFFFFFFFFFFFFFFFFFFFFFFFFFFFFFFFFFFFFFFFFFFFFFFFFFFFFFFF
310
FFFFFFFFFFFFFFFFFFFFFFFFFFFFFFFFFFFFFFFFFFFFFFFFFFFFFFFFFFFFFFFF
310
FFFFFFFFFFFFFFFFFFFFFFFFFFFFFFFFFFFFFFFFFFFFFFFFFFFFFFFFFFFFFFFF
310
FFFFFFFFFFFFFFFFFFFFFFFFFFFFFFFFFFFFFFFFFFFFFFFFFFFFFFFFFFFFFFFF
310
FFFFFFFFFFFFFFFFFFFFFFFFFFFFFFFFFFFFFFFFFFFFFFFFFFFFFFFFFFFFFFFF
310
FFFFFFFFFFFFFFFFFFFFFFFFFFFFFFFFFFFFFFFFFFFFFFFFFFFFFFFFFFFFFFFF
310
FFFFFFFFFFFFFFFFFFFFFFFFFFFFFFFFFFFFFFFFFFFFFFFFFFFFFFFFFFFFFFFF
310
FFFFFFFFFFFFFFFFFFFFFFFFFFFFFFFFFFFFFFFFFFFFFFFFFFFFFFFFFFFFFFFF
310
FFFFFFFFFFFFFFFFFFFFFFFFFFFFFFFFFFFFFFFFFFFFFFFFFFFFFFFFFFFFFFFF
310
FFFFFFFFFFFFFFFFFFFFFFFFFFFFFFFFFFFFFFFFFFFFFFFFFFFFFFFFFFFFFFFF
310
FFFFFFFFFFFFFFFFFFFFFFFFFFFFFFFFFFFFFFFFFFFFFFFFFFFFFFFFFFFFFFFF
310
52006F006F007400200045006E00740072007900000000000000000000000000
310
0000000000000000000000000000000000000000000000000000000000000000
310
16000500FFFFFFFFFFFFFFFF020000000A00030000000000C000000000000046
310
000000000000000000000000C0D2C229F11AD20103000000C000000000000000
310
01004F006C006500000000000000000000000000000000000000000000000000
310
0000000000000000000000000000000000000000000000000000000000000000
310
0A000200FFFFFFFFFFFFFFFFFFFFFFFF00000000000000000000000000000000
310
0000000000000000000000000000000000000000000000001400000000000000
310
010043006F006D0070004F0062006A0000000000000000000000000000000000
310
0000000000000000000000000000000000000000000000000000000000000000
310
120002010100000003000000FFFFFFFF00000000000000000000000000000000
310
0000000000000000000000000000000000000000010000004D00000000000000
310
01004F006C006500310030004E00610074006900760065000000000000000000
310
0000000000000000000000000000000000000000000000000000000000000000
310
1A000200FFFFFFFFFFFFFFFFFFFFFFFF00000000000000000000000000000000
310
0000000000000000000000000000000000000000040000002426000000000000
310
FEFFFFFF02000000FEFFFFFFFFFFFFFFFFFFFFFFFFFFFFFFFFFFFFFFFFFFFFFF
310
FFFFFFFFFFFFFFFFFFFFFFFFFFFFFFFFFFFFFFFFFFFFFFFFFFFFFFFFFFFFFFFF
310
FFFFFFFFFFFFFFFFFFFFFFFFFFFFFFFFFFFFFFFFFFFFFFFFFFFFFFFFFFFFFFFF
310
FFFFFFFFFFFFFFFFFFFFFFFFFFFFFFFFFFFFFFFFFFFFFFFFFFFFFFFFFFFFFFFF
310
FFFFFFFFFFFFFFFFFFFFFFFFFFFFFFFFFFFFFFFFFFFFFFFFFFFFFFFFFFFFFFFF
310
FFFFFFFFFFFFFFFFFFFFFFFFFFFFFFFFFFFFFFFFFFFFFFFFFFFFFFFFFFFFFFFF
310
FFFFFFFFFFFFFFFFFFFFFFFFFFFFFFFFFFFFFFFFFFFFFFFFFFFFFFFFFFFFFFFF
310
FFFFFFFFFFFFFFFFFFFFFFFFFFFFFFFFFFFFFFFFFFFFFFFFFFFFFFFFFFFFFFFF
310
FFFFFFFFFFFFFFFFFFFFFFFFFFFFFFFFFFFFFFFFFFFFFFFFFFFFFFFFFFFFFFFF
310
FFFFFFFFFFFFFFFFFFFFFFFFFFFFFFFFFFFFFFFFFFFFFFFFFFFFFFFFFFFFFFFF
310
FFFFFFFFFFFFFFFFFFFFFFFFFFFFFFFFFFFFFFFFFFFFFFFFFFFFFFFFFFFFFFFF
310
FFFFFFFFFFFFFFFFFFFFFFFFFFFFFFFFFFFFFFFFFFFFFFFFFFFFFFFFFFFFFFFF
310
FFFFFFFFFFFFFFFFFFFFFFFFFFFFFFFFFFFFFFFFFFFFFFFFFFFFFFFFFFFFFFFF
310
FFFFFFFFFFFFFFFFFFFFFFFFFFFFFFFFFFFFFFFFFFFFFFFFFFFFFFFFFFFFFFFF
310
FFFFFFFFFFFFFFFFFFFFFFFFFFFFFFFFFFFFFFFFFFFFFFFFFFFFFFFFFFFFFFFF
310
FFFFFFFFFFFFFFFFFFFFFFFFFFFFFFFFFFFFFFFFFFFFFFFFFFFFFFFFFFFFFFFF
310
0100000200000000000000000000000000000000000000000000000000000000
310
0000000000000000000000000000000000000000000000000000000000000000
310
0100FEFF030A0000FFFFFFFF0A00030000000000C00000000000004607000000
310
5042727573680007000000504272757368000700000050427275736800F439B2
310
7100000000000000000000000000000000000000000000000000000000000000
310
0000000000000000000000000000000000000000000000000000000000000000
310
0000000000000000000000000000000000000000000000000000000000000000
310
0000000000000000000000000000000000000000000000000000000000000000
310
0000000000000000000000000000000000000000000000000000000000000000
310
0000000000000000000000000000000000000000000000000000000000000000
310
0000000000000000000000000000000000000000000000000000000000000000
310
0000000000000000000000000000000000000000000000000000000000000000
310
0000000000000000000000000000000000000000000000000000000000000000
310
0000000000000000000000000000000000000000000000000000000000000000
310
0000000000000000000000000000000000000000000000000000000000000000
310
0000000000000000000000000000000000000000000000000000000000000000
310
20260000424D0E260000000000003E00000028000000B40200006E0000000100
310
01000000000000000000130B0000130B00000200000002000000000000FFFFFF
310
FFFFFFFFFFFFFFFFFFFFFFFFFFFFFFFFFFFFFFFFFFFFFFFFFFFFFFFFFFFFFFFF
310
FFFFFFFFFFFFFFFFFFFFFFFFFFFFFFFFFFFFFFFFFFFFFFFFFFFFFFFFFFFFFFFF
310
FFFFFFFFFFFFFFFFFFFFFFFFFFFFFFFFFFFFFFFFFFFFFFFFF000FFFFFFFFFFFF
310
FFFFFFFFFFFFFFFFFFFFFFFFFFFFFFFFFFFFFFFFFFFFFFFFFFFFFFFFFFFFFFFF
310
FFFFFFFFFFFFFFFFFFFFFFFFFFFFFFFFFFFFFFFFFFFFFFFFFFFFFFFFFFFFFFFF
310
FFFFFFFFFFFFFFFFFFFFFFFFFFFFFFFFF000FFFFFFFFFFFFFFFFFFFFFFFFFFFF
310
FFFFFFFFFFFFFFFFFFFFFFFFFFFFFFFFFFFFFFFFFFFFFFFFFFFFFFFFFFFFFFFF
310
FFFFFFFFFFFFFFFFFFFFFFFFFFFFFFFFFFFFFFFFFFFFFFFFFFFFFFFFFFFFFFFF
310
FFFFFFFFFFFFFFFFF000FFFFFFFFFFFFFFFFFFFFFFFFFFFFFFFFFFFFFFFFFFFF
310
FFFFFFFFFFFFFFFFFFFFFFFFFFFFFFFFFFFFFFFFFFFFFFFFFFFFFFFFFFFFFFFF
310
FFFFFFFFFFFFFFFFFFFFFFFFFFFFFFFFFFFFFFFFFFFFFFFFFFFFFFFFFFFFFFFF
310
F000FFFFFFFFFFFFFFFFFFFFFFFFFFFFFFFFFFFFFFFFFFFFFFFFFFFFFFFFFFFF
310
FFFFFFFFFFFFFFFFFFFFFFFFFFFFFFFFFFFFFFFFFFFFFFFFFFFFFFFFFFFFFFFF
310
FFFFFFFFFFFFFFFFFFFFFFFFFFFFFFFFFFFFFFFFFFFFFFFFF000FFFFFFFFFFFF
310
FFFFFFFFFFFFFFFFFFFFFFFFFFFFFFFFFFFFFFFFFFFFFFFFFFFFFFFFFFFFFFFF
310
FFFFFFFFFFFFFFFFFFFFFFFFFFFFFFFFFFFFFFFFFFFFFFFFFFFFFFFFFFFFFFFF
310
FFFFFFFFFFFFFFFFFFFFFFFFFFFFFFFFF000FFFFFFFFFFFFFFFFFFFFFFFFFFFF
310
FFFFFFFFFFFFFFFFFFFFFFFFFFFFFFFFFFFFFFFFFFFFFFFFFFFFFFFFFFFFFFFF
310
FFFFFFFFFFFFFFFFFFFFFFFFFFFFFFFFFFFFFFFFFFFFFFFFFFFFFFFFFFFFFFFF
310
FFFFFFFFFFFFFFFFF000FFFFFFFFFFFFFFFFFFFFFFFFFFFFFFFFFFFFFFFFFFFF
310
FFFFFFFFFFFFFFFFFFFFFFFFFFFFFFFFFFFFFFFFFFFFFFFFFFFFFFFFFFFFFFFF
310
FFFFFFFFFFFFFFFFFFFFFFFFFFFFFFFFFFFFFFFFFFFFFFFFFFFFFFFFFFFFFFFF
310
F000FFFFFFFFFFFFFFFFFFFFFFFFFFFFFFFFFFFFFFFFFFFFFFFFFFFFFFFFFFFF
310
FFFFFFFFFFFFFFFFFFFFFFFFFFFFFFFFFFFFFFFFFFFFFFFFFFFFFFFFFFFFFFFF
310
FFFFFFFFFFFFFFFFFFFFFFFFFFFFFFFFFFFFFFFFFFFFFFFFF000FFFFFFFFFFFF
310
FFFFFFFFFFFFFFFFFFFFFFFFFFFFFFFFFFFFFFFFFFFFFFFFFFFFFFFFFFFFFFFF
310
FFFFFFFFFFFFFFFFFFFFFFFFFFFFFFFFFFFFFFFFFFFFFFFFFFFFFFFFFFFFFFFF
310
FFFFFFFFFFFFFFFFFFFFFFFFFFFFFFFFF000FFFFFFFFFFFFFFFFFFFFFFFFFFFF
310
FFFFFFFFFFFFFFFFFFFFFFFFFFFFFFFFFFFFFFFFFFFFFFFFFFFFFFFFFFFFFFFF
310
FFFFFFFFFFFFFFFFFFFFFFFFFFFFFFFFFFFFFFFFFFFFFFFFFFFFFFFFFFFFFFFF
310
FFFFFFFFFFFFFFFFF000FFFFFFFFFFFFFFFFFFFFFFFFFFFFFFFFFFFFFFFFFFFF
310
FFFFFFFFFFFFFFFFFFFFFFFFFFFFFFFFFFFFFFFFFFFFFFFFFFFFFFFFFFFFFFFF
310
FFFFFFFFFFFFFFFFFFFFFFFFFFFFFFFFFFFFFFFFFFFFFFFFFFFFFFFFFFFFFFFF
310
F000FFFFFFFFFFFFFFFFFFFFFFFFFFFFFFFFFFFFFFFFFFFFFFFFFFFFFFFFFFFF
310
FFFFFFFFFFFFFFFFFFFFFFFFFFFFFFFFFFFFFFFFFFFFFFFFFFFFFFFFFFFFFFFF
310
FFFFFFFFFFFFFFFFFFFFFFFFFFFFFFFFFFFFFFFFFFFFFFFFF000FFFFFFFFFFFF
310
FFFFFFFFFFFFFFFFFFFFFFFFFFFFFFFFFFFFFFFFFFFFFFFFFFFFFFFFFFFFFFFF
310
FFFFFFFFFFFFFFFFFFFFFFFFFFFFFFFFFFFFFFFFFFFFFFFFFFFFFFFFFFFFFFFF
310
FFFFFFFFFFFFFFFFFFFFFFFFFFFFFFFFF000FFFFFFFFFFFFFFFFFFFFFFFFFFFF
310
FFFFFFFFFFFFFFFFFFFFFFFFFFFFFFFFFFFFFFFFFFFFFFFFFFFFFFFFFFFFFFFF
310
FFFFFFFFFFFFFFFFFFFFFFFFFFFFFFFFFFFFFFFFFFFFFFFFFFFFFFFFFFFFFFFF
310
FFFFFFFFFFFFFFFFF000FFFFFFFFFFFFFFFFFFFFFFFFFFFFFFFFFFFFFFFFFFFF
310
FFFFFFFFFFFFFFFFFFFFFFFFFFFFFFFFFFFFFFFFFFFFFFFFFFFFFFFFFFFFFFFF
310
FFFFFFFFFFFFFFFFFFFFFFFFFFFFFFFFFFFFFFFFFFFFFFFFFFFFFFFFFFFFFFFF
310
F000FFFFFFFFFFFFFFFFFFFFFFFFFFFFFFFFFFFFFFFFFFFFFFFFFFFFFFFFFFFF
310
FFFFFFFFFFFFFFFFFFFFFFFFFFFFFFFFFFFFFFFFFFFFFFFFFFFFFFFFFFFFFFFF
310
FFFFFFFFFFFFFFFFFFFFFFFFFFFFFFFFFFFFFFFFFFFFFFFFF000FFFFFFFFFFFF
310
FFFFFFFFFFFFFFFFFFFFFFFFFFFFFFFFFFFFFFFFFFFFFFFFFFFFFFFFFFFFFFFF
310
FFFFFFFFFFFFFFFFFFFFFFFFFFFFFFFFFFFFFFFFFFFFFFFFFFFFFFFFFFFFFFFF
310
FFFFFFFFFFFFFFFFFFFFFFFFFFFFFFFFF000FFFFFFFFFFFFFFFFFFFFFFFFFFFF
310
FFFFFFFFFFFFFFFFFFFFFFFFFFFFFFFFFFFFFFFFFFFFFFFFFFFFFFFFFFFFFFFF
310
FFFFFFFFFFFFFFFFFFFFFFFFFFFFFFFFFFFFFFFFFFFFFFFFFFFFFFFFFFFFFFFF
310
FFFFFFFFFFFFFFFFF000FFFFF80003FFFFFFFFFFFFFFFFFFFFFFFFFFFFFFFFFF
310
FFFFF00007FFFFFFFFFF00007FFFFFF800000000000000007FFFFFFFFFFFFFFF
310
FFFFFFFC001FFFFFFFFFFFFFFC001FFFFFFFFFFFFFFFFFFFFFFFFFFE0007FFFF
310
F000FFFF8000007FFFFFFFF8000FFFFFC0007FFFFF80007FFFFF0000007FFFFF
310
FFF8000007FFFFF800000000000000007FFFFFF0001FFFFFFFFFFFC00001FFFF
310
FFFFFFFFC00001FFFFFFFF000000000003FFFFE000007FFFF000FFFE0000000F
310
FFFFFFF0000FFFFF80007FFFFF80007FFFFC0000001FFFFFFFC0000001FFFFF8
310
00000000000000007FFFFFF0001FFFFFFFFFFE0000003FFFFFFFFFFE0000003F
310
FFFFFF000000000003FFFF0000000FFFF000FFF800000003FFFFFFF00007FFFF
310
80007FFFFF80007FFFF000000007FFFFFF000000003FFFF80000000000000000
310
7FFFFFF0001FFFFFFFFFF80000000FFFFFFFFFF80000000FFFFFFF0000000000
310
03FFFC00000003FFF000FFE000000000FFFFFFF00007FFFF80003FFFFF80007F
310
FFC000000001FFFFFC000000001FFFF800000000000000007FFFFFF0001FFFFF
310
FFFFE000000003FFFFFFFFE000000003FFFFFF000000000003FFF000000000FF
310
F000FF80000000007FFFFFF00007FFFF80003FFFFF80007FFF8000000000FFFF
310
F80000000007FFF800000000000000007FFFFFF0001FFFFFFFFFC000000001FF
310
FFFFFFC000000001FFFFFF000000000003FFC0000000007FF000FF0000000000
310
3FFFFFE00007FFFF00003FFFFF80007FFE00000000003FFFF00000000003FFF8
310
00000000000000007FFFFFF0001FFFFFFFFF8000000000FFFFFFFF8000000000
310
FFFFFF000000000003FF80000000003FF000FE00000000001FFFFFE00003FFFF
310
00003FFFFF80007FFC00000000001FFFE00000000001FFF8000001FFFE000000
310
7FFFFFF0001FFFFFFFFE00000000003FFFFFFE00000000003FFFFF0000000000
310
03FF00000000001FF000FC00000000000FFFFFE00003FFFF00001FFFFF80007F
310
F800000000001FFFC00000000000FFF8000001FFFE0000007FFFFFF0001FFFFF
310
FFFC00000000001FFFFFFC00000000001FFFFF000000000003FE00000000000F
310
F000F8000000000007FFFFE00003FFFF00001FFFFF80007FF800000000000FFF
310
800000000000FFF8000001FFFE0000007FFFFFF0001FFFFFFFF800000000000F
310
FFFFF800000000000FFFFF000000000003FC000000000007F000F80000000000
310
03FFFFC00003FFFE00001FFFFF80007FF0000000000007FF0000000000007FF8
310
000001FFFE0000007FFFFFF0001FFFFFFFF0000000000007FFFFF00000000000
310
07FFFF000000000003F8000000000003F000F0000000000003FFFFC00001FFFE
310
00001FFFFF80007FE0000000000007FE0000000000003FF8000001FFFE000000
310
7FFFFFF0001FFFFFFFF0000000000007FFFFF0000000000007FFFF0000000000
310
03F800001F800003F000E00001FFF00001FFFFC00001FFFE00000FFFFF80007F
310
E00001FFE00003FE00001FFF00003FF8000001FFFE0000007FFFFFF0001FFFFF
310
FFE000003E000003FFFFE000003E000003FFFF000000000003F00001FFF80001
310
F000E00007FFFC0001FFFFC00001FFFE00000FFFFF80007FC0000FFFFC0003FC
310
0000FFFFC0001FF8000001FFFE0000007FFFFFF0001FFFFFFFC00003FFE00001
310
FFFFC00003FFE00001FFFF0001FFFFFFFFF00007FFFE0001F000E0000FFFFF00
310
00FFFF800001FFFC00000FFFFF80007FC0001FFFFE0001FC0001FFFFE0001FF8
310
000001FFFE0000007FFFFFF0001FFFFFFF80000FFFF80000FFFF80000FFFF800
310
00FFFF0003FFFFFFFFE0000FFFFF8000F000C0003FFFFF8000FFFF800000FFFC
310
000007FFFF80007F80003FFFFF0001FC0003FFFFF0001FF8000001FFFE000000
310
7FFFFFF0001FFFFFFF80003FFFFE0000FFFF80003FFFFE0000FFFF0003FFFFFF
310
FFE0003FFFFF8000F000C0003FFFFF8000FFFF800000FFFC000007FFFF80007F
310
80007FFFFF8001F80007FFFFF8000FF8000001FFFE0000007FFFFFF0001FFFFF
310
FF00007FFFFF00007FFF00007FFFFF00007FFF0003FFFFFFFFE0003FFFFFC000
310
F000C0007FFFFFC000FFFF000000FFFC000007FFFF80007F8000FFFFFF8000F8
310
000FFFFFF8000FF8000001FFFE0000007FFFFFF0001FFFFFFF0000FFFFFF8000
310
7FFF0000FFFFFF80007FFF0003FFFFFFFFC0007FFFFFC00070008000FFFFFFC0
310
00FFFF000000FFF8000007FFFF80007F8000FFFFFF8000F8000FFFFFF8000FF8
310
000001FFFE0000007FFFFFF0001FFFFFFE0001FFFFFFC0003FFE0001FFFFFFC0
310
003FFF0003FFFFFFFFC0007FFFFFE00070008000FFFFFFC0007FFF0000007FF8
310
000003FFFF80007F0001FFFFFF8000F8000FFFFFF8000FF8000001FFFE000000
310
7FFFFFF0001FFFFFFE0001FFFFFFC0003FFE0001FFFFFFC0003FFF0003FFFFFF
310
FFC000FFFFFFE00070008000FFFFFFC0007FFF0000007FF8000003FFFF80007F
310
0001FFFFFF8000F8001FFFFFF8000FF8000001FFFE0000007FFFFFF0001FFFFF
310
FE0003FFFFFFE0003FFE0003FFFFFFE0003FFF0003FFFFFFFFC000FFFFFFE000
310
70008000FFFFFFC0007FFE0000007FF8000003FFFF80007F0001FFFFFF8000F0
310
001FFFFFF8000FF8000001FFFE0000007FFFFFF0001FFFFFFC0003FFFFFFE000
310
1FFC0003FFFFFFE0001FFF0003FFFFFFFFC000FFFFFFC00070008000FFFFFF80
310
007FFE0000007FF0000003FFFF80007F0001FFFFFF0000F0001FFFFFF8000FF8
310
000001FFFE0000007FFFFFF0001FFFFFFC0007FFFFFFF0001FFC0007FFFFFFF0
310
001FFF0003FFFFFFFFC000FFFFFFC00070008001FFFFFF0000FFFE0000003FF0
310
000001FFFF80007F0001FFFFFF0000F8001FFFFFF0000FF8000001FFFE000000
310
7FFFFFF0001FFFFFFC0007FFFFFFF0001FFC0007FFFFFFF0001FFF0003FFFFFF
310
FFC001FFFFFF80007000FFFFFFFFFE0000FFFE0008003FF0008001FFFF80007F
310
FFFFFFFFFC0000FFFFFFFFFFE0000FF8000001FFFE0000007FFFFFF0001FFFFF
310
F8000FFFFFFFF8000FF8000FFFFFFFF8000FFF0003FFFFFFFFFFFFFFFFFF0000
310
7000FFFFFFFFFC0000FFFC0008003FF0008001FFFF80007FFFFFFFFFF80001FF
310
FFFFFFFF80000FF8000001FFFE0000007FFFFFF0001FFFFFF8000FFFFFFFF800
310
0FF8000FFFFFFFF8000FFF0003FFFFFFFFFFFFFFFFFE0000F000FFFFFFFFE000
310
00FFFC000C003FE000C001FFFF80007FFFFFFFFFC00001FFFFFFFFFE00001FF8
310
000001FFFE0000007FFFFFF0001FFFFFF8000FFFFFFFF8000FF8000FFFFFFFF8
310
000FFF0003FFFFFFFFFFFFFFFFF00000F000FFFFFFFE000001FFFC000C001FE0
310
00C000FFFF80007FFFFFFFFE000001FFFFFFFFE000001FF80FFFFFFFFFFFFFC0
310
7FFFFFF0001FFFFFF8000FFFFFFFF8000FF8000FFFFFFFF8000FFF0003FFFFFF
310
FFFFFFFFFF800000F000FFFFFFC0000001FFFC001C001FE001C000FFFF80007F
310
FFFFFF80000003FFFFFFF80000001FF80FFFFFFFFFFFFFC07FFFFFF0001FFFFF
310
F8001FFFFFFFFC000FF8001FFFFFFFFC000FFF0003FFFFFFFFFFFFFFF0000001
310
F000FFFFF800000001FFF8001C001FE001C000FFFF80007FFFFFF800000003FF
310
FFFF800000003FF80FFFFFFFFFFFFFC07FFFFFF0001FFFFFF8001FFFFFFFFC00
310
0FF8001FFFFFFFFC000FFF0003FFFFFFFFFFFFFE00000001F000FFFFC0000000
310
03FFF8001E001FC001E000FFFF80007FFFFF8000000007FFFFFC000000003FF8
310
0FFFFFFFFFFFFFC07FFFFFF0001FFFFFF8001FFFFFFFFC000FF8001FFFFFFFFC
310
000FFF0003FFFFFFFFFFFFE000000003F000FFFE0000000007FFF8001E000FC0
310
01E0007FFF80007FFFFE0000000007FFFFE0000000007FF80FFFFFFFFFFFFFC0
310
7FFFFFF0001FFFFFF0001FFFFFFFFC0007F0001FFFFFFFFC0007FF0003FFFFFF
310
FFFFFF0000000003F000FFF80000000007FFF8001E000FC003E0007FFF80007F
310
FFF0000000000FFFFF8000000000FFF80FFFFFFFFFFFFFC07FFFFFF0001FFFFF
310
F0001FFFFFFFFC0007F0001FFFFFFFFC0007FF0003FFFFFFFFFFFC0000000007
310
F000FFE0000000000FFFF0003E000FC003E0007FFF80007FFFC0000000001FFF
310
FE0000000001FFF80FFFFFFFFFFFFFC07FFFFFF0001FFFFFF0001FFFFFFFFC00
310
07F0001FFFFFFFFC0007FF0003FFFFFFFFFFF0000000000FF000FFC000000000
310
1FFFF0003F000F8003F0003FFF80007FFF80000000003FFFF80000000003FFF8
310
0FFFFFFFFFFFFFC07FFFFFF0001FFFFFF0001FFFFFFFFC0007F0001FFFFFFFFC
310
0007FF0003FFFFFFFFFFE0000000001FF000FF00000000007FFFF0003F000780
310
03F0003FFF80007FFF00000000007FFFF00000000007FFF80FFFFFFFFFFFFFC0
310
7FFFFFF0001FFFFFF0001FFFFFFFFC0007F0001FFFFFFFFC0007FF0003FFFFFF
310
FFFF80000000007FF000FE0000000000FFFFE0003F00078007F0003FFF80007F
310
FE0000000001FFFFE0000000001FFFF80FFFFFFFFFFFFFC07FFFFFF0001FFFFF
310
F0001FFFFFFFFC0007F0001FFFFFFFFC0007FF0003FFFFFFFFFF0000000000FF
310
F000FC0000000003FFFFE0007F00078007F0003FFF80007FFC0000000007FFFF
310
C0000000007FFFF80FFFFFFFFFFFFFC07FFFFFF0001FFFFFF8001FFFFFFFFC00
310
0FF8001FFFFFFFFC000FFF0003FFFFFFFFFE0000000003FFF000FC000000000F
310
FFFFE0007F80070007F8001FFF80007FF8000000001FFFFF8000000001FFFFF8
310
0FFFFFFFFFFFFFC07FFFFFF0001FFFFFF8001FFFFFFFFC000FF8001FFFFFFFFC
310
000FFF0003FFFFFFFFFC000000000FFFF000F8000000007FFFFFE0007F800700
310
07F8001FFF80007FF000000000FFFFFF800000000FFFFFF80FFFFFFFFFFFFFC0
310
7FFFFFF0001FFFFFF8000FFFFFFFF8000FF8000FFFFFFFF8000FFF0003FFFFFF
310
FFFC000000007FFFF000F800000007FFFFFFC0007F8003000FF8001FFF80007F
310
F000000007FFFFFF000000007FFFFFF80FFFFFFFFFFFFFC07FFFFFF0001FFFFF
310
F8000FFFFFFFF8000FF8000FFFFFFFF8000FFF0003FFFFFFFFF80000000FFFFF
310
F000F0000000FFFFFFFFC000FF8003000FF8001FFF80007FE0000000FFFFFFFF
310
0000000FFFFFFFF8000001FFFE0000007FFFFFF0001FFFFFF8000FFFFFFFF800
310
0FF8000FFFFFFFF8000FFF0003FFFFFFFFF8000000FFFFFFF000F000000FFFFF
310
FFFFC000FFC002000FF8000FFF80007FE000001FFFFFFFFE000001FFFFFFFFF8
310
000001FFFE0000007FFFFFF0001FFFFFF8000FFFFFFFF8000FF8000FFFFFFFF8
310
000FFF0003FFFFFFFFF000001FFFFFFFF000E00000FFFFFFFFFFC000FFC00200
310
0FFC000FFF80007FE00001FFFFFFFFFE00001FFFFFFFFFF8000001FFFE000000
310
7FFFFFF0001FFFFFFC000FFFFFFFF8001FFC000FFFFFFFF8001FFF0003FFFFFF
310
FFF00001FFFFFFFFF000E00007FFFFFFFFFF8000FFC000001FFC000FFF80007F
310
C0000FFFFFFFFFFE0000FFFFFFFFFFF8000001FFFE0000007FFFFFF0001FFFFF
310
FC0007FFFFFFF0001FFC0007FFFFFFF0001FFF0003FFFFFFFFF00007FFFFFFFF
310
F000E0001FFFFFFFFFFF8000FFC000001FFC000FFF80007FC0003FFFFFFFFFFE
310
0001FFFFFFFFFFF8000001FFFE0000007FFFFFF0001FFFFFFC0007FFFFFFF000
310
1FFC0007FFFFFFF0001FFF0003FFFFFFFFF0001FFFFFFFFFF000E0003FFFFF00
310
03FF8001FFE000001FFC0007FF80007FC0007FFFFF0007FC0003FFFFF0003FF8
310
000001FFFE0000007FFFFFF0001FFFFFFC0003FFFFFFE0001FFC0003FFFFFFE0
310
001FFF0003FFFFFFFFF0003FFFFFFFFFF000E0003FFFFF0001FF8001FFE00000
310
1FFE0007FF80007FC0007FFFFE0003FC0007FFFFE0003FF8000001FFFE000000
310
7FFFFFF0001FFFFFFE0003FFFFFFE0003FFE0003FFFFFFE0003FFF0003FFFFFF
310
FFF0003FFFFF8001F000E0003FFFFF0001FF0001FFE000001FFE0007FF80007F
310
C0007FFFFE0003FC0007FFFFE0003FF8000001FFFE0000007FFFFFF0001FFFFF
310
FE0001FFFFFFC0003FFE0001FFFFFFC0003FFF0003FFFFFFFFF0003FFFFF0001
310
F000E0003FFFFF0003FF0001FFE000003FFE0007FF80007FC0007FFFFE0003FC
310
0007FFFFE0003FF8000001FFFE0000007FFFFFF0001FFFFFFF0001FFFFFFC000
310
7FFF0001FFFFFFC0007FFF0003FFFFFFFFF0003FFFFF0001F000E0003FFFFE00
310
03FF0003FFF000003FFE0003FF80007FC0007FFFFC0003FE0007FFFFE0003FF8
310
000001FFFE0000007FFFFFF0001FFFFFFF0000FFFFFF80007FFF0000FFFFFF80
310
007FFF0003FFFFFFFFF0003FFFFF0001F000E0003FFFFE0003FF0003FFF00000
310
3FFF0003FF80007FC0007FFFFC0007FE0007FFFFC0003FF8000001FFFE000000
310
7FFFFFF0001FFFFFFF80007FFFFF0000FFFF80007FFFFF0000FFFF0003FFFFFF
310
FFF0003FFFFF0003F000E0003FFFFC0003FE0003FFF000003FFF0003FF80007F
310
E0003FFFF80007FE0003FFFFC0007FF8000001FFFE0000007FFFFFF0001FFFFF
310
FF80003FFFFE0000FFFF80003FFFFE0000FFFF0003FFFFFFFFF0001FFFFE0003
310
F000F0001FFFF80003FE0003FFF000007FFF0001FF80007FE0003FFFF00007FE
310
0001FFFF80007FF8000001FFFE0000007FFFFFF0001FFFFFFFC0000FFFF80001
310
FFFFC0000FFFF80001FFFF0003FFFFFFFFF0001FFFFC0003F000F0000FFFF000
310
07FE0007FFF800007FFF0001FF80007FE0001FFFE00007FF0000FFFE00007FF8
310
000001FFFE0000007FFFFFF0001FFFFFFFC00003FFE00001FFFFC00003FFE000
310
01FFFF0003FFFFFFFFF8000FFFF80003F000F00003FFC00007FC0007FFF80000
310
7FFF8001FF80007FF00007FF80000FFF00007FF80000FFF8000001FFFE000000
310
7F80000000000001FFE000003E000003FFFFE000003E000003FFFF0003FFFFFF
310
FFF80003FFE00007F000F800000000000FFC0007FFF800007FFF8001FF80007F
310
F000000000000FFF000000000000FFF8000001FFFE0000007F80000000000001
310
FFF0000000000007FFFFF0000000000007FFFF0003FFFFFFFFFC00007E000007
310
F000F800000000000FFC0007FFF80000FFFF8000FF80007FF800000000001FFF
310
800000000001FFF8000001FFFE0000007F80000000000001FFF800000000000F
310
FFFFF800000000000FFFFF0003FFFFFFFFFC00000000000FF000FC0000000000
310
1FFC0007FFFC0000FFFF8000FF80007FF800000000003FFFC00000000001FFF8
310
000001FFFE0000007F80000000000001FFF800000000000FFFFFF80000000000
310
0FFFFF0003FFFFFFFFFE00000000001FF000FE00000000003FF8000FFFFC0000
310
FFFF8000FF80007FFC00000000003FFFC00000000003FFF8000001FFFE000000
310
7F80000000000001FFFC00000000001FFFFFFC00000000001FFFFF0003FFFFFF
310
FFFF00000000001FF000FF00000000003FF8000FFFFC0000FFFFC000FF80007F
310
FE00000000007FFFE00000000007FFF8000001FFFE0000007F80000000000001
310
FFFE00000000003FFFFFFE00000000003FFFFF0003FFFFFFFFFF80000000003F
310
F000FF80000000007FF8000FFFFC0001FFFFC0007F80007FFF0000000000FFFF
310
F0000000000FFFF800000000000000007F80000000000001FFFF8000000000FF
310
FFFFFF8000000000FFFFFF0003FFFFFFFFFFC0000000007FF000FFC000000000
310
FFF8000FFFFE0001FFFFC0007F80007FFF8000000001FFFFF8000000001FFFF8
310
00000000000000007F80000000000001FFFFC000000001FFFFFFFFC000000001
310
FFFFFF0003FFFFFFFFFFE000000000FFF000FFE000000003FFF0001FFFFE0001
310
FFFFC0007F80007FFFC000000007FFFFFE000000003FFFF80000000000000000
310
7F80000000000001FFFFE000000003FFFFFFFFE000000003FFFFFF0003FFFFFF
310
FFFFF000000003FFF000FFF80000000FFFF0001FFFFE0001FFFFE0007F80007F
310
FFF00000000FFFFFFF00000000FFFFF800000000000000007F80000000000001
310
FFFFF80000000FFFFFFFFFF80000000FFFFFFF0003FFFFFFFFFFFC0000000FFF
310
F000FFFE0000003FFFF0001FFFFE0003FFFFE0003F80007FFFFC0000003FFFFF
310
FFC0000003FFFFF800000000000000007F80000000000001FFFFFE0000003FFF
310
FFFFFFFE0000003FFFFFFF0003FFFFFFFFFFFF0000003FFFF000FFFF800000FF
310
FFF0001FFFFF0003FFFFE0003F80007FFFFF000001FFFFFFFFF800001FFFFFF8
310
00000000000000007F80000000000001FFFFFFC00001FFFFFFFFFFFFC00001FF
310
FFFFFF0003FFFFFFFFFFFFC00000FFFFF000FFFFF8000FFFFFFFFFFFFFFFFFFF
310
FFFFFFFFFFFFFFFFFFFFF0001FFFFFFFFFFF0000FFFFFFF80000000000000000
310
7FFFFFFFFFFFFFFFFFFFFFFC001FFFFFFFFFFFFFFC001FFFFFFFFFFFFFFFFFFF
310
FFFFFFFC001FFFFFF000FFFFFFFFFFFFFFFFFFFFFFFFFFFFFFFFFFFFFFFFFFFF
310
FFFFFFFFFFFFFFFFFFFFFFFFFFFFFFFFFFFFFFFFFFFFFFFFFFFFFFFFFFFFFFFF
310
FFFFFFFFFFFFFFFFFFFFFFFFFFFFFFFFFFFFFFFFFFFFFFFFFFFFFFFFFFFFFFFF
310
F000FFFFFFFFFFFFFFFFFFFFFFFFFFFFFFFFFFFFFFFFFFFFFFFFFFFFFFFFFFFF
310
FFFFFFFFFFFFFFFFFFFFFFFFFFFFFFFFFFFFFFFFFFFFFFFFFFFFFFFFFFFFFFFF
310
FFFFFFFFFFFFFFFFFFFFFFFFFFFFFFFFFFFFFFFFFFFFFFFFF000FFFFFFFFFFFF
310
FFFFFFFFFFFFFFFFFFFFFFFFFFFFFFFFFFFFFFFFFFFFFFFFFFFFFFFFFFFFFFFF
310
FFFFFFFFFFFFFFFFFFFFFFFFFFFFFFFFFFFFFFFFFFFFFFFFFFFFFFFFFFFFFFFF
310
FFFFFFFFFFFFFFFFFFFFFFFFFFFFFFFFF000FFFFFFFFFFFFFFFFFFFFFFFFFFFF
310
FFFFFFFFFFFFFFFFFFFFFFFFFFFFFFFFFFFFFFFFFFFFFFFFFFFFFFFFFFFFFFFF
310
FFFFFFFFFFFFFFFFFFFFFFFFFFFFFFFFFFFFFFFFFFFFFFFFFFFFFFFFFFFFFFFF
310
FFFFFFFFFFFFFFFFF000FFFFFFFFFFFFFFFFFFFFFFFFFFFFFFFFFFFFFFFFFFFF
310
FFFFFFFFFFFFFFFFFFFFFFFFFFFFFFFFFFFFFFFFFFFFFFFFFFFFFFFFFFFFFFFF
310
FFFFFFFFFFFFFFFFFFFFFFFFFFFFFFFFFFFFFFFFFFFFFFFFFFFFFFFFFFFFFFFF
310
F000FFFFFFFFFFFFFFFFFFFFFFFFFFFFFFFFFFFFFFFFFFFFFFFFFFFFFFFFFFFF
310
FFFFFFFFFFFFFFFFFFFFFFFFFFFFFFFFFFFFFFFFFFFFFFFFFFFFFFFFFFFFFFFF
310
FFFFFFFFFFFFFFFFFFFFFFFFFFFFFFFFFFFFFFFFFFFFFFFFF000FFFFFFFFFFFF
310
FFFFFFFFFFFFFFFFFFFFFFFFFFFFFFFFFFFFFFFFFFFFFFFFFFFFFFFFFFFFFFFF
310
FFFFFFFFFFFFFFFFFFFFFFFFFFFFFFFFFFFFFFFFFFFFFFFFFFFFFFFFFFFFFFFF
310
FFFFFFFFFFFFFFFFFFFFFFFFFFFFFFFFF000FFFFFFFFFFFFFFFFFFFFFFFFFFFF
310
FFFFFFFFFFFFFFFFFFFFFFFFFFFFFFFFFFFFFFFFFFFFFFFFFFFFFFFFFFFFFFFF
310
FFFFFFFFFFFFFFFFFFFFFFFFFFFFFFFFFFFFFFFFFFFFFFFFFFFFFFFFFFFFFFFF
310
FFFFFFFFFFFFFFFFF000FFFFFFFFFFFFFFFFFFFFFFFFFFFFFFFFFFFFFFFFFFFF
310
FFFFFFFFFFFFFFFFFFFFFFFFFFFFFFFFFFFFFFFFFFFFFFFFFFFFFFFFFFFFFFFF
310
FFFFFFFFFFFFFFFFFFFFFFFFFFFFFFFFFFFFFFFFFFFFFFFFFFFFFFFFFFFFFFFF
310
F000FFFFFFFFFFFFFFFFFFFFFFFFFFFFFFFFFFFFFFFFFFFFFFFFFFFFFFFFFFFF
310
FFFFFFFFFFFFFFFFFFFFFFFFFFFFFFFFFFFFFFFFFFFFFFFFFFFFFFFFFFFFFFFF
310
FFFFFFFFFFFFFFFFFFFFFFFFFFFFFFFFFFFFFFFFFFFFFFFFF000FFFFFFFFFFFF
310
FFFFFFFFFFFFFFFFFFFFFFFFFFFFFFFFFFFFFFFFFFFFFFFFFFFFFFFFFFFFFFFF
310
FFFFFFFFFFFFFFFFFFFFFFFFFFFFFFFFFFFFFFFFFFFFFFFFFFFFFFFFFFFFFFFF
310
FFFFFFFFFFFFFFFFFFFFFFFFFFFFFFFFF000FFFFFFFFFFFFFFFFFFFFFFFFFFFF
310
FFFFFFFFFFFFFFFFFFFFFFFFFFFFFFFFFFFFFFFFFFFFFFFFFFFFFFFFFFFFFFFF
310
FFFFFFFFFFFFFFFFFFFFFFFFFFFFFFFFFFFFFFFFFFFFFFFFFFFFFFFFFFFFFFFF
310
FFFFFFFFFFFFFFFFF000FFFFFFFFFFFFFFFFFFFFFFFFFFFFFFFFFFFFFFFFFFFF
310
FFFFFFFFFFFFFFFFFFFFFFFFFFFFFFFFFFFFFFFFFFFFFFFFFFFFFFFFFFFFFFFF
310
FFFFFFFFFFFFFFFFFFFFFFFFFFFFFFFFFFFFFFFFFFFFFFFFFFFFFFFFFFFFFFFF
310
F000FFFFFFFFFFFFFFFFFFFFFFFFFFFFFFFFFFFFFFFFFFFFFFFFFFFFFFFFFFFF
310
FFFFFFFFFFFFFFFFFFFFFFFFFFFFFFFFFFFFFFFFFFFFFFFFFFFFFFFFFFFFFFFF
310
FFFFFFFFFFFFFFFFFFFFFFFFFFFFFFFFFFFFFFFFFFFFFFFFF000FFFFFFFFFFFF
310
FFFFFFFFFFFFFFFFFFFFFFFFFFFFFFFFFFFFFFFFFFFFFFFFFFFFFFFFFFFFFFFF
310
FFFFFFFFFFFFFFFFFFFFFFFFFFFFFFFFFFFFFFFFFFFFFFFFFFFFFFFFFFFFFFFF
310
FFFFFFFFFFFFFFFFFFFFFFFFFFFFFFFFF000FFFFFFFFFFFFFFFFFFFFFFFFFFFF
310
FFFFFFFFFFFFFFFFFFFFFFFFFFFFFFFFFFFFFFFFFFFFFFFFFFFFFFFFFFFFFFFF
310
FFFFFFFFFFFFFFFFFFFFFFFFFFFFFFFFFFFFFFFFFFFFFFFFFFFFFFFFFFFFFFFF
310
FFFFFFFFFFFFFFFFF000FFFFFFFFFFFFFFFFFFFFFFFFFFFFFFFFFFFFFFFFFFFF
310
FFFFFFFFFFFFFFFFFFFFFFFFFFFFFFFFFFFFFFFFFFFFFFFFFFFFFFFFFFFFFFFF
310
FFFFFFFFFFFFFFFFFFFFFFFFFFFFFFFFFFFFFFFFFFFFFFFFFFFFFFFFFFFFFFFF
310
F000FFFFFFFFFFFFFFFFFFFFFFFFFFFFFFFFFFFFFFFFFFFFFFFFFFFFFFFFFFFF
310
FFFFFFFFFFFFFFFFFFFFFFFFFFFFFFFFFFFFFFFFFFFFFFFFFFFFFFFFFFFFFFFF
310
FFFFFFFFFFFFFFFFFFFFFFFFFFFFFFFFFFFFFFFFFFFFFFFFF000FFFFFFFFFFFF
310
FFFFFFFFFFFFFFFFFFFFFFFFFFFFFFFFFFFFFFFFFFFFFFFFFFFFFFFFFFFFFFFF
310
FFFFFFFFFFFFFFFFFFFFFFFFFFFFFFFFFFFFFFFFFFFFFFFFFFFFFFFFFFFFFFFF
310
FFFFFFFFFFFFFFFFFFFFFFFFFFFFFFFFF000FFFFFFFFFFFFFFFFFFFFFFFFFFFF
310
FFFFFFFFFFFFFFFFFFFFFFFFFFFFFFFFFFFFFFFFFFFFFFFFFFFFFFFFFFFFFFFF
310
FFFFFFFFFFFFFFFFFFFFFFFFFFFFFFFFFFFFFFFFFFFFFFFFFFFFFFFFFFFFFFFF
310
FFFFFFFFFFFFFFFFF000FFFFFFFFFFFFFFFFFFFFFFFFFFFFFFFFFFFFFFFFFFFF
310
FFFFFFFFFFFFFFFFFFFFFFFFFFFFFFFFFFFFFFFFFFFFFFFFFFFFFFFFFFFFFFFF
310
FFFFFFFFFFFFFFFFFFFFFFFFFFFFFFFFFFFFFFFFFFFFFFFFFFFFFFFFFFFFFFFF
310
F000FFFFFFFFFFFFFFFFFFFFFFFFFFFFFFFFFFFFFFFFFFFFFFFFFFFFFFFFFFFF
310
FFFFFFFFFFFFFFFFFFFFFFFFFFFFFFFFFFFFFFFFFFFFFFFFFFFFFFFFFFFFFFFF
310
FFFFFFFFFFFFFFFFFFFFFFFFFFFFFFFFFFFFFFFFFFFFFFFFF000FFFFFFFFFFFF
310
FFFFFFFFFFFFFFFFFFFFFFFFFFFFFFFFFFFFFFFFFFFFFFFFFFFFFFFFFFFFFFFF
310
FFFFFFFFFFFFFFFFFFFFFFFFFFFFFFFFFFFFFFFFFFFFFFFFFFFFFFFFFFFFFFFF
310
FFFFFFFFFFFFFFFFFFFFFFFFFFFFFFFFF0000000000000000000000000000000
310
0000000000000000000000000000000000000000000000000000000000000000
310
0000000000000000000000000000000000000000000000000000000000000000
310
0000000000000000000000000000000000000000000000000000000000000000
310
0000000000000000000000000000000000000000000000000000000000000000
310
0000000000000000000000000000000000000000000000000000000000000000
310
0000000000000000000000000000000000000000000000000000000000000000
310
0000000000000000000000000000000000000000000000000000000000000000
310
0000000000000000000000000000000000000000000000000000000000000000
310
0000000000000000000000000000000000000000000000000000000000000000
310
0000000000000000000000000000000000000000000000000000000000000000
310
0000000000000000000000000000000000000000000000000000000000000000
310
0000000000000000000000000000000000000000000000000000000000000000
310
0000000000000000000000000000000000000000000000000000000000000000
310
0000000000000000000000000000000000000000000000000000000000000000
310
0000000000000000000000000000000000000000000000000000000000000000
  1
OLE
  0
ENDSEC
  0
SECTION
  2
OBJECTS
  0
DICTIONARY
  5
C
330
0
100
AcDbDictionary
281
     1
  3
ACAD_GROUP
350
D
  3
ACAD_LAYOUT
350
1A
  3
ACAD_MLINESTYLE
350
17
  3
ACAD_PLOTSETTINGS
350
19
  3
ACAD_PLOTSTYLENAME
350
E
  3
ACAD_SCALELIST
350
47
  0
DICTIONARY
  5
D
102
{ACAD_REACTORS
330
C
102
}
330
C
100
AcDbDictionary
281
     1
  0
DICTIONARY
  5
1A
102
{ACAD_REACTORS
330
C
102
}
330
C
100
AcDbDictionary
281
     1
  3
Layout1
350
1E
  3
Layout2
350
26
  3
Model
350
22
  0
DICTIONARY
  5
17
102
{ACAD_REACTORS
330
C
102
}
330
C
100
AcDbDictionary
281
     1
  3
Standard
350
18
  0
DICTIONARY
  5
19
102
{ACAD_REACTORS
330
C
102
}
330
C
100
AcDbDictionary
281
     1
  0
ACDBDICTIONARYWDFLT
  5
E
102
{ACAD_REACTORS
330
C
102
}
330
C
100
AcDbDictionary
281
     1
  3
Normal
350
F
100
AcDbDictionaryWithDefault
340
F
  0
DICTIONARY
  5
47
102
{ACAD_REACTORS
330
C
102
}
330
C
100
AcDbDictionary
281
     1
  3
A0
350
48
  3
A1
350
49
  3
A2
350
4A
  3
A3
350
4B
  3
A4
350
4C
  3
A5
350
4D
  3
A6
350
4E
  3
A7
350
4F
  3
A8
350
50
  3
A9
350
51
  3
B0
350
52
  3
B1
350
53
  3
B2
350
54
  3
B3
350
55
  3
B4
350
56
  3
B5
350
57
  3
B6
350
58
  3
B7
350
59
  3
B8
350
5A
  3
B9
350
5B
  3
C0
350
5C
  3
C1
350
5D
  3
C2
350
5E
  3
C3
350
5F
  3
C4
350
60
  3
C5
350
61
  3
C6
350
62
  3
C7
350
63
  3
C8
350
64
  3
C9
350
65
  3
D0
350
66
  3
D1
350
67
  3
D2
350
68
  0
LAYOUT
  5
1E
102
{ACAD_REACTORS
330
1A
102
}
330
1A
100
AcDbPlotSettings
  1

  2
none_device
  4

  6

 40
0.0
 41
0.0
 42
0.0
 43
0.0
 44
0.0
 45
0.0
 46
0.0
 47
0.0
 48
0.0
 49
0.0
140
0.0
141
0.0
142
1.0
143
1.0
 70
   688
 72
     1
 73
     0
 74
     5
  7

 75
    16
147
1.0
148
0.0
149
0.0
100
AcDbLayout
  1
Layout1
 70
     1
 71
     1
 10
0.0
 20
0.0
 11
420.0
 21
297.0
 12
0.0
 22
0.0
 32
0.0
 14
1.0000000000E+20
 24
1.0000000000E+20
 34
1.0000000000E+20
 15
-1.0000000000E+20
 25
-1.0000000000E+20
 35
-1.0000000000E+20
146
0.0
 13
0.0
 23
0.0
 33
0.0
 16
1.0
 26
0.0
 36
0.0
 17
0.0
 27
1.0
 37
0.0
 76
     0
330
1B
  0
LAYOUT
  5
26
102
{ACAD_REACTORS
330
1A
102
}
330
1A
100
AcDbPlotSettings
  1

  2
none_device
  4

  6

 40
0.0
 41
0.0
 42
0.0
 43
0.0
 44
0.0
 45
0.0
 46
0.0
 47
0.0
 48
0.0
 49
0.0
140
0.0
141
0.0
142
1.0
143
1.0
 70
   688
 72
     1
 73
     0
 74
     5
  7

 75
    16
147
1.0
148
0.0
149
0.0
100
AcDbLayout
  1
Layout2
 70
     1
 71
     2
 10
0.0
 20
0.0
 11
0.0
 21
0.0
 12
0.0
 22
0.0
 32
0.0
 14
0.0
 24
0.0
 34
0.0
 15
0.0
 25
0.0
 35
0.0
146
0.0
 13
0.0
 23
0.0
 33
0.0
 16
1.0
 26
0.0
 36
0.0
 17
0.0
 27
1.0
 37
0.0
 76
     0
330
23
  0
LAYOUT
  5
22
102
{ACAD_REACTORS
330
1A
102
}
330
1A
100
AcDbPlotSettings
  1

  2
none_device
  4
Letter_(8.50_x_11.00_Inches)
  6

 40
6.35
 41
6.35
 42
6.35000508
 43
6.35000508
 44
215.9
 45
279.4
 46
0.0
 47
0.0
 48
0.0
 49
0.0
140
0.0
141
0.0
142
1.0
143
1.0
 70
  1712
 72
     1
 73
     0
 74
     0
  7

 75
     0
147
1.0
148
0.0
149
0.0
100
AcDbLayout
  1
Model
 70
     1
 71
     0
 10
0.0
 20
0.0
 11
297.0
 21
210.0
 12
0.0
 22
0.0
 32
0.0
 14
0.0
 24
0.0
 34
0.0
 15
297.0
 25
210.0
 35
0.0
146
0.0
 13
0.0
 23
0.0
 33
0.0
 16
1.0
 26
0.0
 36
0.0
 17
0.0
 27
1.0
 37
0.0
 76
     0
330
1F
331
29
  0
MLINESTYLE
  5
18
102
{ACAD_REACTORS
330
17
102
}
330
17
100
AcDbMlineStyle
  2
Standard
 70
     0
  3

 62
   256
 51
90.0
 52
90.0
 71
     2
 49
0.5
 62
   256
  6
BYLAYER
 49
-0.5
 62
   256
  6
BYLAYER
  0
ACDBPLACEHOLDER
  5
F
102
{ACAD_REACTORS
330
E
102
}
330
E
  0
SCALE
  5
48
102
{ACAD_REACTORS
330
47
102
}
330
47
100
AcDbScale
 70
     0
300
1:1
140
1.0
141
1.0
290
     1
  0
SCALE
  5
49
102
{ACAD_REACTORS
330
47
102
}
330
47
100
AcDbScale
 70
     0
300
1:2
140
1.0
141
2.0
290
     0
  0
SCALE
  5
4A
102
{ACAD_REACTORS
330
47
102
}
330
47
100
AcDbScale
 70
     0
300
1:4
140
1.0
141
4.0
290
     0
  0
SCALE
  5
4B
102
{ACAD_REACTORS
330
47
102
}
330
47
100
AcDbScale
 70
     0
300
1:5
140
1.0
141
5.0
290
     0
  0
SCALE
  5
4C
102
{ACAD_REACTORS
330
47
102
}
330
47
100
AcDbScale
 70
     0
300
1:8
140
1.0
141
8.0
290
     0
  0
SCALE
  5
4D
102
{ACAD_REACTORS
330
47
102
}
330
47
100
AcDbScale
 70
     0
300
1:10
140
1.0
141
10.0
290
     0
  0
SCALE
  5
4E
102
{ACAD_REACTORS
330
47
102
}
330
47
100
AcDbScale
 70
     0
300
1:16
140
1.0
141
16.0
290
     0
  0
SCALE
  5
4F
102
{ACAD_REACTORS
330
47
102
}
330
47
100
AcDbScale
 70
     0
300
1:20
140
1.0
141
20.0
290
     0
  0
SCALE
  5
50
102
{ACAD_REACTORS
330
47
102
}
330
47
100
AcDbScale
 70
     0
300
1:30
140
1.0
141
30.0
290
     0
  0
SCALE
  5
51
102
{ACAD_REACTORS
330
47
102
}
330
47
100
AcDbScale
 70
     0
300
1:40
140
1.0
141
40.0
290
     0
  0
SCALE
  5
52
102
{ACAD_REACTORS
330
47
102
}
330
47
100
AcDbScale
 70
     0
300
1:50
140
1.0
141
50.0
290
     0
  0
SCALE
  5
53
102
{ACAD_REACTORS
330
47
102
}
330
47
100
AcDbScale
 70
     0
300
1:100
140
1.0
141
100.0
290
     0
  0
SCALE
  5
54
102
{ACAD_REACTORS
330
47
102
}
330
47
100
AcDbScale
 70
     0
300
2:1
140
2.0
141
1.0
290
     0
  0
SCALE
  5
55
102
{ACAD_REACTORS
330
47
102
}
330
47
100
AcDbScale
 70
     0
300
4:1
140
4.0
141
1.0
290
     0
  0
SCALE
  5
56
102
{ACAD_REACTORS
330
47
102
}
330
47
100
AcDbScale
 70
     0
300
8:1
140
8.0
141
1.0
290
     0
  0
SCALE
  5
57
102
{ACAD_REACTORS
330
47
102
}
330
47
100
AcDbScale
 70
     0
300
10:1
140
10.0
141
1.0
290
     0
  0
SCALE
  5
58
102
{ACAD_REACTORS
330
47
102
}
330
47
100
AcDbScale
 70
     0
300
100:1
140
100.0
141
1.0
290
     0
  0
SCALE
  5
59
102
{ACAD_REACTORS
330
47
102
}
330
47
100
AcDbScale
 70
     0
300
1/128" = 1'-0"
140
0.0078125
141
12.0
290
     0
  0
SCALE
  5
5A
102
{ACAD_REACTORS
330
47
102
}
330
47
100
AcDbScale
 70
     0
300
1/64" = 1'-0"
140
0.015625
141
12.0
290
     0
  0
SCALE
  5
5B
102
{ACAD_REACTORS
330
47
102
}
330
47
100
AcDbScale
 70
     0
300
1/32" = 1'-0"
140
0.03125
141
12.0
290
     0
  0
SCALE
  5
5C
102
{ACAD_REACTORS
330
47
102
}
330
47
100
AcDbScale
 70
     0
300
1/16" = 1'-0"
140
0.0625
141
12.0
290
     0
  0
SCALE
  5
5D
102
{ACAD_REACTORS
330
47
102
}
330
47
100
AcDbScale
 70
     0
300
3/32" = 1'-0"
140
0.09375
141
12.0
290
     0
  0
SCALE
  5
5E
102
{ACAD_REACTORS
330
47
102
}
330
47
100
AcDbScale
 70
     0
300
1/8" = 1'-0"
140
0.125
141
12.0
290
     0
  0
SCALE
  5
5F
102
{ACAD_REACTORS
330
47
102
}
330
47
100
AcDbScale
 70
     0
300
3/16" = 1'-0"
140
0.1875
141
12.0
290
     0
  0
SCALE
  5
60
102
{ACAD_REACTORS
330
47
102
}
330
47
100
AcDbScale
 70
     0
300
1/4" = 1'-0"
140
0.25
141
12.0
290
     0
  0
SCALE
  5
61
102
{ACAD_REACTORS
330
47
102
}
330
47
100
AcDbScale
 70
     0
300
3/8" = 1'-0"
140
0.375
141
12.0
290
     0
  0
SCALE
  5
62
102
{ACAD_REACTORS
330
47
102
}
330
47
100
AcDbScale
 70
     0
300
1/2" = 1'-0"
140
0.5
141
12.0
290
     0
  0
SCALE
  5
63
102
{ACAD_REACTORS
330
47
102
}
330
47
100
AcDbScale
 70
     0
300
3/4" = 1'-0"
140
0.75
141
12.0
290
     0
  0
SCALE
  5
64
102
{ACAD_REACTORS
330
47
102
}
330
47
100
AcDbScale
 70
     0
300
1" = 1'-0"
140
1.0
141
12.0
290
     0
  0
SCALE
  5
65
102
{ACAD_REACTORS
330
47
102
}
330
47
100
AcDbScale
 70
     0
300
1-1/2" = 1'-0"
140
1.5
141
12.0
290
     0
  0
SCALE
  5
66
102
{ACAD_REACTORS
330
47
102
}
330
47
100
AcDbScale
 70
     0
300
3" = 1'-0"
140
3.0
141
12.0
290
     0
  0
SCALE
  5
67
102
{ACAD_REACTORS
330
47
102
}
330
47
100
AcDbScale
 70
     0
300
6" = 1'-0"
140
6.0
141
12.0
290
     0
  0
SCALE
  5
68
102
{ACAD_REACTORS
330
47
102
}
330
47
100
AcDbScale
 70
     0
300
1'-0" = 1'-0"
140
12.0
141
12.0
290
     0
  0
ENDSEC
  0
EOF
