  0
SECTION
  2
HEADER
  9
$ACADVER
  1
AC1015
  9
$ACADMAINTVER
 70
     6
  9
$DWGCODEPAGE
  3
ANSI_1252
  9
$INSBASE
 10
0.0
 20
0.0
 30
0.0
  9
$EXTMIN
 10
0.0
 20
0.0
 30
0.0
  9
$EXTMAX
 10
297.0
 20
210.0
 30
0.0
  9
$LIMMIN
 10
0.0
 20
0.0
  9
$LIMMAX
 10
297.0
 20
210.0
  9
$ORTHOMODE
 70
     0
  9
$REGENMODE
 70
     1
  9
$FILLMODE
 70
     1
  9
$QTEXTMODE
 70
     0
  9
$MIRRTEXT
 70
     1
  9
$LTSCALE
 40
1.0
  9
$ATTMODE
 70
     1
  9
$TEXTSIZE
 40
2.0
  9
$TRACEWID
 40
1.0
  9
$TEXTSTYLE
  7
Standard
  9
$CLAYER
  8
0
  9
$CELTYPE
  6
ByLayer
  9
$CECOLOR
 62
   256
  9
$CELTSCALE
 40
1.0
  9
$DISPSILH
 70
     0
  9
$DIMSCALE
 40
1.0
  9
$DIMASZ
 40
3.0
  9
$DIMEXO
 40
0.0
  9
$DIMDLI
 40
3.75
  9
$DIMRND
 40
0.0
  9
$DIMDLE
 40
0.0
  9
$DIMEXE
 40
1.0
  9
$DIMTP
 40
0.0
  9
$DIMTM
 40
0.0
  9
$DIMTXT
 40
2.0
  9
$DIMCEN
 40
2.5
  9
$DIMTSZ
 40
0.0
  9
$DIMTOL
 70
     0
  9
$DIMLIM
 70
     0
  9
$DIMTIH
 70
     1
  9
$DIMTOH
 70
     1
  9
$DIMSE1
 70
     0
  9
$DIMSE2
 70
     0
  9
$DIMTAD
 70
     1
  9
$DIMZIN
 70
     0
  9
$DIMBLK
  1

  9
$DIMASO
 70
     1
  9
$DIMSHO
 70
     1
  9
$DIMPOST
  1

  9
$DIMAPOST
  1

  9
$DIMALT
 70
     0
  9
$DIMALTD
 70
     3
  9
$DIMALTF
 40
0.0393700787
  9
$DIMLFAC
 40
1.0
  9
$DIMTOFL
 70
     1
  9
$DIMTVP
 40
0.0
  9
$DIMTIX
 70
     0
  9
$DIMSOXD
 70
     0
  9
$DIMSAH
 70
     0
  9
$DIMBLK1
  1

  9
$DIMBLK2
  1

  9
$DIMSTYLE
  2
ISO-25
  9
$DIMCLRD
 70
     0
  9
$DIMCLRE
 70
     0
  9
$DIMCLRT
 70
     0
  9
$DIMTFAC
 40
1.0
  9
$DIMGAP
 40
1.524
  9
$DIMJUST
 70
     0
  9
$DIMSD1
 70
     0
  9
$DIMSD2
 70
     0
  9
$DIMTOLJ
 70
     0
  9
$DIMTZIN
 70
     0
  9
$DIMALTZ
 70
     0
  9
$DIMALTTZ
 70
     0
  9
$DIMUPT
 70
     0
  9
$DIMDEC
 70
     2
  9
$DIMTDEC
 70
     3
  9
$DIMALTU
 70
     2
  9
$DIMALTTD
 70
     3
  9
$DIMTXSTY
  7
Standard
  9
$DIMAUNIT
 70
     0
  9
$DIMADEC
 70
     2
  9
$DIMALTRND
 40
0.0
  9
$DIMAZIN
 70
     0
  9
$DIMDSEP
 70
    44
  9
$DIMATFIT
 70
     3
  9
$DIMFRAC
 70
     0
  9
$DIMLDRBLK
  1

  9
$DIMLUNIT
 70
     2
  9
$DIMLWD
 70
    -2
  9
$DIMLWE
 70
    -2
  9
$DIMTMOVE
 70
     0
  9
$LUNITS
 70
     2
  9
$LUPREC
 70
     2
  9
$SKETCHINC
 40
1.0
  9
$FILLETRAD
 40
10.0
  9
$AUNITS
 70
     0
  9
$AUPREC
 70
     2
  9
$MENU
  1
.
  9
$ELEVATION
 40
0.0
  9
$PELEVATION
 40
0.0
  9
$THICKNESS
 40
0.0
  9
$LIMCHECK
 70
     0
  9
$CHAMFERA
 40
0.0
  9
$CHAMFERB
 40
0.0
  9
$CHAMFERC
 40
0.0
  9
$CHAMFERD
 40
0.0
  9
$SKPOLY
 70
     0
  9
$TDCREATE
 40
2457662.417209132
  9
$TDUCREATE
 40
2457662.333875799
  9
$TDUPDATE
 40
2457662.417210278
  9
$TDUUPDATE
 40
2457662.333876945
  9
$TDINDWG
 40
0.0000000116
  9
$TDUSRTIMER
 40
0.0000000116
  9
$USRTIMER
 70
     1
  9
$ANGBASE
 50
0.0
  9
$ANGDIR
 70
     0
  9
$PDMODE
 70
     0
  9
$PDSIZE
 40
-1.0
  9
$PLINEWID
 40
0.0
  9
$SPLFRAME
 70
     0
  9
$SPLINETYPE
 70
     6
  9
$SPLINESEGS
 70
     8
  9
$HANDSEED
  5
204
  9
$SURFTAB1
 70
     6
  9
$SURFTAB2
 70
     6
  9
$SURFTYPE
 70
     6
  9
$SURFU
 70
     6
  9
$SURFV
 70
     6
  9
$UCSBASE
  2

  9
$UCSNAME
  2

  9
$UCSORG
 10
0.0
 20
0.0
 30
0.0
  9
$UCSXDIR
 10
1.0
 20
0.0
 30
0.0
  9
$UCSYDIR
 10
0.0
 20
1.0
 30
0.0
  9
$UCSORTHOREF
  2

  9
$UCSORTHOVIEW
 70
     0
  9
$UCSORGTOP
 10
0.0
 20
0.0
 30
0.0
  9
$UCSORGBOTTOM
 10
0.0
 20
0.0
 30
0.0
  9
$UCSORGLEFT
 10
0.0
 20
0.0
 30
0.0
  9
$UCSORGRIGHT
 10
0.0
 20
0.0
 30
0.0
  9
$UCSORGFRONT
 10
0.0
 20
0.0
 30
0.0
  9
$UCSORGBACK
 10
0.0
 20
0.0
 30
0.0
  9
$PUCSBASE
  2

  9
$PUCSNAME
  2

  9
$PUCSORG
 10
0.0
 20
0.0
 30
0.0
  9
$PUCSXDIR
 10
1.0
 20
0.0
 30
0.0
  9
$PUCSYDIR
 10
0.0
 20
1.0
 30
0.0
  9
$PUCSORTHOREF
  2

  9
$PUCSORTHOVIEW
 70
     0
  9
$PUCSORGTOP
 10
0.0
 20
0.0
 30
0.0
  9
$PUCSORGBOTTOM
 10
0.0
 20
0.0
 30
0.0
  9
$PUCSORGLEFT
 10
0.0
 20
0.0
 30
0.0
  9
$PUCSORGRIGHT
 10
0.0
 20
0.0
 30
0.0
  9
$PUCSORGFRONT
 10
0.0
 20
0.0
 30
0.0
  9
$PUCSORGBACK
 10
0.0
 20
0.0
 30
0.0
  9
$USERI1
 70
     0
  9
$USERI2
 70
     0
  9
$USERI3
 70
     0
  9
$USERI4
 70
     0
  9
$USERI5
 70
     0
  9
$USERR1
 40
0.0
  9
$USERR2
 40
0.0
  9
$USERR3
 40
0.0
  9
$USERR4
 40
0.0
  9
$USERR5
 40
0.0
  9
$WORLDVIEW
 70
     1
  9
$SHADEDGE
 70
     3
  9
$SHADEDIF
 70
    70
  9
$TILEMODE
 70
     1
  9
$MAXACTVP
 70
    64
  9
$PINSBASE
 10
0.0
 20
0.0
 30
0.0
  9
$PLIMCHECK
 70
     0
  9
$PEXTMIN
 10
1.0000000000E+20
 20
1.0000000000E+20
 30
1.0000000000E+20
  9
$PEXTMAX
 10
-1.0000000000E+20
 20
-1.0000000000E+20
 30
-1.0000000000E+20
  9
$PLIMMIN
 10
0.0
 20
0.0
  9
$PLIMMAX
 10
420.0
 20
297.0
  9
$UNITMODE
 70
     0
  9
$VISRETAIN
 70
     1
  9
$PLINEGEN
 70
     0
  9
$PSLTSCALE
 70
     1
  9
$TREEDEPTH
 70
  3020
  9
$CMLSTYLE
  2
Standard
  9
$CMLJUST
 70
     0
  9
$CMLSCALE
 40
20.0
  9
$PROXYGRAPHICS
 70
     1
  9
$MEASUREMENT
 70
     1
  9
$CELWEIGHT
370
    -1
  9
$ENDCAPS
280
     0
  9
$JOINSTYLE
280
     0
  9
$LWDISPLAY
290
     1
  9
$INSUNITS
 70
     4
  9
$HYPERLINKBASE
  1

  9
$STYLESHEET
  1

  9
$XEDIT
290
     1
  9
$CEPSNTYPE
380
     0
  9
$PSTYLEMODE
290
     1
  9
$FINGERPRINTGUID
  2
{6981D746-5E8D-4068-9ADF-C1CD4EC750EF}
  9
$VERSIONGUID
  2
{FAEB1C32-E019-11D5-929B-00C0DF256EC4}
  9
$EXTNAMES
290
     1
  9
$PSVPSCALE
 40
0.0
  9
$OLESTARTUP
290
     0
  0
ENDSEC
  0
SECTION
  2
CLASSES
  0
CLASS
  1
ACDBDICTIONARYWDFLT
  2
AcDbDictionaryWithDefault
  3
ObjectDBX Classes
 90
        0
280
     0
281
     0
  0
CLASS
  1
VISUALSTYLE
  2
AcDbVisualStyle
  3
ObjectDBX Classes
 90
     4095
280
     0
281
     0
  0
CLASS
  1
MATERIAL
  2
AcDbMaterial
  3
ObjectDBX Classes
 90
     1153
280
     0
281
     0
  0
CLASS
  1
SCALE
  2
AcDbScale
  3
ObjectDBX Classes
 90
     1153
280
     0
281
     0
  0
CLASS
  1
TABLESTYLE
  2
AcDbTableStyle
  3
ObjectDBX Classes
 90
     4095
280
     0
281
     0
  0
CLASS
  1
MLEADERSTYLE
  2
AcDbMLeaderStyle
  3
ACDB_MLEADERSTYLE_CLASS
 90
     4095
280
     0
281
     0
  0
CLASS
  1
SUN
  2
AcDbSun
  3
SCENEOE
 90
     1153
280
     0
281
     0
  0
CLASS
  1
ACDBPLACEHOLDER
  2
AcDbPlaceHolder
  3
ObjectDBX Classes
 90
        0
280
     0
281
     0
  0
CLASS
  1
LAYOUT
  2
AcDbLayout
  3
ObjectDBX Classes
 90
        0
280
     0
281
     0
  0
ENDSEC
  0
SECTION
  2
TABLES
  0
TABLE
  2
VPORT
  5
8
330
0
100
AcDbSymbolTable
 70
     1
  0
VPORT
  5
29
330
8
100
AcDbSymbolTableRecord
100
AcDbViewportTableRecord
  2
*Active
 70
     0
 10
0.0
 20
0.0
 11
1.0
 21
1.0
 12
148.5
 22
105.0
 13
0.0
 23
0.0
 14
10.0
 24
10.0
 15
10.0
 25
10.0
 16
0.0
 26
0.0
 36
1.0
 17
0.0
 27
0.0
 37
0.0
 40
210.0
 41
1.4142857143
 42
50.0
 43
0.0
 44
0.0
 50
0.0
 51
0.0
 71
     0
 72
  2000
 73
     1
 74
     3
 75
     0
 76
     0
 77
     0
 78
     0
281
     0
 65
     1
110
0.0
120
0.0
130
0.0
111
1.0
121
0.0
131
0.0
112
0.0
122
1.0
132
0.0
 79
     0
146
0.0
  0
ENDTAB
  0
TABLE
  2
LTYPE
  5
5
330
0
100
AcDbSymbolTable
 70
     6
  0
LTYPE
  5
14
330
5
100
AcDbSymbolTableRecord
100
AcDbLinetypeTableRecord
  2
ByBlock
 70
     0
  3

 72
    65
 73
     0
 40
0.0
  0
LTYPE
  5
15
330
5
100
AcDbSymbolTableRecord
100
AcDbLinetypeTableRecord
  2
ByLayer
 70
     0
  3

 72
    65
 73
     0
 40
0.0
  0
LTYPE
  5
16
330
5
100
AcDbSymbolTableRecord
100
AcDbLinetypeTableRecord
  2
Continuous
 70
     0
  3
Solid line
 72
    65
 73
     0
 40
0.0
  0
LTYPE
  5
6E
330
5
100
AcDbSymbolTableRecord
100
AcDbLinetypeTableRecord
  2
HIDDEN
 70
     0
  3
Hidden __ __ __ __ __ __ __ __ __ __ __ __ __ __
 72
    65
 73
     2
 40
1.905
 49
1.27
 74
     0
 49
-0.635
 74
     0
  0
LTYPE
  5
6F
330
5
100
AcDbSymbolTableRecord
100
AcDbLinetypeTableRecord
  2
PHANTOM
 70
     0
  3
Phantom ______  __  __  ______  __  __  ______
 72
    65
 73
     6
 40
12.7
 49
6.35
 74
     0
 49
-1.27
 74
     0
 49
1.27
 74
     0
 49
-1.27
 74
     0
 49
1.27
 74
     0
 49
-1.27
 74
     0
  0
LTYPE
  5
70
330
5
100
AcDbSymbolTableRecord
100
AcDbLinetypeTableRecord
  2
CENTER
 70
     0
  3
Center ____ _ ____ _ ____ _ ____ _ ____ _ ____
 72
    65
 73
     4
 40
10.16
 49
6.35
 74
     0
 49
-1.27
 74
     0
 49
1.27
 74
     0
 49
-1.27
 74
     0
  0
LTYPE
  5
71
330
5
100
AcDbSymbolTableRecord
100
AcDbLinetypeTableRecord
  2
CENTERX2
 70
     0
  3
Center (2x) ________  __  ________  __  _____
 72
    65
 73
     4
 40
20.32
 49
12.7
 74
     0
 49
-2.54
 74
     0
 49
2.54
 74
     0
 49
-2.54
 74
     0
  0
LTYPE
  5
72
330
5
100
AcDbSymbolTableRecord
100
AcDbLinetypeTableRecord
  2
DOT2
 70
     0
  3
Dot (.5x) ........................................
 72
    65
 73
     2
 40
0.635
 49
0.0
 74
     0
 49
-0.635
 74
     0
  0
ENDTAB
  0
TABLE
  2
LAYER
  5
2
330
0
100
AcDbSymbolTable
 70
     5
  0
LAYER
  5
10
330
2
100
AcDbSymbolTableRecord
100
AcDbLayerTableRecord
  2
0
 70
     0
 62
     7
  6
Continuous
370
    -3
390
F
  0
LAYER
  5
73
330
2
100
AcDbSymbolTableRecord
100
AcDbLayerTableRecord
  2
FORMAT
 70
     0
 62
     7
  6
Continuous
370
    -3
390
F
  0
LAYER
  5
74
330
2
100
AcDbSymbolTableRecord
100
AcDbLayerTableRecord
  2
VERMASSUNG
 70
     0
 62
     7
  6
Continuous
370
    -3
390
F
  0
LAYER
  5
75
330
2
100
AcDbSymbolTableRecord
100
AcDbLayerTableRecord
  2
KOPF_DÜNN
 70
     0
 62
     7
  6
Continuous
370
    -3
390
F
  0
LAYER
  5
76
330
2
100
AcDbSymbolTableRecord
100
AcDbLayerTableRecord
  2
KOPF_DICK
 70
     0
 62
     7
  6
Continuous
370
    15
390
F
  0
ENDTAB
  0
TABLE
  2
STYLE
  5
3
330
0
100
AcDbSymbolTable
 70
     2
  0
STYLE
  5
11
330
3
100
AcDbSymbolTableRecord
100
AcDbTextStyleTableRecord
  2
Standard
 70
     0
 40
0.0
 41
1.0
 50
0.0
 71
     0
 42
2.0
  3
txt
  4

  0
STYLE
  5
77
330
3
100
AcDbSymbolTableRecord
100
AcDbTextStyleTableRecord
  2
SLDTEXTSTYLE0
 70
     0
 40
0.0
 41
0.7
 50
0.0
 71
     0
 42
2.0
  3
TXT
  4

  0
ENDTAB
  0
TABLE
  2
VIEW
  5
6
330
0
100
AcDbSymbolTable
 70
     0
  0
ENDTAB
  0
TABLE
  2
UCS
  5
7
330
0
100
AcDbSymbolTable
 70
     0
  0
ENDTAB
  0
TABLE
  2
APPID
  5
9
330
0
100
AcDbSymbolTable
 70
     1
  0
APPID
  5
12
330
9
100
AcDbSymbolTableRecord
100
AcDbRegAppTableRecord
  2
ACAD
 70
     0
  0
ENDTAB
  0
TABLE
  2
DIMSTYLE
  5
A
330
0
100
AcDbSymbolTable
 70
     3
100
AcDbDimStyleTable
  0
DIMSTYLE
105
27
330
A
100
AcDbSymbolTableRecord
100
AcDbDimStyleTableRecord
  2
ISO-25
 70
     0
 41
2.5
 42
0.625
 43
3.75
 44
1.25
 73
     0
 74
     0
 77
     1
 78
     8
140
2.5
141
2.5
143
0.0393700787
147
0.625
171
     3
172
     1
178
     0
271
     2
272
     2
274
     3
278
    44
283
     0
284
     8
340
11
  0
DIMSTYLE
105
117
102
{ACAD_REACTORS
330
116
102
}
330
A
100
AcDbSymbolTableRecord
100
AcDbDimStyleTableRecord
  2
SLDDIMSTYLE0
 70
     0
 41
3.0
 44
0.0
 45
0.000000001
 73
     0
 74
     0
 77
     1
 78
    12
 79
     3
140
2.0
147
0.5
173
     1
178
     0
271
     3
272
     3
276
     2
284
    12
340
77
  0
DIMSTYLE
105
124
102
{ACAD_REACTORS
330
123
330
12F
330
139
330
145
330
151
102
}
330
A
100
AcDbSymbolTableRecord
100
AcDbDimStyleTableRecord
  2
SLDDIMSTYLE1
 70
     0
 41
3.0
 44
0.0
 45
0.000000001
 73
     0
 74
     0
 77
     1
 78
    12
 79
     3
140
2.0
147
0.5
173
     1
178
     0
271
     2
272
     3
276
     2
284
    12
340
77
  0
ENDTAB
  0
TABLE
  2
BLOCK_RECORD
  5
1
330
0
100
AcDbSymbolTable
 70
     7
  0
BLOCK_RECORD
  5
1F
330
1
100
AcDbSymbolTableRecord
100
AcDbBlockTableRecord
  2
*Model_Space
340
22
  0
BLOCK_RECORD
  5
1B
330
1
100
AcDbSymbolTableRecord
100
AcDbBlockTableRecord
  2
*Paper_Space
340
1E
  0
BLOCK_RECORD
  5
23
330
1
100
AcDbSymbolTableRecord
100
AcDbBlockTableRecord
  2
*Paper_Space0
340
26
  0
BLOCK_RECORD
  5
118
330
1
100
AcDbSymbolTableRecord
100
AcDbBlockTableRecord
  2
_D
340
0
  0
BLOCK_RECORD
  5
125
330
1
100
AcDbSymbolTableRecord
100
AcDbBlockTableRecord
  2
_D_1
340
0
  0
BLOCK_RECORD
  5
130
330
1
100
AcDbSymbolTableRecord
100
AcDbBlockTableRecord
  2
_D_2
340
0
  0
BLOCK_RECORD
  5
13A
330
1
100
AcDbSymbolTableRecord
100
AcDbBlockTableRecord
  2
_D_3
340
0
  0
BLOCK_RECORD
  5
146
330
1
100
AcDbSymbolTableRecord
100
AcDbBlockTableRecord
  2
_D_4
340
0
  0
BLOCK_RECORD
  5
152
330
1
100
AcDbSymbolTableRecord
100
AcDbBlockTableRecord
  2
_D_5
340
0
  0
ENDTAB
  0
ENDSEC
  0
SECTION
  2
BLOCKS
  0
BLOCK
  5
20
330
1F
100
AcDbEntity
  8
0
100
AcDbBlockBegin
  2
*Model_Space
 70
     0
 10
0.0
 20
0.0
 30
0.0
  3
*Model_Space
  1

  0
ENDBLK
  5
21
330
1F
100
AcDbEntity
  8
0
100
AcDbBlockEnd
  0
BLOCK
  5
1C
330
1B
100
AcDbEntity
 67
     1
  8
0
100
AcDbBlockBegin
  2
*Paper_Space
 70
     0
 10
0.0
 20
0.0
 30
0.0
  3
*Paper_Space
  1

  0
ENDBLK
  5
1D
330
1B
100
AcDbEntity
 67
     1
  8
0
100
AcDbBlockEnd
  0
BLOCK
  5
24
330
23
100
AcDbEntity
  8
0
100
AcDbBlockBegin
  2
*Paper_Space0
 70
     0
 10
0.0
 20
0.0
 30
0.0
  3
*Paper_Space0
  1

  0
ENDBLK
  5
25
330
23
100
AcDbEntity
  8
0
100
AcDbBlockEnd
  0
BLOCK
  5
119
330
118
100
AcDbEntity
  8
0
100
AcDbBlockBegin
  2
_D
 70
     0
 10
0.0
 20
0.0
 30
0.0
  3
_D
  1

  0
SOLID
  5
11B
330
118
100
AcDbEntity
  8
VERMASSUNG
100
AcDbTrace
 10
73.9399760568
 20
74.7892845798
 30
0.0
 11
74.3899760568
 21
77.7892845798
 31
0.0
 12
73.4899760568
 22
77.7892845798
 32
0.0
 13
73.4899760568
 23
77.7892845798
 33
0.0
  0
SOLID
  5
11C
330
118
100
AcDbEntity
  8
VERMASSUNG
100
AcDbTrace
 10
73.9399760568
 20
138.2892845798
 30
0.0
 11
73.4899760568
 21
135.2892845798
 31
0.0
 12
74.3899760568
 22
135.2892845798
 32
0.0
 13
74.3899760568
 23
135.2892845798
 33
0.0
  0
LINE
  5
11D
330
118
100
AcDbEntity
  8
VERMASSUNG
100
AcDbLine
 10
167.8075366462
 20
74.7892845798
 30
0.0
 11
72.9399760568
 21
74.7892845798
 31
0.0
  0
LINE
  5
11E
330
118
100
AcDbEntity
  8
VERMASSUNG
100
AcDbLine
 10
167.8075366462
 20
138.2892845798
 30
0.0
 11
72.9399760568
 21
138.2892845798
 31
0.0
  0
LINE
  5
11F
330
118
100
AcDbEntity
  8
VERMASSUNG
100
AcDbLine
 10
73.9399760568
 20
74.7892845798
 30
0.0
 11
73.9399760568
 21
138.2892845798
 31
0.0
  0
MTEXT
  5
120
330
118
100
AcDbEntity
  8
VERMASSUNG
100
AcDbMText
 10
71.1618408006
 20
97.2355925097
 30
0.0
 40
2.0
 41
0.0
 71
     1
 72
     1
  1
CAT 40
  7
SLDTEXTSTYLE0
 11
3.391901413832837E-15
 21
1.0
 31
0.0
 73
     1
 44
1.0
  0
MTEXT
  5
121
330
118
100
AcDbEntity
  8
VERMASSUNG
100
AcDbMText
 10
71.3618407519
 20
107.4355919465
 30
0.0
 40
2.0
 41
0.0
 71
     1
 72
     1
  1
%%c
  7
SLDTEXTSTYLE0
 11
3.391901413832837E-15
 21
1.0
 31
0.0
 73
     1
 44
1.0
  0
MTEXT
  5
122
330
118
100
AcDbEntity
  8
VERMASSUNG
100
AcDbMText
 10
71.3618404609
 20
111.0449848887
 30
0.0
 40
2.0
 41
0.0
 71
     1
 72
     1
  1
63.5
  7
SLDTEXTSTYLE0
 11
3.391901413832837E-15
 21
1.0
 31
0.0
 73
     1
 44
1.0
  0
ENDBLK
  5
11A
330
118
100
AcDbEntity
  8
0
100
AcDbBlockEnd
  0
BLOCK
  5
126
330
125
100
AcDbEntity
  8
0
100
AcDbBlockBegin
  2
_D_1
 70
     0
 10
0.0
 20
0.0
 30
0.0
  3
_D_1
  1

  0
SOLID
  5
128
330
125
100
AcDbEntity
  8
VERMASSUNG
100
AcDbTrace
 10
215.6426486797
 20
117.5392845798
 30
0.0
 11
215.1926486797
 21
114.5392845798
 31
0.0
 12
216.0926486797
 22
114.5392845798
 32
0.0
 13
216.0926486797
 23
114.5392845798
 33
0.0
  0
SOLID
  5
129
330
125
100
AcDbEntity
  8
VERMASSUNG
100
AcDbTrace
 10
215.6426486797
 20
95.5392845798
 30
0.0
 11
216.0926486797
 21
98.5392845798
 31
0.0
 12
215.1926486797
 22
98.5392845798
 32
0.0
 13
215.1926486797
 23
98.5392845798
 33
0.0
  0
LINE
  5
12A
330
125
100
AcDbEntity
  8
VERMASSUNG
100
AcDbLine
 10
197.7575366462
 20
117.5392845798
 30
0.0
 11
216.6426486797
 21
117.5392845798
 31
0.0
  0
LINE
  5
12B
330
125
100
AcDbEntity
  8
VERMASSUNG
100
AcDbLine
 10
197.7575366462
 20
95.5392845798
 30
0.0
 11
216.6426486797
 21
95.5392845798
 31
0.0
  0
LINE
  5
12C
330
125
100
AcDbEntity
  8
VERMASSUNG
100
AcDbLine
 10
215.6426486797
 20
117.5392845798
 30
0.0
 11
215.6426486797
 21
95.5392845798
 31
0.0
  0
MTEXT
  5
12D
330
125
100
AcDbEntity
  8
VERMASSUNG
100
AcDbMText
 10
213.0645131419
 20
103.3351084727
 30
0.0
 40
2.0
 41
0.0
 71
     1
 72
     1
  1
%%c
  7
SLDTEXTSTYLE0
 11
-7.044195017643634E-15
 21
1.0
 31
0.0
 73
     1
 44
1.0
  0
MTEXT
  5
12E
330
125
100
AcDbEntity
  8
VERMASSUNG
100
AcDbMText
 10
213.0645130837
 20
106.9440806663
 30
0.0
 40
2.0
 41
0.0
 71
     1
 72
     1
  1
22
  7
SLDTEXTSTYLE0
 11
-7.044195017643634E-15
 21
1.0
 31
0.0
 73
     1
 44
1.0
  0
ENDBLK
  5
127
330
125
100
AcDbEntity
  8
0
100
AcDbBlockEnd
  0
BLOCK
  5
131
330
130
100
AcDbEntity
  8
0
100
AcDbBlockBegin
  2
_D_2
 70
     0
 10
0.0
 20
0.0
 30
0.0
  3
_D_2
  1

  0
SOLID
  5
133
330
130
100
AcDbEntity
  8
VERMASSUNG
100
AcDbTrace
 10
149.3575366462
 20
142.9683887728
 30
0.0
 11
152.3575366462
 21
142.5183887728
 31
0.0
 12
152.3575366462
 22
143.4183887728
 32
0.0
 13
152.3575366462
 23
143.4183887728
 33
0.0
  0
SOLID
  5
134
330
130
100
AcDbEntity
  8
VERMASSUNG
100
AcDbTrace
 10
208.3575366462
 20
142.9683887728
 30
0.0
 11
205.3575366462
 21
143.4183887728
 31
0.0
 12
205.3575366462
 22
142.5183887728
 32
0.0
 13
205.3575366462
 23
142.5183887728
 33
0.0
  0
LINE
  5
135
330
130
100
AcDbEntity
  8
VERMASSUNG
100
AcDbLine
 10
149.3575366462
 20
128.7642845798
 30
0.0
 11
149.3575366462
 21
143.9683887728
 31
0.0
  0
LINE
  5
136
330
130
100
AcDbEntity
  8
VERMASSUNG
100
AcDbLine
 10
208.3575366462
 20
125.6392845798
 30
0.0
 11
208.3575366462
 21
143.9683887728
 31
0.0
  0
LINE
  5
137
330
130
100
AcDbEntity
  8
VERMASSUNG
100
AcDbLine
 10
149.3575366462
 20
142.9683887728
 30
0.0
 11
208.3575366462
 21
142.9683887728
 31
0.0
  0
MTEXT
  5
138
330
130
100
AcDbEntity
  8
VERMASSUNG
100
AcDbMText
 10
177.4578466359
 20
145.5465243687
 30
0.0
 40
2.0
 41
0.0
 71
     1
 72
     1
  1
59
  7
SLDTEXTSTYLE0
 73
     1
 44
1.0
  0
ENDBLK
  5
132
330
130
100
AcDbEntity
  8
0
100
AcDbBlockEnd
  0
BLOCK
  5
13B
330
13A
100
AcDbEntity
  8
0
100
AcDbBlockBegin
  2
_D_3
 70
     0
 10
0.0
 20
0.0
 30
0.0
  3
_D_3
  1

  0
ARC
  5
13D
330
13A
100
AcDbEntity
  8
VERMASSUNG
100
AcDbCircle
 10
197.0697637317
 20
138.8677317182
 30
0.0
 40
4.24705993853731
100
AcDbArc
 50
153.4349488229
 51
206.5650511771
  0
ARC
  5
13E
330
13A
100
AcDbEntity
  8
VERMASSUNG
100
AcDbCircle
 10
195.6453095608
 20
138.8677317182
 30
0.0
 40
4.247059938537297
100
AcDbArc
 50
333.4349488229
 51
26.5650511771
  0
SOLID
  5
13F
330
13A
100
AcDbEntity
  8
VERMASSUNG
100
AcDbTrace
 10
184.3575366462
 20
136.9683887728
 30
0.0
 11
187.3575366462
 21
136.5183887728
 31
0.0
 12
187.3575366462
 22
137.4183887728
 32
0.0
 13
187.3575366462
 23
137.4183887728
 33
0.0
  0
SOLID
  5
140
330
13A
100
AcDbEntity
  8
VERMASSUNG
100
AcDbTrace
 10
208.3575366462
 20
136.9683887728
 30
0.0
 11
205.3575366462
 21
137.4183887728
 31
0.0
 12
205.3575366462
 22
136.5183887728
 32
0.0
 13
205.3575366462
 23
136.5183887728
 33
0.0
  0
LINE
  5
141
330
13A
100
AcDbEntity
  8
VERMASSUNG
100
AcDbLine
 10
184.3575366462
 20
127.7642845798
 30
0.0
 11
184.3575366462
 21
137.9683887728
 31
0.0
  0
LINE
  5
142
330
13A
100
AcDbEntity
  8
VERMASSUNG
100
AcDbLine
 10
208.3575366462
 20
125.6392845798
 30
0.0
 11
208.3575366462
 21
137.9683887728
 31
0.0
  0
LINE
  5
143
330
13A
100
AcDbEntity
  8
VERMASSUNG
100
AcDbLine
 10
184.3575366462
 20
136.9683887728
 30
0.0
 11
208.3575366462
 21
136.9683887728
 31
0.0
  0
MTEXT
  5
144
330
13A
100
AcDbEntity
  8
VERMASSUNG
100
AcDbMText
 10
194.8585778409
 20
139.5465243687
 30
0.0
 40
2.0
 41
0.0
 71
     1
 72
     1
  1
24
  7
SLDTEXTSTYLE0
 73
     1
 44
1.0
  0
ENDBLK
  5
13C
330
13A
100
AcDbEntity
  8
0
100
AcDbBlockEnd
  0
BLOCK
  5
147
330
146
100
AcDbEntity
  8
0
100
AcDbBlockBegin
  2
_D_4
 70
     0
 10
0.0
 20
0.0
 30
0.0
  3
_D_4
  1

  0
ARC
  5
149
330
146
100
AcDbEntity
  8
VERMASSUNG
100
AcDbCircle
 10
143.344677223
 20
150.8677317182
 30
0.0
 40
4.247059938537284
100
AcDbArc
 50
153.4349488229
 51
206.5650511771
  0
ARC
  5
14A
330
146
100
AcDbEntity
  8
VERMASSUNG
100
AcDbCircle
 10
146.1203960695
 20
150.8677317182
 30
0.0
 40
4.247059938537284
100
AcDbArc
 50
333.4349488229
 51
26.5650511771
  0
SOLID
  5
14B
330
146
100
AcDbEntity
  8
VERMASSUNG
100
AcDbTrace
 10
81.1075366462
 20
148.9683887728
 30
0.0
 11
84.1075366462
 21
148.5183887728
 31
0.0
 12
84.1075366462
 22
149.4183887728
 32
0.0
 13
84.1075366462
 23
149.4183887728
 33
0.0
  0
SOLID
  5
14C
330
146
100
AcDbEntity
  8
VERMASSUNG
100
AcDbTrace
 10
208.3575366462
 20
148.9683887728
 30
0.0
 11
205.3575366462
 21
149.4183887728
 31
0.0
 12
205.3575366462
 22
148.5183887728
 32
0.0
 13
205.3575366462
 23
148.5183887728
 33
0.0
  0
LINE
  5
14D
330
146
100
AcDbEntity
  8
VERMASSUNG
100
AcDbLine
 10
81.1075366462
 20
117.9464151768
 30
0.0
 11
81.1075366462
 21
149.9683887728
 31
0.0
  0
LINE
  5
14E
330
146
100
AcDbEntity
  8
VERMASSUNG
100
AcDbLine
 10
208.3575366462
 20
125.6392845798
 30
0.0
 11
208.3575366462
 21
149.9683887728
 31
0.0
  0
LINE
  5
14F
330
146
100
AcDbEntity
  8
VERMASSUNG
100
AcDbLine
 10
81.1075366462
 20
148.9683887728
 30
0.0
 11
208.3575366462
 21
148.9683887728
 31
0.0
  0
MTEXT
  5
150
330
146
100
AcDbEntity
  8
VERMASSUNG
100
AcDbMText
 10
141.1334913321
 20
151.5465243687
 30
0.0
 40
2.0
 41
0.0
 71
     1
 72
     1
  1
127.25
  7
SLDTEXTSTYLE0
 73
     1
 44
1.0
  0
ENDBLK
  5
148
330
146
100
AcDbEntity
  8
0
100
AcDbBlockEnd
  0
BLOCK
  5
153
330
152
100
AcDbEntity
  8
0
100
AcDbBlockBegin
  2
_D_5
 70
     0
 10
0.0
 20
0.0
 30
0.0
  3
_D_5
  1

  0
SOLID
  5
155
330
152
100
AcDbEntity
  8
VERMASSUNG
100
AcDbTrace
 10
221.6426486797
 20
126.0392845798
 30
0.0
 11
221.1926486797
 21
123.0392845798
 31
0.0
 12
222.0926486797
 22
123.0392845798
 32
0.0
 13
222.0926486797
 23
123.0392845798
 33
0.0
  0
SOLID
  5
156
330
152
100
AcDbEntity
  8
VERMASSUNG
100
AcDbTrace
 10
221.6426486797
 20
87.0392845798
 30
0.0
 11
222.0926486797
 21
90.0392845798
 31
0.0
 12
221.1926486797
 22
90.0392845798
 32
0.0
 13
221.1926486797
 23
90.0392845798
 33
0.0
  0
LINE
  5
157
330
152
100
AcDbEntity
  8
VERMASSUNG
100
AcDbLine
 10
207.9575366462
 20
126.0392845798
 30
0.0
 11
222.6426486797
 21
126.0392845798
 31
0.0
  0
LINE
  5
158
330
152
100
AcDbEntity
  8
VERMASSUNG
100
AcDbLine
 10
207.9575366462
 20
87.0392845798
 30
0.0
 11
222.6426486797
 21
87.0392845798
 31
0.0
  0
LINE
  5
159
330
152
100
AcDbEntity
  8
VERMASSUNG
100
AcDbLine
 10
221.6426486797
 20
126.0392845798
 30
0.0
 11
221.6426486797
 21
87.0392845798
 31
0.0
  0
MTEXT
  5
15A
330
152
100
AcDbEntity
  8
VERMASSUNG
100
AcDbMText
 10
218.8645134235
 20
100.3342845964
 30
0.0
 40
2.0
 41
0.0
 71
     1
 72
     1
  1
ST4
  7
SLDTEXTSTYLE0
 11
-7.044195017643634E-15
 21
1.0
 31
0.0
 73
     1
 44
1.0
  0
MTEXT
  5
15B
330
152
100
AcDbEntity
  8
VERMASSUNG
100
AcDbMText
 10
219.0645133748
 20
106.3342846486
 30
0.0
 40
2.0
 41
0.0
 71
     1
 72
     1
  1
%%c
  7
SLDTEXTSTYLE0
 11
-7.044195017643634E-15
 21
1.0
 31
0.0
 73
     1
 44
1.0
  0
MTEXT
  5
15C
330
152
100
AcDbEntity
  8
VERMASSUNG
100
AcDbMText
 10
218.8645134235
 20
109.9442846629
 30
0.0
 40
2.0
 41
0.0
 71
     1
 72
     1
  1
39
  7
SLDTEXTSTYLE0
 11
-7.044195017643634E-15
 21
1.0
 31
0.0
 73
     1
 44
1.0
  0
ENDBLK
  5
154
330
152
100
AcDbEntity
  8
0
100
AcDbBlockEnd
  0
ENDSEC
  0
SECTION
  2
ENTITIES
  0
MTEXT
  5
78
330
1F
100
AcDbEntity
  8
KOPF_DÜNN
100
AcDbMText
 10
13.8892156294
 20
23.8442973028
 30
0.0
 40
3.0
 41
0.0
 71
     1
 72
     1
  1
104.340.039.059
  7
SLDTEXTSTYLE0
 73
     1
 44
1.0
  0
MTEXT
  5
79
330
1F
100
AcDbEntity
  8
VERMASSUNG
100
AcDbMText
 10
13.9329988022
 20
28.8834360957
 30
0.0
 40
3.0
 41
0.0
 71
     1
 72
     1
  1
Aufnahme_Master shank ST4
  7
SLDTEXTSTYLE0
 73
     1
 44
1.0
  0
MTEXT
  5
7A
330
1F
100
AcDbEntity
  8
VERMASSUNG
100
AcDbMText
 10
98.8601118557
 20
13.8365368761
 30
0.0
 40
2.0
 41
0.0
 71
     1
 72
     1
  1
Datum: 07.05.2008
  7
SLDTEXTSTYLE0
 73
     1
 44
1.0
  0
MTEXT
  5
7B
330
1F
100
AcDbEntity
  8
VERMASSUNG
100
AcDbMText
 10
13.933048693
 20
18.0482802738
 30
0.0
 40
2.0
 41
0.0
 71
     1
 72
     1
  1
ANSI B5.50 CAT 40
  7
SLDTEXTSTYLE0
 73
     1
 44
1.0
  0
MTEXT
  5
7C
330
1F
100
AcDbEntity
  8
VERMASSUNG
100
AcDbMText
 10
13.9808475933
 20
13.9090974274
 30
0.0
 40
2.0
 41
0.0
 71
     1
 72
     1
  1
Gewicht: 1155g
  7
SLDTEXTSTYLE0
 73
     1
 44
1.0
  0
ARC
  5
7D
330
1F
100
AcDbEntity
  8
0
  6
Continuous
 62
     7
370
    15
100
AcDbCircle
 10
169.0075366462
 20
83.7142845798
 30
0.0
 40
0.6000000000000125
100
AcDbArc
 50
90.0
 51
134.888427568
  0
ARC
  5
7E
330
1F
100
AcDbEntity
  8
0
  6
Continuous
 62
     7
370
    15
100
AcDbCircle
 10
169.0075366462
 20
129.3642845798
 30
0.0
 40
0.5999999999999943
100
AcDbArc
 50
180.0
 51
270.0
  0
ARC
  5
7F
330
1F
100
AcDbEntity
  8
0
  6
Continuous
 62
     7
370
    15
100
AcDbCircle
 10
151.9325366462
 20
83.7142845798
 30
0.0
 40
0.6000000000000192
100
AcDbArc
 50
45.0660568056
 51
90.0
  0
ARC
  5
80
330
1F
100
AcDbEntity
  8
0
  6
Continuous
 62
     7
370
    15
100
AcDbCircle
 10
151.9325366462
 20
129.3642845798
 30
0.0
 40
0.5999999999999943
100
AcDbArc
 50
270.0
 51
0.0
  0
LINE
  5
81
330
1F
100
AcDbEntity
  8
0
  6
Continuous
 62
     7
370
    15
100
AcDbLine
 10
149.3575366462
 20
128.7642845798
 30
0.0
 11
81.9632297532
 21
118.9359481579
 31
0.0
  0
LINE
  5
82
330
1F
100
AcDbEntity
  8
0
  6
Continuous
 62
     7
370
    15
100
AcDbLine
 10
81.9632297532
 20
94.1426210017
 30
0.0
 11
149.3575366462
 21
84.3142845798
 31
0.0
  0
LINE
  5
83
330
1F
100
AcDbEntity
  8
0
  6
Continuous
 62
     7
370
    15
100
AcDbLine
 10
149.3575366462
 20
84.3142845798
 30
0.0
 11
151.9325366462
 21
84.3142845798
 31
0.0
  0
LINE
  5
84
330
1F
100
AcDbEntity
  8
0
  6
Continuous
 62
     7
370
    15
100
AcDbLine
 10
151.9325366462
 20
128.7642845798
 30
0.0
 11
149.3575366462
 21
128.7642845798
 31
0.0
  0
ARC
  5
85
330
1F
100
AcDbEntity
  8
0
  6
Continuous
 62
     7
370
    15
100
AcDbCircle
 10
183.3575366462
 20
85.3142845798
 30
0.0
 40
1.0
100
AcDbArc
 50
270.0
 51
0.0
  0
ARC
  5
86
330
1F
100
AcDbEntity
  8
0
  6
Continuous
 62
     7
370
    15
100
AcDbCircle
 10
183.3575366462
 20
127.7642845798
 30
0.0
 40
1.0
100
AcDbArc
 50
0.0
 51
90.0
  0
LINE
  5
87
330
1F
100
AcDbEntity
  8
0
  6
Continuous
 62
     7
370
    15
100
AcDbLine
 10
169.0075366462
 20
84.3142845798
 30
0.0
 11
183.3575366462
 21
84.3142845798
 31
0.0
  0
LINE
  5
88
330
1F
100
AcDbEntity
  8
0
  6
Continuous
 62
     7
370
    15
100
AcDbLine
 10
183.3575366462
 20
128.7642845798
 30
0.0
 11
169.0075366462
 21
128.7642845798
 31
0.0
  0
ARC
  5
89
330
1F
100
AcDbEntity
  8
0
  6
Continuous
 62
     7
370
    15
100
AcDbCircle
 10
185.3575366462
 20
86.0392845798
 30
0.0
 40
1.0
100
AcDbArc
 50
90.0
 51
180.0
  0
ARC
  5
8A
330
1F
100
AcDbEntity
  8
0
  6
Continuous
 62
     7
370
    15
100
AcDbCircle
 10
185.3575366462
 20
127.0392845798
 30
0.0
 40
1.0
100
AcDbArc
 50
180.0
 51
270.0
  0
LINE
  5
8B
330
1F
100
AcDbEntity
  8
0
  6
Continuous
 62
     7
370
    15
100
AcDbLine
 10
207.9575366462
 20
87.0392845798
 30
0.0
 11
208.3575366462
 21
87.4392845798
 31
0.0
  0
LINE
  5
8C
330
1F
100
AcDbEntity
  8
0
  6
Continuous
 62
     7
370
    15
100
AcDbLine
 10
208.3575366462
 20
125.6392845798
 30
0.0
 11
207.9575366462
 21
126.0392845798
 31
0.0
  0
LINE
  5
8D
330
1F
100
AcDbEntity
  8
0
  6
Continuous
 62
     7
370
    15
100
AcDbLine
 10
207.9575366462
 20
126.0392845798
 30
0.0
 11
185.3575366462
 21
126.0392845798
 31
0.0
  0
LINE
  5
8E
330
1F
100
AcDbEntity
  8
0
  6
Continuous
 62
     7
370
    15
100
AcDbLine
 10
185.3575366462
 20
87.0392845798
 30
0.0
 11
207.9575366462
 21
87.0392845798
 31
0.0
  0
ARC
  5
8F
330
1F
100
AcDbEntity
  8
0
  6
Continuous
 62
     7
370
    15
100
AcDbCircle
 10
82.1075366462
 20
95.1321539827
 30
0.0
 40
1.00000000000001
100
AcDbArc
 50
180.0
 51
261.7028550302
  0
ARC
  5
90
330
1F
100
AcDbEntity
  8
0
  6
Continuous
 62
     7
370
    15
100
AcDbCircle
 10
82.1075366462
 20
117.9464151768
 30
0.0
 40
0.9999999999999959
100
AcDbArc
 50
98.2971449698
 51
180.0
  0
SPLINE
  5
91
330
1F
100
AcDbEntity
  8
0
  6
Continuous
 62
     7
370
    15
100
AcDbSpline
210
0.0
220
0.0
230
1.0
 70
    24
 71
     3
 72
    11
 73
     7
 74
     0
 42
0.000000001
 43
0.00000001
 40
0.0
 40
0.0
 40
0.0
 40
0.0
 40
0.1285561766307357
 40
0.4801535797842237
 40
0.8150691831753866
 40
1.0
 40
1.0
 40
1.0
 40
1.0
 10
199.4622371846167
 20
104.5392845797593
 30
0.0
 10
199.36923079743
 20
104.5392845797593
 30
0.0
 10
199.0218546470115
 20
104.5392845797593
 30
0.0
 10
198.3704465633402
 20
104.5392845797593
 30
0.0
 10
197.6651090161515
 20
104.5392845797593
 30
0.0
 10
197.2872545345452
 20
104.5392845797593
 30
0.0
 10
197.1528361078582
 20
104.5392845797593
 30
0.0
  0
SPLINE
  5
92
330
1F
100
AcDbEntity
  8
0
  6
Continuous
 62
     7
370
    15
100
AcDbSpline
210
0.0
220
0.0
230
1.0
 70
    24
 71
     3
 72
    11
 73
     7
 74
     0
 42
0.000000001
 43
0.00000001
 40
0.0
 40
0.0
 40
0.0
 40
0.0
 40
0.2164526859271175
 40
0.4403055508633993
 40
0.7518960204221881
 40
1.0
 40
1.0
 40
1.0
 40
1.0
 10
200.616937722996
 20
106.5392845797593
 30
0.0
 10
200.5378406201073
 20
106.4022843788246
 30
0.0
 10
200.3769422080135
 20
106.123600154221
 30
0.0
 10
200.0783560084873
 20
105.6064336862026
 30
0.0
 10
199.758064864464
 20
105.05167315154
 30
0.0
 10
199.5530965153983
 20
104.6966575570146
 30
0.0
 10
199.4622371846167
 20
104.5392845797593
 30
0.0
  0
SPLINE
  5
93
330
1F
100
AcDbEntity
  8
0
  6
Continuous
 62
     7
370
    15
100
AcDbSpline
210
0.0
220
0.0
230
1.0
 70
    24
 71
     3
 72
    11
 73
     7
 74
     0
 42
0.000000001
 43
0.00000001
 40
0.0
 40
0.0
 40
0.0
 40
0.0
 40
0.2164526859271174
 40
0.440305550863398
 40
0.751896020422188
 40
1.0
 40
1.0
 40
1.0
 40
1.0
 10
199.4622371846167
 20
108.5392845797593
 30
0.0
 10
199.5413342875054
 20
108.4022843788246
 30
0.0
 10
199.7022326995992
 20
108.123600154221
 30
0.0
 10
200.0008188991254
 20
107.6064336862026
 30
0.0
 10
200.3211100431487
 20
107.05167315154
 30
0.0
 10
200.5260783922144
 20
106.6966575570146
 30
0.0
 10
200.616937722996
 20
106.5392845797593
 30
0.0
  0
SPLINE
  5
94
330
1F
100
AcDbEntity
  8
0
  6
Continuous
 62
     7
370
    15
100
AcDbSpline
210
0.0
220
0.0
230
1.0
 70
    24
 71
     3
 72
    11
 73
     7
 74
     0
 42
0.000000001
 43
0.00000001
 40
0.0
 40
0.0
 40
0.0
 40
0.0
 40
0.1849308168246135
 40
0.5198464202157763
 40
0.8714438233692643
 40
1.0
 40
1.0
 40
1.0
 40
1.0
 10
197.1528361078582
 20
108.5392845797593
 30
0.0
 10
197.2872545345452
 20
108.5392845797593
 30
0.0
 10
197.6651090161515
 20
108.5392845797593
 30
0.0
 10
198.3704465633402
 20
108.5392845797593
 30
0.0
 10
199.0218546470115
 20
108.5392845797593
 30
0.0
 10
199.36923079743
 20
108.5392845797593
 30
0.0
 10
199.4622371846167
 20
108.5392845797593
 30
0.0
  0
SPLINE
  5
95
330
1F
100
AcDbEntity
  8
0
  6
Continuous
 62
     7
370
    15
100
AcDbSpline
210
0.0
220
0.0
230
1.0
 70
    24
 71
     3
 72
    10
 73
     6
 74
     0
 42
0.000000001
 43
0.00000001
 40
0.0
 40
0.0
 40
0.0
 40
0.0
 40
0.4391222274230479
 40
0.7513714712594598
 40
1.0
 40
1.0
 40
1.0
 40
1.0
 10
195.998135569479
 20
106.5392845797593
 30
0.0
 10
196.1634421809413
 20
106.825604029639
 30
0.0
 10
196.4462943439762
 20
107.3155183470463
 30
0.0
 10
196.8574665322508
 20
108.0276894677971
 30
0.0
 10
197.0621174773813
 20
108.3821553025801
 30
0.0
 10
197.1528361078582
 20
108.5392845797593
 30
0.0
  0
SPLINE
  5
96
330
1F
100
AcDbEntity
  8
0
  6
Continuous
 62
     7
370
    15
100
AcDbSpline
210
0.0
220
0.0
230
1.0
 70
    24
 71
     3
 72
    10
 73
     6
 74
     0
 42
0.000000001
 43
0.00000001
 40
0.0
 40
0.0
 40
0.0
 40
0.0
 40
0.439122227423046
 40
0.7513714712594577
 40
1.0
 40
1.0
 40
1.0
 40
1.0
 10
197.1528361078582
 20
104.5392845797593
 30
0.0
 10
196.9875294963959
 20
104.825604029639
 30
0.0
 10
196.7046773333609
 20
105.3155183470463
 30
0.0
 10
196.2935051450864
 20
106.0276894677971
 30
0.0
 10
196.0888541999559
 20
106.3821553025801
 30
0.0
 10
195.998135569479
 20
106.5392845797593
 30
0.0
  0
CIRCLE
  5
97
330
1F
100
AcDbEntity
  8
0
  6
Continuous
 62
     7
370
    15
100
AcDbCircle
 10
198.3075366462
 20
106.5392845798
 30
0.0
 40
2.40000000000002
  0
CIRCLE
  5
98
330
1F
100
AcDbEntity
  8
0
  6
Continuous
 62
     7
370
    15
100
AcDbCircle
 10
198.3075366462
 20
106.5392845798
 30
0.0
 40
3.620000000000019
  0
CIRCLE
  5
99
330
1F
100
AcDbEntity
  8
0
  6
Continuous
 62
     7
370
    15
100
AcDbCircle
 10
198.3075366462
 20
106.5392845798
 30
0.0
 40
4.0
  0
ARC
  5
9A
330
1F
100
AcDbEntity
  8
0
  6
Continuous
 62
     7
370
    15
100
AcDbCircle
 10
198.3075366462
 20
106.5392845798
 30
0.0
 40
2.000000000000009
100
AcDbArc
 50
30.0
 51
90.0
  0
ARC
  5
9B
330
1F
100
AcDbEntity
  8
0
  6
Continuous
 62
     7
370
    15
100
AcDbCircle
 10
198.3075366462
 20
106.5392845798
 30
0.0
 40
2.000000000000016
100
AcDbArc
 50
330.0
 51
30.0
  0
ARC
  5
9C
330
1F
100
AcDbEntity
  8
0
  6
Continuous
 62
     7
370
    15
100
AcDbCircle
 10
198.3075366462
 20
106.5392845798
 30
0.0
 40
2.000000000000016
100
AcDbArc
 50
270.0
 51
330.0
  0
ARC
  5
9D
330
1F
100
AcDbEntity
  8
0
  6
Continuous
 62
     7
370
    15
100
AcDbCircle
 10
198.3075366462
 20
106.5392845798
 30
0.0
 40
1.999999999999986
100
AcDbArc
 50
90.0
 51
150.0
  0
ARC
  5
9E
330
1F
100
AcDbEntity
  8
0
  6
Continuous
 62
     7
370
    15
100
AcDbCircle
 10
198.3075366462
 20
106.5392845798
 30
0.0
 40
2.0
100
AcDbArc
 50
210.0
 51
270.0
  0
ARC
  5
9F
330
1F
100
AcDbEntity
  8
0
  6
Continuous
 62
     7
370
    15
100
AcDbCircle
 10
198.3075366462
 20
106.5392845798
 30
0.0
 40
1.999999999999967
100
AcDbArc
 50
150.0
 51
210.0
  0
LINE
  5
A0
330
1F
100
AcDbEntity
  8
0
  6
Continuous
 62
     7
370
    15
100
AcDbLine
 10
152.5325366462
 20
76.7726908882
 30
0.0
 11
152.5325366462
 21
136.3058782713
 31
0.0
  0
SPLINE
  5
A1
330
1F
100
AcDbEntity
  8
0
  6
Continuous
 62
     7
370
    15
100
AcDbSpline
210
0.0
220
0.0
230
1.0
 70
     8
 71
     3
 72
    10
 73
     6
 74
     0
 42
0.000000001
 43
0.00000001
 40
0.0
 40
0.0
 40
0.0
 40
0.0
 40
0.5
 40
0.5
 40
1.0
 40
1.0
 40
1.0
 40
1.0
 10
152.8215294824271
 20
136.9284615064483
 30
0.0
 10
152.7452217836176
 20
136.8579447253376
 30
0.0
 10
152.6775593223663
 20
136.7722411728838
 30
0.0
 10
152.5702504734093
 20
136.5607415083204
 30
0.0
 10
152.5325366462375
 20
136.4365885480692
 30
0.0
 10
152.5325366462375
 20
136.3058782713458
 30
0.0
  0
SPLINE
  5
A2
330
1F
100
AcDbEntity
  8
0
  6
Continuous
 62
     7
370
    15
100
AcDbSpline
210
0.0
220
0.0
230
1.0
 70
     8
 71
     3
 72
     8
 73
     4
 74
     0
 42
0.000000001
 43
0.00000001
 40
0.0
 40
0.0
 40
0.0
 40
0.0
 40
1.0
 40
1.0
 40
1.0
 40
1.0
 10
153.1325366462375
 20
136.9984791567739
 30
0.0
 10
153.0211154960232
 20
136.9984791567739
 30
0.0
 10
152.9131210654268
 20
136.9732123762068
 30
0.0
 10
152.8215294824271
 20
136.9284615064483
 30
0.0
  0
SPLINE
  5
A3
330
1F
100
AcDbEntity
  8
0
  6
Continuous
 62
     7
370
    15
100
AcDbSpline
210
0.0
220
0.0
230
1.0
 70
     8
 71
     3
 72
    10
 73
     6
 74
     0
 42
0.000000001
 43
0.00000001
 40
0.0
 40
0.0
 40
0.0
 40
0.0
 40
0.5
 40
0.5
 40
1.0
 40
1.0
 40
1.0
 40
1.0
 10
152.7494523115972
 20
76.22479730081773
 30
0.0
 10
152.7981876324653
 20
76.1968894828492
 30
0.0
 10
152.8555538414805
 20
76.17307955167931
 30
0.0
 10
152.9858922390161
 20
76.13922733072326
 30
0.0
 10
153.0581886637399
 20
76.12957603830222
 30
0.0
 10
153.1325366462375
 20
76.12957603830222
 30
0.0
  0
SPLINE
  5
A4
330
1F
100
AcDbEntity
  8
0
  6
Continuous
 62
     7
370
    15
100
AcDbSpline
210
0.0
220
0.0
230
1.0
 70
     8
 71
     3
 72
    10
 73
     6
 74
     0
 42
0.000000001
 43
0.00000001
 40
0.0
 40
0.0
 40
0.0
 40
0.0
 40
0.5
 40
0.5
 40
1.0
 40
1.0
 40
1.0
 40
1.0
 10
152.7494523115972
 20
76.22479730081774
 30
0.0
 10
152.6911267766918
 20
76.29249821004407
 30
0.0
 10
152.6385673744463
 20
76.37297853504788
 30
0.0
 10
152.5593799713845
 20
76.55785167544339
 30
0.0
 10
152.5325366462375
 20
76.66346712023126
 30
0.0
 10
152.5325366462375
 20
76.77269088817273
 30
0.0
  0
SPLINE
  5
A5
330
1F
100
AcDbEntity
  8
0
  6
Continuous
 62
     7
370
    15
100
AcDbSpline
210
0.0
220
0.0
230
1.0
 70
     8
 71
     3
 72
     8
 73
     4
 74
     0
 42
0.000000001
 43
0.00000001
 40
0.0
 40
0.0
 40
0.0
 40
0.0
 40
1.0
 40
1.0
 40
1.0
 40
1.0
 10
163.4250226531939
 20
136.217454342638
 30
0.0
 10
163.0718746314372
 20
135.5829755034721
 30
0.0
 10
162.7193372006935
 20
134.9481630404319
 30
0.0
 10
162.3675366462375
 20
134.3129479518749
 30
0.0
  0
SPLINE
  5
A6
330
1F
100
AcDbEntity
  8
0
  6
Continuous
 62
     7
370
    15
100
AcDbSpline
210
0.0
220
0.0
230
1.0
 70
     8
 71
     3
 72
     8
 73
     4
 74
     0
 42
0.000000001
 43
0.00000001
 40
0.0
 40
0.0
 40
0.0
 40
0.0
 40
0.0012371390485494
 40
0.0012371390485494
 40
0.0012371390485494
 40
0.0012371390485494
 10
163.9822600396402
 20
136.9984791567739
 30
0.0
 10
163.7958183733139
 20
136.7383863772848
 30
0.0
 10
163.610048669795
 20
136.478052093979
 30
0.0
 10
163.4250226531939
 20
136.217454342638
 30
0.0
  0
LINE
  5
A7
330
1F
100
AcDbEntity
  8
0
  6
Continuous
 62
     7
370
    15
100
AcDbLine
 10
163.9822600396
 20
76.1295760383
 30
0.0
 11
163.9822600396
 21
136.9984791568
 31
0.0
  0
SPLINE
  5
A8
330
1F
100
AcDbEntity
  8
0
  6
Continuous
 62
     7
370
    15
100
AcDbSpline
210
0.0
220
0.0
230
1.0
 70
     8
 71
     3
 72
     8
 73
     4
 74
     0
 42
0.000000001
 43
0.00000001
 40
0.0
 40
0.0
 40
0.0
 40
0.0
 40
0.0011858378198547
 40
0.0011858378198547
 40
0.0011858378198547
 40
0.0011858378198547
 10
163.5268604595514
 20
76.67818881171226
 30
0.0
 10
163.6771284460449
 20
76.49500052664885
 30
0.0
 10
163.8289740487139
 20
76.312135467517
 30
0.0
 10
163.9822600396402
 20
76.12957603830223
 30
0.0
  0
SPLINE
  5
A9
330
1F
100
AcDbEntity
  8
0
  6
Continuous
 62
     7
370
    15
100
AcDbSpline
210
0.0
220
0.0
230
1.0
 70
     8
 71
     3
 72
     8
 73
     4
 74
     0
 42
0.000000001
 43
0.00000001
 40
0.0
 40
0.0
 40
0.0
 40
0.0
 40
1.0
 40
1.0
 40
1.0
 40
1.0
 10
163.5268604595514
 20
76.67818881171226
 30
0.0
 10
163.1396481295094
 20
77.37356881494247
 30
0.0
 10
162.7531474793718
 20
78.06935789476543
 30
0.0
 10
162.3675366462375
 20
78.76562120764368
 30
0.0
  0
LINE
  5
AA
330
1F
100
AcDbEntity
  8
0
  6
Continuous
 62
     7
370
    15
100
AcDbLine
 10
167.8075366462
 20
136.9984791568
 30
0.0
 11
163.9822600396
 21
136.9984791568
 31
0.0
  0
LINE
  5
AB
330
1F
100
AcDbEntity
  8
0
  6
Continuous
 62
     7
370
    15
100
AcDbLine
 10
163.9822600396
 20
76.1295760383
 30
0.0
 11
167.8075366462
 21
76.1295760383
 31
0.0
  0
SPLINE
  5
AC
330
1F
100
AcDbEntity
  8
0
  6
Continuous
 62
     7
370
    15
100
AcDbSpline
210
0.0
220
0.0
230
1.0
 70
     8
 71
     3
 72
    12
 73
     8
 74
     0
 42
0.000000001
 43
0.00000001
 40
0.0
 40
0.0
 40
0.0
 40
0.0
 40
0.4999999999999953
 40
0.4999999999999953
 40
0.7499999999999977
 40
0.7499999999999977
 40
1.0
 40
1.0
 40
1.0
 40
1.0
 10
168.4075366462375
 20
136.5138323740029
 30
0.0
 10
168.4075366462375
 20
136.6340025528729
 30
0.0
 10
168.3536245345495
 20
136.7519050448581
 30
0.0
 10
168.1925041786907
 20
136.8912239137111
 30
0.0
 10
168.1277060698486
 20
136.9293636047033
 30
0.0
 10
167.9756506425305
 20
136.9839436900384
 30
0.0
 10
167.8929183800792
 20
136.9984791567739
 30
0.0
 10
167.8075366462375
 20
136.9984791567739
 30
0.0
  0
LINE
  5
AD
330
1F
100
AcDbEntity
  8
0
  6
Continuous
 62
     7
370
    15
100
AcDbLine
 10
168.4075366462
 20
76.5457117964
 30
0.0
 11
168.4075366462
 21
136.513832374
 31
0.0
  0
SPLINE
  5
AE
330
1F
100
AcDbEntity
  8
0
  6
Continuous
 62
     7
370
    15
100
AcDbSpline
210
0.0
220
0.0
230
1.0
 70
     8
 71
     3
 72
    12
 73
     8
 74
     0
 42
0.000000001
 43
0.00000001
 40
0.0
 40
0.0
 40
0.0
 40
0.0
 40
0.2500000000000008
 40
0.2500000000000008
 40
0.5000000000000017
 40
0.5000000000000017
 40
1.0
 40
1.0
 40
1.0
 40
1.0
 10
167.8075366462375
 20
76.12957603830223
 30
0.0
 10
167.9030785563735
 20
76.12957603830223
 30
0.0
 10
167.9952234982362
 20
76.14571182178439
 30
0.0
 10
168.1515497748461
 20
76.19893142790771
 30
0.0
 10
168.2152179174661
 20
76.23507846811108
 30
0.0
 10
168.3640857628965
 20
76.35631636118299
 30
0.0
 10
168.4075366462375
 20
76.45077890684374
 30
0.0
 10
168.4075366462375
 20
76.5457117964221
 30
0.0
  0
LINE
  5
AF
330
1F
100
AcDbEntity
  8
0
  6
Continuous
 62
     7
370
    15
100
AcDbLine
 10
156.9328132528
 20
136.9984791568
 30
0.0
 11
153.1325366462
 21
136.9984791568
 31
0.0
  0
LINE
  5
B0
330
1F
100
AcDbEntity
  8
0
  6
Continuous
 62
     7
370
    15
100
AcDbLine
 10
156.9328132528
 20
76.1295760383
 30
0.0
 11
156.9328132528
 21
136.9984791568
 31
0.0
  0
LINE
  5
B1
330
1F
100
AcDbEntity
  8
0
  6
Continuous
 62
     7
370
    15
100
AcDbLine
 10
153.1325366462
 20
76.1295760383
 30
0.0
 11
156.9328132528
 21
76.1295760383
 31
0.0
  0
SPLINE
  5
B2
330
1F
100
AcDbEntity
  8
0
  6
Continuous
 62
     7
370
    15
100
AcDbSpline
210
0.0
220
0.0
230
1.0
 70
     8
 71
     3
 72
     8
 73
     4
 74
     0
 42
0.000000001
 43
0.00000001
 40
0.0
 40
0.0
 40
0.0
 40
0.0
 40
0.0012371390485494
 40
0.0012371390485494
 40
0.0012371390485494
 40
0.0012371390485494
 10
157.4900506392811
 20
136.217454342638
 30
0.0
 10
157.3050246226799
 20
136.478052093979
 30
0.0
 10
157.1192549191611
 20
136.7383863772848
 30
0.0
 10
156.9328132528348
 20
136.9984791567739
 30
0.0
  0
SPLINE
  5
B3
330
1F
100
AcDbEntity
  8
0
  6
Continuous
 62
     7
370
    15
100
AcDbSpline
210
0.0
220
0.0
230
1.0
 70
     8
 71
     3
 72
     8
 73
     4
 74
     0
 42
0.000000001
 43
0.00000001
 40
0.0
 40
0.0
 40
0.0
 40
0.0
 40
1.0
 40
1.0
 40
1.0
 40
1.0
 10
158.5475366462375
 20
134.3129479518749
 30
0.0
 10
158.1957360917815
 20
134.9481630404319
 30
0.0
 10
157.8431986610378
 20
135.5829755034721
 30
0.0
 10
157.4900506392811
 20
136.217454342638
 30
0.0
  0
SPLINE
  5
B4
330
1F
100
AcDbEntity
  8
0
  6
Continuous
 62
     7
370
    15
100
AcDbSpline
210
0.0
220
0.0
230
1.0
 70
     8
 71
     3
 72
     8
 73
     4
 74
     0
 42
0.000000001
 43
0.00000001
 40
0.0
 40
0.0
 40
0.0
 40
0.0
 40
1.0
 40
1.0
 40
1.0
 40
1.0
 10
158.5475366462375
 20
78.76562120764366
 30
0.0
 10
158.1619258131032
 20
78.06935789476543
 30
0.0
 10
157.7754251629656
 20
77.37356881494247
 30
0.0
 10
157.3882128329235
 20
76.67818881171226
 30
0.0
  0
SPLINE
  5
B5
330
1F
100
AcDbEntity
  8
0
  6
Continuous
 62
     7
370
    15
100
AcDbSpline
210
0.0
220
0.0
230
1.0
 70
     8
 71
     3
 72
     8
 73
     4
 74
     0
 42
0.000000001
 43
0.00000001
 40
0.0
 40
0.0
 40
0.0
 40
0.0
 40
0.0011858378198547
 40
0.0011858378198547
 40
0.0011858378198547
 40
0.0011858378198547
 10
156.9328132528348
 20
76.12957603830222
 30
0.0
 10
157.0860992437611
 20
76.312135467517
 30
0.0
 10
157.2379448464301
 20
76.49500052664885
 30
0.0
 10
157.3882128329235
 20
76.67818881171226
 30
0.0
  0
SPLINE
  5
B6
330
1F
100
AcDbEntity
  8
0
  6
Continuous
 62
     7
370
    15
100
AcDbSpline
210
0.0
220
0.0
230
1.0
 70
     8
 71
     3
 72
    12
 73
     8
 74
     0
 42
0.000000001
 43
0.00000001
 40
0.0
 40
0.0
 40
0.0
 40
0.0
 40
0.2500000000000015
 40
0.2500000000000015
 40
0.500000000000003
 40
0.500000000000003
 40
1.0
 40
1.0
 40
1.0
 40
1.0
 10
159.3475366462375
 20
79.5726385146662
 30
0.0
 10
159.2410766910508
 20
79.5726385146662
 30
0.0
 10
159.1328070847501
 20
79.54961191735019
 30
0.0
 10
158.9367667293633
 20
79.46261742837923
 30
0.0
 10
158.8483053092679
 20
79.39895008855241
 30
0.0
 10
158.6296221074526
 20
79.16531425736176
 30
0.0
 10
158.5475366462375
 20
78.95066800642854
 30
0.0
 10
158.5475366462375
 20
78.73770189099855
 30
0.0
  0
LINE
  5
B7
330
1F
100
AcDbEntity
  8
0
  6
Continuous
 62
     7
370
    15
100
AcDbLine
 10
158.5475366462
 20
78.737701891
 30
0.0
 11
158.5475366462
 21
134.3408672685
 31
0.0
  0
SPLINE
  5
B8
330
1F
100
AcDbEntity
  8
0
  6
Continuous
 62
     7
370
    15
100
AcDbSpline
210
0.0
220
0.0
230
1.0
 70
     8
 71
     3
 72
    12
 73
     8
 74
     0
 42
0.000000001
 43
0.00000001
 40
0.0
 40
0.0
 40
0.0
 40
0.0
 40
0.2500000000000015
 40
0.2500000000000015
 40
0.500000000000003
 40
0.500000000000003
 40
1.0
 40
1.0
 40
1.0
 40
1.0
 10
159.3475366462375
 20
133.5059306448524
 30
0.0
 10
159.2410439057411
 20
133.5059306448524
 30
0.0
 10
159.1339102027073
 20
133.5286492765787
 30
0.0
 10
158.9378658491525
 20
133.6152844646512
 30
0.0
 10
158.849396563569
 20
133.6785612691909
 30
0.0
 10
158.6285912646164
 20
133.9141409375018
 30
0.0
 10
158.5475366462375
 20
134.1278592169898
 30
0.0
 10
158.5475366462375
 20
134.34086726852
 30
0.0
  0
SPLINE
  5
B9
330
1F
100
AcDbEntity
  8
0
  6
Continuous
 62
     7
370
    15
100
AcDbSpline
210
0.0
220
0.0
230
1.0
 70
     8
 71
     3
 72
    14
 73
    10
 74
     0
 42
0.000000001
 43
0.00000001
 40
0.0
 40
0.0
 40
0.0
 40
0.0
 40
0.25
 40
0.25
 40
0.5
 40
0.5
 40
0.75
 40
0.75
 40
1.0
 40
1.0
 40
1.0
 40
1.0
 10
162.3675366462375
 20
78.73770189099855
 30
0.0
 10
162.3675366462375
 20
78.84473124856619
 30
0.0
 10
162.3475489574259
 20
78.95176557840225
 30
0.0
 10
162.2702840689522
 20
79.15059015891798
 30
0.0
 10
162.2123581039646
 20
79.24341421110799
 30
0.0
 10
162.0669012719387
 20
79.39879860405034
 30
0.0
 10
161.9780904095757
 20
79.46280580234401
 30
0.0
 10
161.7813558367628
 20
79.54992291670915
 30
0.0
 10
161.6750122620657
 20
79.5726385146662
 30
0.0
 10
161.5675366462375
 20
79.5726385146662
 30
0.0
  0
SPLINE
  5
BA
330
1F
100
AcDbEntity
  8
0
  6
Continuous
 62
     7
370
    15
100
AcDbSpline
210
0.0
220
0.0
230
1.0
 70
     8
 71
     3
 72
    12
 73
     8
 74
     0
 42
0.000000001
 43
0.00000001
 40
0.0
 40
0.0
 40
0.0
 40
0.0
 40
0.5
 40
0.5
 40
0.75
 40
0.75
 40
1.0
 40
1.0
 40
1.0
 40
1.0
 10
162.3675366462375
 20
134.34086726852
 30
0.0
 10
162.3675366462375
 20
134.1276986573414
 30
0.0
 10
162.2850357173933
 20
133.9126186094739
 30
0.0
 10
162.0664559399958
 20
133.6793822438238
 30
0.0
 10
161.9774557388026
 20
133.6154731446982
 30
0.0
 10
161.781878337354
 20
133.5288867898539
 30
0.0
 10
161.6754754062577
 20
133.5059306448524
 30
0.0
 10
161.5675366462375
 20
133.5059306448523
 30
0.0
  0
LINE
  5
BB
330
1F
100
AcDbEntity
  8
0
  6
Continuous
 62
     7
370
    15
100
AcDbLine
 10
162.3675366462
 20
78.737701891
 30
0.0
 11
162.3675366462
 21
134.3408672685
 31
0.0
  0
LINE
  5
BC
330
1F
100
AcDbEntity
  8
0
  6
Continuous
 62
     7
370
    15
100
AcDbLine
 10
161.5675366462
 20
79.5726385147
 30
0.0
 11
159.3475366462
 21
79.5726385147
 31
0.0
  0
LINE
  5
BD
330
1F
100
AcDbEntity
  8
0
  6
Continuous
 62
     7
370
    15
100
AcDbLine
 10
161.5675366462
 20
133.5059306449
 30
0.0
 11
159.3475366462
 21
133.5059306449
 31
0.0
  0
SPLINE
  5
BE
330
1F
100
AcDbEntity
  8
0
  6
Continuous
 62
     7
370
    15
100
AcDbSpline
210
0.0
220
0.0
230
1.0
 70
    24
 71
     3
 72
    10
 73
     6
 74
     0
 42
0.000000001
 43
0.00000001
 40
0.0
 40
0.0
 40
0.0
 40
0.0
 40
0.5
 40
0.5
 40
1.0
 40
1.0
 40
1.0
 40
1.0
 10
168.4075366462375
 20
84.13928457975928
 30
0.0
 10
168.4075366462375
 20
84.13928457975928
 30
0.0
 10
168.4542864057057
 20
84.13928457975928
 30
0.0
 10
168.543179461799
 20
84.13928457975928
 30
0.0
 10
168.5840127625192
 20
84.13928457975928
 30
0.0
 10
168.5840097874012
 20
84.13928457975928
 30
0.0
  0
LINE
  5
BF
330
1F
100
AcDbEntity
  8
0
  6
Continuous
 62
     7
370
    15
100
AcDbLine
 10
152.356065863
 20
84.1392845798
 30
0.0
 11
152.371567843
 21
84.1392845798
 31
0.0
  0
LINE
  5
C0
330
1F
100
AcDbEntity
  8
0
  6
Continuous
 62
     7
370
    15
100
AcDbLine
 10
149.3575366462
 20
84.3142845798
 30
0.0
 11
149.3575366462
 21
128.7642845798
 31
0.0
  0
LINE
  5
C1
330
1F
100
AcDbEntity
  8
0
  6
Continuous
 62
     7
370
    15
100
AcDbLine
 10
184.3575366462
 20
127.7642845746
 30
0.0
 11
184.3575366462
 21
85.3142845798
 31
0.0
  0
LINE
  5
C2
330
1F
100
AcDbEntity
  8
0
  6
Continuous
 62
     7
370
    15
100
AcDbLine
 10
208.3575366462
 20
106.5392845798
 30
0.0
 11
208.3575366462
 21
87.4392845798
 31
0.0
  0
LINE
  5
C3
330
1F
100
AcDbEntity
  8
0
  6
Continuous
 62
     7
370
    15
100
AcDbLine
 10
208.3575366462
 20
125.6392845798
 30
0.0
 11
208.3575366462
 21
106.5392845798
 31
0.0
  0
LINE
  5
C4
330
1F
100
AcDbEntity
  8
0
  6
Continuous
 62
     7
370
    15
100
AcDbLine
 10
207.9575366462
 20
106.5392845798
 30
0.0
 11
207.9575366462
 21
87.0392845798
 31
0.0
  0
LINE
  5
C5
330
1F
100
AcDbEntity
  8
0
  6
Continuous
 62
     7
370
    15
100
AcDbLine
 10
207.9575366462
 20
126.0392845798
 30
0.0
 11
207.9575366462
 21
106.5392845798
 31
0.0
  0
SPLINE
  5
C6
330
1F
100
AcDbEntity
  8
0
  6
Continuous
 62
     7
370
    15
100
AcDbSpline
210
0.0
220
0.0
230
1.0
 70
    11
 71
     3
 72
    77
 73
    73
 74
     0
 42
0.000000001
 43
0.00000001
 40
0.0
 40
0.0
 40
0.0
 40
0.0
 40
0.0312500000000001
 40
0.0312500000000001
 40
0.0625000000000003
 40
0.0625000000000003
 40
0.0937500000000004
 40
0.0937500000000004
 40
0.1250000000000006
 40
0.1250000000000006
 40
0.1562500000000007
 40
0.1562500000000007
 40
0.1875000000000008
 40
0.1875000000000008
 40
0.218750000000001
 40
0.218750000000001
 40
0.2500000000000011
 40
0.2500000000000011
 40
0.2812500000000012
 40
0.2812500000000012
 40
0.3125000000000014
 40
0.3125000000000014
 40
0.3437500000000016
 40
0.3437500000000016
 40
0.3593750000000016
 40
0.3593750000000016
 40
0.3750000000000017
 40
0.3906250000000017
 40
0.3906250000000017
 40
0.4062500000000018
 40
0.4062500000000018
 40
0.4375000000000018
 40
0.4375000000000018
 40
0.4687500000000017
 40
0.4687500000000017
 40
0.5000000000000017
 40
0.5000000000000017
 40
0.5312500000000017
 40
0.5312500000000017
 40
0.5625000000000016
 40
0.5625000000000016
 40
0.5937500000000016
 40
0.5937500000000016
 40
0.6250000000000014
 40
0.6250000000000014
 40
0.6562500000000013
 40
0.6562500000000013
 40
0.6875000000000012
 40
0.6875000000000012
 40
0.7187500000000012
 40
0.7187500000000012
 40
0.7500000000000011
 40
0.7500000000000011
 40
0.7656250000000009
 40
0.7656250000000009
 40
0.7812500000000006
 40
0.7812500000000006
 40
0.8125000000000004
 40
0.8125000000000004
 40
0.8437500000000004
 40
0.8437500000000004
 40
0.8750000000000003
 40
0.8750000000000003
 40
0.8906250000000003
 40
0.8906250000000003
 40
0.9062500000000002
 40
0.9062500000000002
 40
0.9375000000000001
 40
0.9375000000000001
 40
0.9687500000000001
 40
0.9687500000000001
 40
1.0
 40
1.0
 40
1.0
 40
1.0
 10
194.9571365907072
 20
109.8576437976347
 30
0.0
 10
195.1994832394461
 20
110.0541155171315
 30
0.0
 10
195.4566043942449
 20
110.2245367941927
 30
0.0
 10
195.99801350265
 20
110.5181410750607
 30
0.0
 10
196.2843340320725
 20
110.6419158901718
 30
0.0
 10
196.8758561658231
 20
110.8383118200551
 30
0.0
 10
197.1768608790726
 20
110.9099479717889
 30
0.0
 10
197.788985962589
 20
111.0023661601331
 30
0.0
 10
198.103092158908
 20
111.0229655831565
 30
0.0
 10
198.7256173719286
 20
111.0109503403901
 30
0.0
 10
199.0331759385258
 20
110.9789659151458
 30
0.0
 10
199.6409774132445
 20
110.8635130180374
 30
0.0
 10
199.9441544997761
 20
110.7787688448221
 30
0.0
 10
200.524331799515
 20
110.5603581091243
 30
0.0
 10
200.801834302893
 20
110.4272925563635
 30
0.0
 10
201.3312834644586
 20
110.1121160133319
 30
0.0
 10
201.5856954349354
 20
109.9275049209685
 30
0.0
 10
202.0478793607512
 20
109.518756658509
 30
0.0
 10
202.2571847828323
 20
109.2945374912843
 30
0.0
 10
202.6296759617981
 20
108.8035343774817
 30
0.0
 10
202.7937241644977
 20
108.5334715116485
 30
0.0
 10
203.0542332335011
 20
107.9738522630227
 30
0.0
 10
203.1532710966596
 20
107.6819847593216
 30
0.0
 10
203.2512595526974
 20
107.224523580801
 30
0.0
 10
203.2753148136665
 20
107.0682983036549
 30
0.0
 10
203.3045517945393
 20
106.7582526998097
 30
0.0
 10
203.3155161083066
 20
106.4483961636983
 30
0.0
 10
203.2904188767821
 20
106.1389128924914
 30
0.0
 10
203.2469555701579
 20
105.8296195685196
 30
0.0
 10
203.2158257318347
 20
105.6747916682629
 30
0.0
 10
203.0975364165952
 20
105.2228662903952
 30
0.0
 10
202.9853633556418
 20
104.9340082275093
 30
0.0
 10
202.6971440020989
 20
104.3799409254912
 30
0.0
 10
202.5238221623947
 20
104.1208007166513
 30
0.0
 10
202.1300579960622
 20
103.6440170582638
 30
0.0
 10
201.9062683078972
 20
103.423141128107
 30
0.0
 10
201.4262976461251
 20
103.032272618499
 30
0.0
 10
201.1695064741579
 20
102.8607046599235
 30
0.0
 10
200.623359049991
 20
102.5631789397026
 30
0.0
 10
200.3358133982841
 20
102.4388182819956
 30
0.0
 10
199.7489840227727
 20
102.243031807602
 30
0.0
 10
199.4474279028765
 20
102.1703291934659
 30
0.0
 10
198.8276413012626
 20
102.0761264132114
 30
0.0
 10
198.5170650803946
 20
102.0558904284175
 30
0.0
 10
197.8979830354089
 20
102.0670776346391
 30
0.0
 10
197.5881296546237
 20
102.0985609123875
 30
0.0
 10
196.9726238546701
 20
102.2151953413508
 30
0.0
 10
196.6744585664886
 20
102.2987871975155
 30
0.0
 10
196.0967998778689
 20
102.5156161564695
 30
0.0
 10
195.8158470744021
 20
102.6496937836645
 30
0.0
 10
195.2804488868074
 20
102.9684722702293
 30
0.0
 10
195.031353087991
 20
103.1496285901583
 30
0.0
 10
194.6858385459766
 20
103.4547321907515
 30
0.0
 10
194.5753883191031
 20
103.562034159503
 30
0.0
 10
194.3644189326139
 20
103.7885000989088
 30
0.0
 10
194.2633128332809
 20
103.9084958331859
 30
0.0
 10
193.98181507322
 20
104.2801673129018
 30
0.0
 10
193.8222827051149
 20
104.5434537941127
 30
0.0
 10
193.5616685356925
 20
105.1025779871624
 30
0.0
 10
193.459972020216
 20
105.4031022383833
 30
0.0
 10
193.3306561726469
 20
106.0109053981235
 30
0.0
 10
193.301320467727
 20
106.3192120190212
 30
0.0
 10
193.3122683042456
 20
106.7885379201744
 30
0.0
 10
193.3253270984728
 20
106.9461568993207
 30
0.0
 10
193.3691953726803
 20
107.2548345063146
 30
0.0
 10
193.3999893511242
 20
107.4070343775542
 30
0.0
 10
193.51820790823
 20
107.8574091330123
 30
0.0
 10
193.6332548090329
 20
108.1524566888827
 30
0.0
 10
193.9208163288374
 20
108.7030725612158
 30
0.0
 10
194.093029876384
 20
108.9606469345935
 30
0.0
 10
194.4919387580773
 20
109.4421945523567
 30
0.0
 10
194.7147899419683
 20
109.6611720781379
 30
0.0
 10
194.9571365907072
 20
109.8576437976347
 30
0.0
  0
LINE
  5
C7
330
1F
100
AcDbEntity
  8
0
  6
Continuous
 62
     7
370
    15
100
AcDbLine
 10
81.1075366462
 20
95.1321539827
 30
0.0
 11
81.1075366462
 21
117.9464151759
 31
0.0
  0
CIRCLE
  5
C8
330
1F
100
AcDbEntity
  8
0
  6
HIDDEN
 62
     7
370
     0
100
AcDbCircle
 10
198.3075366462
 20
106.5392845798
 30
0.0
 40
2.953589838486238
  0
CIRCLE
  5
C9
330
1F
100
AcDbEntity
  8
0
  6
HIDDEN
 62
     7
370
     0
100
AcDbCircle
 10
198.3075366462
 20
106.5392845798
 30
0.0
 40
2.753589838486235
  0
CIRCLE
  5
CA
330
1F
100
AcDbEntity
  8
0
  6
HIDDEN
 62
     7
370
     0
100
AcDbCircle
 10
198.3075366462
 20
106.5392845798
 30
0.0
 40
3.624999999999986
  0
SPLINE
  5
CB
330
1F
100
AcDbEntity
  8
0
  6
HIDDEN
 62
     7
370
     0
100
AcDbSpline
210
0.0
220
0.0
230
1.0
 70
     8
 71
     3
 72
    16
 73
    12
 74
     0
 42
0.000000001
 43
0.00000001
 40
0.0
 40
0.0
 40
0.0
 40
0.0
 40
0.2500000000000006
 40
0.2500000000000006
 40
0.5000000000000012
 40
0.5000000000000012
 40
0.6250000000000016
 40
0.6250000000000016
 40
0.7500000000000018
 40
0.7500000000000018
 40
1.0
 40
1.0
 40
1.0
 40
1.0
 10
208.3575366462375
 20
117.0033896947662
 30
0.0
 10
208.3575366462375
 20
116.9143240262602
 30
0.0
 10
208.3522169060503
 20
116.8234616528106
 30
0.0
 10
208.3227797814294
 20
116.6353885363883
 30
0.0
 10
208.2993892353658
 20
116.5372873444857
 30
0.0
 10
208.2312618052688
 20
116.3972589959613
 30
0.0
 10
208.2023002586765
 20
116.3525588295108
 30
0.0
 10
208.1357587157198
 20
116.2824884020376
 30
0.0
 10
208.0983125809232
 20
116.2572860105023
 30
0.0
 10
207.9879432970137
 20
116.2121463638616
 30
0.0
 10
207.9199119592107
 20
116.2177446994919
 30
0.0
 10
207.8575366462111
 20
116.2334796506957
 30
0.0
  0
SPLINE
  5
CC
330
1F
100
AcDbEntity
  8
0
  6
HIDDEN
 62
     7
370
     0
100
AcDbSpline
210
0.0
220
0.0
230
1.0
 70
     8
 71
     3
 72
     8
 73
     4
 74
     0
 42
0.000000001
 43
0.00000001
 40
0.0
 40
0.0
 40
0.0
 40
0.0
 40
1.0
 40
1.0
 40
1.0
 40
1.0
 10
207.857536646212
 20
116.2334796506947
 30
0.0
 10
207.7724972491528
 20
116.1760355594021
 30
0.0
 10
207.6674779982088
 20
116.1352783149891
 30
0.0
 10
207.5575366462378
 20
116.135278314989
 30
0.0
  0
SPLINE
  5
CD
330
1F
100
AcDbEntity
  8
0
  6
HIDDEN
 62
     7
370
     0
100
AcDbSpline
210
0.0
220
0.0
230
1.0
 70
     8
 71
     3
 72
     8
 73
     4
 74
     0
 42
0.000000001
 43
0.00000001
 40
0.0
 40
0.0
 40
0.0
 40
0.0
 40
1.0
 40
1.0
 40
1.0
 40
1.0
 10
207.8575366462557
 20
96.8450895087943
 30
0.0
 10
207.7724972491874
 20
96.90253360010257
 30
0.0
 10
207.6674779982276
 20
96.94329084452943
 30
0.0
 10
207.5575366462378
 20
96.9432908445295
 30
0.0
  0
SPLINE
  5
CE
330
1F
100
AcDbEntity
  8
0
  6
HIDDEN
 62
     7
370
     0
100
AcDbSpline
210
0.0
220
0.0
230
1.0
 70
     8
 71
     3
 72
    16
 73
    12
 74
     0
 42
0.000000001
 43
0.00000001
 40
0.0
 40
0.0
 40
0.0
 40
0.0
 40
0.2500000000000098
 40
0.2500000000000098
 40
0.3750000000000082
 40
0.3750000000000082
 40
0.5000000000000066
 40
0.5000000000000066
 40
0.7500000000000032
 40
0.7500000000000032
 40
1.0
 40
1.0
 40
1.0
 40
1.0
 10
207.8575366462548
 20
96.84508950879338
 30
0.0
 10
207.9196097296098
 20
96.8607482817237
 30
0.0
 10
207.9874190134901
 20
96.86634917062925
 30
0.0
 10
208.0972747854239
 20
96.82185183156035
 30
0.0
 10
208.1345817032119
 20
96.79697170425747
 30
0.0
 10
208.2008893853763
 20
96.72783612435319
 30
0.0
 10
208.229855606526
 20
96.68371162505264
 30
0.0
 10
208.2986675566478
 20
96.5437120282914
 30
0.0
 10
208.3223782307585
 20
96.44500467466752
 30
0.0
 10
208.3520792392046
 20
96.25671663740172
 30
0.0
 10
208.3575366462375
 20
96.16448025966298
 30
0.0
 10
208.3575366462375
 20
96.07517964095628
 30
0.0
  0
LINE
  5
CF
330
1F
100
AcDbEntity
  8
0
  6
HIDDEN
 62
     7
370
     0
100
AcDbLine
 10
183.8575366462
 20
106.5392845798
 30
0.0
 11
183.8575366462
 21
96.0392845798
 31
0.0
  0
LINE
  5
D0
330
1F
100
AcDbEntity
  8
0
  6
HIDDEN
 62
     7
370
     0
100
AcDbLine
 10
183.8575366462
 20
117.0392845798
 30
0.0
 11
183.8575366462
 21
106.5392845798
 31
0.0
  0
LINE
  5
D1
330
1F
100
AcDbEntity
  8
0
  6
HIDDEN
 62
     7
370
     0
100
AcDbLine
 10
187.72356205
 20
106.5392845798
 30
0.0
 11
187.72356205
 21
95.5392845798
 31
0.0
  0
LINE
  5
D2
330
1F
100
AcDbEntity
  8
0
  6
HIDDEN
 62
     7
370
     0
100
AcDbLine
 10
187.72356205
 20
117.5392845798
 30
0.0
 11
187.72356205
 21
106.5392845798
 31
0.0
  0
LINE
  5
D3
330
1F
100
AcDbEntity
  8
0
  6
HIDDEN
 62
     7
370
     0
100
AcDbLine
 10
197.7575366462
 20
116.135278315
 30
0.0
 11
207.5575366462
 21
116.135278315
 31
0.0
  0
LINE
  5
D4
330
1F
100
AcDbEntity
  8
0
  6
HIDDEN
 62
     7
370
     0
100
AcDbLine
 10
197.7575366462
 20
96.9432908445
 30
0.0
 11
207.5575366462
 21
96.9432908445
 31
0.0
  0
LINE
  5
D5
330
1F
100
AcDbEntity
  8
0
  6
HIDDEN
 62
     7
370
     0
100
AcDbLine
 10
152.5325366462
 20
131.3392845798
 30
0.0
 11
153.2011657963
 21
131.3392845798
 31
0.0
  0
ELLIPSE
  5
D6
330
1F
100
AcDbEntity
  8
0
  6
HIDDEN
 62
     7
370
     0
100
AcDbEllipse
 10
153.2011657963
 20
132.1392845798
 30
0.0
 11
0.0
 21
0.7999999999999829
 31
0.0
210
0.0
220
0.0
230
1.0
 40
0.4142135624
 41
3.141592653589793
 42
4.712388980384695
  0
LINE
  5
D7
330
1F
100
AcDbEntity
  8
0
  6
HIDDEN
 62
     7
370
     0
100
AcDbLine
 10
153.2011657963
 20
84.1392845798
 30
0.0
 11
152.5325366462
 21
84.1392845798
 31
0.0
  0
ELLIPSE
  5
D8
330
1F
100
AcDbEntity
  8
0
  6
HIDDEN
 62
     7
370
     0
100
AcDbEllipse
 10
153.2011657963
 20
83.3392845798
 30
0.0
 11
0.0
 21
0.7999999999999972
 31
0.0
210
0.0
220
0.0
230
1.0
 40
0.4142135624
 41
4.712388980384677
 42
6.283185307179586
  0
LINE
  5
D9
330
1F
100
AcDbEntity
  8
0
  6
HIDDEN
 62
     7
370
     0
100
AcDbLine
 10
153.5325366462
 20
76.6781888117
 30
0.0
 11
152.7494523116
 21
76.2247973008
 31
0.0
  0
LINE
  5
DA
330
1F
100
AcDbEntity
  8
0
  6
HIDDEN
 62
     7
370
     0
100
AcDbLine
 10
152.8215294824
 20
136.9284615064
 30
0.0
 11
153.5325366462
 21
136.2174543426
 31
0.0
  0
LINE
  5
DB
330
1F
100
AcDbEntity
  8
0
  6
HIDDEN
 62
     7
370
     0
100
AcDbLine
 10
157.3882128329
 20
76.6781888117
 30
0.0
 11
153.5325366462
 21
76.6781888117
 31
0.0
  0
LINE
  5
DC
330
1F
100
AcDbEntity
  8
0
  6
HIDDEN
 62
     7
370
     0
100
AcDbLine
 10
168.4075366462
 20
76.6781888117
 30
0.0
 11
163.5268604596
 21
76.6781888117
 31
0.0
  0
LINE
  5
DD
330
1F
100
AcDbEntity
  8
0
  6
HIDDEN
 62
     7
370
     0
100
AcDbLine
 10
153.5325366462
 20
76.6781888117
 30
0.0
 11
153.5325366462
 21
83.3392845798
 31
0.0
  0
LINE
  5
DE
330
1F
100
AcDbEntity
  8
0
  6
HIDDEN
 62
     7
370
     0
100
AcDbLine
 10
168.4075366462
 20
84.1392845798
 30
0.0
 11
153.2011657963
 21
84.1392845798
 31
0.0
  0
LINE
  5
DF
330
1F
100
AcDbEntity
  8
0
  6
HIDDEN
 62
     7
370
     0
100
AcDbLine
 10
153.5325366462
 20
136.2174543426
 30
0.0
 11
157.4900506393
 21
136.2174543426
 31
0.0
  0
LINE
  5
E0
330
1F
100
AcDbEntity
  8
0
  6
HIDDEN
 62
     7
370
     0
100
AcDbLine
 10
163.4250226532
 20
136.2174543426
 30
0.0
 11
168.4075366462
 21
136.2174543426
 31
0.0
  0
LINE
  5
E1
330
1F
100
AcDbEntity
  8
0
  6
HIDDEN
 62
     7
370
     0
100
AcDbLine
 10
153.5325366462
 20
136.2174543426
 30
0.0
 11
153.5325366462
 21
132.1392845798
 31
0.0
  0
LINE
  5
E2
330
1F
100
AcDbEntity
  8
0
  6
HIDDEN
 62
     7
370
     0
100
AcDbLine
 10
153.2011657963
 20
131.3392845798
 30
0.0
 11
168.4075366462
 21
131.3392845798
 31
0.0
  0
LINE
  5
E3
330
1F
100
AcDbEntity
  8
0
  6
HIDDEN
 62
     7
370
     0
100
AcDbLine
 10
86.7333547906
 20
99.7892845798
 30
0.0
 11
86.7333547906
 21
113.2892845798
 31
0.0
  0
LINE
  5
E4
330
1F
100
AcDbEntity
  8
0
  6
HIDDEN
 62
     7
370
     0
100
AcDbLine
 10
124.1075366462
 20
99.7892845798
 30
0.0
 11
124.1075366462
 21
113.2892845798
 31
0.0
  0
LINE
  5
E5
330
1F
100
AcDbEntity
  8
0
  6
HIDDEN
 62
     7
370
     0
100
AcDbLine
 10
125.6096881938
 20
102.2892845798
 30
0.0
 11
125.6096881938
 21
110.7892845798
 31
0.0
  0
SPLINE
  5
E6
330
1F
100
AcDbEntity
  8
0
  6
HIDDEN
 62
     7
370
     0
100
AcDbSpline
210
0.0
220
0.0
230
1.0
 70
     8
 71
     3
 72
    18
 73
    14
 74
     0
 42
0.000000001
 43
0.00000001
 40
0.0
 40
0.0
 40
0.0
 40
0.0
 40
0.0705041821523535
 40
0.1523217587333538
 40
0.2353323582853459
 40
0.2770395925177786
 40
0.4112898332286493
 40
0.4654622295353474
 40
0.6033053334282354
 40
0.7377147864196345
 40
0.7919501155037509
 40
0.9299572315700241
 40
1.0
 40
1.0
 40
1.0
 40
1.0
 10
207.8108605433562
 20
122.2428405551814
 30
0.0
 10
207.8098382566564
 20
122.2424496920072
 30
0.0
 10
207.8076296428795
 20
122.2416052461273
 30
0.0
 10
207.8065898574809
 20
122.2041396938383
 30
0.0
 10
207.8070953525801
 20
122.1563233686907
 30
0.0
 10
207.8091962743978
 20
122.0774002674651
 30
0.0
 10
207.813100893543
 20
121.9853812463587
 30
0.0
 10
207.8207582122295
 20
121.823518234713
 30
0.0
 10
207.8305900668329
 20
121.6301115534586
 30
0.0
 10
207.841563562675
 20
121.3961662946657
 30
0.0
 10
207.8508027565993
 20
121.1372824129737
 30
0.0
 10
207.8564596557531
 20
120.9107302155027
 30
0.0
 10
207.8572653965504
 20
120.7151344895958
 30
0.0
 10
207.8575366599362
 20
120.6492845797593
 30
0.0
  0
LINE
  5
E7
330
1F
100
AcDbEntity
  8
0
  6
HIDDEN
 62
     7
370
     0
100
AcDbLine
 10
207.8575366599
 20
120.6492845798
 30
0.0
 11
207.8575366462
 21
116.2334796507
 31
0.0
  0
LINE
  5
E8
330
1F
100
AcDbEntity
  8
0
  6
HIDDEN
 62
     7
370
     0
100
AcDbLine
 10
207.8575366403
 20
92.4292845798
 30
0.0
 11
207.8575366463
 21
96.8450895088
 31
0.0
  0
SPLINE
  5
E9
330
1F
100
AcDbEntity
  8
0
  6
HIDDEN
 62
     7
370
     0
100
AcDbSpline
210
0.0
220
0.0
230
1.0
 70
     8
 71
     3
 72
    14
 73
    10
 74
     0
 42
0.000000001
 43
0.00000001
 40
0.0
 40
0.0
 40
0.0
 40
0.0
 40
0.25
 40
0.25
 40
0.5
 40
0.5
 40
0.75
 40
0.75
 40
1.0
 40
1.0
 40
1.0
 40
1.0
 10
207.8575366462375
 20
92.42928457975927
 30
0.0
 10
207.8575366462375
 20
92.1992372032707
 30
0.0
 10
207.8575869244691
 20
91.99113517269718
 30
0.0
 10
207.8539257773924
 20
91.61644635503097
 30
0.0
 10
207.8510474018856
 20
91.44804013734827
 30
0.0
 10
207.842084300164
 20
91.17134537690437
 30
0.0
 10
207.8364193517806
 20
91.06112896803667
 30
0.0
 10
207.8244734501011
 20
90.89991353424834
 30
0.0
 10
207.818631592538
 20
90.85189607752146
 30
0.0
 10
207.8141920514355
 20
90.83551247680504
 30
0.0
  0
SPLINE
  5
EA
330
1F
100
AcDbEntity
  8
0
  6
HIDDEN
 62
     7
370
     0
100
AcDbSpline
210
0.0
220
0.0
230
1.0
 70
     8
 71
     3
 72
    18
 73
    14
 74
     0
 42
0.000000001
 43
0.00000001
 40
0.0
 40
0.0
 40
0.0
 40
0.0
 40
0.0069970909600877
 40
0.0873514149141073
 40
0.2508047782750029
 40
0.334101654576443
 40
0.414233605215526
 40
0.5772103433727352
 40
0.6602467501990198
 40
0.7435566656838051
 40
0.8274889221784157
 40
0.9133990327617801
 40
0.9999999999999999
 40
0.9999999999999999
 40
0.9999999999999999
 40
0.9999999999999999
 10
207.8105515641045
 20
90.8306133120895
 30
0.0
 10
207.8104389802745
 20
90.83044064593287
 30
0.0
 10
207.8090334880627
 20
90.82828508826238
 30
0.0
 10
207.8067162793797
 20
90.85281033270806
 30
0.0
 10
207.8065595838753
 20
90.91756821236591
 30
0.0
 10
207.8103841199984
 20
91.03062988743925
 30
0.0
 10
207.8166261855326
 20
91.17096650201411
 30
0.0
 10
207.8257280439392
 20
91.35243303469898
 30
0.0
 10
207.8365313186158
 20
91.57286846106335
 30
0.0
 10
207.8444719345842
 20
91.75847929224976
 30
0.0
 10
207.8512639008391
 20
91.96347311120934
 30
0.0
 10
207.8563257756181
 20
92.18620729356533
 30
0.0
 10
207.8571319426161
 20
92.34804278301772
 30
0.0
 10
207.8575366403472
 20
92.42928457975927
 30
0.0
  0
LINE
  5
EB
330
1F
100
AcDbEntity
  8
0
  6
HIDDEN
 62
     7
370
     0
100
AcDbLine
 10
197.7575366462
 20
92.4292845798
 30
0.0
 11
197.7575366462
 21
96.9432908445
 31
0.0
  0
LINE
  5
EC
330
1F
100
AcDbEntity
  8
0
  6
HIDDEN
 62
     7
370
     0
100
AcDbLine
 10
197.7575366462
 20
120.6492845798
 30
0.0
 11
197.7575366462
 21
116.135278315
 31
0.0
  0
LINE
  5
ED
330
1F
100
AcDbEntity
  8
0
  6
HIDDEN
 62
     7
370
     0
100
AcDbLine
 10
155.7075366462
 20
130.9392845798
 30
0.0
 11
165.2075366462
 21
130.9392845798
 31
0.0
  0
LINE
  5
EE
330
1F
100
AcDbEntity
  8
0
  6
HIDDEN
 62
     7
370
     0
100
AcDbLine
 10
197.7575366462
 20
90.8292845798
 30
0.0
 11
197.7575366462
 21
92.4292845798
 31
0.0
  0
LINE
  5
EF
330
1F
100
AcDbEntity
  8
0
  6
HIDDEN
 62
     7
370
     0
100
AcDbLine
 10
197.7575366462
 20
122.2492845798
 30
0.0
 11
197.7575366462
 21
120.6492845798
 31
0.0
  0
ARC
  5
F0
330
1F
100
AcDbEntity
  8
0
  6
HIDDEN
 62
     7
370
     0
100
AcDbCircle
 10
184.8575366462
 20
117.0392845798
 30
0.0
 40
1.0
100
AcDbArc
 50
0.0
 51
180.0
  0
ARC
  5
F1
330
1F
100
AcDbEntity
  8
0
  6
HIDDEN
 62
     7
370
     0
100
AcDbCircle
 10
184.8575366462
 20
117.0392845798
 30
0.0
 40
1.0
100
AcDbArc
 50
180.0
 51
0.0
  0
ARC
  5
F2
330
1F
100
AcDbEntity
  8
0
  6
HIDDEN
 62
     7
370
     0
100
AcDbCircle
 10
184.8575366462
 20
96.0392845798
 30
0.0
 40
1.0
100
AcDbArc
 50
180.0
 51
0.0
  0
ARC
  5
F3
330
1F
100
AcDbEntity
  8
0
  6
HIDDEN
 62
     7
370
     0
100
AcDbCircle
 10
184.8575366462
 20
96.0392845798
 30
0.0
 40
1.0
100
AcDbArc
 50
0.0
 51
180.0
  0
LINE
  5
F4
330
1F
100
AcDbEntity
  8
0
  6
HIDDEN
 62
     7
370
     0
100
AcDbLine
 10
183.8575366462
 20
117.0392845798
 30
0.0
 11
183.8575366462
 21
96.0392845798
 31
0.0
  0
LINE
  5
F5
330
1F
100
AcDbEntity
  8
0
  6
HIDDEN
 62
     7
370
     0
100
AcDbLine
 10
185.8575366462
 20
96.0392845798
 30
0.0
 11
185.8575366462
 21
117.0392845798
 31
0.0
  0
ARC
  5
F6
330
1F
100
AcDbEntity
  8
0
  6
HIDDEN
 62
     7
370
     0
100
AcDbCircle
 10
184.8575366462
 20
117.0392845798
 30
0.0
 40
1.0
100
AcDbArc
 50
90.0
 51
180.0
  0
ARC
  5
F7
330
1F
100
AcDbEntity
  8
0
  6
HIDDEN
 62
     7
370
     0
100
AcDbCircle
 10
184.8575366462
 20
96.0392845798
 30
0.0
 40
1.0
100
AcDbArc
 50
180.0
 51
270.0
  0
ARC
  5
F8
330
1F
100
AcDbEntity
  8
0
  6
HIDDEN
 62
     7
370
     0
100
AcDbCircle
 10
185.7258841487
 20
117.0392845798
 30
0.0
 40
1.000000000000003
100
AcDbArc
 50
75.0
 51
90.0
  0
ARC
  5
F9
330
1F
100
AcDbEntity
  8
0
  6
HIDDEN
 62
     7
370
     0
100
AcDbCircle
 10
185.7258841487
 20
96.0392845798
 30
0.0
 40
1.000000000000003
100
AcDbArc
 50
270.0
 51
285.0
  0
LINE
  5
FA
330
1F
100
AcDbEntity
  8
0
  6
HIDDEN
 62
     7
370
     0
100
AcDbLine
 10
185.7258841487
 20
118.0392845798
 30
0.0
 11
184.8575366462
 21
118.0392845798
 31
0.0
  0
LINE
  5
FB
330
1F
100
AcDbEntity
  8
0
  6
HIDDEN
 62
     7
370
     0
100
AcDbLine
 10
184.8575366462
 20
95.0392845798
 30
0.0
 11
185.7258841487
 21
95.0392845798
 31
0.0
  0
LINE
  5
FC
330
1F
100
AcDbEntity
  8
0
  6
HIDDEN
 62
     7
370
     0
100
AcDbLine
 10
185.9847031938
 20
95.0733587535
 30
0.0
 11
187.72356205
 21
95.5392845798
 31
0.0
  0
LINE
  5
FD
330
1F
100
AcDbEntity
  8
0
  6
HIDDEN
 62
     7
370
     0
100
AcDbLine
 10
187.72356205
 20
117.5392845798
 30
0.0
 11
185.9847031938
 21
118.005210406
 31
0.0
  0
LINE
  5
FE
330
1F
100
AcDbEntity
  8
0
  6
HIDDEN
 62
     7
370
     0
100
AcDbLine
 10
197.7575366462
 20
117.5392845798
 30
0.0
 11
187.72356205
 21
117.5392845798
 31
0.0
  0
LINE
  5
FF
330
1F
100
AcDbEntity
  8
0
  6
HIDDEN
 62
     7
370
     0
100
AcDbLine
 10
187.72356205
 20
95.5392845798
 30
0.0
 11
197.7575366462
 21
95.5392845798
 31
0.0
  0
ARC
  5
100
330
1F
100
AcDbEntity
  8
0
  6
HIDDEN
 62
     7
370
     0
100
AcDbCircle
 10
81.9075366462
 20
97.5242845798
 30
0.0
 40
0.7999999999999972
100
AcDbArc
 50
90.0
 51
180.0
  0
ARC
  5
101
330
1F
100
AcDbEntity
  8
0
  6
HIDDEN
 62
     7
370
     0
100
AcDbCircle
 10
81.9075366462
 20
115.5542845798
 30
0.0
 40
0.7999999999999972
100
AcDbArc
 50
180.0
 51
270.0
  0
ARC
  5
102
330
1F
100
AcDbEntity
  8
0
  6
HIDDEN
 62
     7
370
     0
100
AcDbCircle
 10
85.6565965386
 20
98.7242845798
 30
0.0
 40
0.4000000000000057
100
AcDbArc
 50
270.0
 51
330.0
  0
ARC
  5
103
330
1F
100
AcDbEntity
  8
0
  6
HIDDEN
 62
     7
370
     0
100
AcDbCircle
 10
85.6565965386
 20
114.3542845798
 30
0.0
 40
0.4000000000000199
100
AcDbArc
 50
30.0
 51
90.0
  0
LINE
  5
104
330
1F
100
AcDbEntity
  8
0
  6
HIDDEN
 62
     7
370
     0
100
AcDbLine
 10
81.9075366462
 20
98.3242845798
 30
0.0
 11
85.6565965386
 21
98.3242845798
 31
0.0
  0
LINE
  5
105
330
1F
100
AcDbEntity
  8
0
  6
HIDDEN
 62
     7
370
     0
100
AcDbLine
 10
85.6565965386
 20
114.7542845798
 30
0.0
 11
81.9075366462
 21
114.7542845798
 31
0.0
  0
LINE
  5
106
330
1F
100
AcDbEntity
  8
0
  6
HIDDEN
 62
     7
370
     0
100
AcDbLine
 10
86.0030067001
 20
98.5242845798
 30
0.0
 11
86.7333547906
 21
99.7892845798
 31
0.0
  0
LINE
  5
107
330
1F
100
AcDbEntity
  8
0
  6
HIDDEN
 62
     7
370
     0
100
AcDbLine
 10
86.7333547906
 20
113.2892845798
 30
0.0
 11
86.0030067001
 21
114.5542845798
 31
0.0
  0
LINE
  5
108
330
1F
100
AcDbEntity
  8
0
  6
HIDDEN
 62
     7
370
     0
100
AcDbLine
 10
86.7333547906
 20
99.7892845798
 30
0.0
 11
124.1075366462
 21
99.7892845798
 31
0.0
  0
LINE
  5
109
330
1F
100
AcDbEntity
  8
0
  6
HIDDEN
 62
     7
370
     0
100
AcDbLine
 10
124.1075366462
 20
113.2892845798
 30
0.0
 11
86.7333547906
 21
113.2892845798
 31
0.0
  0
LINE
  5
10A
330
1F
100
AcDbEntity
  8
0
  6
HIDDEN
 62
     7
370
     0
100
AcDbLine
 10
124.1075366462
 20
99.7892845798
 30
0.0
 11
125.6096881938
 21
102.2892845798
 31
0.0
  0
LINE
  5
10B
330
1F
100
AcDbEntity
  8
0
  6
HIDDEN
 62
     7
370
     0
100
AcDbLine
 10
125.6096881938
 20
110.7892845798
 30
0.0
 11
124.1075366462
 21
113.2892845798
 31
0.0
  0
LINE
  5
10C
330
1F
100
AcDbEntity
  8
0
  6
HIDDEN
 62
     7
370
     0
100
AcDbLine
 10
208.3575366462
 20
122.7958882121
 30
0.0
 11
207.8019293873
 21
122.2402900248
 31
0.0
  0
LINE
  5
10D
330
1F
100
AcDbEntity
  8
0
  6
HIDDEN
 62
     7
370
     0
100
AcDbLine
 10
207.8023553184
 20
90.8378506356
 30
0.0
 11
208.3575366462
 21
90.2826801388
 31
0.0
  0
LINE
  5
10E
330
1F
100
AcDbEntity
  8
0
  6
HIDDEN
 62
     7
370
     0
100
AcDbLine
 10
155.7075366462
 20
130.9392845798
 30
0.0
 11
160.4575366462
 21
128.0851966394
 31
0.0
  0
LINE
  5
10F
330
1F
100
AcDbEntity
  8
0
  6
HIDDEN
 62
     7
370
     0
100
AcDbLine
 10
160.4575366462
 20
128.0851966394
 30
0.0
 11
165.2075366462
 21
130.9392845798
 31
0.0
  0
LINE
  5
110
330
1F
100
AcDbEntity
  8
0
  6
HIDDEN
 62
     7
370
     0
100
AcDbLine
 10
155.7075366462
 20
131.3392845798
 30
0.0
 11
155.7075366462
 21
130.9392845798
 31
0.0
  0
LINE
  5
111
330
1F
100
AcDbEntity
  8
0
  6
HIDDEN
 62
     7
370
     0
100
AcDbLine
 10
165.2075366462
 20
130.9392845798
 30
0.0
 11
165.2075366462
 21
131.3392845798
 31
0.0
  0
LINE
  5
112
330
1F
100
AcDbEntity
  8
0
  6
HIDDEN
 62
     7
370
     0
100
AcDbLine
 10
125.6096881938
 20
102.2892845798
 30
0.0
 11
183.8575366462
 21
102.2892845798
 31
0.0
  0
LINE
  5
113
330
1F
100
AcDbEntity
  8
0
  6
HIDDEN
 62
     7
370
     0
100
AcDbLine
 10
183.8575366462
 20
110.7892845798
 30
0.0
 11
125.6096881938
 21
110.7892845798
 31
0.0
  0
LINE
  5
114
330
1F
100
AcDbEntity
  8
0
  6
HIDDEN
 62
     7
370
     0
100
AcDbLine
 10
197.7575366462
 20
90.8292845798
 30
0.0
 11
207.8113028559
 21
90.8292845798
 31
0.0
  0
LINE
  5
115
330
1F
100
AcDbEntity
  8
0
  6
HIDDEN
 62
     7
370
     0
100
AcDbLine
 10
207.8114701964
 20
122.2492845798
 30
0.0
 11
197.7575366462
 21
122.2492845798
 31
0.0
  0
DIMENSION
  5
116
330
1F
100
AcDbEntity
  8
VERMASSUNG
100
AcDbDimension
  2
_D
 10
72.0406331114
 20
138.2892845798
 30
0.0
 11
72.0406331114
 21
106.5392845798
 31
0.0
 70
   160
  1
CAT 40 %%c<>
 71
     2
 42
-1.0
  3
SLDDIMSTYLE0
100
AcDbAlignedDimension
 13
167.8075366462
 23
74.7892845798
 33
0.0
 14
167.8075366462
 24
138.2892845798
 34
0.0
 50
90.0
100
AcDbRotatedDimension
  0
DIMENSION
  5
123
330
1F
100
AcDbEntity
  8
VERMASSUNG
100
AcDbDimension
  2
_D_1
 10
215.6426486797
 20
95.5392845798
 30
0.0
 11
215.6426486797
 21
106.5392845798
 31
0.0
 70
   160
  1
%%c<>
 71
     2
 42
-1.0
  3
SLDDIMSTYLE1
100
AcDbAlignedDimension
 13
197.7575366462
 23
117.5392845798
 33
0.0
 14
197.7575366462
 24
95.5392845798
 34
0.0
 50
90.0
100
AcDbRotatedDimension
  0
DIMENSION
  5
12F
330
1F
100
AcDbEntity
  8
VERMASSUNG
100
AcDbDimension
  2
_D_2
 10
208.3575366462
 20
142.9683887728
 30
0.0
 11
178.8575366462
 21
142.9683887728
 31
0.0
 70
   160
  1
<>
 71
     2
 42
-1.0
  3
SLDDIMSTYLE1
100
AcDbAlignedDimension
 13
149.3575366462
 23
128.7642845798
 33
0.0
 14
208.3575366462
 24
125.6392845798
 34
0.0
100
AcDbRotatedDimension
  0
DIMENSION
  5
139
330
1F
100
AcDbEntity
  8
VERMASSUNG
100
AcDbDimension
  2
_D_3
 10
208.3575366462
 20
136.9683887728
 30
0.0
 11
196.3575366462
 21
136.9683887728
 31
0.0
 70
   160
  1
(<>)
 71
     2
 42
-1.0
  3
SLDDIMSTYLE1
100
AcDbAlignedDimension
 13
184.3575366462
 23
127.7642845798
 33
0.0
 14
208.3575366462
 24
125.6392845798
 34
0.0
100
AcDbRotatedDimension
  0
DIMENSION
  5
145
330
1F
100
AcDbEntity
  8
VERMASSUNG
100
AcDbDimension
  2
_D_4
 10
208.3575366462
 20
148.9683887728
 30
0.0
 11
144.7325366462
 21
148.9683887728
 31
0.0
 70
   160
  1
(<>)
 71
     2
 42
-1.0
  3
SLDDIMSTYLE1
100
AcDbAlignedDimension
 13
81.1075366462
 23
117.9464151768
 33
0.0
 14
208.3575366462
 24
125.6392845798
 34
0.0
100
AcDbRotatedDimension
  0
DIMENSION
  5
151
330
1F
100
AcDbEntity
  8
VERMASSUNG
100
AcDbDimension
  2
_D_5
 10
221.6426486797
 20
87.0392845798
 30
0.0
 11
221.6426486797
 21
106.5392845798
 31
0.0
 70
   160
  1
ST4 %%c<>
 71
     2
 42
-1.0
  3
SLDDIMSTYLE1
100
AcDbAlignedDimension
 13
207.9575366462
 23
126.0392845798
 33
0.0
 14
207.9575366462
 24
87.0392845798
 34
0.0
 50
90.0
100
AcDbRotatedDimension
  0
LINE
  5
15D
330
1F
100
AcDbEntity
  8
VERMASSUNG
  6
CENTERX2
 62
     7
370
     0
100
AcDbLine
 10
79.1075366462
 20
106.5392845798
 30
0.0
 11
210.4278226967
 21
106.5392845798
 31
0.0
  0
LINE
  5
15E
330
1F
100
AcDbEntity
  8
0
  6
Continuous
 62
     7
370
    15
100
AcDbLine
 10
274.5041552969
 20
39.2698472442
 30
0.0
 11
274.3697831781
 21
39.3474438323
 31
0.0
  0
LINE
  5
15F
330
1F
100
AcDbEntity
  8
0
  6
Continuous
 62
     7
370
    15
100
AcDbLine
 10
271.8096407041
 20
39.3474438323
 30
0.0
 11
271.6752685853
 21
39.2698472442
 31
0.0
  0
LINE
  5
160
330
1F
100
AcDbEntity
  8
0
  6
Continuous
 62
     7
370
    15
100
AcDbLine
 10
275.0897119411
 20
38.2004441592
 30
0.0
 11
275.0897119411
 21
38.4535718109
 31
0.0
  0
LINE
  5
161
330
1F
100
AcDbEntity
  8
0
  6
Continuous
 62
     7
370
    15
100
AcDbLine
 10
271.0897119411
 20
38.4535718109
 30
0.0
 11
271.0897119411
 21
38.2004441592
 31
0.0
  0
LINE
  5
162
330
1F
100
AcDbEntity
  8
0
  6
Continuous
 62
     7
370
    15
100
AcDbLine
 10
276.5026226765
 20
20.717231129
 30
0.0
 11
276.6440210478
 21
20.7988852091
 31
0.0
  0
LINE
  5
163
330
1F
100
AcDbEntity
  8
0
  6
Continuous
 62
     7
370
    15
100
AcDbLine
 10
283.3957932769
 20
32.4945650022
 30
0.0
 11
283.3957932769
 21
32.6578466246
 31
0.0
  0
LINE
  5
164
330
1F
100
AcDbEntity
  8
0
  6
Continuous
 62
     7
370
    15
100
AcDbLine
 10
281.3761059819
 20
37.1218334877
 30
0.0
 11
273.3857993545
 21
41.7345393195
 31
0.0
  0
LINE
  5
165
330
1F
100
AcDbEntity
  8
0
  6
Continuous
 62
     7
370
    15
100
AcDbLine
 10
263.6365917113
 20
24.846586503
 30
0.0
 11
271.6268983387
 21
20.2338806712
 31
0.0
  0
SPLINE
  5
166
330
1F
100
AcDbEntity
  8
0
  6
Continuous
 62
     7
370
    15
100
AcDbSpline
210
0.0
220
0.0
230
1.0
 70
     8
 71
     3
 72
    22
 73
    18
 74
     0
 42
0.000000001
 43
0.00000001
 40
0.0
 40
0.0
 40
0.0
 40
0.0
 40
0.0086966418464177
 40
0.0830005907713287
 40
0.1574003456354433
 40
0.2318202615170948
 40
0.306191856591004
 40
0.3804521433221604
 40
0.4545456204639208
 40
0.5284241289832593
 40
0.6020623157311925
 40
0.675492021999118
 40
0.7488511722705353
 40
0.8223994430541144
 40
0.8967833699721035
 40
0.9730458691579155
 40
0.9999999999999999
 40
0.9999999999999999
 40
0.9999999999999999
 40
0.9999999999999999
 10
273.1183598041393
 20
28.92965021517743
 30
0.0
 10
273.1284115583114
 20
28.9567927923914
 30
0.0
 10
273.2243453163415
 20
29.21584105304197
 30
0.0
 10
273.4485434064272
 20
29.70462666672047
 30
0.0
 10
273.812129856149
 20
30.3786279080488
 30
0.0
 10
274.2295759486079
 20
31.0207274109531
 30
0.0
 10
274.6883902723372
 20
31.61807642881343
 30
0.0
 10
275.1801063815082
 20
32.15883421125929
 30
0.0
 10
275.6940149053517
 20
32.63251673648054
 30
0.0
 10
276.2190870823222
 20
33.03027421047977
 30
0.0
 10
276.7437361898444
 20
33.34516800298492
 30
0.0
 10
277.25644260995
 20
33.57272613184762
 30
0.0
 10
277.7457062903025
 20
33.71037398850208
 30
0.0
 10
278.2030408799915
 20
33.76063273571268
 30
0.0
 10
278.6181515330402
 20
33.71881879929941
 30
0.0
 10
278.9173889657779
 20
33.63744806347447
 30
0.0
 10
279.0622013882495
 20
33.54052017445332
 30
0.0
 10
279.1000179007805
 20
33.51520829397226
 30
0.0
  0
SPLINE
  5
167
330
1F
100
AcDbEntity
  8
0
  6
Continuous
 62
     7
370
    15
100
AcDbSpline
210
0.0
220
0.0
230
1.0
 70
     8
 71
     3
 72
    11
 73
     7
 74
     0
 42
0.000000001
 43
0.00000001
 40
0.0
 40
0.0
 40
0.0
 40
0.0
 40
0.0983853318753714
 40
0.5165255754127346
 40
0.9340325422677643
 40
1.0
 40
1.0
 40
1.0
 40
1.0
 10
273.1629928178932
 20
46.6235698483963
 30
0.0
 10
273.1430081635182
 20
46.69338510636324
 30
0.0
 10
273.0380882033608
 20
47.05991704366097
 30
0.0
 10
272.79185919154
 20
47.67249240636885
 30
0.0
 10
272.5278111435325
 20
48.2397714463325
 30
0.0
 10
272.3489279892345
 20
48.50290286584067
 30
0.0
 10
272.3245203549935
 20
48.53880571801169
 30
0.0
  0
LINE
  5
168
330
1F
100
AcDbEntity
  8
0
  6
Continuous
 62
     7
370
    15
100
AcDbLine
 10
270.2431884683
 20
50.6210791922
 30
0.0
 11
268.8907489541
 21
51.4018259051
 31
0.0
  0
SPLINE
  5
169
330
1F
100
AcDbEntity
  8
0
  6
Continuous
 62
     7
370
    15
100
AcDbSpline
210
0.0
220
0.0
230
1.0
 70
     8
 71
     3
 72
    13
 73
     9
 74
     0
 42
0.000000001
 43
0.00000001
 40
0.0
 40
0.0
 40
0.0
 40
0.0
 40
0.1367300082888546
 40
0.321620692086062
 40
0.5067333278789513
 40
0.6931191945116375
 40
0.8813769390573454
 40
1.0
 40
1.0
 40
1.0
 40
1.0
 10
262.1110840024925
 20
24.16992784026932
 30
0.0
 10
262.2483698991225
 20
24.0846731823049
 30
0.0
 10
262.571298169517
 20
23.88413445316103
 30
0.0
 10
263.1397962437377
 20
23.67783736370023
 30
0.0
 10
263.797252956765
 20
23.53550734022832
 30
0.0
 10
264.4934538908912
 20
23.49730227942248
 30
0.0
 10
265.126386804471
 20
23.53540168494018
 30
0.0
 10
265.5323379678995
 20
23.62642428429944
 30
0.0
 10
265.6892561222379
 20
23.66160856157532
 30
0.0
  0
SPLINE
  5
16A
330
1F
100
AcDbEntity
  8
0
  6
Continuous
 62
     7
370
    15
100
AcDbSpline
210
0.0
220
0.0
230
1.0
 70
     8
 71
     3
 72
    13
 73
     9
 74
     0
 42
0.000000001
 43
0.00000001
 40
0.0
 40
0.0
 40
0.0
 40
0.0
 40
0.1055165090785254
 40
0.3023449186172818
 40
0.4975964014815948
 40
0.6907591048246888
 40
0.8817594451095842
 40
0.9999999999999999
 40
0.9999999999999999
 40
0.9999999999999999
 40
0.9999999999999999
 10
275.4371162968691
 20
40.55033925504674
 30
0.0
 10
275.3963422342562
 20
40.68483810169877
 30
0.0
 10
275.2795090415165
 20
41.07022843729891
 30
0.0
 10
275.0021010914851
 20
41.63310250210129
 30
0.0
 10
274.6155071264595
 20
42.23462613377242
 30
0.0
 10
274.1553628191329
 20
42.74352699511653
 30
0.0
 10
273.7072926115702
 20
43.12352257632624
 30
0.0
 10
273.3921838013143
 20
43.29307852101375
 30
0.0
 10
273.2716996054759
 20
43.35790949679221
 30
0.0
  0
LINE
  5
16B
330
1F
100
AcDbEntity
  8
0
  6
Continuous
 62
     7
370
    15
100
AcDbLine
 10
257.1747991385
 20
27.0036630851
 30
0.0
 11
262.2482902935
 21
24.074798984
 31
0.0
  0
LINE
  5
16C
330
1F
100
AcDbEntity
  8
0
  6
Continuous
 62
     7
370
    15
100
AcDbLine
 10
273.3598872099
 20
43.3227349504
 30
0.0
 11
268.2863960549
 21
46.2515990515
 31
0.0
  0
LINE
  5
16D
330
1F
100
AcDbEntity
  8
0
  6
Continuous
 62
     7
370
    15
100
AcDbLine
 10
266.3983931408
 20
52.8406322902
 30
0.0
 11
265.0547924613
 21
53.6162764524
 31
0.0
  0
SPLINE
  5
16E
330
1F
100
AcDbEntity
  8
0
  6
Continuous
 62
     7
370
    15
100
AcDbSpline
210
0.0
220
0.0
230
1.0
 70
     8
 71
     3
 72
    30
 73
    26
 74
     0
 42
0.000000001
 43
0.00000001
 40
0.0
 40
0.0
 40
0.0
 40
0.0
 40
0.016754449023264
 40
0.0631202392580427
 40
0.1096596024458378
 40
0.1563352982549343
 40
0.2031032906361886
 40
0.2499242724743661
 40
0.2967685410688242
 40
0.3436133816576105
 40
0.3904475019123389
 40
0.4372664847174245
 40
0.4840692224858245
 40
0.5308566416670205
 40
0.5776308610913778
 40
0.62439466741066
 40
0.6711512050159159
 40
0.7179038034957339
 40
0.7646558887695548
 40
0.8114103543883963
 40
0.8581701401825462
 40
0.9049387724228715
 40
0.9517197466446323
 40
0.9960632728819505
 40
1.0
 40
1.0
 40
1.0
 40
1.0
 10
262.18171979037
 20
54.37332961308604
 30
0.0
 10
262.0826938113109
 20
54.37833917562578
 30
0.0
 10
261.70962612748
 20
54.39721206041276
 30
0.0
 10
261.0301367034064
 20
54.32890815500678
 30
0.0
 10
260.1494964122214
 20
54.16912543320167
 30
0.0
 10
259.24607713022
 20
53.90626109245297
 30
0.0
 10
258.3288782657847
 20
53.55033259747152
 30
0.0
 10
257.4036028922457
 20
53.10162951539752
 30
0.0
 10
256.4768596719305
 20
52.56399438495291
 30
0.0
 10
255.55490761103
 20
51.94113131534427
 30
0.0
 10
254.6439308629501
 20
51.23748977684632
 30
0.0
 10
253.7499288819883
 20
50.45793416926394
 30
0.0
 10
252.8787541057636
 20
49.60779083234736
 30
0.0
 10
252.0360986165517
 20
48.69280846679354
 30
0.0
 10
251.2274707285417
 20
47.71913305759923
 30
0.0
 10
250.4581648768258
 20
46.69327299702889
 30
0.0
 10
249.7332316736581
 20
45.62206227667887
 30
0.0
 10
249.0574409778923
 20
44.51261767157015
 30
0.0
 10
248.4352726953272
 20
43.37230340257641
 30
0.0
 10
247.870815480625
 20
42.20866612692353
 30
0.0
 10
247.3680020056675
 20
41.02944659083489
 30
0.0
 10
246.9295946676941
 20
39.84227524783792
 30
0.0
 10
246.5673077131744
 20
38.67628798663743
 30
0.0
 10
246.3595983601849
 20
37.87675840000468
 30
0.0
 10
246.271572403412
 20
37.47464082913599
 30
0.0
 10
246.264394848469
 20
37.44185253504334
 30
0.0
  0
SPLINE
  5
16F
330
1F
100
AcDbEntity
  8
0
  6
Continuous
 62
     7
370
    15
100
AcDbSpline
210
0.0
220
0.0
230
1.0
 70
     8
 71
     3
 72
    10
 73
     6
 74
     0
 42
0.000000001
 43
0.00000001
 40
0.0
 40
0.0
 40
0.0
 40
0.0
 40
0.3385348943984333
 40
0.8625205085289444
 40
1.0
 40
1.0
 40
1.0
 40
1.0
 10
273.6201421616976
 20
24.00378991823355
 30
0.0
 10
273.5440749680193
 20
24.0474122142692
 30
0.0
 10
273.3502706788325
 20
24.15855326821205
 30
0.0
 10
273.1641264542499
 20
24.35764878281683
 30
0.0
 10
273.0594957874175
 20
24.52056869848541
 30
0.0
 10
273.037749257258
 20
24.55443011757908
 30
0.0
  0
LINE
  5
170
330
1F
100
AcDbEntity
  8
0
  6
Continuous
 62
     7
370
    15
100
AcDbLine
 10
256.0206660532
 20
52.2410680557
 30
0.0
 11
234.7185415179
 21
59.9175093512
 31
0.0
  0
LINE
  5
171
330
1F
100
AcDbEntity
  8
0
  6
Continuous
 62
     7
370
    15
100
AcDbLine
 10
228.5537597687
 20
49.238637066
 30
0.0
 11
248.9747177479
 21
31.9953489661
 31
0.0
  0
SPLINE
  5
172
330
1F
100
AcDbEntity
  8
0
  6
Continuous
 62
     7
370
    15
100
AcDbSpline
210
0.0
220
0.0
230
1.0
 70
     8
 71
     3
 72
    14
 73
    10
 74
     0
 42
0.000000001
 43
0.00000001
 40
0.0
 40
0.0
 40
0.0
 40
0.0
 40
0.0402518181950712
 40
0.2084304108016517
 40
0.3772523920104577
 40
0.5465906767250922
 40
0.7162857934342108
 40
0.886191146904916
 40
1.0
 40
1.0
 40
1.0
 40
1.0
 10
257.22811088722
 20
22.3648946446685
 30
0.0
 10
257.2933736110794
 20
22.3607341320361
 30
0.0
 10
257.631314527888
 20
22.33919032616596
 30
0.0
 10
258.2738008320234
 20
22.39706169550703
 30
0.0
 10
259.1506621281561
 20
22.54234549225732
 30
0.0
 10
260.0517088413981
 20
22.79148108941912
 30
0.0
 10
260.9672136877678
 20
23.13693730236707
 30
0.0
 10
261.7900050798318
 20
23.51607547537444
 30
0.0
 10
262.3052381252849
 20
23.81657970359334
 30
0.0
 10
262.5119182302026
 20
23.93712369036718
 30
0.0
  0
LINE
  5
173
330
1F
100
AcDbEntity
  8
0
  6
Continuous
 62
     7
370
    15
100
AcDbLine
 10
253.0170390735
 20
23.9047745245
 30
0.0
 11
254.3694785877
 21
23.1240278116
 31
0.0
  0
LINE
  5
174
330
1F
100
AcDbEntity
  8
0
  6
Continuous
 62
     7
370
    15
100
AcDbLine
 10
249.1810825807
 20
26.1192250718
 30
0.0
 11
250.5246832602
 21
25.3435809096
 31
0.0
  0
SPLINE
  5
175
330
1F
100
AcDbEntity
  8
0
  6
Continuous
 62
     7
370
    15
100
AcDbSpline
210
0.0
220
0.0
230
1.0
 70
     8
 71
     3
 72
    11
 73
     7
 74
     0
 42
0.000000001
 43
0.00000001
 40
0.0
 40
0.0
 40
0.0
 40
0.0
 40
0.1396549484946467
 40
0.5632377943998885
 40
0.9861245645469667
 40
1.0
 40
1.0
 40
1.0
 40
1.0
 10
246.2749163230378
 20
30.07058611451693
 30
0.0
 10
246.3039451843833
 20
29.97365999276695
 30
0.0
 10
246.4210205334087
 20
29.58275042871178
 30
0.0
 10
246.6854150640876
 20
28.95225116448815
 30
0.0
 10
246.9383778441947
 20
28.42191674425806
 30
0.0
 10
247.1001702410255
 20
28.19005802541312
 30
0.0
 10
247.1053102003219
 20
28.18269213924828
 30
0.0
  0
SPLINE
  5
176
330
1F
100
AcDbEntity
  8
0
  6
Continuous
 62
     7
370
    15
100
AcDbSpline
210
0.0
220
0.0
230
1.0
 70
     8
 71
     3
 72
    25
 73
    21
 74
     0
 42
0.000000001
 43
0.00000001
 40
0.0
 40
0.0
 40
0.0
 40
0.0
 40
0.0401084083423426
 40
0.0964801990639011
 40
0.1538964654366026
 40
0.2125658288098181
 40
0.2722358289927304
 40
0.3324596268459722
 40
0.39284810154243
 40
0.4531688258321291
 40
0.5133748710545352
 40
0.5734773185709473
 40
0.6335128660187542
 40
0.6935284777892181
 40
0.7535715599563128
 40
0.8136816374053534
 40
0.8739125554793652
 40
0.9343155182951015
 40
0.991691574293212
 40
1.0
 40
1.0
 40
1.0
 40
1.0
 10
234.6383777310672
 20
59.93380668003856
 30
0.0
 10
234.5225369669872
 20
59.97031419527514
 30
0.0
 10
234.2438836760672
 20
60.0581324977939
 30
0.0
 10
233.7615999099594
 20
60.08426679894645
 30
0.0
 10
233.207376175264
 20
60.02934928845609
 30
0.0
 10
232.6302658804197
 20
59.87375988863741
 30
0.0
 10
232.0406333025397
 20
59.622929514722
 30
0.0
 10
231.4489258256566
 20
59.27942576011936
 30
0.0
 10
230.8668501574782
 20
58.85045814105075
 30
0.0
 10
230.3050463894987
 20
58.34469902312512
 30
0.0
 10
229.7729777410979
 20
57.77184954069581
 30
0.0
 10
229.2790862845848
 20
57.14204786735287
 30
0.0
 10
228.8311761038939
 20
56.4660140507616
 30
0.0
 10
228.4364310544291
 20
55.75498451462209
 30
0.0
 10
228.1013571850149
 20
55.0206239365292
 30
0.0
 10
227.8317287546464
 20
54.27483844734103
 30
0.0
 10
227.6323308903412
 20
53.52942130269714
 30
0.0
 10
227.5100208370528
 20
52.80945683185156
 30
0.0
 10
227.4752194534018
 20
52.31636640674664
 30
0.0
 10
227.4739400822064
 20
52.06737386025564
 30
0.0
 10
227.4737782546293
 20
52.03587880966882
 30
0.0
  0
SPLINE
  5
177
330
1F
100
AcDbEntity
  8
0
  6
Continuous
 62
     7
370
    15
100
AcDbSpline
210
0.0
220
0.0
230
1.0
 70
     8
 71
     3
 72
    13
 73
     9
 74
     0
 42
0.000000001
 43
0.00000001
 40
0.0
 40
0.0
 40
0.0
 40
0.0
 40
0.1025374398373074
 40
0.2964217420447873
 40
0.4903181319526811
 40
0.6825090563323886
 40
0.8711702842342361
 40
1.0
 40
1.0
 40
1.0
 40
1.0
 10
227.4737782546293
 20
52.03587880966882
 30
0.0
 10
227.4760546488723
 20
51.91523818944318
 30
0.0
 10
227.4826353938977
 20
51.56648262400884
 30
0.0
 10
227.5564675823491
 20
51.02193398421911
 30
0.0
 10
227.7222409616732
 20
50.4283085923966
 30
0.0
 10
227.9735460701516
 20
49.90655090567721
 30
0.0
 10
228.2604305102957
 20
49.49758189366321
 30
0.0
 10
228.4917401092666
 20
49.30527922258913
 30
0.0
 10
228.5855996365497
 20
49.22724771035358
 30
0.0
  0
LWPOLYLINE
  5
178
330
1F
100
AcDbEntity
  8
0
  6
Continuous
 62
     7
370
    15
100
AcDbPolyline
 90
       25
 70
   128
 43
0.0
 10
271.8098486671
 20
37.8698652239
 10
271.5222059602
 20
38.0862691857
 10
271.3413861955
 20
38.3382769367
 10
271.2797119411
 20
38.6087145651
 10
271.3413861955
 20
38.8791521936
 10
271.5222059602
 20
39.1311599446
 10
271.8098486671
 20
39.3475639063
 10
272.1847119411
 20
39.5136165065
 10
272.6212494695
 20
39.6180015348
 10
273.0897119411
 20
39.653605324
 10
273.5581744127
 20
39.6180015348
 10
273.9947119411
 20
39.5136165065
 10
274.369575215
 20
39.3475639063
 10
274.6572179219
 20
39.1311599446
 10
274.8380376867
 20
38.8791521936
 10
274.8997119411
 20
38.6087145651
 10
274.8380376867
 20
38.3382769367
 10
274.6572179219
 20
38.0862691857
 10
274.369575215
 20
37.8698652239
 10
273.9947119411
 20
37.7038126237
 10
273.5581744127
 20
37.5994275955
 10
273.0897119411
 20
37.5638238062
 10
272.6212494695
 20
37.5994275955
 10
272.1847119411
 20
37.7038126237
 10
271.8098486671
 20
37.8698652239
  0
LWPOLYLINE
  5
179
330
1F
100
AcDbEntity
  8
0
  6
Continuous
 62
     7
370
    15
100
AcDbPolyline
 90
        8
 70
   128
 43
0.0
 10
271.6754983787
 20
37.637163699
 10
271.3682278871
 20
37.8658451023
 10
271.1691245697
 20
38.1314555363
 10
271.0906988204
 20
38.4173057204
 10
271.1378784172
 20
38.7054346363
 10
271.3076988927
 20
38.9777380847
 10
271.5894898018
 20
39.2171062383
 10
271.6752685853
 20
39.2698472442
  0
LWPOLYLINE
  5
17A
330
1F
100
AcDbEntity
  8
0
  6
Continuous
 62
     7
370
    15
100
AcDbPolyline
 90
       14
 70
   128
 43
0.0
 10
274.5041552969
 20
39.2698472442
 10
274.6700219658
 20
39.1612192323
 10
274.9252211925
 20
38.9121090051
 10
275.0650886223
 20
38.6341871997
 10
275.0808358703
 20
38.3449166651
 10
274.971473479
 20
38.0624733329
 10
274.7438730896
 20
37.8046041565
 10
274.4123356717
 20
37.5875120045
 10
273.9976929406
 20
37.4248375753
 10
273.5259984239
 20
37.3268023015
 10
273.0268904229
 20
37.2995661
 10
272.531729729
 20
37.3448403214
 10
272.0716291096
 20
37.4597802199
 10
271.6754983787
 20
37.637163699
  0
LWPOLYLINE
  5
17B
330
1F
100
AcDbEntity
  8
0
  6
Continuous
 62
     7
370
    15
100
AcDbPolyline
 90
       20
 70
   128
 43
0.0
 10
272.2411838037
 20
38.118869698
 10
272.0116427628
 20
38.3044632124
 10
271.8989272454
 20
38.5230270818
 10
271.9152517267
 20
38.7508765196
 10
272.0588471958
 20
38.9633205037
 10
272.3141528557
 20
39.1373374321
 10
272.6535023764
 20
39.2540698705
 10
273.040121972
 20
39.3008680478
 10
273.4321154102
 20
39.2726606554
 10
273.7870041196
 20
39.1725044019
 10
274.0663304018
 20
39.0112527715
 10
274.23982492
 20
38.8063798804
 10
274.2886868512
 20
38.5800868853
 10
274.2076212467
 20
38.3568961435
 10
274.0054128229
 20
38.1609938351
 10
273.703974
 20
38.0136090149
 10
273.3359703517
 20
37.930713115
 10
272.9412807836
 20
37.9212891926
 10
272.5626760345
 20
37.9863584757
 10
272.2411838037
 20
38.118869698
  0
SPLINE
  5
17C
330
1F
100
AcDbEntity
  8
0
  6
Continuous
 62
     7
370
    15
100
AcDbSpline
210
0.0
220
0.0
230
1.0
 70
     8
 71
     3
 72
     9
 73
     5
 74
     0
 42
0.000000001
 43
0.00000001
 40
0.0
 40
0.0
 40
0.0
 40
0.0
 40
0.6300416123970557
 40
1.0
 40
1.0
 40
1.0
 40
1.0
 10
272.3827456761312
 20
38.04061797883627
 30
0.0
 10
272.2929081678341
 20
38.10227459199542
 30
0.0
 10
272.1503183665744
 20
38.20013576806056
 30
0.0
 10
272.0218754162416
 20
38.34544135203938
 30
0.0
 10
271.9743568694375
 20
38.39919837159789
 30
0.0
  0
SPLINE
  5
17D
330
1F
100
AcDbEntity
  8
0
  6
Continuous
 62
     7
370
    15
100
AcDbSpline
210
0.0
220
0.0
230
1.0
 70
     8
 71
     3
 72
    11
 73
     7
 74
     0
 42
0.000000001
 43
0.00000001
 40
0.0
 40
0.0
 40
0.0
 40
0.0
 40
0.2164526859271174
 40
0.440305550863398
 40
0.751896020422188
 40
1.0
 40
1.0
 40
1.0
 40
1.0
 10
274.2050670127384
 20
38.74425304029116
 30
0.0
 10
274.1845951760984
 20
38.67057287898769
 30
0.0
 10
274.1429516027217
 20
38.52069354683031
 30
0.0
 10
274.0656718076796
 20
38.30405223201016
 30
0.0
 10
273.9827743596287
 20
38.15568350639297
 30
0.0
 10
273.9297246472473
 20
38.11736033701685
 30
0.0
 10
273.9062085220157
 20
38.10037226281509
 30
0.0
  0
SPLINE
  5
17E
330
1F
100
AcDbEntity
  8
0
  6
Continuous
 62
     7
370
    15
100
AcDbSpline
210
0.0
220
0.0
230
1.0
 70
     8
 71
     3
 72
    11
 73
     7
 74
     0
 42
0.000000001
 43
0.00000001
 40
0.0
 40
0.0
 40
0.0
 40
0.0
 40
0.1849308168246135
 40
0.5198464202157763
 40
0.8714438233692643
 40
1.0
 40
1.0
 40
1.0
 40
1.0
 10
273.3885704318107
 20
39.21560648342059
 30
0.0
 10
273.4360945223241
 20
39.16269378991222
 30
0.0
 10
273.5696862554468
 20
39.01395452202485
 30
0.0
 10
273.8190607367682
 20
38.81708043905827
 30
0.0
 10
274.04936827341
 20
38.74892219635722
 30
0.0
 10
274.1721842892017
 20
38.74523914055589
 30
0.0
 10
274.2050670127384
 20
38.74425304029116
 30
0.0
  0
SPLINE
  5
17F
330
1F
100
AcDbEntity
  8
0
  6
Continuous
 62
     7
370
    15
100
AcDbSpline
210
0.0
220
0.0
230
1.0
 70
     8
 71
     3
 72
    10
 73
     6
 74
     0
 42
0.000000001
 43
0.00000001
 40
0.0
 40
0.0
 40
0.0
 40
0.0
 40
0.4391222274230479
 40
0.7513714712594598
 40
1.0
 40
1.0
 40
1.0
 40
1.0
 10
272.2732153601602
 20
39.04307914907396
 30
0.0
 10
272.432889285428
 20
39.01185289825192
 30
0.0
 10
272.7061034947253
 20
38.9584224122577
 30
0.0
 10
273.1032653304314
 20
39.06239349305411
 30
0.0
 10
273.3009429637074
 20
39.16854925815038
 30
0.0
 10
273.3885704318107
 20
39.21560648342059
 30
0.0
  0
SPLINE
  5
180
330
1F
100
AcDbEntity
  8
0
  6
Continuous
 62
     7
370
    15
100
AcDbSpline
210
0.0
220
0.0
230
1.0
 70
     8
 71
     3
 72
    10
 73
     6
 74
     0
 42
0.000000001
 43
0.00000001
 40
0.0
 40
0.0
 40
0.0
 40
0.0
 40
0.439122227423046
 40
0.7513714712594577
 40
1.0
 40
1.0
 40
1.0
 40
1.0
 10
271.9743568694376
 20
38.39919837159789
 30
0.0
 10
272.0171413687654
 20
38.43545095004372
 30
0.0
 10
272.0903488955072
 20
38.49748186422369
 30
0.0
 10
272.1967680886492
 20
38.76929509995171
 30
0.0
 10
272.2497356508472
 20
38.95899021089632
 30
0.0
 10
272.2732153601602
 20
39.04307914907396
 30
0.0
  0
LINE
  5
181
330
1F
100
AcDbEntity
  8
0
  6
Continuous
 62
     7
370
    15
100
AcDbLine
 10
272.2732153602
 20
38.1010513704
 30
0.0
 11
272.2732153602
 21
39.0430791491
 31
0.0
  0
LINE
  5
182
330
1F
100
AcDbEntity
  8
0
  6
Continuous
 62
     7
370
    15
100
AcDbLine
 10
273.3885704318
 20
37.9377970541
 30
0.0
 11
273.3885704318
 21
39.2156064834
 31
0.0
  0
LWPOLYLINE
  5
183
330
1F
100
AcDbEntity
  8
0
  6
Continuous
 62
     7
370
    15
100
AcDbPolyline
 90
       57
 70
   128
 43
0.0
 10
276.6429235166
 20
36.3941810218
 10
275.8868419916
 20
35.9086724825
 10
275.1402686306
 20
35.3312055635
 10
274.4125920266
 20
34.6690422464
 10
273.7129631352
 20
33.9305096191
 10
273.0501801955
 20
33.1248951579
 10
272.4325780877
 20
32.262329932
 10
271.8679235166
 20
31.3536611997
 10
271.3633173409
 20
30.4103159975
 10
270.9251052762
 20
29.4441574386
 10
270.5587980935
 20
28.4673355275
 10
270.269002318
 20
27.4921343665
 10
270.0593622999
 20
26.530817676
 10
269.9325143839
 20
25.5954745712
 10
269.8900537562
 20
24.6978675343
 10
269.9325143839
 20
23.8492844946
 10
270.0593622999
 20
23.0603968762
 10
270.269002318
 20
22.3411253986
 10
270.5587980935
 20
21.700515318
 10
270.9251052762
 20
21.1466226778
 10
271.3633173409
 20
20.6864129994
 10
271.8679235166
 20
20.3256736864
 10
272.4325780877
 20
20.0689412451
 10
273.0501801955
 20
19.9194442348
 10
273.7129631352
 20
19.8790626673
 10
274.4125920266
 20
19.9483043641
 10
275.1402686306
 20
20.1262985707
 10
275.8868419916
 20
20.4108069067
 10
276.6429235166
 20
20.7982515148
 10
277.3990050415
 20
21.2837600541
 10
278.1455784025
 20
21.861226973
 10
278.8732550065
 20
22.5233902901
 10
279.5728838979
 20
23.2619229174
 10
280.2356668376
 20
24.0675373787
 10
280.8532689454
 20
24.9301026045
 10
281.4179235166
 20
25.8387713368
 10
281.9225296922
 20
26.7821165391
 10
282.3607417569
 20
27.7482750979
 10
282.7270489396
 20
28.725097009
 10
283.0168447151
 20
29.70029817
 10
283.2264847332
 20
30.6616148605
 10
283.3533326492
 20
31.5969579653
 10
283.3957932769
 20
32.4945650022
 10
283.3533326492
 20
33.3431480419
 10
283.2264847332
 20
34.1320356603
 10
283.0168447151
 20
34.8513071379
 10
282.7270489396
 20
35.4919172186
 10
282.3607417569
 20
36.0458098587
 10
281.9225296922
 20
36.5060195372
 10
281.4179235166
 20
36.8667588501
 10
280.8532689454
 20
37.1234912915
 10
280.2356668376
 20
37.2729883017
 10
279.5728838979
 20
37.3133698693
 10
278.8732550065
 20
37.2441281725
 10
278.1455784025
 20
37.0661339658
 10
277.3990050415
 20
36.7816256298
 10
276.6429235166
 20
36.3941810218
  0
LWPOLYLINE
  5
184
330
1F
100
AcDbEntity
  8
0
  6
Continuous
 62
     7
370
    15
100
AcDbPolyline
 90
       30
 70
   128
 43
0.0
 10
276.5015021603
 20
36.6391299953
 10
275.7430734596
 20
36.1529788916
 10
274.9938510558
 20
35.5760899352
 10
274.2629294942
 20
34.9154657764
 10
273.5591811723
 20
34.1791254978
 10
272.8911486414
 20
33.3760072728
 10
272.2669409115
 20
32.5158598687
 10
271.6941350189
 20
31.6091243099
 10
271.1796840512
 20
30.6668071377
 10
270.7298327461
 20
29.7003468061
 10
270.3500416893
 20
28.7214748343
 10
270.0449210296
 20
27.742073402
 10
269.8181745184
 20
26.774031116
 10
269.6725545514
 20
25.8290986981
 10
269.6098287576
 20
24.918746348
 10
269.6307585433
 20
24.0540245099
 10
269.735089849
 20
23.2454297356
 10
269.9215562342
 20
22.5027772703
 10
270.1878942496
 20
21.8350819089
 10
270.5308709123
 20
21.2504485686
 10
270.9463229503
 20
20.7559739062
 10
271.4292073387
 20
20.3576601743
 10
271.9736625151
 20
20.0603423619
 10
272.5730795313
 20
19.8676295046
 10
273.2201822765
 20
19.7818608754
 10
273.9071158002
 20
19.8040775893
 10
274.6255416598
 20
19.9340099655
 10
275.3667391387
 20
20.1700808009
 10
276.1217111035
 20
20.5094245154
 10
276.5026226765
 20
20.717231129
  0
LWPOLYLINE
  5
185
330
1F
100
AcDbEntity
  8
0
  6
Continuous
 62
     7
370
    15
100
AcDbPolyline
 90
       16
 70
   128
 43
0.0
 10
283.3957932769
 20
32.6578466246
 10
283.393175563
 20
32.8757030901
 10
283.3304497692
 20
33.7136337803
 10
283.1848298022
 20
34.490436963
 10
282.9580832911
 20
35.1966832998
 10
282.6529626313
 20
35.8237999169
 10
282.2731715745
 20
36.3641744681
 10
281.8233202695
 20
36.8112475384
 10
281.3088693017
 20
37.1595922663
 10
280.7360634091
 20
37.4049802187
 10
280.1118556792
 20
37.5444327183
 10
279.4438231483
 20
37.5762570006
 10
278.7400748264
 20
37.5000667619
 10
278.0091532648
 20
37.3167868486
 10
277.2599308611
 20
37.0286420305
 10
276.5015021603
 20
36.6391299953
  0
SPLINE
  5
186
330
1F
100
AcDbEntity
  8
0
  6
Continuous
 62
     7
370
    15
100
AcDbSpline
210
0.0
220
0.0
230
1.0
 70
    11
 71
     3
 72
    77
 73
    73
 74
     0
 42
0.000000001
 43
0.00000001
 40
0.0
 40
0.0
 40
0.0
 40
0.0
 40
0.0312500000000001
 40
0.0312500000000001
 40
0.0625000000000003
 40
0.0625000000000003
 40
0.0937500000000004
 40
0.0937500000000004
 40
0.1250000000000006
 40
0.1250000000000006
 40
0.1562500000000007
 40
0.1562500000000007
 40
0.1875000000000008
 40
0.1875000000000008
 40
0.218750000000001
 40
0.218750000000001
 40
0.2500000000000011
 40
0.2500000000000011
 40
0.2812500000000012
 40
0.2812500000000012
 40
0.3125000000000014
 40
0.3125000000000014
 40
0.3437500000000016
 40
0.3437500000000016
 40
0.3593750000000016
 40
0.3593750000000016
 40
0.3750000000000017
 40
0.3906250000000017
 40
0.3906250000000017
 40
0.4062500000000018
 40
0.4062500000000018
 40
0.4375000000000018
 40
0.4375000000000018
 40
0.4687500000000017
 40
0.4687500000000017
 40
0.5000000000000017
 40
0.5000000000000017
 40
0.5312500000000017
 40
0.5312500000000017
 40
0.5625000000000016
 40
0.5625000000000016
 40
0.5937500000000016
 40
0.5937500000000016
 40
0.6250000000000014
 40
0.6250000000000014
 40
0.6562500000000013
 40
0.6562500000000013
 40
0.6875000000000012
 40
0.6875000000000012
 40
0.7187500000000012
 40
0.7187500000000012
 40
0.7500000000000011
 40
0.7500000000000011
 40
0.7656250000000009
 40
0.7656250000000009
 40
0.7812500000000006
 40
0.7812500000000006
 40
0.8125000000000004
 40
0.8125000000000004
 40
0.8437500000000004
 40
0.8437500000000004
 40
0.8750000000000003
 40
0.8750000000000003
 40
0.8906250000000003
 40
0.8906250000000003
 40
0.9062500000000002
 40
0.9062500000000002
 40
0.9375000000000001
 40
0.9375000000000001
 40
0.9687500000000001
 40
0.9687500000000001
 40
1.0
 40
1.0
 40
1.0
 40
1.0
 10
273.0783837942977
 20
39.85370143000577
 30
0.0
 10
273.233529516242
 20
39.8304860925658
 30
0.0
 10
273.3846885926486
 20
39.7995361831683
 30
0.0
 10
273.6799104076169
 20
39.72493393492195
 30
0.0
 10
273.8249010071432
 20
39.68092276228513
 30
0.0
 10
274.1034721100507
 20
39.58258784870188
 30
0.0
 10
274.2352205513392
 20
39.5290204579361
 30
0.0
 10
274.4843142139252
 20
39.41417272791485
 30
0.0
 10
274.6026505204943
 20
39.35226142306279
 30
0.0
 10
274.8184983904687
 20
39.22390776862632
 30
0.0
 10
274.9159285625038
 20
39.15770852757996
 30
0.0
 10
275.0900000714717
 20
39.02096105227316
 30
0.0
 10
275.1672277685918
 20
38.94966907599209
 30
0.0
 10
275.2951315639119
 20
38.80600127660626
 30
0.0
 10
275.3461977375295
 20
38.73359645465255
 30
0.0
 10
275.4219545483235
 20
38.58628625186641
 30
0.0
 10
275.4466328854469
 20
38.51053503556074
 30
0.0
 10
275.4655252454051
 20
38.36039378297818
 30
0.0
 10
275.4602524402432
 20
38.28571292041902
 30
0.0
 10
275.4183521438558
 20
38.13548887581388
 30
0.0
 10
275.3808703002524
 20
38.05918225268339
 30
0.0
 10
275.2751188820859
 20
37.91195735557727
 30
0.0
 10
275.2069433088652
 20
37.84021373874275
 30
0.0
 10
275.0798505090056
 20
37.73487636166077
 30
0.0
 10
275.0331213516514
 20
37.70007530196724
 30
0.0
 10
274.9338405108917
 20
37.63325521244396
 30
0.0
 10
274.8281661522599
 20
37.56869164595769
 30
0.0
 10
274.7098740810929
 20
37.50855388839663
 30
0.0
 10
274.5851557782914
 20
37.45070187762049
 30
0.0
 10
274.5194097893095
 20
37.42288905004013
 30
0.0
 10
274.3178084511952
 20
37.34517507142839
 30
0.0
 10
274.1760225376285
 20
37.30011200368792
 30
0.0
 10
273.8782292347034
 20
37.22391375950312
 30
0.0
 10
273.7253308111377
 20
37.19368749800114
 30
0.0
 10
273.4175456760344
 20
37.14997141539025
 30
0.0
 10
273.2603326389965
 20
37.13630208173886
 30
0.0
 10
272.9524444972936
 20
37.12698795370164
 30
0.0
 10
272.8009966742986
 20
37.13107837211535
 30
0.0
 10
272.5027131735479
 20
37.15750803925746
 30
0.0
 10
272.3570823012478
 20
37.17992824268226
 30
0.0
 10
272.0803858139819
 20
37.24211780115846
 30
0.0
 10
271.9480653696055
 20
37.28198049338413
 30
0.0
 10
271.6956320027984
 20
37.38031102422321
 30
0.0
 10
271.578672225837
 20
37.43759810035389
 30
0.0
 10
271.3637489444678
 20
37.5673149457679
 30
0.0
 10
271.2653302506993
 20
37.64003799782141
 30
0.0
 10
271.0889525860158
 20
37.80045194833225
 30
0.0
 10
271.013089421595
 20
37.88614512852581
 30
0.0
 10
270.8855168472448
 20
38.06749612008264
 30
0.0
 10
270.83358863068
 20
38.16369769649702
 30
0.0
 10
270.7570020009116
 20
38.36340158285741
 30
0.0
 10
270.7329817677958
 20
38.46480355441086
 30
0.0
 10
270.7186943424393
 20
38.61822689647914
 30
0.0
 10
270.7175812651058
 20
38.66958965253168
 30
0.0
 10
270.7230601239319
 20
38.77259972324232
 30
0.0
 10
270.7297386184135
 20
38.82457888278379
 30
0.0
 10
270.7616198427399
 20
38.97756312441003
 30
0.0
 10
270.7983024612165
 20
39.07583046871926
 30
0.0
 10
270.903841692196
 20
39.26331024876363
 30
0.0
 10
270.9741379123124
 20
39.35366005003271
 30
0.0
 10
271.1433087238864
 20
39.51470841700939
 30
0.0
 10
271.2419398371072
 20
39.58609400690218
 30
0.0
 10
271.411742245474
 20
39.67873790137135
 30
0.0
 10
271.4720859509491
 20
39.70715353135183
 30
0.0
 10
271.5967297425875
 20
39.75757317414577
 30
0.0
 10
271.6614278386008
 20
39.7798146646418
 30
0.0
 10
271.8624559321265
 20
39.83799729555175
 30
0.0
 10
272.0074462177468
 20
39.86551121648544
 30
0.0
 10
272.3037866766558
 20
39.89732752414763
 30
0.0
 10
272.4557396533345
 20
39.90211707812028
 30
0.0
 10
272.7670280339873
 20
39.89189012541623
 30
0.0
 10
272.9232380723533
 20
39.87691676744574
 30
0.0
 10
273.0783837942977
 20
39.85370143000577
 30
0.0
  0
LINE
  5
187
330
1F
100
AcDbEntity
  8
0
  6
Continuous
 62
     7
370
    15
100
AcDbLine
 10
273.3857993545
 20
41.7345393195
 30
0.0
 11
273.3309820089
 21
41.7654809466
 31
0.0
  0
LINE
  5
188
330
1F
100
AcDbEntity
  8
0
  6
Continuous
 62
     7
370
    15
100
AcDbLine
 10
280.3425641592
 20
28.505447833
 30
0.0
 11
281.7199502055
 21
30.21890298
 31
0.0
  0
SPLINE
  5
189
330
1F
100
AcDbEntity
  8
0
  6
Continuous
 62
     7
370
    15
100
AcDbSpline
210
0.0
220
0.0
230
1.0
 70
     8
 71
     3
 72
    22
 73
    18
 74
     0
 42
0.000000001
 43
0.00000001
 40
0.0
 40
0.0
 40
0.0
 40
0.0
 40
0.0500000000000154
 40
0.1
 40
0.1500000000000002
 40
0.2
 40
0.25
 40
0.2968749999999254
 40
0.34375
 40
0.3906249999999996
 40
0.4374999999999991
 40
0.5153528850584173
 40
0.5153528850584173
 40
0.53125
 40
0.6249999999995612
 40
0.8125
 40
0.8824198414285295
 40
0.8824198414285295
 40
0.8824198414285295
 40
0.8824198414285295
 10
281.7199502054705
 20
30.21890298002453
 30
0.0
 10
281.785688394405
 20
30.30068066209778
 30
0.0
 10
281.9144431076823
 20
30.47868355315052
 30
0.0
 10
282.0907481972666
 20
30.78404852199873
 30
0.0
 10
282.2394562552921
 20
31.12261954168028
 30
0.0
 10
282.3461438489858
 20
31.4784062071152
 30
0.0
 10
282.3966913419608
 20
31.82201640384933
 30
0.0
 10
282.3877624665325
 20
32.13212570237788
 30
0.0
 10
282.3227337819164
 20
32.39244450650961
 30
0.0
 10
282.2065355234197
 20
32.59658946808766
 30
0.0
 10
282.0146880192378
 20
32.76941481692292
 30
0.0
 10
281.839458908046
 20
32.82365041051003
 30
0.0
 10
281.702511827601
 20
32.83673623503526
 30
0.0
 10
281.5545711872637
 20
32.85059485062113
 30
0.0
 10
281.2178932748488
 20
32.87982845802293
 30
0.0
 10
280.9899496153445
 20
32.90062154691149
 30
0.0
 10
280.4897331475159
 20
32.94537399446055
 30
0.0
 10
280.3425433594854
 20
32.95853294636397
 30
0.0
  0
SPLINE
  5
18A
330
1F
100
AcDbEntity
  8
0
  6
Continuous
 62
     7
370
    15
100
AcDbSpline
210
0.0
220
0.0
230
1.0
 70
     8
 71
     3
 72
    22
 73
    18
 74
     0
 42
0.000000001
 43
0.00000001
 40
0.0
 40
0.0
 40
0.0
 40
0.0
 40
0.0500000000000154
 40
0.1
 40
0.1500000000000002
 40
0.2
 40
0.25
 40
0.2968749999999254
 40
0.34375
 40
0.3906249999999996
 40
0.4374999999999991
 40
0.5153528850584173
 40
0.5153528850584173
 40
0.53125
 40
0.6249999999995612
 40
0.8125
 40
0.8812161579345641
 40
0.8812161579345641
 40
0.8812161579345641
 40
0.8812161579345641
 10
271.5658968276303
 20
24.35709273713667
 30
0.0
 10
271.5011279861404
 20
24.362884047568
 30
0.0
 10
271.3709540499281
 20
24.39235681169134
 30
0.0
 10
271.1952193788833
 20
24.49411324911069
 30
0.0
 10
271.0463584811022
 20
24.66100327982382
 30
0.0
 10
270.9397118278916
 20
24.89360735853874
 30
0.0
 10
270.8891536402851
 20
25.17885780942492
 30
0.0
 10
270.8980847400283
 20
25.49927529907739
 30
0.0
 10
270.9631145598445
 20
25.83467698919553
 30
0.0
 10
271.0793061015802
 20
26.1729729950346
 30
0.0
 10
271.2711850060011
 20
26.56733989499922
 30
0.0
 10
271.4462930443083
 20
26.82374008759549
 30
0.0
 10
271.5832984021349
 20
26.99501413399664
 30
0.0
 10
271.7313428528947
 20
27.17981050719297
 30
0.0
 10
272.06916608766
 20
27.59918894086163
 30
0.0
 10
272.2881472932916
 20
27.87200955331082
 30
0.0
 10
272.7966826661537
 20
28.50464944516234
 30
0.0
 10
272.9433037359178
 20
28.68704297093621
 30
0.0
  0
LINE
  5
18B
330
1F
100
AcDbEntity
  8
0
  6
Continuous
 62
     7
370
    15
100
AcDbLine
 10
272.9432828739
 20
24.2339336688
 30
0.0
 11
271.5658968276
 21
24.3570927371
 31
0.0
  0
SPLINE
  5
18C
330
1F
100
AcDbEntity
  8
0
  6
Continuous
 62
     7
370
    15
100
AcDbSpline
210
0.0
220
0.0
230
1.0
 70
     8
 71
     3
 72
    16
 73
    12
 74
     0
 42
0.000000001
 43
0.00000001
 40
0.0
 40
0.0
 40
0.0
 40
0.0
 40
0.1067399128604466
 40
0.2144929388792521
 40
0.3255046923976062
 40
0.437658403560951
 40
0.5291320355405335
 40
0.715186785465011
 40
0.8099889373885245
 40
0.9014942576187294
 40
0.9999999999999999
 40
0.9999999999999999
 40
0.9999999999999999
 40
0.9999999999999999
 10
271.4775084799826
 20
24.6869555296852
 30
0.0
 10
271.4465004031187
 20
24.69106436127232
 30
0.0
 10
271.3841899387637
 20
24.69932102308573
 30
0.0
 10
271.2968761981571
 20
24.72960232791462
 30
0.0
 10
271.2146141086877
 20
24.77363454623219
 30
0.0
 10
271.1440940611555
 20
24.82910364314422
 30
0.0
 10
271.065978850095
 20
24.91225434685534
 30
0.0
 10
271.0037530879861
 20
25.00984159894368
 30
0.0
 10
270.9570978833805
 20
25.12387653787309
 30
0.0
 10
270.9269917605203
 20
25.2169713275296
 30
0.0
 10
270.9181695613923
 20
25.28782388434835
 30
0.0
 10
270.9135959472954
 20
25.32455534415453
 30
0.0
  0
SPLINE
  5
18D
330
1F
100
AcDbEntity
  8
0
  6
Continuous
 62
     7
370
    15
100
AcDbSpline
210
0.0
220
0.0
230
1.0
 70
     8
 71
     3
 72
    13
 73
     9
 74
     0
 42
0.000000001
 43
0.00000001
 40
0.0
 40
0.0
 40
0.0
 40
0.0
 40
0.0009443635105112
 40
0.1353556582453344
 40
0.3633505156643304
 40
0.5762888603931242
 40
0.7942575195856144
 40
1.0
 40
1.0
 40
1.0
 40
1.0
 10
273.1169760519891
 20
28.93014261490577
 30
0.0
 10
273.1169739825639
 20
28.93011483669235
 30
0.0
 10
273.116677371779
 20
28.92613338429642
 30
0.0
 10
273.1023767429979
 20
28.90122186295621
 30
0.0
 10
273.074595935762
 20
28.85836008191388
 30
0.0
 10
273.0325912597897
 20
28.8011002112657
 30
0.0
 10
272.9890445473533
 20
28.74433499157421
 30
0.0
 10
272.9582545245073
 20
28.70576937437211
 30
0.0
 10
272.9433037359153
 20
28.68704297093312
 30
0.0
  0
SPLINE
  5
18E
330
1F
100
AcDbEntity
  8
0
  6
Continuous
 62
     7
370
    15
100
AcDbSpline
210
0.0
220
0.0
230
1.0
 70
     8
 71
     3
 72
    16
 73
    12
 74
     0
 42
0.000000001
 43
0.00000001
 40
0.0
 40
0.0
 40
0.0
 40
0.0
 40
0.2500000000000006
 40
0.2500000000000006
 40
0.5000000000000012
 40
0.5000000000000012
 40
0.6250000000000016
 40
0.6250000000000016
 40
0.7500000000000018
 40
0.7500000000000018
 40
1.0
 40
1.0
 40
1.0
 40
1.0
 10
280.3425433594855
 20
32.95853294636395
 30
0.0
 10
280.3110538903998
 20
32.96134814444738
 30
0.0
 10
280.2770483780091
 20
32.96279724212489
 30
0.0
 10
280.2001468947994
 20
32.96086867471125
 30
0.0
 10
280.1571930789125
 20
32.95771334823423
 30
0.0
 10
280.0835988976092
 20
32.9439202675971
 30
0.0
 10
280.0575555492061
 20
32.93758836723595
 30
0.0
 10
280.0092559238649
 20
32.92201019683519
 30
0.0
 10
279.9871063249646
 20
32.91279445010912
 30
0.0
 10
279.9321256153011
 20
32.88471230435707
 30
0.0
 10
279.910052215698
 20
32.86634803962462
 30
0.0
 10
279.8935623576466
 20
32.84917587965608
 30
0.0
  0
SPLINE
  5
18F
330
1F
100
AcDbEntity
  8
0
  6
Continuous
 62
     7
370
    15
100
AcDbSpline
210
0.0
220
0.0
230
1.0
 70
     8
 71
     3
 72
     8
 73
     4
 74
     0
 42
0.000000001
 43
0.00000001
 40
0.0
 40
0.0
 40
0.0
 40
0.0
 40
1.0
 40
1.0
 40
1.0
 40
1.0
 10
279.8935623576465
 20
32.84917587965593
 30
0.0
 10
279.8431868372362
 20
32.86834857315684
 30
0.0
 10
279.791647063034
 20
32.89107167404986
 30
0.0
 10
279.7527769252782
 20
32.91351092694332
 30
0.0
  0
SPLINE
  5
190
330
1F
100
AcDbEntity
  8
0
  6
Continuous
 62
     7
370
    15
100
AcDbSpline
210
0.0
220
0.0
230
1.0
 70
     8
 71
     3
 72
    10
 73
     6
 74
     0
 42
0.000000001
 43
0.00000001
 40
0.0
 40
0.0
 40
0.0
 40
0.0
 40
0.4034637089194597
 40
0.8080158415792968
 40
1.0
 40
1.0
 40
1.0
 40
1.0
 10
273.1160685665041
 20
46.32861257675312
 30
0.0
 10
273.1343134660064
 20
46.36737004436807
 30
0.0
 10
273.1708524842625
 20
46.44498953558887
 30
0.0
 10
273.1847668204828
 20
46.55246256830196
 30
0.0
 10
273.1666627351712
 20
46.60579277095631
 30
0.0
 10
273.1608362705713
 20
46.62295610909364
 30
0.0
  0
SPLINE
  5
191
330
1F
100
AcDbEntity
  8
0
  6
Continuous
 62
     7
370
    15
100
AcDbSpline
210
0.0
220
0.0
230
1.0
 70
     8
 71
     3
 72
    12
 73
     8
 74
     0
 42
0.000000001
 43
0.00000001
 40
0.0
 40
0.0
 40
0.0
 40
0.0
 40
0.2500000000000008
 40
0.2500000000000008
 40
0.5000000000000017
 40
0.5000000000000017
 40
1.0
 40
1.0
 40
1.0
 40
1.0
 10
251.5548779662077
 20
34.39237791052283
 30
0.0
 10
251.5886571324801
 20
34.37287761290931
 30
0.0
 10
251.6269401500617
 20
34.34598580141449
 30
0.0
 10
251.7010258073869
 20
34.28741358235365
 30
0.0
 10
251.7363158037068
 20
34.25630729362794
 30
0.0
 10
251.831812603373
 20
34.1651767604422
 30
0.0
 10
251.8805723638048
 20
34.10897784356594
 30
0.0
 10
251.9141362087941
 20
34.06141167405222
 30
0.0
  0
ARC
  5
192
330
1F
100
AcDbEntity
  8
0
  6
Continuous
 62
     7
370
    15
100
AcDbCircle
 10
267.4450404045
 20
45.7747666986
 30
0.0
 40
5.588482169328269
100
AcDbArc
 50
30.4853102914
 51
89.7473054429
  0
LINE
  5
193
330
1F
100
AcDbEntity
  8
0
  6
Continuous
 62
     7
370
    15
100
AcDbLine
 10
250.202438452
 20
35.1731246234
 30
0.0
 11
251.5548779662
 21
34.3923779105
 31
0.0
  0
LWPOLYLINE
  5
194
330
1F
100
AcDbEntity
  8
0
  6
Continuous
 62
     7
370
    15
100
AcDbPolyline
 90
       25
 70
   128
 43
0.0
 10
250.202438452
 20
35.1731246234
 10
250.5293610115
 20
36.4435054964
 10
250.9377108697
 20
37.7233362235
 10
251.4242983559
 20
39.0026198908
 10
251.9853226761
 20
40.2713638575
 10
252.6164016008
 20
41.5196578099
 10
253.3126056955
 20
42.7377511715
 10
254.0684968252
 20
43.9161292666
 10
254.8781706321
 20
45.0455876402
 10
255.7353026554
 20
46.1173039551
 10
256.6331977321
 20
47.1229069045
 10
257.5648422945
 20
48.0545416012
 10
258.5229591532
 20
48.9049309329
 10
259.5000643406
 20
49.6674324049
 10
260.4885255688
 20
50.336090025
 10
261.4806218468
 20
50.9056808272
 10
262.4686037893
 20
51.3717556681
 10
263.4447541491
 20
51.7306739805
 10
264.4014480966
 20
51.9796322094
 10
265.3312127787
 20
52.116685712
 10
266.2267856901
 20
52.1407639465
 10
267.0811714015
 20
52.0516788349
 10
267.8876962019
 20
51.8501262318
 10
268.6400602278
 20
51.5376804894
 10
268.8907489541
 20
51.4018259051
  0
LINE
  5
195
330
1F
100
AcDbEntity
  8
0
  6
Continuous
 62
     7
370
    15
100
AcDbLine
 10
278.332913725
 20
33.7331805053
 30
0.0
 11
279.7527769253
 21
32.9135109269
 31
0.0
  0
ARC
  5
196
330
1F
100
AcDbEntity
  8
0
  6
Continuous
 62
     7
370
    15
100
AcDbCircle
 10
269.9972271899
 20
33.0556828505
 30
0.0
 40
6.781496407436715
100
AcDbArc
 50
338.0684967104
 51
2.499853605
  0
LINE
  5
197
330
1F
100
AcDbEntity
  8
0
  6
Continuous
 62
     7
370
    15
100
AcDbLine
 10
276.2879536975
 20
30.5228082915
 30
0.0
 11
279.7527769253
 21
28.5226084176
 31
0.0
  0
LINE
  5
198
330
1F
100
AcDbEntity
  8
0
  6
Continuous
 62
     7
370
    15
100
AcDbLine
 10
270.9633678433
 20
25.7623791506
 30
0.0
 11
272.9673846829
 21
24.6054848543
 31
0.0
  0
ARC
  5
199
330
1F
100
AcDbEntity
  8
0
  6
Continuous
 62
     7
370
    15
100
AcDbCircle
 10
253.9847831725
 20
29.1931156039
 30
0.0
 40
0.6147219230286705
100
AcDbArc
 50
302.60547834
 51
357.3945215144
  0
LINE
  5
19A
330
1F
100
AcDbEntity
  8
0
  6
Continuous
 62
     7
370
    15
100
AcDbLine
 10
254.5988696131
 20
30.3882949671
 30
0.0
 11
254.5988696131
 21
29.165171263
 31
0.0
  0
LINE
  5
19B
330
1F
100
AcDbEntity
  8
0
  6
Continuous
 62
     7
370
    15
100
AcDbLine
 10
254.5988696131
 20
35.1912424548
 30
0.0
 11
254.5988696131
 21
33.9681187507
 31
0.0
  0
ARC
  5
19C
330
1F
100
AcDbEntity
  8
0
  6
Continuous
 62
     7
370
    15
100
AcDbCircle
 10
254.4264398661
 20
35.2192133335
 30
0.0
 40
0.1746836789714035
100
AcDbArc
 50
350.7859630095
 51
129.2032852357
  0
LINE
  5
19D
330
1F
100
AcDbEntity
  8
0
  6
Continuous
 62
     7
370
    15
100
AcDbLine
 10
254.3160269006
 20
35.3545771571
 30
0.0
 11
251.9609739067
 21
33.9950340025
 31
0.0
  0
LINE
  5
19E
330
1F
100
AcDbEntity
  8
0
  6
Continuous
 62
     7
370
    15
100
AcDbLine
 10
251.9141362088
 20
34.0614116741
 30
0.0
 11
251.9609739067
 21
33.9950340025
 31
0.0
  0
LINE
  5
19F
330
1F
100
AcDbEntity
  8
0
  6
Continuous
 62
     7
370
    15
100
AcDbLine
 10
273.0112831086
 20
46.1471188403
 30
0.0
 11
273.1160685665
 21
46.3286125768
 31
0.0
  0
LINE
  5
1A0
330
1F
100
AcDbEntity
  8
0
  6
Continuous
 62
     7
370
    15
100
AcDbLine
 10
271.5694323615
 20
45.3147561214
 30
0.0
 11
273.0112831086
 21
46.1471188403
 31
0.0
  0
ARC
  5
1A1
330
1F
100
AcDbEntity
  8
0
  6
Continuous
 62
     7
370
    15
100
AcDbCircle
 10
271.9006760896
 20
44.7969138334
 30
0.0
 40
0.6147219230289386
100
AcDbArc
 50
122.60547834
 51
177.3945215143
  0
LINE
  5
1A2
330
1F
100
AcDbEntity
  8
0
  6
Continuous
 62
     7
370
    15
100
AcDbLine
 10
271.2865896491
 20
44.5196241558
 30
0.0
 11
271.2865896491
 21
44.8248581743
 31
0.0
  0
LINE
  5
1A3
330
1F
100
AcDbEntity
  8
0
  6
Continuous
 62
     7
370
    15
100
AcDbLine
 10
251.9609739067
 20
27.3157301613
 30
0.0
 11
251.9141362088
 21
27.1952748347
 31
0.0
  0
LINE
  5
1A4
330
1F
100
AcDbEntity
  8
0
  6
Continuous
 62
     7
370
    15
100
AcDbLine
 10
251.9609739067
 20
27.3157301613
 30
0.0
 11
254.3160269006
 21
28.6752733159
 31
0.0
  0
LINE
  5
1A5
330
1F
100
AcDbEntity
  8
0
  6
Continuous
 62
     7
370
    15
100
AcDbLine
 10
273.284550447
 20
43.3650623199
 30
0.0
 11
273.3598872099
 21
43.3227349504
 31
0.0
  0
LINE
  5
1A6
330
1F
100
AcDbEntity
  8
0
  6
Continuous
 62
     7
370
    15
100
AcDbLine
 10
262.2482902935
 20
24.074798984
 30
0.0
 11
262.1174654012
 21
24.1539655748
 31
0.0
  0
ARC
  5
1A7
330
1F
100
AcDbEntity
  8
0
  6
Continuous
 62
     7
370
    15
100
AcDbCircle
 10
266.2996414629
 20
42.7119773795
 30
0.0
 40
4.059078145400557
100
AcDbArc
 50
60.6949339673
 51
88.9356886823
  0
ARC
  5
1A8
330
1F
100
AcDbEntity
  8
0
  6
Continuous
 62
     7
370
    15
100
AcDbCircle
 10
259.2119402472
 20
30.4564702886
 30
0.0
 40
4.008967632855978
100
AcDbArc
 50
212.285405305
 51
239.4595815275
  0
SPLINE
  5
1A9
330
1F
100
AcDbEntity
  8
0
  6
Continuous
 62
     7
370
    15
100
AcDbSpline
210
0.0
220
0.0
230
1.0
 70
     8
 71
     3
 72
     8
 73
     4
 74
     0
 42
0.000000001
 43
0.00000001
 40
0.0
 40
0.0
 40
0.0
 40
0.0
 40
1.0
 40
1.0
 40
1.0
 40
1.0
 10
249.2129562766917
 20
36.4335291833516
 30
0.0
 10
248.8304560041738
 20
36.37012438224641
 30
0.0
 10
248.447808800542
 20
36.30699798652441
 30
0.0
 10
248.0650546104833
 20
36.24410033947632
 30
0.0
  0
SPLINE
  5
1AA
330
1F
100
AcDbEntity
  8
0
  6
Continuous
 62
     7
370
    15
100
AcDbSpline
210
0.0
220
0.0
230
1.0
 70
     8
 71
     3
 72
     8
 73
     4
 74
     0
 42
0.000000001
 43
0.00000001
 40
0.0
 40
0.0
 40
0.0
 40
0.0
 40
0.0011858378198547
 40
0.0011858378198547
 40
0.0011858378198547
 40
0.0011858378198547
 10
247.7100826387062
 20
36.61193100857336
 30
0.0
 10
247.8288219257123
 20
36.4891735380571
 30
0.0
 10
247.9471600150598
 20
36.36655691768976
 30
0.0
 10
248.0650546104833
 20
36.24410033947632
 30
0.0
  0
LWPOLYLINE
  5
1AB
330
1F
100
AcDbEntity
  8
0
  6
Continuous
 62
     7
370
    15
100
AcDbPolyline
 90
       27
 70
   128
 43
0.0
 10
247.7100826387
 20
36.6119310086
 10
248.0370051982
 20
37.8823118816
 10
248.4453550564
 20
39.1621426087
 10
248.9319425426
 20
40.441426276
 10
249.4929668628
 20
41.7101702427
 10
250.1240457875
 20
42.958464195
 10
250.8202498822
 20
44.1765575566
 10
251.576141012
 20
45.3549356517
 10
252.3858148189
 20
46.4843940253
 10
253.2429468421
 20
47.5561103402
 10
254.1408419189
 20
48.5617132897
 10
255.0724864813
 20
49.4933479864
 10
256.0306033399
 20
50.3437373181
 10
257.0077085273
 20
51.10623879
 10
257.9961697555
 20
51.7748964102
 10
258.9882660335
 20
52.3444872123
 10
259.9762479761
 20
52.8105620533
 10
260.9523983358
 20
53.1694803656
 10
261.9090922833
 20
53.4184385946
 10
262.8388569654
 20
53.5554920971
 10
263.7344298768
 20
53.5795703316
 10
264.5888155882
 20
53.49048522
 10
265.3953403886
 20
53.288932617
 10
266.1477044146
 20
52.9764868745
 10
266.8400308588
 20
52.5555885444
 10
267.466911875
 20
52.0295253148
 10
267.5461605756
 20
51.9507586896
  0
LINE
  5
1AC
330
1F
100
AcDbEntity
  8
0
  6
Continuous
 62
     7
370
    15
100
AcDbLine
 10
273.0387312848
 20
24.5473586849
 30
0.0
 11
271.47750848
 21
24.6869555297
 31
0.0
  0
SPLINE
  5
1AD
330
1F
100
AcDbEntity
  8
0
  6
Continuous
 62
     7
370
    15
100
AcDbSpline
210
0.0
220
0.0
230
1.0
 70
     8
 71
     3
 72
    16
 73
    12
 74
     0
 42
0.000000001
 43
0.00000001
 40
0.0
 40
0.0
 40
0.0
 40
0.0
 40
0.2499999999999974
 40
0.2499999999999974
 40
0.4999999999999948
 40
0.4999999999999948
 40
0.624999999999999
 40
0.624999999999999
 40
0.7500000000000032
 40
0.7500000000000032
 40
1.0
 40
1.0
 40
1.0
 40
1.0
 10
272.9432828739236
 20
24.23393366875792
 30
0.0
 10
272.9743316279978
 20
24.23115744226979
 30
0.0
 10
273.0050053517483
 20
24.23180477900462
 30
0.0
 10
273.0614848817178
 20
24.24590562065329
 30
0.0
 10
273.0880522689112
 20
24.25882370141238
 30
0.0
 10
273.1132741918368
 20
24.3008796197716
 30
0.0
 10
273.1186448190572
 20
24.31900754671145
 30
0.0
 10
273.1196740926932
 20
24.36167338803858
 30
0.0
 10
273.1152747982179
 20
24.38613527135174
 30
0.0
 10
273.0921480021128
 20
24.45900066827655
 30
0.0
 10
273.0661205531366
 20
24.50507492813692
 30
0.0
 10
273.0387312848453
 20
24.54735868485295
 30
0.0
  0
SPLINE
  5
1AE
330
1F
100
AcDbEntity
  8
0
  6
Continuous
 62
     7
370
    15
100
AcDbSpline
210
0.0
220
0.0
230
1.0
 70
     8
 71
     3
 72
     8
 73
     4
 74
     0
 42
0.000000001
 43
0.00000001
 40
0.0
 40
0.0
 40
0.0
 40
0.0
 40
1.0
 40
1.0
 40
1.0
 40
1.0
 10
272.9673846828724
 20
24.60548485433316
 30
0.0
 10
273.0063407652526
 20
24.58299598666414
 30
0.0
 10
273.0288227390441
 20
24.56314174499327
 30
0.0
 10
273.0387312848453
 20
24.547358684853
 30
0.0
  0
LINE
  5
1AF
330
1F
100
AcDbEntity
  8
0
  6
Continuous
 62
     7
370
    15
100
AcDbLine
 10
246.3664819593
 20
37.3875751708
 30
0.0
 11
247.7100826387
 21
36.6119310086
 31
0.0
  0
ARC
  5
1B0
330
1F
100
AcDbEntity
  8
0
  6
Continuous
 62
     7
370
    15
100
AcDbCircle
 10
262.2294544087
 20
48.6112576615
 30
0.0
 40
5.747412305532878
100
AcDbArc
 50
60.5552291412
 51
89.5203114698
  0
LINE
  5
1B1
330
1F
100
AcDbEntity
  8
0
  6
Continuous
 62
     7
370
    15
100
AcDbLine
 10
250.4234685682
 20
36.0641430501
 30
0.0
 11
249.7811226943
 21
36.4349614299
 31
0.0
  0
SPLINE
  5
1B2
330
1F
100
AcDbEntity
  8
0
  6
Continuous
 62
     7
370
    15
100
AcDbSpline
210
0.0
220
0.0
230
1.0
 70
     8
 71
     3
 72
    12
 73
     8
 74
     0
 42
0.000000001
 43
0.00000001
 40
0.0
 40
0.0
 40
0.0
 40
0.0
 40
0.2500000000000015
 40
0.2500000000000015
 40
0.500000000000003
 40
0.500000000000003
 40
1.0
 40
1.0
 40
1.0
 40
1.0
 10
249.7811226943316
 20
36.43496142994569
 30
0.0
 10
249.7434834162129
 20
36.45669012269538
 30
0.0
 10
249.6970631982522
 20
36.4740883936982
 30
0.0
 10
249.5969952693735
 20
36.49634487617384
 30
0.0
 10
249.5432096304962
 20
36.50140539823796
 30
0.0
 10
249.3832907027471
 20
36.49835353625918
 30
0.0
 10
249.2783801998205
 20
36.47129761025031
 30
0.0
 10
249.2030853076288
 20
36.42783079420521
 30
0.0
  0
LWPOLYLINE
  5
1B3
330
1F
100
AcDbEntity
  8
0
  6
Continuous
 62
     7
370
    15
100
AcDbPolyline
 90
       21
 70
   128
 43
0.0
 10
249.2030853076
 20
36.4278307942
 10
249.5094420418
 20
37.6307063104
 10
249.8959255379
 20
38.8431051022
 10
250.3592839097
 20
40.0548260019
 10
250.895618443
 20
41.2556735453
 10
251.5004163992
 20
42.4355437573
 10
252.1685889863
 20
43.5845091669
 10
252.8945141757
 20
44.6929023368
 10
253.6720840062
 20
45.7513972065
 10
254.4947559768
 20
46.7510875614
 10
255.3556080954
 20
47.6835619701
 10
256.2473971208
 20
48.5409745589
 10
257.1626195075
 20
49.316111027
 10
258.0935745409
 20
50.0024493476
 10
259.0324291311
 20
50.594214645
 10
259.9712837213
 20
51.0864277843
 10
260.9022387547
 20
51.4749472662
 10
261.8174611414
 20
51.7565040735
 10
262.7092501668
 20
51.928729177
 10
263.5701022854
 20
51.9901734683
 10
264.2803256762
 20
51.9539755113
  0
SPLINE
  5
1B4
330
1F
100
AcDbEntity
  8
0
  6
Continuous
 62
     7
370
    15
100
AcDbSpline
210
0.0
220
0.0
230
1.0
 70
     8
 71
     3
 72
    10
 73
     6
 74
     0
 42
0.000000001
 43
0.00000001
 40
0.0
 40
0.0
 40
0.0
 40
0.0
 40
0.5
 40
0.5
 40
1.0
 40
1.0
 40
1.0
 40
1.0
 10
246.2647069940752
 20
37.41805280143938
 30
0.0
 10
246.2720706283429
 20
37.42208904909509
 30
0.0
 10
246.2839345641508
 20
37.42231046684579
 30
0.0
 10
246.3180475790259
 20
37.41266980701282
 30
0.0
 10
246.3401959779557
 20
37.40274974477457
 30
0.0
 10
246.3664819592515
 20
37.3875751707724
 30
0.0
  0
SPLINE
  5
1B5
330
1F
100
AcDbEntity
  8
0
  6
Continuous
 62
     7
370
    15
100
AcDbSpline
210
0.0
220
0.0
230
1.0
 70
     8
 71
     3
 72
    14
 73
    10
 74
     0
 42
0.000000001
 43
0.00000001
 40
0.0
 40
0.0
 40
0.0
 40
0.0
 40
0.25
 40
0.25
 40
0.5
 40
0.5
 40
0.75
 40
0.75
 40
1.0
 40
1.0
 40
1.0
 40
1.0
 10
254.5988696130598
 20
33.96811875067162
 30
0.0
 10
254.5988696130598
 20
33.66970162383058
 30
0.0
 10
254.615362075121
 20
33.36243918548281
 30
0.0
 10
254.6467573638084
 20
32.74876686922088
 30
0.0
 10
254.6612063904395
 20
32.44260037536319
 30
0.0
 10
254.6613178237546
 20
31.84570635726386
 30
0.0
 10
254.646897937708
 20
31.55497822005241
 30
0.0
 10
254.6154211987994
 20
30.97598442389441
 30
0.0
 10
254.5988696130598
 20
30.68696132013733
 30
0.0
 10
254.5988696130598
 20
30.38829496712008
 30
0.0
  0
SPLINE
  5
1B6
330
1F
100
AcDbEntity
  8
0
  6
Continuous
 62
     7
370
    15
100
AcDbSpline
210
0.0
220
0.0
230
1.0
 70
     8
 71
     3
 72
     8
 73
     4
 74
     0
 42
0.000000001
 43
0.00000001
 40
0.0
 40
0.0
 40
0.0
 40
0.0
 40
1.0
 40
1.0
 40
1.0
 40
1.0
 10
279.7527769252791
 20
28.5226084175551
 30
0.0
 10
279.7917330076593
 20
28.50011954988605
 30
0.0
 10
279.8424013311268
 20
28.49653694153162
 30
0.0
 10
279.8935623576621
 20
28.50456843161226
 30
0.0
  0
SPLINE
  5
1B7
330
1F
100
AcDbEntity
  8
0
  6
Continuous
 62
     7
370
    15
100
AcDbSpline
210
0.0
220
0.0
230
1.0
 70
     8
 71
     3
 72
    16
 73
    12
 74
     0
 42
0.000000001
 43
0.00000001
 40
0.0
 40
0.0
 40
0.0
 40
0.0
 40
0.2500000000000052
 40
0.2500000000000052
 40
0.3750000000000032
 40
0.3750000000000032
 40
0.5000000000000011
 40
0.5000000000000011
 40
0.7500000000000006
 40
0.7500000000000006
 40
1.0
 40
1.0
 40
1.0
 40
1.0
 10
279.8935623576622
 20
28.50456843161219
 30
0.0
 10
279.9098780648077
 20
28.45602968057229
 30
0.0
 10
279.9322528818358
 20
28.40719762723845
 30
0.0
 10
279.9863875191768
 20
28.35299683188412
 30
0.0
 10
280.0083213088579
 20
28.33866879343751
 30
0.0
 10
280.0564363286292
 20
28.32418067926933
 30
0.0
 10
280.0824046423321
 20
28.32406410302447
 30
0.0
 10
280.1560522559367
 20
28.33915503586414
 30
0.0
 10
280.1994727479446
 20
28.36659178553026
 30
0.0
 10
280.2766763950701
 20
28.42949974186187
 30
0.0
 10
280.3112993224445
 20
28.46655467333306
 30
0.0
 10
280.3425641591772
 20
28.50544783299937
 30
0.0
  0
LINE
  5
1B8
330
1F
100
AcDbEntity
  8
0
  6
Continuous
 62
     7
370
    15
100
AcDbLine
 10
251.9609739067
 20
33.9950340025
 30
0.0
 11
250.2353942925
 21
34.99118991
 31
0.0
  0
SPLINE
  5
1B9
330
1F
100
AcDbEntity
  8
0
  6
Continuous
 62
     7
370
    15
100
AcDbSpline
210
0.0
220
0.0
230
1.0
 70
     8
 71
     3
 72
     8
 73
     4
 74
     0
 42
0.000000001
 43
0.00000001
 40
0.0
 40
0.0
 40
0.0
 40
0.0
 40
0.0011858378198547
 40
0.0011858378198547
 40
0.0011858378198547
 40
0.0011858378198547
 10
250.2353942925349
 20
34.99118990997626
 30
0.0
 10
250.2237552093562
 20
35.05230648662945
 30
0.0
 10
250.2127881753494
 20
35.112939116115
 30
0.0
 10
250.2024384519881
 20
35.17312462342076
 30
0.0
  0
SPLINE
  5
1BA
330
1F
100
AcDbEntity
  8
0
  6
Continuous
 62
     7
370
    15
100
AcDbSpline
210
0.0
220
0.0
230
1.0
 70
     8
 71
     3
 72
    26
 73
    22
 74
     0
 42
0.000000001
 43
0.00000001
 40
0.0
 40
0.0
 40
0.0
 40
0.0
 40
0.1250000000000001
 40
0.1250000000000001
 40
0.1875000000000002
 40
0.1875000000000002
 40
0.2500000000000002
 40
0.2500000000000002
 40
0.3750000000000002
 40
0.3750000000000002
 40
0.5000000000000001
 40
0.5000000000000001
 40
0.625
 40
0.625
 40
0.6874999999999999
 40
0.6874999999999999
 40
0.7499999999999999
 40
0.7499999999999999
 40
0.875
 40
0.875
 40
1.0
 40
1.0
 40
1.0
 40
1.0
 10
281.4547851625248
 20
30.4467147585944
 30
0.0
 10
281.5410926916355
 20
30.55408050429773
 30
0.0
 10
281.6190906951902
 20
30.66824076307941
 30
0.0
 10
281.7226765046093
 20
30.85012282459398
 30
0.0
 10
281.755148806733
 20
30.91298705738498
 30
0.0
 10
281.8140258518484
 20
31.03906057040792
 30
0.0
 10
281.840565229913
 20
31.10248757010091
 30
0.0
 10
281.9116386455636
 20
31.29392300865669
 30
0.0
 10
281.9478895294901
 20
31.42486229814252
 30
0.0
 10
281.9944303825306
 20
31.67627423061654
 30
0.0
 10
282.0053978317194
 20
31.79886149110329
 30
0.0
 10
282.0027620554829
 20
32.02930315978234
 30
0.0
 10
281.9894241029521
 20
32.1347053769212
 30
0.0
 10
281.9519360735471
 20
32.27780990463265
 30
0.0
 10
281.9364367202714
 20
32.32287472892795
 30
0.0
 10
281.9003742262455
 20
32.4052950866003
 30
0.0
 10
281.8796928833948
 20
32.44304307935216
 30
0.0
 10
281.8096100966699
 20
32.54603187473709
 30
0.0
 10
281.7516610068716
 20
32.60101780866073
 30
0.0
 10
281.6180557282321
 20
32.67832718707236
 30
0.0
 10
281.541101081042
 20
32.70186108507445
 30
0.0
 10
281.4547851673681
 20
32.70957903202191
 30
0.0
  0
LINE
  5
1BB
330
1F
100
AcDbEntity
  8
0
  6
Continuous
 62
     7
370
    15
100
AcDbLine
 10
281.4547851674
 20
32.709579032
 30
0.0
 11
279.8935623576
 21
32.8491758797
 31
0.0
  0
SPLINE
  5
1BC
330
1F
100
AcDbEntity
  8
0
  6
Continuous
 62
     7
370
    15
100
AcDbSpline
210
0.0
220
0.0
230
1.0
 70
     8
 71
     3
 72
    12
 73
     8
 74
     0
 42
0.000000001
 43
0.00000001
 40
0.0
 40
0.0
 40
0.0
 40
0.0
 40
0.1628503295329019
 40
0.3259029173237739
 40
0.6517341605780991
 40
0.8300242165124612
 40
0.9999999999999999
 40
0.9999999999999999
 40
0.9999999999999999
 40
0.9999999999999999
 10
248.9862095373916
 20
33.62841466091646
 30
0.0
 10
248.9837682009755
 20
33.77903606876386
 30
0.0
 10
248.9788824960312
 20
34.08046595453492
 30
0.0
 10
248.945034190374
 20
34.69589239722374
 30
0.0
 10
248.9162393886223
 20
35.32347730034274
 30
0.0
 10
248.9317831475077
 20
35.93222806888041
 30
0.0
 10
248.9490950183913
 20
36.24070260862502
 30
0.0
 10
248.9575443076526
 20
36.39125771809566
 30
0.0
  0
LINE
  5
1BD
330
1F
100
AcDbEntity
  8
0
  6
Continuous
 62
     7
370
    15
100
AcDbLine
 10
248.9862095374
 20
32.1323094623
 30
0.0
 11
248.9862095374
 21
33.6284146609
 31
0.0
  0
LINE
  5
1BE
330
1F
100
AcDbEntity
  8
0
  6
Continuous
 62
     7
370
    15
100
AcDbLine
 10
246.7018672217
 20
37.0310516683
 30
0.0
 11
246.2647069941
 21
37.4180528014
 31
0.0
  0
LINE
  5
1BF
330
1F
100
AcDbEntity
  8
0
  6
Continuous
 62
     7
370
    15
100
AcDbLine
 10
248.0650546105
 20
36.2441003395
 30
0.0
 11
246.7018672217
 21
37.0310516683
 31
0.0
  0
ARC
  5
1C0
330
1F
100
AcDbEntity
  8
0
  6
Continuous
 62
     7
370
    15
100
AcDbCircle
 10
275.8918015432
 20
34.13845381
 30
0.0
 40
2.574168997250589
100
AcDbArc
 50
320.7034755418
 51
349.7435996042
  0
LINE
  5
1C1
330
1F
100
AcDbEntity
  8
0
  6
Continuous
 62
     7
370
    15
100
AcDbLine
 10
247.9255493656
 20
36.1020683463
 30
0.0
 11
247.9270934114
 21
36.2828323157
 31
0.0
  0
ARC
  5
1C2
330
1F
100
AcDbEntity
  8
0
  6
Continuous
 62
     7
370
    15
100
AcDbCircle
 10
254.5767671273
 20
35.7794515765
 30
0.0
 40
6.659037414973681
100
AcDbArc
 50
177.2230493701
 51
212.9079590882
  0
LINE
  5
1C3
330
1F
100
AcDbEntity
  8
0
  6
Continuous
 62
     7
370
    15
100
AcDbLine
 10
279.8935623577
 20
28.5045684316
 30
0.0
 11
281.4547851625
 21
30.4467147586
 31
0.0
  0
LINE
  5
1C4
330
1F
100
AcDbEntity
  8
0
  6
Continuous
 62
     7
370
    15
100
AcDbLine
 10
276.2879536975
 20
30.5228082915
 30
0.0
 11
277.8838959175
 21
32.5081452409
 31
0.0
  0
LWPOLYLINE
  5
1C5
330
1F
100
AcDbEntity
  8
0
  6
Continuous
 62
     7
370
    15
100
AcDbPolyline
 90
        3
 70
   128
 43
0.0
 10
234.6528198638
 20
59.9399952064
 10
234.6541596321
 20
59.9395603826
 10
234.7185415179
 20
59.9175093512
  0
LINE
  5
1C6
330
1F
100
AcDbEntity
  8
0
  6
Continuous
 62
     7
370
    15
100
AcDbLine
 10
250.2353942925
 20
28.3118860688
 30
0.0
 11
251.9609739067
 21
27.3157301613
 31
0.0
  0
SPLINE
  5
1C7
330
1F
100
AcDbEntity
  8
0
  6
Continuous
 62
     7
370
    15
100
AcDbSpline
210
0.0
220
0.0
230
1.0
 70
     8
 71
     3
 72
    14
 73
    10
 74
     0
 42
0.000000001
 43
0.00000001
 40
0.0
 40
0.0
 40
0.0
 40
0.0
 40
0.25
 40
0.25
 40
0.5
 40
0.5
 40
0.75
 40
0.75
 40
1.0
 40
1.0
 40
1.0
 40
1.0
 10
251.9141362087941
 20
27.19527483472318
 30
0.0
 10
251.8973506441776
 20
27.15210638801972
 30
0.0
 10
251.8769476436847
 20
27.11207904936198
 30
0.0
 10
251.8283993612229
 20
27.03874718441063
 30
0.0
 10
251.8000575937003
 20
27.00544913054066
 30
0.0
 10
251.7369023837955
 20
26.95250666960818
 30
0.0
 10
251.7016770696909
 20
26.93243413774781
 30
0.0
 10
251.6269979235568
 20
26.91566200884207
 30
0.0
 10
251.5886700549947
 20
26.91985496990267
 30
0.0
 10
251.5548779662077
 20
26.9393627275251
 30
0.0
  0
LINE
  5
1C8
330
1F
100
AcDbEntity
  8
0
  6
Continuous
 62
     7
370
    15
100
AcDbLine
 10
251.5548779662
 20
26.9393627275
 30
0.0
 11
250.202438452
 21
27.7201094404
 31
0.0
  0
SPLINE
  5
1C9
330
1F
100
AcDbEntity
  8
0
  6
Continuous
 62
     7
370
    15
100
AcDbSpline
210
0.0
220
0.0
230
1.0
 70
     8
 71
     3
 72
     8
 73
     4
 74
     0
 42
0.000000001
 43
0.00000001
 40
0.0
 40
0.0
 40
0.0
 40
0.0
 40
0.0011858378198546
 40
0.0011858378198546
 40
0.0011858378198546
 40
0.0011858378198546
 10
250.2024384519881
 20
27.72010944042303
 30
0.0
 10
250.2127881753494
 20
27.91738841038962
 30
0.0
 10
250.2237552093562
 20
28.11465128957905
 30
0.0
 10
250.2353942925349
 20
28.31188606875082
 30
0.0
  0
ARC
  5
1CA
330
1F
100
AcDbEntity
  8
0
  6
Continuous
 62
     7
370
    15
100
AcDbCircle
 10
257.1678916333
 20
27.9716099651
 30
0.0
 40
5.589599828236309
100
AcDbArc
 50
210.337737827
 51
269.6483497328
  0
SPLINE
  5
1CB
330
1F
100
AcDbEntity
  8
0
  6
Continuous
 62
     7
370
    15
100
AcDbSpline
210
0.0
220
0.0
230
1.0
 70
     8
 71
     3
 72
     8
 73
     4
 74
     0
 42
0.000000001
 43
0.00000001
 40
0.0
 40
0.0
 40
0.0
 40
0.0
 40
1.0
 40
1.0
 40
1.0
 40
1.0
 10
250.5635302287581
 20
28.97455559533549
 30
0.0
 10
250.4536979912484
 20
28.7537428881415
 30
0.0
 10
250.3443480182618
 20
28.53284535942096
 30
0.0
 10
250.2353942925349
 20
28.31188606875082
 30
0.0
  0
LINE
  5
1CC
330
1F
100
AcDbEntity
  8
0
  6
Continuous
 62
     7
370
    15
100
AcDbLine
 10
250.5536592597
 20
28.9688572062
 30
0.0
 11
250.5635302288
 21
28.9745555953
 31
0.0
  0
SPLINE
  5
1CD
330
1F
100
AcDbEntity
  8
0
  6
Continuous
 62
     7
370
    15
100
AcDbSpline
210
0.0
220
0.0
230
1.0
 70
     8
 71
     3
 72
    12
 73
     8
 74
     0
 42
0.000000001
 43
0.00000001
 40
0.0
 40
0.0
 40
0.0
 40
0.0
 40
0.2500000000000022
 40
0.2500000000000022
 40
0.5000000000000043
 40
0.5000000000000043
 40
1.0
 40
1.0
 40
1.0
 40
1.0
 10
250.5660112214487
 20
29.30255108665866
 30
0.0
 10
250.6036504995674
 20
29.28082239390898
 30
0.0
 10
250.6337884544183
 20
29.25402457248793
 30
0.0
 10
250.6723419902198
 20
29.19625658677241
 30
0.0
 10
250.6811080213653
 20
29.16520679836188
 30
0.0
 10
250.6758214685514
 20
29.07288756644241
 30
0.0
 10
250.6289541518869
 20
29.01232402223418
 30
0.0
 10
250.5536592596951
 20
28.96885720618908
 30
0.0
  0
LINE
  5
1CE
330
1F
100
AcDbEntity
  8
0
  6
Continuous
 62
     7
370
    15
100
AcDbLine
 10
249.7811226943
 20
29.7556575887
 30
0.0
 11
250.5660112214
 21
29.3025510867
 31
0.0
  0
SPLINE
  5
1CF
330
1F
100
AcDbEntity
  8
0
  6
Continuous
 62
     7
370
    15
100
AcDbSpline
210
0.0
220
0.0
230
1.0
 70
     8
 71
     3
 72
    14
 73
    10
 74
     0
 42
0.000000001
 43
0.00000001
 40
0.0
 40
0.0
 40
0.0
 40
0.0
 40
0.25
 40
0.25
 40
0.5
 40
0.5
 40
0.75
 40
0.75
 40
1.0
 40
1.0
 40
1.0
 40
1.0
 10
249.2030853076288
 20
29.74852695297977
 30
0.0
 10
249.2409258998898
 20
29.77037186191012
 30
0.0
 10
249.2858349652628
 20
29.78813825786995
 30
0.0
 10
249.383447333131
 20
29.81294883753338
 30
0.0
 10
249.4367455128362
 20
29.82007160790317
 30
0.0
 10
249.543108947954
 20
29.82209784321888
 30
0.0
 10
249.597138291443
 20
29.81703536508159
 30
0.0
 10
249.6974950178704
 20
29.79466221951306
 30
0.0
 10
249.7431243259495
 20
29.7775935798666
 30
0.0
 10
249.7811226943316
 20
29.75565758872026
 30
0.0
  0
LINE
  5
1D0
330
1F
100
AcDbEntity
  8
0
  6
Continuous
 62
     7
370
    15
100
AcDbLine
 10
249.2129562767
 20
29.7542253421
 30
0.0
 11
249.2030853076
 21
29.748526953
 31
0.0
  0
SPLINE
  5
1D1
330
1F
100
AcDbEntity
  8
0
  6
Continuous
 62
     7
370
    15
100
AcDbSpline
210
0.0
220
0.0
230
1.0
 70
     8
 71
     3
 72
     8
 73
     4
 74
     0
 42
0.000000001
 43
0.00000001
 40
0.0
 40
0.0
 40
0.0
 40
0.0
 40
1.0
 40
1.0
 40
1.0
 40
1.0
 10
248.0650546104833
 20
29.56479649825088
 30
0.0
 10
248.447808800542
 20
29.62769414529897
 30
0.0
 10
248.8304560041738
 20
29.69082054102098
 30
0.0
 10
249.2129562766917
 20
29.75422534212618
 30
0.0
  0
LINE
  5
1D2
330
1F
100
AcDbEntity
  8
0
  6
Continuous
 62
     7
370
    15
100
AcDbLine
 10
246.7018672217
 20
30.3517478271
 30
0.0
 11
248.0650546105
 21
29.5647964983
 31
0.0
  0
LINE
  5
1D3
330
1F
100
AcDbEntity
  8
0
  6
Continuous
 62
     7
370
    15
100
AcDbLine
 10
246.7018672217
 20
30.3517478271
 30
0.0
 11
249.0569202155
 21
31.7112909818
 31
0.0
  0
ARC
  5
1D4
330
1F
100
AcDbEntity
  8
0
  6
Continuous
 62
     7
370
    15
100
AcDbCircle
 10
256.3840431242
 20
29.3344814152
 30
0.0
 40
6.388930520589883
100
AcDbArc
 50
194.6363153028
 51
238.196622426
  0
ELLIPSE
  5
1D5
330
1F
100
AcDbEntity
  8
0
  6
Continuous
 62
     7
370
    15
100
AcDbEllipse
 10
248.939762928
 20
32.105540769
 30
0.0
 11
-3.002985195621477E-5
 21
0.4267244807413632
 31
0.0
210
0.0
220
0.0
230
1.0
 40
0.7174342186
 41
3.534193645557345
 42
5.104989972352323
  0
ARC
  5
1D6
330
1F
100
AcDbEntity
  8
0
  6
Continuous
 62
     7
370
    15
100
AcDbCircle
 10
253.5371679288
 20
30.5481766608
 30
0.0
 40
5.990406384032605
100
AcDbArc
 50
193.4098001616
 51
253.8336005401
  0
SPLINE
  5
1D7
330
1F
100
AcDbEntity
  8
0
  6
Continuous
 62
     7
370
    15
100
AcDbSpline
210
0.0
220
0.0
230
1.0
 70
     8
 71
     3
 72
     8
 73
     4
 74
     0
 42
0.000000001
 43
0.00000001
 40
0.0
 40
0.0
 40
0.0
 40
0.0
 40
0.0011858378198546
 40
0.0011858378198546
 40
0.0011858378198546
 40
0.0011858378198546
 10
248.0650546104833
 20
29.56479649825088
 30
0.0
 10
247.9471600150598
 20
29.42890172063937
 30
0.0
 10
247.8288219257123
 20
29.29362283233172
 30
0.0
 10
247.7100826387062
 20
29.15891582557564
 30
0.0
  0
LINE
  5
1D8
330
1F
100
AcDbEntity
  8
0
  6
Continuous
 62
     7
370
    15
100
AcDbLine
 10
246.2647069941
 20
30.0993286418
 30
0.0
 11
246.7018672217
 21
30.3517478271
 31
0.0
  0
LINE
  5
1D9
330
1F
100
AcDbEntity
  8
0
  6
Continuous
 62
     7
370
    15
100
AcDbLine
 10
247.7100826387
 20
29.1589158256
 30
0.0
 11
246.3664819593
 21
29.9345599878
 31
0.0
  0
SPLINE
  5
1DA
330
1F
100
AcDbEntity
  8
0
  6
Continuous
 62
     7
370
    15
100
AcDbSpline
210
0.0
220
0.0
230
1.0
 70
     8
 71
     3
 72
    10
 73
     6
 74
     0
 42
0.000000001
 43
0.00000001
 40
0.0
 40
0.0
 40
0.0
 40
0.0
 40
0.5
 40
0.5
 40
1.0
 40
1.0
 40
1.0
 40
1.0
 10
246.3664819592515
 20
29.93455998777467
 30
0.0
 10
246.3402475687776
 20
29.94970477902931
 30
0.0
 10
246.3180729480233
 20
29.97324930186077
 30
0.0
 10
246.2840085266473
 20
30.03049808204006
 30
0.0
 10
246.272066893597
 20
30.0640242690807
 30
0.0
 10
246.2647069940752
 20
30.09932864183171
 30
0.0
  0
ARC
  5
1DB
330
1F
100
AcDbEntity
  8
0
  6
Continuous
 62
     7
370
    15
100
AcDbCircle
 10
255.7998844582
 20
31.63005914
 30
0.0
 40
6.859877725092436
100
AcDbArc
 50
195.9191542404
 51
215.7602476364
  0
ARC
  5
1DC
330
1F
100
AcDbEntity
  8
0
  6
Continuous
 62
     7
370
    15
100
AcDbCircle
 10
252.0748859343
 20
31.0396925181
 30
0.0
 40
5.70833581165784
100
AcDbArc
 50
210.8092194738
 51
239.5395530308
  0
ELLIPSE
  5
1DD
330
1F
100
AcDbEntity
  8
0
  6
Continuous
 62
     7
370
    15
100
AcDbEllipse
 10
248.7033668249
 20
31.9690278399
 30
0.0
 11
0.13000378946046
 21
0.4852718104954726
 31
0.0
210
0.0
220
0.0
230
1.0
 40
0.5176380889
 41
3.619174351347692
 42
5.189970678142614
  0
LWPOLYLINE
  5
1DE
330
1F
100
AcDbEntity
  8
0
  6
Continuous
 62
     7
370
     0
100
AcDbPolyline
 90
        9
 70
   128
 43
0.0
 10
261.6169044163
 20
29.3105733661
 10
261.6587480938
 20
28.4589237366
 10
261.7837712006
 20
27.6659236616
 10
261.9904561256
 20
26.9411990877
 10
262.2762939937
 20
26.2935471896
 10
262.6378151205
 20
25.7308295839
 10
263.0706311292
 20
25.2598769001
 10
263.5694882199
 20
24.8864058658
 10
263.6365917113
 20
24.846586503
  0
LWPOLYLINE
  5
1DF
330
1F
100
AcDbEntity
  8
0
  6
Continuous
 62
     7
370
     0
100
AcDbPolyline
 90
       23
 70
   128
 43
0.0
 10
273.3309820089
 20
41.7654809466
 10
273.1805718556
 20
41.843435329
 10
272.5942377743
 20
42.0625689374
 10
271.9583410912
 20
42.1752222754
 10
271.2806007307
 20
42.1800278843
 10
270.5692435426
 20
42.0769274304
 10
269.8329044395
 20
41.8671724135
 10
269.0805215808
 20
41.5533089754
 10
268.3212278751
 20
41.1391469932
 10
267.5642401194
 20
40.6297138322
 10
266.8187471197
 20
40.0311933208
 10
266.093798151
 20
39.3508506874
 10
265.3981931119
 20
38.5969443699
 10
264.7403757051
 20
37.7786257697
 10
264.128330943
 20
36.905828166
 10
263.5694882199
 20
35.9891461396
 10
263.0706311292
 20
35.0397069683
 10
262.6378151205
 20
34.0690355577
 10
262.2762939937
 20
33.0889145437
 10
261.9904561256
 20
32.1112412677
 10
261.7837712006
 20
31.1478833589
 10
261.6587480938
 20
30.2105346773
 10
261.6169044163
 20
29.3105733661
  0
LWPOLYLINE
  5
1E0
330
1F
100
AcDbEntity
  8
0
  6
Continuous
 62
     7
370
     0
100
AcDbPolyline
 90
       16
 70
   128
 43
0.0
 10
272.9432828739
 20
24.2339336688
 10
273.2616382387
 20
23.8222905147
 10
273.6513338155
 20
23.5113702656
 10
274.1041475932
 20
23.3077328873
 10
274.6105258582
 20
23.2156748329
 10
275.1597847642
 20
23.2371383939
 10
275.7403357453
 20
23.3716707203
 10
276.3399300185
 20
23.6164333752
 10
276.9459170146
 20
23.9662622217
 10
277.5455112878
 20
24.4137763791
 10
278.1260622689
 20
24.949533948
 10
278.6753211749
 20
25.5622312214
 10
279.1816994399
 20
26.2389411759
 10
279.6345132176
 20
26.9653862136
 10
280.0242087944
 20
27.7262393986
 10
280.3425641592
 20
28.505447833
  0
LWPOLYLINE
  5
1E1
330
1F
100
AcDbEntity
  8
0
  6
Continuous
 62
     7
370
     0
100
AcDbPolyline
 90
       16
 70
   128
 43
0.0
 10
280.3425433595
 20
32.9585329464
 10
280.0241859527
 20
33.3701653314
 10
279.634490227
 20
33.6810763122
 10
279.181678034
 20
33.8847062481
 10
278.6753028649
 20
33.976758928
 10
278.1260482894
 20
33.9552922124
 10
277.5455025527
 20
33.8207590088
 10
276.945914085
 20
33.5759977165
 10
276.3399330825
 20
33.2261723413
 10
275.740344612
 20
32.7786635449
 10
275.1597988697
 20
32.2429129267
 10
274.6105442859
 20
31.6302238236
 10
274.1041691061
 20
30.9535228307
 10
273.6513569001
 20
30.2270870744
 10
273.2616611594
 20
29.4662429917
 10
272.9433037359
 20
28.6870429709
  0
LINE
  5
1E2
330
1F
100
AcDbEntity
  8
0
  6
Continuous
 62
     7
370
     0
100
AcDbLine
 10
271.47750848
 20
24.6869555297
 30
0.0
 11
271.5658968276
 21
24.3570927371
 31
0.0
  0
LWPOLYLINE
  5
1E3
330
1F
100
AcDbEntity
  8
0
  6
Continuous
 62
     7
370
     0
100
AcDbPolyline
 90
        3
 70
   128
 43
0.0
 10
279.7527769253
 20
32.9135109269
 10
279.4271485636
 20
33.2914101986
 10
279.1054134609
 20
33.5253237413
  0
LWPOLYLINE
  5
1E4
330
1F
100
AcDbEntity
  8
0
  6
Continuous
 62
     7
370
     0
100
AcDbPolyline
 90
       30
 70
   128
 43
0.0
 10
251.9141362088
 20
34.0614116741
 10
252.2219227005
 20
35.3186989437
 10
252.6119522461
 20
36.5874193868
 10
253.0811095068
 20
37.8574391704
 10
253.6256471153
 20
39.1186140835
 10
254.2412156084
 20
40.3608705625
 10
254.9228981676
 20
41.5742861542
 10
255.6652498918
 20
42.7491687702
 10
256.4623412887
 20
43.8761341019
 10
257.3078056359
 20
44.9461805775
 10
258.1948898346
 20
45.9507612612
 10
259.11650835
 20
46.8818521217
 10
260.0652998063
 20
47.7320161234
 10
261.0336857854
 20
48.4944626293
 10
262.013931359
 20
49.1631016411
 10
262.998206871
 20
49.7325924425
 10
263.9786504764
 20
50.1983862579
 10
264.9474309374
 20
50.5567625855
 10
265.8968101748
 20
50.8048589148
 10
266.8192050756
 20
50.9406935902
 10
267.7072480627
 20
50.96318164
 10
268.5538459429
 20
50.8721434422
 10
269.3522365636
 20
50.6683061593
 10
270.0960428248
 20
50.3532979299
 10
270.779323616
 20
49.9296348646
 10
271.3966212706
 20
49.4007009481
 10
271.9430051585
 20
48.7707210101
 10
272.4141110692
 20
48.0447269799
 10
272.8061760708
 20
47.2285176936
 10
273.1160685665
 20
46.3286125768
  0
LWPOLYLINE
  5
1E5
330
1F
100
AcDbEntity
  8
0
  6
Continuous
 62
     7
370
     0
100
AcDbPolyline
 90
       21
 70
   128
 43
0.0
 10
251.5548779662
 20
34.3923779105
 10
251.8818005257
 20
35.6627587835
 10
252.2901503839
 20
36.9425895106
 10
252.7767378701
 20
38.2218731779
 10
253.3377621903
 20
39.4906171447
 10
253.968841115
 20
40.738911097
 10
254.6650452097
 20
41.9570044586
 10
255.4209363395
 20
43.1353825537
 10
256.2306101464
 20
44.2648409273
 10
257.0877421696
 20
45.3365572422
 10
257.9856372464
 20
46.3421601916
 10
258.9172818088
 20
47.2737948883
 10
259.8753986674
 20
48.12418422
 10
260.8525038548
 20
48.886685692
 10
261.840965083
 20
49.5553433121
 10
262.833061361
 20
50.1249341143
 10
263.8210433036
 20
50.5910089552
 10
264.7971936633
 20
50.9499272676
 10
265.7538876108
 20
51.1988854965
 10
266.6836522929
 20
51.3359389991
 10
267.4696874983
 20
51.3631945167
  0
LWPOLYLINE
  5
1E6
330
1F
100
AcDbEntity
  8
0
  6
Continuous
 62
     7
370
     0
100
AcDbPolyline
 90
       14
 70
   128
 43
0.0
 10
273.6103042893
 20
23.9962291475
 10
273.6888389093
 20
23.9534104387
 10
274.145802814
 20
23.7892346053
 10
274.6534459987
 20
23.7388156562
 10
275.2001497819
 20
23.803307555
 10
275.7734014825
 20
23.9812342435
 10
276.3600808041
 20
24.2685234253
 10
276.9467601257
 20
24.6585997701
 10
277.5200118262
 20
25.1425354069
 10
278.0667156094
 20
25.7092542605
 10
278.5743587942
 20
26.345785555
 10
279.0313226989
 20
27.0375606825
 10
279.4271485636
 20
27.7687466421
 10
279.7527769253
 20
28.5226084176
  0
LWPOLYLINE
  5
1E7
330
1F
100
AcDbEntity
  8
0
  6
Continuous
 62
     7
370
     0
100
AcDbPolyline
 90
       25
 70
   128
 43
0.0
 10
254.5988696131
 20
33.9681187507
 10
254.797076415
 20
35.0014601902
 10
255.0750226762
 20
36.052859906
 10
255.4298380214
 20
37.1114600014
 10
255.8578582416
 20
38.1663282208
 10
256.3546631347
 20
39.2065708482
 10
256.9151221532
 20
40.2214452071
 10
257.5334473878
 20
41.2004706016
 10
258.20325334
 20
42.133536551
 10
258.9176228653
 20
43.0110072018
 10
259.6691786073
 20
43.8238208382
 10
260.4501591841
 20
44.5635834626
 10
261.2524993414
 20
45.2226554821
 10
262.0679132423
 20
45.7942306023
 10
262.8879800363
 20
46.2724061171
 10
263.7042308221
 20
46.6522438663
 10
264.5082361066
 20
46.9298212323
 10
265.2916928571
 20
47.1022716494
 10
266.0465102474
 20
47.1678142071
 10
266.7648932125
 20
47.1257720417
 10
267.4394229488
 20
46.9765793264
 10
268.0631335289
 20
46.7217767873
 10
268.6295838392
 20
46.3639957924
 10
269.1329240979
 20
45.9069311773
 10
269.3741292332
 20
45.6236640537
  0
ARC
  5
1E8
330
1F
100
AcDbEntity
  8
0
  6
Continuous
 62
     7
370
     0
100
AcDbCircle
 10
259.0661577454
 20
30.7883077967
 30
0.0
 40
4.485161482187848
100
AcDbArc
 50
185.1167699734
 51
259.6783343013
  0
LWPOLYLINE
  5
1E9
330
1F
100
AcDbEntity
  8
0
  6
Continuous
 62
     7
370
     0
100
AcDbPolyline
 90
       16
 70
   128
 43
0.0
 10
262.39021982
 20
23.9592967331
 10
262.013931359
 20
23.7545601372
 10
261.0336857854
 20
23.2914317001
 10
260.0652998063
 20
22.9358035535
 10
259.11650835
 20
22.6905162571
 10
258.1948898346
 20
22.5575290292
 10
257.3078056359
 20
22.537904098
 10
256.4623412887
 20
22.6317982163
 10
255.6652498918
 20
22.8384614103
 10
254.9228981676
 20
23.1562429693
 10
254.2412156084
 20
23.5826046312
 10
253.6256471153
 20
24.1141408562
 10
253.0811095068
 20
24.7466060288
 10
252.6119522461
 20
25.4749483693
 10
252.2219227005
 20
26.2933502842
 10
251.9141362088
 20
27.1952748347
  0
LWPOLYLINE
  5
1EA
330
1F
100
AcDbEntity
  8
0
  6
Continuous
 62
     7
370
     0
100
AcDbPolyline
 90
       24
 70
   128
 43
0.0
 10
259.9463646458
 20
29.1625993959
 10
259.9880115609
 20
30.1196198168
 10
260.1125108387
 20
31.114580088
 10
260.3185427558
 20
32.1369333829
 10
260.6039233227
 20
33.1758425024
 10
260.9656274342
 20
34.2202947512
 10
261.399820937
 20
35.2592186759
 10
261.9019012718
 20
36.2816014242
 10
262.4665462621
 20
37.2766054847
 10
263.0877705307
 20
38.2336835669
 10
263.7589889457
 20
39.142690405
 10
264.473086425
 20
39.9939903003
 10
265.2224933576
 20
40.7785592623
 10
265.9992658435
 20
41.4880806647
 10
266.7951699013
 20
42.1150334041
 10
267.6017687499
 20
42.6527716256
 10
268.4105122409
 20
43.0955951702
 10
269.212827492
 20
43.4388099982
 10
270.000209762
 20
43.678777947
 10
270.7643126029
 20
43.8129552967
 10
271.4970363346
 20
43.839919734
 10
272.1906139033
 20
43.7593854292
 10
272.8376932141
 20
43.5722060658
 10
273.284550447
 20
43.3650623199
  0
LWPOLYLINE
  5
1EB
330
1F
100
AcDbEntity
  8
0
  6
Continuous
 62
     7
370
     0
100
AcDbPolyline
 90
        9
 70
   128
 43
0.0
 10
262.1174654012
 20
24.1539655748
 10
261.9019012718
 20
24.301411897
 10
261.399820937
 20
24.7441050298
 10
260.9656274342
 20
25.2817198068
 10
260.6039233227
 20
25.9085573776
 10
260.3185427558
 20
26.6179731081
 10
260.1125108387
 20
27.4024470149
 10
259.9880115609
 20
28.2536634796
 10
259.9463646458
 20
29.1625993959
  0
LWPOLYLINE
  5
1EC
330
1F
100
AcDbEntity
  8
0
  6
Continuous
 62
     7
370
     0
100
AcDbPolyline
 90
       13
 70
   128
 43
0.0
 10
260.653471427
 20
29.1625993959
 10
260.6959840533
 20
28.2660510284
 10
260.8230402474
 20
27.4287449458
 10
261.0332004116
 20
26.6601681606
 10
261.3240833475
 20
25.9690289548
 10
261.692393235
 20
25.3631582118
 10
262.1339569761
 20
24.8494206892
 10
262.643771477
 20
24.4336372384
 10
263.2160603358
 20
24.1205188521
 10
263.844339291
 20
23.9136132866
 10
264.5214896911
 20
23.8152648648
 10
265.2398391513
 20
23.8265879135
 10
265.3785997416
 20
23.8409466728
  0
LWPOLYLINE
  5
1ED
330
1F
100
AcDbEntity
  8
0
  6
Continuous
 62
     7
370
     0
100
AcDbPolyline
 90
       27
 70
   128
 43
0.0
 10
275.1278073848
 20
40.7288994892
 10
274.8164835981
 20
41.3343475111
 10
274.4109720506
 20
41.8949461829
 10
273.9346077764
 20
42.3603663115
 10
273.3927881733
 20
42.7253345011
 10
272.7916522738
 20
42.9857155161
 10
272.1380111878
 20
43.1385591357
 10
271.4392709301
 20
43.1821335805
 10
270.7033485069
 20
43.1159451347
 10
269.9385822135
 20
42.9407437398
 10
269.1536371573
 20
42.6585144976
 10
268.3574070797
 20
42.2724551783
 10
267.5589135855
 20
41.7869399881
 10
266.7672039251
 20
41.2074700082
 10
265.9912484853
 20
40.5406108649
 10
265.2398391513
 20
39.7939183389
 10
264.5214896911
 20
38.9758527549
 10
263.844339291
 20
38.0956831227
 10
263.2160603358
 20
37.163382116
 10
262.643771477
 20
36.1895130778
 10
262.1339569761
 20
35.1851103334
 10
261.692393235
 20
34.1615541671
 10
261.3240833475
 20
33.1304418795
 10
261.0332004116
 20
32.1034563846
 10
260.8230402474
 20
31.0922338386
 10
260.6959840533
 20
30.1082317969
 10
260.653471427
 20
29.1625993959
  0
LWPOLYLINE
  5
1EE
330
1F
100
AcDbEntity
  8
0
  6
Continuous
 62
     7
370
     0
100
AcDbPolyline
 90
       21
 70
   128
 43
0.0
 10
254.8728734908
 20
32.091463497
 10
254.9145204059
 20
33.048483918
 10
255.0390196837
 20
34.0434441891
 10
255.2450516008
 20
35.0657974841
 10
255.5304321676
 20
36.1047066035
 10
255.8921362792
 20
37.1491588524
 10
256.326329782
 20
38.188082777
 10
256.8284101168
 20
39.2104655253
 10
257.3930551071
 20
40.2054695859
 10
258.0142793757
 20
41.1625476681
 10
258.6854977907
 20
42.0715545062
 10
259.39959527
 20
42.9228544015
 10
260.1490022025
 20
43.7074233635
 10
260.9257746885
 20
44.4169447658
 10
261.7216787463
 20
45.0438975053
 10
262.5282775949
 20
45.5816357268
 10
263.3370210858
 20
46.0244592714
 10
264.1393363369
 20
46.3676740993
 10
264.9267186069
 20
46.6076420482
 10
265.6908214479
 20
46.7418193979
 10
266.3750374938
 20
46.7703552363
  0
ARC
  5
1EF
330
1F
100
AcDbEntity
  8
0
  6
Continuous
 62
     7
370
     0
100
AcDbCircle
 10
261.8802538721
 20
31.8464584046
 30
0.0
 40
7.011662235483976
100
AcDbArc
 50
177.997533896
 51
210.2408547407
  0
LWPOLYLINE
  5
1F0
330
1F
100
AcDbEntity
  8
0
  6
Continuous
 62
     7
370
     0
100
AcDbPolyline
 90
       26
 70
   128
 43
0.0
 10
260.9097976351
 20
29.3105733661
 10
260.9522848102
 20
30.2400074988
 10
261.079248212
 20
31.2075995142
 10
261.2891993109
 20
32.2020052807
 10
261.579676622
 20
33.2115662997
 10
261.9472745646
 20
34.2244463914
 10
262.3876833888
 20
35.2287704629
 10
262.895739704
 20
36.2127637326
 10
263.4654870141
 20
37.1648897792
 10
264.0902455531
 20
38.0739857952
 10
264.7626905983
 20
38.9293934611
 10
265.4749383462
 20
39.721083904
 10
266.2186383434
 20
40.4397752775
 10
266.9850713872
 20
41.0770415823
 10
267.7652517511
 20
41.6254114535
 10
268.5500325335
 20
42.0784557559
 10
269.3302128974
 20
42.4308629592
 10
270.0966459412
 20
42.6785014112
 10
270.8403459384
 20
42.8184677773
 10
271.5525936863
 20
42.8491210801
 10
272.2250387315
 20
42.7701019374
 10
272.8497972705
 20
42.5823367765
 10
273.4195445807
 20
42.2880269723
 10
273.9276008958
 20
41.8906230381
 10
274.36800972
 20
41.3947841717
 10
274.6135132785
 20
41.0257951572
  0
LWPOLYLINE
  5
1F1
330
1F
100
AcDbEntity
  8
0
  6
Continuous
 62
     7
370
     0
100
AcDbPolyline
 90
       12
 70
   128
 43
0.0
 10
264.8643056353
 20
24.1378423407
 10
264.7626905983
 20
24.1402087984
 10
264.0902455531
 20
24.219227941
 10
263.4654870141
 20
24.4069931019
 10
262.895739704
 20
24.7013029061
 10
262.3876833888
 20
25.0987068403
 10
261.9472745646
 20
25.5945457067
 10
261.579676622
 20
26.1830062479
 10
261.2891993109
 20
26.8571893023
 10
261.079248212
 20
27.6091906897
 10
260.9522848102
 20
28.4301938816
 10
260.9097976351
 20
29.3105733661
  0
LINE
  5
1F2
330
1F
100
AcDbEntity
  8
0
  6
Continuous
 62
     7
370
     0
100
AcDbLine
 10
271.0665043621
 20
24.9242231566
 30
0.0
 11
271.47750848
 21
24.6869555297
 31
0.0
  0
LWPOLYLINE
  5
1F3
330
1F
100
AcDbEntity
  8
0
  6
Continuous
 62
     7
370
     0
100
AcDbPolyline
 90
       21
 70
   128
 43
0.0
 10
246.3664819593
 20
37.3875751708
 10
246.6934045188
 20
38.6579560438
 10
247.1017543769
 20
39.9377867709
 10
247.5883418632
 20
41.2170704382
 10
248.1493661833
 20
42.4858144049
 10
248.780445108
 20
43.7341083572
 10
249.4766492028
 20
44.9522017188
 10
250.2325403325
 20
46.1305798139
 10
251.0422141394
 20
47.2600381875
 10
251.8993461626
 20
48.3317545024
 10
252.7972412394
 20
49.3373574519
 10
253.7288858018
 20
50.2689921486
 10
254.6870026605
 20
51.1193814803
 10
255.6641078478
 20
51.8818829522
 10
256.6525690761
 20
52.5505405724
 10
257.644665354
 20
53.1201313745
 10
258.6326472966
 20
53.5862062155
 10
259.6087976564
 20
53.9451245278
 10
260.5654916039
 20
54.1940827568
 10
261.495256286
 20
54.3311362593
 10
262.2775720113
 20
54.3584685421
  0
LWPOLYLINE
  5
1F4
330
1F
100
AcDbEntity
  8
0
  6
Continuous
 62
     7
370
     0
100
AcDbPolyline
 90
       18
 70
   128
 43
0.0
 10
249.7811226943
 20
36.4349614299
 10
250.0967043368
 20
37.6415273526
 10
250.4946171924
 20
38.856646775
 10
250.9713074936
 20
40.0694674411
 10
251.5225179094
 20
41.2691576249
 10
252.1433255686
 20
42.4450028691
 10
252.8281860253
 20
43.5865016759
 10
253.5709827769
 20
44.6834592964
 10
254.3650818905
 20
45.7260787798
 10
255.203391251
 20
46.7050484704
 10
256.0784239004
 20
47.6116251701
 10
256.9823649044
 20
48.4377122239
 10
257.9071411475
 20
49.1759318317
 10
258.8444934344
 20
49.8196909392
 10
259.7860502528
 20
50.3632401207
 10
260.7234025397
 20
50.8017249275
 10
261.6481787828
 20
51.1312292428
 10
262.297860569
 20
51.2985002103
  0
LINE
  5
1F5
330
1F
100
AcDbEntity
  8
0
  6
Continuous
 62
     7
370
     0
100
AcDbLine
 10
281.7199502055
 20
30.21890298
 30
0.0
 11
281.4547851625
 21
30.4467147586
 31
0.0
  0
LINE
  5
1F6
330
1F
100
AcDbEntity
  8
0
  6
Continuous
 62
     7
370
     0
100
AcDbLine
 10
254.5988696131
 20
35.1912424548
 30
0.0
 11
254.315980927
 21
35.3545506171
 31
0.0
  0
LINE
  5
1F7
330
1F
100
AcDbEntity
  8
0
  6
Continuous
 62
     7
370
     0
100
AcDbLine
 10
249.2226056405
 20
32.2688223913
 30
0.0
 11
254.5988696131
 21
29.165171263
 31
0.0
  0
LINE
  5
1F8
330
1F
100
AcDbEntity
  8
0
  6
Continuous
 62
     7
370
     0
100
AcDbLine
 10
248.9862095374
 20
32.1323094623
 30
0.0
 11
249.2226056405
 21
32.2688223913
 31
0.0
  0
LINE
  5
1F9
330
1F
100
AcDbEntity
  8
0
  6
Continuous
 62
     7
370
     0
100
AcDbLine
 10
248.8359493464
 20
35.5765056244
 30
0.0
 11
248.8643592783
 21
36.3638070797
 31
0.0
  0
LWPOLYLINE
  5
1FA
330
1F
100
AcDbEntity
  8
0
  6
Continuous
 62
     7
370
     0
100
AcDbPolyline
 90
        3
 70
   128
 43
0.0
 10
248.937572292
 20
34.1805717782
 10
248.8775962615
 20
34.6675697081
 10
248.8359493464
 20
35.5765056244
  0
LINE
  5
1FB
330
1F
100
AcDbEntity
  8
0
  6
Continuous
 62
     7
370
     0
100
AcDbLine
 10
277.8838959175
 20
32.5081452409
 30
0.0
 11
281.4547851625
 21
30.4467147586
 31
0.0
  0
LWPOLYLINE
  5
1FC
330
1F
100
AcDbEntity
  8
0
  6
Continuous
 62
     7
370
     0
100
AcDbPolyline
 90
       17
 70
   128
 43
0.0
 10
227.5729053227
 20
51.863366451
 10
227.6155592334
 20
52.5923716576
 10
227.7426907554
 20
53.356434764
 10
227.9518254183
 20
54.140684151
 10
228.2388926538
 20
54.9298552964
 10
228.5983050248
 20
55.7085878813
 10
229.0230669781
 20
56.461724762
 10
229.5049110056
 20
57.1746069856
 10
230.0344585613
 20
57.8333591107
 10
230.6014026045
 20
58.4251592763
 10
231.1947082142
 20
58.9384887654
 10
231.8028273716
 20
59.3633562035
 10
232.413923729
 20
59.6914920291
 10
233.0161029909
 20
59.9165094517
 10
233.597644423
 20
60.034028763
 10
234.1472289829
 20
60.0417625833
 10
234.6528198638
 20
59.9399952064
  0
ARC
  5
1FD
330
1F
100
AcDbEntity
  8
0
  6
Continuous
 62
     7
370
     0
100
AcDbCircle
 10
230.9535860851
 20
51.6310818805
 30
0.0
 40
3.388651433659655
100
AcDbArc
 50
176.0694185984
 51
224.9117477784
  0
ARC
  5
1FE
330
1F
100
AcDbEntity
  8
0
  6
Continuous
 62
     7
370
     0
100
AcDbCircle
 10
258.9617044816
 20
29.1323558737
 30
0.0
 40
7.724655200656072
100
AcDbArc
 50
196.4928254403
 51
211.0479503791
  0
LINE
  5
1FF
330
1F
100
AcDbEntity
  8
0
  6
Continuous
 62
     7
370
     0
100
AcDbLine
 10
254.3160269006
 20
28.6752733159
 30
0.0
 11
249.0569202155
 21
31.7112909818
 31
0.0
  0
LINE
  5
200
330
1F
100
AcDbEntity
  8
0
  6
Continuous
 62
     7
370
     0
100
AcDbLine
 10
250.6453094785
 20
29.0601415291
 30
0.0
 11
250.5660112214
 21
29.3025510867
 31
0.0
  0
LWPOLYLINE
  5
201
330
1F
100
AcDbEntity
  8
0
  6
Continuous
 62
     7
370
     0
100
AcDbPolyline
 90
        3
 70
   128
 43
0.0
 10
250.309422116
 20
28.4794924911
 10
250.0967043368
 20
28.9134544748
 10
249.7811226943
 20
29.7556575887
  0
ARC
  5
202
330
1F
100
AcDbEntity
  8
0
  6
Continuous
 62
     7
370
     0
100
AcDbCircle
 10
253.7609631391
 20
32.1226451148
 30
0.0
 40
7.711424540411714
100
AcDbArc
 50
196.4838998152
 51
211.3036672688
  0
OLE2FRAME
  5
203
330
1F
100
AcDbEntity
  8
0
100
AcDbOle2Frame
 70
     2
  3
Paintbrush-Bild
 10
13.8511154363
 20
38.264191557
 30
0.0
 11
51.6290888628
 21
31.9806341108
 31
0.0
 71
     2
 72
     0
 73
     1
 90
    12928
310
80552BED0767C5B32B40DDAF6807D121434000000000000000006FFBDDFB85D0
310
4940DDAF6807D121434000000000000000006FFBDDFB85D04940416F4BD60AFB
310
3F4000000000000000002BED0767C5B32B40416F4BD60AFB3F40000000000000
310
0000000000000100000000010000010000000100000000000100000000320000
310
D0CF11E0A1B11AE1000000000000000000000000000000003E000300FEFF0900
310
0600000000000000000000000100000001000000000000000010000002000000
310
01000000FEFFFFFF0000000000000000FFFFFFFFFFFFFFFFFFFFFFFFFFFFFFFF
310
FFFFFFFFFFFFFFFFFFFFFFFFFFFFFFFFFFFFFFFFFFFFFFFFFFFFFFFFFFFFFFFF
310
FFFFFFFFFFFFFFFFFFFFFFFFFFFFFFFFFFFFFFFFFFFFFFFFFFFFFFFFFFFFFFFF
310
FFFFFFFFFFFFFFFFFFFFFFFFFFFFFFFFFFFFFFFFFFFFFFFFFFFFFFFFFFFFFFFF
310
FFFFFFFFFFFFFFFFFFFFFFFFFFFFFFFFFFFFFFFFFFFFFFFFFFFFFFFFFFFFFFFF
310
FFFFFFFFFFFFFFFFFFFFFFFFFFFFFFFFFFFFFFFFFFFFFFFFFFFFFFFFFFFFFFFF
310
FFFFFFFFFFFFFFFFFFFFFFFFFFFFFFFFFFFFFFFFFFFFFFFFFFFFFFFFFFFFFFFF
310
FFFFFFFFFFFFFFFFFFFFFFFFFFFFFFFFFFFFFFFFFFFFFFFFFFFFFFFFFFFFFFFF
310
FFFFFFFFFFFFFFFFFFFFFFFFFFFFFFFFFFFFFFFFFFFFFFFFFFFFFFFFFFFFFFFF
310
FFFFFFFFFFFFFFFFFFFFFFFFFFFFFFFFFFFFFFFFFFFFFFFFFFFFFFFFFFFFFFFF
310
FFFFFFFFFFFFFFFFFFFFFFFFFFFFFFFFFFFFFFFFFFFFFFFFFFFFFFFFFFFFFFFF
310
FFFFFFFFFFFFFFFFFFFFFFFFFFFFFFFFFFFFFFFFFFFFFFFFFFFFFFFFFFFFFFFF
310
FFFFFFFFFFFFFFFFFFFFFFFFFFFFFFFFFFFFFFFFFFFFFFFFFFFFFFFFFFFFFFFF
310
FFFFFFFFFFFFFFFFFFFFFFFFFFFFFFFFFFFFFFFFFFFFFFFFFFFFFFFFFFFFFFFF
310
FDFFFFFFFEFFFFFFFEFFFFFFFEFFFFFF05000000060000000700000008000000
310
090000000A0000000B0000000C0000000D0000000E0000000F00000010000000
310
11000000120000001300000014000000150000001600000017000000FEFFFFFF
310
FFFFFFFFFFFFFFFFFFFFFFFFFFFFFFFFFFFFFFFFFFFFFFFFFFFFFFFFFFFFFFFF
310
FFFFFFFFFFFFFFFFFFFFFFFFFFFFFFFFFFFFFFFFFFFFFFFFFFFFFFFFFFFFFFFF
310
FFFFFFFFFFFFFFFFFFFFFFFFFFFFFFFFFFFFFFFFFFFFFFFFFFFFFFFFFFFFFFFF
310
FFFFFFFFFFFFFFFFFFFFFFFFFFFFFFFFFFFFFFFFFFFFFFFFFFFFFFFFFFFFFFFF
310
FFFFFFFFFFFFFFFFFFFFFFFFFFFFFFFFFFFFFFFFFFFFFFFFFFFFFFFFFFFFFFFF
310
FFFFFFFFFFFFFFFFFFFFFFFFFFFFFFFFFFFFFFFFFFFFFFFFFFFFFFFFFFFFFFFF
310
FFFFFFFFFFFFFFFFFFFFFFFFFFFFFFFFFFFFFFFFFFFFFFFFFFFFFFFFFFFFFFFF
310
FFFFFFFFFFFFFFFFFFFFFFFFFFFFFFFFFFFFFFFFFFFFFFFFFFFFFFFFFFFFFFFF
310
FFFFFFFFFFFFFFFFFFFFFFFFFFFFFFFFFFFFFFFFFFFFFFFFFFFFFFFFFFFFFFFF
310
FFFFFFFFFFFFFFFFFFFFFFFFFFFFFFFFFFFFFFFFFFFFFFFFFFFFFFFFFFFFFFFF
310
FFFFFFFFFFFFFFFFFFFFFFFFFFFFFFFFFFFFFFFFFFFFFFFFFFFFFFFFFFFFFFFF
310
FFFFFFFFFFFFFFFFFFFFFFFFFFFFFFFFFFFFFFFFFFFFFFFFFFFFFFFFFFFFFFFF
310
FFFFFFFFFFFFFFFFFFFFFFFFFFFFFFFFFFFFFFFFFFFFFFFFFFFFFFFFFFFFFFFF
310
52006F006F007400200045006E00740072007900000000000000000000000000
310
0000000000000000000000000000000000000000000000000000000000000000
310
16000500FFFFFFFFFFFFFFFF020000000A00030000000000C000000000000046
310
00000000000000000000000060B167C0F01AD20103000000C000000000000000
310
01004F006C006500000000000000000000000000000000000000000000000000
310
0000000000000000000000000000000000000000000000000000000000000000
310
0A000200FFFFFFFFFFFFFFFFFFFFFFFF00000000000000000000000000000000
310
0000000000000000000000000000000000000000000000001400000000000000
310
010043006F006D0070004F0062006A0000000000000000000000000000000000
310
0000000000000000000000000000000000000000000000000000000000000000
310
120002010100000003000000FFFFFFFF00000000000000000000000000000000
310
0000000000000000000000000000000000000000010000004D00000000000000
310
01004F006C006500310030004E00610074006900760065000000000000000000
310
0000000000000000000000000000000000000000000000000000000000000000
310
1A000200FFFFFFFFFFFFFFFFFFFFFFFF00000000000000000000000000000000
310
0000000000000000000000000000000000000000040000002426000000000000
310
FEFFFFFF02000000FEFFFFFFFFFFFFFFFFFFFFFFFFFFFFFFFFFFFFFFFFFFFFFF
310
FFFFFFFFFFFFFFFFFFFFFFFFFFFFFFFFFFFFFFFFFFFFFFFFFFFFFFFFFFFFFFFF
310
FFFFFFFFFFFFFFFFFFFFFFFFFFFFFFFFFFFFFFFFFFFFFFFFFFFFFFFFFFFFFFFF
310
FFFFFFFFFFFFFFFFFFFFFFFFFFFFFFFFFFFFFFFFFFFFFFFFFFFFFFFFFFFFFFFF
310
FFFFFFFFFFFFFFFFFFFFFFFFFFFFFFFFFFFFFFFFFFFFFFFFFFFFFFFFFFFFFFFF
310
FFFFFFFFFFFFFFFFFFFFFFFFFFFFFFFFFFFFFFFFFFFFFFFFFFFFFFFFFFFFFFFF
310
FFFFFFFFFFFFFFFFFFFFFFFFFFFFFFFFFFFFFFFFFFFFFFFFFFFFFFFFFFFFFFFF
310
FFFFFFFFFFFFFFFFFFFFFFFFFFFFFFFFFFFFFFFFFFFFFFFFFFFFFFFFFFFFFFFF
310
FFFFFFFFFFFFFFFFFFFFFFFFFFFFFFFFFFFFFFFFFFFFFFFFFFFFFFFFFFFFFFFF
310
FFFFFFFFFFFFFFFFFFFFFFFFFFFFFFFFFFFFFFFFFFFFFFFFFFFFFFFFFFFFFFFF
310
FFFFFFFFFFFFFFFFFFFFFFFFFFFFFFFFFFFFFFFFFFFFFFFFFFFFFFFFFFFFFFFF
310
FFFFFFFFFFFFFFFFFFFFFFFFFFFFFFFFFFFFFFFFFFFFFFFFFFFFFFFFFFFFFFFF
310
FFFFFFFFFFFFFFFFFFFFFFFFFFFFFFFFFFFFFFFFFFFFFFFFFFFFFFFFFFFFFFFF
310
FFFFFFFFFFFFFFFFFFFFFFFFFFFFFFFFFFFFFFFFFFFFFFFFFFFFFFFFFFFFFFFF
310
FFFFFFFFFFFFFFFFFFFFFFFFFFFFFFFFFFFFFFFFFFFFFFFFFFFFFFFFFFFFFFFF
310
FFFFFFFFFFFFFFFFFFFFFFFFFFFFFFFFFFFFFFFFFFFFFFFFFFFFFFFFFFFFFFFF
310
0100000200000000000000000000000000000000000000000000000000000000
310
0000000000000000000000000000000000000000000000000000000000000000
310
0100FEFF030A0000FFFFFFFF0A00030000000000C00000000000004607000000
310
5042727573680007000000504272757368000700000050427275736800F439B2
310
7100000000000000000000000000000000000000000000000000000000000000
310
0000000000000000000000000000000000000000000000000000000000000000
310
0000000000000000000000000000000000000000000000000000000000000000
310
0000000000000000000000000000000000000000000000000000000000000000
310
0000000000000000000000000000000000000000000000000000000000000000
310
0000000000000000000000000000000000000000000000000000000000000000
310
0000000000000000000000000000000000000000000000000000000000000000
310
0000000000000000000000000000000000000000000000000000000000000000
310
0000000000000000000000000000000000000000000000000000000000000000
310
0000000000000000000000000000000000000000000000000000000000000000
310
0000000000000000000000000000000000000000000000000000000000000000
310
0000000000000000000000000000000000000000000000000000000000000000
310
20260000424D0E260000000000003E00000028000000B40200006E0000000100
310
01000000000000000000130B0000130B00000200000002000000000000FFFFFF
310
FFFFFFFFFFFFFFFFFFFFFFFFFFFFFFFFFFFFFFFFFFFFFFFFFFFFFFFFFFFFFFFF
310
FFFFFFFFFFFFFFFFFFFFFFFFFFFFFFFFFFFFFFFFFFFFFFFFFFFFFFFFFFFFFFFF
310
FFFFFFFFFFFFFFFFFFFFFFFFFFFFFFFFFFFFFFFFFFFFFFFFF000FFFFFFFFFFFF
310
FFFFFFFFFFFFFFFFFFFFFFFFFFFFFFFFFFFFFFFFFFFFFFFFFFFFFFFFFFFFFFFF
310
FFFFFFFFFFFFFFFFFFFFFFFFFFFFFFFFFFFFFFFFFFFFFFFFFFFFFFFFFFFFFFFF
310
FFFFFFFFFFFFFFFFFFFFFFFFFFFFFFFFF000FFFFFFFFFFFFFFFFFFFFFFFFFFFF
310
FFFFFFFFFFFFFFFFFFFFFFFFFFFFFFFFFFFFFFFFFFFFFFFFFFFFFFFFFFFFFFFF
310
FFFFFFFFFFFFFFFFFFFFFFFFFFFFFFFFFFFFFFFFFFFFFFFFFFFFFFFFFFFFFFFF
310
FFFFFFFFFFFFFFFFF000FFFFFFFFFFFFFFFFFFFFFFFFFFFFFFFFFFFFFFFFFFFF
310
FFFFFFFFFFFFFFFFFFFFFFFFFFFFFFFFFFFFFFFFFFFFFFFFFFFFFFFFFFFFFFFF
310
FFFFFFFFFFFFFFFFFFFFFFFFFFFFFFFFFFFFFFFFFFFFFFFFFFFFFFFFFFFFFFFF
310
F000FFFFFFFFFFFFFFFFFFFFFFFFFFFFFFFFFFFFFFFFFFFFFFFFFFFFFFFFFFFF
310
FFFFFFFFFFFFFFFFFFFFFFFFFFFFFFFFFFFFFFFFFFFFFFFFFFFFFFFFFFFFFFFF
310
FFFFFFFFFFFFFFFFFFFFFFFFFFFFFFFFFFFFFFFFFFFFFFFFF000FFFFFFFFFFFF
310
FFFFFFFFFFFFFFFFFFFFFFFFFFFFFFFFFFFFFFFFFFFFFFFFFFFFFFFFFFFFFFFF
310
FFFFFFFFFFFFFFFFFFFFFFFFFFFFFFFFFFFFFFFFFFFFFFFFFFFFFFFFFFFFFFFF
310
FFFFFFFFFFFFFFFFFFFFFFFFFFFFFFFFF000FFFFFFFFFFFFFFFFFFFFFFFFFFFF
310
FFFFFFFFFFFFFFFFFFFFFFFFFFFFFFFFFFFFFFFFFFFFFFFFFFFFFFFFFFFFFFFF
310
FFFFFFFFFFFFFFFFFFFFFFFFFFFFFFFFFFFFFFFFFFFFFFFFFFFFFFFFFFFFFFFF
310
FFFFFFFFFFFFFFFFF000FFFFFFFFFFFFFFFFFFFFFFFFFFFFFFFFFFFFFFFFFFFF
310
FFFFFFFFFFFFFFFFFFFFFFFFFFFFFFFFFFFFFFFFFFFFFFFFFFFFFFFFFFFFFFFF
310
FFFFFFFFFFFFFFFFFFFFFFFFFFFFFFFFFFFFFFFFFFFFFFFFFFFFFFFFFFFFFFFF
310
F000FFFFFFFFFFFFFFFFFFFFFFFFFFFFFFFFFFFFFFFFFFFFFFFFFFFFFFFFFFFF
310
FFFFFFFFFFFFFFFFFFFFFFFFFFFFFFFFFFFFFFFFFFFFFFFFFFFFFFFFFFFFFFFF
310
FFFFFFFFFFFFFFFFFFFFFFFFFFFFFFFFFFFFFFFFFFFFFFFFF000FFFFFFFFFFFF
310
FFFFFFFFFFFFFFFFFFFFFFFFFFFFFFFFFFFFFFFFFFFFFFFFFFFFFFFFFFFFFFFF
310
FFFFFFFFFFFFFFFFFFFFFFFFFFFFFFFFFFFFFFFFFFFFFFFFFFFFFFFFFFFFFFFF
310
FFFFFFFFFFFFFFFFFFFFFFFFFFFFFFFFF000FFFFFFFFFFFFFFFFFFFFFFFFFFFF
310
FFFFFFFFFFFFFFFFFFFFFFFFFFFFFFFFFFFFFFFFFFFFFFFFFFFFFFFFFFFFFFFF
310
FFFFFFFFFFFFFFFFFFFFFFFFFFFFFFFFFFFFFFFFFFFFFFFFFFFFFFFFFFFFFFFF
310
FFFFFFFFFFFFFFFFF000FFFFFFFFFFFFFFFFFFFFFFFFFFFFFFFFFFFFFFFFFFFF
310
FFFFFFFFFFFFFFFFFFFFFFFFFFFFFFFFFFFFFFFFFFFFFFFFFFFFFFFFFFFFFFFF
310
FFFFFFFFFFFFFFFFFFFFFFFFFFFFFFFFFFFFFFFFFFFFFFFFFFFFFFFFFFFFFFFF
310
F000FFFFFFFFFFFFFFFFFFFFFFFFFFFFFFFFFFFFFFFFFFFFFFFFFFFFFFFFFFFF
310
FFFFFFFFFFFFFFFFFFFFFFFFFFFFFFFFFFFFFFFFFFFFFFFFFFFFFFFFFFFFFFFF
310
FFFFFFFFFFFFFFFFFFFFFFFFFFFFFFFFFFFFFFFFFFFFFFFFF000FFFFFFFFFFFF
310
FFFFFFFFFFFFFFFFFFFFFFFFFFFFFFFFFFFFFFFFFFFFFFFFFFFFFFFFFFFFFFFF
310
FFFFFFFFFFFFFFFFFFFFFFFFFFFFFFFFFFFFFFFFFFFFFFFFFFFFFFFFFFFFFFFF
310
FFFFFFFFFFFFFFFFFFFFFFFFFFFFFFFFF000FFFFFFFFFFFFFFFFFFFFFFFFFFFF
310
FFFFFFFFFFFFFFFFFFFFFFFFFFFFFFFFFFFFFFFFFFFFFFFFFFFFFFFFFFFFFFFF
310
FFFFFFFFFFFFFFFFFFFFFFFFFFFFFFFFFFFFFFFFFFFFFFFFFFFFFFFFFFFFFFFF
310
FFFFFFFFFFFFFFFFF000FFFFFFFFFFFFFFFFFFFFFFFFFFFFFFFFFFFFFFFFFFFF
310
FFFFFFFFFFFFFFFFFFFFFFFFFFFFFFFFFFFFFFFFFFFFFFFFFFFFFFFFFFFFFFFF
310
FFFFFFFFFFFFFFFFFFFFFFFFFFFFFFFFFFFFFFFFFFFFFFFFFFFFFFFFFFFFFFFF
310
F000FFFFFFFFFFFFFFFFFFFFFFFFFFFFFFFFFFFFFFFFFFFFFFFFFFFFFFFFFFFF
310
FFFFFFFFFFFFFFFFFFFFFFFFFFFFFFFFFFFFFFFFFFFFFFFFFFFFFFFFFFFFFFFF
310
FFFFFFFFFFFFFFFFFFFFFFFFFFFFFFFFFFFFFFFFFFFFFFFFF000FFFFFFFFFFFF
310
FFFFFFFFFFFFFFFFFFFFFFFFFFFFFFFFFFFFFFFFFFFFFFFFFFFFFFFFFFFFFFFF
310
FFFFFFFFFFFFFFFFFFFFFFFFFFFFFFFFFFFFFFFFFFFFFFFFFFFFFFFFFFFFFFFF
310
FFFFFFFFFFFFFFFFFFFFFFFFFFFFFFFFF000FFFFFFFFFFFFFFFFFFFFFFFFFFFF
310
FFFFFFFFFFFFFFFFFFFFFFFFFFFFFFFFFFFFFFFFFFFFFFFFFFFFFFFFFFFFFFFF
310
FFFFFFFFFFFFFFFFFFFFFFFFFFFFFFFFFFFFFFFFFFFFFFFFFFFFFFFFFFFFFFFF
310
FFFFFFFFFFFFFFFFF000FFFFF80003FFFFFFFFFFFFFFFFFFFFFFFFFFFFFFFFFF
310
FFFFF00007FFFFFFFFFF00007FFFFFF800000000000000007FFFFFFFFFFFFFFF
310
FFFFFFFC001FFFFFFFFFFFFFFC001FFFFFFFFFFFFFFFFFFFFFFFFFFE0007FFFF
310
F000FFFF8000007FFFFFFFF8000FFFFFC0007FFFFF80007FFFFF0000007FFFFF
310
FFF8000007FFFFF800000000000000007FFFFFF0001FFFFFFFFFFFC00001FFFF
310
FFFFFFFFC00001FFFFFFFF000000000003FFFFE000007FFFF000FFFE0000000F
310
FFFFFFF0000FFFFF80007FFFFF80007FFFFC0000001FFFFFFFC0000001FFFFF8
310
00000000000000007FFFFFF0001FFFFFFFFFFE0000003FFFFFFFFFFE0000003F
310
FFFFFF000000000003FFFF0000000FFFF000FFF800000003FFFFFFF00007FFFF
310
80007FFFFF80007FFFF000000007FFFFFF000000003FFFF80000000000000000
310
7FFFFFF0001FFFFFFFFFF80000000FFFFFFFFFF80000000FFFFFFF0000000000
310
03FFFC00000003FFF000FFE000000000FFFFFFF00007FFFF80003FFFFF80007F
310
FFC000000001FFFFFC000000001FFFF800000000000000007FFFFFF0001FFFFF
310
FFFFE000000003FFFFFFFFE000000003FFFFFF000000000003FFF000000000FF
310
F000FF80000000007FFFFFF00007FFFF80003FFFFF80007FFF8000000000FFFF
310
F80000000007FFF800000000000000007FFFFFF0001FFFFFFFFFC000000001FF
310
FFFFFFC000000001FFFFFF000000000003FFC0000000007FF000FF0000000000
310
3FFFFFE00007FFFF00003FFFFF80007FFE00000000003FFFF00000000003FFF8
310
00000000000000007FFFFFF0001FFFFFFFFF8000000000FFFFFFFF8000000000
310
FFFFFF000000000003FF80000000003FF000FE00000000001FFFFFE00003FFFF
310
00003FFFFF80007FFC00000000001FFFE00000000001FFF8000001FFFE000000
310
7FFFFFF0001FFFFFFFFE00000000003FFFFFFE00000000003FFFFF0000000000
310
03FF00000000001FF000FC00000000000FFFFFE00003FFFF00001FFFFF80007F
310
F800000000001FFFC00000000000FFF8000001FFFE0000007FFFFFF0001FFFFF
310
FFFC00000000001FFFFFFC00000000001FFFFF000000000003FE00000000000F
310
F000F8000000000007FFFFE00003FFFF00001FFFFF80007FF800000000000FFF
310
800000000000FFF8000001FFFE0000007FFFFFF0001FFFFFFFF800000000000F
310
FFFFF800000000000FFFFF000000000003FC000000000007F000F80000000000
310
03FFFFC00003FFFE00001FFFFF80007FF0000000000007FF0000000000007FF8
310
000001FFFE0000007FFFFFF0001FFFFFFFF0000000000007FFFFF00000000000
310
07FFFF000000000003F8000000000003F000F0000000000003FFFFC00001FFFE
310
00001FFFFF80007FE0000000000007FE0000000000003FF8000001FFFE000000
310
7FFFFFF0001FFFFFFFF0000000000007FFFFF0000000000007FFFF0000000000
310
03F800001F800003F000E00001FFF00001FFFFC00001FFFE00000FFFFF80007F
310
E00001FFE00003FE00001FFF00003FF8000001FFFE0000007FFFFFF0001FFFFF
310
FFE000003E000003FFFFE000003E000003FFFF000000000003F00001FFF80001
310
F000E00007FFFC0001FFFFC00001FFFE00000FFFFF80007FC0000FFFFC0003FC
310
0000FFFFC0001FF8000001FFFE0000007FFFFFF0001FFFFFFFC00003FFE00001
310
FFFFC00003FFE00001FFFF0001FFFFFFFFF00007FFFE0001F000E0000FFFFF00
310
00FFFF800001FFFC00000FFFFF80007FC0001FFFFE0001FC0001FFFFE0001FF8
310
000001FFFE0000007FFFFFF0001FFFFFFF80000FFFF80000FFFF80000FFFF800
310
00FFFF0003FFFFFFFFE0000FFFFF8000F000C0003FFFFF8000FFFF800000FFFC
310
000007FFFF80007F80003FFFFF0001FC0003FFFFF0001FF8000001FFFE000000
310
7FFFFFF0001FFFFFFF80003FFFFE0000FFFF80003FFFFE0000FFFF0003FFFFFF
310
FFE0003FFFFF8000F000C0003FFFFF8000FFFF800000FFFC000007FFFF80007F
310
80007FFFFF8001F80007FFFFF8000FF8000001FFFE0000007FFFFFF0001FFFFF
310
FF00007FFFFF00007FFF00007FFFFF00007FFF0003FFFFFFFFE0003FFFFFC000
310
F000C0007FFFFFC000FFFF000000FFFC000007FFFF80007F8000FFFFFF8000F8
310
000FFFFFF8000FF8000001FFFE0000007FFFFFF0001FFFFFFF0000FFFFFF8000
310
7FFF0000FFFFFF80007FFF0003FFFFFFFFC0007FFFFFC00070008000FFFFFFC0
310
00FFFF000000FFF8000007FFFF80007F8000FFFFFF8000F8000FFFFFF8000FF8
310
000001FFFE0000007FFFFFF0001FFFFFFE0001FFFFFFC0003FFE0001FFFFFFC0
310
003FFF0003FFFFFFFFC0007FFFFFE00070008000FFFFFFC0007FFF0000007FF8
310
000003FFFF80007F0001FFFFFF8000F8000FFFFFF8000FF8000001FFFE000000
310
7FFFFFF0001FFFFFFE0001FFFFFFC0003FFE0001FFFFFFC0003FFF0003FFFFFF
310
FFC000FFFFFFE00070008000FFFFFFC0007FFF0000007FF8000003FFFF80007F
310
0001FFFFFF8000F8001FFFFFF8000FF8000001FFFE0000007FFFFFF0001FFFFF
310
FE0003FFFFFFE0003FFE0003FFFFFFE0003FFF0003FFFFFFFFC000FFFFFFE000
310
70008000FFFFFFC0007FFE0000007FF8000003FFFF80007F0001FFFFFF8000F0
310
001FFFFFF8000FF8000001FFFE0000007FFFFFF0001FFFFFFC0003FFFFFFE000
310
1FFC0003FFFFFFE0001FFF0003FFFFFFFFC000FFFFFFC00070008000FFFFFF80
310
007FFE0000007FF0000003FFFF80007F0001FFFFFF0000F0001FFFFFF8000FF8
310
000001FFFE0000007FFFFFF0001FFFFFFC0007FFFFFFF0001FFC0007FFFFFFF0
310
001FFF0003FFFFFFFFC000FFFFFFC00070008001FFFFFF0000FFFE0000003FF0
310
000001FFFF80007F0001FFFFFF0000F8001FFFFFF0000FF8000001FFFE000000
310
7FFFFFF0001FFFFFFC0007FFFFFFF0001FFC0007FFFFFFF0001FFF0003FFFFFF
310
FFC001FFFFFF80007000FFFFFFFFFE0000FFFE0008003FF0008001FFFF80007F
310
FFFFFFFFFC0000FFFFFFFFFFE0000FF8000001FFFE0000007FFFFFF0001FFFFF
310
F8000FFFFFFFF8000FF8000FFFFFFFF8000FFF0003FFFFFFFFFFFFFFFFFF0000
310
7000FFFFFFFFFC0000FFFC0008003FF0008001FFFF80007FFFFFFFFFF80001FF
310
FFFFFFFF80000FF8000001FFFE0000007FFFFFF0001FFFFFF8000FFFFFFFF800
310
0FF8000FFFFFFFF8000FFF0003FFFFFFFFFFFFFFFFFE0000F000FFFFFFFFE000
310
00FFFC000C003FE000C001FFFF80007FFFFFFFFFC00001FFFFFFFFFE00001FF8
310
000001FFFE0000007FFFFFF0001FFFFFF8000FFFFFFFF8000FF8000FFFFFFFF8
310
000FFF0003FFFFFFFFFFFFFFFFF00000F000FFFFFFFE000001FFFC000C001FE0
310
00C000FFFF80007FFFFFFFFE000001FFFFFFFFE000001FF80FFFFFFFFFFFFFC0
310
7FFFFFF0001FFFFFF8000FFFFFFFF8000FF8000FFFFFFFF8000FFF0003FFFFFF
310
FFFFFFFFFF800000F000FFFFFFC0000001FFFC001C001FE001C000FFFF80007F
310
FFFFFF80000003FFFFFFF80000001FF80FFFFFFFFFFFFFC07FFFFFF0001FFFFF
310
F8001FFFFFFFFC000FF8001FFFFFFFFC000FFF0003FFFFFFFFFFFFFFF0000001
310
F000FFFFF800000001FFF8001C001FE001C000FFFF80007FFFFFF800000003FF
310
FFFF800000003FF80FFFFFFFFFFFFFC07FFFFFF0001FFFFFF8001FFFFFFFFC00
310
0FF8001FFFFFFFFC000FFF0003FFFFFFFFFFFFFE00000001F000FFFFC0000000
310
03FFF8001E001FC001E000FFFF80007FFFFF8000000007FFFFFC000000003FF8
310
0FFFFFFFFFFFFFC07FFFFFF0001FFFFFF8001FFFFFFFFC000FF8001FFFFFFFFC
310
000FFF0003FFFFFFFFFFFFE000000003F000FFFE0000000007FFF8001E000FC0
310
01E0007FFF80007FFFFE0000000007FFFFE0000000007FF80FFFFFFFFFFFFFC0
310
7FFFFFF0001FFFFFF0001FFFFFFFFC0007F0001FFFFFFFFC0007FF0003FFFFFF
310
FFFFFF0000000003F000FFF80000000007FFF8001E000FC003E0007FFF80007F
310
FFF0000000000FFFFF8000000000FFF80FFFFFFFFFFFFFC07FFFFFF0001FFFFF
310
F0001FFFFFFFFC0007F0001FFFFFFFFC0007FF0003FFFFFFFFFFFC0000000007
310
F000FFE0000000000FFFF0003E000FC003E0007FFF80007FFFC0000000001FFF
310
FE0000000001FFF80FFFFFFFFFFFFFC07FFFFFF0001FFFFFF0001FFFFFFFFC00
310
07F0001FFFFFFFFC0007FF0003FFFFFFFFFFF0000000000FF000FFC000000000
310
1FFFF0003F000F8003F0003FFF80007FFF80000000003FFFF80000000003FFF8
310
0FFFFFFFFFFFFFC07FFFFFF0001FFFFFF0001FFFFFFFFC0007F0001FFFFFFFFC
310
0007FF0003FFFFFFFFFFE0000000001FF000FF00000000007FFFF0003F000780
310
03F0003FFF80007FFF00000000007FFFF00000000007FFF80FFFFFFFFFFFFFC0
310
7FFFFFF0001FFFFFF0001FFFFFFFFC0007F0001FFFFFFFFC0007FF0003FFFFFF
310
FFFF80000000007FF000FE0000000000FFFFE0003F00078007F0003FFF80007F
310
FE0000000001FFFFE0000000001FFFF80FFFFFFFFFFFFFC07FFFFFF0001FFFFF
310
F0001FFFFFFFFC0007F0001FFFFFFFFC0007FF0003FFFFFFFFFF0000000000FF
310
F000FC0000000003FFFFE0007F00078007F0003FFF80007FFC0000000007FFFF
310
C0000000007FFFF80FFFFFFFFFFFFFC07FFFFFF0001FFFFFF8001FFFFFFFFC00
310
0FF8001FFFFFFFFC000FFF0003FFFFFFFFFE0000000003FFF000FC000000000F
310
FFFFE0007F80070007F8001FFF80007FF8000000001FFFFF8000000001FFFFF8
310
0FFFFFFFFFFFFFC07FFFFFF0001FFFFFF8001FFFFFFFFC000FF8001FFFFFFFFC
310
000FFF0003FFFFFFFFFC000000000FFFF000F8000000007FFFFFE0007F800700
310
07F8001FFF80007FF000000000FFFFFF800000000FFFFFF80FFFFFFFFFFFFFC0
310
7FFFFFF0001FFFFFF8000FFFFFFFF8000FF8000FFFFFFFF8000FFF0003FFFFFF
310
FFFC000000007FFFF000F800000007FFFFFFC0007F8003000FF8001FFF80007F
310
F000000007FFFFFF000000007FFFFFF80FFFFFFFFFFFFFC07FFFFFF0001FFFFF
310
F8000FFFFFFFF8000FF8000FFFFFFFF8000FFF0003FFFFFFFFF80000000FFFFF
310
F000F0000000FFFFFFFFC000FF8003000FF8001FFF80007FE0000000FFFFFFFF
310
0000000FFFFFFFF8000001FFFE0000007FFFFFF0001FFFFFF8000FFFFFFFF800
310
0FF8000FFFFFFFF8000FFF0003FFFFFFFFF8000000FFFFFFF000F000000FFFFF
310
FFFFC000FFC002000FF8000FFF80007FE000001FFFFFFFFE000001FFFFFFFFF8
310
000001FFFE0000007FFFFFF0001FFFFFF8000FFFFFFFF8000FF8000FFFFFFFF8
310
000FFF0003FFFFFFFFF000001FFFFFFFF000E00000FFFFFFFFFFC000FFC00200
310
0FFC000FFF80007FE00001FFFFFFFFFE00001FFFFFFFFFF8000001FFFE000000
310
7FFFFFF0001FFFFFFC000FFFFFFFF8001FFC000FFFFFFFF8001FFF0003FFFFFF
310
FFF00001FFFFFFFFF000E00007FFFFFFFFFF8000FFC000001FFC000FFF80007F
310
C0000FFFFFFFFFFE0000FFFFFFFFFFF8000001FFFE0000007FFFFFF0001FFFFF
310
FC0007FFFFFFF0001FFC0007FFFFFFF0001FFF0003FFFFFFFFF00007FFFFFFFF
310
F000E0001FFFFFFFFFFF8000FFC000001FFC000FFF80007FC0003FFFFFFFFFFE
310
0001FFFFFFFFFFF8000001FFFE0000007FFFFFF0001FFFFFFC0007FFFFFFF000
310
1FFC0007FFFFFFF0001FFF0003FFFFFFFFF0001FFFFFFFFFF000E0003FFFFF00
310
03FF8001FFE000001FFC0007FF80007FC0007FFFFF0007FC0003FFFFF0003FF8
310
000001FFFE0000007FFFFFF0001FFFFFFC0003FFFFFFE0001FFC0003FFFFFFE0
310
001FFF0003FFFFFFFFF0003FFFFFFFFFF000E0003FFFFF0001FF8001FFE00000
310
1FFE0007FF80007FC0007FFFFE0003FC0007FFFFE0003FF8000001FFFE000000
310
7FFFFFF0001FFFFFFE0003FFFFFFE0003FFE0003FFFFFFE0003FFF0003FFFFFF
310
FFF0003FFFFF8001F000E0003FFFFF0001FF0001FFE000001FFE0007FF80007F
310
C0007FFFFE0003FC0007FFFFE0003FF8000001FFFE0000007FFFFFF0001FFFFF
310
FE0001FFFFFFC0003FFE0001FFFFFFC0003FFF0003FFFFFFFFF0003FFFFF0001
310
F000E0003FFFFF0003FF0001FFE000003FFE0007FF80007FC0007FFFFE0003FC
310
0007FFFFE0003FF8000001FFFE0000007FFFFFF0001FFFFFFF0001FFFFFFC000
310
7FFF0001FFFFFFC0007FFF0003FFFFFFFFF0003FFFFF0001F000E0003FFFFE00
310
03FF0003FFF000003FFE0003FF80007FC0007FFFFC0003FE0007FFFFE0003FF8
310
000001FFFE0000007FFFFFF0001FFFFFFF0000FFFFFF80007FFF0000FFFFFF80
310
007FFF0003FFFFFFFFF0003FFFFF0001F000E0003FFFFE0003FF0003FFF00000
310
3FFF0003FF80007FC0007FFFFC0007FE0007FFFFC0003FF8000001FFFE000000
310
7FFFFFF0001FFFFFFF80007FFFFF0000FFFF80007FFFFF0000FFFF0003FFFFFF
310
FFF0003FFFFF0003F000E0003FFFFC0003FE0003FFF000003FFF0003FF80007F
310
E0003FFFF80007FE0003FFFFC0007FF8000001FFFE0000007FFFFFF0001FFFFF
310
FF80003FFFFE0000FFFF80003FFFFE0000FFFF0003FFFFFFFFF0001FFFFE0003
310
F000F0001FFFF80003FE0003FFF000007FFF0001FF80007FE0003FFFF00007FE
310
0001FFFF80007FF8000001FFFE0000007FFFFFF0001FFFFFFFC0000FFFF80001
310
FFFFC0000FFFF80001FFFF0003FFFFFFFFF0001FFFFC0003F000F0000FFFF000
310
07FE0007FFF800007FFF0001FF80007FE0001FFFE00007FF0000FFFE00007FF8
310
000001FFFE0000007FFFFFF0001FFFFFFFC00003FFE00001FFFFC00003FFE000
310
01FFFF0003FFFFFFFFF8000FFFF80003F000F00003FFC00007FC0007FFF80000
310
7FFF8001FF80007FF00007FF80000FFF00007FF80000FFF8000001FFFE000000
310
7F80000000000001FFE000003E000003FFFFE000003E000003FFFF0003FFFFFF
310
FFF80003FFE00007F000F800000000000FFC0007FFF800007FFF8001FF80007F
310
F000000000000FFF000000000000FFF8000001FFFE0000007F80000000000001
310
FFF0000000000007FFFFF0000000000007FFFF0003FFFFFFFFFC00007E000007
310
F000F800000000000FFC0007FFF80000FFFF8000FF80007FF800000000001FFF
310
800000000001FFF8000001FFFE0000007F80000000000001FFF800000000000F
310
FFFFF800000000000FFFFF0003FFFFFFFFFC00000000000FF000FC0000000000
310
1FFC0007FFFC0000FFFF8000FF80007FF800000000003FFFC00000000001FFF8
310
000001FFFE0000007F80000000000001FFF800000000000FFFFFF80000000000
310
0FFFFF0003FFFFFFFFFE00000000001FF000FE00000000003FF8000FFFFC0000
310
FFFF8000FF80007FFC00000000003FFFC00000000003FFF8000001FFFE000000
310
7F80000000000001FFFC00000000001FFFFFFC00000000001FFFFF0003FFFFFF
310
FFFF00000000001FF000FF00000000003FF8000FFFFC0000FFFFC000FF80007F
310
FE00000000007FFFE00000000007FFF8000001FFFE0000007F80000000000001
310
FFFE00000000003FFFFFFE00000000003FFFFF0003FFFFFFFFFF80000000003F
310
F000FF80000000007FF8000FFFFC0001FFFFC0007F80007FFF0000000000FFFF
310
F0000000000FFFF800000000000000007F80000000000001FFFF8000000000FF
310
FFFFFF8000000000FFFFFF0003FFFFFFFFFFC0000000007FF000FFC000000000
310
FFF8000FFFFE0001FFFFC0007F80007FFF8000000001FFFFF8000000001FFFF8
310
00000000000000007F80000000000001FFFFC000000001FFFFFFFFC000000001
310
FFFFFF0003FFFFFFFFFFE000000000FFF000FFE000000003FFF0001FFFFE0001
310
FFFFC0007F80007FFFC000000007FFFFFE000000003FFFF80000000000000000
310
7F80000000000001FFFFE000000003FFFFFFFFE000000003FFFFFF0003FFFFFF
310
FFFFF000000003FFF000FFF80000000FFFF0001FFFFE0001FFFFE0007F80007F
310
FFF00000000FFFFFFF00000000FFFFF800000000000000007F80000000000001
310
FFFFF80000000FFFFFFFFFF80000000FFFFFFF0003FFFFFFFFFFFC0000000FFF
310
F000FFFE0000003FFFF0001FFFFE0003FFFFE0003F80007FFFFC0000003FFFFF
310
FFC0000003FFFFF800000000000000007F80000000000001FFFFFE0000003FFF
310
FFFFFFFE0000003FFFFFFF0003FFFFFFFFFFFF0000003FFFF000FFFF800000FF
310
FFF0001FFFFF0003FFFFE0003F80007FFFFF000001FFFFFFFFF800001FFFFFF8
310
00000000000000007F80000000000001FFFFFFC00001FFFFFFFFFFFFC00001FF
310
FFFFFF0003FFFFFFFFFFFFC00000FFFFF000FFFFF8000FFFFFFFFFFFFFFFFFFF
310
FFFFFFFFFFFFFFFFFFFFF0001FFFFFFFFFFF0000FFFFFFF80000000000000000
310
7FFFFFFFFFFFFFFFFFFFFFFC001FFFFFFFFFFFFFFC001FFFFFFFFFFFFFFFFFFF
310
FFFFFFFC001FFFFFF000FFFFFFFFFFFFFFFFFFFFFFFFFFFFFFFFFFFFFFFFFFFF
310
FFFFFFFFFFFFFFFFFFFFFFFFFFFFFFFFFFFFFFFFFFFFFFFFFFFFFFFFFFFFFFFF
310
FFFFFFFFFFFFFFFFFFFFFFFFFFFFFFFFFFFFFFFFFFFFFFFFFFFFFFFFFFFFFFFF
310
F000FFFFFFFFFFFFFFFFFFFFFFFFFFFFFFFFFFFFFFFFFFFFFFFFFFFFFFFFFFFF
310
FFFFFFFFFFFFFFFFFFFFFFFFFFFFFFFFFFFFFFFFFFFFFFFFFFFFFFFFFFFFFFFF
310
FFFFFFFFFFFFFFFFFFFFFFFFFFFFFFFFFFFFFFFFFFFFFFFFF000FFFFFFFFFFFF
310
FFFFFFFFFFFFFFFFFFFFFFFFFFFFFFFFFFFFFFFFFFFFFFFFFFFFFFFFFFFFFFFF
310
FFFFFFFFFFFFFFFFFFFFFFFFFFFFFFFFFFFFFFFFFFFFFFFFFFFFFFFFFFFFFFFF
310
FFFFFFFFFFFFFFFFFFFFFFFFFFFFFFFFF000FFFFFFFFFFFFFFFFFFFFFFFFFFFF
310
FFFFFFFFFFFFFFFFFFFFFFFFFFFFFFFFFFFFFFFFFFFFFFFFFFFFFFFFFFFFFFFF
310
FFFFFFFFFFFFFFFFFFFFFFFFFFFFFFFFFFFFFFFFFFFFFFFFFFFFFFFFFFFFFFFF
310
FFFFFFFFFFFFFFFFF000FFFFFFFFFFFFFFFFFFFFFFFFFFFFFFFFFFFFFFFFFFFF
310
FFFFFFFFFFFFFFFFFFFFFFFFFFFFFFFFFFFFFFFFFFFFFFFFFFFFFFFFFFFFFFFF
310
FFFFFFFFFFFFFFFFFFFFFFFFFFFFFFFFFFFFFFFFFFFFFFFFFFFFFFFFFFFFFFFF
310
F000FFFFFFFFFFFFFFFFFFFFFFFFFFFFFFFFFFFFFFFFFFFFFFFFFFFFFFFFFFFF
310
FFFFFFFFFFFFFFFFFFFFFFFFFFFFFFFFFFFFFFFFFFFFFFFFFFFFFFFFFFFFFFFF
310
FFFFFFFFFFFFFFFFFFFFFFFFFFFFFFFFFFFFFFFFFFFFFFFFF000FFFFFFFFFFFF
310
FFFFFFFFFFFFFFFFFFFFFFFFFFFFFFFFFFFFFFFFFFFFFFFFFFFFFFFFFFFFFFFF
310
FFFFFFFFFFFFFFFFFFFFFFFFFFFFFFFFFFFFFFFFFFFFFFFFFFFFFFFFFFFFFFFF
310
FFFFFFFFFFFFFFFFFFFFFFFFFFFFFFFFF000FFFFFFFFFFFFFFFFFFFFFFFFFFFF
310
FFFFFFFFFFFFFFFFFFFFFFFFFFFFFFFFFFFFFFFFFFFFFFFFFFFFFFFFFFFFFFFF
310
FFFFFFFFFFFFFFFFFFFFFFFFFFFFFFFFFFFFFFFFFFFFFFFFFFFFFFFFFFFFFFFF
310
FFFFFFFFFFFFFFFFF000FFFFFFFFFFFFFFFFFFFFFFFFFFFFFFFFFFFFFFFFFFFF
310
FFFFFFFFFFFFFFFFFFFFFFFFFFFFFFFFFFFFFFFFFFFFFFFFFFFFFFFFFFFFFFFF
310
FFFFFFFFFFFFFFFFFFFFFFFFFFFFFFFFFFFFFFFFFFFFFFFFFFFFFFFFFFFFFFFF
310
F000FFFFFFFFFFFFFFFFFFFFFFFFFFFFFFFFFFFFFFFFFFFFFFFFFFFFFFFFFFFF
310
FFFFFFFFFFFFFFFFFFFFFFFFFFFFFFFFFFFFFFFFFFFFFFFFFFFFFFFFFFFFFFFF
310
FFFFFFFFFFFFFFFFFFFFFFFFFFFFFFFFFFFFFFFFFFFFFFFFF000FFFFFFFFFFFF
310
FFFFFFFFFFFFFFFFFFFFFFFFFFFFFFFFFFFFFFFFFFFFFFFFFFFFFFFFFFFFFFFF
310
FFFFFFFFFFFFFFFFFFFFFFFFFFFFFFFFFFFFFFFFFFFFFFFFFFFFFFFFFFFFFFFF
310
FFFFFFFFFFFFFFFFFFFFFFFFFFFFFFFFF000FFFFFFFFFFFFFFFFFFFFFFFFFFFF
310
FFFFFFFFFFFFFFFFFFFFFFFFFFFFFFFFFFFFFFFFFFFFFFFFFFFFFFFFFFFFFFFF
310
FFFFFFFFFFFFFFFFFFFFFFFFFFFFFFFFFFFFFFFFFFFFFFFFFFFFFFFFFFFFFFFF
310
FFFFFFFFFFFFFFFFF000FFFFFFFFFFFFFFFFFFFFFFFFFFFFFFFFFFFFFFFFFFFF
310
FFFFFFFFFFFFFFFFFFFFFFFFFFFFFFFFFFFFFFFFFFFFFFFFFFFFFFFFFFFFFFFF
310
FFFFFFFFFFFFFFFFFFFFFFFFFFFFFFFFFFFFFFFFFFFFFFFFFFFFFFFFFFFFFFFF
310
F000FFFFFFFFFFFFFFFFFFFFFFFFFFFFFFFFFFFFFFFFFFFFFFFFFFFFFFFFFFFF
310
FFFFFFFFFFFFFFFFFFFFFFFFFFFFFFFFFFFFFFFFFFFFFFFFFFFFFFFFFFFFFFFF
310
FFFFFFFFFFFFFFFFFFFFFFFFFFFFFFFFFFFFFFFFFFFFFFFFF000FFFFFFFFFFFF
310
FFFFFFFFFFFFFFFFFFFFFFFFFFFFFFFFFFFFFFFFFFFFFFFFFFFFFFFFFFFFFFFF
310
FFFFFFFFFFFFFFFFFFFFFFFFFFFFFFFFFFFFFFFFFFFFFFFFFFFFFFFFFFFFFFFF
310
FFFFFFFFFFFFFFFFFFFFFFFFFFFFFFFFF000FFFFFFFFFFFFFFFFFFFFFFFFFFFF
310
FFFFFFFFFFFFFFFFFFFFFFFFFFFFFFFFFFFFFFFFFFFFFFFFFFFFFFFFFFFFFFFF
310
FFFFFFFFFFFFFFFFFFFFFFFFFFFFFFFFFFFFFFFFFFFFFFFFFFFFFFFFFFFFFFFF
310
FFFFFFFFFFFFFFFFF000FFFFFFFFFFFFFFFFFFFFFFFFFFFFFFFFFFFFFFFFFFFF
310
FFFFFFFFFFFFFFFFFFFFFFFFFFFFFFFFFFFFFFFFFFFFFFFFFFFFFFFFFFFFFFFF
310
FFFFFFFFFFFFFFFFFFFFFFFFFFFFFFFFFFFFFFFFFFFFFFFFFFFFFFFFFFFFFFFF
310
F000FFFFFFFFFFFFFFFFFFFFFFFFFFFFFFFFFFFFFFFFFFFFFFFFFFFFFFFFFFFF
310
FFFFFFFFFFFFFFFFFFFFFFFFFFFFFFFFFFFFFFFFFFFFFFFFFFFFFFFFFFFFFFFF
310
FFFFFFFFFFFFFFFFFFFFFFFFFFFFFFFFFFFFFFFFFFFFFFFFF000FFFFFFFFFFFF
310
FFFFFFFFFFFFFFFFFFFFFFFFFFFFFFFFFFFFFFFFFFFFFFFFFFFFFFFFFFFFFFFF
310
FFFFFFFFFFFFFFFFFFFFFFFFFFFFFFFFFFFFFFFFFFFFFFFFFFFFFFFFFFFFFFFF
310
FFFFFFFFFFFFFFFFFFFFFFFFFFFFFFFFF000FFFFFFFFFFFFFFFFFFFFFFFFFFFF
310
FFFFFFFFFFFFFFFFFFFFFFFFFFFFFFFFFFFFFFFFFFFFFFFFFFFFFFFFFFFFFFFF
310
FFFFFFFFFFFFFFFFFFFFFFFFFFFFFFFFFFFFFFFFFFFFFFFFFFFFFFFFFFFFFFFF
310
FFFFFFFFFFFFFFFFF000FFFFFFFFFFFFFFFFFFFFFFFFFFFFFFFFFFFFFFFFFFFF
310
FFFFFFFFFFFFFFFFFFFFFFFFFFFFFFFFFFFFFFFFFFFFFFFFFFFFFFFFFFFFFFFF
310
FFFFFFFFFFFFFFFFFFFFFFFFFFFFFFFFFFFFFFFFFFFFFFFFFFFFFFFFFFFFFFFF
310
F000FFFFFFFFFFFFFFFFFFFFFFFFFFFFFFFFFFFFFFFFFFFFFFFFFFFFFFFFFFFF
310
FFFFFFFFFFFFFFFFFFFFFFFFFFFFFFFFFFFFFFFFFFFFFFFFFFFFFFFFFFFFFFFF
310
FFFFFFFFFFFFFFFFFFFFFFFFFFFFFFFFFFFFFFFFFFFFFFFFF000FFFFFFFFFFFF
310
FFFFFFFFFFFFFFFFFFFFFFFFFFFFFFFFFFFFFFFFFFFFFFFFFFFFFFFFFFFFFFFF
310
FFFFFFFFFFFFFFFFFFFFFFFFFFFFFFFFFFFFFFFFFFFFFFFFFFFFFFFFFFFFFFFF
310
FFFFFFFFFFFFFFFFFFFFFFFFFFFFFFFFF0000000000000000000000000000000
310
0000000000000000000000000000000000000000000000000000000000000000
310
0000000000000000000000000000000000000000000000000000000000000000
310
0000000000000000000000000000000000000000000000000000000000000000
310
0000000000000000000000000000000000000000000000000000000000000000
310
0000000000000000000000000000000000000000000000000000000000000000
310
0000000000000000000000000000000000000000000000000000000000000000
310
0000000000000000000000000000000000000000000000000000000000000000
310
0000000000000000000000000000000000000000000000000000000000000000
310
0000000000000000000000000000000000000000000000000000000000000000
310
0000000000000000000000000000000000000000000000000000000000000000
310
0000000000000000000000000000000000000000000000000000000000000000
310
0000000000000000000000000000000000000000000000000000000000000000
310
0000000000000000000000000000000000000000000000000000000000000000
310
0000000000000000000000000000000000000000000000000000000000000000
310
0000000000000000000000000000000000000000000000000000000000000000
  1
OLE
  0
ENDSEC
  0
SECTION
  2
OBJECTS
  0
DICTIONARY
  5
C
330
0
100
AcDbDictionary
281
     1
  3
ACAD_GROUP
350
D
  3
ACAD_LAYOUT
350
1A
  3
ACAD_MLINESTYLE
350
17
  3
ACAD_PLOTSETTINGS
350
19
  3
ACAD_PLOTSTYLENAME
350
E
  3
ACAD_SCALELIST
350
47
  0
DICTIONARY
  5
D
102
{ACAD_REACTORS
330
C
102
}
330
C
100
AcDbDictionary
281
     1
  0
DICTIONARY
  5
1A
102
{ACAD_REACTORS
330
C
102
}
330
C
100
AcDbDictionary
281
     1
  3
Layout1
350
1E
  3
Layout2
350
26
  3
Model
350
22
  0
DICTIONARY
  5
17
102
{ACAD_REACTORS
330
C
102
}
330
C
100
AcDbDictionary
281
     1
  3
Standard
350
18
  0
DICTIONARY
  5
19
102
{ACAD_REACTORS
330
C
102
}
330
C
100
AcDbDictionary
281
     1
  0
ACDBDICTIONARYWDFLT
  5
E
102
{ACAD_REACTORS
330
C
102
}
330
C
100
AcDbDictionary
281
     1
  3
Normal
350
F
100
AcDbDictionaryWithDefault
340
F
  0
DICTIONARY
  5
47
102
{ACAD_REACTORS
330
C
102
}
330
C
100
AcDbDictionary
281
     1
  3
A0
350
48
  3
A1
350
49
  3
A2
350
4A
  3
A3
350
4B
  3
A4
350
4C
  3
A5
350
4D
  3
A6
350
4E
  3
A7
350
4F
  3
A8
350
50
  3
A9
350
51
  3
B0
350
52
  3
B1
350
53
  3
B2
350
54
  3
B3
350
55
  3
B4
350
56
  3
B5
350
57
  3
B6
350
58
  3
B7
350
59
  3
B8
350
5A
  3
B9
350
5B
  3
C0
350
5C
  3
C1
350
5D
  3
C2
350
5E
  3
C3
350
5F
  3
C4
350
60
  3
C5
350
61
  3
C6
350
62
  3
C7
350
63
  3
C8
350
64
  3
C9
350
65
  3
D0
350
66
  3
D1
350
67
  3
D2
350
68
  0
LAYOUT
  5
1E
102
{ACAD_REACTORS
330
1A
102
}
330
1A
100
AcDbPlotSettings
  1

  2
none_device
  4

  6

 40
0.0
 41
0.0
 42
0.0
 43
0.0
 44
0.0
 45
0.0
 46
0.0
 47
0.0
 48
0.0
 49
0.0
140
0.0
141
0.0
142
1.0
143
1.0
 70
   688
 72
     1
 73
     0
 74
     5
  7

 75
    16
147
1.0
148
0.0
149
0.0
100
AcDbLayout
  1
Layout1
 70
     1
 71
     1
 10
0.0
 20
0.0
 11
420.0
 21
297.0
 12
0.0
 22
0.0
 32
0.0
 14
1.0000000000E+20
 24
1.0000000000E+20
 34
1.0000000000E+20
 15
-1.0000000000E+20
 25
-1.0000000000E+20
 35
-1.0000000000E+20
146
0.0
 13
0.0
 23
0.0
 33
0.0
 16
1.0
 26
0.0
 36
0.0
 17
0.0
 27
1.0
 37
0.0
 76
     0
330
1B
  0
LAYOUT
  5
26
102
{ACAD_REACTORS
330
1A
102
}
330
1A
100
AcDbPlotSettings
  1

  2
none_device
  4

  6

 40
0.0
 41
0.0
 42
0.0
 43
0.0
 44
0.0
 45
0.0
 46
0.0
 47
0.0
 48
0.0
 49
0.0
140
0.0
141
0.0
142
1.0
143
1.0
 70
   688
 72
     1
 73
     0
 74
     5
  7

 75
    16
147
1.0
148
0.0
149
0.0
100
AcDbLayout
  1
Layout2
 70
     1
 71
     2
 10
0.0
 20
0.0
 11
0.0
 21
0.0
 12
0.0
 22
0.0
 32
0.0
 14
0.0
 24
0.0
 34
0.0
 15
0.0
 25
0.0
 35
0.0
146
0.0
 13
0.0
 23
0.0
 33
0.0
 16
1.0
 26
0.0
 36
0.0
 17
0.0
 27
1.0
 37
0.0
 76
     0
330
23
  0
LAYOUT
  5
22
102
{ACAD_REACTORS
330
1A
102
}
330
1A
100
AcDbPlotSettings
  1

  2
none_device
  4
Letter_(8.50_x_11.00_Inches)
  6

 40
6.35
 41
6.35
 42
6.35000508
 43
6.35000508
 44
215.9
 45
279.4
 46
0.0
 47
0.0
 48
0.0
 49
0.0
140
0.0
141
0.0
142
1.0
143
1.0
 70
  1712
 72
     1
 73
     0
 74
     0
  7

 75
     0
147
1.0
148
0.0
149
0.0
100
AcDbLayout
  1
Model
 70
     1
 71
     0
 10
0.0
 20
0.0
 11
297.0
 21
210.0
 12
0.0
 22
0.0
 32
0.0
 14
0.0
 24
0.0
 34
0.0
 15
297.0
 25
210.0
 35
0.0
146
0.0
 13
0.0
 23
0.0
 33
0.0
 16
1.0
 26
0.0
 36
0.0
 17
0.0
 27
1.0
 37
0.0
 76
     0
330
1F
331
29
  0
MLINESTYLE
  5
18
102
{ACAD_REACTORS
330
17
102
}
330
17
100
AcDbMlineStyle
  2
Standard
 70
     0
  3

 62
   256
 51
90.0
 52
90.0
 71
     2
 49
0.5
 62
   256
  6
BYLAYER
 49
-0.5
 62
   256
  6
BYLAYER
  0
ACDBPLACEHOLDER
  5
F
102
{ACAD_REACTORS
330
E
102
}
330
E
  0
SCALE
  5
48
102
{ACAD_REACTORS
330
47
102
}
330
47
100
AcDbScale
 70
     0
300
1:1
140
1.0
141
1.0
290
     1
  0
SCALE
  5
49
102
{ACAD_REACTORS
330
47
102
}
330
47
100
AcDbScale
 70
     0
300
1:2
140
1.0
141
2.0
290
     0
  0
SCALE
  5
4A
102
{ACAD_REACTORS
330
47
102
}
330
47
100
AcDbScale
 70
     0
300
1:4
140
1.0
141
4.0
290
     0
  0
SCALE
  5
4B
102
{ACAD_REACTORS
330
47
102
}
330
47
100
AcDbScale
 70
     0
300
1:5
140
1.0
141
5.0
290
     0
  0
SCALE
  5
4C
102
{ACAD_REACTORS
330
47
102
}
330
47
100
AcDbScale
 70
     0
300
1:8
140
1.0
141
8.0
290
     0
  0
SCALE
  5
4D
102
{ACAD_REACTORS
330
47
102
}
330
47
100
AcDbScale
 70
     0
300
1:10
140
1.0
141
10.0
290
     0
  0
SCALE
  5
4E
102
{ACAD_REACTORS
330
47
102
}
330
47
100
AcDbScale
 70
     0
300
1:16
140
1.0
141
16.0
290
     0
  0
SCALE
  5
4F
102
{ACAD_REACTORS
330
47
102
}
330
47
100
AcDbScale
 70
     0
300
1:20
140
1.0
141
20.0
290
     0
  0
SCALE
  5
50
102
{ACAD_REACTORS
330
47
102
}
330
47
100
AcDbScale
 70
     0
300
1:30
140
1.0
141
30.0
290
     0
  0
SCALE
  5
51
102
{ACAD_REACTORS
330
47
102
}
330
47
100
AcDbScale
 70
     0
300
1:40
140
1.0
141
40.0
290
     0
  0
SCALE
  5
52
102
{ACAD_REACTORS
330
47
102
}
330
47
100
AcDbScale
 70
     0
300
1:50
140
1.0
141
50.0
290
     0
  0
SCALE
  5
53
102
{ACAD_REACTORS
330
47
102
}
330
47
100
AcDbScale
 70
     0
300
1:100
140
1.0
141
100.0
290
     0
  0
SCALE
  5
54
102
{ACAD_REACTORS
330
47
102
}
330
47
100
AcDbScale
 70
     0
300
2:1
140
2.0
141
1.0
290
     0
  0
SCALE
  5
55
102
{ACAD_REACTORS
330
47
102
}
330
47
100
AcDbScale
 70
     0
300
4:1
140
4.0
141
1.0
290
     0
  0
SCALE
  5
56
102
{ACAD_REACTORS
330
47
102
}
330
47
100
AcDbScale
 70
     0
300
8:1
140
8.0
141
1.0
290
     0
  0
SCALE
  5
57
102
{ACAD_REACTORS
330
47
102
}
330
47
100
AcDbScale
 70
     0
300
10:1
140
10.0
141
1.0
290
     0
  0
SCALE
  5
58
102
{ACAD_REACTORS
330
47
102
}
330
47
100
AcDbScale
 70
     0
300
100:1
140
100.0
141
1.0
290
     0
  0
SCALE
  5
59
102
{ACAD_REACTORS
330
47
102
}
330
47
100
AcDbScale
 70
     0
300
1/128" = 1'-0"
140
0.0078125
141
12.0
290
     0
  0
SCALE
  5
5A
102
{ACAD_REACTORS
330
47
102
}
330
47
100
AcDbScale
 70
     0
300
1/64" = 1'-0"
140
0.015625
141
12.0
290
     0
  0
SCALE
  5
5B
102
{ACAD_REACTORS
330
47
102
}
330
47
100
AcDbScale
 70
     0
300
1/32" = 1'-0"
140
0.03125
141
12.0
290
     0
  0
SCALE
  5
5C
102
{ACAD_REACTORS
330
47
102
}
330
47
100
AcDbScale
 70
     0
300
1/16" = 1'-0"
140
0.0625
141
12.0
290
     0
  0
SCALE
  5
5D
102
{ACAD_REACTORS
330
47
102
}
330
47
100
AcDbScale
 70
     0
300
3/32" = 1'-0"
140
0.09375
141
12.0
290
     0
  0
SCALE
  5
5E
102
{ACAD_REACTORS
330
47
102
}
330
47
100
AcDbScale
 70
     0
300
1/8" = 1'-0"
140
0.125
141
12.0
290
     0
  0
SCALE
  5
5F
102
{ACAD_REACTORS
330
47
102
}
330
47
100
AcDbScale
 70
     0
300
3/16" = 1'-0"
140
0.1875
141
12.0
290
     0
  0
SCALE
  5
60
102
{ACAD_REACTORS
330
47
102
}
330
47
100
AcDbScale
 70
     0
300
1/4" = 1'-0"
140
0.25
141
12.0
290
     0
  0
SCALE
  5
61
102
{ACAD_REACTORS
330
47
102
}
330
47
100
AcDbScale
 70
     0
300
3/8" = 1'-0"
140
0.375
141
12.0
290
     0
  0
SCALE
  5
62
102
{ACAD_REACTORS
330
47
102
}
330
47
100
AcDbScale
 70
     0
300
1/2" = 1'-0"
140
0.5
141
12.0
290
     0
  0
SCALE
  5
63
102
{ACAD_REACTORS
330
47
102
}
330
47
100
AcDbScale
 70
     0
300
3/4" = 1'-0"
140
0.75
141
12.0
290
     0
  0
SCALE
  5
64
102
{ACAD_REACTORS
330
47
102
}
330
47
100
AcDbScale
 70
     0
300
1" = 1'-0"
140
1.0
141
12.0
290
     0
  0
SCALE
  5
65
102
{ACAD_REACTORS
330
47
102
}
330
47
100
AcDbScale
 70
     0
300
1-1/2" = 1'-0"
140
1.5
141
12.0
290
     0
  0
SCALE
  5
66
102
{ACAD_REACTORS
330
47
102
}
330
47
100
AcDbScale
 70
     0
300
3" = 1'-0"
140
3.0
141
12.0
290
     0
  0
SCALE
  5
67
102
{ACAD_REACTORS
330
47
102
}
330
47
100
AcDbScale
 70
     0
300
6" = 1'-0"
140
6.0
141
12.0
290
     0
  0
SCALE
  5
68
102
{ACAD_REACTORS
330
47
102
}
330
47
100
AcDbScale
 70
     0
300
1'-0" = 1'-0"
140
12.0
141
12.0
290
     0
  0
ENDSEC
  0
EOF
