  0
SECTION
  2
HEADER
  9
$ACADVER
  1
AC1015
  9
$ACADMAINTVER
 70
     6
  9
$DWGCODEPAGE
  3
ANSI_1252
  9
$INSBASE
 10
0.0
 20
0.0
 30
0.0
  9
$EXTMIN
 10
0.0
 20
0.0
 30
0.0
  9
$EXTMAX
 10
297.0
 20
210.0
 30
0.0
  9
$LIMMIN
 10
0.0
 20
0.0
  9
$LIMMAX
 10
297.0
 20
210.0
  9
$ORTHOMODE
 70
     0
  9
$REGENMODE
 70
     1
  9
$FILLMODE
 70
     1
  9
$QTEXTMODE
 70
     0
  9
$MIRRTEXT
 70
     1
  9
$LTSCALE
 40
1.0
  9
$ATTMODE
 70
     1
  9
$TEXTSIZE
 40
2.0
  9
$TRACEWID
 40
1.0
  9
$TEXTSTYLE
  7
Standard
  9
$CLAYER
  8
0
  9
$CELTYPE
  6
ByLayer
  9
$CECOLOR
 62
   256
  9
$CELTSCALE
 40
1.0
  9
$DISPSILH
 70
     0
  9
$DIMSCALE
 40
1.0
  9
$DIMASZ
 40
3.0
  9
$DIMEXO
 40
0.0
  9
$DIMDLI
 40
3.75
  9
$DIMRND
 40
0.0
  9
$DIMDLE
 40
0.0
  9
$DIMEXE
 40
1.0
  9
$DIMTP
 40
0.0
  9
$DIMTM
 40
0.0
  9
$DIMTXT
 40
2.0
  9
$DIMCEN
 40
2.5
  9
$DIMTSZ
 40
0.0
  9
$DIMTOL
 70
     0
  9
$DIMLIM
 70
     0
  9
$DIMTIH
 70
     1
  9
$DIMTOH
 70
     1
  9
$DIMSE1
 70
     0
  9
$DIMSE2
 70
     0
  9
$DIMTAD
 70
     1
  9
$DIMZIN
 70
     0
  9
$DIMBLK
  1

  9
$DIMASO
 70
     1
  9
$DIMSHO
 70
     1
  9
$DIMPOST
  1

  9
$DIMAPOST
  1

  9
$DIMALT
 70
     0
  9
$DIMALTD
 70
     3
  9
$DIMALTF
 40
0.0393700787
  9
$DIMLFAC
 40
1.0
  9
$DIMTOFL
 70
     1
  9
$DIMTVP
 40
0.0
  9
$DIMTIX
 70
     0
  9
$DIMSOXD
 70
     0
  9
$DIMSAH
 70
     0
  9
$DIMBLK1
  1

  9
$DIMBLK2
  1

  9
$DIMSTYLE
  2
ISO-25
  9
$DIMCLRD
 70
     0
  9
$DIMCLRE
 70
     0
  9
$DIMCLRT
 70
     0
  9
$DIMTFAC
 40
1.0
  9
$DIMGAP
 40
1.524
  9
$DIMJUST
 70
     0
  9
$DIMSD1
 70
     0
  9
$DIMSD2
 70
     0
  9
$DIMTOLJ
 70
     0
  9
$DIMTZIN
 70
     0
  9
$DIMALTZ
 70
     0
  9
$DIMALTTZ
 70
     0
  9
$DIMUPT
 70
     0
  9
$DIMDEC
 70
     2
  9
$DIMTDEC
 70
     3
  9
$DIMALTU
 70
     2
  9
$DIMALTTD
 70
     3
  9
$DIMTXSTY
  7
Standard
  9
$DIMAUNIT
 70
     0
  9
$DIMADEC
 70
     2
  9
$DIMALTRND
 40
0.0
  9
$DIMAZIN
 70
     0
  9
$DIMDSEP
 70
    44
  9
$DIMATFIT
 70
     3
  9
$DIMFRAC
 70
     0
  9
$DIMLDRBLK
  1

  9
$DIMLUNIT
 70
     2
  9
$DIMLWD
 70
    -2
  9
$DIMLWE
 70
    -2
  9
$DIMTMOVE
 70
     0
  9
$LUNITS
 70
     2
  9
$LUPREC
 70
     2
  9
$SKETCHINC
 40
1.0
  9
$FILLETRAD
 40
10.0
  9
$AUNITS
 70
     0
  9
$AUPREC
 70
     2
  9
$MENU
  1
.
  9
$ELEVATION
 40
0.0
  9
$PELEVATION
 40
0.0
  9
$THICKNESS
 40
0.0
  9
$LIMCHECK
 70
     0
  9
$CHAMFERA
 40
0.0
  9
$CHAMFERB
 40
0.0
  9
$CHAMFERC
 40
0.0
  9
$CHAMFERD
 40
0.0
  9
$SKPOLY
 70
     0
  9
$TDCREATE
 40
2457662.61888463
  9
$TDUCREATE
 40
2457662.535551296
  9
$TDUPDATE
 40
2457662.618885729
  9
$TDUUPDATE
 40
2457662.535552396
  9
$TDINDWG
 40
0.0000000116
  9
$TDUSRTIMER
 40
0.0000000116
  9
$USRTIMER
 70
     1
  9
$ANGBASE
 50
0.0
  9
$ANGDIR
 70
     0
  9
$PDMODE
 70
     0
  9
$PDSIZE
 40
-1.0
  9
$PLINEWID
 40
0.0
  9
$SPLFRAME
 70
     0
  9
$SPLINETYPE
 70
     6
  9
$SPLINESEGS
 70
     8
  9
$HANDSEED
  5
1FF
  9
$SURFTAB1
 70
     6
  9
$SURFTAB2
 70
     6
  9
$SURFTYPE
 70
     6
  9
$SURFU
 70
     6
  9
$SURFV
 70
     6
  9
$UCSBASE
  2

  9
$UCSNAME
  2

  9
$UCSORG
 10
0.0
 20
0.0
 30
0.0
  9
$UCSXDIR
 10
1.0
 20
0.0
 30
0.0
  9
$UCSYDIR
 10
0.0
 20
1.0
 30
0.0
  9
$UCSORTHOREF
  2

  9
$UCSORTHOVIEW
 70
     0
  9
$UCSORGTOP
 10
0.0
 20
0.0
 30
0.0
  9
$UCSORGBOTTOM
 10
0.0
 20
0.0
 30
0.0
  9
$UCSORGLEFT
 10
0.0
 20
0.0
 30
0.0
  9
$UCSORGRIGHT
 10
0.0
 20
0.0
 30
0.0
  9
$UCSORGFRONT
 10
0.0
 20
0.0
 30
0.0
  9
$UCSORGBACK
 10
0.0
 20
0.0
 30
0.0
  9
$PUCSBASE
  2

  9
$PUCSNAME
  2

  9
$PUCSORG
 10
0.0
 20
0.0
 30
0.0
  9
$PUCSXDIR
 10
1.0
 20
0.0
 30
0.0
  9
$PUCSYDIR
 10
0.0
 20
1.0
 30
0.0
  9
$PUCSORTHOREF
  2

  9
$PUCSORTHOVIEW
 70
     0
  9
$PUCSORGTOP
 10
0.0
 20
0.0
 30
0.0
  9
$PUCSORGBOTTOM
 10
0.0
 20
0.0
 30
0.0
  9
$PUCSORGLEFT
 10
0.0
 20
0.0
 30
0.0
  9
$PUCSORGRIGHT
 10
0.0
 20
0.0
 30
0.0
  9
$PUCSORGFRONT
 10
0.0
 20
0.0
 30
0.0
  9
$PUCSORGBACK
 10
0.0
 20
0.0
 30
0.0
  9
$USERI1
 70
     0
  9
$USERI2
 70
     0
  9
$USERI3
 70
     0
  9
$USERI4
 70
     0
  9
$USERI5
 70
     0
  9
$USERR1
 40
0.0
  9
$USERR2
 40
0.0
  9
$USERR3
 40
0.0
  9
$USERR4
 40
0.0
  9
$USERR5
 40
0.0
  9
$WORLDVIEW
 70
     1
  9
$SHADEDGE
 70
     3
  9
$SHADEDIF
 70
    70
  9
$TILEMODE
 70
     1
  9
$MAXACTVP
 70
    64
  9
$PINSBASE
 10
0.0
 20
0.0
 30
0.0
  9
$PLIMCHECK
 70
     0
  9
$PEXTMIN
 10
1.0000000000E+20
 20
1.0000000000E+20
 30
1.0000000000E+20
  9
$PEXTMAX
 10
-1.0000000000E+20
 20
-1.0000000000E+20
 30
-1.0000000000E+20
  9
$PLIMMIN
 10
0.0
 20
0.0
  9
$PLIMMAX
 10
420.0
 20
297.0
  9
$UNITMODE
 70
     0
  9
$VISRETAIN
 70
     1
  9
$PLINEGEN
 70
     0
  9
$PSLTSCALE
 70
     1
  9
$TREEDEPTH
 70
  3020
  9
$CMLSTYLE
  2
Standard
  9
$CMLJUST
 70
     0
  9
$CMLSCALE
 40
20.0
  9
$PROXYGRAPHICS
 70
     1
  9
$MEASUREMENT
 70
     1
  9
$CELWEIGHT
370
    -1
  9
$ENDCAPS
280
     0
  9
$JOINSTYLE
280
     0
  9
$LWDISPLAY
290
     1
  9
$INSUNITS
 70
     4
  9
$HYPERLINKBASE
  1

  9
$STYLESHEET
  1

  9
$XEDIT
290
     1
  9
$CEPSNTYPE
380
     0
  9
$PSTYLEMODE
290
     1
  9
$FINGERPRINTGUID
  2
{2FFE9735-960D-472A-901F-D8D81720186F}
  9
$VERSIONGUID
  2
{FAEB1C32-E019-11D5-929B-00C0DF256EC4}
  9
$EXTNAMES
290
     1
  9
$PSVPSCALE
 40
0.0
  9
$OLESTARTUP
290
     0
  0
ENDSEC
  0
SECTION
  2
CLASSES
  0
CLASS
  1
ACDBDICTIONARYWDFLT
  2
AcDbDictionaryWithDefault
  3
ObjectDBX Classes
 90
        0
280
     0
281
     0
  0
CLASS
  1
VISUALSTYLE
  2
AcDbVisualStyle
  3
ObjectDBX Classes
 90
     4095
280
     0
281
     0
  0
CLASS
  1
MATERIAL
  2
AcDbMaterial
  3
ObjectDBX Classes
 90
     1153
280
     0
281
     0
  0
CLASS
  1
SCALE
  2
AcDbScale
  3
ObjectDBX Classes
 90
     1153
280
     0
281
     0
  0
CLASS
  1
TABLESTYLE
  2
AcDbTableStyle
  3
ObjectDBX Classes
 90
     4095
280
     0
281
     0
  0
CLASS
  1
MLEADERSTYLE
  2
AcDbMLeaderStyle
  3
ACDB_MLEADERSTYLE_CLASS
 90
     4095
280
     0
281
     0
  0
CLASS
  1
SUN
  2
AcDbSun
  3
SCENEOE
 90
     1153
280
     0
281
     0
  0
CLASS
  1
ACDBPLACEHOLDER
  2
AcDbPlaceHolder
  3
ObjectDBX Classes
 90
        0
280
     0
281
     0
  0
CLASS
  1
LAYOUT
  2
AcDbLayout
  3
ObjectDBX Classes
 90
        0
280
     0
281
     0
  0
ENDSEC
  0
SECTION
  2
TABLES
  0
TABLE
  2
VPORT
  5
8
330
0
100
AcDbSymbolTable
 70
     1
  0
VPORT
  5
29
330
8
100
AcDbSymbolTableRecord
100
AcDbViewportTableRecord
  2
*Active
 70
     0
 10
0.0
 20
0.0
 11
1.0
 21
1.0
 12
148.5
 22
105.0
 13
0.0
 23
0.0
 14
10.0
 24
10.0
 15
10.0
 25
10.0
 16
0.0
 26
0.0
 36
1.0
 17
0.0
 27
0.0
 37
0.0
 40
210.0
 41
1.4142857143
 42
50.0
 43
0.0
 44
0.0
 50
0.0
 51
0.0
 71
     0
 72
  2000
 73
     1
 74
     3
 75
     0
 76
     0
 77
     0
 78
     0
281
     0
 65
     1
110
0.0
120
0.0
130
0.0
111
1.0
121
0.0
131
0.0
112
0.0
122
1.0
132
0.0
 79
     0
146
0.0
  0
ENDTAB
  0
TABLE
  2
LTYPE
  5
5
330
0
100
AcDbSymbolTable
 70
     6
  0
LTYPE
  5
14
330
5
100
AcDbSymbolTableRecord
100
AcDbLinetypeTableRecord
  2
ByBlock
 70
     0
  3

 72
    65
 73
     0
 40
0.0
  0
LTYPE
  5
15
330
5
100
AcDbSymbolTableRecord
100
AcDbLinetypeTableRecord
  2
ByLayer
 70
     0
  3

 72
    65
 73
     0
 40
0.0
  0
LTYPE
  5
16
330
5
100
AcDbSymbolTableRecord
100
AcDbLinetypeTableRecord
  2
Continuous
 70
     0
  3
Solid line
 72
    65
 73
     0
 40
0.0
  0
LTYPE
  5
6E
330
5
100
AcDbSymbolTableRecord
100
AcDbLinetypeTableRecord
  2
HIDDEN
 70
     0
  3
Hidden __ __ __ __ __ __ __ __ __ __ __ __ __ __
 72
    65
 73
     2
 40
1.905
 49
1.27
 74
     0
 49
-0.635
 74
     0
  0
LTYPE
  5
6F
330
5
100
AcDbSymbolTableRecord
100
AcDbLinetypeTableRecord
  2
PHANTOM
 70
     0
  3
Phantom ______  __  __  ______  __  __  ______
 72
    65
 73
     6
 40
12.7
 49
6.35
 74
     0
 49
-1.27
 74
     0
 49
1.27
 74
     0
 49
-1.27
 74
     0
 49
1.27
 74
     0
 49
-1.27
 74
     0
  0
LTYPE
  5
70
330
5
100
AcDbSymbolTableRecord
100
AcDbLinetypeTableRecord
  2
CENTER
 70
     0
  3
Center ____ _ ____ _ ____ _ ____ _ ____ _ ____
 72
    65
 73
     4
 40
10.16
 49
6.35
 74
     0
 49
-1.27
 74
     0
 49
1.27
 74
     0
 49
-1.27
 74
     0
  0
LTYPE
  5
71
330
5
100
AcDbSymbolTableRecord
100
AcDbLinetypeTableRecord
  2
CENTERX2
 70
     0
  3
Center (2x) ________  __  ________  __  _____
 72
    65
 73
     4
 40
20.32
 49
12.7
 74
     0
 49
-2.54
 74
     0
 49
2.54
 74
     0
 49
-2.54
 74
     0
  0
LTYPE
  5
72
330
5
100
AcDbSymbolTableRecord
100
AcDbLinetypeTableRecord
  2
DOT2
 70
     0
  3
Dot (.5x) ........................................
 72
    65
 73
     2
 40
0.635
 49
0.0
 74
     0
 49
-0.635
 74
     0
  0
ENDTAB
  0
TABLE
  2
LAYER
  5
2
330
0
100
AcDbSymbolTable
 70
     5
  0
LAYER
  5
10
330
2
100
AcDbSymbolTableRecord
100
AcDbLayerTableRecord
  2
0
 70
     0
 62
     7
  6
Continuous
370
    -3
390
F
  0
LAYER
  5
73
330
2
100
AcDbSymbolTableRecord
100
AcDbLayerTableRecord
  2
FORMAT
 70
     0
 62
     7
  6
Continuous
370
    -3
390
F
  0
LAYER
  5
74
330
2
100
AcDbSymbolTableRecord
100
AcDbLayerTableRecord
  2
VERMASSUNG
 70
     0
 62
     7
  6
Continuous
370
    -3
390
F
  0
LAYER
  5
75
330
2
100
AcDbSymbolTableRecord
100
AcDbLayerTableRecord
  2
KOPF_DÜNN
 70
     0
 62
     7
  6
Continuous
370
    -3
390
F
  0
LAYER
  5
76
330
2
100
AcDbSymbolTableRecord
100
AcDbLayerTableRecord
  2
KOPF_DICK
 70
     0
 62
     7
  6
Continuous
370
    15
390
F
  0
ENDTAB
  0
TABLE
  2
STYLE
  5
3
330
0
100
AcDbSymbolTable
 70
     2
  0
STYLE
  5
11
330
3
100
AcDbSymbolTableRecord
100
AcDbTextStyleTableRecord
  2
Standard
 70
     0
 40
0.0
 41
1.0
 50
0.0
 71
     0
 42
2.0
  3
txt
  4

  0
STYLE
  5
77
330
3
100
AcDbSymbolTableRecord
100
AcDbTextStyleTableRecord
  2
SLDTEXTSTYLE0
 70
     0
 40
0.0
 41
0.7
 50
0.0
 71
     0
 42
2.0
  3
TXT
  4

  0
ENDTAB
  0
TABLE
  2
VIEW
  5
6
330
0
100
AcDbSymbolTable
 70
     0
  0
ENDTAB
  0
TABLE
  2
UCS
  5
7
330
0
100
AcDbSymbolTable
 70
     0
  0
ENDTAB
  0
TABLE
  2
APPID
  5
9
330
0
100
AcDbSymbolTable
 70
     1
  0
APPID
  5
12
330
9
100
AcDbSymbolTableRecord
100
AcDbRegAppTableRecord
  2
ACAD
 70
     0
  0
ENDTAB
  0
TABLE
  2
DIMSTYLE
  5
A
330
0
100
AcDbSymbolTable
 70
     2
100
AcDbDimStyleTable
  0
DIMSTYLE
105
27
330
A
100
AcDbSymbolTableRecord
100
AcDbDimStyleTableRecord
  2
ISO-25
 70
     0
 41
2.5
 42
0.625
 43
3.75
 44
1.25
 73
     0
 74
     0
 77
     1
 78
     8
140
2.5
141
2.5
143
0.0393700787
147
0.625
171
     3
172
     1
178
     0
271
     2
272
     2
274
     3
278
    44
283
     0
284
     8
340
11
  0
DIMSTYLE
105
10D
102
{ACAD_REACTORS
330
10C
330
119
330
124
330
130
330
13A
330
146
102
}
330
A
100
AcDbSymbolTableRecord
100
AcDbDimStyleTableRecord
  2
SLDDIMSTYLE0
 70
     0
 41
3.0
 44
0.0
 45
0.000000001
 73
     0
 74
     0
 77
     1
 78
    12
 79
     3
140
2.0
147
0.5
173
     1
178
     0
271
     2
272
     3
276
     2
284
    12
340
77
  0
ENDTAB
  0
TABLE
  2
BLOCK_RECORD
  5
1
330
0
100
AcDbSymbolTable
 70
     7
  0
BLOCK_RECORD
  5
1F
330
1
100
AcDbSymbolTableRecord
100
AcDbBlockTableRecord
  2
*Model_Space
340
22
  0
BLOCK_RECORD
  5
1B
330
1
100
AcDbSymbolTableRecord
100
AcDbBlockTableRecord
  2
*Paper_Space
340
1E
  0
BLOCK_RECORD
  5
23
330
1
100
AcDbSymbolTableRecord
100
AcDbBlockTableRecord
  2
*Paper_Space0
340
26
  0
BLOCK_RECORD
  5
10E
330
1
100
AcDbSymbolTableRecord
100
AcDbBlockTableRecord
  2
_D
340
0
  0
BLOCK_RECORD
  5
11A
330
1
100
AcDbSymbolTableRecord
100
AcDbBlockTableRecord
  2
_D_1
340
0
  0
BLOCK_RECORD
  5
125
330
1
100
AcDbSymbolTableRecord
100
AcDbBlockTableRecord
  2
_D_2
340
0
  0
BLOCK_RECORD
  5
131
330
1
100
AcDbSymbolTableRecord
100
AcDbBlockTableRecord
  2
_D_3
340
0
  0
BLOCK_RECORD
  5
13B
330
1
100
AcDbSymbolTableRecord
100
AcDbBlockTableRecord
  2
_D_4
340
0
  0
BLOCK_RECORD
  5
147
330
1
100
AcDbSymbolTableRecord
100
AcDbBlockTableRecord
  2
_D_5
340
0
  0
ENDTAB
  0
ENDSEC
  0
SECTION
  2
BLOCKS
  0
BLOCK
  5
20
330
1F
100
AcDbEntity
  8
0
100
AcDbBlockBegin
  2
*Model_Space
 70
     0
 10
0.0
 20
0.0
 30
0.0
  3
*Model_Space
  1

  0
ENDBLK
  5
21
330
1F
100
AcDbEntity
  8
0
100
AcDbBlockEnd
  0
BLOCK
  5
1C
330
1B
100
AcDbEntity
 67
     1
  8
0
100
AcDbBlockBegin
  2
*Paper_Space
 70
     0
 10
0.0
 20
0.0
 30
0.0
  3
*Paper_Space
  1

  0
ENDBLK
  5
1D
330
1B
100
AcDbEntity
 67
     1
  8
0
100
AcDbBlockEnd
  0
BLOCK
  5
24
330
23
100
AcDbEntity
  8
0
100
AcDbBlockBegin
  2
*Paper_Space0
 70
     0
 10
0.0
 20
0.0
 30
0.0
  3
*Paper_Space0
  1

  0
ENDBLK
  5
25
330
23
100
AcDbEntity
  8
0
100
AcDbBlockEnd
  0
BLOCK
  5
10F
330
10E
100
AcDbEntity
  8
0
100
AcDbBlockBegin
  2
_D
 70
     0
 10
0.0
 20
0.0
 30
0.0
  3
_D
  1

  0
SOLID
  5
111
330
10E
100
AcDbEntity
  8
VERMASSUNG
100
AcDbTrace
 10
61.3115565548
 20
58.83558551
 30
0.0
 11
61.7615565548
 21
61.83558551
 31
0.0
 12
60.8615565548
 22
61.83558551
 32
0.0
 13
60.8615565548
 23
61.83558551
 33
0.0
  0
SOLID
  5
112
330
10E
100
AcDbEntity
  8
VERMASSUNG
100
AcDbTrace
 10
61.3115565548
 20
157.26058551
 30
0.0
 11
60.8615565548
 21
154.26058551
 31
0.0
 12
61.7615565548
 22
154.26058551
 32
0.0
 13
61.7615565548
 23
154.26058551
 33
0.0
  0
LINE
  5
113
330
10E
100
AcDbEntity
  8
VERMASSUNG
100
AcDbLine
 10
188.3224100329
 20
58.83558551
 30
0.0
 11
60.3115565548
 21
58.83558551
 31
0.0
  0
LINE
  5
114
330
10E
100
AcDbEntity
  8
VERMASSUNG
100
AcDbLine
 10
188.3224100329
 20
157.26058551
 30
0.0
 11
60.3115565548
 21
157.26058551
 31
0.0
  0
LINE
  5
115
330
10E
100
AcDbEntity
  8
VERMASSUNG
100
AcDbLine
 10
61.3115565548
 20
58.83558551
 30
0.0
 11
61.3115565548
 21
157.26058551
 31
0.0
  0
MTEXT
  5
116
330
10E
100
AcDbEntity
  8
VERMASSUNG
100
AcDbMText
 10
58.5334212986
 20
98.0439969415
 30
0.0
 40
2.0
 41
0.0
 71
     1
 72
     1
  1
CAT 50
  7
SLDTEXTSTYLE0
 11
3.391901413832837E-15
 21
1.0
 31
0.0
 73
     1
 44
1.0
  0
MTEXT
  5
117
330
10E
100
AcDbEntity
  8
VERMASSUNG
100
AcDbMText
 10
58.7334212499
 20
108.043996718
 30
0.0
 40
2.0
 41
0.0
 71
     1
 72
     1
  1
%%c
  7
SLDTEXTSTYLE0
 11
3.391901413832837E-15
 21
1.0
 31
0.0
 73
     1
 44
1.0
  0
MTEXT
  5
118
330
10E
100
AcDbEntity
  8
VERMASSUNG
100
AcDbMText
 10
58.7334209589
 20
111.6526457571
 30
0.0
 40
2.0
 41
0.0
 71
     1
 72
     1
  1
98.43
  7
SLDTEXTSTYLE0
 11
3.391901413832837E-15
 21
1.0
 31
0.0
 73
     1
 44
1.0
  0
ENDBLK
  5
110
330
10E
100
AcDbEntity
  8
0
100
AcDbBlockEnd
  0
BLOCK
  5
11B
330
11A
100
AcDbEntity
  8
0
100
AcDbBlockBegin
  2
_D_1
 70
     0
 10
0.0
 20
0.0
 30
0.0
  3
_D_1
  1

  0
SOLID
  5
11D
330
11A
100
AcDbEntity
  8
VERMASSUNG
100
AcDbTrace
 10
237.4450202742
 20
113.54808551
 30
0.0
 11
236.9950202742
 21
110.54808551
 31
0.0
 12
237.8950202742
 22
110.54808551
 32
0.0
 13
237.8950202742
 23
110.54808551
 33
0.0
  0
SOLID
  5
11E
330
11A
100
AcDbEntity
  8
VERMASSUNG
100
AcDbTrace
 10
237.4450202742
 20
102.54808551
 30
0.0
 11
237.8950202742
 21
105.54808551
 31
0.0
 12
236.9950202742
 22
105.54808551
 32
0.0
 13
236.9950202742
 23
105.54808551
 33
0.0
  0
LINE
  5
11F
330
11A
100
AcDbEntity
  8
VERMASSUNG
100
AcDbLine
 10
224.9724100329
 20
113.54808551
 30
0.0
 11
238.4450202742
 21
113.54808551
 31
0.0
  0
LINE
  5
120
330
11A
100
AcDbEntity
  8
VERMASSUNG
100
AcDbLine
 10
224.9724100329
 20
102.54808551
 30
0.0
 11
238.4450202742
 21
102.54808551
 31
0.0
  0
LINE
  5
121
330
11A
100
AcDbEntity
  8
VERMASSUNG
100
AcDbLine
 10
237.4450202742
 20
113.54808551
 30
0.0
 11
237.4450202742
 21
102.54808551
 31
0.0
  0
MTEXT
  5
122
330
11A
100
AcDbEntity
  8
VERMASSUNG
100
AcDbMText
 10
234.8668847365
 20
105.2442935429
 30
0.0
 40
2.0
 41
0.0
 71
     1
 72
     1
  1
%%c
  7
SLDTEXTSTYLE0
 11
-7.044195017643634E-15
 21
1.0
 31
0.0
 73
     1
 44
1.0
  0
MTEXT
  5
123
330
11A
100
AcDbEntity
  8
VERMASSUNG
100
AcDbMText
 10
234.8668846783
 20
108.8532657365
 30
0.0
 40
2.0
 41
0.0
 71
     1
 72
     1
  1
11
  7
SLDTEXTSTYLE0
 11
-7.044195017643634E-15
 21
1.0
 31
0.0
 73
     1
 44
1.0
  0
ENDBLK
  5
11C
330
11A
100
AcDbEntity
  8
0
100
AcDbBlockEnd
  0
BLOCK
  5
126
330
125
100
AcDbEntity
  8
0
100
AcDbBlockBegin
  2
_D_2
 70
     0
 10
0.0
 20
0.0
 30
0.0
  3
_D_2
  1

  0
ARC
  5
128
330
125
100
AcDbEntity
  8
VERMASSUNG
100
AcDbCircle
 10
148.8838441214
 20
172.1338346013
 30
0.0
 40
4.247059938537323
100
AcDbArc
 50
153.4349488229
 51
206.5650511771
  0
ARC
  5
129
330
125
100
AcDbEntity
  8
VERMASSUNG
100
AcDbCircle
 10
150.2609759443
 20
172.1338346013
 30
0.0
 40
4.247059938537323
100
AcDbArc
 50
333.4349488229
 51
26.5650511771
  0
SOLID
  5
12A
330
125
100
AcDbEntity
  8
VERMASSUNG
100
AcDbTrace
 10
68.2724100329
 20
170.2344916559
 30
0.0
 11
71.2724100329
 21
169.7844916559
 31
0.0
 12
71.2724100329
 22
170.6844916559
 32
0.0
 13
71.2724100329
 23
170.6844916559
 33
0.0
  0
SOLID
  5
12B
330
125
100
AcDbEntity
  8
VERMASSUNG
100
AcDbTrace
 10
230.8724100329
 20
170.2344916559
 30
0.0
 11
227.8724100329
 21
170.6844916559
 31
0.0
 12
227.8724100329
 22
169.7844916559
 32
0.0
 13
227.8724100329
 23
169.7844916559
 33
0.0
  0
LINE
  5
12C
330
125
100
AcDbEntity
  8
VERMASSUNG
100
AcDbLine
 10
68.2724100329
 20
126.4269300374
 30
0.0
 11
68.2724100329
 21
171.2344916559
 31
0.0
  0
LINE
  5
12D
330
125
100
AcDbEntity
  8
VERMASSUNG
100
AcDbLine
 10
230.8724100329
 20
117.84808551
 30
0.0
 11
230.8724100329
 21
171.2344916559
 31
0.0
  0
LINE
  5
12E
330
125
100
AcDbEntity
  8
VERMASSUNG
100
AcDbLine
 10
68.2724100329
 20
170.2344916559
 30
0.0
 11
230.8724100329
 21
170.2344916559
 31
0.0
  0
MTEXT
  5
12F
330
125
100
AcDbEntity
  8
VERMASSUNG
100
AcDbMText
 10
146.6726582306
 20
172.8126272518
 30
0.0
 40
2.0
 41
0.0
 71
     1
 72
     1
  1
162.6
  7
SLDTEXTSTYLE0
 73
     1
 44
1.0
  0
ENDBLK
  5
127
330
125
100
AcDbEntity
  8
0
100
AcDbBlockEnd
  0
BLOCK
  5
132
330
131
100
AcDbEntity
  8
0
100
AcDbBlockBegin
  2
_D_3
 70
     0
 10
0.0
 20
0.0
 30
0.0
  3
_D_3
  1

  0
SOLID
  5
134
330
131
100
AcDbEntity
  8
VERMASSUNG
100
AcDbTrace
 10
169.8724100329
 20
164.2344916559
 30
0.0
 11
172.8724100329
 21
163.7844916559
 31
0.0
 12
172.8724100329
 22
164.6844916559
 32
0.0
 13
172.8724100329
 23
164.6844916559
 33
0.0
  0
SOLID
  5
135
330
131
100
AcDbEntity
  8
VERMASSUNG
100
AcDbTrace
 10
230.8724100329
 20
164.2344916559
 30
0.0
 11
227.8724100329
 21
164.6844916559
 31
0.0
 12
227.8724100329
 22
163.7844916559
 32
0.0
 13
227.8724100329
 23
163.7844916559
 33
0.0
  0
LINE
  5
136
330
131
100
AcDbEntity
  8
VERMASSUNG
100
AcDbLine
 10
169.8724100329
 20
142.97308551
 30
0.0
 11
169.8724100329
 21
165.2344916559
 31
0.0
  0
LINE
  5
137
330
131
100
AcDbEntity
  8
VERMASSUNG
100
AcDbLine
 10
230.8724100329
 20
117.84808551
 30
0.0
 11
230.8724100329
 21
165.2344916559
 31
0.0
  0
LINE
  5
138
330
131
100
AcDbEntity
  8
VERMASSUNG
100
AcDbLine
 10
169.8724100329
 20
164.2344916559
 30
0.0
 11
230.8724100329
 21
164.2344916559
 31
0.0
  0
MTEXT
  5
139
330
131
100
AcDbEntity
  8
VERMASSUNG
100
AcDbMText
 10
199.1734635859
 20
166.8126272518
 30
0.0
 40
2.0
 41
0.0
 71
     1
 72
     1
  1
61
  7
SLDTEXTSTYLE0
 73
     1
 44
1.0
  0
ENDBLK
  5
133
330
131
100
AcDbEntity
  8
0
100
AcDbBlockEnd
  0
BLOCK
  5
13C
330
13B
100
AcDbEntity
  8
0
100
AcDbBlockBegin
  2
_D_4
 70
     0
 10
0.0
 20
0.0
 30
0.0
  3
_D_4
  1

  0
SOLID
  5
13E
330
13B
100
AcDbEntity
  8
VERMASSUNG
100
AcDbTrace
 10
243.4450202742
 20
118.04808551
 30
0.0
 11
242.9950202742
 21
115.04808551
 31
0.0
 12
243.8950202742
 22
115.04808551
 32
0.0
 13
243.8950202742
 23
115.04808551
 33
0.0
  0
SOLID
  5
13F
330
13B
100
AcDbEntity
  8
VERMASSUNG
100
AcDbTrace
 10
243.4450202742
 20
98.04808551
 30
0.0
 11
243.8950202742
 21
101.04808551
 31
0.0
 12
242.9950202742
 22
101.04808551
 32
0.0
 13
242.9950202742
 23
101.04808551
 33
0.0
  0
LINE
  5
140
330
13B
100
AcDbEntity
  8
VERMASSUNG
100
AcDbLine
 10
230.6724100329
 20
118.04808551
 30
0.0
 11
244.4450202742
 21
118.04808551
 31
0.0
  0
LINE
  5
141
330
13B
100
AcDbEntity
  8
VERMASSUNG
100
AcDbLine
 10
230.6724100329
 20
98.04808551
 30
0.0
 11
244.4450202742
 21
98.04808551
 31
0.0
  0
LINE
  5
142
330
13B
100
AcDbEntity
  8
VERMASSUNG
100
AcDbLine
 10
243.4450202742
 20
118.04808551
 30
0.0
 11
243.4450202742
 21
98.04808551
 31
0.0
  0
MTEXT
  5
143
330
13B
100
AcDbEntity
  8
VERMASSUNG
100
AcDbMText
 10
240.666885018
 20
102.1430859484
 30
0.0
 40
2.0
 41
0.0
 71
     1
 72
     1
  1
ST1
  7
SLDTEXTSTYLE0
 11
-7.044195017643634E-15
 21
1.0
 31
0.0
 73
     1
 44
1.0
  0
MTEXT
  5
144
330
13B
100
AcDbEntity
  8
VERMASSUNG
100
AcDbMText
 10
240.8668849693
 20
107.5430860884
 30
0.0
 40
2.0
 41
0.0
 71
     1
 72
     1
  1
%%c
  7
SLDTEXTSTYLE0
 11
-7.044195017643634E-15
 21
1.0
 31
0.0
 73
     1
 44
1.0
  0
MTEXT
  5
145
330
13B
100
AcDbEntity
  8
VERMASSUNG
100
AcDbMText
 10
240.666885018
 20
111.1530861027
 30
0.0
 40
2.0
 41
0.0
 71
     1
 72
     1
  1
20
  7
SLDTEXTSTYLE0
 11
-7.044195017643634E-15
 21
1.0
 31
0.0
 73
     1
 44
1.0
  0
ENDBLK
  5
13D
330
13B
100
AcDbEntity
  8
0
100
AcDbBlockEnd
  0
BLOCK
  5
148
330
147
100
AcDbEntity
  8
0
100
AcDbBlockBegin
  2
_D_5
 70
     0
 10
0.0
 20
0.0
 30
0.0
  3
_D_5
  1

  0
ARC
  5
14A
330
147
100
AcDbEntity
  8
VERMASSUNG
100
AcDbCircle
 10
220.272410176
 20
160.1344919207
 30
0.0
 40
4.248529228887633
100
AcDbArc
 50
153.4349488229
 51
206.5650511771
  0
ARC
  5
14B
330
147
100
AcDbEntity
  8
VERMASSUNG
100
AcDbCircle
 10
215.472409948
 20
160.1344919207
 30
0.0
 40
4.248529228887608
100
AcDbArc
 50
333.4349488229
 51
26.5650511771
  0
SOLID
  5
14C
330
147
100
AcDbEntity
  8
VERMASSUNG
100
AcDbTrace
 10
230.8724100329
 20
158.2344916559
 30
0.0
 11
227.8724100329
 21
158.6844916559
 31
0.0
 12
227.8724100329
 22
157.7844916559
 32
0.0
 13
227.8724100329
 23
157.7844916559
 33
0.0
  0
SOLID
  5
14D
330
147
100
AcDbEntity
  8
VERMASSUNG
100
AcDbTrace
 10
204.8724100329
 20
158.2344916559
 30
0.0
 11
207.8724100329
 21
157.7844916559
 31
0.0
 12
207.8724100329
 22
158.6844916559
 32
0.0
 13
207.8724100329
 23
158.6844916559
 33
0.0
  0
LINE
  5
14E
330
147
100
AcDbEntity
  8
VERMASSUNG
100
AcDbLine
 10
230.8724100329
 20
117.84808551
 30
0.0
 11
230.8724100329
 21
159.2344916559
 31
0.0
  0
LINE
  5
14F
330
147
100
AcDbEntity
  8
VERMASSUNG
100
AcDbLine
 10
204.8724100329
 20
141.97308551
 30
0.0
 11
204.8724100329
 21
159.2344916559
 31
0.0
  0
LINE
  5
150
330
147
100
AcDbEntity
  8
VERMASSUNG
100
AcDbLine
 10
230.8724100329
 20
158.2344916559
 30
0.0
 11
204.8724100329
 21
158.2344916559
 31
0.0
  0
MTEXT
  5
151
330
147
100
AcDbEntity
  8
VERMASSUNG
100
AcDbMText
 10
216.4724101119
 20
160.8126274846
 30
0.0
 40
2.0
 41
0.0
 71
     1
 72
     1
  1
26
  7
SLDTEXTSTYLE0
 73
     1
 44
1.0
  0
ENDBLK
  5
149
330
147
100
AcDbEntity
  8
0
100
AcDbBlockEnd
  0
ENDSEC
  0
SECTION
  2
ENTITIES
  0
MTEXT
  5
78
330
1F
100
AcDbEntity
  8
KOPF_DÜNN
100
AcDbMText
 10
13.8892156294
 20
23.8442973028
 30
0.0
 40
3.0
 41
0.0
 71
     1
 72
     1
  1
104.350.020.061
  7
SLDTEXTSTYLE0
 73
     1
 44
1.0
  0
MTEXT
  5
79
330
1F
100
AcDbEntity
  8
VERMASSUNG
100
AcDbMText
 10
13.9329988022
 20
28.8834360957
 30
0.0
 40
3.0
 41
0.0
 71
     1
 72
     1
  1
Aufnahme_Master shank ST1
  7
SLDTEXTSTYLE0
 73
     1
 44
1.0
  0
MTEXT
  5
7A
330
1F
100
AcDbEntity
  8
VERMASSUNG
100
AcDbMText
 10
98.8601118557
 20
13.8365368761
 30
0.0
 40
2.0
 41
0.0
 71
     1
 72
     1
  1
Datum: 07.05.2008
  7
SLDTEXTSTYLE0
 73
     1
 44
1.0
  0
MTEXT
  5
7B
330
1F
100
AcDbEntity
  8
VERMASSUNG
100
AcDbMText
 10
13.933048693
 20
18.0482802738
 30
0.0
 40
2.0
 41
0.0
 71
     1
 72
     1
  1
ANSI B5.50 CAT 50
  7
SLDTEXTSTYLE0
 73
     1
 44
1.0
  0
MTEXT
  5
7C
330
1F
100
AcDbEntity
  8
VERMASSUNG
100
AcDbMText
 10
13.9808475933
 20
13.9090974274
 30
0.0
 40
2.0
 41
0.0
 71
     1
 72
     1
  1
Gewicht: 3191g
  7
SLDTEXTSTYLE0
 73
     1
 44
1.0
  0
ARC
  5
7D
330
1F
100
AcDbEntity
  8
0
  6
Continuous
 62
     7
370
    15
100
AcDbCircle
 10
189.5224100329
 20
72.52308551
 30
0.0
 40
0.6000000000000085
100
AcDbArc
 50
90.0
 51
134.8886467228
  0
ARC
  5
7E
330
1F
100
AcDbEntity
  8
0
  6
Continuous
 62
     7
370
    15
100
AcDbCircle
 10
189.5224100329
 20
143.57308551
 30
0.0
 40
0.6000000000000227
100
AcDbArc
 50
180.0
 51
270.0
  0
ARC
  5
7F
330
1F
100
AcDbEntity
  8
0
  6
Continuous
 62
     7
370
    15
100
AcDbCircle
 10
172.4474100329
 20
72.52308551
 30
0.0
 40
0.6000000000000085
100
AcDbArc
 50
45.0647051206
 51
90.0
  0
ARC
  5
80
330
1F
100
AcDbEntity
  8
0
  6
Continuous
 62
     7
370
    15
100
AcDbCircle
 10
172.4474100329
 20
143.57308551
 30
0.0
 40
0.6000000000000227
100
AcDbArc
 50
270.0
 51
0.0
  0
LINE
  5
81
330
1F
100
AcDbEntity
  8
0
  6
Continuous
 62
     7
370
    15
100
AcDbLine
 10
169.8724100329
 20
142.97308551
 30
0.0
 11
69.9837962467
 21
128.4059959995
 31
0.0
  0
LINE
  5
82
330
1F
100
AcDbEntity
  8
0
  6
Continuous
 62
     7
370
    15
100
AcDbLine
 10
69.9837962467
 20
87.6901750204
 30
0.0
 11
169.8724100329
 21
73.12308551
 31
0.0
  0
LINE
  5
83
330
1F
100
AcDbEntity
  8
0
  6
Continuous
 62
     7
370
    15
100
AcDbLine
 10
169.8724100329
 20
73.12308551
 30
0.0
 11
172.4474100329
 21
73.12308551
 31
0.0
  0
LINE
  5
84
330
1F
100
AcDbEntity
  8
0
  6
Continuous
 62
     7
370
    15
100
AcDbLine
 10
172.4474100329
 20
142.97308551
 30
0.0
 11
169.8724100329
 21
142.97308551
 31
0.0
  0
ARC
  5
85
330
1F
100
AcDbEntity
  8
0
  6
Continuous
 62
     7
370
    15
100
AcDbCircle
 10
203.8724100329
 20
74.12308551
 30
0.0
 40
1.0
100
AcDbArc
 50
270.0
 51
0.0
  0
ARC
  5
86
330
1F
100
AcDbEntity
  8
0
  6
Continuous
 62
     7
370
    15
100
AcDbCircle
 10
203.8724100329
 20
141.97308551
 30
0.0
 40
1.0
100
AcDbArc
 50
0.0
 51
90.0
  0
LINE
  5
87
330
1F
100
AcDbEntity
  8
0
  6
Continuous
 62
     7
370
    15
100
AcDbLine
 10
189.5224100329
 20
73.12308551
 30
0.0
 11
203.8724100329
 21
73.12308551
 31
0.0
  0
LINE
  5
88
330
1F
100
AcDbEntity
  8
0
  6
Continuous
 62
     7
370
    15
100
AcDbLine
 10
203.8724100329
 20
142.97308551
 30
0.0
 11
189.5224100329
 21
142.97308551
 31
0.0
  0
ARC
  5
89
330
1F
100
AcDbEntity
  8
0
  6
Continuous
 62
     7
370
    15
100
AcDbCircle
 10
70.2724100329
 20
89.6692409826
 30
0.0
 40
2.000000000000006
100
AcDbArc
 50
180.0
 51
261.7028550302
  0
ARC
  5
8A
330
1F
100
AcDbEntity
  8
0
  6
Continuous
 62
     7
370
    15
100
AcDbCircle
 10
70.2724100329
 20
126.4269300374
 30
0.0
 40
2.00000000000002
100
AcDbArc
 50
98.2971449698
 51
180.0
  0
ARC
  5
8B
330
1F
100
AcDbEntity
  8
0
  6
Continuous
 62
     7
370
    15
100
AcDbCircle
 10
208.8724100329
 20
94.04808551
 30
0.0
 40
4.0
100
AcDbArc
 50
90.0
 51
180.0
  0
ARC
  5
8C
330
1F
100
AcDbEntity
  8
0
  6
Continuous
 62
     7
370
    15
100
AcDbCircle
 10
208.8724100329
 20
122.04808551
 30
0.0
 40
4.0
100
AcDbArc
 50
180.0
 51
270.0
  0
LINE
  5
8D
330
1F
100
AcDbEntity
  8
0
  6
Continuous
 62
     7
370
    15
100
AcDbLine
 10
230.6724100329
 20
118.04808551
 30
0.0
 11
208.8724100329
 21
118.04808551
 31
0.0
  0
LINE
  5
8E
330
1F
100
AcDbEntity
  8
0
  6
Continuous
 62
     7
370
    15
100
AcDbLine
 10
208.8724100329
 20
98.04808551
 30
0.0
 11
230.6724100329
 21
98.04808551
 31
0.0
  0
LINE
  5
8F
330
1F
100
AcDbEntity
  8
0
  6
Continuous
 62
     7
370
    15
100
AcDbLine
 10
230.6724100329
 20
98.04808551
 30
0.0
 11
230.8724100329
 21
98.24808551
 31
0.0
  0
LINE
  5
90
330
1F
100
AcDbEntity
  8
0
  6
Continuous
 62
     7
370
    15
100
AcDbLine
 10
230.8724100329
 20
117.84808551
 30
0.0
 11
230.6724100329
 21
118.04808551
 31
0.0
  0
SPLINE
  5
91
330
1F
100
AcDbEntity
  8
0
  6
Continuous
 62
     7
370
    15
100
AcDbSpline
210
0.0
220
0.0
230
1.0
 70
    24
 71
     3
 72
    11
 73
     7
 74
     0
 42
0.000000001
 43
0.00000001
 40
0.0
 40
0.0
 40
0.0
 40
0.0
 40
0.1208913875340486
 40
0.4766714197330126
 40
0.8143663490172411
 40
1.0
 40
1.0
 40
1.0
 40
1.0
 10
226.3997603020506
 20
107.0480855099598
 30
0.0
 10
226.3560603727121
 20
107.0480855099598
 30
0.0
 10
226.1837527519215
 20
107.0480855099598
 30
0.0
 10
225.8587959519903
 20
107.0480855099598
 30
0.0
 10
225.5026994795212
 20
107.0480855099598
 30
0.0
 10
225.3125197763254
 20
107.0480855099598
 30
0.0
 10
225.2450597636714
 20
107.0480855099598
 30
0.0
  0
SPLINE
  5
92
330
1F
100
AcDbEntity
  8
0
  6
Continuous
 62
     7
370
    15
100
AcDbSpline
210
0.0
220
0.0
230
1.0
 70
    24
 71
     3
 72
    10
 73
     6
 74
     0
 42
0.000000001
 43
0.00000001
 40
0.0
 40
0.0
 40
0.0
 40
0.0
 40
0.4391051671061726
 40
0.7513578980692749
 40
1.0
 40
1.0
 40
1.0
 40
1.0
 10
226.9771105712402
 20
108.0480855099598
 30
0.0
 10
226.8944607549575
 20
107.9049318289218
 30
0.0
 10
226.753037704422
 20
107.6599799200331
 30
0.0
 10
226.5474509381782
 20
107.3038931955349
 30
0.0
 10
226.4451221732915
 20
107.1266545756754
 30
0.0
 10
226.3997603020506
 20
107.0480855099598
 30
0.0
  0
SPLINE
  5
93
330
1F
100
AcDbEntity
  8
0
  6
Continuous
 62
     7
370
    15
100
AcDbSpline
210
0.0
220
0.0
230
1.0
 70
    24
 71
     3
 72
    10
 73
     6
 74
     0
 42
0.000000001
 43
0.00000001
 40
0.0
 40
0.0
 40
0.0
 40
0.0
 40
0.4391051671061733
 40
0.7513578980692757
 40
1.0
 40
1.0
 40
1.0
 40
1.0
 10
226.3997603020506
 20
109.0480855099598
 30
0.0
 10
226.4824101183334
 20
108.9049318289218
 30
0.0
 10
226.6238331688688
 20
108.6599799200331
 30
0.0
 10
226.8294199351127
 20
108.3038931955349
 30
0.0
 10
226.9317486999994
 20
108.1266545756754
 30
0.0
 10
226.9771105712402
 20
108.0480855099598
 30
0.0
  0
SPLINE
  5
94
330
1F
100
AcDbEntity
  8
0
  6
Continuous
 62
     7
370
    15
100
AcDbSpline
210
0.0
220
0.0
230
1.0
 70
    24
 71
     3
 72
    11
 73
     7
 74
     0
 42
0.000000001
 43
0.00000001
 40
0.0
 40
0.0
 40
0.0
 40
0.0
 40
0.1856336509827594
 40
0.5233285802669877
 40
0.8791086124659514
 40
1.0
 40
1.0
 40
1.0
 40
1.0
 10
225.2450597636714
 20
109.0480855099598
 30
0.0
 10
225.3125197763254
 20
109.0480855099598
 30
0.0
 10
225.5026994795212
 20
109.0480855099598
 30
0.0
 10
225.8587959519903
 20
109.0480855099598
 30
0.0
 10
226.1837527519214
 20
109.0480855099598
 30
0.0
 10
226.3560603727121
 20
109.0480855099598
 30
0.0
 10
226.3997603020506
 20
109.0480855099598
 30
0.0
  0
SPLINE
  5
95
330
1F
100
AcDbEntity
  8
0
  6
Continuous
 62
     7
370
    15
100
AcDbSpline
210
0.0
220
0.0
230
1.0
 70
    24
 71
     3
 72
    10
 73
     6
 74
     0
 42
0.000000001
 43
0.00000001
 40
0.0
 40
0.0
 40
0.0
 40
0.0
 40
0.4391051671061744
 40
0.7513578980692771
 40
1.0
 40
1.0
 40
1.0
 40
1.0
 10
224.6677094944818
 20
108.0480855099598
 30
0.0
 10
224.7503593107645
 20
108.1912391909978
 30
0.0
 10
224.8917823613
 20
108.4361910998866
 30
0.0
 10
225.0973691275438
 20
108.7922778243847
 30
0.0
 10
225.1996978924305
 20
108.9695164442442
 30
0.0
 10
225.2450597636714
 20
109.0480855099598
 30
0.0
  0
SPLINE
  5
96
330
1F
100
AcDbEntity
  8
0
  6
Continuous
 62
     7
370
    15
100
AcDbSpline
210
0.0
220
0.0
230
1.0
 70
    24
 71
     3
 72
    10
 73
     6
 74
     0
 42
0.000000001
 43
0.00000001
 40
0.0
 40
0.0
 40
0.0
 40
0.0
 40
0.4391051671061727
 40
0.7513578980692753
 40
0.9999999999999999
 40
0.9999999999999999
 40
0.9999999999999999
 40
0.9999999999999999
 10
225.2450597636714
 20
107.0480855099598
 30
0.0
 10
225.1624099473886
 20
107.1912391909978
 30
0.0
 10
225.0209868968531
 20
107.4361910998866
 30
0.0
 10
224.8154001306093
 20
107.7922778243847
 30
0.0
 10
224.7130713657226
 20
107.9695164442442
 30
0.0
 10
224.6677094944818
 20
108.0480855099598
 30
0.0
  0
CIRCLE
  5
97
330
1F
100
AcDbEntity
  8
0
  6
Continuous
 62
     7
370
    15
100
AcDbCircle
 10
225.8224100329
 20
108.04808551
 30
0.0
 40
1.250000000000014
  0
CIRCLE
  5
98
330
1F
100
AcDbEntity
  8
0
  6
Continuous
 62
     7
370
    15
100
AcDbCircle
 10
225.8224100329
 20
108.04808551
 30
0.0
 40
1.750000000000014
  0
CIRCLE
  5
99
330
1F
100
AcDbEntity
  8
0
  6
Continuous
 62
     7
370
    15
100
AcDbCircle
 10
225.8224100329
 20
108.04808551
 30
0.0
 40
2.000000000000014
  0
ARC
  5
9A
330
1F
100
AcDbEntity
  8
0
  6
Continuous
 62
     7
370
    15
100
AcDbCircle
 10
225.8224100329
 20
108.04808551
 30
0.0
 40
1.000000000000008
100
AcDbArc
 50
90.0
 51
150.0
  0
ARC
  5
9B
330
1F
100
AcDbEntity
  8
0
  6
Continuous
 62
     7
370
    15
100
AcDbCircle
 10
225.8224100329
 20
108.04808551
 30
0.0
 40
1.000000000000014
100
AcDbArc
 50
210.0
 51
270.0
  0
ARC
  5
9C
330
1F
100
AcDbEntity
  8
0
  6
Continuous
 62
     7
370
    15
100
AcDbCircle
 10
225.8224100329
 20
108.04808551
 30
0.0
 40
1.000000000000014
100
AcDbArc
 50
270.0
 51
330.0
  0
ARC
  5
9D
330
1F
100
AcDbEntity
  8
0
  6
Continuous
 62
     7
370
    15
100
AcDbCircle
 10
225.8224100329
 20
108.04808551
 30
0.0
 40
1.000000000000008
100
AcDbArc
 50
30.0
 51
90.0
  0
ARC
  5
9E
330
1F
100
AcDbEntity
  8
0
  6
Continuous
 62
     7
370
    15
100
AcDbCircle
 10
225.8224100329
 20
108.04808551
 30
0.0
 40
1.000000000000008
100
AcDbArc
 50
330.0
 51
30.0
  0
ARC
  5
9F
330
1F
100
AcDbEntity
  8
0
  6
Continuous
 62
     7
370
    15
100
AcDbCircle
 10
225.8224100329
 20
108.04808551
 30
0.0
 40
1.000000000000008
100
AcDbArc
 50
150.0
 51
210.0
  0
LINE
  5
A0
330
1F
100
AcDbEntity
  8
0
  6
Continuous
 62
     7
370
    15
100
AcDbLine
 10
173.0474100329
 20
61.4503102814
 30
0.0
 11
173.0474100329
 21
154.6458607385
 31
0.0
  0
SPLINE
  5
A1
330
1F
100
AcDbEntity
  8
0
  6
Continuous
 62
     7
370
    15
100
AcDbSpline
210
0.0
220
0.0
230
1.0
 70
     8
 71
     3
 72
    10
 73
     6
 74
     0
 42
0.000000001
 43
0.00000001
 40
0.0
 40
0.0
 40
0.0
 40
0.0
 40
0.5
 40
0.5
 40
1.0
 40
1.0
 40
1.0
 40
1.0
 10
173.336126211532
 20
155.2646075293023
 30
0.0
 10
173.2599767878355
 20
155.1946553207518
 30
0.0
 10
173.1913447047394
 20
155.1078965160261
 30
0.0
 10
173.0852650247862
 20
154.8995688187033
 30
0.0
 10
173.0474100328609
 20
154.7746869078188
 30
0.0
 10
173.0474100328609
 20
154.6458607385048
 30
0.0
  0
SPLINE
  5
A2
330
1F
100
AcDbEntity
  8
0
  6
Continuous
 62
     7
370
    15
100
AcDbSpline
210
0.0
220
0.0
230
1.0
 70
     8
 71
     3
 72
     8
 73
     4
 74
     0
 42
0.000000001
 43
0.00000001
 40
0.0
 40
0.0
 40
0.0
 40
0.0
 40
1.0
 40
1.0
 40
1.0
 40
1.0
 10
173.6474100328609
 20
155.3349612247106
 30
0.0
 10
173.5358337246512
 20
155.3349612247106
 30
0.0
 10
173.4277255637293
 20
155.309538722638
 30
0.0
 10
173.336126211532
 20
155.2646075293023
 30
0.0
  0
SPLINE
  5
A3
330
1F
100
AcDbEntity
  8
0
  6
Continuous
 62
     7
370
    15
100
AcDbSpline
210
0.0
220
0.0
230
1.0
 70
     8
 71
     3
 72
    10
 73
     6
 74
     0
 42
0.000000001
 43
0.00000001
 40
0.0
 40
0.0
 40
0.0
 40
0.0
 40
0.5
 40
0.5
 40
1.0
 40
1.0
 40
1.0
 40
1.0
 10
173.2625322621258
 20
60.90756087378546
 30
0.0
 10
173.3112037494974
 20
60.87938752829314
 30
0.0
 10
173.3686456387987
 20
60.85525062935817
 30
0.0
 10
173.4995379984329
 20
60.82084858131353
 30
0.0
 10
173.5724151574566
 20
60.81097338212869
 30
0.0
 10
173.6474100328609
 20
60.81097338212869
 30
0.0
  0
SPLINE
  5
A4
330
1F
100
AcDbEntity
  8
0
  6
Continuous
 62
     7
370
    15
100
AcDbSpline
210
0.0
220
0.0
230
1.0
 70
     8
 71
     3
 72
    10
 73
     6
 74
     0
 42
0.000000001
 43
0.00000001
 40
0.0
 40
0.0
 40
0.0
 40
0.0
 40
0.5
 40
0.5
 40
1.0
 40
1.0
 40
1.0
 40
1.0
 10
173.2625322621258
 20
60.90756087378545
 30
0.0
 10
173.2044800976588
 20
60.97488234619652
 30
0.0
 10
173.1521537274481
 20
61.05507892269931
 30
0.0
 10
173.0739948519453
 20
61.23754473574159
 30
0.0
 10
173.0474100328616
 20
61.34313113182886
 30
0.0
 10
173.0474100328609
 20
61.4503102814107
 30
0.0
  0
LINE
  5
A5
330
1F
100
AcDbEntity
  8
0
  6
Continuous
 62
     7
370
    15
100
AcDbLine
 10
182.8824100329
 20
63.449159332
 30
0.0
 11
182.8824100329
 21
152.647011688
 31
0.0
  0
SPLINE
  5
A6
330
1F
100
AcDbEntity
  8
0
  6
Continuous
 62
     7
370
    15
100
AcDbSpline
210
0.0
220
0.0
230
1.0
 70
     8
 71
     3
 72
     8
 73
     4
 74
     0
 42
0.000000001
 43
0.00000001
 40
0.0
 40
0.0
 40
0.0
 40
0.0
 40
1.0
 40
1.0
 40
1.0
 40
1.0
 10
183.9416636878808
 20
154.5533237079769
 30
0.0
 10
183.5881690738133
 20
153.9181098643003
 30
0.0
 10
183.2350680066648
 20
153.2826815257231
 30
0.0
 10
182.8824100328609
 20
152.647011687954
 30
0.0
  0
SPLINE
  5
A7
330
1F
100
AcDbEntity
  8
0
  6
Continuous
 62
     7
370
    15
100
AcDbSpline
210
0.0
220
0.0
230
1.0
 70
     8
 71
     3
 72
     8
 73
     4
 74
     0
 42
0.000000001
 43
0.00000001
 40
0.0
 40
0.0
 40
0.0
 40
0.0
 40
0.0012377667921472
 40
0.0012377667921472
 40
0.0012377667921472
 40
0.0012377667921472
 10
184.4985768019366
 20
155.3349612247106
 30
0.0
 10
184.3124850025589
 20
155.0745774042133
 30
0.0
 10
184.1268373463434
 20
154.8140346033758
 30
0.0
 10
183.9416636878805
 20
154.5533237079757
 30
0.0
  0
LINE
  5
A8
330
1F
100
AcDbEntity
  8
0
  6
Continuous
 62
     7
370
    15
100
AcDbLine
 10
184.4985768019
 20
60.8109733821
 30
0.0
 11
184.4985768019
 21
155.3349612247
 31
0.0
  0
SPLINE
  5
A9
330
1F
100
AcDbEntity
  8
0
  6
Continuous
 62
     7
370
    15
100
AcDbSpline
210
0.0
220
0.0
230
1.0
 70
     8
 71
     3
 72
     8
 73
     4
 74
     0
 42
0.000000001
 43
0.00000001
 40
0.0
 40
0.0
 40
0.0
 40
0.0
 40
0.0011891741919631
 40
0.0011891741919631
 40
0.0011891741919631
 40
0.0011891741919631
 10
184.0444181579398
 20
61.35822807208089
 30
0.0
 10
184.1948028502862
 20
61.17560455937541
 30
0.0
 10
184.3462083756632
 20
60.99318873724856
 30
0.0
 10
184.4985768019366
 20
60.81097338212871
 30
0.0
  0
SPLINE
  5
AA
330
1F
100
AcDbEntity
  8
0
  6
Continuous
 62
     7
370
    15
100
AcDbSpline
210
0.0
220
0.0
230
1.0
 70
     8
 71
     3
 72
     8
 73
     4
 74
     0
 42
0.000000001
 43
0.00000001
 40
0.0
 40
0.0
 40
0.0
 40
0.0
 40
1.0
 40
1.0
 40
1.0
 40
1.0
 10
184.0444181579398
 20
61.35822807208089
 30
0.0
 10
183.6565959533861
 20
62.05493193630169
 30
0.0
 10
183.2692384231467
 20
62.75189694641638
 30
0.0
 10
182.8824100328609
 20
63.4491593319656
 30
0.0
  0
LINE
  5
AB
330
1F
100
AcDbEntity
  8
0
  6
Continuous
 62
     7
370
    15
100
AcDbLine
 10
188.3224100329
 20
155.3349612247
 30
0.0
 11
184.4985768019
 21
155.3349612247
 31
0.0
  0
LINE
  5
AC
330
1F
100
AcDbEntity
  8
0
  6
Continuous
 62
     7
370
    15
100
AcDbLine
 10
184.4985768019
 20
60.8109733821
 30
0.0
 11
188.3224100329
 21
60.8109733821
 31
0.0
  0
SPLINE
  5
AD
330
1F
100
AcDbEntity
  8
0
  6
Continuous
 62
     7
370
    15
100
AcDbSpline
210
0.0
220
0.0
230
1.0
 70
     8
 71
     3
 72
    12
 73
     8
 74
     0
 42
0.000000001
 43
0.00000001
 40
0.0
 40
0.0
 40
0.0
 40
0.0
 40
0.5000000000000014
 40
0.5000000000000014
 40
0.7500000000000007
 40
0.7500000000000007
 40
1.0
 40
1.0
 40
1.0
 40
1.0
 10
188.9224100328609
 20
154.8493399170793
 30
0.0
 10
188.9224100328609
 20
154.9696375434112
 30
0.0
 10
188.8685178413848
 20
155.0876747135927
 30
0.0
 10
188.7075629165238
 20
155.2272715831341
 30
0.0
 10
188.6428442882968
 20
155.2655240512132
 30
0.0
 10
188.4906576303961
 20
155.3203597531183
 30
0.0
 10
188.4078895928099
 20
155.3349612247106
 30
0.0
 10
188.322410032861
 20
155.3349612247106
 30
0.0
  0
LINE
  5
AE
330
1F
100
AcDbEntity
  8
0
  6
Continuous
 62
     7
370
    15
100
AcDbLine
 10
188.9224100329
 20
61.2276267959
 30
0.0
 11
188.9224100329
 21
154.8493399171
 31
0.0
  0
SPLINE
  5
AF
330
1F
100
AcDbEntity
  8
0
  6
Continuous
 62
     7
370
    15
100
AcDbSpline
210
0.0
220
0.0
230
1.0
 70
     8
 71
     3
 72
    12
 73
     8
 74
     0
 42
0.000000001
 43
0.00000001
 40
0.0
 40
0.0
 40
0.0
 40
0.0
 40
0.2499999999999988
 40
0.2499999999999988
 40
0.4999999999999976
 40
0.4999999999999976
 40
1.0
 40
1.0
 40
1.0
 40
1.0
 10
188.322410032861
 20
60.81097338212871
 30
0.0
 10
188.418390875261
 20
60.81097338212869
 30
0.0
 10
188.5108240931991
 20
60.82732983007924
 30
0.0
 10
188.6672560506348
 20
60.88097050915842
 30
0.0
 10
188.7307308264652
 20
60.91727708033876
 30
0.0
 10
188.8789990815902
 20
61.03856533639795
 30
0.0
 10
188.9224100328609
 20
61.13286773329101
 30
0.0
 10
188.922410032861
 20
61.22762679588737
 30
0.0
  0
LINE
  5
B0
330
1F
100
AcDbEntity
  8
0
  6
Continuous
 62
     7
370
    15
100
AcDbLine
 10
177.4462432638
 20
155.3349612247
 30
0.0
 11
173.6474100329
 21
155.3349612247
 31
0.0
  0
LINE
  5
B1
330
1F
100
AcDbEntity
  8
0
  6
Continuous
 62
     7
370
    15
100
AcDbLine
 10
177.4462432638
 20
60.8109733821
 30
0.0
 11
177.4462432638
 21
155.3349612247
 31
0.0
  0
LINE
  5
B2
330
1F
100
AcDbEntity
  8
0
  6
Continuous
 62
     7
370
    15
100
AcDbLine
 10
173.6474100329
 20
60.8109733821
 30
0.0
 11
177.4462432638
 21
60.8109733821
 31
0.0
  0
SPLINE
  5
B3
330
1F
100
AcDbEntity
  8
0
  6
Continuous
 62
     7
370
    15
100
AcDbSpline
210
0.0
220
0.0
230
1.0
 70
     8
 71
     3
 72
     8
 73
     4
 74
     0
 42
0.000000001
 43
0.00000001
 40
0.0
 40
0.0
 40
0.0
 40
0.0
 40
0.0012377667921509
 40
0.0012377667921509
 40
0.0012377667921509
 40
0.0012377667921509
 10
178.0031563778431
 20
154.5533237079734
 30
0.0
 10
177.8179827193796
 20
154.8140346033743
 30
0.0
 10
177.6323350631636
 20
155.0745774042125
 30
0.0
 10
177.4462432637853
 20
155.3349612247106
 30
0.0
  0
SPLINE
  5
B4
330
1F
100
AcDbEntity
  8
0
  6
Continuous
 62
     7
370
    15
100
AcDbSpline
210
0.0
220
0.0
230
1.0
 70
     8
 71
     3
 72
     8
 73
     4
 74
     0
 42
0.000000001
 43
0.00000001
 40
0.0
 40
0.0
 40
0.0
 40
0.0
 40
1.0
 40
1.0
 40
1.0
 40
1.0
 10
179.062410032861
 20
152.647011687954
 30
0.0
 10
178.7097520590578
 20
153.282681525722
 30
0.0
 10
178.3566509919099
 20
153.9181098642979
 30
0.0
 10
178.0031563778431
 20
154.5533237079734
 30
0.0
  0
LINE
  5
B5
330
1F
100
AcDbEntity
  8
0
  6
Continuous
 62
     7
370
    15
100
AcDbLine
 10
179.0624100329
 20
63.449159332
 30
0.0
 11
179.0624100329
 21
152.647011688
 31
0.0
  0
SPLINE
  5
B6
330
1F
100
AcDbEntity
  8
0
  6
Continuous
 62
     7
370
    15
100
AcDbSpline
210
0.0
220
0.0
230
1.0
 70
     8
 71
     3
 72
     8
 73
     4
 74
     0
 42
0.000000001
 43
0.00000001
 40
0.0
 40
0.0
 40
0.0
 40
0.0
 40
1.0
 40
1.0
 40
1.0
 40
1.0
 10
179.062410032861
 20
63.44915933196558
 30
0.0
 10
178.6755816425752
 20
62.75189694641637
 30
0.0
 10
178.2882241123358
 20
62.05493193630169
 30
0.0
 10
177.9004019077821
 20
61.35822807208089
 30
0.0
  0
SPLINE
  5
B7
330
1F
100
AcDbEntity
  8
0
  6
Continuous
 62
     7
370
    15
100
AcDbSpline
210
0.0
220
0.0
230
1.0
 70
     8
 71
     3
 72
     8
 73
     4
 74
     0
 42
0.000000001
 43
0.00000001
 40
0.0
 40
0.0
 40
0.0
 40
0.0
 40
0.0011891741919631
 40
0.0011891741919631
 40
0.0011891741919631
 40
0.0011891741919631
 10
177.4462432637853
 20
60.81097338212871
 30
0.0
 10
177.5986116900587
 20
60.99318873724856
 30
0.0
 10
177.7500172154357
 20
61.17560455937541
 30
0.0
 10
177.9004019077821
 20
61.35822807208089
 30
0.0
  0
SPLINE
  5
B8
330
1F
100
AcDbEntity
  8
0
  6
Continuous
 62
     7
370
    15
100
AcDbSpline
210
0.0
220
0.0
230
1.0
 70
     8
 71
     3
 72
    12
 73
     8
 74
     0
 42
0.000000001
 43
0.00000001
 40
0.0
 40
0.0
 40
0.0
 40
0.0
 40
0.4999999999999928
 40
0.4999999999999928
 40
0.7499999999999963
 40
0.7499999999999963
 40
1.0
 40
1.0
 40
1.0
 40
1.0
 10
179.8624100328609
 20
64.40031924409004
 30
0.0
 10
179.6482350663867
 20
64.40031924409004
 30
0.0
 10
179.4377352537674
 20
64.30636327147307
 30
0.0
 10
179.2169921584562
 20
64.0712715635274
 30
0.0
 10
179.1598450257359
 20
63.97963939881984
 30
0.0
 10
179.0822706020888
 20
63.7804300248993
 30
0.0
 10
179.062410032861
 20
63.67347066454573
 30
0.0
 10
179.062410032861
 20
63.56699402155379
 30
0.0
  0
SPLINE
  5
B9
330
1F
100
AcDbEntity
  8
0
  6
Continuous
 62
     7
370
    15
100
AcDbSpline
210
0.0
220
0.0
230
1.0
 70
     8
 71
     3
 72
    12
 73
     8
 74
     0
 42
0.000000001
 43
0.00000001
 40
0.0
 40
0.0
 40
0.0
 40
0.0
 40
0.25
 40
0.25
 40
0.5
 40
0.5
 40
1.0
 40
1.0
 40
1.0
 40
1.0
 10
179.8624100328609
 20
151.6958517758296
 30
0.0
 10
179.7546052056122
 20
151.6958517758296
 30
0.0
 10
179.6483921675529
 20
151.7186493157193
 30
0.0
 10
179.4526747545605
 20
151.8050100303765
 30
0.0
 10
179.3637399263634
 20
151.8686775195079
 30
0.0
 10
179.1449376593646
 20
152.1015086224999
 30
0.0
 10
179.0624100328609
 20
152.3157415237809
 30
0.0
 10
179.062410032861
 20
152.5291769983665
 30
0.0
  0
SPLINE
  5
BA
330
1F
100
AcDbEntity
  8
0
  6
Continuous
 62
     7
370
    15
100
AcDbSpline
210
0.0
220
0.0
230
1.0
 70
     8
 71
     3
 72
    14
 73
    10
 74
     0
 42
0.000000001
 43
0.00000001
 40
0.0
 40
0.0
 40
0.0
 40
0.0
 40
0.25
 40
0.25
 40
0.5
 40
0.5
 40
0.75
 40
0.75
 40
1.0
 40
1.0
 40
1.0
 40
1.0
 10
182.8824100328609
 20
63.56699402155319
 30
0.0
 10
182.8824100328609
 20
63.67439752105096
 30
0.0
 10
182.8624971020041
 20
63.78064963524785
 30
0.0
 10
182.7848480577569
 20
63.97988014250086
 30
0.0
 10
182.7270685497231
 20
64.07211795714657
 30
0.0
 10
182.5811534808984
 20
64.22744228754674
 30
0.0
 10
182.492489912985
 20
64.29100462798581
 30
0.0
 10
182.2961358676569
 20
64.37765486740484
 30
0.0
 10
182.1903457776355
 20
64.40031924409003
 30
0.0
 10
182.0824100328609
 20
64.40031924409004
 30
0.0
  0
SPLINE
  5
BB
330
1F
100
AcDbEntity
  8
0
  6
Continuous
 62
     7
370
    15
100
AcDbSpline
210
0.0
220
0.0
230
1.0
 70
     8
 71
     3
 72
    14
 73
    10
 74
     0
 42
0.000000001
 43
0.00000001
 40
0.0
 40
0.0
 40
0.0
 40
0.0
 40
0.25
 40
0.25
 40
0.5
 40
0.5
 40
0.75
 40
0.75
 40
1.0
 40
1.0
 40
1.0
 40
1.0
 10
182.8824100328609
 20
152.5291769983664
 30
0.0
 10
182.8824100328609
 20
152.421834626219
 30
0.0
 10
182.8624138407967
 20
152.3152056193712
 30
0.0
 10
182.7847157564521
 20
152.11605384022
 30
0.0
 10
182.7267226115585
 20
152.0235709419045
 30
0.0
 10
182.5806761187357
 20
151.8683351067953
 30
0.0
 10
182.491338379568
 20
151.804601165183
 30
0.0
 10
182.2965833675076
 20
151.7187708987878
 30
0.0
 10
182.1890530962987
 20
151.6958517758293
 30
0.0
 10
182.0824100328589
 20
151.6958517758296
 30
0.0
  0
LINE
  5
BC
330
1F
100
AcDbEntity
  8
0
  6
Continuous
 62
     7
370
    15
100
AcDbLine
 10
182.0824100329
 20
64.4003192441
 30
0.0
 11
179.8624100329
 21
64.4003192441
 31
0.0
  0
LINE
  5
BD
330
1F
100
AcDbEntity
  8
0
  6
Continuous
 62
     7
370
    15
100
AcDbLine
 10
182.0824100329
 20
151.6958517758
 30
0.0
 11
179.8624100329
 21
151.6958517758
 31
0.0
  0
LINE
  5
BE
330
1F
100
AcDbEntity
  8
0
  6
Continuous
 62
     7
370
    15
100
AcDbLine
 10
169.8724100329
 20
73.12308551
 30
0.0
 11
169.8724100329
 21
142.97308551
 31
0.0
  0
LINE
  5
BF
330
1F
100
AcDbEntity
  8
0
  6
Continuous
 62
     7
370
    15
100
AcDbLine
 10
204.8724100329
 20
141.973085495
 30
0.0
 11
204.8724100329
 21
74.12308551
 31
0.0
  0
LINE
  5
C0
330
1F
100
AcDbEntity
  8
0
  6
Continuous
 62
     7
370
    15
100
AcDbLine
 10
68.2724100329
 20
89.6692409826
 30
0.0
 11
68.2724100329
 21
126.4269300374
 31
0.0
  0
SPLINE
  5
C1
330
1F
100
AcDbEntity
  8
0
  6
Continuous
 62
     7
370
    15
100
AcDbSpline
210
0.0
220
0.0
230
1.0
 70
    11
 71
     3
 72
    60
 73
    56
 74
     0
 42
0.000000001
 43
0.00000001
 40
0.0
 40
0.0
 40
0.0
 40
0.0
 40
0.0624999999999982
 40
0.0624999999999982
 40
0.0937499999999979
 40
0.0937499999999979
 40
0.1249999999999977
 40
0.1249999999999977
 40
0.1562499999999974
 40
0.1562499999999974
 40
0.1874999999999972
 40
0.1874999999999972
 40
0.2187499999999969
 40
0.2187499999999969
 40
0.2499999999999967
 40
0.2499999999999967
 40
0.2812499999999964
 40
0.2812499999999964
 40
0.3124999999999962
 40
0.3124999999999962
 40
0.3437499999999959
 40
0.3437499999999959
 40
0.3749999999999957
 40
0.3749999999999957
 40
0.4062499999999954
 40
0.4062499999999954
 40
0.4374999999999952
 40
0.4374999999999952
 40
0.4687499999999949
 40
0.4687499999999949
 40
0.4999999999999947
 40
0.4999999999999947
 40
0.5312499999999944
 40
0.5312499999999944
 40
0.5624999999999941
 40
0.5624999999999941
 40
0.624999999999995
 40
0.624999999999995
 40
0.6874999999999958
 40
0.6874999999999958
 40
0.7499999999999967
 40
0.7499999999999967
 40
0.7812499999999971
 40
0.7812499999999971
 40
0.8124999999999974
 40
0.8124999999999974
 40
0.8437499999999979
 40
0.8437499999999979
 40
0.8749999999999983
 40
0.8749999999999983
 40
0.9062499999999988
 40
0.9062499999999988
 40
0.9374999999999991
 40
0.9374999999999991
 40
1.0
 40
1.0
 40
1.0
 40
1.0
 10
224.1485891014355
 20
109.7125172299708
 30
0.0
 10
224.391167561403
 20
109.9093453564842
 30
0.0
 10
224.6648994581906
 20
110.0561761270942
 30
0.0
 10
225.1090579470698
 20
110.2035201738459
 30
0.0
 10
225.2597399042357
 20
110.239305363641
 30
0.0
 10
225.5661767571417
 20
110.2853409164155
 30
0.0
 10
225.7234369682649
 20
110.2954948722163
 30
0.0
 10
226.0349732700728
 20
110.2890868854204
 30
0.0
 10
226.1888841534722
 20
110.2728452465227
 30
0.0
 10
226.4930345223319
 20
110.2145028691621
 30
0.0
 10
226.6447381892421
 20
110.1717544639396
 30
0.0
 10
226.9348411775468
 20
110.0617661281111
 30
0.0
 10
227.0735815452843
 20
109.9948000345804
 30
0.0
 10
227.3382322834331
 20
109.8362425236366
 30
0.0
 10
227.4653420718965
 20
109.7434064487004
 30
0.0
 10
227.696015800114
 20
109.5380859167082
 30
0.0
 10
227.8004400195569
 20
109.4254844367691
 30
0.0
 10
227.9861711482919
 20
109.1789557621729
 30
0.0
 10
228.0678250338324
 20
109.0434974568
 30
0.0
 10
228.1973236640808
 20
108.7630160454849
 30
0.0
 10
228.246490591479
 20
108.6167432688339
 30
0.0
 10
228.3111368637241
 20
108.3110757443598
 30
0.0
 10
228.325604687888
 20
108.1541349358875
 30
0.0
 10
228.3180176561769
 20
107.8441552378522
 30
0.0
 10
228.2957088180895
 20
107.6872710061809
 30
0.0
 10
228.2165688979953
 20
107.3858182986248
 30
0.0
 10
228.1603873189117
 20
107.2412481777355
 30
0.0
 10
228.0160853631218
 20
106.9638604582704
 30
0.0
 10
227.9293833730412
 20
106.8341635730877
 30
0.0
 10
227.7323490590455
 20
106.5954247967223
 30
0.0
 10
227.6203571676854
 20
106.4847998771129
 30
0.0
 10
227.380148137097
 20
106.2890481076797
 30
0.0
 10
227.2516232597677
 20
106.2031280140752
 30
0.0
 10
226.9782471852157
 20
106.0541643379635
 30
0.0
 10
226.8342964664868
 20
105.9919193261229
 30
0.0
 10
226.3936493402452
 20
105.8450483186911
 30
0.0
 10
226.0787966453589
 20
105.7978151525107
 30
0.0
 10
225.4591107282828
 20
105.8098118196625
 30
0.0
 10
225.1463159770267
 20
105.8692924123038
 30
0.0
 10
224.568525305805
 20
106.087719195445
 30
0.0
 10
224.2955290572986
 20
106.2497866267409
 30
0.0
 10
223.9505262094953
 20
106.5563948387583
 30
0.0
 10
223.843938641476
 20
106.6710696646373
 30
0.0
 10
223.6569467438085
 20
106.9196797741854
 30
0.0
 10
223.5775184545051
 20
107.0517318459356
 30
0.0
 10
223.4478970899746
 20
107.3320965218856
 30
0.0
 10
223.3974314856846
 20
107.482704302512
 30
0.0
 10
223.3334919981082
 20
107.7869853654075
 30
0.0
 10
223.319123366466
 20
107.9413353934295
 30
0.0
 10
223.3269417778053
 20
108.2546325473532
 30
0.0
 10
223.3494574173912
 20
108.4105927427297
 30
0.0
 10
223.4285430304823
 20
108.7110872945394
 30
0.0
 10
223.4861601994464
 20
108.8587565817534
 30
0.0
 10
223.7020187129355
 20
109.2721396498024
 30
0.0
 10
223.906010641468
 20
109.5156891034573
 30
0.0
 10
224.1485891014355
 20
109.7125172299708
 30
0.0
  0
LINE
  5
C2
330
1F
100
AcDbEntity
  8
0
  6
Continuous
 62
     7
370
    15
100
AcDbLine
 10
230.6724100329
 20
108.04808551
 30
0.0
 11
230.6724100329
 21
98.04808551
 31
0.0
  0
LINE
  5
C3
330
1F
100
AcDbEntity
  8
0
  6
Continuous
 62
     7
370
    15
100
AcDbLine
 10
230.6724100329
 20
118.04808551
 30
0.0
 11
230.6724100329
 21
108.04808551
 31
0.0
  0
LINE
  5
C4
330
1F
100
AcDbEntity
  8
0
  6
Continuous
 62
     7
370
    15
100
AcDbLine
 10
230.8724100329
 20
108.04808551
 30
0.0
 11
230.8724100329
 21
98.24808551
 31
0.0
  0
LINE
  5
C5
330
1F
100
AcDbEntity
  8
0
  6
Continuous
 62
     7
370
    15
100
AcDbLine
 10
230.8724100329
 20
117.84808551
 30
0.0
 11
230.8724100329
 21
108.04808551
 31
0.0
  0
CIRCLE
  5
C6
330
1F
100
AcDbEntity
  8
0
  6
HIDDEN
 62
     7
370
     0
100
AcDbCircle
 10
225.8224100329
 20
108.04808551
 30
0.0
 40
1.426794919243108
  0
CIRCLE
  5
C7
330
1F
100
AcDbEntity
  8
0
  6
HIDDEN
 62
     7
370
     0
100
AcDbCircle
 10
225.8224100329
 20
108.04808551
 30
0.0
 40
1.326794919243127
  0
LINE
  5
C8
330
1F
100
AcDbEntity
  8
0
  6
HIDDEN
 62
     7
370
     0
100
AcDbLine
 10
173.0474100329
 20
145.54808551
 30
0.0
 11
173.716039183
 21
145.54808551
 31
0.0
  0
ELLIPSE
  5
C9
330
1F
100
AcDbEntity
  8
0
  6
HIDDEN
 62
     7
370
     0
100
AcDbEllipse
 10
173.716039183
 20
146.34808551
 30
0.0
 11
0.0
 21
0.7999999999999829
 31
0.0
210
0.0
220
0.0
230
1.0
 40
0.4142135624
 41
3.141592653589793
 42
4.712388980384695
  0
LINE
  5
CA
330
1F
100
AcDbEntity
  8
0
  6
HIDDEN
 62
     7
370
     0
100
AcDbLine
 10
173.716039183
 20
72.94808551
 30
0.0
 11
173.0474100329
 21
72.94808551
 31
0.0
  0
ELLIPSE
  5
CB
330
1F
100
AcDbEntity
  8
0
  6
HIDDEN
 62
     7
370
     0
100
AcDbEllipse
 10
173.716039183
 20
72.14808551
 30
0.0
 11
0.0
 21
0.8000000000000114
 31
0.0
210
0.0
220
0.0
230
1.0
 40
0.4142135624
 41
4.712388980384713
 42
6.283185307179586
  0
LINE
  5
CC
330
1F
100
AcDbEntity
  8
0
  6
HIDDEN
 62
     7
370
     0
100
AcDbLine
 10
174.0474100329
 20
61.3582280721
 30
0.0
 11
173.2625322621
 21
60.9075608738
 31
0.0
  0
LINE
  5
CD
330
1F
100
AcDbEntity
  8
0
  6
HIDDEN
 62
     7
370
     0
100
AcDbLine
 10
173.3361262115
 20
155.2646075293
 30
0.0
 11
174.0474100329
 21
154.553323708
 31
0.0
  0
LINE
  5
CE
330
1F
100
AcDbEntity
  8
0
  6
HIDDEN
 62
     7
370
     0
100
AcDbLine
 10
75.8204118414
 20
96.92308551
 30
0.0
 11
75.8204118414
 21
119.17308551
 31
0.0
  0
LINE
  5
CF
330
1F
100
AcDbEntity
  8
0
  6
HIDDEN
 62
     7
370
     0
100
AcDbLine
 10
188.9224100329
 20
72.94808551
 30
0.0
 11
173.716039183
 21
72.94808551
 31
0.0
  0
LINE
  5
D0
330
1F
100
AcDbEntity
  8
0
  6
HIDDEN
 62
     7
370
     0
100
AcDbLine
 10
177.9004019078
 20
61.3582280721
 30
0.0
 11
174.0474100329
 21
61.3582280721
 31
0.0
  0
LINE
  5
D1
330
1F
100
AcDbEntity
  8
0
  6
HIDDEN
 62
     7
370
     0
100
AcDbLine
 10
188.9224100329
 20
61.3582280721
 30
0.0
 11
184.0444181579
 21
61.3582280721
 31
0.0
  0
LINE
  5
D2
330
1F
100
AcDbEntity
  8
0
  6
HIDDEN
 62
     7
370
     0
100
AcDbLine
 10
174.0474100329
 20
61.3582280721
 30
0.0
 11
174.0474100329
 21
72.14808551
 31
0.0
  0
LINE
  5
D3
330
1F
100
AcDbEntity
  8
0
  6
HIDDEN
 62
     7
370
     0
100
AcDbLine
 10
173.716039183
 20
145.54808551
 30
0.0
 11
188.9224100329
 21
145.54808551
 31
0.0
  0
LINE
  5
D4
330
1F
100
AcDbEntity
  8
0
  6
HIDDEN
 62
     7
370
     0
100
AcDbLine
 10
174.0474100329
 20
154.553323708
 30
0.0
 11
178.0031563778
 21
154.553323708
 31
0.0
  0
LINE
  5
D5
330
1F
100
AcDbEntity
  8
0
  6
HIDDEN
 62
     7
370
     0
100
AcDbLine
 10
183.9416636879
 20
154.553323708
 30
0.0
 11
188.9224100329
 21
154.553323708
 31
0.0
  0
LINE
  5
D6
330
1F
100
AcDbEntity
  8
0
  6
HIDDEN
 62
     7
370
     0
100
AcDbLine
 10
174.0474100329
 20
154.553323708
 30
0.0
 11
174.0474100329
 21
146.34808551
 31
0.0
  0
LINE
  5
D7
330
1F
100
AcDbEntity
  8
0
  6
HIDDEN
 62
     7
370
     0
100
AcDbLine
 10
130.2724100329
 20
96.92308551
 30
0.0
 11
130.2724100329
 21
119.17308551
 31
0.0
  0
LINE
  5
D8
330
1F
100
AcDbEntity
  8
0
  6
HIDDEN
 62
     7
370
     0
100
AcDbLine
 10
135.6951771196
 20
105.94808551
 30
0.0
 11
135.6951771196
 21
110.14808551
 31
0.0
  0
SPLINE
  5
D9
330
1F
100
AcDbEntity
  8
0
  6
HIDDEN
 62
     7
370
     0
100
AcDbSpline
210
0.0
220
0.0
230
1.0
 70
     8
 71
     3
 72
    16
 73
    12
 74
     0
 42
0.000000001
 43
0.00000001
 40
0.0
 40
0.0
 40
0.0
 40
0.0
 40
0.2500000000000088
 40
0.2500000000000088
 40
0.5000000000000177
 40
0.5000000000000177
 40
0.6250000000000169
 40
0.6250000000000169
 40
0.750000000000016
 40
0.750000000000016
 40
1.0
 40
1.0
 40
1.0
 40
1.0
 10
230.872410032861
 20
113.5167215913929
 30
0.0
 10
230.872410032861
 20
113.4475876900538
 30
0.0
 10
230.867876223641
 20
113.376966542619
 30
0.0
 10
230.8427123766601
 20
113.2304430562626
 30
0.0
 10
230.8224252341231
 20
113.1530011811119
 30
0.0
 10
230.7638158573527
 20
113.0473527171579
 30
0.0
 10
230.7392875607665
 20
113.0152724370879
 30
0.0
 10
230.6849416549248
 20
112.9681467137318
 30
0.0
 10
230.6553418301569
 20
112.9530933652746
 30
0.0
 10
230.571392271965
 20
112.9290879309038
 30
0.0
 10
230.520033873234
 20
112.9366503656471
 30
0.0
 10
230.4724100329741
 20
112.950689720717
 30
0.0
  0
SPLINE
  5
DA
330
1F
100
AcDbEntity
  8
0
  6
HIDDEN
 62
     7
370
     0
100
AcDbSpline
210
0.0
220
0.0
230
1.0
 70
     8
 71
     3
 72
     8
 73
     4
 74
     0
 42
0.000000001
 43
0.00000001
 40
0.0
 40
0.0
 40
0.0
 40
0.0
 40
1.0
 40
1.0
 40
1.0
 40
1.0
 10
230.4724100329736
 20
112.9506897207172
 30
0.0
 10
230.4132437240815
 20
112.9168404298887
 30
0.0
 10
230.3444607385572
 20
112.8947250537079
 30
0.0
 10
230.272410032861
 20
112.8947250537079
 30
0.0
  0
SPLINE
  5
DB
330
1F
100
AcDbEntity
  8
0
  6
HIDDEN
 62
     7
370
     0
100
AcDbSpline
210
0.0
220
0.0
230
1.0
 70
     8
 71
     3
 72
     8
 73
     4
 74
     0
 42
0.000000001
 43
0.00000001
 40
0.0
 40
0.0
 40
0.0
 40
0.0
 40
1.0
 40
1.0
 40
1.0
 40
1.0
 10
230.4724100327961
 20
103.145481299304
 30
0.0
 10
230.4132437239463
 20
103.1793305900754
 30
0.0
 10
230.3444607384851
 20
103.2014459662118
 30
0.0
 10
230.272410032861
 20
103.2014459662118
 30
0.0
  0
SPLINE
  5
DC
330
1F
100
AcDbEntity
  8
0
  6
HIDDEN
 62
     7
370
     0
100
AcDbSpline
210
0.0
220
0.0
230
1.0
 70
     8
 71
     3
 72
    16
 73
    12
 74
     0
 42
0.000000001
 43
0.00000001
 40
0.0
 40
0.0
 40
0.0
 40
0.0
 40
0.25
 40
0.25
 40
0.375
 40
0.375
 40
0.5
 40
0.5
 40
0.75
 40
0.75
 40
1.0
 40
1.0
 40
1.0
 40
1.0
 10
230.4724100327837
 20
103.1454812993037
 30
0.0
 10
230.5197146206469
 20
103.1594264680946
 30
0.0
 10
230.5707127598004
 20
103.1670074554944
 30
0.0
 10
230.654311766069
 20
103.1434986225338
 30
0.0
 10
230.683449107904
 20
103.1289343549434
 30
0.0
 10
230.737772779844
 20
103.0825646683156
 30
0.0
 10
230.76225592676
 20
103.0510402049267
 30
0.0
 10
230.8210964830528
 20
102.9466651057049
 30
0.0
 10
230.8419778607081
 20
102.8688992805022
 30
0.0
 10
230.8677485712646
 20
102.7210117460321
 30
0.0
 10
230.872409725488
 20
102.6489010941098
 30
0.0
 10
230.8724100328467
 20
102.5794547439715
 30
0.0
  0
LINE
  5
DD
330
1F
100
AcDbEntity
  8
0
  6
HIDDEN
 62
     7
370
     0
100
AcDbLine
 10
217.3724100329
 20
108.04808551
 30
0.0
 11
217.3724100329
 21
102.84808551
 31
0.0
  0
LINE
  5
DE
330
1F
100
AcDbEntity
  8
0
  6
HIDDEN
 62
     7
370
     0
100
AcDbLine
 10
217.3724100329
 20
113.24808551
 30
0.0
 11
217.3724100329
 21
108.04808551
 31
0.0
  0
LINE
  5
DF
330
1F
100
AcDbEntity
  8
0
  6
HIDDEN
 62
     7
370
     0
100
AcDbLine
 10
220.7384354366
 20
108.04808551
 30
0.0
 11
220.7384354366
 21
102.54808551
 31
0.0
  0
LINE
  5
E0
330
1F
100
AcDbEntity
  8
0
  6
HIDDEN
 62
     7
370
     0
100
AcDbLine
 10
220.7384354366
 20
113.54808551
 30
0.0
 11
220.7384354366
 21
108.04808551
 31
0.0
  0
LINE
  5
E1
330
1F
100
AcDbEntity
  8
0
  6
HIDDEN
 62
     7
370
     0
100
AcDbLine
 10
224.9724100329
 20
112.8947250537
 30
0.0
 11
230.2724100329
 21
112.8947250537
 31
0.0
  0
LINE
  5
E2
330
1F
100
AcDbEntity
  8
0
  6
HIDDEN
 62
     7
370
     0
100
AcDbLine
 10
224.9724100329
 20
103.2014459662
 30
0.0
 11
230.2724100329
 21
103.2014459662
 31
0.0
  0
LINE
  5
E3
330
1F
100
AcDbEntity
  8
0
  6
HIDDEN
 62
     7
370
     0
100
AcDbLine
 10
176.2224100329
 20
145.14808551
 30
0.0
 11
185.7224100329
 21
145.14808551
 31
0.0
  0
SPLINE
  5
E4
330
1F
100
AcDbEntity
  8
0
  6
HIDDEN
 62
     7
370
     0
100
AcDbSpline
210
0.0
220
0.0
230
1.0
 70
    11
 71
     3
 72
    20
 73
    16
 74
     0
 42
0.000000001
 43
0.00000001
 40
0.0
 40
0.0
 40
0.0
 40
0.0
 40
0.1250000000000002
 40
0.1250000000000002
 40
0.2500000000000006
 40
0.2500000000000006
 40
0.5000000000000011
 40
0.5000000000000011
 40
0.6250000000000013
 40
0.6250000000000013
 40
0.7500000000000017
 40
0.7500000000000017
 40
0.8750000000000009
 40
0.8750000000000009
 40
1.0
 40
1.0
 40
1.0
 40
1.0
 10
230.472410032861
 20
115.4480855099598
 30
0.0
 10
230.4724100328609
 20
115.5472601912703
 30
0.0
 10
230.4725764755179
 20
115.6368068089494
 30
0.0
 10
230.4706161362148
 20
115.7972034856077
 30
0.0
 10
230.4686277693132
 20
115.8673333531982
 30
0.0
 10
230.4616241185007
 20
116.0367236285479
 30
0.0
 10
230.4538952955507
 20
116.0980690508201
 30
0.0
 10
230.4482137040342
 20
116.0980937344404
 30
0.0
 10
230.4472202612493
 20
116.0833913463479
 30
0.0
 10
230.448803761106
 20
116.0246075104828
 30
0.0
 10
230.4511331761092
 20
115.9807920988395
 30
0.0
 10
230.457802975617
 20
115.8679030233742
 30
0.0
 10
230.4623967701577
 20
115.7975558316521
 30
0.0
 10
230.4696741906389
 20
115.6380111093872
 30
0.0
 10
230.4724100020887
 20
115.5472770760619
 30
0.0
 10
230.4724099079108
 20
115.4480855099619
 30
0.0
  0
LWPOLYLINE
  5
E5
330
1F
100
AcDbEntity
  8
0
  6
HIDDEN
 62
     7
370
     0
100
AcDbPolyline
 90
        4
 70
   128
 43
0.0
 10
230.4724099079
 20
115.44808551
 10
230.4724100316
 20
114.7059748094
 10
230.4724100495
 20
113.9638641088
 10
230.472410033
 20
112.9506897207
  0
LWPOLYLINE
  5
E6
330
1F
100
AcDbEntity
  8
0
  6
HIDDEN
 62
     7
370
     0
100
AcDbPolyline
 90
        3
 70
   128
 43
0.0
 10
230.4724100831
 20
100.64808551
 10
230.4724100284
 20
101.9247657381
 10
230.4724100328
 20
103.1454812993
  0
SPLINE
  5
E7
330
1F
100
AcDbEntity
  8
0
  6
HIDDEN
 62
     7
370
     0
100
AcDbSpline
210
0.0
220
0.0
230
1.0
 70
     8
 71
     3
 72
    11
 73
     7
 74
     0
 42
0.000000001
 43
0.00000001
 40
0.0
 40
0.0
 40
0.0
 40
0.0
 40
0.2832653816796799
 40
0.6060535643999632
 40
0.9293812402115894
 40
1.0
 40
1.0
 40
1.0
 40
1.0
 10
230.4506190640722
 20
100.0062143476778
 30
0.0
 10
230.4490363816243
 20
100.0147218393188
 30
0.0
 10
230.44565019185
 20
100.0329238363385
 30
0.0
 10
230.4587882061092
 20
100.2363018604697
 30
0.0
 10
230.4715467162845
 20
100.4697443026946
 30
0.0
 10
230.4722788423068
 20
100.6209757845605
 30
0.0
 10
230.4724100830721
 20
100.6480855099578
 30
0.0
  0
LINE
  5
E8
330
1F
100
AcDbEntity
  8
0
  6
HIDDEN
 62
     7
370
     0
100
AcDbLine
 10
224.9724100329
 20
100.64808551
 30
0.0
 11
224.9724100329
 21
103.2014459662
 31
0.0
  0
LINE
  5
E9
330
1F
100
AcDbEntity
  8
0
  6
HIDDEN
 62
     7
370
     0
100
AcDbLine
 10
224.9724100329
 20
115.44808551
 30
0.0
 11
224.9724100329
 21
112.8947250537
 31
0.0
  0
LINE
  5
EA
330
1F
100
AcDbEntity
  8
0
  6
HIDDEN
 62
     7
370
     0
100
AcDbLine
 10
224.9724100329
 20
116.09808551
 30
0.0
 11
224.9724100329
 21
115.44808551
 31
0.0
  0
LINE
  5
EB
330
1F
100
AcDbEntity
  8
0
  6
HIDDEN
 62
     7
370
     0
100
AcDbLine
 10
224.9724100329
 20
99.99808551
 30
0.0
 11
224.9724100329
 21
100.64808551
 31
0.0
  0
ARC
  5
EC
330
1F
100
AcDbEntity
  8
0
  6
HIDDEN
 62
     7
370
     0
100
AcDbCircle
 10
69.4724100329
 20
93.64808551
 30
0.0
 40
1.200000000000003
100
AcDbArc
 50
90.0
 51
180.0
  0
ARC
  5
ED
330
1F
100
AcDbEntity
  8
0
  6
HIDDEN
 62
     7
370
     0
100
AcDbCircle
 10
69.4724100329
 20
122.44808551
 30
0.0
 40
1.200000000000003
100
AcDbArc
 50
180.0
 51
270.0
  0
LINE
  5
EE
330
1F
100
AcDbEntity
  8
0
  6
HIDDEN
 62
     7
370
     0
100
AcDbLine
 10
69.4724100329
 20
94.84808551
 30
0.0
 11
74.3914699252
 21
94.84808551
 31
0.0
  0
LINE
  5
EF
330
1F
100
AcDbEntity
  8
0
  6
HIDDEN
 62
     7
370
     0
100
AcDbLine
 10
74.3914699252
 20
121.24808551
 30
0.0
 11
69.4724100329
 21
121.24808551
 31
0.0
  0
ARC
  5
F0
330
1F
100
AcDbEntity
  8
0
  6
HIDDEN
 62
     7
370
     0
100
AcDbCircle
 10
74.3914699252
 20
95.24808551
 30
0.0
 40
0.4000000000000173
100
AcDbArc
 50
270.0
 51
330.0
  0
ARC
  5
F1
330
1F
100
AcDbEntity
  8
0
  6
HIDDEN
 62
     7
370
     0
100
AcDbCircle
 10
74.3914699252
 20
120.84808551
 30
0.0
 40
0.4000000000000173
100
AcDbArc
 50
30.0
 51
90.0
  0
LINE
  5
F2
330
1F
100
AcDbEntity
  8
0
  6
HIDDEN
 62
     7
370
     0
100
AcDbLine
 10
74.7378800867
 20
95.04808551
 30
0.0
 11
75.8204118414
 21
96.92308551
 31
0.0
  0
LINE
  5
F3
330
1F
100
AcDbEntity
  8
0
  6
HIDDEN
 62
     7
370
     0
100
AcDbLine
 10
75.8204118414
 20
119.17308551
 30
0.0
 11
74.7378800867
 21
121.04808551
 31
0.0
  0
LINE
  5
F4
330
1F
100
AcDbEntity
  8
0
  6
HIDDEN
 62
     7
370
     0
100
AcDbLine
 10
75.8204118414
 20
96.92308551
 30
0.0
 11
130.2724100329
 21
96.92308551
 31
0.0
  0
LINE
  5
F5
330
1F
100
AcDbEntity
  8
0
  6
HIDDEN
 62
     7
370
     0
100
AcDbLine
 10
130.2724100329
 20
119.17308551
 30
0.0
 11
75.8204118414
 21
119.17308551
 31
0.0
  0
LINE
  5
F6
330
1F
100
AcDbEntity
  8
0
  6
HIDDEN
 62
     7
370
     0
100
AcDbLine
 10
130.2724100329
 20
96.92308551
 30
0.0
 11
135.6951771196
 21
105.94808551
 31
0.0
  0
LINE
  5
F7
330
1F
100
AcDbEntity
  8
0
  6
HIDDEN
 62
     7
370
     0
100
AcDbLine
 10
135.6951771196
 20
110.14808551
 30
0.0
 11
130.2724100329
 21
119.17308551
 31
0.0
  0
ARC
  5
F8
330
1F
100
AcDbEntity
  8
0
  6
HIDDEN
 62
     7
370
     0
100
AcDbCircle
 10
218.1724100329
 20
113.24808551
 30
0.0
 40
0.7999999999999972
100
AcDbArc
 50
90.0
 51
180.0
  0
ARC
  5
F9
330
1F
100
AcDbEntity
  8
0
  6
HIDDEN
 62
     7
370
     0
100
AcDbCircle
 10
218.1724100329
 20
102.84808551
 30
0.0
 40
0.7999999999999972
100
AcDbArc
 50
180.0
 51
270.0
  0
LINE
  5
FA
330
1F
100
AcDbEntity
  8
0
  6
HIDDEN
 62
     7
370
     0
100
AcDbLine
 10
218.7670880348
 20
114.04808551
 30
0.0
 11
218.1724100329
 21
114.04808551
 31
0.0
  0
LINE
  5
FB
330
1F
100
AcDbEntity
  8
0
  6
HIDDEN
 62
     7
370
     0
100
AcDbLine
 10
218.1724100329
 20
102.04808551
 30
0.0
 11
218.7670880348
 21
102.04808551
 31
0.0
  0
ARC
  5
FC
330
1F
100
AcDbEntity
  8
0
  6
HIDDEN
 62
     7
370
     0
100
AcDbCircle
 10
218.7670880348
 20
113.24808551
 30
0.0
 40
0.7999999999999972
100
AcDbArc
 50
75.0
 51
90.0
  0
ARC
  5
FD
330
1F
100
AcDbEntity
  8
0
  6
HIDDEN
 62
     7
370
     0
100
AcDbCircle
 10
218.7670880348
 20
102.84808551
 30
0.0
 40
0.7999999999999972
100
AcDbArc
 50
270.0
 51
285.0
  0
LINE
  5
FE
330
1F
100
AcDbEntity
  8
0
  6
HIDDEN
 62
     7
370
     0
100
AcDbLine
 10
218.9741432709
 20
102.0753448489
 30
0.0
 11
220.7384354366
 21
102.54808551
 31
0.0
  0
LINE
  5
FF
330
1F
100
AcDbEntity
  8
0
  6
HIDDEN
 62
     7
370
     0
100
AcDbLine
 10
220.7384354366
 20
113.54808551
 30
0.0
 11
218.9741432709
 21
114.020826171
 31
0.0
  0
LINE
  5
100
330
1F
100
AcDbEntity
  8
0
  6
HIDDEN
 62
     7
370
     0
100
AcDbLine
 10
224.9724100329
 20
113.54808551
 30
0.0
 11
220.7384354366
 21
113.54808551
 31
0.0
  0
LINE
  5
101
330
1F
100
AcDbEntity
  8
0
  6
HIDDEN
 62
     7
370
     0
100
AcDbLine
 10
220.7384354366
 20
102.54808551
 30
0.0
 11
224.9724100329
 21
102.54808551
 31
0.0
  0
LINE
  5
102
330
1F
100
AcDbEntity
  8
0
  6
HIDDEN
 62
     7
370
     0
100
AcDbLine
 10
176.2224100329
 20
145.54808551
 30
0.0
 11
176.2224100329
 21
145.14808551
 31
0.0
  0
LINE
  5
103
330
1F
100
AcDbEntity
  8
0
  6
HIDDEN
 62
     7
370
     0
100
AcDbLine
 10
185.7224100329
 20
145.14808551
 30
0.0
 11
185.7224100329
 21
145.54808551
 31
0.0
  0
LINE
  5
104
330
1F
100
AcDbEntity
  8
0
  6
HIDDEN
 62
     7
370
     0
100
AcDbLine
 10
176.2224100329
 20
145.14808551
 30
0.0
 11
180.9724100329
 21
142.2939975696
 31
0.0
  0
LINE
  5
105
330
1F
100
AcDbEntity
  8
0
  6
HIDDEN
 62
     7
370
     0
100
AcDbLine
 10
180.9724100329
 20
142.2939975696
 30
0.0
 11
185.7224100329
 21
145.14808551
 31
0.0
  0
LINE
  5
106
330
1F
100
AcDbEntity
  8
0
  6
HIDDEN
 62
     7
370
     0
100
AcDbLine
 10
230.8724100329
 20
116.5203882421
 30
0.0
 11
230.444329112
 21
116.0924153225
 31
0.0
  0
LINE
  5
107
330
1F
100
AcDbEntity
  8
0
  6
HIDDEN
 62
     7
370
     0
100
AcDbLine
 10
230.4443303122
 20
100.0037453536
 30
0.0
 11
230.8724100329
 21
99.5757773549
 31
0.0
  0
LINE
  5
108
330
1F
100
AcDbEntity
  8
0
  6
HIDDEN
 62
     7
370
     0
100
AcDbLine
 10
135.6951771196
 20
105.94808551
 30
0.0
 11
217.3724100329
 21
105.94808551
 31
0.0
  0
LINE
  5
109
330
1F
100
AcDbEntity
  8
0
  6
HIDDEN
 62
     7
370
     0
100
AcDbLine
 10
217.3724100329
 20
110.14808551
 30
0.0
 11
135.6951771196
 21
110.14808551
 31
0.0
  0
LINE
  5
10A
330
1F
100
AcDbEntity
  8
0
  6
HIDDEN
 62
     7
370
     0
100
AcDbLine
 10
230.4501681078
 20
116.09808551
 30
0.0
 11
224.9724100329
 21
116.09808551
 31
0.0
  0
LINE
  5
10B
330
1F
100
AcDbEntity
  8
0
  6
HIDDEN
 62
     7
370
     0
100
AcDbLine
 10
224.9724100329
 20
99.99808551
 30
0.0
 11
230.4506684894
 21
99.99808551
 31
0.0
  0
DIMENSION
  5
10C
330
1F
100
AcDbEntity
  8
VERMASSUNG
100
AcDbDimension
  2
_D
 10
59.4122136094
 20
157.26058551
 30
0.0
 11
59.4122136094
 21
108.04808551
 31
0.0
 70
   160
  1
CAT 50 %%c<>
 71
     2
 42
-1.0
  3
SLDDIMSTYLE0
100
AcDbAlignedDimension
 13
188.3224100329
 23
58.83558551
 33
0.0
 14
188.3224100329
 24
157.26058551
 34
0.0
 50
90.0
100
AcDbRotatedDimension
  0
DIMENSION
  5
119
330
1F
100
AcDbEntity
  8
VERMASSUNG
100
AcDbDimension
  2
_D_1
 10
237.4450202742
 20
102.54808551
 30
0.0
 11
237.4450202742
 21
108.04808551
 31
0.0
 70
   160
  1
%%c<>
 71
     2
 42
-1.0
  3
SLDDIMSTYLE0
100
AcDbAlignedDimension
 13
224.9724100329
 23
113.54808551
 33
0.0
 14
224.9724100329
 24
102.54808551
 34
0.0
 50
90.0
100
AcDbRotatedDimension
  0
DIMENSION
  5
124
330
1F
100
AcDbEntity
  8
VERMASSUNG
100
AcDbDimension
  2
_D_2
 10
230.8724100329
 20
170.2344916559
 30
0.0
 11
149.5724100329
 21
170.2344916559
 31
0.0
 70
   160
  1
(<>)
 71
     2
 42
-1.0
  3
SLDDIMSTYLE0
100
AcDbAlignedDimension
 13
68.2724100329
 23
126.4269300374
 33
0.0
 14
230.8724100329
 24
117.84808551
 34
0.0
100
AcDbRotatedDimension
  0
DIMENSION
  5
130
330
1F
100
AcDbEntity
  8
VERMASSUNG
100
AcDbDimension
  2
_D_3
 10
230.8724100329
 20
164.2344916559
 30
0.0
 11
200.3724100329
 21
164.2344916559
 31
0.0
 70
   160
  1
<>
 71
     2
 42
-1.0
  3
SLDDIMSTYLE0
100
AcDbAlignedDimension
 13
169.8724100329
 23
142.97308551
 33
0.0
 14
230.8724100329
 24
117.84808551
 34
0.0
100
AcDbRotatedDimension
  0
DIMENSION
  5
13A
330
1F
100
AcDbEntity
  8
VERMASSUNG
100
AcDbDimension
  2
_D_4
 10
243.4450202742
 20
98.04808551
 30
0.0
 11
243.4450202742
 21
108.04808551
 31
0.0
 70
   160
  1
ST1 %%c<>
 71
     2
 42
-1.0
  3
SLDDIMSTYLE0
100
AcDbAlignedDimension
 13
230.6724100329
 23
118.04808551
 33
0.0
 14
230.6724100329
 24
98.04808551
 34
0.0
 50
90.0
100
AcDbRotatedDimension
  0
DIMENSION
  5
146
330
1F
100
AcDbEntity
  8
VERMASSUNG
100
AcDbDimension
  2
_D_5
 10
204.8724100329
 20
158.2344916559
 30
0.0
 11
217.8724100329
 21
158.2344916559
 31
0.0
 70
   160
  1
(<>)
 71
     2
 42
-1.0
  3
SLDDIMSTYLE0
100
AcDbAlignedDimension
 13
230.8724100329
 23
117.84808551
 33
0.0
 14
204.8724100329
 24
141.97308551
 34
0.0
100
AcDbRotatedDimension
  0
LINE
  5
152
330
1F
100
AcDbEntity
  8
VERMASSUNG
  6
CENTERX2
 62
     7
370
     0
100
AcDbLine
 10
66.2724100329
 20
108.04808551
 30
0.0
 11
232.9277201417
 21
108.04808551
 31
0.0
  0
LINE
  5
153
330
1F
100
AcDbEntity
  8
0
  6
Continuous
 62
     7
370
    15
100
AcDbLine
 10
275.6397471007
 20
38.1276195551
 30
0.0
 11
275.5513443909
 21
38.178669942
 31
0.0
  0
LINE
  5
154
330
1F
100
AcDbEntity
  8
0
  6
Continuous
 62
     7
370
    15
100
AcDbLine
 10
274.3137064546
 20
38.178669942
 30
0.0
 11
274.2253037449
 21
38.1276195551
 31
0.0
  0
LINE
  5
155
330
1F
100
AcDbEntity
  8
0
  6
Continuous
 62
     7
370
    15
100
AcDbLine
 10
275.9325254228
 20
37.617414237
 30
0.0
 11
275.9325254228
 21
37.7194818384
 31
0.0
  0
LINE
  5
156
330
1F
100
AcDbEntity
  8
0
  6
Continuous
 62
     7
370
    15
100
AcDbLine
 10
273.9325254228
 20
37.7194818384
 30
0.0
 11
273.9325254228
 21
37.617414237
 31
0.0
  0
SPLINE
  5
157
330
1F
100
AcDbEntity
  8
0
  6
Continuous
 62
     7
370
    15
100
AcDbSpline
210
0.0
220
0.0
230
1.0
 70
     8
 71
     3
 72
     9
 73
     5
 74
     0
 42
0.000000001
 43
0.00000001
 40
0.0
 40
0.0
 40
0.0
 40
0.0
 40
0.7198374306060922
 40
1.0
 40
1.0
 40
1.0
 40
1.0
 10
278.4796682102807
 20
56.48272315151896
 30
0.0
 10
278.4496699220832
 20
56.59701257763237
 30
0.0
 10
278.4079962233812
 20
56.75578374075064
 30
0.0
 10
278.3522129524011
 20
56.90176144973525
 30
0.0
 10
278.3365845678741
 20
56.94265893975862
 30
0.0
  0
LINE
  5
158
330
1F
100
AcDbEntity
  8
0
  6
Continuous
 62
     7
370
    15
100
AcDbLine
 10
273.976398433
 20
62.7028862488
 30
0.0
 11
272.6244692291
 21
63.4833383658
 31
0.0
  0
SPLINE
  5
159
330
1F
100
AcDbEntity
  8
0
  6
Continuous
 62
     7
370
    15
100
AcDbSpline
210
0.0
220
0.0
230
1.0
 70
     8
 71
     3
 72
    19
 73
    15
 74
     0
 42
0.000000001
 43
0.00000001
 40
0.0
 40
0.0
 40
0.0
 40
0.0
 40
0.02362391903177
 40
0.1126834264353068
 40
0.2023374706616441
 40
0.2925232631767248
 40
0.3830979002766079
 40
0.4739071801938098
 40
0.5648262148442074
 40
0.6557628214186919
 40
0.7466668573944434
 40
0.8375218020858161
 40
0.9283247896510791
 40
1.0
 40
1.0
 40
1.0
 40
1.0
 10
260.9942081663102
 20
22.2911652622533
 30
0.0
 10
261.081862125385
 20
22.27749501418911
 30
0.0
 10
261.4999616132769
 20
22.21228947441297
 30
0.0
 10
262.2975835535316
 20
22.23286647556324
 30
0.0
 10
263.3791620966916
 20
22.35726975292847
 30
0.0
 10
264.4980438156589
 20
22.6294874460828
 30
0.0
 10
265.6395003356894
 20
23.03384955563049
 30
0.0
 10
266.794443439556
 20
23.5705638525695
 30
0.0
 10
267.9520601587911
 20
24.23352705907605
 30
0.0
 10
269.1020289486661
 20
25.01695142422444
 30
0.0
 10
270.234942455487
 20
25.91265400938518
 30
0.0
 10
271.3393178878215
 20
26.91571091398027
 30
0.0
 10
272.3381318593621
 20
27.92931021738706
 30
0.0
 10
272.9434285551075
 20
28.64424776606834
 30
0.0
 10
273.2104475677997
 20
28.95963345993933
 30
0.0
  0
SPLINE
  5
15A
330
1F
100
AcDbEntity
  8
0
  6
Continuous
 62
     7
370
    15
100
AcDbSpline
210
0.0
220
0.0
230
1.0
 70
     8
 71
     3
 72
    19
 73
    15
 74
     0
 42
0.000000001
 43
0.00000001
 40
0.0
 40
0.0
 40
0.0
 40
0.0
 40
0.0838086016128343
 40
0.1740939195320244
 40
0.2644390263048469
 40
0.3548540701946722
 40
0.4453447243143178
 40
0.5359080811683893
 40
0.6265260066968396
 40
0.7171400886495305
 40
0.8076504176681517
 40
0.8979166867444965
 40
0.9877654625599127
 40
1.0
 40
1.0
 40
1.0
 40
1.0
 10
278.2139959079104
 20
37.61783909734901
 30
0.0
 10
278.374563336571
 20
38.07531009482965
 30
0.0
 10
278.708106820972
 20
39.02560538064709
 30
0.0
 10
279.09393475956
 20
40.4638901534469
 30
0.0
 10
279.3955248444483
 20
41.91850785600456
 30
0.0
 10
279.5903417814004
 20
43.34285925903961
 30
0.0
 10
279.6789527334818
 20
44.72500229675938
 30
0.0
 10
279.6591158391411
 20
46.05332901070652
 30
0.0
 10
279.5305880269191
 20
47.31674804883909
 30
0.0
 10
279.2926526262196
 20
48.50303658462974
 30
0.0
 10
278.9498307222719
 20
49.6050653835017
 30
0.0
 10
278.4926873184882
 20
50.59778572617379
 30
0.0
 10
278.1195085928765
 20
51.25948209493797
 30
0.0
 10
277.8719493870765
 20
51.55269389809327
 30
0.0
 10
277.8422797743317
 20
51.58783490859907
 30
0.0
  0
LINE
  5
15B
330
1F
100
AcDbEntity
  8
0
  6
Continuous
 62
     7
370
    15
100
AcDbLine
 10
270.1310927951
 20
64.9227339427
 30
0.0
 11
268.788002426
 21
65.698083509
 31
0.0
  0
LINE
  5
15C
330
1F
100
AcDbEntity
  8
0
  6
Continuous
 62
     7
370
    15
100
AcDbLine
 10
253.3679969099
 20
26.024370736
 30
0.0
 11
258.4414880649
 21
23.0955066348
 31
0.0
  0
LINE
  5
15D
330
1F
100
AcDbEntity
  8
0
  6
Continuous
 62
     7
370
    15
100
AcDbLine
 10
275.9025689336
 20
53.3422631534
 30
0.0
 11
270.8290777786
 21
56.2711272546
 31
0.0
  0
SPLINE
  5
15E
330
1F
100
AcDbEntity
  8
0
  6
Continuous
 62
     7
370
    15
100
AcDbSpline
210
0.0
220
0.0
230
1.0
 70
     8
 71
     3
 72
    28
 73
    24
 74
     0
 42
0.000000001
 43
0.00000001
 40
0.0
 40
0.0
 40
0.0
 40
0.0
 40
0.0248697695377521
 40
0.0741715535135196
 40
0.1235232554132944
 40
0.1729022031213511
 40
0.2222918856778838
 40
0.2716791756041529
 40
0.321058682020663
 40
0.3704280454004716
 40
0.4197867360400138
 40
0.4691353690839433
 40
0.5184752464384479
 40
0.567808065194866
 40
0.6171357405068224
 40
0.6664603036108613
 40
0.7157838470334899
 40
0.7651083716412285
 40
0.8144354393720997
 40
0.8637672093387238
 40
0.9131058352983096
 40
0.9624534288925884
 40
1.0
 40
1.0
 40
1.0
 40
1.0
 10
261.449657856232
 20
66.54620400600487
 30
0.0
 10
261.2300253101031
 20
66.50011881851076
 30
0.0
 10
260.5749936209764
 20
66.36267444271097
 30
0.0
 10
259.4559847886184
 20
65.98775363594453
 30
0.0
 10
258.1038222956853
 20
65.43323308250207
 30
0.0
 10
256.7406396238815
 20
64.74324183551366
 30
0.0
 10
255.3767421458533
 20
63.9311391770279
 30
0.0
 10
254.0199757860125
 20
62.99969058532851
 30
0.0
 10
252.6786923341269
 20
61.95539465558883
 30
0.0
 10
251.3609037432303
 20
60.80455469682701
 30
0.0
 10
250.07450400256
 20
59.55429451356461
 30
0.0
 10
248.8271807583604
 20
58.21224564421306
 30
0.0
 10
247.6263939289904
 20
56.7865818439249
 30
0.0
 10
246.4793313920111
 20
55.28595550021176
 30
0.0
 10
245.3928718022364
 20
53.71945575831221
 30
0.0
 10
244.3735356554605
 20
52.09655347707477
 30
0.0
 10
243.4274788473063
 20
50.42705507175425
 30
0.0
 10
242.5603408961762
 20
48.72102278669215
 30
0.0
 10
241.7776446774064
 20
46.98880859644852
 30
0.0
 10
241.0831286655929
 20
45.24061414465745
 30
0.0
 10
240.4848278895506
 20
43.48782455520515
 30
0.0
 10
240.0131484587183
 20
41.87735121479384
 30
0.0
 10
239.7856145024436
 20
40.86342004748672
 30
0.0
 10
239.6872981206941
 20
40.42530502788775
 30
0.0
  0
LINE
  5
15F
330
1F
100
AcDbEntity
  8
0
  6
Continuous
 62
     7
370
    15
100
AcDbLine
 10
276.6478339908
 20
28.6665782626
 30
0.0
 11
276.7185331765
 21
28.7074053027
 31
0.0
  0
LINE
  5
160
330
1F
100
AcDbEntity
  8
0
  6
Continuous
 62
     7
370
    15
100
AcDbLine
 10
280.1827932731
 20
34.7083300133
 30
0.0
 11
280.1827932731
 21
34.7899708245
 31
0.0
  0
LINE
  5
161
330
1F
100
AcDbEntity
  8
0
  6
Continuous
 62
     7
370
    15
100
AcDbLine
 10
279.1470561987
 20
37.0791948568
 30
0.0
 11
271.4395922838
 21
41.5286190663
 31
0.0
  0
LINE
  5
162
330
1F
100
AcDbEntity
  8
0
  6
Continuous
 62
     7
370
    15
100
AcDbLine
 10
266.4399986206
 20
32.8681304424
 30
0.0
 11
274.1474625356
 21
28.418706233
 31
0.0
  0
SPLINE
  5
163
330
1F
100
AcDbEntity
  8
0
  6
Continuous
 62
     7
370
    15
100
AcDbSpline
210
0.0
220
0.0
230
1.0
 70
     8
 71
     3
 72
    15
 73
    11
 74
     0
 42
0.000000001
 43
0.00000001
 40
0.0
 40
0.0
 40
0.0
 40
0.0
 40
0.0029003365498041
 40
0.1697832745607991
 40
0.3357411653878929
 40
0.5003523548515958
 40
0.6637470261321947
 40
0.8273452416039325
 40
0.9958909734028687
 40
1.0
 40
1.0
 40
1.0
 40
1.0
 10
275.5879654251458
 20
34.08205882571986
 30
0.0
 10
275.5900129687504
 20
34.08513741026928
 30
0.0
 10
275.7098744579346
 20
34.26535517356552
 30
0.0
 10
275.998840219625
 20
34.56291694463758
 30
0.0
 10
276.4295410429791
 20
34.93658146736766
 30
0.0
 10
276.8655547146962
 20
35.18650186574501
 30
0.0
 10
277.2711368132364
 20
35.31764228949594
 30
0.0
 10
277.6139350054149
 20
35.31428714020863
 30
0.0
 10
277.8131712604413
 20
35.27697458988672
 30
0.0
 10
277.8881288624157
 20
35.20668867085115
 30
0.0
 10
277.8899127853323
 20
35.20501592974975
 30
0.0
  0
SPLINE
  5
164
330
1F
100
AcDbEntity
  8
0
  6
Continuous
 62
     7
370
    15
100
AcDbSpline
210
0.0
220
0.0
230
1.0
 70
     8
 71
     3
 72
    10
 73
     6
 74
     0
 42
0.000000001
 43
0.00000001
 40
0.0
 40
0.0
 40
0.0
 40
0.0
 40
0.0894401723836895
 40
0.5481477130342418
 40
1.0
 40
1.0
 40
1.0
 40
1.0
 10
274.9148174890763
 20
32.87400945694212
 30
0.0
 10
274.9287008781522
 20
32.91186173627912
 30
0.0
 10
275.0137873417431
 20
33.14384519291541
 30
0.0
 10
275.225575809012
 20
33.56678521898476
 30
0.0
 10
275.4677766987905
 20
33.91116519146312
 30
0.0
 10
275.5879654251458
 20
34.08205882571986
 30
0.0
  0
LINE
  5
165
330
1F
100
AcDbEntity
  8
0
  6
Continuous
 62
     7
370
    15
100
AcDbLine
 10
254.9316703288
 20
63.604921137
 30
0.0
 11
224.3722737671
 21
74.6173163253
 31
0.0
  0
LINE
  5
166
330
1F
100
AcDbEntity
  8
0
  6
Continuous
 62
     7
370
    15
100
AcDbLine
 10
214.2484146944
 20
57.0803778788
 30
0.0
 11
243.8602530051
 21
32.0763864067
 31
0.0
  0
SPLINE
  5
167
330
1F
100
AcDbEntity
  8
0
  6
Continuous
 62
     7
370
    15
100
AcDbSpline
210
0.0
220
0.0
230
1.0
 70
     8
 71
     3
 72
     9
 73
     5
 74
     0
 42
0.000000001
 43
0.00000001
 40
0.0
 40
0.0
 40
0.0
 40
0.0
 40
0.74789826633532
 40
0.9999999999999999
 40
0.9999999999999999
 40
0.9999999999999999
 40
0.9999999999999999
 10
275.1217226935183
 20
30.45618552175235
 30
0.0
 10
275.0383417194308
 20
30.51768573106208
 30
0.0
 10
274.9268546658558
 20
30.59991644622482
 30
0.0
 10
274.8442550848989
 20
30.74122872432339
 30
0.0
 10
274.8234315873396
 20
30.77685379462014
 30
0.0
  0
SPLINE
  5
168
330
1F
100
AcDbEntity
  8
0
  6
Continuous
 62
     7
370
    15
100
AcDbSpline
210
0.0
220
0.0
230
1.0
 70
     8
 71
     3
 72
    13
 73
     9
 74
     0
 42
0.000000001
 43
0.00000001
 40
0.0
 40
0.0
 40
0.0
 40
0.0
 40
0.0795153057898251
 40
0.2748550459449243
 40
0.4704022480423251
 40
0.6660648926069571
 40
0.8617752425874584
 40
0.9999999999999999
 40
0.9999999999999999
 40
0.9999999999999999
 40
0.9999999999999999
 10
256.714087233698
 20
19.23459256546795
 30
0.0
 10
256.8909884054382
 20
19.27037906845854
 30
0.0
 10
257.5024704239428
 20
19.39407979281577
 30
0.0
 10
258.5769570253032
 20
19.74752824101537
 30
0.0
 10
259.9276362655113
 20
20.2877787889885
 30
0.0
 10
261.2900086978697
 20
20.96937089685576
 30
0.0
 10
262.5216907141573
 20
21.68033501651989
 30
0.0
 10
263.2924169817633
 20
22.21522776843154
 30
0.0
 10
263.6114413940301
 20
22.43663432089592
 30
0.0
  0
LINE
  5
169
330
1F
100
AcDbEntity
  8
0
  6
Continuous
 62
     7
370
    15
100
AcDbLine
 10
248.0202189142
 20
20.8629087259
 30
0.0
 11
249.3721481181
 21
20.0824566089
 31
0.0
  0
LINE
  5
16A
330
1F
100
AcDbEntity
  8
0
  6
Continuous
 62
     7
370
    15
100
AcDbLine
 10
244.1837521111
 20
23.0776538691
 30
0.0
 11
245.5268424802
 21
22.3023043028
 31
0.0
  0
LINE
  5
16B
330
1F
100
AcDbEntity
  8
0
  6
Continuous
 62
     7
370
    15
100
AcDbLine
 10
239.6939441324
 20
29.2509408227
 30
0.0
 11
239.8138969381
 21
28.85034562
 31
0.0
  0
SPLINE
  5
16C
330
1F
100
AcDbEntity
  8
0
  6
Continuous
 62
     7
370
    15
100
AcDbSpline
210
0.0
220
0.0
230
1.0
 70
     8
 71
     3
 72
    26
 73
    22
 74
     0
 42
0.000000001
 43
0.00000001
 40
0.0
 40
0.0
 40
0.0
 40
0.0
 40
0.0246995444401341
 40
0.0756003611798187
 40
0.1272026254647101
 40
0.1799523621301511
 40
0.2338986396630974
 40
0.2887564054559901
 40
0.3441154247316031
 40
0.3996222018634722
 40
0.4550602522462228
 40
0.5103797645077793
 40
0.5655868538912229
 40
0.6207141721576017
 40
0.6758058008621659
 40
0.7309106283343701
 40
0.7860652242488291
 40
0.8413195639216553
 40
0.8967251715898421
 40
0.9523275995153351
 40
1.0
 40
1.0
 40
1.0
 40
1.0
 10
224.4221032850047
 20
74.57932891424667
 30
0.0
 10
224.3051727543794
 20
74.62739105734323
 30
0.0
 10
223.9472718072731
 20
74.77449965628851
 30
0.0
 10
223.2878239571012
 20
74.87413499708262
 30
0.0
 10
222.4629122183802
 20
74.88530752885637
 30
0.0
 10
221.5993152123741
 20
74.75236637338152
 30
0.0
 10
220.7095734859634
 20
74.48414656746094
 30
0.0
 10
219.8048360627067
 20
74.07963319451194
 30
0.0
 10
218.9004425626925
 20
73.54531949536303
 30
0.0
 10
218.0117793774273
 20
72.89063746606189
 30
0.0
 10
217.152915914847
 20
72.1275349833332
 30
0.0
 10
216.3361268144999
 20
71.26883288423765
 30
0.0
 10
215.5723016729331
 20
70.32774157633827
 30
0.0
 10
214.8715310618382
 20
69.31804179343939
 30
0.0
 10
214.2432087370815
 20
68.2540653798314
 30
0.0
 10
213.6959715033123
 20
67.15065648899288
 30
0.0
 10
213.2378575729844
 20
66.02307474734317
 30
0.0
 10
212.8751428421164
 20
64.88626251310056
 30
0.0
 10
212.6164705558834
 20
63.75642630562668
 30
0.0
 10
212.465272516124
 20
62.69832288178458
 30
0.0
 10
212.4475661182307
 20
62.03975571196082
 30
0.0
 10
212.4393927181437
 20
61.73575638948117
 30
0.0
  0
SPLINE
  5
16D
330
1F
100
AcDbEntity
  8
0
  6
Continuous
 62
     7
370
    15
100
AcDbSpline
210
0.0
220
0.0
230
1.0
 70
     8
 71
     3
 72
    13
 73
     9
 74
     0
 42
0.000000001
 43
0.00000001
 40
0.0
 40
0.0
 40
0.0
 40
0.0
 40
0.0976769996885443
 40
0.281847435506244
 40
0.4660218719146743
 40
0.6485393718949781
 40
0.8276743444166785
 40
0.9999999999999999
 40
0.9999999999999999
 40
0.9999999999999999
 40
0.9999999999999999
 10
212.4393927181437
 20
61.73575638948117
 30
0.0
 10
212.4426655182787
 20
61.55014562854985
 30
0.0
 10
212.4521091982433
 20
61.01456491724971
 30
0.0
 10
212.5578299570039
 20
60.17269485215606
 30
0.0
 10
212.7960316324958
 20
59.24563614413231
 30
0.0
 10
213.1563690310213
 20
58.4137984236835
 30
0.0
 10
213.6186016630192
 20
57.68588945817737
 30
0.0
 10
214.0145851116582
 20
57.30324052036789
 30
0.0
 10
214.2087408774257
 20
57.11562283635644
 30
0.0
  0
LWPOLYLINE
  5
16E
330
1F
100
AcDbEntity
  8
0
  6
Continuous
 62
     7
370
    15
100
AcDbPolyline
 90
       17
 70
   128
 43
0.0
 10
274.3138069892
 20
37.464370891
 10
274.1241308318
 20
37.6282458022
 10
274.0575254228
 20
37.8215494399
 10
274.1241308318
 20
38.0148530777
 10
274.3138069892
 20
38.1787279888
 10
274.5976774195
 20
38.2882257038
 10
274.9325254228
 20
38.326676188
 10
275.2673734261
 20
38.2882257038
 10
275.5512438563
 20
38.1787279888
 10
275.7409200137
 20
38.0148530777
 10
275.8075254228
 20
37.8215494399
 10
275.7409200137
 20
37.6282458022
 10
275.5512438563
 20
37.464370891
 10
275.2673734261
 20
37.3548731761
 10
274.9325254228
 20
37.3164226919
 10
274.5976774195
 20
37.3548731761
 10
274.3138069892
 20
37.464370891
  0
LWPOLYLINE
  5
16F
330
1F
100
AcDbEntity
  8
0
  6
Continuous
 62
     7
370
    15
100
AcDbPolyline
 90
        5
 70
   128
 43
0.0
 10
274.2254186416
 20
37.3112777825
 10
274.0086458903
 20
37.4985633953
 10
273.9325254228
 20
37.7194818384
 10
274.0086458903
 20
37.9404002816
 10
274.2253037449
 20
38.1276195551
  0
LWPOLYLINE
  5
170
330
1F
100
AcDbEntity
  8
0
  6
Continuous
 62
     7
370
    15
100
AcDbPolyline
 90
        9
 70
   128
 43
0.0
 10
275.6397471007
 20
38.1276195551
 10
275.8564049553
 20
37.9404002816
 10
275.9325254228
 20
37.7194818384
 10
275.8564049553
 20
37.4985633953
 10
275.639632204
 20
37.3112777825
 10
275.3152088551
 20
37.1861375369
 10
274.9325254228
 20
37.1421941264
 10
274.5498419904
 20
37.1861375369
 10
274.2254186416
 20
37.3112777825
  0
LWPOLYLINE
  5
171
330
1F
100
AcDbEntity
  8
0
  6
Continuous
 62
     7
370
    15
100
AcDbPolyline
 90
       17
 70
   128
 43
0.0
 10
274.4905836845
 20
37.566421905
 10
274.355100715
 20
37.683475413
 10
274.3075254228
 20
37.8215494399
 10
274.355100715
 20
37.9596234669
 10
274.4905836845
 20
38.0766769749
 10
274.6933482775
 20
38.1548896284
 10
274.9325254228
 20
38.18235426
 10
275.171702568
 20
38.1548896284
 10
275.374467161
 20
38.0766769749
 10
275.5099501306
 20
37.9596234669
 10
275.5575254228
 20
37.8215494399
 10
275.5099501306
 20
37.683475413
 10
275.374467161
 20
37.566421905
 10
275.171702568
 20
37.4882092514
 10
274.9325254228
 20
37.4607446199
 10
274.6933482775
 20
37.4882092514
 10
274.4905836845
 20
37.566421905
  0
SPLINE
  5
172
330
1F
100
AcDbEntity
  8
0
  6
Continuous
 62
     7
370
    15
100
AcDbSpline
210
0.0
220
0.0
230
1.0
 70
     8
 71
     3
 72
     9
 73
     5
 74
     0
 42
0.000000001
 43
0.00000001
 40
0.0
 40
0.0
 40
0.0
 40
0.0
 40
0.6286327601797476
 40
1.0
 40
1.0
 40
1.0
 40
1.0
 10
274.5790622724167
 20
37.51737875171268
 30
0.0
 10
274.534229163382
 20
37.54800306742941
 30
0.0
 10
274.4629107214002
 20
37.59671881636361
 30
0.0
 10
274.3986953661736
 20
37.66939009187228
 30
0.0
 10
274.374847886949
 20
37.69637782287215
 30
0.0
  0
SPLINE
  5
173
330
1F
100
AcDbEntity
  8
0
  6
Continuous
 62
     7
370
    15
100
AcDbSpline
210
0.0
220
0.0
230
1.0
 70
     8
 71
     3
 72
    10
 73
     6
 74
     0
 42
0.000000001
 43
0.00000001
 40
0.0
 40
0.0
 40
0.0
 40
0.0
 40
0.4391051671061733
 40
0.7513578980692757
 40
1.0
 40
1.0
 40
1.0
 40
1.0
 10
275.4902029585994
 20
37.86890515721879
 30
0.0
 10
275.4688116120712
 20
37.79485647715923
 30
0.0
 10
275.4322086331761
 20
37.66815092966813
 30
0.0
 10
275.3789988626511
 20
37.57477722815236
 30
0.0
 10
275.3525142294367
 20
37.55550711921872
 30
0.0
 10
275.340773713238
 20
37.54696476848076
 30
0.0
  0
SPLINE
  5
174
330
1F
100
AcDbEntity
  8
0
  6
Continuous
 62
     7
370
    15
100
AcDbSpline
210
0.0
220
0.0
230
1.0
 70
     8
 71
     3
 72
    11
 73
     7
 74
     0
 42
0.000000001
 43
0.00000001
 40
0.0
 40
0.0
 40
0.0
 40
0.0
 40
0.1856336509827594
 40
0.5233285802669877
 40
0.8791086124659514
 40
1.0
 40
1.0
 40
1.0
 40
1.0
 10
275.0819546681355
 20
38.10458187878351
 30
0.0
 10
275.1058053843388
 20
38.07802873112673
 30
0.0
 10
275.1730440632257
 20
38.00317150027838
 30
0.0
 10
275.2989431784455
 20
37.9041252350534
 30
0.0
 10
275.4138327568575
 20
37.87107278554415
 30
0.0
 10
275.474752700413
 20
37.86934368450449
 30
0.0
 10
275.4902029585994
 20
37.86890515721879
 30
0.0
  0
SPLINE
  5
175
330
1F
100
AcDbEntity
  8
0
  6
Continuous
 62
     7
370
    15
100
AcDbSpline
210
0.0
220
0.0
230
1.0
 70
     8
 71
     3
 72
    10
 73
     6
 74
     0
 42
0.000000001
 43
0.00000001
 40
0.0
 40
0.0
 40
0.0
 40
0.0
 40
0.4391051671061744
 40
0.7513578980692771
 40
1.0
 40
1.0
 40
1.0
 40
1.0
 10
274.5242771323103
 20
38.01831821161019
 30
0.0
 10
274.6041107243959
 20
38.00270544476897
 30
0.0
 10
274.7407149013407
 20
37.9759902599895
 30
0.0
 10
274.9392964683989
 20
38.02797260367007
 30
0.0
 10
275.0381384651752
 20
38.08105201822721
 30
0.0
 10
275.0819546681355
 20
38.10458187878351
 30
0.0
  0
SPLINE
  5
176
330
1F
100
AcDbEntity
  8
0
  6
Continuous
 62
     7
370
    15
100
AcDbSpline
210
0.0
220
0.0
230
1.0
 70
     8
 71
     3
 72
    10
 73
     6
 74
     0
 42
0.000000001
 43
0.00000001
 40
0.0
 40
0.0
 40
0.0
 40
0.0
 40
0.4391051671061727
 40
0.7513578980692753
 40
0.9999999999999999
 40
0.9999999999999999
 40
0.9999999999999999
 40
0.9999999999999999
 10
274.374847886949
 20
37.69637782287215
 30
0.0
 10
274.3962392334772
 20
37.71450304625788
 30
0.0
 10
274.4328422123722
 20
37.74551732430635
 30
0.0
 10
274.4860519828972
 20
37.88142101980935
 30
0.0
 10
274.5125366161117
 20
37.97627145122964
 30
0.0
 10
274.5242771323103
 20
38.01831821161019
 30
0.0
  0
LINE
  5
177
330
1F
100
AcDbEntity
  8
0
  6
Continuous
 62
     7
370
    15
100
AcDbLine
 10
274.5242771323
 20
37.5483524394
 30
0.0
 11
274.5242771323
 21
38.0183182116
 31
0.0
  0
LINE
  5
178
330
1F
100
AcDbEntity
  8
0
  6
Continuous
 62
     7
370
    15
100
AcDbLine
 10
275.0819546681
 20
37.4712086089
 30
0.0
 11
275.0819546681
 21
38.1045818788
 31
0.0
  0
SPLINE
  5
179
330
1F
100
AcDbEntity
  8
0
  6
Continuous
 62
     7
370
    15
100
AcDbSpline
210
0.0
220
0.0
230
1.0
 70
     8
 71
     3
 72
    10
 73
     6
 74
     0
 42
0.000000001
 43
0.00000001
 40
0.0
 40
0.0
 40
0.0
 40
0.0
 40
0.4069907947005231
 40
0.8150728380584502
 40
1.0
 40
1.0
 40
1.0
 40
1.0
 10
278.4331474895379
 20
56.18957052164922
 30
0.0
 10
278.4514287842049
 20
56.2284430972476
 30
0.0
 10
278.4880403904662
 20
56.30629247597602
 30
0.0
 10
278.5020925954679
 20
56.41326023482439
 30
0.0
 10
278.48424421575
 20
56.46599664263138
 30
0.0
 10
278.4786782815671
 20
56.48244224607158
 30
0.0
  0
LWPOLYLINE
  5
17A
330
1F
100
AcDbEntity
  8
0
  6
Continuous
 62
     7
370
    15
100
AcDbPolyline
 90
       16
 70
   128
 43
0.0
 10
245.438016655
 20
37.5309249533
 10
245.7774989985
 20
38.88968845
 10
246.3349726417
 20
40.7428561389
 10
247.0013890313
 20
42.5997181114
 10
247.7720797079
 20
44.4472664569
 10
248.6416457375
 20
46.27255851
 10
249.6039955327
 20
48.0628075177
 10
250.6523875263
 20
49.8054722145
 10
251.7794773978
 20
51.4883446785
 10
252.9773695232
 20
53.0996358512
 10
254.237672286
 20
54.6280581239
 10
255.5515568635
 20
56.0629044111
 10
256.909819075
 20
57.394123157
 10
258.3029438606
 20
58.6123887495
 10
259.7211719366
 20
59.7091668496
 10
260.9909484749
 20
60.5733637874
  0
SPLINE
  5
17B
330
1F
100
AcDbEntity
  8
0
  6
Continuous
 62
     7
370
    15
100
AcDbSpline
210
0.0
220
0.0
230
1.0
 70
     8
 71
     3
 72
    12
 73
     8
 74
     0
 42
0.000000001
 43
0.00000001
 40
0.0
 40
0.0
 40
0.0
 40
0.0
 40
0.2499999999999988
 40
0.2499999999999988
 40
0.4999999999999976
 40
0.4999999999999976
 40
1.0
 40
1.0
 40
1.0
 40
1.0
 10
244.9734321208971
 20
37.38687569301047
 30
0.0
 10
245.0073664731596
 20
37.36728580843173
 30
0.0
 10
245.045829428396
 20
37.34012829804725
 30
0.0
 10
245.1201013213067
 20
37.28100772582069
 30
0.0
 10
245.1553793548603
 20
37.24964721889353
 30
0.0
 10
245.250681973346
 20
37.1578997551707
 30
0.0
 10
245.2993709945193
 20
37.10123403421855
 30
0.0
 10
245.3328733823897
 20
37.05319707530982
 30
0.0
  0
LWPOLYLINE
  5
17C
330
1F
100
AcDbEntity
  8
0
  6
Continuous
 62
     7
370
    15
100
AcDbPolyline
 90
       13
 70
   128
 43
0.0
 10
266.7698859993
 20
63.5453614444
 10
268.0607578327
 20
63.7690785382
 10
269.3823940673
 20
63.8552483146
 10
270.6508096332
 20
63.7863253782
 10
271.8572467634
 20
63.5627856069
 10
272.9933756209
 20
63.1861724298
 10
274.0513518115
 20
62.6590861698
 10
275.0238705456
 20
61.9851660907
 10
275.9042170742
 20
61.1690652691
 10
276.6863130504
 20
60.2164184678
 10
277.3647584978
 20
59.1338032301
 10
277.9348690943
 20
57.9286944659
 10
278.2579617277
 20
57.045490781
  0
LINE
  5
17D
330
1F
100
AcDbEntity
  8
0
  6
Continuous
 62
     7
370
    15
100
AcDbLine
 10
243.621502917
 20
38.16732781
 30
0.0
 11
244.9734321209
 21
37.386875693
 31
0.0
  0
LWPOLYLINE
  5
17E
330
1F
100
AcDbEntity
  8
0
  6
Continuous
 62
     7
370
    15
100
AcDbPolyline
 90
       26
 70
   128
 43
0.0
 10
243.621502917
 20
38.16732781
 10
244.0843142724
 20
40.0161614081
 10
244.6592409965
 20
41.879887737
 10
245.3423135116
 20
43.7456387105
 10
246.1288155482
 20
45.6005322636
 10
247.0133167081
 20
47.4317612959
 10
247.9897099589
 20
49.2266820989
 10
249.0512538
 20
50.9729016537
 10
250.1906188089
 20
52.6583631991
 10
251.3999382475
 20
54.271429477
 10
252.6708623778
 20
55.8009630821
 10
253.9946161126
 20
57.2364033597
 10
255.362059603
 20
58.5678393219
 10
256.7637513446
 20
59.7860780781
 10
258.190013366
 20
60.8827083068
 10
259.6309980505
 20
61.850158332
 10
261.0767561291
 20
62.6817484012
 10
262.5173053746
 20
63.3717368065
 10
263.9426995244
 20
63.9153595275
 10
265.3430969541
 20
64.3088631248
 10
266.7088286289
 20
64.5495306552
 10
268.0304648635
 20
64.6357004316
 10
269.2988804293
 20
64.5667774952
 10
270.5053175595
 20
64.3432377239
 10
271.641446417
 20
63.9666245468
 10
272.6244692291
 20
63.4833383658
  0
ARC
  5
17F
330
1F
100
AcDbEntity
  8
0
  6
Continuous
 62
     7
370
    15
100
AcDbCircle
 10
248.8625948595
 20
29.2145149801
 30
0.0
 40
0.6147219230288865
100
AcDbArc
 50
302.60547834
 51
357.3945215143
  0
LINE
  5
180
330
1F
100
AcDbEntity
  8
0
  6
Continuous
 62
     7
370
    15
100
AcDbLine
 10
249.4766813001
 20
31.8694576567
 30
0.0
 11
249.4766813001
 21
29.1865706392
 31
0.0
  0
LINE
  5
181
330
1F
100
AcDbEntity
  8
0
  6
Continuous
 62
     7
370
    15
100
AcDbLine
 10
249.4766813001
 20
39.0258874224
 30
0.0
 11
249.4766813001
 21
36.3430004049
 31
0.0
  0
ARC
  5
182
330
1F
100
AcDbEntity
  8
0
  6
Continuous
 62
     7
370
    15
100
AcDbCircle
 10
249.3042515531
 20
39.0538583012
 30
0.0
 40
0.1746836789713801
100
AcDbArc
 50
350.7859630095
 51
129.2032852357
  0
LINE
  5
183
330
1F
100
AcDbEntity
  8
0
  6
Continuous
 62
     7
370
    15
100
AcDbLine
 10
249.1938385876
 20
39.1892221248
 30
0.0
 11
245.3790479064
 21
36.9869903404
 31
0.0
  0
LINE
  5
184
330
1F
100
AcDbEntity
  8
0
  6
Continuous
 62
     7
370
    15
100
AcDbLine
 10
245.3328733824
 20
37.0531970753
 30
0.0
 11
245.3790479064
 21
36.9869903404
 31
0.0
  0
LINE
  5
185
330
1F
100
AcDbEntity
  8
0
  6
Continuous
 62
     7
370
    15
100
AcDbLine
 10
278.3284899551
 20
56.0082983552
 30
0.0
 11
278.4331474895
 21
56.1895705216
 31
0.0
  0
LINE
  5
186
330
1F
100
AcDbEntity
  8
0
  6
Continuous
 62
     7
370
    15
100
AcDbLine
 10
275.4275001696
 20
54.3335925991
 30
0.0
 11
278.3284899551
 21
56.0082983552
 31
0.0
  0
ARC
  5
187
330
1F
100
AcDbEntity
  8
0
  6
Continuous
 62
     7
370
    15
100
AcDbCircle
 10
275.7587438977
 20
53.8157503111
 30
0.0
 40
0.6147219230288828
100
AcDbArc
 50
122.60547834
 51
177.3945215143
  0
LINE
  5
188
330
1F
100
AcDbEntity
  8
0
  6
Continuous
 62
     7
370
    15
100
AcDbLine
 10
275.1446574571
 20
53.7797961357
 30
0.0
 11
275.1446574571
 21
53.843694652
 31
0.0
  0
LINE
  5
189
330
1F
100
AcDbEntity
  8
0
  6
Continuous
 62
     7
370
    15
100
AcDbLine
 10
245.3790479064
 20
26.4944409077
 30
0.0
 11
245.3328733824
 21
26.3749222021
 31
0.0
  0
LINE
  5
18A
330
1F
100
AcDbEntity
  8
0
  6
Continuous
 62
     7
370
    15
100
AcDbLine
 10
245.3790479064
 20
26.4944409077
 30
0.0
 11
249.1938385876
 21
28.6966726921
 31
0.0
  0
LWPOLYLINE
  5
18B
330
1F
100
AcDbEntity
  8
0
  6
Continuous
 62
     7
370
    15
100
AcDbPolyline
 90
       22
 70
   128
 43
0.0
 10
242.6322673116
 20
39.4261996465
 10
243.0808783545
 20
41.2301024598
 10
243.6427700281
 20
43.04918297
 10
244.3137874003
 20
44.8699899081
 10
245.0889686045
 20
46.6790592389
 10
245.9625815297
 20
48.4630137216
 10
246.9281662078
 20
50.2086618281
 10
247.9785825813
 20
51.9030952886
 10
249.1060633013
 20
53.533784542
 10
250.3022711632
 20
55.0886713866
 10
251.5583607565
 20
56.5562581448
 10
252.8650438727
 20
57.9256926832
 10
254.2126581875
 20
59.1868486595
 10
255.5912387088
 20
60.3304004014
 10
256.9905914639
 20
61.3478918666
 10
258.4003688786
 20
62.2317991707
 10
259.8101462934
 20
62.9755862232
 10
261.2094990484
 20
63.5737530588
 10
262.5880795698
 20
64.021876507
 10
263.9356938846
 20
64.3166428999
 10
265.2423770008
 20
64.4558725746
 10
266.103902198
 20
64.4610857981
  0
SPLINE
  5
18C
330
1F
100
AcDbEntity
  8
0
  6
Continuous
 62
     7
370
    15
100
AcDbSpline
210
0.0
220
0.0
230
1.0
 70
     8
 71
     3
 72
     8
 73
     4
 74
     0
 42
0.000000001
 43
0.00000001
 40
0.0
 40
0.0
 40
0.0
 40
0.0
 40
1.0
 40
1.0
 40
1.0
 40
1.0
 10
242.6322673115837
 20
39.42619964649804
 30
0.0
 10
242.2489833420764
 20
39.3628394385184
 30
0.0
 10
241.8656174314375
 20
39.2996479240056
 30
0.0
 10
241.4821795626354
 20
39.23660455086923
 30
0.0
  0
SPLINE
  5
18D
330
1F
100
AcDbEntity
  8
0
  6
Continuous
 62
     7
370
    15
100
AcDbSpline
210
0.0
220
0.0
230
1.0
 70
     8
 71
     3
 72
     8
 73
     4
 74
     0
 42
0.000000001
 43
0.00000001
 40
0.0
 40
0.0
 40
0.0
 40
0.0
 40
0.0011891741919631
 40
0.0011891741919631
 40
0.0011891741919631
 40
0.0011891741919631
 10
241.1281264830325
 20
39.60672338696296
 30
0.0
 10
241.2464197133816
 20
39.48325281517222
 30
0.0
 10
241.364443382644
 20
39.35987714908634
 30
0.0
 10
241.4821795626354
 20
39.23660455086923
 30
0.0
  0
LWPOLYLINE
  5
18E
330
1F
100
AcDbEntity
  8
0
  6
Continuous
 62
     7
370
    15
100
AcDbPolyline
 90
       28
 70
   128
 43
0.0
 10
241.128126483
 20
39.606723387
 10
241.5909378384
 20
41.4555569851
 10
242.1658645625
 20
43.3192833139
 10
242.8489370776
 20
45.1850342875
 10
243.6354391142
 20
47.0399278405
 10
244.5199402741
 20
48.8711568729
 10
245.4963335249
 20
50.6660776759
 10
246.557877366
 20
52.4122972307
 10
247.6972423749
 20
54.0977587761
 10
248.9065618135
 20
55.710825054
 10
250.1774859438
 20
57.2403586591
 10
251.5012396786
 20
58.6757989366
 10
252.868683169
 20
60.0072348989
 10
254.2703749106
 20
61.2254736551
 10
255.696636932
 20
62.3221038838
 10
257.1376216165
 20
63.2895539089
 10
258.5833796951
 20
64.1211439782
 10
260.0239289406
 20
64.8111323835
 10
261.4493230904
 20
65.3547551045
 10
262.8497205201
 20
65.7482587017
 10
264.2154521949
 20
65.9889262322
 10
265.5370884294
 20
66.0750960085
 10
266.8055039953
 20
66.0061730721
 10
268.0119411255
 20
65.7826333009
 10
269.148069983
 20
65.4060201237
 10
270.2060461736
 20
64.8789338638
 10
271.1785649078
 20
64.2050137847
 10
271.3144694005
 20
64.0933653432
  0
ARC
  5
18F
330
1F
100
AcDbEntity
  8
0
  6
Continuous
 62
     7
370
    15
100
AcDbCircle
 10
272.8651686145
 20
48.0822998216
 30
0.0
 40
6.067413416137922
100
AcDbArc
 50
36.3771357111
 51
84.4825357811
  0
ARC
  5
190
330
1F
100
AcDbEntity
  8
0
  6
Continuous
 62
     7
370
    15
100
AcDbCircle
 10
261.4776137975
 20
28.3538107227
 30
0.0
 40
6.065408876836887
100
AcDbArc
 50
216.3628351401
 51
264.2027926164
  0
LINE
  5
191
330
1F
100
AcDbEntity
  8
0
  6
Continuous
 62
     7
370
    15
100
AcDbLine
 10
239.7850361139
 20
40.3820729533
 30
0.0
 11
241.128126483
 21
39.606723387
 31
0.0
  0
ARC
  5
192
330
1F
100
AcDbEntity
  8
0
  6
Continuous
 62
     7
370
    15
100
AcDbCircle
 10
264.112418611
 20
56.9472878566
 30
0.0
 40
9.921567847951419
100
AcDbArc
 50
61.8842382089
 51
104.7873549688
  0
ARC
  5
193
330
1F
100
AcDbEntity
  8
0
  6
Continuous
 62
     7
370
    15
100
AcDbCircle
 10
267.5704962146
 20
50.2741580422
 30
0.0
 40
6.825100258830377
100
AcDbArc
 50
61.4816081426
 51
100.3516088945
  0
ARC
  5
194
330
1F
100
AcDbEntity
  8
0
  6
Continuous
 62
     7
370
    15
100
AcDbCircle
 10
256.8202401947
 20
31.7300284391
 30
0.0
 40
6.668771515233081
100
AcDbArc
 50
202.8161529815
 51
238.8237067225
  0
LINE
  5
195
330
1F
100
AcDbEntity
  8
0
  6
Continuous
 62
     7
370
    15
100
AcDbLine
 10
243.8450146842
 20
39.1143628244
 30
0.0
 11
243.251395836
 21
39.4570516911
 31
0.0
  0
SPLINE
  5
196
330
1F
100
AcDbEntity
  8
0
  6
Continuous
 62
     7
370
    15
100
AcDbSpline
210
0.0
220
0.0
230
1.0
 70
     8
 71
     3
 72
    12
 73
     8
 74
     0
 42
0.000000001
 43
0.00000001
 40
0.0
 40
0.0
 40
0.0
 40
0.0
 40
0.4999999999999928
 40
0.4999999999999928
 40
0.7499999999999963
 40
0.7499999999999963
 40
1.0
 40
1.0
 40
1.0
 40
1.0
 10
243.2513958359863
 20
39.45705169110825
 30
0.0
 10
243.1756735504092
 20
39.50076523610299
 30
0.0
 10
243.0680321752531
 20
39.52455207019321
 30
0.0
 10
242.9068702350113
 20
39.52162348925616
 30
0.0
 10
242.8542688099556
 20
39.51458502429343
 30
0.0
 10
242.7564109598642
 20
39.48975908427234
 30
0.0
 10
242.7115733437659
 20
39.47198204437109
 30
0.0
 10
242.6739281656171
 20
39.45024994560653
 30
0.0
  0
SPLINE
  5
197
330
1F
100
AcDbEntity
  8
0
  6
Continuous
 62
     7
370
    15
100
AcDbSpline
210
0.0
220
0.0
230
1.0
 70
     8
 71
     3
 72
    10
 73
     6
 74
     0
 42
0.000000001
 43
0.00000001
 40
0.0
 40
0.0
 40
0.0
 40
0.0
 40
0.5
 40
0.5
 40
1.0
 40
1.0
 40
1.0
 40
1.0
 10
239.6831101082975
 20
40.41166342791014
 30
0.0
 10
239.6903572958598
 20
40.41601161485034
 30
0.0
 10
239.7021323881275
 20
40.41652351728439
 30
0.0
 10
239.7362468649494
 20
40.40724782276232
 30
0.0
 10
239.7585214214645
 20
40.39737955941635
 30
0.0
 10
239.7850361139407
 20
40.38207295326005
 30
0.0
  0
LINE
  5
198
330
1F
100
AcDbEntity
  8
0
  6
Continuous
 62
     7
370
    15
100
AcDbLine
 10
242.6739281656
 20
39.4502499456
 30
0.0
 11
242.6322673116
 21
39.4261996465
 31
0.0
  0
SPLINE
  5
199
330
1F
100
AcDbEntity
  8
0
  6
Continuous
 62
     7
370
    15
100
AcDbSpline
210
0.0
220
0.0
230
1.0
 70
     8
 71
     3
 72
    20
 73
    16
 74
     0
 42
0.000000001
 43
0.00000001
 40
0.0
 40
0.0
 40
0.0
 40
0.0
 40
0.25
 40
0.25
 40
0.5
 40
0.5
 40
0.53125
 40
0.53125
 40
0.5625
 40
0.5625
 40
0.625
 40
0.625
 40
0.75
 40
0.75
 40
1.0
 40
1.0
 40
1.0
 40
1.0
 10
249.4766813000585
 20
36.34300040489395
 30
0.0
 10
249.4766813000585
 20
35.97280360787317
 30
0.0
 10
249.4930408419244
 20
35.59319835749762
 30
0.0
 10
249.5242453050495
 20
34.8353618667532
 30
0.0
 10
249.5387035593689
 20
34.45705996908792
 30
0.0
 10
249.539111397415
 20
34.04001408444814
 30
0.0
 10
249.538957599015
 20
33.99268689607258
 30
0.0
 10
249.5382523792623
 20
33.89914393385894
 30
0.0
 10
249.5377021148103
 20
33.85249028941975
 30
0.0
 10
249.5354972972258
 20
33.71285965135923
 30
0.0
 10
249.5332831751027
 20
33.62021171635308
 30
0.0
 10
249.5249783638544
 20
33.3432923733139
 30
0.0
 10
249.5172294659403
 20
33.16006560193775
 30
0.0
 10
249.4934993572952
 20
32.61065102707317
 30
0.0
 10
249.4766813000585
 20
32.24495642364243
 30
0.0
 10
249.4766813000585
 20
31.86945765674408
 30
0.0
  0
LWPOLYLINE
  5
19A
330
1F
100
AcDbEntity
  8
0
  6
Continuous
 62
     7
370
    15
100
AcDbPolyline
 90
       35
 70
   128
 43
0.0
 10
276.7179700453
 20
36.7091801176
 10
276.0813104478
 20
36.273518876
 10
275.4663315294
 20
35.7164425973
 10
274.8939756595
 20
35.0569218459
 10
274.3837337307
 20
34.31741581
 10
273.95298142
 20
33.5231074807
 10
273.6163874807
 20
32.7010460755
 10
273.3854142157
 20
31.8792259095
 10
273.2679271425
 20
31.085633083
 10
273.2679271425
 20
30.3472924478
 10
273.3854142157
 20
29.6893473086
 10
273.6163874807
 20
29.1342031981
 10
273.95298142
 20
28.7007648831
 10
274.3837337307
 20
28.4037925856
 10
274.8939756595
 20
28.2533993411
 10
275.4663315294
 20
28.254706611
 10
276.0813104478
 20
28.4076698778
 10
276.7179700453
 20
28.7070801611
 10
277.3546296427
 20
29.1427414026
 10
277.9696085611
 20
29.6998176813
 10
278.5419644311
 20
30.3593384328
 10
279.0522063599
 20
31.0988444687
 10
279.4829586705
 20
31.893152798
 10
279.8195526098
 20
32.7152142032
 10
280.0505258748
 20
33.5370343691
 10
280.168012948
 20
34.3306271956
 10
280.168012948
 20
35.0689678309
 10
280.0505258748
 20
35.72691297
 10
279.8195526098
 20
36.2820570806
 10
279.4829586705
 20
36.7154953955
 10
279.0522063599
 20
37.012467693
 10
278.5419644311
 20
37.1628609376
 10
277.9696085611
 20
37.1615536677
 10
277.3546296427
 20
37.0085904008
 10
276.7179700453
 20
36.7091801176
  0
LWPOLYLINE
  5
19B
330
1F
100
AcDbEntity
  8
0
  6
Continuous
 62
     7
370
    15
100
AcDbPolyline
 90
       19
 70
   128
 43
0.0
 10
276.6472593672
 20
36.8316546043
 10
275.9976067167
 20
36.3871023171
 10
275.3700772081
 20
35.8186571347
 10
274.7860406061
 20
35.1456767761
 10
274.2653855768
 20
34.3910787803
 10
273.8258424026
 20
33.5805600769
 10
273.4823791992
 20
32.7417219083
 10
273.2466921941
 20
31.9031299023
 10
273.1268074256
 20
31.0933413038
 10
273.1268074256
 20
30.3399324923
 10
273.2466921941
 20
29.6685599013
 10
273.4823791992
 20
29.1020863192
 10
273.8258424026
 20
28.6598023243
 10
274.2653855768
 20
28.3567693677
 10
274.7860406061
 20
28.2033068732
 10
275.3700772081
 20
28.2046408221
 10
275.9976067167
 20
28.3607257883
 10
276.6472593672
 20
28.6662464855
 10
276.6478339908
 20
28.6665782626
  0
LWPOLYLINE
  5
19C
330
1F
100
AcDbEntity
  8
0
  6
Continuous
 62
     7
370
    15
100
AcDbPolyline
 90
       10
 70
   128
 43
0.0
 10
280.1827932731
 20
34.7899708245
 10
280.1677113087
 20
35.1579685975
 10
280.0478265402
 20
35.8293411885
 10
279.8121395351
 20
36.3958147707
 10
279.4686763317
 20
36.8380987655
 10
279.0291331575
 20
37.1411317221
 10
278.5084781282
 20
37.2945942166
 10
277.9244415262
 20
37.2932602677
 10
277.2969120176
 20
37.1371753015
 10
276.6472593672
 20
36.8316546043
  0
SPLINE
  5
19D
330
1F
100
AcDbEntity
  8
0
  6
Continuous
 62
     7
370
    15
100
AcDbSpline
210
0.0
220
0.0
230
1.0
 70
    11
 71
     3
 72
    60
 73
    56
 74
     0
 42
0.000000001
 43
0.00000001
 40
0.0
 40
0.0
 40
0.0
 40
0.0
 40
0.0624999999999982
 40
0.0624999999999982
 40
0.0937499999999979
 40
0.0937499999999979
 40
0.1249999999999977
 40
0.1249999999999977
 40
0.1562499999999974
 40
0.1562499999999974
 40
0.1874999999999972
 40
0.1874999999999972
 40
0.2187499999999969
 40
0.2187499999999969
 40
0.2499999999999967
 40
0.2499999999999967
 40
0.2812499999999964
 40
0.2812499999999964
 40
0.3124999999999962
 40
0.3124999999999962
 40
0.3437499999999959
 40
0.3437499999999959
 40
0.3749999999999957
 40
0.3749999999999957
 40
0.4062499999999954
 40
0.4062499999999954
 40
0.4374999999999952
 40
0.4374999999999952
 40
0.4687499999999949
 40
0.4687499999999949
 40
0.4999999999999947
 40
0.4999999999999947
 40
0.5312499999999944
 40
0.5312499999999944
 40
0.5624999999999941
 40
0.5624999999999941
 40
0.624999999999995
 40
0.624999999999995
 40
0.6874999999999958
 40
0.6874999999999958
 40
0.7499999999999967
 40
0.7499999999999967
 40
0.7812499999999971
 40
0.7812499999999971
 40
0.8124999999999974
 40
0.8124999999999974
 40
0.8437499999999979
 40
0.8437499999999979
 40
0.8749999999999983
 40
0.8749999999999983
 40
0.9062499999999988
 40
0.9062499999999988
 40
0.9374999999999991
 40
0.9374999999999991
 40
1.0
 40
1.0
 40
1.0
 40
1.0
 10
274.9292058352436
 20
38.44594420009956
 30
0.0
 10
275.0845595237429
 20
38.42304203150816
 30
0.0
 10
275.2332508807584
 20
38.38470240944587
 30
0.0
 10
275.4423786077751
 20
38.31116036812746
 30
0.0
 10
275.5083046998174
 20
38.284415593878
 30
0.0
 10
275.6329225139364
 20
38.22699957980767
 30
0.0
 10
275.6921123602857
 20
38.19600959040596
 30
0.0
 10
275.7999915106242
 20
38.13171901161034
 30
0.0
 10
275.8486649387982
 20
38.09852799974783
 30
0.0
 10
275.9355711876276
 20
38.02990307187954
 30
0.0
 10
275.9740926898203
 20
37.9940952708948
 30
0.0
 10
276.0377728358987
 20
37.92193058223955
 30
0.0
 10
276.0631488739019
 20
37.8855384780577
 30
0.0
 10
276.1006584940993
 20
37.81146600258578
 30
0.0
 10
276.112776081725
 20
37.7733675955038
 30
0.0
 10
276.1217397902129
 20
37.69790358297842
 30
0.0
 10
276.1188486920386
 20
37.66036300736664
 30
0.0
 10
276.0973535135597
 20
37.5848612714897
 30
0.0
 10
276.078330778499
 20
37.54655073294882
 30
0.0
 10
276.0249503043316
 20
37.47270173987226
 30
0.0
 10
275.9906182020819
 20
37.43672577914357
 30
0.0
 10
275.9054043211513
 20
37.36633775020238
 30
0.0
 10
275.8550325144812
 20
37.33254803110712
 30
0.0
 10
275.7427557204397
 20
37.2702096991006
 30
0.0
 10
275.6794014030557
 20
37.24090798391273
 30
0.0
 10
275.5448415891152
 20
37.18922949061148
 30
0.0
 10
275.4738651449223
 20
37.16677326816843
 30
0.0
 10
275.3247753304577
 20
37.12885393912253
 30
0.0
 10
275.2482667743878
 20
37.11385317185707
 30
0.0
 10
275.0941977207613
 20
37.09222854676257
 30
0.0
 10
275.01549079244
 20
37.08552221276005
 30
0.0
 10
274.8613553734266
 20
37.08113303219515
 30
0.0
 10
274.7855376268574
 20
37.08331767569856
 30
0.0
 10
274.6362179760278
 20
37.09681578434187
 30
0.0
 10
274.5633167763592
 20
37.1081693056073
 30
0.0
 10
274.3555977481639
 20
37.15521728950874
 30
0.0
 10
274.2275810642979
 20
37.20522539195787
 30
0.0
 10
274.01273046956
 20
37.3352810809879
 30
0.0
 10
273.9231703898965
 20
37.41702212556148
 30
0.0
 10
273.7961160688089
 20
37.59839606948456
 30
0.0
 10
273.7568968093696
 20
37.70048467140214
 30
0.0
 10
273.7433222557069
 20
37.85369039400531
 30
0.0
 10
273.7461815331438
 20
37.90573844939109
 30
0.0
 10
273.7679668608765
 20
38.00746169311284
 30
0.0
 10
273.7865721775864
 20
38.05646920363444
 30
0.0
 10
273.839867986448
 20
38.14998443437553
 30
0.0
 10
273.8752735924331
 20
38.19504054825154
 30
0.0
 10
273.9602471712877
 20
38.27533314392261
 30
0.0
 10
274.0097380685978
 20
38.31095571224261
 30
0.0
 10
274.1232695654688
 20
38.37266628416665
 30
0.0
 10
274.1863703020587
 20
38.39805140430755
 30
0.0
 10
274.3205721563614
 20
38.43694250398134
 30
0.0
 10
274.3931518789859
 20
38.45079714073907
 30
0.0
 10
274.6156223736411
 20
38.47503236537084
 30
0.0
 10
274.7738521467442
 20
38.46884636869096
 30
0.0
 10
274.9292058352436
 20
38.44594420009956
 30
0.0
  0
LINE
  5
19E
330
1F
100
AcDbEntity
  8
0
  6
Continuous
 62
     7
370
    15
100
AcDbLine
 10
278.6513779831
 20
32.7207636913
 30
0.0
 11
279.4049758138
 21
33.6582322284
 31
0.0
  0
SPLINE
  5
19F
330
1F
100
AcDbEntity
  8
0
  6
Continuous
 62
     7
370
    15
100
AcDbSpline
210
0.0
220
0.0
230
1.0
 70
     8
 71
     3
 72
    21
 73
    17
 74
     0
 42
0.000000001
 43
0.00000001
 40
0.0
 40
0.0
 40
0.0
 40
0.0
 40
0.0416666666666672
 40
0.0833333333333334
 40
0.1250000000000024
 40
0.1666666666666666
 40
0.2083333333333333
 40
0.2499999999976954
 40
0.3339999999999609
 40
0.4179999999999999
 40
0.4330099753158393
 40
0.4330099753158393
 40
0.5019999999997413
 40
0.5859999999988204
 40
0.6699999999999805
 40
0.8156536847925933
 40
0.8156536847925933
 40
0.8156536847925933
 40
0.8156536847925933
 10
279.4049758137787
 20
33.65823222841445
 30
0.0
 10
279.4349522808737
 20
33.69552266849974
 30
0.0
 10
279.4930992292343
 20
33.77583567555924
 30
0.0
 10
279.5731654316539
 20
33.91378512500305
 30
0.0
 10
279.640998899437
 20
34.06639207287875
 30
0.0
 10
279.6905328857111
 20
34.22729304846319
 30
0.0
 10
279.7159538556667
 20
34.38723916684629
 30
0.0
 10
279.7118296283759
 20
34.5868201674099
 30
0.0
 10
279.6359661393035
 20
34.77704168349093
 30
0.0
 10
279.4934086703843
 20
34.84791684549085
 30
0.0
 10
279.4195405620598
 20
34.85932570532138
 30
0.0
 10
279.3604131301799
 20
34.86558575824491
 30
0.0
 10
279.2721800597328
 20
34.87155839354156
 30
0.0
 10
279.138953584177
 20
34.88435907993497
 30
0.0
 10
279.006709767567
 20
34.89591188188894
 30
0.0
 10
278.7990747365903
 20
34.91446212098909
 30
0.0
 10
278.6514248737816
 20
34.92767938688228
 30
0.0
  0
SPLINE
  5
1A0
330
1F
100
AcDbEntity
  8
0
  6
Continuous
 62
     7
370
    15
100
AcDbSpline
210
0.0
220
0.0
230
1.0
 70
     8
 71
     3
 72
    21
 73
    17
 74
     0
 42
0.000000001
 43
0.00000001
 40
0.0
 40
0.0
 40
0.0
 40
0.0
 40
0.0416666666666672
 40
0.0833333333333334
 40
0.1250000000000024
 40
0.1666666666666666
 40
0.2083333333333333
 40
0.2499999999976954
 40
0.3339999999999609
 40
0.4179999999999999
 40
0.4330099753158393
 40
0.4330099753158393
 40
0.5019999999997413
 40
0.5859999999988204
 40
0.6699999999999805
 40
0.8133971939531525
 40
0.8133971939531525
 40
0.8133971939531525
 40
0.8133971939531525
 10
274.0309642767617
 20
30.55588140348864
 30
0.0
 10
274.0018910302315
 20
30.5584809898334
 30
0.0
 10
273.9424216748444
 20
30.571777201604
 30
0.0
 10
273.8628869806554
 20
30.61723666034771
 30
0.0
 10
273.7949110904897
 20
30.69153747428564
 30
0.0
 10
273.7454152855152
 20
30.79524436413273
 30
0.0
 10
273.7199840127439
 20
30.92584078454178
 30
0.0
 10
273.7241122961457
 20
31.13018411328029
 30
0.0
 10
273.7999686073808
 20
31.40798901530234
 30
0.0
 10
273.9425430962556
 20
31.64347818675856
 30
0.0
 10
274.0163952768632
 20
31.74015346493846
 30
0.0
 10
274.075508680586
 20
31.81466310777803
 30
0.0
 10
274.1637118894474
 20
31.9224704322015
 30
0.0
 10
274.2972365136733
 20
32.08946198000184
 30
0.0
 10
274.4270670890862
 20
32.25070016315362
 30
0.0
 10
274.6373538740222
 20
32.51227783009823
 30
0.0
 10
274.7845148086839
 20
32.69535876903858
 30
0.0
  0
LINE
  5
1A1
330
1F
100
AcDbEntity
  8
0
  6
Continuous
 62
     7
370
    15
100
AcDbLine
 10
274.7845621075
 20
30.4884984015
 30
0.0
 11
274.0309642768
 21
30.5558814035
 31
0.0
  0
LINE
  5
1A2
330
1F
100
AcDbEntity
  8
0
  6
Continuous
 62
     7
370
    15
100
AcDbLine
 10
245.3790479064
 20
36.9869903404
 30
0.0
 11
243.6544173397
 21
37.9825983744
 31
0.0
  0
SPLINE
  5
1A3
330
1F
100
AcDbEntity
  8
0
  6
Continuous
 62
     7
370
    15
100
AcDbSpline
210
0.0
220
0.0
230
1.0
 70
     8
 71
     3
 72
     8
 73
     4
 74
     0
 42
0.000000001
 43
0.00000001
 40
0.0
 40
0.0
 40
0.0
 40
0.0
 40
0.0011891741919631
 40
0.0011891741919631
 40
0.0011891741919631
 40
0.0011891741919631
 10
243.6544173397389
 20
37.9825983744194
 30
0.0
 10
243.6430191954922
 20
38.04448333127372
 30
0.0
 10
243.632055399933
 20
38.10605464781333
 30
0.0
 10
243.6215029170405
 20
38.16732781000646
 30
0.0
  0
SPLINE
  5
1A4
330
1F
100
AcDbEntity
  8
0
  6
Continuous
 62
     7
370
    15
100
AcDbSpline
210
0.0
220
0.0
230
1.0
 70
     8
 71
     3
 72
    12
 73
     8
 74
     0
 42
0.000000001
 43
0.00000001
 40
0.0
 40
0.0
 40
0.0
 40
0.0
 40
0.0316027464897147
 40
0.42224646983488
 40
0.8128309791953661
 40
0.9907948645948642
 40
1.0
 40
1.0
 40
1.0
 40
1.0
 10
243.8640212243903
 20
35.10957735054046
 30
0.0
 10
243.8639517070845
 20
35.13862210518921
 30
0.0
 10
243.8630228815804
 20
35.52669107007009
 30
0.0
 10
243.8275683821741
 20
36.29234582829223
 30
0.0
 10
243.7971287111108
 20
37.18971266677702
 30
0.0
 10
243.8030112931332
 20
37.71674473013177
 30
0.0
 10
243.80916248586
 20
37.88482493078475
 30
0.0
 10
243.8094650068739
 20
37.89309126139482
 30
0.0
  0
SPLINE
  5
1A5
330
1F
100
AcDbEntity
  8
0
  6
Continuous
 62
     7
370
    15
100
AcDbSpline
210
0.0
220
0.0
230
1.0
 70
     8
 71
     3
 72
    11
 73
     7
 74
     0
 42
0.000000001
 43
0.00000001
 40
0.0
 40
0.0
 40
0.0
 40
0.0
 40
0.3176374646792818
 40
0.6352804794081445
 40
0.9529670978523566
 40
1.0
 40
1.0
 40
1.0
 40
1.0
 10
273.9602535986427
 20
30.81977163752497
 30
0.0
 10
273.9177282113509
 20
30.83023086270667
 30
0.0
 10
273.8326766937256
 20
30.85114949582313
 30
0.0
 10
273.7538907977253
 20
30.96743307905581
 30
0.0
 10
273.7161913841134
 20
31.07792875144364
 30
0.0
 10
273.7249158382373
 20
31.15078030751218
 30
0.0
 10
273.7260409120925
 20
31.16017497907326
 30
0.0
  0
ARC
  5
1A6
330
1F
100
AcDbEntity
  8
0
  6
Continuous
 62
     7
370
    15
100
AcDbCircle
 10
273.4102394632
 20
33.8067620877
 30
0.0
 40
1.767441660542066
100
AcDbArc
 50
321.0369735562
 51
328.1844351488
  0
SPLINE
  5
1A7
330
1F
100
AcDbEntity
  8
0
  6
Continuous
 62
     7
370
    15
100
AcDbSpline
210
0.0
220
0.0
230
1.0
 70
     8
 71
     3
 72
    16
 73
    12
 74
     0
 42
0.000000001
 43
0.00000001
 40
0.0
 40
0.0
 40
0.0
 40
0.0
 40
0.2500000000000088
 40
0.2500000000000088
 40
0.5000000000000177
 40
0.5000000000000177
 40
0.6250000000000169
 40
0.6250000000000169
 40
0.750000000000016
 40
0.750000000000016
 40
1.0
 40
1.0
 40
1.0
 40
1.0
 10
278.6514248737816
 20
34.92767938688228
 30
0.0
 10
278.6269823485582
 20
34.92986742382884
 30
0.0
 10
278.600411058813
 20
34.93089226466866
 30
0.0
 10
278.5397104199897
 20
34.92881110440253
 30
0.0
 10
278.5051579944269
 20
34.92584585216397
 30
0.0
 10
278.4470840779072
 20
34.91353581560066
 30
0.0
 10
278.4270699236938
 20
34.90799917851083
 30
0.0
 10
278.3911942851419
 20
34.8949711856429
 30
0.0
 10
278.3754070043474
 20
34.88753824034501
 30
0.0
 10
278.3372391506954
 20
34.86586315478385
 30
0.0
 10
278.3217549391332
 20
34.85189538493608
 30
0.0
 10
278.3098810305229
 20
34.83872043858899
 30
0.0
  0
SPLINE
  5
1A8
330
1F
100
AcDbEntity
  8
0
  6
Continuous
 62
     7
370
    15
100
AcDbSpline
210
0.0
220
0.0
230
1.0
 70
     8
 71
     3
 72
     8
 73
     4
 74
     0
 42
0.000000001
 43
0.00000001
 40
0.0
 40
0.0
 40
0.0
 40
0.0
 40
1.0
 40
1.0
 40
1.0
 40
1.0
 10
278.3098810305229
 20
34.83872043858896
 30
0.0
 10
278.2769950498636
 20
34.85186647987914
 30
0.0
 10
278.2448576258834
 20
34.86660436011879
 30
0.0
 10
278.2193838545898
 20
34.88131005526702
 30
0.0
  0
LWPOLYLINE
  5
1A9
330
1F
100
AcDbEntity
  8
0
  6
Continuous
 62
     7
370
    15
100
AcDbPolyline
 90
        3
 70
   128
 43
0.0
 10
242.8033610526
 20
38.0300905183
 10
242.8628193358
 20
39.4620261607
 10
242.8651896098
 20
39.4909112229
  0
ARC
  5
1AA
330
1F
100
AcDbEntity
  8
0
  6
Continuous
 62
     7
370
    15
100
AcDbCircle
 10
254.3941475181
 20
37.7147403958
 30
0.0
 40
11.59507553178266
100
AcDbArc
 50
178.4415401862
 51
204.7483758801
  0
LINE
  5
1AB
330
1F
100
AcDbEntity
  8
0
  6
Continuous
 62
     7
370
    15
100
AcDbLine
 10
277.4899270677
 20
35.3024164948
 30
0.0
 11
278.2193838546
 21
34.8813100553
 31
0.0
  0
ARC
  5
1AC
330
1F
100
AcDbEntity
  8
0
  6
Continuous
 62
     7
370
    15
100
AcDbCircle
 10
273.0283083008
 20
35.102989927
 30
0.0
 40
3.549529939391373
100
AcDbArc
 50
339.1568982994
 51
358.3083217262
  0
LINE
  5
1AD
330
1F
100
AcDbEntity
  8
0
  6
Continuous
 62
     7
370
    15
100
AcDbLine
 10
276.3455508844
 20
33.8400313244
 30
0.0
 11
278.2193838546
 21
32.7582905762
 31
0.0
  0
LINE
  5
1AE
330
1F
100
AcDbEntity
  8
0
  6
Continuous
 62
     7
370
    15
100
AcDbLine
 10
273.8116930721
 20
31.345960465
 30
0.0
 11
274.7922921672
 21
30.7798726569
 31
0.0
  0
LINE
  5
1AF
330
1F
100
AcDbEntity
  8
0
  6
Continuous
 62
     7
370
    15
100
AcDbLine
 10
224.3722737671
 20
74.6173163253
 30
0.0
 11
224.4202262489
 21
74.5996391053
 31
0.0
  0
LINE
  5
1B0
330
1F
100
AcDbEntity
  8
0
  6
Continuous
 62
     7
370
    15
100
AcDbLine
 10
240.1199412213
 20
40.0230080062
 30
0.0
 11
239.6831101083
 21
40.4116634279
 31
0.0
  0
LINE
  5
1B1
330
1F
100
AcDbEntity
  8
0
  6
Continuous
 62
     7
370
    15
100
AcDbLine
 10
241.4821795626
 20
39.2366045509
 30
0.0
 11
240.1199412213
 21
40.0230080062
 31
0.0
  0
LINE
  5
1B2
330
1F
100
AcDbEntity
  8
0
  6
Continuous
 62
     7
370
    15
100
AcDbLine
 10
274.8432163476
 20
30.7408214624
 30
0.0
 11
273.9602535986
 21
30.8197716375
 31
0.0
  0
SPLINE
  5
1B3
330
1F
100
AcDbEntity
  8
0
  6
Continuous
 62
     7
370
    15
100
AcDbSpline
210
0.0
220
0.0
230
1.0
 70
     8
 71
     3
 72
    16
 73
    12
 74
     0
 42
0.000000001
 43
0.00000001
 40
0.0
 40
0.0
 40
0.0
 40
0.0
 40
0.2500000000000089
 40
0.2500000000000089
 40
0.5000000000000178
 40
0.5000000000000178
 40
0.6250000000000169
 40
0.6250000000000169
 40
0.750000000000016
 40
0.750000000000016
 40
1.0
 40
1.0
 40
1.0
 40
1.0
 10
274.7845621074776
 20
30.48849840145153
 30
0.0
 10
274.8088881192583
 20
30.48632328942949
 30
0.0
 10
274.8326997084661
 20
30.48717022497171
 30
0.0
 10
274.8756377185812
 20
30.49968574241768
 30
0.0
 10
274.8961018451332
 20
30.51152621719509
 30
0.0
 10
274.9122081059905
 20
30.54759874207179
 30
0.0
 10
274.9148144565378
 20
30.56318582065049
 30
0.0
 10
274.9120177265348
 20
30.5987610747668
 30
0.0
 10
274.9068004692695
 20
30.61810998527724
 30
0.0
 10
274.8855617605261
 20
30.67375973731568
 30
0.0
 10
274.8647564894695
 20
30.70859686271768
 30
0.0
 10
274.8432163476056
 20
30.7408214623956
 30
0.0
  0
LINE
  5
1B4
330
1F
100
AcDbEntity
  8
0
  6
Continuous
 62
     7
370
    15
100
AcDbLine
 10
243.8640212244
 20
32.1537088385
 30
0.0
 11
243.8640212244
 21
35.1095773505
 31
0.0
  0
SPLINE
  5
1B5
330
1F
100
AcDbEntity
  8
0
  6
Continuous
 62
     7
370
    15
100
AcDbSpline
210
0.0
220
0.0
230
1.0
 70
     8
 71
     3
 72
     8
 73
     4
 74
     0
 42
0.000000001
 43
0.00000001
 40
0.0
 40
0.0
 40
0.0
 40
0.0
 40
1.0
 40
1.0
 40
1.0
 40
1.0
 10
274.7922921672387
 20
30.77987265692498
 30
0.0
 10
274.8177182256236
 20
30.7651945058526
 30
0.0
 10
274.8342663220553
 20
30.75182625154172
 30
0.0
 10
274.8432163476059
 20
30.74082146239545
 30
0.0
  0
SPLINE
  5
1B6
330
1F
100
AcDbEntity
  8
0
  6
Continuous
 62
     7
370
    15
100
AcDbSpline
210
0.0
220
0.0
230
1.0
 70
     8
 71
     3
 72
     8
 73
     4
 74
     0
 42
0.000000001
 43
0.00000001
 40
0.0
 40
0.0
 40
0.0
 40
0.0
 40
1.0
 40
1.0
 40
1.0
 40
1.0
 10
278.2193838545898
 20
32.75829057622329
 30
0.0
 10
278.2448099129746
 20
32.74361242515098
 30
0.0
 10
278.2769983271677
 20
32.73927313409697
 30
0.0
 10
278.3098810304604
 20
32.74208438572851
 30
0.0
  0
SPLINE
  5
1B7
330
1F
100
AcDbEntity
  8
0
  6
Continuous
 62
     7
370
    15
100
AcDbSpline
210
0.0
220
0.0
230
1.0
 70
     8
 71
     3
 72
    16
 73
    12
 74
     0
 42
0.000000001
 43
0.00000001
 40
0.0
 40
0.0
 40
0.0
 40
0.0
 40
0.2500000000000107
 40
0.2500000000000107
 40
0.3750000000000089
 40
0.3750000000000089
 40
0.5000000000000071
 40
0.5000000000000071
 40
0.7500000000000036
 40
0.7500000000000036
 40
1.0
 40
1.0
 40
1.0
 40
1.0
 10
278.3098810304602
 20
32.74208438572889
 30
0.0
 10
278.3215931870412
 20
32.70426038293461
 30
0.0
 10
278.3370514522197
 20
32.66632657197984
 30
0.0
 10
278.374466328926
 20
32.62050331152559
 30
0.0
 10
278.3898791378784
 20
32.6070455602871
 30
0.0
 10
278.425916660206
 20
32.5904233892962
 30
0.0
 10
278.4459342707871
 20
32.58777967840714
 30
0.0
 10
278.5036684198698
 20
32.59403011648265
 30
0.0
 10
278.5388782575556
 20
32.61439241531752
 30
0.0
 10
278.6001395950729
 20
32.66209821081804
 30
0.0
 10
278.6268442856563
 20
32.69024400498793
 30
0.0
 10
278.6513779830628
 20
32.72076369132421
 30
0.0
  0
SPLINE
  5
1B8
330
1F
100
AcDbEntity
  8
0
  6
Continuous
 62
     7
370
    15
100
AcDbSpline
210
0.0
220
0.0
230
1.0
 70
     8
 71
     3
 72
    20
 73
    16
 74
     0
 42
0.000000001
 43
0.00000001
 40
0.0
 40
0.0
 40
0.0
 40
0.0
 40
0.1250000000000002
 40
0.1250000000000002
 40
0.2500000000000006
 40
0.2500000000000006
 40
0.5000000000000011
 40
0.5000000000000011
 40
0.6250000000000013
 40
0.6250000000000013
 40
0.7500000000000017
 40
0.7500000000000017
 40
0.8750000000000009
 40
0.8750000000000009
 40
1.0
 40
1.0
 40
1.0
 40
1.0
 10
279.1928437794231
 20
33.84048165126898
 30
0.0
 10
279.2279073242614
 20
33.884100367705
 30
0.0
 10
279.2596256809238
 20
33.93046223356869
 30
0.0
 10
279.3156413851888
 20
34.02903939416799
 30
0.0
 10
279.3397330437975
 20
34.08109484568458
 30
0.0
 10
279.3971453854896
 20
34.236828912447
 30
0.0
 10
279.4161017159721
 20
34.34353880824789
 30
0.0
 10
279.4141016970052
 20
34.48418945700737
 30
0.0
 10
279.4085523827803
 20
34.52708572061441
 30
0.0
 10
279.3883290100414
 20
34.60455749122613
 30
0.0
 10
279.3736614952671
 20
34.63829182706304
 30
0.0
 10
279.3361073101061
 20
34.69384046543494
 30
0.0
 10
279.3128599735895
 20
34.7160064876065
 30
0.0
 10
279.2590253527674
 20
34.74716025744801
 30
0.0
 10
279.2279132830571
 20
34.75663452670633
 30
0.0
 10
279.1928437352473
 20
34.75977028898847
 30
0.0
  0
LWPOLYLINE
  5
1B9
330
1F
100
AcDbEntity
  8
0
  6
Continuous
 62
     7
370
    15
100
AcDbPolyline
 90
        4
 70
   128
 43
0.0
 10
279.1928437352
 20
34.759770289
 10
278.9304680246
 20
34.7832306099
 10
278.6680922766
 20
34.8066909525
 10
278.3098810305
 20
34.8387204386
  0
LINE
  5
1BA
330
1F
100
AcDbEntity
  8
0
  6
Continuous
 62
     7
370
    15
100
AcDbLine
 10
278.3098810305
 20
32.7420843857
 30
0.0
 11
279.1928437794
 21
33.8404816513
 31
0.0
  0
LINE
  5
1BB
330
1F
100
AcDbEntity
  8
0
  6
Continuous
 62
     7
370
    15
100
AcDbLine
 10
276.3455508844
 20
33.8400313244
 30
0.0
 11
277.2483001312
 21
34.963042805
 31
0.0
  0
ARC
  5
1BC
330
1F
100
AcDbEntity
  8
0
  6
Continuous
 62
     7
370
    15
100
AcDbCircle
 10
276.3909138613
 20
35.6520984781
 30
0.0
 40
1.099958606600528
100
AcDbArc
 50
321.212202301
 51
341.3638427083
  0
LINE
  5
1BD
330
1F
100
AcDbEntity
  8
0
  6
Continuous
 62
     7
370
    15
100
AcDbLine
 10
243.6544173397
 20
27.4900489417
 30
0.0
 11
245.3790479064
 21
26.4944409077
 31
0.0
  0
SPLINE
  5
1BE
330
1F
100
AcDbEntity
  8
0
  6
Continuous
 62
     7
370
    15
100
AcDbSpline
210
0.0
220
0.0
230
1.0
 70
     8
 71
     3
 72
    14
 73
    10
 74
     0
 42
0.000000001
 43
0.00000001
 40
0.0
 40
0.0
 40
0.0
 40
0.0
 40
0.25
 40
0.25
 40
0.5
 40
0.5
 40
0.75
 40
0.75
 40
1.0
 40
1.0
 40
1.0
 40
1.0
 10
245.3328733823897
 20
26.37492220210227
 30
0.0
 10
245.3161181158118
 20
26.33155266412653
 30
0.0
 10
245.2957440250313
 20
26.2913253050539
 30
0.0
 10
245.2472934962736
 20
26.21755843674889
 30
0.0
 10
245.2189993390157
 20
26.18399026956158
 30
0.0
 10
245.1559383858022
 20
26.13043919085229
 30
0.0
 10
245.1207129693263
 20
26.1099812984596
 30
0.0
 10
245.045935689823
 20
26.09254446562971
 30
0.0
 10
245.0073786693039
 20
26.09648947927984
 30
0.0
 10
244.9734321208971
 20
26.11608640454282
 30
0.0
  0
LINE
  5
1BF
330
1F
100
AcDbEntity
  8
0
  6
Continuous
 62
     7
370
    15
100
AcDbLine
 10
244.9734321209
 20
26.1160864045
 30
0.0
 11
243.621502917
 21
26.8965385215
 31
0.0
  0
SPLINE
  5
1C0
330
1F
100
AcDbEntity
  8
0
  6
Continuous
 62
     7
370
    15
100
AcDbSpline
210
0.0
220
0.0
230
1.0
 70
     8
 71
     3
 72
     8
 73
     4
 74
     0
 42
0.000000001
 43
0.00000001
 40
0.0
 40
0.0
 40
0.0
 40
0.0
 40
0.0011891741919631
 40
0.0011891741919631
 40
0.0011891741919631
 40
0.0011891741919631
 10
243.6215029170405
 20
26.8965385215388
 30
0.0
 10
243.632055399933
 20
27.09439014033878
 30
0.0
 10
243.6430191954922
 20
27.29222868487926
 30
0.0
 10
243.6544173397389
 20
27.49004894168752
 30
0.0
  0
LWPOLYLINE
  5
1C1
330
1F
100
AcDbEntity
  8
0
  6
Continuous
 62
     7
370
    15
100
AcDbPolyline
 90
       13
 70
   128
 43
0.0
 10
256.5838292459
 20
19.241138101
 10
255.3465453165
 20
19.0235524226
 10
254.0227915817
 20
18.9306191703
 10
252.7518674514
 20
18.9927750086
 10
251.5425480127
 20
19.2095907827
 10
250.4031830038
 20
19.5795694896
 10
249.3416391628
 20
20.1001566139
 10
248.3652459119
 20
20.7677577651
 10
247.480744752
 20
21.5777634956
 10
246.6942427155
 20
22.5245811262
 10
246.0111702003
 20
23.6016733608
 10
245.4362434762
 20
24.8016034233
 10
245.1030648412
 20
25.701844398
  0
SPLINE
  5
1C2
330
1F
100
AcDbEntity
  8
0
  6
Continuous
 62
     7
370
    15
100
AcDbSpline
210
0.0
220
0.0
230
1.0
 70
     8
 71
     3
 72
     8
 73
     4
 74
     0
 42
0.000000001
 43
0.00000001
 40
0.0
 40
0.0
 40
0.0
 40
0.0
 40
1.0
 40
1.0
 40
1.0
 40
1.0
 10
243.98284126365
 20
28.15398046697547
 30
0.0
 10
243.8730862720692
 20
27.93271534113951
 30
0.0
 10
243.7636234978063
 20
27.7114029116952
 30
0.0
 10
243.6544173397389
 20
27.49004894168752
 30
0.0
  0
LINE
  5
1C3
330
1F
100
AcDbEntity
  8
0
  6
Continuous
 62
     7
370
    15
100
AcDbLine
 10
244.0245021177
 20
28.1780307661
 30
0.0
 11
243.9828412637
 21
28.153980467
 31
0.0
  0
SPLINE
  5
1C4
330
1F
100
AcDbEntity
  8
0
  6
Continuous
 62
     7
370
    15
100
AcDbSpline
210
0.0
220
0.0
230
1.0
 70
     8
 71
     3
 72
    12
 73
     8
 74
     0
 42
0.000000001
 43
0.00000001
 40
0.0
 40
0.0
 40
0.0
 40
0.0
 40
0.25
 40
0.25
 40
0.5
 40
0.5
 40
1.0
 40
1.0
 40
1.0
 40
1.0
 10
244.0362843631034
 20
28.51139575631476
 30
0.0
 10
244.0738921599186
 20
28.48968523733474
 30
0.0
 10
244.104129607324
 20
28.46279451495869
 30
0.0
 10
244.1426107240999
 20
28.40531533530589
 30
0.0
 10
244.1515083272753
 20
28.37418845361965
 30
0.0
 10
244.146465729089
 20
28.28208501089
 30
0.0
 10
244.099877478666
 20
28.22154403577319
 30
0.0
 10
244.0245021176832
 20
28.17803076608383
 30
0.0
  0
LINE
  5
1C5
330
1F
100
AcDbEntity
  8
0
  6
Continuous
 62
     7
370
    15
100
AcDbLine
 10
243.251395836
 20
28.9645022584
 30
0.0
 11
244.0362843631
 21
28.5113957563
 31
0.0
  0
SPLINE
  5
1C6
330
1F
100
AcDbEntity
  8
0
  6
Continuous
 62
     7
370
    15
100
AcDbSpline
210
0.0
220
0.0
230
1.0
 70
     8
 71
     3
 72
    12
 73
     8
 74
     0
 42
0.000000001
 43
0.00000001
 40
0.0
 40
0.0
 40
0.0
 40
0.0
 40
0.5000000000000073
 40
0.5000000000000073
 40
0.7500000000000037
 40
0.7500000000000037
 40
1.0
 40
1.0
 40
1.0
 40
1.0
 10
242.6739281656169
 20
28.95770051287452
 30
0.0
 10
242.7491335333308
 20
29.0011156475386
 30
0.0
 10
242.8533783323412
 20
29.02815995038152
 30
0.0
 10
243.0147703384367
 20
29.03100566115609
 30
0.0
 10
243.068189774203
 20
29.02582153967704
 30
0.0
 10
243.1680137672192
 20
29.00342641546005
 30
0.0
 10
243.2137464438082
 20
28.98623678984826
 30
0.0
 10
243.2513958359863
 20
28.96450225837636
 30
0.0
  0
LINE
  5
1C7
330
1F
100
AcDbEntity
  8
0
  6
Continuous
 62
     7
370
    15
100
AcDbLine
 10
242.6322673116
 20
28.9336502138
 30
0.0
 11
242.6739281656
 21
28.9577005129
 31
0.0
  0
SPLINE
  5
1C8
330
1F
100
AcDbEntity
  8
0
  6
Continuous
 62
     7
370
    15
100
AcDbSpline
210
0.0
220
0.0
230
1.0
 70
     8
 71
     3
 72
     8
 73
     4
 74
     0
 42
0.000000001
 43
0.00000001
 40
0.0
 40
0.0
 40
0.0
 40
0.0
 40
1.0
 40
1.0
 40
1.0
 40
1.0
 10
241.4821795626354
 20
28.74405511813735
 30
0.0
 10
241.8656174314375
 20
28.80709849127371
 30
0.0
 10
242.2489833420764
 20
28.87029000578651
 30
0.0
 10
242.6322673115837
 20
28.93365021376616
 30
0.0
  0
LINE
  5
1C9
330
1F
100
AcDbEntity
  8
0
  6
Continuous
 62
     7
370
    15
100
AcDbLine
 10
240.1199412213
 20
29.5304585735
 30
0.0
 11
241.4821795626
 21
28.7440551181
 31
0.0
  0
LINE
  5
1CA
330
1F
100
AcDbEntity
  8
0
  6
Continuous
 62
     7
370
    15
100
AcDbLine
 10
240.1199412213
 20
29.5304585735
 30
0.0
 11
243.9347319025
 21
31.7326903579
 31
0.0
  0
ARC
  5
1CB
330
1F
100
AcDbEntity
  8
0
  6
Continuous
 62
     7
370
    15
100
AcDbCircle
 10
253.3308180886
 20
29.3547311852
 30
0.0
 40
10.01566334660227
100
AcDbArc
 50
194.207532472
 51
237.9790441783
  0
ARC
  5
1CC
330
1F
100
AcDbEntity
  8
0
  6
Continuous
 62
     7
370
    15
100
AcDbCircle
 10
253.5983282179
 20
32.0159003217
 30
0.0
 40
11.39099458029584
100
AcDbArc
 50
195.6991739239
 51
211.7569450809
  0
ARC
  5
1CD
330
1F
100
AcDbEntity
  8
0
  6
Continuous
 62
     7
370
    15
100
AcDbCircle
 10
250.351534958
 20
30.4868597962
 30
0.0
 40
9.470889359197056
100
AcDbArc
 50
193.1269352432
 51
248.2162297357
  0
SPLINE
  5
1CE
330
1F
100
AcDbEntity
  8
0
  6
Continuous
 62
     7
370
    15
100
AcDbSpline
210
0.0
220
0.0
230
1.0
 70
     8
 71
     3
 72
     8
 73
     4
 74
     0
 42
0.000000001
 43
0.00000001
 40
0.0
 40
0.0
 40
0.0
 40
0.0
 40
0.0011891741919631
 40
0.0011891741919631
 40
0.0011891741919631
 40
0.0011891741919631
 10
241.4821795626354
 20
28.74405511813735
 30
0.0
 10
241.364443382644
 20
28.60762250269188
 30
0.0
 10
241.2464197133816
 20
28.47158830769768
 30
0.0
 10
241.1281264830325
 20
28.33593409849531
 30
0.0
  0
ELLIPSE
  5
1CF
330
1F
100
AcDbEntity
  8
0
  6
Continuous
 62
     7
370
    15
100
AcDbEllipse
 10
243.817574615
 20
32.1269401452
 30
0.0
 11
-3.002985192779306E-5
 21
0.4267244807413632
 31
0.0
210
0.0
220
0.0
230
1.0
 40
0.7174342186
 41
3.534193645557434
 42
5.104989972352377
  0
LINE
  5
1D0
330
1F
100
AcDbEntity
  8
0
  6
Continuous
 62
     7
370
    15
100
AcDbLine
 10
239.6831101083
 20
29.278229263
 30
0.0
 11
240.1199412213
 21
29.5304585735
 31
0.0
  0
LINE
  5
1D1
330
1F
100
AcDbEntity
  8
0
  6
Continuous
 62
     7
370
    15
100
AcDbLine
 10
241.128126483
 20
28.3359340985
 30
0.0
 11
239.7850361139
 21
29.1112836648
 31
0.0
  0
SPLINE
  5
1D2
330
1F
100
AcDbEntity
  8
0
  6
Continuous
 62
     7
370
    15
100
AcDbSpline
210
0.0
220
0.0
230
1.0
 70
     8
 71
     3
 72
    10
 73
     6
 74
     0
 42
0.000000001
 43
0.00000001
 40
0.0
 40
0.0
 40
0.0
 40
0.0
 40
0.5
 40
0.5
 40
1.0
 40
1.0
 40
1.0
 40
1.0
 10
239.7850361139408
 20
29.11128366479239
 30
0.0
 10
239.7585763705166
 20
29.12655854953611
 30
0.0
 10
239.736275711476
 20
29.15047976324458
 30
0.0
 10
239.70220432913
 20
29.20855024156479
 30
0.0
 10
239.6903535206925
 20
29.24253130892462
 30
0.0
 10
239.6831101082975
 20
29.27822926303105
 30
0.0
  0
ARC
  5
1D3
330
1F
100
AcDbEntity
  8
0
  6
Continuous
 62
     7
370
    15
100
AcDbCircle
 10
249.4220723927
 20
31.4919384946
 30
0.0
 40
9.91161869381777
100
AcDbArc
 50
196.052040138
 51
238.0956352809
  0
ELLIPSE
  5
1D4
330
1F
100
AcDbEntity
  8
0
  6
Continuous
 62
     7
370
    15
100
AcDbEllipse
 10
243.5811785119
 20
31.9904272161
 30
0.0
 11
0.13000378946046
 21
0.4852718104954619
 31
0.0
210
0.0
220
0.0
230
1.0
 40
0.5176380889
 41
3.619174351347694
 42
5.189970678142617
  0
LINE
  5
1D5
330
1F
100
AcDbEntity
  8
0
  6
Continuous
 62
     7
370
     0
100
AcDbLine
 10
245.3328733824
 20
37.0531970753
 30
0.0
 11
245.438016655
 21
37.5309249533
 31
0.0
  0
LWPOLYLINE
  5
1D6
330
1F
100
AcDbEntity
  8
0
  6
Continuous
 62
     7
370
     0
100
AcDbPolyline
 90
       18
 70
   128
 43
0.0
 10
260.9909484749
 20
60.5733637874
 10
261.154568163
 20
60.6767741768
 10
262.5930911421
 20
61.5084323332
 10
264.0266635616
 20
62.198315288
 10
265.4452427893
 20
62.7415901912
 10
266.8388912252
 20
63.1344512288
 10
268.1978459176
 20
63.3741462838
 10
269.5125869553
 20
63.458996216
 10
270.7739041581
 20
63.3884066245
 10
271.9729615964
 20
63.1628720119
 10
273.1013594906
 20
62.7839723202
 10
274.1511930535
 20
62.2543618624
 10
275.1151078659
 20
61.5777507289
 10
275.9863513974
 20
60.7588787964
 10
276.7588203089
 20
59.803482524
 10
277.4271032094
 20
58.7182547673
 10
277.9865185639
 20
57.510797893
 10
278.4331474895
 20
56.1895705216
  0
LWPOLYLINE
  5
1D7
330
1F
100
AcDbEntity
  8
0
  6
Continuous
 62
     7
370
     0
100
AcDbPolyline
 90
       21
 70
   128
 43
0.0
 10
244.9734321209
 20
37.386875693
 10
245.4362434762
 20
39.2357092911
 10
246.0111702003
 20
41.09943562
 10
246.6942427155
 20
42.9651865935
 10
247.480744752
 20
44.8200801466
 10
248.3652459119
 20
46.6513091789
 10
249.3416391628
 20
48.4462299819
 10
250.4031830038
 20
50.1924495367
 10
251.5425480127
 20
51.8779110821
 10
252.7518674514
 20
53.4909773601
 10
254.0227915817
 20
55.0205109651
 10
255.3465453165
 20
56.4559512427
 10
256.7139888069
 20
57.7873872049
 10
258.1156805484
 20
59.0056259611
 10
259.5419425698
 20
60.1022561898
 10
260.9829272544
 20
61.069706215
 10
262.428685333
 20
61.9012962842
 10
263.8692345785
 20
62.5912846895
 10
265.2946287283
 20
63.1349074105
 10
266.695026158
 20
63.5284110078
 10
266.7698859993
 20
63.5453614444
  0
LWPOLYLINE
  5
1D8
330
1F
100
AcDbEntity
  8
0
  6
Continuous
 62
     7
370
     0
100
AcDbPolyline
 90
       26
 70
   128
 43
0.0
 10
249.4766813001
 20
36.3430004049
 10
249.7255157903
 20
37.8770052077
 10
250.0908749292
 20
39.4435234233
 10
250.5692578751
 20
41.0275448023
 10
251.156080802
 20
42.6138913813
 10
251.8457208205
 20
44.1873629174
 10
252.6315698564
 20
45.7328825348
 10
253.5060979685
 20
47.2356411912
 10
254.4609254999
 20
48.6812395759
 10
255.4869033715
 20
50.0558260835
 10
256.5742007471
 20
51.3462295385
 10
257.7123992323
 20
52.5400854007
 10
258.8905927022
 20
53.6259542407
 10
260.0974918034
 20
54.5934313522
 10
261.3215321276
 20
55.4332464487
 10
262.5509850203
 20
56.1373524906
 10
263.7740699647
 20
56.6990027915
 10
264.9790674607
 20
57.112815664
 10
266.154431321
 20
57.3748259871
 10
267.2888993052
 20
57.4825231993
 10
268.371601034
 20
57.4348753547
 10
269.3921621478
 20
57.2323390112
 10
270.3408037136
 20
56.8768548552
 10
271.2084359255
 20
56.3718291071
 10
271.9867452027
 20
55.7221008821
 10
272.2424623941
 20
55.4551976836
  0
LWPOLYLINE
  5
1D9
330
1F
100
AcDbEntity
  8
0
  6
Continuous
 62
     7
370
     0
100
AcDbPolyline
 90
       10
 70
   128
 43
0.0
 10
254.7813815254
 20
25.208441165
 10
254.4609254999
 20
25.285904347
 10
253.5060979685
 20
25.6290823296
 10
252.6315698564
 20
26.1221323199
 10
251.8457208205
 20
26.7603299535
 10
251.156080802
 20
27.5375600726
 10
250.5692578751
 20
28.446375322
 10
250.0908749292
 20
29.4780675082
 10
249.7255157903
 20
30.6227510411
 10
249.4766813001
 20
31.8694576567
  0
LWPOLYLINE
  5
1DA
330
1F
100
AcDbEntity
  8
0
  6
Continuous
 62
     7
370
     0
100
AcDbPolyline
 90
       18
 70
   128
 43
0.0
 10
263.3087557817
 20
22.3123504172
 10
262.5930911421
 20
21.8479101855
 10
261.154568163
 20
21.0186850631
 10
259.7211719366
 20
20.3313283341
 10
258.3029438606
 20
19.7906551518
 10
256.909819075
 20
19.4004531041
 10
255.5515568635
 20
19.163455681
 10
254.237672286
 20
19.0813231249
 10
252.9773695232
 20
19.1546308006
 10
251.7794773978
 20
19.3828651644
 10
250.6523875263
 20
19.7644273619
 10
249.6039955327
 20
20.2966444282
 10
248.6416457375
 20
20.9757880128
 10
247.7720797079
 20
21.7971004984
 10
247.0013890313
 20
22.7548283291
 10
246.3349726417
 20
23.8422623158
 10
245.7774989985
 20
25.0517846367
 10
245.3328733824
 20
26.3749222021
  0
LWPOLYLINE
  5
1DB
330
1F
100
AcDbEntity
  8
0
  6
Continuous
 62
     7
370
     0
100
AcDbPolyline
 90
       23
 70
   128
 43
0.0
 10
254.8241763328
 20
31.0906215678
 10
254.883634616
 20
32.5225572102
 10
255.0614368498
 20
34.0093516022
 10
255.3558707015
 20
35.536686101
 10
255.7641006122
 20
37.0898516403
 10
256.2821951046
 20
38.6538903871
 10
256.9051646456
 20
40.2137397932
 10
257.627009698
 20
41.7543776561
 10
258.4407784993
 20
43.260966791
 10
259.338634011
 20
44.718997921
 10
260.3119293938
 20
46.1144294092
 10
261.3512912812
 20
47.4338224876
 10
262.4467100499
 20
48.6644706795
 10
263.5876362183
 20
49.7945221702
 10
264.7630820439
 20
50.8130939461
 10
265.9617273407
 20
51.7103766041
 10
267.1720284993
 20
52.4777288217
 10
268.3823296578
 20
53.1077605776
 10
269.5809749546
 20
53.5944043216
 10
270.7564207802
 20
53.9329734084
 10
271.8973469487
 20
54.1202072326
 10
272.9927657173
 20
54.1543026301
 10
273.4485452748
 20
54.1216025326
  0
ARC
  5
1DC
330
1F
100
AcDbEntity
  8
0
  6
Continuous
 62
     7
370
     0
100
AcDbCircle
 10
265.2592573745
 20
30.5920446275
 30
0.0
 40
10.44698498675025
100
AcDbArc
 50
177.264549579
 51
213.9504963523
  0
LWPOLYLINE
  5
1DD
330
1F
100
AcDbEntity
  8
0
  6
Continuous
 62
     7
370
     0
100
AcDbPolyline
 90
       22
 70
   128
 43
0.0
 10
255.531283114
 20
31.0906215678
 10
255.5908854789
 20
29.745957501
 10
255.7691002187
 20
28.4834727356
 10
256.0641561551
 20
27.3157144125
 10
256.4731208898
 20
26.2542882384
 10
256.9919299474
 20
25.3097431435
 10
257.6154271705
 20
24.4914664414
 10
258.3374159635
 20
23.8075905335
 10
259.1507208774
 20
23.2649120859
 10
260.0472589226
 20
22.8688244808
 10
261.0181199013
 20
22.6232642147
 10
262.0536549608
 20
22.5306717759
 10
263.1435724885
 20
22.5919673896
 10
264.2770403943
 20
22.8065418725
 10
265.442793765
 20
23.1722626871
 10
266.6292468198
 20
23.6854951354
 10
267.8246080552
 20
24.341138483
 10
269.0169974343
 20
25.1326766515
 10
270.1945644556
 20
26.0522429792
 10
271.3456059291
 20
27.0906984027
 10
272.4586822875
 20
28.2377222854
 10
273.1308622738
 20
29.0055770722
  0
LWPOLYLINE
  5
1DE
330
1F
100
AcDbEntity
  8
0
  6
Continuous
 62
     7
370
     0
100
AcDbPolyline
 90
       39
 70
   128
 43
0.0
 10
278.130455937
 20
37.666065696
 10
278.3320716792
 20
38.2436980039
 10
278.796535941
 20
39.7841910024
 10
279.1489843978
 20
41.3070988279
 10
279.3859142584
 20
42.7972861383
 10
279.5049708074
 20
44.2399427825
 10
279.5049708074
 20
45.6207309907
 10
279.3859142584
 20
46.9259278693
 10
279.1489843978
 20
48.1425617853
 10
278.796535941
 20
49.2585412844
 10
278.3320716792
 20
50.2627752608
 10
277.7602076669
 20
51.1452831862
 10
277.0866273454
 20
51.8972943003
 10
276.3180250588
 20
52.5113347787
 10
275.4620395217
 20
52.9813020114
 10
274.5271779032
 20
53.3025252528
 10
273.5227312778
 20
53.4718120421
 10
272.4586822875
 20
53.487479931
 10
271.3456059291
 20
53.3493732051
 10
270.1945644556
 20
53.0588644311
 10
269.0169974343
 20
52.6188408156
 10
267.8246080552
 20
52.0336755111
 10
266.6292468198
 20
51.3091841532
 10
265.442793765
 20
50.4525670626
 10
264.2770403943
 20
49.4723376847
 10
263.1435724885
 20
48.3782379795
 10
262.0536549608
 20
47.1811416014
 10
261.0181199013
 20
45.892945832
 10
260.0472589226
 20
44.5264533396
 10
259.1507208774
 20
43.0952449406
 10
258.3374159635
 20
41.613544627
 10
257.6154271705
 20
40.0960782022
 10
256.9919299474
 20
38.5579269293
 10
256.4731208898
 20
37.0143776467
 10
256.0641561551
 20
35.4807708406
 10
255.7691002187
 20
33.9723481845
 10
255.5908854789
 20
32.5041010603
 10
255.531283114
 20
31.0906215678
 10
255.531283114
 20
31.0906215678
  0
LWPOLYLINE
  5
1DF
330
1F
100
AcDbEntity
  8
0
  6
Continuous
 62
     7
370
     0
100
AcDbPolyline
 90
       21
 70
   128
 43
0.0
 10
239.7850361139
 20
40.3820729533
 10
240.2478474693
 20
42.2309065514
 10
240.8227741934
 20
44.0946328802
 10
241.5058467085
 20
45.9603838538
 10
242.2923487451
 20
47.8152774068
 10
243.176849905
 20
49.6465064392
 10
244.1532431558
 20
51.4414272422
 10
245.2147869969
 20
53.187646797
 10
246.3541520058
 20
54.8731083424
 10
247.5634714444
 20
56.4861746203
 10
248.8343955747
 20
58.0157082254
 10
250.1581493095
 20
59.4511485029
 10
251.5255927999
 20
60.7825844652
 10
252.9272845415
 20
62.0008232214
 10
254.3535465629
 20
63.0974534501
 10
255.7945312474
 20
64.0649034752
 10
257.240289326
 20
64.8964935445
 10
258.6808385715
 20
65.5864819498
 10
260.1062327213
 20
66.1301046708
 10
261.506630151
 20
66.523608268
 10
261.5801132727
 20
66.5402508106
  0
LWPOLYLINE
  5
1E0
330
1F
100
AcDbEntity
  8
0
  6
Continuous
 62
     7
370
     0
100
AcDbPolyline
 90
       21
 70
   128
 43
0.0
 10
249.7506851778
 20
34.0194856689
 10
249.810143461
 20
35.4514213114
 10
249.9879456948
 20
36.9382157034
 10
250.2823795465
 20
38.4655502021
 10
250.6906094572
 20
40.0187157415
 10
251.2087039496
 20
41.5827544883
 10
251.8316734906
 20
43.1426038944
 10
252.553518543
 20
44.6832417573
 10
253.3672873442
 20
46.1898308922
 10
254.265142856
 20
47.6478620222
 10
255.2384382388
 20
49.0432935104
 10
256.2778001262
 20
50.3626865887
 10
257.3732188948
 20
51.5933347807
 10
258.5141450633
 20
52.7233862714
 10
259.6895908889
 20
53.7419580472
 10
260.8882361857
 20
54.6392407052
 10
262.0985373442
 20
55.4065929228
 10
263.3088385028
 20
56.0366246788
 10
264.5074837996
 20
56.5232684228
 10
265.6829296252
 20
56.8618375096
 10
266.3441050596
 20
56.9881701272
  0
ARC
  5
1E1
330
1F
100
AcDbEntity
  8
0
  6
Continuous
 62
     7
370
     0
100
AcDbCircle
 10
261.7364084148
 20
33.7625529252
 30
0.0
 40
11.9884767985155
100
AcDbArc
 50
178.7719633398
 51
202.6590013348
  0
LWPOLYLINE
  5
1E2
330
1F
100
AcDbEntity
  8
0
  6
Continuous
 62
     7
370
     0
100
AcDbPolyline
 90
       21
 70
   128
 43
0.0
 10
262.5758344215
 20
35.1573544748
 10
262.6367740265
 20
36.0866800356
 10
262.8180923061
 20
37.063481887
 10
263.1153246025
 20
38.0637079258
 10
263.5211520701
 20
39.0627292672
 10
264.0255818898
 20
40.0359466903
 10
264.6161933254
 20
40.9593963521
 10
265.2784435631
 20
41.8103398574
 10
265.9960258043
 20
42.5678241528
 10
266.7512707926
 20
43.213197461
 10
267.5255818898
 20
43.7305685494
 10
268.2998929871
 20
44.1071980246
 10
269.0551379754
 20
44.3338120191
 10
269.7727202166
 20
44.4048305441
 10
270.4349704543
 20
44.318504888
 10
271.0255818898
 20
44.0769606749
 10
271.5300117096
 20
43.6861455249
 10
271.9358391772
 20
43.155682604
 10
272.2330714736
 20
42.49863367
 10
272.4143897532
 20
41.7311774481
 10
272.4750675116
 20
40.9308519411
  0
LWPOLYLINE
  5
1E3
330
1F
100
AcDbEntity
  8
0
  6
Continuous
 62
     7
370
     0
100
AcDbPolyline
 90
       11
 70
   128
 43
0.0
 10
267.4754738484
 20
32.2703633173
 10
266.7512707926
 20
31.9223677077
 10
265.9960258043
 20
31.6957537133
 10
265.2784435631
 20
31.6247351882
 10
264.6161933254
 20
31.7110608443
 10
264.0255818898
 20
31.9526050575
 10
263.5211520701
 20
32.3434202075
 10
263.1153246025
 20
32.8738831283
 10
262.8180923061
 20
33.5309320624
 10
262.6367740265
 20
34.2983882843
 10
262.5758344215
 20
35.1573544748
  0
LWPOLYLINE
  5
1E4
330
1F
100
AcDbEntity
  8
0
  6
Continuous
 62
     7
370
     0
100
AcDbPolyline
 90
       19
 70
   128
 43
0.0
 10
243.251395836
 20
39.4570516911
 10
243.6965066248
 20
41.2188946066
 10
244.2514458859
 20
42.9946649872
 10
244.9121468057
 20
44.7713492889
 10
245.6737675081
 20
46.5359272699
 10
246.5307265367
 20
48.2754674081
 10
247.4767437585
 20
49.9772216689
 10
248.504886387
 20
51.6287189273
 10
249.6076197883
 20
53.2178563614
 10
250.7768626982
 20
54.7329881467
 10
252.0040464444
 20
56.1630108012
 10
253.2801777415
 20
57.497444556
 10
254.595904597
 20
58.7265101555
 10
255.9415848468
 20
59.8412005231
 10
257.3073568163
 20
60.8333467693
 10
258.6832115911
 20
61.6956780557
 10
260.0590663659
 20
62.4218748795
 10
261.4248383355
 20
63.0066153844
 10
262.5318125164
 20
63.3779740778
  0
LWPOLYLINE
  5
1E5
330
1F
100
AcDbEntity
  8
0
  6
Continuous
 62
     7
370
     0
100
AcDbPolyline
 90
       22
 70
   128
 43
0.0
 10
242.6739281656
 20
39.4502499456
 10
243.1221091033
 20
41.2489426205
 10
243.6831425065
 20
43.0626572675
 10
244.3528843168
 20
44.8779969309
 10
245.1263875038
 20
46.6815526519
 10
245.9979386064
 20
48.4600025133
 10
246.9610999354
 20
50.2002100419
 10
248.0087571248
 20
51.8893212403
 10
249.1331716822
 20
53.5148595329
 10
250.3260381489
 20
55.0648179237
 10
251.578545448
 20
56.5277476856
 10
252.8814419671
 20
57.8928429263
 10
254.2251038953
 20
59.1500204055
 10
255.599606309
 20
60.2899940148
 10
256.994796482
 20
61.3043433689
 10
258.4003688786
 20
62.1855760029
 10
259.8059412753
 20
62.927182715
 10
261.2011314483
 20
63.5236856467
 10
262.5756338619
 20
63.9706787446
 10
263.9192957901
 20
64.2648603061
 10
265.2221923093
 20
64.4040573667
 10
265.8498535363
 20
64.4152424765
  0
ARC
  5
1E6
330
1F
100
AcDbEntity
  8
0
  6
Continuous
 62
     7
370
     0
100
AcDbCircle
 10
267.8103449989
 20
34.8670468712
 30
0.0
 40
2.42353380119084
100
AcDbArc
 50
173.1201958033
 51
235.5676238033
  0
LWPOLYLINE
  5
1E7
330
1F
100
AcDbEntity
  8
0
  6
Continuous
 62
     7
370
     0
100
AcDbPolyline
 90
       14
 70
   128
 43
0.0
 10
271.4395922838
 20
41.5286190663
 10
271.070430642
 20
41.6864324417
 10
270.5157185222
 20
41.7628225813
 10
269.9073402324
 20
41.6837759247
 10
269.2660133655
 20
41.4519843108
 10
268.6135775389
 20
41.0753411252
 10
267.972250672
 20
40.5666724997
 10
267.3638723822
 20
39.9433005343
 10
266.8091602624
 20
39.2264534136
 10
266.3270043686
 20
38.4405425067
 10
265.9338239414
 20
37.6123310667
 10
265.6430082688
 20
36.770022841
 10
265.4644607297
 20
35.9423016259
 10
265.4042615463
 20
35.1573544748
  0
LWPOLYLINE
  5
1E8
330
1F
100
AcDbEntity
  8
0
  6
Continuous
 62
     7
370
     0
100
AcDbPolyline
 90
       10
 70
   128
 43
0.0
 10
274.7845621075
 20
30.4884984015
 10
275.0769606784
 20
30.1448127432
 10
275.4690124121
 20
29.9567890153
 10
275.9369092816
 20
29.9358452872
 10
276.4522374315
 20
30.0832534036
 10
276.983702659
 20
30.3900617488
 10
277.4990308089
 20
30.8376388497
 10
277.9669276784
 20
31.3988048043
 10
278.3589794121
 20
32.039481829
 10
278.6513779831
 20
32.7207636913
  0
LWPOLYLINE
  5
1E9
330
1F
100
AcDbEntity
  8
0
  6
Continuous
 62
     7
370
     0
100
AcDbPolyline
 90
       10
 70
   128
 43
0.0
 10
278.6514248738
 20
34.9276793869
 10
278.3590327553
 20
35.2714060935
 10
277.9669754437
 20
35.4594596553
 10
277.499063405
 20
35.4804191836
 10
276.9837139222
 20
35.3330117622
 10
276.4522252543
 20
35.0261897541
 10
275.936875827
 20
34.5785871057
 10
275.4689638959
 20
34.0173876681
 10
275.0769067376
 20
33.3766742646
 10
274.7845148087
 20
32.695358769
  0
LINE
  5
1EA
330
1F
100
AcDbEntity
  8
0
  6
Continuous
 62
     7
370
     0
100
AcDbLine
 10
243.7137610334
 20
37.5045277963
 30
0.0
 11
243.7195643981
 21
37.9449897781
 31
0.0
  0
LWPOLYLINE
  5
1EB
330
1F
100
AcDbEntity
  8
0
  6
Continuous
 62
     7
370
     0
100
AcDbPolyline
 90
        3
 70
   128
 43
0.0
 10
243.7604340843
 20
38.7700568641
 10
243.7732193166
 20
38.9364634387
 10
243.7971920515
 20
39.2074420338
  0
LWPOLYLINE
  5
1EC
330
1F
100
AcDbEntity
  8
0
  6
Continuous
 62
     7
370
     0
100
AcDbPolyline
 90
        3
 70
   128
 43
0.0
 10
243.7883462519
 20
35.9827332768
 10
243.7732193166
 20
36.1412412264
 10
243.7137610334
 20
37.5045277963
  0
LINE
  5
1ED
330
1F
100
AcDbEntity
  8
0
  6
Continuous
 62
     7
370
     0
100
AcDbLine
 10
273.9602535986
 20
30.8197716375
 30
0.0
 11
274.0309642768
 21
30.5558814035
 31
0.0
  0
LWPOLYLINE
  5
1EE
330
1F
100
AcDbEntity
  8
0
  6
Continuous
 62
     7
370
     0
100
AcDbPolyline
 90
        3
 70
   128
 43
0.0
 10
278.2193838546
 20
34.8813100553
 10
277.9126459855
 20
35.1929228285
 10
277.8927700319
 20
35.205150141
  0
LWPOLYLINE
  5
1EF
330
1F
100
AcDbEntity
  8
0
  6
Continuous
 62
     7
370
     0
100
AcDbPolyline
 90
        8
 70
   128
 43
0.0
 10
275.1309497535
 20
30.4489569845
 10
275.5074045518
 20
30.3273167776
 10
275.9879121732
 20
30.3672259541
 10
276.5058380109
 20
30.5851041234
 10
277.0237638487
 20
30.9652103979
 10
277.50427147
 20
31.4800835122
 10
277.9126459855
 20
32.0925257978
 10
278.2193838546
 20
32.7582905762
  0
LINE
  5
1F0
330
1F
100
AcDbEntity
  8
0
  6
Continuous
 62
     7
370
     0
100
AcDbLine
 10
273.8090028451
 20
30.907086839
 30
0.0
 11
273.9602535986
 21
30.8197716375
 31
0.0
  0
LWPOLYLINE
  5
1F1
330
1F
100
AcDbEntity
  8
0
  6
Continuous
 62
     7
370
     0
100
AcDbPolyline
 90
       19
 70
   128
 43
0.0
 10
212.6376468544
 20
61.3907316722
 10
212.6967391188
 20
62.4877000803
 10
212.8730456189
 20
63.6348827738
 10
213.1636714067
 20
64.8134430446
 10
213.5638444149
 20
66.0040289656
 10
214.0669938137
 20
67.187091149
 10
214.6648579039
 20
68.3432037462
 10
215.3476197736
 20
69.4533834206
 10
216.1040684919
 20
70.4994010524
 10
216.9217831917
 20
71.4640810612
 10
217.7873370202
 20
72.3315834279
 10
218.6865176075
 20
73.0876637875
 10
219.6045604332
 20
73.7199073215
 10
220.5263912596
 20
74.2179326085
 10
221.4368736498
 20
74.573562087
 10
222.3210575083
 20
74.780956331
 10
223.1644245605
 20
74.8367099326
 10
223.9531267428
 20
74.7399074191
 10
224.3722737671
 20
74.6173163253
  0
ARC
  5
1F2
330
1F
100
AcDbEntity
  8
0
  6
Continuous
 62
     7
370
     0
100
AcDbCircle
 10
218.0394792761
 20
60.9532354532
 30
0.0
 40
5.419519946873572
100
AcDbArc
 50
175.3697020041
 51
225.6114643727
  0
LINE
  5
1F3
330
1F
100
AcDbEntity
  8
0
  6
Continuous
 62
     7
370
     0
100
AcDbLine
 10
249.4766813001
 20
39.0258874224
 30
0.0
 11
249.193792614
 21
39.1891955848
 31
0.0
  0
LINE
  5
1F4
330
1F
100
AcDbEntity
  8
0
  6
Continuous
 62
     7
370
     0
100
AcDbLine
 10
244.1004173275
 20
32.2902217675
 30
0.0
 11
249.4766813001
 21
29.1865706392
 31
0.0
  0
LINE
  5
1F5
330
1F
100
AcDbEntity
  8
0
  6
Continuous
 62
     7
370
     0
100
AcDbLine
 10
243.8640212244
 20
32.1537088385
 30
0.0
 11
244.1004173275
 21
32.2902217675
 31
0.0
  0
LINE
  5
1F6
330
1F
100
AcDbEntity
  8
0
  6
Continuous
 62
     7
370
     0
100
AcDbLine
 10
279.4049758138
 20
33.6582322284
 30
0.0
 11
279.1928437794
 21
33.8404816513
 31
0.0
  0
LINE
  5
1F7
330
1F
100
AcDbEntity
  8
0
  6
Continuous
 62
     7
370
     0
100
AcDbLine
 10
277.2483001312
 20
34.963042805
 30
0.0
 11
279.1928437794
 21
33.8404816513
 31
0.0
  0
LINE
  5
1F8
330
1F
100
AcDbEntity
  8
0
  6
Continuous
 62
     7
370
     0
100
AcDbLine
 10
245.1030648412
 20
25.701844398
 30
0.0
 11
244.9734321209
 21
26.1160864045
 31
0.0
  0
LINE
  5
1F9
330
1F
100
AcDbEntity
  8
0
  6
Continuous
 62
     7
370
     0
100
AcDbLine
 10
249.1938385876
 20
28.6966726921
 30
0.0
 11
243.9347319025
 21
31.7326903579
 31
0.0
  0
LINE
  5
1FA
330
1F
100
AcDbEntity
  8
0
  6
Continuous
 62
     7
370
     0
100
AcDbLine
 10
244.1128922605
 20
28.2639854984
 30
0.0
 11
244.0362843631
 21
28.5113957563
 31
0.0
  0
LWPOLYLINE
  5
1FB
330
1F
100
AcDbEntity
  8
0
  6
Continuous
 62
     7
370
     0
100
AcDbPolyline
 90
        3
 70
   128
 43
0.0
 10
243.7165486651
 20
27.6691136651
 10
243.6965066248
 20
27.7165733208
 10
243.251395836
 20
28.9645022584
  0
ARC
  5
1FC
330
1F
100
AcDbEntity
  8
0
  6
Continuous
 62
     7
370
     0
100
AcDbCircle
 10
253.6949973511
 20
32.074757172
 30
0.0
 40
11.45338413780101
100
AcDbArc
 50
195.7923389603
 51
210.4893931686
  0
LINE
  5
1FD
330
1F
100
AcDbEntity
  8
0
  6
Continuous
 62
     7
370
     0
100
AcDbLine
 10
239.8968983369
 20
28.7512735502
 30
0.0
 11
239.7850361139
 21
29.1112836648
 31
0.0
  0
OLE2FRAME
  5
1FE
330
1F
100
AcDbEntity
  8
0
100
AcDbOle2Frame
 70
     2
  3
Paintbrush-Bild
 10
13.8511154363
 20
38.264191557
 30
0.0
 11
51.6290888628
 21
31.9806341108
 31
0.0
 71
     2
 72
     0
 73
     1
 90
    12928
310
80552BED0767C5B32B40DDAF6807D121434000000000000000006FFBDDFB85D0
310
4940DDAF6807D121434000000000000000006FFBDDFB85D04940416F4BD60AFB
310
3F4000000000000000002BED0767C5B32B40416F4BD60AFB3F40000000000000
310
0000000000000100000000010000010000000100000000000100000000320000
310
D0CF11E0A1B11AE1000000000000000000000000000000003E000300FEFF0900
310
0600000000000000000000000100000001000000000000000010000002000000
310
01000000FEFFFFFF0000000000000000FFFFFFFFFFFFFFFFFFFFFFFFFFFFFFFF
310
FFFFFFFFFFFFFFFFFFFFFFFFFFFFFFFFFFFFFFFFFFFFFFFFFFFFFFFFFFFFFFFF
310
FFFFFFFFFFFFFFFFFFFFFFFFFFFFFFFFFFFFFFFFFFFFFFFFFFFFFFFFFFFFFFFF
310
FFFFFFFFFFFFFFFFFFFFFFFFFFFFFFFFFFFFFFFFFFFFFFFFFFFFFFFFFFFFFFFF
310
FFFFFFFFFFFFFFFFFFFFFFFFFFFFFFFFFFFFFFFFFFFFFFFFFFFFFFFFFFFFFFFF
310
FFFFFFFFFFFFFFFFFFFFFFFFFFFFFFFFFFFFFFFFFFFFFFFFFFFFFFFFFFFFFFFF
310
FFFFFFFFFFFFFFFFFFFFFFFFFFFFFFFFFFFFFFFFFFFFFFFFFFFFFFFFFFFFFFFF
310
FFFFFFFFFFFFFFFFFFFFFFFFFFFFFFFFFFFFFFFFFFFFFFFFFFFFFFFFFFFFFFFF
310
FFFFFFFFFFFFFFFFFFFFFFFFFFFFFFFFFFFFFFFFFFFFFFFFFFFFFFFFFFFFFFFF
310
FFFFFFFFFFFFFFFFFFFFFFFFFFFFFFFFFFFFFFFFFFFFFFFFFFFFFFFFFFFFFFFF
310
FFFFFFFFFFFFFFFFFFFFFFFFFFFFFFFFFFFFFFFFFFFFFFFFFFFFFFFFFFFFFFFF
310
FFFFFFFFFFFFFFFFFFFFFFFFFFFFFFFFFFFFFFFFFFFFFFFFFFFFFFFFFFFFFFFF
310
FFFFFFFFFFFFFFFFFFFFFFFFFFFFFFFFFFFFFFFFFFFFFFFFFFFFFFFFFFFFFFFF
310
FFFFFFFFFFFFFFFFFFFFFFFFFFFFFFFFFFFFFFFFFFFFFFFFFFFFFFFFFFFFFFFF
310
FDFFFFFFFEFFFFFFFEFFFFFFFEFFFFFF05000000060000000700000008000000
310
090000000A0000000B0000000C0000000D0000000E0000000F00000010000000
310
11000000120000001300000014000000150000001600000017000000FEFFFFFF
310
FFFFFFFFFFFFFFFFFFFFFFFFFFFFFFFFFFFFFFFFFFFFFFFFFFFFFFFFFFFFFFFF
310
FFFFFFFFFFFFFFFFFFFFFFFFFFFFFFFFFFFFFFFFFFFFFFFFFFFFFFFFFFFFFFFF
310
FFFFFFFFFFFFFFFFFFFFFFFFFFFFFFFFFFFFFFFFFFFFFFFFFFFFFFFFFFFFFFFF
310
FFFFFFFFFFFFFFFFFFFFFFFFFFFFFFFFFFFFFFFFFFFFFFFFFFFFFFFFFFFFFFFF
310
FFFFFFFFFFFFFFFFFFFFFFFFFFFFFFFFFFFFFFFFFFFFFFFFFFFFFFFFFFFFFFFF
310
FFFFFFFFFFFFFFFFFFFFFFFFFFFFFFFFFFFFFFFFFFFFFFFFFFFFFFFFFFFFFFFF
310
FFFFFFFFFFFFFFFFFFFFFFFFFFFFFFFFFFFFFFFFFFFFFFFFFFFFFFFFFFFFFFFF
310
FFFFFFFFFFFFFFFFFFFFFFFFFFFFFFFFFFFFFFFFFFFFFFFFFFFFFFFFFFFFFFFF
310
FFFFFFFFFFFFFFFFFFFFFFFFFFFFFFFFFFFFFFFFFFFFFFFFFFFFFFFFFFFFFFFF
310
FFFFFFFFFFFFFFFFFFFFFFFFFFFFFFFFFFFFFFFFFFFFFFFFFFFFFFFFFFFFFFFF
310
FFFFFFFFFFFFFFFFFFFFFFFFFFFFFFFFFFFFFFFFFFFFFFFFFFFFFFFFFFFFFFFF
310
FFFFFFFFFFFFFFFFFFFFFFFFFFFFFFFFFFFFFFFFFFFFFFFFFFFFFFFFFFFFFFFF
310
FFFFFFFFFFFFFFFFFFFFFFFFFFFFFFFFFFFFFFFFFFFFFFFFFFFFFFFFFFFFFFFF
310
52006F006F007400200045006E00740072007900000000000000000000000000
310
0000000000000000000000000000000000000000000000000000000000000000
310
16000500FFFFFFFFFFFFFFFF020000000A00030000000000C000000000000046
310
000000000000000000000000D0E95E52191BD20103000000C000000000000000
310
01004F006C006500000000000000000000000000000000000000000000000000
310
0000000000000000000000000000000000000000000000000000000000000000
310
0A000200FFFFFFFFFFFFFFFFFFFFFFFF00000000000000000000000000000000
310
0000000000000000000000000000000000000000000000001400000000000000
310
010043006F006D0070004F0062006A0000000000000000000000000000000000
310
0000000000000000000000000000000000000000000000000000000000000000
310
120002010100000003000000FFFFFFFF00000000000000000000000000000000
310
0000000000000000000000000000000000000000010000004D00000000000000
310
01004F006C006500310030004E00610074006900760065000000000000000000
310
0000000000000000000000000000000000000000000000000000000000000000
310
1A000200FFFFFFFFFFFFFFFFFFFFFFFF00000000000000000000000000000000
310
0000000000000000000000000000000000000000040000002426000000000000
310
FEFFFFFF02000000FEFFFFFFFFFFFFFFFFFFFFFFFFFFFFFFFFFFFFFFFFFFFFFF
310
FFFFFFFFFFFFFFFFFFFFFFFFFFFFFFFFFFFFFFFFFFFFFFFFFFFFFFFFFFFFFFFF
310
FFFFFFFFFFFFFFFFFFFFFFFFFFFFFFFFFFFFFFFFFFFFFFFFFFFFFFFFFFFFFFFF
310
FFFFFFFFFFFFFFFFFFFFFFFFFFFFFFFFFFFFFFFFFFFFFFFFFFFFFFFFFFFFFFFF
310
FFFFFFFFFFFFFFFFFFFFFFFFFFFFFFFFFFFFFFFFFFFFFFFFFFFFFFFFFFFFFFFF
310
FFFFFFFFFFFFFFFFFFFFFFFFFFFFFFFFFFFFFFFFFFFFFFFFFFFFFFFFFFFFFFFF
310
FFFFFFFFFFFFFFFFFFFFFFFFFFFFFFFFFFFFFFFFFFFFFFFFFFFFFFFFFFFFFFFF
310
FFFFFFFFFFFFFFFFFFFFFFFFFFFFFFFFFFFFFFFFFFFFFFFFFFFFFFFFFFFFFFFF
310
FFFFFFFFFFFFFFFFFFFFFFFFFFFFFFFFFFFFFFFFFFFFFFFFFFFFFFFFFFFFFFFF
310
FFFFFFFFFFFFFFFFFFFFFFFFFFFFFFFFFFFFFFFFFFFFFFFFFFFFFFFFFFFFFFFF
310
FFFFFFFFFFFFFFFFFFFFFFFFFFFFFFFFFFFFFFFFFFFFFFFFFFFFFFFFFFFFFFFF
310
FFFFFFFFFFFFFFFFFFFFFFFFFFFFFFFFFFFFFFFFFFFFFFFFFFFFFFFFFFFFFFFF
310
FFFFFFFFFFFFFFFFFFFFFFFFFFFFFFFFFFFFFFFFFFFFFFFFFFFFFFFFFFFFFFFF
310
FFFFFFFFFFFFFFFFFFFFFFFFFFFFFFFFFFFFFFFFFFFFFFFFFFFFFFFFFFFFFFFF
310
FFFFFFFFFFFFFFFFFFFFFFFFFFFFFFFFFFFFFFFFFFFFFFFFFFFFFFFFFFFFFFFF
310
FFFFFFFFFFFFFFFFFFFFFFFFFFFFFFFFFFFFFFFFFFFFFFFFFFFFFFFFFFFFFFFF
310
0100000200000000000000000000000000000000000000000000000000000000
310
0000000000000000000000000000000000000000000000000000000000000000
310
0100FEFF030A0000FFFFFFFF0A00030000000000C00000000000004607000000
310
5042727573680007000000504272757368000700000050427275736800F439B2
310
7100000000000000000000000000000000000000000000000000000000000000
310
0000000000000000000000000000000000000000000000000000000000000000
310
0000000000000000000000000000000000000000000000000000000000000000
310
0000000000000000000000000000000000000000000000000000000000000000
310
0000000000000000000000000000000000000000000000000000000000000000
310
0000000000000000000000000000000000000000000000000000000000000000
310
0000000000000000000000000000000000000000000000000000000000000000
310
0000000000000000000000000000000000000000000000000000000000000000
310
0000000000000000000000000000000000000000000000000000000000000000
310
0000000000000000000000000000000000000000000000000000000000000000
310
0000000000000000000000000000000000000000000000000000000000000000
310
0000000000000000000000000000000000000000000000000000000000000000
310
20260000424D0E260000000000003E00000028000000B40200006E0000000100
310
01000000000000000000130B0000130B00000200000002000000000000FFFFFF
310
FFFFFFFFFFFFFFFFFFFFFFFFFFFFFFFFFFFFFFFFFFFFFFFFFFFFFFFFFFFFFFFF
310
FFFFFFFFFFFFFFFFFFFFFFFFFFFFFFFFFFFFFFFFFFFFFFFFFFFFFFFFFFFFFFFF
310
FFFFFFFFFFFFFFFFFFFFFFFFFFFFFFFFFFFFFFFFFFFFFFFFF000FFFFFFFFFFFF
310
FFFFFFFFFFFFFFFFFFFFFFFFFFFFFFFFFFFFFFFFFFFFFFFFFFFFFFFFFFFFFFFF
310
FFFFFFFFFFFFFFFFFFFFFFFFFFFFFFFFFFFFFFFFFFFFFFFFFFFFFFFFFFFFFFFF
310
FFFFFFFFFFFFFFFFFFFFFFFFFFFFFFFFF000FFFFFFFFFFFFFFFFFFFFFFFFFFFF
310
FFFFFFFFFFFFFFFFFFFFFFFFFFFFFFFFFFFFFFFFFFFFFFFFFFFFFFFFFFFFFFFF
310
FFFFFFFFFFFFFFFFFFFFFFFFFFFFFFFFFFFFFFFFFFFFFFFFFFFFFFFFFFFFFFFF
310
FFFFFFFFFFFFFFFFF000FFFFFFFFFFFFFFFFFFFFFFFFFFFFFFFFFFFFFFFFFFFF
310
FFFFFFFFFFFFFFFFFFFFFFFFFFFFFFFFFFFFFFFFFFFFFFFFFFFFFFFFFFFFFFFF
310
FFFFFFFFFFFFFFFFFFFFFFFFFFFFFFFFFFFFFFFFFFFFFFFFFFFFFFFFFFFFFFFF
310
F000FFFFFFFFFFFFFFFFFFFFFFFFFFFFFFFFFFFFFFFFFFFFFFFFFFFFFFFFFFFF
310
FFFFFFFFFFFFFFFFFFFFFFFFFFFFFFFFFFFFFFFFFFFFFFFFFFFFFFFFFFFFFFFF
310
FFFFFFFFFFFFFFFFFFFFFFFFFFFFFFFFFFFFFFFFFFFFFFFFF000FFFFFFFFFFFF
310
FFFFFFFFFFFFFFFFFFFFFFFFFFFFFFFFFFFFFFFFFFFFFFFFFFFFFFFFFFFFFFFF
310
FFFFFFFFFFFFFFFFFFFFFFFFFFFFFFFFFFFFFFFFFFFFFFFFFFFFFFFFFFFFFFFF
310
FFFFFFFFFFFFFFFFFFFFFFFFFFFFFFFFF000FFFFFFFFFFFFFFFFFFFFFFFFFFFF
310
FFFFFFFFFFFFFFFFFFFFFFFFFFFFFFFFFFFFFFFFFFFFFFFFFFFFFFFFFFFFFFFF
310
FFFFFFFFFFFFFFFFFFFFFFFFFFFFFFFFFFFFFFFFFFFFFFFFFFFFFFFFFFFFFFFF
310
FFFFFFFFFFFFFFFFF000FFFFFFFFFFFFFFFFFFFFFFFFFFFFFFFFFFFFFFFFFFFF
310
FFFFFFFFFFFFFFFFFFFFFFFFFFFFFFFFFFFFFFFFFFFFFFFFFFFFFFFFFFFFFFFF
310
FFFFFFFFFFFFFFFFFFFFFFFFFFFFFFFFFFFFFFFFFFFFFFFFFFFFFFFFFFFFFFFF
310
F000FFFFFFFFFFFFFFFFFFFFFFFFFFFFFFFFFFFFFFFFFFFFFFFFFFFFFFFFFFFF
310
FFFFFFFFFFFFFFFFFFFFFFFFFFFFFFFFFFFFFFFFFFFFFFFFFFFFFFFFFFFFFFFF
310
FFFFFFFFFFFFFFFFFFFFFFFFFFFFFFFFFFFFFFFFFFFFFFFFF000FFFFFFFFFFFF
310
FFFFFFFFFFFFFFFFFFFFFFFFFFFFFFFFFFFFFFFFFFFFFFFFFFFFFFFFFFFFFFFF
310
FFFFFFFFFFFFFFFFFFFFFFFFFFFFFFFFFFFFFFFFFFFFFFFFFFFFFFFFFFFFFFFF
310
FFFFFFFFFFFFFFFFFFFFFFFFFFFFFFFFF000FFFFFFFFFFFFFFFFFFFFFFFFFFFF
310
FFFFFFFFFFFFFFFFFFFFFFFFFFFFFFFFFFFFFFFFFFFFFFFFFFFFFFFFFFFFFFFF
310
FFFFFFFFFFFFFFFFFFFFFFFFFFFFFFFFFFFFFFFFFFFFFFFFFFFFFFFFFFFFFFFF
310
FFFFFFFFFFFFFFFFF000FFFFFFFFFFFFFFFFFFFFFFFFFFFFFFFFFFFFFFFFFFFF
310
FFFFFFFFFFFFFFFFFFFFFFFFFFFFFFFFFFFFFFFFFFFFFFFFFFFFFFFFFFFFFFFF
310
FFFFFFFFFFFFFFFFFFFFFFFFFFFFFFFFFFFFFFFFFFFFFFFFFFFFFFFFFFFFFFFF
310
F000FFFFFFFFFFFFFFFFFFFFFFFFFFFFFFFFFFFFFFFFFFFFFFFFFFFFFFFFFFFF
310
FFFFFFFFFFFFFFFFFFFFFFFFFFFFFFFFFFFFFFFFFFFFFFFFFFFFFFFFFFFFFFFF
310
FFFFFFFFFFFFFFFFFFFFFFFFFFFFFFFFFFFFFFFFFFFFFFFFF000FFFFFFFFFFFF
310
FFFFFFFFFFFFFFFFFFFFFFFFFFFFFFFFFFFFFFFFFFFFFFFFFFFFFFFFFFFFFFFF
310
FFFFFFFFFFFFFFFFFFFFFFFFFFFFFFFFFFFFFFFFFFFFFFFFFFFFFFFFFFFFFFFF
310
FFFFFFFFFFFFFFFFFFFFFFFFFFFFFFFFF000FFFFFFFFFFFFFFFFFFFFFFFFFFFF
310
FFFFFFFFFFFFFFFFFFFFFFFFFFFFFFFFFFFFFFFFFFFFFFFFFFFFFFFFFFFFFFFF
310
FFFFFFFFFFFFFFFFFFFFFFFFFFFFFFFFFFFFFFFFFFFFFFFFFFFFFFFFFFFFFFFF
310
FFFFFFFFFFFFFFFFF000FFFFFFFFFFFFFFFFFFFFFFFFFFFFFFFFFFFFFFFFFFFF
310
FFFFFFFFFFFFFFFFFFFFFFFFFFFFFFFFFFFFFFFFFFFFFFFFFFFFFFFFFFFFFFFF
310
FFFFFFFFFFFFFFFFFFFFFFFFFFFFFFFFFFFFFFFFFFFFFFFFFFFFFFFFFFFFFFFF
310
F000FFFFFFFFFFFFFFFFFFFFFFFFFFFFFFFFFFFFFFFFFFFFFFFFFFFFFFFFFFFF
310
FFFFFFFFFFFFFFFFFFFFFFFFFFFFFFFFFFFFFFFFFFFFFFFFFFFFFFFFFFFFFFFF
310
FFFFFFFFFFFFFFFFFFFFFFFFFFFFFFFFFFFFFFFFFFFFFFFFF000FFFFFFFFFFFF
310
FFFFFFFFFFFFFFFFFFFFFFFFFFFFFFFFFFFFFFFFFFFFFFFFFFFFFFFFFFFFFFFF
310
FFFFFFFFFFFFFFFFFFFFFFFFFFFFFFFFFFFFFFFFFFFFFFFFFFFFFFFFFFFFFFFF
310
FFFFFFFFFFFFFFFFFFFFFFFFFFFFFFFFF000FFFFFFFFFFFFFFFFFFFFFFFFFFFF
310
FFFFFFFFFFFFFFFFFFFFFFFFFFFFFFFFFFFFFFFFFFFFFFFFFFFFFFFFFFFFFFFF
310
FFFFFFFFFFFFFFFFFFFFFFFFFFFFFFFFFFFFFFFFFFFFFFFFFFFFFFFFFFFFFFFF
310
FFFFFFFFFFFFFFFFF000FFFFF80003FFFFFFFFFFFFFFFFFFFFFFFFFFFFFFFFFF
310
FFFFF00007FFFFFFFFFF00007FFFFFF800000000000000007FFFFFFFFFFFFFFF
310
FFFFFFFC001FFFFFFFFFFFFFFC001FFFFFFFFFFFFFFFFFFFFFFFFFFE0007FFFF
310
F000FFFF8000007FFFFFFFF8000FFFFFC0007FFFFF80007FFFFF0000007FFFFF
310
FFF8000007FFFFF800000000000000007FFFFFF0001FFFFFFFFFFFC00001FFFF
310
FFFFFFFFC00001FFFFFFFF000000000003FFFFE000007FFFF000FFFE0000000F
310
FFFFFFF0000FFFFF80007FFFFF80007FFFFC0000001FFFFFFFC0000001FFFFF8
310
00000000000000007FFFFFF0001FFFFFFFFFFE0000003FFFFFFFFFFE0000003F
310
FFFFFF000000000003FFFF0000000FFFF000FFF800000003FFFFFFF00007FFFF
310
80007FFFFF80007FFFF000000007FFFFFF000000003FFFF80000000000000000
310
7FFFFFF0001FFFFFFFFFF80000000FFFFFFFFFF80000000FFFFFFF0000000000
310
03FFFC00000003FFF000FFE000000000FFFFFFF00007FFFF80003FFFFF80007F
310
FFC000000001FFFFFC000000001FFFF800000000000000007FFFFFF0001FFFFF
310
FFFFE000000003FFFFFFFFE000000003FFFFFF000000000003FFF000000000FF
310
F000FF80000000007FFFFFF00007FFFF80003FFFFF80007FFF8000000000FFFF
310
F80000000007FFF800000000000000007FFFFFF0001FFFFFFFFFC000000001FF
310
FFFFFFC000000001FFFFFF000000000003FFC0000000007FF000FF0000000000
310
3FFFFFE00007FFFF00003FFFFF80007FFE00000000003FFFF00000000003FFF8
310
00000000000000007FFFFFF0001FFFFFFFFF8000000000FFFFFFFF8000000000
310
FFFFFF000000000003FF80000000003FF000FE00000000001FFFFFE00003FFFF
310
00003FFFFF80007FFC00000000001FFFE00000000001FFF8000001FFFE000000
310
7FFFFFF0001FFFFFFFFE00000000003FFFFFFE00000000003FFFFF0000000000
310
03FF00000000001FF000FC00000000000FFFFFE00003FFFF00001FFFFF80007F
310
F800000000001FFFC00000000000FFF8000001FFFE0000007FFFFFF0001FFFFF
310
FFFC00000000001FFFFFFC00000000001FFFFF000000000003FE00000000000F
310
F000F8000000000007FFFFE00003FFFF00001FFFFF80007FF800000000000FFF
310
800000000000FFF8000001FFFE0000007FFFFFF0001FFFFFFFF800000000000F
310
FFFFF800000000000FFFFF000000000003FC000000000007F000F80000000000
310
03FFFFC00003FFFE00001FFFFF80007FF0000000000007FF0000000000007FF8
310
000001FFFE0000007FFFFFF0001FFFFFFFF0000000000007FFFFF00000000000
310
07FFFF000000000003F8000000000003F000F0000000000003FFFFC00001FFFE
310
00001FFFFF80007FE0000000000007FE0000000000003FF8000001FFFE000000
310
7FFFFFF0001FFFFFFFF0000000000007FFFFF0000000000007FFFF0000000000
310
03F800001F800003F000E00001FFF00001FFFFC00001FFFE00000FFFFF80007F
310
E00001FFE00003FE00001FFF00003FF8000001FFFE0000007FFFFFF0001FFFFF
310
FFE000003E000003FFFFE000003E000003FFFF000000000003F00001FFF80001
310
F000E00007FFFC0001FFFFC00001FFFE00000FFFFF80007FC0000FFFFC0003FC
310
0000FFFFC0001FF8000001FFFE0000007FFFFFF0001FFFFFFFC00003FFE00001
310
FFFFC00003FFE00001FFFF0001FFFFFFFFF00007FFFE0001F000E0000FFFFF00
310
00FFFF800001FFFC00000FFFFF80007FC0001FFFFE0001FC0001FFFFE0001FF8
310
000001FFFE0000007FFFFFF0001FFFFFFF80000FFFF80000FFFF80000FFFF800
310
00FFFF0003FFFFFFFFE0000FFFFF8000F000C0003FFFFF8000FFFF800000FFFC
310
000007FFFF80007F80003FFFFF0001FC0003FFFFF0001FF8000001FFFE000000
310
7FFFFFF0001FFFFFFF80003FFFFE0000FFFF80003FFFFE0000FFFF0003FFFFFF
310
FFE0003FFFFF8000F000C0003FFFFF8000FFFF800000FFFC000007FFFF80007F
310
80007FFFFF8001F80007FFFFF8000FF8000001FFFE0000007FFFFFF0001FFFFF
310
FF00007FFFFF00007FFF00007FFFFF00007FFF0003FFFFFFFFE0003FFFFFC000
310
F000C0007FFFFFC000FFFF000000FFFC000007FFFF80007F8000FFFFFF8000F8
310
000FFFFFF8000FF8000001FFFE0000007FFFFFF0001FFFFFFF0000FFFFFF8000
310
7FFF0000FFFFFF80007FFF0003FFFFFFFFC0007FFFFFC00070008000FFFFFFC0
310
00FFFF000000FFF8000007FFFF80007F8000FFFFFF8000F8000FFFFFF8000FF8
310
000001FFFE0000007FFFFFF0001FFFFFFE0001FFFFFFC0003FFE0001FFFFFFC0
310
003FFF0003FFFFFFFFC0007FFFFFE00070008000FFFFFFC0007FFF0000007FF8
310
000003FFFF80007F0001FFFFFF8000F8000FFFFFF8000FF8000001FFFE000000
310
7FFFFFF0001FFFFFFE0001FFFFFFC0003FFE0001FFFFFFC0003FFF0003FFFFFF
310
FFC000FFFFFFE00070008000FFFFFFC0007FFF0000007FF8000003FFFF80007F
310
0001FFFFFF8000F8001FFFFFF8000FF8000001FFFE0000007FFFFFF0001FFFFF
310
FE0003FFFFFFE0003FFE0003FFFFFFE0003FFF0003FFFFFFFFC000FFFFFFE000
310
70008000FFFFFFC0007FFE0000007FF8000003FFFF80007F0001FFFFFF8000F0
310
001FFFFFF8000FF8000001FFFE0000007FFFFFF0001FFFFFFC0003FFFFFFE000
310
1FFC0003FFFFFFE0001FFF0003FFFFFFFFC000FFFFFFC00070008000FFFFFF80
310
007FFE0000007FF0000003FFFF80007F0001FFFFFF0000F0001FFFFFF8000FF8
310
000001FFFE0000007FFFFFF0001FFFFFFC0007FFFFFFF0001FFC0007FFFFFFF0
310
001FFF0003FFFFFFFFC000FFFFFFC00070008001FFFFFF0000FFFE0000003FF0
310
000001FFFF80007F0001FFFFFF0000F8001FFFFFF0000FF8000001FFFE000000
310
7FFFFFF0001FFFFFFC0007FFFFFFF0001FFC0007FFFFFFF0001FFF0003FFFFFF
310
FFC001FFFFFF80007000FFFFFFFFFE0000FFFE0008003FF0008001FFFF80007F
310
FFFFFFFFFC0000FFFFFFFFFFE0000FF8000001FFFE0000007FFFFFF0001FFFFF
310
F8000FFFFFFFF8000FF8000FFFFFFFF8000FFF0003FFFFFFFFFFFFFFFFFF0000
310
7000FFFFFFFFFC0000FFFC0008003FF0008001FFFF80007FFFFFFFFFF80001FF
310
FFFFFFFF80000FF8000001FFFE0000007FFFFFF0001FFFFFF8000FFFFFFFF800
310
0FF8000FFFFFFFF8000FFF0003FFFFFFFFFFFFFFFFFE0000F000FFFFFFFFE000
310
00FFFC000C003FE000C001FFFF80007FFFFFFFFFC00001FFFFFFFFFE00001FF8
310
000001FFFE0000007FFFFFF0001FFFFFF8000FFFFFFFF8000FF8000FFFFFFFF8
310
000FFF0003FFFFFFFFFFFFFFFFF00000F000FFFFFFFE000001FFFC000C001FE0
310
00C000FFFF80007FFFFFFFFE000001FFFFFFFFE000001FF80FFFFFFFFFFFFFC0
310
7FFFFFF0001FFFFFF8000FFFFFFFF8000FF8000FFFFFFFF8000FFF0003FFFFFF
310
FFFFFFFFFF800000F000FFFFFFC0000001FFFC001C001FE001C000FFFF80007F
310
FFFFFF80000003FFFFFFF80000001FF80FFFFFFFFFFFFFC07FFFFFF0001FFFFF
310
F8001FFFFFFFFC000FF8001FFFFFFFFC000FFF0003FFFFFFFFFFFFFFF0000001
310
F000FFFFF800000001FFF8001C001FE001C000FFFF80007FFFFFF800000003FF
310
FFFF800000003FF80FFFFFFFFFFFFFC07FFFFFF0001FFFFFF8001FFFFFFFFC00
310
0FF8001FFFFFFFFC000FFF0003FFFFFFFFFFFFFE00000001F000FFFFC0000000
310
03FFF8001E001FC001E000FFFF80007FFFFF8000000007FFFFFC000000003FF8
310
0FFFFFFFFFFFFFC07FFFFFF0001FFFFFF8001FFFFFFFFC000FF8001FFFFFFFFC
310
000FFF0003FFFFFFFFFFFFE000000003F000FFFE0000000007FFF8001E000FC0
310
01E0007FFF80007FFFFE0000000007FFFFE0000000007FF80FFFFFFFFFFFFFC0
310
7FFFFFF0001FFFFFF0001FFFFFFFFC0007F0001FFFFFFFFC0007FF0003FFFFFF
310
FFFFFF0000000003F000FFF80000000007FFF8001E000FC003E0007FFF80007F
310
FFF0000000000FFFFF8000000000FFF80FFFFFFFFFFFFFC07FFFFFF0001FFFFF
310
F0001FFFFFFFFC0007F0001FFFFFFFFC0007FF0003FFFFFFFFFFFC0000000007
310
F000FFE0000000000FFFF0003E000FC003E0007FFF80007FFFC0000000001FFF
310
FE0000000001FFF80FFFFFFFFFFFFFC07FFFFFF0001FFFFFF0001FFFFFFFFC00
310
07F0001FFFFFFFFC0007FF0003FFFFFFFFFFF0000000000FF000FFC000000000
310
1FFFF0003F000F8003F0003FFF80007FFF80000000003FFFF80000000003FFF8
310
0FFFFFFFFFFFFFC07FFFFFF0001FFFFFF0001FFFFFFFFC0007F0001FFFFFFFFC
310
0007FF0003FFFFFFFFFFE0000000001FF000FF00000000007FFFF0003F000780
310
03F0003FFF80007FFF00000000007FFFF00000000007FFF80FFFFFFFFFFFFFC0
310
7FFFFFF0001FFFFFF0001FFFFFFFFC0007F0001FFFFFFFFC0007FF0003FFFFFF
310
FFFF80000000007FF000FE0000000000FFFFE0003F00078007F0003FFF80007F
310
FE0000000001FFFFE0000000001FFFF80FFFFFFFFFFFFFC07FFFFFF0001FFFFF
310
F0001FFFFFFFFC0007F0001FFFFFFFFC0007FF0003FFFFFFFFFF0000000000FF
310
F000FC0000000003FFFFE0007F00078007F0003FFF80007FFC0000000007FFFF
310
C0000000007FFFF80FFFFFFFFFFFFFC07FFFFFF0001FFFFFF8001FFFFFFFFC00
310
0FF8001FFFFFFFFC000FFF0003FFFFFFFFFE0000000003FFF000FC000000000F
310
FFFFE0007F80070007F8001FFF80007FF8000000001FFFFF8000000001FFFFF8
310
0FFFFFFFFFFFFFC07FFFFFF0001FFFFFF8001FFFFFFFFC000FF8001FFFFFFFFC
310
000FFF0003FFFFFFFFFC000000000FFFF000F8000000007FFFFFE0007F800700
310
07F8001FFF80007FF000000000FFFFFF800000000FFFFFF80FFFFFFFFFFFFFC0
310
7FFFFFF0001FFFFFF8000FFFFFFFF8000FF8000FFFFFFFF8000FFF0003FFFFFF
310
FFFC000000007FFFF000F800000007FFFFFFC0007F8003000FF8001FFF80007F
310
F000000007FFFFFF000000007FFFFFF80FFFFFFFFFFFFFC07FFFFFF0001FFFFF
310
F8000FFFFFFFF8000FF8000FFFFFFFF8000FFF0003FFFFFFFFF80000000FFFFF
310
F000F0000000FFFFFFFFC000FF8003000FF8001FFF80007FE0000000FFFFFFFF
310
0000000FFFFFFFF8000001FFFE0000007FFFFFF0001FFFFFF8000FFFFFFFF800
310
0FF8000FFFFFFFF8000FFF0003FFFFFFFFF8000000FFFFFFF000F000000FFFFF
310
FFFFC000FFC002000FF8000FFF80007FE000001FFFFFFFFE000001FFFFFFFFF8
310
000001FFFE0000007FFFFFF0001FFFFFF8000FFFFFFFF8000FF8000FFFFFFFF8
310
000FFF0003FFFFFFFFF000001FFFFFFFF000E00000FFFFFFFFFFC000FFC00200
310
0FFC000FFF80007FE00001FFFFFFFFFE00001FFFFFFFFFF8000001FFFE000000
310
7FFFFFF0001FFFFFFC000FFFFFFFF8001FFC000FFFFFFFF8001FFF0003FFFFFF
310
FFF00001FFFFFFFFF000E00007FFFFFFFFFF8000FFC000001FFC000FFF80007F
310
C0000FFFFFFFFFFE0000FFFFFFFFFFF8000001FFFE0000007FFFFFF0001FFFFF
310
FC0007FFFFFFF0001FFC0007FFFFFFF0001FFF0003FFFFFFFFF00007FFFFFFFF
310
F000E0001FFFFFFFFFFF8000FFC000001FFC000FFF80007FC0003FFFFFFFFFFE
310
0001FFFFFFFFFFF8000001FFFE0000007FFFFFF0001FFFFFFC0007FFFFFFF000
310
1FFC0007FFFFFFF0001FFF0003FFFFFFFFF0001FFFFFFFFFF000E0003FFFFF00
310
03FF8001FFE000001FFC0007FF80007FC0007FFFFF0007FC0003FFFFF0003FF8
310
000001FFFE0000007FFFFFF0001FFFFFFC0003FFFFFFE0001FFC0003FFFFFFE0
310
001FFF0003FFFFFFFFF0003FFFFFFFFFF000E0003FFFFF0001FF8001FFE00000
310
1FFE0007FF80007FC0007FFFFE0003FC0007FFFFE0003FF8000001FFFE000000
310
7FFFFFF0001FFFFFFE0003FFFFFFE0003FFE0003FFFFFFE0003FFF0003FFFFFF
310
FFF0003FFFFF8001F000E0003FFFFF0001FF0001FFE000001FFE0007FF80007F
310
C0007FFFFE0003FC0007FFFFE0003FF8000001FFFE0000007FFFFFF0001FFFFF
310
FE0001FFFFFFC0003FFE0001FFFFFFC0003FFF0003FFFFFFFFF0003FFFFF0001
310
F000E0003FFFFF0003FF0001FFE000003FFE0007FF80007FC0007FFFFE0003FC
310
0007FFFFE0003FF8000001FFFE0000007FFFFFF0001FFFFFFF0001FFFFFFC000
310
7FFF0001FFFFFFC0007FFF0003FFFFFFFFF0003FFFFF0001F000E0003FFFFE00
310
03FF0003FFF000003FFE0003FF80007FC0007FFFFC0003FE0007FFFFE0003FF8
310
000001FFFE0000007FFFFFF0001FFFFFFF0000FFFFFF80007FFF0000FFFFFF80
310
007FFF0003FFFFFFFFF0003FFFFF0001F000E0003FFFFE0003FF0003FFF00000
310
3FFF0003FF80007FC0007FFFFC0007FE0007FFFFC0003FF8000001FFFE000000
310
7FFFFFF0001FFFFFFF80007FFFFF0000FFFF80007FFFFF0000FFFF0003FFFFFF
310
FFF0003FFFFF0003F000E0003FFFFC0003FE0003FFF000003FFF0003FF80007F
310
E0003FFFF80007FE0003FFFFC0007FF8000001FFFE0000007FFFFFF0001FFFFF
310
FF80003FFFFE0000FFFF80003FFFFE0000FFFF0003FFFFFFFFF0001FFFFE0003
310
F000F0001FFFF80003FE0003FFF000007FFF0001FF80007FE0003FFFF00007FE
310
0001FFFF80007FF8000001FFFE0000007FFFFFF0001FFFFFFFC0000FFFF80001
310
FFFFC0000FFFF80001FFFF0003FFFFFFFFF0001FFFFC0003F000F0000FFFF000
310
07FE0007FFF800007FFF0001FF80007FE0001FFFE00007FF0000FFFE00007FF8
310
000001FFFE0000007FFFFFF0001FFFFFFFC00003FFE00001FFFFC00003FFE000
310
01FFFF0003FFFFFFFFF8000FFFF80003F000F00003FFC00007FC0007FFF80000
310
7FFF8001FF80007FF00007FF80000FFF00007FF80000FFF8000001FFFE000000
310
7F80000000000001FFE000003E000003FFFFE000003E000003FFFF0003FFFFFF
310
FFF80003FFE00007F000F800000000000FFC0007FFF800007FFF8001FF80007F
310
F000000000000FFF000000000000FFF8000001FFFE0000007F80000000000001
310
FFF0000000000007FFFFF0000000000007FFFF0003FFFFFFFFFC00007E000007
310
F000F800000000000FFC0007FFF80000FFFF8000FF80007FF800000000001FFF
310
800000000001FFF8000001FFFE0000007F80000000000001FFF800000000000F
310
FFFFF800000000000FFFFF0003FFFFFFFFFC00000000000FF000FC0000000000
310
1FFC0007FFFC0000FFFF8000FF80007FF800000000003FFFC00000000001FFF8
310
000001FFFE0000007F80000000000001FFF800000000000FFFFFF80000000000
310
0FFFFF0003FFFFFFFFFE00000000001FF000FE00000000003FF8000FFFFC0000
310
FFFF8000FF80007FFC00000000003FFFC00000000003FFF8000001FFFE000000
310
7F80000000000001FFFC00000000001FFFFFFC00000000001FFFFF0003FFFFFF
310
FFFF00000000001FF000FF00000000003FF8000FFFFC0000FFFFC000FF80007F
310
FE00000000007FFFE00000000007FFF8000001FFFE0000007F80000000000001
310
FFFE00000000003FFFFFFE00000000003FFFFF0003FFFFFFFFFF80000000003F
310
F000FF80000000007FF8000FFFFC0001FFFFC0007F80007FFF0000000000FFFF
310
F0000000000FFFF800000000000000007F80000000000001FFFF8000000000FF
310
FFFFFF8000000000FFFFFF0003FFFFFFFFFFC0000000007FF000FFC000000000
310
FFF8000FFFFE0001FFFFC0007F80007FFF8000000001FFFFF8000000001FFFF8
310
00000000000000007F80000000000001FFFFC000000001FFFFFFFFC000000001
310
FFFFFF0003FFFFFFFFFFE000000000FFF000FFE000000003FFF0001FFFFE0001
310
FFFFC0007F80007FFFC000000007FFFFFE000000003FFFF80000000000000000
310
7F80000000000001FFFFE000000003FFFFFFFFE000000003FFFFFF0003FFFFFF
310
FFFFF000000003FFF000FFF80000000FFFF0001FFFFE0001FFFFE0007F80007F
310
FFF00000000FFFFFFF00000000FFFFF800000000000000007F80000000000001
310
FFFFF80000000FFFFFFFFFF80000000FFFFFFF0003FFFFFFFFFFFC0000000FFF
310
F000FFFE0000003FFFF0001FFFFE0003FFFFE0003F80007FFFFC0000003FFFFF
310
FFC0000003FFFFF800000000000000007F80000000000001FFFFFE0000003FFF
310
FFFFFFFE0000003FFFFFFF0003FFFFFFFFFFFF0000003FFFF000FFFF800000FF
310
FFF0001FFFFF0003FFFFE0003F80007FFFFF000001FFFFFFFFF800001FFFFFF8
310
00000000000000007F80000000000001FFFFFFC00001FFFFFFFFFFFFC00001FF
310
FFFFFF0003FFFFFFFFFFFFC00000FFFFF000FFFFF8000FFFFFFFFFFFFFFFFFFF
310
FFFFFFFFFFFFFFFFFFFFF0001FFFFFFFFFFF0000FFFFFFF80000000000000000
310
7FFFFFFFFFFFFFFFFFFFFFFC001FFFFFFFFFFFFFFC001FFFFFFFFFFFFFFFFFFF
310
FFFFFFFC001FFFFFF000FFFFFFFFFFFFFFFFFFFFFFFFFFFFFFFFFFFFFFFFFFFF
310
FFFFFFFFFFFFFFFFFFFFFFFFFFFFFFFFFFFFFFFFFFFFFFFFFFFFFFFFFFFFFFFF
310
FFFFFFFFFFFFFFFFFFFFFFFFFFFFFFFFFFFFFFFFFFFFFFFFFFFFFFFFFFFFFFFF
310
F000FFFFFFFFFFFFFFFFFFFFFFFFFFFFFFFFFFFFFFFFFFFFFFFFFFFFFFFFFFFF
310
FFFFFFFFFFFFFFFFFFFFFFFFFFFFFFFFFFFFFFFFFFFFFFFFFFFFFFFFFFFFFFFF
310
FFFFFFFFFFFFFFFFFFFFFFFFFFFFFFFFFFFFFFFFFFFFFFFFF000FFFFFFFFFFFF
310
FFFFFFFFFFFFFFFFFFFFFFFFFFFFFFFFFFFFFFFFFFFFFFFFFFFFFFFFFFFFFFFF
310
FFFFFFFFFFFFFFFFFFFFFFFFFFFFFFFFFFFFFFFFFFFFFFFFFFFFFFFFFFFFFFFF
310
FFFFFFFFFFFFFFFFFFFFFFFFFFFFFFFFF000FFFFFFFFFFFFFFFFFFFFFFFFFFFF
310
FFFFFFFFFFFFFFFFFFFFFFFFFFFFFFFFFFFFFFFFFFFFFFFFFFFFFFFFFFFFFFFF
310
FFFFFFFFFFFFFFFFFFFFFFFFFFFFFFFFFFFFFFFFFFFFFFFFFFFFFFFFFFFFFFFF
310
FFFFFFFFFFFFFFFFF000FFFFFFFFFFFFFFFFFFFFFFFFFFFFFFFFFFFFFFFFFFFF
310
FFFFFFFFFFFFFFFFFFFFFFFFFFFFFFFFFFFFFFFFFFFFFFFFFFFFFFFFFFFFFFFF
310
FFFFFFFFFFFFFFFFFFFFFFFFFFFFFFFFFFFFFFFFFFFFFFFFFFFFFFFFFFFFFFFF
310
F000FFFFFFFFFFFFFFFFFFFFFFFFFFFFFFFFFFFFFFFFFFFFFFFFFFFFFFFFFFFF
310
FFFFFFFFFFFFFFFFFFFFFFFFFFFFFFFFFFFFFFFFFFFFFFFFFFFFFFFFFFFFFFFF
310
FFFFFFFFFFFFFFFFFFFFFFFFFFFFFFFFFFFFFFFFFFFFFFFFF000FFFFFFFFFFFF
310
FFFFFFFFFFFFFFFFFFFFFFFFFFFFFFFFFFFFFFFFFFFFFFFFFFFFFFFFFFFFFFFF
310
FFFFFFFFFFFFFFFFFFFFFFFFFFFFFFFFFFFFFFFFFFFFFFFFFFFFFFFFFFFFFFFF
310
FFFFFFFFFFFFFFFFFFFFFFFFFFFFFFFFF000FFFFFFFFFFFFFFFFFFFFFFFFFFFF
310
FFFFFFFFFFFFFFFFFFFFFFFFFFFFFFFFFFFFFFFFFFFFFFFFFFFFFFFFFFFFFFFF
310
FFFFFFFFFFFFFFFFFFFFFFFFFFFFFFFFFFFFFFFFFFFFFFFFFFFFFFFFFFFFFFFF
310
FFFFFFFFFFFFFFFFF000FFFFFFFFFFFFFFFFFFFFFFFFFFFFFFFFFFFFFFFFFFFF
310
FFFFFFFFFFFFFFFFFFFFFFFFFFFFFFFFFFFFFFFFFFFFFFFFFFFFFFFFFFFFFFFF
310
FFFFFFFFFFFFFFFFFFFFFFFFFFFFFFFFFFFFFFFFFFFFFFFFFFFFFFFFFFFFFFFF
310
F000FFFFFFFFFFFFFFFFFFFFFFFFFFFFFFFFFFFFFFFFFFFFFFFFFFFFFFFFFFFF
310
FFFFFFFFFFFFFFFFFFFFFFFFFFFFFFFFFFFFFFFFFFFFFFFFFFFFFFFFFFFFFFFF
310
FFFFFFFFFFFFFFFFFFFFFFFFFFFFFFFFFFFFFFFFFFFFFFFFF000FFFFFFFFFFFF
310
FFFFFFFFFFFFFFFFFFFFFFFFFFFFFFFFFFFFFFFFFFFFFFFFFFFFFFFFFFFFFFFF
310
FFFFFFFFFFFFFFFFFFFFFFFFFFFFFFFFFFFFFFFFFFFFFFFFFFFFFFFFFFFFFFFF
310
FFFFFFFFFFFFFFFFFFFFFFFFFFFFFFFFF000FFFFFFFFFFFFFFFFFFFFFFFFFFFF
310
FFFFFFFFFFFFFFFFFFFFFFFFFFFFFFFFFFFFFFFFFFFFFFFFFFFFFFFFFFFFFFFF
310
FFFFFFFFFFFFFFFFFFFFFFFFFFFFFFFFFFFFFFFFFFFFFFFFFFFFFFFFFFFFFFFF
310
FFFFFFFFFFFFFFFFF000FFFFFFFFFFFFFFFFFFFFFFFFFFFFFFFFFFFFFFFFFFFF
310
FFFFFFFFFFFFFFFFFFFFFFFFFFFFFFFFFFFFFFFFFFFFFFFFFFFFFFFFFFFFFFFF
310
FFFFFFFFFFFFFFFFFFFFFFFFFFFFFFFFFFFFFFFFFFFFFFFFFFFFFFFFFFFFFFFF
310
F000FFFFFFFFFFFFFFFFFFFFFFFFFFFFFFFFFFFFFFFFFFFFFFFFFFFFFFFFFFFF
310
FFFFFFFFFFFFFFFFFFFFFFFFFFFFFFFFFFFFFFFFFFFFFFFFFFFFFFFFFFFFFFFF
310
FFFFFFFFFFFFFFFFFFFFFFFFFFFFFFFFFFFFFFFFFFFFFFFFF000FFFFFFFFFFFF
310
FFFFFFFFFFFFFFFFFFFFFFFFFFFFFFFFFFFFFFFFFFFFFFFFFFFFFFFFFFFFFFFF
310
FFFFFFFFFFFFFFFFFFFFFFFFFFFFFFFFFFFFFFFFFFFFFFFFFFFFFFFFFFFFFFFF
310
FFFFFFFFFFFFFFFFFFFFFFFFFFFFFFFFF000FFFFFFFFFFFFFFFFFFFFFFFFFFFF
310
FFFFFFFFFFFFFFFFFFFFFFFFFFFFFFFFFFFFFFFFFFFFFFFFFFFFFFFFFFFFFFFF
310
FFFFFFFFFFFFFFFFFFFFFFFFFFFFFFFFFFFFFFFFFFFFFFFFFFFFFFFFFFFFFFFF
310
FFFFFFFFFFFFFFFFF000FFFFFFFFFFFFFFFFFFFFFFFFFFFFFFFFFFFFFFFFFFFF
310
FFFFFFFFFFFFFFFFFFFFFFFFFFFFFFFFFFFFFFFFFFFFFFFFFFFFFFFFFFFFFFFF
310
FFFFFFFFFFFFFFFFFFFFFFFFFFFFFFFFFFFFFFFFFFFFFFFFFFFFFFFFFFFFFFFF
310
F000FFFFFFFFFFFFFFFFFFFFFFFFFFFFFFFFFFFFFFFFFFFFFFFFFFFFFFFFFFFF
310
FFFFFFFFFFFFFFFFFFFFFFFFFFFFFFFFFFFFFFFFFFFFFFFFFFFFFFFFFFFFFFFF
310
FFFFFFFFFFFFFFFFFFFFFFFFFFFFFFFFFFFFFFFFFFFFFFFFF000FFFFFFFFFFFF
310
FFFFFFFFFFFFFFFFFFFFFFFFFFFFFFFFFFFFFFFFFFFFFFFFFFFFFFFFFFFFFFFF
310
FFFFFFFFFFFFFFFFFFFFFFFFFFFFFFFFFFFFFFFFFFFFFFFFFFFFFFFFFFFFFFFF
310
FFFFFFFFFFFFFFFFFFFFFFFFFFFFFFFFF000FFFFFFFFFFFFFFFFFFFFFFFFFFFF
310
FFFFFFFFFFFFFFFFFFFFFFFFFFFFFFFFFFFFFFFFFFFFFFFFFFFFFFFFFFFFFFFF
310
FFFFFFFFFFFFFFFFFFFFFFFFFFFFFFFFFFFFFFFFFFFFFFFFFFFFFFFFFFFFFFFF
310
FFFFFFFFFFFFFFFFF000FFFFFFFFFFFFFFFFFFFFFFFFFFFFFFFFFFFFFFFFFFFF
310
FFFFFFFFFFFFFFFFFFFFFFFFFFFFFFFFFFFFFFFFFFFFFFFFFFFFFFFFFFFFFFFF
310
FFFFFFFFFFFFFFFFFFFFFFFFFFFFFFFFFFFFFFFFFFFFFFFFFFFFFFFFFFFFFFFF
310
F000FFFFFFFFFFFFFFFFFFFFFFFFFFFFFFFFFFFFFFFFFFFFFFFFFFFFFFFFFFFF
310
FFFFFFFFFFFFFFFFFFFFFFFFFFFFFFFFFFFFFFFFFFFFFFFFFFFFFFFFFFFFFFFF
310
FFFFFFFFFFFFFFFFFFFFFFFFFFFFFFFFFFFFFFFFFFFFFFFFF000FFFFFFFFFFFF
310
FFFFFFFFFFFFFFFFFFFFFFFFFFFFFFFFFFFFFFFFFFFFFFFFFFFFFFFFFFFFFFFF
310
FFFFFFFFFFFFFFFFFFFFFFFFFFFFFFFFFFFFFFFFFFFFFFFFFFFFFFFFFFFFFFFF
310
FFFFFFFFFFFFFFFFFFFFFFFFFFFFFFFFF0000000000000000000000000000000
310
0000000000000000000000000000000000000000000000000000000000000000
310
0000000000000000000000000000000000000000000000000000000000000000
310
0000000000000000000000000000000000000000000000000000000000000000
310
0000000000000000000000000000000000000000000000000000000000000000
310
0000000000000000000000000000000000000000000000000000000000000000
310
0000000000000000000000000000000000000000000000000000000000000000
310
0000000000000000000000000000000000000000000000000000000000000000
310
0000000000000000000000000000000000000000000000000000000000000000
310
0000000000000000000000000000000000000000000000000000000000000000
310
0000000000000000000000000000000000000000000000000000000000000000
310
0000000000000000000000000000000000000000000000000000000000000000
310
0000000000000000000000000000000000000000000000000000000000000000
310
0000000000000000000000000000000000000000000000000000000000000000
310
0000000000000000000000000000000000000000000000000000000000000000
310
0000000000000000000000000000000000000000000000000000000000000000
  1
OLE
  0
ENDSEC
  0
SECTION
  2
OBJECTS
  0
DICTIONARY
  5
C
330
0
100
AcDbDictionary
281
     1
  3
ACAD_GROUP
350
D
  3
ACAD_LAYOUT
350
1A
  3
ACAD_MLINESTYLE
350
17
  3
ACAD_PLOTSETTINGS
350
19
  3
ACAD_PLOTSTYLENAME
350
E
  3
ACAD_SCALELIST
350
47
  0
DICTIONARY
  5
D
102
{ACAD_REACTORS
330
C
102
}
330
C
100
AcDbDictionary
281
     1
  0
DICTIONARY
  5
1A
102
{ACAD_REACTORS
330
C
102
}
330
C
100
AcDbDictionary
281
     1
  3
Layout1
350
1E
  3
Layout2
350
26
  3
Model
350
22
  0
DICTIONARY
  5
17
102
{ACAD_REACTORS
330
C
102
}
330
C
100
AcDbDictionary
281
     1
  3
Standard
350
18
  0
DICTIONARY
  5
19
102
{ACAD_REACTORS
330
C
102
}
330
C
100
AcDbDictionary
281
     1
  0
ACDBDICTIONARYWDFLT
  5
E
102
{ACAD_REACTORS
330
C
102
}
330
C
100
AcDbDictionary
281
     1
  3
Normal
350
F
100
AcDbDictionaryWithDefault
340
F
  0
DICTIONARY
  5
47
102
{ACAD_REACTORS
330
C
102
}
330
C
100
AcDbDictionary
281
     1
  3
A0
350
48
  3
A1
350
49
  3
A2
350
4A
  3
A3
350
4B
  3
A4
350
4C
  3
A5
350
4D
  3
A6
350
4E
  3
A7
350
4F
  3
A8
350
50
  3
A9
350
51
  3
B0
350
52
  3
B1
350
53
  3
B2
350
54
  3
B3
350
55
  3
B4
350
56
  3
B5
350
57
  3
B6
350
58
  3
B7
350
59
  3
B8
350
5A
  3
B9
350
5B
  3
C0
350
5C
  3
C1
350
5D
  3
C2
350
5E
  3
C3
350
5F
  3
C4
350
60
  3
C5
350
61
  3
C6
350
62
  3
C7
350
63
  3
C8
350
64
  3
C9
350
65
  3
D0
350
66
  3
D1
350
67
  3
D2
350
68
  0
LAYOUT
  5
1E
102
{ACAD_REACTORS
330
1A
102
}
330
1A
100
AcDbPlotSettings
  1

  2
none_device
  4

  6

 40
0.0
 41
0.0
 42
0.0
 43
0.0
 44
0.0
 45
0.0
 46
0.0
 47
0.0
 48
0.0
 49
0.0
140
0.0
141
0.0
142
1.0
143
1.0
 70
   688
 72
     1
 73
     0
 74
     5
  7

 75
    16
147
1.0
148
0.0
149
0.0
100
AcDbLayout
  1
Layout1
 70
     1
 71
     1
 10
0.0
 20
0.0
 11
420.0
 21
297.0
 12
0.0
 22
0.0
 32
0.0
 14
1.0000000000E+20
 24
1.0000000000E+20
 34
1.0000000000E+20
 15
-1.0000000000E+20
 25
-1.0000000000E+20
 35
-1.0000000000E+20
146
0.0
 13
0.0
 23
0.0
 33
0.0
 16
1.0
 26
0.0
 36
0.0
 17
0.0
 27
1.0
 37
0.0
 76
     0
330
1B
  0
LAYOUT
  5
26
102
{ACAD_REACTORS
330
1A
102
}
330
1A
100
AcDbPlotSettings
  1

  2
none_device
  4

  6

 40
0.0
 41
0.0
 42
0.0
 43
0.0
 44
0.0
 45
0.0
 46
0.0
 47
0.0
 48
0.0
 49
0.0
140
0.0
141
0.0
142
1.0
143
1.0
 70
   688
 72
     1
 73
     0
 74
     5
  7

 75
    16
147
1.0
148
0.0
149
0.0
100
AcDbLayout
  1
Layout2
 70
     1
 71
     2
 10
0.0
 20
0.0
 11
0.0
 21
0.0
 12
0.0
 22
0.0
 32
0.0
 14
0.0
 24
0.0
 34
0.0
 15
0.0
 25
0.0
 35
0.0
146
0.0
 13
0.0
 23
0.0
 33
0.0
 16
1.0
 26
0.0
 36
0.0
 17
0.0
 27
1.0
 37
0.0
 76
     0
330
23
  0
LAYOUT
  5
22
102
{ACAD_REACTORS
330
1A
102
}
330
1A
100
AcDbPlotSettings
  1

  2
none_device
  4
Letter_(8.50_x_11.00_Inches)
  6

 40
6.35
 41
6.35
 42
6.35000508
 43
6.35000508
 44
215.9
 45
279.4
 46
0.0
 47
0.0
 48
0.0
 49
0.0
140
0.0
141
0.0
142
1.0
143
1.0
 70
  1712
 72
     1
 73
     0
 74
     0
  7

 75
     0
147
1.0
148
0.0
149
0.0
100
AcDbLayout
  1
Model
 70
     1
 71
     0
 10
0.0
 20
0.0
 11
297.0
 21
210.0
 12
0.0
 22
0.0
 32
0.0
 14
0.0
 24
0.0
 34
0.0
 15
297.0
 25
210.0
 35
0.0
146
0.0
 13
0.0
 23
0.0
 33
0.0
 16
1.0
 26
0.0
 36
0.0
 17
0.0
 27
1.0
 37
0.0
 76
     0
330
1F
331
29
  0
MLINESTYLE
  5
18
102
{ACAD_REACTORS
330
17
102
}
330
17
100
AcDbMlineStyle
  2
Standard
 70
     0
  3

 62
   256
 51
90.0
 52
90.0
 71
     2
 49
0.5
 62
   256
  6
BYLAYER
 49
-0.5
 62
   256
  6
BYLAYER
  0
ACDBPLACEHOLDER
  5
F
102
{ACAD_REACTORS
330
E
102
}
330
E
  0
SCALE
  5
48
102
{ACAD_REACTORS
330
47
102
}
330
47
100
AcDbScale
 70
     0
300
1:1
140
1.0
141
1.0
290
     1
  0
SCALE
  5
49
102
{ACAD_REACTORS
330
47
102
}
330
47
100
AcDbScale
 70
     0
300
1:2
140
1.0
141
2.0
290
     0
  0
SCALE
  5
4A
102
{ACAD_REACTORS
330
47
102
}
330
47
100
AcDbScale
 70
     0
300
1:4
140
1.0
141
4.0
290
     0
  0
SCALE
  5
4B
102
{ACAD_REACTORS
330
47
102
}
330
47
100
AcDbScale
 70
     0
300
1:5
140
1.0
141
5.0
290
     0
  0
SCALE
  5
4C
102
{ACAD_REACTORS
330
47
102
}
330
47
100
AcDbScale
 70
     0
300
1:8
140
1.0
141
8.0
290
     0
  0
SCALE
  5
4D
102
{ACAD_REACTORS
330
47
102
}
330
47
100
AcDbScale
 70
     0
300
1:10
140
1.0
141
10.0
290
     0
  0
SCALE
  5
4E
102
{ACAD_REACTORS
330
47
102
}
330
47
100
AcDbScale
 70
     0
300
1:16
140
1.0
141
16.0
290
     0
  0
SCALE
  5
4F
102
{ACAD_REACTORS
330
47
102
}
330
47
100
AcDbScale
 70
     0
300
1:20
140
1.0
141
20.0
290
     0
  0
SCALE
  5
50
102
{ACAD_REACTORS
330
47
102
}
330
47
100
AcDbScale
 70
     0
300
1:30
140
1.0
141
30.0
290
     0
  0
SCALE
  5
51
102
{ACAD_REACTORS
330
47
102
}
330
47
100
AcDbScale
 70
     0
300
1:40
140
1.0
141
40.0
290
     0
  0
SCALE
  5
52
102
{ACAD_REACTORS
330
47
102
}
330
47
100
AcDbScale
 70
     0
300
1:50
140
1.0
141
50.0
290
     0
  0
SCALE
  5
53
102
{ACAD_REACTORS
330
47
102
}
330
47
100
AcDbScale
 70
     0
300
1:100
140
1.0
141
100.0
290
     0
  0
SCALE
  5
54
102
{ACAD_REACTORS
330
47
102
}
330
47
100
AcDbScale
 70
     0
300
2:1
140
2.0
141
1.0
290
     0
  0
SCALE
  5
55
102
{ACAD_REACTORS
330
47
102
}
330
47
100
AcDbScale
 70
     0
300
4:1
140
4.0
141
1.0
290
     0
  0
SCALE
  5
56
102
{ACAD_REACTORS
330
47
102
}
330
47
100
AcDbScale
 70
     0
300
8:1
140
8.0
141
1.0
290
     0
  0
SCALE
  5
57
102
{ACAD_REACTORS
330
47
102
}
330
47
100
AcDbScale
 70
     0
300
10:1
140
10.0
141
1.0
290
     0
  0
SCALE
  5
58
102
{ACAD_REACTORS
330
47
102
}
330
47
100
AcDbScale
 70
     0
300
100:1
140
100.0
141
1.0
290
     0
  0
SCALE
  5
59
102
{ACAD_REACTORS
330
47
102
}
330
47
100
AcDbScale
 70
     0
300
1/128" = 1'-0"
140
0.0078125
141
12.0
290
     0
  0
SCALE
  5
5A
102
{ACAD_REACTORS
330
47
102
}
330
47
100
AcDbScale
 70
     0
300
1/64" = 1'-0"
140
0.015625
141
12.0
290
     0
  0
SCALE
  5
5B
102
{ACAD_REACTORS
330
47
102
}
330
47
100
AcDbScale
 70
     0
300
1/32" = 1'-0"
140
0.03125
141
12.0
290
     0
  0
SCALE
  5
5C
102
{ACAD_REACTORS
330
47
102
}
330
47
100
AcDbScale
 70
     0
300
1/16" = 1'-0"
140
0.0625
141
12.0
290
     0
  0
SCALE
  5
5D
102
{ACAD_REACTORS
330
47
102
}
330
47
100
AcDbScale
 70
     0
300
3/32" = 1'-0"
140
0.09375
141
12.0
290
     0
  0
SCALE
  5
5E
102
{ACAD_REACTORS
330
47
102
}
330
47
100
AcDbScale
 70
     0
300
1/8" = 1'-0"
140
0.125
141
12.0
290
     0
  0
SCALE
  5
5F
102
{ACAD_REACTORS
330
47
102
}
330
47
100
AcDbScale
 70
     0
300
3/16" = 1'-0"
140
0.1875
141
12.0
290
     0
  0
SCALE
  5
60
102
{ACAD_REACTORS
330
47
102
}
330
47
100
AcDbScale
 70
     0
300
1/4" = 1'-0"
140
0.25
141
12.0
290
     0
  0
SCALE
  5
61
102
{ACAD_REACTORS
330
47
102
}
330
47
100
AcDbScale
 70
     0
300
3/8" = 1'-0"
140
0.375
141
12.0
290
     0
  0
SCALE
  5
62
102
{ACAD_REACTORS
330
47
102
}
330
47
100
AcDbScale
 70
     0
300
1/2" = 1'-0"
140
0.5
141
12.0
290
     0
  0
SCALE
  5
63
102
{ACAD_REACTORS
330
47
102
}
330
47
100
AcDbScale
 70
     0
300
3/4" = 1'-0"
140
0.75
141
12.0
290
     0
  0
SCALE
  5
64
102
{ACAD_REACTORS
330
47
102
}
330
47
100
AcDbScale
 70
     0
300
1" = 1'-0"
140
1.0
141
12.0
290
     0
  0
SCALE
  5
65
102
{ACAD_REACTORS
330
47
102
}
330
47
100
AcDbScale
 70
     0
300
1-1/2" = 1'-0"
140
1.5
141
12.0
290
     0
  0
SCALE
  5
66
102
{ACAD_REACTORS
330
47
102
}
330
47
100
AcDbScale
 70
     0
300
3" = 1'-0"
140
3.0
141
12.0
290
     0
  0
SCALE
  5
67
102
{ACAD_REACTORS
330
47
102
}
330
47
100
AcDbScale
 70
     0
300
6" = 1'-0"
140
6.0
141
12.0
290
     0
  0
SCALE
  5
68
102
{ACAD_REACTORS
330
47
102
}
330
47
100
AcDbScale
 70
     0
300
1'-0" = 1'-0"
140
12.0
141
12.0
290
     0
  0
ENDSEC
  0
EOF
