  0
SECTION
  2
HEADER
  9
$ACADVER
  1
AC1015
  9
$ACADMAINTVER
 70
     6
  9
$DWGCODEPAGE
  3
ANSI_1252
  9
$INSBASE
 10
0.0
 20
0.0
 30
0.0
  9
$EXTMIN
 10
0.0
 20
0.0
 30
0.0
  9
$EXTMAX
 10
297.0
 20
210.0
 30
0.0
  9
$LIMMIN
 10
0.0
 20
0.0
  9
$LIMMAX
 10
297.0
 20
210.0
  9
$ORTHOMODE
 70
     0
  9
$REGENMODE
 70
     1
  9
$FILLMODE
 70
     1
  9
$QTEXTMODE
 70
     0
  9
$MIRRTEXT
 70
     1
  9
$LTSCALE
 40
1.0
  9
$ATTMODE
 70
     1
  9
$TEXTSIZE
 40
2.0
  9
$TRACEWID
 40
1.0
  9
$TEXTSTYLE
  7
Standard
  9
$CLAYER
  8
0
  9
$CELTYPE
  6
ByLayer
  9
$CECOLOR
 62
   256
  9
$CELTSCALE
 40
1.0
  9
$DISPSILH
 70
     0
  9
$DIMSCALE
 40
1.0
  9
$DIMASZ
 40
3.0
  9
$DIMEXO
 40
0.0
  9
$DIMDLI
 40
3.75
  9
$DIMRND
 40
0.0
  9
$DIMDLE
 40
0.0
  9
$DIMEXE
 40
1.0
  9
$DIMTP
 40
0.0
  9
$DIMTM
 40
0.0
  9
$DIMTXT
 40
2.0
  9
$DIMCEN
 40
2.5
  9
$DIMTSZ
 40
0.0
  9
$DIMTOL
 70
     0
  9
$DIMLIM
 70
     0
  9
$DIMTIH
 70
     1
  9
$DIMTOH
 70
     1
  9
$DIMSE1
 70
     0
  9
$DIMSE2
 70
     0
  9
$DIMTAD
 70
     1
  9
$DIMZIN
 70
     0
  9
$DIMBLK
  1

  9
$DIMASO
 70
     1
  9
$DIMSHO
 70
     1
  9
$DIMPOST
  1

  9
$DIMAPOST
  1

  9
$DIMALT
 70
     0
  9
$DIMALTD
 70
     3
  9
$DIMALTF
 40
0.0393700787
  9
$DIMLFAC
 40
1.0
  9
$DIMTOFL
 70
     1
  9
$DIMTVP
 40
0.0
  9
$DIMTIX
 70
     0
  9
$DIMSOXD
 70
     0
  9
$DIMSAH
 70
     0
  9
$DIMBLK1
  1

  9
$DIMBLK2
  1

  9
$DIMSTYLE
  2
ISO-25
  9
$DIMCLRD
 70
     0
  9
$DIMCLRE
 70
     0
  9
$DIMCLRT
 70
     0
  9
$DIMTFAC
 40
1.0
  9
$DIMGAP
 40
1.524
  9
$DIMJUST
 70
     0
  9
$DIMSD1
 70
     0
  9
$DIMSD2
 70
     0
  9
$DIMTOLJ
 70
     0
  9
$DIMTZIN
 70
     0
  9
$DIMALTZ
 70
     0
  9
$DIMALTTZ
 70
     0
  9
$DIMUPT
 70
     0
  9
$DIMDEC
 70
     2
  9
$DIMTDEC
 70
     3
  9
$DIMALTU
 70
     2
  9
$DIMALTTD
 70
     3
  9
$DIMTXSTY
  7
Standard
  9
$DIMAUNIT
 70
     0
  9
$DIMADEC
 70
     2
  9
$DIMALTRND
 40
0.0
  9
$DIMAZIN
 70
     0
  9
$DIMDSEP
 70
    44
  9
$DIMATFIT
 70
     3
  9
$DIMFRAC
 70
     0
  9
$DIMLDRBLK
  1

  9
$DIMLUNIT
 70
     2
  9
$DIMLWD
 70
    -2
  9
$DIMLWE
 70
    -2
  9
$DIMTMOVE
 70
     0
  9
$LUNITS
 70
     2
  9
$LUPREC
 70
     2
  9
$SKETCHINC
 40
1.0
  9
$FILLETRAD
 40
10.0
  9
$AUNITS
 70
     0
  9
$AUPREC
 70
     2
  9
$MENU
  1
.
  9
$ELEVATION
 40
0.0
  9
$PELEVATION
 40
0.0
  9
$THICKNESS
 40
0.0
  9
$LIMCHECK
 70
     0
  9
$CHAMFERA
 40
0.0
  9
$CHAMFERB
 40
0.0
  9
$CHAMFERC
 40
0.0
  9
$CHAMFERD
 40
0.0
  9
$SKPOLY
 70
     0
  9
$TDCREATE
 40
2457662.617136412
  9
$TDUCREATE
 40
2457662.533803079
  9
$TDUPDATE
 40
2457662.617137546
  9
$TDUUPDATE
 40
2457662.533804213
  9
$TDINDWG
 40
0.0000000116
  9
$TDUSRTIMER
 40
0.0000000116
  9
$USRTIMER
 70
     1
  9
$ANGBASE
 50
0.0
  9
$ANGDIR
 70
     0
  9
$PDMODE
 70
     0
  9
$PDSIZE
 40
-1.0
  9
$PLINEWID
 40
0.0
  9
$SPLFRAME
 70
     0
  9
$SPLINETYPE
 70
     6
  9
$SPLINESEGS
 70
     8
  9
$HANDSEED
  5
202
  9
$SURFTAB1
 70
     6
  9
$SURFTAB2
 70
     6
  9
$SURFTYPE
 70
     6
  9
$SURFU
 70
     6
  9
$SURFV
 70
     6
  9
$UCSBASE
  2

  9
$UCSNAME
  2

  9
$UCSORG
 10
0.0
 20
0.0
 30
0.0
  9
$UCSXDIR
 10
1.0
 20
0.0
 30
0.0
  9
$UCSYDIR
 10
0.0
 20
1.0
 30
0.0
  9
$UCSORTHOREF
  2

  9
$UCSORTHOVIEW
 70
     0
  9
$UCSORGTOP
 10
0.0
 20
0.0
 30
0.0
  9
$UCSORGBOTTOM
 10
0.0
 20
0.0
 30
0.0
  9
$UCSORGLEFT
 10
0.0
 20
0.0
 30
0.0
  9
$UCSORGRIGHT
 10
0.0
 20
0.0
 30
0.0
  9
$UCSORGFRONT
 10
0.0
 20
0.0
 30
0.0
  9
$UCSORGBACK
 10
0.0
 20
0.0
 30
0.0
  9
$PUCSBASE
  2

  9
$PUCSNAME
  2

  9
$PUCSORG
 10
0.0
 20
0.0
 30
0.0
  9
$PUCSXDIR
 10
1.0
 20
0.0
 30
0.0
  9
$PUCSYDIR
 10
0.0
 20
1.0
 30
0.0
  9
$PUCSORTHOREF
  2

  9
$PUCSORTHOVIEW
 70
     0
  9
$PUCSORGTOP
 10
0.0
 20
0.0
 30
0.0
  9
$PUCSORGBOTTOM
 10
0.0
 20
0.0
 30
0.0
  9
$PUCSORGLEFT
 10
0.0
 20
0.0
 30
0.0
  9
$PUCSORGRIGHT
 10
0.0
 20
0.0
 30
0.0
  9
$PUCSORGFRONT
 10
0.0
 20
0.0
 30
0.0
  9
$PUCSORGBACK
 10
0.0
 20
0.0
 30
0.0
  9
$USERI1
 70
     0
  9
$USERI2
 70
     0
  9
$USERI3
 70
     0
  9
$USERI4
 70
     0
  9
$USERI5
 70
     0
  9
$USERR1
 40
0.0
  9
$USERR2
 40
0.0
  9
$USERR3
 40
0.0
  9
$USERR4
 40
0.0
  9
$USERR5
 40
0.0
  9
$WORLDVIEW
 70
     1
  9
$SHADEDGE
 70
     3
  9
$SHADEDIF
 70
    70
  9
$TILEMODE
 70
     1
  9
$MAXACTVP
 70
    64
  9
$PINSBASE
 10
0.0
 20
0.0
 30
0.0
  9
$PLIMCHECK
 70
     0
  9
$PEXTMIN
 10
1.0000000000E+20
 20
1.0000000000E+20
 30
1.0000000000E+20
  9
$PEXTMAX
 10
-1.0000000000E+20
 20
-1.0000000000E+20
 30
-1.0000000000E+20
  9
$PLIMMIN
 10
0.0
 20
0.0
  9
$PLIMMAX
 10
420.0
 20
297.0
  9
$UNITMODE
 70
     0
  9
$VISRETAIN
 70
     1
  9
$PLINEGEN
 70
     0
  9
$PSLTSCALE
 70
     1
  9
$TREEDEPTH
 70
  3020
  9
$CMLSTYLE
  2
Standard
  9
$CMLJUST
 70
     0
  9
$CMLSCALE
 40
20.0
  9
$PROXYGRAPHICS
 70
     1
  9
$MEASUREMENT
 70
     1
  9
$CELWEIGHT
370
    -1
  9
$ENDCAPS
280
     0
  9
$JOINSTYLE
280
     0
  9
$LWDISPLAY
290
     1
  9
$INSUNITS
 70
     4
  9
$HYPERLINKBASE
  1

  9
$STYLESHEET
  1

  9
$XEDIT
290
     1
  9
$CEPSNTYPE
380
     0
  9
$PSTYLEMODE
290
     1
  9
$FINGERPRINTGUID
  2
{D5BAA9A8-80A9-4E57-A392-F3E3612E98DF}
  9
$VERSIONGUID
  2
{FAEB1C32-E019-11D5-929B-00C0DF256EC4}
  9
$EXTNAMES
290
     1
  9
$PSVPSCALE
 40
0.0
  9
$OLESTARTUP
290
     0
  0
ENDSEC
  0
SECTION
  2
CLASSES
  0
CLASS
  1
ACDBDICTIONARYWDFLT
  2
AcDbDictionaryWithDefault
  3
ObjectDBX Classes
 90
        0
280
     0
281
     0
  0
CLASS
  1
VISUALSTYLE
  2
AcDbVisualStyle
  3
ObjectDBX Classes
 90
     4095
280
     0
281
     0
  0
CLASS
  1
MATERIAL
  2
AcDbMaterial
  3
ObjectDBX Classes
 90
     1153
280
     0
281
     0
  0
CLASS
  1
SCALE
  2
AcDbScale
  3
ObjectDBX Classes
 90
     1153
280
     0
281
     0
  0
CLASS
  1
TABLESTYLE
  2
AcDbTableStyle
  3
ObjectDBX Classes
 90
     4095
280
     0
281
     0
  0
CLASS
  1
MLEADERSTYLE
  2
AcDbMLeaderStyle
  3
ACDB_MLEADERSTYLE_CLASS
 90
     4095
280
     0
281
     0
  0
CLASS
  1
SUN
  2
AcDbSun
  3
SCENEOE
 90
     1153
280
     0
281
     0
  0
CLASS
  1
ACDBPLACEHOLDER
  2
AcDbPlaceHolder
  3
ObjectDBX Classes
 90
        0
280
     0
281
     0
  0
CLASS
  1
LAYOUT
  2
AcDbLayout
  3
ObjectDBX Classes
 90
        0
280
     0
281
     0
  0
ENDSEC
  0
SECTION
  2
TABLES
  0
TABLE
  2
VPORT
  5
8
330
0
100
AcDbSymbolTable
 70
     1
  0
VPORT
  5
29
330
8
100
AcDbSymbolTableRecord
100
AcDbViewportTableRecord
  2
*Active
 70
     0
 10
0.0
 20
0.0
 11
1.0
 21
1.0
 12
148.5
 22
105.0
 13
0.0
 23
0.0
 14
10.0
 24
10.0
 15
10.0
 25
10.0
 16
0.0
 26
0.0
 36
1.0
 17
0.0
 27
0.0
 37
0.0
 40
210.0
 41
1.4142857143
 42
50.0
 43
0.0
 44
0.0
 50
0.0
 51
0.0
 71
     0
 72
  2000
 73
     1
 74
     3
 75
     0
 76
     0
 77
     0
 78
     0
281
     0
 65
     1
110
0.0
120
0.0
130
0.0
111
1.0
121
0.0
131
0.0
112
0.0
122
1.0
132
0.0
 79
     0
146
0.0
  0
ENDTAB
  0
TABLE
  2
LTYPE
  5
5
330
0
100
AcDbSymbolTable
 70
     6
  0
LTYPE
  5
14
330
5
100
AcDbSymbolTableRecord
100
AcDbLinetypeTableRecord
  2
ByBlock
 70
     0
  3

 72
    65
 73
     0
 40
0.0
  0
LTYPE
  5
15
330
5
100
AcDbSymbolTableRecord
100
AcDbLinetypeTableRecord
  2
ByLayer
 70
     0
  3

 72
    65
 73
     0
 40
0.0
  0
LTYPE
  5
16
330
5
100
AcDbSymbolTableRecord
100
AcDbLinetypeTableRecord
  2
Continuous
 70
     0
  3
Solid line
 72
    65
 73
     0
 40
0.0
  0
LTYPE
  5
6E
330
5
100
AcDbSymbolTableRecord
100
AcDbLinetypeTableRecord
  2
HIDDEN
 70
     0
  3
Hidden __ __ __ __ __ __ __ __ __ __ __ __ __ __
 72
    65
 73
     2
 40
1.905
 49
1.27
 74
     0
 49
-0.635
 74
     0
  0
LTYPE
  5
6F
330
5
100
AcDbSymbolTableRecord
100
AcDbLinetypeTableRecord
  2
PHANTOM
 70
     0
  3
Phantom ______  __  __  ______  __  __  ______
 72
    65
 73
     6
 40
12.7
 49
6.35
 74
     0
 49
-1.27
 74
     0
 49
1.27
 74
     0
 49
-1.27
 74
     0
 49
1.27
 74
     0
 49
-1.27
 74
     0
  0
LTYPE
  5
70
330
5
100
AcDbSymbolTableRecord
100
AcDbLinetypeTableRecord
  2
CENTER
 70
     0
  3
Center ____ _ ____ _ ____ _ ____ _ ____ _ ____
 72
    65
 73
     4
 40
10.16
 49
6.35
 74
     0
 49
-1.27
 74
     0
 49
1.27
 74
     0
 49
-1.27
 74
     0
  0
LTYPE
  5
71
330
5
100
AcDbSymbolTableRecord
100
AcDbLinetypeTableRecord
  2
CENTERX2
 70
     0
  3
Center (2x) ________  __  ________  __  _____
 72
    65
 73
     4
 40
20.32
 49
12.7
 74
     0
 49
-2.54
 74
     0
 49
2.54
 74
     0
 49
-2.54
 74
     0
  0
LTYPE
  5
72
330
5
100
AcDbSymbolTableRecord
100
AcDbLinetypeTableRecord
  2
DOT2
 70
     0
  3
Dot (.5x) ........................................
 72
    65
 73
     2
 40
0.635
 49
0.0
 74
     0
 49
-0.635
 74
     0
  0
ENDTAB
  0
TABLE
  2
LAYER
  5
2
330
0
100
AcDbSymbolTable
 70
     5
  0
LAYER
  5
10
330
2
100
AcDbSymbolTableRecord
100
AcDbLayerTableRecord
  2
0
 70
     0
 62
     7
  6
Continuous
370
    -3
390
F
  0
LAYER
  5
73
330
2
100
AcDbSymbolTableRecord
100
AcDbLayerTableRecord
  2
FORMAT
 70
     0
 62
     7
  6
Continuous
370
    -3
390
F
  0
LAYER
  5
74
330
2
100
AcDbSymbolTableRecord
100
AcDbLayerTableRecord
  2
VERMASSUNG
 70
     0
 62
     7
  6
Continuous
370
    -3
390
F
  0
LAYER
  5
75
330
2
100
AcDbSymbolTableRecord
100
AcDbLayerTableRecord
  2
KOPF_DÜNN
 70
     0
 62
     7
  6
Continuous
370
    -3
390
F
  0
LAYER
  5
76
330
2
100
AcDbSymbolTableRecord
100
AcDbLayerTableRecord
  2
KOPF_DICK
 70
     0
 62
     7
  6
Continuous
370
    15
390
F
  0
ENDTAB
  0
TABLE
  2
STYLE
  5
3
330
0
100
AcDbSymbolTable
 70
     2
  0
STYLE
  5
11
330
3
100
AcDbSymbolTableRecord
100
AcDbTextStyleTableRecord
  2
Standard
 70
     0
 40
0.0
 41
1.0
 50
0.0
 71
     0
 42
2.0
  3
txt
  4

  0
STYLE
  5
77
330
3
100
AcDbSymbolTableRecord
100
AcDbTextStyleTableRecord
  2
SLDTEXTSTYLE0
 70
     0
 40
0.0
 41
0.7
 50
0.0
 71
     0
 42
2.0
  3
TXT
  4

  0
ENDTAB
  0
TABLE
  2
VIEW
  5
6
330
0
100
AcDbSymbolTable
 70
     0
  0
ENDTAB
  0
TABLE
  2
UCS
  5
7
330
0
100
AcDbSymbolTable
 70
     0
  0
ENDTAB
  0
TABLE
  2
APPID
  5
9
330
0
100
AcDbSymbolTable
 70
     1
  0
APPID
  5
12
330
9
100
AcDbSymbolTableRecord
100
AcDbRegAppTableRecord
  2
ACAD
 70
     0
  0
ENDTAB
  0
TABLE
  2
DIMSTYLE
  5
A
330
0
100
AcDbSymbolTable
 70
     2
100
AcDbDimStyleTable
  0
DIMSTYLE
105
27
330
A
100
AcDbSymbolTableRecord
100
AcDbDimStyleTableRecord
  2
ISO-25
 70
     0
 41
2.5
 42
0.625
 43
3.75
 44
1.25
 73
     0
 74
     0
 77
     1
 78
     8
140
2.5
141
2.5
143
0.0393700787
147
0.625
171
     3
172
     1
178
     0
271
     2
272
     2
274
     3
278
    44
283
     0
284
     8
340
11
  0
DIMSTYLE
105
10F
102
{ACAD_REACTORS
330
10E
330
11B
330
126
330
132
330
13C
330
148
102
}
330
A
100
AcDbSymbolTableRecord
100
AcDbDimStyleTableRecord
  2
SLDDIMSTYLE0
 70
     0
 41
3.0
 44
0.0
 45
0.000000001
 73
     0
 74
     0
 77
     1
 78
    12
 79
     3
140
2.0
147
0.5
173
     1
178
     0
271
     2
272
     3
276
     2
284
    12
340
77
  0
ENDTAB
  0
TABLE
  2
BLOCK_RECORD
  5
1
330
0
100
AcDbSymbolTable
 70
     7
  0
BLOCK_RECORD
  5
1F
330
1
100
AcDbSymbolTableRecord
100
AcDbBlockTableRecord
  2
*Model_Space
340
22
  0
BLOCK_RECORD
  5
1B
330
1
100
AcDbSymbolTableRecord
100
AcDbBlockTableRecord
  2
*Paper_Space
340
1E
  0
BLOCK_RECORD
  5
23
330
1
100
AcDbSymbolTableRecord
100
AcDbBlockTableRecord
  2
*Paper_Space0
340
26
  0
BLOCK_RECORD
  5
110
330
1
100
AcDbSymbolTableRecord
100
AcDbBlockTableRecord
  2
_D
340
0
  0
BLOCK_RECORD
  5
11C
330
1
100
AcDbSymbolTableRecord
100
AcDbBlockTableRecord
  2
_D_1
340
0
  0
BLOCK_RECORD
  5
127
330
1
100
AcDbSymbolTableRecord
100
AcDbBlockTableRecord
  2
_D_2
340
0
  0
BLOCK_RECORD
  5
133
330
1
100
AcDbSymbolTableRecord
100
AcDbBlockTableRecord
  2
_D_3
340
0
  0
BLOCK_RECORD
  5
13D
330
1
100
AcDbSymbolTableRecord
100
AcDbBlockTableRecord
  2
_D_4
340
0
  0
BLOCK_RECORD
  5
149
330
1
100
AcDbSymbolTableRecord
100
AcDbBlockTableRecord
  2
_D_5
340
0
  0
ENDTAB
  0
ENDSEC
  0
SECTION
  2
BLOCKS
  0
BLOCK
  5
20
330
1F
100
AcDbEntity
  8
0
100
AcDbBlockBegin
  2
*Model_Space
 70
     0
 10
0.0
 20
0.0
 30
0.0
  3
*Model_Space
  1

  0
ENDBLK
  5
21
330
1F
100
AcDbEntity
  8
0
100
AcDbBlockEnd
  0
BLOCK
  5
1C
330
1B
100
AcDbEntity
 67
     1
  8
0
100
AcDbBlockBegin
  2
*Paper_Space
 70
     0
 10
0.0
 20
0.0
 30
0.0
  3
*Paper_Space
  1

  0
ENDBLK
  5
1D
330
1B
100
AcDbEntity
 67
     1
  8
0
100
AcDbBlockEnd
  0
BLOCK
  5
24
330
23
100
AcDbEntity
  8
0
100
AcDbBlockBegin
  2
*Paper_Space0
 70
     0
 10
0.0
 20
0.0
 30
0.0
  3
*Paper_Space0
  1

  0
ENDBLK
  5
25
330
23
100
AcDbEntity
  8
0
100
AcDbBlockEnd
  0
BLOCK
  5
111
330
110
100
AcDbEntity
  8
0
100
AcDbBlockBegin
  2
_D
 70
     0
 10
0.0
 20
0.0
 30
0.0
  3
_D
  1

  0
SOLID
  5
113
330
110
100
AcDbEntity
  8
VERMASSUNG
100
AcDbTrace
 10
59.3284241179
 20
66.4021993465
 30
0.0
 11
59.7784241179
 21
69.4021993465
 31
0.0
 12
58.8784241179
 22
69.4021993465
 32
0.0
 13
58.8784241179
 23
69.4021993465
 33
0.0
  0
SOLID
  5
114
330
110
100
AcDbEntity
  8
VERMASSUNG
100
AcDbTrace
 10
59.3284241179
 20
164.8271993465
 30
0.0
 11
58.8784241179
 21
161.8271993465
 31
0.0
 12
59.7784241179
 22
161.8271993465
 32
0.0
 13
59.7784241179
 23
161.8271993465
 33
0.0
  0
LINE
  5
115
330
110
100
AcDbEntity
  8
VERMASSUNG
100
AcDbLine
 10
185.6499433128
 20
66.4021993465
 30
0.0
 11
58.3284241179
 21
66.4021993465
 31
0.0
  0
LINE
  5
116
330
110
100
AcDbEntity
  8
VERMASSUNG
100
AcDbLine
 10
185.6499433128
 20
164.8271993465
 30
0.0
 11
58.3284241179
 21
164.8271993465
 31
0.0
  0
LINE
  5
117
330
110
100
AcDbEntity
  8
VERMASSUNG
100
AcDbLine
 10
59.3284241179
 20
66.4021993465
 30
0.0
 11
59.3284241179
 21
164.8271993465
 31
0.0
  0
MTEXT
  5
118
330
110
100
AcDbEntity
  8
VERMASSUNG
100
AcDbMText
 10
56.5502888617
 20
105.610610778
 30
0.0
 40
2.0
 41
0.0
 71
     1
 72
     1
  1
CAT 50
  7
SLDTEXTSTYLE0
 11
3.391901413832837E-15
 21
1.0
 31
0.0
 73
     1
 44
1.0
  0
MTEXT
  5
119
330
110
100
AcDbEntity
  8
VERMASSUNG
100
AcDbMText
 10
56.750288813
 20
115.6106105545
 30
0.0
 40
2.0
 41
0.0
 71
     1
 72
     1
  1
%%c
  7
SLDTEXTSTYLE0
 11
3.391901413832837E-15
 21
1.0
 31
0.0
 73
     1
 44
1.0
  0
MTEXT
  5
11A
330
110
100
AcDbEntity
  8
VERMASSUNG
100
AcDbMText
 10
56.750288522
 20
119.2192595937
 30
0.0
 40
2.0
 41
0.0
 71
     1
 72
     1
  1
98.43
  7
SLDTEXTSTYLE0
 11
3.391901413832837E-15
 21
1.0
 31
0.0
 73
     1
 44
1.0
  0
ENDBLK
  5
112
330
110
100
AcDbEntity
  8
0
100
AcDbBlockEnd
  0
BLOCK
  5
11D
330
11C
100
AcDbEntity
  8
0
100
AcDbBlockBegin
  2
_D_1
 70
     0
 10
0.0
 20
0.0
 30
0.0
  3
_D_1
  1

  0
SOLID
  5
11F
330
11C
100
AcDbEntity
  8
VERMASSUNG
100
AcDbTrace
 10
240.0452957008
 20
124.6146993465
 30
0.0
 11
239.5952957008
 21
121.6146993465
 31
0.0
 12
240.4952957008
 22
121.6146993465
 32
0.0
 13
240.4952957008
 23
121.6146993465
 33
0.0
  0
SOLID
  5
120
330
11C
100
AcDbEntity
  8
VERMASSUNG
100
AcDbTrace
 10
240.0452957008
 20
106.6146993465
 30
0.0
 11
240.4952957008
 21
109.6146993465
 31
0.0
 12
239.5952957008
 22
109.6146993465
 32
0.0
 13
239.5952957008
 23
109.6146993465
 33
0.0
  0
LINE
  5
121
330
11C
100
AcDbEntity
  8
VERMASSUNG
100
AcDbLine
 10
224.2999433128
 20
124.6146993465
 30
0.0
 11
241.0452957008
 21
124.6146993465
 31
0.0
  0
LINE
  5
122
330
11C
100
AcDbEntity
  8
VERMASSUNG
100
AcDbLine
 10
224.2999433128
 20
106.6146993465
 30
0.0
 11
241.0452957008
 21
106.6146993465
 31
0.0
  0
LINE
  5
123
330
11C
100
AcDbEntity
  8
VERMASSUNG
100
AcDbLine
 10
240.0452957008
 20
124.6146993465
 30
0.0
 11
240.0452957008
 21
106.6146993465
 31
0.0
  0
MTEXT
  5
124
330
11C
100
AcDbEntity
  8
VERMASSUNG
100
AcDbMText
 10
237.4671601631
 20
112.6112668028
 30
0.0
 40
2.0
 41
0.0
 71
     1
 72
     1
  1
%%c
  7
SLDTEXTSTYLE0
 11
-7.044195017643634E-15
 21
1.0
 31
0.0
 73
     1
 44
1.0
  0
MTEXT
  5
125
330
11C
100
AcDbEntity
  8
VERMASSUNG
100
AcDbMText
 10
237.4671601049
 20
116.2202389964
 30
0.0
 40
2.0
 41
0.0
 71
     1
 72
     1
  1
18
  7
SLDTEXTSTYLE0
 11
-7.044195017643634E-15
 21
1.0
 31
0.0
 73
     1
 44
1.0
  0
ENDBLK
  5
11E
330
11C
100
AcDbEntity
  8
0
100
AcDbBlockEnd
  0
BLOCK
  5
128
330
127
100
AcDbEntity
  8
0
100
AcDbBlockBegin
  2
_D_2
 70
     0
 10
0.0
 20
0.0
 30
0.0
  3
_D_2
  1

  0
ARC
  5
12A
330
127
100
AcDbEntity
  8
VERMASSUNG
100
AcDbCircle
 10
148.7113774013
 20
180.8497308719
 30
0.0
 40
4.247059938537361
100
AcDbArc
 50
153.4349488229
 51
206.5650511771
  0
ARC
  5
12B
330
127
100
AcDbEntity
  8
VERMASSUNG
100
AcDbCircle
 10
150.0885092242
 20
180.8497308719
 30
0.0
 40
4.247059938537386
100
AcDbArc
 50
333.4349488229
 51
26.5650511771
  0
SOLID
  5
12C
330
127
100
AcDbEntity
  8
VERMASSUNG
100
AcDbTrace
 10
233.1999433128
 20
178.9503879265
 30
0.0
 11
230.1999433128
 21
179.4003879265
 31
0.0
 12
230.1999433128
 22
178.5003879265
 32
0.0
 13
230.1999433128
 23
178.5003879265
 33
0.0
  0
SOLID
  5
12D
330
127
100
AcDbEntity
  8
VERMASSUNG
100
AcDbTrace
 10
65.5999433128
 20
178.9503879265
 30
0.0
 11
68.5999433128
 21
178.5003879265
 31
0.0
 12
68.5999433128
 22
179.4003879265
 32
0.0
 13
68.5999433128
 23
179.4003879265
 33
0.0
  0
LINE
  5
12E
330
127
100
AcDbEntity
  8
VERMASSUNG
100
AcDbLine
 10
233.1999433128
 20
131.3146993465
 30
0.0
 11
233.1999433128
 21
179.9503879265
 31
0.0
  0
LINE
  5
12F
330
127
100
AcDbEntity
  8
VERMASSUNG
100
AcDbLine
 10
65.5999433128
 20
133.9935438739
 30
0.0
 11
65.5999433128
 21
179.9503879265
 31
0.0
  0
LINE
  5
130
330
127
100
AcDbEntity
  8
VERMASSUNG
100
AcDbLine
 10
233.1999433128
 20
178.9503879265
 30
0.0
 11
65.5999433128
 21
178.9503879265
 31
0.0
  0
MTEXT
  5
131
330
127
100
AcDbEntity
  8
VERMASSUNG
100
AcDbMText
 10
146.5001915105
 20
181.5285235225
 30
0.0
 40
2.0
 41
0.0
 71
     1
 72
     1
  1
167.6
  7
SLDTEXTSTYLE0
 73
     1
 44
1.0
  0
ENDBLK
  5
129
330
127
100
AcDbEntity
  8
0
100
AcDbBlockEnd
  0
BLOCK
  5
134
330
133
100
AcDbEntity
  8
0
100
AcDbBlockBegin
  2
_D_3
 70
     0
 10
0.0
 20
0.0
 30
0.0
  3
_D_3
  1

  0
SOLID
  5
136
330
133
100
AcDbEntity
  8
VERMASSUNG
100
AcDbTrace
 10
167.1999433128
 20
172.9503879265
 30
0.0
 11
170.1999433128
 21
172.5003879265
 31
0.0
 12
170.1999433128
 22
173.4003879265
 32
0.0
 13
170.1999433128
 23
173.4003879265
 33
0.0
  0
SOLID
  5
137
330
133
100
AcDbEntity
  8
VERMASSUNG
100
AcDbTrace
 10
233.1999433128
 20
172.9503879265
 30
0.0
 11
230.1999433128
 21
173.4003879265
 31
0.0
 12
230.1999433128
 22
172.5003879265
 32
0.0
 13
230.1999433128
 23
172.5003879265
 33
0.0
  0
LINE
  5
138
330
133
100
AcDbEntity
  8
VERMASSUNG
100
AcDbLine
 10
167.1999433128
 20
150.5396993465
 30
0.0
 11
167.1999433128
 21
173.9503879265
 31
0.0
  0
LINE
  5
139
330
133
100
AcDbEntity
  8
VERMASSUNG
100
AcDbLine
 10
233.1999433128
 20
131.3146993465
 30
0.0
 11
233.1999433128
 21
173.9503879265
 31
0.0
  0
LINE
  5
13A
330
133
100
AcDbEntity
  8
VERMASSUNG
100
AcDbLine
 10
167.1999433128
 20
172.9503879265
 30
0.0
 11
233.1999433128
 21
172.9503879265
 31
0.0
  0
MTEXT
  5
13B
330
133
100
AcDbEntity
  8
VERMASSUNG
100
AcDbMText
 10
198.8002533025
 20
175.5285235225
 30
0.0
 40
2.0
 41
0.0
 71
     1
 72
     1
  1
66
  7
SLDTEXTSTYLE0
 73
     1
 44
1.0
  0
ENDBLK
  5
135
330
133
100
AcDbEntity
  8
0
100
AcDbBlockEnd
  0
BLOCK
  5
13E
330
13D
100
AcDbEntity
  8
0
100
AcDbBlockBegin
  2
_D_4
 70
     0
 10
0.0
 20
0.0
 30
0.0
  3
_D_4
  1

  0
ARC
  5
140
330
13D
100
AcDbEntity
  8
VERMASSUNG
100
AcDbCircle
 10
218.7121827566
 20
168.8497308719
 30
0.0
 40
4.247059938537233
100
AcDbArc
 50
153.4349488229
 51
206.5650511771
  0
ARC
  5
141
330
13D
100
AcDbEntity
  8
VERMASSUNG
100
AcDbCircle
 10
216.6877038689
 20
168.8497308719
 30
0.0
 40
4.24705993853726
100
AcDbArc
 50
333.4349488229
 51
26.5650511771
  0
SOLID
  5
142
330
13D
100
AcDbEntity
  8
VERMASSUNG
100
AcDbTrace
 10
202.1999433128
 20
166.9503879265
 30
0.0
 11
205.1999433128
 21
166.5003879265
 31
0.0
 12
205.1999433128
 22
167.4003879265
 32
0.0
 13
205.1999433128
 23
167.4003879265
 33
0.0
  0
SOLID
  5
143
330
13D
100
AcDbEntity
  8
VERMASSUNG
100
AcDbTrace
 10
233.1999433128
 20
166.9503879265
 30
0.0
 11
230.1999433128
 21
167.4003879265
 31
0.0
 12
230.1999433128
 22
166.5003879265
 32
0.0
 13
230.1999433128
 23
166.5003879265
 33
0.0
  0
LINE
  5
144
330
13D
100
AcDbEntity
  8
VERMASSUNG
100
AcDbLine
 10
202.1999433128
 20
149.5396993465
 30
0.0
 11
202.1999433128
 21
167.9503879265
 31
0.0
  0
LINE
  5
145
330
13D
100
AcDbEntity
  8
VERMASSUNG
100
AcDbLine
 10
233.1999433128
 20
131.3146993465
 30
0.0
 11
233.1999433128
 21
167.9503879265
 31
0.0
  0
LINE
  5
146
330
13D
100
AcDbEntity
  8
VERMASSUNG
100
AcDbLine
 10
202.1999433128
 20
166.9503879265
 30
0.0
 11
233.1999433128
 21
166.9503879265
 31
0.0
  0
MTEXT
  5
147
330
13D
100
AcDbEntity
  8
VERMASSUNG
100
AcDbMText
 10
216.5009968658
 20
169.5285235225
 30
0.0
 40
2.0
 41
0.0
 71
     1
 72
     1
  1
31
  7
SLDTEXTSTYLE0
 73
     1
 44
1.0
  0
ENDBLK
  5
13F
330
13D
100
AcDbEntity
  8
0
100
AcDbBlockEnd
  0
BLOCK
  5
14A
330
149
100
AcDbEntity
  8
0
100
AcDbBlockBegin
  2
_D_5
 70
     0
 10
0.0
 20
0.0
 30
0.0
  3
_D_5
  1

  0
SOLID
  5
14C
330
149
100
AcDbEntity
  8
VERMASSUNG
100
AcDbTrace
 10
246.0452957008
 20
131.6146993465
 30
0.0
 11
245.5952957008
 21
128.6146993465
 31
0.0
 12
246.4952957008
 22
128.6146993465
 32
0.0
 13
246.4952957008
 23
128.6146993465
 33
0.0
  0
SOLID
  5
14D
330
149
100
AcDbEntity
  8
VERMASSUNG
100
AcDbTrace
 10
246.0452957008
 20
99.6146993465
 30
0.0
 11
246.4952957008
 21
102.6146993465
 31
0.0
 12
245.5952957008
 22
102.6146993465
 32
0.0
 13
245.5952957008
 23
102.6146993465
 33
0.0
  0
LINE
  5
14E
330
149
100
AcDbEntity
  8
VERMASSUNG
100
AcDbLine
 10
232.8999433128
 20
131.6146993465
 30
0.0
 11
247.0452957008
 21
131.6146993465
 31
0.0
  0
LINE
  5
14F
330
149
100
AcDbEntity
  8
VERMASSUNG
100
AcDbLine
 10
232.8999433128
 20
99.6146993465
 30
0.0
 11
247.0452957008
 21
99.6146993465
 31
0.0
  0
LINE
  5
150
330
149
100
AcDbEntity
  8
VERMASSUNG
100
AcDbLine
 10
246.0452957008
 20
131.6146993465
 30
0.0
 11
246.0452957008
 21
99.6146993465
 31
0.0
  0
MTEXT
  5
151
330
149
100
AcDbEntity
  8
VERMASSUNG
100
AcDbMText
 10
243.2671604446
 20
109.5097001247
 30
0.0
 40
2.0
 41
0.0
 71
     1
 72
     1
  1
ST3
  7
SLDTEXTSTYLE0
 11
-7.044195017643634E-15
 21
1.0
 31
0.0
 73
     1
 44
1.0
  0
MTEXT
  5
152
330
149
100
AcDbEntity
  8
VERMASSUNG
100
AcDbMText
 10
243.4671603959
 20
115.3097000509
 30
0.0
 40
2.0
 41
0.0
 71
     1
 72
     1
  1
%%c
  7
SLDTEXTSTYLE0
 11
-7.044195017643634E-15
 21
1.0
 31
0.0
 73
     1
 44
1.0
  0
MTEXT
  5
153
330
149
100
AcDbEntity
  8
VERMASSUNG
100
AcDbMText
 10
243.2671604446
 20
118.9196995996
 30
0.0
 40
2.0
 41
0.0
 71
     1
 72
     1
  1
32
  7
SLDTEXTSTYLE0
 11
-7.044195017643634E-15
 21
1.0
 31
0.0
 73
     1
 44
1.0
  0
ENDBLK
  5
14B
330
149
100
AcDbEntity
  8
0
100
AcDbBlockEnd
  0
ENDSEC
  0
SECTION
  2
ENTITIES
  0
MTEXT
  5
78
330
1F
100
AcDbEntity
  8
KOPF_DÜNN
100
AcDbMText
 10
13.8892156294
 20
23.8442973028
 30
0.0
 40
3.0
 41
0.0
 71
     1
 72
     1
  1
104.350.032.066
  7
SLDTEXTSTYLE0
 73
     1
 44
1.0
  0
MTEXT
  5
79
330
1F
100
AcDbEntity
  8
VERMASSUNG
100
AcDbMText
 10
13.9329988022
 20
28.8834360957
 30
0.0
 40
3.0
 41
0.0
 71
     1
 72
     1
  1
Aufnahme_Master shank ST3
  7
SLDTEXTSTYLE0
 73
     1
 44
1.0
  0
MTEXT
  5
7A
330
1F
100
AcDbEntity
  8
VERMASSUNG
100
AcDbMText
 10
98.8601118557
 20
13.8365368761
 30
0.0
 40
2.0
 41
0.0
 71
     1
 72
     1
  1
Datum: 07.05.2008
  7
SLDTEXTSTYLE0
 73
     1
 44
1.0
  0
MTEXT
  5
7B
330
1F
100
AcDbEntity
  8
VERMASSUNG
100
AcDbMText
 10
13.933048693
 20
18.0482802738
 30
0.0
 40
2.0
 41
0.0
 71
     1
 72
     1
  1
ANSI B5.50 CAT 50
  7
SLDTEXTSTYLE0
 73
     1
 44
1.0
  0
MTEXT
  5
7C
330
1F
100
AcDbEntity
  8
VERMASSUNG
100
AcDbMText
 10
13.9808475933
 20
13.9090974274
 30
0.0
 40
2.0
 41
0.0
 71
     1
 72
     1
  1
Gewicht: 3276g
  7
SLDTEXTSTYLE0
 73
     1
 44
1.0
  0
ARC
  5
7D
330
1F
100
AcDbEntity
  8
0
  6
Continuous
 62
     7
370
    15
100
AcDbCircle
 10
186.8499433128
 20
80.0896993465
 30
0.0
 40
0.6000000000000243
100
AcDbArc
 50
90.0
 51
134.8886287489
  0
ARC
  5
7E
330
1F
100
AcDbEntity
  8
0
  6
Continuous
 62
     7
370
    15
100
AcDbCircle
 10
186.8499433128
 20
151.1396993465
 30
0.0
 40
0.6000000000000227
100
AcDbArc
 50
180.0
 51
270.0
  0
ARC
  5
7F
330
1F
100
AcDbEntity
  8
0
  6
Continuous
 62
     7
370
    15
100
AcDbCircle
 10
169.7749433128
 20
80.0896993465
 30
0.0
 40
0.6000000000000085
100
AcDbArc
 50
45.0646657935
 51
90.0
  0
ARC
  5
80
330
1F
100
AcDbEntity
  8
0
  6
Continuous
 62
     7
370
    15
100
AcDbCircle
 10
169.7749433128
 20
151.1396993465
 30
0.0
 40
0.6000000000000227
100
AcDbArc
 50
270.0
 51
0.0
  0
LINE
  5
81
330
1F
100
AcDbEntity
  8
0
  6
Continuous
 62
     7
370
    15
100
AcDbLine
 10
167.1999433128
 20
150.5396993465
 30
0.0
 11
67.3113295266
 21
135.9726098361
 31
0.0
  0
LINE
  5
82
330
1F
100
AcDbEntity
  8
0
  6
Continuous
 62
     7
370
    15
100
AcDbLine
 10
67.3113295266
 20
95.256788857
 30
0.0
 11
167.1999433128
 21
80.6896993465
 31
0.0
  0
LINE
  5
83
330
1F
100
AcDbEntity
  8
0
  6
Continuous
 62
     7
370
    15
100
AcDbLine
 10
167.1999433128
 20
80.6896993465
 30
0.0
 11
169.7749433128
 21
80.6896993465
 31
0.0
  0
LINE
  5
84
330
1F
100
AcDbEntity
  8
0
  6
Continuous
 62
     7
370
    15
100
AcDbLine
 10
169.7749433128
 20
150.5396993465
 30
0.0
 11
167.1999433128
 21
150.5396993465
 31
0.0
  0
ARC
  5
85
330
1F
100
AcDbEntity
  8
0
  6
Continuous
 62
     7
370
    15
100
AcDbCircle
 10
201.1999433128
 20
81.6896993465
 30
0.0
 40
1.0
100
AcDbArc
 50
270.0
 51
0.0
  0
ARC
  5
86
330
1F
100
AcDbEntity
  8
0
  6
Continuous
 62
     7
370
    15
100
AcDbCircle
 10
201.1999433128
 20
149.5396993465
 30
0.0
 40
1.0
100
AcDbArc
 50
0.0
 51
90.0
  0
LINE
  5
87
330
1F
100
AcDbEntity
  8
0
  6
Continuous
 62
     7
370
    15
100
AcDbLine
 10
186.8499433128
 20
80.6896993465
 30
0.0
 11
201.1999433128
 21
80.6896993465
 31
0.0
  0
LINE
  5
88
330
1F
100
AcDbEntity
  8
0
  6
Continuous
 62
     7
370
    15
100
AcDbLine
 10
201.1999433128
 20
150.5396993465
 30
0.0
 11
186.8499433128
 21
150.5396993465
 31
0.0
  0
ARC
  5
89
330
1F
100
AcDbEntity
  8
0
  6
Continuous
 62
     7
370
    15
100
AcDbCircle
 10
67.5999433128
 20
97.2358548191
 30
0.0
 40
1.999999999999992
100
AcDbArc
 50
180.0
 51
261.7028550302
  0
ARC
  5
8A
330
1F
100
AcDbEntity
  8
0
  6
Continuous
 62
     7
370
    15
100
AcDbCircle
 10
67.5999433128
 20
133.9935438739
 30
0.0
 40
1.999999999999992
100
AcDbArc
 50
98.2971449698
 51
180.0
  0
ARC
  5
8B
330
1F
100
AcDbEntity
  8
0
  6
Continuous
 62
     7
370
    15
100
AcDbCircle
 10
206.1999433128
 20
95.6146993465
 30
0.0
 40
4.0
100
AcDbArc
 50
90.0
 51
180.0
  0
ARC
  5
8C
330
1F
100
AcDbEntity
  8
0
  6
Continuous
 62
     7
370
    15
100
AcDbCircle
 10
206.1999433128
 20
135.6146993465
 30
0.0
 40
4.0
100
AcDbArc
 50
180.0
 51
270.0
  0
LINE
  5
8D
330
1F
100
AcDbEntity
  8
0
  6
Continuous
 62
     7
370
    15
100
AcDbLine
 10
232.8999433128
 20
131.6146993465
 30
0.0
 11
206.1999433128
 21
131.6146993465
 31
0.0
  0
LINE
  5
8E
330
1F
100
AcDbEntity
  8
0
  6
Continuous
 62
     7
370
    15
100
AcDbLine
 10
206.1999433128
 20
99.6146993465
 30
0.0
 11
232.8999433128
 21
99.6146993465
 31
0.0
  0
LINE
  5
8F
330
1F
100
AcDbEntity
  8
0
  6
Continuous
 62
     7
370
    15
100
AcDbLine
 10
232.8999433128
 20
99.6146993465
 30
0.0
 11
233.1999433128
 21
99.9146993465
 31
0.0
  0
LINE
  5
90
330
1F
100
AcDbEntity
  8
0
  6
Continuous
 62
     7
370
    15
100
AcDbLine
 10
233.1999433128
 20
131.3146993465
 30
0.0
 11
232.8999433128
 21
131.6146993465
 31
0.0
  0
SPLINE
  5
91
330
1F
100
AcDbEntity
  8
0
  6
Continuous
 62
     7
370
    15
100
AcDbSpline
210
0.0
220
0.0
230
1.0
 70
    24
 71
     3
 72
    11
 73
     7
 74
     0
 42
0.000000001
 43
0.00000001
 40
0.0
 40
0.0
 40
0.0
 40
0.0
 40
0.1183358584681137
 40
0.4755396850857864
 40
0.8141708872487047
 40
1.0
 40
1.0
 40
1.0
 40
1.0
 10
226.1691971243781
 20
114.2142988082883
 30
0.0
 10
226.1054049072945
 20
114.207539646808
 30
0.0
 10
225.8490520890063
 20
114.1803775544091
 30
0.0
 10
225.3646785199326
 20
114.129055319192
 30
0.0
 10
224.8318051019235
 20
114.0725942390544
 30
0.0
 10
224.5475177401487
 20
114.0424723170879
 30
0.0
 10
224.4467877769796
 20
114.0317993836472
 30
0.0
  0
SPLINE
  5
92
330
1F
100
AcDbEntity
  8
0
  6
Continuous
 62
     7
370
    15
100
AcDbSpline
210
0.0
220
0.0
230
1.0
 70
    24
 71
     3
 72
    10
 73
     6
 74
     0
 42
0.000000001
 43
0.00000001
 40
0.0
 40
0.0
 40
0.0
 40
0.0
 40
0.4391165375904116
 40
0.7513669429073426
 40
1.0
 40
1.0
 40
1.0
 40
1.0
 10
226.872352660162
 20
115.7971987711718
 30
0.0
 10
226.7716905244365
 20
115.570594438567
 30
0.0
 10
226.5994487737576
 20
115.1828545334084
 30
0.0
 10
226.3490649677798
 20
114.6192060985752
 30
0.0
 10
226.2244413234774
 20
114.3386611097334
 30
0.0
 10
226.1691971243781
 20
114.2142988082883
 30
0.0
  0
SPLINE
  5
93
330
1F
100
AcDbEntity
  8
0
  6
Continuous
 62
     7
370
    15
100
AcDbSpline
210
0.0
220
0.0
230
1.0
 70
    24
 71
     3
 72
    10
 73
     6
 74
     0
 42
0.000000001
 43
0.00000001
 40
0.0
 40
0.0
 40
0.0
 40
0.0
 40
0.4391165375904153
 40
0.7513669429073446
 40
1.0
 40
1.0
 40
1.0
 40
1.0
 10
225.8530988485474
 20
117.197599309414
 30
0.0
 10
225.9990128893281
 20
116.9971211763741
 30
0.0
 10
226.2486846219169
 20
116.6540854921147
 30
0.0
 10
226.6116265822969
 20
116.155422538025
 30
0.0
 10
226.7922738473871
 20
115.9072228017261
 30
0.0
 10
226.872352660162
 20
115.7971987711718
 30
0.0
  0
SPLINE
  5
94
330
1F
100
AcDbEntity
  8
0
  6
Continuous
 62
     7
370
    15
100
AcDbSpline
210
0.0
220
0.0
230
1.0
 70
    24
 71
     3
 72
    11
 73
     7
 74
     0
 42
0.000000001
 43
0.00000001
 40
0.0
 40
0.0
 40
0.0
 40
0.0
 40
0.1858291127512947
 40
0.5244603149142102
 40
0.8816641415318802
 40
1.0
 40
1.0
 40
1.0
 40
1.0
 10
224.1306895011489
 20
117.0150998847729
 30
0.0
 10
224.2314194643181
 20
117.0257728182136
 30
0.0
 10
224.5157068260928
 20
117.0558947401801
 30
0.0
 10
225.048580244102
 20
117.1123558203177
 30
0.0
 10
225.5329538131757
 20
117.1636780555348
 30
0.0
 10
225.7893066314639
 20
117.1908401479337
 30
0.0
 10
225.8530988485474
 20
117.197599309414
 30
0.0
  0
SPLINE
  5
95
330
1F
100
AcDbEntity
  8
0
  6
Continuous
 62
     7
370
    15
100
AcDbSpline
210
0.0
220
0.0
230
1.0
 70
    24
 71
     3
 72
    10
 73
     6
 74
     0
 42
0.000000001
 43
0.00000001
 40
0.0
 40
0.0
 40
0.0
 40
0.0
 40
0.4391165375904095
 40
0.7513669429073444
 40
1.0
 40
1.0
 40
1.0
 40
1.0
 10
223.4275339653651
 20
115.4321999218894
 30
0.0
 10
223.5281961010906
 20
115.6588042544943
 30
0.0
 10
223.7004378517694
 20
116.0465441596528
 30
0.0
 10
223.9508216577473
 20
116.6101925944861
 30
0.0
 10
224.0754453020496
 20
116.8907375833278
 30
0.0
 10
224.1306895011489
 20
117.0150998847729
 30
0.0
  0
SPLINE
  5
96
330
1F
100
AcDbEntity
  8
0
  6
Continuous
 62
     7
370
    15
100
AcDbSpline
210
0.0
220
0.0
230
1.0
 70
    24
 71
     3
 72
    10
 73
     6
 74
     0
 42
0.000000001
 43
0.00000001
 40
0.0
 40
0.0
 40
0.0
 40
0.0
 40
0.4391165375904137
 40
0.7513669429073516
 40
1.0
 40
1.0
 40
1.0
 40
1.0
 10
224.4467877769796
 20
114.0317993836472
 30
0.0
 10
224.300873736199
 20
114.2322775166871
 30
0.0
 10
224.0512020036101
 20
114.5753132009466
 30
0.0
 10
223.6882600432301
 20
115.0739761550362
 30
0.0
 10
223.5076127781399
 20
115.3221758913351
 30
0.0
 10
223.4275339653651
 20
115.4321999218894
 30
0.0
  0
CIRCLE
  5
97
330
1F
100
AcDbEntity
  8
0
  6
Continuous
 62
     7
370
    15
100
AcDbCircle
 10
225.1499433128
 20
115.6146993465
 30
0.0
 40
1.900000000000009
  0
CIRCLE
  5
98
330
1F
100
AcDbEntity
  8
0
  6
Continuous
 62
     7
370
    15
100
AcDbCircle
 10
225.1499433128
 20
115.6146993465
 30
0.0
 40
2.600000000000011
  0
CIRCLE
  5
99
330
1F
100
AcDbEntity
  8
0
  6
Continuous
 62
     7
370
    15
100
AcDbCircle
 10
225.1499433128
 20
115.6146993465
 30
0.0
 40
3.000000000000003
  0
ARC
  5
9A
330
1F
100
AcDbEntity
  8
0
  6
Continuous
 62
     7
370
    15
100
AcDbCircle
 10
225.1499433128
 20
115.6146993465
 30
0.0
 40
1.500000000000011
100
AcDbArc
 50
216.0482590863
 51
276.0482590863
  0
ARC
  5
9B
330
1F
100
AcDbEntity
  8
0
  6
Continuous
 62
     7
370
    15
100
AcDbCircle
 10
225.1499433128
 20
115.6146993465
 30
0.0
 40
1.499999999999983
100
AcDbArc
 50
96.0482590863
 51
156.0482590863
  0
ARC
  5
9C
330
1F
100
AcDbEntity
  8
0
  6
Continuous
 62
     7
370
    15
100
AcDbCircle
 10
225.1499433128
 20
115.6146993465
 30
0.0
 40
1.500000000000016
100
AcDbArc
 50
276.0482590863
 51
336.0482590863
  0
ARC
  5
9D
330
1F
100
AcDbEntity
  8
0
  6
Continuous
 62
     7
370
    15
100
AcDbCircle
 10
225.1499433128
 20
115.6146993465
 30
0.0
 40
1.500000000000011
100
AcDbArc
 50
156.0482590863
 51
216.0482590863
  0
ARC
  5
9E
330
1F
100
AcDbEntity
  8
0
  6
Continuous
 62
     7
370
    15
100
AcDbCircle
 10
225.1499433128
 20
115.6146993465
 30
0.0
 40
1.499999999999983
100
AcDbArc
 50
36.0482590863
 51
96.0482590863
  0
ARC
  5
9F
330
1F
100
AcDbEntity
  8
0
  6
Continuous
 62
     7
370
    15
100
AcDbCircle
 10
225.1499433128
 20
115.6146993465
 30
0.0
 40
1.500000000000016
100
AcDbArc
 50
336.0482590863
 51
36.0482590863
  0
LINE
  5
A0
330
1F
100
AcDbEntity
  8
0
  6
Continuous
 62
     7
370
    15
100
AcDbLine
 10
170.3749433128
 20
69.016924118
 30
0.0
 11
170.3749433128
 21
162.2124745751
 31
0.0
  0
SPLINE
  5
A1
330
1F
100
AcDbEntity
  8
0
  6
Continuous
 62
     7
370
    15
100
AcDbSpline
210
0.0
220
0.0
230
1.0
 70
     8
 71
     3
 72
    10
 73
     6
 74
     0
 42
0.000000001
 43
0.00000001
 40
0.0
 40
0.0
 40
0.0
 40
0.0
 40
0.5
 40
0.5
 40
1.0
 40
1.0
 40
1.0
 40
1.0
 10
170.6636594914346
 20
162.8312213658732
 30
0.0
 10
170.5875100677381
 20
162.7612691573226
 30
0.0
 10
170.5188779846419
 20
162.6745103525969
 30
0.0
 10
170.4127983046887
 20
162.4661826552742
 30
0.0
 10
170.3749433127635
 20
162.3413007443896
 30
0.0
 10
170.3749433127635
 20
162.2124745750756
 30
0.0
  0
SPLINE
  5
A2
330
1F
100
AcDbEntity
  8
0
  6
Continuous
 62
     7
370
    15
100
AcDbSpline
210
0.0
220
0.0
230
1.0
 70
     8
 71
     3
 72
     8
 73
     4
 74
     0
 42
0.000000001
 43
0.00000001
 40
0.0
 40
0.0
 40
0.0
 40
0.0
 40
1.0
 40
1.0
 40
1.0
 40
1.0
 10
170.9749433127635
 20
162.9015750612814
 30
0.0
 10
170.8633670045537
 20
162.9015750612814
 30
0.0
 10
170.7552588436319
 20
162.8761525592089
 30
0.0
 10
170.6636594914346
 20
162.8312213658732
 30
0.0
  0
SPLINE
  5
A3
330
1F
100
AcDbEntity
  8
0
  6
Continuous
 62
     7
370
    15
100
AcDbSpline
210
0.0
220
0.0
230
1.0
 70
     8
 71
     3
 72
    10
 73
     6
 74
     0
 42
0.000000001
 43
0.00000001
 40
0.0
 40
0.0
 40
0.0
 40
0.0
 40
0.5
 40
0.5
 40
1.0
 40
1.0
 40
1.0
 40
1.0
 10
170.5900655420284
 20
68.4741747103563
 30
0.0
 10
170.6387370294
 20
68.44600136486397
 30
0.0
 10
170.6961789187013
 20
68.42186446592902
 30
0.0
 10
170.8270712783355
 20
68.38746241788438
 30
0.0
 10
170.8999484373592
 20
68.37758721869952
 30
0.0
 10
170.9749433127635
 20
68.37758721869953
 30
0.0
  0
SPLINE
  5
A4
330
1F
100
AcDbEntity
  8
0
  6
Continuous
 62
     7
370
    15
100
AcDbSpline
210
0.0
220
0.0
230
1.0
 70
     8
 71
     3
 72
    10
 73
     6
 74
     0
 42
0.000000001
 43
0.00000001
 40
0.0
 40
0.0
 40
0.0
 40
0.0
 40
0.5
 40
0.5
 40
1.0
 40
1.0
 40
1.0
 40
1.0
 10
170.5900655420284
 20
68.47417471035628
 30
0.0
 10
170.5320133775614
 20
68.54149618276736
 30
0.0
 10
170.4796870073507
 20
68.62169275927016
 30
0.0
 10
170.4015281318479
 20
68.80415857231242
 30
0.0
 10
170.3749433127641
 20
68.9097449683997
 30
0.0
 10
170.3749433127635
 20
69.01692411798155
 30
0.0
  0
LINE
  5
A5
330
1F
100
AcDbEntity
  8
0
  6
Continuous
 62
     7
370
    15
100
AcDbLine
 10
180.2099433128
 20
71.0157731685
 30
0.0
 11
180.2099433128
 21
160.2136255245
 31
0.0
  0
SPLINE
  5
A6
330
1F
100
AcDbEntity
  8
0
  6
Continuous
 62
     7
370
    15
100
AcDbSpline
210
0.0
220
0.0
230
1.0
 70
     8
 71
     3
 72
     8
 73
     4
 74
     0
 42
0.000000001
 43
0.00000001
 40
0.0
 40
0.0
 40
0.0
 40
0.0
 40
1.0
 40
1.0
 40
1.0
 40
1.0
 10
181.2691969677833
 20
162.1199375445477
 30
0.0
 10
180.9157023537159
 20
161.4847237008711
 30
0.0
 10
180.5626012865673
 20
160.8492953622939
 30
0.0
 10
180.2099433127635
 20
160.2136255245249
 30
0.0
  0
SPLINE
  5
A7
330
1F
100
AcDbEntity
  8
0
  6
Continuous
 62
     7
370
    15
100
AcDbSpline
210
0.0
220
0.0
230
1.0
 70
     8
 71
     3
 72
     8
 73
     4
 74
     0
 42
0.000000001
 43
0.00000001
 40
0.0
 40
0.0
 40
0.0
 40
0.0
 40
0.0012377667921472
 40
0.0012377667921472
 40
0.0012377667921472
 40
0.0012377667921472
 10
181.8261100818391
 20
162.9015750612814
 30
0.0
 10
181.6400182824615
 20
162.6411912407841
 30
0.0
 10
181.4543706262459
 20
162.3806484399467
 30
0.0
 10
181.2691969677831
 20
162.1199375445466
 30
0.0
  0
LINE
  5
A8
330
1F
100
AcDbEntity
  8
0
  6
Continuous
 62
     7
370
    15
100
AcDbLine
 10
181.8261100818
 20
68.3775872187
 30
0.0
 11
181.8261100818
 21
162.9015750613
 31
0.0
  0
SPLINE
  5
A9
330
1F
100
AcDbEntity
  8
0
  6
Continuous
 62
     7
370
    15
100
AcDbSpline
210
0.0
220
0.0
230
1.0
 70
     8
 71
     3
 72
     8
 73
     4
 74
     0
 42
0.000000001
 43
0.00000001
 40
0.0
 40
0.0
 40
0.0
 40
0.0
 40
0.0011891741919631
 40
0.0011891741919631
 40
0.0011891741919631
 40
0.0011891741919631
 10
181.3719514378424
 20
68.92484190865173
 30
0.0
 10
181.5223361301888
 20
68.74221839594624
 30
0.0
 10
181.6737416555658
 20
68.5598025738194
 30
0.0
 10
181.8261100818391
 20
68.37758721869955
 30
0.0
  0
SPLINE
  5
AA
330
1F
100
AcDbEntity
  8
0
  6
Continuous
 62
     7
370
    15
100
AcDbSpline
210
0.0
220
0.0
230
1.0
 70
     8
 71
     3
 72
     8
 73
     4
 74
     0
 42
0.000000001
 43
0.00000001
 40
0.0
 40
0.0
 40
0.0
 40
0.0
 40
1.0
 40
1.0
 40
1.0
 40
1.0
 10
181.3719514378424
 20
68.92484190865173
 30
0.0
 10
180.9841292332886
 20
69.62154577287252
 30
0.0
 10
180.5967717030493
 20
70.31851078298722
 30
0.0
 10
180.2099433127635
 20
71.01577316853644
 30
0.0
  0
LINE
  5
AB
330
1F
100
AcDbEntity
  8
0
  6
Continuous
 62
     7
370
    15
100
AcDbLine
 10
185.6499433128
 20
162.9015750613
 30
0.0
 11
181.8261100818
 21
162.9015750613
 31
0.0
  0
LINE
  5
AC
330
1F
100
AcDbEntity
  8
0
  6
Continuous
 62
     7
370
    15
100
AcDbLine
 10
181.8261100818
 20
68.3775872187
 30
0.0
 11
185.6499433128
 21
68.3775872187
 31
0.0
  0
SPLINE
  5
AD
330
1F
100
AcDbEntity
  8
0
  6
Continuous
 62
     7
370
    15
100
AcDbSpline
210
0.0
220
0.0
230
1.0
 70
     8
 71
     3
 72
    12
 73
     8
 74
     0
 42
0.000000001
 43
0.00000001
 40
0.0
 40
0.0
 40
0.0
 40
0.0
 40
0.5000000000000014
 40
0.5000000000000014
 40
0.7500000000000007
 40
0.7500000000000007
 40
1.0
 40
1.0
 40
1.0
 40
1.0
 10
186.2499433127635
 20
162.4159537536501
 30
0.0
 10
186.2499433127635
 20
162.536251379982
 30
0.0
 10
186.1960511212874
 20
162.6542885501636
 30
0.0
 10
186.0350961964263
 20
162.7938854197049
 30
0.0
 10
185.9703775681994
 20
162.8321378877841
 30
0.0
 10
185.8181909102986
 20
162.8869735896891
 30
0.0
 10
185.7354228727125
 20
162.9015750612814
 30
0.0
 10
185.6499433127635
 20
162.9015750612814
 30
0.0
  0
LINE
  5
AE
330
1F
100
AcDbEntity
  8
0
  6
Continuous
 62
     7
370
    15
100
AcDbLine
 10
186.2499433128
 20
68.7942406325
 30
0.0
 11
186.2499433128
 21
162.4159537537
 31
0.0
  0
SPLINE
  5
AF
330
1F
100
AcDbEntity
  8
0
  6
Continuous
 62
     7
370
    15
100
AcDbSpline
210
0.0
220
0.0
230
1.0
 70
     8
 71
     3
 72
    12
 73
     8
 74
     0
 42
0.000000001
 43
0.00000001
 40
0.0
 40
0.0
 40
0.0
 40
0.0
 40
0.2499999999999988
 40
0.2499999999999988
 40
0.4999999999999976
 40
0.4999999999999976
 40
1.0
 40
1.0
 40
1.0
 40
1.0
 10
185.6499433127635
 20
68.37758721869955
 30
0.0
 10
185.7459241551636
 20
68.37758721869953
 30
0.0
 10
185.8383573731016
 20
68.39394366665007
 30
0.0
 10
185.9947893305374
 20
68.44758434572925
 30
0.0
 10
186.0582641063678
 20
68.4838909169096
 30
0.0
 10
186.2065323614927
 20
68.60517917296879
 30
0.0
 10
186.2499433127635
 20
68.69948156986186
 30
0.0
 10
186.2499433127635
 20
68.79424063245821
 30
0.0
  0
LINE
  5
B0
330
1F
100
AcDbEntity
  8
0
  6
Continuous
 62
     7
370
    15
100
AcDbLine
 10
174.7737765437
 20
162.9015750613
 30
0.0
 11
170.9749433128
 21
162.9015750613
 31
0.0
  0
LINE
  5
B1
330
1F
100
AcDbEntity
  8
0
  6
Continuous
 62
     7
370
    15
100
AcDbLine
 10
174.7737765437
 20
68.3775872187
 30
0.0
 11
174.7737765437
 21
162.9015750613
 31
0.0
  0
LINE
  5
B2
330
1F
100
AcDbEntity
  8
0
  6
Continuous
 62
     7
370
    15
100
AcDbLine
 10
170.9749433128
 20
68.3775872187
 30
0.0
 11
174.7737765437
 21
68.3775872187
 31
0.0
  0
SPLINE
  5
B3
330
1F
100
AcDbEntity
  8
0
  6
Continuous
 62
     7
370
    15
100
AcDbSpline
210
0.0
220
0.0
230
1.0
 70
     8
 71
     3
 72
     8
 73
     4
 74
     0
 42
0.000000001
 43
0.00000001
 40
0.0
 40
0.0
 40
0.0
 40
0.0
 40
0.0012377667921509
 40
0.0012377667921509
 40
0.0012377667921509
 40
0.0012377667921509
 10
175.3306896577456
 20
162.1199375445442
 30
0.0
 10
175.1455159992822
 20
162.3806484399451
 30
0.0
 10
174.9598683430661
 20
162.6411912407833
 30
0.0
 10
174.7737765436879
 20
162.9015750612814
 30
0.0
  0
SPLINE
  5
B4
330
1F
100
AcDbEntity
  8
0
  6
Continuous
 62
     7
370
    15
100
AcDbSpline
210
0.0
220
0.0
230
1.0
 70
     8
 71
     3
 72
     8
 73
     4
 74
     0
 42
0.000000001
 43
0.00000001
 40
0.0
 40
0.0
 40
0.0
 40
0.0
 40
1.0
 40
1.0
 40
1.0
 40
1.0
 10
176.3899433127635
 20
160.2136255245249
 30
0.0
 10
176.0372853389603
 20
160.8492953622928
 30
0.0
 10
175.6841842718125
 20
161.4847237008688
 30
0.0
 10
175.3306896577456
 20
162.1199375445442
 30
0.0
  0
LINE
  5
B5
330
1F
100
AcDbEntity
  8
0
  6
Continuous
 62
     7
370
    15
100
AcDbLine
 10
176.3899433128
 20
71.0157731685
 30
0.0
 11
176.3899433128
 21
160.2136255245
 31
0.0
  0
SPLINE
  5
B6
330
1F
100
AcDbEntity
  8
0
  6
Continuous
 62
     7
370
    15
100
AcDbSpline
210
0.0
220
0.0
230
1.0
 70
     8
 71
     3
 72
     8
 73
     4
 74
     0
 42
0.000000001
 43
0.00000001
 40
0.0
 40
0.0
 40
0.0
 40
0.0
 40
1.0
 40
1.0
 40
1.0
 40
1.0
 10
176.3899433127635
 20
71.01577316853643
 30
0.0
 10
176.0031149224777
 20
70.3185107829872
 30
0.0
 10
175.6157573922384
 20
69.62154577287252
 30
0.0
 10
175.2279351876846
 20
68.92484190865173
 30
0.0
  0
SPLINE
  5
B7
330
1F
100
AcDbEntity
  8
0
  6
Continuous
 62
     7
370
    15
100
AcDbSpline
210
0.0
220
0.0
230
1.0
 70
     8
 71
     3
 72
     8
 73
     4
 74
     0
 42
0.000000001
 43
0.00000001
 40
0.0
 40
0.0
 40
0.0
 40
0.0
 40
0.0011891741919631
 40
0.0011891741919631
 40
0.0011891741919631
 40
0.0011891741919631
 10
174.7737765436879
 20
68.37758721869955
 30
0.0
 10
174.9261449699612
 20
68.5598025738194
 30
0.0
 10
175.0775504953382
 20
68.74221839594624
 30
0.0
 10
175.2279351876846
 20
68.92484190865173
 30
0.0
  0
SPLINE
  5
B8
330
1F
100
AcDbEntity
  8
0
  6
Continuous
 62
     7
370
    15
100
AcDbSpline
210
0.0
220
0.0
230
1.0
 70
     8
 71
     3
 72
    12
 73
     8
 74
     0
 42
0.000000001
 43
0.00000001
 40
0.0
 40
0.0
 40
0.0
 40
0.0
 40
0.4999999999999928
 40
0.4999999999999928
 40
0.7499999999999963
 40
0.7499999999999963
 40
1.0
 40
1.0
 40
1.0
 40
1.0
 10
177.1899433127635
 20
71.96693308066088
 30
0.0
 10
176.9757683462892
 20
71.96693308066088
 30
0.0
 10
176.7652685336699
 20
71.87297710804391
 30
0.0
 10
176.5445254383587
 20
71.63788540009824
 30
0.0
 10
176.4873783056385
 20
71.54625323539068
 30
0.0
 10
176.4098038819914
 20
71.34704386147014
 30
0.0
 10
176.3899433127636
 20
71.24008450111657
 30
0.0
 10
176.3899433127635
 20
71.13360785812463
 30
0.0
  0
SPLINE
  5
B9
330
1F
100
AcDbEntity
  8
0
  6
Continuous
 62
     7
370
    15
100
AcDbSpline
210
0.0
220
0.0
230
1.0
 70
     8
 71
     3
 72
    12
 73
     8
 74
     0
 42
0.000000001
 43
0.00000001
 40
0.0
 40
0.0
 40
0.0
 40
0.0
 40
0.25
 40
0.25
 40
0.5
 40
0.5
 40
1.0
 40
1.0
 40
1.0
 40
1.0
 10
177.1899433127635
 20
159.2624656124004
 30
0.0
 10
177.0821384855147
 20
159.2624656124004
 30
0.0
 10
176.9759254474554
 20
159.2852631522901
 30
0.0
 10
176.7802080344631
 20
159.3716238669473
 30
0.0
 10
176.6912732062659
 20
159.4352913560787
 30
0.0
 10
176.4724709392672
 20
159.6681224590708
 30
0.0
 10
176.3899433127635
 20
159.8823553603517
 30
0.0
 10
176.3899433127635
 20
160.0957908349374
 30
0.0
  0
SPLINE
  5
BA
330
1F
100
AcDbEntity
  8
0
  6
Continuous
 62
     7
370
    15
100
AcDbSpline
210
0.0
220
0.0
230
1.0
 70
     8
 71
     3
 72
    14
 73
    10
 74
     0
 42
0.000000001
 43
0.00000001
 40
0.0
 40
0.0
 40
0.0
 40
0.0
 40
0.25
 40
0.25
 40
0.5
 40
0.5
 40
0.75
 40
0.75
 40
1.0
 40
1.0
 40
1.0
 40
1.0
 10
180.2099433127635
 20
71.13360785812404
 30
0.0
 10
180.2099433127635
 20
71.2410113576218
 30
0.0
 10
180.1900303819066
 20
71.34726347181869
 30
0.0
 10
180.1123813376595
 20
71.5464939790717
 30
0.0
 10
180.0546018296256
 20
71.63873179371741
 30
0.0
 10
179.908686760801
 20
71.79405612411757
 30
0.0
 10
179.8200231928875
 20
71.85761846455665
 30
0.0
 10
179.6236691475594
 20
71.9442687039757
 30
0.0
 10
179.5178790575381
 20
71.96693308066087
 30
0.0
 10
179.4099433127635
 20
71.96693308066088
 30
0.0
  0
SPLINE
  5
BB
330
1F
100
AcDbEntity
  8
0
  6
Continuous
 62
     7
370
    15
100
AcDbSpline
210
0.0
220
0.0
230
1.0
 70
     8
 71
     3
 72
    14
 73
    10
 74
     0
 42
0.000000001
 43
0.00000001
 40
0.0
 40
0.0
 40
0.0
 40
0.0
 40
0.25
 40
0.25
 40
0.5
 40
0.5
 40
0.75
 40
0.75
 40
1.0
 40
1.0
 40
1.0
 40
1.0
 10
180.2099433127635
 20
160.0957908349373
 30
0.0
 10
180.2099433127635
 20
159.9884484627898
 30
0.0
 10
180.1899471206993
 20
159.881819455942
 30
0.0
 10
180.1122490363547
 20
159.6826676767908
 30
0.0
 10
180.0542558914611
 20
159.5901847784754
 30
0.0
 10
179.9082093986382
 20
159.4349489433662
 30
0.0
 10
179.8188716594706
 20
159.3712150017538
 30
0.0
 10
179.6241166474101
 20
159.2853847353586
 30
0.0
 10
179.5165863762012
 20
159.2624656124001
 30
0.0
 10
179.4099433127614
 20
159.2624656124004
 30
0.0
  0
LINE
  5
BC
330
1F
100
AcDbEntity
  8
0
  6
Continuous
 62
     7
370
    15
100
AcDbLine
 10
179.4099433128
 20
71.9669330807
 30
0.0
 11
177.1899433128
 21
71.9669330807
 31
0.0
  0
LINE
  5
BD
330
1F
100
AcDbEntity
  8
0
  6
Continuous
 62
     7
370
    15
100
AcDbLine
 10
179.4099433128
 20
159.2624656124
 30
0.0
 11
177.1899433128
 21
159.2624656124
 31
0.0
  0
LINE
  5
BE
330
1F
100
AcDbEntity
  8
0
  6
Continuous
 62
     7
370
    15
100
AcDbLine
 10
167.1999433128
 20
80.6896993465
 30
0.0
 11
167.1999433128
 21
150.5396993465
 31
0.0
  0
LINE
  5
BF
330
1F
100
AcDbEntity
  8
0
  6
Continuous
 62
     7
370
    15
100
AcDbLine
 10
202.1999433128
 20
149.5396993354
 30
0.0
 11
202.1999433128
 21
81.6896993465
 31
0.0
  0
LINE
  5
C0
330
1F
100
AcDbEntity
  8
0
  6
Continuous
 62
     7
370
    15
100
AcDbLine
 10
65.5999433128
 20
97.2358548191
 30
0.0
 11
65.5999433128
 21
133.9935438729
 31
0.0
  0
SPLINE
  5
C1
330
1F
100
AcDbEntity
  8
0
  6
Continuous
 62
     7
370
    15
100
AcDbSpline
210
0.0
220
0.0
230
1.0
 70
    11
 71
     3
 72
    66
 73
    62
 74
     0
 42
0.000000001
 43
0.00000001
 40
0.0
 40
0.0
 40
0.0
 40
0.0
 40
0.03125
 40
0.03125
 40
0.0625
 40
0.0625
 40
0.09375
 40
0.09375
 40
0.125
 40
0.125
 40
0.15625
 40
0.15625
 40
0.1875
 40
0.1875
 40
0.21875
 40
0.21875
 40
0.25
 40
0.25
 40
0.28125
 40
0.28125
 40
0.3125
 40
0.3125
 40
0.34375
 40
0.34375
 40
0.375
 40
0.375
 40
0.40625
 40
0.40625
 40
0.4375
 40
0.4375
 40
0.46875
 40
0.46875
 40
0.5
 40
0.5
 40
0.53125
 40
0.53125
 40
0.5625
 40
0.5625
 40
0.625
 40
0.625
 40
0.65625
 40
0.65625
 40
0.6875
 40
0.6875
 40
0.71875
 40
0.71875
 40
0.75
 40
0.75
 40
0.78125
 40
0.78125
 40
0.8125
 40
0.8125
 40
0.84375
 40
0.84375
 40
0.875
 40
0.875
 40
0.90625
 40
0.90625
 40
0.9375
 40
0.9375
 40
1.0
 40
1.0
 40
1.0
 40
1.0
 10
222.6332837211481
 20
118.1218165048576
 30
0.0
 10
222.8150686260929
 20
118.2708016079662
 30
0.0
 10
223.008122928334
 20
118.4001294332632
 30
0.0
 10
223.4149876428981
 20
118.6230064537666
 30
0.0
 10
223.6304285059107
 20
118.7170368148483
 30
0.0
 10
224.0753073823542
 20
118.8660654828244
 30
0.0
 10
224.3017999983898
 20
118.9204127293219
 30
0.0
 10
224.7626102635273
 20
118.990421657749
 30
0.0
 10
224.9992277591058
 20
119.0059248715806
 30
0.0
 10
225.4675631421046
 20
118.9964387633926
 30
0.0
 10
225.6990081139573
 20
118.9719480547918
 30
0.0
 10
226.1565035650799
 20
118.8837245430474
 30
0.0
 10
226.3847140739396
 20
118.8189974634884
 30
0.0
 10
226.8205040304108
 20
118.6526590250837
 30
0.0
 10
227.0289482387219
 20
118.5513507886533
 30
0.0
 10
227.4265680244049
 20
118.3113634247885
 30
0.0
 10
227.6173729334894
 20
118.1708840665739
 30
0.0
 10
227.9630281930239
 20
117.8607684040887
 30
0.0
 10
228.1195043109943
 20
117.6906780865522
 30
0.0
 10
228.3977543453284
 20
117.3182331376999
 30
0.0
 10
228.5196994446253
 20
117.1140800384325
 30
0.0
 10
228.7130392131313
 20
116.6917573097853
 30
0.0
 10
228.7865012697792
 20
116.471438585704
 30
0.0
 10
228.8831115211868
 20
116.0108363850468
 30
0.0
 10
228.9046269925541
 20
115.7755737069645
 30
0.0
 10
228.8935427545
 20
115.3093915714941
 30
0.0
 10
228.8603948832771
 20
115.073231259897
 30
0.0
 10
228.7427424488385
 20
114.6198205027949
 30
0.0
 10
228.6591020043119
 20
114.4020531686036
 30
0.0
 10
228.4437837121314
 20
113.9837109637169
 30
0.0
 10
228.3143915754092
 20
113.7881077259548
 30
0.0
 10
228.0197618339793
 20
113.4274894370546
 30
0.0
 10
227.8520814909927
 20
113.260186233394
 30
0.0
 10
227.4920866278765
 20
112.9639800378444
 30
0.0
 10
227.2993128182087
 20
112.8338692330613
 30
0.0
 10
226.8889625400856
 20
112.6081665506119
 30
0.0
 10
226.6727317880694
 20
112.5137859552404
 30
0.0
 10
226.0106186091358
 20
112.291015303686
 30
0.0
 10
225.5372150561883
 20
112.2192275844781
 30
0.0
 10
224.8383205583135
 20
112.232570047134
 30
0.0
 10
224.6048298550287
 20
112.2567685106625
 30
0.0
 10
224.1420911746002
 20
112.3458438849163
 30
0.0
 10
223.9179414034664
 20
112.4095846386494
 30
0.0
 10
223.4837402975377
 20
112.5748400076231
 30
0.0
 10
223.2722889940214
 20
112.6771908647643
 30
0.0
 10
222.8709666281379
 20
112.9194967967445
 30
0.0
 10
222.6843276623306
 20
113.0571386978738
 30
0.0
 10
222.339374783905
 20
113.36612427023
 30
0.0
 10
222.1794530670941
 20
113.5396647679114
 30
0.0
 10
221.899919722513
 20
113.9144301674614
 30
0.0
 10
221.7811702967129
 20
114.1134918443582
 30
0.0
 10
221.5873938397861
 20
114.5361296506845
 30
0.0
 10
221.5120858289622
 20
114.7629064198708
 30
0.0
 10
221.4166804090229
 20
115.2202814770948
 30
0.0
 10
221.3951279734159
 20
115.452428520478
 30
0.0
 10
221.4065365158433
 20
115.9239461231781
 30
0.0
 10
221.439876630484
 20
116.1580460216164
 30
0.0
 10
221.5574234542949
 20
116.6102569325907
 30
0.0
 10
221.6431902541615
 20
116.832700669954
 30
0.0
 10
221.9649618035658
 20
117.4558080445012
 30
0.0
 10
222.2697139112588
 20
117.8238462986403
 30
0.0
 10
222.6332837211481
 20
118.1218165048576
 30
0.0
  0
LINE
  5
C2
330
1F
100
AcDbEntity
  8
0
  6
Continuous
 62
     7
370
    15
100
AcDbLine
 10
232.8999433128
 20
115.6146993465
 30
0.0
 11
232.8999433128
 21
99.6146993465
 31
0.0
  0
LINE
  5
C3
330
1F
100
AcDbEntity
  8
0
  6
Continuous
 62
     7
370
    15
100
AcDbLine
 10
232.8999433128
 20
131.6146993465
 30
0.0
 11
232.8999433128
 21
115.6146993465
 31
0.0
  0
LINE
  5
C4
330
1F
100
AcDbEntity
  8
0
  6
Continuous
 62
     7
370
    15
100
AcDbLine
 10
233.1999433128
 20
115.6146993465
 30
0.0
 11
233.1999433128
 21
99.9146993465
 31
0.0
  0
LINE
  5
C5
330
1F
100
AcDbEntity
  8
0
  6
Continuous
 62
     7
370
    15
100
AcDbLine
 10
233.1999433128
 20
131.3146993465
 30
0.0
 11
233.1999433128
 21
115.6146993465
 31
0.0
  0
CIRCLE
  5
C6
330
1F
100
AcDbEntity
  8
0
  6
HIDDEN
 62
     7
370
     0
100
AcDbCircle
 10
225.1499433128
 20
115.6146993465
 30
0.0
 40
2.153589838486229
  0
CIRCLE
  5
C7
330
1F
100
AcDbEntity
  8
0
  6
HIDDEN
 62
     7
370
     0
100
AcDbCircle
 10
225.1499433128
 20
115.6146993465
 30
0.0
 40
1.953589838486225
  0
CIRCLE
  5
C8
330
1F
100
AcDbEntity
  8
0
  6
HIDDEN
 62
     7
370
     0
100
AcDbCircle
 10
225.1499433128
 20
115.6146993465
 30
0.0
 40
2.624999999999986
  0
LINE
  5
C9
330
1F
100
AcDbEntity
  8
0
  6
HIDDEN
 62
     7
370
     0
100
AcDbLine
 10
170.3749433128
 20
153.1146993465
 30
0.0
 11
171.0435724629
 21
153.1146993465
 31
0.0
  0
ELLIPSE
  5
CA
330
1F
100
AcDbEntity
  8
0
  6
HIDDEN
 62
     7
370
     0
100
AcDbEllipse
 10
171.0435724629
 20
153.9146993465
 30
0.0
 11
0.0
 21
0.7999999999999829
 31
0.0
210
0.0
220
0.0
230
1.0
 40
0.4142135624
 41
3.141592653589793
 42
4.712388980384695
  0
LINE
  5
CB
330
1F
100
AcDbEntity
  8
0
  6
HIDDEN
 62
     7
370
     0
100
AcDbLine
 10
171.0435724629
 20
80.5146993465
 30
0.0
 11
170.3749433128
 21
80.5146993465
 31
0.0
  0
ELLIPSE
  5
CC
330
1F
100
AcDbEntity
  8
0
  6
HIDDEN
 62
     7
370
     0
100
AcDbEllipse
 10
171.0435724629
 20
79.7146993465
 30
0.0
 11
0.0
 21
0.8000000000000114
 31
0.0
210
0.0
220
0.0
230
1.0
 40
0.4142135624
 41
4.712388980384713
 42
6.283185307179586
  0
LINE
  5
CD
330
1F
100
AcDbEntity
  8
0
  6
HIDDEN
 62
     7
370
     0
100
AcDbLine
 10
171.3749433128
 20
68.9248419087
 30
0.0
 11
170.590065542
 21
68.4741747104
 31
0.0
  0
LINE
  5
CE
330
1F
100
AcDbEntity
  8
0
  6
HIDDEN
 62
     7
370
     0
100
AcDbLine
 10
170.6636594914
 20
162.8312213659
 30
0.0
 11
171.3749433128
 21
162.1199375445
 31
0.0
  0
LINE
  5
CF
330
1F
100
AcDbEntity
  8
0
  6
HIDDEN
 62
     7
370
     0
100
AcDbLine
 10
73.1479451213
 20
104.4896993465
 30
0.0
 11
73.1479451213
 21
126.7396993465
 31
0.0
  0
LINE
  5
D0
330
1F
100
AcDbEntity
  8
0
  6
HIDDEN
 62
     7
370
     0
100
AcDbLine
 10
186.2499433128
 20
80.5146993465
 30
0.0
 11
171.0435724629
 21
80.5146993465
 31
0.0
  0
LINE
  5
D1
330
1F
100
AcDbEntity
  8
0
  6
HIDDEN
 62
     7
370
     0
100
AcDbLine
 10
175.2279351877
 20
68.9248419087
 30
0.0
 11
171.3749433128
 21
68.9248419087
 31
0.0
  0
LINE
  5
D2
330
1F
100
AcDbEntity
  8
0
  6
HIDDEN
 62
     7
370
     0
100
AcDbLine
 10
186.2499433128
 20
68.9248419087
 30
0.0
 11
181.3719514378
 21
68.9248419087
 31
0.0
  0
LINE
  5
D3
330
1F
100
AcDbEntity
  8
0
  6
HIDDEN
 62
     7
370
     0
100
AcDbLine
 10
171.3749433128
 20
68.9248419087
 30
0.0
 11
171.3749433128
 21
79.7146993465
 31
0.0
  0
LINE
  5
D4
330
1F
100
AcDbEntity
  8
0
  6
HIDDEN
 62
     7
370
     0
100
AcDbLine
 10
171.0435724629
 20
153.1146993465
 30
0.0
 11
186.2499433128
 21
153.1146993465
 31
0.0
  0
LINE
  5
D5
330
1F
100
AcDbEntity
  8
0
  6
HIDDEN
 62
     7
370
     0
100
AcDbLine
 10
171.3749433128
 20
162.1199375445
 30
0.0
 11
175.3306896577
 21
162.1199375445
 31
0.0
  0
LINE
  5
D6
330
1F
100
AcDbEntity
  8
0
  6
HIDDEN
 62
     7
370
     0
100
AcDbLine
 10
181.2691969678
 20
162.1199375445
 30
0.0
 11
186.2499433128
 21
162.1199375445
 31
0.0
  0
LINE
  5
D7
330
1F
100
AcDbEntity
  8
0
  6
HIDDEN
 62
     7
370
     0
100
AcDbLine
 10
171.3749433128
 20
162.1199375445
 30
0.0
 11
171.3749433128
 21
153.9146993465
 31
0.0
  0
LINE
  5
D8
330
1F
100
AcDbEntity
  8
0
  6
HIDDEN
 62
     7
370
     0
100
AcDbLine
 10
127.5999433128
 20
104.4896993465
 30
0.0
 11
127.5999433128
 21
126.7396993465
 31
0.0
  0
LINE
  5
D9
330
1F
100
AcDbEntity
  8
0
  6
HIDDEN
 62
     7
370
     0
100
AcDbLine
 10
132.2415915948
 20
112.2146993465
 30
0.0
 11
132.2415915948
 21
119.0146993465
 31
0.0
  0
SPLINE
  5
DA
330
1F
100
AcDbEntity
  8
0
  6
HIDDEN
 62
     7
370
     0
100
AcDbSpline
210
0.0
220
0.0
230
1.0
 70
     8
 71
     3
 72
    16
 73
    12
 74
     0
 42
0.000000001
 43
0.00000001
 40
0.0
 40
0.0
 40
0.0
 40
0.0
 40
0.2499999999999991
 40
0.2499999999999991
 40
0.4999999999999982
 40
0.4999999999999982
 40
0.6249999999999978
 40
0.6249999999999978
 40
0.7499999999999973
 40
0.7499999999999973
 40
1.0
 40
1.0
 40
1.0
 40
1.0
 10
233.1999433127635
 20
124.2234626033301
 30
0.0
 10
233.1999433127636
 20
124.1499367928087
 30
0.0
 10
233.1957301627818
 20
124.0749892809279
 30
0.0
 10
233.1731819705435
 20
123.9203315263346
 30
0.0
 10
233.1550335954914
 20
123.8393872722179
 30
0.0
 10
233.1052212158827
 20
123.7229142736993
 30
0.0
 10
233.0842546694606
 20
123.6844894936638
 30
0.0
 10
233.0330713392991
 20
123.6182684996884
 30
0.0
 10
233.0035014977865
 20
123.5918288613551
 30
0.0
 10
232.9129624164446
 20
123.5383721182682
 30
0.0
 10
232.8535029290394
 20
123.5351495933771
 30
0.0
 10
232.7999433127238
 20
123.5429051337221
 30
0.0
  0
SPLINE
  5
DB
330
1F
100
AcDbEntity
  8
0
  6
HIDDEN
 62
     7
370
     0
100
AcDbSpline
210
0.0
220
0.0
230
1.0
 70
     8
 71
     3
 72
    10
 73
     6
 74
     0
 42
0.000000001
 43
0.00000001
 40
0.0
 40
0.0
 40
0.0
 40
0.0
 40
0.5
 40
0.5
 40
1.0
 40
1.0
 40
1.0
 40
1.0
 10
232.7999433127363
 20
123.5429051337335
 30
0.0
 10
232.7587472508252
 20
123.5100168894962
 30
0.0
 10
232.7133097864775
 20
123.4815413626598
 30
0.0
 10
232.6116368552085
 20
123.4400690427447
 30
0.0
 10
232.5564755672094
 20
123.42801534451
 30
0.0
 10
232.4999433127636
 20
123.42801534451
 30
0.0
  0
SPLINE
  5
DC
330
1F
100
AcDbEntity
  8
0
  6
HIDDEN
 62
     7
370
     0
100
AcDbSpline
210
0.0
220
0.0
230
1.0
 70
     8
 71
     3
 72
    10
 73
     6
 74
     0
 42
0.000000001
 43
0.00000001
 40
0.0
 40
0.0
 40
0.0
 40
0.0
 40
0.5
 40
0.5
 40
1.0
 40
1.0
 40
1.0
 40
1.0
 10
232.7999433127962
 20
107.68649355928
 30
0.0
 10
232.7587472508791
 20
107.7193818035298
 30
0.0
 10
232.7133097865252
 20
107.7478573303771
 30
0.0
 10
232.6116368552347
 20
107.7893296503108
 30
0.0
 10
232.5564755672231
 20
107.8013833485513
 30
0.0
 10
232.4999433127636
 20
107.8013833485513
 30
0.0
  0
SPLINE
  5
DD
330
1F
100
AcDbEntity
  8
0
  6
HIDDEN
 62
     7
370
     0
100
AcDbSpline
210
0.0
220
0.0
230
1.0
 70
     8
 71
     3
 72
    16
 73
    12
 74
     0
 42
0.000000001
 43
0.00000001
 40
0.0
 40
0.0
 40
0.0
 40
0.0
 40
0.2499999999999983
 40
0.2499999999999983
 40
0.3749999999999986
 40
0.3749999999999986
 40
0.4999999999999988
 40
0.4999999999999988
 40
0.7499999999999994
 40
0.7499999999999994
 40
1.0
 40
1.0
 40
1.0
 40
1.0
 10
232.7999433127778
 20
107.686493559288
 30
0.0
 10
232.8531979394197
 20
107.6942050915583
 30
0.0
 10
232.9127347439577
 20
107.6909696503081
 30
0.0
 10
233.0028295579254
 20
107.6380690903414
 30
0.0
 10
233.0324788145279
 20
107.6116752554705
 30
0.0
 10
233.0832626357406
 20
107.5464249874728
 30
0.0
 10
233.1042589700262
 20
107.5084731759878
 30
0.0
 10
233.1550648479746
 20
107.3904738158122
 30
0.0
 10
233.1730555850498
 20
107.3097461169469
 30
0.0
 10
233.1957207316223
 20
107.1546743011435
 30
0.0
 10
233.1999433127635
 20
107.0795817786701
 30
0.0
 10
233.1999433127635
 20
107.0059411324822
 30
0.0
  0
LINE
  5
DE
330
1F
100
AcDbEntity
  8
0
  6
HIDDEN
 62
     7
370
     0
100
AcDbLine
 10
212.6999433128
 20
115.6146993465
 30
0.0
 11
212.6999433128
 21
106.9146993465
 31
0.0
  0
LINE
  5
DF
330
1F
100
AcDbEntity
  8
0
  6
HIDDEN
 62
     7
370
     0
100
AcDbLine
 10
212.6999433128
 20
124.3146993465
 30
0.0
 11
212.6999433128
 21
115.6146993465
 31
0.0
  0
LINE
  5
E0
330
1F
100
AcDbEntity
  8
0
  6
HIDDEN
 62
     7
370
     0
100
AcDbLine
 10
216.0659687165
 20
115.6146993465
 30
0.0
 11
216.0659687165
 21
106.6146993465
 31
0.0
  0
LINE
  5
E1
330
1F
100
AcDbEntity
  8
0
  6
HIDDEN
 62
     7
370
     0
100
AcDbLine
 10
216.0659687165
 20
124.6146993465
 30
0.0
 11
216.0659687165
 21
115.6146993465
 31
0.0
  0
LINE
  5
E2
330
1F
100
AcDbEntity
  8
0
  6
HIDDEN
 62
     7
370
     0
100
AcDbLine
 10
224.2999433128
 20
123.4280153445
 30
0.0
 11
232.4999433128
 21
123.4280153445
 31
0.0
  0
LINE
  5
E3
330
1F
100
AcDbEntity
  8
0
  6
HIDDEN
 62
     7
370
     0
100
AcDbLine
 10
224.2999433128
 20
107.8013833486
 30
0.0
 11
232.4999433128
 21
107.8013833486
 31
0.0
  0
SPLINE
  5
E4
330
1F
100
AcDbEntity
  8
0
  6
HIDDEN
 62
     7
370
     0
100
AcDbSpline
210
0.0
220
0.0
230
1.0
 70
     8
 71
     3
 72
    14
 73
    10
 74
     0
 42
0.000000001
 43
0.00000001
 40
0.0
 40
0.0
 40
0.0
 40
0.0
 40
0.25
 40
0.25
 40
0.5
 40
0.5
 40
0.75
 40
0.75
 40
1.0
 40
1.0
 40
1.0
 40
1.0
 10
232.7999433127636
 20
127.4146993465307
 30
0.0
 10
232.7999433127636
 20
127.5989636472682
 30
0.0
 10
232.8000953822799
 20
127.7659244965509
 30
0.0
 10
232.7968669330085
 20
128.0663276262342
 30
0.0
 10
232.7940197324967
 20
128.1990640832649
 30
0.0
 10
232.7863698121387
 20
128.4152230152387
 30
0.0
 10
232.7812422774176
 20
128.5017070479931
 30
0.0
 10
232.771204256701
 20
128.6213633970013
 30
0.0
 10
232.766267661786
 20
128.6555025680703
 30
0.0
 10
232.7626647575208
 20
128.6631032999919
 30
0.0
  0
SPLINE
  5
E5
330
1F
100
AcDbEntity
  8
0
  6
HIDDEN
 62
     7
370
     0
100
AcDbSpline
210
0.0
220
0.0
230
1.0
 70
     8
 71
     3
 72
    18
 73
    14
 74
     0
 42
0.000000001
 43
0.00000001
 40
0.0
 40
0.0
 40
0.0
 40
0.0
 40
0.0314591996686716
 40
0.1122792683620817
 40
0.1948686527766482
 40
0.2780708594931724
 40
0.3580625259418769
 40
0.5207591050800601
 40
0.6036546992945138
 40
0.6837824569547695
 40
0.8467500582750062
 40
0.9297902526743599
 40
1.0
 40
1.0
 40
1.0
 40
1.0
 10
232.760869250432
 20
128.6623864024693
 30
0.0
 10
232.7604638240824
 20
128.6625070313095
 30
0.0
 10
232.7590168395951
 20
128.66293756095
 30
0.0
 10
232.7578057138054
 20
128.6454672199795
 30
0.0
 10
232.7573503609234
 20
128.6097566110575
 30
0.0
 10
232.7587367612855
 20
128.555341845419
 30
0.0
 10
232.7625011051451
 20
128.4610824105379
 30
0.0
 10
232.7693144807068
 20
128.3339572784613
 30
0.0
 10
232.7775831273962
 20
128.1767646796463
 30
0.0
 10
232.7863594728265
 20
128.0005902419583
 30
0.0
 10
232.7946225252923
 20
127.7971225355212
 30
0.0
 10
232.7991910548401
 20
127.5791516515637
 30
0.0
 10
232.7997069496372
 20
127.4663693136399
 30
0.0
 10
232.7999433010703
 20
127.4146993465307
 30
0.0
  0
LINE
  5
E6
330
1F
100
AcDbEntity
  8
0
  6
HIDDEN
 62
     7
370
     0
100
AcDbLine
 10
232.7999433011
 20
127.4146993465
 30
0.0
 11
232.7999433127
 21
123.5429051337
 31
0.0
  0
LINE
  5
E7
330
1F
100
AcDbEntity
  8
0
  6
HIDDEN
 62
     7
370
     0
100
AcDbLine
 10
232.7999433175
 20
103.8146993465
 30
0.0
 11
232.7999433128
 21
107.6864935593
 31
0.0
  0
SPLINE
  5
E8
330
1F
100
AcDbEntity
  8
0
  6
HIDDEN
 62
     7
370
     0
100
AcDbSpline
210
0.0
220
0.0
230
1.0
 70
     8
 71
     3
 72
    14
 73
    10
 74
     0
 42
0.000000001
 43
0.00000001
 40
0.0
 40
0.0
 40
0.0
 40
0.0
 40
0.1120447440477343
 40
0.2777995672052143
 40
0.4383129393945959
 40
0.6034689606421668
 40
0.7642534932054024
 40
0.9296888757743772
 40
1.0
 40
1.0
 40
1.0
 40
1.0
 10
232.7612437940683
 20
102.5722825366034
 30
0.0
 10
232.7599416229661
 20
102.5740507336623
 30
0.0
 10
232.7567130684123
 20
102.578434735624
 30
0.0
 10
232.7579851667285
 20
102.6665496340778
 30
0.0
 10
232.765257621154
 20
102.8236973700307
 30
0.0
 10
232.7773819356617
 20
103.0446615723894
 30
0.0
 10
232.7909351303255
 20
103.3246855386635
 30
0.0
 10
232.7989411707811
 20
103.5897805365409
 30
0.0
 10
232.7997130926537
 20
103.7630283774483
 30
0.0
 10
232.7999433174635
 20
103.8146993465306
 30
0.0
  0
LINE
  5
E9
330
1F
100
AcDbEntity
  8
0
  6
HIDDEN
 62
     7
370
     0
100
AcDbLine
 10
173.5499433128
 20
152.7146993465
 30
0.0
 11
183.0499433128
 21
152.7146993465
 31
0.0
  0
LINE
  5
EA
330
1F
100
AcDbEntity
  8
0
  6
HIDDEN
 62
     7
370
     0
100
AcDbLine
 10
224.2999433128
 20
103.8146993465
 30
0.0
 11
224.2999433128
 21
107.8013833486
 31
0.0
  0
LINE
  5
EB
330
1F
100
AcDbEntity
  8
0
  6
HIDDEN
 62
     7
370
     0
100
AcDbLine
 10
224.2999433128
 20
127.4146993465
 30
0.0
 11
224.2999433128
 21
123.4280153445
 31
0.0
  0
LINE
  5
EC
330
1F
100
AcDbEntity
  8
0
  6
HIDDEN
 62
     7
370
     0
100
AcDbLine
 10
224.2999433128
 20
128.6646993465
 30
0.0
 11
224.2999433128
 21
127.4146993465
 31
0.0
  0
LINE
  5
ED
330
1F
100
AcDbEntity
  8
0
  6
HIDDEN
 62
     7
370
     0
100
AcDbLine
 10
224.2999433128
 20
102.5646993465
 30
0.0
 11
224.2999433128
 21
103.8146993465
 31
0.0
  0
ARC
  5
EE
330
1F
100
AcDbEntity
  8
0
  6
HIDDEN
 62
     7
370
     0
100
AcDbCircle
 10
66.7999433128
 20
101.2146993465
 30
0.0
 40
1.200000000000003
100
AcDbArc
 50
90.0
 51
180.0
  0
ARC
  5
EF
330
1F
100
AcDbEntity
  8
0
  6
HIDDEN
 62
     7
370
     0
100
AcDbCircle
 10
66.7999433128
 20
130.0146993465
 30
0.0
 40
1.200000000000017
100
AcDbArc
 50
180.0
 51
270.0
  0
LINE
  5
F0
330
1F
100
AcDbEntity
  8
0
  6
HIDDEN
 62
     7
370
     0
100
AcDbLine
 10
66.7999433128
 20
102.4146993465
 30
0.0
 11
71.7190032051
 21
102.4146993465
 31
0.0
  0
LINE
  5
F1
330
1F
100
AcDbEntity
  8
0
  6
HIDDEN
 62
     7
370
     0
100
AcDbLine
 10
71.7190032051
 20
128.8146993465
 30
0.0
 11
66.7999433128
 21
128.8146993465
 31
0.0
  0
ARC
  5
F2
330
1F
100
AcDbEntity
  8
0
  6
HIDDEN
 62
     7
370
     0
100
AcDbCircle
 10
71.7190032051
 20
102.8146993465
 30
0.0
 40
0.3999999999999927
100
AcDbArc
 50
270.0
 51
330.0
  0
ARC
  5
F3
330
1F
100
AcDbEntity
  8
0
  6
HIDDEN
 62
     7
370
     0
100
AcDbCircle
 10
71.7190032051
 20
128.4146993465
 30
0.0
 40
0.3999999999999927
100
AcDbArc
 50
30.0
 51
90.0
  0
LINE
  5
F4
330
1F
100
AcDbEntity
  8
0
  6
HIDDEN
 62
     7
370
     0
100
AcDbLine
 10
72.0654133666
 20
102.6146993465
 30
0.0
 11
73.1479451213
 21
104.4896993465
 31
0.0
  0
LINE
  5
F5
330
1F
100
AcDbEntity
  8
0
  6
HIDDEN
 62
     7
370
     0
100
AcDbLine
 10
73.1479451213
 20
126.7396993465
 30
0.0
 11
72.0654133666
 21
128.6146993465
 31
0.0
  0
LINE
  5
F6
330
1F
100
AcDbEntity
  8
0
  6
HIDDEN
 62
     7
370
     0
100
AcDbLine
 10
127.5999433128
 20
104.4896993465
 30
0.0
 11
132.2415915948
 21
112.2146993465
 31
0.0
  0
LINE
  5
F7
330
1F
100
AcDbEntity
  8
0
  6
HIDDEN
 62
     7
370
     0
100
AcDbLine
 10
132.2415915948
 20
119.0146993465
 30
0.0
 11
127.5999433128
 21
126.7396993465
 31
0.0
  0
LINE
  5
F8
330
1F
100
AcDbEntity
  8
0
  6
HIDDEN
 62
     7
370
     0
100
AcDbLine
 10
73.1479451213
 20
104.4896993465
 30
0.0
 11
127.5999433128
 21
104.4896993465
 31
0.0
  0
LINE
  5
F9
330
1F
100
AcDbEntity
  8
0
  6
HIDDEN
 62
     7
370
     0
100
AcDbLine
 10
127.5999433128
 20
126.7396993465
 30
0.0
 11
73.1479451213
 21
126.7396993465
 31
0.0
  0
ARC
  5
FA
330
1F
100
AcDbEntity
  8
0
  6
HIDDEN
 62
     7
370
     0
100
AcDbCircle
 10
214.0946213147
 20
124.3146993465
 30
0.0
 40
0.8000000000000184
100
AcDbArc
 50
75.0
 51
90.0
  0
ARC
  5
FB
330
1F
100
AcDbEntity
  8
0
  6
HIDDEN
 62
     7
370
     0
100
AcDbCircle
 10
214.0946213147
 20
106.9146993465
 30
0.0
 40
0.8000000000000114
100
AcDbArc
 50
270.0
 51
285.0
  0
LINE
  5
FC
330
1F
100
AcDbEntity
  8
0
  6
HIDDEN
 62
     7
370
     0
100
AcDbLine
 10
214.0946213147
 20
125.1146993465
 30
0.0
 11
213.4999433128
 21
125.1146993465
 31
0.0
  0
LINE
  5
FD
330
1F
100
AcDbEntity
  8
0
  6
HIDDEN
 62
     7
370
     0
100
AcDbLine
 10
213.4999433128
 20
106.1146993465
 30
0.0
 11
214.0946213147
 21
106.1146993465
 31
0.0
  0
ARC
  5
FE
330
1F
100
AcDbEntity
  8
0
  6
HIDDEN
 62
     7
370
     0
100
AcDbCircle
 10
213.4999433128
 20
124.3146993465
 30
0.0
 40
0.8000000000000114
100
AcDbArc
 50
90.0
 51
180.0
  0
ARC
  5
FF
330
1F
100
AcDbEntity
  8
0
  6
HIDDEN
 62
     7
370
     0
100
AcDbCircle
 10
213.4999433128
 20
106.9146993465
 30
0.0
 40
0.8000000000000114
100
AcDbArc
 50
180.0
 51
270.0
  0
LINE
  5
100
330
1F
100
AcDbEntity
  8
0
  6
HIDDEN
 62
     7
370
     0
100
AcDbLine
 10
214.3016765508
 20
106.1419586855
 30
0.0
 11
216.0659687165
 21
106.6146993465
 31
0.0
  0
LINE
  5
101
330
1F
100
AcDbEntity
  8
0
  6
HIDDEN
 62
     7
370
     0
100
AcDbLine
 10
216.0659687165
 20
124.6146993465
 30
0.0
 11
214.3016765508
 21
125.0874400076
 31
0.0
  0
LINE
  5
102
330
1F
100
AcDbEntity
  8
0
  6
HIDDEN
 62
     7
370
     0
100
AcDbLine
 10
224.2999433128
 20
124.6146993465
 30
0.0
 11
216.0659687165
 21
124.6146993465
 31
0.0
  0
LINE
  5
103
330
1F
100
AcDbEntity
  8
0
  6
HIDDEN
 62
     7
370
     0
100
AcDbLine
 10
216.0659687165
 20
106.6146993465
 30
0.0
 11
224.2999433128
 21
106.6146993465
 31
0.0
  0
LINE
  5
104
330
1F
100
AcDbEntity
  8
0
  6
HIDDEN
 62
     7
370
     0
100
AcDbLine
 10
233.1999433128
 20
129.1036483933
 30
0.0
 11
232.7535205345
 21
128.6572258612
 31
0.0
  0
LINE
  5
105
330
1F
100
AcDbEntity
  8
0
  6
HIDDEN
 62
     7
370
     0
100
AcDbLine
 10
232.7535202611
 20
102.5721735717
 30
0.0
 11
233.1999433128
 21
102.1257508025
 31
0.0
  0
LINE
  5
106
330
1F
100
AcDbEntity
  8
0
  6
HIDDEN
 62
     7
370
     0
100
AcDbLine
 10
173.5499433128
 20
152.7146993465
 30
0.0
 11
178.2999433128
 21
149.8606114061
 31
0.0
  0
LINE
  5
107
330
1F
100
AcDbEntity
  8
0
  6
HIDDEN
 62
     7
370
     0
100
AcDbLine
 10
178.2999433128
 20
149.8606114061
 30
0.0
 11
183.0499433128
 21
152.7146993465
 31
0.0
  0
LINE
  5
108
330
1F
100
AcDbEntity
  8
0
  6
HIDDEN
 62
     7
370
     0
100
AcDbLine
 10
173.5499433128
 20
153.1146993465
 30
0.0
 11
173.5499433128
 21
152.7146993465
 31
0.0
  0
LINE
  5
109
330
1F
100
AcDbEntity
  8
0
  6
HIDDEN
 62
     7
370
     0
100
AcDbLine
 10
183.0499433128
 20
152.7146993465
 30
0.0
 11
183.0499433128
 21
153.1146993465
 31
0.0
  0
LINE
  5
10A
330
1F
100
AcDbEntity
  8
0
  6
HIDDEN
 62
     7
370
     0
100
AcDbLine
 10
132.2415915948
 20
112.2146993465
 30
0.0
 11
212.6999433128
 21
112.2146993465
 31
0.0
  0
LINE
  5
10B
330
1F
100
AcDbEntity
  8
0
  6
HIDDEN
 62
     7
370
     0
100
AcDbLine
 10
212.6999433128
 20
119.0146993465
 30
0.0
 11
132.2415915948
 21
119.0146993465
 31
0.0
  0
LINE
  5
10C
330
1F
100
AcDbEntity
  8
0
  6
HIDDEN
 62
     7
370
     0
100
AcDbLine
 10
232.7613912453
 20
128.6646993465
 30
0.0
 11
224.2999433128
 21
128.6646993465
 31
0.0
  0
LINE
  5
10D
330
1F
100
AcDbEntity
  8
0
  6
HIDDEN
 62
     7
370
     0
100
AcDbLine
 10
224.2999433128
 20
102.5646993465
 30
0.0
 11
232.7616609422
 21
102.5646993465
 31
0.0
  0
DIMENSION
  5
10E
330
1F
100
AcDbEntity
  8
VERMASSUNG
100
AcDbDimension
  2
_D
 10
57.4290811725
 20
164.8271993465
 30
0.0
 11
57.4290811725
 21
115.6146993465
 31
0.0
 70
   160
  1
CAT 50 %%c<>
 71
     2
 42
-1.0
  3
SLDDIMSTYLE0
100
AcDbAlignedDimension
 13
185.6499433128
 23
66.4021993465
 33
0.0
 14
185.6499433128
 24
164.8271993465
 34
0.0
 50
90.0
100
AcDbRotatedDimension
  0
DIMENSION
  5
11B
330
1F
100
AcDbEntity
  8
VERMASSUNG
100
AcDbDimension
  2
_D_1
 10
240.0452957008
 20
106.6146993465
 30
0.0
 11
240.0452957008
 21
115.6146993465
 31
0.0
 70
   160
  1
%%c<>
 71
     2
 42
-1.0
  3
SLDDIMSTYLE0
100
AcDbAlignedDimension
 13
224.2999433128
 23
124.6146993465
 33
0.0
 14
224.2999433128
 24
106.6146993465
 34
0.0
 50
90.0
100
AcDbRotatedDimension
  0
DIMENSION
  5
126
330
1F
100
AcDbEntity
  8
VERMASSUNG
100
AcDbDimension
  2
_D_2
 10
65.5999433128
 20
178.9503879265
 30
0.0
 11
149.3999433128
 21
178.9503879265
 31
0.0
 70
   160
  1
(<>)
 71
     2
 42
-1.0
  3
SLDDIMSTYLE0
100
AcDbAlignedDimension
 13
233.1999433128
 23
131.3146993465
 33
0.0
 14
65.5999433128
 24
133.9935438739
 34
0.0
100
AcDbRotatedDimension
  0
DIMENSION
  5
132
330
1F
100
AcDbEntity
  8
VERMASSUNG
100
AcDbDimension
  2
_D_3
 10
233.1999433128
 20
172.9503879265
 30
0.0
 11
200.1999433128
 21
172.9503879265
 31
0.0
 70
   160
  1
<>
 71
     2
 42
-1.0
  3
SLDDIMSTYLE0
100
AcDbAlignedDimension
 13
167.1999433128
 23
150.5396993465
 33
0.0
 14
233.1999433128
 24
131.3146993465
 34
0.0
100
AcDbRotatedDimension
  0
DIMENSION
  5
13C
330
1F
100
AcDbEntity
  8
VERMASSUNG
100
AcDbDimension
  2
_D_4
 10
233.1999433128
 20
166.9503879265
 30
0.0
 11
217.6999433128
 21
166.9503879265
 31
0.0
 70
   160
  1
(<>)
 71
     2
 42
-1.0
  3
SLDDIMSTYLE0
100
AcDbAlignedDimension
 13
202.1999433128
 23
149.5396993465
 33
0.0
 14
233.1999433128
 24
131.3146993465
 34
0.0
100
AcDbRotatedDimension
  0
DIMENSION
  5
148
330
1F
100
AcDbEntity
  8
VERMASSUNG
100
AcDbDimension
  2
_D_5
 10
246.0452957008
 20
99.6146993465
 30
0.0
 11
246.0452957008
 21
115.6146993465
 31
0.0
 70
   160
  1
ST3 %%c<>
 71
     2
 42
-1.0
  3
SLDDIMSTYLE0
100
AcDbAlignedDimension
 13
232.8999433128
 23
131.6146993465
 33
0.0
 14
232.8999433128
 24
99.6146993465
 34
0.0
 50
90.0
100
AcDbRotatedDimension
  0
LINE
  5
154
330
1F
100
AcDbEntity
  8
VERMASSUNG
  6
CENTERX2
 62
     7
370
     0
100
AcDbLine
 10
63.5999433128
 20
115.6146993465
 30
0.0
 11
234.9631181335
 21
115.6146993465
 31
0.0
  0
LINE
  5
155
330
1F
100
AcDbEntity
  8
0
  6
Continuous
 62
     7
370
    15
100
AcDbLine
 10
276.5177783207
 20
40.1909561849
 30
0.0
 11
276.3763339851
 21
40.272636804
 31
0.0
  0
LINE
  5
156
330
1F
100
AcDbEntity
  8
0
  6
Continuous
 62
     7
370
    15
100
AcDbLine
 10
274.5375576225
 20
40.272636804
 30
0.0
 11
274.396113287
 21
40.1909561849
 31
0.0
  0
LINE
  5
157
330
1F
100
AcDbEntity
  8
0
  6
Continuous
 62
     7
370
    15
100
AcDbLine
 10
276.9569458038
 20
39.4358549679
 30
0.0
 11
276.9569458038
 21
39.5787496099
 31
0.0
  0
LINE
  5
158
330
1F
100
AcDbEntity
  8
0
  6
Continuous
 62
     7
370
    15
100
AcDbLine
 10
273.9569458038
 20
39.5787496099
 30
0.0
 11
273.9569458038
 21
39.4358549679
 31
0.0
  0
SPLINE
  5
159
330
1F
100
AcDbEntity
  8
0
  6
Continuous
 62
     7
370
    15
100
AcDbSpline
210
0.0
220
0.0
230
1.0
 70
     8
 71
     3
 72
     9
 73
     5
 74
     0
 42
0.000000001
 43
0.00000001
 40
0.0
 40
0.0
 40
0.0
 40
0.0
 40
0.9578104329689915
 40
1.0
 40
1.0
 40
1.0
 40
1.0
 10
278.2969303462672
 20
56.36175624206886
 30
0.0
 10
278.2673050889678
 20
56.47851352918134
 30
0.0
 10
278.2363749004047
 20
56.60041373311893
 30
0.0
 10
278.1946032291279
 20
56.71247896510345
 30
0.0
 10
278.1928409004026
 20
56.71720694872011
 30
0.0
  0
LINE
  5
15A
330
1F
100
AcDbEntity
  8
0
  6
Continuous
 62
     7
370
    15
100
AcDbLine
 10
273.7937120329
 20
62.5819762014
 30
0.0
 11
272.441782829
 21
63.3624283184
 31
0.0
  0
SPLINE
  5
15B
330
1F
100
AcDbEntity
  8
0
  6
Continuous
 62
     7
370
    15
100
AcDbSpline
210
0.0
220
0.0
230
1.0
 70
     8
 71
     3
 72
    17
 73
    13
 74
     0
 42
0.000000001
 43
0.00000001
 40
0.0
 40
0.0
 40
0.0
 40
0.0
 40
0.0328775478530981
 40
0.1432259681514064
 40
0.2543153893506162
 40
0.3660545307680212
 40
0.4782593788992763
 40
0.5907384009400979
 40
0.7033401159034175
 40
0.815952432210445
 40
0.9285202754995862
 40
1.0
 40
1.0
 40
1.0
 40
1.0
 10
260.8619443233213
 20
22.16616089895125
 30
0.0
 10
260.9615378577907
 20
22.15167565007819
 30
0.0
 10
261.3954017353443
 20
22.08857289670288
 30
0.0
 10
262.2130897745552
 20
22.11786800717069
 30
0.0
 10
263.3063841310524
 20
22.2568417729748
 30
0.0
 10
264.4363131498152
 20
22.54511139285867
 30
0.0
 10
265.5881481742491
 20
22.96724682123166
 30
0.0
 10
266.7523598526992
 20
23.52341858463916
 30
0.0
 10
267.9183622250902
 20
24.20593838865014
 30
0.0
 10
269.0740219072111
 20
25.01378127444389
 30
0.0
 10
270.0770824839872
 20
25.80959056647491
 30
0.0
 10
270.6782146472411
 20
26.37623275636555
 30
0.0
 10
270.9116801688658
 20
26.59630318766844
 30
0.0
  0
SPLINE
  5
15C
330
1F
100
AcDbEntity
  8
0
  6
Continuous
 62
     7
370
    15
100
AcDbSpline
210
0.0
220
0.0
230
1.0
 70
     8
 71
     3
 72
    17
 73
    13
 74
     0
 42
0.000000001
 43
0.00000001
 40
0.0
 40
0.0
 40
0.0
 40
0.0
 40
0.0164730955038212
 40
0.1288430030412445
 40
0.2413028404369481
 40
0.3538578606338489
 40
0.4665007728471842
 40
0.5792023318385942
 40
0.6918691888446521
 40
0.8043654990600366
 40
0.9164999002157853
 40
1.0
 40
1.0
 40
1.0
 40
1.0
 10
278.9156764651415
 20
40.45040265582077
 30
0.0
 10
278.9346258973096
 20
40.52276260452636
 30
0.0
 10
279.0828373701256
 20
41.08872017388404
 30
0.0
 10
279.2612444503708
 20
42.12982261344464
 30
0.0
 10
279.4406025220592
 20
43.55704892913779
 30
0.0
 10
279.5012653144082
 20
44.93690658601557
 30
0.0
 10
279.4545593343281
 20
46.25988818442016
 30
0.0
 10
279.2963339632232
 20
47.5134870391243
 30
0.0
 10
279.029110303041
 20
48.68777982602352
 30
0.0
 10
278.6499829150068
 20
49.76667691585283
 30
0.0
 10
278.217433940277
 20
50.67485494878827
 30
0.0
 10
277.8662609539006
 20
51.16954549070969
 30
0.0
 10
277.716374409027
 20
51.38068774534412
 30
0.0
  0
LINE
  5
15D
330
1F
100
AcDbEntity
  8
0
  6
Continuous
 62
     7
370
    15
100
AcDbLine
 10
269.948406395
 20
64.8018238954
 30
0.0
 11
268.6053160259
 21
65.5771734617
 31
0.0
  0
LINE
  5
15E
330
1F
100
AcDbEntity
  8
0
  6
Continuous
 62
     7
370
    15
100
AcDbLine
 10
253.1853105098
 20
25.9034606886
 30
0.0
 11
258.2588016648
 21
22.9745965874
 31
0.0
  0
LINE
  5
15F
330
1F
100
AcDbEntity
  8
0
  6
Continuous
 62
     7
370
    15
100
AcDbLine
 10
275.7198825335
 20
53.2213531061
 30
0.0
 11
270.6463913784
 21
56.1502172072
 31
0.0
  0
SPLINE
  5
160
330
1F
100
AcDbEntity
  8
0
  6
Continuous
 62
     7
370
    15
100
AcDbSpline
210
0.0
220
0.0
230
1.0
 70
     8
 71
     3
 72
    28
 73
    24
 74
     0
 42
0.000000001
 43
0.00000001
 40
0.0
 40
0.0
 40
0.0
 40
0.0
 40
0.0239523945683084
 40
0.0739184536132193
 40
0.1239329556831397
 40
0.1739732130095569
 40
0.224022792614339
 40
0.2740688657213222
 40
0.3241065604114487
 40
0.374133750492848
 40
0.42415009211591
 40
0.4741563461582207
 40
0.5241539297682826
 40
0.5741446338337116
 40
0.6241304533023705
 40
0.6741134908710631
 40
0.724095906171407
 40
0.7740796183643873
 40
0.8240663802727884
 40
0.8740584132374446
 40
0.9240579272729844
 40
0.9740670765544354
 40
1.0
 40
1.0
 40
1.0
 40
1.0
 10
261.1085152604563
 20
66.38870239978714
 30
0.0
 10
260.8977785400083
 20
66.34241459560283
 30
0.0
 10
260.2474330202479
 20
66.19956779601885
 30
0.0
 10
259.1295548477482
 20
65.81335935508991
 30
0.0
 10
257.7659984624429
 20
65.24056927478209
 30
0.0
 10
256.3922118843289
 20
64.53047146406251
 30
0.0
 10
255.0187353531687
 20
63.69713722551397
 30
0.0
 10
253.6535722533301
 20
62.74339897198089
 30
0.0
 10
252.305241660488
 20
61.67601096102547
 30
0.0
 10
250.9819104467676
 20
60.50149750706447
 30
0.0
 10
249.6916214981008
 20
59.22723011047358
 30
0.0
 10
248.4421995865946
 20
57.86109548089871
 30
0.0
 10
247.2412285586423
 20
56.41153226295823
 30
0.0
 10
246.0960052073075
 20
54.88746397936311
 30
0.0
 10
245.0135005454223
 20
53.29825498017753
 30
0.0
 10
244.0003097918977
 20
51.65365266719358
 30
0.0
 10
243.0626449096658
 20
49.96374051875749
 30
0.0
 10
242.2061830939061
 20
48.23885208260475
 30
0.0
 10
241.4364550934393
 20
46.48960576625856
 30
0.0
 10
240.7572208246494
 20
44.72645171215756
 30
0.0
 10
240.1763867121291
 20
42.96103925340692
 30
0.0
 10
239.7628853624038
 20
41.48341255521326
 30
0.0
 10
239.5684705775005
 20
40.60344979411936
 30
0.0
 10
239.5020812421487
 20
40.30295750968532
 30
0.0
  0
LINE
  5
161
330
1F
100
AcDbEntity
  8
0
  6
Continuous
 62
     7
370
    15
100
AcDbLine
 10
278.1979039788
 20
25.0961449089
 30
0.0
 11
278.3039527573
 21
25.157385469
 31
0.0
  0
LINE
  5
162
330
1F
100
AcDbEntity
  8
0
  6
Continuous
 62
     7
370
    15
100
AcDbLine
 10
283.8538388304
 20
34.7711117911
 30
0.0
 11
283.8538388304
 21
34.8935730079
 31
0.0
  0
LINE
  5
163
330
1F
100
AcDbEntity
  8
0
  6
Continuous
 62
     7
370
    15
100
AcDbLine
 10
282.1966595115
 20
38.5563314596
 30
0.0
 11
272.7567839826
 21
44.005855606
 31
0.0
  0
LINE
  5
164
330
1F
100
AcDbEntity
  8
0
  6
Continuous
 62
     7
370
    15
100
AcDbLine
 10
264.7574341215
 20
30.1490738079
 30
0.0
 11
274.1973096504
 21
24.6995496615
 31
0.0
  0
SPLINE
  5
165
330
1F
100
AcDbEntity
  8
0
  6
Continuous
 62
     7
370
    15
100
AcDbSpline
210
0.0
220
0.0
230
1.0
 70
     8
 71
     3
 72
    16
 73
    12
 74
     0
 42
0.000000001
 43
0.00000001
 40
0.0
 40
0.0
 40
0.0
 40
0.0
 40
0.0770168984387262
 40
0.2077748424281844
 40
0.3380678479691019
 40
0.4677594246213939
 40
0.5968860102937017
 40
0.7258702670646228
 40
0.8558192534352609
 40
0.989521676123213
 40
1.0
 40
1.0
 40
1.0
 40
1.0
 10
276.4555368101551
 20
33.70896070152782
 30
0.0
 10
276.5504547665194
 20
33.83800432004033
 30
0.0
 10
276.806522770126
 20
34.18613593850755
 30
0.0
 10
277.278421188286
 20
34.66711957674192
 30
0.0
 10
277.8411823781961
 20
35.13484572729921
 30
0.0
 10
278.4096692993939
 20
35.48338978894876
 30
0.0
 10
278.9578906552406
 20
35.70648920195347
 30
0.0
 10
279.4679746276692
 20
35.80494398523664
 30
0.0
 10
279.9149509404388
 20
35.76717138640313
 30
0.0
 10
280.1962399270925
 20
35.69517055676948
 30
0.0
 10
280.3113459899664
 20
35.59943395211202
 30
0.0
 10
280.3197113136015
 20
35.59247630225678
 30
0.0
  0
SPLINE
  5
166
330
1F
100
AcDbEntity
  8
0
  6
Continuous
 62
     7
370
    15
100
AcDbSpline
210
0.0
220
0.0
230
1.0
 70
     8
 71
     3
 72
    11
 73
     7
 74
     0
 42
0.000000001
 43
0.00000001
 40
0.0
 40
0.0
 40
0.0
 40
0.0
 40
0.0763030020589282
 40
0.4588660490093088
 40
0.8420747851931764
 40
1.0
 40
1.0
 40
1.0
 40
1.0
 10
275.4137613632285
 20
31.84577791073731
 30
0.0
 10
275.4324198947237
 20
31.89576083029419
 30
0.0
 10
275.5446273622739
 20
32.19634487281067
 30
0.0
 10
275.8144959662294
 20
32.73992508734512
 30
0.0
 10
276.1511611601805
 20
33.32074083060488
 30
0.0
 10
276.3867749767424
 20
33.62125752916781
 30
0.0
 10
276.4555368101551
 20
33.70896070152782
 30
0.0
  0
LINE
  5
167
330
1F
100
AcDbEntity
  8
0
  6
Continuous
 62
     7
370
    15
100
AcDbLine
 10
275.3579827271
 20
28.2489063573
 30
0.0
 11
275.2939455819
 21
28.3381069319
 31
0.0
  0
SPLINE
  5
168
330
1F
100
AcDbEntity
  8
0
  6
Continuous
 62
     7
370
    15
100
AcDbSpline
210
0.0
220
0.0
230
1.0
 70
     8
 71
     3
 72
     9
 73
     5
 74
     0
 42
0.000000001
 43
0.00000001
 40
0.0
 40
0.0
 40
0.0
 40
0.0
 40
0.9210408674207199
 40
0.9999999999999999
 40
0.9999999999999999
 40
0.9999999999999999
 40
0.9999999999999999
 10
275.7915845302647
 20
27.82657845373558
 30
0.0
 10
275.6783160395665
 20
27.89591747249471
 30
0.0
 10
275.5553372503457
 20
27.97120079727629
 30
0.0
 10
275.4632357017587
 20
28.10208923059539
 30
0.0
 10
275.4559634433731
 20
28.11242406775493
 30
0.0
  0
LINE
  5
169
330
1F
100
AcDbEntity
  8
0
  6
Continuous
 62
     7
370
    15
100
AcDbLine
 10
254.7455262591
 20
63.4852570967
 30
0.0
 11
224.189587367
 21
74.4964062779
 31
0.0
  0
LINE
  5
16A
330
1F
100
AcDbEntity
  8
0
  6
Continuous
 62
     7
370
    15
100
AcDbLine
 10
214.0657282942
 20
56.9594678315
 30
0.0
 11
243.677566605
 21
31.9554763594
 31
0.0
  0
SPLINE
  5
16B
330
1F
100
AcDbEntity
  8
0
  6
Continuous
 62
     7
370
    15
100
AcDbSpline
210
0.0
220
0.0
230
1.0
 70
     8
 71
     3
 72
    13
 73
     9
 74
     0
 42
0.000000001
 43
0.00000001
 40
0.0
 40
0.0
 40
0.0
 40
0.0
 40
0.0783616548336955
 40
0.2801512397959988
 40
0.4821463409175632
 40
0.6842529875457305
 40
0.8864029729046946
 40
1.0
 40
1.0
 40
1.0
 40
1.0
 10
256.6823651740571
 20
19.14832114391923
 30
0.0
 10
256.8527665483454
 20
19.18446244843023
 30
0.0
 10
257.4619695618746
 20
19.31367145107429
 30
0.0
 10
258.537817768064
 20
19.67881249871409
 30
0.0
 10
259.9000082389623
 20
20.23701382781145
 30
0.0
 10
261.2729582223333
 20
20.93972614594521
 30
0.0
 10
262.4475964111001
 20
21.62752225328069
 30
0.0
 10
263.1575559991161
 20
22.12748928326777
 30
0.0
 10
263.412979788971
 20
22.30736356873049
 30
0.0
  0
LINE
  5
16C
330
1F
100
AcDbEntity
  8
0
  6
Continuous
 62
     7
370
    15
100
AcDbLine
 10
247.8375325141
 20
20.7419986785
 30
0.0
 11
249.1894617179
 21
19.9615465615
 31
0.0
  0
LINE
  5
16D
330
1F
100
AcDbEntity
  8
0
  6
Continuous
 62
     7
370
    15
100
AcDbLine
 10
244.001065711
 20
22.9567438218
 30
0.0
 11
245.3441560801
 21
22.1813942555
 31
0.0
  0
LINE
  5
16E
330
1F
100
AcDbEntity
  8
0
  6
Continuous
 62
     7
370
    15
100
AcDbLine
 10
239.5112951648
 20
29.1300800326
 30
0.0
 11
239.6130919291
 21
28.7903411434
 31
0.0
  0
SPLINE
  5
16F
330
1F
100
AcDbEntity
  8
0
  6
Continuous
 62
     7
370
    15
100
AcDbSpline
210
0.0
220
0.0
230
1.0
 70
     8
 71
     3
 72
    26
 73
    22
 74
     0
 42
0.000000001
 43
0.00000001
 40
0.0
 40
0.0
 40
0.0
 40
0.0
 40
0.0359784138471953
 40
0.0874314710830021
 40
0.1397419534277932
 40
0.1932693787973483
 40
0.2479625268423346
 40
0.3034727919941089
 40
0.3593853891783624
 40
0.4153634945724939
 40
0.4712491331983545
 40
0.5270123080451253
 40
0.5826698228084367
 40
0.6382598225963042
 40
0.6938294371336758
 40
0.7494262819376326
 40
0.8050893045602908
 40
0.8608720879652456
 40
0.9168261758272578
 40
0.9729935208920933
 40
0.9999999999999999
 40
0.9999999999999999
 40
0.9999999999999999
 40
0.9999999999999999
 10
224.2216494574496
 20
74.46809520597725
 30
0.0
 10
224.0485789834955
 20
74.53139049059858
 30
0.0
 10
223.6279988488873
 20
74.68520493807713
 30
0.0
 10
222.898818865444
 20
74.76922851886363
 30
0.0
 10
222.0572601371312
 20
74.74319165440801
 30
0.0
 10
221.1795165150842
 20
74.57310801467499
 30
0.0
 10
220.2779211084008
 20
74.26525194888237
 30
0.0
 10
219.365165163594
 20
73.82047130194718
 30
0.0
 10
218.4572016312311
 20
73.2463630883856
 30
0.0
 10
217.5694764439088
 20
72.55344571517189
 30
0.0
 10
216.7158561752998
 20
71.7543160661012
 30
0.0
 10
215.9083896741915
 20
70.86219200146783
 30
0.0
 10
215.1579465378237
 20
69.89076471332261
 30
0.0
 10
214.4746140208054
 20
68.85430683613397
 30
0.0
 10
213.8677649916405
 20
67.7676523986544
 30
0.0
 10
213.3459771313413
 20
66.6461175187683
 30
0.0
 10
212.9171083183224
 20
65.50533553797445
 30
0.0
 10
212.5874547842888
 20
64.36060635563533
 30
0.0
 10
212.3648067141847
 20
63.22813745812497
 30
0.0
 10
212.2677937821731
 20
62.31280102527521
 30
0.0
 10
212.2594239849702
 20
61.78592318623157
 30
0.0
 10
212.2567063180174
 20
61.61484634211534
 30
0.0
  0
SPLINE
  5
170
330
1F
100
AcDbEntity
  8
0
  6
Continuous
 62
     7
370
    15
100
AcDbSpline
210
0.0
220
0.0
230
1.0
 70
     8
 71
     3
 72
    13
 73
     9
 74
     0
 42
0.000000001
 43
0.00000001
 40
0.0
 40
0.0
 40
0.0
 40
0.0
 40
0.1005606421481048
 40
0.2901783331456506
 40
0.4797960480711865
 40
0.6676739919146719
 40
0.8520090158068679
 40
1.0
 40
1.0
 40
1.0
 40
1.0
 10
212.2567063180174
 20
61.61484634211534
 30
0.0
 10
212.2600258076666
 20
61.42788550600451
 30
0.0
 10
212.2696045449612
 20
60.88839030562332
 30
0.0
 10
212.3769455296478
 20
60.04078656454666
 30
0.0
 10
212.6184787376759
 20
59.10785391753688
 30
0.0
 10
212.9849197932076
 20
58.27296793940592
 30
0.0
 10
213.4261037923273
 20
57.57906121418291
 30
0.0
 10
213.7937229816617
 20
57.22670525555615
 30
0.0
 10
213.9574306792666
 20
57.06979455992953
 30
0.0
  0
LWPOLYLINE
  5
171
330
1F
100
AcDbEntity
  8
0
  6
Continuous
 62
     7
370
    15
100
AcDbPolyline
 90
       18
 70
   128
 43
0.0
 10
274.6396805324
 20
39.1584323218
 10
274.3296610855
 20
39.3682760535
 10
274.1718876863
 20
39.6286010775
 10
274.1876685067
 20
39.9042490569
 10
274.3748722594
 20
40.1579922045
 10
274.7082160402
 20
40.3555611023
 10
275.1426799244
 20
40.4702729759
 10
275.6195871571
 20
40.486635351
 10
276.0745287738
 20
40.4024383983
 10
276.4460623882
 20
40.2290533827
 10
276.6840103271
 20
39.9898969115
 10
276.7562364027
 20
39.7172683911
 10
276.6529860832
 20
39.4479878141
 10
276.3882038966
 20
39.2184230144
 10
275.9976501443
 20
39.0595779903
 10
275.5340712746
 20
38.9929056426
 10
275.0600761828
 20
39.0274104411
 10
274.6396805324
 20
39.1584323218
  0
LWPOLYLINE
  5
172
330
1F
100
AcDbEntity
  8
0
  6
Continuous
 62
     7
370
    15
100
AcDbPolyline
 90
        6
 70
   128
 43
0.0
 10
274.5139474137
 20
38.9053356285
 10
274.1718460181
 20
39.1321368596
 10
273.9847466228
 20
39.4128061796
 10
273.9752161761
 20
39.7134907264
 10
274.1444041904
 20
39.997923506
 10
274.396113287
 20
40.1909561849
  0
LWPOLYLINE
  5
173
330
1F
100
AcDbEntity
  8
0
  6
Continuous
 62
     7
370
    15
100
AcDbPolyline
 90
       10
 70
   128
 43
0.0
 10
276.5177783207
 20
40.1909561849
 10
276.7420455895
 20
40.0253623603
 10
276.9291449848
 20
39.7446930403
 10
276.9386754316
 20
39.4440084935
 10
276.7694874172
 20
39.1595757139
 10
276.4419875133
 20
38.9257014925
 10
275.9956770414
 20
38.7705945121
 10
275.4843876316
 20
38.7129629635
 10
274.9697883322
 20
38.7597580622
 10
274.5139474137
 20
38.9053356285
  0
LWPOLYLINE
  5
174
330
1F
100
AcDbEntity
  8
0
  6
Continuous
 62
     7
370
    15
100
AcDbPolyline
 90
       17
 70
   128
 43
0.0
 10
274.8597134901
 20
39.3155622507
 10
274.6224516491
 20
39.4799669222
 10
274.5122339785
 20
39.6842725497
 10
274.5458401194
 20
39.8973754535
 10
274.7181538416
 20
40.0868326483
 10
275.0029419429
 20
40.2238009936
 10
275.3568480165
 20
40.2874283005
 10
275.7259930708
 20
40.2680278883
 10
276.0541781176
 20
40.1685532939
 10
276.2914399586
 20
40.0041486224
 10
276.4016576292
 20
39.7998429949
 10
276.3680514882
 20
39.5867400911
 10
276.195737766
 20
39.3972828963
 10
275.9109496647
 20
39.260314551
 10
275.5570435912
 20
39.1966872441
 10
275.1878985369
 20
39.2160876563
 10
274.8597134901
 20
39.3155622507
  0
SPLINE
  5
175
330
1F
100
AcDbEntity
  8
0
  6
Continuous
 62
     7
370
    15
100
AcDbSpline
210
0.0
220
0.0
230
1.0
 70
     8
 71
     3
 72
     9
 73
     5
 74
     0
 42
0.000000001
 43
0.00000001
 40
0.0
 40
0.0
 40
0.0
 40
0.0
 40
0.5473770332482553
 40
1.0
 40
1.0
 40
1.0
 40
1.0
 10
274.9238573776482
 20
39.28475231428055
 30
0.0
 10
274.8710985990593
 20
39.31492324672818
 30
0.0
 10
274.7747138854445
 20
39.37004235223502
 30
0.0
 10
274.6879668374269
 20
39.45532884176659
 30
0.0
 10
274.6487031311962
 20
39.49393146568221
 30
0.0
  0
SPLINE
  5
176
330
1F
100
AcDbEntity
  8
0
  6
Continuous
 62
     7
370
    15
100
AcDbSpline
210
0.0
220
0.0
230
1.0
 70
     8
 71
     3
 72
    10
 73
     6
 74
     0
 42
0.000000001
 43
0.00000001
 40
0.0
 40
0.0
 40
0.0
 40
0.0
 40
0.4391165375904133
 40
0.7513669429073446
 40
1.0
 40
1.0
 40
1.0
 40
1.0
 10
276.2651884764726
 20
39.85304670898964
 30
0.0
 10
276.2458971566498
 20
39.74040389163304
 30
0.0
 10
276.2128880149774
 20
39.54766214297986
 30
0.0
 10
276.1649033974766
 20
39.4037076241254
 30
0.0
 10
276.1410199922379
 20
39.37286328348792
 30
0.0
 10
276.1304327589599
 20
39.35919034923209
 30
0.0
  0
SPLINE
  5
177
330
1F
100
AcDbEntity
  8
0
  6
Continuous
 62
     7
370
    15
100
AcDbSpline
210
0.0
220
0.0
230
1.0
 70
     8
 71
     3
 72
    11
 73
     7
 74
     0
 42
0.000000001
 43
0.00000001
 40
0.0
 40
0.0
 40
0.0
 40
0.0
 40
0.1858291127512946
 40
0.524460314914214
 40
0.8816641415318802
 40
1.0
 40
1.0
 40
1.0
 40
1.0
 10
275.5917015213471
 20
40.16734544709348
 30
0.0
 10
275.6310883931655
 20
40.12976900526888
 30
0.0
 10
275.7422488614662
 20
40.0237180629762
 30
0.0
 10
275.9506100714796
 20
39.88697051911797
 30
0.0
 10
276.1400071394132
 20
39.84892677376532
 30
0.0
 10
276.2402447973703
 20
39.85222576918686
 30
0.0
 10
276.2651884764726
 20
39.85304670898964
 30
0.0
  0
SPLINE
  5
178
330
1F
100
AcDbEntity
  8
0
  6
Continuous
 62
     7
370
    15
100
AcDbSpline
210
0.0
220
0.0
230
1.0
 70
     8
 71
     3
 72
    10
 73
     6
 74
     0
 42
0.000000001
 43
0.00000001
 40
0.0
 40
0.0
 40
0.0
 40
0.0
 40
0.4391165375904104
 40
0.7513669429073446
 40
1.0
 40
1.0
 40
1.0
 40
1.0
 10
274.7834588487089
 20
39.98778782543975
 30
0.0
 10
274.8991650182146
 20
39.97154941101618
 30
0.0
 10
275.0971484313059
 20
39.94376405847612
 30
0.0
 10
275.384952290097
 20
40.03960279599765
 30
0.0
 10
275.5282010341071
 20
40.12811086064846
 30
0.0
 10
275.5917015213471
 20
40.16734544709348
 30
0.0
  0
SPLINE
  5
179
330
1F
100
AcDbEntity
  8
0
  6
Continuous
 62
     7
370
    15
100
AcDbSpline
210
0.0
220
0.0
230
1.0
 70
     8
 71
     3
 72
    10
 73
     6
 74
     0
 42
0.000000001
 43
0.00000001
 40
0.0
 40
0.0
 40
0.0
 40
0.0
 40
0.4391165375904115
 40
0.7513669429073476
 40
1.0
 40
1.0
 40
1.0
 40
1.0
 10
274.6487031311962
 20
39.49393146568221
 30
0.0
 10
274.6679944510191
 20
39.52268733861511
 30
0.0
 10
274.7010035926914
 20
39.57189116148817
 30
0.0
 10
274.7489882101922
 20
39.77964726331336
 30
0.0
 10
274.772871615431
 20
39.92386000800832
 30
0.0
 10
274.7834588487089
 20
39.98778782543975
 30
0.0
  0
LINE
  5
17A
330
1F
100
AcDbEntity
  8
0
  6
Continuous
 62
     7
370
    15
100
AcDbLine
 10
274.7834588487
 20
39.3747002926
 30
0.0
 11
274.7834588487
 21
39.9877878254
 31
0.0
  0
LINE
  5
17B
330
1F
100
AcDbEntity
  8
0
  6
Continuous
 62
     7
370
    15
100
AcDbLine
 10
275.5917015213
 20
39.199179865
 30
0.0
 11
275.5917015213
 21
40.1673454471
 31
0.0
  0
SPLINE
  5
17C
330
1F
100
AcDbEntity
  8
0
  6
Continuous
 62
     7
370
    15
100
AcDbSpline
210
0.0
220
0.0
230
1.0
 70
     8
 71
     3
 72
    10
 73
     6
 74
     0
 42
0.000000001
 43
0.00000001
 40
0.0
 40
0.0
 40
0.0
 40
0.0
 40
0.407049359222913
 40
0.8151901241300159
 40
1.0
 40
1.0
 40
1.0
 40
1.0
 10
278.2504610894117
 20
56.06866047428338
 30
0.0
 10
278.268742110804
 20
56.10753293823523
 30
0.0
 10
278.3053531697835
 20
56.18538209337123
 30
0.0
 10
278.3194067151886
 20
56.2923358357745
 30
0.0
 10
278.3015640607215
 20
56.34506001856918
 30
0.0
 10
278.2960028916621
 20
56.36149300473622
 30
0.0
  0
LWPOLYLINE
  5
17D
330
1F
100
AcDbEntity
  8
0
  6
Continuous
 62
     7
370
    15
100
AcDbPolyline
 90
       17
 70
   128
 43
0.0
 10
245.2482176047
 20
37.3787365015
 10
245.5948125984
 20
38.7687784026
 10
246.1522862416
 20
40.6219460916
 10
246.8187026312
 20
42.478808064
 10
247.5893933078
 20
44.3263564095
 10
248.4589593374
 20
46.1516484627
 10
249.4213091326
 20
47.9418974703
 10
250.4697011261
 20
49.6845621672
 10
251.5967909976
 20
51.3674346311
 10
252.794683123
 20
52.9787258038
 10
254.0549858859
 20
54.5071480765
 10
255.3688704634
 20
55.9419943638
 10
256.7271326749
 20
57.2732131096
 10
258.1202574604
 20
58.4914787021
 10
259.5384855364
 20
59.5882568022
 10
260.9718817629
 20
60.5558641294
 10
261.120679319
 20
60.6483406599
  0
SPLINE
  5
17E
330
1F
100
AcDbEntity
  8
0
  6
Continuous
 62
     7
370
    15
100
AcDbSpline
210
0.0
220
0.0
230
1.0
 70
     8
 71
     3
 72
    12
 73
     8
 74
     0
 42
0.000000001
 43
0.00000001
 40
0.0
 40
0.0
 40
0.0
 40
0.0
 40
0.2499999999999988
 40
0.2499999999999988
 40
0.4999999999999976
 40
0.4999999999999976
 40
1.0
 40
1.0
 40
1.0
 40
1.0
 10
244.7907457207708
 20
37.26596564564464
 30
0.0
 10
244.8246800730333
 20
37.2463757610659
 30
0.0
 10
244.8631430282697
 20
37.21921825068141
 30
0.0
 10
244.9374149211804
 20
37.16009767845485
 30
0.0
 10
244.9726929547341
 20
37.12873717152768
 30
0.0
 10
245.0679955732197
 20
37.03698970780486
 30
0.0
 10
245.116684594393
 20
36.98032398685271
 30
0.0
 10
245.1501869822634
 20
36.93228702794398
 30
0.0
  0
LWPOLYLINE
  5
17F
330
1F
100
AcDbEntity
  8
0
  6
Continuous
 62
     7
370
    15
100
AcDbPolyline
 90
       14
 70
   128
 43
0.0
 10
266.4340721653
 20
63.3893258246
 10
266.5123397578
 20
63.4075009604
 10
267.8780714326
 20
63.6481684909
 10
269.1997076672
 20
63.7343382672
 10
270.468123233
 20
63.6654153308
 10
271.6745603633
 20
63.4418755596
 10
272.8106892208
 20
63.0652623824
 10
273.8686654114
 20
62.5381761225
 10
274.8411841455
 20
61.8642560434
 10
275.7215306741
 20
61.0481552218
 10
276.5036266503
 20
60.0955084204
 10
277.1820720977
 20
59.0128931827
 10
277.7521826941
 20
57.8077844185
 10
278.1098764182
 20
56.8172254512
  0
LINE
  5
180
330
1F
100
AcDbEntity
  8
0
  6
Continuous
 62
     7
370
    15
100
AcDbLine
 10
243.4388165169
 20
38.0464177626
 30
0.0
 11
244.7907457208
 21
37.2659656456
 31
0.0
  0
LWPOLYLINE
  5
181
330
1F
100
AcDbEntity
  8
0
  6
Continuous
 62
     7
370
    15
100
AcDbPolyline
 90
       26
 70
   128
 43
0.0
 10
243.4388165169
 20
38.0464177626
 10
243.9016278722
 20
39.8952513608
 10
244.4765545963
 20
41.7589776896
 10
245.1596271115
 20
43.6247286632
 10
245.9461291481
 20
45.4796222162
 10
246.8306303079
 20
47.3108512486
 10
247.8070235588
 20
49.1057720515
 10
248.8685673998
 20
50.8519916064
 10
250.0079324087
 20
52.5374531518
 10
251.2172518474
 20
54.1505194297
 10
252.4881759777
 20
55.6800530347
 10
253.8119297125
 20
57.1154933123
 10
255.1793732029
 20
58.4469292746
 10
256.5810649445
 20
59.6651680308
 10
258.0073269658
 20
60.7617982595
 10
259.4483116504
 20
61.7292482846
 10
260.894069729
 20
62.5608383539
 10
262.3346189745
 20
63.2508267592
 10
263.7600131243
 20
63.7944494802
 10
265.160410554
 20
64.1879530774
 10
266.5261422287
 20
64.4286206079
 10
267.8477784633
 20
64.5147903842
 10
269.1161940292
 20
64.4458674478
 10
270.3226311594
 20
64.2223276766
 10
271.4587600169
 20
63.8457144994
 10
272.441782829
 20
63.3624283184
  0
ARC
  5
182
330
1F
100
AcDbEntity
  8
0
  6
Continuous
 62
     7
370
    15
100
AcDbCircle
 10
248.6799084594
 20
29.0936049327
 30
0.0
 40
0.6147219230287945
100
AcDbArc
 50
302.60547834
 51
357.3945215143
  0
LINE
  5
183
330
1F
100
AcDbEntity
  8
0
  6
Continuous
 62
     7
370
    15
100
AcDbLine
 10
249.2939948999
 20
31.7485476094
 30
0.0
 11
249.2939948999
 21
29.0656605918
 31
0.0
  0
LINE
  5
184
330
1F
100
AcDbEntity
  8
0
  6
Continuous
 62
     7
370
    15
100
AcDbLine
 10
249.2939948999
 20
38.9049773751
 30
0.0
 11
249.2939948999
 21
36.2220903575
 31
0.0
  0
ARC
  5
185
330
1F
100
AcDbEntity
  8
0
  6
Continuous
 62
     7
370
    15
100
AcDbCircle
 10
249.121565153
 20
38.9329482538
 30
0.0
 40
0.1746836789714697
100
AcDbArc
 50
350.7859630096
 51
129.2032852357
  0
LINE
  5
186
330
1F
100
AcDbEntity
  8
0
  6
Continuous
 62
     7
370
    15
100
AcDbLine
 10
249.0111521875
 20
39.0683120775
 30
0.0
 11
245.1963615063
 21
36.866080293
 31
0.0
  0
LINE
  5
187
330
1F
100
AcDbEntity
  8
0
  6
Continuous
 62
     7
370
    15
100
AcDbLine
 10
245.1501869823
 20
36.9322870279
 30
0.0
 11
245.1963615063
 21
36.866080293
 31
0.0
  0
LINE
  5
188
330
1F
100
AcDbEntity
  8
0
  6
Continuous
 62
     7
370
    15
100
AcDbLine
 10
278.145803555
 20
55.8873883078
 30
0.0
 11
278.2504610894
 21
56.0686604743
 31
0.0
  0
LINE
  5
189
330
1F
100
AcDbEntity
  8
0
  6
Continuous
 62
     7
370
    15
100
AcDbLine
 10
275.2448137695
 20
54.2126825518
 30
0.0
 11
278.145803555
 21
55.8873883078
 31
0.0
  0
ARC
  5
18A
330
1F
100
AcDbEntity
  8
0
  6
Continuous
 62
     7
370
    15
100
AcDbCircle
 10
275.5760574976
 20
53.6948402637
 30
0.0
 40
0.6147219230286765
100
AcDbArc
 50
122.60547834
 51
177.3945215144
  0
LINE
  5
18B
330
1F
100
AcDbEntity
  8
0
  6
Continuous
 62
     7
370
    15
100
AcDbLine
 10
274.961971057
 20
53.6588860883
 30
0.0
 11
274.961971057
 21
53.7227846046
 31
0.0
  0
LINE
  5
18C
330
1F
100
AcDbEntity
  8
0
  6
Continuous
 62
     7
370
    15
100
AcDbLine
 10
245.1963615063
 20
26.3735308603
 30
0.0
 11
245.1501869823
 21
26.2540121547
 31
0.0
  0
LINE
  5
18D
330
1F
100
AcDbEntity
  8
0
  6
Continuous
 62
     7
370
    15
100
AcDbLine
 10
245.1963615063
 20
26.3735308603
 30
0.0
 11
249.0111521875
 21
28.5757626447
 31
0.0
  0
LWPOLYLINE
  5
18E
330
1F
100
AcDbEntity
  8
0
  6
Continuous
 62
     7
370
    15
100
AcDbPolyline
 90
       22
 70
   128
 43
0.0
 10
242.4495809115
 20
39.3052895991
 10
242.8981919543
 20
41.1091924124
 10
243.460083628
 20
42.9282729226
 10
244.1311010002
 20
44.7490798607
 10
244.9062822043
 20
46.5581491915
 10
245.7798951296
 20
48.3421036742
 10
246.7454798077
 20
50.0877517808
 10
247.7958961812
 20
51.7821852413
 10
248.9233769012
 20
53.4128744946
 10
250.1195847631
 20
54.9677613392
 10
251.3756743563
 20
56.4353480974
 10
252.6823574726
 20
57.8047826359
 10
254.0299717873
 20
59.0659386121
 10
255.4085523087
 20
60.2094903541
 10
256.8079050638
 20
61.2269818193
 10
258.2176824785
 20
62.1108891234
 10
259.6274598932
 20
62.8546761759
 10
261.0268126483
 20
63.4528430114
 10
262.4053931697
 20
63.9009664597
 10
263.7530074844
 20
64.1957328525
 10
265.0596906007
 20
64.3349625272
 10
265.9212157978
 20
64.3401757507
  0
SPLINE
  5
18F
330
1F
100
AcDbEntity
  8
0
  6
Continuous
 62
     7
370
    15
100
AcDbSpline
210
0.0
220
0.0
230
1.0
 70
     8
 71
     3
 72
     8
 73
     4
 74
     0
 42
0.000000001
 43
0.00000001
 40
0.0
 40
0.0
 40
0.0
 40
0.0
 40
1.0
 40
1.0
 40
1.0
 40
1.0
 10
242.4495809114574
 20
39.30528959913221
 30
0.0
 10
242.0662969419501
 20
39.24192939115256
 30
0.0
 10
241.6829310313112
 20
39.17873787663975
 30
0.0
 10
241.2994931625092
 20
39.1156945035034
 30
0.0
  0
SPLINE
  5
190
330
1F
100
AcDbEntity
  8
0
  6
Continuous
 62
     7
370
    15
100
AcDbSpline
210
0.0
220
0.0
230
1.0
 70
     8
 71
     3
 72
     8
 73
     4
 74
     0
 42
0.000000001
 43
0.00000001
 40
0.0
 40
0.0
 40
0.0
 40
0.0
 40
0.0011891741919631
 40
0.0011891741919631
 40
0.0011891741919631
 40
0.0011891741919631
 10
240.9454400829062
 20
39.48581333959712
 30
0.0
 10
241.0637333132553
 20
39.36234276780638
 30
0.0
 10
241.1817569825177
 20
39.23896710172049
 30
0.0
 10
241.2994931625092
 20
39.1156945035034
 30
0.0
  0
LWPOLYLINE
  5
191
330
1F
100
AcDbEntity
  8
0
  6
Continuous
 62
     7
370
    15
100
AcDbPolyline
 90
       28
 70
   128
 43
0.0
 10
240.9454400829
 20
39.4858133396
 10
241.4082514382
 20
41.3346469377
 10
241.9831781623
 20
43.1983732666
 10
242.6662506775
 20
45.0641242401
 10
243.4527527141
 20
46.9190177932
 10
244.3372538739
 20
48.7502468255
 10
245.3136471248
 20
50.5451676285
 10
246.3751909658
 20
52.2913871833
 10
247.5145559747
 20
53.9768487287
 10
248.7238754134
 20
55.5899150066
 10
249.9947995437
 20
57.1194486117
 10
251.3185532785
 20
58.5548888893
 10
252.6859967689
 20
59.8863248515
 10
254.0876885105
 20
61.1045636077
 10
255.5139505318
 20
62.2011938364
 10
256.9549352164
 20
63.1686438616
 10
258.400693295
 20
64.0002339308
 10
259.8412425405
 20
64.6902223361
 10
261.2666366903
 20
65.2338450571
 10
262.66703412
 20
65.6273486543
 10
264.0327657947
 20
65.8680161848
 10
265.3544020293
 20
65.9541859612
 10
266.6228175952
 20
65.8852630247
 10
267.8292547254
 20
65.6617232535
 10
268.9653835829
 20
65.2851100764
 10
270.0233597735
 20
64.7580238164
 10
270.9958785076
 20
64.0841037373
 10
271.1317830004
 20
63.9724552958
  0
ARC
  5
192
330
1F
100
AcDbEntity
  8
0
  6
Continuous
 62
     7
370
    15
100
AcDbCircle
 10
272.6794119106
 20
47.9546618492
 30
0.0
 40
6.074504018115701
100
AcDbArc
 50
35.4868123597
 51
84.5853086471
  0
ARC
  5
193
330
1F
100
AcDbEntity
  8
0
  6
Continuous
 62
     7
370
    15
100
AcDbCircle
 10
261.2989577752
 20
28.2403948315
 30
0.0
 40
6.073607262477884
100
AcDbArc
 50
215.6396235915
 51
264.6147685583
  0
LINE
  5
194
330
1F
100
AcDbEntity
  8
0
  6
Continuous
 62
     7
370
    15
100
AcDbLine
 10
239.6023497138
 20
40.2611629059
 30
0.0
 11
240.9454400829
 21
39.4858133396
 31
0.0
  0
ARC
  5
195
330
1F
100
AcDbEntity
  8
0
  6
Continuous
 62
     7
370
    15
100
AcDbCircle
 10
263.9162822765
 20
56.7834993649
 30
0.0
 40
9.9657283538641
100
AcDbArc
 50
61.9322093931
 51
105.572530477
  0
ARC
  5
196
330
1F
100
AcDbEntity
  8
0
  6
Continuous
 62
     7
370
    15
100
AcDbCircle
 10
267.3943656893
 20
50.1732575087
 30
0.0
 40
6.804389636125686
100
AcDbArc
 50
61.4496699437
 51
99.7560417237
  0
ARC
  5
197
330
1F
100
AcDbEntity
  8
0
  6
Continuous
 62
     7
370
    15
100
AcDbCircle
 10
256.6815640286
 20
31.6600862016
 30
0.0
 40
6.73517081926646
100
AcDbArc
 50
200.7373583633
 51
238.7278371527
  0
LINE
  5
198
330
1F
100
AcDbEntity
  8
0
  6
Continuous
 62
     7
370
    15
100
AcDbLine
 10
243.662328284
 20
38.993452777
 30
0.0
 11
243.0687094359
 21
39.3361416437
 31
0.0
  0
SPLINE
  5
199
330
1F
100
AcDbEntity
  8
0
  6
Continuous
 62
     7
370
    15
100
AcDbSpline
210
0.0
220
0.0
230
1.0
 70
     8
 71
     3
 72
    12
 73
     8
 74
     0
 42
0.000000001
 43
0.00000001
 40
0.0
 40
0.0
 40
0.0
 40
0.0
 40
0.4999999999999928
 40
0.4999999999999928
 40
0.7499999999999963
 40
0.7499999999999963
 40
1.0
 40
1.0
 40
1.0
 40
1.0
 10
243.06870943586
 20
39.33614164374241
 30
0.0
 10
242.9929871502829
 20
39.37985518873714
 30
0.0
 10
242.8853457751268
 20
39.40364202282738
 30
0.0
 10
242.7241838348849
 20
39.40071344189032
 30
0.0
 10
242.6715824098293
 20
39.3936749769276
 30
0.0
 10
242.5737245597379
 20
39.3688490369065
 30
0.0
 10
242.5288869436396
 20
39.35107199700524
 30
0.0
 10
242.4912417654908
 20
39.3293398982407
 30
0.0
  0
SPLINE
  5
19A
330
1F
100
AcDbEntity
  8
0
  6
Continuous
 62
     7
370
    15
100
AcDbSpline
210
0.0
220
0.0
230
1.0
 70
     8
 71
     3
 72
    10
 73
     6
 74
     0
 42
0.000000001
 43
0.00000001
 40
0.0
 40
0.0
 40
0.0
 40
0.0
 40
0.5
 40
0.5
 40
1.0
 40
1.0
 40
1.0
 40
1.0
 10
239.5004237081712
 20
40.2907533805443
 30
0.0
 10
239.5076708957335
 20
40.2951015674845
 30
0.0
 10
239.5194459880012
 20
40.29561346991855
 30
0.0
 10
239.5535604648231
 20
40.28633777539648
 30
0.0
 10
239.5758350213382
 20
40.27646951205052
 30
0.0
 10
239.6023497138145
 20
40.26116290589422
 30
0.0
  0
LINE
  5
19B
330
1F
100
AcDbEntity
  8
0
  6
Continuous
 62
     7
370
    15
100
AcDbLine
 10
242.4912417655
 20
39.3293398982
 30
0.0
 11
242.4495809115
 21
39.3052895991
 31
0.0
  0
LWPOLYLINE
  5
19C
330
1F
100
AcDbEntity
  8
0
  6
Continuous
 62
     7
370
    15
100
AcDbPolyline
 90
       43
 70
   128
 43
0.0
 10
278.3030505981
 20
37.9765553255
 10
277.4757485409
 20
37.4273713368
 10
276.6669270446
 20
36.7472698573
 10
275.8946538448
 20
35.9514432301
 10
275.1761802488
 20
35.057668907
 10
274.5275557694
 20
34.0859123295
 10
273.9632696056
 20
33.0578809338
 10
273.4959269779
 20
31.9965392424
 10
273.1359675484
 20
30.9255958749
 10
272.8914322158
 20
29.8689739366
 10
272.7677834955
 20
28.8502766154
 10
272.7677834955
 20
27.8922599261
 10
272.8914322158
 20
27.0163243786
 10
273.1359675484
 20
26.2420369255
 10
273.4959269779
 20
25.5866938691
 10
273.9632696056
 20
25.0649344903
 10
274.5275557694
 20
24.6884140315
 10
275.1761802488
 20
24.4655433374
 10
275.8946538448
 20
24.4013009713
 10
276.6669270446
 20
24.4971220012
 10
277.4757485409
 20
24.7508659439
 10
278.3030505981
 20
25.1568645789
 10
279.1303526553
 20
25.7060485675
 10
279.9391741516
 20
26.3861500471
 10
280.7114473514
 20
27.1819766743
 10
281.4299209474
 20
28.0757509973
 10
282.0785454269
 20
29.0475075748
 10
282.6428315906
 20
30.0755389706
 10
283.1101742183
 20
31.136880662
 10
283.4701336479
 20
32.2078240294
 10
283.7146689804
 20
33.2644459678
 10
283.8383177007
 20
34.283143289
 10
283.8383177007
 20
35.2411599782
 10
283.7146689804
 20
36.1170955258
 10
283.4701336479
 20
36.8913829788
 10
283.1101742183
 20
37.5467260353
 10
282.6428315906
 20
38.0684854141
 10
282.0785454269
 20
38.4450058729
 10
281.4299209474
 20
38.6678765669
 10
280.7114473514
 20
38.7321189331
 10
279.9391741516
 20
38.6362979031
 10
279.1303526553
 20
38.3825539604
 10
278.3030505981
 20
37.9765553255
  0
LWPOLYLINE
  5
19D
330
1F
100
AcDbEntity
  8
0
  6
Continuous
 62
     7
370
    15
100
AcDbPolyline
 90
       23
 70
   128
 43
0.0
 10
278.1969845809
 20
38.1602670557
 10
277.3733399965
 20
37.6151745589
 10
276.5672499664
 20
36.9424745641
 10
275.7958949002
 20
36.156504504
 10
275.0757148918
 20
35.2740159656
 10
274.4220593279
 20
34.3138176601
 10
273.8488597419
 20
33.2963745473
 10
273.3683328879
 20
32.2433716607
 10
272.9907203614
 20
31.1772519288
 10
272.7240703179
 20
30.1207378425
 10
272.5740659401
 20
29.0963471655
 10
272.543904311
 20
28.1259130064
 10
272.6342282732
 20
27.2301184846
 10
272.8431127283
 20
26.4280559051
 10
273.1661056668
 20
25.7368198392
 10
273.596323055
 20
25.1711427837
 10
274.1245955562
 20
24.7430811627
 10
274.7396639592
 20
24.4617583667
 10
275.4284191488
 20
24.3331703026
 10
276.1761815039
 20
24.3600576017
 10
276.9670137682
 20
24.541847208
 10
277.784060725
 20
24.8746645915
 10
278.1979039788
 20
25.0961449089
  0
LWPOLYLINE
  5
19E
330
1F
100
AcDbEntity
  8
0
  6
Continuous
 62
     7
370
    15
100
AcDbPolyline
 90
       12
 70
   128
 43
0.0
 10
283.8538388304
 20
34.8935730079
 10
283.8199032217
 20
35.5884308402
 10
283.6698988439
 20
36.4396301492
 10
283.4032488005
 20
37.1882766484
 10
283.025636274
 20
37.8184142374
 10
282.5451094199
 20
38.3166126277
 10
281.971909834
 20
38.6722535853
 10
281.31825427
 20
38.8777572408
 10
280.5980742617
 20
38.9287436406
 10
279.8267191955
 20
38.824126098
 10
279.0206291654
 20
38.5661343543
 10
278.1969845809
 20
38.1602670557
  0
SPLINE
  5
19F
330
1F
100
AcDbEntity
  8
0
  6
Continuous
 62
     7
370
    15
100
AcDbSpline
210
0.0
220
0.0
230
1.0
 70
    11
 71
     3
 72
    66
 73
    62
 74
     0
 42
0.000000001
 43
0.00000001
 40
0.0
 40
0.0
 40
0.0
 40
0.0
 40
0.03125
 40
0.03125
 40
0.0625
 40
0.0625
 40
0.09375
 40
0.09375
 40
0.125
 40
0.125
 40
0.15625
 40
0.15625
 40
0.1875
 40
0.1875
 40
0.21875
 40
0.21875
 40
0.25
 40
0.25
 40
0.28125
 40
0.28125
 40
0.3125
 40
0.3125
 40
0.34375
 40
0.34375
 40
0.375
 40
0.375
 40
0.40625
 40
0.40625
 40
0.4375
 40
0.4375
 40
0.46875
 40
0.46875
 40
0.5
 40
0.5
 40
0.53125
 40
0.53125
 40
0.5625
 40
0.5625
 40
0.625
 40
0.625
 40
0.65625
 40
0.65625
 40
0.6875
 40
0.6875
 40
0.71875
 40
0.71875
 40
0.75
 40
0.75
 40
0.78125
 40
0.78125
 40
0.8125
 40
0.8125
 40
0.84375
 40
0.84375
 40
0.875
 40
0.875
 40
0.90625
 40
0.90625
 40
0.9375
 40
0.9375
 40
1.0
 40
1.0
 40
1.0
 40
1.0
 10
275.4535720441908
 20
40.68672750459103
 30
0.0
 10
275.5705169020446
 20
40.67038263645121
 30
0.0
 10
275.6844961963024
 20
40.64813636317377
 30
0.0
 10
275.9071435219336
 20
40.59383237726827
 30
0.0
 10
276.0165581225032
 20
40.56149234557726
 30
0.0
 10
276.2265361485316
 20
40.48878253283817
 30
0.0
 10
276.325828034144
 20
40.44894353784438
 30
0.0
 10
276.5135009598208
 20
40.36307779780117
 30
0.0
 10
276.6026390914715
 20
40.31656205784347
 30
0.0
 10
276.7648668083521
 20
40.21987644285991
 30
0.0
 10
276.8380361898225
 20
40.16981966714703
 30
0.0
 10
276.9685935360407
 20
40.06606106043378
 30
0.0
 10
277.0263936567757
 20
40.01179769585304
 30
0.0
 10
277.1216591545887
 20
39.90240899667353
 30
0.0
 10
277.1595374407016
 20
39.84714796951926
 30
0.0
 10
277.2152689179028
 20
39.73453316516662
 30
0.0
 10
277.2330616870464
 20
39.67658717914411
 30
0.0
 10
277.2456268320834
 20
39.56196121883396
 30
0.0
 10
277.2408134856666
 20
39.50491001924028
 30
0.0
 10
277.2075105542621
 20
39.39018801130367
 30
0.0
 10
277.1784456371386
 20
39.3321393940656
 30
0.0
 10
277.0974879351926
 20
39.220408969837
 30
0.0
 10
277.0455662624903
 20
39.16599835041634
 30
0.0
 10
276.9168756746845
 20
39.05963842399261
 30
0.0
 10
276.8413046250205
 20
39.00891699538914
 30
0.0
 10
276.6725654804448
 20
38.91517152734728
 30
0.0
 10
276.5773506592942
 20
38.87114823871046
 30
0.0
 10
276.3754493316821
 20
38.79372153516329
 30
0.0
 10
276.2688855895651
 20
38.7601036211592
 30
0.0
 10
276.044852772342
 20
38.70342813485901
 30
0.0
 10
275.9299495557659
 20
38.6810932234217
 30
0.0
 10
275.6982843929632
 20
38.6490105958157
 30
0.0
 10
275.5798498242531
 20
38.63915846229104
 30
0.0
 10
275.3478477150509
 20
38.63302670581237
 30
0.0
 10
275.2336907648414
 20
38.63654676529269
 30
0.0
 10
275.0088120840341
 20
38.65728890462536
 30
0.0
 10
274.8989943890084
 20
38.67457035878956
 30
0.0
 10
274.5861407104582
 20
38.74582581560043
 30
0.0
 10
274.3933864876658
 20
38.82120362324252
 30
0.0
 10
274.1510072411861
 20
38.96775234810158
 30
0.0
 10
274.0770112601953
 20
39.02250264853251
 30
0.0
 10
273.944901331357
 20
39.14282699112107
 30
0.0
 10
273.8881881793733
 20
39.2070274763805
 30
0.0
 10
273.7931015021871
 20
39.3428028093079
 30
0.0
 10
273.754528669456
 20
39.41490019031009
 30
0.0
 10
273.6983078700895
 20
39.56395546471507
 30
0.0
 10
273.6809847917435
 20
39.63961268736803
 30
0.0
 10
273.6682684287321
 20
39.79224686881326
 30
0.0
 10
273.6730833948846
 20
39.87011235523989
 30
0.0
 10
273.7067530108121
 20
40.021834344036
 30
0.0
 10
273.7351476794935
 20
40.09499135248613
 30
0.0
 10
273.8160623855494
 20
40.2347588632291
 30
0.0
 10
273.8696146786374
 20
40.30210489088634
 30
0.0
 10
273.9975902711913
 20
40.42220616277864
 30
0.0
 10
274.0720467088112
 20
40.47567658695382
 30
0.0
 10
274.2427868848271
 20
40.56870158701183
 30
0.0
 10
274.3373412082315
 20
40.6070744718883
 30
0.0
 10
274.5387809871816
 20
40.66649108180322
 30
0.0
 10
274.6477498676358
 20
40.68799111347726
 30
0.0
 10
274.9818150148989
 20
40.7267354735025
 30
0.0
 10
275.2196823284831
 20
40.71941724087066
 30
0.0
 10
275.4535720441908
 20
40.68672750459103
 30
0.0
  0
LINE
  5
1A0
330
1F
100
AcDbEntity
  8
0
  6
Continuous
 62
     7
370
    15
100
AcDbLine
 10
281.3468139837
 20
31.4991819469
 30
0.0
 11
282.5456912852
 21
32.9905739125
 31
0.0
  0
SPLINE
  5
1A1
330
1F
100
AcDbEntity
  8
0
  6
Continuous
 62
     7
370
    15
100
AcDbSpline
210
0.0
220
0.0
230
1.0
 70
     8
 71
     3
 72
    22
 73
    18
 74
     0
 42
0.000000001
 43
0.00000001
 40
0.0
 40
0.0
 40
0.0
 40
0.0
 40
0.0416666666666668
 40
0.0833333333333334
 40
0.1250000000000031
 40
0.166666666666668
 40
0.2083333333333337
 40
0.2499999999998967
 40
0.2968749999997768
 40
0.34375
 40
0.390625
 40
0.4374999999999996
 40
0.4847037825276517
 40
0.4847037825276517
 40
0.53125
 40
0.6249999999999851
 40
0.8414337678076624
 40
0.8414337678076624
 40
0.8414337678076624
 40
0.8414337678076624
 10
282.5456912852296
 20
32.9905739124827
 30
0.0
 10
282.5911706130428
 20
33.04714976391853
 30
0.0
 10
282.6804410229847
 20
33.16907037251187
 30
0.0
 10
282.8049337325017
 20
33.3759780448535
 30
0.0
 10
282.9145753805573
 20
33.60495041703869
 30
0.0
 10
283.0015809763326
 20
33.84835478617323
 30
0.0
 10
283.0582565829862
 20
34.09532365124753
 30
0.0
 10
283.0795260269639
 20
34.3433699867668
 30
0.0
 10
283.0562924943661
 20
34.57573283979631
 30
0.0
 10
282.9832073706145
 20
34.77386348711183
 30
0.0
 10
282.8683408082247
 20
34.9192013736563
 30
0.0
 10
282.7190372079866
 20
35.00984100434876
 30
0.0
 10
282.6081138283798
 20
35.03564460453068
 30
0.0
 10
282.4976320448472
 20
35.04605408597536
 30
0.0
 10
282.3493983754086
 20
35.05841381999961
 30
0.0
 10
282.06830298035
 20
35.08430857707109
 30
0.0
 10
281.6513048103421
 20
35.12152646036896
 30
0.0
 10
281.3467080363654
 20
35.14866684893707
 30
0.0
  0
SPLINE
  5
1A2
330
1F
100
AcDbEntity
  8
0
  6
Continuous
 62
     7
370
    15
100
AcDbSpline
210
0.0
220
0.0
230
1.0
 70
     8
 71
     3
 72
    22
 73
    18
 74
     0
 42
0.000000001
 43
0.00000001
 40
0.0
 40
0.0
 40
0.0
 40
0.0
 40
0.0416666666666668
 40
0.0833333333333334
 40
0.1250000000000031
 40
0.166666666666668
 40
0.2083333333333337
 40
0.2499999999998967
 40
0.2968749999997768
 40
0.34375
 40
0.390625
 40
0.4374999999999996
 40
0.4847037825276517
 40
0.4847037825276517
 40
0.53125
 40
0.6249999999999851
 40
0.8393173095864815
 40
0.8393173095864815
 40
0.8393173095864815
 40
0.8393173095864815
 10
274.0604099109909
 20
28.09212524154643
 30
0.0
 10
274.0157372541503
 20
28.09611965024057
 30
0.0
 10
273.925285796125
 20
28.11507644109904
 30
0.0
 10
273.801267777148
 20
28.17820544518438
 30
0.0
 10
273.6914989390573
 20
28.28059964096254
 30
0.0
 10
273.6045274128825
 20
28.42354642919502
 30
0.0
 10
273.5478427178619
 20
28.60507988879157
 30
0.0
 10
273.5265756529129
 20
28.82856866137982
 30
0.0
 10
273.549808976656
 20
29.08775712313291
 30
0.0
 10
273.6228922347109
 20
29.37026745838644
 30
0.0
 10
273.7377664767752
 20
29.64823708265228
 30
0.0
 10
273.8870411565535
 20
29.91122298586917
 30
0.0
 10
273.9980369300507
 20
30.06518605055187
 30
0.0
 10
274.108547450784
 20
30.20319083409466
 30
0.0
 10
274.2567600767459
 20
30.38667134687368
 30
0.0
 10
274.5346571948106
 20
30.733128796082
 30
0.0
 10
274.9566006186041
 20
31.25795977449117
 30
0.0
 10
275.2593949427358
 20
31.63453976558032
 30
0.0
  0
LINE
  5
1A3
330
1F
100
AcDbEntity
  8
0
  6
Continuous
 62
     7
370
    15
100
AcDbLine
 10
275.2592872125
 20
27.9849275449
 30
0.0
 11
274.060409911
 21
28.0921252415
 31
0.0
  0
SPLINE
  5
1A4
330
1F
100
AcDbEntity
  8
0
  6
Continuous
 62
     7
370
    15
100
AcDbSpline
210
0.0
220
0.0
230
1.0
 70
     8
 71
     3
 72
    20
 73
    16
 74
     0
 42
0.000000001
 43
0.00000001
 40
0.0
 40
0.0
 40
0.0
 40
0.0
 40
0.25
 40
0.25
 40
0.5
 40
0.5
 40
0.53125
 40
0.53125
 40
0.5625
 40
0.5625
 40
0.625
 40
0.625
 40
0.75
 40
0.75
 40
1.0
 40
1.0
 40
1.0
 40
1.0
 10
249.2939948999322
 20
36.22209035752811
 30
0.0
 10
249.2939948999322
 20
35.85189356050733
 30
0.0
 10
249.3103544417981
 20
35.47228831013179
 30
0.0
 10
249.3415589049232
 20
34.71445181938737
 30
0.0
 10
249.3560171592426
 20
34.33614992172208
 30
0.0
 10
249.3564249972887
 20
33.91910403708229
 30
0.0
 10
249.3562711988887
 20
33.87177684870674
 30
0.0
 10
249.3555659791361
 20
33.7782338864931
 30
0.0
 10
249.355015714684
 20
33.73158024205391
 30
0.0
 10
249.3528108970995
 20
33.59194960399339
 30
0.0
 10
249.3505967749764
 20
33.49930166898724
 30
0.0
 10
249.3422919637282
 20
33.22238232594806
 30
0.0
 10
249.334543065814
 20
33.03915555457191
 30
0.0
 10
249.3108129571689
 20
32.48974097970733
 30
0.0
 10
249.2939948999322
 20
32.12404637627658
 30
0.0
 10
249.2939948999322
 20
31.74854760937825
 30
0.0
  0
SPLINE
  5
1A5
330
1F
100
AcDbEntity
  8
0
  6
Continuous
 62
     7
370
    15
100
AcDbSpline
210
0.0
220
0.0
230
1.0
 70
     8
 71
     3
 72
    14
 73
    10
 74
     0
 42
0.000000001
 43
0.00000001
 40
0.0
 40
0.0
 40
0.0
 40
0.0
 40
0.1563848029013792
 40
0.3173031759700989
 40
0.4736891180930798
 40
0.6346099158881611
 40
0.7910227058872034
 40
0.9519634368912431
 40
1.0
 40
1.0
 40
1.0
 40
1.0
 10
273.9896992328723
 20
28.35601547558386
 30
0.0
 10
273.94849534668
 20
28.36283850064559
 30
0.0
 10
273.8648930802923
 20
28.37668234916313
 30
0.0
 10
273.75819682423
 20
28.4380523244606
 30
0.0
 10
273.667762925296
 20
28.52849704466912
 30
0.0
 10
273.5982844094319
 20
28.64641973065882
 30
0.0
 10
273.5531807702188
 20
28.7906347756206
 30
0.0
 10
273.5324172659244
 20
28.9135736058233
 30
0.0
 10
273.535956494398
 20
28.99175762197451
 30
0.0
 10
273.536770039107
 20
29.00972938987345
 30
0.0
  0
SPLINE
  5
1A6
330
1F
100
AcDbEntity
  8
0
  6
Continuous
 62
     7
370
    15
100
AcDbSpline
210
0.0
220
0.0
230
1.0
 70
     8
 71
     3
 72
    12
 73
     8
 74
     0
 42
0.000000001
 43
0.00000001
 40
0.0
 40
0.0
 40
0.0
 40
0.0
 40
0.0263735206485633
 40
0.1922225098838882
 40
0.4554989655042277
 40
0.7244791763507662
 40
1.0
 40
1.0
 40
1.0
 40
1.0
 10
275.4107321916759
 20
31.84690793104491
 30
0.0
 10
275.4106184079311
 20
31.84615656134519
 30
0.0
 10
275.4097890989701
 20
31.84068022879728
 30
0.0
 10
275.3927388382335
 20
31.81210895705183
 30
0.0
 10
275.3592430821578
 20
31.76321266653233
 30
0.0
 10
275.3115522778158
 20
31.70002989832338
 30
0.0
 10
275.2769193925756
 20
31.65654392941451
 30
0.0
 10
275.2593949427358
 20
31.63453976558027
 30
0.0
  0
SPLINE
  5
1A7
330
1F
100
AcDbEntity
  8
0
  6
Continuous
 62
     7
370
    15
100
AcDbSpline
210
0.0
220
0.0
230
1.0
 70
     8
 71
     3
 72
    16
 73
    12
 74
     0
 42
0.000000001
 43
0.00000001
 40
0.0
 40
0.0
 40
0.0
 40
0.0
 40
0.2499999999999991
 40
0.2499999999999991
 40
0.4999999999999982
 40
0.4999999999999982
 40
0.6249999999999978
 40
0.6249999999999978
 40
0.7499999999999973
 40
0.7499999999999973
 40
1.0
 40
1.0
 40
1.0
 40
1.0
 10
281.3467080363665
 20
35.14866684893697
 30
0.0
 10
281.3207127367606
 20
35.15098309977258
 30
0.0
 10
281.2927252163574
 20
35.15221474855245
 30
0.0
 10
281.2300734530219
 20
35.15104547507499
 30
0.0
 10
281.1950389179964
 20
35.1487329108074
 30
0.0
 10
281.1362481587535
 20
35.13906554454748
 30
0.0
 10
281.1152501539125
 20
35.13466361734285
 30
0.0
 10
281.0737414570436
 20
35.12305342104572
 30
0.0
 10
281.0539391155387
 20
35.1159757030357
 30
0.0
 10
281.0030289035806
 20
35.09344383327818
 30
0.0
 10
280.9808674656041
 20
35.07764851721021
 30
0.0
 10
280.9646732792417
 20
35.0630850847614
 30
0.0
  0
SPLINE
  5
1A8
330
1F
100
AcDbEntity
  8
0
  6
Continuous
 62
     7
370
    15
100
AcDbSpline
210
0.0
220
0.0
230
1.0
 70
     8
 71
     3
 72
    10
 73
     6
 74
     0
 42
0.000000001
 43
0.00000001
 40
0.0
 40
0.0
 40
0.0
 40
0.0
 40
0.5
 40
0.5
 40
1.0
 40
1.0
 40
1.0
 40
1.0
 10
280.9646732792501
 20
35.0630850847577
 30
0.0
 10
280.9384805216216
 20
35.0725329806295
 30
0.0
 10
280.9123483329796
 20
35.08270705610119
 30
0.0
 10
280.8617388440761
 20
35.1047697720448
 30
0.0
 10
280.8379747577945
 20
35.1164093563622
 30
0.0
 10
280.8179875875573
 20
35.12794770413949
 30
0.0
  0
LINE
  5
1A9
330
1F
100
AcDbEntity
  8
0
  6
Continuous
 62
     7
370
    15
100
AcDbLine
 10
279.7095386655
 20
35.7678416463
 30
0.0
 11
280.8179875876
 21
35.1279477041
 31
0.0
  0
ARC
  5
1AA
330
1F
100
AcDbEntity
  8
0
  6
Continuous
 62
     7
370
    15
100
AcDbCircle
 10
272.7069426356
 20
35.2793518514
 30
0.0
 40
5.628491003013058
100
AcDbArc
 50
337.8175965284
 51
1.3837317512
  0
LINE
  5
1AB
330
1F
100
AcDbEntity
  8
0
  6
Continuous
 62
     7
370
    15
100
AcDbLine
 10
277.9188497847
 20
33.1542789491
 30
0.0
 11
280.8179875876
 21
31.4806423198
 31
0.0
  0
LINE
  5
1AC
330
1F
100
AcDbEntity
  8
0
  6
Continuous
 62
     7
370
    15
100
AcDbLine
 10
273.6110298056
 20
29.2622759279
 30
0.0
 11
275.2931388618
 21
28.2912150394
 31
0.0
  0
LINE
  5
1AD
330
1F
100
AcDbEntity
  8
0
  6
Continuous
 62
     7
370
    15
100
AcDbLine
 10
245.1963615063
 20
36.866080293
 30
0.0
 11
243.4717309396
 21
37.8616883271
 31
0.0
  0
SPLINE
  5
1AE
330
1F
100
AcDbEntity
  8
0
  6
Continuous
 62
     7
370
    15
100
AcDbSpline
210
0.0
220
0.0
230
1.0
 70
     8
 71
     3
 72
     8
 73
     4
 74
     0
 42
0.000000001
 43
0.00000001
 40
0.0
 40
0.0
 40
0.0
 40
0.0
 40
0.0011891741919631
 40
0.0011891741919631
 40
0.0011891741919631
 40
0.0011891741919631
 10
243.4717309396126
 20
37.86168832705356
 30
0.0
 10
243.4603327953659
 20
37.92357328390788
 30
0.0
 10
243.4493689998067
 20
37.98514460044749
 30
0.0
 10
243.4388165169142
 20
38.04641776264061
 30
0.0
  0
LINE
  5
1AF
330
1F
100
AcDbEntity
  8
0
  6
Continuous
 62
     7
370
    15
100
AcDbLine
 10
275.3585852045
 20
28.233616442
 30
0.0
 11
273.9896992329
 21
28.3560154756
 31
0.0
  0
SPLINE
  5
1B0
330
1F
100
AcDbEntity
  8
0
  6
Continuous
 62
     7
370
    15
100
AcDbSpline
210
0.0
220
0.0
230
1.0
 70
     8
 71
     3
 72
    16
 73
    12
 74
     0
 42
0.000000001
 43
0.00000001
 40
0.0
 40
0.0
 40
0.0
 40
0.0
 40
0.2500000000000003
 40
0.2500000000000003
 40
0.5000000000000006
 40
0.5000000000000006
 40
0.6250000000000008
 40
0.6250000000000008
 40
0.7500000000000011
 40
0.7500000000000011
 40
1.0
 40
1.0
 40
1.0
 40
1.0
 10
275.2592872125037
 20
27.98492754490061
 30
0.0
 10
275.2848446978664
 20
27.98264232058325
 30
0.0
 10
275.3098442350524
 20
27.98299690251394
 30
0.0
 10
275.3572426536303
 20
27.99345121519902
 30
0.0
 10
275.3794946687093
 20
28.00322506994007
 30
0.0
 10
275.4030941125572
 20
28.03353746522885
 30
0.0
 10
275.4091667642097
 20
28.04654287986449
 30
0.0
 10
275.4143336143998
 20
28.07893017258513
 30
0.0
 10
275.4131793259529
 20
28.09814000833384
 30
0.0
 10
275.3999597303138
 20
28.15754993867169
 30
0.0
 10
275.3802495450025
 20
28.19721298070083
 30
0.0
 10
275.3585852044782
 20
28.23361644197022
 30
0.0
  0
SPLINE
  5
1B1
330
1F
100
AcDbEntity
  8
0
  6
Continuous
 62
     7
370
    15
100
AcDbSpline
210
0.0
220
0.0
230
1.0
 70
     8
 71
     3
 72
     8
 73
     4
 74
     0
 42
0.000000001
 43
0.00000001
 40
0.0
 40
0.0
 40
0.0
 40
0.0
 40
1.0
 40
1.0
 40
1.0
 40
1.0
 10
275.2931388618323
 20
28.29121503935522
 30
0.0
 10
275.3331731615414
 20
28.26810373007122
 30
0.0
 10
275.3527366022325
 20
28.24828844570004
 30
0.0
 10
275.3585852044779
 20
28.23361644197146
 30
0.0
  0
SPLINE
  5
1B2
330
1F
100
AcDbEntity
  8
0
  6
Continuous
 62
     7
370
    15
100
AcDbSpline
210
0.0
220
0.0
230
1.0
 70
     8
 71
     3
 72
    12
 73
     8
 74
     0
 42
0.000000001
 43
0.00000001
 40
0.0
 40
0.0
 40
0.0
 40
0.0
 40
0.0316027464897147
 40
0.42224646983488
 40
0.8128309791953661
 40
0.9907948645948642
 40
1.0
 40
1.0
 40
1.0
 40
1.0
 10
243.681334824264
 20
34.98866730317462
 30
0.0
 10
243.6812653069582
 20
35.01771205782337
 30
0.0
 10
243.6803364814541
 20
35.40578102270425
 30
0.0
 10
243.6448819820478
 20
36.17143578092639
 30
0.0
 10
243.6144423109845
 20
37.06880261941119
 30
0.0
 10
243.6203248930069
 20
37.59583468276593
 30
0.0
 10
243.6264760857337
 20
37.76391488341891
 30
0.0
 10
243.6267786067476
 20
37.77218121402897
 30
0.0
  0
LWPOLYLINE
  5
1B3
330
1F
100
AcDbEntity
  8
0
  6
Continuous
 62
     7
370
    15
100
AcDbPolyline
 90
        3
 70
   128
 43
0.0
 10
242.6206746525
 20
37.9091804709
 10
242.6801329357
 20
39.3411161134
 10
242.682479821
 20
39.3697187742
  0
ARC
  5
1B4
330
1F
100
AcDbEntity
  8
0
  6
Continuous
 62
     7
370
    15
100
AcDbCircle
 10
254.2114611179
 20
37.5938303484
 30
0.0
 40
11.59507553178312
100
AcDbArc
 50
178.4415401862
 51
204.7483758801
  0
SPLINE
  5
1B5
330
1F
100
AcDbEntity
  8
0
  6
Continuous
 62
     7
370
    15
100
AcDbSpline
210
0.0
220
0.0
230
1.0
 70
     8
 71
     3
 72
     8
 73
     4
 74
     0
 42
0.000000001
 43
0.00000001
 40
0.0
 40
0.0
 40
0.0
 40
0.0
 40
1.0
 40
1.0
 40
1.0
 40
1.0
 10
280.8179875875576
 20
31.48064231984794
 30
0.0
 10
280.8580218872675
 20
31.45753101056352
 30
0.0
 10
280.9125188319183
 20
31.45788240876812
 30
0.0
 10
280.9646732792645
 20
31.46994220041406
 30
0.0
  0
SPLINE
  5
1B6
330
1F
100
AcDbEntity
  8
0
  6
Continuous
 62
     7
370
    15
100
AcDbSpline
210
0.0
220
0.0
230
1.0
 70
     8
 71
     3
 72
    16
 73
    12
 74
     0
 42
0.000000001
 43
0.00000001
 40
0.0
 40
0.0
 40
0.0
 40
0.0
 40
0.2500000000000123
 40
0.2500000000000123
 40
0.3750000000000033
 40
0.3750000000000033
 40
0.4999999999999943
 40
0.4999999999999943
 40
0.7499999999999971
 40
0.7499999999999971
 40
1.0
 40
1.0
 40
1.0
 40
1.0
 10
280.9646732792678
 20
31.4699422004126
 30
0.0
 10
280.9807413458981
 20
31.43065898383256
 30
0.0
 10
281.0029969130893
 20
31.39176814783711
 30
0.0
 10
281.0535133256043
 20
31.3542251569028
 30
0.0
 10
281.0731265350115
 20
31.34584277072054
 30
0.0
 10
281.1144530329859
 20
31.34018281405678
 30
0.0
 10
281.1354469029902
 20
31.34278330167933
 30
0.0
 10
281.1945234179823
 20
31.36019824110677
 30
0.0
 10
281.229684834157
 20
31.38356431099581
 30
0.0
 10
281.2925756514436
 20
31.43645626308751
 30
0.0
 10
281.3210316432765
 20
31.46710896050828
 30
0.0
 10
281.3468139837196
 20
31.49918194691171
 30
0.0
  0
LINE
  5
1B7
330
1F
100
AcDbEntity
  8
0
  6
Continuous
 62
     7
370
    15
100
AcDbLine
 10
214.0657282942
 20
56.9594678315
 30
0.0
 11
213.9684453093
 21
57.044725137
 31
0.0
  0
LINE
  5
1B8
330
1F
100
AcDbEntity
  8
0
  6
Continuous
 62
     7
370
    15
100
AcDbLine
 10
239.9372548212
 20
39.9020979589
 30
0.0
 11
239.5004237082
 21
40.2907533805
 31
0.0
  0
LINE
  5
1B9
330
1F
100
AcDbEntity
  8
0
  6
Continuous
 62
     7
370
    15
100
AcDbLine
 10
241.2994931625
 20
39.1156945035
 30
0.0
 11
239.9372548212
 21
39.9020979589
 31
0.0
  0
LINE
  5
1BA
330
1F
100
AcDbEntity
  8
0
  6
Continuous
 62
     7
370
    15
100
AcDbLine
 10
243.6813348243
 20
32.0327987911
 30
0.0
 11
243.6813348243
 21
34.9886673032
 31
0.0
  0
SPLINE
  5
1BB
330
1F
100
AcDbEntity
  8
0
  6
Continuous
 62
     7
370
    15
100
AcDbSpline
210
0.0
220
0.0
230
1.0
 70
     8
 71
     3
 72
    22
 73
    18
 74
     0
 42
0.000000001
 43
0.00000001
 40
0.0
 40
0.0
 40
0.0
 40
0.0
 40
0.125
 40
0.125
 40
0.25
 40
0.25
 40
0.375
 40
0.375
 40
0.5
 40
0.5
 40
0.625
 40
0.625
 40
0.75
 40
0.75
 40
0.875
 40
0.875
 40
1.0
 40
1.0
 40
1.0
 40
1.0
 10
282.3335592508736
 20
33.17282333533783
 30
0.0
 10
282.4009886088018
 20
33.25670481556158
 30
0.0
 10
282.4619213630266
 20
33.34589748433372
 30
0.0
 10
282.569718632592
 20
33.53542371247258
 30
0.0
 10
282.6163266623246
 20
33.63537200620495
 30
0.0
 10
282.6901995665677
 20
33.83487688709909
 30
0.0
 10
282.7183842792733
 20
33.9372492746907
 30
0.0
 10
282.7545066298457
 20
34.13379785966439
 30
0.0
 10
282.7629566190631
 20
34.22963864866928
 30
0.0
 10
282.7606841104284
 20
34.40979027929311
 30
0.0
 10
282.7502309578729
 20
34.49215463617704
 30
0.0
 10
282.7112763730469
 20
34.6411679147082
 30
0.0
 10
282.6829382130534
 20
34.70611729134435
 30
0.0
 10
282.6102610375657
 20
34.81320734836411
 30
0.0
 10
282.5650494346235
 20
34.85612861193098
 30
0.0
 10
282.460976787212
 20
34.9163503087311
 30
0.0
 10
282.4009956667174
 20
34.93465622190752
 30
0.0
 10
282.3335592467395
 20
34.94068605352405
 30
0.0
  0
LINE
  5
1BC
330
1F
100
AcDbEntity
  8
0
  6
Continuous
 62
     7
370
    15
100
AcDbLine
 10
282.3335592467
 20
34.9406860535
 30
0.0
 11
280.9646732793
 21
35.0630850848
 31
0.0
  0
ARC
  5
1BD
330
1F
100
AcDbEntity
  8
0
  6
Continuous
 62
     7
370
    15
100
AcDbCircle
 10
277.7164559107
 20
36.2099161023
 30
0.0
 40
2.072199650653144
100
AcDbArc
 50
321.0658596266
 51
347.226892773
  0
LINE
  5
1BE
330
1F
100
AcDbEntity
  8
0
  6
Continuous
 62
     7
370
    15
100
AcDbLine
 10
280.9646732793
 20
31.4699422004
 30
0.0
 11
282.3335592509
 21
33.1728233353
 31
0.0
  0
LINE
  5
1BF
330
1F
100
AcDbEntity
  8
0
  6
Continuous
 62
     7
370
    15
100
AcDbLine
 10
277.9188497847
 20
33.1542789491
 30
0.0
 11
279.3283554308
 21
34.907690573
 31
0.0
  0
LINE
  5
1C0
330
1F
100
AcDbEntity
  8
0
  6
Continuous
 62
     7
370
    15
100
AcDbLine
 10
243.4717309396
 20
27.3691388943
 30
0.0
 11
245.1963615063
 21
26.3735308603
 31
0.0
  0
SPLINE
  5
1C1
330
1F
100
AcDbEntity
  8
0
  6
Continuous
 62
     7
370
    15
100
AcDbSpline
210
0.0
220
0.0
230
1.0
 70
     8
 71
     3
 72
    14
 73
    10
 74
     0
 42
0.000000001
 43
0.00000001
 40
0.0
 40
0.0
 40
0.0
 40
0.0
 40
0.25
 40
0.25
 40
0.5
 40
0.5
 40
0.75
 40
0.75
 40
1.0
 40
1.0
 40
1.0
 40
1.0
 10
245.1501869822634
 20
26.25401215473643
 30
0.0
 10
245.1334317156855
 20
26.21064261676069
 30
0.0
 10
245.113057624905
 20
26.17041525768806
 30
0.0
 10
245.0646070961474
 20
26.09664838938305
 30
0.0
 10
245.0363129388894
 20
26.06308022219574
 30
0.0
 10
244.9732519856759
 20
26.00952914348645
 30
0.0
 10
244.9380265692
 20
25.98907125109376
 30
0.0
 10
244.8632492896967
 20
25.97163441826387
 30
0.0
 10
244.8246922691776
 20
25.975579431914
 30
0.0
 10
244.7907457207708
 20
25.99517635717698
 30
0.0
  0
LINE
  5
1C2
330
1F
100
AcDbEntity
  8
0
  6
Continuous
 62
     7
370
    15
100
AcDbLine
 10
244.7907457208
 20
25.9951763572
 30
0.0
 11
243.4388165169
 21
26.7756284742
 31
0.0
  0
SPLINE
  5
1C3
330
1F
100
AcDbEntity
  8
0
  6
Continuous
 62
     7
370
    15
100
AcDbSpline
210
0.0
220
0.0
230
1.0
 70
     8
 71
     3
 72
     8
 73
     4
 74
     0
 42
0.000000001
 43
0.00000001
 40
0.0
 40
0.0
 40
0.0
 40
0.0
 40
0.0011891741919631
 40
0.0011891741919631
 40
0.0011891741919631
 40
0.0011891741919631
 10
243.4388165169142
 20
26.77562847417296
 30
0.0
 10
243.4493689998067
 20
26.97348009297295
 30
0.0
 10
243.4603327953659
 20
27.17131863751342
 30
0.0
 10
243.4717309396126
 20
27.36913889432168
 30
0.0
  0
LWPOLYLINE
  5
1C4
330
1F
100
AcDbEntity
  8
0
  6
Continuous
 62
     7
370
    15
100
AcDbPolyline
 90
       14
 70
   128
 43
0.0
 10
256.550285003
 20
19.1544752938
 10
256.5313024068
 20
19.150023061
 10
255.1638589163
 20
18.9026423753
 10
253.8401051815
 20
18.809709123
 10
252.5691810512
 20
18.8718649612
 10
251.3598616126
 20
19.0886807353
 10
250.2204966037
 20
19.4586594422
 10
249.1589527626
 20
19.9792465665
 10
248.1825595118
 20
20.6468477177
 10
247.2980583519
 20
21.4568534482
 10
246.5115563154
 20
22.4036710788
 10
245.8284838002
 20
23.4807633134
 10
245.2535570761
 20
24.6806933759
 10
244.890263308
 20
25.6732877319
  0
SPLINE
  5
1C5
330
1F
100
AcDbEntity
  8
0
  6
Continuous
 62
     7
370
    15
100
AcDbSpline
210
0.0
220
0.0
230
1.0
 70
     8
 71
     3
 72
     8
 73
     4
 74
     0
 42
0.000000001
 43
0.00000001
 40
0.0
 40
0.0
 40
0.0
 40
0.0
 40
1.0
 40
1.0
 40
1.0
 40
1.0
 10
243.8001548635237
 20
28.03307041960963
 30
0.0
 10
243.6903998719429
 20
27.81180529377367
 30
0.0
 10
243.5809370976799
 20
27.59049286432936
 30
0.0
 10
243.4717309396126
 20
27.36913889432168
 30
0.0
  0
LINE
  5
1C6
330
1F
100
AcDbEntity
  8
0
  6
Continuous
 62
     7
370
    15
100
AcDbLine
 10
243.8418157176
 20
28.0571207187
 30
0.0
 11
243.8001548635
 21
28.0330704196
 31
0.0
  0
SPLINE
  5
1C7
330
1F
100
AcDbEntity
  8
0
  6
Continuous
 62
     7
370
    15
100
AcDbSpline
210
0.0
220
0.0
230
1.0
 70
     8
 71
     3
 72
    12
 73
     8
 74
     0
 42
0.000000001
 43
0.00000001
 40
0.0
 40
0.0
 40
0.0
 40
0.0
 40
0.25
 40
0.25
 40
0.5
 40
0.5
 40
1.0
 40
1.0
 40
1.0
 40
1.0
 10
243.8535979629771
 20
28.39048570894892
 30
0.0
 10
243.8912057597923
 20
28.3687751899689
 30
0.0
 10
243.9214432071977
 20
28.34188446759286
 30
0.0
 10
243.9599243239736
 20
28.28440528794005
 30
0.0
 10
243.9688219271491
 20
28.25327840625381
 30
0.0
 10
243.9637793289627
 20
28.16117496352416
 30
0.0
 10
243.9171910785397
 20
28.10063398840735
 30
0.0
 10
243.8418157175569
 20
28.05712071871799
 30
0.0
  0
LINE
  5
1C8
330
1F
100
AcDbEntity
  8
0
  6
Continuous
 62
     7
370
    15
100
AcDbLine
 10
243.0687094359
 20
28.843592211
 30
0.0
 11
243.853597963
 21
28.3904857089
 31
0.0
  0
SPLINE
  5
1C9
330
1F
100
AcDbEntity
  8
0
  6
Continuous
 62
     7
370
    15
100
AcDbSpline
210
0.0
220
0.0
230
1.0
 70
     8
 71
     3
 72
    12
 73
     8
 74
     0
 42
0.000000001
 43
0.00000001
 40
0.0
 40
0.0
 40
0.0
 40
0.0
 40
0.5000000000000073
 40
0.5000000000000073
 40
0.7500000000000037
 40
0.7500000000000037
 40
1.0
 40
1.0
 40
1.0
 40
1.0
 10
242.4912417654906
 20
28.83679046550868
 30
0.0
 10
242.5664471332045
 20
28.88020560017276
 30
0.0
 10
242.6706919322149
 20
28.90724990301568
 30
0.0
 10
242.8320839383104
 20
28.91009561379025
 30
0.0
 10
242.8855033740767
 20
28.9049114923112
 30
0.0
 10
242.9853273670929
 20
28.88251636809422
 30
0.0
 10
243.031060043682
 20
28.86532674248242
 30
0.0
 10
243.06870943586
 20
28.84359221101053
 30
0.0
  0
LINE
  5
1CA
330
1F
100
AcDbEntity
  8
0
  6
Continuous
 62
     7
370
    15
100
AcDbLine
 10
242.4495809115
 20
28.8127401664
 30
0.0
 11
242.4912417655
 21
28.8367904655
 31
0.0
  0
SPLINE
  5
1CB
330
1F
100
AcDbEntity
  8
0
  6
Continuous
 62
     7
370
    15
100
AcDbSpline
210
0.0
220
0.0
230
1.0
 70
     8
 71
     3
 72
     8
 73
     4
 74
     0
 42
0.000000001
 43
0.00000001
 40
0.0
 40
0.0
 40
0.0
 40
0.0
 40
1.0
 40
1.0
 40
1.0
 40
1.0
 10
241.2994931625092
 20
28.62314507077151
 30
0.0
 10
241.6829310313112
 20
28.68618844390787
 30
0.0
 10
242.0662969419501
 20
28.74937995842067
 30
0.0
 10
242.4495809114574
 20
28.81274016640032
 30
0.0
  0
LINE
  5
1CC
330
1F
100
AcDbEntity
  8
0
  6
Continuous
 62
     7
370
    15
100
AcDbLine
 10
239.9372548212
 20
29.4095485261
 30
0.0
 11
241.2994931625
 21
28.6231450708
 31
0.0
  0
LINE
  5
1CD
330
1F
100
AcDbEntity
  8
0
  6
Continuous
 62
     7
370
    15
100
AcDbLine
 10
239.9372548212
 20
29.4095485261
 30
0.0
 11
243.7520455024
 21
31.6117803106
 31
0.0
  0
ARC
  5
1CE
330
1F
100
AcDbEntity
  8
0
  6
Continuous
 62
     7
370
    15
100
AcDbCircle
 10
253.1481316885
 20
29.2338211379
 30
0.0
 40
10.01566334660179
100
AcDbArc
 50
194.207532472
 51
237.9790441783
  0
ARC
  5
1CF
330
1F
100
AcDbEntity
  8
0
  6
Continuous
 62
     7
370
    15
100
AcDbCircle
 10
253.4156418177
 20
31.8949902744
 30
0.0
 40
11.39099458029919
100
AcDbArc
 50
195.6991739239
 51
211.7569450809
  0
ARC
  5
1D0
330
1F
100
AcDbEntity
  8
0
  6
Continuous
 62
     7
370
    15
100
AcDbCircle
 10
250.1688485579
 20
30.3659497489
 30
0.0
 40
9.470889359196988
100
AcDbArc
 50
193.1269352432
 51
248.2162297357
  0
SPLINE
  5
1D1
330
1F
100
AcDbEntity
  8
0
  6
Continuous
 62
     7
370
    15
100
AcDbSpline
210
0.0
220
0.0
230
1.0
 70
     8
 71
     3
 72
     8
 73
     4
 74
     0
 42
0.000000001
 43
0.00000001
 40
0.0
 40
0.0
 40
0.0
 40
0.0
 40
0.0011891741919631
 40
0.0011891741919631
 40
0.0011891741919631
 40
0.0011891741919631
 10
241.2994931625092
 20
28.62314507077151
 30
0.0
 10
241.1817569825177
 20
28.48671245532604
 30
0.0
 10
241.0637333132553
 20
28.35067826033184
 30
0.0
 10
240.9454400829062
 20
28.21502405112947
 30
0.0
  0
ELLIPSE
  5
1D2
330
1F
100
AcDbEntity
  8
0
  6
Continuous
 62
     7
370
    15
100
AcDbEllipse
 10
243.6348882149
 20
32.0060300978
 30
0.0
 11
-3.002985192779306E-5
 21
0.4267244807413632
 31
0.0
210
0.0
220
0.0
230
1.0
 40
0.7174342186
 41
3.534193645557431
 42
5.104989972352342
  0
LINE
  5
1D3
330
1F
100
AcDbEntity
  8
0
  6
Continuous
 62
     7
370
    15
100
AcDbLine
 10
239.5004237082
 20
29.1573192157
 30
0.0
 11
239.9372548212
 21
29.4095485261
 31
0.0
  0
LINE
  5
1D4
330
1F
100
AcDbEntity
  8
0
  6
Continuous
 62
     7
370
    15
100
AcDbLine
 10
240.9454400829
 20
28.2150240511
 30
0.0
 11
239.6023497138
 21
28.9903736174
 31
0.0
  0
SPLINE
  5
1D5
330
1F
100
AcDbEntity
  8
0
  6
Continuous
 62
     7
370
    15
100
AcDbSpline
210
0.0
220
0.0
230
1.0
 70
     8
 71
     3
 72
    10
 73
     6
 74
     0
 42
0.000000001
 43
0.00000001
 40
0.0
 40
0.0
 40
0.0
 40
0.0
 40
0.5
 40
0.5
 40
1.0
 40
1.0
 40
1.0
 40
1.0
 10
239.6023497138145
 20
28.99037361742655
 30
0.0
 10
239.5758899703903
 20
29.00564850217028
 30
0.0
 10
239.5535893113497
 20
29.02956971587874
 30
0.0
 10
239.5195179290037
 20
29.08764019419895
 30
0.0
 10
239.5076671205662
 20
29.12162126155878
 30
0.0
 10
239.5004237081712
 20
29.15731921566521
 30
0.0
  0
ARC
  5
1D6
330
1F
100
AcDbEntity
  8
0
  6
Continuous
 62
     7
370
    15
100
AcDbCircle
 10
249.251247628
 20
31.3837476174
 30
0.0
 40
9.928685871424738
100
AcDbArc
 50
195.7441005934
 51
238.0763172061
  0
ELLIPSE
  5
1D7
330
1F
100
AcDbEntity
  8
0
  6
Continuous
 62
     7
370
    15
100
AcDbEllipse
 10
243.3984921118
 20
31.8695171687
 30
0.0
 11
0.1300037894604884
 21
0.4852718104954725
 31
0.0
210
0.0
220
0.0
230
1.0
 40
0.5176380889
 41
3.619174351347829
 42
5.189970678142625
  0
LINE
  5
1D8
330
1F
100
AcDbEntity
  8
0
  6
Continuous
 62
     7
370
     0
100
AcDbLine
 10
245.1501869823
 20
36.9322870279
 30
0.0
 11
245.2482176047
 21
37.3787365015
 31
0.0
  0
LWPOLYLINE
  5
1D9
330
1F
100
AcDbEntity
  8
0
  6
Continuous
 62
     7
370
     0
100
AcDbPolyline
 90
       17
 70
   128
 43
0.0
 10
261.120679319
 20
60.6483406599
 10
262.410404742
 20
61.3875222858
 10
263.8439771615
 20
62.0774052407
 10
265.2625563892
 20
62.6206801439
 10
266.6562048251
 20
63.0135411814
 10
268.0151595175
 20
63.2532362365
 10
269.3299005552
 20
63.3380861687
 10
270.5912177579
 20
63.2674965772
 10
271.7902751963
 20
63.0419619646
 10
272.9186730905
 20
62.6630622728
 10
273.9685066533
 20
62.1334518151
 10
274.9324214658
 20
61.4568406815
 10
275.8036649972
 20
60.637968749
 10
276.5761339088
 20
59.6825724766
 10
277.2444168092
 20
58.59734472
 10
277.8038321638
 20
57.3898878457
 10
278.2504610894
 20
56.0686604743
  0
LWPOLYLINE
  5
1DA
330
1F
100
AcDbEntity
  8
0
  6
Continuous
 62
     7
370
     0
100
AcDbPolyline
 90
       20
 70
   128
 43
0.0
 10
244.7907457208
 20
37.2659656456
 10
245.2535570761
 20
39.1147992438
 10
245.8284838002
 20
40.9785255726
 10
246.5115563154
 20
42.8442765462
 10
247.2980583519
 20
44.6991700992
 10
248.1825595118
 20
46.5303991316
 10
249.1589527626
 20
48.3253199345
 10
250.2204966037
 20
50.0715394894
 10
251.3598616126
 20
51.7570010348
 10
252.5691810512
 20
53.3700673127
 10
253.8401051815
 20
54.8996009177
 10
255.1638589163
 20
56.3350411953
 10
256.5313024068
 20
57.6664771576
 10
257.9329941483
 20
58.8847159138
 10
259.3592561697
 20
59.9813461425
 10
260.8002408543
 20
60.9487961676
 10
262.2459989328
 20
61.7803862369
 10
263.6865481784
 20
62.4703746422
 10
265.1119423282
 20
63.0139973632
 10
266.4340721653
 20
63.3893258246
  0
LWPOLYLINE
  5
1DB
330
1F
100
AcDbEntity
  8
0
  6
Continuous
 62
     7
370
     0
100
AcDbPolyline
 90
       26
 70
   128
 43
0.0
 10
249.2939948999
 20
36.2220903575
 10
249.5428293902
 20
37.7560951604
 10
249.908188529
 20
39.3226133759
 10
250.386571475
 20
40.9066347549
 10
250.9733944019
 20
42.492981334
 10
251.6630344204
 20
44.06645287
 10
252.4488834563
 20
45.6119724875
 10
253.3234115683
 20
47.1147311438
 10
254.2782390998
 20
48.5603295285
 10
255.3042169714
 20
49.9349160361
 10
256.391514347
 20
51.2253194911
 10
257.5297128321
 20
52.4191753533
 10
258.7079063021
 20
53.5050441933
 10
259.9148054033
 20
54.4725213049
 10
261.1388457275
 20
55.3123364014
 10
262.3682986202
 20
56.0164424433
 10
263.5913835645
 20
56.5780927441
 10
264.7963810606
 20
56.9919056166
 10
265.9717449209
 20
57.2539159397
 10
267.1062129051
 20
57.3616131519
 10
268.1889146338
 20
57.3139653074
 10
269.2094757476
 20
57.1114289638
 10
270.1581173135
 20
56.7559448079
 10
271.0257495254
 20
56.2509190597
 10
271.8040588026
 20
55.6011908347
 10
272.0597759939
 20
55.3342876363
  0
LWPOLYLINE
  5
1DC
330
1F
100
AcDbEntity
  8
0
  6
Continuous
 62
     7
370
     0
100
AcDbPolyline
 90
       10
 70
   128
 43
0.0
 10
254.5986951253
 20
25.0875311176
 10
254.2782390998
 20
25.1649942997
 10
253.3234115683
 20
25.5081722822
 10
252.4488834563
 20
26.0012222726
 10
251.6630344204
 20
26.6394199061
 10
250.9733944019
 20
27.4166500252
 10
250.386571475
 20
28.3254652746
 10
249.908188529
 20
29.3571574608
 10
249.5428293902
 20
30.5018409937
 10
249.2939948999
 20
31.7485476094
  0
LWPOLYLINE
  5
1DD
330
1F
100
AcDbEntity
  8
0
  6
Continuous
 62
     7
370
     0
100
AcDbPolyline
 90
       18
 70
   128
 43
0.0
 10
263.1440484691
 20
22.203554525
 10
262.410404742
 20
21.7270001381
 10
260.9718817629
 20
20.8977750157
 10
259.5384855364
 20
20.2104182868
 10
258.1202574604
 20
19.6697451044
 10
256.7271326749
 20
19.2795430567
 10
255.3688704634
 20
19.0425456336
 10
254.0549858859
 20
18.9604130775
 10
252.794683123
 20
19.0337207532
 10
251.5967909976
 20
19.2619551171
 10
250.4697011261
 20
19.6435173146
 10
249.4213091326
 20
20.1757343808
 10
248.4589593374
 20
20.8548779654
 10
247.5893933078
 20
21.6761904511
 10
246.8187026312
 20
22.6339182817
 10
246.1522862416
 20
23.7213522685
 10
245.5948125984
 20
24.9308745894
 10
245.1501869823
 20
26.2540121547
  0
LWPOLYLINE
  5
1DE
330
1F
100
AcDbEntity
  8
0
  6
Continuous
 62
     7
370
     0
100
AcDbPolyline
 90
       23
 70
   128
 43
0.0
 10
254.6414899327
 20
30.9697115204
 10
254.7009482158
 20
32.4016471629
 10
254.8787504497
 20
33.8884415548
 10
255.1731843014
 20
35.4157760536
 10
255.581414212
 20
36.9689415929
 10
256.0995087045
 20
38.5329803397
 10
256.7224782455
 20
40.0928297458
 10
257.4443232979
 20
41.6334676087
 10
258.2580920991
 20
43.1400567437
 10
259.1559476109
 20
44.5980878736
 10
260.1292429937
 20
45.9935193618
 10
261.168604881
 20
47.3129124402
 10
262.2640236497
 20
48.5435606322
 10
263.4049498182
 20
49.6736121229
 10
264.5803956438
 20
50.6921838987
 10
265.7790409406
 20
51.5894665567
 10
266.9893420991
 20
52.3568187743
 10
268.1996432577
 20
52.9868505302
 10
269.3982885545
 20
53.4734942742
 10
270.5737343801
 20
53.812063361
 10
271.7146605485
 20
53.9992971852
 10
272.8100793172
 20
54.0333925828
 10
273.2526238852
 20
54.0020602236
  0
ARC
  5
1DF
330
1F
100
AcDbEntity
  8
0
  6
Continuous
 62
     7
370
     0
100
AcDbCircle
 10
265.1203826356
 20
30.4769757459
 30
0.0
 40
10.4904709534032
100
AcDbArc
 50
177.3078357139
 51
213.4050991109
  0
LWPOLYLINE
  5
1E0
330
1F
100
AcDbEntity
  8
0
  6
Continuous
 62
     7
370
     0
100
AcDbPolyline
 90
       20
 70
   128
 43
0.0
 10
255.3485967138
 20
30.9697115204
 10
255.4081990788
 20
29.6250474536
 10
255.5864138186
 20
28.3625626883
 10
255.881469755
 20
27.1948043651
 10
256.2904344897
 20
26.133378191
 10
256.8092435473
 20
25.1888330962
 10
257.4327407704
 20
24.370556394
 10
258.1547295633
 20
23.6866804862
 10
258.9680344773
 20
23.1440020385
 10
259.8645725225
 20
22.7479144334
 10
260.8354335012
 20
22.5023541673
 10
261.8709685607
 20
22.4097617285
 10
262.9608860884
 20
22.4710573422
 10
264.0943539942
 20
22.6856318252
 10
265.2601073649
 20
23.0513526397
 10
266.4465604197
 20
23.5645850881
 10
267.6419216551
 20
24.2202284356
 10
268.8343110342
 20
25.0117666042
 10
270.0118780555
 20
25.9313329318
 10
270.8225716019
 20
26.6477444684
  0
LWPOLYLINE
  5
1E1
330
1F
100
AcDbEntity
  8
0
  6
Continuous
 62
     7
370
     0
100
AcDbPolyline
 90
       37
 70
   128
 43
0.0
 10
278.821921463
 20
40.5045262665
 10
278.9662979977
 20
41.1861887806
 10
279.2032278583
 20
42.6763760909
 10
279.3222844073
 20
44.1190327351
 10
279.3222844073
 20
45.4998209433
 10
279.2032278583
 20
46.8050178219
 10
278.9662979977
 20
48.021651738
 10
278.6138495409
 20
49.137631237
 10
278.1493852791
 20
50.1418652135
 10
277.5775212667
 20
51.0243731388
 10
276.9039409453
 20
51.7763842529
 10
276.1353386587
 20
52.3904247313
 10
275.2793531216
 20
52.860391964
 10
274.344491503
 20
53.1816152054
 10
273.3400448777
 20
53.3509019947
 10
272.2759958873
 20
53.3665698837
 10
271.162919529
 20
53.2284631578
 10
270.0118780555
 20
52.9379543837
 10
268.8343110342
 20
52.4979307683
 10
267.6419216551
 20
51.9127654637
 10
266.4465604197
 20
51.1882741059
 10
265.2601073649
 20
50.3316570152
 10
264.0943539942
 20
49.3514276373
 10
262.9608860884
 20
48.2573279321
 10
261.8709685607
 20
47.060231554
 10
260.8354335012
 20
45.7720357846
 10
259.8645725225
 20
44.4055432923
 10
258.9680344773
 20
42.9743348933
 10
258.1547295633
 20
41.4926345797
 10
257.4327407704
 20
39.9751681549
 10
256.8092435473
 20
38.437016882
 10
256.2904344897
 20
36.8934675993
 10
255.881469755
 20
35.3598607932
 10
255.5864138186
 20
33.8514381371
 10
255.4081990788
 20
32.383191013
 10
255.3485967138
 20
30.9697115204
 10
255.3485967138
 20
30.9697115204
  0
LWPOLYLINE
  5
1E2
330
1F
100
AcDbEntity
  8
0
  6
Continuous
 62
     7
370
     0
100
AcDbPolyline
 90
       20
 70
   128
 43
0.0
 10
239.6023497138
 20
40.2611629059
 10
240.0651610691
 20
42.109996504
 10
240.6400877932
 20
43.9737228329
 10
241.3231603084
 20
45.8394738064
 10
242.109662345
 20
47.6943673595
 10
242.9941635048
 20
49.5255963918
 10
243.9705567557
 20
51.3205171948
 10
245.0321005967
 20
53.0667367496
 10
246.1714656056
 20
54.752198295
 10
247.3807850443
 20
56.3652645729
 10
248.6517091746
 20
57.894798178
 10
249.9754629094
 20
59.3302384556
 10
251.3429063998
 20
60.6616744178
 10
252.7445981414
 20
61.879913174
 10
254.1708601627
 20
62.9765434027
 10
255.6118448473
 20
63.9439934279
 10
257.0576029259
 20
64.7755834971
 10
258.4981521714
 20
65.4655719024
 10
259.9235463212
 20
66.0091946234
 10
261.2409026026
 20
66.3833996364
  0
LWPOLYLINE
  5
1E3
330
1F
100
AcDbEntity
  8
0
  6
Continuous
 62
     7
370
     0
100
AcDbPolyline
 90
       21
 70
   128
 43
0.0
 10
249.5679987776
 20
33.8985756216
 10
249.6274570608
 20
35.330511264
 10
249.8052592946
 20
36.817305656
 10
250.0996931464
 20
38.3446401547
 10
250.507923057
 20
39.8978056941
 10
251.0260175495
 20
41.4618444409
 10
251.6489870905
 20
43.021693847
 10
252.3708321429
 20
44.5623317099
 10
253.1846009441
 20
46.0689208448
 10
254.0824564559
 20
47.5269519748
 10
255.0557518387
 20
48.922383463
 10
256.095113726
 20
50.2417765414
 10
257.1905324947
 20
51.4724247333
 10
258.3314586632
 20
52.602476224
 10
259.5069044887
 20
53.6210479999
 10
260.7055497855
 20
54.5183306579
 10
261.9158509441
 20
55.2856828755
 10
263.1261521027
 20
55.9157146314
 10
264.3247973995
 20
56.4023583754
 10
265.500243225
 20
56.7409274622
 10
266.2413385415
 20
56.8792433957
  0
ARC
  5
1E4
330
1F
100
AcDbEntity
  8
0
  6
Continuous
 62
     7
370
     0
100
AcDbCircle
 10
261.7177897058
 20
33.6562299437
 30
0.0
 40
12.15220766053579
100
AcDbArc
 50
178.8573018619
 51
201.1313802345
  0
LWPOLYLINE
  5
1E5
330
1F
100
AcDbEntity
  8
0
  6
Continuous
 62
     7
370
     0
100
AcDbPolyline
 90
       24
 70
   128
 43
0.0
 10
260.2718276779
 20
33.8118322597
 10
260.3323216432
 20
34.9125543122
 10
260.5127684708
 20
36.064287551
 10
260.8100806653
 20
37.2473255009
 10
261.2191711328
 20
38.4414260548
 10
261.7330402217
 20
39.6261578209
 10
262.3428954897
 20
40.7812497104
 10
263.038302144
 20
41.8869377807
 10
263.8073615838
 20
42.9243034024
 10
264.636914989
 20
43.8755969622
 10
265.5127684708
 20
44.7245415634
 10
266.4199359333
 20
45.4566115286
 10
267.3428954897
 20
46.0592809377
 10
268.2658550461
 20
46.5222379499
 10
269.1730225086
 20
46.8375612426
 10
270.0488759904
 20
46.9998555466
 10
270.8784293957
 20
47.0063439616
 10
271.6474888355
 20
46.8569154688
 10
272.3428954897
 20
46.5541268312
 10
272.9527507577
 20
46.1031588465
 10
273.4666198467
 20
45.5117277017
 10
273.8757103141
 20
44.7899529478
 10
274.1730225086
 20
43.950184351
 10
274.3428142025
 20
43.0902598491
  0
LWPOLYLINE
  5
1E6
330
1F
100
AcDbEntity
  8
0
  6
Continuous
 62
     7
370
     0
100
AcDbPolyline
 90
       12
 70
   128
 43
0.0
 10
266.3434643415
 20
29.233478051
 10
265.5127684708
 20
28.950184395
 10
264.636914989
 20
28.787890091
 10
263.8073615838
 20
28.781401676
 10
263.0383021439
 20
28.9308301688
 10
262.3428954897
 20
29.2336188064
 10
261.7330402217
 20
29.6845867912
 10
261.2191711328
 20
30.2760179359
 10
260.8100806653
 20
30.9977926898
 10
260.5127684708
 20
31.8375612866
 10
260.3323216432
 20
32.7809550529
 10
260.2718276779
 20
33.8118322597
  0
LWPOLYLINE
  5
1E7
330
1F
100
AcDbEntity
  8
0
  6
Continuous
 62
     7
370
     0
100
AcDbPolyline
 90
       19
 70
   128
 43
0.0
 10
243.0687094359
 20
39.3361416437
 10
243.5311488687
 20
41.159060695
 10
244.1109808103
 20
42.9964046781
 10
244.8036581156
 20
44.8337648149
 10
245.6037486862
 20
46.6567322009
 10
246.5049780696
 20
48.4510108019
 10
247.5002786648
 20
50.2025295663
 10
248.5818451477
 20
51.8975527728
 10
249.7411956819
 20
53.5227877481
 10
250.9692384344
 20
55.0654891109
 10
252.2563428757
 20
56.513558723
 10
253.5924153043
 20
57.8556405652
 10
254.9669780026
 20
59.0812097932
 10
256.3692514058
 20
60.1806552754
 10
257.7882386367
 20
61.145354965
 10
259.2128117453
 20
61.9677435156
 10
260.6317989762
 20
62.64137161
 10
262.0340723794
 20
63.1609565371
 10
262.3491261162
 20
63.2570640304
  0
LWPOLYLINE
  5
1E8
330
1F
100
AcDbEntity
  8
0
  6
Continuous
 62
     7
370
     0
100
AcDbPolyline
 90
       22
 70
   128
 43
0.0
 10
242.4912417655
 20
39.3293398982
 10
242.9394227031
 20
41.1280325731
 10
243.5004561064
 20
42.9417472201
 10
244.1701979166
 20
44.7570868836
 10
244.9437011036
 20
46.5606426045
 10
245.8152522063
 20
48.339092466
 10
246.7784135353
 20
50.0792999945
 10
247.8260707247
 20
51.7684111929
 10
248.9504852821
 20
53.3939494855
 10
250.1433517487
 20
54.9439078763
 10
251.3958590478
 20
56.4068376382
 10
252.698755567
 20
57.7719328789
 10
254.0424174952
 20
59.0291103582
 10
255.4169199088
 20
60.1690839674
 10
256.8121100818
 20
61.1834333215
 10
258.2176824785
 20
62.0646659555
 10
259.6232548752
 20
62.8062726676
 10
261.0184450482
 20
63.4027755993
 10
262.3929474618
 20
63.8497686973
 10
263.73660939
 20
64.1439502587
 10
265.0395059092
 20
64.2831473193
 10
265.6671671362
 20
64.2943324291
  0
LWPOLYLINE
  5
1E9
330
1F
100
AcDbEntity
  8
0
  6
Continuous
 62
     7
370
     0
100
AcDbPolyline
 90
        7
 70
   128
 43
0.0
 10
263.1002548026
 20
33.8118322597
 10
263.1605378162
 20
32.895518537
 10
263.3401020292
 20
32.0683357364
 10
263.6351203421
 20
31.3479138232
 10
264.0393049519
 20
30.7496073397
 10
264.5440413652
 20
30.28616815
 10
264.7574341215
 20
30.1490738079
  0
LWPOLYLINE
  5
1EA
330
1F
100
AcDbEntity
  8
0
  6
Continuous
 62
     7
370
     0
100
AcDbPolyline
 90
       18
 70
   128
 43
0.0
 10
272.7567839826
 20
44.005855606
 10
272.6833856128
 20
44.0467004553
 10
272.0486001312
 20
44.290276183
 10
271.3436622317
 20
44.3801233566
 10
270.5835964419
 20
44.3143270396
 10
269.7846022444
 20
44.0942895663
 10
268.9637088134
 20
43.7247006533
 10
268.1384120672
 20
43.2134374468
 10
267.3263017731
 20
42.5713966343
 10
266.544686652
 20
41.812262201
 10
265.8102254733
 20
40.9522137795
 10
265.1385720018
 20
40.0095818087
 10
264.5440413652
 20
39.0044568524
 10
264.0393049519
 20
37.9582614041
 10
263.6351203421
 20
36.8932933034
 10
263.3401020292
 20
35.8322504964
 10
263.1605378162
 20
34.7977472684
 10
263.1002548026
 20
33.8118322597
  0
LWPOLYLINE
  5
1EB
330
1F
100
AcDbEntity
  8
0
  6
Continuous
 62
     7
370
     0
100
AcDbPolyline
 90
       12
 70
   128
 43
0.0
 10
275.2592872125
 20
27.9849275449
 10
275.6307352436
 20
27.5419511544
 10
276.1071737132
 20
27.2571002599
 10
276.6698842152
 20
27.141566138
 10
277.2967588715
 20
27.1998879154
 10
277.9631689103
 20
27.429774235
 10
278.642932286
 20
27.822193279
 10
279.3093423247
 20
28.3617276125
 10
279.936216981
 20
29.0271799072
 10
280.498927483
 20
29.7924057457
 10
280.9753659526
 20
30.6273407883
 10
281.3468139837
 20
31.4991819469
  0
LWPOLYLINE
  5
1EC
330
1F
100
AcDbEntity
  8
0
  6
Continuous
 62
     7
370
     0
100
AcDbPolyline
 90
       12
 70
   128
 43
0.0
 10
281.3467080364
 20
35.1486668489
 10
280.9752482608
 20
35.5915697673
 10
280.4988156283
 20
35.8763627375
 10
279.9361260052
 20
35.9918581397
 10
279.3092837209
 20
35.9335189284
 10
278.6429132359
 20
35.7036368628
 10
277.9631918103
 20
35.311242479
 10
277.2968211741
 20
34.77175034
 10
276.6699785933
 20
34.1063535005
 10
276.10728854
 20
33.3411909728
 10
275.6308553605
 20
32.5063208987
 10
275.2593949427
 20
31.6345397656
  0
LINE
  5
1ED
330
1F
100
AcDbEntity
  8
0
  6
Continuous
 62
     7
370
     0
100
AcDbLine
 10
273.9896992329
 20
28.3560154756
 30
0.0
 11
274.060409911
 21
28.0921252415
 31
0.0
  0
LWPOLYLINE
  5
1EE
330
1F
100
AcDbEntity
  8
0
  6
Continuous
 62
     7
370
     0
100
AcDbPolyline
 90
        3
 70
   128
 43
0.0
 10
280.8179875876
 20
35.1279477041
 10
280.4274735088
 20
35.5282175982
 10
280.3245408397
 20
35.5955501539
  0
LWPOLYLINE
  5
1EF
330
1F
100
AcDbEntity
  8
0
  6
Continuous
 62
     7
370
     0
100
AcDbPolyline
 90
       10
 70
   128
 43
0.0
 10
275.8057460763
 20
27.812361491
 10
276.1786723628
 20
27.6589227153
 10
276.7563867865
 20
27.6053705577
 10
277.3913423633
 20
27.7326481574
 10
278.0555632247
 20
28.0351477183
 10
278.7197840861
 20
28.4995412402
 10
279.3547396629
 20
29.105367745
 10
279.9324540866
 20
29.8259347783
 10
280.4274735088
 20
30.6294944676
 10
280.8179875876
 20
31.4806423198
  0
LINE
  5
1F0
330
1F
100
AcDbEntity
  8
0
  6
Continuous
 62
     7
370
     0
100
AcDbLine
 10
273.665496971
 20
28.5431734576
 30
0.0
 11
273.9896992329
 21
28.3560154756
 31
0.0
  0
LINE
  5
1F1
330
1F
100
AcDbEntity
  8
0
  6
Continuous
 62
     7
370
     0
100
AcDbLine
 10
243.5310746333
 20
37.3836177489
 30
0.0
 11
243.536877998
 21
37.8240797308
 31
0.0
  0
LWPOLYLINE
  5
1F2
330
1F
100
AcDbEntity
  8
0
  6
Continuous
 62
     7
370
     0
100
AcDbPolyline
 90
        3
 70
   128
 43
0.0
 10
243.5777476842
 20
38.6491468167
 10
243.5905329165
 20
38.8155533914
 10
243.6125935084
 20
39.0664192645
  0
LWPOLYLINE
  5
1F3
330
1F
100
AcDbEntity
  8
0
  6
Continuous
 62
     7
370
     0
100
AcDbPolyline
 90
        3
 70
   128
 43
0.0
 10
243.5919831418
 20
36.0042683811
 10
243.5905329165
 20
36.020331179
 10
243.5310746333
 20
37.3836177489
  0
LWPOLYLINE
  5
1F4
330
1F
100
AcDbEntity
  8
0
  6
Continuous
 62
     7
370
     0
100
AcDbPolyline
 90
       19
 70
   128
 43
0.0
 10
212.4549604542
 20
61.2698216248
 10
212.5165369908
 20
62.3902416758
 10
212.700213009
 20
63.5625857849
 10
213.0028457612
 20
64.7667948195
 10
213.4192571171
 20
65.982264429
 10
213.942322163
 20
67.1881975914
 10
214.5630911108
 20
68.3639604561
 10
215.2709424319
 20
69.4894353943
 10
216.0537645937
 20
70.545365218
 10
216.8981632922
 20
71.5136826749
 10
217.7896906314
 20
72.377819585
 10
218.7130923315
 20
73.1229903262
 10
219.6525687332
 20
73.7364448204
 10
220.5920451349
 20
74.2076866912
 10
221.515446835
 20
74.5286528596
 10
222.4069741742
 20
74.6938515053
 10
223.2513728727
 20
74.7004560338
 10
224.0341950345
 20
74.5483534398
 10
224.189587367
 20
74.4964062779
  0
ARC
  5
1F5
330
1F
100
AcDbEntity
  8
0
  6
Continuous
 62
     7
370
     0
100
AcDbCircle
 10
217.8968318968
 20
60.8355479076
 30
0.0
 40
5.459171957264429
100
AcDbArc
 50
175.4373357246
 51
223.9790415665
  0
LINE
  5
1F6
330
1F
100
AcDbEntity
  8
0
  6
Continuous
 62
     7
370
     0
100
AcDbLine
 10
249.2939948999
 20
38.9049773751
 30
0.0
 11
249.0111062138
 21
39.0682855374
 31
0.0
  0
LINE
  5
1F7
330
1F
100
AcDbEntity
  8
0
  6
Continuous
 62
     7
370
     0
100
AcDbLine
 10
243.9177309273
 20
32.1693117202
 30
0.0
 11
249.2939948999
 21
29.0656605918
 31
0.0
  0
LINE
  5
1F8
330
1F
100
AcDbEntity
  8
0
  6
Continuous
 62
     7
370
     0
100
AcDbLine
 10
243.6813348243
 20
32.0327987911
 30
0.0
 11
243.9177309273
 21
32.1693117202
 31
0.0
  0
LINE
  5
1F9
330
1F
100
AcDbEntity
  8
0
  6
Continuous
 62
     7
370
     0
100
AcDbLine
 10
282.5456912852
 20
32.9905739125
 30
0.0
 11
282.3335592509
 21
33.1728233353
 31
0.0
  0
LINE
  5
1FA
330
1F
100
AcDbEntity
  8
0
  6
Continuous
 62
     7
370
     0
100
AcDbLine
 10
279.3283554308
 20
34.907690573
 30
0.0
 11
282.3335592509
 21
33.1728233353
 31
0.0
  0
LINE
  5
1FB
330
1F
100
AcDbEntity
  8
0
  6
Continuous
 62
     7
370
     0
100
AcDbLine
 10
244.890263308
 20
25.6732877319
 30
0.0
 11
244.7907457208
 21
25.9951763572
 31
0.0
  0
LINE
  5
1FC
330
1F
100
AcDbEntity
  8
0
  6
Continuous
 62
     7
370
     0
100
AcDbLine
 10
249.0111521875
 20
28.5757626447
 30
0.0
 11
243.7520455024
 21
31.6117803106
 31
0.0
  0
LINE
  5
1FD
330
1F
100
AcDbEntity
  8
0
  6
Continuous
 62
     7
370
     0
100
AcDbLine
 10
243.9027787753
 20
28.2296890026
 30
0.0
 11
243.853597963
 21
28.3904857089
 31
0.0
  0
LWPOLYLINE
  5
1FE
330
1F
100
AcDbEntity
  8
0
  6
Continuous
 62
     7
370
     0
100
AcDbPolyline
 90
        3
 70
   128
 43
0.0
 10
243.5349999517
 20
27.5455272665
 10
243.5311488687
 20
27.554594364
 10
243.0687094359
 20
28.843592211
  0
ARC
  5
1FF
330
1F
100
AcDbEntity
  8
0
  6
Continuous
 62
     7
370
     0
100
AcDbCircle
 10
253.512310951
 20
31.9538471247
 30
0.0
 40
11.45338413780848
100
AcDbArc
 50
195.7923389603
 51
210.4893931685
  0
LINE
  5
200
330
1F
100
AcDbEntity
  8
0
  6
Continuous
 62
     7
370
     0
100
AcDbLine
 10
239.6950544776
 20
28.6896845881
 30
0.0
 11
239.6023497138
 21
28.9903736174
 31
0.0
  0
OLE2FRAME
  5
201
330
1F
100
AcDbEntity
  8
0
100
AcDbOle2Frame
 70
     2
  3
Paintbrush-Bild
 10
13.8511154363
 20
38.264191557
 30
0.0
 11
51.6290888628
 21
31.9806341108
 31
0.0
 71
     2
 72
     0
 73
     1
 90
    12928
310
80552BED0767C5B32B40DDAF6807D121434000000000000000006FFBDDFB85D0
310
4940DDAF6807D121434000000000000000006FFBDDFB85D04940416F4BD60AFB
310
3F4000000000000000002BED0767C5B32B40416F4BD60AFB3F40000000000000
310
0000000000000100000000010000010000000100000000000100000000320000
310
D0CF11E0A1B11AE1000000000000000000000000000000003E000300FEFF0900
310
0600000000000000000000000100000001000000000000000010000002000000
310
01000000FEFFFFFF0000000000000000FFFFFFFFFFFFFFFFFFFFFFFFFFFFFFFF
310
FFFFFFFFFFFFFFFFFFFFFFFFFFFFFFFFFFFFFFFFFFFFFFFFFFFFFFFFFFFFFFFF
310
FFFFFFFFFFFFFFFFFFFFFFFFFFFFFFFFFFFFFFFFFFFFFFFFFFFFFFFFFFFFFFFF
310
FFFFFFFFFFFFFFFFFFFFFFFFFFFFFFFFFFFFFFFFFFFFFFFFFFFFFFFFFFFFFFFF
310
FFFFFFFFFFFFFFFFFFFFFFFFFFFFFFFFFFFFFFFFFFFFFFFFFFFFFFFFFFFFFFFF
310
FFFFFFFFFFFFFFFFFFFFFFFFFFFFFFFFFFFFFFFFFFFFFFFFFFFFFFFFFFFFFFFF
310
FFFFFFFFFFFFFFFFFFFFFFFFFFFFFFFFFFFFFFFFFFFFFFFFFFFFFFFFFFFFFFFF
310
FFFFFFFFFFFFFFFFFFFFFFFFFFFFFFFFFFFFFFFFFFFFFFFFFFFFFFFFFFFFFFFF
310
FFFFFFFFFFFFFFFFFFFFFFFFFFFFFFFFFFFFFFFFFFFFFFFFFFFFFFFFFFFFFFFF
310
FFFFFFFFFFFFFFFFFFFFFFFFFFFFFFFFFFFFFFFFFFFFFFFFFFFFFFFFFFFFFFFF
310
FFFFFFFFFFFFFFFFFFFFFFFFFFFFFFFFFFFFFFFFFFFFFFFFFFFFFFFFFFFFFFFF
310
FFFFFFFFFFFFFFFFFFFFFFFFFFFFFFFFFFFFFFFFFFFFFFFFFFFFFFFFFFFFFFFF
310
FFFFFFFFFFFFFFFFFFFFFFFFFFFFFFFFFFFFFFFFFFFFFFFFFFFFFFFFFFFFFFFF
310
FFFFFFFFFFFFFFFFFFFFFFFFFFFFFFFFFFFFFFFFFFFFFFFFFFFFFFFFFFFFFFFF
310
FDFFFFFFFEFFFFFFFEFFFFFFFEFFFFFF05000000060000000700000008000000
310
090000000A0000000B0000000C0000000D0000000E0000000F00000010000000
310
11000000120000001300000014000000150000001600000017000000FEFFFFFF
310
FFFFFFFFFFFFFFFFFFFFFFFFFFFFFFFFFFFFFFFFFFFFFFFFFFFFFFFFFFFFFFFF
310
FFFFFFFFFFFFFFFFFFFFFFFFFFFFFFFFFFFFFFFFFFFFFFFFFFFFFFFFFFFFFFFF
310
FFFFFFFFFFFFFFFFFFFFFFFFFFFFFFFFFFFFFFFFFFFFFFFFFFFFFFFFFFFFFFFF
310
FFFFFFFFFFFFFFFFFFFFFFFFFFFFFFFFFFFFFFFFFFFFFFFFFFFFFFFFFFFFFFFF
310
FFFFFFFFFFFFFFFFFFFFFFFFFFFFFFFFFFFFFFFFFFFFFFFFFFFFFFFFFFFFFFFF
310
FFFFFFFFFFFFFFFFFFFFFFFFFFFFFFFFFFFFFFFFFFFFFFFFFFFFFFFFFFFFFFFF
310
FFFFFFFFFFFFFFFFFFFFFFFFFFFFFFFFFFFFFFFFFFFFFFFFFFFFFFFFFFFFFFFF
310
FFFFFFFFFFFFFFFFFFFFFFFFFFFFFFFFFFFFFFFFFFFFFFFFFFFFFFFFFFFFFFFF
310
FFFFFFFFFFFFFFFFFFFFFFFFFFFFFFFFFFFFFFFFFFFFFFFFFFFFFFFFFFFFFFFF
310
FFFFFFFFFFFFFFFFFFFFFFFFFFFFFFFFFFFFFFFFFFFFFFFFFFFFFFFFFFFFFFFF
310
FFFFFFFFFFFFFFFFFFFFFFFFFFFFFFFFFFFFFFFFFFFFFFFFFFFFFFFFFFFFFFFF
310
FFFFFFFFFFFFFFFFFFFFFFFFFFFFFFFFFFFFFFFFFFFFFFFFFFFFFFFFFFFFFFFF
310
FFFFFFFFFFFFFFFFFFFFFFFFFFFFFFFFFFFFFFFFFFFFFFFFFFFFFFFFFFFFFFFF
310
52006F006F007400200045006E00740072007900000000000000000000000000
310
0000000000000000000000000000000000000000000000000000000000000000
310
16000500FFFFFFFFFFFFFFFF020000000A00030000000000C000000000000046
310
000000000000000000000000A09457F8181BD20103000000C000000000000000
310
01004F006C006500000000000000000000000000000000000000000000000000
310
0000000000000000000000000000000000000000000000000000000000000000
310
0A000200FFFFFFFFFFFFFFFFFFFFFFFF00000000000000000000000000000000
310
0000000000000000000000000000000000000000000000001400000000000000
310
010043006F006D0070004F0062006A0000000000000000000000000000000000
310
0000000000000000000000000000000000000000000000000000000000000000
310
120002010100000003000000FFFFFFFF00000000000000000000000000000000
310
0000000000000000000000000000000000000000010000004D00000000000000
310
01004F006C006500310030004E00610074006900760065000000000000000000
310
0000000000000000000000000000000000000000000000000000000000000000
310
1A000200FFFFFFFFFFFFFFFFFFFFFFFF00000000000000000000000000000000
310
0000000000000000000000000000000000000000040000002426000000000000
310
FEFFFFFF02000000FEFFFFFFFFFFFFFFFFFFFFFFFFFFFFFFFFFFFFFFFFFFFFFF
310
FFFFFFFFFFFFFFFFFFFFFFFFFFFFFFFFFFFFFFFFFFFFFFFFFFFFFFFFFFFFFFFF
310
FFFFFFFFFFFFFFFFFFFFFFFFFFFFFFFFFFFFFFFFFFFFFFFFFFFFFFFFFFFFFFFF
310
FFFFFFFFFFFFFFFFFFFFFFFFFFFFFFFFFFFFFFFFFFFFFFFFFFFFFFFFFFFFFFFF
310
FFFFFFFFFFFFFFFFFFFFFFFFFFFFFFFFFFFFFFFFFFFFFFFFFFFFFFFFFFFFFFFF
310
FFFFFFFFFFFFFFFFFFFFFFFFFFFFFFFFFFFFFFFFFFFFFFFFFFFFFFFFFFFFFFFF
310
FFFFFFFFFFFFFFFFFFFFFFFFFFFFFFFFFFFFFFFFFFFFFFFFFFFFFFFFFFFFFFFF
310
FFFFFFFFFFFFFFFFFFFFFFFFFFFFFFFFFFFFFFFFFFFFFFFFFFFFFFFFFFFFFFFF
310
FFFFFFFFFFFFFFFFFFFFFFFFFFFFFFFFFFFFFFFFFFFFFFFFFFFFFFFFFFFFFFFF
310
FFFFFFFFFFFFFFFFFFFFFFFFFFFFFFFFFFFFFFFFFFFFFFFFFFFFFFFFFFFFFFFF
310
FFFFFFFFFFFFFFFFFFFFFFFFFFFFFFFFFFFFFFFFFFFFFFFFFFFFFFFFFFFFFFFF
310
FFFFFFFFFFFFFFFFFFFFFFFFFFFFFFFFFFFFFFFFFFFFFFFFFFFFFFFFFFFFFFFF
310
FFFFFFFFFFFFFFFFFFFFFFFFFFFFFFFFFFFFFFFFFFFFFFFFFFFFFFFFFFFFFFFF
310
FFFFFFFFFFFFFFFFFFFFFFFFFFFFFFFFFFFFFFFFFFFFFFFFFFFFFFFFFFFFFFFF
310
FFFFFFFFFFFFFFFFFFFFFFFFFFFFFFFFFFFFFFFFFFFFFFFFFFFFFFFFFFFFFFFF
310
FFFFFFFFFFFFFFFFFFFFFFFFFFFFFFFFFFFFFFFFFFFFFFFFFFFFFFFFFFFFFFFF
310
0100000200000000000000000000000000000000000000000000000000000000
310
0000000000000000000000000000000000000000000000000000000000000000
310
0100FEFF030A0000FFFFFFFF0A00030000000000C00000000000004607000000
310
5042727573680007000000504272757368000700000050427275736800F439B2
310
7100000000000000000000000000000000000000000000000000000000000000
310
0000000000000000000000000000000000000000000000000000000000000000
310
0000000000000000000000000000000000000000000000000000000000000000
310
0000000000000000000000000000000000000000000000000000000000000000
310
0000000000000000000000000000000000000000000000000000000000000000
310
0000000000000000000000000000000000000000000000000000000000000000
310
0000000000000000000000000000000000000000000000000000000000000000
310
0000000000000000000000000000000000000000000000000000000000000000
310
0000000000000000000000000000000000000000000000000000000000000000
310
0000000000000000000000000000000000000000000000000000000000000000
310
0000000000000000000000000000000000000000000000000000000000000000
310
0000000000000000000000000000000000000000000000000000000000000000
310
20260000424D0E260000000000003E00000028000000B40200006E0000000100
310
01000000000000000000130B0000130B00000200000002000000000000FFFFFF
310
FFFFFFFFFFFFFFFFFFFFFFFFFFFFFFFFFFFFFFFFFFFFFFFFFFFFFFFFFFFFFFFF
310
FFFFFFFFFFFFFFFFFFFFFFFFFFFFFFFFFFFFFFFFFFFFFFFFFFFFFFFFFFFFFFFF
310
FFFFFFFFFFFFFFFFFFFFFFFFFFFFFFFFFFFFFFFFFFFFFFFFF000FFFFFFFFFFFF
310
FFFFFFFFFFFFFFFFFFFFFFFFFFFFFFFFFFFFFFFFFFFFFFFFFFFFFFFFFFFFFFFF
310
FFFFFFFFFFFFFFFFFFFFFFFFFFFFFFFFFFFFFFFFFFFFFFFFFFFFFFFFFFFFFFFF
310
FFFFFFFFFFFFFFFFFFFFFFFFFFFFFFFFF000FFFFFFFFFFFFFFFFFFFFFFFFFFFF
310
FFFFFFFFFFFFFFFFFFFFFFFFFFFFFFFFFFFFFFFFFFFFFFFFFFFFFFFFFFFFFFFF
310
FFFFFFFFFFFFFFFFFFFFFFFFFFFFFFFFFFFFFFFFFFFFFFFFFFFFFFFFFFFFFFFF
310
FFFFFFFFFFFFFFFFF000FFFFFFFFFFFFFFFFFFFFFFFFFFFFFFFFFFFFFFFFFFFF
310
FFFFFFFFFFFFFFFFFFFFFFFFFFFFFFFFFFFFFFFFFFFFFFFFFFFFFFFFFFFFFFFF
310
FFFFFFFFFFFFFFFFFFFFFFFFFFFFFFFFFFFFFFFFFFFFFFFFFFFFFFFFFFFFFFFF
310
F000FFFFFFFFFFFFFFFFFFFFFFFFFFFFFFFFFFFFFFFFFFFFFFFFFFFFFFFFFFFF
310
FFFFFFFFFFFFFFFFFFFFFFFFFFFFFFFFFFFFFFFFFFFFFFFFFFFFFFFFFFFFFFFF
310
FFFFFFFFFFFFFFFFFFFFFFFFFFFFFFFFFFFFFFFFFFFFFFFFF000FFFFFFFFFFFF
310
FFFFFFFFFFFFFFFFFFFFFFFFFFFFFFFFFFFFFFFFFFFFFFFFFFFFFFFFFFFFFFFF
310
FFFFFFFFFFFFFFFFFFFFFFFFFFFFFFFFFFFFFFFFFFFFFFFFFFFFFFFFFFFFFFFF
310
FFFFFFFFFFFFFFFFFFFFFFFFFFFFFFFFF000FFFFFFFFFFFFFFFFFFFFFFFFFFFF
310
FFFFFFFFFFFFFFFFFFFFFFFFFFFFFFFFFFFFFFFFFFFFFFFFFFFFFFFFFFFFFFFF
310
FFFFFFFFFFFFFFFFFFFFFFFFFFFFFFFFFFFFFFFFFFFFFFFFFFFFFFFFFFFFFFFF
310
FFFFFFFFFFFFFFFFF000FFFFFFFFFFFFFFFFFFFFFFFFFFFFFFFFFFFFFFFFFFFF
310
FFFFFFFFFFFFFFFFFFFFFFFFFFFFFFFFFFFFFFFFFFFFFFFFFFFFFFFFFFFFFFFF
310
FFFFFFFFFFFFFFFFFFFFFFFFFFFFFFFFFFFFFFFFFFFFFFFFFFFFFFFFFFFFFFFF
310
F000FFFFFFFFFFFFFFFFFFFFFFFFFFFFFFFFFFFFFFFFFFFFFFFFFFFFFFFFFFFF
310
FFFFFFFFFFFFFFFFFFFFFFFFFFFFFFFFFFFFFFFFFFFFFFFFFFFFFFFFFFFFFFFF
310
FFFFFFFFFFFFFFFFFFFFFFFFFFFFFFFFFFFFFFFFFFFFFFFFF000FFFFFFFFFFFF
310
FFFFFFFFFFFFFFFFFFFFFFFFFFFFFFFFFFFFFFFFFFFFFFFFFFFFFFFFFFFFFFFF
310
FFFFFFFFFFFFFFFFFFFFFFFFFFFFFFFFFFFFFFFFFFFFFFFFFFFFFFFFFFFFFFFF
310
FFFFFFFFFFFFFFFFFFFFFFFFFFFFFFFFF000FFFFFFFFFFFFFFFFFFFFFFFFFFFF
310
FFFFFFFFFFFFFFFFFFFFFFFFFFFFFFFFFFFFFFFFFFFFFFFFFFFFFFFFFFFFFFFF
310
FFFFFFFFFFFFFFFFFFFFFFFFFFFFFFFFFFFFFFFFFFFFFFFFFFFFFFFFFFFFFFFF
310
FFFFFFFFFFFFFFFFF000FFFFFFFFFFFFFFFFFFFFFFFFFFFFFFFFFFFFFFFFFFFF
310
FFFFFFFFFFFFFFFFFFFFFFFFFFFFFFFFFFFFFFFFFFFFFFFFFFFFFFFFFFFFFFFF
310
FFFFFFFFFFFFFFFFFFFFFFFFFFFFFFFFFFFFFFFFFFFFFFFFFFFFFFFFFFFFFFFF
310
F000FFFFFFFFFFFFFFFFFFFFFFFFFFFFFFFFFFFFFFFFFFFFFFFFFFFFFFFFFFFF
310
FFFFFFFFFFFFFFFFFFFFFFFFFFFFFFFFFFFFFFFFFFFFFFFFFFFFFFFFFFFFFFFF
310
FFFFFFFFFFFFFFFFFFFFFFFFFFFFFFFFFFFFFFFFFFFFFFFFF000FFFFFFFFFFFF
310
FFFFFFFFFFFFFFFFFFFFFFFFFFFFFFFFFFFFFFFFFFFFFFFFFFFFFFFFFFFFFFFF
310
FFFFFFFFFFFFFFFFFFFFFFFFFFFFFFFFFFFFFFFFFFFFFFFFFFFFFFFFFFFFFFFF
310
FFFFFFFFFFFFFFFFFFFFFFFFFFFFFFFFF000FFFFFFFFFFFFFFFFFFFFFFFFFFFF
310
FFFFFFFFFFFFFFFFFFFFFFFFFFFFFFFFFFFFFFFFFFFFFFFFFFFFFFFFFFFFFFFF
310
FFFFFFFFFFFFFFFFFFFFFFFFFFFFFFFFFFFFFFFFFFFFFFFFFFFFFFFFFFFFFFFF
310
FFFFFFFFFFFFFFFFF000FFFFFFFFFFFFFFFFFFFFFFFFFFFFFFFFFFFFFFFFFFFF
310
FFFFFFFFFFFFFFFFFFFFFFFFFFFFFFFFFFFFFFFFFFFFFFFFFFFFFFFFFFFFFFFF
310
FFFFFFFFFFFFFFFFFFFFFFFFFFFFFFFFFFFFFFFFFFFFFFFFFFFFFFFFFFFFFFFF
310
F000FFFFFFFFFFFFFFFFFFFFFFFFFFFFFFFFFFFFFFFFFFFFFFFFFFFFFFFFFFFF
310
FFFFFFFFFFFFFFFFFFFFFFFFFFFFFFFFFFFFFFFFFFFFFFFFFFFFFFFFFFFFFFFF
310
FFFFFFFFFFFFFFFFFFFFFFFFFFFFFFFFFFFFFFFFFFFFFFFFF000FFFFFFFFFFFF
310
FFFFFFFFFFFFFFFFFFFFFFFFFFFFFFFFFFFFFFFFFFFFFFFFFFFFFFFFFFFFFFFF
310
FFFFFFFFFFFFFFFFFFFFFFFFFFFFFFFFFFFFFFFFFFFFFFFFFFFFFFFFFFFFFFFF
310
FFFFFFFFFFFFFFFFFFFFFFFFFFFFFFFFF000FFFFFFFFFFFFFFFFFFFFFFFFFFFF
310
FFFFFFFFFFFFFFFFFFFFFFFFFFFFFFFFFFFFFFFFFFFFFFFFFFFFFFFFFFFFFFFF
310
FFFFFFFFFFFFFFFFFFFFFFFFFFFFFFFFFFFFFFFFFFFFFFFFFFFFFFFFFFFFFFFF
310
FFFFFFFFFFFFFFFFF000FFFFF80003FFFFFFFFFFFFFFFFFFFFFFFFFFFFFFFFFF
310
FFFFF00007FFFFFFFFFF00007FFFFFF800000000000000007FFFFFFFFFFFFFFF
310
FFFFFFFC001FFFFFFFFFFFFFFC001FFFFFFFFFFFFFFFFFFFFFFFFFFE0007FFFF
310
F000FFFF8000007FFFFFFFF8000FFFFFC0007FFFFF80007FFFFF0000007FFFFF
310
FFF8000007FFFFF800000000000000007FFFFFF0001FFFFFFFFFFFC00001FFFF
310
FFFFFFFFC00001FFFFFFFF000000000003FFFFE000007FFFF000FFFE0000000F
310
FFFFFFF0000FFFFF80007FFFFF80007FFFFC0000001FFFFFFFC0000001FFFFF8
310
00000000000000007FFFFFF0001FFFFFFFFFFE0000003FFFFFFFFFFE0000003F
310
FFFFFF000000000003FFFF0000000FFFF000FFF800000003FFFFFFF00007FFFF
310
80007FFFFF80007FFFF000000007FFFFFF000000003FFFF80000000000000000
310
7FFFFFF0001FFFFFFFFFF80000000FFFFFFFFFF80000000FFFFFFF0000000000
310
03FFFC00000003FFF000FFE000000000FFFFFFF00007FFFF80003FFFFF80007F
310
FFC000000001FFFFFC000000001FFFF800000000000000007FFFFFF0001FFFFF
310
FFFFE000000003FFFFFFFFE000000003FFFFFF000000000003FFF000000000FF
310
F000FF80000000007FFFFFF00007FFFF80003FFFFF80007FFF8000000000FFFF
310
F80000000007FFF800000000000000007FFFFFF0001FFFFFFFFFC000000001FF
310
FFFFFFC000000001FFFFFF000000000003FFC0000000007FF000FF0000000000
310
3FFFFFE00007FFFF00003FFFFF80007FFE00000000003FFFF00000000003FFF8
310
00000000000000007FFFFFF0001FFFFFFFFF8000000000FFFFFFFF8000000000
310
FFFFFF000000000003FF80000000003FF000FE00000000001FFFFFE00003FFFF
310
00003FFFFF80007FFC00000000001FFFE00000000001FFF8000001FFFE000000
310
7FFFFFF0001FFFFFFFFE00000000003FFFFFFE00000000003FFFFF0000000000
310
03FF00000000001FF000FC00000000000FFFFFE00003FFFF00001FFFFF80007F
310
F800000000001FFFC00000000000FFF8000001FFFE0000007FFFFFF0001FFFFF
310
FFFC00000000001FFFFFFC00000000001FFFFF000000000003FE00000000000F
310
F000F8000000000007FFFFE00003FFFF00001FFFFF80007FF800000000000FFF
310
800000000000FFF8000001FFFE0000007FFFFFF0001FFFFFFFF800000000000F
310
FFFFF800000000000FFFFF000000000003FC000000000007F000F80000000000
310
03FFFFC00003FFFE00001FFFFF80007FF0000000000007FF0000000000007FF8
310
000001FFFE0000007FFFFFF0001FFFFFFFF0000000000007FFFFF00000000000
310
07FFFF000000000003F8000000000003F000F0000000000003FFFFC00001FFFE
310
00001FFFFF80007FE0000000000007FE0000000000003FF8000001FFFE000000
310
7FFFFFF0001FFFFFFFF0000000000007FFFFF0000000000007FFFF0000000000
310
03F800001F800003F000E00001FFF00001FFFFC00001FFFE00000FFFFF80007F
310
E00001FFE00003FE00001FFF00003FF8000001FFFE0000007FFFFFF0001FFFFF
310
FFE000003E000003FFFFE000003E000003FFFF000000000003F00001FFF80001
310
F000E00007FFFC0001FFFFC00001FFFE00000FFFFF80007FC0000FFFFC0003FC
310
0000FFFFC0001FF8000001FFFE0000007FFFFFF0001FFFFFFFC00003FFE00001
310
FFFFC00003FFE00001FFFF0001FFFFFFFFF00007FFFE0001F000E0000FFFFF00
310
00FFFF800001FFFC00000FFFFF80007FC0001FFFFE0001FC0001FFFFE0001FF8
310
000001FFFE0000007FFFFFF0001FFFFFFF80000FFFF80000FFFF80000FFFF800
310
00FFFF0003FFFFFFFFE0000FFFFF8000F000C0003FFFFF8000FFFF800000FFFC
310
000007FFFF80007F80003FFFFF0001FC0003FFFFF0001FF8000001FFFE000000
310
7FFFFFF0001FFFFFFF80003FFFFE0000FFFF80003FFFFE0000FFFF0003FFFFFF
310
FFE0003FFFFF8000F000C0003FFFFF8000FFFF800000FFFC000007FFFF80007F
310
80007FFFFF8001F80007FFFFF8000FF8000001FFFE0000007FFFFFF0001FFFFF
310
FF00007FFFFF00007FFF00007FFFFF00007FFF0003FFFFFFFFE0003FFFFFC000
310
F000C0007FFFFFC000FFFF000000FFFC000007FFFF80007F8000FFFFFF8000F8
310
000FFFFFF8000FF8000001FFFE0000007FFFFFF0001FFFFFFF0000FFFFFF8000
310
7FFF0000FFFFFF80007FFF0003FFFFFFFFC0007FFFFFC00070008000FFFFFFC0
310
00FFFF000000FFF8000007FFFF80007F8000FFFFFF8000F8000FFFFFF8000FF8
310
000001FFFE0000007FFFFFF0001FFFFFFE0001FFFFFFC0003FFE0001FFFFFFC0
310
003FFF0003FFFFFFFFC0007FFFFFE00070008000FFFFFFC0007FFF0000007FF8
310
000003FFFF80007F0001FFFFFF8000F8000FFFFFF8000FF8000001FFFE000000
310
7FFFFFF0001FFFFFFE0001FFFFFFC0003FFE0001FFFFFFC0003FFF0003FFFFFF
310
FFC000FFFFFFE00070008000FFFFFFC0007FFF0000007FF8000003FFFF80007F
310
0001FFFFFF8000F8001FFFFFF8000FF8000001FFFE0000007FFFFFF0001FFFFF
310
FE0003FFFFFFE0003FFE0003FFFFFFE0003FFF0003FFFFFFFFC000FFFFFFE000
310
70008000FFFFFFC0007FFE0000007FF8000003FFFF80007F0001FFFFFF8000F0
310
001FFFFFF8000FF8000001FFFE0000007FFFFFF0001FFFFFFC0003FFFFFFE000
310
1FFC0003FFFFFFE0001FFF0003FFFFFFFFC000FFFFFFC00070008000FFFFFF80
310
007FFE0000007FF0000003FFFF80007F0001FFFFFF0000F0001FFFFFF8000FF8
310
000001FFFE0000007FFFFFF0001FFFFFFC0007FFFFFFF0001FFC0007FFFFFFF0
310
001FFF0003FFFFFFFFC000FFFFFFC00070008001FFFFFF0000FFFE0000003FF0
310
000001FFFF80007F0001FFFFFF0000F8001FFFFFF0000FF8000001FFFE000000
310
7FFFFFF0001FFFFFFC0007FFFFFFF0001FFC0007FFFFFFF0001FFF0003FFFFFF
310
FFC001FFFFFF80007000FFFFFFFFFE0000FFFE0008003FF0008001FFFF80007F
310
FFFFFFFFFC0000FFFFFFFFFFE0000FF8000001FFFE0000007FFFFFF0001FFFFF
310
F8000FFFFFFFF8000FF8000FFFFFFFF8000FFF0003FFFFFFFFFFFFFFFFFF0000
310
7000FFFFFFFFFC0000FFFC0008003FF0008001FFFF80007FFFFFFFFFF80001FF
310
FFFFFFFF80000FF8000001FFFE0000007FFFFFF0001FFFFFF8000FFFFFFFF800
310
0FF8000FFFFFFFF8000FFF0003FFFFFFFFFFFFFFFFFE0000F000FFFFFFFFE000
310
00FFFC000C003FE000C001FFFF80007FFFFFFFFFC00001FFFFFFFFFE00001FF8
310
000001FFFE0000007FFFFFF0001FFFFFF8000FFFFFFFF8000FF8000FFFFFFFF8
310
000FFF0003FFFFFFFFFFFFFFFFF00000F000FFFFFFFE000001FFFC000C001FE0
310
00C000FFFF80007FFFFFFFFE000001FFFFFFFFE000001FF80FFFFFFFFFFFFFC0
310
7FFFFFF0001FFFFFF8000FFFFFFFF8000FF8000FFFFFFFF8000FFF0003FFFFFF
310
FFFFFFFFFF800000F000FFFFFFC0000001FFFC001C001FE001C000FFFF80007F
310
FFFFFF80000003FFFFFFF80000001FF80FFFFFFFFFFFFFC07FFFFFF0001FFFFF
310
F8001FFFFFFFFC000FF8001FFFFFFFFC000FFF0003FFFFFFFFFFFFFFF0000001
310
F000FFFFF800000001FFF8001C001FE001C000FFFF80007FFFFFF800000003FF
310
FFFF800000003FF80FFFFFFFFFFFFFC07FFFFFF0001FFFFFF8001FFFFFFFFC00
310
0FF8001FFFFFFFFC000FFF0003FFFFFFFFFFFFFE00000001F000FFFFC0000000
310
03FFF8001E001FC001E000FFFF80007FFFFF8000000007FFFFFC000000003FF8
310
0FFFFFFFFFFFFFC07FFFFFF0001FFFFFF8001FFFFFFFFC000FF8001FFFFFFFFC
310
000FFF0003FFFFFFFFFFFFE000000003F000FFFE0000000007FFF8001E000FC0
310
01E0007FFF80007FFFFE0000000007FFFFE0000000007FF80FFFFFFFFFFFFFC0
310
7FFFFFF0001FFFFFF0001FFFFFFFFC0007F0001FFFFFFFFC0007FF0003FFFFFF
310
FFFFFF0000000003F000FFF80000000007FFF8001E000FC003E0007FFF80007F
310
FFF0000000000FFFFF8000000000FFF80FFFFFFFFFFFFFC07FFFFFF0001FFFFF
310
F0001FFFFFFFFC0007F0001FFFFFFFFC0007FF0003FFFFFFFFFFFC0000000007
310
F000FFE0000000000FFFF0003E000FC003E0007FFF80007FFFC0000000001FFF
310
FE0000000001FFF80FFFFFFFFFFFFFC07FFFFFF0001FFFFFF0001FFFFFFFFC00
310
07F0001FFFFFFFFC0007FF0003FFFFFFFFFFF0000000000FF000FFC000000000
310
1FFFF0003F000F8003F0003FFF80007FFF80000000003FFFF80000000003FFF8
310
0FFFFFFFFFFFFFC07FFFFFF0001FFFFFF0001FFFFFFFFC0007F0001FFFFFFFFC
310
0007FF0003FFFFFFFFFFE0000000001FF000FF00000000007FFFF0003F000780
310
03F0003FFF80007FFF00000000007FFFF00000000007FFF80FFFFFFFFFFFFFC0
310
7FFFFFF0001FFFFFF0001FFFFFFFFC0007F0001FFFFFFFFC0007FF0003FFFFFF
310
FFFF80000000007FF000FE0000000000FFFFE0003F00078007F0003FFF80007F
310
FE0000000001FFFFE0000000001FFFF80FFFFFFFFFFFFFC07FFFFFF0001FFFFF
310
F0001FFFFFFFFC0007F0001FFFFFFFFC0007FF0003FFFFFFFFFF0000000000FF
310
F000FC0000000003FFFFE0007F00078007F0003FFF80007FFC0000000007FFFF
310
C0000000007FFFF80FFFFFFFFFFFFFC07FFFFFF0001FFFFFF8001FFFFFFFFC00
310
0FF8001FFFFFFFFC000FFF0003FFFFFFFFFE0000000003FFF000FC000000000F
310
FFFFE0007F80070007F8001FFF80007FF8000000001FFFFF8000000001FFFFF8
310
0FFFFFFFFFFFFFC07FFFFFF0001FFFFFF8001FFFFFFFFC000FF8001FFFFFFFFC
310
000FFF0003FFFFFFFFFC000000000FFFF000F8000000007FFFFFE0007F800700
310
07F8001FFF80007FF000000000FFFFFF800000000FFFFFF80FFFFFFFFFFFFFC0
310
7FFFFFF0001FFFFFF8000FFFFFFFF8000FF8000FFFFFFFF8000FFF0003FFFFFF
310
FFFC000000007FFFF000F800000007FFFFFFC0007F8003000FF8001FFF80007F
310
F000000007FFFFFF000000007FFFFFF80FFFFFFFFFFFFFC07FFFFFF0001FFFFF
310
F8000FFFFFFFF8000FF8000FFFFFFFF8000FFF0003FFFFFFFFF80000000FFFFF
310
F000F0000000FFFFFFFFC000FF8003000FF8001FFF80007FE0000000FFFFFFFF
310
0000000FFFFFFFF8000001FFFE0000007FFFFFF0001FFFFFF8000FFFFFFFF800
310
0FF8000FFFFFFFF8000FFF0003FFFFFFFFF8000000FFFFFFF000F000000FFFFF
310
FFFFC000FFC002000FF8000FFF80007FE000001FFFFFFFFE000001FFFFFFFFF8
310
000001FFFE0000007FFFFFF0001FFFFFF8000FFFFFFFF8000FF8000FFFFFFFF8
310
000FFF0003FFFFFFFFF000001FFFFFFFF000E00000FFFFFFFFFFC000FFC00200
310
0FFC000FFF80007FE00001FFFFFFFFFE00001FFFFFFFFFF8000001FFFE000000
310
7FFFFFF0001FFFFFFC000FFFFFFFF8001FFC000FFFFFFFF8001FFF0003FFFFFF
310
FFF00001FFFFFFFFF000E00007FFFFFFFFFF8000FFC000001FFC000FFF80007F
310
C0000FFFFFFFFFFE0000FFFFFFFFFFF8000001FFFE0000007FFFFFF0001FFFFF
310
FC0007FFFFFFF0001FFC0007FFFFFFF0001FFF0003FFFFFFFFF00007FFFFFFFF
310
F000E0001FFFFFFFFFFF8000FFC000001FFC000FFF80007FC0003FFFFFFFFFFE
310
0001FFFFFFFFFFF8000001FFFE0000007FFFFFF0001FFFFFFC0007FFFFFFF000
310
1FFC0007FFFFFFF0001FFF0003FFFFFFFFF0001FFFFFFFFFF000E0003FFFFF00
310
03FF8001FFE000001FFC0007FF80007FC0007FFFFF0007FC0003FFFFF0003FF8
310
000001FFFE0000007FFFFFF0001FFFFFFC0003FFFFFFE0001FFC0003FFFFFFE0
310
001FFF0003FFFFFFFFF0003FFFFFFFFFF000E0003FFFFF0001FF8001FFE00000
310
1FFE0007FF80007FC0007FFFFE0003FC0007FFFFE0003FF8000001FFFE000000
310
7FFFFFF0001FFFFFFE0003FFFFFFE0003FFE0003FFFFFFE0003FFF0003FFFFFF
310
FFF0003FFFFF8001F000E0003FFFFF0001FF0001FFE000001FFE0007FF80007F
310
C0007FFFFE0003FC0007FFFFE0003FF8000001FFFE0000007FFFFFF0001FFFFF
310
FE0001FFFFFFC0003FFE0001FFFFFFC0003FFF0003FFFFFFFFF0003FFFFF0001
310
F000E0003FFFFF0003FF0001FFE000003FFE0007FF80007FC0007FFFFE0003FC
310
0007FFFFE0003FF8000001FFFE0000007FFFFFF0001FFFFFFF0001FFFFFFC000
310
7FFF0001FFFFFFC0007FFF0003FFFFFFFFF0003FFFFF0001F000E0003FFFFE00
310
03FF0003FFF000003FFE0003FF80007FC0007FFFFC0003FE0007FFFFE0003FF8
310
000001FFFE0000007FFFFFF0001FFFFFFF0000FFFFFF80007FFF0000FFFFFF80
310
007FFF0003FFFFFFFFF0003FFFFF0001F000E0003FFFFE0003FF0003FFF00000
310
3FFF0003FF80007FC0007FFFFC0007FE0007FFFFC0003FF8000001FFFE000000
310
7FFFFFF0001FFFFFFF80007FFFFF0000FFFF80007FFFFF0000FFFF0003FFFFFF
310
FFF0003FFFFF0003F000E0003FFFFC0003FE0003FFF000003FFF0003FF80007F
310
E0003FFFF80007FE0003FFFFC0007FF8000001FFFE0000007FFFFFF0001FFFFF
310
FF80003FFFFE0000FFFF80003FFFFE0000FFFF0003FFFFFFFFF0001FFFFE0003
310
F000F0001FFFF80003FE0003FFF000007FFF0001FF80007FE0003FFFF00007FE
310
0001FFFF80007FF8000001FFFE0000007FFFFFF0001FFFFFFFC0000FFFF80001
310
FFFFC0000FFFF80001FFFF0003FFFFFFFFF0001FFFFC0003F000F0000FFFF000
310
07FE0007FFF800007FFF0001FF80007FE0001FFFE00007FF0000FFFE00007FF8
310
000001FFFE0000007FFFFFF0001FFFFFFFC00003FFE00001FFFFC00003FFE000
310
01FFFF0003FFFFFFFFF8000FFFF80003F000F00003FFC00007FC0007FFF80000
310
7FFF8001FF80007FF00007FF80000FFF00007FF80000FFF8000001FFFE000000
310
7F80000000000001FFE000003E000003FFFFE000003E000003FFFF0003FFFFFF
310
FFF80003FFE00007F000F800000000000FFC0007FFF800007FFF8001FF80007F
310
F000000000000FFF000000000000FFF8000001FFFE0000007F80000000000001
310
FFF0000000000007FFFFF0000000000007FFFF0003FFFFFFFFFC00007E000007
310
F000F800000000000FFC0007FFF80000FFFF8000FF80007FF800000000001FFF
310
800000000001FFF8000001FFFE0000007F80000000000001FFF800000000000F
310
FFFFF800000000000FFFFF0003FFFFFFFFFC00000000000FF000FC0000000000
310
1FFC0007FFFC0000FFFF8000FF80007FF800000000003FFFC00000000001FFF8
310
000001FFFE0000007F80000000000001FFF800000000000FFFFFF80000000000
310
0FFFFF0003FFFFFFFFFE00000000001FF000FE00000000003FF8000FFFFC0000
310
FFFF8000FF80007FFC00000000003FFFC00000000003FFF8000001FFFE000000
310
7F80000000000001FFFC00000000001FFFFFFC00000000001FFFFF0003FFFFFF
310
FFFF00000000001FF000FF00000000003FF8000FFFFC0000FFFFC000FF80007F
310
FE00000000007FFFE00000000007FFF8000001FFFE0000007F80000000000001
310
FFFE00000000003FFFFFFE00000000003FFFFF0003FFFFFFFFFF80000000003F
310
F000FF80000000007FF8000FFFFC0001FFFFC0007F80007FFF0000000000FFFF
310
F0000000000FFFF800000000000000007F80000000000001FFFF8000000000FF
310
FFFFFF8000000000FFFFFF0003FFFFFFFFFFC0000000007FF000FFC000000000
310
FFF8000FFFFE0001FFFFC0007F80007FFF8000000001FFFFF8000000001FFFF8
310
00000000000000007F80000000000001FFFFC000000001FFFFFFFFC000000001
310
FFFFFF0003FFFFFFFFFFE000000000FFF000FFE000000003FFF0001FFFFE0001
310
FFFFC0007F80007FFFC000000007FFFFFE000000003FFFF80000000000000000
310
7F80000000000001FFFFE000000003FFFFFFFFE000000003FFFFFF0003FFFFFF
310
FFFFF000000003FFF000FFF80000000FFFF0001FFFFE0001FFFFE0007F80007F
310
FFF00000000FFFFFFF00000000FFFFF800000000000000007F80000000000001
310
FFFFF80000000FFFFFFFFFF80000000FFFFFFF0003FFFFFFFFFFFC0000000FFF
310
F000FFFE0000003FFFF0001FFFFE0003FFFFE0003F80007FFFFC0000003FFFFF
310
FFC0000003FFFFF800000000000000007F80000000000001FFFFFE0000003FFF
310
FFFFFFFE0000003FFFFFFF0003FFFFFFFFFFFF0000003FFFF000FFFF800000FF
310
FFF0001FFFFF0003FFFFE0003F80007FFFFF000001FFFFFFFFF800001FFFFFF8
310
00000000000000007F80000000000001FFFFFFC00001FFFFFFFFFFFFC00001FF
310
FFFFFF0003FFFFFFFFFFFFC00000FFFFF000FFFFF8000FFFFFFFFFFFFFFFFFFF
310
FFFFFFFFFFFFFFFFFFFFF0001FFFFFFFFFFF0000FFFFFFF80000000000000000
310
7FFFFFFFFFFFFFFFFFFFFFFC001FFFFFFFFFFFFFFC001FFFFFFFFFFFFFFFFFFF
310
FFFFFFFC001FFFFFF000FFFFFFFFFFFFFFFFFFFFFFFFFFFFFFFFFFFFFFFFFFFF
310
FFFFFFFFFFFFFFFFFFFFFFFFFFFFFFFFFFFFFFFFFFFFFFFFFFFFFFFFFFFFFFFF
310
FFFFFFFFFFFFFFFFFFFFFFFFFFFFFFFFFFFFFFFFFFFFFFFFFFFFFFFFFFFFFFFF
310
F000FFFFFFFFFFFFFFFFFFFFFFFFFFFFFFFFFFFFFFFFFFFFFFFFFFFFFFFFFFFF
310
FFFFFFFFFFFFFFFFFFFFFFFFFFFFFFFFFFFFFFFFFFFFFFFFFFFFFFFFFFFFFFFF
310
FFFFFFFFFFFFFFFFFFFFFFFFFFFFFFFFFFFFFFFFFFFFFFFFF000FFFFFFFFFFFF
310
FFFFFFFFFFFFFFFFFFFFFFFFFFFFFFFFFFFFFFFFFFFFFFFFFFFFFFFFFFFFFFFF
310
FFFFFFFFFFFFFFFFFFFFFFFFFFFFFFFFFFFFFFFFFFFFFFFFFFFFFFFFFFFFFFFF
310
FFFFFFFFFFFFFFFFFFFFFFFFFFFFFFFFF000FFFFFFFFFFFFFFFFFFFFFFFFFFFF
310
FFFFFFFFFFFFFFFFFFFFFFFFFFFFFFFFFFFFFFFFFFFFFFFFFFFFFFFFFFFFFFFF
310
FFFFFFFFFFFFFFFFFFFFFFFFFFFFFFFFFFFFFFFFFFFFFFFFFFFFFFFFFFFFFFFF
310
FFFFFFFFFFFFFFFFF000FFFFFFFFFFFFFFFFFFFFFFFFFFFFFFFFFFFFFFFFFFFF
310
FFFFFFFFFFFFFFFFFFFFFFFFFFFFFFFFFFFFFFFFFFFFFFFFFFFFFFFFFFFFFFFF
310
FFFFFFFFFFFFFFFFFFFFFFFFFFFFFFFFFFFFFFFFFFFFFFFFFFFFFFFFFFFFFFFF
310
F000FFFFFFFFFFFFFFFFFFFFFFFFFFFFFFFFFFFFFFFFFFFFFFFFFFFFFFFFFFFF
310
FFFFFFFFFFFFFFFFFFFFFFFFFFFFFFFFFFFFFFFFFFFFFFFFFFFFFFFFFFFFFFFF
310
FFFFFFFFFFFFFFFFFFFFFFFFFFFFFFFFFFFFFFFFFFFFFFFFF000FFFFFFFFFFFF
310
FFFFFFFFFFFFFFFFFFFFFFFFFFFFFFFFFFFFFFFFFFFFFFFFFFFFFFFFFFFFFFFF
310
FFFFFFFFFFFFFFFFFFFFFFFFFFFFFFFFFFFFFFFFFFFFFFFFFFFFFFFFFFFFFFFF
310
FFFFFFFFFFFFFFFFFFFFFFFFFFFFFFFFF000FFFFFFFFFFFFFFFFFFFFFFFFFFFF
310
FFFFFFFFFFFFFFFFFFFFFFFFFFFFFFFFFFFFFFFFFFFFFFFFFFFFFFFFFFFFFFFF
310
FFFFFFFFFFFFFFFFFFFFFFFFFFFFFFFFFFFFFFFFFFFFFFFFFFFFFFFFFFFFFFFF
310
FFFFFFFFFFFFFFFFF000FFFFFFFFFFFFFFFFFFFFFFFFFFFFFFFFFFFFFFFFFFFF
310
FFFFFFFFFFFFFFFFFFFFFFFFFFFFFFFFFFFFFFFFFFFFFFFFFFFFFFFFFFFFFFFF
310
FFFFFFFFFFFFFFFFFFFFFFFFFFFFFFFFFFFFFFFFFFFFFFFFFFFFFFFFFFFFFFFF
310
F000FFFFFFFFFFFFFFFFFFFFFFFFFFFFFFFFFFFFFFFFFFFFFFFFFFFFFFFFFFFF
310
FFFFFFFFFFFFFFFFFFFFFFFFFFFFFFFFFFFFFFFFFFFFFFFFFFFFFFFFFFFFFFFF
310
FFFFFFFFFFFFFFFFFFFFFFFFFFFFFFFFFFFFFFFFFFFFFFFFF000FFFFFFFFFFFF
310
FFFFFFFFFFFFFFFFFFFFFFFFFFFFFFFFFFFFFFFFFFFFFFFFFFFFFFFFFFFFFFFF
310
FFFFFFFFFFFFFFFFFFFFFFFFFFFFFFFFFFFFFFFFFFFFFFFFFFFFFFFFFFFFFFFF
310
FFFFFFFFFFFFFFFFFFFFFFFFFFFFFFFFF000FFFFFFFFFFFFFFFFFFFFFFFFFFFF
310
FFFFFFFFFFFFFFFFFFFFFFFFFFFFFFFFFFFFFFFFFFFFFFFFFFFFFFFFFFFFFFFF
310
FFFFFFFFFFFFFFFFFFFFFFFFFFFFFFFFFFFFFFFFFFFFFFFFFFFFFFFFFFFFFFFF
310
FFFFFFFFFFFFFFFFF000FFFFFFFFFFFFFFFFFFFFFFFFFFFFFFFFFFFFFFFFFFFF
310
FFFFFFFFFFFFFFFFFFFFFFFFFFFFFFFFFFFFFFFFFFFFFFFFFFFFFFFFFFFFFFFF
310
FFFFFFFFFFFFFFFFFFFFFFFFFFFFFFFFFFFFFFFFFFFFFFFFFFFFFFFFFFFFFFFF
310
F000FFFFFFFFFFFFFFFFFFFFFFFFFFFFFFFFFFFFFFFFFFFFFFFFFFFFFFFFFFFF
310
FFFFFFFFFFFFFFFFFFFFFFFFFFFFFFFFFFFFFFFFFFFFFFFFFFFFFFFFFFFFFFFF
310
FFFFFFFFFFFFFFFFFFFFFFFFFFFFFFFFFFFFFFFFFFFFFFFFF000FFFFFFFFFFFF
310
FFFFFFFFFFFFFFFFFFFFFFFFFFFFFFFFFFFFFFFFFFFFFFFFFFFFFFFFFFFFFFFF
310
FFFFFFFFFFFFFFFFFFFFFFFFFFFFFFFFFFFFFFFFFFFFFFFFFFFFFFFFFFFFFFFF
310
FFFFFFFFFFFFFFFFFFFFFFFFFFFFFFFFF000FFFFFFFFFFFFFFFFFFFFFFFFFFFF
310
FFFFFFFFFFFFFFFFFFFFFFFFFFFFFFFFFFFFFFFFFFFFFFFFFFFFFFFFFFFFFFFF
310
FFFFFFFFFFFFFFFFFFFFFFFFFFFFFFFFFFFFFFFFFFFFFFFFFFFFFFFFFFFFFFFF
310
FFFFFFFFFFFFFFFFF000FFFFFFFFFFFFFFFFFFFFFFFFFFFFFFFFFFFFFFFFFFFF
310
FFFFFFFFFFFFFFFFFFFFFFFFFFFFFFFFFFFFFFFFFFFFFFFFFFFFFFFFFFFFFFFF
310
FFFFFFFFFFFFFFFFFFFFFFFFFFFFFFFFFFFFFFFFFFFFFFFFFFFFFFFFFFFFFFFF
310
F000FFFFFFFFFFFFFFFFFFFFFFFFFFFFFFFFFFFFFFFFFFFFFFFFFFFFFFFFFFFF
310
FFFFFFFFFFFFFFFFFFFFFFFFFFFFFFFFFFFFFFFFFFFFFFFFFFFFFFFFFFFFFFFF
310
FFFFFFFFFFFFFFFFFFFFFFFFFFFFFFFFFFFFFFFFFFFFFFFFF000FFFFFFFFFFFF
310
FFFFFFFFFFFFFFFFFFFFFFFFFFFFFFFFFFFFFFFFFFFFFFFFFFFFFFFFFFFFFFFF
310
FFFFFFFFFFFFFFFFFFFFFFFFFFFFFFFFFFFFFFFFFFFFFFFFFFFFFFFFFFFFFFFF
310
FFFFFFFFFFFFFFFFFFFFFFFFFFFFFFFFF000FFFFFFFFFFFFFFFFFFFFFFFFFFFF
310
FFFFFFFFFFFFFFFFFFFFFFFFFFFFFFFFFFFFFFFFFFFFFFFFFFFFFFFFFFFFFFFF
310
FFFFFFFFFFFFFFFFFFFFFFFFFFFFFFFFFFFFFFFFFFFFFFFFFFFFFFFFFFFFFFFF
310
FFFFFFFFFFFFFFFFF000FFFFFFFFFFFFFFFFFFFFFFFFFFFFFFFFFFFFFFFFFFFF
310
FFFFFFFFFFFFFFFFFFFFFFFFFFFFFFFFFFFFFFFFFFFFFFFFFFFFFFFFFFFFFFFF
310
FFFFFFFFFFFFFFFFFFFFFFFFFFFFFFFFFFFFFFFFFFFFFFFFFFFFFFFFFFFFFFFF
310
F000FFFFFFFFFFFFFFFFFFFFFFFFFFFFFFFFFFFFFFFFFFFFFFFFFFFFFFFFFFFF
310
FFFFFFFFFFFFFFFFFFFFFFFFFFFFFFFFFFFFFFFFFFFFFFFFFFFFFFFFFFFFFFFF
310
FFFFFFFFFFFFFFFFFFFFFFFFFFFFFFFFFFFFFFFFFFFFFFFFF000FFFFFFFFFFFF
310
FFFFFFFFFFFFFFFFFFFFFFFFFFFFFFFFFFFFFFFFFFFFFFFFFFFFFFFFFFFFFFFF
310
FFFFFFFFFFFFFFFFFFFFFFFFFFFFFFFFFFFFFFFFFFFFFFFFFFFFFFFFFFFFFFFF
310
FFFFFFFFFFFFFFFFFFFFFFFFFFFFFFFFF0000000000000000000000000000000
310
0000000000000000000000000000000000000000000000000000000000000000
310
0000000000000000000000000000000000000000000000000000000000000000
310
0000000000000000000000000000000000000000000000000000000000000000
310
0000000000000000000000000000000000000000000000000000000000000000
310
0000000000000000000000000000000000000000000000000000000000000000
310
0000000000000000000000000000000000000000000000000000000000000000
310
0000000000000000000000000000000000000000000000000000000000000000
310
0000000000000000000000000000000000000000000000000000000000000000
310
0000000000000000000000000000000000000000000000000000000000000000
310
0000000000000000000000000000000000000000000000000000000000000000
310
0000000000000000000000000000000000000000000000000000000000000000
310
0000000000000000000000000000000000000000000000000000000000000000
310
0000000000000000000000000000000000000000000000000000000000000000
310
0000000000000000000000000000000000000000000000000000000000000000
310
0000000000000000000000000000000000000000000000000000000000000000
  1
OLE
  0
ENDSEC
  0
SECTION
  2
OBJECTS
  0
DICTIONARY
  5
C
330
0
100
AcDbDictionary
281
     1
  3
ACAD_GROUP
350
D
  3
ACAD_LAYOUT
350
1A
  3
ACAD_MLINESTYLE
350
17
  3
ACAD_PLOTSETTINGS
350
19
  3
ACAD_PLOTSTYLENAME
350
E
  3
ACAD_SCALELIST
350
47
  0
DICTIONARY
  5
D
102
{ACAD_REACTORS
330
C
102
}
330
C
100
AcDbDictionary
281
     1
  0
DICTIONARY
  5
1A
102
{ACAD_REACTORS
330
C
102
}
330
C
100
AcDbDictionary
281
     1
  3
Layout1
350
1E
  3
Layout2
350
26
  3
Model
350
22
  0
DICTIONARY
  5
17
102
{ACAD_REACTORS
330
C
102
}
330
C
100
AcDbDictionary
281
     1
  3
Standard
350
18
  0
DICTIONARY
  5
19
102
{ACAD_REACTORS
330
C
102
}
330
C
100
AcDbDictionary
281
     1
  0
ACDBDICTIONARYWDFLT
  5
E
102
{ACAD_REACTORS
330
C
102
}
330
C
100
AcDbDictionary
281
     1
  3
Normal
350
F
100
AcDbDictionaryWithDefault
340
F
  0
DICTIONARY
  5
47
102
{ACAD_REACTORS
330
C
102
}
330
C
100
AcDbDictionary
281
     1
  3
A0
350
48
  3
A1
350
49
  3
A2
350
4A
  3
A3
350
4B
  3
A4
350
4C
  3
A5
350
4D
  3
A6
350
4E
  3
A7
350
4F
  3
A8
350
50
  3
A9
350
51
  3
B0
350
52
  3
B1
350
53
  3
B2
350
54
  3
B3
350
55
  3
B4
350
56
  3
B5
350
57
  3
B6
350
58
  3
B7
350
59
  3
B8
350
5A
  3
B9
350
5B
  3
C0
350
5C
  3
C1
350
5D
  3
C2
350
5E
  3
C3
350
5F
  3
C4
350
60
  3
C5
350
61
  3
C6
350
62
  3
C7
350
63
  3
C8
350
64
  3
C9
350
65
  3
D0
350
66
  3
D1
350
67
  3
D2
350
68
  0
LAYOUT
  5
1E
102
{ACAD_REACTORS
330
1A
102
}
330
1A
100
AcDbPlotSettings
  1

  2
none_device
  4

  6

 40
0.0
 41
0.0
 42
0.0
 43
0.0
 44
0.0
 45
0.0
 46
0.0
 47
0.0
 48
0.0
 49
0.0
140
0.0
141
0.0
142
1.0
143
1.0
 70
   688
 72
     1
 73
     0
 74
     5
  7

 75
    16
147
1.0
148
0.0
149
0.0
100
AcDbLayout
  1
Layout1
 70
     1
 71
     1
 10
0.0
 20
0.0
 11
420.0
 21
297.0
 12
0.0
 22
0.0
 32
0.0
 14
1.0000000000E+20
 24
1.0000000000E+20
 34
1.0000000000E+20
 15
-1.0000000000E+20
 25
-1.0000000000E+20
 35
-1.0000000000E+20
146
0.0
 13
0.0
 23
0.0
 33
0.0
 16
1.0
 26
0.0
 36
0.0
 17
0.0
 27
1.0
 37
0.0
 76
     0
330
1B
  0
LAYOUT
  5
26
102
{ACAD_REACTORS
330
1A
102
}
330
1A
100
AcDbPlotSettings
  1

  2
none_device
  4

  6

 40
0.0
 41
0.0
 42
0.0
 43
0.0
 44
0.0
 45
0.0
 46
0.0
 47
0.0
 48
0.0
 49
0.0
140
0.0
141
0.0
142
1.0
143
1.0
 70
   688
 72
     1
 73
     0
 74
     5
  7

 75
    16
147
1.0
148
0.0
149
0.0
100
AcDbLayout
  1
Layout2
 70
     1
 71
     2
 10
0.0
 20
0.0
 11
0.0
 21
0.0
 12
0.0
 22
0.0
 32
0.0
 14
0.0
 24
0.0
 34
0.0
 15
0.0
 25
0.0
 35
0.0
146
0.0
 13
0.0
 23
0.0
 33
0.0
 16
1.0
 26
0.0
 36
0.0
 17
0.0
 27
1.0
 37
0.0
 76
     0
330
23
  0
LAYOUT
  5
22
102
{ACAD_REACTORS
330
1A
102
}
330
1A
100
AcDbPlotSettings
  1

  2
none_device
  4
Letter_(8.50_x_11.00_Inches)
  6

 40
6.35
 41
6.35
 42
6.35000508
 43
6.35000508
 44
215.9
 45
279.4
 46
0.0
 47
0.0
 48
0.0
 49
0.0
140
0.0
141
0.0
142
1.0
143
1.0
 70
  1712
 72
     1
 73
     0
 74
     0
  7

 75
     0
147
1.0
148
0.0
149
0.0
100
AcDbLayout
  1
Model
 70
     1
 71
     0
 10
0.0
 20
0.0
 11
297.0
 21
210.0
 12
0.0
 22
0.0
 32
0.0
 14
0.0
 24
0.0
 34
0.0
 15
297.0
 25
210.0
 35
0.0
146
0.0
 13
0.0
 23
0.0
 33
0.0
 16
1.0
 26
0.0
 36
0.0
 17
0.0
 27
1.0
 37
0.0
 76
     0
330
1F
331
29
  0
MLINESTYLE
  5
18
102
{ACAD_REACTORS
330
17
102
}
330
17
100
AcDbMlineStyle
  2
Standard
 70
     0
  3

 62
   256
 51
90.0
 52
90.0
 71
     2
 49
0.5
 62
   256
  6
BYLAYER
 49
-0.5
 62
   256
  6
BYLAYER
  0
ACDBPLACEHOLDER
  5
F
102
{ACAD_REACTORS
330
E
102
}
330
E
  0
SCALE
  5
48
102
{ACAD_REACTORS
330
47
102
}
330
47
100
AcDbScale
 70
     0
300
1:1
140
1.0
141
1.0
290
     1
  0
SCALE
  5
49
102
{ACAD_REACTORS
330
47
102
}
330
47
100
AcDbScale
 70
     0
300
1:2
140
1.0
141
2.0
290
     0
  0
SCALE
  5
4A
102
{ACAD_REACTORS
330
47
102
}
330
47
100
AcDbScale
 70
     0
300
1:4
140
1.0
141
4.0
290
     0
  0
SCALE
  5
4B
102
{ACAD_REACTORS
330
47
102
}
330
47
100
AcDbScale
 70
     0
300
1:5
140
1.0
141
5.0
290
     0
  0
SCALE
  5
4C
102
{ACAD_REACTORS
330
47
102
}
330
47
100
AcDbScale
 70
     0
300
1:8
140
1.0
141
8.0
290
     0
  0
SCALE
  5
4D
102
{ACAD_REACTORS
330
47
102
}
330
47
100
AcDbScale
 70
     0
300
1:10
140
1.0
141
10.0
290
     0
  0
SCALE
  5
4E
102
{ACAD_REACTORS
330
47
102
}
330
47
100
AcDbScale
 70
     0
300
1:16
140
1.0
141
16.0
290
     0
  0
SCALE
  5
4F
102
{ACAD_REACTORS
330
47
102
}
330
47
100
AcDbScale
 70
     0
300
1:20
140
1.0
141
20.0
290
     0
  0
SCALE
  5
50
102
{ACAD_REACTORS
330
47
102
}
330
47
100
AcDbScale
 70
     0
300
1:30
140
1.0
141
30.0
290
     0
  0
SCALE
  5
51
102
{ACAD_REACTORS
330
47
102
}
330
47
100
AcDbScale
 70
     0
300
1:40
140
1.0
141
40.0
290
     0
  0
SCALE
  5
52
102
{ACAD_REACTORS
330
47
102
}
330
47
100
AcDbScale
 70
     0
300
1:50
140
1.0
141
50.0
290
     0
  0
SCALE
  5
53
102
{ACAD_REACTORS
330
47
102
}
330
47
100
AcDbScale
 70
     0
300
1:100
140
1.0
141
100.0
290
     0
  0
SCALE
  5
54
102
{ACAD_REACTORS
330
47
102
}
330
47
100
AcDbScale
 70
     0
300
2:1
140
2.0
141
1.0
290
     0
  0
SCALE
  5
55
102
{ACAD_REACTORS
330
47
102
}
330
47
100
AcDbScale
 70
     0
300
4:1
140
4.0
141
1.0
290
     0
  0
SCALE
  5
56
102
{ACAD_REACTORS
330
47
102
}
330
47
100
AcDbScale
 70
     0
300
8:1
140
8.0
141
1.0
290
     0
  0
SCALE
  5
57
102
{ACAD_REACTORS
330
47
102
}
330
47
100
AcDbScale
 70
     0
300
10:1
140
10.0
141
1.0
290
     0
  0
SCALE
  5
58
102
{ACAD_REACTORS
330
47
102
}
330
47
100
AcDbScale
 70
     0
300
100:1
140
100.0
141
1.0
290
     0
  0
SCALE
  5
59
102
{ACAD_REACTORS
330
47
102
}
330
47
100
AcDbScale
 70
     0
300
1/128" = 1'-0"
140
0.0078125
141
12.0
290
     0
  0
SCALE
  5
5A
102
{ACAD_REACTORS
330
47
102
}
330
47
100
AcDbScale
 70
     0
300
1/64" = 1'-0"
140
0.015625
141
12.0
290
     0
  0
SCALE
  5
5B
102
{ACAD_REACTORS
330
47
102
}
330
47
100
AcDbScale
 70
     0
300
1/32" = 1'-0"
140
0.03125
141
12.0
290
     0
  0
SCALE
  5
5C
102
{ACAD_REACTORS
330
47
102
}
330
47
100
AcDbScale
 70
     0
300
1/16" = 1'-0"
140
0.0625
141
12.0
290
     0
  0
SCALE
  5
5D
102
{ACAD_REACTORS
330
47
102
}
330
47
100
AcDbScale
 70
     0
300
3/32" = 1'-0"
140
0.09375
141
12.0
290
     0
  0
SCALE
  5
5E
102
{ACAD_REACTORS
330
47
102
}
330
47
100
AcDbScale
 70
     0
300
1/8" = 1'-0"
140
0.125
141
12.0
290
     0
  0
SCALE
  5
5F
102
{ACAD_REACTORS
330
47
102
}
330
47
100
AcDbScale
 70
     0
300
3/16" = 1'-0"
140
0.1875
141
12.0
290
     0
  0
SCALE
  5
60
102
{ACAD_REACTORS
330
47
102
}
330
47
100
AcDbScale
 70
     0
300
1/4" = 1'-0"
140
0.25
141
12.0
290
     0
  0
SCALE
  5
61
102
{ACAD_REACTORS
330
47
102
}
330
47
100
AcDbScale
 70
     0
300
3/8" = 1'-0"
140
0.375
141
12.0
290
     0
  0
SCALE
  5
62
102
{ACAD_REACTORS
330
47
102
}
330
47
100
AcDbScale
 70
     0
300
1/2" = 1'-0"
140
0.5
141
12.0
290
     0
  0
SCALE
  5
63
102
{ACAD_REACTORS
330
47
102
}
330
47
100
AcDbScale
 70
     0
300
3/4" = 1'-0"
140
0.75
141
12.0
290
     0
  0
SCALE
  5
64
102
{ACAD_REACTORS
330
47
102
}
330
47
100
AcDbScale
 70
     0
300
1" = 1'-0"
140
1.0
141
12.0
290
     0
  0
SCALE
  5
65
102
{ACAD_REACTORS
330
47
102
}
330
47
100
AcDbScale
 70
     0
300
1-1/2" = 1'-0"
140
1.5
141
12.0
290
     0
  0
SCALE
  5
66
102
{ACAD_REACTORS
330
47
102
}
330
47
100
AcDbScale
 70
     0
300
3" = 1'-0"
140
3.0
141
12.0
290
     0
  0
SCALE
  5
67
102
{ACAD_REACTORS
330
47
102
}
330
47
100
AcDbScale
 70
     0
300
6" = 1'-0"
140
6.0
141
12.0
290
     0
  0
SCALE
  5
68
102
{ACAD_REACTORS
330
47
102
}
330
47
100
AcDbScale
 70
     0
300
1'-0" = 1'-0"
140
12.0
141
12.0
290
     0
  0
ENDSEC
  0
EOF
