  0
SECTION
  2
HEADER
  9
$ACADVER
  1
AC1015
  9
$ACADMAINTVER
 70
     6
  9
$DWGCODEPAGE
  3
ANSI_1252
  9
$INSBASE
 10
0.0
 20
0.0
 30
0.0
  9
$EXTMIN
 10
0.0
 20
0.0
 30
0.0
  9
$EXTMAX
 10
297.0
 20
210.0
 30
0.0
  9
$LIMMIN
 10
0.0
 20
0.0
  9
$LIMMAX
 10
297.0
 20
210.0
  9
$ORTHOMODE
 70
     0
  9
$REGENMODE
 70
     1
  9
$FILLMODE
 70
     1
  9
$QTEXTMODE
 70
     0
  9
$MIRRTEXT
 70
     1
  9
$LTSCALE
 40
1.0
  9
$ATTMODE
 70
     1
  9
$TEXTSIZE
 40
2.0
  9
$TRACEWID
 40
1.0
  9
$TEXTSTYLE
  7
Standard
  9
$CLAYER
  8
0
  9
$CELTYPE
  6
ByLayer
  9
$CECOLOR
 62
   256
  9
$CELTSCALE
 40
1.0
  9
$DISPSILH
 70
     0
  9
$DIMSCALE
 40
1.0
  9
$DIMASZ
 40
3.0
  9
$DIMEXO
 40
0.0
  9
$DIMDLI
 40
3.75
  9
$DIMRND
 40
0.0
  9
$DIMDLE
 40
0.0
  9
$DIMEXE
 40
1.0
  9
$DIMTP
 40
0.0
  9
$DIMTM
 40
0.0
  9
$DIMTXT
 40
2.0
  9
$DIMCEN
 40
2.5
  9
$DIMTSZ
 40
0.0
  9
$DIMTOL
 70
     0
  9
$DIMLIM
 70
     0
  9
$DIMTIH
 70
     1
  9
$DIMTOH
 70
     1
  9
$DIMSE1
 70
     0
  9
$DIMSE2
 70
     0
  9
$DIMTAD
 70
     1
  9
$DIMZIN
 70
     0
  9
$DIMBLK
  1

  9
$DIMASO
 70
     1
  9
$DIMSHO
 70
     1
  9
$DIMPOST
  1

  9
$DIMAPOST
  1

  9
$DIMALT
 70
     0
  9
$DIMALTD
 70
     3
  9
$DIMALTF
 40
0.0393700787
  9
$DIMLFAC
 40
1.0
  9
$DIMTOFL
 70
     1
  9
$DIMTVP
 40
0.0
  9
$DIMTIX
 70
     0
  9
$DIMSOXD
 70
     0
  9
$DIMSAH
 70
     0
  9
$DIMBLK1
  1

  9
$DIMBLK2
  1

  9
$DIMSTYLE
  2
ISO-25
  9
$DIMCLRD
 70
     0
  9
$DIMCLRE
 70
     0
  9
$DIMCLRT
 70
     0
  9
$DIMTFAC
 40
1.0
  9
$DIMGAP
 40
1.524
  9
$DIMJUST
 70
     0
  9
$DIMSD1
 70
     0
  9
$DIMSD2
 70
     0
  9
$DIMTOLJ
 70
     0
  9
$DIMTZIN
 70
     0
  9
$DIMALTZ
 70
     0
  9
$DIMALTTZ
 70
     0
  9
$DIMUPT
 70
     0
  9
$DIMDEC
 70
     2
  9
$DIMTDEC
 70
     3
  9
$DIMALTU
 70
     2
  9
$DIMALTTD
 70
     3
  9
$DIMTXSTY
  7
Standard
  9
$DIMAUNIT
 70
     0
  9
$DIMADEC
 70
     2
  9
$DIMALTRND
 40
0.0
  9
$DIMAZIN
 70
     0
  9
$DIMDSEP
 70
    44
  9
$DIMATFIT
 70
     3
  9
$DIMFRAC
 70
     0
  9
$DIMLDRBLK
  1

  9
$DIMLUNIT
 70
     2
  9
$DIMLWD
 70
    -2
  9
$DIMLWE
 70
    -2
  9
$DIMTMOVE
 70
     0
  9
$LUNITS
 70
     2
  9
$LUPREC
 70
     2
  9
$SKETCHINC
 40
1.0
  9
$FILLETRAD
 40
10.0
  9
$AUNITS
 70
     0
  9
$AUPREC
 70
     2
  9
$MENU
  1
.
  9
$ELEVATION
 40
0.0
  9
$PELEVATION
 40
0.0
  9
$THICKNESS
 40
0.0
  9
$LIMCHECK
 70
     0
  9
$CHAMFERA
 40
0.0
  9
$CHAMFERB
 40
0.0
  9
$CHAMFERC
 40
0.0
  9
$CHAMFERD
 40
0.0
  9
$SKPOLY
 70
     0
  9
$TDCREATE
 40
2457668.441888438
  9
$TDUCREATE
 40
2457668.358555104
  9
$TDUPDATE
 40
2457668.441889815
  9
$TDUUPDATE
 40
2457668.358556482
  9
$TDINDWG
 40
0.0000000116
  9
$TDUSRTIMER
 40
0.0000000116
  9
$USRTIMER
 70
     1
  9
$ANGBASE
 50
0.0
  9
$ANGDIR
 70
     0
  9
$PDMODE
 70
     0
  9
$PDSIZE
 40
-1.0
  9
$PLINEWID
 40
0.0
  9
$SPLFRAME
 70
     0
  9
$SPLINETYPE
 70
     6
  9
$SPLINESEGS
 70
     8
  9
$HANDSEED
  5
2CF
  9
$SURFTAB1
 70
     6
  9
$SURFTAB2
 70
     6
  9
$SURFTYPE
 70
     6
  9
$SURFU
 70
     6
  9
$SURFV
 70
     6
  9
$UCSBASE
  2

  9
$UCSNAME
  2

  9
$UCSORG
 10
0.0
 20
0.0
 30
0.0
  9
$UCSXDIR
 10
1.0
 20
0.0
 30
0.0
  9
$UCSYDIR
 10
0.0
 20
1.0
 30
0.0
  9
$UCSORTHOREF
  2

  9
$UCSORTHOVIEW
 70
     0
  9
$UCSORGTOP
 10
0.0
 20
0.0
 30
0.0
  9
$UCSORGBOTTOM
 10
0.0
 20
0.0
 30
0.0
  9
$UCSORGLEFT
 10
0.0
 20
0.0
 30
0.0
  9
$UCSORGRIGHT
 10
0.0
 20
0.0
 30
0.0
  9
$UCSORGFRONT
 10
0.0
 20
0.0
 30
0.0
  9
$UCSORGBACK
 10
0.0
 20
0.0
 30
0.0
  9
$PUCSBASE
  2

  9
$PUCSNAME
  2

  9
$PUCSORG
 10
0.0
 20
0.0
 30
0.0
  9
$PUCSXDIR
 10
1.0
 20
0.0
 30
0.0
  9
$PUCSYDIR
 10
0.0
 20
1.0
 30
0.0
  9
$PUCSORTHOREF
  2

  9
$PUCSORTHOVIEW
 70
     0
  9
$PUCSORGTOP
 10
0.0
 20
0.0
 30
0.0
  9
$PUCSORGBOTTOM
 10
0.0
 20
0.0
 30
0.0
  9
$PUCSORGLEFT
 10
0.0
 20
0.0
 30
0.0
  9
$PUCSORGRIGHT
 10
0.0
 20
0.0
 30
0.0
  9
$PUCSORGFRONT
 10
0.0
 20
0.0
 30
0.0
  9
$PUCSORGBACK
 10
0.0
 20
0.0
 30
0.0
  9
$USERI1
 70
     0
  9
$USERI2
 70
     0
  9
$USERI3
 70
     0
  9
$USERI4
 70
     0
  9
$USERI5
 70
     0
  9
$USERR1
 40
0.0
  9
$USERR2
 40
0.0
  9
$USERR3
 40
0.0
  9
$USERR4
 40
0.0
  9
$USERR5
 40
0.0
  9
$WORLDVIEW
 70
     1
  9
$SHADEDGE
 70
     3
  9
$SHADEDIF
 70
    70
  9
$TILEMODE
 70
     1
  9
$MAXACTVP
 70
    64
  9
$PINSBASE
 10
0.0
 20
0.0
 30
0.0
  9
$PLIMCHECK
 70
     0
  9
$PEXTMIN
 10
1.0000000000E+20
 20
1.0000000000E+20
 30
1.0000000000E+20
  9
$PEXTMAX
 10
-1.0000000000E+20
 20
-1.0000000000E+20
 30
-1.0000000000E+20
  9
$PLIMMIN
 10
0.0
 20
0.0
  9
$PLIMMAX
 10
420.0
 20
297.0
  9
$UNITMODE
 70
     0
  9
$VISRETAIN
 70
     1
  9
$PLINEGEN
 70
     0
  9
$PSLTSCALE
 70
     1
  9
$TREEDEPTH
 70
  3020
  9
$CMLSTYLE
  2
Standard
  9
$CMLJUST
 70
     0
  9
$CMLSCALE
 40
20.0
  9
$PROXYGRAPHICS
 70
     1
  9
$MEASUREMENT
 70
     1
  9
$CELWEIGHT
370
    -1
  9
$ENDCAPS
280
     0
  9
$JOINSTYLE
280
     0
  9
$LWDISPLAY
290
     1
  9
$INSUNITS
 70
     4
  9
$HYPERLINKBASE
  1

  9
$STYLESHEET
  1

  9
$XEDIT
290
     1
  9
$CEPSNTYPE
380
     0
  9
$PSTYLEMODE
290
     1
  9
$FINGERPRINTGUID
  2
{2AD88459-DB50-4EEE-8359-7D3FDFBFDED2}
  9
$VERSIONGUID
  2
{FAEB1C32-E019-11D5-929B-00C0DF256EC4}
  9
$EXTNAMES
290
     1
  9
$PSVPSCALE
 40
0.0
  9
$OLESTARTUP
290
     0
  0
ENDSEC
  0
SECTION
  2
CLASSES
  0
CLASS
  1
ACDBDICTIONARYWDFLT
  2
AcDbDictionaryWithDefault
  3
ObjectDBX Classes
 90
        0
280
     0
281
     0
  0
CLASS
  1
VISUALSTYLE
  2
AcDbVisualStyle
  3
ObjectDBX Classes
 90
     4095
280
     0
281
     0
  0
CLASS
  1
MATERIAL
  2
AcDbMaterial
  3
ObjectDBX Classes
 90
     1153
280
     0
281
     0
  0
CLASS
  1
SCALE
  2
AcDbScale
  3
ObjectDBX Classes
 90
     1153
280
     0
281
     0
  0
CLASS
  1
TABLESTYLE
  2
AcDbTableStyle
  3
ObjectDBX Classes
 90
     4095
280
     0
281
     0
  0
CLASS
  1
MLEADERSTYLE
  2
AcDbMLeaderStyle
  3
ACDB_MLEADERSTYLE_CLASS
 90
     4095
280
     0
281
     0
  0
CLASS
  1
SUN
  2
AcDbSun
  3
SCENEOE
 90
     1153
280
     0
281
     0
  0
CLASS
  1
ACDBPLACEHOLDER
  2
AcDbPlaceHolder
  3
ObjectDBX Classes
 90
        0
280
     0
281
     0
  0
CLASS
  1
LAYOUT
  2
AcDbLayout
  3
ObjectDBX Classes
 90
        0
280
     0
281
     0
  0
ENDSEC
  0
SECTION
  2
TABLES
  0
TABLE
  2
VPORT
  5
8
330
0
100
AcDbSymbolTable
 70
     1
  0
VPORT
  5
29
330
8
100
AcDbSymbolTableRecord
100
AcDbViewportTableRecord
  2
*Active
 70
     0
 10
0.0
 20
0.0
 11
1.0
 21
1.0
 12
148.5
 22
105.0
 13
0.0
 23
0.0
 14
10.0
 24
10.0
 15
10.0
 25
10.0
 16
0.0
 26
0.0
 36
1.0
 17
0.0
 27
0.0
 37
0.0
 40
210.0
 41
1.4142857143
 42
50.0
 43
0.0
 44
0.0
 50
0.0
 51
0.0
 71
     0
 72
  2000
 73
     1
 74
     3
 75
     0
 76
     0
 77
     0
 78
     0
281
     0
 65
     1
110
0.0
120
0.0
130
0.0
111
1.0
121
0.0
131
0.0
112
0.0
122
1.0
132
0.0
 79
     0
146
0.0
  0
ENDTAB
  0
TABLE
  2
LTYPE
  5
5
330
0
100
AcDbSymbolTable
 70
     6
  0
LTYPE
  5
14
330
5
100
AcDbSymbolTableRecord
100
AcDbLinetypeTableRecord
  2
ByBlock
 70
     0
  3

 72
    65
 73
     0
 40
0.0
  0
LTYPE
  5
15
330
5
100
AcDbSymbolTableRecord
100
AcDbLinetypeTableRecord
  2
ByLayer
 70
     0
  3

 72
    65
 73
     0
 40
0.0
  0
LTYPE
  5
16
330
5
100
AcDbSymbolTableRecord
100
AcDbLinetypeTableRecord
  2
Continuous
 70
     0
  3
Solid line
 72
    65
 73
     0
 40
0.0
  0
LTYPE
  5
6E
330
5
100
AcDbSymbolTableRecord
100
AcDbLinetypeTableRecord
  2
HIDDEN
 70
     0
  3
Hidden __ __ __ __ __ __ __ __ __ __ __ __ __ __
 72
    65
 73
     2
 40
1.905
 49
1.27
 74
     0
 49
-0.635
 74
     0
  0
LTYPE
  5
6F
330
5
100
AcDbSymbolTableRecord
100
AcDbLinetypeTableRecord
  2
PHANTOM
 70
     0
  3
Phantom ______  __  __  ______  __  __  ______
 72
    65
 73
     6
 40
12.7
 49
6.35
 74
     0
 49
-1.27
 74
     0
 49
1.27
 74
     0
 49
-1.27
 74
     0
 49
1.27
 74
     0
 49
-1.27
 74
     0
  0
LTYPE
  5
70
330
5
100
AcDbSymbolTableRecord
100
AcDbLinetypeTableRecord
  2
CENTER
 70
     0
  3
Center ____ _ ____ _ ____ _ ____ _ ____ _ ____
 72
    65
 73
     4
 40
10.16
 49
6.35
 74
     0
 49
-1.27
 74
     0
 49
1.27
 74
     0
 49
-1.27
 74
     0
  0
LTYPE
  5
71
330
5
100
AcDbSymbolTableRecord
100
AcDbLinetypeTableRecord
  2
CENTERX2
 70
     0
  3
Center (2x) ________  __  ________  __  _____
 72
    65
 73
     4
 40
20.32
 49
12.7
 74
     0
 49
-2.54
 74
     0
 49
2.54
 74
     0
 49
-2.54
 74
     0
  0
LTYPE
  5
72
330
5
100
AcDbSymbolTableRecord
100
AcDbLinetypeTableRecord
  2
DOT2
 70
     0
  3
Dot (.5x) ........................................
 72
    65
 73
     2
 40
0.635
 49
0.0
 74
     0
 49
-0.635
 74
     0
  0
ENDTAB
  0
TABLE
  2
LAYER
  5
2
330
0
100
AcDbSymbolTable
 70
     5
  0
LAYER
  5
10
330
2
100
AcDbSymbolTableRecord
100
AcDbLayerTableRecord
  2
0
 70
     0
 62
     7
  6
Continuous
370
    -3
390
F
  0
LAYER
  5
73
330
2
100
AcDbSymbolTableRecord
100
AcDbLayerTableRecord
  2
FORMAT
 70
     0
 62
     7
  6
Continuous
370
    -3
390
F
  0
LAYER
  5
74
330
2
100
AcDbSymbolTableRecord
100
AcDbLayerTableRecord
  2
VERMASSUNG
 70
     0
 62
     7
  6
Continuous
370
    -3
390
F
  0
LAYER
  5
75
330
2
100
AcDbSymbolTableRecord
100
AcDbLayerTableRecord
  2
KOPF_DÜNN
 70
     0
 62
     7
  6
Continuous
370
    -3
390
F
  0
LAYER
  5
76
330
2
100
AcDbSymbolTableRecord
100
AcDbLayerTableRecord
  2
KOPF_DICK
 70
     0
 62
     7
  6
Continuous
370
    15
390
F
  0
ENDTAB
  0
TABLE
  2
STYLE
  5
3
330
0
100
AcDbSymbolTable
 70
     2
  0
STYLE
  5
11
330
3
100
AcDbSymbolTableRecord
100
AcDbTextStyleTableRecord
  2
Standard
 70
     0
 40
0.0
 41
1.0
 50
0.0
 71
     0
 42
2.0
  3
txt
  4

  0
STYLE
  5
77
330
3
100
AcDbSymbolTableRecord
100
AcDbTextStyleTableRecord
  2
SLDTEXTSTYLE0
 70
     0
 40
0.0
 41
0.7
 50
0.0
 71
     0
 42
2.0
  3
TXT
  4

  0
ENDTAB
  0
TABLE
  2
VIEW
  5
6
330
0
100
AcDbSymbolTable
 70
     0
  0
ENDTAB
  0
TABLE
  2
UCS
  5
7
330
0
100
AcDbSymbolTable
 70
     0
  0
ENDTAB
  0
TABLE
  2
APPID
  5
9
330
0
100
AcDbSymbolTable
 70
     1
  0
APPID
  5
12
330
9
100
AcDbSymbolTableRecord
100
AcDbRegAppTableRecord
  2
ACAD
 70
     0
  0
ENDTAB
  0
TABLE
  2
DIMSTYLE
  5
A
330
0
100
AcDbSymbolTable
 70
     2
100
AcDbDimStyleTable
  0
DIMSTYLE
105
27
330
A
100
AcDbSymbolTableRecord
100
AcDbDimStyleTableRecord
  2
ISO-25
 70
     0
 41
2.5
 42
0.625
 43
3.75
 44
1.25
 73
     0
 74
     0
 77
     1
 78
     8
140
2.5
141
2.5
143
0.0393700787
147
0.625
171
     3
172
     1
178
     0
271
     2
272
     2
274
     3
278
    44
283
     0
284
     8
340
11
  0
DIMSTYLE
105
1CE
102
{ACAD_REACTORS
330
1CD
330
1DA
330
1E5
330
1F1
330
1FB
330
207
102
}
330
A
100
AcDbSymbolTableRecord
100
AcDbDimStyleTableRecord
  2
SLDDIMSTYLE0
 70
     0
 41
3.0
 44
0.0
 45
0.000000001
 73
     0
 74
     0
 77
     1
 78
    12
 79
     3
140
2.0
147
0.5
173
     1
178
     0
271
     2
272
     3
276
     2
284
    12
340
77
  0
ENDTAB
  0
TABLE
  2
BLOCK_RECORD
  5
1
330
0
100
AcDbSymbolTable
 70
     7
  0
BLOCK_RECORD
  5
1F
330
1
100
AcDbSymbolTableRecord
100
AcDbBlockTableRecord
  2
*Model_Space
340
22
  0
BLOCK_RECORD
  5
1B
330
1
100
AcDbSymbolTableRecord
100
AcDbBlockTableRecord
  2
*Paper_Space
340
1E
  0
BLOCK_RECORD
  5
23
330
1
100
AcDbSymbolTableRecord
100
AcDbBlockTableRecord
  2
*Paper_Space0
340
26
  0
BLOCK_RECORD
  5
1CF
330
1
100
AcDbSymbolTableRecord
100
AcDbBlockTableRecord
  2
_D
340
0
  0
BLOCK_RECORD
  5
1DB
330
1
100
AcDbSymbolTableRecord
100
AcDbBlockTableRecord
  2
_D_1
340
0
  0
BLOCK_RECORD
  5
1E6
330
1
100
AcDbSymbolTableRecord
100
AcDbBlockTableRecord
  2
_D_2
340
0
  0
BLOCK_RECORD
  5
1F2
330
1
100
AcDbSymbolTableRecord
100
AcDbBlockTableRecord
  2
_D_3
340
0
  0
BLOCK_RECORD
  5
1FC
330
1
100
AcDbSymbolTableRecord
100
AcDbBlockTableRecord
  2
_D_4
340
0
  0
BLOCK_RECORD
  5
208
330
1
100
AcDbSymbolTableRecord
100
AcDbBlockTableRecord
  2
_D_5
340
0
  0
ENDTAB
  0
ENDSEC
  0
SECTION
  2
BLOCKS
  0
BLOCK
  5
20
330
1F
100
AcDbEntity
  8
0
100
AcDbBlockBegin
  2
*Model_Space
 70
     0
 10
0.0
 20
0.0
 30
0.0
  3
*Model_Space
  1

  0
ENDBLK
  5
21
330
1F
100
AcDbEntity
  8
0
100
AcDbBlockEnd
  0
BLOCK
  5
1C
330
1B
100
AcDbEntity
 67
     1
  8
0
100
AcDbBlockBegin
  2
*Paper_Space
 70
     0
 10
0.0
 20
0.0
 30
0.0
  3
*Paper_Space
  1

  0
ENDBLK
  5
1D
330
1B
100
AcDbEntity
 67
     1
  8
0
100
AcDbBlockEnd
  0
BLOCK
  5
24
330
23
100
AcDbEntity
  8
0
100
AcDbBlockBegin
  2
*Paper_Space0
 70
     0
 10
0.0
 20
0.0
 30
0.0
  3
*Paper_Space0
  1

  0
ENDBLK
  5
25
330
23
100
AcDbEntity
  8
0
100
AcDbBlockEnd
  0
BLOCK
  5
1D0
330
1CF
100
AcDbEntity
  8
0
100
AcDbBlockBegin
  2
_D
 70
     0
 10
0.0
 20
0.0
 30
0.0
  3
_D
  1

  0
SOLID
  5
1D2
330
1CF
100
AcDbEntity
  8
VERMASSUNG
100
AcDbTrace
 10
74.6476333288
 20
60.924440673
 30
0.0
 11
75.0976333288
 21
63.924440673
 31
0.0
 12
74.1976333288
 22
63.924440673
 32
0.0
 13
74.1976333288
 23
63.924440673
 33
0.0
  0
SOLID
  5
1D3
330
1CF
100
AcDbEntity
  8
VERMASSUNG
100
AcDbTrace
 10
74.6476333288
 20
158.374440673
 30
0.0
 11
74.1976333288
 21
155.374440673
 31
0.0
 12
75.0976333288
 22
155.374440673
 32
0.0
 13
75.0976333288
 23
155.374440673
 33
0.0
  0
LINE
  5
1D4
330
1CF
100
AcDbEntity
  8
VERMASSUNG
100
AcDbLine
 10
202.0649322146
 20
60.924440673
 30
0.0
 11
73.6476333288
 21
60.924440673
 31
0.0
  0
LINE
  5
1D5
330
1CF
100
AcDbEntity
  8
VERMASSUNG
100
AcDbLine
 10
202.0649322146
 20
158.374440673
 30
0.0
 11
73.6476333288
 21
158.374440673
 31
0.0
  0
LINE
  5
1D6
330
1CF
100
AcDbEntity
  8
VERMASSUNG
100
AcDbLine
 10
74.6476333288
 20
60.924440673
 30
0.0
 11
74.6476333288
 21
158.374440673
 31
0.0
  0
MTEXT
  5
1D7
330
1CF
100
AcDbEntity
  8
VERMASSUNG
100
AcDbMText
 10
71.8694980726
 20
100.1450050396
 30
0.0
 40
2.0
 41
0.0
 71
     1
 72
     1
  1
ISO 50
  7
SLDTEXTSTYLE0
 11
3.391901413832837E-15
 21
1.0
 31
0.0
 73
     1
 44
1.0
  0
MTEXT
  5
1D8
330
1CF
100
AcDbEntity
  8
VERMASSUNG
100
AcDbMText
 10
72.0694980239
 20
109.1450046522
 30
0.0
 40
2.0
 41
0.0
 71
     1
 72
     1
  1
%%c
  7
SLDTEXTSTYLE0
 11
3.391901413832837E-15
 21
1.0
 31
0.0
 73
     1
 44
1.0
  0
MTEXT
  5
1D9
330
1CF
100
AcDbEntity
  8
VERMASSUNG
100
AcDbMText
 10
72.0694977329
 20
112.754347985
 30
0.0
 40
2.0
 41
0.0
 71
     1
 72
     1
  1
97.45
  7
SLDTEXTSTYLE0
 11
3.391901413832837E-15
 21
1.0
 31
0.0
 73
     1
 44
1.0
  0
ENDBLK
  5
1D1
330
1CF
100
AcDbEntity
  8
0
100
AcDbBlockEnd
  0
BLOCK
  5
1DC
330
1DB
100
AcDbEntity
  8
0
100
AcDbBlockBegin
  2
_D_1
 70
     0
 10
0.0
 20
0.0
 30
0.0
  3
_D_1
  1

  0
SOLID
  5
1DE
330
1DB
100
AcDbEntity
  8
VERMASSUNG
100
AcDbTrace
 10
234.1104605598
 20
115.149440673
 30
0.0
 11
233.6604605598
 21
112.149440673
 31
0.0
 12
234.5604605598
 22
112.149440673
 32
0.0
 13
234.5604605598
 23
112.149440673
 33
0.0
  0
SOLID
  5
1DF
330
1DB
100
AcDbEntity
  8
VERMASSUNG
100
AcDbTrace
 10
234.1104605598
 20
104.149440673
 30
0.0
 11
234.5604605598
 21
107.149440673
 31
0.0
 12
233.6604605598
 22
107.149440673
 32
0.0
 13
233.6604605598
 23
107.149440673
 33
0.0
  0
LINE
  5
1E0
330
1DB
100
AcDbEntity
  8
VERMASSUNG
100
AcDbLine
 10
222.7149322146
 20
115.149440673
 30
0.0
 11
235.1104605598
 21
115.149440673
 31
0.0
  0
LINE
  5
1E1
330
1DB
100
AcDbEntity
  8
VERMASSUNG
100
AcDbLine
 10
222.7149322146
 20
104.149440673
 30
0.0
 11
235.1104605598
 21
104.149440673
 31
0.0
  0
LINE
  5
1E2
330
1DB
100
AcDbEntity
  8
VERMASSUNG
100
AcDbLine
 10
234.1104605598
 20
115.149440673
 30
0.0
 11
234.1104605598
 21
104.149440673
 31
0.0
  0
MTEXT
  5
1E3
330
1DB
100
AcDbEntity
  8
VERMASSUNG
100
AcDbMText
 10
231.532325022
 20
106.8456487059
 30
0.0
 40
2.0
 41
0.0
 71
     1
 72
     1
  1
%%c
  7
SLDTEXTSTYLE0
 11
-7.044195017643634E-15
 21
1.0
 31
0.0
 73
     1
 44
1.0
  0
MTEXT
  5
1E4
330
1DB
100
AcDbEntity
  8
VERMASSUNG
100
AcDbMText
 10
231.5323249638
 20
110.4546208996
 30
0.0
 40
2.0
 41
0.0
 71
     1
 72
     1
  1
11
  7
SLDTEXTSTYLE0
 11
-7.044195017643634E-15
 21
1.0
 31
0.0
 73
     1
 44
1.0
  0
ENDBLK
  5
1DD
330
1DB
100
AcDbEntity
  8
0
100
AcDbBlockEnd
  0
BLOCK
  5
1E7
330
1E6
100
AcDbEntity
  8
0
100
AcDbBlockBegin
  2
_D_2
 70
     0
 10
0.0
 20
0.0
 30
0.0
  3
_D_2
  1

  0
ARC
  5
1E9
330
1E6
100
AcDbEntity
  8
VERMASSUNG
100
AcDbCircle
 10
214.7517257264
 20
164.5522706638
 30
0.0
 40
4.247059938537323
100
AcDbArc
 50
153.4349488229
 51
206.5650511771
  0
ARC
  5
1EA
330
1E6
100
AcDbEntity
  8
VERMASSUNG
100
AcDbCircle
 10
216.5281387028
 20
164.5522706638
 30
0.0
 40
4.247059938537323
100
AcDbArc
 50
333.4349488229
 51
26.5650511771
  0
SOLID
  5
1EB
330
1E6
100
AcDbEntity
  8
VERMASSUNG
100
AcDbTrace
 10
202.6649322146
 20
162.6529277184
 30
0.0
 11
205.6649322146
 21
162.2029277184
 31
0.0
 12
205.6649322146
 22
163.1029277184
 32
0.0
 13
205.6649322146
 23
163.1029277184
 33
0.0
  0
SOLID
  5
1EC
330
1E6
100
AcDbEntity
  8
VERMASSUNG
100
AcDbTrace
 10
228.6149322146
 20
162.6529277184
 30
0.0
 11
225.6149322146
 21
163.1029277184
 31
0.0
 12
225.6149322146
 22
162.2029277184
 32
0.0
 13
225.6149322146
 23
162.2029277184
 33
0.0
  0
LINE
  5
1ED
330
1E6
100
AcDbEntity
  8
VERMASSUNG
100
AcDbLine
 10
202.6649322146
 20
155.9444276262
 30
0.0
 11
202.6649322146
 21
163.6529277184
 31
0.0
  0
LINE
  5
1EE
330
1E6
100
AcDbEntity
  8
VERMASSUNG
100
AcDbLine
 10
228.6149322146
 20
119.449440673
 30
0.0
 11
228.6149322146
 21
163.6529277184
 31
0.0
  0
LINE
  5
1EF
330
1E6
100
AcDbEntity
  8
VERMASSUNG
100
AcDbLine
 10
202.6649322146
 20
162.6529277184
 30
0.0
 11
228.6149322146
 21
162.6529277184
 31
0.0
  0
MTEXT
  5
1F0
330
1E6
100
AcDbEntity
  8
VERMASSUNG
100
AcDbMText
 10
212.5405398356
 20
165.2310633143
 30
0.0
 40
2.0
 41
0.0
 71
     1
 72
     1
  1
25.95
  7
SLDTEXTSTYLE0
 73
     1
 44
1.0
  0
ENDBLK
  5
1E8
330
1E6
100
AcDbEntity
  8
0
100
AcDbBlockEnd
  0
BLOCK
  5
1F3
330
1F2
100
AcDbEntity
  8
0
100
AcDbBlockBegin
  2
_D_3
 70
     0
 10
0.0
 20
0.0
 30
0.0
  3
_D_3
  1

  0
SOLID
  5
1F5
330
1F2
100
AcDbEntity
  8
VERMASSUNG
100
AcDbTrace
 10
183.6149322146
 20
168.6529277184
 30
0.0
 11
186.6149322146
 21
168.2029277184
 31
0.0
 12
186.6149322146
 22
169.1029277184
 32
0.0
 13
186.6149322146
 23
169.1029277184
 33
0.0
  0
SOLID
  5
1F6
330
1F2
100
AcDbEntity
  8
VERMASSUNG
100
AcDbTrace
 10
228.6149322146
 20
168.6529277184
 30
0.0
 11
225.6149322146
 21
169.1029277184
 31
0.0
 12
225.6149322146
 22
168.2029277184
 32
0.0
 13
225.6149322146
 23
168.2029277184
 33
0.0
  0
LINE
  5
1F7
330
1F2
100
AcDbEntity
  8
VERMASSUNG
100
AcDbLine
 10
183.6149322146
 20
144.574440673
 30
0.0
 11
183.6149322146
 21
169.6529277184
 31
0.0
  0
LINE
  5
1F8
330
1F2
100
AcDbEntity
  8
VERMASSUNG
100
AcDbLine
 10
228.6149322146
 20
119.449440673
 30
0.0
 11
228.6149322146
 21
169.6529277184
 31
0.0
  0
LINE
  5
1F9
330
1F2
100
AcDbEntity
  8
VERMASSUNG
100
AcDbLine
 10
183.6149322146
 20
168.6529277184
 30
0.0
 11
228.6149322146
 21
168.6529277184
 31
0.0
  0
MTEXT
  5
1FA
330
1F2
100
AcDbEntity
  8
VERMASSUNG
100
AcDbMText
 10
204.6159734092
 20
171.2310633143
 30
0.0
 40
2.0
 41
0.0
 71
     1
 72
     1
  1
45
  7
SLDTEXTSTYLE0
 73
     1
 44
1.0
  0
ENDBLK
  5
1F4
330
1F2
100
AcDbEntity
  8
0
100
AcDbBlockEnd
  0
BLOCK
  5
1FD
330
1FC
100
AcDbEntity
  8
0
100
AcDbBlockBegin
  2
_D_4
 70
     0
 10
0.0
 20
0.0
 30
0.0
  3
_D_4
  1

  0
ARC
  5
1FF
330
1FC
100
AcDbEntity
  8
VERMASSUNG
100
AcDbCircle
 10
154.5270975081
 20
176.5522706638
 30
0.0
 40
4.247059938537323
100
AcDbArc
 50
153.4349488229
 51
206.5650511771
  0
ARC
  5
200
330
1FC
100
AcDbEntity
  8
VERMASSUNG
100
AcDbCircle
 10
156.1027669211
 20
176.5522706638
 30
0.0
 40
4.247059938537297
100
AcDbArc
 50
333.4349488229
 51
26.5650511771
  0
SOLID
  5
201
330
1FC
100
AcDbEntity
  8
VERMASSUNG
100
AcDbTrace
 10
82.0149322146
 20
174.6529277184
 30
0.0
 11
85.0149322146
 21
174.2029277184
 31
0.0
 12
85.0149322146
 22
175.1029277184
 32
0.0
 13
85.0149322146
 23
175.1029277184
 33
0.0
  0
SOLID
  5
202
330
1FC
100
AcDbEntity
  8
VERMASSUNG
100
AcDbTrace
 10
228.6149322146
 20
174.6529277184
 30
0.0
 11
225.6149322146
 21
175.1029277184
 31
0.0
 12
225.6149322146
 22
174.2029277184
 32
0.0
 13
225.6149322146
 23
174.2029277184
 33
0.0
  0
LINE
  5
203
330
1FC
100
AcDbEntity
  8
VERMASSUNG
100
AcDbLine
 10
82.0149322146
 20
128.0282852004
 30
0.0
 11
82.0149322146
 21
175.6529277184
 31
0.0
  0
LINE
  5
204
330
1FC
100
AcDbEntity
  8
VERMASSUNG
100
AcDbLine
 10
228.6149322146
 20
119.449440673
 30
0.0
 11
228.6149322146
 21
175.6529277184
 31
0.0
  0
LINE
  5
205
330
1FC
100
AcDbEntity
  8
VERMASSUNG
100
AcDbLine
 10
82.0149322146
 20
174.6529277184
 30
0.0
 11
228.6149322146
 21
174.6529277184
 31
0.0
  0
MTEXT
  5
206
330
1FC
100
AcDbEntity
  8
VERMASSUNG
100
AcDbMText
 10
152.3159116173
 20
177.2310633143
 30
0.0
 40
2.0
 41
0.0
 71
     1
 72
     1
  1
146.6
  7
SLDTEXTSTYLE0
 73
     1
 44
1.0
  0
ENDBLK
  5
1FE
330
1FC
100
AcDbEntity
  8
0
100
AcDbBlockEnd
  0
BLOCK
  5
209
330
208
100
AcDbEntity
  8
0
100
AcDbBlockBegin
  2
_D_5
 70
     0
 10
0.0
 20
0.0
 30
0.0
  3
_D_5
  1

  0
SOLID
  5
20B
330
208
100
AcDbEntity
  8
VERMASSUNG
100
AcDbTrace
 10
240.0229226471
 20
119.649440673
 30
0.0
 11
239.5729226471
 21
116.649440673
 31
0.0
 12
240.4729226471
 22
116.649440673
 32
0.0
 13
240.4729226471
 23
116.649440673
 33
0.0
  0
SOLID
  5
20C
330
208
100
AcDbEntity
  8
VERMASSUNG
100
AcDbTrace
 10
240.0229226471
 20
99.649440673
 30
0.0
 11
240.4729226471
 21
102.649440673
 31
0.0
 12
239.5729226471
 22
102.649440673
 32
0.0
 13
239.5729226471
 23
102.649440673
 33
0.0
  0
LINE
  5
20D
330
208
100
AcDbEntity
  8
VERMASSUNG
100
AcDbLine
 10
228.4149322146
 20
119.649440673
 30
0.0
 11
241.0229226471
 21
119.649440673
 31
0.0
  0
LINE
  5
20E
330
208
100
AcDbEntity
  8
VERMASSUNG
100
AcDbLine
 10
228.4149322146
 20
99.649440673
 30
0.0
 11
241.0229226471
 21
99.649440673
 31
0.0
  0
LINE
  5
20F
330
208
100
AcDbEntity
  8
VERMASSUNG
100
AcDbLine
 10
240.0229226471
 20
119.649440673
 30
0.0
 11
240.0229226471
 21
99.649440673
 31
0.0
  0
MTEXT
  5
210
330
208
100
AcDbEntity
  8
VERMASSUNG
100
AcDbMText
 10
237.2447873909
 20
103.7444411114
 30
0.0
 40
2.0
 41
0.0
 71
     1
 72
     1
  1
ST1
  7
SLDTEXTSTYLE0
 11
-7.044195017643634E-15
 21
1.0
 31
0.0
 73
     1
 44
1.0
  0
MTEXT
  5
211
330
208
100
AcDbEntity
  8
VERMASSUNG
100
AcDbMText
 10
237.4447873422
 20
109.1444412515
 30
0.0
 40
2.0
 41
0.0
 71
     1
 72
     1
  1
%%c
  7
SLDTEXTSTYLE0
 11
-7.044195017643634E-15
 21
1.0
 31
0.0
 73
     1
 44
1.0
  0
MTEXT
  5
212
330
208
100
AcDbEntity
  8
VERMASSUNG
100
AcDbMText
 10
237.2447873909
 20
112.7544412658
 30
0.0
 40
2.0
 41
0.0
 71
     1
 72
     1
  1
20
  7
SLDTEXTSTYLE0
 11
-7.044195017643634E-15
 21
1.0
 31
0.0
 73
     1
 44
1.0
  0
ENDBLK
  5
20A
330
208
100
AcDbEntity
  8
0
100
AcDbBlockEnd
  0
ENDSEC
  0
SECTION
  2
ENTITIES
  0
MTEXT
  5
78
330
1F
100
AcDbEntity
  8
KOPF_DÜNN
100
AcDbMText
 10
13.8892156294
 20
23.8442973028
 30
0.0
 40
3.0
 41
0.0
 71
     1
 72
     1
  1
124.450.020.045
  7
SLDTEXTSTYLE0
 73
     1
 44
1.0
  0
MTEXT
  5
79
330
1F
100
AcDbEntity
  8
VERMASSUNG
100
AcDbMText
 10
13.9329988022
 20
28.8834360957
 30
0.0
 40
3.0
 41
0.0
 71
     1
 72
     1
  1
Aufnahme_Master shank ST1
  7
SLDTEXTSTYLE0
 73
     1
 44
1.0
  0
MTEXT
  5
7A
330
1F
100
AcDbEntity
  8
VERMASSUNG
100
AcDbMText
 10
98.8601118557
 20
13.8365368761
 30
0.0
 40
2.0
 41
0.0
 71
     1
 72
     1
  1
Datum: 14.05.2008
  7
SLDTEXTSTYLE0
 73
     1
 44
1.0
  0
MTEXT
  5
7B
330
1F
100
AcDbEntity
  8
VERMASSUNG
100
AcDbMText
 10
13.933048693
 20
18.0482802738
 30
0.0
 40
2.0
 41
0.0
 71
     1
 72
     1
  1
DIN 69871 B ISO 50
  7
SLDTEXTSTYLE0
 73
     1
 44
1.0
  0
MTEXT
  5
7C
330
1F
100
AcDbEntity
  8
VERMASSUNG
100
AcDbMText
 10
13.9808475933
 20
13.9090974274
 30
0.0
 40
2.0
 41
0.0
 71
     1
 72
     1
  1
Gewicht: 2706g
  7
SLDTEXTSTYLE0
 73
     1
 44
1.0
  0
ARC
  5
7D
330
1F
100
AcDbEntity
  8
0
  6
Continuous
 62
     7
370
    15
100
AcDbCircle
 10
197.8149322146
 20
95.183698711
 30
0.0
 40
2.000000000000026
100
AcDbArc
 50
269.1758454371
 51
340.130650254
  0
ARC
  5
7E
330
1F
100
AcDbEntity
  8
0
  6
Continuous
 62
     7
370
    15
100
AcDbCircle
 10
197.8149322146
 20
95.183698711
 30
0.0
 40
1.999999999999997
100
AcDbArc
 50
192.2156859337
 51
269.1758454371
  0
ARC
  5
7F
330
1F
100
AcDbEntity
  8
0
  6
Continuous
 62
     7
370
    15
100
AcDbCircle
 10
186.2149322146
 20
74.124440673
 30
0.0
 40
0.6000000000000227
100
AcDbArc
 50
0.0
 51
90.0
  0
ARC
  5
80
330
1F
100
AcDbEntity
  8
0
  6
Continuous
 62
     7
370
    15
100
AcDbCircle
 10
186.2149322146
 20
145.174440673
 30
0.0
 40
0.6000000000000227
100
AcDbArc
 50
270.0
 51
0.0
  0
LINE
  5
81
330
1F
100
AcDbEntity
  8
0
  6
Continuous
 62
     7
370
    15
100
AcDbLine
 10
183.6149322146
 20
144.5744395524
 30
0.0
 11
83.7263169044
 21
130.0073512167
 31
0.0
  0
LINE
  5
82
330
1F
100
AcDbEntity
  8
0
  6
Continuous
 62
     7
370
    15
100
AcDbLine
 10
83.7263169044
 20
89.2915301293
 30
0.0
 11
183.6149322146
 21
74.7244417936
 31
0.0
  0
LINE
  5
83
330
1F
100
AcDbEntity
  8
0
  6
Continuous
 62
     7
370
    15
100
AcDbLine
 10
183.6149322146
 20
74.7244417936
 30
0.0
 11
186.2149322217
 21
74.7244417936
 31
0.0
  0
LINE
  5
84
330
1F
100
AcDbEntity
  8
0
  6
Continuous
 62
     7
370
    15
100
AcDbLine
 10
186.2149322217
 20
144.5744395524
 30
0.0
 11
183.6149322146
 21
144.5744395524
 31
0.0
  0
ARC
  5
85
330
1F
100
AcDbEntity
  8
0
  6
Continuous
 62
     7
370
    15
100
AcDbCircle
 10
84.0149322146
 20
91.2705961456
 30
0.0
 40
1.999999999999986
100
AcDbArc
 50
180.0
 51
261.7028550302
  0
ARC
  5
86
330
1F
100
AcDbEntity
  8
0
  6
Continuous
 62
     7
370
    15
100
AcDbCircle
 10
84.0149322146
 20
128.0282852004
 30
0.0
 40
2.00000000000002
100
AcDbArc
 50
98.2971449698
 51
180.0
  0
ARC
  5
87
330
1F
100
AcDbEntity
  8
0
  6
Continuous
 62
     7
370
    15
100
AcDbCircle
 10
206.6649322146
 20
95.649440673
 30
0.0
 40
4.0
100
AcDbArc
 50
90.0
 51
180.0
  0
ARC
  5
88
330
1F
100
AcDbEntity
  8
0
  6
Continuous
 62
     7
370
    15
100
AcDbCircle
 10
206.6649322146
 20
123.649440673
 30
0.0
 40
4.000000000000014
100
AcDbArc
 50
180.0
 51
270.0
  0
LINE
  5
89
330
1F
100
AcDbEntity
  8
0
  6
Continuous
 62
     7
370
    15
100
AcDbLine
 10
228.4149306172
 20
119.6494404495
 30
0.0
 11
206.6649331057
 21
119.6494404495
 31
0.0
  0
LINE
  5
8A
330
1F
100
AcDbEntity
  8
0
  6
Continuous
 62
     7
370
    15
100
AcDbLine
 10
206.6649331057
 20
99.6494408965
 30
0.0
 11
228.4149306172
 21
99.6494408965
 31
0.0
  0
LINE
  5
8B
330
1F
100
AcDbEntity
  8
0
  6
Continuous
 62
     7
370
    15
100
AcDbLine
 10
228.4149306172
 20
99.6494408965
 30
0.0
 11
228.6149340027
 21
99.8494405568
 31
0.0
  0
LINE
  5
8C
330
1F
100
AcDbEntity
  8
0
  6
Continuous
 62
     7
370
    15
100
AcDbLine
 10
228.6149340027
 20
119.4494407892
 30
0.0
 11
228.4149306172
 21
119.6494404495
 31
0.0
  0
ARC
  5
8D
330
1F
100
AcDbEntity
  8
0
  6
Continuous
 62
     7
370
    15
100
AcDbCircle
 10
197.8279524194
 20
94.5470299736
 30
0.0
 40
2.51671394244343
100
AcDbArc
 50
183.1044751617
 51
340.2470421344
  0
ARC
  5
8E
330
1F
100
AcDbEntity
  8
0
  6
Continuous
 62
     7
370
    15
100
AcDbCircle
 10
197.8465660609
 20
94.4369854141
 30
0.0
 40
2.338781580823987
100
AcDbArc
 50
159.2017828739
 51
346.9830757089
  0
LWPOLYLINE
  5
8F
330
1F
100
AcDbEntity
  8
0
  6
Continuous
 62
     7
370
    15
100
AcDbPolyline
 90
       14
 70
   128
 43
0.0
 10
199.8146979415
 20
94.3340830773
 10
199.6964050734
 20
93.725478676
 10
199.3742252046
 20
93.1859411567
 10
198.8830717557
 20
92.7739426762
 10
198.2761688807
 20
92.5341252506
 10
197.6192837858
 20
92.4924783677
 10
196.9836002493
 20
92.6535170793
 10
196.4380044767
 20
92.9997865379
 10
196.0416205504
 20
93.4937656194
 10
195.8374019989
 20
94.0819246963
 10
195.8474798405
 20
94.7005259141
 10
196.0707607025
 20
95.2825336054
 10
196.483050687
 20
95.7648804679
 10
196.6075061166
 20
95.8610991284
  0
SPLINE
  5
90
330
1F
100
AcDbEntity
  8
0
  6
Continuous
 62
     7
370
    15
100
AcDbSpline
210
0.0
220
0.0
230
1.0
 70
     8
 71
     3
 72
    11
 73
     7
 74
     0
 42
0.000000001
 43
0.00000001
 40
0.0
 40
0.0
 40
0.0
 40
0.0
 40
0.1208911051141467
 40
0.4766717497521009
 40
0.8143672851219144
 40
1.0
 40
1.0
 40
1.0
 40
1.0
 10
222.4105337911636
 20
109.6758968206687
 30
0.0
 10
222.4332448447367
 20
109.7132315358323
 30
0.0
 10
222.5227941762213
 20
109.8604417378295
 30
0.0
 10
222.6916797969969
 20
110.1380655494524
 30
0.0
 10
222.876748779875
 20
110.442292750922
 30
0.0
 10
222.97558557401
 20
110.6047722313445
 30
0.0
 10
223.0106445306331
 20
110.6624062441243
 30
0.0
  0
SPLINE
  5
91
330
1F
100
AcDbEntity
  8
0
  6
Continuous
 62
     7
370
    15
100
AcDbSpline
210
0.0
220
0.0
230
1.0
 70
     8
 71
     3
 72
    10
 73
     6
 74
     0
 42
0.000000001
 43
0.00000001
 40
0.0
 40
0.0
 40
0.0
 40
0.0
 40
0.4391048074856372
 40
0.751357505656361
 40
1.0
 40
1.0
 40
1.0
 40
1.0
 10
222.964823459962
 20
108.6629312986461
 30
0.0
 10
222.8854751476775
 20
108.8079410474453
 30
0.0
 10
222.7497012982915
 20
109.0560689688348
 30
0.0
 10
222.55232697183
 20
109.4167727130567
 30
0.0
 10
222.4540843394508
 20
109.5963090936152
 30
0.0
 10
222.4105337911636
 20
109.6758968206687
 30
0.0
  0
SPLINE
  5
92
330
1F
100
AcDbEntity
  8
0
  6
Continuous
 62
     7
370
    15
100
AcDbSpline
210
0.0
220
0.0
230
1.0
 70
     8
 71
     3
 72
    10
 73
     6
 74
     0
 42
0.000000001
 43
0.00000001
 40
0.0
 40
0.0
 40
0.0
 40
0.0
 40
0.439106995432447
 40
0.751359781635822
 40
1.0
 40
1.0
 40
1.0
 40
1.0
 10
224.1192201429397
 20
108.6364751018537
 30
0.0
 10
223.9539632512055
 20
108.6402624223245
 30
0.0
 10
223.6711907529789
 20
108.6467429391723
 30
0.0
 10
223.2601253894509
 20
108.6561634570774
 30
0.0
 10
223.0555225618044
 20
108.6608526222462
 30
0.0
 10
222.964823459962
 20
108.6629312986461
 30
0.0
  0
SPLINE
  5
93
330
1F
100
AcDbEntity
  8
0
  6
Continuous
 62
     7
370
    15
100
AcDbSpline
210
0.0
220
0.0
230
1.0
 70
     8
 71
     3
 72
    11
 73
     7
 74
     0
 42
0.000000001
 43
0.00000001
 40
0.0
 40
0.0
 40
0.0
 40
0.0
 40
0.1856342199552747
 40
0.5233281922807319
 40
0.8791088853800152
 40
1.0
 40
1.0
 40
1.0
 40
1.0
 10
224.7193308824093
 20
109.6229845253093
 30
0.0
 10
224.6842703818348
 20
109.5653506858299
 30
0.0
 10
224.5854300473828
 20
109.4028730293064
 30
0.0
 10
224.4003675149397
 20
109.098642361712
 30
0.0
 10
224.2314804092218
 20
108.8210200832361
 30
0.0
 10
224.1419311717051
 20
108.6738098287298
 30
0.0
 10
224.1192201429397
 20
108.6364751018537
 30
0.0
  0
SPLINE
  5
94
330
1F
100
AcDbEntity
  8
0
  6
Continuous
 62
     7
370
    15
100
AcDbSpline
210
0.0
220
0.0
230
1.0
 70
     8
 71
     3
 72
    10
 73
     6
 74
     0
 42
0.000000001
 43
0.00000001
 40
0.0
 40
0.0
 40
0.0
 40
0.0
 40
0.4391048074856372
 40
0.751357505656361
 40
1.0
 40
1.0
 40
1.0
 40
1.0
 10
224.1650412136108
 20
110.6359500473318
 30
0.0
 10
224.2443895258954
 20
110.4909402985327
 30
0.0
 10
224.3801633752813
 20
110.2428123771431
 30
0.0
 10
224.5775377017429
 20
109.8821086329213
 30
0.0
 10
224.6757803341221
 20
109.7025722523628
 30
0.0
 10
224.7193308824093
 20
109.6229845253093
 30
0.0
  0
SPLINE
  5
95
330
1F
100
AcDbEntity
  8
0
  6
Continuous
 62
     7
370
    15
100
AcDbSpline
210
0.0
220
0.0
230
1.0
 70
     8
 71
     3
 72
    10
 73
     6
 74
     0
 42
0.000000001
 43
0.00000001
 40
0.0
 40
0.0
 40
0.0
 40
0.0
 40
0.439106995432447
 40
0.751359781635822
 40
1.0
 40
1.0
 40
1.0
 40
1.0
 10
223.0106445306331
 20
110.6624062441243
 30
0.0
 10
223.1759014223673
 20
110.6586189236535
 30
0.0
 10
223.458673920594
 20
110.6521384068057
 30
0.0
 10
223.869739284122
 20
110.6427178889005
 30
0.0
 10
224.0743421117684
 20
110.6380287237318
 30
0.0
 10
224.1650412136108
 20
110.6359500473319
 30
0.0
  0
CIRCLE
  5
96
330
1F
100
AcDbEntity
  8
0
  6
Continuous
 62
     7
370
    15
100
AcDbCircle
 10
223.5649322146
 20
109.649440673
 30
0.0
 40
1.250000000000016
  0
CIRCLE
  5
97
330
1F
100
AcDbEntity
  8
0
  6
Continuous
 62
     7
370
    15
100
AcDbCircle
 10
223.5649322146
 20
109.649440673
 30
0.0
 40
1.750000000000023
  0
CIRCLE
  5
98
330
1F
100
AcDbEntity
  8
0
  6
Continuous
 62
     7
370
    15
100
AcDbCircle
 10
223.5649322146
 20
109.649440673
 30
0.0
 40
2.000000000000017
  0
ARC
  5
99
330
1F
100
AcDbEntity
  8
0
  6
Continuous
 62
     7
370
    15
100
AcDbCircle
 10
223.5649322146
 20
109.649440673
 30
0.0
 40
1.00000000000002
100
AcDbArc
 50
268.6871416568
 51
328.6871416568
  0
ARC
  5
9A
330
1F
100
AcDbEntity
  8
0
  6
Continuous
 62
     7
370
    15
100
AcDbCircle
 10
223.5649322146
 20
109.649440673
 30
0.0
 40
1.000000000000005
100
AcDbArc
 50
148.6871416568
 51
208.6871416568
  0
ARC
  5
9B
330
1F
100
AcDbEntity
  8
0
  6
Continuous
 62
     7
370
    15
100
AcDbCircle
 10
223.5649322146
 20
109.649440673
 30
0.0
 40
1.000000000000002
100
AcDbArc
 50
328.6871416568
 51
28.6871416568
  0
ARC
  5
9C
330
1F
100
AcDbEntity
  8
0
  6
Continuous
 62
     7
370
    15
100
AcDbCircle
 10
223.5649322146
 20
109.649440673
 30
0.0
 40
1.00000000000002
100
AcDbArc
 50
208.6871416568
 51
268.6871416568
  0
ARC
  5
9D
330
1F
100
AcDbEntity
  8
0
  6
Continuous
 62
     7
370
    15
100
AcDbCircle
 10
223.5649322146
 20
109.649440673
 30
0.0
 40
1.000000000000005
100
AcDbArc
 50
88.6871416568
 51
148.6871416568
  0
ARC
  5
9E
330
1F
100
AcDbEntity
  8
0
  6
Continuous
 62
     7
370
    15
100
AcDbCircle
 10
223.5649322146
 20
109.649440673
 30
0.0
 40
1.000000000000002
100
AcDbArc
 50
28.6871416568
 51
88.6871416568
  0
SPLINE
  5
9F
330
1F
100
AcDbEntity
  8
0
  6
Continuous
 62
     7
370
    15
100
AcDbSpline
210
0.0
220
0.0
230
1.0
 70
     8
 71
     3
 72
     8
 73
     4
 74
     0
 42
0.000000001
 43
0.00000001
 40
0.0
 40
0.0
 40
0.0
 40
0.0
 40
1.0
 40
1.0
 40
1.0
 40
1.0
 10
192.8049322145969
 20
65.02970126415921
 30
0.0
 10
192.5152037685723
 20
64.50748125399568
 30
0.0
 10
192.2251786183546
 20
63.98542787173569
 30
0.0
 10
191.9348843840928
 20
63.46352560601258
 30
0.0
  0
SPLINE
  5
A0
330
1F
100
AcDbEntity
  8
0
  6
Continuous
 62
     7
370
    15
100
AcDbSpline
210
0.0
220
0.0
230
1.0
 70
     8
 71
     3
 72
     8
 73
     4
 74
     0
 42
0.000000001
 43
0.00000001
 40
0.0
 40
0.0
 40
0.0
 40
0.0
 40
0.0011862984959112
 40
0.0011862984959112
 40
0.0011862984959112
 40
0.0011862984959112
 10
191.481770707135
 20
62.92018133164298
 30
0.0
 10
191.6337954690058
 20
63.10109318126096
 30
0.0
 10
191.7848529142217
 20
63.2822055117018
 30
0.0
 10
191.9348843840928
 20
63.4635256060126
 30
0.0
  0
LINE
  5
A1
330
1F
100
AcDbEntity
  8
0
  6
Continuous
 62
     7
370
    15
100
AcDbLine
 10
191.4817711615
 20
62.92018148
 30
0.0
 11
191.4817711615
 21
139.4994411886
 31
0.0
  0
SPLINE
  5
A2
330
1F
100
AcDbEntity
  8
0
  6
Continuous
 62
     7
370
    15
100
AcDbSpline
210
0.0
220
0.0
230
1.0
 70
    24
 71
     3
 72
     8
 73
     4
 74
     0
 42
0.000000001
 43
0.00000001
 40
0.0
 40
0.0
 40
0.0
 40
0.0
 40
1.0
 40
1.0
 40
1.0
 40
1.0
 10
192.8049322145969
 20
139.499440672989
 30
0.0
 10
192.3697321098933
 20
139.499440672989
 30
0.0
 10
191.9283724271544
 20
139.499440672989
 30
0.0
 10
191.481770707135
 20
139.499440672989
 30
0.0
  0
LINE
  5
A3
330
1F
100
AcDbEntity
  8
0
  6
Continuous
 62
     7
370
    15
100
AcDbLine
 10
192.8049318769
 20
65.0297016174
 30
0.0
 11
192.8049318769
 21
139.4994411886
 31
0.0
  0
SPLINE
  5
A4
330
1F
100
AcDbEntity
  8
0
  6
Continuous
 62
     7
370
    15
100
AcDbSpline
210
0.0
220
0.0
230
1.0
 70
     8
 71
     3
 72
    10
 73
     6
 74
     0
 42
0.000000001
 43
0.00000001
 40
0.0
 40
0.0
 40
0.0
 40
0.0
 40
0.5
 40
0.5
 40
1.0
 40
1.0
 40
1.0
 40
1.0
 10
187.030592245751
 20
63.01598640579675
 30
0.0
 10
187.0792428143306
 20
62.98802941452933
 30
0.0
 10
187.13662802629
 20
62.96408712950252
 30
0.0
 10
187.2673411344561
 20
62.92996866640682
 30
0.0
 10
187.3400806681946
 20
62.92018133164298
 30
0.0
 10
187.4149322145969
 20
62.92018133164298
 30
0.0
  0
SPLINE
  5
A5
330
1F
100
AcDbEntity
  8
0
  6
Continuous
 62
     7
370
    15
100
AcDbSpline
210
0.0
220
0.0
230
1.0
 70
     8
 71
     3
 72
    10
 73
     6
 74
     0
 42
0.000000001
 43
0.00000001
 40
0.0
 40
0.0
 40
0.0
 40
0.0
 40
0.5
 40
0.5
 40
1.0
 40
1.0
 40
1.0
 40
1.0
 10
187.030592245751
 20
63.01598640579674
 30
0.0
 10
186.9724042391688
 20
63.08357013597557
 30
0.0
 10
186.9199617726425
 20
63.16404637061731
 30
0.0
 10
186.8416094654638
 20
63.34708199360008
 30
0.0
 10
186.8149322145969
 20
63.45295769639569
 30
0.0
 10
186.8149322145969
 20
63.56047100561632
 30
0.0
  0
LINE
  5
A6
330
1F
100
AcDbEntity
  8
0
  6
Continuous
 62
     7
370
    15
100
AcDbLine
 10
186.8149321338
 20
63.5604694754
 30
0.0
 11
186.8149321338
 21
139.4994411886
 31
0.0
  0
SPLINE
  5
A7
330
1F
100
AcDbEntity
  8
0
  6
Continuous
 62
     7
370
    15
100
AcDbSpline
210
0.0
220
0.0
230
1.0
 70
    24
 71
     3
 72
    14
 73
    10
 74
     0
 42
0.000000001
 43
0.00000001
 40
0.0
 40
0.0
 40
0.0
 40
0.0
 40
0.25
 40
0.25
 40
0.5
 40
0.5
 40
0.75
 40
0.75
 40
1.0
 40
1.0
 40
1.0
 40
1.0
 10
187.4149322145969
 20
139.499440672989
 30
0.0
 10
187.3259102622532
 20
139.499440672989
 30
0.0
 10
187.2362235629797
 20
139.499440672989
 30
0.0
 10
187.0824967374224
 20
139.499440672989
 30
0.0
 10
187.0172918427956
 20
139.499440672989
 30
0.0
 10
186.9147011486252
 20
139.499440672989
 30
0.0
 10
186.8770636943093
 20
139.499440672989
 30
0.0
 10
186.8269717789241
 20
139.499440672989
 30
0.0
 10
186.8149322145969
 20
139.499440672989
 30
0.0
 10
186.8149322145969
 20
139.499440672989
 30
0.0
  0
SPLINE
  5
A8
330
1F
100
AcDbEntity
  8
0
  6
Continuous
 62
     7
370
    15
100
AcDbSpline
210
0.0
220
0.0
230
1.0
 70
     8
 71
     3
 72
    12
 73
     8
 74
     0
 42
0.000000001
 43
0.00000001
 40
0.0
 40
0.0
 40
0.0
 40
0.0
 40
0.2499999999999972
 40
0.2499999999999972
 40
0.4999999999999944
 40
0.4999999999999944
 40
1.0
 40
1.0
 40
1.0
 40
1.0
 10
202.0649322145969
 20
62.92018133164298
 30
0.0
 10
202.1609049677718
 20
62.92018133164298
 30
0.0
 10
202.2533329319263
 20
62.93645465575157
 30
0.0
 10
202.4097630320357
 20
62.98982837774798
 30
0.0
 10
202.4732414568086
 20
63.02595663528232
 30
0.0
 10
202.6215206176357
 20
63.1466578315616
 30
0.0
 10
202.6649322145969
 20
63.24050741792678
 30
0.0
 10
202.6649322145969
 20
63.33481169287398
 30
0.0
  0
SPLINE
  5
A9
330
1F
100
AcDbEntity
  8
0
  6
Continuous
 62
     7
370
    15
100
AcDbSpline
210
0.0
220
0.0
230
1.0
 70
    24
 71
     3
 72
    12
 73
     8
 74
     0
 42
0.000000001
 43
0.00000001
 40
0.0
 40
0.0
 40
0.0
 40
0.0
 40
0.4999999999999972
 40
0.4999999999999972
 40
0.7499999999999986
 40
0.7499999999999986
 40
1.0
 40
1.0
 40
1.0
 40
1.0
 10
202.6649322145969
 20
139.499440672989
 30
0.0
 10
202.6649322145969
 20
139.499440672989
 30
0.0
 10
202.6168015262115
 20
139.499440672989
 30
0.0
 10
202.4629044704085
 20
139.499440672989
 30
0.0
 10
202.3974399054017
 20
139.499440672989
 30
0.0
 10
202.2439105847916
 20
139.499440672989
 30
0.0
 10
202.1555619240557
 20
139.499440672989
 30
0.0
 10
202.0649322145968
 20
139.499440672989
 30
0.0
  0
LINE
  5
AA
330
1F
100
AcDbEntity
  8
0
  6
Continuous
 62
     7
370
    15
100
AcDbLine
 10
202.66493245
 20
63.3348100156
 30
0.0
 11
202.66493245
 21
139.4994411886
 31
0.0
  0
LINE
  5
AB
330
1F
100
AcDbEntity
  8
0
  6
Continuous
 62
     7
370
    15
100
AcDbLine
 10
187.4149322787
 20
62.92018148
 30
0.0
 11
191.4817711615
 21
62.92018148
 31
0.0
  0
LINE
  5
AC
330
1F
100
AcDbEntity
  8
0
  6
Continuous
 62
     7
370
    15
100
AcDbLine
 10
191.4817711615
 20
139.4994411886
 30
0.0
 11
187.4149322787
 21
139.4994411886
 31
0.0
  0
LINE
  5
AD
330
1F
100
AcDbEntity
  8
0
  6
Continuous
 62
     7
370
    15
100
AcDbLine
 10
196.6249320933
 20
95.8521789208
 30
0.0
 11
196.6249320933
 21
139.4994411886
 31
0.0
  0
SPLINE
  5
AE
330
1F
100
AcDbEntity
  8
0
  6
Continuous
 62
     7
370
    15
100
AcDbSpline
210
0.0
220
0.0
230
1.0
 70
    24
 71
     3
 72
     8
 73
     4
 74
     0
 42
0.000000001
 43
0.00000001
 40
0.0
 40
0.0
 40
0.0
 40
0.0
 40
1.0
 40
1.0
 40
1.0
 40
1.0
 10
197.9480937220588
 20
139.499440672989
 30
0.0
 10
197.5014920020394
 20
139.499440672989
 30
0.0
 10
197.0601323193005
 20
139.499440672989
 30
0.0
 10
196.6249322145969
 20
139.499440672989
 30
0.0
  0
LINE
  5
AF
330
1F
100
AcDbEntity
  8
0
  6
Continuous
 62
     7
370
    15
100
AcDbLine
 10
197.94809374
 20
95.3522933915
 30
0.0
 11
197.94809374
 21
139.4994411886
 31
0.0
  0
SPLINE
  5
B0
330
1F
100
AcDbEntity
  8
0
  6
Continuous
 62
     7
370
    15
100
AcDbSpline
210
0.0
220
0.0
230
1.0
 70
     8
 71
     3
 72
    10
 73
     6
 74
     0
 42
0.000000001
 43
0.00000001
 40
0.0
 40
0.0
 40
0.0
 40
0.0
 40
0.5
 40
0.5
 40
1.0
 40
1.0
 40
1.0
 40
1.0
 10
197.9480937220588
 20
95.35229360785787
 30
0.0
 10
197.7253666951854
 20
95.49578210815166
 30
0.0
 10
197.5036808079603
 20
95.61050285388453
 30
0.0
 10
197.0624599701083
 20
95.7802632832424
 30
0.0
 10
196.8429013227095
 20
95.83568327762977
 30
0.0
 10
196.6249322145972
 20
95.85217860699943
 30
0.0
  0
LINE
  5
B1
330
1F
100
AcDbEntity
  8
0
  6
Continuous
 62
     7
370
    15
100
AcDbLine
 10
202.0649316066
 20
139.4994411886
 30
0.0
 11
197.94809374
 21
139.4994411886
 31
0.0
  0
LINE
  5
B2
330
1F
100
AcDbEntity
  8
0
  6
Continuous
 62
     7
370
    15
100
AcDbLine
 10
197.94809374
 20
62.92018148
 30
0.0
 11
202.0649316066
 21
62.92018148
 31
0.0
  0
LINE
  5
B3
330
1F
100
AcDbEntity
  8
0
  6
Continuous
 62
     7
370
    15
100
AcDbLine
 10
197.94809374
 20
62.92018148
 30
0.0
 11
197.94809374
 21
90.6604998082
 31
0.0
  0
SPLINE
  5
B4
330
1F
100
AcDbEntity
  8
0
  6
Continuous
 62
     7
370
    15
100
AcDbSpline
210
0.0
220
0.0
230
1.0
 70
     8
 71
     3
 72
    34
 73
    30
 74
     0
 42
0.000000001
 43
0.00000001
 40
0.0
 40
0.0
 40
0.0
 40
0.0
 40
0.0624999999999985
 40
0.0624999999999985
 40
0.124999999999997
 40
0.124999999999997
 40
0.1874999999999954
 40
0.1874999999999954
 40
0.2499999999999945
 40
0.2499999999999945
 40
0.3124999999999945
 40
0.3124999999999945
 40
0.3749999999999944
 40
0.3749999999999944
 40
0.4999999999999954
 40
0.4999999999999954
 40
0.6249999999999964
 40
0.6249999999999964
 40
0.687499999999997
 40
0.687499999999997
 40
0.7499999999999976
 40
0.7499999999999976
 40
0.8124999999999982
 40
0.8124999999999982
 40
0.8749999999999988
 40
0.8749999999999988
 40
0.9374999999999994
 40
0.9374999999999994
 40
1.0
 40
1.0
 40
1.0
 40
1.0
 10
197.9480937220588
 20
90.66050028498783
 30
0.0
 10
198.1074855498467
 20
90.66834038091059
 30
0.0
 10
198.2634880332902
 20
90.68999902900104
 30
0.0
 10
198.5689975493675
 20
90.75984725649383
 30
0.0
 10
198.7198918843796
 20
90.80867295882209
 30
0.0
 10
199.0077912290705
 20
90.93159691222941
 30
0.0
 10
199.1437376320302
 20
91.00490442036372
 30
0.0
 10
199.3999202476222
 20
91.17491504413506
 30
0.0
 10
199.5211025353813
 20
91.27278883633652
 30
0.0
 10
199.7382486072541
 20
91.48537301176849
 30
0.0
 10
199.8352104802144
 20
91.60041895029809
 30
0.0
 10
200.00577291604
 20
91.8482800704182
 30
0.0
 10
200.0790129692519
 20
91.98131356748381
 30
0.0
 10
200.2538934260008
 20
92.39082158361394
 30
0.0
 10
200.3149313869767
 20
92.68878223338902
 30
0.0
 10
200.3149330421998
 20
93.28022378926346
 30
0.0
 10
200.2538984326135
 20
93.58039733924004
 30
0.0
 10
200.0790086652116
 20
93.9956286195078
 30
0.0
 10
200.0057649597872
 20
94.13098373775463
 30
0.0
 10
199.8352042440505
 20
94.38388306914128
 30
0.0
 10
199.738240528457
 20
94.50164834674904
 30
0.0
 10
199.5210801998699
 20
94.71977864211769
 30
0.0
 10
199.399898941183
 20
94.82048196726464
 30
0.0
 10
199.1437287142444
 20
94.99572566009788
 30
0.0
 10
199.0077853645816
 20
95.07147062918848
 30
0.0
 10
198.7198826613985
 20
95.19863900449074
 30
0.0
 10
198.5689924654818
 20
95.24924027681821
 30
0.0
 10
198.2634869617761
 20
95.32166937656605
 30
0.0
 10
198.1074855635126
 20
95.34415514796305
 30
0.0
 10
197.9480937220588
 20
95.35229360785787
 30
0.0
  0
SPLINE
  5
B5
330
1F
100
AcDbEntity
  8
0
  6
Continuous
 62
     7
370
    15
100
AcDbSpline
210
0.0
220
0.0
230
1.0
 70
     8
 71
     3
 72
    14
 73
    10
 74
     0
 42
0.000000001
 43
0.00000001
 40
0.0
 40
0.0
 40
0.0
 40
0.0
 40
0.25
 40
0.25
 40
0.5
 40
0.5
 40
0.75
 40
0.75
 40
1.0
 40
1.0
 40
1.0
 40
1.0
 10
196.6249322145969
 20
95.89779282901193
 30
0.0
 10
196.6249322145969
 20
95.93976921086548
 30
0.0
 10
196.5952892606257
 20
95.96761959850637
 30
0.0
 10
196.4886344268957
 20
95.9811184737964
 30
0.0
 10
196.4123560322915
 20
95.9665029717587
 30
0.0
 10
196.244304489225
 20
95.89441376759052
 30
0.0
 10
196.1531846826167
 20
95.83727615710777
 30
0.0
 10
195.980507570364
 20
95.69504845651652
 30
0.0
 10
195.8995851308359
 20
95.61148463100444
 30
0.0
 10
195.8249322145969
 20
95.51811495910853
 30
0.0
  0
SPLINE
  5
B6
330
1F
100
AcDbEntity
  8
0
  6
Continuous
 62
     7
370
    15
100
AcDbSpline
210
0.0
220
0.0
230
1.0
 70
     8
 71
     3
 72
    10
 73
     6
 74
     0
 42
0.000000001
 43
0.00000001
 40
0.0
 40
0.0
 40
0.0
 40
0.0
 40
0.5
 40
0.5
 40
1.0
 40
1.0
 40
1.0
 40
1.0
 10
196.6249322145972
 20
91.72013740836792
 30
0.0
 10
196.8418230471179
 20
91.48309846891937
 30
0.0
 10
197.0609756837768
 20
91.28092823392589
 30
0.0
 10
197.5024601840457
 20
90.93017616240718
 30
0.0
 10
197.7256626493191
 20
90.78150007001034
 30
0.0
 10
197.9480937220588
 20
90.66050028498783
 30
0.0
  0
LINE
  5
B7
330
1F
100
AcDbEntity
  8
0
  6
Continuous
 62
     7
370
    15
100
AcDbLine
 10
196.6249320933
 20
91.7657524615
 30
0.0
 11
196.6249320933
 21
91.7201381445
 31
0.0
  0
SPLINE
  5
B8
330
1F
100
AcDbEntity
  8
0
  6
Continuous
 62
     7
370
    15
100
AcDbSpline
210
0.0
220
0.0
230
1.0
 70
     8
 71
     3
 72
    16
 73
    12
 74
     0
 42
0.000000001
 43
0.00000001
 40
0.0
 40
0.0
 40
0.0
 40
0.0
 40
0.2500000000000015
 40
0.2500000000000015
 40
0.500000000000003
 40
0.500000000000003
 40
0.6250000000000049
 40
0.6250000000000049
 40
0.7500000000000068
 40
0.7500000000000068
 40
1.0
 40
1.0
 40
1.0
 40
1.0
 10
195.8249322145969
 20
92.67415111605493
 30
0.0
 10
195.8989401048191
 20
92.58380353586927
 30
0.0
 10
195.9795580998081
 20
92.49584396306962
 30
0.0
 10
196.1533260853123
 20
92.31950903900801
 30
0.0
 10
196.2440772162538
 20
92.23390179834202
 30
0.0
 10
196.3701903137153
 20
92.11270610231703
 30
0.0
 10
196.4097670745785
 20
92.07417452332616
 30
0.0
 10
196.4822497312797
 20
91.99977853719685
 30
0.0
 10
196.5151777217486
 20
91.96376174927536
 30
0.0
 10
196.5949678917435
 20
91.86500907345838
 30
0.0
 10
196.6249322145969
 20
91.80824507167627
 30
0.0
 10
196.6249322145969
 20
91.7657516303807
 30
0.0
  0
SPLINE
  5
B9
330
1F
100
AcDbEntity
  8
0
  6
Continuous
 62
     7
370
    15
100
AcDbSpline
210
0.0
220
0.0
230
1.0
 70
     8
 71
     3
 72
    16
 73
    12
 74
     0
 42
0.000000001
 43
0.00000001
 40
0.0
 40
0.0
 40
0.0
 40
0.0
 40
0.25
 40
0.25
 40
0.5
 40
0.5
 40
0.75
 40
0.75
 40
0.875
 40
0.875
 40
1.0
 40
1.0
 40
1.0
 40
1.0
 10
195.8249322145969
 20
95.51811495910853
 30
0.0
 10
195.6595181081167
 20
95.31122872308319
 30
0.0
 10
195.5333207771412
 20
95.08536002527441
 30
0.0
 10
195.3589144788103
 20
94.59649077966155
 30
0.0
 10
195.3150844397134
 20
94.34472372631697
 30
0.0
 10
195.3147807667434
 20
93.83294440173464
 30
0.0
 10
195.3586376268037
 20
93.58188969265194
 30
0.0
 10
195.488559386071
 20
93.22104112450982
 30
0.0
 10
195.5426741974789
 20
93.10376835616127
 30
0.0
 10
195.6693511876223
 20
92.88127940482245
 30
0.0
 10
195.7422249079831
 20
92.77511879657916
 30
0.0
 10
195.8249322145969
 20
92.67415111605493
 30
0.0
  0
SPLINE
  5
BA
330
1F
100
AcDbEntity
  8
0
  6
Continuous
 62
     7
370
    15
100
AcDbSpline
210
0.0
220
0.0
230
1.0
 70
     8
 71
     3
 72
    14
 73
    10
 74
     0
 42
0.000000001
 43
0.00000001
 40
0.0
 40
0.0
 40
0.0
 40
0.0
 40
0.25
 40
0.25
 40
0.5
 40
0.5
 40
0.75
 40
0.75
 40
1.0
 40
1.0
 40
1.0
 40
1.0
 10
193.6049322145969
 20
66.00167440711921
 30
0.0
 10
193.4984872066876
 20
66.00167440711921
 30
0.0
 10
193.3915884554142
 20
65.9791048576861
 30
0.0
 10
193.1953701999717
 20
65.89266176644418
 30
0.0
 10
193.1057118865072
 20
65.82835784877705
 30
0.0
 10
192.9602581736261
 20
65.67338833473407
 30
0.0
 10
192.9022223908999
 20
65.58062284849034
 30
0.0
 10
192.8249372365153
 20
65.38215596684697
 30
0.0
 10
192.8049322145969
 20
65.27513154505318
 30
0.0
 10
192.8049322145969
 20
65.16834918458237
 30
0.0
  0
SPLINE
  5
BB
330
1F
100
AcDbEntity
  8
0
  6
Continuous
 62
     7
370
    15
100
AcDbSpline
210
0.0
220
0.0
230
1.0
 70
    24
 71
     3
 72
    14
 73
    10
 74
     0
 42
0.000000001
 43
0.00000001
 40
0.0
 40
0.0
 40
0.0
 40
0.0
 40
0.25
 40
0.25
 40
0.5
 40
0.5
 40
0.75
 40
0.75
 40
1.0
 40
1.0
 40
1.0
 40
1.0
 10
193.6049322145969
 20
139.499440672989
 30
0.0
 10
193.4819509150506
 20
139.499440672989
 30
0.0
 10
193.3617610266486
 20
139.499440672989
 30
0.0
 10
193.1567371969694
 20
139.499440672989
 30
0.0
 10
193.0701427081673
 20
139.499440672989
 30
0.0
 10
192.9350348214049
 20
139.499440672989
 30
0.0
 10
192.8865117363768
 20
139.499440672989
 30
0.0
 10
192.82082922765
 20
139.499440672989
 30
0.0
 10
192.8049322145969
 20
139.499440672989
 30
0.0
 10
192.8049322145969
 20
139.499440672989
 30
0.0
  0
SPLINE
  5
BC
330
1F
100
AcDbEntity
  8
0
  6
Continuous
 62
     7
370
    15
100
AcDbSpline
210
0.0
220
0.0
230
1.0
 70
    24
 71
     3
 72
    14
 73
    10
 74
     0
 42
0.000000001
 43
0.00000001
 40
0.0
 40
0.0
 40
0.0
 40
0.0
 40
0.25
 40
0.25
 40
0.5
 40
0.5
 40
0.75
 40
0.75
 40
1.0
 40
1.0
 40
1.0
 40
1.0
 10
196.6249322145969
 20
139.499440672989
 30
0.0
 10
196.6249322145969
 20
139.499440672989
 30
0.0
 10
196.6086511798211
 20
139.499440672989
 30
0.0
 10
196.5439881172965
 20
139.499440672989
 30
0.0
 10
196.4945083210078
 20
139.499440672989
 30
0.0
 10
196.3605385638691
 20
139.499440672989
 30
0.0
 10
196.2744238372696
 20
139.499440672989
 30
0.0
 10
196.0689677215566
 20
139.499440672989
 30
0.0
 10
195.9475471843637
 20
139.499440672989
 30
0.0
 10
195.8249322145969
 20
139.499440672989
 30
0.0
  0
LINE
  5
BD
330
1F
100
AcDbEntity
  8
0
  6
Continuous
 62
     7
370
    15
100
AcDbLine
 10
195.824932521
 20
66.0016745597
 30
0.0
 11
193.6049323806
 21
66.0016745597
 31
0.0
  0
LINE
  5
BE
330
1F
100
AcDbEntity
  8
0
  6
Continuous
 62
     7
370
    15
100
AcDbLine
 10
195.824932521
 20
139.4994411886
 30
0.0
 11
193.6049323806
 21
139.4994411886
 31
0.0
  0
SPLINE
  5
BF
330
1F
100
AcDbEntity
  8
0
  6
Continuous
 62
     7
370
    15
100
AcDbSpline
210
0.0
220
0.0
230
1.0
 70
     8
 71
     3
 72
     8
 73
     4
 74
     0
 42
0.000000001
 43
0.00000001
 40
0.0000000000000004
 40
0.0000000000000004
 40
0.0000000000000004
 40
0.0000000000000004
 40
0.0011862984959127
 40
0.0011862984959127
 40
0.0011862984959127
 40
0.0011862984959127
 10
197.4949800450971
 20
63.4635256060126
 30
0.0
 10
197.6450115149684
 20
63.28220551170156
 30
0.0
 10
197.7960689601878
 20
63.1010931812612
 30
0.0
 10
197.9480937220588
 20
62.92018133164298
 30
0.0
  0
SPLINE
  5
C0
330
1F
100
AcDbEntity
  8
0
  6
Continuous
 62
     7
370
    15
100
AcDbSpline
210
0.0
220
0.0
230
1.0
 70
     8
 71
     3
 72
     8
 73
     4
 74
     0
 42
0.000000001
 43
0.00000001
 40
0.0
 40
0.0
 40
0.0
 40
0.0
 40
1.0
 40
1.0
 40
1.0
 40
1.0
 10
197.4949800451001
 20
63.46352560601426
 30
0.0
 10
197.2046858108386
 20
63.98542787173682
 30
0.0
 10
196.9146606606212
 20
64.50748125399625
 30
0.0
 10
196.6249322145969
 20
65.02970126415921
 30
0.0
  0
LINE
  5
C1
330
1F
100
AcDbEntity
  8
0
  6
Continuous
 62
     7
370
    15
100
AcDbLine
 10
196.6249320933
 20
65.0297016174
 30
0.0
 11
196.6249320933
 21
91.7201381445
 31
0.0
  0
SPLINE
  5
C2
330
1F
100
AcDbEntity
  8
0
  6
Continuous
 62
     7
370
    15
100
AcDbSpline
210
0.0
220
0.0
230
1.0
 70
     8
 71
     3
 72
    14
 73
    10
 74
     0
 42
0.000000001
 43
0.00000001
 40
0.0
 40
0.0
 40
0.0
 40
0.0
 40
0.25
 40
0.25
 40
0.5
 40
0.5
 40
0.75
 40
0.75
 40
1.0
 40
1.0
 40
1.0
 40
1.0
 10
196.6249322145969
 20
65.16834918458237
 30
0.0
 10
196.6249322145969
 20
65.27541317092317
 30
0.0
 10
196.6049483883569
 20
65.38215249729768
 30
0.0
 10
196.5275133059234
 20
65.58090239948848
 30
0.0
 10
196.469574383764
 20
65.67345661598101
 30
0.0
 10
196.3239365780032
 20
65.82855355938658
 30
0.0
 10
196.2351475816679
 20
65.89229371629945
 30
0.0
 10
196.0385992214634
 20
65.97904227338705
 30
0.0
 10
195.932459991764
 20
66.00167440711921
 30
0.0
 10
195.8249322145969
 20
66.00167440711921
 30
0.0
  0
LINE
  5
C3
330
1F
100
AcDbEntity
  8
0
  6
Continuous
 62
     7
370
    15
100
AcDbLine
 10
183.6149322146
 20
74.7244417936
 30
0.0
 11
183.6149322146
 21
144.5744395524
 31
0.0
  0
LINE
  5
C4
330
1F
100
AcDbEntity
  8
0
  6
Continuous
 62
     7
370
    15
100
AcDbLine
 10
202.0649316066
 20
156.4292855829
 30
0.0
 11
197.94809374
 21
156.4292855829
 31
0.0
  0
LINE
  5
C5
330
1F
100
AcDbEntity
  8
0
  6
Continuous
 62
     7
370
    15
100
AcDbLine
 10
197.94809374
 20
148.1605194777
 30
0.0
 11
202.0649316066
 21
148.1605194777
 31
0.0
  0
LINE
  5
C6
330
1F
100
AcDbEntity
  8
0
  6
Continuous
 62
     7
370
    15
100
AcDbLine
 10
197.94809374
 20
148.1605194777
 30
0.0
 11
197.94809374
 21
156.4292855829
 31
0.0
  0
SPLINE
  5
C7
330
1F
100
AcDbEntity
  8
0
  6
Continuous
 62
     7
370
    15
100
AcDbSpline
210
0.0
220
0.0
230
1.0
 70
     8
 71
     3
 72
    12
 73
     8
 74
     0
 42
0.000000001
 43
0.00000001
 40
0.0
 40
0.0
 40
0.0
 40
0.0
 40
0.2500000000000007
 40
0.2500000000000007
 40
0.5000000000000014
 40
0.5000000000000014
 40
1.0
 40
1.0
 40
1.0
 40
1.0
 10
193.6049322145969
 20
153.2972069388588
 30
0.0
 10
193.4985872347209
 20
153.2972069388588
 30
0.0
 10
193.3913108873184
 20
153.3199221767183
 30
0.0
 10
193.1959350979222
 20
153.4059473436006
 30
0.0
 10
193.1073813618453
 20
153.468926070529
 30
0.0
 10
192.886123437714
 20
153.7041175809661
 30
0.0
 10
192.8049322145969
 20
153.9172937954514
 30
0.0
 10
192.8049322145969
 20
154.1305321613955
 30
0.0
  0
SPLINE
  5
C8
330
1F
100
AcDbEntity
  8
0
  6
Continuous
 62
     7
370
    15
100
AcDbSpline
210
0.0
220
0.0
230
1.0
 70
     8
 71
     3
 72
    12
 73
     8
 74
     0
 42
0.000000001
 43
0.00000001
 40
0.0
 40
0.0
 40
0.0
 40
0.0
 40
0.499999999999994
 40
0.499999999999994
 40
0.749999999999997
 40
0.749999999999997
 40
1.0
 40
1.0
 40
1.0
 40
1.0
 10
192.8049322145969
 20
145.042483774706
 30
0.0
 10
192.8049322145969
 20
144.8000606787253
 30
0.0
 10
192.8678533560387
 20
144.5542901581239
 30
0.0
 10
193.0698822530412
 20
144.249343978707
 30
0.0
 10
193.1561759776884
 20
144.1587511121086
 30
0.0
 10
193.3616497722551
 20
144.0283175491718
 30
0.0
 10
193.4816003328548
 20
143.9893227345221
 30
0.0
 10
193.6049322145969
 20
143.9893227345221
 30
0.0
  0
SPLINE
  5
C9
330
1F
100
AcDbEntity
  8
0
  6
Continuous
 62
     7
370
    15
100
AcDbSpline
210
0.0
220
0.0
230
1.0
 70
     8
 71
     3
 72
    10
 73
     6
 74
     0
 42
0.000000001
 43
0.00000001
 40
0.0
 40
0.0
 40
0.0
 40
0.0
 40
0.5
 40
0.5
 40
1.0
 40
1.0
 40
1.0
 40
1.0
 10
187.1048011335432
 20
156.3596049987118
 30
0.0
 10
187.0283480436244
 20
156.2893422274911
 30
0.0
 10
186.9594863213553
 20
156.2022473124494
 30
0.0
 10
186.8529740902824
 20
155.9930781841971
 30
0.0
 10
186.8149322145969
 20
155.8677606349576
 30
0.0
 10
186.8149322145969
 20
155.7384103403617
 30
0.0
  0
SPLINE
  5
CA
330
1F
100
AcDbEntity
  8
0
  6
Continuous
 62
     7
370
    15
100
AcDbSpline
210
0.0
220
0.0
230
1.0
 70
     8
 71
     3
 72
     8
 73
     4
 74
     0
 42
0.000000001
 43
0.00000001
 40
0.0
 40
0.0
 40
0.0
 40
0.0
 40
1.0
 40
1.0
 40
1.0
 40
1.0
 10
187.4149322145969
 20
156.4292853277645
 30
0.0
 10
187.3038540292594
 20
156.4292853277645
 30
0.0
 10
187.1961900253572
 20
156.40413615221
 30
0.0
 10
187.1048011335432
 20
156.3596049987118
 30
0.0
  0
SPLINE
  5
CB
330
1F
100
AcDbEntity
  8
0
  6
Continuous
 62
     7
370
    15
100
AcDbSpline
210
0.0
220
0.0
230
1.0
 70
     8
 71
     3
 72
    12
 73
     8
 74
     0
 42
0.000000001
 43
0.00000001
 40
0.0
 40
0.0
 40
0.0
 40
0.0
 40
0.5000000000000003
 40
0.5000000000000003
 40
0.7500000000000001
 40
0.7500000000000001
 40
1.0
 40
1.0
 40
1.0
 40
1.0
 10
186.8149322145969
 20
147.3985217876333
 30
0.0
 10
186.8149322145969
 20
147.5768820548726
 30
0.0
 10
186.8622443359729
 20
147.7556544665766
 30
0.0
 10
187.0166044138543
 20
147.9774163319283
 30
0.0
 10
187.0814899487733
 20
148.0417083705448
 30
0.0
 10
187.2367226480015
 20
148.1343528547044
 30
0.0
 10
187.3257980606698
 20
148.1605186246642
 30
0.0
 10
187.4149322145969
 20
148.1605186246642
 30
0.0
  0
LINE
  5
CC
330
1F
100
AcDbEntity
  8
0
  6
Continuous
 62
     7
370
    15
100
AcDbLine
 10
186.8149321338
 20
147.398522523
 30
0.0
 11
186.8149321338
 21
155.7384118706
 31
0.0
  0
SPLINE
  5
CD
330
1F
100
AcDbEntity
  8
0
  6
Continuous
 62
     7
370
    15
100
AcDbSpline
210
0.0
220
0.0
230
1.0
 70
     8
 71
     3
 72
    12
 73
     8
 74
     0
 42
0.000000001
 43
0.00000001
 40
0.0
 40
0.0
 40
0.0
 40
0.0
 40
0.4999999999999927
 40
0.4999999999999927
 40
0.7499999999999963
 40
0.7499999999999963
 40
1.0
 40
1.0
 40
1.0
 40
1.0
 10
202.6649322145969
 20
155.9444276262195
 30
0.0
 10
202.6649322145969
 20
156.0646202328846
 30
0.0
 10
202.6109637843279
 20
156.1825275333997
 30
0.0
 10
202.449877143395
 20
156.321907077883
 30
0.0
 10
202.3851147239218
 20
156.3600723754469
 30
0.0
 10
202.2330607223574
 20
156.4147246377804
 30
0.0
 10
202.1503309492082
 20
156.4292853277645
 30
0.0
 10
202.0649322145969
 20
156.4292853277645
 30
0.0
  0
SPLINE
  5
CE
330
1F
100
AcDbEntity
  8
0
  6
Continuous
 62
     7
370
    15
100
AcDbSpline
210
0.0
220
0.0
230
1.0
 70
     8
 71
     3
 72
    12
 73
     8
 74
     0
 42
0.000000001
 43
0.00000001
 40
0.0
 40
0.0
 40
0.0
 40
0.0
 40
0.250000000000004
 40
0.250000000000004
 40
0.500000000000008
 40
0.500000000000008
 40
1.0
 40
1.0
 40
1.0
 40
1.0
 10
202.0649322145974
 20
148.1605186246642
 30
0.0
 10
202.1544692727685
 20
148.1605186246641
 30
0.0
 10
202.2443684515571
 20
148.1336913258331
 30
0.0
 10
202.3977933105564
 20
148.0419843605736
 30
0.0
 10
202.4628423679341
 20
147.9777294189747
 30
0.0
 10
202.6161615991984
 20
147.7583172729132
 30
0.0
 10
202.6649322145969
 20
147.5765019631163
 30
0.0
 10
202.6649322145969
 20
147.3985217876333
 30
0.0
  0
LINE
  5
CF
330
1F
100
AcDbEntity
  8
0
  6
Continuous
 62
     7
370
    15
100
AcDbLine
 10
202.66493245
 20
147.398522523
 30
0.0
 11
202.66493245
 21
155.9444278747
 31
0.0
  0
SPLINE
  5
D0
330
1F
100
AcDbEntity
  8
0
  6
Continuous
 62
     7
370
    15
100
AcDbSpline
210
0.0
220
0.0
230
1.0
 70
     8
 71
     3
 72
     8
 73
     4
 74
     0
 42
0.000000001
 43
0.00000001
 40
0.0
 40
0.0
 40
0.0
 40
0.0
 40
1.0
 40
1.0
 40
1.0
 40
1.0
 10
197.3916032367634
 20
155.6494739176564
 30
0.0
 10
197.1358269260079
 20
155.1894955623916
 30
0.0
 10
196.8802635279019
 20
154.7294011020838
 30
0.0
 10
196.6249322145969
 20
154.2691800818188
 30
0.0
  0
SPLINE
  5
D1
330
1F
100
AcDbEntity
  8
0
  6
Continuous
 62
     7
370
    15
100
AcDbSpline
210
0.0
220
0.0
230
1.0
 70
     8
 71
     3
 72
     8
 73
     4
 74
     0
 42
0.000000001
 43
0.00000001
 40
0.0
 40
0.0
 40
0.0
 40
0.0
 40
0.0012352705496738
 40
0.0012352705496738
 40
0.0012352705496738
 40
0.0012352705496738
 10
197.9480937220588
 20
156.4292853277645
 30
0.0
 10
197.7621452967367
 20
156.1695095720129
 30
0.0
 10
197.5766384875656
 20
155.9095754933856
 30
0.0
 10
197.3916032367635
 20
155.6494739176569
 30
0.0
  0
SPLINE
  5
D2
330
1F
100
AcDbEntity
  8
0
  6
Continuous
 62
     7
370
    15
100
AcDbSpline
210
0.0
220
0.0
230
1.0
 70
     8
 71
     3
 72
     8
 73
     4
 74
     0
 42
0.000000001
 43
0.00000001
 40
0.0
 40
0.0
 40
0.0
 40
0.0
 40
1.0
 40
1.0
 40
1.0
 40
1.0
 10
196.6249322145969
 20
145.2165764152986
 30
0.0
 10
197.0598786362353
 20
146.200080733681
 30
0.0
 10
197.5012449941311
 20
147.1812827264079
 30
0.0
 10
197.9480937220588
 20
148.1605186246641
 30
0.0
  0
LINE
  5
D3
330
1F
100
AcDbEntity
  8
0
  6
Continuous
 62
     7
370
    15
100
AcDbLine
 10
196.6249320933
 20
145.2165752917
 30
0.0
 11
196.6249320933
 21
154.2691797286
 31
0.0
  0
SPLINE
  5
D4
330
1F
100
AcDbEntity
  8
0
  6
Continuous
 62
     7
370
    15
100
AcDbSpline
210
0.0
220
0.0
230
1.0
 70
     8
 71
     3
 72
    14
 73
    10
 74
     0
 42
0.000000001
 43
0.00000001
 40
0.0
 40
0.0
 40
0.0
 40
0.0
 40
0.25
 40
0.25
 40
0.5
 40
0.5
 40
0.75
 40
0.75
 40
1.0
 40
1.0
 40
1.0
 40
1.0
 10
196.6249322145969
 20
154.1305321613956
 30
0.0
 10
196.6249322145969
 20
154.0231897892481
 30
0.0
 10
196.6049360225327
 20
153.9165607824004
 30
0.0
 10
196.5272379381881
 20
153.7174090032491
 30
0.0
 10
196.4692447932945
 20
153.6249261049337
 30
0.0
 10
196.3231983004716
 20
153.4696902698245
 30
0.0
 10
196.233860561304
 20
153.4059563282121
 30
0.0
 10
196.0391055492435
 20
153.3201260618169
 30
0.0
 10
195.9315752780346
 20
153.2972069388585
 30
0.0
 10
195.8249322145948
 20
153.2972069388587
 30
0.0
  0
SPLINE
  5
D5
330
1F
100
AcDbEntity
  8
0
  6
Continuous
 62
     7
370
    15
100
AcDbSpline
210
0.0
220
0.0
230
1.0
 70
     8
 71
     3
 72
    14
 73
    10
 74
     0
 42
0.000000001
 43
0.00000001
 40
0.0
 40
0.0
 40
0.0
 40
0.0
 40
0.25
 40
0.25
 40
0.5
 40
0.5
 40
0.75
 40
0.75
 40
1.0
 40
1.0
 40
1.0
 40
1.0
 10
195.8249322145969
 20
143.9893227345221
 30
0.0
 10
195.9462587445827
 20
143.9893227345221
 30
0.0
 10
196.0679634531449
 20
144.0281042499552
 30
0.0
 10
196.274403332031
 20
144.1592588716491
 30
0.0
 10
196.360353870487
 20
144.2499109562362
 30
0.0
 10
196.4942656302353
 20
144.4520279911775
 30
0.0
 10
196.5438300670545
 20
144.5657629347167
 30
0.0
 10
196.6086840950225
 20
144.7987225517832
 30
0.0
 10
196.6249322145969
 20
144.9214208181124
 30
0.0
 10
196.6249322145969
 20
145.042483774706
 30
0.0
  0
LINE
  5
D6
330
1F
100
AcDbEntity
  8
0
  6
Continuous
 62
     7
370
    15
100
AcDbLine
 10
191.4817711615
 20
156.4292855829
 30
0.0
 11
187.4149322787
 21
156.4292855829
 31
0.0
  0
LINE
  5
D7
330
1F
100
AcDbEntity
  8
0
  6
Continuous
 62
     7
370
    15
100
AcDbLine
 10
191.4817711615
 20
148.1605194777
 30
0.0
 11
191.4817711615
 21
156.4292855829
 31
0.0
  0
LINE
  5
D8
330
1F
100
AcDbEntity
  8
0
  6
Continuous
 62
     7
370
    15
100
AcDbLine
 10
187.4149322787
 20
148.1605194777
 30
0.0
 11
191.4817711615
 21
148.1605194777
 31
0.0
  0
SPLINE
  5
D9
330
1F
100
AcDbEntity
  8
0
  6
Continuous
 62
     7
370
    15
100
AcDbSpline
210
0.0
220
0.0
230
1.0
 70
     8
 71
     3
 72
     8
 73
     4
 74
     0
 42
0.000000001
 43
0.00000001
 40
0.0
 40
0.0
 40
0.0
 40
0.0
 40
0.0012352705496723
 40
0.0012352705496723
 40
0.0012352705496723
 40
0.0012352705496723
 10
192.0382611924295
 20
155.6494739176581
 30
0.0
 10
191.8532259416276
 20
155.9095754933863
 30
0.0
 10
191.6677191324568
 20
156.1695095720133
 30
0.0
 10
191.481770707135
 20
156.4292853277645
 30
0.0
  0
SPLINE
  5
DA
330
1F
100
AcDbEntity
  8
0
  6
Continuous
 62
     7
370
    15
100
AcDbSpline
210
0.0
220
0.0
230
1.0
 70
     8
 71
     3
 72
     8
 73
     4
 74
     0
 42
0.000000001
 43
0.00000001
 40
0.0
 40
0.0
 40
0.0
 40
0.0
 40
1.0
 40
1.0
 40
1.0
 40
1.0
 10
192.8049322145969
 20
154.2691800818188
 30
0.0
 10
192.5496009012916
 20
154.7294011020844
 30
0.0
 10
192.2940375031853
 20
155.1894955623928
 30
0.0
 10
192.0382611924295
 20
155.6494739176581
 30
0.0
  0
SPLINE
  5
DB
330
1F
100
AcDbEntity
  8
0
  6
Continuous
 62
     7
370
    15
100
AcDbSpline
210
0.0
220
0.0
230
1.0
 70
     8
 71
     3
 72
     8
 73
     4
 74
     0
 42
0.000000001
 43
0.00000001
 40
0.0
 40
0.0
 40
0.0
 40
0.0
 40
1.0
 40
1.0
 40
1.0
 40
1.0
 10
191.481770707135
 20
148.1605186246641
 30
0.0
 10
191.9286194350627
 20
147.1812827264079
 30
0.0
 10
192.3699857929585
 20
146.200080733681
 30
0.0
 10
192.8049322145969
 20
145.2165764152986
 30
0.0
  0
LINE
  5
DC
330
1F
100
AcDbEntity
  8
0
  6
Continuous
 62
     7
370
    15
100
AcDbLine
 10
192.8049318769
 20
145.2165752917
 30
0.0
 11
192.8049318769
 21
154.2691797286
 31
0.0
  0
LINE
  5
DD
330
1F
100
AcDbEntity
  8
0
  6
Continuous
 62
     7
370
    15
100
AcDbLine
 10
195.824932521
 20
153.2972067863
 30
0.0
 11
193.6049323806
 21
153.2972067863
 31
0.0
  0
LINE
  5
DE
330
1F
100
AcDbEntity
  8
0
  6
Continuous
 62
     7
370
    15
100
AcDbLine
 10
193.6049323806
 20
143.9893231064
 30
0.0
 11
195.824932521
 21
143.9893231064
 31
0.0
  0
LINE
  5
DF
330
1F
100
AcDbEntity
  8
0
  6
Continuous
 62
     7
370
    15
100
AcDbLine
 10
196.6249320933
 20
145.0424850255
 30
0.0
 11
196.6249320933
 21
145.2165752917
 31
0.0
  0
LINE
  5
E0
330
1F
100
AcDbEntity
  8
0
  6
Continuous
 62
     7
370
    15
100
AcDbLine
 10
192.8049318769
 20
145.2165752917
 30
0.0
 11
192.8049318769
 21
145.0424850255
 31
0.0
  0
LINE
  5
E1
330
1F
100
AcDbEntity
  8
0
  6
Continuous
 62
     7
370
    15
100
AcDbLine
 10
186.8149321338
 20
147.398522523
 30
0.0
 11
186.8149321338
 21
139.4994411886
 31
0.0
  0
LINE
  5
E2
330
1F
100
AcDbEntity
  8
0
  6
Continuous
 62
     7
370
    15
100
AcDbLine
 10
202.66493245
 20
147.398522523
 30
0.0
 11
202.66493245
 21
139.4994411886
 31
0.0
  0
LINE
  5
E3
330
1F
100
AcDbEntity
  8
0
  6
Continuous
 62
     7
370
    15
100
AcDbLine
 10
82.0149334425
 20
91.2705961883
 30
0.0
 11
82.0149334425
 21
128.0282851577
 31
0.0
  0
SPLINE
  5
E4
330
1F
100
AcDbEntity
  8
0
  6
Continuous
 62
     7
370
    15
100
AcDbSpline
210
0.0
220
0.0
230
1.0
 70
    11
 71
     3
 72
    60
 73
    56
 74
     0
 42
0.000000001
 43
0.00000001
 40
0.0
 40
0.0
 40
0.0
 40
0.0
 40
0.0625000000000004
 40
0.0625000000000004
 40
0.09375
 40
0.09375
 40
0.1249999999999996
 40
0.1249999999999996
 40
0.1562499999999991
 40
0.1562499999999991
 40
0.1874999999999986
 40
0.1874999999999986
 40
0.2187499999999982
 40
0.2187499999999982
 40
0.2499999999999978
 40
0.2499999999999978
 40
0.2812499999999973
 40
0.2812499999999973
 40
0.3124999999999969
 40
0.3124999999999969
 40
0.3437499999999964
 40
0.3437499999999964
 40
0.3749999999999959
 40
0.3749999999999959
 40
0.4062499999999955
 40
0.4062499999999955
 40
0.4374999999999951
 40
0.4374999999999951
 40
0.4687499999999946
 40
0.4687499999999946
 40
0.4999999999999942
 40
0.4999999999999942
 40
0.5312499999999938
 40
0.5312499999999938
 40
0.5624999999999933
 40
0.5624999999999933
 40
0.6249999999999938
 40
0.6249999999999938
 40
0.6874999999999942
 40
0.6874999999999942
 40
0.7499999999999946
 40
0.7499999999999946
 40
0.7812499999999953
 40
0.7812499999999953
 40
0.812499999999996
 40
0.812499999999996
 40
0.8437499999999967
 40
0.8437499999999967
 40
0.8749999999999973
 40
0.8749999999999973
 40
0.906249999999998
 40
0.906249999999998
 40
0.9374999999999987
 40
0.9374999999999987
 40
1.0
 40
1.0
 40
1.0
 40
1.0
 10
221.8911112831714
 20
111.3138723929999
 30
0.0
 10
222.1336897431389
 20
111.5107005195133
 30
0.0
 10
222.4074216399265
 20
111.6575312901234
 30
0.0
 10
222.8515801288057
 20
111.804875336875
 30
0.0
 10
223.0022620859716
 20
111.8406605266702
 30
0.0
 10
223.3086989388776
 20
111.8866960794447
 30
0.0
 10
223.4659591500008
 20
111.8968500352455
 30
0.0
 10
223.7774954518086
 20
111.8904420484496
 30
0.0
 10
223.9314063352081
 20
111.8742004095519
 30
0.0
 10
224.2355567040678
 20
111.8158580321913
 30
0.0
 10
224.387260370978
 20
111.7731096269688
 30
0.0
 10
224.6773633592826
 20
111.6631212911403
 30
0.0
 10
224.8161037270202
 20
111.5961551976095
 30
0.0
 10
225.080754465169
 20
111.4375976866657
 30
0.0
 10
225.2078642536324
 20
111.3447616117296
 30
0.0
 10
225.4385379818499
 20
111.1394410797374
 30
0.0
 10
225.5429622012928
 20
111.0268395997983
 30
0.0
 10
225.7286933300278
 20
110.7803109252021
 30
0.0
 10
225.8103472155683
 20
110.6448526198292
 30
0.0
 10
225.9398458458166
 20
110.3643712085141
 30
0.0
 10
225.9890127732149
 20
110.2180984318631
 30
0.0
 10
226.05365904546
 20
109.912430907389
 30
0.0
 10
226.0681268696239
 20
109.7554900989167
 30
0.0
 10
226.0605398379128
 20
109.4455104008814
 30
0.0
 10
226.0382309998255
 20
109.2886261692101
 30
0.0
 10
225.9590910797312
 20
108.987173461654
 30
0.0
 10
225.9029095006476
 20
108.8426033407647
 30
0.0
 10
225.7586075448577
 20
108.5652156212996
 30
0.0
 10
225.6719055547771
 20
108.4355187361169
 30
0.0
 10
225.4748712407814
 20
108.1967799597515
 30
0.0
 10
225.3628793494213
 20
108.086155040142
 30
0.0
 10
225.1226703188329
 20
107.8904032707089
 30
0.0
 10
224.9941454415036
 20
107.8044831771044
 30
0.0
 10
224.7207693669516
 20
107.6555195009926
 30
0.0
 10
224.5768186482227
 20
107.5932744891521
 30
0.0
 10
224.1361715219812
 20
107.4464034817203
 30
0.0
 10
223.8213188270948
 20
107.3991703155398
 30
0.0
 10
223.2016329100186
 20
107.4111669826916
 30
0.0
 10
222.8888381587625
 20
107.470647575333
 30
0.0
 10
222.3110474875409
 20
107.6890743584742
 30
0.0
 10
222.0380512390344
 20
107.8511417897701
 30
0.0
 10
221.6930483912312
 20
108.1577500017875
 30
0.0
 10
221.5864608232119
 20
108.2724248276664
 30
0.0
 10
221.3994689255444
 20
108.5210349372145
 30
0.0
 10
221.320040636241
 20
108.6530870089648
 30
0.0
 10
221.1904192717104
 20
108.9334516849148
 30
0.0
 10
221.1399536674206
 20
109.0840594655411
 30
0.0
 10
221.0760141798441
 20
109.3883405284367
 30
0.0
 10
221.0616455482019
 20
109.5426905564586
 30
0.0
 10
221.0694639595411
 20
109.8559877103824
 30
0.0
 10
221.091979599127
 20
110.0119479057589
 30
0.0
 10
221.1710652122181
 20
110.3124424575686
 30
0.0
 10
221.2286823811823
 20
110.4601117447825
 30
0.0
 10
221.4445408946714
 20
110.8734948128316
 30
0.0
 10
221.6485328232039
 20
111.1170442664865
 30
0.0
 10
221.8911112831714
 20
111.3138723929999
 30
0.0
  0
LINE
  5
E5
330
1F
100
AcDbEntity
  8
0
  6
Continuous
 62
     7
370
    15
100
AcDbLine
 10
228.4149306172
 20
109.649440673
 30
0.0
 11
228.4149306172
 21
99.6494408965
 31
0.0
  0
LINE
  5
E6
330
1F
100
AcDbEntity
  8
0
  6
Continuous
 62
     7
370
    15
100
AcDbLine
 10
228.4149306172
 20
119.6494404495
 30
0.0
 11
228.4149306172
 21
109.649440673
 31
0.0
  0
LINE
  5
E7
330
1F
100
AcDbEntity
  8
0
  6
Continuous
 62
     7
370
    15
100
AcDbLine
 10
228.6149340027
 20
109.649440673
 30
0.0
 11
228.6149340027
 21
99.8494405568
 31
0.0
  0
LINE
  5
E8
330
1F
100
AcDbEntity
  8
0
  6
Continuous
 62
     7
370
    15
100
AcDbLine
 10
228.6149340027
 20
119.4494407892
 30
0.0
 11
228.6149340027
 21
109.649440673
 31
0.0
  0
LWPOLYLINE
  5
E9
330
1F
100
AcDbEntity
  8
0
  6
HIDDEN
 62
     7
370
     0
100
AcDbPolyline
 90
        3
 70
   128
 43
0.0
 10
200.3146393502
 20
94.3747744232
 10
200.2026031071
 20
93.7144536793
 10
200.1965793127
 20
93.6964679778
  0
ARC
  5
EA
330
1F
100
AcDbEntity
  8
0
  6
HIDDEN
 62
     7
370
     0
100
AcDbCircle
 10
197.8140680693
 20
94.2929837249
 30
0.0
 40
2.50190856122535
100
AcDbArc
 50
1.8734085685
 51
177.3024524084
  0
LINE
  5
EB
330
1F
100
AcDbEntity
  8
0
  6
HIDDEN
 62
     7
370
     0
100
AcDbLine
 10
200.1746559793
 20
94.3289049238
 30
0.0
 11
200.1252493167
 21
93.9102009207
 31
0.0
  0
ARC
  5
EC
330
1F
100
AcDbEntity
  8
0
  6
HIDDEN
 62
     7
370
     0
100
AcDbCircle
 10
197.7996436468
 20
94.231640728
 30
0.0
 40
2.37700313482784
100
AcDbArc
 50
2.3451312076
 51
154.1665668669
  0
ARC
  5
ED
330
1F
100
AcDbEntity
  8
0
  6
HIDDEN
 62
     7
370
     0
100
AcDbCircle
 10
197.8160092092
 20
94.2677776499
 30
0.0
 40
1.999788253437556
100
AcDbArc
 50
1.9000599454
 51
127.1796037982
  0
LWPOLYLINE
  5
EE
330
1F
100
AcDbEntity
  8
0
  6
HIDDEN
 62
     7
370
     0
100
AcDbPolyline
 90
       23
 70
   128
 43
0.0
 10
200.3146393502
 20
94.5628857508
 10
200.2026031071
 20
93.9025640756
 10
199.8971311652
 20
93.2986516774
 10
199.4229724908
 20
92.800073725
 10
198.8185394832
 20
92.4472198158
 10
198.1328001523
 20
92.2686796904
 10
197.4213097521
 20
92.2789149255
 10
196.741707837
 20
92.477096644
 10
196.1490523347
 20
92.8471688449
 10
195.6913566494
 20
93.3591522545
 10
195.4056995266
 20
93.9715694904
 10
195.3152252638
 20
94.6348034114
 10
195.4272615069
 20
95.2951241553
 10
195.7327334487
 20
95.8990365535
 10
196.2068921232
 20
96.3976154372
 10
196.8113251307
 20
96.7504674837
 10
197.4970635304
 20
96.9290094718
 10
198.2085548618
 20
96.9187742367
 10
198.888156777
 20
96.7205925181
 10
199.4808113479
 20
96.3505193859
 10
199.9385079646
 20
95.8385350451
 10
200.2241650873
 20
95.2261196718
 10
200.3146393502
 20
94.5628857508
  0
LWPOLYLINE
  5
EF
330
1F
100
AcDbEntity
  8
0
  6
HIDDEN
 62
     7
370
     0
100
AcDbPolyline
 90
       20
 70
   128
 43
0.0
 10
199.8146979415
 20
95.751859647
 10
199.6964050734
 20
95.1432543144
 10
199.3742252046
 20
94.6037177265
 10
198.8830717557
 20
94.1917183146
 10
198.2761688807
 20
93.9519018203
 10
197.6192837858
 20
93.9102549374
 10
196.9836002493
 20
94.0712927178
 10
196.4380044767
 20
94.4175631076
 10
196.0416205504
 20
94.9115421891
 10
195.8374019989
 20
95.4997003347
 10
195.8474798405
 20
96.1183015525
 10
196.0707607025
 20
96.7003101751
 10
196.483050687
 20
97.1826561063
 10
197.0396705249
 20
97.5130707294
 10
197.6803012469
 20
97.6557484165
 10
198.3355220684
 20
97.5952273503
 10
198.9343289563
 20
97.3380659044
 10
199.4118320101
 20
96.9121320441
 10
199.7162850851
 20
96.3635821164
 10
199.8146979415
 20
95.751859647
  0
LWPOLYLINE
  5
F0
330
1F
100
AcDbEntity
  8
0
  6
HIDDEN
 62
     7
370
     0
100
AcDbPolyline
 90
       23
 70
   128
 43
0.0
 10
200.3146393502
 20
94.7988791659
 10
200.2026031071
 20
94.138558422
 10
199.8971311652
 20
93.5346469551
 10
199.4229724908
 20
93.0360671401
 10
198.8185394832
 20
92.6832150936
 10
198.1328001523
 20
92.5046731055
 10
197.4213097521
 20
92.5149083406
 10
196.741707837
 20
92.7130900592
 10
196.1490523347
 20
93.0831641227
 10
195.6913566494
 20
93.5951475322
 10
195.4056995266
 20
94.2075629055
 10
195.3152252638
 20
94.8707968265
 10
195.4272615069
 20
95.5311175704
 10
195.7327334487
 20
96.1350299686
 10
196.2068921232
 20
96.6336088523
 10
196.8113251307
 20
96.9864618301
 10
197.4970635304
 20
97.1650028869
 10
198.2085548618
 20
97.1547676519
 10
198.888156777
 20
96.9565859333
 10
199.4808113479
 20
96.586512801
 10
199.9385079646
 20
96.0745293915
 10
200.2241650873
 20
95.4621130869
 10
200.3146393502
 20
94.7988791659
  0
LWPOLYLINE
  5
F1
330
1F
100
AcDbEntity
  8
0
  6
HIDDEN
 62
     7
370
     0
100
AcDbPolyline
 90
       22
 70
   128
 43
0.0
 10
200.1146620416
 20
94.7402822122
 10
200.0021154338
 20
94.1047737643
 10
199.6952278816
 20
93.5286734521
 10
199.2212666476
 20
93.063168627
 10
198.6223461383
 20
92.7496221185
 10
197.9516849199
 20
92.6158953726
 10
197.2688718045
 20
92.6738683402
 10
196.6345787325
 20
92.9183889449
 10
196.1051646897
 20
93.3277350187
 10
195.7276717105
 20
93.8655309647
 10
195.5356404462
 20
94.4839906216
 10
195.546134589
 20
95.1281631634
 10
195.7582218849
 20
95.740810436
 10
196.1530560905
 20
96.2674957037
 10
196.6955552155
 20
96.6614209384
 10
197.3375167975
 20
96.8875833124
 10
198.0218982601
 20
96.9258886099
 10
198.6878898272
 20
96.7729328468
 10
199.2763152623
 20
96.4423068136
 10
199.7348910475
 20
95.9633872181
 10
200.022869026
 20
95.3787299141
 10
200.1146620416
 20
94.7402822122
  0
LWPOLYLINE
  5
F2
330
1F
100
AcDbEntity
  8
0
  6
HIDDEN
 62
     7
370
     0
100
AcDbPolyline
 90
       23
 70
   128
 43
0.0
 10
200.3146393502
 20
95.0348735124
 10
200.2026031071
 20
94.3745527685
 10
199.8971311652
 20
93.7706403702
 10
199.4229724908
 20
93.2720605552
 10
198.8185394832
 20
92.9192085087
 10
198.1328001523
 20
92.7406665206
 10
197.4213097521
 20
92.7509017557
 10
196.741707837
 20
92.9490834743
 10
196.1490523347
 20
93.3191575378
 10
195.6913566494
 20
93.8311409473
 10
195.4056995266
 20
94.443557252
 10
195.3152252638
 20
95.1067911729
 10
195.4272615069
 20
95.7671119168
 10
195.7327334487
 20
96.3710243151
 10
196.2068921232
 20
96.8696031988
 10
196.8113251307
 20
97.2224561766
 10
197.4970635304
 20
97.4009972334
 10
198.2085548618
 20
97.3907619983
 10
198.888156777
 20
97.1925802797
 10
199.4808113479
 20
96.8225071475
 10
199.9385079646
 20
96.310523738
 10
200.2241650873
 20
95.6981074333
 10
200.3146393502
 20
95.0348735124
  0
LWPOLYLINE
  5
F3
330
1F
100
AcDbEntity
  8
0
  6
HIDDEN
 62
     7
370
     0
100
AcDbPolyline
 90
       22
 70
   128
 43
0.0
 10
200.1146620416
 20
94.9762756273
 10
200.0021154338
 20
94.3407681107
 10
199.6952278816
 20
93.7646668673
 10
199.2212666476
 20
93.2991620421
 10
198.6223461383
 20
92.9856173962
 10
197.9516849199
 20
92.8518887877
 10
197.2688718045
 20
92.9098617554
 10
196.6345787325
 20
93.1543842226
 10
196.1051646897
 20
93.5637284338
 10
195.7276717105
 20
94.1015243798
 10
195.5356404462
 20
94.7199840367
 10
195.546134589
 20
95.3641565785
 10
195.7582218849
 20
95.9768038511
 10
196.1530560905
 20
96.5034891188
 10
196.6955552155
 20
96.8974143535
 10
197.3375167975
 20
97.1235776588
 10
198.0218982601
 20
97.1618829563
 10
198.6878898272
 20
97.0089271933
 10
199.2763152623
 20
96.6783002287
 10
199.7348910475
 20
96.1993815646
 10
200.022869026
 20
95.6147233292
 10
200.1146620416
 20
94.9762756273
  0
LWPOLYLINE
  5
F4
330
1F
100
AcDbEntity
  8
0
  6
HIDDEN
 62
     7
370
     0
100
AcDbPolyline
 90
       23
 70
   128
 43
0.0
 10
200.3146393502
 20
95.2708669275
 10
200.2026031071
 20
94.6105461836
 10
199.8971311652
 20
94.0066337854
 10
199.4229724908
 20
93.508055833
 10
198.8185394832
 20
93.1552019238
 10
198.1328001523
 20
92.9766617984
 10
197.4213097521
 20
92.9868951708
 10
196.741707837
 20
93.185078752
 10
196.1490523347
 20
93.5551509529
 10
195.6913566494
 20
94.0671343625
 10
195.4056995266
 20
94.6795506671
 10
195.3152252638
 20
95.342784588
 10
195.4272615069
 20
96.003105332
 10
195.7327334487
 20
96.6070177302
 10
196.2068921232
 20
97.1055966139
 10
196.8113251307
 20
97.4584495917
 10
197.4970635304
 20
97.6369906485
 10
198.2085548618
 20
97.6267554134
 10
198.888156777
 20
97.4285736948
 10
199.4808113479
 20
97.0585005626
 10
199.9385079646
 20
96.5465171531
 10
200.2241650873
 20
95.9341008484
 10
200.3146393502
 20
95.2708669275
  0
LWPOLYLINE
  5
F5
330
1F
100
AcDbEntity
  8
0
  6
HIDDEN
 62
     7
370
     0
100
AcDbPolyline
 90
       22
 70
   128
 43
0.0
 10
200.1146620416
 20
95.2122699738
 10
200.0021154338
 20
94.5767615259
 10
199.6952278816
 20
94.0006602824
 10
199.2212666476
 20
93.5351573199
 10
198.6223461383
 20
93.2216108113
 10
197.9516849199
 20
93.0878822029
 10
197.2688718045
 20
93.1458551705
 10
196.6345787325
 20
93.3903776377
 10
196.1051646897
 20
93.799721849
 10
195.7276717105
 20
94.337517795
 10
195.5356404462
 20
94.9559783831
 10
195.546134589
 20
95.6001509249
 10
195.7582218849
 20
96.2127981976
 10
196.1530560905
 20
96.7394834652
 10
196.6955552155
 20
97.1334086999
 10
197.3375167975
 20
97.3595710739
 10
198.0218982601
 20
97.3978773028
 10
198.6878898272
 20
97.2449206084
 10
199.2763152623
 20
96.9142945752
 10
199.7348910475
 20
96.4353749797
 10
200.022869026
 20
95.8507176757
 10
200.1146620416
 20
95.2122699738
  0
LWPOLYLINE
  5
F6
330
1F
100
AcDbEntity
  8
0
  6
HIDDEN
 62
     7
370
     0
100
AcDbPolyline
 90
       23
 70
   128
 43
0.0
 10
200.3146393502
 20
95.5068612739
 10
200.2026031071
 20
94.84654053
 10
199.8971311652
 20
94.2426281318
 10
199.4229724908
 20
93.7440492481
 10
198.8185394832
 20
93.391195339
 10
198.1328001523
 20
93.2126552135
 10
197.4213097521
 20
93.2228904486
 10
196.741707837
 20
93.4210721672
 10
196.1490523347
 20
93.791144368
 10
195.6913566494
 20
94.3031287089
 10
195.4056995266
 20
94.9155450135
 10
195.3152252638
 20
95.5787789345
 10
195.4272615069
 20
96.2390996784
 10
195.7327334487
 20
96.8430120766
 10
196.2068921232
 20
97.3415909603
 10
196.8113251307
 20
97.6944439381
 10
197.4970635304
 20
97.8729849949
 10
198.2085548618
 20
97.8627497598
 10
198.888156777
 20
97.6645680413
 10
199.4808113479
 20
97.294494909
 10
199.9385079646
 20
96.7825114995
 10
200.2241650873
 20
96.1700951949
 10
200.3146393502
 20
95.5068612739
  0
LWPOLYLINE
  5
F7
330
1F
100
AcDbEntity
  8
0
  6
HIDDEN
 62
     7
370
     0
100
AcDbPolyline
 90
       22
 70
   128
 43
0.0
 10
200.1146620416
 20
95.4482633889
 10
200.0021154338
 20
94.8127558723
 10
199.6952278816
 20
94.2366546288
 10
199.2212666476
 20
93.771150735
 10
198.6223461383
 20
93.4576042265
 10
197.9516849199
 20
93.323875618
 10
197.2688718045
 20
93.3818485856
 10
196.6345787325
 20
93.6263710529
 10
196.1051646897
 20
94.0357161954
 10
195.7276717105
 20
94.5735121414
 10
195.5356404462
 20
95.1919717982
 10
195.546134589
 20
95.83614434
 10
195.7582218849
 20
96.4487916127
 10
196.1530560905
 20
96.9754768804
 10
196.6955552155
 20
97.369402115
 10
197.3375167975
 20
97.5955654204
 10
198.0218982601
 20
97.6338707179
 10
198.6878898272
 20
97.4809149548
 10
199.2763152623
 20
97.1502889216
 10
199.7348910475
 20
96.6713693261
 10
200.022869026
 20
96.0867110908
 10
200.1146620416
 20
95.4482633889
  0
LWPOLYLINE
  5
F8
330
1F
100
AcDbEntity
  8
0
  6
HIDDEN
 62
     7
370
     0
100
AcDbPolyline
 90
       23
 70
   128
 43
0.0
 10
200.3146393502
 20
96.1053962156
 10
200.2026031071
 20
95.4450754717
 10
199.8971311652
 20
94.8411630735
 10
199.4229724908
 20
94.3425841898
 10
198.8185394832
 20
93.9897321433
 10
198.1328001523
 20
93.8111901551
 10
197.4213097521
 20
93.8214253902
 10
196.741707837
 20
94.0196071088
 10
196.1490523347
 20
94.389680241
 10
195.6913566494
 20
94.9016636506
 10
195.4056995266
 20
95.5140799552
 10
195.3152252638
 20
96.1773138761
 10
195.4272615069
 20
96.8376346201
 10
195.7327334487
 20
97.4415470183
 10
196.2068921232
 20
97.940125902
 10
196.8113251307
 20
98.2929788798
 10
197.4970635304
 20
98.4715199366
 10
198.2085548618
 20
98.4612847015
 10
198.888156777
 20
98.2631029829
 10
199.4808113479
 20
97.8930298507
 10
199.9385079646
 20
97.3810464412
 10
200.2241650873
 20
96.7686301365
 10
200.3146393502
 20
96.1053962156
  0
LWPOLYLINE
  5
F9
330
1F
100
AcDbEntity
  8
0
  6
HIDDEN
 62
     7
370
     0
100
AcDbPolyline
 90
       20
 70
   128
 43
0.0
 10
199.7950842881
 20
96.2154766813
 10
199.6779518479
 20
95.612840195
 10
199.3589328879
 20
95.078595382
 10
198.8725962394
 20
94.6706360474
 10
198.271645447
 20
94.4331711426
 10
197.6212032416
 20
94.3919340417
 10
196.9917539784
 20
94.5513922989
 10
196.4515095854
 20
94.8942661554
 10
196.0590120682
 20
95.3834004968
 10
195.8567967915
 20
95.9657909617
 10
195.8667759129
 20
96.578324613
 10
196.0878672355
 20
97.1546251595
 10
196.4961134174
 20
97.6322409034
 10
197.0472738424
 20
97.9594145238
 10
197.6816218623
 20
98.1006933644
 10
198.3304165581
 20
98.0407655507
 10
198.9233505258
 20
97.7861261263
 10
199.3961690271
 20
97.3643692478
 10
199.6976381445
 20
96.8211995706
 10
199.7950842881
 20
96.2154766813
  0
LWPOLYLINE
  5
FA
330
1F
100
AcDbEntity
  8
0
  6
HIDDEN
 62
     7
370
     0
100
AcDbPolyline
 90
       20
 70
   128
 43
0.0
 10
195.8347793945
 20
123.0834046647
 10
195.9322274008
 20
122.4776817754
 10
196.2336946556
 20
121.9345120981
 10
196.7065140882
 20
121.5127552196
 10
197.2994480559
 20
121.2581157953
 10
197.9482427516
 20
121.1981879815
 10
198.5825907716
 20
121.3394668221
 10
199.1337511965
 20
121.6666404426
 10
199.5419973784
 20
122.1442561865
 10
199.7630896324
 20
122.720556733
 10
199.7730678224
 20
123.3330903843
 10
199.5708516145
 20
123.9154808491
 10
199.1783550286
 20
124.4046151906
 10
198.6381106356
 20
124.747489047
 10
198.0086613723
 20
124.9069473043
 10
197.358219167
 20
124.8657102033
 10
196.7572683745
 20
124.6282452986
 10
196.2709317261
 20
124.220285964
 10
195.9519118348
 20
123.686041151
 10
195.8347793945
 20
123.0834046647
  0
LWPOLYLINE
  5
FB
330
1F
100
AcDbEntity
  8
0
  6
HIDDEN
 62
     7
370
     0
100
AcDbPolyline
 90
       23
 70
   128
 43
0.0
 10
195.3152252638
 20
123.1934851304
 10
195.4056995266
 20
122.5302512094
 10
195.6913566494
 20
121.9178349048
 10
196.1490523347
 20
121.4058514953
 10
196.741707837
 20
121.035778363
 10
197.4213097521
 20
120.8375966445
 10
198.1328001523
 20
120.8273614094
 10
198.8185394832
 20
121.0059024662
 10
199.4229724908
 20
121.358755444
 10
199.8971311652
 20
121.8573343277
 10
200.2026031071
 20
122.4612467259
 10
200.3146393502
 20
123.1215674698
 10
200.2241650873
 20
123.7848013908
 10
199.9385079646
 20
124.3972176954
 10
199.4808113479
 20
124.9092011049
 10
198.888156777
 20
125.2792742372
 10
198.2085548618
 20
125.4774559557
 10
197.4970635304
 20
125.4876911908
 10
196.8113251307
 20
125.3091492027
 10
196.2068921232
 20
124.9562971562
 10
195.7327334487
 20
124.4577182725
 10
195.4272615069
 20
123.8538058743
 10
195.3152252638
 20
123.1934851304
  0
LWPOLYLINE
  5
FC
330
1F
100
AcDbEntity
  8
0
  6
HIDDEN
 62
     7
370
     0
100
AcDbPolyline
 90
       23
 70
   128
 43
0.0
 10
195.3152252638
 20
123.792020072
 10
195.4056995266
 20
123.1287861511
 10
195.6913566494
 20
122.5163698465
 10
196.1490523347
 20
122.0043864369
 10
196.741707837
 20
121.6343133047
 10
197.4213097521
 20
121.4361315861
 10
198.1328001523
 20
121.425896351
 10
198.8185394832
 20
121.6044374078
 10
199.4229724908
 20
121.9572903857
 10
199.8971311652
 20
122.4558692694
 10
200.2026031071
 20
123.0597816676
 10
200.3146393502
 20
123.7201024115
 10
200.2241650873
 20
124.3833363324
 10
199.9385079646
 20
124.9957526371
 10
199.4808113479
 20
125.5077369779
 10
198.888156777
 20
125.8778091788
 10
198.2085548618
 20
126.0759908974
 10
197.4970635304
 20
126.0862261325
 10
196.8113251307
 20
125.907686007
 10
196.2068921232
 20
125.5548320979
 10
195.7327334487
 20
125.0562532142
 10
195.4272615069
 20
124.452340816
 10
195.3152252638
 20
123.792020072
  0
LWPOLYLINE
  5
FD
330
1F
100
AcDbEntity
  8
0
  6
HIDDEN
 62
     7
370
     0
100
AcDbPolyline
 90
       20
 70
   128
 43
0.0
 10
195.8151666724
 20
124.9647982687
 10
195.9135795289
 20
124.3530757993
 10
196.2180326038
 20
123.8045249402
 10
196.6955356577
 20
123.37859108
 10
197.2943425455
 20
123.1214296341
 10
197.9495624357
 20
123.0609085679
 10
198.5901940891
 20
123.203586255
 10
199.146813927
 20
123.534000878
 10
199.5591039115
 20
124.0163477406
 10
199.7823847735
 20
124.5983554319
 10
199.7924616837
 20
125.2169566497
 10
199.5882431322
 20
125.8051157266
 10
199.1918592059
 20
126.2990948081
 10
198.6462634334
 20
126.6453642666
 10
198.0105798968
 20
126.8064029783
 10
197.3536948019
 20
126.7647560954
 10
196.7467928582
 20
126.5249386698
 10
196.2556394094
 20
126.1129401892
 10
195.9334595406
 20
125.57340267
 10
195.8151666724
 20
124.9647982687
  0
LWPOLYLINE
  5
FE
330
1F
100
AcDbEntity
  8
0
  6
HIDDEN
 62
     7
370
     0
100
AcDbPolyline
 90
       20
 70
   128
 43
0.0
 10
195.8151666724
 20
123.5470216989
 10
195.9135795289
 20
122.9352992296
 10
196.2180326038
 20
122.3867493018
 10
196.6955356577
 20
121.9608154416
 10
197.2943425455
 20
121.7036539957
 10
197.9495624357
 20
121.6431329295
 10
198.5901940891
 20
121.7858106166
 10
199.146813927
 20
122.1162252396
 10
199.5591039115
 20
122.5985711709
 10
199.7823847735
 20
123.1805797934
 10
199.7924616837
 20
123.7991810113
 10
199.5882431322
 20
124.3873391569
 10
199.1918592059
 20
124.8813182384
 10
198.6462634334
 20
125.2275886282
 10
198.0105798968
 20
125.3886264086
 10
197.3536948019
 20
125.3469795257
 10
196.7467928582
 20
125.1071630314
 10
196.2556394094
 20
124.6951636195
 10
195.9334595406
 20
124.1556270316
 10
195.8151666724
 20
123.5470216989
  0
LWPOLYLINE
  5
FF
330
1F
100
AcDbEntity
  8
0
  6
HIDDEN
 62
     7
370
     0
100
AcDbPolyline
 90
       23
 70
   128
 43
0.0
 10
195.3152252638
 20
124.0280144185
 10
195.4056995266
 20
123.3647804975
 10
195.6913566494
 20
122.7523641929
 10
196.1490523347
 20
122.2403807834
 10
196.741707837
 20
121.8703076512
 10
197.4213097521
 20
121.6721259326
 10
198.1328001523
 20
121.6618906975
 10
198.8185394832
 20
121.8404317543
 10
199.4229724908
 20
122.1932847321
 10
199.8971311652
 20
122.6918636158
 10
200.2026031071
 20
123.295776014
 10
200.3146393502
 20
123.9560967579
 10
200.2241650873
 20
124.6193306789
 10
199.9385079646
 20
125.2317469835
 10
199.4808113479
 20
125.743730393
 10
198.888156777
 20
126.1138025939
 10
198.2085548618
 20
126.3119861752
 10
197.4970635304
 20
126.3222195476
 10
196.8113251307
 20
126.1436794221
 10
196.2068921232
 20
125.790825513
 10
195.7327334487
 20
125.2922475606
 10
195.4272615069
 20
124.6883351624
 10
195.3152252638
 20
124.0280144185
  0
LWPOLYLINE
  5
100
330
1F
100
AcDbEntity
  8
0
  6
HIDDEN
 62
     7
370
     0
100
AcDbPolyline
 90
       22
 70
   128
 43
0.0
 10
195.515201641
 20
123.8506179571
 10
195.6069955879
 20
123.2121702552
 10
195.8949735665
 20
122.6275120199
 10
196.3535493517
 20
122.1485924244
 10
196.9419747868
 20
121.8179663911
 10
197.6079663539
 20
121.6650106281
 10
198.2923478165
 20
121.7033159256
 10
198.9343084672
 20
121.9294792309
 10
199.4768085235
 20
122.3234044656
 10
199.871642729
 20
122.8500897333
 10
200.0837290937
 20
123.4627370059
 10
200.0942232364
 20
124.1069095477
 10
199.9021919721
 20
124.7253692046
 10
199.5246989929
 20
125.2631651506
 10
198.9952858814
 20
125.6725102931
 10
198.3609928095
 20
125.9170327604
 10
197.6781796941
 20
125.975005728
 10
197.0075175443
 20
125.8412771195
 10
196.4085979664
 20
125.527730611
 10
195.9346376636
 20
125.0622267172
 10
195.6277491802
 20
124.4861254737
 10
195.515201641
 20
123.8506179571
  0
LWPOLYLINE
  5
101
330
1F
100
AcDbEntity
  8
0
  6
HIDDEN
 62
     7
370
     0
100
AcDbPolyline
 90
       23
 70
   128
 43
0.0
 10
195.3152252638
 20
124.2640078336
 10
195.4056995266
 20
123.6007739127
 10
195.6913566494
 20
122.988357608
 10
196.1490523347
 20
122.4763741985
 10
196.741707837
 20
122.1063010663
 10
197.4213097521
 20
121.9081193477
 10
198.1328001523
 20
121.8978841126
 10
198.8185394832
 20
122.0764251694
 10
199.4229724908
 20
122.4292781472
 10
199.8971311652
 20
122.9278570309
 10
200.2026031071
 20
123.5317694291
 10
200.3146393502
 20
124.1920901731
 10
200.2241650873
 20
124.855324094
 10
199.9385079646
 20
125.4677403986
 10
199.4808113479
 20
125.9797238082
 10
198.888156777
 20
126.3497978717
 10
198.2085548618
 20
126.5479795903
 10
197.4970635304
 20
126.5582148254
 10
196.8113251307
 20
126.3796728373
 10
196.2068921232
 20
126.0268207908
 10
195.7327334487
 20
125.5282409757
 10
195.4272615069
 20
124.9243285775
 10
195.3152252638
 20
124.2640078336
  0
LWPOLYLINE
  5
102
330
1F
100
AcDbEntity
  8
0
  6
HIDDEN
 62
     7
370
     0
100
AcDbPolyline
 90
       22
 70
   128
 43
0.0
 10
195.515201641
 20
124.0866113722
 10
195.6069955879
 20
123.4481636703
 10
195.8949735665
 20
122.8635063663
 10
196.3535493517
 20
122.3845867708
 10
196.9419747868
 20
122.0539607376
 10
197.6079663539
 20
121.9010040432
 10
198.2923478165
 20
121.939310272
 10
198.9343084672
 20
122.1654726461
 10
199.4768085235
 20
122.5593978807
 10
199.871642729
 20
123.0860831484
 10
200.0837290937
 20
123.6987304211
 10
200.0942232364
 20
124.3429029629
 10
199.9021919721
 20
124.961363551
 10
199.5246989929
 20
125.499159497
 10
198.9952858814
 20
125.9085037082
 10
198.3609928095
 20
126.1530261755
 10
197.6781796941
 20
126.2109991431
 10
197.0075175443
 20
126.0772705346
 10
196.4085979664
 20
125.7637240261
 10
195.9346376636
 20
125.2982210636
 10
195.6277491802
 20
124.7221198201
 10
195.515201641
 20
124.0866113722
  0
LWPOLYLINE
  5
103
330
1F
100
AcDbEntity
  8
0
  6
HIDDEN
 62
     7
370
     0
100
AcDbPolyline
 90
       23
 70
   128
 43
0.0
 10
195.3152252638
 20
124.50000218
 10
195.4056995266
 20
123.8367682591
 10
195.6913566494
 20
123.2243519545
 10
196.1490523347
 20
122.7123685449
 10
196.741707837
 20
122.3422954127
 10
197.4213097521
 20
122.1441136941
 10
198.1328001523
 20
122.133878459
 10
198.8185394832
 20
122.3124195158
 10
199.4229724908
 20
122.6652724937
 10
199.8971311652
 20
123.1638513774
 10
200.2026031071
 20
123.7677637756
 10
200.3146393502
 20
124.4280845195
 10
200.2241650873
 20
125.0913184404
 10
199.9385079646
 20
125.7037338138
 10
199.4808113479
 20
126.2157172233
 10
198.888156777
 20
126.5857912868
 10
198.2085548618
 20
126.7839730054
 10
197.4970635304
 20
126.7942082405
 10
196.8113251307
 20
126.6156662524
 10
196.2068921232
 20
126.2628142059
 10
195.7327334487
 20
125.7642343909
 10
195.4272615069
 20
125.160322924
 10
195.3152252638
 20
124.50000218
  0
LWPOLYLINE
  5
104
330
1F
100
AcDbEntity
  8
0
  6
HIDDEN
 62
     7
370
     0
100
AcDbPolyline
 90
       22
 70
   128
 43
0.0
 10
195.515201641
 20
124.3226057187
 10
195.6069955879
 20
123.6841580167
 10
195.8949735665
 20
123.0994997814
 10
196.3535493517
 20
122.6205811173
 10
196.9419747868
 20
122.2899541527
 10
197.6079663539
 20
122.1369983897
 10
198.2923478165
 20
122.1753036872
 10
198.9343084672
 20
122.4014669925
 10
199.4768085235
 20
122.7953922272
 10
199.871642729
 20
123.3220774949
 10
200.0837290937
 20
123.9347247675
 10
200.0942232364
 20
124.5788973093
 10
199.9021919721
 20
125.1973569661
 10
199.5246989929
 20
125.7351529121
 10
198.9952858814
 20
126.1444971234
 10
198.3609928095
 20
126.3890195906
 10
197.6781796941
 20
126.4469925582
 10
197.0075175443
 20
126.3132639497
 10
196.4085979664
 20
125.9997193038
 10
195.9346376636
 20
125.5342144787
 10
195.6277491802
 20
124.9581132352
 10
195.515201641
 20
124.3226057187
  0
LWPOLYLINE
  5
105
330
1F
100
AcDbEntity
  8
0
  6
HIDDEN
 62
     7
370
     0
100
AcDbPolyline
 90
       23
 70
   128
 43
0.0
 10
195.3152252638
 20
124.7359955952
 10
195.4056995266
 20
124.0727616742
 10
195.6913566494
 20
123.4603463009
 10
196.1490523347
 20
122.94836196
 10
196.741707837
 20
122.5782888278
 10
197.4213097521
 20
122.3801071092
 10
198.1328001523
 20
122.3698718741
 10
198.8185394832
 20
122.5484138623
 10
199.4229724908
 20
122.9012659088
 10
199.8971311652
 20
123.3998447925
 10
200.2026031071
 20
124.0037571907
 10
200.3146393502
 20
124.6640779346
 10
200.2241650873
 20
125.3273118555
 10
199.9385079646
 20
125.9397290915
 10
199.4808113479
 20
126.451712501
 10
198.888156777
 20
126.8217847019
 10
198.2085548618
 20
127.0199664205
 10
197.4970635304
 20
127.0302016556
 10
196.8113251307
 20
126.8516615301
 10
196.2068921232
 20
126.498807621
 10
195.7327334487
 20
126.0002296686
 10
195.4272615069
 20
125.3963172704
 10
195.3152252638
 20
124.7359955952
  0
LWPOLYLINE
  5
106
330
1F
100
AcDbEntity
  8
0
  6
HIDDEN
 62
     7
370
     0
100
AcDbPolyline
 90
       22
 70
   128
 43
0.0
 10
195.515201641
 20
124.5585991338
 10
195.6069955879
 20
123.9201514319
 10
195.8949735665
 20
123.3354941279
 10
196.3535493517
 20
122.8565745324
 10
196.9419747868
 20
122.5259484991
 10
197.6079663539
 20
122.3729927361
 10
198.2923478165
 20
122.4112980336
 10
198.9343084672
 20
122.6374604076
 10
199.4768085235
 20
123.0313856423
 10
199.871642729
 20
123.55807091
 10
200.0837290937
 20
124.1707181826
 10
200.0942232364
 20
124.8148907244
 10
199.9021919721
 20
125.4333503813
 10
199.5246989929
 20
125.9711463273
 10
198.9952858814
 20
126.3804924011
 10
198.3609928095
 20
126.6250130057
 10
197.6781796941
 20
126.6829859734
 10
197.0075175443
 20
126.5492592275
 10
196.4085979664
 20
126.235712719
 10
195.9346376636
 20
125.7702078938
 10
195.6277491802
 20
125.1941075817
 10
195.515201641
 20
124.5585991338
  0
LWPOLYLINE
  5
107
330
1F
100
AcDbEntity
  8
0
  6
HIDDEN
 62
     7
370
     0
100
AcDbPolyline
 90
       23
 70
   128
 43
0.0
 10
195.3152252638
 20
124.9241069227
 10
195.4056995266
 20
124.2608730018
 10
195.6913566494
 20
123.6484566972
 10
196.1490523347
 20
123.1364732876
 10
196.741707837
 20
122.7664001554
 10
197.4213097521
 20
122.5682184368
 10
198.1328001523
 20
122.5579832017
 10
198.8185394832
 20
122.7365242585
 10
199.4229724908
 20
123.0893772364
 10
199.8971311652
 20
123.5879561201
 10
200.2026031071
 20
124.1918685183
 10
200.3146393502
 20
124.8521892622
 10
200.2241650873
 20
125.5154241145
 10
199.9385079646
 20
126.1278394878
 10
199.4808113479
 20
126.6398228973
 10
198.888156777
 20
127.0098969608
 10
198.2085548618
 20
127.2080786794
 10
197.4970635304
 20
127.2183120519
 10
196.8113251307
 20
127.0397719264
 10
196.2068921232
 20
126.6869180173
 10
195.7327334487
 20
126.1883400649
 10
195.4272615069
 20
125.5844276667
 10
195.3152252638
 20
124.9241069227
  0
LWPOLYLINE
  5
108
330
1F
100
AcDbEntity
  8
0
  6
HIDDEN
 62
     7
370
     0
100
AcDbPolyline
 90
       22
 70
   128
 43
0.0
 10
195.4552086347
 20
124.9699764222
 10
195.549397012
 20
124.3148738787
 10
195.8448879698
 20
123.7149633735
 10
196.3154256621
 20
123.223551017
 10
196.9192020872
 20
122.8842990741
 10
197.6025674769
 20
122.7273535252
 10
198.3048023933
 20
122.7666581318
 10
198.9635100865
 20
122.9987213656
 10
199.5201615894
 20
123.4029228136
 10
199.9252962225
 20
123.9433469519
 10
200.1429165059
 20
124.5719766512
 10
200.1536825949
 20
125.2329539776
 10
199.9566426778
 20
125.8675478667
 10
199.5693018937
 20
126.419373256
 10
199.0260781997
 20
126.8393960118
 10
198.3752383196
 20
127.0902961761
 10
197.6746127286
 20
127.1497816116
 10
196.986454753
 20
127.0125661313
 10
196.3719113076
 20
126.6908407479
 10
195.8855867663
 20
126.2131914765
 10
195.570692634
 20
125.6220624119
 10
195.4552086347
 20
124.9699764222
  0
LWPOLYLINE
  5
109
330
1F
100
AcDbEntity
  8
0
  6
HIDDEN
 62
     7
370
     0
100
AcDbPolyline
 90
       21
 70
   128
 43
0.0
 10
189.5315630638
 20
93.9314611524
 10
189.7612709829
 20
94.2919072032
 10
189.890585588
 20
94.7945522413
 10
189.9068478772
 20
95.3901926324
 10
189.8084666857
 20
96.0205219954
 10
189.6050714233
 20
96.6238411412
 10
189.3165723698
 20
97.1410921112
 10
188.9712100194
 20
97.5216426223
 10
188.6027899848
 20
97.7282425657
 10
188.2473768012
 20
97.7406673402
 10
187.9397600235
 20
97.5577006385
 10
187.7100516388
 20
97.1972536564
 10
187.5807374993
 20
96.6946095496
 10
187.5644752101
 20
96.0989691585
 10
187.6628564016
 20
95.4686388642
 10
187.866251664
 20
94.8653197184
 10
188.1547507176
 20
94.3480687484
 10
188.5001130679
 20
93.9675182372
 10
188.8685331026
 20
93.7609192252
 10
189.2239462861
 20
93.7484953821
 10
189.5315630638
 20
93.9314611524
  0
LWPOLYLINE
  5
10A
330
1F
100
AcDbEntity
  8
0
  6
HIDDEN
 62
     7
370
     0
100
AcDbPolyline
 90
       23
 70
   128
 43
0.0
 10
189.9143687726
 20
93.5892392218
 10
190.1731297651
 20
93.9799458057
 10
190.3324855768
 20
94.5176951855
 10
190.3795262144
 20
95.1589228854
 10
190.3104407058
 20
95.8516806632
 10
190.1308258341
 20
96.5398451582
 10
189.8552330488
 20
97.1676646069
 10
189.5059894116
 20
97.6842776209
 10
189.1113885024
 20
98.0478314951
 10
188.7033979685
 20
98.2288722217
 10
188.3150718452
 20
98.2127342641
 10
187.9778688119
 20
98.000724268
 10
187.7191078195
 20
97.6100186154
 10
187.5597520077
 20
97.0722683042
 10
187.512711603
 20
96.4310406044
 10
187.5817968787
 20
95.7382837579
 10
187.7614117504
 20
95.0501192629
 10
188.0370045358
 20
94.4222998142
 10
188.3862481729
 20
93.9056858689
 10
188.7808490822
 20
93.542132926
 10
189.188839616
 20
93.3610912681
 10
189.5771657394
 20
93.3772292256
 10
189.9143687726
 20
93.5892392218
  0
LWPOLYLINE
  5
10B
330
1F
100
AcDbEntity
  8
0
  6
HIDDEN
 62
     7
370
     0
100
AcDbPolyline
 90
       23
 70
   128
 43
0.0
 10
193.1853072995
 20
94.3725811586
 10
193.4440687576
 20
94.7632868111
 10
193.6034245693
 20
95.301036191
 10
193.6504647413
 20
95.9422638908
 10
193.5813792327
 20
96.6350216687
 10
193.4017643609
 20
97.3231861636
 10
193.1261720413
 20
97.9510056123
 10
192.7769279384
 20
98.4676186264
 10
192.3823274949
 20
98.8311725005
 10
191.9743374267
 20
99.0122132271
 10
191.586010372
 20
98.9960752696
 10
191.2488078044
 20
98.7840652734
 10
190.990046812
 20
98.3933596209
 10
190.8306910002
 20
97.8556093097
 10
190.7836503626
 20
97.2143816099
 10
190.8527358712
 20
96.5216247633
 10
191.0323507429
 20
95.8334602684
 10
191.3079435283
 20
95.2056408197
 10
191.6571866998
 20
94.6890278056
 10
192.0517880747
 20
94.3254739314
 10
192.4597781428
 20
94.1444322735
 10
192.8481051975
 20
94.1605711624
 10
193.1853072995
 20
94.3725811586
  0
LINE
  5
10C
330
1F
100
AcDbEntity
  8
0
  6
HIDDEN
 62
     7
370
     0
100
AcDbLine
 10
188.9849898682
 20
96.916153495
 30
0.0
 11
188.176642386
 21
97.0180662617
 31
0.0
  0
LINE
  5
10D
330
1F
100
AcDbEntity
  8
0
  6
HIDDEN
 62
     7
370
     0
100
AcDbLine
 10
187.9273138286
 20
95.8464931965
 30
0.0
 11
188.176642386
 21
97.0180662617
 31
0.0
  0
LINE
  5
10E
330
1F
100
AcDbEntity
  8
0
  6
HIDDEN
 62
     7
370
     0
100
AcDbLine
 10
188.4863332191
 20
94.5730073646
 30
0.0
 11
187.9273138286
 21
95.8464931965
 31
0.0
  0
LINE
  5
10F
330
1F
100
AcDbEntity
  8
0
  6
HIDDEN
 62
     7
370
     0
100
AcDbLine
 10
188.4863332191
 20
94.5730073646
 30
0.0
 11
189.2946807013
 21
94.4710945979
 31
0.0
  0
LINE
  5
110
330
1F
100
AcDbEntity
  8
0
  6
HIDDEN
 62
     7
370
     0
100
AcDbLine
 10
189.5440092587
 20
95.6426676631
 30
0.0
 11
189.2946807013
 21
94.4710945979
 31
0.0
  0
LINE
  5
111
330
1F
100
AcDbEntity
  8
0
  6
HIDDEN
 62
     7
370
     0
100
AcDbLine
 10
189.5440092587
 20
95.6426676631
 30
0.0
 11
188.9849898682
 21
96.916153495
 31
0.0
  0
LINE
  5
112
330
1F
100
AcDbEntity
  8
0
  6
HIDDEN
 62
     7
370
     0
100
AcDbLine
 10
191.1823132352
 20
96.0350171
 30
0.0
 11
189.5440092587
 21
95.6426676631
 31
0.0
  0
LINE
  5
113
330
1F
100
AcDbEntity
  8
0
  6
HIDDEN
 62
     7
370
     0
100
AcDbLine
 10
190.6232943104
 20
97.3085029319
 30
0.0
 11
188.9849898682
 21
96.916153495
 31
0.0
  0
LINE
  5
114
330
1F
100
AcDbEntity
  8
0
  6
HIDDEN
 62
     7
370
     0
100
AcDbLine
 10
190.1246371956
 20
94.9653568014
 30
0.0
 11
188.4863332191
 21
94.5730073646
 31
0.0
  0
LINE
  5
115
330
1F
100
AcDbEntity
  8
0
  6
HIDDEN
 62
     7
370
     0
100
AcDbLine
 10
190.1246371956
 20
94.9653568014
 30
0.0
 11
190.9329851435
 21
94.8634440348
 31
0.0
  0
LINE
  5
116
330
1F
100
AcDbEntity
  8
0
  6
HIDDEN
 62
     7
370
     0
100
AcDbLine
 10
190.9329851435
 20
94.8634440348
 30
0.0
 11
189.2946807013
 21
94.4710945979
 31
0.0
  0
LWPOLYLINE
  5
117
330
1F
100
AcDbEntity
  8
0
  6
HIDDEN
 62
     7
370
     0
100
AcDbPolyline
 90
       19
 70
   128
 43
0.0
 10
193.5091970765
 20
95.1814348146
 10
193.7215442115
 20
95.5306416646
 10
193.8265303427
 20
96.0239613697
 10
193.8114913457
 20
96.6018917307
 10
193.6782414371
 20
97.1947251156
 10
193.4428524503
 20
97.730957371
 10
193.1337166855
 20
98.1459109381
 10
192.7881187105
 20
98.3895365417
 10
192.4477445239
 20
98.4324500233
 10
192.1536468246
 20
98.2694741607
 10
191.9412987584
 20
97.9202663794
 10
191.8363135585
 20
97.4269466743
 10
191.8513525554
 20
96.8490172446
 10
191.9846015328
 20
96.2561838597
 10
192.2199905196
 20
95.7199516043
 10
192.5291272157
 20
95.3049971059
 10
192.8747242594
 20
95.0613715023
 10
193.2150993773
 20
95.018458952
 10
193.5091970765
 20
95.1814348146
  0
LINE
  5
118
330
1F
100
AcDbEntity
  8
0
  6
HIDDEN
 62
     7
370
     0
100
AcDbLine
 10
190.1246371956
 20
94.9653568014
 30
0.0
 11
189.5656178051
 21
96.2388426334
 31
0.0
  0
LINE
  5
119
330
1F
100
AcDbEntity
  8
0
  6
HIDDEN
 62
     7
370
     0
100
AcDbLine
 10
189.5656178051
 20
96.2388426334
 30
0.0
 11
189.8149463625
 21
97.4104156986
 31
0.0
  0
LINE
  5
11A
330
1F
100
AcDbEntity
  8
0
  6
HIDDEN
 62
     7
370
     0
100
AcDbLine
 10
190.6232943104
 20
97.3085029319
 30
0.0
 11
189.8149463625
 21
97.4104156986
 31
0.0
  0
LINE
  5
11B
330
1F
100
AcDbEntity
  8
0
  6
HIDDEN
 62
     7
370
     0
100
AcDbLine
 10
191.1823132352
 20
96.0350171
 30
0.0
 11
190.6232943104
 21
97.3085029319
 31
0.0
  0
LINE
  5
11C
330
1F
100
AcDbEntity
  8
0
  6
HIDDEN
 62
     7
370
     0
100
AcDbLine
 10
191.1823132352
 20
96.0350171
 30
0.0
 11
190.9329851435
 21
94.8634440348
 31
0.0
  0
LINE
  5
11D
330
1F
100
AcDbEntity
  8
0
  6
HIDDEN
 62
     7
370
     0
100
AcDbLine
 10
189.5656178051
 20
96.2388426334
 30
0.0
 11
187.9273138286
 21
95.8464931965
 31
0.0
  0
LINE
  5
11E
330
1F
100
AcDbEntity
  8
0
  6
HIDDEN
 62
     7
370
     0
100
AcDbLine
 10
189.8149463625
 20
97.4104156986
 30
0.0
 11
188.176642386
 21
97.0180662617
 31
0.0
  0
LWPOLYLINE
  5
11F
330
1F
100
AcDbEntity
  8
0
  6
HIDDEN
 62
     7
370
     0
100
AcDbPolyline
 90
       23
 70
   128
 43
0.0
 10
191.2488078044
 20
123.9804070711
 10
191.586010372
 20
124.5218333125
 10
191.9743374267
 20
124.9173324823
 10
192.3823274949
 20
125.1348605648
 10
192.7769279384
 20
125.156797868
 10
193.1261720413
 20
124.9813646346
 10
193.4017643609
 20
124.6227737784
 10
193.5813792327
 20
124.1100779071
 10
193.6504647413
 20
123.4848102823
 10
193.6034245693
 20
122.7976283327
 10
193.4440687576
 20
122.1042018652
 10
193.1853072995
 20
121.4607101202
 10
192.8481051975
 20
120.9192829475
 10
192.4597781428
 20
120.523784709
 10
192.0517880747
 20
120.3062556952
 10
191.6571866998
 20
120.2843193233
 10
191.3079435283
 20
120.4597525567
 10
191.0323507429
 20
120.8183424815
 10
190.8527358712
 20
121.3310392842
 10
190.7836503626
 20
121.9563059777
 10
190.8306910002
 20
122.6434879273
 10
190.990046812
 20
123.3369143948
 10
191.2488078044
 20
123.9804070711
  0
LWPOLYLINE
  5
120
330
1F
100
AcDbEntity
  8
0
  6
HIDDEN
 62
     7
370
     0
100
AcDbPolyline
 90
       19
 70
   128
 43
0.0
 10
192.1536468246
 20
123.4553208843
 10
192.4477445239
 20
123.9056041732
 10
192.7881187105
 20
124.1952063784
 10
193.1337166855
 20
124.2891991779
 10
193.4428524503
 20
124.1762437195
 10
193.6782414371
 20
123.8699652523
 10
193.8114913457
 20
123.4073046863
 10
193.8265303427
 20
122.8440668702
 10
193.7215442115
 20
122.2481852665
 10
193.5091970765
 20
121.6915328324
 10
193.2150993773
 20
121.2412504747
 10
192.8747242594
 20
120.9516473383
 10
192.5291272157
 20
120.8576554701
 10
192.2199905196
 20
120.9706109285
 10
191.9846015328
 20
121.2768893957
 10
191.8513525554
 20
121.7395490304
 10
191.8363135585
 20
122.3027877778
 10
191.9412987584
 20
122.8986684501
 10
192.1536468246
 20
123.4553208843
  0
LWPOLYLINE
  5
121
330
1F
100
AcDbEntity
  8
0
  6
HIDDEN
 62
     7
370
     0
100
AcDbPolyline
 90
       23
 70
   128
 43
0.0
 10
187.9778688119
 20
124.7637480766
 10
188.3150718452
 20
125.305174318
 10
188.7033979685
 20
125.7006734878
 10
189.1113885024
 20
125.9182025015
 10
189.5059894116
 20
125.9401388735
 10
189.8552330488
 20
125.7647056401
 10
190.1308258341
 20
125.4061147839
 10
190.3104407058
 20
124.8934189126
 10
190.3795262144
 20
124.2681512877
 10
190.3324855768
 20
123.5809693381
 10
190.1731297651
 20
122.8875428706
 10
189.9143687726
 20
122.2440511256
 10
189.5771657394
 20
121.7026239529
 10
189.188839616
 20
121.3071257144
 10
188.7808490822
 20
121.0895967007
 10
188.3862481729
 20
121.0676603287
 10
188.0370045358
 20
121.2430935621
 10
187.7614117504
 20
121.601683487
 10
187.5817968787
 20
122.1143802896
 10
187.512711603
 20
122.7396469831
 10
187.5597520077
 20
123.4268289328
 10
187.7191078195
 20
124.1202554002
 10
187.9778688119
 20
124.7637480766
  0
LINE
  5
122
330
1F
100
AcDbEntity
  8
0
  6
HIDDEN
 62
     7
370
     0
100
AcDbLine
 10
189.5656178051
 20
122.4741809338
 30
0.0
 11
189.8149463625
 21
123.889325586
 31
0.0
  0
LINE
  5
123
330
1F
100
AcDbEntity
  8
0
  6
HIDDEN
 62
     7
370
     0
100
AcDbLine
 10
187.9273138286
 20
122.8665294394
 30
0.0
 11
188.176642386
 21
124.2816740915
 31
0.0
  0
LWPOLYLINE
  5
124
330
1F
100
AcDbEntity
  8
0
  6
HIDDEN
 62
     7
370
     0
100
AcDbPolyline
 90
       21
 70
   128
 43
0.0
 10
187.9397600235
 20
124.5898962289
 10
188.2473768012
 20
125.073376511
 10
188.6027899848
 20
125.4081581056
 10
188.9712100194
 20
125.5614724278
 10
189.3165723698
 20
125.5183093518
 10
189.6050714233
 20
125.282897082
 10
189.8084666857
 20
124.8782774702
 10
189.9068478772
 20
124.3440568715
 10
189.890585588
 20
123.7325299799
 10
189.7612709829
 20
123.1035566226
 10
189.5315630638
 20
122.5187056035
 10
189.2239462861
 20
122.0352253213
 10
188.8685331026
 20
121.7004427955
 10
188.5001130679
 20
121.5471294045
 10
188.1547507176
 20
121.5902906179
 10
187.866251664
 20
121.8257038191
 10
187.6628564016
 20
122.2303243622
 10
187.5644752101
 20
122.7645440295
 10
187.5807374993
 20
123.3760718524
 10
187.7100516388
 20
124.0050452098
 10
187.9397600235
 20
124.5898962289
  0
LINE
  5
125
330
1F
100
AcDbEntity
  8
0
  6
HIDDEN
 62
     7
370
     0
100
AcDbLine
 10
188.9849898682
 20
124.9694455683
 30
0.0
 11
188.176642386
 21
124.2816740915
 31
0.0
  0
LINE
  5
126
330
1F
100
AcDbEntity
  8
0
  6
HIDDEN
 62
     7
370
     0
100
AcDbLine
 10
190.6232943104
 20
124.5770961314
 30
0.0
 11
189.8149463625
 21
123.889325586
 31
0.0
  0
LINE
  5
127
330
1F
100
AcDbEntity
  8
0
  6
HIDDEN
 62
     7
370
     0
100
AcDbLine
 10
189.8149463625
 20
123.889325586
 30
0.0
 11
188.176642386
 21
124.2816740915
 31
0.0
  0
LINE
  5
128
330
1F
100
AcDbEntity
  8
0
  6
HIDDEN
 62
     7
370
     0
100
AcDbLine
 10
187.9273138286
 20
122.8665294394
 30
0.0
 11
188.4863332191
 21
122.1391562641
 31
0.0
  0
LINE
  5
129
330
1F
100
AcDbEntity
  8
0
  6
HIDDEN
 62
     7
370
     0
100
AcDbLine
 10
189.5656178051
 20
122.4741809338
 30
0.0
 11
190.1246371956
 21
121.7468068272
 31
0.0
  0
LINE
  5
12A
330
1F
100
AcDbEntity
  8
0
  6
HIDDEN
 62
     7
370
     0
100
AcDbLine
 10
189.5656178051
 20
122.4741809338
 30
0.0
 11
187.9273138286
 21
122.8665294394
 31
0.0
  0
LINE
  5
12B
330
1F
100
AcDbEntity
  8
0
  6
HIDDEN
 62
     7
370
     0
100
AcDbLine
 10
191.1823132352
 20
123.8497220248
 30
0.0
 11
189.5440092587
 21
124.2420714617
 31
0.0
  0
LINE
  5
12C
330
1F
100
AcDbEntity
  8
0
  6
HIDDEN
 62
     7
370
     0
100
AcDbLine
 10
190.6232943104
 20
124.5770961314
 30
0.0
 11
188.9849898682
 21
124.9694455683
 31
0.0
  0
LINE
  5
12D
330
1F
100
AcDbEntity
  8
0
  6
HIDDEN
 62
     7
370
     0
100
AcDbLine
 10
188.9849898682
 20
124.9694455683
 30
0.0
 11
189.5440092587
 21
124.2420714617
 31
0.0
  0
LINE
  5
12E
330
1F
100
AcDbEntity
  8
0
  6
HIDDEN
 62
     7
370
     0
100
AcDbLine
 10
190.6232943104
 20
124.5770961314
 30
0.0
 11
191.1823132352
 21
123.8497220248
 31
0.0
  0
LINE
  5
12F
330
1F
100
AcDbEntity
  8
0
  6
HIDDEN
 62
     7
370
     0
100
AcDbLine
 10
190.9329851435
 20
122.4345773727
 30
0.0
 11
189.2946807013
 21
122.8269268095
 31
0.0
  0
LINE
  5
130
330
1F
100
AcDbEntity
  8
0
  6
HIDDEN
 62
     7
370
     0
100
AcDbLine
 10
190.1246371956
 20
121.7468068272
 30
0.0
 11
188.4863332191
 21
122.1391562641
 31
0.0
  0
LINE
  5
131
330
1F
100
AcDbEntity
  8
0
  6
HIDDEN
 62
     7
370
     0
100
AcDbLine
 10
188.4863332191
 20
122.1391562641
 30
0.0
 11
189.2946807013
 21
122.8269268095
 31
0.0
  0
LINE
  5
132
330
1F
100
AcDbEntity
  8
0
  6
HIDDEN
 62
     7
370
     0
100
AcDbLine
 10
190.1246371956
 20
121.7468068272
 30
0.0
 11
190.9329851435
 21
122.4345773727
 31
0.0
  0
LINE
  5
133
330
1F
100
AcDbEntity
  8
0
  6
HIDDEN
 62
     7
370
     0
100
AcDbLine
 10
189.5440092587
 20
124.2420714617
 30
0.0
 11
189.2946807013
 21
122.8269268095
 31
0.0
  0
LINE
  5
134
330
1F
100
AcDbEntity
  8
0
  6
HIDDEN
 62
     7
370
     0
100
AcDbLine
 10
191.1823132352
 20
123.8497220248
 30
0.0
 11
190.9329851435
 21
122.4345773727
 31
0.0
  0
CIRCLE
  5
135
330
1F
100
AcDbEntity
  8
0
  6
HIDDEN
 62
     7
370
     0
100
AcDbCircle
 10
223.5649322146
 20
109.649440673
 30
0.0
 40
1.426794919243115
  0
CIRCLE
  5
136
330
1F
100
AcDbEntity
  8
0
  6
HIDDEN
 62
     7
370
     0
100
AcDbCircle
 10
223.5649322146
 20
109.649440673
 30
0.0
 40
1.326794919243124
  0
LWPOLYLINE
  5
137
330
1F
100
AcDbEntity
  8
0
  6
HIDDEN
 62
     7
370
     0
100
AcDbPolyline
 90
       23
 70
   128
 43
0.0
 10
197.814932307
 20
93.7921241194
 10
198.5192636305
 20
93.8872847974
 10
199.1665346825
 20
94.1650554806
 10
199.7043064141
 20
94.6029354155
 10
200.0890115553
 20
95.1654486626
 10
200.2894861901
 20
95.8070246771
 10
200.2894861901
 20
96.4756854147
 10
200.0890115553
 20
97.1172614291
 10
199.7043064141
 20
97.6797746763
 10
199.1665346825
 20
98.1176546112
 10
198.5192636305
 20
98.3954262257
 10
197.814932307
 20
98.4905869037
 10
197.1106009835
 20
98.3954262257
 10
196.4633299315
 20
98.1176546112
 10
195.9255581999
 20
97.6797746763
 10
195.5408521274
 20
97.1172614291
 10
195.3403784239
 20
96.4756854147
 10
195.3403784239
 20
95.8070246771
 10
195.5408521274
 20
95.1654486626
 10
195.9255581999
 20
94.6029354155
 10
196.4633299315
 20
94.1650554806
 10
197.1106009835
 20
93.8872847974
 10
197.814932307
 20
93.7921241194
  0
LWPOLYLINE
  5
138
330
1F
100
AcDbEntity
  8
0
  6
HIDDEN
 62
     7
370
     0
100
AcDbPolyline
 90
       25
 70
   128
 43
0.0
 10
187.08666319
 20
95.7445804298
 10
187.2700981141
 20
94.9832111865
 10
187.5534087696
 20
94.2737268552
 10
187.9172881411
 20
93.66447891
 10
188.3369383679
 20
93.1969885051
 10
188.7837608622
 20
92.9031096667
 10
189.2273055666
 20
92.8028732806
 10
189.6373450102
 20
92.9031096667
 10
189.9859367215
 20
93.1969885051
 10
190.2493240589
 20
93.66447891
 10
190.4095581078
 20
94.2737268552
 10
190.4557186456
 20
94.9832111865
 10
190.3846601301
 20
95.7445804298
 10
190.2012249732
 20
96.5059506044
 10
189.9179143177
 20
97.2154340044
 10
189.5540349462
 20
97.8246819496
 10
189.1343847194
 20
98.2921732858
 10
188.6875622251
 20
98.5860511929
 10
188.2440175207
 20
98.6862875789
 10
187.8339776115
 20
98.5860511929
 10
187.4853863658
 20
98.2921732858
 10
187.2219987956
 20
97.8246819496
 10
187.0617652123
 20
97.2154340044
 10
187.0156046746
 20
96.5059506044
 10
187.08666319
 20
95.7445804298
  0
LWPOLYLINE
  5
139
330
1F
100
AcDbEntity
  8
0
  6
HIDDEN
 62
     7
370
     0
100
AcDbPolyline
 90
       21
 70
   128
 43
0.0
 10
187.8496950769
 20
95.8088426188
 10
188.0125386917
 20
95.1725164697
 10
188.2724331037
 20
94.5984781057
 10
188.6039378398
 20
94.1429188743
 10
188.9746023619
 20
93.8504323631
 10
189.3481446707
 20
93.7496464968
 10
189.6879987137
 20
93.8504323631
 10
189.9608971828
 20
94.1429188743
 10
190.140127884
 20
94.5984781057
 10
190.2081456312
 20
95.1725164697
 10
190.1582928651
 20
95.8088426188
 10
189.9954487847
 20
96.4451687679
 10
189.7355543726
 20
97.0192062005
 10
189.4040501022
 20
97.4747654319
 10
189.0333851145
 20
97.7672528744
 10
188.6598432714
 20
97.8680368781
 10
188.3199892284
 20
97.7672528744
 10
188.0470902936
 20
97.4747654319
 10
187.8678595924
 20
97.0192062005
 10
187.7998418452
 20
96.4451687679
 10
187.8496950769
 20
95.8088426188
  0
ELLIPSE
  5
13A
330
1F
100
AcDbEntity
  8
0
  6
HIDDEN
 62
     7
370
     0
100
AcDbEllipse
 10
197.8149322146
 20
97.9189305616
 30
0.0
 11
1.760776919379055
 21
2.232245799914452
 31
0.0
210
0.0
220
0.0
230
1.0
 40
0.5126701559
 41
1.100887047646267
 42
4.029627027608258
  0
ARC
  5
13B
330
1F
100
AcDbEntity
  8
0
  6
HIDDEN
 62
     7
370
     0
100
AcDbCircle
 10
197.118332746
 20
99.0964704428
 30
0.0
 40
0.7945949542258047
100
AcDbArc
 50
53.4208190544
 51
99.1663888759
  0
ELLIPSE
  5
13C
330
1F
100
AcDbEntity
  8
0
  6
HIDDEN
 62
     7
370
     0
100
AcDbEllipse
 10
197.8149322146
 20
97.9189305616
 30
0.0
 11
1.760776919379055
 21
-1.388886188042932
 31
0.0
210
0.0
220
0.0
230
1.0
 40
0.8239737799
 41
2.54992626524857
 42
4.885930273856101
  0
ARC
  5
13D
330
1F
100
AcDbEntity
  8
0
  6
HIDDEN
 62
     7
370
     0
100
AcDbCircle
 10
198.0609849765
 20
97.0794529976
 30
0.0
 40
1.353195702694776
100
AcDbArc
 50
217.8001040701
 51
249.7155767561
  0
LWPOLYLINE
  5
13E
330
1F
100
AcDbEntity
  8
0
  6
HIDDEN
 62
     7
370
     0
100
AcDbPolyline
 90
       21
 70
   128
 43
0.0
 10
197.814932307
 20
94.2177944154
 10
198.4638676324
 20
94.314377223
 10
199.0492811703
 20
94.5946717903
 10
199.5138677114
 20
95.031240423
 10
199.8121517056
 20
95.5813493848
 10
199.9149324649
 20
96.1911496043
 10
199.8121517056
 20
96.8009488925
 10
199.5138677114
 20
97.3510578543
 10
199.0492811703
 20
97.787626487
 10
198.4638676324
 20
98.0679210544
 10
197.814932307
 20
98.164503862
 10
197.1659969815
 20
98.0679210544
 10
196.5805834436
 20
97.787626487
 10
196.1159969026
 20
97.3510578543
 10
195.8177138397
 20
96.8009488925
 10
195.714932149
 20
96.1911496043
 10
195.8177138397
 20
95.5813493848
 10
196.1159969026
 20
95.031240423
 10
196.5805834436
 20
94.5946717903
 10
197.1659969815
 20
94.314377223
 10
197.814932307
 20
94.2177944154
  0
ELLIPSE
  5
13F
330
1F
100
AcDbEntity
  8
0
  6
HIDDEN
 62
     7
370
     0
100
AcDbEllipse
 10
197.8149322146
 20
109.649440673
 30
0.0
 11
1.720219293006892
 21
1.720219293006878
 31
0.0
210
0.0
220
0.0
230
1.0
 40
0.7002075382
 41
0.9599310885968839
 42
4.10152374218669
  0
ELLIPSE
  5
140
330
1F
100
AcDbEntity
  8
0
  6
HIDDEN
 62
     7
370
     0
100
AcDbEllipse
 10
197.8149322146
 20
109.649440673
 30
0.0
 11
-1.720219293006892
 21
1.720219293006878
 31
0.0
210
0.0
220
0.0
230
1.0
 40
0.7002075382
 41
2.181661564992904
 42
5.32325421858271
  0
SPLINE
  5
141
330
1F
100
AcDbEntity
  8
0
  6
HIDDEN
 62
     7
370
     0
100
AcDbSpline
210
0.0
220
0.0
230
1.0
 70
     8
 71
     3
 72
     8
 73
     4
 74
     0
 42
0.000000001
 43
0.00000001
 40
0.0
 40
0.0
 40
0.0
 40
0.0
 40
1.0
 40
1.0
 40
1.0
 40
1.0
 10
196.9917520384375
 20
99.88091863751038
 30
0.0
 10
197.2031794284387
 20
99.87340912772788
 30
0.0
 10
197.4056479749715
 20
99.81928559809324
 30
0.0
 10
197.5918585741088
 20
99.73455731086807
 30
0.0
  0
SPLINE
  5
142
330
1F
100
AcDbEntity
  8
0
  6
HIDDEN
 62
     7
370
     0
100
AcDbSpline
210
0.0
220
0.0
230
1.0
 70
     8
 71
     3
 72
     8
 73
     4
 74
     0
 42
0.000000001
 43
0.00000001
 40
0.0
 40
0.0
 40
0.0
 40
0.0
 40
1.0
 40
1.0
 40
1.0
 40
1.0
 10
197.5918585741088
 20
95.81017854293381
 30
0.0
 10
197.4053342248244
 20
95.93249895883429
 30
0.0
 10
197.2027793262988
 20
96.07358411949903
 30
0.0
 10
196.9917520384375
 20
96.25006775528388
 30
0.0
  0
LINE
  5
143
330
1F
100
AcDbEntity
  8
0
  6
HIDDEN
 62
     7
370
     0
100
AcDbLine
 10
186.9865050351
 20
74.349439171
 30
0.0
 11
186.8149321338
 21
74.349439171
 31
0.0
  0
ELLIPSE
  5
144
330
1F
100
AcDbEntity
  8
0
  6
HIDDEN
 62
     7
370
     0
100
AcDbEllipse
 10
186.9865050899
 20
72.349440673
 30
0.0
 11
0.0
 21
2.0
 31
0.0
210
0.0
220
0.0
230
1.0
 40
0.4142135624
 41
4.712388980384702
 42
6.283185307179586
  0
LINE
  5
145
330
1F
100
AcDbEntity
  8
0
  6
HIDDEN
 62
     7
370
     0
100
AcDbLine
 10
186.8149321338
 20
147.1494421631
 30
0.0
 11
186.9865050351
 21
147.1494421631
 31
0.0
  0
ELLIPSE
  5
146
330
1F
100
AcDbEntity
  8
0
  6
HIDDEN
 62
     7
370
     0
100
AcDbEllipse
 10
186.9865050899
 20
149.149440673
 30
0.0
 11
0.0
 21
2.0
 31
0.0
210
0.0
220
0.0
230
1.0
 40
0.4142135624
 41
3.141592653589793
 42
4.712388980384695
  0
LINE
  5
147
330
1F
100
AcDbEntity
  8
0
  6
HIDDEN
 62
     7
370
     0
100
AcDbLine
 10
187.8149320648
 20
63.4635262459
 30
0.0
 11
187.0305922159
 21
63.0159847707
 31
0.0
  0
LINE
  5
148
330
1F
100
AcDbEntity
  8
0
  6
HIDDEN
 62
     7
370
     0
100
AcDbLine
 10
187.1048011628
 20
156.3596040279
 30
0.0
 11
187.8149320648
 21
155.64947429
 31
0.0
  0
LINE
  5
149
330
1F
100
AcDbEntity
  8
0
  6
HIDDEN
 62
     7
370
     0
100
AcDbLine
 10
202.66493245
 20
74.349439171
 30
0.0
 11
186.9865050351
 21
74.349439171
 31
0.0
  0
LINE
  5
14A
330
1F
100
AcDbEntity
  8
0
  6
HIDDEN
 62
     7
370
     0
100
AcDbLine
 10
191.9348847398
 20
63.4635262459
 30
0.0
 11
187.8149320648
 21
63.4635262459
 31
0.0
  0
LINE
  5
14B
330
1F
100
AcDbEntity
  8
0
  6
HIDDEN
 62
     7
370
     0
100
AcDbLine
 10
202.66493245
 20
63.4635262459
 30
0.0
 11
197.4949801618
 21
63.4635262459
 31
0.0
  0
LINE
  5
14C
330
1F
100
AcDbEntity
  8
0
  6
HIDDEN
 62
     7
370
     0
100
AcDbLine
 10
187.8149320648
 20
63.4635262459
 30
0.0
 11
187.8149320648
 21
72.3494388431
 31
0.0
  0
LINE
  5
14D
330
1F
100
AcDbEntity
  8
0
  6
HIDDEN
 62
     7
370
     0
100
AcDbLine
 10
187.8149320648
 20
155.64947429
 30
0.0
 11
192.0382615456
 21
155.64947429
 31
0.0
  0
LINE
  5
14E
330
1F
100
AcDbEntity
  8
0
  6
HIDDEN
 62
     7
370
     0
100
AcDbLine
 10
197.391603356
 20
155.64947429
 30
0.0
 11
202.66493245
 21
155.64947429
 31
0.0
  0
LINE
  5
14F
330
1F
100
AcDbEntity
  8
0
  6
HIDDEN
 62
     7
370
     0
100
AcDbLine
 10
187.8149320648
 20
155.64947429
 30
0.0
 11
187.8149320648
 21
149.1494424909
 31
0.0
  0
LINE
  5
150
330
1F
100
AcDbEntity
  8
0
  6
HIDDEN
 62
     7
370
     0
100
AcDbLine
 10
186.9865050351
 20
147.1494421631
 30
0.0
 11
202.66493245
 21
147.1494421631
 31
0.0
  0
LINE
  5
151
330
1F
100
AcDbEntity
  8
0
  6
HIDDEN
 62
     7
370
     0
100
AcDbLine
 10
92.0149313563
 20
97.1494404867
 30
0.0
 11
92.0149313563
 21
122.1494408593
 31
0.0
  0
LINE
  5
152
330
1F
100
AcDbEntity
  8
0
  6
HIDDEN
 62
     7
370
     0
100
AcDbLine
 10
95.2995347136
 20
99.1494408146
 30
0.0
 11
95.2995347136
 21
120.1494405314
 31
0.0
  0
LINE
  5
153
330
1F
100
AcDbEntity
  8
0
  6
HIDDEN
 62
     7
370
     0
100
AcDbLine
 10
144.0149324292
 20
99.1494408146
 30
0.0
 11
144.0149324292
 21
120.1494405314
 31
0.0
  0
LINE
  5
154
330
1F
100
AcDbEntity
  8
0
  6
HIDDEN
 62
     7
370
     0
100
AcDbLine
 10
149.0621606165
 20
107.5494407479
 30
0.0
 11
149.0621606165
 21
111.7494405981
 31
0.0
  0
SPLINE
  5
155
330
1F
100
AcDbEntity
  8
0
  6
HIDDEN
 62
     7
370
     0
100
AcDbSpline
210
0.0
220
0.0
230
1.0
 70
     8
 71
     3
 72
    16
 73
    12
 74
     0
 42
0.000000001
 43
0.00000001
 40
0.0
 40
0.0
 40
0.0
 40
0.0
 40
0.2499999999999963
 40
0.2499999999999963
 40
0.4999999999999926
 40
0.4999999999999926
 40
0.6249999999999907
 40
0.6249999999999907
 40
0.7499999999999889
 40
0.7499999999999889
 40
1.0
 40
1.0
 40
1.0
 40
1.0
 10
228.6149322145969
 20
115.1180767544227
 30
0.0
 10
228.6149322145969
 20
115.0489428530836
 30
0.0
 10
228.610398405377
 20
114.9783217056489
 30
0.0
 10
228.5852345583961
 20
114.8317982192926
 30
0.0
 10
228.5649474158591
 20
114.754356344142
 30
0.0
 10
228.5063380390888
 20
114.6487078801879
 30
0.0
 10
228.4818097425026
 20
114.6166276001179
 30
0.0
 10
228.427463836661
 20
114.5695018767616
 30
0.0
 10
228.3978640118931
 20
114.5544485283042
 30
0.0
 10
228.3139144537011
 20
114.5304430939331
 30
0.0
 10
228.2625560549699
 20
114.5380055286763
 30
0.0
 10
228.21493221471
 20
114.5520448837461
 30
0.0
  0
SPLINE
  5
156
330
1F
100
AcDbEntity
  8
0
  6
HIDDEN
 62
     7
370
     0
100
AcDbSpline
210
0.0
220
0.0
230
1.0
 70
     8
 71
     3
 72
     8
 73
     4
 74
     0
 42
0.000000001
 43
0.00000001
 40
0.0
 40
0.0
 40
0.0
 40
0.0
 40
1.0
 40
1.0
 40
1.0
 40
1.0
 10
228.2149322147096
 20
114.5520448837464
 30
0.0
 10
228.1557659058174
 20
114.5181955929178
 30
0.0
 10
228.0869829202931
 20
114.496080216737
 30
0.0
 10
228.0149322145969
 20
114.496080216737
 30
0.0
  0
SPLINE
  5
157
330
1F
100
AcDbEntity
  8
0
  6
HIDDEN
 62
     7
370
     0
100
AcDbSpline
210
0.0
220
0.0
230
1.0
 70
     8
 71
     3
 72
     8
 73
     4
 74
     0
 42
0.000000001
 43
0.00000001
 40
0.0
 40
0.0
 40
0.0
 40
0.0
 40
1.0
 40
1.0
 40
1.0
 40
1.0
 10
228.214932214532
 20
104.7468364623332
 30
0.0
 10
228.1557659056823
 20
104.7806857531046
 30
0.0
 10
228.086982920221
 20
104.8028011292409
 30
0.0
 10
228.0149322145969
 20
104.8028011292409
 30
0.0
  0
SPLINE
  5
158
330
1F
100
AcDbEntity
  8
0
  6
HIDDEN
 62
     7
370
     0
100
AcDbSpline
210
0.0
220
0.0
230
1.0
 70
     8
 71
     3
 72
    16
 73
    12
 74
     0
 42
0.000000001
 43
0.00000001
 40
0.0
 40
0.0
 40
0.0
 40
0.0
 40
0.2499999999999875
 40
0.2499999999999875
 40
0.3749999999999888
 40
0.3749999999999888
 40
0.4999999999999901
 40
0.4999999999999901
 40
0.749999999999995
 40
0.749999999999995
 40
1.0
 40
1.0
 40
1.0
 40
1.0
 10
228.2149322145197
 20
104.746836462333
 30
0.0
 10
228.2622368023829
 20
104.7607816311238
 30
0.0
 10
228.3132349415366
 20
104.7683626185235
 30
0.0
 10
228.3968339478053
 20
104.7448537855625
 30
0.0
 10
228.4259712896403
 20
104.7302895179719
 30
0.0
 10
228.4802949615802
 20
104.683919831344
 30
0.0
 10
228.5047781084961
 20
104.652395367955
 30
0.0
 10
228.5636186647889
 20
104.548020268733
 30
0.0
 10
228.5845000424441
 20
104.4702544435304
 30
0.0
 10
228.6102707530005
 20
104.3223669090605
 30
0.0
 10
228.6149319072238
 20
104.2502562571379
 30
0.0
 10
228.6149322145826
 20
104.1808099069999
 30
0.0
  0
LINE
  5
159
330
1F
100
AcDbEntity
  8
0
  6
HIDDEN
 62
     7
370
     0
100
AcDbLine
 10
215.1149327212
 20
109.649440673
 30
0.0
 11
215.1149327212
 21
104.4494406588
 31
0.0
  0
LINE
  5
15A
330
1F
100
AcDbEntity
  8
0
  6
HIDDEN
 62
     7
370
     0
100
AcDbLine
 10
215.1149327212
 20
114.8494406871
 30
0.0
 11
215.1149327212
 21
109.649440673
 31
0.0
  0
LINE
  5
15B
330
1F
100
AcDbEntity
  8
0
  6
HIDDEN
 62
     7
370
     0
100
AcDbLine
 10
218.4809560233
 20
109.649440673
 30
0.0
 11
218.4809560233
 21
104.1494407028
 31
0.0
  0
LINE
  5
15C
330
1F
100
AcDbEntity
  8
0
  6
HIDDEN
 62
     7
370
     0
100
AcDbLine
 10
218.4809560233
 20
115.1494406432
 30
0.0
 11
218.4809560233
 21
109.649440673
 31
0.0
  0
LINE
  5
15D
330
1F
100
AcDbEntity
  8
0
  6
HIDDEN
 62
     7
370
     0
100
AcDbLine
 10
222.7149309867
 20
114.4960801385
 30
0.0
 11
228.0149312967
 21
114.4960801385
 31
0.0
  0
LINE
  5
15E
330
1F
100
AcDbEntity
  8
0
  6
HIDDEN
 62
     7
370
     0
100
AcDbLine
 10
222.7149309867
 20
104.8028012074
 30
0.0
 11
228.0149312967
 21
104.8028012074
 31
0.0
  0
SPLINE
  5
15F
330
1F
100
AcDbEntity
  8
0
  6
HIDDEN
 62
     7
370
     0
100
AcDbSpline
210
0.0
220
0.0
230
1.0
 70
    11
 71
     3
 72
    20
 73
    16
 74
     0
 42
0.000000001
 43
0.00000001
 40
0.0
 40
0.0
 40
0.0
 40
0.0
 40
0.125
 40
0.125
 40
0.25
 40
0.25
 40
0.5
 40
0.5
 40
0.625
 40
0.625
 40
0.75
 40
0.75
 40
0.875
 40
0.875
 40
1.0
 40
1.0
 40
1.0
 40
1.0
 10
228.2149322145969
 20
117.049440672989
 30
0.0
 10
228.2149322145969
 20
117.1486153542995
 30
0.0
 10
228.2150986572538
 20
117.2381619719786
 30
0.0
 10
228.2131383179507
 20
117.3985586486368
 30
0.0
 10
228.2111499510491
 20
117.4686885162274
 30
0.0
 10
228.2041463002365
 20
117.6380787915771
 30
0.0
 10
228.1964174772864
 20
117.6994242138493
 30
0.0
 10
228.19073588577
 20
117.6994488974696
 30
0.0
 10
228.1897424429852
 20
117.6847465093771
 30
0.0
 10
228.1913259428419
 20
117.6259626735119
 30
0.0
 10
228.1936553578451
 20
117.5821472618687
 30
0.0
 10
228.2003251573529
 20
117.4692581864034
 30
0.0
 10
228.2049189518935
 20
117.3989109946813
 30
0.0
 10
228.2121963723748
 20
117.2393662724164
 30
0.0
 10
228.2149321838246
 20
117.1486322390911
 30
0.0
 10
228.2149320896468
 20
117.049440672991
 30
0.0
  0
LINE
  5
160
330
1F
100
AcDbEntity
  8
0
  6
HIDDEN
 62
     7
370
     0
100
AcDbLine
 10
228.2149309569
 20
117.0494406752
 30
0.0
 11
228.2149309569
 21
114.552044709
 31
0.0
  0
LINE
  5
161
330
1F
100
AcDbEntity
  8
0
  6
HIDDEN
 62
     7
370
     0
100
AcDbLine
 10
228.2149309569
 20
102.2494406708
 30
0.0
 11
228.2149309569
 21
104.746836637
 31
0.0
  0
SPLINE
  5
162
330
1F
100
AcDbEntity
  8
0
  6
HIDDEN
 62
     7
370
     0
100
AcDbSpline
210
0.0
220
0.0
230
1.0
 70
     8
 71
     3
 72
    11
 73
     7
 74
     0
 42
0.000000001
 43
0.00000001
 40
0.0
 40
0.0
 40
0.0
 40
0.0
 40
0.2832654152295399
 40
0.6060534136715496
 40
0.9293812995583176
 40
1.0
 40
1.0
 40
1.0
 40
1.0
 10
228.1931417339832
 20
101.6075698926998
 30
0.0
 10
228.1915583621884
 20
101.6160774438335
 30
0.0
 10
228.1881706987824
 20
101.6342795614566
 30
0.0
 10
228.2013097347256
 20
101.8376566058723
 30
0.0
 10
228.2140663266363
 20
102.0710996059694
 30
0.0
 10
228.2147995242424
 20
102.2223309951299
 30
0.0
 10
228.2149309569389
 20
102.2494406707538
 30
0.0
  0
LINE
  5
163
330
1F
100
AcDbEntity
  8
0
  6
HIDDEN
 62
     7
370
     0
100
AcDbLine
 10
222.7149309867
 20
117.0494406752
 30
0.0
 11
222.7149309867
 21
114.4960801385
 31
0.0
  0
LINE
  5
164
330
1F
100
AcDbEntity
  8
0
  6
HIDDEN
 62
     7
370
     0
100
AcDbLine
 10
222.7149309867
 20
102.2494406708
 30
0.0
 11
222.7149309867
 21
104.8028012074
 31
0.0
  0
ELLIPSE
  5
165
330
1F
100
AcDbEntity
  8
0
  6
HIDDEN
 62
     7
370
     0
100
AcDbEllipse
 10
197.8149322146
 20
109.649440673
 30
0.0
 11
1.720219293006892
 21
1.720219293006878
 31
0.0
210
0.0
220
0.0
230
1.0
 40
0.7002075382
 41
4.101523742186695
 42
7.243116395776475
  0
ELLIPSE
  5
166
330
1F
100
AcDbEntity
  8
0
  6
HIDDEN
 62
     7
370
     0
100
AcDbEllipse
 10
197.8149322146
 20
109.649440673
 30
0.0
 11
-1.720219293006892
 21
1.720219293006878
 31
0.0
210
0.0
220
0.0
230
1.0
 40
0.7002075382
 41
5.323254218582715
 42
8.464846872172496
  0
LINE
  5
167
330
1F
100
AcDbEntity
  8
0
  6
HIDDEN
 62
     7
370
     0
100
AcDbLine
 10
222.7149309867
 20
117.699440968
 30
0.0
 11
222.7149309867
 21
117.0494406752
 31
0.0
  0
LINE
  5
168
330
1F
100
AcDbEntity
  8
0
  6
HIDDEN
 62
     7
370
     0
100
AcDbLine
 10
222.7149309867
 20
101.5994403779
 30
0.0
 11
222.7149309867
 21
102.2494406708
 31
0.0
  0
ELLIPSE
  5
169
330
1F
100
AcDbEntity
  8
0
  6
HIDDEN
 62
     7
370
     0
100
AcDbEllipse
 10
197.8149322146
 20
121.3799507843
 30
0.0
 11
-1.760776919379055
 21
2.232245799914466
 31
0.0
210
0.0
220
0.0
230
1.0
 40
0.5126701559
 41
5.395150933160751
 42
8.323890913122769
  0
SPLINE
  5
16A
330
1F
100
AcDbEntity
  8
0
  6
HIDDEN
 62
     7
370
     0
100
AcDbSpline
210
0.0
220
0.0
230
1.0
 70
     8
 71
     3
 72
     8
 73
     4
 74
     0
 42
0.000000001
 43
0.00000001
 40
0.0
 40
0.0
 40
0.0
 40
0.0
 40
1.0
 40
1.0
 40
1.0
 40
1.0
 10
197.5918585741096
 20
123.4887028030446
 30
0.0
 10
197.405334224825
 20
123.366382387144
 30
0.0
 10
197.2027793262991
 20
123.2252972264792
 30
0.0
 10
196.9917520384376
 20
123.0488135906942
 30
0.0
  0
ELLIPSE
  5
16B
330
1F
100
AcDbEntity
  8
0
  6
HIDDEN
 62
     7
370
     0
100
AcDbEllipse
 10
197.8149322146
 20
121.3799507843
 30
0.0
 11
1.760776919379083
 21
1.388886188042946
 31
0.0
210
0.0
220
0.0
230
1.0
 40
0.8239737799
 41
1.397255033323476
 42
3.733259041931028
  0
SPLINE
  5
16C
330
1F
100
AcDbEntity
  8
0
  6
HIDDEN
 62
     7
370
     0
100
AcDbSpline
210
0.0
220
0.0
230
1.0
 70
     8
 71
     3
 72
     8
 73
     4
 74
     0
 42
0.000000001
 43
0.00000001
 40
0.0
 40
0.0
 40
0.0
 40
0.0
 40
1.0
 40
1.0
 40
1.0
 40
1.0
 10
196.9917520384374
 20
119.4179627084676
 30
0.0
 10
197.2031794284383
 20
119.4254722182501
 30
0.0
 10
197.4056479749708
 20
119.4795957478846
 30
0.0
 10
197.591858574108
 20
119.5643240351096
 30
0.0
  0
LWPOLYLINE
  5
16D
330
1F
100
AcDbEntity
  8
0
  6
HIDDEN
 62
     7
370
     0
100
AcDbPolyline
 90
       21
 70
   128
 43
0.0
 10
197.814932307
 20
121.134377484
 10
198.4638676324
 20
121.2309602916
 10
199.0492811703
 20
121.511254859
 10
199.5138677114
 20
121.9478234917
 10
199.8121517056
 20
122.4979324534
 10
199.9149324649
 20
123.1077317417
 10
199.8121517056
 20
123.7175319612
 10
199.5138677114
 20
124.267640923
 10
199.0492811703
 20
124.7042095557
 10
198.4638676324
 20
124.984504123
 10
197.814932307
 20
125.0810869306
 10
197.1659969815
 20
124.984504123
 10
196.5805834436
 20
124.7042095557
 10
196.1159969026
 20
124.267640923
 10
195.8177138397
 20
123.7175319612
 10
195.714932149
 20
123.1077317417
 10
195.8177138397
 20
122.4979324534
 10
196.1159969026
 20
121.9478234917
 10
196.5805834436
 20
121.511254859
 10
197.1659969815
 20
121.2309602916
 10
197.814932307
 20
121.134377484
  0
SPLINE
  5
16E
330
1F
100
AcDbEntity
  8
0
  6
HIDDEN
 62
     7
370
     0
100
AcDbSpline
210
0.0
220
0.0
230
1.0
 70
     8
 71
     3
 72
    16
 73
    12
 74
     0
 42
0.000000001
 43
0.00000001
 40
0.0
 40
0.0
 40
0.0
 40
0.0
 40
0.249999999999992
 40
0.249999999999992
 40
0.499999999999984
 40
0.499999999999984
 40
0.6249999999999841
 40
0.6249999999999841
 40
0.7499999999999842
 40
0.7499999999999842
 40
1.0
 40
1.0
 40
1.0
 40
1.0
 10
228.6149322145969
 20
104.1809372185361
 30
0.0
 10
228.6149322145969
 20
104.2497415700935
 30
0.0
 10
228.6103104375675
 20
104.3217126919216
 30
0.0
 10
228.5849115590865
 20
104.4685586028949
 30
0.0
 10
228.5636817549226
 20
104.5476696976823
 30
0.0
 10
228.505424951863
 20
104.6514818858291
 30
0.0
 10
228.4808564525452
 20
104.6834222577317
 30
0.0
 10
228.4259967890403
 20
104.7303715742358
 30
0.0
 10
228.3966725935921
 20
104.7449391377181
 30
0.0
 10
228.3131982989031
 20
104.768341292503
 30
0.0
 10
228.2619856210383
 20
104.7607077773735
 30
0.0
 10
228.2149322145971
 20
104.7468364622961
 30
0.0
  0
LINE
  5
16F
330
1F
100
AcDbEntity
  8
0
  6
HIDDEN
 62
     7
370
     0
100
AcDbLine
 10
192.8049318769
 20
145.0424850255
 30
0.0
 11
192.8049318769
 21
139.4994411886
 31
0.0
  0
LINE
  5
170
330
1F
100
AcDbEntity
  8
0
  6
HIDDEN
 62
     7
370
     0
100
AcDbLine
 10
196.6249320933
 20
145.0424850255
 30
0.0
 11
196.6249320933
 21
139.4994411886
 31
0.0
  0
SPLINE
  5
171
330
1F
100
AcDbEntity
  8
0
  6
HIDDEN
 62
     7
370
     0
100
AcDbSpline
210
0.0
220
0.0
230
1.0
 70
     8
 71
     3
 72
    14
 73
    10
 74
     0
 42
0.000000001
 43
0.00000001
 40
0.0
 40
0.0
 40
0.0
 40
0.0
 40
0.25
 40
0.25
 40
0.5
 40
0.5
 40
0.75
 40
0.75
 40
1.0
 40
1.0
 40
1.0
 40
1.0
 10
195.8249322145967
 20
126.6247302299228
 30
0.0
 10
195.8993577667313
 20
126.7155876847044
 30
0.0
 10
195.9812360263448
 20
126.8047982679102
 30
0.0
 10
196.1542221725203
 20
126.9802225867021
 30
0.0
 10
196.2448939923814
 20
127.0657575423288
 30
0.0
 10
196.4122575417258
 20
127.2266091552673
 30
0.0
 10
196.4887083666922
 20
127.3023412441638
 30
0.0
 10
196.5950014515307
 20
127.4339322677392
 30
0.0
 10
196.6249322145969
 20
127.4909324426455
 30
0.0
 10
196.6249322145969
 20
127.5331297155976
 30
0.0
  0
SPLINE
  5
172
330
1F
100
AcDbEntity
  8
0
  6
HIDDEN
 62
     7
370
     0
100
AcDbSpline
210
0.0
220
0.0
230
1.0
 70
     8
 71
     3
 72
    14
 73
    10
 74
     0
 42
0.000000001
 43
0.00000001
 40
0.0
 40
0.0
 40
0.0
 40
0.0
 40
0.25
 40
0.25
 40
0.5
 40
0.5
 40
0.75
 40
0.75
 40
1.0
 40
1.0
 40
1.0
 40
1.0
 10
196.6249322145969
 20
123.4010885169661
 30
0.0
 10
196.6249322145969
 20
123.3585880993115
 30
0.0
 10
196.5952187557802
 20
123.3313161928289
 30
0.0
 10
196.489137388888
 20
123.3177634188617
 30
0.0
 10
196.4127704597235
 20
123.3322089760027
 30
0.0
 10
196.244010915195
 20
123.4045851400225
 30
0.0
 10
196.1532141027231
 20
123.46165807514
 30
0.0
 10
195.9816491625158
 20
123.6028160086569
 30
0.0
 10
195.8995879222212
 20
123.6873932237404
 30
0.0
 10
195.8249322145967
 20
123.7807663868697
 30
0.0
  0
LINE
  5
173
330
1F
100
AcDbEntity
  8
0
  6
HIDDEN
 62
     7
370
     0
100
AcDbLine
 10
196.6249320933
 20
95.8521789208
 30
0.0
 11
196.6249320933
 21
91.7201381445
 31
0.0
  0
LINE
  5
174
330
1F
100
AcDbEntity
  8
0
  6
HIDDEN
 62
     7
370
     0
100
AcDbLine
 10
191.4817711615
 20
148.1605194777
 30
0.0
 11
191.4817711615
 21
139.4994411886
 31
0.0
  0
LINE
  5
175
330
1F
100
AcDbEntity
  8
0
  6
HIDDEN
 62
     7
370
     0
100
AcDbLine
 10
197.94809374
 20
95.3522933915
 30
0.0
 11
197.94809374
 21
90.6604998082
 31
0.0
  0
LINE
  5
176
330
1F
100
AcDbEntity
  8
0
  6
HIDDEN
 62
     7
370
     0
100
AcDbLine
 10
197.94809374
 20
148.1605194777
 30
0.0
 11
197.94809374
 21
139.4994411886
 31
0.0
  0
ARC
  5
177
330
1F
100
AcDbEntity
  8
0
  6
HIDDEN
 62
     7
370
     0
100
AcDbCircle
 10
198.0609849765
 20
122.2194283483
 30
0.0
 40
1.353195702694776
100
AcDbArc
 50
110.2844232439
 51
142.1998959299
  0
ARC
  5
178
330
1F
100
AcDbEntity
  8
0
  6
HIDDEN
 62
     7
370
     0
100
AcDbCircle
 10
197.118332746
 20
120.2024109032
 30
0.0
 40
0.7945949542257933
100
AcDbArc
 50
260.8336111241
 51
306.5791809456
  0
LWPOLYLINE
  5
179
330
1F
100
AcDbEntity
  8
0
  6
HIDDEN
 62
     7
370
     0
100
AcDbPolyline
 90
       21
 70
   128
 43
0.0
 10
187.8496950769
 20
122.3623924226
 10
188.0125386917
 20
121.885150139
 10
188.2724331037
 20
121.56500521
 10
188.6039378398
 20
121.4332966402
 10
188.9746023619
 20
121.5029157966
 10
189.3481446707
 20
121.7670491233
 10
189.6879987137
 20
122.1998403117
 10
189.9608971828
 20
122.7589253604
 10
190.140127884
 20
123.3895760298
 10
190.2081456312
 20
124.0300614655
 10
190.1582928651
 20
124.6176859632
 10
189.9954487847
 20
125.0949282467
 10
189.7355543726
 20
125.4150722444
 10
189.4040501022
 20
125.5467817455
 10
189.0333851145
 20
125.4771616578
 10
188.6598432714
 20
125.2130292624
 10
188.3199892284
 20
124.7802380741
 10
188.0470902936
 20
124.2211530253
 10
187.8678595924
 20
123.5905014247
 10
187.7998418452
 20
122.9500159889
 10
187.8496950769
 20
122.3623924226
  0
LWPOLYLINE
  5
17A
330
1F
100
AcDbEntity
  8
0
  6
HIDDEN
 62
     7
370
     0
100
AcDbPolyline
 90
       25
 70
   128
 43
0.0
 10
187.08666319
 20
121.9433764264
 10
187.2700981141
 20
121.361206685
 10
187.5534087696
 20
120.9284918651
 10
187.9172881411
 20
120.674722296
 10
188.3369383679
 20
120.6171907753
 10
188.7837608622
 20
120.7598191023
 10
189.2273055666
 20
121.092886132
 10
189.6373450102
 20
121.5936946019
 10
189.9859367215
 20
122.2281152651
 10
190.2493240589
 20
122.9529133335
 10
190.4095581078
 20
123.7186942518
 10
190.4557186456
 20
124.4732732221
 10
190.3846601301
 20
125.165225406
 10
190.2012249732
 20
125.7473942161
 10
189.9179143177
 20
126.180109036
 10
189.5540349462
 20
126.4338795364
 10
189.1343847194
 20
126.4914110571
 10
188.6875622251
 20
126.3487827301
 10
188.2440175207
 20
126.0157157004
 10
187.8339776115
 20
125.5149062991
 10
187.4853863658
 20
124.8804865673
 10
187.2219987956
 20
124.1556884989
 10
187.0617652123
 20
123.3899066493
 10
187.0156046746
 20
122.6353286102
 10
187.08666319
 20
121.9433764264
  0
LWPOLYLINE
  5
17B
330
1F
100
AcDbEntity
  8
0
  6
HIDDEN
 62
     7
370
     0
100
AcDbPolyline
 90
       23
 70
   128
 43
0.0
 10
197.814932307
 20
120.8082944423
 10
198.5192636305
 20
120.9034551203
 10
199.1665346825
 20
121.1812267348
 10
199.7043064141
 20
121.6191066697
 10
200.0890115553
 20
122.1816199169
 10
200.2894861901
 20
122.8231959313
 10
200.2894861901
 20
123.4918566689
 10
200.0890115553
 20
124.1334326833
 10
199.7043064141
 20
124.6959459305
 10
199.1665346825
 20
125.1338258654
 10
198.5192636305
 20
125.4115965486
 10
197.814932307
 20
125.5067572266
 10
197.1106009835
 20
125.4115965486
 10
196.4633299315
 20
125.1338258654
 10
195.9255581999
 20
124.6959459305
 10
195.5408521274
 20
124.1334326833
 10
195.3403784239
 20
123.4918566689
 10
195.3403784239
 20
122.8231959313
 10
195.5408521274
 20
122.1816199169
 10
195.9255581999
 20
121.6191066697
 10
196.4633299315
 20
121.1812267348
 10
197.1106009835
 20
120.9034551203
 10
197.814932307
 20
120.8082944423
  0
SPLINE
  5
17C
330
1F
100
AcDbEntity
  8
0
  6
HIDDEN
 62
     7
370
     0
100
AcDbSpline
210
0.0
220
0.0
230
1.0
 70
     8
 71
     3
 72
    34
 73
    30
 74
     0
 42
0.000000001
 43
0.00000001
 40
0.0
 40
0.0
 40
0.0
 40
0.0
 40
0.062499999999999
 40
0.062499999999999
 40
0.124999999999998
 40
0.124999999999998
 40
0.1874999999999971
 40
0.1874999999999971
 40
0.2499999999999966
 40
0.2499999999999966
 40
0.3124999999999962
 40
0.3124999999999962
 40
0.3749999999999957
 40
0.3749999999999957
 40
0.4999999999999958
 40
0.4999999999999958
 40
0.6249999999999958
 40
0.6249999999999958
 40
0.6874999999999964
 40
0.6874999999999964
 40
0.7499999999999971
 40
0.7499999999999971
 40
0.8124999999999979
 40
0.8124999999999979
 40
0.8749999999999986
 40
0.8749999999999986
 40
0.9374999999999992
 40
0.9374999999999992
 40
1.0
 40
1.0
 40
1.0
 40
1.0
 10
197.9480937220588
 20
128.6383810609902
 30
0.0
 10
198.1074855498467
 20
128.6305409650674
 30
0.0
 10
198.2634880332903
 20
128.6088823169769
 30
0.0
 10
198.5689975493675
 20
128.5390340894841
 30
0.0
 10
198.7198918843797
 20
128.4902083871559
 30
0.0
 10
199.0077912290705
 20
128.3672844337486
 30
0.0
 10
199.1437376320303
 20
128.2939769256143
 30
0.0
 10
199.3999202476223
 20
128.1239663018429
 30
0.0
 10
199.5211025353813
 20
128.0260925096414
 30
0.0
 10
199.7382486072541
 20
127.8135083342095
 30
0.0
 10
199.8352104802145
 20
127.6984623956799
 30
0.0
 10
200.00577291604
 20
127.4506012755598
 30
0.0
 10
200.0790129692519
 20
127.3175677784942
 30
0.0
 10
200.2538934260008
 20
126.908059762364
 30
0.0
 10
200.3149313869767
 20
126.610099112589
 30
0.0
 10
200.3149330421998
 20
126.0186575567145
 30
0.0
 10
200.2538984326135
 20
125.7184840067379
 30
0.0
 10
200.0790086652116
 20
125.3032527264702
 30
0.0
 10
200.0057649597872
 20
125.1678976082234
 30
0.0
 10
199.8352042440505
 20
124.9149982768367
 30
0.0
 10
199.7382405284571
 20
124.7972329992289
 30
0.0
 10
199.5210801998699
 20
124.5791027038603
 30
0.0
 10
199.3998989411831
 20
124.4783993787134
 30
0.0
 10
199.1437287142444
 20
124.3031556858801
 30
0.0
 10
199.0077853645816
 20
124.2274107167895
 30
0.0
 10
198.7198826613985
 20
124.1002423414872
 30
0.0
 10
198.5689924654818
 20
124.0496410691598
 30
0.0
 10
198.2634869617761
 20
123.9772119694119
 30
0.0
 10
198.1074855635126
 20
123.954726198015
 30
0.0
 10
197.9480937220588
 20
123.9465877381201
 30
0.0
  0
SPLINE
  5
17D
330
1F
100
AcDbEntity
  8
0
  6
HIDDEN
 62
     7
370
     0
100
AcDbSpline
210
0.0
220
0.0
230
1.0
 70
     8
 71
     3
 72
    10
 73
     6
 74
     0
 42
0.000000001
 43
0.00000001
 40
0.0
 40
0.0
 40
0.0
 40
0.0
 40
0.5
 40
0.5
 40
1.0
 40
1.0
 40
1.0
 40
1.0
 10
197.9480937220588
 20
123.9465877381201
 30
0.0
 10
197.7253666951854
 20
123.8030992378263
 30
0.0
 10
197.5036808079603
 20
123.6883784920934
 30
0.0
 10
197.0624599701083
 20
123.5186180627356
 30
0.0
 10
196.8429013227095
 20
123.4631980683482
 30
0.0
 10
196.6249322145972
 20
123.4467027389786
 30
0.0
  0
SPLINE
  5
17E
330
1F
100
AcDbEntity
  8
0
  6
HIDDEN
 62
     7
370
     0
100
AcDbSpline
210
0.0
220
0.0
230
1.0
 70
     8
 71
     3
 72
    10
 73
     6
 74
     0
 42
0.000000001
 43
0.00000001
 40
0.0
 40
0.0
 40
0.0
 40
0.0
 40
0.5
 40
0.5
 40
1.0
 40
1.0
 40
1.0
 40
1.0
 10
196.6249322145972
 20
127.5787439376101
 30
0.0
 10
196.841823047118
 20
127.8157828770586
 30
0.0
 10
197.0609756837768
 20
128.0179531120521
 30
0.0
 10
197.5024601840457
 20
128.3687051835708
 30
0.0
 10
197.7256626493191
 20
128.5173812759677
 30
0.0
 10
197.9480937220588
 20
128.6383810609902
 30
0.0
  0
LINE
  5
17F
330
1F
100
AcDbEntity
  8
0
  6
HIDDEN
 62
     7
370
     0
100
AcDbLine
 10
195.824932521
 20
123.78076597
 30
0.0
 11
195.7176599929
 21
123.9754189074
 31
0.0
  0
SPLINE
  5
180
330
1F
100
AcDbEntity
  8
0
  6
HIDDEN
 62
     7
370
     0
100
AcDbSpline
210
0.0
220
0.0
230
1.0
 70
     8
 71
     3
 72
    11
 73
     7
 74
     0
 42
0.000000001
 43
0.00000001
 40
0.0
 40
0.0
 40
0.0
 40
0.0
 40
0.1398494847560185
 40
0.4409062943746851
 40
0.7416840526910241
 40
1.0
 40
1.0
 40
1.0
 40
1.0
 10
195.6168806457311
 20
124.1582887515379
 30
0.0
 10
195.5510338396911
 20
124.2654600641149
 30
0.0
 10
195.3434372847366
 20
124.6033412252365
 30
0.0
 10
195.2791179737177
 20
125.2723450677163
 30
0.0
 10
195.4134243018515
 20
126.0240188729576
 30
0.0
 10
195.6948886255152
 20
126.4348945505096
 30
0.0
 10
195.8249325209648
 20
126.6247298836661
 30
0.0
  0
LINE
  5
181
330
1F
100
AcDbEntity
  8
0
  6
HIDDEN
 62
     7
370
     0
100
AcDbLine
 10
195.3149318972
 20
94.5988441154
 30
0.0
 11
195.3149318972
 21
94.4107327878
 31
0.0
  0
LINE
  5
182
330
1F
100
AcDbEntity
  8
0
  6
HIDDEN
 62
     7
370
     0
100
AcDbLine
 10
200.3149317854
 20
94.4107327878
 30
0.0
 11
200.3149317854
 21
94.5988441154
 31
0.0
  0
LINE
  5
183
330
1F
100
AcDbEntity
  8
0
  6
HIDDEN
 62
     7
370
     0
100
AcDbLine
 10
195.8149319792
 20
95.7806263387
 30
0.0
 11
195.8149319792
 21
94.3628507003
 31
0.0
  0
LINE
  5
184
330
1F
100
AcDbEntity
  8
0
  6
HIDDEN
 62
     7
370
     0
100
AcDbLine
 10
199.8149326348
 20
94.3628507003
 30
0.0
 11
199.8149326348
 21
95.7806263387
 31
0.0
  0
LINE
  5
185
330
1F
100
AcDbEntity
  8
0
  6
HIDDEN
 62
     7
370
     0
100
AcDbLine
 10
195.3149318972
 20
96.1413555115
 30
0.0
 11
195.3149318972
 21
95.5428196385
 31
0.0
  0
LINE
  5
186
330
1F
100
AcDbEntity
  8
0
  6
HIDDEN
 62
     7
370
     0
100
AcDbLine
 10
200.3149317854
 20
95.5428196385
 30
0.0
 11
200.3149317854
 21
96.1413555115
 31
0.0
  0
LINE
  5
187
330
1F
100
AcDbEntity
  8
0
  6
HIDDEN
 62
     7
370
     0
100
AcDbLine
 10
200.3149317854
 20
123.1575258344
 30
0.0
 11
200.3149317854
 21
123.7560617074
 31
0.0
  0
LINE
  5
188
330
1F
100
AcDbEntity
  8
0
  6
HIDDEN
 62
     7
370
     0
100
AcDbLine
 10
195.3149318972
 20
123.7560617074
 30
0.0
 11
195.3149318972
 21
123.1575258344
 31
0.0
  0
LINE
  5
189
330
1F
100
AcDbEntity
  8
0
  6
HIDDEN
 62
     7
370
     0
100
AcDbLine
 10
199.8149326348
 20
123.5182550073
 30
0.0
 11
199.8149326348
 21
124.9360306457
 31
0.0
  0
LINE
  5
18A
330
1F
100
AcDbEntity
  8
0
  6
HIDDEN
 62
     7
370
     0
100
AcDbLine
 10
195.8149319792
 20
124.9360306457
 30
0.0
 11
195.8149319792
 21
123.5182550073
 31
0.0
  0
LINE
  5
18B
330
1F
100
AcDbEntity
  8
0
  6
HIDDEN
 62
     7
370
     0
100
AcDbLine
 10
200.3149317854
 20
124.7000372305
 30
0.0
 11
200.3149317854
 21
124.8881485581
 31
0.0
  0
LINE
  5
18C
330
1F
100
AcDbEntity
  8
0
  6
HIDDEN
 62
     7
370
     0
100
AcDbLine
 10
195.3149318972
 20
124.8881485581
 30
0.0
 11
195.3149318972
 21
124.7000372305
 31
0.0
  0
ARC
  5
18D
330
1F
100
AcDbEntity
  8
0
  6
HIDDEN
 62
     7
370
     0
100
AcDbCircle
 10
197.8149322146
 20
95.183698711
 30
0.0
 40
2.000000000000026
100
AcDbArc
 50
340.130650254
 51
192.2156859337
  0
CIRCLE
  5
18E
330
1F
100
AcDbEntity
  8
0
  6
HIDDEN
 62
     7
370
     0
100
AcDbCircle
 10
197.8149322146
 20
124.1151826349
 30
0.0
 40
1.999999999999998
  0
LINE
  5
18F
330
1F
100
AcDbEntity
  8
0
  6
HIDDEN
 62
     7
370
     0
100
AcDbLine
 10
189.5283672304
 20
93.3637306362
 30
0.0
 11
192.7993066886
 21
94.1470707104
 31
0.0
  0
LINE
  5
190
330
1F
100
AcDbEntity
  8
0
  6
HIDDEN
 62
     7
370
     0
100
AcDbLine
 10
191.634808881
 20
99.0095747903
 30
0.0
 11
188.3638703541
 21
98.2262337848
 31
0.0
  0
LINE
  5
191
330
1F
100
AcDbEntity
  8
0
  6
HIDDEN
 62
     7
370
     0
100
AcDbLine
 10
193.503011232
 20
94.9107906118
 30
0.0
 11
193.7315894568
 21
95.5581808731
 31
0.0
  0
LINE
  5
192
330
1F
100
AcDbEntity
  8
0
  6
HIDDEN
 62
     7
370
     0
100
AcDbLine
 10
193.1051725799
 20
98.1738627225
 30
0.0
 11
192.6081303784
 21
98.6474784359
 31
0.0
  0
LINE
  5
193
330
1F
100
AcDbEntity
  8
0
  6
HIDDEN
 62
     7
370
     0
100
AcDbLine
 10
192.6081303784
 20
120.65140291
 30
0.0
 11
193.1051725799
 21
121.1250186235
 31
0.0
  0
LINE
  5
194
330
1F
100
AcDbEntity
  8
0
  6
HIDDEN
 62
     7
370
     0
100
AcDbLine
 10
193.7315894568
 20
123.7407004729
 30
0.0
 11
193.503011232
 21
124.3880907342
 31
0.0
  0
LINE
  5
195
330
1F
100
AcDbEntity
  8
0
  6
HIDDEN
 62
     7
370
     0
100
AcDbLine
 10
188.3638703541
 20
121.0726475611
 30
0.0
 11
191.634808881
 21
120.2893065557
 31
0.0
  0
LINE
  5
196
330
1F
100
AcDbEntity
  8
0
  6
HIDDEN
 62
     7
370
     0
100
AcDbLine
 10
192.7993066886
 20
125.1518106356
 30
0.0
 11
189.5283672304
 21
125.9351507097
 31
0.0
  0
LINE
  5
197
330
1F
100
AcDbEntity
  8
0
  6
HIDDEN
 62
     7
370
     0
100
AcDbLine
 10
200.3149317854
 20
92.9851275206
 30
0.0
 11
200.3149317854
 21
96.1413555115
 31
0.0
  0
LINE
  5
198
330
1F
100
AcDbEntity
  8
0
  6
HIDDEN
 62
     7
370
     0
100
AcDbLine
 10
195.3149318972
 20
96.1413555115
 30
0.0
 11
195.3149318972
 21
94.0876961023
 31
0.0
  0
LINE
  5
199
330
1F
100
AcDbEntity
  8
0
  6
HIDDEN
 62
     7
370
     0
100
AcDbLine
 10
186.8149321338
 20
92.1997636825
 30
0.0
 11
189.4343599954
 21
92.8270783544
 31
0.0
  0
LINE
  5
19A
330
1F
100
AcDbEntity
  8
0
  6
HIDDEN
 62
     7
370
     0
100
AcDbLine
 10
188.0369630919
 20
98.6620834365
 30
0.0
 11
186.8149321338
 21
98.3694246307
 31
0.0
  0
LINE
  5
19B
330
1F
100
AcDbEntity
  8
0
  6
HIDDEN
 62
     7
370
     0
100
AcDbLine
 10
189.4930826777
 20
93.7665909797
 30
0.0
 11
196.9622319841
 21
95.5553403392
 31
0.0
  0
LINE
  5
19C
330
1F
100
AcDbEntity
  8
0
  6
HIDDEN
 62
     7
370
     0
100
AcDbLine
 10
196.9622319841
 20
99.8741029099
 30
0.0
 11
188.5149047987
 21
97.8510942578
 31
0.0
  0
LINE
  5
19D
330
1F
100
AcDbEntity
  8
0
  6
HIDDEN
 62
     7
370
     0
100
AcDbLine
 10
199.9149324649
 20
96.1911496043
 30
0.0
 11
199.9149324649
 21
108.9311983588
 31
0.0
  0
LINE
  5
19E
330
1F
100
AcDbEntity
  8
0
  6
HIDDEN
 62
     7
370
     0
100
AcDbLine
 10
195.714932149
 20
96.5391997516
 30
0.0
 11
195.714932149
 21
96.1911496043
 31
0.0
  0
LINE
  5
19F
330
1F
100
AcDbEntity
  8
0
  6
HIDDEN
 62
     7
370
     0
100
AcDbLine
 10
195.714932149
 20
108.9311983588
 30
0.0
 11
195.714932149
 21
98.2928242803
 31
0.0
  0
ARC
  5
1A0
330
1F
100
AcDbEntity
  8
0
  6
HIDDEN
 62
     7
370
     0
100
AcDbCircle
 10
83.2149322146
 20
95.949440673
 30
0.0
 40
1.200000000000003
100
AcDbArc
 50
90.0
 51
180.0
  0
ARC
  5
1A1
330
1F
100
AcDbEntity
  8
0
  6
HIDDEN
 62
     7
370
     0
100
AcDbCircle
 10
83.2149322146
 20
123.349440673
 30
0.0
 40
1.200000000000003
100
AcDbArc
 50
180.0
 51
270.0
  0
ARC
  5
1A2
330
1F
100
AcDbEntity
  8
0
  6
HIDDEN
 62
     7
370
     0
100
AcDbCircle
 10
92.9073046453
 20
97.324440673
 30
0.0
 40
0.4000000000000199
100
AcDbArc
 50
255.0
 51
270.0
  0
ARC
  5
1A3
330
1F
100
AcDbEntity
  8
0
  6
HIDDEN
 62
     7
370
     0
100
AcDbCircle
 10
92.9073046453
 20
121.974440673
 30
0.0
 40
0.400000000000006
100
AcDbArc
 50
90.0
 51
105.0
  0
LINE
  5
1A4
330
1F
100
AcDbEntity
  8
0
  6
HIDDEN
 62
     7
370
     0
100
AcDbLine
 10
92.9073022955
 20
96.9244404033
 30
0.0
 11
93.7839897626
 21
96.9244404033
 31
0.0
  0
LINE
  5
1A5
330
1F
100
AcDbEntity
  8
0
  6
HIDDEN
 62
     7
370
     0
100
AcDbLine
 10
93.7839897626
 20
122.3744409427
 30
0.0
 11
92.9073022955
 21
122.3744409427
 31
0.0
  0
ARC
  5
1A6
330
1F
100
AcDbEntity
  8
0
  6
HIDDEN
 62
     7
370
     0
100
AcDbCircle
 10
93.7839921069
 20
97.324440673
 30
0.0
 40
0.4000000000000069
100
AcDbArc
 50
270.0
 51
330.0
  0
ARC
  5
1A7
330
1F
100
AcDbEntity
  8
0
  6
HIDDEN
 62
     7
370
     0
100
AcDbCircle
 10
93.7839921069
 20
121.974440673
 30
0.0
 40
0.3999999999999998
100
AcDbArc
 50
30.0
 51
90.0
  0
LINE
  5
1A8
330
1F
100
AcDbEntity
  8
0
  6
HIDDEN
 62
     7
370
     0
100
AcDbLine
 10
92.8037764782
 20
122.3608110368
 30
0.0
 11
92.0149313563
 21
122.1494408593
 31
0.0
  0
LINE
  5
1A9
330
1F
100
AcDbEntity
  8
0
  6
HIDDEN
 62
     7
370
     0
100
AcDbLine
 10
92.0149313563
 20
97.1494404867
 30
0.0
 11
92.8037764782
 21
96.9380703092
 31
0.0
  0
LINE
  5
1AA
330
1F
100
AcDbEntity
  8
0
  6
HIDDEN
 62
     7
370
     0
100
AcDbLine
 10
94.1304045075
 20
97.1244409949
 30
0.0
 11
95.2995347136
 21
99.1494408146
 31
0.0
  0
LINE
  5
1AB
330
1F
100
AcDbEntity
  8
0
  6
HIDDEN
 62
     7
370
     0
100
AcDbLine
 10
95.2995347136
 20
120.1494405314
 30
0.0
 11
94.1304045075
 21
122.1744403511
 31
0.0
  0
LINE
  5
1AC
330
1F
100
AcDbEntity
  8
0
  6
HIDDEN
 62
     7
370
     0
100
AcDbLine
 10
83.214931404
 20
97.1494404867
 30
0.0
 11
92.0149313563
 21
97.1494404867
 31
0.0
  0
LINE
  5
1AD
330
1F
100
AcDbEntity
  8
0
  6
HIDDEN
 62
     7
370
     0
100
AcDbLine
 10
92.0149313563
 20
122.1494408593
 30
0.0
 11
83.214931404
 21
122.1494408593
 31
0.0
  0
LINE
  5
1AE
330
1F
100
AcDbEntity
  8
0
  6
HIDDEN
 62
     7
370
     0
100
AcDbLine
 10
95.2995347136
 20
99.1494408146
 30
0.0
 11
144.0149324292
 21
99.1494408146
 31
0.0
  0
LINE
  5
1AF
330
1F
100
AcDbEntity
  8
0
  6
HIDDEN
 62
     7
370
     0
100
AcDbLine
 10
144.0149324292
 20
120.1494405314
 30
0.0
 11
95.2995347136
 21
120.1494405314
 31
0.0
  0
LINE
  5
1B0
330
1F
100
AcDbEntity
  8
0
  6
HIDDEN
 62
     7
370
     0
100
AcDbLine
 10
144.0149324292
 20
99.1494408146
 30
0.0
 11
149.0621606165
 21
107.5494407479
 31
0.0
  0
LINE
  5
1B1
330
1F
100
AcDbEntity
  8
0
  6
HIDDEN
 62
     7
370
     0
100
AcDbLine
 10
149.0621606165
 20
111.7494405981
 30
0.0
 11
144.0149324292
 21
120.1494405314
 31
0.0
  0
ARC
  5
1B2
330
1F
100
AcDbEntity
  8
0
  6
HIDDEN
 62
     7
370
     0
100
AcDbCircle
 10
215.9149322146
 20
114.849440673
 30
0.0
 40
0.7999999999999972
100
AcDbArc
 50
90.0
 51
180.0
  0
ARC
  5
1B3
330
1F
100
AcDbEntity
  8
0
  6
HIDDEN
 62
     7
370
     0
100
AcDbCircle
 10
215.9149322146
 20
104.449440673
 30
0.0
 40
0.7999999999999972
100
AcDbArc
 50
180.0
 51
270.0
  0
LINE
  5
1B4
330
1F
100
AcDbEntity
  8
0
  6
HIDDEN
 62
     7
370
     0
100
AcDbLine
 10
216.5096106285
 20
115.6494407251
 30
0.0
 11
215.9149313623
 21
115.6494407251
 31
0.0
  0
LINE
  5
1B5
330
1F
100
AcDbEntity
  8
0
  6
HIDDEN
 62
     7
370
     0
100
AcDbLine
 10
215.9149313623
 20
103.6494406208
 30
0.0
 11
216.5096106285
 21
103.6494406208
 31
0.0
  0
ARC
  5
1B6
330
1F
100
AcDbEntity
  8
0
  6
HIDDEN
 62
     7
370
     0
100
AcDbCircle
 10
216.5096102165
 20
114.849440673
 30
0.0
 40
0.7999999999999972
100
AcDbArc
 50
75.0
 51
90.0
  0
ARC
  5
1B7
330
1F
100
AcDbEntity
  8
0
  6
HIDDEN
 62
     7
370
     0
100
AcDbCircle
 10
216.5096102165
 20
104.449440673
 30
0.0
 40
0.7999999999999972
100
AcDbArc
 50
270.0
 51
285.0
  0
LINE
  5
1B8
330
1F
100
AcDbEntity
  8
0
  6
HIDDEN
 62
     7
370
     0
100
AcDbLine
 10
216.7166659885
 20
103.6766999669
 30
0.0
 11
218.4809560233
 21
104.1494407028
 31
0.0
  0
LINE
  5
1B9
330
1F
100
AcDbEntity
  8
0
  6
HIDDEN
 62
     7
370
     0
100
AcDbLine
 10
218.4809560233
 20
115.1494406432
 30
0.0
 11
216.7166659885
 21
115.622181379
 31
0.0
  0
LINE
  5
1BA
330
1F
100
AcDbEntity
  8
0
  6
HIDDEN
 62
     7
370
     0
100
AcDbLine
 10
222.7149309867
 20
115.1494406432
 30
0.0
 11
218.4809560233
 21
115.1494406432
 31
0.0
  0
LINE
  5
1BB
330
1F
100
AcDbEntity
  8
0
  6
HIDDEN
 62
     7
370
     0
100
AcDbLine
 10
218.4809560233
 20
104.1494407028
 30
0.0
 11
222.7149309867
 21
104.1494407028
 31
0.0
  0
LINE
  5
1BC
330
1F
100
AcDbEntity
  8
0
  6
HIDDEN
 62
     7
370
     0
100
AcDbLine
 10
228.6149340027
 20
118.1217436016
 30
0.0
 11
228.1868497187
 21
117.6937701449
 31
0.0
  0
LINE
  5
1BD
330
1F
100
AcDbEntity
  8
0
  6
HIDDEN
 62
     7
370
     0
100
AcDbLine
 10
228.186853444
 20
101.6051009566
 30
0.0
 11
228.6149340027
 21
101.1771321565
 31
0.0
  0
LINE
  5
1BE
330
1F
100
AcDbEntity
  8
0
  6
HIDDEN
 62
     7
370
     0
100
AcDbLine
 10
198.5331747958
 20
107.5494407479
 30
0.0
 11
215.1149327212
 21
107.5494407479
 31
0.0
  0
LINE
  5
1BF
330
1F
100
AcDbEntity
  8
0
  6
HIDDEN
 62
     7
370
     0
100
AcDbLine
 10
215.1149327212
 20
111.7494405981
 30
0.0
 11
198.5331747958
 21
111.7494405981
 31
0.0
  0
LINE
  5
1C0
330
1F
100
AcDbEntity
  8
0
  6
HIDDEN
 62
     7
370
     0
100
AcDbLine
 10
149.0621606165
 20
107.5494407479
 30
0.0
 11
197.0966898182
 21
107.5494407479
 31
0.0
  0
LINE
  5
1C1
330
1F
100
AcDbEntity
  8
0
  6
HIDDEN
 62
     7
370
     0
100
AcDbLine
 10
197.0966898182
 20
111.7494405981
 30
0.0
 11
149.0621606165
 21
111.7494405981
 31
0.0
  0
LINE
  5
1C2
330
1F
100
AcDbEntity
  8
0
  6
HIDDEN
 62
     7
370
     0
100
AcDbLine
 10
228.1931901628
 20
117.699440968
 30
0.0
 11
222.7149309867
 21
117.699440968
 31
0.0
  0
LINE
  5
1C3
330
1F
100
AcDbEntity
  8
0
  6
HIDDEN
 62
     7
370
     0
100
AcDbLine
 10
222.7149309867
 20
101.5994403779
 30
0.0
 11
228.1931901628
 21
101.5994403779
 31
0.0
  0
LINE
  5
1C4
330
1F
100
AcDbEntity
  8
0
  6
HIDDEN
 62
     7
370
     0
100
AcDbLine
 10
199.9149324649
 20
110.3676829872
 30
0.0
 11
199.9149324649
 21
123.1077317417
 31
0.0
  0
LINE
  5
1C5
330
1F
100
AcDbEntity
  8
0
  6
HIDDEN
 62
     7
370
     0
100
AcDbLine
 10
195.714932149
 20
121.0060570657
 30
0.0
 11
195.714932149
 21
110.3676829872
 31
0.0
  0
LINE
  5
1C6
330
1F
100
AcDbEntity
  8
0
  6
HIDDEN
 62
     7
370
     0
100
AcDbLine
 10
195.714932149
 20
123.1077317417
 30
0.0
 11
195.714932149
 21
122.7596815944
 31
0.0
  0
LINE
  5
1C7
330
1F
100
AcDbEntity
  8
0
  6
HIDDEN
 62
     7
370
     0
100
AcDbLine
 10
188.5149047987
 20
121.4477870882
 30
0.0
 11
196.9622319841
 21
119.4247784361
 31
0.0
  0
LINE
  5
1C8
330
1F
100
AcDbEntity
  8
0
  6
HIDDEN
 62
     7
370
     0
100
AcDbLine
 10
196.9622319841
 20
123.7435410067
 30
0.0
 11
189.4930826777
 21
125.5322903663
 31
0.0
  0
LINE
  5
1C9
330
1F
100
AcDbEntity
  8
0
  6
HIDDEN
 62
     7
370
     0
100
AcDbLine
 10
186.8149321338
 20
120.9294567153
 30
0.0
 11
188.0369630919
 21
120.6367979094
 31
0.0
  0
LINE
  5
1CA
330
1F
100
AcDbEntity
  8
0
  6
HIDDEN
 62
     7
370
     0
100
AcDbLine
 10
189.4343599954
 20
126.4718029916
 30
0.0
 11
186.8149321338
 21
127.0991176635
 31
0.0
  0
LINE
  5
1CB
330
1F
100
AcDbEntity
  8
0
  6
HIDDEN
 62
     7
370
     0
100
AcDbLine
 10
200.3149317854
 20
123.1575258344
 30
0.0
 11
200.3149317854
 21
126.3137538254
 31
0.0
  0
LINE
  5
1CC
330
1F
100
AcDbEntity
  8
0
  6
HIDDEN
 62
     7
370
     0
100
AcDbLine
 10
195.3149318972
 20
125.2111852437
 30
0.0
 11
195.3149318972
 21
123.1575258344
 31
0.0
  0
DIMENSION
  5
1CD
330
1F
100
AcDbEntity
  8
VERMASSUNG
100
AcDbDimension
  2
_D
 10
74.6476333288
 20
158.374440673
 30
0.0
 11
74.6476333288
 21
109.649440673
 31
0.0
 70
   160
  1
ISO 50 %%c<>
 71
     2
 42
-1.0
  3
SLDDIMSTYLE0
100
AcDbAlignedDimension
 13
202.0649322146
 23
60.924440673
 33
0.0
 14
202.0649322146
 24
158.374440673
 34
0.0
 50
90.0
100
AcDbRotatedDimension
  0
DIMENSION
  5
1DA
330
1F
100
AcDbEntity
  8
VERMASSUNG
100
AcDbDimension
  2
_D_1
 10
234.1104605598
 20
104.149440673
 30
0.0
 11
234.1104605598
 21
109.649440673
 31
0.0
 70
   160
  1
%%c<>
 71
     2
 42
-1.0
  3
SLDDIMSTYLE0
100
AcDbAlignedDimension
 13
222.7149322146
 23
115.149440673
 33
0.0
 14
222.7149322146
 24
104.149440673
 34
0.0
 50
90.0
100
AcDbRotatedDimension
  0
DIMENSION
  5
1E5
330
1F
100
AcDbEntity
  8
VERMASSUNG
100
AcDbDimension
  2
_D_2
 10
228.6149322146
 20
162.6529277184
 30
0.0
 11
215.6399322146
 21
162.6529277184
 31
0.0
 70
   160
  1
(<>)
 71
     2
 42
-1.0
  3
SLDDIMSTYLE0
100
AcDbAlignedDimension
 13
202.6649322146
 23
155.9444276262
 33
0.0
 14
228.6149322146
 24
119.449440673
 34
0.0
100
AcDbRotatedDimension
  0
DIMENSION
  5
1F1
330
1F
100
AcDbEntity
  8
VERMASSUNG
100
AcDbDimension
  2
_D_3
 10
228.6149322146
 20
168.6529277184
 30
0.0
 11
206.1149322146
 21
168.6529277184
 31
0.0
 70
   160
  1
<>
 71
     2
 42
-1.0
  3
SLDDIMSTYLE0
100
AcDbAlignedDimension
 13
183.6149322146
 23
144.574440673
 33
0.0
 14
228.6149322146
 24
119.449440673
 34
0.0
100
AcDbRotatedDimension
  0
DIMENSION
  5
1FB
330
1F
100
AcDbEntity
  8
VERMASSUNG
100
AcDbDimension
  2
_D_4
 10
228.6149322146
 20
174.6529277184
 30
0.0
 11
155.3149322146
 21
174.6529277184
 31
0.0
 70
   160
  1
(<>)
 71
     2
 42
-1.0
  3
SLDDIMSTYLE0
100
AcDbAlignedDimension
 13
82.0149322146
 23
128.0282852004
 33
0.0
 14
228.6149322146
 24
119.449440673
 34
0.0
100
AcDbRotatedDimension
  0
DIMENSION
  5
207
330
1F
100
AcDbEntity
  8
VERMASSUNG
100
AcDbDimension
  2
_D_5
 10
240.0229226471
 20
99.649440673
 30
0.0
 11
240.0229226471
 21
109.649440673
 31
0.0
 70
   160
  1
ST1 %%c<>
 71
     2
 42
-1.0
  3
SLDDIMSTYLE0
100
AcDbAlignedDimension
 13
228.4149322146
 23
119.649440673
 33
0.0
 14
228.4149322146
 24
99.649440673
 34
0.0
 50
90.0
100
AcDbRotatedDimension
  0
LINE
  5
213
330
1F
100
AcDbEntity
  8
VERMASSUNG
  6
CENTERX2
 62
     7
370
     0
100
AcDbLine
 10
195.5189071442
 20
121.9298145379
 30
0.0
 11
199.4211607914
 21
120.995283001
 31
0.0
  0
LINE
  5
214
330
1F
100
AcDbEntity
  8
VERMASSUNG
  6
CENTERX2
 62
     7
370
     0
100
AcDbLine
 10
80.0149322146
 20
109.649440673
 30
0.0
 11
229.3591242666
 21
109.649440673
 31
0.0
  0
LINE
  5
215
330
1F
100
AcDbEntity
  8
0
  6
Continuous
 62
     7
370
    15
100
AcDbLine
 10
273.2794416948
 20
39.410817171
 30
0.0
 11
273.1910388858
 21
39.4618674712
 31
0.0
  0
LINE
  5
216
330
1F
100
AcDbEntity
  8
0
  6
Continuous
 62
     7
370
    15
100
AcDbLine
 10
271.9534001454
 20
39.4618679514
 30
0.0
 11
271.8649985724
 21
39.4108170817
 31
0.0
  0
LINE
  5
217
330
1F
100
AcDbEntity
  8
0
  6
Continuous
 62
     7
370
    15
100
AcDbLine
 10
273.5722202933
 20
38.9006115319
 30
0.0
 11
273.5722202933
 21
39.0026793402
 31
0.0
  0
LINE
  5
218
330
1F
100
AcDbEntity
  8
0
  6
Continuous
 62
     7
370
    15
100
AcDbLine
 10
271.5722191408
 20
39.0026800055
 30
0.0
 11
271.5722191408
 21
38.9006121972
 31
0.0
  0
SPLINE
  5
219
330
1F
100
AcDbEntity
  8
0
  6
Continuous
 62
     7
370
    15
100
AcDbSpline
210
0.0
220
0.0
230
1.0
 70
     8
 71
     3
 72
    30
 73
    26
 74
     0
 42
0.000000001
 43
0.00000001
 40
0.0
 40
0.0
 40
0.0
 40
0.0
 40
0.0010894163292473
 40
0.0480801983884232
 40
0.0951443786741966
 40
0.1422566163518737
 40
0.1893956911937579
 40
0.2365459492938935
 40
0.2836949899059612
 40
0.3308371247532794
 40
0.3779698655358738
 40
0.425092484284412
 40
0.4722054121280966
 40
0.5193097566496303
 40
0.5664069673238881
 40
0.6134988042558369
 40
0.660587105499244
 40
0.7076737887444688
 40
0.754760881507777
 40
0.8018496941838937
 40
0.8489421850806139
 40
0.8960403317917458
 40
0.9431460880550573
 40
0.9902613435067636
 40
1.0
 40
1.0
 40
1.0
 40
1.0
 10
265.40424262906
 20
64.49173883471585
 30
0.0
 10
265.394696400494
 20
64.49058460881103
 30
0.0
 10
264.9733840417652
 20
64.43964411067577
 30
0.0
 10
264.1104117546222
 20
64.22019894027117
 30
0.0
 10
262.8212297273979
 20
63.824944939157
 30
0.0
 10
261.5105742025165
 20
63.28899175317733
 30
0.0
 10
260.1912362010945
 20
62.63516907423269
 30
0.0
 10
258.8697127481495
 20
61.86224353033838
 30
0.0
 10
257.5541070160344
 20
60.97633234153277
 30
0.0
 10
256.2519558114561
 20
59.98239808298143
 30
0.0
 10
254.9707671187824
 20
58.88645377827002
 30
0.0
 10
253.7178700988211
 20
57.69493112224011
 30
0.0
 10
252.5004328994285
 20
56.41481614908197
 30
0.0
 10
251.3254205346697
 20
55.0535710247487
 30
0.0
 10
250.1995606032683
 20
53.61911060199266
 30
0.0
 10
249.1293102542848
 20
52.11975176778073
 30
0.0
 10
248.1208155013236
 20
50.56417691711599
 30
0.0
 10
247.1798815469423
 20
48.96137383809477
 30
0.0
 10
246.3119502828148
 20
47.32061141424338
 30
0.0
 10
245.5219957083916
 20
45.6513478099629
 30
0.0
 10
244.8147971307056
 20
43.9632622997356
 30
0.0
 10
244.1937585554994
 20
42.26588686026974
 30
0.0
 10
243.6651949307254
 20
40.56968507476338
 30
0.0
 10
243.3394315321141
 20
39.32825240531506
 30
0.0
 10
243.1917462723828
 20
38.65616487576329
 30
0.0
 10
243.166448874817
 20
38.54104123062114
 30
0.0
  0
LINE
  5
21A
330
1F
100
AcDbEntity
  8
0
  6
Continuous
 62
     7
370
    15
100
AcDbLine
 10
258.4330261277
 20
61.5486816341
 30
0.0
 11
227.6688217752
 21
72.6348816532
 31
0.0
  0
LINE
  5
21B
330
1F
100
AcDbEntity
  8
0
  6
Continuous
 62
     7
370
    15
100
AcDbLine
 10
217.5449623948
 20
55.0979432528
 30
0.0
 11
247.0124735133
 21
30.2158208145
 31
0.0
  0
LINE
  5
21C
330
1F
100
AcDbEntity
  8
0
  6
Continuous
 62
     7
370
    15
100
AcDbLine
 10
274.2875276771
 20
29.9497764032
 30
0.0
 11
274.3582280597
 21
29.9906026146
 31
0.0
  0
LINE
  5
21D
330
1F
100
AcDbEntity
  8
0
  6
Continuous
 62
     7
370
    15
100
AcDbLine
 10
277.8224881974
 20
35.9915274493
 30
0.0
 11
277.8224868804
 21
36.0731688821
 31
0.0
  0
LINE
  5
21E
330
1F
100
AcDbEntity
  8
0
  6
Continuous
 62
     7
370
    15
100
AcDbLine
 10
276.7867498102
 20
38.3623928323
 30
0.0
 11
269.0969644446
 21
42.8016114324
 31
0.0
  0
LINE
  5
21F
330
1F
100
AcDbEntity
  8
0
  6
Continuous
 62
     7
370
    15
100
AcDbLine
 10
264.0973709311
 20
34.1411230642
 30
0.0
 11
271.7871562967
 21
29.701904464
 31
0.0
  0
SPLINE
  5
220
330
1F
100
AcDbEntity
  8
0
  6
Continuous
 62
     7
370
    15
100
AcDbSpline
210
0.0
220
0.0
230
1.0
 70
     8
 71
     3
 72
    15
 73
    11
 74
     0
 42
0.000000001
 43
0.00000001
 40
0.0
 40
0.0
 40
0.0
 40
0.0
 40
0.1378705356694043
 40
0.2794545283038588
 40
0.4203120098352677
 40
0.5600877271093989
 40
0.698792150010029
 40
0.8374028078933657
 40
0.9790403342972767
 40
1.0
 40
1.0
 40
1.0
 40
1.0
 10
272.8759190414211
 20
34.8346352434391
 30
0.0
 10
272.9829703616709
 20
35.00739046715923
 30
0.0
 10
273.199956362773
 20
35.35755396889902
 30
0.0
 10
273.5954659834607
 20
35.80966600886809
 30
0.0
 10
274.0173143671702
 20
36.17933988432407
 30
0.0
 10
274.4422127540687
 20
36.43972458955323
 30
0.0
 10
274.8433996874133
 20
36.58583415216989
 30
0.0
 10
275.1896248476338
 20
36.60636182108946
 30
0.0
 10
275.4024437567396
 20
36.57508782646533
 30
0.0
 10
275.4875407612506
 20
36.50769226832281
 30
0.0
 10
275.4985102296882
 20
36.49900461295672
 30
0.0
  0
SPLINE
  5
221
330
1F
100
AcDbEntity
  8
0
  6
Continuous
 62
     7
370
    15
100
AcDbSpline
210
0.0
220
0.0
230
1.0
 70
     8
 71
     3
 72
    10
 73
     6
 74
     0
 42
0.000000001
 43
0.00000001
 40
0.0
 40
0.0
 40
0.0
 40
0.0
 40
0.1534477063059205
 40
0.9770180722855057
 40
1.0
 40
1.0
 40
1.0
 40
1.0
 10
272.5543181724032
 20
34.15721890478915
 30
0.0
 10
272.5672804095483
 20
34.19237592527772
 30
0.0
 10
272.6498123694773
 20
34.41622446112064
 30
0.0
 10
272.7556410270618
 20
34.65202641795074
 30
0.0
 10
272.8727400743792
 20
34.82980886314943
 30
0.0
 10
272.8759190414211
 20
34.8346352434391
 30
0.0
  0
SPLINE
  5
222
330
1F
100
AcDbEntity
  8
0
  6
Continuous
 62
     7
370
    15
100
AcDbSpline
210
0.0
220
0.0
230
1.0
 70
     8
 71
     3
 72
    29
 73
    25
 74
     0
 42
0.000000001
 43
0.00000001
 40
0.0
 40
0.0
 40
0.0
 40
0.0
 40
0.0339561309119871
 40
0.0808731014133053
 40
0.1278456589086782
 40
0.1748510616145148
 40
0.2218719323566627
 40
0.2688950066521493
 40
0.3159124769315323
 40
0.3629211318844671
 40
0.4099197853124492
 40
0.4569085285598201
 40
0.5038883139047763
 40
0.5508604706580752
 40
0.5978267576728273
 40
0.644788871602247
 40
0.6917488292099655
 40
0.7387084796733568
 40
0.7856695392002478
 40
0.8326336054262026
 40
0.879602654239568
 40
0.9265786971904928
 40
0.9735636522291043
 40
1.0
 40
1.0
 40
1.0
 40
1.0
 10
259.3399782339289
 20
17.32673554719661
 30
0.0
 10
259.6424432756534
 20
17.37892711329348
 30
0.0
 10
260.3628223452467
 20
17.50323143491396
 30
0.0
 10
261.5331462860322
 20
17.84912760643801
 30
0.0
 10
262.8374561542763
 20
18.33913408136296
 30
0.0
 10
264.1550212182275
 20
18.95678323919797
 30
0.0
 10
265.4766643622436
 20
19.69255264627632
 30
0.0
 10
266.7949690801327
 20
20.54348315976001
 30
0.0
 10
268.1021664932916
 20
21.50401697256349
 30
0.0
 10
269.3907532370174
 20
22.56852686092061
 30
0.0
 10
270.6533367638417
 20
23.73069233486442
 30
0.0
 10
271.8826966292106
 20
24.98370509975737
 30
0.0
 10
273.0717997026555
 20
26.32024595103189
 30
0.0
 10
274.2138421029434
 20
27.73253836353546
 30
0.0
 10
275.3022732778353
 20
29.2123900623043
 30
0.0
 10
276.3308505977953
 20
30.75122536940549
 30
0.0
 10
277.2936544470466
 20
32.34015052316681
 30
0.0
 10
278.1851186764623
 20
33.96997514086031
 30
0.0
 10
279.0001636466345
 20
35.63130549124674
 30
0.0
 10
279.7337668383453
 20
37.31448766468089
 30
0.0
 10
280.3827588960073
 20
39.01008156574914
 30
0.0
 10
280.9392360482968
 20
40.70736494952015
 30
0.0
 10
281.3458054488312
 20
42.15329009042222
 30
0.0
 10
281.5365341827047
 20
43.02363550353919
 30
0.0
 10
281.6052086810537
 20
43.33701531486807
 30
0.0
  0
LINE
  5
223
330
1F
100
AcDbEntity
  8
0
  6
Continuous
 62
     7
370
    15
100
AcDbLine
 10
251.3350394793
 20
19.1513766158
 30
0.0
 11
252.7905614656
 21
18.3111216584
 31
0.0
  0
SPLINE
  5
224
330
1F
100
AcDbEntity
  8
0
  6
Continuous
 62
     7
370
    15
100
AcDbSpline
210
0.0
220
0.0
230
1.0
 70
     8
 71
     3
 72
     9
 73
     5
 74
     0
 42
0.000000001
 43
0.00000001
 40
0.0
 40
0.0
 40
0.0
 40
0.0
 40
0.5831002613978059
 40
1.0
 40
1.0
 40
1.0
 40
1.0
 10
272.7925343827745
 20
31.72857640763434
 30
0.0
 10
272.7187487765029
 20
31.77306588769436
 30
0.0
 10
272.5922086063874
 20
31.8493640528733
 30
0.0
 10
272.5011067333514
 20
31.9980600150701
 30
0.0
 10
272.4631263862964
 20
32.06005132284115
 30
0.0
  0
LINE
  5
225
330
1F
100
AcDbEntity
  8
0
  6
Continuous
 62
     7
370
    15
100
AcDbLine
 10
247.611004531
 20
21.3012162308
 30
0.0
 11
249.048849207
 21
20.4711661675
 31
0.0
  0
SPLINE
  5
226
330
1F
100
AcDbEntity
  8
0
  6
Continuous
 62
     7
370
    15
100
AcDbSpline
210
0.0
220
0.0
230
1.0
 70
     8
 71
     3
 72
     9
 73
     5
 74
     0
 42
0.000000001
 43
0.00000001
 40
0.0
 40
0.0
 40
0.0
 40
0.0
 40
0.4820461681776454
 40
1.0
 40
1.0
 40
1.0
 40
1.0
 10
243.1788453166353
 20
27.36643208470167
 30
0.0
 10
243.2170500545571
 20
27.23217564744344
 30
0.0
 10
243.2963054048615
 20
26.95366199850028
 30
0.0
 10
243.4000984413085
 20
26.69766966026657
 30
0.0
 10
243.4538584422527
 20
26.56507744776126
 30
0.0
  0
SPLINE
  5
227
330
1F
100
AcDbEntity
  8
0
  6
Continuous
 62
     7
370
    15
100
AcDbSpline
210
0.0
220
0.0
230
1.0
 70
     8
 71
     3
 72
     9
 73
     5
 74
     0
 42
0.000000001
 43
0.00000001
 40
0.0
 40
0.0
 40
0.0
 40
0.0
 40
0.4654381858925875
 40
1.0
 40
1.0
 40
1.0
 40
1.0
 10
281.5981820111535
 20
54.39835197956666
 30
0.0
 10
281.5461009854902
 20
54.57674553687979
 30
0.0
 10
281.4342042240255
 20
54.96002641653305
 30
0.0
 10
281.2884128965528
 20
55.31198244885645
 30
0.0
 10
281.2104784200579
 20
55.5001247039813
 30
0.0
  0
SPLINE
  5
228
330
1F
100
AcDbEntity
  8
0
  6
Continuous
 62
     7
370
    15
100
AcDbSpline
210
0.0
220
0.0
230
1.0
 70
     8
 71
     3
 72
    27
 73
    23
 74
     0
 42
0.000000001
 43
0.00000001
 40
0.0
 40
0.0
 40
0.0
 40
0.0
 40
0.024217100710863
 40
0.0740368679657515
 40
0.1245753453231763
 40
0.1762216339144236
 40
0.2290040106777858
 40
0.2826521826116465
 40
0.3367840738312698
 40
0.3910703181167158
 40
0.4452969229607494
 40
0.499411179079183
 40
0.5534145294396633
 40
0.607334864238752
 40
0.6612119283931857
 40
0.7150904044654207
 40
0.7690073960260595
 40
0.8230054183377647
 40
0.8771325663093937
 40
0.9314334500163303
 40
0.985940431497981
 40
1.0
 40
1.0
 40
1.0
 40
1.0
 10
227.6528458147019
 20
72.62213638924793
 30
0.0
 10
227.5378154938721
 20
72.6669976165548
 30
0.0
 10
227.1861431456001
 20
72.80414800472701
 30
0.0
 10
226.5417481811392
 20
72.89442483956194
 30
0.0
 10
225.736804982932
 20
72.8999442166878
 30
0.0
 10
224.8951863840549
 20
72.76868007208095
 30
0.0
 10
224.0286994452462
 20
72.50901240227442
 30
0.0
 10
223.1477892726443
 20
72.11998391131829
 30
0.0
 10
222.266646027286
 20
71.60756294671846
 30
0.0
 10
221.3995203140437
 20
70.98034619807324
 30
0.0
 10
220.5594646334587
 20
70.24925408637395
 30
0.0
 10
219.7579162264783
 20
69.42603977310394
 30
0.0
 10
219.0050081508228
 20
68.52279228840091
 30
0.0
 10
218.3101484150497
 20
67.55212169408104
 30
0.0
 10
217.6821072489034
 20
66.52713842628145
 30
0.0
 10
217.1290455746431
 20
65.46144653835564
 30
0.0
 10
216.6583834563419
 20
64.36897731366761
 30
0.0
 10
216.2768588878924
 20
63.2638399499637
 30
0.0
 10
215.9899996233627
 20
62.15981366742341
 30
0.0
 10
215.8040661797536
 20
61.07123755856338
 30
0.0
 10
215.7403928687417
 20
60.27328539832651
 30
0.0
 10
215.7366993120934
 20
59.8417979049503
 30
0.0
 10
215.7359419484413
 20
59.75332141061988
 30
0.0
  0
SPLINE
  5
229
330
1F
100
AcDbEntity
  8
0
  6
Continuous
 62
     7
370
    15
100
AcDbSpline
210
0.0
220
0.0
230
1.0
 70
     8
 71
     3
 72
    14
 73
    10
 74
     0
 42
0.000000001
 43
0.00000001
 40
0.0
 40
0.0
 40
0.0
 40
0.0
 40
0.0937294742557318
 40
0.2704230184875533
 40
0.4471335027785702
 40
0.6223652036326687
 40
0.7945523592329244
 40
0.9625270677832918
 40
0.9999999999999999
 40
0.9999999999999999
 40
0.9999999999999999
 40
0.9999999999999999
 10
215.7359419484413
 20
59.75332141061988
 30
0.0
 10
215.7390491350851
 20
59.57259963977322
 30
0.0
 10
215.7480138155966
 20
59.05119132966762
 30
0.0
 10
215.8479481785897
 20
58.23004139705093
 30
0.0
 10
216.0744130030344
 20
57.32472630666671
 30
0.0
 10
216.4126210364114
 20
56.5030810656924
 30
0.0
 10
216.8647003078125
 20
55.795316280925
 30
0.0
 10
217.2545395186401
 20
55.32501072156187
 30
0.0
 10
217.5160099797497
 20
55.13382789298898
 30
0.0
 10
217.5637012787554
 20
55.09895681270126
 30
0.0
  0
ARC
  5
22A
330
1F
100
AcDbEntity
  8
0
  6
Continuous
 62
     7
370
    15
100
AcDbCircle
 10
258.3074147383
 20
53.6722876388
 30
0.0
 40
1.561635171295496
100
AcDbArc
 50
79.679924259
 51
142.6800403085
  0
ARC
  5
22B
330
1F
100
AcDbEntity
  8
0
  6
Continuous
 62
     7
370
    15
100
AcDbCircle
 10
258.2749934511
 20
53.7566524638
 30
0.0
 40
1.466754061623057
100
AcDbArc
 50
78.2220488375
 51
144.2779631255
  0
ARC
  5
22C
330
1F
100
AcDbEntity
  8
0
  6
Continuous
 62
     7
370
    15
100
AcDbCircle
 10
258.2448321315
 20
53.8351015803
 30
0.0
 40
1.248577303907409
100
AcDbArc
 50
80.7986069987
 51
142.188669141
  0
LWPOLYLINE
  5
22D
330
1F
100
AcDbEntity
  8
0
  6
Continuous
 62
     7
370
    15
100
AcDbPolyline
 90
       17
 70
   128
 43
0.0
 10
272.3651771927
 20
39.5955293471
 10
272.7062757947
 20
39.6039106861
 10
273.0269662671
 20
39.5362984876
 10
273.2784264661
 20
39.4029860589
 10
273.4223717832
 20
39.2242702062
 10
273.4368893969
 20
39.0273579132
 10
273.3197686864
 20
38.8422275233
 10
273.088841792
 20
38.697062575
 10
272.7792622414
 20
38.6139648548
 10
272.4381636393
 20
38.6055835158
 10
272.1174731669
 20
38.6731957143
 10
271.866012968
 20
38.8065081431
 10
271.7220676509
 20
38.9852239958
 10
271.7075500372
 20
39.1821362887
 10
271.8246707477
 20
39.3672666786
 10
272.0555976421
 20
39.5124316269
 10
272.3651771927
 20
39.5955293471
  0
LWPOLYLINE
  5
22E
330
1F
100
AcDbEntity
  8
0
  6
Continuous
 62
     7
370
    15
100
AcDbPolyline
 90
       14
 70
   128
 43
0.0
 10
273.2794416948
 20
39.410817171
 10
273.3793122743
 20
39.3435246714
 10
273.5438217961
 20
39.1392776703
 10
273.5604135369
 20
38.9142349378
 10
273.4265612993
 20
38.702657351
 10
273.1626441033
 20
38.5367549917
 10
272.8088398213
 20
38.4417856128
 10
272.4190117656
 20
38.4322076185
 10
272.0525089448
 20
38.5094783834
 10
271.7651271598
 20
38.6618346743
 10
271.6006176379
 20
38.8660816754
 10
271.5840258972
 20
39.091124408
 10
271.7178768177
 20
39.3027027551
 10
271.8649985724
 20
39.4108170817
  0
LWPOLYLINE
  5
22F
330
1F
100
AcDbEntity
  8
0
  6
Continuous
 62
     7
370
    15
100
AcDbPolyline
 90
       17
 70
   128
 43
0.0
 10
272.4243323937
 20
39.455305743
 10
272.6679745992
 20
39.4612921795
 10
272.8970390577
 20
39.4129978742
 10
273.0766521743
 20
39.3177754745
 10
273.1794704402
 20
39.190121182
 10
273.1898410963
 20
39.049468996
 10
273.1061834503
 20
38.9172330058
 10
272.9412345456
 20
38.8135444121
 10
272.7201070404
 20
38.7541884589
 10
272.4764648349
 20
38.7482020225
 10
272.2474003764
 20
38.7964963277
 10
272.0677872597
 20
38.8917187274
 10
271.9649676767
 20
39.0193737803
 10
271.9545983378
 20
39.1600252059
 10
272.0382559837
 20
39.2922611962
 10
272.2032048885
 20
39.3959497898
 10
272.4243323937
 20
39.455305743
  0
SPLINE
  5
230
330
1F
100
AcDbEntity
  8
0
  6
Continuous
 62
     7
370
    15
100
AcDbSpline
210
0.0
220
0.0
230
1.0
 70
     8
 71
     3
 72
    11
 73
     7
 74
     0
 42
0.000000001
 43
0.00000001
 40
0.0
 40
0.0
 40
0.0
 40
0.0
 40
0.1208911051141467
 40
0.4766717497521009
 40
0.8143672851219144
 40
1.0
 40
1.0
 40
1.0
 40
1.0
 10
272.1734318578493
 20
39.30685399545333
 30
0.0
 10
272.1946612429769
 20
39.30135799678166
 30
0.0
 10
272.2783683787947
 20
39.27968735938456
 30
0.0
 10
272.436233302551
 20
39.26860959084395
 30
0.0
 10
272.6092256275315
 20
39.31929608923051
 30
0.0
 10
272.7016148824185
 20
39.36832679301386
 30
0.0
 10
272.7343867960351
 20
39.38571875045429
 30
0.0
  0
SPLINE
  5
231
330
1F
100
AcDbEntity
  8
0
  6
Continuous
 62
     7
370
    15
100
AcDbSpline
210
0.0
220
0.0
230
1.0
 70
     8
 71
     3
 72
    10
 73
     6
 74
     0
 42
0.000000001
 43
0.00000001
 40
0.0
 40
0.0
 40
0.0
 40
0.0
 40
0.4391048074856372
 40
0.751357505656361
 40
1.0
 40
1.0
 40
1.0
 40
1.0
 10
272.0112654547586
 20
38.9869740326827
 30
0.0
 10
272.0344802782695
 20
39.00480423090006
 30
0.0
 10
272.0742034413734
 20
39.03531369704473
 30
0.0
 10
272.1319491108062
 20
39.17048386593456
 30
0.0
 10
272.160690791109
 20
39.26496909039214
 30
0.0
 10
272.1734318578493
 20
39.30685399545333
 30
0.0
  0
SPLINE
  5
232
330
1F
100
AcDbEntity
  8
0
  6
Continuous
 62
     7
370
    15
100
AcDbSpline
210
0.0
220
0.0
230
1.0
 70
     8
 71
     3
 72
     9
 73
     5
 74
     0
 42
0.000000001
 43
0.00000001
 40
0.0
 40
0.0
 40
0.0
 40
0.0
 40
0.5214915160222544
 40
1.0
 40
1.0
 40
1.0
 40
1.0
 10
272.218698989921
 20
38.80175662877602
 30
0.0
 10
272.1808382103658
 20
38.82652741314536
 30
0.0
 10
272.1082372602218
 20
38.87402729302505
 30
0.0
 10
272.0426496721125
 20
38.95041964442623
 30
0.0
 10
272.0112654547586
 20
38.9869740326827
 30
0.0
  0
SPLINE
  5
233
330
1F
100
AcDbEntity
  8
0
  6
Continuous
 62
     7
370
    15
100
AcDbSpline
210
0.0
220
0.0
230
1.0
 70
     8
 71
     3
 72
    10
 73
     6
 74
     0
 42
0.000000001
 43
0.00000001
 40
0.0
 40
0.0
 40
0.0
 40
0.0
 40
0.4391048074856372
 40
0.751357505656361
 40
1.0
 40
1.0
 40
1.0
 40
1.0
 10
273.1331739793133
 20
39.14470428297591
 30
0.0
 10
273.1099591558024
 20
39.07095061068248
 30
0.0
 10
273.0702359926985
 20
38.94474981692505
 30
0.0
 10
273.0124903232658
 20
38.85211025384673
 30
0.0
 10
272.983748642963
 20
38.8332049585761
 30
0.0
 10
272.9710075762227
 20
38.82482432020528
 30
0.0
  0
SPLINE
  5
234
330
1F
100
AcDbEntity
  8
0
  6
Continuous
 62
     7
370
    15
100
AcDbSpline
210
0.0
220
0.0
230
1.0
 70
     8
 71
     3
 72
    10
 73
     6
 74
     0
 42
0.000000001
 43
0.00000001
 40
0.0
 40
0.0
 40
0.0
 40
0.0
 40
0.439106995432447
 40
0.751359781635822
 40
1.0
 40
1.0
 40
1.0
 40
1.0
 10
272.7343867960351
 20
39.38571875045429
 30
0.0
 10
272.791474910433
 20
39.3232547564739
 30
0.0
 10
272.8891588772431
 20
39.21637207556606
 30
0.0
 10
273.0311617742274
 20
39.15181499523751
 30
0.0
 10
273.1018419274223
 20
39.14688826875854
 30
0.0
 10
273.1331739793133
 20
39.14470428297591
 30
0.0
  0
LINE
  5
235
330
1F
100
AcDbEntity
  8
0
  6
Continuous
 62
     7
370
    15
100
AcDbLine
 10
272.1734318578
 20
38.8269323287
 30
0.0
 11
272.1734318578
 21
39.3068539955
 31
0.0
  0
LINE
  5
236
330
1F
100
AcDbEntity
  8
0
  6
Continuous
 62
     7
370
    15
100
AcDbLine
 10
272.734386796
 20
38.7562995851
 30
0.0
 11
272.734386796
 21
39.3857187505
 31
0.0
  0
SPLINE
  5
237
330
1F
100
AcDbEntity
  8
0
  6
Continuous
 62
     7
370
    15
100
AcDbSpline
210
0.0
220
0.0
230
1.0
 70
     8
 71
     3
 72
    12
 73
     8
 74
     0
 42
0.000000001
 43
0.00000001
 40
0.0
 40
0.0
 40
0.0
 40
0.0
 40
0.2499999999999972
 40
0.2499999999999972
 40
0.4999999999999944
 40
0.4999999999999944
 40
1.0
 40
1.0
 40
1.0
 40
1.0
 10
248.4495336960348
 20
35.50774802628445
 30
0.0
 10
248.4834651883243
 20
35.48815979273298
 30
0.0
 10
248.5218968973516
 20
35.46097260379657
 30
0.0
 10
248.5960737500165
 20
35.40174867626074
 30
0.0
 10
248.631290030272
 20
35.37031599724398
 30
0.0
 10
248.7263889475299
 20
35.27832328044199
 30
0.0
 10
248.7749181042918
 20
35.22146661491735
 30
0.0
 10
248.8082597004469
 20
35.173237808915
 30
0.0
  0
ARC
  5
238
330
1F
100
AcDbEntity
  8
0
  6
Continuous
 62
     7
370
    15
100
AcDbCircle
 10
272.5928445117
 20
51.4295723064
 30
0.0
 40
10.22528432459637
100
AcDbArc
 50
73.3397593526
 51
100.6321982044
  0
SPLINE
  5
239
330
1F
100
AcDbEntity
  8
0
  6
Continuous
 62
     7
370
    15
100
AcDbSpline
210
0.0
220
0.0
230
1.0
 70
     8
 71
     3
 72
    12
 73
     8
 74
     0
 42
0.000000001
 43
0.00000001
 40
0.0
 40
0.0
 40
0.0
 40
0.0
 40
0.4999999999999972
 40
0.4999999999999972
 40
0.7499999999999986
 40
0.7499999999999986
 40
1.0
 40
1.0
 40
1.0
 40
1.0
 10
275.7365225196453
 20
60.79205374712634
 30
0.0
 10
275.7365225196453
 20
60.86473674431914
 30
0.0
 10
275.7195057515751
 20
60.94831959105943
 30
0.0
 10
275.6650949256936
 20
61.06976376893512
 30
0.0
 10
275.6419497067717
 20
61.10947864661647
 30
0.0
 10
275.5876688949145
 20
61.17820841848226
 30
0.0
 10
275.556432926357
 20
61.20711801438792
 30
0.0
 10
275.5243904852892
 20
61.22561572188152
 30
0.0
  0
ARC
  5
23A
330
1F
100
AcDbEntity
  8
0
  6
Continuous
 62
     7
370
    15
100
AcDbCircle
 10
286.3638229112
 20
26.9694058908
 30
0.0
 40
38.44273432155994
100
AcDbArc
 50
126.7356381352
 51
166.7460567345
  0
LWPOLYLINE
  5
23B
330
1F
100
AcDbEntity
  8
0
  6
Continuous
 62
     7
370
    15
100
AcDbPolyline
 90
       12
 70
   128
 43
0.0
 10
258.4604946777
 20
56.3497425493
 10
259.9108516994
 20
57.62234586
 10
261.388483659
 20
58.7634948972
 10
262.8822094173
 20
59.7645539191
 10
264.3807259224
 20
60.6179483738
 10
265.872693655
 20
61.3172218309
 10
267.3468228163
 20
61.8570796526
 10
268.7919582386
 20
62.2334395326
 10
270.1971647903
 20
62.4434519018
 10
271.5518092825
 20
62.4855274399
 10
272.845640482
 20
62.3593498056
 10
274.0688684664
 20
62.0658712568
  0
LINE
  5
23C
330
1F
100
AcDbEntity
  8
0
  6
Continuous
 62
     7
370
    15
100
AcDbLine
 10
275.5243904526
 20
61.2256162995
 30
0.0
 11
274.0688684664
 21
62.0658712568
 31
0.0
  0
LINE
  5
23D
330
1F
100
AcDbEntity
  8
0
  6
Continuous
 62
     7
370
    15
100
AcDbLine
 10
246.9940115473
 20
36.3480031688
 30
0.0
 11
248.4495335336
 21
35.5077482114
 31
0.0
  0
ARC
  5
23E
330
1F
100
AcDbEntity
  8
0
  6
Continuous
 62
     7
370
    15
100
AcDbCircle
 10
286.4214665458
 20
27.0662620949
 30
0.0
 40
40.50524564818934
100
AcDbArc
 50
136.9919325105
 51
166.7530183965
  0
SPLINE
  5
23F
330
1F
100
AcDbEntity
  8
0
  6
Continuous
 62
     7
370
    15
100
AcDbSpline
210
0.0
220
0.0
230
1.0
 70
     8
 71
     3
 72
    34
 73
    30
 74
     0
 42
0.000000001
 43
0.00000001
 40
0.0
 40
0.0
 40
0.0
 40
0.0
 40
0.0624999999999985
 40
0.0624999999999985
 40
0.124999999999997
 40
0.124999999999997
 40
0.1874999999999954
 40
0.1874999999999954
 40
0.2499999999999945
 40
0.2499999999999945
 40
0.3124999999999945
 40
0.3124999999999945
 40
0.3749999999999944
 40
0.3749999999999944
 40
0.4999999999999954
 40
0.4999999999999954
 40
0.6249999999999964
 40
0.6249999999999964
 40
0.687499999999997
 40
0.687499999999997
 40
0.7499999999999976
 40
0.7499999999999976
 40
0.8124999999999982
 40
0.8124999999999982
 40
0.8749999999999988
 40
0.8749999999999988
 40
0.9374999999999994
 40
0.9374999999999994
 40
1.0
 40
1.0
 40
1.0
 40
1.0
 10
256.801695310567
 20
54.6949449173168
 30
0.0
 10
256.8608207242103
 20
54.66536743345856
 30
0.0
 10
256.9236334196407
 20
54.64169141126304
 30
0.0
 10
257.0563424225654
 20
54.60561190084329
 30
0.0
 10
257.1269541189366
 20
54.59316401070405
 30
0.0
 10
257.2722020889138
 20
54.58045411697866
 30
0.0
 10
257.346184518676
 20
54.58011193708133
 30
0.0
 10
257.4968665835009
 20
54.59111828190395
 30
0.0
 10
257.574314603301
 20
54.60270494588942
 30
0.0
 10
257.7262471892761
 20
54.63687948862822
 30
0.0
 10
257.8012032698606
 20
54.65939189101822
 30
0.0
 10
257.9491383367693
 20
54.71520396361628
 30
0.0
 10
258.0220670498596
 20
54.74864880982258
 30
0.0
 10
258.2286795758696
 20
54.86101106914189
 30
0.0
 10
258.3556047519189
 20
54.95504847016262
 30
0.0
 10
258.5647115045458
 20
55.16364978533854
 30
0.0
 10
258.6492598877437
 20
55.28057387948223
 30
0.0
 10
258.7342334445177
 20
55.45909912945489
 30
0.0
 10
258.7561931451157
 20
55.52031570838157
 30
0.0
 10
258.7853042418555
 20
55.64112169089541
 30
0.0
 10
258.7926587046352
 20
55.70072221734057
 30
0.0
 10
258.7930016396796
 20
55.81846350747382
 30
0.0
 10
258.7857615968442
 20
55.87691489561094
 30
0.0
 10
258.7571497463222
 20
55.98767752000239
 30
0.0
 10
258.7358664047628
 20
56.04058996472502
 30
0.0
 10
258.6790382381557
 20
56.14150817203428
 30
0.0
 10
258.6435807491818
 20
56.18902318666539
 30
0.0
 10
258.5611757962953
 20
56.27528316454881
 30
0.0
 10
258.5139708937194
 20
56.31452871696887
 30
0.0
 10
258.4604947478306
 20
56.34974184508249
 30
0.0
  0
LINE
  5
240
330
1F
100
AcDbEntity
  8
0
  6
Continuous
 62
     7
370
    15
100
AcDbLine
 10
281.4464217464
 20
53.9227501909
 30
0.0
 11
281.5507035863
 21
54.1033720156
 31
0.0
  0
LINE
  5
241
330
1F
100
AcDbEntity
  8
0
  6
Continuous
 62
     7
370
    15
100
AcDbLine
 10
279.1483134648
 20
52.5960805189
 30
0.0
 11
281.4464217464
 21
53.9227501909
 31
0.0
  0
ARC
  5
242
330
1F
100
AcDbEntity
  8
0
  6
Continuous
 62
     7
370
    15
100
AcDbCircle
 10
279.9764165625
 20
51.3014782359
 30
0.0
 40
1.536798559128261
100
AcDbArc
 50
122.6053519586
 51
177.394632491
  0
LINE
  5
243
330
1F
100
AcDbEntity
  8
0
  6
Continuous
 62
     7
370
    15
100
AcDbLine
 10
278.4412065678
 20
42.5118678622
 30
0.0
 11
278.4412065678
 21
51.3713358306
 31
0.0
  0
ARC
  5
244
330
1F
100
AcDbEntity
  8
0
  6
Continuous
 62
     7
370
    15
100
AcDbCircle
 10
278.8722800508
 20
42.4419393152
 30
0.0
 40
0.4367085406723633
100
AcDbArc
 50
170.7857695821
 51
309.2035248725
  0
LINE
  5
245
330
1F
100
AcDbEntity
  8
0
  6
Continuous
 62
     7
370
    15
100
AcDbLine
 10
281.4464217464
 20
43.4302010915
 30
0.0
 11
279.1483134648
 21
42.1035314196
 31
0.0
  0
LINE
  5
246
330
1F
100
AcDbEntity
  8
0
  6
Continuous
 62
     7
370
    15
100
AcDbLine
 10
281.5507035863
 20
43.3699805163
 30
0.0
 11
281.4464217464
 21
43.4302010915
 31
0.0
  0
LINE
  5
247
330
1F
100
AcDbEntity
  8
0
  6
Continuous
 62
     7
370
    15
100
AcDbLine
 10
248.8537672503
 20
24.6148621467
 30
0.0
 11
248.8082591907
 21
24.4964935237
 31
0.0
  0
LINE
  5
248
330
1F
100
AcDbEntity
  8
0
  6
Continuous
 62
     7
370
    15
100
AcDbLine
 10
248.8537672503
 20
24.6148621467
 30
0.0
 11
251.9954117776
 21
26.4284949281
 31
0.0
  0
ARC
  5
249
330
1F
100
AcDbEntity
  8
0
  6
Continuous
 62
     7
370
    15
100
AcDbCircle
 10
251.16730868
 20
27.723097211
 30
0.0
 40
1.536798559128204
100
AcDbArc
 50
302.6053519586
 51
357.394632491
  0
LINE
  5
24A
330
1F
100
AcDbEntity
  8
0
  6
Continuous
 62
     7
370
    15
100
AcDbLine
 10
252.7025186747
 20
36.5127075847
 30
0.0
 11
252.7025186747
 21
27.6532396164
 31
0.0
  0
ARC
  5
24B
330
1F
100
AcDbEntity
  8
0
  6
Continuous
 62
     7
370
    15
100
AcDbCircle
 10
252.2714451916
 20
36.5826361317
 30
0.0
 40
0.4367085406722848
100
AcDbArc
 50
350.7857695821
 51
129.2035248725
  0
LINE
  5
24C
330
1F
100
AcDbEntity
  8
0
  6
Continuous
 62
     7
370
    15
100
AcDbLine
 10
251.9954117776
 20
36.9210440274
 30
0.0
 11
248.8537672503
 21
35.1074112461
 31
0.0
  0
LINE
  5
24D
330
1F
100
AcDbEntity
  8
0
  6
Continuous
 62
     7
370
    15
100
AcDbLine
 10
248.8082591907
 20
35.1732373818
 30
0.0
 11
248.8537672503
 21
35.1074112461
 31
0.0
  0
LINE
  5
24E
330
1F
100
AcDbEntity
  8
0
  6
Continuous
 62
     7
370
    15
100
AcDbLine
 10
275.7365227852
 20
57.5670929615
 30
0.0
 11
275.7365227852
 21
60.7920541045
 31
0.0
  0
LINE
  5
24F
330
1F
100
AcDbEntity
  8
0
  6
Continuous
 62
     7
370
    15
100
AcDbLine
 10
278.5292697735
 20
59.1793114809
 30
0.0
 11
275.7365227852
 21
57.5670929615
 31
0.0
  0
SPLINE
  5
250
330
1F
100
AcDbEntity
  8
0
  6
Continuous
 62
     7
370
    15
100
AcDbSpline
210
0.0
220
0.0
230
1.0
 70
     8
 71
     3
 72
     8
 73
     4
 74
     0
 42
0.000000001
 43
0.00000001
 40
0.0
 40
0.0
 40
0.0
 40
0.0
 40
1.0
 40
1.0
 40
1.0
 40
1.0
 10
245.9214572238063
 20
37.43951695381595
 30
0.0
 10
245.634390094134
 20
37.3920649540926
 30
0.0
 10
245.3472769755485
 20
37.34470752138981
 30
0.0
 10
245.0601221491508
 20
37.29743585247773
 30
0.0
  0
SPLINE
  5
251
330
1F
100
AcDbEntity
  8
0
  6
Continuous
 62
     7
370
    15
100
AcDbSpline
210
0.0
220
0.0
230
1.0
 70
     8
 71
     3
 72
     8
 73
     4
 74
     0
 42
0.000000001
 43
0.00000001
 40
0.0
 40
0.0
 40
0.0
 40
0.0
 40
0.0011862984959112
 40
0.0011862984959112
 40
0.0011862984959112
 40
0.0011862984959112
 10
244.7078210618754
 20
37.6677927521399
 30
0.0
 10
244.8255319297199
 20
37.54424280102745
 30
0.0
 10
244.9429716801559
 20
37.42078775191217
 30
0.0
 10
245.0601221491508
 20
37.29743585247773
 30
0.0
  0
LWPOLYLINE
  5
252
330
1F
100
AcDbEntity
  8
0
  6
Continuous
 62
     7
370
    15
100
AcDbPolyline
 90
       25
 70
   128
 43
0.0
 10
244.707821275
 20
37.6677927204
 10
245.156557454
 20
39.4512129016
 10
245.7105764606
 20
41.2485141992
 10
246.3662497145
 20
43.0479230869
 10
247.1192808714
 20
44.8376527931
 10
247.96473875
 20
46.6059797241
 10
248.8970836739
 20
48.341321029
 10
249.9102096184
 20
50.0323083604
 10
250.997479772
 20
51.6678646781
 10
252.1517719758
 20
53.2372776296
 10
253.3655248217
 20
54.7302672265
 10
254.630787702
 20
56.1370527608
 10
255.939272834
 20
57.4484178198
 10
257.2824086023
 20
58.6557745399
 10
258.6513973463
 20
59.7512121758
 10
260.0372712538
 20
60.7275567443
 10
261.4309522682
 20
61.578413212
 10
262.8233110487
 20
62.2982056168
 10
264.2052270214
 20
62.8822208593
 10
265.5676482656
 20
63.3266341498
 10
266.9016496924
 20
63.6285319467
 10
268.1984937331
 20
63.7859378663
 10
269.4496848343
 20
63.797821328
 10
270.6470274097
 20
63.6641036325
 10
271.7826781941
 20
63.3856608085
  0
LINE
  5
253
330
1F
100
AcDbEntity
  8
0
  6
Continuous
 62
     7
370
    15
100
AcDbLine
 10
272.0869870014
 20
62.4281354029
 30
0.0
 11
271.7826781941
 21
63.3856608085
 31
0.0
  0
LWPOLYLINE
  5
254
330
1F
100
AcDbEntity
  8
0
  6
Continuous
 62
     7
370
    15
100
AcDbPolyline
 90
       24
 70
   128
 43
0.0
 10
245.9214572293
 20
37.4395169281
 10
246.3515921601
 20
39.1775411213
 10
246.8870230894
 20
40.9301312264
 10
247.5240740218
 20
42.6852593469
 10
248.2583748558
 20
44.4308839629
 10
249.084887726
 20
46.1550274962
 10
249.997941247
 20
47.8458591973
 10
250.9912687094
 20
49.4917757509
 10
252.0580561532
 20
51.0814845422
 10
253.1909818804
 20
52.6040774182
 10
254.3822730903
 20
54.0491052072
 10
255.6237552698
 20
55.4066549019
 10
256.9069098166
 20
56.6674118213
 10
258.2229319904
 20
57.8227219634
 10
259.5627916645
 20
58.8646590153
 10
260.9172949812
 20
59.7860751558
 10
262.2771479019
 20
60.5806453464
 10
263.6330193448
 20
61.2429205104
 10
264.975605887
 20
61.7683527168
 10
266.2956952317
 20
62.1533394242
 10
267.58422877
 20
62.3952383038
 10
268.8323655418
 20
62.4923904747
 10
270.0315408465
 20
62.444126963
 10
270.1124884789
 20
62.4354101662
  0
LINE
  5
255
330
1F
100
AcDbEntity
  8
0
  6
Continuous
 62
     7
370
    15
100
AcDbLine
 10
243.269976599
 20
38.4978427838
 30
0.0
 11
244.707821275
 21
37.6677927204
 31
0.0
  0
ARC
  5
256
330
1F
100
AcDbEntity
  8
0
  6
Continuous
 62
     7
370
    15
100
AcDbCircle
 10
267.4132980295
 20
54.4197275371
 30
0.0
 40
10.2252232159097
100
AcDbArc
 50
73.3397180168
 51
100.6313045995
  0
LINE
  5
257
330
1F
100
AcDbEntity
  8
0
  6
Continuous
 62
     7
370
    15
100
AcDbLine
 10
271.7826781941
 20
63.3856608085
 30
0.0
 11
270.344833518
 21
64.2157108719
 31
0.0
  0
LINE
  5
258
330
1F
100
AcDbEntity
  8
0
  6
Continuous
 62
     7
370
    15
100
AcDbLine
 10
247.1740480669
 20
37.1131749266
 30
0.0
 11
246.5479444492
 21
37.4746168516
 31
0.0
  0
SPLINE
  5
259
330
1F
100
AcDbEntity
  8
0
  6
Continuous
 62
     7
370
    15
100
AcDbSpline
210
0.0
220
0.0
230
1.0
 70
     8
 71
     3
 72
    11
 73
     7
 74
     0
 42
0.000000001
 43
0.00000001
 40
0.0
 40
0.0
 40
0.0
 40
0.0
 40
0.3165694752064712
 40
0.6331520400060429
 40
0.9494411625907934
 40
1.0
 40
1.0
 40
1.0
 40
1.0
 10
257.7684707547442
 20
55.45726359956966
 30
0.0
 10
257.6348805745405
 20
55.4100849366496
 30
0.0
 10
257.3676946904131
 20
55.31572566005444
 30
0.0
 10
257.0517444912145
 20
55.05590996086125
 30
0.0
 10
256.8710418002578
 20
54.83271857538877
 30
0.0
 10
256.8361068367078
 20
54.70396939789096
 30
0.0
 10
256.831292114167
 20
54.68622523834382
 30
0.0
  0
SPLINE
  5
25A
330
1F
100
AcDbEntity
  8
0
  6
Continuous
 62
     7
370
    15
100
AcDbSpline
210
0.0
220
0.0
230
1.0
 70
     8
 71
     3
 72
    14
 73
    10
 74
     0
 42
0.000000001
 43
0.00000001
 40
0.0
 40
0.0
 40
0.0
 40
0.0
 40
0.25
 40
0.25
 40
0.5
 40
0.5
 40
0.75
 40
0.75
 40
1.0
 40
1.0
 40
1.0
 40
1.0
 10
246.54794433654
 20
37.474617021048
 30
0.0
 10
246.5103103430819
 20
37.49634266302804
 30
0.0
 10
246.4645363863928
 20
37.51355442413954
 30
0.0
 10
246.3646005088828
 20
37.53595975777204
 30
0.0
 10
246.310166640043
 20
37.54113464137186
 30
0.0
 10
246.203950989551
 20
37.5391924470571
 30
0.0
 10
246.1506346896009
 20
37.53210404413887
 30
0.0
 10
246.0531416223002
 20
37.50737060785419
 30
0.0
 10
246.0082299317706
 20
37.48960977186814
 30
0.0
 10
245.9704766661706
 20
37.46781527554615
 30
0.0
  0
LINE
  5
25B
330
1F
100
AcDbEntity
  8
0
  6
Continuous
 62
     7
370
    15
100
AcDbLine
 10
245.9704766483
 20
37.4678152364
 30
0.0
 11
245.9214572293
 21
37.4395169281
 31
0.0
  0
SPLINE
  5
25C
330
1F
100
AcDbEntity
  8
0
  6
Continuous
 62
     7
370
    15
100
AcDbSpline
210
0.0
220
0.0
230
1.0
 70
     8
 71
     3
 72
    10
 73
     6
 74
     0
 42
0.000000001
 43
0.00000001
 40
0.0
 40
0.0
 40
0.0
 40
0.0
 40
0.5
 40
0.5
 40
1.0
 40
1.0
 40
1.0
 40
1.0
 10
243.1679640335204
 20
38.52729096272462
 30
0.0
 10
243.1752803179427
 20
38.5316589626178
 30
0.0
 10
243.187104178151
 20
38.53219101520607
 30
0.0
 10
243.2212555424288
 20
38.52296096556776
 30
0.0
 10
243.2435125058216
 20
38.51312008825146
 30
0.0
 10
243.2699765238433
 20
38.49784273583514
 30
0.0
  0
SPLINE
  5
25D
330
1F
100
AcDbEntity
  8
0
  6
Continuous
 62
     7
370
    15
100
AcDbSpline
210
0.0
220
0.0
230
1.0
 70
     8
 71
     3
 72
    14
 73
    10
 74
     0
 42
0.000000001
 43
0.00000001
 40
0.0
 40
0.0
 40
0.0
 40
0.0
 40
0.25
 40
0.25
 40
0.5
 40
0.5
 40
0.75
 40
0.75
 40
1.0
 40
1.0
 40
1.0
 40
1.0
 10
258.1855496097699
 20
55.76371540870791
 30
0.0
 10
258.2003905018991
 20
55.72519738987232
 30
0.0
 10
258.1997567339951
 20
55.68727875171885
 30
0.0
 10
258.1668211290346
 20
55.62133780194958
 30
0.0
 10
258.1346852836927
 20
55.59306424440761
 30
0.0
 10
258.0497827082883
 20
55.54514521822011
 30
0.0
 10
257.9973657957951
 20
55.52526812077237
 30
0.0
 10
257.8860301315
 20
55.48941119475599
 30
0.0
 10
257.8278754547891
 20
55.47353917107257
 30
0.0
 10
257.7684704990577
 20
55.45726382551783
 30
0.0
  0
LINE
  5
25E
330
1F
100
AcDbEntity
  8
0
  6
Continuous
 62
     7
370
    15
100
AcDbLine
 10
258.169422615
 20
55.8055712513
 30
0.0
 11
258.1855497114
 21
55.7637157617
 31
0.0
  0
SPLINE
  5
25F
330
1F
100
AcDbEntity
  8
0
  6
Continuous
 62
     7
370
    15
100
AcDbSpline
210
0.0
220
0.0
230
1.0
 70
     8
 71
     3
 72
    10
 73
     6
 74
     0
 42
0.000000001
 43
0.00000001
 40
0.0
 40
0.0
 40
0.0
 40
0.0
 40
0.5
 40
0.5
 40
1.0
 40
1.0
 40
1.0
 40
1.0
 10
258.4604947478306
 20
56.34974184508249
 30
0.0
 10
258.4324796980927
 20
56.27771574239446
 30
0.0
 10
258.3946618096428
 20
56.19676925709101
 30
0.0
 10
258.2986860618079
 20
56.0163742207511
 30
0.0
 10
258.2406542845083
 20
55.9170480137763
 30
0.0
 10
258.1694225469182
 20
55.80557155221224
 30
0.0
  0
LINE
  5
260
330
1F
100
AcDbEntity
  8
0
  6
Continuous
 62
     7
370
    15
100
AcDbLine
 10
248.8537672503
 20
35.1074112461
 30
0.0
 11
247.0259130896
 21
36.1626089925
 31
0.0
  0
SPLINE
  5
261
330
1F
100
AcDbEntity
  8
0
  6
Continuous
 62
     7
370
    15
100
AcDbSpline
210
0.0
220
0.0
230
1.0
 70
     8
 71
     3
 72
     8
 73
     4
 74
     0
 42
0.000000001
 43
0.00000001
 40
0.0000000000000004
 40
0.0000000000000004
 40
0.0000000000000004
 40
0.0000000000000004
 40
0.0011862984959127
 40
0.0011862984959127
 40
0.0011862984959127
 40
0.0011862984959127
 10
247.0259128221218
 20
36.16260905243919
 30
0.0
 10
247.0148506228641
 20
36.22471749735797
 30
0.0
 10
247.0042246162904
 20
36.28651028465958
 30
0.0
 10
246.994011488473
 20
36.34800311137748
 30
0.0
  0
LINE
  5
262
330
1F
100
AcDbEntity
  8
0
  6
Continuous
 62
     7
370
    15
100
AcDbLine
 10
247.098697322
 20
36.9477838878
 30
0.0
 11
247.0788040095
 21
36.7184381313
 31
0.0
  0
ARC
  5
263
330
1F
100
AcDbEntity
  8
0
  6
Continuous
 62
     7
370
    15
100
AcDbCircle
 10
263.081480484
 20
35.2911379502
 30
0.0
 40
16.06296283248742
100
AcDbArc
 50
176.9225000953
 51
185.727139394
  0
LWPOLYLINE
  5
264
330
1F
100
AcDbEntity
  8
0
  6
Continuous
 62
     7
370
    15
100
AcDbPolyline
 90
        3
 70
   128
 43
0.0
 10
246.0999099493
 20
36.0476560769
 10
246.1558216952
 20
37.4353225066
 10
246.1619053293
 20
37.5104906507
  0
ARC
  5
265
330
1F
100
AcDbEntity
  8
0
  6
Continuous
 62
     7
370
    15
100
AcDbCircle
 10
257.8180126256
 20
35.7496394417
 30
0.0
 40
11.72189166669104
100
AcDbArc
 50
178.543158738
 51
203.8694730025
  0
LINE
  5
266
330
1F
100
AcDbEntity
  8
0
  6
Continuous
 62
     7
370
    15
100
AcDbLine
 10
243.6034992638
 20
38.1383264398
 30
0.0
 11
243.1679634449
 21
38.5272906095
 31
0.0
  0
LINE
  5
267
330
1F
100
AcDbEntity
  8
0
  6
Continuous
 62
     7
370
    15
100
AcDbLine
 10
245.0601225012
 20
37.2974357438
 30
0.0
 11
243.6034992638
 21
38.1383264398
 31
0.0
  0
LINE
  5
268
330
1F
100
AcDbEntity
  8
0
  6
Continuous
 62
     7
370
    15
100
AcDbLine
 10
247.098697322
 20
36.9477838878
 30
0.0
 11
247.098697322
 21
36.8026340505
 31
0.0
  0
LINE
  5
269
330
1F
100
AcDbEntity
  8
0
  6
Continuous
 62
     7
370
    15
100
AcDbLine
 10
247.098697322
 20
36.1205908531
 30
0.0
 11
247.098697322
 21
33.6881977286
 31
0.0
  0
LINE
  5
26A
330
1F
100
AcDbEntity
  8
0
  6
Continuous
 62
     7
370
    15
100
AcDbLine
 10
247.098697322
 20
37.1566735382
 30
0.0
 11
247.098697322
 21
36.9477838878
 31
0.0
  0
LINE
  5
26B
330
1F
100
AcDbEntity
  8
0
  6
Continuous
 62
     7
370
    15
100
AcDbLine
 10
247.098697322
 20
33.6881977286
 30
0.0
 11
247.098697322
 21
30.818208686
 31
0.0
  0
LWPOLYLINE
  5
26C
330
1F
100
AcDbEntity
  8
0
  6
Continuous
 62
     7
370
    15
100
AcDbPolyline
 90
       36
 70
   128
 43
0.0
 10
274.3576649285
 20
37.9923775773
 10
273.7389968546
 20
37.5709294419
 10
273.140213285
 20
37.0344300081
 10
272.5805595247
 20
36.400122867
 10
272.0780235521
 20
35.6883951966
 10
271.6487570768
 20
34.9221222487
 10
271.3065571002
 20
34.125932696
 10
271.0624221388
 20
33.3254167936
 10
270.9241992442
 20
32.5463040198
 10
270.8963306284
 20
31.813635359
 10
270.979711912
 20
31.150959435
 10
271.1716638067
 20
30.579575425
 10
271.4660160796
 20
30.1178478748
 10
271.8533085743
 20
29.7806172499
 10
272.3210929885
 20
29.578722075
 10
272.854334422
 20
29.5186518402
 10
273.4358942538
 20
29.6023370678
 10
274.0470805625
 20
29.8270879721
 10
274.6682492946
 20
30.1856810483
 10
275.2794356033
 20
30.6665908356
 10
275.8609954351
 20
31.2543602975
 10
276.3942368685
 20
31.9300979865
 10
276.8620212828
 20
32.6720855499
 10
277.2493137775
 20
33.4564745711
 10
277.5436660504
 20
34.2580540217
 10
277.735617945
 20
35.0510609718
 10
277.8189992286
 20
35.8100068767
 10
277.7911306129
 20
36.5104991187
 10
277.6529077183
 20
37.1300231354
 10
277.4087727568
 20
37.648666811
 10
277.0665727802
 20
38.0497606806
 10
276.637306305
 20
38.3204131058
 10
276.1347703324
 20
38.4519250925
 10
275.575116572
 20
38.4400697558
 10
274.9763330025
 20
38.2852283959
 10
274.3576649285
 20
37.9923775773
  0
LWPOLYLINE
  5
26D
330
1F
100
AcDbEntity
  8
0
  6
Continuous
 62
     7
370
    15
100
AcDbPolyline
 90
       19
 70
   128
 43
0.0
 10
274.2869530534
 20
38.1148526164
 10
273.6556591172
 20
37.6848039274
 10
273.0446554312
 20
37.1373552597
 10
272.4735802865
 20
36.4901033078
 10
271.9607883063
 20
35.7638503326
 10
271.5227612135
 20
34.9819390973
 10
271.173577537
 20
34.1695007238
 10
270.9244603571
 20
33.3526478845
 10
270.7834165871
 20
32.5576348092
 10
270.7549793181
 20
31.8100137903
 10
270.8400622808
 20
31.1338138722
 10
271.0359315274
 20
30.5507690319
 10
271.3362910433
 20
30.0796183075
 10
271.7314872246
 20
29.7355054173
 10
272.2088183939
 20
29.5294900142
 10
272.75294244
 20
29.4681937476
 10
273.3463707256
 20
29.5535870969
 10
273.9700302377
 20
29.782924537
 10
274.2875276771
 20
29.9497764032
  0
LWPOLYLINE
  5
26E
330
1F
100
AcDbEntity
  8
0
  6
Continuous
 62
     7
370
    15
100
AcDbPolyline
 90
       10
 70
   128
 43
0.0
 10
277.8224868804
 20
36.0731688821
 10
277.7904895198
 20
36.6027319109
 10
277.6494457498
 20
37.2348993156
 10
277.4003285699
 20
37.7641275813
 10
277.0511448934
 20
38.1734070634
 10
276.6131178006
 20
38.4495829822
 10
276.1003258204
 20
38.5837789394
 10
275.5292506757
 20
38.5716815639
 10
274.9182469897
 20
38.4136803916
 10
274.2869530534
 20
38.1148526164
  0
SPLINE
  5
26F
330
1F
100
AcDbEntity
  8
0
  6
Continuous
 62
     7
370
    15
100
AcDbSpline
210
0.0
220
0.0
230
1.0
 70
    11
 71
     3
 72
    60
 73
    56
 74
     0
 42
0.000000001
 43
0.00000001
 40
0.0
 40
0.0
 40
0.0
 40
0.0
 40
0.0625000000000004
 40
0.0625000000000004
 40
0.09375
 40
0.09375
 40
0.1249999999999996
 40
0.1249999999999996
 40
0.1562499999999991
 40
0.1562499999999991
 40
0.1874999999999986
 40
0.1874999999999986
 40
0.2187499999999982
 40
0.2187499999999982
 40
0.2499999999999978
 40
0.2499999999999978
 40
0.2812499999999973
 40
0.2812499999999973
 40
0.3124999999999969
 40
0.3124999999999969
 40
0.3437499999999964
 40
0.3437499999999964
 40
0.3749999999999959
 40
0.3749999999999959
 40
0.4062499999999955
 40
0.4062499999999955
 40
0.4374999999999951
 40
0.4374999999999951
 40
0.4687499999999946
 40
0.4687499999999946
 40
0.4999999999999942
 40
0.4999999999999942
 40
0.5312499999999938
 40
0.5312499999999938
 40
0.5624999999999933
 40
0.5624999999999933
 40
0.6249999999999938
 40
0.6249999999999938
 40
0.6874999999999942
 40
0.6874999999999942
 40
0.7499999999999946
 40
0.7499999999999946
 40
0.7812499999999953
 40
0.7812499999999953
 40
0.812499999999996
 40
0.812499999999996
 40
0.8437499999999967
 40
0.8437499999999967
 40
0.8749999999999973
 40
0.8749999999999973
 40
0.906249999999998
 40
0.906249999999998
 40
0.9374999999999987
 40
0.9374999999999987
 40
1.0
 40
1.0
 40
1.0
 40
1.0
 10
272.5689000863048
 20
39.72914197733015
 30
0.0
 10
272.7242537748042
 20
39.70623980873875
 30
0.0
 10
272.8729451318196
 20
39.66790018667647
 30
0.0
 10
273.0820728588363
 20
39.59435814535806
 30
0.0
 10
273.1479989508787
 20
39.56761337110861
 30
0.0
 10
273.2726167649976
 20
39.51019735703827
 30
0.0
 10
273.3318066113469
 20
39.47920736763655
 30
0.0
 10
273.4396857616854
 20
39.41491678884095
 30
0.0
 10
273.4883591898594
 20
39.38172577697843
 30
0.0
 10
273.5752654386889
 20
39.31310084911015
 30
0.0
 10
273.6137869408815
 20
39.2772930481254
 30
0.0
 10
273.67746708696
 20
39.20512835947015
 30
0.0
 10
273.7028431249632
 20
39.1687362552883
 30
0.0
 10
273.7403527451605
 20
39.09466377981638
 30
0.0
 10
273.7524703327863
 20
39.0565653727344
 30
0.0
 10
273.7614340412741
 20
38.98110136020901
 30
0.0
 10
273.7585429430999
 20
38.94356078459725
 30
0.0
 10
273.7370477646209
 20
38.8680590487203
 30
0.0
 10
273.7180250295603
 20
38.82974851017942
 30
0.0
 10
273.6646445553929
 20
38.75589951710285
 30
0.0
 10
273.6303124531432
 20
38.71992355637417
 30
0.0
 10
273.5450985722126
 20
38.64953552743298
 30
0.0
 10
273.4947267655425
 20
38.61574580833772
 30
0.0
 10
273.382449971501
 20
38.5534074763312
 30
0.0
 10
273.3190956541169
 20
38.52410576114332
 30
0.0
 10
273.1845358401764
 20
38.47242726784208
 30
0.0
 10
273.1135593959836
 20
38.44997104539903
 30
0.0
 10
272.964469581519
 20
38.41205171635312
 30
0.0
 10
272.8879610254491
 20
38.39705094908766
 30
0.0
 10
272.7338919718226
 20
38.37542632399317
 30
0.0
 10
272.6551850435013
 20
38.36871998999064
 30
0.0
 10
272.5010496244879
 20
38.36433080942574
 30
0.0
 10
272.4252318779186
 20
38.36651545292916
 30
0.0
 10
272.2759122270891
 20
38.38001356157246
 30
0.0
 10
272.2030110274204
 20
38.3913670828379
 30
0.0
 10
271.9952919992252
 20
38.43841506673934
 30
0.0
 10
271.8672753153591
 20
38.48842316918847
 30
0.0
 10
271.6524247206213
 20
38.6184788582185
 30
0.0
 10
271.5628646409577
 20
38.70021990279209
 30
0.0
 10
271.4358103198701
 20
38.88159384671516
 30
0.0
 10
271.3965910604308
 20
38.98368244863274
 30
0.0
 10
271.3830165067682
 20
39.13688817123591
 30
0.0
 10
271.385875784205
 20
39.18893622662168
 30
0.0
 10
271.4076611119377
 20
39.29065947034344
 30
0.0
 10
271.4262664286476
 20
39.33966698086504
 30
0.0
 10
271.4795622375092
 20
39.43318221160613
 30
0.0
 10
271.5149678434944
 20
39.47823832548213
 30
0.0
 10
271.599941422349
 20
39.55853092115322
 30
0.0
 10
271.649432319659
 20
39.59415348947321
 30
0.0
 10
271.76296381653
 20
39.65586406139725
 30
0.0
 10
271.82606455312
 20
39.68124918153815
 30
0.0
 10
271.9602664074226
 20
39.72014028121195
 30
0.0
 10
272.0328461300472
 20
39.73399491796967
 30
0.0
 10
272.2553166247023
 20
39.75823014260145
 30
0.0
 10
272.4135463978055
 20
39.75204414592156
 30
0.0
 10
272.5689000863048
 20
39.72914197733016
 30
0.0
  0
LINE
  5
270
330
1F
100
AcDbEntity
  8
0
  6
Continuous
 62
     7
370
    15
100
AcDbLine
 10
276.2910729079
 20
34.0039611694
 30
0.0
 11
277.0446707424
 21
34.9414296514
 31
0.0
  0
SPLINE
  5
271
330
1F
100
AcDbEntity
  8
0
  6
Continuous
 62
     7
370
    15
100
AcDbSpline
210
0.0
220
0.0
230
1.0
 70
     8
 71
     3
 72
    21
 73
    17
 74
     0
 42
0.000000001
 43
0.00000001
 40
0.0
 40
0.0
 40
0.0
 40
0.0
 40
0.0416666666666668
 40
0.0833333333333333
 40
0.1250000000000027
 40
0.1666666666666666
 40
0.2083333333333333
 40
0.2499999999976954
 40
0.3339999999999607
 40
0.4180000000000001
 40
0.4330099753158395
 40
0.4330099753158395
 40
0.501999999999741
 40
0.5859999999988207
 40
0.6699999999999805
 40
0.8156536847925685
 40
0.8156536847925685
 40
0.8156536847925685
 40
0.8156536847925685
 10
277.0446700648398
 20
34.94143000564525
 30
0.0
 10
277.0746465319348
 20
34.97872044573051
 30
0.0
 10
277.1327934802954
 20
35.05903345278996
 30
0.0
 10
277.2128596827149
 20
35.19698290223374
 30
0.0
 10
277.2806931504981
 20
35.34958985010936
 30
0.0
 10
277.3302271367721
 20
35.51049082569373
 30
0.0
 10
277.3556481067277
 20
35.67043694407675
 30
0.0
 10
277.3515238794369
 20
35.87001794464026
 30
0.0
 10
277.2756603903645
 20
36.06023946072118
 30
0.0
 10
277.1331029214454
 20
36.13111462272108
 30
0.0
 10
277.0592348131208
 20
36.1425234825516
 30
0.0
 10
277.000107381241
 20
36.14878353547513
 30
0.0
 10
276.9118743107939
 20
36.15475617077178
 30
0.0
 10
276.7786478352381
 20
36.16755685716519
 30
0.0
 10
276.6464040186281
 20
36.17910965911916
 30
0.0
 10
276.4387689876517
 20
36.19765989821929
 30
0.0
 10
276.2911191248431
 20
36.21087716411245
 30
0.0
  0
SPLINE
  5
272
330
1F
100
AcDbEntity
  8
0
  6
Continuous
 62
     7
370
    15
100
AcDbSpline
210
0.0
220
0.0
230
1.0
 70
     8
 71
     3
 72
    21
 73
    17
 74
     0
 42
0.000000001
 43
0.00000001
 40
0.0
 40
0.0
 40
0.0
 40
0.0
 40
0.0416666666666668
 40
0.0833333333333333
 40
0.1250000000000027
 40
0.1666666666666666
 40
0.2083333333333333
 40
0.2499999999976954
 40
0.3339999999999607
 40
0.4180000000000001
 40
0.4330099753158395
 40
0.4330099753158395
 40
0.501999999999741
 40
0.5859999999988207
 40
0.6699999999999805
 40
0.8133971939531328
 40
0.8133971939531328
 40
0.8133971939531328
 40
0.8133971939531328
 10
271.6706585278232
 20
31.8390791807196
 30
0.0
 10
271.6415852812929
 20
31.84167876706436
 30
0.0
 10
271.5821159259058
 20
31.85497497883494
 30
0.0
 10
271.5025812317169
 20
31.90043443757864
 30
0.0
 10
271.4346053415512
 20
31.97473525151652
 30
0.0
 10
271.3851095365767
 20
32.07844214136358
 30
0.0
 10
271.3596782638054
 20
32.20903856177256
 30
0.0
 10
271.3638065472073
 20
32.41338189051098
 30
0.0
 10
271.4396628584423
 20
32.69118679253287
 30
0.0
 10
271.582237347317
 20
32.92667596398897
 30
0.0
 10
271.6560895279247
 20
33.02335124216886
 30
0.0
 10
271.7152029316474
 20
33.09786088500842
 30
0.0
 10
271.8034061405089
 20
33.20566820943191
 30
0.0
 10
271.9369307647348
 20
33.37265975723221
 30
0.0
 10
272.0667613401477
 20
33.53389794038406
 30
0.0
 10
272.2770481250835
 20
33.79547560732836
 30
0.0
 10
272.4242090597449
 20
33.97855654626847
 30
0.0
  0
LINE
  5
273
330
1F
100
AcDbEntity
  8
0
  6
Continuous
 62
     7
370
    15
100
AcDbLine
 10
272.4242569492
 20
31.7716958315
 30
0.0
 11
271.6706591147
 21
31.8390787742
 31
0.0
  0
SPLINE
  5
274
330
1F
100
AcDbEntity
  8
0
  6
Continuous
 62
     7
370
    15
100
AcDbSpline
210
0.0
220
0.0
230
1.0
 70
     8
 71
     3
 72
    11
 73
     7
 74
     0
 42
0.000000001
 43
0.00000001
 40
0.0
 40
0.0
 40
0.0
 40
0.0
 40
0.3176374417402538
 40
0.6352804600708227
 40
0.9529670572552227
 40
1.0
 40
1.0
 40
1.0
 40
1.0
 10
271.5999474042644
 20
32.102969673156
 30
0.0
 10
271.5574225377362
 20
32.11342857560845
 30
0.0
 10
271.4723720580935
 20
32.13434656413468
 30
0.0
 10
271.3935838496996
 20
32.25063180067571
 30
0.0
 10
271.3558856428032
 20
32.36112618194869
 30
0.0
 10
271.3646107290777
 20
32.4339777894056
 30
0.0
 10
271.3657358853643
 20
32.44337247520458
 30
0.0
  0
ARC
  5
275
330
1F
100
AcDbEntity
  8
0
  6
Continuous
 62
     7
370
    15
100
AcDbCircle
 10
271.042406283
 20
35.0955863756
 30
0.0
 40
1.776833445559893
100
AcDbArc
 50
321.0485380515
 51
328.156459481
  0
SPLINE
  5
276
330
1F
100
AcDbEntity
  8
0
  6
Continuous
 62
     7
370
    15
100
AcDbSpline
210
0.0
220
0.0
230
1.0
 70
     8
 71
     3
 72
    16
 73
    12
 74
     0
 42
0.000000001
 43
0.00000001
 40
0.0
 40
0.0
 40
0.0
 40
0.0
 40
0.2499999999999963
 40
0.2499999999999963
 40
0.4999999999999926
 40
0.4999999999999926
 40
0.6249999999999907
 40
0.6249999999999907
 40
0.7499999999999889
 40
0.7499999999999889
 40
1.0
 40
1.0
 40
1.0
 40
1.0
 10
276.2911191248431
 20
36.21087716411245
 30
0.0
 10
276.2666765996198
 20
36.213065201059
 30
0.0
 10
276.2401053098746
 20
36.21409004189884
 30
0.0
 10
276.1794046710513
 20
36.21200888163273
 30
0.0
 10
276.1448522454885
 20
36.20904362939419
 30
0.0
 10
276.0867783289688
 20
36.19673359283099
 30
0.0
 10
276.0667641747554
 20
36.19119695574119
 30
0.0
 10
276.0308885362035
 20
36.17816896287333
 30
0.0
 10
276.0151012554089
 20
36.17073601757547
 30
0.0
 10
275.9769334017568
 20
36.14906093201436
 30
0.0
 10
275.9614491901945
 20
36.13509316216665
 30
0.0
 10
275.9495752815842
 20
36.1219182158196
 30
0.0
  0
SPLINE
  5
277
330
1F
100
AcDbEntity
  8
0
  6
Continuous
 62
     7
370
    15
100
AcDbSpline
210
0.0
220
0.0
230
1.0
 70
     8
 71
     3
 72
     8
 73
     4
 74
     0
 42
0.000000001
 43
0.00000001
 40
0.0
 40
0.0
 40
0.0
 40
0.0
 40
1.0
 40
1.0
 40
1.0
 40
1.0
 10
275.9495752815841
 20
36.12191821581956
 30
0.0
 10
275.9166893009248
 20
36.13506425710974
 30
0.0
 10
275.8845518769446
 20
36.14980213734938
 30
0.0
 10
275.8590781056511
 20
36.16450783249761
 30
0.0
  0
LINE
  5
278
330
1F
100
AcDbEntity
  8
0
  6
Continuous
 62
     7
370
    15
100
AcDbLine
 10
275.1210337525
 20
36.5905717095
 30
0.0
 11
275.8590777535
 21
36.1645079768
 31
0.0
  0
ARC
  5
279
330
1F
100
AcDbEntity
  8
0
  6
Continuous
 62
     7
370
    15
100
AcDbCircle
 10
270.6668828778
 20
36.386501882
 30
0.0
 40
3.550687604590011
100
AcDbArc
 50
339.1585902834
 51
358.2730129027
  0
LINE
  5
27A
330
1F
100
AcDbEntity
  8
0
  6
Continuous
 62
     7
370
    15
100
AcDbLine
 10
273.9852446737
 20
35.1232293634
 30
0.0
 11
275.8590777535
 21
34.041488552
 31
0.0
  0
LINE
  5
27B
330
1F
100
AcDbEntity
  8
0
  6
Continuous
 62
     7
370
    15
100
AcDbLine
 10
271.4513870073
 20
32.6291584837
 30
0.0
 11
272.4319861214
 21
32.0630706646
 31
0.0
  0
LINE
  5
27C
330
1F
100
AcDbEntity
  8
0
  6
Continuous
 62
     7
370
    15
100
AcDbLine
 10
247.0259130896
 20
25.6700598932
 30
0.0
 11
248.8537672503
 21
24.6148621467
 31
0.0
  0
SPLINE
  5
27D
330
1F
100
AcDbEntity
  8
0
  6
Continuous
 62
     7
370
    15
100
AcDbSpline
210
0.0
220
0.0
230
1.0
 70
     8
 71
     3
 72
    14
 73
    10
 74
     0
 42
0.000000001
 43
0.00000001
 40
0.0
 40
0.0
 40
0.0
 40
0.0
 40
0.25
 40
0.25
 40
0.5
 40
0.5
 40
0.75
 40
0.75
 40
1.0
 40
1.0
 40
1.0
 40
1.0
 10
248.8082597004469
 20
24.49649387737855
 30
0.0
 10
248.7915848573805
 20
24.45312125927197
 30
0.0
 10
248.7712896144645
 20
24.41289092982612
 30
0.0
 10
248.7229926353941
 20
24.33911904215398
 30
0.0
 10
248.694773787589
 20
24.30554943547687
 30
0.0
 10
248.6318484391659
 20
24.25199802981425
 30
0.0
 10
248.5966852631489
 20
24.23154200045459
 30
0.0
 10
248.5220022739404
 20
24.21410970694271
 30
0.0
 10
248.483477398732
 20
24.21805701592761
 30
0.0
 10
248.4495336960348
 20
24.23765229839743
 30
0.0
  0
LINE
  5
27E
330
1F
100
AcDbEntity
  8
0
  6
Continuous
 62
     7
370
    15
100
AcDbLine
 10
248.4495335336
 20
24.237652422
 30
0.0
 11
246.9940115473
 21
25.0779073794
 31
0.0
  0
SPLINE
  5
27F
330
1F
100
AcDbEntity
  8
0
  6
Continuous
 62
     7
370
    15
100
AcDbSpline
210
0.0
220
0.0
230
1.0
 70
     8
 71
     3
 72
     8
 73
     4
 74
     0
 42
0.000000001
 43
0.00000001
 40
0.0
 40
0.0
 40
0.0
 40
0.0
 40
0.0011862984959112
 40
0.0011862984959112
 40
0.0011862984959112
 40
0.0011862984959112
 10
246.994011488473
 20
25.07790738349045
 30
0.0
 10
247.0042246162904
 20
25.27530628537938
 30
0.0
 10
247.0148506228656
 20
25.47269212235616
 30
0.0
 10
247.0259128221232
 20
25.6700596197065
 30
0.0
  0
SPLINE
  5
280
330
1F
100
AcDbEntity
  8
0
  6
Continuous
 62
     7
370
    15
100
AcDbSpline
210
0.0
220
0.0
230
1.0
 70
     8
 71
     3
 72
     9
 73
     5
 74
     0
 42
0.000000001
 43
0.00000001
 40
0.0
 40
0.0
 40
0.0
 40
0.0
 40
0.463010519801053
 40
1.0
 40
1.0
 40
1.0
 40
1.0
 10
281.6105145741545
 20
43.33543294564212
 30
0.0
 10
281.6076746327673
 20
43.33707555320042
 30
0.0
 10
281.6015409894355
 20
43.34062322110007
 30
0.0
 10
281.5684650290698
 20
43.35972373910818
 30
0.0
 10
281.5507035863061
 20
43.36998051634487
 30
0.0
  0
ARC
  5
281
330
1F
100
AcDbEntity
  8
0
  6
Continuous
 62
     7
370
    15
100
AcDbCircle
 10
257.3270309137
 20
26.1756546605
 30
0.0
 40
9.037315747422635
100
AcDbArc
 50
197.3886407051
 51
282.0554705034
  0
SPLINE
  5
282
330
1F
100
AcDbEntity
  8
0
  6
Continuous
 62
     7
370
    15
100
AcDbSpline
210
0.0
220
0.0
230
1.0
 70
     8
 71
     3
 72
     8
 73
     4
 74
     0
 42
0.000000001
 43
0.00000001
 40
0.0
 40
0.0
 40
0.0
 40
0.0
 40
1.0
 40
1.0
 40
1.0
 40
1.0
 10
247.2720311758726
 20
26.16729777429337
 30
0.0
 10
247.1898329950869
 20
26.0015774477899
 30
0.0
 10
247.107798626935
 20
25.83583057245193
 30
0.0
 10
247.0259128221232
 20
25.6700596197065
 30
0.0
  0
LINE
  5
283
330
1F
100
AcDbEntity
  8
0
  6
Continuous
 62
     7
370
    15
100
AcDbLine
 10
247.3210506769
 20
26.1955963461
 30
0.0
 11
247.2720312579
 21
26.1672980378
 31
0.0
  0
SPLINE
  5
284
330
1F
100
AcDbEntity
  8
0
  6
Continuous
 62
     7
370
    15
100
AcDbSpline
210
0.0
220
0.0
230
1.0
 70
     8
 71
     3
 72
    12
 73
     8
 74
     0
 42
0.000000001
 43
0.00000001
 40
0.0
 40
0.0
 40
0.0
 40
0.0
 40
0.249999999999997
 40
0.249999999999997
 40
0.499999999999994
 40
0.499999999999994
 40
1.0
 40
1.0
 40
1.0
 40
1.0
 10
247.332832863657
 20
26.5289610862545
 30
0.0
 10
247.3704316482317
 20
26.50725576993021
 30
0.0
 10
247.4006092074781
 20
26.48045389935704
 30
0.0
 10
247.439198942159
 20
26.42283019452705
 30
0.0
 10
247.4480584273488
 20
26.39178206895567
 30
0.0
 10
247.4430109935105
 20
26.29959309255037
 30
0.0
 10
247.3963087064352
 20
26.23904166557552
 30
0.0
 10
247.3210506182369
 20
26.19559609602357
 30
0.0
  0
LINE
  5
285
330
1F
100
AcDbEntity
  8
0
  6
Continuous
 62
     7
370
    15
100
AcDbLine
 10
246.5479444492
 20
26.9820677523
 30
0.0
 11
247.3328330259
 21
26.5289612216
 31
0.0
  0
SPLINE
  5
286
330
1F
100
AcDbEntity
  8
0
  6
Continuous
 62
     7
370
    15
100
AcDbSpline
210
0.0
220
0.0
230
1.0
 70
     8
 71
     3
 72
    10
 73
     6
 74
     0
 42
0.000000001
 43
0.00000001
 40
0.0
 40
0.0
 40
0.0
 40
0.0
 40
0.5
 40
0.5
 40
1.0
 40
1.0
 40
1.0
 40
1.0
 10
245.9704766661706
 20
26.97526584281426
 30
0.0
 10
246.0466140565091
 20
27.01921902268698
 30
0.0
 10
246.1501218371935
 20
27.04570568886576
 30
0.0
 10
246.3646171292793
 20
27.0495337592531
 30
0.0
 10
246.4720473736975
 20
27.02588197234969
 30
0.0
 10
246.54794433654
 20
26.98206758831611
 30
0.0
  0
LINE
  5
287
330
1F
100
AcDbEntity
  8
0
  6
Continuous
 62
     7
370
    15
100
AcDbLine
 10
245.9214572293
 20
26.9469678288
 30
0.0
 11
245.9704766483
 21
26.975266137
 31
0.0
  0
SPLINE
  5
288
330
1F
100
AcDbEntity
  8
0
  6
Continuous
 62
     7
370
    15
100
AcDbSpline
210
0.0
220
0.0
230
1.0
 70
     8
 71
     3
 72
     8
 73
     4
 74
     0
 42
0.000000001
 43
0.00000001
 40
0.0
 40
0.0
 40
0.0
 40
0.0
 40
1.0
 40
1.0
 40
1.0
 40
1.0
 10
245.0601221491517
 20
26.804886419746
 30
0.0
 10
245.3472769755491
 20
26.85215808865802
 30
0.0
 10
245.6343900941343
 20
26.89951552136076
 30
0.0
 10
245.9214572238063
 20
26.94696752108406
 30
0.0
  0
LINE
  5
289
330
1F
100
AcDbEntity
  8
0
  6
Continuous
 62
     7
370
    15
100
AcDbLine
 10
243.6034992638
 20
27.6457773405
 30
0.0
 11
245.0601225012
 21
26.8048866445
 31
0.0
  0
LINE
  5
28A
330
1F
100
AcDbEntity
  8
0
  6
Continuous
 62
     7
370
    15
100
AcDbLine
 10
243.6034992638
 20
27.6457773405
 30
0.0
 11
246.7451437911
 21
29.4594101218
 31
0.0
  0
ARC
  5
28B
330
1F
100
AcDbEntity
  8
0
  6
Continuous
 62
     7
370
    15
100
AcDbCircle
 10
256.5729393761
 20
27.5411103301
 30
0.0
 40
9.890562528246779
100
AcDbArc
 50
194.4210541018
 51
238.0225374632
  0
LINE
  5
28C
330
1F
100
AcDbEntity
  8
0
  6
Continuous
 62
     7
370
    15
100
AcDbLine
 10
272.4829102158
 20
32.0240195007
 30
0.0
 11
271.5999474043
 21
32.1029696732
 31
0.0
  0
SPLINE
  5
28D
330
1F
100
AcDbEntity
  8
0
  6
Continuous
 62
     7
370
    15
100
AcDbSpline
210
0.0
220
0.0
230
1.0
 70
     8
 71
     3
 72
    16
 73
    12
 74
     0
 42
0.000000001
 43
0.00000001
 40
0.0
 40
0.0
 40
0.0
 40
0.0
 40
0.249999999999992
 40
0.249999999999992
 40
0.499999999999984
 40
0.499999999999984
 40
0.6249999999999841
 40
0.6249999999999841
 40
0.7499999999999842
 40
0.7499999999999842
 40
1.0
 40
1.0
 40
1.0
 40
1.0
 10
272.4242563585386
 20
31.77169617868251
 30
0.0
 10
272.4485823703193
 20
31.76952106666048
 30
0.0
 10
272.4723939595271
 20
31.77036800220269
 30
0.0
 10
272.5153319696423
 20
31.78288351964863
 30
0.0
 10
272.5357960961941
 20
31.794723994426
 30
0.0
 10
272.5519023570515
 20
31.83079651930256
 30
0.0
 10
272.5545087075989
 20
31.84638359788121
 30
0.0
 10
272.551711977596
 20
31.8819588519974
 30
0.0
 10
272.5464947203307
 20
31.90130776250784
 30
0.0
 10
272.5252560115874
 20
31.95695751454626
 30
0.0
 10
272.5044507405307
 20
31.99179463994829
 30
0.0
 10
272.4829105986669
 20
32.02401923962619
 30
0.0
  0
SPLINE
  5
28E
330
1F
100
AcDbEntity
  8
0
  6
Continuous
 62
     7
370
    15
100
AcDbSpline
210
0.0
220
0.0
230
1.0
 70
     8
 71
     3
 72
     8
 73
     4
 74
     0
 42
0.000000001
 43
0.00000001
 40
0.0
 40
0.0
 40
0.0
 40
0.0
 40
1.0
 40
1.0
 40
1.0
 40
1.0
 10
272.4319864183
 20
32.06307043415557
 30
0.0
 10
272.4574124766849
 20
32.04839228308319
 30
0.0
 10
272.4739605731165
 20
32.03502402877231
 30
0.0
 10
272.4829105986672
 20
32.02401923962605
 30
0.0
  0
SPLINE
  5
28F
330
1F
100
AcDbEntity
  8
0
  6
Continuous
 62
     7
370
    15
100
AcDbSpline
210
0.0
220
0.0
230
1.0
 70
     8
 71
     3
 72
     8
 73
     4
 74
     0
 42
0.000000001
 43
0.00000001
 40
0.0
 40
0.0
 40
0.0
 40
0.0
 40
1.0
 40
1.0
 40
1.0
 40
1.0
 10
275.8590781056511
 20
34.04148835345387
 30
0.0
 10
275.8845041640359
 20
34.02681020238156
 30
0.0
 10
275.9166925782289
 20
34.02247091132755
 30
0.0
 10
275.9495752815216
 20
34.02528216295909
 30
0.0
  0
SPLINE
  5
290
330
1F
100
AcDbEntity
  8
0
  6
Continuous
 62
     7
370
    15
100
AcDbSpline
210
0.0
220
0.0
230
1.0
 70
     8
 71
     3
 72
    16
 73
    12
 74
     0
 42
0.000000001
 43
0.00000001
 40
0.0
 40
0.0
 40
0.0
 40
0.0
 40
0.2500000000000015
 40
0.2500000000000015
 40
0.375000000000002
 40
0.375000000000002
 40
0.5000000000000026
 40
0.5000000000000026
 40
0.7500000000000012
 40
0.7500000000000012
 40
1.0
 40
1.0
 40
1.0
 40
1.0
 10
275.9495752815214
 20
34.02528216295947
 30
0.0
 10
275.9612874381024
 20
33.98745816016523
 30
0.0
 10
275.976745703281
 20
33.94952434921048
 30
0.0
 10
276.0141605799875
 20
33.9037010887564
 30
0.0
 10
276.02957338894
 20
33.89024333751796
 30
0.0
 10
276.0656109112676
 20
33.87362116652723
 30
0.0
 10
276.0856285218487
 20
33.87097745563825
 30
0.0
 10
276.1433626709314
 20
33.8772278937139
 30
0.0
 10
276.1785725086172
 20
33.89759019254879
 30
0.0
 10
276.2398338461344
 20
33.94529598804935
 30
0.0
 10
276.2665385367178
 20
33.97344178221921
 30
0.0
 10
276.2910722341243
 20
34.00396146855546
 30
0.0
  0
ELLIPSE
  5
291
330
1F
100
AcDbEntity
  8
0
  6
Continuous
 62
     7
370
    15
100
AcDbEllipse
 10
246.4522512722
 20
30.4450347661
 30
0.0
 11
-7.507462981948265E-5
 21
1.066811201853405
 31
0.0
210
0.0
220
0.0
230
1.0
 40
0.7174342186
 41
3.53419364555748
 42
5.104989972352354
  0
SPLINE
  5
292
330
1F
100
AcDbEntity
  8
0
  6
Continuous
 62
     7
370
    15
100
AcDbSpline
210
0.0
220
0.0
230
1.0
 70
     8
 71
     3
 72
    20
 73
    16
 74
     0
 42
0.000000001
 43
0.00000001
 40
0.0
 40
0.0
 40
0.0
 40
0.0
 40
0.125
 40
0.125
 40
0.25
 40
0.25
 40
0.5
 40
0.5
 40
0.625
 40
0.625
 40
0.75
 40
0.75
 40
0.875
 40
0.875
 40
1.0
 40
1.0
 40
1.0
 40
1.0
 10
276.8325380304844
 20
35.12367942849958
 30
0.0
 10
276.8676015753227
 20
35.16729814493559
 30
0.0
 10
276.899319931985
 20
35.21366001079929
 30
0.0
 10
276.9553356362501
 20
35.31223717139858
 30
0.0
 10
276.9794272948588
 20
35.36429262291519
 30
0.0
 10
277.0368396365509
 20
35.52002668967761
 30
0.0
 10
277.0557959670334
 20
35.6267365854785
 30
0.0
 10
277.0537959480664
 20
35.76738723423797
 30
0.0
 10
277.0482466338415
 20
35.81028349784501
 30
0.0
 10
277.0280232611026
 20
35.88775526845674
 30
0.0
 10
277.0133557463284
 20
35.92148960429364
 30
0.0
 10
276.9758015611673
 20
35.97703824266553
 30
0.0
 10
276.9525542246508
 20
35.9992042648371
 30
0.0
 10
276.8987196038287
 20
36.03035803467859
 30
0.0
 10
276.8676075341184
 20
36.03983230393693
 30
0.0
 10
276.8325379863086
 20
36.04296806621907
 30
0.0
  0
LWPOLYLINE
  5
293
330
1F
100
AcDbEntity
  8
0
  6
Continuous
 62
     7
370
    15
100
AcDbPolyline
 90
        4
 70
   128
 43
0.0
 10
276.8325375866
 20
36.0429682957
 10
276.5701617655
 20
36.066428623
 10
276.307786109
 20
36.0898890453
 10
275.9495747751
 20
36.1219184681
  0
ARC
  5
294
330
1F
100
AcDbEntity
  8
0
  6
Continuous
 62
     7
370
    15
100
AcDbCircle
 10
256.431675463
 20
29.8351088509
 30
0.0
 40
10.89981861699963
100
AcDbArc
 50
195.3652578774
 51
215.9035762319
  0
ARC
  5
295
330
1F
100
AcDbEntity
  8
0
  6
Continuous
 62
     7
370
    15
100
AcDbCircle
 10
253.8485960391
 20
28.5852760417
 30
0.0
 40
9.398897044490678
100
AcDbArc
 50
193.4589411371
 51
247.459679895
  0
SPLINE
  5
296
330
1F
100
AcDbEntity
  8
0
  6
Continuous
 62
     7
370
    15
100
AcDbSpline
210
0.0
220
0.0
230
1.0
 70
     8
 71
     3
 72
     8
 73
     4
 74
     0
 42
0.000000001
 43
0.00000001
 40
0.0000000000000004
 40
0.0000000000000004
 40
0.0000000000000004
 40
0.0000000000000004
 40
0.0011862984959127
 40
0.0011862984959127
 40
0.0011862984959127
 40
0.0011862984959127
 10
245.0601221491522
 20
26.80488641974504
 30
0.0
 10
244.9429716801572
 20
26.66876237691027
 30
0.0
 10
244.82553192972
 20
26.53303880174735
 30
0.0
 10
244.7078210618754
 20
26.39769702425287
 30
0.0
  0
LINE
  5
297
330
1F
100
AcDbEntity
  8
0
  6
Continuous
 62
     7
370
    15
100
AcDbLine
 10
243.1679634449
 20
27.3942956329
 30
0.0
 11
243.6034992638
 21
27.6457773405
 31
0.0
  0
LINE
  5
298
330
1F
100
AcDbEntity
  8
0
  6
Continuous
 62
     7
370
    15
100
AcDbLine
 10
244.707821275
 20
26.397696931
 30
0.0
 11
243.269976599
 21
27.2277469944
 31
0.0
  0
SPLINE
  5
299
330
1F
100
AcDbEntity
  8
0
  6
Continuous
 62
     7
370
    15
100
AcDbSpline
210
0.0
220
0.0
230
1.0
 70
     8
 71
     3
 72
    10
 73
     6
 74
     0
 42
0.000000001
 43
0.00000001
 40
0.0
 40
0.0
 40
0.0
 40
0.0
 40
0.5
 40
0.5
 40
1.0
 40
1.0
 40
1.0
 40
1.0
 10
243.2699765238433
 20
27.22774700794811
 30
0.0
 10
243.2435670945626
 20
27.24299284695503
 30
0.0
 10
243.2212836903535
 20
27.26685026936729
 30
0.0
 10
243.187176555532
 20
27.32477636110157
 30
0.0
 10
243.1752765254771
 20
27.35867489258242
 30
0.0
 10
243.1679640335204
 20
27.39429593503678
 30
0.0
  0
ARC
  5
29A
330
1F
100
AcDbEntity
  8
0
  6
Continuous
 62
     7
370
    15
100
AcDbCircle
 10
252.7195420317
 20
29.5450596569
 30
0.0
 40
9.698356037489754
100
AcDbArc
 50
198.5440081257
 51
238.2143699537
  0
LINE
  5
29B
330
1F
100
AcDbEntity
  8
0
  6
Continuous
 62
     7
370
    15
100
AcDbLine
 10
275.9495747751
 20
34.0252823528
 30
0.0
 11
276.8325375866
 21
35.1236796878
 31
0.0
  0
LINE
  5
29C
330
1F
100
AcDbEntity
  8
0
  6
Continuous
 62
     7
370
    15
100
AcDbLine
 10
273.9852446737
 20
35.1232293634
 30
0.0
 11
274.8879939489
 21
36.2462408355
 31
0.0
  0
ARC
  5
29D
330
1F
100
AcDbEntity
  8
0
  6
Continuous
 62
     7
370
    15
100
AcDbCircle
 10
274.0309011974
 20
36.935115246
 30
0.0
 40
1.099616268581894
100
AcDbArc
 50
321.2099835522
 51
341.4788391718
  0
ELLIPSE
  5
29E
330
1F
100
AcDbEntity
  8
0
  6
Continuous
 62
     7
370
    15
100
AcDbEllipse
 10
246.3915911004
 20
30.4100050104
 30
0.0
 11
0.3250094736511926
 21
1.213179526238669
 31
0.0
210
0.0
220
0.0
230
1.0
 40
0.5176380889
 41
3.619174351347776
 42
5.189970678142606
  0
SPLINE
  5
29F
330
1F
100
AcDbEntity
  8
0
  6
Continuous
 62
     7
370
    15
100
AcDbSpline
210
0.0
220
0.0
230
1.0
 70
     8
 71
     3
 72
    12
 73
     8
 74
     0
 42
0.000000001
 43
0.00000001
 40
0.0
 40
0.0
 40
0.0
 40
0.0
 40
0.5000000000000003
 40
0.5000000000000003
 40
0.7500000000000001
 40
0.7500000000000001
 40
1.0
 40
1.0
 40
1.0
 40
1.0
 10
272.9254481893957
 20
62.41432831145759
 30
0.0
 10
272.9885080666253
 20
62.45073200370783
 30
0.0
 10
273.0684410198564
 20
62.47756331555942
 30
0.0
 10
273.201420208163
 20
62.49132015706996
 30
0.0
 10
273.2470913772751
 20
62.49119902327103
 30
0.0
 10
273.3347291959126
 20
62.47842464164938
 30
0.0
 10
273.3754731067667
 20
62.46558465599463
 30
0.0
 10
273.4069867891053
 20
62.44739219441799
 30
0.0
  0
LINE
  5
2A0
330
1F
100
AcDbEntity
  8
0
  6
Continuous
 62
     7
370
    15
100
AcDbLine
 10
273.4069871134
 20
62.4473925659
 30
0.0
 11
274.0666554275
 21
62.0665741541
 31
0.0
  0
LINE
  5
2A1
330
1F
100
AcDbEntity
  8
0
  6
Continuous
 62
     7
370
    15
100
AcDbLine
 10
275.7365224559
 20
59.9917779375
 30
0.0
 11
277.1310220617
 21
60.2975529509
 31
0.0
  0
LINE
  5
2A2
330
1F
100
AcDbEntity
  8
0
  6
Continuous
 62
     7
370
    15
100
AcDbLine
 10
277.1310220617
 20
60.2975529509
 30
0.0
 11
278.5865440479
 21
59.4572979936
 31
0.0
  0
SPLINE
  5
2A3
330
1F
100
AcDbEntity
  8
0
  6
Continuous
 62
     7
370
    15
100
AcDbSpline
210
0.0
220
0.0
230
1.0
 70
     8
 71
     3
 72
    12
 73
     8
 74
     0
 42
0.000000001
 43
0.00000001
 40
0.0
 40
0.0
 40
0.0
 40
0.0
 40
0.250000000000004
 40
0.250000000000004
 40
0.500000000000008
 40
0.500000000000008
 40
1.0
 40
1.0
 40
1.0
 40
1.0
 10
278.5865439612969
 20
59.4572974848672
 30
0.0
 10
278.618200091797
 20
59.43902278971727
 30
0.0
 10
278.6404993688071
 20
59.41519867891898
 30
0.0
 10
278.6623199393991
 20
59.36516677647128
 30
0.0
 10
278.6626007017252
 20
59.33877556805739
 30
0.0
 10
278.6392333276045
 20
59.26270033806247
 30
0.0
 10
278.5921949247995
 20
59.21563728311207
 30
0.0
 10
278.5292694302991
 20
59.17931116836009
 30
0.0
  0
LINE
  5
2A4
330
1F
100
AcDbEntity
  8
0
  6
Continuous
 62
     7
370
    15
100
AcDbLine
 10
272.9254484208
 20
62.4143286886
 30
0.0
 11
272.8336578531
 21
62.3613391217
 31
0.0
  0
SPLINE
  5
2A5
330
1F
100
AcDbEntity
  8
0
  6
Continuous
 62
     7
370
    15
100
AcDbSpline
210
0.0
220
0.0
230
1.0
 70
     8
 71
     3
 72
    10
 73
     6
 74
     0
 42
0.000000001
 43
0.00000001
 40
0.0
 40
0.0
 40
0.0
 40
0.0
 40
0.4037298202556759
 40
0.8085217947847296
 40
1.0
 40
1.0
 40
1.0
 40
1.0
 10
281.5507035863061
 20
54.10337201564861
 30
0.0
 10
281.5689450934142
 20
54.14213614553592
 30
0.0
 10
281.6054760983753
 20
54.21976638808255
 30
0.0
 10
281.6194129339482
 20
54.3271851809213
 30
0.0
 10
281.6013487293987
 20
54.38047584407484
 30
0.0
 10
281.5955478331217
 20
54.39758889262566
 30
0.0
  0
ARC
  5
2A6
330
1F
100
AcDbEntity
  8
0
  6
Continuous
 62
     7
370
    15
100
AcDbCircle
 10
271.5069657067
 20
51.9896402603
 30
0.0
 40
10.29010891639795
100
AcDbArc
 50
20.5660989786
 51
46.5281280007
  0
LWPOLYLINE
  5
2A7
330
1F
100
AcDbEntity
  8
0
  6
Continuous
 62
     7
370
    15
100
AcDbPolyline
 90
        3
 70
   128
 43
0.0
 10
275.7365221266
 20
60.6727677239
 10
275.7749771746
 20
60.6253036265
 10
276.1614769464
 20
60.1101016604
  0
LINE
  5
2A8
330
1F
100
AcDbEntity
  8
0
  6
Continuous
 62
     7
370
    15
100
AcDbLine
 10
281.4464217464
 20
43.4302010915
 30
0.0
 11
279.5820183655
 21
44.5064982537
 31
0.0
  0
LINE
  5
2A9
330
1F
100
AcDbEntity
  8
0
  6
Continuous
 62
     7
370
    15
100
AcDbLine
 10
278.7739318999
 20
44.3529581858
 30
0.0
 11
278.8229513189
 21
44.381256494
 31
0.0
  0
SPLINE
  5
2AA
330
1F
100
AcDbEntity
  8
0
  6
Continuous
 62
     7
370
    15
100
AcDbSpline
210
0.0
220
0.0
230
1.0
 70
     8
 71
     3
 72
    10
 73
     6
 74
     0
 42
0.000000001
 43
0.00000001
 40
0.0
 40
0.0
 40
0.0
 40
0.0
 40
0.348286225286859
 40
0.7262043038763673
 40
0.9999999999999999
 40
0.9999999999999999
 40
0.9999999999999999
 40
0.9999999999999999
 10
278.4412065677594
 20
44.28178567477239
 30
0.0
 10
278.4838542274355
 20
44.28187329814709
 30
0.0
 10
278.5727779681936
 20
44.28205599980798
 30
0.0
 10
278.6887349229219
 20
44.31027917380795
 30
0.0
 10
278.748727872963
 20
44.3403323508824
 30
0.0
 10
278.7739318998784
 20
44.35295818580732
 30
0.0
  0
SPLINE
  5
2AB
330
1F
100
AcDbEntity
  8
0
  6
Continuous
 62
     7
370
    15
100
AcDbSpline
210
0.0
220
0.0
230
1.0
 70
     8
 71
     3
 72
     8
 73
     4
 74
     0
 42
0.000000001
 43
0.00000001
 40
0.0
 40
0.0
 40
0.0
 40
0.0
 40
1.0
 40
1.0
 40
1.0
 40
1.0
 10
278.8229514866328
 20
44.38125637468535
 30
0.0
 10
279.0759374403137
 20
44.42307477938319
 30
0.0
 10
279.3289607026609
 20
44.46481998395856
 30
0.0
 10
279.5820181916657
 20
44.50649803535567
 30
0.0
  0
LWPOLYLINE
  5
2AC
330
1F
100
AcDbEntity
  8
0
  6
Continuous
 62
     7
370
     0
100
AcDbPolyline
 90
       22
 70
   128
 43
0.0
 10
248.4495335336
 20
35.5077482114
 10
248.8982697126
 20
37.2911683926
 10
249.4522887191
 20
39.0884696902
 10
250.1079619731
 20
40.8878785779
 10
250.86099313
 20
42.6776082841
 10
251.7064510086
 20
44.4459352151
 10
252.6387959325
 20
46.1812765199
 10
253.651921877
 20
47.8722638513
 10
254.7391920305
 20
49.5078201691
 10
255.8934842343
 20
51.0772331206
 10
257.1072370803
 20
52.5702227175
 10
258.3724999605
 20
53.9770082518
 10
259.6809850925
 20
55.2883733108
 10
261.0241208609
 20
56.4957300309
 10
262.3931096049
 20
57.5911676668
 10
263.7789835124
 20
58.5675122352
 10
265.1726645267
 20
59.418368703
 10
266.5650233072
 20
60.1381611078
 10
267.9469392799
 20
60.7221763503
 10
269.3093605242
 20
61.1665896408
 10
270.6433619509
 20
61.4684874376
 10
270.7062417562
 20
61.4793071069
  0
LINE
  5
2AD
330
1F
100
AcDbEntity
  8
0
  6
Continuous
 62
     7
370
     0
100
AcDbLine
 10
248.8082591907
 20
35.1732373818
 30
0.0
 11
248.945069178
 21
35.7830709159
 31
0.0
  0
LWPOLYLINE
  5
2AE
330
1F
100
AcDbEntity
  8
0
  6
Continuous
 62
     7
370
     0
100
AcDbPolyline
 90
       11
 70
   128
 43
0.0
 10
263.3703109586
 20
57.7775578997
 10
264.0320580509
 20
58.2263906342
 10
265.4240486844
 20
59.0729967127
 10
266.8144244845
 20
59.7870861526
 10
268.1938730556
 20
60.3638731417
 10
269.5531550181
 20
60.7994991978
 10
270.8831663237
 20
61.0910417657
 10
272.1749988407
 20
61.2365522345
 10
273.4199996236
 20
61.2350521302
 10
274.6098308403
 20
61.0865555432
 10
275.7365227852
 20
60.7920541045
  0
LWPOLYLINE
  5
2AF
330
1F
100
AcDbEntity
  8
0
  6
Continuous
 62
     7
370
     0
100
AcDbPolyline
 90
       33
 70
   128
 43
0.0
 10
281.5507035863
 20
43.3699805163
 10
281.1214208121
 20
41.611738957
 10
280.5878021972
 20
39.838284622
 10
279.953341979
 20
38.06122679
 10
279.2221916219
 20
36.2921978724
 10
278.3991374275
 20
34.542777749
 10
277.4895676069
 20
32.8244200062
 10
276.4994380366
 20
31.1483720919
 10
275.4352281361
 20
29.5256064973
 10
274.3039046476
 20
27.966745855
 10
273.1128742214
 20
26.4819945019
 10
271.8699333657
 20
25.0810715629
 10
270.5832180688
 20
23.7731484075
 10
269.2611521028
 20
22.5667868673
 10
267.9123892362
 20
21.4698830622
 10
266.545759234
 20
20.4896179753
 10
265.1702079962
 20
19.6324092075
 10
263.7947402599
 20
18.9038687746
 10
262.428359846
 20
18.3087640501
 10
261.0800115332
 20
17.8509918133
 10
259.7585217936
 20
17.5335470798
 10
258.4725414324
 20
17.3585112802
 10
257.2304882947
 20
17.3270267905
 10
256.040493759
 20
17.4393010244
 10
254.9103470896
 20
17.6946001647
 10
253.8474470341
 20
18.0912516396
 10
252.8587504567
 20
18.6266585761
 10
251.9507308498
 20
19.297316914
 10
251.1293309192
 20
20.0988359435
 10
250.3999283392
 20
21.0259687266
 10
249.7672988747
 20
22.0726478421
 10
249.2355821364
 20
23.2320188496
 10
248.8082591907
 20
24.4964935237
  0
ARC
  5
2B0
330
1F
100
AcDbEntity
  8
0
  6
Continuous
 62
     7
370
     0
100
AcDbCircle
 10
271.3705641836
 20
51.4809007212
 30
0.0
 40
10.51249703684896
100
AcDbArc
 50
14.4456939373
 51
47.0804331381
  0
LWPOLYLINE
  5
2B1
330
1F
100
AcDbEntity
  8
0
  6
Continuous
 62
     7
370
     0
100
AcDbPolyline
 90
       22
 70
   128
 43
0.0
 10
260.2332062726
 20
36.4303470144
 10
260.2912154827
 20
37.3363456528
 10
260.4638825599
 20
38.2880839307
 10
260.7471607484
 20
39.2632540488
 10
261.1344102731
 20
40.2389992068
 10
261.6165540857
 20
41.1924483846
 10
262.1822912332
 20
42.1012533986
 10
262.8183614282
 20
42.9441131214
 10
263.5098557167
 20
43.7012712704
 10
264.2405660014
 20
44.3549809232
 10
264.9933650419
 20
44.8899193258
 10
265.7506078997
 20
45.2935485405
 10
266.4945453801
 20
45.5564073533
 10
267.2077403565
 20
45.6723348824
 10
267.8734760059
 20
45.6386138515
 10
268.4761479515
 20
45.4560342297
 10
269.0016305782
 20
45.1288761821
 10
269.4376064695
 20
44.6648074709
 10
269.7738566611
 20
44.0747055757
 10
270.0025003508
 20
43.3724022497
 10
270.1181779742
 20
42.5743588331
 10
270.1324394141
 20
42.2038445096
  0
LWPOLYLINE
  5
2B2
330
1F
100
AcDbEntity
  8
0
  6
Continuous
 62
     7
370
     0
100
AcDbPolyline
 90
       12
 70
   128
 43
0.0
 10
265.1328458543
 20
33.5433560374
 10
264.9933650419
 20
33.4667370332
 10
264.2405660014
 20
33.1325121642
 10
263.5098557167
 20
32.9425616801
 10
262.8183614282
 20
32.9013375177
 10
262.1822912332
 20
33.0098062253
 10
261.6165540857
 20
33.2654250322
 10
261.1344102731
 20
33.662202813
 10
260.7471607484
 20
34.1908391869
 10
260.4638825599
 20
34.8389432704
 10
260.2912154827
 20
35.5913243842
 10
260.2332062726
 20
36.4303470144
  0
LWPOLYLINE
  5
2B3
330
1F
100
AcDbEntity
  8
0
  6
Continuous
 62
     7
370
     0
100
AcDbPolyline
 90
       22
 70
   128
 43
0.0
 10
243.269976599
 20
38.4978427838
 10
243.718712778
 20
40.281262965
 10
244.2727317846
 20
42.0785642626
 10
244.9284050385
 20
43.8779731503
 10
245.6814361954
 20
45.6677028565
 10
246.526894074
 20
47.4360297875
 10
247.4592389979
 20
49.1713710923
 10
248.4723649424
 20
50.8623584237
 10
249.5596350959
 20
52.4979147415
 10
250.7139272997
 20
54.067327693
 10
251.9276801457
 20
55.5603172898
 10
253.192943026
 20
56.9671028242
 10
254.5014281579
 20
58.2784678832
 10
255.8445639263
 20
59.4858246033
 10
257.2135526703
 20
60.5812622392
 10
258.5994265778
 20
61.5576068076
 10
259.9931075922
 20
62.4084632754
 10
261.3854663727
 20
63.1282556801
 10
262.7673823453
 20
63.7122709227
 10
264.1298035896
 20
64.1566842132
 10
265.4638050164
 20
64.45858201
 10
265.5268632872
 20
64.4694317008
  0
LWPOLYLINE
  5
2B4
330
1F
100
AcDbEntity
  8
0
  6
Continuous
 62
     7
370
     0
100
AcDbPolyline
 90
       20
 70
   128
 43
0.0
 10
246.5479444492
 20
37.4746168516
 10
246.9796664723
 20
39.1889631233
 10
247.5155004308
 20
40.9168297815
 10
248.1517281825
 20
42.6462246755
 10
248.8839322108
 20
44.3651435525
 10
249.7070311863
 20
46.0616559869
 10
250.6153115767
 20
47.7239867472
 10
251.6024711113
 20
49.340599442
 10
252.6616563172
 20
50.9002721834
 10
253.7855158622
 20
52.3921800917
 10
254.9662506036
 20
53.8059667743
 10
256.195663638
 20
55.1318218884
 10
257.4652231919
 20
56.3605417819
 10
258.766116952
 20
57.4835988804
 10
260.0893157793
 20
58.4931967199
 10
261.4256358178
 20
59.3823301364
 10
262.7658018385
 20
60.1448263961
 10
264.1005120238
 20
60.7753932413
 10
265.4205027515
 20
61.2696532472
 10
266.5638209696
 20
61.5893803082
  0
LINE
  5
2B5
330
1F
100
AcDbEntity
  8
0
  6
Continuous
 62
     7
370
     0
100
AcDbLine
 10
257.7684707547
 20
55.4572635996
 30
0.0
 11
258.1271618383
 21
55.7943311648
 31
0.0
  0
LWPOLYLINE
  5
2B6
330
1F
100
AcDbEntity
  8
0
  6
Continuous
 62
     7
370
     0
100
AcDbPolyline
 90
       23
 70
   128
 43
0.0
 10
245.9704766483
 20
37.4678152364
 10
246.4008288988
 20
39.2024492656
 10
246.9363072433
 20
40.9515009324
 10
247.5732291009
 20
42.7029484246
 10
248.3072191019
 20
44.4447555461
 10
249.1332327954
 20
46.1649523238
 10
250.0455922105
 20
47.8517140926
 10
251.0380266866
 20
49.493451226
 10
252.1037163366
 20
51.0788775736
 10
253.2353368287
 20
52.5970986708
 10
254.4251114105
 20
54.0376797954
 10
255.6648622766
 20
55.3907212483
 10
256.9460698365
 20
56.6469229875
 10
258.2599283623
 20
57.7976517339
 10
259.5974080565
 20
58.8349996155
 10
260.9493169548
 20
59.7518366345
 10
262.3063638585
 20
60.5418622058
 10
263.6592223368
 20
61.1996451466
 10
264.9985943587
 20
61.7206664946
 10
266.3152754063
 20
62.1013449292
 10
267.6002155965
 20
62.3390644517
 10
268.8445848352
 20
62.4321907054
 10
269.8099399611
 20
62.4017272353
  0
LWPOLYLINE
  5
2B7
330
1F
100
AcDbEntity
  8
0
  6
Continuous
 62
     7
370
     0
100
AcDbPolyline
 90
        3
 70
   128
 43
0.0
 10
247.0196005289
 20
35.3953118855
 10
247.0191487674
 20
35.5169908028
 10
247.0314135003
 20
36.1594342158
  0
LWPOLYLINE
  5
2B8
330
1F
100
AcDbEntity
  8
0
  6
Continuous
 62
     7
370
     0
100
AcDbPolyline
 90
       19
 70
   128
 43
0.0
 10
215.9341947969
 20
59.4082973021
 10
215.9909501383
 20
60.4827727144
 10
216.1603212003
 20
61.6058313285
 10
216.4396362679
 20
62.7597615489
 10
216.8244909954
 20
63.9263656267
 10
217.3088155782
 20
65.0872451121
 10
217.8849725462
 20
66.2240927678
 10
218.5438749732
 20
67.3189790622
 10
219.2751316852
 20
68.3546378999
 10
220.0672105801
 20
69.3147361905
 10
220.9076198919
 20
70.1841317234
 10
221.7831057537
 20
70.9491138359
 10
222.679861533
 20
71.5976193173
 10
223.5837446571
 20
72.1194199381
 10
224.4805004364
 20
72.5062866409
 10
225.3559862982
 20
72.7521189886
 10
226.19639561
 20
72.8530393933
 10
226.9884745049
 20
72.8074559288
 10
227.6688217752
 20
72.6348816532
  0
ARC
  5
2B9
330
1F
100
AcDbEntity
  8
0
  6
Continuous
 62
     7
370
     0
100
AcDbCircle
 10
221.3549425661
 20
58.9778692541
 30
0.0
 40
5.437809732037319
100
AcDbArc
 50
175.4600220549
 51
225.5211364412
  0
LINE
  5
2BA
330
1F
100
AcDbEntity
  8
0
  6
Continuous
 62
     7
370
     0
100
AcDbLine
 10
252.7025186747
 20
36.5127075847
 30
0.0
 11
251.9952971908
 21
36.9209778571
 31
0.0
  0
LINE
  5
2BB
330
1F
100
AcDbEntity
  8
0
  6
Continuous
 62
     7
370
     0
100
AcDbLine
 10
247.159357503
 20
30.8532384469
 30
0.0
 11
252.7025186747
 21
27.6532396164
 31
0.0
  0
LINE
  5
2BC
330
1F
100
AcDbEntity
  8
0
  6
Continuous
 62
     7
370
     0
100
AcDbLine
 10
247.098697322
 20
30.818208686
 30
0.0
 11
247.159357503
 21
30.8532384469
 31
0.0
  0
ARC
  5
2BD
330
1F
100
AcDbEntity
  8
0
  6
Continuous
 62
     7
370
     0
100
AcDbCircle
 10
265.4809298438
 20
36.1460173606
 30
0.0
 40
2.435946716266833
100
AcDbArc
 50
173.2970170412
 51
235.3908039371
  0
LWPOLYLINE
  5
2BE
330
1F
100
AcDbEntity
  8
0
  6
Continuous
 62
     7
370
     0
100
AcDbPolyline
 90
       15
 70
   128
 43
0.0
 10
269.0969644446
 20
42.8016114324
 10
269.0404430512
 20
42.8327977108
 10
268.5448827113
 20
43.0030747795
 10
267.9867209658
 20
43.0276989453
 10
267.3838979666
 20
42.9058792119
 10
266.7557888134
 20
42.6415301807
 10
266.1225814143
 20
42.2431490215
 10
265.5046276142
 20
41.7235397463
 10
264.9217889712
 20
41.099402835
 10
264.392798278
 20
40.3907985866
 10
263.9346579187
 20
39.6205022674
 10
263.5620927842
 20
38.8132717416
 10
263.2870776829
 20
37.9950524041
 10
263.1184511055
 20
37.1921418482
 10
263.0616338609
 20
36.4303470144
  0
LWPOLYLINE
  5
2BF
330
1F
100
AcDbEntity
  8
0
  6
Continuous
 62
     7
370
     0
100
AcDbPolyline
 90
       10
 70
   128
 43
0.0
 10
272.4242569492
 20
31.7716958315
 10
272.7166554852
 20
31.4280100812
 10
273.108707281
 20
31.2399863917
 10
273.5766041417
 20
31.2190426859
 10
274.0919323208
 20
31.3664507354
 10
274.6233975363
 20
31.6732590736
 10
275.1387257153
 20
32.1208362751
 10
275.6066225761
 20
32.6820021974
 10
275.9986743719
 20
33.3226792553
 10
276.2910729079
 20
34.0039611694
  0
LWPOLYLINE
  5
2C0
330
1F
100
AcDbEntity
  8
0
  6
Continuous
 62
     7
370
     0
100
AcDbPolyline
 90
       10
 70
   128
 43
0.0
 10
276.2911198292
 20
36.2108768521
 10
275.998727714
 20
36.5546035718
 10
275.6066703205
 20
36.7426571099
 10
275.1387583133
 20
36.7636165968
 10
274.6234088138
 20
36.6162091672
 10
274.0919201377
 20
36.3093870952
 10
273.5765707206
 20
35.8617845153
 10
273.1086587957
 20
35.3005851816
 10
272.7166016491
 20
34.6598717646
 10
272.4242096986
 20
33.9785561994
  0
LINE
  5
2C1
330
1F
100
AcDbEntity
  8
0
  6
Continuous
 62
     7
370
     0
100
AcDbLine
 10
271.5999474043
 20
32.1029696732
 30
0.0
 11
271.6706591147
 21
31.8390787742
 31
0.0
  0
LWPOLYLINE
  5
2C2
330
1F
100
AcDbEntity
  8
0
  6
Continuous
 62
     7
370
     0
100
AcDbPolyline
 90
        3
 70
   128
 43
0.0
 10
275.8590777535
 20
36.1645079768
 10
275.5919166187
 20
36.4496155641
 10
275.4965165685
 20
36.5087514561
  0
LWPOLYLINE
  5
2C3
330
1F
100
AcDbEntity
  8
0
  6
Continuous
 62
     7
370
     0
100
AcDbPolyline
 90
        9
 70
   128
 43
0.0
 10
272.7706437048
 20
31.7321549719
 10
273.0489782819
 20
31.6263623927
 10
273.4614840586
 20
31.6169335377
 10
273.9130874375
 20
31.7502154571
 10
274.3779764374
 20
32.0185901642
 10
274.8295798163
 20
32.4067184076
 10
275.2420855929
 20
32.8924162946
 10
275.5919166187
 20
33.4479232841
 10
275.8590777535
 20
34.041488552
  0
LINE
  5
2C4
330
1F
100
AcDbEntity
  8
0
  6
Continuous
 62
     7
370
     0
100
AcDbLine
 10
271.4486968529
 20
32.1902847579
 30
0.0
 11
271.5999474043
 21
32.1029696732
 31
0.0
  0
LINE
  5
2C5
330
1F
100
AcDbEntity
  8
0
  6
Continuous
 62
     7
370
     0
100
AcDbLine
 10
248.7027241405
 20
23.4748383765
 30
0.0
 11
248.4495335336
 21
24.237652422
 31
0.0
  0
LINE
  5
2C6
330
1F
100
AcDbEntity
  8
0
  6
Continuous
 62
     7
370
     0
100
AcDbLine
 10
251.9954117776
 20
26.4284949281
 30
0.0
 11
246.7451437911
 21
29.4594101218
 31
0.0
  0
LINE
  5
2C7
330
1F
100
AcDbEntity
  8
0
  6
Continuous
 62
     7
370
     0
100
AcDbLine
 10
277.0446707424
 20
34.9414296514
 30
0.0
 11
276.8325375866
 21
35.1236796878
 31
0.0
  0
LINE
  5
2C8
330
1F
100
AcDbEntity
  8
0
  6
Continuous
 62
     7
370
     0
100
AcDbLine
 10
247.4094138497
 20
26.281637435
 30
0.0
 11
247.3328330259
 21
26.5289612216
 31
0.0
  0
LWPOLYLINE
  5
2C9
330
1F
100
AcDbEntity
  8
0
  6
Continuous
 62
     7
370
     0
100
AcDbPolyline
 90
        3
 70
   128
 43
0.0
 10
247.0196875391
 20
25.6712037156
 10
246.9930546821
 20
25.7341383212
 10
246.5479444492
 20
26.9820677523
  0
ARC
  5
2CA
330
1F
100
AcDbEntity
  8
0
  6
Continuous
 62
     7
370
     0
100
AcDbCircle
 10
256.7554048713
 20
30.0045703233
 30
0.0
 40
11.2022926505089
100
AcDbArc
 50
195.6891556714
 51
214.1128344446
  0
LINE
  5
2CB
330
1F
100
AcDbEntity
  8
0
  6
Continuous
 62
     7
370
     0
100
AcDbLine
 10
243.5247279564
 20
26.4606628033
 30
0.0
 11
243.269976599
 21
27.2277469944
 31
0.0
  0
LINE
  5
2CC
330
1F
100
AcDbEntity
  8
0
  6
Continuous
 62
     7
370
     0
100
AcDbLine
 10
274.8879939489
 20
36.2462408355
 30
0.0
 11
276.8325375866
 21
35.1236796878
 31
0.0
  0
LINE
  5
2CD
330
1F
100
AcDbEntity
  8
0
  6
Continuous
 62
     7
370
     0
100
AcDbLine
 10
278.4412065678
 20
42.5117355424
 30
0.0
 11
279.1483134648
 21
42.1035314196
 31
0.0
  0
OLE2FRAME
  5
2CE
330
1F
100
AcDbEntity
  8
0
100
AcDbOle2Frame
 70
     2
  3
Paintbrush-Bild
 10
13.8511154363
 20
38.264191557
 30
0.0
 11
51.6290888628
 21
31.9806341108
 31
0.0
 71
     2
 72
     0
 73
     1
 90
    12928
310
80552BED0767C5B32B40DDAF6807D121434000000000000000006FFBDDFB85D0
310
4940DDAF6807D121434000000000000000006FFBDDFB85D04940416F4BD60AFB
310
3F4000000000000000002BED0767C5B32B40416F4BD60AFB3F40000000000000
310
0000000000000100000000010000010000000100000000000100000000320000
310
D0CF11E0A1B11AE1000000000000000000000000000000003E000300FEFF0900
310
0600000000000000000000000100000001000000000000000010000002000000
310
01000000FEFFFFFF0000000000000000FFFFFFFFFFFFFFFFFFFFFFFFFFFFFFFF
310
FFFFFFFFFFFFFFFFFFFFFFFFFFFFFFFFFFFFFFFFFFFFFFFFFFFFFFFFFFFFFFFF
310
FFFFFFFFFFFFFFFFFFFFFFFFFFFFFFFFFFFFFFFFFFFFFFFFFFFFFFFFFFFFFFFF
310
FFFFFFFFFFFFFFFFFFFFFFFFFFFFFFFFFFFFFFFFFFFFFFFFFFFFFFFFFFFFFFFF
310
FFFFFFFFFFFFFFFFFFFFFFFFFFFFFFFFFFFFFFFFFFFFFFFFFFFFFFFFFFFFFFFF
310
FFFFFFFFFFFFFFFFFFFFFFFFFFFFFFFFFFFFFFFFFFFFFFFFFFFFFFFFFFFFFFFF
310
FFFFFFFFFFFFFFFFFFFFFFFFFFFFFFFFFFFFFFFFFFFFFFFFFFFFFFFFFFFFFFFF
310
FFFFFFFFFFFFFFFFFFFFFFFFFFFFFFFFFFFFFFFFFFFFFFFFFFFFFFFFFFFFFFFF
310
FFFFFFFFFFFFFFFFFFFFFFFFFFFFFFFFFFFFFFFFFFFFFFFFFFFFFFFFFFFFFFFF
310
FFFFFFFFFFFFFFFFFFFFFFFFFFFFFFFFFFFFFFFFFFFFFFFFFFFFFFFFFFFFFFFF
310
FFFFFFFFFFFFFFFFFFFFFFFFFFFFFFFFFFFFFFFFFFFFFFFFFFFFFFFFFFFFFFFF
310
FFFFFFFFFFFFFFFFFFFFFFFFFFFFFFFFFFFFFFFFFFFFFFFFFFFFFFFFFFFFFFFF
310
FFFFFFFFFFFFFFFFFFFFFFFFFFFFFFFFFFFFFFFFFFFFFFFFFFFFFFFFFFFFFFFF
310
FFFFFFFFFFFFFFFFFFFFFFFFFFFFFFFFFFFFFFFFFFFFFFFFFFFFFFFFFFFFFFFF
310
FDFFFFFFFEFFFFFFFEFFFFFFFEFFFFFF05000000060000000700000008000000
310
090000000A0000000B0000000C0000000D0000000E0000000F00000010000000
310
11000000120000001300000014000000150000001600000017000000FEFFFFFF
310
FFFFFFFFFFFFFFFFFFFFFFFFFFFFFFFFFFFFFFFFFFFFFFFFFFFFFFFFFFFFFFFF
310
FFFFFFFFFFFFFFFFFFFFFFFFFFFFFFFFFFFFFFFFFFFFFFFFFFFFFFFFFFFFFFFF
310
FFFFFFFFFFFFFFFFFFFFFFFFFFFFFFFFFFFFFFFFFFFFFFFFFFFFFFFFFFFFFFFF
310
FFFFFFFFFFFFFFFFFFFFFFFFFFFFFFFFFFFFFFFFFFFFFFFFFFFFFFFFFFFFFFFF
310
FFFFFFFFFFFFFFFFFFFFFFFFFFFFFFFFFFFFFFFFFFFFFFFFFFFFFFFFFFFFFFFF
310
FFFFFFFFFFFFFFFFFFFFFFFFFFFFFFFFFFFFFFFFFFFFFFFFFFFFFFFFFFFFFFFF
310
FFFFFFFFFFFFFFFFFFFFFFFFFFFFFFFFFFFFFFFFFFFFFFFFFFFFFFFFFFFFFFFF
310
FFFFFFFFFFFFFFFFFFFFFFFFFFFFFFFFFFFFFFFFFFFFFFFFFFFFFFFFFFFFFFFF
310
FFFFFFFFFFFFFFFFFFFFFFFFFFFFFFFFFFFFFFFFFFFFFFFFFFFFFFFFFFFFFFFF
310
FFFFFFFFFFFFFFFFFFFFFFFFFFFFFFFFFFFFFFFFFFFFFFFFFFFFFFFFFFFFFFFF
310
FFFFFFFFFFFFFFFFFFFFFFFFFFFFFFFFFFFFFFFFFFFFFFFFFFFFFFFFFFFFFFFF
310
FFFFFFFFFFFFFFFFFFFFFFFFFFFFFFFFFFFFFFFFFFFFFFFFFFFFFFFFFFFFFFFF
310
FFFFFFFFFFFFFFFFFFFFFFFFFFFFFFFFFFFFFFFFFFFFFFFFFFFFFFFFFFFFFFFF
310
52006F006F007400200045006E00740072007900000000000000000000000000
310
0000000000000000000000000000000000000000000000000000000000000000
310
16000500FFFFFFFFFFFFFFFF020000000A00030000000000C000000000000046
310
000000000000000000000000E02ED7B5AC1FD20103000000C000000000000000
310
01004F006C006500000000000000000000000000000000000000000000000000
310
0000000000000000000000000000000000000000000000000000000000000000
310
0A000200FFFFFFFFFFFFFFFFFFFFFFFF00000000000000000000000000000000
310
0000000000000000000000000000000000000000000000001400000000000000
310
010043006F006D0070004F0062006A0000000000000000000000000000000000
310
0000000000000000000000000000000000000000000000000000000000000000
310
120002010100000003000000FFFFFFFF00000000000000000000000000000000
310
0000000000000000000000000000000000000000010000004D00000000000000
310
01004F006C006500310030004E00610074006900760065000000000000000000
310
0000000000000000000000000000000000000000000000000000000000000000
310
1A000200FFFFFFFFFFFFFFFFFFFFFFFF00000000000000000000000000000000
310
0000000000000000000000000000000000000000040000002426000000000000
310
FEFFFFFF02000000FEFFFFFFFFFFFFFFFFFFFFFFFFFFFFFFFFFFFFFFFFFFFFFF
310
FFFFFFFFFFFFFFFFFFFFFFFFFFFFFFFFFFFFFFFFFFFFFFFFFFFFFFFFFFFFFFFF
310
FFFFFFFFFFFFFFFFFFFFFFFFFFFFFFFFFFFFFFFFFFFFFFFFFFFFFFFFFFFFFFFF
310
FFFFFFFFFFFFFFFFFFFFFFFFFFFFFFFFFFFFFFFFFFFFFFFFFFFFFFFFFFFFFFFF
310
FFFFFFFFFFFFFFFFFFFFFFFFFFFFFFFFFFFFFFFFFFFFFFFFFFFFFFFFFFFFFFFF
310
FFFFFFFFFFFFFFFFFFFFFFFFFFFFFFFFFFFFFFFFFFFFFFFFFFFFFFFFFFFFFFFF
310
FFFFFFFFFFFFFFFFFFFFFFFFFFFFFFFFFFFFFFFFFFFFFFFFFFFFFFFFFFFFFFFF
310
FFFFFFFFFFFFFFFFFFFFFFFFFFFFFFFFFFFFFFFFFFFFFFFFFFFFFFFFFFFFFFFF
310
FFFFFFFFFFFFFFFFFFFFFFFFFFFFFFFFFFFFFFFFFFFFFFFFFFFFFFFFFFFFFFFF
310
FFFFFFFFFFFFFFFFFFFFFFFFFFFFFFFFFFFFFFFFFFFFFFFFFFFFFFFFFFFFFFFF
310
FFFFFFFFFFFFFFFFFFFFFFFFFFFFFFFFFFFFFFFFFFFFFFFFFFFFFFFFFFFFFFFF
310
FFFFFFFFFFFFFFFFFFFFFFFFFFFFFFFFFFFFFFFFFFFFFFFFFFFFFFFFFFFFFFFF
310
FFFFFFFFFFFFFFFFFFFFFFFFFFFFFFFFFFFFFFFFFFFFFFFFFFFFFFFFFFFFFFFF
310
FFFFFFFFFFFFFFFFFFFFFFFFFFFFFFFFFFFFFFFFFFFFFFFFFFFFFFFFFFFFFFFF
310
FFFFFFFFFFFFFFFFFFFFFFFFFFFFFFFFFFFFFFFFFFFFFFFFFFFFFFFFFFFFFFFF
310
FFFFFFFFFFFFFFFFFFFFFFFFFFFFFFFFFFFFFFFFFFFFFFFFFFFFFFFFFFFFFFFF
310
0100000200000000000000000000000000000000000000000000000000000000
310
0000000000000000000000000000000000000000000000000000000000000000
310
0100FEFF030A0000FFFFFFFF0A00030000000000C00000000000004607000000
310
5042727573680007000000504272757368000700000050427275736800F439B2
310
7100000000000000000000000000000000000000000000000000000000000000
310
0000000000000000000000000000000000000000000000000000000000000000
310
0000000000000000000000000000000000000000000000000000000000000000
310
0000000000000000000000000000000000000000000000000000000000000000
310
0000000000000000000000000000000000000000000000000000000000000000
310
0000000000000000000000000000000000000000000000000000000000000000
310
0000000000000000000000000000000000000000000000000000000000000000
310
0000000000000000000000000000000000000000000000000000000000000000
310
0000000000000000000000000000000000000000000000000000000000000000
310
0000000000000000000000000000000000000000000000000000000000000000
310
0000000000000000000000000000000000000000000000000000000000000000
310
0000000000000000000000000000000000000000000000000000000000000000
310
20260000424D0E260000000000003E00000028000000B40200006E0000000100
310
01000000000000000000130B0000130B00000200000002000000000000FFFFFF
310
FFFFFFFFFFFFFFFFFFFFFFFFFFFFFFFFFFFFFFFFFFFFFFFFFFFFFFFFFFFFFFFF
310
FFFFFFFFFFFFFFFFFFFFFFFFFFFFFFFFFFFFFFFFFFFFFFFFFFFFFFFFFFFFFFFF
310
FFFFFFFFFFFFFFFFFFFFFFFFFFFFFFFFFFFFFFFFFFFFFFFFF000FFFFFFFFFFFF
310
FFFFFFFFFFFFFFFFFFFFFFFFFFFFFFFFFFFFFFFFFFFFFFFFFFFFFFFFFFFFFFFF
310
FFFFFFFFFFFFFFFFFFFFFFFFFFFFFFFFFFFFFFFFFFFFFFFFFFFFFFFFFFFFFFFF
310
FFFFFFFFFFFFFFFFFFFFFFFFFFFFFFFFF000FFFFFFFFFFFFFFFFFFFFFFFFFFFF
310
FFFFFFFFFFFFFFFFFFFFFFFFFFFFFFFFFFFFFFFFFFFFFFFFFFFFFFFFFFFFFFFF
310
FFFFFFFFFFFFFFFFFFFFFFFFFFFFFFFFFFFFFFFFFFFFFFFFFFFFFFFFFFFFFFFF
310
FFFFFFFFFFFFFFFFF000FFFFFFFFFFFFFFFFFFFFFFFFFFFFFFFFFFFFFFFFFFFF
310
FFFFFFFFFFFFFFFFFFFFFFFFFFFFFFFFFFFFFFFFFFFFFFFFFFFFFFFFFFFFFFFF
310
FFFFFFFFFFFFFFFFFFFFFFFFFFFFFFFFFFFFFFFFFFFFFFFFFFFFFFFFFFFFFFFF
310
F000FFFFFFFFFFFFFFFFFFFFFFFFFFFFFFFFFFFFFFFFFFFFFFFFFFFFFFFFFFFF
310
FFFFFFFFFFFFFFFFFFFFFFFFFFFFFFFFFFFFFFFFFFFFFFFFFFFFFFFFFFFFFFFF
310
FFFFFFFFFFFFFFFFFFFFFFFFFFFFFFFFFFFFFFFFFFFFFFFFF000FFFFFFFFFFFF
310
FFFFFFFFFFFFFFFFFFFFFFFFFFFFFFFFFFFFFFFFFFFFFFFFFFFFFFFFFFFFFFFF
310
FFFFFFFFFFFFFFFFFFFFFFFFFFFFFFFFFFFFFFFFFFFFFFFFFFFFFFFFFFFFFFFF
310
FFFFFFFFFFFFFFFFFFFFFFFFFFFFFFFFF000FFFFFFFFFFFFFFFFFFFFFFFFFFFF
310
FFFFFFFFFFFFFFFFFFFFFFFFFFFFFFFFFFFFFFFFFFFFFFFFFFFFFFFFFFFFFFFF
310
FFFFFFFFFFFFFFFFFFFFFFFFFFFFFFFFFFFFFFFFFFFFFFFFFFFFFFFFFFFFFFFF
310
FFFFFFFFFFFFFFFFF000FFFFFFFFFFFFFFFFFFFFFFFFFFFFFFFFFFFFFFFFFFFF
310
FFFFFFFFFFFFFFFFFFFFFFFFFFFFFFFFFFFFFFFFFFFFFFFFFFFFFFFFFFFFFFFF
310
FFFFFFFFFFFFFFFFFFFFFFFFFFFFFFFFFFFFFFFFFFFFFFFFFFFFFFFFFFFFFFFF
310
F000FFFFFFFFFFFFFFFFFFFFFFFFFFFFFFFFFFFFFFFFFFFFFFFFFFFFFFFFFFFF
310
FFFFFFFFFFFFFFFFFFFFFFFFFFFFFFFFFFFFFFFFFFFFFFFFFFFFFFFFFFFFFFFF
310
FFFFFFFFFFFFFFFFFFFFFFFFFFFFFFFFFFFFFFFFFFFFFFFFF000FFFFFFFFFFFF
310
FFFFFFFFFFFFFFFFFFFFFFFFFFFFFFFFFFFFFFFFFFFFFFFFFFFFFFFFFFFFFFFF
310
FFFFFFFFFFFFFFFFFFFFFFFFFFFFFFFFFFFFFFFFFFFFFFFFFFFFFFFFFFFFFFFF
310
FFFFFFFFFFFFFFFFFFFFFFFFFFFFFFFFF000FFFFFFFFFFFFFFFFFFFFFFFFFFFF
310
FFFFFFFFFFFFFFFFFFFFFFFFFFFFFFFFFFFFFFFFFFFFFFFFFFFFFFFFFFFFFFFF
310
FFFFFFFFFFFFFFFFFFFFFFFFFFFFFFFFFFFFFFFFFFFFFFFFFFFFFFFFFFFFFFFF
310
FFFFFFFFFFFFFFFFF000FFFFFFFFFFFFFFFFFFFFFFFFFFFFFFFFFFFFFFFFFFFF
310
FFFFFFFFFFFFFFFFFFFFFFFFFFFFFFFFFFFFFFFFFFFFFFFFFFFFFFFFFFFFFFFF
310
FFFFFFFFFFFFFFFFFFFFFFFFFFFFFFFFFFFFFFFFFFFFFFFFFFFFFFFFFFFFFFFF
310
F000FFFFFFFFFFFFFFFFFFFFFFFFFFFFFFFFFFFFFFFFFFFFFFFFFFFFFFFFFFFF
310
FFFFFFFFFFFFFFFFFFFFFFFFFFFFFFFFFFFFFFFFFFFFFFFFFFFFFFFFFFFFFFFF
310
FFFFFFFFFFFFFFFFFFFFFFFFFFFFFFFFFFFFFFFFFFFFFFFFF000FFFFFFFFFFFF
310
FFFFFFFFFFFFFFFFFFFFFFFFFFFFFFFFFFFFFFFFFFFFFFFFFFFFFFFFFFFFFFFF
310
FFFFFFFFFFFFFFFFFFFFFFFFFFFFFFFFFFFFFFFFFFFFFFFFFFFFFFFFFFFFFFFF
310
FFFFFFFFFFFFFFFFFFFFFFFFFFFFFFFFF000FFFFFFFFFFFFFFFFFFFFFFFFFFFF
310
FFFFFFFFFFFFFFFFFFFFFFFFFFFFFFFFFFFFFFFFFFFFFFFFFFFFFFFFFFFFFFFF
310
FFFFFFFFFFFFFFFFFFFFFFFFFFFFFFFFFFFFFFFFFFFFFFFFFFFFFFFFFFFFFFFF
310
FFFFFFFFFFFFFFFFF000FFFFFFFFFFFFFFFFFFFFFFFFFFFFFFFFFFFFFFFFFFFF
310
FFFFFFFFFFFFFFFFFFFFFFFFFFFFFFFFFFFFFFFFFFFFFFFFFFFFFFFFFFFFFFFF
310
FFFFFFFFFFFFFFFFFFFFFFFFFFFFFFFFFFFFFFFFFFFFFFFFFFFFFFFFFFFFFFFF
310
F000FFFFFFFFFFFFFFFFFFFFFFFFFFFFFFFFFFFFFFFFFFFFFFFFFFFFFFFFFFFF
310
FFFFFFFFFFFFFFFFFFFFFFFFFFFFFFFFFFFFFFFFFFFFFFFFFFFFFFFFFFFFFFFF
310
FFFFFFFFFFFFFFFFFFFFFFFFFFFFFFFFFFFFFFFFFFFFFFFFF000FFFFFFFFFFFF
310
FFFFFFFFFFFFFFFFFFFFFFFFFFFFFFFFFFFFFFFFFFFFFFFFFFFFFFFFFFFFFFFF
310
FFFFFFFFFFFFFFFFFFFFFFFFFFFFFFFFFFFFFFFFFFFFFFFFFFFFFFFFFFFFFFFF
310
FFFFFFFFFFFFFFFFFFFFFFFFFFFFFFFFF000FFFFFFFFFFFFFFFFFFFFFFFFFFFF
310
FFFFFFFFFFFFFFFFFFFFFFFFFFFFFFFFFFFFFFFFFFFFFFFFFFFFFFFFFFFFFFFF
310
FFFFFFFFFFFFFFFFFFFFFFFFFFFFFFFFFFFFFFFFFFFFFFFFFFFFFFFFFFFFFFFF
310
FFFFFFFFFFFFFFFFF000FFFFF80003FFFFFFFFFFFFFFFFFFFFFFFFFFFFFFFFFF
310
FFFFF00007FFFFFFFFFF00007FFFFFF800000000000000007FFFFFFFFFFFFFFF
310
FFFFFFFC001FFFFFFFFFFFFFFC001FFFFFFFFFFFFFFFFFFFFFFFFFFE0007FFFF
310
F000FFFF8000007FFFFFFFF8000FFFFFC0007FFFFF80007FFFFF0000007FFFFF
310
FFF8000007FFFFF800000000000000007FFFFFF0001FFFFFFFFFFFC00001FFFF
310
FFFFFFFFC00001FFFFFFFF000000000003FFFFE000007FFFF000FFFE0000000F
310
FFFFFFF0000FFFFF80007FFFFF80007FFFFC0000001FFFFFFFC0000001FFFFF8
310
00000000000000007FFFFFF0001FFFFFFFFFFE0000003FFFFFFFFFFE0000003F
310
FFFFFF000000000003FFFF0000000FFFF000FFF800000003FFFFFFF00007FFFF
310
80007FFFFF80007FFFF000000007FFFFFF000000003FFFF80000000000000000
310
7FFFFFF0001FFFFFFFFFF80000000FFFFFFFFFF80000000FFFFFFF0000000000
310
03FFFC00000003FFF000FFE000000000FFFFFFF00007FFFF80003FFFFF80007F
310
FFC000000001FFFFFC000000001FFFF800000000000000007FFFFFF0001FFFFF
310
FFFFE000000003FFFFFFFFE000000003FFFFFF000000000003FFF000000000FF
310
F000FF80000000007FFFFFF00007FFFF80003FFFFF80007FFF8000000000FFFF
310
F80000000007FFF800000000000000007FFFFFF0001FFFFFFFFFC000000001FF
310
FFFFFFC000000001FFFFFF000000000003FFC0000000007FF000FF0000000000
310
3FFFFFE00007FFFF00003FFFFF80007FFE00000000003FFFF00000000003FFF8
310
00000000000000007FFFFFF0001FFFFFFFFF8000000000FFFFFFFF8000000000
310
FFFFFF000000000003FF80000000003FF000FE00000000001FFFFFE00003FFFF
310
00003FFFFF80007FFC00000000001FFFE00000000001FFF8000001FFFE000000
310
7FFFFFF0001FFFFFFFFE00000000003FFFFFFE00000000003FFFFF0000000000
310
03FF00000000001FF000FC00000000000FFFFFE00003FFFF00001FFFFF80007F
310
F800000000001FFFC00000000000FFF8000001FFFE0000007FFFFFF0001FFFFF
310
FFFC00000000001FFFFFFC00000000001FFFFF000000000003FE00000000000F
310
F000F8000000000007FFFFE00003FFFF00001FFFFF80007FF800000000000FFF
310
800000000000FFF8000001FFFE0000007FFFFFF0001FFFFFFFF800000000000F
310
FFFFF800000000000FFFFF000000000003FC000000000007F000F80000000000
310
03FFFFC00003FFFE00001FFFFF80007FF0000000000007FF0000000000007FF8
310
000001FFFE0000007FFFFFF0001FFFFFFFF0000000000007FFFFF00000000000
310
07FFFF000000000003F8000000000003F000F0000000000003FFFFC00001FFFE
310
00001FFFFF80007FE0000000000007FE0000000000003FF8000001FFFE000000
310
7FFFFFF0001FFFFFFFF0000000000007FFFFF0000000000007FFFF0000000000
310
03F800001F800003F000E00001FFF00001FFFFC00001FFFE00000FFFFF80007F
310
E00001FFE00003FE00001FFF00003FF8000001FFFE0000007FFFFFF0001FFFFF
310
FFE000003E000003FFFFE000003E000003FFFF000000000003F00001FFF80001
310
F000E00007FFFC0001FFFFC00001FFFE00000FFFFF80007FC0000FFFFC0003FC
310
0000FFFFC0001FF8000001FFFE0000007FFFFFF0001FFFFFFFC00003FFE00001
310
FFFFC00003FFE00001FFFF0001FFFFFFFFF00007FFFE0001F000E0000FFFFF00
310
00FFFF800001FFFC00000FFFFF80007FC0001FFFFE0001FC0001FFFFE0001FF8
310
000001FFFE0000007FFFFFF0001FFFFFFF80000FFFF80000FFFF80000FFFF800
310
00FFFF0003FFFFFFFFE0000FFFFF8000F000C0003FFFFF8000FFFF800000FFFC
310
000007FFFF80007F80003FFFFF0001FC0003FFFFF0001FF8000001FFFE000000
310
7FFFFFF0001FFFFFFF80003FFFFE0000FFFF80003FFFFE0000FFFF0003FFFFFF
310
FFE0003FFFFF8000F000C0003FFFFF8000FFFF800000FFFC000007FFFF80007F
310
80007FFFFF8001F80007FFFFF8000FF8000001FFFE0000007FFFFFF0001FFFFF
310
FF00007FFFFF00007FFF00007FFFFF00007FFF0003FFFFFFFFE0003FFFFFC000
310
F000C0007FFFFFC000FFFF000000FFFC000007FFFF80007F8000FFFFFF8000F8
310
000FFFFFF8000FF8000001FFFE0000007FFFFFF0001FFFFFFF0000FFFFFF8000
310
7FFF0000FFFFFF80007FFF0003FFFFFFFFC0007FFFFFC00070008000FFFFFFC0
310
00FFFF000000FFF8000007FFFF80007F8000FFFFFF8000F8000FFFFFF8000FF8
310
000001FFFE0000007FFFFFF0001FFFFFFE0001FFFFFFC0003FFE0001FFFFFFC0
310
003FFF0003FFFFFFFFC0007FFFFFE00070008000FFFFFFC0007FFF0000007FF8
310
000003FFFF80007F0001FFFFFF8000F8000FFFFFF8000FF8000001FFFE000000
310
7FFFFFF0001FFFFFFE0001FFFFFFC0003FFE0001FFFFFFC0003FFF0003FFFFFF
310
FFC000FFFFFFE00070008000FFFFFFC0007FFF0000007FF8000003FFFF80007F
310
0001FFFFFF8000F8001FFFFFF8000FF8000001FFFE0000007FFFFFF0001FFFFF
310
FE0003FFFFFFE0003FFE0003FFFFFFE0003FFF0003FFFFFFFFC000FFFFFFE000
310
70008000FFFFFFC0007FFE0000007FF8000003FFFF80007F0001FFFFFF8000F0
310
001FFFFFF8000FF8000001FFFE0000007FFFFFF0001FFFFFFC0003FFFFFFE000
310
1FFC0003FFFFFFE0001FFF0003FFFFFFFFC000FFFFFFC00070008000FFFFFF80
310
007FFE0000007FF0000003FFFF80007F0001FFFFFF0000F0001FFFFFF8000FF8
310
000001FFFE0000007FFFFFF0001FFFFFFC0007FFFFFFF0001FFC0007FFFFFFF0
310
001FFF0003FFFFFFFFC000FFFFFFC00070008001FFFFFF0000FFFE0000003FF0
310
000001FFFF80007F0001FFFFFF0000F8001FFFFFF0000FF8000001FFFE000000
310
7FFFFFF0001FFFFFFC0007FFFFFFF0001FFC0007FFFFFFF0001FFF0003FFFFFF
310
FFC001FFFFFF80007000FFFFFFFFFE0000FFFE0008003FF0008001FFFF80007F
310
FFFFFFFFFC0000FFFFFFFFFFE0000FF8000001FFFE0000007FFFFFF0001FFFFF
310
F8000FFFFFFFF8000FF8000FFFFFFFF8000FFF0003FFFFFFFFFFFFFFFFFF0000
310
7000FFFFFFFFFC0000FFFC0008003FF0008001FFFF80007FFFFFFFFFF80001FF
310
FFFFFFFF80000FF8000001FFFE0000007FFFFFF0001FFFFFF8000FFFFFFFF800
310
0FF8000FFFFFFFF8000FFF0003FFFFFFFFFFFFFFFFFE0000F000FFFFFFFFE000
310
00FFFC000C003FE000C001FFFF80007FFFFFFFFFC00001FFFFFFFFFE00001FF8
310
000001FFFE0000007FFFFFF0001FFFFFF8000FFFFFFFF8000FF8000FFFFFFFF8
310
000FFF0003FFFFFFFFFFFFFFFFF00000F000FFFFFFFE000001FFFC000C001FE0
310
00C000FFFF80007FFFFFFFFE000001FFFFFFFFE000001FF80FFFFFFFFFFFFFC0
310
7FFFFFF0001FFFFFF8000FFFFFFFF8000FF8000FFFFFFFF8000FFF0003FFFFFF
310
FFFFFFFFFF800000F000FFFFFFC0000001FFFC001C001FE001C000FFFF80007F
310
FFFFFF80000003FFFFFFF80000001FF80FFFFFFFFFFFFFC07FFFFFF0001FFFFF
310
F8001FFFFFFFFC000FF8001FFFFFFFFC000FFF0003FFFFFFFFFFFFFFF0000001
310
F000FFFFF800000001FFF8001C001FE001C000FFFF80007FFFFFF800000003FF
310
FFFF800000003FF80FFFFFFFFFFFFFC07FFFFFF0001FFFFFF8001FFFFFFFFC00
310
0FF8001FFFFFFFFC000FFF0003FFFFFFFFFFFFFE00000001F000FFFFC0000000
310
03FFF8001E001FC001E000FFFF80007FFFFF8000000007FFFFFC000000003FF8
310
0FFFFFFFFFFFFFC07FFFFFF0001FFFFFF8001FFFFFFFFC000FF8001FFFFFFFFC
310
000FFF0003FFFFFFFFFFFFE000000003F000FFFE0000000007FFF8001E000FC0
310
01E0007FFF80007FFFFE0000000007FFFFE0000000007FF80FFFFFFFFFFFFFC0
310
7FFFFFF0001FFFFFF0001FFFFFFFFC0007F0001FFFFFFFFC0007FF0003FFFFFF
310
FFFFFF0000000003F000FFF80000000007FFF8001E000FC003E0007FFF80007F
310
FFF0000000000FFFFF8000000000FFF80FFFFFFFFFFFFFC07FFFFFF0001FFFFF
310
F0001FFFFFFFFC0007F0001FFFFFFFFC0007FF0003FFFFFFFFFFFC0000000007
310
F000FFE0000000000FFFF0003E000FC003E0007FFF80007FFFC0000000001FFF
310
FE0000000001FFF80FFFFFFFFFFFFFC07FFFFFF0001FFFFFF0001FFFFFFFFC00
310
07F0001FFFFFFFFC0007FF0003FFFFFFFFFFF0000000000FF000FFC000000000
310
1FFFF0003F000F8003F0003FFF80007FFF80000000003FFFF80000000003FFF8
310
0FFFFFFFFFFFFFC07FFFFFF0001FFFFFF0001FFFFFFFFC0007F0001FFFFFFFFC
310
0007FF0003FFFFFFFFFFE0000000001FF000FF00000000007FFFF0003F000780
310
03F0003FFF80007FFF00000000007FFFF00000000007FFF80FFFFFFFFFFFFFC0
310
7FFFFFF0001FFFFFF0001FFFFFFFFC0007F0001FFFFFFFFC0007FF0003FFFFFF
310
FFFF80000000007FF000FE0000000000FFFFE0003F00078007F0003FFF80007F
310
FE0000000001FFFFE0000000001FFFF80FFFFFFFFFFFFFC07FFFFFF0001FFFFF
310
F0001FFFFFFFFC0007F0001FFFFFFFFC0007FF0003FFFFFFFFFF0000000000FF
310
F000FC0000000003FFFFE0007F00078007F0003FFF80007FFC0000000007FFFF
310
C0000000007FFFF80FFFFFFFFFFFFFC07FFFFFF0001FFFFFF8001FFFFFFFFC00
310
0FF8001FFFFFFFFC000FFF0003FFFFFFFFFE0000000003FFF000FC000000000F
310
FFFFE0007F80070007F8001FFF80007FF8000000001FFFFF8000000001FFFFF8
310
0FFFFFFFFFFFFFC07FFFFFF0001FFFFFF8001FFFFFFFFC000FF8001FFFFFFFFC
310
000FFF0003FFFFFFFFFC000000000FFFF000F8000000007FFFFFE0007F800700
310
07F8001FFF80007FF000000000FFFFFF800000000FFFFFF80FFFFFFFFFFFFFC0
310
7FFFFFF0001FFFFFF8000FFFFFFFF8000FF8000FFFFFFFF8000FFF0003FFFFFF
310
FFFC000000007FFFF000F800000007FFFFFFC0007F8003000FF8001FFF80007F
310
F000000007FFFFFF000000007FFFFFF80FFFFFFFFFFFFFC07FFFFFF0001FFFFF
310
F8000FFFFFFFF8000FF8000FFFFFFFF8000FFF0003FFFFFFFFF80000000FFFFF
310
F000F0000000FFFFFFFFC000FF8003000FF8001FFF80007FE0000000FFFFFFFF
310
0000000FFFFFFFF8000001FFFE0000007FFFFFF0001FFFFFF8000FFFFFFFF800
310
0FF8000FFFFFFFF8000FFF0003FFFFFFFFF8000000FFFFFFF000F000000FFFFF
310
FFFFC000FFC002000FF8000FFF80007FE000001FFFFFFFFE000001FFFFFFFFF8
310
000001FFFE0000007FFFFFF0001FFFFFF8000FFFFFFFF8000FF8000FFFFFFFF8
310
000FFF0003FFFFFFFFF000001FFFFFFFF000E00000FFFFFFFFFFC000FFC00200
310
0FFC000FFF80007FE00001FFFFFFFFFE00001FFFFFFFFFF8000001FFFE000000
310
7FFFFFF0001FFFFFFC000FFFFFFFF8001FFC000FFFFFFFF8001FFF0003FFFFFF
310
FFF00001FFFFFFFFF000E00007FFFFFFFFFF8000FFC000001FFC000FFF80007F
310
C0000FFFFFFFFFFE0000FFFFFFFFFFF8000001FFFE0000007FFFFFF0001FFFFF
310
FC0007FFFFFFF0001FFC0007FFFFFFF0001FFF0003FFFFFFFFF00007FFFFFFFF
310
F000E0001FFFFFFFFFFF8000FFC000001FFC000FFF80007FC0003FFFFFFFFFFE
310
0001FFFFFFFFFFF8000001FFFE0000007FFFFFF0001FFFFFFC0007FFFFFFF000
310
1FFC0007FFFFFFF0001FFF0003FFFFFFFFF0001FFFFFFFFFF000E0003FFFFF00
310
03FF8001FFE000001FFC0007FF80007FC0007FFFFF0007FC0003FFFFF0003FF8
310
000001FFFE0000007FFFFFF0001FFFFFFC0003FFFFFFE0001FFC0003FFFFFFE0
310
001FFF0003FFFFFFFFF0003FFFFFFFFFF000E0003FFFFF0001FF8001FFE00000
310
1FFE0007FF80007FC0007FFFFE0003FC0007FFFFE0003FF8000001FFFE000000
310
7FFFFFF0001FFFFFFE0003FFFFFFE0003FFE0003FFFFFFE0003FFF0003FFFFFF
310
FFF0003FFFFF8001F000E0003FFFFF0001FF0001FFE000001FFE0007FF80007F
310
C0007FFFFE0003FC0007FFFFE0003FF8000001FFFE0000007FFFFFF0001FFFFF
310
FE0001FFFFFFC0003FFE0001FFFFFFC0003FFF0003FFFFFFFFF0003FFFFF0001
310
F000E0003FFFFF0003FF0001FFE000003FFE0007FF80007FC0007FFFFE0003FC
310
0007FFFFE0003FF8000001FFFE0000007FFFFFF0001FFFFFFF0001FFFFFFC000
310
7FFF0001FFFFFFC0007FFF0003FFFFFFFFF0003FFFFF0001F000E0003FFFFE00
310
03FF0003FFF000003FFE0003FF80007FC0007FFFFC0003FE0007FFFFE0003FF8
310
000001FFFE0000007FFFFFF0001FFFFFFF0000FFFFFF80007FFF0000FFFFFF80
310
007FFF0003FFFFFFFFF0003FFFFF0001F000E0003FFFFE0003FF0003FFF00000
310
3FFF0003FF80007FC0007FFFFC0007FE0007FFFFC0003FF8000001FFFE000000
310
7FFFFFF0001FFFFFFF80007FFFFF0000FFFF80007FFFFF0000FFFF0003FFFFFF
310
FFF0003FFFFF0003F000E0003FFFFC0003FE0003FFF000003FFF0003FF80007F
310
E0003FFFF80007FE0003FFFFC0007FF8000001FFFE0000007FFFFFF0001FFFFF
310
FF80003FFFFE0000FFFF80003FFFFE0000FFFF0003FFFFFFFFF0001FFFFE0003
310
F000F0001FFFF80003FE0003FFF000007FFF0001FF80007FE0003FFFF00007FE
310
0001FFFF80007FF8000001FFFE0000007FFFFFF0001FFFFFFFC0000FFFF80001
310
FFFFC0000FFFF80001FFFF0003FFFFFFFFF0001FFFFC0003F000F0000FFFF000
310
07FE0007FFF800007FFF0001FF80007FE0001FFFE00007FF0000FFFE00007FF8
310
000001FFFE0000007FFFFFF0001FFFFFFFC00003FFE00001FFFFC00003FFE000
310
01FFFF0003FFFFFFFFF8000FFFF80003F000F00003FFC00007FC0007FFF80000
310
7FFF8001FF80007FF00007FF80000FFF00007FF80000FFF8000001FFFE000000
310
7F80000000000001FFE000003E000003FFFFE000003E000003FFFF0003FFFFFF
310
FFF80003FFE00007F000F800000000000FFC0007FFF800007FFF8001FF80007F
310
F000000000000FFF000000000000FFF8000001FFFE0000007F80000000000001
310
FFF0000000000007FFFFF0000000000007FFFF0003FFFFFFFFFC00007E000007
310
F000F800000000000FFC0007FFF80000FFFF8000FF80007FF800000000001FFF
310
800000000001FFF8000001FFFE0000007F80000000000001FFF800000000000F
310
FFFFF800000000000FFFFF0003FFFFFFFFFC00000000000FF000FC0000000000
310
1FFC0007FFFC0000FFFF8000FF80007FF800000000003FFFC00000000001FFF8
310
000001FFFE0000007F80000000000001FFF800000000000FFFFFF80000000000
310
0FFFFF0003FFFFFFFFFE00000000001FF000FE00000000003FF8000FFFFC0000
310
FFFF8000FF80007FFC00000000003FFFC00000000003FFF8000001FFFE000000
310
7F80000000000001FFFC00000000001FFFFFFC00000000001FFFFF0003FFFFFF
310
FFFF00000000001FF000FF00000000003FF8000FFFFC0000FFFFC000FF80007F
310
FE00000000007FFFE00000000007FFF8000001FFFE0000007F80000000000001
310
FFFE00000000003FFFFFFE00000000003FFFFF0003FFFFFFFFFF80000000003F
310
F000FF80000000007FF8000FFFFC0001FFFFC0007F80007FFF0000000000FFFF
310
F0000000000FFFF800000000000000007F80000000000001FFFF8000000000FF
310
FFFFFF8000000000FFFFFF0003FFFFFFFFFFC0000000007FF000FFC000000000
310
FFF8000FFFFE0001FFFFC0007F80007FFF8000000001FFFFF8000000001FFFF8
310
00000000000000007F80000000000001FFFFC000000001FFFFFFFFC000000001
310
FFFFFF0003FFFFFFFFFFE000000000FFF000FFE000000003FFF0001FFFFE0001
310
FFFFC0007F80007FFFC000000007FFFFFE000000003FFFF80000000000000000
310
7F80000000000001FFFFE000000003FFFFFFFFE000000003FFFFFF0003FFFFFF
310
FFFFF000000003FFF000FFF80000000FFFF0001FFFFE0001FFFFE0007F80007F
310
FFF00000000FFFFFFF00000000FFFFF800000000000000007F80000000000001
310
FFFFF80000000FFFFFFFFFF80000000FFFFFFF0003FFFFFFFFFFFC0000000FFF
310
F000FFFE0000003FFFF0001FFFFE0003FFFFE0003F80007FFFFC0000003FFFFF
310
FFC0000003FFFFF800000000000000007F80000000000001FFFFFE0000003FFF
310
FFFFFFFE0000003FFFFFFF0003FFFFFFFFFFFF0000003FFFF000FFFF800000FF
310
FFF0001FFFFF0003FFFFE0003F80007FFFFF000001FFFFFFFFF800001FFFFFF8
310
00000000000000007F80000000000001FFFFFFC00001FFFFFFFFFFFFC00001FF
310
FFFFFF0003FFFFFFFFFFFFC00000FFFFF000FFFFF8000FFFFFFFFFFFFFFFFFFF
310
FFFFFFFFFFFFFFFFFFFFF0001FFFFFFFFFFF0000FFFFFFF80000000000000000
310
7FFFFFFFFFFFFFFFFFFFFFFC001FFFFFFFFFFFFFFC001FFFFFFFFFFFFFFFFFFF
310
FFFFFFFC001FFFFFF000FFFFFFFFFFFFFFFFFFFFFFFFFFFFFFFFFFFFFFFFFFFF
310
FFFFFFFFFFFFFFFFFFFFFFFFFFFFFFFFFFFFFFFFFFFFFFFFFFFFFFFFFFFFFFFF
310
FFFFFFFFFFFFFFFFFFFFFFFFFFFFFFFFFFFFFFFFFFFFFFFFFFFFFFFFFFFFFFFF
310
F000FFFFFFFFFFFFFFFFFFFFFFFFFFFFFFFFFFFFFFFFFFFFFFFFFFFFFFFFFFFF
310
FFFFFFFFFFFFFFFFFFFFFFFFFFFFFFFFFFFFFFFFFFFFFFFFFFFFFFFFFFFFFFFF
310
FFFFFFFFFFFFFFFFFFFFFFFFFFFFFFFFFFFFFFFFFFFFFFFFF000FFFFFFFFFFFF
310
FFFFFFFFFFFFFFFFFFFFFFFFFFFFFFFFFFFFFFFFFFFFFFFFFFFFFFFFFFFFFFFF
310
FFFFFFFFFFFFFFFFFFFFFFFFFFFFFFFFFFFFFFFFFFFFFFFFFFFFFFFFFFFFFFFF
310
FFFFFFFFFFFFFFFFFFFFFFFFFFFFFFFFF000FFFFFFFFFFFFFFFFFFFFFFFFFFFF
310
FFFFFFFFFFFFFFFFFFFFFFFFFFFFFFFFFFFFFFFFFFFFFFFFFFFFFFFFFFFFFFFF
310
FFFFFFFFFFFFFFFFFFFFFFFFFFFFFFFFFFFFFFFFFFFFFFFFFFFFFFFFFFFFFFFF
310
FFFFFFFFFFFFFFFFF000FFFFFFFFFFFFFFFFFFFFFFFFFFFFFFFFFFFFFFFFFFFF
310
FFFFFFFFFFFFFFFFFFFFFFFFFFFFFFFFFFFFFFFFFFFFFFFFFFFFFFFFFFFFFFFF
310
FFFFFFFFFFFFFFFFFFFFFFFFFFFFFFFFFFFFFFFFFFFFFFFFFFFFFFFFFFFFFFFF
310
F000FFFFFFFFFFFFFFFFFFFFFFFFFFFFFFFFFFFFFFFFFFFFFFFFFFFFFFFFFFFF
310
FFFFFFFFFFFFFFFFFFFFFFFFFFFFFFFFFFFFFFFFFFFFFFFFFFFFFFFFFFFFFFFF
310
FFFFFFFFFFFFFFFFFFFFFFFFFFFFFFFFFFFFFFFFFFFFFFFFF000FFFFFFFFFFFF
310
FFFFFFFFFFFFFFFFFFFFFFFFFFFFFFFFFFFFFFFFFFFFFFFFFFFFFFFFFFFFFFFF
310
FFFFFFFFFFFFFFFFFFFFFFFFFFFFFFFFFFFFFFFFFFFFFFFFFFFFFFFFFFFFFFFF
310
FFFFFFFFFFFFFFFFFFFFFFFFFFFFFFFFF000FFFFFFFFFFFFFFFFFFFFFFFFFFFF
310
FFFFFFFFFFFFFFFFFFFFFFFFFFFFFFFFFFFFFFFFFFFFFFFFFFFFFFFFFFFFFFFF
310
FFFFFFFFFFFFFFFFFFFFFFFFFFFFFFFFFFFFFFFFFFFFFFFFFFFFFFFFFFFFFFFF
310
FFFFFFFFFFFFFFFFF000FFFFFFFFFFFFFFFFFFFFFFFFFFFFFFFFFFFFFFFFFFFF
310
FFFFFFFFFFFFFFFFFFFFFFFFFFFFFFFFFFFFFFFFFFFFFFFFFFFFFFFFFFFFFFFF
310
FFFFFFFFFFFFFFFFFFFFFFFFFFFFFFFFFFFFFFFFFFFFFFFFFFFFFFFFFFFFFFFF
310
F000FFFFFFFFFFFFFFFFFFFFFFFFFFFFFFFFFFFFFFFFFFFFFFFFFFFFFFFFFFFF
310
FFFFFFFFFFFFFFFFFFFFFFFFFFFFFFFFFFFFFFFFFFFFFFFFFFFFFFFFFFFFFFFF
310
FFFFFFFFFFFFFFFFFFFFFFFFFFFFFFFFFFFFFFFFFFFFFFFFF000FFFFFFFFFFFF
310
FFFFFFFFFFFFFFFFFFFFFFFFFFFFFFFFFFFFFFFFFFFFFFFFFFFFFFFFFFFFFFFF
310
FFFFFFFFFFFFFFFFFFFFFFFFFFFFFFFFFFFFFFFFFFFFFFFFFFFFFFFFFFFFFFFF
310
FFFFFFFFFFFFFFFFFFFFFFFFFFFFFFFFF000FFFFFFFFFFFFFFFFFFFFFFFFFFFF
310
FFFFFFFFFFFFFFFFFFFFFFFFFFFFFFFFFFFFFFFFFFFFFFFFFFFFFFFFFFFFFFFF
310
FFFFFFFFFFFFFFFFFFFFFFFFFFFFFFFFFFFFFFFFFFFFFFFFFFFFFFFFFFFFFFFF
310
FFFFFFFFFFFFFFFFF000FFFFFFFFFFFFFFFFFFFFFFFFFFFFFFFFFFFFFFFFFFFF
310
FFFFFFFFFFFFFFFFFFFFFFFFFFFFFFFFFFFFFFFFFFFFFFFFFFFFFFFFFFFFFFFF
310
FFFFFFFFFFFFFFFFFFFFFFFFFFFFFFFFFFFFFFFFFFFFFFFFFFFFFFFFFFFFFFFF
310
F000FFFFFFFFFFFFFFFFFFFFFFFFFFFFFFFFFFFFFFFFFFFFFFFFFFFFFFFFFFFF
310
FFFFFFFFFFFFFFFFFFFFFFFFFFFFFFFFFFFFFFFFFFFFFFFFFFFFFFFFFFFFFFFF
310
FFFFFFFFFFFFFFFFFFFFFFFFFFFFFFFFFFFFFFFFFFFFFFFFF000FFFFFFFFFFFF
310
FFFFFFFFFFFFFFFFFFFFFFFFFFFFFFFFFFFFFFFFFFFFFFFFFFFFFFFFFFFFFFFF
310
FFFFFFFFFFFFFFFFFFFFFFFFFFFFFFFFFFFFFFFFFFFFFFFFFFFFFFFFFFFFFFFF
310
FFFFFFFFFFFFFFFFFFFFFFFFFFFFFFFFF000FFFFFFFFFFFFFFFFFFFFFFFFFFFF
310
FFFFFFFFFFFFFFFFFFFFFFFFFFFFFFFFFFFFFFFFFFFFFFFFFFFFFFFFFFFFFFFF
310
FFFFFFFFFFFFFFFFFFFFFFFFFFFFFFFFFFFFFFFFFFFFFFFFFFFFFFFFFFFFFFFF
310
FFFFFFFFFFFFFFFFF000FFFFFFFFFFFFFFFFFFFFFFFFFFFFFFFFFFFFFFFFFFFF
310
FFFFFFFFFFFFFFFFFFFFFFFFFFFFFFFFFFFFFFFFFFFFFFFFFFFFFFFFFFFFFFFF
310
FFFFFFFFFFFFFFFFFFFFFFFFFFFFFFFFFFFFFFFFFFFFFFFFFFFFFFFFFFFFFFFF
310
F000FFFFFFFFFFFFFFFFFFFFFFFFFFFFFFFFFFFFFFFFFFFFFFFFFFFFFFFFFFFF
310
FFFFFFFFFFFFFFFFFFFFFFFFFFFFFFFFFFFFFFFFFFFFFFFFFFFFFFFFFFFFFFFF
310
FFFFFFFFFFFFFFFFFFFFFFFFFFFFFFFFFFFFFFFFFFFFFFFFF000FFFFFFFFFFFF
310
FFFFFFFFFFFFFFFFFFFFFFFFFFFFFFFFFFFFFFFFFFFFFFFFFFFFFFFFFFFFFFFF
310
FFFFFFFFFFFFFFFFFFFFFFFFFFFFFFFFFFFFFFFFFFFFFFFFFFFFFFFFFFFFFFFF
310
FFFFFFFFFFFFFFFFFFFFFFFFFFFFFFFFF000FFFFFFFFFFFFFFFFFFFFFFFFFFFF
310
FFFFFFFFFFFFFFFFFFFFFFFFFFFFFFFFFFFFFFFFFFFFFFFFFFFFFFFFFFFFFFFF
310
FFFFFFFFFFFFFFFFFFFFFFFFFFFFFFFFFFFFFFFFFFFFFFFFFFFFFFFFFFFFFFFF
310
FFFFFFFFFFFFFFFFF000FFFFFFFFFFFFFFFFFFFFFFFFFFFFFFFFFFFFFFFFFFFF
310
FFFFFFFFFFFFFFFFFFFFFFFFFFFFFFFFFFFFFFFFFFFFFFFFFFFFFFFFFFFFFFFF
310
FFFFFFFFFFFFFFFFFFFFFFFFFFFFFFFFFFFFFFFFFFFFFFFFFFFFFFFFFFFFFFFF
310
F000FFFFFFFFFFFFFFFFFFFFFFFFFFFFFFFFFFFFFFFFFFFFFFFFFFFFFFFFFFFF
310
FFFFFFFFFFFFFFFFFFFFFFFFFFFFFFFFFFFFFFFFFFFFFFFFFFFFFFFFFFFFFFFF
310
FFFFFFFFFFFFFFFFFFFFFFFFFFFFFFFFFFFFFFFFFFFFFFFFF000FFFFFFFFFFFF
310
FFFFFFFFFFFFFFFFFFFFFFFFFFFFFFFFFFFFFFFFFFFFFFFFFFFFFFFFFFFFFFFF
310
FFFFFFFFFFFFFFFFFFFFFFFFFFFFFFFFFFFFFFFFFFFFFFFFFFFFFFFFFFFFFFFF
310
FFFFFFFFFFFFFFFFFFFFFFFFFFFFFFFFF0000000000000000000000000000000
310
0000000000000000000000000000000000000000000000000000000000000000
310
0000000000000000000000000000000000000000000000000000000000000000
310
0000000000000000000000000000000000000000000000000000000000000000
310
0000000000000000000000000000000000000000000000000000000000000000
310
0000000000000000000000000000000000000000000000000000000000000000
310
0000000000000000000000000000000000000000000000000000000000000000
310
0000000000000000000000000000000000000000000000000000000000000000
310
0000000000000000000000000000000000000000000000000000000000000000
310
0000000000000000000000000000000000000000000000000000000000000000
310
0000000000000000000000000000000000000000000000000000000000000000
310
0000000000000000000000000000000000000000000000000000000000000000
310
0000000000000000000000000000000000000000000000000000000000000000
310
0000000000000000000000000000000000000000000000000000000000000000
310
0000000000000000000000000000000000000000000000000000000000000000
310
0000000000000000000000000000000000000000000000000000000000000000
  1
OLE
  0
ENDSEC
  0
SECTION
  2
OBJECTS
  0
DICTIONARY
  5
C
330
0
100
AcDbDictionary
281
     1
  3
ACAD_GROUP
350
D
  3
ACAD_LAYOUT
350
1A
  3
ACAD_MLINESTYLE
350
17
  3
ACAD_PLOTSETTINGS
350
19
  3
ACAD_PLOTSTYLENAME
350
E
  3
ACAD_SCALELIST
350
47
  0
DICTIONARY
  5
D
102
{ACAD_REACTORS
330
C
102
}
330
C
100
AcDbDictionary
281
     1
  0
DICTIONARY
  5
1A
102
{ACAD_REACTORS
330
C
102
}
330
C
100
AcDbDictionary
281
     1
  3
Layout1
350
1E
  3
Layout2
350
26
  3
Model
350
22
  0
DICTIONARY
  5
17
102
{ACAD_REACTORS
330
C
102
}
330
C
100
AcDbDictionary
281
     1
  3
Standard
350
18
  0
DICTIONARY
  5
19
102
{ACAD_REACTORS
330
C
102
}
330
C
100
AcDbDictionary
281
     1
  0
ACDBDICTIONARYWDFLT
  5
E
102
{ACAD_REACTORS
330
C
102
}
330
C
100
AcDbDictionary
281
     1
  3
Normal
350
F
100
AcDbDictionaryWithDefault
340
F
  0
DICTIONARY
  5
47
102
{ACAD_REACTORS
330
C
102
}
330
C
100
AcDbDictionary
281
     1
  3
A0
350
48
  3
A1
350
49
  3
A2
350
4A
  3
A3
350
4B
  3
A4
350
4C
  3
A5
350
4D
  3
A6
350
4E
  3
A7
350
4F
  3
A8
350
50
  3
A9
350
51
  3
B0
350
52
  3
B1
350
53
  3
B2
350
54
  3
B3
350
55
  3
B4
350
56
  3
B5
350
57
  3
B6
350
58
  3
B7
350
59
  3
B8
350
5A
  3
B9
350
5B
  3
C0
350
5C
  3
C1
350
5D
  3
C2
350
5E
  3
C3
350
5F
  3
C4
350
60
  3
C5
350
61
  3
C6
350
62
  3
C7
350
63
  3
C8
350
64
  3
C9
350
65
  3
D0
350
66
  3
D1
350
67
  3
D2
350
68
  0
LAYOUT
  5
1E
102
{ACAD_REACTORS
330
1A
102
}
330
1A
100
AcDbPlotSettings
  1

  2
none_device
  4

  6

 40
0.0
 41
0.0
 42
0.0
 43
0.0
 44
0.0
 45
0.0
 46
0.0
 47
0.0
 48
0.0
 49
0.0
140
0.0
141
0.0
142
1.0
143
1.0
 70
   688
 72
     1
 73
     0
 74
     5
  7

 75
    16
147
1.0
148
0.0
149
0.0
100
AcDbLayout
  1
Layout1
 70
     1
 71
     1
 10
0.0
 20
0.0
 11
420.0
 21
297.0
 12
0.0
 22
0.0
 32
0.0
 14
1.0000000000E+20
 24
1.0000000000E+20
 34
1.0000000000E+20
 15
-1.0000000000E+20
 25
-1.0000000000E+20
 35
-1.0000000000E+20
146
0.0
 13
0.0
 23
0.0
 33
0.0
 16
1.0
 26
0.0
 36
0.0
 17
0.0
 27
1.0
 37
0.0
 76
     0
330
1B
  0
LAYOUT
  5
26
102
{ACAD_REACTORS
330
1A
102
}
330
1A
100
AcDbPlotSettings
  1

  2
none_device
  4

  6

 40
0.0
 41
0.0
 42
0.0
 43
0.0
 44
0.0
 45
0.0
 46
0.0
 47
0.0
 48
0.0
 49
0.0
140
0.0
141
0.0
142
1.0
143
1.0
 70
   688
 72
     1
 73
     0
 74
     5
  7

 75
    16
147
1.0
148
0.0
149
0.0
100
AcDbLayout
  1
Layout2
 70
     1
 71
     2
 10
0.0
 20
0.0
 11
0.0
 21
0.0
 12
0.0
 22
0.0
 32
0.0
 14
0.0
 24
0.0
 34
0.0
 15
0.0
 25
0.0
 35
0.0
146
0.0
 13
0.0
 23
0.0
 33
0.0
 16
1.0
 26
0.0
 36
0.0
 17
0.0
 27
1.0
 37
0.0
 76
     0
330
23
  0
LAYOUT
  5
22
102
{ACAD_REACTORS
330
1A
102
}
330
1A
100
AcDbPlotSettings
  1

  2
none_device
  4
Letter_(8.50_x_11.00_Inches)
  6

 40
6.35
 41
6.35
 42
6.35000508
 43
6.35000508
 44
215.9
 45
279.4
 46
0.0
 47
0.0
 48
0.0
 49
0.0
140
0.0
141
0.0
142
1.0
143
1.0
 70
  1712
 72
     1
 73
     0
 74
     0
  7

 75
     0
147
1.0
148
0.0
149
0.0
100
AcDbLayout
  1
Model
 70
     1
 71
     0
 10
0.0
 20
0.0
 11
297.0
 21
210.0
 12
0.0
 22
0.0
 32
0.0
 14
0.0
 24
0.0
 34
0.0
 15
297.0
 25
210.0
 35
0.0
146
0.0
 13
0.0
 23
0.0
 33
0.0
 16
1.0
 26
0.0
 36
0.0
 17
0.0
 27
1.0
 37
0.0
 76
     0
330
1F
331
29
  0
MLINESTYLE
  5
18
102
{ACAD_REACTORS
330
17
102
}
330
17
100
AcDbMlineStyle
  2
Standard
 70
     0
  3

 62
   256
 51
90.0
 52
90.0
 71
     2
 49
0.5
 62
   256
  6
BYLAYER
 49
-0.5
 62
   256
  6
BYLAYER
  0
ACDBPLACEHOLDER
  5
F
102
{ACAD_REACTORS
330
E
102
}
330
E
  0
SCALE
  5
48
102
{ACAD_REACTORS
330
47
102
}
330
47
100
AcDbScale
 70
     0
300
1:1
140
1.0
141
1.0
290
     1
  0
SCALE
  5
49
102
{ACAD_REACTORS
330
47
102
}
330
47
100
AcDbScale
 70
     0
300
1:2
140
1.0
141
2.0
290
     0
  0
SCALE
  5
4A
102
{ACAD_REACTORS
330
47
102
}
330
47
100
AcDbScale
 70
     0
300
1:4
140
1.0
141
4.0
290
     0
  0
SCALE
  5
4B
102
{ACAD_REACTORS
330
47
102
}
330
47
100
AcDbScale
 70
     0
300
1:5
140
1.0
141
5.0
290
     0
  0
SCALE
  5
4C
102
{ACAD_REACTORS
330
47
102
}
330
47
100
AcDbScale
 70
     0
300
1:8
140
1.0
141
8.0
290
     0
  0
SCALE
  5
4D
102
{ACAD_REACTORS
330
47
102
}
330
47
100
AcDbScale
 70
     0
300
1:10
140
1.0
141
10.0
290
     0
  0
SCALE
  5
4E
102
{ACAD_REACTORS
330
47
102
}
330
47
100
AcDbScale
 70
     0
300
1:16
140
1.0
141
16.0
290
     0
  0
SCALE
  5
4F
102
{ACAD_REACTORS
330
47
102
}
330
47
100
AcDbScale
 70
     0
300
1:20
140
1.0
141
20.0
290
     0
  0
SCALE
  5
50
102
{ACAD_REACTORS
330
47
102
}
330
47
100
AcDbScale
 70
     0
300
1:30
140
1.0
141
30.0
290
     0
  0
SCALE
  5
51
102
{ACAD_REACTORS
330
47
102
}
330
47
100
AcDbScale
 70
     0
300
1:40
140
1.0
141
40.0
290
     0
  0
SCALE
  5
52
102
{ACAD_REACTORS
330
47
102
}
330
47
100
AcDbScale
 70
     0
300
1:50
140
1.0
141
50.0
290
     0
  0
SCALE
  5
53
102
{ACAD_REACTORS
330
47
102
}
330
47
100
AcDbScale
 70
     0
300
1:100
140
1.0
141
100.0
290
     0
  0
SCALE
  5
54
102
{ACAD_REACTORS
330
47
102
}
330
47
100
AcDbScale
 70
     0
300
2:1
140
2.0
141
1.0
290
     0
  0
SCALE
  5
55
102
{ACAD_REACTORS
330
47
102
}
330
47
100
AcDbScale
 70
     0
300
4:1
140
4.0
141
1.0
290
     0
  0
SCALE
  5
56
102
{ACAD_REACTORS
330
47
102
}
330
47
100
AcDbScale
 70
     0
300
8:1
140
8.0
141
1.0
290
     0
  0
SCALE
  5
57
102
{ACAD_REACTORS
330
47
102
}
330
47
100
AcDbScale
 70
     0
300
10:1
140
10.0
141
1.0
290
     0
  0
SCALE
  5
58
102
{ACAD_REACTORS
330
47
102
}
330
47
100
AcDbScale
 70
     0
300
100:1
140
100.0
141
1.0
290
     0
  0
SCALE
  5
59
102
{ACAD_REACTORS
330
47
102
}
330
47
100
AcDbScale
 70
     0
300
1/128" = 1'-0"
140
0.0078125
141
12.0
290
     0
  0
SCALE
  5
5A
102
{ACAD_REACTORS
330
47
102
}
330
47
100
AcDbScale
 70
     0
300
1/64" = 1'-0"
140
0.015625
141
12.0
290
     0
  0
SCALE
  5
5B
102
{ACAD_REACTORS
330
47
102
}
330
47
100
AcDbScale
 70
     0
300
1/32" = 1'-0"
140
0.03125
141
12.0
290
     0
  0
SCALE
  5
5C
102
{ACAD_REACTORS
330
47
102
}
330
47
100
AcDbScale
 70
     0
300
1/16" = 1'-0"
140
0.0625
141
12.0
290
     0
  0
SCALE
  5
5D
102
{ACAD_REACTORS
330
47
102
}
330
47
100
AcDbScale
 70
     0
300
3/32" = 1'-0"
140
0.09375
141
12.0
290
     0
  0
SCALE
  5
5E
102
{ACAD_REACTORS
330
47
102
}
330
47
100
AcDbScale
 70
     0
300
1/8" = 1'-0"
140
0.125
141
12.0
290
     0
  0
SCALE
  5
5F
102
{ACAD_REACTORS
330
47
102
}
330
47
100
AcDbScale
 70
     0
300
3/16" = 1'-0"
140
0.1875
141
12.0
290
     0
  0
SCALE
  5
60
102
{ACAD_REACTORS
330
47
102
}
330
47
100
AcDbScale
 70
     0
300
1/4" = 1'-0"
140
0.25
141
12.0
290
     0
  0
SCALE
  5
61
102
{ACAD_REACTORS
330
47
102
}
330
47
100
AcDbScale
 70
     0
300
3/8" = 1'-0"
140
0.375
141
12.0
290
     0
  0
SCALE
  5
62
102
{ACAD_REACTORS
330
47
102
}
330
47
100
AcDbScale
 70
     0
300
1/2" = 1'-0"
140
0.5
141
12.0
290
     0
  0
SCALE
  5
63
102
{ACAD_REACTORS
330
47
102
}
330
47
100
AcDbScale
 70
     0
300
3/4" = 1'-0"
140
0.75
141
12.0
290
     0
  0
SCALE
  5
64
102
{ACAD_REACTORS
330
47
102
}
330
47
100
AcDbScale
 70
     0
300
1" = 1'-0"
140
1.0
141
12.0
290
     0
  0
SCALE
  5
65
102
{ACAD_REACTORS
330
47
102
}
330
47
100
AcDbScale
 70
     0
300
1-1/2" = 1'-0"
140
1.5
141
12.0
290
     0
  0
SCALE
  5
66
102
{ACAD_REACTORS
330
47
102
}
330
47
100
AcDbScale
 70
     0
300
3" = 1'-0"
140
3.0
141
12.0
290
     0
  0
SCALE
  5
67
102
{ACAD_REACTORS
330
47
102
}
330
47
100
AcDbScale
 70
     0
300
6" = 1'-0"
140
6.0
141
12.0
290
     0
  0
SCALE
  5
68
102
{ACAD_REACTORS
330
47
102
}
330
47
100
AcDbScale
 70
     0
300
1'-0" = 1'-0"
140
12.0
141
12.0
290
     0
  0
ENDSEC
  0
EOF
