  0
SECTION
  2
HEADER
  9
$ACADVER
  1
AC1015
  9
$ACADMAINTVER
 70
     6
  9
$DWGCODEPAGE
  3
ANSI_1252
  9
$INSBASE
 10
0.0
 20
0.0
 30
0.0
  9
$EXTMIN
 10
0.0
 20
0.0
 30
0.0
  9
$EXTMAX
 10
297.0
 20
210.0
 30
0.0
  9
$LIMMIN
 10
0.0
 20
0.0
  9
$LIMMAX
 10
297.0
 20
210.0
  9
$ORTHOMODE
 70
     0
  9
$REGENMODE
 70
     1
  9
$FILLMODE
 70
     1
  9
$QTEXTMODE
 70
     0
  9
$MIRRTEXT
 70
     1
  9
$LTSCALE
 40
1.0
  9
$ATTMODE
 70
     1
  9
$TEXTSIZE
 40
2.0
  9
$TRACEWID
 40
1.0
  9
$TEXTSTYLE
  7
Standard
  9
$CLAYER
  8
0
  9
$CELTYPE
  6
ByLayer
  9
$CECOLOR
 62
   256
  9
$CELTSCALE
 40
1.0
  9
$DISPSILH
 70
     0
  9
$DIMSCALE
 40
1.0
  9
$DIMASZ
 40
3.0
  9
$DIMEXO
 40
0.0
  9
$DIMDLI
 40
3.75
  9
$DIMRND
 40
0.0
  9
$DIMDLE
 40
0.0
  9
$DIMEXE
 40
1.0
  9
$DIMTP
 40
0.0
  9
$DIMTM
 40
0.0
  9
$DIMTXT
 40
2.0
  9
$DIMCEN
 40
2.5
  9
$DIMTSZ
 40
0.0
  9
$DIMTOL
 70
     0
  9
$DIMLIM
 70
     0
  9
$DIMTIH
 70
     1
  9
$DIMTOH
 70
     1
  9
$DIMSE1
 70
     0
  9
$DIMSE2
 70
     0
  9
$DIMTAD
 70
     1
  9
$DIMZIN
 70
     0
  9
$DIMBLK
  1

  9
$DIMASO
 70
     1
  9
$DIMSHO
 70
     1
  9
$DIMPOST
  1

  9
$DIMAPOST
  1

  9
$DIMALT
 70
     0
  9
$DIMALTD
 70
     3
  9
$DIMALTF
 40
0.0393700787
  9
$DIMLFAC
 40
1.0
  9
$DIMTOFL
 70
     1
  9
$DIMTVP
 40
0.0
  9
$DIMTIX
 70
     0
  9
$DIMSOXD
 70
     0
  9
$DIMSAH
 70
     0
  9
$DIMBLK1
  1

  9
$DIMBLK2
  1

  9
$DIMSTYLE
  2
ISO-25
  9
$DIMCLRD
 70
     0
  9
$DIMCLRE
 70
     0
  9
$DIMCLRT
 70
     0
  9
$DIMTFAC
 40
1.0
  9
$DIMGAP
 40
1.524
  9
$DIMJUST
 70
     0
  9
$DIMSD1
 70
     0
  9
$DIMSD2
 70
     0
  9
$DIMTOLJ
 70
     0
  9
$DIMTZIN
 70
     0
  9
$DIMALTZ
 70
     0
  9
$DIMALTTZ
 70
     0
  9
$DIMUPT
 70
     0
  9
$DIMDEC
 70
     2
  9
$DIMTDEC
 70
     3
  9
$DIMALTU
 70
     2
  9
$DIMALTTD
 70
     3
  9
$DIMTXSTY
  7
Standard
  9
$DIMAUNIT
 70
     0
  9
$DIMADEC
 70
     2
  9
$DIMALTRND
 40
0.0
  9
$DIMAZIN
 70
     0
  9
$DIMDSEP
 70
    44
  9
$DIMATFIT
 70
     3
  9
$DIMFRAC
 70
     0
  9
$DIMLDRBLK
  1

  9
$DIMLUNIT
 70
     2
  9
$DIMLWD
 70
    -2
  9
$DIMLWE
 70
    -2
  9
$DIMTMOVE
 70
     0
  9
$LUNITS
 70
     2
  9
$LUPREC
 70
     2
  9
$SKETCHINC
 40
1.0
  9
$FILLETRAD
 40
10.0
  9
$AUNITS
 70
     0
  9
$AUPREC
 70
     2
  9
$MENU
  1
.
  9
$ELEVATION
 40
0.0
  9
$PELEVATION
 40
0.0
  9
$THICKNESS
 40
0.0
  9
$LIMCHECK
 70
     0
  9
$CHAMFERA
 40
0.0
  9
$CHAMFERB
 40
0.0
  9
$CHAMFERC
 40
0.0
  9
$CHAMFERD
 40
0.0
  9
$SKPOLY
 70
     0
  9
$TDCREATE
 40
2457668.439684352
  9
$TDUCREATE
 40
2457668.356351018
  9
$TDUPDATE
 40
2457668.439685787
  9
$TDUUPDATE
 40
2457668.356352454
  9
$TDINDWG
 40
0.0000000116
  9
$TDUSRTIMER
 40
0.0000000116
  9
$USRTIMER
 70
     1
  9
$ANGBASE
 50
0.0
  9
$ANGDIR
 70
     0
  9
$PDMODE
 70
     0
  9
$PDSIZE
 40
-1.0
  9
$PLINEWID
 40
0.0
  9
$SPLFRAME
 70
     0
  9
$SPLINETYPE
 70
     6
  9
$SPLINESEGS
 70
     8
  9
$HANDSEED
  5
2D2
  9
$SURFTAB1
 70
     6
  9
$SURFTAB2
 70
     6
  9
$SURFTYPE
 70
     6
  9
$SURFU
 70
     6
  9
$SURFV
 70
     6
  9
$UCSBASE
  2

  9
$UCSNAME
  2

  9
$UCSORG
 10
0.0
 20
0.0
 30
0.0
  9
$UCSXDIR
 10
1.0
 20
0.0
 30
0.0
  9
$UCSYDIR
 10
0.0
 20
1.0
 30
0.0
  9
$UCSORTHOREF
  2

  9
$UCSORTHOVIEW
 70
     0
  9
$UCSORGTOP
 10
0.0
 20
0.0
 30
0.0
  9
$UCSORGBOTTOM
 10
0.0
 20
0.0
 30
0.0
  9
$UCSORGLEFT
 10
0.0
 20
0.0
 30
0.0
  9
$UCSORGRIGHT
 10
0.0
 20
0.0
 30
0.0
  9
$UCSORGFRONT
 10
0.0
 20
0.0
 30
0.0
  9
$UCSORGBACK
 10
0.0
 20
0.0
 30
0.0
  9
$PUCSBASE
  2

  9
$PUCSNAME
  2

  9
$PUCSORG
 10
0.0
 20
0.0
 30
0.0
  9
$PUCSXDIR
 10
1.0
 20
0.0
 30
0.0
  9
$PUCSYDIR
 10
0.0
 20
1.0
 30
0.0
  9
$PUCSORTHOREF
  2

  9
$PUCSORTHOVIEW
 70
     0
  9
$PUCSORGTOP
 10
0.0
 20
0.0
 30
0.0
  9
$PUCSORGBOTTOM
 10
0.0
 20
0.0
 30
0.0
  9
$PUCSORGLEFT
 10
0.0
 20
0.0
 30
0.0
  9
$PUCSORGRIGHT
 10
0.0
 20
0.0
 30
0.0
  9
$PUCSORGFRONT
 10
0.0
 20
0.0
 30
0.0
  9
$PUCSORGBACK
 10
0.0
 20
0.0
 30
0.0
  9
$USERI1
 70
     0
  9
$USERI2
 70
     0
  9
$USERI3
 70
     0
  9
$USERI4
 70
     0
  9
$USERI5
 70
     0
  9
$USERR1
 40
0.0
  9
$USERR2
 40
0.0
  9
$USERR3
 40
0.0
  9
$USERR4
 40
0.0
  9
$USERR5
 40
0.0
  9
$WORLDVIEW
 70
     1
  9
$SHADEDGE
 70
     3
  9
$SHADEDIF
 70
    70
  9
$TILEMODE
 70
     1
  9
$MAXACTVP
 70
    64
  9
$PINSBASE
 10
0.0
 20
0.0
 30
0.0
  9
$PLIMCHECK
 70
     0
  9
$PEXTMIN
 10
1.0000000000E+20
 20
1.0000000000E+20
 30
1.0000000000E+20
  9
$PEXTMAX
 10
-1.0000000000E+20
 20
-1.0000000000E+20
 30
-1.0000000000E+20
  9
$PLIMMIN
 10
0.0
 20
0.0
  9
$PLIMMAX
 10
420.0
 20
297.0
  9
$UNITMODE
 70
     0
  9
$VISRETAIN
 70
     1
  9
$PLINEGEN
 70
     0
  9
$PSLTSCALE
 70
     1
  9
$TREEDEPTH
 70
  3020
  9
$CMLSTYLE
  2
Standard
  9
$CMLJUST
 70
     0
  9
$CMLSCALE
 40
20.0
  9
$PROXYGRAPHICS
 70
     1
  9
$MEASUREMENT
 70
     1
  9
$CELWEIGHT
370
    -1
  9
$ENDCAPS
280
     0
  9
$JOINSTYLE
280
     0
  9
$LWDISPLAY
290
     1
  9
$INSUNITS
 70
     4
  9
$HYPERLINKBASE
  1

  9
$STYLESHEET
  1

  9
$XEDIT
290
     1
  9
$CEPSNTYPE
380
     0
  9
$PSTYLEMODE
290
     1
  9
$FINGERPRINTGUID
  2
{00F37556-BC39-4559-9F9B-18D45FE9D337}
  9
$VERSIONGUID
  2
{FAEB1C32-E019-11D5-929B-00C0DF256EC4}
  9
$EXTNAMES
290
     1
  9
$PSVPSCALE
 40
0.0
  9
$OLESTARTUP
290
     0
  0
ENDSEC
  0
SECTION
  2
CLASSES
  0
CLASS
  1
ACDBDICTIONARYWDFLT
  2
AcDbDictionaryWithDefault
  3
ObjectDBX Classes
 90
        0
280
     0
281
     0
  0
CLASS
  1
VISUALSTYLE
  2
AcDbVisualStyle
  3
ObjectDBX Classes
 90
     4095
280
     0
281
     0
  0
CLASS
  1
MATERIAL
  2
AcDbMaterial
  3
ObjectDBX Classes
 90
     1153
280
     0
281
     0
  0
CLASS
  1
SCALE
  2
AcDbScale
  3
ObjectDBX Classes
 90
     1153
280
     0
281
     0
  0
CLASS
  1
TABLESTYLE
  2
AcDbTableStyle
  3
ObjectDBX Classes
 90
     4095
280
     0
281
     0
  0
CLASS
  1
MLEADERSTYLE
  2
AcDbMLeaderStyle
  3
ACDB_MLEADERSTYLE_CLASS
 90
     4095
280
     0
281
     0
  0
CLASS
  1
SUN
  2
AcDbSun
  3
SCENEOE
 90
     1153
280
     0
281
     0
  0
CLASS
  1
ACDBPLACEHOLDER
  2
AcDbPlaceHolder
  3
ObjectDBX Classes
 90
        0
280
     0
281
     0
  0
CLASS
  1
LAYOUT
  2
AcDbLayout
  3
ObjectDBX Classes
 90
        0
280
     0
281
     0
  0
ENDSEC
  0
SECTION
  2
TABLES
  0
TABLE
  2
VPORT
  5
8
330
0
100
AcDbSymbolTable
 70
     1
  0
VPORT
  5
29
330
8
100
AcDbSymbolTableRecord
100
AcDbViewportTableRecord
  2
*Active
 70
     0
 10
0.0
 20
0.0
 11
1.0
 21
1.0
 12
148.5
 22
105.0
 13
0.0
 23
0.0
 14
10.0
 24
10.0
 15
10.0
 25
10.0
 16
0.0
 26
0.0
 36
1.0
 17
0.0
 27
0.0
 37
0.0
 40
210.0
 41
1.4142857143
 42
50.0
 43
0.0
 44
0.0
 50
0.0
 51
0.0
 71
     0
 72
  2000
 73
     1
 74
     3
 75
     0
 76
     0
 77
     0
 78
     0
281
     0
 65
     1
110
0.0
120
0.0
130
0.0
111
1.0
121
0.0
131
0.0
112
0.0
122
1.0
132
0.0
 79
     0
146
0.0
  0
ENDTAB
  0
TABLE
  2
LTYPE
  5
5
330
0
100
AcDbSymbolTable
 70
     6
  0
LTYPE
  5
14
330
5
100
AcDbSymbolTableRecord
100
AcDbLinetypeTableRecord
  2
ByBlock
 70
     0
  3

 72
    65
 73
     0
 40
0.0
  0
LTYPE
  5
15
330
5
100
AcDbSymbolTableRecord
100
AcDbLinetypeTableRecord
  2
ByLayer
 70
     0
  3

 72
    65
 73
     0
 40
0.0
  0
LTYPE
  5
16
330
5
100
AcDbSymbolTableRecord
100
AcDbLinetypeTableRecord
  2
Continuous
 70
     0
  3
Solid line
 72
    65
 73
     0
 40
0.0
  0
LTYPE
  5
6E
330
5
100
AcDbSymbolTableRecord
100
AcDbLinetypeTableRecord
  2
HIDDEN
 70
     0
  3
Hidden __ __ __ __ __ __ __ __ __ __ __ __ __ __
 72
    65
 73
     2
 40
1.905
 49
1.27
 74
     0
 49
-0.635
 74
     0
  0
LTYPE
  5
6F
330
5
100
AcDbSymbolTableRecord
100
AcDbLinetypeTableRecord
  2
PHANTOM
 70
     0
  3
Phantom ______  __  __  ______  __  __  ______
 72
    65
 73
     6
 40
12.7
 49
6.35
 74
     0
 49
-1.27
 74
     0
 49
1.27
 74
     0
 49
-1.27
 74
     0
 49
1.27
 74
     0
 49
-1.27
 74
     0
  0
LTYPE
  5
70
330
5
100
AcDbSymbolTableRecord
100
AcDbLinetypeTableRecord
  2
CENTER
 70
     0
  3
Center ____ _ ____ _ ____ _ ____ _ ____ _ ____
 72
    65
 73
     4
 40
10.16
 49
6.35
 74
     0
 49
-1.27
 74
     0
 49
1.27
 74
     0
 49
-1.27
 74
     0
  0
LTYPE
  5
71
330
5
100
AcDbSymbolTableRecord
100
AcDbLinetypeTableRecord
  2
CENTERX2
 70
     0
  3
Center (2x) ________  __  ________  __  _____
 72
    65
 73
     4
 40
20.32
 49
12.7
 74
     0
 49
-2.54
 74
     0
 49
2.54
 74
     0
 49
-2.54
 74
     0
  0
LTYPE
  5
72
330
5
100
AcDbSymbolTableRecord
100
AcDbLinetypeTableRecord
  2
DOT2
 70
     0
  3
Dot (.5x) ........................................
 72
    65
 73
     2
 40
0.635
 49
0.0
 74
     0
 49
-0.635
 74
     0
  0
ENDTAB
  0
TABLE
  2
LAYER
  5
2
330
0
100
AcDbSymbolTable
 70
     5
  0
LAYER
  5
10
330
2
100
AcDbSymbolTableRecord
100
AcDbLayerTableRecord
  2
0
 70
     0
 62
     7
  6
Continuous
370
    -3
390
F
  0
LAYER
  5
73
330
2
100
AcDbSymbolTableRecord
100
AcDbLayerTableRecord
  2
FORMAT
 70
     0
 62
     7
  6
Continuous
370
    -3
390
F
  0
LAYER
  5
74
330
2
100
AcDbSymbolTableRecord
100
AcDbLayerTableRecord
  2
VERMASSUNG
 70
     0
 62
     7
  6
Continuous
370
    -3
390
F
  0
LAYER
  5
75
330
2
100
AcDbSymbolTableRecord
100
AcDbLayerTableRecord
  2
KOPF_DÜNN
 70
     0
 62
     7
  6
Continuous
370
    -3
390
F
  0
LAYER
  5
76
330
2
100
AcDbSymbolTableRecord
100
AcDbLayerTableRecord
  2
KOPF_DICK
 70
     0
 62
     7
  6
Continuous
370
    15
390
F
  0
ENDTAB
  0
TABLE
  2
STYLE
  5
3
330
0
100
AcDbSymbolTable
 70
     2
  0
STYLE
  5
11
330
3
100
AcDbSymbolTableRecord
100
AcDbTextStyleTableRecord
  2
Standard
 70
     0
 40
0.0
 41
1.0
 50
0.0
 71
     0
 42
2.0
  3
txt
  4

  0
STYLE
  5
77
330
3
100
AcDbSymbolTableRecord
100
AcDbTextStyleTableRecord
  2
SLDTEXTSTYLE0
 70
     0
 40
0.0
 41
0.7
 50
0.0
 71
     0
 42
2.0
  3
TXT
  4

  0
ENDTAB
  0
TABLE
  2
VIEW
  5
6
330
0
100
AcDbSymbolTable
 70
     0
  0
ENDTAB
  0
TABLE
  2
UCS
  5
7
330
0
100
AcDbSymbolTable
 70
     0
  0
ENDTAB
  0
TABLE
  2
APPID
  5
9
330
0
100
AcDbSymbolTable
 70
     1
  0
APPID
  5
12
330
9
100
AcDbSymbolTableRecord
100
AcDbRegAppTableRecord
  2
ACAD
 70
     0
  0
ENDTAB
  0
TABLE
  2
DIMSTYLE
  5
A
330
0
100
AcDbSymbolTable
 70
     2
100
AcDbDimStyleTable
  0
DIMSTYLE
105
27
330
A
100
AcDbSymbolTableRecord
100
AcDbDimStyleTableRecord
  2
ISO-25
 70
     0
 41
2.5
 42
0.625
 43
3.75
 44
1.25
 73
     0
 74
     0
 77
     1
 78
     8
140
2.5
141
2.5
143
0.0393700787
147
0.625
171
     3
172
     1
178
     0
271
     2
272
     2
274
     3
278
    44
283
     0
284
     8
340
11
  0
DIMSTYLE
105
1CB
102
{ACAD_REACTORS
330
1CA
330
1D7
330
1E2
330
1EE
330
1F8
330
204
102
}
330
A
100
AcDbSymbolTableRecord
100
AcDbDimStyleTableRecord
  2
SLDDIMSTYLE0
 70
     0
 41
3.0
 44
0.0
 45
0.000000001
 73
     0
 74
     0
 77
     1
 78
    12
 79
     3
140
2.0
147
0.5
173
     1
178
     0
271
     2
272
     3
276
     2
284
    12
340
77
  0
ENDTAB
  0
TABLE
  2
BLOCK_RECORD
  5
1
330
0
100
AcDbSymbolTable
 70
     7
  0
BLOCK_RECORD
  5
1F
330
1
100
AcDbSymbolTableRecord
100
AcDbBlockTableRecord
  2
*Model_Space
340
22
  0
BLOCK_RECORD
  5
1B
330
1
100
AcDbSymbolTableRecord
100
AcDbBlockTableRecord
  2
*Paper_Space
340
1E
  0
BLOCK_RECORD
  5
23
330
1
100
AcDbSymbolTableRecord
100
AcDbBlockTableRecord
  2
*Paper_Space0
340
26
  0
BLOCK_RECORD
  5
1CC
330
1
100
AcDbSymbolTableRecord
100
AcDbBlockTableRecord
  2
_D
340
0
  0
BLOCK_RECORD
  5
1D8
330
1
100
AcDbSymbolTableRecord
100
AcDbBlockTableRecord
  2
_D_1
340
0
  0
BLOCK_RECORD
  5
1E3
330
1
100
AcDbSymbolTableRecord
100
AcDbBlockTableRecord
  2
_D_2
340
0
  0
BLOCK_RECORD
  5
1EF
330
1
100
AcDbSymbolTableRecord
100
AcDbBlockTableRecord
  2
_D_3
340
0
  0
BLOCK_RECORD
  5
1F9
330
1
100
AcDbSymbolTableRecord
100
AcDbBlockTableRecord
  2
_D_4
340
0
  0
BLOCK_RECORD
  5
205
330
1
100
AcDbSymbolTableRecord
100
AcDbBlockTableRecord
  2
_D_5
340
0
  0
ENDTAB
  0
ENDSEC
  0
SECTION
  2
BLOCKS
  0
BLOCK
  5
20
330
1F
100
AcDbEntity
  8
0
100
AcDbBlockBegin
  2
*Model_Space
 70
     0
 10
0.0
 20
0.0
 30
0.0
  3
*Model_Space
  1

  0
ENDBLK
  5
21
330
1F
100
AcDbEntity
  8
0
100
AcDbBlockEnd
  0
BLOCK
  5
1C
330
1B
100
AcDbEntity
 67
     1
  8
0
100
AcDbBlockBegin
  2
*Paper_Space
 70
     0
 10
0.0
 20
0.0
 30
0.0
  3
*Paper_Space
  1

  0
ENDBLK
  5
1D
330
1B
100
AcDbEntity
 67
     1
  8
0
100
AcDbBlockEnd
  0
BLOCK
  5
24
330
23
100
AcDbEntity
  8
0
100
AcDbBlockBegin
  2
*Paper_Space0
 70
     0
 10
0.0
 20
0.0
 30
0.0
  3
*Paper_Space0
  1

  0
ENDBLK
  5
25
330
23
100
AcDbEntity
  8
0
100
AcDbBlockEnd
  0
BLOCK
  5
1CD
330
1CC
100
AcDbEntity
  8
0
100
AcDbBlockBegin
  2
_D
 70
     0
 10
0.0
 20
0.0
 30
0.0
  3
_D
  1

  0
SOLID
  5
1CF
330
1CC
100
AcDbEntity
  8
VERMASSUNG
100
AcDbTrace
 10
71.8679852084
 20
59.6976197252
 30
0.0
 11
72.3179852084
 21
62.6976197252
 31
0.0
 12
71.4179852084
 22
62.6976197252
 32
0.0
 13
71.4179852084
 23
62.6976197252
 33
0.0
  0
SOLID
  5
1D0
330
1CC
100
AcDbEntity
  8
VERMASSUNG
100
AcDbTrace
 10
71.8679852084
 20
157.1476197252
 30
0.0
 11
71.4179852084
 21
154.1476197252
 31
0.0
 12
72.3179852084
 22
154.1476197252
 32
0.0
 13
72.3179852084
 23
154.1476197252
 33
0.0
  0
LINE
  5
1D1
330
1CC
100
AcDbEntity
  8
VERMASSUNG
100
AcDbLine
 10
196.1014110525
 20
59.6976197252
 30
0.0
 11
70.8679852084
 21
59.6976197252
 31
0.0
  0
LINE
  5
1D2
330
1CC
100
AcDbEntity
  8
VERMASSUNG
100
AcDbLine
 10
196.1014110525
 20
157.1476197252
 30
0.0
 11
70.8679852084
 21
157.1476197252
 31
0.0
  0
LINE
  5
1D3
330
1CC
100
AcDbEntity
  8
VERMASSUNG
100
AcDbLine
 10
71.8679852084
 20
59.6976197252
 30
0.0
 11
71.8679852084
 21
157.1476197252
 31
0.0
  0
MTEXT
  5
1D4
330
1CC
100
AcDbEntity
  8
VERMASSUNG
100
AcDbMText
 10
69.0898499522
 20
98.9181840919
 30
0.0
 40
2.0
 41
0.0
 71
     1
 72
     1
  1
ISO 50
  7
SLDTEXTSTYLE0
 11
3.391901413832837E-15
 21
1.0
 31
0.0
 73
     1
 44
1.0
  0
MTEXT
  5
1D5
330
1CC
100
AcDbEntity
  8
VERMASSUNG
100
AcDbMText
 10
69.2898499035
 20
107.9181837044
 30
0.0
 40
2.0
 41
0.0
 71
     1
 72
     1
  1
%%c
  7
SLDTEXTSTYLE0
 11
3.391901413832837E-15
 21
1.0
 31
0.0
 73
     1
 44
1.0
  0
MTEXT
  5
1D6
330
1CC
100
AcDbEntity
  8
VERMASSUNG
100
AcDbMText
 10
69.2898496125
 20
111.5275270373
 30
0.0
 40
2.0
 41
0.0
 71
     1
 72
     1
  1
97.45
  7
SLDTEXTSTYLE0
 11
3.391901413832837E-15
 21
1.0
 31
0.0
 73
     1
 44
1.0
  0
ENDBLK
  5
1CE
330
1CC
100
AcDbEntity
  8
0
100
AcDbBlockEnd
  0
BLOCK
  5
1D9
330
1D8
100
AcDbEntity
  8
0
100
AcDbBlockBegin
  2
_D_1
 70
     0
 10
0.0
 20
0.0
 30
0.0
  3
_D_1
  1

  0
SOLID
  5
1DB
330
1D8
100
AcDbEntity
  8
VERMASSUNG
100
AcDbTrace
 10
234.5670466183
 20
117.4226197252
 30
0.0
 11
234.1170466183
 21
114.4226197252
 31
0.0
 12
235.0170466183
 22
114.4226197252
 32
0.0
 13
235.0170466183
 23
114.4226197252
 33
0.0
  0
SOLID
  5
1DC
330
1D8
100
AcDbEntity
  8
VERMASSUNG
100
AcDbTrace
 10
234.5670466183
 20
99.4226197252
 30
0.0
 11
235.0170466183
 21
102.4226197252
 31
0.0
 12
234.1170466183
 22
102.4226197252
 32
0.0
 13
234.1170466183
 23
102.4226197252
 33
0.0
  0
LINE
  5
1DD
330
1D8
100
AcDbEntity
  8
VERMASSUNG
100
AcDbLine
 10
218.7514110525
 20
117.4226197252
 30
0.0
 11
235.5670466183
 21
117.4226197252
 31
0.0
  0
LINE
  5
1DE
330
1D8
100
AcDbEntity
  8
VERMASSUNG
100
AcDbLine
 10
218.7514110525
 20
99.4226197252
 30
0.0
 11
235.5670466183
 21
99.4226197252
 31
0.0
  0
LINE
  5
1DF
330
1D8
100
AcDbEntity
  8
VERMASSUNG
100
AcDbLine
 10
234.5670466183
 20
117.4226197252
 30
0.0
 11
234.5670466183
 21
99.4226197252
 31
0.0
  0
MTEXT
  5
1E0
330
1D8
100
AcDbEntity
  8
VERMASSUNG
100
AcDbMText
 10
231.9889110805
 20
105.4191871815
 30
0.0
 40
2.0
 41
0.0
 71
     1
 72
     1
  1
%%c
  7
SLDTEXTSTYLE0
 11
-7.044195017643634E-15
 21
1.0
 31
0.0
 73
     1
 44
1.0
  0
MTEXT
  5
1E1
330
1D8
100
AcDbEntity
  8
VERMASSUNG
100
AcDbMText
 10
231.9889110223
 20
109.0281593751
 30
0.0
 40
2.0
 41
0.0
 71
     1
 72
     1
  1
18
  7
SLDTEXTSTYLE0
 11
-7.044195017643634E-15
 21
1.0
 31
0.0
 73
     1
 44
1.0
  0
ENDBLK
  5
1DA
330
1D8
100
AcDbEntity
  8
0
100
AcDbBlockEnd
  0
BLOCK
  5
1E4
330
1E3
100
AcDbEntity
  8
0
100
AcDbBlockBegin
  2
_D_2
 70
     0
 10
0.0
 20
0.0
 30
0.0
  3
_D_2
  1

  0
ARC
  5
1E6
330
1E3
100
AcDbEntity
  8
VERMASSUNG
100
AcDbCircle
 10
211.2882045644
 20
161.2420899792
 30
0.0
 40
4.247059938537386
100
AcDbArc
 50
153.4349488229
 51
206.5650511771
  0
ARC
  5
1E7
330
1E3
100
AcDbEntity
  8
VERMASSUNG
100
AcDbCircle
 10
213.0646175407
 20
161.2420899792
 30
0.0
 40
4.247059938537386
100
AcDbArc
 50
333.4349488229
 51
26.5650511771
  0
SOLID
  5
1E8
330
1E3
100
AcDbEntity
  8
VERMASSUNG
100
AcDbTrace
 10
196.7014110525
 20
159.3427470338
 30
0.0
 11
199.7014110525
 21
158.8927470338
 31
0.0
 12
199.7014110525
 22
159.7927470338
 32
0.0
 13
199.7014110525
 23
159.7927470338
 33
0.0
  0
SOLID
  5
1E9
330
1E3
100
AcDbEntity
  8
VERMASSUNG
100
AcDbTrace
 10
227.6514110525
 20
159.3427470338
 30
0.0
 11
224.6514110525
 21
159.7927470338
 31
0.0
 12
224.6514110525
 22
158.8927470338
 32
0.0
 13
224.6514110525
 23
158.8927470338
 33
0.0
  0
LINE
  5
1EA
330
1E3
100
AcDbEntity
  8
VERMASSUNG
100
AcDbLine
 10
196.7014110525
 20
154.7176066785
 30
0.0
 11
196.7014110525
 21
160.3427470338
 31
0.0
  0
LINE
  5
1EB
330
1E3
100
AcDbEntity
  8
VERMASSUNG
100
AcDbLine
 10
227.6514110525
 20
124.1226197252
 30
0.0
 11
227.6514110525
 21
160.3427470338
 31
0.0
  0
LINE
  5
1EC
330
1E3
100
AcDbEntity
  8
VERMASSUNG
100
AcDbLine
 10
196.7014110525
 20
159.3427470338
 30
0.0
 11
227.6514110525
 21
159.3427470338
 31
0.0
  0
MTEXT
  5
1ED
330
1E3
100
AcDbEntity
  8
VERMASSUNG
100
AcDbMText
 10
209.0770186736
 20
161.9208826298
 30
0.0
 40
2.0
 41
0.0
 71
     1
 72
     1
  1
30.95
  7
SLDTEXTSTYLE0
 73
     1
 44
1.0
  0
ENDBLK
  5
1E5
330
1E3
100
AcDbEntity
  8
0
100
AcDbBlockEnd
  0
BLOCK
  5
1F0
330
1EF
100
AcDbEntity
  8
0
100
AcDbBlockBegin
  2
_D_3
 70
     0
 10
0.0
 20
0.0
 30
0.0
  3
_D_3
  1

  0
SOLID
  5
1F2
330
1EF
100
AcDbEntity
  8
VERMASSUNG
100
AcDbTrace
 10
177.6514110525
 20
165.3427470338
 30
0.0
 11
180.6514110525
 21
164.8927470338
 31
0.0
 12
180.6514110525
 22
165.7927470338
 32
0.0
 13
180.6514110525
 23
165.7927470338
 33
0.0
  0
SOLID
  5
1F3
330
1EF
100
AcDbEntity
  8
VERMASSUNG
100
AcDbTrace
 10
227.6514110525
 20
165.3427470338
 30
0.0
 11
224.6514110525
 21
165.7927470338
 31
0.0
 12
224.6514110525
 22
164.8927470338
 32
0.0
 13
224.6514110525
 23
164.8927470338
 33
0.0
  0
LINE
  5
1F4
330
1EF
100
AcDbEntity
  8
VERMASSUNG
100
AcDbLine
 10
177.6514110525
 20
143.3476197252
 30
0.0
 11
177.6514110525
 21
166.3427470338
 31
0.0
  0
LINE
  5
1F5
330
1EF
100
AcDbEntity
  8
VERMASSUNG
100
AcDbLine
 10
227.6514110525
 20
124.1226197252
 30
0.0
 11
227.6514110525
 21
166.3427470338
 31
0.0
  0
LINE
  5
1F6
330
1EF
100
AcDbEntity
  8
VERMASSUNG
100
AcDbLine
 10
177.6514110525
 20
165.3427470338
 30
0.0
 11
227.6514110525
 21
165.3427470338
 31
0.0
  0
MTEXT
  5
1F7
330
1EF
100
AcDbEntity
  8
VERMASSUNG
100
AcDbMText
 10
201.2517210422
 20
167.9208826298
 30
0.0
 40
2.0
 41
0.0
 71
     1
 72
     1
  1
50
  7
SLDTEXTSTYLE0
 73
     1
 44
1.0
  0
ENDBLK
  5
1F1
330
1EF
100
AcDbEntity
  8
0
100
AcDbBlockEnd
  0
BLOCK
  5
1FA
330
1F9
100
AcDbEntity
  8
0
100
AcDbBlockBegin
  2
_D_4
 70
     0
 10
0.0
 20
0.0
 30
0.0
  3
_D_4
  1

  0
ARC
  5
1FC
330
1F9
100
AcDbEntity
  8
VERMASSUNG
100
AcDbCircle
 10
151.3635887044
 20
173.2420899792
 30
0.0
 40
4.247059938537233
100
AcDbArc
 50
153.4349488229
 51
206.5650511771
  0
ARC
  5
1FD
330
1F9
100
AcDbEntity
  8
VERMASSUNG
100
AcDbCircle
 10
152.3392334006
 20
173.2420899792
 30
0.0
 40
4.247059938537233
100
AcDbArc
 50
333.4349488229
 51
26.5650511771
  0
SOLID
  5
1FE
330
1F9
100
AcDbEntity
  8
VERMASSUNG
100
AcDbTrace
 10
76.0514110525
 20
171.3427470338
 30
0.0
 11
79.0514110525
 21
170.8927470338
 31
0.0
 12
79.0514110525
 22
171.7927470338
 32
0.0
 13
79.0514110525
 23
171.7927470338
 33
0.0
  0
SOLID
  5
1FF
330
1F9
100
AcDbEntity
  8
VERMASSUNG
100
AcDbTrace
 10
227.6514110525
 20
171.3427470338
 30
0.0
 11
224.6514110525
 21
171.7927470338
 31
0.0
 12
224.6514110525
 22
170.8927470338
 32
0.0
 13
224.6514110525
 23
170.8927470338
 33
0.0
  0
LINE
  5
200
330
1F9
100
AcDbEntity
  8
VERMASSUNG
100
AcDbLine
 10
76.0514110525
 20
126.8014642526
 30
0.0
 11
76.0514110525
 21
172.3427470338
 31
0.0
  0
LINE
  5
201
330
1F9
100
AcDbEntity
  8
VERMASSUNG
100
AcDbLine
 10
227.6514110525
 20
124.1226197252
 30
0.0
 11
227.6514110525
 21
172.3427470338
 31
0.0
  0
LINE
  5
202
330
1F9
100
AcDbEntity
  8
VERMASSUNG
100
AcDbLine
 10
76.0514110525
 20
171.3427470338
 30
0.0
 11
227.6514110525
 21
171.3427470338
 31
0.0
  0
MTEXT
  5
203
330
1F9
100
AcDbEntity
  8
VERMASSUNG
100
AcDbMText
 10
149.1524028136
 20
173.9208826298
 30
0.0
 40
2.0
 41
0.0
 71
     1
 72
     1
  1
151.6
  7
SLDTEXTSTYLE0
 73
     1
 44
1.0
  0
ENDBLK
  5
1FB
330
1F9
100
AcDbEntity
  8
0
100
AcDbBlockEnd
  0
BLOCK
  5
206
330
205
100
AcDbEntity
  8
0
100
AcDbBlockBegin
  2
_D_5
 70
     0
 10
0.0
 20
0.0
 30
0.0
  3
_D_5
  1

  0
SOLID
  5
208
330
205
100
AcDbEntity
  8
VERMASSUNG
100
AcDbTrace
 10
240.5670466183
 20
124.4226197252
 30
0.0
 11
240.1170466183
 21
121.4226197252
 31
0.0
 12
241.0170466183
 22
121.4226197252
 32
0.0
 13
241.0170466183
 23
121.4226197252
 33
0.0
  0
SOLID
  5
209
330
205
100
AcDbEntity
  8
VERMASSUNG
100
AcDbTrace
 10
240.5670466183
 20
92.4226197252
 30
0.0
 11
241.0170466183
 21
95.4226197252
 31
0.0
 12
240.1170466183
 22
95.4226197252
 32
0.0
 13
240.1170466183
 23
95.4226197252
 33
0.0
  0
LINE
  5
20A
330
205
100
AcDbEntity
  8
VERMASSUNG
100
AcDbLine
 10
227.3514110525
 20
124.4226197252
 30
0.0
 11
241.5670466183
 21
124.4226197252
 31
0.0
  0
LINE
  5
20B
330
205
100
AcDbEntity
  8
VERMASSUNG
100
AcDbLine
 10
227.3514110525
 20
92.4226197252
 30
0.0
 11
241.5670466183
 21
92.4226197252
 31
0.0
  0
LINE
  5
20C
330
205
100
AcDbEntity
  8
VERMASSUNG
100
AcDbLine
 10
240.5670466183
 20
124.4226197252
 30
0.0
 11
240.5670466183
 21
92.4226197252
 31
0.0
  0
MTEXT
  5
20D
330
205
100
AcDbEntity
  8
VERMASSUNG
100
AcDbMText
 10
237.7889113621
 20
102.3176205034
 30
0.0
 40
2.0
 41
0.0
 71
     1
 72
     1
  1
ST3
  7
SLDTEXTSTYLE0
 11
-7.044195017643634E-15
 21
1.0
 31
0.0
 73
     1
 44
1.0
  0
MTEXT
  5
20E
330
205
100
AcDbEntity
  8
VERMASSUNG
100
AcDbMText
 10
237.9889113134
 20
108.1176204296
 30
0.0
 40
2.0
 41
0.0
 71
     1
 72
     1
  1
%%c
  7
SLDTEXTSTYLE0
 11
-7.044195017643634E-15
 21
1.0
 31
0.0
 73
     1
 44
1.0
  0
MTEXT
  5
20F
330
205
100
AcDbEntity
  8
VERMASSUNG
100
AcDbMText
 10
237.7889113621
 20
111.7276199783
 30
0.0
 40
2.0
 41
0.0
 71
     1
 72
     1
  1
32
  7
SLDTEXTSTYLE0
 11
-7.044195017643634E-15
 21
1.0
 31
0.0
 73
     1
 44
1.0
  0
ENDBLK
  5
207
330
205
100
AcDbEntity
  8
0
100
AcDbBlockEnd
  0
ENDSEC
  0
SECTION
  2
ENTITIES
  0
MTEXT
  5
78
330
1F
100
AcDbEntity
  8
KOPF_DÜNN
100
AcDbMText
 10
13.8892156294
 20
23.8442973028
 30
0.0
 40
3.0
 41
0.0
 71
     1
 72
     1
  1
124.450.032.050
  7
SLDTEXTSTYLE0
 73
     1
 44
1.0
  0
MTEXT
  5
79
330
1F
100
AcDbEntity
  8
VERMASSUNG
100
AcDbMText
 10
13.9329988022
 20
28.8834360957
 30
0.0
 40
3.0
 41
0.0
 71
     1
 72
     1
  1
Aufnahme_Master shank ST3
  7
SLDTEXTSTYLE0
 73
     1
 44
1.0
  0
MTEXT
  5
7A
330
1F
100
AcDbEntity
  8
VERMASSUNG
100
AcDbMText
 10
98.8601118557
 20
13.8365368761
 30
0.0
 40
2.0
 41
0.0
 71
     1
 72
     1
  1
Datum: 14.05.2008
  7
SLDTEXTSTYLE0
 73
     1
 44
1.0
  0
MTEXT
  5
7B
330
1F
100
AcDbEntity
  8
VERMASSUNG
100
AcDbMText
 10
13.933048693
 20
18.0482802738
 30
0.0
 40
2.0
 41
0.0
 71
     1
 72
     1
  1
DIN 69871 B ISO 50
  7
SLDTEXTSTYLE0
 73
     1
 44
1.0
  0
MTEXT
  5
7C
330
1F
100
AcDbEntity
  8
VERMASSUNG
100
AcDbMText
 10
13.9808475933
 20
13.9090974274
 30
0.0
 40
2.0
 41
0.0
 71
     1
 72
     1
  1
Gewicht: 2794g
  7
SLDTEXTSTYLE0
 73
     1
 44
1.0
  0
ARC
  5
7D
330
1F
100
AcDbEntity
  8
0
  6
Continuous
 62
     7
370
    15
100
AcDbCircle
 10
180.2514110525
 20
72.8976197252
 30
0.0
 40
0.6000000000000085
100
AcDbArc
 50
0.0
 51
90.0
  0
ARC
  5
7E
330
1F
100
AcDbEntity
  8
0
  6
Continuous
 62
     7
370
    15
100
AcDbCircle
 10
180.2514110525
 20
143.9476197252
 30
0.0
 40
0.5999999999999943
100
AcDbArc
 50
270.0
 51
0.0
  0
LINE
  5
7F
330
1F
100
AcDbEntity
  8
0
  6
Continuous
 62
     7
370
    15
100
AcDbLine
 10
177.6514110525
 20
73.4976208458
 30
0.0
 11
180.2514110596
 21
73.4976208458
 31
0.0
  0
LINE
  5
80
330
1F
100
AcDbEntity
  8
0
  6
Continuous
 62
     7
370
    15
100
AcDbLine
 10
180.2514110596
 20
143.3476186047
 30
0.0
 11
177.6514110525
 21
143.3476186047
 31
0.0
  0
LINE
  5
81
330
1F
100
AcDbEntity
  8
0
  6
Continuous
 62
     7
370
    15
100
AcDbLine
 10
177.6514110525
 20
143.3476186047
 30
0.0
 11
77.7627957423
 21
128.7805302689
 31
0.0
  0
LINE
  5
82
330
1F
100
AcDbEntity
  8
0
  6
Continuous
 62
     7
370
    15
100
AcDbLine
 10
77.7627957423
 20
88.0647091816
 30
0.0
 11
177.6514110525
 21
73.4976208458
 31
0.0
  0
ARC
  5
83
330
1F
100
AcDbEntity
  8
0
  6
Continuous
 62
     7
370
    15
100
AcDbCircle
 10
78.0514110525
 20
90.0437751978
 30
0.0
 40
1.999999999999992
100
AcDbArc
 50
180.0
 51
261.7028550302
  0
ARC
  5
84
330
1F
100
AcDbEntity
  8
0
  6
Continuous
 62
     7
370
    15
100
AcDbCircle
 10
78.0514110525
 20
126.8014642526
 30
0.0
 40
2.00000000000002
100
AcDbArc
 50
98.2971449698
 51
180.0
  0
ARC
  5
85
330
1F
100
AcDbEntity
  8
0
  6
Continuous
 62
     7
370
    15
100
AcDbCircle
 10
200.7014110525
 20
88.4226197252
 30
0.0
 40
4.0
100
AcDbArc
 50
90.0
 51
180.0
  0
ARC
  5
86
330
1F
100
AcDbEntity
  8
0
  6
Continuous
 62
     7
370
    15
100
AcDbCircle
 10
200.7014110525
 20
128.4226197252
 30
0.0
 40
4.0
100
AcDbArc
 50
180.0
 51
270.0
  0
LINE
  5
87
330
1F
100
AcDbEntity
  8
0
  6
Continuous
 62
     7
370
    15
100
AcDbLine
 10
227.3514104446
 20
124.4226204852
 30
0.0
 11
200.7014119436
 21
124.4226204852
 31
0.0
  0
LINE
  5
88
330
1F
100
AcDbEntity
  8
0
  6
Continuous
 62
     7
370
    15
100
AcDbLine
 10
200.7014119436
 20
92.4226189653
 30
0.0
 11
227.3514104446
 21
92.4226189653
 31
0.0
  0
LINE
  5
89
330
1F
100
AcDbEntity
  8
0
  6
Continuous
 62
     7
370
    15
100
AcDbLine
 10
227.3514104446
 20
92.4226189653
 30
0.0
 11
227.6514117976
 21
92.7226203183
 31
0.0
  0
LINE
  5
8A
330
1F
100
AcDbEntity
  8
0
  6
Continuous
 62
     7
370
    15
100
AcDbLine
 10
227.6514117976
 20
124.1226191322
 30
0.0
 11
227.3514104446
 21
124.4226204852
 31
0.0
  0
ARC
  5
8B
330
1F
100
AcDbEntity
  8
0
  6
Continuous
 62
     7
370
    15
100
AcDbCircle
 10
191.8514110525
 20
93.9568777633
 30
0.0
 40
2.000000000000008
100
AcDbArc
 50
192.215685934
 51
340.3453161116
  0
SPLINE
  5
8C
330
1F
100
AcDbEntity
  8
0
  6
Continuous
 62
     7
370
    15
100
AcDbSpline
210
0.0
220
0.0
230
1.0
 70
     8
 71
     3
 72
    11
 73
     7
 74
     0
 42
0.000000001
 43
0.00000001
 40
0.0
 40
0.0
 40
0.0
 40
0.0
 40
0.118336078649971
 40
0.4755407549177532
 40
0.8141719148608753
 40
1.0
 40
1.0
 40
1.0
 40
1.0
 10
219.1723791321079
 20
106.7445462957327
 30
0.0
 10
219.1265003445762
 20
106.7893824811471
 30
0.0
 10
218.9421336365832
 20
106.9695594288948
 30
0.0
 10
218.59377592954
 20
107.3099992214295
 30
0.0
 10
218.2105378924709
 20
107.6845273037619
 30
0.0
 10
218.0060844703411
 20
107.8843387593006
 30
0.0
 10
217.933641876773
 20
107.9551365963486
 30
0.0
  0
SPLINE
  5
8D
330
1F
100
AcDbEntity
  8
0
  6
Continuous
 62
     7
370
    15
100
AcDbSpline
210
0.0
220
0.0
230
1.0
 70
     8
 71
     3
 72
    10
 73
     6
 74
     0
 42
0.000000001
 43
0.00000001
 40
0.0
 40
0.0
 40
0.0
 40
0.0
 40
0.4391164104288561
 40
0.7513659959630724
 40
1.0
 40
1.0
 40
1.0
 40
1.0
 10
220.8401468952457
 20
107.2120293664117
 30
0.0
 10
220.6013931996976
 20
107.1451056153111
 30
0.0
 10
220.1928650645953
 20
107.0305933135498
 30
0.0
 10
219.5989958997661
 20
106.8641284216419
 30
0.0
 10
219.303409558092
 20
106.7812745682382
 30
0.0
 10
219.1723791321079
 20
106.7445462957327
 30
0.0
  0
SPLINE
  5
8E
330
1F
100
AcDbEntity
  8
0
  6
Continuous
 62
     7
370
    15
100
AcDbSpline
210
0.0
220
0.0
230
1.0
 70
     8
 71
     3
 72
    10
 73
     6
 74
     0
 42
0.000000001
 43
0.00000001
 40
0.0
 40
0.0
 40
0.0
 40
0.0
 40
0.4391162756924938
 40
0.7513666235518758
 40
1.0
 40
1.0
 40
1.0
 40
1.0
 10
221.2691811283389
 20
108.8901028541219
 30
0.0
 10
221.2077623103561
 20
108.6498737042757
 30
0.0
 10
221.1026693032304
 20
108.2388204703367
 30
0.0
 10
220.9498947516577
 20
107.6412817118089
 30
0.0
 10
220.8738546205948
 20
107.3438690272228
 30
0.0
 10
220.8401468952457
 20
107.2120293664117
 30
0.0
  0
SPLINE
  5
8F
330
1F
100
AcDbEntity
  8
0
  6
Continuous
 62
     7
370
    15
100
AcDbSpline
210
0.0
220
0.0
230
1.0
 70
     8
 71
     3
 72
    11
 73
     7
 74
     0
 42
0.000000001
 43
0.00000001
 40
0.0
 40
0.0
 40
0.0
 40
0.0
 40
0.1858294386030794
 40
0.5244606258918002
 40
0.881663911793995
 40
1.0
 40
1.0
 40
1.0
 40
1.0
 10
220.0304438730041
 20
110.1006931547378
 30
0.0
 10
220.102887810866
 20
110.0298954300198
 30
0.0
 10
220.3073440761312
 20
109.8300852207415
 30
0.0
 10
220.6905813932018
 20
109.4555568499295
 30
0.0
 10
221.0389360267637
 20
109.1151152873307
 30
0.0
 10
221.2233023096674
 20
108.9349390072101
 30
0.0
 10
221.2691811283389
 20
108.8901028541219
 30
0.0
  0
SPLINE
  5
90
330
1F
100
AcDbEntity
  8
0
  6
Continuous
 62
     7
370
    15
100
AcDbSpline
210
0.0
220
0.0
230
1.0
 70
     8
 71
     3
 72
    10
 73
     6
 74
     0
 42
0.000000001
 43
0.00000001
 40
0.0
 40
0.0
 40
0.0
 40
0.0
 40
0.4391174800566261
 40
0.7513664701182095
 40
1.0
 40
1.0
 40
1.0
 40
1.0
 10
218.362672384576
 20
109.6332100840588
 30
0.0
 10
218.6014273539432
 20
109.7001337361895
 30
0.0
 10
219.0099569313437
 20
109.8146456619328
 30
0.0
 10
219.6038270852042
 20
109.9811110545493
 30
0.0
 10
219.8994134408336
 20
110.0639648901321
 30
0.0
 10
220.0304438730041
 20
110.1006931547378
 30
0.0
  0
SPLINE
  5
91
330
1F
100
AcDbEntity
  8
0
  6
Continuous
 62
     7
370
    15
100
AcDbSpline
210
0.0
220
0.0
230
1.0
 70
     8
 71
     3
 72
    10
 73
     6
 74
     0
 42
0.000000001
 43
0.00000001
 40
0.0
 40
0.0
 40
0.0
 40
0.0
 40
0.4391164846525371
 40
0.7513669811009143
 40
0.9999999999999999
 40
0.9999999999999999
 40
0.9999999999999999
 40
0.9999999999999999
 10
217.933641876773
 20
107.9551365963486
 30
0.0
 10
217.9950605150723
 20
108.1953657839472
 30
0.0
 10
218.1001532147434
 20
108.6064190824839
 30
0.0
 10
218.252929384921
 20
109.2039572013129
 30
0.0
 10
218.3289661758045
 20
109.5013703555379
 30
0.0
 10
218.362672384576
 20
109.6332100840588
 30
0.0
  0
CIRCLE
  5
92
330
1F
100
AcDbEntity
  8
0
  6
Continuous
 62
     7
370
    15
100
AcDbCircle
 10
219.6014110525
 20
108.4226197252
 30
0.0
 40
1.900000000000021
  0
CIRCLE
  5
93
330
1F
100
AcDbEntity
  8
0
  6
Continuous
 62
     7
370
    15
100
AcDbCircle
 10
219.6014110525
 20
108.4226197252
 30
0.0
 40
2.600000000000033
  0
CIRCLE
  5
94
330
1F
100
AcDbEntity
  8
0
  6
Continuous
 62
     7
370
    15
100
AcDbCircle
 10
219.6014110525
 20
108.4226197252
 30
0.0
 40
3.00000000000003
  0
ARC
  5
95
330
1F
100
AcDbEntity
  8
0
  6
Continuous
 62
     7
370
    15
100
AcDbCircle
 10
219.6014110525
 20
108.4226197252
 30
0.0
 40
1.500000000000005
100
AcDbArc
 50
45.6584062424
 51
105.6584062424
  0
ARC
  5
96
330
1F
100
AcDbEntity
  8
0
  6
Continuous
 62
     7
370
    15
100
AcDbCircle
 10
219.6014110525
 20
108.4226197252
 30
0.0
 40
1.500000000000037
100
AcDbArc
 50
105.6584062424
 51
165.6584062424
  0
ARC
  5
97
330
1F
100
AcDbEntity
  8
0
  6
Continuous
 62
     7
370
    15
100
AcDbCircle
 10
219.6014110525
 20
108.4226197252
 30
0.0
 40
1.499999999999985
100
AcDbArc
 50
345.6584062424
 51
45.6584062424
  0
ARC
  5
98
330
1F
100
AcDbEntity
  8
0
  6
Continuous
 62
     7
370
    15
100
AcDbCircle
 10
219.6014110525
 20
108.4226197252
 30
0.0
 40
1.500000000000005
100
AcDbArc
 50
225.6584062424
 51
285.6584062424
  0
ARC
  5
99
330
1F
100
AcDbEntity
  8
0
  6
Continuous
 62
     7
370
    15
100
AcDbCircle
 10
219.6014110525
 20
108.4226197252
 30
0.0
 40
1.49999999999999
100
AcDbArc
 50
285.6584062424
 51
345.6584062424
  0
ARC
  5
9A
330
1F
100
AcDbEntity
  8
0
  6
Continuous
 62
     7
370
    15
100
AcDbCircle
 10
219.6014110525
 20
108.4226197252
 30
0.0
 40
1.500000000000037
100
AcDbArc
 50
165.6584062424
 51
225.6584062424
  0
SPLINE
  5
9B
330
1F
100
AcDbEntity
  8
0
  6
Continuous
 62
     7
370
    15
100
AcDbSpline
210
0.0
220
0.0
230
1.0
 70
     8
 71
     3
 72
     8
 73
     4
 74
     0
 42
0.000000001
 43
0.00000001
 40
0.0
 40
0.0
 40
0.0
 40
0.0
 40
1.0
 40
1.0
 40
1.0
 40
1.0
 10
186.8414110525409
 20
63.80288031640549
 30
0.0
 10
186.5516826065163
 20
63.28066030624195
 30
0.0
 10
186.2616574562986
 20
62.75860692398197
 30
0.0
 10
185.9713632220368
 20
62.23670465825885
 30
0.0
  0
SPLINE
  5
9C
330
1F
100
AcDbEntity
  8
0
  6
Continuous
 62
     7
370
    15
100
AcDbSpline
210
0.0
220
0.0
230
1.0
 70
     8
 71
     3
 72
     8
 73
     4
 74
     0
 42
0.000000001
 43
0.00000001
 40
0.0
 40
0.0
 40
0.0
 40
0.0
 40
0.0011862984959112
 40
0.0011862984959112
 40
0.0011862984959112
 40
0.0011862984959112
 10
185.518249545079
 20
61.69336038388926
 30
0.0
 10
185.6702743069498
 20
61.87427223350723
 30
0.0
 10
185.8213317521656
 20
62.05538456394807
 30
0.0
 10
185.9713632220368
 20
62.23670465825886
 30
0.0
  0
LINE
  5
9D
330
1F
100
AcDbEntity
  8
0
  6
Continuous
 62
     7
370
    15
100
AcDbLine
 10
185.5182499995
 20
61.6933605323
 30
0.0
 11
185.5182499995
 21
138.2726202408
 31
0.0
  0
SPLINE
  5
9E
330
1F
100
AcDbEntity
  8
0
  6
Continuous
 62
     7
370
    15
100
AcDbSpline
210
0.0
220
0.0
230
1.0
 70
    24
 71
     3
 72
     8
 73
     4
 74
     0
 42
0.000000001
 43
0.00000001
 40
0.0
 40
0.0
 40
0.0
 40
0.0
 40
1.0
 40
1.0
 40
1.0
 40
1.0
 10
186.8414110525409
 20
138.2726197252353
 30
0.0
 10
186.4062109478373
 20
138.2726197252353
 30
0.0
 10
185.9648512650984
 20
138.2726197252353
 30
0.0
 10
185.518249545079
 20
138.2726197252353
 30
0.0
  0
LINE
  5
9F
330
1F
100
AcDbEntity
  8
0
  6
Continuous
 62
     7
370
    15
100
AcDbLine
 10
186.8414107149
 20
63.8028806696
 30
0.0
 11
186.8414107149
 21
138.2726202408
 31
0.0
  0
SPLINE
  5
A0
330
1F
100
AcDbEntity
  8
0
  6
Continuous
 62
     7
370
    15
100
AcDbSpline
210
0.0
220
0.0
230
1.0
 70
     8
 71
     3
 72
    10
 73
     6
 74
     0
 42
0.000000001
 43
0.00000001
 40
0.0
 40
0.0
 40
0.0
 40
0.0
 40
0.5
 40
0.5
 40
1.0
 40
1.0
 40
1.0
 40
1.0
 10
181.067071083695
 20
61.78916545804302
 30
0.0
 10
181.1157216522746
 20
61.76120846677561
 30
0.0
 10
181.173106864234
 20
61.7372661817488
 30
0.0
 10
181.3038199724
 20
61.7031477186531
 30
0.0
 10
181.3765595061386
 20
61.69336038388925
 30
0.0
 10
181.4514110525409
 20
61.69336038388925
 30
0.0
  0
SPLINE
  5
A1
330
1F
100
AcDbEntity
  8
0
  6
Continuous
 62
     7
370
    15
100
AcDbSpline
210
0.0
220
0.0
230
1.0
 70
     8
 71
     3
 72
    10
 73
     6
 74
     0
 42
0.000000001
 43
0.00000001
 40
0.0
 40
0.0
 40
0.0
 40
0.0
 40
0.5
 40
0.5
 40
1.0
 40
1.0
 40
1.0
 40
1.0
 10
181.0670710836949
 20
61.78916545804302
 30
0.0
 10
181.0088830771127
 20
61.85674918822184
 30
0.0
 10
180.9564406105865
 20
61.93722542286359
 30
0.0
 10
180.8780883034078
 20
62.12026104584635
 30
0.0
 10
180.8514110525408
 20
62.22613674864196
 30
0.0
 10
180.8514110525408
 20
62.33365005786258
 30
0.0
  0
LINE
  5
A2
330
1F
100
AcDbEntity
  8
0
  6
Continuous
 62
     7
370
    15
100
AcDbLine
 10
180.8514109717
 20
62.3336485276
 30
0.0
 11
180.8514109717
 21
138.2726202408
 31
0.0
  0
SPLINE
  5
A3
330
1F
100
AcDbEntity
  8
0
  6
Continuous
 62
     7
370
    15
100
AcDbSpline
210
0.0
220
0.0
230
1.0
 70
    24
 71
     3
 72
    14
 73
    10
 74
     0
 42
0.000000001
 43
0.00000001
 40
0.0
 40
0.0
 40
0.0
 40
0.0
 40
0.25
 40
0.25
 40
0.5
 40
0.5
 40
0.75
 40
0.75
 40
1.0
 40
1.0
 40
1.0
 40
1.0
 10
181.4514110525409
 20
138.2726197252353
 30
0.0
 10
181.3623891001972
 20
138.2726197252353
 30
0.0
 10
181.2727024009237
 20
138.2726197252353
 30
0.0
 10
181.1189755753664
 20
138.2726197252353
 30
0.0
 10
181.0537706807396
 20
138.2726197252353
 30
0.0
 10
180.9511799865691
 20
138.2726197252353
 30
0.0
 10
180.9135425322532
 20
138.2726197252353
 30
0.0
 10
180.8634506168681
 20
138.2726197252353
 30
0.0
 10
180.8514110525409
 20
138.2726197252353
 30
0.0
 10
180.8514110525409
 20
138.2726197252353
 30
0.0
  0
LINE
  5
A4
330
1F
100
AcDbEntity
  8
0
  6
Continuous
 62
     7
370
    15
100
AcDbLine
 10
190.6614109312
 20
94.625357973
 30
0.0
 11
190.6614109312
 21
138.2726202408
 31
0.0
  0
SPLINE
  5
A5
330
1F
100
AcDbEntity
  8
0
  6
Continuous
 62
     7
370
    15
100
AcDbSpline
210
0.0
220
0.0
230
1.0
 70
    24
 71
     3
 72
     8
 73
     4
 74
     0
 42
0.000000001
 43
0.00000001
 40
0.0
 40
0.0
 40
0.0
 40
0.0
 40
1.0
 40
1.0
 40
1.0
 40
1.0
 10
191.9845725600028
 20
138.2726197252353
 30
0.0
 10
191.5379708399834
 20
138.2726197252353
 30
0.0
 10
191.0966111572445
 20
138.2726197252353
 30
0.0
 10
190.6614110525409
 20
138.2726197252353
 30
0.0
  0
LINE
  5
A6
330
1F
100
AcDbEntity
  8
0
  6
Continuous
 62
     7
370
    15
100
AcDbLine
 10
191.984572578
 20
94.1254724438
 30
0.0
 11
191.984572578
 21
138.2726202408
 31
0.0
  0
SPLINE
  5
A7
330
1F
100
AcDbEntity
  8
0
  6
Continuous
 62
     7
370
    15
100
AcDbSpline
210
0.0
220
0.0
230
1.0
 70
     8
 71
     3
 72
    10
 73
     6
 74
     0
 42
0.000000001
 43
0.00000001
 40
0.0
 40
0.0
 40
0.0
 40
0.0
 40
0.5
 40
0.5
 40
1.0
 40
1.0
 40
1.0
 40
1.0
 10
191.9845725600028
 20
94.12547266010418
 30
0.0
 10
191.7618455331294
 20
94.26896116039795
 30
0.0
 10
191.5401596459043
 20
94.38368190613083
 30
0.0
 10
191.0989388080523
 20
94.55344233548871
 30
0.0
 10
190.8793801606535
 20
94.60886232987608
 30
0.0
 10
190.6614110525412
 20
94.62535765924574
 30
0.0
  0
SPLINE
  5
A8
330
1F
100
AcDbEntity
  8
0
  6
Continuous
 62
     7
370
    15
100
AcDbSpline
210
0.0
220
0.0
230
1.0
 70
     8
 71
     3
 72
    12
 73
     8
 74
     0
 42
0.000000001
 43
0.00000001
 40
0.0
 40
0.0
 40
0.0
 40
0.0
 40
0.2499999999999972
 40
0.2499999999999972
 40
0.4999999999999944
 40
0.4999999999999944
 40
1.0
 40
1.0
 40
1.0
 40
1.0
 10
196.1014110525409
 20
61.69336038388926
 30
0.0
 10
196.1973838057158
 20
61.69336038388926
 30
0.0
 10
196.2898117698702
 20
61.70963370799784
 30
0.0
 10
196.4462418699797
 20
61.76300742999426
 30
0.0
 10
196.5097202947526
 20
61.79913568752859
 30
0.0
 10
196.6579994555797
 20
61.91983688380788
 30
0.0
 10
196.7014110525409
 20
62.01368647017305
 30
0.0
 10
196.7014110525409
 20
62.10799074512026
 30
0.0
  0
SPLINE
  5
A9
330
1F
100
AcDbEntity
  8
0
  6
Continuous
 62
     7
370
    15
100
AcDbSpline
210
0.0
220
0.0
230
1.0
 70
    24
 71
     3
 72
    12
 73
     8
 74
     0
 42
0.000000001
 43
0.00000001
 40
0.0
 40
0.0
 40
0.0
 40
0.0
 40
0.4999999999999972
 40
0.4999999999999972
 40
0.7499999999999986
 40
0.7499999999999986
 40
1.0
 40
1.0
 40
1.0
 40
1.0
 10
196.7014110525409
 20
138.2726197252353
 30
0.0
 10
196.7014110525409
 20
138.2726197252353
 30
0.0
 10
196.6532803641555
 20
138.2726197252353
 30
0.0
 10
196.4993833083525
 20
138.2726197252353
 30
0.0
 10
196.4339187433457
 20
138.2726197252353
 30
0.0
 10
196.2803894227356
 20
138.2726197252353
 30
0.0
 10
196.1920407619997
 20
138.2726197252353
 30
0.0
 10
196.1014110525407
 20
138.2726197252353
 30
0.0
  0
LINE
  5
AA
330
1F
100
AcDbEntity
  8
0
  6
Continuous
 62
     7
370
    15
100
AcDbLine
 10
196.701411288
 20
62.1079890678
 30
0.0
 11
196.701411288
 21
138.2726202408
 31
0.0
  0
LINE
  5
AB
330
1F
100
AcDbEntity
  8
0
  6
Continuous
 62
     7
370
    15
100
AcDbLine
 10
181.4514111166
 20
61.6933605323
 30
0.0
 11
185.5182499995
 21
61.6933605323
 31
0.0
  0
LINE
  5
AC
330
1F
100
AcDbEntity
  8
0
  6
Continuous
 62
     7
370
    15
100
AcDbLine
 10
185.5182499995
 20
138.2726202408
 30
0.0
 11
181.4514111166
 21
138.2726202408
 31
0.0
  0
LINE
  5
AD
330
1F
100
AcDbEntity
  8
0
  6
Continuous
 62
     7
370
    15
100
AcDbLine
 10
196.1014104446
 20
138.2726202408
 30
0.0
 11
191.984572578
 21
138.2726202408
 31
0.0
  0
LINE
  5
AE
330
1F
100
AcDbEntity
  8
0
  6
Continuous
 62
     7
370
    15
100
AcDbLine
 10
191.984572578
 20
61.6933605323
 30
0.0
 11
196.1014104446
 21
61.6933605323
 31
0.0
  0
LINE
  5
AF
330
1F
100
AcDbEntity
  8
0
  6
Continuous
 62
     7
370
    15
100
AcDbLine
 10
191.984572578
 20
61.6933605323
 30
0.0
 11
191.984572578
 21
89.4336788604
 31
0.0
  0
SPLINE
  5
B0
330
1F
100
AcDbEntity
  8
0
  6
Continuous
 62
     7
370
    15
100
AcDbSpline
210
0.0
220
0.0
230
1.0
 70
     8
 71
     3
 72
    34
 73
    30
 74
     0
 42
0.000000001
 43
0.00000001
 40
0.0
 40
0.0
 40
0.0
 40
0.0
 40
0.0625000000000003
 40
0.0625000000000003
 40
0.1250000000000006
 40
0.1250000000000006
 40
0.1875000000000009
 40
0.1875000000000009
 40
0.2500000000000012
 40
0.2500000000000012
 40
0.3125000000000014
 40
0.3125000000000014
 40
0.3750000000000018
 40
0.3750000000000018
 40
0.5000000000000026
 40
0.5000000000000026
 40
0.6250000000000033
 40
0.6250000000000033
 40
0.6875000000000026
 40
0.6875000000000026
 40
0.7500000000000017
 40
0.7500000000000017
 40
0.8125000000000009
 40
0.8125000000000009
 40
0.8750000000000007
 40
0.8750000000000007
 40
0.9375000000000003
 40
0.9375000000000003
 40
1.0
 40
1.0
 40
1.0
 40
1.0
 10
191.9845725600028
 20
89.4336793372341
 30
0.0
 10
192.1439643877906
 20
89.44151943315686
 30
0.0
 10
192.2999668712342
 20
89.46317808124729
 30
0.0
 10
192.6054763873115
 20
89.53302630874009
 30
0.0
 10
192.7563707223237
 20
89.58185201106835
 30
0.0
 10
193.0442700670145
 20
89.70477596447567
 30
0.0
 10
193.1802164699742
 20
89.77808347260998
 30
0.0
 10
193.4363990855663
 20
89.94809409638133
 30
0.0
 10
193.5575813733253
 20
90.04596788858278
 30
0.0
 10
193.7747274451981
 20
90.25855206401475
 30
0.0
 10
193.8716893181584
 20
90.37359800254436
 30
0.0
 10
194.042251753984
 20
90.62145912266448
 30
0.0
 10
194.115491807196
 20
90.75449261973006
 30
0.0
 10
194.2903722639448
 20
91.16400063586022
 30
0.0
 10
194.3514102249207
 20
91.46196128563527
 30
0.0
 10
194.3514118801438
 20
92.05340284150972
 30
0.0
 10
194.2903772705575
 20
92.35357639148631
 30
0.0
 10
194.1154875031556
 20
92.76880767175409
 30
0.0
 10
194.0422437977312
 20
92.90416279000092
 30
0.0
 10
193.8716830819945
 20
93.15706212138755
 30
0.0
 10
193.7747193664011
 20
93.27482739899531
 30
0.0
 10
193.5575590378139
 20
93.49295769436397
 30
0.0
 10
193.436377779127
 20
93.59366101951093
 30
0.0
 10
193.1802075521883
 20
93.76890471234417
 30
0.0
 10
193.0442642025256
 20
93.84464968143477
 30
0.0
 10
192.7563614993425
 20
93.97181805673705
 30
0.0
 10
192.6054713034257
 20
94.02241932906449
 30
0.0
 10
192.2999657997201
 20
94.09484842881236
 30
0.0
 10
192.1439644014566
 20
94.11733420020933
 30
0.0
 10
191.9845725600028
 20
94.12547266010418
 30
0.0
  0
SPLINE
  5
B1
330
1F
100
AcDbEntity
  8
0
  6
Continuous
 62
     7
370
    15
100
AcDbSpline
210
0.0
220
0.0
230
1.0
 70
     8
 71
     3
 72
    14
 73
    10
 74
     0
 42
0.000000001
 43
0.00000001
 40
0.0
 40
0.0
 40
0.0
 40
0.0
 40
0.25
 40
0.25
 40
0.5
 40
0.5
 40
0.75
 40
0.75
 40
1.0
 40
1.0
 40
1.0
 40
1.0
 10
190.6614110525409
 20
94.67097188125823
 30
0.0
 10
190.6614110525409
 20
94.71294826311177
 30
0.0
 10
190.6317680985697
 20
94.74079865075267
 30
0.0
 10
190.5251132648396
 20
94.75429752604269
 30
0.0
 10
190.4488348702355
 20
94.73968202400499
 30
0.0
 10
190.2807833271689
 20
94.66759281983681
 30
0.0
 10
190.1896635205607
 20
94.61045520935407
 30
0.0
 10
190.016986408308
 20
94.46822750876281
 30
0.0
 10
189.9360639687799
 20
94.38466368325074
 30
0.0
 10
189.8614110525409
 20
94.29129401135485
 30
0.0
  0
SPLINE
  5
B2
330
1F
100
AcDbEntity
  8
0
  6
Continuous
 62
     7
370
    15
100
AcDbSpline
210
0.0
220
0.0
230
1.0
 70
     8
 71
     3
 72
    10
 73
     6
 74
     0
 42
0.000000001
 43
0.00000001
 40
0.0
 40
0.0
 40
0.0
 40
0.0
 40
0.5
 40
0.5
 40
1.0
 40
1.0
 40
1.0
 40
1.0
 10
190.6614110525412
 20
90.49331646061417
 30
0.0
 10
190.8783018850619
 20
90.2562775211656
 30
0.0
 10
191.0974545217208
 20
90.05410728617214
 30
0.0
 10
191.5389390219897
 20
89.70335521465343
 30
0.0
 10
191.7621414872631
 20
89.55467912225659
 30
0.0
 10
191.9845725600028
 20
89.43367933723408
 30
0.0
  0
LINE
  5
B3
330
1F
100
AcDbEntity
  8
0
  6
Continuous
 62
     7
370
    15
100
AcDbLine
 10
190.6614109312
 20
90.5389315138
 30
0.0
 11
190.6614109312
 21
90.4933171967
 31
0.0
  0
SPLINE
  5
B4
330
1F
100
AcDbEntity
  8
0
  6
Continuous
 62
     7
370
    15
100
AcDbSpline
210
0.0
220
0.0
230
1.0
 70
     8
 71
     3
 72
    16
 73
    12
 74
     0
 42
0.000000001
 43
0.00000001
 40
0.0
 40
0.0
 40
0.0
 40
0.0
 40
0.250000000000005
 40
0.250000000000005
 40
0.50000000000001
 40
0.50000000000001
 40
0.6250000000000113
 40
0.6250000000000113
 40
0.7500000000000128
 40
0.7500000000000128
 40
1.0
 40
1.0
 40
1.0
 40
1.0
 10
189.8614110525409
 20
91.44733016830118
 30
0.0
 10
189.9354189427631
 20
91.35698258811551
 30
0.0
 10
190.016036937752
 20
91.26902301531585
 30
0.0
 10
190.1898049232563
 20
91.09268809125426
 30
0.0
 10
190.2805560541977
 20
91.00708085058825
 30
0.0
 10
190.4066691516592
 20
90.88588515456328
 30
0.0
 10
190.4462459125225
 20
90.84735357557241
 30
0.0
 10
190.5187285692237
 20
90.77295758944311
 30
0.0
 10
190.5516565596926
 20
90.73694080152161
 30
0.0
 10
190.6314467296875
 20
90.63818812570462
 30
0.0
 10
190.6614110525409
 20
90.58142412392252
 30
0.0
 10
190.6614110525409
 20
90.53893068262695
 30
0.0
  0
SPLINE
  5
B5
330
1F
100
AcDbEntity
  8
0
  6
Continuous
 62
     7
370
    15
100
AcDbSpline
210
0.0
220
0.0
230
1.0
 70
     8
 71
     3
 72
    16
 73
    12
 74
     0
 42
0.000000001
 43
0.00000001
 40
0.0
 40
0.0
 40
0.0
 40
0.0
 40
0.25
 40
0.25
 40
0.5
 40
0.5
 40
0.75
 40
0.75
 40
0.875
 40
0.875
 40
1.0
 40
1.0
 40
1.0
 40
1.0
 10
189.8614110525409
 20
94.29129401135485
 30
0.0
 10
189.6959969460607
 20
94.0844077753295
 30
0.0
 10
189.5697996150851
 20
93.85853907752072
 30
0.0
 10
189.3953933167543
 20
93.36966983190784
 30
0.0
 10
189.3515632776574
 20
93.11790277856325
 30
0.0
 10
189.3512596046874
 20
92.60612345398091
 30
0.0
 10
189.3951164647477
 20
92.35506874489819
 30
0.0
 10
189.5250382240149
 20
91.99422017675607
 30
0.0
 10
189.5791530354229
 20
91.87694740840752
 30
0.0
 10
189.7058300255663
 20
91.65445845706869
 30
0.0
 10
189.7787037459271
 20
91.54829784882541
 30
0.0
 10
189.8614110525409
 20
91.44733016830116
 30
0.0
  0
SPLINE
  5
B6
330
1F
100
AcDbEntity
  8
0
  6
Continuous
 62
     7
370
    15
100
AcDbSpline
210
0.0
220
0.0
230
1.0
 70
     8
 71
     3
 72
    14
 73
    10
 74
     0
 42
0.000000001
 43
0.00000001
 40
0.0
 40
0.0
 40
0.0
 40
0.0
 40
0.25
 40
0.25
 40
0.5
 40
0.5
 40
0.75
 40
0.75
 40
1.0
 40
1.0
 40
1.0
 40
1.0
 10
187.6414110525409
 20
64.77485345936549
 30
0.0
 10
187.5349660446316
 20
64.77485345936549
 30
0.0
 10
187.4280672933581
 20
64.75228390993237
 30
0.0
 10
187.2318490379157
 20
64.66584081869046
 30
0.0
 10
187.1421907244512
 20
64.60153690102331
 30
0.0
 10
186.9967370115701
 20
64.44656738698035
 30
0.0
 10
186.9387012288439
 20
64.35380190073661
 30
0.0
 10
186.8614160744593
 20
64.15533501909323
 30
0.0
 10
186.8414110525409
 20
64.04831059729946
 30
0.0
 10
186.8414110525409
 20
63.94152823682864
 30
0.0
  0
SPLINE
  5
B7
330
1F
100
AcDbEntity
  8
0
  6
Continuous
 62
     7
370
    15
100
AcDbSpline
210
0.0
220
0.0
230
1.0
 70
    24
 71
     3
 72
    14
 73
    10
 74
     0
 42
0.000000001
 43
0.00000001
 40
0.0
 40
0.0
 40
0.0
 40
0.0
 40
0.25
 40
0.25
 40
0.5
 40
0.5
 40
0.75
 40
0.75
 40
1.0
 40
1.0
 40
1.0
 40
1.0
 10
187.6414110525409
 20
138.2726197252353
 30
0.0
 10
187.5184297529946
 20
138.2726197252353
 30
0.0
 10
187.3982398645926
 20
138.2726197252353
 30
0.0
 10
187.1932160349134
 20
138.2726197252353
 30
0.0
 10
187.1066215461113
 20
138.2726197252353
 30
0.0
 10
186.9715136593489
 20
138.2726197252353
 30
0.0
 10
186.9229905743207
 20
138.2726197252353
 30
0.0
 10
186.857308065594
 20
138.2726197252353
 30
0.0
 10
186.8414110525409
 20
138.2726197252353
 30
0.0
 10
186.8414110525409
 20
138.2726197252353
 30
0.0
  0
SPLINE
  5
B8
330
1F
100
AcDbEntity
  8
0
  6
Continuous
 62
     7
370
    15
100
AcDbSpline
210
0.0
220
0.0
230
1.0
 70
    24
 71
     3
 72
    14
 73
    10
 74
     0
 42
0.000000001
 43
0.00000001
 40
0.0
 40
0.0
 40
0.0
 40
0.0
 40
0.25
 40
0.25
 40
0.5
 40
0.5
 40
0.75
 40
0.75
 40
1.0
 40
1.0
 40
1.0
 40
1.0
 10
190.6614110525409
 20
138.2726197252353
 30
0.0
 10
190.6614110525409
 20
138.2726197252353
 30
0.0
 10
190.6451300177651
 20
138.2726197252353
 30
0.0
 10
190.5804669552405
 20
138.2726197252353
 30
0.0
 10
190.5309871589518
 20
138.2726197252353
 30
0.0
 10
190.397017401813
 20
138.2726197252353
 30
0.0
 10
190.3109026752136
 20
138.2726197252353
 30
0.0
 10
190.1054465595006
 20
138.2726197252353
 30
0.0
 10
189.9840260223077
 20
138.2726197252353
 30
0.0
 10
189.8614110525409
 20
138.2726197252353
 30
0.0
  0
LINE
  5
B9
330
1F
100
AcDbEntity
  8
0
  6
Continuous
 62
     7
370
    15
100
AcDbLine
 10
189.8614113589
 20
64.774853612
 30
0.0
 11
187.6414112185
 21
64.774853612
 31
0.0
  0
LINE
  5
BA
330
1F
100
AcDbEntity
  8
0
  6
Continuous
 62
     7
370
    15
100
AcDbLine
 10
189.8614113589
 20
138.2726202408
 30
0.0
 11
187.6414112185
 21
138.2726202408
 31
0.0
  0
SPLINE
  5
BB
330
1F
100
AcDbEntity
  8
0
  6
Continuous
 62
     7
370
    15
100
AcDbSpline
210
0.0
220
0.0
230
1.0
 70
     8
 71
     3
 72
     8
 73
     4
 74
     0
 42
0.000000001
 43
0.00000001
 40
0.0000000000000004
 40
0.0000000000000004
 40
0.0000000000000004
 40
0.0000000000000004
 40
0.0011862984959127
 40
0.0011862984959127
 40
0.0011862984959127
 40
0.0011862984959127
 10
191.5314588830411
 20
62.23670465825886
 30
0.0
 10
191.6814903529124
 20
62.05538456394784
 30
0.0
 10
191.8325477981317
 20
61.87427223350746
 30
0.0
 10
191.9845725600028
 20
61.69336038388926
 30
0.0
  0
SPLINE
  5
BC
330
1F
100
AcDbEntity
  8
0
  6
Continuous
 62
     7
370
    15
100
AcDbSpline
210
0.0
220
0.0
230
1.0
 70
     8
 71
     3
 72
     8
 73
     4
 74
     0
 42
0.000000001
 43
0.00000001
 40
0.0
 40
0.0
 40
0.0
 40
0.0
 40
1.0
 40
1.0
 40
1.0
 40
1.0
 10
191.5314588830441
 20
62.23670465826054
 30
0.0
 10
191.2411646487826
 20
62.75860692398309
 30
0.0
 10
190.9511394985651
 20
63.28066030624252
 30
0.0
 10
190.6614110525409
 20
63.80288031640549
 30
0.0
  0
LINE
  5
BD
330
1F
100
AcDbEntity
  8
0
  6
Continuous
 62
     7
370
    15
100
AcDbLine
 10
190.6614109312
 20
63.8028806696
 30
0.0
 11
190.6614109312
 21
90.4933171967
 31
0.0
  0
SPLINE
  5
BE
330
1F
100
AcDbEntity
  8
0
  6
Continuous
 62
     7
370
    15
100
AcDbSpline
210
0.0
220
0.0
230
1.0
 70
     8
 71
     3
 72
    14
 73
    10
 74
     0
 42
0.000000001
 43
0.00000001
 40
0.0
 40
0.0
 40
0.0
 40
0.0
 40
0.25
 40
0.25
 40
0.5
 40
0.5
 40
0.75
 40
0.75
 40
1.0
 40
1.0
 40
1.0
 40
1.0
 10
190.6614110525409
 20
63.94152823682864
 30
0.0
 10
190.6614110525409
 20
64.04859222316944
 30
0.0
 10
190.6414272263009
 20
64.15533154954396
 30
0.0
 10
190.5639921438674
 20
64.35408145173476
 30
0.0
 10
190.506053221708
 20
64.44663566822729
 30
0.0
 10
190.3604154159472
 20
64.60173261163285
 30
0.0
 10
190.2716264196118
 20
64.66547276854573
 30
0.0
 10
190.0750780594073
 20
64.75222132563333
 30
0.0
 10
189.968938829708
 20
64.77485345936549
 30
0.0
 10
189.8614110525409
 20
64.77485345936549
 30
0.0
  0
LINE
  5
BF
330
1F
100
AcDbEntity
  8
0
  6
Continuous
 62
     7
370
    15
100
AcDbLine
 10
177.6514110525
 20
73.4976208458
 30
0.0
 11
177.6514110525
 21
143.3476186047
 31
0.0
  0
SPLINE
  5
C0
330
1F
100
AcDbEntity
  8
0
  6
Continuous
 62
     7
370
    15
100
AcDbSpline
210
0.0
220
0.0
230
1.0
 70
     8
 71
     3
 72
    12
 73
     8
 74
     0
 42
0.000000001
 43
0.00000001
 40
0.0
 40
0.0
 40
0.0
 40
0.0
 40
0.2500000000000007
 40
0.2500000000000007
 40
0.5000000000000014
 40
0.5000000000000014
 40
1.0
 40
1.0
 40
1.0
 40
1.0
 10
187.6414110525409
 20
152.0703859911051
 30
0.0
 10
187.5350660726649
 20
152.0703859911051
 30
0.0
 10
187.4277897252623
 20
152.0931012289646
 30
0.0
 10
187.2324139358662
 20
152.1791263958469
 30
0.0
 10
187.1438601997893
 20
152.2421051227753
 30
0.0
 10
186.9226022756581
 20
152.4772966332124
 30
0.0
 10
186.8414110525409
 20
152.6904728476977
 30
0.0
 10
186.8414110525409
 20
152.9037112136417
 30
0.0
  0
SPLINE
  5
C1
330
1F
100
AcDbEntity
  8
0
  6
Continuous
 62
     7
370
    15
100
AcDbSpline
210
0.0
220
0.0
230
1.0
 70
     8
 71
     3
 72
    12
 73
     8
 74
     0
 42
0.000000001
 43
0.00000001
 40
0.0
 40
0.0
 40
0.0
 40
0.0
 40
0.499999999999994
 40
0.499999999999994
 40
0.749999999999997
 40
0.749999999999997
 40
1.0
 40
1.0
 40
1.0
 40
1.0
 10
186.8414110525409
 20
143.8156628269523
 30
0.0
 10
186.8414110525409
 20
143.5732397309716
 30
0.0
 10
186.9043321939827
 20
143.3274692103701
 30
0.0
 10
187.1063610909852
 20
143.0225230309533
 30
0.0
 10
187.1926548156324
 20
142.9319301643548
 30
0.0
 10
187.3981286101991
 20
142.801496601418
 30
0.0
 10
187.5180791707988
 20
142.7625017867683
 30
0.0
 10
187.6414110525409
 20
142.7625017867683
 30
0.0
  0
SPLINE
  5
C2
330
1F
100
AcDbEntity
  8
0
  6
Continuous
 62
     7
370
    15
100
AcDbSpline
210
0.0
220
0.0
230
1.0
 70
     8
 71
     3
 72
    14
 73
    10
 74
     0
 42
0.000000001
 43
0.00000001
 40
0.0
 40
0.0
 40
0.0
 40
0.0
 40
0.25
 40
0.25
 40
0.5
 40
0.5
 40
0.75
 40
0.75
 40
1.0
 40
1.0
 40
1.0
 40
1.0
 10
190.6614110525409
 20
152.9037112136419
 30
0.0
 10
190.6614110525409
 20
152.7963688414944
 30
0.0
 10
190.6414148604767
 20
152.6897398346466
 30
0.0
 10
190.5637167761321
 20
152.4905880554954
 30
0.0
 10
190.5057236312385
 20
152.39810515718
 30
0.0
 10
190.3596771384156
 20
152.2428693220708
 30
0.0
 10
190.2703393992479
 20
152.1791353804584
 30
0.0
 10
190.0755843871875
 20
152.0933051140632
 30
0.0
 10
189.9680541159786
 20
152.0703859911048
 30
0.0
 10
189.8614110525388
 20
152.070385991105
 30
0.0
  0
SPLINE
  5
C3
330
1F
100
AcDbEntity
  8
0
  6
Continuous
 62
     7
370
    15
100
AcDbSpline
210
0.0
220
0.0
230
1.0
 70
     8
 71
     3
 72
    14
 73
    10
 74
     0
 42
0.000000001
 43
0.00000001
 40
0.0
 40
0.0
 40
0.0
 40
0.0
 40
0.25
 40
0.25
 40
0.5
 40
0.5
 40
0.75
 40
0.75
 40
1.0
 40
1.0
 40
1.0
 40
1.0
 10
189.8614110525409
 20
142.7625017867683
 30
0.0
 10
189.9827375825266
 20
142.7625017867683
 30
0.0
 10
190.1044422910889
 20
142.8012833022015
 30
0.0
 10
190.310882169975
 20
142.9324379238954
 30
0.0
 10
190.396832708431
 20
143.0230900084825
 30
0.0
 10
190.5307444681793
 20
143.2252070434238
 30
0.0
 10
190.5803089049985
 20
143.338941986963
 30
0.0
 10
190.6451629329664
 20
143.5719016040295
 30
0.0
 10
190.6614110525409
 20
143.6945998703587
 30
0.0
 10
190.6614110525409
 20
143.8156628269523
 30
0.0
  0
SPLINE
  5
C4
330
1F
100
AcDbEntity
  8
0
  6
Continuous
 62
     7
370
    15
100
AcDbSpline
210
0.0
220
0.0
230
1.0
 70
     8
 71
     3
 72
     8
 73
     4
 74
     0
 42
0.000000001
 43
0.00000001
 40
0.0
 40
0.0
 40
0.0
 40
0.0
 40
1.0
 40
1.0
 40
1.0
 40
1.0
 10
191.4280820747073
 20
154.4226529699027
 30
0.0
 10
191.1723057639519
 20
153.9626746146379
 30
0.0
 10
190.9167423658459
 20
153.50258015433
 30
0.0
 10
190.6614110525409
 20
153.0423591340651
 30
0.0
  0
SPLINE
  5
C5
330
1F
100
AcDbEntity
  8
0
  6
Continuous
 62
     7
370
    15
100
AcDbSpline
210
0.0
220
0.0
230
1.0
 70
     8
 71
     3
 72
     8
 73
     4
 74
     0
 42
0.000000001
 43
0.00000001
 40
0.0
 40
0.0
 40
0.0
 40
0.0
 40
0.0012352705496738
 40
0.0012352705496738
 40
0.0012352705496738
 40
0.0012352705496738
 10
191.9845725600028
 20
155.2024643800108
 30
0.0
 10
191.7986241346807
 20
154.9426886242591
 30
0.0
 10
191.6131173255096
 20
154.6827545456318
 30
0.0
 10
191.4280820747075
 20
154.4226529699032
 30
0.0
  0
LINE
  5
C6
330
1F
100
AcDbEntity
  8
0
  6
Continuous
 62
     7
370
    15
100
AcDbLine
 10
191.984572578
 20
146.93369853
 30
0.0
 11
191.984572578
 21
155.2024646351
 31
0.0
  0
SPLINE
  5
C7
330
1F
100
AcDbEntity
  8
0
  6
Continuous
 62
     7
370
    15
100
AcDbSpline
210
0.0
220
0.0
230
1.0
 70
     8
 71
     3
 72
     8
 73
     4
 74
     0
 42
0.000000001
 43
0.00000001
 40
0.0
 40
0.0
 40
0.0
 40
0.0
 40
1.0
 40
1.0
 40
1.0
 40
1.0
 10
190.6614110525409
 20
143.9897554675449
 30
0.0
 10
191.0963574741793
 20
144.9732597859273
 30
0.0
 10
191.5377238320751
 20
145.9544617786541
 30
0.0
 10
191.9845725600028
 20
146.9336976769104
 30
0.0
  0
LINE
  5
C8
330
1F
100
AcDbEntity
  8
0
  6
Continuous
 62
     7
370
    15
100
AcDbLine
 10
190.6614109312
 20
143.989754344
 30
0.0
 11
190.6614109312
 21
153.0423587809
 31
0.0
  0
LINE
  5
C9
330
1F
100
AcDbEntity
  8
0
  6
Continuous
 62
     7
370
    15
100
AcDbLine
 10
196.1014104446
 20
155.2024646351
 30
0.0
 11
191.984572578
 21
155.2024646351
 31
0.0
  0
LINE
  5
CA
330
1F
100
AcDbEntity
  8
0
  6
Continuous
 62
     7
370
    15
100
AcDbLine
 10
191.984572578
 20
146.93369853
 30
0.0
 11
196.1014104446
 21
146.93369853
 31
0.0
  0
SPLINE
  5
CB
330
1F
100
AcDbEntity
  8
0
  6
Continuous
 62
     7
370
    15
100
AcDbSpline
210
0.0
220
0.0
230
1.0
 70
     8
 71
     3
 72
    12
 73
     8
 74
     0
 42
0.000000001
 43
0.00000001
 40
0.0
 40
0.0
 40
0.0
 40
0.0
 40
0.4999999999999927
 40
0.4999999999999927
 40
0.7499999999999963
 40
0.7499999999999963
 40
1.0
 40
1.0
 40
1.0
 40
1.0
 10
196.7014110525409
 20
154.7176066784657
 30
0.0
 10
196.7014110525409
 20
154.8377992851309
 30
0.0
 10
196.6474426222719
 20
154.9557065856459
 30
0.0
 10
196.4863559813389
 20
155.0950861301293
 30
0.0
 10
196.4215935618658
 20
155.1332514276932
 30
0.0
 10
196.2695395603014
 20
155.1879036900266
 30
0.0
 10
196.1868097871522
 20
155.2024643800108
 30
0.0
 10
196.1014110525409
 20
155.2024643800108
 30
0.0
  0
SPLINE
  5
CC
330
1F
100
AcDbEntity
  8
0
  6
Continuous
 62
     7
370
    15
100
AcDbSpline
210
0.0
220
0.0
230
1.0
 70
     8
 71
     3
 72
    12
 73
     8
 74
     0
 42
0.000000001
 43
0.00000001
 40
0.0
 40
0.0
 40
0.0
 40
0.0
 40
0.250000000000004
 40
0.250000000000004
 40
0.500000000000008
 40
0.500000000000008
 40
1.0
 40
1.0
 40
1.0
 40
1.0
 10
196.1014110525414
 20
146.9336976769105
 30
0.0
 10
196.1909481107125
 20
146.9336976769104
 30
0.0
 10
196.2808472895011
 20
146.9068703780794
 30
0.0
 10
196.4342721485004
 20
146.8151634128199
 30
0.0
 10
196.4993212058781
 20
146.750908471221
 30
0.0
 10
196.6526404371424
 20
146.5314963251595
 30
0.0
 10
196.7014110525409
 20
146.3496810153626
 30
0.0
 10
196.7014110525409
 20
146.1717008398796
 30
0.0
  0
LINE
  5
CD
330
1F
100
AcDbEntity
  8
0
  6
Continuous
 62
     7
370
    15
100
AcDbLine
 10
196.701411288
 20
146.1717015753
 30
0.0
 11
196.701411288
 21
154.7176069269
 31
0.0
  0
SPLINE
  5
CE
330
1F
100
AcDbEntity
  8
0
  6
Continuous
 62
     7
370
    15
100
AcDbSpline
210
0.0
220
0.0
230
1.0
 70
     8
 71
     3
 72
     8
 73
     4
 74
     0
 42
0.000000001
 43
0.00000001
 40
0.0
 40
0.0
 40
0.0
 40
0.0
 40
0.0012352705496723
 40
0.0012352705496723
 40
0.0012352705496723
 40
0.0012352705496723
 10
186.0747400303735
 20
154.4226529699044
 30
0.0
 10
185.8897047795716
 20
154.6827545456326
 30
0.0
 10
185.7041979704008
 20
154.9426886242595
 30
0.0
 10
185.518249545079
 20
155.2024643800108
 30
0.0
  0
SPLINE
  5
CF
330
1F
100
AcDbEntity
  8
0
  6
Continuous
 62
     7
370
    15
100
AcDbSpline
210
0.0
220
0.0
230
1.0
 70
     8
 71
     3
 72
     8
 73
     4
 74
     0
 42
0.000000001
 43
0.00000001
 40
0.0
 40
0.0
 40
0.0
 40
0.0
 40
1.0
 40
1.0
 40
1.0
 40
1.0
 10
186.8414110525409
 20
153.0423591340651
 30
0.0
 10
186.5860797392355
 20
153.5025801543306
 30
0.0
 10
186.3305163411292
 20
153.962674614639
 30
0.0
 10
186.0747400303735
 20
154.4226529699044
 30
0.0
  0
LINE
  5
D0
330
1F
100
AcDbEntity
  8
0
  6
Continuous
 62
     7
370
    15
100
AcDbLine
 10
186.8414107149
 20
143.989754344
 30
0.0
 11
186.8414107149
 21
153.0423587809
 31
0.0
  0
SPLINE
  5
D1
330
1F
100
AcDbEntity
  8
0
  6
Continuous
 62
     7
370
    15
100
AcDbSpline
210
0.0
220
0.0
230
1.0
 70
     8
 71
     3
 72
     8
 73
     4
 74
     0
 42
0.000000001
 43
0.00000001
 40
0.0
 40
0.0
 40
0.0
 40
0.0
 40
1.0
 40
1.0
 40
1.0
 40
1.0
 10
185.518249545079
 20
146.9336976769104
 30
0.0
 10
185.9650982730067
 20
145.9544617786541
 30
0.0
 10
186.4064646309025
 20
144.9732597859273
 30
0.0
 10
186.8414110525409
 20
143.9897554675449
 30
0.0
  0
LINE
  5
D2
330
1F
100
AcDbEntity
  8
0
  6
Continuous
 62
     7
370
    15
100
AcDbLine
 10
185.5182499995
 20
146.93369853
 30
0.0
 11
185.5182499995
 21
155.2024646351
 31
0.0
  0
LINE
  5
D3
330
1F
100
AcDbEntity
  8
0
  6
Continuous
 62
     7
370
    15
100
AcDbLine
 10
185.5182499995
 20
155.2024646351
 30
0.0
 11
181.4514111166
 21
155.2024646351
 31
0.0
  0
LINE
  5
D4
330
1F
100
AcDbEntity
  8
0
  6
Continuous
 62
     7
370
    15
100
AcDbLine
 10
181.4514111166
 20
146.93369853
 30
0.0
 11
185.5182499995
 21
146.93369853
 31
0.0
  0
LINE
  5
D5
330
1F
100
AcDbEntity
  8
0
  6
Continuous
 62
     7
370
    15
100
AcDbLine
 10
189.8614113589
 20
152.0703858385
 30
0.0
 11
187.6414112185
 21
152.0703858385
 31
0.0
  0
LINE
  5
D6
330
1F
100
AcDbEntity
  8
0
  6
Continuous
 62
     7
370
    15
100
AcDbLine
 10
187.6414112185
 20
142.7625021586
 30
0.0
 11
189.8614113589
 21
142.7625021586
 31
0.0
  0
SPLINE
  5
D7
330
1F
100
AcDbEntity
  8
0
  6
Continuous
 62
     7
370
    15
100
AcDbSpline
210
0.0
220
0.0
230
1.0
 70
     8
 71
     3
 72
    12
 73
     8
 74
     0
 42
0.000000001
 43
0.00000001
 40
0.0
 40
0.0
 40
0.0
 40
0.0
 40
0.5000000000000003
 40
0.5000000000000003
 40
0.7500000000000001
 40
0.7500000000000001
 40
1.0
 40
1.0
 40
1.0
 40
1.0
 10
180.8514110525409
 20
146.1717008398796
 30
0.0
 10
180.8514110525409
 20
146.3500611071189
 30
0.0
 10
180.8987231739168
 20
146.5288335188229
 30
0.0
 10
181.0530832517983
 20
146.7505953841746
 30
0.0
 10
181.1179687867172
 20
146.8148874227911
 30
0.0
 10
181.2732014859455
 20
146.9075319069507
 30
0.0
 10
181.3622768986137
 20
146.9336976769105
 30
0.0
 10
181.4514110525409
 20
146.9336976769105
 30
0.0
  0
LINE
  5
D8
330
1F
100
AcDbEntity
  8
0
  6
Continuous
 62
     7
370
    15
100
AcDbLine
 10
186.8414107149
 20
143.989754344
 30
0.0
 11
186.8414107149
 21
143.8156640778
 31
0.0
  0
LINE
  5
D9
330
1F
100
AcDbEntity
  8
0
  6
Continuous
 62
     7
370
    15
100
AcDbLine
 10
190.6614109312
 20
143.8156640778
 30
0.0
 11
190.6614109312
 21
143.989754344
 31
0.0
  0
LINE
  5
DA
330
1F
100
AcDbEntity
  8
0
  6
Continuous
 62
     7
370
    15
100
AcDbLine
 10
180.8514109717
 20
146.1717015753
 30
0.0
 11
180.8514109717
 21
138.2726202408
 31
0.0
  0
LINE
  5
DB
330
1F
100
AcDbEntity
  8
0
  6
Continuous
 62
     7
370
    15
100
AcDbLine
 10
196.701411288
 20
146.1717015753
 30
0.0
 11
196.701411288
 21
138.2726202408
 31
0.0
  0
SPLINE
  5
DC
330
1F
100
AcDbEntity
  8
0
  6
Continuous
 62
     7
370
    15
100
AcDbSpline
210
0.0
220
0.0
230
1.0
 70
     8
 71
     3
 72
    10
 73
     6
 74
     0
 42
0.000000001
 43
0.00000001
 40
0.0
 40
0.0
 40
0.0
 40
0.0
 40
0.5
 40
0.5
 40
1.0
 40
1.0
 40
1.0
 40
1.0
 10
181.1412799714872
 20
155.132784050958
 30
0.0
 10
181.0648268815684
 20
155.0625212797374
 30
0.0
 10
180.9959651592993
 20
154.9754263646957
 30
0.0
 10
180.8894529282264
 20
154.7662572364434
 30
0.0
 10
180.8514110525408
 20
154.6409396872039
 30
0.0
 10
180.8514110525408
 20
154.511589392608
 30
0.0
  0
SPLINE
  5
DD
330
1F
100
AcDbEntity
  8
0
  6
Continuous
 62
     7
370
    15
100
AcDbSpline
210
0.0
220
0.0
230
1.0
 70
     8
 71
     3
 72
     8
 73
     4
 74
     0
 42
0.000000001
 43
0.00000001
 40
0.0
 40
0.0
 40
0.0
 40
0.0
 40
1.0
 40
1.0
 40
1.0
 40
1.0
 10
181.4514110525409
 20
155.2024643800108
 30
0.0
 10
181.3403328672034
 20
155.2024643800108
 30
0.0
 10
181.2326688633012
 20
155.1773152044563
 30
0.0
 10
181.1412799714872
 20
155.132784050958
 30
0.0
  0
LINE
  5
DE
330
1F
100
AcDbEntity
  8
0
  6
Continuous
 62
     7
370
    15
100
AcDbLine
 10
180.8514109717
 20
146.1717015753
 30
0.0
 11
180.8514109717
 21
154.5115909228
 31
0.0
  0
LINE
  5
DF
330
1F
100
AcDbEntity
  8
0
  6
Continuous
 62
     7
370
    15
100
AcDbLine
 10
76.0514122804
 20
90.0437752405
 30
0.0
 11
76.0514122804
 21
126.8014642099
 31
0.0
  0
SPLINE
  5
E0
330
1F
100
AcDbEntity
  8
0
  6
Continuous
 62
     7
370
    15
100
AcDbSpline
210
0.0
220
0.0
230
1.0
 70
    11
 71
     3
 72
    66
 73
    62
 74
     0
 42
0.000000001
 43
0.00000001
 40
0.0
 40
0.0
 40
0.0
 40
0.0
 40
0.0312500000000002
 40
0.0312500000000002
 40
0.0625000000000004
 40
0.0625000000000004
 40
0.0937500000000006
 40
0.0937500000000006
 40
0.1250000000000008
 40
0.1250000000000008
 40
0.156250000000001
 40
0.156250000000001
 40
0.1875000000000012
 40
0.1875000000000012
 40
0.2187500000000014
 40
0.2187500000000014
 40
0.2500000000000016
 40
0.2500000000000016
 40
0.2812500000000018
 40
0.2812500000000018
 40
0.3125000000000019
 40
0.3125000000000019
 40
0.3437500000000021
 40
0.3437500000000021
 40
0.3750000000000023
 40
0.3750000000000023
 40
0.4062500000000026
 40
0.4062500000000026
 40
0.4375000000000027
 40
0.4375000000000027
 40
0.4687500000000029
 40
0.4687500000000029
 40
0.5000000000000031
 40
0.5000000000000031
 40
0.5312500000000033
 40
0.5312500000000033
 40
0.5625000000000036
 40
0.5625000000000036
 40
0.625000000000003
 40
0.625000000000003
 40
0.6562500000000028
 40
0.6562500000000028
 40
0.6875000000000024
 40
0.6875000000000024
 40
0.7187500000000022
 40
0.7187500000000022
 40
0.750000000000002
 40
0.750000000000002
 40
0.7812500000000018
 40
0.7812500000000018
 40
0.8125000000000014
 40
0.8125000000000014
 40
0.8437500000000012
 40
0.8437500000000012
 40
0.875000000000001
 40
0.875000000000001
 40
0.9062500000000008
 40
0.9062500000000008
 40
0.9375000000000004
 40
0.9375000000000004
 40
1.0
 40
1.0
 40
1.0
 40
1.0
 10
217.0847514609255
 20
110.9297368835622
 30
0.0
 10
217.2665363658702
 20
111.0787219866708
 30
0.0
 10
217.4595906681114
 20
111.2080498119679
 30
0.0
 10
217.8664553826755
 20
111.4309268324712
 30
0.0
 10
218.0818962456881
 20
111.5249571935529
 30
0.0
 10
218.5267751221316
 20
111.673985861529
 30
0.0
 10
218.7532677381672
 20
111.7283331080265
 30
0.0
 10
219.2140780033047
 20
111.7983420364536
 30
0.0
 10
219.4506954988832
 20
111.8138452502852
 30
0.0
 10
219.919030881882
 20
111.8043591420972
 30
0.0
 10
220.1504758537347
 20
111.7798684334964
 30
0.0
 10
220.6079713048574
 20
111.6916449217521
 30
0.0
 10
220.836181813717
 20
111.6269178421931
 30
0.0
 10
221.2719717701883
 20
111.4605794037884
 30
0.0
 10
221.4804159784993
 20
111.359271167358
 30
0.0
 10
221.8780357641823
 20
111.1192838034931
 30
0.0
 10
222.0688406732668
 20
110.9788044452785
 30
0.0
 10
222.4144959328013
 20
110.6686887827933
 30
0.0
 10
222.5709720507717
 20
110.4985984652568
 30
0.0
 10
222.8492220851058
 20
110.1261535164045
 30
0.0
 10
222.9711671844027
 20
109.9220004171371
 30
0.0
 10
223.1645069529087
 20
109.4996776884899
 30
0.0
 10
223.2379690095566
 20
109.2793589644086
 30
0.0
 10
223.3345792609643
 20
108.8187567637514
 30
0.0
 10
223.3560947323315
 20
108.5834940856691
 30
0.0
 10
223.3450104942774
 20
108.1173119501987
 30
0.0
 10
223.3118626230545
 20
107.8811516386016
 30
0.0
 10
223.194210188616
 20
107.4277408814995
 30
0.0
 10
223.1105697440894
 20
107.2099735473082
 30
0.0
 10
222.8952514519088
 20
106.7916313424215
 30
0.0
 10
222.7658593151867
 20
106.5960281046594
 30
0.0
 10
222.4712295737567
 20
106.2354098157592
 30
0.0
 10
222.3035492307701
 20
106.0681066120986
 30
0.0
 10
221.9435543676539
 20
105.771900416549
 30
0.0
 10
221.7507805579861
 20
105.6417896117659
 30
0.0
 10
221.340430279863
 20
105.4160869293165
 30
0.0
 10
221.1241995278468
 20
105.321706333945
 30
0.0
 10
220.4620863489131
 20
105.0989356823906
 30
0.0
 10
219.9886827959657
 20
105.0271479631828
 30
0.0
 10
219.2897882980909
 20
105.0404904258386
 30
0.0
 10
219.0562975948061
 20
105.0646888893671
 30
0.0
 10
218.5935589143776
 20
105.1537642636209
 30
0.0
 10
218.3694091432438
 20
105.217505017354
 30
0.0
 10
217.9352080373151
 20
105.3827603863277
 30
0.0
 10
217.7237567337988
 20
105.4851112434689
 30
0.0
 10
217.3224343679153
 20
105.7274171754491
 30
0.0
 10
217.135795402108
 20
105.8650590765785
 30
0.0
 10
216.7908425236823
 20
106.1740446489346
 30
0.0
 10
216.6309208068715
 20
106.347585146616
 30
0.0
 10
216.3513874622903
 20
106.722350546166
 30
0.0
 10
216.2326380364903
 20
106.9214122230628
 30
0.0
 10
216.0388615795635
 20
107.3440500293891
 30
0.0
 10
215.9635535687396
 20
107.5708267985754
 30
0.0
 10
215.8681481488003
 20
108.0282018557995
 30
0.0
 10
215.8465957131933
 20
108.2603488991826
 30
0.0
 10
215.8580042556206
 20
108.7318665018827
 30
0.0
 10
215.8913443702613
 20
108.965966400321
 30
0.0
 10
216.0088911940723
 20
109.4181773112954
 30
0.0
 10
216.0946579939389
 20
109.6406210486586
 30
0.0
 10
216.4164295433432
 20
110.2637284232058
 30
0.0
 10
216.7211816510362
 20
110.631766677345
 30
0.0
 10
217.0847514609256
 20
110.9297368835622
 30
0.0
  0
LINE
  5
E1
330
1F
100
AcDbEntity
  8
0
  6
Continuous
 62
     7
370
    15
100
AcDbLine
 10
227.3514104446
 20
108.4226197252
 30
0.0
 11
227.3514104446
 21
92.4226189653
 31
0.0
  0
LINE
  5
E2
330
1F
100
AcDbEntity
  8
0
  6
Continuous
 62
     7
370
    15
100
AcDbLine
 10
227.3514104446
 20
124.4226204852
 30
0.0
 11
227.3514104446
 21
108.4226197252
 31
0.0
  0
LINE
  5
E3
330
1F
100
AcDbEntity
  8
0
  6
Continuous
 62
     7
370
    15
100
AcDbLine
 10
227.6514117976
 20
108.4226197252
 30
0.0
 11
227.6514117976
 21
92.7226203183
 31
0.0
  0
LINE
  5
E4
330
1F
100
AcDbEntity
  8
0
  6
Continuous
 62
     7
370
    15
100
AcDbLine
 10
227.6514117976
 20
124.1226191322
 30
0.0
 11
227.6514117976
 21
108.4226197252
 31
0.0
  0
ARC
  5
E5
330
1F
100
AcDbEntity
  8
0
  6
Continuous
 62
     7
370
    15
100
AcDbCircle
 10
191.720366433
 20
93.2362595373
 30
0.0
 40
2.373045168760899
100
AcDbArc
 50
185.6733221437
 51
252.2360921293
  0
ARC
  5
E6
330
1F
100
AcDbEntity
  8
0
  6
Continuous
 62
     7
370
    15
100
AcDbCircle
 10
191.8655528452
 20
93.3464521096
 30
0.0
 40
2.52444950454967
100
AcDbArc
 50
249.8603539676
 51
339.8452067799
  0
ARC
  5
E7
330
1F
100
AcDbEntity
  8
0
  6
Continuous
 62
     7
370
    15
100
AcDbCircle
 10
191.6825527563
 20
93.139804104
 30
0.0
 40
2.183107218796907
100
AcDbArc
 50
159.3153835038
 51
252.9991548677
  0
ARC
  5
E8
330
1F
100
AcDbEntity
  8
0
  6
Continuous
 62
     7
370
    15
100
AcDbCircle
 10
191.8661492763
 20
93.2760425799
 30
0.0
 40
2.370961923333706
100
AcDbArc
 50
249.7171366798
 51
345.4454345851
  0
ARC
  5
E9
330
1F
100
AcDbEntity
  8
0
  6
Continuous
 62
     7
370
    15
100
AcDbCircle
 10
191.6968957724
 20
93.1290157112
 30
0.0
 40
1.837005419486145
100
AcDbArc
 50
124.8165657044
 51
253.2465108969
  0
ARC
  5
EA
330
1F
100
AcDbEntity
  8
0
  6
Continuous
 62
     7
370
    15
100
AcDbCircle
 10
191.8719249682
 20
93.2218296066
 30
0.0
 40
1.98134510795618
100
AcDbArc
 50
249.1701466721
 51
357.5180965593
  0
CIRCLE
  5
EB
330
1F
100
AcDbEntity
  8
0
  6
HIDDEN
 62
     7
370
     0
100
AcDbCircle
 10
219.6014110525
 20
108.4226197252
 30
0.0
 40
2.153589838486254
  0
CIRCLE
  5
EC
330
1F
100
AcDbEntity
  8
0
  6
HIDDEN
 62
     7
370
     0
100
AcDbCircle
 10
219.6014110525
 20
108.4226197252
 30
0.0
 40
1.95358983848623
  0
LWPOLYLINE
  5
ED
330
1F
100
AcDbEntity
  8
0
  6
HIDDEN
 62
     7
370
     0
100
AcDbPolyline
 90
       22
 70
   128
 43
0.0
 10
191.8514111449
 20
92.5653031716
 10
192.5882987117
 20
92.6696727673
 10
193.2597115075
 20
92.9735083754
 10
193.8059890081
 20
93.4498118857
 10
194.1785962691
 20
94.0562630693
 10
194.3444201161
 20
94.7389756019
 10
194.2887307515
 20
95.4372877876
 10
194.0164753606
 20
96.0891502599
 10
193.5518422534
 20
96.6366431365
 10
192.9361206849
 20
97.0311187828
 10
192.2240165432
 20
97.2375268737
 10
191.4788057466
 20
97.2375268737
 10
190.7667016049
 20
97.0311187828
 10
190.1509791051
 20
96.6366431365
 10
189.6863478606
 20
96.0891502599
 10
189.4140915384
 20
95.4372877876
 10
189.3584012424
 20
94.7389756019
 10
189.5242269521
 20
94.0562630693
 10
189.8968323504
 20
93.4498118857
 10
190.4431107824
 20
92.9735083754
 10
191.1145235782
 20
92.6696727673
 10
191.8514111449
 20
92.5653031716
  0
LWPOLYLINE
  5
EE
330
1F
100
AcDbEntity
  8
0
  6
HIDDEN
 62
     7
370
     0
100
AcDbPolyline
 90
       25
 70
   128
 43
0.0
 10
181.123142028
 20
94.517759482
 10
181.3065769521
 20
93.7563902388
 10
181.5898876076
 20
93.0469059075
 10
181.953766979
 20
92.4376579622
 10
182.3734172059
 20
91.9701675574
 10
182.8202397001
 20
91.6762887189
 10
183.2637844046
 20
91.5760523329
 10
183.6738238481
 20
91.6762887189
 10
184.0224155595
 20
91.9701675574
 10
184.2858028968
 20
92.4376579622
 10
184.4460369458
 20
93.0469059075
 10
184.4921974835
 20
93.7563902388
 10
184.4211389681
 20
94.517759482
 10
184.2377038111
 20
95.2791296566
 10
183.9543931556
 20
95.9886130566
 10
183.5905137842
 20
96.5978610019
 10
183.1708635574
 20
97.065352338
 10
182.7240410631
 20
97.3592302451
 10
182.2804963586
 20
97.4594666312
 10
181.8704564494
 20
97.3592302451
 10
181.5218652037
 20
97.065352338
 10
181.2584776336
 20
96.5978610019
 10
181.0982440503
 20
95.9886130566
 10
181.0520835125
 20
95.2791296566
 10
181.123142028
 20
94.517759482
  0
LWPOLYLINE
  5
EF
330
1F
100
AcDbEntity
  8
0
  6
HIDDEN
 62
     7
370
     0
100
AcDbPolyline
 90
       21
 70
   128
 43
0.0
 10
181.8861739149
 20
94.582021671
 10
182.0490175297
 20
93.9456955219
 10
182.3089119417
 20
93.3716571579
 10
182.6404166778
 20
92.9160979266
 10
183.0110811998
 20
92.6236114154
 10
183.3846235086
 20
92.522825549
 10
183.7244775516
 20
92.6236114154
 10
183.9973760207
 20
92.9160979266
 10
184.1766067219
 20
93.3716571579
 10
184.2446244692
 20
93.9456955219
 10
184.1947717031
 20
94.582021671
 10
184.0319276226
 20
95.2183478201
 10
183.7720332106
 20
95.7923852528
 10
183.4405289402
 20
96.2479444841
 10
183.0698639524
 20
96.5404319266
 10
182.6963221093
 20
96.6412159304
 10
182.3564680663
 20
96.5404319266
 10
182.0835691315
 20
96.2479444841
 10
181.9043384304
 20
95.7923852528
 10
181.8363206831
 20
95.2183478201
 10
181.8861739149
 20
94.582021671
  0
ELLIPSE
  5
F0
330
1F
100
AcDbEntity
  8
0
  6
HIDDEN
 62
     7
370
     0
100
AcDbEllipse
 10
191.8514110525
 20
96.6921096139
 30
0.0
 11
1.760776919379055
 21
2.232245799914438
 31
0.0
210
0.0
220
0.0
230
1.0
 40
0.5126701559
 41
1.100887047646268
 42
4.02962702760823
  0
ARC
  5
F1
330
1F
100
AcDbEntity
  8
0
  6
HIDDEN
 62
     7
370
     0
100
AcDbCircle
 10
191.154811584
 20
97.869649495
 30
0.0
 40
0.7945949542258047
100
AcDbArc
 50
53.4208190544
 51
99.1663888759
  0
ELLIPSE
  5
F2
330
1F
100
AcDbEntity
  8
0
  6
HIDDEN
 62
     7
370
     0
100
AcDbEllipse
 10
191.8514110525
 20
96.6921096139
 30
0.0
 11
1.760776919379055
 21
-1.388886188042932
 31
0.0
210
0.0
220
0.0
230
1.0
 40
0.8239737799
 41
2.549926265248573
 42
4.885930273856133
  0
ARC
  5
F3
330
1F
100
AcDbEntity
  8
0
  6
HIDDEN
 62
     7
370
     0
100
AcDbCircle
 10
192.0974638145
 20
95.8526320499
 30
0.0
 40
1.353195702694764
100
AcDbArc
 50
217.8001040701
 51
249.7155767561
  0
LWPOLYLINE
  5
F4
330
1F
100
AcDbEntity
  8
0
  6
HIDDEN
 62
     7
370
     0
100
AcDbPolyline
 90
       21
 70
   128
 43
0.0
 10
191.8514111449
 20
92.9909734676
 10
192.5003464704
 20
93.0875562752
 10
193.0857600083
 20
93.3678508425
 10
193.5503465493
 20
93.8044194753
 10
193.8486305435
 20
94.354528437
 10
193.9514113029
 20
94.9643286566
 10
193.8486305435
 20
95.5741279448
 10
193.5503465493
 20
96.1242369065
 10
193.0857600083
 20
96.5608055393
 10
192.5003464704
 20
96.8411001066
 10
191.8514111449
 20
96.9376829142
 10
191.2024758195
 20
96.8411001066
 10
190.6170622816
 20
96.5608055393
 10
190.1524757405
 20
96.1242369065
 10
189.8541926776
 20
95.5741279448
 10
189.751410987
 20
94.9643286566
 10
189.8541926776
 20
94.354528437
 10
190.1524757405
 20
93.8044194753
 10
190.6170622816
 20
93.3678508425
 10
191.2024758195
 20
93.0875562752
 10
191.8514111449
 20
92.9909734676
  0
SPLINE
  5
F5
330
1F
100
AcDbEntity
  8
0
  6
HIDDEN
 62
     7
370
     0
100
AcDbSpline
210
0.0
220
0.0
230
1.0
 70
    11
 71
     3
 72
    62
 73
    58
 74
     0
 42
0.000000001
 43
0.00000001
 40
0.0
 40
0.0
 40
0.0
 40
0.0
 40
0.0312500000000002
 40
0.0312500000000002
 40
0.0625000000000003
 40
0.0625000000000003
 40
0.1250000000000003
 40
0.1250000000000003
 40
0.1562500000000004
 40
0.1562500000000004
 40
0.1875000000000005
 40
0.1875000000000005
 40
0.2187500000000006
 40
0.2187500000000006
 40
0.2500000000000007
 40
0.2500000000000007
 40
0.3125000000000009
 40
0.3125000000000009
 40
0.3750000000000012
 40
0.3750000000000012
 40
0.4062500000000013
 40
0.4062500000000013
 40
0.4375000000000013
 40
0.4375000000000013
 40
0.4687500000000013
 40
0.4687500000000013
 40
0.5000000000000012
 40
0.5000000000000012
 40
0.5312500000000013
 40
0.5312500000000013
 40
0.5625000000000013
 40
0.5625000000000013
 40
0.5937500000000014
 40
0.5937500000000014
 40
0.6250000000000014
 40
0.6250000000000014
 40
0.6562500000000016
 40
0.6562500000000016
 40
0.6875000000000016
 40
0.6875000000000016
 40
0.7500000000000013
 40
0.7500000000000013
 40
0.7812500000000012
 40
0.7812500000000012
 40
0.8125000000000011
 40
0.8125000000000011
 40
0.8437500000000009
 40
0.8437500000000009
 40
0.8750000000000008
 40
0.8750000000000008
 40
0.9062500000000006
 40
0.9062500000000006
 40
0.9375000000000004
 40
0.9375000000000004
 40
0.9687500000000002
 40
0.9687500000000002
 40
1.0
 40
1.0
 40
1.0
 40
1.0
 10
191.8514110525409
 20
105.5347210095045
 30
0.0
 10
191.7085869808512
 20
105.5347210095045
 30
0.0
 10
191.5692237462413
 20
105.544331523154
 30
0.0
 10
191.296663686791
 20
105.5820001985053
 30
0.0
 10
191.1624995667871
 20
105.6105666779192
 30
0.0
 10
190.7858051677906
 20
105.7219736422374
 30
0.0
 10
190.5602772879011
 20
105.8322962424899
 30
0.0
 10
190.2767655812038
 20
106.050041617338
 30
0.0
 10
190.1898222967462
 20
106.1327458645798
 30
0.0
 10
190.0384287908329
 20
106.3140285981461
 30
0.0
 10
189.9735280332522
 20
106.4125552822097
 30
0.0
 10
189.8660414479619
 20
106.6278302248347
 30
0.0
 10
189.8233805280066
 20
106.7461296728739
 30
0.0
 10
189.7667949483352
 20
106.9909593836734
 30
0.0
 10
189.7520136342454
 20
107.1185144865664
 30
0.0
 10
189.7502594688946
 20
107.517820281682
 30
0.0
 10
189.8080270170507
 20
107.7957648708027
 30
0.0
 10
190.0213131248036
 20
108.3167078675133
 30
0.0
 10
190.176136833709
 20
108.5608905065202
 30
0.0
 10
190.4586012862161
 20
108.8740031338459
 30
0.0
 10
190.5626647143657
 20
108.9711431692252
 30
0.0
 10
190.7848133488596
 20
109.1431608444254
 30
0.0
 10
190.9023133065281
 20
109.217963927683
 30
0.0
 10
191.1519877796567
 20
109.3432423824031
 30
0.0
 10
191.2860495936138
 20
109.3940154482104
 30
0.0
 10
191.5593827057572
 20
109.4623755104264
 30
0.0
 10
191.6999692850824
 20
109.4806889176444
 30
0.0
 10
191.9853363719647
 20
109.4821269803904
 30
0.0
 10
192.1252081696574
 20
109.465395333833
 30
0.0
 10
192.3998184185247
 20
109.3996098907302
 30
0.0
 10
192.5340649479644
 20
109.350234097537
 30
0.0
 10
192.7862047820826
 20
109.2263984774691
 30
0.0
 10
192.9068082995838
 20
109.1507471040129
 30
0.0
 10
193.1302972380427
 20
108.9797669415678
 30
0.0
 10
193.2335033220879
 20
108.8845999955394
 30
0.0
 10
193.4241751666649
 20
108.6756841383393
 30
0.0
 10
193.5109944278107
 20
108.562215469975
 30
0.0
 10
193.662370936516
 20
108.3253281478147
 30
0.0
 10
193.7278719335203
 20
108.2009450540263
 30
0.0
 10
193.8914187500013
 20
107.8086745941789
 30
0.0
 10
193.9503134244929
 20
107.5349894254157
 30
0.0
 10
193.9519370944243
 20
107.1333922588698
 30
0.0
 10
193.9381487828705
 20
107.0047186005094
 30
0.0
 10
193.882940634174
 20
106.7571262475331
 30
0.0
 10
193.8411098592867
 20
106.638472986231
 30
0.0
 10
193.7344148724964
 20
106.4210052248096
 30
0.0
 10
193.6685607351513
 20
106.3197668872414
 30
0.0
 10
193.5166167926072
 20
106.1363661131881
 30
0.0
 10
193.4312361328699
 20
106.054575669066
 30
0.0
 10
193.2416076993109
 20
105.9078512954667
 30
0.0
 10
193.1370228845362
 20
105.8430600128911
 30
0.0
 10
192.9152963373446
 20
105.7329484322403
 30
0.0
 10
192.7973148664934
 20
105.6868674943203
 30
0.0
 10
192.5444176541532
 20
105.6114935996611
 30
0.0
 10
192.4111286840677
 20
105.5829053477626
 30
0.0
 10
192.1375342823208
 20
105.5446642260529
 30
0.0
 10
191.9942351242306
 20
105.5347210095045
 30
0.0
 10
191.8514110525409
 20
105.5347210095045
 30
0.0
  0
SPLINE
  5
F6
330
1F
100
AcDbEntity
  8
0
  6
HIDDEN
 62
     7
370
     0
100
AcDbSpline
210
0.0
220
0.0
230
1.0
 70
     8
 71
     3
 72
     8
 73
     4
 74
     0
 42
0.000000001
 43
0.00000001
 40
0.0
 40
0.0
 40
0.0
 40
0.0
 40
1.0
 40
1.0
 40
1.0
 40
1.0
 10
191.0282308763815
 20
98.65409768975667
 30
0.0
 10
191.2396582663827
 20
98.64658817997417
 30
0.0
 10
191.4421268129155
 20
98.59246465033952
 30
0.0
 10
191.6283374120528
 20
98.50773636311436
 30
0.0
  0
SPLINE
  5
F7
330
1F
100
AcDbEntity
  8
0
  6
HIDDEN
 62
     7
370
     0
100
AcDbSpline
210
0.0
220
0.0
230
1.0
 70
     8
 71
     3
 72
     8
 73
     4
 74
     0
 42
0.000000001
 43
0.00000001
 40
0.0
 40
0.0
 40
0.0
 40
0.0
 40
1.0
 40
1.0
 40
1.0
 40
1.0
 10
191.6283374120528
 20
94.5833575951801
 30
0.0
 10
191.4418130627684
 20
94.70567801108056
 30
0.0
 10
191.2392581642428
 20
94.84676317174528
 30
0.0
 10
191.0282308763815
 20
95.0232468075301
 30
0.0
  0
CIRCLE
  5
F8
330
1F
100
AcDbEntity
  8
0
  6
HIDDEN
 62
     7
370
     0
100
AcDbCircle
 10
219.6014110525
 20
108.4226197252
 30
0.0
 40
2.625
  0
LINE
  5
F9
330
1F
100
AcDbEntity
  8
0
  6
HIDDEN
 62
     7
370
     0
100
AcDbLine
 10
181.022983873
 20
73.1226182232
 30
0.0
 11
180.8514109717
 21
73.1226182232
 31
0.0
  0
ELLIPSE
  5
FA
330
1F
100
AcDbEntity
  8
0
  6
HIDDEN
 62
     7
370
     0
100
AcDbEllipse
 10
181.0229839278
 20
71.1226197252
 30
0.0
 11
0.0
 21
2.000000000000014
 31
0.0
210
0.0
220
0.0
230
1.0
 40
0.4142135624
 41
4.712388980384702
 42
6.283185307179586
  0
LINE
  5
FB
330
1F
100
AcDbEntity
  8
0
  6
HIDDEN
 62
     7
370
     0
100
AcDbLine
 10
180.8514109717
 20
145.9226212154
 30
0.0
 11
181.022983873
 21
145.9226212154
 31
0.0
  0
ELLIPSE
  5
FC
330
1F
100
AcDbEntity
  8
0
  6
HIDDEN
 62
     7
370
     0
100
AcDbEllipse
 10
181.0229839278
 20
147.9226197252
 30
0.0
 11
0.0
 21
2.0
 31
0.0
210
0.0
220
0.0
230
1.0
 40
0.4142135624
 41
3.141592653589758
 42
4.712388980384695
  0
LINE
  5
FD
330
1F
100
AcDbEntity
  8
0
  6
HIDDEN
 62
     7
370
     0
100
AcDbLine
 10
181.8514109028
 20
62.2367052982
 30
0.0
 11
181.0670710539
 21
61.7891638229
 31
0.0
  0
LINE
  5
FE
330
1F
100
AcDbEntity
  8
0
  6
HIDDEN
 62
     7
370
     0
100
AcDbLine
 10
181.1412800008
 20
155.1327830801
 30
0.0
 11
181.8514109028
 21
154.4226533423
 31
0.0
  0
LINE
  5
FF
330
1F
100
AcDbEntity
  8
0
  6
HIDDEN
 62
     7
370
     0
100
AcDbLine
 10
196.701411288
 20
73.1226182232
 30
0.0
 11
181.022983873
 21
73.1226182232
 31
0.0
  0
LINE
  5
100
330
1F
100
AcDbEntity
  8
0
  6
HIDDEN
 62
     7
370
     0
100
AcDbLine
 10
181.8514109028
 20
154.4226533423
 30
0.0
 11
186.0747403835
 21
154.4226533423
 31
0.0
  0
LINE
  5
101
330
1F
100
AcDbEntity
  8
0
  6
HIDDEN
 62
     7
370
     0
100
AcDbLine
 10
191.4280821939
 20
154.4226533423
 30
0.0
 11
196.701411288
 21
154.4226533423
 31
0.0
  0
LINE
  5
102
330
1F
100
AcDbEntity
  8
0
  6
HIDDEN
 62
     7
370
     0
100
AcDbLine
 10
181.8514109028
 20
154.4226533423
 30
0.0
 11
181.8514109028
 21
147.9226215432
 31
0.0
  0
LINE
  5
103
330
1F
100
AcDbEntity
  8
0
  6
HIDDEN
 62
     7
370
     0
100
AcDbLine
 10
181.022983873
 20
145.9226212154
 30
0.0
 11
196.701411288
 21
145.9226212154
 31
0.0
  0
LINE
  5
104
330
1F
100
AcDbEntity
  8
0
  6
HIDDEN
 62
     7
370
     0
100
AcDbLine
 10
185.9713635777
 20
62.2367052982
 30
0.0
 11
181.8514109028
 21
62.2367052982
 31
0.0
  0
LINE
  5
105
330
1F
100
AcDbEntity
  8
0
  6
HIDDEN
 62
     7
370
     0
100
AcDbLine
 10
196.701411288
 20
62.2367052982
 30
0.0
 11
191.5314589997
 21
62.2367052982
 31
0.0
  0
LINE
  5
106
330
1F
100
AcDbEntity
  8
0
  6
HIDDEN
 62
     7
370
     0
100
AcDbLine
 10
181.8514109028
 20
62.2367052982
 30
0.0
 11
181.8514109028
 21
71.1226178954
 31
0.0
  0
LINE
  5
107
330
1F
100
AcDbEntity
  8
0
  6
HIDDEN
 62
     7
370
     0
100
AcDbLine
 10
86.0514101942
 20
95.922619539
 30
0.0
 11
86.0514101942
 21
120.9226199115
 31
0.0
  0
LINE
  5
108
330
1F
100
AcDbEntity
  8
0
  6
HIDDEN
 62
     7
370
     0
100
AcDbLine
 10
89.3360135515
 20
97.9226198668
 30
0.0
 11
89.3360135515
 21
118.9226195837
 31
0.0
  0
LINE
  5
109
330
1F
100
AcDbEntity
  8
0
  6
HIDDEN
 62
     7
370
     0
100
AcDbLine
 10
138.0514112671
 20
97.9226198668
 30
0.0
 11
138.0514112671
 21
118.9226195837
 31
0.0
  0
LINE
  5
10A
330
1F
100
AcDbEntity
  8
0
  6
HIDDEN
 62
     7
370
     0
100
AcDbLine
 10
142.3175205847
 20
105.0226196802
 30
0.0
 11
142.3175205847
 21
111.8226197703
 31
0.0
  0
SPLINE
  5
10B
330
1F
100
AcDbEntity
  8
0
  6
HIDDEN
 62
     7
370
     0
100
AcDbSpline
210
0.0
220
0.0
230
1.0
 70
     8
 71
     3
 72
    16
 73
    12
 74
     0
 42
0.000000001
 43
0.00000001
 40
0.0
 40
0.0
 40
0.0
 40
0.0
 40
0.2499999999999964
 40
0.2499999999999964
 40
0.4999999999999929
 40
0.4999999999999929
 40
0.6249999999999911
 40
0.6249999999999911
 40
0.7499999999999893
 40
0.7499999999999893
 40
1.0
 40
1.0
 40
1.0
 40
1.0
 10
227.6514110525409
 20
117.0313829820406
 30
0.0
 10
227.6514110525409
 20
116.9578571715193
 30
0.0
 10
227.6471979025591
 20
116.8829096596384
 30
0.0
 10
227.6246497103209
 20
116.7282519050455
 30
0.0
 10
227.6065013352688
 20
116.6473076509291
 30
0.0
 10
227.5566889556608
 20
116.5308346524105
 30
0.0
 10
227.535722409239
 20
116.4924098723749
 30
0.0
 10
227.4845390790781
 20
116.4261888783987
 30
0.0
 10
227.4549692375654
 20
116.3997492400645
 30
0.0
 10
227.3644301562231
 20
116.3462924969748
 30
0.0
 10
227.3049706688169
 20
116.3430699720825
 30
0.0
 10
227.2514110525006
 20
116.3508255124268
 30
0.0
  0
SPLINE
  5
10C
330
1F
100
AcDbEntity
  8
0
  6
HIDDEN
 62
     7
370
     0
100
AcDbSpline
210
0.0
220
0.0
230
1.0
 70
     8
 71
     3
 72
    10
 73
     6
 74
     0
 42
0.000000001
 43
0.00000001
 40
0.0
 40
0.0
 40
0.0
 40
0.0
 40
0.5
 40
0.5
 40
1.0
 40
1.0
 40
1.0
 40
1.0
 10
227.251411052509
 20
116.3508255124344
 30
0.0
 10
227.2102149905984
 20
116.3179372681981
 30
0.0
 10
227.1647775262512
 20
116.2894617413625
 30
0.0
 10
227.0631045949838
 20
116.2479894214489
 30
0.0
 10
227.0079433069857
 20
116.2359357232146
 30
0.0
 10
226.951411052541
 20
116.2359357232146
 30
0.0
  0
SPLINE
  5
10D
330
1F
100
AcDbEntity
  8
0
  6
HIDDEN
 62
     7
370
     0
100
AcDbSpline
210
0.0
220
0.0
230
1.0
 70
     8
 71
     3
 72
    10
 73
     6
 74
     0
 42
0.000000001
 43
0.00000001
 40
0.0
 40
0.0
 40
0.0
 40
0.0
 40
0.5
 40
0.5
 40
1.0
 40
1.0
 40
1.0
 40
1.0
 10
227.2514110525735
 20
100.4944139379847
 30
0.0
 10
227.2102149906563
 20
100.5273021822345
 30
0.0
 10
227.1647775263025
 20
100.5557777090818
 30
0.0
 10
227.063104595012
 20
100.5972500290154
 30
0.0
 10
227.0079433070004
 20
100.6093037272559
 30
0.0
 10
226.951411052541
 20
100.6093037272559
 30
0.0
  0
SPLINE
  5
10E
330
1F
100
AcDbEntity
  8
0
  6
HIDDEN
 62
     7
370
     0
100
AcDbSpline
210
0.0
220
0.0
230
1.0
 70
     8
 71
     3
 72
    16
 73
    12
 74
     0
 42
0.000000001
 43
0.00000001
 40
0.0
 40
0.0
 40
0.0
 40
0.0
 40
0.2500000000000005
 40
0.2500000000000005
 40
0.3750000000000004
 40
0.3750000000000004
 40
0.5000000000000003
 40
0.5000000000000003
 40
0.7500000000000001
 40
0.7500000000000001
 40
1.0
 40
1.0
 40
1.0
 40
1.0
 10
227.2514110525551
 20
100.4944139379925
 30
0.0
 10
227.3046656791978
 20
100.5021254702622
 30
0.0
 10
227.3642024837369
 20
100.4988900290105
 30
0.0
 10
227.4542972977048
 20
100.445989469041
 30
0.0
 10
227.4839465543072
 20
100.4195956341692
 30
0.0
 10
227.5347303755193
 20
100.3543453661704
 30
0.0
 10
227.5557267098044
 20
100.3163935546854
 30
0.0
 10
227.606532587752
 20
100.19839419451
 30
0.0
 10
227.6245233248272
 20
100.1176664956451
 30
0.0
 10
227.6471884713997
 20
99.96259467984203
 30
0.0
 10
227.6514110525409
 20
99.88750215736877
 30
0.0
 10
227.6514110525409
 20
99.81386151118099
 30
0.0
  0
LINE
  5
10F
330
1F
100
AcDbEntity
  8
0
  6
HIDDEN
 62
     7
370
     0
100
AcDbLine
 10
207.1514112314
 20
108.4226197252
 30
0.0
 11
207.1514112314
 21
99.722619603
 31
0.0
  0
LINE
  5
110
330
1F
100
AcDbEntity
  8
0
  6
HIDDEN
 62
     7
370
     0
100
AcDbLine
 10
207.1514112314
 20
117.1226198474
 30
0.0
 11
207.1514112314
 21
108.4226197252
 31
0.0
  0
LINE
  5
111
330
1F
100
AcDbEntity
  8
0
  6
HIDDEN
 62
     7
370
     0
100
AcDbLine
 10
210.5174382587
 20
108.4226197252
 30
0.0
 11
210.5174382587
 21
99.4226201127
 31
0.0
  0
LINE
  5
112
330
1F
100
AcDbEntity
  8
0
  6
HIDDEN
 62
     7
370
     0
100
AcDbLine
 10
210.5174382587
 20
117.4226193378
 30
0.0
 11
210.5174382587
 21
108.4226197252
 31
0.0
  0
LINE
  5
113
330
1F
100
AcDbEntity
  8
0
  6
HIDDEN
 62
     7
370
     0
100
AcDbLine
 10
218.7514101525
 20
116.2359355638
 30
0.0
 11
226.9514111241
 21
116.2359355638
 31
0.0
  0
LINE
  5
114
330
1F
100
AcDbEntity
  8
0
  6
HIDDEN
 62
     7
370
     0
100
AcDbLine
 10
218.7514101525
 20
100.6093038867
 30
0.0
 11
226.9514111241
 21
100.6093038867
 31
0.0
  0
SPLINE
  5
115
330
1F
100
AcDbEntity
  8
0
  6
HIDDEN
 62
     7
370
     0
100
AcDbSpline
210
0.0
220
0.0
230
1.0
 70
     8
 71
     3
 72
    14
 73
    10
 74
     0
 42
0.000000001
 43
0.00000001
 40
0.0
 40
0.0
 40
0.0
 40
0.0
 40
0.25
 40
0.25
 40
0.5
 40
0.5
 40
0.75
 40
0.75
 40
1.0
 40
1.0
 40
1.0
 40
1.0
 10
227.2514110525409
 20
120.2226197252353
 30
0.0
 10
227.2514110525409
 20
120.4068840259728
 30
0.0
 10
227.2515631220573
 20
120.5738448752555
 30
0.0
 10
227.2483346727859
 20
120.8742480049388
 30
0.0
 10
227.2454874722739
 20
121.0069844619695
 30
0.0
 10
227.2378375519158
 20
121.2231433939433
 30
0.0
 10
227.2327100171946
 20
121.3096274266977
 30
0.0
 10
227.2226719964778
 20
121.4292837757059
 30
0.0
 10
227.2177354015627
 20
121.4634229467749
 30
0.0
 10
227.2141324972975
 20
121.4710236786966
 30
0.0
  0
SPLINE
  5
116
330
1F
100
AcDbEntity
  8
0
  6
HIDDEN
 62
     7
370
     0
100
AcDbSpline
210
0.0
220
0.0
230
1.0
 70
     8
 71
     3
 72
    11
 73
     7
 74
     0
 42
0.000000001
 43
0.00000001
 40
0.0
 40
0.0
 40
0.0
 40
0.0
 40
0.2791705323776962
 40
0.6041340413410708
 40
0.9296437507337271
 40
1.0
 40
1.0
 40
1.0
 40
1.0
 10
227.2136045058528
 20
121.4550020793755
 30
0.0
 10
227.2111414261146
 20
121.4387599389163
 30
0.0
 10
227.2058112420735
 20
121.4036114228028
 30
0.0
 10
227.2282809789171
 20
121.0136987761635
 30
0.0
 10
227.2497868152294
 20
120.564770900171
 30
0.0
 10
227.2511671531471
 20
120.274253149657
 30
0.0
 10
227.2514124770919
 20
120.2226201692899
 30
0.0
  0
LINE
  5
117
330
1F
100
AcDbEntity
  8
0
  6
HIDDEN
 62
     7
370
     0
100
AcDbLine
 10
227.2514124771
 20
120.2226201693
 30
0.0
 11
227.2514124771
 21
116.3508253793
 31
0.0
  0
LINE
  5
118
330
1F
100
AcDbEntity
  8
0
  6
HIDDEN
 62
     7
370
     0
100
AcDbLine
 10
227.2514124771
 20
96.6226192812
 30
0.0
 11
227.2514124771
 21
100.4944140712
 31
0.0
  0
SPLINE
  5
119
330
1F
100
AcDbEntity
  8
0
  6
HIDDEN
 62
     7
370
     0
100
AcDbSpline
210
0.0
220
0.0
230
1.0
 70
     8
 71
     3
 72
    11
 73
     7
 74
     0
 42
0.000000001
 43
0.00000001
 40
0.0
 40
0.0
 40
0.0
 40
0.0
 40
0.2790230253800702
 40
0.6040295421114599
 40
0.9295827389566176
 40
1.0
 40
1.0
 40
1.0
 40
1.0
 10
227.2136045058528
 20
95.39029790706233
 30
0.0
 10
227.2111447849713
 20
95.40652109971218
 30
0.0
 10
227.2058199768278
 20
95.44164109604412
 30
0.0
 10
227.2282495448979
 20
95.83146172488419
 30
0.0
 10
227.2498356804119
 20
96.28039386725702
 30
0.0
 10
227.2511744054212
 20
96.570948588901
 30
0.0
 10
227.2514124770919
 20
96.62261928118066
 30
0.0
  0
LINE
  5
11A
330
1F
100
AcDbEntity
  8
0
  6
HIDDEN
 62
     7
370
     0
100
AcDbLine
 10
218.7514101525
 20
120.2226201693
 30
0.0
 11
218.7514101525
 21
116.2359355638
 31
0.0
  0
LINE
  5
11B
330
1F
100
AcDbEntity
  8
0
  6
HIDDEN
 62
     7
370
     0
100
AcDbLine
 10
218.7514101525
 20
96.6226192812
 30
0.0
 11
218.7514101525
 21
100.6093038867
 31
0.0
  0
SPLINE
  5
11C
330
1F
100
AcDbEntity
  8
0
  6
HIDDEN
 62
     7
370
     0
100
AcDbSpline
210
0.0
220
0.0
230
1.0
 70
    11
 71
     3
 72
    62
 73
    58
 74
     0
 42
0.000000001
 43
0.00000001
 40
0.0
 40
0.0
 40
0.0
 40
0.0
 40
0.0312499999999999
 40
0.0312499999999999
 40
0.0624999999999998
 40
0.0624999999999998
 40
0.1249999999999999
 40
0.1249999999999999
 40
0.1562499999999999
 40
0.1562499999999999
 40
0.1874999999999999
 40
0.1874999999999999
 40
0.21875
 40
0.21875
 40
0.25
 40
0.25
 40
0.3124999999999999
 40
0.3124999999999999
 40
0.375
 40
0.375
 40
0.4062500000000001
 40
0.4062500000000001
 40
0.4375000000000001
 40
0.4375000000000001
 40
0.4687500000000001
 40
0.4687500000000001
 40
0.5000000000000001
 40
0.5000000000000001
 40
0.5312500000000001
 40
0.5312500000000001
 40
0.5625000000000001
 40
0.5625000000000001
 40
0.5937500000000001
 40
0.5937500000000001
 40
0.625
 40
0.625
 40
0.65625
 40
0.65625
 40
0.6875
 40
0.6875
 40
0.75
 40
0.75
 40
0.78125
 40
0.78125
 40
0.8125
 40
0.8125
 40
0.84375
 40
0.84375
 40
0.8749999999999999
 40
0.8749999999999999
 40
0.9062499999999999
 40
0.9062499999999999
 40
0.9374999999999999
 40
0.9374999999999999
 40
0.9687499999999999
 40
0.9687499999999999
 40
1.0
 40
1.0
 40
1.0
 40
1.0
 10
191.8514110525409
 20
107.3638094336652
 30
0.0
 10
191.9942351242306
 20
107.3638094336652
 30
0.0
 10
192.1335983588405
 20
107.3812696443186
 30
0.0
 10
192.4061584182907
 20
107.4477652394052
 30
0.0
 10
192.5403225382947
 20
107.497597056013
 30
0.0
 10
192.9170169372912
 20
107.6840850200164
 30
0.0
 10
193.1425448171807
 20
107.8602976071803
 30
0.0
 10
193.4260565238779
 20
108.1719641430635
 30
0.0
 10
193.5129998083356
 20
108.2857726367001
 30
0.0
 10
193.6643933142489
 20
108.5234761284559
 30
0.0
 10
193.7292940718296
 20
108.6474465638003
 30
0.0
 10
193.8367806571198
 20
108.9057762550104
 30
0.0
 10
193.8794415770752
 20
109.0417351211943
 30
0.0
 10
193.9360271567465
 20
109.3101607565621
 30
0.0
 10
193.9508084708363
 20
109.4439968744591
 30
0.0
 10
193.9525626361872
 20
109.8440437925926
 30
0.0
 10
193.8947950880311
 20
110.0970251219416
 30
0.0
 10
193.6815089802782
 20
110.5323859462393
 30
0.0
 10
193.5266852713728
 20
110.7163728581734
 30
0.0
 10
193.2442208188657
 20
110.9355816122366
 30
0.0
 10
193.1401573907161
 20
111.0003961488559
 30
0.0
 10
192.9180087562222
 20
111.1111647822607
 30
0.0
 10
192.8005087985537
 20
111.1571372534783
 30
0.0
 10
192.5508343254251
 20
111.2321055219147
 30
0.0
 10
192.416772511468
 20
111.261260490546
 30
0.0
 10
192.1434393993246
 20
111.3000228279749
 30
0.0
 10
192.0028528199994
 20
111.3101068337623
 30
0.0
 10
191.717485733117
 20
111.3109055353323
 30
0.0
 10
191.5776139354243
 20
111.3017024066166
 30
0.0
 10
191.303003686557
 20
111.2644614505819
 30
0.0
 10
191.1687571571174
 20
111.2361834984568
 30
0.0
 10
190.9166173229991
 20
111.1622781342864
 30
0.0
 10
190.7960138054979
 20
111.1159050611243
 30
0.0
 10
190.5725248670391
 20
111.0060810139666
 30
0.0
 10
190.4693187829939
 20
110.9427788793562
 30
0.0
 10
190.2786469384168
 20
110.7969396966816
 30
0.0
 10
190.1918276772711
 20
110.7145181948299
 30
0.0
 10
190.0404511685657
 20
110.5339992876869
 30
0.0
 10
189.9749501715614
 20
110.4352715416919
 30
0.0
 10
189.8114033550804
 20
110.108496791972
 30
0.0
 10
189.7525086805888
 20
109.8602626592102
 30
0.0
 10
189.7508850106575
 20
109.4593514827896
 30
0.0
 10
189.7646733222113
 20
109.3248150624954
 30
0.0
 10
189.8198814709077
 20
109.0541814115316
 30
0.0
 10
189.8617122457951
 20
108.9181889421529
 30
0.0
 10
189.9684072325853
 20
108.6579149065081
 30
0.0
 10
190.0342613699304
 20
108.5308132174339
 30
0.0
 10
190.1862053124746
 20
108.2906974316848
 30
0.0
 10
190.2715859722119
 20
108.1782951178043
 30
0.0
 10
190.4612144057709
 20
107.9685930289267
 30
0.0
 10
190.5657992205455
 20
107.8713860204945
 30
0.0
 10
190.7875257677372
 20
107.70026895128
 30
0.0
 10
190.9055072385884
 20
107.6252640558951
 30
0.0
 10
191.1584044509286
 20
107.4992020944908
 30
0.0
 10
191.291693421014
 20
107.4493487308776
 30
0.0
 10
191.5652878227609
 20
107.3818708459952
 30
0.0
 10
191.7085869808512
 20
107.3638094336652
 30
0.0
 10
191.8514110525409
 20
107.3638094336652
 30
0.0
  0
LINE
  5
11D
330
1F
100
AcDbEntity
  8
0
  6
HIDDEN
 62
     7
370
     0
100
AcDbLine
 10
218.7514101525
 20
121.4726199085
 30
0.0
 11
218.7514101525
 21
120.2226201693
 31
0.0
  0
LINE
  5
11E
330
1F
100
AcDbEntity
  8
0
  6
HIDDEN
 62
     7
370
     0
100
AcDbLine
 10
218.7514101525
 20
95.372619542
 30
0.0
 11
218.7514101525
 21
96.6226192812
 31
0.0
  0
SPLINE
  5
11F
330
1F
100
AcDbEntity
  8
0
  6
HIDDEN
 62
     7
370
     0
100
AcDbSpline
210
0.0
220
0.0
230
1.0
 70
     8
 71
     3
 72
     8
 73
     4
 74
     0
 42
0.000000001
 43
0.00000001
 40
0.0
 40
0.0
 40
0.0
 40
0.0
 40
1.0
 40
1.0
 40
1.0
 40
1.0
 10
191.0282308763814
 20
118.1911417607139
 30
0.0
 10
191.2396582663826
 20
118.1986512704964
 30
0.0
 10
191.4421268129154
 20
118.252774800131
 30
0.0
 10
191.6283374120527
 20
118.3375030873562
 30
0.0
  0
ELLIPSE
  5
120
330
1F
100
AcDbEntity
  8
0
  6
HIDDEN
 62
     7
370
     0
100
AcDbEllipse
 10
191.8514110525
 20
120.1531298366
 30
0.0
 11
-1.760776919379111
 21
2.232245799914466
 31
0.0
210
0.0
220
0.0
230
1.0
 40
0.5126701559
 41
5.395150933160725
 42
8.323890913123082
  0
SPLINE
  5
121
330
1F
100
AcDbEntity
  8
0
  6
HIDDEN
 62
     7
370
     0
100
AcDbSpline
210
0.0
220
0.0
230
1.0
 70
     8
 71
     3
 72
     8
 73
     4
 74
     0
 42
0.000000001
 43
0.00000001
 40
0.0
 40
0.0
 40
0.0
 40
0.0
 40
1.0
 40
1.0
 40
1.0
 40
1.0
 10
191.6283374120536
 20
122.2618818552909
 30
0.0
 10
191.4418130627687
 20
122.1395614393902
 30
0.0
 10
191.2392581642426
 20
121.9984762787251
 30
0.0
 10
191.0282308763808
 20
121.8219926429398
 30
0.0
  0
ELLIPSE
  5
122
330
1F
100
AcDbEntity
  8
0
  6
HIDDEN
 62
     7
370
     0
100
AcDbEllipse
 10
191.8514110525
 20
120.1531298366
 30
0.0
 11
1.760776919379055
 21
1.388886188042946
 31
0.0
210
0.0
220
0.0
230
1.0
 40
0.8239737799
 41
1.3972550333239
 42
3.733259041931014
  0
LWPOLYLINE
  5
123
330
1F
100
AcDbEntity
  8
0
  6
HIDDEN
 62
     7
370
     0
100
AcDbPolyline
 90
       21
 70
   128
 43
0.0
 10
191.8514111449
 20
119.9075565363
 10
192.5003464704
 20
120.0041393439
 10
193.0857600083
 20
120.2844339112
 10
193.5503465493
 20
120.7210025439
 10
193.8486305435
 20
121.2711115057
 10
193.9514113029
 20
121.8809107939
 10
193.8486305435
 20
122.4907110134
 10
193.5503465493
 20
123.0408199752
 10
193.0857600083
 20
123.4773886079
 10
192.5003464704
 20
123.7576831753
 10
191.8514111449
 20
123.8542659829
 10
191.2024758195
 20
123.7576831753
 10
190.6170622816
 20
123.4773886079
 10
190.1524757405
 20
123.0408199752
 10
189.8541926776
 20
122.4907110134
 10
189.751410987
 20
121.8809107939
 10
189.8541926776
 20
121.2711115057
 10
190.1524757405
 20
120.7210025439
 10
190.6170622816
 20
120.2844339112
 10
191.2024758195
 20
120.0041393439
 10
191.8514111449
 20
119.9075565363
  0
LINE
  5
124
330
1F
100
AcDbEntity
  8
0
  6
HIDDEN
 62
     7
370
     0
100
AcDbLine
 10
186.8414107149
 20
143.8156640778
 30
0.0
 11
186.8414107149
 21
138.2726202408
 31
0.0
  0
LINE
  5
125
330
1F
100
AcDbEntity
  8
0
  6
HIDDEN
 62
     7
370
     0
100
AcDbLine
 10
190.6614109312
 20
143.8156640778
 30
0.0
 11
190.6614109312
 21
138.2726202408
 31
0.0
  0
SPLINE
  5
126
330
1F
100
AcDbEntity
  8
0
  6
HIDDEN
 62
     7
370
     0
100
AcDbSpline
210
0.0
220
0.0
230
1.0
 70
     8
 71
     3
 72
    14
 73
    10
 74
     0
 42
0.000000001
 43
0.00000001
 40
0.0
 40
0.0
 40
0.0
 40
0.0
 40
0.25
 40
0.25
 40
0.5
 40
0.5
 40
0.75
 40
0.75
 40
1.0
 40
1.0
 40
1.0
 40
1.0
 10
189.8614110525407
 20
125.3979092821691
 30
0.0
 10
189.9358366046753
 20
125.4887667369507
 30
0.0
 10
190.0177148642888
 20
125.5779773201564
 30
0.0
 10
190.1907010104644
 20
125.7534016389483
 30
0.0
 10
190.2813728303254
 20
125.8389365945751
 30
0.0
 10
190.4487363796697
 20
125.9997882075136
 30
0.0
 10
190.5251872046362
 20
126.07552029641
 30
0.0
 10
190.6314802894746
 20
126.2071113199855
 30
0.0
 10
190.6614110525409
 20
126.2641114948918
 30
0.0
 10
190.6614110525409
 20
126.3063087678438
 30
0.0
  0
SPLINE
  5
127
330
1F
100
AcDbEntity
  8
0
  6
HIDDEN
 62
     7
370
     0
100
AcDbSpline
210
0.0
220
0.0
230
1.0
 70
     8
 71
     3
 72
    14
 73
    10
 74
     0
 42
0.000000001
 43
0.00000001
 40
0.0
 40
0.0
 40
0.0
 40
0.0
 40
0.25
 40
0.25
 40
0.5
 40
0.5
 40
0.75
 40
0.75
 40
1.0
 40
1.0
 40
1.0
 40
1.0
 10
190.6614110525409
 20
122.1742675692123
 30
0.0
 10
190.6614110525409
 20
122.1317671515578
 30
0.0
 10
190.6316975937242
 20
122.1044952450751
 30
0.0
 10
190.525616226832
 20
122.090942471108
 30
0.0
 10
190.4492492976674
 20
122.105388028249
 30
0.0
 10
190.280489753139
 20
122.1777641922688
 30
0.0
 10
190.1896929406671
 20
122.2348371273862
 30
0.0
 10
190.0181280004597
 20
122.3759950609031
 30
0.0
 10
189.9360667601652
 20
122.4605722759867
 30
0.0
 10
189.8614110525407
 20
122.553945439116
 30
0.0
  0
LINE
  5
128
330
1F
100
AcDbEntity
  8
0
  6
HIDDEN
 62
     7
370
     0
100
AcDbLine
 10
190.6614109312
 20
94.625357973
 30
0.0
 11
190.6614109312
 21
90.4933171967
 31
0.0
  0
LINE
  5
129
330
1F
100
AcDbEntity
  8
0
  6
HIDDEN
 62
     7
370
     0
100
AcDbLine
 10
191.984572578
 20
94.1254724438
 30
0.0
 11
191.984572578
 21
89.4336788604
 31
0.0
  0
LINE
  5
12A
330
1F
100
AcDbEntity
  8
0
  6
HIDDEN
 62
     7
370
     0
100
AcDbLine
 10
191.984572578
 20
146.93369853
 30
0.0
 11
191.984572578
 21
138.2726202408
 31
0.0
  0
LINE
  5
12B
330
1F
100
AcDbEntity
  8
0
  6
HIDDEN
 62
     7
370
     0
100
AcDbLine
 10
185.5182499995
 20
146.93369853
 30
0.0
 11
185.5182499995
 21
138.2726202408
 31
0.0
  0
ARC
  5
12C
330
1F
100
AcDbEntity
  8
0
  6
HIDDEN
 62
     7
370
     0
100
AcDbCircle
 10
192.0974638145
 20
120.9926074006
 30
0.0
 40
1.353195702694768
100
AcDbArc
 50
110.2844232439
 51
142.1998959299
  0
ARC
  5
12D
330
1F
100
AcDbEntity
  8
0
  6
HIDDEN
 62
     7
370
     0
100
AcDbCircle
 10
191.154811584
 20
118.9755899554
 30
0.0
 40
0.794594954225782
100
AcDbArc
 50
260.8336111241
 51
306.5791809456
  0
LWPOLYLINE
  5
12E
330
1F
100
AcDbEntity
  8
0
  6
HIDDEN
 62
     7
370
     0
100
AcDbPolyline
 90
       21
 70
   128
 43
0.0
 10
181.8861739149
 20
121.1355714748
 10
182.0490175297
 20
120.6583291913
 10
182.3089119417
 20
120.3381842623
 10
182.6404166778
 20
120.2064756925
 10
183.0110811998
 20
120.2760948489
 10
183.3846235086
 20
120.5402281756
 10
183.7244775516
 20
120.9730193639
 10
183.9973760207
 20
121.5321044127
 10
184.1766067219
 20
122.162755082
 10
184.2446244692
 20
122.8032405177
 10
184.1947717031
 20
123.3908650155
 10
184.0319276226
 20
123.868107299
 10
183.7720332106
 20
124.1882512966
 10
183.4405289402
 20
124.3199607978
 10
183.0698639524
 20
124.2503407101
 10
182.6963221093
 20
123.9862083147
 10
182.3564680663
 20
123.5534171263
 10
182.0835691315
 20
122.9943320776
 10
181.9043384304
 20
122.3636804769
 10
181.8363206831
 20
121.7231950412
 10
181.8861739149
 20
121.1355714748
  0
LWPOLYLINE
  5
12F
330
1F
100
AcDbEntity
  8
0
  6
HIDDEN
 62
     7
370
     0
100
AcDbPolyline
 90
       25
 70
   128
 43
0.0
 10
181.123142028
 20
120.7165554786
 10
181.3065769521
 20
120.1343857372
 10
181.5898876076
 20
119.7016709173
 10
181.953766979
 20
119.4479013482
 10
182.3734172059
 20
119.3903698275
 10
182.8202397001
 20
119.5329981545
 10
183.2637844046
 20
119.8660651842
 10
183.6738238481
 20
120.3668736542
 10
184.0224155595
 20
121.0012943173
 10
184.2858028968
 20
121.7260923857
 10
184.4460369458
 20
122.491873304
 10
184.4921974835
 20
123.2464522744
 10
184.4211389681
 20
123.9384044582
 10
184.2377038111
 20
124.5205732683
 10
183.9543931556
 20
124.9532880882
 10
183.5905137842
 20
125.2070585886
 10
183.1708635574
 20
125.2645901094
 10
182.7240410631
 20
125.1219617823
 10
182.2804963586
 20
124.7888947526
 10
181.8704564494
 20
124.2880853514
 10
181.5218652037
 20
123.6536656196
 10
181.2584776336
 20
122.9288675512
 10
181.0982440503
 20
122.1630857015
 10
181.0520835125
 20
121.4085076625
 10
181.123142028
 20
120.7165554786
  0
LWPOLYLINE
  5
130
330
1F
100
AcDbEntity
  8
0
  6
HIDDEN
 62
     7
370
     0
100
AcDbPolyline
 90
       22
 70
   128
 43
0.0
 10
191.8514111449
 20
119.5814734945
 10
192.5882987117
 20
119.6858430902
 10
193.2597115075
 20
119.9896786982
 10
193.8059890081
 20
120.4659831399
 10
194.1785962691
 20
121.0724343235
 10
194.3444201161
 20
121.7551468561
 10
194.2887307515
 20
122.4534581105
 10
194.0164753606
 20
123.1053215141
 10
193.5518422534
 20
123.6528134594
 10
192.9361206849
 20
124.047290037
 10
192.2240165432
 20
124.2536971966
 10
191.4788057466
 20
124.2536971966
 10
190.7667016049
 20
124.047290037
 10
190.1509791051
 20
123.6528134594
 10
189.6863478606
 20
123.1053215141
 10
189.4140915384
 20
122.4534581105
 10
189.3584012424
 20
121.7551468561
 10
189.5242269521
 20
121.0724343235
 10
189.8968323504
 20
120.4659831399
 10
190.4431107824
 20
119.9896786982
 10
191.1145235782
 20
119.6858430902
 10
191.8514111449
 20
119.5814734945
  0
SPLINE
  5
131
330
1F
100
AcDbEntity
  8
0
  6
HIDDEN
 62
     7
370
     0
100
AcDbSpline
210
0.0
220
0.0
230
1.0
 70
     8
 71
     3
 72
    34
 73
    30
 74
     0
 42
0.000000001
 43
0.00000001
 40
0.0
 40
0.0
 40
0.0
 40
0.0
 40
0.062499999999999
 40
0.062499999999999
 40
0.124999999999998
 40
0.124999999999998
 40
0.1874999999999971
 40
0.1874999999999971
 40
0.2499999999999966
 40
0.2499999999999966
 40
0.3124999999999962
 40
0.3124999999999962
 40
0.3749999999999957
 40
0.3749999999999957
 40
0.4999999999999958
 40
0.4999999999999958
 40
0.6249999999999958
 40
0.6249999999999958
 40
0.6874999999999964
 40
0.6874999999999964
 40
0.7499999999999971
 40
0.7499999999999971
 40
0.8124999999999979
 40
0.8124999999999979
 40
0.8749999999999986
 40
0.8749999999999986
 40
0.9374999999999992
 40
0.9374999999999992
 40
1.0
 40
1.0
 40
1.0
 40
1.0
 10
191.9845725600028
 20
127.4115601132364
 30
0.0
 10
192.1439643877907
 20
127.4037200173136
 30
0.0
 10
192.2999668712342
 20
127.3820613692232
 30
0.0
 10
192.6054763873115
 20
127.3122131417304
 30
0.0
 10
192.7563707223237
 20
127.2633874394022
 30
0.0
 10
193.0442700670145
 20
127.1404634859949
 30
0.0
 10
193.1802164699742
 20
127.0671559778605
 30
0.0
 10
193.4363990855662
 20
126.8971453540892
 30
0.0
 10
193.5575813733253
 20
126.7992715618877
 30
0.0
 10
193.7747274451981
 20
126.5866873864558
 30
0.0
 10
193.8716893181584
 20
126.4716414479262
 30
0.0
 10
194.042251753984
 20
126.223780327806
 30
0.0
 10
194.115491807196
 20
126.0907468307405
 30
0.0
 10
194.2903722639447
 20
125.6812388146103
 30
0.0
 10
194.3514102249207
 20
125.3832781648352
 30
0.0
 10
194.3514118801438
 20
124.7918366089608
 30
0.0
 10
194.2903772705575
 20
124.4916630589842
 30
0.0
 10
194.1154875031556
 20
124.0764317787165
 30
0.0
 10
194.0422437977312
 20
123.9410766604696
 30
0.0
 10
193.8716830819945
 20
123.688177329083
 30
0.0
 10
193.7747193664011
 20
123.5704120514752
 30
0.0
 10
193.5575590378139
 20
123.3522817561066
 30
0.0
 10
193.436377779127
 20
123.2515784309596
 30
0.0
 10
193.1802075521883
 20
123.0763347381264
 30
0.0
 10
193.0442642025256
 20
123.0005897690358
 30
0.0
 10
192.7563614993425
 20
122.8734213937335
 30
0.0
 10
192.6054713034258
 20
122.8228201214061
 30
0.0
 10
192.2999657997201
 20
122.7503910216582
 30
0.0
 10
192.1439644014566
 20
122.7279052502612
 30
0.0
 10
191.9845725600028
 20
122.7197667903664
 30
0.0
  0
SPLINE
  5
132
330
1F
100
AcDbEntity
  8
0
  6
HIDDEN
 62
     7
370
     0
100
AcDbSpline
210
0.0
220
0.0
230
1.0
 70
     8
 71
     3
 72
    10
 73
     6
 74
     0
 42
0.000000001
 43
0.00000001
 40
0.0
 40
0.0
 40
0.0
 40
0.0
 40
0.5
 40
0.5
 40
1.0
 40
1.0
 40
1.0
 40
1.0
 10
191.9845725600028
 20
122.7197667903664
 30
0.0
 10
191.7618455331294
 20
122.5762782900726
 30
0.0
 10
191.5401596459043
 20
122.4615575443397
 30
0.0
 10
191.0989388080523
 20
122.2917971149819
 30
0.0
 10
190.8793801606535
 20
122.2363771205945
 30
0.0
 10
190.6614110525412
 20
122.2198817912248
 30
0.0
  0
SPLINE
  5
133
330
1F
100
AcDbEntity
  8
0
  6
HIDDEN
 62
     7
370
     0
100
AcDbSpline
210
0.0
220
0.0
230
1.0
 70
     8
 71
     3
 72
    10
 73
     6
 74
     0
 42
0.000000001
 43
0.00000001
 40
0.0
 40
0.0
 40
0.0
 40
0.0
 40
0.5
 40
0.5
 40
1.0
 40
1.0
 40
1.0
 40
1.0
 10
190.6614110525412
 20
126.3519229898563
 30
0.0
 10
190.8783018850619
 20
126.5889619293049
 30
0.0
 10
191.0974545217208
 20
126.7911321642984
 30
0.0
 10
191.5389390219897
 20
127.1418842358171
 30
0.0
 10
191.7621414872631
 20
127.2905603282139
 30
0.0
 10
191.9845725600028
 20
127.4115601132364
 30
0.0
  0
SPLINE
  5
134
330
1F
100
AcDbEntity
  8
0
  6
HIDDEN
 62
     7
370
     0
100
AcDbSpline
210
0.0
220
0.0
230
1.0
 70
     8
 71
     3
 72
    16
 73
    12
 74
     0
 42
0.000000001
 43
0.00000001
 40
0.0
 40
0.0
 40
0.0
 40
0.0
 40
0.2499999999999994
 40
0.2499999999999994
 40
0.4999999999999989
 40
0.4999999999999989
 40
0.7499999999999983
 40
0.7499999999999983
 40
0.8749999999999991
 40
0.8749999999999991
 40
1.0
 40
1.0
 40
1.0
 40
1.0
 10
189.8614110525409
 20
122.5539454391157
 30
0.0
 10
189.6959969460607
 20
122.760831675141
 30
0.0
 10
189.5697996150851
 20
122.98670037295
 30
0.0
 10
189.3953933167543
 20
123.4755696185628
 30
0.0
 10
189.3515632776574
 20
123.7273366719073
 30
0.0
 10
189.3512596046874
 20
124.2391159964896
 30
0.0
 10
189.3951164647477
 20
124.4901707055723
 30
0.0
 10
189.5250382240149
 20
124.8510192737143
 30
0.0
 10
189.5791530354228
 20
124.9682920420628
 30
0.0
 10
189.7058300255662
 20
125.1907809934016
 30
0.0
 10
189.7787037459271
 20
125.2969416016451
 30
0.0
 10
189.8614110525409
 20
125.3979092821694
 30
0.0
  0
LWPOLYLINE
  5
135
330
1F
100
AcDbEntity
  8
0
  6
HIDDEN
 62
     7
370
     0
100
AcDbPolyline
 90
       20
 70
   128
 43
0.0
 10
192.5287424957
 20
123.5768231253
 10
191.88779233
 20
123.6887382964
 10
191.2428998758
 20
123.5990239928
 10
190.6639487853
 20
123.3174032221
 10
190.2136776035
 20
122.8743926311
 10
189.9408801829
 20
122.3180000359
 10
189.8751185646
 20
121.7085192601
 10
190.0235192289
 20
121.1119969065
 10
190.3700000976
 20
120.5930751438
 10
190.8770149012
 20
120.207987229
 10
191.4896202644
 20
119.9984638641
 10
192.1414315139
 20
119.9872097621
 10
192.7618143519
 20
120.1754449556
 10
193.2835412582
 20
120.5427706862
 10
193.6500744333
 20
121.0493812958
 10
193.821694832
 20
121.6403781126
 10
193.7798039426
 20
122.2517178083
 10
193.5289410313
 20
122.817151683
 10
193.0962932666
 20
123.2754061619
 10
192.5287424957
 20
123.5768231253
  0
LWPOLYLINE
  5
136
330
1F
100
AcDbEntity
  8
0
  6
HIDDEN
 62
     7
370
     0
100
AcDbPolyline
 90
       22
 70
   128
 43
0.0
 10
192.7064611947
 20
124.1382616261
 10
191.9760258307
 20
124.2770156512
 10
191.2345179727
 20
124.207293118
 10
190.5478231048
 20
123.9352835963
 10
189.9769577568
 20
123.4851586322
 10
189.5726464127
 20
122.8969138736
 10
189.3708129783
 20
122.2228170062
 10
189.3893919324
 20
121.5227651099
 10
189.6267311086
 20
120.8589612196
 10
190.0617435013
 20
120.2903850625
 10
190.6557764297
 20
119.8675590257
 10
191.3560453241
 20
119.6280535931
 10
192.1003303861
 20
119.593147623
 10
192.8224983995
 20
119.7659442822
 10
193.4583803077
 20
120.1310897867
 10
193.9514764955
 20
120.6561387206
 10
194.2579710295
 20
121.2944383422
 10
194.3506339004
 20
121.9892729694
 10
194.2212284913
 20
122.6789042974
 10
193.881256636
 20
123.3020540947
 10
193.3609229883
 20
123.803354303
 10
192.7064611947
 20
124.1382616261
  0
LWPOLYLINE
  5
137
330
1F
100
AcDbEntity
  8
0
  6
HIDDEN
 62
     7
370
     0
100
AcDbPolyline
 90
       22
 70
   128
 43
0.0
 10
192.7064611947
 20
124.7367965678
 10
191.9760258307
 20
124.8755524556
 10
191.2345179727
 20
124.8058280597
 10
190.5478231048
 20
124.533818538
 10
189.9769577568
 20
124.0836935738
 10
189.5726464127
 20
123.4954488153
 10
189.3708129783
 20
122.8213528792
 10
189.3893919324
 20
122.1213009829
 10
189.6267311086
 20
121.4574961612
 10
190.0617435013
 20
120.8889209355
 10
190.6557764297
 20
120.4660948986
 10
191.3560453241
 20
120.2265885348
 10
192.1003303861
 20
120.1916825647
 10
192.8224983995
 20
120.3644792239
 10
193.4583803077
 20
120.7296247283
 10
193.9514764955
 20
121.2546736623
 10
194.2579710295
 20
121.8929732839
 10
194.3506339004
 20
122.5878088424
 10
194.2212284913
 20
123.2774392391
 10
193.881256636
 20
123.9005899677
 10
193.3609229883
 20
124.4018892447
 10
192.7064611947
 20
124.7367965678
  0
LWPOLYLINE
  5
138
330
1F
100
AcDbEntity
  8
0
  6
HIDDEN
 62
     7
370
     0
100
AcDbPolyline
 90
       20
 70
   128
 43
0.0
 10
192.5354517435
 20
125.4752552757
 10
191.8881527518
 20
125.5882787207
 10
191.2368723561
 20
125.4976759354
 10
190.6521871125
 20
125.2132649223
 10
190.1974567582
 20
124.7658668706
 10
189.9219575708
 20
124.2039627085
 10
189.8555440267
 20
123.588446031
 10
190.005414318
 20
122.9860144357
 10
190.3553271105
 20
122.461953635
 10
190.8673636054
 20
122.0730519543
 10
191.4860365351
 20
121.8614526714
 10
192.1443037127
 20
121.8500868107
 10
192.770831417
 20
122.0401865119
 10
193.297725301
 20
122.4111499885
 10
193.6678887715
 20
122.9227794955
 10
193.8412097653
 20
123.5196296746
 10
193.798903506
 20
124.1370248298
 10
193.5455576887
 20
124.7080596784
 10
193.1086239775
 20
125.1708524922
 10
192.5354517435
 20
125.4752552757
  0
LWPOLYLINE
  5
139
330
1F
100
AcDbEntity
  8
0
  6
HIDDEN
 62
     7
370
     0
100
AcDbPolyline
 90
       20
 70
   128
 43
0.0
 10
192.5354517435
 20
124.057478706
 10
191.8881527518
 20
124.170502151
 10
191.2368723561
 20
124.0798993657
 10
190.6521871125
 20
123.7954892839
 10
190.1974567582
 20
123.3480912322
 10
189.9219575708
 20
122.7861870701
 10
189.8555440267
 20
122.1706694613
 10
190.005414318
 20
121.5682387973
 10
190.3553271105
 20
121.0441770653
 10
190.8673636054
 20
120.6552753846
 10
191.4860365351
 20
120.443677033
 10
192.1443037127
 20
120.4323111723
 10
192.770831417
 20
120.6224108735
 10
193.297725301
 20
120.9933743501
 10
193.6678887715
 20
121.5050029258
 10
193.8412097653
 20
122.1018540362
 10
193.798903506
 20
122.71924826
 10
193.5455576887
 20
123.2902831087
 10
193.1086239775
 20
123.7530768538
 10
192.5354517435
 20
124.057478706
  0
LWPOLYLINE
  5
13A
330
1F
100
AcDbEntity
  8
0
  6
HIDDEN
 62
     7
370
     0
100
AcDbPolyline
 90
       22
 70
   128
 43
0.0
 10
192.7064611947
 20
124.9727899829
 10
191.9760258307
 20
125.1115458707
 10
191.2345179727
 20
125.0418214748
 10
190.5478231048
 20
124.7698119531
 10
189.9769577568
 20
124.319686989
 10
189.5726464127
 20
123.7314431617
 10
189.3708129783
 20
123.0573462943
 10
189.3893919324
 20
122.357294398
 10
189.6267311086
 20
121.6934895763
 10
190.0617435013
 20
121.1249143506
 10
190.6557764297
 20
120.7020883138
 10
191.3560453241
 20
120.4625819499
 10
192.1003303861
 20
120.4276769111
 10
192.8224983995
 20
120.6004735703
 10
193.4583803077
 20
120.9656190748
 10
193.9514764955
 20
121.4906680087
 10
194.2579710295
 20
122.1289676303
 10
194.3506339004
 20
122.8238022575
 10
194.2212284913
 20
123.5134335855
 10
193.881256636
 20
124.1365833829
 10
193.3609229883
 20
124.6378826598
 10
192.7064611947
 20
124.9727899829
  0
LWPOLYLINE
  5
13B
330
1F
100
AcDbEntity
  8
0
  6
HIDDEN
 62
     7
370
     0
100
AcDbPolyline
 90
       22
 70
   128
 43
0.0
 10
192.6380574142
 20
124.6216664711
 10
191.9660569539
 20
124.7493209938
 10
191.2838687559
 20
124.6851752201
 10
190.6521098127
 20
124.4349269817
 10
190.1269146611
 20
124.0208116049
 10
189.7549472188
 20
123.4796265761
 10
189.5692610552
 20
122.8594579423
 10
189.5863536184
 20
122.2154101977
 10
189.8047059213
 20
121.6047093893
 10
190.2049175834
 20
121.0816199581
 10
190.7514269834
 20
120.6926204885
 10
191.3956749623
 20
120.4722742239
 10
192.0804168468
 20
120.4401612902
 10
192.7448111956
 20
120.5991343284
 10
193.3298224022
 20
120.935067969
 10
193.7834714909
 20
121.4181133235
 10
194.0654461642
 20
122.0053485284
 10
194.1506957074
 20
122.6445971677
 10
194.0316447427
 20
123.2790578777
 10
193.7188693692
 20
123.8523558403
 10
193.240161184
 20
124.3135514358
 10
192.6380574142
 20
124.6216664711
  0
LWPOLYLINE
  5
13C
330
1F
100
AcDbEntity
  8
0
  6
HIDDEN
 62
     7
370
     0
100
AcDbPolyline
 90
       22
 70
   128
 43
0.0
 10
192.7064611947
 20
125.208783398
 10
191.9760258307
 20
125.3475392858
 10
191.2345179727
 20
125.2778148899
 10
190.5478231048
 20
125.0058053682
 10
189.9769577568
 20
124.5556822667
 10
189.5726464127
 20
123.9674365769
 10
189.3708129783
 20
123.2933406407
 10
189.3893919324
 20
122.5932887445
 10
189.6267311086
 20
121.9294839228
 10
190.0617435013
 20
121.360908697
 10
190.6557764297
 20
120.9380826602
 10
191.3560453241
 20
120.6985762963
 10
192.1003303861
 20
120.6636703262
 10
192.8224983995
 20
120.8364669854
 10
193.4583803077
 20
121.2016124899
 10
193.9514764955
 20
121.7266614238
 10
194.2579710295
 20
122.3649610455
 10
194.3506339004
 20
123.059796604
 10
194.2212284913
 20
123.7494270006
 10
193.881256636
 20
124.372576798
 10
193.3609229883
 20
124.8738779376
 10
192.7064611947
 20
125.208783398
  0
LWPOLYLINE
  5
13D
330
1F
100
AcDbEntity
  8
0
  6
HIDDEN
 62
     7
370
     0
100
AcDbPolyline
 90
       22
 70
   128
 43
0.0
 10
192.6380574142
 20
124.8576598862
 10
191.9660569539
 20
124.9853144089
 10
191.2838687559
 20
124.9211686353
 10
190.6521098127
 20
124.6709203968
 10
190.1269146611
 20
124.2568059514
 10
189.7549472188
 20
123.7156199912
 10
189.5692610552
 20
123.0954513574
 10
189.5863536184
 20
122.4514036129
 10
189.8047059213
 20
121.8407037357
 10
190.2049175834
 20
121.3176143045
 10
190.7514269834
 20
120.9286139036
 10
191.3956749623
 20
120.7082685704
 10
192.0804168468
 20
120.6761556367
 10
192.7448111956
 20
120.8351286749
 10
193.3298224022
 20
121.1710623155
 10
193.7834714909
 20
121.6541067386
 10
194.0654461642
 20
122.2413428748
 10
194.1506957074
 20
122.8805905829
 10
194.0316447427
 20
123.5150512928
 10
193.7188693692
 20
124.0883501867
 10
193.240161184
 20
124.549544851
 10
192.6380574142
 20
124.8576598862
  0
LWPOLYLINE
  5
13E
330
1F
100
AcDbEntity
  8
0
  6
HIDDEN
 62
     7
370
     0
100
AcDbPolyline
 90
       22
 70
   128
 43
0.0
 10
192.7064611947
 20
125.4447786758
 10
191.9760258307
 20
125.5835327009
 10
191.2345179727
 20
125.513808305
 10
190.5478231048
 20
125.241800646
 10
189.9769577568
 20
124.7916756818
 10
189.5726464127
 20
124.203429992
 10
189.3708129783
 20
123.5293340558
 10
189.3893919324
 20
122.8292821596
 10
189.6267311086
 20
122.1654773379
 10
190.0617435013
 20
121.5969021121
 10
190.6557764297
 20
121.1740760753
 10
191.3560453241
 20
120.9345697115
 10
192.1003303861
 20
120.8996646727
 10
192.8224983995
 20
121.0724613319
 10
193.4583803077
 20
121.4376068363
 10
193.9514764955
 20
121.9626557703
 10
194.2579710295
 20
122.6009553919
 10
194.3506339004
 20
123.2957900191
 10
194.2212284913
 20
123.9854213471
 10
193.881256636
 20
124.6085720757
 10
193.3609229883
 20
125.1098713527
 10
192.7064611947
 20
125.4447786758
  0
LWPOLYLINE
  5
13F
330
1F
100
AcDbEntity
  8
0
  6
HIDDEN
 62
     7
370
     0
100
AcDbPolyline
 90
       22
 70
   128
 43
0.0
 10
192.6380574142
 20
125.0936533014
 10
191.9660569539
 20
125.221307824
 10
191.2838687559
 20
125.1571620504
 10
190.6521098127
 20
124.9069138119
 10
190.1269146611
 20
124.4927993665
 10
189.7549472188
 20
123.9516143376
 10
189.5692610552
 20
123.3314457039
 10
189.5863536184
 20
122.6873979593
 10
189.8047059213
 20
122.0766971508
 10
190.2049175834
 20
121.5536077196
 10
190.7514269834
 20
121.16460825
 10
191.3956749623
 20
120.9442619855
 10
192.0804168468
 20
120.9121490518
 10
192.7448111956
 20
121.07112209
 10
193.3298224022
 20
121.4070557306
 10
193.7834714909
 20
121.8901010851
 10
194.0654461642
 20
122.47733629
 10
194.1506957074
 20
123.1165849293
 10
194.0316447427
 20
123.7510456393
 10
193.7188693692
 20
124.3243436018
 10
193.240161184
 20
124.7855401287
 10
192.6380574142
 20
125.0936533014
  0
LWPOLYLINE
  5
140
330
1F
100
AcDbEntity
  8
0
  6
HIDDEN
 62
     7
370
     0
100
AcDbPolyline
 90
       22
 70
   128
 43
0.0
 10
192.7064611947
 20
125.6807720909
 10
191.9760258307
 20
125.8195279787
 10
191.2345179727
 20
125.7498035828
 10
190.5478231048
 20
125.4777940611
 10
189.9769577568
 20
125.027669097
 10
189.5726464127
 20
124.4394252697
 10
189.3708129783
 20
123.7653284023
 10
189.3893919324
 20
123.065276506
 10
189.6267311086
 20
122.4014716843
 10
190.0617435013
 20
121.8328964586
 10
190.6557764297
 20
121.4100704218
 10
191.3560453241
 20
121.1705640579
 10
192.1003303861
 20
121.1356580878
 10
192.8224983995
 20
121.308454747
 10
193.4583803077
 20
121.6736002514
 10
193.9514764955
 20
122.1986491854
 10
194.2579710295
 20
122.836948807
 10
194.3506339004
 20
123.5317843655
 10
194.2212284913
 20
124.2214156935
 10
193.881256636
 20
124.8445654908
 10
193.3609229883
 20
125.3458647678
 10
192.7064611947
 20
125.6807720909
  0
LWPOLYLINE
  5
141
330
1F
100
AcDbEntity
  8
0
  6
HIDDEN
 62
     7
370
     0
100
AcDbPolyline
 90
       22
 70
   128
 43
0.0
 10
192.6380574142
 20
125.3296467165
 10
191.9660569539
 20
125.4573031018
 10
191.2838687559
 20
125.3931554655
 10
190.6521098127
 20
125.142907227
 10
190.1269146611
 20
124.7287927816
 10
189.7549472188
 20
124.1876086841
 10
189.5692610552
 20
123.567439119
 10
189.5863536184
 20
122.9233913744
 10
189.8047059213
 20
122.3126914973
 10
190.2049175834
 20
121.789602066
 10
190.7514269834
 20
121.4006016651
 10
191.3956749623
 20
121.1802563319
 10
192.0804168468
 20
121.1481433982
 10
192.7448111956
 20
121.3071164364
 10
193.3298224022
 20
121.643050077
 10
193.7834714909
 20
122.1260945002
 10
194.0654461642
 20
122.7133306364
 10
194.1506957074
 20
123.3525783444
 10
194.0316447427
 20
123.9870390544
 10
193.7188693692
 20
124.5603370169
 10
193.240161184
 20
125.0215335438
 10
192.6380574142
 20
125.3296467165
  0
LWPOLYLINE
  5
142
330
1F
100
AcDbEntity
  8
0
  6
HIDDEN
 62
     7
370
     0
100
AcDbPolyline
 90
       22
 70
   128
 43
0.0
 10
192.7064611947
 20
125.8688824872
 10
191.9760258307
 20
126.0076383749
 10
191.2345179727
 20
125.9379139791
 10
190.5478231048
 20
125.6659044573
 10
189.9769577568
 20
125.2157813559
 10
189.5726464127
 20
124.627535666
 10
189.3708129783
 20
123.9534397299
 10
189.3893919324
 20
123.2533878336
 10
189.6267311086
 20
122.5895830119
 10
190.0617435013
 20
122.0210068548
 10
190.6557764297
 20
121.5981817494
 10
191.3560453241
 20
121.3586753855
 10
192.1003303861
 20
121.3237694154
 10
192.8224983995
 20
121.4965660746
 10
193.4583803077
 20
121.861711579
 10
193.9514764955
 20
122.386760513
 10
194.2579710295
 20
123.0250601346
 10
194.3506339004
 20
123.7198947618
 10
194.2212284913
 20
124.4095260898
 10
193.881256636
 20
125.0326758871
 10
193.3609229883
 20
125.5339751641
 10
192.7064611947
 20
125.8688824872
  0
LWPOLYLINE
  5
143
330
1F
100
AcDbEntity
  8
0
  6
HIDDEN
 62
     7
370
     0
100
AcDbPolyline
 90
       22
 70
   128
 43
0.0
 10
192.6585781758
 20
125.7931417475
 10
191.9690474307
 20
125.9241285423
 10
191.2690635209
 20
125.8583082507
 10
190.6208238934
 20
125.601531441
 10
190.0819271242
 20
125.1766136537
 10
189.7002571632
 20
124.6213107059
 10
189.5097262596
 20
123.9849640677
 10
189.5272649263
 20
123.3241152639
 10
189.7513131981
 20
122.6974832515
 10
190.1619649862
 20
122.1607480819
 10
190.7227320035
 20
121.7615999902
 10
191.3837856983
 20
121.535506534
 10
192.0863912811
 20
121.50255541
 10
192.7681175431
 20
121.6656756277
 10
193.3683903327
 20
122.0103730137
 10
193.833872806
 20
122.5060191626
 10
194.1232049276
 20
123.1085736925
 10
194.2106766065
 20
123.7644985939
 10
194.0885187497
 20
124.415508906
 10
193.7675849905
 20
125.0037639091
 10
193.2763896321
 20
125.476991261
 10
192.6585781758
 20
125.7931417475
  0
ARC
  5
144
330
1F
100
AcDbEntity
  8
0
  6
HIDDEN
 62
     7
370
     0
100
AcDbCircle
 10
191.8374879181
 20
93.1135121396
 30
0.0
 40
2.481064946127802
100
AcDbArc
 50
345.1259223678
 51
182.5836989983
  0
ARC
  5
145
330
1F
100
AcDbEntity
  8
0
  6
HIDDEN
 62
     7
370
     0
100
AcDbCircle
 10
191.833849238
 20
93.0503818357
 30
0.0
 40
2.356430766252778
100
AcDbArc
 50
350.9620987549
 51
158.5806595779
  0
ARC
  5
146
330
1F
100
AcDbEntity
  8
0
  6
HIDDEN
 62
     7
370
     0
100
AcDbCircle
 10
191.8496060127
 20
93.0327461853
 30
0.0
 40
2.004468157712607
100
AcDbArc
 50
2.9535686024
 51
126.8295102402
  0
LWPOLYLINE
  5
147
330
1F
100
AcDbEntity
  8
0
  6
HIDDEN
 62
     7
370
     0
100
AcDbPolyline
 90
       22
 70
   128
 43
0.0
 10
190.9963610952
 20
91.1644673596
 10
190.3419002329
 20
91.4993746827
 10
189.8215656539
 20
92.0006739596
 10
189.4815928673
 20
92.6238237569
 10
189.3521883895
 20
93.3134550849
 10
189.4448503291
 20
94.0082906435
 10
189.7513457944
 20
94.6465902651
 10
190.2444419821
 20
95.171639199
 10
190.8803238903
 20
95.5367847035
 10
191.6024909725
 20
95.7095813627
 10
192.3467760344
 20
95.6746753926
 10
193.0470458602
 20
95.4351690287
 10
193.6410778572
 20
95.0123429919
 10
194.0760911812
 20
94.4437677661
 10
194.3134312888
 20
93.7799629445
 10
194.3320093115
 20
93.0799110482
 10
194.1301749458
 20
92.4058141807
 10
193.7258636018
 20
91.8175703535
 10
193.1549991851
 20
91.3674453894
 10
192.4683043172
 20
91.0954358677
 10
191.7267964592
 20
91.0257114718
 10
190.9963610952
 20
91.1644673596
  0
LWPOLYLINE
  5
148
330
1F
100
AcDbEntity
  8
0
  6
HIDDEN
 62
     7
370
     0
100
AcDbPolyline
 90
       20
 70
   128
 43
0.0
 10
191.1673705464
 20
92.7877607445
 10
190.5941983124
 20
93.0921625967
 10
190.1572646012
 20
93.5549563418
 10
189.9039178525
 20
94.1259911904
 10
189.8616125246
 20
94.7433854143
 10
190.034932587
 20
95.3402365247
 10
190.4050960576
 20
95.8518651003
 10
190.9319899415
 20
96.2228285769
 10
191.5585176458
 20
96.4129282782
 10
192.2167848234
 20
96.4015624175
 10
192.8354586845
 20
96.1899640659
 10
193.3474951794
 20
95.8010623852
 10
193.6974079718
 20
95.2770006532
 10
193.8472782632
 20
94.6745699892
 10
193.7808656504
 20
94.0590523804
 10
193.5053655316
 20
93.4971482182
 10
193.0506351774
 20
93.0497501666
 10
192.4659490024
 20
92.7653400848
 10
191.814669538
 20
92.6747372995
 10
191.1673705464
 20
92.7877607445
  0
LWPOLYLINE
  5
149
330
1F
100
AcDbEntity
  8
0
  6
HIDDEN
 62
     7
370
     0
100
AcDbPolyline
 90
       22
 70
   128
 43
0.0
 10
190.9963610952
 20
91.4004607747
 10
190.3419002329
 20
91.7353680978
 10
189.8215656539
 20
92.2366673747
 10
189.4815928673
 20
92.8598181034
 10
189.3521883895
 20
93.5494494314
 10
189.4448503291
 20
94.2442840586
 10
189.7513457944
 20
94.8825836802
 10
190.2444419821
 20
95.4076326141
 10
190.8803238903
 20
95.7727781186
 10
191.6024909725
 20
95.9455747778
 10
192.3467760344
 20
95.910669739
 10
193.0470458602
 20
95.6711633751
 10
193.6410778572
 20
95.2483373383
 10
194.0760911812
 20
94.6797621126
 10
194.3134312888
 20
94.0159572909
 10
194.3320093115
 20
93.3159053946
 10
194.1301749458
 20
92.6418094585
 10
193.7258636018
 20
92.0535637686
 10
193.1549991851
 20
91.6034388045
 10
192.4683043172
 20
91.3314311454
 10
191.7267964592
 20
91.2617067496
 10
190.9963610952
 20
91.4004607747
  0
LWPOLYLINE
  5
14A
330
1F
100
AcDbEntity
  8
0
  6
HIDDEN
 62
     7
370
     0
100
AcDbPolyline
 90
       22
 70
   128
 43
0.0
 10
191.0647648757
 20
91.515592734
 10
190.4626611059
 20
91.8237059066
 10
189.983953852
 20
92.2849024335
 10
189.6711784785
 20
92.8582003961
 10
189.5521256511
 20
93.4926611061
 10
189.6373751943
 20
94.1319088141
 10
189.9193517302
 20
94.7191449503
 10
190.3729998877
 20
95.2021893734
 10
190.9580110942
 20
95.538123014
 10
191.6224054431
 20
95.6970960522
 10
192.3071473276
 20
95.6649831185
 10
192.9513953065
 20
95.4446377853
 10
193.4979056378
 20
95.0556373844
 10
193.8981154372
 20
94.5325479532
 10
194.1164696028
 20
93.9218480761
 10
194.1335612347
 20
93.2778003315
 10
193.9478741397
 20
92.6576307664
 10
193.5759076287
 20
92.1164466689
 10
193.0507124772
 20
91.7023322234
 10
192.4189526026
 20
91.452083985
 10
191.736765336
 20
91.3879363487
 10
191.0647648757
 20
91.515592734
  0
LWPOLYLINE
  5
14B
330
1F
100
AcDbEntity
  8
0
  6
HIDDEN
 62
     7
370
     0
100
AcDbPolyline
 90
       22
 70
   128
 43
0.0
 10
190.9963610952
 20
91.6364560524
 10
190.3419002329
 20
91.9713615129
 10
189.8215656539
 20
92.4726626525
 10
189.4815928673
 20
93.0958124498
 10
189.3521883895
 20
93.7854428465
 10
189.4448503291
 20
94.480278405
 10
189.7513457944
 20
95.1185780267
 10
190.2444419821
 20
95.6436269606
 10
190.8803238903
 20
96.0087724651
 10
191.6024909725
 20
96.1815691242
 10
192.3467760344
 20
96.1466631541
 10
193.0470458602
 20
95.9071567903
 10
193.6410778572
 20
95.4843307535
 10
194.0760911812
 20
94.9157555277
 10
194.3134312888
 20
94.251950706
 10
194.3320093115
 20
93.5518988097
 10
194.1301749458
 20
92.8778028736
 10
193.7258636018
 20
92.2895571838
 10
193.1549991851
 20
91.8394340823
 10
192.4683043172
 20
91.5674245606
 10
191.7267964592
 20
91.4977001647
 10
190.9963610952
 20
91.6364560524
  0
LWPOLYLINE
  5
14C
330
1F
100
AcDbEntity
  8
0
  6
HIDDEN
 62
     7
370
     0
100
AcDbPolyline
 90
       22
 70
   128
 43
0.0
 10
191.0647648757
 20
91.7515861491
 10
190.4626611059
 20
92.0596993218
 10
189.983953852
 20
92.5208958486
 10
189.6711784785
 20
93.0941938112
 10
189.5521256511
 20
93.7286545212
 10
189.6373751943
 20
94.3679031605
 10
189.9193517302
 20
94.9551383654
 10
190.3729998877
 20
95.4381837199
 10
190.9580110942
 20
95.7741173605
 10
191.6224054431
 20
95.9330903987
 10
192.3071473276
 20
95.900977465
 10
192.9513953065
 20
95.6806312004
 10
193.4979056378
 20
95.2916317309
 10
193.8981154372
 20
94.7685422996
 10
194.1164696028
 20
94.1578414912
 10
194.1335612347
 20
93.5137937466
 10
193.9478741397
 20
92.8936251128
 10
193.5759076287
 20
92.352440084
 10
193.0507124772
 20
91.9383256385
 10
192.4189526026
 20
91.6880774001
 10
191.736765336
 20
91.6239316264
 10
191.0647648757
 20
91.7515861491
  0
LWPOLYLINE
  5
14D
330
1F
100
AcDbEntity
  8
0
  6
HIDDEN
 62
     7
370
     0
100
AcDbPolyline
 90
       22
 70
   128
 43
0.0
 10
190.9963610952
 20
91.8724494675
 10
190.3419002329
 20
92.2073567907
 10
189.8215656539
 20
92.7086560676
 10
189.4815928673
 20
93.3318058649
 10
189.3521883895
 20
94.0214371929
 10
189.4448503291
 20
94.7162718201
 10
189.7513457944
 20
95.3545714418
 10
190.2444419821
 20
95.8796203757
 10
190.8803238903
 20
96.2447658802
 10
191.6024909725
 20
96.4175625393
 10
192.3467760344
 20
96.3826575006
 10
193.0470458602
 20
96.1431511367
 10
193.6410778572
 20
95.7203250999
 10
194.0760911812
 20
95.1517498741
 10
194.3134312888
 20
94.4879450525
 10
194.3320093115
 20
93.7878931562
 10
194.1301749458
 20
93.1137962887
 10
193.7258636018
 20
92.5255524615
 10
193.1549991851
 20
92.0754274974
 10
192.4683043172
 20
91.8034179757
 10
191.7267964592
 20
91.7336935798
 10
190.9963610952
 20
91.8724494675
  0
LWPOLYLINE
  5
14E
330
1F
100
AcDbEntity
  8
0
  6
HIDDEN
 62
     7
370
     0
100
AcDbPolyline
 90
       22
 70
   128
 43
0.0
 10
191.0647648757
 20
91.9875795642
 10
190.4626611059
 20
92.2956945995
 10
189.983953852
 20
92.7568892638
 10
189.6711784785
 20
93.3301881576
 10
189.5521256511
 20
93.9646488676
 10
189.6373751943
 20
94.6038965756
 10
189.9193517302
 20
95.1911327118
 10
190.3729998877
 20
95.674177135
 10
190.9580110942
 20
96.0101107756
 10
191.6224054431
 20
96.1690838138
 10
192.3071473276
 20
96.1369708801
 10
192.9513953065
 20
95.9166255469
 10
193.4979056378
 20
95.527625146
 10
193.8981154372
 20
95.0045357148
 10
194.1164696028
 20
94.3938358376
 10
194.1335612347
 20
93.749788093
 10
193.9478741397
 20
93.1296194593
 10
193.5759076287
 20
92.5884334991
 10
193.0507124772
 20
92.1743190537
 10
192.4189526026
 20
91.9240708152
 10
191.736765336
 20
91.8599250416
 10
191.0647648757
 20
91.9875795642
  0
LWPOLYLINE
  5
14F
330
1F
100
AcDbEntity
  8
0
  6
HIDDEN
 62
     7
370
     0
100
AcDbPolyline
 90
       22
 70
   128
 43
0.0
 10
190.9963610952
 20
92.1084428827
 10
190.3419002329
 20
92.4433502058
 10
189.8215656539
 20
92.9446494827
 10
189.4815928673
 20
93.5678002114
 10
189.3521883895
 20
94.257430608
 10
189.4448503291
 20
94.9522661666
 10
189.7513457944
 20
95.5905657882
 10
190.2444419821
 20
96.1156147221
 10
190.8803238903
 20
96.4807602266
 10
191.6024909725
 20
96.6535568858
 10
192.3467760344
 20
96.6186509157
 10
193.0470458602
 20
96.3791445518
 10
193.6410778572
 20
95.956318515
 10
194.0760911812
 20
95.3877432892
 10
194.3134312888
 20
94.7239384676
 10
194.3320093115
 20
94.0238865713
 10
194.1301749458
 20
93.3497906352
 10
193.7258636018
 20
92.7615458766
 10
193.1549991851
 20
92.3114209125
 10
192.4683043172
 20
92.0394113908
 10
191.7267964592
 20
91.9696869949
 10
190.9963610952
 20
92.1084428827
  0
LWPOLYLINE
  5
150
330
1F
100
AcDbEntity
  8
0
  6
HIDDEN
 62
     7
370
     0
100
AcDbPolyline
 90
       22
 70
   128
 43
0.0
 10
191.0647648757
 20
92.2235729793
 10
190.4626611059
 20
92.5316880146
 10
189.983953852
 20
92.9928836102
 10
189.6711784785
 20
93.5661815727
 10
189.5521256511
 20
94.2006422827
 10
189.6373751943
 20
94.8398909221
 10
189.9193517302
 20
95.427126127
 10
190.3729998877
 20
95.9101714814
 10
190.9580110942
 20
96.246105122
 10
191.6224054431
 20
96.4050781602
 10
192.3071473276
 20
96.3729652265
 10
192.9513953065
 20
96.152618962
 10
193.4979056378
 20
95.7636194924
 10
193.8981154372
 20
95.2405300612
 10
194.1164696028
 20
94.6298292527
 10
194.1335612347
 20
93.9857815082
 10
193.9478741397
 20
93.3656128744
 10
193.5759076287
 20
92.8244278455
 10
193.0507124772
 20
92.4103124688
 10
192.4189526026
 20
92.1600642303
 10
191.736765336
 20
92.0959184567
 10
191.0647648757
 20
92.2235729793
  0
LWPOLYLINE
  5
151
330
1F
100
AcDbEntity
  8
0
  6
HIDDEN
 62
     7
370
     0
100
AcDbPolyline
 90
       22
 70
   128
 43
0.0
 10
190.9963610952
 20
92.7069778243
 10
190.3419002329
 20
93.0418851475
 10
189.8215656539
 20
93.5431853557
 10
189.4815928673
 20
94.1663351531
 10
189.3521883895
 20
94.855966481
 10
189.4448503291
 20
95.5508011082
 10
189.7513457944
 20
96.1891007299
 10
190.2444419821
 20
96.7141496638
 10
190.8803238903
 20
97.0792951683
 10
191.6024909725
 20
97.2520918275
 10
192.3467760344
 20
97.2171858574
 10
193.0470458602
 20
96.9776804248
 10
193.6410778572
 20
96.554854388
 10
194.0760911812
 20
95.9862782309
 10
194.3134312888
 20
95.3224743406
 10
194.3320093115
 20
94.6224224443
 10
194.1301749458
 20
93.9483255768
 10
193.7258636018
 20
93.3600808183
 10
193.1549991851
 20
92.9099558542
 10
192.4683043172
 20
92.6379463325
 10
191.7267964592
 20
92.5682237992
 10
190.9963610952
 20
92.7069778243
  0
LWPOLYLINE
  5
152
330
1F
100
AcDbEntity
  8
0
  6
HIDDEN
 62
     7
370
     0
100
AcDbPolyline
 90
       20
 70
   128
 43
0.0
 10
191.1740797942
 20
93.2684163252
 10
190.6065290232
 20
93.5698332886
 10
190.1738803272
 20
94.0280877674
 10
189.9230183472
 20
94.5935216422
 10
189.8811274578
 20
95.2048613379
 10
190.0527478566
 20
95.7958581547
 10
190.4192810317
 20
96.3024687643
 10
190.941007938
 20
96.6697944949
 10
191.5613907759
 20
96.8580296884
 10
192.2132020255
 20
96.8467755864
 10
192.8258073886
 20
96.6372522215
 10
193.3328212609
 20
96.2521643067
 10
193.679303061
 20
95.733242544
 10
193.8277037253
 20
95.1367201904
 10
193.7619411757
 20
94.5272394145
 10
193.489143755
 20
93.9708468193
 10
193.0388735046
 20
93.5278362284
 10
192.459922414
 20
93.2462154577
 10
191.8150299599
 20
93.1565011541
 10
191.1740797942
 20
93.2684163252
  0
LWPOLYLINE
  5
153
330
1F
100
AcDbEntity
  8
0
  6
HIDDEN
 62
     7
370
     0
100
AcDbPolyline
 90
       22
 70
   128
 43
0.0
 10
185.763099361
 20
123.4617368007
 10
186.1820604091
 20
123.8051359231
 10
186.6073721458
 20
123.9431569973
 10
187.0012442951
 20
123.8635363678
 10
187.3286786859
 20
123.573349292
 10
187.5605826636
 20
123.0983794356
 10
187.6763488536
 20
122.4808296809
 10
187.6656926607
 20
121.7755726228
 10
187.5295603087
 20
121.0452732319
 10
187.280047815
 20
120.3548223401
 10
186.9393243824
 20
119.7655680279
 10
186.5376663764
 20
119.3298701817
 10
186.1107620781
 20
119.0864410872
 10
185.6965442558
 20
119.0569097797
 10
185.3318169152
 20
119.2439025889
 10
185.0489886848
 20
119.6308028573
 10
184.8731899073
 20
120.183232675
 10
184.8200411906
 20
120.8521066854
 10
184.8942648058
 20
121.5779925386
 10
185.0892651265
 20
122.2963914896
 10
185.3877167587
 20
122.9434716204
 10
185.763099361
 20
123.4617368007
  0
LWPOLYLINE
  5
154
330
1F
100
AcDbEntity
  8
0
  6
HIDDEN
 62
     7
370
     0
100
AcDbPolyline
 90
       19
 70
   128
 43
0.0
 10
186.5245952641
 20
122.7242056901
 10
186.8679003229
 20
122.9910687233
 10
187.211206313
 20
123.0595842624
 10
187.5131038388
 20
122.921490545
 10
187.7371809815
 20
122.5934424127
 10
187.8564098289
 20
122.1150071049
 10
187.8564098289
 20
121.5438912312
 10
187.7371809815
 20
120.9489800657
 10
187.5131038388
 20
120.4020282874
 10
187.211206313
 20
119.9690070624
 10
186.8679003229
 20
119.7021440292
 10
186.5245952641
 20
119.6336275587
 10
186.222696807
 20
119.7717222074
 10
185.9986196642
 20
120.0997703398
 10
185.8793908169
 20
120.5782056475
 10
185.8793908169
 20
121.1493215213
 10
185.9986196642
 20
121.7442326868
 10
186.222696807
 20
122.2911844651
 10
186.5245952641
 20
122.7242056901
  0
LWPOLYLINE
  5
155
330
1F
100
AcDbEntity
  8
0
  6
HIDDEN
 62
     7
370
     0
100
AcDbPolyline
 90
       22
 70
   128
 43
0.0
 10
182.4921608341
 20
124.2450768749
 10
182.9111214166
 20
124.5884759972
 10
183.3364331533
 20
124.7264980028
 10
183.730304837
 20
124.6468773732
 10
184.0577396934
 20
124.3566902975
 10
184.2896432054
 20
123.8817204411
 10
184.4054103268
 20
123.2641706864
 10
184.3947541339
 20
122.5589136282
 10
184.2586213162
 20
121.8286142374
 10
184.0091083569
 20
121.1381633455
 10
183.6683858556
 20
120.5489090333
 10
183.2667273839
 20
120.1132111872
 10
182.8398230856
 20
119.8697820926
 10
182.4256047976
 20
119.8402517164
 10
182.0608779227
 20
120.0272435943
 10
181.7780501579
 20
120.4141438628
 10
181.6022513804
 20
120.9665736804
 10
181.5491021981
 20
121.6354476909
 10
181.6233258133
 20
122.361333544
 10
181.818326134
 20
123.079732495
 10
182.1167777662
 20
123.7268126259
 10
182.4921608341
 20
124.2450768749
  0
LINE
  5
156
330
1F
100
AcDbEntity
  8
0
  6
HIDDEN
 62
     7
370
     0
100
AcDbLine
 10
183.5951354725
 20
121.7724126453
 30
0.0
 11
184.1272908633
 21
123.0713552485
 31
0.0
  0
LINE
  5
157
330
1F
100
AcDbEntity
  8
0
  6
HIDDEN
 62
     7
370
     0
100
AcDbLine
 10
181.956831496
 20
122.1647620822
 30
0.0
 11
182.4889864211
 21
123.4637046853
 31
0.0
  0
LWPOLYLINE
  5
158
330
1F
100
AcDbEntity
  8
0
  6
HIDDEN
 62
     7
370
     0
100
AcDbPolyline
 90
       20
 70
   128
 43
0.0
 10
182.3690013399
 20
123.9451751734
 10
182.7504864333
 20
124.2476454625
 10
183.1343184595
 20
124.3420350055
 10
183.4789026899
 20
124.2181188116
 10
183.7468982113
 20
123.8893200333
 10
183.909263592
 20
123.3912729347
 10
183.9484038201
 20
122.7779467279
 10
183.8600781185
 20
122.1158061797
 10
183.6538572234
 20
121.4766031752
 10
183.3520886858
 20
120.9296057621
 10
182.9874735696
 20
120.5340898285
 10
182.5995237005
 20
120.3329157705
 10
182.2302799111
 20
120.3478830556
 10
181.9197550786
 20
120.5773711825
 10
181.7015992848
 20
120.9965101132
 10
181.5994532218
 20
121.5598801771
 10
181.6243856584
 20
122.2064322481
 10
181.7736957592
 20
122.8661010662
 10
182.0312022602
 20
123.467402036
 10
182.3690013399
 20
123.9451751734
  0
LINE
  5
159
330
1F
100
AcDbEntity
  8
0
  6
HIDDEN
 62
     7
370
     0
100
AcDbLine
 10
181.956831496
 20
122.1647620822
 30
0.0
 11
182.2399852236
 21
121.0285373653
 31
0.0
  0
LINE
  5
15A
330
1F
100
AcDbEntity
  8
0
  6
HIDDEN
 62
     7
370
     0
100
AcDbLine
 10
183.5951354725
 20
121.7724126453
 30
0.0
 11
183.8782892001
 21
120.6361879284
 31
0.0
  0
LINE
  5
15B
330
1F
100
AcDbEntity
  8
0
  6
HIDDEN
 62
     7
370
     0
100
AcDbLine
 10
183.5951354725
 20
121.7724126453
 30
0.0
 11
181.956831496
 21
122.1647620822
 31
0.0
  0
LINE
  5
15C
330
1F
100
AcDbEntity
  8
0
  6
HIDDEN
 62
     7
370
     0
100
AcDbLine
 10
183.3042955396
 20
123.6264225716
 30
0.0
 11
182.4889864211
 21
123.4637046853
 31
0.0
  0
LINE
  5
15D
330
1F
100
AcDbEntity
  8
0
  6
HIDDEN
 62
     7
370
     0
100
AcDbLine
 10
184.9425995161
 20
123.2340731347
 30
0.0
 11
184.1272908633
 21
123.0713552485
 31
0.0
  0
LINE
  5
15E
330
1F
100
AcDbEntity
  8
0
  6
HIDDEN
 62
     7
370
     0
100
AcDbLine
 10
184.1272908633
 20
123.0713552485
 30
0.0
 11
182.4889864211
 21
123.4637046853
 31
0.0
  0
LINE
  5
15F
330
1F
100
AcDbEntity
  8
0
  6
HIDDEN
 62
     7
370
     0
100
AcDbLine
 10
184.6935983186
 20
120.7989058147
 30
0.0
 11
183.0552943421
 21
121.1912552515
 31
0.0
  0
LINE
  5
160
330
1F
100
AcDbEntity
  8
0
  6
HIDDEN
 62
     7
370
     0
100
AcDbLine
 10
183.8782892001
 20
120.6361879284
 30
0.0
 11
182.2399852236
 21
121.0285373653
 31
0.0
  0
LINE
  5
161
330
1F
100
AcDbEntity
  8
0
  6
HIDDEN
 62
     7
370
     0
100
AcDbLine
 10
182.2399852236
 20
121.0285373653
 30
0.0
 11
183.0552943421
 21
121.1912552515
 31
0.0
  0
LINE
  5
162
330
1F
100
AcDbEntity
  8
0
  6
HIDDEN
 62
     7
370
     0
100
AcDbLine
 10
183.8782892001
 20
120.6361879284
 30
0.0
 11
184.6935983186
 21
120.7989058147
 31
0.0
  0
LINE
  5
163
330
1F
100
AcDbEntity
  8
0
  6
HIDDEN
 62
     7
370
     0
100
AcDbLine
 10
185.2257532438
 20
122.0978484178
 30
0.0
 11
183.5874492673
 21
122.4901978547
 31
0.0
  0
LINE
  5
164
330
1F
100
AcDbEntity
  8
0
  6
HIDDEN
 62
     7
370
     0
100
AcDbLine
 10
184.9425995161
 20
123.2340731347
 30
0.0
 11
183.3042955396
 21
123.6264225716
 31
0.0
  0
LINE
  5
165
330
1F
100
AcDbEntity
  8
0
  6
HIDDEN
 62
     7
370
     0
100
AcDbLine
 10
183.3042955396
 20
123.6264225716
 30
0.0
 11
183.5874492673
 21
122.4901978547
 31
0.0
  0
LINE
  5
166
330
1F
100
AcDbEntity
  8
0
  6
HIDDEN
 62
     7
370
     0
100
AcDbLine
 10
184.9425995161
 20
123.2340731347
 30
0.0
 11
185.2257532438
 21
122.0978484178
 31
0.0
  0
LINE
  5
167
330
1F
100
AcDbEntity
  8
0
  6
HIDDEN
 62
     7
370
     0
100
AcDbLine
 10
183.5874492673
 20
122.4901978547
 30
0.0
 11
183.0552943421
 21
121.1912552515
 31
0.0
  0
LINE
  5
168
330
1F
100
AcDbEntity
  8
0
  6
HIDDEN
 62
     7
370
     0
100
AcDbLine
 10
185.2257532438
 20
122.0978484178
 30
0.0
 11
184.6935983186
 21
120.7989058147
 31
0.0
  0
LWPOLYLINE
  5
169
330
1F
100
AcDbEntity
  8
0
  6
HIDDEN
 62
     7
370
     0
100
AcDbPolyline
 90
       20
 70
   128
 43
0.0
 10
183.1752794233
 20
92.506233106
 10
183.5130785031
 20
92.6540060589
 10
183.770585004
 20
93.0037465567
 10
183.9198951048
 20
93.5175534958
 10
183.9448275415
 20
94.1397477562
 10
183.8426814785
 20
94.80290624
 10
183.6245256846
 20
95.4351634408
 10
183.3140008522
 20
95.9680066133
 10
182.944756597
 20
96.3436928267
 10
182.5568071937
 20
96.5215111772
 10
182.1921920774
 20
96.4821916694
 10
181.8904235398
 20
96.2299951041
 10
181.6842026447
 20
95.7922520737
 10
181.5958769431
 20
95.2163976306
 10
181.6350171712
 20
94.5648341129
 10
181.7973825519
 20
93.9081706727
 10
182.0653780734
 20
93.3175650114
 10
182.4099623037
 20
92.857019479
 10
182.7937938643
 20
92.576439927
 10
183.1752794233
 20
92.506233106
  0
LWPOLYLINE
  5
16A
330
1F
100
AcDbEntity
  8
0
  6
HIDDEN
 62
     7
370
     0
100
AcDbPolyline
 90
       22
 70
   128
 43
0.0
 10
183.4730344263
 20
92.121049265
 10
183.8484174942
 20
92.2725977997
 10
184.1468686608
 20
92.628117154
 10
184.3418694471
 20
93.156018729
 10
184.4160930624
 20
93.8093946005
 10
184.36294388
 20
94.5301907758
 10
184.1871451025
 20
95.2543602014
 10
183.9043173378
 20
95.9175578008
 10
183.5395904628
 20
96.4608560006
 10
183.1253721749
 20
96.8359796951
 10
182.6984678765
 20
97.0095977808
 10
182.2968094048
 20
96.9662838305
 10
181.9560869036
 20
96.7098860691
 10
181.7065739443
 20
96.2631865094
 10
181.5704411266
 20
95.6658762569
 10
181.5597849337
 20
94.9710295225
 10
181.675552055
 20
94.2403855423
 10
181.907455567
 20
93.538866813
 10
182.2348904235
 20
92.9288048918
 10
182.6287621071
 20
92.4644074092
 10
183.0540738439
 20
92.1869366119
 10
183.4730344263
 20
92.121049265
  0
LWPOLYLINE
  5
16B
330
1F
100
AcDbEntity
  8
0
  6
HIDDEN
 62
     7
370
     0
100
AcDbPolyline
 90
       22
 70
   128
 43
0.0
 10
186.7439729532
 20
92.9043902705
 10
187.1193564867
 20
93.0559388051
 10
187.417808119
 20
93.4114581595
 10
187.6128084396
 20
93.9393597344
 10
187.6870320549
 20
94.5927356059
 10
187.6338833382
 20
95.3135317812
 10
187.458084095
 20
96.0377012069
 10
187.1752563303
 20
96.7008988062
 10
186.8105289896
 20
97.244197006
 10
186.3963111674
 20
97.6193207005
 10
185.969406869
 20
97.7929387862
 10
185.567748863
 20
97.7496248359
 10
185.2270254304
 20
97.4932270745
 10
184.9775129368
 20
97.0465275148
 10
184.8413801191
 20
96.4492172623
 10
184.8307239262
 20
95.7543705279
 10
184.9464910475
 20
95.023727479
 10
185.1783945595
 20
94.3222078184
 10
185.5058289503
 20
93.7121458972
 10
185.8997010996
 20
93.2477484146
 10
186.3250128364
 20
92.9702776173
 10
186.7439729532
 20
92.9043902705
  0
LINE
  5
16C
330
1F
100
AcDbEntity
  8
0
  6
HIDDEN
 62
     7
370
     0
100
AcDbLine
 10
183.3042955396
 20
95.2968340988
 30
0.0
 11
182.4889864211
 21
95.9306000421
 31
0.0
  0
LINE
  5
16D
330
1F
100
AcDbEntity
  8
0
  6
HIDDEN
 62
     7
370
     0
100
AcDbLine
 10
181.956831496
 20
95.1515254254
 30
0.0
 11
182.4889864211
 21
95.9306000421
 31
0.0
  0
LINE
  5
16E
330
1F
100
AcDbEntity
  8
0
  6
HIDDEN
 62
     7
370
     0
100
AcDbLine
 10
182.2399852236
 20
93.7386848653
 30
0.0
 11
181.956831496
 21
95.1515254254
 31
0.0
  0
LINE
  5
16F
330
1F
100
AcDbEntity
  8
0
  6
HIDDEN
 62
     7
370
     0
100
AcDbLine
 10
182.2399852236
 20
93.7386848653
 30
0.0
 11
183.0552943421
 21
93.104918922
 31
0.0
  0
LINE
  5
170
330
1F
100
AcDbEntity
  8
0
  6
HIDDEN
 62
     7
370
     0
100
AcDbLine
 10
183.5874492673
 20
93.8839935387
 30
0.0
 11
183.0552943421
 21
93.104918922
 31
0.0
  0
LINE
  5
171
330
1F
100
AcDbEntity
  8
0
  6
HIDDEN
 62
     7
370
     0
100
AcDbLine
 10
183.5874492673
 20
93.8839935387
 30
0.0
 11
183.3042955396
 21
95.2968340988
 31
0.0
  0
LINE
  5
172
330
1F
100
AcDbEntity
  8
0
  6
HIDDEN
 62
     7
370
     0
100
AcDbLine
 10
184.9425995161
 20
95.6891835356
 30
0.0
 11
183.3042955396
 21
95.2968340988
 31
0.0
  0
LINE
  5
173
330
1F
100
AcDbEntity
  8
0
  6
HIDDEN
 62
     7
370
     0
100
AcDbLine
 10
185.2257532438
 20
94.2763429756
 30
0.0
 11
183.5874492673
 21
93.8839935387
 31
0.0
  0
LINE
  5
174
330
1F
100
AcDbEntity
  8
0
  6
HIDDEN
 62
     7
370
     0
100
AcDbLine
 10
183.5951354725
 20
95.5438748623
 30
0.0
 11
184.1272908633
 21
96.322949479
 31
0.0
  0
LINE
  5
175
330
1F
100
AcDbEntity
  8
0
  6
HIDDEN
 62
     7
370
     0
100
AcDbLine
 10
183.5951354725
 20
95.5438748623
 30
0.0
 11
181.956831496
 21
95.1515254254
 31
0.0
  0
LINE
  5
176
330
1F
100
AcDbEntity
  8
0
  6
HIDDEN
 62
     7
370
     0
100
AcDbLine
 10
184.1272908633
 20
96.322949479
 30
0.0
 11
182.4889864211
 21
95.9306000421
 31
0.0
  0
LINE
  5
177
330
1F
100
AcDbEntity
  8
0
  6
HIDDEN
 62
     7
370
     0
100
AcDbLine
 10
183.8782892001
 20
94.1310343022
 30
0.0
 11
184.6935983186
 21
93.4972683588
 31
0.0
  0
LINE
  5
178
330
1F
100
AcDbEntity
  8
0
  6
HIDDEN
 62
     7
370
     0
100
AcDbLine
 10
183.8782892001
 20
94.1310343022
 30
0.0
 11
183.5951354725
 21
95.5438748623
 31
0.0
  0
LINE
  5
179
330
1F
100
AcDbEntity
  8
0
  6
HIDDEN
 62
     7
370
     0
100
AcDbLine
 10
185.2257532438
 20
94.2763429756
 30
0.0
 11
184.6935983186
 21
93.4972683588
 31
0.0
  0
LINE
  5
17A
330
1F
100
AcDbEntity
  8
0
  6
HIDDEN
 62
     7
370
     0
100
AcDbLine
 10
185.2257532438
 20
94.2763429756
 30
0.0
 11
184.9425995161
 21
95.6891835356
 31
0.0
  0
LINE
  5
17B
330
1F
100
AcDbEntity
  8
0
  6
HIDDEN
 62
     7
370
     0
100
AcDbLine
 10
184.9425995161
 20
95.6891835356
 30
0.0
 11
184.1272908633
 21
96.322949479
 31
0.0
  0
LINE
  5
17C
330
1F
100
AcDbEntity
  8
0
  6
HIDDEN
 62
     7
370
     0
100
AcDbLine
 10
183.8782892001
 20
94.1310343022
 30
0.0
 11
182.2399852236
 21
93.7386848653
 31
0.0
  0
LINE
  5
17D
330
1F
100
AcDbEntity
  8
0
  6
HIDDEN
 62
     7
370
     0
100
AcDbLine
 10
184.6935983186
 20
93.4972683588
 30
0.0
 11
183.0552943421
 21
93.104918922
 31
0.0
  0
LWPOLYLINE
  5
17E
330
1F
100
AcDbEntity
  8
0
  6
HIDDEN
 62
     7
370
     0
100
AcDbPolyline
 90
       19
 70
   128
 43
0.0
 10
187.211206313
 20
93.785655188
 10
187.5131038388
 20
93.9237489054
 10
187.7371809815
 20
94.2517970378
 10
187.8564098289
 20
94.7302323455
 10
187.8564098289
 20
95.3013482193
 10
187.7371809815
 20
95.8962593848
 10
187.5131038388
 20
96.4432111631
 10
187.211206313
 20
96.8762323881
 10
186.8679003229
 20
97.1430954213
 10
186.5245952641
 20
97.2116118918
 10
186.222696807
 20
97.073517243
 10
185.9986196642
 20
96.7454691107
 10
185.8793908169
 20
96.2670338029
 10
185.8793908169
 20
95.6959179292
 10
185.9986196642
 20
95.1010067636
 10
186.222696807
 20
94.5540549854
 10
186.5245952641
 20
94.1210337604
 10
186.8679003229
 20
93.8541707272
 10
187.211206313
 20
93.785655188
  0
LINE
  5
17F
330
1F
100
AcDbEntity
  8
0
  6
HIDDEN
 62
     7
370
     0
100
AcDbLine
 10
194.3514106234
 20
91.7583065728
 30
0.0
 11
194.3514106234
 21
94.9145345638
 31
0.0
  0
LINE
  5
180
330
1F
100
AcDbEntity
  8
0
  6
HIDDEN
 62
     7
370
     0
100
AcDbLine
 10
189.3514107351
 20
94.9145345638
 30
0.0
 11
189.3514107351
 21
92.8608751545
 31
0.0
  0
LINE
  5
181
330
1F
100
AcDbEntity
  8
0
  6
HIDDEN
 62
     7
370
     0
100
AcDbLine
 10
180.8514109717
 20
90.9729427347
 30
0.0
 11
183.4708388333
 21
91.6002574066
 31
0.0
  0
LINE
  5
182
330
1F
100
AcDbEntity
  8
0
  6
HIDDEN
 62
     7
370
     0
100
AcDbLine
 10
182.0734419299
 20
97.4352624888
 30
0.0
 11
180.8514109717
 21
97.1426036829
 31
0.0
  0
LINE
  5
183
330
1F
100
AcDbEntity
  8
0
  6
HIDDEN
 62
     7
370
     0
100
AcDbLine
 10
183.5295615156
 20
92.5397700319
 30
0.0
 11
190.9987108221
 21
94.3285193915
 31
0.0
  0
LINE
  5
184
330
1F
100
AcDbEntity
  8
0
  6
HIDDEN
 62
     7
370
     0
100
AcDbLine
 10
190.9987108221
 20
98.6472819621
 30
0.0
 11
182.5513836366
 21
96.6242733101
 31
0.0
  0
LINE
  5
185
330
1F
100
AcDbEntity
  8
0
  6
HIDDEN
 62
     7
370
     0
100
AcDbLine
 10
193.9514113029
 20
94.9643286566
 30
0.0
 11
193.9514113029
 21
107.2617151929
 31
0.0
  0
LINE
  5
186
330
1F
100
AcDbEntity
  8
0
  6
HIDDEN
 62
     7
370
     0
100
AcDbLine
 10
189.751410987
 20
95.3123788039
 30
0.0
 11
189.751410987
 21
94.9643286566
 31
0.0
  0
LINE
  5
187
330
1F
100
AcDbEntity
  8
0
  6
HIDDEN
 62
     7
370
     0
100
AcDbLine
 10
189.751410987
 20
107.2618276501
 30
0.0
 11
189.751410987
 21
97.0660033325
 31
0.0
  0
ARC
  5
188
330
1F
100
AcDbEntity
  8
0
  6
HIDDEN
 62
     7
370
     0
100
AcDbCircle
 10
77.2514110525
 20
94.7226197252
 30
0.0
 40
1.200000000000017
100
AcDbArc
 50
90.0
 51
180.0
  0
ARC
  5
189
330
1F
100
AcDbEntity
  8
0
  6
HIDDEN
 62
     7
370
     0
100
AcDbCircle
 10
77.2514110525
 20
122.1226197252
 30
0.0
 40
1.200000000000003
100
AcDbArc
 50
180.0
 51
270.0
  0
LINE
  5
18A
330
1F
100
AcDbEntity
  8
0
  6
HIDDEN
 62
     7
370
     0
100
AcDbLine
 10
86.9437811335
 20
95.6976194555
 30
0.0
 11
87.8204686006
 21
95.6976194555
 31
0.0
  0
LINE
  5
18B
330
1F
100
AcDbEntity
  8
0
  6
HIDDEN
 62
     7
370
     0
100
AcDbLine
 10
87.8204686006
 20
121.1476199949
 30
0.0
 11
86.9437811335
 21
121.1476199949
 31
0.0
  0
ARC
  5
18C
330
1F
100
AcDbEntity
  8
0
  6
HIDDEN
 62
     7
370
     0
100
AcDbCircle
 10
86.9437834833
 20
96.0976197252
 30
0.0
 40
0.4000000000000199
100
AcDbArc
 50
255.0
 51
270.0
  0
ARC
  5
18D
330
1F
100
AcDbEntity
  8
0
  6
HIDDEN
 62
     7
370
     0
100
AcDbCircle
 10
86.9437834833
 20
120.7476197252
 30
0.0
 40
0.400000000000006
100
AcDbArc
 50
90.0
 51
105.0
  0
ARC
  5
18E
330
1F
100
AcDbEntity
  8
0
  6
HIDDEN
 62
     7
370
     0
100
AcDbCircle
 10
87.8204709449
 20
96.0976197252
 30
0.0
 40
0.4000000000000057
100
AcDbArc
 50
270.0
 51
330.0
  0
ARC
  5
18F
330
1F
100
AcDbEntity
  8
0
  6
HIDDEN
 62
     7
370
     0
100
AcDbCircle
 10
87.8204709449
 20
120.7476197252
 30
0.0
 40
0.3999999999999915
100
AcDbArc
 50
30.0
 51
90.0
  0
LINE
  5
190
330
1F
100
AcDbEntity
  8
0
  6
HIDDEN
 62
     7
370
     0
100
AcDbLine
 10
86.8402553161
 20
121.1339900891
 30
0.0
 11
86.0514101942
 21
120.9226199115
 31
0.0
  0
LINE
  5
191
330
1F
100
AcDbEntity
  8
0
  6
HIDDEN
 62
     7
370
     0
100
AcDbLine
 10
86.0514101942
 20
95.922619539
 30
0.0
 11
86.8402553161
 21
95.7112493614
 31
0.0
  0
LINE
  5
192
330
1F
100
AcDbEntity
  8
0
  6
HIDDEN
 62
     7
370
     0
100
AcDbLine
 10
88.1668833454
 20
95.8976200471
 30
0.0
 11
89.3360135515
 21
97.9226198668
 31
0.0
  0
LINE
  5
193
330
1F
100
AcDbEntity
  8
0
  6
HIDDEN
 62
     7
370
     0
100
AcDbLine
 10
89.3360135515
 20
118.9226195837
 30
0.0
 11
88.1668833454
 21
120.9476194034
 31
0.0
  0
LINE
  5
194
330
1F
100
AcDbEntity
  8
0
  6
HIDDEN
 62
     7
370
     0
100
AcDbLine
 10
77.2514102419
 20
95.922619539
 30
0.0
 11
86.0514101942
 21
95.922619539
 31
0.0
  0
LINE
  5
195
330
1F
100
AcDbEntity
  8
0
  6
HIDDEN
 62
     7
370
     0
100
AcDbLine
 10
86.0514101942
 20
120.9226199115
 30
0.0
 11
77.2514102419
 21
120.9226199115
 31
0.0
  0
LINE
  5
196
330
1F
100
AcDbEntity
  8
0
  6
HIDDEN
 62
     7
370
     0
100
AcDbLine
 10
138.0514112671
 20
97.9226198668
 30
0.0
 11
142.3175205847
 21
105.0226196802
 31
0.0
  0
LINE
  5
197
330
1F
100
AcDbEntity
  8
0
  6
HIDDEN
 62
     7
370
     0
100
AcDbLine
 10
142.3175205847
 20
111.8226197703
 30
0.0
 11
138.0514112671
 21
118.9226195837
 31
0.0
  0
LINE
  5
198
330
1F
100
AcDbEntity
  8
0
  6
HIDDEN
 62
     7
370
     0
100
AcDbLine
 10
89.3360135515
 20
97.9226198668
 30
0.0
 11
138.0514112671
 21
97.9226198668
 31
0.0
  0
LINE
  5
199
330
1F
100
AcDbEntity
  8
0
  6
HIDDEN
 62
     7
370
     0
100
AcDbLine
 10
138.0514112671
 20
118.9226195837
 30
0.0
 11
89.3360135515
 21
118.9226195837
 31
0.0
  0
ARC
  5
19A
330
1F
100
AcDbEntity
  8
0
  6
HIDDEN
 62
     7
370
     0
100
AcDbCircle
 10
208.5460890545
 20
117.1226197252
 30
0.0
 40
0.7999999999999972
100
AcDbArc
 50
75.0
 51
90.0
  0
ARC
  5
19B
330
1F
100
AcDbEntity
  8
0
  6
HIDDEN
 62
     7
370
     0
100
AcDbCircle
 10
208.5460890545
 20
99.7226197252
 30
0.0
 40
0.8000000000000046
100
AcDbArc
 50
270.0
 51
285.0
  0
LINE
  5
19C
330
1F
100
AcDbEntity
  8
0
  6
HIDDEN
 62
     7
370
     0
100
AcDbLine
 10
208.5460891386
 20
117.9226194198
 30
0.0
 11
207.951411735
 21
117.9226194198
 31
0.0
  0
LINE
  5
19D
330
1F
100
AcDbEntity
  8
0
  6
HIDDEN
 62
     7
370
     0
100
AcDbLine
 10
207.951411735
 20
98.9226200307
 30
0.0
 11
208.5460891386
 21
98.9226200307
 31
0.0
  0
ARC
  5
19E
330
1F
100
AcDbEntity
  8
0
  6
HIDDEN
 62
     7
370
     0
100
AcDbCircle
 10
207.9514110525
 20
117.1226197252
 30
0.0
 40
0.7999999999999972
100
AcDbArc
 50
90.0
 51
180.0
  0
ARC
  5
19F
330
1F
100
AcDbEntity
  8
0
  6
HIDDEN
 62
     7
370
     0
100
AcDbCircle
 10
207.9514110525
 20
99.7226197252
 30
0.0
 40
0.7999999999999972
100
AcDbArc
 50
180.0
 51
270.0
  0
LINE
  5
1A0
330
1F
100
AcDbEntity
  8
0
  6
HIDDEN
 62
     7
370
     0
100
AcDbLine
 10
208.7531444987
 20
98.9498789111
 30
0.0
 11
210.5174382587
 21
99.4226201127
 31
0.0
  0
LINE
  5
1A1
330
1F
100
AcDbEntity
  8
0
  6
HIDDEN
 62
     7
370
     0
100
AcDbLine
 10
210.5174382587
 20
117.4226193378
 30
0.0
 11
208.7531444987
 21
117.8953605393
 31
0.0
  0
LINE
  5
1A2
330
1F
100
AcDbEntity
  8
0
  6
HIDDEN
 62
     7
370
     0
100
AcDbLine
 10
218.7514101525
 20
117.4226193378
 30
0.0
 11
210.5174382587
 21
117.4226193378
 31
0.0
  0
LINE
  5
1A3
330
1F
100
AcDbEntity
  8
0
  6
HIDDEN
 62
     7
370
     0
100
AcDbLine
 10
210.5174382587
 20
99.4226201127
 30
0.0
 11
218.7514101525
 21
99.4226201127
 31
0.0
  0
LINE
  5
1A4
330
1F
100
AcDbEntity
  8
0
  6
HIDDEN
 62
     7
370
     0
100
AcDbLine
 10
227.6514117976
 20
121.9115690017
 30
0.0
 11
227.2049879094
 21
121.4651460449
 31
0.0
  0
LINE
  5
1A5
330
1F
100
AcDbEntity
  8
0
  6
HIDDEN
 62
     7
370
     0
100
AcDbLine
 10
227.2049879094
 20
95.3800943369
 30
0.0
 11
227.6514117976
 21
94.9336713801
 31
0.0
  0
LINE
  5
1A6
330
1F
100
AcDbEntity
  8
0
  6
HIDDEN
 62
     7
370
     0
100
AcDbLine
 10
142.3175205847
 20
105.0226196802
 30
0.0
 11
207.1514112314
 21
105.0226196802
 31
0.0
  0
LINE
  5
1A7
330
1F
100
AcDbEntity
  8
0
  6
HIDDEN
 62
     7
370
     0
100
AcDbLine
 10
207.1514112314
 20
111.8226197703
 30
0.0
 11
142.3175205847
 21
111.8226197703
 31
0.0
  0
LINE
  5
1A8
330
1F
100
AcDbEntity
  8
0
  6
HIDDEN
 62
     7
370
     0
100
AcDbLine
 10
227.2137460669
 20
121.4726199085
 30
0.0
 11
218.7514101525
 21
121.4726199085
 31
0.0
  0
LINE
  5
1A9
330
1F
100
AcDbEntity
  8
0
  6
HIDDEN
 62
     7
370
     0
100
AcDbLine
 10
218.7514101525
 20
95.372619542
 30
0.0
 11
227.2137460669
 21
95.372619542
 31
0.0
  0
LINE
  5
1AA
330
1F
100
AcDbEntity
  8
0
  6
HIDDEN
 62
     7
370
     0
100
AcDbLine
 10
193.9514113029
 20
109.5834118003
 30
0.0
 11
193.9514113029
 21
121.8809107939
 31
0.0
  0
LINE
  5
1AB
330
1F
100
AcDbEntity
  8
0
  6
HIDDEN
 62
     7
370
     0
100
AcDbLine
 10
189.751410987
 20
119.779236118
 30
0.0
 11
189.751410987
 21
109.5835242575
 31
0.0
  0
LINE
  5
1AC
330
1F
100
AcDbEntity
  8
0
  6
HIDDEN
 62
     7
370
     0
100
AcDbLine
 10
189.751410987
 20
121.8809107939
 30
0.0
 11
189.751410987
 21
121.5328606466
 31
0.0
  0
LINE
  5
1AD
330
1F
100
AcDbEntity
  8
0
  6
HIDDEN
 62
     7
370
     0
100
AcDbLine
 10
182.5513836366
 20
120.2209661404
 30
0.0
 11
190.9987108221
 21
118.1979574884
 31
0.0
  0
LINE
  5
1AE
330
1F
100
AcDbEntity
  8
0
  6
HIDDEN
 62
     7
370
     0
100
AcDbLine
 10
190.9987108221
 20
122.516720059
 30
0.0
 11
183.5295615156
 21
124.3054694185
 31
0.0
  0
LINE
  5
1AF
330
1F
100
AcDbEntity
  8
0
  6
HIDDEN
 62
     7
370
     0
100
AcDbLine
 10
180.8514109717
 20
119.7026357675
 30
0.0
 11
182.0734419299
 21
119.4099769617
 31
0.0
  0
LINE
  5
1B0
330
1F
100
AcDbEntity
  8
0
  6
HIDDEN
 62
     7
370
     0
100
AcDbLine
 10
183.4708388333
 20
125.2449820439
 30
0.0
 11
180.8514109717
 21
125.8722967157
 31
0.0
  0
LINE
  5
1B1
330
1F
100
AcDbEntity
  8
0
  6
HIDDEN
 62
     7
370
     0
100
AcDbLine
 10
194.3514106234
 20
121.9307048867
 30
0.0
 11
194.3514106234
 21
125.0869328777
 31
0.0
  0
LINE
  5
1B2
330
1F
100
AcDbEntity
  8
0
  6
HIDDEN
 62
     7
370
     0
100
AcDbLine
 10
189.3514107351
 20
123.984364296
 30
0.0
 11
189.3514107351
 21
121.9307048867
 31
0.0
  0
LINE
  5
1B3
330
1F
100
AcDbEntity
  8
0
  6
HIDDEN
 62
     7
370
     0
100
AcDbLine
 10
194.3514106234
 20
121.9307048867
 30
0.0
 11
194.3514106234
 21
122.5292407597
 31
0.0
  0
LINE
  5
1B4
330
1F
100
AcDbEntity
  8
0
  6
HIDDEN
 62
     7
370
     0
100
AcDbLine
 10
189.3514107351
 20
122.5292407597
 30
0.0
 11
189.3514107351
 21
121.9307048867
 31
0.0
  0
LINE
  5
1B5
330
1F
100
AcDbEntity
  8
0
  6
HIDDEN
 62
     7
370
     0
100
AcDbLine
 10
193.8514114728
 20
122.2914340595
 30
0.0
 11
193.8514114728
 21
123.7092096979
 31
0.0
  0
LINE
  5
1B6
330
1F
100
AcDbEntity
  8
0
  6
HIDDEN
 62
     7
370
     0
100
AcDbLine
 10
189.8514108171
 20
123.7092096979
 30
0.0
 11
189.8514108171
 21
122.2914340595
 31
0.0
  0
LINE
  5
1B7
330
1F
100
AcDbEntity
  8
0
  6
HIDDEN
 62
     7
370
     0
100
AcDbLine
 10
194.3514106234
 20
123.4732162828
 30
0.0
 11
194.3514106234
 21
123.6613276104
 31
0.0
  0
LINE
  5
1B8
330
1F
100
AcDbEntity
  8
0
  6
HIDDEN
 62
     7
370
     0
100
AcDbLine
 10
189.3514107351
 20
123.6613276104
 30
0.0
 11
189.3514107351
 21
123.4732162828
 31
0.0
  0
LINE
  5
1B9
330
1F
100
AcDbEntity
  8
0
  6
HIDDEN
 62
     7
370
     0
100
AcDbLine
 10
189.3514107351
 20
93.3720231677
 30
0.0
 11
189.3514107351
 21
93.1839118401
 31
0.0
  0
LINE
  5
1BA
330
1F
100
AcDbEntity
  8
0
  6
HIDDEN
 62
     7
370
     0
100
AcDbLine
 10
194.3514106234
 20
93.1839118401
 30
0.0
 11
194.3514106234
 21
93.3720231677
 31
0.0
  0
LINE
  5
1BB
330
1F
100
AcDbEntity
  8
0
  6
HIDDEN
 62
     7
370
     0
100
AcDbLine
 10
189.8514108171
 20
94.553805391
 30
0.0
 11
189.8514108171
 21
93.1360297526
 31
0.0
  0
LINE
  5
1BC
330
1F
100
AcDbEntity
  8
0
  6
HIDDEN
 62
     7
370
     0
100
AcDbLine
 10
193.8514114728
 20
93.1360297526
 30
0.0
 11
193.8514114728
 21
94.553805391
 31
0.0
  0
LINE
  5
1BD
330
1F
100
AcDbEntity
  8
0
  6
HIDDEN
 62
     7
370
     0
100
AcDbLine
 10
189.3514107351
 20
94.9145345638
 30
0.0
 11
189.3514107351
 21
94.3159986908
 31
0.0
  0
LINE
  5
1BE
330
1F
100
AcDbEntity
  8
0
  6
HIDDEN
 62
     7
370
     0
100
AcDbLine
 10
194.3514106234
 20
94.3159986908
 30
0.0
 11
194.3514106234
 21
94.9145345638
 31
0.0
  0
ARC
  5
1BF
330
1F
100
AcDbEntity
  8
0
  6
HIDDEN
 62
     7
370
     0
100
AcDbCircle
 10
191.8514110525
 20
93.9568777633
 30
0.0
 40
1.999999999999996
100
AcDbArc
 50
71.1182787691
 51
192.215685934
  0
ARC
  5
1C0
330
1F
100
AcDbEntity
  8
0
  6
HIDDEN
 62
     7
370
     0
100
AcDbCircle
 10
191.8514110525
 20
93.9568777633
 30
0.0
 40
2.000000000000008
100
AcDbArc
 50
340.3453161116
 51
71.1182787691
  0
CIRCLE
  5
1C1
330
1F
100
AcDbEntity
  8
0
  6
HIDDEN
 62
     7
370
     0
100
AcDbCircle
 10
191.8514110525
 20
122.8883616872
 30
0.0
 40
1.999999999999994
  0
LINE
  5
1C2
330
1F
100
AcDbEntity
  8
0
  6
HIDDEN
 62
     7
370
     0
100
AcDbLine
 10
186.6446092163
 20
119.4245819623
 30
0.0
 11
187.1416514178
 21
119.8981976757
 31
0.0
  0
LINE
  5
1C3
330
1F
100
AcDbEntity
  8
0
  6
HIDDEN
 62
     7
370
     0
100
AcDbLine
 10
187.7680682947
 20
122.5138795251
 30
0.0
 11
187.5394900699
 21
123.1612697864
 31
0.0
  0
LINE
  5
1C4
330
1F
100
AcDbEntity
  8
0
  6
HIDDEN
 62
     7
370
     0
100
AcDbLine
 10
182.4003491921
 20
119.8458266134
 30
0.0
 11
185.6712877189
 21
119.0624856079
 31
0.0
  0
LINE
  5
1C5
330
1F
100
AcDbEntity
  8
0
  6
HIDDEN
 62
     7
370
     0
100
AcDbLine
 10
186.8357855265
 20
123.9249896879
 30
0.0
 11
183.5648460684
 21
124.708329762
 31
0.0
  0
LINE
  5
1C6
330
1F
100
AcDbEntity
  8
0
  6
HIDDEN
 62
     7
370
     0
100
AcDbLine
 10
183.5648460684
 20
92.1369096885
 30
0.0
 11
186.8357855265
 21
92.9202497626
 31
0.0
  0
LINE
  5
1C7
330
1F
100
AcDbEntity
  8
0
  6
HIDDEN
 62
     7
370
     0
100
AcDbLine
 10
185.6712877189
 20
97.7827538425
 30
0.0
 11
182.4003491921
 21
96.9994128371
 31
0.0
  0
LINE
  5
1C8
330
1F
100
AcDbEntity
  8
0
  6
HIDDEN
 62
     7
370
     0
100
AcDbLine
 10
187.5394900699
 20
93.683969664
 30
0.0
 11
187.7680682947
 21
94.3313599253
 31
0.0
  0
LINE
  5
1C9
330
1F
100
AcDbEntity
  8
0
  6
HIDDEN
 62
     7
370
     0
100
AcDbLine
 10
187.1416514178
 20
96.9470417748
 30
0.0
 11
186.6446092163
 21
97.4206574882
 31
0.0
  0
DIMENSION
  5
1CA
330
1F
100
AcDbEntity
  8
VERMASSUNG
100
AcDbDimension
  2
_D
 10
71.8679852084
 20
157.1476197252
 30
0.0
 11
71.8679852084
 21
108.4226197252
 31
0.0
 70
   160
  1
ISO 50 %%c<>
 71
     2
 42
-1.0
  3
SLDDIMSTYLE0
100
AcDbAlignedDimension
 13
196.1014110525
 23
59.6976197252
 33
0.0
 14
196.1014110525
 24
157.1476197252
 34
0.0
 50
90.0
100
AcDbRotatedDimension
  0
DIMENSION
  5
1D7
330
1F
100
AcDbEntity
  8
VERMASSUNG
100
AcDbDimension
  2
_D_1
 10
234.5670466183
 20
99.4226197252
 30
0.0
 11
234.5670466183
 21
108.4226197252
 31
0.0
 70
   160
  1
%%c<>
 71
     2
 42
-1.0
  3
SLDDIMSTYLE0
100
AcDbAlignedDimension
 13
218.7514110525
 23
117.4226197252
 33
0.0
 14
218.7514110525
 24
99.4226197252
 34
0.0
 50
90.0
100
AcDbRotatedDimension
  0
DIMENSION
  5
1E2
330
1F
100
AcDbEntity
  8
VERMASSUNG
100
AcDbDimension
  2
_D_2
 10
227.6514110525
 20
159.3427470338
 30
0.0
 11
212.1764110525
 21
159.3427470338
 31
0.0
 70
   160
  1
(<>)
 71
     2
 42
-1.0
  3
SLDDIMSTYLE0
100
AcDbAlignedDimension
 13
196.7014110525
 23
154.7176066785
 33
0.0
 14
227.6514110525
 24
124.1226197252
 34
0.0
100
AcDbRotatedDimension
  0
DIMENSION
  5
1EE
330
1F
100
AcDbEntity
  8
VERMASSUNG
100
AcDbDimension
  2
_D_3
 10
227.6514110525
 20
165.3427470338
 30
0.0
 11
202.6514110525
 21
165.3427470338
 31
0.0
 70
   160
  1
<>
 71
     2
 42
-1.0
  3
SLDDIMSTYLE0
100
AcDbAlignedDimension
 13
177.6514110525
 23
143.3476197252
 33
0.0
 14
227.6514110525
 24
124.1226197252
 34
0.0
100
AcDbRotatedDimension
  0
DIMENSION
  5
1F8
330
1F
100
AcDbEntity
  8
VERMASSUNG
100
AcDbDimension
  2
_D_4
 10
227.6514110525
 20
171.3427470338
 30
0.0
 11
151.8514110525
 21
171.3427470338
 31
0.0
 70
   160
  1
(<>)
 71
     2
 42
-1.0
  3
SLDDIMSTYLE0
100
AcDbAlignedDimension
 13
76.0514110525
 23
126.8014642526
 33
0.0
 14
227.6514110525
 24
124.1226197252
 34
0.0
100
AcDbRotatedDimension
  0
DIMENSION
  5
204
330
1F
100
AcDbEntity
  8
VERMASSUNG
100
AcDbDimension
  2
_D_5
 10
240.5670466183
 20
92.4226197252
 30
0.0
 11
240.5670466183
 21
108.4226197252
 31
0.0
 70
   160
  1
ST3 %%c<>
 71
     2
 42
-1.0
  3
SLDDIMSTYLE0
100
AcDbAlignedDimension
 13
227.3514110525
 23
124.4226197252
 33
0.0
 14
227.3514110525
 24
92.4226197252
 34
0.0
 50
90.0
100
AcDbRotatedDimension
  0
LINE
  5
210
330
1F
100
AcDbEntity
  8
VERMASSUNG
  6
CENTERX2
 62
     7
370
     0
100
AcDbLine
 10
189.5553859821
 20
120.7029935902
 30
0.0
 11
193.4576396293
 21
119.7684620532
 31
0.0
  0
LINE
  5
211
330
1F
100
AcDbEntity
  8
VERMASSUNG
  6
CENTERX2
 62
     7
370
     0
100
AcDbLine
 10
74.0514110525
 20
108.4226197252
 30
0.0
 11
229.7130789692
 21
108.4226197252
 31
0.0
  0
LINE
  5
212
330
1F
100
AcDbEntity
  8
0
  6
Continuous
 62
     7
370
    15
100
AcDbLine
 10
272.325130775
 20
40.0289539589
 30
0.0
 11
272.1836870215
 21
40.110634715
 31
0.0
  0
LINE
  5
213
330
1F
100
AcDbEntity
  8
0
  6
Continuous
 62
     7
370
    15
100
AcDbLine
 10
270.3449101063
 20
40.1106350171
 30
0.0
 11
270.2034660091
 21
40.0289537774
 31
0.0
  0
LINE
  5
214
330
1F
100
AcDbEntity
  8
0
  6
Continuous
 62
     7
370
    15
100
AcDbLine
 10
272.7642985492
 20
39.2738527421
 30
0.0
 11
272.7642985492
 21
39.4167471415
 31
0.0
  0
LINE
  5
215
330
1F
100
AcDbEntity
  8
0
  6
Continuous
 62
     7
370
    15
100
AcDbLine
 10
269.7642988785
 20
39.4167470464
 30
0.0
 11
269.7642988785
 21
39.2738526471
 31
0.0
  0
SPLINE
  5
216
330
1F
100
AcDbEntity
  8
0
  6
Continuous
 62
     7
370
    15
100
AcDbSpline
210
0.0
220
0.0
230
1.0
 70
     8
 71
     3
 72
    30
 73
    26
 74
     0
 42
0.000000001
 43
0.00000001
 40
0.0
 40
0.0
 40
0.0
 40
0.0
 40
0.0043261239492605
 40
0.0516063490836573
 40
0.0989601244408477
 40
0.1463616418172157
 40
0.193789476750945
 40
0.2412279344951482
 40
0.2886645213371096
 40
0.3360938456689251
 40
0.3835135598599955
 40
0.4309230250866046
 40
0.4783227422055051
 40
0.5257138929434355
 40
0.5730980540994397
 40
0.6204769845769359
 40
0.6678526181155632
 40
0.7152269001621749
 40
0.7626018274045941
 40
0.8099787405537275
 40
0.8573597380947687
 40
0.9047467797035833
 40
0.9521418964119595
 40
0.9970585380928598
 40
1.0
 40
1.0
 40
1.0
 40
1.0
 10
263.4308082352807
 20
62.92879313427299
 30
0.0
 10
263.3928330618954
 20
62.92418859201132
 30
0.0
 10
262.9398270738047
 20
62.86926098981738
 30
0.0
 10
262.0409424364545
 20
62.64056979568414
 30
0.0
 10
260.7404518937828
 20
62.23500135121414
 30
0.0
 10
259.4190130153747
 20
61.68848561670477
 30
0.0
 10
258.0890889410701
 20
61.0220058197151
 30
0.0
 10
256.7574959119489
 20
60.23499148492147
 30
0.0
 10
255.4324751298304
 20
59.33357737538923
 30
0.0
 10
254.1217432938251
 20
58.32293937616296
 30
0.0
 10
252.8329682839208
 20
57.20926273992044
 30
0.0
 10
251.5736371149422
 20
55.9991872870426
 30
0.0
 10
250.3510664951725
 20
54.69991298444295
 30
0.0
 10
249.1723603742134
 20
53.31912775787151
 30
0.0
 10
248.0443740076606
 20
51.86498104580233
 30
0.0
 10
246.9736759134467
 20
50.34603546088338
 30
0.0
 10
245.9665147221734
 20
48.77121870177696
 30
0.0
 10
245.0287784105989
 20
47.14977247642632
 30
0.0
 10
244.1659763157135
 20
45.4912175585747
 30
0.0
 10
243.3831386140714
 20
43.8052623854428
 30
0.0
 10
242.685056999103
 20
42.10182920466991
 30
0.0
 10
242.0752089970546
 20
40.39069951504175
 30
0.0
 10
241.5687227769758
 20
38.7124159488007
 30
0.0
 10
241.280990227986
 20
37.57514884579664
 30
0.0
 10
241.1578168769884
 20
37.00881631424682
 30
0.0
 10
241.1502463781017
 20
36.97400829964877
 30
0.0
  0
LINE
  5
217
330
1F
100
AcDbEntity
  8
0
  6
Continuous
 62
     7
370
    15
100
AcDbLine
 10
274.0052565148
 20
24.9341431455
 30
0.0
 11
274.1113057716
 21
24.995383223
 31
0.0
  0
LINE
  5
218
330
1F
100
AcDbEntity
  8
0
  6
Continuous
 62
     7
370
    15
100
AcDbLine
 10
279.6611916351
 20
34.6091092666
 30
0.0
 11
279.6611916351
 21
34.7315710357
 31
0.0
  0
LINE
  5
219
330
1F
100
AcDbEntity
  8
0
  6
Continuous
 62
     7
370
    15
100
AcDbLine
 10
278.0040121252
 20
38.394329318
 30
0.0
 11
268.5818147959
 21
43.8336480571
 31
0.0
  0
LINE
  5
21A
330
1F
100
AcDbEntity
  8
0
  6
Continuous
 62
     7
370
    15
100
AcDbLine
 10
260.5824647793
 20
29.9768662877
 30
0.0
 11
270.0046621086
 21
24.5375475486
 31
0.0
  0
LINE
  5
21B
330
1F
100
AcDbEntity
  8
0
  6
Continuous
 62
     7
370
    15
100
AcDbLine
 10
256.4164203548
 20
59.9831410216
 30
0.0
 11
225.6537938749
 21
71.0687715773
 31
0.0
  0
LINE
  5
21C
330
1F
100
AcDbEntity
  8
0
  6
Continuous
 62
     7
370
    15
100
AcDbLine
 10
215.5299344945
 20
53.5318331769
 30
0.0
 11
244.997445613
 21
28.6497107386
 31
0.0
  0
SPLINE
  5
21D
330
1F
100
AcDbEntity
  8
0
  6
Continuous
 62
     7
370
    15
100
AcDbSpline
210
0.0
220
0.0
230
1.0
 70
     8
 71
     3
 72
    17
 73
    13
 74
     0
 42
0.000000001
 43
0.00000001
 40
0.0
 40
0.0
 40
0.0
 40
0.0
 40
0.0303527985135346
 40
0.1505929429448409
 40
0.2705946728627546
 40
0.3901988607136597
 40
0.5092785062238502
 40
0.6278314580678367
 40
0.7461792125774196
 40
0.8650742535950553
 40
0.986641159030241
 40
1.0
 40
1.0
 40
1.0
 40
1.0
 10
271.9246960368149
 20
33.06130268008855
 30
0.0
 10
271.9591222935525
 20
33.11973276561838
 30
0.0
 10
272.129925368411
 20
33.40962888615343
 30
0.0
 10
272.5001421083526
 20
33.88022946992344
 30
0.0
 10
273.0179225438716
 20
34.44461441564405
 30
0.0
 10
273.566791043657
 20
34.91074262617616
 30
0.0
 10
274.1203455946131
 20
35.26950364714744
 30
0.0
 10
274.6593183686314
 20
35.50943261543581
 30
0.0
 10
275.1655122065327
 20
35.63116401886185
 30
0.0
 10
275.6149594116364
 20
35.62326009316735
 30
0.0
 10
275.9030522942026
 20
35.56976523393519
 30
0.0
 10
276.0240518511017
 20
35.48678422005509
 30
0.0
 10
276.0360318762719
 20
35.47856836653958
 30
0.0
  0
SPLINE
  5
21E
330
1F
100
AcDbEntity
  8
0
  6
Continuous
 62
     7
370
    15
100
AcDbSpline
210
0.0
220
0.0
230
1.0
 70
     8
 71
     3
 72
    10
 73
     6
 74
     0
 42
0.000000001
 43
0.00000001
 40
0.0
 40
0.0
 40
0.0
 40
0.0
 40
0.0984290257664891
 40
0.6139451900136215
 40
1.0
 40
1.0
 40
1.0
 40
1.0
 10
271.2209118260396
 20
31.68377573109825
 30
0.0
 10
271.2383224851754
 20
31.73033681710227
 30
0.0
 10
271.3469204353042
 20
32.02075881987401
 30
0.0
 10
271.5702839102765
 20
32.49355959870123
 30
0.0
 10
271.8184365102937
 20
32.89108245765113
 30
0.0
 10
271.9246960368149
 20
33.06130268008855
 30
0.0
  0
LINE
  5
21F
330
1F
100
AcDbEntity
  8
0
  6
Continuous
 62
     7
370
    15
100
AcDbLine
 10
271.1683441692
 20
28.0911876153
 30
0.0
 11
271.1012984114
 21
28.1761045673
 31
0.0
  0
SPLINE
  5
220
330
1F
100
AcDbEntity
  8
0
  6
Continuous
 62
     7
370
    15
100
AcDbSpline
210
0.0
220
0.0
230
1.0
 70
     8
 71
     3
 72
     9
 73
     5
 74
     0
 42
0.000000001
 43
0.00000001
 40
0.0
 40
0.0
 40
0.0
 40
0.0
 40
0.6860179664789842
 40
1.0
 40
1.0
 40
1.0
 40
1.0
 10
271.6898636750798
 20
27.61657234672957
 30
0.0
 10
271.5799531078444
 20
27.67255124822925
 30
0.0
 10
271.4197378181493
 20
27.75415100834485
 30
0.0
 10
271.3035520793245
 20
27.91548781511352
 30
0.0
 10
271.2670718447821
 20
27.96614467378453
 30
0.0
  0
SPLINE
  5
221
330
1F
100
AcDbEntity
  8
0
  6
Continuous
 62
     7
370
    15
100
AcDbSpline
210
0.0
220
0.0
230
1.0
 70
     8
 71
     3
 72
    18
 73
    14
 74
     0
 42
0.000000001
 43
0.00000001
 40
0.0
 40
0.0
 40
0.0
 40
0.0
 40
0.0801936721937722
 40
0.1770683328598916
 40
0.274053361421386
 40
0.3711021764471776
 40
0.4681796838417556
 40
0.5652588069386968
 40
0.6623250692921657
 40
0.7593724564137755
 40
0.856398917747325
 40
0.953405048635076
 40
0.9999999999999999
 40
0.9999999999999999
 40
0.9999999999999999
 40
0.9999999999999999
 10
257.3165762816981
 20
15.75578666771914
 30
0.0
 10
257.6659874199394
 20
15.81904325429748
 30
0.0
 10
258.4374902834267
 20
15.95871435329354
 30
0.0
 10
259.6637697261281
 20
16.33142637643664
 30
0.0
 10
260.9801554031556
 20
16.84046873251736
 30
0.0
 10
262.3088533752699
 20
17.47784674951074
 30
0.0
 10
263.6407253235819
 20
18.23489410677695
 30
0.0
 10
264.9681789407619
 20
19.10807883629785
 30
0.0
 10
266.2830778992675
 20
20.09209427503537
 30
0.0
 10
267.5785934912826
 20
21.17961089443397
 30
0.0
 10
268.8440640840344
 20
22.36957550082883
 30
0.0
 10
269.869115670603
 20
23.41538844882243
 30
0.0
 10
270.4530132147569
 20
24.09215971357033
 30
0.0
 10
270.6424733305524
 20
24.31175502351807
 30
0.0
  0
SPLINE
  5
222
330
1F
100
AcDbEntity
  8
0
  6
Continuous
 62
     7
370
    15
100
AcDbSpline
210
0.0
220
0.0
230
1.0
 70
     8
 71
     3
 72
    10
 73
     6
 74
     0
 42
0.000000001
 43
0.00000001
 40
0.0
 40
0.0
 40
0.0
 40
0.0
 40
0.4177293639364948
 40
0.8656716514479913
 40
1.0
 40
1.0
 40
1.0
 40
1.0
 10
278.5331562593794
 20
37.97288635610995
 30
0.0
 10
278.7065199568521
 20
38.5044385193785
 30
0.0
 10
279.0657861498678
 20
39.60598817983614
 30
0.0
 10
279.3993627018808
 20
40.87286523463642
 30
0.0
 10
279.5567091477281
 20
41.60171823726625
 30
0.0
 10
279.5930085709037
 20
41.76986276339646
 30
0.0
  0
LINE
  5
223
330
1F
100
AcDbEntity
  8
0
  6
Continuous
 62
     7
370
    15
100
AcDbLine
 10
249.3200115791
 20
17.5852665398
 30
0.0
 11
250.7755335653
 21
16.7450115825
 31
0.0
  0
LINE
  5
224
330
1F
100
AcDbEntity
  8
0
  6
Continuous
 62
     7
370
    15
100
AcDbLine
 10
245.5959766307
 20
19.7351061549
 30
0.0
 11
247.0338213068
 21
18.9050560915
 31
0.0
  0
SPLINE
  5
225
330
1F
100
AcDbEntity
  8
0
  6
Continuous
 62
     7
370
    15
100
AcDbSpline
210
0.0
220
0.0
230
1.0
 70
     8
 71
     3
 72
     9
 73
     5
 74
     0
 42
0.000000001
 43
0.00000001
 40
0.0
 40
0.0
 40
0.0
 40
0.0
 40
0.6000000740268177
 40
1.0
 40
1.0
 40
1.0
 40
1.0
 10
241.1638551180411
 20
25.80037210087065
 30
0.0
 10
241.2020832473789
 20
25.66395740262902
 30
0.0
 10
241.2657967884143
 20
25.43659960027726
 30
0.0
 10
241.3496306484911
 20
25.22771797061674
 30
0.0
 10
241.3831641863159
 20
25.14416533421537
 30
0.0
  0
SPLINE
  5
226
330
1F
100
AcDbEntity
  8
0
  6
Continuous
 62
     7
370
    15
100
AcDbSpline
210
0.0
220
0.0
230
1.0
 70
     8
 71
     3
 72
     9
 73
     5
 74
     0
 42
0.000000001
 43
0.00000001
 40
0.0
 40
0.0
 40
0.0
 40
0.0
 40
0.5084435647111739
 40
0.9999999999999999
 40
0.9999999999999999
 40
0.9999999999999999
 40
0.9999999999999999
 10
279.5831350130955
 20
52.83222099256477
 30
0.0
 10
279.5307737547972
 20
53.01253464595455
 30
0.0
 10
279.4277903325799
 20
53.36717312680977
 30
0.0
 10
279.2932412636949
 20
53.69262588106108
 30
0.0
 10
279.2271028030223
 20
53.85260427679578
 30
0.0
  0
SPLINE
  5
227
330
1F
100
AcDbEntity
  8
0
  6
Continuous
 62
     7
370
    15
100
AcDbSpline
210
0.0
220
0.0
230
1.0
 70
     8
 71
     3
 72
    33
 73
    29
 74
     0
 42
0.000000001
 43
0.00000001
 40
0.0
 40
0.0
 40
0.0
 40
0.0
 40
0.0275639995895177
 40
0.0659814457569452
 40
0.1050608570936068
 40
0.1450325367657924
 40
0.1858437527966069
 40
0.2272421680007743
 40
0.2689333550628412
 40
0.3106777753980519
 40
0.3523571814860576
 40
0.3939468311787064
 40
0.4354563940692349
 40
0.4769115555937088
 40
0.5183450457407504
 40
0.5597925473327753
 40
0.6012791559050978
 40
0.6428425381675409
 40
0.6845197353477026
 40
0.7263431145329992
 40
0.7621265400156001
 40
0.784465274789813
 40
0.8265792792058778
 40
0.8686964514460683
 40
0.910453805499655
 40
0.9514720720668545
 40
0.9914737996238744
 40
1.0
 40
1.0
 40
1.0
 40
1.0
 10
225.6191633241569
 20
71.06611010334588
 30
0.0
 10
225.4445773368566
 20
71.12598959818995
 30
0.0
 10
225.0266613586777
 20
71.26932640343756
 30
0.0
 10
224.3088504124904
 20
71.34294502427404
 30
0.0
 10
223.486854668229
 20
71.31026103762663
 30
0.0
 10
222.6307369745506
 20
71.14088750601961
 30
0.0
 10
221.75210754273
 20
70.84062752578305
 30
0.0
 10
220.8629001787528
 20
70.4103854574851
 30
0.0
 10
219.9778969341333
 20
69.85719909430858
 30
0.0
 10
219.1113933923466
 20
69.19072708228732
 30
0.0
 10
218.2762570510448
 20
68.422521678553
 30
0.0
 10
217.4836809742542
 20
67.56472884790423
 30
0.0
 10
216.7437912999048
 20
66.6298943980169
 30
0.0
 10
216.0659789336497
 20
65.63111630032395
 30
0.0
 10
215.4590163293743
 20
64.58196593688386
 30
0.0
 10
214.9309969749675
 20
63.4965383395949
 30
0.0
 10
214.4892645672252
 20
62.38916497591646
 30
0.0
 10
214.1403049932477
 20
61.27424749140721
 30
0.0
 10
213.8898080022281
 20
60.16595289773247
 30
0.0
 10
213.7500176475215
 20
59.131983225236
 30
0.0
 10
213.7125370093564
 20
58.29388010241676
 30
0.0
 10
213.7360022931966
 20
57.48097151006921
 30
0.0
 10
213.8337221841994
 20
56.65214818763962
 30
0.0
 10
214.0649379665628
 20
55.74155247359868
 30
0.0
 10
214.4080734604507
 20
54.91549589497946
 30
0.0
 10
214.8671395836584
 20
54.20593188983557
 30
0.0
 10
215.2607088502711
 20
53.73696746284132
 30
0.0
 10
215.5233937209192
 20
53.54830877427502
 30
0.0
 10
215.5695466052131
 20
53.51516205134819
 30
0.0
  0
LWPOLYLINE
  5
228
330
1F
100
AcDbEntity
  8
0
  6
Continuous
 62
     7
370
    15
100
AcDbPolyline
 90
       18
 70
   128
 43
0.0
 10
269.9643838801
 20
39.5714323512
 10
270.0467684566
 20
39.8430989235
 10
270.2935860043
 20
40.0792407358
 10
270.6715052034
 20
40.2479639806
 10
271.12948247
 20
40.326483686
 10
271.6056682658
 20
40.304193674
 10
272.0357509247
 20
40.1841044012
 10
272.3616440222
 20
39.9824353305
 10
272.5393346416
 20
39.7264227188
 10
272.5448238159
 20
39.4506428296
 10
272.3773718143
 20
39.1923403966
 10
272.0595928906
 20
38.9864012129
 10
271.634405296
 20
38.8606382525
 10
271.1592326297
 20
38.8320366402
 10
270.6982494985
 20
38.9044593391
 10
270.3137143297
 20
39.0681251307
 10
270.0575608486
 20
39.3009299533
 10
269.9643838801
 20
39.5714323512
  0
ARC
  5
229
330
1F
100
AcDbEntity
  8
0
  6
Continuous
 62
     7
370
    15
100
AcDbCircle
 10
270.5434158548
 20
39.3230367072
 30
0.0
 40
0.7835080137306276
100
AcDbArc
 50
115.7141606451
 51
173.8631443662
  0
LWPOLYLINE
  5
22A
330
1F
100
AcDbEntity
  8
0
  6
Continuous
 62
     7
370
    15
100
AcDbPolyline
 90
       14
 70
   128
 43
0.0
 10
272.325130775
 20
40.0289539589
 10
272.5752181556
 20
39.8376091554
 10
272.7409056489
 20
39.5690803133
 10
272.746579298
 20
39.2840441009
 10
272.5916262036
 20
39.0133875205
 10
272.2928351092
 20
38.7864420716
 10
271.8825868488
 20
38.627799524
 10
271.4053371332
 20
38.5546519128
 10
270.9128037931
 20
38.5749256
 10
270.4583609967
 20
38.6864234664
 10
270.0912525619
 20
38.8770640056
 10
269.8512637143
 20
39.12618647
 10
269.7643978248
 20
39.406796581
 10
269.7643978248
 20
39.406796581
  0
LWPOLYLINE
  5
22B
330
1F
100
AcDbEntity
  8
0
  6
Continuous
 62
     7
370
    15
100
AcDbPolyline
 90
       17
 70
   128
 43
0.0
 10
270.3143618436
 20
39.5737535245
 10
270.3824927593
 20
39.7840925779
 10
270.5848727113
 20
39.9633676632
 10
270.8906879547
 20
40.0842876631
 10
271.2533817746
 20
40.1284430971
 10
271.6177387693
 20
40.0891108161
 10
271.9282869977
 20
39.9722799536
 10
272.1377487676
 20
39.7957366754
 10
272.2142355841
 20
39.5863579543
 10
272.1461033514
 20
39.3760196612
 10
271.9437247164
 20
39.1967438156
 10
271.6379094731
 20
39.0758238156
 10
271.2752156531
 20
39.0316683817
 10
270.9108586584
 20
39.0710006626
 10
270.60031043
 20
39.1878315252
 10
270.3908486601
 20
39.3643748034
 10
270.3143618436
 20
39.5737535245
  0
SPLINE
  5
22C
330
1F
100
AcDbEntity
  8
0
  6
Continuous
 62
     7
370
    15
100
AcDbSpline
210
0.0
220
0.0
230
1.0
 70
     8
 71
     3
 72
    11
 73
     7
 74
     0
 42
0.000000001
 43
0.00000001
 40
0.0
 40
0.0
 40
0.0
 40
0.0
 40
0.118336078649971
 40
0.4755407549177532
 40
0.8141719148608753
 40
1.0
 40
1.0
 40
1.0
 40
1.0
 10
270.5193243139477
 20
39.25655526871896
 30
0.0
 10
270.5189556984341
 20
39.26260881859543
 30
0.0
 10
270.5174743944936
 20
39.28693537826373
 30
0.0
 10
270.5146749889727
 20
39.37717772354344
 30
0.0
 10
270.5115955549437
 20
39.57134915975177
 30
0.0
 10
270.5099543719163
 20
39.70803649435585
 30
0.0
 10
270.509372862672
 20
39.75646799001623
 30
0.0
  0
LINE
  5
22D
330
1F
100
AcDbEntity
  8
0
  6
Continuous
 62
     7
370
    15
100
AcDbLine
 10
270.6038067251
 20
39.1975594253
 30
0.0
 11
270.5193243139
 21
39.2565552687
 31
0.0
  0
LINE
  5
22E
330
1F
100
AcDbEntity
  8
0
  6
Continuous
 62
     7
370
    15
100
AcDbLine
 10
272.019224565
 20
39.2665061737
 30
0.0
 11
271.8113292795
 21
39.1359169647
 31
0.0
  0
SPLINE
  5
22F
330
1F
100
AcDbEntity
  8
0
  6
Continuous
 62
     7
370
    15
100
AcDbSpline
210
0.0
220
0.0
230
1.0
 70
     8
 71
     3
 72
    11
 73
     7
 74
     0
 42
0.000000001
 43
0.00000001
 40
0.0
 40
0.0
 40
0.0
 40
0.0
 40
0.1858294386030794
 40
0.5244606258918002
 40
0.881663911793995
 40
1.0
 40
1.0
 40
1.0
 40
1.0
 10
272.0092731137703
 20
39.76641889502478
 30
0.0
 10
272.009855138009
 20
39.71798716218619
 30
0.0
 10
272.0114977668561
 20
39.58129979387414
 30
0.0
 10
272.0145768443343
 20
39.38712798866425
 30
0.0
 10
272.0173745374033
 20
39.29688622938811
 30
0.0
 10
272.0188559270939
 20
39.27255972733344
 30
0.0
 10
272.019224565046
 20
39.26650617372753
 30
0.0
  0
SPLINE
  5
230
330
1F
100
AcDbEntity
  8
0
  6
Continuous
 62
     7
370
    15
100
AcDbSpline
210
0.0
220
0.0
230
1.0
 70
     8
 71
     3
 72
    10
 73
     6
 74
     0
 42
0.000000001
 43
0.00000001
 40
0.0
 40
0.0
 40
0.0
 40
0.0
 40
0.4391174800566261
 40
0.7513664701182095
 40
1.0
 40
1.0
 40
1.0
 40
1.0
 10
271.2543466246182
 20
40.0114001952191
 30
0.0
 10
271.3624203376807
 20
39.93438553419515
 30
0.0
 10
271.5473434345382
 20
39.8026070543372
 30
0.0
 10
271.8161626449838
 20
39.74727285089178
 30
0.0
 10
271.9499614577236
 20
39.76053840811278
 30
0.0
 10
272.0092731137703
 20
39.76641889502478
 30
0.0
  0
SPLINE
  5
231
330
1F
100
AcDbEntity
  8
0
  6
Continuous
 62
     7
370
    15
100
AcDbSpline
210
0.0
220
0.0
230
1.0
 70
     8
 71
     3
 72
    10
 73
     6
 74
     0
 42
0.000000001
 43
0.00000001
 40
0.0
 40
0.0
 40
0.0
 40
0.0
 40
0.4391164846525371
 40
0.7513669811009143
 40
0.9999999999999999
 40
0.9999999999999999
 40
0.9999999999999999
 40
0.9999999999999999
 10
270.509372862672
 20
39.75646799001623
 30
0.0
 10
270.6160214742832
 20
39.75102011242515
 30
0.0
 10
270.7985066419908
 20
39.7416983140366
 30
0.0
 10
271.0637828028796
 20
39.86437491830753
 30
0.0
 10
271.1958172971896
 20
39.96624319482871
 30
0.0
 10
271.2543466246182
 20
40.0114001952191
 30
0.0
  0
LINE
  5
232
330
1F
100
AcDbEntity
  8
0
  6
Continuous
 62
     7
370
    15
100
AcDbLine
 10
272.0092731138
 20
39.2602547946
 30
0.0
 11
272.0092731138
 21
39.766418895
 31
0.0
  0
LINE
  5
233
330
1F
100
AcDbEntity
  8
0
  6
Continuous
 62
     7
370
    15
100
AcDbLine
 10
271.2543466246
 20
39.0316623921
 30
0.0
 11
271.2543466246
 21
40.0114001952
 31
0.0
  0
SPLINE
  5
234
330
1F
100
AcDbEntity
  8
0
  6
Continuous
 62
     7
370
    15
100
AcDbSpline
210
0.0
220
0.0
230
1.0
 70
     8
 71
     3
 72
    12
 73
     8
 74
     0
 42
0.000000001
 43
0.00000001
 40
0.0
 40
0.0
 40
0.0
 40
0.0
 40
0.2499999999999972
 40
0.2499999999999972
 40
0.4999999999999944
 40
0.4999999999999944
 40
1.0
 40
1.0
 40
1.0
 40
1.0
 10
246.4345057957674
 20
33.94163795034365
 30
0.0
 10
246.468437288057
 20
33.92204971679217
 30
0.0
 10
246.5068689970842
 20
33.89486252785577
 30
0.0
 10
246.5810458497492
 20
33.83563860031993
 30
0.0
 10
246.6162621300047
 20
33.80420592130318
 30
0.0
 10
246.7113610472626
 20
33.71221320450119
 30
0.0
 10
246.7598902040245
 20
33.65535653897654
 30
0.0
 10
246.7932318001795
 20
33.60712773297421
 30
0.0
  0
ARC
  5
235
330
1F
100
AcDbEntity
  8
0
  6
Continuous
 62
     7
370
    15
100
AcDbCircle
 10
270.5801293402
 20
49.8767281745
 30
0.0
 40
10.21191233648613
100
AcDbArc
 50
73.3308515776
 51
100.4157213825
  0
SPLINE
  5
236
330
1F
100
AcDbEntity
  8
0
  6
Continuous
 62
     7
370
    15
100
AcDbSpline
210
0.0
220
0.0
230
1.0
 70
     8
 71
     3
 72
    12
 73
     8
 74
     0
 42
0.000000001
 43
0.00000001
 40
0.0
 40
0.0
 40
0.0
 40
0.0
 40
0.4999999999999972
 40
0.4999999999999972
 40
0.7499999999999986
 40
0.7499999999999986
 40
1.0
 40
1.0
 40
1.0
 40
1.0
 10
273.7214946193779
 20
59.22594367118554
 30
0.0
 10
273.7214946193779
 20
59.29862666837834
 30
0.0
 10
273.7044778513077
 20
59.38220951511863
 30
0.0
 10
273.6500670254262
 20
59.50365369299432
 30
0.0
 10
273.6269218065044
 20
59.54336857067567
 30
0.0
 10
273.5726409946472
 20
59.61209834254147
 30
0.0
 10
273.5414050260896
 20
59.64100793844712
 30
0.0
 10
273.5093625850219
 20
59.65950564594073
 30
0.0
  0
LWPOLYLINE
  5
237
330
1F
100
AcDbEntity
  8
0
  6
Continuous
 62
     7
370
    15
100
AcDbPolyline
 90
       16
 70
   128
 43
0.0
 10
246.9219332778
 20
34.1822806906
 10
247.2260925955
 20
35.3853447488
 10
247.7657276729
 20
37.1792093433
 10
248.4085237476
 20
38.9767068752
 10
249.1501752554
 20
40.7657988604
 10
249.9857154537
 20
42.5345016302
 10
250.9095467142
 20
44.2709684585
 10
251.9154826697
 20
45.9635709273
 10
252.996785093
 20
47.6009704066
 10
254.1462119699
 20
49.1721998
 10
255.3560642567
 20
50.6667354037
 10
256.6182385633
 20
52.0745668643
 10
257.9242818122
 20
53.3862667561
 10
259.2654458983
 20
54.5930479908
 10
260.6327479452
 20
55.6868275006
 10
261.6449377687
 20
56.4116082231
  0
LWPOLYLINE
  5
238
330
1F
100
AcDbEntity
  8
0
  6
Continuous
 62
     7
370
    15
100
AcDbPolyline
 90
       12
 70
   128
 43
0.0
 10
256.4454667774
 20
54.7836324734
 10
257.8958237991
 20
56.0562357841
 10
259.3734557587
 20
57.1973848212
 10
260.8671815171
 20
58.1984438431
 10
262.3656980221
 20
59.0518382978
 10
263.8576657547
 20
59.751111755
 10
265.3317949161
 20
60.2909695767
 10
266.7769303383
 20
60.6673294566
 10
268.18213689
 20
60.8773418258
 10
269.5367813822
 20
60.9194173639
 10
270.8306125818
 20
60.7932397297
 10
272.0538405661
 20
60.4997611809
  0
LINE
  5
239
330
1F
100
AcDbEntity
  8
0
  6
Continuous
 62
     7
370
    15
100
AcDbLine
 10
273.5093625524
 20
59.6595062235
 30
0.0
 11
272.0538405661
 21
60.4997611809
 31
0.0
  0
LINE
  5
23A
330
1F
100
AcDbEntity
  8
0
  6
Continuous
 62
     7
370
    15
100
AcDbLine
 10
244.978983647
 20
34.7818930928
 30
0.0
 11
246.4345056333
 21
33.9416381355
 31
0.0
  0
ARC
  5
23B
330
1F
100
AcDbEntity
  8
0
  6
Continuous
 62
     7
370
    15
100
AcDbCircle
 10
284.3117075187
 20
25.5507922279
 30
0.0
 40
40.40144044883835
100
AcDbArc
 50
136.9528122493
 51
166.7921386576
  0
SPLINE
  5
23C
330
1F
100
AcDbEntity
  8
0
  6
Continuous
 62
     7
370
    15
100
AcDbSpline
210
0.0
220
0.0
230
1.0
 70
     8
 71
     3
 72
    34
 73
    30
 74
     0
 42
0.000000001
 43
0.00000001
 40
0.0
 40
0.0
 40
0.0
 40
0.0
 40
0.0625000000000003
 40
0.0625000000000003
 40
0.1250000000000006
 40
0.1250000000000006
 40
0.1875000000000009
 40
0.1875000000000009
 40
0.2500000000000012
 40
0.2500000000000012
 40
0.3125000000000014
 40
0.3125000000000014
 40
0.3750000000000018
 40
0.3750000000000018
 40
0.5000000000000026
 40
0.5000000000000026
 40
0.6250000000000033
 40
0.6250000000000033
 40
0.6875000000000026
 40
0.6875000000000026
 40
0.7500000000000017
 40
0.7500000000000017
 40
0.8125000000000009
 40
0.8125000000000009
 40
0.8750000000000007
 40
0.8750000000000007
 40
0.9375000000000003
 40
0.9375000000000003
 40
1.0
 40
1.0
 40
1.0
 40
1.0
 10
254.7866674102996
 20
53.12883484137598
 30
0.0
 10
254.8457928239429
 20
53.09925735751775
 30
0.0
 10
254.9086055193735
 20
53.07558133532223
 30
0.0
 10
255.0413145222981
 20
53.03950182490248
 30
0.0
 10
255.1119262186692
 20
53.02705393476325
 30
0.0
 10
255.2571741886465
 20
53.01434404103785
 30
0.0
 10
255.3311566184087
 20
53.01400186114052
 30
0.0
 10
255.4818386832335
 20
53.02500820596314
 30
0.0
 10
255.5592867030337
 20
53.03659486994863
 30
0.0
 10
255.7112192890087
 20
53.07076941268743
 30
0.0
 10
255.7861753695933
 20
53.09328181507741
 30
0.0
 10
255.934110436502
 20
53.14909388767548
 30
0.0
 10
256.0070391495923
 20
53.18253873388177
 30
0.0
 10
256.2136516756023
 20
53.29490099320108
 30
0.0
 10
256.3405768516516
 20
53.38893839422182
 30
0.0
 10
256.5496836042785
 20
53.59753970939774
 30
0.0
 10
256.6342319874764
 20
53.71446380354145
 30
0.0
 10
256.7192055442504
 20
53.89298905351408
 30
0.0
 10
256.7411652448483
 20
53.95420563244077
 30
0.0
 10
256.7702763415881
 20
54.07501161495462
 30
0.0
 10
256.7776308043679
 20
54.13461214139978
 30
0.0
 10
256.7779737394122
 20
54.25235343153304
 30
0.0
 10
256.7707336965769
 20
54.31080481967014
 30
0.0
 10
256.7421218460549
 20
54.42156744406159
 30
0.0
 10
256.7208385044955
 20
54.47447988878423
 30
0.0
 10
256.6640103378884
 20
54.57539809609348
 30
0.0
 10
256.6285528489145
 20
54.6229131107246
 30
0.0
 10
256.5461478960279
 20
54.70917308860802
 30
0.0
 10
256.4989429934521
 20
54.74841864102808
 30
0.0
 10
256.4454668475632
 20
54.7836317691417
 30
0.0
  0
LINE
  5
23D
330
1F
100
AcDbEntity
  8
0
  6
Continuous
 62
     7
370
    15
100
AcDbLine
 10
279.4313938461
 20
52.3566401149
 30
0.0
 11
279.535675686
 21
52.5372619397
 31
0.0
  0
LINE
  5
23E
330
1F
100
AcDbEntity
  8
0
  6
Continuous
 62
     7
370
    15
100
AcDbLine
 10
277.1332855646
 20
51.029970443
 30
0.0
 11
279.4313938461
 21
52.3566401149
 31
0.0
  0
ARC
  5
23F
330
1F
100
AcDbEntity
  8
0
  6
Continuous
 62
     7
370
    15
100
AcDbCircle
 10
277.9613886622
 20
49.73536816
 30
0.0
 40
1.536798559128366
100
AcDbArc
 50
122.6053519586
 51
177.394632491
  0
LINE
  5
240
330
1F
100
AcDbEntity
  8
0
  6
Continuous
 62
     7
370
    15
100
AcDbLine
 10
276.4261786675
 20
40.9457577863
 30
0.0
 11
276.4261786675
 21
49.8052257547
 31
0.0
  0
ARC
  5
241
330
1F
100
AcDbEntity
  8
0
  6
Continuous
 62
     7
370
    15
100
AcDbCircle
 10
276.8572521506
 20
40.8758292393
 30
0.0
 40
0.4367085406722889
100
AcDbArc
 50
170.7857695821
 51
309.2035248725
  0
LINE
  5
242
330
1F
100
AcDbEntity
  8
0
  6
Continuous
 62
     7
370
    15
100
AcDbLine
 10
279.4313938461
 20
41.8640910156
 30
0.0
 11
277.1332855646
 21
40.5374213436
 31
0.0
  0
LINE
  5
243
330
1F
100
AcDbEntity
  8
0
  6
Continuous
 62
     7
370
    15
100
AcDbLine
 10
279.535675686
 20
41.8038704404
 30
0.0
 11
279.4313938461
 21
41.8640910156
 31
0.0
  0
LINE
  5
244
330
1F
100
AcDbEntity
  8
0
  6
Continuous
 62
     7
370
    15
100
AcDbLine
 10
246.8387393501
 20
23.0487520708
 30
0.0
 11
246.7932312904
 21
22.9303834478
 31
0.0
  0
LINE
  5
245
330
1F
100
AcDbEntity
  8
0
  6
Continuous
 62
     7
370
    15
100
AcDbLine
 10
246.8387393501
 20
23.0487520708
 30
0.0
 11
249.9803838773
 21
24.8623848521
 31
0.0
  0
ARC
  5
246
330
1F
100
AcDbEntity
  8
0
  6
Continuous
 62
     7
370
    15
100
AcDbCircle
 10
249.1522807797
 20
26.1569871351
 30
0.0
 40
1.536798559128556
100
AcDbArc
 50
302.6053519586
 51
357.394632491
  0
LINE
  5
247
330
1F
100
AcDbEntity
  8
0
  6
Continuous
 62
     7
370
    15
100
AcDbLine
 10
250.6874907744
 20
34.9465975088
 30
0.0
 11
250.6874907744
 21
26.0871295404
 31
0.0
  0
ARC
  5
248
330
1F
100
AcDbEntity
  8
0
  6
Continuous
 62
     7
370
    15
100
AcDbCircle
 10
250.2564172913
 20
35.0165260558
 30
0.0
 40
0.43670854067239
100
AcDbArc
 50
350.7857695821
 51
129.2035248725
  0
LINE
  5
249
330
1F
100
AcDbEntity
  8
0
  6
Continuous
 62
     7
370
    15
100
AcDbLine
 10
249.9803838773
 20
35.3549339515
 30
0.0
 11
246.8387393501
 21
33.5413011701
 31
0.0
  0
LINE
  5
24A
330
1F
100
AcDbEntity
  8
0
  6
Continuous
 62
     7
370
    15
100
AcDbLine
 10
246.7932312904
 20
33.6071273058
 30
0.0
 11
246.8387393501
 21
33.5413011701
 31
0.0
  0
LINE
  5
24B
330
1F
100
AcDbEntity
  8
0
  6
Continuous
 62
     7
370
    15
100
AcDbLine
 10
273.7214948849
 20
56.0009828856
 30
0.0
 11
273.7214948849
 21
59.2259440286
 31
0.0
  0
LINE
  5
24C
330
1F
100
AcDbEntity
  8
0
  6
Continuous
 62
     7
370
    15
100
AcDbLine
 10
276.5142418733
 20
57.613201405
 30
0.0
 11
273.7214948849
 21
56.0009828856
 31
0.0
  0
SPLINE
  5
24D
330
1F
100
AcDbEntity
  8
0
  6
Continuous
 62
     7
370
    15
100
AcDbSpline
210
0.0
220
0.0
230
1.0
 70
     8
 71
     3
 72
     8
 73
     4
 74
     0
 42
0.000000001
 43
0.00000001
 40
0.0
 40
0.0
 40
0.0
 40
0.0
 40
1.0
 40
1.0
 40
1.0
 40
1.0
 10
243.9064293235389
 20
35.87340687787514
 30
0.0
 10
243.6193621938667
 20
35.8259548781518
 30
0.0
 10
243.3322490752811
 20
35.77859744544901
 30
0.0
 10
243.0450942488835
 20
35.73132577653693
 30
0.0
  0
SPLINE
  5
24E
330
1F
100
AcDbEntity
  8
0
  6
Continuous
 62
     7
370
    15
100
AcDbSpline
210
0.0
220
0.0
230
1.0
 70
     8
 71
     3
 72
     8
 73
     4
 74
     0
 42
0.000000001
 43
0.00000001
 40
0.0
 40
0.0
 40
0.0
 40
0.0
 40
0.0011862984959112
 40
0.0011862984959112
 40
0.0011862984959112
 40
0.0011862984959112
 10
242.6927931616081
 20
36.1016826761991
 30
0.0
 10
242.8105040294526
 20
35.97813272508665
 30
0.0
 10
242.9279437798886
 20
35.85467767597138
 30
0.0
 10
243.0450942488835
 20
35.73132577653693
 30
0.0
  0
LWPOLYLINE
  5
24F
330
1F
100
AcDbEntity
  8
0
  6
Continuous
 62
     7
370
    15
100
AcDbPolyline
 90
       25
 70
   128
 43
0.0
 10
242.6927933747
 20
36.1016826445
 10
243.1415295537
 20
37.8851028257
 10
243.6955485603
 20
39.6824041233
 10
244.3512218143
 20
41.481813011
 10
245.1042529712
 20
43.2715427172
 10
245.9497108497
 20
45.0398696482
 10
246.8820557736
 20
46.775210953
 10
247.8951817181
 20
48.4661982844
 10
248.9824518717
 20
50.1017546022
 10
250.1367440755
 20
51.6711675537
 10
251.3504969214
 20
53.1641571505
 10
252.6157598017
 20
54.5709426849
 10
253.9242449337
 20
55.8823077439
 10
255.267380702
 20
57.089664464
 10
256.636369446
 20
58.1851020999
 10
258.0222433535
 20
59.1614466683
 10
259.4159243679
 20
60.0123031361
 10
260.8082831484
 20
60.7320955408
 10
262.1901991211
 20
61.3161107834
 10
263.5526203654
 20
61.7605240739
 10
264.8866217921
 20
62.0624218707
 10
266.1834658328
 20
62.2198277903
 10
267.4346569341
 20
62.2317112521
 10
268.6319995094
 20
62.0979935566
 10
269.7676502938
 20
61.8195507326
  0
LINE
  5
250
330
1F
100
AcDbEntity
  8
0
  6
Continuous
 62
     7
370
    15
100
AcDbLine
 10
270.0685086572
 20
60.8728827022
 30
0.0
 11
269.7676502938
 21
61.8195507326
 31
0.0
  0
LWPOLYLINE
  5
251
330
1F
100
AcDbEntity
  8
0
  6
Continuous
 62
     7
370
    15
100
AcDbPolyline
 90
       23
 70
   128
 43
0.0
 10
243.906429329
 20
35.8734068522
 10
244.3576785139
 20
37.6874145162
 10
244.9234143444
 20
39.5167127114
 10
245.5994102818
 20
41.3476355558
 10
246.3806166069
 20
43.1665035562
 10
247.2611959812
 20
44.9597277886
 10
248.234569545
 20
46.7139117954
 10
249.2934663085
 20
48.4159500613
 10
250.4299745178
 20
50.0531276286
 10
251.6356035587
 20
51.6132105867
 10
252.901346518
 20
53.0845460674
 10
254.2177460378
 20
54.4561398052
 10
255.5749684025
 20
55.7177460558
 10
256.9628735082
 20
56.8599399282
 10
258.3710921601
 20
57.874186342
 10
259.7891037187
 20
58.7529091865
 10
261.2063143638
 20
59.4895425856
 10
262.6121358314
 20
60.0785839558
 10
263.9960657978
 20
60.5156328065
 10
265.3477646204
 20
60.7974228743
 10
266.6571335191
 20
60.9218505256
 10
267.9143911323
 20
60.8879839706
 10
268.0974605786
 20
60.8693000902
  0
LINE
  5
252
330
1F
100
AcDbEntity
  8
0
  6
Continuous
 62
     7
370
    15
100
AcDbLine
 10
241.2549486987
 20
36.9317327079
 30
0.0
 11
242.6927933747
 21
36.1016826445
 31
0.0
  0
ARC
  5
253
330
1F
100
AcDbEntity
  8
0
  6
Continuous
 62
     7
370
    15
100
AcDbCircle
 10
265.4005878022
 20
52.8669116403
 30
0.0
 40
10.21182276218674
100
AcDbArc
 50
73.3307912681
 51
100.4143425215
  0
LINE
  5
254
330
1F
100
AcDbEntity
  8
0
  6
Continuous
 62
     7
370
    15
100
AcDbLine
 10
269.7676502938
 20
61.8195507326
 30
0.0
 11
268.3298056178
 21
62.6496007959
 31
0.0
  0
LINE
  5
255
330
1F
100
AcDbEntity
  8
0
  6
Continuous
 62
     7
370
    15
100
AcDbLine
 10
245.1590201666
 20
35.5470648507
 30
0.0
 11
244.5329165489
 21
35.9085067757
 31
0.0
  0
SPLINE
  5
256
330
1F
100
AcDbEntity
  8
0
  6
Continuous
 62
     7
370
    15
100
AcDbSpline
210
0.0
220
0.0
230
1.0
 70
     8
 71
     3
 72
    11
 73
     7
 74
     0
 42
0.000000001
 43
0.00000001
 40
0.0
 40
0.0
 40
0.0
 40
0.0
 40
0.3165694752064712
 40
0.6331520400060429
 40
0.9494411625907934
 40
1.0
 40
1.0
 40
1.0
 40
1.0
 10
255.7534428544769
 20
53.89115352362887
 30
0.0
 10
255.6198526742732
 20
53.8439748607088
 30
0.0
 10
255.3526667901458
 20
53.74961558411364
 30
0.0
 10
255.0367165909471
 20
53.48979988492044
 30
0.0
 10
254.8560138999905
 20
53.26660849944797
 30
0.0
 10
254.8210789364404
 20
53.13785932195017
 30
0.0
 10
254.8162642138996
 20
53.12011516240302
 30
0.0
  0
SPLINE
  5
257
330
1F
100
AcDbEntity
  8
0
  6
Continuous
 62
     7
370
    15
100
AcDbSpline
210
0.0
220
0.0
230
1.0
 70
     8
 71
     3
 72
    14
 73
    10
 74
     0
 42
0.000000001
 43
0.00000001
 40
0.0
 40
0.0
 40
0.0
 40
0.0
 40
0.25
 40
0.25
 40
0.5
 40
0.5
 40
0.75
 40
0.75
 40
1.0
 40
1.0
 40
1.0
 40
1.0
 10
244.5329164362726
 20
35.90850694510719
 30
0.0
 10
244.4952824428146
 20
35.93023258708724
 30
0.0
 10
244.4495084861254
 20
35.94744434819874
 30
0.0
 10
244.3495726086155
 20
35.96984968183124
 30
0.0
 10
244.2951387397756
 20
35.97502456543106
 30
0.0
 10
244.1889230892836
 20
35.97308237111631
 30
0.0
 10
244.1356067893336
 20
35.96599396819807
 30
0.0
 10
244.0381137220329
 20
35.94126053191339
 30
0.0
 10
243.9932020315032
 20
35.92349969592734
 30
0.0
 10
243.9554487659032
 20
35.90170519960535
 30
0.0
  0
LINE
  5
258
330
1F
100
AcDbEntity
  8
0
  6
Continuous
 62
     7
370
    15
100
AcDbLine
 10
243.955448748
 20
35.9017051604
 30
0.0
 11
243.906429329
 21
35.8734068522
 31
0.0
  0
SPLINE
  5
259
330
1F
100
AcDbEntity
  8
0
  6
Continuous
 62
     7
370
    15
100
AcDbSpline
210
0.0
220
0.0
230
1.0
 70
     8
 71
     3
 72
    10
 73
     6
 74
     0
 42
0.000000001
 43
0.00000001
 40
0.0
 40
0.0
 40
0.0
 40
0.0
 40
0.5
 40
0.5
 40
1.0
 40
1.0
 40
1.0
 40
1.0
 10
241.1529361332531
 20
36.96118088678382
 30
0.0
 10
241.1602524176753
 20
36.965548886677
 30
0.0
 10
241.1720762778837
 20
36.96608093926526
 30
0.0
 10
241.2062276421615
 20
36.95685088962696
 30
0.0
 10
241.2284846055543
 20
36.94701001231066
 30
0.0
 10
241.254948623576
 20
36.93173265989434
 30
0.0
  0
SPLINE
  5
25A
330
1F
100
AcDbEntity
  8
0
  6
Continuous
 62
     7
370
    15
100
AcDbSpline
210
0.0
220
0.0
230
1.0
 70
     8
 71
     3
 72
    14
 73
    10
 74
     0
 42
0.000000001
 43
0.00000001
 40
0.0
 40
0.0
 40
0.0
 40
0.0
 40
0.25
 40
0.25
 40
0.5
 40
0.5
 40
0.75
 40
0.75
 40
1.0
 40
1.0
 40
1.0
 40
1.0
 10
256.1705217095026
 20
54.19760533276712
 30
0.0
 10
256.1853626016317
 20
54.15908731393152
 30
0.0
 10
256.1847288337278
 20
54.12116867577806
 30
0.0
 10
256.1517932287674
 20
54.05522772600878
 30
0.0
 10
256.1196573834254
 20
54.02695416846682
 30
0.0
 10
256.034754808021
 20
53.97903514227932
 30
0.0
 10
255.9823378955278
 20
53.95915804483158
 30
0.0
 10
255.8710022312327
 20
53.9233011188152
 30
0.0
 10
255.8128475545217
 20
53.90742909513178
 30
0.0
 10
255.7534425987903
 20
53.89115374957705
 30
0.0
  0
LINE
  5
25B
330
1F
100
AcDbEntity
  8
0
  6
Continuous
 62
     7
370
    15
100
AcDbLine
 10
256.1543947147
 20
54.2394611754
 30
0.0
 11
256.1705218112
 21
54.1976056857
 31
0.0
  0
SPLINE
  5
25C
330
1F
100
AcDbEntity
  8
0
  6
Continuous
 62
     7
370
    15
100
AcDbSpline
210
0.0
220
0.0
230
1.0
 70
     8
 71
     3
 72
    10
 73
     6
 74
     0
 42
0.000000001
 43
0.00000001
 40
0.0
 40
0.0
 40
0.0
 40
0.0
 40
0.5
 40
0.5
 40
1.0
 40
1.0
 40
1.0
 40
1.0
 10
256.4454668475632
 20
54.7836317691417
 30
0.0
 10
256.4174517978254
 20
54.71160566645367
 30
0.0
 10
256.3796339093755
 20
54.63065918115022
 30
0.0
 10
256.2836581615406
 20
54.45026414481031
 30
0.0
 10
256.225626384241
 20
54.35093793783551
 30
0.0
 10
256.1543946466509
 20
54.23946147627144
 30
0.0
  0
LWPOLYLINE
  5
25D
330
1F
100
AcDbEntity
  8
0
  6
Continuous
 62
     7
370
    15
100
AcDbPolyline
 90
       45
 70
   128
 43
0.0
 10
274.1104036124
 20
37.8145526799
 10
273.3204440784
 20
37.2932759748
 10
272.5465658719
 20
36.6521246644
 10
271.8045228594
 20
35.9041514714
 10
271.1094208994
 20
35.0645822023
 10
270.475410467
 20
34.1505086438
 10
269.9153977176
 20
33.1805381117
 10
269.4407833736
 20
32.1744172368
 10
269.0612289415
 20
31.1526270396
 10
268.7844614534
 20
30.1359686872
 10
268.6161144281
 20
29.1451380289
 10
268.5596155898
 20
28.2003058309
 10
268.6161144281
 20
27.3207058031
 10
268.7844614534
 20
26.5242444829
 10
269.0612289415
 20
25.8271350706
 10
269.4407833736
 20
25.2435690928
 10
269.9153977176
 20
24.7854262754
 10
270.475410467
 20
24.462032701
 10
271.1094208994
 20
24.2799720064
 10
271.8045228594
 20
24.2429503775
 10
272.5465658719
 20
24.3517218105
 10
273.3204440784
 20
24.6040712586
 10
274.1104036124
 20
24.9948624176
 10
274.9003631465
 20
25.5161391227
 10
275.674241353
 20
26.1572904332
 10
276.4162843655
 20
26.9052636261
 10
277.1113863255
 20
27.7448328952
 10
277.7453967579
 20
28.6589064538
 10
278.3054095073
 20
29.6288769858
 10
278.7800238513
 20
30.6349978608
 10
279.1595782834
 20
31.6567880579
 10
279.4363457715
 20
32.6734464103
 10
279.6046927968
 20
33.6642770687
 10
279.6611916351
 20
34.6091092666
 10
279.6046927968
 20
35.4887092944
 10
279.4363457715
 20
36.2851706147
 10
279.1595782834
 20
36.982280027
 10
278.7800238513
 20
37.5658460047
 10
278.3054095073
 20
38.0239888221
 10
277.7453967579
 20
38.3473823965
 10
277.1113863255
 20
38.5294430912
 10
276.4162843655
 20
38.56646472
 10
275.674241353
 20
38.457693287
 10
274.9003631465
 20
38.205343839
 10
274.1104036124
 20
37.8145526799
  0
LWPOLYLINE
  5
25E
330
1F
100
AcDbEntity
  8
0
  6
Continuous
 62
     7
370
    15
100
AcDbPolyline
 90
       24
 70
   128
 43
0.0
 10
274.0043371169
 20
37.9982652387
 10
273.1992828372
 20
37.467026983
 10
272.4106170961
 20
36.8136249098
 10
271.6543949618
 20
36.0513590066
 10
270.946010653
 20
35.1957470229
 10
270.2998853066
 20
34.2642069586
 10
269.7291718675
 20
33.2757022884
 10
269.2454883778
 20
32.2503560515
 10
268.858681395
 20
31.2090410798
 10
268.5766251359
 20
30.1729560584
 10
268.4050617792
 20
29.1631925523
 10
268.3474825987
 20
28.2003058309
 10
268.4050617792
 20
27.3038986163
 10
268.5766251359
 20
26.4922179455
 10
268.858681395
 20
25.7817881492
 10
269.2454883778
 20
25.1870710136
 10
269.7291718675
 20
24.720173847
 10
270.2998853066
 20
24.3906008878
 10
270.946010653
 20
24.2050612694
 10
271.6543949618
 20
24.1673323995
 10
272.4106170961
 20
24.2781819878
 10
273.1992828372
 20
24.5353539971
 10
274.0043371169
 20
24.933611628
 10
274.0052565148
 20
24.9341431455
  0
LWPOLYLINE
  5
25F
330
1F
100
AcDbEntity
  8
0
  6
Continuous
 62
     7
370
    15
100
AcDbPolyline
 90
       12
 70
   128
 43
0.0
 10
279.6611916351
 20
34.7315710357
 10
279.6036124546
 20
35.6279782503
 10
279.4320490979
 20
36.4396589211
 10
279.1499928388
 20
37.1500887175
 10
278.763185856
 20
37.744805853
 10
278.2795023663
 20
38.2117030196
 10
277.7087889272
 20
38.5412759788
 10
277.0626635808
 20
38.7268155972
 10
276.354279272
 20
38.7645444671
 10
275.5980571377
 20
38.6536948788
 10
274.8093913966
 20
38.3965228695
 10
274.0043371169
 20
37.9982652387
  0
SPLINE
  5
260
330
1F
100
AcDbEntity
  8
0
  6
Continuous
 62
     7
370
    15
100
AcDbSpline
210
0.0
220
0.0
230
1.0
 70
    11
 71
     3
 72
    66
 73
    62
 74
     0
 42
0.000000001
 43
0.00000001
 40
0.0
 40
0.0
 40
0.0
 40
0.0
 40
0.0312500000000002
 40
0.0312500000000002
 40
0.0625000000000004
 40
0.0625000000000004
 40
0.0937500000000006
 40
0.0937500000000006
 40
0.1250000000000008
 40
0.1250000000000008
 40
0.156250000000001
 40
0.156250000000001
 40
0.1875000000000012
 40
0.1875000000000012
 40
0.2187500000000014
 40
0.2187500000000014
 40
0.2500000000000016
 40
0.2500000000000016
 40
0.2812500000000018
 40
0.2812500000000018
 40
0.3125000000000019
 40
0.3125000000000019
 40
0.3437500000000021
 40
0.3437500000000021
 40
0.3750000000000023
 40
0.3750000000000023
 40
0.4062500000000026
 40
0.4062500000000026
 40
0.4375000000000027
 40
0.4375000000000027
 40
0.4687500000000029
 40
0.4687500000000029
 40
0.5000000000000031
 40
0.5000000000000031
 40
0.5312500000000033
 40
0.5312500000000033
 40
0.5625000000000036
 40
0.5625000000000036
 40
0.625000000000003
 40
0.625000000000003
 40
0.6562500000000028
 40
0.6562500000000028
 40
0.6875000000000024
 40
0.6875000000000024
 40
0.7187500000000022
 40
0.7187500000000022
 40
0.750000000000002
 40
0.750000000000002
 40
0.7812500000000018
 40
0.7812500000000018
 40
0.8125000000000014
 40
0.8125000000000014
 40
0.8437500000000012
 40
0.8437500000000012
 40
0.875000000000001
 40
0.875000000000001
 40
0.9062500000000008
 40
0.9062500000000008
 40
0.9375000000000004
 40
0.9375000000000004
 40
1.0
 40
1.0
 40
1.0
 40
1.0
 10
271.260924795111
 20
40.52472525324665
 30
0.0
 10
271.3778696529648
 20
40.50838038510684
 30
0.0
 10
271.4918489472226
 20
40.4861341118294
 30
0.0
 10
271.7144962728538
 20
40.4318301259239
 30
0.0
 10
271.8239108734235
 20
40.39949009423288
 30
0.0
 10
272.0338888994519
 20
40.32678028149379
 30
0.0
 10
272.1331807850642
 20
40.28694128650001
 30
0.0
 10
272.320853710741
 20
40.2010755464568
 30
0.0
 10
272.4099918423917
 20
40.15455980649908
 30
0.0
 10
272.5722195592724
 20
40.05787419151552
 30
0.0
 10
272.6453889407427
 20
40.00781741580266
 30
0.0
 10
272.775946286961
 20
39.90405880908941
 30
0.0
 10
272.833746407696
 20
39.84979544450866
 30
0.0
 10
272.9290119055089
 20
39.74040674532915
 30
0.0
 10
272.9668901916219
 20
39.68514571817488
 30
0.0
 10
273.0226216688231
 20
39.57253091382225
 30
0.0
 10
273.0404144379666
 20
39.51458492779974
 30
0.0
 10
273.0529795830037
 20
39.39995896748957
 30
0.0
 10
273.0481662365869
 20
39.34290776789591
 30
0.0
 10
273.0148633051823
 20
39.2281857599593
 30
0.0
 10
272.9857983880589
 20
39.17013714272122
 30
0.0
 10
272.9048406861129
 20
39.05840671849262
 30
0.0
 10
272.8529190134106
 20
39.00399609907195
 30
0.0
 10
272.7242284256047
 20
38.89763617264823
 30
0.0
 10
272.6486573759408
 20
38.84691474404477
 30
0.0
 10
272.479918231365
 20
38.7531692760029
 30
0.0
 10
272.3847034102145
 20
38.70914598736609
 30
0.0
 10
272.1828020826023
 20
38.63171928381891
 30
0.0
 10
272.0762383404854
 20
38.59810136981482
 30
0.0
 10
271.8522055232623
 20
38.54142588351463
 30
0.0
 10
271.7373023066863
 20
38.51909097207732
 30
0.0
 10
271.5056371438834
 20
38.48700834447131
 30
0.0
 10
271.3872025751733
 20
38.47715621094666
 30
0.0
 10
271.1552004659711
 20
38.47102445446799
 30
0.0
 10
271.0410435157617
 20
38.47454451394832
 30
0.0
 10
270.8161648349543
 20
38.49528665328098
 30
0.0
 10
270.7063471399287
 20
38.51256810744518
 30
0.0
 10
270.3934934613785
 20
38.58382356425606
 30
0.0
 10
270.2007392385861
 20
38.65920137189813
 30
0.0
 10
269.9583599921062
 20
38.80575009675722
 30
0.0
 10
269.8843640111156
 20
38.86050039718813
 30
0.0
 10
269.7522540822773
 20
38.98082473977668
 30
0.0
 10
269.6955409302935
 20
39.04502522503613
 30
0.0
 10
269.6004542531074
 20
39.18080055796351
 30
0.0
 10
269.5618814203763
 20
39.25289793896571
 30
0.0
 10
269.5056606210097
 20
39.4019532133707
 30
0.0
 10
269.4883375426637
 20
39.47761043602367
 30
0.0
 10
269.4756211796524
 20
39.63024461746889
 30
0.0
 10
269.4804361458048
 20
39.70811010389551
 30
0.0
 10
269.5141057617323
 20
39.85983209269163
 30
0.0
 10
269.5425004304137
 20
39.93298910114176
 30
0.0
 10
269.6234151364696
 20
40.07275661188473
 30
0.0
 10
269.6769674295576
 20
40.14010263954197
 30
0.0
 10
269.8049430221115
 20
40.26020391143426
 30
0.0
 10
269.8793994597314
 20
40.31367433560945
 30
0.0
 10
270.0501396357474
 20
40.40669933566745
 30
0.0
 10
270.1446939591518
 20
40.44507222054393
 30
0.0
 10
270.3461337381018
 20
40.50448883045885
 30
0.0
 10
270.4551026185561
 20
40.52598886213288
 30
0.0
 10
270.7891677658192
 20
40.56473322215813
 30
0.0
 10
271.0270350794034
 20
40.55741498952628
 30
0.0
 10
271.260924795111
 20
40.52472525324666
 30
0.0
  0
LINE
  5
261
330
1F
100
AcDbEntity
  8
0
  6
Continuous
 62
     7
370
    15
100
AcDbLine
 10
277.1541670231
 20
31.3371795327
 30
0.0
 11
278.3530443364
 21
32.8285715571
 31
0.0
  0
SPLINE
  5
262
330
1F
100
AcDbEntity
  8
0
  6
Continuous
 62
     7
370
    15
100
AcDbSpline
210
0.0
220
0.0
230
1.0
 70
     8
 71
     3
 72
    22
 73
    18
 74
     0
 42
0.000000001
 43
0.00000001
 40
0.0
 40
0.0
 40
0.0
 40
0.0
 40
0.0416666666666666
 40
0.0833333333333333
 40
0.1250000000000034
 40
0.166666666666668
 40
0.2083333333333338
 40
0.2499999999998967
 40
0.2968749999997767
 40
0.34375
 40
0.3906250000000001
 40
0.4374999999999999
 40
0.4847037825276523
 40
0.4847037825276523
 40
0.53125
 40
0.624999999999985
 40
0.8414337678077826
 40
0.8414337678077826
 40
0.8414337678077826
 40
0.8414337678077826
 10
278.3530440361486
 20
32.82857166114002
 30
0.0
 10
278.3985233639618
 20
32.88514751257571
 30
0.0
 10
278.4877937739035
 20
33.0070681211688
 30
0.0
 10
278.6122864834202
 20
33.21397579350996
 30
0.0
 10
278.7219281314755
 20
33.44294816569465
 30
0.0
 10
278.8089337272506
 20
33.68635253482864
 30
0.0
 10
278.865609333904
 20
33.93332139990235
 30
0.0
 10
278.8868787778817
 20
34.18136773542103
 30
0.0
 10
278.863645245284
 20
34.41373058844996
 30
0.0
 10
278.7905601215326
 20
34.611861235765
 30
0.0
 10
278.675693559143
 20
34.75719912230911
 30
0.0
 10
278.5263899589053
 20
34.84783875300139
 30
0.0
 10
278.4154665792986
 20
34.87364235318326
 30
0.0
 10
278.3049847957662
 20
34.88405183462792
 30
0.0
 10
278.1567511263277
 20
34.89641156865218
 30
0.0
 10
277.8756557312685
 20
34.9223063257237
 30
0.0
 10
277.4586575612628
 20
34.95952420902135
 30
0.0
 10
277.1540607872877
 20
34.98666459758929
 30
0.0
  0
SPLINE
  5
263
330
1F
100
AcDbEntity
  8
0
  6
Continuous
 62
     7
370
    15
100
AcDbSpline
210
0.0
220
0.0
230
1.0
 70
     8
 71
     3
 72
    22
 73
    18
 74
     0
 42
0.000000001
 43
0.00000001
 40
0.0
 40
0.0
 40
0.0
 40
0.0
 40
0.0416666666666666
 40
0.0833333333333333
 40
0.1250000000000034
 40
0.166666666666668
 40
0.2083333333333338
 40
0.2499999999998967
 40
0.2968749999997767
 40
0.34375
 40
0.3906250000000001
 40
0.4374999999999999
 40
0.4847037825276523
 40
0.4847037825276523
 40
0.53125
 40
0.624999999999985
 40
0.8393173095866466
 40
0.8393173095866466
 40
0.8393173095866466
 40
0.8393173095866466
 10
269.8677626619124
 20
27.93012299020513
 30
0.0
 10
269.8230900050718
 20
27.93411739889926
 30
0.0
 10
269.7326385470466
 20
27.95307418975769
 30
0.0
 10
269.60862052807
 20
28.01620319384289
 30
0.0
 10
269.4988516899796
 20
28.11859738962082
 30
0.0
 10
269.411880163805
 20
28.26154417785299
 30
0.0
 10
269.3551954687846
 20
28.4430776374491
 30
0.0
 10
269.3339284038356
 20
28.66656641003682
 30
0.0
 10
269.3571617275786
 20
28.92575487178927
 30
0.0
 10
269.4302449856333
 20
29.20826520704209
 30
0.0
 10
269.5451192276973
 20
29.48623483130728
 30
0.0
 10
269.6943939074752
 20
29.74922073452354
 30
0.0
 10
269.8053896809722
 20
29.90318379920599
 30
0.0
 10
269.9159002017055
 20
30.04118858274862
 30
0.0
 10
270.0641128276673
 20
30.22466909552753
 30
0.0
 10
270.3420099457326
 20
30.57112654473665
 30
0.0
 10
270.7639533695239
 20
31.09595752314303
 30
0.0
 10
271.066747693654
 20
31.47253751423017
 30
0.0
  0
LINE
  5
264
330
1F
100
AcDbEntity
  8
0
  6
Continuous
 62
     7
370
    15
100
AcDbLine
 10
271.0666402018
 20
27.8229251018
 30
0.0
 11
269.8677628885
 21
27.9301228436
 31
0.0
  0
LINE
  5
265
330
1F
100
AcDbEntity
  8
0
  6
Continuous
 62
     7
370
    15
100
AcDbLine
 10
246.8387393501
 20
33.5413011701
 30
0.0
 11
245.0108851894
 21
34.5964989166
 31
0.0
  0
SPLINE
  5
266
330
1F
100
AcDbEntity
  8
0
  6
Continuous
 62
     7
370
    15
100
AcDbSpline
210
0.0
220
0.0
230
1.0
 70
     8
 71
     3
 72
     8
 73
     4
 74
     0
 42
0.000000001
 43
0.00000001
 40
0.0000000000000004
 40
0.0000000000000004
 40
0.0000000000000004
 40
0.0000000000000004
 40
0.0011862984959127
 40
0.0011862984959127
 40
0.0011862984959127
 40
0.0011862984959127
 10
245.0108849218545
 20
34.5964989764984
 30
0.0
 10
244.9998227225969
 20
34.65860742141717
 30
0.0
 10
244.9891967160231
 20
34.72040020871879
 30
0.0
 10
244.9789835882057
 20
34.78189303543667
 30
0.0
  0
LINE
  5
267
330
1F
100
AcDbEntity
  8
0
  6
Continuous
 62
     7
370
    15
100
AcDbLine
 10
245.0836694217
 20
35.3816738118
 30
0.0
 11
245.0637761092
 21
35.1523280553
 31
0.0
  0
ARC
  5
268
330
1F
100
AcDbEntity
  8
0
  6
Continuous
 62
     7
370
    15
100
AcDbCircle
 10
261.0664525837
 20
33.7250278743
 30
0.0
 40
16.06296283248554
100
AcDbArc
 50
176.9225000953
 51
185.727139394
  0
LWPOLYLINE
  5
269
330
1F
100
AcDbEntity
  8
0
  6
Continuous
 62
     7
370
    15
100
AcDbPolyline
 90
        3
 70
   128
 43
0.0
 10
244.0848820491
 20
34.481546001
 10
244.1425257669
 20
35.8909999102
 10
244.1468458189
 20
35.9440059547
  0
ARC
  5
26A
330
1F
100
AcDbEntity
  8
0
  6
Continuous
 62
     7
370
    15
100
AcDbCircle
 10
255.7812776311
 20
34.1792287586
 30
0.0
 40
11.70030193310899
100
AcDbArc
 50
178.5194031648
 51
203.8932285757
  0
SPLINE
  5
26B
330
1F
100
AcDbEntity
  8
0
  6
Continuous
 62
     7
370
    15
100
AcDbSpline
210
0.0
220
0.0
230
1.0
 70
     8
 71
     3
 72
    11
 73
     7
 74
     0
 42
0.000000001
 43
0.00000001
 40
0.0
 40
0.0
 40
0.0
 40
0.0
 40
0.3180903140721662
 40
0.6361847793338331
 40
0.9543275116870183
 40
1.0
 40
1.0
 40
1.0
 40
1.0
 10
269.7970523304504
 20
28.19401283970673
 30
0.0
 10
269.715282555267
 20
28.21411515272047
 30
0.0
 10
269.5517419377762
 20
28.25432004109014
 30
0.0
 10
269.4008369333887
 20
28.47771221179018
 30
0.0
 10
269.3290448943325
 20
28.68935219981832
 30
0.0
 10
269.3458466727245
 20
28.82882790072154
 30
0.0
 10
269.347955927598
 20
28.84633734496023
 30
0.0
  0
SPLINE
  5
26C
330
1F
100
AcDbEntity
  8
0
  6
Continuous
 62
     7
370
    15
100
AcDbSpline
210
0.0
220
0.0
230
1.0
 70
     8
 71
     3
 72
    11
 73
     7
 74
     0
 42
0.000000001
 43
0.00000001
 40
0.0
 40
0.0
 40
0.0
 40
0.0
 40
0.025601716359157
 40
0.191820450785945
 40
0.4556846351287195
 40
1.0
 40
1.0
 40
1.0
 40
1.0
 10
271.2180711943044
 20
31.68483101784118
 30
0.0
 10
271.217959406978
 20
31.68410217517464
 30
0.0
 10
271.2171218422207
 20
31.67864133314017
 30
0.0
 10
271.2000922801613
 20
31.65012189132633
 30
0.0
 10
271.1533668046854
 20
31.58179978789352
 30
0.0
 10
271.1016079050552
 20
31.51651027524872
 30
0.0
 10
271.0667478738098
 20
31.4725372683444
 30
0.0
  0
LINE
  5
26D
330
1F
100
AcDbEntity
  8
0
  6
Continuous
 62
     7
370
    15
100
AcDbLine
 10
241.5884713636
 20
36.5722163639
 30
0.0
 11
241.1529355446
 21
36.9611805336
 31
0.0
  0
LINE
  5
26E
330
1F
100
AcDbEntity
  8
0
  6
Continuous
 62
     7
370
    15
100
AcDbLine
 10
243.0450946009
 20
35.7313256679
 30
0.0
 11
241.5884713636
 21
36.5722163639
 31
0.0
  0
SPLINE
  5
26F
330
1F
100
AcDbEntity
  8
0
  6
Continuous
 62
     7
370
    15
100
AcDbSpline
210
0.0
220
0.0
230
1.0
 70
     8
 71
     3
 72
    16
 73
    12
 74
     0
 42
0.000000001
 43
0.00000001
 40
0.0
 40
0.0
 40
0.0
 40
0.0
 40
0.2499999999999964
 40
0.2499999999999964
 40
0.4999999999999929
 40
0.4999999999999929
 40
0.6249999999999911
 40
0.6249999999999911
 40
0.7499999999999893
 40
0.7499999999999893
 40
1.0
 40
1.0
 40
1.0
 40
1.0
 10
277.1540607872888
 20
34.98666459758919
 30
0.0
 10
277.1280654876829
 20
34.9889808484248
 30
0.0
 10
277.1000779672797
 20
34.99021249720468
 30
0.0
 10
277.0374262039443
 20
34.98904322372742
 30
0.0
 10
277.002391668919
 20
34.98673065946002
 30
0.0
 10
276.9436009096763
 20
34.97706329320065
 30
0.0
 10
276.9226029048354
 20
34.97266136599623
 30
0.0
 10
276.8810942079664
 20
34.96105116969971
 30
0.0
 10
276.8612918664612
 20
34.95397345168998
 30
0.0
 10
276.810381654502
 20
34.93144158193314
 30
0.0
 10
276.7882202165247
 20
34.91564626586543
 30
0.0
 10
276.7720260301618
 20
34.90108283341689
 30
0.0
  0
SPLINE
  5
270
330
1F
100
AcDbEntity
  8
0
  6
Continuous
 62
     7
370
    15
100
AcDbSpline
210
0.0
220
0.0
230
1.0
 70
     8
 71
     3
 72
    10
 73
     6
 74
     0
 42
0.000000001
 43
0.00000001
 40
0.0
 40
0.0
 40
0.0
 40
0.0
 40
0.5
 40
0.5
 40
1.0
 40
1.0
 40
1.0
 40
1.0
 10
276.7720260301674
 20
34.90108283341441
 30
0.0
 10
276.7458332725394
 20
34.91053072928608
 30
0.0
 10
276.7197010838978
 20
34.92070480475765
 30
0.0
 10
276.6690915949955
 20
34.94276752070084
 30
0.0
 10
276.6453275087143
 20
34.95440710501805
 30
0.0
 10
276.6253403384775
 20
34.96594545279511
 30
0.0
  0
LINE
  5
271
330
1F
100
AcDbEntity
  8
0
  6
Continuous
 62
     7
370
    15
100
AcDbLine
 10
276.1127332137
 20
35.4447990616
 30
0.0
 11
276.0248837056
 21
35.4916997281
 31
0.0
  0
LINE
  5
272
330
1F
100
AcDbEntity
  8
0
  6
Continuous
 62
     7
370
    15
100
AcDbLine
 10
275.5068656809
 20
35.611627123
 30
0.0
 11
276.6253403074
 21
34.9659454648
 31
0.0
  0
ARC
  5
273
330
1F
100
AcDbEntity
  8
0
  6
Continuous
 62
     7
370
    15
100
AcDbCircle
 10
268.519150872
 20
35.1159974153
 30
0.0
 40
5.623484010980921
100
AcDbArc
 50
337.8116751732
 51
1.4779223226
  0
LINE
  5
274
330
1F
100
AcDbEntity
  8
0
  6
Continuous
 62
     7
370
    15
100
AcDbLine
 10
273.726202161
 20
32.9922767898
 30
0.0
 11
276.6253403074
 21
31.3186399622
 31
0.0
  0
LINE
  5
275
330
1F
100
AcDbEntity
  8
0
  6
Continuous
 62
     7
370
    15
100
AcDbLine
 10
271.6130987881
 20
27.65035915
 30
0.0
 11
271.7010148092
 21
27.6034259675
 31
0.0
  0
LINE
  5
276
330
1F
100
AcDbEntity
  8
0
  6
Continuous
 62
     7
370
    15
100
AcDbLine
 10
269.4183819944
 20
29.100274007
 30
0.0
 11
271.1004916944
 21
28.1292127468
 31
0.0
  0
LINE
  5
277
330
1F
100
AcDbEntity
  8
0
  6
Continuous
 62
     7
370
    15
100
AcDbLine
 10
245.0836694217
 20
35.3816738118
 30
0.0
 11
245.0836694217
 21
35.2365239746
 31
0.0
  0
LINE
  5
278
330
1F
100
AcDbEntity
  8
0
  6
Continuous
 62
     7
370
    15
100
AcDbLine
 10
245.0836694217
 20
34.5544807772
 30
0.0
 11
245.0836694217
 21
32.1220876527
 31
0.0
  0
LINE
  5
279
330
1F
100
AcDbEntity
  8
0
  6
Continuous
 62
     7
370
    15
100
AcDbLine
 10
245.0836694217
 20
35.5905634622
 30
0.0
 11
245.0836694217
 21
35.3816738118
 31
0.0
  0
LINE
  5
27A
330
1F
100
AcDbEntity
  8
0
  6
Continuous
 62
     7
370
    15
100
AcDbLine
 10
245.0836694217
 20
32.1220876527
 30
0.0
 11
245.0836694217
 21
29.25209861
 31
0.0
  0
LINE
  5
27B
330
1F
100
AcDbEntity
  8
0
  6
Continuous
 62
     7
370
    15
100
AcDbLine
 10
271.1659385061
 20
28.0716138422
 30
0.0
 11
269.7970523305
 21
28.1940128397
 31
0.0
  0
SPLINE
  5
27C
330
1F
100
AcDbEntity
  8
0
  6
Continuous
 62
     7
370
    15
100
AcDbSpline
210
0.0
220
0.0
230
1.0
 70
     8
 71
     3
 72
    16
 73
    12
 74
     0
 42
0.000000001
 43
0.00000001
 40
0.0
 40
0.0
 40
0.0
 40
0.0
 40
0.2500000000000018
 40
0.2500000000000018
 40
0.5000000000000036
 40
0.5000000000000036
 40
0.6250000000000068
 40
0.6250000000000068
 40
0.75000000000001
 40
0.75000000000001
 40
1.0
 40
1.0
 40
1.0
 40
1.0
 10
271.0666399634219
 20
27.82292529355959
 30
0.0
 10
271.0921974487845
 20
27.82064006924225
 30
0.0
 10
271.1171969859704
 20
27.8209946511729
 30
0.0
 10
271.1645954045482
 20
27.83144896385773
 30
0.0
 10
271.1868474196272
 20
27.84122281859857
 30
0.0
 10
271.2104468634753
 20
27.87153521388645
 30
0.0
 10
271.2165195151279
 20
27.88454062852174
 30
0.0
 10
271.2216863653186
 20
27.91692792124138
 30
0.0
 10
271.2205320768721
 20
27.93613775698975
 30
0.0
 10
271.2073124812339
 20
27.99554768732731
 30
0.0
 10
271.1876022959228
 20
28.03521072935637
 30
0.0
 10
271.1659379553985
 20
28.07161419062585
 30
0.0
  0
SPLINE
  5
27D
330
1F
100
AcDbEntity
  8
0
  6
Continuous
 62
     7
370
    15
100
AcDbSpline
210
0.0
220
0.0
230
1.0
 70
     8
 71
     3
 72
     8
 73
     4
 74
     0
 42
0.000000001
 43
0.00000001
 40
0.0
 40
0.0
 40
0.0
 40
0.0
 40
1.0
 40
1.0
 40
1.0
 40
1.0
 10
271.1004916127525
 20
28.12921278801084
 30
0.0
 10
271.1405259124616
 20
28.10610147872685
 30
0.0
 10
271.1600893531527
 20
28.08628619435567
 30
0.0
 10
271.1659379553981
 20
28.07161419062708
 30
0.0
  0
SPLINE
  5
27E
330
1F
100
AcDbEntity
  8
0
  6
Continuous
 62
     7
370
    15
100
AcDbSpline
210
0.0
220
0.0
230
1.0
 70
     8
 71
     3
 72
     8
 73
     4
 74
     0
 42
0.000000001
 43
0.00000001
 40
0.0
 40
0.0
 40
0.0
 40
0.0
 40
1.0
 40
1.0
 40
1.0
 40
1.0
 10
276.6253403384779
 20
31.31864006850357
 30
0.0
 10
276.6653746381878
 20
31.29552875921916
 30
0.0
 10
276.7198715828385
 20
31.29588015742375
 30
0.0
 10
276.7720260301847
 20
31.3079399490697
 30
0.0
  0
SPLINE
  5
27F
330
1F
100
AcDbEntity
  8
0
  6
Continuous
 62
     7
370
    15
100
AcDbSpline
210
0.0
220
0.0
230
1.0
 70
     8
 71
     3
 72
    16
 73
    12
 74
     0
 42
0.000000001
 43
0.00000001
 40
0.0
 40
0.0
 40
0.0
 40
0.0
 40
0.2500000000000053
 40
0.2500000000000053
 40
0.3750000000000087
 40
0.3750000000000087
 40
0.500000000000012
 40
0.500000000000012
 40
0.750000000000006
 40
0.750000000000006
 40
1.0
 40
1.0
 40
1.0
 40
1.0
 10
276.772026030188
 20
31.30793994906823
 30
0.0
 10
276.7880940968188
 20
31.26865673248844
 30
0.0
 10
276.8103496640109
 20
31.22976589649348
 30
0.0
 10
276.860866076527
 20
31.19222290556083
 30
0.0
 10
276.8804792859344
 20
31.18384051937932
 30
0.0
 10
276.9218057839092
 20
31.17818056271679
 30
0.0
 10
276.9427996539133
 20
31.18078105033982
 30
0.0
 10
277.001876168905
 20
31.19819598976808
 30
0.0
 10
277.0370375850795
 20
31.22156205965719
 30
0.0
 10
277.0999284023659
 20
31.27445401174896
 30
0.0
 10
277.1283843941988
 20
31.30510670916965
 30
0.0
 10
277.1541667346419
 20
31.33717969557304
 30
0.0
  0
LINE
  5
280
330
1F
100
AcDbEntity
  8
0
  6
Continuous
 62
     7
370
    15
100
AcDbLine
 10
245.0108851894
 20
24.1039498173
 30
0.0
 11
246.8387393501
 21
23.0487520708
 31
0.0
  0
SPLINE
  5
281
330
1F
100
AcDbEntity
  8
0
  6
Continuous
 62
     7
370
    15
100
AcDbSpline
210
0.0
220
0.0
230
1.0
 70
     8
 71
     3
 72
    14
 73
    10
 74
     0
 42
0.000000001
 43
0.00000001
 40
0.0
 40
0.0
 40
0.0
 40
0.0
 40
0.25
 40
0.25
 40
0.5
 40
0.5
 40
0.75
 40
0.75
 40
1.0
 40
1.0
 40
1.0
 40
1.0
 10
246.7932318001795
 20
22.93038380143776
 30
0.0
 10
246.7765569571131
 20
22.88701118333117
 30
0.0
 10
246.7562617141972
 20
22.84678085388532
 30
0.0
 10
246.7079647351268
 20
22.77300896621318
 30
0.0
 10
246.6797458873217
 20
22.73943935953607
 30
0.0
 10
246.6168205388985
 20
22.68588795387345
 30
0.0
 10
246.5816573628815
 20
22.66543192451379
 30
0.0
 10
246.5069743736731
 20
22.64799963100191
 30
0.0
 10
246.4684494984647
 20
22.65194693998681
 30
0.0
 10
246.4345057957674
 20
22.67154222245663
 30
0.0
  0
LINE
  5
282
330
1F
100
AcDbEntity
  8
0
  6
Continuous
 62
     7
370
    15
100
AcDbLine
 10
246.4345056333
 20
22.6715423461
 30
0.0
 11
244.978983647
 21
23.5117973034
 31
0.0
  0
SPLINE
  5
283
330
1F
100
AcDbEntity
  8
0
  6
Continuous
 62
     7
370
    15
100
AcDbSpline
210
0.0
220
0.0
230
1.0
 70
     8
 71
     3
 72
     8
 73
     4
 74
     0
 42
0.000000001
 43
0.00000001
 40
0.0
 40
0.0
 40
0.0
 40
0.0
 40
0.0011862984959112
 40
0.0011862984959112
 40
0.0011862984959112
 40
0.0011862984959112
 10
244.9789835882057
 20
23.51179730754965
 30
0.0
 10
244.989196716023
 20
23.70919620943859
 30
0.0
 10
244.9998227225982
 20
23.90658204641537
 30
0.0
 10
245.0108849218559
 20
24.1039495437657
 30
0.0
  0
SPLINE
  5
284
330
1F
100
AcDbEntity
  8
0
  6
Continuous
 62
     7
370
    15
100
AcDbSpline
210
0.0
220
0.0
230
1.0
 70
     8
 71
     3
 72
     9
 73
     5
 74
     0
 42
0.000000001
 43
0.00000001
 40
0.0
 40
0.0
 40
0.0
 40
0.0
 40
0.4740268358276374
 40
1.0
 40
1.0
 40
1.0
 40
1.0
 10
279.596133364594
 20
41.76894953700259
 30
0.0
 10
279.5932128304246
 20
41.77063864215963
 30
0.0
 10
279.5870517147477
 20
41.7742019534099
 30
0.0
 10
279.5533840003243
 20
41.79364429203731
 30
0.0
 10
279.5356756860387
 20
41.80387044040408
 30
0.0
  0
ARC
  5
285
330
1F
100
AcDbEntity
  8
0
  6
Continuous
 62
     7
370
    15
100
AcDbCircle
 10
255.3193737226
 20
24.6324418613
 30
0.0
 40
9.057834805567879
100
AcDbArc
 50
196.6221659789
 51
281.928938739
  0
SPLINE
  5
286
330
1F
100
AcDbEntity
  8
0
  6
Continuous
 62
     7
370
    15
100
AcDbSpline
210
0.0
220
0.0
230
1.0
 70
     8
 71
     3
 72
     8
 73
     4
 74
     0
 42
0.000000001
 43
0.00000001
 40
0.0
 40
0.0
 40
0.0
 40
0.0
 40
1.0
 40
1.0
 40
1.0
 40
1.0
 10
245.2570032756052
 20
24.60118769835258
 30
0.0
 10
245.1748050948196
 20
24.4354673718491
 30
0.0
 10
245.0927707266677
 20
24.26972049651113
 30
0.0
 10
245.0108849218559
 20
24.1039495437657
 30
0.0
  0
LINE
  5
287
330
1F
100
AcDbEntity
  8
0
  6
Continuous
 62
     7
370
    15
100
AcDbLine
 10
245.3060227766
 20
24.6294862701
 30
0.0
 11
245.2570033576
 21
24.6011879619
 31
0.0
  0
SPLINE
  5
288
330
1F
100
AcDbEntity
  8
0
  6
Continuous
 62
     7
370
    15
100
AcDbSpline
210
0.0
220
0.0
230
1.0
 70
     8
 71
     3
 72
    12
 73
     8
 74
     0
 42
0.000000001
 43
0.00000001
 40
0.0
 40
0.0
 40
0.0
 40
0.0
 40
0.249999999999997
 40
0.249999999999997
 40
0.499999999999994
 40
0.499999999999994
 40
1.0
 40
1.0
 40
1.0
 40
1.0
 10
245.3178049633897
 20
24.9628510103137
 30
0.0
 10
245.3554037479643
 20
24.94114569398941
 30
0.0
 10
245.3855813072107
 20
24.91434382341624
 30
0.0
 10
245.4241710418917
 20
24.85672011858625
 30
0.0
 10
245.4330305270815
 20
24.82567199301487
 30
0.0
 10
245.4279830932431
 20
24.73348301660958
 30
0.0
 10
245.3812808061679
 20
24.67293158963472
 30
0.0
 10
245.3060227179695
 20
24.62948602008278
 30
0.0
  0
LINE
  5
289
330
1F
100
AcDbEntity
  8
0
  6
Continuous
 62
     7
370
    15
100
AcDbLine
 10
244.5329165489
 20
25.4159576763
 30
0.0
 11
245.3178051257
 21
24.9628511456
 31
0.0
  0
SPLINE
  5
28A
330
1F
100
AcDbEntity
  8
0
  6
Continuous
 62
     7
370
    15
100
AcDbSpline
210
0.0
220
0.0
230
1.0
 70
     8
 71
     3
 72
    10
 73
     6
 74
     0
 42
0.000000001
 43
0.00000001
 40
0.0
 40
0.0
 40
0.0
 40
0.0
 40
0.5
 40
0.5
 40
1.0
 40
1.0
 40
1.0
 40
1.0
 10
243.9554487659032
 20
25.40915576687346
 30
0.0
 10
244.0315861562418
 20
25.45310894674618
 30
0.0
 10
244.1350939369262
 20
25.47959561292496
 30
0.0
 10
244.3495892290119
 20
25.4834236833123
 30
0.0
 10
244.4570194734302
 20
25.4597718964089
 30
0.0
 10
244.5329164362726
 20
25.41595751237531
 30
0.0
  0
LINE
  5
28B
330
1F
100
AcDbEntity
  8
0
  6
Continuous
 62
     7
370
    15
100
AcDbLine
 10
243.906429329
 20
25.3808577528
 30
0.0
 11
243.955448748
 21
25.4091560611
 31
0.0
  0
SPLINE
  5
28C
330
1F
100
AcDbEntity
  8
0
  6
Continuous
 62
     7
370
    15
100
AcDbSpline
210
0.0
220
0.0
230
1.0
 70
     8
 71
     3
 72
     8
 73
     4
 74
     0
 42
0.000000001
 43
0.00000001
 40
0.0
 40
0.0
 40
0.0
 40
0.0
 40
1.0
 40
1.0
 40
1.0
 40
1.0
 10
243.0450942488844
 20
25.2387763438052
 30
0.0
 10
243.3322490752818
 20
25.28604801271722
 30
0.0
 10
243.6193621938669
 20
25.33340544541996
 30
0.0
 10
243.9064293235389
 20
25.38085744514326
 30
0.0
  0
LINE
  5
28D
330
1F
100
AcDbEntity
  8
0
  6
Continuous
 62
     7
370
    15
100
AcDbLine
 10
241.5884713636
 20
26.0796672646
 30
0.0
 11
243.0450946009
 21
25.2387765685
 31
0.0
  0
LINE
  5
28E
330
1F
100
AcDbEntity
  8
0
  6
Continuous
 62
     7
370
    15
100
AcDbLine
 10
241.5884713636
 20
26.0796672646
 30
0.0
 11
244.7301158908
 21
27.8933000459
 31
0.0
  0
ARC
  5
28F
330
1F
100
AcDbEntity
  8
0
  6
Continuous
 62
     7
370
    15
100
AcDbCircle
 10
254.5579114758
 20
25.9750002542
 30
0.0
 40
9.890562528246424
100
AcDbArc
 50
194.4210541018
 51
238.0225374632
  0
SPLINE
  5
290
330
1F
100
AcDbEntity
  8
0
  6
Continuous
 62
     7
370
    15
100
AcDbSpline
210
0.0
220
0.0
230
1.0
 70
     8
 71
     3
 72
    22
 73
    18
 74
     0
 42
0.000000001
 43
0.00000001
 40
0.0
 40
0.0
 40
0.0
 40
0.0
 40
0.125
 40
0.125
 40
0.25
 40
0.25
 40
0.375
 40
0.375
 40
0.5
 40
0.5
 40
0.625
 40
0.625
 40
0.75
 40
0.75
 40
0.875
 40
0.875
 40
1.0
 40
1.0
 40
1.0
 40
1.0
 10
278.1409120017939
 20
33.01082108399346
 30
0.0
 10
278.208341359722
 20
33.09470256421721
 30
0.0
 10
278.2692741139468
 20
33.18389523298935
 30
0.0
 10
278.3770713835123
 20
33.37342146112821
 30
0.0
 10
278.4236794132448
 20
33.4733697548606
 30
0.0
 10
278.4975523174879
 20
33.67287463575477
 30
0.0
 10
278.5257370301933
 20
33.7752470233464
 30
0.0
 10
278.5618593807657
 20
33.97179560832013
 30
0.0
 10
278.5703093699831
 20
34.06763639732503
 30
0.0
 10
278.5680368613484
 20
34.24778802794888
 30
0.0
 10
278.5575837087929
 20
34.33015238483282
 30
0.0
 10
278.5186291239669
 20
34.47916566336396
 30
0.0
 10
278.4902909639734
 20
34.5441150400001
 30
0.0
 10
278.4176137884858
 20
34.65120509701982
 30
0.0
 10
278.3724021855436
 20
34.69412636058668
 30
0.0
 10
278.2683295381322
 20
34.75434805738675
 30
0.0
 10
278.2083484176377
 20
34.77265397056314
 30
0.0
 10
278.1409119976597
 20
34.77868380217967
 30
0.0
  0
LWPOLYLINE
  5
291
330
1F
100
AcDbEntity
  8
0
  6
Continuous
 62
     7
370
    15
100
AcDbPolyline
 90
        3
 70
   128
 43
0.0
 10
278.1409126624
 20
34.7786836028
 10
277.7742795322
 20
34.8114660087
 10
276.7720264867
 20
34.9010826003
  0
ELLIPSE
  5
292
330
1F
100
AcDbEntity
  8
0
  6
Continuous
 62
     7
370
    15
100
AcDbEllipse
 10
244.4372233719
 20
28.8789246902
 30
0.0
 11
-7.507462979106096E-5
 21
1.066811201853405
 31
0.0
210
0.0
220
0.0
230
1.0
 40
0.7174342186
 41
3.53419364555748
 42
5.10498997235239
  0
ARC
  5
293
330
1F
100
AcDbEntity
  8
0
  6
Continuous
 62
     7
370
    15
100
AcDbCircle
 10
254.4166475627
 20
28.2689987749
 30
0.0
 40
10.89981861700326
100
AcDbArc
 50
195.3652578774
 51
215.9035762319
  0
ARC
  5
294
330
1F
100
AcDbEntity
  8
0
  6
Continuous
 62
     7
370
    15
100
AcDbCircle
 10
251.8128237986
 20
27.0014740881
 30
0.0
 40
9.374612820624414
100
AcDbArc
 50
193.3832905048
 51
247.5353305273
  0
SPLINE
  5
295
330
1F
100
AcDbEntity
  8
0
  6
Continuous
 62
     7
370
    15
100
AcDbSpline
210
0.0
220
0.0
230
1.0
 70
     8
 71
     3
 72
     8
 73
     4
 74
     0
 42
0.000000001
 43
0.00000001
 40
0.0000000000000004
 40
0.0000000000000004
 40
0.0000000000000004
 40
0.0000000000000004
 40
0.0011862984959127
 40
0.0011862984959127
 40
0.0011862984959127
 40
0.0011862984959127
 10
243.0450942488849
 20
25.23877634380424
 30
0.0
 10
242.9279437798898
 20
25.10265230096947
 30
0.0
 10
242.8105040294527
 20
24.96692872580655
 30
0.0
 10
242.6927931616081
 20
24.83158694831207
 30
0.0
  0
LINE
  5
296
330
1F
100
AcDbEntity
  8
0
  6
Continuous
 62
     7
370
    15
100
AcDbLine
 10
241.1529355446
 20
25.828185557
 30
0.0
 11
241.5884713636
 21
26.0796672646
 31
0.0
  0
LINE
  5
297
330
1F
100
AcDbEntity
  8
0
  6
Continuous
 62
     7
370
    15
100
AcDbLine
 10
242.6927933747
 20
24.8315868551
 30
0.0
 11
241.2549486987
 21
25.6616369185
 31
0.0
  0
SPLINE
  5
298
330
1F
100
AcDbEntity
  8
0
  6
Continuous
 62
     7
370
    15
100
AcDbSpline
210
0.0
220
0.0
230
1.0
 70
     8
 71
     3
 72
    10
 73
     6
 74
     0
 42
0.000000001
 43
0.00000001
 40
0.0
 40
0.0
 40
0.0
 40
0.0
 40
0.5
 40
0.5
 40
1.0
 40
1.0
 40
1.0
 40
1.0
 10
241.254948623576
 20
25.66163693200731
 30
0.0
 10
241.2285391942953
 20
25.67688277101424
 30
0.0
 10
241.2062557900862
 20
25.70074019342649
 30
0.0
 10
241.1721486552647
 20
25.75866628516077
 30
0.0
 10
241.1602486252098
 20
25.79256481664163
 30
0.0
 10
241.1529361332531
 20
25.82818585909598
 30
0.0
  0
ARC
  5
299
330
1F
100
AcDbEntity
  8
0
  6
Continuous
 62
     7
370
    15
100
AcDbCircle
 10
250.7129305878
 20
27.9937612688
 30
0.0
 40
9.715379667802399
100
AcDbArc
 50
197.6948971755
 51
238.2181900172
  0
ARC
  5
29A
330
1F
100
AcDbEntity
  8
0
  6
Continuous
 62
     7
370
    15
100
AcDbCircle
 10
273.5238068294
 20
36.0479145054
 30
0.0
 40
2.072201191383418
100
AcDbArc
 50
321.06588042
 51
347.2268884793
  0
LINE
  5
29B
330
1F
100
AcDbEntity
  8
0
  6
Continuous
 62
     7
370
    15
100
AcDbLine
 10
276.7720264867
 20
31.3079395463
 30
0.0
 11
278.1409126624
 21
33.0108208807
 31
0.0
  0
LINE
  5
29C
330
1F
100
AcDbEntity
  8
0
  6
Continuous
 62
     7
370
    15
100
AcDbLine
 10
273.726202161
 20
32.9922767898
 30
0.0
 11
275.1357080205
 21
34.7456885928
 31
0.0
  0
ELLIPSE
  5
29D
330
1F
100
AcDbEntity
  8
0
  6
Continuous
 62
     7
370
    15
100
AcDbEllipse
 10
244.3765632001
 20
28.8438949345
 30
0.0
 11
0.3250094736511358
 21
1.213179526238665
 31
0.0
210
0.0
220
0.0
230
1.0
 40
0.5176380889
 41
3.619174351347666
 42
5.18997067814264
  0
SPLINE
  5
29E
330
1F
100
AcDbEntity
  8
0
  6
Continuous
 62
     7
370
    15
100
AcDbSpline
210
0.0
220
0.0
230
1.0
 70
     8
 71
     3
 72
    12
 73
     8
 74
     0
 42
0.000000001
 43
0.00000001
 40
0.0
 40
0.0
 40
0.0
 40
0.0
 40
0.5000000000000003
 40
0.5000000000000003
 40
0.7500000000000001
 40
0.7500000000000001
 40
1.0
 40
1.0
 40
1.0
 40
1.0
 10
270.9104202891284
 20
60.84821823551678
 30
0.0
 10
270.9734801663579
 20
60.88462192776704
 30
0.0
 10
271.0534131195891
 20
60.91145323961863
 30
0.0
 10
271.1863923078956
 20
60.92521008112916
 30
0.0
 10
271.2320634770077
 20
60.92508894733023
 30
0.0
 10
271.3197012956452
 20
60.91231456570858
 30
0.0
 10
271.3604452064994
 20
60.89947458005383
 30
0.0
 10
271.391958888838
 20
60.88128211847719
 30
0.0
  0
LINE
  5
29F
330
1F
100
AcDbEntity
  8
0
  6
Continuous
 62
     7
370
    15
100
AcDbLine
 10
271.3919592131
 20
60.88128249
 30
0.0
 11
272.0516275273
 21
60.5004640782
 31
0.0
  0
LINE
  5
2A0
330
1F
100
AcDbEntity
  8
0
  6
Continuous
 62
     7
370
    15
100
AcDbLine
 10
273.7214945556
 20
58.4256678616
 30
0.0
 11
275.1159941614
 21
58.731442875
 31
0.0
  0
LINE
  5
2A1
330
1F
100
AcDbEntity
  8
0
  6
Continuous
 62
     7
370
    15
100
AcDbLine
 10
275.1159941614
 20
58.731442875
 30
0.0
 11
276.5715161477
 21
57.8911879176
 31
0.0
  0
SPLINE
  5
2A2
330
1F
100
AcDbEntity
  8
0
  6
Continuous
 62
     7
370
    15
100
AcDbSpline
210
0.0
220
0.0
230
1.0
 70
     8
 71
     3
 72
    12
 73
     8
 74
     0
 42
0.000000001
 43
0.00000001
 40
0.0
 40
0.0
 40
0.0
 40
0.0
 40
0.250000000000004
 40
0.250000000000004
 40
0.500000000000008
 40
0.500000000000008
 40
1.0
 40
1.0
 40
1.0
 40
1.0
 10
276.5715160610296
 20
57.89118740892641
 30
0.0
 10
276.6031721915297
 20
57.87291271377647
 30
0.0
 10
276.6254714685398
 20
57.84908860297818
 30
0.0
 10
276.6472920391317
 20
57.79905670053049
 30
0.0
 10
276.6475728014579
 20
57.77266549211659
 30
0.0
 10
276.6242054273371
 20
57.69659026212167
 30
0.0
 10
276.5771670245322
 20
57.64952720717127
 30
0.0
 10
276.5142415300318
 20
57.61320109241929
 30
0.0
  0
LINE
  5
2A3
330
1F
100
AcDbEntity
  8
0
  6
Continuous
 62
     7
370
    15
100
AcDbLine
 10
270.9104205206
 20
60.8482186126
 30
0.0
 11
270.8186299529
 21
60.7952290458
 31
0.0
  0
SPLINE
  5
2A4
330
1F
100
AcDbEntity
  8
0
  6
Continuous
 62
     7
370
    15
100
AcDbSpline
210
0.0
220
0.0
230
1.0
 70
     8
 71
     3
 72
    10
 73
     6
 74
     0
 42
0.000000001
 43
0.00000001
 40
0.0
 40
0.0
 40
0.0
 40
0.0
 40
0.4037519766647956
 40
0.8085661658932497
 40
1.0
 40
1.0
 40
1.0
 40
1.0
 10
279.5356756860387
 20
52.53726193970781
 30
0.0
 10
279.5539171178233
 20
52.57602604146405
 30
0.0
 10
279.5904479719389
 20
52.65365622767452
 30
0.0
 10
279.6043849769782
 20
52.76106947468946
 30
0.0
 10
279.586323450411
 20
52.8143556963566
 30
0.0
 10
279.5805245426658
 20
52.83146398907972
 30
0.0
  0
ARC
  5
2A5
330
1F
100
AcDbEntity
  8
0
  6
Continuous
 62
     7
370
    15
100
AcDbCircle
 10
269.4706618253
 20
50.4065109615
 30
0.0
 40
10.31709848961139
100
AcDbArc
 50
20.1336299225
 51
46.5074077431
  0
LWPOLYLINE
  5
2A6
330
1F
100
AcDbEntity
  8
0
  6
Continuous
 62
     7
370
    15
100
AcDbPolyline
 90
        3
 70
   128
 43
0.0
 10
273.7214942264
 20
59.106657648
 10
273.7599492744
 20
59.0591935506
 10
274.1455837186
 20
58.5452296993
  0
LINE
  5
2A7
330
1F
100
AcDbEntity
  8
0
  6
Continuous
 62
     7
370
    15
100
AcDbLine
 10
279.4313938461
 20
41.8640910156
 30
0.0
 11
277.5669904652
 21
42.9403881778
 31
0.0
  0
LINE
  5
2A8
330
1F
100
AcDbEntity
  8
0
  6
Continuous
 62
     7
370
    15
100
AcDbLine
 10
276.7589039996
 20
42.7868481099
 30
0.0
 11
276.8079234186
 21
42.8151464181
 31
0.0
  0
SPLINE
  5
2A9
330
1F
100
AcDbEntity
  8
0
  6
Continuous
 62
     7
370
    15
100
AcDbSpline
210
0.0
220
0.0
230
1.0
 70
     8
 71
     3
 72
    10
 73
     6
 74
     0
 42
0.000000001
 43
0.00000001
 40
0.0
 40
0.0
 40
0.0
 40
0.0
 40
0.348286225286859
 40
0.7262043038763673
 40
0.9999999999999999
 40
0.9999999999999999
 40
0.9999999999999999
 40
0.9999999999999999
 10
276.4261786674921
 20
42.7156755988316
 30
0.0
 10
276.4688263271682
 20
42.71576322220629
 30
0.0
 10
276.5577500679263
 20
42.71594592386718
 30
0.0
 10
276.6737070226545
 20
42.74416909786714
 30
0.0
 10
276.7336999726957
 20
42.7742222749416
 30
0.0
 10
276.7589039996111
 20
42.78684810986652
 30
0.0
  0
SPLINE
  5
2AA
330
1F
100
AcDbEntity
  8
0
  6
Continuous
 62
     7
370
    15
100
AcDbSpline
210
0.0
220
0.0
230
1.0
 70
     8
 71
     3
 72
     8
 73
     4
 74
     0
 42
0.000000001
 43
0.00000001
 40
0.0
 40
0.0
 40
0.0
 40
0.0
 40
1.0
 40
1.0
 40
1.0
 40
1.0
 10
276.8079235863655
 20
42.81514629874456
 30
0.0
 10
277.0609095400463
 20
42.85696470344239
 30
0.0
 10
277.3139328023937
 20
42.89870990801776
 30
0.0
 10
277.5669902913984
 20
42.94038795941487
 30
0.0
  0
ARC
  5
2AB
330
1F
100
AcDbEntity
  8
0
  6
Continuous
 62
     7
370
    15
100
AcDbCircle
 10
256.2927745166
 20
52.1052376841
 30
0.0
 40
1.562487995952175
100
AcDbArc
 50
79.6969630873
 51
142.7113318612
  0
ARC
  5
2AC
330
1F
100
AcDbEntity
  8
0
  6
Continuous
 62
     7
370
    15
100
AcDbCircle
 10
256.2605360843
 20
52.1893151839
 30
0.0
 40
1.467909010259344
100
AcDbArc
 50
78.3821019919
 51
144.2937504163
  0
ARC
  5
2AD
330
1F
100
AcDbEntity
  8
0
  6
Continuous
 62
     7
370
    15
100
AcDbCircle
 10
256.2302206155
 20
52.2679086065
 30
0.0
 40
1.249547245185676
100
AcDbArc
 50
80.705870252
 51
142.2259793291
  0
LWPOLYLINE
  5
2AE
330
1F
100
AcDbEntity
  8
0
  6
Continuous
 62
     7
370
     0
100
AcDbPolyline
 90
       22
 70
   128
 43
0.0
 10
246.4345056333
 20
33.9416381355
 10
246.8832418123
 20
35.7250583167
 10
247.4372608189
 20
37.5223596142
 10
248.0929340728
 20
39.321768502
 10
248.8459652297
 20
41.1114982082
 10
249.6914231083
 20
42.8798251392
 10
250.6237680322
 20
44.615166444
 10
251.6368939767
 20
46.3061537754
 10
252.7241641303
 20
47.9417100932
 10
253.878456334
 20
49.5111230447
 10
255.09220918
 20
51.0041126415
 10
256.3574720603
 20
52.4108981759
 10
257.6659571922
 20
53.7222632349
 10
259.0090929606
 20
54.9296199549
 10
260.3780817046
 20
56.0250575909
 10
261.7639556121
 20
57.0014021593
 10
263.1576366265
 20
57.8522586271
 10
264.549995407
 20
58.5720510318
 10
265.9319113797
 20
59.1560662744
 10
267.2943326239
 20
59.6004795648
 10
268.6283340507
 20
59.9023773617
 10
268.7339277113
 20
59.9203676102
  0
LINE
  5
2AF
330
1F
100
AcDbEntity
  8
0
  6
Continuous
 62
     7
370
     0
100
AcDbLine
 10
246.7932312904
 20
33.6071273058
 30
0.0
 11
246.9219332778
 21
34.1822806906
 31
0.0
  0
LWPOLYLINE
  5
2B0
330
1F
100
AcDbEntity
  8
0
  6
Continuous
 62
     7
370
     0
100
AcDbPolyline
 90
       11
 70
   128
 43
0.0
 10
261.6449377687
 20
56.4116082231
 10
262.0170301506
 20
56.6602805583
 10
263.4090207841
 20
57.5068866367
 10
264.7993965842
 20
58.2209760767
 10
266.1788451553
 20
58.7977630658
 10
267.5381271179
 20
59.2333891219
 10
268.8681384234
 20
59.5249316897
 10
270.1599709404
 20
59.6704421586
 10
271.4049717233
 20
59.6689420543
 10
272.59480294
 20
59.5204454673
 10
273.7214948849
 20
59.2259440286
  0
ARC
  5
2B1
330
1F
100
AcDbEntity
  8
0
  6
Continuous
 62
     7
370
     0
100
AcDbCircle
 10
245.1398734658
 20
49.2833429253
 30
0.0
 40
35.19962668871708
100
AcDbArc
 50
341.3596406653
 51
347.7318475844
  0
LWPOLYLINE
  5
2B2
330
1F
100
AcDbEntity
  8
0
  6
Continuous
 62
     7
370
     0
100
AcDbPolyline
 90
       22
 70
   128
 43
0.0
 10
270.5624733437
 20
24.2949452275
 10
269.4029094912
 20
23.039758699
 10
268.0601461297
 20
21.7275635792
 10
266.6832589675
 20
20.5269281454
 10
265.2818522177
 20
19.4462272347
 10
263.865700574
 20
18.4929972103
 10
262.4446818747
 20
17.6738910056
 10
261.0287078734
 20
16.9946183865
 10
259.6276552559
 20
16.4599167755
 10
258.2512959171
 20
16.0735186058
 10
256.9092309421
 20
15.8381177715
 10
255.610820224
 20
15.7553563747
 10
254.3651207254
 20
15.8258103765
 10
253.1808219412
 20
16.0489903643
 10
252.0661839949
 20
16.4233392755
 10
251.0289803461
 20
16.9462434303
 10
250.0764470818
 20
17.614058772
 10
249.215228916
 20
18.4221268419
 10
248.4513304577
 20
19.3648090047
 10
247.7900806488
 20
20.4355313191
 10
247.2360932524
 20
21.6268263671
 10
246.7932312904
 20
22.9303834478
  0
ARC
  5
2B3
330
1F
100
AcDbEntity
  8
0
  6
Continuous
 62
     7
370
     0
100
AcDbCircle
 10
269.3555362833
 20
49.9147906452
 30
0.0
 40
10.51249703684717
100
AcDbArc
 50
14.4456939373
 51
47.0804331381
  0
LWPOLYLINE
  5
2B4
330
1F
100
AcDbEntity
  8
0
  6
Continuous
 62
     7
370
     0
100
AcDbPolyline
 90
       25
 70
   128
 43
0.0
 10
256.0968583396
 20
33.6396249501
 10
256.1549116722
 20
34.717307683
 10
256.3281180974
 20
35.8443214849
 10
256.6136346786
 20
37.0021618038
 10
257.006772579
 20
38.1718162716
 10
257.5010760867
 20
39.3340792434
 10
258.0884289699
 20
40.4698661435
 10
258.7591871736
 20
41.5605280947
 10
259.5023368702
 20
42.5881558987
 10
260.3056755591
 20
43.5358758387
 10
261.1560121001
 20
44.3881267548
 10
262.0393842793
 20
45.1309145407
 10
262.941287119
 20
45.7520428037
 10
263.8469113113
 20
46.2413121083
 10
264.741386551
 20
46.5906893452
 10
265.6100256902
 20
46.7944372734
 10
266.4385655603
 20
46.8492109568
 10
267.2134017844
 20
46.7541104284
 10
267.9218112826
 20
46.5106969716
 10
268.5521618538
 20
46.1229681006
 10
269.0941041419
 20
45.5972904312
 10
269.5387382472
 20
44.9422947215
 10
269.8787632159
 20
44.168736503
 10
270.1085972248
 20
43.2893178359
 10
270.1678444986
 20
42.9180522969
  0
LWPOLYLINE
  5
2B5
330
1F
100
AcDbEntity
  8
0
  6
Continuous
 62
     7
370
     0
100
AcDbPolyline
 90
       13
 70
   128
 43
0.0
 10
262.1684948112
 20
29.0612707175
 10
262.0393842793
 20
29.0094297671
 10
261.1560121001
 20
28.7322977444
 10
260.3056755591
 20
28.602770988
 10
259.5023368702
 20
28.6229758205
 10
258.7591871736
 20
28.7925812484
 10
258.0884289699
 20
29.1088022621
 10
257.5010760867
 20
29.5664459579
 10
257.006772579
 20
30.1579982476
 10
256.6136346786
 20
30.8737453573
 10
256.3281180974
 20
31.7019352483
 10
256.1549116722
 20
32.6289691684
 10
256.0968583396
 20
33.6396249501
  0
LWPOLYLINE
  5
2B6
330
1F
100
AcDbEntity
  8
0
  6
Continuous
 62
     7
370
     0
100
AcDbPolyline
 90
       22
 70
   128
 43
0.0
 10
241.2549486987
 20
36.9317327079
 10
241.7036848777
 20
38.715152889
 10
242.2577038843
 20
40.5124541866
 10
242.9133771382
 20
42.3118630743
 10
243.6664082951
 20
44.1015927805
 10
244.5118661737
 20
45.8699197115
 10
245.4442110976
 20
47.6052610164
 10
246.4573370421
 20
49.2962483478
 10
247.5446071957
 20
50.9318046656
 10
248.6988993995
 20
52.501217617
 10
249.9126522454
 20
53.9942072139
 10
251.1779151257
 20
55.4009927482
 10
252.4864002577
 20
56.7123578072
 10
253.829536026
 20
57.9197145273
 10
255.19852477
 20
59.0151521632
 10
256.5843986775
 20
59.9914967317
 10
257.9780796919
 20
60.8423531994
 10
259.3704384724
 20
61.5621456042
 10
260.7523544451
 20
62.1461608468
 10
262.1147756893
 20
62.5905741372
 10
263.4487771161
 20
62.8924719341
 10
263.5546440726
 20
62.9105074044
  0
LWPOLYLINE
  5
2B7
330
1F
100
AcDbEntity
  8
0
  6
Continuous
 62
     7
370
     0
100
AcDbPolyline
 90
       20
 70
   128
 43
0.0
 10
244.5329165489
 20
35.9085067757
 10
244.9857949729
 20
37.6977832731
 10
245.5518706123
 20
39.5012142912
 10
246.226864245
 20
41.3051712155
 10
247.0056747852
 20
43.0960217065
 10
247.8824174792
 20
44.8602315977
 10
248.8504673692
 20
46.5844698358
 10
249.9025080258
 20
48.2557058154
 10
251.0305888411
 20
49.8613108949
 10
252.2261856149
 20
51.3891488865
 10
253.4802631168
 20
52.8276768112
 10
254.7833435739
 20
54.1660209391
 10
256.1255800998
 20
55.3940693685
 10
257.4968292978
 20
56.5025397954
 10
258.8867284763
 20
57.48305907
 10
260.2847741796
 20
58.3282130943
 10
261.6804012136
 20
59.0316167775
 10
263.063062988
 20
59.5879558537
 10
264.4223107062
 20
59.9930234722
 10
264.5487930693
 20
60.0232702323
  0
LINE
  5
2B8
330
1F
100
AcDbEntity
  8
0
  6
Continuous
 62
     7
370
     0
100
AcDbLine
 10
255.7534428545
 20
53.8911535236
 30
0.0
 11
256.112344343
 21
54.2284155575
 31
0.0
  0
LWPOLYLINE
  5
2B9
330
1F
100
AcDbEntity
  8
0
  6
Continuous
 62
     7
370
     0
100
AcDbPolyline
 90
       22
 70
   128
 43
0.0
 10
243.955448748
 20
35.9017051604
 10
244.406921838
 20
37.7121720882
 10
244.972694547
 20
39.5377683466
 10
245.648536385
 20
41.3648341377
 10
246.4293870961
 20
43.1796975739
 10
247.3094067076
 20
44.9687780965
 10
248.2820071401
 20
46.7186868535
 10
249.3399121355
 20
48.4163320183
 10
250.4752046717
 20
50.0490085198
 10
251.6793908416
 20
51.6045003186
 10
252.9434584636
 20
53.0711667143
 10
254.2579491922
 20
54.4380326434
 10
255.6130266774
 20
55.6948706127
 10
256.9985509801
 20
56.8322771192
 10
258.4041546341
 20
57.8417378527
 10
259.8193194283
 20
58.7157024391
 10
261.2334557817
 20
59.4476287426
 10
262.6359820573
 20
60.0320408189
 10
264.0164029693
 20
60.4645650546
 10
265.3643889179
 20
60.7419653185
 10
266.6698539648
 20
60.8621666834
 10
267.7949120608
 20
60.8356171593
  0
ARC
  5
2BA
330
1F
100
AcDbEntity
  8
0
  6
Continuous
 62
     7
370
     0
100
AcDbCircle
 10
262.8915037395
 20
33.2278351521
 30
0.0
 40
3.987538022054128
100
AcDbArc
 50
174.0725494964
 51
234.615277059
  0
LWPOLYLINE
  5
2BB
330
1F
100
AcDbEntity
  8
0
  6
Continuous
 62
     7
370
     0
100
AcDbPolyline
 90
       18
 70
   128
 43
0.0
 10
268.5818147959
 20
43.8336480571
 10
268.2865915979
 20
43.9805947179
 10
267.6404662515
 20
44.1661343363
 10
266.9320819427
 20
44.2038632061
 10
266.1758598084
 20
44.0930136179
 10
265.3871940673
 20
43.8358416085
 10
264.5821397876
 20
43.4375839777
 10
263.7770855079
 20
42.9063457221
 10
262.9884197668
 20
42.2529436488
 10
262.2321976325
 20
41.4906777456
 10
261.5238133237
 20
40.6350657619
 10
260.8776879773
 20
39.7035256977
 10
260.3069745382
 20
38.7150210274
 10
259.8232910485
 20
37.6896747905
 10
259.4364840657
 20
36.6483598188
 10
259.1544278066
 20
35.6122747975
 10
258.9828644499
 20
34.6025112913
 10
258.9252852694
 20
33.63962457
  0
LWPOLYLINE
  5
2BC
330
1F
100
AcDbEntity
  8
0
  6
Continuous
 62
     7
370
     0
100
AcDbPolyline
 90
       13
 70
   128
 43
0.0
 10
271.0666402018
 20
27.8229251018
 10
271.4028938507
 20
27.4110244717
 10
271.82857735
 20
27.1310364651
 10
272.329630445
 20
26.9922094398
 10
272.8895030067
 20
26.9991283062
 10
273.4897023235
 20
27.1515652585
 10
274.1104036124
 20
27.4444844943
 10
274.7311049014
 20
27.8682117125
 10
275.3313042182
 20
28.4087501409
 10
275.8911767799
 20
29.048246375
 10
276.3922298749
 20
29.76557699
 10
276.8179133742
 20
30.5370487033
 10
277.1541670231
 20
31.3371795327
  0
LWPOLYLINE
  5
2BD
330
1F
100
AcDbEntity
  8
0
  6
Continuous
 62
     7
370
     0
100
AcDbPolyline
 90
       13
 70
   128
 43
0.0
 10
277.1540609974
 20
34.9866643418
 10
276.8177959886
 20
35.3984971967
 10
276.3921157821
 20
35.6784300695
 10
275.8910793153
 20
35.8172178343
 10
275.3312337539
 20
35.810276912
 10
274.731068805
 20
35.6578369859
 10
274.110405547
 20
35.36493172
 10
273.4897422477
 20
34.9412351781
 10
272.889577093
 20
34.4007404256
 10
272.3297312023
 20
33.7612976115
 10
271.8286942416
 20
33.0440259309
 10
271.4030137058
 20
32.2726135334
 10
271.0667478738
 20
31.4725372683
  0
LWPOLYLINE
  5
2BE
330
1F
100
AcDbEntity
  8
0
  6
Continuous
 62
     7
370
     0
100
AcDbPolyline
 90
        3
 70
   128
 43
0.0
 10
245.0045726287
 20
33.8292018096
 10
245.0041208671
 20
33.9508807268
 10
245.0163856
 20
34.5933241399
  0
LWPOLYLINE
  5
2BF
330
1F
100
AcDbEntity
  8
0
  6
Continuous
 62
     7
370
     0
100
AcDbPolyline
 90
       19
 70
   128
 43
0.0
 10
213.9191668967
 20
57.8421872262
 10
213.975922238
 20
58.9166626385
 10
214.1452933
 20
60.0397212525
 10
214.4246083676
 20
61.1936514729
 10
214.8094630952
 20
62.3602555508
 10
215.2937876779
 20
63.5211350362
 10
215.869944646
 20
64.6579826919
 10
216.5288470729
 20
65.7528689862
 10
217.2601037849
 20
66.7885278239
 10
218.0521826799
 20
67.7486261146
 10
218.8925919916
 20
68.6180216475
 10
219.7680778534
 20
69.3830037599
 10
220.6648336327
 20
70.0315092414
 10
221.5687167569
 20
70.5533098621
 10
222.4654725361
 20
70.9401765649
 10
223.3409583979
 20
71.1860089127
 10
224.1813677097
 20
71.2869293174
 10
224.9734466046
 20
71.2413458529
 10
225.6537938749
 20
71.0687715773
  0
ARC
  5
2C0
330
1F
100
AcDbEntity
  8
0
  6
Continuous
 62
     7
370
     0
100
AcDbCircle
 10
219.3399146659
 20
57.4117591782
 30
0.0
 40
5.437809732037624
100
AcDbArc
 50
175.4600220549
 51
225.5211364412
  0
LINE
  5
2C1
330
1F
100
AcDbEntity
  8
0
  6
Continuous
 62
     7
370
     0
100
AcDbLine
 10
250.6874907744
 20
34.9465975088
 30
0.0
 11
249.9802692906
 21
35.3548677811
 31
0.0
  0
LINE
  5
2C2
330
1F
100
AcDbEntity
  8
0
  6
Continuous
 62
     7
370
     0
100
AcDbLine
 10
269.7970523305
 20
28.1940128397
 30
0.0
 11
269.8677628885
 21
27.9301228436
 31
0.0
  0
LWPOLYLINE
  5
2C3
330
1F
100
AcDbEntity
  8
0
  6
Continuous
 62
     7
370
     0
100
AcDbPolyline
 90
        3
 70
   128
 43
0.0
 10
276.6253403074
 20
34.9659454648
 10
276.2749401346
 20
35.3365658843
 10
276.1127332137
 20
35.4447990616
  0
LWPOLYLINE
  5
2C4
330
1F
100
AcDbEntity
  8
0
  6
Continuous
 62
     7
370
     0
100
AcDbPolyline
 90
       11
 70
   128
 43
0.0
 10
271.7010148092
 20
27.6034259675
 10
271.8891771095
 20
27.5260281706
 10
272.399377717
 20
27.4399939023
 10
272.9629042129
 20
27.5036245163
 10
273.5592235912
 20
27.7146012441
 10
274.1666084106
 20
28.0652370368
 10
274.7629277889
 20
28.5427560081
 10
275.3264542848
 20
29.1297592372
 10
275.8366548923
 20
29.8048585884
 10
276.2749401346
 20
30.5434561145
 10
276.6253403074
 20
31.3186399622
  0
LINE
  5
2C5
330
1F
100
AcDbEntity
  8
0
  6
Continuous
 62
     7
370
     0
100
AcDbLine
 10
245.1443296027
 20
29.287128371
 30
0.0
 11
250.6874907744
 21
26.0871295404
 31
0.0
  0
LINE
  5
2C6
330
1F
100
AcDbEntity
  8
0
  6
Continuous
 62
     7
370
     0
100
AcDbLine
 10
245.0836694217
 20
29.25209861
 30
0.0
 11
245.1443296027
 21
29.287128371
 31
0.0
  0
LINE
  5
2C7
330
1F
100
AcDbEntity
  8
0
  6
Continuous
 62
     7
370
     0
100
AcDbLine
 10
269.5065551771
 20
28.3617132767
 30
0.0
 11
269.7970523305
 21
28.1940128397
 31
0.0
  0
LINE
  5
2C8
330
1F
100
AcDbEntity
  8
0
  6
Continuous
 62
     7
370
     0
100
AcDbLine
 10
246.6400479109
 20
22.0413658648
 30
0.0
 11
246.4345056333
 21
22.6715423461
 31
0.0
  0
LINE
  5
2C9
330
1F
100
AcDbEntity
  8
0
  6
Continuous
 62
     7
370
     0
100
AcDbLine
 10
249.9803838773
 20
24.8623848521
 30
0.0
 11
244.7301158908
 21
27.8933000459
 31
0.0
  0
LINE
  5
2CA
330
1F
100
AcDbEntity
  8
0
  6
Continuous
 62
     7
370
     0
100
AcDbLine
 10
278.3530443364
 20
32.8285715571
 30
0.0
 11
278.1409126624
 21
33.0108208807
 31
0.0
  0
LINE
  5
2CB
330
1F
100
AcDbEntity
  8
0
  6
Continuous
 62
     7
370
     0
100
AcDbLine
 10
245.3944926336
 20
24.7151927453
 30
0.0
 11
245.3178051257
 21
24.9628511456
 31
0.0
  0
LWPOLYLINE
  5
2CC
330
1F
100
AcDbEntity
  8
0
  6
Continuous
 62
     7
370
     0
100
AcDbPolyline
 90
        3
 70
   128
 43
0.0
 10
245.0009072522
 20
24.1138948288
 10
244.9780267819
 20
24.1680282452
 10
244.5329165489
 20
25.4159576763
  0
ARC
  5
2CD
330
1F
100
AcDbEntity
  8
0
  6
Continuous
 62
     7
370
     0
100
AcDbCircle
 10
254.740376971
 20
28.4384602474
 30
0.0
 40
11.20229265050792
100
AcDbArc
 50
195.6891556714
 51
214.1128344446
  0
LINE
  5
2CE
330
1F
100
AcDbEntity
  8
0
  6
Continuous
 62
     7
370
     0
100
AcDbLine
 10
241.4571995709
 20
25.0407889641
 30
0.0
 11
241.2549486987
 21
25.6616369185
 31
0.0
  0
LINE
  5
2CF
330
1F
100
AcDbEntity
  8
0
  6
Continuous
 62
     7
370
     0
100
AcDbLine
 10
275.1357080205
 20
34.7456885928
 30
0.0
 11
278.1409126624
 21
33.0108208807
 31
0.0
  0
LINE
  5
2D0
330
1F
100
AcDbEntity
  8
0
  6
Continuous
 62
     7
370
     0
100
AcDbLine
 10
276.4261786675
 20
40.9456254665
 30
0.0
 11
277.1332855646
 21
40.5374213436
 31
0.0
  0
OLE2FRAME
  5
2D1
330
1F
100
AcDbEntity
  8
0
100
AcDbOle2Frame
 70
     2
  3
Paintbrush-Bild
 10
13.8511154363
 20
38.264191557
 30
0.0
 11
51.6290888628
 21
31.9806341108
 31
0.0
 71
     2
 72
     0
 73
     1
 90
    12928
310
80552BED0767C5B32B40DDAF6807D121434000000000000000006FFBDDFB85D0
310
4940DDAF6807D121434000000000000000006FFBDDFB85D04940416F4BD60AFB
310
3F4000000000000000002BED0767C5B32B40416F4BD60AFB3F40000000000000
310
0000000000000100000000010000010000000100000000000100000000320000
310
D0CF11E0A1B11AE1000000000000000000000000000000003E000300FEFF0900
310
0600000000000000000000000100000001000000000000000010000002000000
310
01000000FEFFFFFF0000000000000000FFFFFFFFFFFFFFFFFFFFFFFFFFFFFFFF
310
FFFFFFFFFFFFFFFFFFFFFFFFFFFFFFFFFFFFFFFFFFFFFFFFFFFFFFFFFFFFFFFF
310
FFFFFFFFFFFFFFFFFFFFFFFFFFFFFFFFFFFFFFFFFFFFFFFFFFFFFFFFFFFFFFFF
310
FFFFFFFFFFFFFFFFFFFFFFFFFFFFFFFFFFFFFFFFFFFFFFFFFFFFFFFFFFFFFFFF
310
FFFFFFFFFFFFFFFFFFFFFFFFFFFFFFFFFFFFFFFFFFFFFFFFFFFFFFFFFFFFFFFF
310
FFFFFFFFFFFFFFFFFFFFFFFFFFFFFFFFFFFFFFFFFFFFFFFFFFFFFFFFFFFFFFFF
310
FFFFFFFFFFFFFFFFFFFFFFFFFFFFFFFFFFFFFFFFFFFFFFFFFFFFFFFFFFFFFFFF
310
FFFFFFFFFFFFFFFFFFFFFFFFFFFFFFFFFFFFFFFFFFFFFFFFFFFFFFFFFFFFFFFF
310
FFFFFFFFFFFFFFFFFFFFFFFFFFFFFFFFFFFFFFFFFFFFFFFFFFFFFFFFFFFFFFFF
310
FFFFFFFFFFFFFFFFFFFFFFFFFFFFFFFFFFFFFFFFFFFFFFFFFFFFFFFFFFFFFFFF
310
FFFFFFFFFFFFFFFFFFFFFFFFFFFFFFFFFFFFFFFFFFFFFFFFFFFFFFFFFFFFFFFF
310
FFFFFFFFFFFFFFFFFFFFFFFFFFFFFFFFFFFFFFFFFFFFFFFFFFFFFFFFFFFFFFFF
310
FFFFFFFFFFFFFFFFFFFFFFFFFFFFFFFFFFFFFFFFFFFFFFFFFFFFFFFFFFFFFFFF
310
FFFFFFFFFFFFFFFFFFFFFFFFFFFFFFFFFFFFFFFFFFFFFFFFFFFFFFFFFFFFFFFF
310
FDFFFFFFFEFFFFFFFEFFFFFFFEFFFFFF05000000060000000700000008000000
310
090000000A0000000B0000000C0000000D0000000E0000000F00000010000000
310
11000000120000001300000014000000150000001600000017000000FEFFFFFF
310
FFFFFFFFFFFFFFFFFFFFFFFFFFFFFFFFFFFFFFFFFFFFFFFFFFFFFFFFFFFFFFFF
310
FFFFFFFFFFFFFFFFFFFFFFFFFFFFFFFFFFFFFFFFFFFFFFFFFFFFFFFFFFFFFFFF
310
FFFFFFFFFFFFFFFFFFFFFFFFFFFFFFFFFFFFFFFFFFFFFFFFFFFFFFFFFFFFFFFF
310
FFFFFFFFFFFFFFFFFFFFFFFFFFFFFFFFFFFFFFFFFFFFFFFFFFFFFFFFFFFFFFFF
310
FFFFFFFFFFFFFFFFFFFFFFFFFFFFFFFFFFFFFFFFFFFFFFFFFFFFFFFFFFFFFFFF
310
FFFFFFFFFFFFFFFFFFFFFFFFFFFFFFFFFFFFFFFFFFFFFFFFFFFFFFFFFFFFFFFF
310
FFFFFFFFFFFFFFFFFFFFFFFFFFFFFFFFFFFFFFFFFFFFFFFFFFFFFFFFFFFFFFFF
310
FFFFFFFFFFFFFFFFFFFFFFFFFFFFFFFFFFFFFFFFFFFFFFFFFFFFFFFFFFFFFFFF
310
FFFFFFFFFFFFFFFFFFFFFFFFFFFFFFFFFFFFFFFFFFFFFFFFFFFFFFFFFFFFFFFF
310
FFFFFFFFFFFFFFFFFFFFFFFFFFFFFFFFFFFFFFFFFFFFFFFFFFFFFFFFFFFFFFFF
310
FFFFFFFFFFFFFFFFFFFFFFFFFFFFFFFFFFFFFFFFFFFFFFFFFFFFFFFFFFFFFFFF
310
FFFFFFFFFFFFFFFFFFFFFFFFFFFFFFFFFFFFFFFFFFFFFFFFFFFFFFFFFFFFFFFF
310
FFFFFFFFFFFFFFFFFFFFFFFFFFFFFFFFFFFFFFFFFFFFFFFFFFFFFFFFFFFFFFFF
310
52006F006F007400200045006E00740072007900000000000000000000000000
310
0000000000000000000000000000000000000000000000000000000000000000
310
16000500FFFFFFFFFFFFFFFF020000000A00030000000000C000000000000046
310
000000000000000000000000202D5644AC1FD20103000000C000000000000000
310
01004F006C006500000000000000000000000000000000000000000000000000
310
0000000000000000000000000000000000000000000000000000000000000000
310
0A000200FFFFFFFFFFFFFFFFFFFFFFFF00000000000000000000000000000000
310
0000000000000000000000000000000000000000000000001400000000000000
310
010043006F006D0070004F0062006A0000000000000000000000000000000000
310
0000000000000000000000000000000000000000000000000000000000000000
310
120002010100000003000000FFFFFFFF00000000000000000000000000000000
310
0000000000000000000000000000000000000000010000004D00000000000000
310
01004F006C006500310030004E00610074006900760065000000000000000000
310
0000000000000000000000000000000000000000000000000000000000000000
310
1A000200FFFFFFFFFFFFFFFFFFFFFFFF00000000000000000000000000000000
310
0000000000000000000000000000000000000000040000002426000000000000
310
FEFFFFFF02000000FEFFFFFFFFFFFFFFFFFFFFFFFFFFFFFFFFFFFFFFFFFFFFFF
310
FFFFFFFFFFFFFFFFFFFFFFFFFFFFFFFFFFFFFFFFFFFFFFFFFFFFFFFFFFFFFFFF
310
FFFFFFFFFFFFFFFFFFFFFFFFFFFFFFFFFFFFFFFFFFFFFFFFFFFFFFFFFFFFFFFF
310
FFFFFFFFFFFFFFFFFFFFFFFFFFFFFFFFFFFFFFFFFFFFFFFFFFFFFFFFFFFFFFFF
310
FFFFFFFFFFFFFFFFFFFFFFFFFFFFFFFFFFFFFFFFFFFFFFFFFFFFFFFFFFFFFFFF
310
FFFFFFFFFFFFFFFFFFFFFFFFFFFFFFFFFFFFFFFFFFFFFFFFFFFFFFFFFFFFFFFF
310
FFFFFFFFFFFFFFFFFFFFFFFFFFFFFFFFFFFFFFFFFFFFFFFFFFFFFFFFFFFFFFFF
310
FFFFFFFFFFFFFFFFFFFFFFFFFFFFFFFFFFFFFFFFFFFFFFFFFFFFFFFFFFFFFFFF
310
FFFFFFFFFFFFFFFFFFFFFFFFFFFFFFFFFFFFFFFFFFFFFFFFFFFFFFFFFFFFFFFF
310
FFFFFFFFFFFFFFFFFFFFFFFFFFFFFFFFFFFFFFFFFFFFFFFFFFFFFFFFFFFFFFFF
310
FFFFFFFFFFFFFFFFFFFFFFFFFFFFFFFFFFFFFFFFFFFFFFFFFFFFFFFFFFFFFFFF
310
FFFFFFFFFFFFFFFFFFFFFFFFFFFFFFFFFFFFFFFFFFFFFFFFFFFFFFFFFFFFFFFF
310
FFFFFFFFFFFFFFFFFFFFFFFFFFFFFFFFFFFFFFFFFFFFFFFFFFFFFFFFFFFFFFFF
310
FFFFFFFFFFFFFFFFFFFFFFFFFFFFFFFFFFFFFFFFFFFFFFFFFFFFFFFFFFFFFFFF
310
FFFFFFFFFFFFFFFFFFFFFFFFFFFFFFFFFFFFFFFFFFFFFFFFFFFFFFFFFFFFFFFF
310
FFFFFFFFFFFFFFFFFFFFFFFFFFFFFFFFFFFFFFFFFFFFFFFFFFFFFFFFFFFFFFFF
310
0100000200000000000000000000000000000000000000000000000000000000
310
0000000000000000000000000000000000000000000000000000000000000000
310
0100FEFF030A0000FFFFFFFF0A00030000000000C00000000000004607000000
310
5042727573680007000000504272757368000700000050427275736800F439B2
310
7100000000000000000000000000000000000000000000000000000000000000
310
0000000000000000000000000000000000000000000000000000000000000000
310
0000000000000000000000000000000000000000000000000000000000000000
310
0000000000000000000000000000000000000000000000000000000000000000
310
0000000000000000000000000000000000000000000000000000000000000000
310
0000000000000000000000000000000000000000000000000000000000000000
310
0000000000000000000000000000000000000000000000000000000000000000
310
0000000000000000000000000000000000000000000000000000000000000000
310
0000000000000000000000000000000000000000000000000000000000000000
310
0000000000000000000000000000000000000000000000000000000000000000
310
0000000000000000000000000000000000000000000000000000000000000000
310
0000000000000000000000000000000000000000000000000000000000000000
310
20260000424D0E260000000000003E00000028000000B40200006E0000000100
310
01000000000000000000130B0000130B00000200000002000000000000FFFFFF
310
FFFFFFFFFFFFFFFFFFFFFFFFFFFFFFFFFFFFFFFFFFFFFFFFFFFFFFFFFFFFFFFF
310
FFFFFFFFFFFFFFFFFFFFFFFFFFFFFFFFFFFFFFFFFFFFFFFFFFFFFFFFFFFFFFFF
310
FFFFFFFFFFFFFFFFFFFFFFFFFFFFFFFFFFFFFFFFFFFFFFFFF000FFFFFFFFFFFF
310
FFFFFFFFFFFFFFFFFFFFFFFFFFFFFFFFFFFFFFFFFFFFFFFFFFFFFFFFFFFFFFFF
310
FFFFFFFFFFFFFFFFFFFFFFFFFFFFFFFFFFFFFFFFFFFFFFFFFFFFFFFFFFFFFFFF
310
FFFFFFFFFFFFFFFFFFFFFFFFFFFFFFFFF000FFFFFFFFFFFFFFFFFFFFFFFFFFFF
310
FFFFFFFFFFFFFFFFFFFFFFFFFFFFFFFFFFFFFFFFFFFFFFFFFFFFFFFFFFFFFFFF
310
FFFFFFFFFFFFFFFFFFFFFFFFFFFFFFFFFFFFFFFFFFFFFFFFFFFFFFFFFFFFFFFF
310
FFFFFFFFFFFFFFFFF000FFFFFFFFFFFFFFFFFFFFFFFFFFFFFFFFFFFFFFFFFFFF
310
FFFFFFFFFFFFFFFFFFFFFFFFFFFFFFFFFFFFFFFFFFFFFFFFFFFFFFFFFFFFFFFF
310
FFFFFFFFFFFFFFFFFFFFFFFFFFFFFFFFFFFFFFFFFFFFFFFFFFFFFFFFFFFFFFFF
310
F000FFFFFFFFFFFFFFFFFFFFFFFFFFFFFFFFFFFFFFFFFFFFFFFFFFFFFFFFFFFF
310
FFFFFFFFFFFFFFFFFFFFFFFFFFFFFFFFFFFFFFFFFFFFFFFFFFFFFFFFFFFFFFFF
310
FFFFFFFFFFFFFFFFFFFFFFFFFFFFFFFFFFFFFFFFFFFFFFFFF000FFFFFFFFFFFF
310
FFFFFFFFFFFFFFFFFFFFFFFFFFFFFFFFFFFFFFFFFFFFFFFFFFFFFFFFFFFFFFFF
310
FFFFFFFFFFFFFFFFFFFFFFFFFFFFFFFFFFFFFFFFFFFFFFFFFFFFFFFFFFFFFFFF
310
FFFFFFFFFFFFFFFFFFFFFFFFFFFFFFFFF000FFFFFFFFFFFFFFFFFFFFFFFFFFFF
310
FFFFFFFFFFFFFFFFFFFFFFFFFFFFFFFFFFFFFFFFFFFFFFFFFFFFFFFFFFFFFFFF
310
FFFFFFFFFFFFFFFFFFFFFFFFFFFFFFFFFFFFFFFFFFFFFFFFFFFFFFFFFFFFFFFF
310
FFFFFFFFFFFFFFFFF000FFFFFFFFFFFFFFFFFFFFFFFFFFFFFFFFFFFFFFFFFFFF
310
FFFFFFFFFFFFFFFFFFFFFFFFFFFFFFFFFFFFFFFFFFFFFFFFFFFFFFFFFFFFFFFF
310
FFFFFFFFFFFFFFFFFFFFFFFFFFFFFFFFFFFFFFFFFFFFFFFFFFFFFFFFFFFFFFFF
310
F000FFFFFFFFFFFFFFFFFFFFFFFFFFFFFFFFFFFFFFFFFFFFFFFFFFFFFFFFFFFF
310
FFFFFFFFFFFFFFFFFFFFFFFFFFFFFFFFFFFFFFFFFFFFFFFFFFFFFFFFFFFFFFFF
310
FFFFFFFFFFFFFFFFFFFFFFFFFFFFFFFFFFFFFFFFFFFFFFFFF000FFFFFFFFFFFF
310
FFFFFFFFFFFFFFFFFFFFFFFFFFFFFFFFFFFFFFFFFFFFFFFFFFFFFFFFFFFFFFFF
310
FFFFFFFFFFFFFFFFFFFFFFFFFFFFFFFFFFFFFFFFFFFFFFFFFFFFFFFFFFFFFFFF
310
FFFFFFFFFFFFFFFFFFFFFFFFFFFFFFFFF000FFFFFFFFFFFFFFFFFFFFFFFFFFFF
310
FFFFFFFFFFFFFFFFFFFFFFFFFFFFFFFFFFFFFFFFFFFFFFFFFFFFFFFFFFFFFFFF
310
FFFFFFFFFFFFFFFFFFFFFFFFFFFFFFFFFFFFFFFFFFFFFFFFFFFFFFFFFFFFFFFF
310
FFFFFFFFFFFFFFFFF000FFFFFFFFFFFFFFFFFFFFFFFFFFFFFFFFFFFFFFFFFFFF
310
FFFFFFFFFFFFFFFFFFFFFFFFFFFFFFFFFFFFFFFFFFFFFFFFFFFFFFFFFFFFFFFF
310
FFFFFFFFFFFFFFFFFFFFFFFFFFFFFFFFFFFFFFFFFFFFFFFFFFFFFFFFFFFFFFFF
310
F000FFFFFFFFFFFFFFFFFFFFFFFFFFFFFFFFFFFFFFFFFFFFFFFFFFFFFFFFFFFF
310
FFFFFFFFFFFFFFFFFFFFFFFFFFFFFFFFFFFFFFFFFFFFFFFFFFFFFFFFFFFFFFFF
310
FFFFFFFFFFFFFFFFFFFFFFFFFFFFFFFFFFFFFFFFFFFFFFFFF000FFFFFFFFFFFF
310
FFFFFFFFFFFFFFFFFFFFFFFFFFFFFFFFFFFFFFFFFFFFFFFFFFFFFFFFFFFFFFFF
310
FFFFFFFFFFFFFFFFFFFFFFFFFFFFFFFFFFFFFFFFFFFFFFFFFFFFFFFFFFFFFFFF
310
FFFFFFFFFFFFFFFFFFFFFFFFFFFFFFFFF000FFFFFFFFFFFFFFFFFFFFFFFFFFFF
310
FFFFFFFFFFFFFFFFFFFFFFFFFFFFFFFFFFFFFFFFFFFFFFFFFFFFFFFFFFFFFFFF
310
FFFFFFFFFFFFFFFFFFFFFFFFFFFFFFFFFFFFFFFFFFFFFFFFFFFFFFFFFFFFFFFF
310
FFFFFFFFFFFFFFFFF000FFFFFFFFFFFFFFFFFFFFFFFFFFFFFFFFFFFFFFFFFFFF
310
FFFFFFFFFFFFFFFFFFFFFFFFFFFFFFFFFFFFFFFFFFFFFFFFFFFFFFFFFFFFFFFF
310
FFFFFFFFFFFFFFFFFFFFFFFFFFFFFFFFFFFFFFFFFFFFFFFFFFFFFFFFFFFFFFFF
310
F000FFFFFFFFFFFFFFFFFFFFFFFFFFFFFFFFFFFFFFFFFFFFFFFFFFFFFFFFFFFF
310
FFFFFFFFFFFFFFFFFFFFFFFFFFFFFFFFFFFFFFFFFFFFFFFFFFFFFFFFFFFFFFFF
310
FFFFFFFFFFFFFFFFFFFFFFFFFFFFFFFFFFFFFFFFFFFFFFFFF000FFFFFFFFFFFF
310
FFFFFFFFFFFFFFFFFFFFFFFFFFFFFFFFFFFFFFFFFFFFFFFFFFFFFFFFFFFFFFFF
310
FFFFFFFFFFFFFFFFFFFFFFFFFFFFFFFFFFFFFFFFFFFFFFFFFFFFFFFFFFFFFFFF
310
FFFFFFFFFFFFFFFFFFFFFFFFFFFFFFFFF000FFFFFFFFFFFFFFFFFFFFFFFFFFFF
310
FFFFFFFFFFFFFFFFFFFFFFFFFFFFFFFFFFFFFFFFFFFFFFFFFFFFFFFFFFFFFFFF
310
FFFFFFFFFFFFFFFFFFFFFFFFFFFFFFFFFFFFFFFFFFFFFFFFFFFFFFFFFFFFFFFF
310
FFFFFFFFFFFFFFFFF000FFFFF80003FFFFFFFFFFFFFFFFFFFFFFFFFFFFFFFFFF
310
FFFFF00007FFFFFFFFFF00007FFFFFF800000000000000007FFFFFFFFFFFFFFF
310
FFFFFFFC001FFFFFFFFFFFFFFC001FFFFFFFFFFFFFFFFFFFFFFFFFFE0007FFFF
310
F000FFFF8000007FFFFFFFF8000FFFFFC0007FFFFF80007FFFFF0000007FFFFF
310
FFF8000007FFFFF800000000000000007FFFFFF0001FFFFFFFFFFFC00001FFFF
310
FFFFFFFFC00001FFFFFFFF000000000003FFFFE000007FFFF000FFFE0000000F
310
FFFFFFF0000FFFFF80007FFFFF80007FFFFC0000001FFFFFFFC0000001FFFFF8
310
00000000000000007FFFFFF0001FFFFFFFFFFE0000003FFFFFFFFFFE0000003F
310
FFFFFF000000000003FFFF0000000FFFF000FFF800000003FFFFFFF00007FFFF
310
80007FFFFF80007FFFF000000007FFFFFF000000003FFFF80000000000000000
310
7FFFFFF0001FFFFFFFFFF80000000FFFFFFFFFF80000000FFFFFFF0000000000
310
03FFFC00000003FFF000FFE000000000FFFFFFF00007FFFF80003FFFFF80007F
310
FFC000000001FFFFFC000000001FFFF800000000000000007FFFFFF0001FFFFF
310
FFFFE000000003FFFFFFFFE000000003FFFFFF000000000003FFF000000000FF
310
F000FF80000000007FFFFFF00007FFFF80003FFFFF80007FFF8000000000FFFF
310
F80000000007FFF800000000000000007FFFFFF0001FFFFFFFFFC000000001FF
310
FFFFFFC000000001FFFFFF000000000003FFC0000000007FF000FF0000000000
310
3FFFFFE00007FFFF00003FFFFF80007FFE00000000003FFFF00000000003FFF8
310
00000000000000007FFFFFF0001FFFFFFFFF8000000000FFFFFFFF8000000000
310
FFFFFF000000000003FF80000000003FF000FE00000000001FFFFFE00003FFFF
310
00003FFFFF80007FFC00000000001FFFE00000000001FFF8000001FFFE000000
310
7FFFFFF0001FFFFFFFFE00000000003FFFFFFE00000000003FFFFF0000000000
310
03FF00000000001FF000FC00000000000FFFFFE00003FFFF00001FFFFF80007F
310
F800000000001FFFC00000000000FFF8000001FFFE0000007FFFFFF0001FFFFF
310
FFFC00000000001FFFFFFC00000000001FFFFF000000000003FE00000000000F
310
F000F8000000000007FFFFE00003FFFF00001FFFFF80007FF800000000000FFF
310
800000000000FFF8000001FFFE0000007FFFFFF0001FFFFFFFF800000000000F
310
FFFFF800000000000FFFFF000000000003FC000000000007F000F80000000000
310
03FFFFC00003FFFE00001FFFFF80007FF0000000000007FF0000000000007FF8
310
000001FFFE0000007FFFFFF0001FFFFFFFF0000000000007FFFFF00000000000
310
07FFFF000000000003F8000000000003F000F0000000000003FFFFC00001FFFE
310
00001FFFFF80007FE0000000000007FE0000000000003FF8000001FFFE000000
310
7FFFFFF0001FFFFFFFF0000000000007FFFFF0000000000007FFFF0000000000
310
03F800001F800003F000E00001FFF00001FFFFC00001FFFE00000FFFFF80007F
310
E00001FFE00003FE00001FFF00003FF8000001FFFE0000007FFFFFF0001FFFFF
310
FFE000003E000003FFFFE000003E000003FFFF000000000003F00001FFF80001
310
F000E00007FFFC0001FFFFC00001FFFE00000FFFFF80007FC0000FFFFC0003FC
310
0000FFFFC0001FF8000001FFFE0000007FFFFFF0001FFFFFFFC00003FFE00001
310
FFFFC00003FFE00001FFFF0001FFFFFFFFF00007FFFE0001F000E0000FFFFF00
310
00FFFF800001FFFC00000FFFFF80007FC0001FFFFE0001FC0001FFFFE0001FF8
310
000001FFFE0000007FFFFFF0001FFFFFFF80000FFFF80000FFFF80000FFFF800
310
00FFFF0003FFFFFFFFE0000FFFFF8000F000C0003FFFFF8000FFFF800000FFFC
310
000007FFFF80007F80003FFFFF0001FC0003FFFFF0001FF8000001FFFE000000
310
7FFFFFF0001FFFFFFF80003FFFFE0000FFFF80003FFFFE0000FFFF0003FFFFFF
310
FFE0003FFFFF8000F000C0003FFFFF8000FFFF800000FFFC000007FFFF80007F
310
80007FFFFF8001F80007FFFFF8000FF8000001FFFE0000007FFFFFF0001FFFFF
310
FF00007FFFFF00007FFF00007FFFFF00007FFF0003FFFFFFFFE0003FFFFFC000
310
F000C0007FFFFFC000FFFF000000FFFC000007FFFF80007F8000FFFFFF8000F8
310
000FFFFFF8000FF8000001FFFE0000007FFFFFF0001FFFFFFF0000FFFFFF8000
310
7FFF0000FFFFFF80007FFF0003FFFFFFFFC0007FFFFFC00070008000FFFFFFC0
310
00FFFF000000FFF8000007FFFF80007F8000FFFFFF8000F8000FFFFFF8000FF8
310
000001FFFE0000007FFFFFF0001FFFFFFE0001FFFFFFC0003FFE0001FFFFFFC0
310
003FFF0003FFFFFFFFC0007FFFFFE00070008000FFFFFFC0007FFF0000007FF8
310
000003FFFF80007F0001FFFFFF8000F8000FFFFFF8000FF8000001FFFE000000
310
7FFFFFF0001FFFFFFE0001FFFFFFC0003FFE0001FFFFFFC0003FFF0003FFFFFF
310
FFC000FFFFFFE00070008000FFFFFFC0007FFF0000007FF8000003FFFF80007F
310
0001FFFFFF8000F8001FFFFFF8000FF8000001FFFE0000007FFFFFF0001FFFFF
310
FE0003FFFFFFE0003FFE0003FFFFFFE0003FFF0003FFFFFFFFC000FFFFFFE000
310
70008000FFFFFFC0007FFE0000007FF8000003FFFF80007F0001FFFFFF8000F0
310
001FFFFFF8000FF8000001FFFE0000007FFFFFF0001FFFFFFC0003FFFFFFE000
310
1FFC0003FFFFFFE0001FFF0003FFFFFFFFC000FFFFFFC00070008000FFFFFF80
310
007FFE0000007FF0000003FFFF80007F0001FFFFFF0000F0001FFFFFF8000FF8
310
000001FFFE0000007FFFFFF0001FFFFFFC0007FFFFFFF0001FFC0007FFFFFFF0
310
001FFF0003FFFFFFFFC000FFFFFFC00070008001FFFFFF0000FFFE0000003FF0
310
000001FFFF80007F0001FFFFFF0000F8001FFFFFF0000FF8000001FFFE000000
310
7FFFFFF0001FFFFFFC0007FFFFFFF0001FFC0007FFFFFFF0001FFF0003FFFFFF
310
FFC001FFFFFF80007000FFFFFFFFFE0000FFFE0008003FF0008001FFFF80007F
310
FFFFFFFFFC0000FFFFFFFFFFE0000FF8000001FFFE0000007FFFFFF0001FFFFF
310
F8000FFFFFFFF8000FF8000FFFFFFFF8000FFF0003FFFFFFFFFFFFFFFFFF0000
310
7000FFFFFFFFFC0000FFFC0008003FF0008001FFFF80007FFFFFFFFFF80001FF
310
FFFFFFFF80000FF8000001FFFE0000007FFFFFF0001FFFFFF8000FFFFFFFF800
310
0FF8000FFFFFFFF8000FFF0003FFFFFFFFFFFFFFFFFE0000F000FFFFFFFFE000
310
00FFFC000C003FE000C001FFFF80007FFFFFFFFFC00001FFFFFFFFFE00001FF8
310
000001FFFE0000007FFFFFF0001FFFFFF8000FFFFFFFF8000FF8000FFFFFFFF8
310
000FFF0003FFFFFFFFFFFFFFFFF00000F000FFFFFFFE000001FFFC000C001FE0
310
00C000FFFF80007FFFFFFFFE000001FFFFFFFFE000001FF80FFFFFFFFFFFFFC0
310
7FFFFFF0001FFFFFF8000FFFFFFFF8000FF8000FFFFFFFF8000FFF0003FFFFFF
310
FFFFFFFFFF800000F000FFFFFFC0000001FFFC001C001FE001C000FFFF80007F
310
FFFFFF80000003FFFFFFF80000001FF80FFFFFFFFFFFFFC07FFFFFF0001FFFFF
310
F8001FFFFFFFFC000FF8001FFFFFFFFC000FFF0003FFFFFFFFFFFFFFF0000001
310
F000FFFFF800000001FFF8001C001FE001C000FFFF80007FFFFFF800000003FF
310
FFFF800000003FF80FFFFFFFFFFFFFC07FFFFFF0001FFFFFF8001FFFFFFFFC00
310
0FF8001FFFFFFFFC000FFF0003FFFFFFFFFFFFFE00000001F000FFFFC0000000
310
03FFF8001E001FC001E000FFFF80007FFFFF8000000007FFFFFC000000003FF8
310
0FFFFFFFFFFFFFC07FFFFFF0001FFFFFF8001FFFFFFFFC000FF8001FFFFFFFFC
310
000FFF0003FFFFFFFFFFFFE000000003F000FFFE0000000007FFF8001E000FC0
310
01E0007FFF80007FFFFE0000000007FFFFE0000000007FF80FFFFFFFFFFFFFC0
310
7FFFFFF0001FFFFFF0001FFFFFFFFC0007F0001FFFFFFFFC0007FF0003FFFFFF
310
FFFFFF0000000003F000FFF80000000007FFF8001E000FC003E0007FFF80007F
310
FFF0000000000FFFFF8000000000FFF80FFFFFFFFFFFFFC07FFFFFF0001FFFFF
310
F0001FFFFFFFFC0007F0001FFFFFFFFC0007FF0003FFFFFFFFFFFC0000000007
310
F000FFE0000000000FFFF0003E000FC003E0007FFF80007FFFC0000000001FFF
310
FE0000000001FFF80FFFFFFFFFFFFFC07FFFFFF0001FFFFFF0001FFFFFFFFC00
310
07F0001FFFFFFFFC0007FF0003FFFFFFFFFFF0000000000FF000FFC000000000
310
1FFFF0003F000F8003F0003FFF80007FFF80000000003FFFF80000000003FFF8
310
0FFFFFFFFFFFFFC07FFFFFF0001FFFFFF0001FFFFFFFFC0007F0001FFFFFFFFC
310
0007FF0003FFFFFFFFFFE0000000001FF000FF00000000007FFFF0003F000780
310
03F0003FFF80007FFF00000000007FFFF00000000007FFF80FFFFFFFFFFFFFC0
310
7FFFFFF0001FFFFFF0001FFFFFFFFC0007F0001FFFFFFFFC0007FF0003FFFFFF
310
FFFF80000000007FF000FE0000000000FFFFE0003F00078007F0003FFF80007F
310
FE0000000001FFFFE0000000001FFFF80FFFFFFFFFFFFFC07FFFFFF0001FFFFF
310
F0001FFFFFFFFC0007F0001FFFFFFFFC0007FF0003FFFFFFFFFF0000000000FF
310
F000FC0000000003FFFFE0007F00078007F0003FFF80007FFC0000000007FFFF
310
C0000000007FFFF80FFFFFFFFFFFFFC07FFFFFF0001FFFFFF8001FFFFFFFFC00
310
0FF8001FFFFFFFFC000FFF0003FFFFFFFFFE0000000003FFF000FC000000000F
310
FFFFE0007F80070007F8001FFF80007FF8000000001FFFFF8000000001FFFFF8
310
0FFFFFFFFFFFFFC07FFFFFF0001FFFFFF8001FFFFFFFFC000FF8001FFFFFFFFC
310
000FFF0003FFFFFFFFFC000000000FFFF000F8000000007FFFFFE0007F800700
310
07F8001FFF80007FF000000000FFFFFF800000000FFFFFF80FFFFFFFFFFFFFC0
310
7FFFFFF0001FFFFFF8000FFFFFFFF8000FF8000FFFFFFFF8000FFF0003FFFFFF
310
FFFC000000007FFFF000F800000007FFFFFFC0007F8003000FF8001FFF80007F
310
F000000007FFFFFF000000007FFFFFF80FFFFFFFFFFFFFC07FFFFFF0001FFFFF
310
F8000FFFFFFFF8000FF8000FFFFFFFF8000FFF0003FFFFFFFFF80000000FFFFF
310
F000F0000000FFFFFFFFC000FF8003000FF8001FFF80007FE0000000FFFFFFFF
310
0000000FFFFFFFF8000001FFFE0000007FFFFFF0001FFFFFF8000FFFFFFFF800
310
0FF8000FFFFFFFF8000FFF0003FFFFFFFFF8000000FFFFFFF000F000000FFFFF
310
FFFFC000FFC002000FF8000FFF80007FE000001FFFFFFFFE000001FFFFFFFFF8
310
000001FFFE0000007FFFFFF0001FFFFFF8000FFFFFFFF8000FF8000FFFFFFFF8
310
000FFF0003FFFFFFFFF000001FFFFFFFF000E00000FFFFFFFFFFC000FFC00200
310
0FFC000FFF80007FE00001FFFFFFFFFE00001FFFFFFFFFF8000001FFFE000000
310
7FFFFFF0001FFFFFFC000FFFFFFFF8001FFC000FFFFFFFF8001FFF0003FFFFFF
310
FFF00001FFFFFFFFF000E00007FFFFFFFFFF8000FFC000001FFC000FFF80007F
310
C0000FFFFFFFFFFE0000FFFFFFFFFFF8000001FFFE0000007FFFFFF0001FFFFF
310
FC0007FFFFFFF0001FFC0007FFFFFFF0001FFF0003FFFFFFFFF00007FFFFFFFF
310
F000E0001FFFFFFFFFFF8000FFC000001FFC000FFF80007FC0003FFFFFFFFFFE
310
0001FFFFFFFFFFF8000001FFFE0000007FFFFFF0001FFFFFFC0007FFFFFFF000
310
1FFC0007FFFFFFF0001FFF0003FFFFFFFFF0001FFFFFFFFFF000E0003FFFFF00
310
03FF8001FFE000001FFC0007FF80007FC0007FFFFF0007FC0003FFFFF0003FF8
310
000001FFFE0000007FFFFFF0001FFFFFFC0003FFFFFFE0001FFC0003FFFFFFE0
310
001FFF0003FFFFFFFFF0003FFFFFFFFFF000E0003FFFFF0001FF8001FFE00000
310
1FFE0007FF80007FC0007FFFFE0003FC0007FFFFE0003FF8000001FFFE000000
310
7FFFFFF0001FFFFFFE0003FFFFFFE0003FFE0003FFFFFFE0003FFF0003FFFFFF
310
FFF0003FFFFF8001F000E0003FFFFF0001FF0001FFE000001FFE0007FF80007F
310
C0007FFFFE0003FC0007FFFFE0003FF8000001FFFE0000007FFFFFF0001FFFFF
310
FE0001FFFFFFC0003FFE0001FFFFFFC0003FFF0003FFFFFFFFF0003FFFFF0001
310
F000E0003FFFFF0003FF0001FFE000003FFE0007FF80007FC0007FFFFE0003FC
310
0007FFFFE0003FF8000001FFFE0000007FFFFFF0001FFFFFFF0001FFFFFFC000
310
7FFF0001FFFFFFC0007FFF0003FFFFFFFFF0003FFFFF0001F000E0003FFFFE00
310
03FF0003FFF000003FFE0003FF80007FC0007FFFFC0003FE0007FFFFE0003FF8
310
000001FFFE0000007FFFFFF0001FFFFFFF0000FFFFFF80007FFF0000FFFFFF80
310
007FFF0003FFFFFFFFF0003FFFFF0001F000E0003FFFFE0003FF0003FFF00000
310
3FFF0003FF80007FC0007FFFFC0007FE0007FFFFC0003FF8000001FFFE000000
310
7FFFFFF0001FFFFFFF80007FFFFF0000FFFF80007FFFFF0000FFFF0003FFFFFF
310
FFF0003FFFFF0003F000E0003FFFFC0003FE0003FFF000003FFF0003FF80007F
310
E0003FFFF80007FE0003FFFFC0007FF8000001FFFE0000007FFFFFF0001FFFFF
310
FF80003FFFFE0000FFFF80003FFFFE0000FFFF0003FFFFFFFFF0001FFFFE0003
310
F000F0001FFFF80003FE0003FFF000007FFF0001FF80007FE0003FFFF00007FE
310
0001FFFF80007FF8000001FFFE0000007FFFFFF0001FFFFFFFC0000FFFF80001
310
FFFFC0000FFFF80001FFFF0003FFFFFFFFF0001FFFFC0003F000F0000FFFF000
310
07FE0007FFF800007FFF0001FF80007FE0001FFFE00007FF0000FFFE00007FF8
310
000001FFFE0000007FFFFFF0001FFFFFFFC00003FFE00001FFFFC00003FFE000
310
01FFFF0003FFFFFFFFF8000FFFF80003F000F00003FFC00007FC0007FFF80000
310
7FFF8001FF80007FF00007FF80000FFF00007FF80000FFF8000001FFFE000000
310
7F80000000000001FFE000003E000003FFFFE000003E000003FFFF0003FFFFFF
310
FFF80003FFE00007F000F800000000000FFC0007FFF800007FFF8001FF80007F
310
F000000000000FFF000000000000FFF8000001FFFE0000007F80000000000001
310
FFF0000000000007FFFFF0000000000007FFFF0003FFFFFFFFFC00007E000007
310
F000F800000000000FFC0007FFF80000FFFF8000FF80007FF800000000001FFF
310
800000000001FFF8000001FFFE0000007F80000000000001FFF800000000000F
310
FFFFF800000000000FFFFF0003FFFFFFFFFC00000000000FF000FC0000000000
310
1FFC0007FFFC0000FFFF8000FF80007FF800000000003FFFC00000000001FFF8
310
000001FFFE0000007F80000000000001FFF800000000000FFFFFF80000000000
310
0FFFFF0003FFFFFFFFFE00000000001FF000FE00000000003FF8000FFFFC0000
310
FFFF8000FF80007FFC00000000003FFFC00000000003FFF8000001FFFE000000
310
7F80000000000001FFFC00000000001FFFFFFC00000000001FFFFF0003FFFFFF
310
FFFF00000000001FF000FF00000000003FF8000FFFFC0000FFFFC000FF80007F
310
FE00000000007FFFE00000000007FFF8000001FFFE0000007F80000000000001
310
FFFE00000000003FFFFFFE00000000003FFFFF0003FFFFFFFFFF80000000003F
310
F000FF80000000007FF8000FFFFC0001FFFFC0007F80007FFF0000000000FFFF
310
F0000000000FFFF800000000000000007F80000000000001FFFF8000000000FF
310
FFFFFF8000000000FFFFFF0003FFFFFFFFFFC0000000007FF000FFC000000000
310
FFF8000FFFFE0001FFFFC0007F80007FFF8000000001FFFFF8000000001FFFF8
310
00000000000000007F80000000000001FFFFC000000001FFFFFFFFC000000001
310
FFFFFF0003FFFFFFFFFFE000000000FFF000FFE000000003FFF0001FFFFE0001
310
FFFFC0007F80007FFFC000000007FFFFFE000000003FFFF80000000000000000
310
7F80000000000001FFFFE000000003FFFFFFFFE000000003FFFFFF0003FFFFFF
310
FFFFF000000003FFF000FFF80000000FFFF0001FFFFE0001FFFFE0007F80007F
310
FFF00000000FFFFFFF00000000FFFFF800000000000000007F80000000000001
310
FFFFF80000000FFFFFFFFFF80000000FFFFFFF0003FFFFFFFFFFFC0000000FFF
310
F000FFFE0000003FFFF0001FFFFE0003FFFFE0003F80007FFFFC0000003FFFFF
310
FFC0000003FFFFF800000000000000007F80000000000001FFFFFE0000003FFF
310
FFFFFFFE0000003FFFFFFF0003FFFFFFFFFFFF0000003FFFF000FFFF800000FF
310
FFF0001FFFFF0003FFFFE0003F80007FFFFF000001FFFFFFFFF800001FFFFFF8
310
00000000000000007F80000000000001FFFFFFC00001FFFFFFFFFFFFC00001FF
310
FFFFFF0003FFFFFFFFFFFFC00000FFFFF000FFFFF8000FFFFFFFFFFFFFFFFFFF
310
FFFFFFFFFFFFFFFFFFFFF0001FFFFFFFFFFF0000FFFFFFF80000000000000000
310
7FFFFFFFFFFFFFFFFFFFFFFC001FFFFFFFFFFFFFFC001FFFFFFFFFFFFFFFFFFF
310
FFFFFFFC001FFFFFF000FFFFFFFFFFFFFFFFFFFFFFFFFFFFFFFFFFFFFFFFFFFF
310
FFFFFFFFFFFFFFFFFFFFFFFFFFFFFFFFFFFFFFFFFFFFFFFFFFFFFFFFFFFFFFFF
310
FFFFFFFFFFFFFFFFFFFFFFFFFFFFFFFFFFFFFFFFFFFFFFFFFFFFFFFFFFFFFFFF
310
F000FFFFFFFFFFFFFFFFFFFFFFFFFFFFFFFFFFFFFFFFFFFFFFFFFFFFFFFFFFFF
310
FFFFFFFFFFFFFFFFFFFFFFFFFFFFFFFFFFFFFFFFFFFFFFFFFFFFFFFFFFFFFFFF
310
FFFFFFFFFFFFFFFFFFFFFFFFFFFFFFFFFFFFFFFFFFFFFFFFF000FFFFFFFFFFFF
310
FFFFFFFFFFFFFFFFFFFFFFFFFFFFFFFFFFFFFFFFFFFFFFFFFFFFFFFFFFFFFFFF
310
FFFFFFFFFFFFFFFFFFFFFFFFFFFFFFFFFFFFFFFFFFFFFFFFFFFFFFFFFFFFFFFF
310
FFFFFFFFFFFFFFFFFFFFFFFFFFFFFFFFF000FFFFFFFFFFFFFFFFFFFFFFFFFFFF
310
FFFFFFFFFFFFFFFFFFFFFFFFFFFFFFFFFFFFFFFFFFFFFFFFFFFFFFFFFFFFFFFF
310
FFFFFFFFFFFFFFFFFFFFFFFFFFFFFFFFFFFFFFFFFFFFFFFFFFFFFFFFFFFFFFFF
310
FFFFFFFFFFFFFFFFF000FFFFFFFFFFFFFFFFFFFFFFFFFFFFFFFFFFFFFFFFFFFF
310
FFFFFFFFFFFFFFFFFFFFFFFFFFFFFFFFFFFFFFFFFFFFFFFFFFFFFFFFFFFFFFFF
310
FFFFFFFFFFFFFFFFFFFFFFFFFFFFFFFFFFFFFFFFFFFFFFFFFFFFFFFFFFFFFFFF
310
F000FFFFFFFFFFFFFFFFFFFFFFFFFFFFFFFFFFFFFFFFFFFFFFFFFFFFFFFFFFFF
310
FFFFFFFFFFFFFFFFFFFFFFFFFFFFFFFFFFFFFFFFFFFFFFFFFFFFFFFFFFFFFFFF
310
FFFFFFFFFFFFFFFFFFFFFFFFFFFFFFFFFFFFFFFFFFFFFFFFF000FFFFFFFFFFFF
310
FFFFFFFFFFFFFFFFFFFFFFFFFFFFFFFFFFFFFFFFFFFFFFFFFFFFFFFFFFFFFFFF
310
FFFFFFFFFFFFFFFFFFFFFFFFFFFFFFFFFFFFFFFFFFFFFFFFFFFFFFFFFFFFFFFF
310
FFFFFFFFFFFFFFFFFFFFFFFFFFFFFFFFF000FFFFFFFFFFFFFFFFFFFFFFFFFFFF
310
FFFFFFFFFFFFFFFFFFFFFFFFFFFFFFFFFFFFFFFFFFFFFFFFFFFFFFFFFFFFFFFF
310
FFFFFFFFFFFFFFFFFFFFFFFFFFFFFFFFFFFFFFFFFFFFFFFFFFFFFFFFFFFFFFFF
310
FFFFFFFFFFFFFFFFF000FFFFFFFFFFFFFFFFFFFFFFFFFFFFFFFFFFFFFFFFFFFF
310
FFFFFFFFFFFFFFFFFFFFFFFFFFFFFFFFFFFFFFFFFFFFFFFFFFFFFFFFFFFFFFFF
310
FFFFFFFFFFFFFFFFFFFFFFFFFFFFFFFFFFFFFFFFFFFFFFFFFFFFFFFFFFFFFFFF
310
F000FFFFFFFFFFFFFFFFFFFFFFFFFFFFFFFFFFFFFFFFFFFFFFFFFFFFFFFFFFFF
310
FFFFFFFFFFFFFFFFFFFFFFFFFFFFFFFFFFFFFFFFFFFFFFFFFFFFFFFFFFFFFFFF
310
FFFFFFFFFFFFFFFFFFFFFFFFFFFFFFFFFFFFFFFFFFFFFFFFF000FFFFFFFFFFFF
310
FFFFFFFFFFFFFFFFFFFFFFFFFFFFFFFFFFFFFFFFFFFFFFFFFFFFFFFFFFFFFFFF
310
FFFFFFFFFFFFFFFFFFFFFFFFFFFFFFFFFFFFFFFFFFFFFFFFFFFFFFFFFFFFFFFF
310
FFFFFFFFFFFFFFFFFFFFFFFFFFFFFFFFF000FFFFFFFFFFFFFFFFFFFFFFFFFFFF
310
FFFFFFFFFFFFFFFFFFFFFFFFFFFFFFFFFFFFFFFFFFFFFFFFFFFFFFFFFFFFFFFF
310
FFFFFFFFFFFFFFFFFFFFFFFFFFFFFFFFFFFFFFFFFFFFFFFFFFFFFFFFFFFFFFFF
310
FFFFFFFFFFFFFFFFF000FFFFFFFFFFFFFFFFFFFFFFFFFFFFFFFFFFFFFFFFFFFF
310
FFFFFFFFFFFFFFFFFFFFFFFFFFFFFFFFFFFFFFFFFFFFFFFFFFFFFFFFFFFFFFFF
310
FFFFFFFFFFFFFFFFFFFFFFFFFFFFFFFFFFFFFFFFFFFFFFFFFFFFFFFFFFFFFFFF
310
F000FFFFFFFFFFFFFFFFFFFFFFFFFFFFFFFFFFFFFFFFFFFFFFFFFFFFFFFFFFFF
310
FFFFFFFFFFFFFFFFFFFFFFFFFFFFFFFFFFFFFFFFFFFFFFFFFFFFFFFFFFFFFFFF
310
FFFFFFFFFFFFFFFFFFFFFFFFFFFFFFFFFFFFFFFFFFFFFFFFF000FFFFFFFFFFFF
310
FFFFFFFFFFFFFFFFFFFFFFFFFFFFFFFFFFFFFFFFFFFFFFFFFFFFFFFFFFFFFFFF
310
FFFFFFFFFFFFFFFFFFFFFFFFFFFFFFFFFFFFFFFFFFFFFFFFFFFFFFFFFFFFFFFF
310
FFFFFFFFFFFFFFFFFFFFFFFFFFFFFFFFF000FFFFFFFFFFFFFFFFFFFFFFFFFFFF
310
FFFFFFFFFFFFFFFFFFFFFFFFFFFFFFFFFFFFFFFFFFFFFFFFFFFFFFFFFFFFFFFF
310
FFFFFFFFFFFFFFFFFFFFFFFFFFFFFFFFFFFFFFFFFFFFFFFFFFFFFFFFFFFFFFFF
310
FFFFFFFFFFFFFFFFF000FFFFFFFFFFFFFFFFFFFFFFFFFFFFFFFFFFFFFFFFFFFF
310
FFFFFFFFFFFFFFFFFFFFFFFFFFFFFFFFFFFFFFFFFFFFFFFFFFFFFFFFFFFFFFFF
310
FFFFFFFFFFFFFFFFFFFFFFFFFFFFFFFFFFFFFFFFFFFFFFFFFFFFFFFFFFFFFFFF
310
F000FFFFFFFFFFFFFFFFFFFFFFFFFFFFFFFFFFFFFFFFFFFFFFFFFFFFFFFFFFFF
310
FFFFFFFFFFFFFFFFFFFFFFFFFFFFFFFFFFFFFFFFFFFFFFFFFFFFFFFFFFFFFFFF
310
FFFFFFFFFFFFFFFFFFFFFFFFFFFFFFFFFFFFFFFFFFFFFFFFF000FFFFFFFFFFFF
310
FFFFFFFFFFFFFFFFFFFFFFFFFFFFFFFFFFFFFFFFFFFFFFFFFFFFFFFFFFFFFFFF
310
FFFFFFFFFFFFFFFFFFFFFFFFFFFFFFFFFFFFFFFFFFFFFFFFFFFFFFFFFFFFFFFF
310
FFFFFFFFFFFFFFFFFFFFFFFFFFFFFFFFF000FFFFFFFFFFFFFFFFFFFFFFFFFFFF
310
FFFFFFFFFFFFFFFFFFFFFFFFFFFFFFFFFFFFFFFFFFFFFFFFFFFFFFFFFFFFFFFF
310
FFFFFFFFFFFFFFFFFFFFFFFFFFFFFFFFFFFFFFFFFFFFFFFFFFFFFFFFFFFFFFFF
310
FFFFFFFFFFFFFFFFF000FFFFFFFFFFFFFFFFFFFFFFFFFFFFFFFFFFFFFFFFFFFF
310
FFFFFFFFFFFFFFFFFFFFFFFFFFFFFFFFFFFFFFFFFFFFFFFFFFFFFFFFFFFFFFFF
310
FFFFFFFFFFFFFFFFFFFFFFFFFFFFFFFFFFFFFFFFFFFFFFFFFFFFFFFFFFFFFFFF
310
F000FFFFFFFFFFFFFFFFFFFFFFFFFFFFFFFFFFFFFFFFFFFFFFFFFFFFFFFFFFFF
310
FFFFFFFFFFFFFFFFFFFFFFFFFFFFFFFFFFFFFFFFFFFFFFFFFFFFFFFFFFFFFFFF
310
FFFFFFFFFFFFFFFFFFFFFFFFFFFFFFFFFFFFFFFFFFFFFFFFF000FFFFFFFFFFFF
310
FFFFFFFFFFFFFFFFFFFFFFFFFFFFFFFFFFFFFFFFFFFFFFFFFFFFFFFFFFFFFFFF
310
FFFFFFFFFFFFFFFFFFFFFFFFFFFFFFFFFFFFFFFFFFFFFFFFFFFFFFFFFFFFFFFF
310
FFFFFFFFFFFFFFFFFFFFFFFFFFFFFFFFF0000000000000000000000000000000
310
0000000000000000000000000000000000000000000000000000000000000000
310
0000000000000000000000000000000000000000000000000000000000000000
310
0000000000000000000000000000000000000000000000000000000000000000
310
0000000000000000000000000000000000000000000000000000000000000000
310
0000000000000000000000000000000000000000000000000000000000000000
310
0000000000000000000000000000000000000000000000000000000000000000
310
0000000000000000000000000000000000000000000000000000000000000000
310
0000000000000000000000000000000000000000000000000000000000000000
310
0000000000000000000000000000000000000000000000000000000000000000
310
0000000000000000000000000000000000000000000000000000000000000000
310
0000000000000000000000000000000000000000000000000000000000000000
310
0000000000000000000000000000000000000000000000000000000000000000
310
0000000000000000000000000000000000000000000000000000000000000000
310
0000000000000000000000000000000000000000000000000000000000000000
310
0000000000000000000000000000000000000000000000000000000000000000
  1
OLE
  0
ENDSEC
  0
SECTION
  2
OBJECTS
  0
DICTIONARY
  5
C
330
0
100
AcDbDictionary
281
     1
  3
ACAD_GROUP
350
D
  3
ACAD_LAYOUT
350
1A
  3
ACAD_MLINESTYLE
350
17
  3
ACAD_PLOTSETTINGS
350
19
  3
ACAD_PLOTSTYLENAME
350
E
  3
ACAD_SCALELIST
350
47
  0
DICTIONARY
  5
D
102
{ACAD_REACTORS
330
C
102
}
330
C
100
AcDbDictionary
281
     1
  0
DICTIONARY
  5
1A
102
{ACAD_REACTORS
330
C
102
}
330
C
100
AcDbDictionary
281
     1
  3
Layout1
350
1E
  3
Layout2
350
26
  3
Model
350
22
  0
DICTIONARY
  5
17
102
{ACAD_REACTORS
330
C
102
}
330
C
100
AcDbDictionary
281
     1
  3
Standard
350
18
  0
DICTIONARY
  5
19
102
{ACAD_REACTORS
330
C
102
}
330
C
100
AcDbDictionary
281
     1
  0
ACDBDICTIONARYWDFLT
  5
E
102
{ACAD_REACTORS
330
C
102
}
330
C
100
AcDbDictionary
281
     1
  3
Normal
350
F
100
AcDbDictionaryWithDefault
340
F
  0
DICTIONARY
  5
47
102
{ACAD_REACTORS
330
C
102
}
330
C
100
AcDbDictionary
281
     1
  3
A0
350
48
  3
A1
350
49
  3
A2
350
4A
  3
A3
350
4B
  3
A4
350
4C
  3
A5
350
4D
  3
A6
350
4E
  3
A7
350
4F
  3
A8
350
50
  3
A9
350
51
  3
B0
350
52
  3
B1
350
53
  3
B2
350
54
  3
B3
350
55
  3
B4
350
56
  3
B5
350
57
  3
B6
350
58
  3
B7
350
59
  3
B8
350
5A
  3
B9
350
5B
  3
C0
350
5C
  3
C1
350
5D
  3
C2
350
5E
  3
C3
350
5F
  3
C4
350
60
  3
C5
350
61
  3
C6
350
62
  3
C7
350
63
  3
C8
350
64
  3
C9
350
65
  3
D0
350
66
  3
D1
350
67
  3
D2
350
68
  0
LAYOUT
  5
1E
102
{ACAD_REACTORS
330
1A
102
}
330
1A
100
AcDbPlotSettings
  1

  2
none_device
  4

  6

 40
0.0
 41
0.0
 42
0.0
 43
0.0
 44
0.0
 45
0.0
 46
0.0
 47
0.0
 48
0.0
 49
0.0
140
0.0
141
0.0
142
1.0
143
1.0
 70
   688
 72
     1
 73
     0
 74
     5
  7

 75
    16
147
1.0
148
0.0
149
0.0
100
AcDbLayout
  1
Layout1
 70
     1
 71
     1
 10
0.0
 20
0.0
 11
420.0
 21
297.0
 12
0.0
 22
0.0
 32
0.0
 14
1.0000000000E+20
 24
1.0000000000E+20
 34
1.0000000000E+20
 15
-1.0000000000E+20
 25
-1.0000000000E+20
 35
-1.0000000000E+20
146
0.0
 13
0.0
 23
0.0
 33
0.0
 16
1.0
 26
0.0
 36
0.0
 17
0.0
 27
1.0
 37
0.0
 76
     0
330
1B
  0
LAYOUT
  5
26
102
{ACAD_REACTORS
330
1A
102
}
330
1A
100
AcDbPlotSettings
  1

  2
none_device
  4

  6

 40
0.0
 41
0.0
 42
0.0
 43
0.0
 44
0.0
 45
0.0
 46
0.0
 47
0.0
 48
0.0
 49
0.0
140
0.0
141
0.0
142
1.0
143
1.0
 70
   688
 72
     1
 73
     0
 74
     5
  7

 75
    16
147
1.0
148
0.0
149
0.0
100
AcDbLayout
  1
Layout2
 70
     1
 71
     2
 10
0.0
 20
0.0
 11
0.0
 21
0.0
 12
0.0
 22
0.0
 32
0.0
 14
0.0
 24
0.0
 34
0.0
 15
0.0
 25
0.0
 35
0.0
146
0.0
 13
0.0
 23
0.0
 33
0.0
 16
1.0
 26
0.0
 36
0.0
 17
0.0
 27
1.0
 37
0.0
 76
     0
330
23
  0
LAYOUT
  5
22
102
{ACAD_REACTORS
330
1A
102
}
330
1A
100
AcDbPlotSettings
  1

  2
none_device
  4
Letter_(8.50_x_11.00_Inches)
  6

 40
6.35
 41
6.35
 42
6.35000508
 43
6.35000508
 44
215.9
 45
279.4
 46
0.0
 47
0.0
 48
0.0
 49
0.0
140
0.0
141
0.0
142
1.0
143
1.0
 70
  1712
 72
     1
 73
     0
 74
     0
  7

 75
     0
147
1.0
148
0.0
149
0.0
100
AcDbLayout
  1
Model
 70
     1
 71
     0
 10
0.0
 20
0.0
 11
297.0
 21
210.0
 12
0.0
 22
0.0
 32
0.0
 14
0.0
 24
0.0
 34
0.0
 15
297.0
 25
210.0
 35
0.0
146
0.0
 13
0.0
 23
0.0
 33
0.0
 16
1.0
 26
0.0
 36
0.0
 17
0.0
 27
1.0
 37
0.0
 76
     0
330
1F
331
29
  0
MLINESTYLE
  5
18
102
{ACAD_REACTORS
330
17
102
}
330
17
100
AcDbMlineStyle
  2
Standard
 70
     0
  3

 62
   256
 51
90.0
 52
90.0
 71
     2
 49
0.5
 62
   256
  6
BYLAYER
 49
-0.5
 62
   256
  6
BYLAYER
  0
ACDBPLACEHOLDER
  5
F
102
{ACAD_REACTORS
330
E
102
}
330
E
  0
SCALE
  5
48
102
{ACAD_REACTORS
330
47
102
}
330
47
100
AcDbScale
 70
     0
300
1:1
140
1.0
141
1.0
290
     1
  0
SCALE
  5
49
102
{ACAD_REACTORS
330
47
102
}
330
47
100
AcDbScale
 70
     0
300
1:2
140
1.0
141
2.0
290
     0
  0
SCALE
  5
4A
102
{ACAD_REACTORS
330
47
102
}
330
47
100
AcDbScale
 70
     0
300
1:4
140
1.0
141
4.0
290
     0
  0
SCALE
  5
4B
102
{ACAD_REACTORS
330
47
102
}
330
47
100
AcDbScale
 70
     0
300
1:5
140
1.0
141
5.0
290
     0
  0
SCALE
  5
4C
102
{ACAD_REACTORS
330
47
102
}
330
47
100
AcDbScale
 70
     0
300
1:8
140
1.0
141
8.0
290
     0
  0
SCALE
  5
4D
102
{ACAD_REACTORS
330
47
102
}
330
47
100
AcDbScale
 70
     0
300
1:10
140
1.0
141
10.0
290
     0
  0
SCALE
  5
4E
102
{ACAD_REACTORS
330
47
102
}
330
47
100
AcDbScale
 70
     0
300
1:16
140
1.0
141
16.0
290
     0
  0
SCALE
  5
4F
102
{ACAD_REACTORS
330
47
102
}
330
47
100
AcDbScale
 70
     0
300
1:20
140
1.0
141
20.0
290
     0
  0
SCALE
  5
50
102
{ACAD_REACTORS
330
47
102
}
330
47
100
AcDbScale
 70
     0
300
1:30
140
1.0
141
30.0
290
     0
  0
SCALE
  5
51
102
{ACAD_REACTORS
330
47
102
}
330
47
100
AcDbScale
 70
     0
300
1:40
140
1.0
141
40.0
290
     0
  0
SCALE
  5
52
102
{ACAD_REACTORS
330
47
102
}
330
47
100
AcDbScale
 70
     0
300
1:50
140
1.0
141
50.0
290
     0
  0
SCALE
  5
53
102
{ACAD_REACTORS
330
47
102
}
330
47
100
AcDbScale
 70
     0
300
1:100
140
1.0
141
100.0
290
     0
  0
SCALE
  5
54
102
{ACAD_REACTORS
330
47
102
}
330
47
100
AcDbScale
 70
     0
300
2:1
140
2.0
141
1.0
290
     0
  0
SCALE
  5
55
102
{ACAD_REACTORS
330
47
102
}
330
47
100
AcDbScale
 70
     0
300
4:1
140
4.0
141
1.0
290
     0
  0
SCALE
  5
56
102
{ACAD_REACTORS
330
47
102
}
330
47
100
AcDbScale
 70
     0
300
8:1
140
8.0
141
1.0
290
     0
  0
SCALE
  5
57
102
{ACAD_REACTORS
330
47
102
}
330
47
100
AcDbScale
 70
     0
300
10:1
140
10.0
141
1.0
290
     0
  0
SCALE
  5
58
102
{ACAD_REACTORS
330
47
102
}
330
47
100
AcDbScale
 70
     0
300
100:1
140
100.0
141
1.0
290
     0
  0
SCALE
  5
59
102
{ACAD_REACTORS
330
47
102
}
330
47
100
AcDbScale
 70
     0
300
1/128" = 1'-0"
140
0.0078125
141
12.0
290
     0
  0
SCALE
  5
5A
102
{ACAD_REACTORS
330
47
102
}
330
47
100
AcDbScale
 70
     0
300
1/64" = 1'-0"
140
0.015625
141
12.0
290
     0
  0
SCALE
  5
5B
102
{ACAD_REACTORS
330
47
102
}
330
47
100
AcDbScale
 70
     0
300
1/32" = 1'-0"
140
0.03125
141
12.0
290
     0
  0
SCALE
  5
5C
102
{ACAD_REACTORS
330
47
102
}
330
47
100
AcDbScale
 70
     0
300
1/16" = 1'-0"
140
0.0625
141
12.0
290
     0
  0
SCALE
  5
5D
102
{ACAD_REACTORS
330
47
102
}
330
47
100
AcDbScale
 70
     0
300
3/32" = 1'-0"
140
0.09375
141
12.0
290
     0
  0
SCALE
  5
5E
102
{ACAD_REACTORS
330
47
102
}
330
47
100
AcDbScale
 70
     0
300
1/8" = 1'-0"
140
0.125
141
12.0
290
     0
  0
SCALE
  5
5F
102
{ACAD_REACTORS
330
47
102
}
330
47
100
AcDbScale
 70
     0
300
3/16" = 1'-0"
140
0.1875
141
12.0
290
     0
  0
SCALE
  5
60
102
{ACAD_REACTORS
330
47
102
}
330
47
100
AcDbScale
 70
     0
300
1/4" = 1'-0"
140
0.25
141
12.0
290
     0
  0
SCALE
  5
61
102
{ACAD_REACTORS
330
47
102
}
330
47
100
AcDbScale
 70
     0
300
3/8" = 1'-0"
140
0.375
141
12.0
290
     0
  0
SCALE
  5
62
102
{ACAD_REACTORS
330
47
102
}
330
47
100
AcDbScale
 70
     0
300
1/2" = 1'-0"
140
0.5
141
12.0
290
     0
  0
SCALE
  5
63
102
{ACAD_REACTORS
330
47
102
}
330
47
100
AcDbScale
 70
     0
300
3/4" = 1'-0"
140
0.75
141
12.0
290
     0
  0
SCALE
  5
64
102
{ACAD_REACTORS
330
47
102
}
330
47
100
AcDbScale
 70
     0
300
1" = 1'-0"
140
1.0
141
12.0
290
     0
  0
SCALE
  5
65
102
{ACAD_REACTORS
330
47
102
}
330
47
100
AcDbScale
 70
     0
300
1-1/2" = 1'-0"
140
1.5
141
12.0
290
     0
  0
SCALE
  5
66
102
{ACAD_REACTORS
330
47
102
}
330
47
100
AcDbScale
 70
     0
300
3" = 1'-0"
140
3.0
141
12.0
290
     0
  0
SCALE
  5
67
102
{ACAD_REACTORS
330
47
102
}
330
47
100
AcDbScale
 70
     0
300
6" = 1'-0"
140
6.0
141
12.0
290
     0
  0
SCALE
  5
68
102
{ACAD_REACTORS
330
47
102
}
330
47
100
AcDbScale
 70
     0
300
1'-0" = 1'-0"
140
12.0
141
12.0
290
     0
  0
ENDSEC
  0
EOF
