  0
SECTION
  2
HEADER
  9
$ACADVER
  1
AC1015
  9
$ACADMAINTVER
 70
     6
  9
$DWGCODEPAGE
  3
ANSI_1252
  9
$INSBASE
 10
0.0
 20
0.0
 30
0.0
  9
$EXTMIN
 10
0.0
 20
0.0
 30
0.0
  9
$EXTMAX
 10
297.0
 20
210.0
 30
0.0
  9
$LIMMIN
 10
0.0
 20
0.0
  9
$LIMMAX
 10
297.0
 20
210.0
  9
$ORTHOMODE
 70
     0
  9
$REGENMODE
 70
     1
  9
$FILLMODE
 70
     1
  9
$QTEXTMODE
 70
     0
  9
$MIRRTEXT
 70
     1
  9
$LTSCALE
 40
1.0
  9
$ATTMODE
 70
     1
  9
$TEXTSIZE
 40
2.0
  9
$TRACEWID
 40
1.0
  9
$TEXTSTYLE
  7
Standard
  9
$CLAYER
  8
0
  9
$CELTYPE
  6
ByLayer
  9
$CECOLOR
 62
   256
  9
$CELTSCALE
 40
1.0
  9
$DISPSILH
 70
     0
  9
$DIMSCALE
 40
1.0
  9
$DIMASZ
 40
3.0
  9
$DIMEXO
 40
0.0
  9
$DIMDLI
 40
3.75
  9
$DIMRND
 40
0.0
  9
$DIMDLE
 40
0.0
  9
$DIMEXE
 40
1.0
  9
$DIMTP
 40
0.0
  9
$DIMTM
 40
0.0
  9
$DIMTXT
 40
2.0
  9
$DIMCEN
 40
2.5
  9
$DIMTSZ
 40
0.0
  9
$DIMTOL
 70
     0
  9
$DIMLIM
 70
     0
  9
$DIMTIH
 70
     1
  9
$DIMTOH
 70
     1
  9
$DIMSE1
 70
     0
  9
$DIMSE2
 70
     0
  9
$DIMTAD
 70
     1
  9
$DIMZIN
 70
     0
  9
$DIMBLK
  1

  9
$DIMASO
 70
     1
  9
$DIMSHO
 70
     1
  9
$DIMPOST
  1

  9
$DIMAPOST
  1

  9
$DIMALT
 70
     0
  9
$DIMALTD
 70
     3
  9
$DIMALTF
 40
0.0393700787
  9
$DIMLFAC
 40
1.0
  9
$DIMTOFL
 70
     1
  9
$DIMTVP
 40
0.0
  9
$DIMTIX
 70
     0
  9
$DIMSOXD
 70
     0
  9
$DIMSAH
 70
     0
  9
$DIMBLK1
  1

  9
$DIMBLK2
  1

  9
$DIMSTYLE
  2
ISO-25
  9
$DIMCLRD
 70
     0
  9
$DIMCLRE
 70
     0
  9
$DIMCLRT
 70
     0
  9
$DIMTFAC
 40
1.0
  9
$DIMGAP
 40
1.524
  9
$DIMJUST
 70
     0
  9
$DIMSD1
 70
     0
  9
$DIMSD2
 70
     0
  9
$DIMTOLJ
 70
     0
  9
$DIMTZIN
 70
     0
  9
$DIMALTZ
 70
     0
  9
$DIMALTTZ
 70
     0
  9
$DIMUPT
 70
     0
  9
$DIMDEC
 70
     2
  9
$DIMTDEC
 70
     3
  9
$DIMALTU
 70
     2
  9
$DIMALTTD
 70
     3
  9
$DIMTXSTY
  7
Standard
  9
$DIMAUNIT
 70
     0
  9
$DIMADEC
 70
     2
  9
$DIMALTRND
 40
0.0
  9
$DIMAZIN
 70
     0
  9
$DIMDSEP
 70
    44
  9
$DIMATFIT
 70
     3
  9
$DIMFRAC
 70
     0
  9
$DIMLDRBLK
  1

  9
$DIMLUNIT
 70
     2
  9
$DIMLWD
 70
    -2
  9
$DIMLWE
 70
    -2
  9
$DIMTMOVE
 70
     0
  9
$LUNITS
 70
     2
  9
$LUPREC
 70
     2
  9
$SKETCHINC
 40
1.0
  9
$FILLETRAD
 40
10.0
  9
$AUNITS
 70
     0
  9
$AUPREC
 70
     2
  9
$MENU
  1
.
  9
$ELEVATION
 40
0.0
  9
$PELEVATION
 40
0.0
  9
$THICKNESS
 40
0.0
  9
$LIMCHECK
 70
     0
  9
$CHAMFERA
 40
0.0
  9
$CHAMFERB
 40
0.0
  9
$CHAMFERC
 40
0.0
  9
$CHAMFERD
 40
0.0
  9
$SKPOLY
 70
     0
  9
$TDCREATE
 40
2457668.43858757
  9
$TDUCREATE
 40
2457668.355254236
  9
$TDUPDATE
 40
2457668.438589005
  9
$TDUUPDATE
 40
2457668.355255671
  9
$TDINDWG
 40
0.0000000116
  9
$TDUSRTIMER
 40
0.0000000116
  9
$USRTIMER
 70
     1
  9
$ANGBASE
 50
0.0
  9
$ANGDIR
 70
     0
  9
$PDMODE
 70
     0
  9
$PDSIZE
 40
-1.0
  9
$PLINEWID
 40
0.0
  9
$SPLFRAME
 70
     0
  9
$SPLINETYPE
 70
     6
  9
$SPLINESEGS
 70
     8
  9
$HANDSEED
  5
2CF
  9
$SURFTAB1
 70
     6
  9
$SURFTAB2
 70
     6
  9
$SURFTYPE
 70
     6
  9
$SURFU
 70
     6
  9
$SURFV
 70
     6
  9
$UCSBASE
  2

  9
$UCSNAME
  2

  9
$UCSORG
 10
0.0
 20
0.0
 30
0.0
  9
$UCSXDIR
 10
1.0
 20
0.0
 30
0.0
  9
$UCSYDIR
 10
0.0
 20
1.0
 30
0.0
  9
$UCSORTHOREF
  2

  9
$UCSORTHOVIEW
 70
     0
  9
$UCSORGTOP
 10
0.0
 20
0.0
 30
0.0
  9
$UCSORGBOTTOM
 10
0.0
 20
0.0
 30
0.0
  9
$UCSORGLEFT
 10
0.0
 20
0.0
 30
0.0
  9
$UCSORGRIGHT
 10
0.0
 20
0.0
 30
0.0
  9
$UCSORGFRONT
 10
0.0
 20
0.0
 30
0.0
  9
$UCSORGBACK
 10
0.0
 20
0.0
 30
0.0
  9
$PUCSBASE
  2

  9
$PUCSNAME
  2

  9
$PUCSORG
 10
0.0
 20
0.0
 30
0.0
  9
$PUCSXDIR
 10
1.0
 20
0.0
 30
0.0
  9
$PUCSYDIR
 10
0.0
 20
1.0
 30
0.0
  9
$PUCSORTHOREF
  2

  9
$PUCSORTHOVIEW
 70
     0
  9
$PUCSORGTOP
 10
0.0
 20
0.0
 30
0.0
  9
$PUCSORGBOTTOM
 10
0.0
 20
0.0
 30
0.0
  9
$PUCSORGLEFT
 10
0.0
 20
0.0
 30
0.0
  9
$PUCSORGRIGHT
 10
0.0
 20
0.0
 30
0.0
  9
$PUCSORGFRONT
 10
0.0
 20
0.0
 30
0.0
  9
$PUCSORGBACK
 10
0.0
 20
0.0
 30
0.0
  9
$USERI1
 70
     0
  9
$USERI2
 70
     0
  9
$USERI3
 70
     0
  9
$USERI4
 70
     0
  9
$USERI5
 70
     0
  9
$USERR1
 40
0.0
  9
$USERR2
 40
0.0
  9
$USERR3
 40
0.0
  9
$USERR4
 40
0.0
  9
$USERR5
 40
0.0
  9
$WORLDVIEW
 70
     1
  9
$SHADEDGE
 70
     3
  9
$SHADEDIF
 70
    70
  9
$TILEMODE
 70
     1
  9
$MAXACTVP
 70
    64
  9
$PINSBASE
 10
0.0
 20
0.0
 30
0.0
  9
$PLIMCHECK
 70
     0
  9
$PEXTMIN
 10
1.0000000000E+20
 20
1.0000000000E+20
 30
1.0000000000E+20
  9
$PEXTMAX
 10
-1.0000000000E+20
 20
-1.0000000000E+20
 30
-1.0000000000E+20
  9
$PLIMMIN
 10
0.0
 20
0.0
  9
$PLIMMAX
 10
420.0
 20
297.0
  9
$UNITMODE
 70
     0
  9
$VISRETAIN
 70
     1
  9
$PLINEGEN
 70
     0
  9
$PSLTSCALE
 70
     1
  9
$TREEDEPTH
 70
  3020
  9
$CMLSTYLE
  2
Standard
  9
$CMLJUST
 70
     0
  9
$CMLSCALE
 40
20.0
  9
$PROXYGRAPHICS
 70
     1
  9
$MEASUREMENT
 70
     1
  9
$CELWEIGHT
370
    -1
  9
$ENDCAPS
280
     0
  9
$JOINSTYLE
280
     0
  9
$LWDISPLAY
290
     1
  9
$INSUNITS
 70
     4
  9
$HYPERLINKBASE
  1

  9
$STYLESHEET
  1

  9
$XEDIT
290
     1
  9
$CEPSNTYPE
380
     0
  9
$PSTYLEMODE
290
     1
  9
$FINGERPRINTGUID
  2
{A2280A2A-0F57-493B-8644-B50FEA32D579}
  9
$VERSIONGUID
  2
{FAEB1C32-E019-11D5-929B-00C0DF256EC4}
  9
$EXTNAMES
290
     1
  9
$PSVPSCALE
 40
0.0
  9
$OLESTARTUP
290
     0
  0
ENDSEC
  0
SECTION
  2
CLASSES
  0
CLASS
  1
ACDBDICTIONARYWDFLT
  2
AcDbDictionaryWithDefault
  3
ObjectDBX Classes
 90
        0
280
     0
281
     0
  0
CLASS
  1
VISUALSTYLE
  2
AcDbVisualStyle
  3
ObjectDBX Classes
 90
     4095
280
     0
281
     0
  0
CLASS
  1
MATERIAL
  2
AcDbMaterial
  3
ObjectDBX Classes
 90
     1153
280
     0
281
     0
  0
CLASS
  1
SCALE
  2
AcDbScale
  3
ObjectDBX Classes
 90
     1153
280
     0
281
     0
  0
CLASS
  1
TABLESTYLE
  2
AcDbTableStyle
  3
ObjectDBX Classes
 90
     4095
280
     0
281
     0
  0
CLASS
  1
MLEADERSTYLE
  2
AcDbMLeaderStyle
  3
ACDB_MLEADERSTYLE_CLASS
 90
     4095
280
     0
281
     0
  0
CLASS
  1
SUN
  2
AcDbSun
  3
SCENEOE
 90
     1153
280
     0
281
     0
  0
CLASS
  1
ACDBPLACEHOLDER
  2
AcDbPlaceHolder
  3
ObjectDBX Classes
 90
        0
280
     0
281
     0
  0
CLASS
  1
LAYOUT
  2
AcDbLayout
  3
ObjectDBX Classes
 90
        0
280
     0
281
     0
  0
ENDSEC
  0
SECTION
  2
TABLES
  0
TABLE
  2
VPORT
  5
8
330
0
100
AcDbSymbolTable
 70
     1
  0
VPORT
  5
29
330
8
100
AcDbSymbolTableRecord
100
AcDbViewportTableRecord
  2
*Active
 70
     0
 10
0.0
 20
0.0
 11
1.0
 21
1.0
 12
148.5
 22
105.0
 13
0.0
 23
0.0
 14
10.0
 24
10.0
 15
10.0
 25
10.0
 16
0.0
 26
0.0
 36
1.0
 17
0.0
 27
0.0
 37
0.0
 40
210.0
 41
1.4142857143
 42
50.0
 43
0.0
 44
0.0
 50
0.0
 51
0.0
 71
     0
 72
  2000
 73
     1
 74
     3
 75
     0
 76
     0
 77
     0
 78
     0
281
     0
 65
     1
110
0.0
120
0.0
130
0.0
111
1.0
121
0.0
131
0.0
112
0.0
122
1.0
132
0.0
 79
     0
146
0.0
  0
ENDTAB
  0
TABLE
  2
LTYPE
  5
5
330
0
100
AcDbSymbolTable
 70
     6
  0
LTYPE
  5
14
330
5
100
AcDbSymbolTableRecord
100
AcDbLinetypeTableRecord
  2
ByBlock
 70
     0
  3

 72
    65
 73
     0
 40
0.0
  0
LTYPE
  5
15
330
5
100
AcDbSymbolTableRecord
100
AcDbLinetypeTableRecord
  2
ByLayer
 70
     0
  3

 72
    65
 73
     0
 40
0.0
  0
LTYPE
  5
16
330
5
100
AcDbSymbolTableRecord
100
AcDbLinetypeTableRecord
  2
Continuous
 70
     0
  3
Solid line
 72
    65
 73
     0
 40
0.0
  0
LTYPE
  5
6E
330
5
100
AcDbSymbolTableRecord
100
AcDbLinetypeTableRecord
  2
HIDDEN
 70
     0
  3
Hidden __ __ __ __ __ __ __ __ __ __ __ __ __ __
 72
    65
 73
     2
 40
1.905
 49
1.27
 74
     0
 49
-0.635
 74
     0
  0
LTYPE
  5
6F
330
5
100
AcDbSymbolTableRecord
100
AcDbLinetypeTableRecord
  2
PHANTOM
 70
     0
  3
Phantom ______  __  __  ______  __  __  ______
 72
    65
 73
     6
 40
12.7
 49
6.35
 74
     0
 49
-1.27
 74
     0
 49
1.27
 74
     0
 49
-1.27
 74
     0
 49
1.27
 74
     0
 49
-1.27
 74
     0
  0
LTYPE
  5
70
330
5
100
AcDbSymbolTableRecord
100
AcDbLinetypeTableRecord
  2
CENTER
 70
     0
  3
Center ____ _ ____ _ ____ _ ____ _ ____ _ ____
 72
    65
 73
     4
 40
10.16
 49
6.35
 74
     0
 49
-1.27
 74
     0
 49
1.27
 74
     0
 49
-1.27
 74
     0
  0
LTYPE
  5
71
330
5
100
AcDbSymbolTableRecord
100
AcDbLinetypeTableRecord
  2
CENTERX2
 70
     0
  3
Center (2x) ________  __  ________  __  _____
 72
    65
 73
     4
 40
20.32
 49
12.7
 74
     0
 49
-2.54
 74
     0
 49
2.54
 74
     0
 49
-2.54
 74
     0
  0
LTYPE
  5
72
330
5
100
AcDbSymbolTableRecord
100
AcDbLinetypeTableRecord
  2
DOT2
 70
     0
  3
Dot (.5x) ........................................
 72
    65
 73
     2
 40
0.635
 49
0.0
 74
     0
 49
-0.635
 74
     0
  0
ENDTAB
  0
TABLE
  2
LAYER
  5
2
330
0
100
AcDbSymbolTable
 70
     5
  0
LAYER
  5
10
330
2
100
AcDbSymbolTableRecord
100
AcDbLayerTableRecord
  2
0
 70
     0
 62
     7
  6
Continuous
370
    -3
390
F
  0
LAYER
  5
73
330
2
100
AcDbSymbolTableRecord
100
AcDbLayerTableRecord
  2
FORMAT
 70
     0
 62
     7
  6
Continuous
370
    -3
390
F
  0
LAYER
  5
74
330
2
100
AcDbSymbolTableRecord
100
AcDbLayerTableRecord
  2
VERMASSUNG
 70
     0
 62
     7
  6
Continuous
370
    -3
390
F
  0
LAYER
  5
75
330
2
100
AcDbSymbolTableRecord
100
AcDbLayerTableRecord
  2
KOPF_DÜNN
 70
     0
 62
     7
  6
Continuous
370
    -3
390
F
  0
LAYER
  5
76
330
2
100
AcDbSymbolTableRecord
100
AcDbLayerTableRecord
  2
KOPF_DICK
 70
     0
 62
     7
  6
Continuous
370
    15
390
F
  0
ENDTAB
  0
TABLE
  2
STYLE
  5
3
330
0
100
AcDbSymbolTable
 70
     2
  0
STYLE
  5
11
330
3
100
AcDbSymbolTableRecord
100
AcDbTextStyleTableRecord
  2
Standard
 70
     0
 40
0.0
 41
1.0
 50
0.0
 71
     0
 42
2.0
  3
txt
  4

  0
STYLE
  5
77
330
3
100
AcDbSymbolTableRecord
100
AcDbTextStyleTableRecord
  2
SLDTEXTSTYLE0
 70
     0
 40
0.0
 41
0.7
 50
0.0
 71
     0
 42
2.0
  3
TXT
  4

  0
ENDTAB
  0
TABLE
  2
VIEW
  5
6
330
0
100
AcDbSymbolTable
 70
     0
  0
ENDTAB
  0
TABLE
  2
UCS
  5
7
330
0
100
AcDbSymbolTable
 70
     0
  0
ENDTAB
  0
TABLE
  2
APPID
  5
9
330
0
100
AcDbSymbolTable
 70
     1
  0
APPID
  5
12
330
9
100
AcDbSymbolTableRecord
100
AcDbRegAppTableRecord
  2
ACAD
 70
     0
  0
ENDTAB
  0
TABLE
  2
DIMSTYLE
  5
A
330
0
100
AcDbSymbolTable
 70
     2
100
AcDbDimStyleTable
  0
DIMSTYLE
105
27
330
A
100
AcDbSymbolTableRecord
100
AcDbDimStyleTableRecord
  2
ISO-25
 70
     0
 41
2.5
 42
0.625
 43
3.75
 44
1.25
 73
     0
 74
     0
 77
     1
 78
     8
140
2.5
141
2.5
143
0.0393700787
147
0.625
171
     3
172
     1
178
     0
271
     2
272
     2
274
     3
278
    44
283
     0
284
     8
340
11
  0
DIMSTYLE
105
1CB
102
{ACAD_REACTORS
330
1CA
330
1D7
330
1E2
330
1EE
330
1F8
330
204
102
}
330
A
100
AcDbSymbolTableRecord
100
AcDbDimStyleTableRecord
  2
SLDDIMSTYLE0
 70
     0
 41
3.0
 44
0.0
 45
0.000000001
 73
     0
 74
     0
 77
     1
 78
    12
 79
     3
140
2.0
147
0.5
173
     1
178
     0
271
     2
272
     3
276
     2
284
    12
340
77
  0
ENDTAB
  0
TABLE
  2
BLOCK_RECORD
  5
1
330
0
100
AcDbSymbolTable
 70
     7
  0
BLOCK_RECORD
  5
1F
330
1
100
AcDbSymbolTableRecord
100
AcDbBlockTableRecord
  2
*Model_Space
340
22
  0
BLOCK_RECORD
  5
1B
330
1
100
AcDbSymbolTableRecord
100
AcDbBlockTableRecord
  2
*Paper_Space
340
1E
  0
BLOCK_RECORD
  5
23
330
1
100
AcDbSymbolTableRecord
100
AcDbBlockTableRecord
  2
*Paper_Space0
340
26
  0
BLOCK_RECORD
  5
1CC
330
1
100
AcDbSymbolTableRecord
100
AcDbBlockTableRecord
  2
_D
340
0
  0
BLOCK_RECORD
  5
1D8
330
1
100
AcDbSymbolTableRecord
100
AcDbBlockTableRecord
  2
_D_1
340
0
  0
BLOCK_RECORD
  5
1E3
330
1
100
AcDbSymbolTableRecord
100
AcDbBlockTableRecord
  2
_D_2
340
0
  0
BLOCK_RECORD
  5
1EF
330
1
100
AcDbSymbolTableRecord
100
AcDbBlockTableRecord
  2
_D_3
340
0
  0
BLOCK_RECORD
  5
1F9
330
1
100
AcDbSymbolTableRecord
100
AcDbBlockTableRecord
  2
_D_4
340
0
  0
BLOCK_RECORD
  5
205
330
1
100
AcDbSymbolTableRecord
100
AcDbBlockTableRecord
  2
_D_5
340
0
  0
ENDTAB
  0
ENDSEC
  0
SECTION
  2
BLOCKS
  0
BLOCK
  5
20
330
1F
100
AcDbEntity
  8
0
100
AcDbBlockBegin
  2
*Model_Space
 70
     0
 10
0.0
 20
0.0
 30
0.0
  3
*Model_Space
  1

  0
ENDBLK
  5
21
330
1F
100
AcDbEntity
  8
0
100
AcDbBlockEnd
  0
BLOCK
  5
1C
330
1B
100
AcDbEntity
 67
     1
  8
0
100
AcDbBlockBegin
  2
*Paper_Space
 70
     0
 10
0.0
 20
0.0
 30
0.0
  3
*Paper_Space
  1

  0
ENDBLK
  5
1D
330
1B
100
AcDbEntity
 67
     1
  8
0
100
AcDbBlockEnd
  0
BLOCK
  5
24
330
23
100
AcDbEntity
  8
0
100
AcDbBlockBegin
  2
*Paper_Space0
 70
     0
 10
0.0
 20
0.0
 30
0.0
  3
*Paper_Space0
  1

  0
ENDBLK
  5
25
330
23
100
AcDbEntity
  8
0
100
AcDbBlockEnd
  0
BLOCK
  5
1CD
330
1CC
100
AcDbEntity
  8
0
100
AcDbBlockBegin
  2
_D
 70
     0
 10
0.0
 20
0.0
 30
0.0
  3
_D
  1

  0
SOLID
  5
1CF
330
1CC
100
AcDbEntity
  8
VERMASSUNG
100
AcDbTrace
 10
63.3030800821
 20
57.1921203444
 30
0.0
 11
63.7530800821
 21
60.1921203444
 31
0.0
 12
62.8530800821
 22
60.1921203444
 32
0.0
 13
62.8530800821
 23
60.1921203444
 33
0.0
  0
SOLID
  5
1D0
330
1CC
100
AcDbEntity
  8
VERMASSUNG
100
AcDbTrace
 10
63.3030800821
 20
154.6421203444
 30
0.0
 11
62.8530800821
 21
151.6421203444
 31
0.0
 12
63.7530800821
 22
151.6421203444
 32
0.0
 13
63.7530800821
 23
151.6421203444
 33
0.0
  0
LINE
  5
1D1
330
1CC
100
AcDbEntity
  8
VERMASSUNG
100
AcDbLine
 10
189.6597235046
 20
57.1921203444
 30
0.0
 11
62.3030800821
 21
57.1921203444
 31
0.0
  0
LINE
  5
1D2
330
1CC
100
AcDbEntity
  8
VERMASSUNG
100
AcDbLine
 10
189.6597235046
 20
154.6421203444
 30
0.0
 11
62.3030800821
 21
154.6421203444
 31
0.0
  0
LINE
  5
1D3
330
1CC
100
AcDbEntity
  8
VERMASSUNG
100
AcDbLine
 10
63.3030800821
 20
57.1921203444
 30
0.0
 11
63.3030800821
 21
154.6421203444
 31
0.0
  0
MTEXT
  5
1D4
330
1CC
100
AcDbEntity
  8
VERMASSUNG
100
AcDbMText
 10
60.5249448259
 20
96.4126847111
 30
0.0
 40
2.0
 41
0.0
 71
     1
 72
     1
  1
ISO 50
  7
SLDTEXTSTYLE0
 11
3.391901413832837E-15
 21
1.0
 31
0.0
 73
     1
 44
1.0
  0
MTEXT
  5
1D5
330
1CC
100
AcDbEntity
  8
VERMASSUNG
100
AcDbMText
 10
60.7249447772
 20
105.4126843236
 30
0.0
 40
2.0
 41
0.0
 71
     1
 72
     1
  1
%%c
  7
SLDTEXTSTYLE0
 11
3.391901413832837E-15
 21
1.0
 31
0.0
 73
     1
 44
1.0
  0
MTEXT
  5
1D6
330
1CC
100
AcDbEntity
  8
VERMASSUNG
100
AcDbMText
 10
60.7249444862
 20
109.0220276565
 30
0.0
 40
2.0
 41
0.0
 71
     1
 72
     1
  1
97.45
  7
SLDTEXTSTYLE0
 11
3.391901413832837E-15
 21
1.0
 31
0.0
 73
     1
 44
1.0
  0
ENDBLK
  5
1CE
330
1CC
100
AcDbEntity
  8
0
100
AcDbBlockEnd
  0
BLOCK
  5
1D9
330
1D8
100
AcDbEntity
  8
0
100
AcDbBlockBegin
  2
_D_1
 70
     0
 10
0.0
 20
0.0
 30
0.0
  3
_D_1
  1

  0
SOLID
  5
1DB
330
1D8
100
AcDbEntity
  8
VERMASSUNG
100
AcDbTrace
 10
230.6133824384
 20
116.9171203444
 30
0.0
 11
230.1633824384
 21
113.9171203444
 31
0.0
 12
231.0633824384
 22
113.9171203444
 32
0.0
 13
231.0633824384
 23
113.9171203444
 33
0.0
  0
SOLID
  5
1DC
330
1D8
100
AcDbEntity
  8
VERMASSUNG
100
AcDbTrace
 10
230.6133824384
 20
94.9171203444
 30
0.0
 11
231.0633824384
 21
97.9171203444
 31
0.0
 12
230.1633824384
 22
97.9171203444
 32
0.0
 13
230.1633824384
 23
97.9171203444
 33
0.0
  0
LINE
  5
1DD
330
1D8
100
AcDbEntity
  8
VERMASSUNG
100
AcDbLine
 10
213.6097235046
 20
116.9171203444
 30
0.0
 11
231.6133824384
 21
116.9171203444
 31
0.0
  0
LINE
  5
1DE
330
1D8
100
AcDbEntity
  8
VERMASSUNG
100
AcDbLine
 10
213.6097235046
 20
94.9171203444
 30
0.0
 11
231.6133824384
 21
94.9171203444
 31
0.0
  0
LINE
  5
1DF
330
1D8
100
AcDbEntity
  8
VERMASSUNG
100
AcDbLine
 10
230.6133824384
 20
116.9171203444
 30
0.0
 11
230.6133824384
 21
94.9171203444
 31
0.0
  0
MTEXT
  5
1E0
330
1D8
100
AcDbEntity
  8
VERMASSUNG
100
AcDbMText
 10
228.0352469006
 20
102.7129442373
 30
0.0
 40
2.0
 41
0.0
 71
     1
 72
     1
  1
%%c
  7
SLDTEXTSTYLE0
 11
-7.044195017643634E-15
 21
1.0
 31
0.0
 73
     1
 44
1.0
  0
MTEXT
  5
1E1
330
1D8
100
AcDbEntity
  8
VERMASSUNG
100
AcDbMText
 10
228.0352468424
 20
106.321916431
 30
0.0
 40
2.0
 41
0.0
 71
     1
 72
     1
  1
22
  7
SLDTEXTSTYLE0
 11
-7.044195017643634E-15
 21
1.0
 31
0.0
 73
     1
 44
1.0
  0
ENDBLK
  5
1DA
330
1D8
100
AcDbEntity
  8
0
100
AcDbBlockEnd
  0
BLOCK
  5
1E4
330
1E3
100
AcDbEntity
  8
0
100
AcDbBlockBegin
  2
_D_2
 70
     0
 10
0.0
 20
0.0
 30
0.0
  3
_D_2
  1

  0
ARC
  5
1E6
330
1E3
100
AcDbEntity
  8
VERMASSUNG
100
AcDbCircle
 10
206.3465170164
 20
162.1472881391
 30
0.0
 40
4.24705993853731
100
AcDbArc
 50
153.4349488229
 51
206.5650511771
  0
ARC
  5
1E7
330
1E3
100
AcDbEntity
  8
VERMASSUNG
100
AcDbCircle
 10
208.1229299927
 20
162.1472881391
 30
0.0
 40
4.24705993853731
100
AcDbArc
 50
333.4349488229
 51
26.5650511771
  0
SOLID
  5
1E8
330
1E3
100
AcDbEntity
  8
VERMASSUNG
100
AcDbTrace
 10
190.2597235046
 20
160.2479451937
 30
0.0
 11
193.2597235046
 21
159.7979451937
 31
0.0
 12
193.2597235046
 22
160.6979451937
 32
0.0
 13
193.2597235046
 23
160.6979451937
 33
0.0
  0
SOLID
  5
1E9
330
1E3
100
AcDbEntity
  8
VERMASSUNG
100
AcDbTrace
 10
224.2097235046
 20
160.2479451937
 30
0.0
 11
221.2097235046
 21
160.6979451937
 31
0.0
 12
221.2097235046
 22
159.7979451937
 32
0.0
 13
221.2097235046
 23
159.7979451937
 33
0.0
  0
LINE
  5
1EA
330
1E3
100
AcDbEntity
  8
VERMASSUNG
100
AcDbLine
 10
190.2597235046
 20
152.2121072977
 30
0.0
 11
190.2597235046
 21
161.2479451937
 31
0.0
  0
LINE
  5
1EB
330
1E3
100
AcDbEntity
  8
VERMASSUNG
100
AcDbLine
 10
224.2097235046
 20
125.0171203444
 30
0.0
 11
224.2097235046
 21
161.2479451937
 31
0.0
  0
LINE
  5
1EC
330
1E3
100
AcDbEntity
  8
VERMASSUNG
100
AcDbLine
 10
190.2597235046
 20
160.2479451937
 30
0.0
 11
224.2097235046
 21
160.2479451937
 31
0.0
  0
MTEXT
  5
1ED
330
1E3
100
AcDbEntity
  8
VERMASSUNG
100
AcDbMText
 10
204.1353311256
 20
162.8260807896
 30
0.0
 40
2.0
 41
0.0
 71
     1
 72
     1
  1
33.95
  7
SLDTEXTSTYLE0
 73
     1
 44
1.0
  0
ENDBLK
  5
1E5
330
1E3
100
AcDbEntity
  8
0
100
AcDbBlockEnd
  0
BLOCK
  5
1F0
330
1EF
100
AcDbEntity
  8
0
100
AcDbBlockBegin
  2
_D_3
 70
     0
 10
0.0
 20
0.0
 30
0.0
  3
_D_3
  1

  0
SOLID
  5
1F2
330
1EF
100
AcDbEntity
  8
VERMASSUNG
100
AcDbTrace
 10
171.2097235046
 20
166.2479451937
 30
0.0
 11
174.2097235046
 21
165.7979451937
 31
0.0
 12
174.2097235046
 22
166.6979451937
 32
0.0
 13
174.2097235046
 23
166.6979451937
 33
0.0
  0
SOLID
  5
1F3
330
1EF
100
AcDbEntity
  8
VERMASSUNG
100
AcDbTrace
 10
224.2097235046
 20
166.2479451937
 30
0.0
 11
221.2097235046
 21
166.6979451937
 31
0.0
 12
221.2097235046
 22
165.7979451937
 32
0.0
 13
221.2097235046
 23
165.7979451937
 33
0.0
  0
LINE
  5
1F4
330
1EF
100
AcDbEntity
  8
VERMASSUNG
100
AcDbLine
 10
171.2097235046
 20
140.8421203444
 30
0.0
 11
171.2097235046
 21
167.2479451937
 31
0.0
  0
LINE
  5
1F5
330
1EF
100
AcDbEntity
  8
VERMASSUNG
100
AcDbLine
 10
224.2097235046
 20
125.0171203444
 30
0.0
 11
224.2097235046
 21
167.2479451937
 31
0.0
  0
LINE
  5
1F6
330
1EF
100
AcDbEntity
  8
VERMASSUNG
100
AcDbLine
 10
171.2097235046
 20
166.2479451937
 30
0.0
 11
224.2097235046
 21
166.2479451937
 31
0.0
  0
MTEXT
  5
1F7
330
1EF
100
AcDbEntity
  8
VERMASSUNG
100
AcDbMText
 10
196.3100334943
 20
168.8260807896
 30
0.0
 40
2.0
 41
0.0
 71
     1
 72
     1
  1
53
  7
SLDTEXTSTYLE0
 73
     1
 44
1.0
  0
ENDBLK
  5
1F1
330
1EF
100
AcDbEntity
  8
0
100
AcDbBlockEnd
  0
BLOCK
  5
1FA
330
1F9
100
AcDbEntity
  8
0
100
AcDbBlockBegin
  2
_D_4
 70
     0
 10
0.0
 20
0.0
 30
0.0
  3
_D_4
  1

  0
ARC
  5
1FC
330
1F9
100
AcDbEntity
  8
VERMASSUNG
100
AcDbCircle
 10
146.1218887981
 20
174.1472881391
 30
0.0
 40
4.247059938537272
100
AcDbArc
 50
153.4349488229
 51
206.5650511771
  0
ARC
  5
1FD
330
1F9
100
AcDbEntity
  8
VERMASSUNG
100
AcDbCircle
 10
147.697558211
 20
174.1472881391
 30
0.0
 40
4.247059938537323
100
AcDbArc
 50
333.4349488229
 51
26.5650511771
  0
SOLID
  5
1FE
330
1F9
100
AcDbEntity
  8
VERMASSUNG
100
AcDbTrace
 10
69.6097235046
 20
172.2479451937
 30
0.0
 11
72.6097235046
 21
171.7979451937
 31
0.0
 12
72.6097235046
 22
172.6979451937
 32
0.0
 13
72.6097235046
 23
172.6979451937
 33
0.0
  0
SOLID
  5
1FF
330
1F9
100
AcDbEntity
  8
VERMASSUNG
100
AcDbTrace
 10
224.2097235046
 20
172.2479451937
 30
0.0
 11
221.2097235046
 21
172.6979451937
 31
0.0
 12
221.2097235046
 22
171.7979451937
 32
0.0
 13
221.2097235046
 23
171.7979451937
 33
0.0
  0
LINE
  5
200
330
1F9
100
AcDbEntity
  8
VERMASSUNG
100
AcDbLine
 10
69.6097235046
 20
124.2959648718
 30
0.0
 11
69.6097235046
 21
173.2479451937
 31
0.0
  0
LINE
  5
201
330
1F9
100
AcDbEntity
  8
VERMASSUNG
100
AcDbLine
 10
224.2097235046
 20
125.0171203444
 30
0.0
 11
224.2097235046
 21
173.2479451937
 31
0.0
  0
LINE
  5
202
330
1F9
100
AcDbEntity
  8
VERMASSUNG
100
AcDbLine
 10
69.6097235046
 20
172.2479451937
 30
0.0
 11
224.2097235046
 21
172.2479451937
 31
0.0
  0
MTEXT
  5
203
330
1F9
100
AcDbEntity
  8
VERMASSUNG
100
AcDbMText
 10
143.9107029072
 20
174.8260807896
 30
0.0
 40
2.0
 41
0.0
 71
     1
 72
     1
  1
154.6
  7
SLDTEXTSTYLE0
 73
     1
 44
1.0
  0
ENDBLK
  5
1FB
330
1F9
100
AcDbEntity
  8
0
100
AcDbBlockEnd
  0
BLOCK
  5
206
330
205
100
AcDbEntity
  8
0
100
AcDbBlockBegin
  2
_D_5
 70
     0
 10
0.0
 20
0.0
 30
0.0
  3
_D_5
  1

  0
SOLID
  5
208
330
205
100
AcDbEntity
  8
VERMASSUNG
100
AcDbTrace
 10
236.6133824384
 20
125.4171203444
 30
0.0
 11
236.1633824384
 21
122.4171203444
 31
0.0
 12
237.0633824384
 22
122.4171203444
 32
0.0
 13
237.0633824384
 23
122.4171203444
 33
0.0
  0
SOLID
  5
209
330
205
100
AcDbEntity
  8
VERMASSUNG
100
AcDbTrace
 10
236.6133824384
 20
86.4171203444
 30
0.0
 11
237.0633824384
 21
89.4171203444
 31
0.0
 12
236.1633824384
 22
89.4171203444
 32
0.0
 13
236.1633824384
 23
89.4171203444
 33
0.0
  0
LINE
  5
20A
330
205
100
AcDbEntity
  8
VERMASSUNG
100
AcDbLine
 10
223.8097235046
 20
125.4171203444
 30
0.0
 11
237.6133824384
 21
125.4171203444
 31
0.0
  0
LINE
  5
20B
330
205
100
AcDbEntity
  8
VERMASSUNG
100
AcDbLine
 10
223.8097235046
 20
86.4171203444
 30
0.0
 11
237.6133824384
 21
86.4171203444
 31
0.0
  0
LINE
  5
20C
330
205
100
AcDbEntity
  8
VERMASSUNG
100
AcDbLine
 10
236.6133824384
 20
125.4171203444
 30
0.0
 11
236.6133824384
 21
86.4171203444
 31
0.0
  0
MTEXT
  5
20D
330
205
100
AcDbEntity
  8
VERMASSUNG
100
AcDbMText
 10
233.8352471821
 20
99.7121203611
 30
0.0
 40
2.0
 41
0.0
 71
     1
 72
     1
  1
ST4
  7
SLDTEXTSTYLE0
 11
-7.044195017643634E-15
 21
1.0
 31
0.0
 73
     1
 44
1.0
  0
MTEXT
  5
20E
330
205
100
AcDbEntity
  8
VERMASSUNG
100
AcDbMText
 10
234.0352471334
 20
105.7121204133
 30
0.0
 40
2.0
 41
0.0
 71
     1
 72
     1
  1
%%c
  7
SLDTEXTSTYLE0
 11
-7.044195017643634E-15
 21
1.0
 31
0.0
 73
     1
 44
1.0
  0
MTEXT
  5
20F
330
205
100
AcDbEntity
  8
VERMASSUNG
100
AcDbMText
 10
233.8352471821
 20
109.3221204276
 30
0.0
 40
2.0
 41
0.0
 71
     1
 72
     1
  1
39
  7
SLDTEXTSTYLE0
 11
-7.044195017643634E-15
 21
1.0
 31
0.0
 73
     1
 44
1.0
  0
ENDBLK
  5
207
330
205
100
AcDbEntity
  8
0
100
AcDbBlockEnd
  0
ENDSEC
  0
SECTION
  2
ENTITIES
  0
MTEXT
  5
78
330
1F
100
AcDbEntity
  8
KOPF_DÜNN
100
AcDbMText
 10
13.8892156294
 20
23.8442973028
 30
0.0
 40
3.0
 41
0.0
 71
     1
 72
     1
  1
124.450.039.053
  7
SLDTEXTSTYLE0
 73
     1
 44
1.0
  0
MTEXT
  5
79
330
1F
100
AcDbEntity
  8
VERMASSUNG
100
AcDbMText
 10
13.9329988022
 20
28.8834360957
 30
0.0
 40
3.0
 41
0.0
 71
     1
 72
     1
  1
Aufnahme_Master shank ST4
  7
SLDTEXTSTYLE0
 73
     1
 44
1.0
  0
MTEXT
  5
7A
330
1F
100
AcDbEntity
  8
VERMASSUNG
100
AcDbMText
 10
98.8601118557
 20
13.8365368761
 30
0.0
 40
2.0
 41
0.0
 71
     1
 72
     1
  1
Datum: 14.05.2008
  7
SLDTEXTSTYLE0
 73
     1
 44
1.0
  0
MTEXT
  5
7B
330
1F
100
AcDbEntity
  8
VERMASSUNG
100
AcDbMText
 10
13.933048693
 20
18.0482802738
 30
0.0
 40
2.0
 41
0.0
 71
     1
 72
     1
  1
DIN 69871 B ISO 50
  7
SLDTEXTSTYLE0
 73
     1
 44
1.0
  0
MTEXT
  5
7C
330
1F
100
AcDbEntity
  8
VERMASSUNG
100
AcDbMText
 10
13.9808475933
 20
13.9090974274
 30
0.0
 40
2.0
 41
0.0
 71
     1
 72
     1
  1
Gewicht: 2873g
  7
SLDTEXTSTYLE0
 73
     1
 44
1.0
  0
ARC
  5
7D
330
1F
100
AcDbEntity
  8
0
  6
Continuous
 62
     7
370
    15
100
AcDbCircle
 10
173.8097235046
 20
70.3921203444
 30
0.0
 40
0.6000000000000085
100
AcDbArc
 50
0.0
 51
90.0
  0
ARC
  5
7E
330
1F
100
AcDbEntity
  8
0
  6
Continuous
 62
     7
370
    15
100
AcDbCircle
 10
173.8097235046
 20
141.4421203444
 30
0.0
 40
0.5999999999999943
100
AcDbArc
 50
270.0
 51
0.0
  0
LINE
  5
7F
330
1F
100
AcDbEntity
  8
0
  6
Continuous
 62
     7
370
    15
100
AcDbLine
 10
171.2097235046
 20
140.8421192239
 30
0.0
 11
71.3211081944
 21
126.2750308881
 31
0.0
  0
LINE
  5
80
330
1F
100
AcDbEntity
  8
0
  6
Continuous
 62
     7
370
    15
100
AcDbLine
 10
71.3211081944
 20
85.5592098008
 30
0.0
 11
171.2097235046
 21
70.992121465
 31
0.0
  0
LINE
  5
81
330
1F
100
AcDbEntity
  8
0
  6
Continuous
 62
     7
370
    15
100
AcDbLine
 10
171.2097235046
 20
70.992121465
 30
0.0
 11
173.8097235116
 21
70.992121465
 31
0.0
  0
LINE
  5
82
330
1F
100
AcDbEntity
  8
0
  6
Continuous
 62
     7
370
    15
100
AcDbLine
 10
173.8097235116
 20
140.8421192239
 30
0.0
 11
171.2097235046
 21
140.8421192239
 31
0.0
  0
ARC
  5
83
330
1F
100
AcDbEntity
  8
0
  6
Continuous
 62
     7
370
    15
100
AcDbCircle
 10
194.2597235046
 20
82.4171203444
 30
0.0
 40
4.0
100
AcDbArc
 50
90.0
 51
180.0
  0
ARC
  5
84
330
1F
100
AcDbEntity
  8
0
  6
Continuous
 62
     7
370
    15
100
AcDbCircle
 10
194.2597235046
 20
129.4171203444
 30
0.0
 40
3.999999999999972
100
AcDbArc
 50
180.0
 51
270.0
  0
ARC
  5
85
330
1F
100
AcDbEntity
  8
0
  6
Continuous
 62
     7
370
    15
100
AcDbCircle
 10
71.6097235046
 20
87.5382758171
 30
0.0
 40
1.999999999999992
100
AcDbArc
 50
180.0
 51
261.7028550302
  0
ARC
  5
86
330
1F
100
AcDbEntity
  8
0
  6
Continuous
 62
     7
370
    15
100
AcDbCircle
 10
71.6097235046
 20
124.2959648718
 30
0.0
 40
2.000000000000006
100
AcDbArc
 50
98.2971449698
 51
180.0
  0
LINE
  5
87
330
1F
100
AcDbEntity
  8
0
  6
Continuous
 62
     7
370
    15
100
AcDbLine
 10
223.8097235582
 20
86.4171199421
 30
0.0
 11
224.2097228787
 21
86.8171211253
 31
0.0
  0
LINE
  5
88
330
1F
100
AcDbEntity
  8
0
  6
Continuous
 62
     7
370
    15
100
AcDbLine
 10
224.2097228787
 20
125.0171195636
 30
0.0
 11
223.8097235582
 21
125.4171207468
 31
0.0
  0
LINE
  5
89
330
1F
100
AcDbEntity
  8
0
  6
Continuous
 62
     7
370
    15
100
AcDbLine
 10
223.8097235582
 20
125.4171207468
 30
0.0
 11
194.2597243956
 21
125.4171207468
 31
0.0
  0
LINE
  5
8A
330
1F
100
AcDbEntity
  8
0
  6
Continuous
 62
     7
370
    15
100
AcDbLine
 10
194.2597243956
 20
86.4171199421
 30
0.0
 11
223.8097235582
 21
86.4171199421
 31
0.0
  0
ARC
  5
8B
330
1F
100
AcDbEntity
  8
0
  6
Continuous
 62
     7
370
    15
100
AcDbCircle
 10
185.4097235046
 20
91.4513783825
 30
0.0
 40
2.000000000000011
100
AcDbArc
 50
266.3335956693
 51
340.3974965375
  0
ARC
  5
8C
330
1F
100
AcDbEntity
  8
0
  6
Continuous
 62
     7
370
    15
100
AcDbCircle
 10
185.4097235046
 20
91.4513783825
 30
0.0
 40
2.000000000000008
100
AcDbArc
 50
192.2156859341
 51
266.3335956693
  0
SPLINE
  5
8D
330
1F
100
AcDbEntity
  8
0
  6
Continuous
 62
     7
370
    15
100
AcDbSpline
210
0.0
220
0.0
230
1.0
 70
     8
 71
     3
 72
    11
 73
     7
 74
     0
 42
0.000000001
 43
0.00000001
 40
0.0
 40
0.0
 40
0.0
 40
0.0
 40
0.1285568801728479
 40
0.4801540739257415
 40
0.8150690357487625
 40
1.0
 40
1.0
 40
1.0
 40
1.0
 10
211.888910087119
 20
106.3375340811665
 30
0.0
 10
211.9493004395082
 20
106.4082683624984
 30
0.0
 10
212.1748556465612
 20
106.6724576715581
 30
0.0
 10
212.5978122769104
 20
107.1678756644822
 30
0.0
 10
213.0557869179434
 20
107.7043084932698
 30
0.0
 10
213.3011282884215
 20
107.9916783310475
 30
0.0
 10
213.3884064874753
 20
108.0939078158456
 30
0.0
  0
SPLINE
  5
8E
330
1F
100
AcDbEntity
  8
0
  6
Continuous
 62
     7
370
    15
100
AcDbSpline
210
0.0
220
0.0
230
1.0
 70
     8
 71
     3
 72
    10
 73
     6
 74
     0
 42
0.000000001
 43
0.00000001
 40
0.0
 40
0.0
 40
0.0
 40
0.0
 40
0.4391221392211182
 40
0.7513709328897477
 40
1.0
 40
1.0
 40
1.0
 40
1.0
 10
212.6602277181252
 20
104.1607466679755
 30
0.0
 10
212.5498057366615
 20
104.4723747268834
 30
0.0
 10
212.3608654400709
 20
105.0055937209237
 30
0.0
 10
212.086215909257
 20
105.7807185024182
 30
0.0
 10
211.9495098927581
 20
106.1665157326792
 30
0.0
 10
211.888910087119
 20
106.3375340811665
 30
0.0
  0
SPLINE
  5
8F
330
1F
100
AcDbEntity
  8
0
  6
Continuous
 62
     7
370
    15
100
AcDbSpline
210
0.0
220
0.0
230
1.0
 70
     8
 71
     3
 72
    10
 73
     6
 74
     0
 42
0.000000001
 43
0.00000001
 40
0.0
 40
0.0
 40
0.0
 40
0.0
 40
0.4391226356333722
 40
0.7513711098272614
 40
1.0
 40
1.0
 40
1.0
 40
1.0
 10
214.9310417494878
 20
103.7403328730482
 30
0.0
 10
214.6059522817754
 20
103.8005190853886
 30
0.0
 10
214.0497003049311
 20
103.9035021190398
 30
0.0
 10
213.2410962348559
 20
104.0532060914011
 30
0.0
 10
212.8386336215277
 20
104.1277170353417
 30
0.0
 10
212.6602277181252
 20
104.1607466679755
 30
0.0
  0
SPLINE
  5
90
330
1F
100
AcDbEntity
  8
0
  6
Continuous
 62
     7
370
    15
100
AcDbSpline
210
0.0
220
0.0
230
1.0
 70
     8
 71
     3
 72
    11
 73
     7
 74
     0
 42
0.000000001
 43
0.00000001
 40
0.0
 40
0.0
 40
0.0
 40
0.0
 40
0.1849311164576204
 40
0.5198464209199666
 40
0.8714439362484115
 40
1.0
 40
1.0
 40
1.0
 40
1.0
 10
216.4305344245538
 20
105.4967066077272
 30
0.0
 10
216.3432561988466
 20
105.3944771598091
 30
0.0
 10
216.0979147218295
 20
105.1071073886703
 30
0.0
 10
215.6399409562314
 20
104.5706739710345
 30
0.0
 10
215.216982096248
 20
104.0752581702666
 30
0.0
 10
214.9914307475596
 20
103.8110672180159
 30
0.0
 10
214.9310417494878
 20
103.7403328730482
 30
0.0
  0
SPLINE
  5
91
330
1F
100
AcDbEntity
  8
0
  6
Continuous
 62
     7
370
    15
100
AcDbSpline
210
0.0
220
0.0
230
1.0
 70
     8
 71
     3
 72
    10
 73
     6
 74
     0
 42
0.000000001
 43
0.00000001
 40
0.0
 40
0.0
 40
0.0
 40
0.0
 40
0.4391221244117927
 40
0.751371422507941
 40
1.0
 40
1.0
 40
1.0
 40
1.0
 10
215.6592167935475
 20
107.6734940209183
 30
0.0
 10
215.7696379877897
 20
107.3618656952798
 30
0.0
 10
215.958577066876
 20
106.8286458793974
 30
0.0
 10
216.2332340325525
 20
106.0535235374921
 30
0.0
 10
216.3699363704984
 20
105.6677251346879
 30
0.0
 10
216.4305344245538
 20
105.4967066077272
 30
0.0
  0
SPLINE
  5
92
330
1F
100
AcDbEntity
  8
0
  6
Continuous
 62
     7
370
    15
100
AcDbSpline
210
0.0
220
0.0
230
1.0
 70
     8
 71
     3
 72
    10
 73
     6
 74
     0
 42
0.000000001
 43
0.00000001
 40
0.0
 40
0.0
 40
0.0
 40
0.0
 40
0.4391217728154719
 40
0.7513721881462541
 40
1.0
 40
1.0
 40
1.0
 40
1.0
 10
213.3884064874753
 20
108.0939078158456
 30
0.0
 10
213.7134946339483
 20
108.0337213836735
 30
0.0
 10
214.2697462413095
 20
107.9307376237294
 30
0.0
 10
215.0783500526021
 20
107.7810353833981
 30
0.0
 10
215.480812161815
 20
107.7065237604727
 30
0.0
 10
215.6592167935475
 20
107.6734940209183
 30
0.0
  0
CIRCLE
  5
93
330
1F
100
AcDbEntity
  8
0
  6
Continuous
 62
     7
370
    15
100
AcDbCircle
 10
214.1597235046
 20
105.9171203444
 30
0.0
 40
2.400000000000011
  0
CIRCLE
  5
94
330
1F
100
AcDbEntity
  8
0
  6
Continuous
 62
     7
370
    15
100
AcDbCircle
 10
214.1597235046
 20
105.9171203444
 30
0.0
 40
3.620000000000007
  0
CIRCLE
  5
95
330
1F
100
AcDbEntity
  8
0
  6
Continuous
 62
     7
370
    15
100
AcDbCircle
 10
214.1597235046
 20
105.9171203444
 30
0.0
 40
4.000000000000001
  0
ARC
  5
96
330
1F
100
AcDbEntity
  8
0
  6
Continuous
 62
     7
370
    15
100
AcDbCircle
 10
214.1597235046
 20
105.9171203444
 30
0.0
 40
2.00000000000002
100
AcDbArc
 50
79.5111321707
 51
139.5111321707
  0
ARC
  5
97
330
1F
100
AcDbEntity
  8
0
  6
Continuous
 62
     7
370
    15
100
AcDbCircle
 10
214.1597235046
 20
105.9171203444
 30
0.0
 40
1.999999999999981
100
AcDbArc
 50
259.5111321707
 51
319.5111321707
  0
ARC
  5
98
330
1F
100
AcDbEntity
  8
0
  6
Continuous
 62
     7
370
    15
100
AcDbCircle
 10
214.1597235046
 20
105.9171203444
 30
0.0
 40
2.000000000000012
100
AcDbArc
 50
199.5111321707
 51
259.5111321707
  0
ARC
  5
99
330
1F
100
AcDbEntity
  8
0
  6
Continuous
 62
     7
370
    15
100
AcDbCircle
 10
214.1597235046
 20
105.9171203444
 30
0.0
 40
1.999999999999986
100
AcDbArc
 50
319.5111321707
 51
19.5111321707
  0
ARC
  5
9A
330
1F
100
AcDbEntity
  8
0
  6
Continuous
 62
     7
370
    15
100
AcDbCircle
 10
214.1597235046
 20
105.9171203444
 30
0.0
 40
2.00000000000002
100
AcDbArc
 50
19.5111321707
 51
79.5111321707
  0
ARC
  5
9B
330
1F
100
AcDbEntity
  8
0
  6
Continuous
 62
     7
370
    15
100
AcDbCircle
 10
214.1597235046
 20
105.9171203444
 30
0.0
 40
2.000000000000012
100
AcDbArc
 50
139.5111321707
 51
199.5111321707
  0
SPLINE
  5
9C
330
1F
100
AcDbEntity
  8
0
  6
Continuous
 62
     7
370
    15
100
AcDbSpline
210
0.0
220
0.0
230
1.0
 70
     8
 71
     3
 72
     8
 73
     4
 74
     0
 42
0.000000001
 43
0.00000001
 40
0.0
 40
0.0
 40
0.0
 40
0.0
 40
1.0
 40
1.0
 40
1.0
 40
1.0
 10
180.3997235045537
 20
61.29738093561713
 30
0.0
 10
180.1099950585291
 20
60.77516092545358
 30
0.0
 10
179.8199699083114
 20
60.2531075431936
 30
0.0
 10
179.5296756740496
 20
59.73120527747049
 30
0.0
  0
SPLINE
  5
9D
330
1F
100
AcDbEntity
  8
0
  6
Continuous
 62
     7
370
    15
100
AcDbSpline
210
0.0
220
0.0
230
1.0
 70
     8
 71
     3
 72
     8
 73
     4
 74
     0
 42
0.000000001
 43
0.00000001
 40
0.0
 40
0.0
 40
0.0
 40
0.0
 40
0.0011862984959112
 40
0.0011862984959112
 40
0.0011862984959112
 40
0.0011862984959112
 10
179.0765619970918
 20
59.18786100310089
 30
0.0
 10
179.2285867589626
 20
59.36877285271887
 30
0.0
 10
179.3796442041784
 20
59.5498851831597
 30
0.0
 10
179.5296756740496
 20
59.73120527747049
 30
0.0
  0
LINE
  5
9E
330
1F
100
AcDbEntity
  8
0
  6
Continuous
 62
     7
370
    15
100
AcDbLine
 10
179.0765624515
 20
59.1878611515
 30
0.0
 11
179.0765624515
 21
135.76712086
 31
0.0
  0
SPLINE
  5
9F
330
1F
100
AcDbEntity
  8
0
  6
Continuous
 62
     7
370
    15
100
AcDbSpline
210
0.0
220
0.0
230
1.0
 70
    24
 71
     3
 72
     8
 73
     4
 74
     0
 42
0.000000001
 43
0.00000001
 40
0.0
 40
0.0
 40
0.0
 40
0.0
 40
1.0
 40
1.0
 40
1.0
 40
1.0
 10
180.3997235045537
 20
135.7671203444469
 30
0.0
 10
179.96452339985
 20
135.7671203444469
 30
0.0
 10
179.5231637171112
 20
135.7671203444469
 30
0.0
 10
179.0765619970918
 20
135.7671203444469
 30
0.0
  0
LINE
  5
A0
330
1F
100
AcDbEntity
  8
0
  6
Continuous
 62
     7
370
    15
100
AcDbLine
 10
180.3997231669
 20
61.2973812888
 30
0.0
 11
180.3997231669
 21
135.76712086
 31
0.0
  0
SPLINE
  5
A1
330
1F
100
AcDbEntity
  8
0
  6
Continuous
 62
     7
370
    15
100
AcDbSpline
210
0.0
220
0.0
230
1.0
 70
     8
 71
     3
 72
    10
 73
     6
 74
     0
 42
0.000000001
 43
0.00000001
 40
0.0
 40
0.0
 40
0.0
 40
0.0
 40
0.5
 40
0.5
 40
1.0
 40
1.0
 40
1.0
 40
1.0
 10
174.6253835357078
 20
59.28366607725465
 30
0.0
 10
174.6740341042874
 20
59.25570908598724
 30
0.0
 10
174.7314193162468
 20
59.23176680096044
 30
0.0
 10
174.8621324244129
 20
59.19764833786473
 30
0.0
 10
174.9348719581514
 20
59.18786100310088
 30
0.0
 10
175.0097235045537
 20
59.18786100310088
 30
0.0
  0
SPLINE
  5
A2
330
1F
100
AcDbEntity
  8
0
  6
Continuous
 62
     7
370
    15
100
AcDbSpline
210
0.0
220
0.0
230
1.0
 70
     8
 71
     3
 72
    10
 73
     6
 74
     0
 42
0.000000001
 43
0.00000001
 40
0.0
 40
0.0
 40
0.0
 40
0.0
 40
0.5
 40
0.5
 40
1.0
 40
1.0
 40
1.0
 40
1.0
 10
174.6253835357078
 20
59.28366607725464
 30
0.0
 10
174.5671955291255
 20
59.35124980743348
 30
0.0
 10
174.5147530625993
 20
59.43172604207522
 30
0.0
 10
174.4364007554206
 20
59.61476166505798
 30
0.0
 10
174.4097235045536
 20
59.7206373678536
 30
0.0
 10
174.4097235045536
 20
59.82815067707422
 30
0.0
  0
LINE
  5
A3
330
1F
100
AcDbEntity
  8
0
  6
Continuous
 62
     7
370
    15
100
AcDbLine
 10
174.4097234237
 20
59.8281491468
 30
0.0
 11
174.4097234237
 21
135.76712086
 31
0.0
  0
SPLINE
  5
A4
330
1F
100
AcDbEntity
  8
0
  6
Continuous
 62
     7
370
    15
100
AcDbSpline
210
0.0
220
0.0
230
1.0
 70
    24
 71
     3
 72
    14
 73
    10
 74
     0
 42
0.000000001
 43
0.00000001
 40
0.0
 40
0.0
 40
0.0
 40
0.0
 40
0.25
 40
0.25
 40
0.5
 40
0.5
 40
0.75
 40
0.75
 40
1.0
 40
1.0
 40
1.0
 40
1.0
 10
175.0097235045537
 20
135.7671203444469
 30
0.0
 10
174.92070155221
 20
135.7671203444469
 30
0.0
 10
174.8310148529364
 20
135.7671203444469
 30
0.0
 10
174.6772880273792
 20
135.7671203444469
 30
0.0
 10
174.6120831327524
 20
135.7671203444469
 30
0.0
 10
174.5094924385819
 20
135.7671203444469
 30
0.0
 10
174.4718549842661
 20
135.7671203444469
 30
0.0
 10
174.4217630688809
 20
135.7671203444469
 30
0.0
 10
174.4097235045537
 20
135.7671203444469
 30
0.0
 10
174.4097235045537
 20
135.7671203444469
 30
0.0
  0
LINE
  5
A5
330
1F
100
AcDbEntity
  8
0
  6
Continuous
 62
     7
370
    15
100
AcDbLine
 10
184.2197233833
 20
92.1198585923
 30
0.0
 11
184.2197233833
 21
135.76712086
 31
0.0
  0
SPLINE
  5
A6
330
1F
100
AcDbEntity
  8
0
  6
Continuous
 62
     7
370
    15
100
AcDbSpline
210
0.0
220
0.0
230
1.0
 70
    24
 71
     3
 72
     8
 73
     4
 74
     0
 42
0.000000001
 43
0.00000001
 40
0.0
 40
0.0
 40
0.0
 40
0.0
 40
1.0
 40
1.0
 40
1.0
 40
1.0
 10
185.5428850120156
 20
135.7671203444469
 30
0.0
 10
185.0962832919962
 20
135.7671203444469
 30
0.0
 10
184.6549236092573
 20
135.7671203444469
 30
0.0
 10
184.2197235045537
 20
135.7671203444469
 30
0.0
  0
LINE
  5
A7
330
1F
100
AcDbEntity
  8
0
  6
Continuous
 62
     7
370
    15
100
AcDbLine
 10
185.54288503
 20
91.619973063
 30
0.0
 11
185.54288503
 21
135.76712086
 31
0.0
  0
SPLINE
  5
A8
330
1F
100
AcDbEntity
  8
0
  6
Continuous
 62
     7
370
    15
100
AcDbSpline
210
0.0
220
0.0
230
1.0
 70
     8
 71
     3
 72
    10
 73
     6
 74
     0
 42
0.000000001
 43
0.00000001
 40
0.0
 40
0.0
 40
0.0
 40
0.0
 40
0.5
 40
0.5
 40
1.0
 40
1.0
 40
1.0
 40
1.0
 10
185.5428850120156
 20
91.6199732793158
 30
0.0
 10
185.3201579851421
 20
91.76346177960956
 30
0.0
 10
185.098472097917
 20
91.87818252534245
 30
0.0
 10
184.6572512600651
 20
92.04794295470033
 30
0.0
 10
184.4376926126662
 20
92.1033629490877
 30
0.0
 10
184.219723504554
 20
92.11985827845736
 30
0.0
  0
SPLINE
  5
A9
330
1F
100
AcDbEntity
  8
0
  6
Continuous
 62
     7
370
    15
100
AcDbSpline
210
0.0
220
0.0
230
1.0
 70
     8
 71
     3
 72
    12
 73
     8
 74
     0
 42
0.000000001
 43
0.00000001
 40
0.0
 40
0.0
 40
0.0
 40
0.0
 40
0.2499999999999972
 40
0.2499999999999972
 40
0.4999999999999944
 40
0.4999999999999944
 40
1.0
 40
1.0
 40
1.0
 40
1.0
 10
189.6597235045537
 20
59.18786100310089
 30
0.0
 10
189.7556962577286
 20
59.18786100310089
 30
0.0
 10
189.848124221883
 20
59.20413432720947
 30
0.0
 10
190.0045543219925
 20
59.25750804920589
 30
0.0
 10
190.0680327467653
 20
59.29363630674022
 30
0.0
 10
190.2163119075925
 20
59.41433750301951
 30
0.0
 10
190.2597235045537
 20
59.50818708938468
 30
0.0
 10
190.2597235045537
 20
59.60249136433189
 30
0.0
  0
SPLINE
  5
AA
330
1F
100
AcDbEntity
  8
0
  6
Continuous
 62
     7
370
    15
100
AcDbSpline
210
0.0
220
0.0
230
1.0
 70
    24
 71
     3
 72
    12
 73
     8
 74
     0
 42
0.000000001
 43
0.00000001
 40
0.0
 40
0.0
 40
0.0
 40
0.0
 40
0.4999999999999972
 40
0.4999999999999972
 40
0.7499999999999986
 40
0.7499999999999986
 40
1.0
 40
1.0
 40
1.0
 40
1.0
 10
190.2597235045537
 20
135.7671203444469
 30
0.0
 10
190.2597235045537
 20
135.7671203444469
 30
0.0
 10
190.2115928161683
 20
135.7671203444469
 30
0.0
 10
190.0576957603653
 20
135.7671203444469
 30
0.0
 10
189.9922311953585
 20
135.7671203444469
 30
0.0
 10
189.8387018747484
 20
135.7671203444469
 30
0.0
 10
189.7503532140125
 20
135.7671203444469
 30
0.0
 10
189.6597235045535
 20
135.7671203444469
 30
0.0
  0
LINE
  5
AB
330
1F
100
AcDbEntity
  8
0
  6
Continuous
 62
     7
370
    15
100
AcDbLine
 10
190.25972374
 20
59.602489687
 30
0.0
 11
190.25972374
 21
135.76712086
 31
0.0
  0
LINE
  5
AC
330
1F
100
AcDbEntity
  8
0
  6
Continuous
 62
     7
370
    15
100
AcDbLine
 10
175.0097235686
 20
59.1878611515
 30
0.0
 11
179.0765624515
 21
59.1878611515
 31
0.0
  0
LINE
  5
AD
330
1F
100
AcDbEntity
  8
0
  6
Continuous
 62
     7
370
    15
100
AcDbLine
 10
179.0765624515
 20
135.76712086
 30
0.0
 11
175.0097235686
 21
135.76712086
 31
0.0
  0
LINE
  5
AE
330
1F
100
AcDbEntity
  8
0
  6
Continuous
 62
     7
370
    15
100
AcDbLine
 10
189.6597228966
 20
135.76712086
 30
0.0
 11
185.54288503
 21
135.76712086
 31
0.0
  0
LINE
  5
AF
330
1F
100
AcDbEntity
  8
0
  6
Continuous
 62
     7
370
    15
100
AcDbLine
 10
185.54288503
 20
59.1878611515
 30
0.0
 11
189.6597228966
 21
59.1878611515
 31
0.0
  0
LINE
  5
B0
330
1F
100
AcDbEntity
  8
0
  6
Continuous
 62
     7
370
    15
100
AcDbLine
 10
185.54288503
 20
59.1878611515
 30
0.0
 11
185.54288503
 21
86.9281794796
 31
0.0
  0
SPLINE
  5
B1
330
1F
100
AcDbEntity
  8
0
  6
Continuous
 62
     7
370
    15
100
AcDbSpline
210
0.0
220
0.0
230
1.0
 70
     8
 71
     3
 72
    34
 73
    30
 74
     0
 42
0.000000001
 43
0.00000001
 40
0.0
 40
0.0
 40
0.0
 40
0.0
 40
0.0624999999999989
 40
0.0624999999999989
 40
0.1249999999999978
 40
0.1249999999999978
 40
0.1874999999999968
 40
0.1874999999999968
 40
0.2499999999999962
 40
0.2499999999999962
 40
0.3124999999999957
 40
0.3124999999999957
 40
0.3749999999999952
 40
0.3749999999999952
 40
0.499999999999995
 40
0.499999999999995
 40
0.6249999999999948
 40
0.6249999999999948
 40
0.6874999999999954
 40
0.6874999999999954
 40
0.749999999999996
 40
0.749999999999996
 40
0.8124999999999966
 40
0.8124999999999966
 40
0.8749999999999977
 40
0.8749999999999977
 40
0.9374999999999989
 40
0.9374999999999989
 40
1.0
 40
1.0
 40
1.0
 40
1.0
 10
185.5428850120156
 20
86.92817995644572
 30
0.0
 10
185.7022768398035
 20
86.9360200523685
 30
0.0
 10
185.858279323247
 20
86.95767870045894
 30
0.0
 10
186.1637888393242
 20
87.02752692795174
 30
0.0
 10
186.3146831743365
 20
87.07635263027998
 30
0.0
 10
186.6025825190273
 20
87.19927658368731
 30
0.0
 10
186.738528921987
 20
87.27258409182161
 30
0.0
 10
186.994711537579
 20
87.44259471559296
 30
0.0
 10
187.1158938253381
 20
87.54046850779443
 30
0.0
 10
187.3330398972109
 20
87.75305268322639
 30
0.0
 10
187.4300017701712
 20
87.86809862175599
 30
0.0
 10
187.6005642059968
 20
88.11595974187611
 30
0.0
 10
187.6738042592087
 20
88.24899323894172
 30
0.0
 10
187.8486847159575
 20
88.65850125507185
 30
0.0
 10
187.9097226769335
 20
88.9564619048469
 30
0.0
 10
187.9097243321566
 20
89.54790346072136
 30
0.0
 10
187.8486897225703
 20
89.84807701069793
 30
0.0
 10
187.6737999551684
 20
90.26330829096572
 30
0.0
 10
187.600556249744
 20
90.39866340921255
 30
0.0
 10
187.4299955340074
 20
90.65156274059919
 30
0.0
 10
187.3330318184138
 20
90.76932801820695
 30
0.0
 10
187.1158714898267
 20
90.98745831357559
 30
0.0
 10
186.9946902311399
 20
91.08816163872255
 30
0.0
 10
186.7385200042011
 20
91.26340533155579
 30
0.0
 10
186.6025766545384
 20
91.3391503006464
 30
0.0
 10
186.3146739513553
 20
91.46631867594866
 30
0.0
 10
186.1637837554385
 20
91.51691994827613
 30
0.0
 10
185.8582782517329
 20
91.58934904802398
 30
0.0
 10
185.7022768534694
 20
91.61183481942095
 30
0.0
 10
185.5428850120156
 20
91.6199732793158
 30
0.0
  0
SPLINE
  5
B2
330
1F
100
AcDbEntity
  8
0
  6
Continuous
 62
     7
370
    15
100
AcDbSpline
210
0.0
220
0.0
230
1.0
 70
     8
 71
     3
 72
    14
 73
    10
 74
     0
 42
0.000000001
 43
0.00000001
 40
0.0
 40
0.0
 40
0.0
 40
0.0
 40
0.25
 40
0.25
 40
0.5
 40
0.5
 40
0.75
 40
0.75
 40
1.0
 40
1.0
 40
1.0
 40
1.0
 10
184.2197235045537
 20
92.16547250046985
 30
0.0
 10
184.2197235045537
 20
92.20744888232339
 30
0.0
 10
184.1900805505825
 20
92.23529926996429
 30
0.0
 10
184.0834257168524
 20
92.24879814525431
 30
0.0
 10
184.0071473222483
 20
92.23418264321661
 30
0.0
 10
183.8390957791817
 20
92.16209343904843
 30
0.0
 10
183.7479759725735
 20
92.10495582856568
 30
0.0
 10
183.5752988603208
 20
91.96272812797443
 30
0.0
 10
183.4943764207927
 20
91.87916430246236
 30
0.0
 10
183.4197235045537
 20
91.78579463056646
 30
0.0
  0
SPLINE
  5
B3
330
1F
100
AcDbEntity
  8
0
  6
Continuous
 62
     7
370
    15
100
AcDbSpline
210
0.0
220
0.0
230
1.0
 70
     8
 71
     3
 72
    10
 73
     6
 74
     0
 42
0.000000001
 43
0.00000001
 40
0.0
 40
0.0
 40
0.0
 40
0.0
 40
0.5
 40
0.5
 40
1.0
 40
1.0
 40
1.0
 40
1.0
 10
184.219723504554
 20
87.9878170798258
 30
0.0
 10
184.4366143370748
 20
87.75077814037726
 30
0.0
 10
184.6557669737336
 20
87.54860790538376
 30
0.0
 10
185.0972514740025
 20
87.19785583386508
 30
0.0
 10
185.3204539392759
 20
87.04917974146822
 30
0.0
 10
185.5428850120156
 20
86.92817995644572
 30
0.0
  0
LINE
  5
B4
330
1F
100
AcDbEntity
  8
0
  6
Continuous
 62
     7
370
    15
100
AcDbLine
 10
184.2197233833
 20
88.033432133
 30
0.0
 11
184.2197233833
 21
87.9878178159
 31
0.0
  0
SPLINE
  5
B5
330
1F
100
AcDbEntity
  8
0
  6
Continuous
 62
     7
370
    15
100
AcDbSpline
210
0.0
220
0.0
230
1.0
 70
     8
 71
     3
 72
    16
 73
    12
 74
     0
 42
0.000000001
 43
0.00000001
 40
0.0
 40
0.0
 40
0.0
 40
0.0
 40
0.2500000000000014
 40
0.2500000000000014
 40
0.5000000000000028
 40
0.5000000000000028
 40
0.6250000000000047
 40
0.6250000000000047
 40
0.7500000000000067
 40
0.7500000000000067
 40
1.0
 40
1.0
 40
1.0
 40
1.0
 10
183.4197235045537
 20
88.94183078751281
 30
0.0
 10
183.4937313947759
 20
88.85148320732716
 30
0.0
 10
183.5743493897648
 20
88.7635236345275
 30
0.0
 10
183.7481173752691
 20
88.58718871046592
 30
0.0
 10
183.8388685062106
 20
88.50158146979992
 30
0.0
 10
183.964981603672
 20
88.38038577377492
 30
0.0
 10
184.0045583645353
 20
88.34185419478408
 30
0.0
 10
184.0770410212365
 20
88.26745820865476
 30
0.0
 10
184.1099690117053
 20
88.23144142073326
 30
0.0
 10
184.1897591817003
 20
88.13268874491625
 30
0.0
 10
184.2197235045537
 20
88.07592474313417
 30
0.0
 10
184.2197235045537
 20
88.0334313018386
 30
0.0
  0
SPLINE
  5
B6
330
1F
100
AcDbEntity
  8
0
  6
Continuous
 62
     7
370
    15
100
AcDbSpline
210
0.0
220
0.0
230
1.0
 70
     8
 71
     3
 72
    16
 73
    12
 74
     0
 42
0.000000001
 43
0.00000001
 40
0.0
 40
0.0
 40
0.0
 40
0.0
 40
0.2500000000000009
 40
0.2500000000000009
 40
0.5000000000000018
 40
0.5000000000000018
 40
0.7500000000000011
 40
0.7500000000000011
 40
0.8750000000000006
 40
0.8750000000000006
 40
1.0
 40
1.0
 40
1.0
 40
1.0
 10
183.4197235045537
 20
91.78579463056647
 30
0.0
 10
183.2543093980735
 20
91.5789083945411
 30
0.0
 10
183.128112067098
 20
91.35303969673234
 30
0.0
 10
182.9537057687671
 20
90.86417045111946
 30
0.0
 10
182.9098757296702
 20
90.61240339777487
 30
0.0
 10
182.9095720567002
 20
90.10062407319253
 30
0.0
 10
182.9534289167605
 20
89.84956936410983
 30
0.0
 10
183.0833506760277
 20
89.48872079596774
 30
0.0
 10
183.1374654874357
 20
89.37144802761918
 30
0.0
 10
183.2641424775792
 20
89.14895907628033
 30
0.0
 10
183.3370161979399
 20
89.04279846803708
 30
0.0
 10
183.4197235045537
 20
88.94183078751281
 30
0.0
  0
SPLINE
  5
B7
330
1F
100
AcDbEntity
  8
0
  6
Continuous
 62
     7
370
    15
100
AcDbSpline
210
0.0
220
0.0
230
1.0
 70
     8
 71
     3
 72
    14
 73
    10
 74
     0
 42
0.000000001
 43
0.00000001
 40
0.0
 40
0.0
 40
0.0
 40
0.0
 40
0.25
 40
0.25
 40
0.5
 40
0.5
 40
0.75
 40
0.75
 40
1.0
 40
1.0
 40
1.0
 40
1.0
 10
181.1997235045537
 20
62.26935407857712
 30
0.0
 10
181.0932784966444
 20
62.26935407857712
 30
0.0
 10
180.9863797453709
 20
62.24678452914402
 30
0.0
 10
180.7901614899285
 20
62.16034143790208
 30
0.0
 10
180.700503176464
 20
62.09603752023494
 30
0.0
 10
180.5550494635829
 20
61.94106800619198
 30
0.0
 10
180.4970136808567
 20
61.84830251994826
 30
0.0
 10
180.4197285264721
 20
61.64983563830486
 30
0.0
 10
180.3997235045537
 20
61.54281121651109
 30
0.0
 10
180.3997235045537
 20
61.43602885604027
 30
0.0
  0
SPLINE
  5
B8
330
1F
100
AcDbEntity
  8
0
  6
Continuous
 62
     7
370
    15
100
AcDbSpline
210
0.0
220
0.0
230
1.0
 70
    24
 71
     3
 72
    14
 73
    10
 74
     0
 42
0.000000001
 43
0.00000001
 40
0.0
 40
0.0
 40
0.0
 40
0.0
 40
0.25
 40
0.25
 40
0.5
 40
0.5
 40
0.75
 40
0.75
 40
1.0
 40
1.0
 40
1.0
 40
1.0
 10
181.1997235045537
 20
135.7671203444469
 30
0.0
 10
181.0767422050074
 20
135.7671203444469
 30
0.0
 10
180.9565523166054
 20
135.7671203444469
 30
0.0
 10
180.7515284869262
 20
135.7671203444469
 30
0.0
 10
180.6649339981241
 20
135.7671203444469
 30
0.0
 10
180.5298261113616
 20
135.7671203444469
 30
0.0
 10
180.4813030263336
 20
135.7671203444469
 30
0.0
 10
180.4156205176068
 20
135.7671203444469
 30
0.0
 10
180.3997235045537
 20
135.7671203444469
 30
0.0
 10
180.3997235045537
 20
135.7671203444469
 30
0.0
  0
SPLINE
  5
B9
330
1F
100
AcDbEntity
  8
0
  6
Continuous
 62
     7
370
    15
100
AcDbSpline
210
0.0
220
0.0
230
1.0
 70
    24
 71
     3
 72
    14
 73
    10
 74
     0
 42
0.000000001
 43
0.00000001
 40
0.0
 40
0.0
 40
0.0
 40
0.0
 40
0.25
 40
0.25
 40
0.5
 40
0.5
 40
0.75
 40
0.75
 40
1.0
 40
1.0
 40
1.0
 40
1.0
 10
184.2197235045537
 20
135.7671203444469
 30
0.0
 10
184.2197235045537
 20
135.7671203444469
 30
0.0
 10
184.2034424697779
 20
135.7671203444469
 30
0.0
 10
184.1387794072533
 20
135.7671203444469
 30
0.0
 10
184.0892996109646
 20
135.7671203444469
 30
0.0
 10
183.9553298538258
 20
135.7671203444469
 30
0.0
 10
183.8692151272264
 20
135.7671203444469
 30
0.0
 10
183.6637590115134
 20
135.7671203444469
 30
0.0
 10
183.5423384743205
 20
135.7671203444469
 30
0.0
 10
183.4197235045537
 20
135.7671203444469
 30
0.0
  0
LINE
  5
BA
330
1F
100
AcDbEntity
  8
0
  6
Continuous
 62
     7
370
    15
100
AcDbLine
 10
183.4197238109
 20
62.2693542312
 30
0.0
 11
181.1997236706
 21
62.2693542312
 31
0.0
  0
LINE
  5
BB
330
1F
100
AcDbEntity
  8
0
  6
Continuous
 62
     7
370
    15
100
AcDbLine
 10
183.4197238109
 20
135.76712086
 30
0.0
 11
181.1997236706
 21
135.76712086
 31
0.0
  0
SPLINE
  5
BC
330
1F
100
AcDbEntity
  8
0
  6
Continuous
 62
     7
370
    15
100
AcDbSpline
210
0.0
220
0.0
230
1.0
 70
     8
 71
     3
 72
     8
 73
     4
 74
     0
 42
0.000000001
 43
0.00000001
 40
0.0000000000000004
 40
0.0000000000000004
 40
0.0000000000000004
 40
0.0000000000000004
 40
0.0011862984959127
 40
0.0011862984959127
 40
0.0011862984959127
 40
0.0011862984959127
 10
185.0897713350539
 20
59.73120527747049
 30
0.0
 10
185.2398028049252
 20
59.54988518315947
 30
0.0
 10
185.3908602501446
 20
59.3687728527191
 30
0.0
 10
185.5428850120156
 20
59.18786100310089
 30
0.0
  0
SPLINE
  5
BD
330
1F
100
AcDbEntity
  8
0
  6
Continuous
 62
     7
370
    15
100
AcDbSpline
210
0.0
220
0.0
230
1.0
 70
     8
 71
     3
 72
     8
 73
     4
 74
     0
 42
0.000000001
 43
0.00000001
 40
0.0
 40
0.0
 40
0.0
 40
0.0
 40
1.0
 40
1.0
 40
1.0
 40
1.0
 10
185.0897713350569
 20
59.73120527747217
 30
0.0
 10
184.7994771007954
 20
60.25310754319472
 30
0.0
 10
184.509451950578
 20
60.77516092545414
 30
0.0
 10
184.2197235045537
 20
61.29738093561713
 30
0.0
  0
LINE
  5
BE
330
1F
100
AcDbEntity
  8
0
  6
Continuous
 62
     7
370
    15
100
AcDbLine
 10
184.2197233833
 20
61.2973812888
 30
0.0
 11
184.2197233833
 21
87.9878178159
 31
0.0
  0
SPLINE
  5
BF
330
1F
100
AcDbEntity
  8
0
  6
Continuous
 62
     7
370
    15
100
AcDbSpline
210
0.0
220
0.0
230
1.0
 70
     8
 71
     3
 72
    14
 73
    10
 74
     0
 42
0.000000001
 43
0.00000001
 40
0.0
 40
0.0
 40
0.0
 40
0.0
 40
0.25
 40
0.25
 40
0.5
 40
0.5
 40
0.75
 40
0.75
 40
1.0
 40
1.0
 40
1.0
 40
1.0
 10
184.2197235045537
 20
61.43602885604027
 30
0.0
 10
184.2197235045537
 20
61.54309284238109
 30
0.0
 10
184.1997396783137
 20
61.64983216875559
 30
0.0
 10
184.1223045958802
 20
61.84858207094639
 30
0.0
 10
184.0643656737207
 20
61.94113628743891
 30
0.0
 10
183.91872786796
 20
62.09623323084449
 30
0.0
 10
183.8299388716246
 20
62.15997338775735
 30
0.0
 10
183.6333905114201
 20
62.24672194484496
 30
0.0
 10
183.5272512817208
 20
62.26935407857712
 30
0.0
 10
183.4197235045537
 20
62.26935407857712
 30
0.0
  0
LINE
  5
C0
330
1F
100
AcDbEntity
  8
0
  6
Continuous
 62
     7
370
    15
100
AcDbLine
 10
171.2097235046
 20
70.992121465
 30
0.0
 11
171.2097235046
 21
140.8421192239
 31
0.0
  0
SPLINE
  5
C1
330
1F
100
AcDbEntity
  8
0
  6
Continuous
 62
     7
370
    15
100
AcDbSpline
210
0.0
220
0.0
230
1.0
 70
     8
 71
     3
 72
    12
 73
     8
 74
     0
 42
0.000000001
 43
0.00000001
 40
0.0
 40
0.0
 40
0.0
 40
0.0
 40
0.5000000000000003
 40
0.5000000000000003
 40
0.7500000000000001
 40
0.7500000000000001
 40
1.0
 40
1.0
 40
1.0
 40
1.0
 10
174.4097235045537
 20
143.6662014590913
 30
0.0
 10
174.4097235045537
 20
143.8445617263306
 30
0.0
 10
174.4570356259296
 20
144.0233341380345
 30
0.0
 10
174.6113957038111
 20
144.2450960033863
 30
0.0
 10
174.67628123873
 20
144.3093880420027
 30
0.0
 10
174.8315139379583
 20
144.4020325261623
 30
0.0
 10
174.9205893506266
 20
144.4281982961221
 30
0.0
 10
175.0097235045537
 20
144.4281982961221
 30
0.0
  0
LINE
  5
C2
330
1F
100
AcDbEntity
  8
0
  6
Continuous
 62
     7
370
    15
100
AcDbLine
 10
175.0097235686
 20
144.4281991492
 30
0.0
 11
179.0765624515
 21
144.4281991492
 31
0.0
  0
SPLINE
  5
C3
330
1F
100
AcDbEntity
  8
0
  6
Continuous
 62
     7
370
    15
100
AcDbSpline
210
0.0
220
0.0
230
1.0
 70
     8
 71
     3
 72
     8
 73
     4
 74
     0
 42
0.000000001
 43
0.00000001
 40
0.0
 40
0.0
 40
0.0
 40
0.0
 40
1.0
 40
1.0
 40
1.0
 40
1.0
 10
179.0765619970918
 20
144.428198296122
 30
0.0
 10
179.5234107250195
 20
143.4489623978658
 30
0.0
 10
179.9647770829153
 20
142.4677604051389
 30
0.0
 10
180.3997235045537
 20
141.4842560867565
 30
0.0
  0
LINE
  5
C4
330
1F
100
AcDbEntity
  8
0
  6
Continuous
 62
     7
370
    15
100
AcDbLine
 10
180.3997231669
 20
141.4842549632
 30
0.0
 11
180.3997231669
 21
141.310164697
 31
0.0
  0
SPLINE
  5
C5
330
1F
100
AcDbEntity
  8
0
  6
Continuous
 62
     7
370
    15
100
AcDbSpline
210
0.0
220
0.0
230
1.0
 70
     8
 71
     3
 72
    12
 73
     8
 74
     0
 42
0.000000001
 43
0.00000001
 40
0.0
 40
0.0
 40
0.0
 40
0.0
 40
0.499999999999994
 40
0.499999999999994
 40
0.749999999999997
 40
0.749999999999997
 40
1.0
 40
1.0
 40
1.0
 40
1.0
 10
180.3997235045537
 20
141.3101634461639
 30
0.0
 10
180.3997235045537
 20
141.0677403501832
 30
0.0
 10
180.4626446459955
 20
140.8219698295818
 30
0.0
 10
180.6646735429979
 20
140.5170236501649
 30
0.0
 10
180.7509672676452
 20
140.4264307835665
 30
0.0
 10
180.9564410622119
 20
140.2959972206297
 30
0.0
 10
181.0763916228116
 20
140.25700240598
 30
0.0
 10
181.1997235045537
 20
140.25700240598
 30
0.0
  0
LINE
  5
C6
330
1F
100
AcDbEntity
  8
0
  6
Continuous
 62
     7
370
    15
100
AcDbLine
 10
181.1997236706
 20
140.2570027779
 30
0.0
 11
183.4197238109
 21
140.2570027779
 31
0.0
  0
SPLINE
  5
C7
330
1F
100
AcDbEntity
  8
0
  6
Continuous
 62
     7
370
    15
100
AcDbSpline
210
0.0
220
0.0
230
1.0
 70
     8
 71
     3
 72
    14
 73
    10
 74
     0
 42
0.000000001
 43
0.00000001
 40
0.0
 40
0.0
 40
0.0
 40
0.0
 40
0.25
 40
0.25
 40
0.5
 40
0.5
 40
0.75
 40
0.75
 40
1.0
 40
1.0
 40
1.0
 40
1.0
 10
183.4197235045537
 20
140.25700240598
 30
0.0
 10
183.5410500345394
 20
140.25700240598
 30
0.0
 10
183.6627547431017
 20
140.2957839214131
 30
0.0
 10
183.8691946219878
 20
140.426938543107
 30
0.0
 10
183.9551451604438
 20
140.5175906276941
 30
0.0
 10
184.0890569201921
 20
140.7197076626354
 30
0.0
 10
184.1386213570113
 20
140.8334426061746
 30
0.0
 10
184.2034753849792
 20
141.0664022232411
 30
0.0
 10
184.2197235045537
 20
141.1891004895703
 30
0.0
 10
184.2197235045537
 20
141.3101634461639
 30
0.0
  0
LINE
  5
C8
330
1F
100
AcDbEntity
  8
0
  6
Continuous
 62
     7
370
    15
100
AcDbLine
 10
184.2197233833
 20
141.310164697
 30
0.0
 11
184.2197233833
 21
141.4842549632
 31
0.0
  0
SPLINE
  5
C9
330
1F
100
AcDbEntity
  8
0
  6
Continuous
 62
     7
370
    15
100
AcDbSpline
210
0.0
220
0.0
230
1.0
 70
     8
 71
     3
 72
     8
 73
     4
 74
     0
 42
0.000000001
 43
0.00000001
 40
0.0
 40
0.0
 40
0.0
 40
0.0
 40
1.0
 40
1.0
 40
1.0
 40
1.0
 10
184.2197235045537
 20
141.4842560867565
 30
0.0
 10
184.6546699261921
 20
142.4677604051389
 30
0.0
 10
185.0960362840879
 20
143.4489623978658
 30
0.0
 10
185.5428850120156
 20
144.428198296122
 30
0.0
  0
LINE
  5
CA
330
1F
100
AcDbEntity
  8
0
  6
Continuous
 62
     7
370
    15
100
AcDbLine
 10
185.54288503
 20
144.4281991492
 30
0.0
 11
189.6597228966
 21
144.4281991492
 31
0.0
  0
SPLINE
  5
CB
330
1F
100
AcDbEntity
  8
0
  6
Continuous
 62
     7
370
    15
100
AcDbSpline
210
0.0
220
0.0
230
1.0
 70
     8
 71
     3
 72
    12
 73
     8
 74
     0
 42
0.000000001
 43
0.00000001
 40
0.0
 40
0.0
 40
0.0
 40
0.0
 40
0.250000000000004
 40
0.250000000000004
 40
0.500000000000008
 40
0.500000000000008
 40
1.0
 40
1.0
 40
1.0
 40
1.0
 10
189.6597235045542
 20
144.4281982961221
 30
0.0
 10
189.7492605627253
 20
144.428198296122
 30
0.0
 10
189.8391597415139
 20
144.401370997291
 30
0.0
 10
189.9925846005132
 20
144.3096640320315
 30
0.0
 10
190.0576336578909
 20
144.2454090904326
 30
0.0
 10
190.2109528891552
 20
144.0259969443711
 30
0.0
 10
190.2597235045537
 20
143.8441816345742
 30
0.0
 10
190.2597235045537
 20
143.6662014590913
 30
0.0
  0
LINE
  5
CC
330
1F
100
AcDbEntity
  8
0
  6
Continuous
 62
     7
370
    15
100
AcDbLine
 10
174.4097234237
 20
143.6662021945
 30
0.0
 11
174.4097234237
 21
135.76712086
 31
0.0
  0
LINE
  5
CD
330
1F
100
AcDbEntity
  8
0
  6
Continuous
 62
     7
370
    15
100
AcDbLine
 10
190.25972374
 20
143.6662021945
 30
0.0
 11
190.25972374
 21
135.76712086
 31
0.0
  0
SPLINE
  5
CE
330
1F
100
AcDbEntity
  8
0
  6
Continuous
 62
     7
370
    15
100
AcDbSpline
210
0.0
220
0.0
230
1.0
 70
     8
 71
     3
 72
    14
 73
    10
 74
     0
 42
0.000000001
 43
0.00000001
 40
0.0
 40
0.0
 40
0.0
 40
0.0
 40
0.25
 40
0.25
 40
0.5
 40
0.5
 40
0.75
 40
0.75
 40
1.0
 40
1.0
 40
1.0
 40
1.0
 10
184.2197235045537
 20
150.3982118328535
 30
0.0
 10
184.2197235045537
 20
150.2908694607061
 30
0.0
 10
184.1997273124895
 20
150.1842404538583
 30
0.0
 10
184.1220292281448
 20
149.985088674707
 30
0.0
 10
184.0640360832513
 20
149.8926057763916
 30
0.0
 10
183.9179895904284
 20
149.7373699412824
 30
0.0
 10
183.8286518512607
 20
149.67363599967
 30
0.0
 10
183.6338968392003
 20
149.5878057332748
 30
0.0
 10
183.5263665679914
 20
149.5648866103164
 30
0.0
 10
183.4197235045516
 20
149.5648866103167
 30
0.0
  0
SPLINE
  5
CF
330
1F
100
AcDbEntity
  8
0
  6
Continuous
 62
     7
370
    15
100
AcDbSpline
210
0.0
220
0.0
230
1.0
 70
     8
 71
     3
 72
    12
 73
     8
 74
     0
 42
0.000000001
 43
0.00000001
 40
0.0
 40
0.0
 40
0.0
 40
0.0
 40
0.2500000000000007
 40
0.2500000000000007
 40
0.5000000000000014
 40
0.5000000000000014
 40
1.0
 40
1.0
 40
1.0
 40
1.0
 10
181.1997235045537
 20
149.5648866103167
 30
0.0
 10
181.0933785246777
 20
149.5648866103167
 30
0.0
 10
180.9861021772751
 20
149.5876018481762
 30
0.0
 10
180.790726387879
 20
149.6736270150585
 30
0.0
 10
180.7021726518021
 20
149.7366057419869
 30
0.0
 10
180.4809147276708
 20
149.971797252424
 30
0.0
 10
180.3997235045537
 20
150.1849734669093
 30
0.0
 10
180.3997235045537
 20
150.3982118328534
 30
0.0
  0
SPLINE
  5
D0
330
1F
100
AcDbEntity
  8
0
  6
Continuous
 62
     7
370
    15
100
AcDbSpline
210
0.0
220
0.0
230
1.0
 70
     8
 71
     3
 72
     8
 73
     4
 74
     0
 42
0.000000001
 43
0.00000001
 40
0.0
 40
0.0
 40
0.0
 40
0.0
 40
1.0
 40
1.0
 40
1.0
 40
1.0
 10
184.9863945267201
 20
151.9171535891143
 30
0.0
 10
184.7306182159647
 20
151.4571752338495
 30
0.0
 10
184.4750548178587
 20
150.9970807735417
 30
0.0
 10
184.2197235045537
 20
150.5368597532767
 30
0.0
  0
SPLINE
  5
D1
330
1F
100
AcDbEntity
  8
0
  6
Continuous
 62
     7
370
    15
100
AcDbSpline
210
0.0
220
0.0
230
1.0
 70
     8
 71
     3
 72
     8
 73
     4
 74
     0
 42
0.000000001
 43
0.00000001
 40
0.0
 40
0.0
 40
0.0
 40
0.0
 40
0.0012352705496738
 40
0.0012352705496738
 40
0.0012352705496738
 40
0.0012352705496738
 10
185.5428850120156
 20
152.6969649992224
 30
0.0
 10
185.3569365866935
 20
152.4371892434708
 30
0.0
 10
185.1714297775224
 20
152.1772551648435
 30
0.0
 10
184.9863945267203
 20
151.9171535891148
 30
0.0
  0
LINE
  5
D2
330
1F
100
AcDbEntity
  8
0
  6
Continuous
 62
     7
370
    15
100
AcDbLine
 10
185.54288503
 20
144.4281991492
 30
0.0
 11
185.54288503
 21
152.6969652544
 31
0.0
  0
LINE
  5
D3
330
1F
100
AcDbEntity
  8
0
  6
Continuous
 62
     7
370
    15
100
AcDbLine
 10
184.2197233833
 20
141.4842549632
 30
0.0
 11
184.2197233833
 21
150.5368594001
 31
0.0
  0
LINE
  5
D4
330
1F
100
AcDbEntity
  8
0
  6
Continuous
 62
     7
370
    15
100
AcDbLine
 10
183.4197238109
 20
149.5648864577
 30
0.0
 11
181.1997236706
 21
149.5648864577
 31
0.0
  0
LINE
  5
D5
330
1F
100
AcDbEntity
  8
0
  6
Continuous
 62
     7
370
    15
100
AcDbLine
 10
179.0765624515
 20
152.6969652544
 30
0.0
 11
175.0097235686
 21
152.6969652544
 31
0.0
  0
LINE
  5
D6
330
1F
100
AcDbEntity
  8
0
  6
Continuous
 62
     7
370
    15
100
AcDbLine
 10
179.0765624515
 20
144.4281991492
 30
0.0
 11
179.0765624515
 21
152.6969652544
 31
0.0
  0
SPLINE
  5
D7
330
1F
100
AcDbEntity
  8
0
  6
Continuous
 62
     7
370
    15
100
AcDbSpline
210
0.0
220
0.0
230
1.0
 70
     8
 71
     3
 72
     8
 73
     4
 74
     0
 42
0.000000001
 43
0.00000001
 40
0.0
 40
0.0
 40
0.0
 40
0.0
 40
0.0012352705496723
 40
0.0012352705496723
 40
0.0012352705496723
 40
0.0012352705496723
 10
179.6330524823863
 20
151.917153589116
 30
0.0
 10
179.4480172315844
 20
152.1772551648443
 30
0.0
 10
179.2625104224136
 20
152.4371892434712
 30
0.0
 10
179.0765619970918
 20
152.6969649992224
 30
0.0
  0
SPLINE
  5
D8
330
1F
100
AcDbEntity
  8
0
  6
Continuous
 62
     7
370
    15
100
AcDbSpline
210
0.0
220
0.0
230
1.0
 70
     8
 71
     3
 72
     8
 73
     4
 74
     0
 42
0.000000001
 43
0.00000001
 40
0.0
 40
0.0
 40
0.0
 40
0.0
 40
1.0
 40
1.0
 40
1.0
 40
1.0
 10
180.3997235045537
 20
150.5368597532767
 30
0.0
 10
180.1443921912483
 20
150.9970807735423
 30
0.0
 10
179.888828793142
 20
151.4571752338506
 30
0.0
 10
179.6330524823863
 20
151.917153589116
 30
0.0
  0
LINE
  5
D9
330
1F
100
AcDbEntity
  8
0
  6
Continuous
 62
     7
370
    15
100
AcDbLine
 10
180.3997231669
 20
141.4842549632
 30
0.0
 11
180.3997231669
 21
150.5368594001
 31
0.0
  0
LINE
  5
DA
330
1F
100
AcDbEntity
  8
0
  6
Continuous
 62
     7
370
    15
100
AcDbLine
 10
189.6597228966
 20
152.6969652544
 30
0.0
 11
185.54288503
 21
152.6969652544
 31
0.0
  0
SPLINE
  5
DB
330
1F
100
AcDbEntity
  8
0
  6
Continuous
 62
     7
370
    15
100
AcDbSpline
210
0.0
220
0.0
230
1.0
 70
     8
 71
     3
 72
    10
 73
     6
 74
     0
 42
0.000000001
 43
0.00000001
 40
0.0
 40
0.0
 40
0.0
 40
0.0
 40
0.5
 40
0.5
 40
1.0
 40
1.0
 40
1.0
 40
1.0
 10
174.6995924235
 20
152.6272846701697
 30
0.0
 10
174.6231393335812
 20
152.557021898949
 30
0.0
 10
174.5542776113121
 20
152.4699269839073
 30
0.0
 10
174.4477653802392
 20
152.260757855655
 30
0.0
 10
174.4097235045536
 20
152.1354403064155
 30
0.0
 10
174.4097235045536
 20
152.0060900118196
 30
0.0
  0
SPLINE
  5
DC
330
1F
100
AcDbEntity
  8
0
  6
Continuous
 62
     7
370
    15
100
AcDbSpline
210
0.0
220
0.0
230
1.0
 70
     8
 71
     3
 72
     8
 73
     4
 74
     0
 42
0.000000001
 43
0.00000001
 40
0.0
 40
0.0
 40
0.0
 40
0.0
 40
1.0
 40
1.0
 40
1.0
 40
1.0
 10
175.0097235045537
 20
152.6969649992224
 30
0.0
 10
174.8986453192162
 20
152.6969649992224
 30
0.0
 10
174.790981315314
 20
152.6718158236679
 30
0.0
 10
174.6995924235
 20
152.6272846701697
 30
0.0
  0
LINE
  5
DD
330
1F
100
AcDbEntity
  8
0
  6
Continuous
 62
     7
370
    15
100
AcDbLine
 10
174.4097234237
 20
143.6662021945
 30
0.0
 11
174.4097234237
 21
152.0060915421
 31
0.0
  0
SPLINE
  5
DE
330
1F
100
AcDbEntity
  8
0
  6
Continuous
 62
     7
370
    15
100
AcDbSpline
210
0.0
220
0.0
230
1.0
 70
     8
 71
     3
 72
    12
 73
     8
 74
     0
 42
0.000000001
 43
0.00000001
 40
0.0
 40
0.0
 40
0.0
 40
0.0
 40
0.4999999999999927
 40
0.4999999999999927
 40
0.7499999999999963
 40
0.7499999999999963
 40
1.0
 40
1.0
 40
1.0
 40
1.0
 10
190.2597235045537
 20
152.2121072976774
 30
0.0
 10
190.2597235045537
 20
152.3322999043425
 30
0.0
 10
190.2057550742846
 20
152.4502072048575
 30
0.0
 10
190.0446684333517
 20
152.5895867493409
 30
0.0
 10
189.9799060138786
 20
152.6277520469048
 30
0.0
 10
189.8278520123142
 20
152.6824043092383
 30
0.0
 10
189.7451222391649
 20
152.6969649992224
 30
0.0
 10
189.6597235045537
 20
152.6969649992224
 30
0.0
  0
LINE
  5
DF
330
1F
100
AcDbEntity
  8
0
  6
Continuous
 62
     7
370
    15
100
AcDbLine
 10
190.25972374
 20
143.6662021945
 30
0.0
 11
190.25972374
 21
152.2121075461
 31
0.0
  0
LINE
  5
E0
330
1F
100
AcDbEntity
  8
0
  6
Continuous
 62
     7
370
    15
100
AcDbLine
 10
69.6097247324
 20
87.5382758598
 30
0.0
 11
69.6097247324
 21
124.2959648291
 31
0.0
  0
SPLINE
  5
E1
330
1F
100
AcDbEntity
  8
0
  6
Continuous
 62
     7
370
    15
100
AcDbSpline
210
0.0
220
0.0
230
1.0
 70
    11
 71
     3
 72
    77
 73
    73
 74
     0
 42
0.000000001
 43
0.00000001
 40
0.0
 40
0.0
 40
0.0
 40
0.0
 40
0.0312500000000002
 40
0.0312500000000002
 40
0.0625000000000004
 40
0.0625000000000004
 40
0.0937500000000005
 40
0.0937500000000005
 40
0.1250000000000007
 40
0.1250000000000007
 40
0.1562500000000009
 40
0.1562500000000009
 40
0.1875000000000011
 40
0.1875000000000011
 40
0.2187500000000012
 40
0.2187500000000012
 40
0.2500000000000014
 40
0.2500000000000014
 40
0.2812500000000016
 40
0.2812500000000016
 40
0.3125000000000018
 40
0.3125000000000018
 40
0.3437500000000019
 40
0.3437500000000019
 40
0.3593750000000021
 40
0.3593750000000021
 40
0.3750000000000022
 40
0.3906250000000023
 40
0.3906250000000023
 40
0.4062500000000023
 40
0.4062500000000023
 40
0.4375000000000023
 40
0.4375000000000023
 40
0.4687500000000023
 40
0.4687500000000023
 40
0.5000000000000022
 40
0.5000000000000022
 40
0.5312500000000022
 40
0.5312500000000022
 40
0.5625000000000021
 40
0.5625000000000021
 40
0.5937500000000021
 40
0.5937500000000021
 40
0.6250000000000021
 40
0.6250000000000021
 40
0.6562500000000021
 40
0.6562500000000021
 40
0.687500000000002
 40
0.687500000000002
 40
0.718750000000002
 40
0.718750000000002
 40
0.750000000000002
 40
0.750000000000002
 40
0.7656250000000017
 40
0.7656250000000017
 40
0.7812500000000013
 40
0.7812500000000013
 40
0.8125000000000011
 40
0.8125000000000011
 40
0.843750000000001
 40
0.843750000000001
 40
0.8750000000000008
 40
0.8750000000000008
 40
0.8906250000000007
 40
0.8906250000000007
 40
0.9062500000000006
 40
0.9062500000000006
 40
0.9375000000000003
 40
0.9375000000000003
 40
0.9687500000000002
 40
0.9687500000000002
 40
1.0
 40
1.0
 40
1.0
 40
1.0
 10
210.8093234490234
 20
109.2354795623223
 30
0.0
 10
211.0516700977624
 20
109.4319512818191
 30
0.0
 10
211.3087912525611
 20
109.6023725588804
 30
0.0
 10
211.8502003609662
 20
109.8959768397483
 30
0.0
 10
212.1365208903887
 20
110.0197516548594
 30
0.0
 10
212.7280430241393
 20
110.2161475847428
 30
0.0
 10
213.0290477373889
 20
110.2877837364766
 30
0.0
 10
213.6411728209053
 20
110.3802019248207
 30
0.0
 10
213.9552790172242
 20
110.4008013478441
 30
0.0
 10
214.5778042302449
 20
110.3887861050777
 30
0.0
 10
214.885362796842
 20
110.3568016798334
 30
0.0
 10
215.4931642715607
 20
110.241348782725
 30
0.0
 10
215.7963413580923
 20
110.1566046095097
 30
0.0
 10
216.3765186578312
 20
109.9381938738119
 30
0.0
 10
216.6540211612092
 20
109.8051283210511
 30
0.0
 10
217.1834703227748
 20
109.4899517780196
 30
0.0
 10
217.4378822932517
 20
109.3053406856561
 30
0.0
 10
217.9000662190674
 20
108.8965924231967
 30
0.0
 10
218.1093716411486
 20
108.672373255972
 30
0.0
 10
218.4818628201144
 20
108.1813701421694
 30
0.0
 10
218.6459110228139
 20
107.9113072763361
 30
0.0
 10
218.9064200918173
 20
107.3516880277103
 30
0.0
 10
219.0054579549758
 20
107.0598205240092
 30
0.0
 10
219.1034464110136
 20
106.6023593454886
 30
0.0
 10
219.1275016719827
 20
106.4461340683425
 30
0.0
 10
219.156738921003
 20
106.136088461882
 30
0.0
 10
219.1677029666228
 20
105.826231928386
 30
0.0
 10
219.1426057350983
 20
105.516748657179
 30
0.0
 10
219.0991424284741
 20
105.2074553332072
 30
0.0
 10
219.0680125901509
 20
105.0526274329506
 30
0.0
 10
218.9497232749114
 20
104.6007020550828
 30
0.0
 10
218.837550213958
 20
104.311843992197
 30
0.0
 10
218.5493308604151
 20
103.7577766901788
 30
0.0
 10
218.3760090207109
 20
103.4986364813389
 30
0.0
 10
217.9822448543785
 20
103.0218528229515
 30
0.0
 10
217.7584551662135
 20
102.8009768927946
 30
0.0
 10
217.2784845044413
 20
102.4101083831866
 30
0.0
 10
217.0216933324741
 20
102.2385404246111
 30
0.0
 10
216.4755459083072
 20
101.9410147043903
 30
0.0
 10
216.1880002566002
 20
101.8166540466833
 30
0.0
 10
215.6011708810888
 20
101.6208675722897
 30
0.0
 10
215.2996147611926
 20
101.5481649581535
 30
0.0
 10
214.6798281595788
 20
101.4539621778991
 30
0.0
 10
214.3692519387108
 20
101.4337261931052
 30
0.0
 10
213.750169893725
 20
101.4449133993268
 30
0.0
 10
213.4403165129399
 20
101.4763966770751
 30
0.0
 10
212.8248107129863
 20
101.5930311060384
 30
0.0
 10
212.5266454248048
 20
101.6766229622031
 30
0.0
 10
211.9489867361851
 20
101.8934519211571
 30
0.0
 10
211.6680339327183
 20
102.0275295483521
 30
0.0
 10
211.1326357451236
 20
102.3463080349169
 30
0.0
 10
210.8835399463072
 20
102.5274643548459
 30
0.0
 10
210.5380254042929
 20
102.8325679554391
 30
0.0
 10
210.4275751774193
 20
102.9398699241906
 30
0.0
 10
210.21660579093
 20
103.1663358635965
 30
0.0
 10
210.1154996915971
 20
103.2863315978735
 30
0.0
 10
209.8340019315361
 20
103.6580030775895
 30
0.0
 10
209.6744695634311
 20
103.9212895588003
 30
0.0
 10
209.4138553940087
 20
104.48041375185
 30
0.0
 10
209.3121588785321
 20
104.780938003071
 30
0.0
 10
209.1828430309631
 20
105.3887411628111
 30
0.0
 10
209.1535073260431
 20
105.6970477837088
 30
0.0
 10
209.1644551625618
 20
106.166373684862
 30
0.0
 10
209.1775139567891
 20
106.3239926640083
 30
0.0
 10
209.2213822309964
 20
106.6326702710022
 30
0.0
 10
209.2521762094403
 20
106.7848701422418
 30
0.0
 10
209.3703947665462
 20
107.2352448976999
 30
0.0
 10
209.4854416673491
 20
107.5302924535703
 30
0.0
 10
209.7730031871537
 20
108.0809083259035
 30
0.0
 10
209.9452167347002
 20
108.3384826992811
 30
0.0
 10
210.3441256163935
 20
108.8200303170444
 30
0.0
 10
210.5669768002845
 20
109.0390078428255
 30
0.0
 10
210.8093234490234
 20
109.2354795623223
 30
0.0
  0
LINE
  5
E2
330
1F
100
AcDbEntity
  8
0
  6
Continuous
 62
     7
370
    15
100
AcDbLine
 10
224.2097228787
 20
105.9171203444
 30
0.0
 11
224.2097228787
 21
86.8171211253
 31
0.0
  0
LINE
  5
E3
330
1F
100
AcDbEntity
  8
0
  6
Continuous
 62
     7
370
    15
100
AcDbLine
 10
224.2097228787
 20
125.0171195636
 30
0.0
 11
224.2097228787
 21
105.9171203444
 31
0.0
  0
LINE
  5
E4
330
1F
100
AcDbEntity
  8
0
  6
Continuous
 62
     7
370
    15
100
AcDbLine
 10
223.8097235582
 20
105.9171203444
 30
0.0
 11
223.8097235582
 21
86.4171199421
 31
0.0
  0
LINE
  5
E5
330
1F
100
AcDbEntity
  8
0
  6
Continuous
 62
     7
370
    15
100
AcDbLine
 10
223.8097235582
 20
125.4171207468
 30
0.0
 11
223.8097235582
 21
105.9171203444
 31
0.0
  0
ARC
  5
E6
330
1F
100
AcDbEntity
  8
0
  6
Continuous
 62
     7
370
    15
100
AcDbCircle
 10
185.4218322672
 20
90.8091215217
 30
0.0
 40
2.515507282637434
100
AcDbArc
 50
182.978505303
 51
340.64302191
  0
LWPOLYLINE
  5
E7
330
1F
100
AcDbEntity
  8
0
  6
Continuous
 62
     7
370
    15
100
AcDbPolyline
 90
       14
 70
   128
 43
0.0
 10
187.7165034435
 20
90.1622250597
 10
187.6694958679
 20
89.9911019872
 10
187.3685296646
 20
89.3936008136
 10
186.893516036
 20
88.906005017
 10
186.2866597272
 20
88.5716415862
 10
185.6018843151
 20
88.4202197115
 10
184.9000349662
 20
88.4651932786
 10
184.2434730402
 20
88.7025650511
 10
183.6905384458
 20
89.1112461607
 10
183.2903603113
 20
89.6549224774
 10
183.0784974641
 20
90.2852862994
 10
183.073773796
 20
90.9463260243
 10
183.2766093335
 20
91.5793050001
 10
183.4089214004
 20
91.806607313
  0
LWPOLYLINE
  5
E8
330
1F
100
AcDbEntity
  8
0
  6
Continuous
 62
     7
370
    15
100
AcDbPolyline
 90
       14
 70
   128
 43
0.0
 10
187.4097239248
 20
90.6305303718
 10
187.3870387695
 20
90.3482679198
 10
187.1823694579
 20
89.76024761
 10
186.7856074146
 20
89.2665367494
 10
186.2397471464
 20
88.920634232
 10
185.6039406753
 20
88.760027654
 10
184.9470872454
 20
88.8021178464
 10
184.3403678409
 20
89.0423431913
 10
183.8495301104
 20
89.4546750854
 10
183.5277637488
 20
89.9944286714
 10
183.409936542
 20
90.6031140978
 10
183.5088169224
 20
91.2147704432
 10
183.8136909551
 20
91.7631145487
 10
184.2197233833
 20
92.1410405929
  0
CIRCLE
  5
E9
330
1F
100
AcDbEntity
  8
0
  6
HIDDEN
 62
     7
370
     0
100
AcDbCircle
 10
214.1597235046
 20
105.9171203444
 30
0.0
 40
2.953589838486232
  0
CIRCLE
  5
EA
330
1F
100
AcDbEntity
  8
0
  6
HIDDEN
 62
     7
370
     0
100
AcDbCircle
 10
214.1597235046
 20
105.9171203444
 30
0.0
 40
2.753589838486227
  0
LWPOLYLINE
  5
EB
330
1F
100
AcDbEntity
  8
0
  6
HIDDEN
 62
     7
370
     0
100
AcDbPolyline
 90
       22
 70
   128
 43
0.0
 10
185.4097235969
 20
90.0598037909
 10
186.1466111637
 20
90.1641733865
 10
186.8180239595
 20
90.4680089946
 10
187.3643014602
 20
90.9443125049
 10
187.7369087211
 20
91.5507636885
 10
187.9027325682
 20
92.2334762211
 10
187.8470432035
 20
92.9317884068
 10
187.5747878126
 20
93.5836508791
 10
187.1101547054
 20
94.1311437557
 10
186.494433137
 20
94.525619402
 10
185.7823289952
 20
94.7320274929
 10
185.0371181986
 20
94.7320274929
 10
184.3250140569
 20
94.525619402
 10
183.7092915571
 20
94.1311437557
 10
183.2446603126
 20
93.5836508791
 10
182.9724039904
 20
92.9317884068
 10
182.9167136944
 20
92.2334762211
 10
183.0825394041
 20
91.5507636885
 10
183.4551448024
 20
90.9443125049
 10
184.0014232344
 20
90.4680089946
 10
184.6728360302
 20
90.1641733865
 10
185.4097235969
 20
90.0598037909
  0
LWPOLYLINE
  5
EC
330
1F
100
AcDbEntity
  8
0
  6
HIDDEN
 62
     7
370
     0
100
AcDbPolyline
 90
       24
 70
   128
 43
0.0
 10
174.68145448
 20
92.0122601012
 10
174.8752475738
 20
91.2185972477
 10
175.1769667513
 20
90.4837967749
 10
175.5642348922
 20
89.8623559545
 10
176.0083295426
 20
89.4003622154
 10
176.4763149454
 20
89.1320817093
 10
176.9334821052
 20
89.0774112115
 10
177.345925758
 20
89.2404057006
 10
177.6830561481
 20
89.6089747469
 10
177.9198700584
 20
90.1557840327
 10
178.0388041421
 20
90.8402809794
 10
178.0310378431
 20
91.6116982619
 10
177.8971467189
 20
92.4128228719
 10
177.6470614619
 20
93.1842392231
 10
177.2993288956
 20
93.8687361697
 10
176.8797396704
 20
94.4155463869
 10
176.4194120675
 20
94.7841154332
 10
175.9524865098
 20
94.947108991
 10
175.5135932959
 20
94.8924384932
 10
175.1352830812
 20
94.624157987
 10
174.8456126566
 20
94.1621651794
 10
174.6660662371
 20
93.540724359
 10
174.6099598727
 20
92.8059229548
 10
174.68145448
 20
92.0122601012
  0
LWPOLYLINE
  5
ED
330
1F
100
AcDbEntity
  8
0
  6
HIDDEN
 62
     7
370
     0
100
AcDbPolyline
 90
       21
 70
   128
 43
0.0
 10
175.4444863669
 20
92.0765222902
 10
175.6073299817
 20
91.4401961411
 10
175.8672243937
 20
90.8661577771
 10
176.1987291298
 20
90.4105985458
 10
176.5693936519
 20
90.1181120346
 10
176.9429359607
 20
90.0173261682
 10
177.2827900036
 20
90.1181120346
 10
177.5556884728
 20
90.4105985458
 10
177.7349191739
 20
90.8661577771
 10
177.8029369212
 20
91.4401961411
 10
177.7530841551
 20
92.0765222902
 10
177.5902400746
 20
92.7128484393
 10
177.3303456626
 20
93.286885872
 10
176.9988413922
 20
93.7424451033
 10
176.6281764045
 20
94.0349325458
 10
176.2546345613
 20
94.1357165496
 10
175.9147805183
 20
94.0349325458
 10
175.6418815836
 20
93.7424451033
 10
175.4626508824
 20
93.286885872
 10
175.3946331351
 20
92.7128484393
 10
175.4444863669
 20
92.0765222902
  0
ELLIPSE
  5
EE
330
1F
100
AcDbEntity
  8
0
  6
HIDDEN
 62
     7
370
     0
100
AcDbEllipse
 10
185.4097235046
 20
94.1866102331
 30
0.0
 11
1.760776919379055
 21
2.232245799914438
 31
0.0
210
0.0
220
0.0
230
1.0
 40
0.5126701559
 41
1.100887047646268
 42
4.02962702760826
  0
ARC
  5
EF
330
1F
100
AcDbEntity
  8
0
  6
HIDDEN
 62
     7
370
     0
100
AcDbCircle
 10
184.713124036
 20
95.3641501143
 30
0.0
 40
0.794594954225782
100
AcDbArc
 50
53.4208190544
 51
99.1663888759
  0
ELLIPSE
  5
F0
330
1F
100
AcDbEntity
  8
0
  6
HIDDEN
 62
     7
370
     0
100
AcDbEllipse
 10
185.4097235046
 20
94.1866102331
 30
0.0
 11
1.760776919379055
 21
-1.388886188042946
 31
0.0
210
0.0
220
0.0
230
1.0
 40
0.8239737799
 41
2.549926265248573
 42
4.885930273856091
  0
ARC
  5
F1
330
1F
100
AcDbEntity
  8
0
  6
HIDDEN
 62
     7
370
     0
100
AcDbCircle
 10
185.6557762665
 20
93.3471326691
 30
0.0
 40
1.353195702694778
100
AcDbArc
 50
217.8001040701
 51
249.7155767561
  0
LWPOLYLINE
  5
F2
330
1F
100
AcDbEntity
  8
0
  6
HIDDEN
 62
     7
370
     0
100
AcDbPolyline
 90
       21
 70
   128
 43
0.0
 10
185.4097235969
 20
90.4854740868
 10
186.0586589224
 20
90.5820568944
 10
186.6440724603
 20
90.8623514618
 10
187.1086590014
 20
91.2989200945
 10
187.4069429956
 20
91.8490290562
 10
187.5097237549
 20
92.4588292758
 10
187.4069429956
 20
93.068628564
 10
187.1086590014
 20
93.6187375257
 10
186.6440724603
 20
94.0553061585
 10
186.0586589224
 20
94.3356007258
 10
185.4097235969
 20
94.4321835334
 10
184.7607882715
 20
94.3356007258
 10
184.1753747336
 20
94.0553061585
 10
183.7107881925
 20
93.6187375257
 10
183.4125051296
 20
93.068628564
 10
183.309723439
 20
92.4588292758
 10
183.4125051296
 20
91.8490290562
 10
183.7107881925
 20
91.2989200945
 10
184.1753747336
 20
90.8623514618
 10
184.7607882715
 20
90.5820568944
 10
185.4097235969
 20
90.4854740868
  0
SPLINE
  5
F3
330
1F
100
AcDbEntity
  8
0
  6
HIDDEN
 62
     7
370
     0
100
AcDbSpline
210
0.0
220
0.0
230
1.0
 70
    11
 71
     3
 72
    62
 73
    58
 74
     0
 42
0.000000001
 43
0.00000001
 40
0.0
 40
0.0
 40
0.0
 40
0.0
 40
0.0312499999999999
 40
0.0312499999999999
 40
0.0624999999999998
 40
0.0624999999999998
 40
0.1249999999999991
 40
0.1249999999999991
 40
0.1874999999999985
 40
0.1874999999999985
 40
0.2187499999999982
 40
0.2187499999999982
 40
0.2499999999999979
 40
0.2499999999999979
 40
0.2812499999999976
 40
0.2812499999999976
 40
0.3124999999999973
 40
0.3124999999999973
 40
0.343749999999997
 40
0.343749999999997
 40
0.3749999999999967
 40
0.3749999999999967
 40
0.4374999999999962
 40
0.4374999999999962
 40
0.468749999999996
 40
0.468749999999996
 40
0.4999999999999959
 40
0.4999999999999959
 40
0.5312499999999958
 40
0.5312499999999958
 40
0.5624999999999957
 40
0.5624999999999957
 40
0.5937499999999956
 40
0.5937499999999956
 40
0.6249999999999954
 40
0.6249999999999954
 40
0.6562499999999956
 40
0.6562499999999956
 40
0.6874999999999958
 40
0.6874999999999958
 40
0.718749999999996
 40
0.718749999999996
 40
0.7499999999999962
 40
0.7499999999999962
 40
0.7812499999999964
 40
0.7812499999999964
 40
0.8124999999999967
 40
0.8124999999999967
 40
0.8749999999999973
 40
0.8749999999999973
 40
0.906249999999998
 40
0.906249999999998
 40
0.9374999999999987
 40
0.9374999999999987
 40
0.9687499999999993
 40
0.9687499999999993
 40
1.0
 40
1.0
 40
1.0
 40
1.0
 10
185.4097235045537
 20
102.6800257092192
 30
0.0
 10
185.2685252805738
 20
102.6800257092192
 30
0.0
 10
185.13024740356
 20
102.6904936456027
 30
0.0
 10
184.8590813323522
 20
102.7315171265381
 30
0.0
 10
184.7248780048927
 20
102.7626435799537
 30
0.0
 10
184.3458148251025
 20
102.8840175678655
 30
0.0
 10
184.1168079034087
 20
103.0041723418737
 30
0.0
 10
183.735777284406
 20
103.3129512408965
 30
0.0
 10
183.5801542074843
 20
103.5051204090604
 30
0.0
 10
183.4210837309157
 20
103.8351047208986
 30
0.0
 10
183.3793565857723
 20
103.9546040842107
 30
0.0
 10
183.3240858846303
 20
104.2011884833664
 30
0.0
 10
183.3100059531405
 20
104.3283604138035
 30
0.0
 10
183.3094493868193
 20
104.5908496064997
 30
0.0
 10
183.3234386642399
 20
104.7259919751967
 30
0.0
 10
183.3779201834755
 20
104.9904770685565
 30
0.0
 10
183.4187706416304
 20
105.1226269728025
 30
0.0
 10
183.5253846084898
 20
105.3793227237243
 30
0.0
 10
183.5901367507629
 20
105.5020606081783
 30
0.0
 10
183.7416952927155
 20
105.7364313569366
 30
0.0
 10
183.8290334158885
 20
105.8482488579501
 30
0.0
 10
184.1148098368501
 20
106.1534323230784
 30
0.0
 10
184.3443461853159
 20
106.3242466422582
 30
0.0
 10
184.7206643213101
 20
106.5007570052322
 30
0.0
 10
184.8529972296708
 20
106.547241812426
 30
0.0
 10
185.1270298886616
 20
106.6103455251661
 30
0.0
 10
185.2650550482838
 20
106.6263032149104
 30
0.0
 10
185.5431264295025
 20
106.6271490837721
 30
0.0
 10
185.6848393681729
 20
106.611424408799
 30
0.0
 10
185.9572616238532
 20
106.5499839662998
 30
0.0
 10
186.0890897683502
 20
106.5046623226134
 30
0.0
 10
186.3444886639549
 20
106.3861145196124
 30
0.0
 10
186.4646546671442
 20
106.3144274363961
 30
0.0
 10
186.6898260797005
 20
106.1496988703977
 30
0.0
 10
186.7959771410348
 20
106.0554395973628
 30
0.0
 10
186.987424429737
 20
105.8518749232191
 30
0.0
 10
187.0733584436566
 20
105.7424076329799
 30
0.0
 10
187.2257707616966
 20
105.5083100304959
 30
0.0
 10
187.2919542519841
 20
105.3834158075981
 30
0.0
 10
187.3981359505351
 20
105.1296840560633
 30
0.0
 10
187.4391160137509
 20
104.9995143712796
 30
0.0
 10
187.4951961545483
 20
104.7324506761507
 30
0.0
 10
187.5094203299896
 20
104.5984974461355
 30
0.0
 10
187.510017013861
 20
104.3370407036675
 30
0.0
 10
187.4962484463626
 20
104.20692333428
 30
0.0
 10
187.4413983794206
 20
103.9587324787962
 30
0.0
 10
187.4009018661441
 20
103.8413769877154
 30
0.0
 10
187.241439394968
 20
103.5076278659757
 30
0.0
 10
187.0867709706538
 20
103.3157882940498
 30
0.0
 10
186.7984629393092
 20
103.08166572608
 30
0.0
 10
186.6944381239613
 20
103.0135093167168
 30
0.0
 10
186.4700188657825
 20
102.8947983774927
 30
0.0
 10
186.3480880779221
 20
102.8438764411244
 30
0.0
 10
186.0956309264961
 20
102.7629266063027
 30
0.0
 10
185.9647443965789
 20
102.7323912873038
 30
0.0
 10
185.692803478866
 20
102.6908332585593
 30
0.0
 10
185.5509217285336
 20
102.6800257092192
 30
0.0
 10
185.4097235045537
 20
102.6800257092192
 30
0.0
  0
SPLINE
  5
F4
330
1F
100
AcDbEntity
  8
0
  6
HIDDEN
 62
     7
370
     0
100
AcDbSpline
210
0.0
220
0.0
230
1.0
 70
     8
 71
     3
 72
     8
 73
     4
 74
     0
 42
0.000000001
 43
0.00000001
 40
0.0
 40
0.0
 40
0.0
 40
0.0
 40
1.0
 40
1.0
 40
1.0
 40
1.0
 10
184.5865433283943
 20
96.14859830896829
 30
0.0
 10
184.7979707183955
 20
96.1410887991858
 30
0.0
 10
185.0004392649283
 20
96.08696526955116
 30
0.0
 10
185.1866498640656
 20
96.00223698232598
 30
0.0
  0
SPLINE
  5
F5
330
1F
100
AcDbEntity
  8
0
  6
HIDDEN
 62
     7
370
     0
100
AcDbSpline
210
0.0
220
0.0
230
1.0
 70
     8
 71
     3
 72
     8
 73
     4
 74
     0
 42
0.000000001
 43
0.00000001
 40
0.0
 40
0.0
 40
0.0
 40
0.0
 40
1.0
 40
1.0
 40
1.0
 40
1.0
 10
185.1866498640656
 20
92.07785821439171
 30
0.0
 10
185.0001255147812
 20
92.20017863029219
 30
0.0
 10
184.7975706162555
 20
92.34126379095694
 30
0.0
 10
184.5865433283942
 20
92.51774742674179
 30
0.0
  0
CIRCLE
  5
F6
330
1F
100
AcDbEntity
  8
0
  6
HIDDEN
 62
     7
370
     0
100
AcDbCircle
 10
214.1597235046
 20
105.9171203444
 30
0.0
 40
3.624999999999986
  0
LINE
  5
F7
330
1F
100
AcDbEntity
  8
0
  6
HIDDEN
 62
     7
370
     0
100
AcDbLine
 10
174.581296325
 20
70.6171188424
 30
0.0
 11
174.4097234237
 21
70.6171188424
 31
0.0
  0
ELLIPSE
  5
F8
330
1F
100
AcDbEntity
  8
0
  6
HIDDEN
 62
     7
370
     0
100
AcDbEllipse
 10
174.5812963798
 20
68.6171203444
 30
0.0
 11
0.0
 21
2.0
 31
0.0
210
0.0
220
0.0
230
1.0
 40
0.4142135624
 41
4.712388980384702
 42
6.283185307179586
  0
LINE
  5
F9
330
1F
100
AcDbEntity
  8
0
  6
HIDDEN
 62
     7
370
     0
100
AcDbLine
 10
174.4097234237
 20
143.4171218346
 30
0.0
 11
174.581296325
 21
143.4171218346
 31
0.0
  0
ELLIPSE
  5
FA
330
1F
100
AcDbEntity
  8
0
  6
HIDDEN
 62
     7
370
     0
100
AcDbEllipse
 10
174.5812963798
 20
145.4171203444
 30
0.0
 11
0.0
 21
2.000000000000028
 31
0.0
210
0.0
220
0.0
230
1.0
 40
0.4142135624
 41
3.141592653589793
 42
4.712388980384695
  0
LINE
  5
FB
330
1F
100
AcDbEntity
  8
0
  6
HIDDEN
 62
     7
370
     0
100
AcDbLine
 10
175.4097233548
 20
59.7312059174
 30
0.0
 11
174.6253835059
 21
59.2836644421
 31
0.0
  0
LINE
  5
FC
330
1F
100
AcDbEntity
  8
0
  6
HIDDEN
 62
     7
370
     0
100
AcDbLine
 10
174.6995924528
 20
152.6272836993
 30
0.0
 11
175.4097233548
 21
151.9171539615
 31
0.0
  0
LINE
  5
FD
330
1F
100
AcDbEntity
  8
0
  6
HIDDEN
 62
     7
370
     0
100
AcDbLine
 10
190.25972374
 20
70.6171188424
 30
0.0
 11
174.581296325
 21
70.6171188424
 31
0.0
  0
LINE
  5
FE
330
1F
100
AcDbEntity
  8
0
  6
HIDDEN
 62
     7
370
     0
100
AcDbLine
 10
174.581296325
 20
143.4171218346
 30
0.0
 11
190.25972374
 21
143.4171218346
 31
0.0
  0
LINE
  5
FF
330
1F
100
AcDbEntity
  8
0
  6
HIDDEN
 62
     7
370
     0
100
AcDbLine
 10
175.4097233548
 20
151.9171539615
 30
0.0
 11
179.6330528355
 21
151.9171539615
 31
0.0
  0
LINE
  5
100
330
1F
100
AcDbEntity
  8
0
  6
HIDDEN
 62
     7
370
     0
100
AcDbLine
 10
184.9863946459
 20
151.9171539615
 30
0.0
 11
190.25972374
 21
151.9171539615
 31
0.0
  0
LINE
  5
101
330
1F
100
AcDbEntity
  8
0
  6
HIDDEN
 62
     7
370
     0
100
AcDbLine
 10
175.4097233548
 20
151.9171539615
 30
0.0
 11
175.4097233548
 21
145.4171221624
 31
0.0
  0
LINE
  5
102
330
1F
100
AcDbEntity
  8
0
  6
HIDDEN
 62
     7
370
     0
100
AcDbLine
 10
179.5296760298
 20
59.7312059174
 30
0.0
 11
175.4097233548
 21
59.7312059174
 31
0.0
  0
LINE
  5
103
330
1F
100
AcDbEntity
  8
0
  6
HIDDEN
 62
     7
370
     0
100
AcDbLine
 10
190.25972374
 20
59.7312059174
 30
0.0
 11
185.0897714517
 21
59.7312059174
 31
0.0
  0
LINE
  5
104
330
1F
100
AcDbEntity
  8
0
  6
HIDDEN
 62
     7
370
     0
100
AcDbLine
 10
175.4097233548
 20
59.7312059174
 30
0.0
 11
175.4097233548
 21
68.6171185146
 31
0.0
  0
LINE
  5
105
330
1F
100
AcDbEntity
  8
0
  6
HIDDEN
 62
     7
370
     0
100
AcDbLine
 10
79.6097226462
 20
93.4171201582
 30
0.0
 11
79.6097226462
 21
118.4171205307
 31
0.0
  0
LINE
  5
106
330
1F
100
AcDbEntity
  8
0
  6
HIDDEN
 62
     7
370
     0
100
AcDbLine
 10
82.8943260036
 20
95.417120486
 30
0.0
 11
82.8943260036
 21
116.4171202029
 31
0.0
  0
SPLINE
  5
107
330
1F
100
AcDbEntity
  8
0
  6
HIDDEN
 62
     7
370
     0
100
AcDbSpline
210
0.0
220
0.0
230
1.0
 70
     8
 71
     3
 72
    16
 73
    12
 74
     0
 42
0.000000001
 43
0.00000001
 40
0.0
 40
0.0
 40
0.0
 40
0.0
 40
0.2500000000000011
 40
0.2500000000000011
 40
0.5000000000000021
 40
0.5000000000000021
 40
0.6250000000000046
 40
0.6250000000000046
 40
0.750000000000007
 40
0.750000000000007
 40
1.0
 40
1.0
 40
1.0
 40
1.0
 10
224.2097235045537
 20
116.3812254594541
 30
0.0
 10
224.2097235045537
 20
116.2921597909481
 30
0.0
 10
224.2044037643665
 20
116.2012974174987
 30
0.0
 10
224.1749666397456
 20
116.0132243010764
 30
0.0
 10
224.151576093682
 20
115.9151231091738
 30
0.0
 10
224.0834486635852
 20
115.7750947606493
 30
0.0
 10
224.0544871169928
 20
115.7303945941988
 30
0.0
 10
223.9879455740362
 20
115.6603241667255
 30
0.0
 10
223.9504994392395
 20
115.6351217751901
 30
0.0
 10
223.84013015533
 20
115.5899821285493
 30
0.0
 10
223.7720988175269
 20
115.5955804641796
 30
0.0
 10
223.7097235045273
 20
115.6113154153833
 30
0.0
  0
SPLINE
  5
108
330
1F
100
AcDbEntity
  8
0
  6
HIDDEN
 62
     7
370
     0
100
AcDbSpline
210
0.0
220
0.0
230
1.0
 70
     8
 71
     3
 72
     8
 73
     4
 74
     0
 42
0.000000001
 43
0.00000001
 40
0.0
 40
0.0
 40
0.0
 40
0.0
 40
1.0
 40
1.0
 40
1.0
 40
1.0
 10
223.7097235045282
 20
115.6113154153824
 30
0.0
 10
223.624684107469
 20
115.5538713240897
 30
0.0
 10
223.5196648565249
 20
115.5131140796767
 30
0.0
 10
223.409723504554
 20
115.5131140796767
 30
0.0
  0
SPLINE
  5
109
330
1F
100
AcDbEntity
  8
0
  6
HIDDEN
 62
     7
370
     0
100
AcDbSpline
210
0.0
220
0.0
230
1.0
 70
     8
 71
     3
 72
     8
 73
     4
 74
     0
 42
0.000000001
 43
0.00000001
 40
0.0
 40
0.0
 40
0.0
 40
0.0
 40
1.0
 40
1.0
 40
1.0
 40
1.0
 10
223.7097235045719
 20
96.22292527348195
 30
0.0
 10
223.6246841075036
 20
96.28036936479022
 30
0.0
 10
223.5196648565438
 20
96.32112660921706
 30
0.0
 10
223.409723504554
 20
96.32112660921713
 30
0.0
  0
SPLINE
  5
10A
330
1F
100
AcDbEntity
  8
0
  6
HIDDEN
 62
     7
370
     0
100
AcDbSpline
210
0.0
220
0.0
230
1.0
 70
     8
 71
     3
 72
    16
 73
    12
 74
     0
 42
0.000000001
 43
0.00000001
 40
0.0
 40
0.0
 40
0.0
 40
0.0
 40
0.2500000000000134
 40
0.2500000000000134
 40
0.3750000000000137
 40
0.3750000000000137
 40
0.5000000000000139
 40
0.5000000000000139
 40
0.750000000000007
 40
0.750000000000007
 40
1.0
 40
1.0
 40
1.0
 40
1.0
 10
223.709723504571
 20
96.222925273481
 30
0.0
 10
223.771796587926
 20
96.23858404641128
 30
0.0
 10
223.8396058718064
 20
96.24418493531682
 30
0.0
 10
223.9494616437403
 20
96.19968759624777
 30
0.0
 10
223.9867685615283
 20
96.17480746894483
 30
0.0
 10
224.0530762436926
 20
96.10567188904047
 30
0.0
 10
224.0820424648423
 20
96.06154738973989
 30
0.0
 10
224.150854414964
 20
95.92154779297869
 30
0.0
 10
224.1745650890748
 20
95.8228404393548
 30
0.0
 10
224.2042660975208
 20
95.63455240208904
 30
0.0
 10
224.2097235045537
 20
95.54231602435033
 30
0.0
 10
224.2097235045537
 20
95.45301540564364
 30
0.0
  0
LINE
  5
10B
330
1F
100
AcDbEntity
  8
0
  6
HIDDEN
 62
     7
370
     0
100
AcDbLine
 10
199.7097235195
 20
105.9171203444
 30
0.0
 11
199.7097235195
 21
95.417120486
 31
0.0
  0
LINE
  5
10C
330
1F
100
AcDbEntity
  8
0
  6
HIDDEN
 62
     7
370
     0
100
AcDbLine
 10
199.7097235195
 20
116.4171202029
 30
0.0
 11
199.7097235195
 21
105.9171203444
 31
0.0
  0
LINE
  5
10D
330
1F
100
AcDbEntity
  8
0
  6
HIDDEN
 62
     7
370
     0
100
AcDbLine
 10
203.5757496975
 20
105.9171203444
 30
0.0
 11
203.5757496975
 21
94.9171204041
 31
0.0
  0
LINE
  5
10E
330
1F
100
AcDbEntity
  8
0
  6
HIDDEN
 62
     7
370
     0
100
AcDbLine
 10
203.5757496975
 20
116.9171202848
 30
0.0
 11
203.5757496975
 21
105.9171203444
 31
0.0
  0
LINE
  5
10F
330
1F
100
AcDbEntity
  8
0
  6
HIDDEN
 62
     7
370
     0
100
AcDbLine
 10
213.6097222588
 20
115.5131142507
 30
0.0
 11
223.4097242377
 21
115.5131142507
 31
0.0
  0
LINE
  5
110
330
1F
100
AcDbEntity
  8
0
  6
HIDDEN
 62
     7
370
     0
100
AcDbLine
 10
213.6097222588
 20
96.3211264382
 30
0.0
 11
223.4097242377
 21
96.3211264382
 31
0.0
  0
LINE
  5
111
330
1F
100
AcDbEntity
  8
0
  6
HIDDEN
 62
     7
370
     0
100
AcDbLine
 10
131.6097237191
 20
95.417120486
 30
0.0
 11
131.6097237191
 21
116.4171202029
 31
0.0
  0
LINE
  5
112
330
1F
100
AcDbEntity
  8
0
  6
HIDDEN
 62
     7
370
     0
100
AcDbLine
 10
135.3651031873
 20
101.6671201135
 30
0.0
 11
135.3651031873
 21
110.1671205754
 31
0.0
  0
SPLINE
  5
113
330
1F
100
AcDbEntity
  8
0
  6
HIDDEN
 62
     7
370
     0
100
AcDbSpline
210
0.0
220
0.0
230
1.0
 70
     8
 71
     3
 72
    11
 73
     7
 74
     0
 42
0.000000001
 43
0.00000001
 40
0.0
 40
0.0
 40
0.0
 40
0.0
 40
0.2778692177828639
 40
0.6036342750219332
 40
0.9297824002733323
 40
1.0
 40
1.0
 40
1.0
 40
1.0
 10
223.6643590054616
 20
121.603781349467
 30
0.0
 10
223.6614756632828
 20
121.5830397342905
 30
0.0
 10
223.6552119821898
 20
121.537981307381
 30
0.0
 10
223.6819846871192
 20
121.039288341507
 30
0.0
 10
223.7078779928345
 20
120.4645996625305
 30
0.0
 10
223.7094443752099
 20
120.0929578820945
 30
0.0
 10
223.709721865426
 20
120.027120217191
 30
0.0
  0
LINE
  5
114
330
1F
100
AcDbEntity
  8
0
  6
HIDDEN
 62
     7
370
     0
100
AcDbLine
 10
223.7097218654
 20
120.0271202172
 30
0.0
 11
223.7097218654
 21
115.6113156969
 31
0.0
  0
LINE
  5
115
330
1F
100
AcDbEntity
  8
0
  6
HIDDEN
 62
     7
370
     0
100
AcDbLine
 10
223.7097218654
 20
91.8071204717
 30
0.0
 11
223.7097218654
 21
96.222924992
 31
0.0
  0
SPLINE
  5
116
330
1F
100
AcDbEntity
  8
0
  6
HIDDEN
 62
     7
370
     0
100
AcDbSpline
210
0.0
220
0.0
230
1.0
 70
     8
 71
     3
 72
    12
 73
     8
 74
     0
 42
0.000000001
 43
0.00000001
 40
0.0
 40
0.0
 40
0.0
 40
0.0
 40
0.5
 40
0.5
 40
0.75
 40
0.75
 40
1.0
 40
1.0
 40
1.0
 40
1.0
 10
223.7097235045536
 20
91.8071203444469
 30
0.0
 10
223.7097235045536
 20
91.46442827239893
 30
0.0
 10
223.7088778932817
 20
91.16956318409092
 30
0.0
 10
223.7022637649276
 20
90.79780774373575
 30
0.0
 10
223.6991344576498
 20
90.68799006275448
 30
0.0
 10
223.6916683394936
 20
90.50186071395136
 30
0.0
 10
223.6874545611933
 20
90.42446105879483
 30
0.0
 10
223.6830039532337
 20
90.36340106401921
 30
0.0
  0
SPLINE
  5
117
330
1F
100
AcDbEntity
  8
0
  6
HIDDEN
 62
     7
370
     0
100
AcDbSpline
210
0.0
220
0.0
230
1.0
 70
     8
 71
     3
 72
    11
 73
     7
 74
     0
 42
0.000000001
 43
0.00000001
 40
0.0
 40
0.0
 40
0.0
 40
0.0
 40
0.0070070543155571
 40
0.3341927932790553
 40
0.6604330474875574
 40
1.0
 40
1.0
 40
1.0
 40
1.0
 10
223.6628465376004
 20
90.211328111099
 30
0.0
 10
223.6626975526962
 20
90.21019371467753
 30
0.0
 10
223.6555919018713
 20
90.15609007972597
 30
0.0
 10
223.6579356648795
 20
90.38470726354245
 30
0.0
 10
223.6916789118065
 20
90.89872809744612
 30
0.0
 10
223.7036278249947
 20
91.50030929361655
 30
0.0
 10
223.709721865426
 20
91.8071204717028
 30
0.0
  0
LINE
  5
118
330
1F
100
AcDbEntity
  8
0
  6
HIDDEN
 62
     7
370
     0
100
AcDbLine
 10
213.6097222588
 20
91.8071204717
 30
0.0
 11
213.6097222588
 21
96.3211264382
 31
0.0
  0
LINE
  5
119
330
1F
100
AcDbEntity
  8
0
  6
HIDDEN
 62
     7
370
     0
100
AcDbLine
 10
213.6097222588
 20
120.0271202172
 30
0.0
 11
213.6097222588
 21
115.5131142507
 31
0.0
  0
SPLINE
  5
11A
330
1F
100
AcDbEntity
  8
0
  6
HIDDEN
 62
     7
370
     0
100
AcDbSpline
210
0.0
220
0.0
230
1.0
 70
    11
 71
     3
 72
    62
 73
    58
 74
     0
 42
0.000000001
 43
0.00000001
 40
0.0
 40
0.0
 40
0.0
 40
0.0
 40
0.0312500000000002
 40
0.0312500000000002
 40
0.0625000000000004
 40
0.0625000000000004
 40
0.1250000000000004
 40
0.1250000000000004
 40
0.1875000000000004
 40
0.1875000000000004
 40
0.2187500000000002
 40
0.2187500000000002
 40
0.2500000000000001
 40
0.2500000000000001
 40
0.28125
 40
0.28125
 40
0.3124999999999999
 40
0.3124999999999999
 40
0.3437499999999997
 40
0.3437499999999997
 40
0.3749999999999996
 40
0.3749999999999996
 40
0.4374999999999993
 40
0.4374999999999993
 40
0.4687499999999993
 40
0.4687499999999993
 40
0.4999999999999993
 40
0.4999999999999993
 40
0.5312499999999994
 40
0.5312499999999994
 40
0.5624999999999994
 40
0.5624999999999994
 40
0.5937499999999996
 40
0.5937499999999996
 40
0.6249999999999997
 40
0.6249999999999997
 40
0.6562499999999997
 40
0.6562499999999997
 40
0.6874999999999998
 40
0.6874999999999998
 40
0.7187499999999999
 40
0.7187499999999999
 40
0.7499999999999999
 40
0.7499999999999999
 40
0.78125
 40
0.78125
 40
0.8125000000000001
 40
0.8125000000000001
 40
0.8750000000000001
 40
0.8750000000000001
 40
0.9062500000000001
 40
0.9062500000000001
 40
0.9375000000000001
 40
0.9375000000000001
 40
0.96875
 40
0.96875
 40
1.0
 40
1.0
 40
1.0
 40
1.0
 10
185.4097235045537
 20
105.2075059723738
 30
0.0
 10
185.5509217285336
 20
105.2075059723738
 30
0.0
 10
185.6891996055473
 20
105.2235173823653
 30
0.0
 10
185.9603656767552
 20
105.2852469479882
 30
0.0
 10
186.0945690042147
 20
105.3317847114429
 30
0.0
 10
186.4736321840049
 20
105.5087610401779
 30
0.0
 10
186.7026391056987
 20
105.6791873338871
 30
0.0
 10
187.0836697247014
 20
106.0850736113104
 30
0.0
 10
187.2392928016231
 20
106.3247440526464
 30
0.0
 10
187.3983632781917
 20
106.7052208799631
 30
0.0
 10
187.4400904233351
 20
106.8384896152681
 30
0.0
 10
187.4953611244771
 20
107.1034708508969
 30
0.0
 10
187.5094410559669
 20
107.2354361656148
 30
0.0
 10
187.5099976222881
 20
107.498113475429
 30
0.0
 10
187.4960083448675
 20
107.6284933393866
 30
0.0
 10
187.4415268256318
 20
107.8748372701098
 30
0.0
 10
187.4006763674769
 20
107.9934915400926
 30
0.0
 10
187.2940624006175
 20
108.2163178068479
 30
0.0
 10
187.2293102583445
 20
108.3190029178323
 30
0.0
 10
187.0777517163919
 20
108.5091261707457
 30
0.0
 10
186.9904135932188
 20
108.596632961965
 30
0.0
 10
186.7046371722573
 20
108.8289004574137
 30
0.0
 10
186.4751008237915
 20
108.9493492000563
 30
0.0
 10
186.0987826877973
 20
109.0704457923579
 30
0.0
 10
185.9664497794366
 20
109.1015539257942
 30
0.0
 10
185.6924171204457
 20
109.1435011653498
 30
0.0
 10
185.5543919608236
 20
109.1539313999594
 30
0.0
 10
185.2763205796049
 20
109.1544872988263
 30
0.0
 10
185.1346076409345
 20
109.1442088399962
 30
0.0
 10
184.8621853852542
 20
109.103385655303
 30
0.0
 10
184.7303572407571
 20
109.0730923194283
 30
0.0
 10
184.4749583451525
 20
108.9918251291374
 30
0.0
 10
184.3547923419632
 20
108.9418772782791
 30
0.0
 10
184.1296209294069
 20
108.8235560670811
 30
0.0
 10
184.0234698680726
 20
108.7542629579985
 30
0.0
 10
183.8320225793703
 20
108.5994483094047
 30
0.0
 10
183.7460885654508
 20
108.5138623215341
 30
0.0
 10
183.5936762474108
 20
108.3241786494571
 30
0.0
 10
183.5274927571233
 20
108.2197573883865
 30
0.0
 10
183.4213110585722
 20
107.9997260485792
 30
0.0
 10
183.3803309953564
 20
107.8830775624697
 30
0.0
 10
183.3242508545591
 20
107.6346761814805
 30
0.0
 10
183.3100266791178
 20
107.5055661926763
 30
0.0
 10
183.3094299952463
 20
107.2443111268442
 30
0.0
 10
183.3231985627447
 20
107.1095048361715
 30
0.0
 10
183.3780486296868
 20
106.843049721817
 30
0.0
 10
183.4185451429633
 20
106.7123157871185
 30
0.0
 10
183.5780076141394
 20
106.3279003331149
 30
0.0
 10
183.7326760384536
 20
106.0887413012381
 30
0.0
 10
184.0209840697982
 20
105.7810819417942
 30
0.0
 10
184.1250088851461
 20
105.68840882503
 30
0.0
 10
184.3494281433248
 20
105.5232659823904
 30
0.0
 10
184.4713589311853
 20
105.4502251137112
 30
0.0
 10
184.7238160826113
 20
105.3322031974388
 30
0.0
 10
184.8547026125285
 20
105.2865554918211
 30
0.0
 10
185.1266435302413
 20
105.2240350523539
 30
0.0
 10
185.2685252805738
 20
105.2075059723738
 30
0.0
 10
185.4097235045537
 20
105.2075059723738
 30
0.0
  0
LINE
  5
11B
330
1F
100
AcDbEntity
  8
0
  6
HIDDEN
 62
     7
370
     0
100
AcDbLine
 10
213.6097222588
 20
121.6271202932
 30
0.0
 11
213.6097222588
 21
120.0271202172
 31
0.0
  0
LINE
  5
11C
330
1F
100
AcDbEntity
  8
0
  6
HIDDEN
 62
     7
370
     0
100
AcDbLine
 10
213.6097222588
 20
90.2071203957
 30
0.0
 11
213.6097222588
 21
91.8071204717
 31
0.0
  0
SPLINE
  5
11D
330
1F
100
AcDbEntity
  8
0
  6
HIDDEN
 62
     7
370
     0
100
AcDbSpline
210
0.0
220
0.0
230
1.0
 70
     8
 71
     3
 72
     8
 73
     4
 74
     0
 42
0.000000001
 43
0.00000001
 40
0.0
 40
0.0
 40
0.0
 40
0.0
 40
1.0
 40
1.0
 40
1.0
 40
1.0
 10
184.5865433283942
 20
115.6856423799256
 30
0.0
 10
184.7979707183954
 20
115.693151889708
 30
0.0
 10
185.0004392649282
 20
115.7472754193427
 30
0.0
 10
185.1866498640655
 20
115.8320037065678
 30
0.0
  0
ELLIPSE
  5
11E
330
1F
100
AcDbEntity
  8
0
  6
HIDDEN
 62
     7
370
     0
100
AcDbEllipse
 10
185.4097235046
 20
117.6476304558
 30
0.0
 11
-1.760776919379083
 21
2.232245799914466
 31
0.0
210
0.0
220
0.0
230
1.0
 40
0.5126701559
 41
5.395150933160697
 42
8.323890913123098
  0
SPLINE
  5
11F
330
1F
100
AcDbEntity
  8
0
  6
HIDDEN
 62
     7
370
     0
100
AcDbSpline
210
0.0
220
0.0
230
1.0
 70
     8
 71
     3
 72
     8
 73
     4
 74
     0
 42
0.000000001
 43
0.00000001
 40
0.0
 40
0.0
 40
0.0
 40
0.0
 40
1.0
 40
1.0
 40
1.0
 40
1.0
 10
185.1866498640664
 20
119.7563824745026
 30
0.0
 10
185.0001255147816
 20
119.6340620586018
 30
0.0
 10
184.7975706162554
 20
119.4929768979367
 30
0.0
 10
184.5865433283935
 20
119.3164932621513
 30
0.0
  0
ELLIPSE
  5
120
330
1F
100
AcDbEntity
  8
0
  6
HIDDEN
 62
     7
370
     0
100
AcDbEllipse
 10
185.4097235046
 20
117.6476304558
 30
0.0
 11
1.760776919379055
 21
1.388886188042946
 31
0.0
210
0.0
220
0.0
230
1.0
 40
0.8239737799
 41
1.397255033323966
 42
3.733259041931027
  0
LWPOLYLINE
  5
121
330
1F
100
AcDbEntity
  8
0
  6
HIDDEN
 62
     7
370
     0
100
AcDbPolyline
 90
       21
 70
   128
 43
0.0
 10
185.4097235969
 20
117.4020571555
 10
186.0586589224
 20
117.4986399631
 10
186.6440724603
 20
117.7789345304
 10
187.1086590014
 20
118.2155031631
 10
187.4069429956
 20
118.7656121249
 10
187.5097237549
 20
119.3754114131
 10
187.4069429956
 20
119.9852116327
 10
187.1086590014
 20
120.5353205944
 10
186.6440724603
 20
120.9718892271
 10
186.0586589224
 20
121.2521837945
 10
185.4097235969
 20
121.3487666021
 10
184.7607882715
 20
121.2521837945
 10
184.1753747336
 20
120.9718892271
 10
183.7107881925
 20
120.5353205944
 10
183.4125051296
 20
119.9852116327
 10
183.309723439
 20
119.3754114131
 10
183.4125051296
 20
118.7656121249
 10
183.7107881925
 20
118.2155031631
 10
184.1753747336
 20
117.7789345304
 10
184.7607882715
 20
117.4986399631
 10
185.4097235969
 20
117.4020571555
  0
LINE
  5
122
330
1F
100
AcDbEntity
  8
0
  6
HIDDEN
 62
     7
370
     0
100
AcDbLine
 10
180.3997231669
 20
141.310164697
 30
0.0
 11
180.3997231669
 21
135.76712086
 31
0.0
  0
LINE
  5
123
330
1F
100
AcDbEntity
  8
0
  6
HIDDEN
 62
     7
370
     0
100
AcDbLine
 10
184.2197233833
 20
141.310164697
 30
0.0
 11
184.2197233833
 21
135.76712086
 31
0.0
  0
SPLINE
  5
124
330
1F
100
AcDbEntity
  8
0
  6
HIDDEN
 62
     7
370
     0
100
AcDbSpline
210
0.0
220
0.0
230
1.0
 70
     8
 71
     3
 72
    14
 73
    10
 74
     0
 42
0.000000001
 43
0.00000001
 40
0.0
 40
0.0
 40
0.0
 40
0.0
 40
0.25
 40
0.25
 40
0.5
 40
0.5
 40
0.75
 40
0.75
 40
1.0
 40
1.0
 40
1.0
 40
1.0
 10
183.4197235045535
 20
122.8924099013807
 30
0.0
 10
183.4941490566881
 20
122.9832673561623
 30
0.0
 10
183.5760273163015
 20
123.0724779393681
 30
0.0
 10
183.7490134624771
 20
123.24790225816
 30
0.0
 10
183.8396852823382
 20
123.3334372137867
 30
0.0
 10
184.0070488316825
 20
123.4942888267252
 30
0.0
 10
184.083499656649
 20
123.5700209156217
 30
0.0
 10
184.1897927414875
 20
123.7016119391971
 30
0.0
 10
184.2197235045537
 20
123.7586121141034
 30
0.0
 10
184.2197235045537
 20
123.8008093870555
 30
0.0
  0
SPLINE
  5
125
330
1F
100
AcDbEntity
  8
0
  6
HIDDEN
 62
     7
370
     0
100
AcDbSpline
210
0.0
220
0.0
230
1.0
 70
     8
 71
     3
 72
    14
 73
    10
 74
     0
 42
0.000000001
 43
0.00000001
 40
0.0
 40
0.0
 40
0.0
 40
0.0
 40
0.25
 40
0.25
 40
0.5
 40
0.5
 40
0.75
 40
0.75
 40
1.0
 40
1.0
 40
1.0
 40
1.0
 10
184.2197235045537
 20
119.668768188424
 30
0.0
 10
184.2197235045537
 20
119.6262677707694
 30
0.0
 10
184.190010045737
 20
119.5989958642868
 30
0.0
 10
184.0839286788448
 20
119.5854430903196
 30
0.0
 10
184.0075617496802
 20
119.5998886474606
 30
0.0
 10
183.8388022051518
 20
119.6722648114804
 30
0.0
 10
183.7480053926799
 20
119.7293377465979
 30
0.0
 10
183.5764404524725
 20
119.8704956801148
 30
0.0
 10
183.494379212178
 20
119.9550728951984
 30
0.0
 10
183.4197235045535
 20
120.0484460583276
 30
0.0
  0
LINE
  5
126
330
1F
100
AcDbEntity
  8
0
  6
HIDDEN
 62
     7
370
     0
100
AcDbLine
 10
184.2197233833
 20
92.1198585923
 30
0.0
 11
184.2197233833
 21
87.9878178159
 31
0.0
  0
LINE
  5
127
330
1F
100
AcDbEntity
  8
0
  6
HIDDEN
 62
     7
370
     0
100
AcDbLine
 10
185.54288503
 20
91.619973063
 30
0.0
 11
185.54288503
 21
86.9281794796
 31
0.0
  0
LINE
  5
128
330
1F
100
AcDbEntity
  8
0
  6
HIDDEN
 62
     7
370
     0
100
AcDbLine
 10
185.54288503
 20
144.4281991492
 30
0.0
 11
185.54288503
 21
135.76712086
 31
0.0
  0
LINE
  5
129
330
1F
100
AcDbEntity
  8
0
  6
HIDDEN
 62
     7
370
     0
100
AcDbLine
 10
179.0765624515
 20
144.4281991492
 30
0.0
 11
179.0765624515
 21
135.76712086
 31
0.0
  0
ARC
  5
12A
330
1F
100
AcDbEntity
  8
0
  6
HIDDEN
 62
     7
370
     0
100
AcDbCircle
 10
185.6557762665
 20
118.4871080198
 30
0.0
 40
1.353195702694778
100
AcDbArc
 50
110.2844232439
 51
142.1998959299
  0
ARC
  5
12B
330
1F
100
AcDbEntity
  8
0
  6
HIDDEN
 62
     7
370
     0
100
AcDbCircle
 10
184.713124036
 20
116.4700905746
 30
0.0
 40
0.7945949542257861
100
AcDbArc
 50
260.8336111241
 51
306.5791809456
  0
LWPOLYLINE
  5
12C
330
1F
100
AcDbEntity
  8
0
  6
HIDDEN
 62
     7
370
     0
100
AcDbPolyline
 90
       21
 70
   128
 43
0.0
 10
175.4444863669
 20
118.630072094
 10
175.6073299817
 20
118.1528298105
 10
175.8672243937
 20
117.8326848815
 10
176.1987291298
 20
117.7009763117
 10
176.5693936519
 20
117.7705954681
 10
176.9429359607
 20
118.0347287948
 10
177.2827900036
 20
118.4675199832
 10
177.5556884728
 20
119.0266050319
 10
177.7349191739
 20
119.6572557012
 10
177.8029369212
 20
120.297741137
 10
177.7530841551
 20
120.8853656347
 10
177.5902400746
 20
121.3626079182
 10
177.3303456626
 20
121.6827519159
 10
176.9988413922
 20
121.814461417
 10
176.6281764045
 20
121.7448413293
 10
176.2546345613
 20
121.4807089339
 10
175.9147805183
 20
121.0479177455
 10
175.6418815836
 20
120.4888326968
 10
175.4626508824
 20
119.8581810961
 10
175.3946331351
 20
119.2176956604
 10
175.4444863669
 20
118.630072094
  0
LWPOLYLINE
  5
12D
330
1F
100
AcDbEntity
  8
0
  6
HIDDEN
 62
     7
370
     0
100
AcDbPolyline
 90
       24
 70
   128
 43
0.0
 10
174.68145448
 20
118.2110560979
 10
174.8752475738
 20
117.606711566
 10
175.1769667513
 20
117.1666635121
 10
175.5642348922
 20
116.9235482733
 10
176.0083295426
 20
116.8953962545
 10
176.4763149454
 20
117.0842964123
 10
176.9334821052
 20
117.4762369985
 10
177.345925758
 20
118.0421514357
 10
177.6830561481
 20
118.740066878
 10
177.9198700584
 20
119.5182232107
 10
178.0388041421
 20
120.3189082364
 10
178.0310378431
 20
121.0827380339
 10
177.8971467189
 20
121.753063045
 10
177.6470614619
 20
122.2801692704
 10
177.2993288956
 20
122.6249616514
 10
176.8797396704
 20
122.7618697951
 10
176.4194120675
 20
122.680740423
 10
175.9524865098
 20
122.3875898788
 10
175.5135932959
 20
121.9041608195
 10
175.1352830812
 20
121.2663045074
 10
174.8456126566
 20
120.5213293354
 10
174.6660662371
 20
119.7244869466
 10
174.6099598727
 20
118.9348753462
 10
174.68145448
 20
118.2110560979
  0
LWPOLYLINE
  5
12E
330
1F
100
AcDbEntity
  8
0
  6
HIDDEN
 62
     7
370
     0
100
AcDbPolyline
 90
       22
 70
   128
 43
0.0
 10
185.4097235969
 20
117.0759741137
 10
186.1466111637
 20
117.1803437094
 10
186.8180239595
 20
117.4841793175
 10
187.3643014602
 20
117.9604837592
 10
187.7369087211
 20
118.5669349427
 10
187.9027325682
 20
119.2496474753
 10
187.8470432035
 20
119.9479587297
 10
187.5747878126
 20
120.5998221333
 10
187.1101547054
 20
121.1473140786
 10
186.494433137
 20
121.5417906563
 10
185.7823289952
 20
121.7481978158
 10
185.0371181986
 20
121.7481978158
 10
184.3250140569
 20
121.5417906563
 10
183.7092915571
 20
121.1473140786
 10
183.2446603126
 20
120.5998221333
 10
182.9724039904
 20
119.9479587297
 10
182.9167136944
 20
119.2496474753
 10
183.0825394041
 20
118.5669349427
 10
183.4551448024
 20
117.9604837592
 10
184.0014232344
 20
117.4841793175
 10
184.6728360302
 20
117.1803437094
 10
185.4097235969
 20
117.0759741137
  0
SPLINE
  5
12F
330
1F
100
AcDbEntity
  8
0
  6
HIDDEN
 62
     7
370
     0
100
AcDbSpline
210
0.0
220
0.0
230
1.0
 70
     8
 71
     3
 72
    34
 73
    30
 74
     0
 42
0.000000001
 43
0.00000001
 40
0.0
 40
0.0
 40
0.0
 40
0.0
 40
0.062499999999999
 40
0.062499999999999
 40
0.124999999999998
 40
0.124999999999998
 40
0.1874999999999971
 40
0.1874999999999971
 40
0.2499999999999966
 40
0.2499999999999966
 40
0.3124999999999962
 40
0.3124999999999962
 40
0.3749999999999957
 40
0.3749999999999957
 40
0.4999999999999958
 40
0.4999999999999958
 40
0.6249999999999958
 40
0.6249999999999958
 40
0.6874999999999964
 40
0.6874999999999964
 40
0.7499999999999971
 40
0.7499999999999971
 40
0.8124999999999979
 40
0.8124999999999979
 40
0.8749999999999986
 40
0.8749999999999986
 40
0.9374999999999992
 40
0.9374999999999992
 40
1.0
 40
1.0
 40
1.0
 40
1.0
 10
185.5428850120156
 20
124.9060607324481
 30
0.0
 10
185.7022768398035
 20
124.8982206365253
 30
0.0
 10
185.858279323247
 20
124.8765619884349
 30
0.0
 10
186.1637888393243
 20
124.8067137609421
 30
0.0
 10
186.3146831743365
 20
124.7578880586138
 30
0.0
 10
186.6025825190273
 20
124.6349641052065
 30
0.0
 10
186.738528921987
 20
124.5616565970722
 30
0.0
 10
186.994711537579
 20
124.3916459733008
 30
0.0
 10
187.1158938253381
 20
124.2937721810994
 30
0.0
 10
187.3330398972109
 20
124.0811880056674
 30
0.0
 10
187.4300017701712
 20
123.9661420671378
 30
0.0
 10
187.6005642059968
 20
123.7182809470177
 30
0.0
 10
187.6738042592087
 20
123.5852474499521
 30
0.0
 10
187.8486847159575
 20
123.1757394338219
 30
0.0
 10
187.9097226769335
 20
122.8777787840469
 30
0.0
 10
187.9097243321566
 20
122.2863372281724
 30
0.0
 10
187.8486897225703
 20
121.9861636781958
 30
0.0
 10
187.6737999551684
 20
121.5709323979281
 30
0.0
 10
187.600556249744
 20
121.4355772796813
 30
0.0
 10
187.4299955340074
 20
121.1826779482946
 30
0.0
 10
187.3330318184138
 20
121.0649126706869
 30
0.0
 10
187.1158714898267
 20
120.8467823753182
 30
0.0
 10
186.9946902311399
 20
120.7460790501713
 30
0.0
 10
186.7385200042011
 20
120.570835357338
 30
0.0
 10
186.6025766545384
 20
120.4950903882474
 30
0.0
 10
186.3146739513553
 20
120.3679220129451
 30
0.0
 10
186.1637837554385
 20
120.3173207406177
 30
0.0
 10
185.8582782517329
 20
120.2448916408698
 30
0.0
 10
185.7022768534694
 20
120.2224058694729
 30
0.0
 10
185.5428850120156
 20
120.214267409578
 30
0.0
  0
SPLINE
  5
130
330
1F
100
AcDbEntity
  8
0
  6
HIDDEN
 62
     7
370
     0
100
AcDbSpline
210
0.0
220
0.0
230
1.0
 70
     8
 71
     3
 72
    10
 73
     6
 74
     0
 42
0.000000001
 43
0.00000001
 40
0.0
 40
0.0
 40
0.0
 40
0.0
 40
0.5
 40
0.5
 40
1.0
 40
1.0
 40
1.0
 40
1.0
 10
185.5428850120156
 20
120.214267409578
 30
0.0
 10
185.3201579851422
 20
120.0707789092842
 30
0.0
 10
185.0984720979171
 20
119.9560581635514
 30
0.0
 10
184.6572512600651
 20
119.7862977341935
 30
0.0
 10
184.4376926126662
 20
119.7308777398061
 30
0.0
 10
184.219723504554
 20
119.7143824104365
 30
0.0
  0
SPLINE
  5
131
330
1F
100
AcDbEntity
  8
0
  6
HIDDEN
 62
     7
370
     0
100
AcDbSpline
210
0.0
220
0.0
230
1.0
 70
     8
 71
     3
 72
    10
 73
     6
 74
     0
 42
0.000000001
 43
0.00000001
 40
0.0
 40
0.0
 40
0.0
 40
0.0
 40
0.5
 40
0.5
 40
1.0
 40
1.0
 40
1.0
 40
1.0
 10
184.219723504554
 20
123.846423609068
 30
0.0
 10
184.4366143370748
 20
124.0834625485165
 30
0.0
 10
184.6557669737336
 20
124.28563278351
 30
0.0
 10
185.0972514740025
 20
124.6363848550287
 30
0.0
 10
185.3204539392759
 20
124.7850609474256
 30
0.0
 10
185.5428850120156
 20
124.9060607324481
 30
0.0
  0
SPLINE
  5
132
330
1F
100
AcDbEntity
  8
0
  6
HIDDEN
 62
     7
370
     0
100
AcDbSpline
210
0.0
220
0.0
230
1.0
 70
     8
 71
     3
 72
    16
 73
    12
 74
     0
 42
0.000000001
 43
0.00000001
 40
0.0
 40
0.0
 40
0.0
 40
0.0
 40
0.2499999999999994
 40
0.2499999999999994
 40
0.4999999999999989
 40
0.4999999999999989
 40
0.7499999999999983
 40
0.7499999999999983
 40
0.8749999999999991
 40
0.8749999999999991
 40
1.0
 40
1.0
 40
1.0
 40
1.0
 10
183.4197235045537
 20
120.0484460583274
 30
0.0
 10
183.2543093980736
 20
120.2553322943527
 30
0.0
 10
183.1281120670979
 20
120.4812009921616
 30
0.0
 10
182.9537057687671
 20
120.9700702377744
 30
0.0
 10
182.9098757296702
 20
121.221837291119
 30
0.0
 10
182.9095720567002
 20
121.7336166157012
 30
0.0
 10
182.9534289167605
 20
121.9846713247839
 30
0.0
 10
183.0833506760277
 20
122.3455198929259
 30
0.0
 10
183.1374654874356
 20
122.4627926612745
 30
0.0
 10
183.264142477579
 20
122.6852816126133
 30
0.0
 10
183.3370161979399
 20
122.7914422208567
 30
0.0
 10
183.4197235045537
 20
122.892409901381
 30
0.0
  0
ARC
  5
133
330
1F
100
AcDbEntity
  8
0
  6
HIDDEN
 62
     7
370
     0
100
AcDbCircle
 10
185.5503189159
 20
90.6719607174
 30
0.0
 40
2.350425449306414
100
AcDbArc
 50
342.7598968628
 51
89.2811946783
  0
ARC
  5
134
330
1F
100
AcDbEntity
  8
0
  6
HIDDEN
 62
     7
370
     0
100
AcDbCircle
 10
185.3406980397
 20
90.6018013081
 30
0.0
 40
2.432181737083006
100
AcDbArc
 50
84.358147831
 51
178.1949449947
  0
ARC
  5
135
330
1F
100
AcDbEntity
  8
0
  6
HIDDEN
 62
     7
370
     0
100
AcDbCircle
 10
185.5126256679
 20
90.5973793781
 30
0.0
 40
2.246427503958527
100
AcDbArc
 50
348.8306547517
 51
88.5293274105
  0
ARC
  5
136
330
1F
100
AcDbEntity
  8
0
  6
HIDDEN
 62
     7
370
     0
100
AcDbCircle
 10
185.3886916674
 20
90.4499373161
 30
0.0
 40
2.400009123016791
100
AcDbArc
 50
85.6607480146
 51
145.5784699526
  0
ARC
  5
137
330
1F
100
AcDbEntity
  8
0
  6
HIDDEN
 62
     7
370
     0
100
AcDbCircle
 10
185.4880172264
 20
90.5841635237
 30
0.0
 40
1.92226598551256
100
AcDbArc
 50
1.3821616813
 51
88.2777767281
  0
ARC
  5
138
330
1F
100
AcDbEntity
  8
0
  6
HIDDEN
 62
     7
370
     0
100
AcDbCircle
 10
185.4034176106
 20
90.4292207017
 30
0.0
 40
2.081215837840781
100
AcDbArc
 50
86.077461505
 51
124.6631963995
  0
LWPOLYLINE
  5
139
330
1F
100
AcDbEntity
  8
0
  6
HIDDEN
 62
     7
370
     0
100
AcDbPolyline
 90
       22
 70
   128
 43
0.0
 10
185.5798054508
 20
93.2103125299
 10
186.3074300832
 20
93.059075057
 10
186.9552887998
 20
92.713020734
 10
187.4658174834
 20
92.2028962443
 10
187.7936542056
 20
91.5740290577
 10
187.909667196
 20
90.8822975973
 10
187.8035485766
 20
90.1891644965
 10
187.4847289196
 20
89.5562171857
 10
186.9815371952
 20
89.0396963726
 10
186.3386815435
 20
88.6854976336
 10
185.6132837034
 20
88.5250922213
 10
184.8697986475
 20
88.5727349589
 10
184.1742888115
 20
88.8241883288
 10
183.5885530359
 20
89.2571136276
 10
183.1646354891
 20
89.8330416451
 10
182.9402044437
 20
90.5007989998
 10
182.9352004475
 20
91.201052993
 10
183.1500686727
 20
91.871582895
 10
183.5657179377
 20
92.4528082753
 10
184.1452147833
 20
92.8930854345
 10
184.837068247
 20
93.1532941679
 10
185.5798054508
 20
93.2103125299
  0
LWPOLYLINE
  5
13A
330
1F
100
AcDbEntity
  8
0
  6
HIDDEN
 62
     7
370
     0
100
AcDbPolyline
 90
       20
 70
   128
 43
0.0
 10
185.5457888938
 20
93.9233368183
 10
186.1863106511
 20
93.7802260662
 10
186.7426771692
 20
93.4494361202
 10
187.1545974187
 20
92.9668107922
 10
187.3774349711
 20
92.3846512954
 10
187.3870387695
 20
91.7660444895
 10
187.1823694579
 20
91.1780241797
 10
186.7856074146
 20
90.6843123878
 10
186.2397471464
 20
90.3384108017
 10
185.6039406753
 20
90.1778023611
 10
184.9470872454
 20
90.2198925535
 10
184.3403678409
 20
90.460119761
 10
183.8495301104
 20
90.8724516551
 10
183.5277637488
 20
91.4122052411
 10
183.409936542
 20
92.0208897362
 10
183.5088169224
 20
92.6325460816
 10
183.8136909551
 20
93.1808901871
 10
184.2915190405
 20
93.6065018098
 10
184.8905224375
 20
93.8632581304
 10
185.5457888938
 20
93.9233368183
  0
LWPOLYLINE
  5
13B
330
1F
100
AcDbEntity
  8
0
  6
HIDDEN
 62
     7
370
     0
100
AcDbPolyline
 90
       22
 70
   128
 43
0.0
 10
185.5798054508
 20
93.4463068763
 10
186.3074300832
 20
93.2950694035
 10
186.9552887998
 20
92.9490141491
 10
187.4658174834
 20
92.4388905908
 10
187.7936542056
 20
91.8100234042
 10
187.909667196
 20
91.1182919438
 10
187.8035485766
 20
90.4251579116
 10
187.4847289196
 20
89.7922106008
 10
186.9815371952
 20
89.2756916503
 10
186.3386815435
 20
88.9214910487
 10
185.6132837034
 20
88.7610874991
 10
184.8697986475
 20
88.8087283741
 10
184.1742888115
 20
89.0601817439
 10
183.5885530359
 20
89.4931070427
 10
183.1646354891
 20
90.0690350602
 10
182.9402044437
 20
90.7367933462
 10
182.9352004475
 20
91.4370473395
 10
183.1500686727
 20
92.1075763101
 10
183.5657179377
 20
92.6888016904
 10
184.1452147833
 20
93.1290788497
 10
184.837068247
 20
93.389287583
 10
185.5798054508
 20
93.4463068763
  0
LWPOLYLINE
  5
13C
330
1F
100
AcDbEntity
  8
0
  6
HIDDEN
 62
     7
370
     0
100
AcDbPolyline
 90
       21
 70
   128
 43
0.0
 10
185.566198828
 20
93.1973289619
 10
186.267632807
 20
93.0463559846
 10
186.8850875667
 20
92.6990881483
 10
187.3581249288
 20
92.1895196582
 10
187.6404386035
 20
91.5675302888
 10
187.7043943874
 20
90.8940052534
 10
187.54373193
 20
90.2348738084
 10
187.1741775445
 20
89.6546542565
 10
186.6319065935
 20
89.2101451675
 10
185.9699988759
 20
88.9448579321
 10
185.2532483659
 20
88.8847578238
 10
184.5518143869
 20
89.0357326637
 10
183.9343586958
 20
89.3829986374
 10
183.4613213337
 20
89.8925680588
 10
183.179007659
 20
90.5145574282
 10
183.1150528065
 20
91.1880824635
 10
183.2757152639
 20
91.8472148399
 10
183.6452696494
 20
92.4274334605
 10
184.1875406004
 20
92.8719425495
 10
184.849448318
 20
93.1372307162
 10
185.566198828
 20
93.1973289619
  0
LWPOLYLINE
  5
13D
330
1F
100
AcDbEntity
  8
0
  6
HIDDEN
 62
     7
370
     0
100
AcDbPolyline
 90
       22
 70
   128
 43
0.0
 10
185.5798054508
 20
93.6823002915
 10
186.3074300832
 20
93.5310628186
 10
186.9552887998
 20
93.1850084956
 10
187.4658174834
 20
92.6748840059
 10
187.7936542056
 20
92.0460177506
 10
187.909667196
 20
91.3542853589
 10
187.8035485766
 20
90.661152258
 10
187.4847289196
 20
90.0282058785
 10
186.9815371952
 20
89.5116850654
 10
186.3386815435
 20
89.1574863265
 10
185.6132837034
 20
88.9970809142
 10
184.8697986475
 20
89.0447217892
 10
184.1742888115
 20
89.2961770217
 10
183.5885530359
 20
89.7291023205
 10
183.1646354891
 20
90.3050294067
 10
182.9402044437
 20
90.9727867613
 10
182.9352004475
 20
91.6730407546
 10
183.1500686727
 20
92.3435706566
 10
183.5657179377
 20
92.9247960369
 10
184.1452147833
 20
93.3650731961
 10
184.837068247
 20
93.6252819295
 10
185.5798054508
 20
93.6823002915
  0
LWPOLYLINE
  5
13E
330
1F
100
AcDbEntity
  8
0
  6
HIDDEN
 62
     7
370
     0
100
AcDbPolyline
 90
       21
 70
   128
 43
0.0
 10
185.566198828
 20
93.4333233083
 10
186.267632807
 20
93.2823493997
 10
186.8850875667
 20
92.9350824947
 10
187.3581249288
 20
92.4255140046
 10
187.6404386035
 20
91.8035246352
 10
187.7043943874
 20
91.1299986685
 10
187.54373193
 20
90.4708672235
 10
187.1741775445
 20
89.8906476716
 10
186.6319065935
 20
89.4461385826
 10
185.9699988759
 20
89.1808513473
 10
185.2532483659
 20
89.1207531015
 10
184.5518143869
 20
89.2717260788
 10
183.9343586958
 20
89.6189939151
 10
183.4613213337
 20
90.1285614739
 10
183.179007659
 20
90.7505508433
 10
183.1150528065
 20
91.42407681
 10
183.2757152639
 20
92.083208255
 10
183.6452696494
 20
92.6634268756
 10
184.1875406004
 20
93.1079368959
 10
184.849448318
 20
93.3732241313
 10
185.566198828
 20
93.4333233083
  0
LWPOLYLINE
  5
13F
330
1F
100
AcDbEntity
  8
0
  6
HIDDEN
 62
     7
370
     0
100
AcDbPolyline
 90
       22
 70
   128
 43
0.0
 10
185.5798054508
 20
93.9182946379
 10
186.3074300832
 20
93.767057165
 10
186.9552887998
 20
93.4210019107
 10
187.4658174834
 20
92.9108783523
 10
187.7936542056
 20
92.2820111657
 10
187.909667196
 20
91.5902797053
 10
187.8035485766
 20
90.8971456731
 10
187.4847289196
 20
90.2641992937
 10
186.9815371952
 20
89.7476784806
 10
186.3386815435
 20
89.3934797416
 10
185.6132837034
 20
89.2330743293
 10
184.8697986475
 20
89.2807152043
 10
184.1742888115
 20
89.5321704368
 10
183.5885530359
 20
89.9650957356
 10
183.1646354891
 20
90.5410237531
 10
182.9402044437
 20
91.2087811078
 10
182.9352004475
 20
91.909035101
 10
183.1500686727
 20
92.5795640717
 10
183.5657179377
 20
93.160789452
 10
184.1452147833
 20
93.6010666112
 10
184.837068247
 20
93.8612753446
 10
185.5798054508
 20
93.9182946379
  0
LWPOLYLINE
  5
140
330
1F
100
AcDbEntity
  8
0
  6
HIDDEN
 62
     7
370
     0
100
AcDbPolyline
 90
       21
 70
   128
 43
0.0
 10
185.566198828
 20
93.6693167235
 10
186.267632807
 20
93.5183437462
 10
186.8850875667
 20
93.1710759098
 10
187.3581249288
 20
92.6615074198
 10
187.6404386035
 20
92.0395180504
 10
187.7043943874
 20
91.365993015
 10
187.54373193
 20
90.7068606387
 10
187.1741775445
 20
90.1266429494
 10
186.6319065935
 20
89.6821319978
 10
185.9699988759
 20
89.4168447624
 10
185.2532483659
 20
89.3567465166
 10
184.5518143869
 20
89.5077194939
 10
183.9343586958
 20
89.8549873302
 10
183.4613213337
 20
90.3645558203
 10
183.179007659
 20
90.9865451897
 10
183.1150528065
 20
91.6600702251
 10
183.2757152639
 20
92.3192026014
 10
183.6452696494
 20
92.899421222
 10
184.1875406004
 20
93.343930311
 10
184.849448318
 20
93.6092184777
 10
185.566198828
 20
93.6693167235
  0
LWPOLYLINE
  5
141
330
1F
100
AcDbEntity
  8
0
  6
HIDDEN
 62
     7
370
     0
100
AcDbPolyline
 90
       22
 70
   128
 43
0.0
 10
185.5798054508
 20
94.154288053
 10
186.3074300832
 20
94.0030505801
 10
186.9552887998
 20
93.6569962571
 10
187.4658174834
 20
93.1468717674
 10
187.7936542056
 20
92.5180055122
 10
187.909667196
 20
91.8262731204
 10
187.8035485766
 20
91.1331400196
 10
187.4847289196
 20
90.5001927088
 10
186.9815371952
 20
89.9836718957
 10
186.3386815435
 20
89.6294731567
 10
185.6132837034
 20
89.4690677444
 10
184.8697986475
 20
89.516710482
 10
184.1742888115
 20
89.7681638519
 10
183.5885530359
 20
90.2010891507
 10
183.1646354891
 20
90.7770171682
 10
182.9402044437
 20
91.4447754542
 10
182.9352004475
 20
92.1450285162
 10
183.1500686727
 20
92.8155584181
 10
183.5657179377
 20
93.3967837984
 10
184.1452147833
 20
93.8370609577
 10
184.837068247
 20
94.097269691
 10
185.5798054508
 20
94.154288053
  0
LWPOLYLINE
  5
142
330
1F
100
AcDbEntity
  8
0
  6
HIDDEN
 62
     7
370
     0
100
AcDbPolyline
 90
       21
 70
   128
 43
0.0
 10
185.566198828
 20
93.9053110699
 10
186.267632807
 20
93.7543371613
 10
186.8850875667
 20
93.4070702563
 10
187.3581249288
 20
92.8975017662
 10
187.6404386035
 20
92.2755123968
 10
187.7043943874
 20
91.6019864301
 10
187.54373193
 20
90.9428549851
 10
187.1741775445
 20
90.3626363645
 10
186.6319065935
 20
89.9181272755
 10
185.9699988759
 20
89.6528381775
 10
185.2532483659
 20
89.5927399317
 10
184.5518143869
 20
89.743712909
 10
183.9343586958
 20
90.0909807454
 10
183.4613213337
 20
90.6005492355
 10
183.179007659
 20
91.2225386048
 10
183.1150528065
 20
91.8960645715
 10
183.2757152639
 20
92.5551960165
 10
183.6452696494
 20
93.1354155685
 10
184.1875406004
 20
93.5799246575
 10
184.849448318
 20
93.8452118928
 10
185.566198828
 20
93.9053110699
  0
LWPOLYLINE
  5
143
330
1F
100
AcDbEntity
  8
0
  6
HIDDEN
 62
     7
370
     0
100
AcDbPolyline
 90
       22
 70
   128
 43
0.0
 10
185.5798054508
 20
94.7528229947
 10
186.3074300832
 20
94.6015864531
 10
186.9552887998
 20
94.2555311988
 10
187.4658174834
 20
93.7454067091
 10
187.7936542056
 20
93.1165404538
 10
187.909667196
 20
92.4248089934
 10
187.8035485766
 20
91.7316749613
 10
187.4847289196
 20
91.0987285818
 10
186.9815371952
 20
90.5822077687
 10
186.3386815435
 20
90.2280080984
 10
185.6132837034
 20
90.0676045487
 10
184.8697986475
 20
90.1152454237
 10
184.1742888115
 20
90.3666997249
 10
183.5885530359
 20
90.7996240924
 10
183.1646354891
 20
91.3755530412
 10
182.9402044437
 20
92.0433103959
 10
182.9352004475
 20
92.7435643892
 10
183.1500686727
 20
93.4140933598
 10
183.5657179377
 20
93.9953187401
 10
184.1452147833
 20
94.4355958993
 10
184.837068247
 20
94.6958046327
 10
185.5798054508
 20
94.7528229947
  0
LWPOLYLINE
  5
144
330
1F
100
AcDbEntity
  8
0
  6
HIDDEN
 62
     7
370
     0
100
AcDbPolyline
 90
       20
 70
   128
 43
0.0
 10
185.5444543085
 20
94.3682817663
 10
186.1786942951
 20
94.2265754486
 10
186.7296041942
 20
93.8990292991
 10
187.1374852977
 20
93.4211369524
 10
187.3581361047
 20
92.8446873943
 10
187.3676449082
 20
92.2321472238
 10
187.164983528
 20
91.6498945947
 10
186.7721134818
 20
91.1610247488
 10
186.2316064558
 20
90.8185159708
 10
185.6020351893
 20
90.659483328
 10
184.9516246489
 20
90.7011600132
 10
184.3508563957
 20
90.9390309746
 10
183.8648317403
 20
91.347319066
 10
183.5462206996
 20
91.8817790146
 10
183.4295492641
 20
92.484493732
 10
183.5274601377
 20
93.0901504974
 10
183.8293436936
 20
93.6331171463
 10
184.3024862952
 20
94.0545545812
 10
184.895613978
 20
94.3087926055
 10
185.5444543085
 20
94.3682817663
  0
LWPOLYLINE
  5
145
330
1F
100
AcDbEntity
  8
0
  6
HIDDEN
 62
     7
370
     0
100
AcDbPolyline
 90
       20
 70
   128
 43
0.0
 10
185.2749928854
 20
117.4659589226
 10
185.9238322846
 20
117.5254480834
 10
186.5169608987
 20
117.7796861077
 10
186.9901035003
 20
118.2011235426
 10
187.2919861249
 20
118.7440901915
 10
187.3898979298
 20
119.3497469569
 10
187.2732255629
 20
119.9524616743
 10
186.9546145222
 20
120.4869216229
 10
186.4685907981
 20
120.8952097143
 10
185.8678225449
 20
121.1330806757
 10
185.2174110732
 20
121.1747573609
 10
184.5878407381
 20
121.0157247181
 10
184.0473337121
 20
120.6732159401
 10
183.6544627345
 20
120.1843460942
 10
183.4518013544
 20
119.6020934651
 10
183.4613110892
 20
118.9895532946
 10
183.6819618962
 20
118.4131037364
 10
184.0898429996
 20
117.9352113898
 10
184.6407528988
 20
117.6076652403
 10
185.2749928854
 20
117.4659589226
  0
LWPOLYLINE
  5
146
330
1F
100
AcDbEntity
  8
0
  6
HIDDEN
 62
     7
370
     0
100
AcDbPolyline
 90
       22
 70
   128
 43
0.0
 10
185.2396417431
 20
117.0814176942
 10
185.9823789469
 20
117.1384360562
 10
186.6742324106
 20
117.3986447896
 10
187.2537292562
 20
117.8389219488
 10
187.6693785212
 20
118.4201473291
 10
187.884245815
 20
119.0906762997
 10
187.8792427502
 20
119.790930293
 10
187.6548107735
 20
120.4586876477
 10
187.2308950893
 20
121.0346165965
 10
186.6451583824
 20
121.467540964
 10
185.949647615
 20
121.7189952652
 10
185.2061634905
 20
121.7666361402
 10
184.4807656503
 20
121.6062325905
 10
183.8379099987
 20
121.2520329202
 10
183.3347173429
 20
120.7355121071
 10
183.015897686
 20
120.1025657276
 10
182.9097799978
 20
119.4094316954
 10
183.0257929883
 20
118.7177002351
 10
183.3536287791
 20
118.0888339798
 10
183.8641583941
 20
117.5787094901
 10
184.5120171107
 20
117.2326542358
 10
185.2396417431
 20
117.0814176942
  0
LWPOLYLINE
  5
147
330
1F
100
AcDbEntity
  8
0
  6
HIDDEN
 62
     7
370
     0
100
AcDbPolyline
 90
       22
 70
   128
 43
0.0
 10
185.2396417431
 20
117.6799526359
 10
185.9823789469
 20
117.7369709979
 10
186.6742324106
 20
117.9971797312
 10
187.2537292562
 20
118.4374568905
 10
187.6693785212
 20
119.0186822708
 10
187.884245815
 20
119.6892121727
 10
187.8792427502
 20
120.3894652347
 10
187.6548107735
 20
121.0572235207
 10
187.2308950893
 20
121.6331515382
 10
186.6451583824
 20
122.066076837
 10
185.949647615
 20
122.3175302068
 10
185.2061634905
 20
122.3651729445
 10
184.4807656503
 20
122.2047675322
 10
183.8379099987
 20
121.8505687932
 10
183.3347173429
 20
121.3340479801
 10
183.015897686
 20
120.7011006693
 10
182.9097799978
 20
120.0079675684
 10
183.0257929883
 20
119.3162351767
 10
183.3536287791
 20
118.6873689214
 10
183.8641583941
 20
118.1772444318
 10
184.5120171107
 20
117.8311901088
 10
185.2396417431
 20
117.6799526359
  0
LWPOLYLINE
  5
148
330
1F
100
AcDbEntity
  8
0
  6
HIDDEN
 62
     7
370
     0
100
AcDbPolyline
 90
       20
 70
   128
 43
0.0
 10
185.2736583001
 20
119.328679509
 10
185.9289247564
 20
119.3887581969
 10
186.5279281533
 20
119.6455145175
 10
187.0057571701
 20
120.0711261402
 10
187.3106293402
 20
120.6194702456
 10
187.4095115832
 20
121.2311265911
 10
187.2916843764
 20
121.8398120175
 10
186.9699161521
 20
122.3795656035
 10
186.4790784217
 20
122.7918974976
 10
185.8723599485
 20
123.0321228425
 10
185.2155065186
 20
123.0742130349
 10
184.5797000474
 20
122.9136064569
 10
184.0338397793
 20
122.5677039395
 10
183.6370768047
 20
122.0739930789
 10
183.4324084244
 20
121.4859727691
 10
183.4420131541
 20
120.8673650319
 10
183.6648488439
 20
120.2852055351
 10
184.0767690933
 20
119.8025811384
 10
184.6331365428
 20
119.4717902611
 10
185.2736583001
 20
119.328679509
  0
LWPOLYLINE
  5
149
330
1F
100
AcDbEntity
  8
0
  6
HIDDEN
 62
     7
370
     0
100
AcDbPolyline
 90
       20
 70
   128
 43
0.0
 10
185.2736583001
 20
117.9109038706
 10
185.9289247564
 20
117.9709825585
 10
186.5279281533
 20
118.2277388791
 10
187.0057571701
 20
118.6533505018
 10
187.3106293402
 20
119.2016946072
 10
187.4095115832
 20
119.8133509527
 10
187.2916843764
 20
120.4220354478
 10
186.9699161521
 20
120.9617890338
 10
186.4790784217
 20
121.3741209279
 10
185.8723599485
 20
121.6143481354
 10
185.2155065186
 20
121.6564383278
 10
184.5797000474
 20
121.4958298872
 10
184.0338397793
 20
121.1499283011
 10
183.6370768047
 20
120.6562165092
 10
183.4324084244
 20
120.0681961993
 10
183.4420131541
 20
119.4495893935
 10
183.6648488439
 20
118.8674298967
 10
184.0767690933
 20
118.3848045687
 10
184.6331365428
 20
118.0540146227
 10
185.2736583001
 20
117.9109038706
  0
LWPOLYLINE
  5
14A
330
1F
100
AcDbEntity
  8
0
  6
HIDDEN
 62
     7
370
     0
100
AcDbPolyline
 90
       22
 70
   128
 43
0.0
 10
185.2396417431
 20
117.915946051
 10
185.9823789469
 20
117.9729653443
 10
186.6742324106
 20
118.2331740777
 10
187.2537292562
 20
118.6734512369
 10
187.6693785212
 20
119.2546766172
 10
187.884245815
 20
119.9252055879
 10
187.8792427502
 20
120.6254595811
 10
187.6548107735
 20
121.2932169358
 10
187.2308950893
 20
121.8691449533
 10
186.6451583824
 20
122.3020702521
 10
185.949647615
 20
122.5535254846
 10
185.2061634905
 20
122.6011663596
 10
184.4807656503
 20
122.4407609473
 10
183.8379099987
 20
122.0865622083
 10
183.3347173429
 20
121.5700413952
 10
183.015897686
 20
120.9370950158
 10
182.9097799978
 20
120.2439609836
 10
183.0257929883
 20
119.5522295232
 10
183.3536287791
 20
118.9233623366
 10
183.8641583941
 20
118.4132387782
 10
184.5120171107
 20
118.0671835239
 10
185.2396417431
 20
117.915946051
  0
LWPOLYLINE
  5
14B
330
1F
100
AcDbEntity
  8
0
  6
HIDDEN
 62
     7
370
     0
100
AcDbPolyline
 90
       21
 70
   128
 43
0.0
 10
185.2532483659
 20
117.928929619
 10
185.9699988759
 20
117.9890287961
 10
186.6319065935
 20
118.2543160314
 10
187.1741775445
 20
118.6988251204
 10
187.54373193
 20
119.2790446724
 10
187.7043943874
 20
119.9381761173
 10
187.6404386035
 20
120.6117020841
 10
187.3581249288
 20
121.2336914534
 10
186.8850875667
 20
121.7432599435
 10
186.267632807
 20
122.0905277799
 10
185.566198828
 20
122.2415007571
 10
184.849448318
 20
122.1814025114
 10
184.1875406004
 20
121.9161134134
 10
183.6452696494
 20
121.4716043244
 10
183.2757152639
 20
120.8913857038
 10
183.1150528065
 20
120.2322542588
 10
183.179007659
 20
119.5587282921
 10
183.4613213337
 20
118.9367389227
 10
183.9343586958
 20
118.4271704326
 10
184.5518143869
 20
118.0799035276
 10
185.2532483659
 20
117.928929619
  0
LWPOLYLINE
  5
14C
330
1F
100
AcDbEntity
  8
0
  6
HIDDEN
 62
     7
370
     0
100
AcDbPolyline
 90
       22
 70
   128
 43
0.0
 10
185.2396417431
 20
118.1519403974
 10
185.9823789469
 20
118.2089587594
 10
186.6742324106
 20
118.4691674928
 10
187.2537292562
 20
118.909444652
 10
187.6693785212
 20
119.4906700323
 10
187.884245815
 20
120.1611999343
 10
187.8792427502
 20
120.8614539276
 10
187.6548107735
 20
121.5292112822
 10
187.2308950893
 20
122.1051383684
 10
186.6451583824
 20
122.5380636672
 10
185.949647615
 20
122.7895188997
 10
185.2061634905
 20
122.8371597747
 10
184.4807656503
 20
122.6767543624
 10
183.8379099987
 20
122.3225556235
 10
183.3347173429
 20
121.8060348104
 10
183.015897686
 20
121.1730884309
 10
182.9097799978
 20
120.47995533
 10
183.0257929883
 20
119.7882229383
 10
183.3536287791
 20
119.159356683
 10
183.8641583941
 20
118.6492321933
 10
184.5120171107
 20
118.3031778703
 10
185.2396417431
 20
118.1519403974
  0
LWPOLYLINE
  5
14D
330
1F
100
AcDbEntity
  8
0
  6
HIDDEN
 62
     7
370
     0
100
AcDbPolyline
 90
       21
 70
   128
 43
0.0
 10
185.2532483659
 20
118.1649239654
 10
185.9699988759
 20
118.2250222112
 10
186.6319065935
 20
118.4903103779
 10
187.1741775445
 20
118.9348194669
 10
187.54373193
 20
119.5150380875
 10
187.7043943874
 20
120.1741704638
 10
187.6404386035
 20
120.8476954992
 10
187.3581249288
 20
121.4696848686
 10
186.8850875667
 20
121.9792533586
 10
186.267632807
 20
122.326521195
 10
185.566198828
 20
122.4774941723
 10
184.849448318
 20
122.4173959265
 10
184.1875406004
 20
122.1521086911
 10
183.6452696494
 20
121.7075977395
 10
183.2757152639
 20
121.1273800502
 10
183.1150528065
 20
120.4682476739
 10
183.179007659
 20
119.7947226385
 10
183.4613213337
 20
119.1727332691
 10
183.9343586958
 20
118.6631647791
 10
184.5518143869
 20
118.3158969427
 10
185.2532483659
 20
118.1649239654
  0
LWPOLYLINE
  5
14E
330
1F
100
AcDbEntity
  8
0
  6
HIDDEN
 62
     7
370
     0
100
AcDbPolyline
 90
       22
 70
   128
 43
0.0
 10
185.2396417431
 20
118.3879338125
 10
185.9823789469
 20
118.4449531059
 10
186.6742324106
 20
118.7051618392
 10
187.2537292562
 20
119.1454389984
 10
187.6693785212
 20
119.7266643787
 10
187.884245815
 20
120.3971933494
 10
187.8792427502
 20
121.0974473427
 10
187.6548107735
 20
121.7652056287
 10
187.2308950893
 20
122.3411336462
 10
186.6451583824
 20
122.774058945
 10
185.949647615
 20
123.0255123148
 10
185.2061634905
 20
123.0731531898
 10
184.4807656503
 20
122.9127496402
 10
183.8379099987
 20
122.5585490386
 10
183.3347173429
 20
122.0420300881
 10
183.015897686
 20
121.4090827773
 10
182.9097799978
 20
120.7159487451
 10
183.0257929883
 20
120.0242172847
 10
183.3536287791
 20
119.3953500981
 10
183.8641583941
 20
118.8852265398
 10
184.5120171107
 20
118.5391712854
 10
185.2396417431
 20
118.3879338125
  0
LWPOLYLINE
  5
14F
330
1F
100
AcDbEntity
  8
0
  6
HIDDEN
 62
     7
370
     0
100
AcDbPolyline
 90
       21
 70
   128
 43
0.0
 10
185.2532483659
 20
118.4009173806
 10
185.9699988759
 20
118.4610165576
 10
186.6319065935
 20
118.726303793
 10
187.1741775445
 20
119.1708138133
 10
187.54373193
 20
119.7510324339
 10
187.7043943874
 20
120.4101638789
 10
187.6404386035
 20
121.0836898456
 10
187.3581249288
 20
121.705679215
 10
186.8850875667
 20
122.2152467738
 10
186.267632807
 20
122.5625146101
 10
185.566198828
 20
122.7134875874
 10
184.849448318
 20
122.6533893416
 10
184.1875406004
 20
122.3881021063
 10
183.6452696494
 20
121.9435930173
 10
183.2757152639
 20
121.3633734653
 10
183.1150528065
 20
120.7042420204
 10
183.179007659
 20
120.0307160537
 10
183.4613213337
 20
119.4087266843
 10
183.9343586958
 20
118.8991581942
 10
184.5518143869
 20
118.5518912892
 10
185.2532483659
 20
118.4009173806
  0
LWPOLYLINE
  5
150
330
1F
100
AcDbEntity
  8
0
  6
HIDDEN
 62
     7
370
     0
100
AcDbPolyline
 90
       22
 70
   128
 43
0.0
 10
185.2396417431
 20
118.623928159
 10
185.9823789469
 20
118.680946521
 10
186.6742324106
 20
118.9411552544
 10
187.2537292562
 20
119.3814324136
 10
187.6693785212
 20
119.9626577939
 10
187.884245815
 20
120.6331876958
 10
187.8792427502
 20
121.3334416891
 10
187.6548107735
 20
122.0011990438
 10
187.2308950893
 20
122.5771270613
 10
186.6451583824
 20
123.0100523601
 10
185.949647615
 20
123.26150573
 10
185.2061634905
 20
123.3091484676
 10
184.4807656503
 20
123.1487430553
 10
183.8379099987
 20
122.7945443163
 10
183.3347173429
 20
122.2780235032
 10
183.015897686
 20
121.6450761924
 10
182.9097799978
 20
120.9519430916
 10
183.0257929883
 20
120.2602116312
 10
183.3536287791
 20
119.6313444446
 10
183.8641583941
 20
119.1212199549
 10
184.5120171107
 20
118.7751656319
 10
185.2396417431
 20
118.623928159
  0
LWPOLYLINE
  5
151
330
1F
100
AcDbEntity
  8
0
  6
HIDDEN
 62
     7
370
     0
100
AcDbPolyline
 90
       21
 70
   128
 43
0.0
 10
185.2532483659
 20
118.636911727
 10
185.9699988759
 20
118.6970099727
 10
186.6319065935
 20
118.9622981394
 10
187.1741775445
 20
119.4068072284
 10
187.54373193
 20
119.987025849
 10
187.7043943874
 20
120.6461582253
 10
187.6404386035
 20
121.3196832607
 10
187.3581249288
 20
121.9416726301
 10
186.8850875667
 20
122.4512420515
 10
186.267632807
 20
122.7985080252
 10
185.566198828
 20
122.9494828651
 10
184.849448318
 20
122.8893827568
 10
184.1875406004
 20
122.6240955214
 10
183.6452696494
 20
122.1795864324
 10
183.2757152639
 20
121.5993668805
 10
183.1150528065
 20
120.9402354355
 10
183.179007659
 20
120.2667104001
 10
183.4613213337
 20
119.6447210307
 10
183.9343586958
 20
119.1351525406
 10
184.5518143869
 20
118.7878847043
 10
185.2532483659
 20
118.636911727
  0
LWPOLYLINE
  5
152
330
1F
100
AcDbEntity
  8
0
  6
HIDDEN
 62
     7
370
     0
100
AcDbPolyline
 90
       22
 70
   128
 43
0.0
 10
185.2396417431
 20
118.8120394866
 10
185.9823789469
 20
118.8690578486
 10
186.6742324106
 20
119.1292665819
 10
187.2537292562
 20
119.5695437412
 10
187.6693785212
 20
120.1507691215
 10
187.884245815
 20
120.8212990234
 10
187.8792427502
 20
121.5215520854
 10
187.6548107735
 20
122.1893094401
 10
187.2308950893
 20
122.7652374576
 10
186.6451583824
 20
123.1981627564
 10
185.949647615
 20
123.4496179889
 10
185.2061634905
 20
123.4972588639
 10
184.4807656503
 20
123.3368534515
 10
183.8379099987
 20
122.9826547126
 10
183.3347173429
 20
122.4661338995
 10
183.015897686
 20
121.8331865887
 10
182.9097799978
 20
121.1400544191
 10
183.0257929883
 20
120.4483220274
 10
183.3536287791
 20
119.8194557721
 10
183.8641583941
 20
119.3093312825
 10
184.5120171107
 20
118.9632760281
 10
185.2396417431
 20
118.8120394866
  0
LWPOLYLINE
  5
153
330
1F
100
AcDbEntity
  8
0
  6
HIDDEN
 62
     7
370
     0
100
AcDbPolyline
 90
       22
 70
   128
 43
0.0
 10
185.249166379
 20
118.9911737959
 10
185.9503097854
 20
119.0449995841
 10
186.6034202299
 20
119.2906368444
 10
187.1504642091
 20
119.7062581698
 10
187.5428378604
 20
120.2549356888
 10
187.7456724665
 20
120.8879146646
 10
187.7409506611
 20
121.5489543895
 10
187.5290859512
 20
122.1793182115
 10
187.1289096794
 20
122.7229945282
 10
186.5759741536
 20
123.1316756378
 10
185.9194122276
 20
123.3690474103
 10
185.2175628788
 20
123.4140209774
 10
184.5327874667
 20
123.2625991027
 10
183.9259320892
 20
122.9282356719
 10
183.4509175292
 20
122.4406398753
 10
183.1499522573
 20
121.8431387017
 10
183.0497764073
 20
121.1888203318
 10
183.1592934228
 20
120.5358253713
 10
183.4687700517
 20
119.9421752165
 10
183.9507099263
 20
119.4606181155
 10
184.5622889719
 20
119.1339418213
 10
185.249166379
 20
118.9911737959
  0
LWPOLYLINE
  5
154
330
1F
100
AcDbEntity
  8
0
  6
HIDDEN
 62
     7
370
     0
100
AcDbPolyline
 90
       20
 70
   128
 43
0.0
 10
176.7335918754
 20
93.6299553062
 10
176.3521063163
 20
93.9324255953
 10
175.9682747557
 20
94.0268160696
 10
175.6236905254
 20
93.9028989444
 10
175.3556950039
 20
93.5741010974
 10
175.1933296233
 20
93.0760530676
 10
175.1541893951
 20
92.4627277921
 10
175.2425150967
 20
91.8005863125
 10
175.4487359918
 20
91.161383308
 10
175.7505045294
 20
90.6143858949
 10
176.1151196457
 20
90.2188699613
 10
176.503069049
 20
90.0176968346
 10
176.8723133042
 20
90.0326631884
 10
177.1828381366
 20
90.2621522466
 10
177.4009939305
 20
90.6812911774
 10
177.5031399935
 20
91.2446612413
 10
177.4782075568
 20
91.8912133123
 10
177.328897456
 20
92.5508821304
 10
177.0713909551
 20
93.1521831001
 10
176.7335918754
 20
93.6299553062
  0
LWPOLYLINE
  5
155
330
1F
100
AcDbEntity
  8
0
  6
HIDDEN
 62
     7
370
     0
100
AcDbPolyline
 90
       22
 70
   128
 43
0.0
 10
177.0313468783
 20
94.0306605692
 10
176.6123862959
 20
94.3740596915
 10
176.1870745591
 20
94.5120816971
 10
175.7932028755
 20
94.4324610675
 10
175.465768019
 20
94.1422739918
 10
175.233864507
 20
93.6673041354
 10
175.1180973857
 20
93.0497543807
 10
175.1287535786
 20
92.3444973225
 10
175.2648863963
 20
91.6141979317
 10
175.5143993556
 20
90.9237461085
 10
175.8551218568
 20
90.3344927276
 10
176.2567803285
 20
89.8987948815
 10
176.6836846269
 20
89.655365787
 10
177.0979029148
 20
89.6258354108
 10
177.4626297898
 20
89.8128263573
 10
177.7454575545
 20
90.1997275571
 10
177.921256332
 20
90.7521573747
 10
177.9744055144
 20
91.4210313852
 10
177.9001818991
 20
92.1469172383
 10
177.7051811128
 20
92.8653161893
 10
177.4067299462
 20
93.5123963202
 10
177.0313468783
 20
94.0306605692
  0
LWPOLYLINE
  5
156
330
1F
100
AcDbEntity
  8
0
  6
HIDDEN
 62
     7
370
     0
100
AcDbPolyline
 90
       22
 70
   128
 43
0.0
 10
180.3022854052
 20
94.8140015746
 10
179.8833252884
 20
95.1574016283
 10
179.4580135516
 20
95.2954227025
 10
179.0641414023
 20
95.215802073
 10
178.7367070115
 20
94.9256149973
 10
178.5048034995
 20
94.4506451408
 10
178.3890363782
 20
93.8330953861
 10
178.3996925711
 20
93.127838328
 10
178.5358253888
 20
92.3975389371
 10
178.7853378824
 20
91.7070880453
 10
179.126061315
 20
91.1178337331
 10
179.527719321
 20
90.682135887
 10
179.9546236194
 20
90.4387058611
 10
180.3688414416
 20
90.4091754849
 10
180.7335687823
 20
90.5961682941
 10
181.016396547
 20
90.9830685626
 10
181.1921957902
 20
91.5354983802
 10
181.2453445069
 20
92.2043723906
 10
181.1711208916
 20
92.9302582438
 10
180.976120571
 20
93.6486571948
 10
180.6776689387
 20
94.2957373257
 10
180.3022854052
 20
94.8140015746
  0
LINE
  5
157
330
1F
100
AcDbEntity
  8
0
  6
HIDDEN
 62
     7
370
     0
100
AcDbLine
 10
175.515143948
 20
92.1749779875
 30
0.0
 11
176.0472988731
 21
90.8760353843
 31
0.0
  0
LINE
  5
158
330
1F
100
AcDbEntity
  8
0
  6
HIDDEN
 62
     7
370
     0
100
AcDbLine
 10
176.8626079916
 20
90.7133174981
 30
0.0
 11
176.0472988731
 21
90.8760353843
 31
0.0
  0
LINE
  5
159
330
1F
100
AcDbEntity
  8
0
  6
HIDDEN
 62
     7
370
     0
100
AcDbLine
 10
177.1457617193
 20
91.849542215
 30
0.0
 11
176.8626079916
 21
90.7133174981
 31
0.0
  0
LINE
  5
15A
330
1F
100
AcDbEntity
  8
0
  6
HIDDEN
 62
     7
370
     0
100
AcDbLine
 10
177.1457617193
 20
91.849542215
 30
0.0
 11
176.6136067941
 21
93.1484848181
 31
0.0
  0
LINE
  5
15B
330
1F
100
AcDbEntity
  8
0
  6
HIDDEN
 62
     7
370
     0
100
AcDbLine
 10
175.7982976756
 20
93.3112027044
 30
0.0
 11
176.6136067941
 21
93.1484848181
 31
0.0
  0
LINE
  5
15C
330
1F
100
AcDbEntity
  8
0
  6
HIDDEN
 62
     7
370
     0
100
AcDbLine
 10
175.7982976756
 20
93.3112027044
 30
0.0
 11
175.515143948
 21
92.1749779875
 31
0.0
  0
LINE
  5
15D
330
1F
100
AcDbEntity
  8
0
  6
HIDDEN
 62
     7
370
     0
100
AcDbLine
 10
178.7840656958
 20
92.2418916519
 30
0.0
 11
177.1457617193
 21
91.849542215
 31
0.0
  0
LINE
  5
15E
330
1F
100
AcDbEntity
  8
0
  6
HIDDEN
 62
     7
370
     0
100
AcDbLine
 10
178.2519107706
 20
93.540834255
 30
0.0
 11
176.6136067941
 21
93.1484848181
 31
0.0
  0
LWPOLYLINE
  5
15F
330
1F
100
AcDbEntity
  8
0
  6
HIDDEN
 62
     7
370
     0
100
AcDbPolyline
 90
       19
 70
   128
 43
0.0
 10
180.769518765
 20
94.3707330073
 10
180.4262127749
 20
94.6375960405
 10
180.0829077161
 20
94.706112511
 10
179.781009259
 20
94.5680178622
 10
179.5569321162
 20
94.2399697299
 10
179.4377032689
 20
93.7615344221
 10
179.4377032689
 20
93.1904185484
 10
179.5569321162
 20
92.5955073829
 10
179.781009259
 20
92.0485556046
 10
180.0829077161
 20
91.6155343796
 10
180.4262127749
 20
91.3486713464
 10
180.769518765
 20
91.2801558072
 10
181.0714162908
 20
91.4182495246
 10
181.2954934335
 20
91.746297657
 10
181.4147222809
 20
92.2247329647
 10
181.4147222809
 20
92.7958488385
 10
181.2954934335
 20
93.390760004
 10
181.0714162908
 20
93.9377117823
 10
180.769518765
 20
94.3707330073
  0
LINE
  5
160
330
1F
100
AcDbEntity
  8
0
  6
HIDDEN
 62
     7
370
     0
100
AcDbLine
 10
178.5009119681
 20
91.105666935
 30
0.0
 11
177.6856033153
 21
91.2683848212
 31
0.0
  0
LINE
  5
161
330
1F
100
AcDbEntity
  8
0
  6
HIDDEN
 62
     7
370
     0
100
AcDbLine
 10
177.1534479245
 20
92.5673274244
 30
0.0
 11
177.6856033153
 21
91.2683848212
 31
0.0
  0
LINE
  5
162
330
1F
100
AcDbEntity
  8
0
  6
HIDDEN
 62
     7
370
     0
100
AcDbLine
 10
177.4366016521
 20
93.7035521413
 30
0.0
 11
177.1534479245
 21
92.5673274244
 31
0.0
  0
LINE
  5
163
330
1F
100
AcDbEntity
  8
0
  6
HIDDEN
 62
     7
370
     0
100
AcDbLine
 10
177.4366016521
 20
93.7035521413
 30
0.0
 11
178.2519107706
 21
93.540834255
 31
0.0
  0
LINE
  5
164
330
1F
100
AcDbEntity
  8
0
  6
HIDDEN
 62
     7
370
     0
100
AcDbLine
 10
178.7840656958
 20
92.2418916519
 30
0.0
 11
178.5009119681
 21
91.105666935
 31
0.0
  0
LINE
  5
165
330
1F
100
AcDbEntity
  8
0
  6
HIDDEN
 62
     7
370
     0
100
AcDbLine
 10
178.7840656958
 20
92.2418916519
 30
0.0
 11
178.2519107706
 21
93.540834255
 31
0.0
  0
LINE
  5
166
330
1F
100
AcDbEntity
  8
0
  6
HIDDEN
 62
     7
370
     0
100
AcDbLine
 10
177.6856033153
 20
91.2683848212
 30
0.0
 11
176.0472988731
 21
90.8760353843
 31
0.0
  0
LINE
  5
167
330
1F
100
AcDbEntity
  8
0
  6
HIDDEN
 62
     7
370
     0
100
AcDbLine
 10
178.5009119681
 20
91.105666935
 30
0.0
 11
176.8626079916
 21
90.7133174981
 31
0.0
  0
LINE
  5
168
330
1F
100
AcDbEntity
  8
0
  6
HIDDEN
 62
     7
370
     0
100
AcDbLine
 10
177.1534479245
 20
92.5673274244
 30
0.0
 11
175.515143948
 21
92.1749779875
 31
0.0
  0
LINE
  5
169
330
1F
100
AcDbEntity
  8
0
  6
HIDDEN
 62
     7
370
     0
100
AcDbLine
 10
177.4366016521
 20
93.7035521413
 30
0.0
 11
175.7982976756
 21
93.3112027044
 31
0.0
  0
LWPOLYLINE
  5
16A
330
1F
100
AcDbEntity
  8
0
  6
HIDDEN
 62
     7
370
     0
100
AcDbPolyline
 90
       22
 70
   128
 43
0.0
 10
179.321411813
 20
116.5411258037
 10
178.9460292108
 20
116.6926743383
 10
178.6475775785
 20
117.048194624
 10
178.4525772578
 20
117.5760952676
 10
178.3783536426
 20
118.2294711391
 10
178.4315023593
 20
118.9502673144
 10
178.6073011368
 20
119.6744367401
 10
178.8901293672
 20
120.3376343394
 10
179.2548567078
 20
120.8809325392
 10
179.6690745301
 20
121.2560562338
 10
180.0959788284
 20
121.4296752508
 10
180.4976368345
 20
121.3863603691
 10
180.8383602671
 20
121.1299626077
 10
181.0878727607
 20
120.683263048
 10
181.2240051127
 20
120.0859527956
 10
181.2346613056
 20
119.3911060611
 10
181.1188951156
 20
118.6604630123
 10
180.8869911379
 20
117.9589433516
 10
180.5595567471
 20
117.3488814304
 10
180.1656845979
 20
116.8844839479
 10
179.7403728611
 20
116.6070140819
 10
179.321411813
 20
116.5411258037
  0
LWPOLYLINE
  5
16B
330
1F
100
AcDbEntity
  8
0
  6
HIDDEN
 62
     7
370
     0
100
AcDbPolyline
 90
       19
 70
   128
 43
0.0
 10
180.0829077161
 20
117.1281281779
 10
179.781009259
 20
117.2662228266
 10
179.5569321162
 20
117.594270959
 10
179.4377032689
 20
118.0727062667
 10
179.4377032689
 20
118.6438221405
 10
179.5569321162
 20
119.238733306
 10
179.781009259
 20
119.7856850843
 10
180.0829077161
 20
120.2187063093
 10
180.4262127749
 20
120.4855693425
 10
180.769518765
 20
120.5540848817
 10
181.0714162908
 20
120.4159911643
 10
181.2954934335
 20
120.0879430319
 10
181.4147222809
 20
119.6095077242
 10
181.4147222809
 20
119.0383918504
 10
181.2954934335
 20
118.4434806849
 10
181.0714162908
 20
117.8965289066
 10
180.769518765
 20
117.4635076816
 10
180.4262127749
 20
117.1966446484
 10
180.0829077161
 20
117.1281281779
  0
LWPOLYLINE
  5
16C
330
1F
100
AcDbEntity
  8
0
  6
HIDDEN
 62
     7
370
     0
100
AcDbPolyline
 90
       22
 70
   128
 43
0.0
 10
176.0504732861
 20
117.3244668091
 10
175.6750902183
 20
117.4760153438
 10
175.376638586
 20
117.8315356294
 10
175.1816382653
 20
118.3594362731
 10
175.1074146501
 20
119.0128121446
 10
175.1605638324
 20
119.7336083199
 10
175.3363626099
 20
120.4577777455
 10
175.6191903747
 20
121.1209762762
 10
175.9839172497
 20
121.664274476
 10
176.3981355376
 20
122.0393981705
 10
176.8250398359
 20
122.2130153249
 10
177.2266983076
 20
122.1697013746
 10
177.5674208089
 20
121.9133045445
 10
177.8169337682
 20
121.4666040535
 10
177.9530665859
 20
120.869293801
 10
177.9637227788
 20
120.1744470666
 10
177.8479556575
 20
119.4438040177
 10
177.6160521454
 20
118.7422843571
 10
177.288617289
 20
118.1322224359
 10
176.8947456054
 20
117.6678249533
 10
176.4694338686
 20
117.3903550873
 10
176.0504732861
 20
117.3244668091
  0
LINE
  5
16D
330
1F
100
AcDbEntity
  8
0
  6
HIDDEN
 62
     7
370
     0
100
AcDbLine
 10
177.4366016521
 20
120.2087057675
 30
0.0
 11
178.2519107706
 21
120.8424717108
 31
0.0
  0
LINE
  5
16E
330
1F
100
AcDbEntity
  8
0
  6
HIDDEN
 62
     7
370
     0
100
AcDbLine
 10
177.1534479245
 20
118.7958652074
 30
0.0
 11
177.4366016521
 21
120.2087057675
 31
0.0
  0
LINE
  5
16F
330
1F
100
AcDbEntity
  8
0
  6
HIDDEN
 62
     7
370
     0
100
AcDbLine
 10
177.4366016521
 20
120.2087057675
 30
0.0
 11
175.7982976756
 21
120.6010552044
 31
0.0
  0
LINE
  5
170
330
1F
100
AcDbEntity
  8
0
  6
HIDDEN
 62
     7
370
     0
100
AcDbLine
 10
177.1534479245
 20
118.7958652074
 30
0.0
 11
175.515143948
 21
119.1882146443
 31
0.0
  0
LINE
  5
171
330
1F
100
AcDbEntity
  8
0
  6
HIDDEN
 62
     7
370
     0
100
AcDbLine
 10
177.1534479245
 20
118.7958652074
 30
0.0
 11
177.6856033153
 21
118.0167905907
 31
0.0
  0
LINE
  5
172
330
1F
100
AcDbEntity
  8
0
  6
HIDDEN
 62
     7
370
     0
100
AcDbLine
 10
175.515143948
 20
119.1882146443
 30
0.0
 11
176.0472988731
 21
118.4091400276
 31
0.0
  0
LINE
  5
173
330
1F
100
AcDbEntity
  8
0
  6
HIDDEN
 62
     7
370
     0
100
AcDbLine
 10
175.515143948
 20
119.1882146443
 30
0.0
 11
175.7982976756
 21
120.6010552044
 31
0.0
  0
LINE
  5
174
330
1F
100
AcDbEntity
  8
0
  6
HIDDEN
 62
     7
370
     0
100
AcDbLine
 10
175.7982976756
 20
120.6010552044
 30
0.0
 11
176.6136067941
 21
121.2348211477
 31
0.0
  0
LWPOLYLINE
  5
175
330
1F
100
AcDbEntity
  8
0
  6
HIDDEN
 62
     7
370
     0
100
AcDbPolyline
 90
       20
 70
   128
 43
0.0
 10
175.9273137919
 20
117.8104542116
 10
175.5895147122
 20
117.9582271646
 10
175.3320082112
 20
118.3079676623
 10
175.1826981104
 20
118.8217736701
 10
175.1577656738
 20
119.4439688618
 10
175.2599117368
 20
120.1071264143
 10
175.4780675306
 20
120.7393845464
 10
175.7885923631
 20
121.2722277189
 10
176.1578361525
 20
121.647913001
 10
176.5457860216
 20
121.8257322828
 10
176.9104011378
 20
121.7864118437
 10
177.2121696754
 20
121.5342162098
 10
177.4183905705
 20
121.0964722479
 10
177.5067162722
 20
120.5206178049
 10
177.467576044
 20
119.8690552185
 10
177.3052106633
 20
119.212390847
 10
177.0372151419
 20
118.6217861171
 10
176.6926309115
 20
118.1612396533
 10
176.3087988853
 20
117.8806610326
 10
175.9273137919
 20
117.8104542116
  0
LINE
  5
176
330
1F
100
AcDbEntity
  8
0
  6
HIDDEN
 62
     7
370
     0
100
AcDbLine
 10
178.7840656958
 20
120.0633970941
 30
0.0
 11
177.1457617193
 21
120.455746531
 31
0.0
  0
LINE
  5
177
330
1F
100
AcDbEntity
  8
0
  6
HIDDEN
 62
     7
370
     0
100
AcDbLine
 10
177.1457617193
 20
120.455746531
 30
0.0
 11
176.6136067941
 21
121.2348211477
 31
0.0
  0
LINE
  5
178
330
1F
100
AcDbEntity
  8
0
  6
HIDDEN
 62
     7
370
     0
100
AcDbLine
 10
178.7840656958
 20
120.0633970941
 30
0.0
 11
178.2519107706
 21
120.8424717108
 31
0.0
  0
LINE
  5
179
330
1F
100
AcDbEntity
  8
0
  6
HIDDEN
 62
     7
370
     0
100
AcDbLine
 10
178.2519107706
 20
120.8424717108
 30
0.0
 11
176.6136067941
 21
121.2348211477
 31
0.0
  0
LINE
  5
17A
330
1F
100
AcDbEntity
  8
0
  6
HIDDEN
 62
     7
370
     0
100
AcDbLine
 10
178.5009119681
 20
118.650556534
 30
0.0
 11
176.8626079916
 21
119.0429059709
 31
0.0
  0
LINE
  5
17B
330
1F
100
AcDbEntity
  8
0
  6
HIDDEN
 62
     7
370
     0
100
AcDbLine
 10
176.8626079916
 20
119.0429059709
 30
0.0
 11
176.0472988731
 21
118.4091400276
 31
0.0
  0
LINE
  5
17C
330
1F
100
AcDbEntity
  8
0
  6
HIDDEN
 62
     7
370
     0
100
AcDbLine
 10
177.6856033153
 20
118.0167905907
 30
0.0
 11
176.0472988731
 21
118.4091400276
 31
0.0
  0
LINE
  5
17D
330
1F
100
AcDbEntity
  8
0
  6
HIDDEN
 62
     7
370
     0
100
AcDbLine
 10
178.5009119681
 20
118.650556534
 30
0.0
 11
177.6856033153
 21
118.0167905907
 31
0.0
  0
LINE
  5
17E
330
1F
100
AcDbEntity
  8
0
  6
HIDDEN
 62
     7
370
     0
100
AcDbLine
 10
176.8626079916
 20
119.0429059709
 30
0.0
 11
177.1457617193
 21
120.455746531
 31
0.0
  0
LINE
  5
17F
330
1F
100
AcDbEntity
  8
0
  6
HIDDEN
 62
     7
370
     0
100
AcDbLine
 10
178.5009119681
 20
118.650556534
 30
0.0
 11
178.7840656958
 21
120.0633970941
 31
0.0
  0
LINE
  5
180
330
1F
100
AcDbEntity
  8
0
  6
HIDDEN
 62
     7
370
     0
100
AcDbLine
 10
187.9097230754
 20
89.252807192
 30
0.0
 11
187.9097230754
 21
92.409035183
 31
0.0
  0
LINE
  5
181
330
1F
100
AcDbEntity
  8
0
  6
HIDDEN
 62
     7
370
     0
100
AcDbLine
 10
182.9097231872
 20
92.409035183
 30
0.0
 11
182.9097231872
 21
90.3553757737
 31
0.0
  0
LINE
  5
182
330
1F
100
AcDbEntity
  8
0
  6
HIDDEN
 62
     7
370
     0
100
AcDbLine
 10
174.4097234237
 20
88.4674433539
 30
0.0
 11
177.0291512854
 21
89.0947580258
 31
0.0
  0
LINE
  5
183
330
1F
100
AcDbEntity
  8
0
  6
HIDDEN
 62
     7
370
     0
100
AcDbLine
 10
175.6317543819
 20
94.929763108
 30
0.0
 11
174.4097234237
 21
94.6371043022
 31
0.0
  0
LINE
  5
184
330
1F
100
AcDbEntity
  8
0
  6
HIDDEN
 62
     7
370
     0
100
AcDbLine
 10
177.0878739677
 20
90.0342706511
 30
0.0
 11
184.5570232741
 21
91.8230200107
 31
0.0
  0
LINE
  5
185
330
1F
100
AcDbEntity
  8
0
  6
HIDDEN
 62
     7
370
     0
100
AcDbLine
 10
184.5570232741
 20
96.1417825813
 30
0.0
 11
176.1096960887
 21
94.1187739293
 31
0.0
  0
LINE
  5
186
330
1F
100
AcDbEntity
  8
0
  6
HIDDEN
 62
     7
370
     0
100
AcDbLine
 10
187.5097237549
 20
92.4588292758
 30
0.0
 11
187.5097237549
 21
104.4681190899
 31
0.0
  0
LINE
  5
187
330
1F
100
AcDbEntity
  8
0
  6
HIDDEN
 62
     7
370
     0
100
AcDbLine
 10
183.309723439
 20
92.8068794231
 30
0.0
 11
183.309723439
 21
92.4588292758
 31
0.0
  0
LINE
  5
188
330
1F
100
AcDbEntity
  8
0
  6
HIDDEN
 62
     7
370
     0
100
AcDbLine
 10
183.309723439
 20
104.4664020804
 30
0.0
 11
183.309723439
 21
94.5605039517
 31
0.0
  0
ARC
  5
189
330
1F
100
AcDbEntity
  8
0
  6
HIDDEN
 62
     7
370
     0
100
AcDbCircle
 10
70.8097235046
 20
92.2171203444
 30
0.0
 40
1.200000000000017
100
AcDbArc
 50
90.0
 51
180.0
  0
ARC
  5
18A
330
1F
100
AcDbEntity
  8
0
  6
HIDDEN
 62
     7
370
     0
100
AcDbCircle
 10
70.8097235046
 20
119.6171203444
 30
0.0
 40
1.200000000000017
100
AcDbArc
 50
180.0
 51
270.0
  0
LINE
  5
18B
330
1F
100
AcDbEntity
  8
0
  6
HIDDEN
 62
     7
370
     0
100
AcDbLine
 10
80.5020935855
 20
93.1921200747
 30
0.0
 11
81.3787810526
 21
93.1921200747
 31
0.0
  0
LINE
  5
18C
330
1F
100
AcDbEntity
  8
0
  6
HIDDEN
 62
     7
370
     0
100
AcDbLine
 10
81.3787810526
 20
118.6421206142
 30
0.0
 11
80.5020935855
 21
118.6421206142
 31
0.0
  0
ARC
  5
18D
330
1F
100
AcDbEntity
  8
0
  6
HIDDEN
 62
     7
370
     0
100
AcDbCircle
 10
80.5020959353
 20
93.5921203444
 30
0.0
 40
0.4000000000000057
100
AcDbArc
 50
255.0
 51
270.0
  0
ARC
  5
18E
330
1F
100
AcDbEntity
  8
0
  6
HIDDEN
 62
     7
370
     0
100
AcDbCircle
 10
80.5020959353
 20
118.2421203444
 30
0.0
 40
0.4000000000000199
100
AcDbArc
 50
90.0
 51
105.0
  0
ARC
  5
18F
330
1F
100
AcDbEntity
  8
0
  6
HIDDEN
 62
     7
370
     0
100
AcDbCircle
 10
81.3787833969
 20
93.5921203444
 30
0.0
 40
0.3999999999999946
100
AcDbArc
 50
270.0
 51
330.0
  0
ARC
  5
190
330
1F
100
AcDbEntity
  8
0
  6
HIDDEN
 62
     7
370
     0
100
AcDbCircle
 10
81.3787833969
 20
118.2421203444
 30
0.0
 40
0.4000000000000057
100
AcDbArc
 50
30.0
 51
90.0
  0
LINE
  5
191
330
1F
100
AcDbEntity
  8
0
  6
HIDDEN
 62
     7
370
     0
100
AcDbLine
 10
80.3985677681
 20
118.6284907083
 30
0.0
 11
79.6097226462
 21
118.4171205307
 31
0.0
  0
LINE
  5
192
330
1F
100
AcDbEntity
  8
0
  6
HIDDEN
 62
     7
370
     0
100
AcDbLine
 10
79.6097226462
 20
93.4171201582
 30
0.0
 11
80.3985677681
 21
93.2057499806
 31
0.0
  0
LINE
  5
193
330
1F
100
AcDbEntity
  8
0
  6
HIDDEN
 62
     7
370
     0
100
AcDbLine
 10
81.7251957975
 20
93.3921206663
 30
0.0
 11
82.8943260036
 21
95.417120486
 31
0.0
  0
LINE
  5
194
330
1F
100
AcDbEntity
  8
0
  6
HIDDEN
 62
     7
370
     0
100
AcDbLine
 10
82.8943260036
 20
116.4171202029
 30
0.0
 11
81.7251957975
 21
118.4421200226
 31
0.0
  0
LINE
  5
195
330
1F
100
AcDbEntity
  8
0
  6
HIDDEN
 62
     7
370
     0
100
AcDbLine
 10
70.8097226939
 20
93.4171201582
 30
0.0
 11
79.6097226462
 21
93.4171201582
 31
0.0
  0
LINE
  5
196
330
1F
100
AcDbEntity
  8
0
  6
HIDDEN
 62
     7
370
     0
100
AcDbLine
 10
79.6097226462
 20
118.4171205307
 30
0.0
 11
70.8097226939
 21
118.4171205307
 31
0.0
  0
LINE
  5
197
330
1F
100
AcDbEntity
  8
0
  6
HIDDEN
 62
     7
370
     0
100
AcDbLine
 10
201.5780702255
 20
117.4171203668
 30
0.0
 11
200.7097236834
 21
117.4171203668
 31
0.0
  0
LINE
  5
198
330
1F
100
AcDbEntity
  8
0
  6
HIDDEN
 62
     7
370
     0
100
AcDbLine
 10
200.7097236834
 20
94.4171203221
 30
0.0
 11
201.5780702255
 21
94.4171203221
 31
0.0
  0
ARC
  5
199
330
1F
100
AcDbEntity
  8
0
  6
HIDDEN
 62
     7
370
     0
100
AcDbCircle
 10
200.7097235046
 20
116.4171203444
 30
0.0
 40
1.0
100
AcDbArc
 50
90.0
 51
180.0
  0
ARC
  5
19A
330
1F
100
AcDbEntity
  8
0
  6
HIDDEN
 62
     7
370
     0
100
AcDbCircle
 10
200.7097235046
 20
95.4171203444
 30
0.0
 40
1.0
100
AcDbArc
 50
180.0
 51
270.0
  0
ARC
  5
19B
330
1F
100
AcDbEntity
  8
0
  6
HIDDEN
 62
     7
370
     0
100
AcDbCircle
 10
201.578071007
 20
116.4171203444
 30
0.0
 40
1.0
100
AcDbArc
 50
75.0
 51
90.0
  0
ARC
  5
19C
330
1F
100
AcDbEntity
  8
0
  6
HIDDEN
 62
     7
370
     0
100
AcDbCircle
 10
201.578071007
 20
95.4171203444
 30
0.0
 40
1.000000000000002
100
AcDbArc
 50
270.0
 51
285.0
  0
LINE
  5
19D
330
1F
100
AcDbEntity
  8
0
  6
HIDDEN
 62
     7
370
     0
100
AcDbLine
 10
201.8368903569
 20
94.4511946211
 30
0.0
 11
203.5757496975
 21
94.9171204041
 31
0.0
  0
LINE
  5
19E
330
1F
100
AcDbEntity
  8
0
  6
HIDDEN
 62
     7
370
     0
100
AcDbLine
 10
203.5757496975
 20
116.9171202848
 30
0.0
 11
201.8368903569
 21
117.3830460678
 31
0.0
  0
LINE
  5
19F
330
1F
100
AcDbEntity
  8
0
  6
HIDDEN
 62
     7
370
     0
100
AcDbLine
 10
213.6097222588
 20
116.9171202848
 30
0.0
 11
203.5757496975
 21
116.9171202848
 31
0.0
  0
LINE
  5
1A0
330
1F
100
AcDbEntity
  8
0
  6
HIDDEN
 62
     7
370
     0
100
AcDbLine
 10
203.5757496975
 20
94.9171204041
 30
0.0
 11
213.6097222588
 21
94.9171204041
 31
0.0
  0
LINE
  5
1A1
330
1F
100
AcDbEntity
  8
0
  6
HIDDEN
 62
     7
370
     0
100
AcDbLine
 10
82.8943260036
 20
95.417120486
 30
0.0
 11
131.6097237191
 21
95.417120486
 31
0.0
  0
LINE
  5
1A2
330
1F
100
AcDbEntity
  8
0
  6
HIDDEN
 62
     7
370
     0
100
AcDbLine
 10
131.6097237191
 20
116.4171202029
 30
0.0
 11
82.8943260036
 21
116.4171202029
 31
0.0
  0
LINE
  5
1A3
330
1F
100
AcDbEntity
  8
0
  6
HIDDEN
 62
     7
370
     0
100
AcDbLine
 10
131.6097237191
 20
95.417120486
 30
0.0
 11
135.3651031873
 21
101.6671201135
 31
0.0
  0
LINE
  5
1A4
330
1F
100
AcDbEntity
  8
0
  6
HIDDEN
 62
     7
370
     0
100
AcDbLine
 10
135.3651031873
 20
110.1671205754
 30
0.0
 11
131.6097237191
 21
116.4171202029
 31
0.0
  0
LINE
  5
1A5
330
1F
100
AcDbEntity
  8
0
  6
HIDDEN
 62
     7
370
     0
100
AcDbLine
 10
224.2097228787
 20
122.1737246881
 30
0.0
 11
223.6541144571
 21
121.6181255798
 31
0.0
  0
LINE
  5
1A6
330
1F
100
AcDbEntity
  8
0
  6
HIDDEN
 62
     7
370
     0
100
AcDbLine
 10
223.6545428655
 20
90.2156867007
 30
0.0
 11
224.2097228787
 21
89.6605160008
 31
0.0
  0
LINE
  5
1A7
330
1F
100
AcDbEntity
  8
0
  6
HIDDEN
 62
     7
370
     0
100
AcDbLine
 10
135.3651031873
 20
101.6671201135
 30
0.0
 11
199.7097235195
 21
101.6671201135
 31
0.0
  0
LINE
  5
1A8
330
1F
100
AcDbEntity
  8
0
  6
HIDDEN
 62
     7
370
     0
100
AcDbLine
 10
199.7097235195
 20
110.1671205754
 30
0.0
 11
135.3651031873
 21
110.1671205754
 31
0.0
  0
LINE
  5
1A9
330
1F
100
AcDbEntity
  8
0
  6
HIDDEN
 62
     7
370
     0
100
AcDbLine
 10
223.6645489953
 20
121.6271202932
 30
0.0
 11
213.6097222588
 21
121.6271202932
 31
0.0
  0
LINE
  5
1AA
330
1F
100
AcDbEntity
  8
0
  6
HIDDEN
 62
     7
370
     0
100
AcDbLine
 10
213.6097222588
 20
90.2071203957
 30
0.0
 11
223.6638262889
 21
90.2071203957
 31
0.0
  0
LINE
  5
1AB
330
1F
100
AcDbEntity
  8
0
  6
HIDDEN
 62
     7
370
     0
100
AcDbLine
 10
187.5097237549
 20
107.3678386085
 30
0.0
 11
187.5097237549
 21
119.3754114131
 31
0.0
  0
LINE
  5
1AC
330
1F
100
AcDbEntity
  8
0
  6
HIDDEN
 62
     7
370
     0
100
AcDbLine
 10
183.309723439
 20
117.2737367372
 30
0.0
 11
183.309723439
 21
107.366121599
 31
0.0
  0
LINE
  5
1AD
330
1F
100
AcDbEntity
  8
0
  6
HIDDEN
 62
     7
370
     0
100
AcDbLine
 10
183.309723439
 20
119.3754114131
 30
0.0
 11
183.309723439
 21
119.0273612658
 31
0.0
  0
LINE
  5
1AE
330
1F
100
AcDbEntity
  8
0
  6
HIDDEN
 62
     7
370
     0
100
AcDbLine
 10
176.1096960887
 20
117.7154667596
 30
0.0
 11
184.5570232741
 21
115.6924581076
 31
0.0
  0
LINE
  5
1AF
330
1F
100
AcDbEntity
  8
0
  6
HIDDEN
 62
     7
370
     0
100
AcDbLine
 10
184.5570232741
 20
120.0112206782
 30
0.0
 11
177.0878739677
 21
121.7999700377
 31
0.0
  0
LINE
  5
1B0
330
1F
100
AcDbEntity
  8
0
  6
HIDDEN
 62
     7
370
     0
100
AcDbLine
 10
174.4097234237
 20
117.1971363867
 30
0.0
 11
175.6317543819
 21
116.9044775809
 31
0.0
  0
LINE
  5
1B1
330
1F
100
AcDbEntity
  8
0
  6
HIDDEN
 62
     7
370
     0
100
AcDbLine
 10
177.0291512854
 20
122.7394826631
 30
0.0
 11
174.4097234237
 21
123.366797335
 31
0.0
  0
LINE
  5
1B2
330
1F
100
AcDbEntity
  8
0
  6
HIDDEN
 62
     7
370
     0
100
AcDbLine
 10
187.9097230754
 20
119.4252055059
 30
0.0
 11
187.9097230754
 21
122.5814334969
 31
0.0
  0
LINE
  5
1B3
330
1F
100
AcDbEntity
  8
0
  6
HIDDEN
 62
     7
370
     0
100
AcDbLine
 10
182.9097231872
 20
121.4788649152
 30
0.0
 11
182.9097231872
 21
119.4252055059
 31
0.0
  0
LINE
  5
1B4
330
1F
100
AcDbEntity
  8
0
  6
HIDDEN
 62
     7
370
     0
100
AcDbLine
 10
182.9097231872
 20
90.8665237869
 30
0.0
 11
182.9097231872
 21
90.6784124593
 31
0.0
  0
LINE
  5
1B5
330
1F
100
AcDbEntity
  8
0
  6
HIDDEN
 62
     7
370
     0
100
AcDbLine
 10
187.9097230754
 20
90.6784124593
 30
0.0
 11
187.9097230754
 21
90.8665237869
 31
0.0
  0
LINE
  5
1B6
330
1F
100
AcDbEntity
  8
0
  6
HIDDEN
 62
     7
370
     0
100
AcDbLine
 10
183.4097232691
 20
92.0483060102
 30
0.0
 11
183.4097232691
 21
90.6305303718
 31
0.0
  0
LINE
  5
1B7
330
1F
100
AcDbEntity
  8
0
  6
HIDDEN
 62
     7
370
     0
100
AcDbLine
 10
187.4097239248
 20
90.6305303718
 30
0.0
 11
187.4097239248
 21
92.0483060102
 31
0.0
  0
LINE
  5
1B8
330
1F
100
AcDbEntity
  8
0
  6
HIDDEN
 62
     7
370
     0
100
AcDbLine
 10
182.9097231872
 20
92.409035183
 30
0.0
 11
182.9097231872
 21
91.81049931
 31
0.0
  0
LINE
  5
1B9
330
1F
100
AcDbEntity
  8
0
  6
HIDDEN
 62
     7
370
     0
100
AcDbLine
 10
187.9097230754
 20
91.81049931
 30
0.0
 11
187.9097230754
 21
92.409035183
 31
0.0
  0
LINE
  5
1BA
330
1F
100
AcDbEntity
  8
0
  6
HIDDEN
 62
     7
370
     0
100
AcDbLine
 10
187.9097230754
 20
119.4252055059
 30
0.0
 11
187.9097230754
 21
120.0237413789
 31
0.0
  0
LINE
  5
1BB
330
1F
100
AcDbEntity
  8
0
  6
HIDDEN
 62
     7
370
     0
100
AcDbLine
 10
182.9097231872
 20
120.0237413789
 30
0.0
 11
182.9097231872
 21
119.4252055059
 31
0.0
  0
LINE
  5
1BC
330
1F
100
AcDbEntity
  8
0
  6
HIDDEN
 62
     7
370
     0
100
AcDbLine
 10
187.4097239248
 20
119.7859346787
 30
0.0
 11
187.4097239248
 21
121.2037103171
 31
0.0
  0
LINE
  5
1BD
330
1F
100
AcDbEntity
  8
0
  6
HIDDEN
 62
     7
370
     0
100
AcDbLine
 10
183.4097232691
 20
121.2037103171
 30
0.0
 11
183.4097232691
 21
119.7859346787
 31
0.0
  0
LINE
  5
1BE
330
1F
100
AcDbEntity
  8
0
  6
HIDDEN
 62
     7
370
     0
100
AcDbLine
 10
187.9097230754
 20
120.967716902
 30
0.0
 11
187.9097230754
 21
121.1558282296
 31
0.0
  0
LINE
  5
1BF
330
1F
100
AcDbEntity
  8
0
  6
HIDDEN
 62
     7
370
     0
100
AcDbLine
 10
182.9097231872
 20
121.1558282296
 30
0.0
 11
182.9097231872
 21
120.967716902
 31
0.0
  0
ARC
  5
1C0
330
1F
100
AcDbEntity
  8
0
  6
HIDDEN
 62
     7
370
     0
100
AcDbCircle
 10
185.4097235046
 20
91.4513783825
 30
0.0
 40
2.000000000000011
100
AcDbArc
 50
340.3974965375
 51
192.2156859341
  0
CIRCLE
  5
1C1
330
1F
100
AcDbEntity
  8
0
  6
HIDDEN
 62
     7
370
     0
100
AcDbCircle
 10
185.4097235046
 20
120.3828623064
 30
0.0
 40
1.999999999999994
  0
LINE
  5
1C2
330
1F
100
AcDbEntity
  8
0
  6
HIDDEN
 62
     7
370
     0
100
AcDbLine
 10
177.1231585204
 20
89.6314103077
 30
0.0
 11
180.3940979785
 21
90.4147503818
 31
0.0
  0
LINE
  5
1C3
330
1F
100
AcDbEntity
  8
0
  6
HIDDEN
 62
     7
370
     0
100
AcDbLine
 10
179.2296001709
 20
95.2772544618
 30
0.0
 11
175.9586616441
 21
94.4939134563
 31
0.0
  0
LINE
  5
1C4
330
1F
100
AcDbEntity
  8
0
  6
HIDDEN
 62
     7
370
     0
100
AcDbLine
 10
181.097802522
 20
91.1784702833
 30
0.0
 11
181.3263807467
 21
91.8258605445
 31
0.0
  0
LINE
  5
1C5
330
1F
100
AcDbEntity
  8
0
  6
HIDDEN
 62
     7
370
     0
100
AcDbLine
 10
180.6999638698
 20
94.441542394
 30
0.0
 11
180.2029216684
 21
94.9151581074
 31
0.0
  0
LINE
  5
1C6
330
1F
100
AcDbEntity
  8
0
  6
HIDDEN
 62
     7
370
     0
100
AcDbLine
 10
180.2029216684
 20
116.9190825815
 30
0.0
 11
180.6999638698
 21
117.3926982949
 31
0.0
  0
LINE
  5
1C7
330
1F
100
AcDbEntity
  8
0
  6
HIDDEN
 62
     7
370
     0
100
AcDbLine
 10
181.3263807467
 20
120.0083801443
 30
0.0
 11
181.097802522
 21
120.6557704056
 31
0.0
  0
LINE
  5
1C8
330
1F
100
AcDbEntity
  8
0
  6
HIDDEN
 62
     7
370
     0
100
AcDbLine
 10
175.9586616441
 20
117.3403272326
 30
0.0
 11
179.2296001709
 21
116.5569862271
 31
0.0
  0
LINE
  5
1C9
330
1F
100
AcDbEntity
  8
0
  6
HIDDEN
 62
     7
370
     0
100
AcDbLine
 10
180.3940979785
 20
121.4194903071
 30
0.0
 11
177.1231585204
 21
122.2028303812
 31
0.0
  0
DIMENSION
  5
1CA
330
1F
100
AcDbEntity
  8
VERMASSUNG
100
AcDbDimension
  2
_D
 10
63.3030800821
 20
154.6421203444
 30
0.0
 11
63.3030800821
 21
105.9171203444
 31
0.0
 70
   160
  1
ISO 50 %%c<>
 71
     2
 42
-1.0
  3
SLDDIMSTYLE0
100
AcDbAlignedDimension
 13
189.6597235046
 23
57.1921203444
 33
0.0
 14
189.6597235046
 24
154.6421203444
 34
0.0
 50
90.0
100
AcDbRotatedDimension
  0
DIMENSION
  5
1D7
330
1F
100
AcDbEntity
  8
VERMASSUNG
100
AcDbDimension
  2
_D_1
 10
230.6133824384
 20
94.9171203444
 30
0.0
 11
230.6133824384
 21
105.9171203444
 31
0.0
 70
   160
  1
%%c<>
 71
     2
 42
-1.0
  3
SLDDIMSTYLE0
100
AcDbAlignedDimension
 13
213.6097235046
 23
116.9171203444
 33
0.0
 14
213.6097235046
 24
94.9171203444
 34
0.0
 50
90.0
100
AcDbRotatedDimension
  0
DIMENSION
  5
1E2
330
1F
100
AcDbEntity
  8
VERMASSUNG
100
AcDbDimension
  2
_D_2
 10
224.2097235046
 20
160.2479451937
 30
0.0
 11
207.2347235046
 21
160.2479451937
 31
0.0
 70
   160
  1
(<>)
 71
     2
 42
-1.0
  3
SLDDIMSTYLE0
100
AcDbAlignedDimension
 13
190.2597235046
 23
152.2121072977
 33
0.0
 14
224.2097235046
 24
125.0171203444
 34
0.0
100
AcDbRotatedDimension
  0
DIMENSION
  5
1EE
330
1F
100
AcDbEntity
  8
VERMASSUNG
100
AcDbDimension
  2
_D_3
 10
224.2097235046
 20
166.2479451937
 30
0.0
 11
197.7097235046
 21
166.2479451937
 31
0.0
 70
   160
  1
<>
 71
     2
 42
-1.0
  3
SLDDIMSTYLE0
100
AcDbAlignedDimension
 13
171.2097235046
 23
140.8421203444
 33
0.0
 14
224.2097235046
 24
125.0171203444
 34
0.0
100
AcDbRotatedDimension
  0
DIMENSION
  5
1F8
330
1F
100
AcDbEntity
  8
VERMASSUNG
100
AcDbDimension
  2
_D_4
 10
224.2097235046
 20
172.2479451937
 30
0.0
 11
146.9097235046
 21
172.2479451937
 31
0.0
 70
   160
  1
(<>)
 71
     2
 42
-1.0
  3
SLDDIMSTYLE0
100
AcDbAlignedDimension
 13
69.6097235046
 23
124.2959648718
 33
0.0
 14
224.2097235046
 24
125.0171203444
 34
0.0
100
AcDbRotatedDimension
  0
DIMENSION
  5
204
330
1F
100
AcDbEntity
  8
VERMASSUNG
100
AcDbDimension
  2
_D_5
 10
236.6133824384
 20
86.4171203444
 30
0.0
 11
236.6133824384
 21
105.9171203444
 31
0.0
 70
   160
  1
ST4 %%c<>
 71
     2
 42
-1.0
  3
SLDDIMSTYLE0
100
AcDbAlignedDimension
 13
223.8097235046
 23
125.4171203444
 33
0.0
 14
223.8097235046
 24
86.4171203444
 34
0.0
 50
90.0
100
AcDbRotatedDimension
  0
LINE
  5
210
330
1F
100
AcDbEntity
  8
VERMASSUNG
  6
CENTERX2
 62
     7
370
     0
100
AcDbLine
 10
183.1136984342
 20
118.1974942094
 30
0.0
 11
187.0159520813
 21
117.2629626724
 31
0.0
  0
LINE
  5
211
330
1F
100
AcDbEntity
  8
VERMASSUNG
  6
CENTERX2
 62
     7
370
     0
100
AcDbLine
 10
67.6097235046
 20
105.9171203444
 30
0.0
 11
225.7020847441
 21
105.9171203444
 31
0.0
  0
LINE
  5
212
330
1F
100
AcDbEntity
  8
0
  6
Continuous
 62
     7
370
    15
100
AcDbLine
 10
268.7947885068
 20
38.6432476025
 30
0.0
 11
268.6604171921
 21
38.7208438194
 31
0.0
  0
LINE
  5
213
330
1F
100
AcDbEntity
  8
0
  6
Continuous
 62
     7
370
    15
100
AcDbLine
 10
266.1002737594
 20
38.7208444114
 30
0.0
 11
265.9659022621
 21
38.6432474239
 31
0.0
  0
LINE
  5
214
330
1F
100
AcDbEntity
  8
0
  6
Continuous
 62
     7
370
    15
100
AcDbLine
 10
269.3803457038
 20
37.573844263
 30
0.0
 11
269.3803457038
 21
37.826971941
 31
0.0
  0
LINE
  5
215
330
1F
100
AcDbEntity
  8
0
  6
Continuous
 62
     7
370
    15
100
AcDbLine
 10
265.3803460331
 20
37.8269717509
 30
0.0
 11
265.3803460331
 21
37.5738440729
 31
0.0
  0
SPLINE
  5
216
330
1F
100
AcDbEntity
  8
0
  6
Continuous
 62
     7
370
    15
100
AcDbSpline
210
0.0
220
0.0
230
1.0
 70
     8
 71
     3
 72
    28
 73
    24
 74
     0
 42
0.000000001
 43
0.00000001
 40
0.0
 40
0.0
 40
0.0
 40
0.0
 40
0.044710387176744
 40
0.0926897019628848
 40
0.1407170273200727
 40
0.1887706068008372
 40
0.2368345655599057
 40
0.2848962508550043
 40
0.3329504004768063
 40
0.3809946953561497
 40
0.4290285821194578
 40
0.4770526112614408
 40
0.5250680284650747
 40
0.5730764029333479
 40
0.6210796594737644
 40
0.6690796832986329
 40
0.7170784901268092
 40
0.7650781200218478
 40
0.8130799521996266
 40
0.8610861354586778
 40
0.9090986795165565
 40
0.9571196617230581
 40
0.9999999999999999
 40
0.9999999999999999
 40
0.9999999999999999
 40
0.9999999999999999
 10
258.9674853008537
 20
60.06771593206085
 30
0.0
 10
258.5698005997383
 20
59.98548967423746
 30
0.0
 10
257.745355124107
 20
59.815025318806
 30
0.0
 10
256.4626599803233
 20
59.3937943934862
 30
0.0
 10
255.1360074082233
 20
58.84602619953483
 30
0.0
 10
253.7994389826166
 20
58.17056394726067
 30
0.0
 10
252.4619343655444
 20
57.37544877861892
 30
0.0
 10
251.1312905182255
 20
56.46462121485184
 30
0.0
 10
249.8154731747173
 20
55.4439809916032
 30
0.0
 10
248.522210139639
 20
54.31965770570635
 30
0.0
 10
247.2590927070748
 20
53.09846090975287
 30
0.0
 10
246.0335252540357
 20
51.78770759559981
 30
0.0
 10
244.8526943332657
 20
50.3952302785151
 30
0.0
 10
243.7235313939313
 20
48.92931759327632
 30
0.0
 10
242.6526768190961
 20
47.39867907236034
 30
0.0
 10
241.6464302766479
 20
45.81239357745655
 30
0.0
 10
240.7107525152056
 20
44.17985933763615
 30
0.0
 10
239.8511129699106
 20
42.51073211375549
 30
0.0
 10
239.072862239404
 20
40.81493767212973
 30
0.0
 10
238.3797240909706
 20
39.10229662706742
 30
0.0
 10
237.779238157888
 20
37.38366585332155
 30
0.0
 10
237.2808494264842
 20
35.72775592829408
 30
0.0
 10
237.0347807740233
 20
34.65750298374973
 30
0.0
 10
236.9187042747958
 20
34.15263893931252
 30
0.0
  0
LINE
  5
217
330
1F
100
AcDbEntity
  8
0
  6
Continuous
 62
     7
370
    15
100
AcDbLine
 10
270.7932564058
 20
20.0906308854
 30
0.0
 11
270.9346545368
 21
20.1722855893
 31
0.0
  0
LINE
  5
218
330
1F
100
AcDbEntity
  8
0
  6
Continuous
 62
     7
370
    15
100
AcDbLine
 10
277.6864264898
 20
31.8679650074
 30
0.0
 11
277.6864271484
 21
32.0312467325
 31
0.0
  0
LINE
  5
219
330
1F
100
AcDbEntity
  8
0
  6
Continuous
 62
     7
370
    15
100
AcDbLine
 10
275.666739631
 20
36.4952336446
 30
0.0
 11
265.2192372351
 21
42.5264483997
 31
0.0
  0
LINE
  5
21A
330
1F
100
AcDbEntity
  8
0
  6
Continuous
 62
     7
370
    15
100
AcDbLine
 10
255.4700297522
 20
25.6384953212
 30
0.0
 11
265.9175321481
 21
19.607280566
 31
0.0
  0
SPLINE
  5
21B
330
1F
100
AcDbEntity
  8
0
  6
Continuous
 62
     7
370
    15
100
AcDbSpline
210
0.0
220
0.0
230
1.0
 70
     8
 71
     3
 72
    20
 73
    16
 74
     0
 42
0.000000001
 43
0.00000001
 40
0.0
 40
0.0
 40
0.0
 40
0.0
 40
0.015438096893353
 40
0.1036529327939338
 40
0.1919977793507276
 40
0.2803443736069096
 40
0.3685709830314617
 40
0.4565855819011969
 40
0.5443052348880119
 40
0.6316841933303888
 40
0.718786826880724
 40
0.8058590964954864
 40
0.8935187034771006
 40
0.9831501403178258
 40
1.0
 40
1.0
 40
1.0
 40
1.0
 10
267.4101285438173
 20
28.302997469927
 30
0.0
 10
267.4277918908753
 20
28.35042430197009
 30
0.0
 10
267.5463853767279
 20
28.66885281478164
 30
0.0
 10
267.8246819763904
 20
29.25443149917799
 30
0.0
 10
268.271186441013
 20
30.03188718342774
 30
0.0
 10
268.7860544590692
 20
30.75822176101342
 30
0.0
 10
269.3501078122767
 20
31.41361361235964
 30
0.0
 10
269.9483646411019
 20
31.98053035351098
 30
0.0
 10
270.5628525179301
 20
32.44431748998329
 30
0.0
 10
271.1753408203455
 20
32.7942284169415
 30
0.0
 10
271.7667017900978
 20
33.02266083549222
 30
0.0
 10
272.3214892516173
 20
33.13124041951275
 30
0.0
 10
272.8192018180691
 20
33.11033522059728
 30
0.0
 10
273.1517758484147
 20
33.0401957494929
 30
0.0
 10
273.2992283140964
 20
32.94234450466516
 30
0.0
 10
273.3225615513659
 20
32.92686028538051
 30
0.0
  0
LINE
  5
21C
330
1F
100
AcDbEntity
  8
0
  6
Continuous
 62
     7
370
    15
100
AcDbLine
 10
252.1776582165
 20
57.1608077069
 30
0.0
 11
221.416287581
 21
68.2459862653
 31
0.0
  0
LINE
  5
21D
330
1F
100
AcDbEntity
  8
0
  6
Continuous
 62
     7
370
    15
100
AcDbLine
 10
211.2924282006
 20
50.7090478649
 30
0.0
 11
240.7599393191
 21
25.8269254267
 31
0.0
  0
LINE
  5
21E
330
1F
100
AcDbEntity
  8
0
  6
Continuous
 62
     7
370
    15
100
AcDbLine
 10
267.3292918762
 20
23.9230823949
 30
0.0
 11
267.2715069005
 21
24.0141586621
 31
0.0
  0
SPLINE
  5
21F
330
1F
100
AcDbEntity
  8
0
  6
Continuous
 62
     7
370
    15
100
AcDbSpline
210
0.0
220
0.0
230
1.0
 70
     8
 71
     3
 72
    10
 73
     6
 74
     0
 42
0.000000001
 43
0.00000001
 40
0.0
 40
0.0
 40
0.0
 40
0.0
 40
0.4459735504144711
 40
0.9523153412123322
 40
0.9999999999999999
 40
0.9999999999999999
 40
0.9999999999999999
 40
0.9999999999999999
 10
267.9788688189715
 20
23.33893840699899
 30
0.0
 10
267.8684070354353
 20
23.40086291902314
 30
0.0
 10
267.6325310491097
 20
23.53309422005633
 30
0.0
 10
267.4324870186594
 20
23.75884088966361
 30
0.0
 10
267.3374699288947
 20
23.91006651399255
 30
0.0
 10
267.3292918761902
 20
23.92308239491569
 30
0.0
  0
SPLINE
  5
220
330
1F
100
AcDbEntity
  8
0
  6
Continuous
 62
     7
370
    15
100
AcDbSpline
210
0.0
220
0.0
230
1.0
 70
     8
 71
     3
 72
    17
 73
    13
 74
     0
 42
0.000000001
 43
0.00000001
 40
0.0
 40
0.0
 40
0.0
 40
0.0
 40
0.0977650089647329
 40
0.206222420913594
 40
0.3148003613871357
 40
0.4234470836279899
 40
0.5321238154882111
 40
0.6408004555546384
 40
0.7494618889948479
 40
0.8581017931340447
 40
0.9667181356189807
 40
1.0
 40
1.0
 40
1.0
 40
1.0
 10
253.0583475677049
 20
12.92620815615036
 30
0.0
 10
253.4410711737965
 20
12.99740752790042
 30
0.0
 10
254.2483762558985
 20
13.14759323304491
 30
0.0
 10
255.5134307806309
 20
13.53830571333172
 30
0.0
 10
256.8370047011166
 20
14.05883898701753
 30
0.0
 10
258.1722892528072
 20
14.70811893095454
 30
0.0
 10
259.5102696055174
 20
15.47783505870353
 30
0.0
 10
260.8428927182088
 20
16.36485474023725
 30
0.0
 10
262.1631215626107
 20
17.36120794297343
 30
0.0
 10
263.4595993712758
 20
18.46906598953502
 30
0.0
 10
264.4426186724885
 20
19.37800593956219
 30
0.0
 10
264.9779782277105
 20
19.94435117247919
 30
0.0
 10
265.103545453016
 20
20.07718600986783
 30
0.0
  0
SPLINE
  5
221
330
1F
100
AcDbEntity
  8
0
  6
Continuous
 62
     7
370
    15
100
AcDbSpline
210
0.0
220
0.0
230
1.0
 70
     8
 71
     3
 72
    10
 73
     6
 74
     0
 42
0.000000001
 43
0.00000001
 40
0.0
 40
0.0
 40
0.0
 40
0.0
 40
0.0186205751071957
 40
0.8759716819280964
 40
1.0
 40
1.0
 40
1.0
 40
1.0
 10
274.8603848082395
 20
36.96073264093597
 30
0.0
 10
274.8642193857281
 20
36.9731548613432
 30
0.0
 10
275.0446102314894
 20
37.55753602254565
 30
0.0
 10
275.2015938397055
 20
38.22050881017902
 30
0.0
 10
275.3397325868968
 20
38.86494934372479
 30
0.0
 10
275.3571907850617
 20
38.94639478006228
 30
0.0
  0
LINE
  5
222
330
1F
100
AcDbEntity
  8
0
  6
Continuous
 62
     7
370
    15
100
AcDbLine
 10
245.0825052851
 20
14.7624812279
 30
0.0
 11
246.5380272714
 21
13.9222262706
 31
0.0
  0
LINE
  5
223
330
1F
100
AcDbEntity
  8
0
  6
Continuous
 62
     7
370
    15
100
AcDbLine
 10
241.3584703368
 20
16.912320843
 30
0.0
 11
242.7963150128
 21
16.0822707796
 31
0.0
  0
SPLINE
  5
224
330
1F
100
AcDbEntity
  8
0
  6
Continuous
 62
     7
370
    15
100
AcDbSpline
210
0.0
220
0.0
230
1.0
 70
     8
 71
     3
 72
     9
 73
     5
 74
     0
 42
0.000000001
 43
0.00000001
 40
0.0
 40
0.0
 40
0.0
 40
0.0
 40
0.6734300212225866
 40
1.0
 40
1.0
 40
1.0
 40
1.0
 10
236.9263716261842
 20
22.97761658752477
 30
0.0
 10
236.9645928216323
 20
22.83989284790862
 30
0.0
 10
237.0213488233601
 20
22.63538200747101
 30
0.0
 10
237.0962481550209
 20
22.44753669869342
 30
0.0
 10
237.1207080281718
 20
22.38619206019248
 30
0.0
  0
SPLINE
  5
225
330
1F
100
AcDbEntity
  8
0
  6
Continuous
 62
     7
370
    15
100
AcDbSpline
210
0.0
220
0.0
230
1.0
 70
     8
 71
     3
 72
     9
 73
     5
 74
     0
 42
0.000000001
 43
0.00000001
 40
0.0
 40
0.0
 40
0.0
 40
0.0
 40
0.5379454168346696
 40
1.0
 40
1.0
 40
1.0
 40
1.0
 10
275.3456168653339
 20
50.00942237365339
 30
0.0
 10
275.2931125392383
 20
50.19090662545575
 30
0.0
 10
275.1955109528088
 20
50.52827217616576
 30
0.0
 10
275.0677692879665
 20
50.83776176800287
 30
0.0
 10
275.008745666265
 20
50.98076285235318
 30
0.0
  0
SPLINE
  5
226
330
1F
100
AcDbEntity
  8
0
  6
Continuous
 62
     7
370
    15
100
AcDbSpline
210
0.0
220
0.0
230
1.0
 70
     8
 71
     3
 72
    26
 73
    22
 74
     0
 42
0.000000001
 43
0.00000001
 40
0.0
 40
0.0
 40
0.0
 40
0.0
 40
0.0467343932845318
 40
0.0973362733615872
 40
0.148884328981809
 40
0.2016235614697817
 40
0.2554288166708958
 40
0.3099411576901873
 40
0.3647797363761696
 40
0.4196440832404975
 40
0.4744117143570114
 40
0.5290609356879075
 40
0.5836100312989505
 40
0.6380956256968037
 40
0.6925622165811356
 40
0.7470544364830991
 40
0.8016088272974833
 40
0.8562756029205719
 40
0.9111031989102982
 40
0.9661318266731398
 40
1.0
 40
1.0
 40
1.0
 40
1.0
 10
221.4243916296808
 20
68.2381766352674
 30
0.0
 10
221.1960079868854
 20
68.31042187001277
 30
0.0
 10
220.7203409005256
 20
68.46089096619716
 30
0.0
 10
219.9397175423399
 20
68.52438492165668
 30
0.0
 10
219.1076983080575
 20
68.46837821442992
 30
0.0
 10
218.2432112476846
 20
68.27599345262364
 30
0.0
 10
217.3577906123261
 20
67.95127737088929
 30
0.0
 10
216.4642281667761
 20
67.49639646838907
 30
0.0
 10
215.5775599656716
 20
66.91899490520393
 30
0.0
 10
214.7120754446692
 20
66.22932525698721
 30
0.0
 10
213.8805042163312
 20
65.43929180084105
 30
0.0
 10
213.0939377097386
 20
64.56126308975685
 30
0.0
 10
212.3624803839735
 20
63.60807946789129
 30
0.0
 10
211.6955438797134
 20
62.5931101585583
 30
0.0
 10
211.1018679839956
 20
61.53025670552011
 30
0.0
 10
210.5894925795152
 20
60.43384045199076
 30
0.0
 10
210.1658068741495
 20
59.31850715756432
 30
0.0
 10
209.8366551787332
 20
58.19854848321829
 30
0.0
 10
209.6097191193946
 20
57.08927426578695
 30
0.0
 10
209.4985990873273
 20
56.14194175874771
 30
0.0
 10
209.4875987110023
 20
55.57892562116407
 30
0.0
 10
209.4834077542135
 20
55.36442602275601
 30
0.0
  0
SPLINE
  5
227
330
1F
100
AcDbEntity
  8
0
  6
Continuous
 62
     7
370
    15
100
AcDbSpline
210
0.0
220
0.0
230
1.0
 70
     8
 71
     3
 72
    13
 73
     9
 74
     0
 42
0.000000001
 43
0.00000001
 40
0.0
 40
0.0
 40
0.0
 40
0.0
 40
0.0977754890227955
 40
0.2821122066947448
 40
0.4664605972021805
 40
0.6492145450206039
 40
0.8286980923493856
 40
0.9999999999999999
 40
0.9999999999999999
 40
0.9999999999999999
 40
0.9999999999999999
 10
209.4834077542135
 20
55.36442602275601
 30
0.0
 10
209.4865866166874
 20
55.18148705214919
 30
0.0
 10
209.4957586077076
 20
54.65365213969663
 30
0.0
 10
209.5984064342354
 20
53.8232715800607
 30
0.0
 10
209.8296470683414
 20
52.90744001831628
 30
0.0
 10
210.1796218816007
 20
52.08347428548467
 30
0.0
 10
210.6274105544563
 20
51.36156271068239
 30
0.0
 10
211.0112284388422
 20
50.97940187400049
 30
0.0
 10
211.1986613407839
 20
50.79277817161007
 30
0.0
  0
LWPOLYLINE
  5
228
330
1F
100
AcDbEntity
  8
0
  6
Continuous
 62
     7
370
    15
100
AcDbPolyline
 90
       22
 70
   128
 43
0.0
 10
267.2379839393
 20
39.0237686058
 10
267.7761631395
 20
39.0017146792
 10
268.2791715354
 20
38.8890652314
 10
268.7023163456
 20
38.6958286087
 10
269.0079969834
 20
38.439176124
 10
269.1690542503
 20
38.1419113983
 10
269.1711763277
 20
37.8304484292
 10
269.0141766416
 20
37.5324607872
 10
268.7120025526
 20
37.2744276955
 10
268.2915052509
 20
37.07927549
 10
267.7900477272
 20
36.964344359
 10
267.2521861925
 20
36.9398466543
 10
266.7257129502
 20
37.0079587046
 10
266.2574053223
 20
37.1626294921
 10
265.8888769833
 20
37.3901145058
 10
265.6528706013
 20
37.6702023111
 10
265.5703595019
 20
37.9780039614
 10
265.6486735325
 20
38.2861709548
 10
265.8808530712
 20
38.5673218808
 10
266.2462704151
 20
38.7964738255
 10
266.7124546794
 20
38.9532667854
 10
267.2379839393
 20
39.0237686058
  0
LWPOLYLINE
  5
229
330
1F
100
AcDbEntity
  8
0
  6
Continuous
 62
     7
370
    15
100
AcDbPolyline
 90
       18
 70
   128
 43
0.0
 10
268.7947885068
 20
38.6432476025
 10
269.1286270261
 20
38.3877180438
 10
269.3314688597
 20
38.0806623814
 10
269.3762428069
 20
37.7530539398
 10
269.2593206991
 20
37.4314341206
 10
268.9901752667
 20
37.1418583618
 10
268.5906118653
 20
36.9077859585
 10
268.0929989039
 20
36.7481810797
 10
267.5376512426
 20
36.675973343
 10
266.9695599631
 20
36.6970124068
 10
266.434747901
 20
36.8095942319
 10
265.9765423458
 20
37.0045979781
 10
265.6320647108
 20
37.2662256481
 10
265.4292228772
 20
37.5732813105
 10
265.38444893
 20
37.9008897521
 10
265.5013710378
 20
38.2225095713
 10
265.7705151531
 20
38.5120860905
 10
265.9659022621
 20
38.6432474239
  0
LWPOLYLINE
  5
22A
330
1F
100
AcDbEntity
  8
0
  6
Continuous
 62
     7
370
    15
100
AcDbPolyline
 90
       18
 70
   128
 43
0.0
 10
267.2859626522
 20
38.6727137474
 10
267.7244832007
 20
38.6457618337
 10
268.1165258592
 20
38.5291808615
 10
268.4091431966
 20
38.3387156756
 10
268.5628160393
 20
38.1000893626
 10
268.5567899043
 20
37.845529783
 10
268.3918788967
 20
37.6094165221
 10
268.0903535409
 20
37.4236388934
 10
267.6929379309
 20
37.3132864009
 10
267.2533052242
 20
37.2932627228
 10
266.8308305654
 20
37.366272071
 10
266.48257058
 20
37.5224545556
 10
266.2555592574
 20
37.7407172712
 10
266.1804575658
 20
37.9915813642
 10
266.2674067201
 20
38.2411674217
 10
266.5046656537
 20
38.4557662524
 10
266.8601889941
 20
38.6063964186
 10
267.2859626522
 20
38.6727137474
  0
SPLINE
  5
22B
330
1F
100
AcDbEntity
  8
0
  6
Continuous
 62
     7
370
    15
100
AcDbSpline
210
0.0
220
0.0
230
1.0
 70
     8
 71
     3
 72
    11
 73
     7
 74
     0
 42
0.000000001
 43
0.00000001
 40
0.0
 40
0.0
 40
0.0
 40
0.0
 40
0.1285568801728479
 40
0.4801540739257415
 40
0.8150690357487625
 40
1.0
 40
1.0
 40
1.0
 40
1.0
 10
266.726130570318
 20
38.49441077096862
 30
0.0
 10
266.7724901291604
 20
38.47852540480049
 30
0.0
 10
266.9456409633565
 20
38.41919428793476
 30
0.0
 10
267.2703354252496
 20
38.36918667817284
 30
0.0
 10
267.6219115578359
 20
38.43811425931393
 30
0.0
 10
267.8102534117218
 20
38.51831071747593
 30
0.0
 10
267.8772544958911
 20
38.54683995583974
 30
0.0
  0
SPLINE
  5
22C
330
1F
100
AcDbEntity
  8
0
  6
Continuous
 62
     7
370
    15
100
AcDbSpline
210
0.0
220
0.0
230
1.0
 70
     8
 71
     3
 72
    10
 73
     6
 74
     0
 42
0.000000001
 43
0.00000001
 40
0.0
 40
0.0
 40
0.0
 40
0.0
 40
0.4391221392211182
 40
0.7513709328897477
 40
1.0
 40
1.0
 40
1.0
 40
1.0
 10
266.2292219634502
 20
37.89269655282159
 30
0.0
 10
266.3003590543385
 20
37.92291253956934
 30
0.0
 10
266.4220799551309
 20
37.97461436036823
 30
0.0
 10
266.5990246769171
 20
38.23141177857879
 30
0.0
 10
266.6870917201096
 20
38.41363419960643
 30
0.0
 10
266.726130570318
 20
38.49441077096862
 30
0.0
  0
SPLINE
  5
22D
330
1F
100
AcDbEntity
  8
0
  6
Continuous
 62
     7
370
    15
100
AcDbSpline
210
0.0
220
0.0
230
1.0
 70
     8
 71
     3
 72
    10
 73
     6
 74
     0
 42
0.000000001
 43
0.00000001
 40
0.0
 40
0.0
 40
0.0
 40
0.0
 40
0.1471495695665153
 40
0.6219436378191691
 40
1.0
 40
1.0
 40
1.0
 40
1.0
 10
266.6604488845555
 20
37.43382448442171
 30
0.0
 10
266.63959621695
 20
37.4408439455144
 30
0.0
 10
266.5514601524886
 20
37.4705124602126
 30
0.0
 10
266.396110765422
 20
37.64744840025275
 30
0.0
 10
266.2804796002922
 20
37.81737190196413
 30
0.0
 10
266.2292219634502
 20
37.89269655282159
 30
0.0
  0
SPLINE
  5
22E
330
1F
100
AcDbEntity
  8
0
  6
Continuous
 62
     7
370
    15
100
AcDbSpline
210
0.0
220
0.0
230
1.0
 70
     8
 71
     3
 72
    10
 73
     6
 74
     0
 42
0.000000001
 43
0.00000001
 40
0.0
 40
0.0
 40
0.0
 40
0.0
 40
0.5491119725572652
 40
0.9395724355477584
 40
0.9999999999999999
 40
0.9999999999999999
 40
0.9999999999999999
 40
0.9999999999999999
 10
268.5314684563484
 20
37.99755565914255
 30
0.0
 10
268.4606208841164
 20
37.85718041190768
 30
0.0
 10
268.3393952883882
 20
37.61698766520644
 30
0.0
 10
268.1957142178609
 20
37.46692969979995
 30
0.0
 10
268.1383700385419
 20
37.44270109874475
 30
0.0
 10
268.1306848287319
 20
37.4394540057577
 30
0.0
  0
SPLINE
  5
22F
330
1F
100
AcDbEntity
  8
0
  6
Continuous
 62
     7
370
    15
100
AcDbSpline
210
0.0
220
0.0
230
1.0
 70
     8
 71
     3
 72
    10
 73
     6
 74
     0
 42
0.000000001
 43
0.00000001
 40
0.0
 40
0.0
 40
0.0
 40
0.0
 40
0.4391217728154719
 40
0.7513721881462541
 40
1.0
 40
1.0
 40
1.0
 40
1.0
 10
267.8772544958911
 20
38.54683995583974
 30
0.0
 10
267.9709113951562
 20
38.41227945172619
 30
0.0
 10
268.1311657794574
 20
38.18203575470881
 30
0.0
 10
268.364122663938
 20
38.02897940783208
 30
0.0
 10
268.4800706703116
 20
38.00720699897221
 30
0.0
 10
268.5314684563484
 20
37.99755565914255
 30
0.0
  0
LINE
  5
230
330
1F
100
AcDbEntity
  8
0
  6
Continuous
 62
     7
370
    15
100
AcDbLine
 10
266.7261305703
 20
37.4013731226
 30
0.0
 11
266.7261305703
 21
38.494410771
 31
0.0
  0
LINE
  5
231
330
1F
100
AcDbEntity
  8
0
  6
Continuous
 62
     7
370
    15
100
AcDbLine
 10
267.8772544959
 20
37.351553509
 30
0.0
 11
267.8772544959
 21
38.5468399558
 31
0.0
  0
SPLINE
  5
232
330
1F
100
AcDbEntity
  8
0
  6
Continuous
 62
     7
370
    15
100
AcDbSpline
210
0.0
220
0.0
230
1.0
 70
     8
 71
     3
 72
    12
 73
     8
 74
     0
 42
0.000000001
 43
0.00000001
 40
0.0
 40
0.0
 40
0.0
 40
0.0
 40
0.2499999999999972
 40
0.2499999999999972
 40
0.4999999999999944
 40
0.4999999999999944
 40
1.0
 40
1.0
 40
1.0
 40
1.0
 10
242.196999501807
 20
31.11885263842059
 30
0.0
 10
242.2309309940965
 20
31.09926440486911
 30
0.0
 10
242.2693627031238
 20
31.0720772159327
 30
0.0
 10
242.3435395557887
 20
31.01285328839687
 30
0.0
 10
242.3787558360442
 20
30.98142060938011
 30
0.0
 10
242.4738547533022
 20
30.88942789257812
 30
0.0
 10
242.5223839100641
 20
30.83257122705348
 30
0.0
 10
242.5557255062191
 20
30.78434242105114
 30
0.0
  0
ARC
  5
233
330
1F
100
AcDbEntity
  8
0
  6
Continuous
 62
     7
370
    15
100
AcDbCircle
 10
266.3287149787
 20
46.9478260874
 30
0.0
 40
10.31757342768908
100
AcDbArc
 50
73.4258973956
 51
101.5109325803
  0
SPLINE
  5
234
330
1F
100
AcDbEntity
  8
0
  6
Continuous
 62
     7
370
    15
100
AcDbSpline
210
0.0
220
0.0
230
1.0
 70
     8
 71
     3
 72
    12
 73
     8
 74
     0
 42
0.000000001
 43
0.00000001
 40
0.0
 40
0.0
 40
0.0
 40
0.0
 40
0.4999999999999972
 40
0.4999999999999972
 40
0.7499999999999986
 40
0.7499999999999986
 40
1.0
 40
1.0
 40
1.0
 40
1.0
 10
269.4839883254176
 20
56.40315835926247
 30
0.0
 10
269.4839883254176
 20
56.47584135645527
 30
0.0
 10
269.4669715573473
 20
56.55942420319556
 30
0.0
 10
269.4125607314658
 20
56.68086838107125
 30
0.0
 10
269.3894155125439
 20
56.72058325875259
 30
0.0
 10
269.3351347006868
 20
56.78931303061839
 30
0.0
 10
269.3038987321293
 20
56.81822262652405
 30
0.0
 10
269.2718562910615
 20
56.83672033401766
 30
0.0
  0
LWPOLYLINE
  5
235
330
1F
100
AcDbEntity
  8
0
  6
Continuous
 62
     7
370
    15
100
AcDbPolyline
 90
       16
 70
   128
 43
0.0
 10
242.6796288285
 20
31.3388983113
 10
242.9885863015
 20
32.5625594369
 10
243.528221379
 20
34.3564240314
 10
244.1710174536
 20
36.1539215633
 10
244.9126689614
 20
37.9430135484
 10
245.7482091597
 20
39.7117163183
 10
246.6720404202
 20
41.4481831466
 10
247.6779763758
 20
43.1407856154
 10
248.759278799
 20
44.7781850947
 10
249.908705676
 20
46.3494144881
 10
251.1185579628
 20
47.8439500918
 10
252.3807322693
 20
49.2517815524
 10
253.6867755182
 20
50.5634814442
 10
255.0279396043
 20
51.7702626789
 10
256.3952416512
 20
52.8640421887
 10
257.5785305575
 20
53.7043477858
  0
LWPOLYLINE
  5
236
330
1F
100
AcDbEntity
  8
0
  6
Continuous
 62
     7
370
    15
100
AcDbPolyline
 90
       12
 70
   128
 43
0.0
 10
252.2079604835
 20
51.9608471615
 10
253.6583175052
 20
53.2334504721
 10
255.1359494647
 20
54.3745995093
 10
256.6296752231
 20
55.3756585312
 10
258.1281917281
 20
56.2290529859
 10
259.6201594608
 20
56.928326443
 10
261.0942886221
 20
57.4681842647
 10
262.5394240444
 20
57.8445441447
 10
263.9446305961
 20
58.0545565139
 10
265.2992750882
 20
58.096632052
 10
266.5931062878
 20
57.9704544178
 10
267.8163342721
 20
57.676975869
  0
LINE
  5
237
330
1F
100
AcDbEntity
  8
0
  6
Continuous
 62
     7
370
    15
100
AcDbLine
 10
269.2718562584
 20
56.8367209116
 30
0.0
 11
267.8163342721
 21
57.676975869
 31
0.0
  0
LINE
  5
238
330
1F
100
AcDbEntity
  8
0
  6
Continuous
 62
     7
370
    15
100
AcDbLine
 10
240.7414773531
 20
31.9591077809
 30
0.0
 11
242.1969993393
 21
31.1188528236
 31
0.0
  0
ARC
  5
239
330
1F
100
AcDbEntity
  8
0
  6
Continuous
 62
     7
370
    15
100
AcDbCircle
 10
280.0742012247
 20
22.728006916
 30
0.0
 40
40.40144044883819
100
AcDbArc
 50
136.9528122493
 51
166.7921386576
  0
SPLINE
  5
23A
330
1F
100
AcDbEntity
  8
0
  6
Continuous
 62
     7
370
    15
100
AcDbSpline
210
0.0
220
0.0
230
1.0
 70
     8
 71
     3
 72
    34
 73
    30
 74
     0
 42
0.000000001
 43
0.00000001
 40
0.0
 40
0.0
 40
0.0
 40
0.0
 40
0.0624999999999989
 40
0.0624999999999989
 40
0.1249999999999978
 40
0.1249999999999978
 40
0.1874999999999968
 40
0.1874999999999968
 40
0.2499999999999962
 40
0.2499999999999962
 40
0.3124999999999957
 40
0.3124999999999957
 40
0.3749999999999952
 40
0.3749999999999952
 40
0.499999999999995
 40
0.499999999999995
 40
0.6249999999999948
 40
0.6249999999999948
 40
0.6874999999999954
 40
0.6874999999999954
 40
0.749999999999996
 40
0.749999999999996
 40
0.8124999999999966
 40
0.8124999999999966
 40
0.8749999999999977
 40
0.8749999999999977
 40
0.9374999999999989
 40
0.9374999999999989
 40
1.0
 40
1.0
 40
1.0
 40
1.0
 10
250.5491611163392
 20
50.30604952945293
 30
0.0
 10
250.6082865299825
 20
50.27647204559468
 30
0.0
 10
250.671099225413
 20
50.25279602339916
 30
0.0
 10
250.8038082283376
 20
50.21671651297942
 30
0.0
 10
250.8744199247088
 20
50.20426862284017
 30
0.0
 10
251.0196678946861
 20
50.19155872911479
 30
0.0
 10
251.0936503244482
 20
50.19121654921745
 30
0.0
 10
251.2443323892731
 20
50.20222289404008
 30
0.0
 10
251.3217804090733
 20
50.21380955802555
 30
0.0
 10
251.4737129950483
 20
50.24798410076436
 30
0.0
 10
251.5486690756328
 20
50.27049650315435
 30
0.0
 10
251.6966041425415
 20
50.32630857575241
 30
0.0
 10
251.7695328556319
 20
50.35975342195871
 30
0.0
 10
251.9761453816419
 20
50.47211568127803
 30
0.0
 10
252.1030705576912
 20
50.56615308229876
 30
0.0
 10
252.3121773103181
 20
50.77475439747466
 30
0.0
 10
252.3967256935159
 20
50.89167849161836
 30
0.0
 10
252.4816992502899
 20
51.07020374159103
 30
0.0
 10
252.5036589508879
 20
51.13142032051771
 30
0.0
 10
252.5327700476277
 20
51.25222630303155
 30
0.0
 10
252.5401245104075
 20
51.31182682947671
 30
0.0
 10
252.5404674454518
 20
51.42956811960996
 30
0.0
 10
252.5332274026165
 20
51.48801950774706
 30
0.0
 10
252.5046155520945
 20
51.59878213213853
 30
0.0
 10
252.483332210535
 20
51.65169457686116
 30
0.0
 10
252.426504043928
 20
51.7526127841704
 30
0.0
 10
252.391046554954
 20
51.80012779880151
 30
0.0
 10
252.3086416020675
 20
51.88638777668494
 30
0.0
 10
252.2614366994916
 20
51.925633329105
 30
0.0
 10
252.2079605536028
 20
51.96084645721863
 30
0.0
  0
LINE
  5
23B
330
1F
100
AcDbEntity
  8
0
  6
Continuous
 62
     7
370
    15
100
AcDbLine
 10
275.1938875522
 20
49.533854803
 30
0.0
 11
275.2981693921
 21
49.7144766278
 31
0.0
  0
LINE
  5
23C
330
1F
100
AcDbEntity
  8
0
  6
Continuous
 62
     7
370
    15
100
AcDbLine
 10
272.8957792706
 20
48.2071851311
 30
0.0
 11
275.1938875522
 21
49.533854803
 31
0.0
  0
ARC
  5
23D
330
1F
100
AcDbEntity
  8
0
  6
Continuous
 62
     7
370
    15
100
AcDbCircle
 10
273.7238823682
 20
46.9125828481
 30
0.0
 40
1.536798559127883
100
AcDbArc
 50
122.6053519586
 51
177.394632491
  0
LINE
  5
23E
330
1F
100
AcDbEntity
  8
0
  6
Continuous
 62
     7
370
    15
100
AcDbLine
 10
272.1886723735
 20
38.5030795843
 30
0.0
 11
272.1886723735
 21
46.9824404427
 31
0.0
  0
LINE
  5
23F
330
1F
100
AcDbEntity
  8
0
  6
Continuous
 62
     7
370
    15
100
AcDbLine
 10
275.1938875522
 20
39.0413057037
 30
0.0
 11
273.2251121107
 21
37.9047558335
 31
0.0
  0
LINE
  5
240
330
1F
100
AcDbEntity
  8
0
  6
Continuous
 62
     7
370
    15
100
AcDbLine
 10
275.2981693921
 20
38.9810851285
 30
0.0
 11
275.1938875522
 21
39.0413057037
 31
0.0
  0
LINE
  5
241
330
1F
100
AcDbEntity
  8
0
  6
Continuous
 62
     7
370
    15
100
AcDbLine
 10
242.6012330561
 20
20.2259667589
 30
0.0
 11
242.5557249964
 21
20.1075981358
 31
0.0
  0
LINE
  5
242
330
1F
100
AcDbEntity
  8
0
  6
Continuous
 62
     7
370
    15
100
AcDbLine
 10
242.6012330561
 20
20.2259667589
 30
0.0
 11
245.7428775834
 21
22.0395995402
 31
0.0
  0
ARC
  5
243
330
1F
100
AcDbEntity
  8
0
  6
Continuous
 62
     7
370
    15
100
AcDbCircle
 10
244.9147744858
 20
23.3342018232
 30
0.0
 40
1.53679855912838
100
AcDbArc
 50
302.6053519586
 51
357.394632491
  0
LINE
  5
244
330
1F
100
AcDbEntity
  8
0
  6
Continuous
 62
     7
370
    15
100
AcDbLine
 10
246.4499844805
 20
32.1238121969
 30
0.0
 11
246.4499844805
 21
23.2643442285
 31
0.0
  0
ARC
  5
245
330
1F
100
AcDbEntity
  8
0
  6
Continuous
 62
     7
370
    15
100
AcDbCircle
 10
246.0189109974
 20
32.1937407439
 30
0.0
 40
0.4367085406723468
100
AcDbArc
 50
350.7857695821
 51
129.2035248725
  0
LINE
  5
246
330
1F
100
AcDbEntity
  8
0
  6
Continuous
 62
     7
370
    15
100
AcDbLine
 10
245.7428775834
 20
32.5321486395
 30
0.0
 11
242.6012330561
 21
30.7185158582
 31
0.0
  0
LINE
  5
247
330
1F
100
AcDbEntity
  8
0
  6
Continuous
 62
     7
370
    15
100
AcDbLine
 10
242.5557249964
 20
30.7843419939
 30
0.0
 11
242.6012330561
 21
30.7185158582
 31
0.0
  0
LINE
  5
248
330
1F
100
AcDbEntity
  8
0
  6
Continuous
 62
     7
370
    15
100
AcDbLine
 10
269.4839885909
 20
53.1781975737
 30
0.0
 11
269.4839885909
 21
56.4031587167
 31
0.0
  0
LINE
  5
249
330
1F
100
AcDbEntity
  8
0
  6
Continuous
 62
     7
370
    15
100
AcDbLine
 10
272.2767355793
 20
54.790416093
 30
0.0
 11
269.4839885909
 21
53.1781975737
 31
0.0
  0
SPLINE
  5
24A
330
1F
100
AcDbEntity
  8
0
  6
Continuous
 62
     7
370
    15
100
AcDbSpline
210
0.0
220
0.0
230
1.0
 70
     8
 71
     3
 72
     8
 73
     4
 74
     0
 42
0.000000001
 43
0.00000001
 40
0.0
 40
0.0
 40
0.0
 40
0.0
 40
1.0
 40
1.0
 40
1.0
 40
1.0
 10
239.6689230295785
 20
33.05062156595208
 30
0.0
 10
239.3818558999062
 20
33.00316956622873
 30
0.0
 10
239.0947427813207
 20
32.95581213352594
 30
0.0
 10
238.807587954923
 20
32.90854046461386
 30
0.0
  0
SPLINE
  5
24B
330
1F
100
AcDbEntity
  8
0
  6
Continuous
 62
     7
370
    15
100
AcDbSpline
210
0.0
220
0.0
230
1.0
 70
     8
 71
     3
 72
     8
 73
     4
 74
     0
 42
0.000000001
 43
0.00000001
 40
0.0
 40
0.0
 40
0.0
 40
0.0
 40
0.0011862984959112
 40
0.0011862984959112
 40
0.0011862984959112
 40
0.0011862984959112
 10
238.4552868676476
 20
33.27889736427603
 30
0.0
 10
238.5729977354921
 20
33.15534741316358
 30
0.0
 10
238.6904374859281
 20
33.0318923640483
 30
0.0
 10
238.807587954923
 20
32.90854046461386
 30
0.0
  0
LWPOLYLINE
  5
24C
330
1F
100
AcDbEntity
  8
0
  6
Continuous
 62
     7
370
    15
100
AcDbPolyline
 90
       24
 70
   128
 43
0.0
 10
238.4552870808
 20
33.2788973326
 10
238.9259462064
 20
35.1402575798
 10
239.5110801239
 20
37.0161756533
 10
240.2065149782
 20
38.8932712199
 10
241.007291929
 20
40.7581583168
 10
241.9077000784
 20
42.5975347023
 10
242.9013159833
 20
44.3982837549
 10
243.9810537048
 20
46.1475596398
 10
245.1392135405
 20
47.8328884461
 10
246.3675340495
 20
49.4422491716
 10
247.6572552728
 20
50.9641649717
 10
248.9991793193
 20
52.3877792007
 10
250.3837342444
 20
53.7029409572
 10
251.801045832
 20
54.9002693371
 10
253.2410055883
 20
55.9712231044
 10
254.6933438206
 20
56.9081672128
 10
256.1477020147
 20
57.7044161098
 10
257.5937075389
 20
58.3542935925
 10
259.0210476068
 20
58.8531633375
 10
260.4195416143
 20
59.1974676192
 10
261.7792160694
 20
59.384750793
 10
263.090373575
 20
59.4136778257
 10
264.3436621405
 20
59.2840408477
 10
265.5301439998
 20
58.9967654206
  0
LINE
  5
24D
330
1F
100
AcDbEntity
  8
0
  6
Continuous
 62
     7
370
    15
100
AcDbLine
 10
265.8289276187
 20
58.0566259596
 30
0.0
 11
265.5301439998
 21
58.9967654206
 31
0.0
  0
LWPOLYLINE
  5
24E
330
1F
100
AcDbEntity
  8
0
  6
Continuous
 62
     7
370
    15
100
AcDbPolyline
 90
       23
 70
   128
 43
0.0
 10
239.6689230351
 20
33.0506215403
 10
240.1201722199
 20
34.8646292043
 10
240.6859080504
 20
36.6939273995
 10
241.3619039878
 20
38.5248502439
 10
242.143110313
 20
40.3437182443
 10
243.0236896873
 20
42.1369424767
 10
243.9970632511
 20
43.8911264835
 10
245.0559600145
 20
45.5931647494
 10
246.1924682239
 20
47.2303423166
 10
247.3980972648
 20
48.7904252748
 10
248.663840224
 20
50.2617607555
 10
249.9802397439
 20
51.6333544933
 10
251.3374621085
 20
52.8949607439
 10
252.7253672142
 20
54.0371546163
 10
254.1335858662
 20
55.05140103
 10
255.5515974248
 20
55.9301238746
 10
256.9688080698
 20
56.6667572737
 10
258.3746295374
 20
57.2557986438
 10
259.7585595038
 20
57.6928474946
 10
261.1102583264
 20
57.9746375624
 10
262.4196272251
 20
58.0990652137
 10
263.6768848384
 20
58.0651986586
 10
263.8599542847
 20
58.0465147783
  0
LINE
  5
24F
330
1F
100
AcDbEntity
  8
0
  6
Continuous
 62
     7
370
    15
100
AcDbLine
 10
237.0174424047
 20
34.1089473959
 30
0.0
 11
238.4552870808
 21
33.2788973326
 31
0.0
  0
ARC
  5
250
330
1F
100
AcDbEntity
  8
0
  6
Continuous
 62
     7
370
    15
100
AcDbCircle
 10
261.1491026666
 20
49.9375895127
 30
0.0
 40
10.31790661299034
100
AcDbArc
 50
73.4261272067
 51
101.5158885033
  0
LINE
  5
251
330
1F
100
AcDbEntity
  8
0
  6
Continuous
 62
     7
370
    15
100
AcDbLine
 10
265.5301439998
 20
58.9967654206
 30
0.0
 11
264.0922993238
 21
59.826815484
 31
0.0
  0
LINE
  5
252
330
1F
100
AcDbEntity
  8
0
  6
Continuous
 62
     7
370
    15
100
AcDbLine
 10
240.9215138727
 20
32.7242795388
 30
0.0
 11
240.2954102549
 21
33.0857214638
 31
0.0
  0
SPLINE
  5
253
330
1F
100
AcDbEntity
  8
0
  6
Continuous
 62
     7
370
    15
100
AcDbSpline
210
0.0
220
0.0
230
1.0
 70
     8
 71
     3
 72
    11
 73
     7
 74
     0
 42
0.000000001
 43
0.00000001
 40
0.0
 40
0.0
 40
0.0
 40
0.0
 40
0.3165694752064712
 40
0.6331520400060429
 40
0.9494411625907934
 40
1.0
 40
1.0
 40
1.0
 40
1.0
 10
251.5159365605165
 20
51.0683682117058
 30
0.0
 10
251.3823463803127
 20
51.02118954878573
 30
0.0
 10
251.1151604961854
 20
50.92683027219057
 30
0.0
 10
250.7992102969867
 20
50.66701457299738
 30
0.0
 10
250.6185076060301
 20
50.4438231875249
 30
0.0
 10
250.58357264248
 20
50.31507401002709
 30
0.0
 10
250.5787579199392
 20
50.29732985047995
 30
0.0
  0
SPLINE
  5
254
330
1F
100
AcDbEntity
  8
0
  6
Continuous
 62
     7
370
    15
100
AcDbSpline
210
0.0
220
0.0
230
1.0
 70
     8
 71
     3
 72
    14
 73
    10
 74
     0
 42
0.000000001
 43
0.00000001
 40
0.0
 40
0.0
 40
0.0
 40
0.0
 40
0.25
 40
0.25
 40
0.5
 40
0.5
 40
0.75
 40
0.75
 40
1.0
 40
1.0
 40
1.0
 40
1.0
 10
240.2954101423122
 20
33.08572163318413
 30
0.0
 10
240.2577761488542
 20
33.10744727516417
 30
0.0
 10
240.212002192165
 20
33.12465903627567
 30
0.0
 10
240.1120663146551
 20
33.14706436990817
 30
0.0
 10
240.0576324458152
 20
33.15223925350799
 30
0.0
 10
239.9514167953232
 20
33.15029705919324
 30
0.0
 10
239.8981004953731
 20
33.143208656275
 30
0.0
 10
239.8006074280724
 20
33.11847521999032
 30
0.0
 10
239.7556957375428
 20
33.10071438400428
 30
0.0
 10
239.7179424719428
 20
33.07891988768228
 30
0.0
  0
LINE
  5
255
330
1F
100
AcDbEntity
  8
0
  6
Continuous
 62
     7
370
    15
100
AcDbLine
 10
239.7179424541
 20
33.0789198485
 30
0.0
 11
239.6689230351
 21
33.0506215403
 31
0.0
  0
SPLINE
  5
256
330
1F
100
AcDbEntity
  8
0
  6
Continuous
 62
     7
370
    15
100
AcDbSpline
210
0.0
220
0.0
230
1.0
 70
     8
 71
     3
 72
    10
 73
     6
 74
     0
 42
0.000000001
 43
0.00000001
 40
0.0
 40
0.0
 40
0.0
 40
0.0
 40
0.5
 40
0.5
 40
1.0
 40
1.0
 40
1.0
 40
1.0
 10
236.9154298392926
 20
34.13839557486075
 30
0.0
 10
236.9227461237149
 20
34.14276357475393
 30
0.0
 10
236.9345699839233
 20
34.1432956273422
 30
0.0
 10
236.9687213482011
 20
34.13406557770389
 30
0.0
 10
236.9909783115939
 20
34.12422470038759
 30
0.0
 10
237.0174423296155
 20
34.10894734797127
 30
0.0
  0
LWPOLYLINE
  5
257
330
1F
100
AcDbEntity
  8
0
  6
Continuous
 62
     7
370
    15
100
AcDbPolyline
 90
       49
 70
   128
 43
0.0
 10
270.9335570056
 20
35.7675808675
 10
270.0521306607
 20
35.1920319019
 10
269.1857856437
 20
34.4929051607
 10
268.3493457089
 20
33.6821628075
 10
267.5571222634
 20
32.7736780975
 10
266.8226702935
 20
31.782993335
 10
266.1585571331
 20
30.7270612906
 10
265.5761453094
 20
29.6239487359
 10
265.0853999176
 20
28.4925294249
 10
264.6947190468
 20
27.3521637647
 10
264.4107856066
 20
26.2223625146
 10
264.2384589968
 20
25.1224572311
 10
264.1806875213
 20
24.0712678582
 10
264.2384589968
 20
23.0867800112
 10
264.4107856066
 20
22.1858387962
 10
264.6947190468
 20
21.3838601183
 10
265.0853999176
 20
20.6945649902
 10
265.5761453094
 20
20.129748248
 10
266.1585571331
 20
19.6990740718
 10
266.8226702935
 20
19.4099107612
 10
267.5571222634
 20
19.2672061935
 10
268.3493457089
 20
19.273403204
 10
269.1857856437
 20
19.4283938433
 10
270.0521306607
 20
19.7295277677
 10
270.9335570056
 20
20.1716519981
 10
271.8149833504
 20
20.7472009636
 10
272.6813283675
 20
21.4463277049
 10
273.5177683022
 20
22.257070058
 10
274.3099917477
 20
23.1655547681
 10
275.0444437177
 20
24.1562395306
 10
275.708556878
 20
25.212171575
 10
276.2909687018
 20
26.3152841296
 10
276.7817140935
 20
27.4467034406
 10
277.1723949643
 20
28.5870691009
 10
277.4563284046
 20
29.716870351
 10
277.6286550143
 20
30.8167756345
 10
277.6864264898
 20
31.8679650074
 10
277.6286550143
 20
32.8524528544
 10
277.4563284046
 20
33.7533940694
 10
277.1723949643
 20
34.5553727472
 10
276.7817140935
 20
35.2446678754
 10
276.2909687018
 20
35.8094846175
 10
275.708556878
 20
36.2401587937
 10
275.0444437177
 20
36.5293221043
 10
274.3099917477
 20
36.6720266721
 10
273.5177683022
 20
36.6658296615
 10
272.6813283675
 20
36.5108390222
 10
271.8149833504
 20
36.2097050979
 10
270.9335570056
 20
35.7675808675
  0
LWPOLYLINE
  5
258
330
1F
100
AcDbEntity
  8
0
  6
Continuous
 62
     7
370
    15
100
AcDbPolyline
 90
       26
 70
   128
 43
0.0
 10
270.7921358896
 20
36.0125301854
 10
269.8922502952
 20
35.4249271911
 10
269.0077619654
 20
34.7111592017
 10
268.1538049113
 20
33.8834382114
 10
267.3449902602
 20
32.9559268508
 10
266.5951573247
 20
31.9444954422
 10
265.9171360336
 20
30.8664494914
 10
265.3225269777
 20
29.7402350285
 10
264.8215046697
 20
28.5851216087
 10
264.4226413834
 20
27.4208734286
 10
264.1327619447
 20
26.2674115039
 10
263.9568265111
 20
25.1444716627
 10
263.8978446308
 20
24.071267478
 10
263.9568265111
 20
23.0661623228
 10
264.1327619447
 20
22.1463532096
 10
264.4226413834
 20
21.3275789607
 10
264.8215046697
 20
20.6238485286
 10
265.3225269777
 20
20.0472031526
 10
265.9171360336
 20
19.6075096926
 10
266.5951573247
 20
19.3122904615
 10
267.3449902602
 20
19.1665977325
 10
268.1538049113
 20
19.1729238908
 10
269.0077619654
 20
19.3311607284
 10
269.8922502952
 20
19.6386012276
 10
270.7921358896
 20
20.0899840251
 10
270.7932564058
 20
20.0906308854
  0
LWPOLYLINE
  5
259
330
1F
100
AcDbEntity
  8
0
  6
Continuous
 62
     7
370
    15
100
AcDbPolyline
 90
       13
 70
   128
 43
0.0
 10
277.6864271484
 20
32.0312467325
 10
277.6274452681
 20
33.0363518877
 10
277.4515098344
 20
33.956161001
 10
277.1616303958
 20
34.7749352498
 10
276.7627671095
 20
35.478665682
 10
276.2617448014
 20
36.055311058
 10
275.6671357456
 20
36.4950045179
 10
274.9891144545
 20
36.790223749
 10
274.239281519
 20
36.935916478
 10
273.4304668678
 20
36.9295903197
 10
272.5765098138
 20
36.7713534822
 10
271.6920214839
 20
36.4639129829
 10
270.7921358896
 20
36.0125301854
  0
SPLINE
  5
25A
330
1F
100
AcDbEntity
  8
0
  6
Continuous
 62
     7
370
    15
100
AcDbSpline
210
0.0
220
0.0
230
1.0
 70
    11
 71
     3
 72
    77
 73
    73
 74
     0
 42
0.000000001
 43
0.00000001
 40
0.0
 40
0.0
 40
0.0
 40
0.0
 40
0.0312500000000002
 40
0.0312500000000002
 40
0.0625000000000004
 40
0.0625000000000004
 40
0.0937500000000005
 40
0.0937500000000005
 40
0.1250000000000007
 40
0.1250000000000007
 40
0.1562500000000009
 40
0.1562500000000009
 40
0.1875000000000011
 40
0.1875000000000011
 40
0.2187500000000012
 40
0.2187500000000012
 40
0.2500000000000014
 40
0.2500000000000014
 40
0.2812500000000016
 40
0.2812500000000016
 40
0.3125000000000018
 40
0.3125000000000018
 40
0.3437500000000019
 40
0.3437500000000019
 40
0.3593750000000021
 40
0.3593750000000021
 40
0.3750000000000022
 40
0.3906250000000023
 40
0.3906250000000023
 40
0.4062500000000023
 40
0.4062500000000023
 40
0.4375000000000023
 40
0.4375000000000023
 40
0.4687500000000023
 40
0.4687500000000023
 40
0.5000000000000022
 40
0.5000000000000022
 40
0.5312500000000022
 40
0.5312500000000022
 40
0.5625000000000021
 40
0.5625000000000021
 40
0.5937500000000021
 40
0.5937500000000021
 40
0.6250000000000021
 40
0.6250000000000021
 40
0.6562500000000021
 40
0.6562500000000021
 40
0.687500000000002
 40
0.687500000000002
 40
0.718750000000002
 40
0.718750000000002
 40
0.750000000000002
 40
0.750000000000002
 40
0.7656250000000017
 40
0.7656250000000017
 40
0.7812500000000013
 40
0.7812500000000013
 40
0.8125000000000011
 40
0.8125000000000011
 40
0.843750000000001
 40
0.843750000000001
 40
0.8750000000000008
 40
0.8750000000000008
 40
0.8906250000000007
 40
0.8906250000000007
 40
0.9062500000000006
 40
0.9062500000000006
 40
0.9375000000000003
 40
0.9375000000000003
 40
0.9687500000000002
 40
0.9687500000000002
 40
1.0
 40
1.0
 40
1.0
 40
1.0
 10
267.3690175045972
 20
39.22710146677598
 30
0.0
 10
267.5241632265415
 20
39.203886129336
 30
0.0
 10
267.6753223029481
 20
39.17293621993851
 30
0.0
 10
267.9705441179164
 20
39.09833397169216
 30
0.0
 10
268.1155347174428
 20
39.05432279905533
 30
0.0
 10
268.3941058203502
 20
38.95598788547208
 30
0.0
 10
268.5258542616387
 20
38.90242049470631
 30
0.0
 10
268.7749479242247
 20
38.78757276468505
 30
0.0
 10
268.8932842307938
 20
38.72566145983299
 30
0.0
 10
269.1091321007682
 20
38.59730780539652
 30
0.0
 10
269.2065622728033
 20
38.53110856435016
 30
0.0
 10
269.3806337817712
 20
38.39436108904336
 30
0.0
 10
269.4578614788913
 20
38.32306911276229
 30
0.0
 10
269.5857652742114
 20
38.17940131337645
 30
0.0
 10
269.636831447829
 20
38.10699649142274
 30
0.0
 10
269.712588258623
 20
37.95968628863661
 30
0.0
 10
269.7372665957464
 20
37.88393507233094
 30
0.0
 10
269.7561589557047
 20
37.73379381974839
 30
0.0
 10
269.7508861505427
 20
37.65911295718922
 30
0.0
 10
269.7089858541553
 20
37.50888891258408
 30
0.0
 10
269.6715040105519
 20
37.43258228945359
 30
0.0
 10
269.5657525923854
 20
37.28535739234747
 30
0.0
 10
269.4975770191647
 20
37.21361377551295
 30
0.0
 10
269.3704842193051
 20
37.10827639843097
 30
0.0
 10
269.3237550619509
 20
37.07347533873744
 30
0.0
 10
269.224474315071
 20
37.00665518373897
 30
0.0
 10
269.1187998625596
 20
36.94209168272788
 30
0.0
 10
269.0005077913924
 20
36.88195392516683
 30
0.0
 10
268.8757894885909
 20
36.82410191439069
 30
0.0
 10
268.810043499609
 20
36.79628908681033
 30
0.0
 10
268.6084421614948
 20
36.71857510819859
 30
0.0
 10
268.466656247928
 20
36.67351204045813
 30
0.0
 10
268.1688629450029
 20
36.59731379627333
 30
0.0
 10
268.0159645214372
 20
36.56708753477135
 30
0.0
 10
267.7081793863339
 20
36.52337145216045
 30
0.0
 10
267.550966349296
 20
36.50970211850906
 30
0.0
 10
267.2430782075931
 20
36.50038799047184
 30
0.0
 10
267.0916303845981
 20
36.50447840888556
 30
0.0
 10
266.7933468838474
 20
36.53090807602766
 30
0.0
 10
266.6477160115473
 20
36.55332827945247
 30
0.0
 10
266.3710195242813
 20
36.61551783792867
 30
0.0
 10
266.2386990799051
 20
36.65538053015434
 30
0.0
 10
265.9862657130979
 20
36.7537110609934
 30
0.0
 10
265.8693059361365
 20
36.81099813712409
 30
0.0
 10
265.6543826547673
 20
36.9407149825381
 30
0.0
 10
265.5559639609988
 20
37.01343803459162
 30
0.0
 10
265.3795862963153
 20
37.17385198510245
 30
0.0
 10
265.3037231318945
 20
37.25954516529602
 30
0.0
 10
265.1761505575444
 20
37.44089615685284
 30
0.0
 10
265.1242223409795
 20
37.53709773326723
 30
0.0
 10
265.0476357112111
 20
37.73680161962761
 30
0.0
 10
265.0236154780953
 20
37.83820359118107
 30
0.0
 10
265.0093280527388
 20
37.99162693324935
 30
0.0
 10
265.0082149754053
 20
38.04298968930189
 30
0.0
 10
265.0136938342314
 20
38.14599976001252
 30
0.0
 10
265.020372328713
 20
38.197978919554
 30
0.0
 10
265.0522535530394
 20
38.35096316118023
 30
0.0
 10
265.088936171516
 20
38.44923050548947
 30
0.0
 10
265.1944754024955
 20
38.63671028553384
 30
0.0
 10
265.2647716226119
 20
38.7270600868029
 30
0.0
 10
265.4339424341859
 20
38.8881084537796
 30
0.0
 10
265.5325735474067
 20
38.95949404367239
 30
0.0
 10
265.7023759557735
 20
39.05213793814154
 30
0.0
 10
265.7627196612486
 20
39.08055356812203
 30
0.0
 10
265.887363452887
 20
39.13097321091597
 30
0.0
 10
265.9520615489003
 20
39.153214701412
 30
0.0
 10
266.153089642426
 20
39.21139733232195
 30
0.0
 10
266.2980799280463
 20
39.23891125325564
 30
0.0
 10
266.5944203869552
 20
39.27072756091783
 30
0.0
 10
266.7463733636341
 20
39.27551711489048
 30
0.0
 10
267.0576617442868
 20
39.26529016218642
 30
0.0
 10
267.2138717826528
 20
39.25031680421595
 30
0.0
 10
267.3690175045972
 20
39.22710146677598
 30
0.0
  0
LINE
  5
25B
330
1F
100
AcDbEntity
  8
0
  6
Continuous
 62
     7
370
    15
100
AcDbLine
 10
274.6331974897
 20
27.8788479648
 30
0.0
 11
276.0105838286
 21
29.5923032135
 31
0.0
  0
SPLINE
  5
25C
330
1F
100
AcDbEntity
  8
0
  6
Continuous
 62
     7
370
    15
100
AcDbSpline
210
0.0
220
0.0
230
1.0
 70
     8
 71
     3
 72
    22
 73
    18
 74
     0
 42
0.000000001
 43
0.00000001
 40
0.0
 40
0.0
 40
0.0
 40
0.0
 40
0.0500000000000156
 40
0.1
 40
0.15
 40
0.2
 40
0.25
 40
0.2968749999999255
 40
0.34375
 40
0.3906249999999996
 40
0.4374999999999988
 40
0.5153528850584173
 40
0.5153528850584173
 40
0.53125
 40
0.6249999999995612
 40
0.8125
 40
0.8824198414285126
 40
0.8824198414285126
 40
0.8824198414285126
 40
0.8824198414285126
 10
276.0105839157699
 20
29.5923030167948
 30
0.0
 10
276.0763221047044
 20
29.67408069886806
 30
0.0
 10
276.2050768179818
 20
29.85208358992078
 30
0.0
 10
276.381381907566
 20
30.15744855876897
 30
0.0
 10
276.5300899655915
 20
30.4960195784505
 30
0.0
 10
276.6367775592852
 20
30.85180624388537
 30
0.0
 10
276.6873250522602
 20
31.19541644061948
 30
0.0
 10
276.6783961768319
 20
31.50552573914801
 30
0.0
 10
276.6133674922159
 20
31.7658445432797
 30
0.0
 10
276.4971692337192
 20
31.96998950485774
 30
0.0
 10
276.3053217295373
 20
32.14281485369298
 30
0.0
 10
276.1300926183455
 20
32.19705044728009
 30
0.0
 10
275.9931455379004
 20
32.21013627180533
 30
0.0
 10
275.8452048975632
 20
32.22399488739119
 30
0.0
 10
275.5085269851484
 20
32.25322849479299
 30
0.0
 10
275.2805833256439
 20
32.27402158368157
 30
0.0
 10
274.7803668578155
 20
32.31877403123061
 30
0.0
 10
274.6331770697851
 20
32.33193298313401
 30
0.0
  0
SPLINE
  5
25D
330
1F
100
AcDbEntity
  8
0
  6
Continuous
 62
     7
370
    15
100
AcDbSpline
210
0.0
220
0.0
230
1.0
 70
     8
 71
     3
 72
    22
 73
    18
 74
     0
 42
0.000000001
 43
0.00000001
 40
0.0
 40
0.0
 40
0.0
 40
0.0
 40
0.0500000000000156
 40
0.1
 40
0.15
 40
0.2
 40
0.25
 40
0.2968749999999255
 40
0.34375
 40
0.3906249999999996
 40
0.4374999999999988
 40
0.5153528850584173
 40
0.5153528850584173
 40
0.53125
 40
0.6249999999995612
 40
0.8125
 40
0.8812161579345599
 40
0.8812161579345599
 40
0.8812161579345599
 40
0.8812161579345599
 10
265.8565305379299
 20
23.73049277390701
 30
0.0
 10
265.79176169644
 20
23.73628408433834
 30
0.0
 10
265.6615877602277
 20
23.76575684846167
 30
0.0
 10
265.4858530891829
 20
23.86751328588103
 30
0.0
 10
265.3369921914019
 20
24.03440331659413
 30
0.0
 10
265.2303455381913
 20
24.26700739530904
 30
0.0
 10
265.1797873505848
 20
24.55225784619519
 30
0.0
 10
265.1887184503279
 20
24.87267533584764
 30
0.0
 10
265.2537482701441
 20
25.20807702596574
 30
0.0
 10
265.3699398118799
 20
25.54637303180478
 30
0.0
 10
265.5618187163006
 20
25.94073993176938
 30
0.0
 10
265.7369267546079
 20
26.19714012436563
 30
0.0
 10
265.8739321124344
 20
26.36841417076677
 30
0.0
 10
266.0219765631942
 20
26.55321054396309
 30
0.0
 10
266.3597997979596
 20
26.97258897763174
 30
0.0
 10
266.5787810035913
 20
27.24540959008107
 30
0.0
 10
267.0873163764532
 20
27.87804948193236
 30
0.0
 10
267.2339374462172
 20
28.06044300770615
 30
0.0
  0
LINE
  5
25E
330
1F
100
AcDbEntity
  8
0
  6
Continuous
 62
     7
370
    15
100
AcDbLine
 10
267.2339165215
 20
23.6073339836
 30
0.0
 11
265.8565301825
 21
23.7304928158
 31
0.0
  0
SPLINE
  5
25F
330
1F
100
AcDbEntity
  8
0
  6
Continuous
 62
     7
370
    15
100
AcDbSpline
210
0.0
220
0.0
230
1.0
 70
     8
 71
     3
 72
    14
 73
    10
 74
     0
 42
0.000000001
 43
0.00000001
 40
0.0
 40
0.0
 40
0.0
 40
0.0
 40
0.25
 40
0.25
 40
0.5
 40
0.5
 40
0.75
 40
0.75
 40
1.0
 40
1.0
 40
1.0
 40
1.0
 10
251.9330154155421
 20
51.37482002084404
 30
0.0
 10
251.9478563076713
 20
51.33630200200845
 30
0.0
 10
251.9472225397673
 20
51.29838336385498
 30
0.0
 10
251.9142869348069
 20
51.2324424140857
 30
0.0
 10
251.8821510894649
 20
51.20416885654375
 30
0.0
 10
251.7972485140605
 20
51.15624983035625
 30
0.0
 10
251.7448316015673
 20
51.13637273290851
 30
0.0
 10
251.6334959372722
 20
51.10051580689213
 30
0.0
 10
251.5753412605613
 20
51.0846437832087
 30
0.0
 10
251.5159363048299
 20
51.06836843765397
 30
0.0
  0
LINE
  5
260
330
1F
100
AcDbEntity
  8
0
  6
Continuous
 62
     7
370
    15
100
AcDbLine
 10
251.9168884208
 20
51.4166758634
 30
0.0
 11
251.9330155172
 21
51.3748203738
 31
0.0
  0
SPLINE
  5
261
330
1F
100
AcDbEntity
  8
0
  6
Continuous
 62
     7
370
    15
100
AcDbSpline
210
0.0
220
0.0
230
1.0
 70
     8
 71
     3
 72
    10
 73
     6
 74
     0
 42
0.000000001
 43
0.00000001
 40
0.0
 40
0.0
 40
0.0
 40
0.0
 40
0.5
 40
0.5
 40
1.0
 40
1.0
 40
1.0
 40
1.0
 10
252.2079605536028
 20
51.96084645721863
 30
0.0
 10
252.1799455038649
 20
51.8888203545306
 30
0.0
 10
252.142127615415
 20
51.80787386922715
 30
0.0
 10
252.0461518675801
 20
51.62747883288723
 30
0.0
 10
251.9881200902805
 20
51.52815262591244
 30
0.0
 10
251.9168883526904
 20
51.41667616434837
 30
0.0
  0
LINE
  5
262
330
1F
100
AcDbEntity
  8
0
  6
Continuous
 62
     7
370
    15
100
AcDbLine
 10
242.6012330561
 20
30.7185158582
 30
0.0
 11
240.7733788954
 21
31.7737136047
 31
0.0
  0
SPLINE
  5
263
330
1F
100
AcDbEntity
  8
0
  6
Continuous
 62
     7
370
    15
100
AcDbSpline
210
0.0
220
0.0
230
1.0
 70
     8
 71
     3
 72
     8
 73
     4
 74
     0
 42
0.000000001
 43
0.00000001
 40
0.0000000000000004
 40
0.0000000000000004
 40
0.0000000000000004
 40
0.0000000000000004
 40
0.0011862984959127
 40
0.0011862984959127
 40
0.0011862984959127
 40
0.0011862984959127
 10
240.7733786278941
 20
31.77371366457532
 30
0.0
 10
240.7623164286364
 20
31.83582210949411
 30
0.0
 10
240.7516904220626
 20
31.89761489679571
 30
0.0
 10
240.7414772942452
 20
31.95910772351361
 30
0.0
  0
SPLINE
  5
264
330
1F
100
AcDbEntity
  8
0
  6
Continuous
 62
     7
370
    15
100
AcDbSpline
210
0.0
220
0.0
230
1.0
 70
     8
 71
     3
 72
    10
 73
     6
 74
     0
 42
0.000000001
 43
0.00000001
 40
0.0
 40
0.0
 40
0.0
 40
0.0
 40
0.3703085256250508
 40
0.6860191703409563
 40
0.9999999999999999
 40
0.9999999999999999
 40
0.9999999999999999
 40
0.9999999999999999
 10
265.7681416557547
 20
24.06035588112482
 30
0.0
 10
265.6477358957687
 20
24.09452662742801
 30
0.0
 10
265.4246768683524
 20
24.1578300228583
 30
0.0
 10
265.2227459783423
 20
24.47809422818471
 30
0.0
 10
265.1984932715691
 20
24.76184004749681
 30
0.0
 10
265.1864002302878
 20
24.90332322042421
 30
0.0
  0
SPLINE
  5
265
330
1F
100
AcDbEntity
  8
0
  6
Continuous
 62
     7
370
    15
100
AcDbSpline
210
0.0
220
0.0
230
1.0
 70
     8
 71
     3
 72
    12
 73
     8
 74
     0
 42
0.000000001
 43
0.00000001
 40
0.0
 40
0.0
 40
0.0
 40
0.0
 40
0.0050017714510548
 40
0.1390126050764119
 40
0.3663281689777339
 40
0.7948702227027065
 40
1.0
 40
1.0
 40
1.0
 40
1.0
 10
267.4076375992158
 20
28.30390333615488
 30
0.0
 10
267.4076284084078
 20
28.30375763096491
 30
0.0
 10
267.4073729712727
 20
28.29970809407003
 30
0.0
 10
267.3931190283914
 20
28.27473268343579
 30
0.0
 10
267.3544156725872
 20
28.21529179166654
 30
0.0
 10
267.2947900874329
 20
28.13674036221331
 30
0.0
 10
267.2488188844172
 20
28.07910165274267
 30
0.0
 10
267.2339372656123
 20
28.06044307418736
 30
0.0
  0
SPLINE
  5
266
330
1F
100
AcDbEntity
  8
0
  6
Continuous
 62
     7
370
    15
100
AcDbSpline
210
0.0
220
0.0
230
1.0
 70
     8
 71
     3
 72
    16
 73
    12
 74
     0
 42
0.000000001
 43
0.00000001
 40
0.0
 40
0.0
 40
0.0
 40
0.0
 40
0.2500000000000011
 40
0.2500000000000011
 40
0.5000000000000021
 40
0.5000000000000021
 40
0.6250000000000046
 40
0.6250000000000046
 40
0.750000000000007
 40
0.750000000000007
 40
1.0
 40
1.0
 40
1.0
 40
1.0
 10
274.6331770697851
 20
32.33193298313401
 30
0.0
 10
274.6016876006993
 20
32.33474818121744
 30
0.0
 10
274.5676820883087
 20
32.33619727889493
 30
0.0
 10
274.4907806050991
 20
32.33426871148131
 30
0.0
 10
274.4478267892121
 20
32.33111338500431
 30
0.0
 10
274.3742326079089
 20
32.31732030436721
 30
0.0
 10
274.3481892595058
 20
32.31098840400606
 30
0.0
 10
274.2998896341646
 20
32.29541023360533
 30
0.0
 10
274.2777400352642
 20
32.28619448687927
 30
0.0
 10
274.2227593256006
 20
32.25811234112726
 30
0.0
 10
274.2006859259976
 20
32.23974807639482
 30
0.0
 10
274.1841960679461
 20
32.2225759164263
 30
0.0
  0
SPLINE
  5
267
330
1F
100
AcDbEntity
  8
0
  6
Continuous
 62
     7
370
    15
100
AcDbSpline
210
0.0
220
0.0
230
1.0
 70
     8
 71
     3
 72
     8
 73
     4
 74
     0
 42
0.000000001
 43
0.00000001
 40
0.0
 40
0.0
 40
0.0
 40
0.0
 40
1.0
 40
1.0
 40
1.0
 40
1.0
 10
274.1841960679461
 20
32.22257591642614
 30
0.0
 10
274.1338205475357
 20
32.24174860992705
 30
0.0
 10
274.0822807733335
 20
32.26447171082008
 30
0.0
 10
274.0434106355777
 20
32.28691096371353
 30
0.0
  0
LINE
  5
268
330
1F
100
AcDbEntity
  8
0
  6
Continuous
 62
     7
370
    15
100
AcDbLine
 10
273.4004912389
 20
32.8961664754
 30
0.0
 11
273.3150439365
 21
32.9425202387
 31
0.0
  0
LINE
  5
269
330
1F
100
AcDbEntity
  8
0
  6
Continuous
 62
     7
370
    15
100
AcDbLine
 10
240.8461631277
 20
32.5588884999
 30
0.0
 11
240.8262698152
 21
32.3295427434
 31
0.0
  0
ARC
  5
26A
330
1F
100
AcDbEntity
  8
0
  6
Continuous
 62
     7
370
    15
100
AcDbCircle
 10
256.8289462897
 20
30.9022425624
 30
0.0
 40
16.0629628324719
100
AcDbArc
 50
176.9225000953
 51
185.727139394
  0
LINE
  5
26B
330
1F
100
AcDbEntity
  8
0
  6
Continuous
 62
     7
370
    15
100
AcDbLine
 10
272.6309923534
 20
33.1022827312
 30
0.0
 11
274.0434109552
 21
32.2869108281
 31
0.0
  0
ARC
  5
26C
330
1F
100
AcDbEntity
  8
0
  6
Continuous
 62
     7
370
    15
100
AcDbCircle
 10
264.2806066457
 20
32.4310727233
 30
0.0
 40
6.788968465258133
100
AcDbArc
 50
338.0757864553
 51
2.3845196475
  0
LINE
  5
26D
330
1F
100
AcDbEntity
  8
0
  6
Continuous
 62
     7
370
    15
100
AcDbLine
 10
270.5785870278
 20
29.8962086384
 30
0.0
 11
274.0434109552
 21
27.8960083605
 31
0.0
  0
LINE
  5
26E
330
1F
100
AcDbEntity
  8
0
  6
Continuous
 62
     7
370
    15
100
AcDbLine
 10
267.9009383083
 20
23.3696290802
 30
0.0
 11
267.9863847874
 21
23.3232759824
 31
0.0
  0
LINE
  5
26F
330
1F
100
AcDbEntity
  8
0
  6
Continuous
 62
     7
370
    15
100
AcDbLine
 10
265.2540017997
 20
25.1357789964
 30
0.0
 11
267.2580185919
 21
23.9788847275
 31
0.0
  0
LWPOLYLINE
  5
270
330
1F
100
AcDbEntity
  8
0
  6
Continuous
 62
     7
370
    15
100
AcDbPolyline
 90
        3
 70
   128
 43
0.0
 10
239.8473757551
 20
31.6587606891
 10
239.905019473
 20
33.0682145983
 10
239.9093210857
 20
33.1209976388
  0
ARC
  5
271
330
1F
100
AcDbEntity
  8
0
  6
Continuous
 62
     7
370
    15
100
AcDbCircle
 10
251.5437713371
 20
31.3564434467
 30
0.0
 40
11.70030193310817
100
AcDbArc
 50
178.5194031648
 51
203.8932285757
  0
LINE
  5
272
330
1F
100
AcDbEntity
  8
0
  6
Continuous
 62
     7
370
    15
100
AcDbLine
 10
211.2924282006
 20
50.7090478649
 30
0.0
 11
211.2129049999
 21
50.7782661953
 31
0.0
  0
LINE
  5
273
330
1F
100
AcDbEntity
  8
0
  6
Continuous
 62
     7
370
    15
100
AcDbLine
 10
237.3509650696
 20
33.749431052
 30
0.0
 11
236.9154292506
 21
34.1383952217
 31
0.0
  0
LINE
  5
274
330
1F
100
AcDbEntity
  8
0
  6
Continuous
 62
     7
370
    15
100
AcDbLine
 10
238.8075883069
 20
32.9085403559
 30
0.0
 11
237.3509650696
 21
33.749431052
 31
0.0
  0
LINE
  5
275
330
1F
100
AcDbEntity
  8
0
  6
Continuous
 62
     7
370
    15
100
AcDbLine
 10
240.8461631277
 20
32.5588884999
 30
0.0
 11
240.8461631277
 21
32.4137386627
 31
0.0
  0
LINE
  5
276
330
1F
100
AcDbEntity
  8
0
  6
Continuous
 62
     7
370
    15
100
AcDbLine
 10
240.8461631277
 20
31.7316954653
 30
0.0
 11
240.8461631277
 21
29.2993023408
 31
0.0
  0
LINE
  5
277
330
1F
100
AcDbEntity
  8
0
  6
Continuous
 62
     7
370
    15
100
AcDbLine
 10
240.8461631277
 20
32.7677781503
 30
0.0
 11
240.8461631277
 21
32.5588884999
 31
0.0
  0
LINE
  5
278
330
1F
100
AcDbEntity
  8
0
  6
Continuous
 62
     7
370
    15
100
AcDbLine
 10
240.8461631277
 20
29.2993023408
 30
0.0
 11
240.8461631277
 21
26.4293132981
 31
0.0
  0
LINE
  5
279
330
1F
100
AcDbEntity
  8
0
  6
Continuous
 62
     7
370
    15
100
AcDbLine
 10
267.3293643161
 20
23.9207590288
 30
0.0
 11
265.7681416558
 21
24.0603558811
 31
0.0
  0
SPLINE
  5
27A
330
1F
100
AcDbEntity
  8
0
  6
Continuous
 62
     7
370
    15
100
AcDbSpline
210
0.0
220
0.0
230
1.0
 70
     8
 71
     3
 72
    16
 73
    12
 74
     0
 42
0.000000001
 43
0.00000001
 40
0.0
 40
0.0
 40
0.0
 40
0.0
 40
0.25
 40
0.25
 40
0.5
 40
0.5
 40
0.625
 40
0.625
 40
0.75
 40
0.75
 40
1.0
 40
1.0
 40
1.0
 40
1.0
 10
267.233916584223
 20
23.60733370552828
 30
0.0
 10
267.2649653382972
 20
23.60455747904014
 30
0.0
 10
267.2956390620477
 20
23.60520481577497
 30
0.0
 10
267.3521185920172
 20
23.61930565742364
 30
0.0
 10
267.3786859792106
 20
23.63222373818271
 30
0.0
 10
267.4039079021362
 20
23.67427965654188
 30
0.0
 10
267.4092785293566
 20
23.69240758348171
 30
0.0
 10
267.4103078029927
 20
23.73507342480881
 30
0.0
 10
267.4059085085173
 20
23.75953530812196
 30
0.0
 10
267.3827817124123
 20
23.83240070504674
 30
0.0
 10
267.3567542634361
 20
23.87847496490712
 30
0.0
 10
267.3293649951448
 20
23.92075872162316
 30
0.0
  0
SPLINE
  5
27B
330
1F
100
AcDbEntity
  8
0
  6
Continuous
 62
     7
370
    15
100
AcDbSpline
210
0.0
220
0.0
230
1.0
 70
     8
 71
     3
 72
     8
 73
     4
 74
     0
 42
0.000000001
 43
0.00000001
 40
0.0
 40
0.0
 40
0.0
 40
0.0
 40
1.0
 40
1.0
 40
1.0
 40
1.0
 10
267.2580183931719
 20
23.97888489110337
 30
0.0
 10
267.296974475552
 20
23.95639602343435
 30
0.0
 10
267.3194564493436
 20
23.93654178176348
 30
0.0
 10
267.3293649951448
 20
23.9207587216232
 30
0.0
  0
SPLINE
  5
27C
330
1F
100
AcDbEntity
  8
0
  6
Continuous
 62
     7
370
    15
100
AcDbSpline
210
0.0
220
0.0
230
1.0
 70
     8
 71
     3
 72
     8
 73
     4
 74
     0
 42
0.000000001
 43
0.00000001
 40
0.0
 40
0.0
 40
0.0
 40
0.0
 40
1.0
 40
1.0
 40
1.0
 40
1.0
 10
274.0434106355787
 20
27.8960084543253
 30
0.0
 10
274.0823667179588
 20
27.87351958665626
 30
0.0
 10
274.1330350414264
 20
27.86993697830183
 30
0.0
 10
274.1841960679616
 20
27.87796846838246
 30
0.0
  0
SPLINE
  5
27D
330
1F
100
AcDbEntity
  8
0
  6
Continuous
 62
     7
370
    15
100
AcDbSpline
210
0.0
220
0.0
230
1.0
 70
     8
 71
     3
 72
    16
 73
    12
 74
     0
 42
0.000000001
 43
0.00000001
 40
0.0
 40
0.0
 40
0.0
 40
0.0
 40
0.2500000000000033
 40
0.2500000000000033
 40
0.374999999999999
 40
0.374999999999999
 40
0.4999999999999948
 40
0.4999999999999948
 40
0.7499999999999973
 40
0.7499999999999973
 40
1.0
 40
1.0
 40
1.0
 40
1.0
 10
274.1841960679618
 20
27.87796846838239
 30
0.0
 10
274.2005117751073
 20
27.8294297173425
 30
0.0
 10
274.2228865921353
 20
27.78059766400867
 30
0.0
 10
274.2770212294765
 20
27.7263968686544
 30
0.0
 10
274.2989550191576
 20
27.71206883020783
 30
0.0
 10
274.3470700389289
 20
27.69758071603972
 30
0.0
 10
274.3730383526317
 20
27.69746413979487
 30
0.0
 10
274.4466859662364
 20
27.7125550726346
 30
0.0
 10
274.4901064582443
 20
27.73999182230072
 30
0.0
 10
274.5673101053697
 20
27.80289977863233
 30
0.0
 10
274.6019330327441
 20
27.83995471010352
 30
0.0
 10
274.6331978694768
 20
27.87884786976983
 30
0.0
  0
LINE
  5
27E
330
1F
100
AcDbEntity
  8
0
  6
Continuous
 62
     7
370
    15
100
AcDbLine
 10
240.7733788954
 20
21.2811645053
 30
0.0
 11
242.6012330561
 21
20.2259667589
 31
0.0
  0
SPLINE
  5
27F
330
1F
100
AcDbEntity
  8
0
  6
Continuous
 62
     7
370
    15
100
AcDbSpline
210
0.0
220
0.0
230
1.0
 70
     8
 71
     3
 72
    14
 73
    10
 74
     0
 42
0.000000001
 43
0.00000001
 40
0.0
 40
0.0
 40
0.0
 40
0.0
 40
0.25
 40
0.25
 40
0.5
 40
0.5
 40
0.75
 40
0.75
 40
1.0
 40
1.0
 40
1.0
 40
1.0
 10
242.5557255062191
 20
20.10759848951468
 30
0.0
 10
242.5390506631527
 20
20.0642258714081
 30
0.0
 10
242.5187554202367
 20
20.02399554196225
 30
0.0
 10
242.4704584411664
 20
19.95022365429011
 30
0.0
 10
242.4422395933613
 20
19.916654047613
 30
0.0
 10
242.3793142449381
 20
19.86310264195038
 30
0.0
 10
242.3441510689211
 20
19.84264661259072
 30
0.0
 10
242.2694680797127
 20
19.82521431907884
 30
0.0
 10
242.2309432045043
 20
19.82916162806374
 30
0.0
 10
242.196999501807
 20
19.84875691053356
 30
0.0
  0
LINE
  5
280
330
1F
100
AcDbEntity
  8
0
  6
Continuous
 62
     7
370
    15
100
AcDbLine
 10
242.1969993393
 20
19.8487570342
 30
0.0
 11
240.7414773531
 21
20.6890119915
 31
0.0
  0
SPLINE
  5
281
330
1F
100
AcDbEntity
  8
0
  6
Continuous
 62
     7
370
    15
100
AcDbSpline
210
0.0
220
0.0
230
1.0
 70
     8
 71
     3
 72
     8
 73
     4
 74
     0
 42
0.000000001
 43
0.00000001
 40
0.0
 40
0.0
 40
0.0
 40
0.0
 40
0.0011862984959112
 40
0.0011862984959112
 40
0.0011862984959112
 40
0.0011862984959112
 10
240.7414772942452
 20
20.68901199562658
 30
0.0
 10
240.7516904220626
 20
20.88641089751551
 30
0.0
 10
240.7623164286378
 20
21.0837967344923
 30
0.0
 10
240.7733786278955
 20
21.28116423184263
 30
0.0
  0
SPLINE
  5
282
330
1F
100
AcDbEntity
  8
0
  6
Continuous
 62
     7
370
    15
100
AcDbSpline
210
0.0
220
0.0
230
1.0
 70
     8
 71
     3
 72
    10
 73
     6
 74
     0
 42
0.000000001
 43
0.00000001
 40
0.0
 40
0.0
 40
0.0
 40
0.0
 40
0.0080204223083796
 40
0.4816092071401491
 40
0.9999999999999999
 40
0.9999999999999999
 40
0.9999999999999999
 40
0.9999999999999999
 10
275.3586191680996
 20
38.94616854043657
 30
0.0
 10
275.358690989282
 20
38.9461267364691
 30
0.0
 10
275.3630036976919
 20
38.9436164976248
 30
0.0
 10
275.34641166872
 20
38.95323695981306
 30
0.0
 10
275.3147271533567
 20
38.97152705284808
 30
0.0
 10
275.2981693920783
 20
38.98108512848101
 30
0.0
  0
ARC
  5
283
330
1F
100
AcDbEntity
  8
0
  6
Continuous
 62
     7
370
    15
100
AcDbCircle
 10
251.0817167983
 20
21.8146421117
 30
0.0
 40
9.061898490272783
100
AcDbArc
 50
196.3006877018
 51
281.7961478676
  0
SPLINE
  5
284
330
1F
100
AcDbEntity
  8
0
  6
Continuous
 62
     7
370
    15
100
AcDbSpline
210
0.0
220
0.0
230
1.0
 70
     8
 71
     3
 72
     8
 73
     4
 74
     0
 42
0.000000001
 43
0.00000001
 40
0.0
 40
0.0
 40
0.0
 40
0.0
 40
1.0
 40
1.0
 40
1.0
 40
1.0
 10
241.0194969816448
 20
21.7784023864295
 30
0.0
 10
240.9372988008591
 20
21.61268205992603
 30
0.0
 10
240.8552644327073
 20
21.44693518458806
 30
0.0
 10
240.7733786278955
 20
21.28116423184263
 30
0.0
  0
LINE
  5
285
330
1F
100
AcDbEntity
  8
0
  6
Continuous
 62
     7
370
    15
100
AcDbLine
 10
241.0685164826
 20
21.8067009582
 30
0.0
 11
241.0194970636
 21
21.77840265
 31
0.0
  0
SPLINE
  5
286
330
1F
100
AcDbEntity
  8
0
  6
Continuous
 62
     7
370
    15
100
AcDbSpline
210
0.0
220
0.0
230
1.0
 70
     8
 71
     3
 72
    12
 73
     8
 74
     0
 42
0.000000001
 43
0.00000001
 40
0.0
 40
0.0
 40
0.0
 40
0.0
 40
0.249999999999997
 40
0.249999999999997
 40
0.499999999999994
 40
0.499999999999994
 40
1.0
 40
1.0
 40
1.0
 40
1.0
 10
241.0802986694293
 20
22.14006569839063
 30
0.0
 10
241.1178974540039
 20
22.11836038206635
 30
0.0
 10
241.1480750132503
 20
22.09155851149317
 30
0.0
 10
241.1866647479312
 20
22.03393480666318
 30
0.0
 10
241.195524233121
 20
22.00288668109181
 30
0.0
 10
241.1904767992827
 20
21.9106977046865
 30
0.0
 10
241.1437745122074
 20
21.85014627771165
 30
0.0
 10
241.0685164240091
 20
21.8067007081597
 30
0.0
  0
LINE
  5
287
330
1F
100
AcDbEntity
  8
0
  6
Continuous
 62
     7
370
    15
100
AcDbLine
 10
240.2954102549
 20
22.5931723644
 30
0.0
 11
241.0802988317
 21
22.1400658337
 31
0.0
  0
SPLINE
  5
288
330
1F
100
AcDbEntity
  8
0
  6
Continuous
 62
     7
370
    15
100
AcDbSpline
210
0.0
220
0.0
230
1.0
 70
     8
 71
     3
 72
    10
 73
     6
 74
     0
 42
0.000000001
 43
0.00000001
 40
0.0
 40
0.0
 40
0.0
 40
0.0
 40
0.5
 40
0.5
 40
1.0
 40
1.0
 40
1.0
 40
1.0
 10
239.7179424719428
 20
22.58637045495039
 30
0.0
 10
239.7940798622814
 20
22.63032363482311
 30
0.0
 10
239.8975876429657
 20
22.65681030100189
 30
0.0
 10
240.1120829350515
 20
22.66063837138923
 30
0.0
 10
240.2195131794697
 20
22.63698658448583
 30
0.0
 10
240.2954101423122
 20
22.59317220045224
 30
0.0
  0
LINE
  5
289
330
1F
100
AcDbEntity
  8
0
  6
Continuous
 62
     7
370
    15
100
AcDbLine
 10
239.6689230351
 20
22.5580724409
 30
0.0
 11
239.7179424541
 21
22.5863707492
 31
0.0
  0
SPLINE
  5
28A
330
1F
100
AcDbEntity
  8
0
  6
Continuous
 62
     7
370
    15
100
AcDbSpline
210
0.0
220
0.0
230
1.0
 70
     8
 71
     3
 72
     8
 73
     4
 74
     0
 42
0.000000001
 43
0.00000001
 40
0.0
 40
0.0
 40
0.0
 40
0.0
 40
1.0
 40
1.0
 40
1.0
 40
1.0
 10
238.807587954924
 20
22.41599103188213
 30
0.0
 10
239.0947427813213
 20
22.46326270079415
 30
0.0
 10
239.3818558999065
 20
22.51062013349689
 30
0.0
 10
239.6689230295785
 20
22.55807213322019
 30
0.0
  0
LINE
  5
28B
330
1F
100
AcDbEntity
  8
0
  6
Continuous
 62
     7
370
    15
100
AcDbLine
 10
237.3509650696
 20
23.2568819526
 30
0.0
 11
238.8075883069
 21
22.4159912566
 31
0.0
  0
LINE
  5
28C
330
1F
100
AcDbEntity
  8
0
  6
Continuous
 62
     7
370
    15
100
AcDbLine
 10
237.3509650696
 20
23.2568819526
 30
0.0
 11
240.4926095969
 21
25.0705147339
 31
0.0
  0
ARC
  5
28D
330
1F
100
AcDbEntity
  8
0
  6
Continuous
 62
     7
370
    15
100
AcDbCircle
 10
250.3204051818
 20
23.1522149422
 30
0.0
 40
9.890562528246713
100
AcDbArc
 50
194.4210541018
 51
238.0225374632
  0
SPLINE
  5
28E
330
1F
100
AcDbEntity
  8
0
  6
Continuous
 62
     7
370
    15
100
AcDbSpline
210
0.0
220
0.0
230
1.0
 70
     8
 71
     3
 72
    26
 73
    22
 74
     0
 42
0.000000001
 43
0.00000001
 40
0.0
 40
0.0
 40
0.0
 40
0.0
 40
0.1249999999999999
 40
0.1249999999999999
 40
0.1875
 40
0.1875
 40
0.2500000000000001
 40
0.2500000000000001
 40
0.3750000000000001
 40
0.3750000000000001
 40
0.5
 40
0.5
 40
0.6249999999999999
 40
0.6249999999999999
 40
0.6874999999999999
 40
0.6874999999999999
 40
0.7499999999999999
 40
0.7499999999999999
 40
0.8749999999999999
 40
0.8749999999999999
 40
1.0
 40
1.0
 40
1.0
 40
1.0
 10
275.7454188728244
 20
29.82011479536461
 30
0.0
 10
275.831726401935
 20
29.92748054106794
 30
0.0
 10
275.9097244054897
 20
30.04164079984962
 30
0.0
 10
276.0133102149088
 20
30.22352286136419
 30
0.0
 10
276.0457825170325
 20
30.2863870941552
 30
0.0
 10
276.1046595621479
 20
30.41246060717812
 30
0.0
 10
276.1311989402125
 20
30.47588760687112
 30
0.0
 10
276.2022723558631
 20
30.6673230454269
 30
0.0
 10
276.2385232397896
 20
30.79826233491274
 30
0.0
 10
276.2850640928301
 20
31.04967426738675
 30
0.0
 10
276.2960315420189
 20
31.17226152787349
 30
0.0
 10
276.2933957657825
 20
31.40270319655255
 30
0.0
 10
276.2800578132516
 20
31.50810541369142
 30
0.0
 10
276.2425697838465
 20
31.65120994140288
 30
0.0
 10
276.227070430571
 20
31.69627476569817
 30
0.0
 10
276.191007936545
 20
31.77869512337051
 30
0.0
 10
276.1703265936943
 20
31.81644311612237
 30
0.0
 10
276.1002438069694
 20
31.9194319115073
 30
0.0
 10
276.0422947171711
 20
31.97441784543094
 30
0.0
 10
275.9086894385317
 20
32.05172722384257
 30
0.0
 10
275.8317347913416
 20
32.07526112184463
 30
0.0
 10
275.7454188776676
 20
32.08297906879211
 30
0.0
  0
LWPOLYLINE
  5
28F
330
1F
100
AcDbEntity
  8
0
  6
Continuous
 62
     7
370
    15
100
AcDbPolyline
 90
        3
 70
   128
 43
0.0
 10
275.7454182483
 20
32.082979426
 10
274.9474470264
 20
32.1543299224
 10
274.184195588
 20
32.2225762784
  0
ELLIPSE
  5
290
330
1F
100
AcDbEntity
  8
0
  6
Continuous
 62
     7
370
    15
100
AcDbEllipse
 10
240.199717078
 20
26.0561393782
 30
0.0
 11
-7.507462979106094E-5
 21
1.066811201853401
 31
0.0
210
0.0
220
0.0
230
1.0
 40
0.7174342186
 41
3.534193645557491
 42
5.104989972352346
  0
ARC
  5
291
330
1F
100
AcDbEntity
  8
0
  6
Continuous
 62
     7
370
    15
100
AcDbCircle
 10
250.1791412688
 20
25.446213463
 30
0.0
 40
10.89981861700845
100
AcDbArc
 50
195.3652578774
 51
215.9035762319
  0
ARC
  5
292
330
1F
100
AcDbEntity
  8
0
  6
Continuous
 62
     7
370
    15
100
AcDbCircle
 10
247.5753175047
 20
24.1786887762
 30
0.0
 40
9.374612820624378
100
AcDbArc
 50
193.3832905048
 51
247.5353305273
  0
SPLINE
  5
293
330
1F
100
AcDbEntity
  8
0
  6
Continuous
 62
     7
370
    15
100
AcDbSpline
210
0.0
220
0.0
230
1.0
 70
     8
 71
     3
 72
     8
 73
     4
 74
     0
 42
0.000000001
 43
0.00000001
 40
0.0000000000000004
 40
0.0000000000000004
 40
0.0000000000000004
 40
0.0000000000000004
 40
0.0011862984959127
 40
0.0011862984959127
 40
0.0011862984959127
 40
0.0011862984959127
 10
238.8075879549244
 20
22.41599103188117
 30
0.0
 10
238.6904374859294
 20
22.2798669890464
 30
0.0
 10
238.5729977354923
 20
22.14414341388347
 30
0.0
 10
238.4552868676476
 20
22.008801636389
 30
0.0
  0
LINE
  5
294
330
1F
100
AcDbEntity
  8
0
  6
Continuous
 62
     7
370
    15
100
AcDbLine
 10
236.9154292506
 20
23.0054002451
 30
0.0
 11
237.3509650696
 21
23.2568819526
 31
0.0
  0
LINE
  5
295
330
1F
100
AcDbEntity
  8
0
  6
Continuous
 62
     7
370
    15
100
AcDbLine
 10
238.4552870808
 20
22.0088015432
 30
0.0
 11
237.0174424047
 21
22.8388516065
 31
0.0
  0
SPLINE
  5
296
330
1F
100
AcDbEntity
  8
0
  6
Continuous
 62
     7
370
    15
100
AcDbSpline
210
0.0
220
0.0
230
1.0
 70
     8
 71
     3
 72
    10
 73
     6
 74
     0
 42
0.000000001
 43
0.00000001
 40
0.0
 40
0.0
 40
0.0
 40
0.0
 40
0.5
 40
0.5
 40
1.0
 40
1.0
 40
1.0
 40
1.0
 10
237.0174423296155
 20
22.83885162008424
 30
0.0
 10
236.9910329003349
 20
22.85409745909116
 30
0.0
 10
236.9687494961258
 20
22.87795488150342
 30
0.0
 10
236.9346423613042
 20
22.9358809732377
 30
0.0
 10
236.9227423312494
 20
22.96977950471856
 30
0.0
 10
236.9154298392926
 20
23.00540054717291
 30
0.0
  0
ARC
  5
297
330
1F
100
AcDbEntity
  8
0
  6
Continuous
 62
     7
370
    15
100
AcDbCircle
 10
270.1824451341
 20
33.5118488459
 30
0.0
 40
2.574157692493915
100
AcDbArc
 50
320.7034186956
 51
349.7436697801
  0
ARC
  5
298
330
1F
100
AcDbEntity
  8
0
  6
Continuous
 62
     7
370
    15
100
AcDbCircle
 10
246.4884146267
 20
25.1849475527
 30
0.0
 40
9.73409888465809
100
AcDbArc
 50
197.3398007533
 51
238.1965061425
  0
LINE
  5
299
330
1F
100
AcDbEntity
  8
0
  6
Continuous
 62
     7
370
    15
100
AcDbLine
 10
274.184195588
 20
27.8779688905
 30
0.0
 11
275.7454182483
 21
29.8201150581
 31
0.0
  0
LINE
  5
29A
330
1F
100
AcDbEntity
  8
0
  6
Continuous
 62
     7
370
    15
100
AcDbLine
 10
270.5785870278
 20
29.8962086384
 30
0.0
 11
272.1745291424
 21
31.8815454601
 31
0.0
  0
ELLIPSE
  5
29B
330
1F
100
AcDbEntity
  8
0
  6
Continuous
 62
     7
370
    15
100
AcDbEllipse
 10
240.1390569062
 20
26.0211096226
 30
0.0
 11
0.3250094736511642
 21
1.213179526238669
 31
0.0
210
0.0
220
0.0
230
1.0
 40
0.5176380889
 41
3.619174351347739
 42
5.189970678142604
  0
SPLINE
  5
29C
330
1F
100
AcDbEntity
  8
0
  6
Continuous
 62
     7
370
    15
100
AcDbSpline
210
0.0
220
0.0
230
1.0
 70
     8
 71
     3
 72
    12
 73
     8
 74
     0
 42
0.000000001
 43
0.00000001
 40
0.0
 40
0.0
 40
0.0
 40
0.0
 40
0.5000000000000003
 40
0.5000000000000003
 40
0.7500000000000001
 40
0.7500000000000001
 40
1.0
 40
1.0
 40
1.0
 40
1.0
 10
266.672913995168
 20
58.02543292359372
 30
0.0
 10
266.7359738723975
 20
58.06183661584397
 30
0.0
 10
266.8159068256286
 20
58.08866792769555
 30
0.0
 10
266.9488860139352
 20
58.10242476920609
 30
0.0
 10
266.9945571830473
 20
58.10230363540716
 30
0.0
 10
267.0821950016848
 20
58.08952925378551
 30
0.0
 10
267.1229389125389
 20
58.07668926813076
 30
0.0
 10
267.1544525948775
 20
58.05849680655412
 30
0.0
  0
LINE
  5
29D
330
1F
100
AcDbEntity
  8
0
  6
Continuous
 62
     7
370
    15
100
AcDbLine
 10
267.1544529191
 20
58.0584971781
 30
0.0
 11
267.8141212333
 21
57.6776787663
 31
0.0
  0
LINE
  5
29E
330
1F
100
AcDbEntity
  8
0
  6
Continuous
 62
     7
370
    15
100
AcDbLine
 10
269.4839882617
 20
55.6028825496
 30
0.0
 11
270.8784878675
 21
55.908657563
 31
0.0
  0
LINE
  5
29F
330
1F
100
AcDbEntity
  8
0
  6
Continuous
 62
     7
370
    15
100
AcDbLine
 10
270.8784878675
 20
55.908657563
 30
0.0
 11
272.3340098537
 21
55.0684026057
 31
0.0
  0
SPLINE
  5
2A0
330
1F
100
AcDbEntity
  8
0
  6
Continuous
 62
     7
370
    15
100
AcDbSpline
210
0.0
220
0.0
230
1.0
 70
     8
 71
     3
 72
    12
 73
     8
 74
     0
 42
0.000000001
 43
0.00000001
 40
0.0
 40
0.0
 40
0.0
 40
0.0
 40
0.250000000000004
 40
0.250000000000004
 40
0.500000000000008
 40
0.500000000000008
 40
1.0
 40
1.0
 40
1.0
 40
1.0
 10
272.3340097670692
 20
55.06840209700333
 30
0.0
 10
272.3656658975693
 20
55.0501274018534
 30
0.0
 10
272.3879651745793
 20
55.02630329105511
 30
0.0
 10
272.4097857451713
 20
54.97627138860742
 30
0.0
 10
272.4100665074975
 20
54.94988018019352
 30
0.0
 10
272.3866991333767
 20
54.8738049501986
 30
0.0
 10
272.3396607305717
 20
54.82674189524819
 30
0.0
 10
272.2767352360713
 20
54.79041578049622
 30
0.0
  0
LINE
  5
2A1
330
1F
100
AcDbEntity
  8
0
  6
Continuous
 62
     7
370
    15
100
AcDbLine
 10
266.6729142266
 20
58.0254333007
 30
0.0
 11
266.5811236589
 21
57.9724437339
 31
0.0
  0
SPLINE
  5
2A2
330
1F
100
AcDbEntity
  8
0
  6
Continuous
 62
     7
370
    15
100
AcDbSpline
210
0.0
220
0.0
230
1.0
 70
     8
 71
     3
 72
    10
 73
     6
 74
     0
 42
0.000000001
 43
0.00000001
 40
0.0
 40
0.0
 40
0.0
 40
0.0
 40
0.4037649593212062
 40
0.8085921653615464
 40
1.0
 40
1.0
 40
1.0
 40
1.0
 10
275.2981693920783
 20
49.71447662778474
 30
0.0
 10
275.3164108182779
 20
49.75324070934919
 30
0.0
 10
275.352941661209
 20
49.83087085512298
 30
0.0
 10
275.3668782873877
 20
49.93828089881142
 30
0.0
 10
275.34881905224
 20
49.99156444870611
 30
0.0
 10
275.343021541428
 20
50.00866993263671
 30
0.0
  0
ARC
  5
2A3
330
1F
100
AcDbEntity
  8
0
  6
Continuous
 62
     7
370
    15
100
AcDbCircle
 10
265.2202089797
 20
47.5733716234
 30
0.0
 40
10.33352080855781
100
AcDbArc
 50
19.8733082063
 51
46.4948436789
  0
LWPOLYLINE
  5
2A4
330
1F
100
AcDbEntity
  8
0
  6
Continuous
 62
     7
370
    15
100
AcDbPolyline
 90
        3
 70
   128
 43
0.0
 10
269.4839879324
 20
56.2838723361
 10
269.5224429804
 20
56.2364082387
 10
269.9075611258
 20
55.7231828453
  0
LINE
  5
2A5
330
1F
100
AcDbEntity
  8
0
  6
Continuous
 62
     7
370
    15
100
AcDbLine
 10
275.1938875522
 20
39.0413057037
 30
0.0
 11
273.3294841712
 21
40.1176028658
 31
0.0
  0
LINE
  5
2A6
330
1F
100
AcDbEntity
  8
0
  6
Continuous
 62
     7
370
    15
100
AcDbLine
 10
272.5213977057
 20
39.9640627979
 30
0.0
 11
272.5704171246
 21
39.9923611062
 31
0.0
  0
SPLINE
  5
2A7
330
1F
100
AcDbEntity
  8
0
  6
Continuous
 62
     7
370
    15
100
AcDbSpline
210
0.0
220
0.0
230
1.0
 70
     8
 71
     3
 72
    10
 73
     6
 74
     0
 42
0.000000001
 43
0.00000001
 40
0.0
 40
0.0
 40
0.0
 40
0.0
 40
0.348286225286859
 40
0.7262043038763673
 40
0.9999999999999999
 40
0.9999999999999999
 40
0.9999999999999999
 40
0.9999999999999999
 10
272.1886723735317
 20
39.89289028690852
 30
0.0
 10
272.2313200332078
 20
39.89297791028322
 30
0.0
 10
272.3202437739659
 20
39.89316061194411
 30
0.0
 10
272.4362007286941
 20
39.92138378594408
 30
0.0
 10
272.4961936787352
 20
39.95143696301852
 30
0.0
 10
272.5213977056507
 20
39.96406279794346
 30
0.0
  0
SPLINE
  5
2A8
330
1F
100
AcDbEntity
  8
0
  6
Continuous
 62
     7
370
    15
100
AcDbSpline
210
0.0
220
0.0
230
1.0
 70
     8
 71
     3
 72
     8
 73
     4
 74
     0
 42
0.000000001
 43
0.00000001
 40
0.0
 40
0.0
 40
0.0
 40
0.0
 40
1.0
 40
1.0
 40
1.0
 40
1.0
 10
272.570417292405
 20
39.99236098682148
 30
0.0
 10
272.8234032460859
 20
40.03417939151932
 30
0.0
 10
273.0764265084331
 20
40.07592459609469
 30
0.0
 10
273.3294839974379
 20
40.1176026474918
 30
0.0
  0
ARC
  5
2A9
330
1F
100
AcDbEntity
  8
0
  6
Continuous
 62
     7
370
    15
100
AcDbCircle
 10
252.0636950996
 20
49.2609435082
 30
0.0
 40
1.582300847878062
100
AcDbArc
 50
80.2979919067
 51
142.2329226678
  0
ARC
  5
2AA
330
1F
100
AcDbEntity
  8
0
  6
Continuous
 62
     7
370
    15
100
AcDbCircle
 10
252.0195552576
 20
49.3754896815
 30
0.0
 40
1.459877391335381
100
AcDbArc
 50
78.2610365968
 51
144.4821405557
  0
ARC
  5
2AB
330
1F
100
AcDbEntity
  8
0
  6
Continuous
 62
     7
370
    15
100
AcDbCircle
 10
252.0001386848
 20
49.4265988468
 30
0.0
 40
1.266776521353326
100
AcDbArc
 50
81.4049946781
 51
141.8205163552
  0
LWPOLYLINE
  5
2AC
330
1F
100
AcDbEntity
  8
0
  6
Continuous
 62
     7
370
     0
100
AcDbPolyline
 90
       21
 70
   128
 43
0.0
 10
242.1969993393
 20
31.1188528236
 10
242.667658465
 20
32.9802130707
 10
243.2527923825
 20
34.8561311443
 10
243.9482272367
 20
36.7332267109
 10
244.7490041876
 20
38.5981138078
 10
245.649412337
 20
40.4374901933
 10
246.6430282419
 20
42.2382392459
 10
247.7227659634
 20
43.9875151307
 10
248.8809257991
 20
45.6728439371
 10
250.1092463081
 20
47.2822046626
 10
251.3989675314
 20
48.8041204627
 10
252.7408915778
 20
50.2277346917
 10
254.125446503
 20
51.5428964482
 10
255.5427580905
 20
52.7402248281
 10
256.9827178469
 20
53.8111785954
 10
258.4350560792
 20
54.7481227038
 10
259.8894142732
 20
55.5443716008
 10
261.3354197974
 20
56.1942490834
 10
262.7627598654
 20
56.6931188285
 10
264.1612538729
 20
57.0374231102
 10
264.2697925445
 20
57.057878503
  0
LINE
  5
2AD
330
1F
100
AcDbEntity
  8
0
  6
Continuous
 62
     7
370
     0
100
AcDbLine
 10
242.5557249964
 20
30.7843419939
 30
0.0
 11
242.6796288285
 21
31.3388983113
 31
0.0
  0
LWPOLYLINE
  5
2AE
330
1F
100
AcDbEntity
  8
0
  6
Continuous
 62
     7
370
     0
100
AcDbPolyline
 90
       11
 70
   128
 43
0.0
 10
257.5785305575
 20
53.7043477858
 10
257.7795238566
 20
53.8374952463
 10
259.1715144902
 20
54.6841013248
 10
260.5618902903
 20
55.3981907648
 10
261.9413388613
 20
55.9749777539
 10
263.3006208239
 20
56.41060381
 10
264.6306321295
 20
56.7021463778
 10
265.9224646465
 20
56.8476568467
 10
267.1674654293
 20
56.8461567424
 10
268.357296646
 20
56.6976601554
 10
269.4839885909
 20
56.4031587167
  0
LWPOLYLINE
  5
2AF
330
1F
100
AcDbEntity
  8
0
  6
Continuous
 62
     7
370
     0
100
AcDbPolyline
 90
        3
 70
   128
 43
0.0
 10
275.2981693921
 20
38.9810851285
 10
274.8532843814
 20
37.1658103163
 10
274.805251462
 20
36.9925600838
  0
LWPOLYLINE
  5
2B0
330
1F
100
AcDbEntity
  8
0
  6
Continuous
 62
     7
370
     0
100
AcDbPolyline
 90
       21
 70
   128
 43
0.0
 10
265.0560439791
 20
20.1046077657
 10
263.8226398358
 20
18.9047782673
 10
262.4457526736
 20
17.7041428335
 10
261.0443459237
 20
16.6234419228
 10
259.62819428
 20
15.6702118984
 10
258.2071755808
 20
14.8511056937
 10
256.7912015794
 20
14.1718330746
 10
255.3901489619
 20
13.6371314636
 10
254.0137896231
 20
13.2507332938
 10
252.6717246481
 20
13.0153324596
 10
251.3733139301
 20
12.9325710628
 10
250.1276144315
 20
13.0030250646
 10
248.9433156472
 20
13.2262050523
 10
247.828677701
 20
13.6005539635
 10
246.7914740522
 20
14.1234581183
 10
245.8389407878
 20
14.7912734601
 10
244.9777226221
 20
15.59934153
 10
244.2138241637
 20
16.5420236928
 10
243.5525743549
 20
17.6127460072
 10
242.9985869584
 20
18.8040410552
 10
242.5557249964
 20
20.1075981358
  0
ARC
  5
2B1
330
1F
100
AcDbEntity
  8
0
  6
Continuous
 62
     7
370
     0
100
AcDbCircle
 10
265.1180299893
 20
47.0920053333
 30
0.0
 40
10.51249703684902
100
AcDbArc
 50
14.4456939373
 51
47.0804331381
  0
LWPOLYLINE
  5
2B2
330
1F
100
AcDbEntity
  8
0
  6
Continuous
 62
     7
370
     0
100
AcDbPolyline
 90
       26
 70
   128
 43
0.0
 10
250.621915305
 20
30.1024826134
 10
250.6802313968
 20
31.270902518
 10
250.8543630771
 20
32.4902519225
 10
251.1418638529
 20
33.7434122763
 10
251.5386994807
 20
35.0127936908
 10
252.0392986739
 20
36.2805756213
 10
252.636634104
 20
37.5289619941
 10
253.3223205239
 20
38.7404275882
 10
254.0867319885
 20
39.8979655542
 10
254.9191385027
 20
40.9853286587
 10
255.8078545237
 20
41.9872499947
 10
256.7404044196
 20
42.8896666368
 10
257.7036975603
 20
43.6799104543
 10
258.6842110637
 20
44.3468881328
 10
259.6681807733
 20
44.8812355305
 10
260.641793965
 20
45.2754532604
 10
261.5913832061
 20
45.5240064352
 10
262.5036183209
 20
45.623406589
 10
263.3656935824
 20
45.5722573827
 10
264.1655074119
 20
45.3712769733
 10
264.8918319548
 20
45.0232879217
 10
265.5344712958
 20
44.5331735466
 10
266.0844046923
 20
43.9078157428
 10
266.5339113683
 20
43.1559913569
 10
266.8766818091
 20
42.2882558256
 10
267.0840094009
 20
41.4499383922
  0
LWPOLYLINE
  5
2B3
330
1F
100
AcDbEntity
  8
0
  6
Continuous
 62
     7
370
     0
100
AcDbPolyline
 90
       13
 70
   128
 43
0.0
 10
257.3348015887
 20
24.5619853137
 10
256.7404044196
 20
24.3795557546
 10
255.8078545237
 20
24.2052732052
 10
254.9191385027
 20
24.1811048642
 10
254.0867319885
 20
24.3073918645
 10
253.3223205239
 20
24.5823591396
 10
252.636634104
 20
25.0021480446
 10
252.0392986739
 20
25.5608656098
 10
251.5386994807
 20
26.2506680144
 10
251.1418638529
 20
27.0618727657
 10
250.8543630771
 20
27.9830917893
 10
250.6802313968
 20
29.0013930352
 10
250.621915305
 20
30.1024826134
  0
LWPOLYLINE
  5
2B4
330
1F
100
AcDbEntity
  8
0
  6
Continuous
 62
     7
370
     0
100
AcDbPolyline
 90
       21
 70
   128
 43
0.0
 10
237.0174424047
 20
34.1089473959
 10
237.4881015304
 20
35.9703076431
 10
238.0732354479
 20
37.8462257166
 10
238.7686703021
 20
39.7233212833
 10
239.569447253
 20
41.5882083801
 10
240.4698554024
 20
43.4275847657
 10
241.4634713073
 20
45.2283338183
 10
242.5432090288
 20
46.9776097031
 10
243.7013688645
 20
48.6629385095
 10
244.9296893735
 20
50.272299235
 10
246.2194105968
 20
51.7942150351
 10
247.5613346432
 20
53.217829264
 10
248.9458895684
 20
54.5329910206
 10
250.363201156
 20
55.7303194005
 10
251.8031609123
 20
56.8012731678
 10
253.2554991446
 20
57.7382172762
 10
254.7098573386
 20
58.5344661732
 10
256.1558628628
 20
59.1843436558
 10
257.5832029308
 20
59.6832134009
 10
258.9816969383
 20
60.0275176826
 10
259.0892392321
 20
60.0477902776
  0
LWPOLYLINE
  5
2B5
330
1F
100
AcDbEntity
  8
0
  6
Continuous
 62
     7
370
     0
100
AcDbPolyline
 90
       20
 70
   128
 43
0.0
 10
240.2954102549
 20
33.0857214638
 10
240.7482886789
 20
34.8749979612
 10
241.3143643184
 20
36.6784289793
 10
241.9893579511
 20
38.4823859036
 10
242.7681684913
 20
40.2732363945
 10
243.6449111853
 20
42.0374462857
 10
244.6129610753
 20
43.7616845239
 10
245.6650017318
 20
45.4329205035
 10
246.7930825471
 20
47.038525583
 10
247.988679321
 20
48.5663635745
 10
249.2427568228
 20
50.0048914993
 10
250.54583728
 20
51.3432356272
 10
251.8880738058
 20
52.5712840566
 10
253.2593230038
 20
53.6797544835
 10
254.6492221823
 20
54.6602737581
 10
256.0472678857
 20
55.5054277824
 10
257.4428949196
 20
56.2088314655
 10
258.825556694
 20
56.7651705418
 10
260.1848044123
 20
57.1702381603
 10
260.3112867754
 20
57.2004849204
  0
LINE
  5
2B6
330
1F
100
AcDbEntity
  8
0
  6
Continuous
 62
     7
370
     0
100
AcDbLine
 10
251.5159365605
 20
51.0683682117
 30
0.0
 11
251.8749641603
 21
51.405747155
 31
0.0
  0
LWPOLYLINE
  5
2B7
330
1F
100
AcDbEntity
  8
0
  6
Continuous
 62
     7
370
     0
100
AcDbPolyline
 90
       22
 70
   128
 43
0.0
 10
239.7179424541
 20
33.0789198485
 10
240.169415544
 20
34.8893867763
 10
240.735188253
 20
36.7149830347
 10
241.411030091
 20
38.5420488258
 10
242.1918808021
 20
40.356912262
 10
243.0719004136
 20
42.1459927845
 10
244.0445008462
 20
43.8959015415
 10
245.1024058416
 20
45.5935467063
 10
246.2376983778
 20
47.2262232079
 10
247.4418845477
 20
48.7817150067
 10
248.7059521696
 20
50.2483814024
 10
250.0204428983
 20
51.6152473314
 10
251.3755203834
 20
52.8720853007
 10
252.7610446861
 20
54.0094918073
 10
254.1666483401
 20
55.0189525408
 10
255.5818131343
 20
55.8929171272
 10
256.9959494878
 20
56.6248434306
 10
258.3984757633
 20
57.209255507
 10
259.7788966753
 20
57.6417797427
 10
261.126882624
 20
57.9191800066
 10
262.4323476708
 20
58.0393813714
 10
263.5574057668
 20
58.0128318474
  0
LWPOLYLINE
  5
2B8
330
1F
100
AcDbEntity
  8
0
  6
Continuous
 62
     7
370
     0
100
AcDbPolyline
 90
        8
 70
   128
 43
0.0
 10
253.4503422348
 20
30.1024822332
 10
253.5093241151
 20
29.097377078
 10
253.6852595488
 20
28.1775679647
 10
253.9751389874
 20
27.3587937159
 10
254.3740022737
 20
26.6550632837
 10
254.8750245818
 20
26.0784179078
 10
255.4696336376
 20
25.6387244478
 10
255.4700297522
 20
25.6384953212
  0
LWPOLYLINE
  5
2B9
330
1F
100
AcDbEntity
  8
0
  6
Continuous
 62
     7
370
     0
100
AcDbPolyline
 90
       19
 70
   128
 43
0.0
 10
265.2192372351
 20
42.5264483997
 10
264.5416120585
 20
42.8214385042
 10
263.791779123
 20
42.9671312332
 10
262.9829644719
 20
42.9608050749
 10
262.1290074178
 20
42.8025682373
 10
261.244519088
 20
42.4951277381
 10
260.3446334936
 20
42.0437449406
 10
259.4447478993
 20
41.4561419463
 10
258.5602595694
 20
40.7423739569
 10
257.7063025154
 20
39.9146529666
 10
256.8974878642
 20
38.9871416059
 10
256.1476549287
 20
37.9757101974
 10
255.4696336376
 20
36.8976642466
 10
254.8750245818
 20
35.7714497837
 10
254.3740022737
 20
34.6163363639
 10
253.9751389874
 20
33.4520881837
 10
253.6852595488
 20
32.2986262591
 10
253.5093241151
 20
31.1756864179
 10
253.4503422348
 20
30.1024822332
  0
LWPOLYLINE
  5
2BA
330
1F
100
AcDbEntity
  8
0
  6
Continuous
 62
     7
370
     0
100
AcDbPolyline
 90
       14
 70
   128
 43
0.0
 10
267.2339165215
 20
23.6073339836
 10
267.6077705923
 20
23.1411111968
 10
268.0749911278
 20
22.8104412851
 10
268.6224610739
 20
22.6246066436
 10
269.2348114835
 20
22.5888246345
 10
269.8948512991
 20
22.7040996836
 10
270.5840511774
 20
22.9671959303
 10
271.2830628338
 20
23.3707267701
 10
271.9722627121
 20
23.9033637653
 10
272.6323025277
 20
24.5501544662
 10
273.2446529373
 20
25.2929412092
 10
273.7921228833
 20
26.1108711959
 10
274.2593434189
 20
26.9809824557
 10
274.6331974897
 20
27.8788479648
  0
LWPOLYLINE
  5
2BB
330
1F
100
AcDbEntity
  8
0
  6
Continuous
 62
     7
370
     0
100
AcDbPolyline
 90
       14
 70
   128
 43
0.0
 10
274.6331767455
 20
32.3319331047
 10
274.2593203698
 20
32.7981433441
 10
273.7921001636
 20
33.1288031797
 10
273.244632687
 20
33.3146301212
 10
272.6322867226
 20
33.3504070919
 10
271.9722526693
 20
33.2351304262
 10
271.2830594587
 20
32.9720353672
 10
270.5840546759
 20
32.5685084953
 10
269.8948614242
 20
32.0358779872
 10
269.2348272885
 20
31.3890955083
 10
268.6224813241
 20
30.646318936
 10
268.0750138476
 20
29.8283995005
 10
267.6077936413
 20
28.9582988872
 10
267.2339372656
 20
28.0604430742
  0
LINE
  5
2BC
330
1F
100
AcDbEntity
  8
0
  6
Continuous
 62
     7
370
     0
100
AcDbLine
 10
265.7681416558
 20
24.0603558811
 30
0.0
 11
265.8565301825
 21
23.7304928158
 31
0.0
  0
LWPOLYLINE
  5
2BD
330
1F
100
AcDbEntity
  8
0
  6
Continuous
 62
     7
370
     0
100
AcDbPolyline
 90
        3
 70
   128
 43
0.0
 10
274.0434109552
 20
32.2869108281
 10
273.6564607391
 20
32.7179088718
 10
273.4004912389
 20
32.8961664754
  0
LWPOLYLINE
  5
2BE
330
1F
100
AcDbEntity
  8
0
  6
Continuous
 62
     7
370
     0
100
AcDbPolyline
 90
        3
 70
   128
 43
0.0
 10
240.7670663347
 20
31.0064164976
 10
240.7666145732
 20
31.1280954149
 10
240.7788793061
 20
31.7705388279
  0
LWPOLYLINE
  5
2BF
330
1F
100
AcDbEntity
  8
0
  6
Continuous
 62
     7
370
     0
100
AcDbPolyline
 90
       12
 70
   128
 43
0.0
 10
267.9863847874
 20
23.3232759824
 10
268.1254909549
 20
23.2596246382
 10
268.6846253705
 20
23.1230716505
 10
269.3049661476
 20
23.1424792482
 10
269.9672012625
 20
23.3172434161
 10
270.6507147736
 20
23.6419233367
 10
271.3342282847
 20
24.1064113181
 10
271.9964633996
 20
24.6962475389
 10
272.6168041766
 20
25.3930701569
 10
273.1759385923
 20
26.1751859998
 10
273.6564607391
 20
27.0182471068
 10
274.0434109552
 20
27.8960083605
  0
LINE
  5
2C0
330
1F
100
AcDbEntity
  8
0
  6
Continuous
 62
     7
370
     0
100
AcDbLine
 10
265.3857656897
 20
24.2810968277
 30
0.0
 11
265.7681416558
 21
24.0603558811
 31
0.0
  0
LWPOLYLINE
  5
2C1
330
1F
100
AcDbEntity
  8
0
  6
Continuous
 62
     7
370
     0
100
AcDbPolyline
 90
       19
 70
   128
 43
0.0
 10
209.6816606027
 20
55.0194019143
 10
209.7407531185
 20
56.1163704589
 10
209.9170593127
 20
57.2635529667
 10
210.2076848823
 20
58.4421131386
 10
210.6078580136
 20
59.6326992578
 10
211.1110077497
 20
60.8157615805
 10
211.7088716618
 20
61.9718739069
 10
212.3916334855
 20
63.0820537229
 10
213.1480821591
 20
64.1280715037
 10
213.9657968747
 20
65.0927514591
 10
214.8313507329
 20
65.9602533614
 10
215.7305313553
 20
66.7163337435
 10
216.6485741948
 20
67.3485779248
 10
217.5704050235
 20
67.8466031161
 10
218.4808873398
 20
68.2022324226
 10
219.3650712575
 20
68.4096263574
 10
220.2084382573
 20
68.4653800268
 10
220.9971404652
 20
68.3685776122
 10
221.416287581
 20
68.2459862653
  0
ARC
  5
2C2
330
1F
100
AcDbEntity
  8
0
  6
Continuous
 62
     7
370
     0
100
AcDbCircle
 10
215.132277661
 20
54.5903319471
 30
0.0
 40
5.46747906744356
100
AcDbArc
 50
175.4989855745
 51
224.2048260701
  0
LINE
  5
2C3
330
1F
100
AcDbEntity
  8
0
  6
Continuous
 62
     7
370
     0
100
AcDbLine
 10
246.4499844805
 20
32.1238121969
 30
0.0
 11
245.7427629966
 21
32.5320824692
 31
0.0
  0
LINE
  5
2C4
330
1F
100
AcDbEntity
  8
0
  6
Continuous
 62
     7
370
     0
100
AcDbLine
 10
240.9068233087
 20
26.4643430591
 30
0.0
 11
246.4499844805
 21
23.2643442285
 31
0.0
  0
LINE
  5
2C5
330
1F
100
AcDbEntity
  8
0
  6
Continuous
 62
     7
370
     0
100
AcDbLine
 10
240.8461631277
 20
26.4293132981
 30
0.0
 11
240.9068233087
 21
26.4643430591
 31
0.0
  0
LINE
  5
2C6
330
1F
100
AcDbEntity
  8
0
  6
Continuous
 62
     7
370
     0
100
AcDbLine
 10
242.3840891999
 20
19.271164491
 30
0.0
 11
242.1969993393
 21
19.8487570342
 31
0.0
  0
LINE
  5
2C7
330
1F
100
AcDbEntity
  8
0
  6
Continuous
 62
     7
370
     0
100
AcDbLine
 10
245.7428775834
 20
22.0395995402
 30
0.0
 11
240.4926095969
 21
25.0705147339
 31
0.0
  0
LINE
  5
2C8
330
1F
100
AcDbEntity
  8
0
  6
Continuous
 62
     7
370
     0
100
AcDbLine
 10
276.0105838286
 20
29.5923032135
 30
0.0
 11
275.7454182483
 21
29.8201150581
 31
0.0
  0
LINE
  5
2C9
330
1F
100
AcDbEntity
  8
0
  6
Continuous
 62
     7
370
     0
100
AcDbLine
 10
241.1570521941
 20
21.892201722
 30
0.0
 11
241.0802988317
 21
22.1400658337
 31
0.0
  0
LWPOLYLINE
  5
2CA
330
1F
100
AcDbEntity
  8
0
  6
Continuous
 62
     7
370
     0
100
AcDbPolyline
 90
        3
 70
   128
 43
0.0
 10
240.7615728387
 20
21.2954085851
 10
240.7405204879
 20
21.3452429333
 10
240.2954102549
 20
22.5931723644
  0
ARC
  5
2CB
330
1F
100
AcDbEntity
  8
0
  6
Continuous
 62
     7
370
     0
100
AcDbCircle
 10
250.4804028224
 20
25.6052452303
 30
0.0
 40
11.1778422028647
100
AcDbArc
 50
195.6688296447
 51
214.1331604714
  0
LINE
  5
2CC
330
1F
100
AcDbEntity
  8
0
  6
Continuous
 62
     7
370
     0
100
AcDbLine
 10
272.1745291424
 20
31.8815454601
 30
0.0
 11
275.7454182483
 21
29.8201150581
 31
0.0
  0
LINE
  5
2CD
330
1F
100
AcDbEntity
  8
0
  6
Continuous
 62
     7
370
     0
100
AcDbLine
 10
237.1966916344
 20
22.2838158889
 30
0.0
 11
237.0174424047
 21
22.8388516065
 31
0.0
  0
OLE2FRAME
  5
2CE
330
1F
100
AcDbEntity
  8
0
100
AcDbOle2Frame
 70
     2
  3
Paintbrush-Bild
 10
13.8511154363
 20
38.264191557
 30
0.0
 11
51.6290888628
 21
31.9806341108
 31
0.0
 71
     2
 72
     0
 73
     1
 90
    12928
310
80552BED0767C5B32B40DDAF6807D121434000000000000000006FFBDDFB85D0
310
4940DDAF6807D121434000000000000000006FFBDDFB85D04940416F4BD60AFB
310
3F4000000000000000002BED0767C5B32B40416F4BD60AFB3F40000000000000
310
0000000000000100000000010000010000000100000000000100000000320000
310
D0CF11E0A1B11AE1000000000000000000000000000000003E000300FEFF0900
310
0600000000000000000000000100000001000000000000000010000002000000
310
01000000FEFFFFFF0000000000000000FFFFFFFFFFFFFFFFFFFFFFFFFFFFFFFF
310
FFFFFFFFFFFFFFFFFFFFFFFFFFFFFFFFFFFFFFFFFFFFFFFFFFFFFFFFFFFFFFFF
310
FFFFFFFFFFFFFFFFFFFFFFFFFFFFFFFFFFFFFFFFFFFFFFFFFFFFFFFFFFFFFFFF
310
FFFFFFFFFFFFFFFFFFFFFFFFFFFFFFFFFFFFFFFFFFFFFFFFFFFFFFFFFFFFFFFF
310
FFFFFFFFFFFFFFFFFFFFFFFFFFFFFFFFFFFFFFFFFFFFFFFFFFFFFFFFFFFFFFFF
310
FFFFFFFFFFFFFFFFFFFFFFFFFFFFFFFFFFFFFFFFFFFFFFFFFFFFFFFFFFFFFFFF
310
FFFFFFFFFFFFFFFFFFFFFFFFFFFFFFFFFFFFFFFFFFFFFFFFFFFFFFFFFFFFFFFF
310
FFFFFFFFFFFFFFFFFFFFFFFFFFFFFFFFFFFFFFFFFFFFFFFFFFFFFFFFFFFFFFFF
310
FFFFFFFFFFFFFFFFFFFFFFFFFFFFFFFFFFFFFFFFFFFFFFFFFFFFFFFFFFFFFFFF
310
FFFFFFFFFFFFFFFFFFFFFFFFFFFFFFFFFFFFFFFFFFFFFFFFFFFFFFFFFFFFFFFF
310
FFFFFFFFFFFFFFFFFFFFFFFFFFFFFFFFFFFFFFFFFFFFFFFFFFFFFFFFFFFFFFFF
310
FFFFFFFFFFFFFFFFFFFFFFFFFFFFFFFFFFFFFFFFFFFFFFFFFFFFFFFFFFFFFFFF
310
FFFFFFFFFFFFFFFFFFFFFFFFFFFFFFFFFFFFFFFFFFFFFFFFFFFFFFFFFFFFFFFF
310
FFFFFFFFFFFFFFFFFFFFFFFFFFFFFFFFFFFFFFFFFFFFFFFFFFFFFFFFFFFFFFFF
310
FDFFFFFFFEFFFFFFFEFFFFFFFEFFFFFF05000000060000000700000008000000
310
090000000A0000000B0000000C0000000D0000000E0000000F00000010000000
310
11000000120000001300000014000000150000001600000017000000FEFFFFFF
310
FFFFFFFFFFFFFFFFFFFFFFFFFFFFFFFFFFFFFFFFFFFFFFFFFFFFFFFFFFFFFFFF
310
FFFFFFFFFFFFFFFFFFFFFFFFFFFFFFFFFFFFFFFFFFFFFFFFFFFFFFFFFFFFFFFF
310
FFFFFFFFFFFFFFFFFFFFFFFFFFFFFFFFFFFFFFFFFFFFFFFFFFFFFFFFFFFFFFFF
310
FFFFFFFFFFFFFFFFFFFFFFFFFFFFFFFFFFFFFFFFFFFFFFFFFFFFFFFFFFFFFFFF
310
FFFFFFFFFFFFFFFFFFFFFFFFFFFFFFFFFFFFFFFFFFFFFFFFFFFFFFFFFFFFFFFF
310
FFFFFFFFFFFFFFFFFFFFFFFFFFFFFFFFFFFFFFFFFFFFFFFFFFFFFFFFFFFFFFFF
310
FFFFFFFFFFFFFFFFFFFFFFFFFFFFFFFFFFFFFFFFFFFFFFFFFFFFFFFFFFFFFFFF
310
FFFFFFFFFFFFFFFFFFFFFFFFFFFFFFFFFFFFFFFFFFFFFFFFFFFFFFFFFFFFFFFF
310
FFFFFFFFFFFFFFFFFFFFFFFFFFFFFFFFFFFFFFFFFFFFFFFFFFFFFFFFFFFFFFFF
310
FFFFFFFFFFFFFFFFFFFFFFFFFFFFFFFFFFFFFFFFFFFFFFFFFFFFFFFFFFFFFFFF
310
FFFFFFFFFFFFFFFFFFFFFFFFFFFFFFFFFFFFFFFFFFFFFFFFFFFFFFFFFFFFFFFF
310
FFFFFFFFFFFFFFFFFFFFFFFFFFFFFFFFFFFFFFFFFFFFFFFFFFFFFFFFFFFFFFFF
310
FFFFFFFFFFFFFFFFFFFFFFFFFFFFFFFFFFFFFFFFFFFFFFFFFFFFFFFFFFFFFFFF
310
52006F006F007400200045006E00740072007900000000000000000000000000
310
0000000000000000000000000000000000000000000000000000000000000000
310
16000500FFFFFFFFFFFFFFFF020000000A00030000000000C000000000000046
310
00000000000000000000000080A4DA0BAC1FD20103000000C000000000000000
310
01004F006C006500000000000000000000000000000000000000000000000000
310
0000000000000000000000000000000000000000000000000000000000000000
310
0A000200FFFFFFFFFFFFFFFFFFFFFFFF00000000000000000000000000000000
310
0000000000000000000000000000000000000000000000001400000000000000
310
010043006F006D0070004F0062006A0000000000000000000000000000000000
310
0000000000000000000000000000000000000000000000000000000000000000
310
120002010100000003000000FFFFFFFF00000000000000000000000000000000
310
0000000000000000000000000000000000000000010000004D00000000000000
310
01004F006C006500310030004E00610074006900760065000000000000000000
310
0000000000000000000000000000000000000000000000000000000000000000
310
1A000200FFFFFFFFFFFFFFFFFFFFFFFF00000000000000000000000000000000
310
0000000000000000000000000000000000000000040000002426000000000000
310
FEFFFFFF02000000FEFFFFFFFFFFFFFFFFFFFFFFFFFFFFFFFFFFFFFFFFFFFFFF
310
FFFFFFFFFFFFFFFFFFFFFFFFFFFFFFFFFFFFFFFFFFFFFFFFFFFFFFFFFFFFFFFF
310
FFFFFFFFFFFFFFFFFFFFFFFFFFFFFFFFFFFFFFFFFFFFFFFFFFFFFFFFFFFFFFFF
310
FFFFFFFFFFFFFFFFFFFFFFFFFFFFFFFFFFFFFFFFFFFFFFFFFFFFFFFFFFFFFFFF
310
FFFFFFFFFFFFFFFFFFFFFFFFFFFFFFFFFFFFFFFFFFFFFFFFFFFFFFFFFFFFFFFF
310
FFFFFFFFFFFFFFFFFFFFFFFFFFFFFFFFFFFFFFFFFFFFFFFFFFFFFFFFFFFFFFFF
310
FFFFFFFFFFFFFFFFFFFFFFFFFFFFFFFFFFFFFFFFFFFFFFFFFFFFFFFFFFFFFFFF
310
FFFFFFFFFFFFFFFFFFFFFFFFFFFFFFFFFFFFFFFFFFFFFFFFFFFFFFFFFFFFFFFF
310
FFFFFFFFFFFFFFFFFFFFFFFFFFFFFFFFFFFFFFFFFFFFFFFFFFFFFFFFFFFFFFFF
310
FFFFFFFFFFFFFFFFFFFFFFFFFFFFFFFFFFFFFFFFFFFFFFFFFFFFFFFFFFFFFFFF
310
FFFFFFFFFFFFFFFFFFFFFFFFFFFFFFFFFFFFFFFFFFFFFFFFFFFFFFFFFFFFFFFF
310
FFFFFFFFFFFFFFFFFFFFFFFFFFFFFFFFFFFFFFFFFFFFFFFFFFFFFFFFFFFFFFFF
310
FFFFFFFFFFFFFFFFFFFFFFFFFFFFFFFFFFFFFFFFFFFFFFFFFFFFFFFFFFFFFFFF
310
FFFFFFFFFFFFFFFFFFFFFFFFFFFFFFFFFFFFFFFFFFFFFFFFFFFFFFFFFFFFFFFF
310
FFFFFFFFFFFFFFFFFFFFFFFFFFFFFFFFFFFFFFFFFFFFFFFFFFFFFFFFFFFFFFFF
310
FFFFFFFFFFFFFFFFFFFFFFFFFFFFFFFFFFFFFFFFFFFFFFFFFFFFFFFFFFFFFFFF
310
0100000200000000000000000000000000000000000000000000000000000000
310
0000000000000000000000000000000000000000000000000000000000000000
310
0100FEFF030A0000FFFFFFFF0A00030000000000C00000000000004607000000
310
5042727573680007000000504272757368000700000050427275736800F439B2
310
7100000000000000000000000000000000000000000000000000000000000000
310
0000000000000000000000000000000000000000000000000000000000000000
310
0000000000000000000000000000000000000000000000000000000000000000
310
0000000000000000000000000000000000000000000000000000000000000000
310
0000000000000000000000000000000000000000000000000000000000000000
310
0000000000000000000000000000000000000000000000000000000000000000
310
0000000000000000000000000000000000000000000000000000000000000000
310
0000000000000000000000000000000000000000000000000000000000000000
310
0000000000000000000000000000000000000000000000000000000000000000
310
0000000000000000000000000000000000000000000000000000000000000000
310
0000000000000000000000000000000000000000000000000000000000000000
310
0000000000000000000000000000000000000000000000000000000000000000
310
20260000424D0E260000000000003E00000028000000B40200006E0000000100
310
01000000000000000000130B0000130B00000200000002000000000000FFFFFF
310
FFFFFFFFFFFFFFFFFFFFFFFFFFFFFFFFFFFFFFFFFFFFFFFFFFFFFFFFFFFFFFFF
310
FFFFFFFFFFFFFFFFFFFFFFFFFFFFFFFFFFFFFFFFFFFFFFFFFFFFFFFFFFFFFFFF
310
FFFFFFFFFFFFFFFFFFFFFFFFFFFFFFFFFFFFFFFFFFFFFFFFF000FFFFFFFFFFFF
310
FFFFFFFFFFFFFFFFFFFFFFFFFFFFFFFFFFFFFFFFFFFFFFFFFFFFFFFFFFFFFFFF
310
FFFFFFFFFFFFFFFFFFFFFFFFFFFFFFFFFFFFFFFFFFFFFFFFFFFFFFFFFFFFFFFF
310
FFFFFFFFFFFFFFFFFFFFFFFFFFFFFFFFF000FFFFFFFFFFFFFFFFFFFFFFFFFFFF
310
FFFFFFFFFFFFFFFFFFFFFFFFFFFFFFFFFFFFFFFFFFFFFFFFFFFFFFFFFFFFFFFF
310
FFFFFFFFFFFFFFFFFFFFFFFFFFFFFFFFFFFFFFFFFFFFFFFFFFFFFFFFFFFFFFFF
310
FFFFFFFFFFFFFFFFF000FFFFFFFFFFFFFFFFFFFFFFFFFFFFFFFFFFFFFFFFFFFF
310
FFFFFFFFFFFFFFFFFFFFFFFFFFFFFFFFFFFFFFFFFFFFFFFFFFFFFFFFFFFFFFFF
310
FFFFFFFFFFFFFFFFFFFFFFFFFFFFFFFFFFFFFFFFFFFFFFFFFFFFFFFFFFFFFFFF
310
F000FFFFFFFFFFFFFFFFFFFFFFFFFFFFFFFFFFFFFFFFFFFFFFFFFFFFFFFFFFFF
310
FFFFFFFFFFFFFFFFFFFFFFFFFFFFFFFFFFFFFFFFFFFFFFFFFFFFFFFFFFFFFFFF
310
FFFFFFFFFFFFFFFFFFFFFFFFFFFFFFFFFFFFFFFFFFFFFFFFF000FFFFFFFFFFFF
310
FFFFFFFFFFFFFFFFFFFFFFFFFFFFFFFFFFFFFFFFFFFFFFFFFFFFFFFFFFFFFFFF
310
FFFFFFFFFFFFFFFFFFFFFFFFFFFFFFFFFFFFFFFFFFFFFFFFFFFFFFFFFFFFFFFF
310
FFFFFFFFFFFFFFFFFFFFFFFFFFFFFFFFF000FFFFFFFFFFFFFFFFFFFFFFFFFFFF
310
FFFFFFFFFFFFFFFFFFFFFFFFFFFFFFFFFFFFFFFFFFFFFFFFFFFFFFFFFFFFFFFF
310
FFFFFFFFFFFFFFFFFFFFFFFFFFFFFFFFFFFFFFFFFFFFFFFFFFFFFFFFFFFFFFFF
310
FFFFFFFFFFFFFFFFF000FFFFFFFFFFFFFFFFFFFFFFFFFFFFFFFFFFFFFFFFFFFF
310
FFFFFFFFFFFFFFFFFFFFFFFFFFFFFFFFFFFFFFFFFFFFFFFFFFFFFFFFFFFFFFFF
310
FFFFFFFFFFFFFFFFFFFFFFFFFFFFFFFFFFFFFFFFFFFFFFFFFFFFFFFFFFFFFFFF
310
F000FFFFFFFFFFFFFFFFFFFFFFFFFFFFFFFFFFFFFFFFFFFFFFFFFFFFFFFFFFFF
310
FFFFFFFFFFFFFFFFFFFFFFFFFFFFFFFFFFFFFFFFFFFFFFFFFFFFFFFFFFFFFFFF
310
FFFFFFFFFFFFFFFFFFFFFFFFFFFFFFFFFFFFFFFFFFFFFFFFF000FFFFFFFFFFFF
310
FFFFFFFFFFFFFFFFFFFFFFFFFFFFFFFFFFFFFFFFFFFFFFFFFFFFFFFFFFFFFFFF
310
FFFFFFFFFFFFFFFFFFFFFFFFFFFFFFFFFFFFFFFFFFFFFFFFFFFFFFFFFFFFFFFF
310
FFFFFFFFFFFFFFFFFFFFFFFFFFFFFFFFF000FFFFFFFFFFFFFFFFFFFFFFFFFFFF
310
FFFFFFFFFFFFFFFFFFFFFFFFFFFFFFFFFFFFFFFFFFFFFFFFFFFFFFFFFFFFFFFF
310
FFFFFFFFFFFFFFFFFFFFFFFFFFFFFFFFFFFFFFFFFFFFFFFFFFFFFFFFFFFFFFFF
310
FFFFFFFFFFFFFFFFF000FFFFFFFFFFFFFFFFFFFFFFFFFFFFFFFFFFFFFFFFFFFF
310
FFFFFFFFFFFFFFFFFFFFFFFFFFFFFFFFFFFFFFFFFFFFFFFFFFFFFFFFFFFFFFFF
310
FFFFFFFFFFFFFFFFFFFFFFFFFFFFFFFFFFFFFFFFFFFFFFFFFFFFFFFFFFFFFFFF
310
F000FFFFFFFFFFFFFFFFFFFFFFFFFFFFFFFFFFFFFFFFFFFFFFFFFFFFFFFFFFFF
310
FFFFFFFFFFFFFFFFFFFFFFFFFFFFFFFFFFFFFFFFFFFFFFFFFFFFFFFFFFFFFFFF
310
FFFFFFFFFFFFFFFFFFFFFFFFFFFFFFFFFFFFFFFFFFFFFFFFF000FFFFFFFFFFFF
310
FFFFFFFFFFFFFFFFFFFFFFFFFFFFFFFFFFFFFFFFFFFFFFFFFFFFFFFFFFFFFFFF
310
FFFFFFFFFFFFFFFFFFFFFFFFFFFFFFFFFFFFFFFFFFFFFFFFFFFFFFFFFFFFFFFF
310
FFFFFFFFFFFFFFFFFFFFFFFFFFFFFFFFF000FFFFFFFFFFFFFFFFFFFFFFFFFFFF
310
FFFFFFFFFFFFFFFFFFFFFFFFFFFFFFFFFFFFFFFFFFFFFFFFFFFFFFFFFFFFFFFF
310
FFFFFFFFFFFFFFFFFFFFFFFFFFFFFFFFFFFFFFFFFFFFFFFFFFFFFFFFFFFFFFFF
310
FFFFFFFFFFFFFFFFF000FFFFFFFFFFFFFFFFFFFFFFFFFFFFFFFFFFFFFFFFFFFF
310
FFFFFFFFFFFFFFFFFFFFFFFFFFFFFFFFFFFFFFFFFFFFFFFFFFFFFFFFFFFFFFFF
310
FFFFFFFFFFFFFFFFFFFFFFFFFFFFFFFFFFFFFFFFFFFFFFFFFFFFFFFFFFFFFFFF
310
F000FFFFFFFFFFFFFFFFFFFFFFFFFFFFFFFFFFFFFFFFFFFFFFFFFFFFFFFFFFFF
310
FFFFFFFFFFFFFFFFFFFFFFFFFFFFFFFFFFFFFFFFFFFFFFFFFFFFFFFFFFFFFFFF
310
FFFFFFFFFFFFFFFFFFFFFFFFFFFFFFFFFFFFFFFFFFFFFFFFF000FFFFFFFFFFFF
310
FFFFFFFFFFFFFFFFFFFFFFFFFFFFFFFFFFFFFFFFFFFFFFFFFFFFFFFFFFFFFFFF
310
FFFFFFFFFFFFFFFFFFFFFFFFFFFFFFFFFFFFFFFFFFFFFFFFFFFFFFFFFFFFFFFF
310
FFFFFFFFFFFFFFFFFFFFFFFFFFFFFFFFF000FFFFFFFFFFFFFFFFFFFFFFFFFFFF
310
FFFFFFFFFFFFFFFFFFFFFFFFFFFFFFFFFFFFFFFFFFFFFFFFFFFFFFFFFFFFFFFF
310
FFFFFFFFFFFFFFFFFFFFFFFFFFFFFFFFFFFFFFFFFFFFFFFFFFFFFFFFFFFFFFFF
310
FFFFFFFFFFFFFFFFF000FFFFF80003FFFFFFFFFFFFFFFFFFFFFFFFFFFFFFFFFF
310
FFFFF00007FFFFFFFFFF00007FFFFFF800000000000000007FFFFFFFFFFFFFFF
310
FFFFFFFC001FFFFFFFFFFFFFFC001FFFFFFFFFFFFFFFFFFFFFFFFFFE0007FFFF
310
F000FFFF8000007FFFFFFFF8000FFFFFC0007FFFFF80007FFFFF0000007FFFFF
310
FFF8000007FFFFF800000000000000007FFFFFF0001FFFFFFFFFFFC00001FFFF
310
FFFFFFFFC00001FFFFFFFF000000000003FFFFE000007FFFF000FFFE0000000F
310
FFFFFFF0000FFFFF80007FFFFF80007FFFFC0000001FFFFFFFC0000001FFFFF8
310
00000000000000007FFFFFF0001FFFFFFFFFFE0000003FFFFFFFFFFE0000003F
310
FFFFFF000000000003FFFF0000000FFFF000FFF800000003FFFFFFF00007FFFF
310
80007FFFFF80007FFFF000000007FFFFFF000000003FFFF80000000000000000
310
7FFFFFF0001FFFFFFFFFF80000000FFFFFFFFFF80000000FFFFFFF0000000000
310
03FFFC00000003FFF000FFE000000000FFFFFFF00007FFFF80003FFFFF80007F
310
FFC000000001FFFFFC000000001FFFF800000000000000007FFFFFF0001FFFFF
310
FFFFE000000003FFFFFFFFE000000003FFFFFF000000000003FFF000000000FF
310
F000FF80000000007FFFFFF00007FFFF80003FFFFF80007FFF8000000000FFFF
310
F80000000007FFF800000000000000007FFFFFF0001FFFFFFFFFC000000001FF
310
FFFFFFC000000001FFFFFF000000000003FFC0000000007FF000FF0000000000
310
3FFFFFE00007FFFF00003FFFFF80007FFE00000000003FFFF00000000003FFF8
310
00000000000000007FFFFFF0001FFFFFFFFF8000000000FFFFFFFF8000000000
310
FFFFFF000000000003FF80000000003FF000FE00000000001FFFFFE00003FFFF
310
00003FFFFF80007FFC00000000001FFFE00000000001FFF8000001FFFE000000
310
7FFFFFF0001FFFFFFFFE00000000003FFFFFFE00000000003FFFFF0000000000
310
03FF00000000001FF000FC00000000000FFFFFE00003FFFF00001FFFFF80007F
310
F800000000001FFFC00000000000FFF8000001FFFE0000007FFFFFF0001FFFFF
310
FFFC00000000001FFFFFFC00000000001FFFFF000000000003FE00000000000F
310
F000F8000000000007FFFFE00003FFFF00001FFFFF80007FF800000000000FFF
310
800000000000FFF8000001FFFE0000007FFFFFF0001FFFFFFFF800000000000F
310
FFFFF800000000000FFFFF000000000003FC000000000007F000F80000000000
310
03FFFFC00003FFFE00001FFFFF80007FF0000000000007FF0000000000007FF8
310
000001FFFE0000007FFFFFF0001FFFFFFFF0000000000007FFFFF00000000000
310
07FFFF000000000003F8000000000003F000F0000000000003FFFFC00001FFFE
310
00001FFFFF80007FE0000000000007FE0000000000003FF8000001FFFE000000
310
7FFFFFF0001FFFFFFFF0000000000007FFFFF0000000000007FFFF0000000000
310
03F800001F800003F000E00001FFF00001FFFFC00001FFFE00000FFFFF80007F
310
E00001FFE00003FE00001FFF00003FF8000001FFFE0000007FFFFFF0001FFFFF
310
FFE000003E000003FFFFE000003E000003FFFF000000000003F00001FFF80001
310
F000E00007FFFC0001FFFFC00001FFFE00000FFFFF80007FC0000FFFFC0003FC
310
0000FFFFC0001FF8000001FFFE0000007FFFFFF0001FFFFFFFC00003FFE00001
310
FFFFC00003FFE00001FFFF0001FFFFFFFFF00007FFFE0001F000E0000FFFFF00
310
00FFFF800001FFFC00000FFFFF80007FC0001FFFFE0001FC0001FFFFE0001FF8
310
000001FFFE0000007FFFFFF0001FFFFFFF80000FFFF80000FFFF80000FFFF800
310
00FFFF0003FFFFFFFFE0000FFFFF8000F000C0003FFFFF8000FFFF800000FFFC
310
000007FFFF80007F80003FFFFF0001FC0003FFFFF0001FF8000001FFFE000000
310
7FFFFFF0001FFFFFFF80003FFFFE0000FFFF80003FFFFE0000FFFF0003FFFFFF
310
FFE0003FFFFF8000F000C0003FFFFF8000FFFF800000FFFC000007FFFF80007F
310
80007FFFFF8001F80007FFFFF8000FF8000001FFFE0000007FFFFFF0001FFFFF
310
FF00007FFFFF00007FFF00007FFFFF00007FFF0003FFFFFFFFE0003FFFFFC000
310
F000C0007FFFFFC000FFFF000000FFFC000007FFFF80007F8000FFFFFF8000F8
310
000FFFFFF8000FF8000001FFFE0000007FFFFFF0001FFFFFFF0000FFFFFF8000
310
7FFF0000FFFFFF80007FFF0003FFFFFFFFC0007FFFFFC00070008000FFFFFFC0
310
00FFFF000000FFF8000007FFFF80007F8000FFFFFF8000F8000FFFFFF8000FF8
310
000001FFFE0000007FFFFFF0001FFFFFFE0001FFFFFFC0003FFE0001FFFFFFC0
310
003FFF0003FFFFFFFFC0007FFFFFE00070008000FFFFFFC0007FFF0000007FF8
310
000003FFFF80007F0001FFFFFF8000F8000FFFFFF8000FF8000001FFFE000000
310
7FFFFFF0001FFFFFFE0001FFFFFFC0003FFE0001FFFFFFC0003FFF0003FFFFFF
310
FFC000FFFFFFE00070008000FFFFFFC0007FFF0000007FF8000003FFFF80007F
310
0001FFFFFF8000F8001FFFFFF8000FF8000001FFFE0000007FFFFFF0001FFFFF
310
FE0003FFFFFFE0003FFE0003FFFFFFE0003FFF0003FFFFFFFFC000FFFFFFE000
310
70008000FFFFFFC0007FFE0000007FF8000003FFFF80007F0001FFFFFF8000F0
310
001FFFFFF8000FF8000001FFFE0000007FFFFFF0001FFFFFFC0003FFFFFFE000
310
1FFC0003FFFFFFE0001FFF0003FFFFFFFFC000FFFFFFC00070008000FFFFFF80
310
007FFE0000007FF0000003FFFF80007F0001FFFFFF0000F0001FFFFFF8000FF8
310
000001FFFE0000007FFFFFF0001FFFFFFC0007FFFFFFF0001FFC0007FFFFFFF0
310
001FFF0003FFFFFFFFC000FFFFFFC00070008001FFFFFF0000FFFE0000003FF0
310
000001FFFF80007F0001FFFFFF0000F8001FFFFFF0000FF8000001FFFE000000
310
7FFFFFF0001FFFFFFC0007FFFFFFF0001FFC0007FFFFFFF0001FFF0003FFFFFF
310
FFC001FFFFFF80007000FFFFFFFFFE0000FFFE0008003FF0008001FFFF80007F
310
FFFFFFFFFC0000FFFFFFFFFFE0000FF8000001FFFE0000007FFFFFF0001FFFFF
310
F8000FFFFFFFF8000FF8000FFFFFFFF8000FFF0003FFFFFFFFFFFFFFFFFF0000
310
7000FFFFFFFFFC0000FFFC0008003FF0008001FFFF80007FFFFFFFFFF80001FF
310
FFFFFFFF80000FF8000001FFFE0000007FFFFFF0001FFFFFF8000FFFFFFFF800
310
0FF8000FFFFFFFF8000FFF0003FFFFFFFFFFFFFFFFFE0000F000FFFFFFFFE000
310
00FFFC000C003FE000C001FFFF80007FFFFFFFFFC00001FFFFFFFFFE00001FF8
310
000001FFFE0000007FFFFFF0001FFFFFF8000FFFFFFFF8000FF8000FFFFFFFF8
310
000FFF0003FFFFFFFFFFFFFFFFF00000F000FFFFFFFE000001FFFC000C001FE0
310
00C000FFFF80007FFFFFFFFE000001FFFFFFFFE000001FF80FFFFFFFFFFFFFC0
310
7FFFFFF0001FFFFFF8000FFFFFFFF8000FF8000FFFFFFFF8000FFF0003FFFFFF
310
FFFFFFFFFF800000F000FFFFFFC0000001FFFC001C001FE001C000FFFF80007F
310
FFFFFF80000003FFFFFFF80000001FF80FFFFFFFFFFFFFC07FFFFFF0001FFFFF
310
F8001FFFFFFFFC000FF8001FFFFFFFFC000FFF0003FFFFFFFFFFFFFFF0000001
310
F000FFFFF800000001FFF8001C001FE001C000FFFF80007FFFFFF800000003FF
310
FFFF800000003FF80FFFFFFFFFFFFFC07FFFFFF0001FFFFFF8001FFFFFFFFC00
310
0FF8001FFFFFFFFC000FFF0003FFFFFFFFFFFFFE00000001F000FFFFC0000000
310
03FFF8001E001FC001E000FFFF80007FFFFF8000000007FFFFFC000000003FF8
310
0FFFFFFFFFFFFFC07FFFFFF0001FFFFFF8001FFFFFFFFC000FF8001FFFFFFFFC
310
000FFF0003FFFFFFFFFFFFE000000003F000FFFE0000000007FFF8001E000FC0
310
01E0007FFF80007FFFFE0000000007FFFFE0000000007FF80FFFFFFFFFFFFFC0
310
7FFFFFF0001FFFFFF0001FFFFFFFFC0007F0001FFFFFFFFC0007FF0003FFFFFF
310
FFFFFF0000000003F000FFF80000000007FFF8001E000FC003E0007FFF80007F
310
FFF0000000000FFFFF8000000000FFF80FFFFFFFFFFFFFC07FFFFFF0001FFFFF
310
F0001FFFFFFFFC0007F0001FFFFFFFFC0007FF0003FFFFFFFFFFFC0000000007
310
F000FFE0000000000FFFF0003E000FC003E0007FFF80007FFFC0000000001FFF
310
FE0000000001FFF80FFFFFFFFFFFFFC07FFFFFF0001FFFFFF0001FFFFFFFFC00
310
07F0001FFFFFFFFC0007FF0003FFFFFFFFFFF0000000000FF000FFC000000000
310
1FFFF0003F000F8003F0003FFF80007FFF80000000003FFFF80000000003FFF8
310
0FFFFFFFFFFFFFC07FFFFFF0001FFFFFF0001FFFFFFFFC0007F0001FFFFFFFFC
310
0007FF0003FFFFFFFFFFE0000000001FF000FF00000000007FFFF0003F000780
310
03F0003FFF80007FFF00000000007FFFF00000000007FFF80FFFFFFFFFFFFFC0
310
7FFFFFF0001FFFFFF0001FFFFFFFFC0007F0001FFFFFFFFC0007FF0003FFFFFF
310
FFFF80000000007FF000FE0000000000FFFFE0003F00078007F0003FFF80007F
310
FE0000000001FFFFE0000000001FFFF80FFFFFFFFFFFFFC07FFFFFF0001FFFFF
310
F0001FFFFFFFFC0007F0001FFFFFFFFC0007FF0003FFFFFFFFFF0000000000FF
310
F000FC0000000003FFFFE0007F00078007F0003FFF80007FFC0000000007FFFF
310
C0000000007FFFF80FFFFFFFFFFFFFC07FFFFFF0001FFFFFF8001FFFFFFFFC00
310
0FF8001FFFFFFFFC000FFF0003FFFFFFFFFE0000000003FFF000FC000000000F
310
FFFFE0007F80070007F8001FFF80007FF8000000001FFFFF8000000001FFFFF8
310
0FFFFFFFFFFFFFC07FFFFFF0001FFFFFF8001FFFFFFFFC000FF8001FFFFFFFFC
310
000FFF0003FFFFFFFFFC000000000FFFF000F8000000007FFFFFE0007F800700
310
07F8001FFF80007FF000000000FFFFFF800000000FFFFFF80FFFFFFFFFFFFFC0
310
7FFFFFF0001FFFFFF8000FFFFFFFF8000FF8000FFFFFFFF8000FFF0003FFFFFF
310
FFFC000000007FFFF000F800000007FFFFFFC0007F8003000FF8001FFF80007F
310
F000000007FFFFFF000000007FFFFFF80FFFFFFFFFFFFFC07FFFFFF0001FFFFF
310
F8000FFFFFFFF8000FF8000FFFFFFFF8000FFF0003FFFFFFFFF80000000FFFFF
310
F000F0000000FFFFFFFFC000FF8003000FF8001FFF80007FE0000000FFFFFFFF
310
0000000FFFFFFFF8000001FFFE0000007FFFFFF0001FFFFFF8000FFFFFFFF800
310
0FF8000FFFFFFFF8000FFF0003FFFFFFFFF8000000FFFFFFF000F000000FFFFF
310
FFFFC000FFC002000FF8000FFF80007FE000001FFFFFFFFE000001FFFFFFFFF8
310
000001FFFE0000007FFFFFF0001FFFFFF8000FFFFFFFF8000FF8000FFFFFFFF8
310
000FFF0003FFFFFFFFF000001FFFFFFFF000E00000FFFFFFFFFFC000FFC00200
310
0FFC000FFF80007FE00001FFFFFFFFFE00001FFFFFFFFFF8000001FFFE000000
310
7FFFFFF0001FFFFFFC000FFFFFFFF8001FFC000FFFFFFFF8001FFF0003FFFFFF
310
FFF00001FFFFFFFFF000E00007FFFFFFFFFF8000FFC000001FFC000FFF80007F
310
C0000FFFFFFFFFFE0000FFFFFFFFFFF8000001FFFE0000007FFFFFF0001FFFFF
310
FC0007FFFFFFF0001FFC0007FFFFFFF0001FFF0003FFFFFFFFF00007FFFFFFFF
310
F000E0001FFFFFFFFFFF8000FFC000001FFC000FFF80007FC0003FFFFFFFFFFE
310
0001FFFFFFFFFFF8000001FFFE0000007FFFFFF0001FFFFFFC0007FFFFFFF000
310
1FFC0007FFFFFFF0001FFF0003FFFFFFFFF0001FFFFFFFFFF000E0003FFFFF00
310
03FF8001FFE000001FFC0007FF80007FC0007FFFFF0007FC0003FFFFF0003FF8
310
000001FFFE0000007FFFFFF0001FFFFFFC0003FFFFFFE0001FFC0003FFFFFFE0
310
001FFF0003FFFFFFFFF0003FFFFFFFFFF000E0003FFFFF0001FF8001FFE00000
310
1FFE0007FF80007FC0007FFFFE0003FC0007FFFFE0003FF8000001FFFE000000
310
7FFFFFF0001FFFFFFE0003FFFFFFE0003FFE0003FFFFFFE0003FFF0003FFFFFF
310
FFF0003FFFFF8001F000E0003FFFFF0001FF0001FFE000001FFE0007FF80007F
310
C0007FFFFE0003FC0007FFFFE0003FF8000001FFFE0000007FFFFFF0001FFFFF
310
FE0001FFFFFFC0003FFE0001FFFFFFC0003FFF0003FFFFFFFFF0003FFFFF0001
310
F000E0003FFFFF0003FF0001FFE000003FFE0007FF80007FC0007FFFFE0003FC
310
0007FFFFE0003FF8000001FFFE0000007FFFFFF0001FFFFFFF0001FFFFFFC000
310
7FFF0001FFFFFFC0007FFF0003FFFFFFFFF0003FFFFF0001F000E0003FFFFE00
310
03FF0003FFF000003FFE0003FF80007FC0007FFFFC0003FE0007FFFFE0003FF8
310
000001FFFE0000007FFFFFF0001FFFFFFF0000FFFFFF80007FFF0000FFFFFF80
310
007FFF0003FFFFFFFFF0003FFFFF0001F000E0003FFFFE0003FF0003FFF00000
310
3FFF0003FF80007FC0007FFFFC0007FE0007FFFFC0003FF8000001FFFE000000
310
7FFFFFF0001FFFFFFF80007FFFFF0000FFFF80007FFFFF0000FFFF0003FFFFFF
310
FFF0003FFFFF0003F000E0003FFFFC0003FE0003FFF000003FFF0003FF80007F
310
E0003FFFF80007FE0003FFFFC0007FF8000001FFFE0000007FFFFFF0001FFFFF
310
FF80003FFFFE0000FFFF80003FFFFE0000FFFF0003FFFFFFFFF0001FFFFE0003
310
F000F0001FFFF80003FE0003FFF000007FFF0001FF80007FE0003FFFF00007FE
310
0001FFFF80007FF8000001FFFE0000007FFFFFF0001FFFFFFFC0000FFFF80001
310
FFFFC0000FFFF80001FFFF0003FFFFFFFFF0001FFFFC0003F000F0000FFFF000
310
07FE0007FFF800007FFF0001FF80007FE0001FFFE00007FF0000FFFE00007FF8
310
000001FFFE0000007FFFFFF0001FFFFFFFC00003FFE00001FFFFC00003FFE000
310
01FFFF0003FFFFFFFFF8000FFFF80003F000F00003FFC00007FC0007FFF80000
310
7FFF8001FF80007FF00007FF80000FFF00007FF80000FFF8000001FFFE000000
310
7F80000000000001FFE000003E000003FFFFE000003E000003FFFF0003FFFFFF
310
FFF80003FFE00007F000F800000000000FFC0007FFF800007FFF8001FF80007F
310
F000000000000FFF000000000000FFF8000001FFFE0000007F80000000000001
310
FFF0000000000007FFFFF0000000000007FFFF0003FFFFFFFFFC00007E000007
310
F000F800000000000FFC0007FFF80000FFFF8000FF80007FF800000000001FFF
310
800000000001FFF8000001FFFE0000007F80000000000001FFF800000000000F
310
FFFFF800000000000FFFFF0003FFFFFFFFFC00000000000FF000FC0000000000
310
1FFC0007FFFC0000FFFF8000FF80007FF800000000003FFFC00000000001FFF8
310
000001FFFE0000007F80000000000001FFF800000000000FFFFFF80000000000
310
0FFFFF0003FFFFFFFFFE00000000001FF000FE00000000003FF8000FFFFC0000
310
FFFF8000FF80007FFC00000000003FFFC00000000003FFF8000001FFFE000000
310
7F80000000000001FFFC00000000001FFFFFFC00000000001FFFFF0003FFFFFF
310
FFFF00000000001FF000FF00000000003FF8000FFFFC0000FFFFC000FF80007F
310
FE00000000007FFFE00000000007FFF8000001FFFE0000007F80000000000001
310
FFFE00000000003FFFFFFE00000000003FFFFF0003FFFFFFFFFF80000000003F
310
F000FF80000000007FF8000FFFFC0001FFFFC0007F80007FFF0000000000FFFF
310
F0000000000FFFF800000000000000007F80000000000001FFFF8000000000FF
310
FFFFFF8000000000FFFFFF0003FFFFFFFFFFC0000000007FF000FFC000000000
310
FFF8000FFFFE0001FFFFC0007F80007FFF8000000001FFFFF8000000001FFFF8
310
00000000000000007F80000000000001FFFFC000000001FFFFFFFFC000000001
310
FFFFFF0003FFFFFFFFFFE000000000FFF000FFE000000003FFF0001FFFFE0001
310
FFFFC0007F80007FFFC000000007FFFFFE000000003FFFF80000000000000000
310
7F80000000000001FFFFE000000003FFFFFFFFE000000003FFFFFF0003FFFFFF
310
FFFFF000000003FFF000FFF80000000FFFF0001FFFFE0001FFFFE0007F80007F
310
FFF00000000FFFFFFF00000000FFFFF800000000000000007F80000000000001
310
FFFFF80000000FFFFFFFFFF80000000FFFFFFF0003FFFFFFFFFFFC0000000FFF
310
F000FFFE0000003FFFF0001FFFFE0003FFFFE0003F80007FFFFC0000003FFFFF
310
FFC0000003FFFFF800000000000000007F80000000000001FFFFFE0000003FFF
310
FFFFFFFE0000003FFFFFFF0003FFFFFFFFFFFF0000003FFFF000FFFF800000FF
310
FFF0001FFFFF0003FFFFE0003F80007FFFFF000001FFFFFFFFF800001FFFFFF8
310
00000000000000007F80000000000001FFFFFFC00001FFFFFFFFFFFFC00001FF
310
FFFFFF0003FFFFFFFFFFFFC00000FFFFF000FFFFF8000FFFFFFFFFFFFFFFFFFF
310
FFFFFFFFFFFFFFFFFFFFF0001FFFFFFFFFFF0000FFFFFFF80000000000000000
310
7FFFFFFFFFFFFFFFFFFFFFFC001FFFFFFFFFFFFFFC001FFFFFFFFFFFFFFFFFFF
310
FFFFFFFC001FFFFFF000FFFFFFFFFFFFFFFFFFFFFFFFFFFFFFFFFFFFFFFFFFFF
310
FFFFFFFFFFFFFFFFFFFFFFFFFFFFFFFFFFFFFFFFFFFFFFFFFFFFFFFFFFFFFFFF
310
FFFFFFFFFFFFFFFFFFFFFFFFFFFFFFFFFFFFFFFFFFFFFFFFFFFFFFFFFFFFFFFF
310
F000FFFFFFFFFFFFFFFFFFFFFFFFFFFFFFFFFFFFFFFFFFFFFFFFFFFFFFFFFFFF
310
FFFFFFFFFFFFFFFFFFFFFFFFFFFFFFFFFFFFFFFFFFFFFFFFFFFFFFFFFFFFFFFF
310
FFFFFFFFFFFFFFFFFFFFFFFFFFFFFFFFFFFFFFFFFFFFFFFFF000FFFFFFFFFFFF
310
FFFFFFFFFFFFFFFFFFFFFFFFFFFFFFFFFFFFFFFFFFFFFFFFFFFFFFFFFFFFFFFF
310
FFFFFFFFFFFFFFFFFFFFFFFFFFFFFFFFFFFFFFFFFFFFFFFFFFFFFFFFFFFFFFFF
310
FFFFFFFFFFFFFFFFFFFFFFFFFFFFFFFFF000FFFFFFFFFFFFFFFFFFFFFFFFFFFF
310
FFFFFFFFFFFFFFFFFFFFFFFFFFFFFFFFFFFFFFFFFFFFFFFFFFFFFFFFFFFFFFFF
310
FFFFFFFFFFFFFFFFFFFFFFFFFFFFFFFFFFFFFFFFFFFFFFFFFFFFFFFFFFFFFFFF
310
FFFFFFFFFFFFFFFFF000FFFFFFFFFFFFFFFFFFFFFFFFFFFFFFFFFFFFFFFFFFFF
310
FFFFFFFFFFFFFFFFFFFFFFFFFFFFFFFFFFFFFFFFFFFFFFFFFFFFFFFFFFFFFFFF
310
FFFFFFFFFFFFFFFFFFFFFFFFFFFFFFFFFFFFFFFFFFFFFFFFFFFFFFFFFFFFFFFF
310
F000FFFFFFFFFFFFFFFFFFFFFFFFFFFFFFFFFFFFFFFFFFFFFFFFFFFFFFFFFFFF
310
FFFFFFFFFFFFFFFFFFFFFFFFFFFFFFFFFFFFFFFFFFFFFFFFFFFFFFFFFFFFFFFF
310
FFFFFFFFFFFFFFFFFFFFFFFFFFFFFFFFFFFFFFFFFFFFFFFFF000FFFFFFFFFFFF
310
FFFFFFFFFFFFFFFFFFFFFFFFFFFFFFFFFFFFFFFFFFFFFFFFFFFFFFFFFFFFFFFF
310
FFFFFFFFFFFFFFFFFFFFFFFFFFFFFFFFFFFFFFFFFFFFFFFFFFFFFFFFFFFFFFFF
310
FFFFFFFFFFFFFFFFFFFFFFFFFFFFFFFFF000FFFFFFFFFFFFFFFFFFFFFFFFFFFF
310
FFFFFFFFFFFFFFFFFFFFFFFFFFFFFFFFFFFFFFFFFFFFFFFFFFFFFFFFFFFFFFFF
310
FFFFFFFFFFFFFFFFFFFFFFFFFFFFFFFFFFFFFFFFFFFFFFFFFFFFFFFFFFFFFFFF
310
FFFFFFFFFFFFFFFFF000FFFFFFFFFFFFFFFFFFFFFFFFFFFFFFFFFFFFFFFFFFFF
310
FFFFFFFFFFFFFFFFFFFFFFFFFFFFFFFFFFFFFFFFFFFFFFFFFFFFFFFFFFFFFFFF
310
FFFFFFFFFFFFFFFFFFFFFFFFFFFFFFFFFFFFFFFFFFFFFFFFFFFFFFFFFFFFFFFF
310
F000FFFFFFFFFFFFFFFFFFFFFFFFFFFFFFFFFFFFFFFFFFFFFFFFFFFFFFFFFFFF
310
FFFFFFFFFFFFFFFFFFFFFFFFFFFFFFFFFFFFFFFFFFFFFFFFFFFFFFFFFFFFFFFF
310
FFFFFFFFFFFFFFFFFFFFFFFFFFFFFFFFFFFFFFFFFFFFFFFFF000FFFFFFFFFFFF
310
FFFFFFFFFFFFFFFFFFFFFFFFFFFFFFFFFFFFFFFFFFFFFFFFFFFFFFFFFFFFFFFF
310
FFFFFFFFFFFFFFFFFFFFFFFFFFFFFFFFFFFFFFFFFFFFFFFFFFFFFFFFFFFFFFFF
310
FFFFFFFFFFFFFFFFFFFFFFFFFFFFFFFFF000FFFFFFFFFFFFFFFFFFFFFFFFFFFF
310
FFFFFFFFFFFFFFFFFFFFFFFFFFFFFFFFFFFFFFFFFFFFFFFFFFFFFFFFFFFFFFFF
310
FFFFFFFFFFFFFFFFFFFFFFFFFFFFFFFFFFFFFFFFFFFFFFFFFFFFFFFFFFFFFFFF
310
FFFFFFFFFFFFFFFFF000FFFFFFFFFFFFFFFFFFFFFFFFFFFFFFFFFFFFFFFFFFFF
310
FFFFFFFFFFFFFFFFFFFFFFFFFFFFFFFFFFFFFFFFFFFFFFFFFFFFFFFFFFFFFFFF
310
FFFFFFFFFFFFFFFFFFFFFFFFFFFFFFFFFFFFFFFFFFFFFFFFFFFFFFFFFFFFFFFF
310
F000FFFFFFFFFFFFFFFFFFFFFFFFFFFFFFFFFFFFFFFFFFFFFFFFFFFFFFFFFFFF
310
FFFFFFFFFFFFFFFFFFFFFFFFFFFFFFFFFFFFFFFFFFFFFFFFFFFFFFFFFFFFFFFF
310
FFFFFFFFFFFFFFFFFFFFFFFFFFFFFFFFFFFFFFFFFFFFFFFFF000FFFFFFFFFFFF
310
FFFFFFFFFFFFFFFFFFFFFFFFFFFFFFFFFFFFFFFFFFFFFFFFFFFFFFFFFFFFFFFF
310
FFFFFFFFFFFFFFFFFFFFFFFFFFFFFFFFFFFFFFFFFFFFFFFFFFFFFFFFFFFFFFFF
310
FFFFFFFFFFFFFFFFFFFFFFFFFFFFFFFFF000FFFFFFFFFFFFFFFFFFFFFFFFFFFF
310
FFFFFFFFFFFFFFFFFFFFFFFFFFFFFFFFFFFFFFFFFFFFFFFFFFFFFFFFFFFFFFFF
310
FFFFFFFFFFFFFFFFFFFFFFFFFFFFFFFFFFFFFFFFFFFFFFFFFFFFFFFFFFFFFFFF
310
FFFFFFFFFFFFFFFFF000FFFFFFFFFFFFFFFFFFFFFFFFFFFFFFFFFFFFFFFFFFFF
310
FFFFFFFFFFFFFFFFFFFFFFFFFFFFFFFFFFFFFFFFFFFFFFFFFFFFFFFFFFFFFFFF
310
FFFFFFFFFFFFFFFFFFFFFFFFFFFFFFFFFFFFFFFFFFFFFFFFFFFFFFFFFFFFFFFF
310
F000FFFFFFFFFFFFFFFFFFFFFFFFFFFFFFFFFFFFFFFFFFFFFFFFFFFFFFFFFFFF
310
FFFFFFFFFFFFFFFFFFFFFFFFFFFFFFFFFFFFFFFFFFFFFFFFFFFFFFFFFFFFFFFF
310
FFFFFFFFFFFFFFFFFFFFFFFFFFFFFFFFFFFFFFFFFFFFFFFFF000FFFFFFFFFFFF
310
FFFFFFFFFFFFFFFFFFFFFFFFFFFFFFFFFFFFFFFFFFFFFFFFFFFFFFFFFFFFFFFF
310
FFFFFFFFFFFFFFFFFFFFFFFFFFFFFFFFFFFFFFFFFFFFFFFFFFFFFFFFFFFFFFFF
310
FFFFFFFFFFFFFFFFFFFFFFFFFFFFFFFFF000FFFFFFFFFFFFFFFFFFFFFFFFFFFF
310
FFFFFFFFFFFFFFFFFFFFFFFFFFFFFFFFFFFFFFFFFFFFFFFFFFFFFFFFFFFFFFFF
310
FFFFFFFFFFFFFFFFFFFFFFFFFFFFFFFFFFFFFFFFFFFFFFFFFFFFFFFFFFFFFFFF
310
FFFFFFFFFFFFFFFFF000FFFFFFFFFFFFFFFFFFFFFFFFFFFFFFFFFFFFFFFFFFFF
310
FFFFFFFFFFFFFFFFFFFFFFFFFFFFFFFFFFFFFFFFFFFFFFFFFFFFFFFFFFFFFFFF
310
FFFFFFFFFFFFFFFFFFFFFFFFFFFFFFFFFFFFFFFFFFFFFFFFFFFFFFFFFFFFFFFF
310
F000FFFFFFFFFFFFFFFFFFFFFFFFFFFFFFFFFFFFFFFFFFFFFFFFFFFFFFFFFFFF
310
FFFFFFFFFFFFFFFFFFFFFFFFFFFFFFFFFFFFFFFFFFFFFFFFFFFFFFFFFFFFFFFF
310
FFFFFFFFFFFFFFFFFFFFFFFFFFFFFFFFFFFFFFFFFFFFFFFFF000FFFFFFFFFFFF
310
FFFFFFFFFFFFFFFFFFFFFFFFFFFFFFFFFFFFFFFFFFFFFFFFFFFFFFFFFFFFFFFF
310
FFFFFFFFFFFFFFFFFFFFFFFFFFFFFFFFFFFFFFFFFFFFFFFFFFFFFFFFFFFFFFFF
310
FFFFFFFFFFFFFFFFFFFFFFFFFFFFFFFFF0000000000000000000000000000000
310
0000000000000000000000000000000000000000000000000000000000000000
310
0000000000000000000000000000000000000000000000000000000000000000
310
0000000000000000000000000000000000000000000000000000000000000000
310
0000000000000000000000000000000000000000000000000000000000000000
310
0000000000000000000000000000000000000000000000000000000000000000
310
0000000000000000000000000000000000000000000000000000000000000000
310
0000000000000000000000000000000000000000000000000000000000000000
310
0000000000000000000000000000000000000000000000000000000000000000
310
0000000000000000000000000000000000000000000000000000000000000000
310
0000000000000000000000000000000000000000000000000000000000000000
310
0000000000000000000000000000000000000000000000000000000000000000
310
0000000000000000000000000000000000000000000000000000000000000000
310
0000000000000000000000000000000000000000000000000000000000000000
310
0000000000000000000000000000000000000000000000000000000000000000
310
0000000000000000000000000000000000000000000000000000000000000000
  1
OLE
  0
ENDSEC
  0
SECTION
  2
OBJECTS
  0
DICTIONARY
  5
C
330
0
100
AcDbDictionary
281
     1
  3
ACAD_GROUP
350
D
  3
ACAD_LAYOUT
350
1A
  3
ACAD_MLINESTYLE
350
17
  3
ACAD_PLOTSETTINGS
350
19
  3
ACAD_PLOTSTYLENAME
350
E
  3
ACAD_SCALELIST
350
47
  0
DICTIONARY
  5
D
102
{ACAD_REACTORS
330
C
102
}
330
C
100
AcDbDictionary
281
     1
  0
DICTIONARY
  5
1A
102
{ACAD_REACTORS
330
C
102
}
330
C
100
AcDbDictionary
281
     1
  3
Layout1
350
1E
  3
Layout2
350
26
  3
Model
350
22
  0
DICTIONARY
  5
17
102
{ACAD_REACTORS
330
C
102
}
330
C
100
AcDbDictionary
281
     1
  3
Standard
350
18
  0
DICTIONARY
  5
19
102
{ACAD_REACTORS
330
C
102
}
330
C
100
AcDbDictionary
281
     1
  0
ACDBDICTIONARYWDFLT
  5
E
102
{ACAD_REACTORS
330
C
102
}
330
C
100
AcDbDictionary
281
     1
  3
Normal
350
F
100
AcDbDictionaryWithDefault
340
F
  0
DICTIONARY
  5
47
102
{ACAD_REACTORS
330
C
102
}
330
C
100
AcDbDictionary
281
     1
  3
A0
350
48
  3
A1
350
49
  3
A2
350
4A
  3
A3
350
4B
  3
A4
350
4C
  3
A5
350
4D
  3
A6
350
4E
  3
A7
350
4F
  3
A8
350
50
  3
A9
350
51
  3
B0
350
52
  3
B1
350
53
  3
B2
350
54
  3
B3
350
55
  3
B4
350
56
  3
B5
350
57
  3
B6
350
58
  3
B7
350
59
  3
B8
350
5A
  3
B9
350
5B
  3
C0
350
5C
  3
C1
350
5D
  3
C2
350
5E
  3
C3
350
5F
  3
C4
350
60
  3
C5
350
61
  3
C6
350
62
  3
C7
350
63
  3
C8
350
64
  3
C9
350
65
  3
D0
350
66
  3
D1
350
67
  3
D2
350
68
  0
LAYOUT
  5
1E
102
{ACAD_REACTORS
330
1A
102
}
330
1A
100
AcDbPlotSettings
  1

  2
none_device
  4

  6

 40
0.0
 41
0.0
 42
0.0
 43
0.0
 44
0.0
 45
0.0
 46
0.0
 47
0.0
 48
0.0
 49
0.0
140
0.0
141
0.0
142
1.0
143
1.0
 70
   688
 72
     1
 73
     0
 74
     5
  7

 75
    16
147
1.0
148
0.0
149
0.0
100
AcDbLayout
  1
Layout1
 70
     1
 71
     1
 10
0.0
 20
0.0
 11
420.0
 21
297.0
 12
0.0
 22
0.0
 32
0.0
 14
1.0000000000E+20
 24
1.0000000000E+20
 34
1.0000000000E+20
 15
-1.0000000000E+20
 25
-1.0000000000E+20
 35
-1.0000000000E+20
146
0.0
 13
0.0
 23
0.0
 33
0.0
 16
1.0
 26
0.0
 36
0.0
 17
0.0
 27
1.0
 37
0.0
 76
     0
330
1B
  0
LAYOUT
  5
26
102
{ACAD_REACTORS
330
1A
102
}
330
1A
100
AcDbPlotSettings
  1

  2
none_device
  4

  6

 40
0.0
 41
0.0
 42
0.0
 43
0.0
 44
0.0
 45
0.0
 46
0.0
 47
0.0
 48
0.0
 49
0.0
140
0.0
141
0.0
142
1.0
143
1.0
 70
   688
 72
     1
 73
     0
 74
     5
  7

 75
    16
147
1.0
148
0.0
149
0.0
100
AcDbLayout
  1
Layout2
 70
     1
 71
     2
 10
0.0
 20
0.0
 11
0.0
 21
0.0
 12
0.0
 22
0.0
 32
0.0
 14
0.0
 24
0.0
 34
0.0
 15
0.0
 25
0.0
 35
0.0
146
0.0
 13
0.0
 23
0.0
 33
0.0
 16
1.0
 26
0.0
 36
0.0
 17
0.0
 27
1.0
 37
0.0
 76
     0
330
23
  0
LAYOUT
  5
22
102
{ACAD_REACTORS
330
1A
102
}
330
1A
100
AcDbPlotSettings
  1

  2
none_device
  4
Letter_(8.50_x_11.00_Inches)
  6

 40
6.35
 41
6.35
 42
6.35000508
 43
6.35000508
 44
215.9
 45
279.4
 46
0.0
 47
0.0
 48
0.0
 49
0.0
140
0.0
141
0.0
142
1.0
143
1.0
 70
  1712
 72
     1
 73
     0
 74
     0
  7

 75
     0
147
1.0
148
0.0
149
0.0
100
AcDbLayout
  1
Model
 70
     1
 71
     0
 10
0.0
 20
0.0
 11
297.0
 21
210.0
 12
0.0
 22
0.0
 32
0.0
 14
0.0
 24
0.0
 34
0.0
 15
297.0
 25
210.0
 35
0.0
146
0.0
 13
0.0
 23
0.0
 33
0.0
 16
1.0
 26
0.0
 36
0.0
 17
0.0
 27
1.0
 37
0.0
 76
     0
330
1F
331
29
  0
MLINESTYLE
  5
18
102
{ACAD_REACTORS
330
17
102
}
330
17
100
AcDbMlineStyle
  2
Standard
 70
     0
  3

 62
   256
 51
90.0
 52
90.0
 71
     2
 49
0.5
 62
   256
  6
BYLAYER
 49
-0.5
 62
   256
  6
BYLAYER
  0
ACDBPLACEHOLDER
  5
F
102
{ACAD_REACTORS
330
E
102
}
330
E
  0
SCALE
  5
48
102
{ACAD_REACTORS
330
47
102
}
330
47
100
AcDbScale
 70
     0
300
1:1
140
1.0
141
1.0
290
     1
  0
SCALE
  5
49
102
{ACAD_REACTORS
330
47
102
}
330
47
100
AcDbScale
 70
     0
300
1:2
140
1.0
141
2.0
290
     0
  0
SCALE
  5
4A
102
{ACAD_REACTORS
330
47
102
}
330
47
100
AcDbScale
 70
     0
300
1:4
140
1.0
141
4.0
290
     0
  0
SCALE
  5
4B
102
{ACAD_REACTORS
330
47
102
}
330
47
100
AcDbScale
 70
     0
300
1:5
140
1.0
141
5.0
290
     0
  0
SCALE
  5
4C
102
{ACAD_REACTORS
330
47
102
}
330
47
100
AcDbScale
 70
     0
300
1:8
140
1.0
141
8.0
290
     0
  0
SCALE
  5
4D
102
{ACAD_REACTORS
330
47
102
}
330
47
100
AcDbScale
 70
     0
300
1:10
140
1.0
141
10.0
290
     0
  0
SCALE
  5
4E
102
{ACAD_REACTORS
330
47
102
}
330
47
100
AcDbScale
 70
     0
300
1:16
140
1.0
141
16.0
290
     0
  0
SCALE
  5
4F
102
{ACAD_REACTORS
330
47
102
}
330
47
100
AcDbScale
 70
     0
300
1:20
140
1.0
141
20.0
290
     0
  0
SCALE
  5
50
102
{ACAD_REACTORS
330
47
102
}
330
47
100
AcDbScale
 70
     0
300
1:30
140
1.0
141
30.0
290
     0
  0
SCALE
  5
51
102
{ACAD_REACTORS
330
47
102
}
330
47
100
AcDbScale
 70
     0
300
1:40
140
1.0
141
40.0
290
     0
  0
SCALE
  5
52
102
{ACAD_REACTORS
330
47
102
}
330
47
100
AcDbScale
 70
     0
300
1:50
140
1.0
141
50.0
290
     0
  0
SCALE
  5
53
102
{ACAD_REACTORS
330
47
102
}
330
47
100
AcDbScale
 70
     0
300
1:100
140
1.0
141
100.0
290
     0
  0
SCALE
  5
54
102
{ACAD_REACTORS
330
47
102
}
330
47
100
AcDbScale
 70
     0
300
2:1
140
2.0
141
1.0
290
     0
  0
SCALE
  5
55
102
{ACAD_REACTORS
330
47
102
}
330
47
100
AcDbScale
 70
     0
300
4:1
140
4.0
141
1.0
290
     0
  0
SCALE
  5
56
102
{ACAD_REACTORS
330
47
102
}
330
47
100
AcDbScale
 70
     0
300
8:1
140
8.0
141
1.0
290
     0
  0
SCALE
  5
57
102
{ACAD_REACTORS
330
47
102
}
330
47
100
AcDbScale
 70
     0
300
10:1
140
10.0
141
1.0
290
     0
  0
SCALE
  5
58
102
{ACAD_REACTORS
330
47
102
}
330
47
100
AcDbScale
 70
     0
300
100:1
140
100.0
141
1.0
290
     0
  0
SCALE
  5
59
102
{ACAD_REACTORS
330
47
102
}
330
47
100
AcDbScale
 70
     0
300
1/128" = 1'-0"
140
0.0078125
141
12.0
290
     0
  0
SCALE
  5
5A
102
{ACAD_REACTORS
330
47
102
}
330
47
100
AcDbScale
 70
     0
300
1/64" = 1'-0"
140
0.015625
141
12.0
290
     0
  0
SCALE
  5
5B
102
{ACAD_REACTORS
330
47
102
}
330
47
100
AcDbScale
 70
     0
300
1/32" = 1'-0"
140
0.03125
141
12.0
290
     0
  0
SCALE
  5
5C
102
{ACAD_REACTORS
330
47
102
}
330
47
100
AcDbScale
 70
     0
300
1/16" = 1'-0"
140
0.0625
141
12.0
290
     0
  0
SCALE
  5
5D
102
{ACAD_REACTORS
330
47
102
}
330
47
100
AcDbScale
 70
     0
300
3/32" = 1'-0"
140
0.09375
141
12.0
290
     0
  0
SCALE
  5
5E
102
{ACAD_REACTORS
330
47
102
}
330
47
100
AcDbScale
 70
     0
300
1/8" = 1'-0"
140
0.125
141
12.0
290
     0
  0
SCALE
  5
5F
102
{ACAD_REACTORS
330
47
102
}
330
47
100
AcDbScale
 70
     0
300
3/16" = 1'-0"
140
0.1875
141
12.0
290
     0
  0
SCALE
  5
60
102
{ACAD_REACTORS
330
47
102
}
330
47
100
AcDbScale
 70
     0
300
1/4" = 1'-0"
140
0.25
141
12.0
290
     0
  0
SCALE
  5
61
102
{ACAD_REACTORS
330
47
102
}
330
47
100
AcDbScale
 70
     0
300
3/8" = 1'-0"
140
0.375
141
12.0
290
     0
  0
SCALE
  5
62
102
{ACAD_REACTORS
330
47
102
}
330
47
100
AcDbScale
 70
     0
300
1/2" = 1'-0"
140
0.5
141
12.0
290
     0
  0
SCALE
  5
63
102
{ACAD_REACTORS
330
47
102
}
330
47
100
AcDbScale
 70
     0
300
3/4" = 1'-0"
140
0.75
141
12.0
290
     0
  0
SCALE
  5
64
102
{ACAD_REACTORS
330
47
102
}
330
47
100
AcDbScale
 70
     0
300
1" = 1'-0"
140
1.0
141
12.0
290
     0
  0
SCALE
  5
65
102
{ACAD_REACTORS
330
47
102
}
330
47
100
AcDbScale
 70
     0
300
1-1/2" = 1'-0"
140
1.5
141
12.0
290
     0
  0
SCALE
  5
66
102
{ACAD_REACTORS
330
47
102
}
330
47
100
AcDbScale
 70
     0
300
3" = 1'-0"
140
3.0
141
12.0
290
     0
  0
SCALE
  5
67
102
{ACAD_REACTORS
330
47
102
}
330
47
100
AcDbScale
 70
     0
300
6" = 1'-0"
140
6.0
141
12.0
290
     0
  0
SCALE
  5
68
102
{ACAD_REACTORS
330
47
102
}
330
47
100
AcDbScale
 70
     0
300
1'-0" = 1'-0"
140
12.0
141
12.0
290
     0
  0
ENDSEC
  0
EOF
