  0
SECTION
  2
HEADER
  9
$ACADVER
  1
AC1015
  9
$ACADMAINTVER
 70
     6
  9
$DWGCODEPAGE
  3
ANSI_1252
  9
$INSBASE
 10
0.0
 20
0.0
 30
0.0
  9
$EXTMIN
 10
0.0
 20
0.0
 30
0.0
  9
$EXTMAX
 10
297.0
 20
210.0
 30
0.0
  9
$LIMMIN
 10
0.0
 20
0.0
  9
$LIMMAX
 10
297.0
 20
210.0
  9
$ORTHOMODE
 70
     0
  9
$REGENMODE
 70
     1
  9
$FILLMODE
 70
     1
  9
$QTEXTMODE
 70
     0
  9
$MIRRTEXT
 70
     1
  9
$LTSCALE
 40
1.0
  9
$ATTMODE
 70
     1
  9
$TEXTSIZE
 40
2.0
  9
$TRACEWID
 40
1.0
  9
$TEXTSTYLE
  7
Standard
  9
$CLAYER
  8
0
  9
$CELTYPE
  6
ByLayer
  9
$CECOLOR
 62
   256
  9
$CELTSCALE
 40
1.0
  9
$DISPSILH
 70
     0
  9
$DIMSCALE
 40
1.0
  9
$DIMASZ
 40
3.0
  9
$DIMEXO
 40
0.0
  9
$DIMDLI
 40
3.75
  9
$DIMRND
 40
0.0
  9
$DIMDLE
 40
0.0
  9
$DIMEXE
 40
1.0
  9
$DIMTP
 40
0.0
  9
$DIMTM
 40
0.0
  9
$DIMTXT
 40
2.0
  9
$DIMCEN
 40
2.5
  9
$DIMTSZ
 40
0.0
  9
$DIMTOL
 70
     0
  9
$DIMLIM
 70
     0
  9
$DIMTIH
 70
     1
  9
$DIMTOH
 70
     1
  9
$DIMSE1
 70
     0
  9
$DIMSE2
 70
     0
  9
$DIMTAD
 70
     1
  9
$DIMZIN
 70
     0
  9
$DIMBLK
  1

  9
$DIMASO
 70
     1
  9
$DIMSHO
 70
     1
  9
$DIMPOST
  1

  9
$DIMAPOST
  1

  9
$DIMALT
 70
     0
  9
$DIMALTD
 70
     3
  9
$DIMALTF
 40
0.0393700787
  9
$DIMLFAC
 40
1.0
  9
$DIMTOFL
 70
     1
  9
$DIMTVP
 40
0.0
  9
$DIMTIX
 70
     0
  9
$DIMSOXD
 70
     0
  9
$DIMSAH
 70
     0
  9
$DIMBLK1
  1

  9
$DIMBLK2
  1

  9
$DIMSTYLE
  2
ISO-25
  9
$DIMCLRD
 70
     0
  9
$DIMCLRE
 70
     0
  9
$DIMCLRT
 70
     0
  9
$DIMTFAC
 40
1.0
  9
$DIMGAP
 40
1.524
  9
$DIMJUST
 70
     0
  9
$DIMSD1
 70
     0
  9
$DIMSD2
 70
     0
  9
$DIMTOLJ
 70
     0
  9
$DIMTZIN
 70
     0
  9
$DIMALTZ
 70
     0
  9
$DIMALTTZ
 70
     0
  9
$DIMUPT
 70
     0
  9
$DIMDEC
 70
     2
  9
$DIMTDEC
 70
     3
  9
$DIMALTU
 70
     2
  9
$DIMALTTD
 70
     3
  9
$DIMTXSTY
  7
Standard
  9
$DIMAUNIT
 70
     0
  9
$DIMADEC
 70
     2
  9
$DIMALTRND
 40
0.0
  9
$DIMAZIN
 70
     0
  9
$DIMDSEP
 70
    44
  9
$DIMATFIT
 70
     3
  9
$DIMFRAC
 70
     0
  9
$DIMLDRBLK
  1

  9
$DIMLUNIT
 70
     2
  9
$DIMLWD
 70
    -2
  9
$DIMLWE
 70
    -2
  9
$DIMTMOVE
 70
     0
  9
$LUNITS
 70
     2
  9
$LUPREC
 70
     2
  9
$SKETCHINC
 40
1.0
  9
$FILLETRAD
 40
10.0
  9
$AUNITS
 70
     0
  9
$AUPREC
 70
     2
  9
$MENU
  1
.
  9
$ELEVATION
 40
0.0
  9
$PELEVATION
 40
0.0
  9
$THICKNESS
 40
0.0
  9
$LIMCHECK
 70
     0
  9
$CHAMFERA
 40
0.0
  9
$CHAMFERB
 40
0.0
  9
$CHAMFERC
 40
0.0
  9
$CHAMFERD
 40
0.0
  9
$SKPOLY
 70
     0
  9
$TDCREATE
 40
2457669.511220926
  9
$TDUCREATE
 40
2457669.427887592
  9
$TDUPDATE
 40
2457669.511222049
  9
$TDUUPDATE
 40
2457669.427888715
  9
$TDINDWG
 40
0.0000000116
  9
$TDUSRTIMER
 40
0.0000000116
  9
$USRTIMER
 70
     1
  9
$ANGBASE
 50
0.0
  9
$ANGDIR
 70
     0
  9
$PDMODE
 70
     0
  9
$PDSIZE
 40
-1.0
  9
$PLINEWID
 40
0.0
  9
$SPLFRAME
 70
     0
  9
$SPLINETYPE
 70
     6
  9
$SPLINESEGS
 70
     8
  9
$HANDSEED
  5
1E5
  9
$SURFTAB1
 70
     6
  9
$SURFTAB2
 70
     6
  9
$SURFTYPE
 70
     6
  9
$SURFU
 70
     6
  9
$SURFV
 70
     6
  9
$UCSBASE
  2

  9
$UCSNAME
  2

  9
$UCSORG
 10
0.0
 20
0.0
 30
0.0
  9
$UCSXDIR
 10
1.0
 20
0.0
 30
0.0
  9
$UCSYDIR
 10
0.0
 20
1.0
 30
0.0
  9
$UCSORTHOREF
  2

  9
$UCSORTHOVIEW
 70
     0
  9
$UCSORGTOP
 10
0.0
 20
0.0
 30
0.0
  9
$UCSORGBOTTOM
 10
0.0
 20
0.0
 30
0.0
  9
$UCSORGLEFT
 10
0.0
 20
0.0
 30
0.0
  9
$UCSORGRIGHT
 10
0.0
 20
0.0
 30
0.0
  9
$UCSORGFRONT
 10
0.0
 20
0.0
 30
0.0
  9
$UCSORGBACK
 10
0.0
 20
0.0
 30
0.0
  9
$PUCSBASE
  2

  9
$PUCSNAME
  2

  9
$PUCSORG
 10
0.0
 20
0.0
 30
0.0
  9
$PUCSXDIR
 10
1.0
 20
0.0
 30
0.0
  9
$PUCSYDIR
 10
0.0
 20
1.0
 30
0.0
  9
$PUCSORTHOREF
  2

  9
$PUCSORTHOVIEW
 70
     0
  9
$PUCSORGTOP
 10
0.0
 20
0.0
 30
0.0
  9
$PUCSORGBOTTOM
 10
0.0
 20
0.0
 30
0.0
  9
$PUCSORGLEFT
 10
0.0
 20
0.0
 30
0.0
  9
$PUCSORGRIGHT
 10
0.0
 20
0.0
 30
0.0
  9
$PUCSORGFRONT
 10
0.0
 20
0.0
 30
0.0
  9
$PUCSORGBACK
 10
0.0
 20
0.0
 30
0.0
  9
$USERI1
 70
     0
  9
$USERI2
 70
     0
  9
$USERI3
 70
     0
  9
$USERI4
 70
     0
  9
$USERI5
 70
     0
  9
$USERR1
 40
0.0
  9
$USERR2
 40
0.0
  9
$USERR3
 40
0.0
  9
$USERR4
 40
0.0
  9
$USERR5
 40
0.0
  9
$WORLDVIEW
 70
     1
  9
$SHADEDGE
 70
     3
  9
$SHADEDIF
 70
    70
  9
$TILEMODE
 70
     1
  9
$MAXACTVP
 70
    64
  9
$PINSBASE
 10
0.0
 20
0.0
 30
0.0
  9
$PLIMCHECK
 70
     0
  9
$PEXTMIN
 10
1.0000000000E+20
 20
1.0000000000E+20
 30
1.0000000000E+20
  9
$PEXTMAX
 10
-1.0000000000E+20
 20
-1.0000000000E+20
 30
-1.0000000000E+20
  9
$PLIMMIN
 10
0.0
 20
0.0
  9
$PLIMMAX
 10
420.0
 20
297.0
  9
$UNITMODE
 70
     0
  9
$VISRETAIN
 70
     1
  9
$PLINEGEN
 70
     0
  9
$PSLTSCALE
 70
     1
  9
$TREEDEPTH
 70
  3020
  9
$CMLSTYLE
  2
Standard
  9
$CMLJUST
 70
     0
  9
$CMLSCALE
 40
20.0
  9
$PROXYGRAPHICS
 70
     1
  9
$MEASUREMENT
 70
     1
  9
$CELWEIGHT
370
    -1
  9
$ENDCAPS
280
     0
  9
$JOINSTYLE
280
     0
  9
$LWDISPLAY
290
     1
  9
$INSUNITS
 70
     4
  9
$HYPERLINKBASE
  1

  9
$STYLESHEET
  1

  9
$XEDIT
290
     1
  9
$CEPSNTYPE
380
     0
  9
$PSTYLEMODE
290
     1
  9
$FINGERPRINTGUID
  2
{630A6EFB-8975-467F-BFA2-79920FA67701}
  9
$VERSIONGUID
  2
{FAEB1C32-E019-11D5-929B-00C0DF256EC4}
  9
$EXTNAMES
290
     1
  9
$PSVPSCALE
 40
0.0
  9
$OLESTARTUP
290
     0
  0
ENDSEC
  0
SECTION
  2
CLASSES
  0
CLASS
  1
ACDBDICTIONARYWDFLT
  2
AcDbDictionaryWithDefault
  3
ObjectDBX Classes
 90
        0
280
     0
281
     0
  0
CLASS
  1
VISUALSTYLE
  2
AcDbVisualStyle
  3
ObjectDBX Classes
 90
     4095
280
     0
281
     0
  0
CLASS
  1
MATERIAL
  2
AcDbMaterial
  3
ObjectDBX Classes
 90
     1153
280
     0
281
     0
  0
CLASS
  1
SCALE
  2
AcDbScale
  3
ObjectDBX Classes
 90
     1153
280
     0
281
     0
  0
CLASS
  1
TABLESTYLE
  2
AcDbTableStyle
  3
ObjectDBX Classes
 90
     4095
280
     0
281
     0
  0
CLASS
  1
MLEADERSTYLE
  2
AcDbMLeaderStyle
  3
ACDB_MLEADERSTYLE_CLASS
 90
     4095
280
     0
281
     0
  0
CLASS
  1
SUN
  2
AcDbSun
  3
SCENEOE
 90
     1153
280
     0
281
     0
  0
CLASS
  1
ACDBPLACEHOLDER
  2
AcDbPlaceHolder
  3
ObjectDBX Classes
 90
        0
280
     0
281
     0
  0
CLASS
  1
LAYOUT
  2
AcDbLayout
  3
ObjectDBX Classes
 90
        0
280
     0
281
     0
  0
ENDSEC
  0
SECTION
  2
TABLES
  0
TABLE
  2
VPORT
  5
8
330
0
100
AcDbSymbolTable
 70
     1
  0
VPORT
  5
29
330
8
100
AcDbSymbolTableRecord
100
AcDbViewportTableRecord
  2
*Active
 70
     0
 10
0.0
 20
0.0
 11
1.0
 21
1.0
 12
148.5
 22
105.0
 13
0.0
 23
0.0
 14
10.0
 24
10.0
 15
10.0
 25
10.0
 16
0.0
 26
0.0
 36
1.0
 17
0.0
 27
0.0
 37
0.0
 40
210.0
 41
1.4142857143
 42
50.0
 43
0.0
 44
0.0
 50
0.0
 51
0.0
 71
     0
 72
  2000
 73
     1
 74
     3
 75
     0
 76
     0
 77
     0
 78
     0
281
     0
 65
     1
110
0.0
120
0.0
130
0.0
111
1.0
121
0.0
131
0.0
112
0.0
122
1.0
132
0.0
 79
     0
146
0.0
  0
ENDTAB
  0
TABLE
  2
LTYPE
  5
5
330
0
100
AcDbSymbolTable
 70
     6
  0
LTYPE
  5
14
330
5
100
AcDbSymbolTableRecord
100
AcDbLinetypeTableRecord
  2
ByBlock
 70
     0
  3

 72
    65
 73
     0
 40
0.0
  0
LTYPE
  5
15
330
5
100
AcDbSymbolTableRecord
100
AcDbLinetypeTableRecord
  2
ByLayer
 70
     0
  3

 72
    65
 73
     0
 40
0.0
  0
LTYPE
  5
16
330
5
100
AcDbSymbolTableRecord
100
AcDbLinetypeTableRecord
  2
Continuous
 70
     0
  3
Solid line
 72
    65
 73
     0
 40
0.0
  0
LTYPE
  5
6E
330
5
100
AcDbSymbolTableRecord
100
AcDbLinetypeTableRecord
  2
HIDDEN
 70
     0
  3
Hidden __ __ __ __ __ __ __ __ __ __ __ __ __ __
 72
    65
 73
     2
 40
1.905
 49
1.27
 74
     0
 49
-0.635
 74
     0
  0
LTYPE
  5
6F
330
5
100
AcDbSymbolTableRecord
100
AcDbLinetypeTableRecord
  2
PHANTOM
 70
     0
  3
Phantom ______  __  __  ______  __  __  ______
 72
    65
 73
     6
 40
12.7
 49
6.35
 74
     0
 49
-1.27
 74
     0
 49
1.27
 74
     0
 49
-1.27
 74
     0
 49
1.27
 74
     0
 49
-1.27
 74
     0
  0
LTYPE
  5
70
330
5
100
AcDbSymbolTableRecord
100
AcDbLinetypeTableRecord
  2
CENTER
 70
     0
  3
Center ____ _ ____ _ ____ _ ____ _ ____ _ ____
 72
    65
 73
     4
 40
10.16
 49
6.35
 74
     0
 49
-1.27
 74
     0
 49
1.27
 74
     0
 49
-1.27
 74
     0
  0
LTYPE
  5
71
330
5
100
AcDbSymbolTableRecord
100
AcDbLinetypeTableRecord
  2
CENTERX2
 70
     0
  3
Center (2x) ________  __  ________  __  _____
 72
    65
 73
     4
 40
20.32
 49
12.7
 74
     0
 49
-2.54
 74
     0
 49
2.54
 74
     0
 49
-2.54
 74
     0
  0
LTYPE
  5
72
330
5
100
AcDbSymbolTableRecord
100
AcDbLinetypeTableRecord
  2
DOT2
 70
     0
  3
Dot (.5x) ........................................
 72
    65
 73
     2
 40
0.635
 49
0.0
 74
     0
 49
-0.635
 74
     0
  0
ENDTAB
  0
TABLE
  2
LAYER
  5
2
330
0
100
AcDbSymbolTable
 70
     5
  0
LAYER
  5
10
330
2
100
AcDbSymbolTableRecord
100
AcDbLayerTableRecord
  2
0
 70
     0
 62
     7
  6
Continuous
370
    -3
390
F
  0
LAYER
  5
73
330
2
100
AcDbSymbolTableRecord
100
AcDbLayerTableRecord
  2
FORMAT
 70
     0
 62
     7
  6
Continuous
370
    -3
390
F
  0
LAYER
  5
74
330
2
100
AcDbSymbolTableRecord
100
AcDbLayerTableRecord
  2
VERMASSUNG
 70
     0
 62
     7
  6
Continuous
370
    -3
390
F
  0
LAYER
  5
75
330
2
100
AcDbSymbolTableRecord
100
AcDbLayerTableRecord
  2
KOPF_DÜNN
 70
     0
 62
     7
  6
Continuous
370
    -3
390
F
  0
LAYER
  5
76
330
2
100
AcDbSymbolTableRecord
100
AcDbLayerTableRecord
  2
KOPF_DICK
 70
     0
 62
     7
  6
Continuous
370
    15
390
F
  0
ENDTAB
  0
TABLE
  2
STYLE
  5
3
330
0
100
AcDbSymbolTable
 70
     3
  0
STYLE
  5
11
330
3
100
AcDbSymbolTableRecord
100
AcDbTextStyleTableRecord
  2
Standard
 70
     0
 40
0.0
 41
1.0
 50
0.0
 71
     0
 42
2.0
  3
txt
  4

  0
STYLE
  5
77
330
3
100
AcDbSymbolTableRecord
100
AcDbTextStyleTableRecord
  2
SLDTEXTSTYLE0
 70
     0
 40
0.0
 41
0.7
 50
0.0
 71
     0
 42
2.0
  3
TXT
  4

  0
STYLE
  5
7B
330
3
100
AcDbSymbolTableRecord
100
AcDbTextStyleTableRecord
  2
SLDTEXTSTYLE1
 70
     0
 40
0.0
 41
0.6538461538
 50
0.0
 71
     0
 42
2.0
  3
TXT
  4

  0
ENDTAB
  0
TABLE
  2
VIEW
  5
6
330
0
100
AcDbSymbolTable
 70
     0
  0
ENDTAB
  0
TABLE
  2
UCS
  5
7
330
0
100
AcDbSymbolTable
 70
     0
  0
ENDTAB
  0
TABLE
  2
APPID
  5
9
330
0
100
AcDbSymbolTable
 70
     1
  0
APPID
  5
12
330
9
100
AcDbSymbolTableRecord
100
AcDbRegAppTableRecord
  2
ACAD
 70
     0
  0
ENDTAB
  0
TABLE
  2
DIMSTYLE
  5
A
330
0
100
AcDbSymbolTable
 70
     2
100
AcDbDimStyleTable
  0
DIMSTYLE
105
27
330
A
100
AcDbSymbolTableRecord
100
AcDbDimStyleTableRecord
  2
ISO-25
 70
     0
 41
2.5
 42
0.625
 43
3.75
 44
1.25
 73
     0
 74
     0
 77
     1
 78
     8
140
2.5
141
2.5
143
0.0393700787
147
0.625
171
     3
172
     1
178
     0
271
     2
272
     2
274
     3
278
    44
283
     0
284
     8
340
11
  0
DIMSTYLE
105
11A
102
{ACAD_REACTORS
330
119
330
125
330
131
330
13D
330
147
330
153
102
}
330
A
100
AcDbSymbolTableRecord
100
AcDbDimStyleTableRecord
  2
SLDDIMSTYLE0
 70
     0
 41
3.0
 44
0.0
 45
0.000000001
 73
     0
 74
     0
 77
     1
 78
    12
 79
     3
140
2.0
147
0.5
173
     1
178
     0
271
     2
272
     3
276
     2
284
    12
340
77
  0
ENDTAB
  0
TABLE
  2
BLOCK_RECORD
  5
1
330
0
100
AcDbSymbolTable
 70
     7
  0
BLOCK_RECORD
  5
1F
330
1
100
AcDbSymbolTableRecord
100
AcDbBlockTableRecord
  2
*Model_Space
340
22
  0
BLOCK_RECORD
  5
1B
330
1
100
AcDbSymbolTableRecord
100
AcDbBlockTableRecord
  2
*Paper_Space
340
1E
  0
BLOCK_RECORD
  5
23
330
1
100
AcDbSymbolTableRecord
100
AcDbBlockTableRecord
  2
*Paper_Space0
340
26
  0
BLOCK_RECORD
  5
11B
330
1
100
AcDbSymbolTableRecord
100
AcDbBlockTableRecord
  2
_D
340
0
  0
BLOCK_RECORD
  5
126
330
1
100
AcDbSymbolTableRecord
100
AcDbBlockTableRecord
  2
_D_1
340
0
  0
BLOCK_RECORD
  5
132
330
1
100
AcDbSymbolTableRecord
100
AcDbBlockTableRecord
  2
_D_2
340
0
  0
BLOCK_RECORD
  5
13E
330
1
100
AcDbSymbolTableRecord
100
AcDbBlockTableRecord
  2
_D_3
340
0
  0
BLOCK_RECORD
  5
148
330
1
100
AcDbSymbolTableRecord
100
AcDbBlockTableRecord
  2
_D_4
340
0
  0
BLOCK_RECORD
  5
154
330
1
100
AcDbSymbolTableRecord
100
AcDbBlockTableRecord
  2
_D_5
340
0
  0
ENDTAB
  0
ENDSEC
  0
SECTION
  2
BLOCKS
  0
BLOCK
  5
20
330
1F
100
AcDbEntity
  8
0
100
AcDbBlockBegin
  2
*Model_Space
 70
     0
 10
0.0
 20
0.0
 30
0.0
  3
*Model_Space
  1

  0
ENDBLK
  5
21
330
1F
100
AcDbEntity
  8
0
100
AcDbBlockEnd
  0
BLOCK
  5
1C
330
1B
100
AcDbEntity
 67
     1
  8
0
100
AcDbBlockBegin
  2
*Paper_Space
 70
     0
 10
0.0
 20
0.0
 30
0.0
  3
*Paper_Space
  1

  0
ENDBLK
  5
1D
330
1B
100
AcDbEntity
 67
     1
  8
0
100
AcDbBlockEnd
  0
BLOCK
  5
24
330
23
100
AcDbEntity
  8
0
100
AcDbBlockBegin
  2
*Paper_Space0
 70
     0
 10
0.0
 20
0.0
 30
0.0
  3
*Paper_Space0
  1

  0
ENDBLK
  5
25
330
23
100
AcDbEntity
  8
0
100
AcDbBlockEnd
  0
BLOCK
  5
11C
330
11B
100
AcDbEntity
  8
0
100
AcDbBlockBegin
  2
_D
 70
     0
 10
0.0
 20
0.0
 30
0.0
  3
_D
  1

  0
SOLID
  5
11E
330
11B
100
AcDbEntity
  8
VERMASSUNG
100
AcDbTrace
 10
208.8823690122
 20
118.1393637691
 30
0.0
 11
208.4323690122
 21
115.1393637691
 31
0.0
 12
209.3323690122
 22
115.1393637691
 32
0.0
 13
209.3323690122
 23
115.1393637691
 33
0.0
  0
SOLID
  5
11F
330
11B
100
AcDbEntity
  8
VERMASSUNG
100
AcDbTrace
 10
208.8823690122
 20
107.1393637691
 30
0.0
 11
209.3323690122
 21
110.1393637691
 31
0.0
 12
208.4323690122
 22
110.1393637691
 32
0.0
 13
208.4323690122
 23
110.1393637691
 33
0.0
  0
LINE
  5
120
330
11B
100
AcDbEntity
  8
VERMASSUNG
100
AcDbLine
 10
196.4073881695
 20
118.1393637691
 30
0.0
 11
209.8823690122
 21
118.1393637691
 31
0.0
  0
LINE
  5
121
330
11B
100
AcDbEntity
  8
VERMASSUNG
100
AcDbLine
 10
196.4073881695
 20
107.1393637691
 30
0.0
 11
209.8823690122
 21
107.1393637691
 31
0.0
  0
LINE
  5
122
330
11B
100
AcDbEntity
  8
VERMASSUNG
100
AcDbLine
 10
208.8823690122
 20
118.1393637691
 30
0.0
 11
208.8823690122
 21
107.1393637691
 31
0.0
  0
MTEXT
  5
123
330
11B
100
AcDbEntity
  8
VERMASSUNG
100
AcDbMText
 10
206.3042334745
 20
109.8355718021
 30
0.0
 40
2.0
 41
0.0
 71
     1
 72
     1
  1
%%c
  7
SLDTEXTSTYLE0
 11
-7.044195017643634E-15
 21
1.0
 31
0.0
 73
     1
 44
1.0
  0
MTEXT
  5
124
330
11B
100
AcDbEntity
  8
VERMASSUNG
100
AcDbMText
 10
206.3042334163
 20
113.4445439957
 30
0.0
 40
2.0
 41
0.0
 71
     1
 72
     1
  1
11
  7
SLDTEXTSTYLE0
 11
-7.044195017643634E-15
 21
1.0
 31
0.0
 73
     1
 44
1.0
  0
ENDBLK
  5
11D
330
11B
100
AcDbEntity
  8
0
100
AcDbBlockEnd
  0
BLOCK
  5
127
330
126
100
AcDbEntity
  8
0
100
AcDbBlockBegin
  2
_D_1
 70
     0
 10
0.0
 20
0.0
 30
0.0
  3
_D_1
  1

  0
SOLID
  5
129
330
126
100
AcDbEntity
  8
VERMASSUNG
100
AcDbTrace
 10
214.9823690122
 20
122.6393637691
 30
0.0
 11
214.5323690122
 21
119.6393637691
 31
0.0
 12
215.4323690122
 22
119.6393637691
 32
0.0
 13
215.4323690122
 23
119.6393637691
 33
0.0
  0
SOLID
  5
12A
330
126
100
AcDbEntity
  8
VERMASSUNG
100
AcDbTrace
 10
214.9823690122
 20
102.6393637691
 30
0.0
 11
215.4323690122
 21
105.6393637691
 31
0.0
 12
214.5323690122
 22
105.6393637691
 32
0.0
 13
214.5323690122
 23
105.6393637691
 33
0.0
  0
LINE
  5
12B
330
126
100
AcDbEntity
  8
VERMASSUNG
100
AcDbLine
 10
202.1073881695
 20
122.6393637691
 30
0.0
 11
215.9823690122
 21
122.6393637691
 31
0.0
  0
LINE
  5
12C
330
126
100
AcDbEntity
  8
VERMASSUNG
100
AcDbLine
 10
202.1073881695
 20
102.6393637691
 30
0.0
 11
215.9823690122
 21
102.6393637691
 31
0.0
  0
LINE
  5
12D
330
126
100
AcDbEntity
  8
VERMASSUNG
100
AcDbLine
 10
214.9823690122
 20
122.6393637691
 30
0.0
 11
214.9823690122
 21
102.6393637691
 31
0.0
  0
MTEXT
  5
12E
330
126
100
AcDbEntity
  8
VERMASSUNG
100
AcDbMText
 10
212.204233756
 20
106.7350764365
 30
0.0
 40
2.0
 41
0.0
 71
     1
 72
     1
  1
ST1
  7
SLDTEXTSTYLE0
 11
-7.044195017643634E-15
 21
1.0
 31
0.0
 73
     1
 44
1.0
  0
MTEXT
  5
12F
330
126
100
AcDbEntity
  8
VERMASSUNG
100
AcDbMText
 10
212.4042337073
 20
112.1350765766
 30
0.0
 40
2.0
 41
0.0
 71
     1
 72
     1
  1
%%c
  7
SLDTEXTSTYLE0
 11
-7.044195017643634E-15
 21
1.0
 31
0.0
 73
     1
 44
1.0
  0
MTEXT
  5
130
330
126
100
AcDbEntity
  8
VERMASSUNG
100
AcDbMText
 10
212.4042334163
 20
115.7442710812
 30
0.0
 40
2.0
 41
0.0
 71
     1
 72
     1
  1
20
  7
SLDTEXTSTYLE0
 11
-7.044195017643634E-15
 21
1.0
 31
0.0
 73
     1
 44
1.0
  0
ENDBLK
  5
128
330
126
100
AcDbEntity
  8
0
100
AcDbBlockEnd
  0
BLOCK
  5
133
330
132
100
AcDbEntity
  8
0
100
AcDbBlockBegin
  2
_D_2
 70
     0
 10
0.0
 20
0.0
 30
0.0
  3
_D_2
  1

  0
ARC
  5
135
330
132
100
AcDbEntity
  8
VERMASSUNG
100
AcDbCircle
 10
195.8196276133
 20
148.9448000477
 30
0.0
 40
4.247059938537361
100
AcDbArc
 50
153.4349488229
 51
206.5650511771
  0
ARC
  5
136
330
132
100
AcDbEntity
  8
VERMASSUNG
100
AcDbCircle
 10
193.7951487256
 20
148.9448000477
 30
0.0
 40
4.247059938537335
100
AcDbArc
 50
333.4349488229
 51
26.5650511771
  0
SOLID
  5
137
330
132
100
AcDbEntity
  8
VERMASSUNG
100
AcDbTrace
 10
187.3073881695
 20
147.0454571022
 30
0.0
 11
190.3073881695
 21
146.5954571022
 31
0.0
 12
190.3073881695
 22
147.4954571022
 32
0.0
 13
190.3073881695
 23
147.4954571022
 33
0.0
  0
SOLID
  5
138
330
132
100
AcDbEntity
  8
VERMASSUNG
100
AcDbTrace
 10
202.3073881695
 20
147.0454571022
 30
0.0
 11
199.3073881695
 21
147.4954571022
 31
0.0
 12
199.3073881695
 22
146.5954571022
 32
0.0
 13
199.3073881695
 23
146.5954571022
 33
0.0
  0
LINE
  5
139
330
132
100
AcDbEntity
  8
VERMASSUNG
100
AcDbLine
 10
187.3073881695
 20
143.1393637691
 30
0.0
 11
187.3073881695
 21
148.0454571022
 31
0.0
  0
LINE
  5
13A
330
132
100
AcDbEntity
  8
VERMASSUNG
100
AcDbLine
 10
202.3073881695
 20
122.4393637691
 30
0.0
 11
202.3073881695
 21
148.0454571022
 31
0.0
  0
LINE
  5
13B
330
132
100
AcDbEntity
  8
VERMASSUNG
100
AcDbLine
 10
187.3073881695
 20
147.0454571022
 30
0.0
 11
202.3073881695
 21
147.0454571022
 31
0.0
  0
MTEXT
  5
13C
330
132
100
AcDbEntity
  8
VERMASSUNG
100
AcDbMText
 10
193.6084417225
 20
149.6235926982
 30
0.0
 40
2.0
 41
0.0
 71
     1
 72
     1
  1
15
  7
SLDTEXTSTYLE0
 73
     1
 44
1.0
  0
ENDBLK
  5
134
330
132
100
AcDbEntity
  8
0
100
AcDbBlockEnd
  0
BLOCK
  5
13F
330
13E
100
AcDbEntity
  8
0
100
AcDbBlockBegin
  2
_D_3
 70
     0
 10
0.0
 20
0.0
 30
0.0
  3
_D_3
  1

  0
SOLID
  5
141
330
13E
100
AcDbEntity
  8
VERMASSUNG
100
AcDbTrace
 10
160.3073881695
 20
153.0454571022
 30
0.0
 11
163.3073881695
 21
152.5954571022
 31
0.0
 12
163.3073881695
 22
153.4954571022
 32
0.0
 13
163.3073881695
 23
153.4954571022
 33
0.0
  0
SOLID
  5
142
330
13E
100
AcDbEntity
  8
VERMASSUNG
100
AcDbTrace
 10
202.3073881695
 20
153.0454571022
 30
0.0
 11
199.3073881695
 21
153.4954571022
 31
0.0
 12
199.3073881695
 22
152.5954571022
 32
0.0
 13
199.3073881695
 23
152.5954571022
 33
0.0
  0
LINE
  5
143
330
13E
100
AcDbEntity
  8
VERMASSUNG
100
AcDbLine
 10
160.3073881695
 20
134.8643637691
 30
0.0
 11
160.3073881695
 21
154.0454571022
 31
0.0
  0
LINE
  5
144
330
13E
100
AcDbEntity
  8
VERMASSUNG
100
AcDbLine
 10
202.3073881695
 20
122.4393637691
 30
0.0
 11
202.3073881695
 21
154.0454571022
 31
0.0
  0
LINE
  5
145
330
13E
100
AcDbEntity
  8
VERMASSUNG
100
AcDbLine
 10
160.3073881695
 20
153.0454571022
 30
0.0
 11
202.3073881695
 21
153.0454571022
 31
0.0
  0
MTEXT
  5
146
330
13E
100
AcDbEntity
  8
VERMASSUNG
100
AcDbMText
 10
179.8084293641
 20
155.6235926982
 30
0.0
 40
2.0
 41
0.0
 71
     1
 72
     1
  1
42
  7
SLDTEXTSTYLE0
 73
     1
 44
1.0
  0
ENDBLK
  5
140
330
13E
100
AcDbEntity
  8
0
100
AcDbBlockEnd
  0
BLOCK
  5
149
330
148
100
AcDbEntity
  8
0
100
AcDbBlockBegin
  2
_D_4
 70
     0
 10
0.0
 20
0.0
 30
0.0
  3
_D_4
  1

  0
ARC
  5
14B
330
148
100
AcDbEntity
  8
VERMASSUNG
100
AcDbCircle
 10
147.819553463
 20
160.9448000477
 30
0.0
 40
4.247059938537284
100
AcDbArc
 50
153.4349488229
 51
206.5650511771
  0
ARC
  5
14C
330
148
100
AcDbEntity
  8
VERMASSUNG
100
AcDbCircle
 10
149.395222876
 20
160.9448000477
 30
0.0
 40
4.247059938537284
100
AcDbArc
 50
333.4349488229
 51
26.5650511771
  0
SOLID
  5
14D
330
148
100
AcDbEntity
  8
VERMASSUNG
100
AcDbTrace
 10
94.9073881695
 20
159.0454571022
 30
0.0
 11
97.9073881695
 21
158.5954571022
 31
0.0
 12
97.9073881695
 22
159.4954571022
 32
0.0
 13
97.9073881695
 23
159.4954571022
 33
0.0
  0
SOLID
  5
14E
330
148
100
AcDbEntity
  8
VERMASSUNG
100
AcDbTrace
 10
202.3073881695
 20
159.0454571022
 30
0.0
 11
199.3073881695
 21
159.4954571022
 31
0.0
 12
199.3073881695
 22
158.5954571022
 32
0.0
 13
199.3073881695
 23
158.5954571022
 33
0.0
  0
LINE
  5
14F
330
148
100
AcDbEntity
  8
VERMASSUNG
100
AcDbLine
 10
94.9073881695
 20
124.4621193662
 30
0.0
 11
94.9073881695
 21
160.0454571022
 31
0.0
  0
LINE
  5
150
330
148
100
AcDbEntity
  8
VERMASSUNG
100
AcDbLine
 10
202.3073881695
 20
122.4393637691
 30
0.0
 11
202.3073881695
 21
160.0454571022
 31
0.0
  0
LINE
  5
151
330
148
100
AcDbEntity
  8
VERMASSUNG
100
AcDbLine
 10
94.9073881695
 20
159.0454571022
 30
0.0
 11
202.3073881695
 21
159.0454571022
 31
0.0
  0
MTEXT
  5
152
330
148
100
AcDbEntity
  8
VERMASSUNG
100
AcDbMText
 10
145.6083675722
 20
161.6235926982
 30
0.0
 40
2.0
 41
0.0
 71
     1
 72
     1
  1
107.4
  7
SLDTEXTSTYLE0
 73
     1
 44
1.0
  0
ENDBLK
  5
14A
330
148
100
AcDbEntity
  8
0
100
AcDbBlockEnd
  0
BLOCK
  5
155
330
154
100
AcDbEntity
  8
0
100
AcDbBlockBegin
  2
_D_5
 70
     0
 10
0.0
 20
0.0
 30
0.0
  3
_D_5
  1

  0
SOLID
  5
157
330
154
100
AcDbEntity
  8
VERMASSUNG
100
AcDbTrace
 10
90.5555768419
 20
144.1393637691
 30
0.0
 11
90.1055768419
 21
141.1393637691
 31
0.0
 12
91.0055768419
 22
141.1393637691
 32
0.0
 13
91.0055768419
 23
141.1393637691
 33
0.0
  0
SOLID
  5
158
330
154
100
AcDbEntity
  8
VERMASSUNG
100
AcDbTrace
 10
90.5555768419
 20
81.1393637691
 30
0.0
 11
91.0055768419
 21
84.1393637691
 31
0.0
 12
90.1055768419
 22
84.1393637691
 32
0.0
 13
90.1055768419
 23
84.1393637691
 33
0.0
  0
LINE
  5
159
330
154
100
AcDbEntity
  8
VERMASSUNG
100
AcDbLine
 10
184.3073840254
 20
144.1393637691
 30
0.0
 11
89.5555768419
 21
144.1393637691
 31
0.0
  0
LINE
  5
15A
330
154
100
AcDbEntity
  8
VERMASSUNG
100
AcDbLine
 10
184.3073889434
 20
81.1393637691
 30
0.0
 11
89.5555768419
 21
81.1393637691
 31
0.0
  0
LINE
  5
15B
330
154
100
AcDbEntity
  8
VERMASSUNG
100
AcDbLine
 10
90.5555768419
 20
144.1393637691
 30
0.0
 11
90.5555768419
 21
81.1393637691
 31
0.0
  0
MTEXT
  5
15C
330
154
100
AcDbEntity
  8
VERMASSUNG
100
AcDbMText
 10
87.7774415856
 20
101.9348787022
 30
0.0
 40
2.0
 41
0.0
 71
     1
 72
     1
  1
MAS BT 40
  7
SLDTEXTSTYLE0
 11
-7.044195017643634E-15
 21
1.0
 31
0.0
 73
     1
 44
1.0
  0
MTEXT
  5
15D
330
154
100
AcDbEntity
  8
VERMASSUNG
100
AcDbMText
 10
87.9774415369
 20
116.9348783669
 30
0.0
 40
2.0
 41
0.0
 71
     1
 72
     1
  1
%%c
  7
SLDTEXTSTYLE0
 11
-7.044195017643634E-15
 21
1.0
 31
0.0
 73
     1
 44
1.0
  0
MTEXT
  5
15E
330
154
100
AcDbEntity
  8
VERMASSUNG
100
AcDbMText
 10
87.9774412459
 20
120.5444688155
 30
0.0
 40
2.0
 41
0.0
 71
     1
 72
     1
  1
63
  7
SLDTEXTSTYLE0
 11
-7.044195017643634E-15
 21
1.0
 31
0.0
 73
     1
 44
1.0
  0
ENDBLK
  5
156
330
154
100
AcDbEntity
  8
0
100
AcDbBlockEnd
  0
ENDSEC
  0
SECTION
  2
ENTITIES
  0
MTEXT
  5
78
330
1F
100
AcDbEntity
  8
KOPF_DÜNN
100
AcDbMText
 10
13.8892156294
 20
23.8442973028
 30
0.0
 40
3.0
 41
0.0
 71
     1
 72
     1
  1
134.540.020.042
  7
SLDTEXTSTYLE0
 73
     1
 44
1.0
  0
MTEXT
  5
79
330
1F
100
AcDbEntity
  8
VERMASSUNG
100
AcDbMText
 10
13.9329988022
 20
28.8834360957
 30
0.0
 40
3.0
 41
0.0
 71
     1
 72
     1
  1
Aufnahme_Master shank ST1
  7
SLDTEXTSTYLE0
 73
     1
 44
1.0
  0
MTEXT
  5
7A
330
1F
100
AcDbEntity
  8
VERMASSUNG
100
AcDbMText
 10
98.8601118557
 20
13.8365368761
 30
0.0
 40
2.0
 41
0.0
 71
     1
 72
     1
  1
Datum: 05.06.2008
  7
SLDTEXTSTYLE0
 73
     1
 44
1.0
  0
MTEXT
  5
7C
330
1F
100
AcDbEntity
  8
VERMASSUNG
100
AcDbMText
 10
13.933048693
 20
18.0482802738
 30
0.0
 40
2.0
 41
0.0
 71
     1
 72
     1
  1
MAS BT 40 A/D
  7
SLDTEXTSTYLE1
 73
     1
 44
1.0
  0
MTEXT
  5
7D
330
1F
100
AcDbEntity
  8
VERMASSUNG
100
AcDbMText
 10
13.9808475933
 20
13.9090974274
 30
0.0
 40
2.0
 41
0.0
 71
     1
 72
     1
  1
Gewicht: 1017g
  7
SLDTEXTSTYLE0
 73
     1
 44
1.0
  0
LINE
  5
7E
330
1F
100
AcDbEntity
  8
0
  6
Continuous
 62
     7
370
    15
100
AcDbLine
 10
184.3075430821
 20
81.1393637691
 30
0.0
 11
186.3073881695
 21
81.1393637691
 31
0.0
  0
LINE
  5
7F
330
1F
100
AcDbEntity
  8
0
  6
Continuous
 62
     7
370
    15
100
AcDbLine
 10
186.3073881695
 20
144.1393637691
 30
0.0
 11
184.3068879995
 21
144.1393637691
 31
0.0
  0
ARC
  5
80
330
1F
100
AcDbEntity
  8
0
  6
Continuous
 62
     7
370
    15
100
AcDbCircle
 10
186.3073881695
 20
82.1393637691
 30
0.0
 40
1.0
100
AcDbArc
 50
270.0
 51
0.0
  0
ARC
  5
81
330
1F
100
AcDbEntity
  8
0
  6
Continuous
 62
     7
370
    15
100
AcDbCircle
 10
186.3073881695
 20
143.1393637691
 30
0.0
 40
1.0
100
AcDbArc
 50
0.0
 51
90.0
  0
ARC
  5
82
330
1F
100
AcDbEntity
  8
0
  6
Continuous
 62
     7
370
    15
100
AcDbCircle
 10
161.3073881695
 20
89.4143637691
 30
0.0
 40
1.0
100
AcDbArc
 50
46.4345794674
 51
90.0
  0
ARC
  5
83
330
1F
100
AcDbEntity
  8
0
  6
Continuous
 62
     7
370
    15
100
AcDbCircle
 10
161.3073881695
 20
135.8643637691
 30
0.0
 40
1.0
100
AcDbArc
 50
270.0
 51
313.5376081075
  0
LINE
  5
84
330
1F
100
AcDbEntity
  8
0
  6
Continuous
 62
     7
370
    15
100
AcDbLine
 10
160.3073881695
 20
90.4143637691
 30
0.0
 11
161.3073881695
 21
90.4143637691
 31
0.0
  0
LINE
  5
85
330
1F
100
AcDbEntity
  8
0
  6
Continuous
 62
     7
370
    15
100
AcDbLine
 10
161.3073881695
 20
134.8643637691
 30
0.0
 11
160.3073881695
 21
134.8643637691
 31
0.0
  0
LINE
  5
86
330
1F
100
AcDbEntity
  8
0
  6
Continuous
 62
     7
370
    15
100
AcDbLine
 10
160.3073881695
 20
134.8643637691
 30
0.0
 11
95.7630812764
 21
125.4516523472
 31
0.0
  0
LINE
  5
87
330
1F
100
AcDbEntity
  8
0
  6
Continuous
 62
     7
370
    15
100
AcDbLine
 10
95.7630812764
 20
99.827075191
 30
0.0
 11
160.3073881695
 21
90.4143637691
 31
0.0
  0
ARC
  5
88
330
1F
100
AcDbEntity
  8
0
  6
Continuous
 62
     7
370
    15
100
AcDbCircle
 10
191.3073881695
 20
98.6393637691
 30
0.0
 40
4.0
100
AcDbArc
 50
90.0
 51
180.0
  0
ARC
  5
89
330
1F
100
AcDbEntity
  8
0
  6
Continuous
 62
     7
370
    15
100
AcDbCircle
 10
191.3073881695
 20
126.6393637691
 30
0.0
 40
4.0
100
AcDbArc
 50
180.0
 51
270.0
  0
ARC
  5
8A
330
1F
100
AcDbEntity
  8
0
  6
Continuous
 62
     7
370
    15
100
AcDbCircle
 10
95.9073881695
 20
100.8166081721
 30
0.0
 40
1.000000000000008
100
AcDbArc
 50
180.0
 51
261.7028550302
  0
ARC
  5
8B
330
1F
100
AcDbEntity
  8
0
  6
Continuous
 62
     7
370
    15
100
AcDbCircle
 10
95.9073881695
 20
124.4621193662
 30
0.0
 40
1.0
100
AcDbArc
 50
98.2971449698
 51
180.0
  0
LINE
  5
8C
330
1F
100
AcDbEntity
  8
0
  6
Continuous
 62
     7
370
    15
100
AcDbLine
 10
202.1073881695
 20
102.6393637691
 30
0.0
 11
202.3073881695
 21
102.8393637691
 31
0.0
  0
LINE
  5
8D
330
1F
100
AcDbEntity
  8
0
  6
Continuous
 62
     7
370
    15
100
AcDbLine
 10
202.3073881695
 20
122.4393637691
 30
0.0
 11
202.1073881695
 21
122.6393637691
 31
0.0
  0
LINE
  5
8E
330
1F
100
AcDbEntity
  8
0
  6
Continuous
 62
     7
370
    15
100
AcDbLine
 10
202.1073881695
 20
122.6393637691
 30
0.0
 11
191.3073881695
 21
122.6393637691
 31
0.0
  0
LINE
  5
8F
330
1F
100
AcDbEntity
  8
0
  6
Continuous
 62
     7
370
    15
100
AcDbLine
 10
191.3073881695
 20
102.6393637691
 30
0.0
 11
202.1073881695
 21
102.6393637691
 31
0.0
  0
SPLINE
  5
90
330
1F
100
AcDbEntity
  8
0
  6
Continuous
 62
     7
370
    15
100
AcDbSpline
210
0.0
220
0.0
230
1.0
 70
    24
 71
     3
 72
    11
 73
     7
 74
     0
 42
0.000000001
 43
0.00000001
 40
0.0
 40
0.0
 40
0.0
 40
0.0
 40
0.120891387534044
 40
0.4766714197330098
 40
0.8143663490172401
 40
1.0
 40
1.0
 40
1.0
 40
1.0
 10
197.8347384386656
 20
111.6393637691393
 30
0.0
 10
197.791038509327
 20
111.6393637691393
 30
0.0
 10
197.6187308885364
 20
111.6393637691393
 30
0.0
 10
197.2937740886053
 20
111.6393637691393
 30
0.0
 10
196.9376776161362
 20
111.6393637691393
 30
0.0
 10
196.7474979129404
 20
111.6393637691393
 30
0.0
 10
196.6800379002864
 20
111.6393637691393
 30
0.0
  0
SPLINE
  5
91
330
1F
100
AcDbEntity
  8
0
  6
Continuous
 62
     7
370
    15
100
AcDbSpline
210
0.0
220
0.0
230
1.0
 70
    24
 71
     3
 72
    10
 73
     6
 74
     0
 42
0.000000001
 43
0.00000001
 40
0.0
 40
0.0
 40
0.0
 40
0.0
 40
0.4391051671061706
 40
0.7513578980692741
 40
1.0
 40
1.0
 40
1.0
 40
1.0
 10
198.4120887078552
 20
112.6393637691393
 30
0.0
 10
198.3294388915725
 20
112.4962100881013
 30
0.0
 10
198.188015841037
 20
112.2512581792126
 30
0.0
 10
197.9824290747932
 20
111.8951714547144
 30
0.0
 10
197.8801003099065
 20
111.7179328348549
 30
0.0
 10
197.8347384386656
 20
111.6393637691393
 30
0.0
  0
SPLINE
  5
92
330
1F
100
AcDbEntity
  8
0
  6
Continuous
 62
     7
370
    15
100
AcDbSpline
210
0.0
220
0.0
230
1.0
 70
    24
 71
     3
 72
    10
 73
     6
 74
     0
 42
0.000000001
 43
0.00000001
 40
0.0
 40
0.0
 40
0.0
 40
0.0
 40
0.4391051671061744
 40
0.7513578980692761
 40
1.0
 40
1.0
 40
1.0
 40
1.0
 10
197.8347384386656
 20
113.6393637691393
 30
0.0
 10
197.9173882549484
 20
113.4962100881013
 30
0.0
 10
198.0588113054839
 20
113.2512581792126
 30
0.0
 10
198.2643980717277
 20
112.8951714547144
 30
0.0
 10
198.3667268366144
 20
112.7179328348549
 30
0.0
 10
198.4120887078552
 20
112.6393637691393
 30
0.0
  0
SPLINE
  5
93
330
1F
100
AcDbEntity
  8
0
  6
Continuous
 62
     7
370
    15
100
AcDbSpline
210
0.0
220
0.0
230
1.0
 70
    24
 71
     3
 72
    11
 73
     7
 74
     0
 42
0.000000001
 43
0.00000001
 40
0.0
 40
0.0
 40
0.0
 40
0.0
 40
0.1856336509827594
 40
0.5233285802669877
 40
0.8791086124659514
 40
1.0
 40
1.0
 40
1.0
 40
1.0
 10
196.6800379002864
 20
113.6393637691393
 30
0.0
 10
196.7474979129404
 20
113.6393637691393
 30
0.0
 10
196.9376776161362
 20
113.6393637691393
 30
0.0
 10
197.2937740886053
 20
113.6393637691393
 30
0.0
 10
197.6187308885364
 20
113.6393637691393
 30
0.0
 10
197.791038509327
 20
113.6393637691393
 30
0.0
 10
197.8347384386656
 20
113.6393637691393
 30
0.0
  0
SPLINE
  5
94
330
1F
100
AcDbEntity
  8
0
  6
Continuous
 62
     7
370
    15
100
AcDbSpline
210
0.0
220
0.0
230
1.0
 70
    24
 71
     3
 72
    10
 73
     6
 74
     0
 42
0.000000001
 43
0.00000001
 40
0.0
 40
0.0
 40
0.0
 40
0.0
 40
0.439105167106175
 40
0.7513578980692799
 40
0.9999999999999999
 40
0.9999999999999999
 40
0.9999999999999999
 40
0.9999999999999999
 10
196.1026876310967
 20
112.6393637691393
 30
0.0
 10
196.1853374473795
 20
112.7825174501773
 30
0.0
 10
196.326760497915
 20
113.0274693590661
 30
0.0
 10
196.5323472641588
 20
113.3835560835642
 30
0.0
 10
196.6346760290455
 20
113.5607947034237
 30
0.0
 10
196.6800379002864
 20
113.6393637691393
 30
0.0
  0
CIRCLE
  5
95
330
1F
100
AcDbEntity
  8
0
  6
Continuous
 62
     7
370
    15
100
AcDbCircle
 10
197.2573881695
 20
112.6393637691
 30
0.0
 40
1.25
  0
SPLINE
  5
96
330
1F
100
AcDbEntity
  8
0
  6
Continuous
 62
     7
370
    15
100
AcDbSpline
210
0.0
220
0.0
230
1.0
 70
    24
 71
     3
 72
    10
 73
     6
 74
     0
 42
0.000000001
 43
0.00000001
 40
0.0
 40
0.0
 40
0.0
 40
0.0
 40
0.439105167106174
 40
0.7513578980692754
 40
0.9999999999999999
 40
0.9999999999999999
 40
0.9999999999999999
 40
0.9999999999999999
 10
196.6800379002864
 20
111.6393637691393
 30
0.0
 10
196.5973880840036
 20
111.7825174501773
 30
0.0
 10
196.4559650334681
 20
112.0274693590661
 30
0.0
 10
196.2503782672243
 20
112.3835560835642
 30
0.0
 10
196.1480495023376
 20
112.5607947034237
 30
0.0
 10
196.1026876310967
 20
112.6393637691393
 30
0.0
  0
CIRCLE
  5
97
330
1F
100
AcDbEntity
  8
0
  6
Continuous
 62
     7
370
    15
100
AcDbCircle
 10
197.2573881695
 20
112.6393637691
 30
0.0
 40
1.75
  0
CIRCLE
  5
98
330
1F
100
AcDbEntity
  8
0
  6
Continuous
 62
     7
370
    15
100
AcDbCircle
 10
197.2573881695
 20
112.6393637691
 30
0.0
 40
2.0
  0
ARC
  5
99
330
1F
100
AcDbEntity
  8
0
  6
Continuous
 62
     7
370
    15
100
AcDbCircle
 10
197.2573881695
 20
112.6393637691
 30
0.0
 40
1.000000000000008
100
AcDbArc
 50
210.0
 51
270.0
  0
ARC
  5
9A
330
1F
100
AcDbEntity
  8
0
  6
Continuous
 62
     7
370
    15
100
AcDbCircle
 10
197.2573881695
 20
112.6393637691
 30
0.0
 40
1.000000000000008
100
AcDbArc
 50
150.0
 51
210.0
  0
ARC
  5
9B
330
1F
100
AcDbEntity
  8
0
  6
Continuous
 62
     7
370
    15
100
AcDbCircle
 10
197.2573881695
 20
112.6393637691
 30
0.0
 40
1.000000000000008
100
AcDbArc
 50
30.0
 51
90.0
  0
ARC
  5
9C
330
1F
100
AcDbEntity
  8
0
  6
Continuous
 62
     7
370
    15
100
AcDbCircle
 10
197.2573881695
 20
112.6393637691
 30
0.0
 40
1.000000000000008
100
AcDbArc
 50
90.0
 51
150.0
  0
ARC
  5
9D
330
1F
100
AcDbEntity
  8
0
  6
Continuous
 62
     7
370
    15
100
AcDbCircle
 10
197.2573881695
 20
112.6393637691
 30
0.0
 40
1.000000000000008
100
AcDbArc
 50
270.0
 51
330.0
  0
ARC
  5
9E
330
1F
100
AcDbEntity
  8
0
  6
Continuous
 62
     7
370
    15
100
AcDbCircle
 10
197.2573881695
 20
112.6393637691
 30
0.0
 40
1.000000000000008
100
AcDbArc
 50
330.0
 51
30.0
  0
SPLINE
  5
9F
330
1F
100
AcDbEntity
  8
0
  6
Continuous
 62
     7
370
    15
100
AcDbSpline
210
0.0
220
0.0
230
1.0
 70
     8
 71
     3
 72
    10
 73
     6
 74
     0
 42
0.000000001
 43
0.00000001
 40
0.0
 40
0.0
 40
0.0
 40
0.0
 40
0.5
 40
0.5
 40
1.0
 40
1.0
 40
1.0
 40
1.0
 10
181.2839965735214
 20
142.5438244904935
 30
0.0
 10
180.967892742382
 20
141.9239619322163
 30
0.0
 10
180.6381136980372
 20
141.2780611969175
 30
0.0
 10
179.9658904256484
 20
139.9636425566169
 30
0.0
 10
179.6237572597178
 20
139.2957203296046
 30
0.0
 10
179.2765769312037
 20
138.6193825971232
 30
0.0
  0
SPLINE
  5
A0
330
1F
100
AcDbEntity
  8
0
  6
Continuous
 62
     7
370
    15
100
AcDbSpline
210
0.0
220
0.0
230
1.0
 70
     8
 71
     3
 72
     9
 73
     5
 74
     0
 42
0.000000001
 43
0.00000001
 40
0.0
 40
0.0
 40
0.0
 40
0.0
 40
0.5067595796178751
 40
1.0
 40
1.0
 40
1.0
 40
1.0
 10
181.9330187124605
 20
143.5014988764883
 30
0.0
 10
181.8226183646785
 20
143.339423938154
 30
0.0
 10
181.6047628919408
 20
143.0195978414148
 30
0.0
 10
181.3901697897322
 20
142.7012498617777
 30
0.0
 10
181.2843237977878
 20
142.5442277704736
 30
0.0
  0
LINE
  5
A1
330
1F
100
AcDbEntity
  8
0
  6
Continuous
 62
     7
370
    15
100
AcDbLine
 10
181.9323881695
 20
81.7782657496
 30
0.0
 11
181.9323881695
 21
143.5004455236
 31
0.0
  0
SPLINE
  5
A2
330
1F
100
AcDbEntity
  8
0
  6
Continuous
 62
     7
370
    15
100
AcDbSpline
210
0.0
220
0.0
230
1.0
 70
     8
 71
     3
 72
     9
 73
     5
 74
     0
 42
0.000000001
 43
0.00000001
 40
0.0
 40
0.0
 40
0.0
 40
0.0
 40
0.4932426502230348
 40
1.0
 40
1.0
 40
1.0
 40
1.0
 10
181.284309882765
 20
82.73449766743454
 30
0.0
 10
181.3901559877762
 20
82.57747442777438
 30
0.0
 10
181.6047483490883
 20
82.25912555914114
 30
0.0
 10
181.8226026370484
 20
81.93929951243761
 30
0.0
 10
181.9330018986526
 20
81.77722531262049
 30
0.0
  0
SPLINE
  5
A3
330
1F
100
AcDbEntity
  8
0
  6
Continuous
 62
     7
370
    15
100
AcDbSpline
210
0.0
220
0.0
230
1.0
 70
     8
 71
     3
 72
    10
 73
     6
 74
     0
 42
0.000000001
 43
0.00000001
 40
0.0
 40
0.0
 40
0.0
 40
0.0
 40
0.5
 40
0.5
 40
1.0
 40
1.0
 40
1.0
 40
1.0
 10
181.2839906538536
 20
82.73491465593429
 30
0.0
 10
180.9678115511796
 20
83.35492480794801
 30
0.0
 10
180.6373693240125
 20
84.00212287381571
 30
0.0
 10
179.9656578033298
 20
85.31553879840948
 30
0.0
 10
179.6236839282979
 20
85.98315006471228
 30
0.0
 10
179.2765769312037
 20
86.65934494115544
 30
0.0
  0
SPLINE
  5
A4
330
1F
100
AcDbEntity
  8
0
  6
Continuous
 62
     7
370
    15
100
AcDbSpline
210
0.0
220
0.0
230
1.0
 70
     8
 71
     3
 72
    11
 73
     7
 74
     0
 42
0.000000001
 43
0.00000001
 40
0.0
 40
0.0
 40
0.0
 40
0.0
 40
0.2488814606695658
 40
0.5011921284368381
 40
0.7520447562540515
 40
1.0
 40
1.0
 40
1.0
 40
1.0
 10
184.3068879994589
 20
144.1392140237329
 30
0.0
 10
184.2771096699594
 20
144.1300819975885
 30
0.0
 10
184.2171427109784
 20
144.1116921199018
 30
0.0
 10
183.7252206492315
 20
143.9676548714167
 30
0.0
 10
182.9971512266122
 20
143.7582517933054
 30
0.0
 10
182.2864077554345
 20
143.5860475239566
 30
0.0
 10
181.9331002382849
 20
143.5004455236379
 30
0.0
  0
SPLINE
  5
A5
330
1F
100
AcDbEntity
  8
0
  6
Continuous
 62
     7
370
    15
100
AcDbSpline
210
0.0
220
0.0
230
1.0
 70
     8
 71
     3
 72
    24
 73
    20
 74
     0
 42
0.000000001
 43
0.00000001
 40
0.0
 40
0.0
 40
0.0
 40
0.0
 40
0.0452304145230468
 40
0.0903354254807773
 40
0.1353632524017138
 40
0.1803623629163211
 40
0.2253813173811786
 40
0.2704686120121845
 40
0.3156725230495646
 40
0.3610409544388638
 40
0.4066212913821985
 40
0.4524602619010737
 40
0.4986038082699224
 40
0.5832834063274132
 40
0.6671222514847349
 40
0.7504134308293638
 40
0.8334558303783486
 40
0.9165510206949746
 40
0.9999999999999999
 40
0.9999999999999999
 40
0.9999999999999999
 40
0.9999999999999999
 10
181.9330068628936
 20
81.77826574960385
 30
0.0
 10
182.0007106047963
 20
81.76250670858634
 30
0.0
 10
182.1359303766228
 20
81.7310323192734
 30
0.0
 10
182.3285920934608
 20
81.68457151593462
 30
0.0
 10
182.5133289651095
 20
81.63894053630258
 30
0.0
 10
182.6894469064006
 20
81.59431523886948
 30
0.0
 10
182.8571306990131
 20
81.55082795227005
 30
0.0
 10
183.0163301833023
 20
81.5086269044736
 30
0.0
 10
183.1670583217945
 20
81.46786031215508
 30
0.0
 10
183.3093112751968
 20
81.42868055957035
 30
0.0
 10
183.443090030423
 20
81.39124326767895
 30
0.0
 10
183.5683939408246
 20
81.3557066840396
 30
0.0
 10
183.7174424906054
 20
81.31300466856487
 30
0.0
 10
183.8782080679728
 20
81.2664959775334
 30
0.0
 10
184.0341341527728
 20
81.22083608733818
 30
0.0
 10
184.1557591706994
 20
81.18480581862815
 30
0.0
 10
184.2422348999206
 20
81.158924293679
 30
0.0
 10
184.2966538072677
 20
81.14248821715331
 30
0.0
 10
184.3038023488495
 20
81.14040685856517
 30
0.0
 10
184.3073842124468
 20
81.13936396856103
 30
0.0
  0
LINE
  5
A6
330
1F
100
AcDbEntity
  8
0
  6
Continuous
 62
     7
370
    15
100
AcDbLine
 10
162.3073881695
 20
83.5129582237
 30
0.0
 11
162.3073881695
 21
141.7657693146
 31
0.0
  0
SPLINE
  5
A7
330
1F
100
AcDbEntity
  8
0
  6
Continuous
 62
     7
370
    15
100
AcDbSpline
210
0.0
220
0.0
230
1.0
 70
     8
 71
     3
 72
    12
 73
     8
 74
     0
 42
0.000000001
 43
0.00000001
 40
0.0
 40
0.0
 40
0.0
 40
0.0
 40
0.2500000000000001
 40
0.2500000000000001
 40
0.5000000000000002
 40
0.5000000000000002
 40
1.0
 40
1.0
 40
1.0
 40
1.0
 10
162.6944209924415
 20
142.7063536689602
 30
0.0
 10
162.6425602412534
 20
142.6495410966459
 30
0.0
 10
162.5938284442345
 20
142.587548910394
 30
0.0
 10
162.503655434317
 20
142.4514958372701
 30
0.0
 10
162.4618781860321
 20
142.3765897346713
 30
0.0
 10
162.3557893161862
 20
142.138463099374
 30
0.0
 10
162.307388169476
 20
141.9550563678052
 30
0.0
 10
162.307388169476
 20
141.7657693146233
 30
0.0
  0
SPLINE
  5
A8
330
1F
100
AcDbEntity
  8
0
  6
Continuous
 62
     7
370
    15
100
AcDbSpline
210
0.0
220
0.0
230
1.0
 70
     8
 71
     3
 72
     8
 73
     4
 74
     0
 42
0.000000001
 43
0.00000001
 40
0.0
 40
0.0
 40
0.0
 40
0.0
 40
1.0
 40
1.0
 40
1.0
 40
1.0
 10
163.307388169476
 20
142.8757538721412
 30
0.0
 10
163.0810438558761
 20
142.8757538721412
 30
0.0
 10
162.863591735471
 20
142.8123854031203
 30
0.0
 10
162.6944209924415
 20
142.7063536689603
 30
0.0
  0
SPLINE
  5
A9
330
1F
100
AcDbEntity
  8
0
  6
Continuous
 62
     7
370
    15
100
AcDbSpline
210
0.0
220
0.0
230
1.0
 70
     8
 71
     3
 72
     8
 73
     4
 74
     0
 42
0.000000001
 43
0.00000001
 40
0.0
 40
0.0
 40
0.0
 40
0.0
 40
1.0
 40
1.0
 40
1.0
 40
1.0
 10
162.6944209924415
 20
82.57237386931834
 30
0.0
 10
162.8640144980935
 20
82.46607715876115
 30
0.0
 10
163.0803831904267
 20
82.40297366613747
 30
0.0
 10
163.307388169476
 20
82.40297366613747
 30
0.0
  0
SPLINE
  5
AA
330
1F
100
AcDbEntity
  8
0
  6
Continuous
 62
     7
370
    15
100
AcDbSpline
210
0.0
220
0.0
230
1.0
 70
     8
 71
     3
 72
    12
 73
     8
 74
     0
 42
0.000000001
 43
0.00000001
 40
0.0
 40
0.0
 40
0.0
 40
0.0
 40
0.2499999999999976
 40
0.2499999999999976
 40
0.4999999999999952
 40
0.4999999999999952
 40
1.0
 40
1.0
 40
1.0
 40
1.0
 10
162.6944209924415
 20
82.57237386931834
 30
0.0
 10
162.6425602412534
 20
82.62918644163273
 30
0.0
 10
162.5938284442345
 20
82.69117862788455
 30
0.0
 10
162.503655434317
 20
82.82723170100854
 30
0.0
 10
162.4618781860321
 20
82.90213780360727
 30
0.0
 10
162.3557893161862
 20
83.14026443890468
 30
0.0
 10
162.307388169476
 20
83.32367117047346
 30
0.0
 10
162.307388169476
 20
83.51295822365533
 30
0.0
  0
LINE
  5
AB
330
1F
100
AcDbEntity
  8
0
  6
Continuous
 62
     7
370
    15
100
AcDbLine
 10
187.3073881695
 20
82.1393637691
 30
0.0
 11
187.3073881695
 21
143.1393637631
 31
0.0
  0
LINE
  5
AC
330
1F
100
AcDbEntity
  8
0
  6
Continuous
 62
     7
370
    15
100
AcDbLine
 10
171.8823881695
 20
142.8757538721
 30
0.0
 11
163.3073881695
 21
142.8757538721
 31
0.0
  0
LINE
  5
AD
330
1F
100
AcDbEntity
  8
0
  6
Continuous
 62
     7
370
    15
100
AcDbLine
 10
171.8823881695
 20
82.4029736661
 30
0.0
 11
171.8823881695
 21
142.8757538721
 31
0.0
  0
LINE
  5
AE
330
1F
100
AcDbEntity
  8
0
  6
Continuous
 62
     7
370
    15
100
AcDbLine
 10
163.3073881695
 20
82.4029736661
 30
0.0
 11
171.8823881695
 21
82.4029736661
 31
0.0
  0
SPLINE
  5
AF
330
1F
100
AcDbEntity
  8
0
  6
Continuous
 62
     7
370
    15
100
AcDbSpline
210
0.0
220
0.0
230
1.0
 70
     8
 71
     3
 72
     8
 73
     4
 74
     0
 42
0.000000001
 43
0.00000001
 40
0.0
 40
0.0
 40
0.0
 40
0.0
 40
0.0012389803509652
 40
0.0012389803509652
 40
0.0012389803509652
 40
0.0012389803509652
 10
172.4399497130097
 20
142.0933864919258
 30
0.0
 10
172.2548297398769
 20
142.3544364733048
 30
0.0
 10
172.0689512921179
 20
142.6152180864238
 30
0.0
 10
171.8823881694759
 20
142.8757538721412
 30
0.0
  0
SPLINE
  5
B0
330
1F
100
AcDbEntity
  8
0
  6
Continuous
 62
     7
370
    15
100
AcDbSpline
210
0.0
220
0.0
230
1.0
 70
     8
 71
     3
 72
     8
 73
     4
 74
     0
 42
0.000000001
 43
0.00000001
 40
0.0
 40
0.0
 40
0.0
 40
0.0
 40
1.0
 40
1.0
 40
1.0
 40
1.0
 10
174.5381994077483
 20
138.3066094336043
 30
0.0
 10
173.8419060417067
 20
139.5705478017192
 30
0.0
 10
173.1421108765156
 20
140.8326032472274
 30
0.0
 10
172.4399497130097
 20
142.0933864919258
 30
0.0
  0
SPLINE
  5
B1
330
1F
100
AcDbEntity
  8
0
  6
Continuous
 62
     7
370
    15
100
AcDbSpline
210
0.0
220
0.0
230
1.0
 70
     8
 71
     3
 72
     8
 73
     4
 74
     0
 42
0.000000001
 43
0.00000001
 40
0.0
 40
0.0
 40
0.0
 40
0.0
 40
1.0
 40
1.0
 40
1.0
 40
1.0
 10
174.5381994077482
 20
86.97211810467425
 30
0.0
 10
173.8418812670903
 20
85.70813476472746
 30
0.0
 10
173.1420840749798
 20
84.4460761668755
 30
0.0
 10
172.4399497130097
 20
83.1853410463528
 30
0.0
  0
SPLINE
  5
B2
330
1F
100
AcDbEntity
  8
0
  6
Continuous
 62
     7
370
    15
100
AcDbSpline
210
0.0
220
0.0
230
1.0
 70
     8
 71
     3
 72
     8
 73
     4
 74
     0
 42
0.000000001
 43
0.00000001
 40
0.0
 40
0.0
 40
0.0
 40
0.0
 40
0.0012389803509652
 40
0.0012389803509652
 40
0.0012389803509652
 40
0.0012389803509652
 10
171.8823881694759
 20
82.40297366613747
 30
0.0
 10
172.0689512921179
 20
82.66350945185481
 30
0.0
 10
172.2548297398769
 20
82.92429106497381
 30
0.0
 10
172.4399497130097
 20
83.1853410463528
 30
0.0
  0
SPLINE
  5
B3
330
1F
100
AcDbEntity
  8
0
  6
Continuous
 62
     7
370
    15
100
AcDbSpline
210
0.0
220
0.0
230
1.0
 70
     8
 71
     3
 72
    12
 73
     8
 74
     0
 42
0.000000001
 43
0.00000001
 40
0.0
 40
0.0
 40
0.0
 40
0.0
 40
0.2499999999999968
 40
0.2499999999999968
 40
0.4999999999999936
 40
0.4999999999999936
 40
1.0
 40
1.0
 40
1.0
 40
1.0
 10
179.2765769312037
 20
138.6193825971232
 30
0.0
 10
179.2406727808671
 20
138.549438162975
 30
0.0
 10
179.1981412287377
 20
138.4861867999172
 30
0.0
 10
179.1013469518977
 20
138.3711281450013
 30
0.0
 10
179.0462572736333
 20
138.3187996112893
 30
0.0
 10
178.8681240400794
 20
138.1850147082042
 30
0.0
 10
178.7307469480768
 20
138.1244669410461
 30
0.0
 10
178.5837566081769
 20
138.1052669926621
 30
0.0
  0
SPLINE
  5
B4
330
1F
100
AcDbEntity
  8
0
  6
Continuous
 62
     7
370
    15
100
AcDbSpline
210
0.0
220
0.0
230
1.0
 70
     8
 71
     3
 72
    12
 73
     8
 74
     0
 42
0.000000001
 43
0.00000001
 40
0.0
 40
0.0
 40
0.0
 40
0.0
 40
0.2500000000000022
 40
0.2500000000000022
 40
0.5000000000000044
 40
0.5000000000000044
 40
1.0
 40
1.0
 40
1.0
 40
1.0
 10
179.2765769312037
 20
86.65934494115542
 30
0.0
 10
179.2406727808671
 20
86.72928937530358
 30
0.0
 10
179.1981412287377
 20
86.79254073836142
 30
0.0
 10
179.1013469518977
 20
86.90759939327735
 30
0.0
 10
179.0462572736333
 20
86.95992792698934
 30
0.0
 10
178.8681240400794
 20
87.09371283007441
 30
0.0
 10
178.7307469480768
 20
87.15426059723258
 30
0.0
 10
178.5837566081769
 20
87.17346054561646
 30
0.0
  0
SPLINE
  5
B5
330
1F
100
AcDbEntity
  8
0
  6
Continuous
 62
     7
370
    15
100
AcDbSpline
210
0.0
220
0.0
230
1.0
 70
     8
 71
     3
 72
    10
 73
     6
 74
     0
 42
0.000000001
 43
0.00000001
 40
0.0
 40
0.0
 40
0.0
 40
0.0
 40
0.5
 40
0.5
 40
1.0
 40
1.0
 40
1.0
 40
1.0
 10
175.2310197307758
 20
137.8870864387188
 30
0.0
 10
175.0890024183288
 20
137.8870864387188
 30
0.0
 10
174.9485553714665
 20
137.9275762909283
 30
0.0
 10
174.7069654522052
 20
138.0755121208675
 30
0.0
 10
174.606288009952
 20
138.183012396847
 30
0.0
 10
174.5381994077484
 20
138.3066094336041
 30
0.0
  0
SPLINE
  5
B6
330
1F
100
AcDbEntity
  8
0
  6
Continuous
 62
     7
370
    15
100
AcDbSpline
210
0.0
220
0.0
230
1.0
 70
     8
 71
     3
 72
    10
 73
     6
 74
     0
 42
0.000000001
 43
0.00000001
 40
0.0
 40
0.0
 40
0.0
 40
0.0
 40
0.5
 40
0.5
 40
1.0
 40
1.0
 40
1.0
 40
1.0
 10
175.2310197307758
 20
87.39164109955978
 30
0.0
 10
175.0901623662651
 20
87.39164109955978
 30
0.0
 10
174.947328234791
 20
87.35053719374109
 30
0.0
 10
174.7070665440176
 20
87.20313930044013
 30
0.0
 10
174.6063602749381
 20
87.09584631960048
 30
0.0
 10
174.5381994077482
 20
86.97211810467427
 30
0.0
  0
LINE
  5
B7
330
1F
100
AcDbEntity
  8
0
  6
Continuous
 62
     7
370
    15
100
AcDbLine
 10
175.2573881695
 20
87.3916410996
 30
0.0
 11
175.2310197308
 21
87.3916410996
 31
0.0
  0
LINE
  5
B8
330
1F
100
AcDbEntity
  8
0
  6
Continuous
 62
     7
370
    15
100
AcDbLine
 10
175.2573881695
 20
137.8870864387
 30
0.0
 11
175.2310197308
 21
137.8870864387
 31
0.0
  0
SPLINE
  5
B9
330
1F
100
AcDbEntity
  8
0
  6
Continuous
 62
     7
370
    15
100
AcDbSpline
210
0.0
220
0.0
230
1.0
 70
     8
 71
     3
 72
    10
 73
     6
 74
     0
 42
0.000000001
 43
0.00000001
 40
0.0
 40
0.0
 40
0.0
 40
0.0
 40
0.5
 40
0.5
 40
1.0
 40
1.0
 40
1.0
 40
1.0
 10
178.5837566081761
 20
138.1052669926651
 30
0.0
 10
178.0618418837802
 20
138.0370942421569
 30
0.0
 10
177.5229907036709
 20
137.9824709771989
 30
0.0
 10
176.4116280616387
 20
137.9073751243076
 30
0.0
 10
175.8347872844427
 20
137.8870864387188
 30
0.0
 10
175.257388169476
 20
137.8870864387188
 30
0.0
  0
SPLINE
  5
BA
330
1F
100
AcDbEntity
  8
0
  6
Continuous
 62
     7
370
    15
100
AcDbSpline
210
0.0
220
0.0
230
1.0
 70
     8
 71
     3
 72
    10
 73
     6
 74
     0
 42
0.000000001
 43
0.00000001
 40
0.0
 40
0.0
 40
0.0
 40
0.0
 40
0.5
 40
0.5
 40
1.0
 40
1.0
 40
1.0
 40
1.0
 10
178.5837566081761
 20
87.17346054561354
 30
0.0
 10
178.0618418837802
 20
87.24163329612175
 30
0.0
 10
177.5229907036709
 20
87.29625656107967
 30
0.0
 10
176.4116280616387
 20
87.37135241397102
 30
0.0
 10
175.8347872844427
 20
87.39164109955979
 30
0.0
 10
175.257388169476
 20
87.39164109955979
 30
0.0
  0
SPLINE
  5
BB
330
1F
100
AcDbEntity
  8
0
  6
Continuous
 62
     7
370
    15
100
AcDbSpline
210
0.0
220
0.0
230
1.0
 70
     8
 71
     3
 72
    10
 73
     6
 74
     0
 42
0.000000001
 43
0.00000001
 40
0.0
 40
0.0
 40
0.0
 40
0.0
 40
0.2999517731092972
 40
0.9999943050113873
 40
1.0
 40
1.0
 40
1.0
 40
1.0
 10
162.1591896350828
 20
135.1393637691393
 30
0.0
 10
162.1361889197835
 20
135.1393637691498
 30
0.0
 10
162.0595079784707
 20
135.1393637691848
 30
0.0
 10
161.9667286614975
 20
135.1393637688701
 30
0.0
 10
161.9961375136577
 20
135.1393637691393
 30
0.0
 10
161.9961377529027
 20
135.1393637691393
 30
0.0
  0
SPLINE
  5
BC
330
1F
100
AcDbEntity
  8
0
  6
Continuous
 62
     7
370
    15
100
AcDbSpline
210
0.0
220
0.0
230
1.0
 70
    24
 71
     3
 72
     9
 73
     5
 74
     0
 42
0.000000001
 43
0.00000001
 40
0.0
 40
0.0
 40
0.0
 40
0.0
 40
0.6712481822973831
 40
1.0
 40
1.0
 40
1.0
 40
1.0
 10
161.9961378558417
 20
90.13936376913931
 30
0.0
 10
162.01536602673
 20
90.13936376913932
 30
0.0
 10
162.0440114240589
 20
90.13936376913932
 30
0.0
 10
162.1281838758042
 20
90.13936376913931
 30
0.0
 10
162.155855722316
 20
90.13936376913931
 30
0.0
  0
LINE
  5
BD
330
1F
100
AcDbEntity
  8
0
  6
Continuous
 62
     7
370
    15
100
AcDbLine
 10
160.3073881695
 20
90.4143637691
 30
0.0
 11
160.3073881695
 21
134.8643637691
 31
0.0
  0
LINE
  5
BE
330
1F
100
AcDbEntity
  8
0
  6
Continuous
 62
     7
370
    15
100
AcDbLine
 10
94.9073881695
 20
100.8166081721
 30
0.0
 11
94.9073881695
 21
124.4621193631
 31
0.0
  0
LINE
  5
BF
330
1F
100
AcDbEntity
  8
0
  6
Continuous
 62
     7
370
    15
100
AcDbLine
 10
202.3073881695
 20
112.6393637691
 30
0.0
 11
202.3073881695
 21
102.8393637691
 31
0.0
  0
LINE
  5
C0
330
1F
100
AcDbEntity
  8
0
  6
Continuous
 62
     7
370
    15
100
AcDbLine
 10
202.3073881695
 20
122.4393637691
 30
0.0
 11
202.3073881695
 21
112.6393637691
 31
0.0
  0
LINE
  5
C1
330
1F
100
AcDbEntity
  8
0
  6
Continuous
 62
     7
370
    15
100
AcDbLine
 10
202.1073881695
 20
112.6393637691
 30
0.0
 11
202.1073881695
 21
102.6393637691
 31
0.0
  0
LINE
  5
C2
330
1F
100
AcDbEntity
  8
0
  6
Continuous
 62
     7
370
    15
100
AcDbLine
 10
202.1073881695
 20
122.6393637691
 30
0.0
 11
202.1073881695
 21
112.6393637691
 31
0.0
  0
SPLINE
  5
C3
330
1F
100
AcDbEntity
  8
0
  6
Continuous
 62
     7
370
    15
100
AcDbSpline
210
0.0
220
0.0
230
1.0
 70
    11
 71
     3
 72
    60
 73
    56
 74
     0
 42
0.000000001
 43
0.00000001
 40
0.0
 40
0.0
 40
0.0
 40
0.0
 40
0.0625000000000018
 40
0.0625000000000018
 40
0.093750000000002
 40
0.093750000000002
 40
0.1250000000000023
 40
0.1250000000000023
 40
0.1562500000000025
 40
0.1562500000000025
 40
0.1875000000000027
 40
0.1875000000000027
 40
0.218750000000003
 40
0.218750000000003
 40
0.2500000000000032
 40
0.2500000000000032
 40
0.2812500000000034
 40
0.2812500000000034
 40
0.3125000000000037
 40
0.3125000000000037
 40
0.3437500000000039
 40
0.3437500000000039
 40
0.3750000000000042
 40
0.3750000000000042
 40
0.4062500000000046
 40
0.4062500000000046
 40
0.4375000000000048
 40
0.4375000000000048
 40
0.468750000000005
 40
0.468750000000005
 40
0.5000000000000052
 40
0.5000000000000052
 40
0.5312500000000054
 40
0.5312500000000054
 40
0.5625000000000057
 40
0.5625000000000057
 40
0.6250000000000049
 40
0.6250000000000049
 40
0.6875000000000041
 40
0.6875000000000041
 40
0.7500000000000033
 40
0.7500000000000033
 40
0.781250000000003
 40
0.781250000000003
 40
0.8125000000000026
 40
0.8125000000000026
 40
0.8437500000000021
 40
0.8437500000000021
 40
0.8750000000000017
 40
0.8750000000000017
 40
0.9062500000000012
 40
0.9062500000000012
 40
0.9375000000000008
 40
0.9375000000000008
 40
1.0
 40
1.0
 40
1.0
 40
1.0
 10
195.5835672380505
 20
114.3037954891503
 30
0.0
 10
195.826145698018
 20
114.5006236156637
 30
0.0
 10
196.0998775948056
 20
114.6474543862737
 30
0.0
 10
196.5440360836848
 20
114.7947984330254
 30
0.0
 10
196.6947180408506
 20
114.8305836228205
 30
0.0
 10
197.0011548937567
 20
114.8766191755951
 30
0.0
 10
197.1584151048799
 20
114.8867731313958
 30
0.0
 10
197.4699514066878
 20
114.8803651445999
 30
0.0
 10
197.6238622900872
 20
114.8641235057022
 30
0.0
 10
197.9280126589469
 20
114.8057811283416
 30
0.0
 10
198.0797163258571
 20
114.7630327231192
 30
0.0
 10
198.3698193141617
 20
114.6530443872906
 30
0.0
 10
198.5085596818992
 20
114.5860782937599
 30
0.0
 10
198.7732104200481
 20
114.4275207828161
 30
0.0
 10
198.9003202085115
 20
114.3346847078799
 30
0.0
 10
199.1309939367291
 20
114.1293641758877
 30
0.0
 10
199.2354181561719
 20
114.0167626959486
 30
0.0
 10
199.4211492849069
 20
113.7702340213524
 30
0.0
 10
199.5028031704474
 20
113.6347757159795
 30
0.0
 10
199.6323018006958
 20
113.3542943046644
 30
0.0
 10
199.681468728094
 20
113.2080215280134
 30
0.0
 10
199.7461150003391
 20
112.9023540035393
 30
0.0
 10
199.760582824503
 20
112.745413195067
 30
0.0
 10
199.7529957927919
 20
112.4354334970317
 30
0.0
 10
199.7306869547046
 20
112.2785492653604
 30
0.0
 10
199.6515470346103
 20
111.9770965578043
 30
0.0
 10
199.5953654555267
 20
111.832526436915
 30
0.0
 10
199.4510634997368
 20
111.5551387174499
 30
0.0
 10
199.3643615096562
 20
111.4254418322672
 30
0.0
 10
199.1673271956605
 20
111.1867030559018
 30
0.0
 10
199.0553353043004
 20
111.0760781362924
 30
0.0
 10
198.815126273712
 20
110.8803263668592
 30
0.0
 10
198.6866013963827
 20
110.7944062732547
 30
0.0
 10
198.4132253218307
 20
110.6454425971429
 30
0.0
 10
198.2692746031018
 20
110.5831975853024
 30
0.0
 10
197.8286274768602
 20
110.4363265778706
 30
0.0
 10
197.5137747819739
 20
110.3890934116902
 30
0.0
 10
196.8940888648978
 20
110.401090078842
 30
0.0
 10
196.5812941136416
 20
110.4605706714833
 30
0.0
 10
196.00350344242
 20
110.6789974546245
 30
0.0
 10
195.7305071939135
 20
110.8410648859204
 30
0.0
 10
195.3855043461103
 20
111.1476730979378
 30
0.0
 10
195.278916778091
 20
111.2623479238168
 30
0.0
 10
195.0919248804235
 20
111.5109580333648
 30
0.0
 10
195.01249659112
 20
111.6430101051151
 30
0.0
 10
194.8828752265895
 20
111.9233747810651
 30
0.0
 10
194.8324096222997
 20
112.0739825616915
 30
0.0
 10
194.7684701347232
 20
112.378263624587
 30
0.0
 10
194.754101503081
 20
112.532613652609
 30
0.0
 10
194.7619199144202
 20
112.8459108065327
 30
0.0
 10
194.7844355540062
 20
113.0018710019092
 30
0.0
 10
194.8635211670972
 20
113.3023655537189
 30
0.0
 10
194.9211383360614
 20
113.4500348409329
 30
0.0
 10
195.1369968495505
 20
113.863417908982
 30
0.0
 10
195.340988778083
 20
114.1069673626369
 30
0.0
 10
195.5835672380505
 20
114.3037954891503
 30
0.0
  0
CIRCLE
  5
C4
330
1F
100
AcDbEntity
  8
0
  6
HIDDEN
 62
     7
370
     0
100
AcDbCircle
 10
197.2573881695
 20
112.6393637691
 30
0.0
 40
1.426794919243108
  0
CIRCLE
  5
C5
330
1F
100
AcDbEntity
  8
0
  6
HIDDEN
 62
     7
370
     0
100
AcDbCircle
 10
197.2573881695
 20
112.6393637691
 30
0.0
 40
1.326794919243113
  0
SPLINE
  5
C6
330
1F
100
AcDbEntity
  8
0
  6
HIDDEN
 62
     7
370
     0
100
AcDbSpline
210
0.0
220
0.0
230
1.0
 70
     8
 71
     3
 72
    17
 73
    13
 74
     0
 42
0.000000001
 43
0.00000001
 40
0.0
 40
0.0
 40
0.0
 40
0.0
 40
0.0004909084072919
 40
0.0005116394852635
 40
0.2498351754845136
 40
0.5021944977214489
 40
0.5865777378672907
 40
0.6700037584518806
 40
0.7527614182929998
 40
0.8351466077306873
 40
0.9174592349446918
 40
1.0
 40
1.0
 40
1.0
 40
1.0
 10
184.3073842124468
 20
81.13936396856103
 30
0.0
 10
184.3073858838134
 20
81.13936387201731
 30
0.0
 10
184.3073876257619
 20
81.13936377139655
 30
0.0
 10
184.308006647873
 20
81.13936266015678
 30
0.0
 10
184.2038623519888
 20
81.17157927884209
 30
0.0
 10
183.8353775486423
 20
81.27994044677162
 30
0.0
 10
183.4687649940915
 20
81.38477112358508
 30
0.0
 10
183.2192334604539
 20
81.45446382856423
 30
0.0
 10
182.9414476674168
 20
81.52960553742263
 30
0.0
 10
182.6347878925157
 20
81.60927053102326
 30
0.0
 10
182.3016010594078
 20
81.6924197124582
 30
0.0
 10
182.0566036173203
 20
81.74973219468797
 30
0.0
 10
181.9339353723535
 20
81.77842809269373
 30
0.0
  0
LINE
  5
C7
330
1F
100
AcDbEntity
  8
0
  6
HIDDEN
 62
     7
370
     0
100
AcDbLine
 10
162.3073881695
 20
135.1393637691
 30
0.0
 11
162.6446464697
 21
135.1393637691
 31
0.0
  0
ELLIPSE
  5
C8
330
1F
100
AcDbEntity
  8
0
  6
HIDDEN
 62
     7
370
     0
100
AcDbEllipse
 10
162.6446464697
 20
136.7393637691
 30
0.0
 11
0.0
 21
1.599999999999994
 31
0.0
210
0.0
220
0.0
230
1.0
 40
0.4142135624
 41
3.141592653589793
 42
4.712388980384695
  0
ELLIPSE
  5
C9
330
1F
100
AcDbEntity
  8
0
  6
HIDDEN
 62
     7
370
     0
100
AcDbEllipse
 10
162.6446464697
 20
88.5393637691
 30
0.0
 11
0.0
 21
1.599999999999994
 31
0.0
210
0.0
220
0.0
230
1.0
 40
0.4142135624
 41
4.712388980384695
 42
6.283185307179586
  0
LINE
  5
CA
330
1F
100
AcDbEntity
  8
0
  6
HIDDEN
 62
     7
370
     0
100
AcDbLine
 10
162.6446464697
 20
90.1393637691
 30
0.0
 11
162.3073881695
 21
90.1393637691
 31
0.0
  0
LINE
  5
CB
330
1F
100
AcDbEntity
  8
0
  6
HIDDEN
 62
     7
370
     0
100
AcDbLine
 10
163.3073881695
 20
83.1853410464
 30
0.0
 11
162.6944209924
 21
82.5723738693
 31
0.0
  0
LINE
  5
CC
330
1F
100
AcDbEntity
  8
0
  6
HIDDEN
 62
     7
370
     0
100
AcDbLine
 10
162.6944209924
 20
142.706353669
 30
0.0
 11
163.3073881695
 21
142.0933864919
 31
0.0
  0
LINE
  5
CD
330
1F
100
AcDbEntity
  8
0
  6
HIDDEN
 62
     7
370
     0
100
AcDbLine
 10
101.9073881695
 20
104.1393637691
 30
0.0
 11
101.9073881695
 21
121.1393637691
 31
0.0
  0
LINE
  5
CE
330
1F
100
AcDbEntity
  8
0
  6
HIDDEN
 62
     7
370
     0
100
AcDbLine
 10
104.9033173838
 20
105.6393637691
 30
0.0
 11
104.9033173838
 21
119.6393637691
 31
0.0
  0
LINE
  5
CF
330
1F
100
AcDbEntity
  8
0
  6
HIDDEN
 62
     7
370
     0
100
AcDbLine
 10
163.3073881695
 20
142.0933864919
 30
0.0
 11
172.439949713
 21
142.0933864919
 31
0.0
  0
LINE
  5
D0
330
1F
100
AcDbEntity
  8
0
  6
HIDDEN
 62
     7
370
     0
100
AcDbLine
 10
163.3073881695
 20
142.0933864919
 30
0.0
 11
163.3073881695
 21
136.7393637691
 31
0.0
  0
LINE
  5
D1
330
1F
100
AcDbEntity
  8
0
  6
HIDDEN
 62
     7
370
     0
100
AcDbLine
 10
172.439949713
 20
83.1853410464
 30
0.0
 11
163.3073881695
 21
83.1853410464
 31
0.0
  0
LINE
  5
D2
330
1F
100
AcDbEntity
  8
0
  6
HIDDEN
 62
     7
370
     0
100
AcDbLine
 10
163.3073881695
 20
83.1853410464
 30
0.0
 11
163.3073881695
 21
88.5393637691
 31
0.0
  0
LINE
  5
D3
330
1F
100
AcDbEntity
  8
0
  6
HIDDEN
 62
     7
370
     0
100
AcDbLine
 10
175.2573881695
 20
90.1393637691
 30
0.0
 11
162.6446464697
 21
90.1393637691
 31
0.0
  0
LINE
  5
D4
330
1F
100
AcDbEntity
  8
0
  6
HIDDEN
 62
     7
370
     0
100
AcDbLine
 10
162.6446464697
 20
135.1393637691
 30
0.0
 11
175.2573881695
 21
135.1393637691
 31
0.0
  0
LINE
  5
D5
330
1F
100
AcDbEntity
  8
0
  6
HIDDEN
 62
     7
370
     0
100
AcDbLine
 10
175.2573881695
 20
135.1393637691
 30
0.0
 11
181.7073881695
 21
135.1393637691
 31
0.0
  0
SPLINE
  5
D6
330
1F
100
AcDbEntity
  8
0
  6
HIDDEN
 62
     7
370
     0
100
AcDbSpline
210
0.0
220
0.0
230
1.0
 70
     8
 71
     3
 72
    13
 73
     9
 74
     0
 42
0.000000001
 43
0.00000001
 40
0.0
 40
0.0
 40
0.0
 40
0.0
 40
0.1850454653144679
 40
0.3520092965859432
 40
0.5010298177386109
 40
0.6766227814582007
 40
0.8430962614808595
 40
1.0
 40
1.0
 40
1.0
 40
1.0
 10
181.2836518000884
 20
142.5442245448504
 30
0.0
 10
181.5104419157085
 20
142.6030612163902
 30
0.0
 10
181.9418614532605
 20
142.7149853606919
 30
0.0
 10
182.4293169242122
 20
142.8552514323202
 30
0.0
 10
182.8184261007564
 20
142.9745461915755
 30
0.0
 10
183.0993260211815
 20
143.0652140011999
 30
0.0
 10
183.2762107962466
 20
143.1271297615491
 30
0.0
 10
183.2970731760698
 20
143.1353190177068
 30
0.0
 10
183.307195674505
 20
143.1392924729571
 30
0.0
  0
LINE
  5
D7
330
1F
100
AcDbEntity
  8
0
  6
HIDDEN
 62
     7
370
     0
100
AcDbLine
 10
182.0338823432
 20
142.7439376241
 30
0.0
 11
181.2836297821
 21
142.544411971
 31
0.0
  0
LINE
  5
D8
330
1F
100
AcDbEntity
  8
0
  6
HIDDEN
 62
     7
370
     0
100
AcDbLine
 10
181.7073881695
 20
90.1393637691
 30
0.0
 11
175.2573881695
 21
90.1393637691
 31
0.0
  0
LINE
  5
D9
330
1F
100
AcDbEntity
  8
0
  6
HIDDEN
 62
     7
370
     0
100
AcDbLine
 10
181.2836299357
 20
82.7343158757
 30
0.0
 11
181.3775726653
 21
82.7093322043
 31
0.0
  0
SPLINE
  5
DA
330
1F
100
AcDbEntity
  8
0
  6
HIDDEN
 62
     7
370
     0
100
AcDbSpline
210
0.0
220
0.0
230
1.0
 70
     8
 71
     3
 72
    13
 73
     9
 74
     0
 42
0.000000001
 43
0.00000001
 40
0.0
 40
0.0
 40
0.0
 40
0.0
 40
0.0000730266253407
 40
0.1576811714019511
 40
0.3241446478108668
 40
0.4996852929261713
 40
0.7294244053126598
 40
1.0
 40
1.0
 40
1.0
 40
1.0
 10
183.3073668624238
 20
82.13937207019116
 30
0.0
 10
183.3073739641316
 20
82.13936916005625
 30
0.0
 10
183.3227081740316
 20
82.13308551377821
 30
0.0
 10
183.2632471019413
 20
82.15679720681952
 30
0.0
 10
183.1024966998418
 20
82.21227213737991
 30
0.0
 10
182.7678120635909
 20
82.32021920536026
 30
0.0
 10
182.209937805057
 20
82.49149142304928
 30
0.0
 10
181.6087713995183
 20
82.6492218510323
 30
0.0
 10
181.2836541175659
 20
82.73452416924995
 30
0.0
  0
LINE
  5
DB
330
1F
100
AcDbEntity
  8
0
  6
HIDDEN
 62
     7
370
     0
100
AcDbLine
 10
137.9073881695
 20
105.6393637691
 30
0.0
 11
137.9073881695
 21
119.6393637691
 31
0.0
  0
LINE
  5
DC
330
1F
100
AcDbEntity
  8
0
  6
HIDDEN
 62
     7
370
     0
100
AcDbLine
 10
140.8516052027
 20
110.5393637691
 30
0.0
 11
140.8516052027
 21
114.7393637691
 31
0.0
  0
SPLINE
  5
DD
330
1F
100
AcDbEntity
  8
0
  6
HIDDEN
 62
     7
370
     0
100
AcDbSpline
210
0.0
220
0.0
230
1.0
 70
     8
 71
     3
 72
     9
 73
     5
 74
     0
 42
0.000000001
 43
0.00000001
 40
0.0
 40
0.0
 40
0.0
 40
0.0
 40
0.4932365035776448
 40
1.0
 40
1.0
 40
1.0
 40
1.0
 10
181.2844477081734
 20
142.5441952803116
 30
0.0
 10
181.3902956636821
 20
142.7012166685945
 30
0.0
 10
181.6048944509594
 20
143.0195657509191
 30
0.0
 10
181.8227543328437
 20
143.3393918585966
 30
0.0
 10
181.9331577683175
 20
143.5014680551704
 30
0.0
  0
SPLINE
  5
DE
330
1F
100
AcDbEntity
  8
0
  6
HIDDEN
 62
     7
370
     0
100
AcDbSpline
210
0.0
220
0.0
230
1.0
 70
     8
 71
     3
 72
     9
 73
     5
 74
     0
 42
0.000000001
 43
0.00000001
 40
0.0
 40
0.0
 40
0.0
 40
0.0
 40
0.5067661695379747
 40
1.0
 40
1.0
 40
1.0
 40
1.0
 10
181.9331614536034
 20
81.77727361866218
 30
0.0
 10
181.8227566231294
 20
81.9393510332423
 30
0.0
 10
181.6048951376741
 20
82.25917785737283
 30
0.0
 10
181.3902954197884
 20
82.5775263736373
 30
0.0
 10
181.2844475789196
 20
82.73454663173634
 30
0.0
  0
SPLINE
  5
DF
330
1F
100
AcDbEntity
  8
0
  6
HIDDEN
 62
     7
370
     0
100
AcDbSpline
210
0.0
220
0.0
230
1.0
 70
     8
 71
     3
 72
    16
 73
    12
 74
     0
 42
0.000000001
 43
0.00000001
 40
0.0
 40
0.0
 40
0.0
 40
0.0
 40
0.2499999999999974
 40
0.2499999999999974
 40
0.4999999999999948
 40
0.4999999999999948
 40
0.6249999999999923
 40
0.6249999999999923
 40
0.74999999999999
 40
0.74999999999999
 40
1.0
 40
1.0
 40
1.0
 40
1.0
 10
202.307388169476
 20
118.1079998505613
 30
0.0
 10
202.307388169476
 20
118.0388659492217
 30
0.0
 10
202.3028543602561
 20
117.9682448017864
 30
0.0
 10
202.2776905132748
 20
117.8217213154286
 30
0.0
 10
202.2574033707373
 20
117.7442794402765
 30
0.0
 10
202.1987939939648
 20
117.6386309763231
 30
0.0
 10
202.1742656973778
 20
117.606550696254
 30
0.0
 10
202.1199197915352
 20
117.5594249729011
 30
0.0
 10
202.0903199667677
 20
117.5443716244461
 30
0.0
 10
202.0063704085778
 20
117.5203661900805
 30
0.0
 10
201.9550120098479
 20
117.5279286248254
 30
0.0
 10
201.9073881695892
 20
117.5419679798965
 30
0.0
  0
SPLINE
  5
E0
330
1F
100
AcDbEntity
  8
0
  6
HIDDEN
 62
     7
370
     0
100
AcDbSpline
210
0.0
220
0.0
230
1.0
 70
     8
 71
     3
 72
     8
 73
     4
 74
     0
 42
0.000000001
 43
0.00000001
 40
0.0
 40
0.0
 40
0.0
 40
0.0
 40
1.0
 40
1.0
 40
1.0
 40
1.0
 10
201.9073881695887
 20
117.5419679798967
 30
0.0
 10
201.8482218606965
 20
117.5081186890682
 30
0.0
 10
201.7794388751722
 20
117.4860033128873
 30
0.0
 10
201.707388169476
 20
117.4860033128873
 30
0.0
  0
SPLINE
  5
E1
330
1F
100
AcDbEntity
  8
0
  6
HIDDEN
 62
     7
370
     0
100
AcDbSpline
210
0.0
220
0.0
230
1.0
 70
     8
 71
     3
 72
     8
 73
     4
 74
     0
 42
0.000000001
 43
0.00000001
 40
0.0
 40
0.0
 40
0.0
 40
0.0
 40
1.0
 40
1.0
 40
1.0
 40
1.0
 10
201.9073881694111
 20
107.7367595584835
 30
0.0
 10
201.8482218605614
 20
107.7706088492549
 30
0.0
 10
201.7794388751001
 20
107.7927242253913
 30
0.0
 10
201.707388169476
 20
107.7927242253913
 30
0.0
  0
SPLINE
  5
E2
330
1F
100
AcDbEntity
  8
0
  6
HIDDEN
 62
     7
370
     0
100
AcDbSpline
210
0.0
220
0.0
230
1.0
 70
     8
 71
     3
 72
    16
 73
    12
 74
     0
 42
0.000000001
 43
0.00000001
 40
0.0
 40
0.0
 40
0.0
 40
0.0
 40
0.2500000000000061
 40
0.2500000000000061
 40
0.3750000000000086
 40
0.3750000000000086
 40
0.5000000000000112
 40
0.5000000000000112
 40
0.7500000000000056
 40
0.7500000000000056
 40
1.0
 40
1.0
 40
1.0
 40
1.0
 10
201.9073881693988
 20
107.7367595584833
 30
0.0
 10
201.9546927572608
 20
107.7507047272753
 30
0.0
 10
202.005690896413
 20
107.7582857146767
 30
0.0
 10
202.0892899026793
 20
107.7347768817214
 30
0.0
 10
202.1184272445139
 20
107.7202126141334
 30
0.0
 10
202.1727509164552
 20
107.6738429275085
 30
0.0
 10
202.1972340633719
 20
107.6423184641207
 30
0.0
 10
202.2560746196668
 20
107.5379433648997
 30
0.0
 10
202.2769559973228
 20
107.4601775396955
 30
0.0
 10
202.3027267078796
 20
107.312290005224
 30
0.0
 10
202.307387862103
 20
107.240179353301
 30
0.0
 10
202.3073881694617
 20
107.1707330031622
 30
0.0
  0
LINE
  5
E3
330
1F
100
AcDbEntity
  8
0
  6
HIDDEN
 62
     7
370
     0
100
AcDbLine
 10
188.8073881695
 20
112.6393637691
 30
0.0
 11
188.8073881695
 21
107.4393637691
 31
0.0
  0
LINE
  5
E4
330
1F
100
AcDbEntity
  8
0
  6
HIDDEN
 62
     7
370
     0
100
AcDbLine
 10
188.8073881695
 20
117.8393637691
 30
0.0
 11
188.8073881695
 21
112.6393637691
 31
0.0
  0
LINE
  5
E5
330
1F
100
AcDbEntity
  8
0
  6
HIDDEN
 62
     7
370
     0
100
AcDbLine
 10
192.1734135733
 20
112.6393637691
 30
0.0
 11
192.1734135733
 21
107.1393637691
 31
0.0
  0
LINE
  5
E6
330
1F
100
AcDbEntity
  8
0
  6
HIDDEN
 62
     7
370
     0
100
AcDbLine
 10
192.1734135733
 20
118.1393637691
 30
0.0
 11
192.1734135733
 21
112.6393637691
 31
0.0
  0
LINE
  5
E7
330
1F
100
AcDbEntity
  8
0
  6
HIDDEN
 62
     7
370
     0
100
AcDbLine
 10
196.4073881695
 20
117.4860033129
 30
0.0
 11
201.7073881695
 21
117.4860033129
 31
0.0
  0
LINE
  5
E8
330
1F
100
AcDbEntity
  8
0
  6
HIDDEN
 62
     7
370
     0
100
AcDbLine
 10
196.4073881695
 20
107.7927242254
 30
0.0
 11
201.7073881695
 21
107.7927242254
 31
0.0
  0
SPLINE
  5
E9
330
1F
100
AcDbEntity
  8
0
  6
HIDDEN
 62
     7
370
     0
100
AcDbSpline
210
0.0
220
0.0
230
1.0
 70
    11
 71
     3
 72
    20
 73
    16
 74
     0
 42
0.000000001
 43
0.00000001
 40
0.0
 40
0.0
 40
0.0
 40
0.0
 40
0.1249999999999998
 40
0.1249999999999998
 40
0.2499999999999996
 40
0.2499999999999996
 40
0.4999999999999999
 40
0.4999999999999999
 40
0.6249999999999999
 40
0.6249999999999999
 40
0.7499999999999999
 40
0.7499999999999999
 40
0.875
 40
0.875
 40
1.0
 40
1.0
 40
1.0
 40
1.0
 10
201.907388169476
 20
120.0393637691393
 30
0.0
 10
201.907388169476
 20
120.1385384504498
 30
0.0
 10
201.907554612133
 20
120.2280850681289
 30
0.0
 10
201.9055942728299
 20
120.3884817447872
 30
0.0
 10
201.9036059059284
 20
120.4586116123777
 30
0.0
 10
201.8966022551161
 20
120.6280018877275
 30
0.0
 10
201.8888734321662
 20
120.6893473099996
 30
0.0
 10
201.8831918406501
 20
120.6893719936199
 30
0.0
 10
201.8821983978652
 20
120.6746696055274
 30
0.0
 10
201.8837818977219
 20
120.6158857696623
 30
0.0
 10
201.886111312725
 20
120.572070358019
 30
0.0
 10
201.8927811122326
 20
120.4591812825537
 30
0.0
 10
201.897374906773
 20
120.3888340908316
 30
0.0
 10
201.904652327254
 20
120.2292893685667
 30
0.0
 10
201.9073881387037
 20
120.1385553352414
 30
0.0
 10
201.9073880445259
 20
120.0393637691414
 30
0.0
  0
LWPOLYLINE
  5
EA
330
1F
100
AcDbEntity
  8
0
  6
HIDDEN
 62
     7
370
     0
100
AcDbPolyline
 90
        4
 70
   128
 43
0.0
 10
201.9073880445
 20
120.0393637691
 10
201.9073881683
 20
119.2972530686
 10
201.9073881861
 20
118.555142368
 10
201.9073881696
 20
117.5419679799
  0
LWPOLYLINE
  5
EB
330
1F
100
AcDbEntity
  8
0
  6
HIDDEN
 62
     7
370
     0
100
AcDbPolyline
 90
        3
 70
   128
 43
0.0
 10
201.9073882197
 20
105.2393637691
 10
201.9073881651
 20
106.5160439973
 10
201.9073881694
 20
107.7367595585
  0
SPLINE
  5
EC
330
1F
100
AcDbEntity
  8
0
  6
HIDDEN
 62
     7
370
     0
100
AcDbSpline
210
0.0
220
0.0
230
1.0
 70
     8
 71
     3
 72
    11
 73
     7
 74
     0
 42
0.000000001
 43
0.00000001
 40
0.0
 40
0.0
 40
0.0
 40
0.0
 40
0.2832653816799048
 40
0.6060535644001898
 40
0.9293812402118016
 40
1.0
 40
1.0
 40
1.0
 40
1.0
 10
201.8855972006879
 20
104.5974926068573
 30
0.0
 10
201.8840145182401
 20
104.6060000984983
 30
0.0
 10
201.880628328466
 20
104.624202095518
 30
0.0
 10
201.8937663427247
 20
104.8275801196493
 30
0.0
 10
201.9065248528996
 20
105.0610225618742
 30
0.0
 10
201.9072569789218
 20
105.2122540437401
 30
0.0
 10
201.9073882196871
 20
105.2393637691373
 30
0.0
  0
LINE
  5
ED
330
1F
100
AcDbEntity
  8
0
  6
HIDDEN
 62
     7
370
     0
100
AcDbLine
 10
196.4073881695
 20
105.2393637691
 30
0.0
 11
196.4073881695
 21
107.7927242254
 31
0.0
  0
LINE
  5
EE
330
1F
100
AcDbEntity
  8
0
  6
HIDDEN
 62
     7
370
     0
100
AcDbLine
 10
196.4073881695
 20
120.0393637691
 30
0.0
 11
196.4073881695
 21
117.4860033129
 31
0.0
  0
LINE
  5
EF
330
1F
100
AcDbEntity
  8
0
  6
HIDDEN
 62
     7
370
     0
100
AcDbLine
 10
196.4073881695
 20
120.6893637691
 30
0.0
 11
196.4073881695
 21
120.0393637691
 31
0.0
  0
LINE
  5
F0
330
1F
100
AcDbEntity
  8
0
  6
HIDDEN
 62
     7
370
     0
100
AcDbLine
 10
196.4073881695
 20
104.5893637691
 30
0.0
 11
196.4073881695
 21
105.2393637691
 31
0.0
  0
ARC
  5
F1
330
1F
100
AcDbEntity
  8
0
  6
HIDDEN
 62
     7
370
     0
100
AcDbCircle
 10
95.7073881695
 20
103.3393637691
 30
0.0
 40
0.7999999999999972
100
AcDbArc
 50
90.0
 51
180.0
  0
ARC
  5
F2
330
1F
100
AcDbEntity
  8
0
  6
HIDDEN
 62
     7
370
     0
100
AcDbCircle
 10
95.7073881695
 20
121.9393637691
 30
0.0
 40
0.7999999999999972
100
AcDbArc
 50
180.0
 51
270.0
  0
LINE
  5
F3
330
1F
100
AcDbEntity
  8
0
  6
HIDDEN
 62
     7
370
     0
100
AcDbLine
 10
102.7997606002
 20
103.9143637691
 30
0.0
 11
103.6764480618
 21
103.9143637691
 31
0.0
  0
LINE
  5
F4
330
1F
100
AcDbEntity
  8
0
  6
HIDDEN
 62
     7
370
     0
100
AcDbLine
 10
103.6764480618
 20
121.3643637691
 30
0.0
 11
102.7997606002
 21
121.3643637691
 31
0.0
  0
ARC
  5
F5
330
1F
100
AcDbEntity
  8
0
  6
HIDDEN
 62
     7
370
     0
100
AcDbCircle
 10
103.6764480618
 20
104.3143637691
 30
0.0
 40
0.4000000000000057
100
AcDbArc
 50
270.0
 51
330.0
  0
ARC
  5
F6
330
1F
100
AcDbEntity
  8
0
  6
HIDDEN
 62
     7
370
     0
100
AcDbCircle
 10
103.6764480618
 20
120.9643637691
 30
0.0
 40
0.4000000000000057
100
AcDbArc
 50
30.0
 51
90.0
  0
ARC
  5
F7
330
1F
100
AcDbEntity
  8
0
  6
HIDDEN
 62
     7
370
     0
100
AcDbCircle
 10
102.7997606002
 20
104.3143637691
 30
0.0
 40
0.4000000000000057
100
AcDbArc
 50
255.0
 51
270.0
  0
ARC
  5
F8
330
1F
100
AcDbEntity
  8
0
  6
HIDDEN
 62
     7
370
     0
100
AcDbCircle
 10
102.7997606002
 20
120.9643637691
 30
0.0
 40
0.4000000000000057
100
AcDbArc
 50
90.0
 51
105.0
  0
LINE
  5
F9
330
1F
100
AcDbEntity
  8
0
  6
HIDDEN
 62
     7
370
     0
100
AcDbLine
 10
102.6962329822
 20
121.3507340997
 30
0.0
 11
101.9073881695
 21
121.1393637691
 31
0.0
  0
LINE
  5
FA
330
1F
100
AcDbEntity
  8
0
  6
HIDDEN
 62
     7
370
     0
100
AcDbLine
 10
101.9073881695
 20
104.1393637691
 30
0.0
 11
102.6962329822
 21
103.9279934386
 31
0.0
  0
LINE
  5
FB
330
1F
100
AcDbEntity
  8
0
  6
HIDDEN
 62
     7
370
     0
100
AcDbLine
 10
104.0228582233
 20
104.1143637691
 30
0.0
 11
104.9033173838
 21
105.6393637691
 31
0.0
  0
LINE
  5
FC
330
1F
100
AcDbEntity
  8
0
  6
HIDDEN
 62
     7
370
     0
100
AcDbLine
 10
104.9033173838
 20
119.6393637691
 30
0.0
 11
104.0228582233
 21
121.1643637691
 31
0.0
  0
LINE
  5
FD
330
1F
100
AcDbEntity
  8
0
  6
HIDDEN
 62
     7
370
     0
100
AcDbLine
 10
95.7073881695
 20
104.1393637691
 30
0.0
 11
101.9073881695
 21
104.1393637691
 31
0.0
  0
LINE
  5
FE
330
1F
100
AcDbEntity
  8
0
  6
HIDDEN
 62
     7
370
     0
100
AcDbLine
 10
101.9073881695
 20
121.1393637691
 30
0.0
 11
95.7073881695
 21
121.1393637691
 31
0.0
  0
ARC
  5
FF
330
1F
100
AcDbEntity
  8
0
  6
HIDDEN
 62
     7
370
     0
100
AcDbCircle
 10
181.7073881695
 20
136.7393637691
 30
0.0
 40
1.600000000000023
100
AcDbArc
 50
270.0
 51
0.0
  0
LINE
  5
100
330
1F
100
AcDbEntity
  8
0
  6
HIDDEN
 62
     7
370
     0
100
AcDbLine
 10
183.3073881695
 20
136.7393637691
 30
0.0
 11
183.3073881695
 21
143.139292473
 31
0.0
  0
ARC
  5
101
330
1F
100
AcDbEntity
  8
0
  6
HIDDEN
 62
     7
370
     0
100
AcDbCircle
 10
181.7073881695
 20
88.5393637691
 30
0.0
 40
1.600000000000023
100
AcDbArc
 50
0.0
 51
90.0
  0
LINE
  5
102
330
1F
100
AcDbEntity
  8
0
  6
HIDDEN
 62
     7
370
     0
100
AcDbLine
 10
183.3073881695
 20
82.1393720702
 30
0.0
 11
183.3073881695
 21
88.5393637691
 31
0.0
  0
LINE
  5
103
330
1F
100
AcDbEntity
  8
0
  6
HIDDEN
 62
     7
370
     0
100
AcDbLine
 10
104.9033173838
 20
105.6393637691
 30
0.0
 11
137.9073881695
 21
105.6393637691
 31
0.0
  0
LINE
  5
104
330
1F
100
AcDbEntity
  8
0
  6
HIDDEN
 62
     7
370
     0
100
AcDbLine
 10
137.9073881695
 20
119.6393637691
 30
0.0
 11
104.9033173838
 21
119.6393637691
 31
0.0
  0
LINE
  5
105
330
1F
100
AcDbEntity
  8
0
  6
HIDDEN
 62
     7
370
     0
100
AcDbLine
 10
137.9073881695
 20
105.6393637691
 30
0.0
 11
140.8516052027
 21
110.5393637691
 31
0.0
  0
LINE
  5
106
330
1F
100
AcDbEntity
  8
0
  6
HIDDEN
 62
     7
370
     0
100
AcDbLine
 10
140.8516052027
 20
114.7393637691
 30
0.0
 11
137.9073881695
 21
119.6393637691
 31
0.0
  0
LINE
  5
107
330
1F
100
AcDbEntity
  8
0
  6
HIDDEN
 62
     7
370
     0
100
AcDbLine
 10
183.3073872595
 20
143.1393635572
 30
0.0
 11
184.3073866288
 21
144.139363304
 31
0.0
  0
LINE
  5
108
330
1F
100
AcDbEntity
  8
0
  6
HIDDEN
 62
     7
370
     0
100
AcDbLine
 10
184.3073945309
 20
81.1393626314
 30
0.0
 11
183.3073942819
 21
82.139362436
 31
0.0
  0
ARC
  5
109
330
1F
100
AcDbEntity
  8
0
  6
HIDDEN
 62
     7
370
     0
100
AcDbCircle
 10
190.2020661714
 20
117.8393637691
 30
0.0
 40
0.7999999999999972
100
AcDbArc
 50
75.0
 51
90.0
  0
ARC
  5
10A
330
1F
100
AcDbEntity
  8
0
  6
HIDDEN
 62
     7
370
     0
100
AcDbCircle
 10
190.2020661714
 20
107.4393637691
 30
0.0
 40
0.7999999999999972
100
AcDbArc
 50
270.0
 51
285.0
  0
LINE
  5
10B
330
1F
100
AcDbEntity
  8
0
  6
HIDDEN
 62
     7
370
     0
100
AcDbLine
 10
190.2020661714
 20
118.6393637691
 30
0.0
 11
189.6073881695
 21
118.6393637691
 31
0.0
  0
LINE
  5
10C
330
1F
100
AcDbEntity
  8
0
  6
HIDDEN
 62
     7
370
     0
100
AcDbLine
 10
189.6073881695
 20
106.6393637691
 30
0.0
 11
190.2020661714
 21
106.6393637691
 31
0.0
  0
ARC
  5
10D
330
1F
100
AcDbEntity
  8
0
  6
HIDDEN
 62
     7
370
     0
100
AcDbCircle
 10
189.6073881695
 20
117.8393637691
 30
0.0
 40
0.7999999999999972
100
AcDbArc
 50
90.0
 51
180.0
  0
ARC
  5
10E
330
1F
100
AcDbEntity
  8
0
  6
HIDDEN
 62
     7
370
     0
100
AcDbCircle
 10
189.6073881695
 20
107.4393637691
 30
0.0
 40
0.7999999999999972
100
AcDbArc
 50
180.0
 51
270.0
  0
LINE
  5
10F
330
1F
100
AcDbEntity
  8
0
  6
HIDDEN
 62
     7
370
     0
100
AcDbLine
 10
190.4091214075
 20
106.6666231081
 30
0.0
 11
192.1734135733
 21
107.1393637691
 31
0.0
  0
LINE
  5
110
330
1F
100
AcDbEntity
  8
0
  6
HIDDEN
 62
     7
370
     0
100
AcDbLine
 10
192.1734135733
 20
118.1393637691
 30
0.0
 11
190.4091214075
 21
118.6121044302
 31
0.0
  0
LINE
  5
111
330
1F
100
AcDbEntity
  8
0
  6
HIDDEN
 62
     7
370
     0
100
AcDbLine
 10
196.4073881695
 20
118.1393637691
 30
0.0
 11
192.1734135733
 21
118.1393637691
 31
0.0
  0
LINE
  5
112
330
1F
100
AcDbEntity
  8
0
  6
HIDDEN
 62
     7
370
     0
100
AcDbLine
 10
192.1734135733
 20
107.1393637691
 30
0.0
 11
196.4073881695
 21
107.1393637691
 31
0.0
  0
LINE
  5
113
330
1F
100
AcDbEntity
  8
0
  6
HIDDEN
 62
     7
370
     0
100
AcDbLine
 10
202.3073881695
 20
121.1116665013
 30
0.0
 11
201.8793072486
 21
120.6836935817
 31
0.0
  0
LINE
  5
114
330
1F
100
AcDbEntity
  8
0
  6
HIDDEN
 62
     7
370
     0
100
AcDbLine
 10
201.8793084488
 20
104.5950236128
 30
0.0
 11
202.3073881695
 21
104.167055614
 31
0.0
  0
LINE
  5
115
330
1F
100
AcDbEntity
  8
0
  6
HIDDEN
 62
     7
370
     0
100
AcDbLine
 10
140.8516052027
 20
110.5393637691
 30
0.0
 11
188.8073881695
 21
110.5393637691
 31
0.0
  0
LINE
  5
116
330
1F
100
AcDbEntity
  8
0
  6
HIDDEN
 62
     7
370
     0
100
AcDbLine
 10
188.8073881695
 20
114.7393637691
 30
0.0
 11
140.8516052027
 21
114.7393637691
 31
0.0
  0
LINE
  5
117
330
1F
100
AcDbEntity
  8
0
  6
HIDDEN
 62
     7
370
     0
100
AcDbLine
 10
201.8856469348
 20
120.6893637691
 30
0.0
 11
196.4073881695
 21
120.6893637691
 31
0.0
  0
LINE
  5
118
330
1F
100
AcDbEntity
  8
0
  6
HIDDEN
 62
     7
370
     0
100
AcDbLine
 10
196.4073881695
 20
104.5893637691
 30
0.0
 11
201.885646626
 21
104.5893637691
 31
0.0
  0
DIMENSION
  5
119
330
1F
100
AcDbEntity
  8
VERMASSUNG
100
AcDbDimension
  2
_D
 10
208.8823690122
 20
107.1393637691
 30
0.0
 11
208.8823690122
 21
112.6393637691
 31
0.0
 70
   160
  1
%%c<>
 71
     2
 42
-1.0
  3
SLDDIMSTYLE0
100
AcDbAlignedDimension
 13
196.4073881695
 23
118.1393637691
 33
0.0
 14
196.4073881695
 24
107.1393637691
 34
0.0
 50
90.0
100
AcDbRotatedDimension
  0
DIMENSION
  5
125
330
1F
100
AcDbEntity
  8
VERMASSUNG
100
AcDbDimension
  2
_D_1
 10
214.9823690122
 20
102.6393637691
 30
0.0
 11
214.9823690122
 21
112.6393637691
 31
0.0
 70
   160
  1
ST1 %%c<>
 71
     2
 42
-1.0
  3
SLDDIMSTYLE0
100
AcDbAlignedDimension
 13
202.1073881695
 23
122.6393637691
 33
0.0
 14
202.1073881695
 24
102.6393637691
 34
0.0
 50
90.0
100
AcDbRotatedDimension
  0
DIMENSION
  5
131
330
1F
100
AcDbEntity
  8
VERMASSUNG
100
AcDbDimension
  2
_D_2
 10
202.3073881695
 20
147.0454571022
 30
0.0
 11
194.8073881695
 21
147.0454571022
 31
0.0
 70
   160
  1
(<>)
 71
     2
 42
-1.0
  3
SLDDIMSTYLE0
100
AcDbAlignedDimension
 13
187.3073881695
 23
143.1393637691
 33
0.0
 14
202.3073881695
 24
122.4393637691
 34
0.0
100
AcDbRotatedDimension
  0
DIMENSION
  5
13D
330
1F
100
AcDbEntity
  8
VERMASSUNG
100
AcDbDimension
  2
_D_3
 10
202.3073881695
 20
153.0454571022
 30
0.0
 11
181.3073881695
 21
153.0454571022
 31
0.0
 70
   160
  1
<>
 71
     2
 42
-1.0
  3
SLDDIMSTYLE0
100
AcDbAlignedDimension
 13
160.3073881695
 23
134.8643637691
 33
0.0
 14
202.3073881695
 24
122.4393637691
 34
0.0
100
AcDbRotatedDimension
  0
DIMENSION
  5
147
330
1F
100
AcDbEntity
  8
VERMASSUNG
100
AcDbDimension
  2
_D_4
 10
202.3073881695
 20
159.0454571022
 30
0.0
 11
148.6073881695
 21
159.0454571022
 31
0.0
 70
   160
  1
(<>)
 71
     2
 42
-1.0
  3
SLDDIMSTYLE0
100
AcDbAlignedDimension
 13
94.9073881695
 23
124.4621193662
 33
0.0
 14
202.3073881695
 24
122.4393637691
 34
0.0
100
AcDbRotatedDimension
  0
DIMENSION
  5
153
330
1F
100
AcDbEntity
  8
VERMASSUNG
100
AcDbDimension
  2
_D_5
 10
90.5555768419
 20
81.1393637691
 30
0.0
 11
90.5555768419
 21
112.6393637691
 31
0.0
 70
   160
  1
MAS BT 40 %%c<>
 71
     2
 42
-1.0
  3
SLDDIMSTYLE0
100
AcDbAlignedDimension
 13
184.3073840254
 23
144.1393637691
 33
0.0
 14
184.3073889434
 24
81.1393637691
 34
0.0
 50
90.0
100
AcDbRotatedDimension
  0
LINE
  5
15F
330
1F
100
AcDbEntity
  8
VERMASSUNG
  6
CENTERX2
370
     0
100
AcDbLine
 10
93.7630812764
 20
112.6393637691
 30
0.0
 11
204.2123310279
 21
112.6393637691
 31
0.0
  0
LINE
  5
160
330
1F
100
AcDbEntity
  8
0
  6
Continuous
 62
     7
370
    15
100
AcDbLine
 10
262.1468320294
 20
43.978983944
 30
0.0
 11
262.0584293196
 21
44.0300343309
 31
0.0
  0
LINE
  5
161
330
1F
100
AcDbEntity
  8
0
  6
Continuous
 62
     7
370
    15
100
AcDbLine
 10
260.8207913833
 20
44.0300343309
 30
0.0
 11
260.7323886735
 21
43.978983944
 31
0.0
  0
LINE
  5
162
330
1F
100
AcDbEntity
  8
0
  6
Continuous
 62
     7
370
    15
100
AcDbLine
 10
262.4396103514
 20
43.4687786259
 30
0.0
 11
262.4396103514
 21
43.5708462274
 31
0.0
  0
LINE
  5
163
330
1F
100
AcDbEntity
  8
0
  6
Continuous
 62
     7
370
    15
100
AcDbLine
 10
260.4396103514
 20
43.5708462274
 30
0.0
 11
260.4396103514
 21
43.4687786259
 31
0.0
  0
SPLINE
  5
164
330
1F
100
AcDbEntity
  8
0
  6
Continuous
 62
     7
370
    15
100
AcDbSpline
210
0.0
220
0.0
230
1.0
 70
     8
 71
     3
 72
    25
 73
    21
 74
     0
 42
0.000000001
 43
0.00000001
 40
0.0
 40
0.0
 40
0.0
 40
0.0
 40
0.0281096273897509
 40
0.0854381056790748
 40
0.1430943622419238
 40
0.2011135237131336
 40
0.259465574460002
 40
0.3180805575018037
 40
0.3768762013777686
 40
0.4357778208459558
 40
0.4947276743673031
 40
0.5536808863052627
 40
0.6126136031340141
 40
0.6715161980017739
 40
0.7303857692577026
 40
0.7892236462233273
 40
0.8480336984051675
 40
0.906821255228517
 40
0.9655924504841855
 40
1.0
 40
1.0
 40
1.0
 40
1.0
 10
251.1271590060037
 20
27.61445634014629
 30
0.0
 10
251.246287433393
 20
27.58126581080944
 30
0.0
 10
251.6083735979493
 20
27.48038450371462
 30
0.0
 10
252.2532301072043
 20
27.40854740463568
 30
0.0
 10
253.0543722658053
 20
27.39437765954709
 30
0.0
 10
253.8861924064951
 20
27.47557679473507
 30
0.0
 10
254.7411740553453
 20
27.64599491501811
 30
0.0
 10
255.6144784613511
 20
27.90652163351104
 30
0.0
 10
256.5000647782622
 20
28.25511057112931
 30
0.0
 10
257.3920374584183
 20
28.68949751918885
 30
0.0
 10
258.2844864946634
 20
29.20658092728728
 30
0.0
 10
259.171675292921
 20
29.80274315968234
 30
0.0
 10
260.0480613667009
 20
30.47389786809014
 30
0.0
 10
260.9082944193017
 20
31.21560800698416
 30
0.0
 10
261.7472547551631
 20
32.02304075826002
 30
0.0
 10
262.5597241886479
 20
32.89119916912858
 30
0.0
 10
263.3415550760791
 20
33.81410840194145
 30
0.0
 10
264.0853694722445
 20
34.78794726887834
 30
0.0
 10
264.6984422644492
 20
35.65976325736973
 30
0.0
 10
265.0433317154595
 20
36.21883367746719
 30
0.0
 10
265.1706869496626
 20
36.42527821811331
 30
0.0
  0
SPLINE
  5
165
330
1F
100
AcDbEntity
  8
0
  6
Continuous
 62
     7
370
    15
100
AcDbSpline
210
0.0
220
0.0
230
1.0
 70
     8
 71
     3
 72
    25
 73
    21
 74
     0
 42
0.000000001
 43
0.00000001
 40
0.0
 40
0.0
 40
0.0
 40
0.0
 40
0.0434718887275704
 40
0.1031569239399664
 40
0.1628578073119648
 40
0.2225816507129754
 40
0.2823353978552814
 40
0.3421255475862167
 40
0.4019576502819375
 40
0.4618354459571473
 40
0.5217594628996517
 40
0.581724852285715
 40
0.6417182450206177
 40
0.7017035841004335
 40
0.761628994163019
 40
0.8214235043032451
 40
0.880998580608739
 40
0.9402624241271705
 40
0.9991465844313485
 40
1.0
 40
1.0
 40
1.0
 40
1.0
 10
266.2068945107879
 20
38.24435955192443
 30
0.0
 10
266.3449725091117
 20
38.5122491582801
 30
0.0
 10
266.6726256658479
 20
39.1479396828009
 30
0.0
 10
267.1254545652235
 20
40.17309266003102
 30
0.0
 10
267.5712484379175
 20
41.30779695751539
 30
0.0
 10
267.9533037785131
 20
42.44668779328929
 30
0.0
 10
268.2715142278892
 20
43.58191819452978
 30
0.0
 10
268.5231165214836
 20
44.70688017154109
 30
0.0
 10
268.7065021088253
 20
45.81471514167195
 30
0.0
 10
268.8201961561248
 20
46.89874980573777
 30
0.0
 10
268.8631327827812
 20
47.95240631132338
 30
0.0
 10
268.8345800353565
 20
48.96922877327368
 30
0.0
 10
268.7342016611609
 20
49.94283909157173
 30
0.0
 10
268.5620350342989
 20
50.86683449131209
 30
0.0
 10
268.3188725553961
 20
51.73518248842727
 30
0.0
 10
268.0053017719627
 20
52.54083930268442
 30
0.0
 10
267.6258118946602
 20
53.2812523508268
 30
0.0
 10
267.1741533712084
 20
53.938489139566
 30
0.0
 10
266.8465394477772
 20
54.35304263131228
 30
0.0
 10
266.6546616177839
 20
54.52440601460437
 30
0.0
 10
266.6519204364587
 20
54.52685412497813
 30
0.0
  0
LINE
  5
166
330
1F
100
AcDbEntity
  8
0
  6
Continuous
 62
     7
370
    15
100
AcDbLine
 10
248.1470446211
 20
29.0778037653
 30
0.0
 11
249.6938407049
 21
28.184857393
 31
0.0
  0
LINE
  5
167
330
1F
100
AcDbEntity
  8
0
  6
Continuous
 62
     7
370
    15
100
AcDbLine
 10
265.4425607439
 20
55.465396558
 30
0.0
 11
263.8957646601
 21
56.3583429303
 31
0.0
  0
LINE
  5
168
330
1F
100
AcDbEntity
  8
0
  6
Continuous
 62
     7
370
    15
100
AcDbLine
 10
260.3425530846
 20
58.4095683113
 30
0.0
 11
257.3108327603
 21
60.159743201
 31
0.0
  0
SPLINE
  5
169
330
1F
100
AcDbEntity
  8
0
  6
Continuous
 62
     7
370
    15
100
AcDbSpline
210
0.0
220
0.0
230
1.0
 70
     8
 71
     3
 72
    32
 73
    28
 74
     0
 42
0.000000001
 43
0.00000001
 40
0.0
 40
0.0
 40
0.0
 40
0.0
 40
0.039686086866924
 40
0.0802084941032467
 40
0.1209757388025918
 40
0.1619966363227482
 40
0.2032388833410514
 40
0.2446484143183225
 40
0.2861677083573671
 40
0.3277474586022592
 40
0.3693510886556389
 40
0.410949224525654
 40
0.4525300997714914
 40
0.4940886530680196
 40
0.5356239433739007
 40
0.5771375821956112
 40
0.6186326922408737
 40
0.6601132530203744
 40
0.7015837102610712
 40
0.7430487560308924
 40
0.7845132136057934
 40
0.8259811222184038
 40
0.8674566522760279
 40
0.908944764818731
 40
0.9504503786323668
 40
0.9919782475168402
 40
1.0
 40
1.0
 40
1.0
 40
1.0
 10
256.0094709852879
 20
60.70611909745647
 30
0.0
 10
255.7680250326365
 20
60.76521090526641
 30
0.0
 10
255.2800450427112
 20
60.88463978557322
 30
0.0
 10
254.501390715327
 20
60.95097214028743
 30
0.0
 10
253.6897030237388
 20
60.93414062151464
 30
0.0
 10
252.8500706029282
 20
60.82488076022853
 30
0.0
 10
251.9886438002013
 20
60.62574532289901
 30
0.0
 10
251.1108146753281
 20
60.33713683144119
 30
0.0
 10
250.2225621167254
 20
59.96108204078135
 30
0.0
 10
249.329801937152
 20
59.50014583225909
 30
0.0
 10
248.4384021255569
 20
58.95760185761849
 30
0.0
 10
247.5540391366906
 20
58.33722671063134
 30
0.0
 10
246.6821989805081
 20
57.64323206659977
 30
0.0
 10
245.8281541273886
 20
56.88017050080486
 30
0.0
 10
244.9970303447255
 20
56.05294744132848
 30
0.0
 10
244.1938044727572
 20
55.16680260307983
 30
0.0
 10
243.4232909557519
 20
54.2272894794508
 30
0.0
 10
242.69012148275
 20
53.24025131976506
 30
0.0
 10
241.9987233366144
 20
52.21179352144751
 30
0.0
 10
241.3532878589105
 20
51.14824993092113
 30
0.0
 10
240.7577749523305
 20
50.05616057889618
 30
0.0
 10
240.2157943501072
 20
48.94221130041068
 30
0.0
 10
239.7309275003633
 20
47.81326789865332
 30
0.0
 10
239.3054081453118
 20
46.67601958046038
 30
0.0
 10
238.9449608214046
 20
45.53807903460426
 30
0.0
 10
238.7225774137457
 20
44.70900561909686
 30
0.0
 10
238.6253798310688
 20
44.2628303007358
 30
0.0
 10
238.6096441921542
 20
44.19059749916841
 30
0.0
  0
LINE
  5
16A
330
1F
100
AcDbEntity
  8
0
  6
Continuous
 62
     7
370
    15
100
AcDbLine
 10
263.1549189195
 20
34.5179426515
 30
0.0
 11
263.2256181051
 21
34.5587696916
 31
0.0
  0
LINE
  5
16B
330
1F
100
AcDbEntity
  8
0
  6
Continuous
 62
     7
370
    15
100
AcDbLine
 10
266.6898782017
 20
40.5596944022
 30
0.0
 11
266.6898782017
 21
40.6413352134
 31
0.0
  0
LINE
  5
16C
330
1F
100
AcDbEntity
  8
0
  6
Continuous
 62
     7
370
    15
100
AcDbLine
 10
265.6541411274
 20
42.9305592457
 30
0.0
 11
261.835764509
 21
45.1348611477
 31
0.0
  0
LINE
  5
16D
330
1F
100
AcDbEntity
  8
0
  6
Continuous
 62
     7
370
    15
100
AcDbLine
 10
256.8361708458
 20
36.4743725238
 30
0.0
 11
260.6545474642
 21
34.2700706219
 31
0.0
  0
SPLINE
  5
16E
330
1F
100
AcDbEntity
  8
0
  6
Continuous
 62
     7
370
    15
100
AcDbSpline
210
0.0
220
0.0
230
1.0
 70
     8
 71
     3
 72
    18
 73
    14
 74
     0
 42
0.000000001
 43
0.00000001
 40
0.0
 40
0.0
 40
0.0
 40
0.0
 40
0.0123463469694937
 40
0.1146767435823663
 40
0.2172315489606701
 40
0.3197555388496393
 40
0.4219812572736645
 40
0.5237044149722222
 40
0.6247684567950622
 40
0.7252017124199793
 40
0.825472385448599
 40
0.9267758608134264
 40
1.0
 40
1.0
 40
1.0
 40
1.0
 10
261.4205116035606
 20
38.7254449153519
 30
0.0
 10
261.4273967151054
 20
38.74444815957943
 30
0.0
 10
261.491347790927
 20
38.92095625309867
 30
0.0
 10
261.6512991360794
 20
39.2537803774449
 30
0.0
 10
261.9174846136344
 20
39.70300236903393
 30
0.0
 10
262.2274846296089
 20
40.11466710616024
 30
0.0
 10
262.5654495200941
 20
40.47333908944216
 30
0.0
 10
262.918520704587
 20
40.76625614271271
 30
0.0
 10
263.2713032105373
 20
40.98367056437867
 30
0.0
 10
263.608939407184
 20
41.12105903654655
 30
0.0
 10
263.914884147625
 20
41.17514933638289
 30
0.0
 10
264.1578037743284
 20
41.16386719435035
 30
0.0
 10
264.2781584685499
 20
41.10809815450384
 30
0.0
 10
264.328654024248
 20
41.08469990920887
 30
0.0
  0
SPLINE
  5
16F
330
1F
100
AcDbEntity
  8
0
  6
Continuous
 62
     7
370
    15
100
AcDbSpline
210
0.0
220
0.0
230
1.0
 70
     8
 71
     3
 72
    10
 73
     6
 74
     0
 42
0.000000001
 43
0.00000001
 40
0.0
 40
0.0
 40
0.0
 40
0.0
 40
0.1517054027987882
 40
0.6855612431997338
 40
1.0
 40
1.0
 40
1.0
 40
1.0
 10
261.6971799811824
 20
36.27922111643937
 30
0.0
 10
261.6735766830121
 20
36.28762699535076
 30
0.0
 10
261.5669126740927
 20
36.32561341304161
 30
0.0
 10
261.4475087040651
 20
36.44160185744936
 30
0.0
 10
261.362154791489
 20
36.57775140593852
 30
0.0
 10
261.3305165160043
 20
36.62821818352627
 30
0.0
  0
LINE
  5
170
330
1F
100
AcDbEntity
  8
0
  6
Continuous
 62
     7
370
    15
100
AcDbLine
 10
248.3007080675
 20
58.8472234022
 30
0.0
 11
228.4113350828
 21
66.0145650384
 31
0.0
  0
LINE
  5
171
330
1F
100
AcDbEntity
  8
0
  6
Continuous
 62
     7
370
    15
100
AcDbLine
 10
222.0398656715
 20
54.9776604274
 30
0.0
 11
241.0677397578
 21
38.91068085
 31
0.0
  0
LINE
  5
172
330
1F
100
AcDbEntity
  8
0
  6
Continuous
 62
     7
370
    15
100
AcDbLine
 10
241.5621127213
 20
32.879204036
 30
0.0
 11
244.5938330456
 21
31.1290291463
 31
0.0
  0
SPLINE
  5
173
330
1F
100
AcDbEntity
  8
0
  6
Continuous
 62
     7
370
    15
100
AcDbSpline
210
0.0
220
0.0
230
1.0
 70
     8
 71
     3
 72
    13
 73
     9
 74
     0
 42
0.000000001
 43
0.00000001
 40
0.0
 40
0.0
 40
0.0
 40
0.0
 40
0.0737735013221148
 40
0.2979980693714442
 40
0.5216271021273152
 40
0.7441065526486939
 40
0.9651709677155685
 40
1.0
 40
1.0
 40
1.0
 40
1.0
 10
238.5987876250391
 20
36.9458336391237
 30
0.0
 10
238.6261948828208
 20
36.85160892502286
 30
0.0
 10
238.7369027895805
 20
36.47100095080561
 30
0.0
 10
238.9815173160712
 20
35.84736525651383
 30
0.0
 10
239.3559629202651
 20
35.10246992007244
 30
0.0
 10
239.8032808455885
 20
34.43965432645721
 30
0.0
 10
240.1549714772323
 20
33.9970773351622
 30
0.0
 10
240.3739954782007
 20
33.80141279183454
 30
0.0
 10
240.4038063001649
 20
33.77478136861126
 30
0.0
  0
SPLINE
  5
174
330
1F
100
AcDbEntity
  8
0
  6
Continuous
 62
     7
370
    15
100
AcDbSpline
210
0.0
220
0.0
230
1.0
 70
     8
 71
     3
 72
    25
 73
    21
 74
     0
 42
0.000000001
 43
0.00000001
 40
0.0
 40
0.0
 40
0.0
 40
0.0
 40
0.0417133444629358
 40
0.0957459558016477
 40
0.1507790166833662
 40
0.2069080436821809
 40
0.2638819353639572
 40
0.3213220295400797
 40
0.3789075809115748
 40
0.4364375034427851
 40
0.4938660973713812
 40
0.5511974506013017
 40
0.6084589326429786
 40
0.6656877733510792
 40
0.7229252553052385
 40
0.780202874228449
 40
0.837562150351073
 40
0.89504670179847
 40
0.9526954223409101
 40
1.0
 40
1.0
 40
1.0
 40
1.0
 10
228.251204738899
 20
66.05787152498291
 30
0.0
 10
228.1262194789437
 20
66.09155521487416
 30
0.0
 10
227.8393368678845
 20
66.16887045116339
 30
0.0
 10
227.3541539590017
 20
66.18299492841258
 30
0.0
 10
226.8097327145477
 20
66.11921039815034
 30
0.0
 10
226.2445957985294
 20
65.96241708660864
 30
0.0
 10
225.6680961344756
 20
65.71736066542067
 30
0.0
 10
225.0895693141394
 20
65.3865328299509
 30
0.0
 10
224.5192262874386
 20
64.97619929814643
 30
0.0
 10
223.9663729953536
 20
64.4938108772288
 30
0.0
 10
223.4393540196175
 20
63.94769834364218
 30
0.0
 10
222.9456610897568
 20
63.34657528680881
 30
0.0
 10
222.4922642190213
 20
62.69966415944496
 30
0.0
 10
222.0856378288871
 20
62.01664378102463
 30
0.0
 10
221.7316942270058
 20
61.30758820187508
 30
0.0
 10
221.4358773396558
 20
60.58290134844312
 30
0.0
 10
221.2024076447684
 20
59.85281256920861
 30
0.0
 10
221.0368830673562
 20
59.12844578769552
 30
0.0
 10
220.9426420118129
 20
58.46031877492854
 30
0.0
 10
220.9318590063346
 20
58.04851170031705
 30
0.0
 10
220.9269988873218
 20
57.86290190934015
 30
0.0
  0
SPLINE
  5
175
330
1F
100
AcDbEntity
  8
0
  6
Continuous
 62
     7
370
    15
100
AcDbSpline
210
0.0
220
0.0
230
1.0
 70
     8
 71
     3
 72
    13
 73
     9
 74
     0
 42
0.000000001
 43
0.00000001
 40
0.0
 40
0.0
 40
0.0
 40
0.0
 40
0.1036006027273755
 40
0.2994795789643288
 40
0.4954043829683596
 40
0.6899082311327374
 40
0.8813897955599084
 40
1.0
 40
1.0
 40
1.0
 40
1.0
 10
220.9269988873218
 20
57.86290190934015
 30
0.0
 10
220.9290978729179
 20
57.74507698700077
 30
0.0
 10
220.9351654372563
 20
57.40447898655709
 30
0.0
 10
221.0032303367571
 20
56.87095067222623
 30
0.0
 10
221.155835501689
 20
56.28558199895512
 30
0.0
 10
221.3878995110144
 20
55.7653682743748
 30
0.0
 10
221.6456816975126
 20
55.36036239992971
 30
0.0
 10
221.8524425143748
 20
55.16547390656651
 30
0.0
 10
221.9315285954011
 20
55.09092899321628
 30
0.0
  0
LWPOLYLINE
  5
176
330
1F
100
AcDbEntity
  8
0
  6
Continuous
 62
     7
370
    15
100
AcDbPolyline
 90
       18
 70
   128
 43
0.0
 10
260.8208919179
 20
43.3157352799
 10
260.6391657165
 20
43.4688825252
 10
260.5655439985
 20
43.6495853286
 10
260.6099697848
 20
43.8334387752
 10
260.7664431268
 20
43.9956124383
 10
261.0138314327
 20
44.1142038661
 10
261.3187235409
 20
44.173196629
 10
261.6399420826
 20
44.1646234277
 10
261.9341047141
 20
44.0896421204
 10
262.1614831417
 20
43.9583793481
 10
262.291368649
 20
43.7885628756
 10
262.3062194785
 20
43.6031273585
 10
262.2040299433
 20
43.427116891
 10
261.9986013064
 20
43.2843026619
 10
261.7176778436
 20
43.1939725243
 10
261.3991998251
 20
43.1683260637
 10
261.0861794722
 20
43.2108269769
 10
260.8208919179
 20
43.3157352799
  0
LWPOLYLINE
  5
177
330
1F
100
AcDbEntity
  8
0
  6
Continuous
 62
     7
370
    15
100
AcDbPolyline
 90
        6
 70
   128
 43
0.0
 10
260.7325035702
 20
43.1626421714
 10
260.5333025644
 20
43.3268738979
 10
260.4434156533
 20
43.520532288
 10
260.4736845251
 20
43.7202592817
 10
260.6204583071
 20
43.901964856
 10
260.7323886735
 20
43.978983944
  0
LWPOLYLINE
  5
178
330
1F
100
AcDbEntity
  8
0
  6
Continuous
 62
     7
370
    15
100
AcDbPolyline
 90
       10
 70
   128
 43
0.0
 10
262.1468320294
 20
43.978983944
 10
262.3459181385
 20
43.8148185568
 10
262.4358050495
 20
43.6211601667
 10
262.4055361777
 20
43.421433173
 10
262.2587623957
 20
43.2397275987
 10
262.0131867878
 20
43.0979598179
 10
261.6984293965
 20
43.0132291171
 10
261.3524546087
 20
42.9957552693
 10
261.0169920897
 20
43.0476458785
 10
260.7325035702
 20
43.1626421714
  0
LWPOLYLINE
  5
179
330
1F
100
AcDbEntity
  8
0
  6
Continuous
 62
     7
370
    15
100
AcDbPolyline
 90
       17
 70
   128
 43
0.0
 10
260.9976686132
 20
43.4177862939
 10
260.8621856436
 20
43.5348398019
 10
260.8146103514
 20
43.6729138288
 10
260.8621856436
 20
43.8109878558
 10
260.9976686132
 20
43.9280413638
 10
261.2004332062
 20
44.0062540173
 10
261.4396103514
 20
44.0337186489
 10
261.6787874967
 20
44.0062540173
 10
261.8815520897
 20
43.9280413638
 10
262.0170350593
 20
43.8109878558
 10
262.0646103514
 20
43.6729138288
 10
262.0170350593
 20
43.5348398019
 10
261.8815520897
 20
43.4177862939
 10
261.6787874967
 20
43.3395736404
 10
261.4396103514
 20
43.3121090088
 10
261.2004332062
 20
43.3395736404
 10
260.9976686132
 20
43.4177862939
  0
SPLINE
  5
17A
330
1F
100
AcDbEntity
  8
0
  6
Continuous
 62
     7
370
    15
100
AcDbSpline
210
0.0
220
0.0
230
1.0
 70
     8
 71
     3
 72
     9
 73
     5
 74
     0
 42
0.000000001
 43
0.00000001
 40
0.0
 40
0.0
 40
0.0
 40
0.0
 40
0.6286327601797476
 40
1.0
 40
1.0
 40
1.0
 40
1.0
 10
261.0861472010783
 20
43.36874314062439
 30
0.0
 10
261.0413140920435
 20
43.39936745634111
 30
0.0
 10
260.9699956500618
 20
43.44808320527531
 30
0.0
 10
260.9057802948352
 20
43.52075448078399
 30
0.0
 10
260.8819328156106
 20
43.54774221178386
 30
0.0
  0
SPLINE
  5
17B
330
1F
100
AcDbEntity
  8
0
  6
Continuous
 62
     7
370
    15
100
AcDbSpline
210
0.0
220
0.0
230
1.0
 70
     8
 71
     3
 72
    10
 73
     6
 74
     0
 42
0.000000001
 43
0.00000001
 40
0.0
 40
0.0
 40
0.0
 40
0.0
 40
0.4391051671061744
 40
0.7513578980692761
 40
1.0
 40
1.0
 40
1.0
 40
1.0
 10
261.997287887261
 20
43.7202695461305
 30
0.0
 10
261.9758965407328
 20
43.64622086607093
 30
0.0
 10
261.9392935618378
 20
43.51951531857983
 30
0.0
 10
261.8860837913128
 20
43.42614161706407
 30
0.0
 10
261.8595991580983
 20
43.40687150813043
 30
0.0
 10
261.8478586418997
 20
43.39832915739246
 30
0.0
  0
SPLINE
  5
17C
330
1F
100
AcDbEntity
  8
0
  6
Continuous
 62
     7
370
    15
100
AcDbSpline
210
0.0
220
0.0
230
1.0
 70
     8
 71
     3
 72
    11
 73
     7
 74
     0
 42
0.000000001
 43
0.00000001
 40
0.0
 40
0.0
 40
0.0
 40
0.0
 40
0.1856336509827594
 40
0.5233285802669877
 40
0.8791086124659514
 40
1.0
 40
1.0
 40
1.0
 40
1.0
 10
261.5890395967971
 20
43.95594626769522
 30
0.0
 10
261.6128903130004
 20
43.92939312003844
 30
0.0
 10
261.6801289918874
 20
43.85453588919009
 30
0.0
 10
261.8060281071071
 20
43.7554896239651
 30
0.0
 10
261.9209176855191
 20
43.72243717445586
 30
0.0
 10
261.9818376290747
 20
43.7207080734162
 30
0.0
 10
261.997287887261
 20
43.7202695461305
 30
0.0
  0
SPLINE
  5
17D
330
1F
100
AcDbEntity
  8
0
  6
Continuous
 62
     7
370
    15
100
AcDbSpline
210
0.0
220
0.0
230
1.0
 70
     8
 71
     3
 72
    10
 73
     6
 74
     0
 42
0.000000001
 43
0.00000001
 40
0.0
 40
0.0
 40
0.0
 40
0.0
 40
0.439105167106175
 40
0.7513578980692799
 40
0.9999999999999999
 40
0.9999999999999999
 40
0.9999999999999999
 40
0.9999999999999999
 10
261.031362060972
 20
43.8696826005219
 30
0.0
 10
261.1111956530575
 20
43.85406983368068
 30
0.0
 10
261.2477998300023
 20
43.82735464890121
 30
0.0
 10
261.4463813970605
 20
43.87933699258178
 30
0.0
 10
261.5452233938368
 20
43.93241640713892
 30
0.0
 10
261.5890395967971
 20
43.95594626769522
 30
0.0
  0
SPLINE
  5
17E
330
1F
100
AcDbEntity
  8
0
  6
Continuous
 62
     7
370
    15
100
AcDbSpline
210
0.0
220
0.0
230
1.0
 70
     8
 71
     3
 72
    10
 73
     6
 74
     0
 42
0.000000001
 43
0.00000001
 40
0.0
 40
0.0
 40
0.0
 40
0.0
 40
0.439105167106174
 40
0.7513578980692754
 40
0.9999999999999999
 40
0.9999999999999999
 40
0.9999999999999999
 40
0.9999999999999999
 10
260.8819328156106
 20
43.54774221178386
 30
0.0
 10
260.9033241621388
 20
43.56586743516959
 30
0.0
 10
260.9399271410339
 20
43.59688171321805
 30
0.0
 10
260.9931369115588
 20
43.73278540872106
 30
0.0
 10
261.0196215447733
 20
43.82763584014135
 30
0.0
 10
261.031362060972
 20
43.8696826005219
 30
0.0
  0
LINE
  5
17F
330
1F
100
AcDbEntity
  8
0
  6
Continuous
 62
     7
370
    15
100
AcDbLine
 10
261.031362061
 20
43.3997168283
 30
0.0
 11
261.031362061
 21
43.8696826005
 31
0.0
  0
LINE
  5
180
330
1F
100
AcDbEntity
  8
0
  6
Continuous
 62
     7
370
    15
100
AcDbLine
 10
261.5890395968
 20
43.3225729978
 30
0.0
 11
261.5890395968
 21
43.9559462677
 31
0.0
  0
ARC
  5
181
330
1F
100
AcDbEntity
  8
0
  6
Continuous
 62
     7
370
    15
100
AcDbCircle
 10
262.7684483014
 20
50.8330112582
 30
0.0
 40
5.34758708989703
100
AcDbArc
 50
44.5002903952
 51
75.1436985711
  0
ARC
  5
182
330
1F
100
AcDbEntity
  8
0
  6
Continuous
 62
     7
370
    15
100
AcDbCircle
 10
252.3660114718
 20
32.8135878189
 30
0.0
 40
5.343630994390313
100
AcDbArc
 50
224.5443236664
 51
255.6269378882
  0
ARC
  5
183
330
1F
100
AcDbEntity
  8
0
  6
Continuous
 62
     7
370
    15
100
AcDbCircle
 10
251.9288709169
 20
34.838148885
 30
0.0
 40
6.890847990550879
100
AcDbArc
 50
188.312493873
 51
236.7139908619
  0
SPLINE
  5
184
330
1F
100
AcDbEntity
  8
0
  6
Continuous
 62
     7
370
    15
100
AcDbSpline
210
0.0
220
0.0
230
1.0
 70
     8
 71
     3
 72
    29
 73
    25
 74
     0
 42
0.000000001
 43
0.00000001
 40
0.0
 40
0.0
 40
0.0
 40
0.0
 40
0.0226170105016674
 40
0.0451713142211041
 40
0.0676870228449807
 40
0.090188372120831
 40
0.1126996441629423
 40
0.1352450890127045
 40
0.1578488467149011
 40
0.1805348711521328
 40
0.2033268568146046
 40
0.2262481695760157
 40
0.2493217824052029
 40
0.3751991801868492
 40
0.499961424646005
 40
0.4999717960761217
 40
0.6247044141102638
 40
0.7509557879397657
 40
0.7931713871186022
 40
0.8349081045046313
 40
0.8763104515914815
 40
0.9175264576320521
 40
0.9587061619408423
 40
1.0
 40
1.0
 40
1.0
 40
1.0
 10
245.1105775395113
 20
38.99617874136887
 30
0.0
 10
245.1289427646334
 20
38.94733885157043
 30
0.0
 10
245.1656222963811
 20
38.84979448298791
 30
0.0
 10
245.2173121250442
 20
38.70233187359039
 30
0.0
 10
245.2664934848654
 20
38.5543945840731
 30
0.0
 10
245.3129831547633
 20
38.40590271884414
 30
0.0
 10
245.3568932512218
 20
38.25691075271297
 30
0.0
 10
245.3982584426772
 20
38.10743896413479
 30
0.0
 10
245.4371357293824
 20
37.95751886082484
 30
0.0
 10
245.4735775744059
 20
37.80718005084122
 30
0.0
 10
245.5076395554945
 20
37.65645759921264
 30
0.0
 10
245.5393766085941
 20
37.50537590247239
 30
0.0
 10
245.6125348804686
 20
37.12965469552088
 30
0.0
 10
245.6982114205079
 20
36.54088427380441
 30
0.0
 10
245.7239437823248
 20
36.03940066979799
 30
0.0
 10
245.7243809385599
 20
35.56894784455427
 30
0.0
 10
245.6989498818405
 20
35.12250531466662
 30
0.0
 10
245.6069825658024
 20
34.68647864317687
 30
0.0
 10
245.5144286717572
 20
34.4182857605543
 30
0.0
 10
245.4508460478685
 20
34.27203464971982
 30
0.0
 10
245.3792005438329
 20
34.14111431787395
 30
0.0
 10
245.2989457695203
 20
34.02566798542334
 30
0.0
 10
245.2105441099262
 20
33.9241459809784
 30
0.0
 10
245.1441874560144
 20
33.86914710401582
 30
0.0
 10
245.1109632141289
 20
33.8416096095234
 30
0.0
  0
LWPOLYLINE
  5
185
330
1F
100
AcDbEntity
  8
0
  6
Continuous
 62
     7
370
    15
100
AcDbPolyline
 90
       27
 70
   128
 43
0.0
 10
245.1103587984
 20
38.996305018
 10
245.3409968129
 20
40.1968013544
 10
245.6497829102
 20
41.4157457291
 10
246.0344577159
 20
42.6442191787
 10
246.4922065809
 20
43.8732330161
 10
247.0196801765
 20
45.0937946001
 10
247.6130190013
 20
46.2969731343
 10
248.2678816207
 20
47.4739650133
 10
248.9794764332
 20
48.6161582384
 10
249.7425967303
 20
49.7151954311
 10
250.5516587937
 20
50.7630349836
 10
251.4007427512
 20
51.7520098993
 10
252.2836358923
 20
52.6748838915
 10
253.1938781258
 20
53.5249043308
 10
254.1248092487
 20
54.2958516546
 10
255.0696176782
 20
54.9820848745
 10
256.0213902918
 20
55.5785828517
 10
256.9731630104
 20
56.0809810362
 10
257.9179717542
 20
56.4856034023
 10
258.8489033982
 20
56.7894893456
 10
259.7591463559
 20
56.9904153457
 10
260.642040419
 20
57.0869112358
 10
261.4911254896
 20
57.0782709595
 10
262.3001888489
 20
56.9645577376
 10
263.0633106154
 20
56.7466036046
 10
263.77490706
 20
56.4260033215
 10
263.8957646601
 20
56.3583429303
  0
SPLINE
  5
186
330
1F
100
AcDbEntity
  8
0
  6
Continuous
 62
     7
370
    15
100
AcDbSpline
210
0.0
220
0.0
230
1.0
 70
     8
 71
     3
 72
     8
 73
     4
 74
     0
 42
0.000000001
 43
0.00000001
 40
0.0
 40
0.0
 40
0.0
 40
0.0
 40
1.0
 40
1.0
 40
1.0
 40
1.0
 10
244.3324224013362
 20
42.27508214487322
 30
0.0
 10
243.6393511662834
 20
42.1592205264985
 30
0.0
 10
242.9457303998871
 20
42.04446183334544
 30
0.0
 10
242.2517512390597
 20
41.93045028570729
 30
0.0
  0
SPLINE
  5
187
330
1F
100
AcDbEntity
  8
0
  6
Continuous
 62
     7
370
    15
100
AcDbSpline
210
0.0
220
0.0
230
1.0
 70
     8
 71
     3
 72
     8
 73
     4
 74
     0
 42
0.000000001
 43
0.00000001
 40
0.0
 40
0.0
 40
0.0
 40
0.0
 40
0.0012389803509652
 40
0.0012389803509652
 40
0.0012389803509652
 40
0.0012389803509652
 10
241.7780148249143
 20
42.20398440646129
 30
0.0
 10
241.9360881598953
 20
42.11271332601078
 30
0.0
 10
242.0940063388612
 20
42.02153179891054
 30
0.0
 10
242.2517512390597
 20
41.93045028570729
 30
0.0
  0
LWPOLYLINE
  5
188
330
1F
100
AcDbEntity
  8
0
  6
Continuous
 62
     7
370
    15
100
AcDbPolyline
 90
       28
 70
   128
 43
0.0
 10
241.7780148249
 20
42.2039844065
 10
242.0848303026
 20
43.4253847935
 10
242.4679892248
 20
44.656666278
 10
242.924674424
 20
45.8887758901
 10
243.4515281324
 20
47.1126545712
 10
244.0446766697
 20
48.3193037804
 10
244.6997589247
 20
49.4998516562
 10
245.4119584194
 20
50.6456182464
 10
246.1760387229
 20
51.7481793277
 10
246.9863819516
 20
52.7994283442
 10
247.8370300751
 20
53.7916360106
 10
248.7217287217
 20
54.7175071423
 10
249.6339731644
 20
55.5702342921
 10
250.5670561461
 20
56.3435478028
 10
251.5141171948
 20
57.0317619037
 10
252.4681930651
 20
57.629816516
 10
253.4222689355
 20
58.1333144564
 10
254.3693299842
 20
58.5385537675
 10
255.3024129659
 20
58.8425549362
 10
256.2146574085
 20
59.0430828007
 10
257.0993560552
 20
59.1386629843
 10
257.9500041786
 20
59.1285927357
 10
258.7603474074
 20
59.0129460964
 10
259.5244277109
 20
58.7925733556
 10
260.2366272056
 20
58.469094799
 10
260.8917094605
 20
58.0448887956
 10
261.4848579979
 20
57.5230743106
 10
261.9161900832
 20
57.0323652701
  0
LINE
  5
189
330
1F
100
AcDbEntity
  8
0
  6
Continuous
 62
     7
370
    15
100
AcDbLine
 10
238.7462945006
 20
43.9541592962
 30
0.0
 11
241.7780148249
 21
42.2039844065
 31
0.0
  0
ARC
  5
18A
330
1F
100
AcDbEntity
  8
0
  6
Continuous
 62
     7
370
    15
100
AcDbCircle
 10
254.6445525696
 20
55.5324119016
 30
0.0
 40
5.340528532815902
100
AcDbArc
 50
60.0493432146
 51
74.3504436768
  0
LINE
  5
18B
330
1F
100
AcDbEntity
  8
0
  6
Continuous
 62
     7
370
    15
100
AcDbLine
 10
244.7350178038
 20
42.2139197542
 30
0.0
 11
244.7256951529
 21
42.219301606
 31
0.0
  0
SPLINE
  5
18C
330
1F
100
AcDbEntity
  8
0
  6
Continuous
 62
     7
370
    15
100
AcDbSpline
210
0.0
220
0.0
230
1.0
 70
     8
 71
     3
 72
    10
 73
     6
 74
     0
 42
0.000000001
 43
0.00000001
 40
0.0
 40
0.0
 40
0.0
 40
0.0
 40
0.2409971518765583
 40
0.7131807703182222
 40
1.0
 40
1.0
 40
1.0
 40
1.0
 10
245.65221852728
 20
41.41151741249815
 30
0.0
 10
245.5863598375612
 20
41.49253628194406
 30
0.0
 10
245.3914647912917
 20
41.73229471589991
 30
0.0
 10
245.0785799117635
 20
41.99802264584066
 30
0.0
 10
244.8292405413398
 20
42.15470945097456
 30
0.0
 10
244.7350178037953
 20
42.21391975415182
 30
0.0
  0
SPLINE
  5
18D
330
1F
100
AcDbEntity
  8
0
  6
Continuous
 62
     7
370
    15
100
AcDbSpline
210
0.0
220
0.0
230
1.0
 70
     8
 71
     3
 72
    10
 73
     6
 74
     0
 42
0.000000001
 43
0.00000001
 40
0.0
 40
0.0
 40
0.0
 40
0.0
 40
0.5
 40
0.5
 40
1.0
 40
1.0
 40
1.0
 40
1.0
 10
244.7256951528882
 20
42.21930160596456
 30
0.0
 10
244.6758945540754
 20
42.24805087971367
 30
0.0
 10
244.6108626373314
 20
42.26881422507434
 30
0.0
 10
244.473804276986
 20
42.28776791446212
 30
0.0
 10
244.4002654369362
 20
42.28642355323431
 30
0.0
 10
244.3324224013362
 20
42.27508214487322
 30
0.0
  0
SPLINE
  5
18E
330
1F
100
AcDbEntity
  8
0
  6
Continuous
 62
     7
370
    15
100
AcDbSpline
210
0.0
220
0.0
230
1.0
 70
     8
 71
     3
 72
     8
 73
     4
 74
     0
 42
0.000000001
 43
0.00000001
 40
0.0
 40
0.0
 40
0.0
 40
0.0
 40
1.0
 40
1.0
 40
1.0
 40
1.0
 10
238.5894698930158
 20
44.04468097537008
 30
0.0
 10
238.6118486895352
 20
44.03176902391824
 30
0.0
 10
238.6660361205525
 20
44.00049147276121
 30
0.0
 10
238.7462945005769
 20
43.95415929618122
 30
0.0
  0
LINE
  5
18F
330
1F
100
AcDbEntity
  8
0
  6
Continuous
 62
     7
370
    15
100
AcDbLine
 10
238.589469893
 20
44.0446809754
 30
0.0
 11
238.6124374833
 21
44.1900663831
 31
0.0
  0
SPLINE
  5
190
330
1F
100
AcDbEntity
  8
0
  6
Continuous
 62
     7
370
    15
100
AcDbSpline
210
0.0
220
0.0
230
1.0
 70
     8
 71
     3
 72
    11
 73
     7
 74
     0
 42
0.000000001
 43
0.00000001
 40
0.0
 40
0.0
 40
0.0
 40
0.0
 40
0.3105157409986116
 40
0.5915933465014848
 40
0.8435752121776465
 40
1.0
 40
1.0
 40
1.0
 40
1.0
 10
245.219002888795
 20
34.5677383482839
 30
0.0
 10
245.3100022472474
 20
34.65920777987166
 30
0.0
 10
245.483373860626
 20
34.83347497470555
 30
0.0
 10
245.6336633455978
 20
35.25200209711689
 30
0.0
 10
245.7077422784311
 20
35.6631372965487
 30
0.0
 10
245.7152834220971
 20
35.95787505420803
 30
0.0
 10
245.7181717731752
 20
36.07076325230705
 30
0.0
  0
SPLINE
  5
191
330
1F
100
AcDbEntity
  8
0
  6
Continuous
 62
     7
370
    15
100
AcDbSpline
210
0.0
220
0.0
230
1.0
 70
     8
 71
     3
 72
     9
 73
     5
 74
     0
 42
0.000000001
 43
0.00000001
 40
0.0
 40
0.0
 40
0.0
 40
0.0
 40
0.5067661695379747
 40
1.0
 40
1.0
 40
1.0
 40
1.0
 10
245.1102814243225
 20
33.84110758173975
 30
0.0
 10
245.128550441634
 20
33.96356193556975
 30
0.0
 10
245.1646006328456
 20
34.20520070546166
 30
0.0
 10
245.2012813722824
 20
34.44735110359084
 30
0.0
 10
245.219373553899
 20
34.56678787200799
 30
0.0
  0
LWPOLYLINE
  5
192
330
1F
100
AcDbEntity
  8
0
  6
Continuous
 62
     7
370
    15
100
AcDbPolyline
 90
       43
 70
   128
 43
0.0
 10
263.2250549739
 20
42.5605445065
 10
262.7086498682
 20
42.217741762
 10
262.2037803991
 20
41.7932198193
 10
261.7217245165
 20
41.2964617973
 10
261.2732505521
 20
40.7385644491
 10
260.8683766732
 20
40.1319902797
 10
260.5161470932
 20
39.4902891537
 10
260.224430039
 20
38.8277956139
 10
259.9997419875
 20
38.1593086711
 10
259.8471020984
 20
37.4997612191
 10
259.7699200946
 20
36.8638864581
 10
259.7699200946
 20
36.2658887795
 10
259.8471020984
 20
35.7191264632
 10
259.9997419875
 20
35.2358132759
 10
260.224430039
 20
34.8267456356
 10
260.5161470932
 20
34.5010614374
 10
260.8683766732
 20
34.266035928
 10
261.2732505521
 20
34.1269191891
 10
261.7217245165
 20
34.0868188586
 10
262.2037803991
 20
34.1466307117
 10
262.7086498682
 20
34.3050186505
 10
263.2250549739
 20
34.55844455
 10
263.7414600797
 20
34.9012472945
 10
264.2463295487
 20
35.3257692371
 10
264.7283854314
 20
35.8225272592
 10
265.1768593958
 20
36.3804246074
 10
265.5817332747
 20
36.9869987768
 10
265.9339628546
 20
37.6286999028
 10
266.2256799088
 20
38.2911934426
 10
266.4503679604
 20
38.9596803854
 10
266.6030078495
 20
39.6192278373
 10
266.6801898533
 20
40.2551025984
 10
266.6801898533
 20
40.853100277
 10
266.6030078495
 20
41.3998625933
 10
266.4503679604
 20
41.8831757805
 10
266.2256799088
 20
42.2922434209
 10
265.9339628546
 20
42.6179276191
 10
265.5817332747
 20
42.8529531284
 10
265.1768593958
 20
42.9920698674
 10
264.7283854314
 20
43.0321701978
 10
264.2463295487
 20
42.9723583447
 10
263.7414600797
 20
42.813970406
 10
263.2250549739
 20
42.5605445065
  0
LWPOLYLINE
  5
193
330
1F
100
AcDbEntity
  8
0
  6
Continuous
 62
     7
370
    15
100
AcDbPolyline
 90
       23
 70
   128
 43
0.0
 10
263.1543442958
 20
42.6830189933
 10
262.6274003103
 20
42.3332202744
 10
262.1122273827
 20
41.9000346186
 10
261.6203336249
 20
41.3931386777
 10
261.1627071306
 20
40.8238556694
 10
260.7495705195
 20
40.2049024353
 10
260.3901525808
 20
39.550105368
 10
260.0924821173
 20
38.8740915518
 10
259.8632085953
 20
38.1919620184
 10
259.7074536065
 20
37.5189544143
 10
259.6286964598
 20
36.8701026174
 10
259.6286964598
 20
36.2599009045
 10
259.7074536065
 20
35.7019801736
 10
259.8632085953
 20
35.2088034519
 10
260.0924821173
 20
34.7913874924
 10
260.3901525808
 20
34.4590566779
 10
260.7495705195
 20
34.2192347295
 10
261.1627071306
 20
34.0772788735
 10
261.6203336249
 20
34.0363601689
 10
262.1122273827
 20
34.0973926721
 10
262.6274003103
 20
34.2590130177
 10
263.1543442958
 20
34.5176108744
 10
263.1549189195
 20
34.5179426515
  0
LWPOLYLINE
  5
194
330
1F
100
AcDbEntity
  8
0
  6
Continuous
 62
     7
370
    15
100
AcDbPolyline
 90
       12
 70
   128
 43
0.0
 10
266.6898782017
 20
40.6413352134
 10
266.6799921319
 20
40.9407289632
 10
266.6012349852
 20
41.4986496941
 10
266.4454799963
 20
41.9918264158
 10
266.2162064743
 20
42.4092423753
 10
265.9185360108
 20
42.7415731898
 10
265.5591180721
 20
42.9813951381
 10
265.145981461
 20
43.1233509942
 10
264.6883549667
 20
43.1642696987
 10
264.1964612089
 20
43.1032371956
 10
263.6812882813
 20
42.9416168499
 10
263.1543442958
 20
42.6830189933
  0
SPLINE
  5
195
330
1F
100
AcDbEntity
  8
0
  6
Continuous
 62
     7
370
    15
100
AcDbSpline
210
0.0
220
0.0
230
1.0
 70
    11
 71
     3
 72
    60
 73
    56
 74
     0
 42
0.000000001
 43
0.00000001
 40
0.0
 40
0.0
 40
0.0
 40
0.0
 40
0.0625000000000018
 40
0.0625000000000018
 40
0.093750000000002
 40
0.093750000000002
 40
0.1250000000000023
 40
0.1250000000000023
 40
0.1562500000000025
 40
0.1562500000000025
 40
0.1875000000000027
 40
0.1875000000000027
 40
0.218750000000003
 40
0.218750000000003
 40
0.2500000000000032
 40
0.2500000000000032
 40
0.2812500000000034
 40
0.2812500000000034
 40
0.3125000000000037
 40
0.3125000000000037
 40
0.3437500000000039
 40
0.3437500000000039
 40
0.3750000000000042
 40
0.3750000000000042
 40
0.4062500000000046
 40
0.4062500000000046
 40
0.4375000000000048
 40
0.4375000000000048
 40
0.468750000000005
 40
0.468750000000005
 40
0.5000000000000052
 40
0.5000000000000052
 40
0.5312500000000054
 40
0.5312500000000054
 40
0.5625000000000057
 40
0.5625000000000057
 40
0.6250000000000049
 40
0.6250000000000049
 40
0.6875000000000041
 40
0.6875000000000041
 40
0.7500000000000033
 40
0.7500000000000033
 40
0.781250000000003
 40
0.781250000000003
 40
0.8125000000000026
 40
0.8125000000000026
 40
0.8437500000000021
 40
0.8437500000000021
 40
0.8750000000000017
 40
0.8750000000000017
 40
0.9062500000000012
 40
0.9062500000000012
 40
0.9375000000000008
 40
0.9375000000000008
 40
1.0
 40
1.0
 40
1.0
 40
1.0
 10
261.4362907639052
 20
44.29730858901128
 30
0.0
 10
261.5916444524045
 20
44.27440642041987
 30
0.0
 10
261.7403358094199
 20
44.23606679835758
 30
0.0
 10
261.9494635364367
 20
44.16252475703918
 30
0.0
 10
262.0153896284791
 20
44.13577998278972
 30
0.0
 10
262.1400074425979
 20
44.07836396871938
 30
0.0
 10
262.1991972889473
 20
44.04737397931767
 30
0.0
 10
262.3070764392858
 20
43.98308340052206
 30
0.0
 10
262.3557498674598
 20
43.94989238865953
 30
0.0
 10
262.4426561162892
 20
43.88126746079126
 30
0.0
 10
262.4811776184819
 20
43.84545965980652
 30
0.0
 10
262.5448577645603
 20
43.77329497115126
 30
0.0
 10
262.5702338025635
 20
43.73690286696942
 30
0.0
 10
262.6077434227609
 20
43.66283039149749
 30
0.0
 10
262.6198610103867
 20
43.6247319844155
 30
0.0
 10
262.6288247188745
 20
43.54926797189012
 30
0.0
 10
262.6259336207003
 20
43.51172739627835
 30
0.0
 10
262.6044384422213
 20
43.43622566040141
 30
0.0
 10
262.5854157071607
 20
43.39791512186053
 30
0.0
 10
262.5320352329933
 20
43.32406612878397
 30
0.0
 10
262.4977031307436
 20
43.28809016805528
 30
0.0
 10
262.4124892498129
 20
43.21770213911409
 30
0.0
 10
262.3621174431428
 20
43.18391242001884
 30
0.0
 10
262.2498406491013
 20
43.1215740880123
 30
0.0
 10
262.1864863317173
 20
43.09227237282443
 30
0.0
 10
262.0519265177767
 20
43.04059387952319
 30
0.0
 10
261.9809500735839
 20
43.01813765708014
 30
0.0
 10
261.8318602591194
 20
42.98021832803423
 30
0.0
 10
261.7553517030494
 20
42.96521756076876
 30
0.0
 10
261.601282649423
 20
42.94359293567427
 30
0.0
 10
261.5225757211016
 20
42.93688660167174
 30
0.0
 10
261.3684403020883
 20
42.93249742110685
 30
0.0
 10
261.292622555519
 20
42.93468206461027
 30
0.0
 10
261.1433029046894
 20
42.94818017325357
 30
0.0
 10
261.0704017050208
 20
42.959533694519
 30
0.0
 10
260.8626826768256
 20
43.00658167842045
 30
0.0
 10
260.7346659929595
 20
43.05658978086959
 30
0.0
 10
260.5198153982216
 20
43.18664546989961
 30
0.0
 10
260.4302553185581
 20
43.26838651447319
 30
0.0
 10
260.3032009974705
 20
43.44976045839627
 30
0.0
 10
260.2639817380312
 20
43.55184906031384
 30
0.0
 10
260.2504071843685
 20
43.70505478291702
 30
0.0
 10
260.2532664618054
 20
43.75710283830279
 30
0.0
 10
260.2750517895381
 20
43.85882608202455
 30
0.0
 10
260.293657106248
 20
43.90783359254616
 30
0.0
 10
260.3469529151096
 20
44.00134882328724
 30
0.0
 10
260.3823585210948
 20
44.04640493716325
 30
0.0
 10
260.4673320999493
 20
44.12669753283433
 30
0.0
 10
260.5168229972593
 20
44.16232010115432
 30
0.0
 10
260.6303544941304
 20
44.22403067307836
 30
0.0
 10
260.6934552307203
 20
44.24941579321926
 30
0.0
 10
260.8276570850229
 20
44.28830689289305
 30
0.0
 10
260.9002368076476
 20
44.30216152965078
 30
0.0
 10
261.1227073023027
 20
44.32639675428256
 30
0.0
 10
261.2809370754059
 20
44.32021075760267
 30
0.0
 10
261.4362907639052
 20
44.29730858901127
 30
0.0
  0
SPLINE
  5
196
330
1F
100
AcDbEntity
  8
0
  6
Continuous
 62
     7
370
    15
100
AcDbSpline
210
0.0
220
0.0
230
1.0
 70
     8
 71
     3
 72
    10
 73
     6
 74
     0
 42
0.000000001
 43
0.00000001
 40
0.0
 40
0.0
 40
0.0
 40
0.0
 40
0.4807908150150776
 40
0.9757817590329644
 40
0.9999999999999999
 40
0.9999999999999999
 40
0.9999999999999999
 40
0.9999999999999999
 10
244.7350178037953
 20
35.64076621847153
 30
0.0
 10
244.8848087506955
 20
35.5605958431095
 30
0.0
 10
245.1888147114769
 20
35.39788726497113
 30
0.0
 10
245.4784301556755
 20
35.28638583424965
 30
0.0
 10
245.6127685863542
 20
35.25815421677037
 30
0.0
 10
245.6190347322149
 20
35.25683736773384
 30
0.0
  0
LINE
  5
197
330
1F
100
AcDbEntity
  8
0
  6
Continuous
 62
     7
370
    15
100
AcDbLine
 10
265.1584629117
 20
38.5721280802
 30
0.0
 11
265.9120607424
 21
39.5095966173
 31
0.0
  0
SPLINE
  5
198
330
1F
100
AcDbEntity
  8
0
  6
Continuous
 62
     7
370
    15
100
AcDbSpline
210
0.0
220
0.0
230
1.0
 70
     8
 71
     3
 72
    21
 73
    17
 74
     0
 42
0.000000001
 43
0.00000001
 40
0.0
 40
0.0
 40
0.0
 40
0.0
 40
0.041666666666667
 40
0.0833333333333336
 40
0.1250000000000028
 40
0.1666666666666667
 40
0.2083333333333333
 40
0.2499999999976953
 40
0.3339999999999608
 40
0.4180000000000001
 40
0.4330099753158392
 40
0.4330099753158392
 40
0.5019999999997408
 40
0.5859999999988206
 40
0.6699999999999804
 40
0.815653684793081
 40
0.815653684793081
 40
0.815653684793081
 40
0.815653684793081
 10
265.9120607424428
 20
39.50959661732266
 30
0.0
 10
265.9420372095381
 20
39.54688705740826
 30
0.0
 10
266.0001841578991
 20
39.62720006446835
 30
0.0
 10
266.0802503603193
 20
39.76514951391329
 30
0.0
 10
266.1480838281029
 20
39.91775646179016
 30
0.0
 10
266.1976178143775
 20
40.07865743737592
 30
0.0
 10
266.2230387843333
 20
40.23860355576033
 30
0.0
 10
266.2189145570425
 20
40.43818455632567
 30
0.0
 10
266.1430510679694
 20
40.62840607240838
 30
0.0
 10
266.0004935990488
 20
40.69928123440882
 30
0.0
 10
265.926625490724
 20
40.71069009423944
 30
0.0
 10
265.8674980588439
 20
40.71695014716301
 30
0.0
 10
265.7792649883969
 20
40.72292278245958
 30
0.0
 10
265.646038512841
 20
40.73572346885304
 30
0.0
 10
265.5137946962315
 20
40.74727627080695
 30
0.0
 10
265.3061596652511
 20
40.76582650990743
 30
0.0
 10
265.1585098024393
 20
40.7790437758009
 30
0.0
  0
SPLINE
  5
199
330
1F
100
AcDbEntity
  8
0
  6
Continuous
 62
     7
370
    15
100
AcDbSpline
210
0.0
220
0.0
230
1.0
 70
     8
 71
     3
 72
    21
 73
    17
 74
     0
 42
0.000000001
 43
0.00000001
 40
0.0
 40
0.0
 40
0.0
 40
0.0
 40
0.041666666666667
 40
0.0833333333333336
 40
0.1250000000000028
 40
0.1666666666666667
 40
0.2083333333333333
 40
0.2499999999976953
 40
0.3339999999999608
 40
0.4180000000000001
 40
0.4330099753158392
 40
0.4330099753158392
 40
0.5019999999997408
 40
0.5859999999988206
 40
0.6699999999999804
 40
0.8133971939535419
 40
0.8133971939535419
 40
0.8133971939535419
 40
0.8133971939535419
 10
260.5380492054209
 20
36.40724579239399
 30
0.0
 10
260.5089759588905
 20
36.40984537873878
 30
0.0
 10
260.4495066035028
 20
36.42314159050948
 30
0.0
 10
260.3699719093132
 20
36.46860104925355
 30
0.0
 10
260.301996019147
 20
36.54290186319205
 30
0.0
 10
260.2525002141721
 20
36.64660875303998
 30
0.0
 10
260.2270689414005
 20
36.77720517345011
 30
0.0
 10
260.2311972248024
 20
36.9815485021904
 30
0.0
 10
260.307053536038
 20
37.25935340421483
 30
0.0
 10
260.4496280249143
 20
37.49484257567317
 30
0.0
 10
260.5234802055223
 20
37.59151785385349
 30
0.0
 10
260.5825936092452
 20
37.66602749669332
 30
0.0
 10
260.6707968181066
 20
37.77383482111664
 30
0.0
 10
260.8043214423326
 20
37.94082636891725
 30
0.0
 10
260.9341520177449
 20
38.10206455206816
 30
0.0
 10
261.1444388026848
 20
38.36364221901761
 30
0.0
 10
261.2915997373494
 20
38.54672315796173
 30
0.0
  0
LINE
  5
19A
330
1F
100
AcDbEntity
  8
0
  6
Continuous
 62
     7
370
    15
100
AcDbLine
 10
261.2916470361
 20
36.3398627904
 30
0.0
 11
260.5380492054
 21
36.4072457924
 31
0.0
  0
SPLINE
  5
19B
330
1F
100
AcDbEntity
  8
0
  6
Continuous
 62
     7
370
    15
100
AcDbSpline
210
0.0
220
0.0
230
1.0
 70
     8
 71
     3
 72
    11
 73
     7
 74
     0
 42
0.000000001
 43
0.00000001
 40
0.0
 40
0.0
 40
0.0
 40
0.0
 40
0.3176374646699617
 40
0.635280479389502
 40
0.9529670978243786
 40
1.0
 40
1.0
 40
1.0
 40
1.0
 10
260.4673385273043
 20
36.67113602643667
 30
0.0
 10
260.4248131400126
 20
36.68159525161839
 30
0.0
 10
260.3397616223873
 20
36.70251388473488
 30
0.0
 10
260.2609757263865
 20
36.81879746796722
 30
0.0
 10
260.223276312775
 20
36.92929314036061
 30
0.0
 10
260.2320007669002
 20
37.00214469643533
 30
0.0
 10
260.2331258407562
 20
37.01153936800231
 30
0.0
  0
ARC
  5
19C
330
1F
100
AcDbEntity
  8
0
  6
Continuous
 62
     7
370
    15
100
AcDbCircle
 10
259.8937003208
 20
39.6770311874
 30
0.0
 40
1.79769824560678
100
AcDbArc
 50
321.0419412495
 51
328.056904001
  0
SPLINE
  5
19D
330
1F
100
AcDbEntity
  8
0
  6
Continuous
 62
     7
370
    15
100
AcDbSpline
210
0.0
220
0.0
230
1.0
 70
     8
 71
     3
 72
    16
 73
    12
 74
     0
 42
0.000000001
 43
0.00000001
 40
0.0
 40
0.0
 40
0.0
 40
0.0
 40
0.2499999999999974
 40
0.2499999999999974
 40
0.4999999999999948
 40
0.4999999999999948
 40
0.6249999999999923
 40
0.6249999999999923
 40
0.74999999999999
 40
0.74999999999999
 40
1.0
 40
1.0
 40
1.0
 40
1.0
 10
265.1585098024393
 20
40.77904377580091
 30
0.0
 10
265.1340672772157
 20
40.78123181274747
 30
0.0
 10
265.1074959874704
 20
40.78225665358725
 30
0.0
 10
265.0467953486465
 20
40.78017549332065
 30
0.0
 10
265.0122429230829
 20
40.77721024108167
 30
0.0
 10
264.9541690065628
 20
40.76490020451686
 30
0.0
 10
264.9341548523493
 20
40.75936356742636
 30
0.0
 10
264.8982792137983
 20
40.74633557455719
 30
0.0
 10
264.8824919330046
 20
40.73890262925882
 30
0.0
 10
264.8443240793552
 20
40.71722754369663
 30
0.0
 10
264.828839867794
 20
40.70325977384832
 30
0.0
 10
264.8169659591846
 20
40.6900848275007
 30
0.0
  0
SPLINE
  5
19E
330
1F
100
AcDbEntity
  8
0
  6
Continuous
 62
     7
370
    15
100
AcDbSpline
210
0.0
220
0.0
230
1.0
 70
     8
 71
     3
 72
     8
 73
     4
 74
     0
 42
0.000000001
 43
0.00000001
 40
0.0
 40
0.0
 40
0.0
 40
0.0
 40
1.0
 40
1.0
 40
1.0
 40
1.0
 10
264.8169659591845
 20
40.69008482750066
 30
0.0
 10
264.7840799785252
 20
40.70323086879084
 30
0.0
 10
264.7519425545449
 20
40.71796874903049
 30
0.0
 10
264.7264687832514
 20
40.73267444417872
 30
0.0
  0
LINE
  5
19F
330
1F
100
AcDbEntity
  8
0
  6
Continuous
 62
     7
370
    15
100
AcDbLine
 10
264.387811197
 20
41.0635901166
 30
0.0
 11
264.3181819842
 21
41.0999071687
 31
0.0
  0
LINE
  5
1A0
330
1F
100
AcDbEntity
  8
0
  6
Continuous
 62
     7
370
    15
100
AcDbLine
 10
263.9887663178
 20
41.1585410126
 30
0.0
 11
264.7264687833
 21
40.7326744442
 31
0.0
  0
ARC
  5
1A1
330
1F
100
AcDbEntity
  8
0
  6
Continuous
 62
     7
370
    15
100
AcDbCircle
 10
259.5367071667
 20
40.9539862586
 30
0.0
 40
3.548171032137482
100
AcDbArc
 50
339.1549033603
 51
358.3496385471
  0
LINE
  5
1A2
330
1F
100
AcDbEntity
  8
0
  6
Continuous
 62
     7
370
    15
100
AcDbLine
 10
262.8526358131
 20
39.6913957133
 30
0.0
 11
264.7264687833
 21
38.6096549651
 31
0.0
  0
LINE
  5
1A3
330
1F
100
AcDbEntity
  8
0
  6
Continuous
 62
     7
370
    15
100
AcDbLine
 10
261.6380346822
 20
36.3003213735
 30
0.0
 11
261.7076463511
 21
36.2640125395
 31
0.0
  0
LINE
  5
1A4
330
1F
100
AcDbEntity
  8
0
  6
Continuous
 62
     7
370
    15
100
AcDbLine
 10
260.3187780007
 20
37.197324854
 30
0.0
 11
261.2993770959
 21
36.6312370458
 31
0.0
  0
LINE
  5
1A5
330
1F
100
AcDbEntity
  8
0
  6
Continuous
 62
     7
370
    15
100
AcDbLine
 10
239.0229031405
 20
43.7944246172
 30
0.0
 11
238.589469893
 21
44.0446809754
 31
0.0
  0
LINE
  5
1A6
330
1F
100
AcDbEntity
  8
0
  6
Continuous
 62
     7
370
    15
100
AcDbLine
 10
242.2517512391
 20
41.9304502857
 30
0.0
 11
239.0229031405
 21
43.7944246172
 31
0.0
  0
SPLINE
  5
1A7
330
1F
100
AcDbEntity
  8
0
  6
Continuous
 62
     7
370
    15
100
AcDbSpline
210
0.0
220
0.0
230
1.0
 70
     8
 71
     3
 72
    11
 73
     7
 74
     0
 42
0.000000001
 43
0.00000001
 40
0.0
 40
0.0
 40
0.0
 40
0.0
 40
0.2167959017936504
 40
0.5260805092056551
 40
0.8354028471249841
 40
1.0
 40
1.0
 40
1.0
 40
1.0
 10
241.1279680618522
 20
39.78059867138533
 30
0.0
 10
241.1232491718904
 20
39.98699106621574
 30
0.0
 10
241.1117982357175
 20
40.48782625392096
 30
0.0
 10
241.0466460963902
 20
41.30659964087125
 30
0.0
 10
241.005900125115
 20
42.0659739728256
 30
0.0
 10
241.0271440280654
 20
42.4985053440771
 30
0.0
 10
241.0345222558224
 20
42.64872797391196
 30
0.0
  0
LINE
  5
1A8
330
1F
100
AcDbEntity
  8
0
  6
Continuous
 62
     7
370
    15
100
AcDbLine
 10
241.1279680619
 20
39.360243316
 30
0.0
 11
241.1279680619
 21
39.7805986714
 31
0.0
  0
LINE
  5
1A9
330
1F
100
AcDbEntity
  8
0
  6
Continuous
 62
     7
370
    15
100
AcDbLine
 10
261.3503012763
 20
36.5921858513
 30
0.0
 11
260.4673385273
 21
36.6711360264
 31
0.0
  0
SPLINE
  5
1AA
330
1F
100
AcDbEntity
  8
0
  6
Continuous
 62
     7
370
    15
100
AcDbSpline
210
0.0
220
0.0
230
1.0
 70
     8
 71
     3
 72
    16
 73
    12
 74
     0
 42
0.000000001
 43
0.00000001
 40
0.0
 40
0.0
 40
0.0
 40
0.0
 40
0.2499999999999908
 40
0.2499999999999908
 40
0.4999999999999816
 40
0.4999999999999816
 40
0.6249999999999822
 40
0.6249999999999822
 40
0.749999999999983
 40
0.749999999999983
 40
1.0
 40
1.0
 40
1.0
 40
1.0
 10
261.2916470361432
 20
36.3398627903563
 30
0.0
 10
261.3159730479241
 20
36.33768767833424
 30
0.0
 10
261.339784637132
 20
36.33853461387651
 30
0.0
 10
261.3827226472476
 20
36.35105013132312
 30
0.0
 10
261.4031867737997
 20
36.36289060610117
 30
0.0
 10
261.4192930346562
 20
36.39896313098033
 30
0.0
 10
261.4218993852029
 20
36.41455020955998
 30
0.0
 10
261.4191026551983
 20
36.45012546367816
 30
0.0
 10
261.4138853979323
 20
36.46947437418866
 30
0.0
 10
261.3926466891878
 20
36.52512412622737
 30
0.0
 10
261.3718414181311
 20
36.55996125162926
 30
0.0
 10
261.3503012762673
 20
36.5921858513073
 30
0.0
  0
SPLINE
  5
1AB
330
1F
100
AcDbEntity
  8
0
  6
Continuous
 62
     7
370
    15
100
AcDbSpline
210
0.0
220
0.0
230
1.0
 70
     8
 71
     3
 72
     8
 73
     4
 74
     0
 42
0.000000001
 43
0.00000001
 40
0.0
 40
0.0
 40
0.0
 40
0.0
 40
1.0
 40
1.0
 40
1.0
 40
1.0
 10
261.2993770959004
 20
36.63123704583668
 30
0.0
 10
261.3248031542852
 20
36.6165588947643
 30
0.0
 10
261.3413512507169
 20
36.60319064045342
 30
0.0
 10
261.3503012762675
 20
36.59218585130716
 30
0.0
  0
LINE
  5
1AC
330
1F
100
AcDbEntity
  8
0
  6
Continuous
 62
     7
370
    15
100
AcDbLine
 10
240.5180884631
 20
42.5956121311
 30
0.0
 11
240.5232763578
 21
42.9282775953
 31
0.0
  0
ARC
  5
1AD
330
1F
100
AcDbEntity
  8
0
  6
Continuous
 62
     7
370
    15
100
AcDbCircle
 10
248.0992421294
 20
42.4266447713
 30
0.0
 40
7.583036389279454
100
AcDbArc
 50
178.7232135802
 51
203.1724163449
  0
SPLINE
  5
1AE
330
1F
100
AcDbEntity
  8
0
  6
Continuous
 62
     7
370
    15
100
AcDbSpline
210
0.0
220
0.0
230
1.0
 70
     8
 71
     3
 72
     8
 73
     4
 74
     0
 42
0.000000001
 43
0.00000001
 40
0.0
 40
0.0
 40
0.0
 40
0.0
 40
1.0
 40
1.0
 40
1.0
 40
1.0
 10
264.7264687832514
 20
38.60965496513498
 30
0.0
 10
264.7518948416363
 20
38.59497681406267
 30
0.0
 10
264.7840832558293
 20
38.59063752300866
 30
0.0
 10
264.816965959122
 20
38.59344877464021
 30
0.0
  0
SPLINE
  5
1AF
330
1F
100
AcDbEntity
  8
0
  6
Continuous
 62
     7
370
    15
100
AcDbSpline
210
0.0
220
0.0
230
1.0
 70
     8
 71
     3
 72
    16
 73
    12
 74
     0
 42
0.000000001
 43
0.00000001
 40
0.0
 40
0.0
 40
0.0
 40
0.0
 40
0.2499999999999946
 40
0.2499999999999946
 40
0.374999999999999
 40
0.374999999999999
 40
0.5000000000000034
 40
0.5000000000000034
 40
0.7500000000000017
 40
0.7500000000000017
 40
1.0
 40
1.0
 40
1.0
 40
1.0
 10
264.8169659591218
 20
38.59344877464058
 30
0.0
 10
264.8286781157021
 20
38.55562477184565
 30
0.0
 10
264.8441363808794
 20
38.51769096089029
 30
0.0
 10
264.8815512575837
 20
38.47186770043346
 30
0.0
 10
264.8969640665351
 20
38.45840994919386
 30
0.0
 10
264.9330015888619
 20
38.44178777820014
 30
0.0
 10
264.9530191994427
 20
38.43914406730977
 30
0.0
 10
265.0107533485258
 20
38.44539450538263
 30
0.0
 10
265.0459631862125
 20
38.46575680421753
 30
0.0
 10
265.1072245237298
 20
38.51346259971751
 30
0.0
 10
265.1339292143135
 20
38.54160839388759
 30
0.0
 10
265.1584629117205
 20
38.57212808022442
 30
0.0
  0
LWPOLYLINE
  5
1B0
330
1F
100
AcDbEntity
  8
0
  6
Continuous
 62
     7
370
    15
100
AcDbPolyline
 90
        3
 70
   128
 43
0.0
 10
228.2742516709
 20
66.0589989015
 10
228.3135386313
 20
66.0472580807
 10
228.4113350828
 20
66.0145650384
  0
LWPOLYLINE
  5
1B1
330
1F
100
AcDbEntity
  8
0
  6
Continuous
 62
     7
370
    15
100
AcDbPolyline
 90
        3
 70
   128
 43
0.0
 10
222.0398656715
 20
54.9776604274
 10
221.9621997947
 20
55.0464165519
 10
221.9389135266
 20
55.0683273556
  0
SPLINE
  5
1B2
330
1F
100
AcDbEntity
  8
0
  6
Continuous
 62
     7
370
    15
100
AcDbSpline
210
0.0
220
0.0
230
1.0
 70
     8
 71
     3
 72
    20
 73
    16
 74
     0
 42
0.000000001
 43
0.00000001
 40
0.0
 40
0.0
 40
0.0
 40
0.0
 40
0.1249999999999998
 40
0.1249999999999998
 40
0.2499999999999996
 40
0.2499999999999996
 40
0.4999999999999999
 40
0.4999999999999999
 40
0.6249999999999999
 40
0.6249999999999999
 40
0.7499999999999999
 40
0.7499999999999999
 40
0.875
 40
0.875
 40
1.0
 40
1.0
 40
1.0
 40
1.0
 10
265.6999287080848
 20
39.69184604018068
 30
0.0
 10
265.7349922529231
 20
39.7354647566167
 30
0.0
 10
265.7667106095854
 20
39.78182662248039
 30
0.0
 10
265.8227263138505
 20
39.88040378307966
 30
0.0
 10
265.8468179724592
 20
39.93245923459626
 30
0.0
 10
265.9042303141514
 20
40.08819330135864
 30
0.0
 10
265.9231866446339
 20
40.19490319715949
 30
0.0
 10
265.9211866256671
 20
40.3355538459189
 30
0.0
 10
265.9156373114422
 20
40.37845010952594
 30
0.0
 10
265.8954139387033
 20
40.45592188013767
 30
0.0
 10
265.8807464239291
 20
40.48965621597458
 30
0.0
 10
265.8431922387679
 20
40.54520485434652
 30
0.0
 10
265.8199449022512
 20
40.56737087651813
 30
0.0
 10
265.7661102814291
 20
40.59852464635969
 30
0.0
 10
265.7349982117187
 20
40.60799891561803
 30
0.0
 10
265.699928663909
 20
40.61113467790017
 30
0.0
  0
LWPOLYLINE
  5
1B3
330
1F
100
AcDbEntity
  8
0
  6
Continuous
 62
     7
370
    15
100
AcDbPolyline
 90
        4
 70
   128
 43
0.0
 10
265.6999286639
 20
40.6111346779
 10
265.4375529533
 20
40.6345949988
 10
265.1751772052
 20
40.6580553414
 10
264.8169659592
 20
40.6900848275
  0
LINE
  5
1B4
330
1F
100
AcDbEntity
  8
0
  6
Continuous
 62
     7
370
    15
100
AcDbLine
 10
244.7256951529
 20
35.6461480703
 30
0.0
 11
244.7350178038
 21
35.6407662185
 31
0.0
  0
ARC
  5
1B5
330
1F
100
AcDbEntity
  8
0
  6
Continuous
 62
     7
370
    15
100
AcDbCircle
 10
247.552910919
 20
36.2930490562
 30
0.0
 40
5.919642220385633
100
AcDbArc
 50
192.6964501328
 51
260.4756565155
  0
SPLINE
  5
1B6
330
1F
100
AcDbEntity
  8
0
  6
Continuous
 62
     7
370
    15
100
AcDbSpline
210
0.0
220
0.0
230
1.0
 70
     8
 71
     3
 72
     8
 73
     4
 74
     0
 42
0.000000001
 43
0.00000001
 40
0.0
 40
0.0
 40
0.0
 40
0.0
 40
0.0012389803509652
 40
0.0012389803509652
 40
0.0012389803509652
 40
0.0012389803509652
 10
242.2517512390597
 20
35.357296750027
 30
0.0
 10
242.0940063388612
 20
35.23522029949228
 30
0.0
 10
241.9360881598953
 20
35.11346299649147
 30
0.0
 10
241.7780148249143
 20
34.99199597494704
 30
0.0
  0
SPLINE
  5
1B7
330
1F
100
AcDbEntity
  8
0
  6
Continuous
 62
     7
370
    15
100
AcDbSpline
210
0.0
220
0.0
230
1.0
 70
     8
 71
     3
 72
     8
 73
     4
 74
     0
 42
0.000000001
 43
0.00000001
 40
0.0
 40
0.0
 40
0.0
 40
0.0
 40
1.0
 40
1.0
 40
1.0
 40
1.0
 10
242.2517512390597
 20
35.357296750027
 30
0.0
 10
242.9457318220014
 20
35.47130853129961
 30
0.0
 10
243.6393648827633
 20
35.58606928381998
 30
0.0
 10
244.3324224013362
 20
35.70192860919293
 30
0.0
  0
SPLINE
  5
1B8
330
1F
100
AcDbEntity
  8
0
  6
Continuous
 62
     7
370
    15
100
AcDbSpline
210
0.0
220
0.0
230
1.0
 70
     8
 71
     3
 72
    12
 73
     8
 74
     0
 42
0.000000001
 43
0.00000001
 40
0.0
 40
0.0
 40
0.0
 40
0.0
 40
0.2499999999999984
 40
0.2499999999999984
 40
0.4999999999999968
 40
0.4999999999999968
 40
1.0
 40
1.0
 40
1.0
 40
1.0
 10
244.3324224013362
 20
35.70192860919293
 30
0.0
 10
244.3662109172604
 20
35.70757707927718
 30
0.0
 10
244.4017826933292
 20
35.71083754279262
 30
0.0
 10
244.4723649397217
 20
35.71197513234074
 30
0.0
 10
244.5073878981706
 20
35.70995851588273
 30
0.0
 10
244.6115931934356
 20
35.69558277854312
 30
0.0
 10
244.6753036253752
 20
35.67523847991072
 30
0.0
 10
244.7256951528882
 20
35.64614807028428
 30
0.0
  0
LINE
  5
1B9
330
1F
100
AcDbEntity
  8
0
  6
Continuous
 62
     7
370
    15
100
AcDbLine
 10
239.0229031405
 20
37.2212710815
 30
0.0
 11
242.2517512391
 21
35.35729675
 31
0.0
  0
LINE
  5
1BA
330
1F
100
AcDbEntity
  8
0
  6
Continuous
 62
     7
370
    15
100
AcDbLine
 10
239.0229031405
 20
37.2212710815
 30
0.0
 11
240.9158360275
 21
38.3140379769
 31
0.0
  0
LINE
  5
1BB
330
1F
100
AcDbEntity
  8
0
  6
Continuous
 62
     7
370
    15
100
AcDbLine
 10
264.8169659591
 20
38.5934487746
 30
0.0
 11
265.6999287081
 21
39.6918460402
 31
0.0
  0
LINE
  5
1BC
330
1F
100
AcDbEntity
  8
0
  6
Continuous
 62
     7
370
    15
100
AcDbLine
 10
262.8526358131
 20
39.6913957133
 30
0.0
 11
263.7553850598
 21
40.8144071939
 31
0.0
  0
ARC
  5
1BD
330
1F
100
AcDbEntity
  8
0
  6
Continuous
 62
     7
370
    15
100
AcDbCircle
 10
262.8995562642
 20
41.5025018096
 30
0.0
 40
1.098142580648335
100
AcDbArc
 50
321.2003823273
 51
341.9574991306
  0
LINE
  5
1BE
330
1F
100
AcDbEntity
  8
0
  6
Continuous
 62
     7
370
    15
100
AcDbLine
 10
238.589469893
 20
36.9710147233
 30
0.0
 11
239.0229031405
 21
37.2212710815
 31
0.0
  0
LINE
  5
1BF
330
1F
100
AcDbEntity
  8
0
  6
Continuous
 62
     7
370
    15
100
AcDbLine
 10
241.7780148249
 20
34.9919959749
 30
0.0
 11
238.7462945006
 21
36.7421708647
 31
0.0
  0
SPLINE
  5
1C0
330
1F
100
AcDbEntity
  8
0
  6
Continuous
 62
     7
370
    15
100
AcDbSpline
210
0.0
220
0.0
230
1.0
 70
     8
 71
     3
 72
     8
 73
     4
 74
     0
 42
0.000000001
 43
0.00000001
 40
0.0
 40
0.0
 40
0.0
 40
0.0
 40
1.0
 40
1.0
 40
1.0
 40
1.0
 10
238.7462945005769
 20
36.74217086466697
 30
0.0
 10
238.6662697010622
 20
36.78836819808893
 30
0.0
 10
238.6117929036803
 20
36.87155572045363
 30
0.0
 10
238.5894698930158
 20
36.97101472329474
 30
0.0
  0
LWPOLYLINE
  5
1C1
330
1F
100
AcDbEntity
  8
0
  6
Continuous
 62
     7
370
    15
100
AcDbPolyline
 90
        3
 70
   128
 43
0.0
 10
241.5621127213
 20
32.879204036
 10
241.0129563454
 20
33.2438835517
 10
240.4671818689
 20
33.7181577619
  0
ELLIPSE
  5
1C2
330
1F
100
AcDbEntity
  8
0
  6
Continuous
 62
     7
370
    15
100
AcDbEllipse
 10
240.6815214524
 20
39.1025375514
 30
0.0
 11
-6.005970385558612E-5
 21
0.8534489614827194
 31
0.0
210
0.0
220
0.0
230
1.0
 40
0.7174342186
 41
3.534193645557441
 42
5.104989972352339
  0
ELLIPSE
  5
1C3
330
1F
100
AcDbEntity
  8
0
  6
Continuous
 62
     7
370
    15
100
AcDbEllipse
 10
240.5622826369
 20
39.0336800713
 30
0.0
 11
0.26000757892092
 21
0.9705436209909237
 31
0.0
210
0.0
220
0.0
230
1.0
 40
0.5176380889
 41
3.619174351347717
 42
5.189970678142604
  0
LWPOLYLINE
  5
1C4
330
1F
100
AcDbEntity
  8
0
  6
Continuous
 62
     7
370
     0
100
AcDbPolyline
 90
       46
 70
   128
 43
0.0
 10
247.1383757019
 20
35.3959130949
 10
247.1772229462
 20
36.4743634827
 10
247.2934847838
 20
37.5898956842
 10
247.4863235454
 20
38.7344722644
 10
247.7543498235
 20
39.8998465229
 10
248.0956324824
 20
41.0776219114
 10
248.5077125728
 20
42.2593125312
 10
248.9876210483
 20
43.4364042743
 10
249.5319001573
 20
44.6004161678
 10
250.1366283563
 20
45.7429614792
 10
250.7974485648
 20
46.8558081435
 10
251.509599558
 20
47.9309380749
 10
252.2679502717
 20
48.9606049377
 10
253.0670367717
 20
49.9373899584
 10
253.9011016214
 20
50.8542553787
 10
254.7641353644
 20
51.7045951621
 10
255.6499198229
 20
52.482282591
 10
256.5520728995
 20
53.1817144098
 10
257.4640945607
 20
53.7978511961
 10
258.3794136694
 20
54.3262536702
 10
259.2914353306
 20
54.7631146802
 10
260.1935884072
 20
55.1052866325
 10
261.0793728657
 20
55.3503041705
 10
261.9424066087
 20
55.496401937
 10
262.7764714584
 20
55.5425272943
 10
263.5755579584
 20
55.4883479083
 10
264.3339086721
 20
55.3342541425
 10
265.0460596653
 20
55.0813562462
 10
265.7068798738
 20
54.7314763544
 10
266.3116080728
 20
54.2871353597
 10
266.8558871817
 20
53.7515347494
 10
267.3357956572
 20
53.1285335379
 10
267.7478757477
 20
52.4226204633
 10
268.0891584066
 20
51.6388816456
 10
268.3571846846
 20
50.7829639407
 10
268.5500234463
 20
49.8610342555
 10
268.6662852838
 20
48.8797351144
 10
268.7051325281
 20
47.8461368002
 10
268.6662852838
 20
46.7676864125
 10
268.5500234463
 20
45.652154211
 10
268.3571846846
 20
44.5075776307
 10
268.0891584066
 20
43.3422033722
 10
267.7478757477
 20
42.1644279838
 10
267.3357956572
 20
40.982737364
 10
266.8558871817
 20
39.8056456209
 10
266.4246976045
 20
38.8714743734
  0
LWPOLYLINE
  5
1C5
330
1F
100
AcDbEntity
  8
0
  6
Continuous
 62
     7
370
     0
100
AcDbPolyline
 90
       28
 70
   128
 43
0.0
 10
264.5549684728
 20
35.6326575883
 10
264.3339086721
 20
35.3111118202
 10
263.5755579584
 20
34.2814449575
 10
262.7764714584
 20
33.3046599367
 10
261.9424066087
 20
32.3877945165
 10
261.0793728657
 20
31.5374547331
 10
260.1935884072
 20
30.7597673041
 10
259.2914353306
 20
30.0603354854
 10
258.3794136694
 20
29.4441986991
 10
257.4640945607
 20
28.915796225
 10
256.5520728995
 20
28.4789352149
 10
255.6499198229
 20
28.1367632626
 10
254.7641353644
 20
27.8917457247
 10
253.9011016214
 20
27.7456479582
 10
253.0670367717
 20
27.6995226008
 10
252.2679502717
 20
27.7537019869
 10
251.509599558
 20
27.9077957526
 10
250.7974485648
 20
28.160693649
 10
250.1366283563
 20
28.5105735408
 10
249.5319001573
 20
28.9549145354
 10
248.9876210483
 20
29.4905151458
 10
248.5077125728
 20
30.1135163572
 10
248.0956324824
 20
30.8194294318
 10
247.7543498235
 20
31.6031682496
 10
247.4863235454
 20
32.4590859544
 10
247.2934847838
 20
33.3810156396
 10
247.1772229462
 20
34.3623147807
 10
247.1383757019
 20
35.3959130949
  0
LWPOLYLINE
  5
1C6
330
1F
100
AcDbEntity
  8
0
  6
Continuous
 62
     7
370
     0
100
AcDbPolyline
 90
       28
 70
   128
 43
0.0
 10
246.4312689208
 20
35.3959130949
 10
246.4703277081
 20
36.4946016455
 10
246.5872301009
 20
37.6306800013
 10
246.7811561127
 20
38.7961793889
 10
247.0507454921
 20
39.9829246675
 10
247.3941072631
 20
41.1825916717
 10
247.8088329897
 20
42.3867655994
 10
248.2920136688
 20
43.5870000356
 10
248.8402601352
 20
44.7748761983
 10
249.4497268338
 20
45.9420619896
 10
250.1161387937
 20
47.0803704397
 10
250.8348216136
 20
48.1818171328
 10
251.6007342502
 20
49.2386762118
 10
252.4085043764
 20
50.2435345695
 10
253.2524660653
 20
51.1893438465
 10
254.1266995319
 20
52.0694698704
 10
255.0250726567
 20
52.8777391894
 10
255.9412839977
 20
53.608482375
 10
256.8689069905
 20
54.2565737889
 10
257.8014350265
 20
54.8174675353
 10
258.7323270914
 20
55.2872293476
 10
259.6550536463
 20
55.6625641844
 10
260.5631424273
 20
55.9408393413
 10
261.4502238441
 20
56.120102918
 10
262.310075658
 20
56.1990975095
 10
263.1366666263
 20
56.1772690254
 10
263.9241988072
 20
56.0547705767
 10
264.1395465239
 20
56.0018387218
  0
ARC
  5
1C7
330
1F
100
AcDbEntity
  8
0
  6
Continuous
 62
     7
370
     0
100
AcDbCircle
 10
255.2036961115
 20
34.8199056019
 30
0.0
 40
8.791317503545994
100
AcDbArc
 50
176.2432869865
 51
220.8881985468
  0
LWPOLYLINE
  5
1C8
330
1F
100
AcDbEntity
  8
0
  6
Continuous
 62
     7
370
     0
100
AcDbPolyline
 90
       26
 70
   128
 43
0.0
 10
252.9720066467
 20
38.7635965562
 10
253.0110368839
 20
39.5025061346
 10
253.1275120654
 20
40.2748260202
 10
253.3195953079
 20
41.068376267
 10
253.584257344
 20
41.8706421137
 10
253.9173242953
 20
42.6689713486
 10
254.313543497
 20
43.4507738427
 10
254.7666663355
 20
44.2037201037
 10
255.2695467931
 20
44.9159357192
 10
255.8142541446
 20
45.5761886236
 10
256.3921980295
 20
46.1740662342
 10
256.9942639276
 20
46.7001396638
 10
257.6109569
 20
47.1461124202
 10
258.2325513301
 20
47.5049512466
 10
258.8492443025
 20
47.7709970404
 10
259.4513102006
 20
47.9400541005
 10
260.0292540855
 20
48.009456296
 10
260.5739614369
 20
47.9781091129
 10
261.0768418945
 20
47.846506915
 10
261.5299647331
 20
47.6167251475
 10
261.9261839348
 20
47.2923876063
 10
262.259250886
 20
46.8786092879
 10
262.5239129221
 20
46.3819157239
 10
262.7159961647
 20
45.8101400682
 10
262.8324713461
 20
45.1722995646
 10
262.8712397368
 20
44.5370940225
  0
LWPOLYLINE
  5
1C9
330
1F
100
AcDbEntity
  8
0
  6
Continuous
 62
     7
370
     0
100
AcDbPolyline
 90
       14
 70
   128
 43
0.0
 10
257.8716460736
 20
35.8766053987
 10
257.6109569
 20
35.7370986486
 10
256.9942639276
 20
35.4710528548
 10
256.3921980295
 20
35.3019957947
 10
255.8142541446
 20
35.2325935991
 10
255.2695467931
 20
35.2639407822
 10
254.7666663355
 20
35.3955429801
 10
254.313543497
 20
35.6253247476
 10
253.9173242953
 20
35.9496622889
 10
253.584257344
 20
36.3634406072
 10
253.3195953079
 20
36.8601341713
 10
253.1275120654
 20
37.4319098269
 10
253.0110368839
 20
38.0697503305
 10
252.9720066467
 20
38.7635965562
  0
LWPOLYLINE
  5
1CA
330
1F
100
AcDbEntity
  8
0
  6
Continuous
 62
     7
370
     0
100
AcDbPolyline
 90
       21
 70
   128
 43
0.0
 10
244.3324224013
 20
42.2750821449
 10
244.6267497275
 20
43.3785306508
 10
244.9929285073
 20
44.4889242918
 10
245.4279622447
 20
45.5971765493
 10
245.928290993
 20
46.6942184283
 10
246.4898204868
 20
47.7710726698
 10
247.1079556456
 20
48.8189272133
 10
247.7776381762
 20
49.8292073073
 10
248.4933879658
 20
50.7936456775
 10
249.2493479259
 20
51.7043501795
 10
250.0393319224
 20
52.5538683813
 10
250.8568753971
 20
53.3352485473
 10
251.6952882687
 20
54.042096526
 10
252.5477096783
 20
54.6686280739
 10
253.4071641332
 20
55.2097161891
 10
254.2666185881
 20
55.6609330658
 10
255.1190399977
 20
56.0185863285
 10
255.9574528693
 20
56.2797492466
 10
256.774996344
 20
56.4422846846
 10
257.5649803405
 20
56.5048625907
 10
257.9516695213
 20
56.4982702279
  0
LWPOLYLINE
  5
1CB
330
1F
100
AcDbEntity
  8
0
  6
Continuous
 62
     7
370
     0
100
AcDbPolyline
 90
       24
 70
   128
 43
0.0
 10
238.7462945006
 20
43.9541592962
 10
239.0531099783
 20
45.1755596833
 10
239.4362689004
 20
46.4068411677
 10
239.8929540996
 20
47.6389507798
 10
240.419807808
 20
48.8628294609
 10
241.0129563454
 20
50.0694786701
 10
241.6680386003
 20
51.2500265459
 10
242.380238095
 20
52.3957931361
 10
243.1443183985
 20
53.4983542174
 10
243.9546616273
 20
54.5496032339
 10
244.8053097508
 20
55.5418109003
 10
245.6900083974
 20
56.467682032
 10
246.6022528401
 20
57.3204091819
 10
247.5353358217
 20
58.0937226925
 10
248.4823968704
 20
58.7819367934
 10
249.4364727408
 20
59.3799914057
 10
250.3905486112
 20
59.8834893461
 10
251.3376096599
 20
60.2887286572
 10
252.2706926415
 20
60.5927298259
 10
253.1829370842
 20
60.7932576904
 10
254.0676357308
 20
60.888837874
 10
254.9182838543
 20
60.8787676255
 10
255.7286270831
 20
60.7631209861
 10
256.0851749851
 20
60.6749649704
  0
LWPOLYLINE
  5
1CC
330
1F
100
AcDbEntity
  8
0
  6
Continuous
 62
     7
370
     0
100
AcDbPolyline
 90
       19
 70
   128
 43
0.0
 10
244.7256951529
 20
42.219301606
 10
245.0303800463
 20
43.3431445355
 10
245.4103709181
 20
44.4734744584
 10
245.862348762
 20
45.6004185799
 10
246.3823658065
 20
46.7141336784
 10
246.9658799957
 20
47.8048920803
 10
247.6077946622
 20
48.8631666258
 10
248.3025030432
 20
49.8797138833
 10
249.0439372525
 20
50.8456548856
 10
249.8256212803
 20
51.7525526824
 10
250.6407275573
 20
52.5924860327
 10
251.4821365896
 20
53.3581185921
 10
252.3424991435
 20
54.042762992
 10
253.2143004372
 20
54.6404392492
 10
254.0899257778
 20
55.1459269987
 10
254.9617270715
 20
55.5548110899
 10
255.8220896254
 20
55.8635201508
 10
256.6634986576
 20
56.0693577816
 10
257.0866042483
 20
56.1345579796
  0
ARC
  5
1CD
330
1F
100
AcDbEntity
  8
0
  6
Continuous
 62
     7
370
     0
100
AcDbCircle
 10
258.259585653
 20
38.4972992454
 30
0.0
 40
2.473528296589504
100
AcDbArc
 50
173.8196216534
 51
234.8681979532
  0
LWPOLYLINE
  5
1CE
330
1F
100
AcDbEntity
  8
0
  6
Continuous
 62
     7
370
     0
100
AcDbPolyline
 90
       17
 70
   128
 43
0.0
 10
261.835764509
 20
45.1348611477
 10
261.5403370119
 20
45.2691587327
 10
261.1037346304
 20
45.3608524071
 10
260.6276432563
 20
45.3507673078
 10
260.1226979842
 20
45.2391287193
 10
259.6001784571
 20
45.0284304631
 10
259.0717568977
 20
44.7233791901
 10
258.5492373706
 20
44.3307892416
 10
258.0442920985
 20
43.8594304285
 10
257.5682007244
 20
43.3198321276
 10
257.1315983429
 20
42.7240480733
 10
256.7442379297
 20
42.085387097
 10
256.4147724764
 20
41.4181158294
 10
256.1505616967
 20
40.7371400081
 10
255.957507623
 20
40.0576715076
 10
255.8399227641
 20
39.3948885315
 10
255.8004337715
 20
38.7635965562
  0
LINE
  5
1CF
330
1F
100
AcDbEntity
  8
0
  6
Continuous
 62
     7
370
     0
100
AcDbLine
 10
244.7350178038
 20
35.6407662185
 30
0.0
 11
245.1407990451
 21
35.8750187429
 31
0.0
  0
LWPOLYLINE
  5
1D0
330
1F
100
AcDbEntity
  8
0
  6
Continuous
 62
     7
370
     0
100
AcDbPolyline
 90
        3
 70
   128
 43
0.0
 10
245.6878984415
 20
35.6204783103
 10
245.6092524976
 20
35.6494109444
 10
245.1407990451
 20
35.8750187429
  0
LWPOLYLINE
  5
1D1
330
1F
100
AcDbEntity
  8
0
  6
Continuous
 62
     7
370
     0
100
AcDbPolyline
 90
       12
 70
   128
 43
0.0
 10
261.2916470361
 20
36.3398627904
 10
261.5228617604
 20
36.0475787926
 10
261.8233902346
 20
35.8575806562
 10
262.180994861
 20
35.7776051545
 10
262.5811138865
 20
35.8109089107
 10
263.0074543603
 20
35.9561357874
 10
263.4426555876
 20
36.2073721082
 10
263.8689960614
 20
36.554387465
 10
264.2691150869
 20
36.9830513022
 10
264.6267197133
 20
37.4759083172
 10
264.9272481874
 20
38.0128892441
 10
265.1584629117
 20
38.5721280802
  0
LWPOLYLINE
  5
1D2
330
1F
100
AcDbEntity
  8
0
  6
Continuous
 62
     7
370
     0
100
AcDbPolyline
 90
       12
 70
   128
 43
0.0
 10
265.1585098024
 20
40.7790437758
 10
264.9273013048
 20
41.071362084
 10
264.6267707694
 20
41.2613874549
 10
264.2691569592
 20
41.3413813222
 10
263.8690232882
 20
41.308086027
 10
263.442664743
 20
41.1628574822
 10
263.0074442885
 20
40.9116099545
 10
262.5810857806
 20
40.5645752124
 10
262.1809521827
 20
40.1358858494
 10
261.8233384784
 20
39.6429997503
 10
261.5228080775
 20
39.1059891386
 10
261.2915997373
 20
38.546723158
  0
ARC
  5
1D3
330
1F
100
AcDbEntity
  8
0
  6
Continuous
 62
     7
370
     0
100
AcDbCircle
 10
244.4533009711
 20
36.9313393492
 30
0.0
 40
1.260343931249081
100
AcDbArc
 50
303.0577786045
 51
346.2438194889
  0
LINE
  5
1D4
330
1F
100
AcDbEntity
  8
0
  6
Continuous
 62
     7
370
     0
100
AcDbLine
 10
260.4673385273
 20
36.6711360264
 30
0.0
 11
260.5380492054
 21
36.4072457924
 31
0.0
  0
LWPOLYLINE
  5
1D5
330
1F
100
AcDbEntity
  8
0
  6
Continuous
 62
     7
370
     0
100
AcDbPolyline
 90
        3
 70
   128
 43
0.0
 10
264.7264687833
 20
40.7326744442
 10
264.4900361951
 20
40.9950675892
 10
264.387811197
 20
41.0635901166
  0
LWPOLYLINE
  5
1D6
330
1F
100
AcDbEntity
  8
0
  6
Continuous
 62
     7
370
     0
100
AcDbPolyline
 90
       10
 70
   128
 43
0.0
 10
261.7076463511
 20
36.2640125395
 10
261.8406897145
 20
36.2136372486
 10
262.1998894565
 20
36.1728091568
 10
262.596764077
 20
36.2482515443
 10
263.0129229396
 20
36.4364685123
 10
263.4290818022
 20
36.7287383396
 10
263.8259564227
 20
37.1115176354
 10
264.1851561647
 20
37.5670689216
 10
264.4900361951
 20
38.0742825643
 10
264.7264687833
 20
38.6096549651
  0
LINE
  5
1D7
330
1F
100
AcDbEntity
  8
0
  6
Continuous
 62
     7
370
     0
100
AcDbLine
 10
260.3160877738
 20
36.7584512279
 30
0.0
 11
260.4673385273
 21
36.6711360264
 31
0.0
  0
LINE
  5
1D8
330
1F
100
AcDbEntity
  8
0
  6
Continuous
 62
     7
370
     0
100
AcDbLine
 10
241.2472068774
 20
39.4291007961
 30
0.0
 11
245.6347963845
 21
36.896199288
 31
0.0
  0
LINE
  5
1D9
330
1F
100
AcDbEntity
  8
0
  6
Continuous
 62
     7
370
     0
100
AcDbLine
 10
241.1279680619
 20
39.360243316
 30
0.0
 11
241.2472068774
 21
39.4291007961
 31
0.0
  0
LINE
  5
1DA
330
1F
100
AcDbEntity
  8
0
  6
Continuous
 62
     7
370
     0
100
AcDbLine
 10
240.8716418537
 20
42.3915101031
 30
0.0
 11
240.8768297484
 21
42.7241755674
 31
0.0
  0
ARC
  5
1DB
330
1F
100
AcDbEntity
  8
0
  6
Continuous
 62
     7
370
     0
100
AcDbCircle
 10
249.475754038
 20
42.3178546998
 30
0.0
 40
8.604427441706594
100
AcDbArc
 50
179.5095321196
 51
192.163968291
  0
LWPOLYLINE
  5
1DC
330
1F
100
AcDbEntity
  8
0
  6
Continuous
 62
     7
370
     0
100
AcDbPolyline
 90
       18
 70
   128
 43
0.0
 10
221.0261259554
 20
57.6903895507
 10
221.0648792625
 20
58.3955279798
 10
221.1804761039
 20
59.1333449108
 10
221.3709385856
 20
59.8912160915
 10
221.6330078418
 20
60.6561741358
 10
221.9621997947
 20
61.4151303996
 10
222.352881879
 20
62.1550989307
 10
222.7983694156
 20
62.8634186624
 10
223.2910399895
 20
63.5279700477
 10
223.8224638704
 20
64.1373824282
 10
224.3835482484
 20
64.6812285891
 10
224.9646928143
 20
65.1502031718
 10
225.5559540235
 20
65.5362818911
 10
226.1472152326
 20
65.8328588331
 10
226.7283597985
 20
66.0348594841
 10
227.2894441766
 20
66.138827557
 10
227.8208680575
 20
66.1429841293
 10
228.2742516709
 20
66.0589989015
  0
ARC
  5
1DD
330
1F
100
AcDbEntity
  8
0
  6
Continuous
 62
     7
370
     0
100
AcDbCircle
 10
224.6227736035
 20
57.4725379747
 30
0.0
 40
3.603239322259058
100
AcDbArc
 50
176.5337875941
 51
221.8540867457
  0
LINE
  5
1DE
330
1F
100
AcDbEntity
  8
0
  6
Continuous
 62
     7
370
     0
100
AcDbLine
 10
265.9120607424
 20
39.5095966173
 30
0.0
 11
265.6999287081
 21
39.6918460402
 31
0.0
  0
LWPOLYLINE
  5
1DF
330
1F
100
AcDbEntity
  8
0
  6
Continuous
 62
     7
370
     0
100
AcDbPolyline
 90
        3
 70
   128
 43
0.0
 10
245.1926845914
 20
34.5517097785
 10
245.0303800463
 20
34.8740868309
 10
244.7256951529
 20
35.6461480703
  0
ARC
  5
1E0
330
1F
100
AcDbEntity
  8
0
  6
Continuous
 62
     7
370
     0
100
AcDbCircle
 10
250.3744155325
 20
37.5793048667
 30
0.0
 40
6.326944176277604
100
AcDbArc
 50
197.2611351492
 51
214.0281525679
  0
LINE
  5
1E1
330
1F
100
AcDbEntity
  8
0
  6
Continuous
 62
     7
370
     0
100
AcDbLine
 10
245.1407990451
 20
35.8750187429
 30
0.0
 11
240.9158360275
 21
38.3140379769
 31
0.0
  0
LINE
  5
1E2
330
1F
100
AcDbEntity
  8
0
  6
Continuous
 62
     7
370
     0
100
AcDbLine
 10
263.7553850598
 20
40.8144071939
 30
0.0
 11
265.6999287081
 21
39.6918460402
 31
0.0
  0
ARC
  5
1E3
330
1F
100
AcDbEntity
  8
0
  6
Continuous
 62
     7
370
     0
100
AcDbCircle
 10
245.4402544212
 20
38.549866994
 30
0.0
 40
6.933748244317555
100
AcDbArc
 50
195.112183421
 51
224.1739785086
  0
OLE2FRAME
  5
1E4
330
1F
100
AcDbEntity
  8
0
100
AcDbOle2Frame
 70
     2
  3
Paintbrush-Bild
 10
13.8511154363
 20
38.264191557
 30
0.0
 11
51.6290888628
 21
31.9806341108
 31
0.0
 71
     2
 72
     0
 73
     1
 90
    12928
310
80552BED0767C5B32B40DDAF6807D121434000000000000000006FFBDDFB85D0
310
4940DDAF6807D121434000000000000000006FFBDDFB85D04940416F4BD60AFB
310
3F4000000000000000002BED0767C5B32B40416F4BD60AFB3F40000000000000
310
0000000000000100000000010000010000000100000000000100000000320000
310
D0CF11E0A1B11AE1000000000000000000000000000000003E000300FEFF0900
310
0600000000000000000000000100000001000000000000000010000002000000
310
01000000FEFFFFFF0000000000000000FFFFFFFFFFFFFFFFFFFFFFFFFFFFFFFF
310
FFFFFFFFFFFFFFFFFFFFFFFFFFFFFFFFFFFFFFFFFFFFFFFFFFFFFFFFFFFFFFFF
310
FFFFFFFFFFFFFFFFFFFFFFFFFFFFFFFFFFFFFFFFFFFFFFFFFFFFFFFFFFFFFFFF
310
FFFFFFFFFFFFFFFFFFFFFFFFFFFFFFFFFFFFFFFFFFFFFFFFFFFFFFFFFFFFFFFF
310
FFFFFFFFFFFFFFFFFFFFFFFFFFFFFFFFFFFFFFFFFFFFFFFFFFFFFFFFFFFFFFFF
310
FFFFFFFFFFFFFFFFFFFFFFFFFFFFFFFFFFFFFFFFFFFFFFFFFFFFFFFFFFFFFFFF
310
FFFFFFFFFFFFFFFFFFFFFFFFFFFFFFFFFFFFFFFFFFFFFFFFFFFFFFFFFFFFFFFF
310
FFFFFFFFFFFFFFFFFFFFFFFFFFFFFFFFFFFFFFFFFFFFFFFFFFFFFFFFFFFFFFFF
310
FFFFFFFFFFFFFFFFFFFFFFFFFFFFFFFFFFFFFFFFFFFFFFFFFFFFFFFFFFFFFFFF
310
FFFFFFFFFFFFFFFFFFFFFFFFFFFFFFFFFFFFFFFFFFFFFFFFFFFFFFFFFFFFFFFF
310
FFFFFFFFFFFFFFFFFFFFFFFFFFFFFFFFFFFFFFFFFFFFFFFFFFFFFFFFFFFFFFFF
310
FFFFFFFFFFFFFFFFFFFFFFFFFFFFFFFFFFFFFFFFFFFFFFFFFFFFFFFFFFFFFFFF
310
FFFFFFFFFFFFFFFFFFFFFFFFFFFFFFFFFFFFFFFFFFFFFFFFFFFFFFFFFFFFFFFF
310
FFFFFFFFFFFFFFFFFFFFFFFFFFFFFFFFFFFFFFFFFFFFFFFFFFFFFFFFFFFFFFFF
310
FDFFFFFFFEFFFFFFFEFFFFFFFEFFFFFF05000000060000000700000008000000
310
090000000A0000000B0000000C0000000D0000000E0000000F00000010000000
310
11000000120000001300000014000000150000001600000017000000FEFFFFFF
310
FFFFFFFFFFFFFFFFFFFFFFFFFFFFFFFFFFFFFFFFFFFFFFFFFFFFFFFFFFFFFFFF
310
FFFFFFFFFFFFFFFFFFFFFFFFFFFFFFFFFFFFFFFFFFFFFFFFFFFFFFFFFFFFFFFF
310
FFFFFFFFFFFFFFFFFFFFFFFFFFFFFFFFFFFFFFFFFFFFFFFFFFFFFFFFFFFFFFFF
310
FFFFFFFFFFFFFFFFFFFFFFFFFFFFFFFFFFFFFFFFFFFFFFFFFFFFFFFFFFFFFFFF
310
FFFFFFFFFFFFFFFFFFFFFFFFFFFFFFFFFFFFFFFFFFFFFFFFFFFFFFFFFFFFFFFF
310
FFFFFFFFFFFFFFFFFFFFFFFFFFFFFFFFFFFFFFFFFFFFFFFFFFFFFFFFFFFFFFFF
310
FFFFFFFFFFFFFFFFFFFFFFFFFFFFFFFFFFFFFFFFFFFFFFFFFFFFFFFFFFFFFFFF
310
FFFFFFFFFFFFFFFFFFFFFFFFFFFFFFFFFFFFFFFFFFFFFFFFFFFFFFFFFFFFFFFF
310
FFFFFFFFFFFFFFFFFFFFFFFFFFFFFFFFFFFFFFFFFFFFFFFFFFFFFFFFFFFFFFFF
310
FFFFFFFFFFFFFFFFFFFFFFFFFFFFFFFFFFFFFFFFFFFFFFFFFFFFFFFFFFFFFFFF
310
FFFFFFFFFFFFFFFFFFFFFFFFFFFFFFFFFFFFFFFFFFFFFFFFFFFFFFFFFFFFFFFF
310
FFFFFFFFFFFFFFFFFFFFFFFFFFFFFFFFFFFFFFFFFFFFFFFFFFFFFFFFFFFFFFFF
310
FFFFFFFFFFFFFFFFFFFFFFFFFFFFFFFFFFFFFFFFFFFFFFFFFFFFFFFFFFFFFFFF
310
52006F006F007400200045006E00740072007900000000000000000000000000
310
0000000000000000000000000000000000000000000000000000000000000000
310
16000500FFFFFFFFFFFFFFFF020000000A00030000000000C000000000000046
310
000000000000000000000000F0EFC0D28320D20103000000C000000000000000
310
01004F006C006500000000000000000000000000000000000000000000000000
310
0000000000000000000000000000000000000000000000000000000000000000
310
0A000200FFFFFFFFFFFFFFFFFFFFFFFF00000000000000000000000000000000
310
0000000000000000000000000000000000000000000000001400000000000000
310
010043006F006D0070004F0062006A0000000000000000000000000000000000
310
0000000000000000000000000000000000000000000000000000000000000000
310
120002010100000003000000FFFFFFFF00000000000000000000000000000000
310
0000000000000000000000000000000000000000010000004D00000000000000
310
01004F006C006500310030004E00610074006900760065000000000000000000
310
0000000000000000000000000000000000000000000000000000000000000000
310
1A000200FFFFFFFFFFFFFFFFFFFFFFFF00000000000000000000000000000000
310
0000000000000000000000000000000000000000040000002426000000000000
310
FEFFFFFF02000000FEFFFFFFFFFFFFFFFFFFFFFFFFFFFFFFFFFFFFFFFFFFFFFF
310
FFFFFFFFFFFFFFFFFFFFFFFFFFFFFFFFFFFFFFFFFFFFFFFFFFFFFFFFFFFFFFFF
310
FFFFFFFFFFFFFFFFFFFFFFFFFFFFFFFFFFFFFFFFFFFFFFFFFFFFFFFFFFFFFFFF
310
FFFFFFFFFFFFFFFFFFFFFFFFFFFFFFFFFFFFFFFFFFFFFFFFFFFFFFFFFFFFFFFF
310
FFFFFFFFFFFFFFFFFFFFFFFFFFFFFFFFFFFFFFFFFFFFFFFFFFFFFFFFFFFFFFFF
310
FFFFFFFFFFFFFFFFFFFFFFFFFFFFFFFFFFFFFFFFFFFFFFFFFFFFFFFFFFFFFFFF
310
FFFFFFFFFFFFFFFFFFFFFFFFFFFFFFFFFFFFFFFFFFFFFFFFFFFFFFFFFFFFFFFF
310
FFFFFFFFFFFFFFFFFFFFFFFFFFFFFFFFFFFFFFFFFFFFFFFFFFFFFFFFFFFFFFFF
310
FFFFFFFFFFFFFFFFFFFFFFFFFFFFFFFFFFFFFFFFFFFFFFFFFFFFFFFFFFFFFFFF
310
FFFFFFFFFFFFFFFFFFFFFFFFFFFFFFFFFFFFFFFFFFFFFFFFFFFFFFFFFFFFFFFF
310
FFFFFFFFFFFFFFFFFFFFFFFFFFFFFFFFFFFFFFFFFFFFFFFFFFFFFFFFFFFFFFFF
310
FFFFFFFFFFFFFFFFFFFFFFFFFFFFFFFFFFFFFFFFFFFFFFFFFFFFFFFFFFFFFFFF
310
FFFFFFFFFFFFFFFFFFFFFFFFFFFFFFFFFFFFFFFFFFFFFFFFFFFFFFFFFFFFFFFF
310
FFFFFFFFFFFFFFFFFFFFFFFFFFFFFFFFFFFFFFFFFFFFFFFFFFFFFFFFFFFFFFFF
310
FFFFFFFFFFFFFFFFFFFFFFFFFFFFFFFFFFFFFFFFFFFFFFFFFFFFFFFFFFFFFFFF
310
FFFFFFFFFFFFFFFFFFFFFFFFFFFFFFFFFFFFFFFFFFFFFFFFFFFFFFFFFFFFFFFF
310
0100000200000000000000000000000000000000000000000000000000000000
310
0000000000000000000000000000000000000000000000000000000000000000
310
0100FEFF030A0000FFFFFFFF0A00030000000000C00000000000004607000000
310
5042727573680007000000504272757368000700000050427275736800F439B2
310
7100000000000000000000000000000000000000000000000000000000000000
310
0000000000000000000000000000000000000000000000000000000000000000
310
0000000000000000000000000000000000000000000000000000000000000000
310
0000000000000000000000000000000000000000000000000000000000000000
310
0000000000000000000000000000000000000000000000000000000000000000
310
0000000000000000000000000000000000000000000000000000000000000000
310
0000000000000000000000000000000000000000000000000000000000000000
310
0000000000000000000000000000000000000000000000000000000000000000
310
0000000000000000000000000000000000000000000000000000000000000000
310
0000000000000000000000000000000000000000000000000000000000000000
310
0000000000000000000000000000000000000000000000000000000000000000
310
0000000000000000000000000000000000000000000000000000000000000000
310
20260000424D0E260000000000003E00000028000000B40200006E0000000100
310
01000000000000000000130B0000130B00000200000002000000000000FFFFFF
310
FFFFFFFFFFFFFFFFFFFFFFFFFFFFFFFFFFFFFFFFFFFFFFFFFFFFFFFFFFFFFFFF
310
FFFFFFFFFFFFFFFFFFFFFFFFFFFFFFFFFFFFFFFFFFFFFFFFFFFFFFFFFFFFFFFF
310
FFFFFFFFFFFFFFFFFFFFFFFFFFFFFFFFFFFFFFFFFFFFFFFFF000FFFFFFFFFFFF
310
FFFFFFFFFFFFFFFFFFFFFFFFFFFFFFFFFFFFFFFFFFFFFFFFFFFFFFFFFFFFFFFF
310
FFFFFFFFFFFFFFFFFFFFFFFFFFFFFFFFFFFFFFFFFFFFFFFFFFFFFFFFFFFFFFFF
310
FFFFFFFFFFFFFFFFFFFFFFFFFFFFFFFFF000FFFFFFFFFFFFFFFFFFFFFFFFFFFF
310
FFFFFFFFFFFFFFFFFFFFFFFFFFFFFFFFFFFFFFFFFFFFFFFFFFFFFFFFFFFFFFFF
310
FFFFFFFFFFFFFFFFFFFFFFFFFFFFFFFFFFFFFFFFFFFFFFFFFFFFFFFFFFFFFFFF
310
FFFFFFFFFFFFFFFFF000FFFFFFFFFFFFFFFFFFFFFFFFFFFFFFFFFFFFFFFFFFFF
310
FFFFFFFFFFFFFFFFFFFFFFFFFFFFFFFFFFFFFFFFFFFFFFFFFFFFFFFFFFFFFFFF
310
FFFFFFFFFFFFFFFFFFFFFFFFFFFFFFFFFFFFFFFFFFFFFFFFFFFFFFFFFFFFFFFF
310
F000FFFFFFFFFFFFFFFFFFFFFFFFFFFFFFFFFFFFFFFFFFFFFFFFFFFFFFFFFFFF
310
FFFFFFFFFFFFFFFFFFFFFFFFFFFFFFFFFFFFFFFFFFFFFFFFFFFFFFFFFFFFFFFF
310
FFFFFFFFFFFFFFFFFFFFFFFFFFFFFFFFFFFFFFFFFFFFFFFFF000FFFFFFFFFFFF
310
FFFFFFFFFFFFFFFFFFFFFFFFFFFFFFFFFFFFFFFFFFFFFFFFFFFFFFFFFFFFFFFF
310
FFFFFFFFFFFFFFFFFFFFFFFFFFFFFFFFFFFFFFFFFFFFFFFFFFFFFFFFFFFFFFFF
310
FFFFFFFFFFFFFFFFFFFFFFFFFFFFFFFFF000FFFFFFFFFFFFFFFFFFFFFFFFFFFF
310
FFFFFFFFFFFFFFFFFFFFFFFFFFFFFFFFFFFFFFFFFFFFFFFFFFFFFFFFFFFFFFFF
310
FFFFFFFFFFFFFFFFFFFFFFFFFFFFFFFFFFFFFFFFFFFFFFFFFFFFFFFFFFFFFFFF
310
FFFFFFFFFFFFFFFFF000FFFFFFFFFFFFFFFFFFFFFFFFFFFFFFFFFFFFFFFFFFFF
310
FFFFFFFFFFFFFFFFFFFFFFFFFFFFFFFFFFFFFFFFFFFFFFFFFFFFFFFFFFFFFFFF
310
FFFFFFFFFFFFFFFFFFFFFFFFFFFFFFFFFFFFFFFFFFFFFFFFFFFFFFFFFFFFFFFF
310
F000FFFFFFFFFFFFFFFFFFFFFFFFFFFFFFFFFFFFFFFFFFFFFFFFFFFFFFFFFFFF
310
FFFFFFFFFFFFFFFFFFFFFFFFFFFFFFFFFFFFFFFFFFFFFFFFFFFFFFFFFFFFFFFF
310
FFFFFFFFFFFFFFFFFFFFFFFFFFFFFFFFFFFFFFFFFFFFFFFFF000FFFFFFFFFFFF
310
FFFFFFFFFFFFFFFFFFFFFFFFFFFFFFFFFFFFFFFFFFFFFFFFFFFFFFFFFFFFFFFF
310
FFFFFFFFFFFFFFFFFFFFFFFFFFFFFFFFFFFFFFFFFFFFFFFFFFFFFFFFFFFFFFFF
310
FFFFFFFFFFFFFFFFFFFFFFFFFFFFFFFFF000FFFFFFFFFFFFFFFFFFFFFFFFFFFF
310
FFFFFFFFFFFFFFFFFFFFFFFFFFFFFFFFFFFFFFFFFFFFFFFFFFFFFFFFFFFFFFFF
310
FFFFFFFFFFFFFFFFFFFFFFFFFFFFFFFFFFFFFFFFFFFFFFFFFFFFFFFFFFFFFFFF
310
FFFFFFFFFFFFFFFFF000FFFFFFFFFFFFFFFFFFFFFFFFFFFFFFFFFFFFFFFFFFFF
310
FFFFFFFFFFFFFFFFFFFFFFFFFFFFFFFFFFFFFFFFFFFFFFFFFFFFFFFFFFFFFFFF
310
FFFFFFFFFFFFFFFFFFFFFFFFFFFFFFFFFFFFFFFFFFFFFFFFFFFFFFFFFFFFFFFF
310
F000FFFFFFFFFFFFFFFFFFFFFFFFFFFFFFFFFFFFFFFFFFFFFFFFFFFFFFFFFFFF
310
FFFFFFFFFFFFFFFFFFFFFFFFFFFFFFFFFFFFFFFFFFFFFFFFFFFFFFFFFFFFFFFF
310
FFFFFFFFFFFFFFFFFFFFFFFFFFFFFFFFFFFFFFFFFFFFFFFFF000FFFFFFFFFFFF
310
FFFFFFFFFFFFFFFFFFFFFFFFFFFFFFFFFFFFFFFFFFFFFFFFFFFFFFFFFFFFFFFF
310
FFFFFFFFFFFFFFFFFFFFFFFFFFFFFFFFFFFFFFFFFFFFFFFFFFFFFFFFFFFFFFFF
310
FFFFFFFFFFFFFFFFFFFFFFFFFFFFFFFFF000FFFFFFFFFFFFFFFFFFFFFFFFFFFF
310
FFFFFFFFFFFFFFFFFFFFFFFFFFFFFFFFFFFFFFFFFFFFFFFFFFFFFFFFFFFFFFFF
310
FFFFFFFFFFFFFFFFFFFFFFFFFFFFFFFFFFFFFFFFFFFFFFFFFFFFFFFFFFFFFFFF
310
FFFFFFFFFFFFFFFFF000FFFFFFFFFFFFFFFFFFFFFFFFFFFFFFFFFFFFFFFFFFFF
310
FFFFFFFFFFFFFFFFFFFFFFFFFFFFFFFFFFFFFFFFFFFFFFFFFFFFFFFFFFFFFFFF
310
FFFFFFFFFFFFFFFFFFFFFFFFFFFFFFFFFFFFFFFFFFFFFFFFFFFFFFFFFFFFFFFF
310
F000FFFFFFFFFFFFFFFFFFFFFFFFFFFFFFFFFFFFFFFFFFFFFFFFFFFFFFFFFFFF
310
FFFFFFFFFFFFFFFFFFFFFFFFFFFFFFFFFFFFFFFFFFFFFFFFFFFFFFFFFFFFFFFF
310
FFFFFFFFFFFFFFFFFFFFFFFFFFFFFFFFFFFFFFFFFFFFFFFFF000FFFFFFFFFFFF
310
FFFFFFFFFFFFFFFFFFFFFFFFFFFFFFFFFFFFFFFFFFFFFFFFFFFFFFFFFFFFFFFF
310
FFFFFFFFFFFFFFFFFFFFFFFFFFFFFFFFFFFFFFFFFFFFFFFFFFFFFFFFFFFFFFFF
310
FFFFFFFFFFFFFFFFFFFFFFFFFFFFFFFFF000FFFFFFFFFFFFFFFFFFFFFFFFFFFF
310
FFFFFFFFFFFFFFFFFFFFFFFFFFFFFFFFFFFFFFFFFFFFFFFFFFFFFFFFFFFFFFFF
310
FFFFFFFFFFFFFFFFFFFFFFFFFFFFFFFFFFFFFFFFFFFFFFFFFFFFFFFFFFFFFFFF
310
FFFFFFFFFFFFFFFFF000FFFFF80003FFFFFFFFFFFFFFFFFFFFFFFFFFFFFFFFFF
310
FFFFF00007FFFFFFFFFF00007FFFFFF800000000000000007FFFFFFFFFFFFFFF
310
FFFFFFFC001FFFFFFFFFFFFFFC001FFFFFFFFFFFFFFFFFFFFFFFFFFE0007FFFF
310
F000FFFF8000007FFFFFFFF8000FFFFFC0007FFFFF80007FFFFF0000007FFFFF
310
FFF8000007FFFFF800000000000000007FFFFFF0001FFFFFFFFFFFC00001FFFF
310
FFFFFFFFC00001FFFFFFFF000000000003FFFFE000007FFFF000FFFE0000000F
310
FFFFFFF0000FFFFF80007FFFFF80007FFFFC0000001FFFFFFFC0000001FFFFF8
310
00000000000000007FFFFFF0001FFFFFFFFFFE0000003FFFFFFFFFFE0000003F
310
FFFFFF000000000003FFFF0000000FFFF000FFF800000003FFFFFFF00007FFFF
310
80007FFFFF80007FFFF000000007FFFFFF000000003FFFF80000000000000000
310
7FFFFFF0001FFFFFFFFFF80000000FFFFFFFFFF80000000FFFFFFF0000000000
310
03FFFC00000003FFF000FFE000000000FFFFFFF00007FFFF80003FFFFF80007F
310
FFC000000001FFFFFC000000001FFFF800000000000000007FFFFFF0001FFFFF
310
FFFFE000000003FFFFFFFFE000000003FFFFFF000000000003FFF000000000FF
310
F000FF80000000007FFFFFF00007FFFF80003FFFFF80007FFF8000000000FFFF
310
F80000000007FFF800000000000000007FFFFFF0001FFFFFFFFFC000000001FF
310
FFFFFFC000000001FFFFFF000000000003FFC0000000007FF000FF0000000000
310
3FFFFFE00007FFFF00003FFFFF80007FFE00000000003FFFF00000000003FFF8
310
00000000000000007FFFFFF0001FFFFFFFFF8000000000FFFFFFFF8000000000
310
FFFFFF000000000003FF80000000003FF000FE00000000001FFFFFE00003FFFF
310
00003FFFFF80007FFC00000000001FFFE00000000001FFF8000001FFFE000000
310
7FFFFFF0001FFFFFFFFE00000000003FFFFFFE00000000003FFFFF0000000000
310
03FF00000000001FF000FC00000000000FFFFFE00003FFFF00001FFFFF80007F
310
F800000000001FFFC00000000000FFF8000001FFFE0000007FFFFFF0001FFFFF
310
FFFC00000000001FFFFFFC00000000001FFFFF000000000003FE00000000000F
310
F000F8000000000007FFFFE00003FFFF00001FFFFF80007FF800000000000FFF
310
800000000000FFF8000001FFFE0000007FFFFFF0001FFFFFFFF800000000000F
310
FFFFF800000000000FFFFF000000000003FC000000000007F000F80000000000
310
03FFFFC00003FFFE00001FFFFF80007FF0000000000007FF0000000000007FF8
310
000001FFFE0000007FFFFFF0001FFFFFFFF0000000000007FFFFF00000000000
310
07FFFF000000000003F8000000000003F000F0000000000003FFFFC00001FFFE
310
00001FFFFF80007FE0000000000007FE0000000000003FF8000001FFFE000000
310
7FFFFFF0001FFFFFFFF0000000000007FFFFF0000000000007FFFF0000000000
310
03F800001F800003F000E00001FFF00001FFFFC00001FFFE00000FFFFF80007F
310
E00001FFE00003FE00001FFF00003FF8000001FFFE0000007FFFFFF0001FFFFF
310
FFE000003E000003FFFFE000003E000003FFFF000000000003F00001FFF80001
310
F000E00007FFFC0001FFFFC00001FFFE00000FFFFF80007FC0000FFFFC0003FC
310
0000FFFFC0001FF8000001FFFE0000007FFFFFF0001FFFFFFFC00003FFE00001
310
FFFFC00003FFE00001FFFF0001FFFFFFFFF00007FFFE0001F000E0000FFFFF00
310
00FFFF800001FFFC00000FFFFF80007FC0001FFFFE0001FC0001FFFFE0001FF8
310
000001FFFE0000007FFFFFF0001FFFFFFF80000FFFF80000FFFF80000FFFF800
310
00FFFF0003FFFFFFFFE0000FFFFF8000F000C0003FFFFF8000FFFF800000FFFC
310
000007FFFF80007F80003FFFFF0001FC0003FFFFF0001FF8000001FFFE000000
310
7FFFFFF0001FFFFFFF80003FFFFE0000FFFF80003FFFFE0000FFFF0003FFFFFF
310
FFE0003FFFFF8000F000C0003FFFFF8000FFFF800000FFFC000007FFFF80007F
310
80007FFFFF8001F80007FFFFF8000FF8000001FFFE0000007FFFFFF0001FFFFF
310
FF00007FFFFF00007FFF00007FFFFF00007FFF0003FFFFFFFFE0003FFFFFC000
310
F000C0007FFFFFC000FFFF000000FFFC000007FFFF80007F8000FFFFFF8000F8
310
000FFFFFF8000FF8000001FFFE0000007FFFFFF0001FFFFFFF0000FFFFFF8000
310
7FFF0000FFFFFF80007FFF0003FFFFFFFFC0007FFFFFC00070008000FFFFFFC0
310
00FFFF000000FFF8000007FFFF80007F8000FFFFFF8000F8000FFFFFF8000FF8
310
000001FFFE0000007FFFFFF0001FFFFFFE0001FFFFFFC0003FFE0001FFFFFFC0
310
003FFF0003FFFFFFFFC0007FFFFFE00070008000FFFFFFC0007FFF0000007FF8
310
000003FFFF80007F0001FFFFFF8000F8000FFFFFF8000FF8000001FFFE000000
310
7FFFFFF0001FFFFFFE0001FFFFFFC0003FFE0001FFFFFFC0003FFF0003FFFFFF
310
FFC000FFFFFFE00070008000FFFFFFC0007FFF0000007FF8000003FFFF80007F
310
0001FFFFFF8000F8001FFFFFF8000FF8000001FFFE0000007FFFFFF0001FFFFF
310
FE0003FFFFFFE0003FFE0003FFFFFFE0003FFF0003FFFFFFFFC000FFFFFFE000
310
70008000FFFFFFC0007FFE0000007FF8000003FFFF80007F0001FFFFFF8000F0
310
001FFFFFF8000FF8000001FFFE0000007FFFFFF0001FFFFFFC0003FFFFFFE000
310
1FFC0003FFFFFFE0001FFF0003FFFFFFFFC000FFFFFFC00070008000FFFFFF80
310
007FFE0000007FF0000003FFFF80007F0001FFFFFF0000F0001FFFFFF8000FF8
310
000001FFFE0000007FFFFFF0001FFFFFFC0007FFFFFFF0001FFC0007FFFFFFF0
310
001FFF0003FFFFFFFFC000FFFFFFC00070008001FFFFFF0000FFFE0000003FF0
310
000001FFFF80007F0001FFFFFF0000F8001FFFFFF0000FF8000001FFFE000000
310
7FFFFFF0001FFFFFFC0007FFFFFFF0001FFC0007FFFFFFF0001FFF0003FFFFFF
310
FFC001FFFFFF80007000FFFFFFFFFE0000FFFE0008003FF0008001FFFF80007F
310
FFFFFFFFFC0000FFFFFFFFFFE0000FF8000001FFFE0000007FFFFFF0001FFFFF
310
F8000FFFFFFFF8000FF8000FFFFFFFF8000FFF0003FFFFFFFFFFFFFFFFFF0000
310
7000FFFFFFFFFC0000FFFC0008003FF0008001FFFF80007FFFFFFFFFF80001FF
310
FFFFFFFF80000FF8000001FFFE0000007FFFFFF0001FFFFFF8000FFFFFFFF800
310
0FF8000FFFFFFFF8000FFF0003FFFFFFFFFFFFFFFFFE0000F000FFFFFFFFE000
310
00FFFC000C003FE000C001FFFF80007FFFFFFFFFC00001FFFFFFFFFE00001FF8
310
000001FFFE0000007FFFFFF0001FFFFFF8000FFFFFFFF8000FF8000FFFFFFFF8
310
000FFF0003FFFFFFFFFFFFFFFFF00000F000FFFFFFFE000001FFFC000C001FE0
310
00C000FFFF80007FFFFFFFFE000001FFFFFFFFE000001FF80FFFFFFFFFFFFFC0
310
7FFFFFF0001FFFFFF8000FFFFFFFF8000FF8000FFFFFFFF8000FFF0003FFFFFF
310
FFFFFFFFFF800000F000FFFFFFC0000001FFFC001C001FE001C000FFFF80007F
310
FFFFFF80000003FFFFFFF80000001FF80FFFFFFFFFFFFFC07FFFFFF0001FFFFF
310
F8001FFFFFFFFC000FF8001FFFFFFFFC000FFF0003FFFFFFFFFFFFFFF0000001
310
F000FFFFF800000001FFF8001C001FE001C000FFFF80007FFFFFF800000003FF
310
FFFF800000003FF80FFFFFFFFFFFFFC07FFFFFF0001FFFFFF8001FFFFFFFFC00
310
0FF8001FFFFFFFFC000FFF0003FFFFFFFFFFFFFE00000001F000FFFFC0000000
310
03FFF8001E001FC001E000FFFF80007FFFFF8000000007FFFFFC000000003FF8
310
0FFFFFFFFFFFFFC07FFFFFF0001FFFFFF8001FFFFFFFFC000FF8001FFFFFFFFC
310
000FFF0003FFFFFFFFFFFFE000000003F000FFFE0000000007FFF8001E000FC0
310
01E0007FFF80007FFFFE0000000007FFFFE0000000007FF80FFFFFFFFFFFFFC0
310
7FFFFFF0001FFFFFF0001FFFFFFFFC0007F0001FFFFFFFFC0007FF0003FFFFFF
310
FFFFFF0000000003F000FFF80000000007FFF8001E000FC003E0007FFF80007F
310
FFF0000000000FFFFF8000000000FFF80FFFFFFFFFFFFFC07FFFFFF0001FFFFF
310
F0001FFFFFFFFC0007F0001FFFFFFFFC0007FF0003FFFFFFFFFFFC0000000007
310
F000FFE0000000000FFFF0003E000FC003E0007FFF80007FFFC0000000001FFF
310
FE0000000001FFF80FFFFFFFFFFFFFC07FFFFFF0001FFFFFF0001FFFFFFFFC00
310
07F0001FFFFFFFFC0007FF0003FFFFFFFFFFF0000000000FF000FFC000000000
310
1FFFF0003F000F8003F0003FFF80007FFF80000000003FFFF80000000003FFF8
310
0FFFFFFFFFFFFFC07FFFFFF0001FFFFFF0001FFFFFFFFC0007F0001FFFFFFFFC
310
0007FF0003FFFFFFFFFFE0000000001FF000FF00000000007FFFF0003F000780
310
03F0003FFF80007FFF00000000007FFFF00000000007FFF80FFFFFFFFFFFFFC0
310
7FFFFFF0001FFFFFF0001FFFFFFFFC0007F0001FFFFFFFFC0007FF0003FFFFFF
310
FFFF80000000007FF000FE0000000000FFFFE0003F00078007F0003FFF80007F
310
FE0000000001FFFFE0000000001FFFF80FFFFFFFFFFFFFC07FFFFFF0001FFFFF
310
F0001FFFFFFFFC0007F0001FFFFFFFFC0007FF0003FFFFFFFFFF0000000000FF
310
F000FC0000000003FFFFE0007F00078007F0003FFF80007FFC0000000007FFFF
310
C0000000007FFFF80FFFFFFFFFFFFFC07FFFFFF0001FFFFFF8001FFFFFFFFC00
310
0FF8001FFFFFFFFC000FFF0003FFFFFFFFFE0000000003FFF000FC000000000F
310
FFFFE0007F80070007F8001FFF80007FF8000000001FFFFF8000000001FFFFF8
310
0FFFFFFFFFFFFFC07FFFFFF0001FFFFFF8001FFFFFFFFC000FF8001FFFFFFFFC
310
000FFF0003FFFFFFFFFC000000000FFFF000F8000000007FFFFFE0007F800700
310
07F8001FFF80007FF000000000FFFFFF800000000FFFFFF80FFFFFFFFFFFFFC0
310
7FFFFFF0001FFFFFF8000FFFFFFFF8000FF8000FFFFFFFF8000FFF0003FFFFFF
310
FFFC000000007FFFF000F800000007FFFFFFC0007F8003000FF8001FFF80007F
310
F000000007FFFFFF000000007FFFFFF80FFFFFFFFFFFFFC07FFFFFF0001FFFFF
310
F8000FFFFFFFF8000FF8000FFFFFFFF8000FFF0003FFFFFFFFF80000000FFFFF
310
F000F0000000FFFFFFFFC000FF8003000FF8001FFF80007FE0000000FFFFFFFF
310
0000000FFFFFFFF8000001FFFE0000007FFFFFF0001FFFFFF8000FFFFFFFF800
310
0FF8000FFFFFFFF8000FFF0003FFFFFFFFF8000000FFFFFFF000F000000FFFFF
310
FFFFC000FFC002000FF8000FFF80007FE000001FFFFFFFFE000001FFFFFFFFF8
310
000001FFFE0000007FFFFFF0001FFFFFF8000FFFFFFFF8000FF8000FFFFFFFF8
310
000FFF0003FFFFFFFFF000001FFFFFFFF000E00000FFFFFFFFFFC000FFC00200
310
0FFC000FFF80007FE00001FFFFFFFFFE00001FFFFFFFFFF8000001FFFE000000
310
7FFFFFF0001FFFFFFC000FFFFFFFF8001FFC000FFFFFFFF8001FFF0003FFFFFF
310
FFF00001FFFFFFFFF000E00007FFFFFFFFFF8000FFC000001FFC000FFF80007F
310
C0000FFFFFFFFFFE0000FFFFFFFFFFF8000001FFFE0000007FFFFFF0001FFFFF
310
FC0007FFFFFFF0001FFC0007FFFFFFF0001FFF0003FFFFFFFFF00007FFFFFFFF
310
F000E0001FFFFFFFFFFF8000FFC000001FFC000FFF80007FC0003FFFFFFFFFFE
310
0001FFFFFFFFFFF8000001FFFE0000007FFFFFF0001FFFFFFC0007FFFFFFF000
310
1FFC0007FFFFFFF0001FFF0003FFFFFFFFF0001FFFFFFFFFF000E0003FFFFF00
310
03FF8001FFE000001FFC0007FF80007FC0007FFFFF0007FC0003FFFFF0003FF8
310
000001FFFE0000007FFFFFF0001FFFFFFC0003FFFFFFE0001FFC0003FFFFFFE0
310
001FFF0003FFFFFFFFF0003FFFFFFFFFF000E0003FFFFF0001FF8001FFE00000
310
1FFE0007FF80007FC0007FFFFE0003FC0007FFFFE0003FF8000001FFFE000000
310
7FFFFFF0001FFFFFFE0003FFFFFFE0003FFE0003FFFFFFE0003FFF0003FFFFFF
310
FFF0003FFFFF8001F000E0003FFFFF0001FF0001FFE000001FFE0007FF80007F
310
C0007FFFFE0003FC0007FFFFE0003FF8000001FFFE0000007FFFFFF0001FFFFF
310
FE0001FFFFFFC0003FFE0001FFFFFFC0003FFF0003FFFFFFFFF0003FFFFF0001
310
F000E0003FFFFF0003FF0001FFE000003FFE0007FF80007FC0007FFFFE0003FC
310
0007FFFFE0003FF8000001FFFE0000007FFFFFF0001FFFFFFF0001FFFFFFC000
310
7FFF0001FFFFFFC0007FFF0003FFFFFFFFF0003FFFFF0001F000E0003FFFFE00
310
03FF0003FFF000003FFE0003FF80007FC0007FFFFC0003FE0007FFFFE0003FF8
310
000001FFFE0000007FFFFFF0001FFFFFFF0000FFFFFF80007FFF0000FFFFFF80
310
007FFF0003FFFFFFFFF0003FFFFF0001F000E0003FFFFE0003FF0003FFF00000
310
3FFF0003FF80007FC0007FFFFC0007FE0007FFFFC0003FF8000001FFFE000000
310
7FFFFFF0001FFFFFFF80007FFFFF0000FFFF80007FFFFF0000FFFF0003FFFFFF
310
FFF0003FFFFF0003F000E0003FFFFC0003FE0003FFF000003FFF0003FF80007F
310
E0003FFFF80007FE0003FFFFC0007FF8000001FFFE0000007FFFFFF0001FFFFF
310
FF80003FFFFE0000FFFF80003FFFFE0000FFFF0003FFFFFFFFF0001FFFFE0003
310
F000F0001FFFF80003FE0003FFF000007FFF0001FF80007FE0003FFFF00007FE
310
0001FFFF80007FF8000001FFFE0000007FFFFFF0001FFFFFFFC0000FFFF80001
310
FFFFC0000FFFF80001FFFF0003FFFFFFFFF0001FFFFC0003F000F0000FFFF000
310
07FE0007FFF800007FFF0001FF80007FE0001FFFE00007FF0000FFFE00007FF8
310
000001FFFE0000007FFFFFF0001FFFFFFFC00003FFE00001FFFFC00003FFE000
310
01FFFF0003FFFFFFFFF8000FFFF80003F000F00003FFC00007FC0007FFF80000
310
7FFF8001FF80007FF00007FF80000FFF00007FF80000FFF8000001FFFE000000
310
7F80000000000001FFE000003E000003FFFFE000003E000003FFFF0003FFFFFF
310
FFF80003FFE00007F000F800000000000FFC0007FFF800007FFF8001FF80007F
310
F000000000000FFF000000000000FFF8000001FFFE0000007F80000000000001
310
FFF0000000000007FFFFF0000000000007FFFF0003FFFFFFFFFC00007E000007
310
F000F800000000000FFC0007FFF80000FFFF8000FF80007FF800000000001FFF
310
800000000001FFF8000001FFFE0000007F80000000000001FFF800000000000F
310
FFFFF800000000000FFFFF0003FFFFFFFFFC00000000000FF000FC0000000000
310
1FFC0007FFFC0000FFFF8000FF80007FF800000000003FFFC00000000001FFF8
310
000001FFFE0000007F80000000000001FFF800000000000FFFFFF80000000000
310
0FFFFF0003FFFFFFFFFE00000000001FF000FE00000000003FF8000FFFFC0000
310
FFFF8000FF80007FFC00000000003FFFC00000000003FFF8000001FFFE000000
310
7F80000000000001FFFC00000000001FFFFFFC00000000001FFFFF0003FFFFFF
310
FFFF00000000001FF000FF00000000003FF8000FFFFC0000FFFFC000FF80007F
310
FE00000000007FFFE00000000007FFF8000001FFFE0000007F80000000000001
310
FFFE00000000003FFFFFFE00000000003FFFFF0003FFFFFFFFFF80000000003F
310
F000FF80000000007FF8000FFFFC0001FFFFC0007F80007FFF0000000000FFFF
310
F0000000000FFFF800000000000000007F80000000000001FFFF8000000000FF
310
FFFFFF8000000000FFFFFF0003FFFFFFFFFFC0000000007FF000FFC000000000
310
FFF8000FFFFE0001FFFFC0007F80007FFF8000000001FFFFF8000000001FFFF8
310
00000000000000007F80000000000001FFFFC000000001FFFFFFFFC000000001
310
FFFFFF0003FFFFFFFFFFE000000000FFF000FFE000000003FFF0001FFFFE0001
310
FFFFC0007F80007FFFC000000007FFFFFE000000003FFFF80000000000000000
310
7F80000000000001FFFFE000000003FFFFFFFFE000000003FFFFFF0003FFFFFF
310
FFFFF000000003FFF000FFF80000000FFFF0001FFFFE0001FFFFE0007F80007F
310
FFF00000000FFFFFFF00000000FFFFF800000000000000007F80000000000001
310
FFFFF80000000FFFFFFFFFF80000000FFFFFFF0003FFFFFFFFFFFC0000000FFF
310
F000FFFE0000003FFFF0001FFFFE0003FFFFE0003F80007FFFFC0000003FFFFF
310
FFC0000003FFFFF800000000000000007F80000000000001FFFFFE0000003FFF
310
FFFFFFFE0000003FFFFFFF0003FFFFFFFFFFFF0000003FFFF000FFFF800000FF
310
FFF0001FFFFF0003FFFFE0003F80007FFFFF000001FFFFFFFFF800001FFFFFF8
310
00000000000000007F80000000000001FFFFFFC00001FFFFFFFFFFFFC00001FF
310
FFFFFF0003FFFFFFFFFFFFC00000FFFFF000FFFFF8000FFFFFFFFFFFFFFFFFFF
310
FFFFFFFFFFFFFFFFFFFFF0001FFFFFFFFFFF0000FFFFFFF80000000000000000
310
7FFFFFFFFFFFFFFFFFFFFFFC001FFFFFFFFFFFFFFC001FFFFFFFFFFFFFFFFFFF
310
FFFFFFFC001FFFFFF000FFFFFFFFFFFFFFFFFFFFFFFFFFFFFFFFFFFFFFFFFFFF
310
FFFFFFFFFFFFFFFFFFFFFFFFFFFFFFFFFFFFFFFFFFFFFFFFFFFFFFFFFFFFFFFF
310
FFFFFFFFFFFFFFFFFFFFFFFFFFFFFFFFFFFFFFFFFFFFFFFFFFFFFFFFFFFFFFFF
310
F000FFFFFFFFFFFFFFFFFFFFFFFFFFFFFFFFFFFFFFFFFFFFFFFFFFFFFFFFFFFF
310
FFFFFFFFFFFFFFFFFFFFFFFFFFFFFFFFFFFFFFFFFFFFFFFFFFFFFFFFFFFFFFFF
310
FFFFFFFFFFFFFFFFFFFFFFFFFFFFFFFFFFFFFFFFFFFFFFFFF000FFFFFFFFFFFF
310
FFFFFFFFFFFFFFFFFFFFFFFFFFFFFFFFFFFFFFFFFFFFFFFFFFFFFFFFFFFFFFFF
310
FFFFFFFFFFFFFFFFFFFFFFFFFFFFFFFFFFFFFFFFFFFFFFFFFFFFFFFFFFFFFFFF
310
FFFFFFFFFFFFFFFFFFFFFFFFFFFFFFFFF000FFFFFFFFFFFFFFFFFFFFFFFFFFFF
310
FFFFFFFFFFFFFFFFFFFFFFFFFFFFFFFFFFFFFFFFFFFFFFFFFFFFFFFFFFFFFFFF
310
FFFFFFFFFFFFFFFFFFFFFFFFFFFFFFFFFFFFFFFFFFFFFFFFFFFFFFFFFFFFFFFF
310
FFFFFFFFFFFFFFFFF000FFFFFFFFFFFFFFFFFFFFFFFFFFFFFFFFFFFFFFFFFFFF
310
FFFFFFFFFFFFFFFFFFFFFFFFFFFFFFFFFFFFFFFFFFFFFFFFFFFFFFFFFFFFFFFF
310
FFFFFFFFFFFFFFFFFFFFFFFFFFFFFFFFFFFFFFFFFFFFFFFFFFFFFFFFFFFFFFFF
310
F000FFFFFFFFFFFFFFFFFFFFFFFFFFFFFFFFFFFFFFFFFFFFFFFFFFFFFFFFFFFF
310
FFFFFFFFFFFFFFFFFFFFFFFFFFFFFFFFFFFFFFFFFFFFFFFFFFFFFFFFFFFFFFFF
310
FFFFFFFFFFFFFFFFFFFFFFFFFFFFFFFFFFFFFFFFFFFFFFFFF000FFFFFFFFFFFF
310
FFFFFFFFFFFFFFFFFFFFFFFFFFFFFFFFFFFFFFFFFFFFFFFFFFFFFFFFFFFFFFFF
310
FFFFFFFFFFFFFFFFFFFFFFFFFFFFFFFFFFFFFFFFFFFFFFFFFFFFFFFFFFFFFFFF
310
FFFFFFFFFFFFFFFFFFFFFFFFFFFFFFFFF000FFFFFFFFFFFFFFFFFFFFFFFFFFFF
310
FFFFFFFFFFFFFFFFFFFFFFFFFFFFFFFFFFFFFFFFFFFFFFFFFFFFFFFFFFFFFFFF
310
FFFFFFFFFFFFFFFFFFFFFFFFFFFFFFFFFFFFFFFFFFFFFFFFFFFFFFFFFFFFFFFF
310
FFFFFFFFFFFFFFFFF000FFFFFFFFFFFFFFFFFFFFFFFFFFFFFFFFFFFFFFFFFFFF
310
FFFFFFFFFFFFFFFFFFFFFFFFFFFFFFFFFFFFFFFFFFFFFFFFFFFFFFFFFFFFFFFF
310
FFFFFFFFFFFFFFFFFFFFFFFFFFFFFFFFFFFFFFFFFFFFFFFFFFFFFFFFFFFFFFFF
310
F000FFFFFFFFFFFFFFFFFFFFFFFFFFFFFFFFFFFFFFFFFFFFFFFFFFFFFFFFFFFF
310
FFFFFFFFFFFFFFFFFFFFFFFFFFFFFFFFFFFFFFFFFFFFFFFFFFFFFFFFFFFFFFFF
310
FFFFFFFFFFFFFFFFFFFFFFFFFFFFFFFFFFFFFFFFFFFFFFFFF000FFFFFFFFFFFF
310
FFFFFFFFFFFFFFFFFFFFFFFFFFFFFFFFFFFFFFFFFFFFFFFFFFFFFFFFFFFFFFFF
310
FFFFFFFFFFFFFFFFFFFFFFFFFFFFFFFFFFFFFFFFFFFFFFFFFFFFFFFFFFFFFFFF
310
FFFFFFFFFFFFFFFFFFFFFFFFFFFFFFFFF000FFFFFFFFFFFFFFFFFFFFFFFFFFFF
310
FFFFFFFFFFFFFFFFFFFFFFFFFFFFFFFFFFFFFFFFFFFFFFFFFFFFFFFFFFFFFFFF
310
FFFFFFFFFFFFFFFFFFFFFFFFFFFFFFFFFFFFFFFFFFFFFFFFFFFFFFFFFFFFFFFF
310
FFFFFFFFFFFFFFFFF000FFFFFFFFFFFFFFFFFFFFFFFFFFFFFFFFFFFFFFFFFFFF
310
FFFFFFFFFFFFFFFFFFFFFFFFFFFFFFFFFFFFFFFFFFFFFFFFFFFFFFFFFFFFFFFF
310
FFFFFFFFFFFFFFFFFFFFFFFFFFFFFFFFFFFFFFFFFFFFFFFFFFFFFFFFFFFFFFFF
310
F000FFFFFFFFFFFFFFFFFFFFFFFFFFFFFFFFFFFFFFFFFFFFFFFFFFFFFFFFFFFF
310
FFFFFFFFFFFFFFFFFFFFFFFFFFFFFFFFFFFFFFFFFFFFFFFFFFFFFFFFFFFFFFFF
310
FFFFFFFFFFFFFFFFFFFFFFFFFFFFFFFFFFFFFFFFFFFFFFFFF000FFFFFFFFFFFF
310
FFFFFFFFFFFFFFFFFFFFFFFFFFFFFFFFFFFFFFFFFFFFFFFFFFFFFFFFFFFFFFFF
310
FFFFFFFFFFFFFFFFFFFFFFFFFFFFFFFFFFFFFFFFFFFFFFFFFFFFFFFFFFFFFFFF
310
FFFFFFFFFFFFFFFFFFFFFFFFFFFFFFFFF000FFFFFFFFFFFFFFFFFFFFFFFFFFFF
310
FFFFFFFFFFFFFFFFFFFFFFFFFFFFFFFFFFFFFFFFFFFFFFFFFFFFFFFFFFFFFFFF
310
FFFFFFFFFFFFFFFFFFFFFFFFFFFFFFFFFFFFFFFFFFFFFFFFFFFFFFFFFFFFFFFF
310
FFFFFFFFFFFFFFFFF000FFFFFFFFFFFFFFFFFFFFFFFFFFFFFFFFFFFFFFFFFFFF
310
FFFFFFFFFFFFFFFFFFFFFFFFFFFFFFFFFFFFFFFFFFFFFFFFFFFFFFFFFFFFFFFF
310
FFFFFFFFFFFFFFFFFFFFFFFFFFFFFFFFFFFFFFFFFFFFFFFFFFFFFFFFFFFFFFFF
310
F000FFFFFFFFFFFFFFFFFFFFFFFFFFFFFFFFFFFFFFFFFFFFFFFFFFFFFFFFFFFF
310
FFFFFFFFFFFFFFFFFFFFFFFFFFFFFFFFFFFFFFFFFFFFFFFFFFFFFFFFFFFFFFFF
310
FFFFFFFFFFFFFFFFFFFFFFFFFFFFFFFFFFFFFFFFFFFFFFFFF000FFFFFFFFFFFF
310
FFFFFFFFFFFFFFFFFFFFFFFFFFFFFFFFFFFFFFFFFFFFFFFFFFFFFFFFFFFFFFFF
310
FFFFFFFFFFFFFFFFFFFFFFFFFFFFFFFFFFFFFFFFFFFFFFFFFFFFFFFFFFFFFFFF
310
FFFFFFFFFFFFFFFFFFFFFFFFFFFFFFFFF000FFFFFFFFFFFFFFFFFFFFFFFFFFFF
310
FFFFFFFFFFFFFFFFFFFFFFFFFFFFFFFFFFFFFFFFFFFFFFFFFFFFFFFFFFFFFFFF
310
FFFFFFFFFFFFFFFFFFFFFFFFFFFFFFFFFFFFFFFFFFFFFFFFFFFFFFFFFFFFFFFF
310
FFFFFFFFFFFFFFFFF000FFFFFFFFFFFFFFFFFFFFFFFFFFFFFFFFFFFFFFFFFFFF
310
FFFFFFFFFFFFFFFFFFFFFFFFFFFFFFFFFFFFFFFFFFFFFFFFFFFFFFFFFFFFFFFF
310
FFFFFFFFFFFFFFFFFFFFFFFFFFFFFFFFFFFFFFFFFFFFFFFFFFFFFFFFFFFFFFFF
310
F000FFFFFFFFFFFFFFFFFFFFFFFFFFFFFFFFFFFFFFFFFFFFFFFFFFFFFFFFFFFF
310
FFFFFFFFFFFFFFFFFFFFFFFFFFFFFFFFFFFFFFFFFFFFFFFFFFFFFFFFFFFFFFFF
310
FFFFFFFFFFFFFFFFFFFFFFFFFFFFFFFFFFFFFFFFFFFFFFFFF000FFFFFFFFFFFF
310
FFFFFFFFFFFFFFFFFFFFFFFFFFFFFFFFFFFFFFFFFFFFFFFFFFFFFFFFFFFFFFFF
310
FFFFFFFFFFFFFFFFFFFFFFFFFFFFFFFFFFFFFFFFFFFFFFFFFFFFFFFFFFFFFFFF
310
FFFFFFFFFFFFFFFFFFFFFFFFFFFFFFFFF0000000000000000000000000000000
310
0000000000000000000000000000000000000000000000000000000000000000
310
0000000000000000000000000000000000000000000000000000000000000000
310
0000000000000000000000000000000000000000000000000000000000000000
310
0000000000000000000000000000000000000000000000000000000000000000
310
0000000000000000000000000000000000000000000000000000000000000000
310
0000000000000000000000000000000000000000000000000000000000000000
310
0000000000000000000000000000000000000000000000000000000000000000
310
0000000000000000000000000000000000000000000000000000000000000000
310
0000000000000000000000000000000000000000000000000000000000000000
310
0000000000000000000000000000000000000000000000000000000000000000
310
0000000000000000000000000000000000000000000000000000000000000000
310
0000000000000000000000000000000000000000000000000000000000000000
310
0000000000000000000000000000000000000000000000000000000000000000
310
0000000000000000000000000000000000000000000000000000000000000000
310
0000000000000000000000000000000000000000000000000000000000000000
  1
OLE
  0
ENDSEC
  0
SECTION
  2
OBJECTS
  0
DICTIONARY
  5
C
330
0
100
AcDbDictionary
281
     1
  3
ACAD_GROUP
350
D
  3
ACAD_LAYOUT
350
1A
  3
ACAD_MLINESTYLE
350
17
  3
ACAD_PLOTSETTINGS
350
19
  3
ACAD_PLOTSTYLENAME
350
E
  3
ACAD_SCALELIST
350
47
  0
DICTIONARY
  5
D
102
{ACAD_REACTORS
330
C
102
}
330
C
100
AcDbDictionary
281
     1
  0
DICTIONARY
  5
1A
102
{ACAD_REACTORS
330
C
102
}
330
C
100
AcDbDictionary
281
     1
  3
Layout1
350
1E
  3
Layout2
350
26
  3
Model
350
22
  0
DICTIONARY
  5
17
102
{ACAD_REACTORS
330
C
102
}
330
C
100
AcDbDictionary
281
     1
  3
Standard
350
18
  0
DICTIONARY
  5
19
102
{ACAD_REACTORS
330
C
102
}
330
C
100
AcDbDictionary
281
     1
  0
ACDBDICTIONARYWDFLT
  5
E
102
{ACAD_REACTORS
330
C
102
}
330
C
100
AcDbDictionary
281
     1
  3
Normal
350
F
100
AcDbDictionaryWithDefault
340
F
  0
DICTIONARY
  5
47
102
{ACAD_REACTORS
330
C
102
}
330
C
100
AcDbDictionary
281
     1
  3
A0
350
48
  3
A1
350
49
  3
A2
350
4A
  3
A3
350
4B
  3
A4
350
4C
  3
A5
350
4D
  3
A6
350
4E
  3
A7
350
4F
  3
A8
350
50
  3
A9
350
51
  3
B0
350
52
  3
B1
350
53
  3
B2
350
54
  3
B3
350
55
  3
B4
350
56
  3
B5
350
57
  3
B6
350
58
  3
B7
350
59
  3
B8
350
5A
  3
B9
350
5B
  3
C0
350
5C
  3
C1
350
5D
  3
C2
350
5E
  3
C3
350
5F
  3
C4
350
60
  3
C5
350
61
  3
C6
350
62
  3
C7
350
63
  3
C8
350
64
  3
C9
350
65
  3
D0
350
66
  3
D1
350
67
  3
D2
350
68
  0
LAYOUT
  5
1E
102
{ACAD_REACTORS
330
1A
102
}
330
1A
100
AcDbPlotSettings
  1

  2
none_device
  4

  6

 40
0.0
 41
0.0
 42
0.0
 43
0.0
 44
0.0
 45
0.0
 46
0.0
 47
0.0
 48
0.0
 49
0.0
140
0.0
141
0.0
142
1.0
143
1.0
 70
   688
 72
     1
 73
     0
 74
     5
  7

 75
    16
147
1.0
148
0.0
149
0.0
100
AcDbLayout
  1
Layout1
 70
     1
 71
     1
 10
0.0
 20
0.0
 11
420.0
 21
297.0
 12
0.0
 22
0.0
 32
0.0
 14
1.0000000000E+20
 24
1.0000000000E+20
 34
1.0000000000E+20
 15
-1.0000000000E+20
 25
-1.0000000000E+20
 35
-1.0000000000E+20
146
0.0
 13
0.0
 23
0.0
 33
0.0
 16
1.0
 26
0.0
 36
0.0
 17
0.0
 27
1.0
 37
0.0
 76
     0
330
1B
  0
LAYOUT
  5
26
102
{ACAD_REACTORS
330
1A
102
}
330
1A
100
AcDbPlotSettings
  1

  2
none_device
  4

  6

 40
0.0
 41
0.0
 42
0.0
 43
0.0
 44
0.0
 45
0.0
 46
0.0
 47
0.0
 48
0.0
 49
0.0
140
0.0
141
0.0
142
1.0
143
1.0
 70
   688
 72
     1
 73
     0
 74
     5
  7

 75
    16
147
1.0
148
0.0
149
0.0
100
AcDbLayout
  1
Layout2
 70
     1
 71
     2
 10
0.0
 20
0.0
 11
0.0
 21
0.0
 12
0.0
 22
0.0
 32
0.0
 14
0.0
 24
0.0
 34
0.0
 15
0.0
 25
0.0
 35
0.0
146
0.0
 13
0.0
 23
0.0
 33
0.0
 16
1.0
 26
0.0
 36
0.0
 17
0.0
 27
1.0
 37
0.0
 76
     0
330
23
  0
LAYOUT
  5
22
102
{ACAD_REACTORS
330
1A
102
}
330
1A
100
AcDbPlotSettings
  1

  2
none_device
  4
Letter_(8.50_x_11.00_Inches)
  6

 40
6.35
 41
6.35
 42
6.35000508
 43
6.35000508
 44
215.9
 45
279.4
 46
0.0
 47
0.0
 48
0.0
 49
0.0
140
0.0
141
0.0
142
1.0
143
1.0
 70
  1712
 72
     1
 73
     0
 74
     0
  7

 75
     0
147
1.0
148
0.0
149
0.0
100
AcDbLayout
  1
Model
 70
     1
 71
     0
 10
0.0
 20
0.0
 11
297.0
 21
210.0
 12
0.0
 22
0.0
 32
0.0
 14
0.0
 24
0.0
 34
0.0
 15
297.0
 25
210.0
 35
0.0
146
0.0
 13
0.0
 23
0.0
 33
0.0
 16
1.0
 26
0.0
 36
0.0
 17
0.0
 27
1.0
 37
0.0
 76
     0
330
1F
331
29
  0
MLINESTYLE
  5
18
102
{ACAD_REACTORS
330
17
102
}
330
17
100
AcDbMlineStyle
  2
Standard
 70
     0
  3

 62
   256
 51
90.0
 52
90.0
 71
     2
 49
0.5
 62
   256
  6
BYLAYER
 49
-0.5
 62
   256
  6
BYLAYER
  0
ACDBPLACEHOLDER
  5
F
102
{ACAD_REACTORS
330
E
102
}
330
E
  0
SCALE
  5
48
102
{ACAD_REACTORS
330
47
102
}
330
47
100
AcDbScale
 70
     0
300
1:1
140
1.0
141
1.0
290
     1
  0
SCALE
  5
49
102
{ACAD_REACTORS
330
47
102
}
330
47
100
AcDbScale
 70
     0
300
1:2
140
1.0
141
2.0
290
     0
  0
SCALE
  5
4A
102
{ACAD_REACTORS
330
47
102
}
330
47
100
AcDbScale
 70
     0
300
1:4
140
1.0
141
4.0
290
     0
  0
SCALE
  5
4B
102
{ACAD_REACTORS
330
47
102
}
330
47
100
AcDbScale
 70
     0
300
1:5
140
1.0
141
5.0
290
     0
  0
SCALE
  5
4C
102
{ACAD_REACTORS
330
47
102
}
330
47
100
AcDbScale
 70
     0
300
1:8
140
1.0
141
8.0
290
     0
  0
SCALE
  5
4D
102
{ACAD_REACTORS
330
47
102
}
330
47
100
AcDbScale
 70
     0
300
1:10
140
1.0
141
10.0
290
     0
  0
SCALE
  5
4E
102
{ACAD_REACTORS
330
47
102
}
330
47
100
AcDbScale
 70
     0
300
1:16
140
1.0
141
16.0
290
     0
  0
SCALE
  5
4F
102
{ACAD_REACTORS
330
47
102
}
330
47
100
AcDbScale
 70
     0
300
1:20
140
1.0
141
20.0
290
     0
  0
SCALE
  5
50
102
{ACAD_REACTORS
330
47
102
}
330
47
100
AcDbScale
 70
     0
300
1:30
140
1.0
141
30.0
290
     0
  0
SCALE
  5
51
102
{ACAD_REACTORS
330
47
102
}
330
47
100
AcDbScale
 70
     0
300
1:40
140
1.0
141
40.0
290
     0
  0
SCALE
  5
52
102
{ACAD_REACTORS
330
47
102
}
330
47
100
AcDbScale
 70
     0
300
1:50
140
1.0
141
50.0
290
     0
  0
SCALE
  5
53
102
{ACAD_REACTORS
330
47
102
}
330
47
100
AcDbScale
 70
     0
300
1:100
140
1.0
141
100.0
290
     0
  0
SCALE
  5
54
102
{ACAD_REACTORS
330
47
102
}
330
47
100
AcDbScale
 70
     0
300
2:1
140
2.0
141
1.0
290
     0
  0
SCALE
  5
55
102
{ACAD_REACTORS
330
47
102
}
330
47
100
AcDbScale
 70
     0
300
4:1
140
4.0
141
1.0
290
     0
  0
SCALE
  5
56
102
{ACAD_REACTORS
330
47
102
}
330
47
100
AcDbScale
 70
     0
300
8:1
140
8.0
141
1.0
290
     0
  0
SCALE
  5
57
102
{ACAD_REACTORS
330
47
102
}
330
47
100
AcDbScale
 70
     0
300
10:1
140
10.0
141
1.0
290
     0
  0
SCALE
  5
58
102
{ACAD_REACTORS
330
47
102
}
330
47
100
AcDbScale
 70
     0
300
100:1
140
100.0
141
1.0
290
     0
  0
SCALE
  5
59
102
{ACAD_REACTORS
330
47
102
}
330
47
100
AcDbScale
 70
     0
300
1/128" = 1'-0"
140
0.0078125
141
12.0
290
     0
  0
SCALE
  5
5A
102
{ACAD_REACTORS
330
47
102
}
330
47
100
AcDbScale
 70
     0
300
1/64" = 1'-0"
140
0.015625
141
12.0
290
     0
  0
SCALE
  5
5B
102
{ACAD_REACTORS
330
47
102
}
330
47
100
AcDbScale
 70
     0
300
1/32" = 1'-0"
140
0.03125
141
12.0
290
     0
  0
SCALE
  5
5C
102
{ACAD_REACTORS
330
47
102
}
330
47
100
AcDbScale
 70
     0
300
1/16" = 1'-0"
140
0.0625
141
12.0
290
     0
  0
SCALE
  5
5D
102
{ACAD_REACTORS
330
47
102
}
330
47
100
AcDbScale
 70
     0
300
3/32" = 1'-0"
140
0.09375
141
12.0
290
     0
  0
SCALE
  5
5E
102
{ACAD_REACTORS
330
47
102
}
330
47
100
AcDbScale
 70
     0
300
1/8" = 1'-0"
140
0.125
141
12.0
290
     0
  0
SCALE
  5
5F
102
{ACAD_REACTORS
330
47
102
}
330
47
100
AcDbScale
 70
     0
300
3/16" = 1'-0"
140
0.1875
141
12.0
290
     0
  0
SCALE
  5
60
102
{ACAD_REACTORS
330
47
102
}
330
47
100
AcDbScale
 70
     0
300
1/4" = 1'-0"
140
0.25
141
12.0
290
     0
  0
SCALE
  5
61
102
{ACAD_REACTORS
330
47
102
}
330
47
100
AcDbScale
 70
     0
300
3/8" = 1'-0"
140
0.375
141
12.0
290
     0
  0
SCALE
  5
62
102
{ACAD_REACTORS
330
47
102
}
330
47
100
AcDbScale
 70
     0
300
1/2" = 1'-0"
140
0.5
141
12.0
290
     0
  0
SCALE
  5
63
102
{ACAD_REACTORS
330
47
102
}
330
47
100
AcDbScale
 70
     0
300
3/4" = 1'-0"
140
0.75
141
12.0
290
     0
  0
SCALE
  5
64
102
{ACAD_REACTORS
330
47
102
}
330
47
100
AcDbScale
 70
     0
300
1" = 1'-0"
140
1.0
141
12.0
290
     0
  0
SCALE
  5
65
102
{ACAD_REACTORS
330
47
102
}
330
47
100
AcDbScale
 70
     0
300
1-1/2" = 1'-0"
140
1.5
141
12.0
290
     0
  0
SCALE
  5
66
102
{ACAD_REACTORS
330
47
102
}
330
47
100
AcDbScale
 70
     0
300
3" = 1'-0"
140
3.0
141
12.0
290
     0
  0
SCALE
  5
67
102
{ACAD_REACTORS
330
47
102
}
330
47
100
AcDbScale
 70
     0
300
6" = 1'-0"
140
6.0
141
12.0
290
     0
  0
SCALE
  5
68
102
{ACAD_REACTORS
330
47
102
}
330
47
100
AcDbScale
 70
     0
300
1'-0" = 1'-0"
140
12.0
141
12.0
290
     0
  0
ENDSEC
  0
EOF
