  0
SECTION
  2
HEADER
  9
$ACADVER
  1
AC1015
  9
$ACADMAINTVER
 70
     6
  9
$DWGCODEPAGE
  3
ANSI_1252
  9
$INSBASE
 10
0.0
 20
0.0
 30
0.0
  9
$EXTMIN
 10
0.0
 20
0.0
 30
0.0
  9
$EXTMAX
 10
297.0
 20
210.0
 30
0.0
  9
$LIMMIN
 10
0.0
 20
0.0
  9
$LIMMAX
 10
297.0
 20
210.0
  9
$ORTHOMODE
 70
     0
  9
$REGENMODE
 70
     1
  9
$FILLMODE
 70
     1
  9
$QTEXTMODE
 70
     0
  9
$MIRRTEXT
 70
     1
  9
$LTSCALE
 40
1.0
  9
$ATTMODE
 70
     1
  9
$TEXTSIZE
 40
2.0
  9
$TRACEWID
 40
1.0
  9
$TEXTSTYLE
  7
Standard
  9
$CLAYER
  8
0
  9
$CELTYPE
  6
ByLayer
  9
$CECOLOR
 62
   256
  9
$CELTSCALE
 40
1.0
  9
$DISPSILH
 70
     0
  9
$DIMSCALE
 40
1.0
  9
$DIMASZ
 40
3.0
  9
$DIMEXO
 40
0.0
  9
$DIMDLI
 40
3.75
  9
$DIMRND
 40
0.0
  9
$DIMDLE
 40
0.0
  9
$DIMEXE
 40
1.0
  9
$DIMTP
 40
0.0
  9
$DIMTM
 40
0.0
  9
$DIMTXT
 40
2.0
  9
$DIMCEN
 40
2.5
  9
$DIMTSZ
 40
0.0
  9
$DIMTOL
 70
     0
  9
$DIMLIM
 70
     0
  9
$DIMTIH
 70
     1
  9
$DIMTOH
 70
     1
  9
$DIMSE1
 70
     0
  9
$DIMSE2
 70
     0
  9
$DIMTAD
 70
     1
  9
$DIMZIN
 70
     0
  9
$DIMBLK
  1

  9
$DIMASO
 70
     1
  9
$DIMSHO
 70
     1
  9
$DIMPOST
  1

  9
$DIMAPOST
  1

  9
$DIMALT
 70
     0
  9
$DIMALTD
 70
     3
  9
$DIMALTF
 40
0.0393700787
  9
$DIMLFAC
 40
1.0
  9
$DIMTOFL
 70
     1
  9
$DIMTVP
 40
0.0
  9
$DIMTIX
 70
     0
  9
$DIMSOXD
 70
     0
  9
$DIMSAH
 70
     0
  9
$DIMBLK1
  1

  9
$DIMBLK2
  1

  9
$DIMSTYLE
  2
ISO-25
  9
$DIMCLRD
 70
     0
  9
$DIMCLRE
 70
     0
  9
$DIMCLRT
 70
     0
  9
$DIMTFAC
 40
1.0
  9
$DIMGAP
 40
1.524
  9
$DIMJUST
 70
     0
  9
$DIMSD1
 70
     0
  9
$DIMSD2
 70
     0
  9
$DIMTOLJ
 70
     0
  9
$DIMTZIN
 70
     0
  9
$DIMALTZ
 70
     0
  9
$DIMALTTZ
 70
     0
  9
$DIMUPT
 70
     0
  9
$DIMDEC
 70
     2
  9
$DIMTDEC
 70
     3
  9
$DIMALTU
 70
     2
  9
$DIMALTTD
 70
     3
  9
$DIMTXSTY
  7
Standard
  9
$DIMAUNIT
 70
     0
  9
$DIMADEC
 70
     2
  9
$DIMALTRND
 40
0.0
  9
$DIMAZIN
 70
     0
  9
$DIMDSEP
 70
    44
  9
$DIMATFIT
 70
     3
  9
$DIMFRAC
 70
     0
  9
$DIMLDRBLK
  1

  9
$DIMLUNIT
 70
     2
  9
$DIMLWD
 70
    -2
  9
$DIMLWE
 70
    -2
  9
$DIMTMOVE
 70
     0
  9
$LUNITS
 70
     2
  9
$LUPREC
 70
     2
  9
$SKETCHINC
 40
1.0
  9
$FILLETRAD
 40
10.0
  9
$AUNITS
 70
     0
  9
$AUPREC
 70
     2
  9
$MENU
  1
.
  9
$ELEVATION
 40
0.0
  9
$PELEVATION
 40
0.0
  9
$THICKNESS
 40
0.0
  9
$LIMCHECK
 70
     0
  9
$CHAMFERA
 40
0.0
  9
$CHAMFERB
 40
0.0
  9
$CHAMFERC
 40
0.0
  9
$CHAMFERD
 40
0.0
  9
$SKPOLY
 70
     0
  9
$TDCREATE
 40
2457669.506257072
  9
$TDUCREATE
 40
2457669.422923739
  9
$TDUPDATE
 40
2457669.506258229
  9
$TDUUPDATE
 40
2457669.422924896
  9
$TDINDWG
 40
0.0000000116
  9
$TDUSRTIMER
 40
0.0000000116
  9
$USRTIMER
 70
     1
  9
$ANGBASE
 50
0.0
  9
$ANGDIR
 70
     0
  9
$PDMODE
 70
     0
  9
$PDSIZE
 40
-1.0
  9
$PLINEWID
 40
0.0
  9
$SPLFRAME
 70
     0
  9
$SPLINETYPE
 70
     6
  9
$SPLINESEGS
 70
     8
  9
$HANDSEED
  5
1E0
  9
$SURFTAB1
 70
     6
  9
$SURFTAB2
 70
     6
  9
$SURFTYPE
 70
     6
  9
$SURFU
 70
     6
  9
$SURFV
 70
     6
  9
$UCSBASE
  2

  9
$UCSNAME
  2

  9
$UCSORG
 10
0.0
 20
0.0
 30
0.0
  9
$UCSXDIR
 10
1.0
 20
0.0
 30
0.0
  9
$UCSYDIR
 10
0.0
 20
1.0
 30
0.0
  9
$UCSORTHOREF
  2

  9
$UCSORTHOVIEW
 70
     0
  9
$UCSORGTOP
 10
0.0
 20
0.0
 30
0.0
  9
$UCSORGBOTTOM
 10
0.0
 20
0.0
 30
0.0
  9
$UCSORGLEFT
 10
0.0
 20
0.0
 30
0.0
  9
$UCSORGRIGHT
 10
0.0
 20
0.0
 30
0.0
  9
$UCSORGFRONT
 10
0.0
 20
0.0
 30
0.0
  9
$UCSORGBACK
 10
0.0
 20
0.0
 30
0.0
  9
$PUCSBASE
  2

  9
$PUCSNAME
  2

  9
$PUCSORG
 10
0.0
 20
0.0
 30
0.0
  9
$PUCSXDIR
 10
1.0
 20
0.0
 30
0.0
  9
$PUCSYDIR
 10
0.0
 20
1.0
 30
0.0
  9
$PUCSORTHOREF
  2

  9
$PUCSORTHOVIEW
 70
     0
  9
$PUCSORGTOP
 10
0.0
 20
0.0
 30
0.0
  9
$PUCSORGBOTTOM
 10
0.0
 20
0.0
 30
0.0
  9
$PUCSORGLEFT
 10
0.0
 20
0.0
 30
0.0
  9
$PUCSORGRIGHT
 10
0.0
 20
0.0
 30
0.0
  9
$PUCSORGFRONT
 10
0.0
 20
0.0
 30
0.0
  9
$PUCSORGBACK
 10
0.0
 20
0.0
 30
0.0
  9
$USERI1
 70
     0
  9
$USERI2
 70
     0
  9
$USERI3
 70
     0
  9
$USERI4
 70
     0
  9
$USERI5
 70
     0
  9
$USERR1
 40
0.0
  9
$USERR2
 40
0.0
  9
$USERR3
 40
0.0
  9
$USERR4
 40
0.0
  9
$USERR5
 40
0.0
  9
$WORLDVIEW
 70
     1
  9
$SHADEDGE
 70
     3
  9
$SHADEDIF
 70
    70
  9
$TILEMODE
 70
     1
  9
$MAXACTVP
 70
    64
  9
$PINSBASE
 10
0.0
 20
0.0
 30
0.0
  9
$PLIMCHECK
 70
     0
  9
$PEXTMIN
 10
1.0000000000E+20
 20
1.0000000000E+20
 30
1.0000000000E+20
  9
$PEXTMAX
 10
-1.0000000000E+20
 20
-1.0000000000E+20
 30
-1.0000000000E+20
  9
$PLIMMIN
 10
0.0
 20
0.0
  9
$PLIMMAX
 10
420.0
 20
297.0
  9
$UNITMODE
 70
     0
  9
$VISRETAIN
 70
     1
  9
$PLINEGEN
 70
     0
  9
$PSLTSCALE
 70
     1
  9
$TREEDEPTH
 70
  3020
  9
$CMLSTYLE
  2
Standard
  9
$CMLJUST
 70
     0
  9
$CMLSCALE
 40
20.0
  9
$PROXYGRAPHICS
 70
     1
  9
$MEASUREMENT
 70
     1
  9
$CELWEIGHT
370
    -1
  9
$ENDCAPS
280
     0
  9
$JOINSTYLE
280
     0
  9
$LWDISPLAY
290
     1
  9
$INSUNITS
 70
     4
  9
$HYPERLINKBASE
  1

  9
$STYLESHEET
  1

  9
$XEDIT
290
     1
  9
$CEPSNTYPE
380
     0
  9
$PSTYLEMODE
290
     1
  9
$FINGERPRINTGUID
  2
{E444CC13-F36E-49A1-B347-1505CDA94CAE}
  9
$VERSIONGUID
  2
{FAEB1C32-E019-11D5-929B-00C0DF256EC4}
  9
$EXTNAMES
290
     1
  9
$PSVPSCALE
 40
0.0
  9
$OLESTARTUP
290
     0
  0
ENDSEC
  0
SECTION
  2
CLASSES
  0
CLASS
  1
ACDBDICTIONARYWDFLT
  2
AcDbDictionaryWithDefault
  3
ObjectDBX Classes
 90
        0
280
     0
281
     0
  0
CLASS
  1
VISUALSTYLE
  2
AcDbVisualStyle
  3
ObjectDBX Classes
 90
     4095
280
     0
281
     0
  0
CLASS
  1
MATERIAL
  2
AcDbMaterial
  3
ObjectDBX Classes
 90
     1153
280
     0
281
     0
  0
CLASS
  1
SCALE
  2
AcDbScale
  3
ObjectDBX Classes
 90
     1153
280
     0
281
     0
  0
CLASS
  1
TABLESTYLE
  2
AcDbTableStyle
  3
ObjectDBX Classes
 90
     4095
280
     0
281
     0
  0
CLASS
  1
MLEADERSTYLE
  2
AcDbMLeaderStyle
  3
ACDB_MLEADERSTYLE_CLASS
 90
     4095
280
     0
281
     0
  0
CLASS
  1
SUN
  2
AcDbSun
  3
SCENEOE
 90
     1153
280
     0
281
     0
  0
CLASS
  1
ACDBPLACEHOLDER
  2
AcDbPlaceHolder
  3
ObjectDBX Classes
 90
        0
280
     0
281
     0
  0
CLASS
  1
LAYOUT
  2
AcDbLayout
  3
ObjectDBX Classes
 90
        0
280
     0
281
     0
  0
ENDSEC
  0
SECTION
  2
TABLES
  0
TABLE
  2
VPORT
  5
8
330
0
100
AcDbSymbolTable
 70
     1
  0
VPORT
  5
29
330
8
100
AcDbSymbolTableRecord
100
AcDbViewportTableRecord
  2
*Active
 70
     0
 10
0.0
 20
0.0
 11
1.0
 21
1.0
 12
148.5
 22
105.0
 13
0.0
 23
0.0
 14
10.0
 24
10.0
 15
10.0
 25
10.0
 16
0.0
 26
0.0
 36
1.0
 17
0.0
 27
0.0
 37
0.0
 40
210.0
 41
1.4142857143
 42
50.0
 43
0.0
 44
0.0
 50
0.0
 51
0.0
 71
     0
 72
  2000
 73
     1
 74
     3
 75
     0
 76
     0
 77
     0
 78
     0
281
     0
 65
     1
110
0.0
120
0.0
130
0.0
111
1.0
121
0.0
131
0.0
112
0.0
122
1.0
132
0.0
 79
     0
146
0.0
  0
ENDTAB
  0
TABLE
  2
LTYPE
  5
5
330
0
100
AcDbSymbolTable
 70
     6
  0
LTYPE
  5
14
330
5
100
AcDbSymbolTableRecord
100
AcDbLinetypeTableRecord
  2
ByBlock
 70
     0
  3

 72
    65
 73
     0
 40
0.0
  0
LTYPE
  5
15
330
5
100
AcDbSymbolTableRecord
100
AcDbLinetypeTableRecord
  2
ByLayer
 70
     0
  3

 72
    65
 73
     0
 40
0.0
  0
LTYPE
  5
16
330
5
100
AcDbSymbolTableRecord
100
AcDbLinetypeTableRecord
  2
Continuous
 70
     0
  3
Solid line
 72
    65
 73
     0
 40
0.0
  0
LTYPE
  5
6E
330
5
100
AcDbSymbolTableRecord
100
AcDbLinetypeTableRecord
  2
HIDDEN
 70
     0
  3
Hidden __ __ __ __ __ __ __ __ __ __ __ __ __ __
 72
    65
 73
     2
 40
1.905
 49
1.27
 74
     0
 49
-0.635
 74
     0
  0
LTYPE
  5
6F
330
5
100
AcDbSymbolTableRecord
100
AcDbLinetypeTableRecord
  2
PHANTOM
 70
     0
  3
Phantom ______  __  __  ______  __  __  ______
 72
    65
 73
     6
 40
12.7
 49
6.35
 74
     0
 49
-1.27
 74
     0
 49
1.27
 74
     0
 49
-1.27
 74
     0
 49
1.27
 74
     0
 49
-1.27
 74
     0
  0
LTYPE
  5
70
330
5
100
AcDbSymbolTableRecord
100
AcDbLinetypeTableRecord
  2
CENTER
 70
     0
  3
Center ____ _ ____ _ ____ _ ____ _ ____ _ ____
 72
    65
 73
     4
 40
10.16
 49
6.35
 74
     0
 49
-1.27
 74
     0
 49
1.27
 74
     0
 49
-1.27
 74
     0
  0
LTYPE
  5
71
330
5
100
AcDbSymbolTableRecord
100
AcDbLinetypeTableRecord
  2
CENTERX2
 70
     0
  3
Center (2x) ________  __  ________  __  _____
 72
    65
 73
     4
 40
20.32
 49
12.7
 74
     0
 49
-2.54
 74
     0
 49
2.54
 74
     0
 49
-2.54
 74
     0
  0
LTYPE
  5
72
330
5
100
AcDbSymbolTableRecord
100
AcDbLinetypeTableRecord
  2
DOT2
 70
     0
  3
Dot (.5x) ........................................
 72
    65
 73
     2
 40
0.635
 49
0.0
 74
     0
 49
-0.635
 74
     0
  0
ENDTAB
  0
TABLE
  2
LAYER
  5
2
330
0
100
AcDbSymbolTable
 70
     5
  0
LAYER
  5
10
330
2
100
AcDbSymbolTableRecord
100
AcDbLayerTableRecord
  2
0
 70
     0
 62
     7
  6
Continuous
370
    -3
390
F
  0
LAYER
  5
73
330
2
100
AcDbSymbolTableRecord
100
AcDbLayerTableRecord
  2
FORMAT
 70
     0
 62
     7
  6
Continuous
370
    -3
390
F
  0
LAYER
  5
74
330
2
100
AcDbSymbolTableRecord
100
AcDbLayerTableRecord
  2
VERMASSUNG
 70
     0
 62
     7
  6
Continuous
370
    -3
390
F
  0
LAYER
  5
75
330
2
100
AcDbSymbolTableRecord
100
AcDbLayerTableRecord
  2
KOPF_DÜNN
 70
     0
 62
     7
  6
Continuous
370
    -3
390
F
  0
LAYER
  5
76
330
2
100
AcDbSymbolTableRecord
100
AcDbLayerTableRecord
  2
KOPF_DICK
 70
     0
 62
     7
  6
Continuous
370
    15
390
F
  0
ENDTAB
  0
TABLE
  2
STYLE
  5
3
330
0
100
AcDbSymbolTable
 70
     3
  0
STYLE
  5
11
330
3
100
AcDbSymbolTableRecord
100
AcDbTextStyleTableRecord
  2
Standard
 70
     0
 40
0.0
 41
1.0
 50
0.0
 71
     0
 42
2.0
  3
txt
  4

  0
STYLE
  5
77
330
3
100
AcDbSymbolTableRecord
100
AcDbTextStyleTableRecord
  2
SLDTEXTSTYLE0
 70
     0
 40
0.0
 41
0.7
 50
0.0
 71
     0
 42
2.0
  3
TXT
  4

  0
STYLE
  5
7B
330
3
100
AcDbSymbolTableRecord
100
AcDbTextStyleTableRecord
  2
SLDTEXTSTYLE1
 70
     0
 40
0.0
 41
0.6538461538
 50
0.0
 71
     0
 42
2.0
  3
TXT
  4

  0
ENDTAB
  0
TABLE
  2
VIEW
  5
6
330
0
100
AcDbSymbolTable
 70
     0
  0
ENDTAB
  0
TABLE
  2
UCS
  5
7
330
0
100
AcDbSymbolTable
 70
     0
  0
ENDTAB
  0
TABLE
  2
APPID
  5
9
330
0
100
AcDbSymbolTable
 70
     1
  0
APPID
  5
12
330
9
100
AcDbSymbolTableRecord
100
AcDbRegAppTableRecord
  2
ACAD
 70
     0
  0
ENDTAB
  0
TABLE
  2
DIMSTYLE
  5
A
330
0
100
AcDbSymbolTable
 70
     2
100
AcDbDimStyleTable
  0
DIMSTYLE
105
27
330
A
100
AcDbSymbolTableRecord
100
AcDbDimStyleTableRecord
  2
ISO-25
 70
     0
 41
2.5
 42
0.625
 43
3.75
 44
1.25
 73
     0
 74
     0
 77
     1
 78
     8
140
2.5
141
2.5
143
0.0393700787
147
0.625
171
     3
172
     1
178
     0
271
     2
272
     2
274
     3
278
    44
283
     0
284
     8
340
11
  0
DIMSTYLE
105
118
102
{ACAD_REACTORS
330
117
330
124
330
130
330
13B
330
145
330
151
102
}
330
A
100
AcDbSymbolTableRecord
100
AcDbDimStyleTableRecord
  2
SLDDIMSTYLE0
 70
     0
 41
3.0
 44
0.0
 45
0.000000001
 73
     0
 74
     0
 77
     1
 78
    12
 79
     3
140
2.0
147
0.5
173
     1
178
     0
271
     2
272
     3
276
     2
284
    12
340
77
  0
ENDTAB
  0
TABLE
  2
BLOCK_RECORD
  5
1
330
0
100
AcDbSymbolTable
 70
     7
  0
BLOCK_RECORD
  5
1F
330
1
100
AcDbSymbolTableRecord
100
AcDbBlockTableRecord
  2
*Model_Space
340
22
  0
BLOCK_RECORD
  5
1B
330
1
100
AcDbSymbolTableRecord
100
AcDbBlockTableRecord
  2
*Paper_Space
340
1E
  0
BLOCK_RECORD
  5
23
330
1
100
AcDbSymbolTableRecord
100
AcDbBlockTableRecord
  2
*Paper_Space0
340
26
  0
BLOCK_RECORD
  5
119
330
1
100
AcDbSymbolTableRecord
100
AcDbBlockTableRecord
  2
_D
340
0
  0
BLOCK_RECORD
  5
125
330
1
100
AcDbSymbolTableRecord
100
AcDbBlockTableRecord
  2
_D_1
340
0
  0
BLOCK_RECORD
  5
131
330
1
100
AcDbSymbolTableRecord
100
AcDbBlockTableRecord
  2
_D_2
340
0
  0
BLOCK_RECORD
  5
13C
330
1
100
AcDbSymbolTableRecord
100
AcDbBlockTableRecord
  2
_D_3
340
0
  0
BLOCK_RECORD
  5
146
330
1
100
AcDbSymbolTableRecord
100
AcDbBlockTableRecord
  2
_D_4
340
0
  0
BLOCK_RECORD
  5
152
330
1
100
AcDbSymbolTableRecord
100
AcDbBlockTableRecord
  2
_D_5
340
0
  0
ENDTAB
  0
ENDSEC
  0
SECTION
  2
BLOCKS
  0
BLOCK
  5
20
330
1F
100
AcDbEntity
  8
0
100
AcDbBlockBegin
  2
*Model_Space
 70
     0
 10
0.0
 20
0.0
 30
0.0
  3
*Model_Space
  1

  0
ENDBLK
  5
21
330
1F
100
AcDbEntity
  8
0
100
AcDbBlockEnd
  0
BLOCK
  5
1C
330
1B
100
AcDbEntity
 67
     1
  8
0
100
AcDbBlockBegin
  2
*Paper_Space
 70
     0
 10
0.0
 20
0.0
 30
0.0
  3
*Paper_Space
  1

  0
ENDBLK
  5
1D
330
1B
100
AcDbEntity
 67
     1
  8
0
100
AcDbBlockEnd
  0
BLOCK
  5
24
330
23
100
AcDbEntity
  8
0
100
AcDbBlockBegin
  2
*Paper_Space0
 70
     0
 10
0.0
 20
0.0
 30
0.0
  3
*Paper_Space0
  1

  0
ENDBLK
  5
25
330
23
100
AcDbEntity
  8
0
100
AcDbBlockEnd
  0
BLOCK
  5
11A
330
119
100
AcDbEntity
  8
0
100
AcDbBlockBegin
  2
_D
 70
     0
 10
0.0
 20
0.0
 30
0.0
  3
_D
  1

  0
SOLID
  5
11C
330
119
100
AcDbEntity
  8
VERMASSUNG
100
AcDbTrace
 10
79.0445454168
 20
137.3814650503
 30
0.0
 11
78.5945454168
 21
134.3814650503
 31
0.0
 12
79.4945454168
 22
134.3814650503
 32
0.0
 13
79.4945454168
 23
134.3814650503
 33
0.0
  0
SOLID
  5
11D
330
119
100
AcDbEntity
  8
VERMASSUNG
100
AcDbTrace
 10
79.0445454168
 20
74.3814650503
 30
0.0
 11
79.4945454168
 21
77.3814650503
 31
0.0
 12
78.5945454168
 22
77.3814650503
 32
0.0
 13
78.5945454168
 23
77.3814650503
 33
0.0
  0
LINE
  5
11E
330
119
100
AcDbEntity
  8
VERMASSUNG
100
AcDbLine
 10
173.9807534337
 20
137.3814650503
 30
0.0
 11
78.0445454168
 21
137.3814650503
 31
0.0
  0
LINE
  5
11F
330
119
100
AcDbEntity
  8
VERMASSUNG
100
AcDbLine
 10
173.9807583517
 20
74.3814650503
 30
0.0
 11
78.0445454168
 21
74.3814650503
 31
0.0
  0
LINE
  5
120
330
119
100
AcDbEntity
  8
VERMASSUNG
100
AcDbLine
 10
79.0445454168
 20
137.3814650503
 30
0.0
 11
79.0445454168
 21
74.3814650503
 31
0.0
  0
MTEXT
  5
121
330
119
100
AcDbEntity
  8
VERMASSUNG
100
AcDbMText
 10
76.2664101606
 20
95.1769799833
 30
0.0
 40
2.0
 41
0.0
 71
     1
 72
     1
  1
MAS BT 40
  7
SLDTEXTSTYLE0
 11
-7.044195017643634E-15
 21
1.0
 31
0.0
 73
     1
 44
1.0
  0
MTEXT
  5
122
330
119
100
AcDbEntity
  8
VERMASSUNG
100
AcDbMText
 10
76.4664101119
 20
110.1769796481
 30
0.0
 40
2.0
 41
0.0
 71
     1
 72
     1
  1
%%c
  7
SLDTEXTSTYLE0
 11
-7.044195017643634E-15
 21
1.0
 31
0.0
 73
     1
 44
1.0
  0
MTEXT
  5
123
330
119
100
AcDbEntity
  8
VERMASSUNG
100
AcDbMText
 10
76.4664098208
 20
113.7865700966
 30
0.0
 40
2.0
 41
0.0
 71
     1
 72
     1
  1
63
  7
SLDTEXTSTYLE0
 11
-7.044195017643634E-15
 21
1.0
 31
0.0
 73
     1
 44
1.0
  0
ENDBLK
  5
11B
330
119
100
AcDbEntity
  8
0
100
AcDbBlockEnd
  0
BLOCK
  5
126
330
125
100
AcDbEntity
  8
0
100
AcDbBlockBegin
  2
_D_1
 70
     0
 10
0.0
 20
0.0
 30
0.0
  3
_D_1
  1

  0
SOLID
  5
128
330
125
100
AcDbEntity
  8
VERMASSUNG
100
AcDbTrace
 10
218.0198200845
 20
130.8814650503
 30
0.0
 11
217.5698200845
 21
127.8814650503
 31
0.0
 12
218.4698200845
 22
127.8814650503
 32
0.0
 13
218.4698200845
 23
127.8814650503
 33
0.0
  0
SOLID
  5
129
330
125
100
AcDbEntity
  8
VERMASSUNG
100
AcDbTrace
 10
218.0198200845
 20
80.8814650503
 30
0.0
 11
218.4698200845
 21
83.8814650503
 31
0.0
 12
217.5698200845
 22
83.8814650503
 32
0.0
 13
217.5698200845
 23
83.8814650503
 33
0.0
  0
LINE
  5
12A
330
125
100
AcDbEntity
  8
VERMASSUNG
100
AcDbLine
 10
204.4807575778
 20
130.8814650503
 30
0.0
 11
219.0198200845
 21
130.8814650503
 31
0.0
  0
LINE
  5
12B
330
125
100
AcDbEntity
  8
VERMASSUNG
100
AcDbLine
 10
204.4807575778
 20
80.8814650503
 30
0.0
 11
219.0198200845
 21
80.8814650503
 31
0.0
  0
LINE
  5
12C
330
125
100
AcDbEntity
  8
VERMASSUNG
100
AcDbLine
 10
218.0198200845
 20
130.8814650503
 30
0.0
 11
218.0198200845
 21
80.8814650503
 31
0.0
  0
MTEXT
  5
12D
330
125
100
AcDbEntity
  8
VERMASSUNG
100
AcDbMText
 10
215.2416848282
 20
99.7775371409
 30
0.0
 40
2.0
 41
0.0
 71
     1
 72
     1
  1
ST5
  7
SLDTEXTSTYLE0
 11
-7.044195017643634E-15
 21
1.0
 31
0.0
 73
     1
 44
1.0
  0
MTEXT
  5
12E
330
125
100
AcDbEntity
  8
VERMASSUNG
100
AcDbMText
 10
215.4416847795
 20
105.5775370672
 30
0.0
 40
2.0
 41
0.0
 71
     1
 72
     1
  1
%%c
  7
SLDTEXTSTYLE0
 11
-7.044195017643634E-15
 21
1.0
 31
0.0
 73
     1
 44
1.0
  0
MTEXT
  5
12F
330
125
100
AcDbEntity
  8
VERMASSUNG
100
AcDbMText
 10
215.4416844885
 20
109.1860129391
 30
0.0
 40
2.0
 41
0.0
 71
     1
 72
     1
  1
50
  7
SLDTEXTSTYLE0
 11
-7.044195017643634E-15
 21
1.0
 31
0.0
 73
     1
 44
1.0
  0
ENDBLK
  5
127
330
125
100
AcDbEntity
  8
0
100
AcDbBlockEnd
  0
BLOCK
  5
132
330
131
100
AcDbEntity
  8
0
100
AcDbBlockBegin
  2
_D_2
 70
     0
 10
0.0
 20
0.0
 30
0.0
  3
_D_2
  1

  0
SOLID
  5
134
330
131
100
AcDbEntity
  8
VERMASSUNG
100
AcDbTrace
 10
212.0198200845
 20
119.8814650503
 30
0.0
 11
211.5698200845
 21
116.8814650503
 31
0.0
 12
212.4698200845
 22
116.8814650503
 32
0.0
 13
212.4698200845
 23
116.8814650503
 33
0.0
  0
SOLID
  5
135
330
131
100
AcDbEntity
  8
VERMASSUNG
100
AcDbTrace
 10
212.0198200845
 20
91.8814650503
 30
0.0
 11
212.4698200845
 21
94.8814650503
 31
0.0
 12
211.5698200845
 22
94.8814650503
 32
0.0
 13
211.5698200845
 23
94.8814650503
 33
0.0
  0
LINE
  5
136
330
131
100
AcDbEntity
  8
VERMASSUNG
100
AcDbLine
 10
191.3807575778
 20
119.8814650503
 30
0.0
 11
213.0198200845
 21
119.8814650503
 31
0.0
  0
LINE
  5
137
330
131
100
AcDbEntity
  8
VERMASSUNG
100
AcDbLine
 10
191.3807575778
 20
91.8814650503
 30
0.0
 11
213.0198200845
 21
91.8814650503
 31
0.0
  0
LINE
  5
138
330
131
100
AcDbEntity
  8
VERMASSUNG
100
AcDbLine
 10
212.0198200845
 20
119.8814650503
 30
0.0
 11
212.0198200845
 21
91.8814650503
 31
0.0
  0
MTEXT
  5
139
330
131
100
AcDbEntity
  8
VERMASSUNG
100
AcDbMText
 10
209.4416845467
 20
102.6772889432
 30
0.0
 40
2.0
 41
0.0
 71
     1
 72
     1
  1
%%c
  7
SLDTEXTSTYLE0
 11
-7.044195017643634E-15
 21
1.0
 31
0.0
 73
     1
 44
1.0
  0
MTEXT
  5
13A
330
131
100
AcDbEntity
  8
VERMASSUNG
100
AcDbMText
 10
209.4416844885
 20
106.2862611368
 30
0.0
 40
2.0
 41
0.0
 71
     1
 72
     1
  1
28
  7
SLDTEXTSTYLE0
 11
-7.044195017643634E-15
 21
1.0
 31
0.0
 73
     1
 44
1.0
  0
ENDBLK
  5
133
330
131
100
AcDbEntity
  8
0
100
AcDbBlockEnd
  0
BLOCK
  5
13D
330
13C
100
AcDbEntity
  8
0
100
AcDbBlockBegin
  2
_D_3
 70
     0
 10
0.0
 20
0.0
 30
0.0
  3
_D_3
  1

  0
SOLID
  5
13F
330
13C
100
AcDbEntity
  8
VERMASSUNG
100
AcDbTrace
 10
204.9807575778
 20
148.5436386721
 30
0.0
 11
201.9807575778
 21
148.9936386721
 31
0.0
 12
201.9807575778
 22
148.0936386721
 32
0.0
 13
201.9807575778
 23
148.0936386721
 33
0.0
  0
SOLID
  5
140
330
13C
100
AcDbEntity
  8
VERMASSUNG
100
AcDbTrace
 10
149.9807575778
 20
148.5436386721
 30
0.0
 11
152.9807575778
 21
148.0936386721
 31
0.0
 12
152.9807575778
 22
148.9936386721
 32
0.0
 13
152.9807575778
 23
148.9936386721
 33
0.0
  0
LINE
  5
141
330
13C
100
AcDbEntity
  8
VERMASSUNG
100
AcDbLine
 10
204.9807575778
 20
130.3814650503
 30
0.0
 11
204.9807575778
 21
149.5436386721
 31
0.0
  0
LINE
  5
142
330
13C
100
AcDbEntity
  8
VERMASSUNG
100
AcDbLine
 10
149.9807575778
 20
128.1064650503
 30
0.0
 11
149.9807575778
 21
149.5436386721
 31
0.0
  0
LINE
  5
143
330
13C
100
AcDbEntity
  8
VERMASSUNG
100
AcDbLine
 10
204.9807575778
 20
148.5436386721
 30
0.0
 11
149.9807575778
 21
148.5436386721
 31
0.0
  0
MTEXT
  5
144
330
13C
100
AcDbEntity
  8
VERMASSUNG
100
AcDbMText
 10
176.0810675675
 20
151.1217742681
 30
0.0
 40
2.0
 41
0.0
 71
     1
 72
     1
  1
55
  7
SLDTEXTSTYLE0
 73
     1
 44
1.0
  0
ENDBLK
  5
13E
330
13C
100
AcDbEntity
  8
0
100
AcDbBlockEnd
  0
BLOCK
  5
147
330
146
100
AcDbEntity
  8
0
100
AcDbBlockBegin
  2
_D_4
 70
     0
 10
0.0
 20
0.0
 30
0.0
  3
_D_4
  1

  0
ARC
  5
149
330
146
100
AcDbEntity
  8
VERMASSUNG
100
AcDbCircle
 10
191.7922534583
 20
144.4429816175
 30
0.0
 40
4.247059938537386
100
AcDbArc
 50
153.4349488229
 51
206.5650511771
  0
ARC
  5
14A
330
146
100
AcDbEntity
  8
VERMASSUNG
100
AcDbCircle
 10
190.1692616972
 20
144.4429816175
 30
0.0
 40
4.247059938537386
100
AcDbArc
 50
333.4349488229
 51
26.5650511771
  0
SOLID
  5
14B
330
146
100
AcDbEntity
  8
VERMASSUNG
100
AcDbTrace
 10
176.9807575778
 20
142.5436386721
 30
0.0
 11
179.9807575778
 21
142.0936386721
 31
0.0
 12
179.9807575778
 22
142.9936386721
 32
0.0
 13
179.9807575778
 23
142.9936386721
 33
0.0
  0
SOLID
  5
14C
330
146
100
AcDbEntity
  8
VERMASSUNG
100
AcDbTrace
 10
204.9807575778
 20
142.5436386721
 30
0.0
 11
201.9807575778
 21
142.9936386721
 31
0.0
 12
201.9807575778
 22
142.0936386721
 32
0.0
 13
201.9807575778
 23
142.0936386721
 33
0.0
  0
LINE
  5
14D
330
146
100
AcDbEntity
  8
VERMASSUNG
100
AcDbLine
 10
176.9807575778
 20
136.3814650503
 30
0.0
 11
176.9807575778
 21
143.5436386721
 31
0.0
  0
LINE
  5
14E
330
146
100
AcDbEntity
  8
VERMASSUNG
100
AcDbLine
 10
204.9807575778
 20
130.3814650503
 30
0.0
 11
204.9807575778
 21
143.5436386721
 31
0.0
  0
LINE
  5
14F
330
146
100
AcDbEntity
  8
VERMASSUNG
100
AcDbLine
 10
176.9807575778
 20
142.5436386721
 30
0.0
 11
204.9807575778
 21
142.5436386721
 31
0.0
  0
MTEXT
  5
150
330
146
100
AcDbEntity
  8
VERMASSUNG
100
AcDbMText
 10
189.5810675675
 20
145.1217742681
 30
0.0
 40
2.0
 41
0.0
 71
     1
 72
     1
  1
28
  7
SLDTEXTSTYLE0
 73
     1
 44
1.0
  0
ENDBLK
  5
148
330
146
100
AcDbEntity
  8
0
100
AcDbBlockEnd
  0
BLOCK
  5
153
330
152
100
AcDbEntity
  8
0
100
AcDbBlockBegin
  2
_D_5
 70
     0
 10
0.0
 20
0.0
 30
0.0
  3
_D_5
  1

  0
ARC
  5
155
330
152
100
AcDbEntity
  8
VERMASSUNG
100
AcDbCircle
 10
143.9929228713
 20
156.4429816175
 30
0.0
 40
4.247059938537284
100
AcDbArc
 50
153.4349488229
 51
206.5650511771
  0
ARC
  5
156
330
152
100
AcDbEntity
  8
VERMASSUNG
100
AcDbCircle
 10
145.5685922843
 20
156.4429816175
 30
0.0
 40
4.247059938537335
100
AcDbArc
 50
333.4349488229
 51
26.5650511771
  0
SOLID
  5
157
330
152
100
AcDbEntity
  8
VERMASSUNG
100
AcDbTrace
 10
84.5807575778
 20
154.5436386721
 30
0.0
 11
87.5807575778
 21
154.0936386721
 31
0.0
 12
87.5807575778
 22
154.9936386721
 32
0.0
 13
87.5807575778
 23
154.9936386721
 33
0.0
  0
SOLID
  5
158
330
152
100
AcDbEntity
  8
VERMASSUNG
100
AcDbTrace
 10
204.9807575778
 20
154.5436386721
 30
0.0
 11
201.9807575778
 21
154.9936386721
 31
0.0
 12
201.9807575778
 22
154.0936386721
 32
0.0
 13
201.9807575778
 23
154.0936386721
 33
0.0
  0
LINE
  5
159
330
152
100
AcDbEntity
  8
VERMASSUNG
100
AcDbLine
 10
84.5807575778
 20
117.7042206473
 30
0.0
 11
84.5807575778
 21
155.5436386721
 31
0.0
  0
LINE
  5
15A
330
152
100
AcDbEntity
  8
VERMASSUNG
100
AcDbLine
 10
204.9807575778
 20
130.3814650503
 30
0.0
 11
204.9807575778
 21
155.5436386721
 31
0.0
  0
LINE
  5
15B
330
152
100
AcDbEntity
  8
VERMASSUNG
100
AcDbLine
 10
84.5807575778
 20
154.5436386721
 30
0.0
 11
204.9807575778
 21
154.5436386721
 31
0.0
  0
MTEXT
  5
15C
330
152
100
AcDbEntity
  8
VERMASSUNG
100
AcDbMText
 10
141.7817369805
 20
157.1217742681
 30
0.0
 40
2.0
 41
0.0
 71
     1
 72
     1
  1
120.4
  7
SLDTEXTSTYLE0
 73
     1
 44
1.0
  0
ENDBLK
  5
154
330
152
100
AcDbEntity
  8
0
100
AcDbBlockEnd
  0
ENDSEC
  0
SECTION
  2
ENTITIES
  0
MTEXT
  5
78
330
1F
100
AcDbEntity
  8
KOPF_DÜNN
100
AcDbMText
 10
13.8892156294
 20
23.8442973028
 30
0.0
 40
3.0
 41
0.0
 71
     1
 72
     1
  1
134.540.050.055
  7
SLDTEXTSTYLE0
 73
     1
 44
1.0
  0
MTEXT
  5
79
330
1F
100
AcDbEntity
  8
VERMASSUNG
100
AcDbMText
 10
13.9329988022
 20
28.8834360957
 30
0.0
 40
3.0
 41
0.0
 71
     1
 72
     1
  1
Aufnahme_Master shank ST 5
  7
SLDTEXTSTYLE0
 73
     1
 44
1.0
  0
MTEXT
  5
7A
330
1F
100
AcDbEntity
  8
VERMASSUNG
100
AcDbMText
 10
98.8601118557
 20
13.8365368761
 30
0.0
 40
2.0
 41
0.0
 71
     1
 72
     1
  1
Datum: 05.06.2008
  7
SLDTEXTSTYLE0
 73
     1
 44
1.0
  0
MTEXT
  5
7C
330
1F
100
AcDbEntity
  8
VERMASSUNG
100
AcDbMText
 10
13.933048693
 20
18.0482802738
 30
0.0
 40
2.0
 41
0.0
 71
     1
 72
     1
  1
MAS BT 40 A/D
  7
SLDTEXTSTYLE1
 73
     1
 44
1.0
  0
MTEXT
  5
7D
330
1F
100
AcDbEntity
  8
VERMASSUNG
100
AcDbMText
 10
13.9808475933
 20
13.9090974274
 30
0.0
 40
2.0
 41
0.0
 71
     1
 72
     1
  1
Gewicht: 1242g
  7
SLDTEXTSTYLE0
 73
     1
 44
1.0
  0
LINE
  5
7E
330
1F
100
AcDbEntity
  8
0
  6
Continuous
 62
     7
370
    15
100
AcDbLine
 10
173.9809126059
 20
74.3814650503
 30
0.0
 11
175.9807575778
 21
74.3814650503
 31
0.0
  0
LINE
  5
7F
330
1F
100
AcDbEntity
  8
0
  6
Continuous
 62
     7
370
    15
100
AcDbLine
 10
175.9807575778
 20
137.3814650503
 30
0.0
 11
173.9802574078
 21
137.3814650503
 31
0.0
  0
ARC
  5
80
330
1F
100
AcDbEntity
  8
0
  6
Continuous
 62
     7
370
    15
100
AcDbCircle
 10
175.9807575778
 20
75.3814650503
 30
0.0
 40
1.0
100
AcDbArc
 50
270.0
 51
0.0
  0
ARC
  5
81
330
1F
100
AcDbEntity
  8
0
  6
Continuous
 62
     7
370
    15
100
AcDbCircle
 10
175.9807575778
 20
136.3814650503
 30
0.0
 40
1.0
100
AcDbArc
 50
0.0
 51
90.0
  0
ARC
  5
82
330
1F
100
AcDbEntity
  8
0
  6
Continuous
 62
     7
370
    15
100
AcDbCircle
 10
180.9807575778
 20
76.8814650503
 30
0.0
 40
4.0
100
AcDbArc
 50
90.0
 51
180.0
  0
ARC
  5
83
330
1F
100
AcDbEntity
  8
0
  6
Continuous
 62
     7
370
    15
100
AcDbCircle
 10
180.9807575778
 20
134.8814650503
 30
0.0
 40
4.0
100
AcDbArc
 50
180.0
 51
270.0
  0
LINE
  5
84
330
1F
100
AcDbEntity
  8
0
  6
Continuous
 62
     7
370
    15
100
AcDbLine
 10
204.4807575778
 20
80.8814650503
 30
0.0
 11
204.9807575778
 21
81.3814650503
 31
0.0
  0
LINE
  5
85
330
1F
100
AcDbEntity
  8
0
  6
Continuous
 62
     7
370
    15
100
AcDbLine
 10
204.9807575778
 20
130.3814650503
 30
0.0
 11
204.4807575778
 21
130.8814650503
 31
0.0
  0
LINE
  5
86
330
1F
100
AcDbEntity
  8
0
  6
Continuous
 62
     7
370
    15
100
AcDbLine
 10
204.4807575778
 20
130.8814650503
 30
0.0
 11
180.9807575778
 21
130.8814650503
 31
0.0
  0
LINE
  5
87
330
1F
100
AcDbEntity
  8
0
  6
Continuous
 62
     7
370
    15
100
AcDbLine
 10
180.9807575778
 20
80.8814650503
 30
0.0
 11
204.4807575778
 21
80.8814650503
 31
0.0
  0
ARC
  5
88
330
1F
100
AcDbEntity
  8
0
  6
Continuous
 62
     7
370
    15
100
AcDbCircle
 10
150.9807575778
 20
82.6564650503
 30
0.0
 40
1.000000000000018
100
AcDbArc
 50
46.4332475157
 51
90.0
  0
ARC
  5
89
330
1F
100
AcDbEntity
  8
0
  6
Continuous
 62
     7
370
    15
100
AcDbCircle
 10
150.9807575778
 20
129.1064650503
 30
0.0
 40
1.000000000000021
100
AcDbArc
 50
270.0
 51
313.5375569942
  0
LINE
  5
8A
330
1F
100
AcDbEntity
  8
0
  6
Continuous
 62
     7
370
    15
100
AcDbLine
 10
149.9807575778
 20
83.6564650503
 30
0.0
 11
150.9807575778
 21
83.6564650503
 31
0.0
  0
LINE
  5
8B
330
1F
100
AcDbEntity
  8
0
  6
Continuous
 62
     7
370
    15
100
AcDbLine
 10
150.9807575778
 20
128.1064650503
 30
0.0
 11
149.9807575778
 21
128.1064650503
 31
0.0
  0
LINE
  5
8C
330
1F
100
AcDbEntity
  8
0
  6
Continuous
 62
     7
370
    15
100
AcDbLine
 10
149.9807575778
 20
128.1064650503
 30
0.0
 11
85.4364506847
 21
118.6937536284
 31
0.0
  0
LINE
  5
8D
330
1F
100
AcDbEntity
  8
0
  6
Continuous
 62
     7
370
    15
100
AcDbLine
 10
85.4364506847
 20
93.0691764722
 30
0.0
 11
149.9807575778
 21
83.6564650503
 31
0.0
  0
ARC
  5
8E
330
1F
100
AcDbEntity
  8
0
  6
Continuous
 62
     7
370
    15
100
AcDbCircle
 10
85.5807575778
 20
94.0587094533
 30
0.0
 40
1.0
100
AcDbArc
 50
180.0
 51
261.7028550302
  0
ARC
  5
8F
330
1F
100
AcDbEntity
  8
0
  6
Continuous
 62
     7
370
    15
100
AcDbCircle
 10
85.5807575778
 20
117.7042206473
 30
0.0
 40
1.00000000000001
100
AcDbArc
 50
98.2971449698
 51
180.0
  0
SPLINE
  5
90
330
1F
100
AcDbEntity
  8
0
  6
Continuous
 62
     7
370
    15
100
AcDbSpline
210
0.0
220
0.0
230
1.0
 70
    24
 71
     3
 72
    11
 73
     7
 74
     0
 42
0.000000001
 43
0.00000001
 40
0.0
 40
0.0
 40
0.0
 40
0.0
 40
0.1285561766307353
 40
0.4801535797842238
 40
0.8150691831753892
 40
1.0
 40
1.0
 40
1.0
 40
1.0
 10
190.0746228023835
 20
108.0923691705286
 30
0.0
 10
190.189109387849
 20
108.112586504387
 30
0.0
 10
190.6167134539408
 20
108.1880976581893
 30
0.0
 10
191.4185668480998
 20
108.3296979837584
 30
0.0
 10
192.2868049317501
 20
108.4830212673061
 30
0.0
 10
192.7519264219018
 20
108.5651576714348
 30
0.0
 10
192.9173893235426
 20
108.5943769787454
 30
0.0
  0
SPLINE
  5
91
330
1F
100
AcDbEntity
  8
0
  6
Continuous
 62
     7
370
    15
100
AcDbSpline
210
0.0
220
0.0
230
1.0
 70
    24
 71
     3
 72
    11
 73
     7
 74
     0
 42
0.000000001
 43
0.00000001
 40
0.0
 40
0.0
 40
0.0
 40
0.0
 40
0.2164543009645047
 40
0.4403089937225371
 40
0.751898748975947
 40
1.0
 40
1.0
 40
1.0
 40
1.0
 10
189.0879910566179
 20
105.3794572420686
 30
0.0
 10
189.1555759443721
 20
105.5652933951813
 30
0.0
 10
189.2930563907541
 20
105.9433192842939
 30
0.0
 10
189.5481839683763
 20
106.6448359865295
 30
0.0
 10
189.8218553879756
 20
107.3973421387953
 30
0.0
 10
189.9969890900449
 20
107.87890206372
 30
0.0
 10
190.0746228023835
 20
108.0923691705286
 30
0.0
  0
SPLINE
  5
92
330
1F
100
AcDbEntity
  8
0
  6
Continuous
 62
     7
370
    15
100
AcDbSpline
210
0.0
220
0.0
230
1.0
 70
    24
 71
     3
 72
    11
 73
     7
 74
     0
 42
0.000000001
 43
0.00000001
 40
0.0
 40
0.0
 40
0.0
 40
0.0
 40
0.2164543009645044
 40
0.440308993722536
 40
0.7518987489759464
 40
1.0
 40
1.0
 40
1.0
 40
1.0
 10
190.9441258320113
 20
103.1685531218253
 30
0.0
 10
190.8169794463512
 20
103.3200014280887
 30
0.0
 10
190.5583396462824
 20
103.6280759317355
 30
0.0
 10
190.0783721497785
 20
104.1997812462801
 30
0.0
 10
189.5635184152119
 20
104.8130407240757
 30
0.0
 10
189.2340421378172
 20
105.2054909215889
 30
0.0
 10
189.0879910566179
 20
105.3794572420686
 30
0.0
  0
SPLINE
  5
93
330
1F
100
AcDbEntity
  8
0
  6
Continuous
 62
     7
370
    15
100
AcDbSpline
210
0.0
220
0.0
230
1.0
 70
    24
 71
     3
 72
    11
 73
     7
 74
     0
 42
0.000000001
 43
0.00000001
 40
0.0
 40
0.0
 40
0.0
 40
0.0
 40
0.1849308168246288
 40
0.5198464202157708
 40
0.8714438233692658
 40
1.0
 40
1.0
 40
1.0
 40
1.0
 10
193.7868923531703
 20
103.6705609300421
 30
0.0
 10
193.6214294515296
 20
103.6413416227315
 30
0.0
 10
193.1563079613778
 20
103.5592052186028
 30
0.0
 10
192.2880698777275
 20
103.405881935055
 30
0.0
 10
191.4862164835686
 20
103.264281609486
 30
0.0
 10
191.0586124174767
 20
103.1887704556837
 30
0.0
 10
190.9441258320113
 20
103.1685531218253
 30
0.0
  0
SPLINE
  5
94
330
1F
100
AcDbEntity
  8
0
  6
Continuous
 62
     7
370
    15
100
AcDbSpline
210
0.0
220
0.0
230
1.0
 70
    24
 71
     3
 72
    11
 73
     7
 74
     0
 42
0.000000001
 43
0.00000001
 40
0.0
 40
0.0
 40
0.0
 40
0.0
 40
0.2164543009645063
 40
0.4403089937225407
 40
0.7518987489759515
 40
1.0
 40
1.0
 40
1.0
 40
1.0
 10
194.773524098936
 20
106.3834728585021
 30
0.0
 10
194.7059392111818
 20
106.1976367053893
 30
0.0
 10
194.5684587647998
 20
105.8196108162768
 30
0.0
 10
194.3133311871775
 20
105.1180941140412
 30
0.0
 10
194.0396597675783
 20
104.3655879617754
 30
0.0
 10
193.864526065509
 20
103.8840280368507
 30
0.0
 10
193.7868923531704
 20
103.6705609300421
 30
0.0
  0
SPLINE
  5
95
330
1F
100
AcDbEntity
  8
0
  6
Continuous
 62
     7
370
    15
100
AcDbSpline
210
0.0
220
0.0
230
1.0
 70
    24
 71
     3
 72
    11
 73
     7
 74
     0
 42
0.000000001
 43
0.00000001
 40
0.0
 40
0.0
 40
0.0
 40
0.0
 40
0.2164543009645054
 40
0.4403089937225396
 40
0.7518987489759479
 40
1.0
 40
1.0
 40
1.0
 40
1.0
 10
192.9173893235426
 20
108.5943769787454
 30
0.0
 10
193.0445357092027
 20
108.4429286724819
 30
0.0
 10
193.3031755092714
 20
108.1348541688352
 30
0.0
 10
193.7831430057754
 20
107.5631488542906
 30
0.0
 10
194.297996740342
 20
106.949889376495
 30
0.0
 10
194.6274730177366
 20
106.5574391789818
 30
0.0
 10
194.773524098936
 20
106.3834728585021
 30
0.0
  0
CIRCLE
  5
96
330
1F
100
AcDbEntity
  8
0
  6
Continuous
 62
     7
370
    15
100
AcDbCircle
 10
191.9307575778
 20
105.8814650503
 30
0.0
 40
3.000000000000007
  0
CIRCLE
  5
97
330
1F
100
AcDbEntity
  8
0
  6
Continuous
 62
     7
370
    15
100
AcDbCircle
 10
191.9307575778
 20
105.8814650503
 30
0.0
 40
4.500000000000012
  0
CIRCLE
  5
98
330
1F
100
AcDbEntity
  8
0
  6
Continuous
 62
     7
370
    15
100
AcDbCircle
 10
191.9307575778
 20
105.8814650503
 30
0.0
 40
5.000000000000014
  0
ARC
  5
99
330
1F
100
AcDbEntity
  8
0
  6
Continuous
 62
     7
370
    15
100
AcDbCircle
 10
191.9307575778
 20
105.8814650503
 30
0.0
 40
2.499999999999996
100
AcDbArc
 50
160.0146865221
 51
220.0146865221
  0
ARC
  5
9A
330
1F
100
AcDbEntity
  8
0
  6
Continuous
 62
     7
370
    15
100
AcDbCircle
 10
191.9307575778
 20
105.8814650503
 30
0.0
 40
2.50000000000001
100
AcDbArc
 50
40.0146865221
 51
100.0146865221
  0
ARC
  5
9B
330
1F
100
AcDbEntity
  8
0
  6
Continuous
 62
     7
370
    15
100
AcDbCircle
 10
191.9307575778
 20
105.8814650503
 30
0.0
 40
2.499999999999996
100
AcDbArc
 50
280.0146865221
 51
340.0146865221
  0
ARC
  5
9C
330
1F
100
AcDbEntity
  8
0
  6
Continuous
 62
     7
370
    15
100
AcDbCircle
 10
191.9307575778
 20
105.8814650503
 30
0.0
 40
2.5
100
AcDbArc
 50
340.0146865221
 51
40.0146865221
  0
ARC
  5
9D
330
1F
100
AcDbEntity
  8
0
  6
Continuous
 62
     7
370
    15
100
AcDbCircle
 10
191.9307575778
 20
105.8814650503
 30
0.0
 40
2.50000000000001
100
AcDbArc
 50
100.0146865221
 51
160.0146865221
  0
ARC
  5
9E
330
1F
100
AcDbEntity
  8
0
  6
Continuous
 62
     7
370
    15
100
AcDbCircle
 10
191.9307575778
 20
105.8814650503
 30
0.0
 40
2.499999999999996
100
AcDbArc
 50
220.0146865221
 51
280.0146865221
  0
SPLINE
  5
9F
330
1F
100
AcDbEntity
  8
0
  6
Continuous
 62
     7
370
    15
100
AcDbSpline
210
0.0
220
0.0
230
1.0
 70
     8
 71
     3
 72
    10
 73
     6
 74
     0
 42
0.000000001
 43
0.00000001
 40
0.0
 40
0.0
 40
0.0
 40
0.0
 40
0.5
 40
0.5
 40
1.0
 40
1.0
 40
1.0
 40
1.0
 10
170.9573659818225
 20
135.7859257716395
 30
0.0
 10
170.641262150683
 20
135.1660632133622
 30
0.0
 10
170.3114831063382
 20
134.5201624780634
 30
0.0
 10
169.6392598339494
 20
133.2057438377629
 30
0.0
 10
169.2971266680188
 20
132.5378216107506
 30
0.0
 10
168.9499463395047
 20
131.8614838782692
 30
0.0
  0
SPLINE
  5
A0
330
1F
100
AcDbEntity
  8
0
  6
Continuous
 62
     7
370
    15
100
AcDbSpline
210
0.0
220
0.0
230
1.0
 70
     8
 71
     3
 72
     9
 73
     5
 74
     0
 42
0.000000001
 43
0.00000001
 40
0.0
 40
0.0
 40
0.0
 40
0.0
 40
0.5067595796178751
 40
1.0
 40
1.0
 40
1.0
 40
1.0
 10
171.6063881207615
 20
136.7436001576343
 30
0.0
 10
171.4959877729795
 20
136.5815252192999
 30
0.0
 10
171.2781323002418
 20
136.2616991225608
 30
0.0
 10
171.0635391980333
 20
135.9433511429236
 30
0.0
 10
170.9576932060888
 20
135.7863290516196
 30
0.0
  0
LINE
  5
A1
330
1F
100
AcDbEntity
  8
0
  6
Continuous
 62
     7
370
    15
100
AcDbLine
 10
171.6057575778
 20
75.0203670307
 30
0.0
 11
171.6057575778
 21
136.7425468048
 31
0.0
  0
SPLINE
  5
A2
330
1F
100
AcDbEntity
  8
0
  6
Continuous
 62
     7
370
    15
100
AcDbSpline
210
0.0
220
0.0
230
1.0
 70
     8
 71
     3
 72
     9
 73
     5
 74
     0
 42
0.000000001
 43
0.00000001
 40
0.0
 40
0.0
 40
0.0
 40
0.0
 40
0.4932426502230348
 40
1.0
 40
1.0
 40
1.0
 40
1.0
 10
170.957679291066
 20
75.97659894858053
 30
0.0
 10
171.0635253960772
 20
75.81957570892037
 30
0.0
 10
171.2781177573893
 20
75.50122684028712
 30
0.0
 10
171.4959720453494
 20
75.18140079358359
 30
0.0
 10
171.6063713069536
 20
75.01932659376648
 30
0.0
  0
SPLINE
  5
A3
330
1F
100
AcDbEntity
  8
0
  6
Continuous
 62
     7
370
    15
100
AcDbSpline
210
0.0
220
0.0
230
1.0
 70
     8
 71
     3
 72
    10
 73
     6
 74
     0
 42
0.000000001
 43
0.00000001
 40
0.0
 40
0.0
 40
0.0
 40
0.0
 40
0.5
 40
0.5
 40
1.0
 40
1.0
 40
1.0
 40
1.0
 10
170.9573600621546
 20
75.97701593708027
 30
0.0
 10
170.6411809594806
 20
76.597026089094
 30
0.0
 10
170.3107387323135
 20
77.2442241549617
 30
0.0
 10
169.6390272116308
 20
78.55764007955545
 30
0.0
 10
169.2970533365989
 20
79.22525134585825
 30
0.0
 10
168.9499463395047
 20
79.90144622230143
 30
0.0
  0
SPLINE
  5
A4
330
1F
100
AcDbEntity
  8
0
  6
Continuous
 62
     7
370
    15
100
AcDbSpline
210
0.0
220
0.0
230
1.0
 70
     8
 71
     3
 72
    11
 73
     7
 74
     0
 42
0.000000001
 43
0.00000001
 40
0.0
 40
0.0
 40
0.0
 40
0.0
 40
0.2488814606695658
 40
0.5011921284368381
 40
0.7520447562540515
 40
1.0
 40
1.0
 40
1.0
 40
1.0
 10
173.9802574077599
 20
137.3813153048789
 30
0.0
 10
173.9504790782605
 20
137.3721832787345
 30
0.0
 10
173.8905121192794
 20
137.3537934010477
 30
0.0
 10
173.3985900575325
 20
137.2097561525627
 30
0.0
 10
172.6705206349132
 20
137.0003530744514
 30
0.0
 10
171.9597771637356
 20
136.8281488051025
 30
0.0
 10
171.6064696465859
 20
136.7425468047839
 30
0.0
  0
SPLINE
  5
A5
330
1F
100
AcDbEntity
  8
0
  6
Continuous
 62
     7
370
    15
100
AcDbSpline
210
0.0
220
0.0
230
1.0
 70
     8
 71
     3
 72
    24
 73
    20
 74
     0
 42
0.000000001
 43
0.00000001
 40
0.0
 40
0.0
 40
0.0
 40
0.0
 40
0.0452304145230468
 40
0.0903354254807773
 40
0.1353632524017138
 40
0.1803623629163211
 40
0.2253813173811786
 40
0.2704686120121845
 40
0.3156725230495646
 40
0.3610409544388638
 40
0.4066212913821985
 40
0.4524602619010737
 40
0.4986038082699224
 40
0.5832834063274132
 40
0.6671222514847349
 40
0.7504134308293638
 40
0.8334558303783486
 40
0.9165510206949746
 40
0.9999999999999999
 40
0.9999999999999999
 40
0.9999999999999999
 40
0.9999999999999999
 10
171.6063762711946
 20
75.02036703074982
 30
0.0
 10
171.6740800130973
 20
75.00460798973232
 30
0.0
 10
171.8092997849238
 20
74.97313360041937
 30
0.0
 10
172.0019615017618
 20
74.92667279708061
 30
0.0
 10
172.1866983734105
 20
74.88104181744856
 30
0.0
 10
172.3628163147016
 20
74.83641652001546
 30
0.0
 10
172.5305001073141
 20
74.79292923341605
 30
0.0
 10
172.6896995916033
 20
74.7507281856196
 30
0.0
 10
172.8404277300956
 20
74.70996159330106
 30
0.0
 10
172.9826806834978
 20
74.67078184071633
 30
0.0
 10
173.116459438724
 20
74.63334454882494
 30
0.0
 10
173.2417633491257
 20
74.59780796518558
 30
0.0
 10
173.3908118989064
 20
74.55510594971086
 30
0.0
 10
173.5515774762738
 20
74.50859725867937
 30
0.0
 10
173.7075035610738
 20
74.46293736848416
 30
0.0
 10
173.8291285790004
 20
74.42690709977414
 30
0.0
 10
173.9156043082216
 20
74.40102557482497
 30
0.0
 10
173.9700232155687
 20
74.38458949829929
 30
0.0
 10
173.9771717571505
 20
74.38250813971116
 30
0.0
 10
173.9807536207478
 20
74.38146524970702
 30
0.0
  0
LINE
  5
A6
330
1F
100
AcDbEntity
  8
0
  6
Continuous
 62
     7
370
    15
100
AcDbLine
 10
151.9807575778
 20
76.7550595048
 30
0.0
 11
151.9807575778
 21
135.0078705958
 31
0.0
  0
SPLINE
  5
A7
330
1F
100
AcDbEntity
  8
0
  6
Continuous
 62
     7
370
    15
100
AcDbSpline
210
0.0
220
0.0
230
1.0
 70
     8
 71
     3
 72
    12
 73
     8
 74
     0
 42
0.000000001
 43
0.00000001
 40
0.0
 40
0.0
 40
0.0
 40
0.0
 40
0.2500000000000001
 40
0.2500000000000001
 40
0.5000000000000002
 40
0.5000000000000002
 40
1.0
 40
1.0
 40
1.0
 40
1.0
 10
152.3677904007425
 20
135.9484549501063
 30
0.0
 10
152.3159296495544
 20
135.8916423777919
 30
0.0
 10
152.2671978525355
 20
135.82965019154
 30
0.0
 10
152.177024842618
 20
135.6935971184161
 30
0.0
 10
152.1352475943331
 20
135.6186910158173
 30
0.0
 10
152.0291587244872
 20
135.3805643805199
 30
0.0
 10
151.980757577777
 20
135.1971576489512
 30
0.0
 10
151.980757577777
 20
135.0078705957693
 30
0.0
  0
SPLINE
  5
A8
330
1F
100
AcDbEntity
  8
0
  6
Continuous
 62
     7
370
    15
100
AcDbSpline
210
0.0
220
0.0
230
1.0
 70
     8
 71
     3
 72
     8
 73
     4
 74
     0
 42
0.000000001
 43
0.00000001
 40
0.0
 40
0.0
 40
0.0
 40
0.0
 40
1.0
 40
1.0
 40
1.0
 40
1.0
 10
152.980757577777
 20
136.1178551532871
 30
0.0
 10
152.7544132641771
 20
136.1178551532871
 30
0.0
 10
152.536961143772
 20
136.0544866842663
 30
0.0
 10
152.3677904007425
 20
135.9484549501063
 30
0.0
  0
SPLINE
  5
A9
330
1F
100
AcDbEntity
  8
0
  6
Continuous
 62
     7
370
    15
100
AcDbSpline
210
0.0
220
0.0
230
1.0
 70
     8
 71
     3
 72
     8
 73
     4
 74
     0
 42
0.000000001
 43
0.00000001
 40
0.0
 40
0.0
 40
0.0
 40
0.0
 40
1.0
 40
1.0
 40
1.0
 40
1.0
 10
152.3677904007425
 20
75.81447515046433
 30
0.0
 10
152.5373839063945
 20
75.70817843990714
 30
0.0
 10
152.7537525987277
 20
75.64507494728345
 30
0.0
 10
152.980757577777
 20
75.64507494728345
 30
0.0
  0
SPLINE
  5
AA
330
1F
100
AcDbEntity
  8
0
  6
Continuous
 62
     7
370
    15
100
AcDbSpline
210
0.0
220
0.0
230
1.0
 70
     8
 71
     3
 72
    12
 73
     8
 74
     0
 42
0.000000001
 43
0.00000001
 40
0.0
 40
0.0
 40
0.0
 40
0.0
 40
0.2499999999999976
 40
0.2499999999999976
 40
0.4999999999999952
 40
0.4999999999999952
 40
1.0
 40
1.0
 40
1.0
 40
1.0
 10
152.3677904007425
 20
75.81447515046433
 30
0.0
 10
152.3159296495544
 20
75.8712877227787
 30
0.0
 10
152.2671978525355
 20
75.93327990903053
 30
0.0
 10
152.177024842618
 20
76.06933298215453
 30
0.0
 10
152.1352475943331
 20
76.14423908475327
 30
0.0
 10
152.0291587244872
 20
76.38236572005067
 30
0.0
 10
151.980757577777
 20
76.56577245161944
 30
0.0
 10
151.980757577777
 20
76.75505950480131
 30
0.0
  0
LINE
  5
AB
330
1F
100
AcDbEntity
  8
0
  6
Continuous
 62
     7
370
    15
100
AcDbLine
 10
176.9807575778
 20
75.3814650503
 30
0.0
 11
176.9807575778
 21
136.3814650486
 31
0.0
  0
LINE
  5
AC
330
1F
100
AcDbEntity
  8
0
  6
Continuous
 62
     7
370
    15
100
AcDbLine
 10
161.5557575778
 20
136.1178551533
 30
0.0
 11
152.9807575778
 21
136.1178551533
 31
0.0
  0
LINE
  5
AD
330
1F
100
AcDbEntity
  8
0
  6
Continuous
 62
     7
370
    15
100
AcDbLine
 10
161.5557575778
 20
75.6450749473
 30
0.0
 11
161.5557575778
 21
136.1178551533
 31
0.0
  0
LINE
  5
AE
330
1F
100
AcDbEntity
  8
0
  6
Continuous
 62
     7
370
    15
100
AcDbLine
 10
152.9807575778
 20
75.6450749473
 30
0.0
 11
161.5557575778
 21
75.6450749473
 31
0.0
  0
SPLINE
  5
AF
330
1F
100
AcDbEntity
  8
0
  6
Continuous
 62
     7
370
    15
100
AcDbSpline
210
0.0
220
0.0
230
1.0
 70
     8
 71
     3
 72
     8
 73
     4
 74
     0
 42
0.000000001
 43
0.00000001
 40
0.0
 40
0.0
 40
0.0
 40
0.0
 40
0.0012389803509652
 40
0.0012389803509652
 40
0.0012389803509652
 40
0.0012389803509652
 10
162.1133191213107
 20
135.3354877730717
 30
0.0
 10
161.9281991481779
 20
135.5965377544508
 30
0.0
 10
161.7423207004189
 20
135.8573193675698
 30
0.0
 10
161.555757577777
 20
136.1178551532871
 30
0.0
  0
SPLINE
  5
B0
330
1F
100
AcDbEntity
  8
0
  6
Continuous
 62
     7
370
    15
100
AcDbSpline
210
0.0
220
0.0
230
1.0
 70
     8
 71
     3
 72
     8
 73
     4
 74
     0
 42
0.000000001
 43
0.00000001
 40
0.0
 40
0.0
 40
0.0
 40
0.0
 40
1.0
 40
1.0
 40
1.0
 40
1.0
 10
164.2115688160493
 20
131.5487107147503
 30
0.0
 10
163.5152754500077
 20
132.8126490828651
 30
0.0
 10
162.8154802848166
 20
134.0747045283734
 30
0.0
 10
162.1133191213107
 20
135.3354877730717
 30
0.0
  0
SPLINE
  5
B1
330
1F
100
AcDbEntity
  8
0
  6
Continuous
 62
     7
370
    15
100
AcDbSpline
210
0.0
220
0.0
230
1.0
 70
     8
 71
     3
 72
     8
 73
     4
 74
     0
 42
0.000000001
 43
0.00000001
 40
0.0
 40
0.0
 40
0.0
 40
0.0
 40
1.0
 40
1.0
 40
1.0
 40
1.0
 10
164.2115688160492
 20
80.21421938582024
 30
0.0
 10
163.5152506753913
 20
78.95023604587345
 30
0.0
 10
162.8154534832808
 20
77.68817744802148
 30
0.0
 10
162.1133191213107
 20
76.4274423274988
 30
0.0
  0
SPLINE
  5
B2
330
1F
100
AcDbEntity
  8
0
  6
Continuous
 62
     7
370
    15
100
AcDbSpline
210
0.0
220
0.0
230
1.0
 70
     8
 71
     3
 72
     8
 73
     4
 74
     0
 42
0.000000001
 43
0.00000001
 40
0.0
 40
0.0
 40
0.0
 40
0.0
 40
0.0012389803509652
 40
0.0012389803509652
 40
0.0012389803509652
 40
0.0012389803509652
 10
161.555757577777
 20
75.64507494728345
 30
0.0
 10
161.7423207004189
 20
75.9056107330008
 30
0.0
 10
161.9281991481779
 20
76.16639234611979
 30
0.0
 10
162.1133191213107
 20
76.4274423274988
 30
0.0
  0
SPLINE
  5
B3
330
1F
100
AcDbEntity
  8
0
  6
Continuous
 62
     7
370
    15
100
AcDbSpline
210
0.0
220
0.0
230
1.0
 70
     8
 71
     3
 72
    12
 73
     8
 74
     0
 42
0.000000001
 43
0.00000001
 40
0.0
 40
0.0
 40
0.0
 40
0.0
 40
0.2499999999999968
 40
0.2499999999999968
 40
0.4999999999999936
 40
0.4999999999999936
 40
1.0
 40
1.0
 40
1.0
 40
1.0
 10
168.9499463395047
 20
131.8614838782692
 30
0.0
 10
168.9140421891681
 20
131.791539444121
 30
0.0
 10
168.8715106370387
 20
131.7282880810632
 30
0.0
 10
168.7747163601987
 20
131.6132294261473
 30
0.0
 10
168.7196266819343
 20
131.5609008924353
 30
0.0
 10
168.5414934483804
 20
131.4271159893502
 30
0.0
 10
168.4041163563778
 20
131.366568222192
 30
0.0
 10
168.2571260164779
 20
131.3473682738081
 30
0.0
  0
SPLINE
  5
B4
330
1F
100
AcDbEntity
  8
0
  6
Continuous
 62
     7
370
    15
100
AcDbSpline
210
0.0
220
0.0
230
1.0
 70
     8
 71
     3
 72
    12
 73
     8
 74
     0
 42
0.000000001
 43
0.00000001
 40
0.0
 40
0.0
 40
0.0
 40
0.0
 40
0.2500000000000022
 40
0.2500000000000022
 40
0.5000000000000044
 40
0.5000000000000044
 40
1.0
 40
1.0
 40
1.0
 40
1.0
 10
168.9499463395047
 20
79.90144622230142
 30
0.0
 10
168.9140421891682
 20
79.97139065644957
 30
0.0
 10
168.8715106370387
 20
80.03464201950742
 30
0.0
 10
168.7747163601987
 20
80.14970067442334
 30
0.0
 10
168.7196266819343
 20
80.20202920813533
 30
0.0
 10
168.5414934483804
 20
80.3358141112204
 30
0.0
 10
168.4041163563778
 20
80.39636187837857
 30
0.0
 10
168.2571260164779
 20
80.41556182676244
 30
0.0
  0
SPLINE
  5
B5
330
1F
100
AcDbEntity
  8
0
  6
Continuous
 62
     7
370
    15
100
AcDbSpline
210
0.0
220
0.0
230
1.0
 70
     8
 71
     3
 72
    10
 73
     6
 74
     0
 42
0.000000001
 43
0.00000001
 40
0.0
 40
0.0
 40
0.0
 40
0.0
 40
0.5
 40
0.5
 40
1.0
 40
1.0
 40
1.0
 40
1.0
 10
164.9043891390768
 20
131.1291877198648
 30
0.0
 10
164.7623718266298
 20
131.1291877198648
 30
0.0
 10
164.6219247797675
 20
131.1696775720743
 30
0.0
 10
164.3803348605063
 20
131.3176134020134
 30
0.0
 10
164.279657418253
 20
131.425113677993
 30
0.0
 10
164.2115688160494
 20
131.5487107147501
 30
0.0
  0
SPLINE
  5
B6
330
1F
100
AcDbEntity
  8
0
  6
Continuous
 62
     7
370
    15
100
AcDbSpline
210
0.0
220
0.0
230
1.0
 70
     8
 71
     3
 72
    10
 73
     6
 74
     0
 42
0.000000001
 43
0.00000001
 40
0.0
 40
0.0
 40
0.0
 40
0.0
 40
0.5
 40
0.5
 40
1.0
 40
1.0
 40
1.0
 40
1.0
 10
164.9043891390768
 20
80.63374238070577
 30
0.0
 10
164.7635317745661
 20
80.63374238070577
 30
0.0
 10
164.620697643092
 20
80.59263847488707
 30
0.0
 10
164.3804359523186
 20
80.44524058158612
 30
0.0
 10
164.2797296832391
 20
80.33794760074647
 30
0.0
 10
164.2115688160492
 20
80.21421938582026
 30
0.0
  0
LINE
  5
B7
330
1F
100
AcDbEntity
  8
0
  6
Continuous
 62
     7
370
    15
100
AcDbLine
 10
164.9307575778
 20
80.6337423807
 30
0.0
 11
164.9043891391
 21
80.6337423807
 31
0.0
  0
LINE
  5
B8
330
1F
100
AcDbEntity
  8
0
  6
Continuous
 62
     7
370
    15
100
AcDbLine
 10
164.9307575778
 20
131.1291877199
 30
0.0
 11
164.9043891391
 21
131.1291877199
 31
0.0
  0
SPLINE
  5
B9
330
1F
100
AcDbEntity
  8
0
  6
Continuous
 62
     7
370
    15
100
AcDbSpline
210
0.0
220
0.0
230
1.0
 70
     8
 71
     3
 72
    10
 73
     6
 74
     0
 42
0.000000001
 43
0.00000001
 40
0.0
 40
0.0
 40
0.0
 40
0.0
 40
0.5
 40
0.5
 40
1.0
 40
1.0
 40
1.0
 40
1.0
 10
168.2571260164772
 20
131.3473682738111
 30
0.0
 10
167.7352112920812
 20
131.2791955233029
 30
0.0
 10
167.1963601119719
 20
131.2245722583449
 30
0.0
 10
166.0849974699397
 20
131.1494764054536
 30
0.0
 10
165.5081566927437
 20
131.1291877198648
 30
0.0
 10
164.930757577777
 20
131.1291877198648
 30
0.0
  0
SPLINE
  5
BA
330
1F
100
AcDbEntity
  8
0
  6
Continuous
 62
     7
370
    15
100
AcDbSpline
210
0.0
220
0.0
230
1.0
 70
     8
 71
     3
 72
    10
 73
     6
 74
     0
 42
0.000000001
 43
0.00000001
 40
0.0
 40
0.0
 40
0.0
 40
0.0
 40
0.5
 40
0.5
 40
1.0
 40
1.0
 40
1.0
 40
1.0
 10
168.2571260164772
 20
80.41556182675951
 30
0.0
 10
167.7352112920812
 20
80.48373457726774
 30
0.0
 10
167.1963601119719
 20
80.53835784222565
 30
0.0
 10
166.0849974699397
 20
80.613453695117
 30
0.0
 10
165.5081566927437
 20
80.63374238070578
 30
0.0
 10
164.930757577777
 20
80.63374238070578
 30
0.0
  0
LINE
  5
BB
330
1F
100
AcDbEntity
  8
0
  6
Continuous
 62
     7
370
    15
100
AcDbLine
 10
204.9807575778
 20
105.8814650503
 30
0.0
 11
204.9807575778
 21
81.3814650503
 31
0.0
  0
LINE
  5
BC
330
1F
100
AcDbEntity
  8
0
  6
Continuous
 62
     7
370
    15
100
AcDbLine
 10
204.9807575778
 20
130.3814650503
 30
0.0
 11
204.9807575778
 21
105.8814650503
 31
0.0
  0
LINE
  5
BD
330
1F
100
AcDbEntity
  8
0
  6
Continuous
 62
     7
370
    15
100
AcDbLine
 10
204.4807575778
 20
105.8814650503
 30
0.0
 11
204.4807575778
 21
80.8814650503
 31
0.0
  0
LINE
  5
BE
330
1F
100
AcDbEntity
  8
0
  6
Continuous
 62
     7
370
    15
100
AcDbLine
 10
204.4807575778
 20
130.8814650503
 30
0.0
 11
204.4807575778
 21
105.8814650503
 31
0.0
  0
SPLINE
  5
BF
330
1F
100
AcDbEntity
  8
0
  6
Continuous
 62
     7
370
    15
100
AcDbSpline
210
0.0
220
0.0
230
1.0
 70
    11
 71
     3
 72
    77
 73
    73
 74
     0
 42
0.000000001
 43
0.00000001
 40
0.0
 40
0.0
 40
0.0
 40
0.0
 40
0.0312499999999999
 40
0.0312499999999999
 40
0.0624999999999997
 40
0.0624999999999997
 40
0.0937499999999996
 40
0.0937499999999996
 40
0.1249999999999995
 40
0.1249999999999995
 40
0.1562499999999993
 40
0.1562499999999993
 40
0.1874999999999992
 40
0.1874999999999992
 40
0.2187499999999991
 40
0.2187499999999991
 40
0.2499999999999989
 40
0.2499999999999989
 40
0.2812499999999988
 40
0.2812499999999988
 40
0.3124999999999987
 40
0.3124999999999987
 40
0.3437499999999986
 40
0.3437499999999986
 40
0.3593749999999986
 40
0.3593749999999986
 40
0.3749999999999985
 40
0.3906249999999985
 40
0.3906249999999985
 40
0.4062499999999985
 40
0.4062499999999985
 40
0.4374999999999987
 40
0.4374999999999987
 40
0.4687499999999988
 40
0.4687499999999988
 40
0.499999999999999
 40
0.499999999999999
 40
0.5312499999999992
 40
0.5312499999999992
 40
0.5624999999999994
 40
0.5624999999999994
 40
0.5937499999999996
 40
0.5937499999999996
 40
0.6249999999999998
 40
0.6249999999999998
 40
0.65625
 40
0.65625
 40
0.6875000000000002
 40
0.6875000000000002
 40
0.7187500000000004
 40
0.7187500000000004
 40
0.7500000000000006
 40
0.7500000000000006
 40
0.7656250000000008
 40
0.7656250000000008
 40
0.7812500000000009
 40
0.7812500000000009
 40
0.8125000000000008
 40
0.8125000000000008
 40
0.8437500000000007
 40
0.8437500000000007
 40
0.8750000000000006
 40
0.8750000000000006
 40
0.8906250000000004
 40
0.8906250000000004
 40
0.9062500000000004
 40
0.9062500000000004
 40
0.9375000000000002
 40
0.9375000000000002
 40
0.9687500000000001
 40
0.9687500000000001
 40
1.0
 40
1.0
 40
1.0
 40
1.0
 10
187.894352227991
 20
109.8760011330692
 30
0.0
 10
188.1846052652865
 20
110.1144315667361
 30
0.0
 10
188.4929006319079
 20
110.321477442463
 30
0.0
 10
189.142699162787
 20
110.6785147110816
 30
0.0
 10
189.486777691727
 20
110.8292695157848
 30
0.0
 10
190.1974968196005
 20
111.0686141992665
 30
0.0
 10
190.5593754575996
 20
111.1561286629528
 30
0.0
 10
191.295715625323
 20
111.2695056753795
 30
0.0
 10
191.6738387854184
 20
111.295129560693
 30
0.0
 10
192.4225828175021
 20
111.281815180158
 30
0.0
 10
192.7926618807597
 20
111.2436646259217
 30
0.0
 10
193.5243204775043
 20
111.1048212344582
 30
0.0
 10
193.8893774814279
 20
111.0025579514728
 30
0.0
 10
194.5869688375312
 20
110.7390699924913
 30
0.0
 10
194.9207343567075
 20
110.5783782923156
 30
0.0
 10
195.5576531693064
 20
110.1973923078426
 30
0.0
 10
195.8635094580665
 20
109.9741916264286
 30
0.0
 10
196.4181913922199
 20
109.4808869644793
 30
0.0
 10
196.6694651367943
 20
109.2101916649988
 30
0.0
 10
197.116724628054
 20
108.6172036015716
 30
0.0
 10
197.3131899075014
 20
108.2917560306506
 30
0.0
 10
197.6252747319355
 20
107.6180483911017
 30
0.0
 10
197.7441766729155
 20
107.2664907950142
 30
0.0
 10
197.8621778879219
 20
106.7151202181633
 30
0.0
 10
197.8911153158525
 20
106.5274939936694
 30
0.0
 10
197.9266413614783
 20
106.1549202824515
 30
0.0
 10
197.9404780602827
 20
105.7823297973515
 30
0.0
 10
197.9113696575268
 20
105.4097060881879
 30
0.0
 10
197.8603180012155
 20
105.0370654151018
 30
0.0
 10
197.8236355597521
 20
104.8508028960402
 30
0.0
 10
197.683870566696
 20
104.3067259360017
 30
0.0
 10
197.5508598718825
 20
103.9583707060761
 30
0.0
 10
197.2079111661231
 20
103.2892149719945
 30
0.0
 10
197.0014662633283
 20
102.9761436858504
 30
0.0
 10
196.5313008678676
 20
102.3991437781842
 30
0.0
 10
196.2636305770682
 20
102.131445044809
 30
0.0
 10
195.6888190907848
 20
101.6573311161175
 30
0.0
 10
195.3809595228971
 20
101.4490000250836
 30
0.0
 10
194.7255628008459
 20
101.0873801091716
 30
0.0
 10
194.3801922283689
 20
100.936035237826
 30
0.0
 10
193.6750237405013
 20
100.6974968448491
 30
0.0
 10
193.3124695672891
 20
100.6087319562775
 30
0.0
 10
192.5669390935675
 20
100.4932650875578
 30
0.0
 10
192.1935328172351
 20
100.468141041858
 30
0.0
 10
191.4486788107675
 20
100.4805061806279
 30
0.0
 10
191.0754065871862
 20
100.5181582144444
 30
0.0
 10
190.3351990421039
 20
100.6583520744998
 30
0.0
 10
189.9765467029032
 20
100.7590908442004
 30
0.0
 10
189.2815905822841
 20
101.0208216564122
 30
0.0
 10
188.9431377043553
 20
101.1830808375042
 30
0.0
 10
188.3000326418834
 20
101.5678896729636
 30
0.0
 10
188.0007974057142
 20
101.786650034279
 30
0.0
 10
187.5857391748078
 20
102.15519289409
 30
0.0
 10
187.4530583843237
 20
102.2848214913535
 30
0.0
 10
187.1996334152008
 20
102.5584367705934
 30
0.0
 10
187.0782684359833
 20
102.7033531861067
 30
0.0
 10
186.7410447506632
 20
103.1511805849256
 30
0.0
 10
186.54980214512
 20
103.4684772232901
 30
0.0
 10
186.2371512892788
 20
104.1424277559724
 30
0.0
 10
186.1151974511801
 20
104.5043519713977
 30
0.0
 10
185.9597253689967
 20
105.2350239922497
 30
0.0
 10
185.9239318314709
 20
105.6059527063611
 30
0.0
 10
185.9357596038438
 20
106.1710973892516
 30
0.0
 10
185.9508888520036
 20
106.3605107480364
 30
0.0
 10
186.002276040797
 20
106.731811486732
 30
0.0
 10
186.0385280207054
 20
106.9150203872154
 30
0.0
 10
186.1781733486203
 20
107.4575172387801
 30
0.0
 10
186.3145739472183
 20
107.8133583172851
 30
0.0
 10
186.6564069002714
 20
108.4780083001885
 30
0.0
 10
186.8615364717518
 20
108.7893678252413
 30
0.0
 10
187.3376461711725
 20
109.3721368166513
 30
0.0
 10
187.6040991906954
 20
109.6375706994024
 30
0.0
 10
187.8943522279909
 20
109.8760011330692
 30
0.0
  0
SPLINE
  5
C0
330
1F
100
AcDbEntity
  8
0
  6
Continuous
 62
     7
370
    15
100
AcDbSpline
210
0.0
220
0.0
230
1.0
 70
    24
 71
     3
 72
    16
 73
    12
 74
     0
 42
0.000000001
 43
0.00000001
 40
0.0
 40
0.0
 40
0.0
 40
0.0
 40
0.5
 40
0.5
 40
0.75
 40
0.75
 40
0.875
 40
0.875
 40
0.9375
 40
0.9375
 40
1.0
 40
1.0
 40
1.0
 40
1.0
 10
151.980757577777
 20
128.3814650502853
 30
0.0
 10
151.980757577777
 20
128.3814650502853
 30
0.0
 10
151.899957551273
 20
128.3814650502853
 30
0.0
 10
151.7823856568108
 20
128.3814650502853
 30
0.0
 10
151.7434439286309
 20
128.3814650502853
 30
0.0
 10
151.700868715047
 20
128.3814650502853
 30
0.0
 10
151.6893344708226
 20
128.3814650502853
 30
0.0
 10
151.6775649315166
 20
128.3814650502853
 30
0.0
 10
151.6745576514044
 20
128.3814650502853
 30
0.0
 10
151.6705281177176
 20
128.3814650502853
 30
0.0
 10
151.6695063386387
 20
128.3814650502853
 30
0.0
 10
151.6695064434826
 20
128.3814650502853
 30
0.0
  0
SPLINE
  5
C1
330
1F
100
AcDbEntity
  8
0
  6
Continuous
 62
     7
370
    15
100
AcDbSpline
210
0.0
220
0.0
230
1.0
 70
    24
 71
     3
 72
     9
 73
     5
 74
     0
 42
0.000000001
 43
0.00000001
 40
0.0
 40
0.0
 40
0.0
 40
0.0
 40
0.7049586474875649
 40
1.0
 40
1.0
 40
1.0
 40
1.0
 10
151.6695073006447
 20
83.38146505028529
 30
0.0
 10
151.6883166395311
 20
83.3814650502853
 30
0.0
 10
151.7149981178751
 20
83.3814650502853
 30
0.0
 10
151.7945513753336
 20
83.38146505028529
 30
0.0
 10
151.818022876011
 20
83.38146505028529
 30
0.0
  0
LINE
  5
C2
330
1F
100
AcDbEntity
  8
0
  6
Continuous
 62
     7
370
    15
100
AcDbLine
 10
149.9807575778
 20
83.6564650503
 30
0.0
 11
149.9807575778
 21
128.1064650503
 31
0.0
  0
LINE
  5
C3
330
1F
100
AcDbEntity
  8
0
  6
Continuous
 62
     7
370
    15
100
AcDbLine
 10
84.5807575778
 20
94.0587094533
 30
0.0
 11
84.5807575778
 21
117.7042206356
 31
0.0
  0
CIRCLE
  5
C4
330
1F
100
AcDbEntity
  8
0
  6
HIDDEN
 62
     7
370
     0
100
AcDbCircle
 10
191.9307575778
 20
105.8814650503
 30
0.0
 40
3.680384757729351
  0
CIRCLE
  5
C5
330
1F
100
AcDbEntity
  8
0
  6
HIDDEN
 62
     7
370
     0
100
AcDbCircle
 10
191.9307575778
 20
105.8814650503
 30
0.0
 40
3.380384757729349
  0
SPLINE
  5
C6
330
1F
100
AcDbEntity
  8
0
  6
HIDDEN
 62
     7
370
     0
100
AcDbSpline
210
0.0
220
0.0
230
1.0
 70
     8
 71
     3
 72
    17
 73
    13
 74
     0
 42
0.000000001
 43
0.00000001
 40
0.0
 40
0.0
 40
0.0
 40
0.0
 40
0.0004909084072919
 40
0.0005116394852635
 40
0.2498351754845136
 40
0.5021944977214489
 40
0.5865777378672907
 40
0.6700037584518806
 40
0.7527614182929998
 40
0.8351466077306873
 40
0.9174592349446918
 40
1.0
 40
1.0
 40
1.0
 40
1.0
 10
173.9807536207478
 20
74.38146524970702
 30
0.0
 10
173.9807552921144
 20
74.38146515316329
 30
0.0
 10
173.9807570340629
 20
74.38146505254254
 30
0.0
 10
173.981376056174
 20
74.38146394130277
 30
0.0
 10
173.8772317602898
 20
74.41368055998807
 30
0.0
 10
173.5087469569432
 20
74.5220417279176
 30
0.0
 10
173.1421344023925
 20
74.62687240473106
 30
0.0
 10
172.8926028687549
 20
74.69656510971022
 30
0.0
 10
172.6148170757178
 20
74.7717068185686
 30
0.0
 10
172.3081573008167
 20
74.85137181216923
 30
0.0
 10
171.9749704677088
 20
74.9345209936042
 30
0.0
 10
171.7299730256213
 20
74.99183347583394
 30
0.0
 10
171.6073047806545
 20
75.02052937383971
 30
0.0
  0
SPLINE
  5
C7
330
1F
100
AcDbEntity
  8
0
  6
HIDDEN
 62
     7
370
     0
100
AcDbSpline
210
0.0
220
0.0
230
1.0
 70
     8
 71
     3
 72
    16
 73
    12
 74
     0
 42
0.000000001
 43
0.00000001
 40
0.0
 40
0.0
 40
0.0
 40
0.0
 40
0.2500000000000033
 40
0.2500000000000033
 40
0.5000000000000066
 40
0.5000000000000066
 40
0.6250000000000082
 40
0.6250000000000082
 40
0.7500000000000098
 40
0.7500000000000098
 40
1.0
 40
1.0
 40
1.0
 40
1.0
 10
204.980757577777
 20
118.9499415079849
 30
0.0
 10
204.980757577777
 20
118.860421116082
 30
0.0
 10
204.975530070901
 20
118.7691180079118
 30
0.0
 10
204.9462582351902
 20
118.5800956733997
 30
0.0
 10
204.922514711594
 20
118.4802504219636
 30
0.0
 10
204.8542056507562
 20
118.3400631369102
 30
0.0
 10
204.8253348090986
 20
118.2956259079753
 30
0.0
 10
204.7588837655042
 20
118.2257375796578
 30
0.0
 10
204.7210767489893
 20
118.2003374764566
 30
0.0
 10
204.6108545307841
 20
118.1555150949605
 30
0.0
 10
204.5428442816008
 20
118.1613575359253
 30
0.0
 10
204.48075757776
 20
118.1775625904694
 30
0.0
  0
SPLINE
  5
C8
330
1F
100
AcDbEntity
  8
0
  6
HIDDEN
 62
     7
370
     0
100
AcDbSpline
210
0.0
220
0.0
230
1.0
 70
     8
 71
     3
 72
     8
 73
     4
 74
     0
 42
0.000000001
 43
0.00000001
 40
0.0
 40
0.0
 40
0.0
 40
0.0
 40
1.0
 40
1.0
 40
1.0
 40
1.0
 10
204.48075757776
 20
118.1775625904694
 30
0.0
 10
204.3945141929527
 20
118.1189057463228
 30
0.0
 10
204.2911348845337
 20
118.0788329103533
 30
0.0
 10
204.180757577777
 20
118.0788329103533
 30
0.0
  0
SPLINE
  5
C9
330
1F
100
AcDbEntity
  8
0
  6
HIDDEN
 62
     7
370
     0
100
AcDbSpline
210
0.0
220
0.0
230
1.0
 70
     8
 71
     3
 72
     8
 73
     4
 74
     0
 42
0.000000001
 43
0.00000001
 40
0.0
 40
0.0
 40
0.0
 40
0.0
 40
1.0
 40
1.0
 40
1.0
 40
1.0
 10
204.4807575777932
 20
93.58536751007861
 30
0.0
 10
204.3945141929784
 20
93.64402435423773
 30
0.0
 10
204.2911348845479
 20
93.68409719021733
 30
0.0
 10
204.180757577777
 20
93.68409719021733
 30
0.0
  0
SPLINE
  5
CA
330
1F
100
AcDbEntity
  8
0
  6
HIDDEN
 62
     7
370
     0
100
AcDbSpline
210
0.0
220
0.0
230
1.0
 70
     8
 71
     3
 72
    16
 73
    12
 74
     0
 42
0.000000001
 43
0.00000001
 40
0.0
 40
0.0
 40
0.0
 40
0.0
 40
0.2499999999999962
 40
0.2499999999999962
 40
0.3749999999999943
 40
0.3749999999999943
 40
0.4999999999999926
 40
0.4999999999999926
 40
0.7499999999999962
 40
0.7499999999999962
 40
1.0
 40
1.0
 40
1.0
 40
1.0
 10
204.4807575777831
 20
93.58536751008165
 30
0.0
 10
204.5428307271675
 20
93.60156910447063
 30
0.0
 10
204.6108922845621
 20
93.6073969275825
 30
0.0
 10
204.7210389665339
 20
93.56261398135125
 30
0.0
 10
204.7584677334714
 20
93.5375174257726
 30
0.0
 10
204.8248781486049
 20
93.46790518207894
 30
0.0
 10
204.8538721647112
 20
93.42345908672088
 30
0.0
 10
204.9224708570338
 20
93.28296615186375
 30
0.0
 10
204.9460099278468
 20
93.18392714080795
 30
0.0
 10
204.9754104713654
 20
92.9950933540397
 30
0.0
 10
204.980757577777
 20
92.90258324824484
 30
0.0
 10
204.980757577777
 20
92.81298977233051
 30
0.0
  0
LINE
  5
CB
330
1F
100
AcDbEntity
  8
0
  6
HIDDEN
 62
     7
370
     0
100
AcDbLine
 10
174.4807575778
 20
105.8814650503
 30
0.0
 11
174.4807575778
 21
92.3814650503
 31
0.0
  0
LINE
  5
CC
330
1F
100
AcDbEntity
  8
0
  6
HIDDEN
 62
     7
370
     0
100
AcDbLine
 10
174.4807575778
 20
119.3814650503
 30
0.0
 11
174.4807575778
 21
105.8814650503
 31
0.0
  0
LINE
  5
CD
330
1F
100
AcDbEntity
  8
0
  6
HIDDEN
 62
     7
370
     0
100
AcDbLine
 10
179.3467829816
 20
105.8814650503
 30
0.0
 11
179.3467829816
 21
91.8814650503
 31
0.0
  0
LINE
  5
CE
330
1F
100
AcDbEntity
  8
0
  6
HIDDEN
 62
     7
370
     0
100
AcDbLine
 10
179.3467829816
 20
119.8814650503
 30
0.0
 11
179.3467829816
 21
105.8814650503
 31
0.0
  0
LINE
  5
CF
330
1F
100
AcDbEntity
  8
0
  6
HIDDEN
 62
     7
370
     0
100
AcDbLine
 10
191.3807575778
 20
118.0788329104
 30
0.0
 11
204.1807575778
 21
118.0788329104
 31
0.0
  0
LINE
  5
D0
330
1F
100
AcDbEntity
  8
0
  6
HIDDEN
 62
     7
370
     0
100
AcDbLine
 10
191.3807575778
 20
93.6840971902
 30
0.0
 11
204.1807575778
 21
93.6840971902
 31
0.0
  0
LINE
  5
D1
330
1F
100
AcDbEntity
  8
0
  6
HIDDEN
 62
     7
370
     0
100
AcDbLine
 10
151.9807575778
 20
128.3814650503
 30
0.0
 11
152.318015878
 21
128.3814650503
 31
0.0
  0
ELLIPSE
  5
D2
330
1F
100
AcDbEntity
  8
0
  6
HIDDEN
 62
     7
370
     0
100
AcDbEllipse
 10
152.318015878
 20
129.9814650503
 30
0.0
 11
0.0
 21
1.599999999999994
 31
0.0
210
0.0
220
0.0
230
1.0
 40
0.4142135624
 41
3.141592653589793
 42
4.712388980384695
  0
ELLIPSE
  5
D3
330
1F
100
AcDbEntity
  8
0
  6
HIDDEN
 62
     7
370
     0
100
AcDbEllipse
 10
152.318015878
 20
81.7814650503
 30
0.0
 11
0.0
 21
1.59999999999998
 31
0.0
210
0.0
220
0.0
230
1.0
 40
0.4142135624
 41
4.712388980384695
 42
6.283185307179586
  0
LINE
  5
D4
330
1F
100
AcDbEntity
  8
0
  6
HIDDEN
 62
     7
370
     0
100
AcDbLine
 10
152.318015878
 20
83.3814650503
 30
0.0
 11
151.9807575778
 21
83.3814650503
 31
0.0
  0
LINE
  5
D5
330
1F
100
AcDbEntity
  8
0
  6
HIDDEN
 62
     7
370
     0
100
AcDbLine
 10
152.9807575778
 20
76.4274423275
 30
0.0
 11
152.3677904007
 21
75.8144751505
 31
0.0
  0
LINE
  5
D6
330
1F
100
AcDbEntity
  8
0
  6
HIDDEN
 62
     7
370
     0
100
AcDbLine
 10
152.3677904007
 20
135.9484549501
 30
0.0
 11
152.9807575778
 21
135.3354877731
 31
0.0
  0
LINE
  5
D7
330
1F
100
AcDbEntity
  8
0
  6
HIDDEN
 62
     7
370
     0
100
AcDbLine
 10
91.5807575778
 20
97.3814650503
 30
0.0
 11
91.5807575778
 21
114.3814650503
 31
0.0
  0
LINE
  5
D8
330
1F
100
AcDbEntity
  8
0
  6
HIDDEN
 62
     7
370
     0
100
AcDbLine
 10
94.5766867921
 20
98.8814650503
 30
0.0
 11
94.5766867921
 21
112.8814650503
 31
0.0
  0
LINE
  5
D9
330
1F
100
AcDbEntity
  8
0
  6
HIDDEN
 62
     7
370
     0
100
AcDbLine
 10
204.4807575772
 20
88.0814650503
 30
0.0
 11
204.4807575778
 21
93.5853675101
 31
0.0
  0
SPLINE
  5
DA
330
1F
100
AcDbEntity
  8
0
  6
HIDDEN
 62
     7
370
     0
100
AcDbSpline
210
0.0
220
0.0
230
1.0
 70
     8
 71
     3
 72
    11
 73
     7
 74
     0
 42
0.000000001
 43
0.00000001
 40
0.0
 40
0.0
 40
0.0
 40
0.0
 40
0.2409194805711342
 40
0.5670597919578736
 40
0.8933052793311457
 40
1.0
 40
1.0
 40
1.0
 40
1.0
 10
204.423982909746
 20
86.0281243845391
 30
0.0
 10
204.4200744035429
 20
86.0402192522478
 30
0.0
 10
204.4108748290247
 20
86.06868732444514
 30
0.0
 10
204.4401820347731
 20
86.66256908430373
 30
0.0
 10
204.4767784782397
 20
87.42175610901896
 30
0.0
 10
204.4799708437228
 20
87.9510297180519
 30
0.0
 10
204.4807575771728
 20
88.08146505028527
 30
0.0
  0
LINE
  5
DB
330
1F
100
AcDbEntity
  8
0
  6
HIDDEN
 62
     7
370
     0
100
AcDbLine
 10
152.9807575778
 20
135.3354877731
 30
0.0
 11
162.1133191213
 21
135.3354877731
 31
0.0
  0
LINE
  5
DC
330
1F
100
AcDbEntity
  8
0
  6
HIDDEN
 62
     7
370
     0
100
AcDbLine
 10
152.9807575778
 20
135.3354877731
 30
0.0
 11
152.9807575778
 21
129.9814650503
 31
0.0
  0
LINE
  5
DD
330
1F
100
AcDbEntity
  8
0
  6
HIDDEN
 62
     7
370
     0
100
AcDbLine
 10
162.1133191213
 20
76.4274423275
 30
0.0
 11
152.9807575778
 21
76.4274423275
 31
0.0
  0
LINE
  5
DE
330
1F
100
AcDbEntity
  8
0
  6
HIDDEN
 62
     7
370
     0
100
AcDbLine
 10
152.9807575778
 20
76.4274423275
 30
0.0
 11
152.9807575778
 21
81.7814650503
 31
0.0
  0
LINE
  5
DF
330
1F
100
AcDbEntity
  8
0
  6
HIDDEN
 62
     7
370
     0
100
AcDbLine
 10
164.9307575778
 20
83.3814650503
 30
0.0
 11
152.318015878
 21
83.3814650503
 31
0.0
  0
LINE
  5
E0
330
1F
100
AcDbEntity
  8
0
  6
HIDDEN
 62
     7
370
     0
100
AcDbLine
 10
152.318015878
 20
128.3814650503
 30
0.0
 11
164.9307575778
 21
128.3814650503
 31
0.0
  0
LINE
  5
E1
330
1F
100
AcDbEntity
  8
0
  6
HIDDEN
 62
     7
370
     0
100
AcDbLine
 10
171.3807575778
 20
83.3814650503
 30
0.0
 11
164.9307575778
 21
83.3814650503
 31
0.0
  0
LINE
  5
E2
330
1F
100
AcDbEntity
  8
0
  6
HIDDEN
 62
     7
370
     0
100
AcDbLine
 10
170.956999344
 20
75.9764171569
 30
0.0
 11
171.0509420736
 21
75.9514334855
 31
0.0
  0
SPLINE
  5
E3
330
1F
100
AcDbEntity
  8
0
  6
HIDDEN
 62
     7
370
     0
100
AcDbSpline
210
0.0
220
0.0
230
1.0
 70
     8
 71
     3
 72
    13
 73
     9
 74
     0
 42
0.000000001
 43
0.00000001
 40
0.0
 40
0.0
 40
0.0
 40
0.0
 40
0.0000730266253407
 40
0.1576811714019511
 40
0.3241446478108668
 40
0.4996852929261713
 40
0.7294244053126598
 40
1.0
 40
1.0
 40
1.0
 40
1.0
 10
172.9807362707248
 20
75.38147335133715
 30
0.0
 10
172.9807433724326
 20
75.38147044120224
 30
0.0
 10
172.9960775823325
 20
75.37518679492419
 30
0.0
 10
172.9366165102423
 20
75.39889848796551
 30
0.0
 10
172.7758661081428
 20
75.4543734185259
 30
0.0
 10
172.4411814718919
 20
75.56232048650624
 30
0.0
 10
171.883307213358
 20
75.73359270419526
 30
0.0
 10
171.2821408078193
 20
75.89132313217829
 30
0.0
 10
170.9570235258669
 20
75.97662545039593
 30
0.0
  0
LINE
  5
E4
330
1F
100
AcDbEntity
  8
0
  6
HIDDEN
 62
     7
370
     0
100
AcDbLine
 10
164.9307575778
 20
128.3814650503
 30
0.0
 11
171.3807575778
 21
128.3814650503
 31
0.0
  0
SPLINE
  5
E5
330
1F
100
AcDbEntity
  8
0
  6
HIDDEN
 62
     7
370
     0
100
AcDbSpline
210
0.0
220
0.0
230
1.0
 70
     8
 71
     3
 72
    13
 73
     9
 74
     0
 42
0.000000001
 43
0.00000001
 40
0.0
 40
0.0
 40
0.0
 40
0.0
 40
0.1850454653144679
 40
0.3520092965859432
 40
0.5010298177386109
 40
0.6766227814582007
 40
0.8430962614808595
 40
1.0
 40
1.0
 40
1.0
 40
1.0
 10
170.9570212083894
 20
135.7863258259963
 30
0.0
 10
171.1838113240095
 20
135.8451624975362
 30
0.0
 10
171.6152308615615
 20
135.9570866418379
 30
0.0
 10
172.1026863325132
 20
136.0973527134662
 30
0.0
 10
172.4917955090574
 20
136.2166474727215
 30
0.0
 10
172.7726954294825
 20
136.3073152823459
 30
0.0
 10
172.9495802045476
 20
136.3692310426951
 30
0.0
 10
172.9704425843708
 20
136.3774202988528
 30
0.0
 10
172.980565082806
 20
136.3813937541031
 30
0.0
  0
LINE
  5
E6
330
1F
100
AcDbEntity
  8
0
  6
HIDDEN
 62
     7
370
     0
100
AcDbLine
 10
171.7072517515
 20
135.9860389053
 30
0.0
 11
170.9569991904
 21
135.7865132522
 31
0.0
  0
LINE
  5
E7
330
1F
100
AcDbEntity
  8
0
  6
HIDDEN
 62
     7
370
     0
100
AcDbLine
 10
127.5807575778
 20
98.8814650503
 30
0.0
 11
127.5807575778
 21
112.8814650503
 31
0.0
  0
LINE
  5
E8
330
1F
100
AcDbEntity
  8
0
  6
HIDDEN
 62
     7
370
     0
100
AcDbLine
 10
128.7223927539
 20
100.7814650503
 30
0.0
 11
128.7223927539
 21
110.9814650503
 31
0.0
  0
LINE
  5
E9
330
1F
100
AcDbEntity
  8
0
  6
HIDDEN
 62
     7
370
     0
100
AcDbLine
 10
191.3807575778
 20
123.6814650503
 30
0.0
 11
191.3807575778
 21
118.0788329104
 31
0.0
  0
LINE
  5
EA
330
1F
100
AcDbEntity
  8
0
  6
HIDDEN
 62
     7
370
     0
100
AcDbLine
 10
191.3807575778
 20
88.0814650503
 30
0.0
 11
191.3807575778
 21
93.6840971902
 31
0.0
  0
SPLINE
  5
EB
330
1F
100
AcDbEntity
  8
0
  6
HIDDEN
 62
     7
370
     0
100
AcDbSpline
210
0.0
220
0.0
230
1.0
 70
     8
 71
     3
 72
     9
 73
     5
 74
     0
 42
0.000000001
 43
0.00000001
 40
0.0
 40
0.0
 40
0.0
 40
0.0
 40
0.4932365035776448
 40
1.0
 40
1.0
 40
1.0
 40
1.0
 10
170.9578171164744
 20
135.7862965614576
 30
0.0
 10
171.0636650719831
 20
135.9433179497405
 30
0.0
 10
171.2782638592604
 20
136.261667032065
 30
0.0
 10
171.4961237411447
 20
136.5814931397426
 30
0.0
 10
171.6065271766185
 20
136.7435693363164
 30
0.0
  0
SPLINE
  5
EC
330
1F
100
AcDbEntity
  8
0
  6
HIDDEN
 62
     7
370
     0
100
AcDbSpline
210
0.0
220
0.0
230
1.0
 70
     8
 71
     3
 72
     9
 73
     5
 74
     0
 42
0.000000001
 43
0.00000001
 40
0.0
 40
0.0
 40
0.0
 40
0.0
 40
0.5067661695379747
 40
1.0
 40
1.0
 40
1.0
 40
1.0
 10
171.6065308619044
 20
75.01937489980816
 30
0.0
 10
171.4961260314304
 20
75.1814523143883
 30
0.0
 10
171.2782645459751
 20
75.50127913851881
 30
0.0
 10
171.0636648280894
 20
75.81962765478329
 30
0.0
 10
170.9578169872206
 20
75.97664791288231
 30
0.0
  0
LINE
  5
ED
330
1F
100
AcDbEntity
  8
0
  6
HIDDEN
 62
     7
370
     0
100
AcDbLine
 10
191.3807575778
 20
125.7814650503
 30
0.0
 11
191.3807575778
 21
123.6814650503
 31
0.0
  0
LINE
  5
EE
330
1F
100
AcDbEntity
  8
0
  6
HIDDEN
 62
     7
370
     0
100
AcDbLine
 10
191.3807575778
 20
85.9814650503
 30
0.0
 11
191.3807575778
 21
88.0814650503
 31
0.0
  0
LINE
  5
EF
330
1F
100
AcDbEntity
  8
0
  6
HIDDEN
 62
     7
370
     0
100
AcDbLine
 10
177.3491050802
 20
120.3814650503
 30
0.0
 11
175.4807575778
 21
120.3814650503
 31
0.0
  0
LINE
  5
F0
330
1F
100
AcDbEntity
  8
0
  6
HIDDEN
 62
     7
370
     0
100
AcDbLine
 10
175.4807575778
 20
91.3814650503
 30
0.0
 11
177.3491050802
 21
91.3814650503
 31
0.0
  0
ARC
  5
F1
330
1F
100
AcDbEntity
  8
0
  6
HIDDEN
 62
     7
370
     0
100
AcDbCircle
 10
175.4807575778
 20
119.3814650503
 30
0.0
 40
1.0
100
AcDbArc
 50
90.0
 51
180.0
  0
ARC
  5
F2
330
1F
100
AcDbEntity
  8
0
  6
HIDDEN
 62
     7
370
     0
100
AcDbCircle
 10
175.4807575778
 20
92.3814650503
 30
0.0
 40
1.0
100
AcDbArc
 50
180.0
 51
270.0
  0
ARC
  5
F3
330
1F
100
AcDbEntity
  8
0
  6
HIDDEN
 62
     7
370
     0
100
AcDbCircle
 10
177.3491050802
 20
119.3814650503
 30
0.0
 40
1.0
100
AcDbArc
 50
75.0
 51
90.0
  0
ARC
  5
F4
330
1F
100
AcDbEntity
  8
0
  6
HIDDEN
 62
     7
370
     0
100
AcDbCircle
 10
177.3491050802
 20
92.3814650503
 30
0.0
 40
1.0
100
AcDbArc
 50
270.0
 51
285.0
  0
LINE
  5
F5
330
1F
100
AcDbEntity
  8
0
  6
HIDDEN
 62
     7
370
     0
100
AcDbLine
 10
177.6079241253
 20
91.415539224
 30
0.0
 11
179.3467829816
 21
91.8814650503
 31
0.0
  0
LINE
  5
F6
330
1F
100
AcDbEntity
  8
0
  6
HIDDEN
 62
     7
370
     0
100
AcDbLine
 10
179.3467829816
 20
119.8814650503
 30
0.0
 11
177.6079241253
 21
120.3473908766
 31
0.0
  0
LINE
  5
F7
330
1F
100
AcDbEntity
  8
0
  6
HIDDEN
 62
     7
370
     0
100
AcDbLine
 10
191.3807575778
 20
119.8814650503
 30
0.0
 11
179.3467829816
 21
119.8814650503
 31
0.0
  0
LINE
  5
F8
330
1F
100
AcDbEntity
  8
0
  6
HIDDEN
 62
     7
370
     0
100
AcDbLine
 10
179.3467829816
 20
91.8814650503
 30
0.0
 11
191.3807575778
 21
91.8814650503
 31
0.0
  0
ARC
  5
F9
330
1F
100
AcDbEntity
  8
0
  6
HIDDEN
 62
     7
370
     0
100
AcDbCircle
 10
85.3807575778
 20
96.5814650503
 30
0.0
 40
0.7999999999999972
100
AcDbArc
 50
90.0
 51
180.0
  0
ARC
  5
FA
330
1F
100
AcDbEntity
  8
0
  6
HIDDEN
 62
     7
370
     0
100
AcDbCircle
 10
85.3807575778
 20
115.1814650503
 30
0.0
 40
0.7999999999999972
100
AcDbArc
 50
180.0
 51
270.0
  0
LINE
  5
FB
330
1F
100
AcDbEntity
  8
0
  6
HIDDEN
 62
     7
370
     0
100
AcDbLine
 10
92.4731300085
 20
97.1564650503
 30
0.0
 11
93.3498174701
 21
97.1564650503
 31
0.0
  0
LINE
  5
FC
330
1F
100
AcDbEntity
  8
0
  6
HIDDEN
 62
     7
370
     0
100
AcDbLine
 10
93.3498174701
 20
114.6064650503
 30
0.0
 11
92.4731300085
 21
114.6064650503
 31
0.0
  0
ARC
  5
FD
330
1F
100
AcDbEntity
  8
0
  6
HIDDEN
 62
     7
370
     0
100
AcDbCircle
 10
93.3498174701
 20
97.5564650503
 30
0.0
 40
0.3999999999999915
100
AcDbArc
 50
270.0
 51
330.0
  0
ARC
  5
FE
330
1F
100
AcDbEntity
  8
0
  6
HIDDEN
 62
     7
370
     0
100
AcDbCircle
 10
93.3498174701
 20
114.2064650503
 30
0.0
 40
0.3999999999999915
100
AcDbArc
 50
30.0
 51
90.0
  0
ARC
  5
FF
330
1F
100
AcDbEntity
  8
0
  6
HIDDEN
 62
     7
370
     0
100
AcDbCircle
 10
92.4731300085
 20
97.5564650503
 30
0.0
 40
0.3999999999999915
100
AcDbArc
 50
255.0
 51
270.0
  0
ARC
  5
100
330
1F
100
AcDbEntity
  8
0
  6
HIDDEN
 62
     7
370
     0
100
AcDbCircle
 10
92.4731300085
 20
114.2064650503
 30
0.0
 40
0.3999999999999915
100
AcDbArc
 50
90.0
 51
105.0
  0
LINE
  5
101
330
1F
100
AcDbEntity
  8
0
  6
HIDDEN
 62
     7
370
     0
100
AcDbLine
 10
92.3696023905
 20
114.5928353808
 30
0.0
 11
91.5807575778
 21
114.3814650503
 31
0.0
  0
LINE
  5
102
330
1F
100
AcDbEntity
  8
0
  6
HIDDEN
 62
     7
370
     0
100
AcDbLine
 10
91.5807575778
 20
97.3814650503
 30
0.0
 11
92.3696023905
 21
97.1700947198
 31
0.0
  0
LINE
  5
103
330
1F
100
AcDbEntity
  8
0
  6
HIDDEN
 62
     7
370
     0
100
AcDbLine
 10
93.6962276316
 20
97.3564650503
 30
0.0
 11
94.5766867921
 21
98.8814650503
 31
0.0
  0
LINE
  5
104
330
1F
100
AcDbEntity
  8
0
  6
HIDDEN
 62
     7
370
     0
100
AcDbLine
 10
94.5766867921
 20
112.8814650503
 30
0.0
 11
93.6962276316
 21
114.4064650503
 31
0.0
  0
LINE
  5
105
330
1F
100
AcDbEntity
  8
0
  6
HIDDEN
 62
     7
370
     0
100
AcDbLine
 10
85.3807575778
 20
97.3814650503
 30
0.0
 11
91.5807575778
 21
97.3814650503
 31
0.0
  0
LINE
  5
106
330
1F
100
AcDbEntity
  8
0
  6
HIDDEN
 62
     7
370
     0
100
AcDbLine
 10
91.5807575778
 20
114.3814650503
 30
0.0
 11
85.3807575778
 21
114.3814650503
 31
0.0
  0
LINE
  5
107
330
1F
100
AcDbEntity
  8
0
  6
HIDDEN
 62
     7
370
     0
100
AcDbLine
 10
204.9807575778
 20
126.3406997184
 30
0.0
 11
204.4108069602
 21
125.7707723225
 31
0.0
  0
LINE
  5
108
330
1F
100
AcDbEntity
  8
0
  6
HIDDEN
 62
     7
370
     0
100
AcDbLine
 10
204.4111185423
 20
85.9918435153
 30
0.0
 11
204.9807575778
 21
85.4222289504
 31
0.0
  0
ARC
  5
109
330
1F
100
AcDbEntity
  8
0
  6
HIDDEN
 62
     7
370
     0
100
AcDbCircle
 10
171.3807575778
 20
81.7814650503
 30
0.0
 40
1.599999999999994
100
AcDbArc
 50
0.0
 51
90.0
  0
LINE
  5
10A
330
1F
100
AcDbEntity
  8
0
  6
HIDDEN
 62
     7
370
     0
100
AcDbLine
 10
172.9807575778
 20
75.3814733513
 30
0.0
 11
172.9807575778
 21
81.7814650503
 31
0.0
  0
ARC
  5
10B
330
1F
100
AcDbEntity
  8
0
  6
HIDDEN
 62
     7
370
     0
100
AcDbCircle
 10
171.3807575778
 20
129.9814650503
 30
0.0
 40
1.599999999999994
100
AcDbArc
 50
270.0
 51
0.0
  0
LINE
  5
10C
330
1F
100
AcDbEntity
  8
0
  6
HIDDEN
 62
     7
370
     0
100
AcDbLine
 10
172.9807575778
 20
129.9814650503
 30
0.0
 11
172.9807575778
 21
136.3813937541
 31
0.0
  0
LINE
  5
10D
330
1F
100
AcDbEntity
  8
0
  6
HIDDEN
 62
     7
370
     0
100
AcDbLine
 10
94.5766867921
 20
98.8814650503
 30
0.0
 11
127.5807575778
 21
98.8814650503
 31
0.0
  0
LINE
  5
10E
330
1F
100
AcDbEntity
  8
0
  6
HIDDEN
 62
     7
370
     0
100
AcDbLine
 10
127.5807575778
 20
112.8814650503
 30
0.0
 11
94.5766867921
 21
112.8814650503
 31
0.0
  0
LINE
  5
10F
330
1F
100
AcDbEntity
  8
0
  6
HIDDEN
 62
     7
370
     0
100
AcDbLine
 10
127.5807575778
 20
98.8814650503
 30
0.0
 11
128.7223927539
 21
100.7814650503
 31
0.0
  0
LINE
  5
110
330
1F
100
AcDbEntity
  8
0
  6
HIDDEN
 62
     7
370
     0
100
AcDbLine
 10
128.7223927539
 20
110.9814650503
 30
0.0
 11
127.5807575778
 21
112.8814650503
 31
0.0
  0
LINE
  5
111
330
1F
100
AcDbEntity
  8
0
  6
HIDDEN
 62
     7
370
     0
100
AcDbLine
 10
172.9807566678
 20
136.3814648384
 30
0.0
 11
173.9807560371
 21
137.3814645851
 31
0.0
  0
LINE
  5
112
330
1F
100
AcDbEntity
  8
0
  6
HIDDEN
 62
     7
370
     0
100
AcDbLine
 10
173.9807639392
 20
74.3814639126
 30
0.0
 11
172.9807636902
 21
75.3814637171
 31
0.0
  0
LINE
  5
113
330
1F
100
AcDbEntity
  8
0
  6
HIDDEN
 62
     7
370
     0
100
AcDbLine
 10
128.7223927539
 20
100.7814650503
 30
0.0
 11
174.4807575778
 21
100.7814650503
 31
0.0
  0
LINE
  5
114
330
1F
100
AcDbEntity
  8
0
  6
HIDDEN
 62
     7
370
     0
100
AcDbLine
 10
174.4807575778
 20
110.9814650503
 30
0.0
 11
128.7223927539
 21
110.9814650503
 31
0.0
  0
LINE
  5
115
330
1F
100
AcDbEntity
  8
0
  6
HIDDEN
 62
     7
370
     0
100
AcDbLine
 10
204.4230293244
 20
125.7814650503
 30
0.0
 11
191.3807575778
 21
125.7814650503
 31
0.0
  0
LINE
  5
116
330
1F
100
AcDbEntity
  8
0
  6
HIDDEN
 62
     7
370
     0
100
AcDbLine
 10
191.3807575778
 20
85.9814650503
 30
0.0
 11
204.424412938
 21
85.9814650503
 31
0.0
  0
DIMENSION
  5
117
330
1F
100
AcDbEntity
  8
VERMASSUNG
100
AcDbDimension
  2
_D
 10
79.0445454168
 20
74.3814650503
 30
0.0
 11
79.0445454168
 21
105.8814650503
 31
0.0
 70
   160
  1
MAS BT 40 %%c<>
 71
     2
 42
-1.0
  3
SLDDIMSTYLE0
100
AcDbAlignedDimension
 13
173.9807534337
 23
137.3814650503
 33
0.0
 14
173.9807583517
 24
74.3814650503
 34
0.0
 50
90.0
100
AcDbRotatedDimension
  0
DIMENSION
  5
124
330
1F
100
AcDbEntity
  8
VERMASSUNG
100
AcDbDimension
  2
_D_1
 10
218.0198200845
 20
80.8814650503
 30
0.0
 11
218.0198200845
 21
105.8814650503
 31
0.0
 70
   160
  1
ST5 %%c<>
 71
     2
 42
-1.0
  3
SLDDIMSTYLE0
100
AcDbAlignedDimension
 13
204.4807575778
 23
130.8814650503
 33
0.0
 14
204.4807575778
 24
80.8814650503
 34
0.0
 50
90.0
100
AcDbRotatedDimension
  0
DIMENSION
  5
130
330
1F
100
AcDbEntity
  8
VERMASSUNG
100
AcDbDimension
  2
_D_2
 10
212.0198200845
 20
91.8814650503
 30
0.0
 11
212.0198200845
 21
105.8814650503
 31
0.0
 70
   160
  1
%%c<>
 71
     2
 42
-1.0
  3
SLDDIMSTYLE0
100
AcDbAlignedDimension
 13
191.3807575778
 23
119.8814650503
 33
0.0
 14
191.3807575778
 24
91.8814650503
 34
0.0
 50
90.0
100
AcDbRotatedDimension
  0
DIMENSION
  5
13B
330
1F
100
AcDbEntity
  8
VERMASSUNG
100
AcDbDimension
  2
_D_3
 10
149.9807575778
 20
148.5436386721
 30
0.0
 11
177.4807575778
 21
148.5436386721
 31
0.0
 70
   160
  1
<>
 71
     2
 42
-1.0
  3
SLDDIMSTYLE0
100
AcDbAlignedDimension
 13
204.9807575778
 23
130.3814650503
 33
0.0
 14
149.9807575778
 24
128.1064650503
 34
0.0
100
AcDbRotatedDimension
  0
DIMENSION
  5
145
330
1F
100
AcDbEntity
  8
VERMASSUNG
100
AcDbDimension
  2
_D_4
 10
204.9807575778
 20
142.5436386721
 30
0.0
 11
190.9807575778
 21
142.5436386721
 31
0.0
 70
   160
  1
(<>)
 71
     2
 42
-1.0
  3
SLDDIMSTYLE0
100
AcDbAlignedDimension
 13
176.9807575778
 23
136.3814650503
 33
0.0
 14
204.9807575778
 24
130.3814650503
 34
0.0
100
AcDbRotatedDimension
  0
DIMENSION
  5
151
330
1F
100
AcDbEntity
  8
VERMASSUNG
100
AcDbDimension
  2
_D_5
 10
204.9807575778
 20
154.5436386721
 30
0.0
 11
144.7807575778
 21
154.5436386721
 31
0.0
 70
   160
  1
(<>)
 71
     2
 42
-1.0
  3
SLDDIMSTYLE0
100
AcDbAlignedDimension
 13
84.5807575778
 23
117.7042206473
 33
0.0
 14
204.9807575778
 24
130.3814650503
 34
0.0
100
AcDbRotatedDimension
  0
LINE
  5
15D
330
1F
100
AcDbEntity
  8
VERMASSUNG
  6
CENTERX2
370
     0
100
AcDbLine
 10
83.4364506847
 20
105.8814650503
 30
0.0
 11
206.5179148593
 21
105.8814650503
 31
0.0
  0
LINE
  5
15E
330
1F
100
AcDbEntity
  8
0
  6
Continuous
 62
     7
370
    15
100
AcDbLine
 10
273.0570030807
 20
42.5228397531
 30
0.0
 11
272.8801976613
 21
42.6249405269
 31
0.0
  0
LINE
  5
15F
330
1F
100
AcDbEntity
  8
0
  6
Continuous
 62
     7
370
    15
100
AcDbLine
 10
269.6977001107
 20
42.6249405269
 30
0.0
 11
269.5208946912
 21
42.5228397531
 31
0.0
  0
LINE
  5
160
330
1F
100
AcDbEntity
  8
0
  6
Continuous
 62
     7
370
    15
100
AcDbLine
 10
273.788948886
 20
41.2983602585
 30
0.0
 11
273.788948886
 21
41.5024954615
 31
0.0
  0
LINE
  5
161
330
1F
100
AcDbEntity
  8
0
  6
Continuous
 62
     7
370
    15
100
AcDbLine
 10
268.788948886
 20
41.5024954615
 30
0.0
 11
268.788948886
 21
41.2983602585
 31
0.0
  0
LINE
  5
162
330
1F
100
AcDbEntity
  8
0
  6
Continuous
 62
     7
370
    15
100
AcDbLine
 10
275.7274804971
 20
18.7324593593
 30
0.0
 11
275.9042284612
 21
18.8345269594
 31
0.0
  0
LINE
  5
163
330
1F
100
AcDbEntity
  8
0
  6
Continuous
 62
     7
370
    15
100
AcDbLine
 10
284.5648787027
 20
33.836838736
 30
0.0
 11
284.5648787027
 21
34.0409407639
 31
0.0
  0
LINE
  5
164
330
1F
100
AcDbEntity
  8
0
  6
Continuous
 62
     7
370
    15
100
AcDbLine
 10
281.9755360169
 20
39.7640008448
 30
0.0
 11
273.6670313379
 21
44.5603985018
 31
0.0
  0
LINE
  5
165
330
1F
100
AcDbEntity
  8
0
  6
Continuous
 62
     7
370
    15
100
AcDbLine
 10
261.16804718
 20
22.9091769422
 30
0.0
 11
269.4765518589
 21
18.1127792853
 31
0.0
  0
SPLINE
  5
166
330
1F
100
AcDbEntity
  8
0
  6
Continuous
 62
     7
370
    15
100
AcDbSpline
210
0.0
220
0.0
230
1.0
 70
     8
 71
     3
 72
    14
 73
    10
 74
     0
 42
0.000000001
 43
0.00000001
 40
0.0
 40
0.0
 40
0.0
 40
0.0
 40
0.1177963186760424
 40
0.28572821106518
 40
0.4547077914176081
 40
0.6247628833976331
 40
0.7957414571360175
 40
0.9674020074679548
 40
1.0
 40
1.0
 40
1.0
 40
1.0
 10
259.3025482848637
 20
20.51974918211085
 30
0.0
 10
259.4809708052695
 20
20.47746816727878
 30
0.0
 10
259.9137546829174
 20
20.37491081348563
 30
0.0
 10
260.6436404852682
 20
20.32213596015586
 30
0.0
 10
261.480741168332
 20
20.34678607883754
 30
0.0
 10
262.3473205652292
 20
20.4686816352337
 30
0.0
 10
263.2365478671064
 20
20.69311375806625
 30
0.0
 10
263.8954594122791
 20
20.90383368232204
 30
0.0
 10
264.2575067839641
 20
21.06637417500902
 30
0.0
 10
264.3152865828059
 20
21.09231430800161
 30
0.0
  0
SPLINE
  5
167
330
1F
100
AcDbEntity
  8
0
  6
Continuous
 62
     7
370
    15
100
AcDbSpline
210
0.0
220
0.0
230
1.0
 70
     8
 71
     3
 72
    14
 73
    10
 74
     0
 42
0.000000001
 43
0.00000001
 40
0.0
 40
0.0
 40
0.0
 40
0.0
 40
0.0480477033055848
 40
0.2201518922839888
 40
0.3920478590146715
 40
0.5635083710808618
 40
0.7342573410204833
 40
0.9040245904969083
 40
0.9999999999999999
 40
0.9999999999999999
 40
0.9999999999999999
 40
0.9999999999999999
 10
276.8120771085687
 20
42.74480222442563
 30
0.0
 10
276.8021010448995
 20
42.83770170327793
 30
0.0
 10
276.7563912784963
 20
43.2633619254004
 30
0.0
 10
276.5988042863384
 20
43.96934156168656
 30
0.0
 10
276.3377008827587
 20
44.85259952134484
 30
0.0
 10
275.998034722724
 20
45.66603317421555
 30
0.0
 10
275.5856962401399
 20
46.403218092601
 30
0.0
 10
275.1833966213579
 20
46.97954024765157
 30
0.0
 10
274.8938797945281
 20
47.2754316368225
 30
0.0
 10
274.7893181252811
 20
47.38229553798602
 30
0.0
  0
LINE
  5
168
330
1F
100
AcDbEntity
  8
0
  6
Continuous
 62
     7
370
    15
100
AcDbLine
 10
256.2286162026
 20
22.0079746516
 30
0.0
 11
257.7754122865
 21
21.1150282793
 31
0.0
  0
LINE
  5
169
330
1F
100
AcDbEntity
  8
0
  6
Continuous
 62
     7
370
    15
100
AcDbLine
 10
273.5241323255
 20
48.3955674443
 30
0.0
 11
271.9773362417
 21
49.2885138166
 31
0.0
  0
SPLINE
  5
16A
330
1F
100
AcDbEntity
  8
0
  6
Continuous
 62
     7
370
    15
100
AcDbSpline
210
0.0
220
0.0
230
1.0
 70
     8
 71
     3
 72
    24
 73
    20
 74
     0
 42
0.000000001
 43
0.00000001
 40
0.0
 40
0.0
 40
0.0
 40
0.0
 40
0.0082719469783985
 40
0.0735171339194534
 40
0.1388258440752621
 40
0.2041525291016497
 40
0.2694628754795096
 40
0.3347205691159512
 40
0.3998951988927286
 40
0.4649580074523034
 40
0.5298857642644814
 40
0.594669271238899
 40
0.6593302350210032
 40
0.7239449643765684
 40
0.788637128489286
 40
0.8537084997232071
 40
0.9196478980914516
 40
0.9870225718228227
 40
1.0
 40
1.0
 40
1.0
 40
1.0
 10
271.4607785314662
 20
29.25452202026326
 30
0.0
 10
271.4730349467108
 20
29.28734958800521
 30
0.0
 10
271.5819641411635
 20
29.57910541045398
 30
0.0
 10
271.8293241162231
 20
30.12724979910376
 30
0.0
 10
272.2243505614209
 20
30.88363202105025
 30
0.0
 10
272.674018846212
 20
31.61158634844618
 30
0.0
 10
273.1675602163042
 20
32.30001592691357
 30
0.0
 10
273.6982785424746
 20
32.93842226290283
 30
0.0
 10
274.2574728225385
 20
33.51721200786181
 30
0.0
 10
274.8362182980687
 20
34.02783741999495
 30
0.0
 10
275.4250462717702
 20
34.46298044344549
 30
0.0
 10
276.0142606557731
 20
34.81678051354926
 30
0.0
 10
276.5941151404398
 20
35.08495889011654
 30
0.0
 10
277.1552270987955
 20
35.26521511896289
 30
0.0
 10
277.6886606900506
 20
35.35629969863403
 30
0.0
 10
278.1891106747603
 20
35.36163982054351
 30
0.0
 10
278.6470813488505
 20
35.27300875832115
 30
0.0
 10
278.9613088278097
 20
35.16679047336403
 30
0.0
 10
279.1076069658398
 20
35.0629426148475
 30
0.0
 10
279.1312351415023
 20
35.04617045714109
 30
0.0
  0
LINE
  5
16B
330
1F
100
AcDbEntity
  8
0
  6
Continuous
 62
     7
370
    15
100
AcDbLine
 10
268.4241246662
 20
51.3397391975
 30
0.0
 11
265.3924043419
 21
53.0899140873
 31
0.0
  0
SPLINE
  5
16C
330
1F
100
AcDbEntity
  8
0
  6
Continuous
 62
     7
370
    15
100
AcDbSpline
210
0.0
220
0.0
230
1.0
 70
     8
 71
     3
 72
    31
 73
    27
 74
     0
 42
0.000000001
 43
0.00000001
 40
0.0
 40
0.0
 40
0.0
 40
0.0
 40
0.039566769464014
 40
0.0818110215882499
 40
0.1243249155213681
 40
0.1671036349924817
 40
0.2101019012522125
 40
0.2532570765407476
 40
0.296508209760552
 40
0.3398063839846304
 40
0.3831146051437063
 40
0.4264098344420669
 40
0.4696833010185756
 40
0.5129320397301239
 40
0.5561567227912485
 40
0.5993601892613385
 40
0.6425465107588885
 40
0.685720429607294
 40
0.7288870399259993
 40
0.7720516190163682
 40
0.8152190640809814
 40
0.8583934963028229
 40
0.9015803847555008
 40
0.9447851706408562
 40
0.9880131415666298
 40
1.0
 40
1.0
 40
1.0
 40
1.0
 10
263.8781072082826
 20
53.69002764171164
 30
0.0
 10
263.6372211645104
 20
53.74075147774428
 30
0.0
 10
263.1391483222159
 20
53.845631630987
 30
0.0
 10
262.3396151413897
 20
53.88583633446244
 30
0.0
 10
261.4953485093881
 20
53.8391166040512
 30
0.0
 10
260.6232218364897
 20
53.69439812445142
 30
0.0
 10
259.7301347034692
 20
53.45493758979953
 30
0.0
 10
258.8220629812766
 20
53.12144332708922
 30
0.0
 10
257.905549161832
 20
52.69646698734886
 30
0.0
 10
256.9870191806296
 20
52.18311075419459
 30
0.0
 10
256.0727829969927
 20
51.58521050606721
 30
0.0
 10
255.1689268343854
 20
50.9071163062658
 30
0.0
 10
254.2813107013274
 20
50.15361587877595
 30
0.0
 10
253.4155908027847
 20
49.32987972372274
 30
0.0
 10
252.5772590946155
 20
48.44146296483677
 30
0.0
 10
251.7716318609129
 20
47.49428173374378
 30
0.0
 10
251.0038291272976
 20
46.49458728066964
 30
0.0
 10
250.2787509129471
 20
45.44893586119998
 30
0.0
 10
249.6010421189615
 20
44.36415169747607
 30
0.0
 10
248.9750923062151
 20
43.24729720837202
 30
0.0
 10
248.4049142759702
 20
42.10561503568972
 30
0.0
 10
247.8944720256046
 20
40.94655396693875
 30
0.0
 10
247.44630873791
 20
39.7774041398747
 30
0.0
 10
247.0665654470785
 20
38.60640186889992
 30
0.0
 10
246.823416997331
 20
37.71998266601117
 30
0.0
 10
246.7156659754029
 20
37.22846053713904
 30
0.0
 10
246.6922737769502
 20
37.12175358460394
 30
0.0
  0
SPLINE
  5
16D
330
1F
100
AcDbEntity
  8
0
  6
Continuous
 62
     7
370
    15
100
AcDbSpline
210
0.0
220
0.0
230
1.0
 70
     8
 71
     3
 72
    10
 73
     6
 74
     0
 42
0.000000001
 43
0.00000001
 40
0.0
 40
0.0
 40
0.0
 40
0.0
 40
0.3802194190915094
 40
0.8513147038161717
 40
1.0
 40
1.0
 40
1.0
 40
1.0
 10
272.1087347280632
 20
22.95306746937915
 30
0.0
 10
272.0034276068855
 20
23.01943407898936
 30
0.0
 10
271.7676440141134
 20
23.16802951564167
 30
0.0
 10
271.5332664643446
 20
23.417855752248
 30
0.0
 10
271.4095145254708
 20
23.60635467662829
 30
0.0
 10
271.3798264483488
 20
23.65157554876458
 30
0.0
  0
LINE
  5
16E
330
1F
100
AcDbEntity
  8
0
  6
Continuous
 62
     7
370
    15
100
AcDbLine
 10
256.3865214215
 20
51.7758657218
 30
0.0
 11
236.4929066644
 21
58.9447359247
 31
0.0
  0
LINE
  5
16F
330
1F
100
AcDbEntity
  8
0
  6
Continuous
 62
     7
370
    15
100
AcDbLine
 10
230.121437253
 20
47.9078313137
 30
0.0
 11
249.1493113394
 21
31.8408517363
 31
0.0
  0
LINE
  5
170
330
1F
100
AcDbEntity
  8
0
  6
Continuous
 62
     7
370
    15
100
AcDbLine
 10
249.6436843028
 20
25.8093749223
 30
0.0
 11
252.6754046272
 21
24.0592000325
 31
0.0
  0
SPLINE
  5
171
330
1F
100
AcDbEntity
  8
0
  6
Continuous
 62
     7
370
    15
100
AcDbSpline
210
0.0
220
0.0
230
1.0
 70
     8
 71
     3
 72
    12
 73
     8
 74
     0
 42
0.000000001
 43
0.00000001
 40
0.0
 40
0.0
 40
0.0
 40
0.0
 40
0.0813210737525945
 40
0.3243046990986241
 40
0.5666178623916187
 40
0.8076311831347661
 40
1.0
 40
1.0
 40
1.0
 40
1.0
 10
246.6804617120384
 20
29.87611558011388
 30
0.0
 10
246.709187115227
 20
29.77755292349724
 30
0.0
 10
246.823742700977
 20
29.38448958552819
 30
0.0
 10
247.0770635284446
 20
28.74200699758935
 30
0.0
 10
247.4691394513817
 20
27.98345775023462
 30
0.0
 10
247.8951441705593
 20
27.3395716355864
 30
0.0
 10
248.2195673552158
 20
26.98787870309662
 30
0.0
 10
248.3635716848369
 20
26.831769931064
 30
0.0
  0
SPLINE
  5
172
330
1F
100
AcDbEntity
  8
0
  6
Continuous
 62
     7
370
    15
100
AcDbSpline
210
0.0
220
0.0
230
1.0
 70
     8
 71
     3
 72
    26
 73
    22
 74
     0
 42
0.000000001
 43
0.00000001
 40
0.0
 40
0.0
 40
0.0
 40
0.0
 40
0.0076363293138396
 40
0.0613892434237682
 40
0.1155825714595441
 40
0.1707848492088454
 40
0.2271213420869799
 40
0.2843338536658928
 40
0.3420221363488504
 40
0.3998474110568808
 40
0.4576098302461951
 40
0.5152674501791021
 40
0.5728287380209293
 40
0.6303249460226732
 40
0.6877966802429839
 40
0.7452875176604967
 40
0.8028293800597783
 40
0.8604693096511419
 40
0.9182529663291561
 40
0.9762182269078005
 40
1.0
 40
1.0
 40
1.0
 40
1.0
 10
236.5470463515192
 20
58.9177723703056
 30
0.0
 10
236.5254952093819
 20
58.92830143128356
 30
0.0
 10
236.3522433423719
 20
59.01294564460057
 30
0.0
 10
235.9846697802171
 20
59.08224427960418
 30
0.0
 10
235.4544989411003
 20
59.11800896391144
 30
0.0
 10
234.8933124829219
 20
59.04974941451864
 30
0.0
 10
234.3126446505512
 20
58.88883858402611
 30
0.0
 10
233.7194576320836
 20
58.63311132459246
 30
0.0
 10
233.1247289028669
 20
58.28731437822011
 30
0.0
 10
232.5393128813174
 20
57.85780261243287
 30
0.0
 10
231.9733510002506
 20
57.35293384681265
 30
0.0
 10
231.435830866156
 20
56.78181877218121
 30
0.0
 10
230.9348427707976
 20
56.15405316518251
 30
0.0
 10
230.4778875548523
 20
55.47977935524297
 30
0.0
 10
230.071898674407
 20
54.7696379100306
 30
0.0
 10
229.723180143048
 20
54.03469524926144
 30
0.0
 10
229.4374234125925
 20
53.28630971170189
 30
0.0
 10
229.2191715310669
 20
52.53567970356966
 30
0.0
 10
229.0736516185513
 20
51.79461448464199
 30
0.0
 10
229.0145507500633
 20
51.21467609968505
 30
0.0
 10
229.0099181737819
 20
50.8880845219665
 30
0.0
 10
229.0085704688804
 20
50.7930727955912
 30
0.0
  0
SPLINE
  5
173
330
1F
100
AcDbEntity
  8
0
  6
Continuous
 62
     7
370
    15
100
AcDbSpline
210
0.0
220
0.0
230
1.0
 70
     8
 71
     3
 72
    13
 73
     9
 74
     0
 42
0.000000001
 43
0.00000001
 40
0.0
 40
0.0
 40
0.0
 40
0.0
 40
0.1027712374683019
 40
0.2971197524836922
 40
0.4915013498305366
 40
0.6843574069629254
 40
0.8740012445130345
 40
1.0
 40
1.0
 40
1.0
 40
1.0
 10
229.0085704688804
 20
50.7930727955912
 30
0.0
 10
229.0107919373843
 20
50.67189961704767
 30
0.0
 10
229.0172143780231
 20
50.32157840166266
 30
0.0
 10
229.0892550216812
 20
49.77377947846283
 30
0.0
 10
229.2508927707874
 20
49.17478878215196
 30
0.0
 10
229.4962010235657
 20
48.64537729550908
 30
0.0
 10
229.7740874274563
 20
48.22997027084249
 30
0.0
 10
229.9982154991048
 20
48.03168005551673
 30
0.0
 10
230.087683329874
 20
47.95252622486323
 30
0.0
  0
LWPOLYLINE
  5
174
330
1F
100
AcDbEntity
  8
0
  6
Continuous
 62
     7
370
    15
100
AcDbPolyline
 90
       28
 70
   128
 43
0.0
 10
272.5790233889
 20
42.7708160197
 10
272.9693718278
 20
42.5703809432
 10
273.2691282308
 20
42.3233808656
 10
273.4621326528
 20
42.043131625
 10
273.5379801755
 20
41.7447415305
 10
273.4925818392
 20
41.4442968694
 10
273.32838508
 20
41.157994691
 10
273.0542417877
 20
40.90126962
 10
272.6849310981
 20
40.6879617714
 10
272.2403626461
 20
40.5295706265
 10
271.7445032321
 20
40.4346350929
 10
271.2240847653
 20
40.4082731698
 10
270.7071631401
 20
40.4519060352
 10
270.221605735
 20
40.5631814303
 10
269.7935890755
 20
40.7361004695
 10
269.4461876504
 20
40.9613410427
 10
269.1981299605
 20
41.2267603724
 10
269.0627888601
 20
41.5180496337
 10
269.0474606228
 20
41.8195053472
 10
269.1529715981
 20
42.1148759573
 10
269.3736336618
 20
42.388237958
 10
269.6975508649
 20
42.6248543331
 10
270.1072607474
 20
42.8119690326
 10
270.5806757432
 20
42.9394946545
 10
271.0922739275
 20
43.0005562596
 10
271.6144749097
 20
42.9918620009
 10
272.1191266997
 20
42.9138805882
 10
272.5790233889
 20
42.7708160197
  0
LWPOLYLINE
  5
175
330
1F
100
AcDbEntity
  8
0
  6
Continuous
 62
     7
370
    15
100
AcDbPolyline
 90
       24
 70
   128
 43
0.0
 10
273.0570030807
 20
42.5228397531
 10
273.1291652171
 20
42.4793924764
 10
273.4499189633
 20
42.2281827002
 10
273.6696281505
 20
41.9430405953
 10
273.7780194213
 20
41.6372990895
 10
273.7700245202
 20
41.325254316
 10
273.64601728
 20
41.0214971413
 10
273.4117961413
 20
40.7402309136
 10
273.0783130244
 20
40.4946073289
 10
272.6611612291
 20
40.2961114731
 10
272.1798463097
 20
40.1540247918
 10
271.656874017
 20
40.0749911003
 10
271.116697954
 20
40.0627059262
 10
270.5845761532
 20
40.1177437105
 10
270.0853900385
 20
40.2375309476
 10
269.6424809979
 20
40.4164665196
 10
269.2765589658
 20
40.6461835978
 10
269.0047340497
 20
40.915940867
 10
268.8397164807
 20
41.2131247772
 10
268.7892222968
 20
41.5238393389
 10
268.85561255
 20
41.8335558847
 10
269.0357829058
 20
42.127792413
 10
269.3213087986
 20
42.3927907509
 10
269.5208946912
 20
42.5228397531
  0
LWPOLYLINE
  5
176
330
1F
100
AcDbEntity
  8
0
  6
Continuous
 62
     7
370
    15
100
AcDbPolyline
 90
       23
 70
   128
 43
0.0
 10
272.1489985546
 20
42.4160875679
 10
272.4603953205
 20
42.2474704612
 10
272.6768884632
 20
42.0350377306
 10
272.7809389957
 20
41.7959994126
 10
272.7641173627
 20
41.5497209701
 10
272.6277863529
 20
41.3161544179
 10
272.3829906939
 20
41.1142219289
 10
272.0495622741
 20
40.9602828725
 10
271.6545134812
 20
40.8668084755
 10
271.2298488188
 20
40.8413714777
 10
270.8099720925
 20
40.8860326332
 10
270.4288992173
 20
40.997173761
 10
270.1175024514
 20
41.1657908677
 10
269.9010093088
 20
41.3782235983
 10
269.7969587763
 20
41.6172619163
 10
269.8137804093
 20
41.8635403588
 10
269.9501114191
 20
42.097106911
 10
270.1949070781
 20
42.2990394
 10
270.5283354978
 20
42.4529784564
 10
270.9233842908
 20
42.5464528534
 10
271.3480489531
 20
42.5718898512
 10
271.7679256795
 20
42.5272286957
 10
272.1489985546
 20
42.4160875679
  0
SPLINE
  5
177
330
1F
100
AcDbEntity
  8
0
  6
Continuous
 62
     7
370
    15
100
AcDbSpline
210
0.0
220
0.0
230
1.0
 70
     8
 71
     3
 72
    11
 73
     7
 74
     0
 42
0.000000001
 43
0.00000001
 40
0.0
 40
0.0
 40
0.0
 40
0.0
 40
0.1285561766307353
 40
0.4801535797842238
 40
0.8150691831753892
 40
0.9999999999999999
 40
0.9999999999999999
 40
0.9999999999999999
 40
0.9999999999999999
 10
271.4143787907109
 20
42.49048547686684
 30
0.0
 10
271.4620038181141
 20
42.44874906647384
 30
0.0
 10
271.6398819099668
 20
42.29286478784358
 30
0.0
 10
271.9734431714444
 20
42.07711146232671
 30
0.0
 10
272.3346196565164
 20
41.99733747580033
 30
0.0
 10
272.5281045405682
 20
42.00869244546548
 30
0.0
 10
272.5969350956312
 20
42.0127318766004
 30
0.0
  0
SPLINE
  5
178
330
1F
100
AcDbEntity
  8
0
  6
Continuous
 62
     7
370
    15
100
AcDbSpline
210
0.0
220
0.0
230
1.0
 70
     8
 71
     3
 72
    11
 73
     7
 74
     0
 42
0.000000001
 43
0.00000001
 40
0.0
 40
0.0
 40
0.0
 40
0.0
 40
0.2164543009645046
 40
0.4403089937225374
 40
0.7518987489759469
 40
1.0
 40
1.0
 40
1.0
 40
1.0
 10
270.1063925810406
 20
42.13814819075922
 30
0.0
 10
270.1959904492868
 20
42.12531542453468
 30
0.0
 10
270.3782494620732
 20
42.09921115052477
 30
0.0
 10
270.7164742908086
 20
42.12763999251845
 30
0.0
 10
271.0792828506923
 20
42.2631611828604
 30
0.0
 10
271.311459109097
 20
42.42066623655924
 30
0.0
 10
271.4143787907109
 20
42.49048547686684
 30
0.0
  0
SPLINE
  5
179
330
1F
100
AcDbEntity
  8
0
  6
Continuous
 62
     7
370
    15
100
AcDbSpline
210
0.0
220
0.0
230
1.0
 70
     8
 71
     3
 72
    11
 73
     7
 74
     0
 42
0.000000001
 43
0.00000001
 40
0.0
 40
0.0
 40
0.0
 40
0.0
 40
0.2164543009645034
 40
0.4403089937225361
 40
0.7518987489759464
 40
1.0
 40
1.0
 40
1.0
 40
1.0
 10
269.9809626762903
 20
41.30805730438517
 30
0.0
 10
269.9895547027176
 20
41.32795095669191
 30
0.0
 10
270.0070325097806
 20
41.36841840866499
 30
0.0
 10
270.0394667263945
 20
41.52038687854861
 30
0.0
 10
270.0742584105669
 20
41.7884271233044
 30
0.0
 10
270.0965230535438
 20
42.03073662106325
 30
0.0
 10
270.1063925810406
 20
42.13814819075922
 30
0.0
  0
SPLINE
  5
17A
330
1F
100
AcDbEntity
  8
0
  6
Continuous
 62
     7
370
    15
100
AcDbSpline
210
0.0
220
0.0
230
1.0
 70
     8
 71
     3
 72
     9
 73
     5
 74
     0
 42
0.000000001
 43
0.00000001
 40
0.0
 40
0.0
 40
0.0
 40
0.0
 40
0.6329739173574076
 40
1.0
 40
1.0
 40
1.0
 40
1.0
 10
270.3916660990953
 20
41.01877892736944
 30
0.0
 10
270.3009583072849
 20
41.06927781926161
 30
0.0
 10
270.1576541531593
 20
41.1490581869946
 30
0.0
 10
270.0284016984239
 20
41.2653684164843
 30
0.0
 10
269.9809626762903
 20
41.30805730438517
 30
0.0
  0
LINE
  5
17B
330
1F
100
AcDbEntity
  8
0
  6
Continuous
 62
     7
370
    15
100
AcDbLine
 10
272.4715051909
 20
41.1826409902
 30
0.0
 11
272.2295752631
 21
41.0273054543
 31
0.0
  0
SPLINE
  5
17C
330
1F
100
AcDbEntity
  8
0
  6
Continuous
 62
     7
370
    15
100
AcDbSpline
210
0.0
220
0.0
230
1.0
 70
     8
 71
     3
 72
    11
 73
     7
 74
     0
 42
0.000000001
 43
0.00000001
 40
0.0
 40
0.0
 40
0.0
 40
0.0
 40
0.216454300964505
 40
0.4403089937225393
 40
0.7518987489759481
 40
1.0
 40
1.0
 40
1.0
 40
1.0
 10
272.5969350956312
 20
42.0127318766004
 30
0.0
 10
272.5883430692039
 20
41.91890204570857
 30
0.0
 10
272.5708652621409
 20
41.72803442036203
 30
0.0
 10
272.538431045527
 20
41.45070578328392
 30
0.0
 10
272.5036393613546
 20
41.25824563922627
 30
0.0
 10
272.4813747183777
 20
41.20586182185795
 30
0.0
 10
272.4715051908809
 20
41.18264099022635
 30
0.0
  0
LINE
  5
17D
330
1F
100
AcDbEntity
  8
0
  6
Continuous
 62
     7
370
    15
100
AcDbLine
 10
270.106392581
 20
41.2009484277
 30
0.0
 11
270.106392581
 21
42.1381481908
 31
0.0
  0
LINE
  5
17E
330
1F
100
AcDbEntity
  8
0
  6
Continuous
 62
     7
370
    15
100
AcDbLine
 10
271.4143787907
 20
40.843731831
 30
0.0
 11
271.4143787907
 21
42.4904854769
 31
0.0
  0
LWPOLYLINE
  5
17F
330
1F
100
AcDbEntity
  8
0
  6
Continuous
 62
     7
370
    15
100
AcDbPolyline
 90
       65
 70
   128
 43
0.0
 10
275.9028206332
 20
38.8389639967
 10
275.0537904719
 20
38.3006639442
 10
274.2129369351
 20
37.6712172693
 10
273.3883579021
 20
36.9566858876
 10
272.5879945198
 20
36.1639511267
 10
271.819554725
 20
35.3006474559
 10
271.0904390131
 20
34.3750889614
 10
270.4076691669
 20
33.3961892775
 10
269.7778206332
 20
32.3733757432
 10
269.2069591978
 20
31.3164986121
 10
268.7005825684
 20
30.2357361886
 10
268.2635674287
 20
29.1414968056
 10
267.9001224733
 20
28.0443185867
 10
267.613747876
 20
26.9547679578
 10
267.4072015806
 20
25.8833378871
 10
267.2824727409
 20
24.8403468319
 10
267.2407625637
 20
23.8358393661
 10
267.2824727409
 20
22.8794894459
 10
267.4072015806
 20
21.9805072438
 10
267.613747876
 20
21.1475504497
 10
267.9001224733
 20
20.388640893
 10
268.2635674287
 20
19.7110872875
 10
268.7005825684
 20
19.1214148449
 10
269.2069591978
 20
18.6253024331
 10
269.7778206332
 20
18.2275278858
 10
270.4076691669
 20
17.9319219895
 10
271.0904390131
 20
17.7413315904
 10
271.819554725
 20
17.6575921783
 10
272.5879945198
 20
17.6815102095
 10
273.3883579021
 20
17.8128553403
 10
274.2129369351
 20
18.0503626453
 10
275.0537904719
 20
18.3917447992
 10
275.9028206332
 20
18.8337141055
 10
276.7518507945
 20
19.3720141579
 10
277.5927043313
 20
20.0014608328
 10
278.4172833643
 20
20.7159922146
 10
279.2176467466
 20
21.5087269754
 10
279.9860865414
 20
22.3720306462
 10
280.7152022533
 20
23.2975891407
 10
281.3979720996
 20
24.2764888246
 10
282.0278206332
 20
25.2993023589
 10
282.5986820686
 20
26.35617949
 10
283.105058698
 20
27.4369419136
 10
283.5420738377
 20
28.5311812965
 10
283.9055187931
 20
29.6283595154
 10
284.1918933904
 20
30.7179101443
 10
284.3984396858
 20
31.789340215
 10
284.5231685256
 20
32.8323312703
 10
284.5648787027
 20
33.836838736
 10
284.5231685256
 20
34.7931886562
 10
284.3984396858
 20
35.6921708583
 10
284.1918933904
 20
36.5251276524
 10
283.9055187931
 20
37.2840372091
 10
283.5420738377
 20
37.9615908146
 10
283.105058698
 20
38.5512632572
 10
282.5986820686
 20
39.047375669
 10
282.0278206332
 20
39.4451502163
 10
281.3979720996
 20
39.7407561126
 10
280.7152022533
 20
39.9313465117
 10
279.9860865414
 20
40.0150859239
 10
279.2176467466
 20
39.9911678927
 10
278.4172833643
 20
39.8598227619
 10
277.5927043313
 20
39.6223154569
 10
276.7518507945
 20
39.2809333029
 10
275.9028206332
 20
38.8389639967
  0
LWPOLYLINE
  5
180
330
1F
100
AcDbEntity
  8
0
  6
Continuous
 62
     7
370
    15
100
AcDbPolyline
 90
       34
 70
   128
 43
0.0
 10
275.7260439379
 20
39.1451502136
 10
274.8729733384
 20
38.6050341543
 10
274.0278676293
 20
37.9746632436
 10
273.1986173348
 20
37.259923085
 10
272.3929649416
 20
36.4674870146
 10
271.6184326088
 20
35.6047537947
 10
270.8822519363
 20
34.6797785327
 10
270.1912964447
 20
33.7011974736
 10
269.5520173991
 20
32.678147365
 10
268.9703835758
 20
31.6201801501
 10
268.4518255331
 20
30.5371737837
 10
268.0011849078
 20
29.4392400045
 10
267.6226692098
 20
28.3366299244
 10
267.3198125384
 20
27.2396383165
 10
267.0954425845
 20
26.1585074961
 10
266.9516542302
 20
25.1033316902
 10
266.8897899884
 20
24.083962791
 10
266.9104274689
 20
23.1099183714
 10
267.0133739852
 20
22.1902928215
 10
267.1976683533
 20
21.3336724374
 10
267.4615898664
 20
20.5480552529
 10
267.8026743604
 20
19.8407763638
 10
268.2177372213
 20
19.2184394427
 10
268.7029031191
 20
18.6868550816
 10
269.2536421904
 20
18.2509865405
 10
269.8648123329
 20
17.9149034066
 10
270.5307072157
 20
17.6817435975
 10
271.2451095576
 20
17.5536840635
 10
272.0013491766
 20
17.531920462
 10
272.792365267
 20
17.6166559939
 10
273.6107723246
 20
17.8070995063
 10
274.4489291034
 20
18.1014728795
 10
275.2990099593
 20
18.4970276286
 10
275.7274804971
 20
18.7324593593
  0
LWPOLYLINE
  5
181
330
1F
100
AcDbEntity
  8
0
  6
Continuous
 62
     7
370
    15
100
AcDbPolyline
 90
       18
 70
   128
 43
0.0
 10
284.5648787027
 20
34.0409407639
 10
284.5622978874
 20
34.2860844429
 10
284.5004336456
 20
35.2340264088
 10
284.3566452913
 20
36.1231877145
 10
284.1322753375
 20
36.9452665004
 10
283.829418666
 20
37.6925872383
 10
283.450902968
 20
38.3581723959
 10
283.0002623427
 20
38.9358075839
 10
282.4817043
 20
39.4200995782
 10
281.9000704767
 20
39.8065266749
 10
281.2607914311
 20
40.0914809083
 10
280.5698359395
 20
40.2723017376
 10
279.833655267
 20
40.3473008873
 10
279.0591229343
 20
40.3157781106
 10
278.253470541
 20
40.1780277273
 10
277.4242202465
 20
39.9353358754
 10
276.5791145374
 20
39.5899685035
 10
275.7260439379
 20
39.1451502136
  0
SPLINE
  5
182
330
1F
100
AcDbEntity
  8
0
  6
Continuous
 62
     7
370
    15
100
AcDbSpline
210
0.0
220
0.0
230
1.0
 70
    11
 71
     3
 72
    77
 73
    73
 74
     0
 42
0.000000001
 43
0.00000001
 40
0.0
 40
0.0
 40
0.0
 40
0.0
 40
0.0312499999999999
 40
0.0312499999999999
 40
0.0624999999999997
 40
0.0624999999999997
 40
0.0937499999999996
 40
0.0937499999999996
 40
0.1249999999999995
 40
0.1249999999999995
 40
0.1562499999999993
 40
0.1562499999999993
 40
0.1874999999999992
 40
0.1874999999999992
 40
0.2187499999999991
 40
0.2187499999999991
 40
0.2499999999999989
 40
0.2499999999999989
 40
0.2812499999999988
 40
0.2812499999999988
 40
0.3124999999999987
 40
0.3124999999999987
 40
0.3437499999999986
 40
0.3437499999999986
 40
0.3593749999999986
 40
0.3593749999999986
 40
0.3749999999999985
 40
0.3906249999999985
 40
0.3906249999999985
 40
0.4062499999999985
 40
0.4062499999999985
 40
0.4374999999999987
 40
0.4374999999999987
 40
0.4687499999999988
 40
0.4687499999999988
 40
0.499999999999999
 40
0.499999999999999
 40
0.5312499999999992
 40
0.5312499999999992
 40
0.5624999999999994
 40
0.5624999999999994
 40
0.5937499999999996
 40
0.5937499999999996
 40
0.6249999999999998
 40
0.6249999999999998
 40
0.65625
 40
0.65625
 40
0.6875000000000002
 40
0.6875000000000002
 40
0.7187500000000004
 40
0.7187500000000004
 40
0.7500000000000006
 40
0.7500000000000006
 40
0.7656250000000008
 40
0.7656250000000008
 40
0.7812500000000009
 40
0.7812500000000009
 40
0.8125000000000008
 40
0.8125000000000008
 40
0.8437500000000007
 40
0.8437500000000007
 40
0.8750000000000006
 40
0.8750000000000006
 40
0.8906250000000004
 40
0.8906250000000004
 40
0.9062500000000004
 40
0.9062500000000004
 40
0.9375000000000002
 40
0.9375000000000002
 40
0.9687500000000001
 40
0.9687500000000001
 40
1.0
 40
1.0
 40
1.0
 40
1.0
 10
271.2741458646506
 20
43.21462993286735
 30
0.0
 10
271.4610636983599
 20
43.18829662604186
 30
0.0
 10
271.6432643419047
 20
43.15253329806219
 30
0.0
 10
271.9992345525878
 20
43.06537916819613
 30
0.0
 10
272.1741845554759
 20
43.01354104340373
 30
0.0
 10
272.5100828372605
 20
42.89710545395
 30
0.0
 10
272.6689672920706
 20
42.8333654719599
 30
0.0
 10
272.9693876821581
 20
42.69611380549033
 30
0.0
 10
273.1121338190044
 20
42.62182553039922
 30
0.0
 10
273.3721474658523
 20
42.46749203516102
 30
0.0
 10
273.4895019156513
 20
42.38764650678061
 30
0.0
 10
273.6990937414737
 20
42.22225461156579
 30
0.0
 10
273.792005352538
 20
42.13581113739873
 30
0.0
 10
273.9454840804585
 20
41.96156270062722
 30
0.0
 10
274.0066749159891
 20
41.87357635023586
 30
0.0
 10
274.0971608351371
 20
41.69432494113978
 30
0.0
 10
274.1263840053658
 20
41.60209473535333
 30
0.0
 10
274.148084148059
 20
41.41955608240599
 30
0.0
 10
274.1412175914713
 20
41.32870498198257
 30
0.0
 10
274.0896947606752
 20
41.14597082497451
 30
0.0
 10
274.0440926341982
 20
41.05340015206041
 30
0.0
 10
273.9162396617985
 20
40.87508913830587
 30
0.0
 10
273.8339834660945
 20
40.78821763328221
 30
0.0
 10
273.6807642588352
 20
40.66076650500402
 30
0.0
 10
273.624659296761
 20
40.61884049940116
 30
0.0
 10
273.5054949517994
 20
40.53834425534688
 30
0.0
 10
273.3786563342665
 20
40.46057072489796
 30
0.0
 10
273.2366225839871
 20
40.38815493053865
 30
0.0
 10
273.0868247243603
 20
40.31851181294221
 30
0.0
 10
273.008001777651
 20
40.28511399769086
 30
0.0
 10
272.7662271365044
 20
40.1918113516568
 30
0.0
 10
272.5960385816969
 20
40.13773033325487
 30
0.0
 10
272.2382056253566
 20
40.04637807110075
 30
0.0
 10
272.0545289152892
 20
40.01024472220764
 30
0.0
 10
271.684300071857
 20
39.95809595364501
 30
0.0
 10
271.4950185381414
 20
39.94189146878324
 30
0.0
 10
271.1241674011977
 20
39.9311731871781
 30
0.0
 10
270.9416664435433
 20
39.93633851505917
 30
0.0
 10
270.5820967629017
 20
39.96857899489467
 30
0.0
 10
270.4064813335781
 20
39.99575088767469
 30
0.0
 10
270.0728305661294
 20
40.07084359028999
 30
0.0
 10
269.9132651815964
 20
40.11887946002851
 30
0.0
 10
269.6088566518844
 20
40.23718864897207
 30
0.0
 10
269.4679549052757
 20
40.30597539203458
 30
0.0
 10
269.2089809825294
 20
40.46164370565906
 30
0.0
 10
269.0903213264864
 20
40.54894572765063
 30
0.0
 10
268.8781844537428
 20
40.74103726092608
 30
0.0
 10
268.7869982367661
 20
40.84360393341563
 30
0.0
 10
268.6338299600878
 20
41.06063917759357
 30
0.0
 10
268.57153608117
 20
41.17590808140729
 30
0.0
 10
268.4802145743323
 20
41.41449553050879
 30
0.0
 10
268.4517624094702
 20
41.53565086741529
 30
0.0
 10
268.4353167423047
 20
41.71903133444707
 30
0.0
 10
268.4342376290428
 20
41.78043462342288
 30
0.0
 10
268.4413759816418
 20
41.90361461220284
 30
0.0
 10
268.4497026717975
 20
41.96575085877041
 30
0.0
 10
268.4888069897172
 20
42.14829680737935
 30
0.0
 10
268.5333738204191
 20
42.26568242760362
 30
0.0
 10
268.6611125461866
 20
42.48997789273261
 30
0.0
 10
268.7459548867323
 20
42.59812296278696
 30
0.0
 10
268.9493187753176
 20
42.79106967069934
 30
0.0
 10
269.0678069533066
 20
42.8769426287982
 30
0.0
 10
269.2717975211439
 20
42.98894125350373
 30
0.0
 10
269.3441142533499
 20
43.02331586412056
 30
0.0
 10
269.4935570032765
 20
43.0845789626629
 30
0.0
 10
269.5711481416416
 20
43.11173895655545
 30
0.0
 10
269.8123218220633
 20
43.18319028831375
 30
0.0
 10
269.9863555359944
 20
43.21759973476885
 30
0.0
 10
270.3422009905761
 20
43.25880947271918
 30
0.0
 10
270.5248074618598
 20
43.2662064500593
 30
0.0
 10
270.89917761323
 20
43.2572754894982
 30
0.0
 10
271.0872280309412
 20
43.24096323969284
 30
0.0
 10
271.2741458646505
 20
43.21462993286735
 30
0.0
  0
LINE
  5
183
330
1F
100
AcDbEntity
  8
0
  6
Continuous
 62
     7
370
    15
100
AcDbLine
 10
280.5232717012
 20
28.6676890316
 30
0.0
 11
282.2844593334
 21
30.8585897028
 31
0.0
  0
SPLINE
  5
184
330
1F
100
AcDbEntity
  8
0
  6
Continuous
 62
     7
370
    15
100
AcDbSpline
210
0.0
220
0.0
230
1.0
 70
     8
 71
     3
 72
    22
 73
    18
 74
     0
 42
0.000000001
 43
0.00000001
 40
0.0
 40
0.0
 40
0.0
 40
0.0
 40
0.0500000000000109
 40
0.0999999999999997
 40
0.1499999999999999
 40
0.2
 40
0.2500000000000001
 40
0.2968749999999668
 40
0.34375
 40
0.3906249999999997
 40
0.4374999999999987
 40
0.5292946909502638
 40
0.5292946909502638
 40
0.53125
 40
0.6250000000000003
 40
0.8125
 40
0.8968030376395041
 40
0.8968030376395041
 40
0.8968030376395041
 40
0.8968030376395041
 10
282.2844593334115
 20
30.85858970281003
 30
0.0
 10
282.3656590154148
 20
30.95960133527126
 30
0.0
 10
282.525248407038
 20
31.17961468766411
 30
0.0
 10
282.7444241441616
 20
31.55581075030224
 30
0.0
 10
282.9312849283662
 20
31.97310065827762
 30
0.0
 10
283.0686197691744
 20
32.41275863768985
 30
0.0
 10
283.1392930808798
 20
32.83991966110033
 30
0.0
 10
283.1388136605213
 20
33.22942444570923
 30
0.0
 10
283.0704914872852
 20
33.561595634994
 30
0.0
 10
282.9387662749086
 20
33.82859570149638
 30
0.0
 10
282.6987884070649
 20
34.08181256391027
 30
0.0
 10
282.4542292393441
 20
34.16588472232921
 30
0.0
 10
282.281649355233
 20
34.18238068728435
 30
0.0
 10
282.1175451990917
 20
34.19810372630576
 30
0.0
 10
281.7083311763456
 20
34.2327354040661
 30
0.0
 10
281.3626983276274
 20
34.26465123527042
 30
0.0
 10
280.7315981353696
 20
34.32110635327754
 30
0.0
 10
280.5232247947094
 20
34.33972314728794
 30
0.0
  0
SPLINE
  5
185
330
1F
100
AcDbEntity
  8
0
  6
Continuous
 62
     7
370
    15
100
AcDbSpline
210
0.0
220
0.0
230
1.0
 70
     8
 71
     3
 72
    22
 73
    18
 74
     0
 42
0.000000001
 43
0.00000001
 40
0.0
 40
0.0
 40
0.0
 40
0.0
 40
0.0500000000000109
 40
0.0999999999999997
 40
0.1499999999999999
 40
0.2
 40
0.2500000000000001
 40
0.2968749999999668
 40
0.34375
 40
0.3906249999999997
 40
0.4374999999999987
 40
0.5292946909502638
 40
0.5292946909502638
 40
0.53125
 40
0.6250000000000003
 40
0.8125
 40
0.8955927989355216
 40
0.8955927989355216
 40
0.8955927989355216
 40
0.8955927989355216
 10
269.5211819329945
 20
23.4905064936102
 30
0.0
 10
269.4409260044548
 20
23.49768258299881
 30
0.0
 10
269.2799548620993
 20
23.53356149605613
 30
0.0
 10
269.061334482489
 20
23.65665297786366
 30
0.0
 10
268.8743248943293
 20
23.85821133606079
 30
0.0
 10
268.7370299118282
 20
24.13930226694363
 30
0.0
 10
268.6663461922928
 20
24.48486674402448
 30
0.0
 10
268.6668277627046
 20
24.87492419020894
 30
0.0
 10
268.7351510983338
 20
25.28598085517425
 30
0.0
 10
268.8668695578253
 20
25.70505896706125
 30
0.0
 10
269.1068815317811
 20
26.23539088573103
 30
0.0
 10
269.3512875240089
 20
26.6016344779445
 30
0.0
 10
269.5239866379155
 20
26.81753525020198
 30
0.0
 10
269.6882173551164
 20
27.02288634938847
 30
0.0
 10
270.0985278782183
 20
27.5313505287624
 30
0.0
 10
270.4344608610126
 20
27.95025565858744
 30
0.0
 10
271.0751272727664
 20
28.74726694271287
 30
0.0
 10
271.282416888798
 20
29.00511919959042
 30
0.0
  0
LINE
  5
186
330
1F
100
AcDbEntity
  8
0
  6
Continuous
 62
     7
370
    15
100
AcDbLine
 10
271.2823695652
 20
23.3330297799
 30
0.0
 11
269.521181933
 21
23.4905064936
 31
0.0
  0
ARC
  5
187
330
1F
100
AcDbEntity
  8
0
  6
Continuous
 62
     7
370
    15
100
AcDbCircle
 10
270.8465989184
 20
43.7574462902
 30
0.0
 40
5.354193028728133
100
AcDbArc
 50
43.604287233
 51
76.4084550401
  0
ARC
  5
188
330
1F
100
AcDbEntity
  8
0
  6
Continuous
 62
     7
370
    15
100
AcDbCircle
 10
260.4531819505
 20
25.7535040478
 30
0.0
 40
5.354629804198116
100
AcDbArc
 50
223.5020380153
 51
256.5827881878
  0
ARC
  5
189
330
1F
100
AcDbEntity
  8
0
  6
Continuous
 62
     7
370
    15
100
AcDbCircle
 10
260.0104424985
 20
27.7683197712
 30
0.0
 40
6.89084799055098
100
AcDbArc
 50
188.312493873
 51
236.7139908619
  0
SPLINE
  5
18A
330
1F
100
AcDbEntity
  8
0
  6
Continuous
 62
     7
370
    15
100
AcDbSpline
210
0.0
220
0.0
230
1.0
 70
     8
 71
     3
 72
    29
 73
    25
 74
     0
 42
0.000000001
 43
0.00000001
 40
0.0
 40
0.0
 40
0.0
 40
0.0
 40
0.0226170105016674
 40
0.0451713142211041
 40
0.0676870228449807
 40
0.090188372120831
 40
0.1126996441629423
 40
0.1352450890127045
 40
0.1578488467149011
 40
0.1805348711521328
 40
0.2033268568146046
 40
0.2262481695760157
 40
0.2493217824052029
 40
0.3751991801868492
 40
0.499961424646005
 40
0.4999717960761217
 40
0.6247044141102638
 40
0.7509557879397657
 40
0.7931713871186022
 40
0.8349081045046313
 40
0.8763104515914815
 40
0.9175264576320521
 40
0.9587061619408423
 40
1.0
 40
1.0
 40
1.0
 40
1.0
 10
253.1921491210699
 20
31.92634962761991
 30
0.0
 10
253.210514346192
 20
31.87750973782148
 30
0.0
 10
253.2471938779398
 20
31.77996536923896
 30
0.0
 10
253.2988837066028
 20
31.63250275984143
 30
0.0
 10
253.3480650664239
 20
31.48456547032415
 30
0.0
 10
253.3945547363219
 20
31.33607360509519
 30
0.0
 10
253.4384648327804
 20
31.18708163896401
 30
0.0
 10
253.4798300242359
 20
31.03760985038584
 30
0.0
 10
253.518707310941
 20
30.88768974707589
 30
0.0
 10
253.5551491559645
 20
30.73735093709227
 30
0.0
 10
253.5892111370531
 20
30.58662848546368
 30
0.0
 10
253.6209481901527
 20
30.43554678872344
 30
0.0
 10
253.6941064620272
 20
30.05982558177193
 30
0.0
 10
253.7797830020666
 20
29.47105516005546
 30
0.0
 10
253.8055153638834
 20
28.96957155604904
 30
0.0
 10
253.8059525201185
 20
28.49911873080531
 30
0.0
 10
253.7805214633991
 20
28.05267620091766
 30
0.0
 10
253.688554147361
 20
27.61664952942792
 30
0.0
 10
253.5960002533158
 20
27.34845664680535
 30
0.0
 10
253.5324176294271
 20
27.20220553597087
 30
0.0
 10
253.4607721253915
 20
27.07128520412499
 30
0.0
 10
253.3805173510789
 20
26.95583887167439
 30
0.0
 10
253.2921156914848
 20
26.85431686722944
 30
0.0
 10
253.2257590375729
 20
26.79931799026687
 30
0.0
 10
253.1925347956875
 20
26.77178049577444
 30
0.0
  0
LWPOLYLINE
  5
18B
330
1F
100
AcDbEntity
  8
0
  6
Continuous
 62
     7
370
    15
100
AcDbPolyline
 90
       27
 70
   128
 43
0.0
 10
253.1919303799
 20
31.9264759042
 10
253.4225683944
 20
33.1269722406
 10
253.7313544918
 20
34.3459166153
 10
254.1160292974
 20
35.5743900649
 10
254.5737781624
 20
36.8034039023
 10
255.1012517581
 20
38.0239654863
 10
255.6945905829
 20
39.2271440205
 10
256.3494532023
 20
40.4041358996
 10
257.0610480148
 20
41.5463291247
 10
257.8241683119
 20
42.6453663173
 10
258.6332303753
 20
43.6932058699
 10
259.4823143328
 20
44.6821807856
 10
260.3652074738
 20
45.6050547777
 10
261.2754497074
 20
46.4550752171
 10
262.2063808303
 20
47.2260225408
 10
263.1511892598
 20
47.9122557607
 10
264.1029618734
 20
48.5087537379
 10
265.054734592
 20
49.0111519225
 10
265.9995433357
 20
49.4157742886
 10
266.9304749798
 20
49.7196602318
 10
267.8407179375
 20
49.9205862319
 10
268.7236120005
 20
50.017082122
 10
269.5726970711
 20
50.0084418458
 10
270.3817604305
 20
49.8947286238
 10
271.144882197
 20
49.6767744908
 10
271.8564786415
 20
49.3561742078
 10
271.9773362417
 20
49.2885138166
  0
SPLINE
  5
18C
330
1F
100
AcDbEntity
  8
0
  6
Continuous
 62
     7
370
    15
100
AcDbSpline
210
0.0
220
0.0
230
1.0
 70
     8
 71
     3
 72
    11
 73
     7
 74
     0
 42
0.000000001
 43
0.00000001
 40
0.0
 40
0.0
 40
0.0
 40
0.0
 40
0.2800100182250712
 40
0.594784293803742
 40
0.9095449452928662
 40
1.0
 40
1.0
 40
1.0
 40
1.0
 10
269.4327935853461
 20
23.82036928615669
 30
0.0
 10
269.3101792330439
 20
23.84842051815754
 30
0.0
 10
269.049727512757
 20
23.90800564415307
 30
0.0
 10
268.7885560880613
 20
24.24683540825708
 30
0.0
 10
268.6552991328833
 20
24.61682655867296
 30
0.0
 10
268.6818860982088
 20
24.87927056995431
 30
0.0
 10
268.6878210246351
 20
24.93785513870376
 30
0.0
  0
SPLINE
  5
18D
330
1F
100
AcDbEntity
  8
0
  6
Continuous
 62
     7
370
    15
100
AcDbSpline
210
0.0
220
0.0
230
1.0
 70
     8
 71
     3
 72
    12
 73
     8
 74
     0
 42
0.000000001
 43
0.00000001
 40
0.0
 40
0.0
 40
0.0
 40
0.0
 40
0.2500000000000001
 40
0.2500000000000001
 40
0.5000000000000002
 40
0.5000000000000002
 40
1.0
 40
1.0
 40
1.0
 40
1.0
 10
271.4573067183616
 20
29.24973633048891
 30
0.0
 10
271.4530552401313
 20
29.23830352814272
 30
0.0
 10
271.4429176036379
 20
29.22102268597647
 30
0.0
 10
271.4179254705896
 20
29.18287424691385
 30
0.0
 10
271.4028239399937
 20
29.16158864608009
 30
0.0
 10
271.355166277238
 20
29.09682097482212
 30
0.0
 10
271.3193659629077
 20
29.05108099126691
 30
0.0
 10
271.2824168887977
 20
29.00511919959009
 30
0.0
  0
SPLINE
  5
18E
330
1F
100
AcDbEntity
  8
0
  6
Continuous
 62
     7
370
    15
100
AcDbSpline
210
0.0
220
0.0
230
1.0
 70
     8
 71
     3
 72
    16
 73
    12
 74
     0
 42
0.000000001
 43
0.00000001
 40
0.0
 40
0.0
 40
0.0
 40
0.0
 40
0.2500000000000033
 40
0.2500000000000033
 40
0.5000000000000066
 40
0.5000000000000066
 40
0.6250000000000082
 40
0.6250000000000082
 40
0.7500000000000098
 40
0.7500000000000098
 40
1.0
 40
1.0
 40
1.0
 40
1.0
 10
280.523224794711
 20
34.33972314728779
 30
0.0
 10
280.4915745566265
 20
34.34255088888339
 30
0.0
 10
280.4574458303809
 20
34.34403600637513
 30
0.0
 10
280.3802671863518
 20
34.34217435127311
 30
0.0
 10
280.3365719558999
 20
34.33897483273957
 30
0.0
 10
280.2628573658837
 20
34.32512991580283
 30
0.0
 10
280.2369390489679
 20
34.31881110227277
 30
0.0
 10
280.1887358017571
 20
34.30324663116534
 30
0.0
 10
280.1663887102719
 20
34.29393877214356
 30
0.0
 10
280.1115721663543
 20
34.26588222621091
 30
0.0
 10
280.0895925269729
 20
34.24751561882508
 30
0.0
 10
280.0733709142981
 20
34.23040571688768
 30
0.0
  0
SPLINE
  5
18F
330
1F
100
AcDbEntity
  8
0
  6
Continuous
 62
     7
370
    15
100
AcDbSpline
210
0.0
220
0.0
230
1.0
 70
     8
 71
     3
 72
     8
 73
     4
 74
     0
 42
0.000000001
 43
0.00000001
 40
0.0
 40
0.0
 40
0.0
 40
0.0
 40
1.0
 40
1.0
 40
1.0
 40
1.0
 10
280.073370914298
 20
34.23040571688769
 30
0.0
 10
280.0221409470536
 20
34.24986248548658
 30
0.0
 10
279.9714229550172
 20
34.27222923457983
 30
0.0
 10
279.9323986839688
 20
34.29475746672916
 30
0.0
  0
LINE
  5
190
330
1F
100
AcDbEntity
  8
0
  6
Continuous
 62
     7
370
    15
100
AcDbLine
 10
278.1119125418
 20
35.3457017466
 30
0.0
 11
279.932398684
 21
34.2947574667
 31
0.0
  0
ARC
  5
191
330
1F
100
AcDbEntity
  8
0
  6
Continuous
 62
     7
370
    15
100
AcDbCircle
 10
267.3382741812
 20
34.5512301847
 30
0.0
 40
8.700543724468105
100
AcDbArc
 50
338.0288028462
 51
1.7614068965
  0
LINE
  5
192
330
1F
100
AcDbEntity
  8
0
  6
Continuous
 62
     7
370
    15
100
AcDbLine
 10
275.4069152844
 20
31.2960048699
 30
0.0
 11
279.932398684
 21
28.683498912
 31
0.0
  0
LINE
  5
193
330
1F
100
AcDbEntity
  8
0
  6
Continuous
 62
     7
370
    15
100
AcDbLine
 10
268.7371080873
 20
25.1883725429
 30
0.0
 11
271.3075571575
 21
23.7044838801
 31
0.0
  0
SPLINE
  5
194
330
1F
100
AcDbEntity
  8
0
  6
Continuous
 62
     7
370
    15
100
AcDbSpline
210
0.0
220
0.0
230
1.0
 70
     8
 71
     3
 72
     8
 73
     4
 74
     0
 42
0.000000001
 43
0.00000001
 40
0.0
 40
0.0
 40
0.0
 40
0.0
 40
1.0
 40
1.0
 40
1.0
 40
1.0
 10
252.4139939828948
 20
35.20525303112426
 30
0.0
 10
251.720922747842
 20
35.08939141274955
 30
0.0
 10
251.0273019814457
 20
34.97463271959649
 30
0.0
 10
250.3333228206183
 20
34.86062117195833
 30
0.0
  0
SPLINE
  5
195
330
1F
100
AcDbEntity
  8
0
  6
Continuous
 62
     7
370
    15
100
AcDbSpline
210
0.0
220
0.0
230
1.0
 70
     8
 71
     3
 72
     8
 73
     4
 74
     0
 42
0.000000001
 43
0.00000001
 40
0.0
 40
0.0
 40
0.0
 40
0.0
 40
0.0012389803509652
 40
0.0012389803509652
 40
0.0012389803509652
 40
0.0012389803509652
 10
249.8595864064729
 20
35.13415529271234
 30
0.0
 10
250.0176597414539
 20
35.04288421226183
 30
0.0
 10
250.1755779204198
 20
34.95170268516158
 30
0.0
 10
250.3333228206183
 20
34.86062117195834
 30
0.0
  0
LWPOLYLINE
  5
196
330
1F
100
AcDbEntity
  8
0
  6
Continuous
 62
     7
370
    15
100
AcDbPolyline
 90
       28
 70
   128
 43
0.0
 10
249.8595864065
 20
35.1341552927
 10
250.1664018842
 20
36.3555556798
 10
250.5495608063
 20
37.5868371643
 10
251.0062460055
 20
38.8189467764
 10
251.5330997139
 20
40.0428254574
 10
252.1262482513
 20
41.2494746666
 10
252.7813305062
 20
42.4300225424
 10
253.4935300009
 20
43.5757891327
 10
254.2576103044
 20
44.678350214
 10
255.0679535332
 20
45.7295992304
 10
255.9186016567
 20
46.7218068969
 10
256.8033003033
 20
47.6476780285
 10
257.715544746
 20
48.5004051784
 10
258.6486277276
 20
49.273718689
 10
259.5956887763
 20
49.9619327899
 10
260.5497646467
 20
50.5599874022
 10
261.5038405171
 20
51.0634853427
 10
262.4509015658
 20
51.4687246538
 10
263.3839845474
 20
51.7727258225
 10
264.2962289901
 20
51.9732536869
 10
265.1809276367
 20
52.0688338705
 10
266.0315757602
 20
52.058763622
 10
266.841918989
 20
51.9431169826
 10
267.6059992924
 20
51.7227442418
 10
268.3181987871
 20
51.3992656853
 10
268.9732810421
 20
50.9750596819
 10
269.5664295795
 20
50.4532451968
 10
269.9977616648
 20
49.9625361564
  0
LINE
  5
197
330
1F
100
AcDbEntity
  8
0
  6
Continuous
 62
     7
370
    15
100
AcDbLine
 10
246.8278660821
 20
36.8843301824
 30
0.0
 11
249.8595864065
 21
35.1341552927
 31
0.0
  0
ARC
  5
198
330
1F
100
AcDbEntity
  8
0
  6
Continuous
 62
     7
370
    15
100
AcDbCircle
 10
262.7163820613
 20
48.4434333218
 30
0.0
 40
5.361984590541929
100
AcDbArc
 50
60.0613041787
 51
76.5206840992
  0
LINE
  5
199
330
1F
100
AcDbEntity
  8
0
  6
Continuous
 62
     7
370
    15
100
AcDbLine
 10
252.8165893854
 20
35.1440906404
 30
0.0
 11
252.8072667344
 21
35.1494724922
 31
0.0
  0
SPLINE
  5
19A
330
1F
100
AcDbEntity
  8
0
  6
Continuous
 62
     7
370
    15
100
AcDbSpline
210
0.0
220
0.0
230
1.0
 70
     8
 71
     3
 72
    10
 73
     6
 74
     0
 42
0.000000001
 43
0.00000001
 40
0.0
 40
0.0
 40
0.0
 40
0.0
 40
0.2385418297506325
 40
0.7122529297936188
 40
1.0
 40
1.0
 40
1.0
 40
1.0
 10
253.731103416293
 20
34.344863586315
 30
0.0
 10
253.6661170128151
 20
34.42478262136014
 30
0.0
 10
253.4720765951562
 20
34.66340981272818
 30
0.0
 10
253.1601427429057
 20
34.92817796744844
 30
0.0
 10
252.9108097230755
 20
35.08487606858461
 30
0.0
 10
252.8165893853539
 20
35.14409064040287
 30
0.0
  0
LINE
  5
19B
330
1F
100
AcDbEntity
  8
0
  6
Continuous
 62
     7
370
    15
100
AcDbLine
 10
271.3787169615
 20
23.6463744132
 30
0.0
 11
269.4327935853
 21
23.8203692862
 31
0.0
  0
SPLINE
  5
19C
330
1F
100
AcDbEntity
  8
0
  6
Continuous
 62
     7
370
    15
100
AcDbSpline
210
0.0
220
0.0
230
1.0
 70
     8
 71
     3
 72
    16
 73
    12
 74
     0
 42
0.000000001
 43
0.00000001
 40
0.0
 40
0.0
 40
0.0
 40
0.0
 40
0.2499999999999937
 40
0.2499999999999937
 40
0.4999999999999873
 40
0.4999999999999873
 40
0.6249999999999878
 40
0.6249999999999878
 40
0.7499999999999883
 40
0.7499999999999883
 40
1.0
 40
1.0
 40
1.0
 40
1.0
 10
271.2823695652451
 20
23.33302977993802
 30
0.0
 10
271.3136306238905
 20
23.330234570222
 30
0.0
 10
271.3445607665207
 20
23.33083809094079
 30
0.0
 10
271.4012166783994
 20
23.34474233634091
 30
0.0
 10
271.4280578639837
 20
23.35765125897402
 30
0.0
 10
271.4534099545211
 20
23.39956133853241
 30
0.0
 10
271.4588445752782
 20
23.4176982874512
 30
0.0
 10
271.4599661766204
 20
23.46032754183841
 30
0.0
 10
271.4556033291079
 20
23.4848705533773
 30
0.0
 10
271.4323597667901
 20
23.55815052083125
 30
0.0
 10
271.4062315994033
 20
23.60417457042307
 30
0.0
 10
271.3787169615045
 20
23.64637441319493
 30
0.0
  0
SPLINE
  5
19D
330
1F
100
AcDbEntity
  8
0
  6
Continuous
 62
     7
370
    15
100
AcDbSpline
210
0.0
220
0.0
230
1.0
 70
     8
 71
     3
 72
     8
 73
     4
 74
     0
 42
0.000000001
 43
0.00000001
 40
0.0
 40
0.0
 40
0.0
 40
0.0
 40
1.0
 40
1.0
 40
1.0
 40
1.0
 10
271.3075571574879
 20
23.70448388012301
 30
0.0
 10
271.3465446481865
 20
23.68197688081767
 30
0.0
 10
271.3689623153099
 20
23.66212469350083
 30
0.0
 10
271.3787169615045
 20
23.64637441319494
 30
0.0
  0
SPLINE
  5
19E
330
1F
100
AcDbEntity
  8
0
  6
Continuous
 62
     7
370
    15
100
AcDbSpline
210
0.0
220
0.0
230
1.0
 70
     8
 71
     3
 72
    10
 73
     6
 74
     0
 42
0.000000001
 43
0.00000001
 40
0.0
 40
0.0
 40
0.0
 40
0.0
 40
0.5
 40
0.5
 40
1.0
 40
1.0
 40
1.0
 40
1.0
 10
252.8072667344468
 20
35.1494724922156
 30
0.0
 10
252.757466135634
 20
35.17822176596472
 30
0.0
 10
252.69243421889
 20
35.19898511132539
 30
0.0
 10
252.5553758585446
 20
35.21793880071316
 30
0.0
 10
252.4818370184948
 20
35.21659443948537
 30
0.0
 10
252.4139939828948
 20
35.20525303112426
 30
0.0
  0
SPLINE
  5
19F
330
1F
100
AcDbEntity
  8
0
  6
Continuous
 62
     7
370
    15
100
AcDbSpline
210
0.0
220
0.0
230
1.0
 70
     8
 71
     3
 72
     8
 73
     4
 74
     0
 42
0.000000001
 43
0.00000001
 40
0.0
 40
0.0
 40
0.0
 40
0.0
 40
1.0
 40
1.0
 40
1.0
 40
1.0
 10
246.6710414745744
 20
36.97485186162113
 30
0.0
 10
246.6934202710939
 20
36.96193991016928
 30
0.0
 10
246.7476077021111
 20
36.93066235901226
 30
0.0
 10
246.8278660821355
 20
36.88433018243227
 30
0.0
  0
LINE
  5
1A0
330
1F
100
AcDbEntity
  8
0
  6
Continuous
 62
     7
370
    15
100
AcDbLine
 10
246.6710414746
 20
36.9748518616
 30
0.0
 11
246.6941905823
 21
37.1213862788
 31
0.0
  0
SPLINE
  5
1A1
330
1F
100
AcDbEntity
  8
0
  6
Continuous
 62
     7
370
    15
100
AcDbSpline
210
0.0
220
0.0
230
1.0
 70
     8
 71
     3
 72
    11
 73
     7
 74
     0
 42
0.000000001
 43
0.00000001
 40
0.0
 40
0.0
 40
0.0
 40
0.0
 40
0.31051574099861
 40
0.5915933465014817
 40
0.8435752121776421
 40
0.9999999999999999
 40
0.9999999999999999
 40
0.9999999999999999
 40
0.9999999999999999
 10
253.3005744703536
 20
27.49790923453495
 30
0.0
 10
253.3915738288061
 20
27.58937866612272
 30
0.0
 10
253.5649454421847
 20
27.7636458609566
 30
0.0
 10
253.7152349271564
 20
28.18217298336794
 30
0.0
 10
253.7893138599896
 20
28.59330818279975
 30
0.0
 10
253.7968550036557
 20
28.88804594045909
 30
0.0
 10
253.7997433547338
 20
29.00093413855811
 30
0.0
  0
SPLINE
  5
1A2
330
1F
100
AcDbEntity
  8
0
  6
Continuous
 62
     7
370
    15
100
AcDbSpline
210
0.0
220
0.0
230
1.0
 70
     8
 71
     3
 72
     9
 73
     5
 74
     0
 42
0.000000001
 43
0.00000001
 40
0.0
 40
0.0
 40
0.0
 40
0.0
 40
0.5067661695379747
 40
1.0
 40
1.0
 40
1.0
 40
1.0
 10
253.1918530058811
 20
26.77127846799079
 30
0.0
 10
253.2101220231926
 20
26.89373282182079
 30
0.0
 10
253.2461722144042
 20
27.13537159171271
 30
0.0
 10
253.282852953841
 20
27.37752198984188
 30
0.0
 10
253.3009451354576
 20
27.49695875825904
 30
0.0
  0
SPLINE
  5
1A3
330
1F
100
AcDbEntity
  8
0
  6
Continuous
 62
     7
370
    15
100
AcDbSpline
210
0.0
220
0.0
230
1.0
 70
     8
 71
     3
 72
    10
 73
     6
 74
     0
 42
0.000000001
 43
0.00000001
 40
0.0
 40
0.0
 40
0.0
 40
0.0
 40
0.4807908150150783
 40
0.9757817590329645
 40
1.0
 40
1.0
 40
1.0
 40
1.0
 10
252.8165893853538
 20
28.57093710472259
 30
0.0
 10
252.9663803322541
 20
28.49076672936055
 30
0.0
 10
253.2703862930355
 20
28.32805815122216
 30
0.0
 10
253.5600017372341
 20
28.21655672050073
 30
0.0
 10
253.6943401679128
 20
28.18832510302142
 30
0.0
 10
253.7006063137734
 20
28.1870082539849
 30
0.0
  0
SPLINE
  5
1A4
330
1F
100
AcDbEntity
  8
0
  6
Continuous
 62
     7
370
    15
100
AcDbSpline
210
0.0
220
0.0
230
1.0
 70
     8
 71
     3
 72
     8
 73
     4
 74
     0
 42
0.000000001
 43
0.00000001
 40
0.0
 40
0.0
 40
0.0
 40
0.0
 40
1.0
 40
1.0
 40
1.0
 40
1.0
 10
279.9323986839688
 20
28.68349891204555
 30
0.0
 10
279.9713861746674
 20
28.6609919127402
 30
0.0
 10
280.0221339547861
 20
28.65749435153747
 30
0.0
 10
280.073370914308
 20
28.66569130098437
 30
0.0
  0
SPLINE
  5
1A5
330
1F
100
AcDbEntity
  8
0
  6
Continuous
 62
     7
370
    15
100
AcDbSpline
210
0.0
220
0.0
230
1.0
 70
     8
 71
     3
 72
    16
 73
    12
 74
     0
 42
0.000000001
 43
0.00000001
 40
0.0
 40
0.0
 40
0.0
 40
0.0
 40
0.2500000000000037
 40
0.2500000000000037
 40
0.3750000000000055
 40
0.3750000000000055
 40
0.5000000000000073
 40
0.5000000000000073
 40
0.7500000000000037
 40
0.7500000000000037
 40
1.0
 40
1.0
 40
1.0
 40
1.0
 10
280.0733709143081
 20
28.66569130098435
 30
0.0
 10
280.0895001369318
 20
28.61690223770248
 30
0.0
 10
280.1119064456536
 20
28.56777619660496
 30
0.0
 10
280.1662322678856
 20
28.51353660620137
 30
0.0
 10
280.1882987635485
 20
28.49921622239037
 30
0.0
 10
280.2366449527772
 20
28.48488112766602
 30
0.0
 10
280.2627299181713
 20
28.48490045890523
 30
0.0
 10
280.3364675914157
 20
28.50036901136308
 30
0.0
 10
280.3799437494549
 20
28.52806964538713
 30
0.0
 10
280.4572514141697
 20
28.59144482515596
 30
0.0
 10
280.4919048165979
 20
28.62866892539032
 30
0.0
 10
280.5232717011609
 20
28.66768903158729
 30
0.0
  0
SPLINE
  5
1A6
330
1F
100
AcDbEntity
  8
0
  6
Continuous
 62
     7
370
    15
100
AcDbSpline
210
0.0
220
0.0
230
1.0
 70
     8
 71
     3
 72
    30
 73
    26
 74
     0
 42
0.000000001
 43
0.00000001
 40
0.0
 40
0.0
 40
0.0
 40
0.0
 40
0.1249999999999992
 40
0.1249999999999992
 40
0.1874999999999993
 40
0.1874999999999993
 40
0.2499999999999994
 40
0.2499999999999994
 40
0.3124999999999995
 40
0.3124999999999995
 40
0.3749999999999997
 40
0.3749999999999997
 40
0.4374999999999998
 40
0.4374999999999998
 40
0.5
 40
0.5
 40
0.6250000000000002
 40
0.6250000000000002
 40
0.6875000000000001
 40
0.6875000000000001
 40
0.7500000000000001
 40
0.7500000000000001
 40
0.875
 40
0.875
 40
1.0
 40
1.0
 40
1.0
 40
1.0
 10
282.0192942904666
 20
31.08640148137878
 30
0.0
 10
282.1325843808652
 20
31.22733327680597
 30
0.0
 10
282.234882547992
 20
31.37712369849181
 30
0.0
 10
282.3707572379018
 20
31.61559022224756
 30
0.0
 10
282.4134085381148
 20
31.698014740334
 30
0.0
 10
282.490853461897
 20
31.86361305295792
 30
0.0
 10
282.5257320151421
 20
31.94688802328849
 30
0.0
 10
282.5879937171655
 20
32.11435528180202
 30
0.0
 10
282.615397750941
 20
32.1985361621967
 30
0.0
 10
282.662559461464
 20
32.36780298370802
 30
0.0
 10
282.6821128990673
 20
32.45234714999214
 30
0.0
 10
282.7127898479347
 20
32.61737448684458
 30
0.0
 10
282.7240366314037
 20
32.6984347876181
 30
0.0
 10
282.7385060474406
 20
32.85756089493918
 30
0.0
 10
282.7417569307065
 20
32.93609313964406
 30
0.0
 10
282.7392392236193
 20
33.16318177193568
 30
0.0
 10
282.7217488186017
 20
33.3014968883641
 30
0.0
 10
282.6725424551619
 20
33.48919220764004
 30
0.0
 10
282.6521778608234
 20
33.54842253248677
 30
0.0
 10
282.6047073941581
 20
33.65673983766591
 30
0.0
 10
282.5774863730738
 20
33.7063279344839
 30
0.0
 10
282.4854614796051
 20
33.84149050777269
 30
0.0
 10
282.4092228157267
 20
33.91377912266739
 30
0.0
 10
282.2335376423151
 20
34.01540548682146
 30
0.0
 10
282.1325946040435
 20
34.04628008548635
 30
0.0
 10
282.0192942909633
 20
34.05641084363533
 30
0.0
  0
LINE
  5
1A7
330
1F
100
AcDbEntity
  8
0
  6
Continuous
 62
     7
370
    15
100
AcDbLine
 10
282.019294291
 20
34.0564108436
 30
0.0
 11
280.0733709143
 21
34.2304057169
 31
0.0
  0
LINE
  5
1A8
330
1F
100
AcDbEntity
  8
0
  6
Continuous
 62
     7
370
    15
100
AcDbLine
 10
247.1044747221
 20
36.7245955034
 30
0.0
 11
246.6710414746
 21
36.9748518616
 31
0.0
  0
LINE
  5
1A9
330
1F
100
AcDbEntity
  8
0
  6
Continuous
 62
     7
370
    15
100
AcDbLine
 10
250.3333228206
 20
34.860621172
 30
0.0
 11
247.1044747221
 21
36.7245955034
 31
0.0
  0
SPLINE
  5
1AA
330
1F
100
AcDbEntity
  8
0
  6
Continuous
 62
     7
370
    15
100
AcDbSpline
210
0.0
220
0.0
230
1.0
 70
     8
 71
     3
 72
    11
 73
     7
 74
     0
 42
0.000000001
 43
0.00000001
 40
0.0
 40
0.0
 40
0.0
 40
0.0
 40
0.2162755946415487
 40
0.524817923293023
 40
0.8333978918991285
 40
1.0
 40
1.0
 40
1.0
 40
1.0
 10
249.2095396434108
 20
32.71076955763638
 30
0.0
 10
249.2048221593029
 20
32.91716112644395
 30
0.0
 10
249.1933746345984
 20
33.41799430970856
 30
0.0
 10
249.1281884752707
 20
34.23678768543321
 30
0.0
 10
249.0874337086698
 20
34.99842620906968
 30
0.0
 10
249.108833516019
 20
35.43312500111607
 30
0.0
 10
249.1163364358303
 20
35.58553339085527
 30
0.0
  0
LINE
  5
1AB
330
1F
100
AcDbEntity
  8
0
  6
Continuous
 62
     7
370
    15
100
AcDbLine
 10
249.2095396434
 20
32.2904142022
 30
0.0
 11
249.2095396434
 21
32.7107695576
 31
0.0
  0
LINE
  5
1AC
330
1F
100
AcDbEntity
  8
0
  6
Continuous
 62
     7
370
    15
100
AcDbLine
 10
248.5996600446
 20
35.5257830173
 30
0.0
 11
248.6048479393
 21
35.8584484816
 31
0.0
  0
ARC
  5
1AD
330
1F
100
AcDbEntity
  8
0
  6
Continuous
 62
     7
370
    15
100
AcDbCircle
 10
256.1534896316
 20
35.3515302171
 30
0.0
 40
7.555839163670112
100
AcDbArc
 50
178.6785272924
 51
203.2171026327
  0
LINE
  5
1AE
330
1F
100
AcDbEntity
  8
0
  6
Continuous
 62
     7
370
    15
100
AcDbLine
 10
230.121437253
 20
47.9078313137
 30
0.0
 11
230.0861566196
 21
47.9382648911
 31
0.0
  0
ARC
  5
1AF
330
1F
100
AcDbEntity
  8
0
  6
Continuous
 62
     7
370
    15
100
AcDbCircle
 10
274.7891140779
 20
35.8908947284
 30
0.0
 40
3.360506813818849
100
AcDbArc
 50
320.6498369943
 51
350.7253969509
  0
LINE
  5
1B0
330
1F
100
AcDbEntity
  8
0
  6
Continuous
 62
     7
370
    15
100
AcDbLine
 10
280.0733709143
 20
28.665691301
 30
0.0
 11
282.0192942905
 21
31.0864014814
 31
0.0
  0
LINE
  5
1B1
330
1F
100
AcDbEntity
  8
0
  6
Continuous
 62
     7
370
    15
100
AcDbLine
 10
275.4069152844
 20
31.2960048699
 30
0.0
 11
277.3877448737
 21
33.7601380476
 31
0.0
  0
LINE
  5
1B2
330
1F
100
AcDbEntity
  8
0
  6
Continuous
 62
     7
370
    15
100
AcDbLine
 10
252.8072667344
 20
28.5763189565
 30
0.0
 11
252.8165893854
 21
28.5709371047
 31
0.0
  0
ARC
  5
1B3
330
1F
100
AcDbEntity
  8
0
  6
Continuous
 62
     7
370
    15
100
AcDbCircle
 10
255.6344825005
 20
29.2232199425
 30
0.0
 40
5.919642220385726
100
AcDbArc
 50
192.6964501328
 51
260.4756565155
  0
SPLINE
  5
1B4
330
1F
100
AcDbEntity
  8
0
  6
Continuous
 62
     7
370
    15
100
AcDbSpline
210
0.0
220
0.0
230
1.0
 70
     8
 71
     3
 72
     8
 73
     4
 74
     0
 42
0.000000001
 43
0.00000001
 40
0.0
 40
0.0
 40
0.0
 40
0.0
 40
0.0012389803509652
 40
0.0012389803509652
 40
0.0012389803509652
 40
0.0012389803509652
 10
250.3333228206183
 20
28.28746763627805
 30
0.0
 10
250.1755779204198
 20
28.16539118574333
 30
0.0
 10
250.0176597414539
 20
28.04363388274252
 30
0.0
 10
249.8595864064729
 20
27.92216686119808
 30
0.0
  0
SPLINE
  5
1B5
330
1F
100
AcDbEntity
  8
0
  6
Continuous
 62
     7
370
    15
100
AcDbSpline
210
0.0
220
0.0
230
1.0
 70
     8
 71
     3
 72
     8
 73
     4
 74
     0
 42
0.000000001
 43
0.00000001
 40
0.0
 40
0.0
 40
0.0
 40
0.0
 40
1.0
 40
1.0
 40
1.0
 40
1.0
 10
250.3333228206183
 20
28.28746763627805
 30
0.0
 10
251.02730340356
 20
28.40147941755066
 30
0.0
 10
251.7209364643219
 20
28.51624017007103
 30
0.0
 10
252.4139939828948
 20
28.63209949544398
 30
0.0
  0
SPLINE
  5
1B6
330
1F
100
AcDbEntity
  8
0
  6
Continuous
 62
     7
370
    15
100
AcDbSpline
210
0.0
220
0.0
230
1.0
 70
     8
 71
     3
 72
    12
 73
     8
 74
     0
 42
0.000000001
 43
0.00000001
 40
0.0
 40
0.0
 40
0.0
 40
0.0
 40
0.2499999999999984
 40
0.2499999999999984
 40
0.4999999999999968
 40
0.4999999999999968
 40
1.0
 40
1.0
 40
1.0
 40
1.0
 10
252.4139939828948
 20
28.63209949544398
 30
0.0
 10
252.447782498819
 20
28.63774796552822
 30
0.0
 10
252.4833542748878
 20
28.64100842904367
 30
0.0
 10
252.5539365212803
 20
28.64214601859179
 30
0.0
 10
252.5889594797292
 20
28.64012940213377
 30
0.0
 10
252.6931647749942
 20
28.62575366479417
 30
0.0
 10
252.7568752069338
 20
28.60540936616177
 30
0.0
 10
252.8072667344468
 20
28.57631895653532
 30
0.0
  0
LINE
  5
1B7
330
1F
100
AcDbEntity
  8
0
  6
Continuous
 62
     7
370
    15
100
AcDbLine
 10
247.1044747221
 20
30.1514419677
 30
0.0
 11
250.3333228206
 21
28.2874676363
 31
0.0
  0
LINE
  5
1B8
330
1F
100
AcDbEntity
  8
0
  6
Continuous
 62
     7
370
    15
100
AcDbLine
 10
247.1044747221
 20
30.1514419677
 30
0.0
 11
248.9974076091
 21
31.2442088632
 31
0.0
  0
LINE
  5
1B9
330
1F
100
AcDbEntity
  8
0
  6
Continuous
 62
     7
370
    15
100
AcDbLine
 10
246.6710414746
 20
29.9011856095
 30
0.0
 11
247.1044747221
 21
30.1514419677
 31
0.0
  0
LINE
  5
1BA
330
1F
100
AcDbEntity
  8
0
  6
Continuous
 62
     7
370
    15
100
AcDbLine
 10
249.8595864065
 20
27.9221668612
 30
0.0
 11
246.8278660821
 21
29.6723417509
 31
0.0
  0
SPLINE
  5
1BB
330
1F
100
AcDbEntity
  8
0
  6
Continuous
 62
     7
370
    15
100
AcDbSpline
210
0.0
220
0.0
230
1.0
 70
     8
 71
     3
 72
     8
 73
     4
 74
     0
 42
0.000000001
 43
0.00000001
 40
0.0
 40
0.0
 40
0.0
 40
0.0
 40
1.0
 40
1.0
 40
1.0
 40
1.0
 10
246.8278660821356
 20
29.67234175091801
 30
0.0
 10
246.7478412826208
 20
29.71853908433997
 30
0.0
 10
246.6933644852389
 20
29.80172660670467
 30
0.0
 10
246.6710414745744
 20
29.90118560954579
 30
0.0
  0
ARC
  5
1BC
330
1F
100
AcDbEntity
  8
0
  6
Continuous
 62
     7
370
    15
100
AcDbCircle
 10
252.3625646175
 20
30.4927125502
 30
0.0
 40
5.415345003061762
100
AcDbArc
 50
223.4627285398
 51
239.8629790147
  0
ELLIPSE
  5
1BD
330
1F
100
AcDbEntity
  8
0
  6
Continuous
 62
     7
370
    15
100
AcDbEllipse
 10
248.763093034
 20
32.0327084376
 30
0.0
 11
-6.005970385558612E-5
 21
0.8534489614827194
 31
0.0
210
0.0
220
0.0
230
1.0
 40
0.7174342186
 41
3.534193645557484
 42
5.104989972352364
  0
ELLIPSE
  5
1BE
330
1F
100
AcDbEntity
  8
0
  6
Continuous
 62
     7
370
    15
100
AcDbEllipse
 10
248.6438542185
 20
31.9638509575
 30
0.0
 11
0.2600075789209484
 21
0.9705436209909274
 31
0.0
210
0.0
220
0.0
230
1.0
 40
0.5176380889
 41
3.619174351347764
 42
5.189970678142608
  0
LWPOLYLINE
  5
1BF
330
1F
100
AcDbEntity
  8
0
  6
Continuous
 62
     7
370
     0
100
AcDbPolyline
 90
       10
 70
   128
 43
0.0
 10
258.5787044941
 20
28.6322370231
 10
258.6199674035
 20
27.6709631519
 10
258.7433708709
 20
26.7663055768
 10
258.9477627114
 20
25.926710842
 10
259.2312345735
 20
25.1600180173
 10
259.5911397567
 20
24.4733855069
 10
260.0241179234
 20
23.8732242137
 10
260.526126473
 20
23.3651376819
 10
261.0924782871
 20
22.9538697786
 10
261.16804718
 20
22.9091769422
  0
LWPOLYLINE
  5
1C0
330
1F
100
AcDbEntity
  8
0
  6
Continuous
 62
     7
370
     0
100
AcDbPolyline
 90
       26
 70
   128
 43
0.0
 10
273.6670313379
 20
44.5603985018
 10
273.436925907
 20
44.6837963125
 10
272.784148341
 20
44.9429289969
 10
272.0812641919
 20
45.097414286
 10
271.3348360997
 20
45.1458097924
 10
270.5518332623
 20
45.0876636603
 10
269.7395663664
 20
44.9235187844
 10
268.9056193289
 20
44.6549077412
 10
268.0577784888
 20
44.2843384797
 10
267.2039599075
 20
43.8152709052
 10
266.3521354591
 20
43.2520845752
 10
265.5102583989
 20
42.6000378088
 10
264.6861891062
 20
41.8652185909
 10
263.8876216939
 20
41.0544877307
 10
263.1220121709
 20
40.1754148036
 10
262.3965088269
 20
39.2362074769
 10
261.7178854912
 20
38.2456348761
 10
261.0924782871
 20
37.2129457109
 10
260.526126473
 20
36.1477819216
 10
260.0241179234
 20
35.0600886557
 10
259.5911397567
 20
33.960021412
 10
259.2312345735
 20
32.857851222
 10
258.9477627114
 20
31.7638687519
 10
258.7433708709
 20
30.6882882212
 10
258.6199674035
 20
29.6411520354
 10
258.5787044941
 20
28.6322370231
  0
LWPOLYLINE
  5
1C1
330
1F
100
AcDbEntity
  8
0
  6
Continuous
 62
     7
370
     0
100
AcDbPolyline
 90
       18
 70
   128
 43
0.0
 10
271.2823695652
 20
23.3330297799
 10
271.6316185954
 20
22.880101692
 10
272.0500152666
 20
22.523600736
 10
272.5307860422
 20
22.2692984019
 10
273.0661475946
 20
22.1213116589
 10
273.6474328113
 20
22.0820363041
 10
274.2652311094
 20
22.1521081768
 10
274.9095407856
 20
22.3303928647
 10
275.569930937
 20
22.6140040688
 10
276.2357103294
 20
22.998350331
 10
276.8961004808
 20
23.477209366
 10
277.540410157
 20
24.0428287959
 10
278.1582084551
 20
24.6860516552
 10
278.7394936718
 20
25.3964646357
 10
279.2748552243
 20
26.1625666702
 10
279.7556259999
 20
26.9719551264
 10
280.174022671
 20
27.8115265965
 10
280.5232717012
 20
28.6676890316
  0
LWPOLYLINE
  5
1C2
330
1F
100
AcDbEntity
  8
0
  6
Continuous
 62
     7
370
     0
100
AcDbPolyline
 90
       18
 70
   128
 43
0.0
 10
280.5232247947
 20
34.3397231473
 10
280.1739717611
 20
34.7926300896
 10
279.7555743587
 20
35.1491124449
 10
279.2748058963
 20
35.4033992286
 10
278.7394493883
 20
35.5513738693
 10
278.1581715587
 20
35.5906408502
 10
277.5403825378
 20
35.5205644903
 10
276.8960835246
 20
35.3422792345
 10
276.2357048799
 20
35.0586712885
 10
275.5699372733
 20
34.6743318954
 10
274.9095586143
 20
34.1954830088
 10
274.2652595726
 20
33.6298765681
 10
273.6474705096
 20
32.986669004
 10
273.0661926249
 20
32.2762730085
 10
272.5308360497
 20
31.5101889668
 10
272.050067509
 20
30.7008187807
 10
271.6316700187
 20
29.8612650984
 10
271.2824168888
 20
29.0051191996
  0
LWPOLYLINE
  5
1C3
330
1F
100
AcDbEntity
  8
0
  6
Continuous
 62
     7
370
     0
100
AcDbPolyline
 90
       35
 70
   128
 43
0.0
 10
255.2199472835
 20
28.3260839812
 10
255.2609812939
 20
29.4350572806
 10
255.3837710317
 20
30.5829674836
 10
255.5873819927
 20
31.7610783004
 10
255.8702645747
 20
32.9604235964
 10
256.2302658702
 20
34.1718756296
 10
256.6646460522
 20
35.3862145187
 10
257.1700992252
 20
36.5941984113
 10
257.7427785852
 20
37.7866338207
 10
258.3783256966
 20
38.9544455935
 10
259.0719036621
 20
40.0887459768
 10
259.8182339346
 20
41.1809022598
 10
260.61163649
 20
42.2226024739
 10
261.446073056
 20
43.2059186513
 10
262.3151930662
 20
44.1233671621
 10
263.2123819927
 20
44.9679656694
 10
264.1308116861
 20
45.7332862683
 10
265.0634923417
 20
46.4135044072
 10
266.0033256966
 20
47.0034432151
 10
266.9431590515
 20
47.4986129016
 10
267.8758397071
 20
47.8952449263
 10
268.7942694004
 20
48.1903206801
 10
269.691458327
 20
48.3815944583
 10
270.5605783372
 20
48.4676105519
 10
271.3950149031
 20
48.4477143265
 10
272.1884174586
 20
48.3220572045
 10
272.9347477311
 20
48.0915955124
 10
273.6283256966
 20
47.7580832028
 10
274.263872808
 20
47.3240585058
 10
274.836552168
 20
46.7928246113
 10
275.342005341
 20
46.1684245302
 10
275.7763855229
 20
45.4556103241
 10
276.1363868185
 20
44.6598069394
 10
276.4192694004
 20
43.7870709204
 10
276.6210240129
 20
42.8550948289
  0
LWPOLYLINE
  5
1C4
330
1F
100
AcDbEntity
  8
0
  6
Continuous
 62
     7
370
     0
100
AcDbPolyline
 90
       17
 70
   128
 43
0.0
 10
264.1220398549
 20
21.2038732694
 10
263.2123819927
 20
20.9120709876
 10
262.3151930662
 20
20.7207972094
 10
261.446073056
 20
20.6347811158
 10
260.61163649
 20
20.6546773411
 10
259.8182339346
 20
20.7803344631
 10
259.0719036621
 20
21.0107961553
 10
258.3783256966
 20
21.3443084649
 10
257.7427785852
 20
21.7783331619
 10
257.1700992252
 20
22.3095670563
 10
256.6646460522
 20
22.9339671374
 10
256.2302658702
 20
23.6467813436
 10
255.8702645747
 20
24.4425847283
 10
255.5873819927
 20
25.3153207472
 10
255.3837710317
 20
26.2583473524
 10
255.2609812939
 20
27.2644875418
 10
255.2199472835
 20
28.3260839812
  0
LWPOLYLINE
  5
1C5
330
1F
100
AcDbEntity
  8
0
  6
Continuous
 62
     7
370
     0
100
AcDbPolyline
 90
       27
 70
   128
 43
0.0
 10
254.5128405023
 20
28.3260839812
 10
254.5540674756
 20
29.4554356295
 10
254.6774431654
 20
30.6240256035
 10
254.8820541413
 20
31.823202072
 10
255.1663855352
 20
33.0440867518
 10
255.528332257
 20
34.27764064
 10
255.9652145796
 20
35.5147309351
 10
256.4737979794
 20
36.7461986534
 10
257.0503170827
 20
37.9629264389
 10
257.6905035437
 20
39.1559060646
 10
258.389617646
 20
40.3163051268
 10
259.1424833933
 20
41.4355324368
 10
259.943526831
 20
42.5053016273
 10
260.7868173137
 20
43.5176925014
 10
261.6661114138
 20
44.4652096712
 10
262.5748991454
 20
45.3408380512
 10
263.5064521621
 20
46.1380947952
 10
264.4538735712
 20
46.8510772932
 10
265.4101489962
 20
47.4745068723
 10
266.3681985083
 20
48.0037678779
 10
267.3209290441
 20
48.4349418467
 10
268.2612869202
 20
48.7648365175
 10
269.1823100557
 20
48.9910094656
 10
270.0771795177
 20
49.1117861857
 10
270.9392700057
 20
49.1262724891
 10
271.7621989033
 20
49.0343611243
 10
272.1048272122
 20
48.9616988349
  0
ARC
  5
1C6
330
1F
100
AcDbEntity
  8
0
  6
Continuous
 62
     7
370
     0
100
AcDbCircle
 10
263.294729483
 20
27.7443848041
 30
0.0
 40
8.80113333620935
100
AcDbArc
 50
176.2103492972
 51
220.1671393599
  0
LWPOLYLINE
  5
1C7
330
1F
100
AcDbEntity
  8
0
  6
Continuous
 62
     7
370
     0
100
AcDbPolyline
 90
       34
 70
   128
 43
0.0
 10
255.7502773694
 20
28.6322370231
 10
255.7915531276
 20
29.7173802451
 10
255.9150480741
 20
30.841442508
 10
256.1197679002
 20
31.9953735234
 10
256.4040643223
 20
33.1698825173
 10
256.7656483527
 20
34.3555130337
 10
257.2016087294
 20
35.542719073
 10
257.7084353557
 20
36.7219419502
 10
258.2820475618
 20
37.883687256
 10
258.9178269594
 20
39.0186013004
 10
259.6106546266
 20
40.1175464228
 10
260.3549523225
 20
41.1716745631
 10
261.1447273995
 20
42.1724985016
 10
261.9736210532
 20
43.1119601922
 10
262.8349595193
 20
43.9824956418
 10
263.7218078069
 20
44.7770958109
 10
264.627025535
 20
45.4893630461
 10
265.5433244228
 20
46.1135625904
 10
266.4633269704
 20
46.6446687562
 10
267.3796258581
 20
47.0784053889
 10
268.2848435863
 20
47.4112802961
 10
269.1716918738
 20
47.6406133648
 10
270.0330303399
 20
47.76455814
 10
270.8619239937
 20
47.7821166913
 10
271.6516990707
 20
47.6931476475
 10
272.3959967666
 20
47.498367335
 10
273.0888244338
 20
47.1993440104
 10
273.7246038314
 20
46.7984852336
 10
274.2982160374
 20
46.299018484
 10
274.8050426638
 20
45.7049651739
 10
275.2410030405
 20
45.0211082714
 10
275.6025870709
 20
44.2529537902
 10
275.8868834929
 20
43.4066864585
 10
275.9273509608
 20
43.2555437581
  0
LWPOLYLINE
  5
1C8
330
1F
100
AcDbEntity
  8
0
  6
Continuous
 62
     7
370
     0
100
AcDbPolyline
 90
       16
 70
   128
 43
0.0
 10
263.4283668029
 20
21.6043221986
 10
262.8349595193
 20
21.4617783028
 10
261.9736210532
 20
21.3378335276
 10
261.1447273995
 20
21.3202749763
 10
260.3549523225
 20
21.4092440202
 10
259.6106546266
 20
21.6040243327
 10
258.9178269594
 20
21.9030476573
 10
258.2820475618
 20
22.303906434
 10
257.7084353557
 20
22.8033731837
 10
257.2016087294
 20
23.3974264937
 10
256.7656483527
 20
24.0812833962
 10
256.4040643223
 20
24.8494378774
 10
256.1197679002
 20
25.6957052092
 10
255.9150480741
 20
26.6132717445
 10
255.7915531276
 20
27.5947497771
 10
255.7502773694
 20
28.6322370231
  0
LINE
  5
1C9
330
1F
100
AcDbEntity
  8
0
  6
Continuous
 62
     7
370
     0
100
AcDbLine
 10
269.4327935853
 20
23.8203692862
 30
0.0
 11
269.521181933
 21
23.4905064936
 31
0.0
  0
ARC
  5
1CA
330
1F
100
AcDbEntity
  8
0
  6
Continuous
 62
     7
370
     0
100
AcDbCircle
 10
277.8841610133
 20
32.9393144398
 30
0.0
 40
2.456115501094052
100
AcDbArc
 50
33.4950217923
 51
59.3363594902
  0
LWPOLYLINE
  5
1CB
330
1F
100
AcDbEntity
  8
0
  6
Continuous
 62
     7
370
     0
100
AcDbPolyline
 90
       15
 70
   128
 43
0.0
 10
272.1202623565
 20
22.9372786368
 10
272.580992738
 20
22.7336042898
 10
273.1225771492
 20
22.6229965456
 10
273.7077549113
 20
22.6236958919
 10
274.3263114606
 20
22.7356901211
 10
274.9674495902
 20
22.9570243195
 10
275.6199779207
 20
23.2838349902
 10
276.2725062512
 20
23.7104174934
 10
276.9136443808
 20
24.229325623
 10
277.5322009301
 20
24.831501584
 10
278.1173786923
 20
25.5064341007
 10
278.6589631035
 20
26.2423418962
 10
279.1475005431
 20
27.0263793402
 10
279.5744633514
 20
27.8448606761
 10
279.932398684
 20
28.683498912
  0
LINE
  5
1CC
330
1F
100
AcDbEntity
  8
0
  6
Continuous
 62
     7
370
     0
100
AcDbLine
 10
268.9491310016
 20
24.0995817525
 30
0.0
 11
269.4327935853
 21
23.8203692862
 31
0.0
  0
LWPOLYLINE
  5
1CD
330
1F
100
AcDbEntity
  8
0
  6
Continuous
 62
     7
370
     0
100
AcDbPolyline
 90
       20
 70
   128
 43
0.0
 10
252.4139939829
 20
35.2052530311
 10
252.7206189046
 20
36.3497593096
 10
253.104403973
 20
37.5013730081
 10
253.5619718479
 20
38.6499598318
 10
254.0892958946
 20
39.7854121223
 10
254.6817356183
 20
40.8977378065
 10
255.3340775008
 20
41.9771483272
 10
256.0405808801
 20
43.0141447833
 10
256.7950284685
 20
43.999601521
 10
257.5907810655
 20
44.9248464402
 10
258.4208359828
 20
45.7817373098
 10
259.2778886693
 20
46.5627334199
 10
260.154396991
 20
47.2609619408
 10
261.0426476029
 20
47.8702784041
 10
261.9348238267
 20
48.3853207751
 10
262.8230744385
 20
48.8015566387
 10
263.6995827602
 20
49.1153230852
 10
264.5566354467
 20
49.3238589441
 10
265.386690364
 20
49.4253290828
 10
266.0332411029
 20
49.4284411142
  0
LWPOLYLINE
  5
1CE
330
1F
100
AcDbEntity
  8
0
  6
Continuous
 62
     7
370
     0
100
AcDbPolyline
 90
       24
 70
   128
 43
0.0
 10
246.8278660821
 20
36.8843301824
 10
247.1346815598
 20
38.1057305695
 10
247.517840482
 20
39.337012054
 10
247.9745256812
 20
40.5691216661
 10
248.5013793896
 20
41.7930003472
 10
249.094527927
 20
42.9996495564
 10
249.7496101819
 20
44.1801974321
 10
250.4618096766
 20
45.3259640224
 10
251.2258899801
 20
46.4285251037
 10
252.0362332089
 20
47.4797741201
 10
252.8868813323
 20
48.4719817866
 10
253.771579979
 20
49.3978529183
 10
254.6838244216
 20
50.2505800681
 10
255.6169074033
 20
51.0238935787
 10
256.563968452
 20
51.7121076796
 10
257.5180443224
 20
52.310162292
 10
258.4721201927
 20
52.8136602324
 10
259.4191812414
 20
53.2188995435
 10
260.3522642231
 20
53.5229007122
 10
261.2645086657
 20
53.7234285767
 10
262.1492073124
 20
53.8190087602
 10
262.9998554358
 20
53.8089385117
 10
263.8101986646
 20
53.6932918724
 10
263.9662302006
 20
53.6577173933
  0
LWPOLYLINE
  5
1CF
330
1F
100
AcDbEntity
  8
0
  6
Continuous
 62
     7
370
     0
100
AcDbPolyline
 90
       19
 70
   128
 43
0.0
 10
252.8072667344
 20
35.1494724922
 10
253.1119516279
 20
36.2733154217
 10
253.4919424996
 20
37.4036453446
 10
253.9439203436
 20
38.5305894661
 10
254.4639373881
 20
39.6443045647
 10
255.0474515773
 20
40.7350629666
 10
255.6893662438
 20
41.7933375121
 10
256.3840746247
 20
42.8098847696
 10
257.1255088341
 20
43.7758257718
 10
257.9071928619
 20
44.6827235686
 10
258.7222991389
 20
45.5226569189
 10
259.5637081711
 20
46.2882894784
 10
260.4240707251
 20
46.9729338782
 10
261.2958720187
 20
47.5706101355
 10
262.1714973593
 20
48.076097885
 10
263.043298653
 20
48.4849819762
 10
263.903661207
 20
48.793691037
 10
264.7450702392
 20
48.9995286678
 10
265.1681758299
 20
49.0647288659
  0
LINE
  5
1D0
330
1F
100
AcDbEntity
  8
0
  6
Continuous
 62
     7
370
     0
100
AcDbLine
 10
252.8165893854
 20
28.5709371047
 30
0.0
 11
253.2223706266
 21
28.8051896291
 31
0.0
  0
LWPOLYLINE
  5
1D1
330
1F
100
AcDbEntity
  8
0
  6
Continuous
 62
     7
370
     0
100
AcDbPolyline
 90
        3
 70
   128
 43
0.0
 10
253.7809359617
 20
28.5466518388
 10
253.7165915376
 20
28.5698124562
 10
253.2223706266
 20
28.8051896291
  0
ARC
  5
1D2
330
1F
100
AcDbEntity
  8
0
  6
Continuous
 62
     7
370
     0
100
AcDbCircle
 10
252.5348725527
 20
29.8615102354
 30
0.0
 40
1.260343931249911
100
AcDbArc
 50
303.0577786045
 51
346.2438194889
  0
LINE
  5
1D3
330
1F
100
AcDbEntity
  8
0
  6
Continuous
 62
     7
370
     0
100
AcDbLine
 10
282.2844593334
 20
30.8585897028
 30
0.0
 11
282.0192942905
 21
31.0864014814
 31
0.0
  0
LINE
  5
1D4
330
1F
100
AcDbEntity
  8
0
  6
Continuous
 62
     7
370
     0
100
AcDbLine
 10
249.328778459
 20
32.3592716824
 30
0.0
 11
253.716367966
 21
29.8263701743
 31
0.0
  0
LINE
  5
1D5
330
1F
100
AcDbEntity
  8
0
  6
Continuous
 62
     7
370
     0
100
AcDbLine
 10
249.2095396434
 20
32.2904142022
 30
0.0
 11
249.328778459
 21
32.3592716824
 31
0.0
  0
LINE
  5
1D6
330
1F
100
AcDbEntity
  8
0
  6
Continuous
 62
     7
370
     0
100
AcDbLine
 10
248.9532134352
 20
35.3216809894
 30
0.0
 11
248.9584013299
 21
35.6543464536
 31
0.0
  0
ARC
  5
1D7
330
1F
100
AcDbEntity
  8
0
  6
Continuous
 62
     7
370
     0
100
AcDbCircle
 10
257.5152357082
 20
35.2443421569
 30
0.0
 40
8.562371558031435
100
AcDbArc
 50
179.4824741114
 51
192.4116552647
  0
LWPOLYLINE
  5
1D8
330
1F
100
AcDbEntity
  8
0
  6
Continuous
 62
     7
370
     0
100
AcDbPolyline
 90
       18
 70
   128
 43
0.0
 10
229.107697537
 20
50.620560437
 10
229.1498886001
 20
51.3571879836
 10
229.2756758496
 20
52.1288063173
 10
229.4827161071
 20
52.9210416485
 10
229.7671526044
 20
53.7191361319
 10
230.1236868277
 20
54.5082227775
 10
230.545677219
 20
55.2736023939
 10
231.0252628956
 20
56.0010174071
 10
231.553510084
 20
56.6769174517
 10
232.1205785384
 20
57.2887117887
 10
232.7159048465
 20
57.8250038472
 10
233.3283992055
 20
58.2758035209
 10
233.9466520045
 20
58.6327132647
 10
234.5591463636
 20
58.8890845254
 10
235.1544726717
 20
59.0401415916
 10
235.7215411261
 20
59.0830705559
 10
236.2497883144
 20
59.0170717328
 10
236.4929066644
 20
58.9447359247
  0
ARC
  5
1D9
330
1F
100
AcDbEntity
  8
0
  6
Continuous
 62
     7
370
     0
100
AcDbCircle
 10
232.6365046126
 20
50.3882025773
 30
0.0
 40
3.536448720326423
100
AcDbArc
 50
176.2327399172
 51
223.8496029916
  0
LINE
  5
1DA
330
1F
100
AcDbEntity
  8
0
  6
Continuous
 62
     7
370
     0
100
AcDbLine
 10
277.3877448737
 20
33.7601380476
 30
0.0
 11
282.0192942905
 21
31.0864014814
 31
0.0
  0
LWPOLYLINE
  5
1DB
330
1F
100
AcDbEntity
  8
0
  6
Continuous
 62
     7
370
     0
100
AcDbPolyline
 90
        3
 70
   128
 43
0.0
 10
253.2791859727
 20
27.4727877074
 10
253.1119516279
 20
27.8042577171
 10
252.8072667344
 20
28.5763189565
  0
ARC
  5
1DC
330
1F
100
AcDbEntity
  8
0
  6
Continuous
 62
     7
370
     0
100
AcDbCircle
 10
258.4512909974
 20
30.506636794
 30
0.0
 40
6.321617302954605
100
AcDbArc
 50
197.2491928205
 51
213.7765234456
  0
LINE
  5
1DD
330
1F
100
AcDbEntity
  8
0
  6
Continuous
 62
     7
370
     0
100
AcDbLine
 10
253.2223706266
 20
28.8051896291
 30
0.0
 11
248.9974076091
 21
31.2442088632
 31
0.0
  0
ARC
  5
1DE
330
1F
100
AcDbEntity
  8
0
  6
Continuous
 62
     7
370
     0
100
AcDbCircle
 10
253.64827318
 20
31.5435431032
 30
0.0
 40
7.072435753044925
100
AcDbArc
 50
195.3417987409
 51
222.4767494988
  0
OLE2FRAME
  5
1DF
330
1F
100
AcDbEntity
  8
0
100
AcDbOle2Frame
 70
     2
  3
Paintbrush-Bild
 10
13.8511154363
 20
38.264191557
 30
0.0
 11
51.6290888628
 21
31.9806341108
 31
0.0
 71
     2
 72
     0
 73
     1
 90
    12928
310
80552BED0767C5B32B40DDAF6807D121434000000000000000006FFBDDFB85D0
310
4940DDAF6807D121434000000000000000006FFBDDFB85D04940416F4BD60AFB
310
3F4000000000000000002BED0767C5B32B40416F4BD60AFB3F40000000000000
310
0000000000000100000000010000010000000100000000000100000000320000
310
D0CF11E0A1B11AE1000000000000000000000000000000003E000300FEFF0900
310
0600000000000000000000000100000001000000000000000010000002000000
310
01000000FEFFFFFF0000000000000000FFFFFFFFFFFFFFFFFFFFFFFFFFFFFFFF
310
FFFFFFFFFFFFFFFFFFFFFFFFFFFFFFFFFFFFFFFFFFFFFFFFFFFFFFFFFFFFFFFF
310
FFFFFFFFFFFFFFFFFFFFFFFFFFFFFFFFFFFFFFFFFFFFFFFFFFFFFFFFFFFFFFFF
310
FFFFFFFFFFFFFFFFFFFFFFFFFFFFFFFFFFFFFFFFFFFFFFFFFFFFFFFFFFFFFFFF
310
FFFFFFFFFFFFFFFFFFFFFFFFFFFFFFFFFFFFFFFFFFFFFFFFFFFFFFFFFFFFFFFF
310
FFFFFFFFFFFFFFFFFFFFFFFFFFFFFFFFFFFFFFFFFFFFFFFFFFFFFFFFFFFFFFFF
310
FFFFFFFFFFFFFFFFFFFFFFFFFFFFFFFFFFFFFFFFFFFFFFFFFFFFFFFFFFFFFFFF
310
FFFFFFFFFFFFFFFFFFFFFFFFFFFFFFFFFFFFFFFFFFFFFFFFFFFFFFFFFFFFFFFF
310
FFFFFFFFFFFFFFFFFFFFFFFFFFFFFFFFFFFFFFFFFFFFFFFFFFFFFFFFFFFFFFFF
310
FFFFFFFFFFFFFFFFFFFFFFFFFFFFFFFFFFFFFFFFFFFFFFFFFFFFFFFFFFFFFFFF
310
FFFFFFFFFFFFFFFFFFFFFFFFFFFFFFFFFFFFFFFFFFFFFFFFFFFFFFFFFFFFFFFF
310
FFFFFFFFFFFFFFFFFFFFFFFFFFFFFFFFFFFFFFFFFFFFFFFFFFFFFFFFFFFFFFFF
310
FFFFFFFFFFFFFFFFFFFFFFFFFFFFFFFFFFFFFFFFFFFFFFFFFFFFFFFFFFFFFFFF
310
FFFFFFFFFFFFFFFFFFFFFFFFFFFFFFFFFFFFFFFFFFFFFFFFFFFFFFFFFFFFFFFF
310
FDFFFFFFFEFFFFFFFEFFFFFFFEFFFFFF05000000060000000700000008000000
310
090000000A0000000B0000000C0000000D0000000E0000000F00000010000000
310
11000000120000001300000014000000150000001600000017000000FEFFFFFF
310
FFFFFFFFFFFFFFFFFFFFFFFFFFFFFFFFFFFFFFFFFFFFFFFFFFFFFFFFFFFFFFFF
310
FFFFFFFFFFFFFFFFFFFFFFFFFFFFFFFFFFFFFFFFFFFFFFFFFFFFFFFFFFFFFFFF
310
FFFFFFFFFFFFFFFFFFFFFFFFFFFFFFFFFFFFFFFFFFFFFFFFFFFFFFFFFFFFFFFF
310
FFFFFFFFFFFFFFFFFFFFFFFFFFFFFFFFFFFFFFFFFFFFFFFFFFFFFFFFFFFFFFFF
310
FFFFFFFFFFFFFFFFFFFFFFFFFFFFFFFFFFFFFFFFFFFFFFFFFFFFFFFFFFFFFFFF
310
FFFFFFFFFFFFFFFFFFFFFFFFFFFFFFFFFFFFFFFFFFFFFFFFFFFFFFFFFFFFFFFF
310
FFFFFFFFFFFFFFFFFFFFFFFFFFFFFFFFFFFFFFFFFFFFFFFFFFFFFFFFFFFFFFFF
310
FFFFFFFFFFFFFFFFFFFFFFFFFFFFFFFFFFFFFFFFFFFFFFFFFFFFFFFFFFFFFFFF
310
FFFFFFFFFFFFFFFFFFFFFFFFFFFFFFFFFFFFFFFFFFFFFFFFFFFFFFFFFFFFFFFF
310
FFFFFFFFFFFFFFFFFFFFFFFFFFFFFFFFFFFFFFFFFFFFFFFFFFFFFFFFFFFFFFFF
310
FFFFFFFFFFFFFFFFFFFFFFFFFFFFFFFFFFFFFFFFFFFFFFFFFFFFFFFFFFFFFFFF
310
FFFFFFFFFFFFFFFFFFFFFFFFFFFFFFFFFFFFFFFFFFFFFFFFFFFFFFFFFFFFFFFF
310
FFFFFFFFFFFFFFFFFFFFFFFFFFFFFFFFFFFFFFFFFFFFFFFFFFFFFFFFFFFFFFFF
310
52006F006F007400200045006E00740072007900000000000000000000000000
310
0000000000000000000000000000000000000000000000000000000000000000
310
16000500FFFFFFFFFFFFFFFF020000000A00030000000000C000000000000046
310
00000000000000000000000050F51FD38220D20103000000C000000000000000
310
01004F006C006500000000000000000000000000000000000000000000000000
310
0000000000000000000000000000000000000000000000000000000000000000
310
0A000200FFFFFFFFFFFFFFFFFFFFFFFF00000000000000000000000000000000
310
0000000000000000000000000000000000000000000000001400000000000000
310
010043006F006D0070004F0062006A0000000000000000000000000000000000
310
0000000000000000000000000000000000000000000000000000000000000000
310
120002010100000003000000FFFFFFFF00000000000000000000000000000000
310
0000000000000000000000000000000000000000010000004D00000000000000
310
01004F006C006500310030004E00610074006900760065000000000000000000
310
0000000000000000000000000000000000000000000000000000000000000000
310
1A000200FFFFFFFFFFFFFFFFFFFFFFFF00000000000000000000000000000000
310
0000000000000000000000000000000000000000040000002426000000000000
310
FEFFFFFF02000000FEFFFFFFFFFFFFFFFFFFFFFFFFFFFFFFFFFFFFFFFFFFFFFF
310
FFFFFFFFFFFFFFFFFFFFFFFFFFFFFFFFFFFFFFFFFFFFFFFFFFFFFFFFFFFFFFFF
310
FFFFFFFFFFFFFFFFFFFFFFFFFFFFFFFFFFFFFFFFFFFFFFFFFFFFFFFFFFFFFFFF
310
FFFFFFFFFFFFFFFFFFFFFFFFFFFFFFFFFFFFFFFFFFFFFFFFFFFFFFFFFFFFFFFF
310
FFFFFFFFFFFFFFFFFFFFFFFFFFFFFFFFFFFFFFFFFFFFFFFFFFFFFFFFFFFFFFFF
310
FFFFFFFFFFFFFFFFFFFFFFFFFFFFFFFFFFFFFFFFFFFFFFFFFFFFFFFFFFFFFFFF
310
FFFFFFFFFFFFFFFFFFFFFFFFFFFFFFFFFFFFFFFFFFFFFFFFFFFFFFFFFFFFFFFF
310
FFFFFFFFFFFFFFFFFFFFFFFFFFFFFFFFFFFFFFFFFFFFFFFFFFFFFFFFFFFFFFFF
310
FFFFFFFFFFFFFFFFFFFFFFFFFFFFFFFFFFFFFFFFFFFFFFFFFFFFFFFFFFFFFFFF
310
FFFFFFFFFFFFFFFFFFFFFFFFFFFFFFFFFFFFFFFFFFFFFFFFFFFFFFFFFFFFFFFF
310
FFFFFFFFFFFFFFFFFFFFFFFFFFFFFFFFFFFFFFFFFFFFFFFFFFFFFFFFFFFFFFFF
310
FFFFFFFFFFFFFFFFFFFFFFFFFFFFFFFFFFFFFFFFFFFFFFFFFFFFFFFFFFFFFFFF
310
FFFFFFFFFFFFFFFFFFFFFFFFFFFFFFFFFFFFFFFFFFFFFFFFFFFFFFFFFFFFFFFF
310
FFFFFFFFFFFFFFFFFFFFFFFFFFFFFFFFFFFFFFFFFFFFFFFFFFFFFFFFFFFFFFFF
310
FFFFFFFFFFFFFFFFFFFFFFFFFFFFFFFFFFFFFFFFFFFFFFFFFFFFFFFFFFFFFFFF
310
FFFFFFFFFFFFFFFFFFFFFFFFFFFFFFFFFFFFFFFFFFFFFFFFFFFFFFFFFFFFFFFF
310
0100000200000000000000000000000000000000000000000000000000000000
310
0000000000000000000000000000000000000000000000000000000000000000
310
0100FEFF030A0000FFFFFFFF0A00030000000000C00000000000004607000000
310
5042727573680007000000504272757368000700000050427275736800F439B2
310
7100000000000000000000000000000000000000000000000000000000000000
310
0000000000000000000000000000000000000000000000000000000000000000
310
0000000000000000000000000000000000000000000000000000000000000000
310
0000000000000000000000000000000000000000000000000000000000000000
310
0000000000000000000000000000000000000000000000000000000000000000
310
0000000000000000000000000000000000000000000000000000000000000000
310
0000000000000000000000000000000000000000000000000000000000000000
310
0000000000000000000000000000000000000000000000000000000000000000
310
0000000000000000000000000000000000000000000000000000000000000000
310
0000000000000000000000000000000000000000000000000000000000000000
310
0000000000000000000000000000000000000000000000000000000000000000
310
0000000000000000000000000000000000000000000000000000000000000000
310
20260000424D0E260000000000003E00000028000000B40200006E0000000100
310
01000000000000000000130B0000130B00000200000002000000000000FFFFFF
310
FFFFFFFFFFFFFFFFFFFFFFFFFFFFFFFFFFFFFFFFFFFFFFFFFFFFFFFFFFFFFFFF
310
FFFFFFFFFFFFFFFFFFFFFFFFFFFFFFFFFFFFFFFFFFFFFFFFFFFFFFFFFFFFFFFF
310
FFFFFFFFFFFFFFFFFFFFFFFFFFFFFFFFFFFFFFFFFFFFFFFFF000FFFFFFFFFFFF
310
FFFFFFFFFFFFFFFFFFFFFFFFFFFFFFFFFFFFFFFFFFFFFFFFFFFFFFFFFFFFFFFF
310
FFFFFFFFFFFFFFFFFFFFFFFFFFFFFFFFFFFFFFFFFFFFFFFFFFFFFFFFFFFFFFFF
310
FFFFFFFFFFFFFFFFFFFFFFFFFFFFFFFFF000FFFFFFFFFFFFFFFFFFFFFFFFFFFF
310
FFFFFFFFFFFFFFFFFFFFFFFFFFFFFFFFFFFFFFFFFFFFFFFFFFFFFFFFFFFFFFFF
310
FFFFFFFFFFFFFFFFFFFFFFFFFFFFFFFFFFFFFFFFFFFFFFFFFFFFFFFFFFFFFFFF
310
FFFFFFFFFFFFFFFFF000FFFFFFFFFFFFFFFFFFFFFFFFFFFFFFFFFFFFFFFFFFFF
310
FFFFFFFFFFFFFFFFFFFFFFFFFFFFFFFFFFFFFFFFFFFFFFFFFFFFFFFFFFFFFFFF
310
FFFFFFFFFFFFFFFFFFFFFFFFFFFFFFFFFFFFFFFFFFFFFFFFFFFFFFFFFFFFFFFF
310
F000FFFFFFFFFFFFFFFFFFFFFFFFFFFFFFFFFFFFFFFFFFFFFFFFFFFFFFFFFFFF
310
FFFFFFFFFFFFFFFFFFFFFFFFFFFFFFFFFFFFFFFFFFFFFFFFFFFFFFFFFFFFFFFF
310
FFFFFFFFFFFFFFFFFFFFFFFFFFFFFFFFFFFFFFFFFFFFFFFFF000FFFFFFFFFFFF
310
FFFFFFFFFFFFFFFFFFFFFFFFFFFFFFFFFFFFFFFFFFFFFFFFFFFFFFFFFFFFFFFF
310
FFFFFFFFFFFFFFFFFFFFFFFFFFFFFFFFFFFFFFFFFFFFFFFFFFFFFFFFFFFFFFFF
310
FFFFFFFFFFFFFFFFFFFFFFFFFFFFFFFFF000FFFFFFFFFFFFFFFFFFFFFFFFFFFF
310
FFFFFFFFFFFFFFFFFFFFFFFFFFFFFFFFFFFFFFFFFFFFFFFFFFFFFFFFFFFFFFFF
310
FFFFFFFFFFFFFFFFFFFFFFFFFFFFFFFFFFFFFFFFFFFFFFFFFFFFFFFFFFFFFFFF
310
FFFFFFFFFFFFFFFFF000FFFFFFFFFFFFFFFFFFFFFFFFFFFFFFFFFFFFFFFFFFFF
310
FFFFFFFFFFFFFFFFFFFFFFFFFFFFFFFFFFFFFFFFFFFFFFFFFFFFFFFFFFFFFFFF
310
FFFFFFFFFFFFFFFFFFFFFFFFFFFFFFFFFFFFFFFFFFFFFFFFFFFFFFFFFFFFFFFF
310
F000FFFFFFFFFFFFFFFFFFFFFFFFFFFFFFFFFFFFFFFFFFFFFFFFFFFFFFFFFFFF
310
FFFFFFFFFFFFFFFFFFFFFFFFFFFFFFFFFFFFFFFFFFFFFFFFFFFFFFFFFFFFFFFF
310
FFFFFFFFFFFFFFFFFFFFFFFFFFFFFFFFFFFFFFFFFFFFFFFFF000FFFFFFFFFFFF
310
FFFFFFFFFFFFFFFFFFFFFFFFFFFFFFFFFFFFFFFFFFFFFFFFFFFFFFFFFFFFFFFF
310
FFFFFFFFFFFFFFFFFFFFFFFFFFFFFFFFFFFFFFFFFFFFFFFFFFFFFFFFFFFFFFFF
310
FFFFFFFFFFFFFFFFFFFFFFFFFFFFFFFFF000FFFFFFFFFFFFFFFFFFFFFFFFFFFF
310
FFFFFFFFFFFFFFFFFFFFFFFFFFFFFFFFFFFFFFFFFFFFFFFFFFFFFFFFFFFFFFFF
310
FFFFFFFFFFFFFFFFFFFFFFFFFFFFFFFFFFFFFFFFFFFFFFFFFFFFFFFFFFFFFFFF
310
FFFFFFFFFFFFFFFFF000FFFFFFFFFFFFFFFFFFFFFFFFFFFFFFFFFFFFFFFFFFFF
310
FFFFFFFFFFFFFFFFFFFFFFFFFFFFFFFFFFFFFFFFFFFFFFFFFFFFFFFFFFFFFFFF
310
FFFFFFFFFFFFFFFFFFFFFFFFFFFFFFFFFFFFFFFFFFFFFFFFFFFFFFFFFFFFFFFF
310
F000FFFFFFFFFFFFFFFFFFFFFFFFFFFFFFFFFFFFFFFFFFFFFFFFFFFFFFFFFFFF
310
FFFFFFFFFFFFFFFFFFFFFFFFFFFFFFFFFFFFFFFFFFFFFFFFFFFFFFFFFFFFFFFF
310
FFFFFFFFFFFFFFFFFFFFFFFFFFFFFFFFFFFFFFFFFFFFFFFFF000FFFFFFFFFFFF
310
FFFFFFFFFFFFFFFFFFFFFFFFFFFFFFFFFFFFFFFFFFFFFFFFFFFFFFFFFFFFFFFF
310
FFFFFFFFFFFFFFFFFFFFFFFFFFFFFFFFFFFFFFFFFFFFFFFFFFFFFFFFFFFFFFFF
310
FFFFFFFFFFFFFFFFFFFFFFFFFFFFFFFFF000FFFFFFFFFFFFFFFFFFFFFFFFFFFF
310
FFFFFFFFFFFFFFFFFFFFFFFFFFFFFFFFFFFFFFFFFFFFFFFFFFFFFFFFFFFFFFFF
310
FFFFFFFFFFFFFFFFFFFFFFFFFFFFFFFFFFFFFFFFFFFFFFFFFFFFFFFFFFFFFFFF
310
FFFFFFFFFFFFFFFFF000FFFFFFFFFFFFFFFFFFFFFFFFFFFFFFFFFFFFFFFFFFFF
310
FFFFFFFFFFFFFFFFFFFFFFFFFFFFFFFFFFFFFFFFFFFFFFFFFFFFFFFFFFFFFFFF
310
FFFFFFFFFFFFFFFFFFFFFFFFFFFFFFFFFFFFFFFFFFFFFFFFFFFFFFFFFFFFFFFF
310
F000FFFFFFFFFFFFFFFFFFFFFFFFFFFFFFFFFFFFFFFFFFFFFFFFFFFFFFFFFFFF
310
FFFFFFFFFFFFFFFFFFFFFFFFFFFFFFFFFFFFFFFFFFFFFFFFFFFFFFFFFFFFFFFF
310
FFFFFFFFFFFFFFFFFFFFFFFFFFFFFFFFFFFFFFFFFFFFFFFFF000FFFFFFFFFFFF
310
FFFFFFFFFFFFFFFFFFFFFFFFFFFFFFFFFFFFFFFFFFFFFFFFFFFFFFFFFFFFFFFF
310
FFFFFFFFFFFFFFFFFFFFFFFFFFFFFFFFFFFFFFFFFFFFFFFFFFFFFFFFFFFFFFFF
310
FFFFFFFFFFFFFFFFFFFFFFFFFFFFFFFFF000FFFFFFFFFFFFFFFFFFFFFFFFFFFF
310
FFFFFFFFFFFFFFFFFFFFFFFFFFFFFFFFFFFFFFFFFFFFFFFFFFFFFFFFFFFFFFFF
310
FFFFFFFFFFFFFFFFFFFFFFFFFFFFFFFFFFFFFFFFFFFFFFFFFFFFFFFFFFFFFFFF
310
FFFFFFFFFFFFFFFFF000FFFFF80003FFFFFFFFFFFFFFFFFFFFFFFFFFFFFFFFFF
310
FFFFF00007FFFFFFFFFF00007FFFFFF800000000000000007FFFFFFFFFFFFFFF
310
FFFFFFFC001FFFFFFFFFFFFFFC001FFFFFFFFFFFFFFFFFFFFFFFFFFE0007FFFF
310
F000FFFF8000007FFFFFFFF8000FFFFFC0007FFFFF80007FFFFF0000007FFFFF
310
FFF8000007FFFFF800000000000000007FFFFFF0001FFFFFFFFFFFC00001FFFF
310
FFFFFFFFC00001FFFFFFFF000000000003FFFFE000007FFFF000FFFE0000000F
310
FFFFFFF0000FFFFF80007FFFFF80007FFFFC0000001FFFFFFFC0000001FFFFF8
310
00000000000000007FFFFFF0001FFFFFFFFFFE0000003FFFFFFFFFFE0000003F
310
FFFFFF000000000003FFFF0000000FFFF000FFF800000003FFFFFFF00007FFFF
310
80007FFFFF80007FFFF000000007FFFFFF000000003FFFF80000000000000000
310
7FFFFFF0001FFFFFFFFFF80000000FFFFFFFFFF80000000FFFFFFF0000000000
310
03FFFC00000003FFF000FFE000000000FFFFFFF00007FFFF80003FFFFF80007F
310
FFC000000001FFFFFC000000001FFFF800000000000000007FFFFFF0001FFFFF
310
FFFFE000000003FFFFFFFFE000000003FFFFFF000000000003FFF000000000FF
310
F000FF80000000007FFFFFF00007FFFF80003FFFFF80007FFF8000000000FFFF
310
F80000000007FFF800000000000000007FFFFFF0001FFFFFFFFFC000000001FF
310
FFFFFFC000000001FFFFFF000000000003FFC0000000007FF000FF0000000000
310
3FFFFFE00007FFFF00003FFFFF80007FFE00000000003FFFF00000000003FFF8
310
00000000000000007FFFFFF0001FFFFFFFFF8000000000FFFFFFFF8000000000
310
FFFFFF000000000003FF80000000003FF000FE00000000001FFFFFE00003FFFF
310
00003FFFFF80007FFC00000000001FFFE00000000001FFF8000001FFFE000000
310
7FFFFFF0001FFFFFFFFE00000000003FFFFFFE00000000003FFFFF0000000000
310
03FF00000000001FF000FC00000000000FFFFFE00003FFFF00001FFFFF80007F
310
F800000000001FFFC00000000000FFF8000001FFFE0000007FFFFFF0001FFFFF
310
FFFC00000000001FFFFFFC00000000001FFFFF000000000003FE00000000000F
310
F000F8000000000007FFFFE00003FFFF00001FFFFF80007FF800000000000FFF
310
800000000000FFF8000001FFFE0000007FFFFFF0001FFFFFFFF800000000000F
310
FFFFF800000000000FFFFF000000000003FC000000000007F000F80000000000
310
03FFFFC00003FFFE00001FFFFF80007FF0000000000007FF0000000000007FF8
310
000001FFFE0000007FFFFFF0001FFFFFFFF0000000000007FFFFF00000000000
310
07FFFF000000000003F8000000000003F000F0000000000003FFFFC00001FFFE
310
00001FFFFF80007FE0000000000007FE0000000000003FF8000001FFFE000000
310
7FFFFFF0001FFFFFFFF0000000000007FFFFF0000000000007FFFF0000000000
310
03F800001F800003F000E00001FFF00001FFFFC00001FFFE00000FFFFF80007F
310
E00001FFE00003FE00001FFF00003FF8000001FFFE0000007FFFFFF0001FFFFF
310
FFE000003E000003FFFFE000003E000003FFFF000000000003F00001FFF80001
310
F000E00007FFFC0001FFFFC00001FFFE00000FFFFF80007FC0000FFFFC0003FC
310
0000FFFFC0001FF8000001FFFE0000007FFFFFF0001FFFFFFFC00003FFE00001
310
FFFFC00003FFE00001FFFF0001FFFFFFFFF00007FFFE0001F000E0000FFFFF00
310
00FFFF800001FFFC00000FFFFF80007FC0001FFFFE0001FC0001FFFFE0001FF8
310
000001FFFE0000007FFFFFF0001FFFFFFF80000FFFF80000FFFF80000FFFF800
310
00FFFF0003FFFFFFFFE0000FFFFF8000F000C0003FFFFF8000FFFF800000FFFC
310
000007FFFF80007F80003FFFFF0001FC0003FFFFF0001FF8000001FFFE000000
310
7FFFFFF0001FFFFFFF80003FFFFE0000FFFF80003FFFFE0000FFFF0003FFFFFF
310
FFE0003FFFFF8000F000C0003FFFFF8000FFFF800000FFFC000007FFFF80007F
310
80007FFFFF8001F80007FFFFF8000FF8000001FFFE0000007FFFFFF0001FFFFF
310
FF00007FFFFF00007FFF00007FFFFF00007FFF0003FFFFFFFFE0003FFFFFC000
310
F000C0007FFFFFC000FFFF000000FFFC000007FFFF80007F8000FFFFFF8000F8
310
000FFFFFF8000FF8000001FFFE0000007FFFFFF0001FFFFFFF0000FFFFFF8000
310
7FFF0000FFFFFF80007FFF0003FFFFFFFFC0007FFFFFC00070008000FFFFFFC0
310
00FFFF000000FFF8000007FFFF80007F8000FFFFFF8000F8000FFFFFF8000FF8
310
000001FFFE0000007FFFFFF0001FFFFFFE0001FFFFFFC0003FFE0001FFFFFFC0
310
003FFF0003FFFFFFFFC0007FFFFFE00070008000FFFFFFC0007FFF0000007FF8
310
000003FFFF80007F0001FFFFFF8000F8000FFFFFF8000FF8000001FFFE000000
310
7FFFFFF0001FFFFFFE0001FFFFFFC0003FFE0001FFFFFFC0003FFF0003FFFFFF
310
FFC000FFFFFFE00070008000FFFFFFC0007FFF0000007FF8000003FFFF80007F
310
0001FFFFFF8000F8001FFFFFF8000FF8000001FFFE0000007FFFFFF0001FFFFF
310
FE0003FFFFFFE0003FFE0003FFFFFFE0003FFF0003FFFFFFFFC000FFFFFFE000
310
70008000FFFFFFC0007FFE0000007FF8000003FFFF80007F0001FFFFFF8000F0
310
001FFFFFF8000FF8000001FFFE0000007FFFFFF0001FFFFFFC0003FFFFFFE000
310
1FFC0003FFFFFFE0001FFF0003FFFFFFFFC000FFFFFFC00070008000FFFFFF80
310
007FFE0000007FF0000003FFFF80007F0001FFFFFF0000F0001FFFFFF8000FF8
310
000001FFFE0000007FFFFFF0001FFFFFFC0007FFFFFFF0001FFC0007FFFFFFF0
310
001FFF0003FFFFFFFFC000FFFFFFC00070008001FFFFFF0000FFFE0000003FF0
310
000001FFFF80007F0001FFFFFF0000F8001FFFFFF0000FF8000001FFFE000000
310
7FFFFFF0001FFFFFFC0007FFFFFFF0001FFC0007FFFFFFF0001FFF0003FFFFFF
310
FFC001FFFFFF80007000FFFFFFFFFE0000FFFE0008003FF0008001FFFF80007F
310
FFFFFFFFFC0000FFFFFFFFFFE0000FF8000001FFFE0000007FFFFFF0001FFFFF
310
F8000FFFFFFFF8000FF8000FFFFFFFF8000FFF0003FFFFFFFFFFFFFFFFFF0000
310
7000FFFFFFFFFC0000FFFC0008003FF0008001FFFF80007FFFFFFFFFF80001FF
310
FFFFFFFF80000FF8000001FFFE0000007FFFFFF0001FFFFFF8000FFFFFFFF800
310
0FF8000FFFFFFFF8000FFF0003FFFFFFFFFFFFFFFFFE0000F000FFFFFFFFE000
310
00FFFC000C003FE000C001FFFF80007FFFFFFFFFC00001FFFFFFFFFE00001FF8
310
000001FFFE0000007FFFFFF0001FFFFFF8000FFFFFFFF8000FF8000FFFFFFFF8
310
000FFF0003FFFFFFFFFFFFFFFFF00000F000FFFFFFFE000001FFFC000C001FE0
310
00C000FFFF80007FFFFFFFFE000001FFFFFFFFE000001FF80FFFFFFFFFFFFFC0
310
7FFFFFF0001FFFFFF8000FFFFFFFF8000FF8000FFFFFFFF8000FFF0003FFFFFF
310
FFFFFFFFFF800000F000FFFFFFC0000001FFFC001C001FE001C000FFFF80007F
310
FFFFFF80000003FFFFFFF80000001FF80FFFFFFFFFFFFFC07FFFFFF0001FFFFF
310
F8001FFFFFFFFC000FF8001FFFFFFFFC000FFF0003FFFFFFFFFFFFFFF0000001
310
F000FFFFF800000001FFF8001C001FE001C000FFFF80007FFFFFF800000003FF
310
FFFF800000003FF80FFFFFFFFFFFFFC07FFFFFF0001FFFFFF8001FFFFFFFFC00
310
0FF8001FFFFFFFFC000FFF0003FFFFFFFFFFFFFE00000001F000FFFFC0000000
310
03FFF8001E001FC001E000FFFF80007FFFFF8000000007FFFFFC000000003FF8
310
0FFFFFFFFFFFFFC07FFFFFF0001FFFFFF8001FFFFFFFFC000FF8001FFFFFFFFC
310
000FFF0003FFFFFFFFFFFFE000000003F000FFFE0000000007FFF8001E000FC0
310
01E0007FFF80007FFFFE0000000007FFFFE0000000007FF80FFFFFFFFFFFFFC0
310
7FFFFFF0001FFFFFF0001FFFFFFFFC0007F0001FFFFFFFFC0007FF0003FFFFFF
310
FFFFFF0000000003F000FFF80000000007FFF8001E000FC003E0007FFF80007F
310
FFF0000000000FFFFF8000000000FFF80FFFFFFFFFFFFFC07FFFFFF0001FFFFF
310
F0001FFFFFFFFC0007F0001FFFFFFFFC0007FF0003FFFFFFFFFFFC0000000007
310
F000FFE0000000000FFFF0003E000FC003E0007FFF80007FFFC0000000001FFF
310
FE0000000001FFF80FFFFFFFFFFFFFC07FFFFFF0001FFFFFF0001FFFFFFFFC00
310
07F0001FFFFFFFFC0007FF0003FFFFFFFFFFF0000000000FF000FFC000000000
310
1FFFF0003F000F8003F0003FFF80007FFF80000000003FFFF80000000003FFF8
310
0FFFFFFFFFFFFFC07FFFFFF0001FFFFFF0001FFFFFFFFC0007F0001FFFFFFFFC
310
0007FF0003FFFFFFFFFFE0000000001FF000FF00000000007FFFF0003F000780
310
03F0003FFF80007FFF00000000007FFFF00000000007FFF80FFFFFFFFFFFFFC0
310
7FFFFFF0001FFFFFF0001FFFFFFFFC0007F0001FFFFFFFFC0007FF0003FFFFFF
310
FFFF80000000007FF000FE0000000000FFFFE0003F00078007F0003FFF80007F
310
FE0000000001FFFFE0000000001FFFF80FFFFFFFFFFFFFC07FFFFFF0001FFFFF
310
F0001FFFFFFFFC0007F0001FFFFFFFFC0007FF0003FFFFFFFFFF0000000000FF
310
F000FC0000000003FFFFE0007F00078007F0003FFF80007FFC0000000007FFFF
310
C0000000007FFFF80FFFFFFFFFFFFFC07FFFFFF0001FFFFFF8001FFFFFFFFC00
310
0FF8001FFFFFFFFC000FFF0003FFFFFFFFFE0000000003FFF000FC000000000F
310
FFFFE0007F80070007F8001FFF80007FF8000000001FFFFF8000000001FFFFF8
310
0FFFFFFFFFFFFFC07FFFFFF0001FFFFFF8001FFFFFFFFC000FF8001FFFFFFFFC
310
000FFF0003FFFFFFFFFC000000000FFFF000F8000000007FFFFFE0007F800700
310
07F8001FFF80007FF000000000FFFFFF800000000FFFFFF80FFFFFFFFFFFFFC0
310
7FFFFFF0001FFFFFF8000FFFFFFFF8000FF8000FFFFFFFF8000FFF0003FFFFFF
310
FFFC000000007FFFF000F800000007FFFFFFC0007F8003000FF8001FFF80007F
310
F000000007FFFFFF000000007FFFFFF80FFFFFFFFFFFFFC07FFFFFF0001FFFFF
310
F8000FFFFFFFF8000FF8000FFFFFFFF8000FFF0003FFFFFFFFF80000000FFFFF
310
F000F0000000FFFFFFFFC000FF8003000FF8001FFF80007FE0000000FFFFFFFF
310
0000000FFFFFFFF8000001FFFE0000007FFFFFF0001FFFFFF8000FFFFFFFF800
310
0FF8000FFFFFFFF8000FFF0003FFFFFFFFF8000000FFFFFFF000F000000FFFFF
310
FFFFC000FFC002000FF8000FFF80007FE000001FFFFFFFFE000001FFFFFFFFF8
310
000001FFFE0000007FFFFFF0001FFFFFF8000FFFFFFFF8000FF8000FFFFFFFF8
310
000FFF0003FFFFFFFFF000001FFFFFFFF000E00000FFFFFFFFFFC000FFC00200
310
0FFC000FFF80007FE00001FFFFFFFFFE00001FFFFFFFFFF8000001FFFE000000
310
7FFFFFF0001FFFFFFC000FFFFFFFF8001FFC000FFFFFFFF8001FFF0003FFFFFF
310
FFF00001FFFFFFFFF000E00007FFFFFFFFFF8000FFC000001FFC000FFF80007F
310
C0000FFFFFFFFFFE0000FFFFFFFFFFF8000001FFFE0000007FFFFFF0001FFFFF
310
FC0007FFFFFFF0001FFC0007FFFFFFF0001FFF0003FFFFFFFFF00007FFFFFFFF
310
F000E0001FFFFFFFFFFF8000FFC000001FFC000FFF80007FC0003FFFFFFFFFFE
310
0001FFFFFFFFFFF8000001FFFE0000007FFFFFF0001FFFFFFC0007FFFFFFF000
310
1FFC0007FFFFFFF0001FFF0003FFFFFFFFF0001FFFFFFFFFF000E0003FFFFF00
310
03FF8001FFE000001FFC0007FF80007FC0007FFFFF0007FC0003FFFFF0003FF8
310
000001FFFE0000007FFFFFF0001FFFFFFC0003FFFFFFE0001FFC0003FFFFFFE0
310
001FFF0003FFFFFFFFF0003FFFFFFFFFF000E0003FFFFF0001FF8001FFE00000
310
1FFE0007FF80007FC0007FFFFE0003FC0007FFFFE0003FF8000001FFFE000000
310
7FFFFFF0001FFFFFFE0003FFFFFFE0003FFE0003FFFFFFE0003FFF0003FFFFFF
310
FFF0003FFFFF8001F000E0003FFFFF0001FF0001FFE000001FFE0007FF80007F
310
C0007FFFFE0003FC0007FFFFE0003FF8000001FFFE0000007FFFFFF0001FFFFF
310
FE0001FFFFFFC0003FFE0001FFFFFFC0003FFF0003FFFFFFFFF0003FFFFF0001
310
F000E0003FFFFF0003FF0001FFE000003FFE0007FF80007FC0007FFFFE0003FC
310
0007FFFFE0003FF8000001FFFE0000007FFFFFF0001FFFFFFF0001FFFFFFC000
310
7FFF0001FFFFFFC0007FFF0003FFFFFFFFF0003FFFFF0001F000E0003FFFFE00
310
03FF0003FFF000003FFE0003FF80007FC0007FFFFC0003FE0007FFFFE0003FF8
310
000001FFFE0000007FFFFFF0001FFFFFFF0000FFFFFF80007FFF0000FFFFFF80
310
007FFF0003FFFFFFFFF0003FFFFF0001F000E0003FFFFE0003FF0003FFF00000
310
3FFF0003FF80007FC0007FFFFC0007FE0007FFFFC0003FF8000001FFFE000000
310
7FFFFFF0001FFFFFFF80007FFFFF0000FFFF80007FFFFF0000FFFF0003FFFFFF
310
FFF0003FFFFF0003F000E0003FFFFC0003FE0003FFF000003FFF0003FF80007F
310
E0003FFFF80007FE0003FFFFC0007FF8000001FFFE0000007FFFFFF0001FFFFF
310
FF80003FFFFE0000FFFF80003FFFFE0000FFFF0003FFFFFFFFF0001FFFFE0003
310
F000F0001FFFF80003FE0003FFF000007FFF0001FF80007FE0003FFFF00007FE
310
0001FFFF80007FF8000001FFFE0000007FFFFFF0001FFFFFFFC0000FFFF80001
310
FFFFC0000FFFF80001FFFF0003FFFFFFFFF0001FFFFC0003F000F0000FFFF000
310
07FE0007FFF800007FFF0001FF80007FE0001FFFE00007FF0000FFFE00007FF8
310
000001FFFE0000007FFFFFF0001FFFFFFFC00003FFE00001FFFFC00003FFE000
310
01FFFF0003FFFFFFFFF8000FFFF80003F000F00003FFC00007FC0007FFF80000
310
7FFF8001FF80007FF00007FF80000FFF00007FF80000FFF8000001FFFE000000
310
7F80000000000001FFE000003E000003FFFFE000003E000003FFFF0003FFFFFF
310
FFF80003FFE00007F000F800000000000FFC0007FFF800007FFF8001FF80007F
310
F000000000000FFF000000000000FFF8000001FFFE0000007F80000000000001
310
FFF0000000000007FFFFF0000000000007FFFF0003FFFFFFFFFC00007E000007
310
F000F800000000000FFC0007FFF80000FFFF8000FF80007FF800000000001FFF
310
800000000001FFF8000001FFFE0000007F80000000000001FFF800000000000F
310
FFFFF800000000000FFFFF0003FFFFFFFFFC00000000000FF000FC0000000000
310
1FFC0007FFFC0000FFFF8000FF80007FF800000000003FFFC00000000001FFF8
310
000001FFFE0000007F80000000000001FFF800000000000FFFFFF80000000000
310
0FFFFF0003FFFFFFFFFE00000000001FF000FE00000000003FF8000FFFFC0000
310
FFFF8000FF80007FFC00000000003FFFC00000000003FFF8000001FFFE000000
310
7F80000000000001FFFC00000000001FFFFFFC00000000001FFFFF0003FFFFFF
310
FFFF00000000001FF000FF00000000003FF8000FFFFC0000FFFFC000FF80007F
310
FE00000000007FFFE00000000007FFF8000001FFFE0000007F80000000000001
310
FFFE00000000003FFFFFFE00000000003FFFFF0003FFFFFFFFFF80000000003F
310
F000FF80000000007FF8000FFFFC0001FFFFC0007F80007FFF0000000000FFFF
310
F0000000000FFFF800000000000000007F80000000000001FFFF8000000000FF
310
FFFFFF8000000000FFFFFF0003FFFFFFFFFFC0000000007FF000FFC000000000
310
FFF8000FFFFE0001FFFFC0007F80007FFF8000000001FFFFF8000000001FFFF8
310
00000000000000007F80000000000001FFFFC000000001FFFFFFFFC000000001
310
FFFFFF0003FFFFFFFFFFE000000000FFF000FFE000000003FFF0001FFFFE0001
310
FFFFC0007F80007FFFC000000007FFFFFE000000003FFFF80000000000000000
310
7F80000000000001FFFFE000000003FFFFFFFFE000000003FFFFFF0003FFFFFF
310
FFFFF000000003FFF000FFF80000000FFFF0001FFFFE0001FFFFE0007F80007F
310
FFF00000000FFFFFFF00000000FFFFF800000000000000007F80000000000001
310
FFFFF80000000FFFFFFFFFF80000000FFFFFFF0003FFFFFFFFFFFC0000000FFF
310
F000FFFE0000003FFFF0001FFFFE0003FFFFE0003F80007FFFFC0000003FFFFF
310
FFC0000003FFFFF800000000000000007F80000000000001FFFFFE0000003FFF
310
FFFFFFFE0000003FFFFFFF0003FFFFFFFFFFFF0000003FFFF000FFFF800000FF
310
FFF0001FFFFF0003FFFFE0003F80007FFFFF000001FFFFFFFFF800001FFFFFF8
310
00000000000000007F80000000000001FFFFFFC00001FFFFFFFFFFFFC00001FF
310
FFFFFF0003FFFFFFFFFFFFC00000FFFFF000FFFFF8000FFFFFFFFFFFFFFFFFFF
310
FFFFFFFFFFFFFFFFFFFFF0001FFFFFFFFFFF0000FFFFFFF80000000000000000
310
7FFFFFFFFFFFFFFFFFFFFFFC001FFFFFFFFFFFFFFC001FFFFFFFFFFFFFFFFFFF
310
FFFFFFFC001FFFFFF000FFFFFFFFFFFFFFFFFFFFFFFFFFFFFFFFFFFFFFFFFFFF
310
FFFFFFFFFFFFFFFFFFFFFFFFFFFFFFFFFFFFFFFFFFFFFFFFFFFFFFFFFFFFFFFF
310
FFFFFFFFFFFFFFFFFFFFFFFFFFFFFFFFFFFFFFFFFFFFFFFFFFFFFFFFFFFFFFFF
310
F000FFFFFFFFFFFFFFFFFFFFFFFFFFFFFFFFFFFFFFFFFFFFFFFFFFFFFFFFFFFF
310
FFFFFFFFFFFFFFFFFFFFFFFFFFFFFFFFFFFFFFFFFFFFFFFFFFFFFFFFFFFFFFFF
310
FFFFFFFFFFFFFFFFFFFFFFFFFFFFFFFFFFFFFFFFFFFFFFFFF000FFFFFFFFFFFF
310
FFFFFFFFFFFFFFFFFFFFFFFFFFFFFFFFFFFFFFFFFFFFFFFFFFFFFFFFFFFFFFFF
310
FFFFFFFFFFFFFFFFFFFFFFFFFFFFFFFFFFFFFFFFFFFFFFFFFFFFFFFFFFFFFFFF
310
FFFFFFFFFFFFFFFFFFFFFFFFFFFFFFFFF000FFFFFFFFFFFFFFFFFFFFFFFFFFFF
310
FFFFFFFFFFFFFFFFFFFFFFFFFFFFFFFFFFFFFFFFFFFFFFFFFFFFFFFFFFFFFFFF
310
FFFFFFFFFFFFFFFFFFFFFFFFFFFFFFFFFFFFFFFFFFFFFFFFFFFFFFFFFFFFFFFF
310
FFFFFFFFFFFFFFFFF000FFFFFFFFFFFFFFFFFFFFFFFFFFFFFFFFFFFFFFFFFFFF
310
FFFFFFFFFFFFFFFFFFFFFFFFFFFFFFFFFFFFFFFFFFFFFFFFFFFFFFFFFFFFFFFF
310
FFFFFFFFFFFFFFFFFFFFFFFFFFFFFFFFFFFFFFFFFFFFFFFFFFFFFFFFFFFFFFFF
310
F000FFFFFFFFFFFFFFFFFFFFFFFFFFFFFFFFFFFFFFFFFFFFFFFFFFFFFFFFFFFF
310
FFFFFFFFFFFFFFFFFFFFFFFFFFFFFFFFFFFFFFFFFFFFFFFFFFFFFFFFFFFFFFFF
310
FFFFFFFFFFFFFFFFFFFFFFFFFFFFFFFFFFFFFFFFFFFFFFFFF000FFFFFFFFFFFF
310
FFFFFFFFFFFFFFFFFFFFFFFFFFFFFFFFFFFFFFFFFFFFFFFFFFFFFFFFFFFFFFFF
310
FFFFFFFFFFFFFFFFFFFFFFFFFFFFFFFFFFFFFFFFFFFFFFFFFFFFFFFFFFFFFFFF
310
FFFFFFFFFFFFFFFFFFFFFFFFFFFFFFFFF000FFFFFFFFFFFFFFFFFFFFFFFFFFFF
310
FFFFFFFFFFFFFFFFFFFFFFFFFFFFFFFFFFFFFFFFFFFFFFFFFFFFFFFFFFFFFFFF
310
FFFFFFFFFFFFFFFFFFFFFFFFFFFFFFFFFFFFFFFFFFFFFFFFFFFFFFFFFFFFFFFF
310
FFFFFFFFFFFFFFFFF000FFFFFFFFFFFFFFFFFFFFFFFFFFFFFFFFFFFFFFFFFFFF
310
FFFFFFFFFFFFFFFFFFFFFFFFFFFFFFFFFFFFFFFFFFFFFFFFFFFFFFFFFFFFFFFF
310
FFFFFFFFFFFFFFFFFFFFFFFFFFFFFFFFFFFFFFFFFFFFFFFFFFFFFFFFFFFFFFFF
310
F000FFFFFFFFFFFFFFFFFFFFFFFFFFFFFFFFFFFFFFFFFFFFFFFFFFFFFFFFFFFF
310
FFFFFFFFFFFFFFFFFFFFFFFFFFFFFFFFFFFFFFFFFFFFFFFFFFFFFFFFFFFFFFFF
310
FFFFFFFFFFFFFFFFFFFFFFFFFFFFFFFFFFFFFFFFFFFFFFFFF000FFFFFFFFFFFF
310
FFFFFFFFFFFFFFFFFFFFFFFFFFFFFFFFFFFFFFFFFFFFFFFFFFFFFFFFFFFFFFFF
310
FFFFFFFFFFFFFFFFFFFFFFFFFFFFFFFFFFFFFFFFFFFFFFFFFFFFFFFFFFFFFFFF
310
FFFFFFFFFFFFFFFFFFFFFFFFFFFFFFFFF000FFFFFFFFFFFFFFFFFFFFFFFFFFFF
310
FFFFFFFFFFFFFFFFFFFFFFFFFFFFFFFFFFFFFFFFFFFFFFFFFFFFFFFFFFFFFFFF
310
FFFFFFFFFFFFFFFFFFFFFFFFFFFFFFFFFFFFFFFFFFFFFFFFFFFFFFFFFFFFFFFF
310
FFFFFFFFFFFFFFFFF000FFFFFFFFFFFFFFFFFFFFFFFFFFFFFFFFFFFFFFFFFFFF
310
FFFFFFFFFFFFFFFFFFFFFFFFFFFFFFFFFFFFFFFFFFFFFFFFFFFFFFFFFFFFFFFF
310
FFFFFFFFFFFFFFFFFFFFFFFFFFFFFFFFFFFFFFFFFFFFFFFFFFFFFFFFFFFFFFFF
310
F000FFFFFFFFFFFFFFFFFFFFFFFFFFFFFFFFFFFFFFFFFFFFFFFFFFFFFFFFFFFF
310
FFFFFFFFFFFFFFFFFFFFFFFFFFFFFFFFFFFFFFFFFFFFFFFFFFFFFFFFFFFFFFFF
310
FFFFFFFFFFFFFFFFFFFFFFFFFFFFFFFFFFFFFFFFFFFFFFFFF000FFFFFFFFFFFF
310
FFFFFFFFFFFFFFFFFFFFFFFFFFFFFFFFFFFFFFFFFFFFFFFFFFFFFFFFFFFFFFFF
310
FFFFFFFFFFFFFFFFFFFFFFFFFFFFFFFFFFFFFFFFFFFFFFFFFFFFFFFFFFFFFFFF
310
FFFFFFFFFFFFFFFFFFFFFFFFFFFFFFFFF000FFFFFFFFFFFFFFFFFFFFFFFFFFFF
310
FFFFFFFFFFFFFFFFFFFFFFFFFFFFFFFFFFFFFFFFFFFFFFFFFFFFFFFFFFFFFFFF
310
FFFFFFFFFFFFFFFFFFFFFFFFFFFFFFFFFFFFFFFFFFFFFFFFFFFFFFFFFFFFFFFF
310
FFFFFFFFFFFFFFFFF000FFFFFFFFFFFFFFFFFFFFFFFFFFFFFFFFFFFFFFFFFFFF
310
FFFFFFFFFFFFFFFFFFFFFFFFFFFFFFFFFFFFFFFFFFFFFFFFFFFFFFFFFFFFFFFF
310
FFFFFFFFFFFFFFFFFFFFFFFFFFFFFFFFFFFFFFFFFFFFFFFFFFFFFFFFFFFFFFFF
310
F000FFFFFFFFFFFFFFFFFFFFFFFFFFFFFFFFFFFFFFFFFFFFFFFFFFFFFFFFFFFF
310
FFFFFFFFFFFFFFFFFFFFFFFFFFFFFFFFFFFFFFFFFFFFFFFFFFFFFFFFFFFFFFFF
310
FFFFFFFFFFFFFFFFFFFFFFFFFFFFFFFFFFFFFFFFFFFFFFFFF000FFFFFFFFFFFF
310
FFFFFFFFFFFFFFFFFFFFFFFFFFFFFFFFFFFFFFFFFFFFFFFFFFFFFFFFFFFFFFFF
310
FFFFFFFFFFFFFFFFFFFFFFFFFFFFFFFFFFFFFFFFFFFFFFFFFFFFFFFFFFFFFFFF
310
FFFFFFFFFFFFFFFFFFFFFFFFFFFFFFFFF000FFFFFFFFFFFFFFFFFFFFFFFFFFFF
310
FFFFFFFFFFFFFFFFFFFFFFFFFFFFFFFFFFFFFFFFFFFFFFFFFFFFFFFFFFFFFFFF
310
FFFFFFFFFFFFFFFFFFFFFFFFFFFFFFFFFFFFFFFFFFFFFFFFFFFFFFFFFFFFFFFF
310
FFFFFFFFFFFFFFFFF000FFFFFFFFFFFFFFFFFFFFFFFFFFFFFFFFFFFFFFFFFFFF
310
FFFFFFFFFFFFFFFFFFFFFFFFFFFFFFFFFFFFFFFFFFFFFFFFFFFFFFFFFFFFFFFF
310
FFFFFFFFFFFFFFFFFFFFFFFFFFFFFFFFFFFFFFFFFFFFFFFFFFFFFFFFFFFFFFFF
310
F000FFFFFFFFFFFFFFFFFFFFFFFFFFFFFFFFFFFFFFFFFFFFFFFFFFFFFFFFFFFF
310
FFFFFFFFFFFFFFFFFFFFFFFFFFFFFFFFFFFFFFFFFFFFFFFFFFFFFFFFFFFFFFFF
310
FFFFFFFFFFFFFFFFFFFFFFFFFFFFFFFFFFFFFFFFFFFFFFFFF000FFFFFFFFFFFF
310
FFFFFFFFFFFFFFFFFFFFFFFFFFFFFFFFFFFFFFFFFFFFFFFFFFFFFFFFFFFFFFFF
310
FFFFFFFFFFFFFFFFFFFFFFFFFFFFFFFFFFFFFFFFFFFFFFFFFFFFFFFFFFFFFFFF
310
FFFFFFFFFFFFFFFFFFFFFFFFFFFFFFFFF0000000000000000000000000000000
310
0000000000000000000000000000000000000000000000000000000000000000
310
0000000000000000000000000000000000000000000000000000000000000000
310
0000000000000000000000000000000000000000000000000000000000000000
310
0000000000000000000000000000000000000000000000000000000000000000
310
0000000000000000000000000000000000000000000000000000000000000000
310
0000000000000000000000000000000000000000000000000000000000000000
310
0000000000000000000000000000000000000000000000000000000000000000
310
0000000000000000000000000000000000000000000000000000000000000000
310
0000000000000000000000000000000000000000000000000000000000000000
310
0000000000000000000000000000000000000000000000000000000000000000
310
0000000000000000000000000000000000000000000000000000000000000000
310
0000000000000000000000000000000000000000000000000000000000000000
310
0000000000000000000000000000000000000000000000000000000000000000
310
0000000000000000000000000000000000000000000000000000000000000000
310
0000000000000000000000000000000000000000000000000000000000000000
  1
OLE
  0
ENDSEC
  0
SECTION
  2
OBJECTS
  0
DICTIONARY
  5
C
330
0
100
AcDbDictionary
281
     1
  3
ACAD_GROUP
350
D
  3
ACAD_LAYOUT
350
1A
  3
ACAD_MLINESTYLE
350
17
  3
ACAD_PLOTSETTINGS
350
19
  3
ACAD_PLOTSTYLENAME
350
E
  3
ACAD_SCALELIST
350
47
  0
DICTIONARY
  5
D
102
{ACAD_REACTORS
330
C
102
}
330
C
100
AcDbDictionary
281
     1
  0
DICTIONARY
  5
1A
102
{ACAD_REACTORS
330
C
102
}
330
C
100
AcDbDictionary
281
     1
  3
Layout1
350
1E
  3
Layout2
350
26
  3
Model
350
22
  0
DICTIONARY
  5
17
102
{ACAD_REACTORS
330
C
102
}
330
C
100
AcDbDictionary
281
     1
  3
Standard
350
18
  0
DICTIONARY
  5
19
102
{ACAD_REACTORS
330
C
102
}
330
C
100
AcDbDictionary
281
     1
  0
ACDBDICTIONARYWDFLT
  5
E
102
{ACAD_REACTORS
330
C
102
}
330
C
100
AcDbDictionary
281
     1
  3
Normal
350
F
100
AcDbDictionaryWithDefault
340
F
  0
DICTIONARY
  5
47
102
{ACAD_REACTORS
330
C
102
}
330
C
100
AcDbDictionary
281
     1
  3
A0
350
48
  3
A1
350
49
  3
A2
350
4A
  3
A3
350
4B
  3
A4
350
4C
  3
A5
350
4D
  3
A6
350
4E
  3
A7
350
4F
  3
A8
350
50
  3
A9
350
51
  3
B0
350
52
  3
B1
350
53
  3
B2
350
54
  3
B3
350
55
  3
B4
350
56
  3
B5
350
57
  3
B6
350
58
  3
B7
350
59
  3
B8
350
5A
  3
B9
350
5B
  3
C0
350
5C
  3
C1
350
5D
  3
C2
350
5E
  3
C3
350
5F
  3
C4
350
60
  3
C5
350
61
  3
C6
350
62
  3
C7
350
63
  3
C8
350
64
  3
C9
350
65
  3
D0
350
66
  3
D1
350
67
  3
D2
350
68
  0
LAYOUT
  5
1E
102
{ACAD_REACTORS
330
1A
102
}
330
1A
100
AcDbPlotSettings
  1

  2
none_device
  4

  6

 40
0.0
 41
0.0
 42
0.0
 43
0.0
 44
0.0
 45
0.0
 46
0.0
 47
0.0
 48
0.0
 49
0.0
140
0.0
141
0.0
142
1.0
143
1.0
 70
   688
 72
     1
 73
     0
 74
     5
  7

 75
    16
147
1.0
148
0.0
149
0.0
100
AcDbLayout
  1
Layout1
 70
     1
 71
     1
 10
0.0
 20
0.0
 11
420.0
 21
297.0
 12
0.0
 22
0.0
 32
0.0
 14
1.0000000000E+20
 24
1.0000000000E+20
 34
1.0000000000E+20
 15
-1.0000000000E+20
 25
-1.0000000000E+20
 35
-1.0000000000E+20
146
0.0
 13
0.0
 23
0.0
 33
0.0
 16
1.0
 26
0.0
 36
0.0
 17
0.0
 27
1.0
 37
0.0
 76
     0
330
1B
  0
LAYOUT
  5
26
102
{ACAD_REACTORS
330
1A
102
}
330
1A
100
AcDbPlotSettings
  1

  2
none_device
  4

  6

 40
0.0
 41
0.0
 42
0.0
 43
0.0
 44
0.0
 45
0.0
 46
0.0
 47
0.0
 48
0.0
 49
0.0
140
0.0
141
0.0
142
1.0
143
1.0
 70
   688
 72
     1
 73
     0
 74
     5
  7

 75
    16
147
1.0
148
0.0
149
0.0
100
AcDbLayout
  1
Layout2
 70
     1
 71
     2
 10
0.0
 20
0.0
 11
0.0
 21
0.0
 12
0.0
 22
0.0
 32
0.0
 14
0.0
 24
0.0
 34
0.0
 15
0.0
 25
0.0
 35
0.0
146
0.0
 13
0.0
 23
0.0
 33
0.0
 16
1.0
 26
0.0
 36
0.0
 17
0.0
 27
1.0
 37
0.0
 76
     0
330
23
  0
LAYOUT
  5
22
102
{ACAD_REACTORS
330
1A
102
}
330
1A
100
AcDbPlotSettings
  1

  2
none_device
  4
Letter_(8.50_x_11.00_Inches)
  6

 40
6.35
 41
6.35
 42
6.35000508
 43
6.35000508
 44
215.9
 45
279.4
 46
0.0
 47
0.0
 48
0.0
 49
0.0
140
0.0
141
0.0
142
1.0
143
1.0
 70
  1712
 72
     1
 73
     0
 74
     0
  7

 75
     0
147
1.0
148
0.0
149
0.0
100
AcDbLayout
  1
Model
 70
     1
 71
     0
 10
0.0
 20
0.0
 11
297.0
 21
210.0
 12
0.0
 22
0.0
 32
0.0
 14
0.0
 24
0.0
 34
0.0
 15
297.0
 25
210.0
 35
0.0
146
0.0
 13
0.0
 23
0.0
 33
0.0
 16
1.0
 26
0.0
 36
0.0
 17
0.0
 27
1.0
 37
0.0
 76
     0
330
1F
331
29
  0
MLINESTYLE
  5
18
102
{ACAD_REACTORS
330
17
102
}
330
17
100
AcDbMlineStyle
  2
Standard
 70
     0
  3

 62
   256
 51
90.0
 52
90.0
 71
     2
 49
0.5
 62
   256
  6
BYLAYER
 49
-0.5
 62
   256
  6
BYLAYER
  0
ACDBPLACEHOLDER
  5
F
102
{ACAD_REACTORS
330
E
102
}
330
E
  0
SCALE
  5
48
102
{ACAD_REACTORS
330
47
102
}
330
47
100
AcDbScale
 70
     0
300
1:1
140
1.0
141
1.0
290
     1
  0
SCALE
  5
49
102
{ACAD_REACTORS
330
47
102
}
330
47
100
AcDbScale
 70
     0
300
1:2
140
1.0
141
2.0
290
     0
  0
SCALE
  5
4A
102
{ACAD_REACTORS
330
47
102
}
330
47
100
AcDbScale
 70
     0
300
1:4
140
1.0
141
4.0
290
     0
  0
SCALE
  5
4B
102
{ACAD_REACTORS
330
47
102
}
330
47
100
AcDbScale
 70
     0
300
1:5
140
1.0
141
5.0
290
     0
  0
SCALE
  5
4C
102
{ACAD_REACTORS
330
47
102
}
330
47
100
AcDbScale
 70
     0
300
1:8
140
1.0
141
8.0
290
     0
  0
SCALE
  5
4D
102
{ACAD_REACTORS
330
47
102
}
330
47
100
AcDbScale
 70
     0
300
1:10
140
1.0
141
10.0
290
     0
  0
SCALE
  5
4E
102
{ACAD_REACTORS
330
47
102
}
330
47
100
AcDbScale
 70
     0
300
1:16
140
1.0
141
16.0
290
     0
  0
SCALE
  5
4F
102
{ACAD_REACTORS
330
47
102
}
330
47
100
AcDbScale
 70
     0
300
1:20
140
1.0
141
20.0
290
     0
  0
SCALE
  5
50
102
{ACAD_REACTORS
330
47
102
}
330
47
100
AcDbScale
 70
     0
300
1:30
140
1.0
141
30.0
290
     0
  0
SCALE
  5
51
102
{ACAD_REACTORS
330
47
102
}
330
47
100
AcDbScale
 70
     0
300
1:40
140
1.0
141
40.0
290
     0
  0
SCALE
  5
52
102
{ACAD_REACTORS
330
47
102
}
330
47
100
AcDbScale
 70
     0
300
1:50
140
1.0
141
50.0
290
     0
  0
SCALE
  5
53
102
{ACAD_REACTORS
330
47
102
}
330
47
100
AcDbScale
 70
     0
300
1:100
140
1.0
141
100.0
290
     0
  0
SCALE
  5
54
102
{ACAD_REACTORS
330
47
102
}
330
47
100
AcDbScale
 70
     0
300
2:1
140
2.0
141
1.0
290
     0
  0
SCALE
  5
55
102
{ACAD_REACTORS
330
47
102
}
330
47
100
AcDbScale
 70
     0
300
4:1
140
4.0
141
1.0
290
     0
  0
SCALE
  5
56
102
{ACAD_REACTORS
330
47
102
}
330
47
100
AcDbScale
 70
     0
300
8:1
140
8.0
141
1.0
290
     0
  0
SCALE
  5
57
102
{ACAD_REACTORS
330
47
102
}
330
47
100
AcDbScale
 70
     0
300
10:1
140
10.0
141
1.0
290
     0
  0
SCALE
  5
58
102
{ACAD_REACTORS
330
47
102
}
330
47
100
AcDbScale
 70
     0
300
100:1
140
100.0
141
1.0
290
     0
  0
SCALE
  5
59
102
{ACAD_REACTORS
330
47
102
}
330
47
100
AcDbScale
 70
     0
300
1/128" = 1'-0"
140
0.0078125
141
12.0
290
     0
  0
SCALE
  5
5A
102
{ACAD_REACTORS
330
47
102
}
330
47
100
AcDbScale
 70
     0
300
1/64" = 1'-0"
140
0.015625
141
12.0
290
     0
  0
SCALE
  5
5B
102
{ACAD_REACTORS
330
47
102
}
330
47
100
AcDbScale
 70
     0
300
1/32" = 1'-0"
140
0.03125
141
12.0
290
     0
  0
SCALE
  5
5C
102
{ACAD_REACTORS
330
47
102
}
330
47
100
AcDbScale
 70
     0
300
1/16" = 1'-0"
140
0.0625
141
12.0
290
     0
  0
SCALE
  5
5D
102
{ACAD_REACTORS
330
47
102
}
330
47
100
AcDbScale
 70
     0
300
3/32" = 1'-0"
140
0.09375
141
12.0
290
     0
  0
SCALE
  5
5E
102
{ACAD_REACTORS
330
47
102
}
330
47
100
AcDbScale
 70
     0
300
1/8" = 1'-0"
140
0.125
141
12.0
290
     0
  0
SCALE
  5
5F
102
{ACAD_REACTORS
330
47
102
}
330
47
100
AcDbScale
 70
     0
300
3/16" = 1'-0"
140
0.1875
141
12.0
290
     0
  0
SCALE
  5
60
102
{ACAD_REACTORS
330
47
102
}
330
47
100
AcDbScale
 70
     0
300
1/4" = 1'-0"
140
0.25
141
12.0
290
     0
  0
SCALE
  5
61
102
{ACAD_REACTORS
330
47
102
}
330
47
100
AcDbScale
 70
     0
300
3/8" = 1'-0"
140
0.375
141
12.0
290
     0
  0
SCALE
  5
62
102
{ACAD_REACTORS
330
47
102
}
330
47
100
AcDbScale
 70
     0
300
1/2" = 1'-0"
140
0.5
141
12.0
290
     0
  0
SCALE
  5
63
102
{ACAD_REACTORS
330
47
102
}
330
47
100
AcDbScale
 70
     0
300
3/4" = 1'-0"
140
0.75
141
12.0
290
     0
  0
SCALE
  5
64
102
{ACAD_REACTORS
330
47
102
}
330
47
100
AcDbScale
 70
     0
300
1" = 1'-0"
140
1.0
141
12.0
290
     0
  0
SCALE
  5
65
102
{ACAD_REACTORS
330
47
102
}
330
47
100
AcDbScale
 70
     0
300
1-1/2" = 1'-0"
140
1.5
141
12.0
290
     0
  0
SCALE
  5
66
102
{ACAD_REACTORS
330
47
102
}
330
47
100
AcDbScale
 70
     0
300
3" = 1'-0"
140
3.0
141
12.0
290
     0
  0
SCALE
  5
67
102
{ACAD_REACTORS
330
47
102
}
330
47
100
AcDbScale
 70
     0
300
6" = 1'-0"
140
6.0
141
12.0
290
     0
  0
SCALE
  5
68
102
{ACAD_REACTORS
330
47
102
}
330
47
100
AcDbScale
 70
     0
300
1'-0" = 1'-0"
140
12.0
141
12.0
290
     0
  0
ENDSEC
  0
EOF
