  0
SECTION
  2
HEADER
  9
$ACADVER
  1
AC1015
  9
$ACADMAINTVER
 70
     6
  9
$DWGCODEPAGE
  3
ANSI_1252
  9
$INSBASE
 10
0.0
 20
0.0
 30
0.0
  9
$EXTMIN
 10
0.0
 20
0.0
 30
0.0
  9
$EXTMAX
 10
297.0
 20
210.0
 30
0.0
  9
$LIMMIN
 10
0.0
 20
0.0
  9
$LIMMAX
 10
297.0
 20
210.0
  9
$ORTHOMODE
 70
     0
  9
$REGENMODE
 70
     1
  9
$FILLMODE
 70
     1
  9
$QTEXTMODE
 70
     0
  9
$MIRRTEXT
 70
     1
  9
$LTSCALE
 40
1.0
  9
$ATTMODE
 70
     1
  9
$TEXTSIZE
 40
2.0
  9
$TRACEWID
 40
1.0
  9
$TEXTSTYLE
  7
Standard
  9
$CLAYER
  8
0
  9
$CELTYPE
  6
ByLayer
  9
$CECOLOR
 62
   256
  9
$CELTSCALE
 40
1.0
  9
$DISPSILH
 70
     0
  9
$DIMSCALE
 40
1.0
  9
$DIMASZ
 40
3.0
  9
$DIMEXO
 40
0.0
  9
$DIMDLI
 40
3.75
  9
$DIMRND
 40
0.0
  9
$DIMDLE
 40
0.0
  9
$DIMEXE
 40
1.0
  9
$DIMTP
 40
0.0
  9
$DIMTM
 40
0.0
  9
$DIMTXT
 40
2.0
  9
$DIMCEN
 40
2.5
  9
$DIMTSZ
 40
0.0
  9
$DIMTOL
 70
     0
  9
$DIMLIM
 70
     0
  9
$DIMTIH
 70
     1
  9
$DIMTOH
 70
     1
  9
$DIMSE1
 70
     0
  9
$DIMSE2
 70
     0
  9
$DIMTAD
 70
     1
  9
$DIMZIN
 70
     0
  9
$DIMBLK
  1

  9
$DIMASO
 70
     1
  9
$DIMSHO
 70
     1
  9
$DIMPOST
  1

  9
$DIMAPOST
  1

  9
$DIMALT
 70
     0
  9
$DIMALTD
 70
     3
  9
$DIMALTF
 40
0.0393700787
  9
$DIMLFAC
 40
1.0
  9
$DIMTOFL
 70
     1
  9
$DIMTVP
 40
0.0
  9
$DIMTIX
 70
     0
  9
$DIMSOXD
 70
     0
  9
$DIMSAH
 70
     0
  9
$DIMBLK1
  1

  9
$DIMBLK2
  1

  9
$DIMSTYLE
  2
ISO-25
  9
$DIMCLRD
 70
     0
  9
$DIMCLRE
 70
     0
  9
$DIMCLRT
 70
     0
  9
$DIMTFAC
 40
1.0
  9
$DIMGAP
 40
1.524
  9
$DIMJUST
 70
     0
  9
$DIMSD1
 70
     0
  9
$DIMSD2
 70
     0
  9
$DIMTOLJ
 70
     0
  9
$DIMTZIN
 70
     0
  9
$DIMALTZ
 70
     0
  9
$DIMALTTZ
 70
     0
  9
$DIMUPT
 70
     0
  9
$DIMDEC
 70
     2
  9
$DIMTDEC
 70
     3
  9
$DIMALTU
 70
     2
  9
$DIMALTTD
 70
     3
  9
$DIMTXSTY
  7
Standard
  9
$DIMAUNIT
 70
     0
  9
$DIMADEC
 70
     2
  9
$DIMALTRND
 40
0.0
  9
$DIMAZIN
 70
     0
  9
$DIMDSEP
 70
    44
  9
$DIMATFIT
 70
     3
  9
$DIMFRAC
 70
     0
  9
$DIMLDRBLK
  1

  9
$DIMLUNIT
 70
     2
  9
$DIMLWD
 70
    -2
  9
$DIMLWE
 70
    -2
  9
$DIMTMOVE
 70
     0
  9
$LUNITS
 70
     2
  9
$LUPREC
 70
     2
  9
$SKETCHINC
 40
1.0
  9
$FILLETRAD
 40
10.0
  9
$AUNITS
 70
     0
  9
$AUPREC
 70
     2
  9
$MENU
  1
.
  9
$ELEVATION
 40
0.0
  9
$PELEVATION
 40
0.0
  9
$THICKNESS
 40
0.0
  9
$LIMCHECK
 70
     0
  9
$CHAMFERA
 40
0.0
  9
$CHAMFERB
 40
0.0
  9
$CHAMFERC
 40
0.0
  9
$CHAMFERD
 40
0.0
  9
$SKPOLY
 70
     0
  9
$TDCREATE
 40
2457669.616834757
  9
$TDUCREATE
 40
2457669.533501423
  9
$TDUPDATE
 40
2457669.616835949
  9
$TDUUPDATE
 40
2457669.533502616
  9
$TDINDWG
 40
0.0000000116
  9
$TDUSRTIMER
 40
0.0000000116
  9
$USRTIMER
 70
     1
  9
$ANGBASE
 50
0.0
  9
$ANGDIR
 70
     0
  9
$PDMODE
 70
     0
  9
$PDSIZE
 40
-1.0
  9
$PLINEWID
 40
0.0
  9
$SPLFRAME
 70
     0
  9
$SPLINETYPE
 70
     6
  9
$SPLINESEGS
 70
     8
  9
$HANDSEED
  5
1F0
  9
$SURFTAB1
 70
     6
  9
$SURFTAB2
 70
     6
  9
$SURFTYPE
 70
     6
  9
$SURFU
 70
     6
  9
$SURFV
 70
     6
  9
$UCSBASE
  2

  9
$UCSNAME
  2

  9
$UCSORG
 10
0.0
 20
0.0
 30
0.0
  9
$UCSXDIR
 10
1.0
 20
0.0
 30
0.0
  9
$UCSYDIR
 10
0.0
 20
1.0
 30
0.0
  9
$UCSORTHOREF
  2

  9
$UCSORTHOVIEW
 70
     0
  9
$UCSORGTOP
 10
0.0
 20
0.0
 30
0.0
  9
$UCSORGBOTTOM
 10
0.0
 20
0.0
 30
0.0
  9
$UCSORGLEFT
 10
0.0
 20
0.0
 30
0.0
  9
$UCSORGRIGHT
 10
0.0
 20
0.0
 30
0.0
  9
$UCSORGFRONT
 10
0.0
 20
0.0
 30
0.0
  9
$UCSORGBACK
 10
0.0
 20
0.0
 30
0.0
  9
$PUCSBASE
  2

  9
$PUCSNAME
  2

  9
$PUCSORG
 10
0.0
 20
0.0
 30
0.0
  9
$PUCSXDIR
 10
1.0
 20
0.0
 30
0.0
  9
$PUCSYDIR
 10
0.0
 20
1.0
 30
0.0
  9
$PUCSORTHOREF
  2

  9
$PUCSORTHOVIEW
 70
     0
  9
$PUCSORGTOP
 10
0.0
 20
0.0
 30
0.0
  9
$PUCSORGBOTTOM
 10
0.0
 20
0.0
 30
0.0
  9
$PUCSORGLEFT
 10
0.0
 20
0.0
 30
0.0
  9
$PUCSORGRIGHT
 10
0.0
 20
0.0
 30
0.0
  9
$PUCSORGFRONT
 10
0.0
 20
0.0
 30
0.0
  9
$PUCSORGBACK
 10
0.0
 20
0.0
 30
0.0
  9
$USERI1
 70
     0
  9
$USERI2
 70
     0
  9
$USERI3
 70
     0
  9
$USERI4
 70
     0
  9
$USERI5
 70
     0
  9
$USERR1
 40
0.0
  9
$USERR2
 40
0.0
  9
$USERR3
 40
0.0
  9
$USERR4
 40
0.0
  9
$USERR5
 40
0.0
  9
$WORLDVIEW
 70
     1
  9
$SHADEDGE
 70
     3
  9
$SHADEDIF
 70
    70
  9
$TILEMODE
 70
     1
  9
$MAXACTVP
 70
    64
  9
$PINSBASE
 10
0.0
 20
0.0
 30
0.0
  9
$PLIMCHECK
 70
     0
  9
$PEXTMIN
 10
1.0000000000E+20
 20
1.0000000000E+20
 30
1.0000000000E+20
  9
$PEXTMAX
 10
-1.0000000000E+20
 20
-1.0000000000E+20
 30
-1.0000000000E+20
  9
$PLIMMIN
 10
0.0
 20
0.0
  9
$PLIMMAX
 10
420.0
 20
297.0
  9
$UNITMODE
 70
     0
  9
$VISRETAIN
 70
     1
  9
$PLINEGEN
 70
     0
  9
$PSLTSCALE
 70
     1
  9
$TREEDEPTH
 70
  3020
  9
$CMLSTYLE
  2
Standard
  9
$CMLJUST
 70
     0
  9
$CMLSCALE
 40
20.0
  9
$PROXYGRAPHICS
 70
     1
  9
$MEASUREMENT
 70
     1
  9
$CELWEIGHT
370
    -1
  9
$ENDCAPS
280
     0
  9
$JOINSTYLE
280
     0
  9
$LWDISPLAY
290
     1
  9
$INSUNITS
 70
     4
  9
$HYPERLINKBASE
  1

  9
$STYLESHEET
  1

  9
$XEDIT
290
     1
  9
$CEPSNTYPE
380
     0
  9
$PSTYLEMODE
290
     1
  9
$FINGERPRINTGUID
  2
{620312BA-C10C-4503-8721-4E33759870D0}
  9
$VERSIONGUID
  2
{FAEB1C32-E019-11D5-929B-00C0DF256EC4}
  9
$EXTNAMES
290
     1
  9
$PSVPSCALE
 40
0.0
  9
$OLESTARTUP
290
     0
  0
ENDSEC
  0
SECTION
  2
CLASSES
  0
CLASS
  1
ACDBDICTIONARYWDFLT
  2
AcDbDictionaryWithDefault
  3
ObjectDBX Classes
 90
        0
280
     0
281
     0
  0
CLASS
  1
VISUALSTYLE
  2
AcDbVisualStyle
  3
ObjectDBX Classes
 90
     4095
280
     0
281
     0
  0
CLASS
  1
MATERIAL
  2
AcDbMaterial
  3
ObjectDBX Classes
 90
     1153
280
     0
281
     0
  0
CLASS
  1
SCALE
  2
AcDbScale
  3
ObjectDBX Classes
 90
     1153
280
     0
281
     0
  0
CLASS
  1
TABLESTYLE
  2
AcDbTableStyle
  3
ObjectDBX Classes
 90
     4095
280
     0
281
     0
  0
CLASS
  1
MLEADERSTYLE
  2
AcDbMLeaderStyle
  3
ACDB_MLEADERSTYLE_CLASS
 90
     4095
280
     0
281
     0
  0
CLASS
  1
SUN
  2
AcDbSun
  3
SCENEOE
 90
     1153
280
     0
281
     0
  0
CLASS
  1
ACDBPLACEHOLDER
  2
AcDbPlaceHolder
  3
ObjectDBX Classes
 90
        0
280
     0
281
     0
  0
CLASS
  1
LAYOUT
  2
AcDbLayout
  3
ObjectDBX Classes
 90
        0
280
     0
281
     0
  0
ENDSEC
  0
SECTION
  2
TABLES
  0
TABLE
  2
VPORT
  5
8
330
0
100
AcDbSymbolTable
 70
     1
  0
VPORT
  5
29
330
8
100
AcDbSymbolTableRecord
100
AcDbViewportTableRecord
  2
*Active
 70
     0
 10
0.0
 20
0.0
 11
1.0
 21
1.0
 12
148.5
 22
105.0
 13
0.0
 23
0.0
 14
10.0
 24
10.0
 15
10.0
 25
10.0
 16
0.0
 26
0.0
 36
1.0
 17
0.0
 27
0.0
 37
0.0
 40
210.0
 41
1.4142857143
 42
50.0
 43
0.0
 44
0.0
 50
0.0
 51
0.0
 71
     0
 72
  2000
 73
     1
 74
     3
 75
     0
 76
     0
 77
     0
 78
     0
281
     0
 65
     1
110
0.0
120
0.0
130
0.0
111
1.0
121
0.0
131
0.0
112
0.0
122
1.0
132
0.0
 79
     0
146
0.0
  0
ENDTAB
  0
TABLE
  2
LTYPE
  5
5
330
0
100
AcDbSymbolTable
 70
     6
  0
LTYPE
  5
14
330
5
100
AcDbSymbolTableRecord
100
AcDbLinetypeTableRecord
  2
ByBlock
 70
     0
  3

 72
    65
 73
     0
 40
0.0
  0
LTYPE
  5
15
330
5
100
AcDbSymbolTableRecord
100
AcDbLinetypeTableRecord
  2
ByLayer
 70
     0
  3

 72
    65
 73
     0
 40
0.0
  0
LTYPE
  5
16
330
5
100
AcDbSymbolTableRecord
100
AcDbLinetypeTableRecord
  2
Continuous
 70
     0
  3
Solid line
 72
    65
 73
     0
 40
0.0
  0
LTYPE
  5
6E
330
5
100
AcDbSymbolTableRecord
100
AcDbLinetypeTableRecord
  2
HIDDEN
 70
     0
  3
Hidden __ __ __ __ __ __ __ __ __ __ __ __ __ __
 72
    65
 73
     2
 40
1.905
 49
1.27
 74
     0
 49
-0.635
 74
     0
  0
LTYPE
  5
6F
330
5
100
AcDbSymbolTableRecord
100
AcDbLinetypeTableRecord
  2
PHANTOM
 70
     0
  3
Phantom ______  __  __  ______  __  __  ______
 72
    65
 73
     6
 40
12.7
 49
6.35
 74
     0
 49
-1.27
 74
     0
 49
1.27
 74
     0
 49
-1.27
 74
     0
 49
1.27
 74
     0
 49
-1.27
 74
     0
  0
LTYPE
  5
70
330
5
100
AcDbSymbolTableRecord
100
AcDbLinetypeTableRecord
  2
CENTER
 70
     0
  3
Center ____ _ ____ _ ____ _ ____ _ ____ _ ____
 72
    65
 73
     4
 40
10.16
 49
6.35
 74
     0
 49
-1.27
 74
     0
 49
1.27
 74
     0
 49
-1.27
 74
     0
  0
LTYPE
  5
71
330
5
100
AcDbSymbolTableRecord
100
AcDbLinetypeTableRecord
  2
CENTERX2
 70
     0
  3
Center (2x) ________  __  ________  __  _____
 72
    65
 73
     4
 40
20.32
 49
12.7
 74
     0
 49
-2.54
 74
     0
 49
2.54
 74
     0
 49
-2.54
 74
     0
  0
LTYPE
  5
72
330
5
100
AcDbSymbolTableRecord
100
AcDbLinetypeTableRecord
  2
DOT2
 70
     0
  3
Dot (.5x) ........................................
 72
    65
 73
     2
 40
0.635
 49
0.0
 74
     0
 49
-0.635
 74
     0
  0
ENDTAB
  0
TABLE
  2
LAYER
  5
2
330
0
100
AcDbSymbolTable
 70
     5
  0
LAYER
  5
10
330
2
100
AcDbSymbolTableRecord
100
AcDbLayerTableRecord
  2
0
 70
     0
 62
     7
  6
Continuous
370
    -3
390
F
  0
LAYER
  5
73
330
2
100
AcDbSymbolTableRecord
100
AcDbLayerTableRecord
  2
FORMAT
 70
     0
 62
     7
  6
Continuous
370
    -3
390
F
  0
LAYER
  5
74
330
2
100
AcDbSymbolTableRecord
100
AcDbLayerTableRecord
  2
VERMASSUNG
 70
     0
 62
     7
  6
Continuous
370
    -3
390
F
  0
LAYER
  5
75
330
2
100
AcDbSymbolTableRecord
100
AcDbLayerTableRecord
  2
KOPF_DÜNN
 70
     0
 62
     7
  6
Continuous
370
    -3
390
F
  0
LAYER
  5
76
330
2
100
AcDbSymbolTableRecord
100
AcDbLayerTableRecord
  2
KOPF_DICK
 70
     0
 62
     7
  6
Continuous
370
    15
390
F
  0
ENDTAB
  0
TABLE
  2
STYLE
  5
3
330
0
100
AcDbSymbolTable
 70
     3
  0
STYLE
  5
11
330
3
100
AcDbSymbolTableRecord
100
AcDbTextStyleTableRecord
  2
Standard
 70
     0
 40
0.0
 41
1.0
 50
0.0
 71
     0
 42
2.0
  3
txt
  4

  0
STYLE
  5
77
330
3
100
AcDbSymbolTableRecord
100
AcDbTextStyleTableRecord
  2
SLDTEXTSTYLE0
 70
     0
 40
0.0
 41
0.7
 50
0.0
 71
     0
 42
2.0
  3
TXT
  4

  0
STYLE
  5
7B
330
3
100
AcDbSymbolTableRecord
100
AcDbTextStyleTableRecord
  2
SLDTEXTSTYLE1
 70
     0
 40
0.0
 41
0.6538461538
 50
0.0
 71
     0
 42
2.0
  3
TXT
  4

  0
ENDTAB
  0
TABLE
  2
VIEW
  5
6
330
0
100
AcDbSymbolTable
 70
     0
  0
ENDTAB
  0
TABLE
  2
UCS
  5
7
330
0
100
AcDbSymbolTable
 70
     0
  0
ENDTAB
  0
TABLE
  2
APPID
  5
9
330
0
100
AcDbSymbolTable
 70
     1
  0
APPID
  5
12
330
9
100
AcDbSymbolTableRecord
100
AcDbRegAppTableRecord
  2
ACAD
 70
     0
  0
ENDTAB
  0
TABLE
  2
DIMSTYLE
  5
A
330
0
100
AcDbSymbolTable
 70
     2
100
AcDbDimStyleTable
  0
DIMSTYLE
105
27
330
A
100
AcDbSymbolTableRecord
100
AcDbDimStyleTableRecord
  2
ISO-25
 70
     0
 41
2.5
 42
0.625
 43
3.75
 44
1.25
 73
     0
 74
     0
 77
     1
 78
     8
140
2.5
141
2.5
143
0.0393700787
147
0.625
171
     3
172
     1
178
     0
271
     2
272
     2
274
     3
278
    44
283
     0
284
     8
340
11
  0
DIMSTYLE
105
127
102
{ACAD_REACTORS
330
126
330
133
330
13E
330
14A
330
156
330
160
102
}
330
A
100
AcDbSymbolTableRecord
100
AcDbDimStyleTableRecord
  2
SLDDIMSTYLE0
 70
     0
 41
3.0
 44
0.0
 45
0.000000001
 73
     0
 74
     0
 77
     1
 78
    12
 79
     3
140
2.0
147
0.5
173
     1
178
     0
271
     2
272
     3
276
     2
284
    12
340
77
  0
ENDTAB
  0
TABLE
  2
BLOCK_RECORD
  5
1
330
0
100
AcDbSymbolTable
 70
     7
  0
BLOCK_RECORD
  5
1F
330
1
100
AcDbSymbolTableRecord
100
AcDbBlockTableRecord
  2
*Model_Space
340
22
  0
BLOCK_RECORD
  5
1B
330
1
100
AcDbSymbolTableRecord
100
AcDbBlockTableRecord
  2
*Paper_Space
340
1E
  0
BLOCK_RECORD
  5
23
330
1
100
AcDbSymbolTableRecord
100
AcDbBlockTableRecord
  2
*Paper_Space0
340
26
  0
BLOCK_RECORD
  5
128
330
1
100
AcDbSymbolTableRecord
100
AcDbBlockTableRecord
  2
_D
340
0
  0
BLOCK_RECORD
  5
134
330
1
100
AcDbSymbolTableRecord
100
AcDbBlockTableRecord
  2
_D_1
340
0
  0
BLOCK_RECORD
  5
13F
330
1
100
AcDbSymbolTableRecord
100
AcDbBlockTableRecord
  2
_D_2
340
0
  0
BLOCK_RECORD
  5
14B
330
1
100
AcDbSymbolTableRecord
100
AcDbBlockTableRecord
  2
_D_3
340
0
  0
BLOCK_RECORD
  5
157
330
1
100
AcDbSymbolTableRecord
100
AcDbBlockTableRecord
  2
_D_4
340
0
  0
BLOCK_RECORD
  5
161
330
1
100
AcDbSymbolTableRecord
100
AcDbBlockTableRecord
  2
_D_5
340
0
  0
ENDTAB
  0
ENDSEC
  0
SECTION
  2
BLOCKS
  0
BLOCK
  5
20
330
1F
100
AcDbEntity
  8
0
100
AcDbBlockBegin
  2
*Model_Space
 70
     0
 10
0.0
 20
0.0
 30
0.0
  3
*Model_Space
  1

  0
ENDBLK
  5
21
330
1F
100
AcDbEntity
  8
0
100
AcDbBlockEnd
  0
BLOCK
  5
1C
330
1B
100
AcDbEntity
 67
     1
  8
0
100
AcDbBlockBegin
  2
*Paper_Space
 70
     0
 10
0.0
 20
0.0
 30
0.0
  3
*Paper_Space
  1

  0
ENDBLK
  5
1D
330
1B
100
AcDbEntity
 67
     1
  8
0
100
AcDbBlockEnd
  0
BLOCK
  5
24
330
23
100
AcDbEntity
  8
0
100
AcDbBlockBegin
  2
*Paper_Space0
 70
     0
 10
0.0
 20
0.0
 30
0.0
  3
*Paper_Space0
  1

  0
ENDBLK
  5
25
330
23
100
AcDbEntity
  8
0
100
AcDbBlockEnd
  0
BLOCK
  5
129
330
128
100
AcDbEntity
  8
0
100
AcDbBlockBegin
  2
_D
 70
     0
 10
0.0
 20
0.0
 30
0.0
  3
_D
  1

  0
SOLID
  5
12B
330
128
100
AcDbEntity
  8
VERMASSUNG
100
AcDbTrace
 10
47.852906663
 20
159.7011469349
 30
0.0
 11
47.402906663
 21
156.7011469349
 31
0.0
 12
48.302906663
 22
156.7011469349
 32
0.0
 13
48.302906663
 23
156.7011469349
 33
0.0
  0
SOLID
  5
12C
330
128
100
AcDbEntity
  8
VERMASSUNG
100
AcDbTrace
 10
47.852906663
 20
59.7011469349
 30
0.0
 11
48.302906663
 21
62.7011469349
 31
0.0
 12
47.402906663
 22
62.7011469349
 32
0.0
 13
47.402906663
 23
62.7011469349
 33
0.0
  0
LINE
  5
12D
330
128
100
AcDbEntity
  8
VERMASSUNG
100
AcDbLine
 10
188.7240339293
 20
159.7011469349
 30
0.0
 11
46.852906663
 21
159.7011469349
 31
0.0
  0
LINE
  5
12E
330
128
100
AcDbEntity
  8
VERMASSUNG
100
AcDbLine
 10
188.7240340828
 20
59.7011469349
 30
0.0
 11
46.852906663
 21
59.7011469349
 31
0.0
  0
LINE
  5
12F
330
128
100
AcDbEntity
  8
VERMASSUNG
100
AcDbLine
 10
47.852906663
 20
159.7011469349
 30
0.0
 11
47.852906663
 21
59.7011469349
 31
0.0
  0
MTEXT
  5
130
330
128
100
AcDbEntity
  8
VERMASSUNG
100
AcDbMText
 10
45.0747714068
 20
98.5973807145
 30
0.0
 40
2.0
 41
0.0
 71
     1
 72
     1
  1
MAS BT 50
  7
SLDTEXTSTYLE0
 11
-7.044195017643634E-15
 21
1.0
 31
0.0
 73
     1
 44
1.0
  0
MTEXT
  5
131
330
128
100
AcDbEntity
  8
VERMASSUNG
100
AcDbMText
 10
45.2747713581
 20
113.3973807189
 30
0.0
 40
2.0
 41
0.0
 71
     1
 72
     1
  1
%%c
  7
SLDTEXTSTYLE0
 11
-7.044195017643634E-15
 21
1.0
 31
0.0
 73
     1
 44
1.0
  0
MTEXT
  5
132
330
128
100
AcDbEntity
  8
VERMASSUNG
100
AcDbMText
 10
45.2747710671
 20
117.0062272644
 30
0.0
 40
2.0
 41
0.0
 71
     1
 72
     1
  1
100
  7
SLDTEXTSTYLE0
 11
-7.044195017643634E-15
 21
1.0
 31
0.0
 73
     1
 44
1.0
  0
ENDBLK
  5
12A
330
128
100
AcDbEntity
  8
0
100
AcDbBlockEnd
  0
BLOCK
  5
135
330
134
100
AcDbEntity
  8
0
100
AcDbBlockBegin
  2
_D_1
 70
     0
 10
0.0
 20
0.0
 30
0.0
  3
_D_1
  1

  0
SOLID
  5
137
330
134
100
AcDbEntity
  8
VERMASSUNG
100
AcDbTrace
 10
247.6703630349
 20
132.7011469349
 30
0.0
 11
247.2203630349
 21
129.7011469349
 31
0.0
 12
248.1203630349
 22
129.7011469349
 32
0.0
 13
248.1203630349
 23
129.7011469349
 33
0.0
  0
SOLID
  5
138
330
134
100
AcDbEntity
  8
VERMASSUNG
100
AcDbTrace
 10
247.6703630349
 20
86.7011469349
 30
0.0
 11
248.1203630349
 21
89.7011469349
 31
0.0
 12
247.2203630349
 22
89.7011469349
 32
0.0
 13
247.2203630349
 23
89.7011469349
 33
0.0
  0
LINE
  5
139
330
134
100
AcDbEntity
  8
VERMASSUNG
100
AcDbLine
 10
218.7240320207
 20
132.7011469349
 30
0.0
 11
248.6703630349
 21
132.7011469349
 31
0.0
  0
LINE
  5
13A
330
134
100
AcDbEntity
  8
VERMASSUNG
100
AcDbLine
 10
218.7240320207
 20
86.7011469349
 30
0.0
 11
248.6703630349
 21
86.7011469349
 31
0.0
  0
LINE
  5
13B
330
134
100
AcDbEntity
  8
VERMASSUNG
100
AcDbLine
 10
247.6703630349
 20
132.7011469349
 30
0.0
 11
247.6703630349
 21
86.7011469349
 31
0.0
  0
MTEXT
  5
13C
330
134
100
AcDbEntity
  8
VERMASSUNG
100
AcDbMText
 10
245.0922274971
 20
106.3977020327
 30
0.0
 40
2.0
 41
0.0
 71
     1
 72
     1
  1
%%c
  7
SLDTEXTSTYLE0
 11
-7.044195017643634E-15
 21
1.0
 31
0.0
 73
     1
 44
1.0
  0
MTEXT
  5
13D
330
134
100
AcDbEntity
  8
VERMASSUNG
100
AcDbMText
 10
245.0922274389
 20
110.0066742263
 30
0.0
 40
2.0
 41
0.0
 71
     1
 72
     1
  1
46
  7
SLDTEXTSTYLE0
 11
-7.044195017643634E-15
 21
1.0
 31
0.0
 73
     1
 44
1.0
  0
ENDBLK
  5
136
330
134
100
AcDbEntity
  8
0
100
AcDbBlockEnd
  0
BLOCK
  5
140
330
13F
100
AcDbEntity
  8
0
100
AcDbBlockBegin
  2
_D_2
 70
     0
 10
0.0
 20
0.0
 30
0.0
  3
_D_2
  1

  0
SOLID
  5
142
330
13F
100
AcDbEntity
  8
VERMASSUNG
100
AcDbTrace
 10
253.5703630349
 20
154.7011469349
 30
0.0
 11
253.1203630349
 21
151.7011469349
 31
0.0
 12
254.0203630349
 22
151.7011469349
 32
0.0
 13
254.0203630349
 23
151.7011469349
 33
0.0
  0
SOLID
  5
143
330
13F
100
AcDbEntity
  8
VERMASSUNG
100
AcDbTrace
 10
253.5703630349
 20
64.7011469349
 30
0.0
 11
254.0203630349
 21
67.7011469349
 31
0.0
 12
253.1203630349
 22
67.7011469349
 32
0.0
 13
253.1203630349
 23
67.7011469349
 33
0.0
  0
LINE
  5
144
330
13F
100
AcDbEntity
  8
VERMASSUNG
100
AcDbLine
 10
240.0240320208
 20
154.7011469349
 30
0.0
 11
254.5703630349
 21
154.7011469349
 31
0.0
  0
LINE
  5
145
330
13F
100
AcDbEntity
  8
VERMASSUNG
100
AcDbLine
 10
240.0240320208
 20
64.7011469349
 30
0.0
 11
254.5703630349
 21
64.7011469349
 31
0.0
  0
LINE
  5
146
330
13F
100
AcDbEntity
  8
VERMASSUNG
100
AcDbLine
 10
253.5703630349
 20
154.7011469349
 30
0.0
 11
253.5703630349
 21
64.7011469349
 31
0.0
  0
MTEXT
  5
147
330
13F
100
AcDbEntity
  8
VERMASSUNG
100
AcDbMText
 10
250.7922277787
 20
103.5972190255
 30
0.0
 40
2.0
 41
0.0
 71
     1
 72
     1
  1
ST7
  7
SLDTEXTSTYLE0
 11
-7.044195017643634E-15
 21
1.0
 31
0.0
 73
     1
 44
1.0
  0
MTEXT
  5
148
330
13F
100
AcDbEntity
  8
VERMASSUNG
100
AcDbMText
 10
250.99222773
 20
109.3972189517
 30
0.0
 40
2.0
 41
0.0
 71
     1
 72
     1
  1
%%c
  7
SLDTEXTSTYLE0
 11
-7.044195017643634E-15
 21
1.0
 31
0.0
 73
     1
 44
1.0
  0
MTEXT
  5
149
330
13F
100
AcDbEntity
  8
VERMASSUNG
100
AcDbMText
 10
250.9922274389
 20
113.0056948236
 30
0.0
 40
2.0
 41
0.0
 71
     1
 72
     1
  1
90
  7
SLDTEXTSTYLE0
 11
-7.044195017643634E-15
 21
1.0
 31
0.0
 73
     1
 44
1.0
  0
ENDBLK
  5
141
330
13F
100
AcDbEntity
  8
0
100
AcDbBlockEnd
  0
BLOCK
  5
14C
330
14B
100
AcDbEntity
  8
0
100
AcDbBlockBegin
  2
_D_3
 70
     0
 10
0.0
 20
0.0
 30
0.0
  3
_D_3
  1

  0
ARC
  5
14E
330
14B
100
AcDbEntity
  8
VERMASSUNG
100
AcDbCircle
 10
217.4362591062
 20
165.7004898803
 30
0.0
 40
4.247059938537246
100
AcDbArc
 50
153.4349488229
 51
206.5650511771
  0
ARC
  5
14F
330
14B
100
AcDbEntity
  8
VERMASSUNG
100
AcDbCircle
 10
216.0118049353
 20
165.7004898803
 30
0.0
 40
4.247059938537246
100
AcDbArc
 50
333.4349488229
 51
26.5650511771
  0
SOLID
  5
150
330
14B
100
AcDbEntity
  8
VERMASSUNG
100
AcDbTrace
 10
192.7240320208
 20
163.8011469349
 30
0.0
 11
195.7240320208
 21
163.3511469349
 31
0.0
 12
195.7240320208
 22
164.2511469349
 32
0.0
 13
195.7240320208
 23
164.2511469349
 33
0.0
  0
SOLID
  5
151
330
14B
100
AcDbEntity
  8
VERMASSUNG
100
AcDbTrace
 10
240.7240320208
 20
163.8011469349
 30
0.0
 11
237.7240320208
 21
164.2511469349
 31
0.0
 12
237.7240320208
 22
163.3511469349
 32
0.0
 13
237.7240320208
 23
163.3511469349
 33
0.0
  0
LINE
  5
152
330
14B
100
AcDbEntity
  8
VERMASSUNG
100
AcDbLine
 10
192.7240320208
 20
158.7011469349
 30
0.0
 11
192.7240320208
 21
164.8011469349
 31
0.0
  0
LINE
  5
153
330
14B
100
AcDbEntity
  8
VERMASSUNG
100
AcDbLine
 10
240.7240320208
 20
154.0011469349
 30
0.0
 11
240.7240320208
 21
164.8011469349
 31
0.0
  0
LINE
  5
154
330
14B
100
AcDbEntity
  8
VERMASSUNG
100
AcDbLine
 10
192.7240320208
 20
163.8011469349
 30
0.0
 11
240.7240320208
 21
163.8011469349
 31
0.0
  0
MTEXT
  5
155
330
14B
100
AcDbEntity
  8
VERMASSUNG
100
AcDbMText
 10
215.2250732154
 20
166.3792825308
 30
0.0
 40
2.0
 41
0.0
 71
     1
 72
     1
  1
48
  7
SLDTEXTSTYLE0
 73
     1
 44
1.0
  0
ENDBLK
  5
14D
330
14B
100
AcDbEntity
  8
0
100
AcDbBlockEnd
  0
BLOCK
  5
158
330
157
100
AcDbEntity
  8
0
100
AcDbBlockBegin
  2
_D_4
 70
     0
 10
0.0
 20
0.0
 30
0.0
  3
_D_4
  1

  0
SOLID
  5
15A
330
157
100
AcDbEntity
  8
VERMASSUNG
100
AcDbTrace
 10
154.7240320208
 20
169.8011469349
 30
0.0
 11
157.7240320208
 21
169.3511469349
 31
0.0
 12
157.7240320208
 22
170.2511469349
 32
0.0
 13
157.7240320208
 23
170.2511469349
 33
0.0
  0
SOLID
  5
15B
330
157
100
AcDbEntity
  8
VERMASSUNG
100
AcDbTrace
 10
240.7240320208
 20
169.8011469349
 30
0.0
 11
237.7240320208
 21
170.2511469349
 31
0.0
 12
237.7240320208
 22
169.3511469349
 32
0.0
 13
237.7240320208
 23
169.3511469349
 33
0.0
  0
LINE
  5
15C
330
157
100
AcDbEntity
  8
VERMASSUNG
100
AcDbLine
 10
154.7240320208
 20
144.6261469349
 30
0.0
 11
154.7240320208
 21
170.8011469349
 31
0.0
  0
LINE
  5
15D
330
157
100
AcDbEntity
  8
VERMASSUNG
100
AcDbLine
 10
240.7240320208
 20
154.0011469349
 30
0.0
 11
240.7240320208
 21
170.8011469349
 31
0.0
  0
LINE
  5
15E
330
157
100
AcDbEntity
  8
VERMASSUNG
100
AcDbLine
 10
154.7240320208
 20
169.8011469349
 30
0.0
 11
240.7240320208
 21
169.8011469349
 31
0.0
  0
MTEXT
  5
15F
330
157
100
AcDbEntity
  8
VERMASSUNG
100
AcDbMText
 10
196.3243420105
 20
172.3792825308
 30
0.0
 40
2.0
 41
0.0
 71
     1
 72
     1
  1
86
  7
SLDTEXTSTYLE0
 73
     1
 44
1.0
  0
ENDBLK
  5
159
330
157
100
AcDbEntity
  8
0
100
AcDbBlockEnd
  0
BLOCK
  5
162
330
161
100
AcDbEntity
  8
0
100
AcDbBlockBegin
  2
_D_5
 70
     0
 10
0.0
 20
0.0
 30
0.0
  3
_D_5
  1

  0
ARC
  5
164
330
161
100
AcDbEntity
  8
VERMASSUNG
100
AcDbCircle
 10
146.1354661093
 20
177.7004898803
 30
0.0
 40
4.24705993853731
100
AcDbArc
 50
153.4349488229
 51
206.5650511771
  0
ARC
  5
165
330
161
100
AcDbEntity
  8
VERMASSUNG
100
AcDbCircle
 10
147.5125979322
 20
177.7004898803
 30
0.0
 40
4.24705993853731
100
AcDbArc
 50
333.4349488229
 51
26.5650511771
  0
SOLID
  5
166
330
161
100
AcDbEntity
  8
VERMASSUNG
100
AcDbTrace
 10
52.9240320208
 20
175.8011469349
 30
0.0
 11
55.9240320208
 21
175.3511469349
 31
0.0
 12
55.9240320208
 22
176.2511469349
 32
0.0
 13
55.9240320208
 23
176.2511469349
 33
0.0
  0
SOLID
  5
167
330
161
100
AcDbEntity
  8
VERMASSUNG
100
AcDbTrace
 10
240.7240320208
 20
175.8011469349
 30
0.0
 11
237.7240320208
 21
176.2511469349
 31
0.0
 12
237.7240320208
 22
175.3511469349
 32
0.0
 13
237.7240320208
 23
175.3511469349
 33
0.0
  0
LINE
  5
168
330
161
100
AcDbEntity
  8
VERMASSUNG
100
AcDbLine
 10
52.9240320208
 20
128.0508247956
 30
0.0
 11
52.9240320208
 21
176.8011469349
 31
0.0
  0
LINE
  5
169
330
161
100
AcDbEntity
  8
VERMASSUNG
100
AcDbLine
 10
240.7240320208
 20
154.0011469349
 30
0.0
 11
240.7240320208
 21
176.8011469349
 31
0.0
  0
LINE
  5
16A
330
161
100
AcDbEntity
  8
VERMASSUNG
100
AcDbLine
 10
52.9240320208
 20
175.8011469349
 30
0.0
 11
240.7240320208
 21
175.8011469349
 31
0.0
  0
MTEXT
  5
16B
330
161
100
AcDbEntity
  8
VERMASSUNG
100
AcDbMText
 10
143.9242802185
 20
178.3792825308
 30
0.0
 40
2.0
 41
0.0
 71
     1
 72
     1
  1
187.8
  7
SLDTEXTSTYLE0
 73
     1
 44
1.0
  0
ENDBLK
  5
163
330
161
100
AcDbEntity
  8
0
100
AcDbBlockEnd
  0
ENDSEC
  0
SECTION
  2
ENTITIES
  0
MTEXT
  5
78
330
1F
100
AcDbEntity
  8
KOPF_DÜNN
100
AcDbMText
 10
13.8892156294
 20
23.8442973028
 30
0.0
 40
3.0
 41
0.0
 71
     1
 72
     1
  1
134.550.090.086
  7
SLDTEXTSTYLE0
 73
     1
 44
1.0
  0
MTEXT
  5
79
330
1F
100
AcDbEntity
  8
VERMASSUNG
100
AcDbMText
 10
13.9329988022
 20
28.8834360957
 30
0.0
 40
3.0
 41
0.0
 71
     1
 72
     1
  1
Aufnahme_Master shank ST7+
  7
SLDTEXTSTYLE0
 73
     1
 44
1.0
  0
MTEXT
  5
7A
330
1F
100
AcDbEntity
  8
VERMASSUNG
100
AcDbMText
 10
98.8601118557
 20
13.8365368761
 30
0.0
 40
2.0
 41
0.0
 71
     1
 72
     1
  1
Datum: 06.06.2008
  7
SLDTEXTSTYLE0
 73
     1
 44
1.0
  0
MTEXT
  5
7C
330
1F
100
AcDbEntity
  8
VERMASSUNG
100
AcDbMText
 10
13.933048693
 20
18.0482802738
 30
0.0
 40
2.0
 41
0.0
 71
     1
 72
     1
  1
MAS BT 50 A/D
  7
SLDTEXTSTYLE1
 73
     1
 44
1.0
  0
MTEXT
  5
7D
330
1F
100
AcDbEntity
  8
VERMASSUNG
100
AcDbMText
 10
13.9808475933
 20
13.9090974274
 30
0.0
 40
2.0
 41
0.0
 71
     1
 72
     1
  1
Gewicht: 4934g
  7
SLDTEXTSTYLE0
 73
     1
 44
1.0
  0
LINE
  5
7E
330
1F
100
AcDbEntity
  8
0
  6
Continuous
 62
     7
370
    15
100
AcDbLine
 10
188.723744794
 20
59.7011469349
 30
0.0
 11
191.7240320208
 21
59.7011469349
 31
0.0
  0
LINE
  5
7F
330
1F
100
AcDbEntity
  8
0
  6
Continuous
 62
     7
370
    15
100
AcDbLine
 10
191.7240320208
 20
159.7011469349
 30
0.0
 11
188.7235978398
 21
159.7011469349
 31
0.0
  0
ARC
  5
80
330
1F
100
AcDbEntity
  8
0
  6
Continuous
 62
     7
370
    15
100
AcDbCircle
 10
191.7240320208
 20
60.7011469349
 30
0.0
 40
1.0
100
AcDbArc
 50
270.0
 51
0.0
  0
ARC
  5
81
330
1F
100
AcDbEntity
  8
0
  6
Continuous
 62
     7
370
    15
100
AcDbCircle
 10
191.7240320208
 20
158.7011469349
 30
0.0
 40
1.0
100
AcDbArc
 50
0.0
 51
90.0
  0
ARC
  5
82
330
1F
100
AcDbEntity
  8
0
  6
Continuous
 62
     7
370
    15
100
AcDbCircle
 10
196.7240320208
 20
158.7011469349
 30
0.0
 40
4.000000000000028
100
AcDbArc
 50
180.0
 51
270.0
  0
ARC
  5
83
330
1F
100
AcDbEntity
  8
0
  6
Continuous
 62
     7
370
    15
100
AcDbCircle
 10
196.7240320208
 20
60.7011469349
 30
0.0
 40
4.000000000000028
100
AcDbArc
 50
90.0
 51
180.0
  0
LINE
  5
84
330
1F
100
AcDbEntity
  8
0
  6
Continuous
 62
     7
370
    15
100
AcDbLine
 10
240.0240320208
 20
64.7011469349
 30
0.0
 11
240.7240320208
 21
65.4011469349
 31
0.0
  0
LINE
  5
85
330
1F
100
AcDbEntity
  8
0
  6
Continuous
 62
     7
370
    15
100
AcDbLine
 10
240.7240320208
 20
154.0011469349
 30
0.0
 11
240.0240320208
 21
154.7011469349
 31
0.0
  0
LINE
  5
86
330
1F
100
AcDbEntity
  8
0
  6
Continuous
 62
     7
370
    15
100
AcDbLine
 10
240.0240320208
 20
154.7011469349
 30
0.0
 11
196.7240320208
 21
154.7011469349
 31
0.0
  0
LINE
  5
87
330
1F
100
AcDbEntity
  8
0
  6
Continuous
 62
     7
370
    15
100
AcDbLine
 10
196.7240320208
 20
64.7011469349
 30
0.0
 11
240.0240320208
 21
64.7011469349
 31
0.0
  0
ARC
  5
88
330
1F
100
AcDbEntity
  8
0
  6
Continuous
 62
     7
370
    15
100
AcDbCircle
 10
156.7240320208
 20
73.7761469349
 30
0.0
 40
1.000000000000008
100
AcDbArc
 50
38.7230857623
 51
90.0
  0
ARC
  5
89
330
1F
100
AcDbEntity
  8
0
  6
Continuous
 62
     7
370
    15
100
AcDbCircle
 10
156.7240320208
 20
145.6261469349
 30
0.0
 40
1.000000000000001
100
AcDbArc
 50
270.0
 51
321.284796341
  0
LINE
  5
8A
330
1F
100
AcDbEntity
  8
0
  6
Continuous
 62
     7
370
    15
100
AcDbLine
 10
154.7240320208
 20
144.6261469349
 30
0.0
 11
54.6354182346
 21
130.0298907577
 31
0.0
  0
LINE
  5
8B
330
1F
100
AcDbEntity
  8
0
  6
Continuous
 62
     7
370
    15
100
AcDbLine
 10
54.6354182346
 20
89.372403112
 30
0.0
 11
154.7240320208
 21
74.7761469349
 31
0.0
  0
LINE
  5
8C
330
1F
100
AcDbEntity
  8
0
  6
Continuous
 62
     7
370
    15
100
AcDbLine
 10
154.7240320208
 20
74.7761469349
 30
0.0
 11
156.7240320208
 21
74.7761469349
 31
0.0
  0
LINE
  5
8D
330
1F
100
AcDbEntity
  8
0
  6
Continuous
 62
     7
370
    15
100
AcDbLine
 10
156.7240320208
 20
144.6261469349
 30
0.0
 11
154.7240320208
 21
144.6261469349
 31
0.0
  0
ARC
  5
8E
330
1F
100
AcDbEntity
  8
0
  6
Continuous
 62
     7
370
    15
100
AcDbCircle
 10
54.9240320208
 20
91.3514690741
 30
0.0
 40
2.000000000000006
100
AcDbArc
 50
180.0
 51
261.7028550302
  0
ARC
  5
8F
330
1F
100
AcDbEntity
  8
0
  6
Continuous
 62
     7
370
    15
100
AcDbCircle
 10
54.9240320208
 20
128.0508247956
 30
0.0
 40
2.0
100
AcDbArc
 50
98.2971449698
 51
180.0
  0
SPLINE
  5
90
330
1F
100
AcDbEntity
  8
0
  6
Continuous
 62
     7
370
    15
100
AcDbSpline
210
0.0
220
0.0
230
1.0
 70
    24
 71
     3
 72
    11
 73
     7
 74
     0
 42
0.000000001
 43
0.00000001
 40
0.0
 40
0.0
 40
0.0
 40
0.0
 40
0.1346864182004807
 40
0.4830330526133663
 40
0.8157584277395117
 40
1.0
 40
1.0
 40
1.0
 40
1.0
 10
226.5827389038121
 20
106.6617506017555
 30
0.0
 10
226.367999104244
 20
106.5464399528744
 30
0.0
 10
225.5978663596899
 20
106.1328952505055
 30
0.0
 10
224.160257390471
 20
105.360930186687
 30
0.0
 10
222.618825217463
 20
104.5332142978146
 30
0.0
 10
221.7911616125443
 20
104.0887767621067
 30
0.0
 10
221.496191025655
 20
103.9303839078548
 30
0.0
  0
SPLINE
  5
91
330
1F
100
AcDbEntity
  8
0
  6
Continuous
 62
     7
370
    15
100
AcDbSpline
210
0.0
220
0.0
230
1.0
 70
    24
 71
     3
 72
    11
 73
     7
 74
     0
 42
0.000000001
 43
0.00000001
 40
0.0
 40
0.0
 40
0.0
 40
0.0
 40
0.216457532595793
 40
0.4403158827730654
 40
0.7519042103606894
 40
1.0
 40
1.0
 40
1.0
 40
1.0
 10
226.7605798989219
 20
112.4325136287556
 30
0.0
 10
226.7483974948297
 20
112.037206758864
 30
0.0
 10
226.7236161626774
 20
111.233077231491
 30
0.0
 10
226.677628840843
 20
109.7408344761708
 30
0.0
 10
226.6282996679885
 20
108.1401519862524
 30
0.0
 10
226.5967321136813
 20
107.1158163141765
 30
0.0
 10
226.5827389038121
 20
106.6617506017555
 30
0.0
  0
SPLINE
  5
92
330
1F
100
AcDbEntity
  8
0
  6
Continuous
 62
     7
370
    15
100
AcDbSpline
210
0.0
220
0.0
230
1.0
 70
    24
 71
     3
 72
    11
 73
     7
 74
     0
 42
0.000000001
 43
0.00000001
 40
0.0
 40
0.0
 40
0.0
 40
0.0
 40
0.216457532595795
 40
0.4403158827730647
 40
0.7519042103606944
 40
1.0
 40
1.0
 40
1.0
 40
1.0
 10
221.8518730158748
 20
115.4719099618551
 30
0.0
 10
222.1881276054453
 20
115.2637062554863
 30
0.0
 10
222.8721335380072
 20
114.8401802286161
 30
0.0
 10
224.1414600118108
 20
114.0542326619956
 30
0.0
 10
225.5030271250457
 20
113.2111711001966
 30
0.0
 10
226.3743440619124
 20
112.6716649601933
 30
0.0
 10
226.7605798989219
 20
112.4325136287556
 30
0.0
  0
SPLINE
  5
93
330
1F
100
AcDbEntity
  8
0
  6
Continuous
 62
     7
370
    15
100
AcDbSpline
210
0.0
220
0.0
230
1.0
 70
    24
 71
     3
 72
    11
 73
     7
 74
     0
 42
0.000000001
 43
0.00000001
 40
0.0
 40
0.0
 40
0.0
 40
0.0
 40
0.1842415722604944
 40
0.5169669473866335
 40
0.8653135817995192
 40
0.9999999999999999
 40
0.9999999999999999
 40
0.9999999999999999
 40
0.9999999999999999
 10
216.7653251377177
 20
112.7405432679545
 30
0.0
 10
217.060295724607
 20
112.8989361222063
 30
0.0
 10
217.8879593295258
 20
113.3433736579142
 30
0.0
 10
219.4293915025337
 20
114.1710895467866
 30
0.0
 10
220.8670004717526
 20
114.9430546106052
 30
0.0
 10
221.6371332163068
 20
115.356599312974
 30
0.0
 10
221.8518730158748
 20
115.4719099618551
 30
0.0
  0
SPLINE
  5
94
330
1F
100
AcDbEntity
  8
0
  6
Continuous
 62
     7
370
    15
100
AcDbSpline
210
0.0
220
0.0
230
1.0
 70
    24
 71
     3
 72
    11
 73
     7
 74
     0
 42
0.000000001
 43
0.00000001
 40
0.0
 40
0.0
 40
0.0
 40
0.0
 40
0.2164575325957969
 40
0.4403158827730685
 40
0.7519042103606957
 40
1.0
 40
1.0
 40
1.0
 40
1.0
 10
216.5874841426078
 20
106.9697802409544
 30
0.0
 10
216.5996665467
 20
107.365087110846
 30
0.0
 10
216.6244478788525
 20
108.169216638219
 30
0.0
 10
216.6704352006867
 20
109.6614593935392
 30
0.0
 10
216.7197643735414
 20
111.2621418834576
 30
0.0
 10
216.7513319278485
 20
112.2864775555335
 30
0.0
 10
216.7653251377177
 20
112.7405432679545
 30
0.0
  0
SPLINE
  5
95
330
1F
100
AcDbEntity
  8
0
  6
Continuous
 62
     7
370
    15
100
AcDbSpline
210
0.0
220
0.0
230
1.0
 70
    24
 71
     3
 72
    11
 73
     7
 74
     0
 42
0.000000001
 43
0.00000001
 40
0.0
 40
0.0
 40
0.0
 40
0.0
 40
0.2164575325957949
 40
0.4403158827730635
 40
0.7519042103606907
 40
1.0
 40
1.0
 40
1.0
 40
1.0
 10
221.496191025655
 20
103.9303839078548
 30
0.0
 10
221.1599364360845
 20
104.1385876142237
 30
0.0
 10
220.4759305035225
 20
104.5621136410938
 30
0.0
 10
219.2066040297191
 20
105.3480612077144
 30
0.0
 10
217.8450369164841
 20
106.1911227695134
 30
0.0
 10
216.9737199796173
 20
106.7306289095166
 30
0.0
 10
216.5874841426078
 20
106.9697802409544
 30
0.0
  0
CIRCLE
  5
96
330
1F
100
AcDbEntity
  8
0
  6
Continuous
 62
     7
370
    15
100
AcDbCircle
 10
221.6740320208
 20
109.7011469349
 30
0.0
 40
5.800000000000011
  0
CIRCLE
  5
97
330
1F
100
AcDbEntity
  8
0
  6
Continuous
 62
     7
370
    15
100
AcDbCircle
 10
221.6740320208
 20
109.7011469349
 30
0.0
 40
9.200000000000005
  0
CIRCLE
  5
98
330
1F
100
AcDbEntity
  8
0
  6
Continuous
 62
     7
370
    15
100
AcDbCircle
 10
221.6740320208
 20
109.7011469349
 30
0.0
 40
9.99999999999999
  0
ARC
  5
99
330
1F
100
AcDbEntity
  8
0
  6
Continuous
 62
     7
370
    15
100
AcDbCircle
 10
221.6740320208
 20
109.7011469349
 30
0.0
 40
5.000000000000032
100
AcDbArc
 50
118.2348409587
 51
178.2348409587
  0
ARC
  5
9A
330
1F
100
AcDbEntity
  8
0
  6
Continuous
 62
     7
370
    15
100
AcDbCircle
 10
221.6740320208
 20
109.7011469349
 30
0.0
 40
5.000000000000001
100
AcDbArc
 50
58.2348409587
 51
118.2348409587
  0
ARC
  5
9B
330
1F
100
AcDbEntity
  8
0
  6
Continuous
 62
     7
370
    15
100
AcDbCircle
 10
221.6740320208
 20
109.7011469349
 30
0.0
 40
5.000000000000032
100
AcDbArc
 50
178.2348409587
 51
238.2348409587
  0
ARC
  5
9C
330
1F
100
AcDbEntity
  8
0
  6
Continuous
 62
     7
370
    15
100
AcDbCircle
 10
221.6740320208
 20
109.7011469349
 30
0.0
 40
5.000000000000019
100
AcDbArc
 50
238.2348409587
 51
298.2348409587
  0
ARC
  5
9D
330
1F
100
AcDbEntity
  8
0
  6
Continuous
 62
     7
370
    15
100
AcDbCircle
 10
221.6740320208
 20
109.7011469349
 30
0.0
 40
5.000000000000004
100
AcDbArc
 50
298.2348409587
 51
358.2348409587
  0
ARC
  5
9E
330
1F
100
AcDbEntity
  8
0
  6
Continuous
 62
     7
370
    15
100
AcDbCircle
 10
221.6740320208
 20
109.7011469349
 30
0.0
 40
5.000000000000004
100
AcDbArc
 50
358.2348409587
 51
58.2348409587
  0
SPLINE
  5
9F
330
1F
100
AcDbEntity
  8
0
  6
Continuous
 62
     7
370
    15
100
AcDbSpline
210
0.0
220
0.0
230
1.0
 70
     8
 71
     3
 72
    12
 73
     8
 74
     0
 42
0.000000001
 43
0.00000001
 40
0.0
 40
0.0
 40
0.0
 40
0.0
 40
0.000512515335492
 40
0.2509311781568301
 40
0.5009716914398246
 40
0.7506335204405247
 40
1.0
 40
1.0
 40
1.0
 40
1.0
 10
188.7235978398348
 20
159.7010218926713
 30
0.0
 10
188.7237422965216
 20
159.7010635659887
 30
0.0
 10
188.7944693248157
 20
159.7214671205776
 30
0.0
 10
188.5512057645592
 20
159.6498554891889
 30
0.0
 10
187.9456811503273
 20
159.4815022807181
 30
0.0
 10
186.9205174659041
 20
159.2041686902613
 30
0.0
 10
185.9393335986823
 20
158.9755499409374
 30
0.0
 10
185.4490320214519
 20
158.8613082201728
 30
0.0
  0
SPLINE
  5
A0
330
1F
100
AcDbEntity
  8
0
  6
Continuous
 62
     7
370
    15
100
AcDbSpline
210
0.0
220
0.0
230
1.0
 70
     8
 71
     3
 72
    13
 73
     9
 74
     0
 42
0.000000001
 43
0.00000001
 40
0.0
 40
0.0
 40
0.0
 40
0.0
 40
0.249249238042121
 40
0.4988437701386194
 40
0.6658825660857411
 40
0.8320256711231946
 40
0.9994886337290221
 40
0.9999999999999999
 40
0.9999999999999999
 40
0.9999999999999999
 40
0.9999999999999999
 10
185.4490320214519
 20
60.54098564953716
 30
0.0
 10
185.9402167448716
 20
60.4264981258472
 30
0.0
 10
186.9232666478115
 20
60.19736447472771
 30
0.0
 10
187.8223100726217
 20
59.9541547235775
 30
0.0
 10
188.3806349733072
 20
59.80021751619213
 30
0.0
 10
188.6463061980164
 20
59.72396395734186
 30
0.0
 10
188.7552004440322
 20
59.69204977301935
 30
0.0
 10
188.7238402642139
 20
59.70120268696225
 30
0.0
 10
188.723744794041
 20
59.70123055128832
 30
0.0
  0
LINE
  5
A1
330
1F
100
AcDbEntity
  8
0
  6
Continuous
 62
     7
370
    15
100
AcDbLine
 10
185.4490320208
 20
60.5409856495
 30
0.0
 11
185.4490320208
 21
158.8613082202
 31
0.0
  0
SPLINE
  5
A2
330
1F
100
AcDbEntity
  8
0
  6
Continuous
 62
     7
370
    15
100
AcDbSpline
210
0.0
220
0.0
230
1.0
 70
     8
 71
     3
 72
    12
 73
     8
 74
     0
 42
0.000000001
 43
0.00000001
 40
0.0
 40
0.0
 40
0.0
 40
0.0
 40
0.5000000000000001
 40
0.5000000000000001
 40
0.75
 40
0.75
 40
1.0
 40
1.0
 40
1.0
 40
1.0
 10
184.8083116856083
 20
157.907193886556
 30
0.0
 10
184.2694149905108
 20
156.8494940690549
 30
0.0
 10
183.7070841797911
 20
155.7471256340962
 30
0.0
 10
182.8384179372007
 20
154.0471610277335
 30
0.0
 10
182.5440892148582
 20
153.4716426122949
 30
0.0
 10
181.9505582158904
 20
152.3122139438364
 30
0.0
 10
181.651331957772
 20
151.728254274755
 30
0.0
 10
181.3498451095186
 20
151.1405443141663
 30
0.0
  0
SPLINE
  5
A3
330
1F
100
AcDbEntity
  8
0
  6
Continuous
 62
     7
370
    15
100
AcDbSpline
210
0.0
220
0.0
230
1.0
 70
     8
 71
     3
 72
     9
 73
     5
 74
     0
 42
0.000000001
 43
0.00000001
 40
0.0
 40
0.0
 40
0.0
 40
0.0
 40
0.504794330390352
 40
1.0
 40
1.0
 40
1.0
 40
1.0
 10
185.449008426177
 20
158.8612521849424
 30
0.0
 10
185.3406259916763
 20
158.7004106236531
 30
0.0
 10
185.1259198668731
 20
158.3817827159964
 30
0.0
 10
184.9134924380617
 20
158.0644084894086
 30
0.0
 10
184.8082971709336
 20
157.9072429730143
 30
0.0
  0
SPLINE
  5
A4
330
1F
100
AcDbEntity
  8
0
  6
Continuous
 62
     7
370
    15
100
AcDbSpline
210
0.0
220
0.0
230
1.0
 70
     8
 71
     3
 72
     9
 73
     5
 74
     0
 42
0.000000001
 43
0.00000001
 40
0.0
 40
0.0
 40
0.0
 40
0.0
 40
0.4952056715554214
 40
1.0
 40
1.0
 40
1.0
 40
1.0
 10
184.8082971709336
 20
61.49505089669557
 30
0.0
 10
184.9134924384785
 20
61.33788537967725
 30
0.0
 10
185.125919867297
 20
61.02051115307625
 30
0.0
 10
185.3406259920961
 20
60.70188324543102
 30
0.0
 10
185.449008426177
 20
60.54104168476755
 30
0.0
  0
SPLINE
  5
A5
330
1F
100
AcDbEntity
  8
0
  6
Continuous
 62
     7
370
    15
100
AcDbSpline
210
0.0
220
0.0
230
1.0
 70
     8
 71
     3
 72
    12
 73
     8
 74
     0
 42
0.000000001
 43
0.00000001
 40
0.0
 40
0.0
 40
0.0
 40
0.0
 40
0.2499999999999993
 40
0.2499999999999993
 40
0.4999999999999986
 40
0.4999999999999986
 40
1.0
 40
1.0
 40
1.0
 40
1.0
 10
184.8083116533694
 20
61.49510004642976
 30
0.0
 10
184.5389741320006
 20
62.0237324351144
 30
0.0
 10
184.2632040146065
 20
62.56465708906109
 30
0.0
 10
183.7009437280008
 20
63.66671384342415
 30
0.0
 10
183.4138583545961
 20
64.22901068266097
 30
0.0
 10
182.5434319138768
 20
65.93240591798097
 30
0.0
 10
181.9514219177075
 20
67.08905268906307
 30
0.0
 10
181.3498451095186
 20
68.2617495555437
 30
0.0
  0
LINE
  5
A6
330
1F
100
AcDbEntity
  8
0
  6
Continuous
 62
     7
370
    15
100
AcDbLine
 10
192.7240320208
 20
109.7011469349
 30
0.0
 11
192.7240320208
 21
60.7011469349
 31
0.0
  0
LINE
  5
A7
330
1F
100
AcDbEntity
  8
0
  6
Continuous
 62
     7
370
    15
100
AcDbLine
 10
192.7240320208
 20
158.7011469349
 30
0.0
 11
192.7240320208
 21
109.7011469349
 31
0.0
  0
LINE
  5
A8
330
1F
100
AcDbEntity
  8
0
  6
Continuous
 62
     7
370
    15
100
AcDbLine
 10
170.3990320208
 20
157.8062384303
 30
0.0
 11
158.7240320208
 21
157.8062384303
 31
0.0
  0
LINE
  5
A9
330
1F
100
AcDbEntity
  8
0
  6
Continuous
 62
     7
370
    15
100
AcDbLine
 10
170.3990320208
 20
61.5960554394
 30
0.0
 11
170.3990320208
 21
157.8062384303
 31
0.0
  0
LINE
  5
AA
330
1F
100
AcDbEntity
  8
0
  6
Continuous
 62
     7
370
    15
100
AcDbLine
 10
158.7240320208
 20
61.5960554394
 30
0.0
 11
170.3990320208
 21
61.5960554394
 31
0.0
  0
LINE
  5
AB
330
1F
100
AcDbEntity
  8
0
  6
Continuous
 62
     7
370
    15
100
AcDbLine
 10
157.7240320208
 20
62.6992586749
 30
0.0
 11
157.7240320208
 21
156.7030351948
 31
0.0
  0
SPLINE
  5
AC
330
1F
100
AcDbEntity
  8
0
  6
Continuous
 62
     7
370
    15
100
AcDbSpline
210
0.0
220
0.0
230
1.0
 70
     8
 71
     3
 72
    12
 73
     8
 74
     0
 42
0.000000001
 43
0.00000001
 40
0.0
 40
0.0
 40
0.0
 40
0.0
 40
0.2500000000000004
 40
0.2500000000000004
 40
0.5000000000000009
 40
0.5000000000000009
 40
1.0
 40
1.0
 40
1.0
 40
1.0
 10
158.1101684408146
 20
157.6355806687262
 30
0.0
 10
158.0585383187049
 20
157.5793763980116
 30
0.0
 10
158.0100060857144
 20
157.5180869874912
 30
0.0
 10
157.9201809487566
 20
157.3836249134465
 30
0.0
 10
157.8784706755441
 20
157.3095058432037
 30
0.0
 10
157.772339295382
 20
157.0731981980352
 30
0.0
 10
157.7240320207649
 20
156.8913746553853
 30
0.0
 10
157.7240320207649
 20
156.7030351947962
 30
0.0
  0
SPLINE
  5
AD
330
1F
100
AcDbEntity
  8
0
  6
Continuous
 62
     7
370
    15
100
AcDbSpline
210
0.0
220
0.0
230
1.0
 70
     8
 71
     3
 72
     8
 73
     4
 74
     0
 42
0.000000001
 43
0.00000001
 40
0.0
 40
0.0
 40
0.0
 40
0.0
 40
1.0
 40
1.0
 40
1.0
 40
1.0
 10
158.7240320207649
 20
157.8062384303194
 30
0.0
 10
158.4971377770651
 20
157.8062384303194
 30
0.0
 10
158.2792881311388
 20
157.7422262633505
 30
0.0
 10
158.1101684408146
 20
157.6355806687262
 30
0.0
  0
SPLINE
  5
AE
330
1F
100
AcDbEntity
  8
0
  6
Continuous
 62
     7
370
    15
100
AcDbSpline
210
0.0
220
0.0
230
1.0
 70
     8
 71
     3
 72
    10
 73
     6
 74
     0
 42
0.000000001
 43
0.00000001
 40
0.0
 40
0.0
 40
0.0
 40
0.0
 40
0.5
 40
0.5
 40
1.0
 40
1.0
 40
1.0
 40
1.0
 10
158.1101684408146
 20
61.76671320098373
 30
0.0
 10
158.1947790815454
 20
61.71335837237104
 30
0.0
 10
158.2900137036519
 20
61.67078891042084
 30
0.0
 10
158.5000510628318
 20
61.61150657573987
 30
0.0
 10
158.6104829676159
 20
61.59605543939062
 30
0.0
 10
158.7240320207649
 20
61.59605543939062
 30
0.0
  0
SPLINE
  5
AF
330
1F
100
AcDbEntity
  8
0
  6
Continuous
 62
     7
370
    15
100
AcDbSpline
210
0.0
220
0.0
230
1.0
 70
     8
 71
     3
 72
    12
 73
     8
 74
     0
 42
0.000000001
 43
0.00000001
 40
0.0
 40
0.0
 40
0.0
 40
0.0
 40
0.2500000000000039
 40
0.2500000000000039
 40
0.5000000000000079
 40
0.5000000000000079
 40
1.0
 40
1.0
 40
1.0
 40
1.0
 10
158.1101684408146
 20
61.76671320098373
 30
0.0
 10
158.0585383187049
 20
61.82291747169837
 30
0.0
 10
158.0100060857144
 20
61.88420688221878
 30
0.0
 10
157.9201809487566
 20
62.01866895626348
 30
0.0
 10
157.8784706755441
 20
62.0927880265063
 30
0.0
 10
157.772339295382
 20
62.32909567167476
 30
0.0
 10
157.7240320207649
 20
62.51091921432465
 30
0.0
 10
157.7240320207649
 20
62.69925867491377
 30
0.0
  0
SPLINE
  5
B0
330
1F
100
AcDbEntity
  8
0
  6
Continuous
 62
     7
370
    15
100
AcDbSpline
210
0.0
220
0.0
230
1.0
 70
     8
 71
     3
 72
     8
 73
     4
 74
     0
 42
0.000000001
 43
0.00000001
 40
0.0
 40
0.0
 40
0.0
 40
0.0
 40
0.0012417047560384
 40
0.0012417047560384
 40
0.0012417047560384
 40
0.0012417047560384
 10
170.9566010572926
 20
157.021717088776
 30
0.0
 10
170.7712125059982
 20
157.2833901743245
 30
0.0
 10
170.5853462603903
 20
157.5448942832021
 30
0.0
 10
170.3990320207649
 20
157.8062384303194
 30
0.0
  0
SPLINE
  5
B1
330
1F
100
AcDbEntity
  8
0
  6
Continuous
 62
     7
370
    15
100
AcDbSpline
210
0.0
220
0.0
230
1.0
 70
     8
 71
     3
 72
     8
 73
     4
 74
     0
 42
0.000000001
 43
0.00000001
 40
0.0
 40
0.0
 40
0.0
 40
0.0
 40
1.0
 40
1.0
 40
1.0
 40
1.0
 10
174.4982189320112
 20
150.631423015038
 30
0.0
 10
173.3232314561083
 20
152.7644997699739
 30
0.0
 10
172.141984922012
 20
154.89421833585
 30
0.0
 10
170.9566010572926
 20
157.021717088776
 30
0.0
  0
SPLINE
  5
B2
330
1F
100
AcDbEntity
  8
0
  6
Continuous
 62
     7
370
    15
100
AcDbSpline
210
0.0
220
0.0
230
1.0
 70
     8
 71
     3
 72
     8
 73
     4
 74
     0
 42
0.000000001
 43
0.00000001
 40
0.0
 40
0.0
 40
0.0
 40
0.0
 40
1.0
 40
1.0
 40
1.0
 40
1.0
 10
174.4982189320112
 20
68.77087085467198
 30
0.0
 10
173.3231821341843
 20
66.63770456052664
 30
0.0
 10
172.1419349267453
 20
64.50798580354497
 30
0.0
 10
170.9566010572926
 20
62.38057678093401
 30
0.0
  0
SPLINE
  5
B3
330
1F
100
AcDbEntity
  8
0
  6
Continuous
 62
     7
370
    15
100
AcDbSpline
210
0.0
220
0.0
230
1.0
 70
     8
 71
     3
 72
     8
 73
     4
 74
     0
 42
0.000000001
 43
0.00000001
 40
0.0
 40
0.0
 40
0.0
 40
0.0
 40
0.0012417047560385
 40
0.0012417047560385
 40
0.0012417047560385
 40
0.0012417047560385
 10
170.3990320207649
 20
61.59605543939062
 30
0.0
 10
170.5853462603903
 20
61.85739958650786
 30
0.0
 10
170.7712125059982
 20
62.11890369538545
 30
0.0
 10
170.9566010572926
 20
62.38057678093401
 30
0.0
  0
LINE
  5
B4
330
1F
100
AcDbEntity
  8
0
  6
Continuous
 62
     7
370
    15
100
AcDbLine
 10
240.7240320208
 20
109.7011469349
 30
0.0
 11
240.7240320208
 21
65.4011469349
 31
0.0
  0
LINE
  5
B5
330
1F
100
AcDbEntity
  8
0
  6
Continuous
 62
     7
370
    15
100
AcDbLine
 10
240.7240320208
 20
154.0011469349
 30
0.0
 11
240.7240320208
 21
109.7011469349
 31
0.0
  0
LINE
  5
B6
330
1F
100
AcDbEntity
  8
0
  6
Continuous
 62
     7
370
    15
100
AcDbLine
 10
240.0240320208
 20
109.7011469349
 30
0.0
 11
240.0240320208
 21
64.7011469349
 31
0.0
  0
LINE
  5
B7
330
1F
100
AcDbEntity
  8
0
  6
Continuous
 62
     7
370
    15
100
AcDbLine
 10
240.0240320208
 20
154.7011469349
 30
0.0
 11
240.0240320208
 21
109.7011469349
 31
0.0
  0
SPLINE
  5
B8
330
1F
100
AcDbEntity
  8
0
  6
Continuous
 62
     7
370
    15
100
AcDbSpline
210
0.0
220
0.0
230
1.0
 70
    11
 71
     3
 72
    99
 73
    95
 74
     0
 42
0.000000001
 43
0.00000001
 40
0.0
 40
0.0
 40
0.0
 40
0.0
 40
0.0312500000000008
 40
0.0312500000000008
 40
0.0468750000000011
 40
0.0468750000000011
 40
0.0625000000000014
 40
0.0625000000000014
 40
0.093750000000002
 40
0.093750000000002
 40
0.109375000000002
 40
0.109375000000002
 40
0.1250000000000019
 40
0.1250000000000019
 40
0.1562500000000019
 40
0.1562500000000019
 40
0.1718750000000019
 40
0.1718750000000019
 40
0.1875000000000019
 40
0.1875000000000019
 40
0.2187500000000025
 40
0.2187500000000025
 40
0.234375000000003
 40
0.234375000000003
 40
0.2500000000000036
 40
0.2500000000000036
 40
0.2812500000000042
 40
0.2812500000000042
 40
0.2968750000000043
 40
0.2968750000000043
 40
0.3125000000000044
 40
0.3125000000000044
 40
0.3437500000000046
 40
0.3437500000000046
 40
0.3593750000000047
 40
0.3593750000000047
 40
0.3750000000000047
 40
0.3906250000000047
 40
0.3906250000000047
 40
0.4062500000000048
 40
0.4062500000000048
 40
0.4375000000000049
 40
0.4375000000000049
 40
0.4531250000000049
 40
0.4531250000000049
 40
0.4687500000000049
 40
0.4687500000000049
 40
0.4843750000000049
 40
0.4843750000000049
 40
0.5000000000000049
 40
0.5000000000000049
 40
0.5312500000000054
 40
0.5312500000000054
 40
0.5468750000000056
 40
0.5468750000000056
 40
0.5625000000000056
 40
0.5625000000000056
 40
0.5937500000000057
 40
0.5937500000000057
 40
0.6250000000000057
 40
0.6250000000000057
 40
0.6562500000000057
 40
0.6562500000000057
 40
0.6875000000000057
 40
0.6875000000000057
 40
0.7031250000000056
 40
0.7031250000000056
 40
0.7187500000000054
 40
0.7187500000000054
 40
0.7500000000000049
 40
0.7500000000000049
 40
0.7656250000000046
 40
0.7656250000000046
 40
0.7812500000000041
 40
0.7812500000000041
 40
0.8125000000000036
 40
0.8125000000000036
 40
0.8281250000000033
 40
0.8281250000000033
 40
0.8437500000000031
 40
0.8437500000000031
 40
0.8750000000000024
 40
0.8750000000000024
 40
0.8906250000000022
 40
0.8906250000000022
 40
0.9062500000000019
 40
0.9062500000000019
 40
0.9218750000000017
 40
0.9218750000000017
 40
0.9375000000000013
 40
0.9375000000000013
 40
0.9687500000000008
 40
0.9687500000000008
 40
1.0
 40
1.0
 40
1.0
 40
1.0
 10
213.6176695438387
 20
117.6213193439813
 30
0.0
 10
214.1981640978545
 20
118.0918044070946
 30
0.0
 10
214.8140063935386
 20
118.4999779425487
 30
0.0
 10
215.7864718737595
 20
119.0276592803848
 30
0.0
 10
216.1188137780422
 20
119.1893305204225
 30
0.0
 10
216.799893416538
 20
119.484377501014
 30
0.0
 10
217.1503398059395
 20
119.6182823129241
 30
0.0
 10
218.2129304080936
 20
119.9721251193665
 30
0.0
 10
218.9338900751539
 20
120.1446436754058
 30
0.0
 10
220.0335053967175
 20
120.3125016281079
 30
0.0
 10
220.4030926607351
 20
120.3531971504217
 30
0.0
 10
221.1484798500221
 20
120.4035600696137
 30
0.0
 10
221.5252990753637
 20
120.4130721204259
 30
0.0
 10
222.6442889401919
 20
120.394244023899
 30
0.0
 10
223.3814678105935
 20
120.3197167533824
 30
0.0
 10
224.4741973227308
 20
120.1159129330715
 30
0.0
 10
224.8362546804869
 20
120.0325480855119
 30
0.0
 10
225.5558660033576
 20
119.8339015403923
 30
0.0
 10
225.9134082077822
 20
119.7183978597923
 30
0.0
 10
226.9578242816864
 20
119.3302194345103
 30
0.0
 10
227.6240676418991
 20
119.0144762002145
 30
0.0
 10
228.5777837540391
 20
118.4531477035123
 30
0.0
 10
228.8880317336577
 20
118.2513223918547
 30
0.0
 10
229.4924261396816
 20
117.8164971715885
 30
0.0
 10
229.7854132670039
 20
117.5840542912246
 30
0.0
 10
230.6201072904014
 20
116.854168252051
 30
0.0
 10
231.1244722041422
 20
116.3200702922794
 30
0.0
 10
231.7983989739541
 20
115.4425169062639
 30
0.0
 10
232.0091708150787
 20
115.1371726965311
 30
0.0
 10
232.4007110627602
 20
114.4985675489615
 30
0.0
 10
232.5778671435454
 20
114.1710620976536
 30
0.0
 10
233.0517514286178
 20
113.1678913790618
 30
0.0
 10
233.2925889875532
 20
112.4701504569232
 30
0.0
 10
233.5323835497256
 20
111.376363943743
 30
0.0
 10
233.5917782055782
 20
111.0020791945175
 30
0.0
 10
233.6649515201576
 20
110.2589040004209
 30
0.0
 10
233.6939758170205
 20
109.5162921375154
 30
0.0
 10
233.6360321128456
 20
108.7747904346352
 30
0.0
 10
233.5338733196878
 20
108.0338526740325
 30
0.0
 10
233.4600868667503
 20
107.6625215646126
 30
0.0
 10
233.1785163185379
 20
106.5786376693051
 30
0.0
 10
232.910469913109
 20
105.8862659924828
 30
0.0
 10
232.3933940436683
 20
104.8906334918373
 30
0.0
 10
232.2022647603158
 20
104.5675492115185
 30
0.0
 10
231.7909745506144
 20
103.9490865466428
 30
0.0
 10
231.5699410928615
 20
103.6519776281608
 30
0.0
 10
231.0983339570923
 20
103.0808818035891
 30
0.0
 10
230.8477564061212
 20
102.8068982129194
 30
0.0
 10
230.3173045902711
 20
102.281703785224
 30
0.0
 10
230.0390391988706
 20
102.0322821502139
 30
0.0
 10
229.1767501822928
 20
101.3300658756124
 30
0.0
 10
228.5616525587006
 20
100.9190183833283
 30
0.0
 10
227.5805863441578
 20
100.384119428091
 30
0.0
 10
227.2428613416048
 20
100.2193121585785
 30
0.0
 10
226.5600491038155
 20
99.92262633337587
 30
0.0
 10
226.2135918822173
 20
99.78990665797028
 30
0.0
 10
225.1594714346362
 20
99.43709838444217
 30
0.0
 10
224.4371813156234
 20
99.2619698325867
 30
0.0
 10
222.9525764793055
 20
99.03374243517108
 30
0.0
 10
222.2083781501057
 20
98.9836820341037
 30
0.0
 10
220.7248556863274
 20
99.00676784655751
 30
0.0
 10
219.9825420941971
 20
99.07998004805805
 30
0.0
 10
218.5064309290646
 20
99.3545372608095
 30
0.0
 10
217.7911822465475
 20
99.55215169845557
 30
0.0
 10
216.7515812750692
 20
99.93740108291652
 30
0.0
 10
216.4106282114839
 20
100.0807198153716
 30
0.0
 10
215.7401710457627
 20
100.3981205038683
 30
0.0
 10
215.4093589617074
 20
100.5729814793906
 30
0.0
 10
214.4442038565915
 20
101.1411095259381
 30
0.0
 10
213.8451392128047
 20
101.5719373765555
 30
0.0
 10
213.0135757004103
 20
102.2980185442389
 30
0.0
 10
212.7476391716893
 20
102.5534463089447
 30
0.0
 10
212.2394249702525
 20
103.0926879074355
 30
0.0
 10
211.9957069043458
 20
103.3784816056834
 30
0.0
 10
211.3157664523964
 20
104.2653292867365
 30
0.0
 10
210.9299354164383
 20
104.8938542159782
 30
0.0
 10
210.4562792313018
 20
105.8953836708794
 30
0.0
 10
210.3160396367537
 20
106.2390883199228
 30
0.0
 10
210.0733742588565
 20
106.9477169946706
 30
0.0
 10
209.9717469195149
 20
107.3115039725206
 30
0.0
 10
209.7341160291329
 20
108.4032301601807
 30
0.0
 10
209.6609155799458
 20
109.1416237311801
 30
0.0
 10
209.6834436086928
 20
110.2656706999735
 30
0.0
 10
209.7136491604279
 20
110.6437445534265
 30
0.0
 10
209.8169904356456
 20
111.384037046628
 30
0.0
 10
209.890052100758
 20
111.7489791409046
 30
0.0
 10
210.0776836384857
 20
112.4687862191607
 30
0.0
 10
210.1922560564575
 20
112.8236505421418
 30
0.0
 10
210.4630017630793
 20
113.5233127390632
 30
0.0
 10
210.6185396236257
 20
113.8658296796411
 30
0.0
 10
211.1348296439583
 20
114.8556747638252
 30
0.0
 10
211.5474019115544
 20
115.4728171356234
 30
0.0
 10
212.5031807066628
 20
116.6263900802166
 30
0.0
 10
213.0371749898229
 20
117.1508342808681
 30
0.0
 10
213.6176695438387
 20
117.6213193439813
 30
0.0
  0
SPLINE
  5
B9
330
1F
100
AcDbEntity
  8
0
  6
Continuous
 62
     7
370
    15
100
AcDbSpline
210
0.0
220
0.0
230
1.0
 70
     8
 71
     3
 72
    12
 73
     8
 74
     0
 42
0.000000001
 43
0.00000001
 40
0.0
 40
0.0
 40
0.0
 40
0.0
 40
0.2499999999999951
 40
0.2499999999999951
 40
0.4999999999999902
 40
0.4999999999999902
 40
1.0
 40
1.0
 40
1.0
 40
1.0
 10
181.3498451095186
 20
151.1405443141663
 30
0.0
 10
181.3136246881317
 20
151.0699372460665
 30
0.0
 10
181.2706990134838
 20
151.0062026547408
 30
0.0
 10
181.1731724302248
 20
150.8904284784923
 30
0.0
 10
181.1177409106081
 20
150.8378806344808
 30
0.0
 10
180.939253007704
 20
150.7037320312665
 30
0.0
 10
180.8024161790561
 20
150.6432099292026
 30
0.0
 10
180.6570247864917
 20
150.6226633452742
 30
0.0
  0
SPLINE
  5
BA
330
1F
100
AcDbEntity
  8
0
  6
Continuous
 62
     7
370
    15
100
AcDbSpline
210
0.0
220
0.0
230
1.0
 70
     8
 71
     3
 72
    12
 73
     8
 74
     0
 42
0.000000001
 43
0.00000001
 40
0.0
 40
0.0
 40
0.0
 40
0.0
 40
0.2499999999999957
 40
0.2499999999999957
 40
0.4999999999999913
 40
0.4999999999999913
 40
1.0
 40
1.0
 40
1.0
 40
1.0
 10
181.3498451095186
 20
68.26174955554367
 30
0.0
 10
181.3136246881316
 20
68.3323566236436
 30
0.0
 10
181.2706990134837
 20
68.39609121496935
 30
0.0
 10
181.1731724302247
 20
68.51186539121774
 30
0.0
 10
181.1177409106081
 20
68.56441323522917
 30
0.0
 10
180.9392530077039
 20
68.69856183844355
 30
0.0
 10
180.8024161790561
 20
68.75908394050734
 30
0.0
 10
180.6570247864917
 20
68.77963052443576
 30
0.0
  0
SPLINE
  5
BB
330
1F
100
AcDbEntity
  8
0
  6
Continuous
 62
     7
370
    15
100
AcDbSpline
210
0.0
220
0.0
230
1.0
 70
     8
 71
     3
 72
    10
 73
     6
 74
     0
 42
0.000000001
 43
0.00000001
 40
0.0
 40
0.0
 40
0.0
 40
0.0
 40
0.5
 40
0.5
 40
1.0
 40
1.0
 40
1.0
 40
1.0
 10
174.8740320207648
 20
69.1216157207058
 30
0.0
 10
174.7950319525136
 20
69.08585148609791
 30
0.0
 10
174.721274702237
 20
69.03636188253847
 30
0.0
 10
174.5932195791038
 20
68.91607339103551
 30
0.0
 10
174.5403695446921
 20
68.84739123804617
 30
0.0
 10
174.4982189320112
 20
68.77087085467198
 30
0.0
  0
SPLINE
  5
BC
330
1F
100
AcDbEntity
  8
0
  6
Continuous
 62
     7
370
    15
100
AcDbSpline
210
0.0
220
0.0
230
1.0
 70
     8
 71
     3
 72
    10
 73
     6
 74
     0
 42
0.000000001
 43
0.00000001
 40
0.0
 40
0.0
 40
0.0
 40
0.0
 40
0.5
 40
0.5
 40
1.0
 40
1.0
 40
1.0
 40
1.0
 10
174.8740320207649
 20
150.2806781490041
 30
0.0
 10
174.7947455730822
 20
150.3165720308566
 30
0.0
 10
174.7212333539615
 20
150.3660737407076
 30
0.0
 10
174.5942809010909
 20
150.4851214373762
 30
0.0
 10
174.5402150523543
 20
150.5551830976445
 30
0.0
 10
174.4982189320112
 20
150.631423015038
 30
0.0
  0
SPLINE
  5
BD
330
1F
100
AcDbEntity
  8
0
  6
Continuous
 62
     7
370
    15
100
AcDbSpline
210
0.0
220
0.0
230
1.0
 70
     8
 71
     3
 72
     8
 73
     4
 74
     0
 42
0.000000001
 43
0.00000001
 40
0.0
 40
0.0
 40
0.0
 40
0.0
 40
1.0
 40
1.0
 40
1.0
 40
1.0
 10
175.1910392550388
 20
150.2132191305176
 30
0.0
 10
175.0813374697371
 20
150.2123607133183
 30
0.0
 10
174.9739904487526
 20
150.2354258251931
 30
0.0
 10
174.8740320207648
 20
150.280678149004
 30
0.0
  0
SPLINE
  5
BE
330
1F
100
AcDbEntity
  8
0
  6
Continuous
 62
     7
370
    15
100
AcDbSpline
210
0.0
220
0.0
230
1.0
 70
     8
 71
     3
 72
     8
 73
     4
 74
     0
 42
0.000000001
 43
0.00000001
 40
0.0
 40
0.0
 40
0.0
 40
0.0
 40
1.0
 40
1.0
 40
1.0
 40
1.0
 10
175.1910392550388
 20
69.18907473919234
 30
0.0
 10
175.0813374697371
 20
69.18993315639166
 30
0.0
 10
174.9739904487526
 20
69.16686804451689
 30
0.0
 10
174.8740320207648
 20
69.12161572070596
 30
0.0
  0
SPLINE
  5
BF
330
1F
100
AcDbEntity
  8
0
  6
Continuous
 62
     7
370
    15
100
AcDbSpline
210
0.0
220
0.0
230
1.0
 70
     8
 71
     3
 72
    10
 73
     6
 74
     0
 42
0.000000001
 43
0.00000001
 40
0.0
 40
0.0
 40
0.0
 40
0.0
 40
0.5
 40
0.5
 40
1.0
 40
1.0
 40
1.0
 40
1.0
 10
180.657024786491
 20
150.622663345277
 30
0.0
 10
179.8094604197228
 20
150.502886293216
 30
0.0
 10
178.9287469840009
 20
150.4041961135522
 30
0.0
 10
177.1011907327853
 20
150.262923707315
 30
0.0
 10
176.1477583296841
 20
150.2207054636374
 30
0.0
 10
175.1910392550388
 20
150.2132191305176
 30
0.0
  0
SPLINE
  5
C0
330
1F
100
AcDbEntity
  8
0
  6
Continuous
 62
     7
370
    15
100
AcDbSpline
210
0.0
220
0.0
230
1.0
 70
     8
 71
     3
 72
    10
 73
     6
 74
     0
 42
0.000000001
 43
0.00000001
 40
0.0
 40
0.0
 40
0.0
 40
0.0
 40
0.5
 40
0.5
 40
1.0
 40
1.0
 40
1.0
 40
1.0
 10
180.657024786491
 20
68.77963052443293
 30
0.0
 10
179.8094604197228
 20
68.89940757649399
 30
0.0
 10
178.9287469840009
 20
68.9980977561578
 30
0.0
 10
177.1011907327853
 20
69.13937016239494
 30
0.0
 10
176.1477583296841
 20
69.18158840607254
 30
0.0
 10
175.1910392550388
 20
69.18907473919234
 30
0.0
  0
LINE
  5
C1
330
1F
100
AcDbEntity
  8
0
  6
Continuous
 62
     7
370
    15
100
AcDbLine
 10
154.7240320208
 20
74.7761469349
 30
0.0
 11
154.7240320208
 21
144.6261469349
 31
0.0
  0
LINE
  5
C2
330
1F
100
AcDbEntity
  8
0
  6
Continuous
 62
     7
370
    15
100
AcDbLine
 10
52.9240320208
 20
91.3514690741
 30
0.0
 11
52.9240320208
 21
128.050824734
 31
0.0
  0
CIRCLE
  5
C3
330
1F
100
AcDbEntity
  8
0
  6
HIDDEN
 62
     7
370
     0
100
AcDbCircle
 10
221.6740320208
 20
109.7011469349
 30
0.0
 40
7.080384757729335
  0
CIRCLE
  5
C4
330
1F
100
AcDbEntity
  8
0
  6
HIDDEN
 62
     7
370
     0
100
AcDbCircle
 10
221.6740320208
 20
109.7011469349
 30
0.0
 40
6.780384757729315
  0
SPLINE
  5
C5
330
1F
100
AcDbEntity
  8
0
  6
HIDDEN
 62
     7
370
     0
100
AcDbSpline
210
0.0
220
0.0
230
1.0
 70
     8
 71
     3
 72
     9
 73
     5
 74
     0
 42
0.000000001
 43
0.00000001
 40
0.0
 40
0.0
 40
0.0
 40
0.0
 40
0.326715502844845
 40
1.0
 40
1.0
 40
1.0
 40
1.0
 10
187.3479994944966
 20
60.07738649445211
 30
0.0
 10
187.1912066163792
 20
60.119468723472
 30
0.0
 10
186.7113001633575
 20
60.2482726175433
 30
0.0
 10
185.957088622432
 20
60.42329926566282
 30
0.0
 10
185.4492896843513
 20
60.54114199443073
 30
0.0
  0
CIRCLE
  5
C6
330
1F
100
AcDbEntity
  8
0
  6
HIDDEN
 62
     7
370
     0
100
AcDbCircle
 10
221.6740320208
 20
109.7011469349
 30
0.0
 40
9.250000000000014
  0
SPLINE
  5
C7
330
1F
100
AcDbEntity
  8
0
  6
HIDDEN
 62
     7
370
     0
100
AcDbSpline
210
0.0
220
0.0
230
1.0
 70
     8
 71
     3
 72
    18
 73
    14
 74
     0
 42
0.000000001
 43
0.00000001
 40
0.0
 40
0.0
 40
0.0
 40
0.0
 40
0.2499999999999998
 40
0.2499999999999998
 40
0.4999999999999996
 40
0.4999999999999996
 40
0.6249999999999997
 40
0.6249999999999997
 40
0.7499999999999998
 40
0.7499999999999998
 40
0.8749999999999999
 40
0.8749999999999999
 40
1.0
 40
1.0
 40
1.0
 40
1.0
 10
240.7240320207649
 20
131.1285131260489
 30
0.0
 10
240.7240320207649
 20
131.0331233226861
 30
0.0
 10
240.7188339113336
 20
130.936038332291
 30
0.0
 10
240.6914640645394
 20
130.7363323484902
 30
0.0
 10
240.669052089237
 20
130.6312653588378
 30
0.0
 10
240.6108062358285
 20
130.4791558118038
 30
0.0
 10
240.5864866919201
 20
130.4280605886328
 30
0.0
 10
240.5276387993219
 20
130.3353765216308
 30
0.0
 10
240.4925068736785
 20
130.2934621038096
 30
0.0
 10
240.4175043733813
 20
130.2287511390043
 30
0.0
 10
240.3774691997567
 20
130.2054275576536
 30
0.0
 10
240.2987809150365
 20
130.1751746337277
 30
0.0
 10
240.2608368804235
 20
130.1680212847926
 30
0.0
 10
240.2240109375078
 20
130.1657108726128
 30
0.0
  0
SPLINE
  5
C8
330
1F
100
AcDbEntity
  8
0
  6
HIDDEN
 62
     7
370
     0
100
AcDbSpline
210
0.0
220
0.0
230
1.0
 70
     8
 71
     3
 72
    10
 73
     6
 74
     0
 42
0.000000001
 43
0.00000001
 40
0.0
 40
0.0
 40
0.0
 40
0.0
 40
0.5
 40
0.5
 40
1.0
 40
1.0
 40
1.0
 40
1.0
 10
240.2240109375
 20
130.1657108726031
 30
0.0
 10
240.1592262766606
 20
130.1049328465689
 30
0.0
 10
240.0843888904496
 20
130.0501215099087
 30
0.0
 10
239.9158710953693
 20
129.9706223425924
 30
0.0
 10
239.8213146417378
 20
129.9463967525739
 30
0.0
 10
239.7240320207649
 20
129.9463967525739
 30
0.0
  0
SPLINE
  5
C9
330
1F
100
AcDbEntity
  8
0
  6
HIDDEN
 62
     7
370
     0
100
AcDbSpline
210
0.0
220
0.0
230
1.0
 70
     8
 71
     3
 72
    10
 73
     6
 74
     0
 42
0.000000001
 43
0.00000001
 40
0.0
 40
0.0
 40
0.0
 40
0.0
 40
0.5
 40
0.5
 40
1.0
 40
1.0
 40
1.0
 40
1.0
 10
240.2240065560199
 20
89.23658710758906
 30
0.0
 10
240.1592222300613
 20
89.29736412607555
 30
0.0
 10
240.0843853072474
 20
89.35217449057583
 30
0.0
 10
239.9158689800306
 20
89.43167208464509
 30
0.0
 10
239.8213135451804
 20
89.45589711713608
 30
0.0
 10
239.7240320207649
 20
89.45589711713608
 30
0.0
  0
SPLINE
  5
CA
330
1F
100
AcDbEntity
  8
0
  6
HIDDEN
 62
     7
370
     0
100
AcDbSpline
210
0.0
220
0.0
230
1.0
 70
     8
 71
     3
 72
    18
 73
    14
 74
     0
 42
0.000000001
 43
0.00000001
 40
0.0
 40
0.0
 40
0.0
 40
0.0
 40
0.1250000000000018
 40
0.1250000000000018
 40
0.2500000000000037
 40
0.2500000000000037
 40
0.3750000000000055
 40
0.3750000000000055
 40
0.5000000000000073
 40
0.5000000000000073
 40
0.7500000000000037
 40
0.7500000000000037
 40
1.0
 40
1.0
 40
1.0
 40
1.0
 10
240.2240065560199
 20
89.23658710758906
 30
0.0
 10
240.2605403559107
 20
89.23429832013079
 30
0.0
 10
240.2988671061616
 20
89.22704113741345
 30
0.0
 10
240.3765140642953
 20
89.19730622098841
 30
0.0
 10
240.4164995730767
 20
89.17417311920474
 30
0.0
 10
240.4908769653863
 20
89.11050639017309
 30
0.0
 10
240.5260242345258
 20
89.06903073733912
 30
0.0
 10
240.5850085591597
 20
88.97700330632446
 30
0.0
 10
240.6094254977849
 20
88.9262770462282
 30
0.0
 10
240.6684610499569
 20
88.77349898129782
 30
0.0
 10
240.6908762408713
 20
88.66920992300157
 30
0.0
 10
240.7187383446573
 20
88.46797220086492
 30
0.0
 10
240.7240320207649
 20
88.36943112665254
 30
0.0
 10
240.7240320207649
 20
88.27378074366105
 30
0.0
  0
LINE
  5
CB
330
1F
100
AcDbEntity
  8
0
  6
HIDDEN
 62
     7
370
     0
100
AcDbLine
 10
190.2240320208
 20
109.7011469349
 30
0.0
 11
190.2240320208
 21
87.2011469349
 31
0.0
  0
LINE
  5
CC
330
1F
100
AcDbEntity
  8
0
  6
HIDDEN
 62
     7
370
     0
100
AcDbLine
 10
190.2240320208
 20
132.2011469349
 30
0.0
 11
190.2240320208
 21
109.7011469349
 31
0.0
  0
LINE
  5
CD
330
1F
100
AcDbEntity
  8
0
  6
HIDDEN
 62
     7
370
     0
100
AcDbLine
 10
195.0900574245
 20
109.7011469349
 30
0.0
 11
195.0900574245
 21
86.7011469349
 31
0.0
  0
LINE
  5
CE
330
1F
100
AcDbEntity
  8
0
  6
HIDDEN
 62
     7
370
     0
100
AcDbLine
 10
195.0900574245
 20
132.7011469349
 30
0.0
 11
195.0900574245
 21
109.7011469349
 31
0.0
  0
LINE
  5
CF
330
1F
100
AcDbEntity
  8
0
  6
HIDDEN
 62
     7
370
     0
100
AcDbLine
 10
218.7240320207
 20
129.9463967526
 30
0.0
 11
239.7240320208
 21
129.9463967526
 31
0.0
  0
LINE
  5
D0
330
1F
100
AcDbEntity
  8
0
  6
HIDDEN
 62
     7
370
     0
100
AcDbLine
 10
218.7240320207
 20
89.4558971171
 30
0.0
 11
239.7240320208
 21
89.4558971171
 31
0.0
  0
LINE
  5
D1
330
1F
100
AcDbEntity
  8
0
  6
HIDDEN
 62
     7
370
     0
100
AcDbLine
 10
186.2240320208
 20
109.7011469349
 30
0.0
 11
186.2240320208
 21
88.1011469349
 31
0.0
  0
LINE
  5
D2
330
1F
100
AcDbEntity
  8
0
  6
HIDDEN
 62
     7
370
     0
100
AcDbLine
 10
186.2240320208
 20
131.3011469349
 30
0.0
 11
186.2240320208
 21
109.7011469349
 31
0.0
  0
LINE
  5
D3
330
1F
100
AcDbEntity
  8
0
  6
HIDDEN
 62
     7
370
     0
100
AcDbLine
 10
185.2240320208
 20
109.7011469349
 30
0.0
 11
185.2240320208
 21
90.7011469349
 31
0.0
  0
LINE
  5
D4
330
1F
100
AcDbEntity
  8
0
  6
HIDDEN
 62
     7
370
     0
100
AcDbLine
 10
185.2240320208
 20
128.7011469349
 30
0.0
 11
185.2240320208
 21
109.7011469349
 31
0.0
  0
LINE
  5
D5
330
1F
100
AcDbEntity
  8
0
  6
HIDDEN
 62
     7
370
     0
100
AcDbLine
 10
147.116716759
 20
109.7011469349
 30
0.0
 11
147.116716759
 21
99.2011469349
 31
0.0
  0
LINE
  5
D6
330
1F
100
AcDbEntity
  8
0
  6
HIDDEN
 62
     7
370
     0
100
AcDbLine
 10
147.116716759
 20
120.2011469349
 30
0.0
 11
147.116716759
 21
109.7011469349
 31
0.0
  0
LINE
  5
D7
330
1F
100
AcDbEntity
  8
0
  6
HIDDEN
 62
     7
370
     0
100
AcDbLine
 10
152.2240320208
 20
109.7011469349
 30
0.0
 11
152.2240320208
 21
90.7011469349
 31
0.0
  0
LINE
  5
D8
330
1F
100
AcDbEntity
  8
0
  6
HIDDEN
 62
     7
370
     0
100
AcDbLine
 10
152.2240320208
 20
128.7011469349
 30
0.0
 11
152.2240320208
 21
109.7011469349
 31
0.0
  0
ELLIPSE
  5
D9
330
1F
100
AcDbEntity
  8
0
  6
HIDDEN
 62
     7
370
     0
100
AcDbEllipse
 10
157.895604896
 20
72.4011469349
 30
0.0
 11
0.0
 21
2.000000000000014
 31
0.0
210
0.0
220
0.0
230
1.0
 40
0.4142135624
 41
4.712388980384702
 42
6.283185307179586
  0
LINE
  5
DA
330
1F
100
AcDbEntity
  8
0
  6
HIDDEN
 62
     7
370
     0
100
AcDbLine
 10
157.895604896
 20
74.4011469349
 30
0.0
 11
157.7240320208
 21
74.4011469349
 31
0.0
  0
LINE
  5
DB
330
1F
100
AcDbEntity
  8
0
  6
HIDDEN
 62
     7
370
     0
100
AcDbLine
 10
157.7240320208
 20
145.0011469349
 30
0.0
 11
157.895604896
 21
145.0011469349
 31
0.0
  0
ELLIPSE
  5
DC
330
1F
100
AcDbEntity
  8
0
  6
HIDDEN
 62
     7
370
     0
100
AcDbEllipse
 10
157.895604896
 20
147.0011469349
 30
0.0
 11
0.0
 21
2.0
 31
0.0
210
0.0
220
0.0
230
1.0
 40
0.4142135624
 41
3.141592653589793
 42
4.712388980384681
  0
LINE
  5
DD
330
1F
100
AcDbEntity
  8
0
  6
HIDDEN
 62
     7
370
     0
100
AcDbLine
 10
158.7240320208
 20
62.3805767809
 30
0.0
 11
158.1101684408
 21
61.766713201
 31
0.0
  0
LINE
  5
DE
330
1F
100
AcDbEntity
  8
0
  6
HIDDEN
 62
     7
370
     0
100
AcDbLine
 10
158.1101684408
 20
157.6355806687
 30
0.0
 11
158.7240320208
 21
157.0217170888
 31
0.0
  0
SPLINE
  5
DF
330
1F
100
AcDbEntity
  8
0
  6
HIDDEN
 62
     7
370
     0
100
AcDbSpline
210
0.0
220
0.0
230
1.0
 70
     8
 71
     3
 72
    14
 73
    10
 74
     0
 42
0.000000001
 43
0.00000001
 40
0.0
 40
0.0
 40
0.0
 40
0.0
 40
0.1878282877623173
 40
0.3545816313016879
 40
0.5003024319338173
 40
0.6713282049188825
 40
0.8376422060211013
 40
0.9994166164999629
 40
1.0
 40
1.0
 40
1.0
 40
1.0
 10
184.8083317576516
 20
157.9071685367969
 30
0.0
 10
185.141334680041
 20
157.9887164742505
 30
0.0
 10
185.7699765148559
 20
158.1426624055906
 30
0.0
 10
186.4694130867607
 20
158.3336411237087
 30
0.0
 10
187.0172901861902
 20
158.4910134107845
 30
0.0
 10
187.4234057803074
 20
158.6093388468081
 30
0.0
 10
187.6565336730065
 20
158.6797158614231
 30
0.0
 10
187.7505230596036
 20
158.7093502126975
 30
0.0
 10
187.7238401664598
 20
158.701087687094
 30
0.0
 10
187.7237442895744
 20
158.7010579982137
 30
0.0
  0
LINE
  5
E0
330
1F
100
AcDbEntity
  8
0
  6
HIDDEN
 62
     7
370
     0
100
AcDbLine
 10
185.3076661225
 20
158.0314825747
 30
0.0
 11
184.8083274693
 21
157.9072131912
 31
0.0
  0
SPLINE
  5
E1
330
1F
100
AcDbEntity
  8
0
  6
HIDDEN
 62
     7
370
     0
100
AcDbSpline
210
0.0
220
0.0
230
1.0
 70
     8
 71
     3
 72
    13
 73
     9
 74
     0
 42
0.000000001
 43
0.00000001
 40
0.0
 40
0.0
 40
0.0
 40
0.0
 40
0.0005825290635647
 40
0.1623661983773396
 40
0.3287385494553315
 40
0.4998718252132767
 40
0.7262528256169377
 40
1.0
 40
1.0
 40
1.0
 40
1.0
 10
187.7235978633713
 20
60.70127974151418
 30
0.0
 10
187.7237426494061
 20
60.70123539932089
 30
0.0
 10
187.7640983321235
 20
60.68887606172888
 30
0.0
 10
187.6499437252326
 20
60.72450514773636
 30
0.0
 10
187.425826617532
 20
60.79235311064478
 30
0.0
 10
186.9465177265631
 20
60.93144628478824
 30
0.0
 10
186.1530100689346
 20
61.16169286556067
 30
0.0
 10
185.2839921964585
 20
61.37717843631886
 30
0.0
 10
184.8083317576516
 20
61.49512533291298
 30
0.0
  0
LINE
  5
E2
330
1F
100
AcDbEntity
  8
0
  6
HIDDEN
 62
     7
370
     0
100
AcDbLine
 10
170.9566010573
 20
62.3805767809
 30
0.0
 11
158.7240320208
 21
62.3805767809
 31
0.0
  0
LINE
  5
E3
330
1F
100
AcDbEntity
  8
0
  6
HIDDEN
 62
     7
370
     0
100
AcDbLine
 10
158.7240320208
 20
62.3805767809
 30
0.0
 11
158.7240320208
 21
72.4011469349
 31
0.0
  0
LINE
  5
E4
330
1F
100
AcDbEntity
  8
0
  6
HIDDEN
 62
     7
370
     0
100
AcDbLine
 10
158.7240320208
 20
157.0217170888
 30
0.0
 11
170.9566010573
 21
157.0217170888
 31
0.0
  0
LINE
  5
E5
330
1F
100
AcDbEntity
  8
0
  6
HIDDEN
 62
     7
370
     0
100
AcDbLine
 10
158.7240320208
 20
157.0217170888
 30
0.0
 11
158.7240320208
 21
147.0011469349
 31
0.0
  0
LINE
  5
E6
330
1F
100
AcDbEntity
  8
0
  6
HIDDEN
 62
     7
370
     0
100
AcDbLine
 10
174.8740320208
 20
74.4011469349
 30
0.0
 11
157.895604896
 21
74.4011469349
 31
0.0
  0
LINE
  5
E7
330
1F
100
AcDbEntity
  8
0
  6
HIDDEN
 62
     7
370
     0
100
AcDbLine
 10
157.895604896
 20
145.0011469349
 30
0.0
 11
174.8740320208
 21
145.0011469349
 31
0.0
  0
LINE
  5
E8
330
1F
100
AcDbEntity
  8
0
  6
HIDDEN
 62
     7
370
     0
100
AcDbLine
 10
185.7240320208
 20
74.4011469349
 30
0.0
 11
174.8740320208
 21
74.4011469349
 31
0.0
  0
LINE
  5
E9
330
1F
100
AcDbEntity
  8
0
  6
HIDDEN
 62
     7
370
     0
100
AcDbLine
 10
174.8740320208
 20
145.0011469349
 30
0.0
 11
185.7240320208
 21
145.0011469349
 31
0.0
  0
LINE
  5
EA
330
1F
100
AcDbEntity
  8
0
  6
HIDDEN
 62
     7
370
     0
100
AcDbLine
 10
62.9240320208
 20
97.2011469349
 30
0.0
 11
62.9240320208
 21
122.2011469349
 31
0.0
  0
LINE
  5
EB
330
1F
100
AcDbEntity
  8
0
  6
HIDDEN
 62
     7
370
     0
100
AcDbLine
 10
66.2086363697
 20
99.2011469349
 30
0.0
 11
66.2086363697
 21
120.2011469349
 31
0.0
  0
LINE
  5
EC
330
1F
100
AcDbEntity
  8
0
  6
HIDDEN
 62
     7
370
     0
100
AcDbLine
 10
240.2240320207
 20
139.1011469349
 30
0.0
 11
240.2196551176
 21
139.9844388363
 31
0.0
  0
SPLINE
  5
ED
330
1F
100
AcDbEntity
  8
0
  6
HIDDEN
 62
     7
370
     0
100
AcDbSpline
210
0.0
220
0.0
230
1.0
 70
     8
 71
     3
 72
    11
 73
     7
 74
     0
 42
0.000000001
 43
0.00000001
 40
0.0
 40
0.0
 40
0.0
 40
0.0
 40
0.2787812170609892
 40
0.6040876351520034
 40
0.9299283706097103
 40
1.0
 40
1.0
 40
1.0
 40
1.0
 10
240.1322624223902
 20
142.3048695089662
 30
0.0
 10
240.1275409959293
 20
142.262618487533
 30
0.0
 10
240.1173101942439
 20
142.1710652620704
 30
0.0
 10
240.1493187408463
 20
141.1567012117936
 30
0.0
 10
240.2572956293299
 20
139.9897378620103
 30
0.0
 10
240.238533750515
 20
139.2347674344796
 30
0.0
 10
240.2352131282366
 20
139.101146934855
 30
0.0
  0
SPLINE
  5
EE
330
1F
100
AcDbEntity
  8
0
  6
HIDDEN
 62
     7
370
     0
100
AcDbSpline
210
0.0
220
0.0
230
1.0
 70
     8
 71
     3
 72
    14
 73
    10
 74
     0
 42
0.000000001
 43
0.00000001
 40
0.0
 40
0.0
 40
0.0
 40
0.0
 40
0.25
 40
0.25
 40
0.5
 40
0.5
 40
0.75
 40
0.75
 40
1.0
 40
1.0
 40
1.0
 40
1.0
 10
240.2352131282366
 20
139.101146934855
 30
0.0
 10
240.2030843658904
 20
138.3565970408474
 30
0.0
 10
240.2181114856789
 20
137.6119460181952
 30
0.0
 10
240.2299683763405
 20
136.1226829982075
 30
0.0
 10
240.229217166154
 20
135.3780633930159
 30
0.0
 10
240.2253744315323
 20
133.8888209658372
 30
0.0
 10
240.2230485840262
 20
133.1441999822319
 30
0.0
 10
240.2229028068733
 20
131.654955714834
 30
0.0
 10
240.2238704230958
 20
130.9103333230472
 30
0.0
 10
240.2240109375105
 20
130.1657108726031
 30
0.0
  0
SPLINE
  5
EF
330
1F
100
AcDbEntity
  8
0
  6
HIDDEN
 62
     7
370
     0
100
AcDbSpline
210
0.0
220
0.0
230
1.0
 70
     8
 71
     3
 72
    14
 73
    10
 74
     0
 42
0.000000001
 43
0.00000001
 40
0.0
 40
0.0
 40
0.0
 40
0.0
 40
0.2500000000000001
 40
0.2500000000000001
 40
0.5000000000000001
 40
0.5000000000000001
 40
0.75
 40
0.75
 40
1.0
 40
1.0
 40
1.0
 40
1.0
 10
240.2351955028985
 20
80.30114693485496
 30
0.0
 10
240.2031162885915
 20
81.04566101275594
 30
0.0
 10
240.2180768300211
 20
81.79031664373244
 30
0.0
 10
240.2300025762129
 20
83.27957375371952
 30
0.0
 10
240.229189704767
 20
84.02419690513982
 30
0.0
 10
240.2253153597836
 20
85.5134501346163
 30
0.0
 10
240.223091400093
 20
86.2580768842833
 30
0.0
 10
240.2228702054506
 20
87.74733174300368
 30
0.0
 10
240.2238389445832
 20
88.49195957455936
 30
0.0
 10
240.2240065560198
 20
89.23658710758907
 30
0.0
  0
LINE
  5
F0
330
1F
100
AcDbEntity
  8
0
  6
HIDDEN
 62
     7
370
     0
100
AcDbLine
 10
240.2240320207
 20
80.3011469349
 30
0.0
 11
240.2195947569
 21
79.417193831
 31
0.0
  0
SPLINE
  5
F1
330
1F
100
AcDbEntity
  8
0
  6
HIDDEN
 62
     7
370
     0
100
AcDbSpline
210
0.0
220
0.0
230
1.0
 70
     8
 71
     3
 72
    11
 73
     7
 74
     0
 42
0.000000001
 43
0.00000001
 40
0.0
 40
0.0
 40
0.0
 40
0.0
 40
0.2788152814747322
 40
0.6041154907349995
 40
0.929949568855407
 40
0.9999999999999999
 40
0.9999999999999999
 40
0.9999999999999999
 40
0.9999999999999999
 10
240.1322603695713
 20
77.09739229499502
 30
0.0
 10
240.1275361917281
 20
77.13965955547137
 30
0.0
 10
240.1173002068102
 20
77.23124100204647
 30
0.0
 10
240.1493917758721
 20
78.2456710801405
 30
0.0
 10
240.2572079838444
 20
79.41262999393587
 30
0.0
 10
240.2385049430093
 20
80.16756391844511
 30
0.0
 10
240.2351955028984
 20
80.30114693485496
 30
0.0
  0
LINE
  5
F2
330
1F
100
AcDbEntity
  8
0
  6
HIDDEN
 62
     7
370
     0
100
AcDbLine
 10
218.7240320207
 20
80.3011469349
 30
0.0
 11
218.7240320207
 21
89.4558971171
 31
0.0
  0
LINE
  5
F3
330
1F
100
AcDbEntity
  8
0
  6
HIDDEN
 62
     7
370
     0
100
AcDbLine
 10
218.7240320207
 20
139.1011469349
 30
0.0
 11
218.7240320207
 21
129.9463967526
 31
0.0
  0
SPLINE
  5
F4
330
1F
100
AcDbEntity
  8
0
  6
HIDDEN
 62
     7
370
     0
100
AcDbSpline
210
0.0
220
0.0
230
1.0
 70
     8
 71
     3
 72
     9
 73
     5
 74
     0
 42
0.000000001
 43
0.00000001
 40
0.0
 40
0.0
 40
0.0
 40
0.0
 40
0.4951995003022724
 40
1.0
 40
1.0
 40
1.0
 40
1.0
 10
184.808316235202
 20
157.9071590992677
 30
0.0
 10
184.9135124568377
 20
158.0643148593877
 30
0.0
 10
185.1259444596395
 20
158.3816733381909
 30
0.0
 10
185.3406628431534
 20
158.7002998862936
 30
0.0
 10
185.4490527904455
 20
158.8611427269928
 30
0.0
  0
SPLINE
  5
F5
330
1F
100
AcDbEntity
  8
0
  6
HIDDEN
 62
     7
370
     0
100
AcDbSpline
210
0.0
220
0.0
230
1.0
 70
     8
 71
     3
 72
     9
 73
     5
 74
     0
 42
0.000000001
 43
0.00000001
 40
0.0
 40
0.0
 40
0.0
 40
0.0
 40
0.5048005003628353
 40
1.0
 40
1.0
 40
1.0
 40
1.0
 10
185.4490527904455
 20
60.54115114271715
 30
0.0
 10
185.3406628430137
 20
60.70199398362176
 30
0.0
 10
185.1259444595058
 20
61.02062053171155
 30
0.0
 10
184.9135124566989
 20
61.33797901052712
 30
0.0
 10
184.808316235202
 20
61.49513477044221
 30
0.0
  0
LINE
  5
F6
330
1F
100
AcDbEntity
  8
0
  6
HIDDEN
 62
     7
370
     0
100
AcDbLine
 10
218.7240320207
 20
142.3511469349
 30
0.0
 11
218.7240320207
 21
139.1011469349
 31
0.0
  0
LINE
  5
F7
330
1F
100
AcDbEntity
  8
0
  6
HIDDEN
 62
     7
370
     0
100
AcDbLine
 10
218.7240320207
 20
77.0511469349
 30
0.0
 11
218.7240320207
 21
80.3011469349
 31
0.0
  0
LINE
  5
F8
330
1F
100
AcDbEntity
  8
0
  6
HIDDEN
 62
     7
370
     0
100
AcDbLine
 10
193.0923795232
 20
133.2011469349
 30
0.0
 11
191.2240320208
 21
133.2011469349
 31
0.0
  0
LINE
  5
F9
330
1F
100
AcDbEntity
  8
0
  6
HIDDEN
 62
     7
370
     0
100
AcDbLine
 10
191.2240320208
 20
86.2011469349
 30
0.0
 11
193.0923795232
 21
86.2011469349
 31
0.0
  0
ARC
  5
FA
330
1F
100
AcDbEntity
  8
0
  6
HIDDEN
 62
     7
370
     0
100
AcDbCircle
 10
191.2240320208
 20
132.2011469349
 30
0.0
 40
1.0
100
AcDbArc
 50
90.0
 51
180.0
  0
ARC
  5
FB
330
1F
100
AcDbEntity
  8
0
  6
HIDDEN
 62
     7
370
     0
100
AcDbCircle
 10
191.2240320208
 20
87.2011469349
 30
0.0
 40
1.0
100
AcDbArc
 50
180.0
 51
270.0
  0
ARC
  5
FC
330
1F
100
AcDbEntity
  8
0
  6
HIDDEN
 62
     7
370
     0
100
AcDbCircle
 10
193.0923795232
 20
132.2011469349
 30
0.0
 40
1.0
100
AcDbArc
 50
75.0
 51
90.0
  0
ARC
  5
FD
330
1F
100
AcDbEntity
  8
0
  6
HIDDEN
 62
     7
370
     0
100
AcDbCircle
 10
193.0923795232
 20
87.2011469349
 30
0.0
 40
1.0
100
AcDbArc
 50
270.0
 51
285.0
  0
LINE
  5
FE
330
1F
100
AcDbEntity
  8
0
  6
HIDDEN
 62
     7
370
     0
100
AcDbLine
 10
193.3511985683
 20
86.2352211086
 30
0.0
 11
195.0900574245
 21
86.7011469349
 31
0.0
  0
LINE
  5
FF
330
1F
100
AcDbEntity
  8
0
  6
HIDDEN
 62
     7
370
     0
100
AcDbLine
 10
195.0900574245
 20
132.7011469349
 30
0.0
 11
193.3511985683
 21
133.1670727611
 31
0.0
  0
LINE
  5
100
330
1F
100
AcDbEntity
  8
0
  6
HIDDEN
 62
     7
370
     0
100
AcDbLine
 10
218.7240320207
 20
132.7011469349
 30
0.0
 11
195.0900574245
 21
132.7011469349
 31
0.0
  0
LINE
  5
101
330
1F
100
AcDbEntity
  8
0
  6
HIDDEN
 62
     7
370
     0
100
AcDbLine
 10
195.0900574245
 20
86.7011469349
 30
0.0
 11
218.7240320207
 21
86.7011469349
 31
0.0
  0
ARC
  5
102
330
1F
100
AcDbEntity
  8
0
  6
HIDDEN
 62
     7
370
     0
100
AcDbCircle
 10
186.6240320208
 20
131.3011469349
 30
0.0
 40
0.4000000000000057
100
AcDbArc
 50
90.0
 51
180.0
  0
ARC
  5
103
330
1F
100
AcDbEntity
  8
0
  6
HIDDEN
 62
     7
370
     0
100
AcDbCircle
 10
186.6240320208
 20
88.1011469349
 30
0.0
 40
0.4000000000000057
100
AcDbArc
 50
180.0
 51
270.0
  0
LINE
  5
104
330
1F
100
AcDbEntity
  8
0
  6
HIDDEN
 62
     7
370
     0
100
AcDbLine
 10
190.2240320208
 20
131.7011469349
 30
0.0
 11
186.6240320208
 21
131.7011469349
 31
0.0
  0
LINE
  5
105
330
1F
100
AcDbEntity
  8
0
  6
HIDDEN
 62
     7
370
     0
100
AcDbLine
 10
186.6240320208
 20
87.7011469349
 30
0.0
 11
190.2240320208
 21
87.7011469349
 31
0.0
  0
LINE
  5
106
330
1F
100
AcDbEntity
  8
0
  6
HIDDEN
 62
     7
370
     0
100
AcDbLine
 10
186.2240320208
 20
129.7011469349
 30
0.0
 11
185.2240320208
 21
128.7011469349
 31
0.0
  0
LINE
  5
107
330
1F
100
AcDbEntity
  8
0
  6
HIDDEN
 62
     7
370
     0
100
AcDbLine
 10
185.2240320208
 20
90.7011469349
 30
0.0
 11
186.2240320208
 21
89.7011469349
 31
0.0
  0
LINE
  5
108
330
1F
100
AcDbEntity
  8
0
  6
HIDDEN
 62
     7
370
     0
100
AcDbLine
 10
152.2240320208
 20
128.7011469349
 30
0.0
 11
147.116716759
 21
120.2011469349
 31
0.0
  0
LINE
  5
109
330
1F
100
AcDbEntity
  8
0
  6
HIDDEN
 62
     7
370
     0
100
AcDbLine
 10
147.116716759
 20
99.2011469349
 30
0.0
 11
152.2240320208
 21
90.7011469349
 31
0.0
  0
LINE
  5
10A
330
1F
100
AcDbEntity
  8
0
  6
HIDDEN
 62
     7
370
     0
100
AcDbLine
 10
185.2240320208
 20
128.7011469349
 30
0.0
 11
152.2240320208
 21
128.7011469349
 31
0.0
  0
LINE
  5
10B
330
1F
100
AcDbEntity
  8
0
  6
HIDDEN
 62
     7
370
     0
100
AcDbLine
 10
152.2240320208
 20
90.7011469349
 30
0.0
 11
185.2240320208
 21
90.7011469349
 31
0.0
  0
ARC
  5
10C
330
1F
100
AcDbEntity
  8
0
  6
HIDDEN
 62
     7
370
     0
100
AcDbCircle
 10
54.1240320208
 20
96.0011469349
 30
0.0
 40
1.20000000000001
100
AcDbArc
 50
90.0
 51
180.0
  0
ARC
  5
10D
330
1F
100
AcDbEntity
  8
0
  6
HIDDEN
 62
     7
370
     0
100
AcDbCircle
 10
54.1240320208
 20
123.4011469349
 30
0.0
 40
1.20000000000001
100
AcDbArc
 50
180.0
 51
270.0
  0
LINE
  5
10E
330
1F
100
AcDbEntity
  8
0
  6
HIDDEN
 62
     7
370
     0
100
AcDbLine
 10
187.7240320208
 20
147.0011469349
 30
0.0
 11
187.7240320208
 21
158.8012502854
 31
0.0
  0
LINE
  5
10F
330
1F
100
AcDbEntity
  8
0
  6
HIDDEN
 62
     7
370
     0
100
AcDbLine
 10
187.7240320208
 20
60.6009315478
 30
0.0
 11
187.7240320208
 21
72.4011469349
 31
0.0
  0
ARC
  5
110
330
1F
100
AcDbEntity
  8
0
  6
HIDDEN
 62
     7
370
     0
100
AcDbCircle
 10
185.7240320208
 20
72.4011469349
 30
0.0
 40
2.000000000000014
100
AcDbArc
 50
0.0
 51
90.0
  0
ARC
  5
111
330
1F
100
AcDbEntity
  8
0
  6
HIDDEN
 62
     7
370
     0
100
AcDbCircle
 10
185.7240320208
 20
147.0011469349
 30
0.0
 40
2.0
100
AcDbArc
 50
270.0
 51
0.0
  0
ARC
  5
112
330
1F
100
AcDbEntity
  8
0
  6
HIDDEN
 62
     7
370
     0
100
AcDbCircle
 10
64.6930919131
 20
97.3761469349
 30
0.0
 40
0.4000000000000199
100
AcDbArc
 50
270.0
 51
330.0
  0
ARC
  5
113
330
1F
100
AcDbEntity
  8
0
  6
HIDDEN
 62
     7
370
     0
100
AcDbCircle
 10
64.6930919131
 20
122.0261469349
 30
0.0
 40
0.4000000000000057
100
AcDbArc
 50
30.0
 51
90.0
  0
LINE
  5
114
330
1F
100
AcDbEntity
  8
0
  6
HIDDEN
 62
     7
370
     0
100
AcDbLine
 10
63.8164044515
 20
96.9761469349
 30
0.0
 11
64.6930919131
 21
96.9761469349
 31
0.0
  0
LINE
  5
115
330
1F
100
AcDbEntity
  8
0
  6
HIDDEN
 62
     7
370
     0
100
AcDbLine
 10
64.6930919131
 20
122.4261469349
 30
0.0
 11
63.8164044515
 21
122.4261469349
 31
0.0
  0
ARC
  5
116
330
1F
100
AcDbEntity
  8
0
  6
HIDDEN
 62
     7
370
     0
100
AcDbCircle
 10
63.8164044515
 20
97.3761469349
 30
0.0
 40
0.4000000000000199
100
AcDbArc
 50
255.0
 51
270.0
  0
ARC
  5
117
330
1F
100
AcDbEntity
  8
0
  6
HIDDEN
 62
     7
370
     0
100
AcDbCircle
 10
63.8164044515
 20
122.0261469349
 30
0.0
 40
0.4000000000000057
100
AcDbArc
 50
90.0
 51
105.0
  0
LINE
  5
118
330
1F
100
AcDbEntity
  8
0
  6
HIDDEN
 62
     7
370
     0
100
AcDbLine
 10
63.7128768335
 20
122.4125172654
 30
0.0
 11
62.9240320208
 21
122.2011469349
 31
0.0
  0
LINE
  5
119
330
1F
100
AcDbEntity
  8
0
  6
HIDDEN
 62
     7
370
     0
100
AcDbLine
 10
62.9240320208
 20
97.2011469349
 30
0.0
 11
63.7128768335
 21
96.9897766043
 31
0.0
  0
LINE
  5
11A
330
1F
100
AcDbEntity
  8
0
  6
HIDDEN
 62
     7
370
     0
100
AcDbLine
 10
65.0395020746
 20
97.1761469349
 30
0.0
 11
66.2086363697
 21
99.2011469349
 31
0.0
  0
LINE
  5
11B
330
1F
100
AcDbEntity
  8
0
  6
HIDDEN
 62
     7
370
     0
100
AcDbLine
 10
66.2086363697
 20
120.2011469349
 30
0.0
 11
65.0395020746
 21
122.2261469349
 31
0.0
  0
LINE
  5
11C
330
1F
100
AcDbEntity
  8
0
  6
HIDDEN
 62
     7
370
     0
100
AcDbLine
 10
54.1240320208
 20
97.2011469349
 30
0.0
 11
62.9240320208
 21
97.2011469349
 31
0.0
  0
LINE
  5
11D
330
1F
100
AcDbEntity
  8
0
  6
HIDDEN
 62
     7
370
     0
100
AcDbLine
 10
62.9240320208
 20
122.2011469349
 30
0.0
 11
54.1240320208
 21
122.2011469349
 31
0.0
  0
LINE
  5
11E
330
1F
100
AcDbEntity
  8
0
  6
HIDDEN
 62
     7
370
     0
100
AcDbLine
 10
240.7240320207
 20
142.9455112539
 30
0.0
 11
240.1142055409
 21
142.3356855498
 31
0.0
  0
LINE
  5
11F
330
1F
100
AcDbEntity
  8
0
  6
HIDDEN
 62
     7
370
     0
100
AcDbLine
 10
240.1142119287
 20
77.066597847
 30
0.0
 11
240.7240320207
 21
76.4567824174
 31
0.0
  0
LINE
  5
120
330
1F
100
AcDbEntity
  8
0
  6
HIDDEN
 62
     7
370
     0
100
AcDbLine
 10
66.2086363697
 20
99.2011469349
 30
0.0
 11
147.116716759
 21
99.2011469349
 31
0.0
  0
LINE
  5
121
330
1F
100
AcDbEntity
  8
0
  6
HIDDEN
 62
     7
370
     0
100
AcDbLine
 10
147.116716759
 20
120.2011469349
 30
0.0
 11
66.2086363697
 21
120.2011469349
 31
0.0
  0
LINE
  5
122
330
1F
100
AcDbEntity
  8
0
  6
HIDDEN
 62
     7
370
     0
100
AcDbLine
 10
187.7240363412
 20
158.7011474585
 30
0.0
 11
188.7240361905
 21
159.7011472374
 31
0.0
  0
LINE
  5
123
330
1F
100
AcDbEntity
  8
0
  6
HIDDEN
 62
     7
370
     0
100
AcDbLine
 10
188.7240361912
 20
59.7011466316
 30
0.0
 11
187.7240363419
 21
60.7011464104
 31
0.0
  0
LINE
  5
124
330
1F
100
AcDbEntity
  8
0
  6
HIDDEN
 62
     7
370
     0
100
AcDbLine
 10
240.1326224897
 20
142.3511469349
 30
0.0
 11
218.7240320207
 21
142.3511469349
 31
0.0
  0
LINE
  5
125
330
1F
100
AcDbEntity
  8
0
  6
HIDDEN
 62
     7
370
     0
100
AcDbLine
 10
218.7240320207
 20
77.0511469349
 30
0.0
 11
240.1326196282
 21
77.0511469349
 31
0.0
  0
DIMENSION
  5
126
330
1F
100
AcDbEntity
  8
VERMASSUNG
100
AcDbDimension
  2
_D
 10
47.852906663
 20
59.7011469349
 30
0.0
 11
47.852906663
 21
109.7011469349
 31
0.0
 70
   160
  1
MAS BT 50 %%c<>
 71
     2
 42
-1.0
  3
SLDDIMSTYLE0
100
AcDbAlignedDimension
 13
188.7240339293
 23
159.7011469349
 33
0.0
 14
188.7240340828
 24
59.7011469349
 34
0.0
 50
90.0
100
AcDbRotatedDimension
  0
DIMENSION
  5
133
330
1F
100
AcDbEntity
  8
VERMASSUNG
100
AcDbDimension
  2
_D_1
 10
247.6703630349
 20
86.7011469349
 30
0.0
 11
247.6703630349
 21
109.7011469349
 31
0.0
 70
   160
  1
%%c<>
 71
     2
 42
-1.0
  3
SLDDIMSTYLE0
100
AcDbAlignedDimension
 13
218.7240320207
 23
132.7011469349
 33
0.0
 14
218.7240320207
 24
86.7011469349
 34
0.0
 50
90.0
100
AcDbRotatedDimension
  0
DIMENSION
  5
13E
330
1F
100
AcDbEntity
  8
VERMASSUNG
100
AcDbDimension
  2
_D_2
 10
253.5703630349
 20
64.7011469349
 30
0.0
 11
253.5703630349
 21
109.7011469349
 31
0.0
 70
   160
  1
ST7 %%c<>
 71
     2
 42
-1.0
  3
SLDDIMSTYLE0
100
AcDbAlignedDimension
 13
240.0240320208
 23
154.7011469349
 33
0.0
 14
240.0240320208
 24
64.7011469349
 34
0.0
 50
90.0
100
AcDbRotatedDimension
  0
DIMENSION
  5
14A
330
1F
100
AcDbEntity
  8
VERMASSUNG
100
AcDbDimension
  2
_D_3
 10
240.7240320208
 20
163.8011469349
 30
0.0
 11
216.7240320208
 21
163.8011469349
 31
0.0
 70
   160
  1
(<>)
 71
     2
 42
-1.0
  3
SLDDIMSTYLE0
100
AcDbAlignedDimension
 13
192.7240320208
 23
158.7011469349
 33
0.0
 14
240.7240320208
 24
154.0011469349
 34
0.0
100
AcDbRotatedDimension
  0
DIMENSION
  5
156
330
1F
100
AcDbEntity
  8
VERMASSUNG
100
AcDbDimension
  2
_D_4
 10
240.7240320208
 20
169.8011469349
 30
0.0
 11
197.7240320208
 21
169.8011469349
 31
0.0
 70
   160
  1
<>
 71
     2
 42
-1.0
  3
SLDDIMSTYLE0
100
AcDbAlignedDimension
 13
154.7240320208
 23
144.6261469349
 33
0.0
 14
240.7240320208
 24
154.0011469349
 34
0.0
100
AcDbRotatedDimension
  0
DIMENSION
  5
160
330
1F
100
AcDbEntity
  8
VERMASSUNG
100
AcDbDimension
  2
_D_5
 10
240.7240320208
 20
175.8011469349
 30
0.0
 11
146.8240320208
 21
175.8011469349
 31
0.0
 70
   160
  1
(<>)
 71
     2
 42
-1.0
  3
SLDDIMSTYLE0
100
AcDbAlignedDimension
 13
52.9240320208
 23
128.0508247956
 33
0.0
 14
240.7240320208
 24
154.0011469349
 34
0.0
100
AcDbRotatedDimension
  0
LINE
  5
16C
330
1F
100
AcDbEntity
  8
VERMASSUNG
  6
CENTERX2
370
     0
100
AcDbLine
 10
50.9240320208
 20
109.7011469349
 30
0.0
 11
242.9518036044
 21
109.7011469349
 31
0.0
  0
LINE
  5
16D
330
1F
100
AcDbEntity
  8
0
  6
Continuous
 62
     7
370
    15
100
AcDbLine
 10
270.5778957219
 20
35.1192530691
 30
0.0
 11
270.4647402534
 21
35.1845975643
 31
0.0
  0
LINE
  5
16E
330
1F
100
AcDbEntity
  8
0
  6
Continuous
 62
     7
370
    15
100
AcDbLine
 10
267.8621644787
 20
35.1845975643
 30
0.0
 11
267.7490090102
 21
35.1192530691
 31
0.0
  0
LINE
  5
16F
330
1F
100
AcDbEntity
  8
0
  6
Continuous
 62
     7
370
    15
100
AcDbLine
 10
271.1634523661
 20
34.1070078409
 30
0.0
 11
271.1634523661
 21
34.3029776358
 31
0.0
  0
LINE
  5
170
330
1F
100
AcDbEntity
  8
0
  6
Continuous
 62
     7
370
    15
100
AcDbLine
 10
267.1634523661
 20
34.3029776358
 30
0.0
 11
267.1634523661
 21
34.1070078409
 31
0.0
  0
LINE
  5
171
330
1F
100
AcDbEntity
  8
0
  6
Continuous
 62
     7
370
    15
100
AcDbLine
 10
271.7595685757
 20
18.2383778654
 30
0.0
 11
271.8585474356
 21
18.2955357214
 31
0.0
  0
LINE
  5
172
330
1F
100
AcDbEntity
  8
0
  6
Continuous
 62
     7
370
    15
100
AcDbLine
 10
278.1224952837
 20
29.1461873411
 30
0.0
 11
278.1224952837
 21
29.2604844767
 31
0.0
  0
LINE
  5
173
330
1F
100
AcDbEntity
  8
0
  6
Continuous
 62
     7
370
    15
100
AcDbLine
 10
276.2581685499
 20
33.3810877349
 30
0.0
 11
270.1346238248
 21
36.9161348591
 31
0.0
  0
LINE
  5
174
330
1F
100
AcDbEntity
  8
0
  6
Continuous
 62
     7
370
    15
100
AcDbLine
 10
261.1353552311
 20
21.3272553363
 30
0.0
 11
267.2588999562
 21
17.7922082121
 31
0.0
  0
SPLINE
  5
175
330
1F
100
AcDbEntity
  8
0
  6
Continuous
 62
     7
370
    15
100
AcDbSpline
210
0.0
220
0.0
230
1.0
 70
     8
 71
     3
 72
    11
 73
     7
 74
     0
 42
0.000000001
 43
0.00000001
 40
0.0
 40
0.0
 40
0.0
 40
0.0
 40
0.1016455892645944
 40
0.541709639175046
 40
0.9835907464696202
 40
1.0
 40
1.0
 40
1.0
 40
1.0
 10
261.473226926535
 20
20.4033631542266
 30
0.0
 10
261.5109168419702
 20
20.39858421330648
 30
0.0
 10
261.7117813422269
 20
20.37311534269235
 30
0.0
 10
262.0974221727453
 20
20.38931813939973
 30
0.0
 10
262.4522897600939
 20
20.41282218090377
 30
0.0
 10
262.6397087747364
 20
20.45348077462108
 30
0.0
 10
262.6464193809166
 20
20.45493657039933
 30
0.0
  0
SPLINE
  5
176
330
1F
100
AcDbEntity
  8
0
  6
Continuous
 62
     7
370
    15
100
AcDbSpline
210
0.0
220
0.0
230
1.0
 70
     8
 71
     3
 72
    10
 73
     6
 74
     0
 42
0.000000001
 43
0.00000001
 40
0.0
 40
0.0
 40
0.0
 40
0.0
 40
0.3707540399380982
 40
0.8133948467009058
 40
0.9999999999999999
 40
0.9999999999999999
 40
0.9999999999999999
 40
0.9999999999999999
 10
271.6418300924348
 20
36.04604320124398
 30
0.0
 10
271.5862254292957
 20
36.18707685799291
 30
0.0
 10
271.4642347250072
 20
36.49648966878824
 30
0.0
 10
271.2788591157411
 20
36.84337386588756
 30
0.0
 10
271.1386904011467
 20
37.03458107933651
 30
0.0
 10
271.0971228645478
 20
37.09128426639238
 30
0.0
  0
LINE
  5
177
330
1F
100
AcDbEntity
  8
0
  6
Continuous
 62
     7
370
    15
100
AcDbLine
 10
259.0408700732
 20
21.38170662
 30
0.0
 11
259.9282890836
 21
20.8694105298
 31
0.0
  0
LINE
  5
178
330
1F
100
AcDbEntity
  8
0
  6
Continuous
 62
     7
370
    15
100
AcDbLine
 10
269.9274764099
 20
38.1903877774
 30
0.0
 11
269.0400573995
 21
38.7026838676
 31
0.0
  0
SPLINE
  5
179
330
1F
100
AcDbEntity
  8
0
  6
Continuous
 62
     7
370
    15
100
AcDbSpline
210
0.0
220
0.0
230
1.0
 70
     8
 71
     3
 72
    25
 73
    21
 74
     0
 42
0.000000001
 43
0.00000001
 40
0.0
 40
0.0
 40
0.0
 40
0.0
 40
0.0123045191460098
 40
0.073380682654436
 40
0.1345094658213734
 40
0.1956555800364499
 40
0.2567980923710645
 40
0.3179109572234449
 40
0.3789737655850682
 40
0.4399667315506307
 40
0.5008724871639135
 40
0.5616801185450929
 40
0.6223932955034106
 40
0.6830452642165505
 40
0.7436975516113485
 40
0.8044849412935027
 40
0.865660788643789
 40
0.9275782047059947
 40
0.9905377996515128
 40
1.0
 40
1.0
 40
1.0
 40
1.0
 10
268.9122298604871
 20
25.66299805111504
 30
0.0
 10
268.9239865980846
 20
25.69597972395473
 30
0.0
 10
268.9941004660428
 20
25.89267312085569
 30
0.0
 10
269.1490550746839
 20
26.25228113199602
 30
0.0
 10
269.3901997177361
 20
26.73334015697731
 30
0.0
 10
269.6653925653501
 20
27.19889348781507
 30
0.0
 10
269.9687941895771
 20
27.64233183805968
 30
0.0
 10
270.2966076409048
 20
28.05744644554747
 30
0.0
 10
270.6439674767273
 20
28.4384590455738
 30
0.0
 10
271.0058568168736
 20
28.78013155927254
 30
0.0
 10
271.3769416546318
 20
29.07784847690029
 30
0.0
 10
271.7517140709245
 20
29.32771481537539
 30
0.0
 10
272.1245978543962
 20
29.52667205313943
 30
0.0
 10
272.4900335631592
 20
29.6725160654033
 30
0.0
 10
272.8428044442434
 20
29.764160282
 30
0.0
 10
273.1779660413264
 20
29.80090153990805
 30
0.0
 10
273.492830730497
 20
29.78478531615961
 30
0.0
 10
273.7812039561148
 20
29.70985940916945
 30
0.0
 10
273.9762971216315
 20
29.63148523142031
 30
0.0
 10
274.0654782712543
 20
29.56186611518805
 30
0.0
 10
274.077130149002
 20
29.5527700961899
 30
0.0
  0
LINE
  5
17A
330
1F
100
AcDbEntity
  8
0
  6
Continuous
 62
     7
370
    15
100
AcDbLine
 10
266.9116659882
 20
39.9313780759
 30
0.0
 11
265.2605716541
 21
40.8845345464
 31
0.0
  0
SPLINE
  5
17B
330
1F
100
AcDbEntity
  8
0
  6
Continuous
 62
     7
370
    15
100
AcDbSpline
210
0.0
220
0.0
230
1.0
 70
     8
 71
     3
 72
    31
 73
    27
 74
     0
 42
0.000000001
 43
0.00000001
 40
0.0
 40
0.0
 40
0.0
 40
0.0
 40
0.0183767618384879
 40
0.0621308510928091
 40
0.1060628088891657
 40
0.1501456310273868
 40
0.1943391530932029
 40
0.2386030771925913
 40
0.2829042323642467
 40
0.3272183439096958
 40
0.3715269332447971
 40
0.4158230186477302
 40
0.4601036646678078
 40
0.5043685423875618
 40
0.5486189223156944
 40
0.592857014026592
 40
0.6370855550443366
 40
0.6813075675765894
 40
0.7255262230022136
 40
0.7697447719413517
 40
0.8139658292960474
 40
0.8581923034922911
 40
0.9024275278656343
 40
0.9466748032561219
 40
0.9909373122308578
 40
1.0
 40
1.0
 40
1.0
 40
1.0
 10
263.6976854362032
 20
41.35007692477625
 30
0.0
 10
263.6285397947393
 20
41.35726161763997
 30
0.0
 10
263.3947620709344
 20
41.38155268079825
 30
0.0
 10
262.9752682606591
 20
41.36169272971875
 30
0.0
 10
262.4432033182552
 20
41.29211846650074
 30
0.0
 10
261.8958446490667
 20
41.16125603116547
 30
0.0
 10
261.3383366411082
 20
40.97431846011568
 30
0.0
 10
260.7739673200376
 20
40.73132485963704
 30
0.0
 10
260.2065723116043
 20
40.43425238274082
 30
0.0
 10
259.6398153620701
 20
40.08505284175201
 30
0.0
 10
259.0773213785723
 20
39.68611543361271
 30
0.0
 10
258.5226187998865
 20
39.24008763442522
 30
0.0
 10
257.9791399183111
 20
38.74987511931218
 30
0.0
 10
257.4502342515324
 20
38.21863006302632
 30
0.0
 10
256.9391585812407
 20
37.64973840342945
 30
0.0
 10
256.4490626624443
 20
37.04680262288323
 30
0.0
 10
255.9829728171568
 20
36.41362335799948
 30
0.0
 10
255.5437757938787
 20
35.75417887917283
 30
0.0
 10
255.1341976038349
 20
35.07260126690836
 30
0.0
 10
254.7568033971949
 20
34.3731590753094
 30
0.0
 10
254.4139257496096
 20
33.66021627007582
 30
0.0
 10
254.1078522435851
 20
32.93825457708559
 30
0.0
 10
253.8400526539784
 20
32.21164750355985
 30
0.0
 10
253.6140047671274
 20
31.48535769057361
 30
0.0
 10
253.4748357232065
 20
30.95399785509335
 30
0.0
 10
253.4138988588795
 20
30.66702908960148
 30
0.0
 10
253.4035425581297
 20
30.61825836806734
 30
0.0
  0
SPLINE
  5
17C
330
1F
100
AcDbEntity
  8
0
  6
Continuous
 62
     7
370
    15
100
AcDbSpline
210
0.0
220
0.0
230
1.0
 70
     8
 71
     3
 72
    10
 73
     6
 74
     0
 42
0.000000001
 43
0.00000001
 40
0.0
 40
0.0
 40
0.0
 40
0.0
 40
0.3838499556538601
 40
0.834115986892832
 40
1.0
 40
1.0
 40
1.0
 40
1.0
 10
269.3551283891648
 20
21.66949408310059
 30
0.0
 10
269.2859902533224
 20
21.71808449667494
 30
0.0
 10
269.1357512769706
 20
21.82367273545189
 30
0.0
 10
268.9834656200133
 20
21.99757592331343
 30
0.0
 10
268.9046525010114
 20
22.12625012151892
 30
0.0
 10
268.8834339089079
 20
22.16089264500413
 30
0.0
  0
LINE
  5
17D
330
1F
100
AcDbEntity
  8
0
  6
Continuous
 62
     7
370
    15
100
AcDbLine
 10
259.4914567123
 20
39.9710446241
 30
0.0
 11
247.3528324492
 21
44.3453236501
 31
0.0
  0
LINE
  5
17E
330
1F
100
AcDbEntity
  8
0
  6
Continuous
 62
     7
370
    15
100
AcDbLine
 10
243.3090905791
 20
37.3405983017
 30
0.0
 11
255.0945855097
 21
27.3890238116
 31
0.0
  0
LINE
  5
17F
330
1F
100
AcDbEntity
  8
0
  6
Continuous
 62
     7
370
    15
100
AcDbLine
 10
255.2613843277
 20
23.5635572988
 30
0.0
 11
256.9124786618
 21
22.6104008283
 31
0.0
  0
SPLINE
  5
180
330
1F
100
AcDbEntity
  8
0
  6
Continuous
 62
     7
370
    15
100
AcDbSpline
210
0.0
220
0.0
230
1.0
 70
     8
 71
     3
 72
    11
 73
     7
 74
     0
 42
0.000000001
 43
0.00000001
 40
0.0
 40
0.0
 40
0.0
 40
0.0
 40
0.1050885860696679
 40
0.4236183153904525
 40
0.741659062763386
 40
1.0
 40
1.0
 40
1.0
 40
1.0
 10
253.399160835827
 20
26.15332224260022
 30
0.0
 10
253.4161235379818
 20
26.09318079721113
 30
0.0
 10
253.484501195157
 20
25.85074706835707
 30
0.0
 10
253.6369463047843
 20
25.45474039118599
 30
0.0
 10
253.8529251202942
 20
25.00766450850625
 30
0.0
 10
254.0250985404593
 20
24.75567024738833
 30
0.0
 10
254.1022686586647
 20
24.6427235050928
 30
0.0
  0
SPLINE
  5
181
330
1F
100
AcDbEntity
  8
0
  6
Continuous
 62
     7
370
    15
100
AcDbSpline
210
0.0
220
0.0
230
1.0
 70
     8
 71
     3
 72
    26
 73
    22
 74
     0
 42
0.000000001
 43
0.00000001
 40
0.0
 40
0.0
 40
0.0
 40
0.0
 40
0.0211003487122626
 40
0.0734660947596716
 40
0.1265293848983989
 40
0.1807963946600736
 40
0.2363312363639709
 40
0.2928241536681345
 40
0.3498299648572941
 40
0.4069680242110197
 40
0.4640247026577876
 40
0.5209555255077403
 40
0.5777730718169948
 40
0.6345160112361959
 40
0.691233903779496
 40
0.7479784728614468
 40
0.8047900183011127
 40
0.8617257557541508
 40
0.9188408427311996
 40
0.9761800833651306
 40
1.0
 40
1.0
 40
1.0
 40
1.0
 10
247.3690046547109
 20
44.33138825745725
 30
0.0
 10
247.3293370461726
 20
44.34822834479143
 30
0.0
 10
247.1912244335562
 20
44.40686128345635
 30
0.0
 10
246.9292769595744
 20
44.44713904923285
 30
0.0
 10
246.5908603396692
 20
44.45306038613829
 30
0.0
 10
246.2360057192629
 20
44.39767052891258
 30
0.0
 10
245.870316199024
 20
44.28532453502733
 30
0.0
 10
245.4985341887788
 20
44.11546450852337
 30
0.0
 10
245.1273494542284
 20
43.89101978740729
 30
0.0
 10
244.7634146985193
 20
43.61616688243958
 30
0.0
 10
244.4127911078518
 20
43.29617649656408
 30
0.0
 10
244.0807407835925
 20
42.93666587884219
 30
0.0
 10
243.7719454614124
 20
42.54343628352779
 30
0.0
 10
243.4907351130577
 20
42.12254007454681
 30
0.0
 10
243.2411245310292
 20
41.68027179104555
 30
0.0
 10
243.0267884593829
 20
41.22314181918097
 30
0.0
 10
242.8510802062875
 20
40.75779863617309
 30
0.0
 10
242.7167105702107
 20
40.29076551048439
 30
0.0
 10
242.6269048935439
 20
39.8289035527487
 30
0.0
 10
242.590164654921
 20
39.46586792870619
 30
0.0
 10
242.5872579818524
 20
39.2605419605898
 30
0.0
 10
242.5864048839088
 20
39.20027953786273
 30
0.0
  0
SPLINE
  5
182
330
1F
100
AcDbEntity
  8
0
  6
Continuous
 62
     7
370
    15
100
AcDbSpline
210
0.0
220
0.0
230
1.0
 70
     8
 71
     3
 72
    13
 73
     9
 74
     0
 42
0.000000001
 43
0.00000001
 40
0.0
 40
0.0
 40
0.0
 40
0.0
 40
0.1011487783717617
 40
0.2919018006118843
 40
0.4826418266735787
 40
0.6715266520409008
 40
0.8566629140943115
 40
1.0
 40
1.0
 40
1.0
 40
1.0
 10
242.5864048839088
 20
39.20027953786273
 30
0.0
 10
242.5877878572551
 20
39.12402128518809
 30
0.0
 10
242.5917789327432
 20
38.90395020152724
 30
0.0
 10
242.6365228555697
 20
38.55862383070881
 30
0.0
 10
242.737199412075
 20
38.17937974476375
 30
0.0
 10
242.8899461648506
 20
37.84149903160296
 30
0.0
 10
243.0716022817244
 20
37.56466460591055
 30
0.0
 10
243.2217521941393
 20
37.42673514382761
 30
0.0
 10
243.2872736467268
 20
37.36654637271925
 30
0.0
  0
LWPOLYLINE
  5
183
330
1F
100
AcDbEntity
  8
0
  6
Continuous
 62
     7
370
    15
100
AcDbPolyline
 90
       33
 70
   128
 43
0.0
 10
268.632705088
 20
33.416563903
 10
268.2991948857
 20
33.4958809119
 10
267.9988976137
 20
33.611234868
 10
267.7433535278
 20
33.7581927837
 10
267.5423830438
 20
33.9311071487
 10
267.4037093448
 20
34.1233329607
 10
267.3326615832
 20
34.3274830898
 10
267.3319700846
 20
34.5357121609
 10
267.4016614231
 20
34.7400180475
 10
267.5390573994
 20
34.9325493892
 10
267.7388779634
 20
35.1059073143
 10
267.9934441227
 20
35.253429775
 10
268.2929730427
 20
35.3694475659
 10
268.6259539949
 20
35.4495021883
 10
268.9795907081
 20
35.490517188
 10
269.3402931216
 20
35.4909163816
 10
269.6941996442
 20
35.4506844283
 10
270.0277098464
 20
35.3713674195
 10
270.3280071184
 20
35.2560134633
 10
270.5835512043
 20
35.1090555476
 10
270.7845216883
 20
34.9361411827
 10
270.9231953874
 20
34.7439153706
 10
270.994243149
 20
34.5397652416
 10
270.9949346475
 20
34.3315361705
 10
270.925243309
 20
34.1272302838
 10
270.7878473327
 20
33.9346989422
 10
270.5880267688
 20
33.7613410171
 10
270.3334606094
 20
33.6138185564
 10
270.0339316894
 20
33.4978007655
 10
269.7009507372
 20
33.4177461431
 10
269.3473140241
 20
33.3767311433
 10
268.9866116105
 20
33.3763319497
 10
268.632705088
 20
33.416563903
  0
LWPOLYLINE
  5
184
330
1F
100
AcDbEntity
  8
0
  6
Continuous
 62
     7
370
    15
100
AcDbPolyline
 90
       12
 70
   128
 43
0.0
 10
268.5865531507
 20
33.1974773503
 10
268.2345642013
 20
33.2804828148
 10
267.9161476902
 20
33.4004439061
 10
267.64281202
 20
33.5530249181
 10
267.4244362539
 20
33.7327111752
 10
267.2689130611
 20
33.933008348
 10
267.1818634549
 20
34.1466771748
 10
267.1664336349
 20
34.3659951075
 10
267.2231812751
 20
34.5830354246
 10
267.3500553678
 20
34.7899537235
 10
267.5424703528
 20
34.9792714378
 10
267.7490090102
 20
35.1192530691
  0
LWPOLYLINE
  5
185
330
1F
100
AcDbEntity
  8
0
  6
Continuous
 62
     7
370
    15
100
AcDbPolyline
 90
       15
 70
   128
 43
0.0
 10
270.5778957219
 20
35.1192530691
 10
270.8006941527
 20
34.9660898484
 10
270.9884940045
 20
34.775233923
 10
271.1103320963
 20
34.567309425
 10
271.1618048822
 20
34.3498312874
 10
271.1410520014
 20
34.1306597367
 10
271.0488235173
 20
33.9177162039
 10
270.8884528074
 20
33.718697023
 10
270.6657360872
 20
33.5407952658
 10
270.3887229191
 20
33.3904407653
 10
270.0674252808
 20
33.2730677249
 10
269.7134557061
 20
33.1929183121
 10
269.3396075777
 20
33.1528893354
 10
268.959392741
 20
33.1544275465
 10
268.5865531507
 20
33.1974773503
  0
LWPOLYLINE
  5
186
330
1F
100
AcDbEntity
  8
0
  6
Continuous
 62
     7
370
    15
100
AcDbPolyline
 90
       26
 70
   128
 43
0.0
 10
268.8288508212
 20
33.7924340001
 10
268.5631445063
 20
33.8606154451
 10
268.335157742
 20
33.9648011354
 10
268.1592157753
 20
34.0984447009
 10
268.0463736868
 20
34.2531488249
 10
268.0037217601
 20
34.4191928783
 10
268.0339399725
 20
34.5861437025
 10
268.1351296027
 20
34.7435111634
 10
268.3009325341
 20
34.8814072844
 10
268.5209307585
 20
34.9911675453
 10
268.7813009787
 20
35.0658953052
 10
269.0656831759
 20
35.100895144
 10
269.3562085709
 20
35.0939678932
 10
269.6346223847
 20
35.0455488174
 10
269.8834308534
 20
34.9586802653
 10
270.0870004258
 20
34.8388205074
 10
270.232540077
 20
34.6935007731
 10
270.3109050155
 20
34.5318520358
 10
270.3171712841
 20
34.3640312802
 10
270.2509451499
 20
34.2005833016
 10
270.1163878446
 20
34.0517781375
 10
269.9219540985
 20
33.9269657636
 10
269.679860899
 20
33.8339886006
 10
269.4053198522
 20
33.7786887454
 10
269.1155813817
 20
33.7645408913
 10
268.8288508212
 20
33.7924340001
  0
LINE
  5
187
330
1F
100
AcDbEntity
  8
0
  6
Continuous
 62
     7
370
    15
100
AcDbLine
 10
268.3605823079
 20
33.9519980165
 30
0.0
 11
268.3221927175
 21
33.9726862474
 31
0.0
  0
SPLINE
  5
188
330
1F
100
AcDbEntity
  8
0
  6
Continuous
 62
     7
370
    15
100
AcDbSpline
210
0.0
220
0.0
230
1.0
 70
     8
 71
     3
 72
     9
 73
     5
 74
     0
 42
0.000000001
 43
0.00000001
 40
0.0
 40
0.0
 40
0.0
 40
0.0
 40
0.6088402367176478
 40
1.0
 40
1.0
 40
1.0
 40
1.0
 10
270.2690724477897
 20
34.23701803661565
 30
0.0
 10
270.2117180500321
 20
34.17475447872699
 30
0.0
 10
270.1175153441355
 20
34.07248863929376
 30
0.0
 10
270.0144738069993
 20
33.99811567769552
 30
0.0
 10
269.9741681037249
 20
33.96902396764215
 30
0.0
  0
SPLINE
  5
189
330
1F
100
AcDbEntity
  8
0
  6
Continuous
 62
     7
370
    15
100
AcDbSpline
210
0.0
220
0.0
230
1.0
 70
     8
 71
     3
 72
    11
 73
     7
 74
     0
 42
0.000000001
 43
0.00000001
 40
0.0
 40
0.0
 40
0.0
 40
0.0
 40
0.2164575325957951
 40
0.4403158827730645
 40
0.7519042103606945
 40
1.0
 40
1.0
 40
1.0
 40
1.0
 10
270.0047120145874
 20
34.88590763054228
 30
0.0
 10
270.0228211441571
 20
34.8118827258202
 30
0.0
 10
270.0596585656926
 20
34.66130195887244
 30
0.0
 10
270.128018666323
 20
34.44336460087122
 30
0.0
 10
270.2013464246236
 20
34.29361085636545
 30
0.0
 10
270.2482715575302
 20
34.25439955376456
 30
0.0
 10
270.2690724477897
 20
34.23701803661565
 30
0.0
  0
SPLINE
  5
18A
330
1F
100
AcDbEntity
  8
0
  6
Continuous
 62
     7
370
    15
100
AcDbSpline
210
0.0
220
0.0
230
1.0
 70
     8
 71
     3
 72
    11
 73
     7
 74
     0
 42
0.000000001
 43
0.00000001
 40
0.0
 40
0.0
 40
0.0
 40
0.0
 40
0.1842415722604944
 40
0.5169669473866336
 40
0.8653135817995193
 40
1.0
 40
1.0
 40
1.0
 40
1.0
 10
268.8990919328596
 20
35.0781865329062
 30
0.0
 10
268.9632072055742
 20
35.04164824599157
 30
0.0
 10
269.1431094741526
 20
34.93912476870447
 30
0.0
 10
269.4781576061907
 20
34.82777077893563
 30
0.0
 10
269.7906385626496
 20
34.83681420312967
 30
0.0
 10
269.958035832541
 20
34.87520338985082
 30
0.0
 10
270.0047120145874
 20
34.88590763054228
 30
0.0
  0
SPLINE
  5
18B
330
1F
100
AcDbEntity
  8
0
  6
Continuous
 62
     7
370
    15
100
AcDbSpline
210
0.0
220
0.0
230
1.0
 70
     8
 71
     3
 72
    11
 73
     7
 74
     0
 42
0.000000001
 43
0.00000001
 40
0.0
 40
0.0
 40
0.0
 40
0.0
 40
0.2164575325957969
 40
0.4403158827730685
 40
0.7519042103606957
 40
1.0
 40
1.0
 40
1.0
 40
1.0
 10
268.057832284334
 20
34.62157584134349
 30
0.0
 10
268.115459970113
 20
34.62327954572845
 30
0.0
 10
268.2326856680669
 20
34.62674520521026
 30
0.0
 10
268.4502242517831
 20
34.69467555383768
 30
0.0
 10
268.6835711389399
 20
34.85156322595277
 30
0.0
 10
268.8328984052703
 20
35.00858305823275
 30
0.0
 10
268.8990919328596
 20
35.0781865329062
 30
0.0
  0
SPLINE
  5
18C
330
1F
100
AcDbEntity
  8
0
  6
Continuous
 62
     7
370
    15
100
AcDbSpline
210
0.0
220
0.0
230
1.0
 70
     8
 71
     3
 72
    11
 73
     7
 74
     0
 42
0.000000001
 43
0.00000001
 40
0.0
 40
0.0
 40
0.0
 40
0.0
 40
0.2164575325957949
 40
0.4403158827730635
 40
0.7519042103606907
 40
1.0
 40
1.0
 40
1.0
 40
1.0
 10
268.3221927175364
 20
33.97268624741685
 30
0.0
 10
268.3040835879666
 20
33.98756137656559
 30
0.0
 10
268.2672461664311
 20
34.01782022477447
 30
0.0
 10
268.1988860658008
 20
34.13547134649743
 30
0.0
 10
268.1255583075001
 20
34.34569294876259
 30
0.0
 10
268.0786331745935
 20
34.53684312702237
 30
0.0
 10
268.057832284334
 20
34.62157584134349
 30
0.0
  0
LINE
  5
18D
330
1F
100
AcDbEntity
  8
0
  6
Continuous
 62
     7
370
    15
100
AcDbLine
 10
270.0047120146
 20
33.9924094486
 30
0.0
 11
270.0047120146
 21
34.8859076305
 31
0.0
  0
LINE
  5
18E
330
1F
100
AcDbEntity
  8
0
  6
Continuous
 62
     7
370
    15
100
AcDbLine
 10
268.8990919329
 20
33.7815921818
 30
0.0
 11
268.8990919329
 21
35.0781865329
 31
0.0
  0
LWPOLYLINE
  5
18F
330
1F
100
AcDbEntity
  8
0
  6
Continuous
 62
     7
370
    15
100
AcDbPolyline
 90
       71
 70
   128
 43
0.0
 10
271.8575292024
 20
32.764050999
 10
271.2959419726
 20
32.4107294142
 10
270.7388763129
 20
32.0020042114
 10
270.1908173885
 20
31.5411662057
 10
269.6561778477
 20
31.0319257937
 10
269.1392622936
 20
30.4783830799
 10
268.6442326263
 20
29.8849948645
 10
268.1750745337
 20
29.2565387608
 10
267.7355654008
 20
28.5980747276
 10
267.3292438968
 20
27.9149043302
 10
266.9593814834
 20
27.212528055
 10
266.6289560754
 20
26.4966010227
 10
266.3406280639
 20
25.7728874568
 10
266.0967188965
 20
25.0472142734
 10
265.8991923864
 20
24.3254241664
 10
265.7496389008
 20
23.6133285651
 10
265.6492625566
 20
22.9166608448
 10
265.598871525
 20
22.2410301643
 10
265.598871525
 20
21.5918763045
 10
265.6492625566
 20
20.9744258706
 10
265.7496389008
 20
20.3936502105
 10
265.8991923864
 20
19.8542253883
 10
266.0967188965
 20
19.3604945355
 10
266.3406280639
 20
18.9164328826
 10
266.6289560754
 20
18.5256157528
 10
266.9593814834
 20
18.1911897761
 10
267.3292438968
 20
17.9158475536
 10
267.7355654008
 20
17.7018059791
 10
268.1750745337
 20
17.5507883895
 10
268.6442326263
 20
17.4640106895
 10
269.1392622936
 20
17.4421715623
 10
269.6561778477
 20
17.4854468435
 10
270.1908173885
 20
17.5934881062
 10
270.7388763129
 20
17.7654254656
 10
271.2959419726
 20
17.9998745831
 10
271.8575292024
 20
18.2949478124
 10
272.4191164322
 20
18.6482693972
 10
272.9761820919
 20
19.0569946
 10
273.5242410162
 20
19.5178326057
 10
274.0588805571
 20
20.0270730176
 10
274.5757961112
 20
20.5806157315
 10
275.0708257785
 20
21.1740039468
 10
275.5399838711
 20
21.8024600506
 10
275.979493004
 20
22.4609240838
 10
276.385814508
 20
23.1440944811
 10
276.7556769213
 20
23.8464707564
 10
277.0861023293
 20
24.5623977887
 10
277.3744303408
 20
25.2861113546
 10
277.6183395082
 20
26.0117845379
 10
277.8158660184
 20
26.733574645
 10
277.9654195039
 20
27.4456702462
 10
278.0657958481
 20
28.1423379665
 10
278.1161868797
 20
28.8179686471
 10
278.1161868797
 20
29.4671225069
 10
278.0657958481
 20
30.0845729407
 10
277.9654195039
 20
30.6653486008
 10
277.8158660184
 20
31.204773423
 10
277.6183395082
 20
31.6985042759
 10
277.3744303408
 20
32.1425659288
 10
277.0861023293
 20
32.5333830585
 10
276.7556769213
 20
32.8678090353
 10
276.385814508
 20
33.1431512577
 10
275.979493004
 20
33.3571928323
 10
275.5399838711
 20
33.5082104219
 10
275.0708257785
 20
33.5949881219
 10
274.5757961112
 20
33.6168272491
 10
274.0588805571
 20
33.5735519678
 10
273.5242410162
 20
33.4655107051
 10
272.9761820919
 20
33.2935733458
 10
272.4191164322
 20
33.0591242282
 10
271.8575292024
 20
32.764050999
  0
LWPOLYLINE
  5
190
330
1F
100
AcDbEntity
  8
0
  6
Continuous
 62
     7
370
    15
100
AcDbPolyline
 90
       37
 70
   128
 43
0.0
 10
271.758534253
 20
32.9355152805
 10
271.1960867115
 20
32.5820638007
 10
270.6380410845
 20
32.1738637074
 10
270.0887648359
 20
31.7141097197
 10
269.5525567968
 20
31.2064000359
 10
269.0336135224
 20
30.6547081726
 10
268.5359964472
 20
30.0633518668
 10
268.0636000997
 20
29.4369592833
 10
267.6201216217
 20
28.7804327933
 10
267.2090318335
 20
28.0989106068
 10
266.8335480703
 20
27.397726559
 10
266.4966090015
 20
26.6823683657
 10
266.2008516321
 20
25.9584346746
 10
265.9485906647
 20
25.2315912486
 10
265.7418003832
 20
24.5075266228
 10
265.5820992021
 20
23.7919075847
 10
265.4707369996
 20
23.0903348236
 10
265.4085853358
 20
22.4082990975
 10
265.396130632
 20
21.7511382607
 10
265.4334703629
 20
21.1239954878
 10
265.5203122946
 20
20.5317790213
 10
265.6559767713
 20
19.979123758
 10
265.8394020343
 20
19.4703549746
 10
266.0691525325
 20
19.0094544767
 10
266.3434301565
 20
18.6000294356
 10
266.6600883122
 20
18.2452841574
 10
267.0166487201
 20
17.9479950048
 10
267.4103208116
 20
17.7104886686
 10
267.8380235688
 20
17.5346239578
 10
268.2964096377
 20
17.4217772523
 10
268.7818915258
 20
17.3728317306
 10
269.2906696792
 20
17.3881704576
 10
269.8187622189
 20
17.4676733871
 10
270.3620361048
 20
17.6107183009
 10
270.9162394822
 20
17.8161856785
 10
271.4770349582
 20
18.0824674591
 10
271.7595685757
 20
18.2383778654
  0
LWPOLYLINE
  5
191
330
1F
100
AcDbEntity
  8
0
  6
Continuous
 62
     7
370
    15
100
AcDbPolyline
 90
       19
 70
   128
 43
0.0
 10
278.1224952837
 20
29.2604844767
 10
278.1084831702
 20
29.739794062
 10
278.0463315065
 20
30.3500710046
 10
277.9349693039
 20
30.9230677035
 10
277.7752681228
 20
31.4542996826
 10
277.5684778413
 20
31.9396093315
 10
277.3162168739
 20
32.375198444
 10
277.0204595045
 20
32.7576579449
 10
276.6835204357
 20
33.0839945699
 10
276.3080366725
 20
33.3516542926
 10
275.8969468844
 20
33.5585423126
 10
275.4534684064
 20
33.7030394507
 10
274.9810720588
 20
33.7840148208
 10
274.4834549837
 20
33.800834681
 10
273.9645117092
 20
33.7533673931
 10
273.4283036702
 20
33.6419844528
 10
272.8790274215
 20
33.4675575827
 10
272.3209817946
 20
33.2314519096
 10
271.758534253
 20
32.9355152805
  0
SPLINE
  5
192
330
1F
100
AcDbEntity
  8
0
  6
Continuous
 62
     7
370
    15
100
AcDbSpline
210
0.0
220
0.0
230
1.0
 70
    11
 71
     3
 72
    99
 73
    95
 74
     0
 42
0.000000001
 43
0.00000001
 40
0.0
 40
0.0
 40
0.0
 40
0.0
 40
0.0312500000000008
 40
0.0312500000000008
 40
0.0468750000000011
 40
0.0468750000000011
 40
0.0625000000000014
 40
0.0625000000000014
 40
0.093750000000002
 40
0.093750000000002
 40
0.109375000000002
 40
0.109375000000002
 40
0.1250000000000019
 40
0.1250000000000019
 40
0.1562500000000019
 40
0.1562500000000019
 40
0.1718750000000019
 40
0.1718750000000019
 40
0.1875000000000019
 40
0.1875000000000019
 40
0.2187500000000025
 40
0.2187500000000025
 40
0.234375000000003
 40
0.234375000000003
 40
0.2500000000000036
 40
0.2500000000000036
 40
0.2812500000000042
 40
0.2812500000000042
 40
0.2968750000000043
 40
0.2968750000000043
 40
0.3125000000000044
 40
0.3125000000000044
 40
0.3437500000000046
 40
0.3437500000000046
 40
0.3593750000000047
 40
0.3593750000000047
 40
0.3750000000000047
 40
0.3906250000000047
 40
0.3906250000000047
 40
0.4062500000000048
 40
0.4062500000000048
 40
0.4375000000000049
 40
0.4375000000000049
 40
0.4531250000000049
 40
0.4531250000000049
 40
0.4687500000000049
 40
0.4687500000000049
 40
0.4843750000000049
 40
0.4843750000000049
 40
0.5000000000000049
 40
0.5000000000000049
 40
0.5312500000000054
 40
0.5312500000000054
 40
0.5468750000000056
 40
0.5468750000000056
 40
0.5625000000000056
 40
0.5625000000000056
 40
0.5937500000000057
 40
0.5937500000000057
 40
0.6250000000000057
 40
0.6250000000000057
 40
0.6562500000000057
 40
0.6562500000000057
 40
0.6875000000000057
 40
0.6875000000000057
 40
0.7031250000000056
 40
0.7031250000000056
 40
0.7187500000000054
 40
0.7187500000000054
 40
0.7500000000000049
 40
0.7500000000000049
 40
0.7656250000000046
 40
0.7656250000000046
 40
0.7812500000000041
 40
0.7812500000000041
 40
0.8125000000000036
 40
0.8125000000000036
 40
0.8281250000000033
 40
0.8281250000000033
 40
0.8437500000000031
 40
0.8437500000000031
 40
0.8750000000000024
 40
0.8750000000000024
 40
0.8906250000000022
 40
0.8906250000000022
 40
0.9062500000000019
 40
0.9062500000000019
 40
0.9218750000000017
 40
0.9218750000000017
 40
0.9375000000000013
 40
0.9375000000000013
 40
0.9687500000000008
 40
0.9687500000000008
 40
1.0
 40
1.0
 40
1.0
 40
1.0
 10
269.1441921819676
 20
35.62324183237726
 30
0.0
 10
269.2928231447997
 20
35.60052303090652
 30
0.0
 10
269.4376408524478
 20
35.57041550080254
 30
0.0
 10
269.6497936500125
 20
35.51620566189839
 30
0.0
 10
269.7196576588813
 20
35.49661028486054
 30
0.0
 10
269.857702809212
 20
35.45453188323877
 30
0.0
 10
269.9262004129966
 20
35.43193241515648
 30
0.0
 10
270.1265143466602
 20
35.36085053125566
 30
0.0
 10
270.2528712487395
 20
35.30932755089624
 30
0.0
 10
270.4321190381806
 20
35.22664356460617
 30
0.0
 10
270.4901417862645
 20
35.1981717348652
 30
0.0
 10
270.6026778458316
 20
35.13942053978943
 30
0.0
 10
270.6573133388621
 20
35.10905156755037
 30
0.0
 10
270.8128997082157
 20
35.01691231005842
 30
0.0
 10
270.9066127961843
 20
34.95364649282637
 30
0.0
 10
271.0323258731165
 20
34.85576899042358
 30
0.0
 10
271.0717389458817
 20
34.82263974913214
 30
0.0
 10
271.1454144913031
 20
34.75524717113904
 30
0.0
 10
271.1796439076041
 20
34.72097384091231
 30
0.0
 10
271.2724499258862
 20
34.61829390492117
 30
0.0
 10
271.3220181290548
 20
34.54936476793274
 30
0.0
 10
271.3775101178007
 20
34.44425544507476
 30
0.0
 10
271.3928433985506
 20
34.4089292515566
 30
0.0
 10
271.4168241027765
 20
34.33746711569359
 30
0.0
 10
271.4253863522937
 20
34.30144952261832
 30
0.0
 10
271.4402084395672
 20
34.1942498740388
 30
0.0
 10
271.4360035518724
 20
34.1231664598904
 30
0.0
 10
271.4072063996429
 20
34.01589361120801
 30
0.0
 10
271.3938318470118
 20
33.98002815325703
 30
0.0
 10
271.3588915937909
 20
33.90786188117647
 30
0.0
 10
271.3376289819022
 20
33.87221481728899
 30
0.0
 10
271.2627765766359
 20
33.76674652931099
 30
0.0
 10
271.1981606833423
 20
33.69818209977267
 30
0.0
 10
271.077387983415
 20
33.59741267947323
 30
0.0
 10
271.0328557993445
 20
33.56403801219064
 30
0.0
 10
270.9381032248617
 20
33.49989765474804
 30
0.0
 10
270.8371867034778
 20
33.43790179151254
 30
0.0
 10
270.7241280497744
 20
33.38010029053283
 30
0.0
 10
270.6048961917027
 20
33.32446135508761
 30
0.0
 10
270.541947062349
 20
33.29765876324368
 30
0.0
 10
270.3488426430661
 20
33.22270373377441
 30
0.0
 10
270.2130190153193
 20
33.1791774656625
 30
0.0
 10
269.9990897460302
 20
33.12384467032992
 30
0.0
 10
269.9263689664602
 20
33.1071803180351
 30
0.0
 10
269.7807399183482
 20
33.07796011375042
 30
0.0
 10
269.7074635207771
 20
33.06530637130066
 30
0.0
 10
269.560003053973
 20
33.04392298359318
 30
0.0
 10
269.4858189058928
 20
33.03519353103965
 30
0.0
 10
269.3365279824237
 20
33.02180617513285
 30
0.0
 10
269.2619017674799
 20
33.01720815947361
 30
0.0
 10
269.0406473073609
 20
33.00981888868247
 30
0.0
 10
268.8955284733774
 20
33.01327254506568
 30
0.0
 10
268.6811386230586
 20
33.0315804917345
 30
0.0
 10
268.6100698275901
 20
33.03993035862339
 30
0.0
 10
268.4715478830899
 20
33.06083936833935
 30
0.0
 10
268.403782036438
 20
33.0734137736174
 30
0.0
 10
268.2048122685696
 20
33.11749760264606
 30
0.0
 10
268.0778981030227
 20
33.15532521543766
 30
0.0
 10
267.8356670455211
 20
33.24890533358428
 30
0.0
 10
267.7233418986834
 20
33.30355004677337
 30
0.0
 10
267.5168049667545
 20
33.42747422601079
 30
0.0
 10
267.4221797406313
 20
33.49700597160133
 30
0.0
 10
267.2522543510933
 20
33.65067355265088
 30
0.0
 10
267.1790498141488
 20
33.73283999637329
 30
0.0
 10
267.0865105252567
 20
33.86334291988689
 30
0.0
 10
267.0585608101092
 20
33.90805814635281
 30
0.0
 10
267.0086310842718
 20
33.99985554315018
 30
0.0
 10
266.9865762669963
 20
34.04713411828562
 30
0.0
 10
266.9304281619106
 20
34.19111711111047
 30
0.0
 10
266.9066358864516
 20
34.28864474224869
 30
0.0
 10
266.8917184302035
 20
34.43625427410707
 30
0.0
 10
266.890232266544
 20
34.48567871084755
 30
0.0
 10
266.894620203116
 20
34.58481391642697
 30
0.0
 10
266.9005705961062
 20
34.63484642636929
 30
0.0
 10
266.9298316970613
 20
34.78233429062992
 30
0.0
 10
266.9641537966
 20
34.87707578171797
 30
0.0
 10
267.0388063503316
 20
35.01262110255231
 30
0.0
 10
267.0675806542852
 20
35.05670314269496
 30
0.0
 10
267.1334778156826
 20
35.14237875982258
 30
0.0
 10
267.1705527873112
 20
35.18378792162773
 30
0.0
 10
267.2913401026082
 20
35.30035171617182
 30
0.0
 10
267.3854126160546
 20
35.36915569059983
 30
0.0
 10
267.5475628072345
 20
35.45831017366874
 30
0.0
 10
267.60530223444
 20
35.48567045335314
 30
0.0
 10
267.7246100661375
 20
35.53414338299288
 30
0.0
 10
267.7865531518273
 20
35.5554870723013
 30
0.0
 10
267.9148843516018
 20
35.59263573215373
 30
0.0
 10
267.981272732175
 20
35.60844021222703
 30
0.0
 10
268.1185091339975
 20
35.63461425089922
 30
0.0
 10
268.188944719453
 20
35.64487196322553
 30
0.0
 10
268.4019443886103
 20
35.66730654726272
 30
0.0
 10
268.5475680294509
 20
35.67149855219766
 30
0.0
 10
268.8458754132611
 20
35.66080097252441
 30
0.0
 10
268.9955612191354
 20
35.645960633848
 30
0.0
 10
269.1441921819676
 20
35.62324183237726
 30
0.0
  0
LINE
  5
193
330
1F
100
AcDbEntity
  8
0
  6
Continuous
 62
     7
370
    15
100
AcDbLine
 10
274.887920246
 20
25.5136936924
 30
0.0
 11
276.0506724148
 21
26.9601463364
 31
0.0
  0
SPLINE
  5
194
330
1F
100
AcDbEntity
  8
0
  6
Continuous
 62
     7
370
    15
100
AcDbSpline
210
0.0
220
0.0
230
1.0
 70
     8
 71
     3
 72
    20
 73
    16
 74
     0
 42
0.000000001
 43
0.00000001
 40
0.0
 40
0.0
 40
0.0
 40
0.0
 40
0.0470305088026581
 40
0.097990220595031
 40
0.1521417717150748
 40
0.2084840042351705
 40
0.2659399655249146
 40
0.3199999852120213
 40
0.3736901181006504
 40
0.4267167692590157
 40
0.4789423374223447
 40
0.5800877796333377
 40
0.669818612075123
 40
0.8327299676045748
 40
0.9208507232321841
 40
0.9208507232321841
 40
0.9208507232321841
 40
0.9208507232321841
 10
276.0506724148022
 20
26.96014633639656
 30
0.0
 10
276.1007994824423
 20
27.02250393199167
 30
0.0
 10
276.2002005398933
 20
27.16032704058734
 30
0.0
 10
276.3326868431558
 20
27.39055528663715
 30
0.0
 10
276.4447562833787
 20
27.6460055066985
 30
0.0
 10
276.5251853386591
 20
27.91409512267125
 30
0.0
 10
276.56355483546
 20
28.17322455886166
 30
0.0
 10
276.5571546461197
 20
28.40710073060349
 30
0.0
 10
276.5085154431382
 20
28.60390710360366
 30
0.0
 10
276.4207269445951
 20
28.75797618323014
 30
0.0
 10
276.2640931088834
 20
28.90303092341933
 30
0.0
 10
276.0127082050244
 20
28.94876418518282
 30
0.0
 10
275.6547856301511
 20
28.97296712654891
 30
0.0
 10
275.3750473785204
 20
29.00083934591388
 30
0.0
 10
275.0173133631707
 20
29.03278783207555
 30
0.0
 10
274.8878163897316
 20
29.04429791814465
 30
0.0
  0
SPLINE
  5
195
330
1F
100
AcDbEntity
  8
0
  6
Continuous
 62
     7
370
    15
100
AcDbSpline
210
0.0
220
0.0
230
1.0
 70
     8
 71
     3
 72
    20
 73
    16
 74
     0
 42
0.000000001
 43
0.00000001
 40
0.0
 40
0.0
 40
0.0
 40
0.0
 40
0.0470305088026582
 40
0.0979902205950311
 40
0.1521417717150749
 40
0.2084840042351705
 40
0.2659399655249146
 40
0.3199999852120213
 40
0.3736901181006505
 40
0.4267167692590158
 40
0.4789423374223448
 40
0.5800877796333379
 40
0.6698186120751232
 40
0.8327299676045751
 40
0.9208507232321845
 40
0.9208507232321845
 40
0.9208507232321845
 40
0.9208507232321845
 10
267.6643859899308
 20
22.11884623328854
 30
0.0
 10
267.6142589222908
 20
22.1233283485007
 30
0.0
 10
267.5148578648398
 20
22.14638543902674
 30
0.0
 10
267.3823715615774
 20
22.22364825529048
 30
0.0
 10
267.2703021213545
 20
22.3497058538699
 30
0.0
 10
267.1898730660741
 20
22.52493405922663
 30
0.0
 10
267.1515035692731
 20
22.73976301737284
 30
0.0
 10
267.1579037586134
 20
22.98102869043692
 30
0.0
 10
267.2065429615949
 20
23.23399269185092
 30
0.0
 10
267.294331460138
 20
23.48942021442003
 30
0.0
 10
267.4509652958497
 20
23.8153205319157
 30
0.0
 10
267.7023501997087
 20
24.15129662568237
 30
0.0
 10
268.0602727745821
 20
24.58874817575327
 30
0.0
 10
268.3400110262127
 20
24.93959930565152
 30
0.0
 10
268.6977450415625
 20
25.38457869432608
 30
0.0
 10
268.8272420150016
 20
25.54560280343251
 30
0.0
  0
LINE
  5
196
330
1F
100
AcDbEntity
  8
0
  6
Continuous
 62
     7
370
    15
100
AcDbLine
 10
268.8271381588
 20
22.0148786679
 30
0.0
 11
267.6643859899
 21
22.1188462333
 31
0.0
  0
ARC
  5
197
330
1F
100
AcDbEntity
  8
0
  6
Continuous
 62
     7
370
    15
100
AcDbCircle
 10
268.1855773898
 20
35.1713666951
 30
0.0
 40
3.481556689105252
100
AcDbArc
 50
34.3325496066
 51
84.2964748064
  0
ARC
  5
198
330
1F
100
AcDbEntity
  8
0
  6
Continuous
 62
     7
370
    15
100
AcDbCircle
 10
261.6683117949
 20
23.8822801229
 30
0.0
 40
3.476082316479028
100
AcDbArc
 50
215.038918254
 51
265.86285515
  0
LWPOLYLINE
  5
199
330
1F
100
AcDbEntity
  8
0
  6
Continuous
 62
     7
370
    15
100
AcDbPolyline
 90
        9
 70
   128
 43
0.0
 10
259.0408700732
 20
21.38170662
 10
258.9743407679
 20
21.4211490243
 10
258.5779830128
 20
21.703731101
 10
258.2202145705
 20
22.0452196741
 10
257.9035628712
 20
22.4432023216
 10
257.6302648786
 20
22.8948675229
 10
257.4022512873
 20
23.3970245207
 10
257.2211328834
 20
23.9461258621
 10
257.0881891651
 20
24.5382924591
  0
SPLINE
  5
19A
330
1F
100
AcDbEntity
  8
0
  6
Continuous
 62
     7
370
    15
100
AcDbSpline
210
0.0
220
0.0
230
1.0
 70
     8
 71
     3
 72
    32
 73
    28
 74
     0
 42
0.000000001
 43
0.00000001
 40
0.0
 40
0.0
 40
0.0
 40
0.0
 40
0.0193254758647258
 40
0.0385826927399014
 40
0.0577846348003733
 40
0.0769443985950771
 40
0.0960751672943215
 40
0.1151901840580798
 40
0.1343027247879751
 40
0.1534260705402312
 40
0.172573479885108
 40
0.1917581614995186
 40
0.2109932472740069
 40
0.2302917662029109
 40
0.2496666193081449
 40
0.3745846283005043
 40
0.4997410234224777
 40
0.4999962720873377
 40
0.6248627021449072
 40
0.7503411293897363
 40
0.7861451323127985
 40
0.8217618640028611
 40
0.8572756267732794
 40
0.8927714566788081
 40
0.9283345184945242
 40
0.9640494961196089
 40
1.0
 40
1.0
 40
1.0
 40
1.0
 10
257.088167054648
 20
27.51902236572661
 30
0.0
 10
257.0969443415631
 20
27.49498594824102
 30
0.0
 10
257.114467913376
 20
27.44699801164862
 30
0.0
 10
257.1394436138648
 20
27.37469899000577
 30
0.0
 10
257.1634070648755
 20
27.3023616314396
 30
0.0
 10
257.1862816991288
 20
27.22995878522359
 30
0.0
 10
257.2081049276121
 20
27.15750702429517
 30
0.0
 10
257.2288840262484
 20
27.08501161736282
 30
0.0
 10
257.2486346180335
 20
27.01248123567886
 30
0.0
 10
257.2673703706125
 20
26.93992400498453
 30
0.0
 10
257.2851058131508
 20
26.86734866282326
 30
0.0
 10
257.3018553504401
 20
26.7947639072337
 30
0.0
 10
257.3176343869155
 20
26.72217988625234
 30
0.0
 10
257.3324557946596
 20
26.64960290797502
 30
0.0
 10
257.3715326345133
 20
26.44546252727818
 30
0.0
 10
257.4185311140466
 20
26.11482191580289
 30
0.0
 10
257.4324716884948
 20
25.82869411768554
 30
0.0
 10
257.4326300181644
 20
25.55800933172516
 30
0.0
 10
257.418609477746
 20
25.3013328820861
 30
0.0
 10
257.3686358456775
 20
25.05281250657397
 30
0.0
 10
257.3203453733284
 20
24.90376286577776
 30
0.0
 10
257.2906224083193
 20
24.82824418532076
 30
0.0
 10
257.2574570198265
 20
24.7585676721339
 30
0.0
 10
257.2207774994228
 20
24.69464120410775
 30
0.0
 10
257.180416672374
 20
24.63655965506382
 30
0.0
 10
257.1365955136543
 20
24.58374087101695
 30
0.0
 10
257.1043841944939
 20
24.55346107704433
 30
0.0
 10
257.0882256041915
 20
24.53827142328295
 30
0.0
  0
LWPOLYLINE
  5
19B
330
1F
100
AcDbEntity
  8
0
  6
Continuous
 62
     7
370
    15
100
AcDbPolyline
 90
       27
 70
   128
 43
0.0
 10
257.0881670546
 20
27.5190223658
 10
257.2211027905
 20
28.2646887107
 10
257.4022146139
 20
29.0229124361
 10
257.6302230413
 20
29.7883369914
 10
257.9035172834
 20
30.5555549548
 10
258.2201666244
 20
31.3191462349
 10
258.5779340621
 20
32.0737163614
 10
258.974292111
 20
32.8139345948
 10
259.4064406583
 20
33.5345715862
 10
259.8713267454
 20
34.2305363203
 10
260.3656661361
 20
34.8969120816
 10
260.8859665182
 20
35.5289911889
 10
261.4285521752
 20
36.1223082534
 10
261.9895899541
 20
36.6726717247
 10
262.565116345
 20
37.1761935026
 10
263.1510654816
 20
37.629316405
 10
263.743297865
 20
38.0288392978
 10
264.3376296077
 20
38.3719397098
 10
264.9298619911
 20
38.6561937723
 10
265.5158111277
 20
38.8795933428
 10
266.0913375186
 20
39.0405601918
 10
266.6523752975
 20
39.137957152
 10
267.1949609546
 20
39.1710961526
 10
267.7152613366
 20
39.1397430796
 10
268.2096007273
 20
39.0441194301
 10
268.6744868145
 20
38.8849007472
 10
269.0400573995
 20
38.7026838676
  0
SPLINE
  5
19C
330
1F
100
AcDbEntity
  8
0
  6
Continuous
 62
     7
370
    15
100
AcDbSpline
210
0.0
220
0.0
230
1.0
 70
     8
 71
     3
 72
    18
 73
    14
 74
     0
 42
0.000000001
 43
0.00000001
 40
0.0
 40
0.0
 40
0.0
 40
0.0
 40
0.2499999999999998
 40
0.2499999999999998
 40
0.4999999999999996
 40
0.4999999999999996
 40
0.6249999999999997
 40
0.6249999999999997
 40
0.7499999999999998
 40
0.7499999999999998
 40
0.8749999999999999
 40
0.8749999999999999
 40
1.0
 40
1.0
 40
1.0
 40
1.0
 10
274.8878163897347
 20
29.04429791815797
 30
0.0
 10
274.8743262343719
 20
29.04549696432242
 30
0.0
 10
274.8598612196744
 20
29.04616011682549
 30
0.0
 10
274.8277478477429
 20
29.04573626300405
 30
0.0
 10
274.8097195996273
 20
29.04465407359772
 30
0.0
 10
274.7799708536048
 20
29.04032306636417
 30
0.0
 10
274.7693055949642
 20
29.03835888686762
 30
0.0
 10
274.7478757397242
 20
29.03321834319784
 30
0.0
 10
274.7369797413383
 20
29.02998146943557
 30
0.0
 10
274.7172212736189
 20
29.02276171914871
 30
0.0
 10
274.7082609925608
 20
29.01876780986029
 30
0.0
 10
274.6928543790839
 20
29.01072366594136
 30
0.0
 10
274.6864766459398
 20
29.00675208657626
 30
0.0
 10
274.680941929524
 20
29.00284037251581
 30
0.0
  0
SPLINE
  5
19D
330
1F
100
AcDbEntity
  8
0
  6
Continuous
 62
     7
370
    15
100
AcDbSpline
210
0.0
220
0.0
230
1.0
 70
     8
 71
     3
 72
    10
 73
     6
 74
     0
 42
0.000000001
 43
0.00000001
 40
0.0
 40
0.0
 40
0.0
 40
0.0
 40
0.5
 40
0.5
 40
1.0
 40
1.0
 40
1.0
 40
1.0
 10
274.6809419295215
 20
29.00284037251707
 30
0.0
 10
274.6631846840511
 20
29.00889799509486
 30
0.0
 10
274.6448495858282
 20
29.01570088034414
 30
0.0
 10
274.6097746906362
 20
29.0304640927297
 30
0.0
 10
274.5929763729266
 20
29.03849009574551
 30
0.0
 10
274.5792185327302
 20
29.04643232783567
 30
0.0
  0
LINE
  5
19E
330
1F
100
AcDbEntity
  8
0
  6
Continuous
 62
     7
370
    15
100
AcDbLine
 10
274.0850432221
 20
29.5525878019
 30
0.0
 11
274.0159209312
 21
29.5949649838
 31
0.0
  0
SPLINE
  5
19F
330
1F
100
AcDbEntity
  8
0
  6
Continuous
 62
     7
370
    15
100
AcDbSpline
210
0.0
220
0.0
230
1.0
 70
     8
 71
     3
 72
    11
 73
     7
 74
     0
 42
0.000000001
 43
0.00000001
 40
0.0
 40
0.0
 40
0.0
 40
0.0
 40
0.1229900336000386
 40
0.3363880266554745
 40
0.7122339938890447
 40
1.0
 40
1.0
 40
1.0
 40
1.0
 10
268.9109070993914
 20
25.66349364659985
 30
0.0
 10
268.9097636383503
 20
25.66064157871243
 30
0.0
 10
268.9066361767838
 20
25.65284093454269
 30
0.0
 10
268.8889319362291
 20
25.62569960399902
 30
0.0
 10
268.8610649155015
 20
25.58807471560819
 30
0.0
 10
268.837472524033
 20
25.55844940364958
 30
0.0
 10
268.8272420150305
 20
25.54560280346069
 30
0.0
  0
SPLINE
  5
1A0
330
1F
100
AcDbEntity
  8
0
  6
Continuous
 62
     7
370
    15
100
AcDbSpline
210
0.0
220
0.0
230
1.0
 70
     8
 71
     3
 72
    11
 73
     7
 74
     0
 42
0.000000001
 43
0.00000001
 40
0.0
 40
0.0
 40
0.0
 40
0.0
 40
0.314209056357626
 40
0.6283603068830145
 40
0.9425489565416422
 40
1.0
 40
1.0
 40
1.0
 40
1.0
 10
267.629030650871
 20
22.25079135030579
 30
0.0
 10
267.544012194906
 20
22.27171952189552
 30
0.0
 10
267.3739909240357
 20
22.31357201486647
 30
0.0
 10
267.2168669025006
 20
22.54552227269825
 30
0.0
 10
267.1428825072672
 20
22.77018465769574
 30
0.0
 10
267.1615688832002
 20
22.92050436360884
 30
0.0
 10
267.1644575730137
 20
22.94374198896751
 30
0.0
  0
LINE
  5
1A1
330
1F
100
AcDbEntity
  8
0
  6
Continuous
 62
     7
370
    15
100
AcDbLine
 10
273.299281578
 20
29.785324204
 30
0.0
 11
274.5792185327
 21
29.0464323278
 31
0.0
  0
ARC
  5
1A2
330
1F
100
AcDbEntity
  8
0
  6
Continuous
 62
     7
370
    15
100
AcDbCircle
 10
266.3394967452
 20
29.2492286106
 30
0.0
 40
5.655739099850332
100
AcDbArc
 50
338.7131338433
 51
2.0414116062
  0
LINE
  5
1A3
330
1F
100
AcDbEntity
  8
0
  6
Continuous
 62
     7
370
    15
100
AcDbLine
 10
271.6093700517
 20
27.1959823761
 30
0.0
 11
274.5792185327
 21
25.4815253413
 31
0.0
  0
LINE
  5
1A4
330
1F
100
AcDbEntity
  8
0
  6
Continuous
 62
     7
370
    15
100
AcDbLine
 10
269.3472144042
 20
21.6696653753
 30
0.0
 11
269.4162947611
 21
21.6273154499
 31
0.0
  0
LINE
  5
1A5
330
1F
100
AcDbEntity
  8
0
  6
Continuous
 62
     7
370
    15
100
AcDbLine
 10
267.1937822474
 20
23.1336924864
 30
0.0
 11
268.8529971596
 21
22.1758481059
 31
0.0
  0
SPLINE
  5
1A6
330
1F
100
AcDbEntity
  8
0
  6
Continuous
 62
     7
370
    15
100
AcDbSpline
210
0.0
220
0.0
230
1.0
 70
     8
 71
     3
 72
     8
 73
     4
 74
     0
 42
0.000000001
 43
0.00000001
 40
0.0
 40
0.0
 40
0.0
 40
0.0
 40
1.0
 40
1.0
 40
1.0
 40
1.0
 10
256.7033697430255
 20
29.69315745289717
 30
0.0
 10
256.2355191750504
 20
29.61493498360008
 30
0.0
 10
255.7672778779064
 20
29.53750099691211
 30
0.0
 10
255.2987852852452
 20
29.4605892172136
 30
0.0
  0
SPLINE
  5
1A7
330
1F
100
AcDbEntity
  8
0
  6
Continuous
 62
     7
370
    15
100
AcDbSpline
210
0.0
220
0.0
230
1.0
 70
     8
 71
     3
 72
     8
 73
     4
 74
     0
 42
0.000000001
 43
0.00000001
 40
0.0
 40
0.0
 40
0.0
 40
0.0
 40
0.0012417047560385
 40
0.0012417047560385
 40
0.0012417047560385
 40
0.0012417047560385
 10
255.1089850437854
 20
29.57017938556555
 30
0.0
 10
255.1722934999696
 20
29.53362525566238
 30
0.0
 10
255.2355612222413
 20
29.49709463670093
 30
0.0
 10
255.2987852852452
 20
29.4605892172136
 30
0.0
  0
LWPOLYLINE
  5
1A8
330
1F
100
AcDbEntity
  8
0
  6
Continuous
 62
     7
370
    15
100
AcDbPolyline
 90
       28
 70
   128
 43
0.0
 10
255.1089850438
 20
29.5701793856
 10
255.3005192801
 20
30.3496458401
 10
255.5412719666
 20
31.1359703175
 10
255.8294508657
 20
31.9232991749
 10
256.1629106843
 20
32.705771292
 10
256.5391690442
 20
33.477561704
 10
256.9554249616
 20
34.2329249638
 10
257.4085796982
 20
34.966237913
 10
257.8952598299
 20
35.672041543
 10
258.4118423589
 20
36.3450816325
 10
258.9544816846
 20
36.9803478627
 10
259.5191382319
 20
37.5731111147
 10
260.1016085222
 20
38.1189586752
 10
260.6975564663
 20
38.6138270858
 10
261.3025456429
 20
39.0540323926
 10
261.912072325
 20
39.4362975709
 10
262.5215990071
 20
39.7577769202
 10
263.1265881837
 20
40.0160772486
 10
263.7225361278
 20
40.2092756883
 10
264.3050064181
 20
40.3359340103
 10
264.8696629653
 20
40.3951093308
 10
265.4123022911
 20
40.3863611303
 10
265.9288848201
 20
40.3097545333
 10
266.4155649518
 20
40.1658598228
 10
266.8687196884
 20
39.9557481959
 10
267.2849756057
 20
39.6809837884
 10
267.6612339656
 20
39.3436120319
 10
267.8613261027
 20
39.1186280113
  0
LINE
  5
1A9
330
1F
100
AcDbEntity
  8
0
  6
Continuous
 62
     7
370
    15
100
AcDbLine
 10
253.4578907097
 20
30.5233358561
 30
0.0
 11
255.1089850438
 21
29.5701793856
 31
0.0
  0
ARC
  5
1AA
330
1F
100
AcDbEntity
  8
0
  6
Continuous
 62
     7
370
    15
100
AcDbCircle
 10
263.504961954
 20
37.7975429009
 30
0.0
 40
3.551293122028573
100
AcDbArc
 50
60.3725835944
 51
85.9811821539
  0
SPLINE
  5
1AB
330
1F
100
AcDbEntity
  8
0
  6
Continuous
 62
     7
370
    15
100
AcDbSpline
210
0.0
220
0.0
230
1.0
 70
     8
 71
     3
 72
    10
 73
     6
 74
     0
 42
0.000000001
 43
0.00000001
 40
0.0
 40
0.0
 40
0.0
 40
0.0
 40
0.1982376724753453
 40
0.6709252460000946
 40
1.0
 40
1.0
 40
1.0
 40
1.0
 10
257.4401432666099
 20
29.13791325229272
 30
0.0
 10
257.4064140736754
 20
29.18207857241954
 30
0.0
 10
257.2922593482672
 20
29.33155383562638
 30
0.0
 10
257.0957545535392
 20
29.51129335555377
 30
0.0
 10
256.9289538530189
 20
29.62388630203135
 30
0.0
 10
256.8604922932695
 20
29.6700988701357
 30
0.0
  0
LINE
  5
1AC
330
1F
100
AcDbEntity
  8
0
  6
Continuous
 62
     7
370
    15
100
AcDbLine
 10
268.8926893401
 20
22.1378012214
 30
0.0
 11
267.6290306509
 21
22.2507913503
 31
0.0
  0
SPLINE
  5
1AD
330
1F
100
AcDbEntity
  8
0
  6
Continuous
 62
     7
370
    15
100
AcDbSpline
210
0.0
220
0.0
230
1.0
 70
     8
 71
     3
 72
    18
 73
    14
 74
     0
 42
0.000000001
 43
0.00000001
 40
0.0
 40
0.0
 40
0.0
 40
0.0
 40
0.2500000000000002
 40
0.2500000000000002
 40
0.5000000000000004
 40
0.5000000000000004
 40
0.6250000000000003
 40
0.6250000000000003
 40
0.7500000000000002
 40
0.7500000000000002
 40
0.8750000000000001
 40
0.8750000000000001
 40
1.0
 40
1.0
 40
1.0
 40
1.0
 10
268.8271381587862
 20
22.01487866784227
 30
0.0
 10
268.840543106928
 20
22.013680063479
 30
0.0
 10
268.8537672511421
 20
22.01385239344755
 30
0.0
 10
268.8782216899808
 20
22.0187834376204
 30
0.0
 10
268.8898361476388
 20
22.02347403534442
 30
0.0
 10
268.9031965326816
 20
22.03751122059953
 30
0.0
 10
268.9069320410587
 20
22.04347421872673
 30
0.0
 10
268.9116243876003
 20
22.05813709843685
 30
0.0
 10
268.9125624329958
 20
22.06711245567813
 30
0.0
 10
268.9110847267213
 20
22.0864737001135
 30
0.0
 10
268.9087106284511
 20
22.09699753257411
 30
0.0
 10
268.9019409324101
 20
22.11764307696695
 30
0.0
 10
268.8975404168179
 20
22.12793643290576
 30
0.0
 10
268.8926893400806
 20
22.13780122140867
 30
0.0
  0
SPLINE
  5
1AE
330
1F
100
AcDbEntity
  8
0
  6
Continuous
 62
     7
370
    15
100
AcDbSpline
210
0.0
220
0.0
230
1.0
 70
     8
 71
     3
 72
    10
 73
     6
 74
     0
 42
0.000000001
 43
0.00000001
 40
0.0
 40
0.0
 40
0.0
 40
0.0
 40
0.5
 40
0.5
 40
1.0
 40
1.0
 40
1.0
 40
1.0
 10
268.8529971595603
 20
22.1758481058887
 30
0.0
 10
268.8667627739351
 20
22.16790138586089
 30
0.0
 10
268.8767190050936
 20
22.16047584968268
 30
0.0
 10
268.8892819974736
 20
22.14774717763182
 30
0.0
 10
268.8921232109641
 20
22.14232151949527
 30
0.0
 10
268.8926893400807
 20
22.13780122140866
 30
0.0
  0
SPLINE
  5
1AF
330
1F
100
AcDbEntity
  8
0
  6
Continuous
 62
     7
370
    15
100
AcDbSpline
210
0.0
220
0.0
230
1.0
 70
     8
 71
     3
 72
    10
 73
     6
 74
     0
 42
0.000000001
 43
0.00000001
 40
0.0
 40
0.0
 40
0.0
 40
0.0
 40
0.5
 40
0.5
 40
1.0
 40
1.0
 40
1.0
 40
1.0
 10
256.8061205543765
 20
29.69111086285943
 30
0.0
 10
256.7898904310186
 20
29.69464067139021
 30
0.0
 10
256.7724606937971
 20
29.69662190175368
 30
0.0
 10
256.7373396030025
 20
29.69725597586013
 30
0.0
 10
256.7201523562337
 20
29.69596342885672
 30
0.0
 10
256.7033697430255
 20
29.69315745289717
 30
0.0
  0
SPLINE
  5
1B0
330
1F
100
AcDbEntity
  8
0
  6
Continuous
 62
     7
370
    15
100
AcDbSpline
210
0.0
220
0.0
230
1.0
 70
     8
 71
     3
 72
     8
 73
     4
 74
     0
 42
0.000000001
 43
0.00000001
 40
0.0
 40
0.0
 40
0.0
 40
0.0
 40
1.0
 40
1.0
 40
1.0
 40
1.0
 10
256.8604922932695
 20
29.6700988701357
 30
0.0
 10
256.845099516535
 20
29.67956719405405
 30
0.0
 10
256.8266564558362
 20
29.68664461213783
 30
0.0
 10
256.8061205543766
 20
29.69111086285945
 30
0.0
  0
SPLINE
  5
1B1
330
1F
100
AcDbEntity
  8
0
  6
Continuous
 62
     7
370
    15
100
AcDbSpline
210
0.0
220
0.0
230
1.0
 70
     8
 71
     3
 72
    10
 73
     6
 74
     0
 42
0.000000001
 43
0.00000001
 40
0.0
 40
0.0
 40
0.0
 40
0.0
 40
0.5
 40
0.5
 40
1.0
 40
1.0
 40
1.0
 40
1.0
 10
253.3952119417905
 20
30.5595150093908
 30
0.0
 10
253.3996321811305
 20
30.55696467557314
 30
0.0
 10
253.4070801595063
 20
30.55266617897099
 30
0.0
 10
253.4284001395305
 20
30.540359989835
 30
0.0
 10
253.4418324486191
 20
30.53260609292662
 30
0.0
 10
253.4578907097148
 20
30.52333585611856
 30
0.0
  0
SPLINE
  5
1B2
330
1F
100
AcDbEntity
  8
0
  6
Continuous
 62
     7
370
    15
100
AcDbSpline
210
0.0
220
0.0
230
1.0
 70
     8
 71
     3
 72
    10
 73
     6
 74
     0
 42
0.000000001
 43
0.00000001
 40
0.0
 40
0.0
 40
0.0
 40
0.0
 40
0.5
 40
0.5
 40
1.0
 40
1.0
 40
1.0
 40
1.0
 10
253.3952119417905
 20
30.5595150093908
 30
0.0
 10
253.3959349629474
 20
30.57877893437831
 30
0.0
 10
253.3980977979306
 20
30.5976152781158
 30
0.0
 10
253.4058847250134
 20
30.63426007669471
 30
0.0
 10
253.4115932931491
 20
30.65218637232756
 30
0.0
 10
253.419292115505
 20
30.66845995600558
 30
0.0
  0
SPLINE
  5
1B3
330
1F
100
AcDbEntity
  8
0
  6
Continuous
 62
     7
370
    15
100
AcDbSpline
210
0.0
220
0.0
230
1.0
 70
     8
 71
     3
 72
    10
 73
     6
 74
     0
 42
0.000000001
 43
0.00000001
 40
0.0
 40
0.0
 40
0.0
 40
0.0
 40
0.5
 40
0.5
 40
1.0
 40
1.0
 40
1.0
 40
1.0
 10
274.5792185327302
 20
25.48152534130128
 30
0.0
 10
274.592984147105
 20
25.47357862127348
 30
0.0
 10
274.6098189204221
 20
25.47012398296047
 30
0.0
 10
274.6448312589604
 20
25.47035504259116
 30
0.0
 10
274.6631907047388
 20
25.47388786926768
 30
0.0
 10
274.6809477084151
 20
25.4792916518245
 30
0.0
  0
SPLINE
  5
1B4
330
1F
100
AcDbEntity
  8
0
  6
Continuous
 62
     7
370
    15
100
AcDbSpline
210
0.0
220
0.0
230
1.0
 70
     8
 71
     3
 72
    16
 73
    12
 74
     0
 42
0.000000001
 43
0.00000001
 40
0.0
 40
0.0
 40
0.0
 40
0.0
 40
0.25
 40
0.25
 40
0.375
 40
0.375
 40
0.5
 40
0.5
 40
0.75
 40
0.75
 40
1.0
 40
1.0
 40
1.0
 40
1.0
 10
274.6809477084151
 20
25.47929165182453
 30
0.0
 10
274.6920550538556
 20
25.46015125452616
 30
0.0
 10
274.7071178478463
 20
25.4427370784157
 30
0.0
 10
274.7368392534347
 20
25.42930317505737
 30
0.0
 10
274.7475566922172
 20
25.42719206665971
 30
0.0
 10
274.7689840476578
 20
25.4275128960899
 30
0.0
 10
274.7796287199246
 20
25.42988098958321
 30
0.0
 10
274.809561035595
 20
25.44087985161002
 30
0.0
 10
274.8275435353328
 20
25.4532558111264
 30
0.0
 10
274.8598079688022
 20
25.48106823425463
 30
0.0
 10
274.8744933498548
 20
25.49699076127576
 30
0.0
 10
274.8879202459796
 20
25.51369369240809
 30
0.0
  0
SPLINE
  5
1B5
330
1F
100
AcDbEntity
  8
0
  6
Continuous
 62
     7
370
    15
100
AcDbSpline
210
0.0
220
0.0
230
1.0
 70
     8
 71
     3
 72
     9
 73
     5
 74
     0
 42
0.000000001
 43
0.00000001
 40
0.0
 40
0.0
 40
0.0
 40
0.0
 40
0.5377956222894344
 40
1.0
 40
1.0
 40
1.0
 40
1.0
 10
256.8604922932695
 20
25.47435644495846
 30
0.0
 10
256.9565187626484
 20
25.42365002594186
 30
0.0
 10
257.1350744544374
 20
25.32936435883149
 30
0.0
 10
257.2917169174146
 20
25.2831065032258
 30
0.0
 10
257.364117749538
 20
25.26172591986133
 30
0.0
  0
SPLINE
  5
1B6
330
1F
100
AcDbEntity
  8
0
  6
Continuous
 62
     7
370
    15
100
AcDbSpline
210
0.0
220
0.0
230
1.0
 70
     8
 71
     3
 72
     8
 73
     4
 74
     0
 42
0.000000001
 43
0.00000001
 40
0.0
 40
0.0
 40
0.0
 40
0.0
 40
1.0
 40
1.0
 40
1.0
 40
1.0
 10
256.8061205543768
 20
25.49409108976663
 30
0.0
 10
256.8266519071757
 20
25.48962582831051
 30
0.0
 10
256.8451001328174
 20
25.48294022658983
 30
0.0
 10
256.8604922932695
 20
25.47435644495847
 30
0.0
  0
SPLINE
  5
1B7
330
1F
100
AcDbEntity
  8
0
  6
Continuous
 62
     7
370
    15
100
AcDbSpline
210
0.0
220
0.0
230
1.0
 70
     8
 71
     3
 72
    12
 73
     8
 74
     0
 42
0.000000001
 43
0.00000001
 40
0.0
 40
0.0
 40
0.0
 40
0.0
 40
0.1882348860671632
 40
0.3552030333532858
 40
0.5009466077121795
 40
0.7563025322378585
 40
1.0
 40
1.0
 40
1.0
 40
1.0
 10
257.1324871609095
 20
24.82786108604594
 30
0.0
 10
257.1681045742415
 20
24.86557374525492
 30
0.0
 10
257.2353153528597
 20
24.9367382951783
 30
0.0
 10
257.3072790936652
 20
25.07566513565521
 30
0.0
 10
257.3718886914579
 20
25.25992657918624
 30
0.0
 10
257.4221915169018
 20
25.50854694380456
 30
0.0
 10
257.4291126353749
 20
25.74187786606746
 30
0.0
 10
257.4324923519985
 20
25.85581788888827
 30
0.0
  0
SPLINE
  5
1B8
330
1F
100
AcDbEntity
  8
0
  6
Continuous
 62
     7
370
    15
100
AcDbSpline
210
0.0
220
0.0
230
1.0
 70
     8
 71
     3
 72
     9
 73
     5
 74
     0
 42
0.000000001
 43
0.00000001
 40
0.0
 40
0.0
 40
0.0
 40
0.0
 40
0.5048005003628353
 40
1.0
 40
1.0
 40
1.0
 40
1.0
 10
257.0881933960972
 20
24.53825127794149
 30
0.0
 10
257.0956113554307
 20
24.58693682835933
 30
0.0
 10
257.11030618899
 20
24.68338195942168
 30
0.0
 10
257.1251450335324
 20
24.77998445272056
 30
0.0
 10
257.1324932219249
 20
24.82782195906586
 30
0.0
  0
SPLINE
  5
1B9
330
1F
100
AcDbEntity
  8
0
  6
Continuous
 62
     7
370
    15
100
AcDbSpline
210
0.0
220
0.0
230
1.0
 70
     8
 71
     3
 72
    34
 73
    30
 74
     0
 42
0.000000001
 43
0.00000001
 40
0.0
 40
0.0
 40
0.0
 40
0.0
 40
0.1249999999999999
 40
0.1249999999999999
 40
0.1874999999999996
 40
0.1874999999999996
 40
0.2499999999999997
 40
0.2499999999999997
 40
0.3124999999999998
 40
0.3124999999999998
 40
0.3749999999999999
 40
0.3749999999999999
 40
0.4375000000000001
 40
0.4375000000000001
 40
0.5000000000000002
 40
0.5000000000000002
 40
0.6250000000000004
 40
0.6250000000000004
 40
0.6875000000000006
 40
0.6875000000000006
 40
0.7500000000000007
 40
0.7500000000000007
 40
0.8125000000000009
 40
0.8125000000000009
 40
0.8750000000000006
 40
0.8750000000000006
 40
0.9375000000000003
 40
0.9375000000000003
 40
1.0
 40
1.0
 40
1.0
 40
1.0
 10
275.9446063976248
 20
27.05127104782332
 30
0.0
 10
276.0147342809487
 20
27.13850946798491
 30
0.0
 10
276.0780472597957
 20
27.23130421149768
 30
0.0
 10
276.1622869861447
 20
27.37904683334349
 30
0.0
 10
276.1886873147989
 20
27.43011726650765
 30
0.0
 10
276.2365280739965
 20
27.53255591399827
 30
0.0
 10
276.2580927828369
 20
27.58409201964007
 30
0.0
 10
276.2966030976166
 20
27.68778376962906
 30
0.0
 10
276.3135464964613
 20
27.73994074934678
 30
0.0
 10
276.3427164521071
 20
27.84486476894449
 30
0.0
 10
276.3547660605937
 20
27.89709054670193
 30
0.0
 10
276.3736765259543
 20
27.99922761220607
 30
0.0
 10
276.3806107869141
 20
28.04942126557757
 30
0.0
 10
276.3895216354134
 20
28.1479983030632
 30
0.0
 10
276.3914975888921
 20
28.19671308450232
 30
0.0
 10
276.3898792236178
 20
28.33714520951026
 30
0.0
 10
276.3790254747478
 20
28.42279227834642
 30
0.0
 10
276.3485507135987
 20
28.5390686913405
 30
0.0
 10
276.3359791226961
 20
28.5756692133485
 30
0.0
 10
276.3067498471578
 20
28.64258925402699
 30
0.0
 10
276.2899862671976
 20
28.67323366804875
 30
0.0
 10
276.2518550163924
 20
28.72911250869788
 30
0.0
 10
276.2303420198388
 20
28.75446774132357
 30
0.0
 10
276.183496646509
 20
28.79876875023944
 30
0.0
 10
276.1586260876849
 20
28.81737979730668
 30
0.0
 10
276.1058686351053
 20
28.84790301396701
 30
0.0
 10
276.0777988713987
 20
28.85992205148314
 30
0.0
 10
276.0163136449563
 20
28.87844047484567
 30
0.0
 10
275.9827582616746
 20
28.8849274138494
 30
0.0
 10
275.9461876450238
 20
28.88893543756169
 30
0.0
  0
SPLINE
  5
1BA
330
1F
100
AcDbEntity
  8
0
  6
Continuous
 62
     7
370
    15
100
AcDbSpline
210
0.0
220
0.0
230
1.0
 70
     8
 71
     3
 72
    14
 73
    10
 74
     0
 42
0.000000001
 43
0.00000001
 40
0.0
 40
0.0
 40
0.0
 40
0.0
 40
0.25
 40
0.25
 40
0.5
 40
0.5
 40
0.75
 40
0.75
 40
1.0
 40
1.0
 40
1.0
 40
1.0
 10
275.9461876450238
 20
28.88893543756169
 30
0.0
 10
275.8363486960816
 20
28.90097343834512
 30
0.0
 10
275.7331642941955
 20
28.90916287345102
 30
0.0
 10
275.5242275156729
 20
28.9270268965067
 30
0.0
 10
275.4188161640624
 20
28.93650408999079
 30
0.0
 10
275.2076620355028
 20
28.95564958278967
 30
0.0
 10
275.1020278016098
 20
28.96525534837215
 30
0.0
 10
274.8913962415431
 20
28.98409904183431
 30
0.0
 10
274.7862275746105
 20
28.99343594417313
 30
0.0
 10
274.680941929523
 20
29.00284037251621
 30
0.0
  0
LINE
  5
1BB
330
1F
100
AcDbEntity
  8
0
  6
Continuous
 62
     7
370
    15
100
AcDbLine
 10
253.5688387818
 20
30.4592660762
 30
0.0
 11
253.3952119418
 21
30.5595150094
 31
0.0
  0
LINE
  5
1BC
330
1F
100
AcDbEntity
  8
0
  6
Continuous
 62
     7
370
    15
100
AcDbLine
 10
255.2987852852
 20
29.4605892172
 30
0.0
 11
253.5688387818
 21
30.4592660762
 31
0.0
  0
SPLINE
  5
1BD
330
1F
100
AcDbEntity
  8
0
  6
Continuous
 62
     7
370
    15
100
AcDbSpline
210
0.0
220
0.0
230
1.0
 70
     8
 71
     3
 72
    11
 73
     7
 74
     0
 42
0.000000001
 43
0.00000001
 40
0.0
 40
0.0
 40
0.0
 40
0.0
 40
0.0763291486414734
 40
0.4828240100966647
 40
0.8892344489868842
 40
0.9999999999999999
 40
0.9999999999999999
 40
0.9999999999999999
 40
0.9999999999999999
 10
255.1273827595089
 20
28.33417353792284
 30
0.0
 10
255.1272086077769
 20
28.36546919353085
 30
0.0
 10
255.1261070019146
 20
28.56343149506568
 30
0.0
 10
255.108228739029
 20
28.93662591206461
 30
0.0
 10
255.0929986932044
 20
29.32281943537629
 30
0.0
 10
255.0978059008587
 20
29.53135494035028
 30
0.0
 10
255.0988354788265
 20
29.57601778349302
 30
0.0
  0
LINE
  5
1BE
330
1F
100
AcDbEntity
  8
0
  6
Continuous
 62
     7
370
    15
100
AcDbLine
 10
255.1273827595
 20
27.6238532863
 30
0.0
 11
255.1273827595
 21
28.3341735379
 31
0.0
  0
LINE
  5
1BF
330
1F
100
AcDbEntity
  8
0
  6
Continuous
 62
     7
370
    15
100
AcDbLine
 10
254.7561516994
 20
29.6993038368
 30
0.0
 11
254.7565681103
 21
29.7736045296
 31
0.0
  0
ARC
  5
1C0
330
1F
100
AcDbEntity
  8
0
  6
Continuous
 62
     7
370
    15
100
AcDbCircle
 10
259.5304929799
 20
29.593067971
 30
0.0
 40
4.775523083593725
100
AcDbArc
 50
178.7252979842
 51
202.7773427363
  0
LINE
  5
1C1
330
1F
100
AcDbEntity
  8
0
  6
Continuous
 62
     7
370
    15
100
AcDbLine
 10
243.3090905791
 20
37.3405983017
 30
0.0
 11
243.2879605596
 21
37.3588033482
 31
0.0
  0
ARC
  5
1C2
330
1F
100
AcDbEntity
  8
0
  6
Continuous
 62
     7
370
    15
100
AcDbCircle
 10
271.2681393834
 20
30.1391404995
 30
0.0
 40
2.109975350286601
100
AcDbArc
 50
320.8341298422
 51
349.6393525622
  0
LINE
  5
1C3
330
1F
100
AcDbEntity
  8
0
  6
Continuous
 62
     7
370
    15
100
AcDbLine
 10
274.6809477084
 20
25.4792916518
 30
0.0
 11
275.9446063976
 21
27.0512710478
 31
0.0
  0
LINE
  5
1C4
330
1F
100
AcDbEntity
  8
0
  6
Continuous
 62
     7
370
    15
100
AcDbLine
 10
271.6093700517
 20
27.1959823761
 30
0.0
 11
272.9040472385
 21
28.8065484882
 31
0.0
  0
LWPOLYLINE
  5
1C5
330
1F
100
AcDbEntity
  8
0
  6
Continuous
 62
     7
370
    15
100
AcDbPolyline
 90
       10
 70
   128
 43
0.0
 10
258.0912099586
 20
22.1944566846
 10
257.8952598299
 20
22.2320243709
 10
257.4085796982
 20
22.3759190813
 10
256.9554249616
 20
22.5860307083
 10
256.5391690442
 20
22.8607951157
 10
256.1629106843
 20
23.1981668722
 10
255.8294508657
 20
23.5956344778
 10
255.5412719666
 20
24.0502390605
 10
255.3005192801
 20
24.5585964029
 10
255.1089850438
 20
25.1169221352
  0
SPLINE
  5
1C6
330
1F
100
AcDbEntity
  8
0
  6
Continuous
 62
     7
370
    15
100
AcDbSpline
210
0.0
220
0.0
230
1.0
 70
     8
 71
     3
 72
     8
 73
     4
 74
     0
 42
0.000000001
 43
0.00000001
 40
0.0000000000000006
 40
0.0000000000000006
 40
0.0000000000000006
 40
0.0000000000000006
 40
0.001241704756042
 40
0.001241704756042
 40
0.001241704756042
 40
0.001241704756042
 10
255.2987852852464
 20
25.2635694441202
 30
0.0
 10
255.2355612222422
 20
25.2146081621184
 30
0.0
 10
255.1722934999697
 20
25.16572727013102
 30
0.0
 10
255.1089850437854
 20
25.11692213520658
 30
0.0
  0
SPLINE
  5
1C7
330
1F
100
AcDbEntity
  8
0
  6
Continuous
 62
     7
370
    15
100
AcDbSpline
210
0.0
220
0.0
230
1.0
 70
     8
 71
     3
 72
     8
 73
     4
 74
     0
 42
0.000000001
 43
0.00000001
 40
0.0
 40
0.0
 40
0.0
 40
0.0
 40
1.0
 40
1.0
 40
1.0
 40
1.0
 10
255.298785285246
 20
25.26356944412097
 30
0.0
 10
255.7672783191161
 20
25.34048129625213
 30
0.0
 10
256.2355260689528
 20
25.41791636313619
 30
0.0
 10
256.7033697430255
 20
25.49613767980442
 30
0.0
  0
SPLINE
  5
1C8
330
1F
100
AcDbEntity
  8
0
  6
Continuous
 62
     7
370
    15
100
AcDbSpline
210
0.0
220
0.0
230
1.0
 70
     8
 71
     3
 72
    10
 73
     6
 74
     0
 42
0.000000001
 43
0.00000001
 40
0.0
 40
0.0
 40
0.0
 40
0.0
 40
0.5
 40
0.5
 40
1.0
 40
1.0
 40
1.0
 40
1.0
 10
256.7033697430255
 20
25.49613767980442
 30
0.0
 10
256.7200760874313
 20
25.49893090397
 30
0.0
 10
256.7376350017569
 20
25.50024694037334
 30
0.0
 10
256.7726859548729
 20
25.49958175060173
 30
0.0
 10
256.7896880736972
 20
25.49766490798143
 30
0.0
 10
256.8061205543768
 20
25.49409108976663
 30
0.0
  0
LINE
  5
1C9
330
1F
100
AcDbEntity
  8
0
  6
Continuous
 62
     7
370
    15
100
AcDbLine
 10
253.5688387818
 20
26.2622463031
 30
0.0
 11
255.2987852852
 21
25.2635694441
 31
0.0
  0
LINE
  5
1CA
330
1F
100
AcDbEntity
  8
0
  6
Continuous
 62
     7
370
    15
100
AcDbLine
 10
253.5688387818
 20
26.2622463031
 30
0.0
 11
254.9859614033
 21
27.080333779
 31
0.0
  0
LINE
  5
1CB
330
1F
100
AcDbEntity
  8
0
  6
Continuous
 62
     7
370
    15
100
AcDbLine
 10
253.3952119418
 20
26.1619973699
 30
0.0
 11
253.5688387818
 21
26.2622463031
 31
0.0
  0
LINE
  5
1CC
330
1F
100
AcDbEntity
  8
0
  6
Continuous
 62
     7
370
    15
100
AcDbLine
 10
255.1089850438
 20
25.1169221352
 30
0.0
 11
253.4578907097
 21
26.0700786058
 31
0.0
  0
SPLINE
  5
1CD
330
1F
100
AcDbEntity
  8
0
  6
Continuous
 62
     7
370
    15
100
AcDbSpline
210
0.0
220
0.0
230
1.0
 70
     8
 71
     3
 72
     8
 73
     4
 74
     0
 42
0.000000001
 43
0.00000001
 40
0.0
 40
0.0
 40
0.0
 40
0.0
 40
1.0
 40
1.0
 40
1.0
 40
1.0
 10
253.4578907097148
 20
26.07007860575959
 30
0.0
 10
253.4258030180484
 20
26.08860243586783
 30
0.0
 10
253.4040471131341
 20
26.12206757227135
 30
0.0
 10
253.3952119417905
 20
26.16199736991416
 30
0.0
  0
ARC
  5
1CE
330
1F
100
AcDbEntity
  8
0
  6
Continuous
 62
     7
370
    15
100
AcDbCircle
 10
257.0695340504
 20
26.6402302903
 30
0.0
 40
3.568658307588719
100
AcDbArc
 50
214.8451889641
 51
239.5573983443
  0
ELLIPSE
  5
1CF
330
1F
100
AcDbEntity
  8
0
  6
Continuous
 62
     7
370
    15
100
AcDbEllipse
 10
254.8688041157
 20
27.4745835662
 30
0.0
 11
-3.002985195621477E-5
 21
0.4267244807413632
 31
0.0
210
0.0
220
0.0
230
1.0
 40
0.7174342186
 41
3.534193645557378
 42
5.104989972352326
  0
ELLIPSE
  5
1D0
330
1F
100
AcDbEntity
  8
0
  6
Continuous
 62
     7
370
    15
100
AcDbEllipse
 10
254.844540047
 20
27.4605716639
 30
0.0
 11
0.1300037894604316
 21
0.4852718104954654
 31
0.0
210
0.0
220
0.0
230
1.0
 40
0.5176380889
 41
3.619174351347557
 42
5.189970678142679
  0
LWPOLYLINE
  5
1D1
330
1F
100
AcDbEntity
  8
0
  6
Continuous
 62
     7
370
     0
100
AcDbPolyline
 90
       28
 70
   128
 43
0.0
 10
265.6349895279
 20
36.4705624047
 10
265.0725419864
 20
36.1171109249
 10
264.5144963595
 20
35.7089108316
 10
263.9652201108
 20
35.2491568439
 10
263.4290120718
 20
34.7414471601
 10
262.9100687973
 20
34.1897552968
 10
262.4124517221
 20
33.598398991
 10
261.9400553746
 20
32.9720064075
 10
261.4965768966
 20
32.3154799175
 10
261.0854871085
 20
31.633957731
 10
260.7100033452
 20
30.9327736832
 10
260.3730642764
 20
30.2174154899
 10
260.0773069071
 20
29.4934817988
 10
259.8250459396
 20
28.7666383728
 10
259.6182556582
 20
28.042573747
 10
259.458554477
 20
27.3269547089
 10
259.3471922745
 20
26.6253819478
 10
259.2850406108
 20
25.9433462217
 10
259.2725859069
 20
25.2861853849
 10
259.3099256378
 20
24.659042612
 10
259.3967675695
 20
24.0668261455
 10
259.5324320462
 20
23.5141708821
 10
259.7158573093
 20
23.0054020988
 10
259.9456078074
 20
22.5445016009
 10
260.2198854315
 20
22.1350765598
 10
260.5365435871
 20
21.7803312816
 10
260.893103995
 20
21.483042129
 10
261.1353552311
 20
21.3272553363
  0
LWPOLYLINE
  5
1D2
330
1F
100
AcDbEntity
  8
0
  6
Continuous
 62
     7
370
     0
100
AcDbPolyline
 90
       10
 70
   128
 43
0.0
 10
270.1346238248
 20
36.9161348591
 10
269.7734021593
 20
37.0935894368
 10
269.3299236813
 20
37.2380865749
 10
268.8575273337
 20
37.319061945
 10
268.3599102586
 20
37.3358818052
 10
267.8409669841
 20
37.2884145172
 10
267.3047589451
 20
37.177031577
 10
266.7554826964
 20
37.0026047069
 10
266.1974370695
 20
36.7664990338
 10
265.6349895279
 20
36.4705624047
  0
LWPOLYLINE
  5
1D3
330
1F
100
AcDbEntity
  8
0
  6
Continuous
 62
     7
370
     0
100
AcDbPolyline
 90
       19
 70
   128
 43
0.0
 10
268.8271381588
 20
22.0148786679
 10
269.0368692557
 20
21.7211782107
 10
269.2889597798
 20
21.4846694419
 10
269.5796239467
 20
21.3089041456
 10
269.9044966902
 20
21.1965218877
 10
270.2586992147
 20
21.1492103754
 10
270.6369122629
 20
21.167680112
 10
271.033455998
 20
21.2516537273
 10
271.4423753011
 20
21.3998701424
 10
271.8575292024
 20
21.6101035086
 10
272.2726831037
 20
21.8791966341
 10
272.6816024067
 20
22.2031083967
 10
273.0781461418
 20
22.5769744326
 10
273.45635919
 20
22.9951801865
 10
273.8105617145
 20
23.4514452289
 10
274.1354344581
 20
23.9389175724
 10
274.426098625
 20
24.4502765725
 10
274.6781891491
 20
24.9778428651
 10
274.887920246
 20
25.5136936924
  0
LWPOLYLINE
  5
1D4
330
1F
100
AcDbEntity
  8
0
  6
Continuous
 62
     7
370
     0
100
AcDbPolyline
 90
       19
 70
   128
 43
0.0
 10
274.8878163897
 20
29.0442979181
 10
274.6780751431
 20
29.337951476
 10
274.4259813896
 20
29.5744184126
 10
274.1353204966
 20
29.7501480084
 10
273.8104569444
 20
29.8625015584
 10
273.4562687908
 20
29.9097919938
 10
273.0780744232
 20
29.8913092152
 10
272.6815526994
 20
29.8073307546
 10
272.2726576758
 20
29.6591176085
 10
271.8575292024
 20
29.4488953027
 10
271.4424007289
 20
29.1798204752
 10
271.0335057053
 20
28.8559334759
 10
270.6369839816
 20
28.4820976992
 10
270.258789614
 20
28.0639265554
 10
269.9046014603
 20
27.6076991822
 10
269.5797379081
 20
27.1202661587
 10
269.2890770151
 20
26.608946639
 10
269.0369832616
 20
26.0814184501
 10
268.827242015
 20
25.5456028034
  0
LWPOLYLINE
  5
1D5
330
1F
100
AcDbEntity
  8
0
  6
Continuous
 62
     7
370
     0
100
AcDbPolyline
 90
       34
 70
   128
 43
0.0
 10
265.069304103
 20
37.4503582989
 10
264.481629029
 20
37.0822730432
 10
263.8981881675
 20
36.6591845367
 10
263.323185223
 20
36.1841411417
 10
262.7607631051
 20
35.6605655568
 10
262.214974078
 20
35.0922301561
 10
261.6897505642
 20
34.4832298091
 10
261.188876811
 20
33.8379523773
 10
260.7159616254
 20
33.1610470994
 10
260.2744123721
 20
32.4573910934
 10
259.8674104236
 20
31.732054217
 10
259.4978882382
 20
30.990262539
 10
259.1685082318
 20
30.2373606854
 10
258.8816435949
 20
29.4787733314
 10
258.6393611938
 20
28.7199661161
 10
258.4434066786
 20
27.9664062631
 10
258.2951919062
 20
27.2235231882
 10
258.1957847675
 20
26.4966693811
 10
258.145901493
 20
25.7910818401
 10
258.145901493
 20
25.1118443396
 10
258.1957847675
 20
24.4638508014
 10
258.2951919062
 20
23.8517700337
 10
258.4434066786
 20
23.2800120925
 10
258.6393611938
 20
22.7526965069
 10
258.8816435949
 20
22.2736225978
 10
259.1685082318
 20
21.8462421035
 10
259.4978882382
 20
21.4736343105
 10
259.8674104236
 20
21.1584838664
 10
260.2744123721
 20
20.9030614374
 10
260.7159616254
 20
20.7092073478
 10
261.188876811
 20
20.578318321
 10
261.6897505642
 20
20.5113374152
 10
262.214974078
 20
20.5087472295
 10
262.5088993196
 20
20.534325212
  0
LWPOLYLINE
  5
1D6
330
1F
100
AcDbEntity
  8
0
  6
Continuous
 62
     7
370
     0
100
AcDbPolyline
 90
       16
 70
   128
 43
0.0
 10
271.5081679133
 20
36.1232047348
 10
271.4992470122
 20
36.143820178
 10
271.2569646111
 20
36.6228940871
 10
270.9700999741
 20
37.0502745813
 10
270.6407199678
 20
37.4228823743
 10
270.2711977824
 20
37.7380328184
 10
269.8641958339
 20
37.9934552475
 10
269.4226465806
 20
38.187309337
 10
268.949731395
 20
38.3181983639
 10
268.4488576418
 20
38.3851792697
 10
267.923634128
 20
38.3877694554
 10
267.3778451009
 20
38.3259502586
 10
266.815422983
 20
38.2001670882
 10
266.2404200385
 20
38.0113262147
 10
265.6569791769
 20
37.760788241
 10
265.069304103
 20
37.4503582989
  0
LWPOLYLINE
  5
1D7
330
1F
100
AcDbEntity
  8
0
  6
Continuous
 62
     7
370
     0
100
AcDbPolyline
 90
       27
 70
   128
 43
0.0
 10
257.8568149349
 20
25.4478585945
 10
257.881614165
 20
26.1454386266
 10
257.9558379064
 20
26.8667582176
 10
258.078965533
 20
27.6067578287
 10
258.2501333929
 20
28.3602468945
 10
258.4681408665
 20
29.1219402305
 10
258.7314587882
 20
29.8864951052
 10
259.0382401718
 20
30.6485487156
 10
259.3863331663
 20
31.402755803
 10
259.7732961495
 20
32.1438261466
 10
260.1964148542
 20
32.8665616706
 10
260.6527214066
 20
33.5658929043
 10
261.139015144
 20
34.2369145417
 10
261.6518850655
 20
34.8749198482
 10
262.1877337568
 20
35.4754336749
 10
262.7428026245
 20
36.0342438488
 10
263.3131982593
 20
36.547430718
 10
263.8949197456
 20
37.0113946454
 10
264.4838867252
 20
37.4228812573
 10
265.0759680179
 20
37.7790042709
 10
265.6670105988
 20
38.0772657391
 10
266.2528687289
 20
38.3155735719
 10
266.8294330343
 20
38.4922562112
 10
267.3926593307
 20
38.6060743552
 10
267.9385969903
 20
38.6562296514
 10
268.4634166527
 20
38.6423702964
 10
268.5315778762
 20
38.6356877892
  0
ARC
  5
1D8
330
1F
100
AcDbEntity
  8
0
  6
Continuous
 62
     7
370
     0
100
AcDbCircle
 10
264.0140811437
 20
25.2054814703
 30
0.0
 40
6.162034877912487
100
AcDbArc
 50
177.7457495803
 51
212.5890690703
  0
ARC
  5
1D9
330
1F
100
AcDbEntity
  8
0
  6
Continuous
 62
     7
370
     0
100
AcDbCircle
 10
273.1856492996
 20
28.1801644906
 30
0.0
 40
1.640870248789766
100
AcDbArc
 50
31.8658315153
 51
56.7618624452
  0
LINE
  5
1DA
330
1F
100
AcDbEntity
  8
0
  6
Continuous
 62
     7
370
     0
100
AcDbLine
 10
267.6290306509
 20
22.2507913503
 30
0.0
 11
267.6643859899
 21
22.1188462333
 31
0.0
  0
LWPOLYLINE
  5
1DB
330
1F
100
AcDbEntity
  8
0
  6
Continuous
 62
     7
370
     0
100
AcDbPolyline
 90
       16
 70
   128
 43
0.0
 10
269.4162947611
 20
21.6273154499
 10
269.6294934962
 20
21.5251944768
 10
269.9613207378
 20
21.4355219573
 10
270.3212480588
 20
21.4127152156
 10
270.703511805
 20
21.4571394648
 10
271.1019906402
 20
21.5680833223
 10
271.5103035699
 20
21.7437702016
 10
271.9219121224
 20
21.9813867611
 10
272.3302250521
 20
22.2771279559
 10
272.7287038873
 20
22.6262579685
 10
273.1109676335
 20
23.0231860462
 10
273.4708949545
 20
23.4615560273
 10
273.8027221961
 20
23.934348125
 10
274.1011356813
 20
24.433991338
 10
274.3613568004
 20
24.9524846877
 10
274.5792185327
 20
25.4815253413
  0
LINE
  5
1DC
330
1F
100
AcDbEntity
  8
0
  6
Continuous
 62
     7
370
     0
100
AcDbLine
 10
267.3271431819
 20
22.4250672766
 30
0.0
 11
267.6290306509
 21
22.2507913503
 31
0.0
  0
LWPOLYLINE
  5
1DD
330
1F
100
AcDbEntity
  8
0
  6
Continuous
 62
     7
370
     0
100
AcDbPolyline
 90
       21
 70
   128
 43
0.0
 10
256.703369743
 20
29.6931574529
 10
256.8912279477
 20
30.3969286251
 10
257.1248953433
 20
31.1051109463
 10
257.4024606707
 20
31.8119119106
 10
257.7216536125
 20
32.5115503108
 10
258.0798633622
 20
33.1983035252
 10
258.4741599791
 20
33.8665543251
 10
258.901318354
 20
34.5108368204
 10
259.3578445878
 20
35.1258811675
 10
259.8400045705
 20
35.7066566731
 10
260.3438545229
 20
36.2484129426
 10
260.8652732552
 20
36.7467187352
 10
261.3999958755
 20
37.1974982088
 10
261.943648674
 20
37.5970642583
 10
262.4917848975
 20
37.9421486734
 10
263.0399211209
 20
38.229928871
 10
263.5835739194
 20
38.458050982
 10
264.1182965397
 20
38.6246491044
 10
264.639715272
 20
38.7283605659
 10
265.1435652244
 20
38.768337069
 10
265.2061723699
 20
38.7688304991
  0
LWPOLYLINE
  5
1DE
330
1F
100
AcDbEntity
  8
0
  6
Continuous
 62
     7
370
     0
100
AcDbPolyline
 90
       22
 70
   128
 43
0.0
 10
253.4578907097
 20
30.5233358561
 10
253.649424946
 20
31.3028023106
 10
253.8901776326
 20
32.0891267881
 10
254.1783565317
 20
32.8764556455
 10
254.5118163503
 20
33.6589277626
 10
254.8880747102
 20
34.4307181746
 10
255.3043306275
 20
35.1860814343
 10
255.7574853642
 20
35.9193943836
 10
256.2441654958
 20
36.6251980135
 10
256.7607480248
 20
37.2982381031
 10
257.3033873506
 20
37.9335043332
 10
257.8680438978
 20
38.5262675853
 10
258.4505141882
 20
39.0721151458
 10
259.0464621322
 20
39.5669835564
 10
259.6514513088
 20
40.0071888632
 10
260.2609779909
 20
40.3894540415
 10
260.870504673
 20
40.7109333908
 10
261.4754938496
 20
40.9692337191
 10
262.0714417937
 20
41.1624321588
 10
262.653912084
 20
41.2890904808
 10
263.2185686313
 20
41.3482658013
 10
263.753851148
 20
41.340103699
  0
LWPOLYLINE
  5
1DF
330
1F
100
AcDbEntity
  8
0
  6
Continuous
 62
     7
370
     0
100
AcDbPolyline
 90
       19
 70
   128
 43
0.0
 10
256.8604922933
 20
29.6700988701
 10
257.0553899802
 20
30.3918400538
 10
257.2987488815
 20
31.117852839
 10
257.5884380485
 20
31.841779965
 10
257.921920846
 20
32.557282434
 10
258.2962771643
 20
33.2580950181
 10
258.7082289885
 20
33.9380811197
 10
259.1541691023
 20
34.5912865063
 10
259.6301926744
 20
35.2119914483
 10
260.1321314504
 20
35.7947608029
 10
260.655590252
 20
36.3344916067
 10
261.195985463
 20
36.8264577593
 10
261.748585165
 20
37.2663514066
 10
262.3085505723
 20
37.6503206626
 10
262.870978402
 20
37.9750033376
 10
263.4309438093
 20
38.2375563793
 10
263.9835435113
 20
38.4356807673
 10
264.5239387223
 20
38.5676416447
 10
264.8331750668
 20
38.6137529254
  0
LINE
  5
1E0
330
1F
100
AcDbEntity
  8
0
  6
Continuous
 62
     7
370
     0
100
AcDbLine
 10
256.8061205544
 20
25.4940910898
 30
0.0
 11
257.2699163065
 21
25.7618346784
 31
0.0
  0
LINE
  5
1E1
330
1F
100
AcDbEntity
  8
0
  6
Continuous
 62
     7
370
     0
100
AcDbLine
 10
257.4240491346
 20
25.6804173696
 30
0.0
 11
257.2699163065
 21
25.7618346784
 31
0.0
  0
ARC
  5
1E2
330
1F
100
AcDbEntity
  8
0
  6
Continuous
 62
     7
370
     0
100
AcDbCircle
 10
256.9798577221
 20
26.2322028997
 30
0.0
 40
0.5526122021611005
100
AcDbArc
 50
301.6605905891
 51
324.2377952694
  0
LINE
  5
1E3
330
1F
100
AcDbEntity
  8
0
  6
Continuous
 62
     7
370
     0
100
AcDbLine
 10
276.0506724148
 20
26.9601463364
 30
0.0
 11
275.9446063976
 21
27.0512710478
 31
0.0
  0
LINE
  5
1E4
330
1F
100
AcDbEntity
  8
0
  6
Continuous
 62
     7
370
     0
100
AcDbLine
 10
255.1516468282
 20
27.6378651886
 30
0.0
 11
257.3816480551
 21
26.3505128824
 31
0.0
  0
LINE
  5
1E5
330
1F
100
AcDbEntity
  8
0
  6
Continuous
 62
     7
370
     0
100
AcDbLine
 10
255.1273827595
 20
27.6238532863
 30
0.0
 11
255.1516468282
 21
27.6378651886
 31
0.0
  0
LINE
  5
1E6
330
1F
100
AcDbEntity
  8
0
  6
Continuous
 62
     7
370
     0
100
AcDbLine
 10
255.0389944119
 20
29.5360222144
 30
0.0
 11
255.0394108228
 21
29.6103229072
 31
0.0
  0
LWPOLYLINE
  5
1E7
330
1F
100
AcDbEntity
  8
0
  6
Continuous
 62
     7
370
     0
100
AcDbPolyline
 90
        3
 70
   128
 43
0.0
 10
255.0929064967
 20
28.7267406229
 10
255.0643355464
 20
28.9736340146
 10
255.0389944119
 20
29.5360222144
  0
LWPOLYLINE
  5
1E8
330
1F
100
AcDbEntity
  8
0
  6
Continuous
 62
     7
370
     0
100
AcDbPolyline
 90
       18
 70
   128
 43
0.0
 10
242.6657065384
 20
39.062269651
 10
242.691358033
 20
39.5195706153
 10
242.7678547651
 20
39.9983276184
 10
242.8938316489
 20
40.48999723
 10
243.0670406238
 20
40.9858055944
 10
243.2843907716
 20
41.4769049996
 10
243.5420034737
 20
41.954531765
 10
243.8352816254
 20
42.4101626296
 10
244.1589916711
 20
42.83566685
 10
244.5073569973
 20
43.2234512931
 10
244.8741610166
 20
43.5665959365
 10
245.2528581026
 20
43.8589773559
 10
245.6366903967
 20
44.0953779978
 10
246.0188084027
 20
44.2715792872
 10
246.3923932155
 20
44.3844369081
 10
246.7507782055
 20
44.4319369133
 10
247.0875679839
 20
44.4132316643
 10
247.3528324492
 20
44.3453236501
  0
ARC
  5
1E9
330
1F
100
AcDbEntity
  8
0
  6
Continuous
 62
     7
370
     0
100
AcDbCircle
 10
244.820234531
 20
38.8839068339
 30
0.0
 40
2.161898278283319
100
AcDbArc
 50
175.2675545006
 51
224.8656241104
  0
LINE
  5
1EA
330
1F
100
AcDbEntity
  8
0
  6
Continuous
 62
     7
370
     0
100
AcDbLine
 10
272.9040472385
 20
28.8065484882
 30
0.0
 11
275.9446063976
 21
27.0512710478
 31
0.0
  0
LWPOLYLINE
  5
1EB
330
1F
100
AcDbEntity
  8
0
  6
Continuous
 62
     7
370
     0
100
AcDbPolyline
 90
        3
 70
   128
 43
0.0
 10
257.129662541
 20
24.826358986
 10
257.0553899802
 20
24.9776393409
 10
256.8604922933
 20
25.474356445
  0
LWPOLYLINE
  5
1EC
330
1F
100
AcDbEntity
  8
0
  6
Continuous
 62
     7
370
     0
100
AcDbPolyline
 90
        3
 70
   128
 43
0.0
 10
257.0953877595
 20
24.619302927
 10
256.8912279477
 20
25.009262974
 10
256.703369743
 20
25.4961376798
  0
LINE
  5
1ED
330
1F
100
AcDbEntity
  8
0
  6
Continuous
 62
     7
370
     0
100
AcDbLine
 10
257.2699163065
 20
25.7618346784
 30
0.0
 11
254.9859614033
 21
27.080333779
 31
0.0
  0
ARC
  5
1EE
330
1F
100
AcDbEntity
  8
0
  6
Continuous
 62
     7
370
     0
100
AcDbCircle
 10
258.1252930095
 20
27.3467629405
 30
0.0
 40
4.838860105303187
100
AcDbArc
 50
195.2980304775
 51
214.568481162
  0
OLE2FRAME
  5
1EF
330
1F
100
AcDbEntity
  8
0
100
AcDbOle2Frame
 70
     2
  3
Paintbrush-Bild
 10
13.8511154363
 20
38.264191557
 30
0.0
 11
51.6290888628
 21
31.9806341108
 31
0.0
 71
     2
 72
     0
 73
     1
 90
    12928
310
80552BED0767C5B32B40DDAF6807D121434000000000000000006FFBDDFB85D0
310
4940DDAF6807D121434000000000000000006FFBDDFB85D04940416F4BD60AFB
310
3F4000000000000000002BED0767C5B32B40416F4BD60AFB3F40000000000000
310
0000000000000100000000010000010000000100000000000100000000320000
310
D0CF11E0A1B11AE1000000000000000000000000000000003E000300FEFF0900
310
0600000000000000000000000100000001000000000000000010000002000000
310
01000000FEFFFFFF0000000000000000FFFFFFFFFFFFFFFFFFFFFFFFFFFFFFFF
310
FFFFFFFFFFFFFFFFFFFFFFFFFFFFFFFFFFFFFFFFFFFFFFFFFFFFFFFFFFFFFFFF
310
FFFFFFFFFFFFFFFFFFFFFFFFFFFFFFFFFFFFFFFFFFFFFFFFFFFFFFFFFFFFFFFF
310
FFFFFFFFFFFFFFFFFFFFFFFFFFFFFFFFFFFFFFFFFFFFFFFFFFFFFFFFFFFFFFFF
310
FFFFFFFFFFFFFFFFFFFFFFFFFFFFFFFFFFFFFFFFFFFFFFFFFFFFFFFFFFFFFFFF
310
FFFFFFFFFFFFFFFFFFFFFFFFFFFFFFFFFFFFFFFFFFFFFFFFFFFFFFFFFFFFFFFF
310
FFFFFFFFFFFFFFFFFFFFFFFFFFFFFFFFFFFFFFFFFFFFFFFFFFFFFFFFFFFFFFFF
310
FFFFFFFFFFFFFFFFFFFFFFFFFFFFFFFFFFFFFFFFFFFFFFFFFFFFFFFFFFFFFFFF
310
FFFFFFFFFFFFFFFFFFFFFFFFFFFFFFFFFFFFFFFFFFFFFFFFFFFFFFFFFFFFFFFF
310
FFFFFFFFFFFFFFFFFFFFFFFFFFFFFFFFFFFFFFFFFFFFFFFFFFFFFFFFFFFFFFFF
310
FFFFFFFFFFFFFFFFFFFFFFFFFFFFFFFFFFFFFFFFFFFFFFFFFFFFFFFFFFFFFFFF
310
FFFFFFFFFFFFFFFFFFFFFFFFFFFFFFFFFFFFFFFFFFFFFFFFFFFFFFFFFFFFFFFF
310
FFFFFFFFFFFFFFFFFFFFFFFFFFFFFFFFFFFFFFFFFFFFFFFFFFFFFFFFFFFFFFFF
310
FFFFFFFFFFFFFFFFFFFFFFFFFFFFFFFFFFFFFFFFFFFFFFFFFFFFFFFFFFFFFFFF
310
FDFFFFFFFEFFFFFFFEFFFFFFFEFFFFFF05000000060000000700000008000000
310
090000000A0000000B0000000C0000000D0000000E0000000F00000010000000
310
11000000120000001300000014000000150000001600000017000000FEFFFFFF
310
FFFFFFFFFFFFFFFFFFFFFFFFFFFFFFFFFFFFFFFFFFFFFFFFFFFFFFFFFFFFFFFF
310
FFFFFFFFFFFFFFFFFFFFFFFFFFFFFFFFFFFFFFFFFFFFFFFFFFFFFFFFFFFFFFFF
310
FFFFFFFFFFFFFFFFFFFFFFFFFFFFFFFFFFFFFFFFFFFFFFFFFFFFFFFFFFFFFFFF
310
FFFFFFFFFFFFFFFFFFFFFFFFFFFFFFFFFFFFFFFFFFFFFFFFFFFFFFFFFFFFFFFF
310
FFFFFFFFFFFFFFFFFFFFFFFFFFFFFFFFFFFFFFFFFFFFFFFFFFFFFFFFFFFFFFFF
310
FFFFFFFFFFFFFFFFFFFFFFFFFFFFFFFFFFFFFFFFFFFFFFFFFFFFFFFFFFFFFFFF
310
FFFFFFFFFFFFFFFFFFFFFFFFFFFFFFFFFFFFFFFFFFFFFFFFFFFFFFFFFFFFFFFF
310
FFFFFFFFFFFFFFFFFFFFFFFFFFFFFFFFFFFFFFFFFFFFFFFFFFFFFFFFFFFFFFFF
310
FFFFFFFFFFFFFFFFFFFFFFFFFFFFFFFFFFFFFFFFFFFFFFFFFFFFFFFFFFFFFFFF
310
FFFFFFFFFFFFFFFFFFFFFFFFFFFFFFFFFFFFFFFFFFFFFFFFFFFFFFFFFFFFFFFF
310
FFFFFFFFFFFFFFFFFFFFFFFFFFFFFFFFFFFFFFFFFFFFFFFFFFFFFFFFFFFFFFFF
310
FFFFFFFFFFFFFFFFFFFFFFFFFFFFFFFFFFFFFFFFFFFFFFFFFFFFFFFFFFFFFFFF
310
FFFFFFFFFFFFFFFFFFFFFFFFFFFFFFFFFFFFFFFFFFFFFFFFFFFFFFFFFFFFFFFF
310
52006F006F007400200045006E00740072007900000000000000000000000000
310
0000000000000000000000000000000000000000000000000000000000000000
310
16000500FFFFFFFFFFFFFFFF020000000A00030000000000C000000000000046
310
00000000000000000000000000B2B3119920D20103000000C000000000000000
310
01004F006C006500000000000000000000000000000000000000000000000000
310
0000000000000000000000000000000000000000000000000000000000000000
310
0A000200FFFFFFFFFFFFFFFFFFFFFFFF00000000000000000000000000000000
310
0000000000000000000000000000000000000000000000001400000000000000
310
010043006F006D0070004F0062006A0000000000000000000000000000000000
310
0000000000000000000000000000000000000000000000000000000000000000
310
120002010100000003000000FFFFFFFF00000000000000000000000000000000
310
0000000000000000000000000000000000000000010000004D00000000000000
310
01004F006C006500310030004E00610074006900760065000000000000000000
310
0000000000000000000000000000000000000000000000000000000000000000
310
1A000200FFFFFFFFFFFFFFFFFFFFFFFF00000000000000000000000000000000
310
0000000000000000000000000000000000000000040000002426000000000000
310
FEFFFFFF02000000FEFFFFFFFFFFFFFFFFFFFFFFFFFFFFFFFFFFFFFFFFFFFFFF
310
FFFFFFFFFFFFFFFFFFFFFFFFFFFFFFFFFFFFFFFFFFFFFFFFFFFFFFFFFFFFFFFF
310
FFFFFFFFFFFFFFFFFFFFFFFFFFFFFFFFFFFFFFFFFFFFFFFFFFFFFFFFFFFFFFFF
310
FFFFFFFFFFFFFFFFFFFFFFFFFFFFFFFFFFFFFFFFFFFFFFFFFFFFFFFFFFFFFFFF
310
FFFFFFFFFFFFFFFFFFFFFFFFFFFFFFFFFFFFFFFFFFFFFFFFFFFFFFFFFFFFFFFF
310
FFFFFFFFFFFFFFFFFFFFFFFFFFFFFFFFFFFFFFFFFFFFFFFFFFFFFFFFFFFFFFFF
310
FFFFFFFFFFFFFFFFFFFFFFFFFFFFFFFFFFFFFFFFFFFFFFFFFFFFFFFFFFFFFFFF
310
FFFFFFFFFFFFFFFFFFFFFFFFFFFFFFFFFFFFFFFFFFFFFFFFFFFFFFFFFFFFFFFF
310
FFFFFFFFFFFFFFFFFFFFFFFFFFFFFFFFFFFFFFFFFFFFFFFFFFFFFFFFFFFFFFFF
310
FFFFFFFFFFFFFFFFFFFFFFFFFFFFFFFFFFFFFFFFFFFFFFFFFFFFFFFFFFFFFFFF
310
FFFFFFFFFFFFFFFFFFFFFFFFFFFFFFFFFFFFFFFFFFFFFFFFFFFFFFFFFFFFFFFF
310
FFFFFFFFFFFFFFFFFFFFFFFFFFFFFFFFFFFFFFFFFFFFFFFFFFFFFFFFFFFFFFFF
310
FFFFFFFFFFFFFFFFFFFFFFFFFFFFFFFFFFFFFFFFFFFFFFFFFFFFFFFFFFFFFFFF
310
FFFFFFFFFFFFFFFFFFFFFFFFFFFFFFFFFFFFFFFFFFFFFFFFFFFFFFFFFFFFFFFF
310
FFFFFFFFFFFFFFFFFFFFFFFFFFFFFFFFFFFFFFFFFFFFFFFFFFFFFFFFFFFFFFFF
310
FFFFFFFFFFFFFFFFFFFFFFFFFFFFFFFFFFFFFFFFFFFFFFFFFFFFFFFFFFFFFFFF
310
0100000200000000000000000000000000000000000000000000000000000000
310
0000000000000000000000000000000000000000000000000000000000000000
310
0100FEFF030A0000FFFFFFFF0A00030000000000C00000000000004607000000
310
5042727573680007000000504272757368000700000050427275736800F439B2
310
7100000000000000000000000000000000000000000000000000000000000000
310
0000000000000000000000000000000000000000000000000000000000000000
310
0000000000000000000000000000000000000000000000000000000000000000
310
0000000000000000000000000000000000000000000000000000000000000000
310
0000000000000000000000000000000000000000000000000000000000000000
310
0000000000000000000000000000000000000000000000000000000000000000
310
0000000000000000000000000000000000000000000000000000000000000000
310
0000000000000000000000000000000000000000000000000000000000000000
310
0000000000000000000000000000000000000000000000000000000000000000
310
0000000000000000000000000000000000000000000000000000000000000000
310
0000000000000000000000000000000000000000000000000000000000000000
310
0000000000000000000000000000000000000000000000000000000000000000
310
20260000424D0E260000000000003E00000028000000B40200006E0000000100
310
01000000000000000000130B0000130B00000200000002000000000000FFFFFF
310
FFFFFFFFFFFFFFFFFFFFFFFFFFFFFFFFFFFFFFFFFFFFFFFFFFFFFFFFFFFFFFFF
310
FFFFFFFFFFFFFFFFFFFFFFFFFFFFFFFFFFFFFFFFFFFFFFFFFFFFFFFFFFFFFFFF
310
FFFFFFFFFFFFFFFFFFFFFFFFFFFFFFFFFFFFFFFFFFFFFFFFF000FFFFFFFFFFFF
310
FFFFFFFFFFFFFFFFFFFFFFFFFFFFFFFFFFFFFFFFFFFFFFFFFFFFFFFFFFFFFFFF
310
FFFFFFFFFFFFFFFFFFFFFFFFFFFFFFFFFFFFFFFFFFFFFFFFFFFFFFFFFFFFFFFF
310
FFFFFFFFFFFFFFFFFFFFFFFFFFFFFFFFF000FFFFFFFFFFFFFFFFFFFFFFFFFFFF
310
FFFFFFFFFFFFFFFFFFFFFFFFFFFFFFFFFFFFFFFFFFFFFFFFFFFFFFFFFFFFFFFF
310
FFFFFFFFFFFFFFFFFFFFFFFFFFFFFFFFFFFFFFFFFFFFFFFFFFFFFFFFFFFFFFFF
310
FFFFFFFFFFFFFFFFF000FFFFFFFFFFFFFFFFFFFFFFFFFFFFFFFFFFFFFFFFFFFF
310
FFFFFFFFFFFFFFFFFFFFFFFFFFFFFFFFFFFFFFFFFFFFFFFFFFFFFFFFFFFFFFFF
310
FFFFFFFFFFFFFFFFFFFFFFFFFFFFFFFFFFFFFFFFFFFFFFFFFFFFFFFFFFFFFFFF
310
F000FFFFFFFFFFFFFFFFFFFFFFFFFFFFFFFFFFFFFFFFFFFFFFFFFFFFFFFFFFFF
310
FFFFFFFFFFFFFFFFFFFFFFFFFFFFFFFFFFFFFFFFFFFFFFFFFFFFFFFFFFFFFFFF
310
FFFFFFFFFFFFFFFFFFFFFFFFFFFFFFFFFFFFFFFFFFFFFFFFF000FFFFFFFFFFFF
310
FFFFFFFFFFFFFFFFFFFFFFFFFFFFFFFFFFFFFFFFFFFFFFFFFFFFFFFFFFFFFFFF
310
FFFFFFFFFFFFFFFFFFFFFFFFFFFFFFFFFFFFFFFFFFFFFFFFFFFFFFFFFFFFFFFF
310
FFFFFFFFFFFFFFFFFFFFFFFFFFFFFFFFF000FFFFFFFFFFFFFFFFFFFFFFFFFFFF
310
FFFFFFFFFFFFFFFFFFFFFFFFFFFFFFFFFFFFFFFFFFFFFFFFFFFFFFFFFFFFFFFF
310
FFFFFFFFFFFFFFFFFFFFFFFFFFFFFFFFFFFFFFFFFFFFFFFFFFFFFFFFFFFFFFFF
310
FFFFFFFFFFFFFFFFF000FFFFFFFFFFFFFFFFFFFFFFFFFFFFFFFFFFFFFFFFFFFF
310
FFFFFFFFFFFFFFFFFFFFFFFFFFFFFFFFFFFFFFFFFFFFFFFFFFFFFFFFFFFFFFFF
310
FFFFFFFFFFFFFFFFFFFFFFFFFFFFFFFFFFFFFFFFFFFFFFFFFFFFFFFFFFFFFFFF
310
F000FFFFFFFFFFFFFFFFFFFFFFFFFFFFFFFFFFFFFFFFFFFFFFFFFFFFFFFFFFFF
310
FFFFFFFFFFFFFFFFFFFFFFFFFFFFFFFFFFFFFFFFFFFFFFFFFFFFFFFFFFFFFFFF
310
FFFFFFFFFFFFFFFFFFFFFFFFFFFFFFFFFFFFFFFFFFFFFFFFF000FFFFFFFFFFFF
310
FFFFFFFFFFFFFFFFFFFFFFFFFFFFFFFFFFFFFFFFFFFFFFFFFFFFFFFFFFFFFFFF
310
FFFFFFFFFFFFFFFFFFFFFFFFFFFFFFFFFFFFFFFFFFFFFFFFFFFFFFFFFFFFFFFF
310
FFFFFFFFFFFFFFFFFFFFFFFFFFFFFFFFF000FFFFFFFFFFFFFFFFFFFFFFFFFFFF
310
FFFFFFFFFFFFFFFFFFFFFFFFFFFFFFFFFFFFFFFFFFFFFFFFFFFFFFFFFFFFFFFF
310
FFFFFFFFFFFFFFFFFFFFFFFFFFFFFFFFFFFFFFFFFFFFFFFFFFFFFFFFFFFFFFFF
310
FFFFFFFFFFFFFFFFF000FFFFFFFFFFFFFFFFFFFFFFFFFFFFFFFFFFFFFFFFFFFF
310
FFFFFFFFFFFFFFFFFFFFFFFFFFFFFFFFFFFFFFFFFFFFFFFFFFFFFFFFFFFFFFFF
310
FFFFFFFFFFFFFFFFFFFFFFFFFFFFFFFFFFFFFFFFFFFFFFFFFFFFFFFFFFFFFFFF
310
F000FFFFFFFFFFFFFFFFFFFFFFFFFFFFFFFFFFFFFFFFFFFFFFFFFFFFFFFFFFFF
310
FFFFFFFFFFFFFFFFFFFFFFFFFFFFFFFFFFFFFFFFFFFFFFFFFFFFFFFFFFFFFFFF
310
FFFFFFFFFFFFFFFFFFFFFFFFFFFFFFFFFFFFFFFFFFFFFFFFF000FFFFFFFFFFFF
310
FFFFFFFFFFFFFFFFFFFFFFFFFFFFFFFFFFFFFFFFFFFFFFFFFFFFFFFFFFFFFFFF
310
FFFFFFFFFFFFFFFFFFFFFFFFFFFFFFFFFFFFFFFFFFFFFFFFFFFFFFFFFFFFFFFF
310
FFFFFFFFFFFFFFFFFFFFFFFFFFFFFFFFF000FFFFFFFFFFFFFFFFFFFFFFFFFFFF
310
FFFFFFFFFFFFFFFFFFFFFFFFFFFFFFFFFFFFFFFFFFFFFFFFFFFFFFFFFFFFFFFF
310
FFFFFFFFFFFFFFFFFFFFFFFFFFFFFFFFFFFFFFFFFFFFFFFFFFFFFFFFFFFFFFFF
310
FFFFFFFFFFFFFFFFF000FFFFFFFFFFFFFFFFFFFFFFFFFFFFFFFFFFFFFFFFFFFF
310
FFFFFFFFFFFFFFFFFFFFFFFFFFFFFFFFFFFFFFFFFFFFFFFFFFFFFFFFFFFFFFFF
310
FFFFFFFFFFFFFFFFFFFFFFFFFFFFFFFFFFFFFFFFFFFFFFFFFFFFFFFFFFFFFFFF
310
F000FFFFFFFFFFFFFFFFFFFFFFFFFFFFFFFFFFFFFFFFFFFFFFFFFFFFFFFFFFFF
310
FFFFFFFFFFFFFFFFFFFFFFFFFFFFFFFFFFFFFFFFFFFFFFFFFFFFFFFFFFFFFFFF
310
FFFFFFFFFFFFFFFFFFFFFFFFFFFFFFFFFFFFFFFFFFFFFFFFF000FFFFFFFFFFFF
310
FFFFFFFFFFFFFFFFFFFFFFFFFFFFFFFFFFFFFFFFFFFFFFFFFFFFFFFFFFFFFFFF
310
FFFFFFFFFFFFFFFFFFFFFFFFFFFFFFFFFFFFFFFFFFFFFFFFFFFFFFFFFFFFFFFF
310
FFFFFFFFFFFFFFFFFFFFFFFFFFFFFFFFF000FFFFFFFFFFFFFFFFFFFFFFFFFFFF
310
FFFFFFFFFFFFFFFFFFFFFFFFFFFFFFFFFFFFFFFFFFFFFFFFFFFFFFFFFFFFFFFF
310
FFFFFFFFFFFFFFFFFFFFFFFFFFFFFFFFFFFFFFFFFFFFFFFFFFFFFFFFFFFFFFFF
310
FFFFFFFFFFFFFFFFF000FFFFF80003FFFFFFFFFFFFFFFFFFFFFFFFFFFFFFFFFF
310
FFFFF00007FFFFFFFFFF00007FFFFFF800000000000000007FFFFFFFFFFFFFFF
310
FFFFFFFC001FFFFFFFFFFFFFFC001FFFFFFFFFFFFFFFFFFFFFFFFFFE0007FFFF
310
F000FFFF8000007FFFFFFFF8000FFFFFC0007FFFFF80007FFFFF0000007FFFFF
310
FFF8000007FFFFF800000000000000007FFFFFF0001FFFFFFFFFFFC00001FFFF
310
FFFFFFFFC00001FFFFFFFF000000000003FFFFE000007FFFF000FFFE0000000F
310
FFFFFFF0000FFFFF80007FFFFF80007FFFFC0000001FFFFFFFC0000001FFFFF8
310
00000000000000007FFFFFF0001FFFFFFFFFFE0000003FFFFFFFFFFE0000003F
310
FFFFFF000000000003FFFF0000000FFFF000FFF800000003FFFFFFF00007FFFF
310
80007FFFFF80007FFFF000000007FFFFFF000000003FFFF80000000000000000
310
7FFFFFF0001FFFFFFFFFF80000000FFFFFFFFFF80000000FFFFFFF0000000000
310
03FFFC00000003FFF000FFE000000000FFFFFFF00007FFFF80003FFFFF80007F
310
FFC000000001FFFFFC000000001FFFF800000000000000007FFFFFF0001FFFFF
310
FFFFE000000003FFFFFFFFE000000003FFFFFF000000000003FFF000000000FF
310
F000FF80000000007FFFFFF00007FFFF80003FFFFF80007FFF8000000000FFFF
310
F80000000007FFF800000000000000007FFFFFF0001FFFFFFFFFC000000001FF
310
FFFFFFC000000001FFFFFF000000000003FFC0000000007FF000FF0000000000
310
3FFFFFE00007FFFF00003FFFFF80007FFE00000000003FFFF00000000003FFF8
310
00000000000000007FFFFFF0001FFFFFFFFF8000000000FFFFFFFF8000000000
310
FFFFFF000000000003FF80000000003FF000FE00000000001FFFFFE00003FFFF
310
00003FFFFF80007FFC00000000001FFFE00000000001FFF8000001FFFE000000
310
7FFFFFF0001FFFFFFFFE00000000003FFFFFFE00000000003FFFFF0000000000
310
03FF00000000001FF000FC00000000000FFFFFE00003FFFF00001FFFFF80007F
310
F800000000001FFFC00000000000FFF8000001FFFE0000007FFFFFF0001FFFFF
310
FFFC00000000001FFFFFFC00000000001FFFFF000000000003FE00000000000F
310
F000F8000000000007FFFFE00003FFFF00001FFFFF80007FF800000000000FFF
310
800000000000FFF8000001FFFE0000007FFFFFF0001FFFFFFFF800000000000F
310
FFFFF800000000000FFFFF000000000003FC000000000007F000F80000000000
310
03FFFFC00003FFFE00001FFFFF80007FF0000000000007FF0000000000007FF8
310
000001FFFE0000007FFFFFF0001FFFFFFFF0000000000007FFFFF00000000000
310
07FFFF000000000003F8000000000003F000F0000000000003FFFFC00001FFFE
310
00001FFFFF80007FE0000000000007FE0000000000003FF8000001FFFE000000
310
7FFFFFF0001FFFFFFFF0000000000007FFFFF0000000000007FFFF0000000000
310
03F800001F800003F000E00001FFF00001FFFFC00001FFFE00000FFFFF80007F
310
E00001FFE00003FE00001FFF00003FF8000001FFFE0000007FFFFFF0001FFFFF
310
FFE000003E000003FFFFE000003E000003FFFF000000000003F00001FFF80001
310
F000E00007FFFC0001FFFFC00001FFFE00000FFFFF80007FC0000FFFFC0003FC
310
0000FFFFC0001FF8000001FFFE0000007FFFFFF0001FFFFFFFC00003FFE00001
310
FFFFC00003FFE00001FFFF0001FFFFFFFFF00007FFFE0001F000E0000FFFFF00
310
00FFFF800001FFFC00000FFFFF80007FC0001FFFFE0001FC0001FFFFE0001FF8
310
000001FFFE0000007FFFFFF0001FFFFFFF80000FFFF80000FFFF80000FFFF800
310
00FFFF0003FFFFFFFFE0000FFFFF8000F000C0003FFFFF8000FFFF800000FFFC
310
000007FFFF80007F80003FFFFF0001FC0003FFFFF0001FF8000001FFFE000000
310
7FFFFFF0001FFFFFFF80003FFFFE0000FFFF80003FFFFE0000FFFF0003FFFFFF
310
FFE0003FFFFF8000F000C0003FFFFF8000FFFF800000FFFC000007FFFF80007F
310
80007FFFFF8001F80007FFFFF8000FF8000001FFFE0000007FFFFFF0001FFFFF
310
FF00007FFFFF00007FFF00007FFFFF00007FFF0003FFFFFFFFE0003FFFFFC000
310
F000C0007FFFFFC000FFFF000000FFFC000007FFFF80007F8000FFFFFF8000F8
310
000FFFFFF8000FF8000001FFFE0000007FFFFFF0001FFFFFFF0000FFFFFF8000
310
7FFF0000FFFFFF80007FFF0003FFFFFFFFC0007FFFFFC00070008000FFFFFFC0
310
00FFFF000000FFF8000007FFFF80007F8000FFFFFF8000F8000FFFFFF8000FF8
310
000001FFFE0000007FFFFFF0001FFFFFFE0001FFFFFFC0003FFE0001FFFFFFC0
310
003FFF0003FFFFFFFFC0007FFFFFE00070008000FFFFFFC0007FFF0000007FF8
310
000003FFFF80007F0001FFFFFF8000F8000FFFFFF8000FF8000001FFFE000000
310
7FFFFFF0001FFFFFFE0001FFFFFFC0003FFE0001FFFFFFC0003FFF0003FFFFFF
310
FFC000FFFFFFE00070008000FFFFFFC0007FFF0000007FF8000003FFFF80007F
310
0001FFFFFF8000F8001FFFFFF8000FF8000001FFFE0000007FFFFFF0001FFFFF
310
FE0003FFFFFFE0003FFE0003FFFFFFE0003FFF0003FFFFFFFFC000FFFFFFE000
310
70008000FFFFFFC0007FFE0000007FF8000003FFFF80007F0001FFFFFF8000F0
310
001FFFFFF8000FF8000001FFFE0000007FFFFFF0001FFFFFFC0003FFFFFFE000
310
1FFC0003FFFFFFE0001FFF0003FFFFFFFFC000FFFFFFC00070008000FFFFFF80
310
007FFE0000007FF0000003FFFF80007F0001FFFFFF0000F0001FFFFFF8000FF8
310
000001FFFE0000007FFFFFF0001FFFFFFC0007FFFFFFF0001FFC0007FFFFFFF0
310
001FFF0003FFFFFFFFC000FFFFFFC00070008001FFFFFF0000FFFE0000003FF0
310
000001FFFF80007F0001FFFFFF0000F8001FFFFFF0000FF8000001FFFE000000
310
7FFFFFF0001FFFFFFC0007FFFFFFF0001FFC0007FFFFFFF0001FFF0003FFFFFF
310
FFC001FFFFFF80007000FFFFFFFFFE0000FFFE0008003FF0008001FFFF80007F
310
FFFFFFFFFC0000FFFFFFFFFFE0000FF8000001FFFE0000007FFFFFF0001FFFFF
310
F8000FFFFFFFF8000FF8000FFFFFFFF8000FFF0003FFFFFFFFFFFFFFFFFF0000
310
7000FFFFFFFFFC0000FFFC0008003FF0008001FFFF80007FFFFFFFFFF80001FF
310
FFFFFFFF80000FF8000001FFFE0000007FFFFFF0001FFFFFF8000FFFFFFFF800
310
0FF8000FFFFFFFF8000FFF0003FFFFFFFFFFFFFFFFFE0000F000FFFFFFFFE000
310
00FFFC000C003FE000C001FFFF80007FFFFFFFFFC00001FFFFFFFFFE00001FF8
310
000001FFFE0000007FFFFFF0001FFFFFF8000FFFFFFFF8000FF8000FFFFFFFF8
310
000FFF0003FFFFFFFFFFFFFFFFF00000F000FFFFFFFE000001FFFC000C001FE0
310
00C000FFFF80007FFFFFFFFE000001FFFFFFFFE000001FF80FFFFFFFFFFFFFC0
310
7FFFFFF0001FFFFFF8000FFFFFFFF8000FF8000FFFFFFFF8000FFF0003FFFFFF
310
FFFFFFFFFF800000F000FFFFFFC0000001FFFC001C001FE001C000FFFF80007F
310
FFFFFF80000003FFFFFFF80000001FF80FFFFFFFFFFFFFC07FFFFFF0001FFFFF
310
F8001FFFFFFFFC000FF8001FFFFFFFFC000FFF0003FFFFFFFFFFFFFFF0000001
310
F000FFFFF800000001FFF8001C001FE001C000FFFF80007FFFFFF800000003FF
310
FFFF800000003FF80FFFFFFFFFFFFFC07FFFFFF0001FFFFFF8001FFFFFFFFC00
310
0FF8001FFFFFFFFC000FFF0003FFFFFFFFFFFFFE00000001F000FFFFC0000000
310
03FFF8001E001FC001E000FFFF80007FFFFF8000000007FFFFFC000000003FF8
310
0FFFFFFFFFFFFFC07FFFFFF0001FFFFFF8001FFFFFFFFC000FF8001FFFFFFFFC
310
000FFF0003FFFFFFFFFFFFE000000003F000FFFE0000000007FFF8001E000FC0
310
01E0007FFF80007FFFFE0000000007FFFFE0000000007FF80FFFFFFFFFFFFFC0
310
7FFFFFF0001FFFFFF0001FFFFFFFFC0007F0001FFFFFFFFC0007FF0003FFFFFF
310
FFFFFF0000000003F000FFF80000000007FFF8001E000FC003E0007FFF80007F
310
FFF0000000000FFFFF8000000000FFF80FFFFFFFFFFFFFC07FFFFFF0001FFFFF
310
F0001FFFFFFFFC0007F0001FFFFFFFFC0007FF0003FFFFFFFFFFFC0000000007
310
F000FFE0000000000FFFF0003E000FC003E0007FFF80007FFFC0000000001FFF
310
FE0000000001FFF80FFFFFFFFFFFFFC07FFFFFF0001FFFFFF0001FFFFFFFFC00
310
07F0001FFFFFFFFC0007FF0003FFFFFFFFFFF0000000000FF000FFC000000000
310
1FFFF0003F000F8003F0003FFF80007FFF80000000003FFFF80000000003FFF8
310
0FFFFFFFFFFFFFC07FFFFFF0001FFFFFF0001FFFFFFFFC0007F0001FFFFFFFFC
310
0007FF0003FFFFFFFFFFE0000000001FF000FF00000000007FFFF0003F000780
310
03F0003FFF80007FFF00000000007FFFF00000000007FFF80FFFFFFFFFFFFFC0
310
7FFFFFF0001FFFFFF0001FFFFFFFFC0007F0001FFFFFFFFC0007FF0003FFFFFF
310
FFFF80000000007FF000FE0000000000FFFFE0003F00078007F0003FFF80007F
310
FE0000000001FFFFE0000000001FFFF80FFFFFFFFFFFFFC07FFFFFF0001FFFFF
310
F0001FFFFFFFFC0007F0001FFFFFFFFC0007FF0003FFFFFFFFFF0000000000FF
310
F000FC0000000003FFFFE0007F00078007F0003FFF80007FFC0000000007FFFF
310
C0000000007FFFF80FFFFFFFFFFFFFC07FFFFFF0001FFFFFF8001FFFFFFFFC00
310
0FF8001FFFFFFFFC000FFF0003FFFFFFFFFE0000000003FFF000FC000000000F
310
FFFFE0007F80070007F8001FFF80007FF8000000001FFFFF8000000001FFFFF8
310
0FFFFFFFFFFFFFC07FFFFFF0001FFFFFF8001FFFFFFFFC000FF8001FFFFFFFFC
310
000FFF0003FFFFFFFFFC000000000FFFF000F8000000007FFFFFE0007F800700
310
07F8001FFF80007FF000000000FFFFFF800000000FFFFFF80FFFFFFFFFFFFFC0
310
7FFFFFF0001FFFFFF8000FFFFFFFF8000FF8000FFFFFFFF8000FFF0003FFFFFF
310
FFFC000000007FFFF000F800000007FFFFFFC0007F8003000FF8001FFF80007F
310
F000000007FFFFFF000000007FFFFFF80FFFFFFFFFFFFFC07FFFFFF0001FFFFF
310
F8000FFFFFFFF8000FF8000FFFFFFFF8000FFF0003FFFFFFFFF80000000FFFFF
310
F000F0000000FFFFFFFFC000FF8003000FF8001FFF80007FE0000000FFFFFFFF
310
0000000FFFFFFFF8000001FFFE0000007FFFFFF0001FFFFFF8000FFFFFFFF800
310
0FF8000FFFFFFFF8000FFF0003FFFFFFFFF8000000FFFFFFF000F000000FFFFF
310
FFFFC000FFC002000FF8000FFF80007FE000001FFFFFFFFE000001FFFFFFFFF8
310
000001FFFE0000007FFFFFF0001FFFFFF8000FFFFFFFF8000FF8000FFFFFFFF8
310
000FFF0003FFFFFFFFF000001FFFFFFFF000E00000FFFFFFFFFFC000FFC00200
310
0FFC000FFF80007FE00001FFFFFFFFFE00001FFFFFFFFFF8000001FFFE000000
310
7FFFFFF0001FFFFFFC000FFFFFFFF8001FFC000FFFFFFFF8001FFF0003FFFFFF
310
FFF00001FFFFFFFFF000E00007FFFFFFFFFF8000FFC000001FFC000FFF80007F
310
C0000FFFFFFFFFFE0000FFFFFFFFFFF8000001FFFE0000007FFFFFF0001FFFFF
310
FC0007FFFFFFF0001FFC0007FFFFFFF0001FFF0003FFFFFFFFF00007FFFFFFFF
310
F000E0001FFFFFFFFFFF8000FFC000001FFC000FFF80007FC0003FFFFFFFFFFE
310
0001FFFFFFFFFFF8000001FFFE0000007FFFFFF0001FFFFFFC0007FFFFFFF000
310
1FFC0007FFFFFFF0001FFF0003FFFFFFFFF0001FFFFFFFFFF000E0003FFFFF00
310
03FF8001FFE000001FFC0007FF80007FC0007FFFFF0007FC0003FFFFF0003FF8
310
000001FFFE0000007FFFFFF0001FFFFFFC0003FFFFFFE0001FFC0003FFFFFFE0
310
001FFF0003FFFFFFFFF0003FFFFFFFFFF000E0003FFFFF0001FF8001FFE00000
310
1FFE0007FF80007FC0007FFFFE0003FC0007FFFFE0003FF8000001FFFE000000
310
7FFFFFF0001FFFFFFE0003FFFFFFE0003FFE0003FFFFFFE0003FFF0003FFFFFF
310
FFF0003FFFFF8001F000E0003FFFFF0001FF0001FFE000001FFE0007FF80007F
310
C0007FFFFE0003FC0007FFFFE0003FF8000001FFFE0000007FFFFFF0001FFFFF
310
FE0001FFFFFFC0003FFE0001FFFFFFC0003FFF0003FFFFFFFFF0003FFFFF0001
310
F000E0003FFFFF0003FF0001FFE000003FFE0007FF80007FC0007FFFFE0003FC
310
0007FFFFE0003FF8000001FFFE0000007FFFFFF0001FFFFFFF0001FFFFFFC000
310
7FFF0001FFFFFFC0007FFF0003FFFFFFFFF0003FFFFF0001F000E0003FFFFE00
310
03FF0003FFF000003FFE0003FF80007FC0007FFFFC0003FE0007FFFFE0003FF8
310
000001FFFE0000007FFFFFF0001FFFFFFF0000FFFFFF80007FFF0000FFFFFF80
310
007FFF0003FFFFFFFFF0003FFFFF0001F000E0003FFFFE0003FF0003FFF00000
310
3FFF0003FF80007FC0007FFFFC0007FE0007FFFFC0003FF8000001FFFE000000
310
7FFFFFF0001FFFFFFF80007FFFFF0000FFFF80007FFFFF0000FFFF0003FFFFFF
310
FFF0003FFFFF0003F000E0003FFFFC0003FE0003FFF000003FFF0003FF80007F
310
E0003FFFF80007FE0003FFFFC0007FF8000001FFFE0000007FFFFFF0001FFFFF
310
FF80003FFFFE0000FFFF80003FFFFE0000FFFF0003FFFFFFFFF0001FFFFE0003
310
F000F0001FFFF80003FE0003FFF000007FFF0001FF80007FE0003FFFF00007FE
310
0001FFFF80007FF8000001FFFE0000007FFFFFF0001FFFFFFFC0000FFFF80001
310
FFFFC0000FFFF80001FFFF0003FFFFFFFFF0001FFFFC0003F000F0000FFFF000
310
07FE0007FFF800007FFF0001FF80007FE0001FFFE00007FF0000FFFE00007FF8
310
000001FFFE0000007FFFFFF0001FFFFFFFC00003FFE00001FFFFC00003FFE000
310
01FFFF0003FFFFFFFFF8000FFFF80003F000F00003FFC00007FC0007FFF80000
310
7FFF8001FF80007FF00007FF80000FFF00007FF80000FFF8000001FFFE000000
310
7F80000000000001FFE000003E000003FFFFE000003E000003FFFF0003FFFFFF
310
FFF80003FFE00007F000F800000000000FFC0007FFF800007FFF8001FF80007F
310
F000000000000FFF000000000000FFF8000001FFFE0000007F80000000000001
310
FFF0000000000007FFFFF0000000000007FFFF0003FFFFFFFFFC00007E000007
310
F000F800000000000FFC0007FFF80000FFFF8000FF80007FF800000000001FFF
310
800000000001FFF8000001FFFE0000007F80000000000001FFF800000000000F
310
FFFFF800000000000FFFFF0003FFFFFFFFFC00000000000FF000FC0000000000
310
1FFC0007FFFC0000FFFF8000FF80007FF800000000003FFFC00000000001FFF8
310
000001FFFE0000007F80000000000001FFF800000000000FFFFFF80000000000
310
0FFFFF0003FFFFFFFFFE00000000001FF000FE00000000003FF8000FFFFC0000
310
FFFF8000FF80007FFC00000000003FFFC00000000003FFF8000001FFFE000000
310
7F80000000000001FFFC00000000001FFFFFFC00000000001FFFFF0003FFFFFF
310
FFFF00000000001FF000FF00000000003FF8000FFFFC0000FFFFC000FF80007F
310
FE00000000007FFFE00000000007FFF8000001FFFE0000007F80000000000001
310
FFFE00000000003FFFFFFE00000000003FFFFF0003FFFFFFFFFF80000000003F
310
F000FF80000000007FF8000FFFFC0001FFFFC0007F80007FFF0000000000FFFF
310
F0000000000FFFF800000000000000007F80000000000001FFFF8000000000FF
310
FFFFFF8000000000FFFFFF0003FFFFFFFFFFC0000000007FF000FFC000000000
310
FFF8000FFFFE0001FFFFC0007F80007FFF8000000001FFFFF8000000001FFFF8
310
00000000000000007F80000000000001FFFFC000000001FFFFFFFFC000000001
310
FFFFFF0003FFFFFFFFFFE000000000FFF000FFE000000003FFF0001FFFFE0001
310
FFFFC0007F80007FFFC000000007FFFFFE000000003FFFF80000000000000000
310
7F80000000000001FFFFE000000003FFFFFFFFE000000003FFFFFF0003FFFFFF
310
FFFFF000000003FFF000FFF80000000FFFF0001FFFFE0001FFFFE0007F80007F
310
FFF00000000FFFFFFF00000000FFFFF800000000000000007F80000000000001
310
FFFFF80000000FFFFFFFFFF80000000FFFFFFF0003FFFFFFFFFFFC0000000FFF
310
F000FFFE0000003FFFF0001FFFFE0003FFFFE0003F80007FFFFC0000003FFFFF
310
FFC0000003FFFFF800000000000000007F80000000000001FFFFFE0000003FFF
310
FFFFFFFE0000003FFFFFFF0003FFFFFFFFFFFF0000003FFFF000FFFF800000FF
310
FFF0001FFFFF0003FFFFE0003F80007FFFFF000001FFFFFFFFF800001FFFFFF8
310
00000000000000007F80000000000001FFFFFFC00001FFFFFFFFFFFFC00001FF
310
FFFFFF0003FFFFFFFFFFFFC00000FFFFF000FFFFF8000FFFFFFFFFFFFFFFFFFF
310
FFFFFFFFFFFFFFFFFFFFF0001FFFFFFFFFFF0000FFFFFFF80000000000000000
310
7FFFFFFFFFFFFFFFFFFFFFFC001FFFFFFFFFFFFFFC001FFFFFFFFFFFFFFFFFFF
310
FFFFFFFC001FFFFFF000FFFFFFFFFFFFFFFFFFFFFFFFFFFFFFFFFFFFFFFFFFFF
310
FFFFFFFFFFFFFFFFFFFFFFFFFFFFFFFFFFFFFFFFFFFFFFFFFFFFFFFFFFFFFFFF
310
FFFFFFFFFFFFFFFFFFFFFFFFFFFFFFFFFFFFFFFFFFFFFFFFFFFFFFFFFFFFFFFF
310
F000FFFFFFFFFFFFFFFFFFFFFFFFFFFFFFFFFFFFFFFFFFFFFFFFFFFFFFFFFFFF
310
FFFFFFFFFFFFFFFFFFFFFFFFFFFFFFFFFFFFFFFFFFFFFFFFFFFFFFFFFFFFFFFF
310
FFFFFFFFFFFFFFFFFFFFFFFFFFFFFFFFFFFFFFFFFFFFFFFFF000FFFFFFFFFFFF
310
FFFFFFFFFFFFFFFFFFFFFFFFFFFFFFFFFFFFFFFFFFFFFFFFFFFFFFFFFFFFFFFF
310
FFFFFFFFFFFFFFFFFFFFFFFFFFFFFFFFFFFFFFFFFFFFFFFFFFFFFFFFFFFFFFFF
310
FFFFFFFFFFFFFFFFFFFFFFFFFFFFFFFFF000FFFFFFFFFFFFFFFFFFFFFFFFFFFF
310
FFFFFFFFFFFFFFFFFFFFFFFFFFFFFFFFFFFFFFFFFFFFFFFFFFFFFFFFFFFFFFFF
310
FFFFFFFFFFFFFFFFFFFFFFFFFFFFFFFFFFFFFFFFFFFFFFFFFFFFFFFFFFFFFFFF
310
FFFFFFFFFFFFFFFFF000FFFFFFFFFFFFFFFFFFFFFFFFFFFFFFFFFFFFFFFFFFFF
310
FFFFFFFFFFFFFFFFFFFFFFFFFFFFFFFFFFFFFFFFFFFFFFFFFFFFFFFFFFFFFFFF
310
FFFFFFFFFFFFFFFFFFFFFFFFFFFFFFFFFFFFFFFFFFFFFFFFFFFFFFFFFFFFFFFF
310
F000FFFFFFFFFFFFFFFFFFFFFFFFFFFFFFFFFFFFFFFFFFFFFFFFFFFFFFFFFFFF
310
FFFFFFFFFFFFFFFFFFFFFFFFFFFFFFFFFFFFFFFFFFFFFFFFFFFFFFFFFFFFFFFF
310
FFFFFFFFFFFFFFFFFFFFFFFFFFFFFFFFFFFFFFFFFFFFFFFFF000FFFFFFFFFFFF
310
FFFFFFFFFFFFFFFFFFFFFFFFFFFFFFFFFFFFFFFFFFFFFFFFFFFFFFFFFFFFFFFF
310
FFFFFFFFFFFFFFFFFFFFFFFFFFFFFFFFFFFFFFFFFFFFFFFFFFFFFFFFFFFFFFFF
310
FFFFFFFFFFFFFFFFFFFFFFFFFFFFFFFFF000FFFFFFFFFFFFFFFFFFFFFFFFFFFF
310
FFFFFFFFFFFFFFFFFFFFFFFFFFFFFFFFFFFFFFFFFFFFFFFFFFFFFFFFFFFFFFFF
310
FFFFFFFFFFFFFFFFFFFFFFFFFFFFFFFFFFFFFFFFFFFFFFFFFFFFFFFFFFFFFFFF
310
FFFFFFFFFFFFFFFFF000FFFFFFFFFFFFFFFFFFFFFFFFFFFFFFFFFFFFFFFFFFFF
310
FFFFFFFFFFFFFFFFFFFFFFFFFFFFFFFFFFFFFFFFFFFFFFFFFFFFFFFFFFFFFFFF
310
FFFFFFFFFFFFFFFFFFFFFFFFFFFFFFFFFFFFFFFFFFFFFFFFFFFFFFFFFFFFFFFF
310
F000FFFFFFFFFFFFFFFFFFFFFFFFFFFFFFFFFFFFFFFFFFFFFFFFFFFFFFFFFFFF
310
FFFFFFFFFFFFFFFFFFFFFFFFFFFFFFFFFFFFFFFFFFFFFFFFFFFFFFFFFFFFFFFF
310
FFFFFFFFFFFFFFFFFFFFFFFFFFFFFFFFFFFFFFFFFFFFFFFFF000FFFFFFFFFFFF
310
FFFFFFFFFFFFFFFFFFFFFFFFFFFFFFFFFFFFFFFFFFFFFFFFFFFFFFFFFFFFFFFF
310
FFFFFFFFFFFFFFFFFFFFFFFFFFFFFFFFFFFFFFFFFFFFFFFFFFFFFFFFFFFFFFFF
310
FFFFFFFFFFFFFFFFFFFFFFFFFFFFFFFFF000FFFFFFFFFFFFFFFFFFFFFFFFFFFF
310
FFFFFFFFFFFFFFFFFFFFFFFFFFFFFFFFFFFFFFFFFFFFFFFFFFFFFFFFFFFFFFFF
310
FFFFFFFFFFFFFFFFFFFFFFFFFFFFFFFFFFFFFFFFFFFFFFFFFFFFFFFFFFFFFFFF
310
FFFFFFFFFFFFFFFFF000FFFFFFFFFFFFFFFFFFFFFFFFFFFFFFFFFFFFFFFFFFFF
310
FFFFFFFFFFFFFFFFFFFFFFFFFFFFFFFFFFFFFFFFFFFFFFFFFFFFFFFFFFFFFFFF
310
FFFFFFFFFFFFFFFFFFFFFFFFFFFFFFFFFFFFFFFFFFFFFFFFFFFFFFFFFFFFFFFF
310
F000FFFFFFFFFFFFFFFFFFFFFFFFFFFFFFFFFFFFFFFFFFFFFFFFFFFFFFFFFFFF
310
FFFFFFFFFFFFFFFFFFFFFFFFFFFFFFFFFFFFFFFFFFFFFFFFFFFFFFFFFFFFFFFF
310
FFFFFFFFFFFFFFFFFFFFFFFFFFFFFFFFFFFFFFFFFFFFFFFFF000FFFFFFFFFFFF
310
FFFFFFFFFFFFFFFFFFFFFFFFFFFFFFFFFFFFFFFFFFFFFFFFFFFFFFFFFFFFFFFF
310
FFFFFFFFFFFFFFFFFFFFFFFFFFFFFFFFFFFFFFFFFFFFFFFFFFFFFFFFFFFFFFFF
310
FFFFFFFFFFFFFFFFFFFFFFFFFFFFFFFFF000FFFFFFFFFFFFFFFFFFFFFFFFFFFF
310
FFFFFFFFFFFFFFFFFFFFFFFFFFFFFFFFFFFFFFFFFFFFFFFFFFFFFFFFFFFFFFFF
310
FFFFFFFFFFFFFFFFFFFFFFFFFFFFFFFFFFFFFFFFFFFFFFFFFFFFFFFFFFFFFFFF
310
FFFFFFFFFFFFFFFFF000FFFFFFFFFFFFFFFFFFFFFFFFFFFFFFFFFFFFFFFFFFFF
310
FFFFFFFFFFFFFFFFFFFFFFFFFFFFFFFFFFFFFFFFFFFFFFFFFFFFFFFFFFFFFFFF
310
FFFFFFFFFFFFFFFFFFFFFFFFFFFFFFFFFFFFFFFFFFFFFFFFFFFFFFFFFFFFFFFF
310
F000FFFFFFFFFFFFFFFFFFFFFFFFFFFFFFFFFFFFFFFFFFFFFFFFFFFFFFFFFFFF
310
FFFFFFFFFFFFFFFFFFFFFFFFFFFFFFFFFFFFFFFFFFFFFFFFFFFFFFFFFFFFFFFF
310
FFFFFFFFFFFFFFFFFFFFFFFFFFFFFFFFFFFFFFFFFFFFFFFFF000FFFFFFFFFFFF
310
FFFFFFFFFFFFFFFFFFFFFFFFFFFFFFFFFFFFFFFFFFFFFFFFFFFFFFFFFFFFFFFF
310
FFFFFFFFFFFFFFFFFFFFFFFFFFFFFFFFFFFFFFFFFFFFFFFFFFFFFFFFFFFFFFFF
310
FFFFFFFFFFFFFFFFFFFFFFFFFFFFFFFFF000FFFFFFFFFFFFFFFFFFFFFFFFFFFF
310
FFFFFFFFFFFFFFFFFFFFFFFFFFFFFFFFFFFFFFFFFFFFFFFFFFFFFFFFFFFFFFFF
310
FFFFFFFFFFFFFFFFFFFFFFFFFFFFFFFFFFFFFFFFFFFFFFFFFFFFFFFFFFFFFFFF
310
FFFFFFFFFFFFFFFFF000FFFFFFFFFFFFFFFFFFFFFFFFFFFFFFFFFFFFFFFFFFFF
310
FFFFFFFFFFFFFFFFFFFFFFFFFFFFFFFFFFFFFFFFFFFFFFFFFFFFFFFFFFFFFFFF
310
FFFFFFFFFFFFFFFFFFFFFFFFFFFFFFFFFFFFFFFFFFFFFFFFFFFFFFFFFFFFFFFF
310
F000FFFFFFFFFFFFFFFFFFFFFFFFFFFFFFFFFFFFFFFFFFFFFFFFFFFFFFFFFFFF
310
FFFFFFFFFFFFFFFFFFFFFFFFFFFFFFFFFFFFFFFFFFFFFFFFFFFFFFFFFFFFFFFF
310
FFFFFFFFFFFFFFFFFFFFFFFFFFFFFFFFFFFFFFFFFFFFFFFFF000FFFFFFFFFFFF
310
FFFFFFFFFFFFFFFFFFFFFFFFFFFFFFFFFFFFFFFFFFFFFFFFFFFFFFFFFFFFFFFF
310
FFFFFFFFFFFFFFFFFFFFFFFFFFFFFFFFFFFFFFFFFFFFFFFFFFFFFFFFFFFFFFFF
310
FFFFFFFFFFFFFFFFFFFFFFFFFFFFFFFFF0000000000000000000000000000000
310
0000000000000000000000000000000000000000000000000000000000000000
310
0000000000000000000000000000000000000000000000000000000000000000
310
0000000000000000000000000000000000000000000000000000000000000000
310
0000000000000000000000000000000000000000000000000000000000000000
310
0000000000000000000000000000000000000000000000000000000000000000
310
0000000000000000000000000000000000000000000000000000000000000000
310
0000000000000000000000000000000000000000000000000000000000000000
310
0000000000000000000000000000000000000000000000000000000000000000
310
0000000000000000000000000000000000000000000000000000000000000000
310
0000000000000000000000000000000000000000000000000000000000000000
310
0000000000000000000000000000000000000000000000000000000000000000
310
0000000000000000000000000000000000000000000000000000000000000000
310
0000000000000000000000000000000000000000000000000000000000000000
310
0000000000000000000000000000000000000000000000000000000000000000
310
0000000000000000000000000000000000000000000000000000000000000000
  1
OLE
  0
ENDSEC
  0
SECTION
  2
OBJECTS
  0
DICTIONARY
  5
C
330
0
100
AcDbDictionary
281
     1
  3
ACAD_GROUP
350
D
  3
ACAD_LAYOUT
350
1A
  3
ACAD_MLINESTYLE
350
17
  3
ACAD_PLOTSETTINGS
350
19
  3
ACAD_PLOTSTYLENAME
350
E
  3
ACAD_SCALELIST
350
47
  0
DICTIONARY
  5
D
102
{ACAD_REACTORS
330
C
102
}
330
C
100
AcDbDictionary
281
     1
  0
DICTIONARY
  5
1A
102
{ACAD_REACTORS
330
C
102
}
330
C
100
AcDbDictionary
281
     1
  3
Layout1
350
1E
  3
Layout2
350
26
  3
Model
350
22
  0
DICTIONARY
  5
17
102
{ACAD_REACTORS
330
C
102
}
330
C
100
AcDbDictionary
281
     1
  3
Standard
350
18
  0
DICTIONARY
  5
19
102
{ACAD_REACTORS
330
C
102
}
330
C
100
AcDbDictionary
281
     1
  0
ACDBDICTIONARYWDFLT
  5
E
102
{ACAD_REACTORS
330
C
102
}
330
C
100
AcDbDictionary
281
     1
  3
Normal
350
F
100
AcDbDictionaryWithDefault
340
F
  0
DICTIONARY
  5
47
102
{ACAD_REACTORS
330
C
102
}
330
C
100
AcDbDictionary
281
     1
  3
A0
350
48
  3
A1
350
49
  3
A2
350
4A
  3
A3
350
4B
  3
A4
350
4C
  3
A5
350
4D
  3
A6
350
4E
  3
A7
350
4F
  3
A8
350
50
  3
A9
350
51
  3
B0
350
52
  3
B1
350
53
  3
B2
350
54
  3
B3
350
55
  3
B4
350
56
  3
B5
350
57
  3
B6
350
58
  3
B7
350
59
  3
B8
350
5A
  3
B9
350
5B
  3
C0
350
5C
  3
C1
350
5D
  3
C2
350
5E
  3
C3
350
5F
  3
C4
350
60
  3
C5
350
61
  3
C6
350
62
  3
C7
350
63
  3
C8
350
64
  3
C9
350
65
  3
D0
350
66
  3
D1
350
67
  3
D2
350
68
  0
LAYOUT
  5
1E
102
{ACAD_REACTORS
330
1A
102
}
330
1A
100
AcDbPlotSettings
  1

  2
none_device
  4

  6

 40
0.0
 41
0.0
 42
0.0
 43
0.0
 44
0.0
 45
0.0
 46
0.0
 47
0.0
 48
0.0
 49
0.0
140
0.0
141
0.0
142
1.0
143
1.0
 70
   688
 72
     1
 73
     0
 74
     5
  7

 75
    16
147
1.0
148
0.0
149
0.0
100
AcDbLayout
  1
Layout1
 70
     1
 71
     1
 10
0.0
 20
0.0
 11
420.0
 21
297.0
 12
0.0
 22
0.0
 32
0.0
 14
1.0000000000E+20
 24
1.0000000000E+20
 34
1.0000000000E+20
 15
-1.0000000000E+20
 25
-1.0000000000E+20
 35
-1.0000000000E+20
146
0.0
 13
0.0
 23
0.0
 33
0.0
 16
1.0
 26
0.0
 36
0.0
 17
0.0
 27
1.0
 37
0.0
 76
     0
330
1B
  0
LAYOUT
  5
26
102
{ACAD_REACTORS
330
1A
102
}
330
1A
100
AcDbPlotSettings
  1

  2
none_device
  4

  6

 40
0.0
 41
0.0
 42
0.0
 43
0.0
 44
0.0
 45
0.0
 46
0.0
 47
0.0
 48
0.0
 49
0.0
140
0.0
141
0.0
142
1.0
143
1.0
 70
   688
 72
     1
 73
     0
 74
     5
  7

 75
    16
147
1.0
148
0.0
149
0.0
100
AcDbLayout
  1
Layout2
 70
     1
 71
     2
 10
0.0
 20
0.0
 11
0.0
 21
0.0
 12
0.0
 22
0.0
 32
0.0
 14
0.0
 24
0.0
 34
0.0
 15
0.0
 25
0.0
 35
0.0
146
0.0
 13
0.0
 23
0.0
 33
0.0
 16
1.0
 26
0.0
 36
0.0
 17
0.0
 27
1.0
 37
0.0
 76
     0
330
23
  0
LAYOUT
  5
22
102
{ACAD_REACTORS
330
1A
102
}
330
1A
100
AcDbPlotSettings
  1

  2
none_device
  4
Letter_(8.50_x_11.00_Inches)
  6

 40
6.35
 41
6.35
 42
6.35000508
 43
6.35000508
 44
215.9
 45
279.4
 46
0.0
 47
0.0
 48
0.0
 49
0.0
140
0.0
141
0.0
142
1.0
143
1.0
 70
  1712
 72
     1
 73
     0
 74
     0
  7

 75
     0
147
1.0
148
0.0
149
0.0
100
AcDbLayout
  1
Model
 70
     1
 71
     0
 10
0.0
 20
0.0
 11
297.0
 21
210.0
 12
0.0
 22
0.0
 32
0.0
 14
0.0
 24
0.0
 34
0.0
 15
297.0
 25
210.0
 35
0.0
146
0.0
 13
0.0
 23
0.0
 33
0.0
 16
1.0
 26
0.0
 36
0.0
 17
0.0
 27
1.0
 37
0.0
 76
     0
330
1F
331
29
  0
MLINESTYLE
  5
18
102
{ACAD_REACTORS
330
17
102
}
330
17
100
AcDbMlineStyle
  2
Standard
 70
     0
  3

 62
   256
 51
90.0
 52
90.0
 71
     2
 49
0.5
 62
   256
  6
BYLAYER
 49
-0.5
 62
   256
  6
BYLAYER
  0
ACDBPLACEHOLDER
  5
F
102
{ACAD_REACTORS
330
E
102
}
330
E
  0
SCALE
  5
48
102
{ACAD_REACTORS
330
47
102
}
330
47
100
AcDbScale
 70
     0
300
1:1
140
1.0
141
1.0
290
     1
  0
SCALE
  5
49
102
{ACAD_REACTORS
330
47
102
}
330
47
100
AcDbScale
 70
     0
300
1:2
140
1.0
141
2.0
290
     0
  0
SCALE
  5
4A
102
{ACAD_REACTORS
330
47
102
}
330
47
100
AcDbScale
 70
     0
300
1:4
140
1.0
141
4.0
290
     0
  0
SCALE
  5
4B
102
{ACAD_REACTORS
330
47
102
}
330
47
100
AcDbScale
 70
     0
300
1:5
140
1.0
141
5.0
290
     0
  0
SCALE
  5
4C
102
{ACAD_REACTORS
330
47
102
}
330
47
100
AcDbScale
 70
     0
300
1:8
140
1.0
141
8.0
290
     0
  0
SCALE
  5
4D
102
{ACAD_REACTORS
330
47
102
}
330
47
100
AcDbScale
 70
     0
300
1:10
140
1.0
141
10.0
290
     0
  0
SCALE
  5
4E
102
{ACAD_REACTORS
330
47
102
}
330
47
100
AcDbScale
 70
     0
300
1:16
140
1.0
141
16.0
290
     0
  0
SCALE
  5
4F
102
{ACAD_REACTORS
330
47
102
}
330
47
100
AcDbScale
 70
     0
300
1:20
140
1.0
141
20.0
290
     0
  0
SCALE
  5
50
102
{ACAD_REACTORS
330
47
102
}
330
47
100
AcDbScale
 70
     0
300
1:30
140
1.0
141
30.0
290
     0
  0
SCALE
  5
51
102
{ACAD_REACTORS
330
47
102
}
330
47
100
AcDbScale
 70
     0
300
1:40
140
1.0
141
40.0
290
     0
  0
SCALE
  5
52
102
{ACAD_REACTORS
330
47
102
}
330
47
100
AcDbScale
 70
     0
300
1:50
140
1.0
141
50.0
290
     0
  0
SCALE
  5
53
102
{ACAD_REACTORS
330
47
102
}
330
47
100
AcDbScale
 70
     0
300
1:100
140
1.0
141
100.0
290
     0
  0
SCALE
  5
54
102
{ACAD_REACTORS
330
47
102
}
330
47
100
AcDbScale
 70
     0
300
2:1
140
2.0
141
1.0
290
     0
  0
SCALE
  5
55
102
{ACAD_REACTORS
330
47
102
}
330
47
100
AcDbScale
 70
     0
300
4:1
140
4.0
141
1.0
290
     0
  0
SCALE
  5
56
102
{ACAD_REACTORS
330
47
102
}
330
47
100
AcDbScale
 70
     0
300
8:1
140
8.0
141
1.0
290
     0
  0
SCALE
  5
57
102
{ACAD_REACTORS
330
47
102
}
330
47
100
AcDbScale
 70
     0
300
10:1
140
10.0
141
1.0
290
     0
  0
SCALE
  5
58
102
{ACAD_REACTORS
330
47
102
}
330
47
100
AcDbScale
 70
     0
300
100:1
140
100.0
141
1.0
290
     0
  0
SCALE
  5
59
102
{ACAD_REACTORS
330
47
102
}
330
47
100
AcDbScale
 70
     0
300
1/128" = 1'-0"
140
0.0078125
141
12.0
290
     0
  0
SCALE
  5
5A
102
{ACAD_REACTORS
330
47
102
}
330
47
100
AcDbScale
 70
     0
300
1/64" = 1'-0"
140
0.015625
141
12.0
290
     0
  0
SCALE
  5
5B
102
{ACAD_REACTORS
330
47
102
}
330
47
100
AcDbScale
 70
     0
300
1/32" = 1'-0"
140
0.03125
141
12.0
290
     0
  0
SCALE
  5
5C
102
{ACAD_REACTORS
330
47
102
}
330
47
100
AcDbScale
 70
     0
300
1/16" = 1'-0"
140
0.0625
141
12.0
290
     0
  0
SCALE
  5
5D
102
{ACAD_REACTORS
330
47
102
}
330
47
100
AcDbScale
 70
     0
300
3/32" = 1'-0"
140
0.09375
141
12.0
290
     0
  0
SCALE
  5
5E
102
{ACAD_REACTORS
330
47
102
}
330
47
100
AcDbScale
 70
     0
300
1/8" = 1'-0"
140
0.125
141
12.0
290
     0
  0
SCALE
  5
5F
102
{ACAD_REACTORS
330
47
102
}
330
47
100
AcDbScale
 70
     0
300
3/16" = 1'-0"
140
0.1875
141
12.0
290
     0
  0
SCALE
  5
60
102
{ACAD_REACTORS
330
47
102
}
330
47
100
AcDbScale
 70
     0
300
1/4" = 1'-0"
140
0.25
141
12.0
290
     0
  0
SCALE
  5
61
102
{ACAD_REACTORS
330
47
102
}
330
47
100
AcDbScale
 70
     0
300
3/8" = 1'-0"
140
0.375
141
12.0
290
     0
  0
SCALE
  5
62
102
{ACAD_REACTORS
330
47
102
}
330
47
100
AcDbScale
 70
     0
300
1/2" = 1'-0"
140
0.5
141
12.0
290
     0
  0
SCALE
  5
63
102
{ACAD_REACTORS
330
47
102
}
330
47
100
AcDbScale
 70
     0
300
3/4" = 1'-0"
140
0.75
141
12.0
290
     0
  0
SCALE
  5
64
102
{ACAD_REACTORS
330
47
102
}
330
47
100
AcDbScale
 70
     0
300
1" = 1'-0"
140
1.0
141
12.0
290
     0
  0
SCALE
  5
65
102
{ACAD_REACTORS
330
47
102
}
330
47
100
AcDbScale
 70
     0
300
1-1/2" = 1'-0"
140
1.5
141
12.0
290
     0
  0
SCALE
  5
66
102
{ACAD_REACTORS
330
47
102
}
330
47
100
AcDbScale
 70
     0
300
3" = 1'-0"
140
3.0
141
12.0
290
     0
  0
SCALE
  5
67
102
{ACAD_REACTORS
330
47
102
}
330
47
100
AcDbScale
 70
     0
300
6" = 1'-0"
140
6.0
141
12.0
290
     0
  0
SCALE
  5
68
102
{ACAD_REACTORS
330
47
102
}
330
47
100
AcDbScale
 70
     0
300
1'-0" = 1'-0"
140
12.0
141
12.0
290
     0
  0
ENDSEC
  0
EOF
