  0
SECTION
  2
HEADER
  9
$ACADVER
  1
AC1015
  9
$ACADMAINTVER
 70
     6
  9
$DWGCODEPAGE
  3
ANSI_1252
  9
$INSBASE
 10
0.0
 20
0.0
 30
0.0
  9
$EXTMIN
 10
0.0
 20
0.0
 30
0.0
  9
$EXTMAX
 10
297.0
 20
210.0
 30
0.0
  9
$LIMMIN
 10
0.0
 20
0.0
  9
$LIMMAX
 10
297.0
 20
210.0
  9
$ORTHOMODE
 70
     0
  9
$REGENMODE
 70
     1
  9
$FILLMODE
 70
     1
  9
$QTEXTMODE
 70
     0
  9
$MIRRTEXT
 70
     1
  9
$LTSCALE
 40
1.0
  9
$ATTMODE
 70
     1
  9
$TEXTSIZE
 40
2.0
  9
$TRACEWID
 40
1.0
  9
$TEXTSTYLE
  7
Standard
  9
$CLAYER
  8
0
  9
$CELTYPE
  6
ByLayer
  9
$CECOLOR
 62
   256
  9
$CELTSCALE
 40
1.0
  9
$DISPSILH
 70
     0
  9
$DIMSCALE
 40
1.0
  9
$DIMASZ
 40
3.0
  9
$DIMEXO
 40
0.0
  9
$DIMDLI
 40
3.75
  9
$DIMRND
 40
0.0
  9
$DIMDLE
 40
0.0
  9
$DIMEXE
 40
1.0
  9
$DIMTP
 40
0.0
  9
$DIMTM
 40
0.0
  9
$DIMTXT
 40
2.0
  9
$DIMCEN
 40
2.5
  9
$DIMTSZ
 40
0.0
  9
$DIMTOL
 70
     0
  9
$DIMLIM
 70
     0
  9
$DIMTIH
 70
     1
  9
$DIMTOH
 70
     1
  9
$DIMSE1
 70
     0
  9
$DIMSE2
 70
     0
  9
$DIMTAD
 70
     1
  9
$DIMZIN
 70
     0
  9
$DIMBLK
  1

  9
$DIMASO
 70
     1
  9
$DIMSHO
 70
     1
  9
$DIMPOST
  1

  9
$DIMAPOST
  1

  9
$DIMALT
 70
     0
  9
$DIMALTD
 70
     3
  9
$DIMALTF
 40
0.0393700787
  9
$DIMLFAC
 40
1.0
  9
$DIMTOFL
 70
     1
  9
$DIMTVP
 40
0.0
  9
$DIMTIX
 70
     0
  9
$DIMSOXD
 70
     0
  9
$DIMSAH
 70
     0
  9
$DIMBLK1
  1

  9
$DIMBLK2
  1

  9
$DIMSTYLE
  2
ISO-25
  9
$DIMCLRD
 70
     0
  9
$DIMCLRE
 70
     0
  9
$DIMCLRT
 70
     0
  9
$DIMTFAC
 40
1.0
  9
$DIMGAP
 40
1.524
  9
$DIMJUST
 70
     0
  9
$DIMSD1
 70
     0
  9
$DIMSD2
 70
     0
  9
$DIMTOLJ
 70
     0
  9
$DIMTZIN
 70
     0
  9
$DIMALTZ
 70
     0
  9
$DIMALTTZ
 70
     0
  9
$DIMUPT
 70
     0
  9
$DIMDEC
 70
     2
  9
$DIMTDEC
 70
     3
  9
$DIMALTU
 70
     2
  9
$DIMALTTD
 70
     3
  9
$DIMTXSTY
  7
Standard
  9
$DIMAUNIT
 70
     0
  9
$DIMADEC
 70
     2
  9
$DIMALTRND
 40
0.0
  9
$DIMAZIN
 70
     0
  9
$DIMDSEP
 70
    44
  9
$DIMATFIT
 70
     3
  9
$DIMFRAC
 70
     0
  9
$DIMLDRBLK
  1

  9
$DIMLUNIT
 70
     2
  9
$DIMLWD
 70
    -2
  9
$DIMLWE
 70
    -2
  9
$DIMTMOVE
 70
     0
  9
$LUNITS
 70
     2
  9
$LUPREC
 70
     2
  9
$SKETCHINC
 40
1.0
  9
$FILLETRAD
 40
10.0
  9
$AUNITS
 70
     0
  9
$AUPREC
 70
     2
  9
$MENU
  1
.
  9
$ELEVATION
 40
0.0
  9
$PELEVATION
 40
0.0
  9
$THICKNESS
 40
0.0
  9
$LIMCHECK
 70
     0
  9
$CHAMFERA
 40
0.0
  9
$CHAMFERB
 40
0.0
  9
$CHAMFERC
 40
0.0
  9
$CHAMFERD
 40
0.0
  9
$SKPOLY
 70
     0
  9
$TDCREATE
 40
2457672.410071551
  9
$TDUCREATE
 40
2457672.326738217
  9
$TDUPDATE
 40
2457672.410072893
  9
$TDUUPDATE
 40
2457672.32673956
  9
$TDINDWG
 40
0.0000000116
  9
$TDUSRTIMER
 40
0.0000000116
  9
$USRTIMER
 70
     1
  9
$ANGBASE
 50
0.0
  9
$ANGDIR
 70
     0
  9
$PDMODE
 70
     0
  9
$PDSIZE
 40
-1.0
  9
$PLINEWID
 40
0.0
  9
$SPLFRAME
 70
     0
  9
$SPLINETYPE
 70
     6
  9
$SPLINESEGS
 70
     8
  9
$HANDSEED
  5
253
  9
$SURFTAB1
 70
     6
  9
$SURFTAB2
 70
     6
  9
$SURFTYPE
 70
     6
  9
$SURFU
 70
     6
  9
$SURFV
 70
     6
  9
$UCSBASE
  2

  9
$UCSNAME
  2

  9
$UCSORG
 10
0.0
 20
0.0
 30
0.0
  9
$UCSXDIR
 10
1.0
 20
0.0
 30
0.0
  9
$UCSYDIR
 10
0.0
 20
1.0
 30
0.0
  9
$UCSORTHOREF
  2

  9
$UCSORTHOVIEW
 70
     0
  9
$UCSORGTOP
 10
0.0
 20
0.0
 30
0.0
  9
$UCSORGBOTTOM
 10
0.0
 20
0.0
 30
0.0
  9
$UCSORGLEFT
 10
0.0
 20
0.0
 30
0.0
  9
$UCSORGRIGHT
 10
0.0
 20
0.0
 30
0.0
  9
$UCSORGFRONT
 10
0.0
 20
0.0
 30
0.0
  9
$UCSORGBACK
 10
0.0
 20
0.0
 30
0.0
  9
$PUCSBASE
  2

  9
$PUCSNAME
  2

  9
$PUCSORG
 10
0.0
 20
0.0
 30
0.0
  9
$PUCSXDIR
 10
1.0
 20
0.0
 30
0.0
  9
$PUCSYDIR
 10
0.0
 20
1.0
 30
0.0
  9
$PUCSORTHOREF
  2

  9
$PUCSORTHOVIEW
 70
     0
  9
$PUCSORGTOP
 10
0.0
 20
0.0
 30
0.0
  9
$PUCSORGBOTTOM
 10
0.0
 20
0.0
 30
0.0
  9
$PUCSORGLEFT
 10
0.0
 20
0.0
 30
0.0
  9
$PUCSORGRIGHT
 10
0.0
 20
0.0
 30
0.0
  9
$PUCSORGFRONT
 10
0.0
 20
0.0
 30
0.0
  9
$PUCSORGBACK
 10
0.0
 20
0.0
 30
0.0
  9
$USERI1
 70
     0
  9
$USERI2
 70
     0
  9
$USERI3
 70
     0
  9
$USERI4
 70
     0
  9
$USERI5
 70
     0
  9
$USERR1
 40
0.0
  9
$USERR2
 40
0.0
  9
$USERR3
 40
0.0
  9
$USERR4
 40
0.0
  9
$USERR5
 40
0.0
  9
$WORLDVIEW
 70
     1
  9
$SHADEDGE
 70
     3
  9
$SHADEDIF
 70
    70
  9
$TILEMODE
 70
     1
  9
$MAXACTVP
 70
    64
  9
$PINSBASE
 10
0.0
 20
0.0
 30
0.0
  9
$PLIMCHECK
 70
     0
  9
$PEXTMIN
 10
1.0000000000E+20
 20
1.0000000000E+20
 30
1.0000000000E+20
  9
$PEXTMAX
 10
-1.0000000000E+20
 20
-1.0000000000E+20
 30
-1.0000000000E+20
  9
$PLIMMIN
 10
0.0
 20
0.0
  9
$PLIMMAX
 10
420.0
 20
297.0
  9
$UNITMODE
 70
     0
  9
$VISRETAIN
 70
     1
  9
$PLINEGEN
 70
     0
  9
$PSLTSCALE
 70
     1
  9
$TREEDEPTH
 70
  3020
  9
$CMLSTYLE
  2
Standard
  9
$CMLJUST
 70
     0
  9
$CMLSCALE
 40
20.0
  9
$PROXYGRAPHICS
 70
     1
  9
$MEASUREMENT
 70
     1
  9
$CELWEIGHT
370
    -1
  9
$ENDCAPS
280
     0
  9
$JOINSTYLE
280
     0
  9
$LWDISPLAY
290
     1
  9
$INSUNITS
 70
     4
  9
$HYPERLINKBASE
  1

  9
$STYLESHEET
  1

  9
$XEDIT
290
     1
  9
$CEPSNTYPE
380
     0
  9
$PSTYLEMODE
290
     1
  9
$FINGERPRINTGUID
  2
{80AB7A31-F86F-4772-8AA4-333E69FEFCDE}
  9
$VERSIONGUID
  2
{FAEB1C32-E019-11D5-929B-00C0DF256EC4}
  9
$EXTNAMES
290
     1
  9
$PSVPSCALE
 40
0.0
  9
$OLESTARTUP
290
     0
  0
ENDSEC
  0
SECTION
  2
CLASSES
  0
CLASS
  1
ACDBDICTIONARYWDFLT
  2
AcDbDictionaryWithDefault
  3
ObjectDBX Classes
 90
        0
280
     0
281
     0
  0
CLASS
  1
VISUALSTYLE
  2
AcDbVisualStyle
  3
ObjectDBX Classes
 90
     4095
280
     0
281
     0
  0
CLASS
  1
MATERIAL
  2
AcDbMaterial
  3
ObjectDBX Classes
 90
     1153
280
     0
281
     0
  0
CLASS
  1
SCALE
  2
AcDbScale
  3
ObjectDBX Classes
 90
     1153
280
     0
281
     0
  0
CLASS
  1
TABLESTYLE
  2
AcDbTableStyle
  3
ObjectDBX Classes
 90
     4095
280
     0
281
     0
  0
CLASS
  1
MLEADERSTYLE
  2
AcDbMLeaderStyle
  3
ACDB_MLEADERSTYLE_CLASS
 90
     4095
280
     0
281
     0
  0
CLASS
  1
SUN
  2
AcDbSun
  3
SCENEOE
 90
     1153
280
     0
281
     0
  0
CLASS
  1
ACDBPLACEHOLDER
  2
AcDbPlaceHolder
  3
ObjectDBX Classes
 90
        0
280
     0
281
     0
  0
CLASS
  1
LAYOUT
  2
AcDbLayout
  3
ObjectDBX Classes
 90
        0
280
     0
281
     0
  0
ENDSEC
  0
SECTION
  2
TABLES
  0
TABLE
  2
VPORT
  5
8
330
0
100
AcDbSymbolTable
 70
     1
  0
VPORT
  5
29
330
8
100
AcDbSymbolTableRecord
100
AcDbViewportTableRecord
  2
*Active
 70
     0
 10
0.0
 20
0.0
 11
1.0
 21
1.0
 12
148.5
 22
105.0
 13
0.0
 23
0.0
 14
10.0
 24
10.0
 15
10.0
 25
10.0
 16
0.0
 26
0.0
 36
1.0
 17
0.0
 27
0.0
 37
0.0
 40
210.0
 41
1.4142857143
 42
50.0
 43
0.0
 44
0.0
 50
0.0
 51
0.0
 71
     0
 72
  2000
 73
     1
 74
     3
 75
     0
 76
     0
 77
     0
 78
     0
281
     0
 65
     1
110
0.0
120
0.0
130
0.0
111
1.0
121
0.0
131
0.0
112
0.0
122
1.0
132
0.0
 79
     0
146
0.0
  0
ENDTAB
  0
TABLE
  2
LTYPE
  5
5
330
0
100
AcDbSymbolTable
 70
     6
  0
LTYPE
  5
14
330
5
100
AcDbSymbolTableRecord
100
AcDbLinetypeTableRecord
  2
ByBlock
 70
     0
  3

 72
    65
 73
     0
 40
0.0
  0
LTYPE
  5
15
330
5
100
AcDbSymbolTableRecord
100
AcDbLinetypeTableRecord
  2
ByLayer
 70
     0
  3

 72
    65
 73
     0
 40
0.0
  0
LTYPE
  5
16
330
5
100
AcDbSymbolTableRecord
100
AcDbLinetypeTableRecord
  2
Continuous
 70
     0
  3
Solid line
 72
    65
 73
     0
 40
0.0
  0
LTYPE
  5
6E
330
5
100
AcDbSymbolTableRecord
100
AcDbLinetypeTableRecord
  2
HIDDEN
 70
     0
  3
Hidden __ __ __ __ __ __ __ __ __ __ __ __ __ __
 72
    65
 73
     2
 40
1.905
 49
1.27
 74
     0
 49
-0.635
 74
     0
  0
LTYPE
  5
6F
330
5
100
AcDbSymbolTableRecord
100
AcDbLinetypeTableRecord
  2
PHANTOM
 70
     0
  3
Phantom ______  __  __  ______  __  __  ______
 72
    65
 73
     6
 40
12.7
 49
6.35
 74
     0
 49
-1.27
 74
     0
 49
1.27
 74
     0
 49
-1.27
 74
     0
 49
1.27
 74
     0
 49
-1.27
 74
     0
  0
LTYPE
  5
70
330
5
100
AcDbSymbolTableRecord
100
AcDbLinetypeTableRecord
  2
CENTER
 70
     0
  3
Center ____ _ ____ _ ____ _ ____ _ ____ _ ____
 72
    65
 73
     4
 40
10.16
 49
6.35
 74
     0
 49
-1.27
 74
     0
 49
1.27
 74
     0
 49
-1.27
 74
     0
  0
LTYPE
  5
71
330
5
100
AcDbSymbolTableRecord
100
AcDbLinetypeTableRecord
  2
CENTERX2
 70
     0
  3
Center (2x) ________  __  ________  __  _____
 72
    65
 73
     4
 40
20.32
 49
12.7
 74
     0
 49
-2.54
 74
     0
 49
2.54
 74
     0
 49
-2.54
 74
     0
  0
LTYPE
  5
72
330
5
100
AcDbSymbolTableRecord
100
AcDbLinetypeTableRecord
  2
DOT2
 70
     0
  3
Dot (.5x) ........................................
 72
    65
 73
     2
 40
0.635
 49
0.0
 74
     0
 49
-0.635
 74
     0
  0
ENDTAB
  0
TABLE
  2
LAYER
  5
2
330
0
100
AcDbSymbolTable
 70
     5
  0
LAYER
  5
10
330
2
100
AcDbSymbolTableRecord
100
AcDbLayerTableRecord
  2
0
 70
     0
 62
     7
  6
Continuous
370
    -3
390
F
  0
LAYER
  5
73
330
2
100
AcDbSymbolTableRecord
100
AcDbLayerTableRecord
  2
FORMAT
 70
     0
 62
     7
  6
Continuous
370
    -3
390
F
  0
LAYER
  5
74
330
2
100
AcDbSymbolTableRecord
100
AcDbLayerTableRecord
  2
VERMASSUNG
 70
     0
 62
     7
  6
Continuous
370
    -3
390
F
  0
LAYER
  5
75
330
2
100
AcDbSymbolTableRecord
100
AcDbLayerTableRecord
  2
KOPF_DÜNN
 70
     0
 62
     7
  6
Continuous
370
    -3
390
F
  0
LAYER
  5
76
330
2
100
AcDbSymbolTableRecord
100
AcDbLayerTableRecord
  2
KOPF_DICK
 70
     0
 62
     7
  6
Continuous
370
    15
390
F
  0
ENDTAB
  0
TABLE
  2
STYLE
  5
3
330
0
100
AcDbSymbolTable
 70
     3
  0
STYLE
  5
11
330
3
100
AcDbSymbolTableRecord
100
AcDbTextStyleTableRecord
  2
Standard
 70
     0
 40
0.0
 41
1.0
 50
0.0
 71
     0
 42
2.0
  3
txt
  4

  0
STYLE
  5
77
330
3
100
AcDbSymbolTableRecord
100
AcDbTextStyleTableRecord
  2
SLDTEXTSTYLE0
 70
     0
 40
0.0
 41
0.7
 50
0.0
 71
     0
 42
2.0
  3
TXT
  4

  0
STYLE
  5
7B
330
3
100
AcDbSymbolTableRecord
100
AcDbTextStyleTableRecord
  2
SLDTEXTSTYLE1
 70
     0
 40
0.0
 41
0.6454545455
 50
0.0
 71
     0
 42
2.0
  3
TXT
  4

  0
ENDTAB
  0
TABLE
  2
VIEW
  5
6
330
0
100
AcDbSymbolTable
 70
     0
  0
ENDTAB
  0
TABLE
  2
UCS
  5
7
330
0
100
AcDbSymbolTable
 70
     0
  0
ENDTAB
  0
TABLE
  2
APPID
  5
9
330
0
100
AcDbSymbolTable
 70
     1
  0
APPID
  5
12
330
9
100
AcDbSymbolTableRecord
100
AcDbRegAppTableRecord
  2
ACAD
 70
     0
  0
ENDTAB
  0
TABLE
  2
DIMSTYLE
  5
A
330
0
100
AcDbSymbolTable
 70
     2
100
AcDbDimStyleTable
  0
DIMSTYLE
105
27
330
A
100
AcDbSymbolTableRecord
100
AcDbDimStyleTableRecord
  2
ISO-25
 70
     0
 41
2.5
 42
0.625
 43
3.75
 44
1.25
 73
     0
 74
     0
 77
     1
 78
     8
140
2.5
141
2.5
143
0.0393700787
147
0.625
171
     3
172
     1
178
     0
271
     2
272
     2
274
     3
278
    44
283
     0
284
     8
340
11
  0
DIMSTYLE
105
189
102
{ACAD_REACTORS
330
188
330
194
330
1A0
330
1AC
330
1B6
330
1C2
102
}
330
A
100
AcDbSymbolTableRecord
100
AcDbDimStyleTableRecord
  2
SLDDIMSTYLE0
 70
     0
 41
3.0
 44
0.0
 45
0.000000001
 73
     0
 74
     0
 77
     1
 78
    12
 79
     3
140
2.0
147
0.5
173
     1
178
     0
271
     2
272
     3
276
     2
284
    12
340
77
  0
ENDTAB
  0
TABLE
  2
BLOCK_RECORD
  5
1
330
0
100
AcDbSymbolTable
 70
     7
  0
BLOCK_RECORD
  5
1F
330
1
100
AcDbSymbolTableRecord
100
AcDbBlockTableRecord
  2
*Model_Space
340
22
  0
BLOCK_RECORD
  5
1B
330
1
100
AcDbSymbolTableRecord
100
AcDbBlockTableRecord
  2
*Paper_Space
340
1E
  0
BLOCK_RECORD
  5
23
330
1
100
AcDbSymbolTableRecord
100
AcDbBlockTableRecord
  2
*Paper_Space0
340
26
  0
BLOCK_RECORD
  5
18A
330
1
100
AcDbSymbolTableRecord
100
AcDbBlockTableRecord
  2
_D
340
0
  0
BLOCK_RECORD
  5
195
330
1
100
AcDbSymbolTableRecord
100
AcDbBlockTableRecord
  2
_D_1
340
0
  0
BLOCK_RECORD
  5
1A1
330
1
100
AcDbSymbolTableRecord
100
AcDbBlockTableRecord
  2
_D_2
340
0
  0
BLOCK_RECORD
  5
1AD
330
1
100
AcDbSymbolTableRecord
100
AcDbBlockTableRecord
  2
_D_3
340
0
  0
BLOCK_RECORD
  5
1B7
330
1
100
AcDbSymbolTableRecord
100
AcDbBlockTableRecord
  2
_D_4
340
0
  0
BLOCK_RECORD
  5
1C3
330
1
100
AcDbSymbolTableRecord
100
AcDbBlockTableRecord
  2
_D_5
340
0
  0
ENDTAB
  0
ENDSEC
  0
SECTION
  2
BLOCKS
  0
BLOCK
  5
20
330
1F
100
AcDbEntity
  8
0
100
AcDbBlockBegin
  2
*Model_Space
 70
     0
 10
0.0
 20
0.0
 30
0.0
  3
*Model_Space
  1

  0
ENDBLK
  5
21
330
1F
100
AcDbEntity
  8
0
100
AcDbBlockEnd
  0
BLOCK
  5
1C
330
1B
100
AcDbEntity
 67
     1
  8
0
100
AcDbBlockBegin
  2
*Paper_Space
 70
     0
 10
0.0
 20
0.0
 30
0.0
  3
*Paper_Space
  1

  0
ENDBLK
  5
1D
330
1B
100
AcDbEntity
 67
     1
  8
0
100
AcDbBlockEnd
  0
BLOCK
  5
24
330
23
100
AcDbEntity
  8
0
100
AcDbBlockBegin
  2
*Paper_Space0
 70
     0
 10
0.0
 20
0.0
 30
0.0
  3
*Paper_Space0
  1

  0
ENDBLK
  5
25
330
23
100
AcDbEntity
  8
0
100
AcDbBlockEnd
  0
BLOCK
  5
18B
330
18A
100
AcDbEntity
  8
0
100
AcDbBlockBegin
  2
_D
 70
     0
 10
0.0
 20
0.0
 30
0.0
  3
_D
  1

  0
SOLID
  5
18D
330
18A
100
AcDbEntity
  8
VERMASSUNG
100
AcDbTrace
 10
218.2727184243
 20
121.3505734674
 30
0.0
 11
217.8227184243
 21
118.3505734674
 31
0.0
 12
218.7227184243
 22
118.3505734674
 32
0.0
 13
218.7227184243
 23
118.3505734674
 33
0.0
  0
SOLID
  5
18E
330
18A
100
AcDbEntity
  8
VERMASSUNG
100
AcDbTrace
 10
218.2727184243
 20
93.3505734674
 30
0.0
 11
218.7227184243
 21
96.3505734674
 31
0.0
 12
217.8227184243
 22
96.3505734674
 32
0.0
 13
217.8227184243
 23
96.3505734674
 33
0.0
  0
LINE
  5
18F
330
18A
100
AcDbEntity
  8
VERMASSUNG
100
AcDbLine
 10
196.3757261961
 20
121.3505734674
 30
0.0
 11
219.2727184243
 21
121.3505734674
 31
0.0
  0
LINE
  5
190
330
18A
100
AcDbEntity
  8
VERMASSUNG
100
AcDbLine
 10
196.3757261961
 20
93.3505734674
 30
0.0
 11
219.2727184243
 21
93.3505734674
 31
0.0
  0
LINE
  5
191
330
18A
100
AcDbEntity
  8
VERMASSUNG
100
AcDbLine
 10
218.2727184243
 20
121.3505734674
 30
0.0
 11
218.2727184243
 21
93.3505734674
 31
0.0
  0
MTEXT
  5
192
330
18A
100
AcDbEntity
  8
VERMASSUNG
100
AcDbMText
 10
215.6945828865
 20
104.1463973603
 30
0.0
 40
2.0
 41
0.0
 71
     1
 72
     1
  1
%%c
  7
SLDTEXTSTYLE0
 11
-7.044195017643634E-15
 21
1.0
 31
0.0
 73
     1
 44
1.0
  0
MTEXT
  5
193
330
18A
100
AcDbEntity
  8
VERMASSUNG
100
AcDbMText
 10
215.6945828283
 20
107.7553695539
 30
0.0
 40
2.0
 41
0.0
 71
     1
 72
     1
  1
28
  7
SLDTEXTSTYLE0
 11
-7.044195017643634E-15
 21
1.0
 31
0.0
 73
     1
 44
1.0
  0
ENDBLK
  5
18C
330
18A
100
AcDbEntity
  8
0
100
AcDbBlockEnd
  0
BLOCK
  5
196
330
195
100
AcDbEntity
  8
0
100
AcDbBlockBegin
  2
_D_1
 70
     0
 10
0.0
 20
0.0
 30
0.0
  3
_D_1
  1

  0
SOLID
  5
198
330
195
100
AcDbEntity
  8
VERMASSUNG
100
AcDbTrace
 10
224.2727184243
 20
132.3505734674
 30
0.0
 11
223.8227184243
 21
129.3505734674
 31
0.0
 12
224.7227184243
 22
129.3505734674
 32
0.0
 13
224.7227184243
 23
129.3505734674
 33
0.0
  0
SOLID
  5
199
330
195
100
AcDbEntity
  8
VERMASSUNG
100
AcDbTrace
 10
224.2727184243
 20
82.3505734674
 30
0.0
 11
224.7227184243
 21
85.3505734674
 31
0.0
 12
223.8227184243
 22
85.3505734674
 32
0.0
 13
223.8227184243
 23
85.3505734674
 33
0.0
  0
LINE
  5
19A
330
195
100
AcDbEntity
  8
VERMASSUNG
100
AcDbLine
 10
209.4757261961
 20
132.3505734674
 30
0.0
 11
225.2727184243
 21
132.3505734674
 31
0.0
  0
LINE
  5
19B
330
195
100
AcDbEntity
  8
VERMASSUNG
100
AcDbLine
 10
209.4757261961
 20
82.3505734674
 30
0.0
 11
225.2727184243
 21
82.3505734674
 31
0.0
  0
LINE
  5
19C
330
195
100
AcDbEntity
  8
VERMASSUNG
100
AcDbLine
 10
224.2727184243
 20
132.3505734674
 30
0.0
 11
224.2727184243
 21
82.3505734674
 31
0.0
  0
MTEXT
  5
19D
330
195
100
AcDbEntity
  8
VERMASSUNG
100
AcDbMText
 10
221.4945831681
 20
101.2466455581
 30
0.0
 40
2.0
 41
0.0
 71
     1
 72
     1
  1
ST5
  7
SLDTEXTSTYLE0
 11
-7.044195017643634E-15
 21
1.0
 31
0.0
 73
     1
 44
1.0
  0
MTEXT
  5
19E
330
195
100
AcDbEntity
  8
VERMASSUNG
100
AcDbMText
 10
221.6945831194
 20
107.0466454843
 30
0.0
 40
2.0
 41
0.0
 71
     1
 72
     1
  1
%%c
  7
SLDTEXTSTYLE0
 11
-7.044195017643634E-15
 21
1.0
 31
0.0
 73
     1
 44
1.0
  0
MTEXT
  5
19F
330
195
100
AcDbEntity
  8
VERMASSUNG
100
AcDbMText
 10
221.6945828283
 20
110.6551213562
 30
0.0
 40
2.0
 41
0.0
 71
     1
 72
     1
  1
50
  7
SLDTEXTSTYLE0
 11
-7.044195017643634E-15
 21
1.0
 31
0.0
 73
     1
 44
1.0
  0
ENDBLK
  5
197
330
195
100
AcDbEntity
  8
0
100
AcDbBlockEnd
  0
BLOCK
  5
1A2
330
1A1
100
AcDbEntity
  8
0
100
AcDbBlockBegin
  2
_D_2
 70
     0
 10
0.0
 20
0.0
 30
0.0
  3
_D_2
  1

  0
ARC
  5
1A4
330
1A1
100
AcDbEntity
  8
VERMASSUNG
100
AcDbCircle
 10
196.7872220766
 20
145.9230843235
 30
0.0
 40
4.247059938537284
100
AcDbArc
 50
153.4349488229
 51
206.5650511771
  0
ARC
  5
1A5
330
1A1
100
AcDbEntity
  8
VERMASSUNG
100
AcDbCircle
 10
195.1642303155
 20
145.9230843235
 30
0.0
 40
4.247059938537284
100
AcDbArc
 50
333.4349488229
 51
26.5650511771
  0
SOLID
  5
1A6
330
1A1
100
AcDbEntity
  8
VERMASSUNG
100
AcDbTrace
 10
181.9757261961
 20
144.023741378
 30
0.0
 11
184.9757261961
 21
143.573741378
 31
0.0
 12
184.9757261961
 22
144.473741378
 32
0.0
 13
184.9757261961
 23
144.473741378
 33
0.0
  0
SOLID
  5
1A7
330
1A1
100
AcDbEntity
  8
VERMASSUNG
100
AcDbTrace
 10
209.9757261961
 20
144.023741378
 30
0.0
 11
206.9757261961
 21
144.473741378
 31
0.0
 12
206.9757261961
 22
143.573741378
 32
0.0
 13
206.9757261961
 23
143.573741378
 33
0.0
  0
LINE
  5
1A8
330
1A1
100
AcDbEntity
  8
VERMASSUNG
100
AcDbLine
 10
181.9757261961
 20
137.8505734674
 30
0.0
 11
181.9757261961
 21
145.023741378
 31
0.0
  0
LINE
  5
1A9
330
1A1
100
AcDbEntity
  8
VERMASSUNG
100
AcDbLine
 10
209.9757261961
 20
131.8505734674
 30
0.0
 11
209.9757261961
 21
145.023741378
 31
0.0
  0
LINE
  5
1AA
330
1A1
100
AcDbEntity
  8
VERMASSUNG
100
AcDbLine
 10
181.9757261961
 20
144.023741378
 30
0.0
 11
209.9757261961
 21
144.023741378
 31
0.0
  0
MTEXT
  5
1AB
330
1A1
100
AcDbEntity
  8
VERMASSUNG
100
AcDbMText
 10
194.5760361858
 20
146.601876974
 30
0.0
 40
2.0
 41
0.0
 71
     1
 72
     1
  1
28
  7
SLDTEXTSTYLE0
 73
     1
 44
1.0
  0
ENDBLK
  5
1A3
330
1A1
100
AcDbEntity
  8
0
100
AcDbBlockEnd
  0
BLOCK
  5
1AE
330
1AD
100
AcDbEntity
  8
0
100
AcDbBlockBegin
  2
_D_3
 70
     0
 10
0.0
 20
0.0
 30
0.0
  3
_D_3
  1

  0
SOLID
  5
1B0
330
1AD
100
AcDbEntity
  8
VERMASSUNG
100
AcDbTrace
 10
154.9757261961
 20
150.023741378
 30
0.0
 11
157.9757261961
 21
149.573741378
 31
0.0
 12
157.9757261961
 22
150.473741378
 32
0.0
 13
157.9757261961
 23
150.473741378
 33
0.0
  0
SOLID
  5
1B1
330
1AD
100
AcDbEntity
  8
VERMASSUNG
100
AcDbTrace
 10
209.9757261961
 20
150.023741378
 30
0.0
 11
206.9757261961
 21
150.473741378
 31
0.0
 12
206.9757261961
 22
149.573741378
 32
0.0
 13
206.9757261961
 23
149.573741378
 33
0.0
  0
LINE
  5
1B2
330
1AD
100
AcDbEntity
  8
VERMASSUNG
100
AcDbLine
 10
154.9757261961
 20
129.5755734674
 30
0.0
 11
154.9757261961
 21
151.023741378
 31
0.0
  0
LINE
  5
1B3
330
1AD
100
AcDbEntity
  8
VERMASSUNG
100
AcDbLine
 10
209.9757261961
 20
131.8505734674
 30
0.0
 11
209.9757261961
 21
151.023741378
 31
0.0
  0
LINE
  5
1B4
330
1AD
100
AcDbEntity
  8
VERMASSUNG
100
AcDbLine
 10
154.9757261961
 20
150.023741378
 30
0.0
 11
209.9757261961
 21
150.023741378
 31
0.0
  0
MTEXT
  5
1B5
330
1AD
100
AcDbEntity
  8
VERMASSUNG
100
AcDbMText
 10
181.0760361858
 20
152.601876974
 30
0.0
 40
2.0
 41
0.0
 71
     1
 72
     1
  1
55
  7
SLDTEXTSTYLE0
 73
     1
 44
1.0
  0
ENDBLK
  5
1AF
330
1AD
100
AcDbEntity
  8
0
100
AcDbBlockEnd
  0
BLOCK
  5
1B8
330
1B7
100
AcDbEntity
  8
0
100
AcDbBlockBegin
  2
_D_4
 70
     0
 10
0.0
 20
0.0
 30
0.0
  3
_D_4
  1

  0
ARC
  5
1BA
330
1B7
100
AcDbEntity
  8
VERMASSUNG
100
AcDbCircle
 10
148.9878914896
 20
157.9230843235
 30
0.0
 40
4.247059938537284
100
AcDbArc
 50
153.4349488229
 51
206.5650511771
  0
ARC
  5
1BB
330
1B7
100
AcDbEntity
  8
VERMASSUNG
100
AcDbCircle
 10
150.5635609025
 20
157.9230843235
 30
0.0
 40
4.247059938537284
100
AcDbArc
 50
333.4349488229
 51
26.5650511771
  0
SOLID
  5
1BC
330
1B7
100
AcDbEntity
  8
VERMASSUNG
100
AcDbTrace
 10
89.5757261961
 20
156.023741378
 30
0.0
 11
92.5757261961
 21
155.573741378
 31
0.0
 12
92.5757261961
 22
156.473741378
 32
0.0
 13
92.5757261961
 23
156.473741378
 33
0.0
  0
SOLID
  5
1BD
330
1B7
100
AcDbEntity
  8
VERMASSUNG
100
AcDbTrace
 10
209.9757261961
 20
156.023741378
 30
0.0
 11
206.9757261961
 21
156.473741378
 31
0.0
 12
206.9757261961
 22
155.573741378
 32
0.0
 13
206.9757261961
 23
155.573741378
 33
0.0
  0
LINE
  5
1BE
330
1B7
100
AcDbEntity
  8
VERMASSUNG
100
AcDbLine
 10
89.5757261961
 20
119.1733290645
 30
0.0
 11
89.5757261961
 21
157.023741378
 31
0.0
  0
LINE
  5
1BF
330
1B7
100
AcDbEntity
  8
VERMASSUNG
100
AcDbLine
 10
209.9757261961
 20
131.8505734674
 30
0.0
 11
209.9757261961
 21
157.023741378
 31
0.0
  0
LINE
  5
1C0
330
1B7
100
AcDbEntity
  8
VERMASSUNG
100
AcDbLine
 10
89.5757261961
 20
156.023741378
 30
0.0
 11
209.9757261961
 21
156.023741378
 31
0.0
  0
MTEXT
  5
1C1
330
1B7
100
AcDbEntity
  8
VERMASSUNG
100
AcDbMText
 10
146.7767055987
 20
158.601876974
 30
0.0
 40
2.0
 41
0.0
 71
     1
 72
     1
  1
120.4
  7
SLDTEXTSTYLE0
 73
     1
 44
1.0
  0
ENDBLK
  5
1B9
330
1B7
100
AcDbEntity
  8
0
100
AcDbBlockEnd
  0
BLOCK
  5
1C4
330
1C3
100
AcDbEntity
  8
0
100
AcDbBlockBegin
  2
_D_5
 70
     0
 10
0.0
 20
0.0
 30
0.0
  3
_D_5
  1

  0
SOLID
  5
1C6
330
1C3
100
AcDbEntity
  8
VERMASSUNG
100
AcDbTrace
 10
84.364686403
 20
138.8505734674
 30
0.0
 11
83.914686403
 21
135.8505734674
 31
0.0
 12
84.814686403
 22
135.8505734674
 32
0.0
 13
84.814686403
 23
135.8505734674
 33
0.0
  0
SOLID
  5
1C7
330
1C3
100
AcDbEntity
  8
VERMASSUNG
100
AcDbTrace
 10
84.364686403
 20
75.8505734674
 30
0.0
 11
84.814686403
 21
78.8505734674
 31
0.0
 12
83.914686403
 22
78.8505734674
 32
0.0
 13
83.914686403
 23
78.8505734674
 33
0.0
  0
LINE
  5
1C8
330
1C3
100
AcDbEntity
  8
VERMASSUNG
100
AcDbLine
 10
178.975722052
 20
138.8505734674
 30
0.0
 11
83.364686403
 21
138.8505734674
 31
0.0
  0
LINE
  5
1C9
330
1C3
100
AcDbEntity
  8
VERMASSUNG
100
AcDbLine
 10
178.9757269621
 20
75.8505734674
 30
0.0
 11
83.364686403
 21
75.8505734674
 31
0.0
  0
LINE
  5
1CA
330
1C3
100
AcDbEntity
  8
VERMASSUNG
100
AcDbLine
 10
84.364686403
 20
138.8505734674
 30
0.0
 11
84.364686403
 21
75.8505734674
 31
0.0
  0
MTEXT
  5
1CB
330
1C3
100
AcDbEntity
  8
VERMASSUNG
100
AcDbMText
 10
81.5865511468
 20
96.6460884005
 30
0.0
 40
2.0
 41
0.0
 71
     1
 72
     1
  1
MAS BT 40
  7
SLDTEXTSTYLE0
 11
-7.044195017643634E-15
 21
1.0
 31
0.0
 73
     1
 44
1.0
  0
MTEXT
  5
1CC
330
1C3
100
AcDbEntity
  8
VERMASSUNG
100
AcDbMText
 10
81.7865510981
 20
111.6460880652
 30
0.0
 40
2.0
 41
0.0
 71
     1
 72
     1
  1
%%c
  7
SLDTEXTSTYLE0
 11
-7.044195017643634E-15
 21
1.0
 31
0.0
 73
     1
 44
1.0
  0
MTEXT
  5
1CD
330
1C3
100
AcDbEntity
  8
VERMASSUNG
100
AcDbMText
 10
81.7865508071
 20
115.2556785138
 30
0.0
 40
2.0
 41
0.0
 71
     1
 72
     1
  1
63
  7
SLDTEXTSTYLE0
 11
-7.044195017643634E-15
 21
1.0
 31
0.0
 73
     1
 44
1.0
  0
ENDBLK
  5
1C5
330
1C3
100
AcDbEntity
  8
0
100
AcDbBlockEnd
  0
ENDSEC
  0
SECTION
  2
ENTITIES
  0
MTEXT
  5
78
330
1F
100
AcDbEntity
  8
KOPF_DÜNN
100
AcDbMText
 10
13.8892156294
 20
23.8442973028
 30
0.0
 40
3.0
 41
0.0
 71
     1
 72
     1
  1
134.640.050.055
  7
SLDTEXTSTYLE0
 73
     1
 44
1.0
  0
MTEXT
  5
79
330
1F
100
AcDbEntity
  8
VERMASSUNG
100
AcDbMText
 10
13.9329988022
 20
28.8834360957
 30
0.0
 40
3.0
 41
0.0
 71
     1
 72
     1
  1
Aufnahme_Master shank ST5
  7
SLDTEXTSTYLE0
 73
     1
 44
1.0
  0
MTEXT
  5
7A
330
1F
100
AcDbEntity
  8
VERMASSUNG
100
AcDbMText
 10
98.8601118557
 20
13.8365368761
 30
0.0
 40
2.0
 41
0.0
 71
     1
 72
     1
  1
Datum: 06.06.2008
  7
SLDTEXTSTYLE0
 73
     1
 44
1.0
  0
MTEXT
  5
7C
330
1F
100
AcDbEntity
  8
VERMASSUNG
100
AcDbMText
 10
13.933048693
 20
18.0482802738
 30
0.0
 40
2.0
 41
0.0
 71
     1
 72
     1
  1
MAS BT 40 B
  7
SLDTEXTSTYLE1
 73
     1
 44
1.0
  0
MTEXT
  5
7D
330
1F
100
AcDbEntity
  8
VERMASSUNG
100
AcDbMText
 10
13.9808475933
 20
13.9090974274
 30
0.0
 40
2.0
 41
0.0
 71
     1
 72
     1
  1
Gewicht: 1238g
  7
SLDTEXTSTYLE0
 73
     1
 44
1.0
  0
LINE
  5
7E
330
1F
100
AcDbEntity
  8
0
  6
Continuous
 62
     7
370
    15
100
AcDbLine
 10
178.9757286374
 20
75.8505734674
 30
0.0
 11
180.9757261961
 21
75.8505734674
 31
0.0
  0
LINE
  5
7F
330
1F
100
AcDbEntity
  8
0
  6
Continuous
 62
     7
370
    15
100
AcDbLine
 10
180.9757261961
 20
138.8505734674
 30
0.0
 11
178.975226026
 21
138.8505734674
 31
0.0
  0
ARC
  5
80
330
1F
100
AcDbEntity
  8
0
  6
Continuous
 62
     7
370
    15
100
AcDbCircle
 10
180.9757261961
 20
76.8505734674
 30
0.0
 40
1.0
100
AcDbArc
 50
270.0
 51
0.0
  0
ARC
  5
81
330
1F
100
AcDbEntity
  8
0
  6
Continuous
 62
     7
370
    15
100
AcDbCircle
 10
180.9757261961
 20
137.8505734674
 30
0.0
 40
1.0
100
AcDbArc
 50
0.0
 51
90.0
  0
ARC
  5
82
330
1F
100
AcDbEntity
  8
0
  6
Continuous
 62
     7
370
    15
100
AcDbCircle
 10
185.9757261961
 20
78.3505734674
 30
0.0
 40
4.0
100
AcDbArc
 50
90.0
 51
180.0
  0
ARC
  5
83
330
1F
100
AcDbEntity
  8
0
  6
Continuous
 62
     7
370
    15
100
AcDbCircle
 10
185.9757261961
 20
136.3505734674
 30
0.0
 40
4.0
100
AcDbArc
 50
180.0
 51
270.0
  0
LINE
  5
84
330
1F
100
AcDbEntity
  8
0
  6
Continuous
 62
     7
370
    15
100
AcDbLine
 10
209.4757261961
 20
132.3505734674
 30
0.0
 11
185.9757261961
 21
132.3505734674
 31
0.0
  0
LINE
  5
85
330
1F
100
AcDbEntity
  8
0
  6
Continuous
 62
     7
370
    15
100
AcDbLine
 10
185.9757261961
 20
82.3505734674
 30
0.0
 11
209.4757261961
 21
82.3505734674
 31
0.0
  0
LINE
  5
86
330
1F
100
AcDbEntity
  8
0
  6
Continuous
 62
     7
370
    15
100
AcDbLine
 10
209.4757261961
 20
82.3505734674
 30
0.0
 11
209.9757261961
 21
82.8505734674
 31
0.0
  0
LINE
  5
87
330
1F
100
AcDbEntity
  8
0
  6
Continuous
 62
     7
370
    15
100
AcDbLine
 10
209.9757261961
 20
131.8505734674
 30
0.0
 11
209.4757261961
 21
132.3505734674
 31
0.0
  0
ARC
  5
88
330
1F
100
AcDbEntity
  8
0
  6
Continuous
 62
     7
370
    15
100
AcDbCircle
 10
155.9757261961
 20
84.1255734674
 30
0.0
 40
1.000000000000018
100
AcDbArc
 50
46.4332475157
 51
90.0
  0
ARC
  5
89
330
1F
100
AcDbEntity
  8
0
  6
Continuous
 62
     7
370
    15
100
AcDbCircle
 10
155.9757261961
 20
130.5755734674
 30
0.0
 40
1.000000000000022
100
AcDbArc
 50
270.0
 51
313.5375569942
  0
LINE
  5
8A
330
1F
100
AcDbEntity
  8
0
  6
Continuous
 62
     7
370
    15
100
AcDbLine
 10
154.9757261961
 20
129.5755734674
 30
0.0
 11
90.431419303
 21
120.1628620455
 31
0.0
  0
LINE
  5
8B
330
1F
100
AcDbEntity
  8
0
  6
Continuous
 62
     7
370
    15
100
AcDbLine
 10
90.431419303
 20
94.5382848893
 30
0.0
 11
154.9757261961
 21
85.1255734674
 31
0.0
  0
LINE
  5
8C
330
1F
100
AcDbEntity
  8
0
  6
Continuous
 62
     7
370
    15
100
AcDbLine
 10
154.9757261961
 20
85.1255734674
 30
0.0
 11
155.9757261961
 21
85.1255734674
 31
0.0
  0
LINE
  5
8D
330
1F
100
AcDbEntity
  8
0
  6
Continuous
 62
     7
370
    15
100
AcDbLine
 10
155.9757261961
 20
129.5755734674
 30
0.0
 11
154.9757261961
 21
129.5755734674
 31
0.0
  0
ARC
  5
8E
330
1F
100
AcDbEntity
  8
0
  6
Continuous
 62
     7
370
    15
100
AcDbCircle
 10
90.5757261961
 20
95.5278178704
 30
0.0
 40
1.0
100
AcDbArc
 50
180.0
 51
261.7028550302
  0
ARC
  5
8F
330
1F
100
AcDbEntity
  8
0
  6
Continuous
 62
     7
370
    15
100
AcDbCircle
 10
90.5757261961
 20
119.1733290645
 30
0.0
 40
1.00000000000001
100
AcDbArc
 50
98.2971449698
 51
180.0
  0
SPLINE
  5
90
330
1F
100
AcDbEntity
  8
0
  6
Continuous
 62
     7
370
    15
100
AcDbSpline
210
0.0
220
0.0
230
1.0
 70
    24
 71
     3
 72
    11
 73
     7
 74
     0
 42
0.000000001
 43
0.00000001
 40
0.0
 40
0.0
 40
0.0
 40
0.0
 40
0.1285561766307345
 40
0.4801535797842241
 40
0.8150691831753872
 40
1.0
 40
1.0
 40
1.0
 40
1.0
 10
198.7840259171724
 20
109.5596582281028
 30
0.0
 10
198.8236534362922
 20
109.4503623975863
 30
0.0
 10
198.9716610673686
 20
109.0421456502204
 30
0.0
 10
199.2492085248208
 20
108.2766478208393
 30
0.0
 10
199.549733875634
 20
107.4477751450336
 30
0.0
 10
199.7107275035694
 20
107.0037419917124
 30
0.0
 10
199.7679995784743
 20
106.8457810814366
 30
0.0
  0
SPLINE
  5
91
330
1F
100
AcDbEntity
  8
0
  6
Continuous
 62
     7
370
    15
100
AcDbSpline
210
0.0
220
0.0
230
1.0
 70
    24
 71
     3
 72
    11
 73
     7
 74
     0
 42
0.000000001
 43
0.00000001
 40
0.0
 40
0.0
 40
0.0
 40
0.0
 40
0.2164543009645087
 40
0.4403089937225426
 40
0.7518987489759567
 40
1.0
 40
1.0
 40
1.0
 40
1.0
 10
195.9417525347585
 20
110.0644506140938
 30
0.0
 10
196.1364500278623
 20
110.0298720219364
 30
0.0
 10
196.5325015587714
 20
109.9595326244315
 30
0.0
 10
197.2674691149113
 20
109.8290011883687
 30
0.0
 10
198.0558574824989
 20
109.6889821291098
 30
0.0
 10
198.5603799265532
 20
109.5993781206088
 30
0.0
 10
198.7840259171724
 20
109.5596582281028
 30
0.0
  0
SPLINE
  5
92
330
1F
100
AcDbEntity
  8
0
  6
Continuous
 62
     7
370
    15
100
AcDbSpline
210
0.0
220
0.0
230
1.0
 70
    24
 71
     3
 72
    11
 73
     7
 74
     0
 42
0.000000001
 43
0.00000001
 40
0.0
 40
0.0
 40
0.0
 40
0.0
 40
0.2164543009644976
 40
0.4403089937225295
 40
0.7518987489759482
 40
1.0
 40
1.0
 40
1.0
 40
1.0
 10
194.0834528136464
 20
107.8553658534184
 30
0.0
 10
194.2107474994337
 20
108.0066895324208
 30
0.0
 10
194.4696889700143
 20
108.3145105206433
 30
0.0
 10
194.9502162877071
 20
108.8857453771864
 30
0.0
 10
195.4656705338332
 20
109.498500201936
 30
0.0
 10
195.7955311035032
 20
109.8906274510159
 30
0.0
 10
195.9417525347585
 20
110.0644506140938
 30
0.0
  0
SPLINE
  5
93
330
1F
100
AcDbEntity
  8
0
  6
Continuous
 62
     7
370
    15
100
AcDbSpline
210
0.0
220
0.0
230
1.0
 70
    24
 71
     3
 72
    11
 73
     7
 74
     0
 42
0.000000001
 43
0.00000001
 40
0.0
 40
0.0
 40
0.0
 40
0.0
 40
0.1849308168246143
 40
0.5198464202157772
 40
0.8714438233692637
 40
1.0
 40
1.0
 40
1.0
 40
1.0
 10
195.0674264749483
 20
105.1414887067521
 30
0.0
 10
195.0101544000433
 20
105.2994496170279
 30
0.0
 10
194.8491607721078
 20
105.7434827703492
 30
0.0
 10
194.5486354212948
 20
106.5723554461548
 30
0.0
 10
194.2710879638426
 20
107.337853275536
 30
0.0
 10
194.1230803327662
 20
107.7460700229019
 30
0.0
 10
194.0834528136464
 20
107.8553658534184
 30
0.0
  0
SPLINE
  5
94
330
1F
100
AcDbEntity
  8
0
  6
Continuous
 62
     7
370
    15
100
AcDbSpline
210
0.0
220
0.0
230
1.0
 70
    24
 71
     3
 72
    11
 73
     7
 74
     0
 42
0.000000001
 43
0.00000001
 40
0.0
 40
0.0
 40
0.0
 40
0.0
 40
0.2164543009645051
 40
0.4403089937225385
 40
0.7518987489759479
 40
1.0
 40
1.0
 40
1.0
 40
1.0
 10
197.9096998573623
 20
104.6366963207612
 30
0.0
 10
197.7150023642585
 20
104.6712749129186
 30
0.0
 10
197.3189508333494
 20
104.7416143104234
 30
0.0
 10
196.5839832772095
 20
104.8721457464863
 30
0.0
 10
195.7955949096218
 20
105.0121648057451
 30
0.0
 10
195.2910724655675
 20
105.1017688142462
 30
0.0
 10
195.0674264749483
 20
105.1414887067521
 30
0.0
  0
SPLINE
  5
95
330
1F
100
AcDbEntity
  8
0
  6
Continuous
 62
     7
370
    15
100
AcDbSpline
210
0.0
220
0.0
230
1.0
 70
    24
 71
     3
 72
    11
 73
     7
 74
     0
 42
0.000000001
 43
0.00000001
 40
0.0
 40
0.0
 40
0.0
 40
0.0
 40
0.2164543009645012
 40
0.4403089937225339
 40
0.7518987489759469
 40
1.0
 40
1.0
 40
1.0
 40
1.0
 10
199.7679995784743
 20
106.8457810814366
 30
0.0
 10
199.640704892687
 20
106.6944574024342
 30
0.0
 10
199.3817634221064
 20
106.3866364142116
 30
0.0
 10
198.9012361044136
 20
105.8154015576686
 30
0.0
 10
198.3857818582876
 20
105.2026467329189
 30
0.0
 10
198.0559212886176
 20
104.810519483839
 30
0.0
 10
197.9096998573623
 20
104.6366963207612
 30
0.0
  0
CIRCLE
  5
96
330
1F
100
AcDbEntity
  8
0
  6
Continuous
 62
     7
370
    15
100
AcDbCircle
 10
196.9257261961
 20
107.3505734674
 30
0.0
 40
3.000000000000009
  0
CIRCLE
  5
97
330
1F
100
AcDbEntity
  8
0
  6
Continuous
 62
     7
370
    15
100
AcDbCircle
 10
196.9257261961
 20
107.3505734674
 30
0.0
 40
4.499999999999982
  0
CIRCLE
  5
98
330
1F
100
AcDbEntity
  8
0
  6
Continuous
 62
     7
370
    15
100
AcDbCircle
 10
196.9257261961
 20
107.3505734674
 30
0.0
 40
4.999999999999969
  0
ARC
  5
99
330
1F
100
AcDbEntity
  8
0
  6
Continuous
 62
     7
370
    15
100
AcDbCircle
 10
196.9257261961
 20
107.3505734674
 30
0.0
 40
2.499999999999979
100
AcDbArc
 50
19.9291856251
 51
79.9291856251
  0
ARC
  5
9A
330
1F
100
AcDbEntity
  8
0
  6
Continuous
 62
     7
370
    15
100
AcDbCircle
 10
196.9257261961
 20
107.3505734674
 30
0.0
 40
2.500000000000016
100
AcDbArc
 50
259.9291856251
 51
319.9291856251
  0
ARC
  5
9B
330
1F
100
AcDbEntity
  8
0
  6
Continuous
 62
     7
370
    15
100
AcDbCircle
 10
196.9257261961
 20
107.3505734674
 30
0.0
 40
2.500000000000002
100
AcDbArc
 50
319.9291856251
 51
19.9291856251
  0
ARC
  5
9C
330
1F
100
AcDbEntity
  8
0
  6
Continuous
 62
     7
370
    15
100
AcDbCircle
 10
196.9257261961
 20
107.3505734674
 30
0.0
 40
2.500000000000024
100
AcDbArc
 50
79.9291856251
 51
139.9291856251
  0
ARC
  5
9D
330
1F
100
AcDbEntity
  8
0
  6
Continuous
 62
     7
370
    15
100
AcDbCircle
 10
196.9257261961
 20
107.3505734674
 30
0.0
 40
2.500000000000027
100
AcDbArc
 50
199.9291856251
 51
259.9291856251
  0
ARC
  5
9E
330
1F
100
AcDbEntity
  8
0
  6
Continuous
 62
     7
370
    15
100
AcDbCircle
 10
196.9257261961
 20
107.3505734674
 30
0.0
 40
2.500000000000027
100
AcDbArc
 50
139.9291856251
 51
199.9291856251
  0
SPLINE
  5
9F
330
1F
100
AcDbEntity
  8
0
  6
Continuous
 62
     7
370
    15
100
AcDbSpline
210
0.0
220
0.0
230
1.0
 70
     8
 71
     3
 72
    11
 73
     7
 74
     0
 42
0.000000001
 43
0.00000001
 40
0.0
 40
0.0
 40
0.0
 40
0.0
 40
0.2488814606695658
 40
0.5011921284368381
 40
0.7520447562540515
 40
1.0
 40
1.0
 40
1.0
 40
1.0
 10
178.9752260260433
 20
138.850423722021
 30
0.0
 10
178.9454476965439
 20
138.8412916958767
 30
0.0
 10
178.8854807375628
 20
138.8229018181899
 30
0.0
 10
178.393558675816
 20
138.6788645697048
 30
0.0
 10
177.6654892531966
 20
138.4694614915936
 30
0.0
 10
176.954745782019
 20
138.2972572222447
 30
0.0
 10
176.6014382648693
 20
138.211655221926
 30
0.0
  0
SPLINE
  5
A0
330
1F
100
AcDbEntity
  8
0
  6
Continuous
 62
     7
370
    15
100
AcDbSpline
210
0.0
220
0.0
230
1.0
 70
     8
 71
     3
 72
    24
 73
    20
 74
     0
 42
0.000000001
 43
0.00000001
 40
0.0
 40
0.0
 40
0.0
 40
0.0
 40
0.0452116786032998
 40
0.0902980055875491
 40
0.1353071805071614
 40
0.1802876509157211
 40
0.2252879570545165
 40
0.2703565750507242
 40
0.3155417611469695
 40
0.3608913994454133
 40
0.4064528555196687
 40
0.4522728380349631
 40
0.4983972702349339
 40
0.5831112299001036
 40
0.6669836368744883
 40
0.7503081913092972
 40
0.8333844040307969
 40
0.9165144701595529
 40
1.0
 40
1.0
 40
1.0
 40
1.0
 10
176.601344889478
 20
76.489475447892
 30
0.0
 10
176.6690486313807
 20
76.47371640687452
 30
0.0
 10
176.8042684032072
 20
76.44224201756157
 30
0.0
 10
176.9969301200452
 20
76.39578121422278
 30
0.0
 10
177.1816669916938
 20
76.35015023459077
 30
0.0
 10
177.3577849329852
 20
76.30552493715756
 30
0.0
 10
177.5254687255969
 20
76.26203765055858
 30
0.0
 10
177.6846682098889
 20
76.21983660276044
 30
0.0
 10
177.8353963483707
 20
76.17907001044823
 30
0.0
 10
177.9776493018122
 20
76.13989025783988
 30
0.0
 10
178.1114280568907
 20
76.10245296603722
 30
0.0
 10
178.2367319678483
 20
76.0669163820638
 30
0.0
 10
178.385839124138
 20
76.02419757682011
 30
0.0
 10
178.546697102385
 20
75.9776618796599
 30
0.0
 10
178.7027097874453
 20
75.93197591160927
 30
0.0
 10
178.8243645550334
 20
75.89593594347241
 30
0.0
 10
178.9108118499488
 20
75.8700621778424
 30
0.0
 10
178.9651489679197
 20
75.85365034337455
 30
0.0
 10
178.9721954322031
 20
75.85160055524246
 30
0.0
 10
178.975726180935
 20
75.85057347463051
 30
0.0
  0
LINE
  5
A1
330
1F
100
AcDbEntity
  8
0
  6
Continuous
 62
     7
370
    15
100
AcDbLine
 10
176.6007261961
 20
76.4894754479
 30
0.0
 11
176.6007261961
 21
138.2116552219
 31
0.0
  0
SPLINE
  5
A2
330
1F
100
AcDbEntity
  8
0
  6
Continuous
 62
     7
370
    15
100
AcDbSpline
210
0.0
220
0.0
230
1.0
 70
     8
 71
     3
 72
    10
 73
     6
 74
     0
 42
0.000000001
 43
0.00000001
 40
0.0
 40
0.0
 40
0.0
 40
0.0
 40
0.5
 40
0.5
 40
1.0
 40
1.0
 40
1.0
 40
1.0
 10
175.9523346001059
 20
137.2550341887816
 30
0.0
 10
175.6362307689664
 20
136.6351716305044
 30
0.0
 10
175.3064517246216
 20
135.9892708952056
 30
0.0
 10
174.6342284522328
 20
134.6748522549051
 30
0.0
 10
174.2920952863022
 20
134.0069300278928
 30
0.0
 10
173.9449149577881
 20
133.3305922954113
 30
0.0
  0
SPLINE
  5
A3
330
1F
100
AcDbEntity
  8
0
  6
Continuous
 62
     7
370
    15
100
AcDbSpline
210
0.0
220
0.0
230
1.0
 70
     8
 71
     3
 72
     9
 73
     5
 74
     0
 42
0.000000001
 43
0.00000001
 40
0.0
 40
0.0
 40
0.0
 40
0.0
 40
0.5067595796178751
 40
1.0
 40
1.0
 40
1.0
 40
1.0
 10
176.6013567390449
 20
138.2127085747765
 30
0.0
 10
176.4909563912629
 20
138.0506336364421
 30
0.0
 10
176.2731009185252
 20
137.730807539703
 30
0.0
 10
176.0585078163166
 20
137.4124595600658
 30
0.0
 10
175.9526618243722
 20
137.2554374687618
 30
0.0
  0
SPLINE
  5
A4
330
1F
100
AcDbEntity
  8
0
  6
Continuous
 62
     7
370
    15
100
AcDbSpline
210
0.0
220
0.0
230
1.0
 70
     8
 71
     3
 72
     9
 73
     5
 74
     0
 42
0.000000001
 43
0.00000001
 40
0.0
 40
0.0
 40
0.0
 40
0.0
 40
0.4932426502230348
 40
1.0
 40
1.0
 40
1.0
 40
1.0
 10
175.9526479093494
 20
77.44570736572271
 30
0.0
 10
176.0584940143606
 20
77.28868412606255
 30
0.0
 10
176.2730863756726
 20
76.9703352574293
 30
0.0
 10
176.4909406636328
 20
76.65050921072577
 30
0.0
 10
176.601339925237
 20
76.48843501090866
 30
0.0
  0
SPLINE
  5
A5
330
1F
100
AcDbEntity
  8
0
  6
Continuous
 62
     7
370
    15
100
AcDbSpline
210
0.0
220
0.0
230
1.0
 70
     8
 71
     3
 72
    10
 73
     6
 74
     0
 42
0.000000001
 43
0.00000001
 40
0.0
 40
0.0
 40
0.0
 40
0.0
 40
0.5
 40
0.5
 40
1.0
 40
1.0
 40
1.0
 40
1.0
 10
175.9523286804381
 20
77.44612435422245
 30
0.0
 10
175.636149577764
 20
78.06613450623617
 30
0.0
 10
175.3057073505969
 20
78.71333257210388
 30
0.0
 10
174.6339958299142
 20
80.02674849669764
 30
0.0
 10
174.2920219548823
 20
80.69435976300043
 30
0.0
 10
173.9449149577881
 20
81.37055463944361
 30
0.0
  0
LINE
  5
A6
330
1F
100
AcDbEntity
  8
0
  6
Continuous
 62
     7
370
    15
100
AcDbLine
 10
166.5507261961
 20
137.5869635704
 30
0.0
 11
157.9757261961
 21
137.5869635704
 31
0.0
  0
LINE
  5
A7
330
1F
100
AcDbEntity
  8
0
  6
Continuous
 62
     7
370
    15
100
AcDbLine
 10
166.5507261961
 20
77.1141833644
 30
0.0
 11
166.5507261961
 21
137.5869635704
 31
0.0
  0
LINE
  5
A8
330
1F
100
AcDbEntity
  8
0
  6
Continuous
 62
     7
370
    15
100
AcDbLine
 10
157.9757261961
 20
77.1141833644
 30
0.0
 11
166.5507261961
 21
77.1141833644
 31
0.0
  0
SPLINE
  5
A9
330
1F
100
AcDbEntity
  8
0
  6
Continuous
 62
     7
370
    15
100
AcDbSpline
210
0.0
220
0.0
230
1.0
 70
     8
 71
     3
 72
     8
 73
     4
 74
     0
 42
0.000000001
 43
0.00000001
 40
0.0
 40
0.0
 40
0.0
 40
0.0
 40
0.0012389803509652
 40
0.0012389803509652
 40
0.0012389803509652
 40
0.0012389803509652
 10
167.1082877395941
 20
136.8045961902139
 30
0.0
 10
166.9231677664613
 20
137.065646171593
 30
0.0
 10
166.7372893187024
 20
137.326427784712
 30
0.0
 10
166.5507261960604
 20
137.5869635704293
 30
0.0
  0
SPLINE
  5
AA
330
1F
100
AcDbEntity
  8
0
  6
Continuous
 62
     7
370
    15
100
AcDbSpline
210
0.0
220
0.0
230
1.0
 70
     8
 71
     3
 72
     8
 73
     4
 74
     0
 42
0.000000001
 43
0.00000001
 40
0.0
 40
0.0
 40
0.0
 40
0.0
 40
1.0
 40
1.0
 40
1.0
 40
1.0
 10
169.2065374343327
 20
133.0178191318925
 30
0.0
 10
168.5102440682911
 20
134.2817575000073
 30
0.0
 10
167.8104489031
 20
135.5438129455155
 30
0.0
 10
167.1082877395941
 20
136.8045961902139
 30
0.0
  0
SPLINE
  5
AB
330
1F
100
AcDbEntity
  8
0
  6
Continuous
 62
     7
370
    15
100
AcDbSpline
210
0.0
220
0.0
230
1.0
 70
     8
 71
     3
 72
     8
 73
     4
 74
     0
 42
0.000000001
 43
0.00000001
 40
0.0
 40
0.0
 40
0.0
 40
0.0
 40
1.0
 40
1.0
 40
1.0
 40
1.0
 10
169.2065374343326
 20
81.68332780296242
 30
0.0
 10
168.5102192936747
 20
80.41934446301563
 30
0.0
 10
167.8104221015643
 20
79.15728586516366
 30
0.0
 10
167.1082877395941
 20
77.89655074464096
 30
0.0
  0
SPLINE
  5
AC
330
1F
100
AcDbEntity
  8
0
  6
Continuous
 62
     7
370
    15
100
AcDbSpline
210
0.0
220
0.0
230
1.0
 70
     8
 71
     3
 72
     8
 73
     4
 74
     0
 42
0.000000001
 43
0.00000001
 40
0.0
 40
0.0
 40
0.0
 40
0.0
 40
0.0012389803509652
 40
0.0012389803509652
 40
0.0012389803509652
 40
0.0012389803509652
 10
166.5507261960604
 20
77.11418336442563
 30
0.0
 10
166.7372893187024
 20
77.37471915014298
 30
0.0
 10
166.9231677664613
 20
77.63550076326197
 30
0.0
 10
167.1082877395941
 20
77.89655074464096
 30
0.0
  0
LINE
  5
AD
330
1F
100
AcDbEntity
  8
0
  6
Continuous
 62
     7
370
    15
100
AcDbLine
 10
181.9757261961
 20
76.8505734674
 30
0.0
 11
181.9757261961
 21
137.8505734657
 31
0.0
  0
LINE
  5
AE
330
1F
100
AcDbEntity
  8
0
  6
Continuous
 62
     7
370
    15
100
AcDbLine
 10
156.9757261961
 20
78.2241679219
 30
0.0
 11
156.9757261961
 21
136.4769790129
 31
0.0
  0
SPLINE
  5
AF
330
1F
100
AcDbEntity
  8
0
  6
Continuous
 62
     7
370
    15
100
AcDbSpline
210
0.0
220
0.0
230
1.0
 70
     8
 71
     3
 72
    12
 73
     8
 74
     0
 42
0.000000001
 43
0.00000001
 40
0.0
 40
0.0
 40
0.0
 40
0.0
 40
0.2500000000000001
 40
0.2500000000000001
 40
0.5000000000000002
 40
0.5000000000000002
 40
1.0
 40
1.0
 40
1.0
 40
1.0
 10
157.3627590190259
 20
137.4175633672484
 30
0.0
 10
157.3108982678378
 20
137.360750794934
 30
0.0
 10
157.2621664708189
 20
137.2987586086822
 30
0.0
 10
157.1719934609015
 20
137.1627055355583
 30
0.0
 10
157.1302162126165
 20
137.0877994329595
 30
0.0
 10
157.0241273427706
 20
136.8496727976621
 30
0.0
 10
156.9757261960604
 20
136.6662660660933
 30
0.0
 10
156.9757261960604
 20
136.4769790129114
 30
0.0
  0
SPLINE
  5
B0
330
1F
100
AcDbEntity
  8
0
  6
Continuous
 62
     7
370
    15
100
AcDbSpline
210
0.0
220
0.0
230
1.0
 70
     8
 71
     3
 72
     8
 73
     4
 74
     0
 42
0.000000001
 43
0.00000001
 40
0.0
 40
0.0
 40
0.0
 40
0.0
 40
1.0
 40
1.0
 40
1.0
 40
1.0
 10
157.9757261960604
 20
137.5869635704293
 30
0.0
 10
157.7493818824605
 20
137.5869635704293
 30
0.0
 10
157.5319297620554
 20
137.5235951014084
 30
0.0
 10
157.3627590190259
 20
137.4175633672484
 30
0.0
  0
SPLINE
  5
B1
330
1F
100
AcDbEntity
  8
0
  6
Continuous
 62
     7
370
    15
100
AcDbSpline
210
0.0
220
0.0
230
1.0
 70
     8
 71
     3
 72
     8
 73
     4
 74
     0
 42
0.000000001
 43
0.00000001
 40
0.0
 40
0.0
 40
0.0
 40
0.0
 40
1.0
 40
1.0
 40
1.0
 40
1.0
 10
157.3627590190259
 20
77.28358356760651
 30
0.0
 10
157.5323525246779
 20
77.17728685704932
 30
0.0
 10
157.7487212170111
 20
77.11418336442563
 30
0.0
 10
157.9757261960604
 20
77.11418336442563
 30
0.0
  0
SPLINE
  5
B2
330
1F
100
AcDbEntity
  8
0
  6
Continuous
 62
     7
370
    15
100
AcDbSpline
210
0.0
220
0.0
230
1.0
 70
     8
 71
     3
 72
    12
 73
     8
 74
     0
 42
0.000000001
 43
0.00000001
 40
0.0
 40
0.0
 40
0.0
 40
0.0
 40
0.2499999999999976
 40
0.2499999999999976
 40
0.4999999999999952
 40
0.4999999999999952
 40
1.0
 40
1.0
 40
1.0
 40
1.0
 10
157.3627590190259
 20
77.28358356760651
 30
0.0
 10
157.3108982678378
 20
77.34039613992088
 30
0.0
 10
157.2621664708189
 20
77.40238832617271
 30
0.0
 10
157.1719934609015
 20
77.5384413992967
 30
0.0
 10
157.1302162126165
 20
77.61334750189545
 30
0.0
 10
157.0241273427706
 20
77.85147413719284
 30
0.0
 10
156.9757261960604
 20
78.03488086876162
 30
0.0
 10
156.9757261960604
 20
78.22416792194349
 30
0.0
  0
SPLINE
  5
B3
330
1F
100
AcDbEntity
  8
0
  6
Continuous
 62
     7
370
    15
100
AcDbSpline
210
0.0
220
0.0
230
1.0
 70
     8
 71
     3
 72
    10
 73
     6
 74
     0
 42
0.000000001
 43
0.00000001
 40
0.0
 40
0.0
 40
0.0
 40
0.0
 40
0.5
 40
0.5
 40
1.0
 40
1.0
 40
1.0
 40
1.0
 10
169.8993577573602
 20
132.598296137007
 30
0.0
 10
169.7573404449132
 20
132.598296137007
 30
0.0
 10
169.6168933980509
 20
132.6387859892165
 30
0.0
 10
169.3753034787896
 20
132.7867218191556
 30
0.0
 10
169.2746260365364
 20
132.8942220951351
 30
0.0
 10
169.2065374343328
 20
133.0178191318922
 30
0.0
  0
SPLINE
  5
B4
330
1F
100
AcDbEntity
  8
0
  6
Continuous
 62
     7
370
    15
100
AcDbSpline
210
0.0
220
0.0
230
1.0
 70
     8
 71
     3
 72
    10
 73
     6
 74
     0
 42
0.000000001
 43
0.00000001
 40
0.0
 40
0.0
 40
0.0
 40
0.0
 40
0.5
 40
0.5
 40
1.0
 40
1.0
 40
1.0
 40
1.0
 10
169.8993577573602
 20
82.10285079784795
 30
0.0
 10
169.7585003928495
 20
82.10285079784795
 30
0.0
 10
169.6156662613754
 20
82.06174689202925
 30
0.0
 10
169.375404570602
 20
81.91434899872829
 30
0.0
 10
169.2746983015225
 20
81.80705601788866
 30
0.0
 10
169.2065374343326
 20
81.68332780296244
 30
0.0
  0
SPLINE
  5
B5
330
1F
100
AcDbEntity
  8
0
  6
Continuous
 62
     7
370
    15
100
AcDbSpline
210
0.0
220
0.0
230
1.0
 70
     8
 71
     3
 72
    12
 73
     8
 74
     0
 42
0.000000001
 43
0.00000001
 40
0.0
 40
0.0
 40
0.0
 40
0.0
 40
0.2499999999999968
 40
0.2499999999999968
 40
0.4999999999999936
 40
0.4999999999999936
 40
1.0
 40
1.0
 40
1.0
 40
1.0
 10
173.9449149577881
 20
133.3305922954113
 30
0.0
 10
173.9090108074516
 20
133.2606478612632
 30
0.0
 10
173.866479255322
 20
133.1973964982054
 30
0.0
 10
173.7696849784821
 20
133.0823378432894
 30
0.0
 10
173.7145953002178
 20
133.0300093095775
 30
0.0
 10
173.5364620666638
 20
132.8962244064924
 30
0.0
 10
173.3990849746612
 20
132.8356766393342
 30
0.0
 10
173.2520946347613
 20
132.8164766909503
 30
0.0
  0
SPLINE
  5
B6
330
1F
100
AcDbEntity
  8
0
  6
Continuous
 62
     7
370
    15
100
AcDbSpline
210
0.0
220
0.0
230
1.0
 70
     8
 71
     3
 72
    12
 73
     8
 74
     0
 42
0.000000001
 43
0.00000001
 40
0.0
 40
0.0
 40
0.0
 40
0.0
 40
0.2500000000000022
 40
0.2500000000000022
 40
0.5000000000000044
 40
0.5000000000000044
 40
1.0
 40
1.0
 40
1.0
 40
1.0
 10
173.9449149577881
 20
81.3705546394436
 30
0.0
 10
173.9090108074516
 20
81.44049907359174
 30
0.0
 10
173.866479255322
 20
81.5037504366496
 30
0.0
 10
173.7696849784821
 20
81.61880909156552
 30
0.0
 10
173.7145953002178
 20
81.6711376252775
 30
0.0
 10
173.5364620666638
 20
81.80492252836258
 30
0.0
 10
173.3990849746612
 20
81.86547029552074
 30
0.0
 10
173.2520946347613
 20
81.88467024390462
 30
0.0
  0
LINE
  5
B7
330
1F
100
AcDbEntity
  8
0
  6
Continuous
 62
     7
370
    15
100
AcDbLine
 10
169.9257261961
 20
82.1028507978
 30
0.0
 11
169.8993577574
 21
82.1028507978
 31
0.0
  0
LINE
  5
B8
330
1F
100
AcDbEntity
  8
0
  6
Continuous
 62
     7
370
    15
100
AcDbLine
 10
169.9257261961
 20
132.598296137
 30
0.0
 11
169.8993577574
 21
132.598296137
 31
0.0
  0
SPLINE
  5
B9
330
1F
100
AcDbEntity
  8
0
  6
Continuous
 62
     7
370
    15
100
AcDbSpline
210
0.0
220
0.0
230
1.0
 70
     8
 71
     3
 72
    10
 73
     6
 74
     0
 42
0.000000001
 43
0.00000001
 40
0.0
 40
0.0
 40
0.0
 40
0.0
 40
0.5
 40
0.5
 40
1.0
 40
1.0
 40
1.0
 40
1.0
 10
173.2520946347606
 20
132.8164766909533
 30
0.0
 10
172.7301799103647
 20
132.748303940445
 30
0.0
 10
172.1913287302553
 20
132.6936806754871
 30
0.0
 10
171.0799660882232
 20
132.6185848225957
 30
0.0
 10
170.5031253110271
 20
132.598296137007
 30
0.0
 10
169.9257261960604
 20
132.598296137007
 30
0.0
  0
SPLINE
  5
BA
330
1F
100
AcDbEntity
  8
0
  6
Continuous
 62
     7
370
    15
100
AcDbSpline
210
0.0
220
0.0
230
1.0
 70
     8
 71
     3
 72
    10
 73
     6
 74
     0
 42
0.000000001
 43
0.00000001
 40
0.0
 40
0.0
 40
0.0
 40
0.0
 40
0.5
 40
0.5
 40
1.0
 40
1.0
 40
1.0
 40
1.0
 10
173.2520946347606
 20
81.8846702439017
 30
0.0
 10
172.7301799103647
 20
81.95284299440992
 30
0.0
 10
172.1913287302553
 20
82.00746625936783
 30
0.0
 10
171.0799660882232
 20
82.08256211225918
 30
0.0
 10
170.5031253110271
 20
82.10285079784796
 30
0.0
 10
169.9257261960604
 20
82.10285079784796
 30
0.0
  0
SPLINE
  5
BB
330
1F
100
AcDbEntity
  8
0
  6
Continuous
 62
     7
370
    15
100
AcDbSpline
210
0.0
220
0.0
230
1.0
 70
    11
 71
     3
 72
    83
 73
    79
 74
     0
 42
0.000000001
 43
0.00000001
 40
0.0
 40
0.0
 40
0.0
 40
0.0
 40
0.0312499999999992
 40
0.0312499999999992
 40
0.0624999999999983
 40
0.0624999999999983
 40
0.0937499999999975
 40
0.0937499999999975
 40
0.1093749999999971
 40
0.1093749999999971
 40
0.1249999999999967
 40
0.1249999999999967
 40
0.1562499999999964
 40
0.1562499999999964
 40
0.1874999999999961
 40
0.1874999999999961
 40
0.2187499999999958
 40
0.2187499999999958
 40
0.2499999999999956
 40
0.2499999999999956
 40
0.2812499999999953
 40
0.2812499999999953
 40
0.312499999999995
 40
0.312499999999995
 40
0.3437499999999947
 40
0.3437499999999947
 40
0.3593749999999945
 40
0.3593749999999945
 40
0.3749999999999943
 40
0.3906249999999941
 40
0.3906249999999941
 40
0.4062499999999939
 40
0.4062499999999939
 40
0.4374999999999936
 40
0.4374999999999936
 40
0.4687499999999932
 40
0.4687499999999932
 40
0.4999999999999928
 40
0.4999999999999928
 40
0.5312499999999923
 40
0.5312499999999923
 40
0.5468749999999922
 40
0.5468749999999922
 40
0.562499999999992
 40
0.562499999999992
 40
0.5937499999999921
 40
0.5937499999999921
 40
0.6249999999999923
 40
0.6249999999999923
 40
0.6562499999999925
 40
0.6562499999999925
 40
0.6874999999999927
 40
0.6874999999999927
 40
0.7187499999999928
 40
0.7187499999999928
 40
0.749999999999993
 40
0.749999999999993
 40
0.7656249999999932
 40
0.7656249999999932
 40
0.7812499999999934
 40
0.7812499999999934
 40
0.8124999999999944
 40
0.8124999999999944
 40
0.828124999999995
 40
0.828124999999995
 40
0.8437499999999956
 40
0.8437499999999956
 40
0.8749999999999966
 40
0.8749999999999966
 40
0.890624999999997
 40
0.890624999999997
 40
0.9062499999999974
 40
0.9062499999999974
 40
0.9374999999999983
 40
0.9374999999999983
 40
0.9687499999999991
 40
0.9687499999999991
 40
1.0
 40
1.0
 40
1.0
 40
1.0
 10
192.7354285203697
 20
111.5069852769811
 30
0.0
 10
193.0383534194062
 20
111.7533875314614
 30
0.0
 10
193.3598404359761
 20
111.9671689854214
 30
0.0
 10
194.0369609150001
 20
112.3355165365373
 30
0.0
 10
194.3951873983647
 20
112.4908409257016
 30
0.0
 10
195.1351627172832
 20
112.7372271744097
 30
0.0
 10
195.5117655031091
 20
112.8271004029432
 30
0.0
 10
196.0862426455616
 20
112.914039490326
 30
0.0
 10
196.2793408760076
 20
112.934986059341
 30
0.0
 10
196.668811828472
 20
112.9605270665925
 30
0.0
 10
196.8655785477169
 20
112.9650311032612
 30
0.0
 10
197.4497117932964
 20
112.9536446090295
 30
0.0
 10
197.8345340684728
 20
112.9134558282305
 30
0.0
 10
198.5950852426345
 20
112.7684223121538
 30
0.0
 10
198.97447331697
 20
112.6619619545682
 30
0.0
 10
199.700032122016
 20
112.3877993160591
 30
0.0
 10
200.0470771119715
 20
112.2207750389207
 30
0.0
 10
200.7091803658748
 20
111.8251371999644
 30
0.0
 10
201.0272329758273
 20
111.5934202812214
 30
0.0
 10
201.6045361996256
 20
111.0808336044246
 30
0.0
 10
201.8659523479395
 20
110.7996608753662
 30
0.0
 10
202.3310879278103
 20
110.1839428747221
 30
0.0
 10
202.5356734151871
 20
109.8455825766845
 30
0.0
 10
202.8603885851728
 20
109.144850475869
 30
0.0
 10
202.9838286478397
 20
108.7793537275543
 30
0.0
 10
203.1058764135306
 20
108.2064177322228
 30
0.0
 10
203.1357688017092
 20
108.0110187723069
 30
0.0
 10
203.17207698799
 20
107.6232178207685
 30
0.0
 10
203.1856409924101
 20
107.2355767999692
 30
0.0
 10
203.1542623656546
 20
106.8482519126839
 30
0.0
 10
203.0999668688972
 20
106.4610880986716
 30
0.0
 10
203.0611210684332
 20
106.267401403149
 30
0.0
 10
202.9135525312271
 20
105.7019461798223
 30
0.0
 10
202.773612101707
 20
105.340319661157
 30
0.0
 10
202.4138209478549
 20
104.6463594587522
 30
0.0
 10
202.1974853372145
 20
104.3218037040643
 30
0.0
 10
201.7056695975477
 20
103.7243174698619
 30
0.0
 10
201.4260347402221
 20
103.447404584099
 30
0.0
 10
200.8261029696705
 20
102.9572953096791
 30
0.0
 10
200.5050443490104
 20
102.7421183674189
 30
0.0
 10
199.9927874463644
 20
102.4622240638476
 30
0.0
 10
199.8164003875136
 20
102.3759999787231
 30
0.0
 10
199.4597677133243
 20
102.2208659083519
 30
0.0
 10
199.2788071983197
 20
102.1515142258912
 30
0.0
 10
198.728206499452
 20
101.9673177769996
 30
0.0
 10
198.3509115765565
 20
101.8761250458229
 30
0.0
 10
197.5753734331075
 20
101.7580048128475
 30
0.0
 10
197.1868280938664
 20
101.7326724697893
 30
0.0
 10
196.4122009062843
 20
101.7468346976986
 30
0.0
 10
196.0243507209087
 20
101.7864374888421
 30
0.0
 10
195.2544263270788
 20
101.932932186652
 30
0.0
 10
194.8814590912066
 20
102.03789175662
 30
0.0
 10
194.1589034647506
 20
102.3101269377799
 30
0.0
 10
193.8073364014314
 20
102.4785547794265
 30
0.0
 10
193.1381592037038
 20
102.8785151292514
 30
0.0
 10
192.826855644058
 20
103.1057841794867
 30
0.0
 10
192.3951283393939
 20
103.4885204508354
 30
0.0
 10
192.2571319352439
 20
103.6231204306131
 30
0.0
 10
191.9935787051284
 20
103.9071893386074
 30
0.0
 10
191.8673118938025
 20
104.0576843536755
 30
0.0
 10
191.5161064426325
 20
104.523353229689
 30
0.0
 10
191.3170929242146
 20
104.853207149577
 30
0.0
 10
191.0733235108497
 20
105.3785442491661
 30
0.0
 10
191.0012597802279
 20
105.5587861478667
 30
0.0
 10
190.8768323548908
 20
105.930302979652
 30
0.0
 10
190.8251255242865
 20
106.1201008548421
 30
0.0
 10
190.7044070479763
 20
106.690441383709
 30
0.0
 10
190.6679124417861
 20
107.0762543155591
 30
0.0
 10
190.6816974037401
 20
107.663692275073
 30
0.0
 10
190.6980131970903
 20
107.8608111110407
 30
0.0
 10
190.7527505209066
 20
108.2469527949981
 30
0.0
 10
190.7911601577152
 20
108.4373907751614
 30
0.0
 10
190.9386258156863
 20
109.0010323828685
 30
0.0
 10
191.0821429695884
 20
109.3704146008355
 30
0.0
 10
191.4409650552892
 20
110.0599011627411
 30
0.0
 10
191.6559256710634
 20
110.3825809102206
 30
0.0
 10
192.1540866986534
 20
110.9860414080593
 30
0.0
 10
192.4325036213332
 20
111.2605830225008
 30
0.0
 10
192.7354285203697
 20
111.5069852769811
 30
0.0
  0
LINE
  5
BC
330
1F
100
AcDbEntity
  8
0
  6
Continuous
 62
     7
370
    15
100
AcDbLine
 10
209.4757261961
 20
107.3505734674
 30
0.0
 11
209.4757261961
 21
82.3505734674
 31
0.0
  0
LINE
  5
BD
330
1F
100
AcDbEntity
  8
0
  6
Continuous
 62
     7
370
    15
100
AcDbLine
 10
209.4757261961
 20
132.3505734674
 30
0.0
 11
209.4757261961
 21
107.3505734674
 31
0.0
  0
LINE
  5
BE
330
1F
100
AcDbEntity
  8
0
  6
Continuous
 62
     7
370
    15
100
AcDbLine
 10
209.9757261961
 20
107.3505734674
 30
0.0
 11
209.9757261961
 21
82.8505734674
 31
0.0
  0
LINE
  5
BF
330
1F
100
AcDbEntity
  8
0
  6
Continuous
 62
     7
370
    15
100
AcDbLine
 10
209.9757261961
 20
131.8505734674
 30
0.0
 11
209.9757261961
 21
107.3505734674
 31
0.0
  0
SPLINE
  5
C0
330
1F
100
AcDbEntity
  8
0
  6
Continuous
 62
     7
370
    15
100
AcDbSpline
210
0.0
220
0.0
230
1.0
 70
    24
 71
     3
 72
    16
 73
    12
 74
     0
 42
0.000000001
 43
0.00000001
 40
0.0
 40
0.0
 40
0.0
 40
0.0
 40
0.5
 40
0.5
 40
0.75
 40
0.75
 40
0.875
 40
0.875
 40
0.9375
 40
0.9375
 40
1.0
 40
1.0
 40
1.0
 40
1.0
 10
156.9757261960604
 20
129.8505734674275
 30
0.0
 10
156.9757261960604
 20
129.8505734674275
 30
0.0
 10
156.8949261695564
 20
129.8505734674275
 30
0.0
 10
156.7773542750942
 20
129.8505734674275
 30
0.0
 10
156.7384125469143
 20
129.8505734674275
 30
0.0
 10
156.6958373333304
 20
129.8505734674275
 30
0.0
 10
156.6843030891061
 20
129.8505734674275
 30
0.0
 10
156.6725335498
 20
129.8505734674275
 30
0.0
 10
156.6695262696878
 20
129.8505734674275
 30
0.0
 10
156.665496736001
 20
129.8505734674275
 30
0.0
 10
156.6644749569221
 20
129.8505734674275
 30
0.0
 10
156.6644750617661
 20
129.8505734674275
 30
0.0
  0
SPLINE
  5
C1
330
1F
100
AcDbEntity
  8
0
  6
Continuous
 62
     7
370
    15
100
AcDbSpline
210
0.0
220
0.0
230
1.0
 70
    24
 71
     3
 72
     9
 73
     5
 74
     0
 42
0.000000001
 43
0.00000001
 40
0.0
 40
0.0
 40
0.0
 40
0.0
 40
0.7049586474875649
 40
1.0
 40
1.0
 40
1.0
 40
1.0
 10
156.6644759189281
 20
84.85057346742747
 30
0.0
 10
156.6832852578145
 20
84.85057346742748
 30
0.0
 10
156.7099667361585
 20
84.85057346742748
 30
0.0
 10
156.789519993617
 20
84.85057346742747
 30
0.0
 10
156.8129914942944
 20
84.85057346742747
 30
0.0
  0
LINE
  5
C2
330
1F
100
AcDbEntity
  8
0
  6
Continuous
 62
     7
370
    15
100
AcDbLine
 10
154.9757261961
 20
85.1255734674
 30
0.0
 11
154.9757261961
 21
129.5755734674
 31
0.0
  0
LINE
  5
C3
330
1F
100
AcDbEntity
  8
0
  6
Continuous
 62
     7
370
    15
100
AcDbLine
 10
89.5757261961
 20
95.5278178704
 30
0.0
 11
89.5757261961
 21
119.1733290527
 31
0.0
  0
LWPOLYLINE
  5
C4
330
1F
100
AcDbEntity
  8
0
  6
HIDDEN
 62
     7
370
     0
100
AcDbPolyline
 90
       23
 70
   128
 43
0.0
 10
161.1902596547
 20
117.7294690475
 10
161.462732722
 20
117.7362169145
 10
161.7009835121
 20
117.5846864854
 10
161.8857103628
 20
117.2871538542
 10
162.0019478033
 20
116.8677233454
 10
162.0402789675
 20
116.3603747242
 10
161.9975984924
 20
115.8062103586
 10
161.8773640962
 20
115.2501253498
 10
161.6893164548
 20
114.7371703981
 10
161.4486900695
 20
114.3089020629
 10
161.1749790592
 20
114.0000160978
 10
160.890357862
 20
113.8355366066
 10
160.6178847947
 20
113.8287887396
 10
160.3796340046
 20
113.9803191687
 10
160.1949071539
 20
114.2778517998
 10
160.0786697134
 20
114.6972823087
 10
160.0403385492
 20
115.2046309299
 10
160.0830190244
 20
115.7587952955
 10
160.2032534205
 20
116.3148803043
 10
160.391301062
 20
116.827835256
 10
160.6319274472
 20
117.2561035912
 10
160.9056384575
 20
117.5649895563
 10
161.1902596547
 20
117.7294690475
  0
LWPOLYLINE
  5
C5
330
1F
100
AcDbEntity
  8
0
  6
HIDDEN
 62
     7
370
     0
100
AcDbPolyline
 90
       19
 70
   128
 43
0.0
 10
161.7835471214
 20
116.8710991611
 10
161.9892408266
 20
116.8626726671
 10
162.1588209032
 20
116.708491995
 10
162.2718334914
 20
116.4271536092
 10
162.314647605
 20
116.0525910712
 10
162.2820992302
 20
115.629982151
 10
162.1781141812
 20
115.2102997215
 10
162.0152345896
 20
114.8441636774
 10
161.8131061381
 20
114.5757354293
 10
161.596108501
 20
114.4373913855
 10
161.3904147958
 20
114.4458178795
 10
161.2208347192
 20
114.5999985516
 10
161.107822131
 20
114.8813369374
 10
161.0650080174
 20
115.2558994754
 10
161.0975563922
 20
115.6785083956
 10
161.2015414412
 20
116.0981908251
 10
161.3644210328
 20
116.4643268692
 10
161.5665494843
 20
116.7327551173
 10
161.7835471214
 20
116.8710991611
  0
LWPOLYLINE
  5
C6
330
1F
100
AcDbEntity
  8
0
  6
HIDDEN
 62
     7
370
     0
100
AcDbPolyline
 90
       23
 70
   128
 43
0.0
 10
158.5706770924
 20
118.2467460231
 10
158.8431501597
 20
118.2534938902
 10
159.0814009498
 20
118.101963461
 10
159.2661278005
 20
117.8044308299
 10
159.382365241
 20
117.385000321
 10
159.4206964052
 20
116.8776516998
 10
159.3780159301
 20
116.3234873343
 10
159.2577815339
 20
115.7674023255
 10
159.0697338925
 20
115.2544473737
 10
158.8291075072
 20
114.8261790385
 10
158.5553964969
 20
114.5172930734
 10
158.2707752997
 20
114.3528135823
 10
157.9983022324
 20
114.3460657152
 10
157.7600514423
 20
114.4975961444
 10
157.5753245916
 20
114.7951287755
 10
157.4590871511
 20
115.2145592844
 10
157.4207559869
 20
115.7219079056
 10
157.4634364621
 20
116.2760722711
 10
157.5836708582
 20
116.8321572799
 10
157.7717184997
 20
117.3451122317
 10
158.0123448849
 20
117.7733805668
 10
158.2860558952
 20
118.082266532
 10
158.5706770924
 20
118.2467460231
  0
LWPOLYLINE
  5
C7
330
1F
100
AcDbEntity
  8
0
  6
HIDDEN
 62
     7
370
     0
100
AcDbPolyline
 90
       21
 70
   128
 43
0.0
 10
158.3464366676
 20
117.9055933674
 10
158.5864747534
 20
117.9044773484
 10
158.791200257
 20
117.7500515648
 10
158.9405732196
 20
117.4574322884
 10
159.0199719749
 20
117.0552631326
 10
159.0216244195
 20
116.5829112165
 10
158.9453688007
 20
116.0866136367
 10
158.7986695496
 20
115.6149514583
 10
158.5958866112
 20
115.2140942615
 10
158.3568697923
 20
114.9232807418
 10
158.1050157245
 20
114.7709777525
 10
157.8649776387
 20
114.7720937715
 10
157.6602521351
 20
114.9265195551
 10
157.5108791725
 20
115.2191388315
 10
157.4314804173
 20
115.6213079873
 10
157.4298279726
 20
116.0936599034
 10
157.5060835915
 20
116.5899574832
 10
157.6527828425
 20
117.0616196616
 10
157.8555657809
 20
117.4624768584
 10
158.0945825998
 20
117.7532903781
 10
158.3464366676
 20
117.9055933674
  0
LINE
  5
C8
330
1F
100
AcDbEntity
  8
0
  6
HIDDEN
 62
     7
370
     0
100
AcDbLine
 10
159.0737046743
 20
116.4918697866
 30
0.0
 11
159.6113384921
 21
117.2058519239
 31
0.0
  0
LINE
  5
C9
330
1F
100
AcDbEntity
  8
0
  6
HIDDEN
 62
     7
370
     0
100
AcDbLine
 10
157.7746665686
 20
116.7483848941
 30
0.0
 11
158.3123003864
 21
117.4623670314
 31
0.0
  0
LINE
  5
CA
330
1F
100
AcDbEntity
  8
0
  6
HIDDEN
 62
     7
370
     0
100
AcDbLine
 10
157.7746665686
 20
116.7483848941
 30
0.0
 11
157.6880923783
 21
115.6243034227
 31
0.0
  0
LINE
  5
CB
330
1F
100
AcDbEntity
  8
0
  6
HIDDEN
 62
     7
370
     0
100
AcDbLine
 10
159.0737046743
 20
116.4918697866
 30
0.0
 11
157.7746665686
 21
116.7483848941
 31
0.0
  0
LINE
  5
CC
330
1F
100
AcDbEntity
  8
0
  6
HIDDEN
 62
     7
370
     0
100
AcDbLine
 10
159.0737046743
 20
116.4918697866
 30
0.0
 11
158.9871304839
 21
115.3677883152
 31
0.0
  0
LINE
  5
CD
330
1F
100
AcDbEntity
  8
0
  6
HIDDEN
 62
     7
370
     0
100
AcDbLine
 10
158.9871304839
 20
115.3677883152
 30
0.0
 11
157.6880923783
 21
115.6243034227
 31
0.0
  0
LINE
  5
CE
330
1F
100
AcDbEntity
  8
0
  6
HIDDEN
 62
     7
370
     0
100
AcDbLine
 10
157.6880923783
 20
115.6243034227
 30
0.0
 11
158.1391520057
 21
115.2142040885
 31
0.0
  0
LINE
  5
CF
330
1F
100
AcDbEntity
  8
0
  6
HIDDEN
 62
     7
370
     0
100
AcDbLine
 10
158.9871304839
 20
115.3677883152
 30
0.0
 11
159.4381901114
 21
114.957688981
 31
0.0
  0
LINE
  5
D0
330
1F
100
AcDbEntity
  8
0
  6
HIDDEN
 62
     7
370
     0
100
AcDbLine
 10
160.0623981195
 20
116.7957525898
 30
0.0
 11
158.7633600139
 21
117.0522676972
 31
0.0
  0
LINE
  5
D1
330
1F
100
AcDbEntity
  8
0
  6
HIDDEN
 62
     7
370
     0
100
AcDbLine
 10
158.7633600139
 20
117.0522676972
 30
0.0
 11
158.3123003864
 21
117.4623670314
 31
0.0
  0
LINE
  5
D2
330
1F
100
AcDbEntity
  8
0
  6
HIDDEN
 62
     7
370
     0
100
AcDbLine
 10
159.6113384921
 20
117.2058519239
 30
0.0
 11
158.3123003864
 21
117.4623670314
 31
0.0
  0
LINE
  5
D3
330
1F
100
AcDbEntity
  8
0
  6
HIDDEN
 62
     7
370
     0
100
AcDbLine
 10
160.0623981195
 20
116.7957525898
 30
0.0
 11
159.6113384921
 21
117.2058519239
 31
0.0
  0
LINE
  5
D4
330
1F
100
AcDbEntity
  8
0
  6
HIDDEN
 62
     7
370
     0
100
AcDbLine
 10
159.9758239292
 20
115.6716711183
 30
0.0
 11
158.6767858235
 21
115.9281862258
 31
0.0
  0
LINE
  5
D5
330
1F
100
AcDbEntity
  8
0
  6
HIDDEN
 62
     7
370
     0
100
AcDbLine
 10
159.4381901114
 20
114.957688981
 30
0.0
 11
158.1391520057
 21
115.2142040885
 31
0.0
  0
LINE
  5
D6
330
1F
100
AcDbEntity
  8
0
  6
HIDDEN
 62
     7
370
     0
100
AcDbLine
 10
158.6767858235
 20
115.9281862258
 30
0.0
 11
158.1391520057
 21
115.2142040885
 31
0.0
  0
LINE
  5
D7
330
1F
100
AcDbEntity
  8
0
  6
HIDDEN
 62
     7
370
     0
100
AcDbLine
 10
159.9758239292
 20
115.6716711183
 30
0.0
 11
159.4381901114
 21
114.957688981
 31
0.0
  0
LINE
  5
D8
330
1F
100
AcDbEntity
  8
0
  6
HIDDEN
 62
     7
370
     0
100
AcDbLine
 10
158.7633600139
 20
117.0522676972
 30
0.0
 11
158.6767858235
 21
115.9281862258
 31
0.0
  0
LINE
  5
D9
330
1F
100
AcDbEntity
  8
0
  6
HIDDEN
 62
     7
370
     0
100
AcDbLine
 10
160.0623981195
 20
116.7957525898
 30
0.0
 11
159.9758239292
 21
115.6716711183
 31
0.0
  0
LWPOLYLINE
  5
DA
330
1F
100
AcDbEntity
  8
0
  6
HIDDEN
 62
     7
370
     0
100
AcDbPolyline
 90
       21
 70
   128
 43
0.0
 10
157.7567611804
 20
99.8703394935
 10
157.5775268998
 20
99.643976073
 10
157.4617428826
 20
99.2922082197
 10
157.4207428751
 20
98.8494694221
 10
157.4585402437
 20
98.3590980385
 10
157.5714351186
 20
97.8690950364
 10
157.7483765629
 20
97.4274253239
 10
157.9720443152
 20
97.0773226096
 10
158.2205442175
 20
96.8530573865
 10
158.4695513679
 20
96.7765822972
 10
158.6946912117
 20
96.8553832563
 10
158.8739254923
 20
97.0817466769
 10
158.9897095096
 20
97.4335145301
 10
159.0307095171
 20
97.8762533277
 10
158.9929121485
 20
98.3666247113
 10
158.8800172735
 20
98.8566277134
 10
158.7030758292
 20
99.2982974259
 10
158.479408077
 20
99.6484001403
 10
158.2309081747
 20
99.8726653633
 10
157.9819010242
 20
99.9491404526
 10
157.7567611804
 20
99.8703394935
  0
LWPOLYLINE
  5
DB
330
1F
100
AcDbEntity
  8
0
  6
HIDDEN
 62
     7
370
     0
100
AcDbPolyline
 90
       23
 70
   128
 43
0.0
 10
157.8381609592
 20
100.2740107578
 10
157.632771245
 20
100.0253480138
 10
157.4912169548
 20
99.6451199969
 10
157.4249659754
 20
99.1641305198
 10
157.4393855669
 20
98.6213464894
 10
157.5333075401
 20
98.0607410397
 10
157.699122895
 20
97.5277310902
 10
157.9233982578
 20
97.0654979372
 10
158.1879641725
 20
96.7114889616
 10
158.4713870821
 20
96.4943838653
 10
158.7507057479
 20
96.431771212
 10
159.0032914329
 20
96.5287235065
 10
159.2086811471
 20
96.7773862506
 10
159.3502354373
 20
97.1576142674
 10
159.4164864168
 20
97.6386037445
 10
159.4020668252
 20
98.1813877749
 10
159.3081448521
 20
98.7419932246
 10
159.1423294971
 20
99.2750031741
 10
158.9180541343
 20
99.7372363271
 10
158.6534882196
 20
100.0912453027
 10
158.3700653101
 20
100.308350399
 10
158.0907466442
 20
100.3709630523
 10
157.8381609592
 20
100.2740107578
  0
LWPOLYLINE
  5
DC
330
1F
100
AcDbEntity
  8
0
  6
HIDDEN
 62
     7
370
     0
100
AcDbPolyline
 90
       23
 70
   128
 43
0.0
 10
160.4577435215
 20
100.7912877334
 10
160.2523538073
 20
100.5426249894
 10
160.1107995171
 20
100.1623969725
 10
160.0445485377
 20
99.6814074954
 10
160.0589681292
 20
99.138623465
 10
160.1528901024
 20
98.5780180153
 10
160.3187054573
 20
98.0450080659
 10
160.5429808201
 20
97.5827749129
 10
160.8075467348
 20
97.2287659373
 10
161.0909696444
 20
97.011660841
 10
161.3702883102
 20
96.9490481877
 10
161.6228739952
 20
97.0460004822
 10
161.8282637094
 20
97.2946632262
 10
161.9698179996
 20
97.6748912431
 10
162.0360689791
 20
98.1558807202
 10
162.0216493875
 20
98.6986647506
 10
161.9277274144
 20
99.2592702003
 10
161.7619120594
 20
99.7922801497
 10
161.5376366966
 20
100.2545133028
 10
161.2730707819
 20
100.6085222784
 10
160.9896478724
 20
100.8256273747
 10
160.7103292065
 20
100.888240028
 10
160.4577435215
 20
100.7912877334
  0
LINE
  5
DD
330
1F
100
AcDbEntity
  8
0
  6
HIDDEN
 62
     7
370
     0
100
AcDbLine
 10
157.9875063206
 20
97.5155885575
 30
0.0
 11
158.5620703924
 21
97.2816900736
 31
0.0
  0
LINE
  5
DE
330
1F
100
AcDbEntity
  8
0
  6
HIDDEN
 62
     7
370
     0
100
AcDbLine
 10
158.8002902678
 20
98.128962891
 30
0.0
 11
158.5620703924
 21
97.2816900736
 31
0.0
  0
LINE
  5
DF
330
1F
100
AcDbEntity
  8
0
  6
HIDDEN
 62
     7
370
     0
100
AcDbLine
 10
158.4639460715
 20
99.2101341923
 30
0.0
 11
158.8002902678
 21
98.128962891
 31
0.0
  0
LINE
  5
E0
330
1F
100
AcDbEntity
  8
0
  6
HIDDEN
 62
     7
370
     0
100
AcDbLine
 10
158.4639460715
 20
99.2101341923
 30
0.0
 11
157.8893819997
 21
99.4440326763
 31
0.0
  0
LINE
  5
E1
330
1F
100
AcDbEntity
  8
0
  6
HIDDEN
 62
     7
370
     0
100
AcDbLine
 10
157.6511621243
 20
98.5967598588
 30
0.0
 11
157.8893819997
 21
99.4440326763
 31
0.0
  0
LINE
  5
E2
330
1F
100
AcDbEntity
  8
0
  6
HIDDEN
 62
     7
370
     0
100
AcDbLine
 10
157.6511621243
 20
98.5967598588
 30
0.0
 11
157.9875063206
 21
97.5155885575
 31
0.0
  0
LINE
  5
E3
330
1F
100
AcDbEntity
  8
0
  6
HIDDEN
 62
     7
370
     0
100
AcDbLine
 10
160.0993283735
 20
98.3854779985
 30
0.0
 11
158.8002902678
 21
98.128962891
 31
0.0
  0
LINE
  5
E4
330
1F
100
AcDbEntity
  8
0
  6
HIDDEN
 62
     7
370
     0
100
AcDbLine
 10
159.7629841772
 20
99.4666492998
 30
0.0
 11
158.4639460715
 21
99.2101341923
 31
0.0
  0
LWPOLYLINE
  5
E5
330
1F
100
AcDbEntity
  8
0
  6
HIDDEN
 62
     7
370
     0
100
AcDbPolyline
 90
       19
 70
   128
 43
0.0
 10
161.3257245382
 20
100.2173039276
 10
161.173939851
 20
100.0156035484
 10
161.0843788655
 20
99.6970634251
 10
161.0678439584
 20
99.3001041978
 10
161.1263294834
 20
98.8726050077
 10
161.2527812231
 20
98.4661285665
 10
161.4319472314
 20
98.1297019318
 10
161.6422174436
 20
97.9039031209
 10
161.8582301688
 20
97.8159668029
 10
162.0539310842
 20
97.8764993955
 10
162.2057157714
 20
98.0781997747
 10
162.2952767569
 20
98.396739898
 10
162.311811664
 20
98.7936991253
 10
162.253326139
 20
99.2211983154
 10
162.1268743993
 20
99.6276747566
 10
161.947708391
 20
99.9641013913
 10
161.7374381788
 20
100.1899002022
 10
161.5214254536
 20
100.2778365202
 10
161.3257245382
 20
100.2173039276
  0
LINE
  5
E6
330
1F
100
AcDbEntity
  8
0
  6
HIDDEN
 62
     7
370
     0
100
AcDbLine
 10
159.2865444263
 20
97.772103665
 30
0.0
 11
159.8611084981
 21
97.5382051811
 31
0.0
  0
LINE
  5
E7
330
1F
100
AcDbEntity
  8
0
  6
HIDDEN
 62
     7
370
     0
100
AcDbLine
 10
158.95020023
 20
98.8532749663
 30
0.0
 11
159.2865444263
 21
97.772103665
 31
0.0
  0
LINE
  5
E8
330
1F
100
AcDbEntity
  8
0
  6
HIDDEN
 62
     7
370
     0
100
AcDbLine
 10
158.95020023
 20
98.8532749663
 30
0.0
 11
159.1884201054
 21
99.7005477837
 31
0.0
  0
LINE
  5
E9
330
1F
100
AcDbEntity
  8
0
  6
HIDDEN
 62
     7
370
     0
100
AcDbLine
 10
159.7629841772
 20
99.4666492998
 30
0.0
 11
159.1884201054
 21
99.7005477837
 31
0.0
  0
LINE
  5
EA
330
1F
100
AcDbEntity
  8
0
  6
HIDDEN
 62
     7
370
     0
100
AcDbLine
 10
159.7629841772
 20
99.4666492998
 30
0.0
 11
160.0993283735
 21
98.3854779985
 31
0.0
  0
LINE
  5
EB
330
1F
100
AcDbEntity
  8
0
  6
HIDDEN
 62
     7
370
     0
100
AcDbLine
 10
160.0993283735
 20
98.3854779985
 30
0.0
 11
159.8611084981
 21
97.5382051811
 31
0.0
  0
LINE
  5
EC
330
1F
100
AcDbEntity
  8
0
  6
HIDDEN
 62
     7
370
     0
100
AcDbLine
 10
159.2865444263
 20
97.772103665
 30
0.0
 11
157.9875063206
 21
97.5155885575
 31
0.0
  0
LINE
  5
ED
330
1F
100
AcDbEntity
  8
0
  6
HIDDEN
 62
     7
370
     0
100
AcDbLine
 10
159.8611084981
 20
97.5382051811
 30
0.0
 11
158.5620703924
 21
97.2816900736
 31
0.0
  0
LINE
  5
EE
330
1F
100
AcDbEntity
  8
0
  6
HIDDEN
 62
     7
370
     0
100
AcDbLine
 10
158.95020023
 20
98.8532749663
 30
0.0
 11
157.6511621243
 21
98.5967598588
 31
0.0
  0
LINE
  5
EF
330
1F
100
AcDbEntity
  8
0
  6
HIDDEN
 62
     7
370
     0
100
AcDbLine
 10
159.1884201054
 20
99.7005477837
 30
0.0
 11
157.8893819997
 21
99.4440326763
 31
0.0
  0
CIRCLE
  5
F0
330
1F
100
AcDbEntity
  8
0
  6
HIDDEN
 62
     7
370
     0
100
AcDbCircle
 10
196.9257261961
 20
107.3505734674
 30
0.0
 40
3.680384757729321
  0
CIRCLE
  5
F1
330
1F
100
AcDbEntity
  8
0
  6
HIDDEN
 62
     7
370
     0
100
AcDbCircle
 10
196.9257261961
 20
107.3505734674
 30
0.0
 40
3.380384757729319
  0
SPLINE
  5
F2
330
1F
100
AcDbEntity
  8
0
  6
HIDDEN
 62
     7
370
     0
100
AcDbSpline
210
0.0
220
0.0
230
1.0
 70
     8
 71
     3
 72
    17
 73
    13
 74
     0
 42
0.000000001
 43
0.00000001
 40
0.0
 40
0.0
 40
0.0
 40
0.0
 40
0.0000765384580855
 40
0.0000972781306119
 40
0.2495241770525378
 40
0.5019881207685738
 40
0.5864063439668232
 40
0.6698669507659889
 40
0.7526589197370532
 40
0.8350782638883394
 40
0.91742501573357
 40
1.0
 40
1.0
 40
1.0
 40
1.0
 10
178.975726180935
 20
75.85057347463051
 30
0.0
 10
178.9757264012001
 20
75.850573471649
 30
0.0
 10
178.9757266811504
 20
75.85057346785965
 30
0.0
 10
178.9763403802062
 20
75.85057232009812
 30
0.0
 10
178.8722024738537
 20
75.88278899584067
 30
0.0
 10
178.5037154069155
 20
75.99115014355681
 30
0.0
 10
178.137103044853
 20
76.09598082208915
 30
0.0
 10
177.887571480648
 20
76.16567352679533
 30
0.0
 10
177.6097856956985
 20
76.24081523572595
 30
0.0
 10
177.3031259186488
 20
76.32048022930738
 30
0.0
 10
176.9699390861054
 20
76.40362941074739
 30
0.0
 10
176.7249416439425
 20
76.46094189297646
 30
0.0
 10
176.602273398938
 20
76.48963779098187
 30
0.0
  0
LWPOLYLINE
  5
F3
330
1F
100
AcDbEntity
  8
0
  6
HIDDEN
 62
     7
370
     0
100
AcDbPolyline
 90
       24
 70
   128
 43
0.0
 10
157.2242971744
 20
98.3628613749
 10
157.3465963632
 20
97.8046341866
 10
157.53409659
 20
97.2878081551
 10
157.7728918207
 20
96.8507139028
 10
158.0452717055
 20
96.525768711
 10
158.3310350742
 20
96.3370722779
 10
158.6089881653
 20
96.2986193548
 10
158.8585164694
 20
96.413261819
 10
159.0611136137
 20
96.6724971634
 10
159.2017538949
 20
97.0570990885
 10
159.2700066667
 20
97.538543429
 10
159.2608099333
 20
98.0811236605
 10
159.1748457743
 20
98.6445990894
 10
159.0184897581
 20
99.1871793208
 10
158.8033380951
 20
99.6686236613
 10
158.5453476
 20
100.0532255864
 10
158.2636522476
 20
100.3124609308
 10
157.9791440933
 20
100.4271033951
 10
157.7129238057
 20
100.3886504719
 10
157.4847357254
 20
100.1999540388
 10
157.3115035185
 20
99.875008847
 10
157.2060750253
 20
99.4379145948
 10
157.1762693948
 20
98.9210885632
 10
157.2242971744
 20
98.3628613749
  0
LWPOLYLINE
  5
F4
330
1F
100
AcDbEntity
  8
0
  6
HIDDEN
 62
     7
370
     0
100
AcDbPolyline
 90
       21
 70
   128
 43
0.0
 10
157.5807324687
 20
98.390870534
 10
157.6958844623
 20
97.8885033636
 10
157.8767856729
 20
97.4353113921
 10
158.1057282296
 20
97.0756562071
 10
158.3603016398
 20
96.8447433641
 10
158.6155864844
 20
96.765176221
 10
158.8465937041
 20
96.8447433641
 10
159.0307107028
 20
97.0756562071
 10
159.1499148257
 20
97.4353113921
 10
159.1925375428
 20
97.8885033636
 10
159.1544066456
 20
98.390870534
 10
159.039254652
 20
98.8932377044
 10
158.8583534414
 20
99.346429676
 10
158.6294108847
 20
99.706084861
 10
158.3748374745
 20
99.936997704
 10
158.1195526299
 20
100.0165648471
 10
157.8885454102
 20
99.936997704
 10
157.7044284116
 20
99.706084861
 10
157.5852242886
 20
99.346429676
 10
157.5426015715
 20
98.8932377044
 10
157.5807324687
 20
98.390870534
  0
SPLINE
  5
F5
330
1F
100
AcDbEntity
  8
0
  6
HIDDEN
 62
     7
370
     0
100
AcDbSpline
210
0.0
220
0.0
230
1.0
 70
     8
 71
     3
 72
    12
 73
     8
 74
     0
 42
0.000000001
 43
0.00000001
 40
0.0
 40
0.0
 40
0.0
 40
0.0
 40
0.4999999999999987
 40
0.4999999999999987
 40
0.7499999999999993
 40
0.7499999999999993
 40
1.0
 40
1.0
 40
1.0
 40
1.0
 10
169.5668078087391
 20
100.5720041442212
 30
0.0
 10
169.6399081692144
 20
100.3772691764599
 30
0.0
 10
169.6758119185466
 20
100.169691001431
 30
0.0
 10
169.6758640365969
 20
99.87392935135948
 30
0.0
 10
169.6668272265065
 20
99.77623335878566
 30
0.0
 10
169.6307747533908
 20
99.59236544995694
 30
0.0
 10
169.603827112288
 20
99.50507574334993
 30
0.0
 10
169.5668078087391
 20
99.42227662763001
 30
0.0
  0
SPLINE
  5
F6
330
1F
100
AcDbEntity
  8
0
  6
HIDDEN
 62
     7
370
     0
100
AcDbSpline
210
0.0
220
0.0
230
1.0
 70
     8
 71
     3
 72
    50
 73
    46
 74
     0
 42
0.000000001
 43
0.00000001
 40
0.0
 40
0.0
 40
0.0
 40
0.0
 40
0.0624999999999996
 40
0.0624999999999996
 40
0.1249999999999993
 40
0.1249999999999993
 40
0.1874999999999989
 40
0.1874999999999989
 40
0.2499999999999986
 40
0.2499999999999986
 40
0.2812499999999988
 40
0.2812499999999988
 40
0.3124999999999991
 40
0.3124999999999991
 40
0.3749999999999994
 40
0.3749999999999994
 40
0.4062499999999994
 40
0.4062499999999994
 40
0.4374999999999993
 40
0.4374999999999993
 40
0.4687499999999993
 40
0.4687499999999993
 40
0.4999999999999992
 40
0.4999999999999992
 40
0.5312499999999991
 40
0.5312499999999991
 40
0.5624999999999991
 40
0.5624999999999991
 40
0.593749999999999
 40
0.593749999999999
 40
0.6249999999999989
 40
0.6249999999999989
 40
0.687499999999999
 40
0.687499999999999
 40
0.7187499999999996
 40
0.7187499999999996
 40
0.75
 40
0.75
 40
0.8125
 40
0.8125
 40
0.8749999999999999
 40
0.8749999999999999
 40
0.9374999999999999
 40
0.9374999999999999
 40
1.0
 40
1.0
 40
1.0
 40
1.0
 10
169.5668078087391
 20
99.42227662763001
 30
0.0
 10
169.6219941040836
 20
99.2914517616917
 30
0.0
 10
169.6911507323645
 20
99.2055348348046
 30
0.0
 10
169.8386891806708
 20
99.08223732769827
 30
0.0
 10
169.9149741018939
 20
99.04821247752656
 30
0.0
 10
170.0597662290553
 20
99.01886005492713
 30
0.0
 10
170.1296212221348
 20
99.02386724542028
 30
0.0
 10
170.2382474958286
 20
99.0744897642195
 30
0.0
 10
170.2781507255306
 20
99.12029316714101
 30
0.0
 10
170.275895702028
 20
99.2340045176662
 30
0.0
 10
170.2640042747605
 20
99.28058125275874
 30
0.0
 10
170.2166699857122
 20
99.38855174030378
 30
0.0
 10
170.1810799588782
 20
99.45090288090634
 30
0.0
 10
170.0498762090121
 20
99.66157708280585
 30
0.0
 10
169.9356366131569
 20
99.82875059455993
 30
0.0
 10
169.7822996033295
 20
100.1034895819884
 30
0.0
 10
169.7328652419812
 20
100.2007853208556
 30
0.0
 10
169.645099907111
 20
100.4000051324434
 30
0.0
 10
169.606619783014
 20
100.5018371648311
 30
0.0
 10
169.5427841250807
 20
100.7107806713586
 30
0.0
 10
169.5176304500916
 20
100.8179790174289
 30
0.0
 10
169.4843180578971
 20
101.0283189839616
 30
0.0
 10
169.4757094039431
 20
101.1326930615072
 30
0.0
 10
169.4757430370402
 20
101.3398754716958
 30
0.0
 10
169.4844426442492
 20
101.4395679900586
 30
0.0
 10
169.5179275804827
 20
101.6294507328969
 30
0.0
 10
169.543141528863
 20
101.7209065136761
 30
0.0
 10
169.6071415618532
 20
101.8887492493748
 30
0.0
 10
169.6457087140044
 20
101.9652866547903
 30
0.0
 10
169.733658275362
 20
102.1035297774005
 30
0.0
 10
169.7830942761177
 20
102.1648849233535
 30
0.0
 10
169.936375067229
 20
102.3180275087944
 30
0.0
 10
170.0506885711546
 20
102.382833460305
 30
0.0
 10
170.1811351376774
 20
102.403685821951
 30
0.0
 10
170.2171600474698
 20
102.3977165667932
 30
0.0
 10
170.2642883405148
 20
102.3627634969584
 30
0.0
 10
170.2760250462736
 20
102.3333051266084
 30
0.0
 10
170.2779272751097
 20
102.22259418603
 30
0.0
 10
170.2378038816617
 20
102.1192542814869
 30
0.0
 10
170.1295316042202
 20
101.8888244664806
 30
0.0
 10
170.0601591283135
 20
101.7587119585668
 30
0.0
 10
169.9146535204009
 20
101.4720265332479
 30
0.0
 10
169.8387542726898
 20
101.3169971097005
 30
0.0
 10
169.6923275496457
 20
100.9710716176252
 30
0.0
 10
169.6217969679105
 20
100.781018659895
 30
0.0
 10
169.5668078087391
 20
100.5720041442212
 30
0.0
  0
SPLINE
  5
F7
330
1F
100
AcDbEntity
  8
0
  6
HIDDEN
 62
     7
370
     0
100
AcDbSpline
210
0.0
220
0.0
230
1.0
 70
    11
 71
     3
 72
    64
 73
    60
 74
     0
 42
0.000000001
 43
0.00000001
 40
0.0
 40
0.0
 40
0.0
 40
0.0
 40
0.0312500000000002
 40
0.0312500000000002
 40
0.0625000000000004
 40
0.0625000000000004
 40
0.0937500000000006
 40
0.0937500000000006
 40
0.1250000000000009
 40
0.1250000000000009
 40
0.1875000000000014
 40
0.1875000000000014
 40
0.2187500000000016
 40
0.2187500000000016
 40
0.2500000000000018
 40
0.2500000000000018
 40
0.281250000000002
 40
0.281250000000002
 40
0.3125000000000022
 40
0.3125000000000022
 40
0.3437500000000024
 40
0.3437500000000024
 40
0.3750000000000026
 40
0.3750000000000026
 40
0.4062500000000028
 40
0.4062500000000028
 40
0.4375000000000031
 40
0.4375000000000031
 40
0.5000000000000034
 40
0.5000000000000034
 40
0.5312500000000033
 40
0.5312500000000033
 40
0.5625000000000032
 40
0.5625000000000032
 40
0.5937500000000031
 40
0.5937500000000031
 40
0.6250000000000029
 40
0.6250000000000029
 40
0.6562500000000028
 40
0.6562500000000028
 40
0.6875000000000027
 40
0.6875000000000027
 40
0.7187500000000026
 40
0.7187500000000026
 40
0.7500000000000024
 40
0.7500000000000024
 40
0.8125000000000021
 40
0.8125000000000021
 40
0.8437500000000018
 40
0.8437500000000018
 40
0.8750000000000013
 40
0.8750000000000013
 40
0.906250000000001
 40
0.906250000000001
 40
0.9375000000000007
 40
0.9375000000000007
 40
0.9687500000000003
 40
0.9687500000000003
 40
1.0
 40
1.0
 40
1.0
 40
1.0
 10
171.5757261960604
 20
103.7876529807757
 30
0.0
 10
171.4353151417869
 20
103.7876529807757
 30
0.0
 10
171.2976046399017
 20
103.7985718460202
 30
0.0
 10
171.02723916868
 20
103.8413803899153
 30
0.0
 10
170.8931806763308
 20
103.8738568755561
 30
0.0
 10
170.6398322542821
 20
103.9584092197757
 30
0.0
 10
170.5199216806347
 20
104.0103028090559
 30
0.0
 10
170.2929586555411
 20
104.1343272410462
 30
0.0
 10
170.1869126604927
 20
104.2062078651467
 30
0.0
 10
169.8997694755311
 20
104.4460078454428
 30
0.0
 10
169.7438486836158
 20
104.6438696610267
 30
0.0
 10
169.5856294447862
 20
104.9785067706625
 30
0.0
 10
169.54437867668
 20
105.098699182538
 30
0.0
 10
169.4896608064115
 20
105.3465598081109
 30
0.0
 10
169.4758837442851
 20
105.4736620844678
 30
0.0
 10
169.4755713087615
 20
105.7344371165371
 30
0.0
 10
169.4895207403191
 20
105.8686807023692
 30
0.0
 10
169.5437903049349
 20
106.1307052271733
 30
0.0
 10
169.584060722304
 20
106.260344286637
 30
0.0
 10
169.6908053954667
 20
106.5149932370528
 30
0.0
 10
169.7556555920425
 20
106.6362784154761
 30
0.0
 10
169.9072608483164
 20
106.8669911087769
 30
0.0
 10
169.9950503296986
 20
106.977306490701
 30
0.0
 10
170.1870827374669
 20
107.1776796545101
 30
0.0
 10
170.2915207982531
 20
107.2684881650695
 30
0.0
 10
170.5180122023212
 20
107.4303772713158
 30
0.0
 10
170.6399921347339
 20
107.5009360086605
 30
0.0
 10
171.0177535071418
 20
107.6714789068348
 30
0.0
 10
171.2967896097683
 20
107.734000635501
 30
0.0
 10
171.7114484321494
 20
107.7345402270112
 30
0.0
 10
171.8516696262281
 20
107.7194722714325
 30
0.0
 10
172.123917813494
 20
107.6600539305187
 30
0.0
 10
172.2553771362862
 20
107.6162903817026
 30
0.0
 10
172.5094755342307
 20
107.5020818890107
 30
0.0
 10
172.6314882637527
 20
107.4315493126813
 30
0.0
 10
172.8572708915233
 20
107.2706085746914
 30
0.0
 10
172.9629244651524
 20
107.1790958647895
 30
0.0
 10
173.1564239437461
 20
106.9773747361631
 30
0.0
 10
173.2425184682276
 20
106.8692026653815
 30
0.0
 10
173.3941680455642
 20
106.6390843674
 30
0.0
 10
173.4602737402181
 20
106.5155696388347
 30
0.0
 10
173.5662724995605
 20
106.2633238066324
 30
0.0
 10
173.6066000799316
 20
106.1345893403873
 30
0.0
 10
173.661458728085
 20
105.8721730813835
 30
0.0
 10
173.6756279849194
 20
105.7378109030823
 30
0.0
 10
173.6759210509177
 20
105.3473666615489
 30
0.0
 10
173.6196782920813
 20
105.0932625345932
 30
0.0
 10
173.4613343699984
 20
104.7570920977397
 30
0.0
 10
173.3954041880555
 20
104.6503641153143
 30
0.0
 10
173.2432798511923
 20
104.4556760645491
 30
0.0
 10
173.1571378480069
 20
104.3671099273671
 30
0.0
 10
172.9643844960273
 20
104.2060196562601
 30
0.0
 10
172.8580985577297
 20
104.1341477102173
 30
0.0
 10
172.6328298859281
 20
104.0109764760432
 30
0.0
 10
172.5129282831019
 20
103.9588485630466
 30
0.0
 10
172.2570501137764
 20
103.8734464161099
 30
0.0
 10
172.125513185808
 20
103.841671958068
 30
0.0
 10
171.8556898471981
 20
103.7987787706862
 30
0.0
 10
171.7161372503338
 20
103.7876529807757
 30
0.0
 10
171.5757261960604
 20
103.7876529807757
 30
0.0
  0
LWPOLYLINE
  5
F8
330
1F
100
AcDbEntity
  8
0
  6
HIDDEN
 62
     7
370
     0
100
AcDbPolyline
 90
       22
 70
   128
 43
0.0
 10
169.5668078087
 20
99.4222766276
 10
169.8039433209
 20
98.9378331664
 10
170.170450529
 20
98.5307379929
 10
170.6395678812
 20
98.2307163028
 10
171.1770414584
 20
98.0596750214
 10
171.7436261199
 20
98.0301032075
 10
172.2979510975
 20
98.1441601301
 10
172.7995407984
 20
98.3935176031
 10
173.2117702437
 20
98.7599680912
 10
173.5045393443
 20
99.2167541842
 10
173.6564707432
 20
99.7305223645
 10
173.6564707432
 20
100.2637584074
 10
173.5045393443
 20
100.7775265877
 10
173.2117702437
 20
101.2343126807
 10
172.7995407984
 20
101.6007631688
 10
172.2979510975
 20
101.8501206417
 10
171.7436261199
 20
101.9641775643
 10
171.1770414584
 20
101.9346057505
 10
170.6395678812
 20
101.763564469
 10
170.170450529
 20
101.463542779
 10
169.8039433209
 20
101.0564476054
 10
169.5668078087
 20
100.5720041442
  0
SPLINE
  5
F9
330
1F
100
AcDbEntity
  8
0
  6
HIDDEN
 62
     7
370
     0
100
AcDbSpline
210
0.0
220
0.0
230
1.0
 70
     8
 71
     3
 72
    16
 73
    12
 74
     0
 42
0.000000001
 43
0.00000001
 40
0.0
 40
0.0
 40
0.0
 40
0.0
 40
0.2500000000000033
 40
0.2500000000000033
 40
0.5000000000000066
 40
0.5000000000000066
 40
0.6250000000000082
 40
0.6250000000000082
 40
0.7500000000000098
 40
0.7500000000000098
 40
1.0
 40
1.0
 40
1.0
 40
1.0
 10
209.9757261960604
 20
120.4190499251271
 30
0.0
 10
209.9757261960604
 20
120.3295295332241
 30
0.0
 10
209.9704986891844
 20
120.238226425054
 30
0.0
 10
209.9412268534736
 20
120.0492040905418
 30
0.0
 10
209.9174833298774
 20
119.9493588391058
 30
0.0
 10
209.8491742690396
 20
119.8091715540523
 30
0.0
 10
209.820303427382
 20
119.7647343251175
 30
0.0
 10
209.7538523837876
 20
119.6948459968
 30
0.0
 10
209.7160453672727
 20
119.6694458935988
 30
0.0
 10
209.6058231490675
 20
119.6246235121027
 30
0.0
 10
209.5378128998842
 20
119.6304659530675
 30
0.0
 10
209.4757261960434
 20
119.6466710076116
 30
0.0
  0
SPLINE
  5
FA
330
1F
100
AcDbEntity
  8
0
  6
HIDDEN
 62
     7
370
     0
100
AcDbSpline
210
0.0
220
0.0
230
1.0
 70
     8
 71
     3
 72
     8
 73
     4
 74
     0
 42
0.000000001
 43
0.00000001
 40
0.0
 40
0.0
 40
0.0
 40
0.0
 40
1.0
 40
1.0
 40
1.0
 40
1.0
 10
209.4757261960434
 20
119.6466710076116
 30
0.0
 10
209.3894828112361
 20
119.588014163465
 30
0.0
 10
209.2861035028171
 20
119.5479413274954
 30
0.0
 10
209.1757261960604
 20
119.5479413274954
 30
0.0
  0
SPLINE
  5
FB
330
1F
100
AcDbEntity
  8
0
  6
HIDDEN
 62
     7
370
     0
100
AcDbSpline
210
0.0
220
0.0
230
1.0
 70
     8
 71
     3
 72
     8
 73
     4
 74
     0
 42
0.000000001
 43
0.00000001
 40
0.0
 40
0.0
 40
0.0
 40
0.0
 40
1.0
 40
1.0
 40
1.0
 40
1.0
 10
209.4757261960767
 20
95.05447592722079
 30
0.0
 10
209.3894828112618
 20
95.11313277137991
 30
0.0
 10
209.2861035028313
 20
95.15320560735951
 30
0.0
 10
209.1757261960604
 20
95.15320560735951
 30
0.0
  0
SPLINE
  5
FC
330
1F
100
AcDbEntity
  8
0
  6
HIDDEN
 62
     7
370
     0
100
AcDbSpline
210
0.0
220
0.0
230
1.0
 70
     8
 71
     3
 72
    16
 73
    12
 74
     0
 42
0.000000001
 43
0.00000001
 40
0.0
 40
0.0
 40
0.0
 40
0.0
 40
0.2499999999999962
 40
0.2499999999999962
 40
0.3749999999999943
 40
0.3749999999999943
 40
0.4999999999999926
 40
0.4999999999999926
 40
0.7499999999999962
 40
0.7499999999999962
 40
1.0
 40
1.0
 40
1.0
 40
1.0
 10
209.4757261960665
 20
95.05447592722382
 30
0.0
 10
209.5377993454509
 20
95.0706775216128
 30
0.0
 10
209.6058609028455
 20
95.07650534472468
 30
0.0
 10
209.7160075848173
 20
95.03172239849343
 30
0.0
 10
209.7534363517548
 20
95.00662584291479
 30
0.0
 10
209.8198467668883
 20
94.93701359922112
 30
0.0
 10
209.8488407829946
 20
94.89256750386306
 30
0.0
 10
209.9174394753172
 20
94.75207456900593
 30
0.0
 10
209.9409785461303
 20
94.65303555795013
 30
0.0
 10
209.9703790896488
 20
94.46420177118188
 30
0.0
 10
209.9757261960604
 20
94.37169166538702
 30
0.0
 10
209.9757261960604
 20
94.28209818947269
 30
0.0
  0
LINE
  5
FD
330
1F
100
AcDbEntity
  8
0
  6
HIDDEN
 62
     7
370
     0
100
AcDbLine
 10
179.4757261961
 20
107.3505734674
 30
0.0
 11
179.4757261961
 21
93.8505734674
 31
0.0
  0
LINE
  5
FE
330
1F
100
AcDbEntity
  8
0
  6
HIDDEN
 62
     7
370
     0
100
AcDbLine
 10
179.4757261961
 20
120.8505734674
 30
0.0
 11
179.4757261961
 21
107.3505734674
 31
0.0
  0
LINE
  5
FF
330
1F
100
AcDbEntity
  8
0
  6
HIDDEN
 62
     7
370
     0
100
AcDbLine
 10
184.3417515998
 20
107.3505734674
 30
0.0
 11
184.3417515998
 21
93.3505734674
 31
0.0
  0
LINE
  5
100
330
1F
100
AcDbEntity
  8
0
  6
HIDDEN
 62
     7
370
     0
100
AcDbLine
 10
184.3417515998
 20
121.3505734674
 30
0.0
 11
184.3417515998
 21
107.3505734674
 31
0.0
  0
LINE
  5
101
330
1F
100
AcDbEntity
  8
0
  6
HIDDEN
 62
     7
370
     0
100
AcDbLine
 10
196.3757261961
 20
119.5479413275
 30
0.0
 11
209.1757261961
 21
119.5479413275
 31
0.0
  0
LINE
  5
102
330
1F
100
AcDbEntity
  8
0
  6
HIDDEN
 62
     7
370
     0
100
AcDbLine
 10
196.3757261961
 20
95.1532056074
 30
0.0
 11
209.1757261961
 21
95.1532056074
 31
0.0
  0
LINE
  5
103
330
1F
100
AcDbEntity
  8
0
  6
HIDDEN
 62
     7
370
     0
100
AcDbLine
 10
156.9757261961
 20
129.8505734674
 30
0.0
 11
157.3129844963
 21
129.8505734674
 31
0.0
  0
ELLIPSE
  5
104
330
1F
100
AcDbEntity
  8
0
  6
HIDDEN
 62
     7
370
     0
100
AcDbEllipse
 10
157.3129844963
 20
131.4505734674
 30
0.0
 11
0.0
 21
1.600000000000023
 31
0.0
210
0.0
220
0.0
230
1.0
 40
0.4142135624
 41
3.141592653589793
 42
4.712388980384695
  0
ELLIPSE
  5
105
330
1F
100
AcDbEntity
  8
0
  6
HIDDEN
 62
     7
370
     0
100
AcDbEllipse
 10
157.3129844963
 20
83.2505734674
 30
0.0
 11
0.0
 21
1.59999999999998
 31
0.0
210
0.0
220
0.0
230
1.0
 40
0.4142135624
 41
4.712388980384695
 42
6.283185307179586
  0
LINE
  5
106
330
1F
100
AcDbEntity
  8
0
  6
HIDDEN
 62
     7
370
     0
100
AcDbLine
 10
157.3129844963
 20
84.8505734674
 30
0.0
 11
156.9757261961
 21
84.8505734674
 31
0.0
  0
LINE
  5
107
330
1F
100
AcDbEntity
  8
0
  6
HIDDEN
 62
     7
370
     0
100
AcDbLine
 10
157.9757261961
 20
77.8965507446
 30
0.0
 11
157.362759019
 21
77.2835835676
 31
0.0
  0
LINE
  5
108
330
1F
100
AcDbEntity
  8
0
  6
HIDDEN
 62
     7
370
     0
100
AcDbLine
 10
157.362759019
 20
137.4175633672
 30
0.0
 11
157.9757261961
 21
136.8045961902
 31
0.0
  0
LINE
  5
109
330
1F
100
AcDbEntity
  8
0
  6
HIDDEN
 62
     7
370
     0
100
AcDbLine
 10
96.5757261961
 20
98.8505734674
 30
0.0
 11
96.5757261961
 21
115.8505734674
 31
0.0
  0
LINE
  5
10A
330
1F
100
AcDbEntity
  8
0
  6
HIDDEN
 62
     7
370
     0
100
AcDbLine
 10
99.5716554104
 20
100.3505734674
 30
0.0
 11
99.5716554104
 21
114.3505734674
 31
0.0
  0
LINE
  5
10B
330
1F
100
AcDbEntity
  8
0
  6
HIDDEN
 62
     7
370
     0
100
AcDbLine
 10
209.4757261955
 20
89.5505734674
 30
0.0
 11
209.4757261961
 21
95.0544759272
 31
0.0
  0
SPLINE
  5
10C
330
1F
100
AcDbEntity
  8
0
  6
HIDDEN
 62
     7
370
     0
100
AcDbSpline
210
0.0
220
0.0
230
1.0
 70
     8
 71
     3
 72
    14
 73
    10
 74
     0
 42
0.000000001
 43
0.00000001
 40
0.0
 40
0.0
 40
0.0
 40
0.0
 40
0.0746618067440442
 40
0.2406348416958264
 40
0.4015158956304958
 40
0.5670617176465034
 40
0.728002656132733
 40
0.8935907796939718
 40
1.0
 40
1.0
 40
1.0
 40
1.0
 10
209.4167218231131
 20
87.46555155300717
 30
0.0
 10
209.4152308285502
 20
87.46418629036756
 30
0.0
 10
209.4104253562978
 20
87.45978605183218
 30
0.0
 10
209.4108362683477
 20
87.57933076713063
 30
0.0
 10
209.4195380902011
 20
87.81696012647033
 30
0.0
 10
209.4369201880267
 20
88.16630739266017
 30
0.0
 10
209.4578368118816
 20
88.61676500528372
 30
0.0
 10
209.4730375630612
 20
89.08673847491622
 30
0.0
 10
209.4749701428294
 20
89.42014148083757
 30
0.0
 10
209.4757261954562
 20
89.55057346742747
 30
0.0
  0
LINE
  5
10D
330
1F
100
AcDbEntity
  8
0
  6
HIDDEN
 62
     7
370
     0
100
AcDbLine
 10
157.9757261961
 20
136.8045961902
 30
0.0
 11
167.1082877396
 21
136.8045961902
 31
0.0
  0
LINE
  5
10E
330
1F
100
AcDbEntity
  8
0
  6
HIDDEN
 62
     7
370
     0
100
AcDbLine
 10
157.9757261961
 20
136.8045961902
 30
0.0
 11
157.9757261961
 21
131.4505734674
 31
0.0
  0
LINE
  5
10F
330
1F
100
AcDbEntity
  8
0
  6
HIDDEN
 62
     7
370
     0
100
AcDbLine
 10
167.1082877396
 20
77.8965507446
 30
0.0
 11
157.9757261961
 21
77.8965507446
 31
0.0
  0
LINE
  5
110
330
1F
100
AcDbEntity
  8
0
  6
HIDDEN
 62
     7
370
     0
100
AcDbLine
 10
157.9757261961
 20
77.8965507446
 30
0.0
 11
157.9757261961
 21
83.2505734674
 31
0.0
  0
LINE
  5
111
330
1F
100
AcDbEntity
  8
0
  6
HIDDEN
 62
     7
370
     0
100
AcDbLine
 10
169.9257261961
 20
84.8505734674
 30
0.0
 11
157.3129844963
 21
84.8505734674
 31
0.0
  0
LINE
  5
112
330
1F
100
AcDbEntity
  8
0
  6
HIDDEN
 62
     7
370
     0
100
AcDbLine
 10
157.3129844963
 20
129.8505734674
 30
0.0
 11
169.9257261961
 21
129.8505734674
 31
0.0
  0
LINE
  5
113
330
1F
100
AcDbEntity
  8
0
  6
HIDDEN
 62
     7
370
     0
100
AcDbLine
 10
169.9257261961
 20
129.8505734674
 30
0.0
 11
176.3757261961
 21
129.8505734674
 31
0.0
  0
LINE
  5
114
330
1F
100
AcDbEntity
  8
0
  6
HIDDEN
 62
     7
370
     0
100
AcDbLine
 10
176.3757261961
 20
84.8505734674
 30
0.0
 11
169.9257261961
 21
84.8505734674
 31
0.0
  0
LINE
  5
115
330
1F
100
AcDbEntity
  8
0
  6
HIDDEN
 62
     7
370
     0
100
AcDbLine
 10
175.9519679623
 20
77.445525574
 30
0.0
 11
176.0459106919
 21
77.4205419026
 31
0.0
  0
SPLINE
  5
116
330
1F
100
AcDbEntity
  8
0
  6
HIDDEN
 62
     7
370
     0
100
AcDbSpline
210
0.0
220
0.0
230
1.0
 70
     8
 71
     3
 72
    13
 73
     9
 74
     0
 42
0.000000001
 43
0.00000001
 40
0.0
 40
0.0
 40
0.0
 40
0.0
 40
0.0000730266253407
 40
0.1576811714019511
 40
0.3241446478108668
 40
0.4996852929261713
 40
0.7294244053126598
 40
1.0
 40
1.0
 40
1.0
 40
1.0
 10
177.9757048890082
 20
76.85058176847933
 30
0.0
 10
177.975711990716
 20
76.8505788583444
 30
0.0
 10
177.991046200616
 20
76.84429521206637
 30
0.0
 10
177.9315851285257
 20
76.86800690510769
 30
0.0
 10
177.7708347264262
 20
76.92348183566808
 30
0.0
 10
177.4361500901753
 20
77.03142890364842
 30
0.0
 10
176.8782758316414
 20
77.20270112133744
 30
0.0
 10
176.2771094261027
 20
77.36043154932045
 30
0.0
 10
175.9519921441503
 20
77.44573386753811
 30
0.0
  0
SPLINE
  5
117
330
1F
100
AcDbEntity
  8
0
  6
HIDDEN
 62
     7
370
     0
100
AcDbSpline
210
0.0
220
0.0
230
1.0
 70
     8
 71
     3
 72
    13
 73
     9
 74
     0
 42
0.000000001
 43
0.00000001
 40
0.0
 40
0.0
 40
0.0
 40
0.0
 40
0.1850454653144679
 40
0.3520092965859432
 40
0.5010298177386109
 40
0.6766227814582007
 40
0.8430962614808595
 40
1.0
 40
1.0
 40
1.0
 40
1.0
 10
175.9519898266728
 20
137.2554342431385
 30
0.0
 10
176.1787799422929
 20
137.3142709146784
 30
0.0
 10
176.6101994798449
 20
137.4261950589801
 30
0.0
 10
177.0976549507966
 20
137.5664611306084
 30
0.0
 10
177.4867641273408
 20
137.6857558898637
 30
0.0
 10
177.7676640477659
 20
137.776423699488
 30
0.0
 10
177.944548822831
 20
137.8383394598372
 30
0.0
 10
177.9654112026543
 20
137.846528715995
 30
0.0
 10
177.9755337010895
 20
137.8505021712452
 30
0.0
  0
LINE
  5
118
330
1F
100
AcDbEntity
  8
0
  6
HIDDEN
 62
     7
370
     0
100
AcDbLine
 10
176.7022203698
 20
137.4551473224
 30
0.0
 11
175.9519678086
 21
137.2556216693
 31
0.0
  0
LINE
  5
119
330
1F
100
AcDbEntity
  8
0
  6
HIDDEN
 62
     7
370
     0
100
AcDbLine
 10
132.5757261961
 20
100.3505734674
 30
0.0
 11
132.5757261961
 21
114.3505734674
 31
0.0
  0
LINE
  5
11A
330
1F
100
AcDbEntity
  8
0
  6
HIDDEN
 62
     7
370
     0
100
AcDbLine
 10
133.7173613722
 20
102.2505734674
 30
0.0
 11
133.7173613722
 21
112.4505734674
 31
0.0
  0
LINE
  5
11B
330
1F
100
AcDbEntity
  8
0
  6
HIDDEN
 62
     7
370
     0
100
AcDbLine
 10
196.3757261961
 20
89.5505734674
 30
0.0
 11
196.3757261961
 21
95.1532056074
 31
0.0
  0
LINE
  5
11C
330
1F
100
AcDbEntity
  8
0
  6
HIDDEN
 62
     7
370
     0
100
AcDbLine
 10
196.3757261961
 20
125.1505734674
 30
0.0
 11
196.3757261961
 21
119.5479413275
 31
0.0
  0
SPLINE
  5
11D
330
1F
100
AcDbEntity
  8
0
  6
HIDDEN
 62
     7
370
     0
100
AcDbSpline
210
0.0
220
0.0
230
1.0
 70
     8
 71
     3
 72
     9
 73
     5
 74
     0
 42
0.000000001
 43
0.00000001
 40
0.0
 40
0.0
 40
0.0
 40
0.0
 40
0.4932365035776448
 40
1.0
 40
1.0
 40
1.0
 40
1.0
 10
175.9527857347579
 20
137.2554049785998
 30
0.0
 10
176.0586336902665
 20
137.4124263668827
 30
0.0
 10
176.2732324775438
 20
137.7307754492072
 30
0.0
 10
176.4910923594281
 20
138.0506015568848
 30
0.0
 10
176.6014957949019
 20
138.2126777534586
 30
0.0
  0
SPLINE
  5
11E
330
1F
100
AcDbEntity
  8
0
  6
HIDDEN
 62
     7
370
     0
100
AcDbSpline
210
0.0
220
0.0
230
1.0
 70
     8
 71
     3
 72
     9
 73
     5
 74
     0
 42
0.000000001
 43
0.00000001
 40
0.0
 40
0.0
 40
0.0
 40
0.0
 40
0.5067661695379747
 40
1.0
 40
1.0
 40
1.0
 40
1.0
 10
176.6014994801878
 20
76.48848331695034
 30
0.0
 10
176.4910946497138
 20
76.65056073153046
 30
0.0
 10
176.2732331642585
 20
76.97038755566099
 30
0.0
 10
176.0586334463729
 20
77.28873607192546
 30
0.0
 10
175.952785605504
 20
77.4457563300245
 30
0.0
  0
SPLINE
  5
11F
330
1F
100
AcDbEntity
  8
0
  6
HIDDEN
 62
     7
370
     0
100
AcDbSpline
210
0.0
220
0.0
230
1.0
 70
    11
 71
     3
 72
    64
 73
    60
 74
     0
 42
0.000000001
 43
0.00000001
 40
0.0
 40
0.0
 40
0.0
 40
0.0
 40
0.03125
 40
0.03125
 40
0.0625
 40
0.0625
 40
0.09375
 40
0.09375
 40
0.1250000000000001
 40
0.1250000000000001
 40
0.1875000000000001
 40
0.1875000000000001
 40
0.2187500000000001
 40
0.2187500000000001
 40
0.2500000000000001
 40
0.2500000000000001
 40
0.28125
 40
0.28125
 40
0.3125
 40
0.3125
 40
0.3437500000000001
 40
0.3437500000000001
 40
0.3750000000000001
 40
0.3750000000000001
 40
0.4062500000000001
 40
0.4062500000000001
 40
0.4375
 40
0.4375
 40
0.4999999999999999
 40
0.4999999999999999
 40
0.5312499999999999
 40
0.5312499999999999
 40
0.5624999999999999
 40
0.5624999999999999
 40
0.5937499999999999
 40
0.5937499999999999
 40
0.6249999999999999
 40
0.6249999999999999
 40
0.65625
 40
0.65625
 40
0.6875
 40
0.6875
 40
0.71875
 40
0.71875
 40
0.75
 40
0.75
 40
0.8124999999999999
 40
0.8124999999999999
 40
0.8437499999999999
 40
0.8437499999999999
 40
0.8749999999999999
 40
0.8749999999999999
 40
0.90625
 40
0.90625
 40
0.9375
 40
0.9375
 40
0.96875
 40
0.96875
 40
1.0
 40
1.0
 40
1.0
 40
1.0
 10
171.5757261960604
 20
106.9667849467784
 30
0.0
 10
171.7161372503338
 20
106.9667849467784
 30
0.0
 10
171.853847752219
 20
106.9820589342344
 30
0.0
 10
172.1242132234407
 20
107.0412494216331
 30
0.0
 10
172.25827171579
 20
107.0859555215218
 30
0.0
 10
172.5116201378387
 20
107.2002350751648
 30
0.0
 10
172.6315307114861
 20
107.2695671965454
 30
0.0
 10
172.8584937365796
 20
107.4314710418454
 30
0.0
 10
172.9645397316281
 20
107.5236615054344
 30
0.0
 10
173.2516829165897
 20
107.8232262497162
 30
0.0
 10
173.407603708505
 20
108.0603955765607
 30
0.0
 10
173.5658229473346
 20
108.4366748160483
 30
0.0
 10
173.6070737154408
 20
108.568189481815
 30
0.0
 10
173.6617915857093
 20
108.8312092122352
 30
0.0
 10
173.6755686478357
 20
108.9622231708052
 30
0.0
 10
173.6758810833593
 20
109.2230862045574
 30
0.0
 10
173.6619316518017
 20
109.3533700297921
 30
0.0
 10
173.6076620871859
 20
109.6003574253727
 30
0.0
 10
173.5673916698168
 20
109.7189310409993
 30
0.0
 10
173.460646996654
 20
109.9454740210695
 30
0.0
 10
173.3957968000782
 20
110.0501548633199
 30
0.0
 10
173.2441915438044
 20
110.2444285086735
 30
0.0
 10
173.1564020624222
 20
110.3346951525758
 30
0.0
 10
172.9643696546538
 20
110.4950962876555
 30
0.0
 10
172.8599315938677
 20
110.5658975671753
 30
0.0
 10
172.6334401897996
 20
110.689935093245
 30
0.0
 10
172.5114602573869
 20
110.7427536527835
 30
0.0
 10
172.1336988849789
 20
110.8689394953979
 30
0.0
 10
171.8546627823525
 20
110.9132346707312
 30
0.0
 10
171.4400039599714
 20
110.9136218468658
 30
0.0
 10
171.2997827658926
 20
110.9028519826882
 30
0.0
 10
171.0275345786268
 20
110.8598806855715
 30
0.0
 10
170.8960752558346
 20
110.8280948892158
 30
0.0
 10
170.64197685789
 20
110.7436114924271
 30
0.0
 10
170.519964128368
 20
110.6908162303559
 30
0.0
 10
170.2941815005975
 20
110.567538725657
 30
0.0
 10
170.1885279269684
 20
110.4962204702856
 30
0.0
 10
169.9950284483747
 20
110.3347592249434
 30
0.0
 10
169.9089339238932
 20
110.2462532205986
 30
0.0
 10
169.7572843465566
 20
110.0525543785172
 30
0.0
 10
169.6911786519027
 20
109.9459567530889
 30
0.0
 10
169.5851798925603
 20
109.7216113378781
 30
0.0
 10
169.5448523121892
 20
109.6039496766202
 30
0.0
 10
169.4899936640358
 20
109.3567290350138
 30
0.0
 10
169.4758244072013
 20
109.2263887025017
 30
0.0
 10
169.475531341203
 20
108.8360270069892
 30
0.0
 10
169.5317741000395
 20
108.5656175819361
 30
0.0
 10
169.6901180221224
 20
108.1877532799023
 30
0.0
 10
169.7560482040653
 20
108.0641402308739
 30
0.0
 10
169.9081725409285
 20
107.8329003522488
 30
0.0
 10
169.9943145441138
 20
107.7246563553866
 30
0.0
 10
170.1870678960935
 20
107.5234347860702
 30
0.0
 10
170.293353834391
 20
107.4312324044617
 30
0.0
 10
170.5186225061927
 20
107.2704508715257
 30
0.0
 10
170.6385241090189
 20
107.2008286918668
 30
0.0
 10
170.8944022783444
 20
107.0854009436557
 30
0.0
 10
171.0259392063128
 20
107.0416507638378
 30
0.0
 10
171.2957625449227
 20
106.982346826896
 30
0.0
 10
171.4353151417869
 20
106.9667849467784
 30
0.0
 10
171.5757261960604
 20
106.9667849467784
 30
0.0
  0
LINE
  5
120
330
1F
100
AcDbEntity
  8
0
  6
HIDDEN
 62
     7
370
     0
100
AcDbLine
 10
196.3757261961
 20
127.2505734674
 30
0.0
 11
196.3757261961
 21
125.1505734674
 31
0.0
  0
LINE
  5
121
330
1F
100
AcDbEntity
  8
0
  6
HIDDEN
 62
     7
370
     0
100
AcDbLine
 10
196.3757261961
 20
87.4505734674
 30
0.0
 11
196.3757261961
 21
89.5505734674
 31
0.0
  0
SPLINE
  5
122
330
1F
100
AcDbEntity
  8
0
  6
HIDDEN
 62
     7
370
     0
100
AcDbSpline
210
0.0
220
0.0
230
1.0
 70
     8
 71
     3
 72
    22
 73
    18
 74
     0
 42
0.000000001
 43
0.00000001
 40
0.0
 40
0.0
 40
0.0
 40
0.0
 40
0.1250000000000003
 40
0.1250000000000003
 40
0.2500000000000006
 40
0.2500000000000006
 40
0.3750000000000009
 40
0.3750000000000009
 40
0.5000000000000012
 40
0.5000000000000012
 40
0.6250000000000016
 40
0.6250000000000016
 40
0.7500000000000018
 40
0.7500000000000018
 40
0.8750000000000009
 40
0.8750000000000009
 40
1.0
 40
1.0
 40
1.0
 40
1.0
 10
173.2520946347606
 20
115.2152284430827
 30
0.0
 10
173.1538164112051
 20
115.0906997231505
 30
0.0
 10
173.042493643898
 20
114.9790965837182
 30
0.0
 10
172.7946850355332
 20
114.7811127405298
 30
0.0
 10
172.6567335099831
 20
114.6944582183411
 30
0.0
 10
172.368472548399
 20
114.5559346431181
 30
0.0
 10
172.2160290294868
 20
114.5024908918415
 30
0.0
 10
171.8991172912111
 20
114.4303107416964
 30
0.0
 10
171.7391287871027
 20
114.4123927023029
 30
0.0
 10
171.4161586804808
 20
114.4121075608054
 30
0.0
 10
171.2525961968279
 20
114.4304058706738
 30
0.0
 10
170.9390979656881
 20
114.5015012928646
 30
0.0
 10
170.7855959994592
 20
114.5548118451286
 30
0.0
 10
170.4949933015849
 20
114.6941932831531
 30
0.0
 10
170.3601730581712
 20
114.7787471802609
 30
0.0
 10
170.1112249815419
 20
114.976938628167
 30
0.0
 10
169.9976357483728
 20
115.0907000178065
 30
0.0
 10
169.8993577573602
 20
115.2152284430827
 30
0.0
  0
SPLINE
  5
123
330
1F
100
AcDbEntity
  8
0
  6
HIDDEN
 62
     7
370
     0
100
AcDbSpline
210
0.0
220
0.0
230
1.0
 70
     8
 71
     3
 72
    18
 73
    14
 74
     0
 42
0.000000001
 43
0.00000001
 40
0.0
 40
0.0
 40
0.0
 40
0.0
 40
0.2500000000000009
 40
0.2500000000000009
 40
0.3750000000000011
 40
0.3750000000000011
 40
0.5000000000000012
 40
0.5000000000000012
 40
0.6250000000000013
 40
0.6250000000000013
 40
0.7500000000000016
 40
0.7500000000000016
 40
1.0
 40
1.0
 40
1.0
 40
1.0
 10
173.2520946347606
 20
117.5923267676615
 30
0.0
 10
173.390664983491
 20
117.4227467734257
 30
0.0
 10
173.4951504030415
 20
117.2491355652839
 30
0.0
 10
173.6027066361794
 20
116.9661043028804
 30
0.0
 10
173.6297166101515
 20
116.8694312677875
 30
0.0
 10
173.666257572264
 20
116.6683628406161
 30
0.0
 10
173.6757333927762
 20
116.5626189435295
 30
0.0
 10
173.6757189909654
 20
116.3483694512502
 30
0.0
 10
173.6664968779436
 20
116.24034145284
 30
0.0
 10
173.6302521319121
 20
116.0233485633085
 30
0.0
 10
173.6028778406334
 20
115.9134989455735
 30
0.0
 10
173.4956177187354
 20
115.5939151556576
 30
0.0
 10
173.3904271965961
 20
115.3905101710899
 30
0.0
 10
173.2520946347608
 20
115.2152284430825
 30
0.0
  0
SPLINE
  5
124
330
1F
100
AcDbEntity
  8
0
  6
HIDDEN
 62
     7
370
     0
100
AcDbSpline
210
0.0
220
0.0
230
1.0
 70
     8
 71
     3
 72
    22
 73
    18
 74
     0
 42
0.000000001
 43
0.00000001
 40
0.0
 40
0.0
 40
0.0
 40
0.0
 40
0.1249999999999991
 40
0.1249999999999991
 40
0.2499999999999982
 40
0.2499999999999982
 40
0.3749999999999984
 40
0.3749999999999984
 40
0.4999999999999988
 40
0.4999999999999988
 40
0.6249999999999991
 40
0.6249999999999991
 40
0.7499999999999993
 40
0.7499999999999993
 40
0.8749999999999997
 40
0.8749999999999997
 40
1.0
 40
1.0
 40
1.0
 40
1.0
 10
169.8993577573602
 20
117.5923267676615
 30
0.0
 10
169.9976359809157
 20
117.7125979565323
 30
0.0
 10
170.1089587482228
 20
117.8197461649283
 30
0.0
 10
170.3567673565876
 20
118.0091242033488
 30
0.0
 10
170.4947188821377
 20
118.0916043569063
 30
0.0
 10
170.7829798437217
 20
118.2231391882177
 30
0.0
 10
170.935423362634
 20
118.2736991940029
 30
0.0
 10
171.2523351009096
 20
118.3419258694027
 30
0.0
 10
171.4123236050181
 20
118.3588229410283
 30
0.0
 10
171.73529371164
 20
118.3590920460109
 30
0.0
 10
171.8988561952928
 20
118.3418355167102
 30
0.0
 10
172.2123544264327
 20
118.2746350190641
 30
0.0
 10
172.3658563926616
 20
118.2242040134319
 30
0.0
 10
172.6564590905358
 20
118.0918572382969
 30
0.0
 10
172.7912793339496
 20
118.0113807009622
 30
0.0
 10
173.0402274105789
 20
117.8218164177555
 30
0.0
 10
173.153816643748
 20
117.7125976719503
 30
0.0
 10
173.2520946347606
 20
117.5923267676615
 30
0.0
  0
SPLINE
  5
125
330
1F
100
AcDbEntity
  8
0
  6
HIDDEN
 62
     7
370
     0
100
AcDbSpline
210
0.0
220
0.0
230
1.0
 70
     8
 71
     3
 72
    18
 73
    14
 74
     0
 42
0.000000001
 43
0.00000001
 40
0.0
 40
0.0
 40
0.0
 40
0.0
 40
0.2499999999999989
 40
0.2499999999999989
 40
0.3749999999999992
 40
0.3749999999999992
 40
0.4999999999999996
 40
0.4999999999999996
 40
0.6249999999999999
 40
0.6249999999999999
 40
0.7500000000000002
 40
0.7500000000000002
 40
1.0
 40
1.0
 40
1.0
 40
1.0
 10
169.8993577573602
 20
115.2152284430827
 30
0.0
 10
169.7607874086298
 20
115.3908114717912
 30
0.0
 10
169.6563019890793
 20
115.5928044874222
 30
0.0
 10
169.5487457559413
 20
115.9128487782201
 30
0.0
 10
169.5217357819693
 20
116.0209080540652
 30
0.0
 10
169.4851948198567
 20
116.2381592831819
 30
0.0
 10
169.4757189993445
 20
116.3486222163699
 30
0.0
 10
169.4757334011553
 20
116.5628647818127
 30
0.0
 10
169.4849555141772
 20
116.6662960686041
 30
0.0
 10
169.5212002602086
 20
116.8672187058873
 30
0.0
 10
169.5485745514874
 20
116.9655239487465
 30
0.0
 10
169.6558346733854
 20
117.2481640418155
 30
0.0
 10
169.7610251955246
 20
117.4230377729121
 30
0.0
 10
169.8993577573599
 20
117.5923267676616
 30
0.0
  0
SPLINE
  5
126
330
1F
100
AcDbEntity
  8
0
  6
HIDDEN
 62
     7
370
     0
100
AcDbSpline
210
0.0
220
0.0
230
1.0
 70
    11
 71
     3
 72
    56
 73
    52
 74
     0
 42
0.000000001
 43
0.00000001
 40
0.0
 40
0.0
 40
0.0
 40
0.0
 40
0.0312500000000002
 40
0.0312500000000002
 40
0.0625000000000005
 40
0.0625000000000005
 40
0.1250000000000013
 40
0.1250000000000013
 40
0.1562500000000017
 40
0.1562500000000017
 40
0.1875000000000021
 40
0.1875000000000021
 40
0.2187500000000025
 40
0.2187500000000025
 40
0.2500000000000029
 40
0.2500000000000029
 40
0.3125000000000036
 40
0.3125000000000036
 40
0.343750000000004
 40
0.343750000000004
 40
0.3750000000000044
 40
0.3750000000000044
 40
0.4375000000000048
 40
0.4375000000000048
 40
0.4687500000000049
 40
0.4687500000000049
 40
0.500000000000005
 40
0.500000000000005
 40
0.5312500000000051
 40
0.5312500000000051
 40
0.5625000000000052
 40
0.5625000000000052
 40
0.625000000000005
 40
0.625000000000005
 40
0.6875000000000047
 40
0.6875000000000047
 40
0.7500000000000043
 40
0.7500000000000043
 40
0.7812500000000039
 40
0.7812500000000039
 40
0.8125000000000033
 40
0.8125000000000033
 40
0.8437500000000028
 40
0.8437500000000028
 40
0.8750000000000022
 40
0.8750000000000022
 40
0.9062500000000017
 40
0.9062500000000017
 40
0.9375000000000012
 40
0.9375000000000012
 40
1.0
 40
1.0
 40
1.0
 40
1.0
 10
169.5351501952232
 20
113.0174535564038
 30
0.0
 10
169.5638217118202
 20
112.9156394915309
 30
0.0
 10
169.6015916314039
 20
112.8232365738812
 30
0.0
 10
169.6918897681736
 20
112.6564584891856
 30
0.0
 10
169.7451654643469
 20
112.5815888000626
 30
0.0
 10
169.9140965411212
 20
112.3954681355477
 30
0.0
 10
170.0452832571054
 20
112.3174516379643
 30
0.0
 10
170.1905687771089
 20
112.2968770874096
 30
0.0
 10
170.2287097099105
 20
112.3064253073423
 30
0.0
 10
170.2734862430747
 20
112.3537815365223
 30
0.0
 10
170.2803809811147
 20
112.3918822987825
 30
0.0
 10
170.2691324355008
 20
112.4840027767466
 30
0.0
 10
170.251471590296
 20
112.5390582188859
 30
0.0
 10
170.2027475845341
 20
112.6586649770653
 30
0.0
 10
170.1718085861427
 20
112.723342846168
 30
0.0
 10
170.068153050824
 20
112.9307042285915
 30
0.0
 10
169.9843477141619
 20
113.0874919838144
 30
0.0
 10
169.8588974497095
 20
113.3466372464672
 30
0.0
 10
169.816804269662
 20
113.437389621017
 30
0.0
 10
169.7340632783491
 20
113.6303908430552
 30
0.0
 10
169.6932330449414
 20
113.7331718055836
 30
0.0
 10
169.5803832887813
 20
114.0554129187635
 30
0.0
 10
169.5156931054174
 20
114.2943594574746
 30
0.0
 10
169.4752234276794
 20
114.6631265624519
 30
0.0
 10
169.4721816314894
 20
114.7828859730969
 30
0.0
 10
169.4879847880669
 20
115.001984234306
 30
0.0
 10
169.5067278856117
 20
115.1003132426298
 30
0.0
 10
169.5580017890051
 20
115.2671882898364
 30
0.0
 10
169.5905263350375
 20
115.3370629359326
 30
0.0
 10
169.6626794834794
 20
115.4536719962251
 30
0.0
 10
169.7017846602322
 20
115.4998926359982
 30
0.0
 10
169.8237823986786
 20
115.6127114534863
 30
0.0
 10
169.9113142114084
 20
115.653164742846
 30
0.0
 10
170.0734307643609
 20
115.6840228622684
 30
0.0
 10
170.1509884216495
 20
115.6751196766999
 30
0.0
 10
170.2621332447534
 20
115.6040436282618
 30
0.0
 10
170.2948662310954
 20
115.5418047095516
 30
0.0
 10
170.2512378487753
 20
115.3839034262786
 30
0.0
 10
170.2209225877792
 20
115.3206480234084
 30
0.0
 10
170.1360656041421
 20
115.1753339575486
 30
0.0
 10
170.0812165298791
 20
115.0919620417894
 30
0.0
 10
169.9663778444667
 20
114.9133688842989
 30
0.0
 10
169.9049584152872
 20
114.8156221358815
 30
0.0
 10
169.7887504284002
 20
114.610643836782
 30
0.0
 10
169.7332363634317
 20
114.5023619014685
 30
0.0
 10
169.6350323880864
 20
114.2770119973401
 30
0.0
 10
169.5931419698403
 20
114.162106041879
 30
0.0
 10
169.5266352895356
 20
113.9268386388459
 30
0.0
 10
169.5021917946082
 20
113.8058413043502
 30
0.0
 10
169.4617018688128
 20
113.4526398721738
 30
0.0
 10
169.4778071620292
 20
113.2210816861495
 30
0.0
 10
169.5351501952232
 20
113.0174535564038
 30
0.0
  0
LWPOLYLINE
  5
127
330
1F
100
AcDbEntity
  8
0
  6
HIDDEN
 62
     7
370
     0
100
AcDbPolyline
 90
       21
 70
   128
 43
0.0
 10
157.5807324687
 20
115.3780376954
 10
157.6958844623
 20
115.0121017469
 10
157.8767856729
 20
114.7732401785
 10
158.1057282296
 20
114.6848344248
 10
158.3603016398
 20
114.7555382567
 10
158.6155864844
 20
114.9784306907
 10
158.8465937041
 20
115.3316934623
 10
159.0307107028
 20
115.7807467501
 10
159.1499148257
 20
116.2816340896
 10
159.1925375428
 20
116.7853251381
 10
159.1544066456
 20
117.2425151063
 10
159.039254652
 20
117.6084510547
 10
158.8583534414
 20
117.8473126231
 10
158.6294108847
 20
117.9357183769
 10
158.3748374745
 20
117.8650145449
 10
158.1195526299
 20
117.6421221109
 10
157.8885454102
 20
117.2888593393
 10
157.7044284116
 20
116.8398060515
 10
157.5852242886
 20
116.338918712
 10
157.5426015715
 20
115.8352276636
 10
157.5807324687
 20
115.3780376954
  0
LWPOLYLINE
  5
128
330
1F
100
AcDbEntity
  8
0
  6
HIDDEN
 62
     7
370
     0
100
AcDbPolyline
 90
       24
 70
   128
 43
0.0
 10
157.2242971744
 20
115.1517999348
 10
157.3465963632
 20
114.738471912
 10
157.53409659
 20
114.4437947487
 10
157.7728918207
 20
114.2896233023
 10
158.0452717055
 20
114.2873917634
 10
158.3310350742
 20
114.4372656353
 10
158.6089881653
 20
114.7281294583
 10
158.8585164694
 20
115.1384111935
 10
159.0611136137
 20
115.6376821213
 10
159.2017538949
 20
116.1889136012
 10
159.2700066667
 20
116.7512233159
 10
159.2608099333
 20
117.2829073263
 10
159.1748457743
 20
117.7445330616
 10
159.0184897581
 20
118.1018638529
 10
158.8033380951
 20
118.3283981101
 10
158.5453476
 20
118.4073348236
 10
158.2636522476
 20
118.3328196184
 10
157.9791440933
 20
118.1103789465
 10
157.7129238057
 20
117.756510215
 10
157.4847357254
 20
117.2974582487
 10
157.3115035185
 20
116.767268832
 10
157.2060750253
 20
116.2052636885
 10
157.1762693948
 20
115.6531241687
 10
157.2242971744
 20
115.1517999348
  0
LWPOLYLINE
  5
129
330
1F
100
AcDbEntity
  8
0
  6
HIDDEN
 62
     7
370
     0
100
AcDbPolyline
 90
       26
 70
   128
 43
0.0
 10
169.0924116961
 20
115.2314875173
 10
169.2421407704
 20
115.8033054873
 10
169.5384975994
 20
116.3221682498
 10
169.9628609935
 20
116.7554737489
 10
170.48856664
 20
117.0759958068
 10
171.0825825197
 20
117.2635948436
 10
171.7075844303
 20
117.3064833219
 10
172.324301203
 20
117.201966401
 10
172.893982255
 20
116.9566112633
 10
173.3808324306
 20
116.5858344745
 10
173.7542611428
 20
116.1129333038
 10
173.9908044921
 20
115.5676218711
 10
174.0755995901
 20
114.9841640991
 10
174.0033184489
 20
114.3992207855
 10
173.7785027583
 20
113.84954607
 10
173.4152785151
 20
113.3696780364
 10
172.9364684343
 20
112.9897685582
 10
172.3721579142
 20
112.733688745
 10
171.7578046602
 20
112.6175290335
 10
171.1320107466
 20
112.6485881653
 10
170.5340971066
 20
112.8249145811
 10
170.0016328532
 20
113.1354290436
 10
169.5680746735
 20
113.5606207872
 10
169.2606646227
 20
114.0737734509
 10
169.0987184047
 20
114.6426437656
 10
169.0924116961
 20
115.2314875173
  0
LWPOLYLINE
  5
12A
330
1F
100
AcDbEntity
  8
0
  6
HIDDEN
 62
     7
370
     0
100
AcDbPolyline
 90
       22
 70
   128
 43
0.0
 10
169.8374060461
 20
114.8936826515
 10
169.9741307974
 20
115.3667345073
 10
170.2531643284
 20
115.7809000757
 10
170.6497132853
 20
116.0993789283
 10
171.128542553
 20
116.2938728216
 10
171.6471060499
 20
116.3471001195
 10
172.1593271335
 20
116.254331343
 10
172.6196927128
 20
116.0238094051
 10
172.9872972856
 20
115.6760171916
 10
173.2294775726
 20
115.2418575669
 10
173.3247147924
 20
114.7599075189
 10
173.2645467001
 20
114.2729904244
 10
173.0543194947
 20
113.8243710041
 10
172.7127127861
 20
113.4539110621
 10
172.2700798294
 20
113.1945275901
 10
171.7657505052
 20
113.0692679478
 10
171.2445366872
 20
113.0892620042
 10
170.7527505105
 20
113.2527331995
 10
170.3340893351
 20
113.5451564008
 10
170.0257530435
 20
113.9405485232
 10
169.8551386685
 20
114.4037772416
 10
169.8374060461
 20
114.8936826515
  0
LWPOLYLINE
  5
12B
330
1F
100
AcDbEntity
  8
0
  6
HIDDEN
 62
     7
370
     0
100
AcDbPolyline
 90
       26
 70
   128
 43
0.0
 10
169.0924116961
 20
116.5972010137
 10
169.2421407704
 20
117.1690189838
 10
169.5384975994
 20
117.6878817462
 10
169.9628609935
 20
118.1211872454
 10
170.48856664
 20
118.4417093032
 10
171.0825825197
 20
118.62930834
 10
171.7075844303
 20
118.6721968183
 10
172.324301203
 20
118.5676798974
 10
172.893982255
 20
118.3223247597
 10
173.3808324306
 20
117.9515479709
 10
173.7542611428
 20
117.4786468002
 10
173.9908044921
 20
116.9333353675
 10
174.0755995901
 20
116.3498775955
 10
174.0033184489
 20
115.7649342819
 10
173.7785027583
 20
115.2152595664
 10
173.4152785151
 20
114.7353915328
 10
172.9364684343
 20
114.3554820546
 10
172.3721579142
 20
114.0994022415
 10
171.7578046602
 20
113.9832425299
 10
171.1320107466
 20
114.0143016617
 10
170.5340971066
 20
114.1906280775
 10
170.0016328532
 20
114.50114254
 10
169.5680746735
 20
114.9263342837
 10
169.2606646227
 20
115.4394869474
 10
169.0987184047
 20
116.0083572621
 10
169.0924116961
 20
116.5972010137
  0
LINE
  5
12C
330
1F
100
AcDbEntity
  8
0
  6
HIDDEN
 62
     7
370
     0
100
AcDbLine
 10
171.0030329716
 20
116.9750642406
 30
0.0
 11
170.141983901
 21
115.8865091916
 31
0.0
  0
LINE
  5
12D
330
1F
100
AcDbEntity
  8
0
  6
HIDDEN
 62
     7
370
     0
100
AcDbLine
 10
171.0030329716
 20
116.9750642406
 30
0.0
 11
172.4367752667
 21
116.8186220279
 31
0.0
  0
LINE
  5
12E
330
1F
100
AcDbEntity
  8
0
  6
HIDDEN
 62
     7
370
     0
100
AcDbLine
 10
171.0030329716
 20
116.9750642406
 30
0.0
 11
171.0030329716
 21
117.6591045273
 31
0.0
  0
LINE
  5
12F
330
1F
100
AcDbEntity
  8
0
  6
HIDDEN
 62
     7
370
     0
100
AcDbLine
 10
172.4367752667
 20
116.8186220279
 30
0.0
 11
172.4367752667
 21
117.5026623146
 31
0.0
  0
LINE
  5
130
330
1F
100
AcDbEntity
  8
0
  6
HIDDEN
 62
     7
370
     0
100
AcDbLine
 10
172.4367752667
 20
116.8186220279
 30
0.0
 11
173.0094684911
 21
115.5736247662
 31
0.0
  0
LINE
  5
131
330
1F
100
AcDbEntity
  8
0
  6
HIDDEN
 62
     7
370
     0
100
AcDbLine
 10
170.7146771254
 20
114.6415119299
 30
0.0
 11
170.7146771254
 21
115.3255522165
 31
0.0
  0
LINE
  5
132
330
1F
100
AcDbEntity
  8
0
  6
HIDDEN
 62
     7
370
     0
100
AcDbLine
 10
170.7146771254
 20
115.3255522165
 30
0.0
 11
170.141983901
 21
116.5705494783
 31
0.0
  0
LINE
  5
133
330
1F
100
AcDbEntity
  8
0
  6
HIDDEN
 62
     7
370
     0
100
AcDbLine
 10
170.7146771254
 20
114.6415119299
 30
0.0
 11
170.141983901
 21
115.8865091916
 31
0.0
  0
LINE
  5
134
330
1F
100
AcDbEntity
  8
0
  6
HIDDEN
 62
     7
370
     0
100
AcDbLine
 10
170.141983901
 20
115.8865091916
 30
0.0
 11
170.141983901
 21
116.5705494783
 31
0.0
  0
LINE
  5
135
330
1F
100
AcDbEntity
  8
0
  6
HIDDEN
 62
     7
370
     0
100
AcDbLine
 10
172.1484194205
 20
114.4850697172
 30
0.0
 11
172.1484194205
 21
115.1691100038
 31
0.0
  0
LINE
  5
136
330
1F
100
AcDbEntity
  8
0
  6
HIDDEN
 62
     7
370
     0
100
AcDbLine
 10
172.1484194205
 20
115.1691100038
 30
0.0
 11
173.0094684911
 21
116.2576650529
 31
0.0
  0
LINE
  5
137
330
1F
100
AcDbEntity
  8
0
  6
HIDDEN
 62
     7
370
     0
100
AcDbLine
 10
173.0094684911
 20
115.5736247662
 30
0.0
 11
173.0094684911
 21
116.2576650529
 31
0.0
  0
LINE
  5
138
330
1F
100
AcDbEntity
  8
0
  6
HIDDEN
 62
     7
370
     0
100
AcDbLine
 10
172.1484194205
 20
114.4850697172
 30
0.0
 11
173.0094684911
 21
115.5736247662
 31
0.0
  0
LINE
  5
139
330
1F
100
AcDbEntity
  8
0
  6
HIDDEN
 62
     7
370
     0
100
AcDbLine
 10
170.7146771254
 20
115.3255522165
 30
0.0
 11
172.1484194205
 21
115.1691100038
 31
0.0
  0
LINE
  5
13A
330
1F
100
AcDbEntity
  8
0
  6
HIDDEN
 62
     7
370
     0
100
AcDbLine
 10
170.7146771254
 20
114.6415119299
 30
0.0
 11
172.1484194205
 21
114.4850697172
 31
0.0
  0
LWPOLYLINE
  5
13B
330
1F
100
AcDbEntity
  8
0
  6
HIDDEN
 62
     7
370
     0
100
AcDbPolyline
 90
       24
 70
   128
 43
0.0
 10
169.5344416771
 20
116.6368412032
 10
169.6740875698
 20
117.1461003949
 10
169.9547693
 20
117.6010710049
 10
170.3556699879
 20
117.9680099443
 10
170.8470566633
 20
118.2197030307
 10
171.3924854245
 20
118.3374833392
 10
171.9515043154
 20
118.3126156432
 10
172.4826534624
 20
118.146944266
 10
172.9465399629
 20
117.8527562956
 10
173.3087594773
 20
117.451870308
 10
173.5424478414
 20
116.974018183
 10
173.6302734582
 20
116.4546400267
 10
173.5657227036
 20
115.932255741
 10
173.3535830115
 20
115.4456081784
 10
173.0095878127
 20
115.0307897626
 10
172.5592496572
 20
114.7185656778
 10
172.0359680659
 20
114.5320921559
 10
171.4785524406
 20
114.485199085
 10
170.9283437482
 20
114.5813643097
 10
170.4261484503
 20
114.8134556952
 10
170.009212075
 20
115.1642600852
 10
169.7084568856
 20
115.6077599229
 10
169.5461885188
 20
116.1110628542
 10
169.5344416771
 20
116.6368412032
  0
LINE
  5
13C
330
1F
100
AcDbEntity
  8
0
  6
HIDDEN
 62
     7
370
     0
100
AcDbLine
 10
172.4367752667
 20
117.5026623146
 30
0.0
 11
173.0094684911
 21
116.2576650529
 31
0.0
  0
LINE
  5
13D
330
1F
100
AcDbEntity
  8
0
  6
HIDDEN
 62
     7
370
     0
100
AcDbLine
 10
171.0030329716
 20
117.6591045273
 30
0.0
 11
172.4367752667
 21
117.5026623146
 31
0.0
  0
LINE
  5
13E
330
1F
100
AcDbEntity
  8
0
  6
HIDDEN
 62
     7
370
     0
100
AcDbLine
 10
171.0030329716
 20
117.6591045273
 30
0.0
 11
170.141983901
 21
116.5705494783
 31
0.0
  0
ARC
  5
13F
330
1F
100
AcDbEntity
  8
0
  6
HIDDEN
 62
     7
370
     0
100
AcDbCircle
 10
180.4757261961
 20
120.8505734674
 30
0.0
 40
1.000000000000028
100
AcDbArc
 50
0.0
 51
180.0
  0
ARC
  5
140
330
1F
100
AcDbEntity
  8
0
  6
HIDDEN
 62
     7
370
     0
100
AcDbCircle
 10
180.4757261961
 20
120.8505734674
 30
0.0
 40
1.000000000000028
100
AcDbArc
 50
180.0
 51
0.0
  0
ARC
  5
141
330
1F
100
AcDbEntity
  8
0
  6
HIDDEN
 62
     7
370
     0
100
AcDbCircle
 10
180.4757261961
 20
93.8505734674
 30
0.0
 40
1.000000000000028
100
AcDbArc
 50
180.0
 51
0.0
  0
ARC
  5
142
330
1F
100
AcDbEntity
  8
0
  6
HIDDEN
 62
     7
370
     0
100
AcDbCircle
 10
180.4757261961
 20
93.8505734674
 30
0.0
 40
1.000000000000028
100
AcDbArc
 50
0.0
 51
180.0
  0
LINE
  5
143
330
1F
100
AcDbEntity
  8
0
  6
HIDDEN
 62
     7
370
     0
100
AcDbLine
 10
179.4757261961
 20
120.8505734674
 30
0.0
 11
179.4757261961
 21
93.8505734674
 31
0.0
  0
LINE
  5
144
330
1F
100
AcDbEntity
  8
0
  6
HIDDEN
 62
     7
370
     0
100
AcDbLine
 10
181.4757261961
 20
93.8505734674
 30
0.0
 11
181.4757261961
 21
120.8505734674
 31
0.0
  0
LINE
  5
145
330
1F
100
AcDbEntity
  8
0
  6
HIDDEN
 62
     7
370
     0
100
AcDbLine
 10
161.2029803754
 20
114.0245165576
 30
0.0
 11
161.7914975719
 21
114.5555038549
 31
0.0
  0
LINE
  5
146
330
1F
100
AcDbEntity
  8
0
  6
HIDDEN
 62
     7
370
     0
100
AcDbLine
 10
162.2015083295
 20
116.6318712201
 30
0.0
 11
161.8589975876
 21
117.346704342
 31
0.0
  0
LINE
  5
147
330
1F
100
AcDbEntity
  8
0
  6
HIDDEN
 62
     7
370
     0
100
AcDbLine
 10
158.0332769436
 20
114.3376679107
 30
0.0
 11
160.6528595059
 21
113.820390935
 31
0.0
  0
LINE
  5
148
330
1F
100
AcDbEntity
  8
0
  6
HIDDEN
 62
     7
370
     0
100
AcDbLine
 10
161.4277580108
 20
117.7446147191
 30
0.0
 11
158.8081754485
 21
118.2618916947
 31
0.0
  0
LINE
  5
149
330
1F
100
AcDbEntity
  8
0
  6
HIDDEN
 62
     7
370
     0
100
AcDbLine
 10
157.7209600424
 20
117.2278211087
 30
0.0
 11
157.6624144424
 21
117.0853588113
 31
0.0
  0
LINE
  5
14A
330
1F
100
AcDbEntity
  8
0
  6
HIDDEN
 62
     7
370
     0
100
AcDbLine
 10
157.4207261961
 20
115.8614065663
 30
0.0
 11
157.4207261961
 21
115.7073835372
 31
0.0
  0
LINE
  5
14B
330
1F
100
AcDbEntity
  8
0
  6
HIDDEN
 62
     7
370
     0
100
AcDbLine
 10
157.4207261961
 20
98.9937633976
 30
0.0
 11
157.4207261961
 21
98.8397403686
 31
0.0
  0
LINE
  5
14C
330
1F
100
AcDbEntity
  8
0
  6
HIDDEN
 62
     7
370
     0
100
AcDbLine
 10
157.6624144424
 20
97.6157881236
 30
0.0
 11
157.7209600424
 21
97.4733258262
 31
0.0
  0
LINE
  5
14D
330
1F
100
AcDbEntity
  8
0
  6
HIDDEN
 62
     7
370
     0
100
AcDbLine
 10
158.8081754485
 20
96.4392552401
 30
0.0
 11
161.4277580108
 21
96.9565322158
 31
0.0
  0
LINE
  5
14E
330
1F
100
AcDbEntity
  8
0
  6
HIDDEN
 62
     7
370
     0
100
AcDbLine
 10
160.6528595059
 20
100.8807559998
 30
0.0
 11
158.0332769436
 21
100.3634790242
 31
0.0
  0
LINE
  5
14F
330
1F
100
AcDbEntity
  8
0
  6
HIDDEN
 62
     7
370
     0
100
AcDbLine
 10
161.8589975876
 20
97.3544425929
 30
0.0
 11
162.2015083295
 21
98.0692757147
 31
0.0
  0
LINE
  5
150
330
1F
100
AcDbEntity
  8
0
  6
HIDDEN
 62
     7
370
     0
100
AcDbLine
 10
161.7914975719
 20
100.1456430799
 30
0.0
 11
161.2029803754
 21
100.6766303772
 31
0.0
  0
LINE
  5
151
330
1F
100
AcDbEntity
  8
0
  6
HIDDEN
 62
     7
370
     0
100
AcDbLine
 10
156.9757261961
 20
95.9754788895
 30
0.0
 11
158.6325479111
 21
96.3026438883
 31
0.0
  0
LINE
  5
152
330
1F
100
AcDbEntity
  8
0
  6
HIDDEN
 62
     7
370
     0
100
AcDbLine
 10
157.818904481
 20
100.4230788615
 30
0.0
 11
156.9757261961
 21
100.2565803058
 31
0.0
  0
LINE
  5
153
330
1F
100
AcDbEntity
  8
0
  6
HIDDEN
 62
     7
370
     0
100
AcDbLine
 10
158.6872151904
 20
96.7721282231
 30
0.0
 11
170.1275550183
 21
99.031199753
 31
0.0
  0
LINE
  5
154
330
1F
100
AcDbEntity
  8
0
  6
HIDDEN
 62
     7
370
     0
100
AcDbLine
 10
170.1271532157
 20
102.3948429523
 30
0.0
 11
158.0479239239
 21
100.009612845
 31
0.0
  0
LINE
  5
155
330
1F
100
AcDbEntity
  8
0
  6
HIDDEN
 62
     7
370
     0
100
AcDbLine
 10
173.6757261961
 20
99.9971403859
 30
0.0
 11
173.6757261961
 21
105.6069734201
 31
0.0
  0
LINE
  5
156
330
1F
100
AcDbEntity
  8
0
  6
HIDDEN
 62
     7
370
     0
100
AcDbLine
 10
169.4757261961
 20
105.6073236025
 30
0.0
 11
169.4757261961
 21
101.2358263727
 31
0.0
  0
ARC
  5
157
330
1F
100
AcDbEntity
  8
0
  6
HIDDEN
 62
     7
370
     0
100
AcDbCircle
 10
180.4757261961
 20
120.8505734674
 30
0.0
 40
1.000000000000028
100
AcDbArc
 50
90.0
 51
180.0
  0
ARC
  5
158
330
1F
100
AcDbEntity
  8
0
  6
HIDDEN
 62
     7
370
     0
100
AcDbCircle
 10
180.4757261961
 20
93.8505734674
 30
0.0
 40
1.000000000000028
100
AcDbArc
 50
180.0
 51
270.0
  0
LINE
  5
159
330
1F
100
AcDbEntity
  8
0
  6
HIDDEN
 62
     7
370
     0
100
AcDbLine
 10
182.3440736985
 20
121.8505734674
 30
0.0
 11
180.4757261961
 21
121.8505734674
 31
0.0
  0
LINE
  5
15A
330
1F
100
AcDbEntity
  8
0
  6
HIDDEN
 62
     7
370
     0
100
AcDbLine
 10
180.4757261961
 20
92.8505734674
 30
0.0
 11
182.3440736985
 21
92.8505734674
 31
0.0
  0
ARC
  5
15B
330
1F
100
AcDbEntity
  8
0
  6
HIDDEN
 62
     7
370
     0
100
AcDbCircle
 10
182.3440736985
 20
120.8505734674
 30
0.0
 40
1.0
100
AcDbArc
 50
75.0
 51
90.0
  0
ARC
  5
15C
330
1F
100
AcDbEntity
  8
0
  6
HIDDEN
 62
     7
370
     0
100
AcDbCircle
 10
182.3440736985
 20
93.8505734674
 30
0.0
 40
1.000000000000009
100
AcDbArc
 50
270.0
 51
285.0
  0
LINE
  5
15D
330
1F
100
AcDbEntity
  8
0
  6
HIDDEN
 62
     7
370
     0
100
AcDbLine
 10
182.6028927436
 20
92.8846476411
 30
0.0
 11
184.3417515998
 21
93.3505734674
 31
0.0
  0
LINE
  5
15E
330
1F
100
AcDbEntity
  8
0
  6
HIDDEN
 62
     7
370
     0
100
AcDbLine
 10
184.3417515998
 20
121.3505734674
 30
0.0
 11
182.6028927436
 21
121.8164992937
 31
0.0
  0
LINE
  5
15F
330
1F
100
AcDbEntity
  8
0
  6
HIDDEN
 62
     7
370
     0
100
AcDbLine
 10
196.3757261961
 20
121.3505734674
 30
0.0
 11
184.3417515998
 21
121.3505734674
 31
0.0
  0
LINE
  5
160
330
1F
100
AcDbEntity
  8
0
  6
HIDDEN
 62
     7
370
     0
100
AcDbLine
 10
184.3417515998
 20
93.3505734674
 30
0.0
 11
196.3757261961
 21
93.3505734674
 31
0.0
  0
ARC
  5
161
330
1F
100
AcDbEntity
  8
0
  6
HIDDEN
 62
     7
370
     0
100
AcDbCircle
 10
90.3757261961
 20
98.0505734674
 30
0.0
 40
0.7999999999999972
100
AcDbArc
 50
90.0
 51
180.0
  0
ARC
  5
162
330
1F
100
AcDbEntity
  8
0
  6
HIDDEN
 62
     7
370
     0
100
AcDbCircle
 10
90.3757261961
 20
116.6505734674
 30
0.0
 40
0.7999999999999972
100
AcDbArc
 50
180.0
 51
270.0
  0
LINE
  5
163
330
1F
100
AcDbEntity
  8
0
  6
HIDDEN
 62
     7
370
     0
100
AcDbLine
 10
97.4680986268
 20
98.6255734674
 30
0.0
 11
98.3447860884
 21
98.6255734674
 31
0.0
  0
LINE
  5
164
330
1F
100
AcDbEntity
  8
0
  6
HIDDEN
 62
     7
370
     0
100
AcDbLine
 10
98.3447860884
 20
116.0755734674
 30
0.0
 11
97.4680986268
 21
116.0755734674
 31
0.0
  0
ARC
  5
165
330
1F
100
AcDbEntity
  8
0
  6
HIDDEN
 62
     7
370
     0
100
AcDbCircle
 10
98.3447860884
 20
99.0255734674
 30
0.0
 40
0.3999999999999927
100
AcDbArc
 50
270.0
 51
330.0
  0
ARC
  5
166
330
1F
100
AcDbEntity
  8
0
  6
HIDDEN
 62
     7
370
     0
100
AcDbCircle
 10
98.3447860884
 20
115.6755734674
 30
0.0
 40
0.4000000000000057
100
AcDbArc
 50
30.0
 51
90.0
  0
ARC
  5
167
330
1F
100
AcDbEntity
  8
0
  6
HIDDEN
 62
     7
370
     0
100
AcDbCircle
 10
97.4680986268
 20
99.0255734674
 30
0.0
 40
0.4000000000000023
100
AcDbArc
 50
255.0
 51
270.0
  0
ARC
  5
168
330
1F
100
AcDbEntity
  8
0
  6
HIDDEN
 62
     7
370
     0
100
AcDbCircle
 10
97.4680986268
 20
115.6755734674
 30
0.0
 40
0.4000000000000057
100
AcDbArc
 50
90.0
 51
105.0
  0
LINE
  5
169
330
1F
100
AcDbEntity
  8
0
  6
HIDDEN
 62
     7
370
     0
100
AcDbLine
 10
97.3645710088
 20
116.0619437979
 30
0.0
 11
96.5757261961
 21
115.8505734674
 31
0.0
  0
LINE
  5
16A
330
1F
100
AcDbEntity
  8
0
  6
HIDDEN
 62
     7
370
     0
100
AcDbLine
 10
96.5757261961
 20
98.8505734674
 30
0.0
 11
97.3645710088
 21
98.6392031369
 31
0.0
  0
LINE
  5
16B
330
1F
100
AcDbEntity
  8
0
  6
HIDDEN
 62
     7
370
     0
100
AcDbLine
 10
98.6911962499
 20
98.8255734674
 30
0.0
 11
99.5716554104
 21
100.3505734674
 31
0.0
  0
LINE
  5
16C
330
1F
100
AcDbEntity
  8
0
  6
HIDDEN
 62
     7
370
     0
100
AcDbLine
 10
99.5716554104
 20
114.3505734674
 30
0.0
 11
98.6911962499
 21
115.8755734674
 31
0.0
  0
LINE
  5
16D
330
1F
100
AcDbEntity
  8
0
  6
HIDDEN
 62
     7
370
     0
100
AcDbLine
 10
90.3757261961
 20
98.8505734674
 30
0.0
 11
96.5757261961
 21
98.8505734674
 31
0.0
  0
LINE
  5
16E
330
1F
100
AcDbEntity
  8
0
  6
HIDDEN
 62
     7
370
     0
100
AcDbLine
 10
96.5757261961
 20
115.8505734674
 30
0.0
 11
90.3757261961
 21
115.8505734674
 31
0.0
  0
LINE
  5
16F
330
1F
100
AcDbEntity
  8
0
  6
HIDDEN
 62
     7
370
     0
100
AcDbLine
 10
209.9757261961
 20
127.8098081355
 30
0.0
 11
209.4057755785
 21
127.2398807396
 31
0.0
  0
LINE
  5
170
330
1F
100
AcDbEntity
  8
0
  6
HIDDEN
 62
     7
370
     0
100
AcDbLine
 10
209.4060871606
 20
87.4609519324
 30
0.0
 11
209.9757261961
 21
86.8913373675
 31
0.0
  0
ARC
  5
171
330
1F
100
AcDbEntity
  8
0
  6
HIDDEN
 62
     7
370
     0
100
AcDbCircle
 10
176.3757261961
 20
131.4505734674
 30
0.0
 40
1.599999999999966
100
AcDbArc
 50
270.0
 51
0.0
  0
ARC
  5
172
330
1F
100
AcDbEntity
  8
0
  6
HIDDEN
 62
     7
370
     0
100
AcDbCircle
 10
176.3757261961
 20
83.2505734674
 30
0.0
 40
1.59999999999998
100
AcDbArc
 50
0.0
 51
90.0
  0
LINE
  5
173
330
1F
100
AcDbEntity
  8
0
  6
HIDDEN
 62
     7
370
     0
100
AcDbLine
 10
177.9757261961
 20
76.8505817685
 30
0.0
 11
177.9757261961
 21
83.2505734674
 31
0.0
  0
LINE
  5
174
330
1F
100
AcDbEntity
  8
0
  6
HIDDEN
 62
     7
370
     0
100
AcDbLine
 10
177.9757261961
 20
131.4505734674
 30
0.0
 11
177.9757261961
 21
137.8505021712
 31
0.0
  0
LINE
  5
175
330
1F
100
AcDbEntity
  8
0
  6
HIDDEN
 62
     7
370
     0
100
AcDbLine
 10
132.5757261961
 20
100.3505734674
 30
0.0
 11
133.7173613722
 21
102.2505734674
 31
0.0
  0
LINE
  5
176
330
1F
100
AcDbEntity
  8
0
  6
HIDDEN
 62
     7
370
     0
100
AcDbLine
 10
133.7173613722
 20
112.4505734674
 30
0.0
 11
132.5757261961
 21
114.3505734674
 31
0.0
  0
LINE
  5
177
330
1F
100
AcDbEntity
  8
0
  6
HIDDEN
 62
     7
370
     0
100
AcDbLine
 10
99.5716554104
 20
100.3505734674
 30
0.0
 11
132.5757261961
 21
100.3505734674
 31
0.0
  0
LINE
  5
178
330
1F
100
AcDbEntity
  8
0
  6
HIDDEN
 62
     7
370
     0
100
AcDbLine
 10
132.5757261961
 20
114.3505734674
 30
0.0
 11
99.5716554104
 21
114.3505734674
 31
0.0
  0
LINE
  5
179
330
1F
100
AcDbEntity
  8
0
  6
HIDDEN
 62
     7
370
     0
100
AcDbLine
 10
177.9757252861
 20
137.8505732555
 30
0.0
 11
178.9757246554
 21
138.8505730022
 31
0.0
  0
LINE
  5
17A
330
1F
100
AcDbEntity
  8
0
  6
HIDDEN
 62
     7
370
     0
100
AcDbLine
 10
178.9757325575
 20
75.8505723297
 30
0.0
 11
177.9757323085
 21
76.8505721343
 31
0.0
  0
LINE
  5
17B
330
1F
100
AcDbEntity
  8
0
  6
HIDDEN
 62
     7
370
     0
100
AcDbLine
 10
133.7173613722
 20
102.2505734674
 30
0.0
 11
179.4757261961
 21
102.2505734674
 31
0.0
  0
LINE
  5
17C
330
1F
100
AcDbEntity
  8
0
  6
HIDDEN
 62
     7
370
     0
100
AcDbLine
 10
179.4757261961
 20
112.4505734674
 30
0.0
 11
133.7173613722
 21
112.4505734674
 31
0.0
  0
LINE
  5
17D
330
1F
100
AcDbEntity
  8
0
  6
HIDDEN
 62
     7
370
     0
100
AcDbLine
 10
209.4179979427
 20
127.2505734674
 30
0.0
 11
196.3757261961
 21
127.2505734674
 31
0.0
  0
LINE
  5
17E
330
1F
100
AcDbEntity
  8
0
  6
HIDDEN
 62
     7
370
     0
100
AcDbLine
 10
196.3757261961
 20
87.4505734674
 30
0.0
 11
209.4175584809
 21
87.4505734674
 31
0.0
  0
LINE
  5
17F
330
1F
100
AcDbEntity
  8
0
  6
HIDDEN
 62
     7
370
     0
100
AcDbLine
 10
173.6757261961
 20
109.0938233324
 30
0.0
 11
173.6757261961
 21
116.4543496831
 31
0.0
  0
LINE
  5
180
330
1F
100
AcDbEntity
  8
0
  6
HIDDEN
 62
     7
370
     0
100
AcDbLine
 10
169.4757261961
 20
113.4665004706
 30
0.0
 11
169.4757261961
 21
109.0941735147
 31
0.0
  0
LINE
  5
181
330
1F
100
AcDbEntity
  8
0
  6
HIDDEN
 62
     7
370
     0
100
AcDbLine
 10
169.4757261961
 20
116.4543496831
 30
0.0
 11
169.4757261961
 21
114.7673812435
 31
0.0
  0
LINE
  5
182
330
1F
100
AcDbEntity
  8
0
  6
HIDDEN
 62
     7
370
     0
100
AcDbLine
 10
158.0479239239
 20
114.6915340899
 30
0.0
 11
170.1251155998
 21
112.3067063413
 31
0.0
  0
LINE
  5
183
330
1F
100
AcDbEntity
  8
0
  6
HIDDEN
 62
     7
370
     0
100
AcDbLine
 10
170.1249930235
 20
115.6704530873
 30
0.0
 11
158.6872151904
 21
117.9290187117
 31
0.0
  0
LINE
  5
184
330
1F
100
AcDbEntity
  8
0
  6
HIDDEN
 62
     7
370
     0
100
AcDbLine
 10
156.9757261961
 20
114.444566629
 30
0.0
 11
157.818904481
 21
114.2780680733
 31
0.0
  0
LINE
  5
185
330
1F
100
AcDbEntity
  8
0
  6
HIDDEN
 62
     7
370
     0
100
AcDbLine
 10
158.6325479111
 20
118.3985030466
 30
0.0
 11
156.9757261961
 21
118.7256680454
 31
0.0
  0
LINE
  5
186
330
1F
100
AcDbEntity
  8
0
  6
HIDDEN
 62
     7
370
     0
100
AcDbLine
 10
169.0757261961
 20
116.3262351528
 30
0.0
 11
169.0757261961
 21
114.9605216564
 31
0.0
  0
LINE
  5
187
330
1F
100
AcDbEntity
  8
0
  6
HIDDEN
 62
     7
370
     0
100
AcDbLine
 10
174.0757261961
 20
114.9605216564
 30
0.0
 11
174.0757261961
 21
116.3262351528
 31
0.0
  0
DIMENSION
  5
188
330
1F
100
AcDbEntity
  8
VERMASSUNG
100
AcDbDimension
  2
_D
 10
218.2727184243
 20
93.3505734674
 30
0.0
 11
218.2727184243
 21
107.3505734674
 31
0.0
 70
   160
  1
%%c<>
 71
     2
 42
-1.0
  3
SLDDIMSTYLE0
100
AcDbAlignedDimension
 13
196.3757261961
 23
121.3505734674
 33
0.0
 14
196.3757261961
 24
93.3505734674
 34
0.0
 50
90.0
100
AcDbRotatedDimension
  0
DIMENSION
  5
194
330
1F
100
AcDbEntity
  8
VERMASSUNG
100
AcDbDimension
  2
_D_1
 10
224.2727184243
 20
82.3505734674
 30
0.0
 11
224.2727184243
 21
107.3505734674
 31
0.0
 70
   160
  1
ST5 %%c<>
 71
     2
 42
-1.0
  3
SLDDIMSTYLE0
100
AcDbAlignedDimension
 13
209.4757261961
 23
132.3505734674
 33
0.0
 14
209.4757261961
 24
82.3505734674
 34
0.0
 50
90.0
100
AcDbRotatedDimension
  0
DIMENSION
  5
1A0
330
1F
100
AcDbEntity
  8
VERMASSUNG
100
AcDbDimension
  2
_D_2
 10
209.9757261961
 20
144.023741378
 30
0.0
 11
195.9757261961
 21
144.023741378
 31
0.0
 70
   160
  1
(<>)
 71
     2
 42
-1.0
  3
SLDDIMSTYLE0
100
AcDbAlignedDimension
 13
181.9757261961
 23
137.8505734674
 33
0.0
 14
209.9757261961
 24
131.8505734674
 34
0.0
100
AcDbRotatedDimension
  0
DIMENSION
  5
1AC
330
1F
100
AcDbEntity
  8
VERMASSUNG
100
AcDbDimension
  2
_D_3
 10
209.9757261961
 20
150.023741378
 30
0.0
 11
182.4757261961
 21
150.023741378
 31
0.0
 70
   160
  1
<>
 71
     2
 42
-1.0
  3
SLDDIMSTYLE0
100
AcDbAlignedDimension
 13
154.9757261961
 23
129.5755734674
 33
0.0
 14
209.9757261961
 24
131.8505734674
 34
0.0
100
AcDbRotatedDimension
  0
DIMENSION
  5
1B6
330
1F
100
AcDbEntity
  8
VERMASSUNG
100
AcDbDimension
  2
_D_4
 10
209.9757261961
 20
156.023741378
 30
0.0
 11
149.7757261961
 21
156.023741378
 31
0.0
 70
   160
  1
(<>)
 71
     2
 42
-1.0
  3
SLDDIMSTYLE0
100
AcDbAlignedDimension
 13
89.5757261961
 23
119.1733290645
 33
0.0
 14
209.9757261961
 24
131.8505734674
 34
0.0
100
AcDbRotatedDimension
  0
DIMENSION
  5
1C2
330
1F
100
AcDbEntity
  8
VERMASSUNG
100
AcDbDimension
  2
_D_5
 10
84.364686403
 20
75.8505734674
 30
0.0
 11
84.364686403
 21
107.3505734674
 31
0.0
 70
   160
  1
MAS BT 40 %%c<>
 71
     2
 42
-1.0
  3
SLDDIMSTYLE0
100
AcDbAlignedDimension
 13
178.975722052
 23
138.8505734674
 33
0.0
 14
178.9757269621
 24
75.8505734674
 34
0.0
 50
90.0
100
AcDbRotatedDimension
  0
LINE
  5
1CE
330
1F
100
AcDbEntity
  8
VERMASSUNG
  6
CENTERX2
370
     0
100
AcDbLine
 10
88.431419303
 20
107.3505734674
 30
0.0
 11
211.6957518117
 21
107.3505734674
 31
0.0
  0
LINE
  5
1CF
330
1F
100
AcDbEntity
  8
VERMASSUNG
  6
CENTERX2
370
     0
100
AcDbLine
 10
156.4054576651
 20
116.6977256532
 30
0.0
 11
172.0900144374
 21
113.6005680342
 31
0.0
  0
LINE
  5
1D0
330
1F
100
AcDbEntity
  8
VERMASSUNG
  6
CENTERX2
370
     0
100
AcDbLine
 10
156.4054576651
 20
98.0034212816
 30
0.0
 11
172.0900144374
 21
101.1005789007
 31
0.0
  0
LINE
  5
1D1
330
1F
100
AcDbEntity
  8
0
  6
Continuous
 62
     7
370
    15
100
AcDbLine
 10
270.1776434202
 20
43.1984257664
 30
0.0
 11
270.0008380007
 21
43.3005265402
 31
0.0
  0
LINE
  5
1D2
330
1F
100
AcDbEntity
  8
0
  6
Continuous
 62
     7
370
    15
100
AcDbLine
 10
266.8183404501
 20
43.3005265402
 30
0.0
 11
266.6415350306
 21
43.1984257664
 31
0.0
  0
LINE
  5
1D3
330
1F
100
AcDbEntity
  8
0
  6
Continuous
 62
     7
370
    15
100
AcDbLine
 10
270.9095892254
 20
41.8718786703
 30
0.0
 11
270.9095892254
 21
42.1780814748
 31
0.0
  0
LINE
  5
1D4
330
1F
100
AcDbEntity
  8
0
  6
Continuous
 62
     7
370
    15
100
AcDbLine
 10
265.9095892254
 20
42.1780814748
 30
0.0
 11
265.9095892254
 21
41.8718786703
 31
0.0
  0
LINE
  5
1D5
330
1F
100
AcDbEntity
  8
0
  6
Continuous
 62
     7
370
    15
100
AcDbLine
 10
272.8481208366
 20
19.4080453725
 30
0.0
 11
273.0248688007
 21
19.5101129727
 31
0.0
  0
LINE
  5
1D6
330
1F
100
AcDbEntity
  8
0
  6
Continuous
 62
     7
370
    15
100
AcDbLine
 10
281.6855190422
 20
34.5124247493
 30
0.0
 11
281.6855190422
 21
34.7165267772
 31
0.0
  0
LINE
  5
1D7
330
1F
100
AcDbEntity
  8
0
  6
Continuous
 62
     7
370
    15
100
AcDbLine
 10
279.0961763563
 20
40.4395868581
 30
0.0
 11
270.7876716774
 21
45.235984515
 31
0.0
  0
LINE
  5
1D8
330
1F
100
AcDbEntity
  8
0
  6
Continuous
 62
     7
370
    15
100
AcDbLine
 10
258.2886875194
 20
23.5847629555
 30
0.0
 11
266.5971921984
 21
18.7883652986
 31
0.0
  0
SPLINE
  5
1D9
330
1F
100
AcDbEntity
  8
0
  6
Continuous
 62
     7
370
    15
100
AcDbSpline
210
0.0
220
0.0
230
1.0
 70
     8
 71
     3
 72
    14
 73
    10
 74
     0
 42
0.000000001
 43
0.00000001
 40
0.0
 40
0.0
 40
0.0
 40
0.0
 40
0.1177963186760424
 40
0.28572821106518
 40
0.4547077914176081
 40
0.6247628833976331
 40
0.7957414571360175
 40
0.9674020074679548
 40
1.0
 40
1.0
 40
1.0
 40
1.0
 10
256.423188624284
 20
21.1953351953884
 30
0.0
 10
256.6016111446897
 20
21.15305418055633
 30
0.0
 10
257.0343950223377
 20
21.05049682676318
 30
0.0
 10
257.7642808246885
 20
20.99772197343341
 30
0.0
 10
258.6013815077523
 20
21.02237209211509
 30
0.0
 10
259.4679609046495
 20
21.14426764851125
 30
0.0
 10
260.3571882065267
 20
21.3686997713438
 30
0.0
 10
261.0160997516994
 20
21.57941969559959
 30
0.0
 10
261.3781471233843
 20
21.74196018828657
 30
0.0
 10
261.4359269222263
 20
21.76790032127916
 30
0.0
  0
SPLINE
  5
1DA
330
1F
100
AcDbEntity
  8
0
  6
Continuous
 62
     7
370
    15
100
AcDbSpline
210
0.0
220
0.0
230
1.0
 70
     8
 71
     3
 72
    14
 73
    10
 74
     0
 42
0.000000001
 43
0.00000001
 40
0.0
 40
0.0
 40
0.0
 40
0.0
 40
0.0480477033055848
 40
0.2201518922839888
 40
0.3920478590146715
 40
0.5635083710808618
 40
0.7342573410204833
 40
0.9040245904969083
 40
0.9999999999999999
 40
0.9999999999999999
 40
0.9999999999999999
 40
0.9999999999999999
 10
273.932717447989
 20
43.42038823770319
 30
0.0
 10
273.9227413843199
 20
43.51328771655548
 30
0.0
 10
273.8770316179166
 20
43.93894793867795
 30
0.0
 10
273.7194446257588
 20
44.64492757496411
 30
0.0
 10
273.4583412221791
 20
45.52818553462239
 30
0.0
 10
273.1186750621443
 20
46.34161918749309
 30
0.0
 10
272.7063365795602
 20
47.07880410587855
 30
0.0
 10
272.3040369607782
 20
47.65512626092912
 30
0.0
 10
272.0145201339484
 20
47.95101765010005
 30
0.0
 10
271.9099584647014
 20
48.05788155126356
 30
0.0
  0
LINE
  5
1DB
330
1F
100
AcDbEntity
  8
0
  6
Continuous
 62
     7
370
    15
100
AcDbLine
 10
253.3492565421
 20
22.6835606649
 30
0.0
 11
254.8960526259
 21
21.7906142926
 31
0.0
  0
LINE
  5
1DC
330
1F
100
AcDbEntity
  8
0
  6
Continuous
 62
     7
370
    15
100
AcDbLine
 10
270.6447726649
 20
49.0711534575
 30
0.0
 11
269.0979765811
 21
49.9640998299
 31
0.0
  0
SPLINE
  5
1DD
330
1F
100
AcDbEntity
  8
0
  6
Continuous
 62
     7
370
    15
100
AcDbSpline
210
0.0
220
0.0
230
1.0
 70
     8
 71
     3
 72
    24
 73
    20
 74
     0
 42
0.000000001
 43
0.00000001
 40
0.0
 40
0.0
 40
0.0
 40
0.0
 40
0.0082719469783985
 40
0.0735171339194534
 40
0.1388258440752621
 40
0.2041525291016497
 40
0.2694628754795096
 40
0.3347205691159512
 40
0.3998951988927286
 40
0.4649580074523034
 40
0.5298857642644814
 40
0.594669271238899
 40
0.6593302350210032
 40
0.7239449643765684
 40
0.788637128489286
 40
0.8537084997232071
 40
0.9196478980914516
 40
0.9870225718228227
 40
1.0
 40
1.0
 40
1.0
 40
1.0
 10
268.5814188708865
 20
29.93010803354081
 30
0.0
 10
268.5936752861311
 20
29.96293560128276
 30
0.0
 10
268.7026044805838
 20
30.25469142373153
 30
0.0
 10
268.9499644556434
 20
30.80283581238131
 30
0.0
 10
269.3449909008412
 20
31.5592180343278
 30
0.0
 10
269.7946591856323
 20
32.28717236172373
 30
0.0
 10
270.2882005557245
 20
32.97560194019112
 30
0.0
 10
270.8189188818949
 20
33.61400827618039
 30
0.0
 10
271.3781131619589
 20
34.19279802113936
 30
0.0
 10
271.9568586374889
 20
34.7034234332725
 30
0.0
 10
272.5456866111905
 20
35.13856645672304
 30
0.0
 10
273.1349009951934
 20
35.49236652682681
 30
0.0
 10
273.7147554798602
 20
35.76054490339408
 30
0.0
 10
274.2758674382159
 20
35.94080113224044
 30
0.0
 10
274.8093010294709
 20
36.03188571191158
 30
0.0
 10
275.3097510141806
 20
36.03722583382106
 30
0.0
 10
275.7677216882708
 20
35.9485947715987
 30
0.0
 10
276.08194916723
 20
35.84237648664158
 30
0.0
 10
276.2282473052601
 20
35.73852862812505
 30
0.0
 10
276.2518754809225
 20
35.72175647041864
 30
0.0
  0
LINE
  5
1DE
330
1F
100
AcDbEntity
  8
0
  6
Continuous
 62
     7
370
    15
100
AcDbLine
 10
265.5447650056
 20
52.0153252108
 30
0.0
 11
262.5130446813
 21
53.7655001005
 31
0.0
  0
SPLINE
  5
1DF
330
1F
100
AcDbEntity
  8
0
  6
Continuous
 62
     7
370
    15
100
AcDbSpline
210
0.0
220
0.0
230
1.0
 70
     8
 71
     3
 72
    31
 73
    27
 74
     0
 42
0.000000001
 43
0.00000001
 40
0.0
 40
0.0
 40
0.0
 40
0.0
 40
0.039566769464014
 40
0.0818110215882499
 40
0.1243249155213681
 40
0.1671036349924817
 40
0.2101019012522125
 40
0.2532570765407476
 40
0.296508209760552
 40
0.3398063839846304
 40
0.3831146051437063
 40
0.4264098344420669
 40
0.4696833010185756
 40
0.5129320397301239
 40
0.5561567227912485
 40
0.5993601892613385
 40
0.6425465107588885
 40
0.685720429607294
 40
0.7288870399259993
 40
0.7720516190163682
 40
0.8152190640809814
 40
0.8583934963028229
 40
0.9015803847555008
 40
0.9447851706408562
 40
0.9880131415666298
 40
1.0
 40
1.0
 40
1.0
 40
1.0
 10
260.9987475477029
 20
54.36561365498919
 30
0.0
 10
260.7578615039307
 20
54.41633749102184
 30
0.0
 10
260.2597886616362
 20
54.52121764426455
 30
0.0
 10
259.4602554808101
 20
54.56142234773998
 30
0.0
 10
258.6159888488084
 20
54.51470261732875
 30
0.0
 10
257.7438621759101
 20
54.36998413772897
 30
0.0
 10
256.8507750428896
 20
54.13052360307708
 30
0.0
 10
255.9427033206969
 20
53.79702934036677
 30
0.0
 10
255.0261895012523
 20
53.3720530006264
 30
0.0
 10
254.1076595200499
 20
52.85869676747215
 30
0.0
 10
253.193423336413
 20
52.26079651934476
 30
0.0
 10
252.2895671738057
 20
51.58270231954335
 30
0.0
 10
251.4019510407477
 20
50.8292018920535
 30
0.0
 10
250.536231142205
 20
50.00546573700029
 30
0.0
 10
249.6978994340358
 20
49.11704897811431
 30
0.0
 10
248.8922722003333
 20
48.16986774702133
 30
0.0
 10
248.124469466718
 20
47.17017329394719
 30
0.0
 10
247.3993912523674
 20
46.12452187447754
 30
0.0
 10
246.7216824583819
 20
45.03973771075362
 30
0.0
 10
246.0957326456354
 20
43.92288322164957
 30
0.0
 10
245.5255546153905
 20
42.78120104896727
 30
0.0
 10
245.0151123650249
 20
41.6221399802163
 30
0.0
 10
244.5669490773303
 20
40.45299015315226
 30
0.0
 10
244.1872057864989
 20
39.28198788217748
 30
0.0
 10
243.9440573367513
 20
38.39556867928872
 30
0.0
 10
243.8363063148233
 20
37.90404655041658
 30
0.0
 10
243.8129141163705
 20
37.7973395978815
 30
0.0
  0
SPLINE
  5
1E0
330
1F
100
AcDbEntity
  8
0
  6
Continuous
 62
     7
370
    15
100
AcDbSpline
210
0.0
220
0.0
230
1.0
 70
     8
 71
     3
 72
    10
 73
     6
 74
     0
 42
0.000000001
 43
0.00000001
 40
0.0
 40
0.0
 40
0.0
 40
0.0
 40
0.3802194190915094
 40
0.8513147038161717
 40
1.0
 40
1.0
 40
1.0
 40
1.0
 10
269.2293750674834
 20
23.62865348265671
 30
0.0
 10
269.1240679463058
 20
23.69502009226691
 30
0.0
 10
268.8882843535337
 20
23.84361552891922
 30
0.0
 10
268.6539068037649
 20
24.09344176552555
 30
0.0
 10
268.5301548648911
 20
24.28194068990584
 30
0.0
 10
268.5004667877691
 20
24.32716156204213
 30
0.0
  0
LINE
  5
1E1
330
1F
100
AcDbEntity
  8
0
  6
Continuous
 62
     7
370
    15
100
AcDbLine
 10
253.5071617609
 20
52.4514517351
 30
0.0
 11
233.6135470038
 21
59.6203219379
 31
0.0
  0
LINE
  5
1E2
330
1F
100
AcDbEntity
  8
0
  6
Continuous
 62
     7
370
    15
100
AcDbLine
 10
227.2420775924
 20
48.5834173269
 30
0.0
 11
246.2699516788
 21
32.5164377496
 31
0.0
  0
LINE
  5
1E3
330
1F
100
AcDbEntity
  8
0
  6
Continuous
 62
     7
370
    15
100
AcDbLine
 10
246.7643246423
 20
26.4849609355
 30
0.0
 11
249.7960449666
 21
24.7347860458
 31
0.0
  0
SPLINE
  5
1E4
330
1F
100
AcDbEntity
  8
0
  6
Continuous
 62
     7
370
    15
100
AcDbSpline
210
0.0
220
0.0
230
1.0
 70
     8
 71
     3
 72
    12
 73
     8
 74
     0
 42
0.000000001
 43
0.00000001
 40
0.0
 40
0.0
 40
0.0
 40
0.0
 40
0.0813210737525945
 40
0.3243046990986241
 40
0.5666178623916187
 40
0.8076311831347661
 40
1.0
 40
1.0
 40
1.0
 40
1.0
 10
243.8011020514588
 20
30.55170159339143
 30
0.0
 10
243.8298274546473
 20
30.45313893677479
 30
0.0
 10
243.9443830403974
 20
30.06007559880575
 30
0.0
 10
244.1977038678649
 20
29.4175930108669
 30
0.0
 10
244.589779790802
 20
28.65904376351218
 30
0.0
 10
245.0157845099796
 20
28.01515764886395
 30
0.0
 10
245.3402076946361
 20
27.66346471637418
 30
0.0
 10
245.4842120242572
 20
27.50735594434155
 30
0.0
  0
SPLINE
  5
1E5
330
1F
100
AcDbEntity
  8
0
  6
Continuous
 62
     7
370
    15
100
AcDbSpline
210
0.0
220
0.0
230
1.0
 70
     8
 71
     3
 72
    26
 73
    22
 74
     0
 42
0.000000001
 43
0.00000001
 40
0.0
 40
0.0
 40
0.0
 40
0.0
 40
0.0076363293138396
 40
0.0613892434237682
 40
0.1155825714595441
 40
0.1707848492088454
 40
0.2271213420869799
 40
0.2843338536658928
 40
0.3420221363488504
 40
0.3998474110568808
 40
0.4576098302461951
 40
0.5152674501791021
 40
0.5728287380209293
 40
0.6303249460226732
 40
0.6877966802429839
 40
0.7452875176604967
 40
0.8028293800597783
 40
0.8604693096511419
 40
0.9182529663291561
 40
0.9762182269078005
 40
1.0
 40
1.0
 40
1.0
 40
1.0
 10
233.6676866909395
 20
59.59335838358315
 30
0.0
 10
233.6461355488022
 20
59.60388744456112
 30
0.0
 10
233.4728836817922
 20
59.68853165787812
 30
0.0
 10
233.1053101196374
 20
59.75783029288173
 30
0.0
 10
232.5751392805206
 20
59.79359497718899
 30
0.0
 10
232.0139528223423
 20
59.72533542779618
 30
0.0
 10
231.4332849899715
 20
59.56442459730366
 30
0.0
 10
230.8400979715039
 20
59.30869733787001
 30
0.0
 10
230.2453692422872
 20
58.96290039149766
 30
0.0
 10
229.6599532207377
 20
58.53338862571042
 30
0.0
 10
229.093991339671
 20
58.0285198600902
 30
0.0
 10
228.5564712055764
 20
57.45740478545876
 30
0.0
 10
228.0554831102179
 20
56.82963917846006
 30
0.0
 10
227.5985278942726
 20
56.15536536852052
 30
0.0
 10
227.1925390138273
 20
55.44522392330815
 30
0.0
 10
226.8438204824684
 20
54.71028126253899
 30
0.0
 10
226.5580637520128
 20
53.96189572497944
 30
0.0
 10
226.3398118704873
 20
53.21126571684722
 30
0.0
 10
226.1942919579716
 20
52.47020049791954
 30
0.0
 10
226.1351910894836
 20
51.8902621129626
 30
0.0
 10
226.1305585132022
 20
51.56367053524405
 30
0.0
 10
226.1292108083008
 20
51.46865880886875
 30
0.0
  0
SPLINE
  5
1E6
330
1F
100
AcDbEntity
  8
0
  6
Continuous
 62
     7
370
    15
100
AcDbSpline
210
0.0
220
0.0
230
1.0
 70
     8
 71
     3
 72
    13
 73
     9
 74
     0
 42
0.000000001
 43
0.00000001
 40
0.0
 40
0.0
 40
0.0
 40
0.0
 40
0.1027712374683019
 40
0.2971197524836922
 40
0.4915013498305366
 40
0.6843574069629254
 40
0.8740012445130345
 40
1.0
 40
1.0
 40
1.0
 40
1.0
 10
226.1292108083008
 20
51.46865880886875
 30
0.0
 10
226.1314322768046
 20
51.34748563032522
 30
0.0
 10
226.1378547174435
 20
50.99716441494021
 30
0.0
 10
226.2098953611015
 20
50.44936549174039
 30
0.0
 10
226.3715331102077
 20
49.85037479542952
 30
0.0
 10
226.616841362986
 20
49.32096330878663
 30
0.0
 10
226.8947277668766
 20
48.90555628412004
 30
0.0
 10
227.1188558385251
 20
48.70726606879428
 30
0.0
 10
227.2083236692943
 20
48.62811223814078
 30
0.0
  0
LWPOLYLINE
  5
1E7
330
1F
100
AcDbEntity
  8
0
  6
Continuous
 62
     7
370
    15
100
AcDbPolyline
 90
       28
 70
   128
 43
0.0
 10
270.4476049409
 20
41.831824402
 10
270.1727983271
 20
41.5753357831
 10
269.8029366543
 20
41.362346322
 10
269.3579592609
 20
41.2043383359
 10
268.8618549934
 20
41.109830076
 10
268.3413689613
 20
41.0839165072
 10
267.8245607013
 20
41.1279946366
 10
267.3392914805
 20
41.2396882009
 10
266.9117222881
 20
41.4129757711
 10
266.5649034901
 20
41.6385153695
 10
266.3175321774
 20
41.9041480979
 10
266.1829442018
 20
42.1955536272
 10
266.1683952357
 20
42.4970222098
 10
266.2746696177
 20
42.7923015965
 10
266.4960380684
 20
43.0654731991
 10
266.8205665572
 20
43.3018102658
 10
267.2307596694
 20
43.4885718041
 10
267.7045037881
 20
43.6156894512
 10
268.2162592452
 20
43.6763102617
 10
268.7384371716
 20
43.6671661523
 10
269.2428868201
 20
43.588750084
 10
269.7024131795
 20
43.4452894875
 10
270.092243065
 20
43.2445183607
 10
270.3913606464
 20
42.9972603269
 10
270.5836404176
 20
42.7168451308
 10
270.6587165262
 20
42.4183900282
 10
270.6125415999
 20
42.1179848109
 10
270.4476049409
 20
41.831824402
  0
LWPOLYLINE
  5
1E8
330
1F
100
AcDbEntity
  8
0
  6
Continuous
 62
     7
370
    15
100
AcDbPolyline
 90
       18
 70
   128
 43
0.0
 10
270.6740511315
 20
41.5665345017
 10
270.3933813642
 20
41.2998128749
 10
270.0199516813
 20
41.0741581118
 10
269.5712232398
 20
40.9001215781
 10
269.0681780828
 20
40.7858410289
 10
268.5343380428
 20
40.7366600956
 10
267.9946648868
 20
40.7548784239
 10
267.4743931317
 20
40.8396441451
 10
266.9978501065
 20
40.9869937083
 10
266.5873184335
 20
41.1900372117
 10
266.2619941174
 20
41.4392805666
 10
266.0370889617
 20
41.7230694309
 10
265.9231192814
 20
42.0281341527
 10
265.9254141723
 20
42.3402102446
 10
266.0438663276
 20
42.6447053754
 10
266.2729370564
 20
42.9273816912
 10
266.6019152658
 20
43.1750215617
 10
266.6415350306
 20
43.1984257664
  0
LWPOLYLINE
  5
1E9
330
1F
100
AcDbEntity
  8
0
  6
Continuous
 62
     7
370
    15
100
AcDbPolyline
 90
        7
 70
   128
 43
0.0
 10
270.1776434202
 20
43.1984257664
 10
270.4062265489
 20
43.0465953258
 10
270.6829635288
 20
42.7785076749
 10
270.853400053
 20
42.4823447622
 10
270.909566699
 20
42.1719548363
 10
270.8488371768
 20
41.8618513852
 10
270.6740511315
 20
41.5665345017
  0
LWPOLYLINE
  5
1EA
330
1F
100
AcDbEntity
  8
0
  6
Continuous
 62
     7
370
    15
100
AcDbPolyline
 90
       23
 70
   128
 43
0.0
 10
269.7682663691
 20
42.0152884939
 10
269.5341591772
 20
41.8091754031
 10
269.208946016
 20
41.6494867085
 10
268.8189737216
 20
41.5491594382
 10
268.3958355299
 20
41.5163215111
 10
267.9738115809
 20
41.5536332607
 10
267.587091745
 20
41.658071911
 10
267.2670057633
 20
41.8211764636
 10
267.0394850986
 20
42.0297331578
 10
266.9229621218
 20
42.2668459704
 10
266.9268768317
 20
42.5133054316
 10
267.0509120817
 20
42.7491448616
 10
267.2850192735
 20
42.9552579523
 10
267.6102324347
 20
43.114946647
 10
268.0002047292
 20
43.2152739173
 10
268.4233429208
 20
43.2481118444
 10
268.8453668698
 20
43.2108000948
 10
269.2320867058
 20
43.1063614445
 10
269.5521726874
 20
42.9432568919
 10
269.7796933522
 20
42.7347001977
 10
269.8962163289
 20
42.4975873851
 10
269.892301619
 20
42.2511279239
 10
269.7682663691
 20
42.0152884939
  0
SPLINE
  5
1EB
330
1F
100
AcDbEntity
  8
0
  6
Continuous
 62
     7
370
    15
100
AcDbSpline
210
0.0
220
0.0
230
1.0
 70
     8
 71
     3
 72
    10
 73
     6
 74
     0
 42
0.000000001
 43
0.00000001
 40
0.0
 40
0.0
 40
0.0
 40
0.0
 40
0.1594479691911851
 40
0.5955335262994201
 40
1.0
 40
1.0
 40
1.0
 40
1.0
 10
269.8476267997635
 20
42.4075765417217
 30
0.0
 10
269.8230183724187
 20
42.35482297489521
 30
0.0
 10
269.7311066121895
 20
42.15778993749488
 30
0.0
 10
269.5589804810862
 20
41.85826198400223
 30
0.0
 10
269.4177416613227
 20
41.75291358905693
 30
0.0
 10
269.3497787449468
 20
41.70222083923092
 30
0.0
  0
SPLINE
  5
1EC
330
1F
100
AcDbEntity
  8
0
  6
Continuous
 62
     7
370
    15
100
AcDbSpline
210
0.0
220
0.0
230
1.0
 70
     8
 71
     3
 72
    11
 73
     7
 74
     0
 42
0.000000001
 43
0.00000001
 40
0.0
 40
0.0
 40
0.0
 40
0.0
 40
0.2164543009645091
 40
0.4403089937225432
 40
0.7518987489759581
 40
1.0
 40
1.0
 40
1.0
 40
1.0
 10
269.0212024680308
 20
43.09071945275416
 30
0.0
 10
269.0778130483585
 20
43.00695564949807
 30
0.0
 10
269.1929696774809
 20
42.83656422850193
 30
0.0
 10
269.4066701171312
 20
42.59723404540251
 30
0.0
 10
269.6359032844475
 20
42.4455342571631
 30
0.0
 10
269.782599104157
 20
42.41923468352971
 30
0.0
 10
269.8476267997635
 20
42.4075765417217
 30
0.0
  0
SPLINE
  5
1ED
330
1F
100
AcDbEntity
  8
0
  6
Continuous
 62
     7
370
    15
100
AcDbSpline
210
0.0
220
0.0
230
1.0
 70
     8
 71
     3
 72
    11
 73
     7
 74
     0
 42
0.000000001
 43
0.00000001
 40
0.0
 40
0.0
 40
0.0
 40
0.0
 40
0.2164543009644961
 40
0.4403089937225279
 40
0.7518987489759482
 40
1.0
 40
1.0
 40
1.0
 40
1.0
 10
267.5831648936484
 20
43.01912351480279
 30
0.0
 10
267.6816713612013
 20
42.98705979175516
 30
0.0
 10
267.8820521501721
 20
42.92183611374467
 30
0.0
 10
268.253906232971
 20
42.87766962277762
 30
0.0
 10
268.6527883752772
 20
42.93531891854503
 30
0.0
 10
268.9080496165632
 20
43.04299051428193
 30
0.0
 10
269.0212024680308
 20
43.09071945275416
 30
0.0
  0
SPLINE
  5
1EE
330
1F
100
AcDbEntity
  8
0
  6
Continuous
 62
     7
370
    15
100
AcDbSpline
210
0.0
220
0.0
230
1.0
 70
     8
 71
     3
 72
    11
 73
     7
 74
     0
 42
0.000000001
 43
0.00000001
 40
0.0
 40
0.0
 40
0.0
 40
0.0
 40
0.1849308168246149
 40
0.5198464202157772
 40
0.8714438233692637
 40
1.0
 40
1.0
 40
1.0
 40
1.0
 10
266.9715516509987
 20
42.26438466581894
 30
0.0
 10
267.0071505301389
 20
42.27646712954361
 30
0.0
 10
267.1072201140109
 20
42.31043132016637
 30
0.0
 10
267.294019102173
 20
42.47480217377829
 30
0.0
 10
267.4665356106098
 20
42.76868416732432
 30
0.0
 10
267.5585334259372
 20
42.96623209216592
 30
0.0
 10
267.5831648936484
 20
43.01912351480279
 30
0.0
  0
SPLINE
  5
1EF
330
1F
100
AcDbEntity
  8
0
  6
Continuous
 62
     7
370
    15
100
AcDbSpline
210
0.0
220
0.0
230
1.0
 70
     8
 71
     3
 72
     9
 73
     5
 74
     0
 42
0.000000001
 43
0.00000001
 40
0.0
 40
0.0
 40
0.0
 40
0.0
 40
0.5190153941492974
 40
1.0
 40
1.0
 40
1.0
 40
1.0
 10
267.3991149326151
 20
41.76168535885154
 30
0.0
 10
267.321439861185
 20
41.83060694719794
 30
0.0
 10
267.1717813494997
 20
41.96339990309738
 30
0.0
 10
267.0365809580101
 20
42.16663278042272
 30
0.0
 10
266.9715516509987
 20
42.26438466581894
 30
0.0
  0
LINE
  5
1F0
330
1F
100
AcDbEntity
  8
0
  6
Continuous
 62
     7
370
    15
100
AcDbLine
 10
267.5831648936
 20
41.659563404
 30
0.0
 11
267.5831648936
 21
43.0191235148
 31
0.0
  0
LINE
  5
1F1
330
1F
100
AcDbEntity
  8
0
  6
Continuous
 62
     7
370
    15
100
AcDbLine
 10
269.021202468
 20
41.5915370667
 30
0.0
 11
269.021202468
 21
43.0907194528
 31
0.0
  0
LWPOLYLINE
  5
1F2
330
1F
100
AcDbEntity
  8
0
  6
Continuous
 62
     7
370
    15
100
AcDbPolyline
 90
       65
 70
   128
 43
0.0
 10
273.0234609726
 20
39.5145500099
 10
272.1744308113
 20
38.9762499575
 10
271.3335772745
 20
38.3468032826
 10
270.5089982415
 20
37.6322719008
 10
269.7086348592
 20
36.83953714
 10
268.9401950644
 20
35.9762334692
 10
268.2110793525
 20
35.0506749747
 10
267.5283095063
 20
34.0717752908
 10
266.8984609726
 20
33.0489617565
 10
266.3275995372
 20
31.9920846254
 10
265.8212229078
 20
30.9113222018
 10
265.3842077681
 20
29.8170828189
 10
265.0207628128
 20
28.7199046
 10
264.7343882154
 20
27.6303539711
 10
264.52784192
 20
26.5589239004
 10
264.4031130803
 20
25.5159328451
 10
264.3614029031
 20
24.5114253794
 10
264.4031130803
 20
23.5550754592
 10
264.52784192
 20
22.6560932571
 10
264.7343882154
 20
21.823136463
 10
265.0207628128
 20
21.0642269063
 10
265.3842077681
 20
20.3866733008
 10
265.8212229078
 20
19.7970008582
 10
266.3275995372
 20
19.3008884464
 10
266.8984609726
 20
18.9031138991
 10
267.5283095063
 20
18.6075080028
 10
268.2110793525
 20
18.4169176037
 10
268.9401950644
 20
18.3331781915
 10
269.7086348592
 20
18.3570962227
 10
270.5089982415
 20
18.4884413535
 10
271.3335772745
 20
18.7259486585
 10
272.1744308113
 20
19.0673308125
 10
273.0234609726
 20
19.5093001187
 10
273.872491134
 20
20.0476001712
 10
274.7133446707
 20
20.6770468461
 10
275.5379237037
 20
21.3915782278
 10
276.338287086
 20
22.1843129887
 10
277.1067268808
 20
23.0476166595
 10
277.8358425927
 20
23.973175154
 10
278.518612439
 20
24.9520748379
 10
279.1484609726
 20
25.9748883722
 10
279.719322408
 20
27.0317655033
 10
280.2256990374
 20
28.1125279268
 10
280.6627141772
 20
29.2067673098
 10
281.0261591325
 20
30.3039455287
 10
281.3125337298
 20
31.3934961576
 10
281.5190800252
 20
32.4649262283
 10
281.643808865
 20
33.5079172835
 10
281.6855190422
 20
34.5124247493
 10
281.643808865
 20
35.4687746695
 10
281.5190800252
 20
36.3677568716
 10
281.3125337298
 20
37.2007136657
 10
281.0261591325
 20
37.9596232224
 10
280.6627141772
 20
38.6371768279
 10
280.2256990374
 20
39.2268492705
 10
279.719322408
 20
39.7229616823
 10
279.1484609726
 20
40.1207362296
 10
278.518612439
 20
40.4163421259
 10
277.8358425927
 20
40.606932525
 10
277.1067268808
 20
40.6906719371
 10
276.338287086
 20
40.6667539059
 10
275.5379237037
 20
40.5354087751
 10
274.7133446707
 20
40.2979014701
 10
273.872491134
 20
39.9565193162
 10
273.0234609726
 20
39.5145500099
  0
LWPOLYLINE
  5
1F3
330
1F
100
AcDbEntity
  8
0
  6
Continuous
 62
     7
370
    15
100
AcDbPolyline
 90
       34
 70
   128
 43
0.0
 10
272.8466842773
 20
39.8207362269
 10
271.9936136779
 20
39.2806201676
 10
271.1485079687
 20
38.6502492569
 10
270.3192576742
 20
37.9355090982
 10
269.513605281
 20
37.1430730279
 10
268.7390729482
 20
36.280339808
 10
268.0028922758
 20
35.355364546
 10
267.3119367841
 20
34.3767834869
 10
266.6726577385
 20
33.3537333783
 10
266.0910239153
 20
32.2957661633
 10
265.5724658726
 20
31.212759797
 10
265.1218252472
 20
30.1148260178
 10
264.7433095492
 20
29.0122159377
 10
264.4404528778
 20
27.9152243298
 10
264.216082924
 20
26.8340935094
 10
264.0722945696
 20
25.7789177035
 10
264.0104303278
 20
24.7595488043
 10
264.0310678083
 20
23.7855043846
 10
264.1340143246
 20
22.8658788348
 10
264.3183086927
 20
22.0092584507
 10
264.5822302058
 20
21.2236412662
 10
264.9233146998
 20
20.5163623771
 10
265.3383775608
 20
19.894025456
 10
265.8235434585
 20
19.3624410949
 10
266.3742825298
 20
18.9265725538
 10
266.9854526723
 20
18.5904894198
 10
267.6513475551
 20
18.3573296107
 10
268.3657498971
 20
18.2292700767
 10
269.121989516
 20
18.2075064752
 10
269.9130056064
 20
18.2922420071
 10
270.7314126641
 20
18.4826855196
 10
271.5695694429
 20
18.7770588928
 10
272.4196502988
 20
19.1726136419
 10
272.8481208366
 20
19.4080453725
  0
LWPOLYLINE
  5
1F4
330
1F
100
AcDbEntity
  8
0
  6
Continuous
 62
     7
370
    15
100
AcDbPolyline
 90
       18
 70
   128
 43
0.0
 10
281.6855190422
 20
34.7165267772
 10
281.6829382269
 20
34.9616704562
 10
281.6210739851
 20
35.9096124221
 10
281.4772856307
 20
36.7987737278
 10
281.2529156769
 20
37.6208525136
 10
280.9500590054
 20
38.3681732516
 10
280.5715433075
 20
39.0337584092
 10
280.1209026821
 20
39.6113935972
 10
279.6023446394
 20
40.0956855914
 10
279.0207108161
 20
40.4821126881
 10
278.3814317706
 20
40.7670669216
 10
277.6904762789
 20
40.9478877508
 10
276.9542956064
 20
41.0228869006
 10
276.1797632737
 20
40.9913641239
 10
275.3741108804
 20
40.8536137406
 10
274.5448605859
 20
40.6109218887
 10
273.6997548768
 20
40.2655545168
 10
272.8466842773
 20
39.8207362269
  0
SPLINE
  5
1F5
330
1F
100
AcDbEntity
  8
0
  6
Continuous
 62
     7
370
    15
100
AcDbSpline
210
0.0
220
0.0
230
1.0
 70
    11
 71
     3
 72
    83
 73
    79
 74
     0
 42
0.000000001
 43
0.00000001
 40
0.0
 40
0.0
 40
0.0
 40
0.0
 40
0.0312499999999992
 40
0.0312499999999992
 40
0.0624999999999983
 40
0.0624999999999983
 40
0.0937499999999975
 40
0.0937499999999975
 40
0.1093749999999971
 40
0.1093749999999971
 40
0.1249999999999967
 40
0.1249999999999967
 40
0.1562499999999964
 40
0.1562499999999964
 40
0.1874999999999961
 40
0.1874999999999961
 40
0.2187499999999958
 40
0.2187499999999958
 40
0.2499999999999956
 40
0.2499999999999956
 40
0.2812499999999953
 40
0.2812499999999953
 40
0.312499999999995
 40
0.312499999999995
 40
0.3437499999999947
 40
0.3437499999999947
 40
0.3593749999999945
 40
0.3593749999999945
 40
0.3749999999999943
 40
0.3906249999999941
 40
0.3906249999999941
 40
0.4062499999999939
 40
0.4062499999999939
 40
0.4374999999999936
 40
0.4374999999999936
 40
0.4687499999999932
 40
0.4687499999999932
 40
0.4999999999999928
 40
0.4999999999999928
 40
0.5312499999999923
 40
0.5312499999999923
 40
0.5468749999999922
 40
0.5468749999999922
 40
0.562499999999992
 40
0.562499999999992
 40
0.5937499999999921
 40
0.5937499999999921
 40
0.6249999999999923
 40
0.6249999999999923
 40
0.6562499999999925
 40
0.6562499999999925
 40
0.6874999999999927
 40
0.6874999999999927
 40
0.7187499999999928
 40
0.7187499999999928
 40
0.749999999999993
 40
0.749999999999993
 40
0.7656249999999932
 40
0.7656249999999932
 40
0.7812499999999934
 40
0.7812499999999934
 40
0.8124999999999944
 40
0.8124999999999944
 40
0.828124999999995
 40
0.828124999999995
 40
0.8437499999999956
 40
0.8437499999999956
 40
0.8749999999999966
 40
0.8749999999999966
 40
0.890624999999997
 40
0.890624999999997
 40
0.9062499999999974
 40
0.9062499999999974
 40
0.9374999999999983
 40
0.9374999999999983
 40
0.9687499999999991
 40
0.9687499999999991
 40
1.0
 40
1.0
 40
1.0
 40
1.0
 10
268.3976087625151
 20
43.94374499565869
 30
0.0
 10
268.591825240186
 20
43.91524735897951
 30
0.0
 10
268.7810712228195
 20
43.87703185700319
 30
0.0
 10
269.1506999896323
 20
43.78458439570294
 30
0.0
 10
269.332267641857
 20
43.72989727089556
 30
0.0
 10
269.6809991184423
 20
43.60749062610738
 30
0.0
 10
269.8459232949496
 20
43.54069825135016
 30
0.0
 10
270.0797692456013
 20
43.43313302781229
 30
0.0
 10
270.1554455101895
 20
43.3960346288682
 30
0.0
 10
270.3021743956838
 20
43.31936036544158
 30
0.0
 10
270.3733343538643
 20
43.27969423498254
 30
0.0
 10
270.5758309097546
 20
43.15921806555232
 30
0.0
 10
270.6976772502038
 20
43.07627734535038
 30
0.0
 10
270.9152956051898
 20
42.9047751060948
 30
0.0
 10
271.0117901248336
 20
42.81527960594379
 30
0.0
 10
271.1713827700135
 20
42.63491409605687
 30
0.0
 10
271.235029703407
 20
42.54395079295991
 30
0.0
 10
271.3292394543374
 20
42.35879384052586
 30
0.0
 10
271.3597637306937
 20
42.26355730686552
 30
0.0
 10
271.3826444853136
 20
42.07491239515705
 30
0.0
 10
271.3756594792048
 20
41.98106206633757
 30
0.0
 10
271.3224205537766
 20
41.79229559173014
 30
0.0
 10
271.2751240158916
 20
41.6965088517575
 30
0.0
 10
271.1421819550762
 20
41.51184607250561
 30
0.0
 10
271.0566019931496
 20
41.42187526502949
 30
0.0
 10
270.8971889307816
 20
41.28983087974733
 30
0.0
 10
270.8386735211784
 20
41.24627754724773
 30
0.0
 10
270.7144020622526
 20
41.16267120467265
 30
0.0
 10
270.5821458647687
 20
41.08189573236385
 30
0.0
 10
270.4341118177263
 20
41.00668069049148
 30
0.0
 10
270.2780323815947
 20
40.93433989665551
 30
0.0
 10
270.1958197292155
 20
40.89959897712102
 30
0.0
 10
269.9437277611056
 20
40.802549314614
 30
0.0
 10
269.7663970659651
 20
40.74629858575842
 30
0.0
 10
269.3938397011182
 20
40.65126007337085
 30
0.0
 10
269.2026057249637
 20
40.61362743467331
 30
0.0
 10
268.8174793187223
 20
40.55930039616982
 30
0.0
 10
268.6207099771264
 20
40.54239515500903
 30
0.0
 10
268.2353222697909
 20
40.53114152305946
 30
0.0
 10
268.0457343683637
 20
40.53646130919311
 30
0.0
 10
267.765666623543
 20
40.56155464470175
 30
0.0
 10
267.672819563183
 20
40.57285088835423
 30
0.0
 10
267.4918826954507
 20
40.60090809291609
 30
0.0
 10
267.40338396933
 20
40.61769030610315
 30
0.0
 10
267.1435939463415
 20
40.67628789956583
 30
0.0
 10
266.9779585477932
 20
40.72629811782873
 30
0.0
 10
266.6620025987763
 20
40.84953282112814
 30
0.0
 10
266.5156747409084
 20
40.92125559267634
 30
0.0
 10
266.2468097759888
 20
41.08358075744
 30
0.0
 10
266.1236857289927
 20
41.17457653834566
 30
0.0
 10
265.9032700461682
 20
41.37508460469808
 30
0.0
 10
265.8085150271829
 20
41.48216073836075
 30
0.0
 10
265.649302706895
 20
41.70872346297152
 30
0.0
 10
265.584553214122
 20
41.82894765874723
 30
0.0
 10
265.4893706847412
 20
42.07822431900133
 30
0.0
 10
265.4596599990123
 20
42.20478569482669
 30
0.0
 10
265.4423390530749
 20
42.39627987472674
 30
0.0
 10
265.4411382357222
 20
42.46038857316282
 30
0.0
 10
265.4483916231965
 20
42.58896613743288
 30
0.0
 10
265.4569575867776
 20
42.65383972061245
 30
0.0
 10
265.4974265187299
 20
42.84461678236894
 30
0.0
 10
265.5436855862962
 20
42.96719256680829
 30
0.0
 10
265.6432347964424
 20
43.14265780476588
 30
0.0
 10
265.6814815545548
 20
43.19973970282999
 30
0.0
 10
265.7688408519842
 20
43.31072715578518
 30
0.0
 10
265.8176634090082
 20
43.36414524348972
 30
0.0
 10
265.976628810175
 20
43.51489022533748
 30
0.0
 10
266.1001314886084
 20
43.60409794463433
 30
0.0
 10
266.3126958909958
 20
43.72005631440594
 30
0.0
 10
266.3881564278612
 20
43.75562472095893
 30
0.0
 10
266.544030695901
 20
43.81882819731716
 30
0.0
 10
266.6249405468106
 20
43.84675560402714
 30
0.0
 10
266.8763549316666
 20
43.91994943137601
 30
0.0
 10
267.0576922436241
 20
43.9547724699541
 30
0.0
 10
267.4283253203736
 20
43.99551692869873
 30
0.0
 10
267.6184098937217
 20
44.00205172378514
 30
0.0
 10
268.0078919191876
 20
43.99039350524015
 30
0.0
 10
268.2033922848443
 20
43.97224263233787
 30
0.0
 10
268.3976087625151
 20
43.94374499565869
 30
0.0
  0
LINE
  5
1F6
330
1F
100
AcDbEntity
  8
0
  6
Continuous
 62
     7
370
    15
100
AcDbLine
 10
277.6439120406
 20
29.3432750449
 30
0.0
 11
279.4050996728
 21
31.5341757161
 31
0.0
  0
SPLINE
  5
1F7
330
1F
100
AcDbEntity
  8
0
  6
Continuous
 62
     7
370
    15
100
AcDbSpline
210
0.0
220
0.0
230
1.0
 70
     8
 71
     3
 72
    22
 73
    18
 74
     0
 42
0.000000001
 43
0.00000001
 40
0.0
 40
0.0
 40
0.0
 40
0.0
 40
0.0500000000000109
 40
0.0999999999999997
 40
0.1499999999999999
 40
0.2
 40
0.2500000000000001
 40
0.2968749999999668
 40
0.34375
 40
0.3906249999999997
 40
0.4374999999999987
 40
0.5292946909502638
 40
0.5292946909502638
 40
0.53125
 40
0.6250000000000003
 40
0.8125
 40
0.8968030376395041
 40
0.8968030376395041
 40
0.8968030376395041
 40
0.8968030376395041
 10
279.4050996728319
 20
31.53417571608757
 30
0.0
 10
279.4862993548352
 20
31.63518734854881
 30
0.0
 10
279.6458887464583
 20
31.85520070094166
 30
0.0
 10
279.8650644835819
 20
32.2313967635798
 30
0.0
 10
280.0519252677865
 20
32.64868667155518
 30
0.0
 10
280.1892601085947
 20
33.0883446509674
 30
0.0
 10
280.2599334203002
 20
33.51550567437788
 30
0.0
 10
280.2594539999416
 20
33.90501045898678
 30
0.0
 10
280.1911318267055
 20
34.23718164827155
 30
0.0
 10
280.0594066143289
 20
34.50418171477393
 30
0.0
 10
279.8194287464852
 20
34.75739857718782
 30
0.0
 10
279.5748695787644
 20
34.84147073560676
 30
0.0
 10
279.4022896946534
 20
34.8579667005619
 30
0.0
 10
279.238185538512
 20
34.87368973958331
 30
0.0
 10
278.8289715157658
 20
34.90832141734365
 30
0.0
 10
278.4833386670477
 20
34.94023724854797
 30
0.0
 10
277.8522384747899
 20
34.99669236655509
 30
0.0
 10
277.6438651341297
 20
35.01530916056549
 30
0.0
  0
SPLINE
  5
1F8
330
1F
100
AcDbEntity
  8
0
  6
Continuous
 62
     7
370
    15
100
AcDbSpline
210
0.0
220
0.0
230
1.0
 70
     8
 71
     3
 72
    22
 73
    18
 74
     0
 42
0.000000001
 43
0.00000001
 40
0.0
 40
0.0
 40
0.0
 40
0.0
 40
0.0500000000000109
 40
0.0999999999999997
 40
0.1499999999999999
 40
0.2
 40
0.2500000000000001
 40
0.2968749999999668
 40
0.34375
 40
0.3906249999999997
 40
0.4374999999999987
 40
0.5292946909502638
 40
0.5292946909502638
 40
0.53125
 40
0.6250000000000003
 40
0.8125
 40
0.8955927989355216
 40
0.8955927989355216
 40
0.8955927989355216
 40
0.8955927989355216
 10
266.6418222724148
 20
24.16609250688775
 30
0.0
 10
266.5615663438751
 20
24.17326859627636
 30
0.0
 10
266.4005952015196
 20
24.20914750933369
 30
0.0
 10
266.1819748219094
 20
24.33223899114122
 30
0.0
 10
265.9949652337497
 20
24.53379734933835
 30
0.0
 10
265.8576702512485
 20
24.81488828022118
 30
0.0
 10
265.7869865317131
 20
25.16045275730203
 30
0.0
 10
265.7874681021249
 20
25.55051020348649
 30
0.0
 10
265.8557914377541
 20
25.9615668684518
 30
0.0
 10
265.9875098972457
 20
26.3806449803388
 30
0.0
 10
266.2275218712015
 20
26.91097689900858
 30
0.0
 10
266.4719278634292
 20
27.27722049122205
 30
0.0
 10
266.6446269773359
 20
27.49312126347954
 30
0.0
 10
266.8088576945368
 20
27.69847236266602
 30
0.0
 10
267.2191682176386
 20
28.20693654203995
 30
0.0
 10
267.5551012004328
 20
28.62584167186499
 30
0.0
 10
268.1957676121867
 20
29.42285295599042
 30
0.0
 10
268.4030572282183
 20
29.68070521286797
 30
0.0
  0
LINE
  5
1F9
330
1F
100
AcDbEntity
  8
0
  6
Continuous
 62
     7
370
    15
100
AcDbLine
 10
268.4030099047
 20
24.0086157932
 30
0.0
 11
266.6418222724
 21
24.1660925069
 31
0.0
  0
ARC
  5
1FA
330
1F
100
AcDbEntity
  8
0
  6
Continuous
 62
     7
370
    15
100
AcDbCircle
 10
267.9672392578
 20
44.4330323034
 30
0.0
 40
5.354193028728187
100
AcDbArc
 50
43.604287233
 51
76.4084550401
  0
ARC
  5
1FB
330
1F
100
AcDbEntity
  8
0
  6
Continuous
 62
     7
370
    15
100
AcDbCircle
 10
257.5738222899
 20
26.4290900611
 30
0.0
 40
5.354629804197899
100
AcDbArc
 50
223.5020380153
 51
256.5827881878
  0
ARC
  5
1FC
330
1F
100
AcDbEntity
  8
0
  6
Continuous
 62
     7
370
    15
100
AcDbCircle
 10
257.1310828379
 20
28.4439057845
 30
0.0
 40
6.890847990550832
100
AcDbArc
 50
188.312493873
 51
236.7139908619
  0
SPLINE
  5
1FD
330
1F
100
AcDbEntity
  8
0
  6
Continuous
 62
     7
370
    15
100
AcDbSpline
210
0.0
220
0.0
230
1.0
 70
     8
 71
     3
 72
    29
 73
    25
 74
     0
 42
0.000000001
 43
0.00000001
 40
0.0
 40
0.0
 40
0.0
 40
0.0
 40
0.0226170105016674
 40
0.0451713142211041
 40
0.0676870228449807
 40
0.090188372120831
 40
0.1126996441629423
 40
0.1352450890127045
 40
0.1578488467149011
 40
0.1805348711521328
 40
0.2033268568146046
 40
0.2262481695760157
 40
0.2493217824052029
 40
0.3751991801868492
 40
0.499961424646005
 40
0.4999717960761217
 40
0.6247044141102638
 40
0.7509557879397657
 40
0.7931713871186022
 40
0.8349081045046313
 40
0.8763104515914815
 40
0.9175264576320521
 40
0.9587061619408423
 40
1.0
 40
1.0
 40
1.0
 40
1.0
 10
250.3127894604902
 20
32.60193564089747
 30
0.0
 10
250.3311546856123
 20
32.55309575109904
 30
0.0
 10
250.3678342173601
 20
32.45555138251651
 30
0.0
 10
250.4195240460231
 20
32.30808877311898
 30
0.0
 10
250.4687054058442
 20
32.1601514836017
 30
0.0
 10
250.5151950757423
 20
32.01165961837274
 30
0.0
 10
250.5591051722008
 20
31.86266765224156
 30
0.0
 10
250.6004703636562
 20
31.71319586366339
 30
0.0
 10
250.6393476503613
 20
31.56327576035344
 30
0.0
 10
250.6757894953848
 20
31.41293695036982
 30
0.0
 10
250.7098514764735
 20
31.26221449874123
 30
0.0
 10
250.7415885295731
 20
31.11113280200099
 30
0.0
 10
250.8147468014475
 20
30.73541159504948
 30
0.0
 10
250.9004233414869
 20
30.14664117333301
 30
0.0
 10
250.9261557033037
 20
29.64515756932659
 30
0.0
 10
250.9265928595388
 20
29.17470474408286
 30
0.0
 10
250.9011618028194
 20
28.72826221419522
 30
0.0
 10
250.8091944867813
 20
28.29223554270547
 30
0.0
 10
250.7166405927361
 20
28.0240426600829
 30
0.0
 10
250.6530579688474
 20
27.87779154924842
 30
0.0
 10
250.5814124648118
 20
27.74687121740255
 30
0.0
 10
250.5011576904992
 20
27.63142488495194
 30
0.0
 10
250.4127560309051
 20
27.529902880507
 30
0.0
 10
250.3463993769933
 20
27.47490400354442
 30
0.0
 10
250.3131751351078
 20
27.447366509052
 30
0.0
  0
LWPOLYLINE
  5
1FE
330
1F
100
AcDbEntity
  8
0
  6
Continuous
 62
     7
370
    15
100
AcDbPolyline
 90
       27
 70
   128
 43
0.0
 10
250.3125707193
 20
32.6020619175
 10
250.5432087339
 20
33.8025582539
 10
250.8519948312
 20
35.0215026286
 10
251.2366696369
 20
36.2499760782
 10
251.6944185019
 20
37.4789899156
 10
252.2218920975
 20
38.6995514996
 10
252.8152309223
 20
39.9027300338
 10
253.4700935417
 20
41.0797219128
 10
254.1816883542
 20
42.2219151379
 10
254.9448086513
 20
43.3209523306
 10
255.7538707147
 20
44.3687918832
 10
256.6029546722
 20
45.3577667989
 10
257.4858478132
 20
46.280640791
 10
258.3960900468
 20
47.1306612303
 10
259.3270211697
 20
47.9016085541
 10
260.2718295992
 20
48.587841774
 10
261.2236022128
 20
49.1843397512
 10
262.1753749314
 20
49.6867379358
 10
263.1201836751
 20
50.0913603019
 10
264.0511153192
 20
50.3952462451
 10
264.9613582769
 20
50.5961722452
 10
265.84425234
 20
50.6926681353
 10
266.6933374106
 20
50.6840278591
 10
267.5024007699
 20
50.5703146371
 10
268.2655225364
 20
50.3523605041
 10
268.9771189809
 20
50.0317602211
 10
269.0979765811
 20
49.9640998299
  0
SPLINE
  5
1FF
330
1F
100
AcDbEntity
  8
0
  6
Continuous
 62
     7
370
    15
100
AcDbSpline
210
0.0
220
0.0
230
1.0
 70
     8
 71
     3
 72
    20
 73
    16
 74
     0
 42
0.000000001
 43
0.00000001
 40
0.0
 40
0.0
 40
0.0
 40
0.0
 40
0.0689330687639357
 40
0.208646066069818
 40
0.2795513568941319
 40
0.3568221062341879
 40
0.4346297180630895
 40
0.5141300326239604
 40
0.5942147550381071
 40
0.6714844138009198
 40
0.7492896513579522
 40
0.8287838911805755
 40
0.9088620526405522
 40
0.9861853451252774
 40
0.9999999999999999
 40
0.9999999999999999
 40
0.9999999999999999
 40
0.9999999999999999
 10
266.5534339247664
 20
24.49595529943424
 30
0.0
 10
266.522217609559
 20
24.49981507763099
 30
0.0
 10
266.4277323141561
 20
24.51149782367862
 30
0.0
 10
266.3112768138829
 20
24.55279250037753
 30
0.0
 10
266.2020351611229
 20
24.61561504210094
 30
0.0
 10
266.1230250657676
 20
24.67681317038977
 30
0.0
 10
266.0486688849751
 20
24.75261896176965
 30
0.0
 10
265.9818165077282
 20
24.84148312406698
 30
0.0
 10
265.9243150438965
 20
24.94165588530295
 30
0.0
 10
265.8765989674054
 20
25.05166024712513
 30
0.0
 10
265.8388417485693
 20
25.17093001414124
 30
0.0
 10
265.8107757353354
 20
25.3003455041869
 30
0.0
 10
265.7946426953868
 20
25.43794025172967
 30
0.0
 10
265.7882926570326
 20
25.5409522945112
 30
0.0
 10
265.7905773186606
 20
25.59854185858913
 30
0.0
 10
265.7909236267881
 20
25.60727126247821
 30
0.0
  0
SPLINE
  5
200
330
1F
100
AcDbEntity
  8
0
  6
Continuous
 62
     7
370
    15
100
AcDbSpline
210
0.0
220
0.0
230
1.0
 70
     8
 71
     3
 72
    12
 73
     8
 74
     0
 42
0.000000001
 43
0.00000001
 40
0.0
 40
0.0
 40
0.0
 40
0.0
 40
0.2500000000000001
 40
0.2500000000000001
 40
0.5000000000000002
 40
0.5000000000000002
 40
1.0
 40
1.0
 40
1.0
 40
1.0
 10
268.5779470577819
 20
29.92532234376646
 30
0.0
 10
268.5736955795516
 20
29.91388954142027
 30
0.0
 10
268.5635579430582
 20
29.89660869925402
 30
0.0
 10
268.5385658100099
 20
29.85846026019141
 30
0.0
 10
268.523464279414
 20
29.83717465935764
 30
0.0
 10
268.4758066166583
 20
29.77240698809966
 30
0.0
 10
268.440006302328
 20
29.72666700454446
 30
0.0
 10
268.403057228218
 20
29.68070521286764
 30
0.0
  0
SPLINE
  5
201
330
1F
100
AcDbEntity
  8
0
  6
Continuous
 62
     7
370
    15
100
AcDbSpline
210
0.0
220
0.0
230
1.0
 70
     8
 71
     3
 72
    16
 73
    12
 74
     0
 42
0.000000001
 43
0.00000001
 40
0.0
 40
0.0
 40
0.0
 40
0.0
 40
0.2500000000000033
 40
0.2500000000000033
 40
0.5000000000000066
 40
0.5000000000000066
 40
0.6250000000000082
 40
0.6250000000000082
 40
0.7500000000000098
 40
0.7500000000000098
 40
1.0
 40
1.0
 40
1.0
 40
1.0
 10
277.6438651341314
 20
35.01530916056534
 30
0.0
 10
277.6122148960469
 20
35.01813690216094
 30
0.0
 10
277.5780861698013
 20
35.01962201965268
 30
0.0
 10
277.5009075257722
 20
35.01776036455066
 30
0.0
 10
277.4572122953203
 20
35.01456084601712
 30
0.0
 10
277.3834977053041
 20
35.00071592908039
 30
0.0
 10
277.3575793883883
 20
34.99439711555032
 30
0.0
 10
277.3093761411774
 20
34.97883264444289
 30
0.0
 10
277.2870290496922
 20
34.96952478542111
 30
0.0
 10
277.2322125057746
 20
34.94146823948847
 30
0.0
 10
277.2102328663933
 20
34.92310163210262
 30
0.0
 10
277.1940112537184
 20
34.90599173016523
 30
0.0
  0
SPLINE
  5
202
330
1F
100
AcDbEntity
  8
0
  6
Continuous
 62
     7
370
    15
100
AcDbSpline
210
0.0
220
0.0
230
1.0
 70
     8
 71
     3
 72
     8
 73
     4
 74
     0
 42
0.000000001
 43
0.00000001
 40
0.0
 40
0.0
 40
0.0
 40
0.0
 40
1.0
 40
1.0
 40
1.0
 40
1.0
 10
277.1940112537183
 20
34.90599173016524
 30
0.0
 10
277.142781286474
 20
34.92544849876413
 30
0.0
 10
277.0920632944375
 20
34.94781524785737
 30
0.0
 10
277.0530390233891
 20
34.97034348000671
 30
0.0
  0
LINE
  5
203
330
1F
100
AcDbEntity
  8
0
  6
Continuous
 62
     7
370
    15
100
AcDbLine
 10
275.2325528813
 20
36.0212877599
 30
0.0
 11
277.0530390234
 21
34.97034348
 31
0.0
  0
ARC
  5
204
330
1F
100
AcDbEntity
  8
0
  6
Continuous
 62
     7
370
    15
100
AcDbCircle
 10
264.4589145207
 20
35.2268161979
 30
0.0
 40
8.700543724466696
100
AcDbArc
 50
338.0288028462
 51
1.7614068965
  0
LINE
  5
205
330
1F
100
AcDbEntity
  8
0
  6
Continuous
 62
     7
370
    15
100
AcDbLine
 10
272.5275556238
 20
31.9715908832
 30
0.0
 11
277.0530390234
 21
29.3590849253
 31
0.0
  0
LINE
  5
206
330
1F
100
AcDbEntity
  8
0
  6
Continuous
 62
     7
370
    15
100
AcDbLine
 10
265.8577484267
 20
25.8639585562
 30
0.0
 11
268.4281974969
 21
24.3800698934
 31
0.0
  0
SPLINE
  5
207
330
1F
100
AcDbEntity
  8
0
  6
Continuous
 62
     7
370
    15
100
AcDbSpline
210
0.0
220
0.0
230
1.0
 70
     8
 71
     3
 72
     8
 73
     4
 74
     0
 42
0.000000001
 43
0.00000001
 40
0.0
 40
0.0
 40
0.0
 40
0.0
 40
1.0
 40
1.0
 40
1.0
 40
1.0
 10
249.5346343223152
 20
35.88083904440181
 30
0.0
 10
248.8415630872623
 20
35.7649774260271
 30
0.0
 10
248.1479423208661
 20
35.65021873287404
 30
0.0
 10
247.4539631600387
 20
35.53620718523588
 30
0.0
  0
SPLINE
  5
208
330
1F
100
AcDbEntity
  8
0
  6
Continuous
 62
     7
370
    15
100
AcDbSpline
210
0.0
220
0.0
230
1.0
 70
     8
 71
     3
 72
     8
 73
     4
 74
     0
 42
0.000000001
 43
0.00000001
 40
0.0
 40
0.0
 40
0.0
 40
0.0
 40
0.0012389803509652
 40
0.0012389803509652
 40
0.0012389803509652
 40
0.0012389803509652
 10
246.9802267458932
 20
35.80974130598989
 30
0.0
 10
247.1383000808742
 20
35.71847022553938
 30
0.0
 10
247.2962182598402
 20
35.62728869843913
 30
0.0
 10
247.4539631600387
 20
35.53620718523589
 30
0.0
  0
LWPOLYLINE
  5
209
330
1F
100
AcDbEntity
  8
0
  6
Continuous
 62
     7
370
    15
100
AcDbPolyline
 90
       28
 70
   128
 43
0.0
 10
246.9802267459
 20
35.809741306
 10
247.2870422236
 20
37.0311416931
 10
247.6702011457
 20
38.2624231776
 10
248.1268863449
 20
39.4945327896
 10
248.6537400533
 20
40.7184114707
 10
249.2468885907
 20
41.9250606799
 10
249.9019708457
 20
43.1056085557
 10
250.6141703404
 20
44.251375146
 10
251.3782506438
 20
45.3539362273
 10
252.1885938726
 20
46.4051852437
 10
253.0392419961
 20
47.3973929102
 10
253.9239406427
 20
48.3232640418
 10
254.8361850854
 20
49.1759911917
 10
255.769268067
 20
49.9493047023
 10
256.7163291157
 20
50.6375188032
 10
257.6704049861
 20
51.2355734155
 10
258.6244808565
 20
51.7390713559
 10
259.5715419052
 20
52.144310667
 10
260.5046248868
 20
52.4483118357
 10
261.4168693295
 20
52.6488397002
 10
262.3015679761
 20
52.7444198838
 10
263.1522160996
 20
52.7343496353
 10
263.9625593284
 20
52.6187029959
 10
264.7266396319
 20
52.3983302551
 10
265.4388391266
 20
52.0748516986
 10
266.0939213815
 20
51.6506456951
 10
266.6870699189
 20
51.1288312101
 10
267.1184020042
 20
50.6381221696
  0
LINE
  5
20A
330
1F
100
AcDbEntity
  8
0
  6
Continuous
 62
     7
370
    15
100
AcDbLine
 10
243.9485064216
 20
37.5599161957
 30
0.0
 11
246.9802267459
 21
35.809741306
 31
0.0
  0
ARC
  5
20B
330
1F
100
AcDbEntity
  8
0
  6
Continuous
 62
     7
370
    15
100
AcDbCircle
 10
259.8370224008
 20
49.1190193351
 30
0.0
 40
5.3619845905429
100
AcDbArc
 50
60.0613041787
 51
76.5206840992
  0
LINE
  5
20C
330
1F
100
AcDbEntity
  8
0
  6
Continuous
 62
     7
370
    15
100
AcDbLine
 10
249.9372297248
 20
35.8196766537
 30
0.0
 11
249.9279070739
 21
35.8250585055
 31
0.0
  0
SPLINE
  5
20D
330
1F
100
AcDbEntity
  8
0
  6
Continuous
 62
     7
370
    15
100
AcDbSpline
210
0.0
220
0.0
230
1.0
 70
     8
 71
     3
 72
    10
 73
     6
 74
     0
 42
0.000000001
 43
0.00000001
 40
0.0
 40
0.0
 40
0.0
 40
0.0
 40
0.2385418297506325
 40
0.7122529297936188
 40
1.0
 40
1.0
 40
1.0
 40
1.0
 10
250.8517437557133
 20
35.02044959959255
 30
0.0
 10
250.7867573522354
 20
35.1003686346377
 30
0.0
 10
250.5927169345765
 20
35.33899582600574
 30
0.0
 10
250.280783082326
 20
35.60376398072599
 30
0.0
 10
250.0314500624959
 20
35.76046208186217
 30
0.0
 10
249.9372297247742
 20
35.81967665368042
 30
0.0
  0
LINE
  5
20E
330
1F
100
AcDbEntity
  8
0
  6
Continuous
 62
     7
370
    15
100
AcDbLine
 10
268.4993573009
 20
24.3219604265
 30
0.0
 11
266.5534339248
 21
24.4959552994
 31
0.0
  0
SPLINE
  5
20F
330
1F
100
AcDbEntity
  8
0
  6
Continuous
 62
     7
370
    15
100
AcDbSpline
210
0.0
220
0.0
230
1.0
 70
     8
 71
     3
 72
    16
 73
    12
 74
     0
 42
0.000000001
 43
0.00000001
 40
0.0
 40
0.0
 40
0.0
 40
0.0
 40
0.2499999999999937
 40
0.2499999999999937
 40
0.4999999999999873
 40
0.4999999999999873
 40
0.6249999999999878
 40
0.6249999999999878
 40
0.7499999999999883
 40
0.7499999999999883
 40
1.0
 40
1.0
 40
1.0
 40
1.0
 10
268.4030099046654
 20
24.00861579321557
 30
0.0
 10
268.4342709633108
 20
24.00582058349955
 30
0.0
 10
268.465201105941
 20
24.00642410421834
 30
0.0
 10
268.5218570178197
 20
24.02032834961846
 30
0.0
 10
268.548698203404
 20
24.03323727225157
 30
0.0
 10
268.5740502939414
 20
24.07514735180996
 30
0.0
 10
268.5794849146985
 20
24.09328430072875
 30
0.0
 10
268.5806065160407
 20
24.13591355511596
 30
0.0
 10
268.5762436685282
 20
24.16045656665484
 30
0.0
 10
268.5530001062103
 20
24.2337365341088
 30
0.0
 10
268.5268719388235
 20
24.27976058370062
 30
0.0
 10
268.4993573009249
 20
24.32196042647248
 30
0.0
  0
SPLINE
  5
210
330
1F
100
AcDbEntity
  8
0
  6
Continuous
 62
     7
370
    15
100
AcDbSpline
210
0.0
220
0.0
230
1.0
 70
     8
 71
     3
 72
     8
 73
     4
 74
     0
 42
0.000000001
 43
0.00000001
 40
0.0
 40
0.0
 40
0.0
 40
0.0
 40
1.0
 40
1.0
 40
1.0
 40
1.0
 10
268.4281974969082
 20
24.38006989340057
 30
0.0
 10
268.4671849876068
 20
24.35756289409522
 30
0.0
 10
268.4896026547303
 20
24.33771070677838
 30
0.0
 10
268.4993573009248
 20
24.32196042647249
 30
0.0
  0
SPLINE
  5
211
330
1F
100
AcDbEntity
  8
0
  6
Continuous
 62
     7
370
    15
100
AcDbSpline
210
0.0
220
0.0
230
1.0
 70
     8
 71
     3
 72
    10
 73
     6
 74
     0
 42
0.000000001
 43
0.00000001
 40
0.0
 40
0.0
 40
0.0
 40
0.0
 40
0.5
 40
0.5
 40
1.0
 40
1.0
 40
1.0
 40
1.0
 10
249.9279070738671
 20
35.82505850549315
 30
0.0
 10
249.8781064750543
 20
35.85380777924227
 30
0.0
 10
249.8130745583103
 20
35.87457112460294
 30
0.0
 10
249.6760161979649
 20
35.89352481399072
 30
0.0
 10
249.6024773579151
 20
35.89218045276292
 30
0.0
 10
249.5346343223152
 20
35.88083904440181
 30
0.0
  0
SPLINE
  5
212
330
1F
100
AcDbEntity
  8
0
  6
Continuous
 62
     7
370
    15
100
AcDbSpline
210
0.0
220
0.0
230
1.0
 70
     8
 71
     3
 72
     8
 73
     4
 74
     0
 42
0.000000001
 43
0.00000001
 40
0.0
 40
0.0
 40
0.0
 40
0.0
 40
1.0
 40
1.0
 40
1.0
 40
1.0
 10
243.7916818139948
 20
37.65043787489868
 30
0.0
 10
243.8140606105142
 20
37.63752592344684
 30
0.0
 10
243.8682480415314
 20
37.60624837228981
 30
0.0
 10
243.9485064215559
 20
37.55991619570982
 30
0.0
  0
LINE
  5
213
330
1F
100
AcDbEntity
  8
0
  6
Continuous
 62
     7
370
    15
100
AcDbLine
 10
243.791681814
 20
37.6504378749
 30
0.0
 11
243.8148309217
 21
37.7969722921
 31
0.0
  0
SPLINE
  5
214
330
1F
100
AcDbEntity
  8
0
  6
Continuous
 62
     7
370
    15
100
AcDbSpline
210
0.0
220
0.0
230
1.0
 70
     8
 71
     3
 72
    11
 73
     7
 74
     0
 42
0.000000001
 43
0.00000001
 40
0.0
 40
0.0
 40
0.0
 40
0.0
 40
0.3095641458094128
 40
0.5897803711570389
 40
0.840990022418654
 40
0.9999999999999999
 40
0.9999999999999999
 40
0.9999999999999999
 40
0.9999999999999999
 10
250.4212148097739
 20
28.1734952478125
 30
0.0
 10
250.5122107727516
 20
28.26496946422587
 30
0.0
 10
250.6855759170852
 20
28.43924577509033
 30
0.0
 10
250.8359089007845
 20
28.85771160008742
 30
0.0
 10
250.9101896398834
 20
29.27086082826961
 30
0.0
 10
250.9177342718182
 20
29.56789207987434
 30
0.0
 10
250.9206587339123
 20
29.68302780068772
 30
0.0
  0
SPLINE
  5
215
330
1F
100
AcDbEntity
  8
0
  6
Continuous
 62
     7
370
    15
100
AcDbSpline
210
0.0
220
0.0
230
1.0
 70
     8
 71
     3
 72
     9
 73
     5
 74
     0
 42
0.000000001
 43
0.00000001
 40
0.0
 40
0.0
 40
0.0
 40
0.0
 40
0.5067661695379747
 40
1.0
 40
1.0
 40
1.0
 40
1.0
 10
250.3124933453015
 20
27.44686448126835
 30
0.0
 10
250.3307623626129
 20
27.56931883509835
 30
0.0
 10
250.3668125538245
 20
27.81095760499026
 30
0.0
 10
250.4034932932613
 20
28.05310800311944
 30
0.0
 10
250.4215854748779
 20
28.17254477153659
 30
0.0
  0
SPLINE
  5
216
330
1F
100
AcDbEntity
  8
0
  6
Continuous
 62
     7
370
    15
100
AcDbSpline
210
0.0
220
0.0
230
1.0
 70
     8
 71
     3
 72
    12
 73
     8
 74
     0
 42
0.000000001
 43
0.00000001
 40
0.0
 40
0.0
 40
0.0
 40
0.0
 40
0.2397080489874077
 40
0.4811275391257651
 40
0.7278936675549452
 40
0.9764781970316487
 40
1.0
 40
1.0
 40
1.0
 40
1.0
 10
249.9372297247742
 20
29.24652311800014
 30
0.0
 10
250.0127146539821
 20
29.20434429102568
 30
0.0
 10
250.1642234513892
 20
29.11968549332925
 30
0.0
 10
250.384537615508
 20
29.0150433170801
 30
0.0
 10
250.5981996717878
 20
28.92941317270222
 30
0.0
 10
250.7431242167981
 20
28.88084668270457
 30
0.0
 10
250.81484487799
 20
28.86355947819522
 30
0.0
 10
250.8210446574886
 20
28.86206511305242
 30
0.0
  0
SPLINE
  5
217
330
1F
100
AcDbEntity
  8
0
  6
Continuous
 62
     7
370
    15
100
AcDbSpline
210
0.0
220
0.0
230
1.0
 70
     8
 71
     3
 72
     8
 73
     4
 74
     0
 42
0.000000001
 43
0.00000001
 40
0.0
 40
0.0
 40
0.0
 40
0.0
 40
1.0
 40
1.0
 40
1.0
 40
1.0
 10
277.0530390233891
 20
29.3590849253231
 30
0.0
 10
277.0920265140878
 20
29.33657792601775
 30
0.0
 10
277.1427742942064
 20
29.33308036481501
 30
0.0
 10
277.1940112537284
 20
29.34127731426192
 30
0.0
  0
SPLINE
  5
218
330
1F
100
AcDbEntity
  8
0
  6
Continuous
 62
     7
370
    15
100
AcDbSpline
210
0.0
220
0.0
230
1.0
 70
     8
 71
     3
 72
    16
 73
    12
 74
     0
 42
0.000000001
 43
0.00000001
 40
0.0
 40
0.0
 40
0.0
 40
0.0
 40
0.2500000000000037
 40
0.2500000000000037
 40
0.3750000000000055
 40
0.3750000000000055
 40
0.5000000000000073
 40
0.5000000000000073
 40
0.7500000000000037
 40
0.7500000000000037
 40
1.0
 40
1.0
 40
1.0
 40
1.0
 10
277.1940112537284
 20
29.3412773142619
 30
0.0
 10
277.2101404763521
 20
29.29248825098003
 30
0.0
 10
277.232546785074
 20
29.24336220988252
 30
0.0
 10
277.286872607306
 20
29.18912261947892
 30
0.0
 10
277.3089391029688
 20
29.17480223566793
 30
0.0
 10
277.3572852921975
 20
29.16046714094357
 30
0.0
 10
277.3833702575916
 20
29.16048647218278
 30
0.0
 10
277.457107930836
 20
29.17595502464063
 30
0.0
 10
277.5005840888753
 20
29.20365565866468
 30
0.0
 10
277.57789175359
 20
29.26703083843351
 30
0.0
 10
277.6125451560183
 20
29.30425493866787
 30
0.0
 10
277.6439120405813
 20
29.34327504486484
 30
0.0
  0
SPLINE
  5
219
330
1F
100
AcDbEntity
  8
0
  6
Continuous
 62
     7
370
    15
100
AcDbSpline
210
0.0
220
0.0
230
1.0
 70
     8
 71
     3
 72
    30
 73
    26
 74
     0
 42
0.000000001
 43
0.00000001
 40
0.0
 40
0.0
 40
0.0
 40
0.0
 40
0.1249999999999992
 40
0.1249999999999992
 40
0.1874999999999993
 40
0.1874999999999993
 40
0.2499999999999994
 40
0.2499999999999994
 40
0.3124999999999995
 40
0.3124999999999995
 40
0.3749999999999997
 40
0.3749999999999997
 40
0.4374999999999998
 40
0.4374999999999998
 40
0.5
 40
0.5
 40
0.6250000000000002
 40
0.6250000000000002
 40
0.6875000000000001
 40
0.6875000000000001
 40
0.7500000000000001
 40
0.7500000000000001
 40
0.875
 40
0.875
 40
1.0
 40
1.0
 40
1.0
 40
1.0
 10
279.139934629887
 20
31.76198749465633
 30
0.0
 10
279.2532247202856
 20
31.90291929008351
 30
0.0
 10
279.3555228874123
 20
32.05270971176937
 30
0.0
 10
279.4913975773221
 20
32.29117623552511
 30
0.0
 10
279.5340488775351
 20
32.37360075361155
 30
0.0
 10
279.6114938013174
 20
32.53919906623547
 30
0.0
 10
279.6463723545624
 20
32.62247403656604
 30
0.0
 10
279.7086340565859
 20
32.78994129507957
 30
0.0
 10
279.7360380903614
 20
32.87412217547426
 30
0.0
 10
279.7831998008843
 20
33.04338899698557
 30
0.0
 10
279.8027532384876
 20
33.12793316326969
 30
0.0
 10
279.8334301873551
 20
33.29296050012213
 30
0.0
 10
279.844676970824
 20
33.37402080089564
 30
0.0
 10
279.8591463868609
 20
33.53314690821674
 30
0.0
 10
279.8623972701268
 20
33.61167915292161
 30
0.0
 10
279.8598795630397
 20
33.83876778521324
 30
0.0
 10
279.842389158022
 20
33.97708290164165
 30
0.0
 10
279.7931827945822
 20
34.1647782209176
 30
0.0
 10
279.7728182002438
 20
34.22400854576432
 30
0.0
 10
279.7253477335785
 20
34.33232585094346
 30
0.0
 10
279.6981267124942
 20
34.38191394776145
 30
0.0
 10
279.6061018190254
 20
34.51707652105024
 30
0.0
 10
279.529863155147
 20
34.58936513594494
 30
0.0
 10
279.3541779817354
 20
34.69099150009901
 30
0.0
 10
279.2532349434638
 20
34.7218660987639
 30
0.0
 10
279.1399346303837
 20
34.73199685691287
 30
0.0
  0
LINE
  5
21A
330
1F
100
AcDbEntity
  8
0
  6
Continuous
 62
     7
370
    15
100
AcDbLine
 10
279.1399346304
 20
34.7319968569
 30
0.0
 11
277.1940112537
 21
34.9059917302
 31
0.0
  0
LINE
  5
21B
330
1F
100
AcDbEntity
  8
0
  6
Continuous
 62
     7
370
    15
100
AcDbLine
 10
244.2251150615
 20
37.4001815167
 30
0.0
 11
243.791681814
 21
37.6504378749
 31
0.0
  0
LINE
  5
21C
330
1F
100
AcDbEntity
  8
0
  6
Continuous
 62
     7
370
    15
100
AcDbLine
 10
247.45396316
 20
35.5362071852
 30
0.0
 11
244.2251150615
 21
37.4001815167
 31
0.0
  0
SPLINE
  5
21D
330
1F
100
AcDbEntity
  8
0
  6
Continuous
 62
     7
370
    15
100
AcDbSpline
210
0.0
220
0.0
230
1.0
 70
     8
 71
     3
 72
    11
 73
     7
 74
     0
 42
0.000000001
 43
0.00000001
 40
0.0
 40
0.0
 40
0.0
 40
0.0
 40
0.2162755946415487
 40
0.524817923293023
 40
0.8333978918991285
 40
1.0
 40
1.0
 40
1.0
 40
1.0
 10
246.3301799828312
 20
33.38635557091393
 30
0.0
 10
246.3254624987233
 20
33.5927471397215
 30
0.0
 10
246.3140149740187
 20
34.09358032298611
 30
0.0
 10
246.248828814691
 20
34.91237369871077
 30
0.0
 10
246.2080740480902
 20
35.67401222234723
 30
0.0
 10
246.2294738554393
 20
36.10871101439363
 30
0.0
 10
246.2369767752507
 20
36.26111940413282
 30
0.0
  0
LINE
  5
21E
330
1F
100
AcDbEntity
  8
0
  6
Continuous
 62
     7
370
    15
100
AcDbLine
 10
246.3301799828
 20
32.9660002155
 30
0.0
 11
246.3301799828
 21
33.3863555709
 31
0.0
  0
LINE
  5
21F
330
1F
100
AcDbEntity
  8
0
  6
Continuous
 62
     7
370
    15
100
AcDbLine
 10
245.7203003841
 20
36.2013690306
 30
0.0
 11
245.7254882788
 21
36.5340344948
 31
0.0
  0
ARC
  5
220
330
1F
100
AcDbEntity
  8
0
  6
Continuous
 62
     7
370
    15
100
AcDbCircle
 10
253.274129971
 20
36.0271162303
 30
0.0
 40
7.555839163669575
100
AcDbArc
 50
178.6785272924
 51
203.2171026327
  0
LINE
  5
221
330
1F
100
AcDbEntity
  8
0
  6
Continuous
 62
     7
370
    15
100
AcDbLine
 10
227.2420775924
 20
48.5834173269
 30
0.0
 11
227.206796959
 21
48.6138509044
 31
0.0
  0
ARC
  5
222
330
1F
100
AcDbEntity
  8
0
  6
Continuous
 62
     7
370
    15
100
AcDbCircle
 10
271.9097544173
 20
36.5664807417
 30
0.0
 40
3.360506813818849
100
AcDbArc
 50
320.6498369943
 51
350.7253969509
  0
LINE
  5
223
330
1F
100
AcDbEntity
  8
0
  6
Continuous
 62
     7
370
    15
100
AcDbLine
 10
277.1940112537
 20
29.3412773143
 30
0.0
 11
279.1399346299
 21
31.7619874947
 31
0.0
  0
LINE
  5
224
330
1F
100
AcDbEntity
  8
0
  6
Continuous
 62
     7
370
    15
100
AcDbLine
 10
272.5275556238
 20
31.9715908832
 30
0.0
 11
274.5083852131
 21
34.4357240609
 31
0.0
  0
LINE
  5
225
330
1F
100
AcDbEntity
  8
0
  6
Continuous
 62
     7
370
    15
100
AcDbLine
 10
249.9279070739
 20
29.2519049698
 30
0.0
 11
249.9372297248
 21
29.246523118
 31
0.0
  0
ARC
  5
226
330
1F
100
AcDbEntity
  8
0
  6
Continuous
 62
     7
370
    15
100
AcDbCircle
 10
252.7551228399
 20
29.8988059558
 30
0.0
 40
5.919642220385694
100
AcDbArc
 50
192.6964501328
 51
260.4756565155
  0
SPLINE
  5
227
330
1F
100
AcDbEntity
  8
0
  6
Continuous
 62
     7
370
    15
100
AcDbSpline
210
0.0
220
0.0
230
1.0
 70
     8
 71
     3
 72
     8
 73
     4
 74
     0
 42
0.000000001
 43
0.00000001
 40
0.0
 40
0.0
 40
0.0
 40
0.0
 40
0.0012389803509652
 40
0.0012389803509652
 40
0.0012389803509652
 40
0.0012389803509652
 10
247.4539631600387
 20
28.9630536495556
 30
0.0
 10
247.2962182598402
 20
28.84097719902088
 30
0.0
 10
247.1383000808742
 20
28.71921989602007
 30
0.0
 10
246.9802267458932
 20
28.59775287447563
 30
0.0
  0
SPLINE
  5
228
330
1F
100
AcDbEntity
  8
0
  6
Continuous
 62
     7
370
    15
100
AcDbSpline
210
0.0
220
0.0
230
1.0
 70
     8
 71
     3
 72
     8
 73
     4
 74
     0
 42
0.000000001
 43
0.00000001
 40
0.0
 40
0.0
 40
0.0
 40
0.0
 40
1.0
 40
1.0
 40
1.0
 40
1.0
 10
247.4539631600387
 20
28.9630536495556
 30
0.0
 10
248.1479437429803
 20
29.07706543082821
 30
0.0
 10
248.8415768037422
 20
29.19182618334858
 30
0.0
 10
249.5346343223152
 20
29.30768550872153
 30
0.0
  0
SPLINE
  5
229
330
1F
100
AcDbEntity
  8
0
  6
Continuous
 62
     7
370
    15
100
AcDbSpline
210
0.0
220
0.0
230
1.0
 70
     8
 71
     3
 72
    12
 73
     8
 74
     0
 42
0.000000001
 43
0.00000001
 40
0.0
 40
0.0
 40
0.0
 40
0.0
 40
0.2499999999999984
 40
0.2499999999999984
 40
0.4999999999999968
 40
0.4999999999999968
 40
1.0
 40
1.0
 40
1.0
 40
1.0
 10
249.5346343223152
 20
29.30768550872153
 30
0.0
 10
249.5684228382393
 20
29.31333397880578
 30
0.0
 10
249.6039946143081
 20
29.31659444232122
 30
0.0
 10
249.6745768607007
 20
29.31773203186934
 30
0.0
 10
249.7095998191495
 20
29.31571541541132
 30
0.0
 10
249.8138051144145
 20
29.30133967807173
 30
0.0
 10
249.8775155463541
 20
29.28099537943932
 30
0.0
 10
249.9279070738671
 20
29.25190496981287
 30
0.0
  0
LINE
  5
22A
330
1F
100
AcDbEntity
  8
0
  6
Continuous
 62
     7
370
    15
100
AcDbLine
 10
244.2251150615
 20
30.827027981
 30
0.0
 11
247.45396316
 21
28.9630536496
 31
0.0
  0
LINE
  5
22B
330
1F
100
AcDbEntity
  8
0
  6
Continuous
 62
     7
370
    15
100
AcDbLine
 10
244.2251150615
 20
30.827027981
 30
0.0
 11
246.1180479485
 21
31.9197948765
 31
0.0
  0
LINE
  5
22C
330
1F
100
AcDbEntity
  8
0
  6
Continuous
 62
     7
370
    15
100
AcDbLine
 10
243.791681814
 20
30.5767716228
 30
0.0
 11
244.2251150615
 21
30.827027981
 31
0.0
  0
LINE
  5
22D
330
1F
100
AcDbEntity
  8
0
  6
Continuous
 62
     7
370
    15
100
AcDbLine
 10
246.9802267459
 20
28.5977528745
 30
0.0
 11
243.9485064216
 21
30.3479277642
 31
0.0
  0
SPLINE
  5
22E
330
1F
100
AcDbEntity
  8
0
  6
Continuous
 62
     7
370
    15
100
AcDbSpline
210
0.0
220
0.0
230
1.0
 70
     8
 71
     3
 72
     8
 73
     4
 74
     0
 42
0.000000001
 43
0.00000001
 40
0.0
 40
0.0
 40
0.0
 40
0.0
 40
1.0
 40
1.0
 40
1.0
 40
1.0
 10
243.9485064215559
 20
30.34792776419556
 30
0.0
 10
243.8684816220411
 20
30.39412509761753
 30
0.0
 10
243.8140048246593
 20
30.47731261998223
 30
0.0
 10
243.7916818139948
 20
30.57677162282334
 30
0.0
  0
ARC
  5
22F
330
1F
100
AcDbEntity
  8
0
  6
Continuous
 62
     7
370
    15
100
AcDbCircle
 10
249.4832049569
 20
31.1682985634
 30
0.0
 40
5.415345003064855
100
AcDbArc
 50
223.4627285398
 51
239.8629790146
  0
ELLIPSE
  5
230
330
1F
100
AcDbEntity
  8
0
  6
Continuous
 62
     7
370
    15
100
AcDbEllipse
 10
245.8837333734
 20
32.7082944509
 30
0.0
 11
-6.005970385558612E-5
 21
0.8534489614827194
 31
0.0
210
0.0
220
0.0
230
1.0
 40
0.7174342186
 41
3.534193645557441
 42
5.104989972352364
  0
ELLIPSE
  5
231
330
1F
100
AcDbEntity
  8
0
  6
Continuous
 62
     7
370
    15
100
AcDbEllipse
 10
245.7644945579
 20
32.6394369708
 30
0.0
 11
0.2600075789209484
 21
0.9705436209909308
 31
0.0
210
0.0
220
0.0
230
1.0
 40
0.5176380889
 41
3.619174351347763
 42
5.189970678142611
  0
LWPOLYLINE
  5
232
330
1F
100
AcDbEntity
  8
0
  6
Continuous
 62
     7
370
     0
100
AcDbPolyline
 90
       10
 70
   128
 43
0.0
 10
255.6993448336
 20
29.3078230364
 10
255.7406077429
 20
28.3465491651
 10
255.8640112103
 20
27.4418915901
 10
256.0684030508
 20
26.6022968553
 10
256.3518749129
 20
25.8356040306
 10
256.7117800961
 20
25.1489715202
 10
257.1447582628
 20
24.548810227
 10
257.6467668124
 20
24.0407236952
 10
258.2131186265
 20
23.6294557919
 10
258.2886875194
 20
23.5847629555
  0
LWPOLYLINE
  5
233
330
1F
100
AcDbEntity
  8
0
  6
Continuous
 62
     7
370
     0
100
AcDbPolyline
 90
       26
 70
   128
 43
0.0
 10
270.7876716774
 20
45.235984515
 10
270.5575662464
 20
45.3593823258
 10
269.9047886804
 20
45.6185150101
 10
269.2019045313
 20
45.7730002993
 10
268.4554764391
 20
45.8213958057
 10
267.6724736018
 20
45.7632496736
 10
266.8602067058
 20
45.5991047977
 10
266.0262596683
 20
45.3304937545
 10
265.1784188282
 20
44.959924493
 10
264.3246002469
 20
44.4908569185
 10
263.4727757985
 20
43.9276705885
 10
262.6308987383
 20
43.2756238221
 10
261.8068294456
 20
42.5408046042
 10
261.0082620333
 20
41.730073744
 10
260.2426525103
 20
40.8510008169
 10
259.5171491663
 20
39.9117934901
 10
258.8385258306
 20
38.9212208894
 10
258.2131186265
 20
37.8885317242
 10
257.6467668124
 20
36.8233679349
 10
257.1447582628
 20
35.735674669
 10
256.7117800961
 20
34.6356074253
 10
256.3518749129
 20
33.5334372353
 10
256.0684030508
 20
32.4394547652
 10
255.8640112103
 20
31.3638742344
 10
255.7406077429
 20
30.3167380487
 10
255.6993448336
 20
29.3078230364
  0
LWPOLYLINE
  5
234
330
1F
100
AcDbEntity
  8
0
  6
Continuous
 62
     7
370
     0
100
AcDbPolyline
 90
       18
 70
   128
 43
0.0
 10
268.4030099047
 20
24.0086157932
 10
268.7522589348
 20
23.5556877053
 10
269.170655606
 20
23.1991867493
 10
269.6514263816
 20
22.9448844152
 10
270.186787934
 20
22.7968976722
 10
270.7680731507
 20
22.7576223173
 10
271.3858714488
 20
22.8276941901
 10
272.030181125
 20
23.005978878
 10
272.6905712764
 20
23.2895900821
 10
273.3563506688
 20
23.6739363443
 10
274.0167408202
 20
24.1527953793
 10
274.6610504964
 20
24.7184148092
 10
275.2788487945
 20
25.3616376685
 10
275.8601340113
 20
26.072050649
 10
276.3954955637
 20
26.8381526835
 10
276.8762663393
 20
27.6475411397
 10
277.2946630104
 20
28.4871126098
 10
277.6439120406
 20
29.3432750449
  0
LWPOLYLINE
  5
235
330
1F
100
AcDbEntity
  8
0
  6
Continuous
 62
     7
370
     0
100
AcDbPolyline
 90
       18
 70
   128
 43
0.0
 10
277.6438651341
 20
35.0153091606
 10
277.2946121005
 20
35.4682161029
 10
276.8762146982
 20
35.8246984582
 10
276.3954462357
 20
36.0789852419
 10
275.8600897277
 20
36.2269598825
 10
275.2788118981
 20
36.2662268635
 10
274.6610228773
 20
36.1961505036
 10
274.016723864
 20
36.0178652477
 10
273.3563452194
 20
35.7342573018
 10
272.6905776127
 20
35.3499179087
 10
272.0301989538
 20
34.8710690221
 10
271.385899912
 20
34.3054625813
 10
270.768110849
 20
33.6622550173
 10
270.1868329643
 20
32.9518590218
 10
269.6514763891
 20
32.1857749801
 10
269.1707078484
 20
31.376404794
 10
268.7523103581
 20
30.5368511117
 10
268.4030572282
 20
29.6807052129
  0
LWPOLYLINE
  5
236
330
1F
100
AcDbEntity
  8
0
  6
Continuous
 62
     7
370
     0
100
AcDbPolyline
 90
       35
 70
   128
 43
0.0
 10
252.3405876229
 20
29.0016699944
 10
252.3816216334
 20
30.1106432939
 10
252.5044113711
 20
31.2585534969
 10
252.7080223322
 20
32.4366643137
 10
252.9909049141
 20
33.6360096097
 10
253.3509062097
 20
34.8474616429
 10
253.7852863917
 20
36.0618005319
 10
254.2907395646
 20
37.2697844246
 10
254.8634189246
 20
38.462219834
 10
255.498966036
 20
39.6300316067
 10
256.1925440015
 20
40.7643319901
 10
256.938874274
 20
41.8564882731
 10
257.7322768295
 20
42.8981884872
 10
258.5667133954
 20
43.8815046645
 10
259.4358334056
 20
44.7989531754
 10
260.3330223322
 20
45.6435516826
 10
261.2514520255
 20
46.4088722816
 10
262.1841326811
 20
47.0890904204
 10
263.123966036
 20
47.6790292284
 10
264.0637993909
 20
48.1741989148
 10
264.9964800465
 20
48.5708309396
 10
265.9149097399
 20
48.8659066934
 10
266.8120986664
 20
49.0571804715
 10
267.6812186766
 20
49.1431965651
 10
268.5156552426
 20
49.1233003398
 10
269.309057798
 20
48.9976432178
 10
270.0553880705
 20
48.7671815256
 10
270.748966036
 20
48.4336692161
 10
271.3845131474
 20
47.999644519
 10
271.9571925074
 20
47.4684106246
 10
272.4626456804
 20
46.8440105435
 10
272.8970258624
 20
46.1311963374
 10
273.2570271579
 20
45.3353929527
 10
273.5399097399
 20
44.4626569337
 10
273.7416643523
 20
43.5306808422
  0
LWPOLYLINE
  5
237
330
1F
100
AcDbEntity
  8
0
  6
Continuous
 62
     7
370
     0
100
AcDbPolyline
 90
       17
 70
   128
 43
0.0
 10
261.2426801944
 20
21.8794592827
 10
260.3330223322
 20
21.5876570008
 10
259.4358334056
 20
21.3963832227
 10
258.5667133954
 20
21.310367129
 10
257.7322768295
 20
21.3302633544
 10
256.938874274
 20
21.4559204764
 10
256.1925440015
 20
21.6863821685
 10
255.498966036
 20
22.0198944781
 10
254.8634189246
 20
22.4539191752
 10
254.2907395646
 20
22.9851530696
 10
253.7852863917
 20
23.6095531507
 10
253.3509062097
 20
24.3223673568
 10
252.9909049141
 20
25.1181707415
 10
252.7080223322
 20
25.9909067605
 10
252.5044113711
 20
26.9339333656
 10
252.3816216334
 20
27.9400735551
 10
252.3405876229
 20
29.0016699944
  0
LWPOLYLINE
  5
238
330
1F
100
AcDbEntity
  8
0
  6
Continuous
 62
     7
370
     0
100
AcDbPolyline
 90
       27
 70
   128
 43
0.0
 10
251.6334808417
 20
29.0016699944
 10
251.674707815
 20
30.1310216428
 10
251.7980835049
 20
31.2996116168
 10
252.0026944808
 20
32.4987880853
 10
252.2870258746
 20
33.7196727651
 10
252.6489725964
 20
34.9532266532
 10
253.0858549191
 20
36.1903169484
 10
253.5944383188
 20
37.4217846667
 10
254.1709574221
 20
38.6385124522
 10
254.8111438831
 20
39.8314920779
 10
255.5102579854
 20
40.9918911401
 10
256.2631237327
 20
42.1111184501
 10
257.0641671704
 20
43.1808876406
 10
257.9074576531
 20
44.1932785147
 10
258.7867517532
 20
45.1407956845
 10
259.6955394848
 20
46.0164240645
 10
260.6270925015
 20
46.8136808085
 10
261.5745139106
 20
47.5266633065
 10
262.5307893356
 20
48.1500928856
 10
263.4888388477
 20
48.6793538911
 10
264.4415693836
 20
49.1105278599
 10
265.3819272596
 20
49.4404225308
 10
266.3029503952
 20
49.6665954789
 10
267.1978198571
 20
49.787372199
 10
268.0599103451
 20
49.8018585024
 10
268.8828392428
 20
49.7099471376
 10
269.2254675516
 20
49.6372848482
  0
ARC
  5
239
330
1F
100
AcDbEntity
  8
0
  6
Continuous
 62
     7
370
     0
100
AcDbCircle
 10
260.4153698224
 20
28.4199708174
 30
0.0
 40
8.801133336208956
100
AcDbArc
 50
176.2103492972
 51
220.1671393599
  0
LWPOLYLINE
  5
23A
330
1F
100
AcDbEntity
  8
0
  6
Continuous
 62
     7
370
     0
100
AcDbPolyline
 90
       34
 70
   128
 43
0.0
 10
252.8709177088
 20
29.3078230364
 10
252.912193467
 20
30.3929662584
 10
253.0356884135
 20
31.5170285213
 10
253.2404082397
 20
32.6709595367
 10
253.5247046617
 20
33.8454685305
 10
253.8862886921
 20
35.031099047
 10
254.3222490688
 20
36.2183050863
 10
254.8290756952
 20
37.3975279635
 10
255.4026879012
 20
38.5592732693
 10
256.0384672988
 20
39.6941873137
 10
256.731294966
 20
40.7931324361
 10
257.4755926619
 20
41.8472605764
 10
258.2653677389
 20
42.8480845148
 10
259.0942613927
 20
43.7875462054
 10
259.9555998588
 20
44.6580816551
 10
260.8424481463
 20
45.4526818242
 10
261.7476658745
 20
46.1649490594
 10
262.6639647622
 20
46.7891486037
 10
263.5839673098
 20
47.3202547695
 10
264.5002661976
 20
47.7539914022
 10
265.4054839257
 20
48.0868663094
 10
266.2923322133
 20
48.3161993781
 10
267.1536706794
 20
48.4401441533
 10
267.9825643331
 20
48.4577027046
 10
268.7723394102
 20
48.3687336608
 10
269.516637106
 20
48.1739533483
 10
270.2094647732
 20
47.8749300237
 10
270.8452441708
 20
47.4740712469
 10
271.4188563769
 20
46.9746044972
 10
271.9256830032
 20
46.3805511872
 10
272.3616433799
 20
45.6966942847
 10
272.7232274103
 20
44.9285398035
 10
273.0075238324
 20
44.0822724717
 10
273.0479913003
 20
43.9311297713
  0
LWPOLYLINE
  5
23B
330
1F
100
AcDbEntity
  8
0
  6
Continuous
 62
     7
370
     0
100
AcDbPolyline
 90
       16
 70
   128
 43
0.0
 10
260.5490071423
 20
22.2799082118
 10
259.9555998588
 20
22.1373643161
 10
259.0942613927
 20
22.0134195409
 10
258.2653677389
 20
21.9958609896
 10
257.4755926619
 20
22.0848300334
 10
256.731294966
 20
22.2796103459
 10
256.0384672988
 20
22.5786336705
 10
255.4026879012
 20
22.9794924473
 10
254.8290756952
 20
23.478959197
 10
254.3222490688
 20
24.073012507
 10
253.8862886921
 20
24.7568694095
 10
253.5247046617
 20
25.5250238907
 10
253.2404082397
 20
26.3712912225
 10
253.0356884135
 20
27.2888577578
 10
252.912193467
 20
28.2703357904
 10
252.8709177088
 20
29.3078230364
  0
LINE
  5
23C
330
1F
100
AcDbEntity
  8
0
  6
Continuous
 62
     7
370
     0
100
AcDbLine
 10
266.5534339248
 20
24.4959552994
 30
0.0
 11
266.6418222724
 21
24.1660925069
 31
0.0
  0
ARC
  5
23D
330
1F
100
AcDbEntity
  8
0
  6
Continuous
 62
     7
370
     0
100
AcDbCircle
 10
275.0048013528
 20
33.6149004531
 30
0.0
 40
2.456115501094023
100
AcDbArc
 50
33.4950217923
 51
59.3363594902
  0
LWPOLYLINE
  5
23E
330
1F
100
AcDbEntity
  8
0
  6
Continuous
 62
     7
370
     0
100
AcDbPolyline
 90
       15
 70
   128
 43
0.0
 10
269.2409026959
 20
23.61286465
 10
269.7016330774
 20
23.4091903031
 10
270.2432174886
 20
23.2985825589
 10
270.8283952508
 20
23.2992819051
 10
271.4469518001
 20
23.4112761344
 10
272.0880899297
 20
23.6326103327
 10
272.7406182601
 20
23.9594210035
 10
273.3931465906
 20
24.3860035067
 10
274.0342847202
 20
24.9049116363
 10
274.6528412695
 20
25.5070875973
 10
275.2380190317
 20
26.182020114
 10
275.7796034429
 20
26.9179279095
 10
276.2681408825
 20
27.7019653535
 10
276.6951036908
 20
28.5204466894
 10
277.0530390234
 20
29.3590849253
  0
LINE
  5
23F
330
1F
100
AcDbEntity
  8
0
  6
Continuous
 62
     7
370
     0
100
AcDbLine
 10
266.0077491751
 20
24.8109724001
 30
0.0
 11
266.5534339248
 21
24.4959552994
 31
0.0
  0
LWPOLYLINE
  5
240
330
1F
100
AcDbEntity
  8
0
  6
Continuous
 62
     7
370
     0
100
AcDbPolyline
 90
       20
 70
   128
 43
0.0
 10
249.5346343223
 20
35.8808390444
 10
249.841259244
 20
37.0253453229
 10
250.2250443124
 20
38.1769590214
 10
250.6826121873
 20
39.325545845
 10
251.2099362341
 20
40.4609981356
 10
251.8023759577
 20
41.5733238198
 10
252.4547178403
 20
42.6527343405
 10
253.1612212195
 20
43.6897307966
 10
253.915668808
 20
44.6751875343
 10
254.7114214049
 20
45.6004324535
 10
255.5414763223
 20
46.4573233231
 10
256.3985290087
 20
47.2383194332
 10
257.2750373304
 20
47.9365479541
 10
258.1632879423
 20
48.5458644174
 10
259.0554641661
 20
49.0609067884
 10
259.9437147779
 20
49.477142652
 10
260.8202230996
 20
49.7909090985
 10
261.6772757861
 20
49.9994449574
 10
262.5073307035
 20
50.1009150961
 10
263.1538814423
 20
50.1040271275
  0
LWPOLYLINE
  5
241
330
1F
100
AcDbEntity
  8
0
  6
Continuous
 62
     7
370
     0
100
AcDbPolyline
 90
       24
 70
   128
 43
0.0
 10
243.9485064216
 20
37.5599161957
 10
244.2553218992
 20
38.7813165828
 10
244.6384808214
 20
40.0125980673
 10
245.0951660206
 20
41.2447076794
 10
245.622019729
 20
42.4685863604
 10
246.2151682664
 20
43.6752355696
 10
246.8702505213
 20
44.8557834454
 10
247.582450016
 20
46.0015500357
 10
248.3465303195
 20
47.104111117
 10
249.1568735483
 20
48.1553601334
 10
250.0075216717
 20
49.1475677999
 10
250.8922203184
 20
50.0734389315
 10
251.8044647611
 20
50.9261660814
 10
252.7375477427
 20
51.699479592
 10
253.6846087914
 20
52.3876936929
 10
254.6386846618
 20
52.9857483052
 10
255.5927605322
 20
53.4892462457
 10
256.5398215808
 20
53.8944855567
 10
257.4729045625
 20
54.1984867255
 10
258.3851490052
 20
54.3990145899
 10
259.2698476518
 20
54.4945947735
 10
260.1204957753
 20
54.484524525
 10
260.930839004
 20
54.3688778856
 10
261.08687054
 20
54.3333034066
  0
LWPOLYLINE
  5
242
330
1F
100
AcDbEntity
  8
0
  6
Continuous
 62
     7
370
     0
100
AcDbPolyline
 90
       19
 70
   128
 43
0.0
 10
249.9279070739
 20
35.8250585055
 10
250.2325919673
 20
36.948901435
 10
250.6125828391
 20
38.0792313579
 10
251.064560683
 20
39.2061754794
 10
251.5845777275
 20
40.3198905779
 10
252.1680919167
 20
41.4106489798
 10
252.8100065832
 20
42.4689235253
 10
253.5047149642
 20
43.4854707829
 10
254.2461491735
 20
44.4514117851
 10
255.0278332013
 20
45.3583095819
 10
255.8429394783
 20
46.1982429322
 10
256.6843485105
 20
46.9638754917
 10
257.5447110645
 20
47.6485198915
 10
258.4165123582
 20
48.2461961488
 10
259.2921376987
 20
48.7516838983
 10
260.1639389924
 20
49.1605679895
 10
261.0243015464
 20
49.4692770503
 10
261.8657105786
 20
49.6751146811
 10
262.2888161693
 20
49.7403148791
  0
LINE
  5
243
330
1F
100
AcDbEntity
  8
0
  6
Continuous
 62
     7
370
     0
100
AcDbLine
 10
249.9372297248
 20
29.246523118
 30
0.0
 11
250.3430109661
 21
29.4807756424
 31
0.0
  0
LWPOLYLINE
  5
244
330
1F
100
AcDbEntity
  8
0
  6
Continuous
 62
     7
370
     0
100
AcDbPolyline
 90
        3
 70
   128
 43
0.0
 10
250.9015763011
 20
29.2222378521
 10
250.837231877
 20
29.2453984694
 10
250.3430109661
 20
29.4807756424
  0
ARC
  5
245
330
1F
100
AcDbEntity
  8
0
  6
Continuous
 62
     7
370
     0
100
AcDbCircle
 10
249.6550217966
 20
30.5373772376
 30
0.0
 40
1.260847345343788
100
AcDbArc
 50
303.0695173616
 51
345.5982002291
  0
LINE
  5
246
330
1F
100
AcDbEntity
  8
0
  6
Continuous
 62
     7
370
     0
100
AcDbLine
 10
279.4050996728
 20
31.5341757161
 30
0.0
 11
279.1399346299
 21
31.7619874947
 31
0.0
  0
LINE
  5
247
330
1F
100
AcDbEntity
  8
0
  6
Continuous
 62
     7
370
     0
100
AcDbLine
 10
246.4494187984
 20
33.0348576956
 30
0.0
 11
250.834409304
 21
30.5034565592
 31
0.0
  0
LINE
  5
248
330
1F
100
AcDbEntity
  8
0
  6
Continuous
 62
     7
370
     0
100
AcDbLine
 10
246.3301799828
 20
32.9660002155
 30
0.0
 11
246.4494187984
 21
33.0348576956
 31
0.0
  0
LINE
  5
249
330
1F
100
AcDbEntity
  8
0
  6
Continuous
 62
     7
370
     0
100
AcDbLine
 10
246.0738537747
 20
35.9972670026
 30
0.0
 11
246.0790416694
 21
36.3299324669
 31
0.0
  0
ARC
  5
24A
330
1F
100
AcDbEntity
  8
0
  6
Continuous
 62
     7
370
     0
100
AcDbCircle
 10
254.6358760476
 20
35.9199281701
 30
0.0
 40
8.562371558029108
100
AcDbArc
 50
179.4824741114
 51
192.4116552647
  0
LWPOLYLINE
  5
24B
330
1F
100
AcDbEntity
  8
0
  6
Continuous
 62
     7
370
     0
100
AcDbPolyline
 90
       18
 70
   128
 43
0.0
 10
226.2283378764
 20
51.2961464502
 10
226.2705289395
 20
52.0327739968
 10
226.396316189
 20
52.8043923305
 10
226.6033564466
 20
53.5966276618
 10
226.8877929439
 20
54.3947221452
 10
227.2443271671
 20
55.1838087908
 10
227.6663175584
 20
55.9491884072
 10
228.1459032351
 20
56.6766034204
 10
228.6741504234
 20
57.352503465
 10
229.2412188778
 20
57.964297802
 10
229.8365451859
 20
58.5005898605
 10
230.449039545
 20
58.9513895341
 10
231.0672923439
 20
59.308299278
 10
231.679786703
 20
59.5646705387
 10
232.2751130111
 20
59.7157276049
 10
232.8421814655
 20
59.7586565691
 10
233.3704286539
 20
59.6926577461
 10
233.6135470038
 20
59.6203219379
  0
ARC
  5
24C
330
1F
100
AcDbEntity
  8
0
  6
Continuous
 62
     7
370
     0
100
AcDbCircle
 10
229.757144952
 20
51.0637885906
 30
0.0
 40
3.536448720326537
100
AcDbArc
 50
176.2327399172
 51
223.8496029916
  0
LINE
  5
24D
330
1F
100
AcDbEntity
  8
0
  6
Continuous
 62
     7
370
     0
100
AcDbLine
 10
274.5083852131
 20
34.4357240609
 30
0.0
 11
279.1399346299
 21
31.7619874947
 31
0.0
  0
LWPOLYLINE
  5
24E
330
1F
100
AcDbEntity
  8
0
  6
Continuous
 62
     7
370
     0
100
AcDbPolyline
 90
        3
 70
   128
 43
0.0
 10
250.4084994061
 20
28.1324669675
 10
250.2481591551
 20
28.4468116643
 10
249.9279070739
 20
29.2519049698
  0
ARC
  5
24F
330
1F
100
AcDbEntity
  8
0
  6
Continuous
 62
     7
370
     0
100
AcDbCircle
 10
255.5719313368
 20
31.1822228072
 30
0.0
 40
6.321617302954265
100
AcDbArc
 50
197.2491928205
 51
213.7765234456
  0
LINE
  5
250
330
1F
100
AcDbEntity
  8
0
  6
Continuous
 62
     7
370
     0
100
AcDbLine
 10
250.3430109661
 20
29.4807756424
 30
0.0
 11
246.1180479485
 21
31.9197948765
 31
0.0
  0
ARC
  5
251
330
1F
100
AcDbEntity
  8
0
  6
Continuous
 62
     7
370
     0
100
AcDbCircle
 10
250.7689135194
 20
32.2191291165
 30
0.0
 40
7.0724357530451
100
AcDbArc
 50
195.3417987409
 51
222.4767494988
  0
OLE2FRAME
  5
252
330
1F
100
AcDbEntity
  8
0
100
AcDbOle2Frame
 70
     2
  3
Paintbrush-Bild
 10
13.8511154363
 20
38.264191557
 30
0.0
 11
51.6290888628
 21
31.9806341108
 31
0.0
 71
     2
 72
     0
 73
     1
 90
    12928
310
80552BED0767C5B32B40DDAF6807D121434000000000000000006FFBDDFB85D0
310
4940DDAF6807D121434000000000000000006FFBDDFB85D04940416F4BD60AFB
310
3F4000000000000000002BED0767C5B32B40416F4BD60AFB3F40000000000000
310
0000000000000100000000010000010000000100000000000100000000320000
310
D0CF11E0A1B11AE1000000000000000000000000000000003E000300FEFF0900
310
0600000000000000000000000100000001000000000000000010000002000000
310
01000000FEFFFFFF0000000000000000FFFFFFFFFFFFFFFFFFFFFFFFFFFFFFFF
310
FFFFFFFFFFFFFFFFFFFFFFFFFFFFFFFFFFFFFFFFFFFFFFFFFFFFFFFFFFFFFFFF
310
FFFFFFFFFFFFFFFFFFFFFFFFFFFFFFFFFFFFFFFFFFFFFFFFFFFFFFFFFFFFFFFF
310
FFFFFFFFFFFFFFFFFFFFFFFFFFFFFFFFFFFFFFFFFFFFFFFFFFFFFFFFFFFFFFFF
310
FFFFFFFFFFFFFFFFFFFFFFFFFFFFFFFFFFFFFFFFFFFFFFFFFFFFFFFFFFFFFFFF
310
FFFFFFFFFFFFFFFFFFFFFFFFFFFFFFFFFFFFFFFFFFFFFFFFFFFFFFFFFFFFFFFF
310
FFFFFFFFFFFFFFFFFFFFFFFFFFFFFFFFFFFFFFFFFFFFFFFFFFFFFFFFFFFFFFFF
310
FFFFFFFFFFFFFFFFFFFFFFFFFFFFFFFFFFFFFFFFFFFFFFFFFFFFFFFFFFFFFFFF
310
FFFFFFFFFFFFFFFFFFFFFFFFFFFFFFFFFFFFFFFFFFFFFFFFFFFFFFFFFFFFFFFF
310
FFFFFFFFFFFFFFFFFFFFFFFFFFFFFFFFFFFFFFFFFFFFFFFFFFFFFFFFFFFFFFFF
310
FFFFFFFFFFFFFFFFFFFFFFFFFFFFFFFFFFFFFFFFFFFFFFFFFFFFFFFFFFFFFFFF
310
FFFFFFFFFFFFFFFFFFFFFFFFFFFFFFFFFFFFFFFFFFFFFFFFFFFFFFFFFFFFFFFF
310
FFFFFFFFFFFFFFFFFFFFFFFFFFFFFFFFFFFFFFFFFFFFFFFFFFFFFFFFFFFFFFFF
310
FFFFFFFFFFFFFFFFFFFFFFFFFFFFFFFFFFFFFFFFFFFFFFFFFFFFFFFFFFFFFFFF
310
FDFFFFFFFEFFFFFFFEFFFFFFFEFFFFFF05000000060000000700000008000000
310
090000000A0000000B0000000C0000000D0000000E0000000F00000010000000
310
11000000120000001300000014000000150000001600000017000000FEFFFFFF
310
FFFFFFFFFFFFFFFFFFFFFFFFFFFFFFFFFFFFFFFFFFFFFFFFFFFFFFFFFFFFFFFF
310
FFFFFFFFFFFFFFFFFFFFFFFFFFFFFFFFFFFFFFFFFFFFFFFFFFFFFFFFFFFFFFFF
310
FFFFFFFFFFFFFFFFFFFFFFFFFFFFFFFFFFFFFFFFFFFFFFFFFFFFFFFFFFFFFFFF
310
FFFFFFFFFFFFFFFFFFFFFFFFFFFFFFFFFFFFFFFFFFFFFFFFFFFFFFFFFFFFFFFF
310
FFFFFFFFFFFFFFFFFFFFFFFFFFFFFFFFFFFFFFFFFFFFFFFFFFFFFFFFFFFFFFFF
310
FFFFFFFFFFFFFFFFFFFFFFFFFFFFFFFFFFFFFFFFFFFFFFFFFFFFFFFFFFFFFFFF
310
FFFFFFFFFFFFFFFFFFFFFFFFFFFFFFFFFFFFFFFFFFFFFFFFFFFFFFFFFFFFFFFF
310
FFFFFFFFFFFFFFFFFFFFFFFFFFFFFFFFFFFFFFFFFFFFFFFFFFFFFFFFFFFFFFFF
310
FFFFFFFFFFFFFFFFFFFFFFFFFFFFFFFFFFFFFFFFFFFFFFFFFFFFFFFFFFFFFFFF
310
FFFFFFFFFFFFFFFFFFFFFFFFFFFFFFFFFFFFFFFFFFFFFFFFFFFFFFFFFFFFFFFF
310
FFFFFFFFFFFFFFFFFFFFFFFFFFFFFFFFFFFFFFFFFFFFFFFFFFFFFFFFFFFFFFFF
310
FFFFFFFFFFFFFFFFFFFFFFFFFFFFFFFFFFFFFFFFFFFFFFFFFFFFFFFFFFFFFFFF
310
FFFFFFFFFFFFFFFFFFFFFFFFFFFFFFFFFFFFFFFFFFFFFFFFFFFFFFFFFFFFFFFF
310
52006F006F007400200045006E00740072007900000000000000000000000000
310
0000000000000000000000000000000000000000000000000000000000000000
310
16000500FFFFFFFFFFFFFFFF020000000A00030000000000C000000000000046
310
00000000000000000000000080D1F8F8CA22D20103000000C000000000000000
310
01004F006C006500000000000000000000000000000000000000000000000000
310
0000000000000000000000000000000000000000000000000000000000000000
310
0A000200FFFFFFFFFFFFFFFFFFFFFFFF00000000000000000000000000000000
310
0000000000000000000000000000000000000000000000001400000000000000
310
010043006F006D0070004F0062006A0000000000000000000000000000000000
310
0000000000000000000000000000000000000000000000000000000000000000
310
120002010100000003000000FFFFFFFF00000000000000000000000000000000
310
0000000000000000000000000000000000000000010000004D00000000000000
310
01004F006C006500310030004E00610074006900760065000000000000000000
310
0000000000000000000000000000000000000000000000000000000000000000
310
1A000200FFFFFFFFFFFFFFFFFFFFFFFF00000000000000000000000000000000
310
0000000000000000000000000000000000000000040000002426000000000000
310
FEFFFFFF02000000FEFFFFFFFFFFFFFFFFFFFFFFFFFFFFFFFFFFFFFFFFFFFFFF
310
FFFFFFFFFFFFFFFFFFFFFFFFFFFFFFFFFFFFFFFFFFFFFFFFFFFFFFFFFFFFFFFF
310
FFFFFFFFFFFFFFFFFFFFFFFFFFFFFFFFFFFFFFFFFFFFFFFFFFFFFFFFFFFFFFFF
310
FFFFFFFFFFFFFFFFFFFFFFFFFFFFFFFFFFFFFFFFFFFFFFFFFFFFFFFFFFFFFFFF
310
FFFFFFFFFFFFFFFFFFFFFFFFFFFFFFFFFFFFFFFFFFFFFFFFFFFFFFFFFFFFFFFF
310
FFFFFFFFFFFFFFFFFFFFFFFFFFFFFFFFFFFFFFFFFFFFFFFFFFFFFFFFFFFFFFFF
310
FFFFFFFFFFFFFFFFFFFFFFFFFFFFFFFFFFFFFFFFFFFFFFFFFFFFFFFFFFFFFFFF
310
FFFFFFFFFFFFFFFFFFFFFFFFFFFFFFFFFFFFFFFFFFFFFFFFFFFFFFFFFFFFFFFF
310
FFFFFFFFFFFFFFFFFFFFFFFFFFFFFFFFFFFFFFFFFFFFFFFFFFFFFFFFFFFFFFFF
310
FFFFFFFFFFFFFFFFFFFFFFFFFFFFFFFFFFFFFFFFFFFFFFFFFFFFFFFFFFFFFFFF
310
FFFFFFFFFFFFFFFFFFFFFFFFFFFFFFFFFFFFFFFFFFFFFFFFFFFFFFFFFFFFFFFF
310
FFFFFFFFFFFFFFFFFFFFFFFFFFFFFFFFFFFFFFFFFFFFFFFFFFFFFFFFFFFFFFFF
310
FFFFFFFFFFFFFFFFFFFFFFFFFFFFFFFFFFFFFFFFFFFFFFFFFFFFFFFFFFFFFFFF
310
FFFFFFFFFFFFFFFFFFFFFFFFFFFFFFFFFFFFFFFFFFFFFFFFFFFFFFFFFFFFFFFF
310
FFFFFFFFFFFFFFFFFFFFFFFFFFFFFFFFFFFFFFFFFFFFFFFFFFFFFFFFFFFFFFFF
310
FFFFFFFFFFFFFFFFFFFFFFFFFFFFFFFFFFFFFFFFFFFFFFFFFFFFFFFFFFFFFFFF
310
0100000200000000000000000000000000000000000000000000000000000000
310
0000000000000000000000000000000000000000000000000000000000000000
310
0100FEFF030A0000FFFFFFFF0A00030000000000C00000000000004607000000
310
5042727573680007000000504272757368000700000050427275736800F439B2
310
7100000000000000000000000000000000000000000000000000000000000000
310
0000000000000000000000000000000000000000000000000000000000000000
310
0000000000000000000000000000000000000000000000000000000000000000
310
0000000000000000000000000000000000000000000000000000000000000000
310
0000000000000000000000000000000000000000000000000000000000000000
310
0000000000000000000000000000000000000000000000000000000000000000
310
0000000000000000000000000000000000000000000000000000000000000000
310
0000000000000000000000000000000000000000000000000000000000000000
310
0000000000000000000000000000000000000000000000000000000000000000
310
0000000000000000000000000000000000000000000000000000000000000000
310
0000000000000000000000000000000000000000000000000000000000000000
310
0000000000000000000000000000000000000000000000000000000000000000
310
20260000424D0E260000000000003E00000028000000B40200006E0000000100
310
01000000000000000000130B0000130B00000200000002000000000000FFFFFF
310
FFFFFFFFFFFFFFFFFFFFFFFFFFFFFFFFFFFFFFFFFFFFFFFFFFFFFFFFFFFFFFFF
310
FFFFFFFFFFFFFFFFFFFFFFFFFFFFFFFFFFFFFFFFFFFFFFFFFFFFFFFFFFFFFFFF
310
FFFFFFFFFFFFFFFFFFFFFFFFFFFFFFFFFFFFFFFFFFFFFFFFF000FFFFFFFFFFFF
310
FFFFFFFFFFFFFFFFFFFFFFFFFFFFFFFFFFFFFFFFFFFFFFFFFFFFFFFFFFFFFFFF
310
FFFFFFFFFFFFFFFFFFFFFFFFFFFFFFFFFFFFFFFFFFFFFFFFFFFFFFFFFFFFFFFF
310
FFFFFFFFFFFFFFFFFFFFFFFFFFFFFFFFF000FFFFFFFFFFFFFFFFFFFFFFFFFFFF
310
FFFFFFFFFFFFFFFFFFFFFFFFFFFFFFFFFFFFFFFFFFFFFFFFFFFFFFFFFFFFFFFF
310
FFFFFFFFFFFFFFFFFFFFFFFFFFFFFFFFFFFFFFFFFFFFFFFFFFFFFFFFFFFFFFFF
310
FFFFFFFFFFFFFFFFF000FFFFFFFFFFFFFFFFFFFFFFFFFFFFFFFFFFFFFFFFFFFF
310
FFFFFFFFFFFFFFFFFFFFFFFFFFFFFFFFFFFFFFFFFFFFFFFFFFFFFFFFFFFFFFFF
310
FFFFFFFFFFFFFFFFFFFFFFFFFFFFFFFFFFFFFFFFFFFFFFFFFFFFFFFFFFFFFFFF
310
F000FFFFFFFFFFFFFFFFFFFFFFFFFFFFFFFFFFFFFFFFFFFFFFFFFFFFFFFFFFFF
310
FFFFFFFFFFFFFFFFFFFFFFFFFFFFFFFFFFFFFFFFFFFFFFFFFFFFFFFFFFFFFFFF
310
FFFFFFFFFFFFFFFFFFFFFFFFFFFFFFFFFFFFFFFFFFFFFFFFF000FFFFFFFFFFFF
310
FFFFFFFFFFFFFFFFFFFFFFFFFFFFFFFFFFFFFFFFFFFFFFFFFFFFFFFFFFFFFFFF
310
FFFFFFFFFFFFFFFFFFFFFFFFFFFFFFFFFFFFFFFFFFFFFFFFFFFFFFFFFFFFFFFF
310
FFFFFFFFFFFFFFFFFFFFFFFFFFFFFFFFF000FFFFFFFFFFFFFFFFFFFFFFFFFFFF
310
FFFFFFFFFFFFFFFFFFFFFFFFFFFFFFFFFFFFFFFFFFFFFFFFFFFFFFFFFFFFFFFF
310
FFFFFFFFFFFFFFFFFFFFFFFFFFFFFFFFFFFFFFFFFFFFFFFFFFFFFFFFFFFFFFFF
310
FFFFFFFFFFFFFFFFF000FFFFFFFFFFFFFFFFFFFFFFFFFFFFFFFFFFFFFFFFFFFF
310
FFFFFFFFFFFFFFFFFFFFFFFFFFFFFFFFFFFFFFFFFFFFFFFFFFFFFFFFFFFFFFFF
310
FFFFFFFFFFFFFFFFFFFFFFFFFFFFFFFFFFFFFFFFFFFFFFFFFFFFFFFFFFFFFFFF
310
F000FFFFFFFFFFFFFFFFFFFFFFFFFFFFFFFFFFFFFFFFFFFFFFFFFFFFFFFFFFFF
310
FFFFFFFFFFFFFFFFFFFFFFFFFFFFFFFFFFFFFFFFFFFFFFFFFFFFFFFFFFFFFFFF
310
FFFFFFFFFFFFFFFFFFFFFFFFFFFFFFFFFFFFFFFFFFFFFFFFF000FFFFFFFFFFFF
310
FFFFFFFFFFFFFFFFFFFFFFFFFFFFFFFFFFFFFFFFFFFFFFFFFFFFFFFFFFFFFFFF
310
FFFFFFFFFFFFFFFFFFFFFFFFFFFFFFFFFFFFFFFFFFFFFFFFFFFFFFFFFFFFFFFF
310
FFFFFFFFFFFFFFFFFFFFFFFFFFFFFFFFF000FFFFFFFFFFFFFFFFFFFFFFFFFFFF
310
FFFFFFFFFFFFFFFFFFFFFFFFFFFFFFFFFFFFFFFFFFFFFFFFFFFFFFFFFFFFFFFF
310
FFFFFFFFFFFFFFFFFFFFFFFFFFFFFFFFFFFFFFFFFFFFFFFFFFFFFFFFFFFFFFFF
310
FFFFFFFFFFFFFFFFF000FFFFFFFFFFFFFFFFFFFFFFFFFFFFFFFFFFFFFFFFFFFF
310
FFFFFFFFFFFFFFFFFFFFFFFFFFFFFFFFFFFFFFFFFFFFFFFFFFFFFFFFFFFFFFFF
310
FFFFFFFFFFFFFFFFFFFFFFFFFFFFFFFFFFFFFFFFFFFFFFFFFFFFFFFFFFFFFFFF
310
F000FFFFFFFFFFFFFFFFFFFFFFFFFFFFFFFFFFFFFFFFFFFFFFFFFFFFFFFFFFFF
310
FFFFFFFFFFFFFFFFFFFFFFFFFFFFFFFFFFFFFFFFFFFFFFFFFFFFFFFFFFFFFFFF
310
FFFFFFFFFFFFFFFFFFFFFFFFFFFFFFFFFFFFFFFFFFFFFFFFF000FFFFFFFFFFFF
310
FFFFFFFFFFFFFFFFFFFFFFFFFFFFFFFFFFFFFFFFFFFFFFFFFFFFFFFFFFFFFFFF
310
FFFFFFFFFFFFFFFFFFFFFFFFFFFFFFFFFFFFFFFFFFFFFFFFFFFFFFFFFFFFFFFF
310
FFFFFFFFFFFFFFFFFFFFFFFFFFFFFFFFF000FFFFFFFFFFFFFFFFFFFFFFFFFFFF
310
FFFFFFFFFFFFFFFFFFFFFFFFFFFFFFFFFFFFFFFFFFFFFFFFFFFFFFFFFFFFFFFF
310
FFFFFFFFFFFFFFFFFFFFFFFFFFFFFFFFFFFFFFFFFFFFFFFFFFFFFFFFFFFFFFFF
310
FFFFFFFFFFFFFFFFF000FFFFFFFFFFFFFFFFFFFFFFFFFFFFFFFFFFFFFFFFFFFF
310
FFFFFFFFFFFFFFFFFFFFFFFFFFFFFFFFFFFFFFFFFFFFFFFFFFFFFFFFFFFFFFFF
310
FFFFFFFFFFFFFFFFFFFFFFFFFFFFFFFFFFFFFFFFFFFFFFFFFFFFFFFFFFFFFFFF
310
F000FFFFFFFFFFFFFFFFFFFFFFFFFFFFFFFFFFFFFFFFFFFFFFFFFFFFFFFFFFFF
310
FFFFFFFFFFFFFFFFFFFFFFFFFFFFFFFFFFFFFFFFFFFFFFFFFFFFFFFFFFFFFFFF
310
FFFFFFFFFFFFFFFFFFFFFFFFFFFFFFFFFFFFFFFFFFFFFFFFF000FFFFFFFFFFFF
310
FFFFFFFFFFFFFFFFFFFFFFFFFFFFFFFFFFFFFFFFFFFFFFFFFFFFFFFFFFFFFFFF
310
FFFFFFFFFFFFFFFFFFFFFFFFFFFFFFFFFFFFFFFFFFFFFFFFFFFFFFFFFFFFFFFF
310
FFFFFFFFFFFFFFFFFFFFFFFFFFFFFFFFF000FFFFFFFFFFFFFFFFFFFFFFFFFFFF
310
FFFFFFFFFFFFFFFFFFFFFFFFFFFFFFFFFFFFFFFFFFFFFFFFFFFFFFFFFFFFFFFF
310
FFFFFFFFFFFFFFFFFFFFFFFFFFFFFFFFFFFFFFFFFFFFFFFFFFFFFFFFFFFFFFFF
310
FFFFFFFFFFFFFFFFF000FFFFF80003FFFFFFFFFFFFFFFFFFFFFFFFFFFFFFFFFF
310
FFFFF00007FFFFFFFFFF00007FFFFFF800000000000000007FFFFFFFFFFFFFFF
310
FFFFFFFC001FFFFFFFFFFFFFFC001FFFFFFFFFFFFFFFFFFFFFFFFFFE0007FFFF
310
F000FFFF8000007FFFFFFFF8000FFFFFC0007FFFFF80007FFFFF0000007FFFFF
310
FFF8000007FFFFF800000000000000007FFFFFF0001FFFFFFFFFFFC00001FFFF
310
FFFFFFFFC00001FFFFFFFF000000000003FFFFE000007FFFF000FFFE0000000F
310
FFFFFFF0000FFFFF80007FFFFF80007FFFFC0000001FFFFFFFC0000001FFFFF8
310
00000000000000007FFFFFF0001FFFFFFFFFFE0000003FFFFFFFFFFE0000003F
310
FFFFFF000000000003FFFF0000000FFFF000FFF800000003FFFFFFF00007FFFF
310
80007FFFFF80007FFFF000000007FFFFFF000000003FFFF80000000000000000
310
7FFFFFF0001FFFFFFFFFF80000000FFFFFFFFFF80000000FFFFFFF0000000000
310
03FFFC00000003FFF000FFE000000000FFFFFFF00007FFFF80003FFFFF80007F
310
FFC000000001FFFFFC000000001FFFF800000000000000007FFFFFF0001FFFFF
310
FFFFE000000003FFFFFFFFE000000003FFFFFF000000000003FFF000000000FF
310
F000FF80000000007FFFFFF00007FFFF80003FFFFF80007FFF8000000000FFFF
310
F80000000007FFF800000000000000007FFFFFF0001FFFFFFFFFC000000001FF
310
FFFFFFC000000001FFFFFF000000000003FFC0000000007FF000FF0000000000
310
3FFFFFE00007FFFF00003FFFFF80007FFE00000000003FFFF00000000003FFF8
310
00000000000000007FFFFFF0001FFFFFFFFF8000000000FFFFFFFF8000000000
310
FFFFFF000000000003FF80000000003FF000FE00000000001FFFFFE00003FFFF
310
00003FFFFF80007FFC00000000001FFFE00000000001FFF8000001FFFE000000
310
7FFFFFF0001FFFFFFFFE00000000003FFFFFFE00000000003FFFFF0000000000
310
03FF00000000001FF000FC00000000000FFFFFE00003FFFF00001FFFFF80007F
310
F800000000001FFFC00000000000FFF8000001FFFE0000007FFFFFF0001FFFFF
310
FFFC00000000001FFFFFFC00000000001FFFFF000000000003FE00000000000F
310
F000F8000000000007FFFFE00003FFFF00001FFFFF80007FF800000000000FFF
310
800000000000FFF8000001FFFE0000007FFFFFF0001FFFFFFFF800000000000F
310
FFFFF800000000000FFFFF000000000003FC000000000007F000F80000000000
310
03FFFFC00003FFFE00001FFFFF80007FF0000000000007FF0000000000007FF8
310
000001FFFE0000007FFFFFF0001FFFFFFFF0000000000007FFFFF00000000000
310
07FFFF000000000003F8000000000003F000F0000000000003FFFFC00001FFFE
310
00001FFFFF80007FE0000000000007FE0000000000003FF8000001FFFE000000
310
7FFFFFF0001FFFFFFFF0000000000007FFFFF0000000000007FFFF0000000000
310
03F800001F800003F000E00001FFF00001FFFFC00001FFFE00000FFFFF80007F
310
E00001FFE00003FE00001FFF00003FF8000001FFFE0000007FFFFFF0001FFFFF
310
FFE000003E000003FFFFE000003E000003FFFF000000000003F00001FFF80001
310
F000E00007FFFC0001FFFFC00001FFFE00000FFFFF80007FC0000FFFFC0003FC
310
0000FFFFC0001FF8000001FFFE0000007FFFFFF0001FFFFFFFC00003FFE00001
310
FFFFC00003FFE00001FFFF0001FFFFFFFFF00007FFFE0001F000E0000FFFFF00
310
00FFFF800001FFFC00000FFFFF80007FC0001FFFFE0001FC0001FFFFE0001FF8
310
000001FFFE0000007FFFFFF0001FFFFFFF80000FFFF80000FFFF80000FFFF800
310
00FFFF0003FFFFFFFFE0000FFFFF8000F000C0003FFFFF8000FFFF800000FFFC
310
000007FFFF80007F80003FFFFF0001FC0003FFFFF0001FF8000001FFFE000000
310
7FFFFFF0001FFFFFFF80003FFFFE0000FFFF80003FFFFE0000FFFF0003FFFFFF
310
FFE0003FFFFF8000F000C0003FFFFF8000FFFF800000FFFC000007FFFF80007F
310
80007FFFFF8001F80007FFFFF8000FF8000001FFFE0000007FFFFFF0001FFFFF
310
FF00007FFFFF00007FFF00007FFFFF00007FFF0003FFFFFFFFE0003FFFFFC000
310
F000C0007FFFFFC000FFFF000000FFFC000007FFFF80007F8000FFFFFF8000F8
310
000FFFFFF8000FF8000001FFFE0000007FFFFFF0001FFFFFFF0000FFFFFF8000
310
7FFF0000FFFFFF80007FFF0003FFFFFFFFC0007FFFFFC00070008000FFFFFFC0
310
00FFFF000000FFF8000007FFFF80007F8000FFFFFF8000F8000FFFFFF8000FF8
310
000001FFFE0000007FFFFFF0001FFFFFFE0001FFFFFFC0003FFE0001FFFFFFC0
310
003FFF0003FFFFFFFFC0007FFFFFE00070008000FFFFFFC0007FFF0000007FF8
310
000003FFFF80007F0001FFFFFF8000F8000FFFFFF8000FF8000001FFFE000000
310
7FFFFFF0001FFFFFFE0001FFFFFFC0003FFE0001FFFFFFC0003FFF0003FFFFFF
310
FFC000FFFFFFE00070008000FFFFFFC0007FFF0000007FF8000003FFFF80007F
310
0001FFFFFF8000F8001FFFFFF8000FF8000001FFFE0000007FFFFFF0001FFFFF
310
FE0003FFFFFFE0003FFE0003FFFFFFE0003FFF0003FFFFFFFFC000FFFFFFE000
310
70008000FFFFFFC0007FFE0000007FF8000003FFFF80007F0001FFFFFF8000F0
310
001FFFFFF8000FF8000001FFFE0000007FFFFFF0001FFFFFFC0003FFFFFFE000
310
1FFC0003FFFFFFE0001FFF0003FFFFFFFFC000FFFFFFC00070008000FFFFFF80
310
007FFE0000007FF0000003FFFF80007F0001FFFFFF0000F0001FFFFFF8000FF8
310
000001FFFE0000007FFFFFF0001FFFFFFC0007FFFFFFF0001FFC0007FFFFFFF0
310
001FFF0003FFFFFFFFC000FFFFFFC00070008001FFFFFF0000FFFE0000003FF0
310
000001FFFF80007F0001FFFFFF0000F8001FFFFFF0000FF8000001FFFE000000
310
7FFFFFF0001FFFFFFC0007FFFFFFF0001FFC0007FFFFFFF0001FFF0003FFFFFF
310
FFC001FFFFFF80007000FFFFFFFFFE0000FFFE0008003FF0008001FFFF80007F
310
FFFFFFFFFC0000FFFFFFFFFFE0000FF8000001FFFE0000007FFFFFF0001FFFFF
310
F8000FFFFFFFF8000FF8000FFFFFFFF8000FFF0003FFFFFFFFFFFFFFFFFF0000
310
7000FFFFFFFFFC0000FFFC0008003FF0008001FFFF80007FFFFFFFFFF80001FF
310
FFFFFFFF80000FF8000001FFFE0000007FFFFFF0001FFFFFF8000FFFFFFFF800
310
0FF8000FFFFFFFF8000FFF0003FFFFFFFFFFFFFFFFFE0000F000FFFFFFFFE000
310
00FFFC000C003FE000C001FFFF80007FFFFFFFFFC00001FFFFFFFFFE00001FF8
310
000001FFFE0000007FFFFFF0001FFFFFF8000FFFFFFFF8000FF8000FFFFFFFF8
310
000FFF0003FFFFFFFFFFFFFFFFF00000F000FFFFFFFE000001FFFC000C001FE0
310
00C000FFFF80007FFFFFFFFE000001FFFFFFFFE000001FF80FFFFFFFFFFFFFC0
310
7FFFFFF0001FFFFFF8000FFFFFFFF8000FF8000FFFFFFFF8000FFF0003FFFFFF
310
FFFFFFFFFF800000F000FFFFFFC0000001FFFC001C001FE001C000FFFF80007F
310
FFFFFF80000003FFFFFFF80000001FF80FFFFFFFFFFFFFC07FFFFFF0001FFFFF
310
F8001FFFFFFFFC000FF8001FFFFFFFFC000FFF0003FFFFFFFFFFFFFFF0000001
310
F000FFFFF800000001FFF8001C001FE001C000FFFF80007FFFFFF800000003FF
310
FFFF800000003FF80FFFFFFFFFFFFFC07FFFFFF0001FFFFFF8001FFFFFFFFC00
310
0FF8001FFFFFFFFC000FFF0003FFFFFFFFFFFFFE00000001F000FFFFC0000000
310
03FFF8001E001FC001E000FFFF80007FFFFF8000000007FFFFFC000000003FF8
310
0FFFFFFFFFFFFFC07FFFFFF0001FFFFFF8001FFFFFFFFC000FF8001FFFFFFFFC
310
000FFF0003FFFFFFFFFFFFE000000003F000FFFE0000000007FFF8001E000FC0
310
01E0007FFF80007FFFFE0000000007FFFFE0000000007FF80FFFFFFFFFFFFFC0
310
7FFFFFF0001FFFFFF0001FFFFFFFFC0007F0001FFFFFFFFC0007FF0003FFFFFF
310
FFFFFF0000000003F000FFF80000000007FFF8001E000FC003E0007FFF80007F
310
FFF0000000000FFFFF8000000000FFF80FFFFFFFFFFFFFC07FFFFFF0001FFFFF
310
F0001FFFFFFFFC0007F0001FFFFFFFFC0007FF0003FFFFFFFFFFFC0000000007
310
F000FFE0000000000FFFF0003E000FC003E0007FFF80007FFFC0000000001FFF
310
FE0000000001FFF80FFFFFFFFFFFFFC07FFFFFF0001FFFFFF0001FFFFFFFFC00
310
07F0001FFFFFFFFC0007FF0003FFFFFFFFFFF0000000000FF000FFC000000000
310
1FFFF0003F000F8003F0003FFF80007FFF80000000003FFFF80000000003FFF8
310
0FFFFFFFFFFFFFC07FFFFFF0001FFFFFF0001FFFFFFFFC0007F0001FFFFFFFFC
310
0007FF0003FFFFFFFFFFE0000000001FF000FF00000000007FFFF0003F000780
310
03F0003FFF80007FFF00000000007FFFF00000000007FFF80FFFFFFFFFFFFFC0
310
7FFFFFF0001FFFFFF0001FFFFFFFFC0007F0001FFFFFFFFC0007FF0003FFFFFF
310
FFFF80000000007FF000FE0000000000FFFFE0003F00078007F0003FFF80007F
310
FE0000000001FFFFE0000000001FFFF80FFFFFFFFFFFFFC07FFFFFF0001FFFFF
310
F0001FFFFFFFFC0007F0001FFFFFFFFC0007FF0003FFFFFFFFFF0000000000FF
310
F000FC0000000003FFFFE0007F00078007F0003FFF80007FFC0000000007FFFF
310
C0000000007FFFF80FFFFFFFFFFFFFC07FFFFFF0001FFFFFF8001FFFFFFFFC00
310
0FF8001FFFFFFFFC000FFF0003FFFFFFFFFE0000000003FFF000FC000000000F
310
FFFFE0007F80070007F8001FFF80007FF8000000001FFFFF8000000001FFFFF8
310
0FFFFFFFFFFFFFC07FFFFFF0001FFFFFF8001FFFFFFFFC000FF8001FFFFFFFFC
310
000FFF0003FFFFFFFFFC000000000FFFF000F8000000007FFFFFE0007F800700
310
07F8001FFF80007FF000000000FFFFFF800000000FFFFFF80FFFFFFFFFFFFFC0
310
7FFFFFF0001FFFFFF8000FFFFFFFF8000FF8000FFFFFFFF8000FFF0003FFFFFF
310
FFFC000000007FFFF000F800000007FFFFFFC0007F8003000FF8001FFF80007F
310
F000000007FFFFFF000000007FFFFFF80FFFFFFFFFFFFFC07FFFFFF0001FFFFF
310
F8000FFFFFFFF8000FF8000FFFFFFFF8000FFF0003FFFFFFFFF80000000FFFFF
310
F000F0000000FFFFFFFFC000FF8003000FF8001FFF80007FE0000000FFFFFFFF
310
0000000FFFFFFFF8000001FFFE0000007FFFFFF0001FFFFFF8000FFFFFFFF800
310
0FF8000FFFFFFFF8000FFF0003FFFFFFFFF8000000FFFFFFF000F000000FFFFF
310
FFFFC000FFC002000FF8000FFF80007FE000001FFFFFFFFE000001FFFFFFFFF8
310
000001FFFE0000007FFFFFF0001FFFFFF8000FFFFFFFF8000FF8000FFFFFFFF8
310
000FFF0003FFFFFFFFF000001FFFFFFFF000E00000FFFFFFFFFFC000FFC00200
310
0FFC000FFF80007FE00001FFFFFFFFFE00001FFFFFFFFFF8000001FFFE000000
310
7FFFFFF0001FFFFFFC000FFFFFFFF8001FFC000FFFFFFFF8001FFF0003FFFFFF
310
FFF00001FFFFFFFFF000E00007FFFFFFFFFF8000FFC000001FFC000FFF80007F
310
C0000FFFFFFFFFFE0000FFFFFFFFFFF8000001FFFE0000007FFFFFF0001FFFFF
310
FC0007FFFFFFF0001FFC0007FFFFFFF0001FFF0003FFFFFFFFF00007FFFFFFFF
310
F000E0001FFFFFFFFFFF8000FFC000001FFC000FFF80007FC0003FFFFFFFFFFE
310
0001FFFFFFFFFFF8000001FFFE0000007FFFFFF0001FFFFFFC0007FFFFFFF000
310
1FFC0007FFFFFFF0001FFF0003FFFFFFFFF0001FFFFFFFFFF000E0003FFFFF00
310
03FF8001FFE000001FFC0007FF80007FC0007FFFFF0007FC0003FFFFF0003FF8
310
000001FFFE0000007FFFFFF0001FFFFFFC0003FFFFFFE0001FFC0003FFFFFFE0
310
001FFF0003FFFFFFFFF0003FFFFFFFFFF000E0003FFFFF0001FF8001FFE00000
310
1FFE0007FF80007FC0007FFFFE0003FC0007FFFFE0003FF8000001FFFE000000
310
7FFFFFF0001FFFFFFE0003FFFFFFE0003FFE0003FFFFFFE0003FFF0003FFFFFF
310
FFF0003FFFFF8001F000E0003FFFFF0001FF0001FFE000001FFE0007FF80007F
310
C0007FFFFE0003FC0007FFFFE0003FF8000001FFFE0000007FFFFFF0001FFFFF
310
FE0001FFFFFFC0003FFE0001FFFFFFC0003FFF0003FFFFFFFFF0003FFFFF0001
310
F000E0003FFFFF0003FF0001FFE000003FFE0007FF80007FC0007FFFFE0003FC
310
0007FFFFE0003FF8000001FFFE0000007FFFFFF0001FFFFFFF0001FFFFFFC000
310
7FFF0001FFFFFFC0007FFF0003FFFFFFFFF0003FFFFF0001F000E0003FFFFE00
310
03FF0003FFF000003FFE0003FF80007FC0007FFFFC0003FE0007FFFFE0003FF8
310
000001FFFE0000007FFFFFF0001FFFFFFF0000FFFFFF80007FFF0000FFFFFF80
310
007FFF0003FFFFFFFFF0003FFFFF0001F000E0003FFFFE0003FF0003FFF00000
310
3FFF0003FF80007FC0007FFFFC0007FE0007FFFFC0003FF8000001FFFE000000
310
7FFFFFF0001FFFFFFF80007FFFFF0000FFFF80007FFFFF0000FFFF0003FFFFFF
310
FFF0003FFFFF0003F000E0003FFFFC0003FE0003FFF000003FFF0003FF80007F
310
E0003FFFF80007FE0003FFFFC0007FF8000001FFFE0000007FFFFFF0001FFFFF
310
FF80003FFFFE0000FFFF80003FFFFE0000FFFF0003FFFFFFFFF0001FFFFE0003
310
F000F0001FFFF80003FE0003FFF000007FFF0001FF80007FE0003FFFF00007FE
310
0001FFFF80007FF8000001FFFE0000007FFFFFF0001FFFFFFFC0000FFFF80001
310
FFFFC0000FFFF80001FFFF0003FFFFFFFFF0001FFFFC0003F000F0000FFFF000
310
07FE0007FFF800007FFF0001FF80007FE0001FFFE00007FF0000FFFE00007FF8
310
000001FFFE0000007FFFFFF0001FFFFFFFC00003FFE00001FFFFC00003FFE000
310
01FFFF0003FFFFFFFFF8000FFFF80003F000F00003FFC00007FC0007FFF80000
310
7FFF8001FF80007FF00007FF80000FFF00007FF80000FFF8000001FFFE000000
310
7F80000000000001FFE000003E000003FFFFE000003E000003FFFF0003FFFFFF
310
FFF80003FFE00007F000F800000000000FFC0007FFF800007FFF8001FF80007F
310
F000000000000FFF000000000000FFF8000001FFFE0000007F80000000000001
310
FFF0000000000007FFFFF0000000000007FFFF0003FFFFFFFFFC00007E000007
310
F000F800000000000FFC0007FFF80000FFFF8000FF80007FF800000000001FFF
310
800000000001FFF8000001FFFE0000007F80000000000001FFF800000000000F
310
FFFFF800000000000FFFFF0003FFFFFFFFFC00000000000FF000FC0000000000
310
1FFC0007FFFC0000FFFF8000FF80007FF800000000003FFFC00000000001FFF8
310
000001FFFE0000007F80000000000001FFF800000000000FFFFFF80000000000
310
0FFFFF0003FFFFFFFFFE00000000001FF000FE00000000003FF8000FFFFC0000
310
FFFF8000FF80007FFC00000000003FFFC00000000003FFF8000001FFFE000000
310
7F80000000000001FFFC00000000001FFFFFFC00000000001FFFFF0003FFFFFF
310
FFFF00000000001FF000FF00000000003FF8000FFFFC0000FFFFC000FF80007F
310
FE00000000007FFFE00000000007FFF8000001FFFE0000007F80000000000001
310
FFFE00000000003FFFFFFE00000000003FFFFF0003FFFFFFFFFF80000000003F
310
F000FF80000000007FF8000FFFFC0001FFFFC0007F80007FFF0000000000FFFF
310
F0000000000FFFF800000000000000007F80000000000001FFFF8000000000FF
310
FFFFFF8000000000FFFFFF0003FFFFFFFFFFC0000000007FF000FFC000000000
310
FFF8000FFFFE0001FFFFC0007F80007FFF8000000001FFFFF8000000001FFFF8
310
00000000000000007F80000000000001FFFFC000000001FFFFFFFFC000000001
310
FFFFFF0003FFFFFFFFFFE000000000FFF000FFE000000003FFF0001FFFFE0001
310
FFFFC0007F80007FFFC000000007FFFFFE000000003FFFF80000000000000000
310
7F80000000000001FFFFE000000003FFFFFFFFE000000003FFFFFF0003FFFFFF
310
FFFFF000000003FFF000FFF80000000FFFF0001FFFFE0001FFFFE0007F80007F
310
FFF00000000FFFFFFF00000000FFFFF800000000000000007F80000000000001
310
FFFFF80000000FFFFFFFFFF80000000FFFFFFF0003FFFFFFFFFFFC0000000FFF
310
F000FFFE0000003FFFF0001FFFFE0003FFFFE0003F80007FFFFC0000003FFFFF
310
FFC0000003FFFFF800000000000000007F80000000000001FFFFFE0000003FFF
310
FFFFFFFE0000003FFFFFFF0003FFFFFFFFFFFF0000003FFFF000FFFF800000FF
310
FFF0001FFFFF0003FFFFE0003F80007FFFFF000001FFFFFFFFF800001FFFFFF8
310
00000000000000007F80000000000001FFFFFFC00001FFFFFFFFFFFFC00001FF
310
FFFFFF0003FFFFFFFFFFFFC00000FFFFF000FFFFF8000FFFFFFFFFFFFFFFFFFF
310
FFFFFFFFFFFFFFFFFFFFF0001FFFFFFFFFFF0000FFFFFFF80000000000000000
310
7FFFFFFFFFFFFFFFFFFFFFFC001FFFFFFFFFFFFFFC001FFFFFFFFFFFFFFFFFFF
310
FFFFFFFC001FFFFFF000FFFFFFFFFFFFFFFFFFFFFFFFFFFFFFFFFFFFFFFFFFFF
310
FFFFFFFFFFFFFFFFFFFFFFFFFFFFFFFFFFFFFFFFFFFFFFFFFFFFFFFFFFFFFFFF
310
FFFFFFFFFFFFFFFFFFFFFFFFFFFFFFFFFFFFFFFFFFFFFFFFFFFFFFFFFFFFFFFF
310
F000FFFFFFFFFFFFFFFFFFFFFFFFFFFFFFFFFFFFFFFFFFFFFFFFFFFFFFFFFFFF
310
FFFFFFFFFFFFFFFFFFFFFFFFFFFFFFFFFFFFFFFFFFFFFFFFFFFFFFFFFFFFFFFF
310
FFFFFFFFFFFFFFFFFFFFFFFFFFFFFFFFFFFFFFFFFFFFFFFFF000FFFFFFFFFFFF
310
FFFFFFFFFFFFFFFFFFFFFFFFFFFFFFFFFFFFFFFFFFFFFFFFFFFFFFFFFFFFFFFF
310
FFFFFFFFFFFFFFFFFFFFFFFFFFFFFFFFFFFFFFFFFFFFFFFFFFFFFFFFFFFFFFFF
310
FFFFFFFFFFFFFFFFFFFFFFFFFFFFFFFFF000FFFFFFFFFFFFFFFFFFFFFFFFFFFF
310
FFFFFFFFFFFFFFFFFFFFFFFFFFFFFFFFFFFFFFFFFFFFFFFFFFFFFFFFFFFFFFFF
310
FFFFFFFFFFFFFFFFFFFFFFFFFFFFFFFFFFFFFFFFFFFFFFFFFFFFFFFFFFFFFFFF
310
FFFFFFFFFFFFFFFFF000FFFFFFFFFFFFFFFFFFFFFFFFFFFFFFFFFFFFFFFFFFFF
310
FFFFFFFFFFFFFFFFFFFFFFFFFFFFFFFFFFFFFFFFFFFFFFFFFFFFFFFFFFFFFFFF
310
FFFFFFFFFFFFFFFFFFFFFFFFFFFFFFFFFFFFFFFFFFFFFFFFFFFFFFFFFFFFFFFF
310
F000FFFFFFFFFFFFFFFFFFFFFFFFFFFFFFFFFFFFFFFFFFFFFFFFFFFFFFFFFFFF
310
FFFFFFFFFFFFFFFFFFFFFFFFFFFFFFFFFFFFFFFFFFFFFFFFFFFFFFFFFFFFFFFF
310
FFFFFFFFFFFFFFFFFFFFFFFFFFFFFFFFFFFFFFFFFFFFFFFFF000FFFFFFFFFFFF
310
FFFFFFFFFFFFFFFFFFFFFFFFFFFFFFFFFFFFFFFFFFFFFFFFFFFFFFFFFFFFFFFF
310
FFFFFFFFFFFFFFFFFFFFFFFFFFFFFFFFFFFFFFFFFFFFFFFFFFFFFFFFFFFFFFFF
310
FFFFFFFFFFFFFFFFFFFFFFFFFFFFFFFFF000FFFFFFFFFFFFFFFFFFFFFFFFFFFF
310
FFFFFFFFFFFFFFFFFFFFFFFFFFFFFFFFFFFFFFFFFFFFFFFFFFFFFFFFFFFFFFFF
310
FFFFFFFFFFFFFFFFFFFFFFFFFFFFFFFFFFFFFFFFFFFFFFFFFFFFFFFFFFFFFFFF
310
FFFFFFFFFFFFFFFFF000FFFFFFFFFFFFFFFFFFFFFFFFFFFFFFFFFFFFFFFFFFFF
310
FFFFFFFFFFFFFFFFFFFFFFFFFFFFFFFFFFFFFFFFFFFFFFFFFFFFFFFFFFFFFFFF
310
FFFFFFFFFFFFFFFFFFFFFFFFFFFFFFFFFFFFFFFFFFFFFFFFFFFFFFFFFFFFFFFF
310
F000FFFFFFFFFFFFFFFFFFFFFFFFFFFFFFFFFFFFFFFFFFFFFFFFFFFFFFFFFFFF
310
FFFFFFFFFFFFFFFFFFFFFFFFFFFFFFFFFFFFFFFFFFFFFFFFFFFFFFFFFFFFFFFF
310
FFFFFFFFFFFFFFFFFFFFFFFFFFFFFFFFFFFFFFFFFFFFFFFFF000FFFFFFFFFFFF
310
FFFFFFFFFFFFFFFFFFFFFFFFFFFFFFFFFFFFFFFFFFFFFFFFFFFFFFFFFFFFFFFF
310
FFFFFFFFFFFFFFFFFFFFFFFFFFFFFFFFFFFFFFFFFFFFFFFFFFFFFFFFFFFFFFFF
310
FFFFFFFFFFFFFFFFFFFFFFFFFFFFFFFFF000FFFFFFFFFFFFFFFFFFFFFFFFFFFF
310
FFFFFFFFFFFFFFFFFFFFFFFFFFFFFFFFFFFFFFFFFFFFFFFFFFFFFFFFFFFFFFFF
310
FFFFFFFFFFFFFFFFFFFFFFFFFFFFFFFFFFFFFFFFFFFFFFFFFFFFFFFFFFFFFFFF
310
FFFFFFFFFFFFFFFFF000FFFFFFFFFFFFFFFFFFFFFFFFFFFFFFFFFFFFFFFFFFFF
310
FFFFFFFFFFFFFFFFFFFFFFFFFFFFFFFFFFFFFFFFFFFFFFFFFFFFFFFFFFFFFFFF
310
FFFFFFFFFFFFFFFFFFFFFFFFFFFFFFFFFFFFFFFFFFFFFFFFFFFFFFFFFFFFFFFF
310
F000FFFFFFFFFFFFFFFFFFFFFFFFFFFFFFFFFFFFFFFFFFFFFFFFFFFFFFFFFFFF
310
FFFFFFFFFFFFFFFFFFFFFFFFFFFFFFFFFFFFFFFFFFFFFFFFFFFFFFFFFFFFFFFF
310
FFFFFFFFFFFFFFFFFFFFFFFFFFFFFFFFFFFFFFFFFFFFFFFFF000FFFFFFFFFFFF
310
FFFFFFFFFFFFFFFFFFFFFFFFFFFFFFFFFFFFFFFFFFFFFFFFFFFFFFFFFFFFFFFF
310
FFFFFFFFFFFFFFFFFFFFFFFFFFFFFFFFFFFFFFFFFFFFFFFFFFFFFFFFFFFFFFFF
310
FFFFFFFFFFFFFFFFFFFFFFFFFFFFFFFFF000FFFFFFFFFFFFFFFFFFFFFFFFFFFF
310
FFFFFFFFFFFFFFFFFFFFFFFFFFFFFFFFFFFFFFFFFFFFFFFFFFFFFFFFFFFFFFFF
310
FFFFFFFFFFFFFFFFFFFFFFFFFFFFFFFFFFFFFFFFFFFFFFFFFFFFFFFFFFFFFFFF
310
FFFFFFFFFFFFFFFFF000FFFFFFFFFFFFFFFFFFFFFFFFFFFFFFFFFFFFFFFFFFFF
310
FFFFFFFFFFFFFFFFFFFFFFFFFFFFFFFFFFFFFFFFFFFFFFFFFFFFFFFFFFFFFFFF
310
FFFFFFFFFFFFFFFFFFFFFFFFFFFFFFFFFFFFFFFFFFFFFFFFFFFFFFFFFFFFFFFF
310
F000FFFFFFFFFFFFFFFFFFFFFFFFFFFFFFFFFFFFFFFFFFFFFFFFFFFFFFFFFFFF
310
FFFFFFFFFFFFFFFFFFFFFFFFFFFFFFFFFFFFFFFFFFFFFFFFFFFFFFFFFFFFFFFF
310
FFFFFFFFFFFFFFFFFFFFFFFFFFFFFFFFFFFFFFFFFFFFFFFFF000FFFFFFFFFFFF
310
FFFFFFFFFFFFFFFFFFFFFFFFFFFFFFFFFFFFFFFFFFFFFFFFFFFFFFFFFFFFFFFF
310
FFFFFFFFFFFFFFFFFFFFFFFFFFFFFFFFFFFFFFFFFFFFFFFFFFFFFFFFFFFFFFFF
310
FFFFFFFFFFFFFFFFFFFFFFFFFFFFFFFFF000FFFFFFFFFFFFFFFFFFFFFFFFFFFF
310
FFFFFFFFFFFFFFFFFFFFFFFFFFFFFFFFFFFFFFFFFFFFFFFFFFFFFFFFFFFFFFFF
310
FFFFFFFFFFFFFFFFFFFFFFFFFFFFFFFFFFFFFFFFFFFFFFFFFFFFFFFFFFFFFFFF
310
FFFFFFFFFFFFFFFFF000FFFFFFFFFFFFFFFFFFFFFFFFFFFFFFFFFFFFFFFFFFFF
310
FFFFFFFFFFFFFFFFFFFFFFFFFFFFFFFFFFFFFFFFFFFFFFFFFFFFFFFFFFFFFFFF
310
FFFFFFFFFFFFFFFFFFFFFFFFFFFFFFFFFFFFFFFFFFFFFFFFFFFFFFFFFFFFFFFF
310
F000FFFFFFFFFFFFFFFFFFFFFFFFFFFFFFFFFFFFFFFFFFFFFFFFFFFFFFFFFFFF
310
FFFFFFFFFFFFFFFFFFFFFFFFFFFFFFFFFFFFFFFFFFFFFFFFFFFFFFFFFFFFFFFF
310
FFFFFFFFFFFFFFFFFFFFFFFFFFFFFFFFFFFFFFFFFFFFFFFFF000FFFFFFFFFFFF
310
FFFFFFFFFFFFFFFFFFFFFFFFFFFFFFFFFFFFFFFFFFFFFFFFFFFFFFFFFFFFFFFF
310
FFFFFFFFFFFFFFFFFFFFFFFFFFFFFFFFFFFFFFFFFFFFFFFFFFFFFFFFFFFFFFFF
310
FFFFFFFFFFFFFFFFFFFFFFFFFFFFFFFFF0000000000000000000000000000000
310
0000000000000000000000000000000000000000000000000000000000000000
310
0000000000000000000000000000000000000000000000000000000000000000
310
0000000000000000000000000000000000000000000000000000000000000000
310
0000000000000000000000000000000000000000000000000000000000000000
310
0000000000000000000000000000000000000000000000000000000000000000
310
0000000000000000000000000000000000000000000000000000000000000000
310
0000000000000000000000000000000000000000000000000000000000000000
310
0000000000000000000000000000000000000000000000000000000000000000
310
0000000000000000000000000000000000000000000000000000000000000000
310
0000000000000000000000000000000000000000000000000000000000000000
310
0000000000000000000000000000000000000000000000000000000000000000
310
0000000000000000000000000000000000000000000000000000000000000000
310
0000000000000000000000000000000000000000000000000000000000000000
310
0000000000000000000000000000000000000000000000000000000000000000
310
0000000000000000000000000000000000000000000000000000000000000000
  1
OLE
  0
ENDSEC
  0
SECTION
  2
OBJECTS
  0
DICTIONARY
  5
C
330
0
100
AcDbDictionary
281
     1
  3
ACAD_GROUP
350
D
  3
ACAD_LAYOUT
350
1A
  3
ACAD_MLINESTYLE
350
17
  3
ACAD_PLOTSETTINGS
350
19
  3
ACAD_PLOTSTYLENAME
350
E
  3
ACAD_SCALELIST
350
47
  0
DICTIONARY
  5
D
102
{ACAD_REACTORS
330
C
102
}
330
C
100
AcDbDictionary
281
     1
  0
DICTIONARY
  5
1A
102
{ACAD_REACTORS
330
C
102
}
330
C
100
AcDbDictionary
281
     1
  3
Layout1
350
1E
  3
Layout2
350
26
  3
Model
350
22
  0
DICTIONARY
  5
17
102
{ACAD_REACTORS
330
C
102
}
330
C
100
AcDbDictionary
281
     1
  3
Standard
350
18
  0
DICTIONARY
  5
19
102
{ACAD_REACTORS
330
C
102
}
330
C
100
AcDbDictionary
281
     1
  0
ACDBDICTIONARYWDFLT
  5
E
102
{ACAD_REACTORS
330
C
102
}
330
C
100
AcDbDictionary
281
     1
  3
Normal
350
F
100
AcDbDictionaryWithDefault
340
F
  0
DICTIONARY
  5
47
102
{ACAD_REACTORS
330
C
102
}
330
C
100
AcDbDictionary
281
     1
  3
A0
350
48
  3
A1
350
49
  3
A2
350
4A
  3
A3
350
4B
  3
A4
350
4C
  3
A5
350
4D
  3
A6
350
4E
  3
A7
350
4F
  3
A8
350
50
  3
A9
350
51
  3
B0
350
52
  3
B1
350
53
  3
B2
350
54
  3
B3
350
55
  3
B4
350
56
  3
B5
350
57
  3
B6
350
58
  3
B7
350
59
  3
B8
350
5A
  3
B9
350
5B
  3
C0
350
5C
  3
C1
350
5D
  3
C2
350
5E
  3
C3
350
5F
  3
C4
350
60
  3
C5
350
61
  3
C6
350
62
  3
C7
350
63
  3
C8
350
64
  3
C9
350
65
  3
D0
350
66
  3
D1
350
67
  3
D2
350
68
  0
LAYOUT
  5
1E
102
{ACAD_REACTORS
330
1A
102
}
330
1A
100
AcDbPlotSettings
  1

  2
none_device
  4

  6

 40
0.0
 41
0.0
 42
0.0
 43
0.0
 44
0.0
 45
0.0
 46
0.0
 47
0.0
 48
0.0
 49
0.0
140
0.0
141
0.0
142
1.0
143
1.0
 70
   688
 72
     1
 73
     0
 74
     5
  7

 75
    16
147
1.0
148
0.0
149
0.0
100
AcDbLayout
  1
Layout1
 70
     1
 71
     1
 10
0.0
 20
0.0
 11
420.0
 21
297.0
 12
0.0
 22
0.0
 32
0.0
 14
1.0000000000E+20
 24
1.0000000000E+20
 34
1.0000000000E+20
 15
-1.0000000000E+20
 25
-1.0000000000E+20
 35
-1.0000000000E+20
146
0.0
 13
0.0
 23
0.0
 33
0.0
 16
1.0
 26
0.0
 36
0.0
 17
0.0
 27
1.0
 37
0.0
 76
     0
330
1B
  0
LAYOUT
  5
26
102
{ACAD_REACTORS
330
1A
102
}
330
1A
100
AcDbPlotSettings
  1

  2
none_device
  4

  6

 40
0.0
 41
0.0
 42
0.0
 43
0.0
 44
0.0
 45
0.0
 46
0.0
 47
0.0
 48
0.0
 49
0.0
140
0.0
141
0.0
142
1.0
143
1.0
 70
   688
 72
     1
 73
     0
 74
     5
  7

 75
    16
147
1.0
148
0.0
149
0.0
100
AcDbLayout
  1
Layout2
 70
     1
 71
     2
 10
0.0
 20
0.0
 11
0.0
 21
0.0
 12
0.0
 22
0.0
 32
0.0
 14
0.0
 24
0.0
 34
0.0
 15
0.0
 25
0.0
 35
0.0
146
0.0
 13
0.0
 23
0.0
 33
0.0
 16
1.0
 26
0.0
 36
0.0
 17
0.0
 27
1.0
 37
0.0
 76
     0
330
23
  0
LAYOUT
  5
22
102
{ACAD_REACTORS
330
1A
102
}
330
1A
100
AcDbPlotSettings
  1

  2
none_device
  4
Letter_(8.50_x_11.00_Inches)
  6

 40
6.35
 41
6.35
 42
6.35000508
 43
6.35000508
 44
215.9
 45
279.4
 46
0.0
 47
0.0
 48
0.0
 49
0.0
140
0.0
141
0.0
142
1.0
143
1.0
 70
  1712
 72
     1
 73
     0
 74
     0
  7

 75
     0
147
1.0
148
0.0
149
0.0
100
AcDbLayout
  1
Model
 70
     1
 71
     0
 10
0.0
 20
0.0
 11
297.0
 21
210.0
 12
0.0
 22
0.0
 32
0.0
 14
0.0
 24
0.0
 34
0.0
 15
297.0
 25
210.0
 35
0.0
146
0.0
 13
0.0
 23
0.0
 33
0.0
 16
1.0
 26
0.0
 36
0.0
 17
0.0
 27
1.0
 37
0.0
 76
     0
330
1F
331
29
  0
MLINESTYLE
  5
18
102
{ACAD_REACTORS
330
17
102
}
330
17
100
AcDbMlineStyle
  2
Standard
 70
     0
  3

 62
   256
 51
90.0
 52
90.0
 71
     2
 49
0.5
 62
   256
  6
BYLAYER
 49
-0.5
 62
   256
  6
BYLAYER
  0
ACDBPLACEHOLDER
  5
F
102
{ACAD_REACTORS
330
E
102
}
330
E
  0
SCALE
  5
48
102
{ACAD_REACTORS
330
47
102
}
330
47
100
AcDbScale
 70
     0
300
1:1
140
1.0
141
1.0
290
     1
  0
SCALE
  5
49
102
{ACAD_REACTORS
330
47
102
}
330
47
100
AcDbScale
 70
     0
300
1:2
140
1.0
141
2.0
290
     0
  0
SCALE
  5
4A
102
{ACAD_REACTORS
330
47
102
}
330
47
100
AcDbScale
 70
     0
300
1:4
140
1.0
141
4.0
290
     0
  0
SCALE
  5
4B
102
{ACAD_REACTORS
330
47
102
}
330
47
100
AcDbScale
 70
     0
300
1:5
140
1.0
141
5.0
290
     0
  0
SCALE
  5
4C
102
{ACAD_REACTORS
330
47
102
}
330
47
100
AcDbScale
 70
     0
300
1:8
140
1.0
141
8.0
290
     0
  0
SCALE
  5
4D
102
{ACAD_REACTORS
330
47
102
}
330
47
100
AcDbScale
 70
     0
300
1:10
140
1.0
141
10.0
290
     0
  0
SCALE
  5
4E
102
{ACAD_REACTORS
330
47
102
}
330
47
100
AcDbScale
 70
     0
300
1:16
140
1.0
141
16.0
290
     0
  0
SCALE
  5
4F
102
{ACAD_REACTORS
330
47
102
}
330
47
100
AcDbScale
 70
     0
300
1:20
140
1.0
141
20.0
290
     0
  0
SCALE
  5
50
102
{ACAD_REACTORS
330
47
102
}
330
47
100
AcDbScale
 70
     0
300
1:30
140
1.0
141
30.0
290
     0
  0
SCALE
  5
51
102
{ACAD_REACTORS
330
47
102
}
330
47
100
AcDbScale
 70
     0
300
1:40
140
1.0
141
40.0
290
     0
  0
SCALE
  5
52
102
{ACAD_REACTORS
330
47
102
}
330
47
100
AcDbScale
 70
     0
300
1:50
140
1.0
141
50.0
290
     0
  0
SCALE
  5
53
102
{ACAD_REACTORS
330
47
102
}
330
47
100
AcDbScale
 70
     0
300
1:100
140
1.0
141
100.0
290
     0
  0
SCALE
  5
54
102
{ACAD_REACTORS
330
47
102
}
330
47
100
AcDbScale
 70
     0
300
2:1
140
2.0
141
1.0
290
     0
  0
SCALE
  5
55
102
{ACAD_REACTORS
330
47
102
}
330
47
100
AcDbScale
 70
     0
300
4:1
140
4.0
141
1.0
290
     0
  0
SCALE
  5
56
102
{ACAD_REACTORS
330
47
102
}
330
47
100
AcDbScale
 70
     0
300
8:1
140
8.0
141
1.0
290
     0
  0
SCALE
  5
57
102
{ACAD_REACTORS
330
47
102
}
330
47
100
AcDbScale
 70
     0
300
10:1
140
10.0
141
1.0
290
     0
  0
SCALE
  5
58
102
{ACAD_REACTORS
330
47
102
}
330
47
100
AcDbScale
 70
     0
300
100:1
140
100.0
141
1.0
290
     0
  0
SCALE
  5
59
102
{ACAD_REACTORS
330
47
102
}
330
47
100
AcDbScale
 70
     0
300
1/128" = 1'-0"
140
0.0078125
141
12.0
290
     0
  0
SCALE
  5
5A
102
{ACAD_REACTORS
330
47
102
}
330
47
100
AcDbScale
 70
     0
300
1/64" = 1'-0"
140
0.015625
141
12.0
290
     0
  0
SCALE
  5
5B
102
{ACAD_REACTORS
330
47
102
}
330
47
100
AcDbScale
 70
     0
300
1/32" = 1'-0"
140
0.03125
141
12.0
290
     0
  0
SCALE
  5
5C
102
{ACAD_REACTORS
330
47
102
}
330
47
100
AcDbScale
 70
     0
300
1/16" = 1'-0"
140
0.0625
141
12.0
290
     0
  0
SCALE
  5
5D
102
{ACAD_REACTORS
330
47
102
}
330
47
100
AcDbScale
 70
     0
300
3/32" = 1'-0"
140
0.09375
141
12.0
290
     0
  0
SCALE
  5
5E
102
{ACAD_REACTORS
330
47
102
}
330
47
100
AcDbScale
 70
     0
300
1/8" = 1'-0"
140
0.125
141
12.0
290
     0
  0
SCALE
  5
5F
102
{ACAD_REACTORS
330
47
102
}
330
47
100
AcDbScale
 70
     0
300
3/16" = 1'-0"
140
0.1875
141
12.0
290
     0
  0
SCALE
  5
60
102
{ACAD_REACTORS
330
47
102
}
330
47
100
AcDbScale
 70
     0
300
1/4" = 1'-0"
140
0.25
141
12.0
290
     0
  0
SCALE
  5
61
102
{ACAD_REACTORS
330
47
102
}
330
47
100
AcDbScale
 70
     0
300
3/8" = 1'-0"
140
0.375
141
12.0
290
     0
  0
SCALE
  5
62
102
{ACAD_REACTORS
330
47
102
}
330
47
100
AcDbScale
 70
     0
300
1/2" = 1'-0"
140
0.5
141
12.0
290
     0
  0
SCALE
  5
63
102
{ACAD_REACTORS
330
47
102
}
330
47
100
AcDbScale
 70
     0
300
3/4" = 1'-0"
140
0.75
141
12.0
290
     0
  0
SCALE
  5
64
102
{ACAD_REACTORS
330
47
102
}
330
47
100
AcDbScale
 70
     0
300
1" = 1'-0"
140
1.0
141
12.0
290
     0
  0
SCALE
  5
65
102
{ACAD_REACTORS
330
47
102
}
330
47
100
AcDbScale
 70
     0
300
1-1/2" = 1'-0"
140
1.5
141
12.0
290
     0
  0
SCALE
  5
66
102
{ACAD_REACTORS
330
47
102
}
330
47
100
AcDbScale
 70
     0
300
3" = 1'-0"
140
3.0
141
12.0
290
     0
  0
SCALE
  5
67
102
{ACAD_REACTORS
330
47
102
}
330
47
100
AcDbScale
 70
     0
300
6" = 1'-0"
140
6.0
141
12.0
290
     0
  0
SCALE
  5
68
102
{ACAD_REACTORS
330
47
102
}
330
47
100
AcDbScale
 70
     0
300
1'-0" = 1'-0"
140
12.0
141
12.0
290
     0
  0
ENDSEC
  0
EOF
