  0
SECTION
  2
HEADER
  9
$ACADVER
  1
AC1015
  9
$ACADMAINTVER
 70
     6
  9
$DWGCODEPAGE
  3
ANSI_1252
  9
$INSBASE
 10
0.0
 20
0.0
 30
0.0
  9
$EXTMIN
 10
0.0
 20
0.0
 30
0.0
  9
$EXTMAX
 10
297.0
 20
210.0
 30
0.0
  9
$LIMMIN
 10
0.0
 20
0.0
  9
$LIMMAX
 10
297.0
 20
210.0
  9
$ORTHOMODE
 70
     0
  9
$REGENMODE
 70
     1
  9
$FILLMODE
 70
     1
  9
$QTEXTMODE
 70
     0
  9
$MIRRTEXT
 70
     1
  9
$LTSCALE
 40
1.0
  9
$ATTMODE
 70
     1
  9
$TEXTSIZE
 40
2.0
  9
$TRACEWID
 40
1.0
  9
$TEXTSTYLE
  7
Standard
  9
$CLAYER
  8
0
  9
$CELTYPE
  6
ByLayer
  9
$CECOLOR
 62
   256
  9
$CELTSCALE
 40
1.0
  9
$DISPSILH
 70
     0
  9
$DIMSCALE
 40
1.0
  9
$DIMASZ
 40
3.0
  9
$DIMEXO
 40
0.0
  9
$DIMDLI
 40
3.75
  9
$DIMRND
 40
0.0
  9
$DIMDLE
 40
0.0
  9
$DIMEXE
 40
1.0
  9
$DIMTP
 40
0.0
  9
$DIMTM
 40
0.0
  9
$DIMTXT
 40
2.0
  9
$DIMCEN
 40
2.5
  9
$DIMTSZ
 40
0.0
  9
$DIMTOL
 70
     0
  9
$DIMLIM
 70
     0
  9
$DIMTIH
 70
     1
  9
$DIMTOH
 70
     1
  9
$DIMSE1
 70
     0
  9
$DIMSE2
 70
     0
  9
$DIMTAD
 70
     1
  9
$DIMZIN
 70
     0
  9
$DIMBLK
  1

  9
$DIMASO
 70
     1
  9
$DIMSHO
 70
     1
  9
$DIMPOST
  1

  9
$DIMAPOST
  1

  9
$DIMALT
 70
     0
  9
$DIMALTD
 70
     3
  9
$DIMALTF
 40
0.0393700787
  9
$DIMLFAC
 40
1.0
  9
$DIMTOFL
 70
     1
  9
$DIMTVP
 40
0.0
  9
$DIMTIX
 70
     0
  9
$DIMSOXD
 70
     0
  9
$DIMSAH
 70
     0
  9
$DIMBLK1
  1

  9
$DIMBLK2
  1

  9
$DIMSTYLE
  2
ISO-25
  9
$DIMCLRD
 70
     0
  9
$DIMCLRE
 70
     0
  9
$DIMCLRT
 70
     0
  9
$DIMTFAC
 40
1.0
  9
$DIMGAP
 40
1.524
  9
$DIMJUST
 70
     0
  9
$DIMSD1
 70
     0
  9
$DIMSD2
 70
     0
  9
$DIMTOLJ
 70
     0
  9
$DIMTZIN
 70
     0
  9
$DIMALTZ
 70
     0
  9
$DIMALTTZ
 70
     0
  9
$DIMUPT
 70
     0
  9
$DIMDEC
 70
     2
  9
$DIMTDEC
 70
     3
  9
$DIMALTU
 70
     2
  9
$DIMALTTD
 70
     3
  9
$DIMTXSTY
  7
Standard
  9
$DIMAUNIT
 70
     0
  9
$DIMADEC
 70
     2
  9
$DIMALTRND
 40
0.0
  9
$DIMAZIN
 70
     0
  9
$DIMDSEP
 70
    44
  9
$DIMATFIT
 70
     3
  9
$DIMFRAC
 70
     0
  9
$DIMLDRBLK
  1

  9
$DIMLUNIT
 70
     2
  9
$DIMLWD
 70
    -2
  9
$DIMLWE
 70
    -2
  9
$DIMTMOVE
 70
     0
  9
$LUNITS
 70
     2
  9
$LUPREC
 70
     2
  9
$SKETCHINC
 40
1.0
  9
$FILLETRAD
 40
10.0
  9
$AUNITS
 70
     0
  9
$AUPREC
 70
     2
  9
$MENU
  1
.
  9
$ELEVATION
 40
0.0
  9
$PELEVATION
 40
0.0
  9
$THICKNESS
 40
0.0
  9
$LIMCHECK
 70
     0
  9
$CHAMFERA
 40
0.0
  9
$CHAMFERB
 40
0.0
  9
$CHAMFERC
 40
0.0
  9
$CHAMFERD
 40
0.0
  9
$SKPOLY
 70
     0
  9
$TDCREATE
 40
2457672.516386875
  9
$TDUCREATE
 40
2457672.433053541
  9
$TDUPDATE
 40
2457672.516388217
  9
$TDUUPDATE
 40
2457672.433054884
  9
$TDINDWG
 40
0.0000000116
  9
$TDUSRTIMER
 40
0.0000000116
  9
$USRTIMER
 70
     1
  9
$ANGBASE
 50
0.0
  9
$ANGDIR
 70
     0
  9
$PDMODE
 70
     0
  9
$PDSIZE
 40
-1.0
  9
$PLINEWID
 40
0.0
  9
$SPLFRAME
 70
     0
  9
$SPLINETYPE
 70
     6
  9
$SPLINESEGS
 70
     8
  9
$HANDSEED
  5
27A
  9
$SURFTAB1
 70
     6
  9
$SURFTAB2
 70
     6
  9
$SURFTYPE
 70
     6
  9
$SURFU
 70
     6
  9
$SURFV
 70
     6
  9
$UCSBASE
  2

  9
$UCSNAME
  2

  9
$UCSORG
 10
0.0
 20
0.0
 30
0.0
  9
$UCSXDIR
 10
1.0
 20
0.0
 30
0.0
  9
$UCSYDIR
 10
0.0
 20
1.0
 30
0.0
  9
$UCSORTHOREF
  2

  9
$UCSORTHOVIEW
 70
     0
  9
$UCSORGTOP
 10
0.0
 20
0.0
 30
0.0
  9
$UCSORGBOTTOM
 10
0.0
 20
0.0
 30
0.0
  9
$UCSORGLEFT
 10
0.0
 20
0.0
 30
0.0
  9
$UCSORGRIGHT
 10
0.0
 20
0.0
 30
0.0
  9
$UCSORGFRONT
 10
0.0
 20
0.0
 30
0.0
  9
$UCSORGBACK
 10
0.0
 20
0.0
 30
0.0
  9
$PUCSBASE
  2

  9
$PUCSNAME
  2

  9
$PUCSORG
 10
0.0
 20
0.0
 30
0.0
  9
$PUCSXDIR
 10
1.0
 20
0.0
 30
0.0
  9
$PUCSYDIR
 10
0.0
 20
1.0
 30
0.0
  9
$PUCSORTHOREF
  2

  9
$PUCSORTHOVIEW
 70
     0
  9
$PUCSORGTOP
 10
0.0
 20
0.0
 30
0.0
  9
$PUCSORGBOTTOM
 10
0.0
 20
0.0
 30
0.0
  9
$PUCSORGLEFT
 10
0.0
 20
0.0
 30
0.0
  9
$PUCSORGRIGHT
 10
0.0
 20
0.0
 30
0.0
  9
$PUCSORGFRONT
 10
0.0
 20
0.0
 30
0.0
  9
$PUCSORGBACK
 10
0.0
 20
0.0
 30
0.0
  9
$USERI1
 70
     0
  9
$USERI2
 70
     0
  9
$USERI3
 70
     0
  9
$USERI4
 70
     0
  9
$USERI5
 70
     0
  9
$USERR1
 40
0.0
  9
$USERR2
 40
0.0
  9
$USERR3
 40
0.0
  9
$USERR4
 40
0.0
  9
$USERR5
 40
0.0
  9
$WORLDVIEW
 70
     1
  9
$SHADEDGE
 70
     3
  9
$SHADEDIF
 70
    70
  9
$TILEMODE
 70
     1
  9
$MAXACTVP
 70
    64
  9
$PINSBASE
 10
0.0
 20
0.0
 30
0.0
  9
$PLIMCHECK
 70
     0
  9
$PEXTMIN
 10
1.0000000000E+20
 20
1.0000000000E+20
 30
1.0000000000E+20
  9
$PEXTMAX
 10
-1.0000000000E+20
 20
-1.0000000000E+20
 30
-1.0000000000E+20
  9
$PLIMMIN
 10
0.0
 20
0.0
  9
$PLIMMAX
 10
420.0
 20
297.0
  9
$UNITMODE
 70
     0
  9
$VISRETAIN
 70
     1
  9
$PLINEGEN
 70
     0
  9
$PSLTSCALE
 70
     1
  9
$TREEDEPTH
 70
  3020
  9
$CMLSTYLE
  2
Standard
  9
$CMLJUST
 70
     0
  9
$CMLSCALE
 40
20.0
  9
$PROXYGRAPHICS
 70
     1
  9
$MEASUREMENT
 70
     1
  9
$CELWEIGHT
370
    -1
  9
$ENDCAPS
280
     0
  9
$JOINSTYLE
280
     0
  9
$LWDISPLAY
290
     1
  9
$INSUNITS
 70
     4
  9
$HYPERLINKBASE
  1

  9
$STYLESHEET
  1

  9
$XEDIT
290
     1
  9
$CEPSNTYPE
380
     0
  9
$PSTYLEMODE
290
     1
  9
$FINGERPRINTGUID
  2
{C48D83EE-22CC-4AD2-A96F-E2B92746E8DE}
  9
$VERSIONGUID
  2
{FAEB1C32-E019-11D5-929B-00C0DF256EC4}
  9
$EXTNAMES
290
     1
  9
$PSVPSCALE
 40
0.0
  9
$OLESTARTUP
290
     0
  0
ENDSEC
  0
SECTION
  2
CLASSES
  0
CLASS
  1
ACDBDICTIONARYWDFLT
  2
AcDbDictionaryWithDefault
  3
ObjectDBX Classes
 90
        0
280
     0
281
     0
  0
CLASS
  1
VISUALSTYLE
  2
AcDbVisualStyle
  3
ObjectDBX Classes
 90
     4095
280
     0
281
     0
  0
CLASS
  1
MATERIAL
  2
AcDbMaterial
  3
ObjectDBX Classes
 90
     1153
280
     0
281
     0
  0
CLASS
  1
SCALE
  2
AcDbScale
  3
ObjectDBX Classes
 90
     1153
280
     0
281
     0
  0
CLASS
  1
TABLESTYLE
  2
AcDbTableStyle
  3
ObjectDBX Classes
 90
     4095
280
     0
281
     0
  0
CLASS
  1
MLEADERSTYLE
  2
AcDbMLeaderStyle
  3
ACDB_MLEADERSTYLE_CLASS
 90
     4095
280
     0
281
     0
  0
CLASS
  1
SUN
  2
AcDbSun
  3
SCENEOE
 90
     1153
280
     0
281
     0
  0
CLASS
  1
ACDBPLACEHOLDER
  2
AcDbPlaceHolder
  3
ObjectDBX Classes
 90
        0
280
     0
281
     0
  0
CLASS
  1
LAYOUT
  2
AcDbLayout
  3
ObjectDBX Classes
 90
        0
280
     0
281
     0
  0
ENDSEC
  0
SECTION
  2
TABLES
  0
TABLE
  2
VPORT
  5
8
330
0
100
AcDbSymbolTable
 70
     1
  0
VPORT
  5
29
330
8
100
AcDbSymbolTableRecord
100
AcDbViewportTableRecord
  2
*Active
 70
     0
 10
0.0
 20
0.0
 11
1.0
 21
1.0
 12
148.5
 22
105.0
 13
0.0
 23
0.0
 14
10.0
 24
10.0
 15
10.0
 25
10.0
 16
0.0
 26
0.0
 36
1.0
 17
0.0
 27
0.0
 37
0.0
 40
210.0
 41
1.4142857143
 42
50.0
 43
0.0
 44
0.0
 50
0.0
 51
0.0
 71
     0
 72
  2000
 73
     1
 74
     3
 75
     0
 76
     0
 77
     0
 78
     0
281
     0
 65
     1
110
0.0
120
0.0
130
0.0
111
1.0
121
0.0
131
0.0
112
0.0
122
1.0
132
0.0
 79
     0
146
0.0
  0
ENDTAB
  0
TABLE
  2
LTYPE
  5
5
330
0
100
AcDbSymbolTable
 70
     6
  0
LTYPE
  5
14
330
5
100
AcDbSymbolTableRecord
100
AcDbLinetypeTableRecord
  2
ByBlock
 70
     0
  3

 72
    65
 73
     0
 40
0.0
  0
LTYPE
  5
15
330
5
100
AcDbSymbolTableRecord
100
AcDbLinetypeTableRecord
  2
ByLayer
 70
     0
  3

 72
    65
 73
     0
 40
0.0
  0
LTYPE
  5
16
330
5
100
AcDbSymbolTableRecord
100
AcDbLinetypeTableRecord
  2
Continuous
 70
     0
  3
Solid line
 72
    65
 73
     0
 40
0.0
  0
LTYPE
  5
6E
330
5
100
AcDbSymbolTableRecord
100
AcDbLinetypeTableRecord
  2
HIDDEN
 70
     0
  3
Hidden __ __ __ __ __ __ __ __ __ __ __ __ __ __
 72
    65
 73
     2
 40
1.905
 49
1.27
 74
     0
 49
-0.635
 74
     0
  0
LTYPE
  5
6F
330
5
100
AcDbSymbolTableRecord
100
AcDbLinetypeTableRecord
  2
PHANTOM
 70
     0
  3
Phantom ______  __  __  ______  __  __  ______
 72
    65
 73
     6
 40
12.7
 49
6.35
 74
     0
 49
-1.27
 74
     0
 49
1.27
 74
     0
 49
-1.27
 74
     0
 49
1.27
 74
     0
 49
-1.27
 74
     0
  0
LTYPE
  5
70
330
5
100
AcDbSymbolTableRecord
100
AcDbLinetypeTableRecord
  2
CENTER
 70
     0
  3
Center ____ _ ____ _ ____ _ ____ _ ____ _ ____
 72
    65
 73
     4
 40
10.16
 49
6.35
 74
     0
 49
-1.27
 74
     0
 49
1.27
 74
     0
 49
-1.27
 74
     0
  0
LTYPE
  5
71
330
5
100
AcDbSymbolTableRecord
100
AcDbLinetypeTableRecord
  2
CENTERX2
 70
     0
  3
Center (2x) ________  __  ________  __  _____
 72
    65
 73
     4
 40
20.32
 49
12.7
 74
     0
 49
-2.54
 74
     0
 49
2.54
 74
     0
 49
-2.54
 74
     0
  0
LTYPE
  5
72
330
5
100
AcDbSymbolTableRecord
100
AcDbLinetypeTableRecord
  2
DOT2
 70
     0
  3
Dot (.5x) ........................................
 72
    65
 73
     2
 40
0.635
 49
0.0
 74
     0
 49
-0.635
 74
     0
  0
ENDTAB
  0
TABLE
  2
LAYER
  5
2
330
0
100
AcDbSymbolTable
 70
     5
  0
LAYER
  5
10
330
2
100
AcDbSymbolTableRecord
100
AcDbLayerTableRecord
  2
0
 70
     0
 62
     7
  6
Continuous
370
    -3
390
F
  0
LAYER
  5
73
330
2
100
AcDbSymbolTableRecord
100
AcDbLayerTableRecord
  2
FORMAT
 70
     0
 62
     7
  6
Continuous
370
    -3
390
F
  0
LAYER
  5
74
330
2
100
AcDbSymbolTableRecord
100
AcDbLayerTableRecord
  2
VERMASSUNG
 70
     0
 62
     7
  6
Continuous
370
    -3
390
F
  0
LAYER
  5
75
330
2
100
AcDbSymbolTableRecord
100
AcDbLayerTableRecord
  2
KOPF_DÜNN
 70
     0
 62
     7
  6
Continuous
370
    -3
390
F
  0
LAYER
  5
76
330
2
100
AcDbSymbolTableRecord
100
AcDbLayerTableRecord
  2
KOPF_DICK
 70
     0
 62
     7
  6
Continuous
370
    15
390
F
  0
ENDTAB
  0
TABLE
  2
STYLE
  5
3
330
0
100
AcDbSymbolTable
 70
     3
  0
STYLE
  5
11
330
3
100
AcDbSymbolTableRecord
100
AcDbTextStyleTableRecord
  2
Standard
 70
     0
 40
0.0
 41
1.0
 50
0.0
 71
     0
 42
2.0
  3
txt
  4

  0
STYLE
  5
77
330
3
100
AcDbSymbolTableRecord
100
AcDbTextStyleTableRecord
  2
SLDTEXTSTYLE0
 70
     0
 40
0.0
 41
0.7
 50
0.0
 71
     0
 42
2.0
  3
TXT
  4

  0
STYLE
  5
7B
330
3
100
AcDbSymbolTableRecord
100
AcDbTextStyleTableRecord
  2
SLDTEXTSTYLE1
 70
     0
 40
0.0
 41
0.6454545455
 50
0.0
 71
     0
 42
2.0
  3
TXT
  4

  0
ENDTAB
  0
TABLE
  2
VIEW
  5
6
330
0
100
AcDbSymbolTable
 70
     0
  0
ENDTAB
  0
TABLE
  2
UCS
  5
7
330
0
100
AcDbSymbolTable
 70
     0
  0
ENDTAB
  0
TABLE
  2
APPID
  5
9
330
0
100
AcDbSymbolTable
 70
     1
  0
APPID
  5
12
330
9
100
AcDbSymbolTableRecord
100
AcDbRegAppTableRecord
  2
ACAD
 70
     0
  0
ENDTAB
  0
TABLE
  2
DIMSTYLE
  5
A
330
0
100
AcDbSymbolTable
 70
     2
100
AcDbDimStyleTable
  0
DIMSTYLE
105
27
330
A
100
AcDbSymbolTableRecord
100
AcDbDimStyleTableRecord
  2
ISO-25
 70
     0
 41
2.5
 42
0.625
 43
3.75
 44
1.25
 73
     0
 74
     0
 77
     1
 78
     8
140
2.5
141
2.5
143
0.0393700787
147
0.625
171
     3
172
     1
178
     0
271
     2
272
     2
274
     3
278
    44
283
     0
284
     8
340
11
  0
DIMSTYLE
105
19D
102
{ACAD_REACTORS
330
19C
330
1A9
330
1B4
330
1C0
330
1CA
330
1D6
102
}
330
A
100
AcDbSymbolTableRecord
100
AcDbDimStyleTableRecord
  2
SLDDIMSTYLE0
 70
     0
 41
3.0
 44
0.0
 45
0.000000001
 73
     0
 74
     0
 77
     1
 78
    12
 79
     3
140
2.0
147
0.5
173
     1
178
     0
271
     2
272
     3
276
     2
284
    12
340
77
  0
ENDTAB
  0
TABLE
  2
BLOCK_RECORD
  5
1
330
0
100
AcDbSymbolTable
 70
     7
  0
BLOCK_RECORD
  5
1F
330
1
100
AcDbSymbolTableRecord
100
AcDbBlockTableRecord
  2
*Model_Space
340
22
  0
BLOCK_RECORD
  5
1B
330
1
100
AcDbSymbolTableRecord
100
AcDbBlockTableRecord
  2
*Paper_Space
340
1E
  0
BLOCK_RECORD
  5
23
330
1
100
AcDbSymbolTableRecord
100
AcDbBlockTableRecord
  2
*Paper_Space0
340
26
  0
BLOCK_RECORD
  5
19E
330
1
100
AcDbSymbolTableRecord
100
AcDbBlockTableRecord
  2
_D
340
0
  0
BLOCK_RECORD
  5
1AA
330
1
100
AcDbSymbolTableRecord
100
AcDbBlockTableRecord
  2
_D_1
340
0
  0
BLOCK_RECORD
  5
1B5
330
1
100
AcDbSymbolTableRecord
100
AcDbBlockTableRecord
  2
_D_2
340
0
  0
BLOCK_RECORD
  5
1C1
330
1
100
AcDbSymbolTableRecord
100
AcDbBlockTableRecord
  2
_D_3
340
0
  0
BLOCK_RECORD
  5
1CB
330
1
100
AcDbSymbolTableRecord
100
AcDbBlockTableRecord
  2
_D_4
340
0
  0
BLOCK_RECORD
  5
1D7
330
1
100
AcDbSymbolTableRecord
100
AcDbBlockTableRecord
  2
_D_5
340
0
  0
ENDTAB
  0
ENDSEC
  0
SECTION
  2
BLOCKS
  0
BLOCK
  5
20
330
1F
100
AcDbEntity
  8
0
100
AcDbBlockBegin
  2
*Model_Space
 70
     0
 10
0.0
 20
0.0
 30
0.0
  3
*Model_Space
  1

  0
ENDBLK
  5
21
330
1F
100
AcDbEntity
  8
0
100
AcDbBlockEnd
  0
BLOCK
  5
1C
330
1B
100
AcDbEntity
 67
     1
  8
0
100
AcDbBlockBegin
  2
*Paper_Space
 70
     0
 10
0.0
 20
0.0
 30
0.0
  3
*Paper_Space
  1

  0
ENDBLK
  5
1D
330
1B
100
AcDbEntity
 67
     1
  8
0
100
AcDbBlockEnd
  0
BLOCK
  5
24
330
23
100
AcDbEntity
  8
0
100
AcDbBlockBegin
  2
*Paper_Space0
 70
     0
 10
0.0
 20
0.0
 30
0.0
  3
*Paper_Space0
  1

  0
ENDBLK
  5
25
330
23
100
AcDbEntity
  8
0
100
AcDbBlockEnd
  0
BLOCK
  5
19F
330
19E
100
AcDbEntity
  8
0
100
AcDbBlockBegin
  2
_D
 70
     0
 10
0.0
 20
0.0
 30
0.0
  3
_D
  1

  0
SOLID
  5
1A1
330
19E
100
AcDbEntity
  8
VERMASSUNG
100
AcDbTrace
 10
243.7870154472
 20
128.4178422077
 30
0.0
 11
243.3370154472
 21
125.4178422077
 31
0.0
 12
244.2370154472
 22
125.4178422077
 32
0.0
 13
244.2370154472
 23
125.4178422077
 33
0.0
  0
SOLID
  5
1A2
330
19E
100
AcDbEntity
  8
VERMASSUNG
100
AcDbTrace
 10
243.7870154472
 20
96.4178422077
 30
0.0
 11
244.2370154472
 21
99.4178422077
 31
0.0
 12
243.3370154472
 22
99.4178422077
 32
0.0
 13
243.3370154472
 23
99.4178422077
 33
0.0
  0
LINE
  5
1A3
330
19E
100
AcDbEntity
  8
VERMASSUNG
100
AcDbLine
 10
230.5993741756
 20
128.4178422077
 30
0.0
 11
244.7870154472
 21
128.4178422077
 31
0.0
  0
LINE
  5
1A4
330
19E
100
AcDbEntity
  8
VERMASSUNG
100
AcDbLine
 10
230.5993741756
 20
96.4178422077
 30
0.0
 11
244.7870154472
 21
96.4178422077
 31
0.0
  0
LINE
  5
1A5
330
19E
100
AcDbEntity
  8
VERMASSUNG
100
AcDbLine
 10
243.7870154472
 20
128.4178422077
 30
0.0
 11
243.7870154472
 21
96.4178422077
 31
0.0
  0
MTEXT
  5
1A6
330
19E
100
AcDbEntity
  8
VERMASSUNG
100
AcDbMText
 10
241.008880191
 20
106.3139142983
 30
0.0
 40
2.0
 41
0.0
 71
     1
 72
     1
  1
ST3
  7
SLDTEXTSTYLE0
 11
-7.044195017643634E-15
 21
1.0
 31
0.0
 73
     1
 44
1.0
  0
MTEXT
  5
1A7
330
19E
100
AcDbEntity
  8
VERMASSUNG
100
AcDbMText
 10
241.2088801423
 20
112.1139142246
 30
0.0
 40
2.0
 41
0.0
 71
     1
 72
     1
  1
%%c
  7
SLDTEXTSTYLE0
 11
-7.044195017643634E-15
 21
1.0
 31
0.0
 73
     1
 44
1.0
  0
MTEXT
  5
1A8
330
19E
100
AcDbEntity
  8
VERMASSUNG
100
AcDbMText
 10
241.2088798512
 20
115.7223900965
 30
0.0
 40
2.0
 41
0.0
 71
     1
 72
     1
  1
32
  7
SLDTEXTSTYLE0
 11
-7.044195017643634E-15
 21
1.0
 31
0.0
 73
     1
 44
1.0
  0
ENDBLK
  5
1A0
330
19E
100
AcDbEntity
  8
0
100
AcDbBlockEnd
  0
BLOCK
  5
1AB
330
1AA
100
AcDbEntity
  8
0
100
AcDbBlockBegin
  2
_D_1
 70
     0
 10
0.0
 20
0.0
 30
0.0
  3
_D_1
  1

  0
SOLID
  5
1AD
330
1AA
100
AcDbEntity
  8
VERMASSUNG
100
AcDbTrace
 10
237.6870154472
 20
121.4178422077
 30
0.0
 11
237.2370154472
 21
118.4178422077
 31
0.0
 12
238.1370154472
 22
118.4178422077
 32
0.0
 13
238.1370154472
 23
118.4178422077
 33
0.0
  0
SOLID
  5
1AE
330
1AA
100
AcDbEntity
  8
VERMASSUNG
100
AcDbTrace
 10
237.6870154472
 20
103.4178422077
 30
0.0
 11
238.1370154472
 21
106.4178422077
 31
0.0
 12
237.2370154472
 22
106.4178422077
 32
0.0
 13
237.2370154472
 23
106.4178422077
 33
0.0
  0
LINE
  5
1AF
330
1AA
100
AcDbEntity
  8
VERMASSUNG
100
AcDbLine
 10
221.9993741756
 20
121.4178422077
 30
0.0
 11
238.6870154472
 21
121.4178422077
 31
0.0
  0
LINE
  5
1B0
330
1AA
100
AcDbEntity
  8
VERMASSUNG
100
AcDbLine
 10
221.9993741756
 20
103.4178422077
 30
0.0
 11
238.6870154472
 21
103.4178422077
 31
0.0
  0
LINE
  5
1B1
330
1AA
100
AcDbEntity
  8
VERMASSUNG
100
AcDbLine
 10
237.6870154472
 20
121.4178422077
 30
0.0
 11
237.6870154472
 21
103.4178422077
 31
0.0
  0
MTEXT
  5
1B2
330
1AA
100
AcDbEntity
  8
VERMASSUNG
100
AcDbMText
 10
235.1088799094
 20
109.4144096639
 30
0.0
 40
2.0
 41
0.0
 71
     1
 72
     1
  1
%%c
  7
SLDTEXTSTYLE0
 11
-7.044195017643634E-15
 21
1.0
 31
0.0
 73
     1
 44
1.0
  0
MTEXT
  5
1B3
330
1AA
100
AcDbEntity
  8
VERMASSUNG
100
AcDbMText
 10
235.1088798512
 20
113.0233818575
 30
0.0
 40
2.0
 41
0.0
 71
     1
 72
     1
  1
18
  7
SLDTEXTSTYLE0
 11
-7.044195017643634E-15
 21
1.0
 31
0.0
 73
     1
 44
1.0
  0
ENDBLK
  5
1AC
330
1AA
100
AcDbEntity
  8
0
100
AcDbBlockEnd
  0
BLOCK
  5
1B6
330
1B5
100
AcDbEntity
  8
0
100
AcDbBlockBegin
  2
_D_2
 70
     0
 10
0.0
 20
0.0
 30
0.0
  3
_D_2
  1

  0
ARC
  5
1B8
330
1B5
100
AcDbEntity
  8
VERMASSUNG
100
AcDbCircle
 10
218.2108700561
 20
168.0353168188
 30
0.0
 40
4.247059938537284
100
AcDbArc
 50
153.4349488229
 51
206.5650511771
  0
ARC
  5
1B9
330
1B5
100
AcDbEntity
  8
VERMASSUNG
100
AcDbCircle
 10
216.5878782951
 20
168.0353168188
 30
0.0
 40
4.24705993853731
100
AcDbArc
 50
333.4349488229
 51
26.5650511771
  0
SOLID
  5
1BA
330
1B5
100
AcDbEntity
  8
VERMASSUNG
100
AcDbTrace
 10
203.8993741756
 20
166.1359738734
 30
0.0
 11
206.8993741756
 21
165.6859738734
 31
0.0
 12
206.8993741756
 22
166.5859738734
 32
0.0
 13
206.8993741756
 23
166.5859738734
 33
0.0
  0
SOLID
  5
1BB
330
1B5
100
AcDbEntity
  8
VERMASSUNG
100
AcDbTrace
 10
230.8993741756
 20
166.1359738734
 30
0.0
 11
227.8993741756
 21
166.5859738734
 31
0.0
 12
227.8993741756
 22
165.6859738734
 32
0.0
 13
227.8993741756
 23
165.6859738734
 33
0.0
  0
LINE
  5
1BC
330
1B5
100
AcDbEntity
  8
VERMASSUNG
100
AcDbLine
 10
203.8993741756
 20
161.4178422077
 30
0.0
 11
203.8993741756
 21
167.1359738734
 31
0.0
  0
LINE
  5
1BD
330
1B5
100
AcDbEntity
  8
VERMASSUNG
100
AcDbLine
 10
230.8993741756
 20
128.1178422077
 30
0.0
 11
230.8993741756
 21
167.1359738734
 31
0.0
  0
LINE
  5
1BE
330
1B5
100
AcDbEntity
  8
VERMASSUNG
100
AcDbLine
 10
203.8993741756
 20
166.1359738734
 30
0.0
 11
230.8993741756
 21
166.1359738734
 31
0.0
  0
MTEXT
  5
1BF
330
1B5
100
AcDbEntity
  8
VERMASSUNG
100
AcDbMText
 10
215.9996841653
 20
168.7141094694
 30
0.0
 40
2.0
 41
0.0
 71
     1
 72
     1
  1
27
  7
SLDTEXTSTYLE0
 73
     1
 44
1.0
  0
ENDBLK
  5
1B7
330
1B5
100
AcDbEntity
  8
0
100
AcDbBlockEnd
  0
BLOCK
  5
1C2
330
1C1
100
AcDbEntity
  8
0
100
AcDbBlockBegin
  2
_D_3
 70
     0
 10
0.0
 20
0.0
 30
0.0
  3
_D_3
  1

  0
SOLID
  5
1C4
330
1C1
100
AcDbEntity
  8
VERMASSUNG
100
AcDbTrace
 10
165.8993741756
 20
172.1359738734
 30
0.0
 11
168.8993741756
 21
171.6859738734
 31
0.0
 12
168.8993741756
 22
172.5859738734
 32
0.0
 13
168.8993741756
 23
172.5859738734
 33
0.0
  0
SOLID
  5
1C5
330
1C1
100
AcDbEntity
  8
VERMASSUNG
100
AcDbTrace
 10
230.8993741756
 20
172.1359738734
 30
0.0
 11
227.8993741756
 21
172.5859738734
 31
0.0
 12
227.8993741756
 22
171.6859738734
 32
0.0
 13
227.8993741756
 23
171.6859738734
 33
0.0
  0
LINE
  5
1C6
330
1C1
100
AcDbEntity
  8
VERMASSUNG
100
AcDbLine
 10
165.8993741756
 20
147.3428422077
 30
0.0
 11
165.8993741756
 21
173.1359738734
 31
0.0
  0
LINE
  5
1C7
330
1C1
100
AcDbEntity
  8
VERMASSUNG
100
AcDbLine
 10
230.8993741756
 20
128.1178422077
 30
0.0
 11
230.8993741756
 21
173.1359738734
 31
0.0
  0
LINE
  5
1C8
330
1C1
100
AcDbEntity
  8
VERMASSUNG
100
AcDbLine
 10
165.8993741756
 20
172.1359738734
 30
0.0
 11
230.8993741756
 21
172.1359738734
 31
0.0
  0
MTEXT
  5
1C9
330
1C1
100
AcDbEntity
  8
VERMASSUNG
100
AcDbMText
 10
196.9996841653
 20
174.7141094694
 30
0.0
 40
2.0
 41
0.0
 71
     1
 72
     1
  1
65
  7
SLDTEXTSTYLE0
 73
     1
 44
1.0
  0
ENDBLK
  5
1C3
330
1C1
100
AcDbEntity
  8
0
100
AcDbBlockEnd
  0
BLOCK
  5
1CC
330
1CB
100
AcDbEntity
  8
0
100
AcDbBlockBegin
  2
_D_4
 70
     0
 10
0.0
 20
0.0
 30
0.0
  3
_D_4
  1

  0
ARC
  5
1CE
330
1CB
100
AcDbEntity
  8
VERMASSUNG
100
AcDbCircle
 10
146.8108082642
 20
180.0353168188
 30
0.0
 40
4.247059938537323
100
AcDbArc
 50
153.4349488229
 51
206.5650511771
  0
ARC
  5
1CF
330
1CB
100
AcDbEntity
  8
VERMASSUNG
100
AcDbCircle
 10
148.187940087
 20
180.0353168188
 30
0.0
 40
4.247059938537297
100
AcDbArc
 50
333.4349488229
 51
26.5650511771
  0
SOLID
  5
1D0
330
1CB
100
AcDbEntity
  8
VERMASSUNG
100
AcDbTrace
 10
64.0993741756
 20
178.1359738734
 30
0.0
 11
67.0993741756
 21
177.6859738734
 31
0.0
 12
67.0993741756
 22
178.5859738734
 32
0.0
 13
67.0993741756
 23
178.5859738734
 33
0.0
  0
SOLID
  5
1D1
330
1CB
100
AcDbEntity
  8
VERMASSUNG
100
AcDbTrace
 10
230.8993741756
 20
178.1359738734
 30
0.0
 11
227.8993741756
 21
178.5859738734
 31
0.0
 12
227.8993741756
 22
177.6859738734
 32
0.0
 13
227.8993741756
 23
177.6859738734
 33
0.0
  0
LINE
  5
1D2
330
1CB
100
AcDbEntity
  8
VERMASSUNG
100
AcDbLine
 10
64.0993741756
 20
130.7675200684
 30
0.0
 11
64.0993741756
 21
179.1359738734
 31
0.0
  0
LINE
  5
1D3
330
1CB
100
AcDbEntity
  8
VERMASSUNG
100
AcDbLine
 10
230.8993741756
 20
128.1178422077
 30
0.0
 11
230.8993741756
 21
179.1359738734
 31
0.0
  0
LINE
  5
1D4
330
1CB
100
AcDbEntity
  8
VERMASSUNG
100
AcDbLine
 10
64.0993741756
 20
178.1359738734
 30
0.0
 11
230.8993741756
 21
178.1359738734
 31
0.0
  0
MTEXT
  5
1D5
330
1CB
100
AcDbEntity
  8
VERMASSUNG
100
AcDbMText
 10
144.5996223733
 20
180.7141094694
 30
0.0
 40
2.0
 41
0.0
 71
     1
 72
     1
  1
166.8
  7
SLDTEXTSTYLE0
 73
     1
 44
1.0
  0
ENDBLK
  5
1CD
330
1CB
100
AcDbEntity
  8
0
100
AcDbBlockEnd
  0
BLOCK
  5
1D8
330
1D7
100
AcDbEntity
  8
0
100
AcDbBlockBegin
  2
_D_5
 70
     0
 10
0.0
 20
0.0
 30
0.0
  3
_D_5
  1

  0
SOLID
  5
1DA
330
1D7
100
AcDbEntity
  8
VERMASSUNG
100
AcDbTrace
 10
57.9385932995
 20
162.4178422077
 30
0.0
 11
57.4885932995
 21
159.4178422077
 31
0.0
 12
58.3885932995
 22
159.4178422077
 32
0.0
 13
58.3885932995
 23
159.4178422077
 33
0.0
  0
SOLID
  5
1DB
330
1D7
100
AcDbEntity
  8
VERMASSUNG
100
AcDbTrace
 10
57.9385932995
 20
62.4178422077
 30
0.0
 11
58.3885932995
 21
65.4178422077
 31
0.0
 12
57.4885932995
 22
65.4178422077
 32
0.0
 13
57.4885932995
 23
65.4178422077
 33
0.0
  0
LINE
  5
1DC
330
1D7
100
AcDbEntity
  8
VERMASSUNG
100
AcDbLine
 10
199.8993760841
 20
162.4178422077
 30
0.0
 11
56.9385932995
 21
162.4178422077
 31
0.0
  0
LINE
  5
1DD
330
1D7
100
AcDbEntity
  8
VERMASSUNG
100
AcDbLine
 10
199.8993762377
 20
62.4178422077
 30
0.0
 11
56.9385932995
 21
62.4178422077
 31
0.0
  0
LINE
  5
1DE
330
1D7
100
AcDbEntity
  8
VERMASSUNG
100
AcDbLine
 10
57.9385932995
 20
162.4178422077
 30
0.0
 11
57.9385932995
 21
62.4178422077
 31
0.0
  0
MTEXT
  5
1DF
330
1D7
100
AcDbEntity
  8
VERMASSUNG
100
AcDbMText
 10
55.1604580433
 20
101.3140759873
 30
0.0
 40
2.0
 41
0.0
 71
     1
 72
     1
  1
MAS BT 50
  7
SLDTEXTSTYLE0
 11
-7.044195017643634E-15
 21
1.0
 31
0.0
 73
     1
 44
1.0
  0
MTEXT
  5
1E0
330
1D7
100
AcDbEntity
  8
VERMASSUNG
100
AcDbMText
 10
55.3604579946
 20
116.1140759918
 30
0.0
 40
2.0
 41
0.0
 71
     1
 72
     1
  1
%%c
  7
SLDTEXTSTYLE0
 11
-7.044195017643634E-15
 21
1.0
 31
0.0
 73
     1
 44
1.0
  0
MTEXT
  5
1E1
330
1D7
100
AcDbEntity
  8
VERMASSUNG
100
AcDbMText
 10
55.3604577035
 20
119.7229225372
 30
0.0
 40
2.0
 41
0.0
 71
     1
 72
     1
  1
100
  7
SLDTEXTSTYLE0
 11
-7.044195017643634E-15
 21
1.0
 31
0.0
 73
     1
 44
1.0
  0
ENDBLK
  5
1D9
330
1D7
100
AcDbEntity
  8
0
100
AcDbBlockEnd
  0
ENDSEC
  0
SECTION
  2
ENTITIES
  0
MTEXT
  5
78
330
1F
100
AcDbEntity
  8
KOPF_DÜNN
100
AcDbMText
 10
13.8892156294
 20
23.8442973028
 30
0.0
 40
3.0
 41
0.0
 71
     1
 72
     1
  1
134.650.032.065
  7
SLDTEXTSTYLE0
 73
     1
 44
1.0
  0
MTEXT
  5
79
330
1F
100
AcDbEntity
  8
VERMASSUNG
100
AcDbMText
 10
13.9329988022
 20
28.8834360957
 30
0.0
 40
3.0
 41
0.0
 71
     1
 72
     1
  1
Aufnahme_Master shank ST3
  7
SLDTEXTSTYLE0
 73
     1
 44
1.0
  0
MTEXT
  5
7A
330
1F
100
AcDbEntity
  8
VERMASSUNG
100
AcDbMText
 10
98.8601118557
 20
13.8365368761
 30
0.0
 40
2.0
 41
0.0
 71
     1
 72
     1
  1
Datum: 06.06.2008
  7
SLDTEXTSTYLE0
 73
     1
 44
1.0
  0
MTEXT
  5
7C
330
1F
100
AcDbEntity
  8
VERMASSUNG
100
AcDbMText
 10
13.933048693
 20
18.0482802738
 30
0.0
 40
2.0
 41
0.0
 71
     1
 72
     1
  1
MAS BT 50 B
  7
SLDTEXTSTYLE1
 73
     1
 44
1.0
  0
MTEXT
  5
7D
330
1F
100
AcDbEntity
  8
VERMASSUNG
100
AcDbMText
 10
13.9808475933
 20
13.9090974274
 30
0.0
 40
2.0
 41
0.0
 71
     1
 72
     1
  1
Gewicht: 3781g
  7
SLDTEXTSTYLE0
 73
     1
 44
1.0
  0
LINE
  5
7E
330
1F
100
AcDbEntity
  8
0
  6
Continuous
 62
     7
370
    15
100
AcDbLine
 10
199.8990869489
 20
62.4178422077
 30
0.0
 11
202.8993741756
 21
62.4178422077
 31
0.0
  0
LINE
  5
7F
330
1F
100
AcDbEntity
  8
0
  6
Continuous
 62
     7
370
    15
100
AcDbLine
 10
202.8993741756
 20
162.4178422077
 30
0.0
 11
199.8989399947
 21
162.4178422077
 31
0.0
  0
ARC
  5
80
330
1F
100
AcDbEntity
  8
0
  6
Continuous
 62
     7
370
    15
100
AcDbCircle
 10
202.8993741756
 20
63.4178422077
 30
0.0
 40
1.0
100
AcDbArc
 50
270.0
 51
0.0
  0
ARC
  5
81
330
1F
100
AcDbEntity
  8
0
  6
Continuous
 62
     7
370
    15
100
AcDbCircle
 10
202.8993741756
 20
161.4178422077
 30
0.0
 40
1.0
100
AcDbArc
 50
0.0
 51
90.0
  0
ARC
  5
82
330
1F
100
AcDbEntity
  8
0
  6
Continuous
 62
     7
370
    15
100
AcDbCircle
 10
167.8993741756
 20
76.4928422077
 30
0.0
 40
1.000000000000008
100
AcDbArc
 50
38.7224075187
 51
90.0
  0
ARC
  5
83
330
1F
100
AcDbEntity
  8
0
  6
Continuous
 62
     7
370
    15
100
AcDbCircle
 10
167.8993741756
 20
148.3428422077
 30
0.0
 40
1.000000000000001
100
AcDbArc
 50
270.0
 51
321.2903429194
  0
LINE
  5
84
330
1F
100
AcDbEntity
  8
0
  6
Continuous
 62
     7
370
    15
100
AcDbLine
 10
165.8993741756
 20
77.4928422077
 30
0.0
 11
167.8993741756
 21
77.4928422077
 31
0.0
  0
LINE
  5
85
330
1F
100
AcDbEntity
  8
0
  6
Continuous
 62
     7
370
    15
100
AcDbLine
 10
167.8993741756
 20
147.3428422077
 30
0.0
 11
165.8993741756
 21
147.3428422077
 31
0.0
  0
LINE
  5
86
330
1F
100
AcDbEntity
  8
0
  6
Continuous
 62
     7
370
    15
100
AcDbLine
 10
165.8993741756
 20
147.3428422077
 30
0.0
 11
65.8107603894
 21
132.7465860305
 31
0.0
  0
LINE
  5
87
330
1F
100
AcDbEntity
  8
0
  6
Continuous
 62
     7
370
    15
100
AcDbLine
 10
65.8107603894
 20
92.0890983848
 30
0.0
 11
165.8993741756
 21
77.4928422077
 31
0.0
  0
ARC
  5
88
330
1F
100
AcDbEntity
  8
0
  6
Continuous
 62
     7
370
    15
100
AcDbCircle
 10
66.0993741756
 20
94.068164347
 30
0.0
 40
2.0
100
AcDbArc
 50
180.0
 51
261.7028550302
  0
ARC
  5
89
330
1F
100
AcDbEntity
  8
0
  6
Continuous
 62
     7
370
    15
100
AcDbCircle
 10
66.0993741756
 20
130.7675200684
 30
0.0
 40
2.0
100
AcDbArc
 50
98.2971449698
 51
180.0
  0
ARC
  5
8A
330
1F
100
AcDbEntity
  8
0
  6
Continuous
 62
     7
370
    15
100
AcDbCircle
 10
207.8993741756
 20
92.4178422077
 30
0.0
 40
4.0
100
AcDbArc
 50
90.0
 51
180.0
  0
ARC
  5
8B
330
1F
100
AcDbEntity
  8
0
  6
Continuous
 62
     7
370
    15
100
AcDbCircle
 10
207.8993741756
 20
132.4178422077
 30
0.0
 40
4.0
100
AcDbArc
 50
180.0
 51
270.0
  0
LINE
  5
8C
330
1F
100
AcDbEntity
  8
0
  6
Continuous
 62
     7
370
    15
100
AcDbLine
 10
230.5993741756
 20
128.4178422077
 30
0.0
 11
207.8993741756
 21
128.4178422077
 31
0.0
  0
LINE
  5
8D
330
1F
100
AcDbEntity
  8
0
  6
Continuous
 62
     7
370
    15
100
AcDbLine
 10
207.8993741756
 20
96.4178422077
 30
0.0
 11
230.5993741756
 21
96.4178422077
 31
0.0
  0
LINE
  5
8E
330
1F
100
AcDbEntity
  8
0
  6
Continuous
 62
     7
370
    15
100
AcDbLine
 10
230.5993741756
 20
96.4178422077
 30
0.0
 11
230.8993741756
 21
96.7178422077
 31
0.0
  0
LINE
  5
8F
330
1F
100
AcDbEntity
  8
0
  6
Continuous
 62
     7
370
    15
100
AcDbLine
 10
230.8993741756
 20
128.1178422077
 30
0.0
 11
230.5993741756
 21
128.4178422077
 31
0.0
  0
SPLINE
  5
90
330
1F
100
AcDbEntity
  8
0
  6
Continuous
 62
     7
370
    15
100
AcDbSpline
210
0.0
220
0.0
230
1.0
 70
    24
 71
     3
 72
    11
 73
     7
 74
     0
 42
0.000000001
 43
0.00000001
 40
0.0
 40
0.0
 40
0.0
 40
0.0
 40
0.1183358584681352
 40
0.4755396850857991
 40
0.814170887248718
 40
1.0
 40
1.0
 40
1.0
 40
1.0
 10
223.4812994352744
 20
110.8051827686921
 30
0.0
 10
223.4178717576123
 20
110.8147777116706
 30
0.0
 10
223.1629838626701
 20
110.8533355606729
 30
0.0
 10
222.6813782372228
 20
110.9261898521208
 30
0.0
 10
222.1515499143122
 20
111.006338972096
 30
0.0
 10
221.8688871073054
 20
111.0490984363445
 30
0.0
 10
221.7687327636112
 20
111.0642491600066
 30
0.0
  0
SPLINE
  5
91
330
1F
100
AcDbEntity
  8
0
  6
Continuous
 62
     7
370
    15
100
AcDbSpline
210
0.0
220
0.0
230
1.0
 70
    24
 71
     3
 72
    10
 73
     6
 74
     0
 42
0.000000001
 43
0.00000001
 40
0.0
 40
0.0
 40
0.0
 40
0.0
 40
0.4391165375904145
 40
0.7513669429073413
 40
1.0
 40
1.0
 40
1.0
 40
1.0
 10
224.561940847251
 20
112.1587758163698
 30
0.0
 10
224.4072386982282
 20
111.9649985364532
 30
0.0
 10
224.1425297409882
 20
111.6334286001107
 30
0.0
 10
223.7577285187006
 20
111.1514331357007
 30
0.0
 10
223.5662012333549
 20
110.9115293165325
 30
0.0
 10
223.4812994352744
 20
110.8051827686921
 30
0.0
  0
SPLINE
  5
92
330
1F
100
AcDbEntity
  8
0
  6
Continuous
 62
     7
370
    15
100
AcDbSpline
210
0.0
220
0.0
230
1.0
 70
    24
 71
     3
 72
    10
 73
     6
 74
     0
 42
0.000000001
 43
0.00000001
 40
0.0
 40
0.0
 40
0.0
 40
0.0
 40
0.4391165375904145
 40
0.75136694290735
 40
0.9999999999999999
 40
0.9999999999999999
 40
0.9999999999999999
 40
0.9999999999999999
 10
223.9300155875645
 20
113.7714352553618
 30
0.0
 10
224.0204805601371
 20
113.5405706243298
 30
0.0
 10
224.1752740695209
 20
113.1455409745793
 30
0.0
 10
224.400293775065
 20
112.5712956084659
 30
0.0
 10
224.5122929342567
 20
112.2854762042546
 30
0.0
 10
224.561940847251
 20
112.1587758163698
 30
0.0
  0
SPLINE
  5
93
330
1F
100
AcDbEntity
  8
0
  6
Continuous
 62
     7
370
    15
100
AcDbSpline
210
0.0
220
0.0
230
1.0
 70
    24
 71
     3
 72
    11
 73
     7
 74
     0
 42
0.000000001
 43
0.00000001
 40
0.0
 40
0.0
 40
0.0
 40
0.0
 40
0.1858291127512951
 40
0.5244603149142002
 40
0.8816641415318811
 40
1.0
 40
1.0
 40
1.0
 40
1.0
 10
222.2174489159014
 20
114.0305016466763
 30
0.0
 10
222.3176032595956
 20
114.0153509230141
 30
0.0
 10
222.6002660666024
 20
113.9725914587657
 30
0.0
 10
223.130094389513
 20
113.8924423387905
 30
0.0
 10
223.6117000149603
 20
113.8195880473426
 30
0.0
 10
223.8665879099025
 20
113.7810301983402
 30
0.0
 10
223.9300155875645
 20
113.7714352553618
 30
0.0
  0
SPLINE
  5
94
330
1F
100
AcDbEntity
  8
0
  6
Continuous
 62
     7
370
    15
100
AcDbSpline
210
0.0
220
0.0
230
1.0
 70
    24
 71
     3
 72
    10
 73
     6
 74
     0
 42
0.000000001
 43
0.00000001
 40
0.0
 40
0.0
 40
0.0
 40
0.0
 40
0.4391165375904172
 40
0.7513669429073441
 40
1.0
 40
1.0
 40
1.0
 40
1.0
 10
221.7687327636112
 20
111.0642491600066
 30
0.0
 10
221.6782677910386
 20
111.2951137910386
 30
0.0
 10
221.5234742816549
 20
111.690143440789
 30
0.0
 10
221.2984545761108
 20
112.2643888069025
 30
0.0
 10
221.1864554169191
 20
112.5502082111138
 30
0.0
 10
221.1368075039248
 20
112.6769085989986
 30
0.0
  0
CIRCLE
  5
95
330
1F
100
AcDbEntity
  8
0
  6
Continuous
 62
     7
370
    15
100
AcDbCircle
 10
222.8493741756
 20
112.4178422077
 30
0.0
 40
1.89999999999999
  0
SPLINE
  5
96
330
1F
100
AcDbEntity
  8
0
  6
Continuous
 62
     7
370
    15
100
AcDbSpline
210
0.0
220
0.0
230
1.0
 70
    24
 71
     3
 72
    10
 73
     6
 74
     0
 42
0.000000001
 43
0.00000001
 40
0.0
 40
0.0
 40
0.0
 40
0.0
 40
0.4391165375904137
 40
0.7513669429073365
 40
1.0
 40
1.0
 40
1.0
 40
1.0
 10
221.1368075039248
 20
112.6769085989986
 30
0.0
 10
221.2915096529476
 20
112.8706858789152
 30
0.0
 10
221.5562186101876
 20
113.2022558152576
 30
0.0
 10
221.9410198324752
 20
113.6842512796677
 30
0.0
 10
222.132547117821
 20
113.9241550988359
 30
0.0
 10
222.2174489159014
 20
114.0305016466763
 30
0.0
  0
CIRCLE
  5
97
330
1F
100
AcDbEntity
  8
0
  6
Continuous
 62
     7
370
    15
100
AcDbCircle
 10
222.8493741756
 20
112.4178422077
 30
0.0
 40
2.600000000000005
  0
CIRCLE
  5
98
330
1F
100
AcDbEntity
  8
0
  6
Continuous
 62
     7
370
    15
100
AcDbCircle
 10
222.8493741756
 20
112.4178422077
 30
0.0
 40
2.999999999999991
  0
ARC
  5
99
330
1F
100
AcDbEntity
  8
0
  6
Continuous
 62
     7
370
    15
100
AcDbCircle
 10
222.8493741756
 20
112.4178422077
 30
0.0
 40
1.500000000000019
100
AcDbArc
 50
141.3978729033
 51
201.3978729033
  0
ARC
  5
9A
330
1F
100
AcDbEntity
  8
0
  6
Continuous
 62
     7
370
    15
100
AcDbCircle
 10
222.8493741756
 20
112.4178422077
 30
0.0
 40
1.499999999999995
100
AcDbArc
 50
321.3978729033
 51
21.3978729033
  0
ARC
  5
9B
330
1F
100
AcDbEntity
  8
0
  6
Continuous
 62
     7
370
    15
100
AcDbCircle
 10
222.8493741756
 20
112.4178422077
 30
0.0
 40
1.5
100
AcDbArc
 50
261.3978729033
 51
321.3978729033
  0
ARC
  5
9C
330
1F
100
AcDbEntity
  8
0
  6
Continuous
 62
     7
370
    15
100
AcDbCircle
 10
222.8493741756
 20
112.4178422077
 30
0.0
 40
1.500000000000016
100
AcDbArc
 50
201.3978729033
 51
261.3978729033
  0
ARC
  5
9D
330
1F
100
AcDbEntity
  8
0
  6
Continuous
 62
     7
370
    15
100
AcDbCircle
 10
222.8493741756
 20
112.4178422077
 30
0.0
 40
1.500000000000019
100
AcDbArc
 50
81.3978729033
 51
141.3978729033
  0
ARC
  5
9E
330
1F
100
AcDbEntity
  8
0
  6
Continuous
 62
     7
370
    15
100
AcDbCircle
 10
222.8493741756
 20
112.4178422077
 30
0.0
 40
1.500000000000009
100
AcDbArc
 50
21.3978729033
 51
81.3978729033
  0
SPLINE
  5
9F
330
1F
100
AcDbEntity
  8
0
  6
Continuous
 62
     7
370
    15
100
AcDbSpline
210
0.0
220
0.0
230
1.0
 70
     8
 71
     3
 72
    12
 73
     8
 74
     0
 42
0.000000001
 43
0.00000001
 40
0.0
 40
0.0
 40
0.0
 40
0.0
 40
0.5000000000000001
 40
0.5000000000000001
 40
0.75
 40
0.75
 40
1.0
 40
1.0
 40
1.0
 40
1.0
 10
195.9836538404313
 20
160.6238891593852
 30
0.0
 10
195.4447571453338
 20
159.5661893418841
 30
0.0
 10
194.8824263346141
 20
158.4638209069255
 30
0.0
 10
194.0137600920237
 20
156.7638563005627
 30
0.0
 10
193.7194313696812
 20
156.1883378851241
 30
0.0
 10
193.1259003707134
 20
155.0289092166656
 30
0.0
 10
192.8266741125949
 20
154.4449495475843
 30
0.0
 10
192.5251872643416
 20
153.8572395869955
 30
0.0
  0
SPLINE
  5
A0
330
1F
100
AcDbEntity
  8
0
  6
Continuous
 62
     7
370
    15
100
AcDbSpline
210
0.0
220
0.0
230
1.0
 70
     8
 71
     3
 72
     9
 73
     5
 74
     0
 42
0.000000001
 43
0.00000001
 40
0.0
 40
0.0
 40
0.0
 40
0.0
 40
0.504794330390352
 40
1.0
 40
1.0
 40
1.0
 40
1.0
 10
196.624350581
 20
161.5779474577716
 30
0.0
 10
196.5159681464993
 20
161.4171058964823
 30
0.0
 10
196.3012620216962
 20
161.0984779888256
 30
0.0
 10
196.0888345928846
 20
160.7811037622378
 30
0.0
 10
195.9836393257566
 20
160.6239382458435
 30
0.0
  0
LINE
  5
A1
330
1F
100
AcDbEntity
  8
0
  6
Continuous
 62
     7
370
    15
100
AcDbLine
 10
196.6243741756
 20
63.2576809224
 30
0.0
 11
196.6243741756
 21
161.578003493
 31
0.0
  0
SPLINE
  5
A2
330
1F
100
AcDbEntity
  8
0
  6
Continuous
 62
     7
370
    15
100
AcDbSpline
210
0.0
220
0.0
230
1.0
 70
     8
 71
     3
 72
     9
 73
     5
 74
     0
 42
0.000000001
 43
0.00000001
 40
0.0
 40
0.0
 40
0.0
 40
0.0
 40
0.4952056715554214
 40
1.0
 40
1.0
 40
1.0
 40
1.0
 10
195.9836393257566
 20
64.21174616952479
 30
0.0
 10
196.0888345933015
 20
64.05458065250646
 30
0.0
 10
196.30126202212
 20
63.73720642590547
 30
0.0
 10
196.5159681469191
 20
63.41857851826023
 30
0.0
 10
196.624350581
 20
63.25773695759676
 30
0.0
  0
SPLINE
  5
A3
330
1F
100
AcDbEntity
  8
0
  6
Continuous
 62
     7
370
    15
100
AcDbSpline
210
0.0
220
0.0
230
1.0
 70
     8
 71
     3
 72
    12
 73
     8
 74
     0
 42
0.000000001
 43
0.00000001
 40
0.0
 40
0.0
 40
0.0
 40
0.0
 40
0.2499999999999993
 40
0.2499999999999993
 40
0.4999999999999986
 40
0.4999999999999986
 40
1.0
 40
1.0
 40
1.0
 40
1.0
 10
195.9836538081924
 20
64.21179531925897
 30
0.0
 10
195.7143162868236
 20
64.74042770794361
 30
0.0
 10
195.4385461694295
 20
65.28135236189031
 30
0.0
 10
194.8762858828238
 20
66.38340911625338
 30
0.0
 10
194.5892005094191
 20
66.94570595549018
 30
0.0
 10
193.7187740686998
 20
68.64910119081017
 30
0.0
 10
193.1267640725305
 20
69.80574796189227
 30
0.0
 10
192.5251872643416
 20
70.97844482837291
 30
0.0
  0
SPLINE
  5
A4
330
1F
100
AcDbEntity
  8
0
  6
Continuous
 62
     7
370
    15
100
AcDbSpline
210
0.0
220
0.0
230
1.0
 70
     8
 71
     3
 72
    12
 73
     8
 74
     0
 42
0.000000001
 43
0.00000001
 40
0.0
 40
0.0
 40
0.0
 40
0.0
 40
0.000512515335492
 40
0.2509311781568301
 40
0.5009716914398246
 40
0.7506335204405247
 40
1.0
 40
1.0
 40
1.0
 40
1.0
 10
199.8989399946578
 20
162.4177171655006
 30
0.0
 10
199.8990844513446
 20
162.4177588388179
 30
0.0
 10
199.9698114796387
 20
162.4381623934069
 30
0.0
 10
199.7265479193822
 20
162.3665507620181
 30
0.0
 10
199.1210233051503
 20
162.1981975535473
 30
0.0
 10
198.0958596207271
 20
161.9208639630905
 30
0.0
 10
197.1146757535053
 20
161.6922452137666
 30
0.0
 10
196.6243741762749
 20
161.578003493002
 30
0.0
  0
SPLINE
  5
A5
330
1F
100
AcDbEntity
  8
0
  6
Continuous
 62
     7
370
    15
100
AcDbSpline
210
0.0
220
0.0
230
1.0
 70
     8
 71
     3
 72
    13
 73
     9
 74
     0
 42
0.000000001
 43
0.00000001
 40
0.0
 40
0.0
 40
0.0
 40
0.0
 40
0.249249238042121
 40
0.4988437701386194
 40
0.6658825660857411
 40
0.8320256711231946
 40
0.9994886337290221
 40
0.9999999999999999
 40
0.9999999999999999
 40
0.9999999999999999
 40
0.9999999999999999
 10
196.6243741762749
 20
63.25768092236638
 30
0.0
 10
197.1155588996946
 20
63.14319339867641
 30
0.0
 10
198.0986088026345
 20
62.91405974755693
 30
0.0
 10
198.9976522274447
 20
62.67084999640671
 30
0.0
 10
199.5559771281302
 20
62.51691278902133
 30
0.0
 10
199.8216483528394
 20
62.44065923017106
 30
0.0
 10
199.9305425988552
 20
62.40874504584855
 30
0.0
 10
199.8991824190369
 20
62.41789795979145
 30
0.0
 10
199.899086948864
 20
62.41792582411753
 30
0.0
  0
LINE
  5
A6
330
1F
100
AcDbEntity
  8
0
  6
Continuous
 62
     7
370
    15
100
AcDbLine
 10
203.8993741756
 20
63.4178422077
 30
0.0
 11
203.8993741756
 21
161.4178422077
 31
0.0
  0
LINE
  5
A7
330
1F
100
AcDbEntity
  8
0
  6
Continuous
 62
     7
370
    15
100
AcDbLine
 10
168.8993741756
 20
65.4159539477
 30
0.0
 11
168.8993741756
 21
159.4197304676
 31
0.0
  0
SPLINE
  5
A8
330
1F
100
AcDbEntity
  8
0
  6
Continuous
 62
     7
370
    15
100
AcDbSpline
210
0.0
220
0.0
230
1.0
 70
     8
 71
     3
 72
    12
 73
     8
 74
     0
 42
0.000000001
 43
0.00000001
 40
0.0
 40
0.0
 40
0.0
 40
0.0
 40
0.2500000000000004
 40
0.2500000000000004
 40
0.5000000000000009
 40
0.5000000000000009
 40
1.0
 40
1.0
 40
1.0
 40
1.0
 10
169.2855105956376
 20
160.3522759415555
 30
0.0
 10
169.2338804735279
 20
160.2960716708408
 30
0.0
 10
169.1853482405374
 20
160.2347822603204
 30
0.0
 10
169.0955231035796
 20
160.1003201862757
 30
0.0
 10
169.0538128303671
 20
160.0262011160329
 30
0.0
 10
168.947681450205
 20
159.7898934708644
 30
0.0
 10
168.8993741755879
 20
159.6080699282145
 30
0.0
 10
168.8993741755879
 20
159.4197304676254
 30
0.0
  0
SPLINE
  5
A9
330
1F
100
AcDbEntity
  8
0
  6
Continuous
 62
     7
370
    15
100
AcDbSpline
210
0.0
220
0.0
230
1.0
 70
     8
 71
     3
 72
     8
 73
     4
 74
     0
 42
0.000000001
 43
0.00000001
 40
0.0
 40
0.0
 40
0.0
 40
0.0
 40
1.0
 40
1.0
 40
1.0
 40
1.0
 10
169.8993741755879
 20
160.5229337031486
 30
0.0
 10
169.6724799318881
 20
160.5229337031486
 30
0.0
 10
169.4546302859617
 20
160.4589215361797
 30
0.0
 10
169.2855105956376
 20
160.3522759415555
 30
0.0
  0
SPLINE
  5
AA
330
1F
100
AcDbEntity
  8
0
  6
Continuous
 62
     7
370
    15
100
AcDbSpline
210
0.0
220
0.0
230
1.0
 70
     8
 71
     3
 72
    10
 73
     6
 74
     0
 42
0.000000001
 43
0.00000001
 40
0.0
 40
0.0
 40
0.0
 40
0.0
 40
0.5
 40
0.5
 40
1.0
 40
1.0
 40
1.0
 40
1.0
 10
169.2855105956376
 20
64.48340847381294
 30
0.0
 10
169.3701212363684
 20
64.43005364520025
 30
0.0
 10
169.4653558584749
 20
64.38748418325005
 30
0.0
 10
169.6753932176548
 20
64.32820184856908
 30
0.0
 10
169.785825122439
 20
64.31275071221984
 30
0.0
 10
169.8993741755879
 20
64.31275071221984
 30
0.0
  0
SPLINE
  5
AB
330
1F
100
AcDbEntity
  8
0
  6
Continuous
 62
     7
370
    15
100
AcDbSpline
210
0.0
220
0.0
230
1.0
 70
     8
 71
     3
 72
    12
 73
     8
 74
     0
 42
0.000000001
 43
0.00000001
 40
0.0
 40
0.0
 40
0.0
 40
0.0
 40
0.2500000000000039
 40
0.2500000000000039
 40
0.5000000000000079
 40
0.5000000000000079
 40
1.0
 40
1.0
 40
1.0
 40
1.0
 10
169.2855105956376
 20
64.48340847381294
 30
0.0
 10
169.2338804735279
 20
64.53961274452757
 30
0.0
 10
169.1853482405374
 20
64.60090215504799
 30
0.0
 10
169.0955231035795
 20
64.73536422909268
 30
0.0
 10
169.0538128303671
 20
64.8094832993355
 30
0.0
 10
168.947681450205
 20
65.04579094450396
 30
0.0
 10
168.8993741755879
 20
65.22761448715386
 30
0.0
 10
168.8993741755879
 20
65.41595394774296
 30
0.0
  0
LINE
  5
AC
330
1F
100
AcDbEntity
  8
0
  6
Continuous
 62
     7
370
    15
100
AcDbLine
 10
181.5743741756
 20
160.5229337031
 30
0.0
 11
169.8993741756
 21
160.5229337031
 31
0.0
  0
LINE
  5
AD
330
1F
100
AcDbEntity
  8
0
  6
Continuous
 62
     7
370
    15
100
AcDbLine
 10
181.5743741756
 20
64.3127507122
 30
0.0
 11
181.5743741756
 21
160.5229337031
 31
0.0
  0
LINE
  5
AE
330
1F
100
AcDbEntity
  8
0
  6
Continuous
 62
     7
370
    15
100
AcDbLine
 10
169.8993741756
 20
64.3127507122
 30
0.0
 11
181.5743741756
 21
64.3127507122
 31
0.0
  0
SPLINE
  5
AF
330
1F
100
AcDbEntity
  8
0
  6
Continuous
 62
     7
370
    15
100
AcDbSpline
210
0.0
220
0.0
230
1.0
 70
     8
 71
     3
 72
     8
 73
     4
 74
     0
 42
0.000000001
 43
0.00000001
 40
0.0
 40
0.0
 40
0.0
 40
0.0
 40
0.0012417047560384
 40
0.0012417047560384
 40
0.0012417047560384
 40
0.0012417047560384
 10
182.1319432121156
 20
159.7384123616052
 30
0.0
 10
181.9465546608212
 20
160.0000854471537
 30
0.0
 10
181.7606884152133
 20
160.2615895560313
 30
0.0
 10
181.5743741755879
 20
160.5229337031486
 30
0.0
  0
SPLINE
  5
B0
330
1F
100
AcDbEntity
  8
0
  6
Continuous
 62
     7
370
    15
100
AcDbSpline
210
0.0
220
0.0
230
1.0
 70
     8
 71
     3
 72
     8
 73
     4
 74
     0
 42
0.000000001
 43
0.00000001
 40
0.0
 40
0.0
 40
0.0
 40
0.0
 40
1.0
 40
1.0
 40
1.0
 40
1.0
 10
185.6735610868342
 20
153.3481182878672
 30
0.0
 10
184.4985736109313
 20
155.4811950428031
 30
0.0
 10
183.317327076835
 20
157.6109136086793
 30
0.0
 10
182.1319432121156
 20
159.7384123616052
 30
0.0
  0
SPLINE
  5
B1
330
1F
100
AcDbEntity
  8
0
  6
Continuous
 62
     7
370
    15
100
AcDbSpline
210
0.0
220
0.0
230
1.0
 70
     8
 71
     3
 72
     8
 73
     4
 74
     0
 42
0.000000001
 43
0.00000001
 40
0.0
 40
0.0
 40
0.0
 40
0.0
 40
1.0
 40
1.0
 40
1.0
 40
1.0
 10
185.6735610868342
 20
71.48756612750121
 30
0.0
 10
184.4985242890073
 20
69.35439983335587
 30
0.0
 10
183.3172770815682
 20
67.22468107637418
 30
0.0
 10
182.1319432121156
 20
65.09727205376322
 30
0.0
  0
SPLINE
  5
B2
330
1F
100
AcDbEntity
  8
0
  6
Continuous
 62
     7
370
    15
100
AcDbSpline
210
0.0
220
0.0
230
1.0
 70
     8
 71
     3
 72
     8
 73
     4
 74
     0
 42
0.000000001
 43
0.00000001
 40
0.0
 40
0.0
 40
0.0
 40
0.0
 40
0.0012417047560385
 40
0.0012417047560385
 40
0.0012417047560385
 40
0.0012417047560385
 10
181.5743741755879
 20
64.31275071221982
 30
0.0
 10
181.7606884152133
 20
64.57409485933707
 30
0.0
 10
181.9465546608212
 20
64.83559896821465
 30
0.0
 10
182.1319432121156
 20
65.09727205376322
 30
0.0
  0
SPLINE
  5
B3
330
1F
100
AcDbEntity
  8
0
  6
Continuous
 62
     7
370
    15
100
AcDbSpline
210
0.0
220
0.0
230
1.0
 70
     8
 71
     3
 72
    10
 73
     6
 74
     0
 42
0.000000001
 43
0.00000001
 40
0.0
 40
0.0
 40
0.0
 40
0.0
 40
0.5
 40
0.5
 40
1.0
 40
1.0
 40
1.0
 40
1.0
 10
186.0493741755879
 20
71.83831099353502
 30
0.0
 10
185.9703741073366
 20
71.80254675892711
 30
0.0
 10
185.89661685706
 20
71.75305715536767
 30
0.0
 10
185.7685617339268
 20
71.63276866386472
 30
0.0
 10
185.7157116995151
 20
71.5640865108754
 30
0.0
 10
185.6735610868342
 20
71.4875661275012
 30
0.0
  0
SPLINE
  5
B4
330
1F
100
AcDbEntity
  8
0
  6
Continuous
 62
     7
370
    15
100
AcDbSpline
210
0.0
220
0.0
230
1.0
 70
     8
 71
     3
 72
    10
 73
     6
 74
     0
 42
0.000000001
 43
0.00000001
 40
0.0
 40
0.0
 40
0.0
 40
0.0
 40
0.5
 40
0.5
 40
1.0
 40
1.0
 40
1.0
 40
1.0
 10
186.0493741755879
 20
152.9973734218333
 30
0.0
 10
185.9700877279051
 20
153.0332673036858
 30
0.0
 10
185.8965755087845
 20
153.0827690135368
 30
0.0
 10
185.7696230559139
 20
153.2018167102054
 30
0.0
 10
185.7155572071773
 20
153.2718783704737
 30
0.0
 10
185.6735610868342
 20
153.3481182878672
 30
0.0
  0
SPLINE
  5
B5
330
1F
100
AcDbEntity
  8
0
  6
Continuous
 62
     7
370
    15
100
AcDbSpline
210
0.0
220
0.0
230
1.0
 70
     8
 71
     3
 72
     8
 73
     4
 74
     0
 42
0.000000001
 43
0.00000001
 40
0.0
 40
0.0
 40
0.0
 40
0.0
 40
1.0
 40
1.0
 40
1.0
 40
1.0
 10
186.3663814098618
 20
152.9299144033469
 30
0.0
 10
186.2566796245601
 20
152.9290559861475
 30
0.0
 10
186.1493326035756
 20
152.9521210980223
 30
0.0
 10
186.0493741755879
 20
152.9973734218332
 30
0.0
  0
SPLINE
  5
B6
330
1F
100
AcDbEntity
  8
0
  6
Continuous
 62
     7
370
    15
100
AcDbSpline
210
0.0
220
0.0
230
1.0
 70
     8
 71
     3
 72
     8
 73
     4
 74
     0
 42
0.000000001
 43
0.00000001
 40
0.0
 40
0.0
 40
0.0
 40
0.0
 40
1.0
 40
1.0
 40
1.0
 40
1.0
 10
186.3663814098618
 20
71.90577001202155
 30
0.0
 10
186.2566796245601
 20
71.90662842922089
 30
0.0
 10
186.1493326035756
 20
71.88356331734607
 30
0.0
 10
186.0493741755878
 20
71.83831099353516
 30
0.0
  0
SPLINE
  5
B7
330
1F
100
AcDbEntity
  8
0
  6
Continuous
 62
     7
370
    15
100
AcDbSpline
210
0.0
220
0.0
230
1.0
 70
     8
 71
     3
 72
    12
 73
     8
 74
     0
 42
0.000000001
 43
0.00000001
 40
0.0
 40
0.0
 40
0.0
 40
0.0
 40
0.2499999999999951
 40
0.2499999999999951
 40
0.4999999999999902
 40
0.4999999999999902
 40
1.0
 40
1.0
 40
1.0
 40
1.0
 10
192.5251872643416
 20
153.8572395869955
 30
0.0
 10
192.4889668429546
 20
153.7866325188957
 30
0.0
 10
192.4460411683068
 20
153.72289792757
 30
0.0
 10
192.3485145850478
 20
153.6071237513215
 30
0.0
 10
192.2930830654311
 20
153.55457590731
 30
0.0
 10
192.1145951625269
 20
153.4204273040957
 30
0.0
 10
191.9777583338791
 20
153.3599052020318
 30
0.0
 10
191.8323669413147
 20
153.3393586181034
 30
0.0
  0
SPLINE
  5
B8
330
1F
100
AcDbEntity
  8
0
  6
Continuous
 62
     7
370
    15
100
AcDbSpline
210
0.0
220
0.0
230
1.0
 70
     8
 71
     3
 72
    12
 73
     8
 74
     0
 42
0.000000001
 43
0.00000001
 40
0.0
 40
0.0
 40
0.0
 40
0.0
 40
0.2499999999999957
 40
0.2499999999999957
 40
0.4999999999999913
 40
0.4999999999999913
 40
1.0
 40
1.0
 40
1.0
 40
1.0
 10
192.5251872643416
 20
70.9784448283729
 30
0.0
 10
192.4889668429546
 20
71.04905189647282
 30
0.0
 10
192.4460411683067
 20
71.11278648779853
 30
0.0
 10
192.3485145850477
 20
71.22856066404695
 30
0.0
 10
192.2930830654311
 20
71.28110850805838
 30
0.0
 10
192.1145951625268
 20
71.41525711127277
 30
0.0
 10
191.9777583338791
 20
71.47577921333657
 30
0.0
 10
191.8323669413147
 20
71.49632579726497
 30
0.0
  0
SPLINE
  5
B9
330
1F
100
AcDbEntity
  8
0
  6
Continuous
 62
     7
370
    15
100
AcDbSpline
210
0.0
220
0.0
230
1.0
 70
    11
 71
     3
 72
    66
 73
    62
 74
     0
 42
0.000000001
 43
0.00000001
 40
0.0
 40
0.0
 40
0.0
 40
0.0
 40
0.0312500000000001
 40
0.0312500000000001
 40
0.0625000000000003
 40
0.0625000000000003
 40
0.0937500000000004
 40
0.0937500000000004
 40
0.1250000000000006
 40
0.1250000000000006
 40
0.1562500000000007
 40
0.1562500000000007
 40
0.1875000000000009
 40
0.1875000000000009
 40
0.218750000000001
 40
0.218750000000001
 40
0.2500000000000012
 40
0.2500000000000012
 40
0.2812500000000013
 40
0.2812500000000013
 40
0.3125000000000014
 40
0.3125000000000014
 40
0.3437500000000016
 40
0.3437500000000016
 40
0.3750000000000018
 40
0.3750000000000018
 40
0.4062500000000019
 40
0.4062500000000019
 40
0.4375000000000021
 40
0.4375000000000021
 40
0.4687500000000022
 40
0.4687500000000022
 40
0.5000000000000023
 40
0.5000000000000023
 40
0.5312500000000024
 40
0.5312500000000024
 40
0.5625000000000027
 40
0.5625000000000027
 40
0.6250000000000022
 40
0.6250000000000022
 40
0.6562500000000021
 40
0.6562500000000021
 40
0.6875000000000019
 40
0.6875000000000019
 40
0.7187500000000017
 40
0.7187500000000017
 40
0.7500000000000014
 40
0.7500000000000014
 40
0.7812500000000013
 40
0.7812500000000013
 40
0.8125000000000011
 40
0.8125000000000011
 40
0.8437500000000009
 40
0.8437500000000009
 40
0.8750000000000008
 40
0.8750000000000008
 40
0.9062500000000006
 40
0.9062500000000006
 40
0.9375000000000003
 40
0.9375000000000003
 40
1.0
 40
1.0
 40
1.0
 40
1.0
 10
189.0993741755879
 20
95.55792489684089
 30
0.0
 10
189.2645744662518
 20
95.55792489684087
 30
0.0
 10
189.4270070075483
 20
95.57283092619869
 30
0.0
 10
189.7465651631383
 20
95.63126610494113
 30
0.0
 10
189.9053485011154
 20
95.67550715731686
 30
0.0
 10
190.2080865175948
 20
95.79109870273936
 30
0.0
 10
190.3516656827291
 20
95.86187467295804
 30
0.0
 10
190.6233954125971
 20
96.02931320487063
 30
0.0
 10
190.7520239761348
 20
96.12685247719129
 30
0.0
 10
190.982589737802
 20
96.34027083739275
 30
0.0
 10
191.0860637390514
 20
96.45688548941887
 30
0.0
 10
191.2688242769772
 20
96.7106108534386
 30
0.0
 10
191.3464685332058
 20
96.84590371250734
 30
0.0
 10
191.4711611838958
 20
97.12625006789894
 30
0.0
 10
191.5191651644743
 20
97.27337094373497
 30
0.0
 10
191.5833969067926
 20
97.57536104811227
 30
0.0
 10
191.5992863508347
 20
97.72748481568148
 30
0.0
 10
191.5994612811899
 20
98.03396745850772
 30
0.0
 10
191.583230629855
 20
98.1899533795734
 30
0.0
 10
191.5194494071454
 20
98.49253284854272
 30
0.0
 10
191.4722572957492
 20
98.63991135993493
 30
0.0
 10
191.3470906780912
 20
98.92670006531263
 30
0.0
 10
191.2688311907162
 20
99.06565716685054
 30
0.0
 10
191.0879110073608
 20
99.32325082711854
 30
0.0
 10
190.984625778437
 20
99.44354337081955
 30
0.0
 10
190.7513740363883
 20
99.66626418846622
 30
0.0
 10
190.6249601681227
 20
99.76524209245807
 30
0.0
 10
190.3542878974281
 20
99.93845894706723
 30
0.0
 10
190.2082061252637
 20
100.013439984544
 30
0.0
 10
189.9053216797909
 20
100.1337681546398
 30
0.0
 10
189.7494913201512
 20
100.1791518421289
 30
0.0
 10
189.4291458308857
 20
100.2405781025499
 30
0.0
 10
189.2634357449141
 20
100.2563317240697
 30
0.0
 10
188.9371043562176
 20
100.2564439693251
 30
0.0
 10
188.7749172703907
 20
100.2413117394191
 30
0.0
 10
188.4525416891821
 20
100.1800596262387
 30
0.0
 10
188.2945262151446
 20
100.1340528828634
 30
0.0
 10
187.843115340069
 20
99.95517215362149
 30
0.0
 10
187.5640358830169
 20
99.77702004632256
 30
0.0
 10
187.2179621785185
 20
99.44752363003552
 30
0.0
 10
187.1123201626038
 20
99.32515079019551
 30
0.0
 10
186.930536686633
 20
99.06674808608093
 30
0.0
 10
186.8536488632491
 20
98.93051652053263
 30
0.0
 10
186.7279943058787
 20
98.6440810586465
 30
0.0
 10
186.6796862299641
 20
98.49377397407102
 30
0.0
 10
186.6158683445237
 20
98.1922060439865
 30
0.0
 10
186.5995401674809
 20
98.03933998152198
 30
0.0
 10
186.5992106774212
 20
97.72932486477852
 30
0.0
 10
186.6153071892559
 20
97.57645586442587
 30
0.0
 10
186.6785359265171
 20
97.277423098651
 30
0.0
 10
186.7263725199276
 20
97.12935750222815
 30
0.0
 10
186.851715837841
 20
96.84680046408265
 30
0.0
 10
186.9284125123662
 20
96.71318413195894
 30
0.0
 10
187.109463879018
 20
96.46089426202676
 30
0.0
 10
187.2149394893789
 20
96.3415509529589
 30
0.0
 10
187.4454660580551
 20
96.12786717347407
 30
0.0
 10
187.5711854956854
 20
96.03220719881429
 30
0.0
 10
187.8439523448822
 20
95.8634861298105
 30
0.0
 10
187.9896717212883
 20
95.79161892115725
 30
0.0
 10
188.4407408263963
 20
95.6189678438888
 30
0.0
 10
188.7689735942601
 20
95.55792489684089
 30
0.0
 10
189.0993741755879
 20
95.55792489684087
 30
0.0
  0
SPLINE
  5
BA
330
1F
100
AcDbEntity
  8
0
  6
Continuous
 62
     7
370
    15
100
AcDbSpline
210
0.0
220
0.0
230
1.0
 70
     8
 71
     3
 72
    10
 73
     6
 74
     0
 42
0.000000001
 43
0.00000001
 40
0.0
 40
0.0
 40
0.0
 40
0.0
 40
0.5
 40
0.5
 40
1.0
 40
1.0
 40
1.0
 40
1.0
 10
191.832366941314
 20
153.3393586181062
 30
0.0
 10
190.9848025745458
 20
153.2195815660452
 30
0.0
 10
190.1040891388239
 20
153.1208913863814
 30
0.0
 10
188.2765328876083
 20
152.9796189801443
 30
0.0
 10
187.323100484507
 20
152.9374007364666
 30
0.0
 10
186.3663814098618
 20
152.9299144033468
 30
0.0
  0
SPLINE
  5
BB
330
1F
100
AcDbEntity
  8
0
  6
Continuous
 62
     7
370
    15
100
AcDbSpline
210
0.0
220
0.0
230
1.0
 70
     8
 71
     3
 72
    10
 73
     6
 74
     0
 42
0.000000001
 43
0.00000001
 40
0.0
 40
0.0
 40
0.0
 40
0.0
 40
0.5
 40
0.5
 40
1.0
 40
1.0
 40
1.0
 40
1.0
 10
191.832366941314
 20
71.49632579726214
 30
0.0
 10
190.9848025745458
 20
71.61610284932318
 30
0.0
 10
190.1040891388239
 20
71.714793028987
 30
0.0
 10
188.2765328876083
 20
71.85606543522412
 30
0.0
 10
187.323100484507
 20
71.89828367890175
 30
0.0
 10
186.3663814098618
 20
71.90577001202156
 30
0.0
  0
SPLINE
  5
BC
330
1F
100
AcDbEntity
  8
0
  6
Continuous
 62
     7
370
    15
100
AcDbSpline
210
0.0
220
0.0
230
1.0
 70
    24
 71
     3
 72
    20
 73
    16
 74
     0
 42
0.000000001
 43
0.00000001
 40
0.0
 40
0.0
 40
0.0
 40
0.0
 40
0.5
 40
0.5
 40
0.75
 40
0.75
 40
0.875
 40
0.875
 40
0.9375
 40
0.9375
 40
0.96875
 40
0.984375
 40
0.9921875
 40
0.9921875
 40
1.0
 40
1.0
 40
1.0
 40
1.0
 10
168.8993741755879
 20
147.7178422076842
 30
0.0
 10
168.8993741755879
 20
147.7178422076842
 30
0.0
 10
168.8386101763142
 20
147.7178422076842
 30
0.0
 10
168.7556069343771
 20
147.7178422076842
 30
0.0
 10
168.7289656767421
 20
147.7178422076842
 30
0.0
 10
168.7005126659178
 20
147.7178422076842
 30
0.0
 10
168.6929280418789
 20
147.7178422076842
 30
0.0
 10
168.6852325466917
 20
147.7178422076842
 30
0.0
 10
168.6832766164041
 20
147.7178422076842
 30
0.0
 10
168.6813138862169
 20
147.7178422076842
 30
0.0
 10
168.6805747646163
 20
147.7178422076842
 30
0.0
 10
168.6801428746338
 20
147.7178422076842
 30
0.0
 10
168.6800503049021
 20
147.7178422076842
 30
0.0
 10
168.6800091743928
 20
147.7178422076842
 30
0.0
 10
168.6799989052256
 20
147.7178422076842
 30
0.0
 10
168.6799989254229
 20
147.7178422076842
 30
0.0
  0
LINE
  5
BD
330
1F
100
AcDbEntity
  8
0
  6
Continuous
 62
     7
370
    15
100
AcDbLine
 10
165.8993741756
 20
77.4928422077
 30
0.0
 11
165.8993741756
 21
147.3428422077
 31
0.0
  0
LINE
  5
BE
330
1F
100
AcDbEntity
  8
0
  6
Continuous
 62
     7
370
    15
100
AcDbLine
 10
64.0993741756
 20
94.068164347
 30
0.0
 11
64.0993741756
 21
130.7675200458
 31
0.0
  0
SPLINE
  5
BF
330
1F
100
AcDbEntity
  8
0
  6
Continuous
 62
     7
370
    15
100
AcDbSpline
210
0.0
220
0.0
230
1.0
 70
    11
 71
     3
 72
    66
 73
    62
 74
     0
 42
0.000000001
 43
0.00000001
 40
0.0
 40
0.0
 40
0.0
 40
0.0
 40
0.0312499999999996
 40
0.0312499999999996
 40
0.0624999999999993
 40
0.0624999999999993
 40
0.0937499999999989
 40
0.0937499999999989
 40
0.1249999999999986
 40
0.1249999999999986
 40
0.1562499999999982
 40
0.1562499999999982
 40
0.1874999999999978
 40
0.1874999999999978
 40
0.2187499999999975
 40
0.2187499999999975
 40
0.2499999999999971
 40
0.2499999999999971
 40
0.2812499999999968
 40
0.2812499999999968
 40
0.3124999999999964
 40
0.3124999999999964
 40
0.343749999999996
 40
0.343749999999996
 40
0.3749999999999957
 40
0.3749999999999957
 40
0.4062499999999953
 40
0.4062499999999953
 40
0.4374999999999949
 40
0.4374999999999949
 40
0.4687499999999946
 40
0.4687499999999946
 40
0.4999999999999942
 40
0.4999999999999942
 40
0.5312499999999939
 40
0.5312499999999939
 40
0.5624999999999936
 40
0.5624999999999936
 40
0.6249999999999937
 40
0.6249999999999937
 40
0.6562499999999942
 40
0.6562499999999942
 40
0.6874999999999947
 40
0.6874999999999947
 40
0.7187499999999952
 40
0.7187499999999952
 40
0.7499999999999958
 40
0.7499999999999958
 40
0.7812499999999963
 40
0.7812499999999963
 40
0.8124999999999968
 40
0.8124999999999968
 40
0.8437499999999973
 40
0.8437499999999973
 40
0.8749999999999979
 40
0.8749999999999979
 40
0.9062499999999984
 40
0.9062499999999984
 40
0.9374999999999989
 40
0.9374999999999989
 40
1.0
 40
1.0
 40
1.0
 40
1.0
 10
220.3327145839726
 20
114.9249593660111
 30
0.0
 10
220.5144994889172
 20
115.0739444691197
 30
0.0
 10
220.7075537911584
 20
115.2032722944168
 30
0.0
 10
221.1144185057225
 20
115.4261493149201
 30
0.0
 10
221.3298593687352
 20
115.5201796760018
 30
0.0
 10
221.7747382451786
 20
115.6692083439779
 30
0.0
 10
222.0012308612141
 20
115.7235555904754
 30
0.0
 10
222.4620411263517
 20
115.7935645189025
 30
0.0
 10
222.6986586219303
 20
115.8090677327341
 30
0.0
 10
223.166994004929
 20
115.7995816245462
 30
0.0
 10
223.3984389767817
 20
115.7750909159453
 30
0.0
 10
223.8559344279043
 20
115.686867404201
 30
0.0
 10
224.0841449367641
 20
115.622140324642
 30
0.0
 10
224.5199348932352
 20
115.4558018862373
 30
0.0
 10
224.7283791015463
 20
115.3544936498069
 30
0.0
 10
225.1259988872294
 20
115.114506285942
 30
0.0
 10
225.3168037963139
 20
114.9740269277275
 30
0.0
 10
225.6624590558483
 20
114.6639112652422
 30
0.0
 10
225.8189351738187
 20
114.4938209477057
 30
0.0
 10
226.0971852081528
 20
114.1213759988534
 30
0.0
 10
226.2191303074497
 20
113.9172228995861
 30
0.0
 10
226.4124700759557
 20
113.4949001709388
 30
0.0
 10
226.4859321326036
 20
113.2745814468575
 30
0.0
 10
226.5825423840113
 20
112.8139792462004
 30
0.0
 10
226.6040578553786
 20
112.578716568118
 30
0.0
 10
226.5929736173244
 20
112.1125344326476
 30
0.0
 10
226.5598257461015
 20
111.8763741210505
 30
0.0
 10
226.442173311663
 20
111.4229633639484
 30
0.0
 10
226.3585328671364
 20
111.2051960297571
 30
0.0
 10
226.1432145749559
 20
110.7868538248704
 30
0.0
 10
226.0138224382337
 20
110.5912505871083
 30
0.0
 10
225.7191926968037
 20
110.2306322982081
 30
0.0
 10
225.5515123538172
 20
110.0633290945475
 30
0.0
 10
225.1915174907009
 20
109.767122898998
 30
0.0
 10
224.9987436810331
 20
109.6370120942149
 30
0.0
 10
224.58839340291
 20
109.4113094117654
 30
0.0
 10
224.3721626508938
 20
109.3169288163939
 30
0.0
 10
223.7100494719602
 20
109.0941581648396
 30
0.0
 10
223.2366459190127
 20
109.0223704456317
 30
0.0
 10
222.5377514211378
 20
109.0357129082876
 30
0.0
 10
222.3042607178531
 20
109.059911371816
 30
0.0
 10
221.8415220374245
 20
109.1489867460699
 30
0.0
 10
221.6173722662908
 20
109.2127274998029
 30
0.0
 10
221.1831711603621
 20
109.3779828687766
 30
0.0
 10
220.9717198568458
 20
109.4803337259179
 30
0.0
 10
220.5703974909623
 20
109.722639657898
 30
0.0
 10
220.383758525155
 20
109.8602815590274
 30
0.0
 10
220.0388056467293
 20
110.1692671313835
 30
0.0
 10
219.8788839299185
 20
110.3428076290649
 30
0.0
 10
219.5993505853373
 20
110.7175730286149
 30
0.0
 10
219.4806011595373
 20
110.9166347055117
 30
0.0
 10
219.2868247026105
 20
111.339272511838
 30
0.0
 10
219.2115166917866
 20
111.5660492810243
 30
0.0
 10
219.1161112718473
 20
112.0234243382484
 30
0.0
 10
219.0945588362403
 20
112.2555713816316
 30
0.0
 10
219.1059673786677
 20
112.7270889843316
 30
0.0
 10
219.1393074933083
 20
112.9611888827699
 30
0.0
 10
219.2568543171193
 20
113.4133997937443
 30
0.0
 10
219.3426211169859
 20
113.6358435311076
 30
0.0
 10
219.6643926663902
 20
114.2589509056547
 30
0.0
 10
219.9691447740832
 20
114.6269891597939
 30
0.0
 10
220.3327145839726
 20
114.9249593660111
 30
0.0
  0
LINE
  5
C0
330
1F
100
AcDbEntity
  8
0
  6
Continuous
 62
     7
370
    15
100
AcDbLine
 10
230.5993741756
 20
112.4178422077
 30
0.0
 11
230.5993741756
 21
96.4178422077
 31
0.0
  0
LINE
  5
C1
330
1F
100
AcDbEntity
  8
0
  6
Continuous
 62
     7
370
    15
100
AcDbLine
 10
230.5993741756
 20
128.4178422077
 30
0.0
 11
230.5993741756
 21
112.4178422077
 31
0.0
  0
LINE
  5
C2
330
1F
100
AcDbEntity
  8
0
  6
Continuous
 62
     7
370
    15
100
AcDbLine
 10
230.8993741756
 20
112.4178422077
 30
0.0
 11
230.8993741756
 21
96.7178422077
 31
0.0
  0
LINE
  5
C3
330
1F
100
AcDbEntity
  8
0
  6
Continuous
 62
     7
370
    15
100
AcDbLine
 10
230.8993741756
 20
128.1178422077
 30
0.0
 11
230.8993741756
 21
112.4178422077
 31
0.0
  0
LWPOLYLINE
  5
C4
330
1F
100
AcDbEntity
  8
0
  6
Continuous
 62
     7
370
    15
100
AcDbPolyline
 90
       21
 70
   128
 43
0.0
 10
190.1703221888
 20
99.9479299106
 10
189.4385226768
 20
100.1577983678
 10
188.6735249465
 20
100.1448944653
 10
187.9502123058
 20
99.9104813269
 10
187.3393876356
 20
99.477504944
 10
186.9008427105
 20
98.8883480616
 10
186.6775053633
 20
98.2006814603
 10
186.6912374095
 20
97.4818187382
 10
186.9406946609
 20
96.8021271872
 10
187.4014585036
 20
96.2281397521
 10
188.0284261624
 20
95.816042322
 10
188.7602256744
 20
95.6061738649
 10
189.5252234047
 20
95.6190777674
 10
190.2485360454
 20
95.8534909058
 10
190.8593607156
 20
96.2864672887
 10
191.2979056407
 20
96.8756241711
 10
191.5212429879
 20
97.5632907724
 10
191.5075109417
 20
98.2821534945
 10
191.2580536903
 20
98.9618450455
 10
190.7972898476
 20
99.5358324806
 10
190.1703221888
 20
99.9479299106
  0
LINE
  5
C5
330
1F
100
AcDbEntity
  8
0
  6
Continuous
 62
     7
370
    15
100
AcDbLine
 10
187.371602602
 20
97.7676467621
 30
0.0
 11
188.3408641076
 21
96.4187599387
 31
0.0
  0
LINE
  5
C6
330
1F
100
AcDbEntity
  8
0
  6
Continuous
 62
     7
370
    15
100
AcDbLine
 10
190.0686356812
 20
96.533099293
 30
0.0
 11
188.3408641076
 21
96.4187599387
 31
0.0
  0
LINE
  5
C7
330
1F
100
AcDbEntity
  8
0
  6
Continuous
 62
     7
370
    15
100
AcDbLine
 10
190.8271457492
 20
97.9963254706
 30
0.0
 11
190.0686356812
 21
96.533099293
 31
0.0
  0
LINE
  5
C8
330
1F
100
AcDbEntity
  8
0
  6
Continuous
 62
     7
370
    15
100
AcDbLine
 10
190.8271457492
 20
97.9963254706
 30
0.0
 11
189.8578842435
 21
99.3452122939
 31
0.0
  0
LINE
  5
C9
330
1F
100
AcDbEntity
  8
0
  6
Continuous
 62
     7
370
    15
100
AcDbLine
 10
188.13011267
 20
99.2308729397
 30
0.0
 11
189.8578842435
 21
99.3452122939
 31
0.0
  0
LINE
  5
CA
330
1F
100
AcDbEntity
  8
0
  6
Continuous
 62
     7
370
    15
100
AcDbLine
 10
188.13011267
 20
99.2308729397
 30
0.0
 11
187.371602602
 21
97.7676467621
 31
0.0
  0
LINE
  5
CB
330
1F
100
AcDbEntity
  8
0
  6
Continuous
 62
     7
370
    15
100
AcDbLine
 10
190.0686356812
 20
97.2171395796
 30
0.0
 11
190.0686356812
 21
96.533099293
 31
0.0
  0
LINE
  5
CC
330
1F
100
AcDbEntity
  8
0
  6
Continuous
 62
     7
370
    15
100
AcDbLine
 10
190.6211556759
 20
98.2829945418
 30
0.0
 11
190.0686356812
 21
97.2171395796
 31
0.0
  0
LINE
  5
CD
330
1F
100
AcDbEntity
  8
0
  6
Continuous
 62
     7
370
    15
100
AcDbLine
 10
187.5775926753
 20
98.1650179775
 30
0.0
 11
188.3408641076
 21
97.1028002254
 31
0.0
  0
LINE
  5
CE
330
1F
100
AcDbEntity
  8
0
  6
Continuous
 62
     7
370
    15
100
AcDbLine
 10
188.3408641076
 20
97.1028002254
 30
0.0
 11
188.3408641076
 21
96.4187599387
 31
0.0
  0
LINE
  5
CF
330
1F
100
AcDbEntity
  8
0
  6
Continuous
 62
     7
370
    15
100
AcDbLine
 10
190.0686356812
 20
97.2171395796
 30
0.0
 11
188.3408641076
 21
97.1028002254
 31
0.0
  0
CIRCLE
  5
D0
330
1F
100
AcDbEntity
  8
0
  6
HIDDEN
 62
     7
370
     0
100
AcDbCircle
 10
222.8493741756
 20
112.4178422077
 30
0.0
 40
2.153589838486228
  0
CIRCLE
  5
D1
330
1F
100
AcDbEntity
  8
0
  6
HIDDEN
 62
     7
370
     0
100
AcDbCircle
 10
222.8493741756
 20
112.4178422077
 30
0.0
 40
1.953589838486215
  0
SPLINE
  5
D2
330
1F
100
AcDbEntity
  8
0
  6
HIDDEN
 62
     7
370
     0
100
AcDbSpline
210
0.0
220
0.0
230
1.0
 70
     8
 71
     3
 72
     9
 73
     5
 74
     0
 42
0.000000001
 43
0.00000001
 40
0.0
 40
0.0
 40
0.0
 40
0.0
 40
0.326715502844845
 40
1.0
 40
1.0
 40
1.0
 40
1.0
 10
198.5233416493196
 20
62.79408176728133
 30
0.0
 10
198.3665487712021
 20
62.83616399630121
 30
0.0
 10
197.8866423181805
 20
62.96496789037251
 30
0.0
 10
197.132430777255
 20
63.13999453849203
 30
0.0
 10
196.6246318391743
 20
63.25783726725994
 30
0.0
  0
LWPOLYLINE
  5
D3
330
1F
100
AcDbEntity
  8
0
  6
HIDDEN
 62
     7
370
     0
100
AcDbPolyline
 90
       24
 70
   128
 43
0.0
 10
169.1687612875
 20
98.3886874051
 10
169.3434744144
 20
97.5912199932
 10
169.6113318813
 20
96.852897091
 10
169.9524679251
 20
96.2284767307
 10
170.3415820462
 20
95.7642693138
 10
170.7498154301
 20
95.4947029808
 10
171.1468912745
 20
95.4397702335
 10
171.5033602803
 20
95.6035451823
 10
171.7927847722
 20
95.9738813887
 10
171.9936994597
 20
96.5233127103
 10
172.0912034194
 20
97.2110903395
 10
172.0780652288
 20
97.9862049559
 10
171.9552592873
 20
98.7911698543
 10
171.7318935499
 20
99.5662844707
 10
171.4245340314
 20
100.2540620999
 10
171.0559761812
 20
100.8034934215
 10
170.6535542492
 20
101.1738296279
 10
170.2471140289
 20
101.3376045767
 10
169.8667993322
 20
101.2826718294
 10
169.5408163603
 20
101.0131054964
 10
169.293341779
 20
100.5488980795
 10
169.1427296459
 20
99.9244777192
 10
169.1001501738
 20
99.186154817
 10
169.1687612875
 20
98.3886874051
  0
LWPOLYLINE
  5
D4
330
1F
100
AcDbEntity
  8
0
  6
HIDDEN
 62
     7
370
     0
100
AcDbPolyline
 90
       20
 70
   128
 43
0.0
 10
169.8816318761
 20
98.4447057234
 10
170.0383860177
 20
97.7728812572
 10
170.2866737891
 20
97.1738593964
 10
170.5995893575
 20
96.7125534543
 10
170.9432234659
 20
96.4389530877
 10
171.2803380265
 20
96.3827071416
 10
171.5744014459
 20
96.5499107371
 10
171.7935473895
 20
96.9224447701
 10
171.9140279942
 20
97.4599393977
 10
171.9227873168
 20
98.1041487369
 10
171.8188761489
 20
98.7852627098
 10
171.6135548779
 20
99.429472049
 10
171.3290732494
 20
99.9669666766
 10
170.996259262
 20
100.3395007096
 10
170.6511784753
 20
100.5067043051
 10
170.3312257472
 20
100.450458359
 10
170.0710729202
 20
100.1768579924
 10
169.8989115899
 20
99.7155520503
 10
169.8333981077
 20
99.1165301895
 10
169.8816318761
 20
98.4447057234
  0
SPLINE
  5
D5
330
1F
100
AcDbEntity
  8
0
  6
HIDDEN
 62
     7
370
     0
100
AcDbSpline
210
0.0
220
0.0
230
1.0
 70
    11
 71
     3
 72
    66
 73
    62
 74
     0
 42
0.000000001
 43
0.00000001
 40
0.0
 40
0.0
 40
0.0
 40
0.0
 40
0.0312500000000008
 40
0.0312500000000008
 40
0.0625000000000016
 40
0.0625000000000016
 40
0.0937500000000024
 40
0.0937500000000024
 40
0.1250000000000032
 40
0.1250000000000032
 40
0.156250000000004
 40
0.156250000000004
 40
0.1875000000000048
 40
0.1875000000000048
 40
0.2187500000000056
 40
0.2187500000000056
 40
0.2343750000000059
 40
0.2343750000000059
 40
0.2500000000000062
 40
0.2500000000000062
 40
0.2812500000000059
 40
0.2812500000000059
 40
0.3125000000000058
 40
0.3125000000000058
 40
0.3750000000000056
 40
0.3750000000000056
 40
0.4375000000000053
 40
0.4375000000000053
 40
0.4687500000000049
 40
0.4687500000000049
 40
0.5000000000000046
 40
0.5000000000000046
 40
0.5312500000000042
 40
0.5312500000000042
 40
0.5625000000000038
 40
0.5625000000000038
 40
0.5937500000000034
 40
0.5937500000000034
 40
0.625000000000003
 40
0.625000000000003
 40
0.687500000000002
 40
0.687500000000002
 40
0.7500000000000011
 40
0.7500000000000011
 40
0.7812500000000009
 40
0.7812500000000009
 40
0.8125000000000007
 40
0.8125000000000007
 40
0.8437500000000006
 40
0.8437500000000006
 40
0.8593750000000002
 40
0.8593750000000002
 40
0.875
 40
0.875
 40
0.90625
 40
0.90625
 40
0.9375
 40
0.9375
 40
0.9687500000000001
 40
0.9687500000000001
 40
1.0
 40
1.0
 40
1.0
 40
1.0
 10
186.6803991153683
 20
101.7618813822735
 30
0.0
 10
186.6408088277283
 20
101.9154949019645
 30
0.0
 10
186.6155478370468
 20
102.0677383295645
 30
0.0
 10
186.5944029310319
 20
102.3698432463129
 30
0.0
 10
186.5990506431255
 20
102.5203233901548
 30
0.0
 10
186.6377443109111
 20
102.8027676634534
 30
0.0
 10
186.6720412700058
 20
102.9382143584267
 30
0.0
 10
186.7663520559552
 20
103.1873577570036
 30
0.0
 10
186.8254985962485
 20
103.2998491740264
 30
0.0
 10
186.9638347809407
 20
103.5010161092616
 30
0.0
 10
187.0424712968914
 20
103.5882702654534
 30
0.0
 10
187.2070248489064
 20
103.7304798844027
 30
0.0
 10
187.2949595451681
 20
103.7869428122798
 30
0.0
 10
187.462538091519
 20
103.8618517278263
 30
0.0
 10
187.5431349683263
 20
103.8806616469374
 30
0.0
 10
187.6379773337879
 20
103.8760937704641
 30
0.0
 10
187.6649016392099
 20
103.8692195149852
 30
0.0
 10
187.7074303142611
 20
103.845129347159
 30
0.0
 10
187.7229166033332
 20
103.8277216952093
 30
0.0
 10
187.7503409300214
 20
103.7638293189228
 30
0.0
 10
187.7439783264892
 20
103.7046595481898
 30
0.0
 10
187.7013281909537
 20
103.5712397401345
 30
0.0
 10
187.6658325836568
 20
103.4966843293725
 30
0.0
 10
187.5372952364868
 20
103.2543275981008
 30
0.0
 10
187.426121817048
 20
103.0731356219415
 30
0.0
 10
187.1973960014257
 20
102.6694371789045
 30
0.0
 10
187.0763308178187
 20
102.4434125135914
 30
0.0
 10
186.9082168432664
 20
102.0648807766602
 30
0.0
 10
186.8538766266407
 20
101.9308022724669
 30
0.0
 10
186.7552515523997
 20
101.6486223261165
 30
0.0
 10
186.7112487108376
 20
101.5019236533463
 30
0.0
 10
186.6404622832856
 20
101.1915068719536
 30
0.0
 10
186.6152721368299
 20
101.0330024422161
 30
0.0
 10
186.5943581624651
 20
100.7216388676165
 30
0.0
 10
186.599320004218
 20
100.5739204889873
 30
0.0
 10
186.6374941225758
 20
100.3104184900153
 30
0.0
 10
186.6703304482752
 20
100.1958795709769
 30
0.0
 10
186.7510629105873
 20
100.0049138745083
 30
0.0
 10
186.7991646175292
 20
99.9267301865419
 30
0.0
 10
186.9556070142466
 20
99.73293500860245
 30
0.0
 10
187.0723964739909
 20
99.6591598545746
 30
0.0
 10
187.3074534460741
 20
99.57611089779395
 30
0.0
 10
187.4232510330336
 20
99.56896750487833
 30
0.0
 10
187.5739517367425
 20
99.60074152230816
 30
0.0
 10
187.6202715244978
 20
99.61863897430678
 30
0.0
 10
187.696354735358
 20
99.6722384946982
 30
0.0
 10
187.7257408908605
 20
99.70775766526262
 30
0.0
 10
187.7492019240883
 20
99.80186704006553
 30
0.0
 10
187.7421622802823
 20
99.86098751387986
 30
0.0
 10
187.6931645834025
 20
99.97089474329734
 30
0.0
 10
187.6703115388248
 20
100.0115379686045
 30
0.0
 10
187.614969021153
 20
100.0978454524585
 30
0.0
 10
187.5823798857259
 20
100.1438869557152
 30
0.0
 10
187.4735814108656
 20
100.2916657639149
 30
0.0
 10
187.3889606892134
 20
100.4001343662332
 30
0.0
 10
187.2187724604088
 20
100.6341812288784
 30
0.0
 10
187.132142385463
 20
100.7611921936194
 30
0.0
 10
186.9730263841224
 20
101.0268781550923
 30
0.0
 10
186.8987124898335
 20
101.1684550676673
 30
0.0
 10
186.7723836680882
 20
101.459185893485
 30
0.0
 10
186.7199894030082
 20
101.6082678625826
 30
0.0
 10
186.6803991153683
 20
101.7618813822735
 30
0.0
  0
SPLINE
  5
D6
330
1F
100
AcDbEntity
  8
0
  6
HIDDEN
 62
     7
370
     0
100
AcDbSpline
210
0.0
220
0.0
230
1.0
 70
    11
 71
     3
 72
    66
 73
    62
 74
     0
 42
0.000000001
 43
0.00000001
 40
0.0
 40
0.0
 40
0.0
 40
0.0
 40
0.0312500000000001
 40
0.0312500000000001
 40
0.0625000000000003
 40
0.0625000000000003
 40
0.0937500000000004
 40
0.0937500000000004
 40
0.1250000000000006
 40
0.1250000000000006
 40
0.1562500000000007
 40
0.1562500000000007
 40
0.1875000000000008
 40
0.1875000000000008
 40
0.218750000000001
 40
0.218750000000001
 40
0.2500000000000011
 40
0.2500000000000011
 40
0.2812500000000012
 40
0.2812500000000012
 40
0.3125000000000014
 40
0.3125000000000014
 40
0.3437500000000016
 40
0.3437500000000016
 40
0.3750000000000017
 40
0.3750000000000017
 40
0.4062500000000018
 40
0.4062500000000018
 40
0.4375000000000019
 40
0.4375000000000019
 40
0.4687500000000021
 40
0.4687500000000021
 40
0.5000000000000022
 40
0.5000000000000022
 40
0.5312500000000023
 40
0.5312500000000023
 40
0.5625000000000024
 40
0.5625000000000024
 40
0.6250000000000022
 40
0.6250000000000022
 40
0.656250000000002
 40
0.656250000000002
 40
0.6875000000000019
 40
0.6875000000000019
 40
0.7187500000000019
 40
0.7187500000000019
 40
0.7500000000000018
 40
0.7500000000000018
 40
0.7812500000000017
 40
0.7812500000000017
 40
0.8125000000000016
 40
0.8125000000000016
 40
0.8437500000000014
 40
0.8437500000000014
 40
0.8750000000000012
 40
0.8750000000000012
 40
0.9375000000000008
 40
0.9375000000000008
 40
0.9687500000000004
 40
0.9687500000000004
 40
1.0
 40
1.0
 40
1.0
 40
1.0
 10
189.0993741755879
 20
109.280478684842
 30
0.0
 10
188.9263235099176
 20
109.280478684842
 30
0.0
 10
188.7586288559103
 20
109.2904381895786
 30
0.0
 10
188.4321673057898
 20
109.3297208891339
 30
0.0
 10
188.2732094593291
 20
109.3595047958483
 30
0.0
 10
187.9772557621152
 20
109.4377570835377
 30
0.0
 10
187.8368847017697
 20
109.486933154676
 30
0.0
 10
187.5755724209622
 20
109.6054895915065
 30
0.0
 10
187.4549329139431
 20
109.6744727905528
 30
0.0
 10
187.2314848680998
 20
109.8353919870524
 30
0.0
 10
187.1286816208338
 20
109.927855299362
 30
0.0
 10
186.9489679361164
 20
110.1326864397987
 30
0.0
 10
186.8708755073012
 20
110.2457119643002
 30
0.0
 10
186.7402250152344
 20
110.4974547040867
 30
0.0
 10
186.6881742344561
 20
110.6366941109724
 30
0.0
 10
186.6185117860051
 20
110.9292696733738
 30
0.0
 10
186.5999392509353
 20
111.0867134054456
 30
0.0
 10
186.5988351132346
 20
111.4080847228329
 30
0.0
 10
186.6156801530365
 20
111.5712219385877
 30
0.0
 10
186.6837657568425
 20
111.9021357020858
 30
0.0
 10
186.7342291619369
 20
112.0653173857426
 30
0.0
 10
186.86327772499
 20
112.3816662721867
 30
0.0
 10
186.9427207386268
 20
112.5362980537091
 30
0.0
 10
187.1227785651256
 20
112.8259740900426
 30
0.0
 10
187.2244332944725
 20
112.9632465600396
 30
0.0
 10
187.4484471719835
 20
113.2191587244207
 30
0.0
 10
187.5689309689247
 20
113.3358914354622
 30
0.0
 10
187.8284473975175
 20
113.5469475652572
 30
0.0
 10
187.969002151604
 20
113.6420723287697
 30
0.0
 10
188.2652956539634
 20
113.8007646764647
 30
0.0
 10
188.4207094504333
 20
113.8646658719654
 30
0.0
 10
188.7511668281298
 20
113.9544096874348
 30
0.0
 10
188.9207986335897
 20
113.9783126615415
 30
0.0
 10
189.2642479479532
 20
113.9795463081073
 30
0.0
 10
189.4361486576335
 20
113.9563763874067
 30
0.0
 10
189.7646781323474
 20
113.8693496994984
 30
0.0
 10
189.9237445297428
 20
113.8050508621075
 30
0.0
 10
190.3673232436005
 20
113.5701244145064
 30
0.0
 10
190.6310631618429
 20
113.353356705075
 30
0.0
 10
190.9660569886684
 20
112.9736371148505
 30
0.0
 10
191.0692203361527
 20
112.8355826817124
 30
0.0
 10
191.2503700484245
 20
112.5465667786847
 30
0.0
 10
191.3288721058126
 20
112.3954571855368
 30
0.0
 10
191.4598598096594
 20
112.0789262697855
 30
0.0
 10
191.5113358338186
 20
111.9146787301472
 30
0.0
 10
191.5803626014145
 20
111.5890906022972
 30
0.0
 10
191.5988356443175
 20
111.4241665953998
 30
0.0
 10
191.5998893229035
 20
111.1001563132172
 30
0.0
 10
191.582794553129
 20
110.9455299165134
 30
0.0
 10
191.5149473512164
 20
110.6500721598762
 30
0.0
 10
191.4639266266522
 20
110.5103778735036
 30
0.0
 10
191.3347356116104
 20
110.2566496364041
 30
0.0
 10
191.2552165753748
 20
110.1398075951152
 30
0.0
 10
191.0744772769561
 20
109.9320060066998
 30
0.0
 10
190.9732717302565
 20
109.8403429311702
 30
0.0
 10
190.6368156417315
 20
109.5962127326255
 30
0.0
 10
190.3779925992722
 20
109.4797786481325
 30
0.0
 10
189.9299964900982
 20
109.3603717699256
 30
0.0
 10
189.7740577967389
 20
109.3308903176762
 30
0.0
 10
189.4449239344393
 20
109.2907564170605
 30
0.0
 10
189.2724248412583
 20
109.280478684842
 30
0.0
 10
189.0993741755879
 20
109.280478684842
 30
0.0
  0
CIRCLE
  5
D7
330
1F
100
AcDbEntity
  8
0
  6
HIDDEN
 62
     7
370
     0
100
AcDbCircle
 10
222.8493741756
 20
112.4178422077
 30
0.0
 40
2.624999999999986
  0
ELLIPSE
  5
D8
330
1F
100
AcDbEntity
  8
0
  6
HIDDEN
 62
     7
370
     0
100
AcDbEllipse
 10
169.0709470508
 20
75.1178422077
 30
0.0
 11
0.0
 21
2.0
 31
0.0
210
0.0
220
0.0
230
1.0
 40
0.4142135624
 41
4.712388980384695
 42
6.283185307179586
  0
LINE
  5
D9
330
1F
100
AcDbEntity
  8
0
  6
HIDDEN
 62
     7
370
     0
100
AcDbLine
 10
169.0709470508
 20
77.1178422077
 30
0.0
 11
168.8993741756
 21
77.1178422077
 31
0.0
  0
LINE
  5
DA
330
1F
100
AcDbEntity
  8
0
  6
HIDDEN
 62
     7
370
     0
100
AcDbLine
 10
168.8993741756
 20
147.7178422077
 30
0.0
 11
169.0709470508
 21
147.7178422077
 31
0.0
  0
ELLIPSE
  5
DB
330
1F
100
AcDbEntity
  8
0
  6
HIDDEN
 62
     7
370
     0
100
AcDbEllipse
 10
169.0709470508
 20
149.7178422077
 30
0.0
 11
0.0
 21
2.0
 31
0.0
210
0.0
220
0.0
230
1.0
 40
0.4142135624
 41
3.141592653589793
 42
4.712388980384695
  0
LINE
  5
DC
330
1F
100
AcDbEntity
  8
0
  6
HIDDEN
 62
     7
370
     0
100
AcDbLine
 10
169.8993741756
 20
65.0972720538
 30
0.0
 11
169.2855105956
 21
64.4834084738
 31
0.0
  0
LINE
  5
DD
330
1F
100
AcDbEntity
  8
0
  6
HIDDEN
 62
     7
370
     0
100
AcDbLine
 10
169.2855105956
 20
160.3522759416
 30
0.0
 11
169.8993741756
 21
159.7384123616
 31
0.0
  0
LINE
  5
DE
330
1F
100
AcDbEntity
  8
0
  6
HIDDEN
 62
     7
370
     0
100
AcDbLine
 10
182.1319432121
 20
65.0972720538
 30
0.0
 11
169.8993741756
 21
65.0972720538
 31
0.0
  0
LINE
  5
DF
330
1F
100
AcDbEntity
  8
0
  6
HIDDEN
 62
     7
370
     0
100
AcDbLine
 10
169.8993741756
 20
65.0972720538
 30
0.0
 11
169.8993741756
 21
75.1178422077
 31
0.0
  0
SPLINE
  5
E0
330
1F
100
AcDbEntity
  8
0
  6
HIDDEN
 62
     7
370
     0
100
AcDbSpline
210
0.0
220
0.0
230
1.0
 70
     8
 71
     3
 72
    13
 73
     9
 74
     0
 42
0.000000001
 43
0.00000001
 40
0.0
 40
0.0
 40
0.0
 40
0.0
 40
0.0005825290635647
 40
0.1623661983773396
 40
0.3287385494553315
 40
0.4998718252132767
 40
0.7262528256169377
 40
1.0
 40
1.0
 40
1.0
 40
1.0
 10
198.8989400181943
 20
63.41797501434339
 30
0.0
 10
198.8990848042291
 20
63.4179306721501
 30
0.0
 10
198.9394404869465
 20
63.4055713345581
 30
0.0
 10
198.8252858800556
 20
63.44120042056556
 30
0.0
 10
198.601168772355
 20
63.50904838347399
 30
0.0
 10
198.1218598813861
 20
63.64814155761744
 30
0.0
 10
197.3283522237576
 20
63.87838813838988
 30
0.0
 10
196.4593343512815
 20
64.09387370914807
 30
0.0
 10
195.9836739124746
 20
64.21182060574218
 30
0.0
  0
LINE
  5
E1
330
1F
100
AcDbEntity
  8
0
  6
HIDDEN
 62
     7
370
     0
100
AcDbLine
 10
169.0709470508
 20
147.7178422077
 30
0.0
 11
186.0493741756
 21
147.7178422077
 31
0.0
  0
LINE
  5
E2
330
1F
100
AcDbEntity
  8
0
  6
HIDDEN
 62
     7
370
     0
100
AcDbLine
 10
196.8993741756
 20
77.1178422077
 30
0.0
 11
186.0493741756
 21
77.1178422077
 31
0.0
  0
SPLINE
  5
E3
330
1F
100
AcDbEntity
  8
0
  6
HIDDEN
 62
     7
370
     0
100
AcDbSpline
210
0.0
220
0.0
230
1.0
 70
     8
 71
     3
 72
    14
 73
    10
 74
     0
 42
0.000000001
 43
0.00000001
 40
0.0
 40
0.0
 40
0.0
 40
0.0
 40
0.1878282877623173
 40
0.3545816313016879
 40
0.5003024319338173
 40
0.6713282049188825
 40
0.8376422060211013
 40
0.9994166164999629
 40
1.0
 40
1.0
 40
1.0
 40
1.0
 10
195.9836739124746
 20
160.6238638096262
 30
0.0
 10
196.316676834864
 20
160.7054117470798
 30
0.0
 10
196.9453186696788
 20
160.8593576784198
 30
0.0
 10
197.6447552415837
 20
161.0503363965379
 30
0.0
 10
198.1926323410132
 20
161.2077086836137
 30
0.0
 10
198.5987479351304
 20
161.3260341196373
 30
0.0
 10
198.8318758278295
 20
161.3964111342524
 30
0.0
 10
198.9258652144266
 20
161.4260454855267
 30
0.0
 10
198.8991823212827
 20
161.4177829599232
 30
0.0
 10
198.8990864443974
 20
161.4177532710429
 30
0.0
  0
LINE
  5
E4
330
1F
100
AcDbEntity
  8
0
  6
HIDDEN
 62
     7
370
     0
100
AcDbLine
 10
196.4830082774
 20
160.7481778475
 30
0.0
 11
195.9836696241
 21
160.623908464
 31
0.0
  0
LINE
  5
E5
330
1F
100
AcDbEntity
  8
0
  6
HIDDEN
 62
     7
370
     0
100
AcDbLine
 10
186.0493741756
 20
147.7178422077
 30
0.0
 11
196.8993741756
 21
147.7178422077
 31
0.0
  0
LINE
  5
E6
330
1F
100
AcDbEntity
  8
0
  6
HIDDEN
 62
     7
370
     0
100
AcDbLine
 10
169.8993741756
 20
159.7384123616
 30
0.0
 11
182.1319432121
 21
159.7384123616
 31
0.0
  0
LINE
  5
E7
330
1F
100
AcDbEntity
  8
0
  6
HIDDEN
 62
     7
370
     0
100
AcDbLine
 10
169.8993741756
 20
159.7384123616
 30
0.0
 11
169.8993741756
 21
149.7178422077
 31
0.0
  0
LINE
  5
E8
330
1F
100
AcDbEntity
  8
0
  6
HIDDEN
 62
     7
370
     0
100
AcDbLine
 10
186.0493741756
 20
77.1178422077
 30
0.0
 11
169.0709470508
 21
77.1178422077
 31
0.0
  0
LINE
  5
E9
330
1F
100
AcDbEntity
  8
0
  6
HIDDEN
 62
     7
370
     0
100
AcDbLine
 10
74.0993741756
 20
99.9178422077
 30
0.0
 11
74.0993741756
 21
124.9178422077
 31
0.0
  0
LINE
  5
EA
330
1F
100
AcDbEntity
  8
0
  6
HIDDEN
 62
     7
370
     0
100
AcDbLine
 10
77.3839785245
 20
101.9178422077
 30
0.0
 11
77.3839785245
 21
122.9178422077
 31
0.0
  0
LINE
  5
EB
330
1F
100
AcDbEntity
  8
0
  6
HIDDEN
 62
     7
370
     0
100
AcDbLine
 10
127.0993741756
 20
101.9178422077
 30
0.0
 11
127.0993741756
 21
122.9178422077
 31
0.0
  0
LINE
  5
EC
330
1F
100
AcDbEntity
  8
0
  6
HIDDEN
 62
     7
370
     0
100
AcDbLine
 10
131.3654845707
 20
109.0178422077
 30
0.0
 11
131.3654845707
 21
115.8178422077
 31
0.0
  0
SPLINE
  5
ED
330
1F
100
AcDbEntity
  8
0
  6
HIDDEN
 62
     7
370
     0
100
AcDbSpline
210
0.0
220
0.0
230
1.0
 70
     8
 71
     3
 72
    16
 73
    12
 74
     0
 42
0.000000001
 43
0.00000001
 40
0.0
 40
0.0
 40
0.0
 40
0.0
 40
0.2499999999999872
 40
0.2499999999999872
 40
0.4999999999999745
 40
0.4999999999999745
 40
0.6249999999999738
 40
0.6249999999999738
 40
0.7499999999999732
 40
0.7499999999999732
 40
1.0
 40
1.0
 40
1.0
 40
1.0
 10
230.8993741755879
 20
121.026605464484
 30
0.0
 10
230.8993741755879
 20
120.9530796539625
 30
0.0
 10
230.8951610256062
 20
120.8781321420816
 30
0.0
 10
230.8726128333678
 20
120.7234743874883
 30
0.0
 10
230.8544644583157
 20
120.6425301333715
 30
0.0
 10
230.804652078707
 20
120.5260571348529
 30
0.0
 10
230.7836855322849
 20
120.4876323548173
 30
0.0
 10
230.7325022021233
 20
120.4214113608419
 30
0.0
 10
230.7029323606105
 20
120.3949717225086
 30
0.0
 10
230.6123932792686
 20
120.3415149794217
 30
0.0
 10
230.5529337918634
 20
120.3382924545307
 30
0.0
 10
230.4993741755477
 20
120.3460479948757
 30
0.0
  0
SPLINE
  5
EE
330
1F
100
AcDbEntity
  8
0
  6
HIDDEN
 62
     7
370
     0
100
AcDbSpline
210
0.0
220
0.0
230
1.0
 70
     8
 71
     3
 72
    10
 73
     6
 74
     0
 42
0.000000001
 43
0.00000001
 40
0.0
 40
0.0
 40
0.0
 40
0.0
 40
0.5
 40
0.5
 40
1.0
 40
1.0
 40
1.0
 40
1.0
 10
230.4993741755566
 20
120.3460479948838
 30
0.0
 10
230.4581781136459
 20
120.3131597506474
 30
0.0
 10
230.4127406492987
 20
120.2846842238117
 30
0.0
 10
230.3110677180311
 20
120.2432119038978
 30
0.0
 10
230.2559064300328
 20
120.2311582056635
 30
0.0
 10
230.199374175588
 20
120.2311582056635
 30
0.0
  0
SPLINE
  5
EF
330
1F
100
AcDbEntity
  8
0
  6
HIDDEN
 62
     7
370
     0
100
AcDbSpline
210
0.0
220
0.0
230
1.0
 70
     8
 71
     3
 72
    10
 73
     6
 74
     0
 42
0.000000001
 43
0.00000001
 40
0.0
 40
0.0
 40
0.0
 40
0.0
 40
0.5
 40
0.5
 40
1.0
 40
1.0
 40
1.0
 40
1.0
 10
230.4993741756205
 20
104.4896364204336
 30
0.0
 10
230.4581781137034
 20
104.5225246646834
 30
0.0
 10
230.4127406493496
 20
104.5510001915307
 30
0.0
 10
230.3110677180591
 20
104.5924725114644
 30
0.0
 10
230.2559064300474
 20
104.6045262097049
 30
0.0
 10
230.199374175588
 20
104.6045262097049
 30
0.0
  0
SPLINE
  5
F0
330
1F
100
AcDbEntity
  8
0
  6
HIDDEN
 62
     7
370
     0
100
AcDbSpline
210
0.0
220
0.0
230
1.0
 70
     8
 71
     3
 72
    16
 73
    12
 74
     0
 42
0.000000001
 43
0.00000001
 40
0.0
 40
0.0
 40
0.0
 40
0.0
 40
0.2499999999999758
 40
0.2499999999999758
 40
0.3749999999999798
 40
0.3749999999999798
 40
0.4999999999999839
 40
0.4999999999999839
 40
0.749999999999992
 40
0.749999999999992
 40
1.0
 40
1.0
 40
1.0
 40
1.0
 10
230.4993741756022
 20
104.4896364204415
 30
0.0
 10
230.5526288022442
 20
104.4973479527118
 30
0.0
 10
230.6121656067823
 20
104.4941125114615
 30
0.0
 10
230.7022604207499
 20
104.4412119514947
 30
0.0
 10
230.7319096773525
 20
104.4148181166237
 30
0.0
 10
230.7826934985651
 20
104.3495678486259
 30
0.0
 10
230.8036898328506
 20
104.3116160371409
 30
0.0
 10
230.8544957107989
 20
104.1936166769654
 30
0.0
 10
230.8724864478741
 20
104.1128889781001
 30
0.0
 10
230.8951515944467
 20
103.9578171622967
 30
0.0
 10
230.8993741755879
 20
103.8827246398233
 30
0.0
 10
230.8993741755879
 20
103.8090839936354
 30
0.0
  0
LINE
  5
F1
330
1F
100
AcDbEntity
  8
0
  6
HIDDEN
 62
     7
370
     0
100
AcDbLine
 10
210.3993741756
 20
112.4178422077
 30
0.0
 11
210.3993741756
 21
103.7178422077
 31
0.0
  0
LINE
  5
F2
330
1F
100
AcDbEntity
  8
0
  6
HIDDEN
 62
     7
370
     0
100
AcDbLine
 10
210.3993741756
 20
121.1178422077
 30
0.0
 11
210.3993741756
 21
112.4178422077
 31
0.0
  0
LINE
  5
F3
330
1F
100
AcDbEntity
  8
0
  6
HIDDEN
 62
     7
370
     0
100
AcDbLine
 10
213.7653995794
 20
112.4178422077
 30
0.0
 11
213.7653995794
 21
103.4178422077
 31
0.0
  0
LINE
  5
F4
330
1F
100
AcDbEntity
  8
0
  6
HIDDEN
 62
     7
370
     0
100
AcDbLine
 10
213.7653995794
 20
121.4178422077
 30
0.0
 11
213.7653995794
 21
112.4178422077
 31
0.0
  0
SPLINE
  5
F5
330
1F
100
AcDbEntity
  8
0
  6
HIDDEN
 62
     7
370
     0
100
AcDbSpline
210
0.0
220
0.0
230
1.0
 70
     8
 71
     3
 72
     9
 73
     5
 74
     0
 42
0.000000001
 43
0.00000001
 40
0.0
 40
0.0
 40
0.0
 40
0.0
 40
0.4951995003022724
 40
1.0
 40
1.0
 40
1.0
 40
1.0
 10
195.983658390025
 20
160.6238543720969
 30
0.0
 10
196.0888546116607
 20
160.7810101322169
 30
0.0
 10
196.3012866144625
 20
161.0983686110201
 30
0.0
 10
196.5160049979764
 20
161.4169951591228
 30
0.0
 10
196.6243949452684
 20
161.577837999822
 30
0.0
  0
SPLINE
  5
F6
330
1F
100
AcDbEntity
  8
0
  6
HIDDEN
 62
     7
370
     0
100
AcDbSpline
210
0.0
220
0.0
230
1.0
 70
     8
 71
     3
 72
     9
 73
     5
 74
     0
 42
0.000000001
 43
0.00000001
 40
0.0
 40
0.0
 40
0.0
 40
0.0
 40
0.5048005003628353
 40
1.0
 40
1.0
 40
1.0
 40
1.0
 10
196.6243949452685
 20
63.25784641554635
 30
0.0
 10
196.5160049978366
 20
63.41868925645097
 30
0.0
 10
196.3012866143288
 20
63.73731580454076
 30
0.0
 10
196.0888546115219
 20
64.05467428335633
 30
0.0
 10
195.983658390025
 20
64.2118300432714
 30
0.0
  0
LINE
  5
F7
330
1F
100
AcDbEntity
  8
0
  6
HIDDEN
 62
     7
370
     0
100
AcDbLine
 10
221.9993741756
 20
120.2311582057
 30
0.0
 11
230.1993741756
 21
120.2311582057
 31
0.0
  0
LINE
  5
F8
330
1F
100
AcDbEntity
  8
0
  6
HIDDEN
 62
     7
370
     0
100
AcDbLine
 10
221.9993741756
 20
104.6045262097
 30
0.0
 11
230.1993741756
 21
104.6045262097
 31
0.0
  0
SPLINE
  5
F9
330
1F
100
AcDbEntity
  8
0
  6
HIDDEN
 62
     7
370
     0
100
AcDbSpline
210
0.0
220
0.0
230
1.0
 70
     8
 71
     3
 72
    14
 73
    10
 74
     0
 42
0.000000001
 43
0.00000001
 40
0.0
 40
0.0
 40
0.0
 40
0.0
 40
0.25
 40
0.25
 40
0.5
 40
0.5
 40
0.75
 40
0.75
 40
1.0
 40
1.0
 40
1.0
 40
1.0
 10
230.4993741755879
 20
124.2178422076842
 30
0.0
 10
230.4993741755879
 20
124.4021065084217
 30
0.0
 10
230.4995262451042
 20
124.5690673577045
 30
0.0
 10
230.496297795833
 20
124.8694704873878
 30
0.0
 10
230.493450595321
 20
125.0022069444185
 30
0.0
 10
230.4858006749631
 20
125.2183658763922
 30
0.0
 10
230.4806731402419
 20
125.3048499091466
 30
0.0
 10
230.4706351195253
 20
125.4245062581549
 30
0.0
 10
230.4656985246104
 20
125.4586454292239
 30
0.0
 10
230.4620956203451
 20
125.4662461611455
 30
0.0
  0
SPLINE
  5
FA
330
1F
100
AcDbEntity
  8
0
  6
HIDDEN
 62
     7
370
     0
100
AcDbSpline
210
0.0
220
0.0
230
1.0
 70
     8
 71
     3
 72
    11
 73
     7
 74
     0
 42
0.000000001
 43
0.00000001
 40
0.0
 40
0.0
 40
0.0
 40
0.0
 40
0.279277103942375
 40
0.6041923685184041
 40
0.9296541432296939
 40
1.0
 40
1.0
 40
1.0
 40
1.0
 10
230.4615707900332
 20
125.450275383901
 30
0.0
 10
230.4591064440382
 20
125.4340284955553
 30
0.0
 10
230.4537750401297
 20
125.3988797282124
 30
0.0
 10
230.4762409248646
 20
125.0089264752586
 30
0.0
 10
230.4977484462993
 20
124.559993036594
 30
0.0
 10
230.4991288316168
 20
124.2694751865441
 30
0.0
 10
230.4993741638947
 20
124.2178422076843
 30
0.0
  0
LINE
  5
FB
330
1F
100
AcDbEntity
  8
0
  6
HIDDEN
 62
     7
370
     0
100
AcDbLine
 10
230.4993741639
 20
124.2178422077
 30
0.0
 11
230.4993741756
 21
120.3460479949
 31
0.0
  0
LINE
  5
FC
330
1F
100
AcDbEntity
  8
0
  6
HIDDEN
 62
     7
370
     0
100
AcDbLine
 10
230.4993741803
 20
100.6178422077
 30
0.0
 11
230.4993741756
 21
104.4896364204
 31
0.0
  0
SPLINE
  5
FD
330
1F
100
AcDbEntity
  8
0
  6
HIDDEN
 62
     7
370
     0
100
AcDbSpline
210
0.0
220
0.0
230
1.0
 70
     8
 71
     3
 72
    11
 73
     7
 74
     0
 42
0.000000001
 43
0.00000001
 40
0.0
 40
0.0
 40
0.0
 40
0.0
 40
0.2791293617742112
 40
0.6040879460056172
 40
0.929592946526498
 40
1.0
 40
1.0
 40
1.0
 40
1.0
 10
230.4615687978992
 20
99.38547003925943
 30
0.0
 10
230.4591066930715
 20
99.4016974751063
 30
0.0
 10
230.4537782394873
 20
99.43681666975988
 30
0.0
 10
230.4762142363118
 20
99.82667994519157
 30
0.0
 10
230.4978006987759
 20
100.2756160900665
 30
0.0
 10
230.499136608644
 20
100.5661712978345
 30
0.0
 10
230.4993741802879
 20
100.6178422076841
 30
0.0
  0
LINE
  5
FE
330
1F
100
AcDbEntity
  8
0
  6
HIDDEN
 62
     7
370
     0
100
AcDbLine
 10
221.9993741756
 20
124.2178422077
 30
0.0
 11
221.9993741756
 21
120.2311582057
 31
0.0
  0
LINE
  5
FF
330
1F
100
AcDbEntity
  8
0
  6
HIDDEN
 62
     7
370
     0
100
AcDbLine
 10
221.9993741756
 20
100.6178422077
 30
0.0
 11
221.9993741756
 21
104.6045262097
 31
0.0
  0
SPLINE
  5
100
330
1F
100
AcDbEntity
  8
0
  6
HIDDEN
 62
     7
370
     0
100
AcDbSpline
210
0.0
220
0.0
230
1.0
 70
    11
 71
     3
 72
    66
 73
    62
 74
     0
 42
0.000000001
 43
0.00000001
 40
0.0
 40
0.0
 40
0.0
 40
0.0
 40
0.03125
 40
0.03125
 40
0.0625
 40
0.0625
 40
0.09375
 40
0.09375
 40
0.1250000000000001
 40
0.1250000000000001
 40
0.1562500000000001
 40
0.1562500000000001
 40
0.1875000000000001
 40
0.1875000000000001
 40
0.2187500000000002
 40
0.2187500000000002
 40
0.2500000000000002
 40
0.2500000000000002
 40
0.2812500000000003
 40
0.2812500000000003
 40
0.3125000000000004
 40
0.3125000000000004
 40
0.3437500000000004
 40
0.3437500000000004
 40
0.3750000000000005
 40
0.3750000000000005
 40
0.4062500000000006
 40
0.4062500000000006
 40
0.4375000000000007
 40
0.4375000000000007
 40
0.4687500000000007
 40
0.4687500000000007
 40
0.5000000000000008
 40
0.5000000000000008
 40
0.5312500000000009
 40
0.5312500000000009
 40
0.562500000000001
 40
0.562500000000001
 40
0.6250000000000007
 40
0.6250000000000007
 40
0.6562500000000007
 40
0.6562500000000007
 40
0.6875000000000007
 40
0.6875000000000007
 40
0.7187500000000007
 40
0.7187500000000007
 40
0.7500000000000007
 40
0.7500000000000007
 40
0.7812500000000007
 40
0.7812500000000007
 40
0.8125000000000007
 40
0.8125000000000007
 40
0.8437500000000007
 40
0.8437500000000007
 40
0.8750000000000008
 40
0.8750000000000008
 40
0.9375000000000007
 40
0.9375000000000007
 40
0.9687500000000003
 40
0.9687500000000003
 40
1.0
 40
1.0
 40
1.0
 40
1.0
 10
189.0993741755879
 20
110.8567426265968
 30
0.0
 10
189.2724248412583
 20
110.8567426265968
 30
0.0
 10
189.4401194952655
 20
110.8801041616559
 30
0.0
 10
189.766581045386
 20
110.9670991676334
 30
0.0
 10
189.9255388918467
 20
111.0314160947018
 30
0.0
 10
190.2214925890607
 20
111.1884956950856
 30
0.0
 10
190.3618636494062
 20
111.2826370270578
 30
0.0
 10
190.6231759302136
 20
111.493672524953
 30
0.0
 10
190.7438154372328
 20
111.6099914604288
 30
0.0
 10
190.967263483076
 20
111.8635586748738
 30
0.0
 10
191.070066730342
 20
112.0014275495824
 30
0.0
 10
191.2497804150594
 20
112.2882015057787
 30
0.0
 10
191.3278728438746
 20
112.4382785413048
 30
0.0
 10
191.4585233359414
 20
112.7530708130342
 30
0.0
 10
191.5105741167198
 20
112.918080218442
 30
0.0
 10
191.5802365651707
 20
113.2453403593056
 30
0.0
 10
191.5988091002405
 20
113.4121661643326
 30
0.0
 10
191.5999132379412
 20
113.7340928294142
 30
0.0
 10
191.5830681981394
 20
113.8887148879611
 30
0.0
 10
191.5149825943333
 20
114.1857056135968
 30
0.0
 10
191.4645191892389
 20
114.3238756623186
 30
0.0
 10
191.3354706261858
 20
114.5778555954111
 30
0.0
 10
191.256027612549
 20
114.6947309981223
 30
0.0
 10
191.0759697860503
 20
114.902173061657
 30
0.0
 10
190.9743150567033
 20
114.9944534401947
 30
0.0
 10
190.7503011791923
 20
115.1572569971444
 30
0.0
 10
190.6298173822511
 20
115.2266116759958
 30
0.0
 10
190.3703009536584
 20
115.3454610988921
 30
0.0
 10
190.2297461995718
 20
115.3952941320015
 30
0.0
 10
189.9334526972124
 20
115.4745141163638
 30
0.0
 10
189.7780389007425
 20
115.5041631124042
 30
0.0
 10
189.447581523046
 20
115.5447465813469
 30
0.0
 10
189.2779497175862
 20
115.5549327997355
 30
0.0
 10
188.9345004032226
 20
115.5554679858505
 30
0.0
 10
188.7625996935423
 20
115.5455967830667
 30
0.0
 10
188.4340702188284
 20
115.5063174943557
 30
0.0
 10
188.275003821433
 20
115.476550251645
 30
0.0
 10
187.8314251075753
 20
115.3595742765799
 30
0.0
 10
187.5676851893329
 20
115.2421633955631
 30
0.0
 10
187.2326913625074
 20
115.0012845162552
 30
0.0
 10
187.1295280150231
 20
114.9087704382622
 30
0.0
 10
186.9483783027514
 20
114.7023492668905
 30
0.0
 10
186.8698762453633
 20
114.5884979804271
 30
0.0
 10
186.7388885415164
 20
114.3351954881406
 30
0.0
 10
186.6874125173572
 20
114.1964426360717
 30
0.0
 10
186.6183857497613
 20
113.9052255164999
 30
0.0
 10
186.5999127068584
 20
113.7496327050866
 30
0.0
 10
186.5988590282723
 20
113.4261523913258
 30
0.0
 10
186.6159537980468
 20
113.2628860255665
 30
0.0
 10
186.6838009999594
 20
112.9336250132623
 30
0.0
 10
186.7348217245237
 20
112.7686452767728
 30
0.0
 10
186.8640127395654
 20
112.4524882634894
 30
0.0
 10
186.943531775801
 20
112.2978574599728
 30
0.0
 10
187.1242710742198
 20
112.0075361708071
 30
0.0
 10
187.2254766209193
 20
111.8710964413576
 30
0.0
 10
187.5619327094444
 20
111.4871819038217
 30
0.0
 10
187.8207557519036
 20
111.2726071388039
 30
0.0
 10
188.2687518610776
 20
111.0332731850781
 30
0.0
 10
188.4246905544369
 20
110.9696459754265
 30
0.0
 10
188.7538244167366
 20
110.880850333816
 30
0.0
 10
188.9263235099176
 20
110.8567426265968
 30
0.0
 10
189.0993741755879
 20
110.8567426265968
 30
0.0
  0
LINE
  5
101
330
1F
100
AcDbEntity
  8
0
  6
HIDDEN
 62
     7
370
     0
100
AcDbLine
 10
221.9993741756
 20
125.4678422077
 30
0.0
 11
221.9993741756
 21
124.2178422077
 31
0.0
  0
LINE
  5
102
330
1F
100
AcDbEntity
  8
0
  6
HIDDEN
 62
     7
370
     0
100
AcDbLine
 10
221.9993741756
 20
99.3678422077
 30
0.0
 11
221.9993741756
 21
100.6178422077
 31
0.0
  0
SPLINE
  5
103
330
1F
100
AcDbEntity
  8
0
  6
HIDDEN
 62
     7
370
     0
100
AcDbSpline
210
0.0
220
0.0
230
1.0
 70
    11
 71
     3
 72
    66
 73
    62
 74
     0
 42
0.000000001
 43
0.00000001
 40
0.0
 40
0.0
 40
0.0
 40
0.0
 40
0.0312500000000001
 40
0.0312500000000001
 40
0.0625000000000003
 40
0.0625000000000003
 40
0.0937500000000004
 40
0.0937500000000004
 40
0.1250000000000006
 40
0.1250000000000006
 40
0.1562500000000007
 40
0.1562500000000007
 40
0.1875000000000008
 40
0.1875000000000008
 40
0.218750000000001
 40
0.218750000000001
 40
0.2500000000000011
 40
0.2500000000000011
 40
0.2812500000000012
 40
0.2812500000000012
 40
0.3125000000000014
 40
0.3125000000000014
 40
0.3437500000000016
 40
0.3437500000000016
 40
0.3750000000000017
 40
0.3750000000000017
 40
0.4062500000000018
 40
0.4062500000000018
 40
0.4375000000000019
 40
0.4375000000000019
 40
0.4687500000000021
 40
0.4687500000000021
 40
0.5000000000000022
 40
0.5000000000000022
 40
0.5312500000000023
 40
0.5312500000000023
 40
0.5625000000000024
 40
0.5625000000000024
 40
0.6250000000000026
 40
0.6250000000000026
 40
0.6562500000000023
 40
0.6562500000000023
 40
0.6875000000000021
 40
0.6875000000000021
 40
0.718750000000002
 40
0.718750000000002
 40
0.7500000000000018
 40
0.7500000000000018
 40
0.7812500000000016
 40
0.7812500000000016
 40
0.8125000000000013
 40
0.8125000000000013
 40
0.8437500000000012
 40
0.8437500000000012
 40
0.875000000000001
 40
0.875000000000001
 40
0.9062500000000008
 40
0.9062500000000008
 40
0.9375000000000006
 40
0.9375000000000006
 40
1.0
 40
1.0
 40
1.0
 40
1.0
 10
189.0993741755879
 20
124.579296414598
 30
0.0
 10
188.934173884924
 20
124.579296414598
 30
0.0
 10
188.7717413436275
 20
124.5948620058799
 30
0.0
 10
188.4521831880375
 20
124.6558082777095
 30
0.0
 10
188.2933998500604
 20
124.7019303216948
 30
0.0
 10
187.9906618335811
 20
124.8221935092828
 30
0.0
 10
187.8470826684467
 20
124.8957371587035
 30
0.0
 10
187.5753529385787
 20
125.0692540816358
 30
0.0
 10
187.446724375041
 20
125.1701267384224
 30
0.0
 10
187.2161586133738
 20
125.3901115273207
 30
0.0
 10
187.1126846121244
 20
125.5099906909094
 30
0.0
 10
186.9299240741987
 20
125.7698320575069
 30
0.0
 10
186.8522798179701
 20
125.9079214880792
 30
0.0
 10
186.72758716728
 20
126.1929039203273
 30
0.0
 10
186.6795831867015
 20
126.3418990296698
 30
0.0
 10
186.6153514443832
 20
126.6464241170645
 30
0.0
 10
186.599462000341
 20
126.799193464501
 30
0.0
 10
186.5992870699859
 20
127.1056831461151
 30
0.0
 10
186.6155177213208
 20
127.2610099164101
 30
0.0
 10
186.6792989440304
 20
127.5610721223086
 30
0.0
 10
186.7264910554267
 20
127.7066068348078
 30
0.0
 10
186.8516576730846
 20
127.9887401151297
 30
0.0
 10
186.9299171604596
 20
128.1248799564844
 30
0.0
 10
187.1108373438149
 20
128.376416506254
 30
0.0
 10
187.2141225727388
 20
128.4934433500972
 30
0.0
 10
187.4473743147875
 20
128.7095186437187
 30
0.0
 10
187.5737881830532
 20
128.8052225676041
 30
0.0
 10
187.8444604537478
 20
128.9723755643757
 30
0.0
 10
187.990542225912
 20
129.0445367499988
 30
0.0
 10
188.2934266713849
 20
129.1601907919553
 30
0.0
 10
188.4492570310246
 20
129.2037235991379
 30
0.0
 10
188.7696025202901
 20
129.2626195020713
 30
0.0
 10
188.9353126062617
 20
129.2777056050912
 30
0.0
 10
189.2616439949582
 20
129.277813136758
 30
0.0
 10
189.4238310807851
 20
129.2633224795683
 30
0.0
 10
189.7462066619937
 20
129.2045944152912
 30
0.0
 10
189.9042221360313
 20
129.1604636081618
 30
0.0
 10
190.3556330111068
 20
128.9885340095639
 30
0.0
 10
190.634712468159
 20
128.8169603168928
 30
0.0
 10
190.9807861726574
 20
128.4973094985265
 30
0.0
 10
191.086428188572
 20
128.3782683691381
 30
0.0
 10
191.2682116645428
 20
128.1259486082797
 30
0.0
 10
191.3450994879267
 20
127.9924842969083
 30
0.0
 10
191.4707540452971
 20
127.710718884356
 30
0.0
 10
191.5190621212118
 20
127.562298152725
 30
0.0
 10
191.5828800066521
 20
127.2632485549484
 30
0.0
 10
191.5992081836949
 20
127.1110454850812
 30
0.0
 10
191.5995376737546
 20
126.8010436262415
 30
0.0
 10
191.58344116192
 20
126.6475209591434
 30
0.0
 10
191.5202124246587
 20
126.3459922415643
 30
0.0
 10
191.4723758312482
 20
126.1960574162625
 30
0.0
 10
191.3470325133348
 20
125.9088383201716
 30
0.0
 10
191.2703358388096
 20
125.7724594058554
 30
0.0
 10
191.0892844721578
 20
125.5141038478412
 30
0.0
 10
190.9838088617969
 20
125.3914286714669
 30
0.0
 10
190.7532822931207
 20
125.1711749874148
 30
0.0
 10
190.6275628554904
 20
125.072249415981
 30
0.0
 10
190.3547960062936
 20
124.8974107350593
 30
0.0
 10
190.2090766298875
 20
124.8227338900789
 30
0.0
 10
189.7580075247795
 20
124.6431076745862
 30
0.0
 10
189.4297747569157
 20
124.579296414598
 30
0.0
 10
189.0993741755879
 20
124.579296414598
 30
0.0
  0
SPLINE
  5
104
330
1F
100
AcDbEntity
  8
0
  6
HIDDEN
 62
     7
370
     0
100
AcDbSpline
210
0.0
220
0.0
230
1.0
 70
    11
 71
     3
 72
    60
 73
    56
 74
     0
 42
0.000000001
 43
0.00000001
 40
0.0
 40
0.0
 40
0.0
 40
0.0
 40
0.0312499999999991
 40
0.0312499999999991
 40
0.0624999999999982
 40
0.0624999999999982
 40
0.0937499999999973
 40
0.0937499999999973
 40
0.1249999999999964
 40
0.1249999999999964
 40
0.1562499999999955
 40
0.1562499999999955
 40
0.1874999999999946
 40
0.1874999999999946
 40
0.2187499999999937
 40
0.2187499999999937
 40
0.2499999999999928
 40
0.2499999999999928
 40
0.3124999999999915
 40
0.3124999999999915
 40
0.3749999999999903
 40
0.3749999999999903
 40
0.4062499999999898
 40
0.4062499999999898
 40
0.4374999999999892
 40
0.4374999999999892
 40
0.453124999999989
 40
0.453124999999989
 40
0.4687499999999887
 40
0.4687499999999887
 40
0.499999999999989
 40
0.499999999999989
 40
0.5624999999999909
 40
0.5624999999999909
 40
0.6249999999999921
 40
0.6249999999999921
 40
0.6874999999999934
 40
0.6874999999999934
 40
0.7187499999999941
 40
0.7187499999999941
 40
0.7499999999999948
 40
0.7499999999999948
 40
0.7812499999999954
 40
0.7812499999999954
 40
0.8124999999999961
 40
0.8124999999999961
 40
0.8437499999999968
 40
0.8437499999999968
 40
0.8749999999999973
 40
0.8749999999999973
 40
0.906249999999998
 40
0.906249999999998
 40
0.9374999999999987
 40
0.9374999999999987
 40
1.0
 40
1.0
 40
1.0
 40
1.0
 10
186.6803991153682
 20
121.8873174079613
 30
0.0
 10
186.719989198215
 20
121.7558368766073
 30
0.0
 10
186.7723008191352
 20
121.6366530259277
 30
0.0
 10
186.8980209247377
 20
121.4214595385997
 30
0.0
 10
186.9724439551819
 20
121.3248716329915
 30
0.0
 10
187.131154263375
 20
121.1643107212364
 30
0.0
 10
187.2160328631805
 20
121.0990314845345
 30
0.0
 10
187.3878060827223
 20
121.0015293099772
 30
0.0
 10
187.4718163190183
 20
120.97105421318
 30
0.0
 10
187.6172122422969
 20
120.9513052448226
 30
0.0
 10
187.6754784908062
 20
120.9630817943188
 30
0.0
 10
187.7420832156163
 20
121.0275021371021
 30
0.0
 10
187.7492441000141
 20
121.0782152751819
 30
0.0
 10
187.7260987806318
 20
121.2012387875569
 30
0.0
 10
187.6971906946622
 20
121.2717100138422
 30
0.0
 10
187.621769936817
 20
121.4253316765067
 30
0.0
 10
187.5748244640407
 20
121.5089669446906
 30
0.0
 10
187.4231825724193
 20
121.7723471837007
 30
0.0
 10
187.307255435156
 20
121.9658961091243
 30
0.0
 10
187.0736298641737
 20
122.4027655810202
 30
0.0
 10
186.9549470974718
 20
122.6457707152076
 30
0.0
 10
186.7984757885162
 20
123.0568452537374
 30
0.0
 10
186.7504891399641
 20
123.2005168192207
 30
0.0
 10
186.6698801301738
 20
123.5009797471796
 30
0.0
 10
186.6371806012787
 20
123.6594790014539
 30
0.0
 10
186.6087599919348
 20
123.8946895232832
 30
0.0
 10
186.6026139199612
 20
123.9739371310797
 30
0.0
 10
186.5981357181963
 20
124.1256147015391
 30
0.0
 10
186.5996519286085
 20
124.1988227738476
 30
0.0
 10
186.6154148682849
 20
124.4105785050745
 30
0.0
 10
186.6408889229703
 20
124.536476650936
 30
0.0
 10
186.7472536667192
 20
124.8582070169552
 30
0.0
 10
186.8531316959898
 20
124.9962207333152
 30
0.0
 10
187.0763019169348
 20
125.1820325844454
 30
0.0
 10
187.197188349062
 20
125.2309566192016
 30
0.0
 10
187.4262708227437
 20
125.2670079449926
 30
0.0
 10
187.5364336409942
 20
125.2551297617909
 30
0.0
 10
187.6644168083453
 20
125.1905222002415
 30
0.0
 10
187.7007581537578
 20
125.160514986478
 30
0.0
 10
187.7438481569178
 20
125.0799868629281
 30
0.0
 10
187.7503329655198
 20
125.0284064456763
 30
0.0
 10
187.7142922128188
 20
124.8988592360506
 30
0.0
 10
187.6700729976936
 20
124.8190004115572
 30
0.0
 10
187.5444230228814
 20
124.6368709362523
 30
0.0
 10
187.4632988914
 20
124.5328184962321
 30
0.0
 10
187.2963535213056
 20
124.3098546005528
 30
0.0
 10
187.2084653565757
 20
124.1880512185075
 30
0.0
 10
187.0428258593267
 20
123.9304899954479
 30
0.0
 10
186.9648797711893
 20
123.795011135134
 30
0.0
 10
186.8256240375177
 20
123.5082568137859
 30
0.0
 10
186.7665983186187
 20
123.3618047758949
 30
0.0
 10
186.6728133649154
 20
123.0615600459929
 30
0.0
 10
186.638000306806
 20
122.9058581898677
 30
0.0
 10
186.5796827021293
 20
122.4500952026061
 30
0.0
 10
186.6012189496745
 20
122.1502784706692
 30
0.0
 10
186.6803991153682
 20
121.8873174079613
 30
0.0
  0
SPLINE
  5
105
330
1F
100
AcDbEntity
  8
0
  6
HIDDEN
 62
     7
370
     0
100
AcDbSpline
210
0.0
220
0.0
230
1.0
 70
     8
 71
     3
 72
    16
 73
    12
 74
     0
 42
0.000000001
 43
0.00000001
 40
0.0
 40
0.0
 40
0.0
 40
0.0
 40
0.2499999999999998
 40
0.2499999999999998
 40
0.4999999999999997
 40
0.4999999999999997
 40
0.6249999999999996
 40
0.6249999999999996
 40
0.7499999999999996
 40
0.7499999999999996
 40
1.0
 40
1.0
 40
1.0
 40
1.0
 10
230.8993741755879
 20
103.808779286525
 30
0.0
 10
230.8993741755879
 20
103.8810667713651
 30
0.0
 10
230.8953520595567
 20
103.9557982564794
 30
0.0
 10
230.8725348362401
 20
104.1126784525717
 30
0.0
 10
230.8542662051579
 20
104.1938852866836
 30
0.0
 10
230.8039143178478
 20
104.3109864811021
 30
0.0
 10
230.7828737841465
 20
104.3492030674564
 30
0.0
 10
230.7318591648128
 20
104.4148317460175
 30
0.0
 10
230.7021867643171
 20
104.4412393257602
 30
0.0
 10
230.611759409908
 20
104.4942760172857
 30
0.0
 10
230.5529000666289
 20
104.4973865377965
 30
0.0
 10
230.4993741755873
 20
104.4896364204595
 30
0.0
  0
LWPOLYLINE
  5
106
330
1F
100
AcDbEntity
  8
0
  6
HIDDEN
 62
     7
370
     0
100
AcDbPolyline
 90
       20
 70
   128
 43
0.0
 10
169.8816318761
 20
125.2044930669
 10
170.0383860177
 20
124.7183897369
 10
170.2866737891
 20
124.4135373731
 10
170.5995893575
 20
124.3229714594
 10
170.9432234659
 20
124.4565062178
 10
171.2803380265
 20
124.7996710852
 10
171.5744014459
 20
125.3152788234
 10
171.7935473895
 20
125.9474553337
 10
171.9140279942
 20
126.6276944817
 10
171.9227873168
 20
127.282281801
 10
171.8188761489
 20
127.8402825984
 10
171.6135548779
 20
128.2412288293
 10
171.3290732494
 20
128.4416717482
 10
170.996259262
 20
128.4198902547
 10
170.6511784753
 20
128.1782447115
 10
170.3312257472
 20
127.7429211629
 10
170.0710729202
 20
127.16109367
 10
169.8989115899
 20
126.4958122697
 10
169.8333981077
 20
125.8191705245
 10
169.8816318761
 20
125.2044930669
  0
LWPOLYLINE
  5
107
330
1F
100
AcDbEntity
  8
0
  6
HIDDEN
 62
     7
370
     0
100
AcDbPolyline
 90
       24
 70
   128
 43
0.0
 10
169.1687612875
 20
124.7520175458
 10
169.3434744144
 20
124.1615489417
 10
169.6113318813
 20
123.7405815657
 10
169.9524679251
 20
123.5203366421
 10
170.3415820462
 20
123.5171487295
 10
170.7498154301
 20
123.7312542607
 10
171.1468912745
 20
124.1467740079
 10
171.5033602803
 20
124.7328907724
 10
171.7927847722
 20
125.4461349551
 10
171.9936994597
 20
126.2336084977
 10
172.0912034194
 20
127.0369080901
 10
172.0780652288
 20
127.7964566764
 10
171.9552592873
 20
128.4559220127
 10
171.7318935499
 20
128.9663945717
 10
171.4245340314
 20
129.290014939
 10
171.0559761812
 20
129.4027816726
 10
170.6535542492
 20
129.2963313795
 10
170.2471140289
 20
128.9785589911
 10
169.8667993322
 20
128.4730322317
 10
169.5408163603
 20
127.8172437085
 10
169.293341779
 20
127.0598302561
 10
169.1427296459
 20
126.2569657653
 10
169.1001501738
 20
125.4681950227
 10
169.1687612875
 20
124.7520175458
  0
LWPOLYLINE
  5
108
330
1F
100
AcDbEntity
  8
0
  6
HIDDEN
 62
     7
370
     0
100
AcDbPolyline
 90
       24
 70
   128
 43
0.0
 10
187.7855961998
 20
123.0512356432
 10
187.1066638345
 20
123.4782943267
 10
186.5755216792
 20
124.0616435464
 10
186.2315621176
 20
124.7580189592
 10
186.100295057
 20
125.5157735866
 10
186.1914559748
 20
126.2787082342
 10
186.4982838827
 20
126.9902395295
 10
186.9980227584
 20
127.5975964513
 10
187.6536092557
 20
128.0557341153
 10
188.4164215231
 20
128.3306745466
 10
189.2298852645
 20
128.4020266714
 10
190.0336695955
 20
128.2644986288
 10
190.7681615093
 20
127.9282902448
 10
191.3788871007
 20
127.418336557
 10
191.8205516466
 20
126.7724584976
 10
192.060398908
 20
126.0385578877
 10
192.0806405108
 20
125.2710647779
 10
191.8797752279
 20
124.5269006214
 10
191.4727003184
 20
123.8612566691
 10
190.8896066662
 20
123.323500688
 10
190.1737396599
 20
122.9535155791
 10
189.3781918805
 20
122.7787414453
 10
188.5619654675
 20
122.8121404847
 10
187.7855961998
 20
123.0512356432
  0
LWPOLYLINE
  5
109
330
1F
100
AcDbEntity
  8
0
  6
HIDDEN
 62
     7
370
     0
100
AcDbPolyline
 90
       19
 70
   128
 43
0.0
 10
188.2235221918
 20
123.5540095274
 10
187.6613827693
 20
123.9373975565
 10
187.2726863329
 20
124.4783325862
 10
187.1043154094
 20
125.1115698685
 10
187.176578017
 20
125.7607316417
 10
187.4807582188
 20
126.3475194152
 10
187.9801673932
 20
126.8011579236
 10
188.6145694233
 20
127.0669316676
 10
189.3074460615
 20
127.1127844115
 10
189.9752261594
 20
126.9331856374
 10
190.5373655819
 20
126.5497976083
 10
190.9260620183
 20
126.0088625786
 10
191.0944329418
 20
125.3756252963
 10
191.0221703342
 20
124.7264635231
 10
190.7179901324
 20
124.1396757496
 10
190.218580958
 20
123.6860372412
 10
189.5841789279
 20
123.4202634972
 10
188.8913022897
 20
123.3744107533
 10
188.2235221918
 20
123.5540095274
  0
LWPOLYLINE
  5
10A
330
1F
100
AcDbEntity
  8
0
  6
HIDDEN
 62
     7
370
     0
100
AcDbPolyline
 90
       24
 70
   128
 43
0.0
 10
187.7855961998
 20
124.3098216401
 10
187.1066638345
 20
124.7368803236
 10
186.5755216792
 20
125.3202295433
 10
186.2315621176
 20
126.0166049561
 10
186.100295057
 20
126.7743595835
 10
186.1914559748
 20
127.5372942311
 10
186.4982838827
 20
128.2488255264
 10
186.9980227584
 20
128.8561824482
 10
187.6536092557
 20
129.3143201122
 10
188.4164215231
 20
129.5892605435
 10
189.2298852645
 20
129.6606126683
 10
190.0336695955
 20
129.5230846257
 10
190.7681615093
 20
129.1868762417
 10
191.3788871007
 20
128.6769225539
 10
191.8205516466
 20
128.0310444945
 10
192.060398908
 20
127.2971438846
 10
192.0806405108
 20
126.5296507748
 10
191.8797752279
 20
125.7854866183
 10
191.4727003184
 20
125.119842666
 10
190.8896066662
 20
124.5820866849
 10
190.1737396599
 20
124.212101576
 10
189.3781918805
 20
124.0373274422
 10
188.5619654675
 20
124.0707264816
 10
187.7855961998
 20
124.3098216401
  0
LINE
  5
10B
330
1F
100
AcDbEntity
  8
0
  6
HIDDEN
 62
     7
370
     0
100
AcDbLine
 10
188.13011267
 20
127.6185448358
 30
0.0
 11
189.8578842435
 21
127.73288419
 31
0.0
  0
LINE
  5
10C
330
1F
100
AcDbEntity
  8
0
  6
HIDDEN
 62
     7
370
     0
100
AcDbLine
 10
189.8578842435
 20
127.73288419
 30
0.0
 11
189.8578842435
 21
128.4169244766
 31
0.0
  0
LINE
  5
10D
330
1F
100
AcDbEntity
  8
0
  6
HIDDEN
 62
     7
370
     0
100
AcDbLine
 10
190.8271457492
 20
126.3839973666
 30
0.0
 11
189.8578842435
 21
127.73288419
 31
0.0
  0
LINE
  5
10E
330
1F
100
AcDbEntity
  8
0
  6
HIDDEN
 62
     7
370
     0
100
AcDbLine
 10
188.13011267
 20
127.6185448358
 30
0.0
 11
188.13011267
 21
128.3025851224
 31
0.0
  0
LINE
  5
10F
330
1F
100
AcDbEntity
  8
0
  6
HIDDEN
 62
     7
370
     0
100
AcDbLine
 10
187.371602602
 20
126.1553186582
 30
0.0
 11
188.13011267
 21
127.6185448358
 31
0.0
  0
LINE
  5
110
330
1F
100
AcDbEntity
  8
0
  6
HIDDEN
 62
     7
370
     0
100
AcDbLine
 10
190.0686356812
 20
124.920771189
 30
0.0
 11
190.0686356812
 21
125.6048114756
 31
0.0
  0
LINE
  5
111
330
1F
100
AcDbEntity
  8
0
  6
HIDDEN
 62
     7
370
     0
100
AcDbLine
 10
190.0686356812
 20
125.6048114756
 30
0.0
 11
190.8271457492
 21
127.0680376532
 31
0.0
  0
LINE
  5
112
330
1F
100
AcDbEntity
  8
0
  6
HIDDEN
 62
     7
370
     0
100
AcDbLine
 10
190.8271457492
 20
126.3839973666
 30
0.0
 11
190.8271457492
 21
127.0680376532
 31
0.0
  0
LINE
  5
113
330
1F
100
AcDbEntity
  8
0
  6
HIDDEN
 62
     7
370
     0
100
AcDbLine
 10
190.0686356812
 20
124.920771189
 30
0.0
 11
190.8271457492
 21
126.3839973666
 31
0.0
  0
LINE
  5
114
330
1F
100
AcDbEntity
  8
0
  6
HIDDEN
 62
     7
370
     0
100
AcDbLine
 10
188.3408641076
 20
124.8064318348
 30
0.0
 11
188.3408641076
 21
125.4904721214
 31
0.0
  0
LINE
  5
115
330
1F
100
AcDbEntity
  8
0
  6
HIDDEN
 62
     7
370
     0
100
AcDbLine
 10
187.371602602
 20
126.8393589448
 30
0.0
 11
188.3408641076
 21
125.4904721214
 31
0.0
  0
LINE
  5
116
330
1F
100
AcDbEntity
  8
0
  6
HIDDEN
 62
     7
370
     0
100
AcDbLine
 10
187.371602602
 20
126.1553186582
 30
0.0
 11
187.371602602
 21
126.8393589448
 31
0.0
  0
LINE
  5
117
330
1F
100
AcDbEntity
  8
0
  6
HIDDEN
 62
     7
370
     0
100
AcDbLine
 10
187.371602602
 20
126.1553186582
 30
0.0
 11
188.3408641076
 21
124.8064318348
 31
0.0
  0
LINE
  5
118
330
1F
100
AcDbEntity
  8
0
  6
HIDDEN
 62
     7
370
     0
100
AcDbLine
 10
190.0686356812
 20
125.6048114756
 30
0.0
 11
188.3408641076
 21
125.4904721214
 31
0.0
  0
LINE
  5
119
330
1F
100
AcDbEntity
  8
0
  6
HIDDEN
 62
     7
370
     0
100
AcDbLine
 10
190.0686356812
 20
124.920771189
 30
0.0
 11
188.3408641076
 21
124.8064318348
 31
0.0
  0
LWPOLYLINE
  5
11A
330
1F
100
AcDbEntity
  8
0
  6
HIDDEN
 62
     7
370
     0
100
AcDbPolyline
 90
       21
 70
   128
 43
0.0
 10
188.0284261624
 20
124.8877545047
 10
187.4014585036
 20
125.2998519347
 10
186.9406946609
 20
125.8738393699
 10
186.6912374095
 20
126.5535309209
 10
186.6775053633
 20
127.272393643
 10
186.9008427105
 20
127.9600602443
 10
187.3393876356
 20
128.5492171267
 10
187.9502123058
 20
128.9821935096
 10
188.6735249465
 20
129.2166066479
 10
189.4385226768
 20
129.2295105505
 10
190.1703221888
 20
129.0196420933
 10
190.7972898476
 20
128.6075446633
 10
191.2580536903
 20
128.0335572281
 10
191.5075109417
 20
127.3538656772
 10
191.5212429879
 20
126.6350029551
 10
191.2979056407
 20
125.9473363537
 10
190.8593607156
 20
125.3581794714
 10
190.2485360454
 20
124.9252030884
 10
189.5252234047
 20
124.6907899501
 10
188.7602256744
 20
124.6778860476
 10
188.0284261624
 20
124.8877545047
  0
LINE
  5
11B
330
1F
100
AcDbEntity
  8
0
  6
HIDDEN
 62
     7
370
     0
100
AcDbLine
 10
187.371602602
 20
126.8393589448
 30
0.0
 11
188.13011267
 21
128.3025851224
 31
0.0
  0
LINE
  5
11C
330
1F
100
AcDbEntity
  8
0
  6
HIDDEN
 62
     7
370
     0
100
AcDbLine
 10
190.8271457492
 20
127.0680376532
 30
0.0
 11
189.8578842435
 21
128.4169244766
 31
0.0
  0
LINE
  5
11D
330
1F
100
AcDbEntity
  8
0
  6
HIDDEN
 62
     7
370
     0
100
AcDbLine
 10
188.13011267
 20
128.3025851224
 30
0.0
 11
189.8578842435
 21
128.4169244766
 31
0.0
  0
LWPOLYLINE
  5
11E
330
1F
100
AcDbEntity
  8
0
  6
HIDDEN
 62
     7
370
     0
100
AcDbPolyline
 90
       24
 70
   128
 43
0.0
 10
190.4131521513
 20
100.5258627753
 10
189.6367828837
 20
100.7649579338
 10
188.8205564707
 20
100.7983569732
 10
188.0250086913
 20
100.6235828394
 10
187.309141685
 20
100.2535977305
 10
186.7260480327
 20
99.7158417494
 10
186.3189731233
 20
99.0501977971
 10
186.1181078404
 20
98.3060336405
 10
186.1383494432
 20
97.5385405308
 10
186.3781967046
 20
96.8046399208
 10
186.8198612504
 20
96.1587618615
 10
187.4305868419
 20
95.6488081737
 10
188.1650787557
 20
95.3125997896
 10
188.9688630867
 20
95.1750717471
 10
189.7823268281
 20
95.2464238719
 10
190.5451390955
 20
95.5213643032
 10
191.2007255928
 20
95.9795019671
 10
191.7004644685
 20
96.586858889
 10
192.0072923764
 20
97.2983901843
 10
192.0984532942
 20
98.0613248319
 10
191.9671862336
 20
98.8190794592
 10
191.623226672
 20
99.5154548721
 10
191.0920845167
 20
100.0988040918
 10
190.4131521513
 20
100.5258627753
  0
LWPOLYLINE
  5
11F
330
1F
100
AcDbEntity
  8
0
  6
HIDDEN
 62
     7
370
     0
100
AcDbPolyline
 90
       24
 70
   128
 43
0.0
 10
190.4131521513
 20
101.7844487722
 10
189.6367828837
 20
102.0235439307
 10
188.8205564707
 20
102.0569429701
 10
188.0250086913
 20
101.8821688363
 10
187.309141685
 20
101.5121837274
 10
186.7260480327
 20
100.9744277463
 10
186.3189731233
 20
100.308783794
 10
186.1181078404
 20
99.5646196374
 10
186.1383494432
 20
98.7971265277
 10
186.3781967046
 20
98.0632259177
 10
186.8198612504
 20
97.4173478584
 10
187.4305868419
 20
96.9073941706
 10
188.1650787557
 20
96.5711857865
 10
188.9688630867
 20
96.433657744
 10
189.7823268281
 20
96.5050098688
 10
190.5451390955
 20
96.7799503001
 10
191.2007255928
 20
97.2380879641
 10
191.7004644685
 20
97.8454448859
 10
192.0072923764
 20
98.5569761812
 10
192.0984532942
 20
99.3199108288
 10
191.9671862336
 20
100.0776654561
 10
191.623226672
 20
100.774040869
 10
191.0920845167
 20
101.3573900887
 10
190.4131521513
 20
101.7844487722
  0
LINE
  5
120
330
1F
100
AcDbEntity
  8
0
  6
HIDDEN
 62
     7
370
     0
100
AcDbLine
 10
189.8578842435
 20
100.0292525806
 30
0.0
 11
189.8578842435
 21
99.3452122939
 31
0.0
  0
LINE
  5
121
330
1F
100
AcDbEntity
  8
0
  6
HIDDEN
 62
     7
370
     0
100
AcDbLine
 10
188.13011267
 20
99.9149132264
 30
0.0
 11
188.13011267
 21
99.2308729397
 31
0.0
  0
LINE
  5
122
330
1F
100
AcDbEntity
  8
0
  6
HIDDEN
 62
     7
370
     0
100
AcDbLine
 10
190.8271457492
 20
98.6803657572
 30
0.0
 11
190.6211556759
 21
98.2829945418
 31
0.0
  0
LINE
  5
123
330
1F
100
AcDbEntity
  8
0
  6
HIDDEN
 62
     7
370
     0
100
AcDbLine
 10
190.8271457492
 20
98.6803657572
 30
0.0
 11
190.8271457492
 21
97.9963254706
 31
0.0
  0
LINE
  5
124
330
1F
100
AcDbEntity
  8
0
  6
HIDDEN
 62
     7
370
     0
100
AcDbLine
 10
187.371602602
 20
98.4516870488
 30
0.0
 11
187.5775926753
 21
98.1650179775
 31
0.0
  0
LINE
  5
125
330
1F
100
AcDbEntity
  8
0
  6
HIDDEN
 62
     7
370
     0
100
AcDbLine
 10
187.371602602
 20
98.4516870488
 30
0.0
 11
187.371602602
 21
97.7676467621
 31
0.0
  0
LINE
  5
126
330
1F
100
AcDbEntity
  8
0
  6
HIDDEN
 62
     7
370
     0
100
AcDbLine
 10
188.13011267
 20
99.9149132264
 30
0.0
 11
187.371602602
 21
98.4516870488
 31
0.0
  0
LINE
  5
127
330
1F
100
AcDbEntity
  8
0
  6
HIDDEN
 62
     7
370
     0
100
AcDbLine
 10
190.8271457492
 20
98.6803657572
 30
0.0
 11
189.8578842435
 21
100.0292525806
 31
0.0
  0
LINE
  5
128
330
1F
100
AcDbEntity
  8
0
  6
HIDDEN
 62
     7
370
     0
100
AcDbLine
 10
188.13011267
 20
99.9149132264
 30
0.0
 11
189.8578842435
 21
100.0292525806
 31
0.0
  0
LWPOLYLINE
  5
129
330
1F
100
AcDbEntity
  8
0
  6
HIDDEN
 62
     7
370
     0
100
AcDbPolyline
 90
       19
 70
   128
 43
0.0
 10
189.9752261594
 20
101.281674888
 10
189.3074460615
 20
101.461273662
 10
188.6145694233
 20
101.4154209182
 10
187.9801673932
 20
101.1496471741
 10
187.4807582188
 20
100.6960086658
 10
187.176578017
 20
100.1092208923
 10
187.1043154094
 20
99.4600591191
 10
187.2726863329
 20
98.8268218367
 10
187.6613827693
 20
98.285886807
 10
188.2235221918
 20
97.9024987779
 10
188.8913022897
 20
97.7229000039
 10
189.5841789279
 20
97.7687527477
 10
190.218580958
 20
98.0345264918
 10
190.7179901324
 20
98.4881650001
 10
191.0221703342
 20
99.0749527737
 10
191.0944329418
 20
99.7241145468
 10
190.9260620183
 20
100.3573518292
 10
190.5373655819
 20
100.8982868589
 10
189.9752261594
 20
101.281674888
  0
LWPOLYLINE
  5
12A
330
1F
100
AcDbEntity
  8
0
  6
HIDDEN
 62
     7
370
     0
100
AcDbPolyline
 90
       20
 70
   128
 43
0.0
 10
170.4149501237
 20
96.5982314697
 10
170.7531533484
 20
96.3882704814
 10
171.0746922137
 20
96.3950857065
 10
171.3447229942
 20
96.6179386096
 10
171.5339836649
 20
97.0326796206
 10
171.6219648955
 20
97.5943651157
 10
171.5991325545
 20
98.2421277561
 10
171.4679608803
 20
98.9057724085
 10
171.2426643591
 20
99.5133828774
 10
170.9476573648
 20
99.9991151405
 10
170.6149084828
 20
100.31033257
 10
170.2804762176
 20
100.4133099285
 10
169.9806014944
 20
100.2968880214
 10
169.7477803924
 20
99.9736829687
 10
169.6072426906
 20
99.4787190529
 10
169.5742178298
 20
98.8656332946
 10
169.6522845659
 20
98.2008630485
 10
169.8329831569
 20
97.5564464858
 10
170.0967321066
 20
97.0022161403
 10
170.4149501237
 20
96.5982314697
  0
LWPOLYLINE
  5
12B
330
1F
100
AcDbEntity
  8
0
  6
HIDDEN
 62
     7
370
     0
100
AcDbPolyline
 90
       22
 70
   128
 43
0.0
 10
170.5975140151
 20
96.2544532237
 10
170.9699421968
 20
96.0122167522
 10
171.3292138851
 20
95.9850440385
 10
171.6434062137
 20
96.1753494976
 10
171.8846018156
 20
96.5662236542
 10
172.0313694029
 20
97.1229356243
 10
172.0706680315
 20
97.7960191062
 10
171.9990058457
 20
98.5256676788
 10
171.8227503453
 20
99.2470488643
 10
171.557562605
 20
99.8960647787
 10
171.2270057191
 20
100.4150475099
 10
170.8604511178
 20
100.7578831646
 10
170.4904687858
 20
100.8941092905
 10
170.1499332771
 20
100.8116215985
 10
169.869102666
 20
100.5177494818
 10
169.6729299846
 20
100.0386047679
 10
169.5788460367
 20
99.4167615671
 10
169.5952105939
 20
98.7074733769
 10
169.7205695934
 20
97.9737635655
 10
169.9437843381
 20
97.2808254695
 10
170.2450212182
 20
96.6902296797
 10
170.5975140151
 20
96.2544532237
  0
LWPOLYLINE
  5
12C
330
1F
100
AcDbEntity
  8
0
  6
HIDDEN
 62
     7
370
     0
100
AcDbPolyline
 90
       22
 70
   128
 43
0.0
 10
174.0556219812
 20
96.9373099719
 10
174.4280501629
 20
96.6950735004
 10
174.7873218512
 20
96.6679007867
 10
175.1015141798
 20
96.8582062458
 10
175.3427097817
 20
97.2490804025
 10
175.489477369
 20
97.8057923726
 10
175.5287759976
 20
98.4788758544
 10
175.4571138118
 20
99.208524427
 10
175.2808583114
 20
99.9299056125
 10
175.015670571
 20
100.5789215269
 10
174.6851136852
 20
101.0979042581
 10
174.3185590839
 20
101.4407399129
 10
173.9485767519
 20
101.5769660387
 10
173.6080412432
 20
101.4944783467
 10
173.327210632
 20
101.2006062301
 10
173.1310379507
 20
100.7214615161
 10
173.0369540028
 20
100.0996183153
 10
173.05331856
 20
99.3903301251
 10
173.1786775595
 20
98.6566203137
 10
173.4018923041
 20
97.9636822177
 10
173.7031291843
 20
97.3730864279
 10
174.0556219812
 20
96.9373099719
  0
LINE
  5
12D
330
1F
100
AcDbEntity
  8
0
  6
HIDDEN
 62
     7
370
     0
100
AcDbLine
 10
171.2789914622
 20
98.442406509
 30
0.0
 11
170.7289085746
 21
99.6462545782
 31
0.0
  0
LINE
  5
12E
330
1F
100
AcDbEntity
  8
0
  6
HIDDEN
 62
     7
370
     0
100
AcDbLine
 10
170.049291288
 20
99.5925354743
 30
0.0
 11
170.7289085746
 21
99.6462545782
 31
0.0
  0
LINE
  5
12F
330
1F
100
AcDbEntity
  8
0
  6
HIDDEN
 62
     7
370
     0
100
AcDbLine
 10
169.919756889
 20
98.3349683012
 30
0.0
 11
170.049291288
 21
99.5925354743
 31
0.0
  0
LINE
  5
130
330
1F
100
AcDbEntity
  8
0
  6
HIDDEN
 62
     7
370
     0
100
AcDbLine
 10
169.919756889
 20
98.3349683012
 30
0.0
 11
170.4698397765
 21
97.131120232
 31
0.0
  0
LINE
  5
131
330
1F
100
AcDbEntity
  8
0
  6
HIDDEN
 62
     7
370
     0
100
AcDbLine
 10
171.1494570631
 20
97.1848393359
 30
0.0
 11
170.4698397765
 21
97.131120232
 31
0.0
  0
LINE
  5
132
330
1F
100
AcDbEntity
  8
0
  6
HIDDEN
 62
     7
370
     0
100
AcDbLine
 10
171.1494570631
 20
97.1848393359
 30
0.0
 11
171.2789914622
 21
98.442406509
 31
0.0
  0
LINE
  5
133
330
1F
100
AcDbEntity
  8
0
  6
HIDDEN
 62
     7
370
     0
100
AcDbLine
 10
173.0110422698
 20
98.7844266523
 30
0.0
 11
171.2789914622
 21
98.442406509
 31
0.0
  0
LWPOLYLINE
  5
134
330
1F
100
AcDbEntity
  8
0
  6
HIDDEN
 62
     7
370
     0
100
AcDbPolyline
 90
       18
 70
   128
 43
0.0
 10
174.7724490822
 20
97.719018597
 10
175.0940077191
 20
97.5311473305
 10
175.3933488383
 20
97.5745708917
 10
175.6300447629
 20
97.8434246881
 10
175.7721283968
 20
98.3013985248
 10
175.8004105578
 20
98.8866404973
 10
175.7110715835
 20
99.5201104343
 10
175.5161771973
 20
100.1162547107
 10
175.242048966
 20
100.5945607386
 10
174.9257094264
 20
100.8904306385
 10
174.609881986
 20
100.963905541
 10
174.3372208908
 20
100.8050622533
 10
174.1445505325
 20
100.4353534417
 10
174.0578921107
 20
99.9047103298
 10
174.0889493255
 20
99.2847992102
 10
174.2335277278
 20
98.6593425146
 10
174.4721012033
 20
98.1128116357
 10
174.7724490822
 20
97.719018597
  0
LINE
  5
135
330
1F
100
AcDbEntity
  8
0
  6
HIDDEN
 62
     7
370
     0
100
AcDbLine
 10
172.4609593822
 20
99.9882747215
 30
0.0
 11
170.7289085746
 21
99.6462545782
 31
0.0
  0
LINE
  5
136
330
1F
100
AcDbEntity
  8
0
  6
HIDDEN
 62
     7
370
     0
100
AcDbLine
 10
171.6518076965
 20
98.6769884445
 30
0.0
 11
172.2018905841
 21
97.4731403753
 31
0.0
  0
LINE
  5
137
330
1F
100
AcDbEntity
  8
0
  6
HIDDEN
 62
     7
370
     0
100
AcDbLine
 10
171.6518076965
 20
98.6769884445
 30
0.0
 11
171.7813420956
 21
99.9345556176
 31
0.0
  0
LINE
  5
138
330
1F
100
AcDbEntity
  8
0
  6
HIDDEN
 62
     7
370
     0
100
AcDbLine
 10
172.8815078707
 20
97.5268594793
 30
0.0
 11
172.2018905841
 21
97.4731403753
 31
0.0
  0
LINE
  5
139
330
1F
100
AcDbEntity
  8
0
  6
HIDDEN
 62
     7
370
     0
100
AcDbLine
 10
171.7813420956
 20
99.9345556176
 30
0.0
 11
172.4609593822
 21
99.9882747215
 31
0.0
  0
LINE
  5
13A
330
1F
100
AcDbEntity
  8
0
  6
HIDDEN
 62
     7
370
     0
100
AcDbLine
 10
172.8815078707
 20
97.5268594793
 30
0.0
 11
173.0110422698
 21
98.7844266523
 31
0.0
  0
LINE
  5
13B
330
1F
100
AcDbEntity
  8
0
  6
HIDDEN
 62
     7
370
     0
100
AcDbLine
 10
173.0110422698
 20
98.7844266523
 30
0.0
 11
172.4609593822
 21
99.9882747215
 31
0.0
  0
LINE
  5
13C
330
1F
100
AcDbEntity
  8
0
  6
HIDDEN
 62
     7
370
     0
100
AcDbLine
 10
172.2018905841
 20
97.4731403753
 30
0.0
 11
170.4698397765
 21
97.131120232
 31
0.0
  0
LINE
  5
13D
330
1F
100
AcDbEntity
  8
0
  6
HIDDEN
 62
     7
370
     0
100
AcDbLine
 10
172.8815078707
 20
97.5268594793
 30
0.0
 11
171.1494570631
 21
97.1848393359
 31
0.0
  0
LINE
  5
13E
330
1F
100
AcDbEntity
  8
0
  6
HIDDEN
 62
     7
370
     0
100
AcDbLine
 10
171.6518076965
 20
98.6769884445
 30
0.0
 11
169.919756889
 21
98.3349683012
 31
0.0
  0
LINE
  5
13F
330
1F
100
AcDbEntity
  8
0
  6
HIDDEN
 62
     7
370
     0
100
AcDbLine
 10
171.7813420956
 20
99.9345556176
 30
0.0
 11
170.049291288
 21
99.5925354743
 31
0.0
  0
LWPOLYLINE
  5
140
330
1F
100
AcDbEntity
  8
0
  6
HIDDEN
 62
     7
370
     0
100
AcDbPolyline
 90
       22
 70
   128
 43
0.0
 10
174.5043423022
 20
128.1641946858
 10
174.8568350991
 20
128.1460490628
 10
175.1580719792
 20
127.9123564787
 10
175.3812867239
 20
127.4838815449
 10
175.5066457234
 20
126.8986961398
 10
175.5230102806
 20
126.2087965547
 10
175.4289263326
 20
125.4754833951
 10
175.2327536513
 20
124.7639147536
 10
174.9519230402
 20
124.1373166264
 10
174.6113875314
 20
123.6513650071
 10
174.2414051995
 20
123.3492388295
 10
173.8748505981
 20
123.2577833304
 10
173.5442937123
 20
123.3851247322
 10
173.2791059719
 20
123.7199481926
 10
173.1028504715
 20
124.2325031777
 10
173.0311882858
 20
124.8772469278
 10
173.0704869144
 20
125.5968911314
 10
173.2172545017
 20
126.3274922427
 10
173.4584501035
 20
127.0041331469
 10
173.7726424322
 20
127.5666913302
 10
174.1319141204
 20
127.9651810294
 10
174.5043423022
 20
128.1641946858
  0
LWPOLYLINE
  5
141
330
1F
100
AcDbEntity
  8
0
  6
HIDDEN
 62
     7
370
     0
100
AcDbPolyline
 90
       18
 70
   128
 43
0.0
 10
175.0865533069
 20
127.302739988
 10
175.3869011857
 20
127.2647968729
 10
175.6254746612
 20
127.0009260658
 10
175.7700530636
 20
126.5467647815
 10
175.8011102783
 20
125.9636500179
 10
175.7144518565
 20
125.3303346551
 10
175.5217814983
 20
124.7323514421
 10
175.2491204031
 20
124.2504613254
 10
174.9332929627
 20
123.9497462354
 10
174.616953423
 20
123.8708194115
 10
174.3428251917
 20
124.0243403585
 10
174.1479308055
 20
124.3895752218
 10
174.0585918312
 20
124.9171970093
 10
174.0868739922
 20
125.535947475
 10
174.2289576261
 20
126.1622609398
 10
174.4656535508
 20
126.7115502999
 10
174.76499467
 20
127.1096309833
 10
175.0865533069
 20
127.302739988
  0
LWPOLYLINE
  5
142
330
1F
100
AcDbEntity
  8
0
  6
HIDDEN
 62
     7
370
     0
100
AcDbPolyline
 90
       22
 70
   128
 43
0.0
 10
171.0462343361
 20
128.847051434
 10
171.398727133
 20
128.8289058111
 10
171.6999640131
 20
128.5952132269
 10
171.9231787578
 20
128.1667382931
 10
172.0485377573
 20
127.581552888
 10
172.0649023145
 20
126.8916533029
 10
171.9708183666
 20
126.1583401434
 10
171.7746456852
 20
125.4467715018
 10
171.4938150741
 20
124.8201733747
 10
171.1532795653
 20
124.3342217553
 10
170.7832972334
 20
124.0320955777
 10
170.416742632
 20
123.9406400786
 10
170.0861857462
 20
124.0679814805
 10
169.8209980059
 20
124.4028049408
 10
169.6447425055
 20
124.9153599259
 10
169.5730803197
 20
125.5601036761
 10
169.6123789483
 20
126.2797478796
 10
169.7591465356
 20
127.0103489909
 10
170.0003421374
 20
127.6869898951
 10
170.3145344661
 20
128.2495480784
 10
170.6738061544
 20
128.6480377776
 10
171.0462343361
 20
128.847051434
  0
LWPOLYLINE
  5
143
330
1F
100
AcDbEntity
  8
0
  6
HIDDEN
 62
     7
370
     0
100
AcDbPolyline
 90
       20
 70
   128
 43
0.0
 10
170.7837982275
 20
128.4559571849
 10
171.1020162446
 20
128.4289948441
 10
171.3657651943
 20
128.1872522842
 10
171.5464637852
 20
127.7569260625
 10
171.6245305214
 20
127.1846487023
 10
171.5915056605
 20
126.5324353355
 10
171.4509679588
 20
125.8709634004
 10
171.2181468568
 20
125.271913645
 10
170.9182721335
 20
124.8002024055
 10
170.5838398683
 20
124.5069469142
 10
170.2510909864
 20
124.4239259537
 10
169.9560839921
 20
124.5601361333
 10
169.7307874709
 20
124.9008169667
 10
169.5996157967
 20
125.4090503992
 10
169.5767834556
 20
126.0297614525
 10
169.6647646862
 20
126.6956864525
 10
169.854025357
 20
127.3346620926
 10
170.1240561375
 20
127.8774454475
 10
170.4455950028
 20
128.2652175185
 10
170.7837982275
 20
128.4559571849
  0
LINE
  5
144
330
1F
100
AcDbEntity
  8
0
  6
HIDDEN
 62
     7
370
     0
100
AcDbLine
 10
171.7813420956
 20
126.6570908396
 30
0.0
 11
172.4609593822
 21
127.5160154285
 31
0.0
  0
LINE
  5
145
330
1F
100
AcDbEntity
  8
0
  6
HIDDEN
 62
     7
370
     0
100
AcDbLine
 10
170.049291288
 20
126.9991109829
 30
0.0
 11
170.7289085746
 21
127.8580355719
 31
0.0
  0
LINE
  5
146
330
1F
100
AcDbEntity
  8
0
  6
HIDDEN
 62
     7
370
     0
100
AcDbLine
 10
170.049291288
 20
126.9991109829
 30
0.0
 11
169.919756889
 21
125.5880724213
 31
0.0
  0
LINE
  5
147
330
1F
100
AcDbEntity
  8
0
  6
HIDDEN
 62
     7
370
     0
100
AcDbLine
 10
171.7813420956
 20
126.6570908396
 30
0.0
 11
171.6518076965
 21
125.246052278
 31
0.0
  0
LINE
  5
148
330
1F
100
AcDbEntity
  8
0
  6
HIDDEN
 62
     7
370
     0
100
AcDbLine
 10
171.7813420956
 20
126.6570908396
 30
0.0
 11
170.049291288
 21
126.9991109829
 31
0.0
  0
LINE
  5
149
330
1F
100
AcDbEntity
  8
0
  6
HIDDEN
 62
     7
370
     0
100
AcDbLine
 10
171.6518076965
 20
125.246052278
 30
0.0
 11
169.919756889
 21
125.5880724213
 31
0.0
  0
LINE
  5
14A
330
1F
100
AcDbEntity
  8
0
  6
HIDDEN
 62
     7
370
     0
100
AcDbLine
 10
169.919756889
 20
125.5880724213
 30
0.0
 11
170.4698397765
 21
125.0359584487
 31
0.0
  0
LINE
  5
14B
330
1F
100
AcDbEntity
  8
0
  6
HIDDEN
 62
     7
370
     0
100
AcDbLine
 10
171.6518076965
 20
125.246052278
 30
0.0
 11
172.2018905841
 21
124.6939383054
 31
0.0
  0
LINE
  5
14C
330
1F
100
AcDbEntity
  8
0
  6
HIDDEN
 62
     7
370
     0
100
AcDbLine
 10
173.0110422698
 20
126.9639014559
 30
0.0
 11
171.2789914622
 21
127.3059215993
 31
0.0
  0
LINE
  5
14D
330
1F
100
AcDbEntity
  8
0
  6
HIDDEN
 62
     7
370
     0
100
AcDbLine
 10
171.2789914622
 20
127.3059215993
 30
0.0
 11
170.7289085746
 21
127.8580355719
 31
0.0
  0
LINE
  5
14E
330
1F
100
AcDbEntity
  8
0
  6
HIDDEN
 62
     7
370
     0
100
AcDbLine
 10
173.0110422698
 20
126.9639014559
 30
0.0
 11
172.4609593822
 21
127.5160154285
 31
0.0
  0
LINE
  5
14F
330
1F
100
AcDbEntity
  8
0
  6
HIDDEN
 62
     7
370
     0
100
AcDbLine
 10
172.4609593822
 20
127.5160154285
 30
0.0
 11
170.7289085746
 21
127.8580355719
 31
0.0
  0
LINE
  5
150
330
1F
100
AcDbEntity
  8
0
  6
HIDDEN
 62
     7
370
     0
100
AcDbLine
 10
172.8815078707
 20
125.5528628943
 30
0.0
 11
171.1494570631
 21
125.8948830377
 31
0.0
  0
LINE
  5
151
330
1F
100
AcDbEntity
  8
0
  6
HIDDEN
 62
     7
370
     0
100
AcDbLine
 10
172.2018905841
 20
124.6939383054
 30
0.0
 11
170.4698397765
 21
125.0359584487
 31
0.0
  0
LINE
  5
152
330
1F
100
AcDbEntity
  8
0
  6
HIDDEN
 62
     7
370
     0
100
AcDbLine
 10
171.1494570631
 20
125.8948830377
 30
0.0
 11
170.4698397765
 21
125.0359584487
 31
0.0
  0
LINE
  5
153
330
1F
100
AcDbEntity
  8
0
  6
HIDDEN
 62
     7
370
     0
100
AcDbLine
 10
172.8815078707
 20
125.5528628943
 30
0.0
 11
172.2018905841
 21
124.6939383054
 31
0.0
  0
LINE
  5
154
330
1F
100
AcDbEntity
  8
0
  6
HIDDEN
 62
     7
370
     0
100
AcDbLine
 10
171.2789914622
 20
127.3059215993
 30
0.0
 11
171.1494570631
 21
125.8948830377
 31
0.0
  0
LINE
  5
155
330
1F
100
AcDbEntity
  8
0
  6
HIDDEN
 62
     7
370
     0
100
AcDbLine
 10
173.0110422698
 20
126.9639014559
 30
0.0
 11
172.8815078707
 21
125.5528628943
 31
0.0
  0
LINE
  5
156
330
1F
100
AcDbEntity
  8
0
  6
HIDDEN
 62
     7
370
     0
100
AcDbLine
 10
168.8993741756
 20
94.9950666049
 30
0.0
 11
171.1805480542
 21
95.4455195671
 31
0.0
  0
LINE
  5
157
330
1F
100
AcDbEntity
  8
0
  6
HIDDEN
 62
     7
370
     0
100
AcDbLine
 10
170.018200297
 20
101.3318552431
 30
0.0
 11
168.8993741756
 21
101.1109257711
 31
0.0
  0
LINE
  5
158
330
1F
100
AcDbEntity
  8
0
  6
HIDDEN
 62
     7
370
     0
100
AcDbLine
 10
191.5993741756
 20
97.8820883109
 30
0.0
 11
191.5993741756
 21
111.2556425497
 31
0.0
  0
LINE
  5
159
330
1F
100
AcDbEntity
  8
0
  6
HIDDEN
 62
     7
370
     0
100
AcDbLine
 10
186.5993741756
 20
100.7194263793
 30
0.0
 11
186.5993741756
 21
97.8820018295
 31
0.0
  0
LINE
  5
15A
330
1F
100
AcDbEntity
  8
0
  6
HIDDEN
 62
     7
370
     0
100
AcDbLine
 10
186.5993741756
 20
111.2550773647
 30
0.0
 11
186.5993741756
 21
102.3773072407
 31
0.0
  0
LINE
  5
15B
330
1F
100
AcDbEntity
  8
0
  6
HIDDEN
 62
     7
370
     0
100
AcDbLine
 10
171.2898826128
 20
96.3844882367
 30
0.0
 11
187.5175668755
 21
99.5888947548
 31
0.0
  0
LINE
  5
15C
330
1F
100
AcDbEntity
  8
0
  6
HIDDEN
 62
     7
370
     0
100
AcDbLine
 10
187.5170084163
 20
103.8698858948
 30
0.0
 11
170.4762391827
 21
100.50492321
 31
0.0
  0
ARC
  5
15D
330
1F
100
AcDbEntity
  8
0
  6
HIDDEN
 62
     7
370
     0
100
AcDbCircle
 10
65.2993741756
 20
98.7178422077
 30
0.0
 40
1.200000000000003
100
AcDbArc
 50
90.0
 51
180.0
  0
ARC
  5
15E
330
1F
100
AcDbEntity
  8
0
  6
HIDDEN
 62
     7
370
     0
100
AcDbCircle
 10
65.2993741756
 20
126.1178422077
 30
0.0
 40
1.200000000000003
100
AcDbArc
 50
180.0
 51
270.0
  0
LINE
  5
15F
330
1F
100
AcDbEntity
  8
0
  6
HIDDEN
 62
     7
370
     0
100
AcDbLine
 10
198.8993741756
 20
63.3176268206
 30
0.0
 11
198.8993741756
 21
75.1178422077
 31
0.0
  0
ARC
  5
160
330
1F
100
AcDbEntity
  8
0
  6
HIDDEN
 62
     7
370
     0
100
AcDbCircle
 10
196.8993741756
 20
75.1178422077
 30
0.0
 40
2.0
100
AcDbArc
 50
0.0
 51
90.0
  0
LINE
  5
161
330
1F
100
AcDbEntity
  8
0
  6
HIDDEN
 62
     7
370
     0
100
AcDbLine
 10
198.8993741756
 20
149.7178422077
 30
0.0
 11
198.8993741756
 21
161.5179455582
 31
0.0
  0
ARC
  5
162
330
1F
100
AcDbEntity
  8
0
  6
HIDDEN
 62
     7
370
     0
100
AcDbCircle
 10
196.8993741756
 20
149.7178422077
 30
0.0
 40
2.0
100
AcDbArc
 50
270.0
 51
0.0
  0
ARC
  5
163
330
1F
100
AcDbEntity
  8
0
  6
HIDDEN
 62
     7
370
     0
100
AcDbCircle
 10
75.8684340679
 20
100.0928422077
 30
0.0
 40
0.400000000000005
100
AcDbArc
 50
270.0
 51
330.0
  0
ARC
  5
164
330
1F
100
AcDbEntity
  8
0
  6
HIDDEN
 62
     7
370
     0
100
AcDbCircle
 10
75.8684340679
 20
124.7428422077
 30
0.0
 40
0.4000000000000121
100
AcDbArc
 50
30.0
 51
90.0
  0
ARC
  5
165
330
1F
100
AcDbEntity
  8
0
  6
HIDDEN
 62
     7
370
     0
100
AcDbCircle
 10
74.9917466063
 20
100.0928422077
 30
0.0
 40
0.3999999999999915
100
AcDbArc
 50
255.0
 51
270.0
  0
ARC
  5
166
330
1F
100
AcDbEntity
  8
0
  6
HIDDEN
 62
     7
370
     0
100
AcDbCircle
 10
74.9917466063
 20
124.7428422077
 30
0.0
 40
0.3999999999999915
100
AcDbArc
 50
90.0
 51
105.0
  0
LINE
  5
167
330
1F
100
AcDbEntity
  8
0
  6
HIDDEN
 62
     7
370
     0
100
AcDbLine
 10
74.9917466063
 20
99.6928422077
 30
0.0
 11
75.8684340679
 21
99.6928422077
 31
0.0
  0
LINE
  5
168
330
1F
100
AcDbEntity
  8
0
  6
HIDDEN
 62
     7
370
     0
100
AcDbLine
 10
75.8684340679
 20
125.1428422077
 30
0.0
 11
74.9917466063
 21
125.1428422077
 31
0.0
  0
LINE
  5
169
330
1F
100
AcDbEntity
  8
0
  6
HIDDEN
 62
     7
370
     0
100
AcDbLine
 10
74.8882189883
 20
125.1292125382
 30
0.0
 11
74.0993741756
 21
124.9178422077
 31
0.0
  0
LINE
  5
16A
330
1F
100
AcDbEntity
  8
0
  6
HIDDEN
 62
     7
370
     0
100
AcDbLine
 10
74.0993741756
 20
99.9178422077
 30
0.0
 11
74.8882189883
 21
99.7064718772
 31
0.0
  0
LINE
  5
16B
330
1F
100
AcDbEntity
  8
0
  6
HIDDEN
 62
     7
370
     0
100
AcDbLine
 10
76.2148442294
 20
99.8928422077
 30
0.0
 11
77.3839785245
 21
101.9178422077
 31
0.0
  0
LINE
  5
16C
330
1F
100
AcDbEntity
  8
0
  6
HIDDEN
 62
     7
370
     0
100
AcDbLine
 10
77.3839785245
 20
122.9178422077
 30
0.0
 11
76.2148442294
 21
124.9428422077
 31
0.0
  0
LINE
  5
16D
330
1F
100
AcDbEntity
  8
0
  6
HIDDEN
 62
     7
370
     0
100
AcDbLine
 10
65.2993741756
 20
99.9178422077
 30
0.0
 11
74.0993741756
 21
99.9178422077
 31
0.0
  0
LINE
  5
16E
330
1F
100
AcDbEntity
  8
0
  6
HIDDEN
 62
     7
370
     0
100
AcDbLine
 10
74.0993741756
 20
124.9178422077
 30
0.0
 11
65.2993741756
 21
124.9178422077
 31
0.0
  0
LINE
  5
16F
330
1F
100
AcDbEntity
  8
0
  6
HIDDEN
 62
     7
370
     0
100
AcDbLine
 10
77.3839785245
 20
101.9178422077
 30
0.0
 11
127.0993741756
 21
101.9178422077
 31
0.0
  0
LINE
  5
170
330
1F
100
AcDbEntity
  8
0
  6
HIDDEN
 62
     7
370
     0
100
AcDbLine
 10
127.0993741756
 20
122.9178422077
 30
0.0
 11
77.3839785245
 21
122.9178422077
 31
0.0
  0
LINE
  5
171
330
1F
100
AcDbEntity
  8
0
  6
HIDDEN
 62
     7
370
     0
100
AcDbLine
 10
127.0993741756
 20
101.9178422077
 30
0.0
 11
131.3654845707
 21
109.0178422077
 31
0.0
  0
LINE
  5
172
330
1F
100
AcDbEntity
  8
0
  6
HIDDEN
 62
     7
370
     0
100
AcDbLine
 10
131.3654845707
 20
115.8178422077
 30
0.0
 11
127.0993741756
 21
122.9178422077
 31
0.0
  0
LINE
  5
173
330
1F
100
AcDbEntity
  8
0
  6
HIDDEN
 62
     7
370
     0
100
AcDbLine
 10
211.7940521775
 20
121.9178422077
 30
0.0
 11
211.1993741756
 21
121.9178422077
 31
0.0
  0
LINE
  5
174
330
1F
100
AcDbEntity
  8
0
  6
HIDDEN
 62
     7
370
     0
100
AcDbLine
 10
211.1993741756
 20
102.9178422077
 30
0.0
 11
211.7940521775
 21
102.9178422077
 31
0.0
  0
ARC
  5
175
330
1F
100
AcDbEntity
  8
0
  6
HIDDEN
 62
     7
370
     0
100
AcDbCircle
 10
211.7940521775
 20
121.1178422077
 30
0.0
 40
0.8000000000000114
100
AcDbArc
 50
75.0
 51
90.0
  0
ARC
  5
176
330
1F
100
AcDbEntity
  8
0
  6
HIDDEN
 62
     7
370
     0
100
AcDbCircle
 10
211.7940521775
 20
103.7178422077
 30
0.0
 40
0.8000000000000184
100
AcDbArc
 50
270.0
 51
285.0
  0
ARC
  5
177
330
1F
100
AcDbEntity
  8
0
  6
HIDDEN
 62
     7
370
     0
100
AcDbCircle
 10
211.1993741756
 20
121.1178422077
 30
0.0
 40
0.8000000000000114
100
AcDbArc
 50
90.0
 51
180.0
  0
ARC
  5
178
330
1F
100
AcDbEntity
  8
0
  6
HIDDEN
 62
     7
370
     0
100
AcDbCircle
 10
211.1993741756
 20
103.7178422077
 30
0.0
 40
0.8000000000000114
100
AcDbArc
 50
180.0
 51
270.0
  0
LINE
  5
179
330
1F
100
AcDbEntity
  8
0
  6
HIDDEN
 62
     7
370
     0
100
AcDbLine
 10
212.0011074136
 20
102.9451015467
 30
0.0
 11
213.7653995794
 21
103.4178422077
 31
0.0
  0
LINE
  5
17A
330
1F
100
AcDbEntity
  8
0
  6
HIDDEN
 62
     7
370
     0
100
AcDbLine
 10
213.7653995794
 20
121.4178422077
 30
0.0
 11
212.0011074136
 21
121.8905828687
 31
0.0
  0
LINE
  5
17B
330
1F
100
AcDbEntity
  8
0
  6
HIDDEN
 62
     7
370
     0
100
AcDbLine
 10
198.899378496
 20
161.4178427314
 30
0.0
 11
199.8993783453
 21
162.4178425103
 31
0.0
  0
LINE
  5
17C
330
1F
100
AcDbEntity
  8
0
  6
HIDDEN
 62
     7
370
     0
100
AcDbLine
 10
199.899378346
 20
62.4178419044
 30
0.0
 11
198.8993784967
 21
63.4178416833
 31
0.0
  0
LINE
  5
17D
330
1F
100
AcDbEntity
  8
0
  6
HIDDEN
 62
     7
370
     0
100
AcDbLine
 10
221.9993741756
 20
121.4178422077
 30
0.0
 11
213.7653995794
 21
121.4178422077
 31
0.0
  0
LINE
  5
17E
330
1F
100
AcDbEntity
  8
0
  6
HIDDEN
 62
     7
370
     0
100
AcDbLine
 10
213.7653995794
 20
103.4178422077
 30
0.0
 11
221.9993741756
 21
103.4178422077
 31
0.0
  0
LINE
  5
17F
330
1F
100
AcDbEntity
  8
0
  6
HIDDEN
 62
     7
370
     0
100
AcDbLine
 10
230.8993741756
 20
125.9067912544
 30
0.0
 11
230.4529513973
 21
125.4603687224
 31
0.0
  0
LINE
  5
180
330
1F
100
AcDbEntity
  8
0
  6
HIDDEN
 62
     7
370
     0
100
AcDbLine
 10
230.452951124
 20
99.3753164328
 30
0.0
 11
230.8993741756
 21
98.9288936637
 31
0.0
  0
LINE
  5
181
330
1F
100
AcDbEntity
  8
0
  6
HIDDEN
 62
     7
370
     0
100
AcDbLine
 10
131.3654845707
 20
109.0178422077
 30
0.0
 11
210.3993741756
 21
109.0178422077
 31
0.0
  0
LINE
  5
182
330
1F
100
AcDbEntity
  8
0
  6
HIDDEN
 62
     7
370
     0
100
AcDbLine
 10
210.3993741756
 20
115.8178422077
 30
0.0
 11
131.3654845707
 21
115.8178422077
 31
0.0
  0
LINE
  5
183
330
1F
100
AcDbEntity
  8
0
  6
HIDDEN
 62
     7
370
     0
100
AcDbLine
 10
230.46171075
 20
125.4678422077
 30
0.0
 11
221.9993741756
 21
125.4678422077
 31
0.0
  0
LINE
  5
184
330
1F
100
AcDbEntity
  8
0
  6
HIDDEN
 62
     7
370
     0
100
AcDbLine
 10
221.9993741756
 20
99.3678422077
 30
0.0
 11
230.4617103549
 21
99.3678422077
 31
0.0
  0
LINE
  5
185
330
1F
100
AcDbEntity
  8
0
  6
HIDDEN
 62
     7
370
     0
100
AcDbLine
 10
191.5993741756
 20
113.5792069366
 30
0.0
 11
191.5993741756
 21
126.9536656452
 31
0.0
  0
LINE
  5
186
330
1F
100
AcDbEntity
  8
0
  6
HIDDEN
 62
     7
370
     0
100
AcDbLine
 10
186.5993741756
 20
122.4599226857
 30
0.0
 11
186.5993741756
 21
113.5803436404
 31
0.0
  0
LINE
  5
187
330
1F
100
AcDbEntity
  8
0
  6
HIDDEN
 62
     7
370
     0
100
AcDbLine
 10
186.5993741756
 20
126.9535371169
 30
0.0
 11
186.5993741756
 21
124.110938709
 31
0.0
  0
LINE
  5
188
330
1F
100
AcDbEntity
  8
0
  6
HIDDEN
 62
     7
370
     0
100
AcDbLine
 10
170.4762391827
 20
124.3307612054
 30
0.0
 11
187.5141779001
 21
120.9663574497
 31
0.0
  0
LINE
  5
189
330
1F
100
AcDbEntity
  8
0
  6
HIDDEN
 62
     7
370
     0
100
AcDbLine
 10
187.5157572663
 20
125.2471469958
 30
0.0
 11
171.2898826128
 21
128.4511961786
 31
0.0
  0
LINE
  5
18A
330
1F
100
AcDbEntity
  8
0
  6
HIDDEN
 62
     7
370
     0
100
AcDbLine
 10
168.8993741756
 20
123.7247586442
 30
0.0
 11
170.018200297
 21
123.5038291722
 31
0.0
  0
LINE
  5
18B
330
1F
100
AcDbEntity
  8
0
  6
HIDDEN
 62
     7
370
     0
100
AcDbLine
 10
171.1805480542
 20
129.3901648483
 30
0.0
 11
168.8993741756
 21
129.8406178105
 31
0.0
  0
LINE
  5
18C
330
1F
100
AcDbEntity
  8
0
  6
HIDDEN
 62
     7
370
     0
100
AcDbLine
 10
186.0993741756
 20
126.8442037226
 30
0.0
 11
186.0993741756
 21
125.5856177257
 31
0.0
  0
LINE
  5
18D
330
1F
100
AcDbEntity
  8
0
  6
HIDDEN
 62
     7
370
     0
100
AcDbLine
 10
192.0993741756
 20
125.5856177257
 30
0.0
 11
192.0993741756
 21
126.8442037226
 31
0.0
  0
LINE
  5
18E
330
1F
100
AcDbEntity
  8
0
  6
HIDDEN
 62
     7
370
     0
100
AcDbLine
 10
192.0993741756
 20
97.9914806927
 30
0.0
 11
192.0993741756
 21
99.2500666896
 31
0.0
  0
LINE
  5
18F
330
1F
100
AcDbEntity
  8
0
  6
HIDDEN
 62
     7
370
     0
100
AcDbLine
 10
186.0993741756
 20
99.2500666896
 30
0.0
 11
186.0993741756
 21
97.9914806927
 31
0.0
  0
LINE
  5
190
330
1F
100
AcDbEntity
  8
0
  6
HIDDEN
 62
     7
370
     0
100
AcDbLine
 10
169.5718741756
 20
99.1731187933
 30
0.0
 11
169.5718741756
 21
98.9973745678
 31
0.0
  0
LINE
  5
191
330
1F
100
AcDbEntity
  8
0
  6
HIDDEN
 62
     7
370
     0
100
AcDbLine
 10
169.8803644528
 20
97.4351249632
 30
0.0
 11
169.9471664836
 21
97.272571829
 31
0.0
  0
LINE
  5
192
330
1F
100
AcDbEntity
  8
0
  6
HIDDEN
 62
     7
370
     0
100
AcDbLine
 10
171.3061857411
 20
95.9799835964
 30
0.0
 11
174.7642937072
 21
96.6628403446
 31
0.0
  0
LINE
  5
193
330
1F
100
AcDbEntity
  8
0
  6
HIDDEN
 62
     7
370
     0
100
AcDbLine
 10
173.7956705762
 20
101.5681200747
 30
0.0
 11
170.3375626101
 21
100.8852633265
 31
0.0
  0
LINE
  5
194
330
1F
100
AcDbEntity
  8
0
  6
HIDDEN
 62
     7
370
     0
100
AcDbLine
 10
175.3033431783
 20
97.160228316
 30
0.0
 11
175.6458539201
 21
97.8750614379
 31
0.0
  0
LINE
  5
195
330
1F
100
AcDbEntity
  8
0
  6
HIDDEN
 62
     7
370
     0
100
AcDbLine
 10
175.0718388595
 20
100.7819757491
 30
0.0
 11
174.483321663
 21
101.3129630464
 31
0.0
  0
LINE
  5
196
330
1F
100
AcDbEntity
  8
0
  6
HIDDEN
 62
     7
370
     0
100
AcDbLine
 10
174.483321663
 20
123.5227213689
 30
0.0
 11
175.0718388595
 21
124.0537086662
 31
0.0
  0
LINE
  5
197
330
1F
100
AcDbEntity
  8
0
  6
HIDDEN
 62
     7
370
     0
100
AcDbLine
 10
175.6458539201
 20
126.9606229775
 30
0.0
 11
175.3033431783
 21
127.6754560994
 31
0.0
  0
LINE
  5
198
330
1F
100
AcDbEntity
  8
0
  6
HIDDEN
 62
     7
370
     0
100
AcDbLine
 10
170.3375626101
 20
123.9504210889
 30
0.0
 11
173.7956705762
 21
123.2675643407
 31
0.0
  0
LINE
  5
199
330
1F
100
AcDbEntity
  8
0
  6
HIDDEN
 62
     7
370
     0
100
AcDbLine
 10
174.7642937072
 20
128.1728440707
 30
0.0
 11
171.3061857411
 21
128.8557008189
 31
0.0
  0
LINE
  5
19A
330
1F
100
AcDbEntity
  8
0
  6
HIDDEN
 62
     7
370
     0
100
AcDbLine
 10
169.9471664836
 20
127.5631125864
 30
0.0
 11
169.8803644528
 21
127.4005594522
 31
0.0
  0
LINE
  5
19B
330
1F
100
AcDbEntity
  8
0
  6
HIDDEN
 62
     7
370
     0
100
AcDbLine
 10
169.5718741756
 20
125.8383098475
 30
0.0
 11
169.5718741756
 21
125.6625656221
 31
0.0
  0
DIMENSION
  5
19C
330
1F
100
AcDbEntity
  8
VERMASSUNG
100
AcDbDimension
  2
_D
 10
243.7870154472
 20
96.4178422077
 30
0.0
 11
243.7870154472
 21
112.4178422077
 31
0.0
 70
   160
  1
ST3 %%c<>
 71
     2
 42
-1.0
  3
SLDDIMSTYLE0
100
AcDbAlignedDimension
 13
230.5993741756
 23
128.4178422077
 33
0.0
 14
230.5993741756
 24
96.4178422077
 34
0.0
 50
90.0
100
AcDbRotatedDimension
  0
DIMENSION
  5
1A9
330
1F
100
AcDbEntity
  8
VERMASSUNG
100
AcDbDimension
  2
_D_1
 10
237.6870154472
 20
103.4178422077
 30
0.0
 11
237.6870154472
 21
112.4178422077
 31
0.0
 70
   160
  1
%%c<>
 71
     2
 42
-1.0
  3
SLDDIMSTYLE0
100
AcDbAlignedDimension
 13
221.9993741756
 23
121.4178422077
 33
0.0
 14
221.9993741756
 24
103.4178422077
 34
0.0
 50
90.0
100
AcDbRotatedDimension
  0
DIMENSION
  5
1B4
330
1F
100
AcDbEntity
  8
VERMASSUNG
100
AcDbDimension
  2
_D_2
 10
230.8993741756
 20
166.1359738734
 30
0.0
 11
217.3993741756
 21
166.1359738734
 31
0.0
 70
   160
  1
(<>)
 71
     2
 42
-1.0
  3
SLDDIMSTYLE0
100
AcDbAlignedDimension
 13
203.8993741756
 23
161.4178422077
 33
0.0
 14
230.8993741756
 24
128.1178422077
 34
0.0
100
AcDbRotatedDimension
  0
DIMENSION
  5
1C0
330
1F
100
AcDbEntity
  8
VERMASSUNG
100
AcDbDimension
  2
_D_3
 10
230.8993741756
 20
172.1359738734
 30
0.0
 11
198.3993741756
 21
172.1359738734
 31
0.0
 70
   160
  1
<>
 71
     2
 42
-1.0
  3
SLDDIMSTYLE0
100
AcDbAlignedDimension
 13
165.8993741756
 23
147.3428422077
 33
0.0
 14
230.8993741756
 24
128.1178422077
 34
0.0
100
AcDbRotatedDimension
  0
DIMENSION
  5
1CA
330
1F
100
AcDbEntity
  8
VERMASSUNG
100
AcDbDimension
  2
_D_4
 10
230.8993741756
 20
178.1359738734
 30
0.0
 11
147.4993741756
 21
178.1359738734
 31
0.0
 70
   160
  1
(<>)
 71
     2
 42
-1.0
  3
SLDDIMSTYLE0
100
AcDbAlignedDimension
 13
64.0993741756
 23
130.7675200684
 33
0.0
 14
230.8993741756
 24
128.1178422077
 34
0.0
100
AcDbRotatedDimension
  0
DIMENSION
  5
1D6
330
1F
100
AcDbEntity
  8
VERMASSUNG
100
AcDbDimension
  2
_D_5
 10
57.9385932995
 20
62.4178422077
 30
0.0
 11
57.9385932995
 21
112.4178422077
 31
0.0
 70
   160
  1
MAS BT 50 %%c<>
 71
     2
 42
-1.0
  3
SLDDIMSTYLE0
100
AcDbAlignedDimension
 13
199.8993760841
 23
162.4178422077
 33
0.0
 14
199.8993762377
 24
62.4178422077
 34
0.0
 50
90.0
100
AcDbRotatedDimension
  0
LINE
  5
1E2
330
1F
100
AcDbEntity
  8
VERMASSUNG
  6
CENTERX2
370
     0
100
AcDbLine
 10
61.4155665902
 20
112.4178422077
 30
0.0
 11
232.9370642789
 21
112.4178422077
 31
0.0
  0
LINE
  5
1E3
330
1F
100
AcDbEntity
  8
VERMASSUNG
  6
CENTERX2
370
     0
100
AcDbLine
 10
166.9372622836
 20
127.1701374798
 30
0.0
 11
191.6460957584
 21
122.290997255
 31
0.0
  0
LINE
  5
1E4
330
1F
100
AcDbEntity
  8
VERMASSUNG
  6
CENTERX2
370
     0
100
AcDbLine
 10
189.4797099674
 20
102.1169008763
 30
0.0
 11
168.9209490058
 21
98.0572564709
 31
0.0
  0
LINE
  5
1E5
330
1F
100
AcDbEntity
  8
VERMASSUNG
  6
CENTERX2
370
     0
100
AcDbLine
 10
189.0993741756
 20
100.1030621532
 30
0.0
 11
189.0993741756
 21
123.0957892763
 31
0.0
  0
LINE
  5
1E6
330
1F
100
AcDbEntity
  8
0
  6
Continuous
 62
     7
370
    15
100
AcDbLine
 10
279.2807382752
 20
42.2355669239
 30
0.0
 11
279.1392939397
 21
42.3172475429
 31
0.0
  0
LINE
  5
1E7
330
1F
100
AcDbEntity
  8
0
  6
Continuous
 62
     7
370
    15
100
AcDbLine
 10
277.3005175771
 20
42.3172475429
 30
0.0
 11
277.1590732415
 21
42.2355669239
 31
0.0
  0
LINE
  5
1E8
330
1F
100
AcDbEntity
  8
0
  6
Continuous
 62
     7
370
    15
100
AcDbLine
 10
279.7199057584
 20
41.4804657068
 30
0.0
 11
279.7199057584
 21
41.6233603489
 31
0.0
  0
LINE
  5
1E9
330
1F
100
AcDbEntity
  8
0
  6
Continuous
 62
     7
370
    15
100
AcDbLine
 10
276.7199057584
 20
41.6233603489
 30
0.0
 11
276.7199057584
 21
41.4804657068
 31
0.0
  0
SPLINE
  5
1EA
330
1F
100
AcDbEntity
  8
0
  6
Continuous
 62
     7
370
    15
100
AcDbSpline
210
0.0
220
0.0
230
1.0
 70
     8
 71
     3
 72
    22
 73
    18
 74
     0
 42
0.000000001
 43
0.00000001
 40
0.0
 40
0.0
 40
0.0
 40
0.0
 40
0.0150338630113119
 40
0.0883420989905921
 40
0.161951267139597
 40
0.2358323204589536
 40
0.309924909214213
 40
0.3841609995684025
 40
0.4584804214190298
 40
0.5328373988353726
 40
0.6071966170942935
 40
0.6815394104983904
 40
0.7558581880209853
 40
0.8301506008112859
 40
0.9044176068729073
 40
0.9786621593463645
 40
1.0
 40
1.0
 40
1.0
 40
1.0
 10
262.3695113252405
 20
16.52303372701527
 30
0.0
 10
262.4516344179141
 20
16.51122097909598
 30
0.0
 10
262.9342067532439
 20
16.44180682085517
 30
0.0
 10
263.8681240312916
 20
16.45340663819389
 30
0.0
 10
265.1653881509462
 20
16.56508882304886
 30
0.0
 10
266.504939046839
 20
16.83062555887493
 30
0.0
 10
267.8725641723422
 20
17.23300049339421
 30
0.0
 10
269.260938087998
 20
17.77395859118294
 30
0.0
 10
270.6606548349756
 20
18.44880843184302
 30
0.0
 10
272.0628721913509
 20
19.25331857673297
 30
0.0
 10
273.458716956374
 20
20.1820812271808
 30
0.0
 10
274.8396845211558
 20
21.228889563483
 30
0.0
 10
276.1969882075198
 20
22.3875368423468
 30
0.0
 10
277.5239190407753
 20
23.64877321768289
 30
0.0
 10
278.8070023025203
 20
25.0119208423601
 30
0.0
 10
279.7617236991667
 20
26.10215595609705
 30
0.0
 10
280.2672819814574
 20
26.75945186524016
 30
0.0
 10
280.3801429563264
 20
26.9061867911269
 30
0.0
  0
SPLINE
  5
1EB
330
1F
100
AcDbEntity
  8
0
  6
Continuous
 62
     7
370
    15
100
AcDbSpline
210
0.0
220
0.0
230
1.0
 70
     8
 71
     3
 72
    22
 73
    18
 74
     0
 42
0.000000001
 43
0.00000001
 40
0.0
 40
0.0
 40
0.0
 40
0.0
 40
0.0284625095022978
 40
0.1028581560713577
 40
0.1772758613926843
 40
0.2517207162319712
 40
0.3261972077890924
 40
0.4007086543062312
 40
0.4752562789352207
 40
0.5498377631292796
 40
0.6244451059455439
 40
0.6990575388684865
 40
0.7736377906162392
 40
0.8481360345897261
 40
0.9224863423702073
 40
0.9966137749531059
 40
1.0
 40
1.0
 40
1.0
 40
1.0
 10
286.5267050514343
 20
37.55517168337744
 30
0.0
 10
286.6198791600763
 20
37.78306909956503
 30
0.0
 10
286.9565928643875
 20
38.60664749839138
 30
0.0
 10
287.4378016467448
 20
40.03524283299858
 30
0.0
 10
287.9662607910736
 20
41.82711294481309
 30
0.0
 10
288.3853293270386
 20
43.60485243281819
 30
0.0
 10
288.6999025931779
 20
45.35678234820537
 30
0.0
 10
288.9057246290332
 20
47.07256019980225
 30
0.0
 10
289.0017313347388
 20
48.74172042935038
 30
0.0
 10
288.9867764396324
 20
50.35414690392646
 30
0.0
 10
288.8604139859142
 20
51.89981200968205
 30
0.0
 10
288.623149286116
 20
53.36932521929542
 30
0.0
 10
288.2749205538933
 20
54.75196169269523
 30
0.0
 10
287.821367232359
 20
56.04317317817471
 30
0.0
 10
287.2509210492275
 20
57.21692689974677
 30
0.0
 10
286.8203413517971
 20
57.97667466903318
 30
0.0
 10
286.553845979592
 20
58.30894271981357
 30
0.0
 10
286.5422039885954
 20
58.32345802498997
 30
0.0
  0
LINE
  5
1EC
330
1F
100
AcDbEntity
  8
0
  6
Continuous
 62
     7
370
    15
100
AcDbLine
 10
256.4489839321
 20
18.9556961398
 30
0.0
 11
258.6675314581
 21
17.6749559144
 31
0.0
  0
LINE
  5
1ED
330
1F
100
AcDbEntity
  8
0
  6
Continuous
 62
     7
370
    15
100
AcDbLine
 10
283.665499774
 20
60.9773990334
 30
0.0
 11
281.446952248
 21
62.2581392588
 31
0.0
  0
LINE
  5
1EE
330
1F
100
AcDbEntity
  8
0
  6
Continuous
 62
     7
370
    15
100
AcDbLine
 10
276.1259737196
 20
65.3298747795
 30
0.0
 11
271.9982378844
 21
67.7127659559
 31
0.0
  0
SPLINE
  5
1EF
330
1F
100
AcDbEntity
  8
0
  6
Continuous
 62
     7
370
    15
100
AcDbSpline
210
0.0
220
0.0
230
1.0
 70
     8
 71
     3
 72
    31
 73
    27
 74
     0
 42
0.000000001
 43
0.00000001
 40
0.0
 40
0.0
 40
0.0
 40
0.0
 40
0.0207008106775834
 40
0.0635891777828268
 40
0.1066515747065328
 40
0.1498647531997835
 40
0.1931910749483531
 40
0.236591338826235
 40
0.2800324052110471
 40
0.3234898646865875
 40
0.3669443352251583
 40
0.4103876652781596
 40
0.453816356254074
 40
0.4972296363177344
 40
0.5406284330468544
 40
0.5840146878734269
 40
0.6273909219141333
 40
0.6707599741134546
 40
0.7141248518614436
 40
0.7574886515995638
 40
0.8008541944386715
 40
0.8442239317092586
 40
0.8876010558946796
 40
0.9309887450456495
 40
0.9743900993227719
 40
1.0
 40
1.0
 40
1.0
 40
1.0
 10
268.3134995377652
 20
68.8566540181172
 30
0.0
 10
268.1183099746385
 20
68.8799951126188
 30
0.0
 10
267.5187226432853
 20
68.95169476878327
 30
0.0
 10
266.4611474297947
 20
68.91903733389076
 30
0.0
 10
265.1517800288177
 20
68.76646152046078
 30
0.0
 10
263.8040675517162
 20
68.46491538763111
 30
0.0
 10
262.4301092520371
 20
68.02582058737802
 30
0.0
 10
261.0378890958288
 20
67.44931365947507
 30
0.0
 10
259.6366473081825
 20
66.73992478688152
 30
0.0
 10
258.2352536572981
 20
65.90222444749753
 30
0.0
 10
256.8424913354622
 20
64.94182651163638
 30
0.0
 10
255.4669208977693
 20
63.86498496939334
 30
0.0
 10
254.1168709963664
 20
62.6785774398172
 30
0.0
 10
252.8004728416743
 20
61.39007468825492
 30
0.0
 10
251.5256438204912
 20
60.00751391925013
 30
0.0
 10
250.3000553603137
 20
58.53945926139287
 30
0.0
 10
249.1310950920685
 20
56.99495969946694
 30
0.0
 10
248.0258292984854
 20
55.38350208822137
 30
0.0
 10
246.9909521666703
 20
53.71495635042898
 30
0.0
 10
246.0327852605492
 20
51.99953139392516
 30
0.0
 10
245.1571036148968
 20
50.24768828608246
 30
0.0
 10
244.3696086536984
 20
48.47018723892423
 30
0.0
 10
243.6739751200186
 20
46.67756931235924
 30
0.0
 10
243.0789954590361
 20
44.88175432263494
 30
0.0
 10
242.6411615617101
 20
43.33483674602956
 30
0.0
 10
242.4369274594453
 20
42.39760408530596
 30
0.0
 10
242.3611367050624
 20
42.0497994356374
 30
0.0
  0
LINE
  5
1F0
330
1F
100
AcDbEntity
  8
0
  6
Continuous
 62
     7
370
    15
100
AcDbLine
 10
280.9608639334
 20
27.1407556478
 30
0.0
 11
281.0669127118
 21
27.2019962079
 31
0.0
  0
LINE
  5
1F1
330
1F
100
AcDbEntity
  8
0
  6
Continuous
 62
     7
370
    15
100
AcDbLine
 10
286.616798785
 20
36.81572253
 30
0.0
 11
286.616798785
 21
36.9381837468
 31
0.0
  0
LINE
  5
1F2
330
1F
100
AcDbEntity
  8
0
  6
Continuous
 62
     7
370
    15
100
AcDbLine
 10
284.959619466
 20
40.6009421985
 30
0.0
 11
276.9339574995
 21
45.2340582331
 31
0.0
  0
LINE
  5
1F3
330
1F
100
AcDbEntity
  8
0
  6
Continuous
 62
     7
370
    15
100
AcDbLine
 10
268.9346076385
 20
31.377276435
 30
0.0
 11
276.9602696049
 21
26.7441604005
 31
0.0
  0
SPLINE
  5
1F4
330
1F
100
AcDbEntity
  8
0
  6
Continuous
 62
     7
370
    15
100
AcDbSpline
210
0.0
220
0.0
230
1.0
 70
     8
 71
     3
 72
    16
 73
    12
 74
     0
 42
0.000000001
 43
0.00000001
 40
0.0
 40
0.0
 40
0.0
 40
0.0
 40
0.0061604258716973
 40
0.1458184461277088
 40
0.284968473075792
 40
0.4234659737758462
 40
0.5613661241413281
 40
0.6991492006152213
 40
0.8381126310072047
 40
0.9814043490750785
 40
1.0
 40
1.0
 40
1.0
 40
1.0
 10
279.5018568973309
 20
36.12345546154168
 30
0.0
 10
279.5091509899579
 20
36.13301551833289
 30
0.0
 10
279.6818035427095
 20
36.35930387164159
 30
0.0
 10
280.0653434616369
 20
36.72887962766706
 30
0.0
 10
280.630916643547
 20
37.20022449934569
 30
0.0
 10
281.2046777645907
 20
37.54420615695024
 30
0.0
 10
281.7556629342748
 20
37.76173406149787
 30
0.0
 10
282.2666376053623
 20
37.85186728399481
 30
0.0
 10
282.7130986181335
 20
37.80497568036719
 30
0.0
 10
282.9990732712403
 20
37.721580842428
 30
0.0
 10
283.1181603020155
 20
37.61467003736835
 30
0.0
 10
283.131839570928
 20
37.60238942509229
 30
0.0
  0
SPLINE
  5
1F5
330
1F
100
AcDbEntity
  8
0
  6
Continuous
 62
     7
370
    15
100
AcDbSpline
210
0.0
220
0.0
230
1.0
 70
     8
 71
     3
 72
    11
 73
     7
 74
     0
 42
0.000000001
 43
0.00000001
 40
0.0
 40
0.0
 40
0.0
 40
0.0
 40
0.0637028860267792
 40
0.3801357428472003
 40
0.6971062772653561
 40
1.0
 40
1.0
 40
1.0
 40
1.0
 10
278.1770366066869
 20
33.89104165797981
 30
0.0
 10
278.1960507535138
 20
33.94192030393469
 30
0.0
 10
278.3095143228978
 20
34.24552965480446
 30
0.0
 10
278.5808739041915
 20
34.79591755741433
 30
0.0
 10
279.0056225981304
 20
35.50560198768056
 30
0.0
 10
279.3389688405385
 20
35.9206461194592
 30
0.0
 10
279.5018568973309
 20
36.12345546154168
 30
0.0
  0
LINE
  5
1F6
330
1F
100
AcDbEntity
  8
0
  6
Continuous
 62
     7
370
    15
100
AcDbLine
 10
257.5785092111
 20
65.4279389227
 30
0.0
 11
227.2288898723
 21
76.364738715
 31
0.0
  0
LINE
  5
1F7
330
1F
100
AcDbEntity
  8
0
  6
Continuous
 62
     7
370
    15
100
AcDbLine
 10
217.1195351969
 20
58.8529253441
 30
0.0
 11
246.5832725235
 21
33.9739891187
 31
0.0
  0
LINE
  5
1F8
330
1F
100
AcDbEntity
  8
0
  6
Continuous
 62
     7
370
    15
100
AcDbLine
 10
278.1199133361
 20
30.2921115886
 30
0.0
 11
278.0569055364
 21
30.3827176708
 31
0.0
  0
LINE
  5
1F9
330
1F
100
AcDbEntity
  8
0
  6
Continuous
 62
     7
370
    15
100
AcDbLine
 10
278.5053951119
 20
29.9058587379
 30
0.0
 11
278.2106008181
 21
30.1617017426
 31
0.0
  0
LINE
  5
1FA
330
1F
100
AcDbEntity
  8
0
  6
Continuous
 62
     7
370
    15
100
AcDbLine
 10
247.0002695685
 20
24.4103228369
 30
0.0
 11
251.1280054037
 21
22.0274316605
 31
0.0
  0
SPLINE
  5
1FB
330
1F
100
AcDbEntity
  8
0
  6
Continuous
 62
     7
370
    15
100
AcDbSpline
210
0.0
220
0.0
230
1.0
 70
     8
 71
     3
 72
    11
 73
     7
 74
     0
 42
0.000000001
 43
0.00000001
 40
0.0
 40
0.0
 40
0.0
 40
0.0
 40
0.1029993773410297
 40
0.4174359212798447
 40
0.731397278359151
 40
0.9999999999999999
 40
0.9999999999999999
 40
0.9999999999999999
 40
0.9999999999999999
 10
242.3446465714388
 20
30.88466364697475
 30
0.0
 10
242.3862417153096
 20
30.73710550056138
 30
0.0
 10
242.5548185324781
 20
30.1390817806076
 30
0.0
 10
242.9298620980354
 20
29.16041951445493
 30
0.0
 10
243.4701738300359
 20
28.0373247819402
 30
0.0
 10
243.9037105323831
 20
27.39746213110187
 30
0.0
 10
244.1036012267037
 20
27.1024407664666
 30
0.0
  0
SPLINE
  5
1FC
330
1F
100
AcDbEntity
  8
0
  6
Continuous
 62
     7
370
    15
100
AcDbSpline
210
0.0
220
0.0
230
1.0
 70
     8
 71
     3
 72
    25
 73
    21
 74
     0
 42
0.000000001
 43
0.00000001
 40
0.0
 40
0.0
 40
0.0
 40
0.0
 40
0.0438039404148049
 40
0.0964050175538123
 40
0.1500478736448497
 40
0.2049697020879973
 40
0.2609946613138659
 40
0.3177109939759197
 40
0.3747138095048919
 40
0.4316951416719395
 40
0.4885623396875041
 40
0.5453066949784618
 40
0.6019564127478888
 40
0.6585557974315355
 40
0.715155820647958
 40
0.7717994468694181
 40
0.8285351789608262
 40
0.8854183782141476
 40
0.9424996820197
 40
1.0
 40
1.0
 40
1.0
 40
1.0
 10
227.1361951242839
 20
76.38626781495819
 30
0.0
 10
226.9230121783478
 20
76.45113927254052
 30
0.0
 10
226.4538327974398
 20
76.59391030975185
 30
0.0
 10
225.6701541200258
 20
76.64369502125781
 30
0.0
 10
224.8094092937343
 20
76.57047696502374
 30
0.0
 10
223.9153379753022
 20
76.35168358076939
 30
0.0
 10
223.0011299291831
 20
75.99291972558942
 30
0.0
 10
222.0810254136458
 20
75.49696817882021
 30
0.0
 10
221.171570665099
 20
74.87297342101554
 30
0.0
 10
220.2881165512277
 20
74.1326555373766
 30
0.0
 10
219.4442453320492
 20
73.28935882706233
 30
0.0
 10
218.6517573670971
 20
72.35679821776897
 30
0.0
 10
217.9214880216206
 20
71.34927937099417
 30
0.0
 10
217.2635121398048
 20
70.28170438515711
 30
0.0
 10
216.6870904330504
 20
69.16952287015279
 30
0.0
 10
216.2008947216826
 20
68.02870368785075
 30
0.0
 10
215.8116817477125
 20
66.8749221475057
 30
0.0
 10
215.5288844762268
 20
65.72530865261521
 30
0.0
 10
215.3472657298633
 20
64.58940021312968
 30
0.0
 10
215.324330506546
 20
63.86543485170375
 30
0.0
 10
215.3128209589141
 20
63.50212843449739
 30
0.0
  0
SPLINE
  5
1FD
330
1F
100
AcDbEntity
  8
0
  6
Continuous
 62
     7
370
    15
100
AcDbSpline
210
0.0
220
0.0
230
1.0
 70
     8
 71
     3
 72
    14
 73
    10
 74
     0
 42
0.000000001
 43
0.00000001
 40
0.0
 40
0.0
 40
0.0
 40
0.0
 40
0.0961640073803374
 40
0.277500407491006
 40
0.4588312392024052
 40
0.6384530080024327
 40
0.8146068446526872
 40
0.9861326826283854
 40
1.0
 40
1.0
 40
1.0
 40
1.0
 10
215.3128209589141
 20
63.50212843449739
 30
0.0
 10
215.3162072086878
 20
63.31369173418157
 30
0.0
 10
215.325978907244
 20
62.76992008251685
 30
0.0
 10
215.4349137178359
 20
61.91558624331953
 30
0.0
 10
215.6820357257066
 20
60.97836920709573
 30
0.0
 10
216.0502286781326
 20
60.13332323965962
 30
0.0
 10
216.5432529674154
 20
59.41856663973449
 30
0.0
 10
216.9350382708158
 20
58.97110522933525
 30
0.0
 10
217.1819076894191
 20
58.80640114616008
 30
0.0
 10
217.2003734012233
 20
58.79408136127098
 30
0.0
  0
LWPOLYLINE
  5
1FE
330
1F
100
AcDbEntity
  8
0
  6
Continuous
 62
     7
370
    15
100
AcDbPolyline
 90
       18
 70
   128
 43
0.0
 10
277.1735151828
 20
41.3413454761
 10
276.965511723
 20
41.5896318309
 10
276.9269211285
 20
41.8645290812
 10
277.0629552729
 20
42.12891083
 10
277.3552419913
 20
42.3470708573
 10
277.7643063427
 20
42.4895454424
 10
278.2349019198
 20
42.5370926033
 10
278.7034721821
 20
42.4832908322
 10
279.1067341194
 20
42.3354063566
 10
279.3902249725
 20
42.1134117943
 10
279.5156577307
 20
41.8472887411
 10
279.466092005
 20
41.5729785899
 10
279.2482219214
 20
41.3275284467
 10
278.8914720419
 20
41.1440877134
 10
278.4440234145
 20
41.0474310775
 10
277.9663064557
 20
41.0506125533
 10
277.5228394881
 20
41.1532024649
 10
277.1735151828
 20
41.3413454761
  0
LWPOLYLINE
  5
1FF
330
1F
100
AcDbEntity
  8
0
  6
Continuous
 62
     7
370
    15
100
AcDbPolyline
 90
        6
 70
   128
 43
0.0
 10
277.0125320173
 20
41.1095260776
 10
276.7809190747
 20
41.3789028082
 10
276.7228691634
 20
41.677764726
 10
276.8453839593
 20
41.970064673
 10
277.13368637
 20
42.2205469617
 10
277.1590732415
 20
42.2355669239
  0
LWPOLYLINE
  5
200
330
1F
100
AcDbEntity
  8
0
  6
Continuous
 62
     7
370
    15
100
AcDbPolyline
 90
       12
 70
   128
 43
0.0
 10
279.2807382752
 20
42.2355669239
 10
279.4272794994
 20
42.1371946202
 10
279.658892442
 20
41.8678178896
 10
279.7169423533
 20
41.5689559717
 10
279.5944275574
 20
41.2766560247
 10
279.3061251467
 20
41.026173736
 10
278.8868086469
 20
40.8477209663
 10
278.3870538163
 20
40.7628217534
 10
277.8671384631
 20
40.7817161953
 10
277.389772052
 20
40.9021253435
 10
277.0125320173
 20
41.1095260776
 10
277.0125320173
 20
41.1095260776
  0
LWPOLYLINE
  5
201
330
1F
100
AcDbEntity
  8
0
  6
Continuous
 62
     7
370
    15
100
AcDbPolyline
 90
       17
 70
   128
 43
0.0
 10
277.4552357224
 20
41.4612401394
 10
277.297716629
 20
41.6549416131
 10
277.2805924709
 20
41.8686973129
 10
277.406470246
 20
42.0699648712
 10
277.656186204
 20
42.2281031268
 10
277.991723354
 20
42.3190369638
 10
278.3619992066
 20
42.3289225299
 10
278.7106426198
 20
42.2562548371
 10
278.9845757944
 20
42.1120968831
 10
279.1420948877
 20
41.9183954094
 10
279.1592190458
 20
41.7046397096
 10
279.0333412708
 20
41.5033721513
 10
278.7836253128
 20
41.3452338956
 10
278.4480881628
 20
41.2543000586
 10
278.0778123101
 20
41.2444144926
 10
277.7291688969
 20
41.3170821854
 10
277.4552357224
 20
41.4612401394
  0
SPLINE
  5
202
330
1F
100
AcDbEntity
  8
0
  6
Continuous
 62
     7
370
    15
100
AcDbSpline
210
0.0
220
0.0
230
1.0
 70
     8
 71
     3
 72
    10
 73
     6
 74
     0
 42
0.000000001
 43
0.00000001
 40
0.0
 40
0.0
 40
0.0
 40
0.0
 40
0.1645242653033424
 40
0.7039705196201498
 40
1.0
 40
1.0
 40
1.0
 40
1.0
 10
277.683169647572
 20
41.33115741407695
 30
0.0
 10
277.6653000987521
 20
41.33847295666111
 30
0.0
 10
277.5888394286806
 20
41.36977488227542
 30
0.0
 10
277.4738785105653
 20
41.50130135369915
 30
0.0
 10
277.3892572819586
 20
41.620245149006
 30
0.0
 10
277.3592739116544
 20
41.66238984388679
 30
0.0
  0
SPLINE
  5
203
330
1F
100
AcDbEntity
  8
0
  6
Continuous
 62
     7
370
    15
100
AcDbSpline
210
0.0
220
0.0
230
1.0
 70
     8
 71
     3
 72
     9
 73
     5
 74
     0
 42
0.000000001
 43
0.00000001
 40
0.0
 40
0.0
 40
0.0
 40
0.0
 40
0.5844235519482541
 40
1.0
 40
1.0
 40
1.0
 40
1.0
 10
279.080537605074
 20
41.77380980864756
 30
0.0
 10
279.0305677983639
 20
41.66419810546198
 30
0.0
 10
278.9450650725694
 20
41.47664285923659
 30
0.0
 10
278.8546350377961
 20
41.39278064941334
 30
0.0
 10
278.8170544451478
 20
41.35792949012922
 30
0.0
  0
SPLINE
  5
204
330
1F
100
AcDbEntity
  8
0
  6
Continuous
 62
     7
370
    15
100
AcDbSpline
210
0.0
220
0.0
230
1.0
 70
     8
 71
     3
 72
    11
 73
     7
 74
     0
 42
0.000000001
 43
0.00000001
 40
0.0
 40
0.0
 40
0.0
 40
0.0
 40
0.1858291127512952
 40
0.5244603149141964
 40
0.8816641415318811
 40
1.0
 40
1.0
 40
1.0
 40
1.0
 10
278.5666476527284
 20
42.17622411518575
 30
0.0
 10
278.5967009708034
 20
42.1334944976794
 30
0.0
 10
278.6815196110503
 20
42.01289989158271
 30
0.0
 10
278.8405052179274
 20
41.84889143892694
 30
0.0
 10
278.9850206379724
 20
41.78606795556487
 30
0.0
 10
279.0615048592016
 20
41.776252371495
 30
0.0
 10
279.080537605074
 20
41.77380980864756
 30
0.0
  0
SPLINE
  5
205
330
1F
100
AcDbEntity
  8
0
  6
Continuous
 62
     7
370
    15
100
AcDbSpline
210
0.0
220
0.0
230
1.0
 70
     8
 71
     3
 72
    10
 73
     6
 74
     0
 42
0.000000001
 43
0.00000001
 40
0.0
 40
0.0
 40
0.0
 40
0.0
 40
0.4391165375904137
 40
0.7513669429073371
 40
1.0
 40
1.0
 40
1.0
 40
1.0
 10
277.7060158060187
 20
42.12051413280536
 30
0.0
 10
277.8292218896721
 20
42.08654597405156
 30
0.0
 10
278.0400383142374
 20
42.0284234725874
 30
0.0
 10
278.3464972217744
 20
42.08016180599557
 30
0.0
 10
278.4990311515828
 20
42.14671975668294
 30
0.0
 10
278.5666476527284
 20
42.17622411518575
 30
0.0
  0
SPLINE
  5
206
330
1F
100
AcDbEntity
  8
0
  6
Continuous
 62
     7
370
    15
100
AcDbSpline
210
0.0
220
0.0
230
1.0
 70
     8
 71
     3
 72
    10
 73
     6
 74
     0
 42
0.000000001
 43
0.00000001
 40
0.0
 40
0.0
 40
0.0
 40
0.0
 40
0.4391165375904196
 40
0.7513669429073447
 40
1.0
 40
1.0
 40
1.0
 40
1.0
 10
277.3592739116544
 20
41.66238984388679
 30
0.0
 10
277.4089126869409
 20
41.68603039541283
 30
0.0
 10
277.4938489889106
 20
41.72648145431906
 30
0.0
 10
277.617318905287
 20
41.92151386780387
 30
0.0
 10
277.6787736422675
 20
42.05939364538159
 30
0.0
 10
277.7060158060187
 20
42.12051413280536
 30
0.0
  0
LINE
  5
207
330
1F
100
AcDbEntity
  8
0
  6
Continuous
 62
     7
370
    15
100
AcDbLine
 10
277.706015806
 20
41.325409807
 30
0.0
 11
277.706015806
 21
42.1205141328
 31
0.0
  0
LINE
  5
208
330
1F
100
AcDbEntity
  8
0
  6
Continuous
 62
     7
370
    15
100
AcDbLine
 10
278.5666476527
 20
41.2760804363
 30
0.0
 11
278.5666476527
 21
42.1762241152
 31
0.0
  0
ARC
  5
209
330
1F
100
AcDbEntity
  8
0
  6
Continuous
 62
     7
370
    15
100
AcDbCircle
 10
279.3112168403
 20
53.4344557714
 30
0.0
 40
8.700016033583191
100
AcDbArc
 50
34.9500308657
 51
84.9613057265
  0
ARC
  5
20A
330
1F
100
AcDbEntity
  8
0
  6
Continuous
 62
     7
370
    15
100
AcDbCircle
 10
263.0124687468
 20
25.2026907084
 30
0.0
 40
8.683854637568563
100
AcDbArc
 50
214.7572456476
 51
264.8712342661
  0
LWPOLYLINE
  5
20B
330
1F
100
AcDbEntity
  8
0
  6
Continuous
 62
     7
370
    15
100
AcDbPolyline
 90
        9
 70
   128
 43
0.0
 10
256.4489839321
 20
18.9556961398
 10
256.2826606689
 20
19.0543021506
 10
255.2917662811
 20
19.7607573423
 10
254.3973451754
 20
20.6144787752
 10
253.605715927
 20
21.6094353939
 10
252.9224709456
 20
22.7385983971
 10
252.3524369674
 20
23.9939908916
 10
251.8996409575
 20
25.3667442452
 10
251.5672816618
 20
26.8471607377
  0
SPLINE
  5
20C
330
1F
100
AcDbEntity
  8
0
  6
Continuous
 62
     7
370
    15
100
AcDbSpline
210
0.0
220
0.0
230
1.0
 70
     8
 71
     3
 72
    32
 73
    28
 74
     0
 42
0.000000001
 43
0.00000001
 40
0.0
 40
0.0
 40
0.0
 40
0.0
 40
0.0193254758647258
 40
0.0385826927399014
 40
0.0577846348003733
 40
0.0769443985950771
 40
0.0960751672943215
 40
0.1151901840580798
 40
0.1343027247879751
 40
0.1534260705402312
 40
0.172573479885108
 40
0.1917581614995186
 40
0.2109932472740069
 40
0.2302917662029109
 40
0.2496666193081449
 40
0.3745846283005043
 40
0.4997410234224777
 40
0.4999962720873377
 40
0.6248627021449072
 40
0.7503411293897363
 40
0.7861451323127985
 40
0.8217618640028611
 40
0.8572756267732794
 40
0.8927714566788081
 40
0.9283345184945242
 40
0.9640494961196089
 40
1.0
 40
1.0
 40
1.0
 40
1.0
 10
251.5672263857622
 20
34.29898550415709
 30
0.0
 10
251.5891696030498
 20
34.23889446044313
 30
0.0
 10
251.6329785325821
 20
34.11892461896212
 30
0.0
 10
251.6954177838041
 20
33.938177064855
 30
0.0
 10
251.7553264113307
 20
33.75733366843959
 30
0.0
 10
251.8125129969643
 20
33.57632655289955
 30
0.0
 10
251.8670710681723
 20
33.3951971505785
 30
0.0
 10
251.919018814763
 20
33.21395863324762
 30
0.0
 10
251.9683952942259
 20
33.03263267903772
 30
0.0
 10
252.0152346756735
 20
32.8512396023019
 30
0.0
 10
252.0595732820192
 20
32.66980124689873
 30
0.0
 10
252.1014471252425
 20
32.48833935792484
 30
0.0
 10
252.140894716431
 20
32.30687930547142
 30
0.0
 10
252.1779482357913
 20
32.12543685977813
 30
0.0
 10
252.2756403354255
 20
31.61508590803604
 30
0.0
 10
252.3931365342588
 20
30.7884843793478
 30
0.0
 10
252.4279879703793
 20
30.07316488405443
 30
0.0
 10
252.4283837945534
 20
29.39645291915348
 30
0.0
 10
252.3933324435071
 20
28.75476179505584
 30
0.0
 10
252.268398363336
 20
28.13346085627551
 30
0.0
 10
252.1476721824631
 20
27.76083675428498
 30
0.0
 10
252.0733647699404
 20
27.57204005314247
 30
0.0
 10
251.9904512987084
 20
27.39784877017533
 30
0.0
 10
251.8987524976991
 20
27.23803260010996
 30
0.0
 10
251.7978504300771
 20
27.09282872750014
 30
0.0
 10
251.688297533278
 20
26.96078176738297
 30
0.0
 10
251.607769235377
 20
26.88508228245139
 30
0.0
 10
251.5673727596211
 20
26.84710814804796
 30
0.0
  0
LWPOLYLINE
  5
20D
330
1F
100
AcDbEntity
  8
0
  6
Continuous
 62
     7
370
    15
100
AcDbPolyline
 90
       27
 70
   128
 43
0.0
 10
251.5672263855
 20
34.2989855043
 10
251.8995657255
 20
36.1631513666
 10
252.3523452839
 20
38.0587106802
 10
252.9223663524
 20
39.9722720683
 10
253.6056019576
 20
41.8903169768
 10
254.3972253102
 20
43.799295177
 10
255.2916439043
 20
45.6857204932
 10
256.2825390266
 20
47.5362660769
 10
257.3629103948
 20
49.3378585554
 10
258.5251256127
 20
51.0777703907
 10
259.7609740895
 20
52.7437097938
 10
261.0617250446
 20
54.3239075621
 10
262.4181891871
 20
55.8072002233
 10
263.8207836344
 20
57.1831089016
 10
265.2595996117
 20
58.4419133464
 10
266.7244724531
 20
59.5747206023
 10
268.2050534116
 20
60.5735278343
 10
269.6908827685
 20
61.4312788642
 10
271.171463727
 20
62.1419140205
 10
272.6363365685
 20
62.7004129468
 10
274.0751525457
 20
63.1028300692
 10
275.477746993
 20
63.3463224699
 10
276.8342111355
 20
63.4291699714
 10
278.1349620906
 20
63.3507872889
 10
279.3708105674
 20
63.1117281651
 10
280.5330257853
 20
62.713681458
 10
281.446952248
 20
62.2581392588
  0
SPLINE
  5
20E
330
1F
100
AcDbEntity
  8
0
  6
Continuous
 62
     7
370
    15
100
AcDbSpline
210
0.0
220
0.0
230
1.0
 70
     8
 71
     3
 72
     8
 73
     4
 74
     0
 42
0.000000001
 43
0.00000001
 40
0.0
 40
0.0
 40
0.0
 40
0.0
 40
1.0
 40
1.0
 40
1.0
 40
1.0
 10
250.6052331067061
 20
39.7343232220835
 30
0.0
 10
249.4356066867681
 20
39.53876704884077
 30
0.0
 10
248.2650034439082
 20
39.34518208212086
 30
0.0
 10
247.0937719622554
 20
39.15290263287459
 30
0.0
  0
SPLINE
  5
20F
330
1F
100
AcDbEntity
  8
0
  6
Continuous
 62
     7
370
    15
100
AcDbSpline
210
0.0
220
0.0
230
1.0
 70
     8
 71
     3
 72
     8
 73
     4
 74
     0
 42
0.000000001
 43
0.00000001
 40
0.0
 40
0.0
 40
0.0
 40
0.0
 40
0.0012417047560385
 40
0.0012417047560385
 40
0.0012417047560385
 40
0.0012417047560385
 10
246.6192713586057
 20
39.42687805375445
 30
0.0
 10
246.7775424990661
 20
39.33549272899651
 30
0.0
 10
246.9357118047454
 20
39.2441661815929
 30
0.0
 10
247.0937719622554
 20
39.15290263287459
 30
0.0
  0
LWPOLYLINE
  5
210
330
1F
100
AcDbEntity
  8
0
  6
Continuous
 62
     7
370
    15
100
AcDbPolyline
 90
       29
 70
   128
 43
0.0
 10
246.6192713586
 20
39.4268780538
 10
247.0807184481
 20
41.3123380148
 10
247.6575270177
 20
43.214296051
 10
248.3456755276
 20
45.11949161
 10
249.1403661698
 20
47.0146415673
 10
250.0360583189
 20
48.8865328368
 10
251.0265071618
 20
50.7221144933
 10
252.1048072367
 20
52.5085887641
 10
253.263440578
 20
54.2335002557
 10
254.4943291328
 20
55.8848227937
 10
255.7888910807
 20
57.4510432698
 10
257.1381006671
 20
58.9212419117
 10
258.5325511312
 20
60.2851684164
 10
259.9625202903
 20
61.533313416
 10
261.4180383236
 20
62.6569747774
 10
262.8889572822
 20
63.6483182738
 10
264.365021841
 20
64.5004322058
 10
265.8359407996
 20
65.2073755899
 10
267.2914588329
 20
65.7642195793
 10
268.7214279921
 20
66.1670818282
 10
270.1158784562
 20
66.4131535595
 10
271.4650880426
 20
66.5007191481
 10
272.7596499904
 20
66.4291680821
 10
273.9905385452
 20
66.1989992193
 10
275.1491718866
 20
65.8118173093
 10
276.2274719614
 20
65.2703218048
 10
277.2179208043
 20
64.5782880412
 10
278.1136129535
 20
63.7405409147
 10
278.500124006
 20
63.297999618
  0
LINE
  5
211
330
1F
100
AcDbEntity
  8
0
  6
Continuous
 62
     7
370
    15
100
AcDbLine
 10
242.4915355234
 20
41.8097692301
 30
0.0
 11
246.6192713586
 21
39.4268780538
 31
0.0
  0
ARC
  5
212
330
1F
100
AcDbEntity
  8
0
  6
Continuous
 62
     7
370
    15
100
AcDbCircle
 10
267.6088128116
 20
59.9818601279
 30
0.0
 40
8.890104464644331
100
AcDbArc
 50
60.4131167179
 51
84.5649193581
  0
SPLINE
  5
213
330
1F
100
AcDbEntity
  8
0
  6
Continuous
 62
     7
370
    15
100
AcDbSpline
210
0.0
220
0.0
230
1.0
 70
     8
 71
     3
 72
    16
 73
    12
 74
     0
 42
0.000000001
 43
0.00000001
 40
0.0
 40
0.0
 40
0.0
 40
0.0
 40
0.0964794202896693
 40
0.1936296485246884
 40
0.29289487203373
 40
0.3928905049917317
 40
0.4893697351603237
 40
0.6856004259376988
 40
0.7855848528858409
 40
0.8821686817504366
 40
1.0
 40
1.0
 40
1.0
 40
1.0
 10
260.3265978954703
 20
54.62938571052992
 30
0.0
 10
260.351519076465
 20
54.61588601133764
 30
0.0
 10
260.4015347119479
 20
54.5887927514285
 30
0.0
 10
260.4838296587863
 20
54.5557940066977
 30
0.0
 10
260.5713837481368
 20
54.52871301337455
 30
0.0
 10
260.6629727010927
 20
54.5088220536501
 30
0.0
 10
260.7890057474477
 20
54.49174243684116
 30
0.0
 10
260.9207886936238
 20
54.48853747134358
 30
0.0
 10
261.0550281926436
 20
54.50006701519619
 30
0.0
 10
261.1633737261972
 20
54.51509254654109
 30
0.0
 10
261.2367776424918
 20
54.5353183338667
 30
0.0
 10
261.2771165846705
 20
54.54643336568832
 30
0.0
  0
SPLINE
  5
214
330
1F
100
AcDbEntity
  8
0
  6
Continuous
 62
     7
370
    15
100
AcDbSpline
210
0.0
220
0.0
230
1.0
 70
     8
 71
     3
 72
    30
 73
    26
 74
     0
 42
0.000000001
 43
0.00000001
 40
0.0
 40
0.0
 40
0.0
 40
0.0
 40
0.0201689687073108
 40
0.05648041231813
 40
0.1303381001199259
 40
0.1679732300404099
 40
0.2042598330774041
 40
0.2780692637548902
 40
0.3156810090508788
 40
0.3519143303588409
 40
0.4256124032270387
 40
0.4631650457465538
 40
0.4993996573242094
 40
0.5730967934918872
 40
0.6106467263982245
 40
0.6469351139062097
 40
0.7207430068611953
 40
0.7583507274975566
 40
0.794661730262308
 40
0.8685198295532348
 40
0.9061559914158387
 40
0.9372224235183667
 40
0.952807313947405
 40
0.9682937644745425
 40
0.9999999999999999
 40
0.9999999999999999
 40
0.9999999999999999
 40
0.9999999999999999
 10
261.0268185643821
 20
56.39823741360347
 30
0.0
 10
261.0081511916005
 20
56.39423081040222
 30
0.0
 10
260.9558757913605
 20
56.38301087129248
 30
0.0
 10
260.8370286330549
 20
56.34715628465864
 30
0.0
 10
260.7057932739086
 20
56.29529324512377
 30
0.0
 10
260.5818831060686
 20
56.23099846147024
 30
0.0
 10
260.4635016998286
 20
56.15937140619668
 30
0.0
 10
260.3544105659512
 20
56.07709949521168
 30
0.0
 10
260.2575306934334
 20
55.98615129434728
 30
0.0
 10
260.1693102035787
 20
55.89007843068627
 30
0.0
 10
260.0947280252649
 20
55.78707995346031
 30
0.0
 10
260.0357783417155
 20
55.67970129307322
 30
0.0
 10
259.987461860114
 20
55.57011080721557
 30
0.0
 10
259.9554744627681
 20
55.45817798675368
 30
0.0
 10
259.9407535332102
 20
55.34679868793718
 30
0.0
 10
259.9374852769058
 20
55.23644144478876
 30
0.0
 10
259.9514251583727
 20
55.12870641304175
 30
0.0
 10
259.9823733364468
 20
55.02654085187739
 30
0.0
 10
260.0243401763879
 20
54.92868294249915
 30
0.0
 10
260.0824592600147
 20
54.83821154739113
 30
0.0
 10
260.1528136233426
 20
54.76053099861021
 30
0.0
 10
260.1993520256539
 20
54.71830661206383
 30
0.0
 10
260.2360314789216
 20
54.68921809405015
 30
0.0
 10
260.2744930215704
 20
54.66107207708654
 30
0.0
 10
260.3056590870449
 20
54.64211915961764
 30
0.0
 10
260.3265978954703
 20
54.62938571052992
 30
0.0
  0
SPLINE
  5
215
330
1F
100
AcDbEntity
  8
0
  6
Continuous
 62
     7
370
    15
100
AcDbSpline
210
0.0
220
0.0
230
1.0
 70
     8
 71
     3
 72
    12
 73
     8
 74
     0
 42
0.000000001
 43
0.00000001
 40
0.0
 40
0.0
 40
0.0
 40
0.0
 40
0.1973931352867799
 40
0.4331585065420842
 40
0.6706691114439182
 40
0.8350329453436219
 40
1.0
 40
1.0
 40
1.0
 40
1.0
 10
252.4535180112839
 20
38.35993284702024
 30
0.0
 10
252.366756803793
 20
38.46536725522254
 30
0.0
 10
252.1763684450086
 20
38.69673199203928
 30
0.0
 10
251.8599915813974
 20
39.01702878939331
 30
0.0
 10
251.5460017103326
 20
39.29154678774437
 30
0.0
 10
251.2572755313864
 20
39.51043338819498
 30
0.0
 10
251.0845569523218
 20
39.62119468067208
 30
0.0
 10
250.9980394823158
 20
39.67667676517983
 30
0.0
  0
SPLINE
  5
216
330
1F
100
AcDbEntity
  8
0
  6
Continuous
 62
     7
370
    15
100
AcDbSpline
210
0.0
220
0.0
230
1.0
 70
     8
 71
     3
 72
    10
 73
     6
 74
     0
 42
0.000000001
 43
0.00000001
 40
0.0
 40
0.0
 40
0.0
 40
0.0
 40
0.5
 40
0.5
 40
1.0
 40
1.0
 40
1.0
 40
1.0
 10
250.8621101350837
 20
39.72920674698916
 30
0.0
 10
250.8215348266887
 20
39.73803126831611
 30
0.0
 10
250.777960483635
 20
39.74298434422479
 30
0.0
 10
250.6901577566483
 20
39.74456952949092
 30
0.0
 10
250.6471896397264
 20
39.74133816198238
 30
0.0
 10
250.6052331067061
 20
39.7343232220835
 30
0.0
  0
SPLINE
  5
217
330
1F
100
AcDbEntity
  8
0
  6
Continuous
 62
     7
370
    15
100
AcDbSpline
210
0.0
220
0.0
230
1.0
 70
     8
 71
     3
 72
     8
 73
     4
 74
     0
 42
0.000000001
 43
0.00000001
 40
0.0
 40
0.0
 40
0.0
 40
0.0
 40
1.0
 40
1.0
 40
1.0
 40
1.0
 10
250.9980394823158
 20
39.67667676517983
 30
0.0
 10
250.9595575404797
 20
39.7003475749757
 30
0.0
 10
250.9134498887327
 20
39.71804112018515
 30
0.0
 10
250.8621101350837
 20
39.7292067469892
 30
0.0
  0
SPLINE
  5
218
330
1F
100
AcDbEntity
  8
0
  6
Continuous
 62
     7
370
    15
100
AcDbSpline
210
0.0
220
0.0
230
1.0
 70
     8
 71
     3
 72
    10
 73
     6
 74
     0
 42
0.000000001
 43
0.00000001
 40
0.0
 40
0.0
 40
0.0
 40
0.0
 40
0.5
 40
0.5
 40
1.0
 40
1.0
 40
1.0
 40
1.0
 10
242.3348386036184
 20
41.90021711331757
 30
0.0
 10
242.3458892019685
 20
41.89384127877344
 30
0.0
 10
242.3645091479079
 20
41.88309503726804
 30
0.0
 10
242.4178090979685
 20
41.85232956442809
 30
0.0
 10
242.4513898706898
 20
41.83294482215713
 30
0.0
 10
242.4915355234293
 20
41.80976923013698
 30
0.0
  0
LINE
  5
219
330
1F
100
AcDbEntity
  8
0
  6
Continuous
 62
     7
370
    15
100
AcDbLine
 10
242.3348386036
 20
41.9002171133
 30
0.0
 11
242.3588872116
 21
42.0502363681
 31
0.0
  0
LWPOLYLINE
  5
21A
330
1F
100
AcDbEntity
  8
0
  6
Continuous
 62
     7
370
    15
100
AcDbPolyline
 90
       43
 70
   128
 43
0.0
 10
281.0660105526
 20
40.0211660644
 10
280.2387084954
 20
39.4719820758
 10
279.4298869991
 20
38.7918805962
 10
278.6576137994
 20
37.996053969
 10
277.9391402033
 20
37.102279646
 10
277.2905157239
 20
36.1305230685
 10
276.7262295601
 20
35.1024916727
 10
276.2588869324
 20
34.0411499813
 10
275.8989275029
 20
32.9702066139
 10
275.6543921703
 20
31.9135846755
 10
275.53074345
 20
30.8948873543
 10
275.53074345
 20
29.936870665
 10
275.6543921703
 20
29.0609351175
 10
275.8989275029
 20
28.2866476645
 10
276.2588869324
 20
27.631304608
 10
276.7262295601
 20
27.1095452292
 10
277.2905157239
 20
26.7330247704
 10
277.9391402033
 20
26.5101540764
 10
278.6576137994
 20
26.4459117102
 10
279.4298869991
 20
26.5417327402
 10
280.2387084954
 20
26.7954766828
 10
281.0660105526
 20
27.2014753178
 10
281.8933126098
 20
27.7506593065
 10
282.7021341062
 20
28.430760786
 10
283.4744073059
 20
29.2265874132
 10
284.192880902
 20
30.1203617363
 10
284.8415053814
 20
31.0921183138
 10
285.4057915452
 20
32.1201497095
 10
285.8731341729
 20
33.1814914009
 10
286.2330936024
 20
34.2524347683
 10
286.4776289349
 20
35.3090567067
 10
286.6012776553
 20
36.3277540279
 10
286.6012776553
 20
37.2857707172
 10
286.4776289349
 20
38.1617062647
 10
286.2330936024
 20
38.9359937178
 10
285.8731341729
 20
39.5913367742
 10
285.4057915452
 20
40.113096153
 10
284.8415053814
 20
40.4896166118
 10
284.192880902
 20
40.7124873059
 10
283.4744073059
 20
40.776729672
 10
282.7021341062
 20
40.680908642
 10
281.8933126098
 20
40.4271646994
 10
281.0660105526
 20
40.0211660644
  0
LWPOLYLINE
  5
21B
330
1F
100
AcDbEntity
  8
0
  6
Continuous
 62
     7
370
    15
100
AcDbPolyline
 90
       23
 70
   128
 43
0.0
 10
280.9599445355
 20
40.2048777946
 10
280.1168341587
 20
39.6451998444
 10
279.2925574745
 20
38.9521027952
 10
278.505527462
 20
38.1410692897
 10
277.7733250712
 20
37.2302164764
 10
277.1123064934
 20
36.2398913019
 10
276.5372377915
 20
35.1922159941
 10
276.0609650499
 20
34.1105938883
 10
275.6941274147
 20
33.0191866348
 10
275.4449194325
 20
31.9423744683
 10
275.3189079978
 20
30.9042115932
 10
275.3189079978
 20
29.9278888525
 10
275.4449194325
 20
29.0352156831
 10
275.6941274147
 20
28.2461329284
 10
276.0609650499
 20
27.5782673932
 10
276.5372377915
 20
27.0465380899
 10
277.1123064934
 20
26.6628229726
 10
277.7733250712
 20
26.4356936029
 10
278.505527462
 20
26.3702236756
 10
279.2925574745
 20
26.4678756807
 10
280.1168341587
 20
26.7264682337
 10
280.9599445355
 20
27.1402248044
 10
280.9608639334
 20
27.1407556478
  0
LWPOLYLINE
  5
21C
330
1F
100
AcDbEntity
  8
0
  6
Continuous
 62
     7
370
    15
100
AcDbPolyline
 90
       12
 70
   128
 43
0.0
 10
286.616798785
 20
36.9381837468
 10
286.6009810732
 20
37.4172137464
 10
286.4749696384
 20
38.3098869159
 10
286.2257616562
 20
39.0989696706
 10
285.858924021
 20
39.7668352058
 10
285.3826512794
 20
40.2985645091
 10
284.8075825775
 20
40.6822796264
 10
284.1465639997
 20
40.9094089961
 10
283.4143616089
 20
40.9748789234
 10
282.6273315964
 20
40.8772269183
 10
281.8030549122
 20
40.6186343652
 10
280.9599445355
 20
40.2048777946
  0
SPLINE
  5
21D
330
1F
100
AcDbEntity
  8
0
  6
Continuous
 62
     7
370
    15
100
AcDbSpline
210
0.0
220
0.0
230
1.0
 70
    11
 71
     3
 72
    66
 73
    62
 74
     0
 42
0.000000001
 43
0.00000001
 40
0.0
 40
0.0
 40
0.0
 40
0.0
 40
0.0312499999999996
 40
0.0312499999999996
 40
0.0624999999999993
 40
0.0624999999999993
 40
0.0937499999999989
 40
0.0937499999999989
 40
0.1249999999999986
 40
0.1249999999999986
 40
0.1562499999999982
 40
0.1562499999999982
 40
0.1874999999999978
 40
0.1874999999999978
 40
0.2187499999999975
 40
0.2187499999999975
 40
0.2499999999999971
 40
0.2499999999999971
 40
0.2812499999999968
 40
0.2812499999999968
 40
0.3124999999999964
 40
0.3124999999999964
 40
0.343749999999996
 40
0.343749999999996
 40
0.3749999999999957
 40
0.3749999999999957
 40
0.4062499999999953
 40
0.4062499999999953
 40
0.4374999999999949
 40
0.4374999999999949
 40
0.4687499999999946
 40
0.4687499999999946
 40
0.4999999999999942
 40
0.4999999999999942
 40
0.5312499999999939
 40
0.5312499999999939
 40
0.5624999999999936
 40
0.5624999999999936
 40
0.6249999999999937
 40
0.6249999999999937
 40
0.6562499999999942
 40
0.6562499999999942
 40
0.6874999999999947
 40
0.6874999999999947
 40
0.7187499999999952
 40
0.7187499999999952
 40
0.7499999999999958
 40
0.7499999999999958
 40
0.7812499999999963
 40
0.7812499999999963
 40
0.8124999999999968
 40
0.8124999999999968
 40
0.8437499999999973
 40
0.8437499999999973
 40
0.8749999999999979
 40
0.8749999999999979
 40
0.9062499999999984
 40
0.9062499999999984
 40
0.9374999999999989
 40
0.9374999999999989
 40
1.0
 40
1.0
 40
1.0
 40
1.0
 10
278.2165319987206
 20
42.73133824352226
 30
0.0
 10
278.3334768565744
 20
42.71499337538245
 30
0.0
 10
278.4474561508322
 20
42.69274710210501
 30
0.0
 10
278.6701034764634
 20
42.63844311619949
 30
0.0
 10
278.779518077033
 20
42.60610308450848
 30
0.0
 10
278.9894961030615
 20
42.53339327176938
 30
0.0
 10
279.0887879886737
 20
42.49355427677562
 30
0.0
 10
279.2764609143505
 20
42.40768853673241
 30
0.0
 10
279.3655990460013
 20
42.36117279677469
 30
0.0
 10
279.5278267628818
 20
42.26448718179113
 30
0.0
 10
279.6009961443523
 20
42.21443040607826
 30
0.0
 10
279.7315534905704
 20
42.11067179936502
 30
0.0
 10
279.7893536113055
 20
42.05640843478427
 30
0.0
 10
279.8846191091184
 20
41.94701973560476
 30
0.0
 10
279.9224973952313
 20
41.89175870845048
 30
0.0
 10
279.9782288724326
 20
41.77914390409784
 30
0.0
 10
279.9960216415762
 20
41.72119791807533
 30
0.0
 10
280.0085867866133
 20
41.60657195776518
 30
0.0
 10
280.0037734401964
 20
41.54952075817152
 30
0.0
 10
279.9704705087919
 20
41.4347987502349
 30
0.0
 10
279.9414055916684
 20
41.37675013299683
 30
0.0
 10
279.8604478897224
 20
41.26501970876822
 30
0.0
 10
279.8085262170201
 20
41.21060908934756
 30
0.0
 10
279.6798356292143
 20
41.10424916292384
 30
0.0
 10
279.6042645795503
 20
41.05352773432038
 30
0.0
 10
279.4355254349745
 20
40.9597822662785
 30
0.0
 10
279.340310613824
 20
40.91575897764169
 30
0.0
 10
279.1384092862118
 20
40.83833227409451
 30
0.0
 10
279.0318455440949
 20
40.80471436009043
 30
0.0
 10
278.8078127268718
 20
40.74803887379024
 30
0.0
 10
278.6929095102957
 20
40.72570396235293
 30
0.0
 10
278.4612443474929
 20
40.69362133474691
 30
0.0
 10
278.3428097787829
 20
40.68376920122227
 30
0.0
 10
278.1108076695807
 20
40.67763744474358
 30
0.0
 10
277.9966507193712
 20
40.68115750422393
 30
0.0
 10
277.7717720385638
 20
40.70189964355659
 30
0.0
 10
277.6619543435382
 20
40.71918109772079
 30
0.0
 10
277.349100664988
 20
40.79043655453167
 30
0.0
 10
277.1563464421956
 20
40.86581436217374
 30
0.0
 10
276.9139671957158
 20
41.01236308703282
 30
0.0
 10
276.8399712147252
 20
41.06711338746374
 30
0.0
 10
276.7078612858867
 20
41.18743773005229
 30
0.0
 10
276.651148133903
 20
41.25163821531174
 30
0.0
 10
276.556061456717
 20
41.38741354823912
 30
0.0
 10
276.5174886239859
 20
41.45951092924131
 30
0.0
 10
276.4612678246192
 20
41.6085662036463
 30
0.0
 10
276.4439447462732
 20
41.68422342629927
 30
0.0
 10
276.4312283832618
 20
41.8368576077445
 30
0.0
 10
276.4360433494144
 20
41.91472309417112
 30
0.0
 10
276.4697129653418
 20
42.06644508296723
 30
0.0
 10
276.4981076340232
 20
42.13960209141737
 30
0.0
 10
276.5790223400792
 20
42.27936960216032
 30
0.0
 10
276.6325746331672
 20
42.34671562981758
 30
0.0
 10
276.760550225721
 20
42.46681690170986
 30
0.0
 10
276.8350066633409
 20
42.52028732588506
 30
0.0
 10
277.0057468393568
 20
42.61331232594306
 30
0.0
 10
277.1003011627612
 20
42.65168521081954
 30
0.0
 10
277.3017409417113
 20
42.71110182073446
 30
0.0
 10
277.4107098221656
 20
42.73260185240849
 30
0.0
 10
277.7447749694287
 20
42.77134621243373
 30
0.0
 10
277.9826422830129
 20
42.76402797980189
 30
0.0
 10
278.2165319987206
 20
42.73133824352227
 30
0.0
  0
LINE
  5
21E
330
1F
100
AcDbEntity
  8
0
  6
Continuous
 62
     7
370
    15
100
AcDbLine
 10
284.1097739382
 20
33.5437926858
 30
0.0
 11
285.3086512398
 21
35.0351846514
 31
0.0
  0
SPLINE
  5
21F
330
1F
100
AcDbEntity
  8
0
  6
Continuous
 62
     7
370
    15
100
AcDbSpline
210
0.0
220
0.0
230
1.0
 70
     8
 71
     3
 72
    22
 73
    18
 74
     0
 42
0.000000001
 43
0.00000001
 40
0.0
 40
0.0
 40
0.0
 40
0.0
 40
0.0416666666666668
 40
0.0833333333333334
 40
0.1250000000000031
 40
0.166666666666668
 40
0.2083333333333337
 40
0.2499999999998967
 40
0.2968749999997768
 40
0.34375
 40
0.390625
 40
0.4374999999999996
 40
0.4847037825276517
 40
0.4847037825276517
 40
0.53125
 40
0.6249999999999851
 40
0.8414337678076685
 40
0.8414337678076685
 40
0.8414337678076685
 40
0.8414337678076685
 10
285.3086512397593
 20
35.03518465141402
 30
0.0
 10
285.3541305675726
 20
35.09176050284984
 30
0.0
 10
285.4434009775144
 20
35.21368111144317
 30
0.0
 10
285.5678936870314
 20
35.42058878378477
 30
0.0
 10
285.6775353350869
 20
35.64956115596995
 30
0.0
 10
285.7645409308622
 20
35.89296552510446
 30
0.0
 10
285.8212165375158
 20
36.13993439017872
 30
0.0
 10
285.8424859814936
 20
36.38798072569796
 30
0.0
 10
285.8192524488957
 20
36.62034357872743
 30
0.0
 10
285.7461673251441
 20
36.81847422604294
 30
0.0
 10
285.6313007627543
 20
36.96381211258738
 30
0.0
 10
285.4819971625163
 20
37.05445174327984
 30
0.0
 10
285.3710737829094
 20
37.08025534346175
 30
0.0
 10
285.2605919993769
 20
37.09066482490645
 30
0.0
 10
285.1123583299383
 20
37.10302455893069
 30
0.0
 10
284.8312629348796
 20
37.12891931600217
 30
0.0
 10
284.4142647648719
 20
37.16613719930002
 30
0.0
 10
284.1096679908953
 20
37.19327758786812
 30
0.0
  0
SPLINE
  5
220
330
1F
100
AcDbEntity
  8
0
  6
Continuous
 62
     7
370
    15
100
AcDbSpline
210
0.0
220
0.0
230
1.0
 70
     8
 71
     3
 72
    22
 73
    18
 74
     0
 42
0.000000001
 43
0.00000001
 40
0.0
 40
0.0
 40
0.0
 40
0.0
 40
0.0416666666666668
 40
0.0833333333333334
 40
0.1250000000000031
 40
0.166666666666668
 40
0.2083333333333337
 40
0.2499999999998967
 40
0.2968749999997768
 40
0.34375
 40
0.390625
 40
0.4374999999999996
 40
0.4847037825276517
 40
0.4847037825276517
 40
0.53125
 40
0.6249999999999851
 40
0.83931730958649
 40
0.83931730958649
 40
0.83931730958649
 40
0.83931730958649
 10
276.8233698655208
 20
30.13673598047782
 30
0.0
 10
276.7786972086802
 20
30.14073038917196
 30
0.0
 10
276.6882457506547
 20
30.15968718003043
 30
0.0
 10
276.5642277316779
 20
30.22281618411576
 30
0.0
 10
276.4544588935872
 20
30.32521037989391
 30
0.0
 10
276.3674873674125
 20
30.46815716812638
 30
0.0
 10
276.3108026723918
 20
30.64969062772291
 30
0.0
 10
276.2895356074429
 20
30.87317940031112
 30
0.0
 10
276.3127689311859
 20
31.13236786206418
 30
0.0
 10
276.3858521892408
 20
31.41487819731766
 30
0.0
 10
276.500726431305
 20
31.69284782158348
 30
0.0
 10
276.6500011110833
 20
31.95583372480033
 30
0.0
 10
276.7609968845805
 20
32.10979678948301
 30
0.0
 10
276.8715074053139
 20
32.24780157302579
 30
0.0
 10
277.0197200312757
 20
32.43128208580481
 30
0.0
 10
277.2976171493405
 20
32.77773953501317
 30
0.0
 10
277.7195605731339
 20
33.30257051342219
 30
0.0
 10
278.0223548972655
 20
33.67915050451124
 30
0.0
  0
LINE
  5
221
330
1F
100
AcDbEntity
  8
0
  6
Continuous
 62
     7
370
    15
100
AcDbLine
 10
278.022247167
 20
30.0295382838
 30
0.0
 11
276.8233698655
 21
30.1367359805
 31
0.0
  0
SPLINE
  5
222
330
1F
100
AcDbEntity
  8
0
  6
Continuous
 62
     7
370
    15
100
AcDbSpline
210
0.0
220
0.0
230
1.0
 70
     8
 71
     3
 72
    11
 73
     7
 74
     0
 42
0.000000001
 43
0.00000001
 40
0.0
 40
0.0
 40
0.0
 40
0.0
 40
0.268794610265983
 40
0.5395171108869897
 40
0.8162531976077926
 40
1.0
 40
1.0
 40
1.0
 40
1.0
 10
250.9980394823158
 20
29.18732070223673
 30
0.0
 10
251.1179834815187
 20
29.1226350494846
 30
0.0
 10
251.3587317608615
 20
28.99279979551824
 30
0.0
 10
251.7068630524782
 20
28.83643587334041
 30
0.0
 10
252.00831748634
 20
28.7190947195989
 30
0.0
 10
252.1855020698726
 20
28.67048582197574
 30
0.0
 10
252.2562041555028
 20
28.65108938028978
 30
0.0
  0
SPLINE
  5
223
330
1F
100
AcDbEntity
  8
0
  6
Continuous
 62
     7
370
    15
100
AcDbSpline
210
0.0
220
0.0
230
1.0
 70
     8
 71
     3
 72
     8
 73
     4
 74
     0
 42
0.000000001
 43
0.00000001
 40
0.0
 40
0.0
 40
0.0
 40
0.0
 40
1.0
 40
1.0
 40
1.0
 40
1.0
 10
250.8621101350842
 20
29.23665731425715
 30
0.0
 10
250.9134385170814
 20
29.22549416061686
 30
0.0
 10
250.9595590811856
 20
29.20878015631515
 30
0.0
 10
250.9980394823158
 20
29.18732070223676
 30
0.0
  0
SPLINE
  5
224
330
1F
100
AcDbEntity
  8
0
  6
Continuous
 62
     7
370
    15
100
AcDbSpline
210
0.0
220
0.0
230
1.0
 70
     8
 71
     3
 72
    12
 73
     8
 74
     0
 42
0.000000001
 43
0.00000001
 40
0.0
 40
0.0
 40
0.0
 40
0.0
 40
0.1882382096048472
 40
0.3552093049360487
 40
0.5009554525919104
 40
0.7563158857666276
 40
0.9999999999999999
 40
0.9999999999999999
 40
0.9999999999999999
 40
0.9999999999999999
 10
251.678026651416
 20
27.57108230495542
 30
0.0
 10
251.767070181886
 20
27.66536395663229
 30
0.0
 10
251.9350971230351
 20
27.84327533833673
 30
0.0
 10
252.1150065105233
 20
28.19059239419808
 30
0.0
 10
252.2765303622217
 20
28.65124618548124
 30
0.0
 10
252.4022848918612
 20
29.27277891527154
 30
0.0
 10
252.419587515833
 20
29.85608502119512
 30
0.0
 10
252.4280364100618
 20
30.14091416618259
 30
0.0
  0
SPLINE
  5
225
330
1F
100
AcDbEntity
  8
0
  6
Continuous
 62
     7
370
    15
100
AcDbSpline
210
0.0
220
0.0
230
1.0
 70
     8
 71
     3
 72
     9
 73
     5
 74
     0
 42
0.000000001
 43
0.00000001
 40
0.0
 40
0.0
 40
0.0
 40
0.0
 40
0.5048005003628353
 40
1.0
 40
1.0
 40
1.0
 40
1.0
 10
251.5672922393852
 20
26.84705778469431
 30
0.0
 10
251.5858371377189
 20
26.96877166073891
 30
0.0
 10
251.6225742216172
 20
27.2098844883948
 30
0.0
 10
251.659671332973
 20
27.45139072164197
 30
0.0
 10
251.6780418039544
 20
27.57098448750522
 30
0.0
  0
SPLINE
  5
226
330
1F
100
AcDbEntity
  8
0
  6
Continuous
 62
     7
370
    15
100
AcDbSpline
210
0.0
220
0.0
230
1.0
 70
     8
 71
     3
 72
    11
 73
     7
 74
     0
 42
0.000000001
 43
0.00000001
 40
0.0
 40
0.0
 40
0.0
 40
0.0
 40
0.3180903421596452
 40
0.6361848529845475
 40
0.9543275201546685
 40
1.0
 40
1.0
 40
1.0
 40
1.0
 10
276.7526591874021
 20
30.40062621451509
 30
0.0
 10
276.6708894412967
 20
30.42072852561862
 30
0.0
 10
276.5073488774697
 20
30.46093341127225
 30
0.0
 10
276.3564438696908
 20
30.6843250796976
 30
0.0
 10
276.2846524132548
 20
30.89596531082929
 30
0.0
 10
276.3014538270562
 20
31.03544106440031
 30
0.0
 10
276.3035630361958
 20
31.05295051554917
 30
0.0
  0
SPLINE
  5
227
330
1F
100
AcDbEntity
  8
0
  6
Continuous
 62
     7
370
    15
100
AcDbSpline
210
0.0
220
0.0
230
1.0
 70
     8
 71
     3
 72
    16
 73
    12
 74
     0
 42
0.000000001
 43
0.00000001
 40
0.0
 40
0.0
 40
0.0
 40
0.0
 40
0.0271330291021182
 40
0.108950203659971
 40
0.193118451963328
 40
0.3231286384850161
 40
0.4564811489559379
 40
0.5902142042324191
 40
0.7250434286495977
 40
0.8622643519159339
 40
0.9999999999999999
 40
0.9999999999999999
 40
0.9999999999999999
 40
0.9999999999999999
 10
278.1742072173993
 20
33.89212401994065
 30
0.0
 10
278.173918412563
 20
33.89116712271147
 30
0.0
 10
278.1727587430834
 20
33.88732478916262
 30
0.0
 10
278.1675638535691
 20
33.8772946156775
 30
0.0
 10
278.1574547332575
 20
33.85999419187144
 30
0.0
 10
278.1418994683598
 20
33.83640698556909
 30
0.0
 10
278.1213384460564
 20
33.80735016434434
 30
0.0
 10
278.0985867148247
 20
33.77661311850218
 30
0.0
 10
278.0742988391563
 20
33.74482075885932
 30
0.0
 10
278.0488501954836
 20
33.71225728982984
 30
0.0
 10
278.0311976786396
 20
33.69019986361491
 30
0.0
 10
278.0223548972655
 20
33.67915050451118
 30
0.0
  0
SPLINE
  5
228
330
1F
100
AcDbEntity
  8
0
  6
Continuous
 62
     7
370
    15
100
AcDbSpline
210
0.0
220
0.0
230
1.0
 70
     8
 71
     3
 72
    16
 73
    12
 74
     0
 42
0.000000001
 43
0.00000001
 40
0.0
 40
0.0
 40
0.0
 40
0.0
 40
0.2499999999999872
 40
0.2499999999999872
 40
0.4999999999999745
 40
0.4999999999999745
 40
0.6249999999999738
 40
0.6249999999999738
 40
0.7499999999999732
 40
0.7499999999999732
 40
1.0
 40
1.0
 40
1.0
 40
1.0
 10
284.1096679908964
 20
37.19327758786802
 30
0.0
 10
284.0836726912904
 20
37.19559383870364
 30
0.0
 10
284.0556851708873
 20
37.1968254874835
 30
0.0
 10
283.9930334075516
 20
37.19565621400606
 30
0.0
 10
283.9579988725262
 20
37.19334364973849
 30
0.0
 10
283.8992081132832
 20
37.18367628347859
 30
0.0
 10
283.8782101084422
 20
37.17927435627391
 30
0.0
 10
283.8367014115733
 20
37.16766415997679
 30
0.0
 10
283.8168990700684
 20
37.16058644196679
 30
0.0
 10
283.7659888581103
 20
37.13805457220926
 30
0.0
 10
283.7438274201337
 20
37.12225925614131
 30
0.0
 10
283.7276332337713
 20
37.10769582369252
 30
0.0
  0
SPLINE
  5
229
330
1F
100
AcDbEntity
  8
0
  6
Continuous
 62
     7
370
    15
100
AcDbSpline
210
0.0
220
0.0
230
1.0
 70
     8
 71
     3
 72
    10
 73
     6
 74
     0
 42
0.000000001
 43
0.00000001
 40
0.0
 40
0.0
 40
0.0
 40
0.0
 40
0.5
 40
0.5
 40
1.0
 40
1.0
 40
1.0
 40
1.0
 10
283.7276332337773
 20
37.10769582368986
 30
0.0
 10
283.7014404761492
 20
37.11714371956155
 30
0.0
 10
283.6753082875076
 20
37.12731779503313
 30
0.0
 10
283.6246987986052
 20
37.14938051097639
 30
0.0
 10
283.6009347123239
 20
37.16102009529362
 30
0.0
 10
283.5809475420871
 20
37.17255844307071
 30
0.0
  0
LINE
  5
22A
330
1F
100
AcDbEntity
  8
0
  6
Continuous
 62
     7
370
    15
100
AcDbLine
 10
283.1477447458
 20
37.602217087
 30
0.0
 11
283.0683403277
 21
37.6514119914
 31
0.0
  0
LINE
  5
22B
330
1F
100
AcDbEntity
  8
0
  6
Continuous
 62
     7
370
    15
100
AcDbLine
 10
282.4734998408
 20
37.8118743928
 30
0.0
 11
283.5809475421
 21
37.1725584431
 31
0.0
  0
ARC
  5
22C
330
1F
100
AcDbEntity
  8
0
  6
Continuous
 62
     7
370
    15
100
AcDbCircle
 10
275.4686760501
 20
37.3243041063
 30
0.0
 40
5.629755706049994
100
AcDbArc
 50
337.8190910543
 51
1.3599475576
  0
LINE
  5
22D
330
1F
100
AcDbEntity
  8
0
  6
Continuous
 62
     7
370
    15
100
AcDbLine
 10
280.6818097392
 20
35.198889688
 30
0.0
 11
283.5809475421
 21
33.5252530588
 31
0.0
  0
LINE
  5
22E
330
1F
100
AcDbEntity
  8
0
  6
Continuous
 62
     7
370
    15
100
AcDbLine
 10
278.4895306272
 20
29.906015233
 30
0.0
 11
278.5687060308
 21
29.85697223
 31
0.0
  0
LINE
  5
22F
330
1F
100
AcDbEntity
  8
0
  6
Continuous
 62
     7
370
    15
100
AcDbLine
 10
276.3739897602
 20
31.3068866668
 30
0.0
 11
278.0560988164
 21
30.3358257783
 31
0.0
  0
LINE
  5
230
330
1F
100
AcDbEntity
  8
0
  6
Continuous
 62
     7
370
    15
100
AcDbLine
 10
242.7689057037
 20
41.6495947803
 30
0.0
 11
242.3348386036
 21
41.9002171133
 31
0.0
  0
LINE
  5
231
330
1F
100
AcDbEntity
  8
0
  6
Continuous
 62
     7
370
    15
100
AcDbLine
 10
247.0937719623
 20
39.1529026329
 30
0.0
 11
242.7689057037
 21
41.6495947803
 31
0.0
  0
SPLINE
  5
232
330
1F
100
AcDbEntity
  8
0
  6
Continuous
 62
     7
370
    15
100
AcDbSpline
210
0.0
220
0.0
230
1.0
 70
     8
 71
     3
 72
    11
 73
     7
 74
     0
 42
0.000000001
 43
0.00000001
 40
0.0
 40
0.0
 40
0.0
 40
0.0
 40
0.0763291486414734
 40
0.4828240100966647
 40
0.8892344489868842
 40
0.9999999999999999
 40
0.9999999999999999
 40
0.9999999999999999
 40
0.9999999999999999
 10
246.6652656479145
 20
36.33686343464768
 30
0.0
 10
246.6648302685845
 20
36.41510257366769
 30
0.0
 10
246.6620762539286
 20
36.91000832750478
 30
0.0
 10
246.6173805967147
 20
37.84299437000211
 30
0.0
 10
246.579305482153
 20
38.80847817828131
 30
0.0
 10
246.5913235012891
 20
39.32981694071628
 30
0.0
 10
246.5938974462086
 20
39.44147404857312
 30
0.0
  0
LINE
  5
233
330
1F
100
AcDbEntity
  8
0
  6
Continuous
 62
     7
370
    15
100
AcDbLine
 10
246.6652656479
 20
34.5610628056
 30
0.0
 11
246.6652656479
 21
36.3368634346
 31
0.0
  0
LINE
  5
234
330
1F
100
AcDbEntity
  8
0
  6
Continuous
 62
     7
370
    15
100
AcDbLine
 10
278.121545159
 20
30.2782271809
 30
0.0
 11
276.7526591874
 21
30.4006262145
 31
0.0
  0
SPLINE
  5
235
330
1F
100
AcDbEntity
  8
0
  6
Continuous
 62
     7
370
    15
100
AcDbSpline
210
0.0
220
0.0
230
1.0
 70
     8
 71
     3
 72
    16
 73
    12
 74
     0
 42
0.000000001
 43
0.00000001
 40
0.0
 40
0.0
 40
0.0
 40
0.0
 40
0.2499999999999998
 40
0.2499999999999998
 40
0.4999999999999997
 40
0.4999999999999997
 40
0.6249999999999996
 40
0.6249999999999996
 40
0.7499999999999996
 40
0.7499999999999996
 40
1.0
 40
1.0
 40
1.0
 40
1.0
 10
278.0222471670334
 20
30.02953828383201
 30
0.0
 10
278.0478046523961
 20
30.02725305951465
 30
0.0
 10
278.0728041895821
 20
30.02760764144533
 30
0.0
 10
278.12020260816
 20
30.03806195413041
 30
0.0
 10
278.142454623239
 20
30.04783580887145
 30
0.0
 10
278.1660540670869
 20
30.07814820416018
 30
0.0
 10
278.1721267187394
 20
30.0911536187958
 30
0.0
 10
278.1772935689295
 20
30.12354091151639
 30
0.0
 10
278.1761392804826
 20
30.14275074726507
 30
0.0
 10
278.1629196848436
 20
30.20216067760291
 30
0.0
 10
278.1432094995323
 20
30.24182371963206
 30
0.0
 10
278.121545159008
 20
30.27822718090145
 30
0.0
  0
SPLINE
  5
236
330
1F
100
AcDbEntity
  8
0
  6
Continuous
 62
     7
370
    15
100
AcDbSpline
210
0.0
220
0.0
230
1.0
 70
     8
 71
     3
 72
     8
 73
     4
 74
     0
 42
0.000000001
 43
0.00000001
 40
0.0
 40
0.0
 40
0.0
 40
0.0
 40
1.0
 40
1.0
 40
1.0
 40
1.0
 10
278.0560988163621
 20
30.33582577828644
 30
0.0
 10
278.0961331160711
 20
30.31271446900245
 30
0.0
 10
278.1156965567622
 20
30.29289918463127
 30
0.0
 10
278.1215451590076
 20
30.27822718090269
 30
0.0
  0
LINE
  5
237
330
1F
100
AcDbEntity
  8
0
  6
Continuous
 62
     7
370
    15
100
AcDbLine
 10
245.7371879976
 20
39.7496891819
 30
0.0
 11
245.7382290249
 21
39.9354409138
 31
0.0
  0
ARC
  5
238
330
1F
100
AcDbEntity
  8
0
  6
Continuous
 62
     7
370
    15
100
AcDbCircle
 10
257.6942677168
 20
39.4881300045
 30
0.0
 40
11.95994015934515
100
AcDbArc
 50
178.7468639795
 51
202.7557767409
  0
LINE
  5
239
330
1F
100
AcDbEntity
  8
0
  6
Continuous
 62
     7
370
    15
100
AcDbLine
 10
227.1542165392
 20
76.3907007848
 30
0.0
 11
227.2288898723
 21
76.364738715
 31
0.0
  0
SPLINE
  5
23A
330
1F
100
AcDbEntity
  8
0
  6
Continuous
 62
     7
370
    15
100
AcDbSpline
210
0.0
220
0.0
230
1.0
 70
     8
 71
     3
 72
     8
 73
     4
 74
     0
 42
0.000000001
 43
0.00000001
 40
0.0
 40
0.0
 40
0.0
 40
0.0
 40
1.0
 40
1.0
 40
1.0
 40
1.0
 10
283.5809475420875
 20
33.52525305877917
 30
0.0
 10
283.6209818417972
 20
33.50214174949475
 30
0.0
 10
283.6754787864481
 20
33.50249314769935
 30
0.0
 10
283.7276332337942
 20
33.5145529393453
 30
0.0
  0
SPLINE
  5
23B
330
1F
100
AcDbEntity
  8
0
  6
Continuous
 62
     7
370
    15
100
AcDbSpline
210
0.0
220
0.0
230
1.0
 70
     8
 71
     3
 72
    16
 73
    12
 74
     0
 42
0.000000001
 43
0.00000001
 40
0.0
 40
0.0
 40
0.0
 40
0.0
 40
0.2499999999999882
 40
0.2499999999999882
 40
0.3749999999999832
 40
0.3749999999999832
 40
0.4999999999999784
 40
0.4999999999999784
 40
0.7499999999999891
 40
0.7499999999999891
 40
1.0
 40
1.0
 40
1.0
 40
1.0
 10
283.7276332337975
 20
33.51455293934384
 30
0.0
 10
283.7437013004278
 20
33.47526972276381
 30
0.0
 10
283.7659568676192
 20
33.43637888676837
 30
0.0
 10
283.8164732801342
 20
33.39883589583415
 30
0.0
 10
283.8360864895413
 20
33.39045350965192
 30
0.0
 10
283.8774129875159
 20
33.38479355298823
 30
0.0
 10
283.8984068575202
 20
33.38739404061082
 30
0.0
 10
283.9574833725122
 20
33.40480898003828
 30
0.0
 10
283.9926447886868
 20
33.42817504992733
 30
0.0
 10
284.0555356059735
 20
33.48106700201904
 30
0.0
 10
284.0839915978063
 20
33.51171969943979
 30
0.0
 10
284.1097739382495
 20
33.54379268584322
 30
0.0
  0
SPLINE
  5
23C
330
1F
100
AcDbEntity
  8
0
  6
Continuous
 62
     7
370
    15
100
AcDbSpline
210
0.0
220
0.0
230
1.0
 70
     8
 71
     3
 72
    22
 73
    18
 74
     0
 42
0.000000001
 43
0.00000001
 40
0.0
 40
0.0
 40
0.0
 40
0.0
 40
0.125
 40
0.125
 40
0.25
 40
0.25
 40
0.375
 40
0.375
 40
0.5
 40
0.5
 40
0.625
 40
0.625
 40
0.75
 40
0.75
 40
0.875
 40
0.875
 40
1.0
 40
1.0
 40
1.0
 40
1.0
 10
285.0965192054034
 20
35.21743407426907
 30
0.0
 10
285.1639485633315
 20
35.30131555449282
 30
0.0
 10
285.2248813175564
 20
35.39050822326496
 30
0.0
 10
285.3326785871217
 20
35.58003445140381
 30
0.0
 10
285.3792866168543
 20
35.67998274513617
 30
0.0
 10
285.4531595210975
 20
35.87948762603033
 30
0.0
 10
285.481344233803
 20
35.98186001362194
 30
0.0
 10
285.5174665843754
 20
36.17840859859562
 30
0.0
 10
285.5259165735928
 20
36.27424938760052
 30
0.0
 10
285.5236440649581
 20
36.45440101822434
 30
0.0
 10
285.5131909124027
 20
36.53676537510827
 30
0.0
 10
285.4742363275766
 20
36.68577865363944
 30
0.0
 10
285.4458981675831
 20
36.75072803027557
 30
0.0
 10
285.3732209920955
 20
36.85781808729535
 30
0.0
 10
285.3280093891532
 20
36.90073935086223
 30
0.0
 10
285.2239367417417
 20
36.96096104766234
 30
0.0
 10
285.1639556212472
 20
36.97926696083875
 30
0.0
 10
285.0965192012692
 20
36.98529679245528
 30
0.0
  0
LINE
  5
23D
330
1F
100
AcDbEntity
  8
0
  6
Continuous
 62
     7
370
    15
100
AcDbLine
 10
285.0965192013
 20
36.9852967925
 30
0.0
 11
283.7276332338
 21
37.1076958237
 31
0.0
  0
ARC
  5
23E
330
1F
100
AcDbEntity
  8
0
  6
Continuous
 62
     7
370
    15
100
AcDbCircle
 10
280.4794158653
 20
38.2545268412
 30
0.0
 40
2.072199650650708
100
AcDbArc
 50
321.0658596266
 51
347.226892773
  0
LWPOLYLINE
  5
23F
330
1F
100
AcDbEntity
  8
0
  6
Continuous
 62
     7
370
    15
100
AcDbPolyline
 90
       10
 70
   128
 43
0.0
 10
254.0748336457
 20
20.9875713013
 10
253.263440578
 20
21.1583072207
 10
252.1048072367
 20
21.5454891308
 10
251.0265071618
 20
22.0869846353
 10
250.0360583189
 20
22.7790183988
 10
249.1403661698
 20
23.6167655253
 10
248.3456755276
 20
24.5943851974
 10
247.6575270177
 20
25.7050613987
 10
247.0807184481
 20
26.9410504359
 10
246.6192713586
 20
28.2937349279
  0
SPLINE
  5
240
330
1F
100
AcDbEntity
  8
0
  6
Continuous
 62
     7
370
    15
100
AcDbSpline
210
0.0
220
0.0
230
1.0
 70
     8
 71
     3
 72
     8
 73
     4
 74
     0
 42
0.000000001
 43
0.00000001
 40
0.0000000000000006
 40
0.0000000000000006
 40
0.0000000000000006
 40
0.0000000000000006
 40
0.001241704756042
 40
0.001241704756042
 40
0.001241704756042
 40
0.001241704756042
 10
247.0937719622582
 20
28.66035320014109
 30
0.0
 10
246.9357118047477
 20
28.53794999513659
 30
0.0
 10
246.7775424990666
 20
28.41574776516813
 30
0.0
 10
246.6192713586057
 20
28.29373492785702
 30
0.0
  0
SPLINE
  5
241
330
1F
100
AcDbEntity
  8
0
  6
Continuous
 62
     7
370
    15
100
AcDbSpline
210
0.0
220
0.0
230
1.0
 70
     8
 71
     3
 72
     8
 73
     4
 74
     0
 42
0.000000001
 43
0.00000001
 40
0.0
 40
0.0
 40
0.0
 40
0.0
 40
1.0
 40
1.0
 40
1.0
 40
1.0
 10
247.0937719622572
 20
28.66035320014301
 30
0.0
 10
248.2650045469323
 20
28.8526328304709
 30
0.0
 10
249.4356239215241
 20
29.04622049768106
 30
0.0
 10
250.6052331067061
 20
29.24177378935163
 30
0.0
  0
LINE
  5
242
330
1F
100
AcDbEntity
  8
0
  6
Continuous
 62
     7
370
    15
100
AcDbLine
 10
283.7276332338
 20
33.5145529393
 30
0.0
 11
285.0965192054
 21
35.2174340743
 31
0.0
  0
SPLINE
  5
243
330
1F
100
AcDbEntity
  8
0
  6
Continuous
 62
     7
370
    15
100
AcDbSpline
210
0.0
220
0.0
230
1.0
 70
     8
 71
     3
 72
    10
 73
     6
 74
     0
 42
0.000000001
 43
0.00000001
 40
0.0
 40
0.0
 40
0.0
 40
0.0
 40
0.5
 40
0.5
 40
1.0
 40
1.0
 40
1.0
 40
1.0
 10
250.6052331067061
 20
29.24177378935163
 30
0.0
 10
250.6469989677205
 20
29.24875684976557
 30
0.0
 10
250.6908962535345
 20
29.25204694077394
 30
0.0
 10
250.7785236363245
 20
29.25038396634491
 30
0.0
 10
250.8210289333852
 20
29.24559185979416
 30
0.0
 10
250.8621101350842
 20
29.23665731425715
 30
0.0
  0
LINE
  5
244
330
1F
100
AcDbEntity
  8
0
  6
Continuous
 62
     7
370
    15
100
AcDbLine
 10
242.7689057037
 20
31.1570453476
 30
0.0
 11
247.0937719623
 21
28.6603532001
 31
0.0
  0
LINE
  5
245
330
1F
100
AcDbEntity
  8
0
  6
Continuous
 62
     7
370
    15
100
AcDbLine
 10
242.7689057037
 20
31.1570453476
 30
0.0
 11
246.3117122573
 21
33.2022640373
 31
0.0
  0
LINE
  5
246
330
1F
100
AcDbEntity
  8
0
  6
Continuous
 62
     7
370
    15
100
AcDbLine
 10
280.6818097392
 20
35.198889688
 30
0.0
 11
282.0913153854
 21
36.9523013119
 31
0.0
  0
LINE
  5
247
330
1F
100
AcDbEntity
  8
0
  6
Continuous
 62
     7
370
    15
100
AcDbLine
 10
242.3348386036
 20
30.9064230146
 30
0.0
 11
242.7689057037
 21
31.1570453476
 31
0.0
  0
LINE
  5
248
330
1F
100
AcDbEntity
  8
0
  6
Continuous
 62
     7
370
    15
100
AcDbLine
 10
246.6192713586
 20
28.2937349279
 30
0.0
 11
242.4915355234
 21
30.6766261042
 31
0.0
  0
SPLINE
  5
249
330
1F
100
AcDbEntity
  8
0
  6
Continuous
 62
     7
370
    15
100
AcDbSpline
210
0.0
220
0.0
230
1.0
 70
     8
 71
     3
 72
     8
 73
     4
 74
     0
 42
0.000000001
 43
0.00000001
 40
0.0
 40
0.0
 40
0.0
 40
0.0
 40
1.0
 40
1.0
 40
1.0
 40
1.0
 10
242.4915355234293
 20
30.67662610423955
 30
0.0
 10
242.4113162942631
 20
30.72293567951015
 30
0.0
 10
242.3569265319774
 20
30.80659852051895
 30
0.0
 10
242.3348386036184
 20
30.90642301462598
 30
0.0
  0
ARC
  5
24A
330
1F
100
AcDbEntity
  8
0
  6
Continuous
 62
     7
370
    15
100
AcDbCircle
 10
251.5097545112
 20
32.090208508
 30
0.0
 40
8.905958587954569
100
AcDbArc
 50
214.8338129215
 51
239.5793426072
  0
ELLIPSE
  5
24B
330
1F
100
AcDbEntity
  8
0
  6
Continuous
 62
     7
370
    15
100
AcDbEllipse
 10
246.0188190385
 20
34.1878885054
 30
0.0
 11
-7.507462979106094E-5
 21
1.066811201853398
 31
0.0
210
0.0
220
0.0
230
1.0
 40
0.7174342186
 41
3.534193645557512
 42
5.104989972352372
  0
ELLIPSE
  5
24C
330
1F
100
AcDbEntity
  8
0
  6
Continuous
 62
     7
370
    15
100
AcDbEllipse
 10
245.9581588667
 20
34.1528587497
 30
0.0
 11
0.3250094736511642
 21
1.213179526238669
 31
0.0
210
0.0
220
0.0
230
1.0
 40
0.5176380889
 41
3.619174351347722
 42
5.189970678142634
  0
LWPOLYLINE
  5
24D
330
1F
100
AcDbEntity
  8
0
  6
Continuous
 62
     7
370
    15
100
AcDbPolyline
 90
       14
 70
   128
 43
0.0
 10
262.3332374691
 20
55.7188707641
 10
262.2573363541
 20
55.9911333241
 10
262.011614911
 20
56.2598568453
 10
261.6344581915
 20
56.4100151473
 10
261.1832848872
 20
56.4187479897
 10
260.7267820437
 20
56.2847258765
 10
260.3344480808
 20
56.0283524595
 10
260.0660122877
 20
55.6886582674
 10
259.9623415807
 20
55.3173586616
 10
260.0392188851
 20
54.9709806413
 10
260.2849403281
 20
54.7022571201
 10
260.6620970476
 20
54.5520988181
 10
261.113270352
 20
54.5433659757
 10
261.2824988195
 20
54.5762310458
  0
LINE
  5
24E
330
1F
100
AcDbEntity
  8
0
  6
Continuous
 62
     7
370
    15
100
AcDbLine
 10
260.4969930552
 20
55.7933711398
 30
0.0
 11
260.362775237
 21
55.1197901092
 31
0.0
  0
LINE
  5
24F
330
1F
100
AcDbEntity
  8
0
  6
Continuous
 62
     7
370
    15
100
AcDbLine
 10
261.0140598013
 20
54.8074759521
 30
0.0
 11
260.362775237
 21
55.1197901092
 31
0.0
  0
LINE
  5
250
330
1F
100
AcDbEntity
  8
0
  6
Continuous
 62
     7
370
    15
100
AcDbLine
 10
261.7995621839
 20
55.1687428256
 30
0.0
 11
261.0140598013
 21
54.8074759521
 31
0.0
  0
LINE
  5
251
330
1F
100
AcDbEntity
  8
0
  6
Continuous
 62
     7
370
    15
100
AcDbLine
 10
261.7995621839
 20
55.1687428256
 30
0.0
 11
261.9337800022
 21
55.8423238562
 31
0.0
  0
LINE
  5
252
330
1F
100
AcDbEntity
  8
0
  6
Continuous
 62
     7
370
    15
100
AcDbLine
 10
261.2824954378
 20
56.1546380133
 30
0.0
 11
261.9337800022
 21
55.8423238562
 31
0.0
  0
LINE
  5
253
330
1F
100
AcDbEntity
  8
0
  6
Continuous
 62
     7
370
    15
100
AcDbLine
 10
261.2824954378
 20
56.1546380133
 30
0.0
 11
260.4969930552
 21
55.7933711398
 31
0.0
  0
LINE
  5
254
330
1F
100
AcDbEntity
  8
0
  6
Continuous
 62
     7
370
    15
100
AcDbLine
 10
260.7388378178
 20
55.165687774
 30
0.0
 11
260.4969930552
 21
55.7933711398
 31
0.0
  0
LINE
  5
255
330
1F
100
AcDbEntity
  8
0
  6
Continuous
 62
     7
370
    15
100
AcDbLine
 10
260.7388378178
 20
55.165687774
 30
0.0
 11
260.6976903323
 21
54.9591863863
 31
0.0
  0
LINE
  5
256
330
1F
100
AcDbEntity
  8
0
  6
Continuous
 62
     7
370
    15
100
AcDbLine
 10
261.5243402005
 20
55.5269546475
 30
0.0
 11
261.8407096695
 21
55.3752442133
 31
0.0
  0
LINE
  5
257
330
1F
100
AcDbEntity
  8
0
  6
Continuous
 62
     7
370
    15
100
AcDbLine
 10
261.5243402005
 20
55.5269546475
 30
0.0
 11
261.2824954378
 21
56.1546380133
 31
0.0
  0
LINE
  5
258
330
1F
100
AcDbEntity
  8
0
  6
Continuous
 62
     7
370
    15
100
AcDbLine
 10
261.5243402005
 20
55.5269546475
 30
0.0
 11
260.7388378178
 21
55.165687774
 31
0.0
  0
LWPOLYLINE
  5
259
330
1F
100
AcDbEntity
  8
0
  6
Continuous
 62
     7
370
     0
100
AcDbPolyline
 90
       45
 70
   128
 43
0.0
 10
254.1959528676
 20
29.1210760761
 10
254.2567109812
 20
30.8301471547
 10
254.4385591477
 20
32.5973801526
 10
254.7402218329
 20
34.4103792
 10
255.1595830896
 20
36.2564274112
 10
255.6937014001
 20
38.1225760844
 10
256.3388303081
 20
39.9957355274
 10
257.0904446979
 20
41.8627668727
 10
257.9432725345
 20
43.7105742369
 10
258.8913318434
 20
45.5261965788
 10
259.9279726699
 20
47.2968986124
 10
261.0459237232
 20
49.0102601351
 10
262.23734338
 20
50.6542631468
 10
263.4938746874
 20
52.2173761476
 10
264.8067039812
 20
53.688635023
 10
266.1666227071
 20
55.057719949
 10
267.5640920124
 20
56.3150277786
 10
268.9893096539
 20
57.4517394007
 10
270.4322787539
 20
58.4598816
 10
271.8828779209
 20
59.3323829833
 10
273.3309322441
 20
60.0631235803
 10
274.7662846628
 20
60.6469777708
 10
276.1788672111
 20
61.0798502371
 10
277.5587716373
 20
61.3587046898
 10
278.8963189033
 20
61.4815851654
 10
280.1821270762
 20
61.4476297457
 10
281.4071771353
 20
61.2570766034
 10
282.5628762349
 20
60.9112623319
 10
283.6411179759
 20
60.41261257
 10
284.6343392674
 20
59.7646249873
 10
285.5355733757
 20
58.9718447513
 10
286.3384987909
 20
58.0398326457
 10
287.0374835681
 20
56.9751260656
 10
287.6276248315
 20
55.7851931629
 10
288.1047831641
 20
54.4783804618
 10
288.4656116429
 20
53.0638543146
 10
288.7075793155
 20
51.5515366057
 10
288.8289889525
 20
49.9520351573
 10
288.8289889525
 20
48.2765693229
 10
288.7075793155
 20
46.5368912914
 10
288.4656116429
 20
44.7452036543
 10
288.1047831641
 20
42.9140738131
 10
287.6276248315
 20
41.0563458278
 10
287.0374835681
 20
39.1850503256
 10
286.5552682551
 20
37.8635149711
  0
LWPOLYLINE
  5
25A
330
1F
100
AcDbEntity
  8
0
  6
Continuous
 62
     7
370
     0
100
AcDbPolyline
 90
       26
 70
   128
 43
0.0
 10
280.1287767403
 20
26.7312989543
 10
278.8963189033
 20
25.2790025796
 10
277.5587716373
 20
23.8575838532
 10
276.1788672111
 20
22.5432345678
 10
274.7662846628
 20
21.3451739392
 10
273.3309322441
 20
20.2718055021
 10
271.8828779209
 20
19.3306581647
 10
270.4322787539
 20
18.5283333994
 10
268.9893096539
 20
17.8704589379
 10
267.5640920124
 20
17.3616492971
 10
266.1666227071
 20
17.0054734108
 10
264.8067039812
 20
16.804429597
 10
263.4938746874
 20
16.7599280336
 10
262.23734338
 20
16.8722808672
 10
261.0459237232
 20
17.1407000233
 10
259.9279726699
 20
17.5633027344
 10
258.8913318434
 20
18.137124746
 10
257.9432725345
 20
18.8581411092
 10
257.0904446979
 20
19.7212944122
 10
256.3388303081
 20
20.7205302546
 10
255.6937014001
 20
21.8488397151
 10
255.1595830896
 20
23.0983085134
 10
254.7402218329
 20
24.4601725237
 10
254.4385591477
 20
25.9248792484
 10
254.2567109812
 20
27.4821548223
 10
254.1959528676
 20
29.1210760761
  0
LWPOLYLINE
  5
25B
330
1F
100
AcDbEntity
  8
0
  6
Continuous
 62
     7
370
     0
100
AcDbPolyline
 90
       27
 70
   128
 43
0.0
 10
253.4888460864
 20
29.1210760761
 10
253.5508441615
 20
30.8650261563
 10
253.7364035151
 20
32.6683251338
 10
254.0442225816
 20
34.5183241617
 10
254.4721422313
 20
36.4020468262
 10
255.0171609155
 20
38.3062801662
 10
255.6754557196
 20
40.217667353
 10
256.4424091785
 20
42.1228013788
 10
257.3126416649
 20
44.0083190973
 10
258.280049123
 20
45.8609949565
 10
259.3378458846
 20
47.6678337662
 10
260.4786122656
 20
49.4161618506
 10
261.6943466093
 20
51.0937159441
 10
262.9765214128
 20
52.6887292103
 10
264.3161431411
 20
54.190013777
 10
265.7038153104
 20
55.5870392118
 10
267.1298043974
 20
56.8700063848
 10
268.5841081132
 20
58.0299162032
 10
270.0565255622
 20
59.0586327331
 10
271.5367287939
 20
59.9489402671
 10
273.0143352461
 20
60.6945939375
 10
274.4789805713
 20
61.2903635196
 10
275.9203913348
 20
61.7320701179
 10
277.3284570759
 20
62.0166154779
 10
278.6933012249
 20
62.1420037183
 10
280.0053503809
 20
62.1073553308
 10
280.0753261586
 20
62.1008515582
  0
ARC
  5
25C
330
1F
100
AcDbEntity
  8
0
  6
Continuous
 62
     7
370
     0
100
AcDbCircle
 10
268.9057677777
 20
28.5178221559
 30
0.0
 40
15.42871963998527
100
AcDbArc
 50
177.7591973184
 51
212.3942003931
  0
LWPOLYLINE
  5
25D
330
1F
100
AcDbEntity
  8
0
  6
Continuous
 62
     7
370
     0
100
AcDbPolyline
 90
       24
 70
   128
 43
0.0
 10
264.4490011948
 20
35.0400348868
 10
264.5094951601
 20
36.1407569393
 10
264.6899419877
 20
37.2924901781
 10
264.9872541822
 20
38.4755281281
 10
265.3963446497
 20
39.6696286819
 10
265.9102137387
 20
40.854360448
 10
266.5200690066
 20
42.0094523375
 10
267.2154756609
 20
43.1151404078
 10
267.9845351007
 20
44.1525060296
 10
268.8140885059
 20
45.1037995893
 10
269.6899419877
 20
45.9527441905
 10
270.5971094502
 20
46.6848141557
 10
271.5200690066
 20
47.2874835648
 10
272.443028563
 20
47.750440577
 10
273.3501960255
 20
48.0657638697
 10
274.2260495074
 20
48.2280581737
 10
275.0556029126
 20
48.2345465887
 10
275.8246623524
 20
48.0851180959
 10
276.5200690066
 20
47.7823294583
 10
277.1299242746
 20
47.3313614736
 10
277.6437933636
 20
46.7399303288
 10
278.052883831
 20
46.0181555749
 10
278.3501960255
 20
45.1783869781
 10
278.5199877194
 20
44.3184624762
  0
LWPOLYLINE
  5
25E
330
1F
100
AcDbEntity
  8
0
  6
Continuous
 62
     7
370
     0
100
AcDbPolyline
 90
       12
 70
   128
 43
0.0
 10
270.5206378584
 20
30.4616806781
 10
269.6899419877
 20
30.1783870221
 10
268.8140885059
 20
30.0160927181
 10
267.9845351007
 20
30.0096043032
 10
267.2154756609
 20
30.1590327959
 10
266.5200690066
 20
30.4618214335
 10
265.9102137387
 20
30.9127894183
 10
265.3963446497
 20
31.504220563
 10
264.9872541822
 20
32.2259953169
 10
264.6899419877
 20
33.0657639137
 10
264.5094951601
 20
34.00915768
 10
264.4490011948
 20
35.0400348868
  0
LWPOLYLINE
  5
25F
330
1F
100
AcDbEntity
  8
0
  6
Continuous
 62
     7
370
     0
100
AcDbPolyline
 90
       21
 70
   128
 43
0.0
 10
250.6052331067
 20
39.7343232221
 10
251.0748786185
 20
41.4937511526
 10
251.6590471073
 20
43.2642069555
 10
252.352960426
 20
45.0312093663
 10
253.1509427805
 20
46.7803053669
 10
254.0464671546
 20
48.4971884028
 10
255.0322086969
 20
50.1678154025
 10
256.100104634
 20
51.7785216408
 10
257.2414202187
 20
53.3161325086
 10
258.4468201753
 20
54.7680712726
 10
259.7064450563
 20
56.1224619463
 10
261.0099918871
 20
57.3682264277
 10
262.3467984379
 20
58.4951751119
 10
263.7059304341
 20
59.4940902356
 10
265.0762709928
 20
60.3568012734
 10
266.4466115514
 20
61.0762517674
 10
267.8057435477
 20
61.6465570447
 10
269.1425500984
 20
62.0630523509
 10
270.4460969292
 20
62.3223310046
 10
271.7057218103
 20
62.4222722623
 10
271.8622396738
 20
62.4235058377
  0
LWPOLYLINE
  5
260
330
1F
100
AcDbEntity
  8
0
  6
Continuous
 62
     7
370
     0
100
AcDbPolyline
 90
       23
 70
   128
 43
0.0
 10
242.4915355234
 20
41.8097692301
 10
242.9529826129
 20
43.6952291911
 10
243.5297911826
 20
45.5971872273
 10
244.2179396924
 20
47.5023827863
 10
245.0126303346
 20
49.3975327436
 10
245.9083224837
 20
51.2694240132
 10
246.8987713267
 20
53.1050056697
 10
247.9770714015
 20
54.8914799404
 10
249.1357047428
 20
56.6163914321
 10
250.3665932976
 20
58.2677139701
 10
251.6611552455
 20
59.8339344462
 10
253.0103648319
 20
61.3041330881
 10
254.404815296
 20
62.6680595928
 10
255.8347844551
 20
63.9162045924
 10
257.2903024885
 20
65.0398659537
 10
258.7612214471
 20
66.0312094502
 10
260.2372860058
 20
66.8833233822
 10
261.7082049644
 20
67.5902667663
 10
263.1637229978
 20
68.1471107557
 10
264.5936921569
 20
68.5499730046
 10
265.988142621
 20
68.7960447359
 10
267.3373522074
 20
68.8836103245
 10
268.4508644021
 20
68.8319960879
  0
LWPOLYLINE
  5
261
330
1F
100
AcDbEntity
  8
0
  6
Continuous
 62
     7
370
     0
100
AcDbPolyline
 90
       20
 70
   128
 43
0.0
 10
250.9980394823
 20
39.6766767652
 10
251.465767429
 20
41.4163102976
 10
252.046313839
 20
43.1664011577
 10
252.7349515947
 20
44.9126991749
 10
253.5260734414
 20
46.640985062
 10
254.4132376441
 20
48.3371861962
 10
255.3892204401
 20
49.9874912057
 10
256.4460748584
 20
51.5784624294
 10
257.5751954283
 20
53.0971453336
 10
258.7673882497
 20
54.5311739943
 10
260.0129458544
 20
55.8688717875
 10
261.30172625
 20
57.0993464664
 10
262.6232355012
 20
58.2125788516
 10
263.9667131768
 20
59.1995044131
 10
265.3212199671
 20
60.0520870781
 10
266.6757267573
 20
60.763384665
 10
268.0192044329
 20
61.3276054107
 10
269.3407136841
 20
61.7401551297
 10
270.6294940797
 20
61.9976746228
 10
270.9297464162
 20
62.0358119034
  0
LWPOLYLINE
  5
262
330
1F
100
AcDbEntity
  8
0
  6
Continuous
 62
     7
370
     0
100
AcDbPolyline
 90
        7
 70
   128
 43
0.0
 10
267.2774283195
 20
35.0400348868
 10
267.3406107076
 20
34.1029165589
 10
267.5287464819
 20
33.2596807384
 10
267.8376329999
 20
32.5291639202
 10
268.2603702474
 20
31.927684643
 10
268.7875149727
 20
31.4686789597
 10
268.9346076385
 20
31.377276435
  0
LWPOLYLINE
  5
263
330
1F
100
AcDbEntity
  8
0
  6
Continuous
 62
     7
370
     0
100
AcDbPolyline
 90
       17
 70
   128
 43
0.0
 10
276.9339574995
 20
45.2340582331
 10
276.4612735042
 20
45.4489343692
 10
275.7627096937
 20
45.5956442483
 10
275.0009634952
 20
45.5795080894
 10
274.1930510598
 20
45.4008863478
 10
273.3570198165
 20
45.0637691378
 10
272.5115453215
 20
44.575687101
 10
271.6755140781
 20
43.9475431835
 10
270.8676016428
 20
43.1933690824
 10
270.1058554442
 20
42.330011801
 10
269.4072916338
 20
41.3767573142
 10
268.7875149727
 20
40.3548997521
 10
268.2603702474
 20
39.287265724
 10
267.8376329999
 20
38.1977044099
 10
267.5287464819
 20
37.1105548091
 10
267.3406107076
 20
36.0501020473
 10
267.2774283195
 20
35.0400348868
  0
LWPOLYLINE
  5
264
330
1F
100
AcDbEntity
  8
0
  6
Continuous
 62
     7
370
     0
100
AcDbPolyline
 90
       12
 70
   128
 43
0.0
 10
278.022247167
 20
30.0295382838
 10
278.3936951982
 20
29.5865618933
 10
278.8701336678
 20
29.3017109988
 10
279.4328441698
 20
29.1861768769
 10
280.0597188261
 20
29.2444986544
 10
280.7261288648
 20
29.474384974
 10
281.4058922405
 20
29.8668040179
 10
282.0723022792
 20
30.4063383514
 10
282.6991769355
 20
31.0717906462
 10
283.2618874375
 20
31.8370164846
 10
283.7383259071
 20
32.6719515273
 10
284.1097739382
 20
33.5437926858
  0
LWPOLYLINE
  5
265
330
1F
100
AcDbEntity
  8
0
  6
Continuous
 62
     7
370
     0
100
AcDbPolyline
 90
       12
 70
   128
 43
0.0
 10
284.1096679909
 20
37.1932775879
 10
283.7382082153
 20
37.6361805062
 10
283.2617755828
 20
37.9209734765
 10
282.6990859597
 20
38.0364688787
 10
282.0722436754
 20
37.9781296674
 10
281.4058731904
 20
37.7482476018
 10
280.7261517649
 20
37.3558532179
 10
280.0597811286
 20
36.8163610789
 10
279.4329385478
 20
36.1509642395
 10
278.8702484945
 20
35.3858017117
 10
278.393815315
 20
34.5509316376
 10
278.0223548973
 20
33.6791505045
  0
LINE
  5
266
330
1F
100
AcDbEntity
  8
0
  6
Continuous
 62
     7
370
     0
100
AcDbLine
 10
250.8621101351
 20
29.2366573143
 30
0.0
 11
252.0215995154
 21
29.9060162858
 31
0.0
  0
LINE
  5
267
330
1F
100
AcDbEntity
  8
0
  6
Continuous
 62
     7
370
     0
100
AcDbLine
 10
252.4081648112
 20
29.7018825049
 30
0.0
 11
252.0215995154
 21
29.9060162858
 31
0.0
  0
LINE
  5
268
330
1F
100
AcDbEntity
  8
0
  6
Continuous
 62
     7
370
     0
100
AcDbLine
 10
276.7526591874
 20
30.4006262145
 30
0.0
 11
276.8233698655
 21
30.1367359805
 31
0.0
  0
LWPOLYLINE
  5
269
330
1F
100
AcDbEntity
  8
0
  6
Continuous
 62
     7
370
     0
100
AcDbPolyline
 90
        3
 70
   128
 43
0.0
 10
283.5809475421
 20
37.1725584431
 10
283.1904334633
 20
37.5728283372
 10
283.1477447458
 20
37.602217087
  0
ARC
  5
26A
330
1F
100
AcDbEntity
  8
0
  6
Continuous
 62
     7
370
     0
100
AcDbCircle
 10
251.2964530545
 20
31.0819368391
 30
0.0
 40
1.381530505418066
100
AcDbArc
 50
301.6605905893
 51
324.2377952693
  0
LWPOLYLINE
  5
26B
330
1F
100
AcDbEntity
  8
0
  6
Continuous
 62
     7
370
     0
100
AcDbPolyline
 90
       10
 70
   128
 43
0.0
 10
278.5687060308
 20
29.85697223
 10
278.9416323174
 20
29.7035334543
 10
279.519346741
 20
29.6499812967
 10
280.1543023179
 20
29.7772588963
 10
280.8185231792
 20
30.0797584572
 10
281.4827440406
 20
30.5441519791
 10
282.1176996174
 20
31.1499784839
 10
282.6954140411
 20
31.8705455172
 10
283.1904334633
 20
32.6741052066
 10
283.5809475421
 20
33.5252530588
  0
LINE
  5
26C
330
1F
100
AcDbEntity
  8
0
  6
Continuous
 62
     7
370
     0
100
AcDbLine
 10
276.4621620297
 20
30.5683266541
 30
0.0
 11
276.7526591874
 21
30.4006262145
 31
0.0
  0
LINE
  5
26D
330
1F
100
AcDbEntity
  8
0
  6
Continuous
 62
     7
370
     0
100
AcDbLine
 10
246.7259258197
 20
34.5960925613
 30
0.0
 11
252.3009288869
 21
31.3777117957
 31
0.0
  0
LINE
  5
26E
330
1F
100
AcDbEntity
  8
0
  6
Continuous
 62
     7
370
     0
100
AcDbLine
 10
246.6652656479
 20
34.5610628056
 30
0.0
 11
246.7259258197
 21
34.5960925613
 31
0.0
  0
LINE
  5
26F
330
1F
100
AcDbEntity
  8
0
  6
Continuous
 62
     7
370
     0
100
AcDbLine
 10
246.4442947788
 20
39.341485126
 30
0.0
 11
246.445335806
 21
39.5272368579
 31
0.0
  0
LWPOLYLINE
  5
270
330
1F
100
AcDbEntity
  8
0
  6
Continuous
 62
     7
370
     0
100
AcDbPolyline
 90
        3
 70
   128
 43
0.0
 10
246.6219791621
 20
37.0338205192
 10
246.50565403
 20
37.9571846829
 10
246.4442947788
 20
39.341485126
  0
LWPOLYLINE
  5
271
330
1F
100
AcDbEntity
  8
0
  6
Continuous
 62
     7
370
     0
100
AcDbPolyline
 90
       19
 70
   128
 43
0.0
 10
215.5110750951
 20
63.1571037172
 10
215.5725634114
 20
64.2759185485
 10
215.7559762779
 20
65.4465830467
 10
216.0581754499
 20
66.6490668175
 10
216.4739902155
 20
67.8627950304
 10
216.9963058689
 20
69.067000459
 10
217.6161854445
 20
70.2410788147
 10
218.3230226308
 20
71.3649412912
 10
219.1047232477
 20
72.4193582899
 10
219.9479121808
 20
73.3862884438
 10
220.8381622337
 20
74.2491873097
 10
221.7602409811
 20
74.9932904488
 10
222.6983714002
 20
75.6058660501
 10
223.6365018193
 20
76.0764327753
 10
224.5585805668
 20
76.3969390972
 10
225.4488306197
 20
76.5619010637
 10
226.2920195527
 20
76.56849613
 10
227.0737201696
 20
76.4166114525
 10
227.1542165392
 20
76.3907007848
  0
ARC
  5
272
330
1F
100
AcDbEntity
  8
0
  6
Continuous
 62
     7
370
     0
100
AcDbCircle
 10
220.8857338799
 20
62.7129716898
 30
0.0
 40
5.392977870397213
100
AcDbArc
 50
175.2761269287
 51
225.7050394481
  0
LINE
  5
273
330
1F
100
AcDbEntity
  8
0
  6
Continuous
 62
     7
370
     0
100
AcDbLine
 10
285.3086512398
 20
35.0351846514
 30
0.0
 11
285.0965192054
 21
35.2174340743
 31
0.0
  0
LWPOLYLINE
  5
274
330
1F
100
AcDbEntity
  8
0
  6
Continuous
 62
     7
370
     0
100
AcDbPolyline
 90
        3
 70
   128
 43
0.0
 10
251.670707997
 20
27.5678238896
 10
251.465767429
 20
27.9877143622
 10
250.9980394823
 20
29.1873207022
  0
LINE
  5
275
330
1F
100
AcDbEntity
  8
0
  6
Continuous
 62
     7
370
     0
100
AcDbLine
 10
282.0913153854
 20
36.9523013119
 30
0.0
 11
285.0965192054
 21
35.2174340743
 31
0.0
  0
LWPOLYLINE
  5
276
330
1F
100
AcDbEntity
  8
0
  6
Continuous
 62
     7
370
     0
100
AcDbPolyline
 90
        3
 70
   128
 43
0.0
 10
251.5691906906
 20
27.0766613967
 10
251.0748786185
 20
28.0245870249
 10
250.6052331067
 20
29.2417737894
  0
LINE
  5
277
330
1F
100
AcDbEntity
  8
0
  6
Continuous
 62
     7
370
     0
100
AcDbLine
 10
252.0215995154
 20
29.9060162858
 30
0.0
 11
246.3117122573
 21
33.2022640373
 31
0.0
  0
ARC
  5
278
330
1F
100
AcDbEntity
  8
0
  6
Continuous
 62
     7
370
     0
100
AcDbCircle
 10
254.1837971418
 20
33.8794431689
 30
0.0
 40
12.12299545916138
100
AcDbArc
 50
195.3190382257
 51
214.5559948624
  0
OLE2FRAME
  5
279
330
1F
100
AcDbEntity
  8
0
100
AcDbOle2Frame
 70
     2
  3
Paintbrush-Bild
 10
13.8511154363
 20
38.264191557
 30
0.0
 11
51.6290888628
 21
31.9806341108
 31
0.0
 71
     2
 72
     0
 73
     1
 90
    12928
310
80552BED0767C5B32B40DDAF6807D121434000000000000000006FFBDDFB85D0
310
4940DDAF6807D121434000000000000000006FFBDDFB85D04940416F4BD60AFB
310
3F4000000000000000002BED0767C5B32B40416F4BD60AFB3F40000000000000
310
0000000000000100000000010000010000000100000000000100000000320000
310
D0CF11E0A1B11AE1000000000000000000000000000000003E000300FEFF0900
310
0600000000000000000000000100000001000000000000000010000002000000
310
01000000FEFFFFFF0000000000000000FFFFFFFFFFFFFFFFFFFFFFFFFFFFFFFF
310
FFFFFFFFFFFFFFFFFFFFFFFFFFFFFFFFFFFFFFFFFFFFFFFFFFFFFFFFFFFFFFFF
310
FFFFFFFFFFFFFFFFFFFFFFFFFFFFFFFFFFFFFFFFFFFFFFFFFFFFFFFFFFFFFFFF
310
FFFFFFFFFFFFFFFFFFFFFFFFFFFFFFFFFFFFFFFFFFFFFFFFFFFFFFFFFFFFFFFF
310
FFFFFFFFFFFFFFFFFFFFFFFFFFFFFFFFFFFFFFFFFFFFFFFFFFFFFFFFFFFFFFFF
310
FFFFFFFFFFFFFFFFFFFFFFFFFFFFFFFFFFFFFFFFFFFFFFFFFFFFFFFFFFFFFFFF
310
FFFFFFFFFFFFFFFFFFFFFFFFFFFFFFFFFFFFFFFFFFFFFFFFFFFFFFFFFFFFFFFF
310
FFFFFFFFFFFFFFFFFFFFFFFFFFFFFFFFFFFFFFFFFFFFFFFFFFFFFFFFFFFFFFFF
310
FFFFFFFFFFFFFFFFFFFFFFFFFFFFFFFFFFFFFFFFFFFFFFFFFFFFFFFFFFFFFFFF
310
FFFFFFFFFFFFFFFFFFFFFFFFFFFFFFFFFFFFFFFFFFFFFFFFFFFFFFFFFFFFFFFF
310
FFFFFFFFFFFFFFFFFFFFFFFFFFFFFFFFFFFFFFFFFFFFFFFFFFFFFFFFFFFFFFFF
310
FFFFFFFFFFFFFFFFFFFFFFFFFFFFFFFFFFFFFFFFFFFFFFFFFFFFFFFFFFFFFFFF
310
FFFFFFFFFFFFFFFFFFFFFFFFFFFFFFFFFFFFFFFFFFFFFFFFFFFFFFFFFFFFFFFF
310
FFFFFFFFFFFFFFFFFFFFFFFFFFFFFFFFFFFFFFFFFFFFFFFFFFFFFFFFFFFFFFFF
310
FDFFFFFFFEFFFFFFFEFFFFFFFEFFFFFF05000000060000000700000008000000
310
090000000A0000000B0000000C0000000D0000000E0000000F00000010000000
310
11000000120000001300000014000000150000001600000017000000FEFFFFFF
310
FFFFFFFFFFFFFFFFFFFFFFFFFFFFFFFFFFFFFFFFFFFFFFFFFFFFFFFFFFFFFFFF
310
FFFFFFFFFFFFFFFFFFFFFFFFFFFFFFFFFFFFFFFFFFFFFFFFFFFFFFFFFFFFFFFF
310
FFFFFFFFFFFFFFFFFFFFFFFFFFFFFFFFFFFFFFFFFFFFFFFFFFFFFFFFFFFFFFFF
310
FFFFFFFFFFFFFFFFFFFFFFFFFFFFFFFFFFFFFFFFFFFFFFFFFFFFFFFFFFFFFFFF
310
FFFFFFFFFFFFFFFFFFFFFFFFFFFFFFFFFFFFFFFFFFFFFFFFFFFFFFFFFFFFFFFF
310
FFFFFFFFFFFFFFFFFFFFFFFFFFFFFFFFFFFFFFFFFFFFFFFFFFFFFFFFFFFFFFFF
310
FFFFFFFFFFFFFFFFFFFFFFFFFFFFFFFFFFFFFFFFFFFFFFFFFFFFFFFFFFFFFFFF
310
FFFFFFFFFFFFFFFFFFFFFFFFFFFFFFFFFFFFFFFFFFFFFFFFFFFFFFFFFFFFFFFF
310
FFFFFFFFFFFFFFFFFFFFFFFFFFFFFFFFFFFFFFFFFFFFFFFFFFFFFFFFFFFFFFFF
310
FFFFFFFFFFFFFFFFFFFFFFFFFFFFFFFFFFFFFFFFFFFFFFFFFFFFFFFFFFFFFFFF
310
FFFFFFFFFFFFFFFFFFFFFFFFFFFFFFFFFFFFFFFFFFFFFFFFFFFFFFFFFFFFFFFF
310
FFFFFFFFFFFFFFFFFFFFFFFFFFFFFFFFFFFFFFFFFFFFFFFFFFFFFFFFFFFFFFFF
310
FFFFFFFFFFFFFFFFFFFFFFFFFFFFFFFFFFFFFFFFFFFFFFFFFFFFFFFFFFFFFFFF
310
52006F006F007400200045006E00740072007900000000000000000000000000
310
0000000000000000000000000000000000000000000000000000000000000000
310
16000500FFFFFFFFFFFFFFFF020000000A00030000000000C000000000000046
310
00000000000000000000000040DC0A5CE022D20103000000C000000000000000
310
01004F006C006500000000000000000000000000000000000000000000000000
310
0000000000000000000000000000000000000000000000000000000000000000
310
0A000200FFFFFFFFFFFFFFFFFFFFFFFF00000000000000000000000000000000
310
0000000000000000000000000000000000000000000000001400000000000000
310
010043006F006D0070004F0062006A0000000000000000000000000000000000
310
0000000000000000000000000000000000000000000000000000000000000000
310
120002010100000003000000FFFFFFFF00000000000000000000000000000000
310
0000000000000000000000000000000000000000010000004D00000000000000
310
01004F006C006500310030004E00610074006900760065000000000000000000
310
0000000000000000000000000000000000000000000000000000000000000000
310
1A000200FFFFFFFFFFFFFFFFFFFFFFFF00000000000000000000000000000000
310
0000000000000000000000000000000000000000040000002426000000000000
310
FEFFFFFF02000000FEFFFFFFFFFFFFFFFFFFFFFFFFFFFFFFFFFFFFFFFFFFFFFF
310
FFFFFFFFFFFFFFFFFFFFFFFFFFFFFFFFFFFFFFFFFFFFFFFFFFFFFFFFFFFFFFFF
310
FFFFFFFFFFFFFFFFFFFFFFFFFFFFFFFFFFFFFFFFFFFFFFFFFFFFFFFFFFFFFFFF
310
FFFFFFFFFFFFFFFFFFFFFFFFFFFFFFFFFFFFFFFFFFFFFFFFFFFFFFFFFFFFFFFF
310
FFFFFFFFFFFFFFFFFFFFFFFFFFFFFFFFFFFFFFFFFFFFFFFFFFFFFFFFFFFFFFFF
310
FFFFFFFFFFFFFFFFFFFFFFFFFFFFFFFFFFFFFFFFFFFFFFFFFFFFFFFFFFFFFFFF
310
FFFFFFFFFFFFFFFFFFFFFFFFFFFFFFFFFFFFFFFFFFFFFFFFFFFFFFFFFFFFFFFF
310
FFFFFFFFFFFFFFFFFFFFFFFFFFFFFFFFFFFFFFFFFFFFFFFFFFFFFFFFFFFFFFFF
310
FFFFFFFFFFFFFFFFFFFFFFFFFFFFFFFFFFFFFFFFFFFFFFFFFFFFFFFFFFFFFFFF
310
FFFFFFFFFFFFFFFFFFFFFFFFFFFFFFFFFFFFFFFFFFFFFFFFFFFFFFFFFFFFFFFF
310
FFFFFFFFFFFFFFFFFFFFFFFFFFFFFFFFFFFFFFFFFFFFFFFFFFFFFFFFFFFFFFFF
310
FFFFFFFFFFFFFFFFFFFFFFFFFFFFFFFFFFFFFFFFFFFFFFFFFFFFFFFFFFFFFFFF
310
FFFFFFFFFFFFFFFFFFFFFFFFFFFFFFFFFFFFFFFFFFFFFFFFFFFFFFFFFFFFFFFF
310
FFFFFFFFFFFFFFFFFFFFFFFFFFFFFFFFFFFFFFFFFFFFFFFFFFFFFFFFFFFFFFFF
310
FFFFFFFFFFFFFFFFFFFFFFFFFFFFFFFFFFFFFFFFFFFFFFFFFFFFFFFFFFFFFFFF
310
FFFFFFFFFFFFFFFFFFFFFFFFFFFFFFFFFFFFFFFFFFFFFFFFFFFFFFFFFFFFFFFF
310
0100000200000000000000000000000000000000000000000000000000000000
310
0000000000000000000000000000000000000000000000000000000000000000
310
0100FEFF030A0000FFFFFFFF0A00030000000000C00000000000004607000000
310
5042727573680007000000504272757368000700000050427275736800F439B2
310
7100000000000000000000000000000000000000000000000000000000000000
310
0000000000000000000000000000000000000000000000000000000000000000
310
0000000000000000000000000000000000000000000000000000000000000000
310
0000000000000000000000000000000000000000000000000000000000000000
310
0000000000000000000000000000000000000000000000000000000000000000
310
0000000000000000000000000000000000000000000000000000000000000000
310
0000000000000000000000000000000000000000000000000000000000000000
310
0000000000000000000000000000000000000000000000000000000000000000
310
0000000000000000000000000000000000000000000000000000000000000000
310
0000000000000000000000000000000000000000000000000000000000000000
310
0000000000000000000000000000000000000000000000000000000000000000
310
0000000000000000000000000000000000000000000000000000000000000000
310
20260000424D0E260000000000003E00000028000000B40200006E0000000100
310
01000000000000000000130B0000130B00000200000002000000000000FFFFFF
310
FFFFFFFFFFFFFFFFFFFFFFFFFFFFFFFFFFFFFFFFFFFFFFFFFFFFFFFFFFFFFFFF
310
FFFFFFFFFFFFFFFFFFFFFFFFFFFFFFFFFFFFFFFFFFFFFFFFFFFFFFFFFFFFFFFF
310
FFFFFFFFFFFFFFFFFFFFFFFFFFFFFFFFFFFFFFFFFFFFFFFFF000FFFFFFFFFFFF
310
FFFFFFFFFFFFFFFFFFFFFFFFFFFFFFFFFFFFFFFFFFFFFFFFFFFFFFFFFFFFFFFF
310
FFFFFFFFFFFFFFFFFFFFFFFFFFFFFFFFFFFFFFFFFFFFFFFFFFFFFFFFFFFFFFFF
310
FFFFFFFFFFFFFFFFFFFFFFFFFFFFFFFFF000FFFFFFFFFFFFFFFFFFFFFFFFFFFF
310
FFFFFFFFFFFFFFFFFFFFFFFFFFFFFFFFFFFFFFFFFFFFFFFFFFFFFFFFFFFFFFFF
310
FFFFFFFFFFFFFFFFFFFFFFFFFFFFFFFFFFFFFFFFFFFFFFFFFFFFFFFFFFFFFFFF
310
FFFFFFFFFFFFFFFFF000FFFFFFFFFFFFFFFFFFFFFFFFFFFFFFFFFFFFFFFFFFFF
310
FFFFFFFFFFFFFFFFFFFFFFFFFFFFFFFFFFFFFFFFFFFFFFFFFFFFFFFFFFFFFFFF
310
FFFFFFFFFFFFFFFFFFFFFFFFFFFFFFFFFFFFFFFFFFFFFFFFFFFFFFFFFFFFFFFF
310
F000FFFFFFFFFFFFFFFFFFFFFFFFFFFFFFFFFFFFFFFFFFFFFFFFFFFFFFFFFFFF
310
FFFFFFFFFFFFFFFFFFFFFFFFFFFFFFFFFFFFFFFFFFFFFFFFFFFFFFFFFFFFFFFF
310
FFFFFFFFFFFFFFFFFFFFFFFFFFFFFFFFFFFFFFFFFFFFFFFFF000FFFFFFFFFFFF
310
FFFFFFFFFFFFFFFFFFFFFFFFFFFFFFFFFFFFFFFFFFFFFFFFFFFFFFFFFFFFFFFF
310
FFFFFFFFFFFFFFFFFFFFFFFFFFFFFFFFFFFFFFFFFFFFFFFFFFFFFFFFFFFFFFFF
310
FFFFFFFFFFFFFFFFFFFFFFFFFFFFFFFFF000FFFFFFFFFFFFFFFFFFFFFFFFFFFF
310
FFFFFFFFFFFFFFFFFFFFFFFFFFFFFFFFFFFFFFFFFFFFFFFFFFFFFFFFFFFFFFFF
310
FFFFFFFFFFFFFFFFFFFFFFFFFFFFFFFFFFFFFFFFFFFFFFFFFFFFFFFFFFFFFFFF
310
FFFFFFFFFFFFFFFFF000FFFFFFFFFFFFFFFFFFFFFFFFFFFFFFFFFFFFFFFFFFFF
310
FFFFFFFFFFFFFFFFFFFFFFFFFFFFFFFFFFFFFFFFFFFFFFFFFFFFFFFFFFFFFFFF
310
FFFFFFFFFFFFFFFFFFFFFFFFFFFFFFFFFFFFFFFFFFFFFFFFFFFFFFFFFFFFFFFF
310
F000FFFFFFFFFFFFFFFFFFFFFFFFFFFFFFFFFFFFFFFFFFFFFFFFFFFFFFFFFFFF
310
FFFFFFFFFFFFFFFFFFFFFFFFFFFFFFFFFFFFFFFFFFFFFFFFFFFFFFFFFFFFFFFF
310
FFFFFFFFFFFFFFFFFFFFFFFFFFFFFFFFFFFFFFFFFFFFFFFFF000FFFFFFFFFFFF
310
FFFFFFFFFFFFFFFFFFFFFFFFFFFFFFFFFFFFFFFFFFFFFFFFFFFFFFFFFFFFFFFF
310
FFFFFFFFFFFFFFFFFFFFFFFFFFFFFFFFFFFFFFFFFFFFFFFFFFFFFFFFFFFFFFFF
310
FFFFFFFFFFFFFFFFFFFFFFFFFFFFFFFFF000FFFFFFFFFFFFFFFFFFFFFFFFFFFF
310
FFFFFFFFFFFFFFFFFFFFFFFFFFFFFFFFFFFFFFFFFFFFFFFFFFFFFFFFFFFFFFFF
310
FFFFFFFFFFFFFFFFFFFFFFFFFFFFFFFFFFFFFFFFFFFFFFFFFFFFFFFFFFFFFFFF
310
FFFFFFFFFFFFFFFFF000FFFFFFFFFFFFFFFFFFFFFFFFFFFFFFFFFFFFFFFFFFFF
310
FFFFFFFFFFFFFFFFFFFFFFFFFFFFFFFFFFFFFFFFFFFFFFFFFFFFFFFFFFFFFFFF
310
FFFFFFFFFFFFFFFFFFFFFFFFFFFFFFFFFFFFFFFFFFFFFFFFFFFFFFFFFFFFFFFF
310
F000FFFFFFFFFFFFFFFFFFFFFFFFFFFFFFFFFFFFFFFFFFFFFFFFFFFFFFFFFFFF
310
FFFFFFFFFFFFFFFFFFFFFFFFFFFFFFFFFFFFFFFFFFFFFFFFFFFFFFFFFFFFFFFF
310
FFFFFFFFFFFFFFFFFFFFFFFFFFFFFFFFFFFFFFFFFFFFFFFFF000FFFFFFFFFFFF
310
FFFFFFFFFFFFFFFFFFFFFFFFFFFFFFFFFFFFFFFFFFFFFFFFFFFFFFFFFFFFFFFF
310
FFFFFFFFFFFFFFFFFFFFFFFFFFFFFFFFFFFFFFFFFFFFFFFFFFFFFFFFFFFFFFFF
310
FFFFFFFFFFFFFFFFFFFFFFFFFFFFFFFFF000FFFFFFFFFFFFFFFFFFFFFFFFFFFF
310
FFFFFFFFFFFFFFFFFFFFFFFFFFFFFFFFFFFFFFFFFFFFFFFFFFFFFFFFFFFFFFFF
310
FFFFFFFFFFFFFFFFFFFFFFFFFFFFFFFFFFFFFFFFFFFFFFFFFFFFFFFFFFFFFFFF
310
FFFFFFFFFFFFFFFFF000FFFFFFFFFFFFFFFFFFFFFFFFFFFFFFFFFFFFFFFFFFFF
310
FFFFFFFFFFFFFFFFFFFFFFFFFFFFFFFFFFFFFFFFFFFFFFFFFFFFFFFFFFFFFFFF
310
FFFFFFFFFFFFFFFFFFFFFFFFFFFFFFFFFFFFFFFFFFFFFFFFFFFFFFFFFFFFFFFF
310
F000FFFFFFFFFFFFFFFFFFFFFFFFFFFFFFFFFFFFFFFFFFFFFFFFFFFFFFFFFFFF
310
FFFFFFFFFFFFFFFFFFFFFFFFFFFFFFFFFFFFFFFFFFFFFFFFFFFFFFFFFFFFFFFF
310
FFFFFFFFFFFFFFFFFFFFFFFFFFFFFFFFFFFFFFFFFFFFFFFFF000FFFFFFFFFFFF
310
FFFFFFFFFFFFFFFFFFFFFFFFFFFFFFFFFFFFFFFFFFFFFFFFFFFFFFFFFFFFFFFF
310
FFFFFFFFFFFFFFFFFFFFFFFFFFFFFFFFFFFFFFFFFFFFFFFFFFFFFFFFFFFFFFFF
310
FFFFFFFFFFFFFFFFFFFFFFFFFFFFFFFFF000FFFFFFFFFFFFFFFFFFFFFFFFFFFF
310
FFFFFFFFFFFFFFFFFFFFFFFFFFFFFFFFFFFFFFFFFFFFFFFFFFFFFFFFFFFFFFFF
310
FFFFFFFFFFFFFFFFFFFFFFFFFFFFFFFFFFFFFFFFFFFFFFFFFFFFFFFFFFFFFFFF
310
FFFFFFFFFFFFFFFFF000FFFFF80003FFFFFFFFFFFFFFFFFFFFFFFFFFFFFFFFFF
310
FFFFF00007FFFFFFFFFF00007FFFFFF800000000000000007FFFFFFFFFFFFFFF
310
FFFFFFFC001FFFFFFFFFFFFFFC001FFFFFFFFFFFFFFFFFFFFFFFFFFE0007FFFF
310
F000FFFF8000007FFFFFFFF8000FFFFFC0007FFFFF80007FFFFF0000007FFFFF
310
FFF8000007FFFFF800000000000000007FFFFFF0001FFFFFFFFFFFC00001FFFF
310
FFFFFFFFC00001FFFFFFFF000000000003FFFFE000007FFFF000FFFE0000000F
310
FFFFFFF0000FFFFF80007FFFFF80007FFFFC0000001FFFFFFFC0000001FFFFF8
310
00000000000000007FFFFFF0001FFFFFFFFFFE0000003FFFFFFFFFFE0000003F
310
FFFFFF000000000003FFFF0000000FFFF000FFF800000003FFFFFFF00007FFFF
310
80007FFFFF80007FFFF000000007FFFFFF000000003FFFF80000000000000000
310
7FFFFFF0001FFFFFFFFFF80000000FFFFFFFFFF80000000FFFFFFF0000000000
310
03FFFC00000003FFF000FFE000000000FFFFFFF00007FFFF80003FFFFF80007F
310
FFC000000001FFFFFC000000001FFFF800000000000000007FFFFFF0001FFFFF
310
FFFFE000000003FFFFFFFFE000000003FFFFFF000000000003FFF000000000FF
310
F000FF80000000007FFFFFF00007FFFF80003FFFFF80007FFF8000000000FFFF
310
F80000000007FFF800000000000000007FFFFFF0001FFFFFFFFFC000000001FF
310
FFFFFFC000000001FFFFFF000000000003FFC0000000007FF000FF0000000000
310
3FFFFFE00007FFFF00003FFFFF80007FFE00000000003FFFF00000000003FFF8
310
00000000000000007FFFFFF0001FFFFFFFFF8000000000FFFFFFFF8000000000
310
FFFFFF000000000003FF80000000003FF000FE00000000001FFFFFE00003FFFF
310
00003FFFFF80007FFC00000000001FFFE00000000001FFF8000001FFFE000000
310
7FFFFFF0001FFFFFFFFE00000000003FFFFFFE00000000003FFFFF0000000000
310
03FF00000000001FF000FC00000000000FFFFFE00003FFFF00001FFFFF80007F
310
F800000000001FFFC00000000000FFF8000001FFFE0000007FFFFFF0001FFFFF
310
FFFC00000000001FFFFFFC00000000001FFFFF000000000003FE00000000000F
310
F000F8000000000007FFFFE00003FFFF00001FFFFF80007FF800000000000FFF
310
800000000000FFF8000001FFFE0000007FFFFFF0001FFFFFFFF800000000000F
310
FFFFF800000000000FFFFF000000000003FC000000000007F000F80000000000
310
03FFFFC00003FFFE00001FFFFF80007FF0000000000007FF0000000000007FF8
310
000001FFFE0000007FFFFFF0001FFFFFFFF0000000000007FFFFF00000000000
310
07FFFF000000000003F8000000000003F000F0000000000003FFFFC00001FFFE
310
00001FFFFF80007FE0000000000007FE0000000000003FF8000001FFFE000000
310
7FFFFFF0001FFFFFFFF0000000000007FFFFF0000000000007FFFF0000000000
310
03F800001F800003F000E00001FFF00001FFFFC00001FFFE00000FFFFF80007F
310
E00001FFE00003FE00001FFF00003FF8000001FFFE0000007FFFFFF0001FFFFF
310
FFE000003E000003FFFFE000003E000003FFFF000000000003F00001FFF80001
310
F000E00007FFFC0001FFFFC00001FFFE00000FFFFF80007FC0000FFFFC0003FC
310
0000FFFFC0001FF8000001FFFE0000007FFFFFF0001FFFFFFFC00003FFE00001
310
FFFFC00003FFE00001FFFF0001FFFFFFFFF00007FFFE0001F000E0000FFFFF00
310
00FFFF800001FFFC00000FFFFF80007FC0001FFFFE0001FC0001FFFFE0001FF8
310
000001FFFE0000007FFFFFF0001FFFFFFF80000FFFF80000FFFF80000FFFF800
310
00FFFF0003FFFFFFFFE0000FFFFF8000F000C0003FFFFF8000FFFF800000FFFC
310
000007FFFF80007F80003FFFFF0001FC0003FFFFF0001FF8000001FFFE000000
310
7FFFFFF0001FFFFFFF80003FFFFE0000FFFF80003FFFFE0000FFFF0003FFFFFF
310
FFE0003FFFFF8000F000C0003FFFFF8000FFFF800000FFFC000007FFFF80007F
310
80007FFFFF8001F80007FFFFF8000FF8000001FFFE0000007FFFFFF0001FFFFF
310
FF00007FFFFF00007FFF00007FFFFF00007FFF0003FFFFFFFFE0003FFFFFC000
310
F000C0007FFFFFC000FFFF000000FFFC000007FFFF80007F8000FFFFFF8000F8
310
000FFFFFF8000FF8000001FFFE0000007FFFFFF0001FFFFFFF0000FFFFFF8000
310
7FFF0000FFFFFF80007FFF0003FFFFFFFFC0007FFFFFC00070008000FFFFFFC0
310
00FFFF000000FFF8000007FFFF80007F8000FFFFFF8000F8000FFFFFF8000FF8
310
000001FFFE0000007FFFFFF0001FFFFFFE0001FFFFFFC0003FFE0001FFFFFFC0
310
003FFF0003FFFFFFFFC0007FFFFFE00070008000FFFFFFC0007FFF0000007FF8
310
000003FFFF80007F0001FFFFFF8000F8000FFFFFF8000FF8000001FFFE000000
310
7FFFFFF0001FFFFFFE0001FFFFFFC0003FFE0001FFFFFFC0003FFF0003FFFFFF
310
FFC000FFFFFFE00070008000FFFFFFC0007FFF0000007FF8000003FFFF80007F
310
0001FFFFFF8000F8001FFFFFF8000FF8000001FFFE0000007FFFFFF0001FFFFF
310
FE0003FFFFFFE0003FFE0003FFFFFFE0003FFF0003FFFFFFFFC000FFFFFFE000
310
70008000FFFFFFC0007FFE0000007FF8000003FFFF80007F0001FFFFFF8000F0
310
001FFFFFF8000FF8000001FFFE0000007FFFFFF0001FFFFFFC0003FFFFFFE000
310
1FFC0003FFFFFFE0001FFF0003FFFFFFFFC000FFFFFFC00070008000FFFFFF80
310
007FFE0000007FF0000003FFFF80007F0001FFFFFF0000F0001FFFFFF8000FF8
310
000001FFFE0000007FFFFFF0001FFFFFFC0007FFFFFFF0001FFC0007FFFFFFF0
310
001FFF0003FFFFFFFFC000FFFFFFC00070008001FFFFFF0000FFFE0000003FF0
310
000001FFFF80007F0001FFFFFF0000F8001FFFFFF0000FF8000001FFFE000000
310
7FFFFFF0001FFFFFFC0007FFFFFFF0001FFC0007FFFFFFF0001FFF0003FFFFFF
310
FFC001FFFFFF80007000FFFFFFFFFE0000FFFE0008003FF0008001FFFF80007F
310
FFFFFFFFFC0000FFFFFFFFFFE0000FF8000001FFFE0000007FFFFFF0001FFFFF
310
F8000FFFFFFFF8000FF8000FFFFFFFF8000FFF0003FFFFFFFFFFFFFFFFFF0000
310
7000FFFFFFFFFC0000FFFC0008003FF0008001FFFF80007FFFFFFFFFF80001FF
310
FFFFFFFF80000FF8000001FFFE0000007FFFFFF0001FFFFFF8000FFFFFFFF800
310
0FF8000FFFFFFFF8000FFF0003FFFFFFFFFFFFFFFFFE0000F000FFFFFFFFE000
310
00FFFC000C003FE000C001FFFF80007FFFFFFFFFC00001FFFFFFFFFE00001FF8
310
000001FFFE0000007FFFFFF0001FFFFFF8000FFFFFFFF8000FF8000FFFFFFFF8
310
000FFF0003FFFFFFFFFFFFFFFFF00000F000FFFFFFFE000001FFFC000C001FE0
310
00C000FFFF80007FFFFFFFFE000001FFFFFFFFE000001FF80FFFFFFFFFFFFFC0
310
7FFFFFF0001FFFFFF8000FFFFFFFF8000FF8000FFFFFFFF8000FFF0003FFFFFF
310
FFFFFFFFFF800000F000FFFFFFC0000001FFFC001C001FE001C000FFFF80007F
310
FFFFFF80000003FFFFFFF80000001FF80FFFFFFFFFFFFFC07FFFFFF0001FFFFF
310
F8001FFFFFFFFC000FF8001FFFFFFFFC000FFF0003FFFFFFFFFFFFFFF0000001
310
F000FFFFF800000001FFF8001C001FE001C000FFFF80007FFFFFF800000003FF
310
FFFF800000003FF80FFFFFFFFFFFFFC07FFFFFF0001FFFFFF8001FFFFFFFFC00
310
0FF8001FFFFFFFFC000FFF0003FFFFFFFFFFFFFE00000001F000FFFFC0000000
310
03FFF8001E001FC001E000FFFF80007FFFFF8000000007FFFFFC000000003FF8
310
0FFFFFFFFFFFFFC07FFFFFF0001FFFFFF8001FFFFFFFFC000FF8001FFFFFFFFC
310
000FFF0003FFFFFFFFFFFFE000000003F000FFFE0000000007FFF8001E000FC0
310
01E0007FFF80007FFFFE0000000007FFFFE0000000007FF80FFFFFFFFFFFFFC0
310
7FFFFFF0001FFFFFF0001FFFFFFFFC0007F0001FFFFFFFFC0007FF0003FFFFFF
310
FFFFFF0000000003F000FFF80000000007FFF8001E000FC003E0007FFF80007F
310
FFF0000000000FFFFF8000000000FFF80FFFFFFFFFFFFFC07FFFFFF0001FFFFF
310
F0001FFFFFFFFC0007F0001FFFFFFFFC0007FF0003FFFFFFFFFFFC0000000007
310
F000FFE0000000000FFFF0003E000FC003E0007FFF80007FFFC0000000001FFF
310
FE0000000001FFF80FFFFFFFFFFFFFC07FFFFFF0001FFFFFF0001FFFFFFFFC00
310
07F0001FFFFFFFFC0007FF0003FFFFFFFFFFF0000000000FF000FFC000000000
310
1FFFF0003F000F8003F0003FFF80007FFF80000000003FFFF80000000003FFF8
310
0FFFFFFFFFFFFFC07FFFFFF0001FFFFFF0001FFFFFFFFC0007F0001FFFFFFFFC
310
0007FF0003FFFFFFFFFFE0000000001FF000FF00000000007FFFF0003F000780
310
03F0003FFF80007FFF00000000007FFFF00000000007FFF80FFFFFFFFFFFFFC0
310
7FFFFFF0001FFFFFF0001FFFFFFFFC0007F0001FFFFFFFFC0007FF0003FFFFFF
310
FFFF80000000007FF000FE0000000000FFFFE0003F00078007F0003FFF80007F
310
FE0000000001FFFFE0000000001FFFF80FFFFFFFFFFFFFC07FFFFFF0001FFFFF
310
F0001FFFFFFFFC0007F0001FFFFFFFFC0007FF0003FFFFFFFFFF0000000000FF
310
F000FC0000000003FFFFE0007F00078007F0003FFF80007FFC0000000007FFFF
310
C0000000007FFFF80FFFFFFFFFFFFFC07FFFFFF0001FFFFFF8001FFFFFFFFC00
310
0FF8001FFFFFFFFC000FFF0003FFFFFFFFFE0000000003FFF000FC000000000F
310
FFFFE0007F80070007F8001FFF80007FF8000000001FFFFF8000000001FFFFF8
310
0FFFFFFFFFFFFFC07FFFFFF0001FFFFFF8001FFFFFFFFC000FF8001FFFFFFFFC
310
000FFF0003FFFFFFFFFC000000000FFFF000F8000000007FFFFFE0007F800700
310
07F8001FFF80007FF000000000FFFFFF800000000FFFFFF80FFFFFFFFFFFFFC0
310
7FFFFFF0001FFFFFF8000FFFFFFFF8000FF8000FFFFFFFF8000FFF0003FFFFFF
310
FFFC000000007FFFF000F800000007FFFFFFC0007F8003000FF8001FFF80007F
310
F000000007FFFFFF000000007FFFFFF80FFFFFFFFFFFFFC07FFFFFF0001FFFFF
310
F8000FFFFFFFF8000FF8000FFFFFFFF8000FFF0003FFFFFFFFF80000000FFFFF
310
F000F0000000FFFFFFFFC000FF8003000FF8001FFF80007FE0000000FFFFFFFF
310
0000000FFFFFFFF8000001FFFE0000007FFFFFF0001FFFFFF8000FFFFFFFF800
310
0FF8000FFFFFFFF8000FFF0003FFFFFFFFF8000000FFFFFFF000F000000FFFFF
310
FFFFC000FFC002000FF8000FFF80007FE000001FFFFFFFFE000001FFFFFFFFF8
310
000001FFFE0000007FFFFFF0001FFFFFF8000FFFFFFFF8000FF8000FFFFFFFF8
310
000FFF0003FFFFFFFFF000001FFFFFFFF000E00000FFFFFFFFFFC000FFC00200
310
0FFC000FFF80007FE00001FFFFFFFFFE00001FFFFFFFFFF8000001FFFE000000
310
7FFFFFF0001FFFFFFC000FFFFFFFF8001FFC000FFFFFFFF8001FFF0003FFFFFF
310
FFF00001FFFFFFFFF000E00007FFFFFFFFFF8000FFC000001FFC000FFF80007F
310
C0000FFFFFFFFFFE0000FFFFFFFFFFF8000001FFFE0000007FFFFFF0001FFFFF
310
FC0007FFFFFFF0001FFC0007FFFFFFF0001FFF0003FFFFFFFFF00007FFFFFFFF
310
F000E0001FFFFFFFFFFF8000FFC000001FFC000FFF80007FC0003FFFFFFFFFFE
310
0001FFFFFFFFFFF8000001FFFE0000007FFFFFF0001FFFFFFC0007FFFFFFF000
310
1FFC0007FFFFFFF0001FFF0003FFFFFFFFF0001FFFFFFFFFF000E0003FFFFF00
310
03FF8001FFE000001FFC0007FF80007FC0007FFFFF0007FC0003FFFFF0003FF8
310
000001FFFE0000007FFFFFF0001FFFFFFC0003FFFFFFE0001FFC0003FFFFFFE0
310
001FFF0003FFFFFFFFF0003FFFFFFFFFF000E0003FFFFF0001FF8001FFE00000
310
1FFE0007FF80007FC0007FFFFE0003FC0007FFFFE0003FF8000001FFFE000000
310
7FFFFFF0001FFFFFFE0003FFFFFFE0003FFE0003FFFFFFE0003FFF0003FFFFFF
310
FFF0003FFFFF8001F000E0003FFFFF0001FF0001FFE000001FFE0007FF80007F
310
C0007FFFFE0003FC0007FFFFE0003FF8000001FFFE0000007FFFFFF0001FFFFF
310
FE0001FFFFFFC0003FFE0001FFFFFFC0003FFF0003FFFFFFFFF0003FFFFF0001
310
F000E0003FFFFF0003FF0001FFE000003FFE0007FF80007FC0007FFFFE0003FC
310
0007FFFFE0003FF8000001FFFE0000007FFFFFF0001FFFFFFF0001FFFFFFC000
310
7FFF0001FFFFFFC0007FFF0003FFFFFFFFF0003FFFFF0001F000E0003FFFFE00
310
03FF0003FFF000003FFE0003FF80007FC0007FFFFC0003FE0007FFFFE0003FF8
310
000001FFFE0000007FFFFFF0001FFFFFFF0000FFFFFF80007FFF0000FFFFFF80
310
007FFF0003FFFFFFFFF0003FFFFF0001F000E0003FFFFE0003FF0003FFF00000
310
3FFF0003FF80007FC0007FFFFC0007FE0007FFFFC0003FF8000001FFFE000000
310
7FFFFFF0001FFFFFFF80007FFFFF0000FFFF80007FFFFF0000FFFF0003FFFFFF
310
FFF0003FFFFF0003F000E0003FFFFC0003FE0003FFF000003FFF0003FF80007F
310
E0003FFFF80007FE0003FFFFC0007FF8000001FFFE0000007FFFFFF0001FFFFF
310
FF80003FFFFE0000FFFF80003FFFFE0000FFFF0003FFFFFFFFF0001FFFFE0003
310
F000F0001FFFF80003FE0003FFF000007FFF0001FF80007FE0003FFFF00007FE
310
0001FFFF80007FF8000001FFFE0000007FFFFFF0001FFFFFFFC0000FFFF80001
310
FFFFC0000FFFF80001FFFF0003FFFFFFFFF0001FFFFC0003F000F0000FFFF000
310
07FE0007FFF800007FFF0001FF80007FE0001FFFE00007FF0000FFFE00007FF8
310
000001FFFE0000007FFFFFF0001FFFFFFFC00003FFE00001FFFFC00003FFE000
310
01FFFF0003FFFFFFFFF8000FFFF80003F000F00003FFC00007FC0007FFF80000
310
7FFF8001FF80007FF00007FF80000FFF00007FF80000FFF8000001FFFE000000
310
7F80000000000001FFE000003E000003FFFFE000003E000003FFFF0003FFFFFF
310
FFF80003FFE00007F000F800000000000FFC0007FFF800007FFF8001FF80007F
310
F000000000000FFF000000000000FFF8000001FFFE0000007F80000000000001
310
FFF0000000000007FFFFF0000000000007FFFF0003FFFFFFFFFC00007E000007
310
F000F800000000000FFC0007FFF80000FFFF8000FF80007FF800000000001FFF
310
800000000001FFF8000001FFFE0000007F80000000000001FFF800000000000F
310
FFFFF800000000000FFFFF0003FFFFFFFFFC00000000000FF000FC0000000000
310
1FFC0007FFFC0000FFFF8000FF80007FF800000000003FFFC00000000001FFF8
310
000001FFFE0000007F80000000000001FFF800000000000FFFFFF80000000000
310
0FFFFF0003FFFFFFFFFE00000000001FF000FE00000000003FF8000FFFFC0000
310
FFFF8000FF80007FFC00000000003FFFC00000000003FFF8000001FFFE000000
310
7F80000000000001FFFC00000000001FFFFFFC00000000001FFFFF0003FFFFFF
310
FFFF00000000001FF000FF00000000003FF8000FFFFC0000FFFFC000FF80007F
310
FE00000000007FFFE00000000007FFF8000001FFFE0000007F80000000000001
310
FFFE00000000003FFFFFFE00000000003FFFFF0003FFFFFFFFFF80000000003F
310
F000FF80000000007FF8000FFFFC0001FFFFC0007F80007FFF0000000000FFFF
310
F0000000000FFFF800000000000000007F80000000000001FFFF8000000000FF
310
FFFFFF8000000000FFFFFF0003FFFFFFFFFFC0000000007FF000FFC000000000
310
FFF8000FFFFE0001FFFFC0007F80007FFF8000000001FFFFF8000000001FFFF8
310
00000000000000007F80000000000001FFFFC000000001FFFFFFFFC000000001
310
FFFFFF0003FFFFFFFFFFE000000000FFF000FFE000000003FFF0001FFFFE0001
310
FFFFC0007F80007FFFC000000007FFFFFE000000003FFFF80000000000000000
310
7F80000000000001FFFFE000000003FFFFFFFFE000000003FFFFFF0003FFFFFF
310
FFFFF000000003FFF000FFF80000000FFFF0001FFFFE0001FFFFE0007F80007F
310
FFF00000000FFFFFFF00000000FFFFF800000000000000007F80000000000001
310
FFFFF80000000FFFFFFFFFF80000000FFFFFFF0003FFFFFFFFFFFC0000000FFF
310
F000FFFE0000003FFFF0001FFFFE0003FFFFE0003F80007FFFFC0000003FFFFF
310
FFC0000003FFFFF800000000000000007F80000000000001FFFFFE0000003FFF
310
FFFFFFFE0000003FFFFFFF0003FFFFFFFFFFFF0000003FFFF000FFFF800000FF
310
FFF0001FFFFF0003FFFFE0003F80007FFFFF000001FFFFFFFFF800001FFFFFF8
310
00000000000000007F80000000000001FFFFFFC00001FFFFFFFFFFFFC00001FF
310
FFFFFF0003FFFFFFFFFFFFC00000FFFFF000FFFFF8000FFFFFFFFFFFFFFFFFFF
310
FFFFFFFFFFFFFFFFFFFFF0001FFFFFFFFFFF0000FFFFFFF80000000000000000
310
7FFFFFFFFFFFFFFFFFFFFFFC001FFFFFFFFFFFFFFC001FFFFFFFFFFFFFFFFFFF
310
FFFFFFFC001FFFFFF000FFFFFFFFFFFFFFFFFFFFFFFFFFFFFFFFFFFFFFFFFFFF
310
FFFFFFFFFFFFFFFFFFFFFFFFFFFFFFFFFFFFFFFFFFFFFFFFFFFFFFFFFFFFFFFF
310
FFFFFFFFFFFFFFFFFFFFFFFFFFFFFFFFFFFFFFFFFFFFFFFFFFFFFFFFFFFFFFFF
310
F000FFFFFFFFFFFFFFFFFFFFFFFFFFFFFFFFFFFFFFFFFFFFFFFFFFFFFFFFFFFF
310
FFFFFFFFFFFFFFFFFFFFFFFFFFFFFFFFFFFFFFFFFFFFFFFFFFFFFFFFFFFFFFFF
310
FFFFFFFFFFFFFFFFFFFFFFFFFFFFFFFFFFFFFFFFFFFFFFFFF000FFFFFFFFFFFF
310
FFFFFFFFFFFFFFFFFFFFFFFFFFFFFFFFFFFFFFFFFFFFFFFFFFFFFFFFFFFFFFFF
310
FFFFFFFFFFFFFFFFFFFFFFFFFFFFFFFFFFFFFFFFFFFFFFFFFFFFFFFFFFFFFFFF
310
FFFFFFFFFFFFFFFFFFFFFFFFFFFFFFFFF000FFFFFFFFFFFFFFFFFFFFFFFFFFFF
310
FFFFFFFFFFFFFFFFFFFFFFFFFFFFFFFFFFFFFFFFFFFFFFFFFFFFFFFFFFFFFFFF
310
FFFFFFFFFFFFFFFFFFFFFFFFFFFFFFFFFFFFFFFFFFFFFFFFFFFFFFFFFFFFFFFF
310
FFFFFFFFFFFFFFFFF000FFFFFFFFFFFFFFFFFFFFFFFFFFFFFFFFFFFFFFFFFFFF
310
FFFFFFFFFFFFFFFFFFFFFFFFFFFFFFFFFFFFFFFFFFFFFFFFFFFFFFFFFFFFFFFF
310
FFFFFFFFFFFFFFFFFFFFFFFFFFFFFFFFFFFFFFFFFFFFFFFFFFFFFFFFFFFFFFFF
310
F000FFFFFFFFFFFFFFFFFFFFFFFFFFFFFFFFFFFFFFFFFFFFFFFFFFFFFFFFFFFF
310
FFFFFFFFFFFFFFFFFFFFFFFFFFFFFFFFFFFFFFFFFFFFFFFFFFFFFFFFFFFFFFFF
310
FFFFFFFFFFFFFFFFFFFFFFFFFFFFFFFFFFFFFFFFFFFFFFFFF000FFFFFFFFFFFF
310
FFFFFFFFFFFFFFFFFFFFFFFFFFFFFFFFFFFFFFFFFFFFFFFFFFFFFFFFFFFFFFFF
310
FFFFFFFFFFFFFFFFFFFFFFFFFFFFFFFFFFFFFFFFFFFFFFFFFFFFFFFFFFFFFFFF
310
FFFFFFFFFFFFFFFFFFFFFFFFFFFFFFFFF000FFFFFFFFFFFFFFFFFFFFFFFFFFFF
310
FFFFFFFFFFFFFFFFFFFFFFFFFFFFFFFFFFFFFFFFFFFFFFFFFFFFFFFFFFFFFFFF
310
FFFFFFFFFFFFFFFFFFFFFFFFFFFFFFFFFFFFFFFFFFFFFFFFFFFFFFFFFFFFFFFF
310
FFFFFFFFFFFFFFFFF000FFFFFFFFFFFFFFFFFFFFFFFFFFFFFFFFFFFFFFFFFFFF
310
FFFFFFFFFFFFFFFFFFFFFFFFFFFFFFFFFFFFFFFFFFFFFFFFFFFFFFFFFFFFFFFF
310
FFFFFFFFFFFFFFFFFFFFFFFFFFFFFFFFFFFFFFFFFFFFFFFFFFFFFFFFFFFFFFFF
310
F000FFFFFFFFFFFFFFFFFFFFFFFFFFFFFFFFFFFFFFFFFFFFFFFFFFFFFFFFFFFF
310
FFFFFFFFFFFFFFFFFFFFFFFFFFFFFFFFFFFFFFFFFFFFFFFFFFFFFFFFFFFFFFFF
310
FFFFFFFFFFFFFFFFFFFFFFFFFFFFFFFFFFFFFFFFFFFFFFFFF000FFFFFFFFFFFF
310
FFFFFFFFFFFFFFFFFFFFFFFFFFFFFFFFFFFFFFFFFFFFFFFFFFFFFFFFFFFFFFFF
310
FFFFFFFFFFFFFFFFFFFFFFFFFFFFFFFFFFFFFFFFFFFFFFFFFFFFFFFFFFFFFFFF
310
FFFFFFFFFFFFFFFFFFFFFFFFFFFFFFFFF000FFFFFFFFFFFFFFFFFFFFFFFFFFFF
310
FFFFFFFFFFFFFFFFFFFFFFFFFFFFFFFFFFFFFFFFFFFFFFFFFFFFFFFFFFFFFFFF
310
FFFFFFFFFFFFFFFFFFFFFFFFFFFFFFFFFFFFFFFFFFFFFFFFFFFFFFFFFFFFFFFF
310
FFFFFFFFFFFFFFFFF000FFFFFFFFFFFFFFFFFFFFFFFFFFFFFFFFFFFFFFFFFFFF
310
FFFFFFFFFFFFFFFFFFFFFFFFFFFFFFFFFFFFFFFFFFFFFFFFFFFFFFFFFFFFFFFF
310
FFFFFFFFFFFFFFFFFFFFFFFFFFFFFFFFFFFFFFFFFFFFFFFFFFFFFFFFFFFFFFFF
310
F000FFFFFFFFFFFFFFFFFFFFFFFFFFFFFFFFFFFFFFFFFFFFFFFFFFFFFFFFFFFF
310
FFFFFFFFFFFFFFFFFFFFFFFFFFFFFFFFFFFFFFFFFFFFFFFFFFFFFFFFFFFFFFFF
310
FFFFFFFFFFFFFFFFFFFFFFFFFFFFFFFFFFFFFFFFFFFFFFFFF000FFFFFFFFFFFF
310
FFFFFFFFFFFFFFFFFFFFFFFFFFFFFFFFFFFFFFFFFFFFFFFFFFFFFFFFFFFFFFFF
310
FFFFFFFFFFFFFFFFFFFFFFFFFFFFFFFFFFFFFFFFFFFFFFFFFFFFFFFFFFFFFFFF
310
FFFFFFFFFFFFFFFFFFFFFFFFFFFFFFFFF000FFFFFFFFFFFFFFFFFFFFFFFFFFFF
310
FFFFFFFFFFFFFFFFFFFFFFFFFFFFFFFFFFFFFFFFFFFFFFFFFFFFFFFFFFFFFFFF
310
FFFFFFFFFFFFFFFFFFFFFFFFFFFFFFFFFFFFFFFFFFFFFFFFFFFFFFFFFFFFFFFF
310
FFFFFFFFFFFFFFFFF000FFFFFFFFFFFFFFFFFFFFFFFFFFFFFFFFFFFFFFFFFFFF
310
FFFFFFFFFFFFFFFFFFFFFFFFFFFFFFFFFFFFFFFFFFFFFFFFFFFFFFFFFFFFFFFF
310
FFFFFFFFFFFFFFFFFFFFFFFFFFFFFFFFFFFFFFFFFFFFFFFFFFFFFFFFFFFFFFFF
310
F000FFFFFFFFFFFFFFFFFFFFFFFFFFFFFFFFFFFFFFFFFFFFFFFFFFFFFFFFFFFF
310
FFFFFFFFFFFFFFFFFFFFFFFFFFFFFFFFFFFFFFFFFFFFFFFFFFFFFFFFFFFFFFFF
310
FFFFFFFFFFFFFFFFFFFFFFFFFFFFFFFFFFFFFFFFFFFFFFFFF000FFFFFFFFFFFF
310
FFFFFFFFFFFFFFFFFFFFFFFFFFFFFFFFFFFFFFFFFFFFFFFFFFFFFFFFFFFFFFFF
310
FFFFFFFFFFFFFFFFFFFFFFFFFFFFFFFFFFFFFFFFFFFFFFFFFFFFFFFFFFFFFFFF
310
FFFFFFFFFFFFFFFFFFFFFFFFFFFFFFFFF000FFFFFFFFFFFFFFFFFFFFFFFFFFFF
310
FFFFFFFFFFFFFFFFFFFFFFFFFFFFFFFFFFFFFFFFFFFFFFFFFFFFFFFFFFFFFFFF
310
FFFFFFFFFFFFFFFFFFFFFFFFFFFFFFFFFFFFFFFFFFFFFFFFFFFFFFFFFFFFFFFF
310
FFFFFFFFFFFFFFFFF000FFFFFFFFFFFFFFFFFFFFFFFFFFFFFFFFFFFFFFFFFFFF
310
FFFFFFFFFFFFFFFFFFFFFFFFFFFFFFFFFFFFFFFFFFFFFFFFFFFFFFFFFFFFFFFF
310
FFFFFFFFFFFFFFFFFFFFFFFFFFFFFFFFFFFFFFFFFFFFFFFFFFFFFFFFFFFFFFFF
310
F000FFFFFFFFFFFFFFFFFFFFFFFFFFFFFFFFFFFFFFFFFFFFFFFFFFFFFFFFFFFF
310
FFFFFFFFFFFFFFFFFFFFFFFFFFFFFFFFFFFFFFFFFFFFFFFFFFFFFFFFFFFFFFFF
310
FFFFFFFFFFFFFFFFFFFFFFFFFFFFFFFFFFFFFFFFFFFFFFFFF000FFFFFFFFFFFF
310
FFFFFFFFFFFFFFFFFFFFFFFFFFFFFFFFFFFFFFFFFFFFFFFFFFFFFFFFFFFFFFFF
310
FFFFFFFFFFFFFFFFFFFFFFFFFFFFFFFFFFFFFFFFFFFFFFFFFFFFFFFFFFFFFFFF
310
FFFFFFFFFFFFFFFFFFFFFFFFFFFFFFFFF0000000000000000000000000000000
310
0000000000000000000000000000000000000000000000000000000000000000
310
0000000000000000000000000000000000000000000000000000000000000000
310
0000000000000000000000000000000000000000000000000000000000000000
310
0000000000000000000000000000000000000000000000000000000000000000
310
0000000000000000000000000000000000000000000000000000000000000000
310
0000000000000000000000000000000000000000000000000000000000000000
310
0000000000000000000000000000000000000000000000000000000000000000
310
0000000000000000000000000000000000000000000000000000000000000000
310
0000000000000000000000000000000000000000000000000000000000000000
310
0000000000000000000000000000000000000000000000000000000000000000
310
0000000000000000000000000000000000000000000000000000000000000000
310
0000000000000000000000000000000000000000000000000000000000000000
310
0000000000000000000000000000000000000000000000000000000000000000
310
0000000000000000000000000000000000000000000000000000000000000000
310
0000000000000000000000000000000000000000000000000000000000000000
  1
OLE
  0
ENDSEC
  0
SECTION
  2
OBJECTS
  0
DICTIONARY
  5
C
330
0
100
AcDbDictionary
281
     1
  3
ACAD_GROUP
350
D
  3
ACAD_LAYOUT
350
1A
  3
ACAD_MLINESTYLE
350
17
  3
ACAD_PLOTSETTINGS
350
19
  3
ACAD_PLOTSTYLENAME
350
E
  3
ACAD_SCALELIST
350
47
  0
DICTIONARY
  5
D
102
{ACAD_REACTORS
330
C
102
}
330
C
100
AcDbDictionary
281
     1
  0
DICTIONARY
  5
1A
102
{ACAD_REACTORS
330
C
102
}
330
C
100
AcDbDictionary
281
     1
  3
Layout1
350
1E
  3
Layout2
350
26
  3
Model
350
22
  0
DICTIONARY
  5
17
102
{ACAD_REACTORS
330
C
102
}
330
C
100
AcDbDictionary
281
     1
  3
Standard
350
18
  0
DICTIONARY
  5
19
102
{ACAD_REACTORS
330
C
102
}
330
C
100
AcDbDictionary
281
     1
  0
ACDBDICTIONARYWDFLT
  5
E
102
{ACAD_REACTORS
330
C
102
}
330
C
100
AcDbDictionary
281
     1
  3
Normal
350
F
100
AcDbDictionaryWithDefault
340
F
  0
DICTIONARY
  5
47
102
{ACAD_REACTORS
330
C
102
}
330
C
100
AcDbDictionary
281
     1
  3
A0
350
48
  3
A1
350
49
  3
A2
350
4A
  3
A3
350
4B
  3
A4
350
4C
  3
A5
350
4D
  3
A6
350
4E
  3
A7
350
4F
  3
A8
350
50
  3
A9
350
51
  3
B0
350
52
  3
B1
350
53
  3
B2
350
54
  3
B3
350
55
  3
B4
350
56
  3
B5
350
57
  3
B6
350
58
  3
B7
350
59
  3
B8
350
5A
  3
B9
350
5B
  3
C0
350
5C
  3
C1
350
5D
  3
C2
350
5E
  3
C3
350
5F
  3
C4
350
60
  3
C5
350
61
  3
C6
350
62
  3
C7
350
63
  3
C8
350
64
  3
C9
350
65
  3
D0
350
66
  3
D1
350
67
  3
D2
350
68
  0
LAYOUT
  5
1E
102
{ACAD_REACTORS
330
1A
102
}
330
1A
100
AcDbPlotSettings
  1

  2
none_device
  4

  6

 40
0.0
 41
0.0
 42
0.0
 43
0.0
 44
0.0
 45
0.0
 46
0.0
 47
0.0
 48
0.0
 49
0.0
140
0.0
141
0.0
142
1.0
143
1.0
 70
   688
 72
     1
 73
     0
 74
     5
  7

 75
    16
147
1.0
148
0.0
149
0.0
100
AcDbLayout
  1
Layout1
 70
     1
 71
     1
 10
0.0
 20
0.0
 11
420.0
 21
297.0
 12
0.0
 22
0.0
 32
0.0
 14
1.0000000000E+20
 24
1.0000000000E+20
 34
1.0000000000E+20
 15
-1.0000000000E+20
 25
-1.0000000000E+20
 35
-1.0000000000E+20
146
0.0
 13
0.0
 23
0.0
 33
0.0
 16
1.0
 26
0.0
 36
0.0
 17
0.0
 27
1.0
 37
0.0
 76
     0
330
1B
  0
LAYOUT
  5
26
102
{ACAD_REACTORS
330
1A
102
}
330
1A
100
AcDbPlotSettings
  1

  2
none_device
  4

  6

 40
0.0
 41
0.0
 42
0.0
 43
0.0
 44
0.0
 45
0.0
 46
0.0
 47
0.0
 48
0.0
 49
0.0
140
0.0
141
0.0
142
1.0
143
1.0
 70
   688
 72
     1
 73
     0
 74
     5
  7

 75
    16
147
1.0
148
0.0
149
0.0
100
AcDbLayout
  1
Layout2
 70
     1
 71
     2
 10
0.0
 20
0.0
 11
0.0
 21
0.0
 12
0.0
 22
0.0
 32
0.0
 14
0.0
 24
0.0
 34
0.0
 15
0.0
 25
0.0
 35
0.0
146
0.0
 13
0.0
 23
0.0
 33
0.0
 16
1.0
 26
0.0
 36
0.0
 17
0.0
 27
1.0
 37
0.0
 76
     0
330
23
  0
LAYOUT
  5
22
102
{ACAD_REACTORS
330
1A
102
}
330
1A
100
AcDbPlotSettings
  1

  2
none_device
  4
Letter_(8.50_x_11.00_Inches)
  6

 40
6.35
 41
6.35
 42
6.35000508
 43
6.35000508
 44
215.9
 45
279.4
 46
0.0
 47
0.0
 48
0.0
 49
0.0
140
0.0
141
0.0
142
1.0
143
1.0
 70
  1712
 72
     1
 73
     0
 74
     0
  7

 75
     0
147
1.0
148
0.0
149
0.0
100
AcDbLayout
  1
Model
 70
     1
 71
     0
 10
0.0
 20
0.0
 11
297.0
 21
210.0
 12
0.0
 22
0.0
 32
0.0
 14
0.0
 24
0.0
 34
0.0
 15
297.0
 25
210.0
 35
0.0
146
0.0
 13
0.0
 23
0.0
 33
0.0
 16
1.0
 26
0.0
 36
0.0
 17
0.0
 27
1.0
 37
0.0
 76
     0
330
1F
331
29
  0
MLINESTYLE
  5
18
102
{ACAD_REACTORS
330
17
102
}
330
17
100
AcDbMlineStyle
  2
Standard
 70
     0
  3

 62
   256
 51
90.0
 52
90.0
 71
     2
 49
0.5
 62
   256
  6
BYLAYER
 49
-0.5
 62
   256
  6
BYLAYER
  0
ACDBPLACEHOLDER
  5
F
102
{ACAD_REACTORS
330
E
102
}
330
E
  0
SCALE
  5
48
102
{ACAD_REACTORS
330
47
102
}
330
47
100
AcDbScale
 70
     0
300
1:1
140
1.0
141
1.0
290
     1
  0
SCALE
  5
49
102
{ACAD_REACTORS
330
47
102
}
330
47
100
AcDbScale
 70
     0
300
1:2
140
1.0
141
2.0
290
     0
  0
SCALE
  5
4A
102
{ACAD_REACTORS
330
47
102
}
330
47
100
AcDbScale
 70
     0
300
1:4
140
1.0
141
4.0
290
     0
  0
SCALE
  5
4B
102
{ACAD_REACTORS
330
47
102
}
330
47
100
AcDbScale
 70
     0
300
1:5
140
1.0
141
5.0
290
     0
  0
SCALE
  5
4C
102
{ACAD_REACTORS
330
47
102
}
330
47
100
AcDbScale
 70
     0
300
1:8
140
1.0
141
8.0
290
     0
  0
SCALE
  5
4D
102
{ACAD_REACTORS
330
47
102
}
330
47
100
AcDbScale
 70
     0
300
1:10
140
1.0
141
10.0
290
     0
  0
SCALE
  5
4E
102
{ACAD_REACTORS
330
47
102
}
330
47
100
AcDbScale
 70
     0
300
1:16
140
1.0
141
16.0
290
     0
  0
SCALE
  5
4F
102
{ACAD_REACTORS
330
47
102
}
330
47
100
AcDbScale
 70
     0
300
1:20
140
1.0
141
20.0
290
     0
  0
SCALE
  5
50
102
{ACAD_REACTORS
330
47
102
}
330
47
100
AcDbScale
 70
     0
300
1:30
140
1.0
141
30.0
290
     0
  0
SCALE
  5
51
102
{ACAD_REACTORS
330
47
102
}
330
47
100
AcDbScale
 70
     0
300
1:40
140
1.0
141
40.0
290
     0
  0
SCALE
  5
52
102
{ACAD_REACTORS
330
47
102
}
330
47
100
AcDbScale
 70
     0
300
1:50
140
1.0
141
50.0
290
     0
  0
SCALE
  5
53
102
{ACAD_REACTORS
330
47
102
}
330
47
100
AcDbScale
 70
     0
300
1:100
140
1.0
141
100.0
290
     0
  0
SCALE
  5
54
102
{ACAD_REACTORS
330
47
102
}
330
47
100
AcDbScale
 70
     0
300
2:1
140
2.0
141
1.0
290
     0
  0
SCALE
  5
55
102
{ACAD_REACTORS
330
47
102
}
330
47
100
AcDbScale
 70
     0
300
4:1
140
4.0
141
1.0
290
     0
  0
SCALE
  5
56
102
{ACAD_REACTORS
330
47
102
}
330
47
100
AcDbScale
 70
     0
300
8:1
140
8.0
141
1.0
290
     0
  0
SCALE
  5
57
102
{ACAD_REACTORS
330
47
102
}
330
47
100
AcDbScale
 70
     0
300
10:1
140
10.0
141
1.0
290
     0
  0
SCALE
  5
58
102
{ACAD_REACTORS
330
47
102
}
330
47
100
AcDbScale
 70
     0
300
100:1
140
100.0
141
1.0
290
     0
  0
SCALE
  5
59
102
{ACAD_REACTORS
330
47
102
}
330
47
100
AcDbScale
 70
     0
300
1/128" = 1'-0"
140
0.0078125
141
12.0
290
     0
  0
SCALE
  5
5A
102
{ACAD_REACTORS
330
47
102
}
330
47
100
AcDbScale
 70
     0
300
1/64" = 1'-0"
140
0.015625
141
12.0
290
     0
  0
SCALE
  5
5B
102
{ACAD_REACTORS
330
47
102
}
330
47
100
AcDbScale
 70
     0
300
1/32" = 1'-0"
140
0.03125
141
12.0
290
     0
  0
SCALE
  5
5C
102
{ACAD_REACTORS
330
47
102
}
330
47
100
AcDbScale
 70
     0
300
1/16" = 1'-0"
140
0.0625
141
12.0
290
     0
  0
SCALE
  5
5D
102
{ACAD_REACTORS
330
47
102
}
330
47
100
AcDbScale
 70
     0
300
3/32" = 1'-0"
140
0.09375
141
12.0
290
     0
  0
SCALE
  5
5E
102
{ACAD_REACTORS
330
47
102
}
330
47
100
AcDbScale
 70
     0
300
1/8" = 1'-0"
140
0.125
141
12.0
290
     0
  0
SCALE
  5
5F
102
{ACAD_REACTORS
330
47
102
}
330
47
100
AcDbScale
 70
     0
300
3/16" = 1'-0"
140
0.1875
141
12.0
290
     0
  0
SCALE
  5
60
102
{ACAD_REACTORS
330
47
102
}
330
47
100
AcDbScale
 70
     0
300
1/4" = 1'-0"
140
0.25
141
12.0
290
     0
  0
SCALE
  5
61
102
{ACAD_REACTORS
330
47
102
}
330
47
100
AcDbScale
 70
     0
300
3/8" = 1'-0"
140
0.375
141
12.0
290
     0
  0
SCALE
  5
62
102
{ACAD_REACTORS
330
47
102
}
330
47
100
AcDbScale
 70
     0
300
1/2" = 1'-0"
140
0.5
141
12.0
290
     0
  0
SCALE
  5
63
102
{ACAD_REACTORS
330
47
102
}
330
47
100
AcDbScale
 70
     0
300
3/4" = 1'-0"
140
0.75
141
12.0
290
     0
  0
SCALE
  5
64
102
{ACAD_REACTORS
330
47
102
}
330
47
100
AcDbScale
 70
     0
300
1" = 1'-0"
140
1.0
141
12.0
290
     0
  0
SCALE
  5
65
102
{ACAD_REACTORS
330
47
102
}
330
47
100
AcDbScale
 70
     0
300
1-1/2" = 1'-0"
140
1.5
141
12.0
290
     0
  0
SCALE
  5
66
102
{ACAD_REACTORS
330
47
102
}
330
47
100
AcDbScale
 70
     0
300
3" = 1'-0"
140
3.0
141
12.0
290
     0
  0
SCALE
  5
67
102
{ACAD_REACTORS
330
47
102
}
330
47
100
AcDbScale
 70
     0
300
6" = 1'-0"
140
6.0
141
12.0
290
     0
  0
SCALE
  5
68
102
{ACAD_REACTORS
330
47
102
}
330
47
100
AcDbScale
 70
     0
300
1'-0" = 1'-0"
140
12.0
141
12.0
290
     0
  0
ENDSEC
  0
EOF
