  0
SECTION
  2
HEADER
  9
$ACADVER
  1
AC1015
  9
$ACADMAINTVER
 70
     6
  9
$DWGCODEPAGE
  3
ANSI_1252
  9
$INSBASE
 10
0.0
 20
0.0
 30
0.0
  9
$EXTMIN
 10
0.0
 20
0.0
 30
0.0
  9
$EXTMAX
 10
297.0
 20
210.0
 30
0.0
  9
$LIMMIN
 10
0.0
 20
0.0
  9
$LIMMAX
 10
297.0
 20
210.0
  9
$ORTHOMODE
 70
     0
  9
$REGENMODE
 70
     1
  9
$FILLMODE
 70
     1
  9
$QTEXTMODE
 70
     0
  9
$MIRRTEXT
 70
     1
  9
$LTSCALE
 40
1.0
  9
$ATTMODE
 70
     1
  9
$TEXTSIZE
 40
2.0
  9
$TRACEWID
 40
1.0
  9
$TEXTSTYLE
  7
Standard
  9
$CLAYER
  8
0
  9
$CELTYPE
  6
ByLayer
  9
$CECOLOR
 62
   256
  9
$CELTSCALE
 40
1.0
  9
$DISPSILH
 70
     0
  9
$DIMSCALE
 40
1.0
  9
$DIMASZ
 40
3.0
  9
$DIMEXO
 40
0.0
  9
$DIMDLI
 40
3.75
  9
$DIMRND
 40
0.0
  9
$DIMDLE
 40
0.0
  9
$DIMEXE
 40
1.0
  9
$DIMTP
 40
0.0
  9
$DIMTM
 40
0.0
  9
$DIMTXT
 40
2.0
  9
$DIMCEN
 40
2.5
  9
$DIMTSZ
 40
0.0
  9
$DIMTOL
 70
     0
  9
$DIMLIM
 70
     0
  9
$DIMTIH
 70
     1
  9
$DIMTOH
 70
     1
  9
$DIMSE1
 70
     0
  9
$DIMSE2
 70
     0
  9
$DIMTAD
 70
     1
  9
$DIMZIN
 70
     0
  9
$DIMBLK
  1

  9
$DIMASO
 70
     1
  9
$DIMSHO
 70
     1
  9
$DIMPOST
  1

  9
$DIMAPOST
  1

  9
$DIMALT
 70
     0
  9
$DIMALTD
 70
     3
  9
$DIMALTF
 40
0.0393700787
  9
$DIMLFAC
 40
1.0
  9
$DIMTOFL
 70
     1
  9
$DIMTVP
 40
0.0
  9
$DIMTIX
 70
     0
  9
$DIMSOXD
 70
     0
  9
$DIMSAH
 70
     0
  9
$DIMBLK1
  1

  9
$DIMBLK2
  1

  9
$DIMSTYLE
  2
ISO-25
  9
$DIMCLRD
 70
     0
  9
$DIMCLRE
 70
     0
  9
$DIMCLRT
 70
     0
  9
$DIMTFAC
 40
1.0
  9
$DIMGAP
 40
1.524
  9
$DIMJUST
 70
     0
  9
$DIMSD1
 70
     0
  9
$DIMSD2
 70
     0
  9
$DIMTOLJ
 70
     0
  9
$DIMTZIN
 70
     0
  9
$DIMALTZ
 70
     0
  9
$DIMALTTZ
 70
     0
  9
$DIMUPT
 70
     0
  9
$DIMDEC
 70
     2
  9
$DIMTDEC
 70
     3
  9
$DIMALTU
 70
     2
  9
$DIMALTTD
 70
     3
  9
$DIMTXSTY
  7
Standard
  9
$DIMAUNIT
 70
     0
  9
$DIMADEC
 70
     2
  9
$DIMALTRND
 40
0.0
  9
$DIMAZIN
 70
     0
  9
$DIMDSEP
 70
    44
  9
$DIMATFIT
 70
     3
  9
$DIMFRAC
 70
     0
  9
$DIMLDRBLK
  1

  9
$DIMLUNIT
 70
     2
  9
$DIMLWD
 70
    -2
  9
$DIMLWE
 70
    -2
  9
$DIMTMOVE
 70
     0
  9
$LUNITS
 70
     2
  9
$LUPREC
 70
     2
  9
$SKETCHINC
 40
1.0
  9
$FILLETRAD
 40
10.0
  9
$AUNITS
 70
     0
  9
$AUPREC
 70
     2
  9
$MENU
  1
.
  9
$ELEVATION
 40
0.0
  9
$PELEVATION
 40
0.0
  9
$THICKNESS
 40
0.0
  9
$LIMCHECK
 70
     0
  9
$CHAMFERA
 40
0.0
  9
$CHAMFERB
 40
0.0
  9
$CHAMFERC
 40
0.0
  9
$CHAMFERD
 40
0.0
  9
$SKPOLY
 70
     0
  9
$TDCREATE
 40
2457672.514478785
  9
$TDUCREATE
 40
2457672.431145451
  9
$TDUPDATE
 40
2457672.514480104
  9
$TDUUPDATE
 40
2457672.431146771
  9
$TDINDWG
 40
0.0000000116
  9
$TDUSRTIMER
 40
0.0000000116
  9
$USRTIMER
 70
     1
  9
$ANGBASE
 50
0.0
  9
$ANGDIR
 70
     0
  9
$PDMODE
 70
     0
  9
$PDSIZE
 40
-1.0
  9
$PLINEWID
 40
0.0
  9
$SPLFRAME
 70
     0
  9
$SPLINETYPE
 70
     6
  9
$SPLINESEGS
 70
     8
  9
$HANDSEED
  5
274
  9
$SURFTAB1
 70
     6
  9
$SURFTAB2
 70
     6
  9
$SURFTYPE
 70
     6
  9
$SURFU
 70
     6
  9
$SURFV
 70
     6
  9
$UCSBASE
  2

  9
$UCSNAME
  2

  9
$UCSORG
 10
0.0
 20
0.0
 30
0.0
  9
$UCSXDIR
 10
1.0
 20
0.0
 30
0.0
  9
$UCSYDIR
 10
0.0
 20
1.0
 30
0.0
  9
$UCSORTHOREF
  2

  9
$UCSORTHOVIEW
 70
     0
  9
$UCSORGTOP
 10
0.0
 20
0.0
 30
0.0
  9
$UCSORGBOTTOM
 10
0.0
 20
0.0
 30
0.0
  9
$UCSORGLEFT
 10
0.0
 20
0.0
 30
0.0
  9
$UCSORGRIGHT
 10
0.0
 20
0.0
 30
0.0
  9
$UCSORGFRONT
 10
0.0
 20
0.0
 30
0.0
  9
$UCSORGBACK
 10
0.0
 20
0.0
 30
0.0
  9
$PUCSBASE
  2

  9
$PUCSNAME
  2

  9
$PUCSORG
 10
0.0
 20
0.0
 30
0.0
  9
$PUCSXDIR
 10
1.0
 20
0.0
 30
0.0
  9
$PUCSYDIR
 10
0.0
 20
1.0
 30
0.0
  9
$PUCSORTHOREF
  2

  9
$PUCSORTHOVIEW
 70
     0
  9
$PUCSORGTOP
 10
0.0
 20
0.0
 30
0.0
  9
$PUCSORGBOTTOM
 10
0.0
 20
0.0
 30
0.0
  9
$PUCSORGLEFT
 10
0.0
 20
0.0
 30
0.0
  9
$PUCSORGRIGHT
 10
0.0
 20
0.0
 30
0.0
  9
$PUCSORGFRONT
 10
0.0
 20
0.0
 30
0.0
  9
$PUCSORGBACK
 10
0.0
 20
0.0
 30
0.0
  9
$USERI1
 70
     0
  9
$USERI2
 70
     0
  9
$USERI3
 70
     0
  9
$USERI4
 70
     0
  9
$USERI5
 70
     0
  9
$USERR1
 40
0.0
  9
$USERR2
 40
0.0
  9
$USERR3
 40
0.0
  9
$USERR4
 40
0.0
  9
$USERR5
 40
0.0
  9
$WORLDVIEW
 70
     1
  9
$SHADEDGE
 70
     3
  9
$SHADEDIF
 70
    70
  9
$TILEMODE
 70
     1
  9
$MAXACTVP
 70
    64
  9
$PINSBASE
 10
0.0
 20
0.0
 30
0.0
  9
$PLIMCHECK
 70
     0
  9
$PEXTMIN
 10
1.0000000000E+20
 20
1.0000000000E+20
 30
1.0000000000E+20
  9
$PEXTMAX
 10
-1.0000000000E+20
 20
-1.0000000000E+20
 30
-1.0000000000E+20
  9
$PLIMMIN
 10
0.0
 20
0.0
  9
$PLIMMAX
 10
420.0
 20
297.0
  9
$UNITMODE
 70
     0
  9
$VISRETAIN
 70
     1
  9
$PLINEGEN
 70
     0
  9
$PSLTSCALE
 70
     1
  9
$TREEDEPTH
 70
  3020
  9
$CMLSTYLE
  2
Standard
  9
$CMLJUST
 70
     0
  9
$CMLSCALE
 40
20.0
  9
$PROXYGRAPHICS
 70
     1
  9
$MEASUREMENT
 70
     1
  9
$CELWEIGHT
370
    -1
  9
$ENDCAPS
280
     0
  9
$JOINSTYLE
280
     0
  9
$LWDISPLAY
290
     1
  9
$INSUNITS
 70
     4
  9
$HYPERLINKBASE
  1

  9
$STYLESHEET
  1

  9
$XEDIT
290
     1
  9
$CEPSNTYPE
380
     0
  9
$PSTYLEMODE
290
     1
  9
$FINGERPRINTGUID
  2
{57BA2E71-A66D-43BB-B5F1-2DF5EAC816F3}
  9
$VERSIONGUID
  2
{FAEB1C32-E019-11D5-929B-00C0DF256EC4}
  9
$EXTNAMES
290
     1
  9
$PSVPSCALE
 40
0.0
  9
$OLESTARTUP
290
     0
  0
ENDSEC
  0
SECTION
  2
CLASSES
  0
CLASS
  1
ACDBDICTIONARYWDFLT
  2
AcDbDictionaryWithDefault
  3
ObjectDBX Classes
 90
        0
280
     0
281
     0
  0
CLASS
  1
VISUALSTYLE
  2
AcDbVisualStyle
  3
ObjectDBX Classes
 90
     4095
280
     0
281
     0
  0
CLASS
  1
MATERIAL
  2
AcDbMaterial
  3
ObjectDBX Classes
 90
     1153
280
     0
281
     0
  0
CLASS
  1
SCALE
  2
AcDbScale
  3
ObjectDBX Classes
 90
     1153
280
     0
281
     0
  0
CLASS
  1
TABLESTYLE
  2
AcDbTableStyle
  3
ObjectDBX Classes
 90
     4095
280
     0
281
     0
  0
CLASS
  1
MLEADERSTYLE
  2
AcDbMLeaderStyle
  3
ACDB_MLEADERSTYLE_CLASS
 90
     4095
280
     0
281
     0
  0
CLASS
  1
SUN
  2
AcDbSun
  3
SCENEOE
 90
     1153
280
     0
281
     0
  0
CLASS
  1
ACDBPLACEHOLDER
  2
AcDbPlaceHolder
  3
ObjectDBX Classes
 90
        0
280
     0
281
     0
  0
CLASS
  1
LAYOUT
  2
AcDbLayout
  3
ObjectDBX Classes
 90
        0
280
     0
281
     0
  0
ENDSEC
  0
SECTION
  2
TABLES
  0
TABLE
  2
VPORT
  5
8
330
0
100
AcDbSymbolTable
 70
     1
  0
VPORT
  5
29
330
8
100
AcDbSymbolTableRecord
100
AcDbViewportTableRecord
  2
*Active
 70
     0
 10
0.0
 20
0.0
 11
1.0
 21
1.0
 12
148.5
 22
105.0
 13
0.0
 23
0.0
 14
10.0
 24
10.0
 15
10.0
 25
10.0
 16
0.0
 26
0.0
 36
1.0
 17
0.0
 27
0.0
 37
0.0
 40
210.0
 41
1.4142857143
 42
50.0
 43
0.0
 44
0.0
 50
0.0
 51
0.0
 71
     0
 72
  2000
 73
     1
 74
     3
 75
     0
 76
     0
 77
     0
 78
     0
281
     0
 65
     1
110
0.0
120
0.0
130
0.0
111
1.0
121
0.0
131
0.0
112
0.0
122
1.0
132
0.0
 79
     0
146
0.0
  0
ENDTAB
  0
TABLE
  2
LTYPE
  5
5
330
0
100
AcDbSymbolTable
 70
     6
  0
LTYPE
  5
14
330
5
100
AcDbSymbolTableRecord
100
AcDbLinetypeTableRecord
  2
ByBlock
 70
     0
  3

 72
    65
 73
     0
 40
0.0
  0
LTYPE
  5
15
330
5
100
AcDbSymbolTableRecord
100
AcDbLinetypeTableRecord
  2
ByLayer
 70
     0
  3

 72
    65
 73
     0
 40
0.0
  0
LTYPE
  5
16
330
5
100
AcDbSymbolTableRecord
100
AcDbLinetypeTableRecord
  2
Continuous
 70
     0
  3
Solid line
 72
    65
 73
     0
 40
0.0
  0
LTYPE
  5
6E
330
5
100
AcDbSymbolTableRecord
100
AcDbLinetypeTableRecord
  2
HIDDEN
 70
     0
  3
Hidden __ __ __ __ __ __ __ __ __ __ __ __ __ __
 72
    65
 73
     2
 40
1.905
 49
1.27
 74
     0
 49
-0.635
 74
     0
  0
LTYPE
  5
6F
330
5
100
AcDbSymbolTableRecord
100
AcDbLinetypeTableRecord
  2
PHANTOM
 70
     0
  3
Phantom ______  __  __  ______  __  __  ______
 72
    65
 73
     6
 40
12.7
 49
6.35
 74
     0
 49
-1.27
 74
     0
 49
1.27
 74
     0
 49
-1.27
 74
     0
 49
1.27
 74
     0
 49
-1.27
 74
     0
  0
LTYPE
  5
70
330
5
100
AcDbSymbolTableRecord
100
AcDbLinetypeTableRecord
  2
CENTER
 70
     0
  3
Center ____ _ ____ _ ____ _ ____ _ ____ _ ____
 72
    65
 73
     4
 40
10.16
 49
6.35
 74
     0
 49
-1.27
 74
     0
 49
1.27
 74
     0
 49
-1.27
 74
     0
  0
LTYPE
  5
71
330
5
100
AcDbSymbolTableRecord
100
AcDbLinetypeTableRecord
  2
CENTERX2
 70
     0
  3
Center (2x) ________  __  ________  __  _____
 72
    65
 73
     4
 40
20.32
 49
12.7
 74
     0
 49
-2.54
 74
     0
 49
2.54
 74
     0
 49
-2.54
 74
     0
  0
LTYPE
  5
72
330
5
100
AcDbSymbolTableRecord
100
AcDbLinetypeTableRecord
  2
DOT2
 70
     0
  3
Dot (.5x) ........................................
 72
    65
 73
     2
 40
0.635
 49
0.0
 74
     0
 49
-0.635
 74
     0
  0
ENDTAB
  0
TABLE
  2
LAYER
  5
2
330
0
100
AcDbSymbolTable
 70
     5
  0
LAYER
  5
10
330
2
100
AcDbSymbolTableRecord
100
AcDbLayerTableRecord
  2
0
 70
     0
 62
     7
  6
Continuous
370
    -3
390
F
  0
LAYER
  5
73
330
2
100
AcDbSymbolTableRecord
100
AcDbLayerTableRecord
  2
FORMAT
 70
     0
 62
     7
  6
Continuous
370
    -3
390
F
  0
LAYER
  5
74
330
2
100
AcDbSymbolTableRecord
100
AcDbLayerTableRecord
  2
VERMASSUNG
 70
     0
 62
     7
  6
Continuous
370
    -3
390
F
  0
LAYER
  5
75
330
2
100
AcDbSymbolTableRecord
100
AcDbLayerTableRecord
  2
KOPF_DÜNN
 70
     0
 62
     7
  6
Continuous
370
    -3
390
F
  0
LAYER
  5
76
330
2
100
AcDbSymbolTableRecord
100
AcDbLayerTableRecord
  2
KOPF_DICK
 70
     0
 62
     7
  6
Continuous
370
    15
390
F
  0
ENDTAB
  0
TABLE
  2
STYLE
  5
3
330
0
100
AcDbSymbolTable
 70
     3
  0
STYLE
  5
11
330
3
100
AcDbSymbolTableRecord
100
AcDbTextStyleTableRecord
  2
Standard
 70
     0
 40
0.0
 41
1.0
 50
0.0
 71
     0
 42
2.0
  3
txt
  4

  0
STYLE
  5
77
330
3
100
AcDbSymbolTableRecord
100
AcDbTextStyleTableRecord
  2
SLDTEXTSTYLE0
 70
     0
 40
0.0
 41
0.7
 50
0.0
 71
     0
 42
2.0
  3
TXT
  4

  0
STYLE
  5
7B
330
3
100
AcDbSymbolTableRecord
100
AcDbTextStyleTableRecord
  2
SLDTEXTSTYLE1
 70
     0
 40
0.0
 41
0.6454545455
 50
0.0
 71
     0
 42
2.0
  3
TXT
  4

  0
ENDTAB
  0
TABLE
  2
VIEW
  5
6
330
0
100
AcDbSymbolTable
 70
     0
  0
ENDTAB
  0
TABLE
  2
UCS
  5
7
330
0
100
AcDbSymbolTable
 70
     0
  0
ENDTAB
  0
TABLE
  2
APPID
  5
9
330
0
100
AcDbSymbolTable
 70
     1
  0
APPID
  5
12
330
9
100
AcDbSymbolTableRecord
100
AcDbRegAppTableRecord
  2
ACAD
 70
     0
  0
ENDTAB
  0
TABLE
  2
DIMSTYLE
  5
A
330
0
100
AcDbSymbolTable
 70
     2
100
AcDbDimStyleTable
  0
DIMSTYLE
105
27
330
A
100
AcDbSymbolTableRecord
100
AcDbDimStyleTableRecord
  2
ISO-25
 70
     0
 41
2.5
 42
0.625
 43
3.75
 44
1.25
 73
     0
 74
     0
 77
     1
 78
     8
140
2.5
141
2.5
143
0.0393700787
147
0.625
171
     3
172
     1
178
     0
271
     2
272
     2
274
     3
278
    44
283
     0
284
     8
340
11
  0
DIMSTYLE
105
196
102
{ACAD_REACTORS
330
195
330
1A2
330
1AD
330
1B9
330
1C3
330
1CF
102
}
330
A
100
AcDbSymbolTableRecord
100
AcDbDimStyleTableRecord
  2
SLDDIMSTYLE0
 70
     0
 41
3.0
 44
0.0
 45
0.000000001
 73
     0
 74
     0
 77
     1
 78
    12
 79
     3
140
2.0
147
0.5
173
     1
178
     0
271
     2
272
     3
276
     2
284
    12
340
77
  0
ENDTAB
  0
TABLE
  2
BLOCK_RECORD
  5
1
330
0
100
AcDbSymbolTable
 70
     7
  0
BLOCK_RECORD
  5
1F
330
1
100
AcDbSymbolTableRecord
100
AcDbBlockTableRecord
  2
*Model_Space
340
22
  0
BLOCK_RECORD
  5
1B
330
1
100
AcDbSymbolTableRecord
100
AcDbBlockTableRecord
  2
*Paper_Space
340
1E
  0
BLOCK_RECORD
  5
23
330
1
100
AcDbSymbolTableRecord
100
AcDbBlockTableRecord
  2
*Paper_Space0
340
26
  0
BLOCK_RECORD
  5
197
330
1
100
AcDbSymbolTableRecord
100
AcDbBlockTableRecord
  2
_D
340
0
  0
BLOCK_RECORD
  5
1A3
330
1
100
AcDbSymbolTableRecord
100
AcDbBlockTableRecord
  2
_D_1
340
0
  0
BLOCK_RECORD
  5
1AE
330
1
100
AcDbSymbolTableRecord
100
AcDbBlockTableRecord
  2
_D_2
340
0
  0
BLOCK_RECORD
  5
1BA
330
1
100
AcDbSymbolTableRecord
100
AcDbBlockTableRecord
  2
_D_3
340
0
  0
BLOCK_RECORD
  5
1C4
330
1
100
AcDbSymbolTableRecord
100
AcDbBlockTableRecord
  2
_D_4
340
0
  0
BLOCK_RECORD
  5
1D0
330
1
100
AcDbSymbolTableRecord
100
AcDbBlockTableRecord
  2
_D_5
340
0
  0
ENDTAB
  0
ENDSEC
  0
SECTION
  2
BLOCKS
  0
BLOCK
  5
20
330
1F
100
AcDbEntity
  8
0
100
AcDbBlockBegin
  2
*Model_Space
 70
     0
 10
0.0
 20
0.0
 30
0.0
  3
*Model_Space
  1

  0
ENDBLK
  5
21
330
1F
100
AcDbEntity
  8
0
100
AcDbBlockEnd
  0
BLOCK
  5
1C
330
1B
100
AcDbEntity
 67
     1
  8
0
100
AcDbBlockBegin
  2
*Paper_Space
 70
     0
 10
0.0
 20
0.0
 30
0.0
  3
*Paper_Space
  1

  0
ENDBLK
  5
1D
330
1B
100
AcDbEntity
 67
     1
  8
0
100
AcDbBlockEnd
  0
BLOCK
  5
24
330
23
100
AcDbEntity
  8
0
100
AcDbBlockBegin
  2
*Paper_Space0
 70
     0
 10
0.0
 20
0.0
 30
0.0
  3
*Paper_Space0
  1

  0
ENDBLK
  5
25
330
23
100
AcDbEntity
  8
0
100
AcDbBlockEnd
  0
BLOCK
  5
198
330
197
100
AcDbEntity
  8
0
100
AcDbBlockBegin
  2
_D
 70
     0
 10
0.0
 20
0.0
 30
0.0
  3
_D
  1

  0
SOLID
  5
19A
330
197
100
AcDbEntity
  8
VERMASSUNG
100
AcDbTrace
 10
248.0272409938
 20
133.8252273192
 30
0.0
 11
247.5772409938
 21
130.8252273192
 31
0.0
 12
248.4772409938
 22
130.8252273192
 32
0.0
 13
248.4772409938
 23
130.8252273192
 33
0.0
  0
SOLID
  5
19B
330
197
100
AcDbEntity
  8
VERMASSUNG
100
AcDbTrace
 10
248.0272409938
 20
83.8252273192
 30
0.0
 11
248.4772409938
 21
86.8252273192
 31
0.0
 12
247.5772409938
 22
86.8252273192
 32
0.0
 13
247.5772409938
 23
86.8252273192
 33
0.0
  0
LINE
  5
19C
330
197
100
AcDbEntity
  8
VERMASSUNG
100
AcDbLine
 10
234.1968199687
 20
133.8252273192
 30
0.0
 11
249.0272409938
 21
133.8252273192
 31
0.0
  0
LINE
  5
19D
330
197
100
AcDbEntity
  8
VERMASSUNG
100
AcDbLine
 10
234.1968199687
 20
83.8252273192
 30
0.0
 11
249.0272409938
 21
83.8252273192
 31
0.0
  0
LINE
  5
19E
330
197
100
AcDbEntity
  8
VERMASSUNG
100
AcDbLine
 10
248.0272409938
 20
133.8252273192
 30
0.0
 11
248.0272409938
 21
83.8252273192
 31
0.0
  0
MTEXT
  5
19F
330
197
100
AcDbEntity
  8
VERMASSUNG
100
AcDbMText
 10
245.2491057376
 20
102.7212994098
 30
0.0
 40
2.0
 41
0.0
 71
     1
 72
     1
  1
ST5
  7
SLDTEXTSTYLE0
 11
-7.044195017643634E-15
 21
1.0
 31
0.0
 73
     1
 44
1.0
  0
MTEXT
  5
1A0
330
197
100
AcDbEntity
  8
VERMASSUNG
100
AcDbMText
 10
245.4491056889
 20
108.5212993361
 30
0.0
 40
2.0
 41
0.0
 71
     1
 72
     1
  1
%%c
  7
SLDTEXTSTYLE0
 11
-7.044195017643634E-15
 21
1.0
 31
0.0
 73
     1
 44
1.0
  0
MTEXT
  5
1A1
330
197
100
AcDbEntity
  8
VERMASSUNG
100
AcDbMText
 10
245.4491053979
 20
112.129775208
 30
0.0
 40
2.0
 41
0.0
 71
     1
 72
     1
  1
50
  7
SLDTEXTSTYLE0
 11
-7.044195017643634E-15
 21
1.0
 31
0.0
 73
     1
 44
1.0
  0
ENDBLK
  5
199
330
197
100
AcDbEntity
  8
0
100
AcDbBlockEnd
  0
BLOCK
  5
1A4
330
1A3
100
AcDbEntity
  8
0
100
AcDbBlockBegin
  2
_D_1
 70
     0
 10
0.0
 20
0.0
 30
0.0
  3
_D_1
  1

  0
SOLID
  5
1A6
330
1A3
100
AcDbEntity
  8
VERMASSUNG
100
AcDbTrace
 10
242.0272409938
 20
122.8252273192
 30
0.0
 11
241.5772409938
 21
119.8252273192
 31
0.0
 12
242.4772409938
 22
119.8252273192
 32
0.0
 13
242.4772409938
 23
119.8252273192
 33
0.0
  0
SOLID
  5
1A7
330
1A3
100
AcDbEntity
  8
VERMASSUNG
100
AcDbTrace
 10
242.0272409938
 20
94.8252273192
 30
0.0
 11
242.4772409938
 21
97.8252273192
 31
0.0
 12
241.5772409938
 22
97.8252273192
 32
0.0
 13
241.5772409938
 23
97.8252273192
 33
0.0
  0
LINE
  5
1A8
330
1A3
100
AcDbEntity
  8
VERMASSUNG
100
AcDbLine
 10
221.0968199687
 20
122.8252273192
 30
0.0
 11
243.0272409938
 21
122.8252273192
 31
0.0
  0
LINE
  5
1A9
330
1A3
100
AcDbEntity
  8
VERMASSUNG
100
AcDbLine
 10
221.0968199687
 20
94.8252273192
 30
0.0
 11
243.0272409938
 21
94.8252273192
 31
0.0
  0
LINE
  5
1AA
330
1A3
100
AcDbEntity
  8
VERMASSUNG
100
AcDbLine
 10
242.0272409938
 20
122.8252273192
 30
0.0
 11
242.0272409938
 21
94.8252273192
 31
0.0
  0
MTEXT
  5
1AB
330
1A3
100
AcDbEntity
  8
VERMASSUNG
100
AcDbMText
 10
239.4491054561
 20
105.6210512121
 30
0.0
 40
2.0
 41
0.0
 71
     1
 72
     1
  1
%%c
  7
SLDTEXTSTYLE0
 11
-7.044195017643634E-15
 21
1.0
 31
0.0
 73
     1
 44
1.0
  0
MTEXT
  5
1AC
330
1A3
100
AcDbEntity
  8
VERMASSUNG
100
AcDbMText
 10
239.4491053979
 20
109.2300234057
 30
0.0
 40
2.0
 41
0.0
 71
     1
 72
     1
  1
28
  7
SLDTEXTSTYLE0
 11
-7.044195017643634E-15
 21
1.0
 31
0.0
 73
     1
 44
1.0
  0
ENDBLK
  5
1A5
330
1A3
100
AcDbEntity
  8
0
100
AcDbBlockEnd
  0
BLOCK
  5
1AF
330
1AE
100
AcDbEntity
  8
0
100
AcDbBlockBegin
  2
_D_2
 70
     0
 10
0.0
 20
0.0
 30
0.0
  3
_D_2
  1

  0
ARC
  5
1B1
330
1AE
100
AcDbEntity
  8
VERMASSUNG
100
AcDbCircle
 10
218.4090470542
 20
165.9593725508
 30
0.0
 40
4.247059938537221
100
AcDbArc
 50
153.4349488229
 51
206.5650511771
  0
ARC
  5
1B2
330
1AE
100
AcDbEntity
  8
VERMASSUNG
100
AcDbCircle
 10
216.9845928832
 20
165.9593725508
 30
0.0
 40
4.247059938537246
100
AcDbArc
 50
333.4349488229
 51
26.5650511771
  0
SOLID
  5
1B3
330
1AE
100
AcDbEntity
  8
VERMASSUNG
100
AcDbTrace
 10
200.6968199687
 20
164.0600296053
 30
0.0
 11
203.6968199687
 21
163.6100296053
 31
0.0
 12
203.6968199687
 22
164.5100296053
 32
0.0
 13
203.6968199687
 23
164.5100296053
 33
0.0
  0
SOLID
  5
1B4
330
1AE
100
AcDbEntity
  8
VERMASSUNG
100
AcDbTrace
 10
234.6968199687
 20
164.0600296053
 30
0.0
 11
231.6968199687
 21
164.5100296053
 31
0.0
 12
231.6968199687
 22
163.6100296053
 32
0.0
 13
231.6968199687
 23
163.6100296053
 33
0.0
  0
LINE
  5
1B5
330
1AE
100
AcDbEntity
  8
VERMASSUNG
100
AcDbLine
 10
200.6968199687
 20
157.8252273192
 30
0.0
 11
200.6968199687
 21
165.0600296053
 31
0.0
  0
LINE
  5
1B6
330
1AE
100
AcDbEntity
  8
VERMASSUNG
100
AcDbLine
 10
234.6968199687
 20
133.3252273192
 30
0.0
 11
234.6968199687
 21
165.0600296053
 31
0.0
  0
LINE
  5
1B7
330
1AE
100
AcDbEntity
  8
VERMASSUNG
100
AcDbLine
 10
200.6968199687
 20
164.0600296053
 30
0.0
 11
234.6968199687
 21
164.0600296053
 31
0.0
  0
MTEXT
  5
1B8
330
1AE
100
AcDbEntity
  8
VERMASSUNG
100
AcDbMText
 10
216.1978611633
 20
166.6381652013
 30
0.0
 40
2.0
 41
0.0
 71
     1
 72
     1
  1
34
  7
SLDTEXTSTYLE0
 73
     1
 44
1.0
  0
ENDBLK
  5
1B0
330
1AE
100
AcDbEntity
  8
0
100
AcDbBlockEnd
  0
BLOCK
  5
1BB
330
1BA
100
AcDbEntity
  8
0
100
AcDbBlockBegin
  2
_D_3
 70
     0
 10
0.0
 20
0.0
 30
0.0
  3
_D_3
  1

  0
SOLID
  5
1BD
330
1BA
100
AcDbEntity
  8
VERMASSUNG
100
AcDbTrace
 10
162.6968199687
 20
170.0600296053
 30
0.0
 11
165.6968199687
 21
169.6100296053
 31
0.0
 12
165.6968199687
 22
170.5100296053
 32
0.0
 13
165.6968199687
 23
170.5100296053
 33
0.0
  0
SOLID
  5
1BE
330
1BA
100
AcDbEntity
  8
VERMASSUNG
100
AcDbTrace
 10
234.6968199687
 20
170.0600296053
 30
0.0
 11
231.6968199687
 21
170.5100296053
 31
0.0
 12
231.6968199687
 22
169.6100296053
 32
0.0
 13
231.6968199687
 23
169.6100296053
 33
0.0
  0
LINE
  5
1BF
330
1BA
100
AcDbEntity
  8
VERMASSUNG
100
AcDbLine
 10
162.6968199687
 20
143.7502273192
 30
0.0
 11
162.6968199687
 21
171.0600296053
 31
0.0
  0
LINE
  5
1C0
330
1BA
100
AcDbEntity
  8
VERMASSUNG
100
AcDbLine
 10
234.6968199687
 20
133.3252273192
 30
0.0
 11
234.6968199687
 21
171.0600296053
 31
0.0
  0
LINE
  5
1C1
330
1BA
100
AcDbEntity
  8
VERMASSUNG
100
AcDbLine
 10
162.6968199687
 20
170.0600296053
 30
0.0
 11
234.6968199687
 21
170.0600296053
 31
0.0
  0
MTEXT
  5
1C2
330
1BA
100
AcDbEntity
  8
VERMASSUNG
100
AcDbMText
 10
197.2971299584
 20
172.6381652013
 30
0.0
 40
2.0
 41
0.0
 71
     1
 72
     1
  1
72
  7
SLDTEXTSTYLE0
 73
     1
 44
1.0
  0
ENDBLK
  5
1BC
330
1BA
100
AcDbEntity
  8
0
100
AcDbBlockEnd
  0
BLOCK
  5
1C5
330
1C4
100
AcDbEntity
  8
0
100
AcDbBlockBegin
  2
_D_4
 70
     0
 10
0.0
 20
0.0
 30
0.0
  3
_D_4
  1

  0
ARC
  5
1C7
330
1C4
100
AcDbEntity
  8
VERMASSUNG
100
AcDbCircle
 10
147.1082540572
 20
177.9593725508
 30
0.0
 40
4.247059938537386
100
AcDbArc
 50
153.4349488229
 51
206.5650511771
  0
ARC
  5
1C8
330
1C4
100
AcDbEntity
  8
VERMASSUNG
100
AcDbCircle
 10
148.4853858801
 20
177.9593725508
 30
0.0
 40
4.247059938537386
100
AcDbArc
 50
333.4349488229
 51
26.5650511771
  0
SOLID
  5
1C9
330
1C4
100
AcDbEntity
  8
VERMASSUNG
100
AcDbTrace
 10
60.8968199687
 20
176.0600296053
 30
0.0
 11
63.8968199687
 21
175.6100296053
 31
0.0
 12
63.8968199687
 22
176.5100296053
 32
0.0
 13
63.8968199687
 23
176.5100296053
 33
0.0
  0
SOLID
  5
1CA
330
1C4
100
AcDbEntity
  8
VERMASSUNG
100
AcDbTrace
 10
234.6968199687
 20
176.0600296053
 30
0.0
 11
231.6968199687
 21
176.5100296053
 31
0.0
 12
231.6968199687
 22
175.6100296053
 32
0.0
 13
231.6968199687
 23
175.6100296053
 33
0.0
  0
LINE
  5
1CB
330
1C4
100
AcDbEntity
  8
VERMASSUNG
100
AcDbLine
 10
60.8968199687
 20
127.1749051799
 30
0.0
 11
60.8968199687
 21
177.0600296053
 31
0.0
  0
LINE
  5
1CC
330
1C4
100
AcDbEntity
  8
VERMASSUNG
100
AcDbLine
 10
234.6968199687
 20
133.3252273192
 30
0.0
 11
234.6968199687
 21
177.0600296053
 31
0.0
  0
LINE
  5
1CD
330
1C4
100
AcDbEntity
  8
VERMASSUNG
100
AcDbLine
 10
60.8968199687
 20
176.0600296053
 30
0.0
 11
234.6968199687
 21
176.0600296053
 31
0.0
  0
MTEXT
  5
1CE
330
1C4
100
AcDbEntity
  8
VERMASSUNG
100
AcDbMText
 10
144.8970681664
 20
178.6381652013
 30
0.0
 40
2.0
 41
0.0
 71
     1
 72
     1
  1
173.8
  7
SLDTEXTSTYLE0
 73
     1
 44
1.0
  0
ENDBLK
  5
1C6
330
1C4
100
AcDbEntity
  8
0
100
AcDbBlockEnd
  0
BLOCK
  5
1D1
330
1D0
100
AcDbEntity
  8
0
100
AcDbBlockBegin
  2
_D_5
 70
     0
 10
0.0
 20
0.0
 30
0.0
  3
_D_5
  1

  0
SOLID
  5
1D3
330
1D0
100
AcDbEntity
  8
VERMASSUNG
100
AcDbTrace
 10
53.5844522654
 20
158.8252273192
 30
0.0
 11
53.1344522654
 21
155.8252273192
 31
0.0
 12
54.0344522654
 22
155.8252273192
 32
0.0
 13
54.0344522654
 23
155.8252273192
 33
0.0
  0
SOLID
  5
1D4
330
1D0
100
AcDbEntity
  8
VERMASSUNG
100
AcDbTrace
 10
53.5844522654
 20
58.8252273192
 30
0.0
 11
54.0344522654
 21
61.8252273192
 31
0.0
 12
53.1344522654
 22
61.8252273192
 32
0.0
 13
53.1344522654
 23
61.8252273192
 33
0.0
  0
LINE
  5
1D5
330
1D0
100
AcDbEntity
  8
VERMASSUNG
100
AcDbLine
 10
196.6968218772
 20
158.8252273192
 30
0.0
 11
52.5844522654
 21
158.8252273192
 31
0.0
  0
LINE
  5
1D6
330
1D0
100
AcDbEntity
  8
VERMASSUNG
100
AcDbLine
 10
196.6968220307
 20
58.8252273192
 30
0.0
 11
52.5844522654
 21
58.8252273192
 31
0.0
  0
LINE
  5
1D7
330
1D0
100
AcDbEntity
  8
VERMASSUNG
100
AcDbLine
 10
53.5844522654
 20
158.8252273192
 30
0.0
 11
53.5844522654
 21
58.8252273192
 31
0.0
  0
MTEXT
  5
1D8
330
1D0
100
AcDbEntity
  8
VERMASSUNG
100
AcDbMText
 10
50.8063170092
 20
97.7214610988
 30
0.0
 40
2.0
 41
0.0
 71
     1
 72
     1
  1
MAS BT 50
  7
SLDTEXTSTYLE0
 11
-7.044195017643634E-15
 21
1.0
 31
0.0
 73
     1
 44
1.0
  0
MTEXT
  5
1D9
330
1D0
100
AcDbEntity
  8
VERMASSUNG
100
AcDbMText
 10
51.0063169605
 20
112.5214611033
 30
0.0
 40
2.0
 41
0.0
 71
     1
 72
     1
  1
%%c
  7
SLDTEXTSTYLE0
 11
-7.044195017643634E-15
 21
1.0
 31
0.0
 73
     1
 44
1.0
  0
MTEXT
  5
1DA
330
1D0
100
AcDbEntity
  8
VERMASSUNG
100
AcDbMText
 10
51.0063166694
 20
116.1303076488
 30
0.0
 40
2.0
 41
0.0
 71
     1
 72
     1
  1
100
  7
SLDTEXTSTYLE0
 11
-7.044195017643634E-15
 21
1.0
 31
0.0
 73
     1
 44
1.0
  0
ENDBLK
  5
1D2
330
1D0
100
AcDbEntity
  8
0
100
AcDbBlockEnd
  0
ENDSEC
  0
SECTION
  2
ENTITIES
  0
MTEXT
  5
78
330
1F
100
AcDbEntity
  8
KOPF_DÜNN
100
AcDbMText
 10
13.8892156294
 20
23.8442973028
 30
0.0
 40
3.0
 41
0.0
 71
     1
 72
     1
  1
134.650.050.072
  7
SLDTEXTSTYLE0
 73
     1
 44
1.0
  0
MTEXT
  5
79
330
1F
100
AcDbEntity
  8
VERMASSUNG
100
AcDbMText
 10
13.9329988022
 20
28.8834360957
 30
0.0
 40
3.0
 41
0.0
 71
     1
 72
     1
  1
Aufnahme_Master shank ST5
  7
SLDTEXTSTYLE0
 73
     1
 44
1.0
  0
MTEXT
  5
7A
330
1F
100
AcDbEntity
  8
VERMASSUNG
100
AcDbMText
 10
98.8601118557
 20
13.8365368761
 30
0.0
 40
2.0
 41
0.0
 71
     1
 72
     1
  1
Datum: 06.06.2008
  7
SLDTEXTSTYLE0
 73
     1
 44
1.0
  0
MTEXT
  5
7C
330
1F
100
AcDbEntity
  8
VERMASSUNG
100
AcDbMText
 10
13.933048693
 20
18.0482802738
 30
0.0
 40
2.0
 41
0.0
 71
     1
 72
     1
  1
MAS BT 50 B
  7
SLDTEXTSTYLE1
 73
     1
 44
1.0
  0
MTEXT
  5
7D
330
1F
100
AcDbEntity
  8
VERMASSUNG
100
AcDbMText
 10
13.9808475933
 20
13.9090974274
 30
0.0
 40
2.0
 41
0.0
 71
     1
 72
     1
  1
Gewicht: 3995g
  7
SLDTEXTSTYLE0
 73
     1
 44
1.0
  0
LINE
  5
7E
330
1F
100
AcDbEntity
  8
0
  6
Continuous
 62
     7
370
    15
100
AcDbLine
 10
196.696532742
 20
58.8252273192
 30
0.0
 11
199.6968199687
 21
58.8252273192
 31
0.0
  0
LINE
  5
7F
330
1F
100
AcDbEntity
  8
0
  6
Continuous
 62
     7
370
    15
100
AcDbLine
 10
199.6968199687
 20
158.8252273192
 30
0.0
 11
196.6963857877
 21
158.8252273192
 31
0.0
  0
ARC
  5
80
330
1F
100
AcDbEntity
  8
0
  6
Continuous
 62
     7
370
    15
100
AcDbCircle
 10
199.6968199687
 20
59.8252273192
 30
0.0
 40
1.0
100
AcDbArc
 50
270.0
 51
0.0
  0
ARC
  5
81
330
1F
100
AcDbEntity
  8
0
  6
Continuous
 62
     7
370
    15
100
AcDbCircle
 10
199.6968199687
 20
157.8252273192
 30
0.0
 40
1.0
100
AcDbArc
 50
0.0
 51
90.0
  0
ARC
  5
82
330
1F
100
AcDbEntity
  8
0
  6
Continuous
 62
     7
370
    15
100
AcDbCircle
 10
164.6968199687
 20
72.9002273192
 30
0.0
 40
1.000000000000014
100
AcDbArc
 50
38.7226389445
 51
90.0
  0
ARC
  5
83
330
1F
100
AcDbEntity
  8
0
  6
Continuous
 62
     7
370
    15
100
AcDbCircle
 10
164.6968199687
 20
144.7502273192
 30
0.0
 40
1.000000000000013
100
AcDbArc
 50
270.0
 51
321.2884428123
  0
LINE
  5
84
330
1F
100
AcDbEntity
  8
0
  6
Continuous
 62
     7
370
    15
100
AcDbLine
 10
162.6968199687
 20
143.7502273192
 30
0.0
 11
62.6082061825
 21
129.1539711421
 31
0.0
  0
LINE
  5
85
330
1F
100
AcDbEntity
  8
0
  6
Continuous
 62
     7
370
    15
100
AcDbLine
 10
62.6082061825
 20
88.4964834964
 30
0.0
 11
162.6968199687
 21
73.9002273192
 31
0.0
  0
LINE
  5
86
330
1F
100
AcDbEntity
  8
0
  6
Continuous
 62
     7
370
    15
100
AcDbLine
 10
162.6968199687
 20
73.9002273192
 30
0.0
 11
164.6968199687
 21
73.9002273192
 31
0.0
  0
LINE
  5
87
330
1F
100
AcDbEntity
  8
0
  6
Continuous
 62
     7
370
    15
100
AcDbLine
 10
164.6968199687
 20
143.7502273192
 30
0.0
 11
162.6968199687
 21
143.7502273192
 31
0.0
  0
ARC
  5
88
330
1F
100
AcDbEntity
  8
0
  6
Continuous
 62
     7
370
    15
100
AcDbCircle
 10
204.6968199687
 20
79.8252273192
 30
0.0
 40
4.000000000000028
100
AcDbArc
 50
90.0
 51
180.0
  0
ARC
  5
89
330
1F
100
AcDbEntity
  8
0
  6
Continuous
 62
     7
370
    15
100
AcDbCircle
 10
204.6968199687
 20
137.8252273192
 30
0.0
 40
4.000000000000028
100
AcDbArc
 50
180.0
 51
270.0
  0
LINE
  5
8A
330
1F
100
AcDbEntity
  8
0
  6
Continuous
 62
     7
370
    15
100
AcDbLine
 10
234.1968199687
 20
133.8252273192
 30
0.0
 11
204.6968199687
 21
133.8252273192
 31
0.0
  0
LINE
  5
8B
330
1F
100
AcDbEntity
  8
0
  6
Continuous
 62
     7
370
    15
100
AcDbLine
 10
204.6968199687
 20
83.8252273192
 30
0.0
 11
234.1968199687
 21
83.8252273192
 31
0.0
  0
LINE
  5
8C
330
1F
100
AcDbEntity
  8
0
  6
Continuous
 62
     7
370
    15
100
AcDbLine
 10
234.1968199687
 20
83.8252273192
 30
0.0
 11
234.6968199687
 21
84.3252273192
 31
0.0
  0
LINE
  5
8D
330
1F
100
AcDbEntity
  8
0
  6
Continuous
 62
     7
370
    15
100
AcDbLine
 10
234.6968199687
 20
133.3252273192
 30
0.0
 11
234.1968199687
 21
133.8252273192
 31
0.0
  0
ARC
  5
8E
330
1F
100
AcDbEntity
  8
0
  6
Continuous
 62
     7
370
    15
100
AcDbCircle
 10
62.8968199687
 20
90.4755494585
 30
0.0
 40
2.000000000000007
100
AcDbArc
 50
180.0
 51
261.7028550302
  0
ARC
  5
8F
330
1F
100
AcDbEntity
  8
0
  6
Continuous
 62
     7
370
    15
100
AcDbCircle
 10
62.8968199687
 20
127.1749051799
 30
0.0
 40
2.000000000000007
100
AcDbArc
 50
98.2971449698
 51
180.0
  0
SPLINE
  5
90
330
1F
100
AcDbEntity
  8
0
  6
Continuous
 62
     7
370
    15
100
AcDbSpline
210
0.0
220
0.0
230
1.0
 70
    24
 71
     3
 72
    11
 73
     7
 74
     0
 42
0.000000001
 43
0.00000001
 40
0.0
 40
0.0
 40
0.0
 40
0.0
 40
0.1285561766307338
 40
0.4801535797842219
 40
0.8150691831753865
 40
1.0
 40
1.0
 40
1.0
 40
1.0
 10
223.0901956416502
 20
106.3252273192121
 30
0.0
 10
222.9739376576669
 20
106.3252273192121
 30
0.0
 10
222.5397174696438
 20
106.3252273192121
 30
0.0
 10
221.7254573650546
 20
106.3252273192121
 30
0.0
 10
220.8437854310687
 20
106.3252273192121
 30
0.0
 10
220.3714673290609
 20
106.3252273192121
 30
0.0
 10
220.2034442957021
 20
106.3252273192121
 30
0.0
  0
SPLINE
  5
91
330
1F
100
AcDbEntity
  8
0
  6
Continuous
 62
     7
370
    15
100
AcDbSpline
210
0.0
220
0.0
230
1.0
 70
    24
 71
     3
 72
    10
 73
     6
 74
     0
 42
0.000000001
 43
0.00000001
 40
0.0
 40
0.0
 40
0.0
 40
0.0
 40
0.4391256427914784
 40
0.7513741901692076
 40
1.0
 40
1.0
 40
1.0
 40
1.0
 10
224.5335713146243
 20
108.8252273192121
 30
0.0
 10
224.3269363038737
 20
108.4673249819694
 30
0.0
 10
223.9733695823395
 20
107.8549294564066
 30
0.0
 10
223.4594046833467
 20
106.9647161380442
 30
0.0
 10
223.2035926497378
 20
106.521636698646
 30
0.0
 10
223.0901956416502
 20
106.3252273192121
 30
0.0
  0
SPLINE
  5
92
330
1F
100
AcDbEntity
  8
0
  6
Continuous
 62
     7
370
    15
100
AcDbSpline
210
0.0
220
0.0
230
1.0
 70
    24
 71
     3
 72
    10
 73
     6
 74
     0
 42
0.000000001
 43
0.00000001
 40
0.0
 40
0.0
 40
0.0
 40
0.0
 40
0.4391256427914776
 40
0.7513741901692056
 40
1.0
 40
1.0
 40
1.0
 40
1.0
 10
223.0901956416502
 20
111.3252273192121
 30
0.0
 10
223.2968306524009
 20
110.9673249819694
 30
0.0
 10
223.6503973739351
 20
110.3549294564066
 30
0.0
 10
224.1643622729279
 20
109.4647161380442
 30
0.0
 10
224.4201743065368
 20
109.021636698646
 30
0.0
 10
224.5335713146243
 20
108.8252273192121
 30
0.0
  0
SPLINE
  5
93
330
1F
100
AcDbEntity
  8
0
  6
Continuous
 62
     7
370
    15
100
AcDbSpline
210
0.0
220
0.0
230
1.0
 70
    24
 71
     3
 72
    11
 73
     7
 74
     0
 42
0.000000001
 43
0.00000001
 40
0.0
 40
0.0
 40
0.0
 40
0.0
 40
0.1849308168246117
 40
0.5198464202157771
 40
0.871443823369266
 40
1.0
 40
1.0
 40
1.0
 40
1.0
 10
220.2034442957021
 20
111.3252273192121
 30
0.0
 10
220.3714673290609
 20
111.3252273192121
 30
0.0
 10
220.8437854310687
 20
111.3252273192121
 30
0.0
 10
221.7254573650546
 20
111.3252273192121
 30
0.0
 10
222.5397174696438
 20
111.3252273192121
 30
0.0
 10
222.9739376576669
 20
111.3252273192121
 30
0.0
 10
223.0901956416502
 20
111.3252273192121
 30
0.0
  0
SPLINE
  5
94
330
1F
100
AcDbEntity
  8
0
  6
Continuous
 62
     7
370
    15
100
AcDbSpline
210
0.0
220
0.0
230
1.0
 70
    24
 71
     3
 72
    10
 73
     6
 74
     0
 42
0.000000001
 43
0.00000001
 40
0.0
 40
0.0
 40
0.0
 40
0.0
 40
0.4391256427914769
 40
0.7513741901692067
 40
1.0
 40
1.0
 40
1.0
 40
1.0
 10
220.2034442957021
 20
106.3252273192121
 30
0.0
 10
219.9968092849515
 20
106.6831296564548
 30
0.0
 10
219.6432425634173
 20
107.2955251820176
 30
0.0
 10
219.1292776644245
 20
108.1857385003801
 30
0.0
 10
218.8734656308156
 20
108.6288179397782
 30
0.0
 10
218.7600686227281
 20
108.8252273192121
 30
0.0
  0
CIRCLE
  5
95
330
1F
100
AcDbEntity
  8
0
  6
Continuous
 62
     7
370
    15
100
AcDbCircle
 10
221.6468199687
 20
108.8252273192
 30
0.0
 40
3.000000000000014
  0
SPLINE
  5
96
330
1F
100
AcDbEntity
  8
0
  6
Continuous
 62
     7
370
    15
100
AcDbSpline
210
0.0
220
0.0
230
1.0
 70
    24
 71
     3
 72
    10
 73
     6
 74
     0
 42
0.000000001
 43
0.00000001
 40
0.0
 40
0.0
 40
0.0
 40
0.0
 40
0.4391256427914792
 40
0.7513741901692086
 40
1.0
 40
1.0
 40
1.0
 40
1.0
 10
218.7600686227281
 20
108.8252273192121
 30
0.0
 10
218.9667036334787
 20
109.1831296564548
 30
0.0
 10
219.3202703550129
 20
109.7955251820176
 30
0.0
 10
219.8342352540057
 20
110.6857385003801
 30
0.0
 10
220.0900472876146
 20
111.1288179397782
 30
0.0
 10
220.2034442957021
 20
111.3252273192121
 30
0.0
  0
CIRCLE
  5
97
330
1F
100
AcDbEntity
  8
0
  6
Continuous
 62
     7
370
    15
100
AcDbCircle
 10
221.6468199687
 20
108.8252273192
 30
0.0
 40
4.500000000000014
  0
CIRCLE
  5
98
330
1F
100
AcDbEntity
  8
0
  6
Continuous
 62
     7
370
    15
100
AcDbCircle
 10
221.6468199687
 20
108.8252273192
 30
0.0
 40
5.000000000000014
  0
ARC
  5
99
330
1F
100
AcDbEntity
  8
0
  6
Continuous
 62
     7
370
    15
100
AcDbCircle
 10
221.6468199687
 20
108.8252273192
 30
0.0
 40
2.500000000000008
100
AcDbArc
 50
30.0
 51
90.0
  0
ARC
  5
9A
330
1F
100
AcDbEntity
  8
0
  6
Continuous
 62
     7
370
    15
100
AcDbCircle
 10
221.6468199687
 20
108.8252273192
 30
0.0
 40
2.500000000000015
100
AcDbArc
 50
270.0
 51
330.0
  0
ARC
  5
9B
330
1F
100
AcDbEntity
  8
0
  6
Continuous
 62
     7
370
    15
100
AcDbCircle
 10
221.6468199687
 20
108.8252273192
 30
0.0
 40
2.500000000000015
100
AcDbArc
 50
210.0
 51
270.0
  0
ARC
  5
9C
330
1F
100
AcDbEntity
  8
0
  6
Continuous
 62
     7
370
    15
100
AcDbCircle
 10
221.6468199687
 20
108.8252273192
 30
0.0
 40
2.500000000000008
100
AcDbArc
 50
90.0
 51
150.0
  0
ARC
  5
9D
330
1F
100
AcDbEntity
  8
0
  6
Continuous
 62
     7
370
    15
100
AcDbCircle
 10
221.6468199687
 20
108.8252273192
 30
0.0
 40
2.500000000000015
100
AcDbArc
 50
150.0
 51
210.0
  0
ARC
  5
9E
330
1F
100
AcDbEntity
  8
0
  6
Continuous
 62
     7
370
    15
100
AcDbCircle
 10
221.6468199687
 20
108.8252273192
 30
0.0
 40
2.500000000000015
100
AcDbArc
 50
330.0
 51
30.0
  0
SPLINE
  5
9F
330
1F
100
AcDbEntity
  8
0
  6
Continuous
 62
     7
370
    15
100
AcDbSpline
210
0.0
220
0.0
230
1.0
 70
     8
 71
     3
 72
    12
 73
     8
 74
     0
 42
0.000000001
 43
0.00000001
 40
0.0
 40
0.0
 40
0.0
 40
0.0
 40
0.5000000000000001
 40
0.5000000000000001
 40
0.75
 40
0.75
 40
1.0
 40
1.0
 40
1.0
 40
1.0
 10
192.7810996335196
 20
157.0312742709131
 30
0.0
 10
192.2422029384221
 20
155.973574453412
 30
0.0
 10
191.6798721277024
 20
154.8712060184534
 30
0.0
 10
190.811205885112
 20
153.1712414120907
 30
0.0
 10
190.5168771627694
 20
152.595722996652
 30
0.0
 10
189.9233461638017
 20
151.4362943281935
 30
0.0
 10
189.6241199056832
 20
150.8523346591122
 30
0.0
 10
189.3226330574299
 20
150.2646246985234
 30
0.0
  0
SPLINE
  5
A0
330
1F
100
AcDbEntity
  8
0
  6
Continuous
 62
     7
370
    15
100
AcDbSpline
210
0.0
220
0.0
230
1.0
 70
     8
 71
     3
 72
     9
 73
     5
 74
     0
 42
0.000000001
 43
0.00000001
 40
0.0
 40
0.0
 40
0.0
 40
0.0
 40
0.504794330390352
 40
1.0
 40
1.0
 40
1.0
 40
1.0
 10
193.4217963740883
 20
157.9853325692995
 30
0.0
 10
193.3134139395876
 20
157.8244910080103
 30
0.0
 10
193.0987078147844
 20
157.5058631003535
 30
0.0
 10
192.886280385973
 20
157.1884888737657
 30
0.0
 10
192.7810851188448
 20
157.0313233573715
 30
0.0
  0
LINE
  5
A1
330
1F
100
AcDbEntity
  8
0
  6
Continuous
 62
     7
370
    15
100
AcDbLine
 10
193.4218199687
 20
59.6650660339
 30
0.0
 11
193.4218199687
 21
157.9853886045
 31
0.0
  0
SPLINE
  5
A2
330
1F
100
AcDbEntity
  8
0
  6
Continuous
 62
     7
370
    15
100
AcDbSpline
210
0.0
220
0.0
230
1.0
 70
     8
 71
     3
 72
     9
 73
     5
 74
     0
 42
0.000000001
 43
0.00000001
 40
0.0
 40
0.0
 40
0.0
 40
0.0
 40
0.4952056715554214
 40
1.0
 40
1.0
 40
1.0
 40
1.0
 10
192.7810851188449
 20
60.6191312810527
 30
0.0
 10
192.8862803863898
 20
60.46196576403437
 30
0.0
 10
193.0987078152083
 20
60.14459153743338
 30
0.0
 10
193.3134139400074
 20
59.82596362978815
 30
0.0
 10
193.4217963740883
 20
59.66512206912468
 30
0.0
  0
SPLINE
  5
A3
330
1F
100
AcDbEntity
  8
0
  6
Continuous
 62
     7
370
    15
100
AcDbSpline
210
0.0
220
0.0
230
1.0
 70
     8
 71
     3
 72
    12
 73
     8
 74
     0
 42
0.000000001
 43
0.00000001
 40
0.0
 40
0.0
 40
0.0
 40
0.0
 40
0.2499999999999993
 40
0.2499999999999993
 40
0.4999999999999986
 40
0.4999999999999986
 40
1.0
 40
1.0
 40
1.0
 40
1.0
 10
192.7810996012807
 20
60.61918043078688
 30
0.0
 10
192.5117620799119
 20
61.14781281947152
 30
0.0
 10
192.2359919625178
 20
61.68873747341822
 30
0.0
 10
191.6737316759121
 20
62.79079422778128
 30
0.0
 10
191.3866463025074
 20
63.3530910670181
 30
0.0
 10
190.516219861788
 20
65.0564863023381
 30
0.0
 10
189.9242098656188
 20
66.2131330734202
 30
0.0
 10
189.3226330574299
 20
67.38582993990083
 30
0.0
  0
SPLINE
  5
A4
330
1F
100
AcDbEntity
  8
0
  6
Continuous
 62
     7
370
    15
100
AcDbSpline
210
0.0
220
0.0
230
1.0
 70
     8
 71
     3
 72
    12
 73
     8
 74
     0
 42
0.000000001
 43
0.00000001
 40
0.0
 40
0.0
 40
0.0
 40
0.0
 40
0.000512515335492
 40
0.2509311781568301
 40
0.5009716914398246
 40
0.7506335204405247
 40
1.0
 40
1.0
 40
1.0
 40
1.0
 10
196.696385787746
 20
158.8251022770285
 30
0.0
 10
196.6965302444329
 20
158.8251439503458
 30
0.0
 10
196.767257272727
 20
158.8455475049348
 30
0.0
 10
196.5239937124705
 20
158.773935873546
 30
0.0
 10
195.9184690982386
 20
158.6055826650752
 30
0.0
 10
194.8933054138154
 20
158.3282490746184
 30
0.0
 10
193.9121215465936
 20
158.0996303252946
 30
0.0
 10
193.4218199693632
 20
157.9853886045299
 30
0.0
  0
SPLINE
  5
A5
330
1F
100
AcDbEntity
  8
0
  6
Continuous
 62
     7
370
    15
100
AcDbSpline
210
0.0
220
0.0
230
1.0
 70
     8
 71
     3
 72
    13
 73
     9
 74
     0
 42
0.000000001
 43
0.00000001
 40
0.0
 40
0.0
 40
0.0
 40
0.0
 40
0.249249238042121
 40
0.4988437701386194
 40
0.6658825660857411
 40
0.8320256711231946
 40
0.9994886337290221
 40
0.9999999999999999
 40
0.9999999999999999
 40
0.9999999999999999
 40
0.9999999999999999
 10
193.4218199693632
 20
59.66506603389429
 30
0.0
 10
193.9130046927829
 20
59.55057851020432
 30
0.0
 10
194.8960545957229
 20
59.32144485908484
 30
0.0
 10
195.795098020533
 20
59.07823510793463
 30
0.0
 10
196.3534229212185
 20
58.92429790054926
 30
0.0
 10
196.6190941459277
 20
58.84804434169899
 30
0.0
 10
196.7279883919435
 20
58.81613015737648
 30
0.0
 10
196.6966282121251
 20
58.82528307131938
 30
0.0
 10
196.6965327419523
 20
58.82531093564545
 30
0.0
  0
LINE
  5
A6
330
1F
100
AcDbEntity
  8
0
  6
Continuous
 62
     7
370
    15
100
AcDbLine
 10
200.6968199687
 20
59.8252273192
 30
0.0
 11
200.6968199687
 21
157.8252273096
 31
0.0
  0
LINE
  5
A7
330
1F
100
AcDbEntity
  8
0
  6
Continuous
 62
     7
370
    15
100
AcDbLine
 10
165.6968199687
 20
61.8233390593
 30
0.0
 11
165.6968199687
 21
155.8271155792
 31
0.0
  0
SPLINE
  5
A8
330
1F
100
AcDbEntity
  8
0
  6
Continuous
 62
     7
370
    15
100
AcDbSpline
210
0.0
220
0.0
230
1.0
 70
     8
 71
     3
 72
    12
 73
     8
 74
     0
 42
0.000000001
 43
0.00000001
 40
0.0
 40
0.0
 40
0.0
 40
0.0
 40
0.2500000000000004
 40
0.2500000000000004
 40
0.5000000000000009
 40
0.5000000000000009
 40
1.0
 40
1.0
 40
1.0
 40
1.0
 10
166.0829563887259
 20
156.7596610530834
 30
0.0
 10
166.0313262666162
 20
156.7034567823687
 30
0.0
 10
165.9827940336257
 20
156.6421673718483
 30
0.0
 10
165.8929688966678
 20
156.5077052978037
 30
0.0
 10
165.8512586234554
 20
156.4335862275608
 30
0.0
 10
165.7451272432933
 20
156.1972785823924
 30
0.0
 10
165.6968199686762
 20
156.0154550397424
 30
0.0
 10
165.6968199686762
 20
155.8271155791533
 30
0.0
  0
SPLINE
  5
A9
330
1F
100
AcDbEntity
  8
0
  6
Continuous
 62
     7
370
    15
100
AcDbSpline
210
0.0
220
0.0
230
1.0
 70
     8
 71
     3
 72
     8
 73
     4
 74
     0
 42
0.000000001
 43
0.00000001
 40
0.0
 40
0.0
 40
0.0
 40
0.0
 40
1.0
 40
1.0
 40
1.0
 40
1.0
 10
166.6968199686762
 20
156.9303188146765
 30
0.0
 10
166.4699257249764
 20
156.9303188146765
 30
0.0
 10
166.2520760790501
 20
156.8663066477077
 30
0.0
 10
166.0829563887259
 20
156.7596610530834
 30
0.0
  0
SPLINE
  5
AA
330
1F
100
AcDbEntity
  8
0
  6
Continuous
 62
     7
370
    15
100
AcDbSpline
210
0.0
220
0.0
230
1.0
 70
     8
 71
     3
 72
    10
 73
     6
 74
     0
 42
0.000000001
 43
0.00000001
 40
0.0
 40
0.0
 40
0.0
 40
0.0
 40
0.5
 40
0.5
 40
1.0
 40
1.0
 40
1.0
 40
1.0
 10
166.0829563887259
 20
60.89079358534086
 30
0.0
 10
166.1675670294566
 20
60.83743875672817
 30
0.0
 10
166.2628016515632
 20
60.79486929477797
 30
0.0
 10
166.4728390107431
 20
60.735586960097
 30
0.0
 10
166.5832709155272
 20
60.72013582374775
 30
0.0
 10
166.6968199686762
 20
60.72013582374775
 30
0.0
  0
SPLINE
  5
AB
330
1F
100
AcDbEntity
  8
0
  6
Continuous
 62
     7
370
    15
100
AcDbSpline
210
0.0
220
0.0
230
1.0
 70
     8
 71
     3
 72
    12
 73
     8
 74
     0
 42
0.000000001
 43
0.00000001
 40
0.0
 40
0.0
 40
0.0
 40
0.0
 40
0.2500000000000039
 40
0.2500000000000039
 40
0.5000000000000079
 40
0.5000000000000079
 40
1.0
 40
1.0
 40
1.0
 40
1.0
 10
166.0829563887259
 20
60.89079358534086
 30
0.0
 10
166.0313262666162
 20
60.9469978560555
 30
0.0
 10
165.9827940336257
 20
61.0082872665759
 30
0.0
 10
165.8929688966678
 20
61.1427493406206
 30
0.0
 10
165.8512586234554
 20
61.21686841086343
 30
0.0
 10
165.7451272432933
 20
61.45317605603189
 30
0.0
 10
165.6968199686762
 20
61.63499959868178
 30
0.0
 10
165.6968199686762
 20
61.82333905927089
 30
0.0
  0
LINE
  5
AC
330
1F
100
AcDbEntity
  8
0
  6
Continuous
 62
     7
370
    15
100
AcDbLine
 10
178.3718199687
 20
156.9303188147
 30
0.0
 11
166.6968199687
 21
156.9303188147
 31
0.0
  0
LINE
  5
AD
330
1F
100
AcDbEntity
  8
0
  6
Continuous
 62
     7
370
    15
100
AcDbLine
 10
178.3718199687
 20
60.7201358237
 30
0.0
 11
178.3718199687
 21
156.9303188147
 31
0.0
  0
LINE
  5
AE
330
1F
100
AcDbEntity
  8
0
  6
Continuous
 62
     7
370
    15
100
AcDbLine
 10
166.6968199687
 20
60.7201358237
 30
0.0
 11
178.3718199687
 21
60.7201358237
 31
0.0
  0
SPLINE
  5
AF
330
1F
100
AcDbEntity
  8
0
  6
Continuous
 62
     7
370
    15
100
AcDbSpline
210
0.0
220
0.0
230
1.0
 70
     8
 71
     3
 72
     8
 73
     4
 74
     0
 42
0.000000001
 43
0.00000001
 40
0.0
 40
0.0
 40
0.0
 40
0.0
 40
0.0012417047560384
 40
0.0012417047560384
 40
0.0012417047560384
 40
0.0012417047560384
 10
178.9293890052039
 20
156.1457974731331
 30
0.0
 10
178.7440004539095
 20
156.4074705586816
 30
0.0
 10
178.5581342083015
 20
156.6689746675592
 30
0.0
 10
178.3718199686762
 20
156.9303188146765
 30
0.0
  0
SPLINE
  5
B0
330
1F
100
AcDbEntity
  8
0
  6
Continuous
 62
     7
370
    15
100
AcDbSpline
210
0.0
220
0.0
230
1.0
 70
     8
 71
     3
 72
     8
 73
     4
 74
     0
 42
0.000000001
 43
0.00000001
 40
0.0
 40
0.0
 40
0.0
 40
0.0
 40
1.0
 40
1.0
 40
1.0
 40
1.0
 10
182.4710068799225
 20
149.7555033993951
 30
0.0
 10
181.2960194040196
 20
151.888580154331
 30
0.0
 10
180.1147728699232
 20
154.0182987202072
 30
0.0
 10
178.9293890052039
 20
156.1457974731331
 30
0.0
  0
SPLINE
  5
B1
330
1F
100
AcDbEntity
  8
0
  6
Continuous
 62
     7
370
    15
100
AcDbSpline
210
0.0
220
0.0
230
1.0
 70
     8
 71
     3
 72
     8
 73
     4
 74
     0
 42
0.000000001
 43
0.00000001
 40
0.0
 40
0.0
 40
0.0
 40
0.0
 40
1.0
 40
1.0
 40
1.0
 40
1.0
 10
182.4710068799225
 20
67.89495123902911
 30
0.0
 10
181.2959700820956
 20
65.76178494488377
 30
0.0
 10
180.1147228746565
 20
63.6320661879021
 30
0.0
 10
178.9293890052039
 20
61.50465716529114
 30
0.0
  0
SPLINE
  5
B2
330
1F
100
AcDbEntity
  8
0
  6
Continuous
 62
     7
370
    15
100
AcDbSpline
210
0.0
220
0.0
230
1.0
 70
     8
 71
     3
 72
     8
 73
     4
 74
     0
 42
0.000000001
 43
0.00000001
 40
0.0
 40
0.0
 40
0.0
 40
0.0
 40
0.0012417047560385
 40
0.0012417047560385
 40
0.0012417047560385
 40
0.0012417047560385
 10
178.3718199686762
 20
60.72013582374775
 30
0.0
 10
178.5581342083015
 20
60.98147997086498
 30
0.0
 10
178.7440004539095
 20
61.24298407974258
 30
0.0
 10
178.9293890052039
 20
61.50465716529114
 30
0.0
  0
SPLINE
  5
B3
330
1F
100
AcDbEntity
  8
0
  6
Continuous
 62
     7
370
    15
100
AcDbSpline
210
0.0
220
0.0
230
1.0
 70
     8
 71
     3
 72
    10
 73
     6
 74
     0
 42
0.000000001
 43
0.00000001
 40
0.0
 40
0.0
 40
0.0
 40
0.0
 40
0.5
 40
0.5
 40
1.0
 40
1.0
 40
1.0
 40
1.0
 10
182.8468199686761
 20
68.24569610506292
 30
0.0
 10
182.7678199004249
 20
68.20993187045504
 30
0.0
 10
182.6940626501483
 20
68.1604422668956
 30
0.0
 10
182.5660075270151
 20
68.04015377539262
 30
0.0
 10
182.5131574926034
 20
67.9714716224033
 30
0.0
 10
182.4710068799225
 20
67.89495123902911
 30
0.0
  0
SPLINE
  5
B4
330
1F
100
AcDbEntity
  8
0
  6
Continuous
 62
     7
370
    15
100
AcDbSpline
210
0.0
220
0.0
230
1.0
 70
     8
 71
     3
 72
    10
 73
     6
 74
     0
 42
0.000000001
 43
0.00000001
 40
0.0
 40
0.0
 40
0.0
 40
0.0
 40
0.5
 40
0.5
 40
1.0
 40
1.0
 40
1.0
 40
1.0
 10
182.8468199686762
 20
149.4047585333612
 30
0.0
 10
182.7675335209934
 20
149.4406524152137
 30
0.0
 10
182.6940213018728
 20
149.4901541250647
 30
0.0
 10
182.5670688490022
 20
149.6092018217333
 30
0.0
 10
182.5130030002655
 20
149.6792634820016
 30
0.0
 10
182.4710068799225
 20
149.7555033993951
 30
0.0
  0
SPLINE
  5
B5
330
1F
100
AcDbEntity
  8
0
  6
Continuous
 62
     7
370
    15
100
AcDbSpline
210
0.0
220
0.0
230
1.0
 70
     8
 71
     3
 72
     8
 73
     4
 74
     0
 42
0.000000001
 43
0.00000001
 40
0.0
 40
0.0
 40
0.0
 40
0.0
 40
1.0
 40
1.0
 40
1.0
 40
1.0
 10
183.16382720295
 20
149.3372995148748
 30
0.0
 10
183.0541254176484
 20
149.3364410976754
 30
0.0
 10
182.9467783966639
 20
149.3595062095502
 30
0.0
 10
182.8468199686761
 20
149.4047585333611
 30
0.0
  0
SPLINE
  5
B6
330
1F
100
AcDbEntity
  8
0
  6
Continuous
 62
     7
370
    15
100
AcDbSpline
210
0.0
220
0.0
230
1.0
 70
     8
 71
     3
 72
     8
 73
     4
 74
     0
 42
0.000000001
 43
0.00000001
 40
0.0
 40
0.0
 40
0.0
 40
0.0
 40
1.0
 40
1.0
 40
1.0
 40
1.0
 10
183.16382720295
 20
68.31315512354946
 30
0.0
 10
183.0541254176484
 20
68.31401354074879
 30
0.0
 10
182.9467783966638
 20
68.290948428874
 30
0.0
 10
182.8468199686761
 20
68.24569610506309
 30
0.0
  0
SPLINE
  5
B7
330
1F
100
AcDbEntity
  8
0
  6
Continuous
 62
     7
370
    15
100
AcDbSpline
210
0.0
220
0.0
230
1.0
 70
     8
 71
     3
 72
    12
 73
     8
 74
     0
 42
0.000000001
 43
0.00000001
 40
0.0
 40
0.0
 40
0.0
 40
0.0
 40
0.2499999999999951
 40
0.2499999999999951
 40
0.4999999999999902
 40
0.4999999999999902
 40
1.0
 40
1.0
 40
1.0
 40
1.0
 10
189.3226330574299
 20
150.2646246985234
 30
0.0
 10
189.2864126360429
 20
150.1940176304236
 30
0.0
 10
189.2434869613951
 20
150.1302830390979
 30
0.0
 10
189.1459603781361
 20
150.0145088628494
 30
0.0
 10
189.0905288585193
 20
149.9619610188379
 30
0.0
 10
188.9120409556152
 20
149.8278124156236
 30
0.0
 10
188.7752041269674
 20
149.7672903135597
 30
0.0
 10
188.629812734403
 20
149.7467437296313
 30
0.0
  0
SPLINE
  5
B8
330
1F
100
AcDbEntity
  8
0
  6
Continuous
 62
     7
370
    15
100
AcDbSpline
210
0.0
220
0.0
230
1.0
 70
     8
 71
     3
 72
    12
 73
     8
 74
     0
 42
0.000000001
 43
0.00000001
 40
0.0
 40
0.0
 40
0.0
 40
0.0
 40
0.2499999999999957
 40
0.2499999999999957
 40
0.4999999999999913
 40
0.4999999999999913
 40
1.0
 40
1.0
 40
1.0
 40
1.0
 10
189.3226330574299
 20
67.3858299399008
 30
0.0
 10
189.2864126360429
 20
67.45643700800073
 30
0.0
 10
189.243486961395
 20
67.52017159932647
 30
0.0
 10
189.145960378136
 20
67.63594577557487
 30
0.0
 10
189.0905288585193
 20
67.6884936195863
 30
0.0
 10
188.9120409556151
 20
67.82264222280068
 30
0.0
 10
188.7752041269674
 20
67.88316432486447
 30
0.0
 10
188.629812734403
 20
67.90371090879287
 30
0.0
  0
SPLINE
  5
B9
330
1F
100
AcDbEntity
  8
0
  6
Continuous
 62
     7
370
    15
100
AcDbSpline
210
0.0
220
0.0
230
1.0
 70
    11
 71
     3
 72
    66
 73
    62
 74
     0
 42
0.000000001
 43
0.00000001
 40
0.0
 40
0.0
 40
0.0
 40
0.0
 40
0.0312500000000001
 40
0.0312500000000001
 40
0.0625000000000003
 40
0.0625000000000003
 40
0.0937500000000004
 40
0.0937500000000004
 40
0.1250000000000006
 40
0.1250000000000006
 40
0.1562500000000007
 40
0.1562500000000007
 40
0.1875000000000009
 40
0.1875000000000009
 40
0.218750000000001
 40
0.218750000000001
 40
0.2500000000000012
 40
0.2500000000000012
 40
0.2812500000000013
 40
0.2812500000000013
 40
0.3125000000000014
 40
0.3125000000000014
 40
0.3437500000000016
 40
0.3437500000000016
 40
0.3750000000000018
 40
0.3750000000000018
 40
0.4062500000000019
 40
0.4062500000000019
 40
0.4375000000000021
 40
0.4375000000000021
 40
0.4687500000000022
 40
0.4687500000000022
 40
0.5000000000000023
 40
0.5000000000000023
 40
0.5312500000000024
 40
0.5312500000000024
 40
0.5625000000000027
 40
0.5625000000000027
 40
0.6250000000000022
 40
0.6250000000000022
 40
0.6562500000000021
 40
0.6562500000000021
 40
0.6875000000000019
 40
0.6875000000000019
 40
0.7187500000000017
 40
0.7187500000000017
 40
0.7500000000000014
 40
0.7500000000000014
 40
0.7812500000000013
 40
0.7812500000000013
 40
0.8125000000000011
 40
0.8125000000000011
 40
0.8437500000000009
 40
0.8437500000000009
 40
0.8750000000000008
 40
0.8750000000000008
 40
0.9062500000000006
 40
0.9062500000000006
 40
0.9375000000000003
 40
0.9375000000000003
 40
1.0
 40
1.0
 40
1.0
 40
1.0
 10
185.8968199686762
 20
91.96531000836882
 30
0.0
 10
186.0620202593401
 20
91.9653100083688
 30
0.0
 10
186.2244528006366
 20
91.9802160377266
 30
0.0
 10
186.5440109562266
 20
92.03865121646905
 30
0.0
 10
186.7027942942037
 20
92.08289226884477
 30
0.0
 10
187.005532310683
 20
92.19848381426726
 30
0.0
 10
187.1491114758174
 20
92.26925978448597
 30
0.0
 10
187.4208412056854
 20
92.43669831639856
 30
0.0
 10
187.5494697692231
 20
92.53423758871924
 30
0.0
 10
187.7800355308903
 20
92.74765594892068
 30
0.0
 10
187.8835095321397
 20
92.8642706009468
 30
0.0
 10
188.0662700700655
 20
93.11799596496652
 30
0.0
 10
188.1439143262941
 20
93.25328882403527
 30
0.0
 10
188.2686069769841
 20
93.53363517942685
 30
0.0
 10
188.3166109575626
 20
93.68075605526289
 30
0.0
 10
188.3808426998809
 20
93.9827461596402
 30
0.0
 10
188.3967321439231
 20
94.13486992720941
 30
0.0
 10
188.3969070742782
 20
94.44135257003563
 30
0.0
 10
188.3806764229433
 20
94.59733849110131
 30
0.0
 10
188.3168952002337
 20
94.89991796007065
 30
0.0
 10
188.2697030888374
 20
95.04729647146284
 30
0.0
 10
188.1445364711795
 20
95.33408517684056
 30
0.0
 10
188.0662769838045
 20
95.47304227837847
 30
0.0
 10
187.8853568004491
 20
95.73063593864646
 30
0.0
 10
187.7820715715253
 20
95.85092848234747
 30
0.0
 10
187.5488198294766
 20
96.07364929999414
 30
0.0
 10
187.422405961211
 20
96.172627203986
 30
0.0
 10
187.1517336905164
 20
96.34584405859516
 30
0.0
 10
187.005651918352
 20
96.42082509607191
 30
0.0
 10
186.7027674728792
 20
96.54115326616767
 30
0.0
 10
186.5469371132395
 20
96.58653695365686
 30
0.0
 10
186.226591623974
 20
96.64796321407788
 30
0.0
 10
186.0608815380024
 20
96.6637168355976
 30
0.0
 10
185.7345501493059
 20
96.66382908085306
 30
0.0
 10
185.572363063479
 20
96.64869685094708
 30
0.0
 10
185.2499874822704
 20
96.5874447377666
 30
0.0
 10
185.0919720082329
 20
96.54143799439137
 30
0.0
 10
184.6405611331573
 20
96.36255726514942
 30
0.0
 10
184.3614816761051
 20
96.18440515785048
 30
0.0
 10
184.0154079716067
 20
95.85490874156343
 30
0.0
 10
183.9097659556921
 20
95.73253590172342
 30
0.0
 10
183.7279824797213
 20
95.47413319760885
 30
0.0
 10
183.6510946563374
 20
95.33790163206056
 30
0.0
 10
183.525440098967
 20
95.05146617017444
 30
0.0
 10
183.4771320230523
 20
94.90115908559895
 30
0.0
 10
183.413314137612
 20
94.59959115551442
 30
0.0
 10
183.3969859605692
 20
94.44672509304988
 30
0.0
 10
183.3966564705095
 20
94.13670997630643
 30
0.0
 10
183.4127529823441
 20
93.98384097595378
 30
0.0
 10
183.4759817196054
 20
93.68480821017893
 30
0.0
 10
183.5238183130159
 20
93.53674261375605
 30
0.0
 10
183.6491616309293
 20
93.25418557561058
 30
0.0
 10
183.7258583054545
 20
93.12056924348686
 30
0.0
 10
183.9069096721063
 20
92.86827937355469
 30
0.0
 10
184.0123852824672
 20
92.74893606448683
 30
0.0
 10
184.2429118511434
 20
92.535252285002
 30
0.0
 10
184.3686312887737
 20
92.4395923103422
 30
0.0
 10
184.6413981379705
 20
92.27087124133841
 30
0.0
 10
184.7871175143766
 20
92.19900403268517
 30
0.0
 10
185.2381866194846
 20
92.02635295541673
 30
0.0
 10
185.5664193873484
 20
91.9653100083688
 30
0.0
 10
185.8968199686762
 20
91.9653100083688
 30
0.0
  0
SPLINE
  5
BA
330
1F
100
AcDbEntity
  8
0
  6
Continuous
 62
     7
370
    15
100
AcDbSpline
210
0.0
220
0.0
230
1.0
 70
     8
 71
     3
 72
    10
 73
     6
 74
     0
 42
0.000000001
 43
0.00000001
 40
0.0
 40
0.0
 40
0.0
 40
0.0
 40
0.5
 40
0.5
 40
1.0
 40
1.0
 40
1.0
 40
1.0
 10
188.6298127344023
 20
149.7467437296341
 30
0.0
 10
187.7822483676341
 20
149.6269666775731
 30
0.0
 10
186.9015349319122
 20
149.5282764979093
 30
0.0
 10
185.0739786806966
 20
149.3870040916722
 30
0.0
 10
184.1205462775953
 20
149.3447858479945
 30
0.0
 10
183.16382720295
 20
149.3372995148748
 30
0.0
  0
SPLINE
  5
BB
330
1F
100
AcDbEntity
  8
0
  6
Continuous
 62
     7
370
    15
100
AcDbSpline
210
0.0
220
0.0
230
1.0
 70
     8
 71
     3
 72
    10
 73
     6
 74
     0
 42
0.000000001
 43
0.00000001
 40
0.0
 40
0.0
 40
0.0
 40
0.0
 40
0.5
 40
0.5
 40
1.0
 40
1.0
 40
1.0
 40
1.0
 10
188.6298127344023
 20
67.90371090879006
 30
0.0
 10
187.7822483676341
 20
68.02348796085111
 30
0.0
 10
186.9015349319122
 20
68.12217814051493
 30
0.0
 10
185.0739786806966
 20
68.26345054675207
 30
0.0
 10
184.1205462775953
 20
68.30566879042966
 30
0.0
 10
183.16382720295
 20
68.31315512354946
 30
0.0
  0
LINE
  5
BC
330
1F
100
AcDbEntity
  8
0
  6
Continuous
 62
     7
370
    15
100
AcDbLine
 10
162.6968199687
 20
73.9002273192
 30
0.0
 11
162.6968199687
 21
143.7502273192
 31
0.0
  0
SPLINE
  5
BD
330
1F
100
AcDbEntity
  8
0
  6
Continuous
 62
     7
370
    15
100
AcDbSpline
210
0.0
220
0.0
230
1.0
 70
    11
 71
     3
 72
    77
 73
    73
 74
     0
 42
0.000000001
 43
0.00000001
 40
0.0
 40
0.0
 40
0.0
 40
0.0
 40
0.0312499999999995
 40
0.0312499999999995
 40
0.062499999999999
 40
0.062499999999999
 40
0.0937499999999986
 40
0.0937499999999986
 40
0.1249999999999981
 40
0.1249999999999981
 40
0.1562499999999976
 40
0.1562499999999976
 40
0.1874999999999971
 40
0.1874999999999971
 40
0.2187499999999966
 40
0.2187499999999966
 40
0.2499999999999967
 40
0.2499999999999967
 40
0.2812499999999967
 40
0.2812499999999967
 40
0.3124999999999967
 40
0.3124999999999967
 40
0.3437499999999967
 40
0.3437499999999967
 40
0.3593749999999966
 40
0.3593749999999966
 40
0.3749999999999964
 40
0.3906249999999963
 40
0.3906249999999963
 40
0.4062499999999962
 40
0.4062499999999962
 40
0.4374999999999962
 40
0.4374999999999962
 40
0.4687499999999962
 40
0.4687499999999962
 40
0.4999999999999962
 40
0.4999999999999962
 40
0.5312499999999963
 40
0.5312499999999963
 40
0.5624999999999963
 40
0.5624999999999963
 40
0.5937499999999964
 40
0.5937499999999964
 40
0.6249999999999966
 40
0.6249999999999966
 40
0.6562499999999966
 40
0.6562499999999966
 40
0.6874999999999967
 40
0.6874999999999967
 40
0.7187499999999968
 40
0.7187499999999968
 40
0.7499999999999968
 40
0.7499999999999968
 40
0.7656249999999969
 40
0.7656249999999969
 40
0.781249999999997
 40
0.781249999999997
 40
0.8124999999999976
 40
0.8124999999999976
 40
0.8437499999999981
 40
0.8437499999999981
 40
0.8749999999999986
 40
0.8749999999999986
 40
0.8906249999999988
 40
0.8906249999999988
 40
0.906249999999999
 40
0.906249999999999
 40
0.9374999999999993
 40
0.9374999999999993
 40
0.9687499999999996
 40
0.9687499999999996
 40
1.0
 40
1.0
 40
1.0
 40
1.0
 10
217.6104146188902
 20
112.8197634019961
 30
0.0
 10
217.9006676561857
 20
113.0581938356629
 30
0.0
 10
218.2089630228071
 20
113.2652397113899
 30
0.0
 10
218.8587615536862
 20
113.6222769800084
 30
0.0
 10
219.2028400826262
 20
113.7730317847116
 30
0.0
 10
219.9135592104997
 20
114.0123764681933
 30
0.0
 10
220.2754378484989
 20
114.0998909318797
 30
0.0
 10
221.0117780162223
 20
114.2132679443064
 30
0.0
 10
221.3899011763176
 20
114.2388918296199
 30
0.0
 10
222.1386452084014
 20
114.2255774490848
 30
0.0
 10
222.508724271659
 20
114.1874268948485
 30
0.0
 10
223.2403828684036
 20
114.048583503385
 30
0.0
 10
223.6054398723271
 20
113.9463202203996
 30
0.0
 10
224.3030312284304
 20
113.6828322614181
 30
0.0
 10
224.6367967476068
 20
113.5221405612424
 30
0.0
 10
225.2737155602057
 20
113.1411545767694
 30
0.0
 10
225.5795718489657
 20
112.9179538953554
 30
0.0
 10
226.1342537831192
 20
112.4246492334061
 30
0.0
 10
226.3855275276935
 20
112.1539539339256
 30
0.0
 10
226.8327870189532
 20
111.5609658704984
 30
0.0
 10
227.0292522984006
 20
111.2355182995774
 30
0.0
 10
227.3413371228348
 20
110.5618106600285
 30
0.0
 10
227.4602390638148
 20
110.210253063941
 30
0.0
 10
227.5782402788212
 20
109.6588824870901
 30
0.0
 10
227.6071777067517
 20
109.4712562625962
 30
0.0
 10
227.6427037523775
 20
109.0986825513783
 30
0.0
 10
227.6565404511819
 20
108.7260920662783
 30
0.0
 10
227.627432048426
 20
108.3534683571147
 30
0.0
 10
227.5763803921147
 20
107.9808276840287
 30
0.0
 10
227.5396979506513
 20
107.7945651649671
 30
0.0
 10
227.3999329575952
 20
107.2504882049285
 30
0.0
 10
227.2669222627818
 20
106.9021329750029
 30
0.0
 10
226.9239735570223
 20
106.2329772409213
 30
0.0
 10
226.7175286542275
 20
105.9199059547772
 30
0.0
 10
226.2473632587668
 20
105.342906047111
 30
0.0
 10
225.9796929679674
 20
105.0752073137358
 30
0.0
 10
225.404881481684
 20
104.6010933850443
 30
0.0
 10
225.0970219137964
 20
104.3927622940104
 30
0.0
 10
224.4416251917451
 20
104.0311423780984
 30
0.0
 10
224.0962546192681
 20
103.8797975067528
 30
0.0
 10
223.3910861314006
 20
103.641259113776
 30
0.0
 10
223.0285319581883
 20
103.5524942252043
 30
0.0
 10
222.2830014844667
 20
103.4370273564846
 30
0.0
 10
221.9095952081343
 20
103.4119033107848
 30
0.0
 10
221.1647412016667
 20
103.4242684495547
 30
0.0
 10
220.7914689780854
 20
103.4619204833712
 30
0.0
 10
220.0512614330031
 20
103.6021143434266
 30
0.0
 10
219.6926090938025
 20
103.7028531131273
 30
0.0
 10
218.9976529731833
 20
103.9645839253391
 30
0.0
 10
218.6592000952546
 20
104.126843106431
 30
0.0
 10
218.0160950327826
 20
104.5116519418905
 30
0.0
 10
217.7168597966134
 20
104.7304123032059
 30
0.0
 10
217.301801565707
 20
105.0989551630168
 30
0.0
 10
217.1691207752229
 20
105.2285837602803
 30
0.0
 10
216.9156958061
 20
105.5021990395202
 30
0.0
 10
216.7943308268825
 20
105.6471154550336
 30
0.0
 10
216.4571071415623
 20
106.0949428538524
 30
0.0
 10
216.2658645360192
 20
106.4122394922169
 30
0.0
 10
215.9532136801781
 20
107.0861900248993
 30
0.0
 10
215.8312598420793
 20
107.4481142403245
 30
0.0
 10
215.6757877598959
 20
108.1787862611765
 30
0.0
 10
215.6399942223702
 20
108.5497149752879
 30
0.0
 10
215.651821994743
 20
109.1148596581784
 30
0.0
 10
215.6669512429028
 20
109.3042730169632
 30
0.0
 10
215.7183384316962
 20
109.6755737556589
 30
0.0
 10
215.7545904116046
 20
109.8587826561422
 30
0.0
 10
215.8942357395196
 20
110.401279507707
 30
0.0
 10
216.0306363381175
 20
110.7571205862119
 30
0.0
 10
216.3724692911707
 20
111.4217705691154
 30
0.0
 10
216.577598862651
 20
111.7331300941681
 30
0.0
 10
217.0537085620718
 20
112.3158990855781
 30
0.0
 10
217.3201615815946
 20
112.5813329683292
 30
0.0
 10
217.6104146188902
 20
112.8197634019961
 30
0.0
  0
LINE
  5
BE
330
1F
100
AcDbEntity
  8
0
  6
Continuous
 62
     7
370
    15
100
AcDbLine
 10
234.1968199687
 20
108.8252273192
 30
0.0
 11
234.1968199687
 21
83.8252273192
 31
0.0
  0
LINE
  5
BF
330
1F
100
AcDbEntity
  8
0
  6
Continuous
 62
     7
370
    15
100
AcDbLine
 10
234.1968199687
 20
133.8252273192
 30
0.0
 11
234.1968199687
 21
108.8252273192
 31
0.0
  0
LINE
  5
C0
330
1F
100
AcDbEntity
  8
0
  6
Continuous
 62
     7
370
    15
100
AcDbLine
 10
234.6968199687
 20
108.8252273192
 30
0.0
 11
234.6968199687
 21
84.3252273192
 31
0.0
  0
LINE
  5
C1
330
1F
100
AcDbEntity
  8
0
  6
Continuous
 62
     7
370
    15
100
AcDbLine
 10
234.6968199687
 20
133.3252273192
 30
0.0
 11
234.6968199687
 21
108.8252273192
 31
0.0
  0
LINE
  5
C2
330
1F
100
AcDbEntity
  8
0
  6
Continuous
 62
     7
370
    15
100
AcDbLine
 10
60.8968199687
 20
90.4755494585
 30
0.0
 11
60.8968199687
 21
127.1749051108
 31
0.0
  0
LWPOLYLINE
  5
C3
330
1F
100
AcDbEntity
  8
0
  6
Continuous
 62
     7
370
    15
100
AcDbPolyline
 90
       21
 70
   128
 43
0.0
 10
186.7332302292
 20
96.4488020707
 10
185.9821666879
 20
96.5859896413
 10
185.222748815
 20
96.4983682002
 10
184.5293137232
 20
96.1945147444
 10
183.9697396707
 20
95.7041725673
 10
183.5988016645
 20
95.0753397776
 10
183.4528097012
 20
94.3695709101
 10
183.5460544913
 20
93.6559515389
 10
183.869408585
 20
93.0043357002
 10
184.3912198308
 20
92.4785080922
 10
185.0604097082
 20
92.129940385
 10
185.8114732495
 20
91.9927528144
 10
186.5708911223
 20
92.0803742555
 10
187.2643262141
 20
92.3842277113
 10
187.8239002666
 20
92.8745698884
 10
188.1948382728
 20
93.5034026781
 10
188.3408302362
 20
94.2091715456
 10
188.2475854461
 20
94.9227909168
 10
187.9242313524
 20
95.5744067556
 10
187.4024201066
 20
96.1002343635
 10
186.7332302292
 20
96.4488020707
  0
LINE
  5
C4
330
1F
100
AcDbEntity
  8
0
  6
Continuous
 62
     7
370
    15
100
AcDbLine
 10
184.1910829048
 20
94.0067422592
 30
0.0
 11
185.3044237032
 21
92.7599318759
 31
0.0
  0
LINE
  5
C5
330
1F
100
AcDbEntity
  8
0
  6
Continuous
 62
     7
370
    15
100
AcDbLine
 10
187.0101607671
 20
93.0425608446
 30
0.0
 11
185.3044237032
 21
92.7599318759
 31
0.0
  0
LINE
  5
C6
330
1F
100
AcDbEntity
  8
0
  6
Continuous
 62
     7
370
    15
100
AcDbLine
 10
187.6025570326
 20
94.5720001966
 30
0.0
 11
187.0101607671
 21
93.0425608446
 31
0.0
  0
LINE
  5
C7
330
1F
100
AcDbEntity
  8
0
  6
Continuous
 62
     7
370
    15
100
AcDbLine
 10
187.6025570326
 20
94.5720001966
 30
0.0
 11
186.4892162341
 21
95.8188105798
 31
0.0
  0
LINE
  5
C8
330
1F
100
AcDbEntity
  8
0
  6
Continuous
 62
     7
370
    15
100
AcDbLine
 10
184.7834791702
 20
95.5361816111
 30
0.0
 11
186.4892162341
 21
95.8188105798
 31
0.0
  0
LINE
  5
C9
330
1F
100
AcDbEntity
  8
0
  6
Continuous
 62
     7
370
    15
100
AcDbLine
 10
184.7834791702
 20
95.5361816111
 30
0.0
 11
184.1910829048
 21
94.0067422592
 31
0.0
  0
LINE
  5
CA
330
1F
100
AcDbEntity
  8
0
  6
Continuous
 62
     7
370
    15
100
AcDbLine
 10
187.0101607671
 20
93.7266011313
 30
0.0
 11
187.0101607671
 21
93.0425608446
 31
0.0
  0
LINE
  5
CB
330
1F
100
AcDbEntity
  8
0
  6
Continuous
 62
     7
370
    15
100
AcDbLine
 10
187.4177645017
 20
94.7789460362
 30
0.0
 11
187.0101607671
 21
93.7266011313
 31
0.0
  0
LINE
  5
CC
330
1F
100
AcDbEntity
  8
0
  6
Continuous
 62
     7
370
    15
100
AcDbLine
 10
184.3758754357
 20
94.4838367062
 30
0.0
 11
185.3044237032
 21
93.4439721626
 31
0.0
  0
LINE
  5
CD
330
1F
100
AcDbEntity
  8
0
  6
Continuous
 62
     7
370
    15
100
AcDbLine
 10
185.3044237032
 20
93.4439721626
 30
0.0
 11
185.3044237032
 21
92.7599318759
 31
0.0
  0
LINE
  5
CE
330
1F
100
AcDbEntity
  8
0
  6
Continuous
 62
     7
370
    15
100
AcDbLine
 10
187.0101607671
 20
93.7266011313
 30
0.0
 11
185.3044237032
 21
93.4439721626
 31
0.0
  0
CIRCLE
  5
CF
330
1F
100
AcDbEntity
  8
0
  6
HIDDEN
 62
     7
370
     0
100
AcDbCircle
 10
221.6468199687
 20
108.8252273192
 30
0.0
 40
3.680384757729342
  0
CIRCLE
  5
D0
330
1F
100
AcDbEntity
  8
0
  6
HIDDEN
 62
     7
370
     0
100
AcDbCircle
 10
221.6468199687
 20
108.8252273192
 30
0.0
 40
3.380384757729345
  0
SPLINE
  5
D1
330
1F
100
AcDbEntity
  8
0
  6
HIDDEN
 62
     7
370
     0
100
AcDbSpline
210
0.0
220
0.0
230
1.0
 70
     8
 71
     3
 72
     9
 73
     5
 74
     0
 42
0.000000001
 43
0.00000001
 40
0.0
 40
0.0
 40
0.0
 40
0.0
 40
0.326715502844845
 40
1.0
 40
1.0
 40
1.0
 40
1.0
 10
195.3207874424079
 20
59.20146687880924
 30
0.0
 10
195.1639945642904
 20
59.24354910782912
 30
0.0
 10
194.6840881112688
 20
59.37235300190043
 30
0.0
 10
193.9298765703433
 20
59.54737965001995
 30
0.0
 10
193.4220776322626
 20
59.66522237878786
 30
0.0
  0
LWPOLYLINE
  5
D2
330
1F
100
AcDbEntity
  8
0
  6
HIDDEN
 62
     7
370
     0
100
AcDbPolyline
 90
       23
 70
   128
 43
0.0
 10
165.9662070805
 20
94.7960725166
 10
166.1512013965
 20
93.9633252158
 10
166.4371083211
 20
93.1980421487
 10
166.8007653759
 20
92.5622219982
 10
167.2127112288
 20
92.1073751315
 10
167.6395724769
 20
91.8703505366
 10
168.0467673606
 20
91.8703505366
 10
168.4013073719
 20
92.1073751315
 10
168.6744697877
 20
92.5622219982
 10
168.8441246136
 20
93.1980421487
 10
168.8965274247
 20
93.9633252158
 10
168.8274328568
 20
94.7960725166
 10
168.6424385409
 20
95.6288198175
 10
168.3565316162
 20
96.3941028845
 10
167.9928745615
 20
97.029923035
 10
167.5809287085
 20
97.4847699018
 10
167.1540674604
 20
97.7217944967
 10
166.7468725768
 20
97.7217944967
 10
166.3923325655
 20
97.4847699018
 10
166.1191701497
 20
97.029923035
 10
165.9495153237
 20
96.3941028845
 10
165.8971125126
 20
95.6288198175
 10
165.9662070805
 20
94.7960725166
  0
LWPOLYLINE
  5
D3
330
1F
100
AcDbEntity
  8
0
  6
HIDDEN
 62
     7
370
     0
100
AcDbPolyline
 90
       20
 70
   128
 43
0.0
 10
166.6790776692
 20
94.8520908349
 10
166.8358318108
 20
94.1802663687
 10
167.0841195821
 20
93.5812445079
 10
167.3970351506
 20
93.1199385659
 10
167.740669259
 20
92.8463381993
 10
168.0777838196
 20
92.7900922532
 10
168.3718472389
 20
92.9572958486
 10
168.5909931826
 20
93.3298298816
 10
168.7114737873
 20
93.8673245092
 10
168.7202331099
 20
94.5115338484
 10
168.616321942
 20
95.1926478214
 10
168.411000671
 20
95.8368571606
 10
168.1265190425
 20
96.3743517882
 10
167.793705055
 20
96.7468858211
 10
167.4486242684
 20
96.9140894166
 10
167.1286715402
 20
96.8578434705
 10
166.8685187133
 20
96.5842431039
 10
166.696357383
 20
96.1229371618
 10
166.6308439008
 20
95.523915301
 10
166.6790776692
 20
94.8520908349
  0
SPLINE
  5
D4
330
1F
100
AcDbEntity
  8
0
  6
HIDDEN
 62
     7
370
     0
100
AcDbSpline
210
0.0
220
0.0
230
1.0
 70
    11
 71
     3
 72
    66
 73
    62
 74
     0
 42
0.000000001
 43
0.00000001
 40
0.0
 40
0.0
 40
0.0
 40
0.0
 40
0.03125
 40
0.03125
 40
0.0625
 40
0.0625
 40
0.09375
 40
0.09375
 40
0.1249999999999999
 40
0.1249999999999999
 40
0.1562499999999999
 40
0.1562499999999999
 40
0.1874999999999999
 40
0.1874999999999999
 40
0.2187499999999999
 40
0.2187499999999999
 40
0.234375
 40
0.234375
 40
0.2500000000000002
 40
0.2500000000000002
 40
0.2812499999999996
 40
0.2812499999999996
 40
0.3124999999999991
 40
0.3124999999999991
 40
0.3749999999999984
 40
0.3749999999999984
 40
0.4374999999999979
 40
0.4374999999999979
 40
0.4687499999999977
 40
0.4687499999999977
 40
0.4999999999999975
 40
0.4999999999999975
 40
0.5312499999999973
 40
0.5312499999999973
 40
0.5624999999999972
 40
0.5624999999999972
 40
0.5937499999999971
 40
0.5937499999999971
 40
0.624999999999997
 40
0.624999999999997
 40
0.6874999999999964
 40
0.6874999999999964
 40
0.749999999999996
 40
0.749999999999996
 40
0.7812499999999962
 40
0.7812499999999962
 40
0.8124999999999964
 40
0.8124999999999964
 40
0.8437499999999967
 40
0.8437499999999967
 40
0.8593749999999967
 40
0.8593749999999967
 40
0.8749999999999967
 40
0.8749999999999967
 40
0.9062499999999974
 40
0.9062499999999974
 40
0.9374999999999983
 40
0.9374999999999983
 40
0.9687499999999992
 40
0.9687499999999992
 40
1.0
 40
1.0
 40
1.0
 40
1.0
 10
183.4778449084565
 20
98.16926649380144
 30
0.0
 10
183.4382546208166
 20
98.32288001349241
 30
0.0
 10
183.4129936301351
 20
98.47512344109239
 30
0.0
 10
183.3918487241202
 20
98.77722835784084
 30
0.0
 10
183.3964964362138
 20
98.92770850168276
 30
0.0
 10
183.4351901039994
 20
99.21015277498135
 30
0.0
 10
183.4694870630941
 20
99.34559946995459
 30
0.0
 10
183.5637978490435
 20
99.59474286853158
 30
0.0
 10
183.6229443893367
 20
99.70723428555436
 30
0.0
 10
183.761280574029
 20
99.90840122078954
 30
0.0
 10
183.8399170899797
 20
99.9956553769813
 30
0.0
 10
184.0044706419947
 20
100.1378649959307
 30
0.0
 10
184.0924053382564
 20
100.1943279238077
 30
0.0
 10
184.2599838846073
 20
100.2692368393543
 30
0.0
 10
184.3405807614146
 20
100.2880467584653
 30
0.0
 10
184.4354231268762
 20
100.283478881992
 30
0.0
 10
184.4623474322981
 20
100.2766046265131
 30
0.0
 10
184.5048761073494
 20
100.2525144586869
 30
0.0
 10
184.5203623964215
 20
100.2351068067372
 30
0.0
 10
184.5477867231097
 20
100.1712144304507
 30
0.0
 10
184.5414241195774
 20
100.1120446597177
 30
0.0
 10
184.498773984042
 20
99.97862485166239
 30
0.0
 10
184.4632783767451
 20
99.90406944090046
 30
0.0
 10
184.3347410295751
 20
99.66171270962867
 30
0.0
 10
184.2235676101362
 20
99.48052073346943
 30
0.0
 10
183.9948417945139
 20
99.07682229043242
 30
0.0
 10
183.873776610907
 20
98.85079762511934
 30
0.0
 10
183.7056626363547
 20
98.47226588818815
 30
0.0
 10
183.651322419729
 20
98.33818738399485
 30
0.0
 10
183.552697345488
 20
98.05600743764442
 30
0.0
 10
183.5086945039259
 20
97.90930876487418
 30
0.0
 10
183.4379080763739
 20
97.59889198348148
 30
0.0
 10
183.4127179299182
 20
97.44038755374397
 30
0.0
 10
183.3918039555534
 20
97.12902397914446
 30
0.0
 10
183.3967657973062
 20
96.98130560051524
 30
0.0
 10
183.4349399156641
 20
96.71780360154325
 30
0.0
 10
183.4677762413635
 20
96.60326468250484
 30
0.0
 10
183.5485087036756
 20
96.41229898603626
 30
0.0
 10
183.5966104106175
 20
96.33411529806983
 30
0.0
 10
183.7530528073348
 20
96.14032012013037
 30
0.0
 10
183.8698422670792
 20
96.06654496610254
 30
0.0
 10
184.1048992391624
 20
95.9834960093219
 30
0.0
 10
184.2206968261219
 20
95.97635261640625
 30
0.0
 10
184.3713975298308
 20
96.00812663383608
 30
0.0
 10
184.4177173175861
 20
96.02602408583469
 30
0.0
 10
184.4938005284463
 20
96.07962360622611
 30
0.0
 10
184.5231866839487
 20
96.11514277679055
 30
0.0
 10
184.5466477171766
 20
96.20925215159346
 30
0.0
 10
184.5396080733705
 20
96.26837262540778
 30
0.0
 10
184.4906103764908
 20
96.37827985482525
 30
0.0
 10
184.467757331913
 20
96.41892308013239
 30
0.0
 10
184.4124148142413
 20
96.50523056398647
 30
0.0
 10
184.3798256788142
 20
96.55127206724313
 30
0.0
 10
184.2710272039539
 20
96.69905087544282
 30
0.0
 10
184.1864064823017
 20
96.80751947776109
 30
0.0
 10
184.0162182534971
 20
97.04156634040635
 30
0.0
 10
183.9295881785513
 20
97.16857730514731
 30
0.0
 10
183.7704721772106
 20
97.43426326662025
 30
0.0
 10
183.6961582829217
 20
97.57584017919525
 30
0.0
 10
183.5698294611764
 20
97.86657100501287
 30
0.0
 10
183.5174351960965
 20
98.01565297411047
 30
0.0
 10
183.4778449084565
 20
98.16926649380144
 30
0.0
  0
SPLINE
  5
D5
330
1F
100
AcDbEntity
  8
0
  6
HIDDEN
 62
     7
370
     0
100
AcDbSpline
210
0.0
220
0.0
230
1.0
 70
    11
 71
     3
 72
    66
 73
    62
 74
     0
 42
0.000000001
 43
0.00000001
 40
0.0
 40
0.0
 40
0.0
 40
0.0
 40
0.0312500000000005
 40
0.0312500000000005
 40
0.0625000000000009
 40
0.0625000000000009
 40
0.1250000000000014
 40
0.1250000000000014
 40
0.1562500000000013
 40
0.1562500000000013
 40
0.1875000000000012
 40
0.1875000000000012
 40
0.2187500000000012
 40
0.2187500000000012
 40
0.2500000000000011
 40
0.2500000000000011
 40
0.2812500000000011
 40
0.2812500000000011
 40
0.3125000000000011
 40
0.3125000000000011
 40
0.343750000000001
 40
0.343750000000001
 40
0.375000000000001
 40
0.375000000000001
 40
0.4375000000000009
 40
0.4375000000000009
 40
0.4687500000000008
 40
0.4687500000000008
 40
0.5000000000000008
 40
0.5000000000000008
 40
0.5312500000000008
 40
0.5312500000000008
 40
0.5625000000000007
 40
0.5625000000000007
 40
0.5937500000000007
 40
0.5937500000000007
 40
0.6250000000000006
 40
0.6250000000000006
 40
0.6562500000000004
 40
0.6562500000000004
 40
0.6875000000000003
 40
0.6875000000000003
 40
0.7187500000000003
 40
0.7187500000000003
 40
0.7500000000000002
 40
0.7500000000000002
 40
0.7812500000000001
 40
0.7812500000000001
 40
0.8125
 40
0.8125
 40
0.84375
 40
0.84375
 40
0.8749999999999999
 40
0.8749999999999999
 40
0.9062499999999999
 40
0.9062499999999999
 40
0.9374999999999999
 40
0.9374999999999999
 40
0.96875
 40
0.96875
 40
1.0
 40
1.0
 40
1.0
 40
1.0
 10
185.8968199686762
 20
104.9556402489607
 30
0.0
 10
185.7287770315671
 20
104.9556402489607
 30
0.0
 10
185.5641959244051
 20
104.9681295331554
 30
0.0
 10
185.2414278844069
 20
105.0170754801687
 30
0.0
 10
185.0816679805994
 20
105.0542131400228
 30
0.0
 10
184.6303373857173
 20
105.1990355214091
 30
0.0
 10
184.3576086835979
 20
105.3424053471881
 30
0.0
 10
184.0173211839495
 20
105.6185856933394
 30
0.0
 10
183.9137955534171
 20
105.7220091239963
 30
0.0
 10
183.7323792046609
 20
105.9489625564139
 30
0.0
 10
183.6555032527957
 20
106.0707928862517
 30
0.0
 10
183.5292958578586
 20
106.3328622394476
 30
0.0
 10
183.4796506594912
 20
106.4751637188077
 30
0.0
 10
183.4138892785777
 20
106.7687871914777
 30
0.0
 10
183.3971476006503
 20
106.9201749577694
 30
0.0
 10
183.3965017663776
 20
107.2325507762941
 30
0.0
 10
183.4131541583438
 20
107.3933838468557
 30
0.0
 10
183.4779998777545
 20
107.7080963194451
 30
0.0
 10
183.5265995712877
 20
107.8652775253301
 30
0.0
 10
183.6535260786556
 20
108.170744167077
 30
0.0
 10
183.7306158770698
 20
108.3167746122196
 30
0.0
 10
183.9110414759877
 20
108.5955716161667
 30
0.0
 10
184.0150545689077
 20
108.7286176756083
 30
0.0
 10
184.3553937000737
 20
109.091657618153
 30
0.0
 10
184.6287657734318
 20
109.2947554440607
 30
0.0
 10
185.0768430946999
 20
109.5045193680109
 30
0.0
 10
185.2342712914469
 20
109.5597047289978
 30
0.0
 10
185.5605616328536
 20
109.634673205822
 30
0.0
 10
185.7248654379172
 20
109.6536073717185
 30
0.0
 10
186.0557897460057
 20
109.6545802473209
 30
0.0
 10
186.2244180817863
 20
109.6358972950906
 30
0.0
 10
186.5487052027769
 20
109.5628761264684
 30
0.0
 10
186.7056147234699
 20
109.5090173814641
 30
0.0
 10
187.0095701025979
 20
109.3681562401378
 30
0.0
 10
187.1527627212206
 20
109.2828644319702
 30
0.0
 10
187.4208458354638
 20
109.0869899700777
 30
0.0
 10
187.5472297229897
 20
108.9748968493792
 30
0.0
 10
187.7752415537539
 20
108.7326754295269
 30
0.0
 10
187.8775434601835
 20
108.6024399541942
 30
0.0
 10
188.0589224256697
 20
108.3240087503963
 30
0.0
 10
188.1377381974131
 20
108.1753417858719
 30
0.0
 10
188.2641168346441
 20
107.8733870314368
 30
0.0
 10
188.312855926674
 20
107.7185227538205
 30
0.0
 10
188.379535292888
 20
107.4009128169553
 30
0.0
 10
188.3964728317751
 20
107.2413549418668
 30
0.0
 10
188.3971564422399
 20
106.9301996061872
 30
0.0
 10
188.3807816320029
 20
106.7754295064385
 30
0.0
 10
188.3154782176529
 20
106.4798494866816
 30
0.0
 10
188.2672709828225
 20
106.3401024068361
 30
0.0
 10
188.1407771986295
 20
106.0751633398955
 30
0.0
 10
188.0623617012612
 20
105.9506655249218
 30
0.0
 10
187.8821433181106
 20
105.7245655438886
 30
0.0
 10
187.7789956418844
 20
105.6209438023592
 30
0.0
 10
187.5500022713634
 20
105.4347222993117
 30
0.0
 10
187.4261009039181
 20
105.3534272231145
 30
0.0
 10
187.158923444656
 20
105.2118587043138
 30
0.0
 10
187.0137831394635
 20
105.1511198489811
 30
0.0
 10
186.713063454525
 20
105.0545018676133
 30
0.0
 10
186.5572352000273
 20
105.0180835104686
 30
0.0
 10
186.2336943064016
 20
104.968534725679
 30
0.0
 10
186.0648629057853
 20
104.9556402489607
 30
0.0
 10
185.8968199686762
 20
104.9556402489607
 30
0.0
  0
SPLINE
  5
D6
330
1F
100
AcDbEntity
  8
0
  6
HIDDEN
 62
     7
370
     0
100
AcDbSpline
210
0.0
220
0.0
230
1.0
 70
     8
 71
     3
 72
    16
 73
    12
 74
     0
 42
0.000000001
 43
0.00000001
 40
0.0
 40
0.0
 40
0.0
 40
0.0
 40
0.2500000000000022
 40
0.2500000000000022
 40
0.5000000000000043
 40
0.5000000000000043
 40
0.6250000000000036
 40
0.6250000000000036
 40
0.7500000000000027
 40
0.7500000000000027
 40
1.0
 40
1.0
 40
1.0
 40
1.0
 10
234.6968199686762
 20
121.8937037769305
 30
0.0
 10
234.6968199686762
 20
121.8041833850292
 30
0.0
 10
234.6915924617992
 20
121.7128802768476
 30
0.0
 10
234.6623206260878
 20
121.5238579423389
 30
0.0
 10
234.6385771024918
 20
121.4240126909057
 30
0.0
 10
234.5702680416562
 20
121.2838254058542
 30
0.0
 10
234.5413971999997
 20
121.2393881769194
 30
0.0
 10
234.4749461564072
 20
121.1694998485997
 30
0.0
 10
234.437139139893
 20
121.1440997453961
 30
0.0
 10
234.326916921686
 20
121.0992773638925
 30
0.0
 10
234.2589066725014
 20
121.1051198048543
 30
0.0
 10
234.1968199686592
 20
121.1213248593962
 30
0.0
  0
SPLINE
  5
D7
330
1F
100
AcDbEntity
  8
0
  6
HIDDEN
 62
     7
370
     0
100
AcDbSpline
210
0.0
220
0.0
230
1.0
 70
     8
 71
     3
 72
     8
 73
     4
 74
     0
 42
0.000000001
 43
0.00000001
 40
0.0
 40
0.0
 40
0.0
 40
0.0
 40
1.0
 40
1.0
 40
1.0
 40
1.0
 10
234.1968199686592
 20
121.1213248593962
 30
0.0
 10
234.1105765838519
 20
121.0626680152496
 30
0.0
 10
234.007197275433
 20
121.0225951792801
 30
0.0
 10
233.8968199686762
 20
121.0225951792801
 30
0.0
  0
SPLINE
  5
D8
330
1F
100
AcDbEntity
  8
0
  6
HIDDEN
 62
     7
370
     0
100
AcDbSpline
210
0.0
220
0.0
230
1.0
 70
     8
 71
     3
 72
     8
 73
     4
 74
     0
 42
0.000000001
 43
0.00000001
 40
0.0
 40
0.0
 40
0.0
 40
0.0
 40
1.0
 40
1.0
 40
1.0
 40
1.0
 10
234.1968199686925
 20
96.52912977900542
 30
0.0
 10
234.1105765838776
 20
96.58778662316455
 30
0.0
 10
234.0071972754471
 20
96.62785945914413
 30
0.0
 10
233.8968199686762
 20
96.62785945914413
 30
0.0
  0
SPLINE
  5
D9
330
1F
100
AcDbEntity
  8
0
  6
HIDDEN
 62
     7
370
     0
100
AcDbSpline
210
0.0
220
0.0
230
1.0
 70
     8
 71
     3
 72
    16
 73
    12
 74
     0
 42
0.000000001
 43
0.00000001
 40
0.0
 40
0.0
 40
0.0
 40
0.0
 40
0.2499999999999907
 40
0.2499999999999907
 40
0.3749999999999971
 40
0.3749999999999971
 40
0.5000000000000036
 40
0.5000000000000036
 40
0.7500000000000017
 40
0.7500000000000017
 40
1.0
 40
1.0
 40
1.0
 40
1.0
 10
234.1968199686824
 20
96.52912977900847
 30
0.0
 10
234.2588931180688
 20
96.54533137339551
 30
0.0
 10
234.3269546754664
 20
96.55115919650395
 30
0.0
 10
234.43710135744
 20
96.5063762502641
 30
0.0
 10
234.4745301243777
 20
96.48127969468196
 30
0.0
 10
234.5409405395097
 20
96.4116674509836
 30
0.0
 10
234.5699345556148
 20
96.36722135562424
 30
0.0
 10
234.638533247934
 20
96.22672842076756
 30
0.0
 10
234.6620723187467
 20
96.12768940971286
 30
0.0
 10
234.6914728622646
 20
95.93885562294639
 30
0.0
 10
234.6968199686762
 20
95.84634551715223
 30
0.0
 10
234.6968199686762
 20
95.75675204123844
 30
0.0
  0
LINE
  5
DA
330
1F
100
AcDbEntity
  8
0
  6
HIDDEN
 62
     7
370
     0
100
AcDbLine
 10
204.1968199687
 20
108.8252273192
 30
0.0
 11
204.1968199687
 21
95.3252273192
 31
0.0
  0
LINE
  5
DB
330
1F
100
AcDbEntity
  8
0
  6
HIDDEN
 62
     7
370
     0
100
AcDbLine
 10
204.1968199687
 20
122.3252273192
 30
0.0
 11
204.1968199687
 21
108.8252273192
 31
0.0
  0
LINE
  5
DC
330
1F
100
AcDbEntity
  8
0
  6
HIDDEN
 62
     7
370
     0
100
AcDbLine
 10
209.0628453725
 20
108.8252273192
 30
0.0
 11
209.0628453725
 21
94.8252273192
 31
0.0
  0
LINE
  5
DD
330
1F
100
AcDbEntity
  8
0
  6
HIDDEN
 62
     7
370
     0
100
AcDbLine
 10
209.0628453725
 20
122.8252273192
 30
0.0
 11
209.0628453725
 21
108.8252273192
 31
0.0
  0
LINE
  5
DE
330
1F
100
AcDbEntity
  8
0
  6
HIDDEN
 62
     7
370
     0
100
AcDbLine
 10
221.0968199687
 20
121.0225951793
 30
0.0
 11
233.8968199687
 21
121.0225951793
 31
0.0
  0
LINE
  5
DF
330
1F
100
AcDbEntity
  8
0
  6
HIDDEN
 62
     7
370
     0
100
AcDbLine
 10
221.0968199687
 20
96.6278594591
 30
0.0
 11
233.8968199687
 21
96.6278594591
 31
0.0
  0
LINE
  5
E0
330
1F
100
AcDbEntity
  8
0
  6
HIDDEN
 62
     7
370
     0
100
AcDbLine
 10
165.6968199687
 20
144.1252273192
 30
0.0
 11
165.8683928439
 21
144.1252273192
 31
0.0
  0
ELLIPSE
  5
E1
330
1F
100
AcDbEntity
  8
0
  6
HIDDEN
 62
     7
370
     0
100
AcDbEllipse
 10
165.8683928439
 20
146.1252273192
 30
0.0
 11
0.0
 21
2.0
 31
0.0
210
0.0
220
0.0
230
1.0
 40
0.4142135624
 41
3.141592653589793
 42
4.712388980384681
  0
ELLIPSE
  5
E2
330
1F
100
AcDbEntity
  8
0
  6
HIDDEN
 62
     7
370
     0
100
AcDbEllipse
 10
165.8683928439
 20
71.5252273192
 30
0.0
 11
0.0
 21
2.0
 31
0.0
210
0.0
220
0.0
230
1.0
 40
0.4142135624
 41
4.712388980384702
 42
6.283185307179586
  0
LINE
  5
E3
330
1F
100
AcDbEntity
  8
0
  6
HIDDEN
 62
     7
370
     0
100
AcDbLine
 10
165.8683928439
 20
73.5252273192
 30
0.0
 11
165.6968199687
 21
73.5252273192
 31
0.0
  0
LINE
  5
E4
330
1F
100
AcDbEntity
  8
0
  6
HIDDEN
 62
     7
370
     0
100
AcDbLine
 10
166.6968199687
 20
61.5046571653
 30
0.0
 11
166.0829563887
 21
60.8907935853
 31
0.0
  0
LINE
  5
E5
330
1F
100
AcDbEntity
  8
0
  6
HIDDEN
 62
     7
370
     0
100
AcDbLine
 10
166.0829563887
 20
156.7596610531
 30
0.0
 11
166.6968199687
 21
156.1457974731
 31
0.0
  0
LINE
  5
E6
330
1F
100
AcDbEntity
  8
0
  6
HIDDEN
 62
     7
370
     0
100
AcDbLine
 10
193.6968199687
 20
73.5252273192
 30
0.0
 11
182.8468199687
 21
73.5252273192
 31
0.0
  0
LINE
  5
E7
330
1F
100
AcDbEntity
  8
0
  6
HIDDEN
 62
     7
370
     0
100
AcDbLine
 10
165.8683928439
 20
144.1252273192
 30
0.0
 11
182.8468199687
 21
144.1252273192
 31
0.0
  0
LINE
  5
E8
330
1F
100
AcDbEntity
  8
0
  6
HIDDEN
 62
     7
370
     0
100
AcDbLine
 10
182.8468199687
 20
144.1252273192
 30
0.0
 11
193.6968199687
 21
144.1252273192
 31
0.0
  0
SPLINE
  5
E9
330
1F
100
AcDbEntity
  8
0
  6
HIDDEN
 62
     7
370
     0
100
AcDbSpline
210
0.0
220
0.0
230
1.0
 70
     8
 71
     3
 72
    14
 73
    10
 74
     0
 42
0.000000001
 43
0.00000001
 40
0.0
 40
0.0
 40
0.0
 40
0.0
 40
0.1878282877623173
 40
0.3545816313016879
 40
0.5003024319338173
 40
0.6713282049188825
 40
0.8376422060211013
 40
0.9994166164999629
 40
1.0
 40
1.0
 40
1.0
 40
1.0
 10
192.7811197055629
 20
157.0312489211541
 30
0.0
 10
193.1141226279522
 20
157.1127968586077
 30
0.0
 10
193.7427644627672
 20
157.2667427899477
 30
0.0
 10
194.442201034672
 20
157.4577215080658
 30
0.0
 10
194.9900781341015
 20
157.6150937951416
 30
0.0
 10
195.3961937282187
 20
157.7334192311652
 30
0.0
 10
195.6293216209178
 20
157.8037962457803
 30
0.0
 10
195.7233110075148
 20
157.8334305970546
 30
0.0
 10
195.696628114371
 20
157.8251680714511
 30
0.0
 10
195.6965322374857
 20
157.8251383825708
 30
0.0
  0
LINE
  5
EA
330
1F
100
AcDbEntity
  8
0
  6
HIDDEN
 62
     7
370
     0
100
AcDbLine
 10
193.2804540705
 20
157.1555629591
 30
0.0
 11
192.7811154172
 21
157.0312935755
 31
0.0
  0
LINE
  5
EB
330
1F
100
AcDbEntity
  8
0
  6
HIDDEN
 62
     7
370
     0
100
AcDbLine
 10
182.8468199687
 20
73.5252273192
 30
0.0
 11
165.8683928439
 21
73.5252273192
 31
0.0
  0
LINE
  5
EC
330
1F
100
AcDbEntity
  8
0
  6
HIDDEN
 62
     7
370
     0
100
AcDbLine
 10
178.9293890052
 20
61.5046571653
 30
0.0
 11
166.6968199687
 21
61.5046571653
 31
0.0
  0
LINE
  5
ED
330
1F
100
AcDbEntity
  8
0
  6
HIDDEN
 62
     7
370
     0
100
AcDbLine
 10
166.6968199687
 20
61.5046571653
 30
0.0
 11
166.6968199687
 21
71.5252273192
 31
0.0
  0
LINE
  5
EE
330
1F
100
AcDbEntity
  8
0
  6
HIDDEN
 62
     7
370
     0
100
AcDbLine
 10
166.6968199687
 20
156.1457974731
 30
0.0
 11
178.9293890052
 21
156.1457974731
 31
0.0
  0
LINE
  5
EF
330
1F
100
AcDbEntity
  8
0
  6
HIDDEN
 62
     7
370
     0
100
AcDbLine
 10
166.6968199687
 20
156.1457974731
 30
0.0
 11
166.6968199687
 21
146.1252273192
 31
0.0
  0
SPLINE
  5
F0
330
1F
100
AcDbEntity
  8
0
  6
HIDDEN
 62
     7
370
     0
100
AcDbSpline
210
0.0
220
0.0
230
1.0
 70
     8
 71
     3
 72
    13
 73
     9
 74
     0
 42
0.000000001
 43
0.00000001
 40
0.0
 40
0.0
 40
0.0
 40
0.0
 40
0.0005825290635647
 40
0.1623661983773396
 40
0.3287385494553315
 40
0.4998718252132767
 40
0.7262528256169377
 40
1.0
 40
1.0
 40
1.0
 40
1.0
 10
195.6963858112825
 20
59.82536012587131
 30
0.0
 10
195.6965305973174
 20
59.82531578367801
 30
0.0
 10
195.7368862800348
 20
59.81295644608601
 30
0.0
 10
195.6227316731438
 20
59.84858553209348
 30
0.0
 10
195.3986145654432
 20
59.91643349500191
 30
0.0
 10
194.9193056744744
 20
60.05552666914537
 30
0.0
 10
194.1257980168459
 20
60.2857732499178
 30
0.0
 10
193.2567801443697
 20
60.50125882067599
 30
0.0
 10
192.7811197055629
 20
60.61920571727011
 30
0.0
  0
LINE
  5
F1
330
1F
100
AcDbEntity
  8
0
  6
HIDDEN
 62
     7
370
     0
100
AcDbLine
 10
70.8968199687
 20
96.3252273192
 30
0.0
 11
70.8968199687
 21
121.3252273192
 31
0.0
  0
LINE
  5
F2
330
1F
100
AcDbEntity
  8
0
  6
HIDDEN
 62
     7
370
     0
100
AcDbLine
 10
74.1814243176
 20
98.3252273192
 30
0.0
 11
74.1814243176
 21
119.3252273192
 31
0.0
  0
LINE
  5
F3
330
1F
100
AcDbEntity
  8
0
  6
HIDDEN
 62
     7
370
     0
100
AcDbLine
 10
123.8968199687
 20
98.3252273192
 30
0.0
 11
123.8968199687
 21
119.3252273192
 31
0.0
  0
LINE
  5
F4
330
1F
100
AcDbEntity
  8
0
  6
HIDDEN
 62
     7
370
     0
100
AcDbLine
 10
127.1414673114
 20
103.7252273192
 30
0.0
 11
127.1414673114
 21
113.9252273192
 31
0.0
  0
SPLINE
  5
F5
330
1F
100
AcDbEntity
  8
0
  6
HIDDEN
 62
     7
370
     0
100
AcDbSpline
210
0.0
220
0.0
230
1.0
 70
     8
 71
     3
 72
     9
 73
     5
 74
     0
 42
0.000000001
 43
0.00000001
 40
0.0
 40
0.0
 40
0.0
 40
0.0
 40
0.4951995003022724
 40
1.0
 40
1.0
 40
1.0
 40
1.0
 10
192.7811041831133
 20
157.0312394836248
 30
0.0
 10
192.8863004047489
 20
157.1883952437449
 30
0.0
 10
193.0987324075508
 20
157.505753722548
 30
0.0
 10
193.3134507910647
 20
157.8243802706507
 30
0.0
 10
193.4218407383567
 20
157.9852231113499
 30
0.0
  0
SPLINE
  5
F6
330
1F
100
AcDbEntity
  8
0
  6
HIDDEN
 62
     7
370
     0
100
AcDbSpline
210
0.0
220
0.0
230
1.0
 70
     8
 71
     3
 72
     9
 73
     5
 74
     0
 42
0.000000001
 43
0.00000001
 40
0.0
 40
0.0
 40
0.0
 40
0.0
 40
0.5048005003628353
 40
1.0
 40
1.0
 40
1.0
 40
1.0
 10
193.4218407383568
 20
59.66523152707428
 30
0.0
 10
193.3134507909249
 20
59.82607436797889
 30
0.0
 10
193.0987324074171
 20
60.14470091606867
 30
0.0
 10
192.8863004046102
 20
60.46205939488425
 30
0.0
 10
192.7811041831133
 20
60.61921515479933
 30
0.0
  0
SPLINE
  5
F7
330
1F
100
AcDbEntity
  8
0
  6
HIDDEN
 62
     7
370
     0
100
AcDbSpline
210
0.0
220
0.0
230
1.0
 70
     8
 71
     3
 72
    11
 73
     7
 74
     0
 42
0.000000001
 43
0.00000001
 40
0.0
 40
0.0
 40
0.0
 40
0.0
 40
0.2411654505621944
 40
0.5672000804955173
 40
0.8933398523344386
 40
1.0
 40
1.0
 40
1.0
 40
1.0
 10
234.1400543243404
 20
88.97175319431331
 30
0.0
 10
234.1361393465393
 20
88.98384913032527
 30
0.0
 10
234.1269316606177
 20
89.0122977155752
 30
0.0
 10
234.156242850041
 20
89.60631160242826
 30
0.0
 10
234.1928409762008
 20
90.36551971997092
 30
0.0
 10
234.1960332557899
 20
90.89479225231219
 30
0.0
 10
234.196819968072
 20
91.0252273192121
 30
0.0
  0
LINE
  5
F8
330
1F
100
AcDbEntity
  8
0
  6
HIDDEN
 62
     7
370
     0
100
AcDbLine
 10
221.0968199687
 20
91.0252273192
 30
0.0
 11
221.0968199687
 21
96.6278594591
 31
0.0
  0
LINE
  5
F9
330
1F
100
AcDbEntity
  8
0
  6
HIDDEN
 62
     7
370
     0
100
AcDbLine
 10
221.0968199687
 20
126.6252273192
 30
0.0
 11
221.0968199687
 21
121.0225951793
 31
0.0
  0
SPLINE
  5
FA
330
1F
100
AcDbEntity
  8
0
  6
HIDDEN
 62
     7
370
     0
100
AcDbSpline
210
0.0
220
0.0
230
1.0
 70
    11
 71
     3
 72
    66
 73
    62
 74
     0
 42
0.000000001
 43
0.00000001
 40
0.0
 40
0.0
 40
0.0
 40
0.0
 40
0.0312500000000005
 40
0.0312500000000005
 40
0.062500000000001
 40
0.062500000000001
 40
0.1250000000000014
 40
0.1250000000000014
 40
0.1562500000000013
 40
0.1562500000000013
 40
0.1875000000000013
 40
0.1875000000000013
 40
0.2187500000000012
 40
0.2187500000000012
 40
0.2500000000000012
 40
0.2500000000000012
 40
0.2812500000000012
 40
0.2812500000000012
 40
0.3125000000000012
 40
0.3125000000000012
 40
0.3437500000000012
 40
0.3437500000000012
 40
0.3750000000000012
 40
0.3750000000000012
 40
0.4375000000000011
 40
0.4375000000000011
 40
0.4687500000000011
 40
0.4687500000000011
 40
0.5000000000000011
 40
0.5000000000000011
 40
0.531250000000001
 40
0.531250000000001
 40
0.562500000000001
 40
0.562500000000001
 40
0.5937500000000009
 40
0.5937500000000009
 40
0.6250000000000008
 40
0.6250000000000008
 40
0.6562500000000008
 40
0.6562500000000008
 40
0.6875000000000007
 40
0.6875000000000007
 40
0.7187500000000007
 40
0.7187500000000007
 40
0.7500000000000006
 40
0.7500000000000006
 40
0.7812500000000004
 40
0.7812500000000004
 40
0.8125000000000004
 40
0.8125000000000004
 40
0.8437500000000003
 40
0.8437500000000003
 40
0.8750000000000002
 40
0.8750000000000002
 40
0.9062500000000002
 40
0.9062500000000002
 40
0.9375000000000001
 40
0.9375000000000001
 40
0.9687500000000001
 40
0.9687500000000001
 40
1.0
 40
1.0
 40
1.0
 40
1.0
 10
185.8968199686762
 20
107.9963512855339
 30
0.0
 10
186.0648629057853
 20
107.9963512855339
 30
0.0
 10
186.2294440129473
 20
108.0153667626063
 30
0.0
 10
186.5522120529455
 20
108.0886990899943
 30
0.0
 10
186.7119719567529
 20
108.1439905811773
 30
0.0
 10
187.163302551635
 20
108.3543469403729
 30
0.0
 10
187.4360312537545
 20
108.5570106376048
 30
0.0
 10
187.7763187534029
 20
108.9191352599275
 30
0.0
 10
187.8798443839353
 20
109.0510883953089
 30
0.0
 10
188.0612607326915
 20
109.3305056263933
 30
0.0
 10
188.1381366845567
 20
109.4759370523907
 30
0.0
 10
188.2643440794938
 20
109.777739095525
 30
0.0
 10
188.3139892778612
 20
109.9362911882683
 30
0.0
 10
188.3797506587747
 20
110.2516282435085
 30
0.0
 10
188.3964923367021
 20
110.4086705603036
 30
0.0
 10
188.3971381709748
 20
110.7212629357048
 30
0.0
 10
188.3804857790086
 20
110.8764716973306
 30
0.0
 10
188.3156400595978
 20
111.1697649324332
 30
0.0
 10
188.2670403660647
 20
111.3110194850865
 30
0.0
 10
188.1401138586968
 20
111.5764951191514
 30
0.0
 10
188.0630240602826
 20
111.6988512410895
 30
0.0
 10
187.8825984613647
 20
111.9254243012484
 30
0.0
 10
187.7785853684447
 20
112.0297715300428
 30
0.0
 10
187.4382462372786
 20
112.3067596240653
 30
0.0
 10
187.1648741639206
 20
112.4504564762582
 30
0.0
 10
186.7167968426525
 20
112.5949181912412
 30
0.0
 10
186.5593686459055
 20
112.6320042013389
 30
0.0
 10
186.2330783044988
 20
112.6820542633574
 30
0.0
 10
186.0687744994352
 20
112.6944869580062
 30
0.0
 10
185.7378501913467
 20
112.6951292204552
 30
0.0
 10
185.5692218555661
 20
112.6828606961075
 30
0.0
 10
185.2449347345755
 20
112.6341316300876
 30
0.0
 10
185.0880252138825
 20
112.5979787059569
 30
0.0
 10
184.7840698347545
 20
112.5010418200121
 30
0.0
 10
184.6408772161318
 20
112.4413996488445
 30
0.0
 10
184.3727941018886
 20
112.3002533253737
 30
0.0
 10
184.2464102143627
 20
112.2176103016826
 30
0.0
 10
184.0183983835985
 20
112.0329298094477
 30
0.0
 10
183.9160964771689
 20
111.9308782295601
 30
0.0
 10
183.7347175116827
 20
111.7048518134124
 30
0.0
 10
183.6559017399393
 20
111.5803626341805
 30
0.0
 10
183.5295231027083
 20
111.3181902225528
 30
0.0
 10
183.4807840106784
 20
111.1792783526549
 30
0.0
 10
183.4141046444644
 20
110.883680457173
 30
0.0
 10
183.3971671055773
 20
110.7298440041594
 30
0.0
 10
183.3964834951124
 20
110.4189178921762
 30
0.0
 10
183.4128583053494
 20
110.2586153066376
 30
0.0
 10
183.4781617196995
 20
109.9414644156982
 30
0.0
 10
183.5263689545299
 20
109.7859200801734
 30
0.0
 10
183.6528627387229
 20
109.4811202607446
 30
0.0
 10
183.7312782360912
 20
109.3325446893217
 30
0.0
 10
183.9114966192417
 20
109.0542922696662
 30
0.0
 10
184.014644295468
 20
108.9221923689978
 30
0.0
 10
184.243637665989
 20
108.6780899384293
 30
0.0
 10
184.3675390334343
 20
108.5678675179145
 30
0.0
 10
184.6347164926964
 20
108.3715518289973
 30
0.0
 10
184.7798567978889
 20
108.2847426240027
 30
0.0
 10
185.0805764828274
 20
108.1444161103689
 30
0.0
 10
185.2364047373251
 20
108.0902015616798
 30
0.0
 10
185.5599456309508
 20
108.0159814058427
 30
0.0
 10
185.7287770315671
 20
107.9963512855339
 30
0.0
 10
185.8968199686762
 20
107.9963512855339
 30
0.0
  0
LINE
  5
FB
330
1F
100
AcDbEntity
  8
0
  6
HIDDEN
 62
     7
370
     0
100
AcDbLine
 10
221.0968199687
 20
88.9252273192
 30
0.0
 11
221.0968199687
 21
91.0252273192
 31
0.0
  0
LINE
  5
FC
330
1F
100
AcDbEntity
  8
0
  6
HIDDEN
 62
     7
370
     0
100
AcDbLine
 10
221.0968199687
 20
128.7252273192
 30
0.0
 11
221.0968199687
 21
126.6252273192
 31
0.0
  0
SPLINE
  5
FD
330
1F
100
AcDbEntity
  8
0
  6
HIDDEN
 62
     7
370
     0
100
AcDbSpline
210
0.0
220
0.0
230
1.0
 70
    11
 71
     3
 72
    66
 73
    62
 74
     0
 42
0.000000001
 43
0.00000001
 40
0.0
 40
0.0
 40
0.0
 40
0.0
 40
0.0312500000000001
 40
0.0312500000000001
 40
0.0625000000000003
 40
0.0625000000000003
 40
0.0937500000000004
 40
0.0937500000000004
 40
0.1250000000000006
 40
0.1250000000000006
 40
0.1562500000000007
 40
0.1562500000000007
 40
0.1875000000000008
 40
0.1875000000000008
 40
0.218750000000001
 40
0.218750000000001
 40
0.2500000000000011
 40
0.2500000000000011
 40
0.2812500000000012
 40
0.2812500000000012
 40
0.3125000000000014
 40
0.3125000000000014
 40
0.3437500000000016
 40
0.3437500000000016
 40
0.3750000000000017
 40
0.3750000000000017
 40
0.4062500000000018
 40
0.4062500000000018
 40
0.4375000000000019
 40
0.4375000000000019
 40
0.4687500000000021
 40
0.4687500000000021
 40
0.5000000000000022
 40
0.5000000000000022
 40
0.5312500000000023
 40
0.5312500000000023
 40
0.5625000000000024
 40
0.5625000000000024
 40
0.6250000000000026
 40
0.6250000000000026
 40
0.6562500000000023
 40
0.6562500000000023
 40
0.6875000000000021
 40
0.6875000000000021
 40
0.718750000000002
 40
0.718750000000002
 40
0.7500000000000018
 40
0.7500000000000018
 40
0.7812500000000016
 40
0.7812500000000016
 40
0.8125000000000013
 40
0.8125000000000013
 40
0.8437500000000012
 40
0.8437500000000012
 40
0.875000000000001
 40
0.875000000000001
 40
0.9062500000000008
 40
0.9062500000000008
 40
0.9375000000000006
 40
0.9375000000000006
 40
1.0
 40
1.0
 40
1.0
 40
1.0
 10
185.8968199686762
 20
120.9866815261259
 30
0.0
 10
185.7316196780123
 20
120.9866815261259
 30
0.0
 10
185.5691871367158
 20
121.0022471174078
 30
0.0
 10
185.2496289811258
 20
121.0631933892374
 30
0.0
 10
185.0908456431487
 20
121.1093154332227
 30
0.0
 10
184.7881076266694
 20
121.2295786208107
 30
0.0
 10
184.644528461535
 20
121.3031222702314
 30
0.0
 10
184.372798731667
 20
121.4766391931637
 30
0.0
 10
184.2441701681293
 20
121.5775118499503
 30
0.0
 10
184.0136044064621
 20
121.7974966388486
 30
0.0
 10
183.9101304052127
 20
121.9173758024374
 30
0.0
 10
183.7273698672869
 20
122.1772171690348
 30
0.0
 10
183.6497256110583
 20
122.3153065996071
 30
0.0
 10
183.5250329603683
 20
122.6002890318552
 30
0.0
 10
183.4770289797898
 20
122.7492841411977
 30
0.0
 10
183.4127972374715
 20
123.0538092285924
 30
0.0
 10
183.3969077934293
 20
123.2065785760289
 30
0.0
 10
183.3967328630742
 20
123.513068257643
 30
0.0
 10
183.4129635144091
 20
123.668395027938
 30
0.0
 10
183.4767447371187
 20
123.9684572338365
 30
0.0
 10
183.5239368485149
 20
124.1139919463357
 30
0.0
 10
183.6491034661729
 20
124.3961252266576
 30
0.0
 10
183.7273629535479
 20
124.5322650680124
 30
0.0
 10
183.9082831369032
 20
124.7838016177819
 30
0.0
 10
184.0115683658271
 20
124.9008284616252
 30
0.0
 10
184.2448201078758
 20
125.1169037552466
 30
0.0
 10
184.3712339761414
 20
125.212607679132
 30
0.0
 10
184.641906246836
 20
125.3797606759036
 30
0.0
 10
184.7879880190004
 20
125.4519218615267
 30
0.0
 10
185.0908724644732
 20
125.5675759034832
 30
0.0
 10
185.2467028241129
 20
125.6111087106659
 30
0.0
 10
185.5670483133783
 20
125.6700046135992
 30
0.0
 10
185.73275839935
 20
125.6850907166192
 30
0.0
 10
186.0590897880464
 20
125.6851982482859
 30
0.0
 10
186.2212768738734
 20
125.6707075910962
 30
0.0
 10
186.543652455082
 20
125.611979526819
 30
0.0
 10
186.7016679291195
 20
125.5678487196897
 30
0.0
 10
187.1530788041951
 20
125.3959191210918
 30
0.0
 10
187.4321582612473
 20
125.2243454284208
 30
0.0
 10
187.7782319657456
 20
124.9046946100544
 30
0.0
 10
187.8838739816603
 20
124.785653480666
 30
0.0
 10
188.0656574576311
 20
124.5333337198076
 30
0.0
 10
188.142545281015
 20
124.3998694084362
 30
0.0
 10
188.2681998383854
 20
124.118103995884
 30
0.0
 10
188.3165079143
 20
123.9696832642529
 30
0.0
 10
188.3803257997404
 20
123.6706336664764
 30
0.0
 10
188.3966539767832
 20
123.5184305966091
 30
0.0
 10
188.3969834668429
 20
123.2084287377694
 30
0.0
 10
188.3808869550083
 20
123.0549060706714
 30
0.0
 10
188.317658217747
 20
122.7533773530922
 30
0.0
 10
188.2698216243365
 20
122.6034425277904
 30
0.0
 10
188.1444783064231
 20
122.3162234316996
 30
0.0
 10
188.0677816318979
 20
122.1798445173833
 30
0.0
 10
187.8867302652461
 20
121.9214889593691
 30
0.0
 10
187.7812546548852
 20
121.7988137829948
 30
0.0
 10
187.550728086209
 20
121.5785600989427
 30
0.0
 10
187.4250086485787
 20
121.4796345275089
 30
0.0
 10
187.1522417993818
 20
121.3047958465872
 30
0.0
 10
187.0065224229758
 20
121.2301190016068
 30
0.0
 10
186.5554533178678
 20
121.0504927861141
 30
0.0
 10
186.227220550004
 20
120.9866815261259
 30
0.0
 10
185.8968199686762
 20
120.9866815261259
 30
0.0
  0
SPLINE
  5
FE
330
1F
100
AcDbEntity
  8
0
  6
HIDDEN
 62
     7
370
     0
100
AcDbSpline
210
0.0
220
0.0
230
1.0
 70
    11
 71
     3
 72
    60
 73
    56
 74
     0
 42
0.000000001
 43
0.00000001
 40
0.0
 40
0.0
 40
0.0
 40
0.0
 40
0.0312500000000007
 40
0.0312500000000007
 40
0.0625000000000013
 40
0.0625000000000013
 40
0.093750000000002
 40
0.093750000000002
 40
0.1250000000000027
 40
0.1250000000000027
 40
0.1562500000000033
 40
0.1562500000000033
 40
0.187500000000004
 40
0.187500000000004
 40
0.2187500000000047
 40
0.2187500000000047
 40
0.2500000000000053
 40
0.2500000000000053
 40
0.3125000000000061
 40
0.3125000000000061
 40
0.3750000000000069
 40
0.3750000000000069
 40
0.406250000000007
 40
0.406250000000007
 40
0.4375000000000071
 40
0.4375000000000071
 40
0.4531250000000071
 40
0.4531250000000071
 40
0.4687500000000071
 40
0.4687500000000071
 40
0.5000000000000061
 40
0.5000000000000061
 40
0.5625000000000056
 40
0.5625000000000056
 40
0.6250000000000049
 40
0.6250000000000049
 40
0.6875000000000042
 40
0.6875000000000042
 40
0.7187500000000038
 40
0.7187500000000038
 40
0.7500000000000033
 40
0.7500000000000033
 40
0.7812500000000029
 40
0.7812500000000029
 40
0.8125000000000024
 40
0.8125000000000024
 40
0.843750000000002
 40
0.843750000000002
 40
0.8750000000000016
 40
0.8750000000000016
 40
0.9062500000000011
 40
0.9062500000000011
 40
0.9375000000000007
 40
0.9375000000000007
 40
1.0
 40
1.0
 40
1.0
 40
1.0
 10
183.4778449084565
 20
118.2947025194892
 30
0.0
 10
183.5174349913033
 20
118.1632219881352
 30
0.0
 10
183.5697466122234
 20
118.0440381374556
 30
0.0
 10
183.695466717826
 20
117.8288446501276
 30
0.0
 10
183.7698897482702
 20
117.7322567445194
 30
0.0
 10
183.9286000564632
 20
117.5716958327644
 30
0.0
 10
184.0134786562688
 20
117.5064165960624
 30
0.0
 10
184.1852518758106
 20
117.4089144215051
 30
0.0
 10
184.2692621121066
 20
117.3784393247079
 30
0.0
 10
184.4146580353852
 20
117.3586903563505
 30
0.0
 10
184.4729242838945
 20
117.3704669058467
 30
0.0
 10
184.5395290087046
 20
117.43488724863
 30
0.0
 10
184.5466898931024
 20
117.4856003867098
 30
0.0
 10
184.5235445737201
 20
117.6086238990848
 30
0.0
 10
184.4946364877505
 20
117.6790951253702
 30
0.0
 10
184.4192157299053
 20
117.8327167880346
 30
0.0
 10
184.372270257129
 20
117.9163520562186
 30
0.0
 10
184.2206283655075
 20
118.1797322952287
 30
0.0
 10
184.1047012282443
 20
118.3732812206522
 30
0.0
 10
183.871075657262
 20
118.8101506925481
 30
0.0
 10
183.7523928905601
 20
119.0531558267355
 30
0.0
 10
183.5959215816045
 20
119.4642303652653
 30
0.0
 10
183.5479349330523
 20
119.6079019307486
 30
0.0
 10
183.4673259232621
 20
119.9083648587075
 30
0.0
 10
183.4346263943669
 20
120.0668641129818
 30
0.0
 10
183.406205785023
 20
120.3020746348111
 30
0.0
 10
183.4000597130495
 20
120.3813222426076
 30
0.0
 10
183.3955815112846
 20
120.5329998130671
 30
0.0
 10
183.3970977216968
 20
120.6062078853755
 30
0.0
 10
183.4128606613732
 20
120.8179636166025
 30
0.0
 10
183.4383347160586
 20
120.9438617624639
 30
0.0
 10
183.5446994598074
 20
121.2655921284831
 30
0.0
 10
183.650577489078
 20
121.4036058448431
 30
0.0
 10
183.8737477100231
 20
121.5894176959733
 30
0.0
 10
183.9946341421503
 20
121.6383417307296
 30
0.0
 10
184.223716615832
 20
121.6743930565205
 30
0.0
 10
184.3338794340825
 20
121.6625148733188
 30
0.0
 10
184.4618626014336
 20
121.5979073117694
 30
0.0
 10
184.498203946846
 20
121.5679000980059
 30
0.0
 10
184.5412939500061
 20
121.487371974456
 30
0.0
 10
184.547778758608
 20
121.4357915572042
 30
0.0
 10
184.5117380059071
 20
121.3062443475786
 30
0.0
 10
184.4675187907819
 20
121.2263855230851
 30
0.0
 10
184.3418688159697
 20
121.0442560477802
 30
0.0
 10
184.2607446844883
 20
120.94020360776
 30
0.0
 10
184.0937993143939
 20
120.7172397120808
 30
0.0
 10
184.005911149664
 20
120.5954363300354
 30
0.0
 10
183.8402716524149
 20
120.3378751069758
 30
0.0
 10
183.7623255642775
 20
120.2023962466619
 30
0.0
 10
183.623069830606
 20
119.9156419253139
 30
0.0
 10
183.5640441117069
 20
119.7691898874228
 30
0.0
 10
183.4702591580038
 20
119.4689451575208
 30
0.0
 10
183.4354460998942
 20
119.3132433013956
 30
0.0
 10
183.3771284952176
 20
118.857480314134
 30
0.0
 10
183.3986647427628
 20
118.5576635821972
 30
0.0
 10
183.4778449084565
 20
118.2947025194892
 30
0.0
  0
LWPOLYLINE
  5
FF
330
1F
100
AcDbEntity
  8
0
  6
HIDDEN
 62
     7
370
     0
100
AcDbPolyline
 90
       20
 70
   128
 43
0.0
 10
166.6790776692
 20
121.6118781784
 10
166.8358318108
 20
121.1257748484
 10
167.0841195821
 20
120.8209224847
 10
167.3970351506
 20
120.7303565709
 10
167.740669259
 20
120.8638913293
 10
168.0777838196
 20
121.2070561967
 10
168.3718472389
 20
121.722663935
 10
168.5909931826
 20
122.3548404452
 10
168.7114737873
 20
123.0350795933
 10
168.7202331099
 20
123.6896669125
 10
168.616321942
 20
124.2476677099
 10
168.411000671
 20
124.6486139408
 10
168.1265190425
 20
124.8490568597
 10
167.793705055
 20
124.8272753662
 10
167.4486242684
 20
124.5856298231
 10
167.1286715402
 20
124.1503062744
 10
166.8685187133
 20
123.5684787815
 10
166.696357383
 20
122.9031973812
 10
166.6308439008
 20
122.2265556361
 10
166.6790776692
 20
121.6118781784
  0
LWPOLYLINE
  5
100
330
1F
100
AcDbEntity
  8
0
  6
HIDDEN
 62
     7
370
     0
100
AcDbPolyline
 90
       23
 70
   128
 43
0.0
 10
165.9662070805
 20
121.1594026573
 10
166.1512013965
 20
120.5458352402
 10
166.4371083211
 20
120.1192925621
 10
166.8007653759
 20
119.9143305738
 10
167.2127112288
 20
119.9475540768
 10
167.6395724769
 20
120.2162715004
 10
168.0467673606
 20
120.6987129571
 10
168.4013073719
 20
121.3557939093
 10
168.6744697877
 20
122.134281566
 10
168.8441246136
 20
122.9711074872
 10
168.8965274247
 20
123.7984770134
 10
168.8274328568
 20
124.5493615863
 10
168.6424385409
 20
125.1629290034
 10
168.3565316162
 20
125.5894716815
 10
167.9928745615
 20
125.7944336698
 10
167.5809287085
 20
125.7612101668
 10
167.1540674604
 20
125.4924927432
 10
166.7468725768
 20
125.0100512865
 10
166.3923325655
 20
124.3529703343
 10
166.1191701497
 20
123.5744826776
 10
165.9495153237
 20
122.7376567564
 10
165.8971125126
 20
121.9102872302
 10
165.9662070805
 20
121.1594026573
  0
LWPOLYLINE
  5
101
330
1F
100
AcDbEntity
  8
0
  6
HIDDEN
 62
     7
370
     0
100
AcDbPolyline
 90
       23
 70
   128
 43
0.0
 10
186.9228803987
 20
97.0479324689
 10
186.0870917276
 20
97.2122679508
 10
185.2358883703
 20
97.1486783228
 10
184.4382297604
 20
96.8623152382
 10
183.7587374545
 20
96.3763781312
 10
183.2524598783
 20
95.7302347362
 10
182.96041263
 20
94.9762317483
 10
182.9062556408
 20
94.1754540053
 10
183.0943763879
 20
93.3927757576
 10
183.5095344471
 20
92.691604942
 10
184.1180961815
 20
92.128746248
 10
184.8707595387
 20
91.7497991396
 10
185.7065482097
 20
91.5854636577
 10
186.557751567
 20
91.6490532858
 10
187.355410177
 20
91.9354163703
 10
188.0349024828
 20
92.4213534773
 10
188.541180059
 20
93.0674968723
 10
188.8332273073
 20
93.8214998603
 10
188.8873842965
 20
94.6222776032
 10
188.6992635495
 20
95.4049558509
 10
188.2841054903
 20
96.1061266665
 10
187.6755437558
 20
96.6689853605
 10
186.9228803987
 20
97.0479324689
  0
LWPOLYLINE
  5
102
330
1F
100
AcDbEntity
  8
0
  6
HIDDEN
 62
     7
370
     0
100
AcDbPolyline
 90
       23
 70
   128
 43
0.0
 10
186.9228803987
 20
98.3065184659
 10
186.0870917276
 20
98.4708539477
 10
185.2358883703
 20
98.4072643197
 10
184.4382297604
 20
98.1209012351
 10
183.7587374545
 20
97.6349641281
 10
183.2524598783
 20
96.9888207331
 10
182.96041263
 20
96.2348177452
 10
182.9062556408
 20
95.4340400022
 10
183.0943763879
 20
94.6513617545
 10
183.5095344471
 20
93.9501909389
 10
184.1180961815
 20
93.387332245
 10
184.8707595387
 20
93.0083851365
 10
185.7065482097
 20
92.8440496546
 10
186.557751567
 20
92.9076392827
 10
187.355410177
 20
93.1940023672
 10
188.0349024828
 20
93.6799394742
 10
188.541180059
 20
94.3260828693
 10
188.8332273073
 20
95.0800858572
 10
188.8873842965
 20
95.8808636001
 10
188.6992635495
 20
96.6635418478
 10
188.2841054903
 20
97.3647126634
 10
187.6755437558
 20
97.9275713574
 10
186.9228803987
 20
98.3065184659
  0
LINE
  5
103
330
1F
100
AcDbEntity
  8
0
  6
HIDDEN
 62
     7
370
     0
100
AcDbLine
 10
186.4892162341
 20
96.5028508665
 30
0.0
 11
186.4892162341
 21
95.8188105798
 31
0.0
  0
LINE
  5
104
330
1F
100
AcDbEntity
  8
0
  6
HIDDEN
 62
     7
370
     0
100
AcDbLine
 10
184.7834791702
 20
96.2202218978
 30
0.0
 11
184.7834791702
 21
95.5361816111
 31
0.0
  0
LINE
  5
105
330
1F
100
AcDbEntity
  8
0
  6
HIDDEN
 62
     7
370
     0
100
AcDbLine
 10
187.6025570326
 20
95.2560404832
 30
0.0
 11
187.4177645017
 21
94.7789460362
 31
0.0
  0
LINE
  5
106
330
1F
100
AcDbEntity
  8
0
  6
HIDDEN
 62
     7
370
     0
100
AcDbLine
 10
187.6025570326
 20
95.2560404832
 30
0.0
 11
187.6025570326
 21
94.5720001966
 31
0.0
  0
LINE
  5
107
330
1F
100
AcDbEntity
  8
0
  6
HIDDEN
 62
     7
370
     0
100
AcDbLine
 10
184.1910829048
 20
94.6907825458
 30
0.0
 11
184.3758754357
 21
94.4838367062
 31
0.0
  0
LINE
  5
108
330
1F
100
AcDbEntity
  8
0
  6
HIDDEN
 62
     7
370
     0
100
AcDbLine
 10
184.1910829048
 20
94.6907825458
 30
0.0
 11
184.1910829048
 21
94.0067422592
 31
0.0
  0
LINE
  5
109
330
1F
100
AcDbEntity
  8
0
  6
HIDDEN
 62
     7
370
     0
100
AcDbLine
 10
184.7834791702
 20
96.2202218978
 30
0.0
 11
184.1910829048
 21
94.6907825458
 31
0.0
  0
LINE
  5
10A
330
1F
100
AcDbEntity
  8
0
  6
HIDDEN
 62
     7
370
     0
100
AcDbLine
 10
187.6025570326
 20
95.2560404832
 30
0.0
 11
186.4892162341
 21
96.5028508665
 31
0.0
  0
LINE
  5
10B
330
1F
100
AcDbEntity
  8
0
  6
HIDDEN
 62
     7
370
     0
100
AcDbLine
 10
184.7834791702
 20
96.2202218978
 30
0.0
 11
186.4892162341
 21
96.5028508665
 31
0.0
  0
LWPOLYLINE
  5
10C
330
1F
100
AcDbEntity
  8
0
  6
HIDDEN
 62
     7
370
     0
100
AcDbPolyline
 90
       19
 70
   128
 43
0.0
 10
186.5808602553
 20
97.7655163876
 10
185.8968199687
 20
97.8788571861
 10
185.212779682
 20
97.7655163876
 10
184.6112447493
 20
97.4391645653
 10
184.1647691611
 20
96.9391645653
 10
183.9272044627
 20
96.3258237668
 10
183.9272044627
 20
95.6731201222
 10
184.1647691611
 20
95.0597793237
 10
184.6112447493
 20
94.5597793237
 10
185.212779682
 20
94.2334275014
 10
185.8968199687
 20
94.1200867029
 10
186.5808602553
 20
94.2334275014
 10
187.182395188
 20
94.5597793237
 10
187.6288707762
 20
95.0597793237
 10
187.8664354747
 20
95.6731201222
 10
187.8664354747
 20
96.3258237668
 10
187.6288707762
 20
96.9391645653
 10
187.182395188
 20
97.4391645653
 10
186.5808602553
 20
97.7655163876
  0
LWPOLYLINE
  5
10D
330
1F
100
AcDbEntity
  8
0
  6
HIDDEN
 62
     7
370
     0
100
AcDbPolyline
 90
       23
 70
   128
 43
0.0
 10
184.8707595387
 20
119.3439361726
 10
184.1180961815
 20
119.722883281
 10
183.5095344471
 20
120.285741975
 10
183.0943763879
 20
120.9869127906
 10
182.9062556408
 20
121.7695910383
 10
182.96041263
 20
122.5703687813
 10
183.2524598783
 20
123.3243717692
 10
183.7587374545
 20
123.9705151642
 10
184.4382297604
 20
124.4564522712
 10
185.2358883703
 20
124.7428153557
 10
186.0870917276
 20
124.8064049838
 10
186.9228803987
 20
124.6420695019
 10
187.6755437558
 20
124.2631223935
 10
188.2841054903
 20
123.7002636995
 10
188.6992635495
 20
122.9990928839
 10
188.8873842965
 20
122.2164146362
 10
188.8332273073
 20
121.4156368932
 10
188.541180059
 20
120.6616339053
 10
188.0349024828
 20
120.0154905103
 10
187.355410177
 20
119.5295534033
 10
186.557751567
 20
119.2431903188
 10
185.7065482097
 20
119.1796006907
 10
184.8707595387
 20
119.3439361726
  0
LWPOLYLINE
  5
10E
330
1F
100
AcDbEntity
  8
0
  6
HIDDEN
 62
     7
370
     0
100
AcDbPolyline
 90
       19
 70
   128
 43
0.0
 10
185.212779682
 20
119.8849382508
 10
184.6112447493
 20
120.2112900731
 10
184.1647691611
 20
120.7112900731
 10
183.9272044627
 20
121.3246308716
 10
183.9272044627
 20
121.9773345163
 10
184.1647691611
 20
122.5906753147
 10
184.6112447493
 20
123.0906753147
 10
185.212779682
 20
123.417027137
 10
185.8968199687
 20
123.5303679355
 10
186.5808602553
 20
123.417027137
 10
187.182395188
 20
123.0906753147
 10
187.6288707762
 20
122.5906753147
 10
187.8664354747
 20
121.9773345163
 10
187.8664354747
 20
121.3246308716
 10
187.6288707762
 20
120.7112900731
 10
187.182395188
 20
120.2112900731
 10
186.5808602553
 20
119.8849382508
 10
185.8968199687
 20
119.7715974524
 10
185.212779682
 20
119.8849382508
  0
LWPOLYLINE
  5
10F
330
1F
100
AcDbEntity
  8
0
  6
HIDDEN
 62
     7
370
     0
100
AcDbPolyline
 90
       23
 70
   128
 43
0.0
 10
184.8707595387
 20
120.6025221695
 10
184.1180961815
 20
120.9814692779
 10
183.5095344471
 20
121.5443279719
 10
183.0943763879
 20
122.2454987875
 10
182.9062556408
 20
123.0281770352
 10
182.96041263
 20
123.8289547782
 10
183.2524598783
 20
124.5829577661
 10
183.7587374545
 20
125.2291011611
 10
184.4382297604
 20
125.7150382681
 10
185.2358883703
 20
126.0014013526
 10
186.0870917276
 20
126.0649909807
 10
186.9228803987
 20
125.9006554988
 10
187.6755437558
 20
125.5217083904
 10
188.2841054903
 20
124.9588496964
 10
188.6992635495
 20
124.2576788808
 10
188.8873842965
 20
123.4750006331
 10
188.8332273073
 20
122.6742228901
 10
188.541180059
 20
121.9202199022
 10
188.0349024828
 20
121.2740765072
 10
187.355410177
 20
120.7881394002
 10
186.557751567
 20
120.5017763157
 10
185.7065482097
 20
120.4381866876
 10
184.8707595387
 20
120.6025221695
  0
LINE
  5
110
330
1F
100
AcDbEntity
  8
0
  6
HIDDEN
 62
     7
370
     0
100
AcDbLine
 10
184.7834791702
 20
123.9238535071
 30
0.0
 11
186.4892162341
 21
124.2064824759
 31
0.0
  0
LINE
  5
111
330
1F
100
AcDbEntity
  8
0
  6
HIDDEN
 62
     7
370
     0
100
AcDbLine
 10
186.4892162341
 20
124.2064824759
 30
0.0
 11
186.4892162341
 21
124.8905227625
 31
0.0
  0
LINE
  5
112
330
1F
100
AcDbEntity
  8
0
  6
HIDDEN
 62
     7
370
     0
100
AcDbLine
 10
187.6025570326
 20
122.9596720926
 30
0.0
 11
186.4892162341
 21
124.2064824759
 31
0.0
  0
LINE
  5
113
330
1F
100
AcDbEntity
  8
0
  6
HIDDEN
 62
     7
370
     0
100
AcDbLine
 10
184.7834791702
 20
123.9238535071
 30
0.0
 11
184.7834791702
 21
124.6078937938
 31
0.0
  0
LINE
  5
114
330
1F
100
AcDbEntity
  8
0
  6
HIDDEN
 62
     7
370
     0
100
AcDbLine
 10
184.1910829048
 20
122.3944141552
 30
0.0
 11
184.7834791702
 21
123.9238535071
 31
0.0
  0
LINE
  5
115
330
1F
100
AcDbEntity
  8
0
  6
HIDDEN
 62
     7
370
     0
100
AcDbLine
 10
187.0101607671
 20
121.4302327407
 30
0.0
 11
187.0101607671
 21
122.1142730273
 31
0.0
  0
LINE
  5
116
330
1F
100
AcDbEntity
  8
0
  6
HIDDEN
 62
     7
370
     0
100
AcDbLine
 10
187.0101607671
 20
122.1142730273
 30
0.0
 11
187.6025570326
 21
123.6437123793
 31
0.0
  0
LINE
  5
117
330
1F
100
AcDbEntity
  8
0
  6
HIDDEN
 62
     7
370
     0
100
AcDbLine
 10
187.6025570326
 20
122.9596720926
 30
0.0
 11
187.6025570326
 21
123.6437123793
 31
0.0
  0
LINE
  5
118
330
1F
100
AcDbEntity
  8
0
  6
HIDDEN
 62
     7
370
     0
100
AcDbLine
 10
187.0101607671
 20
121.4302327407
 30
0.0
 11
187.6025570326
 21
122.9596720926
 31
0.0
  0
LINE
  5
119
330
1F
100
AcDbEntity
  8
0
  6
HIDDEN
 62
     7
370
     0
100
AcDbLine
 10
185.3044237032
 20
121.1476037719
 30
0.0
 11
185.3044237032
 21
121.8316440586
 31
0.0
  0
LINE
  5
11A
330
1F
100
AcDbEntity
  8
0
  6
HIDDEN
 62
     7
370
     0
100
AcDbLine
 10
184.1910829048
 20
123.0784544418
 30
0.0
 11
185.3044237032
 21
121.8316440586
 31
0.0
  0
LINE
  5
11B
330
1F
100
AcDbEntity
  8
0
  6
HIDDEN
 62
     7
370
     0
100
AcDbLine
 10
184.1910829048
 20
122.3944141552
 30
0.0
 11
184.1910829048
 21
123.0784544418
 31
0.0
  0
LINE
  5
11C
330
1F
100
AcDbEntity
  8
0
  6
HIDDEN
 62
     7
370
     0
100
AcDbLine
 10
184.1910829048
 20
122.3944141552
 30
0.0
 11
185.3044237032
 21
121.1476037719
 31
0.0
  0
LINE
  5
11D
330
1F
100
AcDbEntity
  8
0
  6
HIDDEN
 62
     7
370
     0
100
AcDbLine
 10
187.0101607671
 20
122.1142730273
 30
0.0
 11
185.3044237032
 21
121.8316440586
 31
0.0
  0
LINE
  5
11E
330
1F
100
AcDbEntity
  8
0
  6
HIDDEN
 62
     7
370
     0
100
AcDbLine
 10
187.0101607671
 20
121.4302327407
 30
0.0
 11
185.3044237032
 21
121.1476037719
 31
0.0
  0
LWPOLYLINE
  5
11F
330
1F
100
AcDbEntity
  8
0
  6
HIDDEN
 62
     7
370
     0
100
AcDbPolyline
 90
       21
 70
   128
 43
0.0
 10
185.0604097082
 20
121.2016525677
 10
184.3912198308
 20
121.5502202749
 10
183.869408585
 20
122.0760478828
 10
183.5460544913
 20
122.7276637216
 10
183.4528097012
 20
123.4412830928
 10
183.5988016645
 20
124.1470519603
 10
183.9697396707
 20
124.77588475
 10
184.5293137232
 20
125.2662269271
 10
185.222748815
 20
125.5700803829
 10
185.9821666879
 20
125.657701824
 10
186.7332302292
 20
125.5205142534
 10
187.4024201066
 20
125.1719465462
 10
187.9242313524
 20
124.6461189383
 10
188.2475854461
 20
123.9945030995
 10
188.3408302362
 20
123.2808837283
 10
188.1948382728
 20
122.5751148608
 10
187.8239002666
 20
121.9462820711
 10
187.2643262141
 20
121.455939894
 10
186.5708911223
 20
121.1520864382
 10
185.8114732495
 20
121.0644649971
 10
185.0604097082
 20
121.2016525677
  0
LINE
  5
120
330
1F
100
AcDbEntity
  8
0
  6
HIDDEN
 62
     7
370
     0
100
AcDbLine
 10
184.1910829048
 20
123.0784544418
 30
0.0
 11
184.7834791702
 21
124.6078937938
 31
0.0
  0
LINE
  5
121
330
1F
100
AcDbEntity
  8
0
  6
HIDDEN
 62
     7
370
     0
100
AcDbLine
 10
187.6025570326
 20
123.6437123793
 30
0.0
 11
186.4892162341
 21
124.8905227625
 31
0.0
  0
LINE
  5
122
330
1F
100
AcDbEntity
  8
0
  6
HIDDEN
 62
     7
370
     0
100
AcDbLine
 10
184.7834791702
 20
124.6078937938
 30
0.0
 11
186.4892162341
 21
124.8905227625
 31
0.0
  0
LWPOLYLINE
  5
123
330
1F
100
AcDbEntity
  8
0
  6
HIDDEN
 62
     7
370
     0
100
AcDbPolyline
 90
       19
 70
   128
 43
0.0
 10
167.7482456659
 20
96.4024999113
 10
167.3968199687
 20
96.7271408523
 10
167.0453942714
 20
96.8188664526
 10
166.7363556997
 20
96.6666132509
 10
166.5069788663
 20
96.2887452304
 10
166.3849300025
 20
95.7308388511
 10
166.3849300025
 20
95.0601858562
 10
166.5069788663
 20
94.3576768947
 10
166.7363556997
 20
93.7080449152
 10
167.0453942714
 20
93.189645122
 10
167.3968199687
 20
92.8650041809
 10
167.7482456659
 20
92.7732785807
 10
168.0572842376
 20
92.9255317824
 10
168.2866610711
 20
93.3033998029
 10
168.4087099349
 20
93.8613061821
 10
168.4087099349
 20
94.531959177
 10
168.2866610711
 20
95.2344681386
 10
168.0572842376
 20
95.8841001181
 10
167.7482456659
 20
96.4024999113
  0
LWPOLYLINE
  5
124
330
1F
100
AcDbEntity
  8
0
  6
HIDDEN
 62
     7
370
     0
100
AcDbPolyline
 90
       21
 70
   128
 43
0.0
 10
168.0468451478
 20
96.7942998074
 10
167.6629443396
 20
97.1619661222
 10
167.2747732739
 20
97.302343054
 10
166.9203288393
 20
97.2016895308
 10
166.6343065267
 20
96.8698582206
 10
166.4447041927
 20
96.3393310841
 10
166.3700814349
 20
95.6620398138
 10
166.4177428488
 20
94.9042823983
 10
166.583023003
 20
94.1402334129
 10
166.8497431245
 20
93.4446832958
 10
167.1917947895
 20
92.8857173386
 10
167.5756955978
 20
92.5180510238
 10
167.9638666634
 20
92.3776740919
 10
168.318311098
 20
92.4783276152
 10
168.6043334107
 20
92.8101589253
 10
168.7939357447
 20
93.3406860618
 10
168.8685585024
 20
94.0179773321
 10
168.8208970886
 20
94.7757347477
 10
168.6556169344
 20
95.5397837331
 10
168.3888968128
 20
96.2353338502
 10
168.0468451478
 20
96.7942998074
  0
LWPOLYLINE
  5
125
330
1F
100
AcDbEntity
  8
0
  6
HIDDEN
 62
     7
370
     0
100
AcDbPolyline
 90
       21
 70
   128
 43
0.0
 10
171.5049531139
 20
97.4771565556
 10
171.1210523056
 20
97.8448228704
 10
170.73288124
 20
97.9851998022
 10
170.3784368054
 20
97.884546279
 10
170.0924144928
 20
97.5527149688
 10
169.9028121588
 20
97.0221878323
 10
169.828189401
 20
96.3448965621
 10
169.8758508148
 20
95.5871391465
 10
170.0411309691
 20
94.8230901611
 10
170.3078510906
 20
94.127540044
 10
170.6499027556
 20
93.5685740868
 10
171.0338035639
 20
93.200907772
 10
171.4219746295
 20
93.0605308401
 10
171.7764190641
 20
93.1611843634
 10
172.0624413768
 20
93.4930156736
 10
172.2520437107
 20
94.02354281
 10
172.3266664685
 20
94.7008340803
 10
172.2790050547
 20
95.4585914959
 10
172.1137249005
 20
96.2226404813
 10
171.8470047789
 20
96.9181905984
 10
171.5049531139
 20
97.4771565556
  0
LINE
  5
126
330
1F
100
AcDbEntity
  8
0
  6
HIDDEN
 62
     7
370
     0
100
AcDbLine
 10
166.686096192
 20
94.9815784871
 30
0.0
 11
167.1499881914
 21
93.6677619464
 31
0.0
  0
LINE
  5
127
330
1F
100
AcDbEntity
  8
0
  6
HIDDEN
 62
     7
370
     0
100
AcDbLine
 10
167.860711968
 20
93.4822559759
 30
0.0
 11
167.1499881914
 21
93.6677619464
 31
0.0
  0
LINE
  5
128
330
1F
100
AcDbEntity
  8
0
  6
HIDDEN
 62
     7
370
     0
100
AcDbLine
 10
168.1075437453
 20
94.6105665462
 30
0.0
 11
167.860711968
 21
93.4822559759
 31
0.0
  0
LINE
  5
129
330
1F
100
AcDbEntity
  8
0
  6
HIDDEN
 62
     7
370
     0
100
AcDbLine
 10
168.1075437453
 20
94.6105665462
 30
0.0
 11
167.6436517459
 21
95.9243830869
 31
0.0
  0
LINE
  5
12A
330
1F
100
AcDbEntity
  8
0
  6
HIDDEN
 62
     7
370
     0
100
AcDbLine
 10
166.9329279693
 20
96.1098890573
 30
0.0
 11
167.6436517459
 21
95.9243830869
 31
0.0
  0
LINE
  5
12B
330
1F
100
AcDbEntity
  8
0
  6
HIDDEN
 62
     7
370
     0
100
AcDbLine
 10
166.9329279693
 20
96.1098890573
 30
0.0
 11
166.686096192
 21
94.9815784871
 31
0.0
  0
LINE
  5
12C
330
1F
100
AcDbEntity
  8
0
  6
HIDDEN
 62
     7
370
     0
100
AcDbLine
 10
169.8395945529
 20
94.9525866895
 30
0.0
 11
168.1075437453
 21
94.6105665462
 31
0.0
  0
LWPOLYLINE
  5
12D
330
1F
100
AcDbEntity
  8
0
  6
HIDDEN
 62
     7
370
     0
100
AcDbPolyline
 90
       18
 70
   128
 43
0.0
 10
172.026214613
 20
97.019126739
 10
171.7089816254
 20
97.3058809214
 10
171.3941749595
 20
97.3691508602
 10
171.124311
 20
97.2003915997
 10
170.9358363699
 20
96.8223950132
 10
170.8542056124
 20
96.2862116341
 10
170.8904434137
 20
95.6642559989
 10
171.0396556579
 20
95.0405266626
 10
171.2816904045
 20
94.4992617282
 10
171.5838595199
 20
94.1135620244
 10
171.9053533908
 20
93.9355184333
 10
172.2027524882
 20
93.9891767286
 10
172.4358914163
 20
94.26729006
 10
172.5732834709
 20
94.7322976813
 10
172.5963730938
 20
95.3213977363
 10
172.5020419033
 20
95.9550289984
 10
172.3030298495
 20
96.5476160544
 10
172.026214613
 20
97.019126739
  0
LINE
  5
12E
330
1F
100
AcDbEntity
  8
0
  6
HIDDEN
 62
     7
370
     0
100
AcDbLine
 10
169.3757025535
 20
96.2664032302
 30
0.0
 11
167.6436517459
 21
95.9243830869
 31
0.0
  0
LINE
  5
12F
330
1F
100
AcDbEntity
  8
0
  6
HIDDEN
 62
     7
370
     0
100
AcDbLine
 10
169.5927627756
 20
93.8242761193
 30
0.0
 11
168.882038999
 21
94.0097820897
 31
0.0
  0
LINE
  5
130
330
1F
100
AcDbEntity
  8
0
  6
HIDDEN
 62
     7
370
     0
100
AcDbLine
 10
168.4181469996
 20
95.3235986304
 30
0.0
 11
168.882038999
 21
94.0097820897
 31
0.0
  0
LINE
  5
131
330
1F
100
AcDbEntity
  8
0
  6
HIDDEN
 62
     7
370
     0
100
AcDbLine
 10
168.6649787769
 20
96.4519092006
 30
0.0
 11
168.4181469996
 21
95.3235986304
 31
0.0
  0
LINE
  5
132
330
1F
100
AcDbEntity
  8
0
  6
HIDDEN
 62
     7
370
     0
100
AcDbLine
 10
168.6649787769
 20
96.4519092006
 30
0.0
 11
169.3757025535
 21
96.2664032302
 31
0.0
  0
LINE
  5
133
330
1F
100
AcDbEntity
  8
0
  6
HIDDEN
 62
     7
370
     0
100
AcDbLine
 10
169.8395945529
 20
94.9525866895
 30
0.0
 11
169.5927627756
 21
93.8242761193
 31
0.0
  0
LINE
  5
134
330
1F
100
AcDbEntity
  8
0
  6
HIDDEN
 62
     7
370
     0
100
AcDbLine
 10
169.8395945529
 20
94.9525866895
 30
0.0
 11
169.3757025535
 21
96.2664032302
 31
0.0
  0
LINE
  5
135
330
1F
100
AcDbEntity
  8
0
  6
HIDDEN
 62
     7
370
     0
100
AcDbLine
 10
168.882038999
 20
94.0097820897
 30
0.0
 11
167.1499881914
 21
93.6677619464
 31
0.0
  0
LINE
  5
136
330
1F
100
AcDbEntity
  8
0
  6
HIDDEN
 62
     7
370
     0
100
AcDbLine
 10
169.5927627756
 20
93.8242761193
 30
0.0
 11
167.860711968
 21
93.4822559759
 31
0.0
  0
LINE
  5
137
330
1F
100
AcDbEntity
  8
0
  6
HIDDEN
 62
     7
370
     0
100
AcDbLine
 10
168.4181469996
 20
95.3235986304
 30
0.0
 11
166.686096192
 21
94.9815784871
 31
0.0
  0
LINE
  5
138
330
1F
100
AcDbEntity
  8
0
  6
HIDDEN
 62
     7
370
     0
100
AcDbLine
 10
168.6649787769
 20
96.4519092006
 30
0.0
 11
166.9329279693
 21
96.1098890573
 31
0.0
  0
LWPOLYLINE
  5
139
330
1F
100
AcDbEntity
  8
0
  6
HIDDEN
 62
     7
370
     0
100
AcDbPolyline
 90
       21
 70
   128
 43
0.0
 10
170.6499027556
 20
119.6667694438
 10
170.3078510906
 20
119.8204751431
 10
170.0411309691
 20
120.2000172524
 10
169.8758508148
 20
120.7682435456
 10
169.828189401
 20
121.469532074
 10
169.9028121588
 20
122.2352358303
 10
170.0924144928
 20
122.9904023959
 10
170.3784368054
 20
123.6611108058
 10
170.73288124
 20
124.1817074478
 10
171.1210523056
 20
124.5012326952
 10
171.5049531139
 20
124.5884091907
 10
171.8470047789
 20
124.4347034914
 10
172.1137249005
 20
124.0551613821
 10
172.2790050547
 20
123.4869350889
 10
172.3266664685
 20
122.7856465605
 10
172.2520437107
 20
122.0199428042
 10
172.0624413768
 20
121.2647762385
 10
171.7764190641
 20
120.5940678286
 10
171.4219746295
 20
120.0734711867
 10
171.0338035639
 20
119.7539459393
 10
170.6499027556
 20
119.6667694438
  0
LWPOLYLINE
  5
13A
330
1F
100
AcDbEntity
  8
0
  6
HIDDEN
 62
     7
370
     0
100
AcDbPolyline
 90
       18
 70
   128
 43
0.0
 10
171.4276793622
 20
120.2767578521
 10
171.1508641257
 20
120.420299912
 10
170.9518520719
 20
120.7770989732
 10
170.8575208814
 20
121.2989673454
 10
170.8806105042
 20
121.915423813
 10
171.0180025588
 20
122.5432125144
 10
171.2511414869
 20
123.0975471065
 10
171.5485405844
 20
123.5035616312
 10
171.8700344553
 20
123.706421577
 10
172.1722035707
 20
123.6787295842
 10
172.4142383173
 20
123.4242256098
 10
172.5634505615
 20
122.9772818259
 10
172.5996883628
 20
122.398260467
 10
172.5180576053
 20
121.7653615762
 10
172.3295829752
 20
121.1640616557
 10
172.0597190157
 20
120.6755695916
 10
171.7449123498
 20
120.365858944
 10
171.4276793622
 20
120.2767578521
  0
LWPOLYLINE
  5
13B
330
1F
100
AcDbEntity
  8
0
  6
HIDDEN
 62
     7
370
     0
100
AcDbPolyline
 90
       21
 70
   128
 43
0.0
 10
167.1917947895
 20
120.349626192
 10
166.8497431245
 20
120.5033318913
 10
166.583023003
 20
120.8828740006
 10
166.4177428488
 20
121.4511002938
 10
166.3700814349
 20
122.1523888222
 10
166.4447041927
 20
122.9180925785
 10
166.6343065267
 20
123.6732591441
 10
166.9203288393
 20
124.3439675541
 10
167.2747732739
 20
124.864564196
 10
167.6629443396
 20
125.1840894434
 10
168.0468451478
 20
125.2712659389
 10
168.3888968128
 20
125.1175602396
 10
168.6556169344
 20
124.7380181303
 10
168.8208970886
 20
124.1697918371
 10
168.8685585024
 20
123.4685033087
 10
168.7939357447
 20
122.7027995524
 10
168.6043334107
 20
121.9476329867
 10
168.318311098
 20
121.2769245768
 10
167.9638666634
 20
120.7563279349
 10
167.5756955978
 20
120.4368026875
 10
167.1917947895
 20
120.349626192
  0
LWPOLYLINE
  5
13C
330
1F
100
AcDbEntity
  8
0
  6
HIDDEN
 62
     7
370
     0
100
AcDbPolyline
 90
       19
 70
   128
 43
0.0
 10
167.0453942714
 20
120.8315881859
 10
166.7363556997
 20
120.9838413876
 10
166.5069788663
 20
121.361709408
 10
166.3849300025
 20
121.9196157873
 10
166.3849300025
 20
122.5902687822
 10
166.5069788663
 20
123.2927777438
 10
166.7363556997
 20
123.9424097233
 10
167.0453942714
 20
124.4608095165
 10
167.3968199687
 20
124.7854504575
 10
167.7482456659
 20
124.8771760578
 10
168.0572842376
 20
124.7249228561
 10
168.2866610711
 20
124.3470548356
 10
168.4087099349
 20
123.7891484563
 10
168.4087099349
 20
123.1184954614
 10
168.2866610711
 20
122.4159864998
 10
168.0572842376
 20
121.7663545203
 10
167.7482456659
 20
121.2479547271
 10
167.3968199687
 20
120.9233137861
 10
167.0453942714
 20
120.8315881859
  0
LINE
  5
13D
330
1F
100
AcDbEntity
  8
0
  6
HIDDEN
 62
     7
370
     0
100
AcDbLine
 10
168.6649787769
 20
123.2765627432
 30
0.0
 11
169.3757025535
 21
123.9331169948
 31
0.0
  0
LINE
  5
13E
330
1F
100
AcDbEntity
  8
0
  6
HIDDEN
 62
     7
370
     0
100
AcDbLine
 10
168.4181469996
 20
121.8558077268
 30
0.0
 11
168.6649787769
 21
123.2765627432
 31
0.0
  0
LINE
  5
13F
330
1F
100
AcDbEntity
  8
0
  6
HIDDEN
 62
     7
370
     0
100
AcDbLine
 10
168.6649787769
 20
123.2765627432
 30
0.0
 11
166.9329279693
 21
123.6185828865
 31
0.0
  0
LINE
  5
140
330
1F
100
AcDbEntity
  8
0
  6
HIDDEN
 62
     7
370
     0
100
AcDbLine
 10
168.4181469996
 20
121.8558077268
 30
0.0
 11
166.686096192
 21
122.1978278702
 31
0.0
  0
LINE
  5
141
330
1F
100
AcDbEntity
  8
0
  6
HIDDEN
 62
     7
370
     0
100
AcDbLine
 10
168.4181469996
 20
121.8558077268
 30
0.0
 11
168.882038999
 21
121.0916069621
 31
0.0
  0
LINE
  5
142
330
1F
100
AcDbEntity
  8
0
  6
HIDDEN
 62
     7
370
     0
100
AcDbLine
 10
166.686096192
 20
122.1978278702
 30
0.0
 11
167.1499881914
 21
121.4336271055
 31
0.0
  0
LINE
  5
143
330
1F
100
AcDbEntity
  8
0
  6
HIDDEN
 62
     7
370
     0
100
AcDbLine
 10
166.686096192
 20
122.1978278702
 30
0.0
 11
166.9329279693
 21
123.6185828865
 31
0.0
  0
LINE
  5
144
330
1F
100
AcDbEntity
  8
0
  6
HIDDEN
 62
     7
370
     0
100
AcDbLine
 10
166.9329279693
 20
123.6185828865
 30
0.0
 11
167.6436517459
 21
124.2751371381
 31
0.0
  0
LINE
  5
145
330
1F
100
AcDbEntity
  8
0
  6
HIDDEN
 62
     7
370
     0
100
AcDbLine
 10
169.8395945529
 20
123.1689162301
 30
0.0
 11
168.1075437453
 21
123.5109363734
 31
0.0
  0
LINE
  5
146
330
1F
100
AcDbEntity
  8
0
  6
HIDDEN
 62
     7
370
     0
100
AcDbLine
 10
168.1075437453
 20
123.5109363734
 30
0.0
 11
167.6436517459
 21
124.2751371381
 31
0.0
  0
LINE
  5
147
330
1F
100
AcDbEntity
  8
0
  6
HIDDEN
 62
     7
370
     0
100
AcDbLine
 10
169.8395945529
 20
123.1689162301
 30
0.0
 11
169.3757025535
 21
123.9331169948
 31
0.0
  0
LINE
  5
148
330
1F
100
AcDbEntity
  8
0
  6
HIDDEN
 62
     7
370
     0
100
AcDbLine
 10
169.3757025535
 20
123.9331169948
 30
0.0
 11
167.6436517459
 21
124.2751371381
 31
0.0
  0
LINE
  5
149
330
1F
100
AcDbEntity
  8
0
  6
HIDDEN
 62
     7
370
     0
100
AcDbLine
 10
169.5927627756
 20
121.7481612138
 30
0.0
 11
167.860711968
 21
122.0901813571
 31
0.0
  0
LINE
  5
14A
330
1F
100
AcDbEntity
  8
0
  6
HIDDEN
 62
     7
370
     0
100
AcDbLine
 10
167.860711968
 20
122.0901813571
 30
0.0
 11
167.1499881914
 21
121.4336271055
 31
0.0
  0
LINE
  5
14B
330
1F
100
AcDbEntity
  8
0
  6
HIDDEN
 62
     7
370
     0
100
AcDbLine
 10
168.882038999
 20
121.0916069621
 30
0.0
 11
167.1499881914
 21
121.4336271055
 31
0.0
  0
LINE
  5
14C
330
1F
100
AcDbEntity
  8
0
  6
HIDDEN
 62
     7
370
     0
100
AcDbLine
 10
169.5927627756
 20
121.7481612138
 30
0.0
 11
168.882038999
 21
121.0916069621
 31
0.0
  0
LINE
  5
14D
330
1F
100
AcDbEntity
  8
0
  6
HIDDEN
 62
     7
370
     0
100
AcDbLine
 10
167.860711968
 20
122.0901813571
 30
0.0
 11
168.1075437453
 21
123.5109363734
 31
0.0
  0
LINE
  5
14E
330
1F
100
AcDbEntity
  8
0
  6
HIDDEN
 62
     7
370
     0
100
AcDbLine
 10
169.5927627756
 20
121.7481612138
 30
0.0
 11
169.8395945529
 21
123.1689162301
 31
0.0
  0
LINE
  5
14F
330
1F
100
AcDbEntity
  8
0
  6
HIDDEN
 62
     7
370
     0
100
AcDbLine
 10
165.6968199687
 20
91.4024517164
 30
0.0
 11
167.9779938473
 21
91.8529046786
 31
0.0
  0
LINE
  5
150
330
1F
100
AcDbEntity
  8
0
  6
HIDDEN
 62
     7
370
     0
100
AcDbLine
 10
166.8156460901
 20
97.7392403547
 30
0.0
 11
165.6968199687
 21
97.5183108827
 31
0.0
  0
LINE
  5
151
330
1F
100
AcDbEntity
  8
0
  6
HIDDEN
 62
     7
370
     0
100
AcDbLine
 10
188.3968199687
 20
94.28953241
 30
0.0
 11
188.3968199687
 21
107.0813707046
 31
0.0
  0
LINE
  5
152
330
1F
100
AcDbEntity
  8
0
  6
HIDDEN
 62
     7
370
     0
100
AcDbLine
 10
183.3968199687
 20
97.1263533694
 30
0.0
 11
183.3968199687
 21
94.2894038817
 31
0.0
  0
LINE
  5
153
330
1F
100
AcDbEntity
  8
0
  6
HIDDEN
 62
     7
370
     0
100
AcDbLine
 10
183.3968199687
 20
107.0823166225
 30
0.0
 11
183.3968199687
 21
98.7844844769
 31
0.0
  0
LINE
  5
154
330
1F
100
AcDbEntity
  8
0
  6
HIDDEN
 62
     7
370
     0
100
AcDbLine
 10
168.0873284059
 20
92.7918733483
 30
0.0
 11
184.3132497198
 21
95.9959317449
 31
0.0
  0
LINE
  5
155
330
1F
100
AcDbEntity
  8
0
  6
HIDDEN
 62
     7
370
     0
100
AcDbLine
 10
184.3116893092
 20
100.2767250341
 30
0.0
 11
167.2736849758
 21
96.9123083215
 31
0.0
  0
LINE
  5
156
330
1F
100
AcDbEntity
  8
0
  6
HIDDEN
 62
     7
370
     0
100
AcDbLine
 10
207.0651674711
 20
123.3252273192
 30
0.0
 11
205.1968199687
 21
123.3252273192
 31
0.0
  0
LINE
  5
157
330
1F
100
AcDbEntity
  8
0
  6
HIDDEN
 62
     7
370
     0
100
AcDbLine
 10
205.1968199687
 20
94.3252273192
 30
0.0
 11
207.0651674711
 21
94.3252273192
 31
0.0
  0
ARC
  5
158
330
1F
100
AcDbEntity
  8
0
  6
HIDDEN
 62
     7
370
     0
100
AcDbCircle
 10
205.1968199687
 20
122.3252273192
 30
0.0
 40
1.0
100
AcDbArc
 50
90.0
 51
180.0
  0
ARC
  5
159
330
1F
100
AcDbEntity
  8
0
  6
HIDDEN
 62
     7
370
     0
100
AcDbCircle
 10
205.1968199687
 20
95.3252273192
 30
0.0
 40
1.0
100
AcDbArc
 50
180.0
 51
270.0
  0
ARC
  5
15A
330
1F
100
AcDbEntity
  8
0
  6
HIDDEN
 62
     7
370
     0
100
AcDbCircle
 10
207.0651674711
 20
122.3252273192
 30
0.0
 40
1.000000000000009
100
AcDbArc
 50
75.0
 51
90.0
  0
ARC
  5
15B
330
1F
100
AcDbEntity
  8
0
  6
HIDDEN
 62
     7
370
     0
100
AcDbCircle
 10
207.0651674711
 20
95.3252273192
 30
0.0
 40
1.000000000000009
100
AcDbArc
 50
270.0
 51
285.0
  0
LINE
  5
15C
330
1F
100
AcDbEntity
  8
0
  6
HIDDEN
 62
     7
370
     0
100
AcDbLine
 10
207.3239865162
 20
94.3593014929
 30
0.0
 11
209.0628453725
 21
94.8252273192
 31
0.0
  0
LINE
  5
15D
330
1F
100
AcDbEntity
  8
0
  6
HIDDEN
 62
     7
370
     0
100
AcDbLine
 10
209.0628453725
 20
122.8252273192
 30
0.0
 11
207.3239865162
 21
123.2911531455
 31
0.0
  0
LINE
  5
15E
330
1F
100
AcDbEntity
  8
0
  6
HIDDEN
 62
     7
370
     0
100
AcDbLine
 10
221.0968199687
 20
122.8252273192
 30
0.0
 11
209.0628453725
 21
122.8252273192
 31
0.0
  0
LINE
  5
15F
330
1F
100
AcDbEntity
  8
0
  6
HIDDEN
 62
     7
370
     0
100
AcDbLine
 10
209.0628453725
 20
94.8252273192
 30
0.0
 11
221.0968199687
 21
94.8252273192
 31
0.0
  0
ARC
  5
160
330
1F
100
AcDbEntity
  8
0
  6
HIDDEN
 62
     7
370
     0
100
AcDbCircle
 10
62.0968199687
 20
95.1252273192
 30
0.0
 40
1.20000000000001
100
AcDbArc
 50
90.0
 51
180.0
  0
ARC
  5
161
330
1F
100
AcDbEntity
  8
0
  6
HIDDEN
 62
     7
370
     0
100
AcDbCircle
 10
62.0968199687
 20
122.5252273192
 30
0.0
 40
1.20000000000001
100
AcDbArc
 50
180.0
 51
270.0
  0
ARC
  5
162
330
1F
100
AcDbEntity
  8
0
  6
HIDDEN
 62
     7
370
     0
100
AcDbCircle
 10
193.6968199687
 20
71.5252273192
 30
0.0
 40
2.0
100
AcDbArc
 50
0.0
 51
90.0
  0
ARC
  5
163
330
1F
100
AcDbEntity
  8
0
  6
HIDDEN
 62
     7
370
     0
100
AcDbCircle
 10
193.6968199687
 20
146.1252273192
 30
0.0
 40
2.0
100
AcDbArc
 50
270.0
 51
0.0
  0
LINE
  5
164
330
1F
100
AcDbEntity
  8
0
  6
HIDDEN
 62
     7
370
     0
100
AcDbLine
 10
195.6968199687
 20
146.1252273192
 30
0.0
 11
195.6968199687
 21
157.9253306697
 31
0.0
  0
LINE
  5
165
330
1F
100
AcDbEntity
  8
0
  6
HIDDEN
 62
     7
370
     0
100
AcDbLine
 10
195.6968199687
 20
59.7250119321
 30
0.0
 11
195.6968199687
 21
71.5252273192
 31
0.0
  0
ARC
  5
166
330
1F
100
AcDbEntity
  8
0
  6
HIDDEN
 62
     7
370
     0
100
AcDbCircle
 10
71.7891923994
 20
96.5002273192
 30
0.0
 40
0.4000000000000199
100
AcDbArc
 50
255.0
 51
270.0
  0
ARC
  5
167
330
1F
100
AcDbEntity
  8
0
  6
HIDDEN
 62
     7
370
     0
100
AcDbCircle
 10
71.7891923994
 20
121.1502273192
 30
0.0
 40
0.4000000000000057
100
AcDbArc
 50
90.0
 51
105.0
  0
ARC
  5
168
330
1F
100
AcDbEntity
  8
0
  6
HIDDEN
 62
     7
370
     0
100
AcDbCircle
 10
72.665879861
 20
96.5002273192
 30
0.0
 40
0.4000000000000199
100
AcDbArc
 50
270.0
 51
330.0
  0
ARC
  5
169
330
1F
100
AcDbEntity
  8
0
  6
HIDDEN
 62
     7
370
     0
100
AcDbCircle
 10
72.665879861
 20
121.1502273192
 30
0.0
 40
0.4000000000000057
100
AcDbArc
 50
30.0
 51
90.0
  0
LINE
  5
16A
330
1F
100
AcDbEntity
  8
0
  6
HIDDEN
 62
     7
370
     0
100
AcDbLine
 10
71.7891923994
 20
96.1002273192
 30
0.0
 11
72.665879861
 21
96.1002273192
 31
0.0
  0
LINE
  5
16B
330
1F
100
AcDbEntity
  8
0
  6
HIDDEN
 62
     7
370
     0
100
AcDbLine
 10
72.665879861
 20
121.5502273192
 30
0.0
 11
71.7891923994
 21
121.5502273192
 31
0.0
  0
LINE
  5
16C
330
1F
100
AcDbEntity
  8
0
  6
HIDDEN
 62
     7
370
     0
100
AcDbLine
 10
71.6856647814
 20
121.5365976497
 30
0.0
 11
70.8968199687
 21
121.3252273192
 31
0.0
  0
LINE
  5
16D
330
1F
100
AcDbEntity
  8
0
  6
HIDDEN
 62
     7
370
     0
100
AcDbLine
 10
70.8968199687
 20
96.3252273192
 30
0.0
 11
71.6856647814
 21
96.1138569887
 31
0.0
  0
LINE
  5
16E
330
1F
100
AcDbEntity
  8
0
  6
HIDDEN
 62
     7
370
     0
100
AcDbLine
 10
73.0122900225
 20
96.3002273192
 30
0.0
 11
74.1814243176
 21
98.3252273192
 31
0.0
  0
LINE
  5
16F
330
1F
100
AcDbEntity
  8
0
  6
HIDDEN
 62
     7
370
     0
100
AcDbLine
 10
74.1814243176
 20
119.3252273192
 30
0.0
 11
73.0122900225
 21
121.3502273192
 31
0.0
  0
LINE
  5
170
330
1F
100
AcDbEntity
  8
0
  6
HIDDEN
 62
     7
370
     0
100
AcDbLine
 10
62.0968199687
 20
96.3252273192
 30
0.0
 11
70.8968199687
 21
96.3252273192
 31
0.0
  0
LINE
  5
171
330
1F
100
AcDbEntity
  8
0
  6
HIDDEN
 62
     7
370
     0
100
AcDbLine
 10
70.8968199687
 20
121.3252273192
 30
0.0
 11
62.0968199687
 21
121.3252273192
 31
0.0
  0
LINE
  5
172
330
1F
100
AcDbEntity
  8
0
  6
HIDDEN
 62
     7
370
     0
100
AcDbLine
 10
74.1814243176
 20
98.3252273192
 30
0.0
 11
123.8968199687
 21
98.3252273192
 31
0.0
  0
LINE
  5
173
330
1F
100
AcDbEntity
  8
0
  6
HIDDEN
 62
     7
370
     0
100
AcDbLine
 10
123.8968199687
 20
119.3252273192
 30
0.0
 11
74.1814243176
 21
119.3252273192
 31
0.0
  0
LINE
  5
174
330
1F
100
AcDbEntity
  8
0
  6
HIDDEN
 62
     7
370
     0
100
AcDbLine
 10
123.8968199687
 20
98.3252273192
 30
0.0
 11
127.1414673114
 21
103.7252273192
 31
0.0
  0
LINE
  5
175
330
1F
100
AcDbEntity
  8
0
  6
HIDDEN
 62
     7
370
     0
100
AcDbLine
 10
127.1414673114
 20
113.9252273192
 30
0.0
 11
123.8968199687
 21
119.3252273192
 31
0.0
  0
LINE
  5
176
330
1F
100
AcDbEntity
  8
0
  6
HIDDEN
 62
     7
370
     0
100
AcDbLine
 10
195.6968242891
 20
157.8252278429
 30
0.0
 11
196.6968241384
 21
158.8252276218
 31
0.0
  0
LINE
  5
177
330
1F
100
AcDbEntity
  8
0
  6
HIDDEN
 62
     7
370
     0
100
AcDbLine
 10
196.6968241391
 20
58.825227016
 30
0.0
 11
195.6968242898
 21
59.8252267948
 31
0.0
  0
LINE
  5
178
330
1F
100
AcDbEntity
  8
0
  6
HIDDEN
 62
     7
370
     0
100
AcDbLine
 10
234.6968199687
 20
129.2844619873
 30
0.0
 11
234.1268693511
 21
128.7145345914
 31
0.0
  0
LINE
  5
179
330
1F
100
AcDbEntity
  8
0
  6
HIDDEN
 62
     7
370
     0
100
AcDbLine
 10
234.1271809332
 20
88.9356057842
 30
0.0
 11
234.6968199687
 21
88.3659912193
 31
0.0
  0
LINE
  5
17A
330
1F
100
AcDbEntity
  8
0
  6
HIDDEN
 62
     7
370
     0
100
AcDbLine
 10
127.1414673114
 20
103.7252273192
 30
0.0
 11
204.1968199687
 21
103.7252273192
 31
0.0
  0
LINE
  5
17B
330
1F
100
AcDbEntity
  8
0
  6
HIDDEN
 62
     7
370
     0
100
AcDbLine
 10
204.1968199687
 20
113.9252273192
 30
0.0
 11
127.1414673114
 21
113.9252273192
 31
0.0
  0
LINE
  5
17C
330
1F
100
AcDbEntity
  8
0
  6
HIDDEN
 62
     7
370
     0
100
AcDbLine
 10
221.0968199687
 20
88.9252273192
 30
0.0
 11
234.1404753289
 21
88.9252273192
 31
0.0
  0
LINE
  5
17D
330
1F
100
AcDbEntity
  8
0
  6
HIDDEN
 62
     7
370
     0
100
AcDbLine
 10
234.1390917153
 20
128.7252273192
 30
0.0
 11
221.0968199687
 21
128.7252273192
 31
0.0
  0
LINE
  5
17E
330
1F
100
AcDbEntity
  8
0
  6
HIDDEN
 62
     7
370
     0
100
AcDbLine
 10
188.3968199687
 20
110.568138016
 30
0.0
 11
188.3968199687
 21
123.3610507567
 31
0.0
  0
LINE
  5
17F
330
1F
100
AcDbEntity
  8
0
  6
HIDDEN
 62
     7
370
     0
100
AcDbLine
 10
183.3968199687
 20
118.8673077972
 30
0.0
 11
183.3968199687
 21
110.5690839338
 31
0.0
  0
LINE
  5
180
330
1F
100
AcDbEntity
  8
0
  6
HIDDEN
 62
     7
370
     0
100
AcDbLine
 10
183.3968199687
 20
123.3609222284
 30
0.0
 11
183.3968199687
 21
120.5239055784
 31
0.0
  0
LINE
  5
181
330
1F
100
AcDbEntity
  8
0
  6
HIDDEN
 62
     7
370
     0
100
AcDbLine
 10
167.2736849758
 20
120.7381463169
 30
0.0
 11
184.3116236932
 21
117.3737425612
 31
0.0
  0
LINE
  5
182
330
1F
100
AcDbEntity
  8
0
  6
HIDDEN
 62
     7
370
     0
100
AcDbLine
 10
184.3132030594
 20
121.6545321074
 30
0.0
 11
168.0873284059
 21
124.8585812902
 31
0.0
  0
LINE
  5
183
330
1F
100
AcDbEntity
  8
0
  6
HIDDEN
 62
     7
370
     0
100
AcDbLine
 10
165.6968199687
 20
120.1321437558
 30
0.0
 11
166.8156460901
 21
119.9112142838
 31
0.0
  0
LINE
  5
184
330
1F
100
AcDbEntity
  8
0
  6
HIDDEN
 62
     7
370
     0
100
AcDbLine
 10
167.9779938473
 20
125.7975499598
 30
0.0
 11
165.6968199687
 21
126.248002922
 31
0.0
  0
LINE
  5
185
330
1F
100
AcDbEntity
  8
0
  6
HIDDEN
 62
     7
370
     0
100
AcDbLine
 10
188.8968199687
 20
94.3988658043
 30
0.0
 11
188.8968199687
 21
95.6574518012
 31
0.0
  0
LINE
  5
186
330
1F
100
AcDbEntity
  8
0
  6
HIDDEN
 62
     7
370
     0
100
AcDbLine
 10
182.8968199687
 20
95.6574518012
 30
0.0
 11
182.8968199687
 21
94.3988658043
 31
0.0
  0
LINE
  5
187
330
1F
100
AcDbEntity
  8
0
  6
HIDDEN
 62
     7
370
     0
100
AcDbLine
 10
182.8968199687
 20
123.2515888342
 30
0.0
 11
182.8968199687
 21
121.9930028373
 31
0.0
  0
LINE
  5
188
330
1F
100
AcDbEntity
  8
0
  6
HIDDEN
 62
     7
370
     0
100
AcDbLine
 10
188.8968199687
 20
121.9930028373
 30
0.0
 11
188.8968199687
 21
123.2515888342
 31
0.0
  0
LINE
  5
189
330
1F
100
AcDbEntity
  8
0
  6
HIDDEN
 62
     7
370
     0
100
AcDbLine
 10
166.3693199687
 20
95.5805039048
 30
0.0
 11
166.3693199687
 21
95.4047596794
 31
0.0
  0
LINE
  5
18A
330
1F
100
AcDbEntity
  8
0
  6
HIDDEN
 62
     7
370
     0
100
AcDbLine
 10
166.6778102458
 20
93.8425100747
 30
0.0
 11
166.7446122767
 21
93.6799569405
 31
0.0
  0
LINE
  5
18B
330
1F
100
AcDbEntity
  8
0
  6
HIDDEN
 62
     7
370
     0
100
AcDbLine
 10
168.1036315342
 20
92.387368708
 30
0.0
 11
171.5617395003
 21
93.0702254562
 31
0.0
  0
LINE
  5
18C
330
1F
100
AcDbEntity
  8
0
  6
HIDDEN
 62
     7
370
     0
100
AcDbLine
 10
170.5931163692
 20
97.9755051862
 30
0.0
 11
167.1350084032
 21
97.292648438
 31
0.0
  0
LINE
  5
18D
330
1F
100
AcDbEntity
  8
0
  6
HIDDEN
 62
     7
370
     0
100
AcDbLine
 10
172.1007889713
 20
93.5676134275
 30
0.0
 11
172.4432997132
 21
94.2824465494
 31
0.0
  0
LINE
  5
18E
330
1F
100
AcDbEntity
  8
0
  6
HIDDEN
 62
     7
370
     0
100
AcDbLine
 10
171.8692846525
 20
97.1893608607
 30
0.0
 11
171.2807674561
 21
97.720348158
 31
0.0
  0
LINE
  5
18F
330
1F
100
AcDbEntity
  8
0
  6
HIDDEN
 62
     7
370
     0
100
AcDbLine
 10
171.2807674561
 20
119.9301064805
 30
0.0
 11
171.8692846525
 21
120.4610937778
 31
0.0
  0
LINE
  5
190
330
1F
100
AcDbEntity
  8
0
  6
HIDDEN
 62
     7
370
     0
100
AcDbLine
 10
172.4432997132
 20
123.368008089
 30
0.0
 11
172.1007889713
 21
124.0828412109
 31
0.0
  0
LINE
  5
191
330
1F
100
AcDbEntity
  8
0
  6
HIDDEN
 62
     7
370
     0
100
AcDbLine
 10
167.1350084032
 20
120.3578062004
 30
0.0
 11
170.5931163692
 21
119.6749494522
 31
0.0
  0
LINE
  5
192
330
1F
100
AcDbEntity
  8
0
  6
HIDDEN
 62
     7
370
     0
100
AcDbLine
 10
171.5617395003
 20
124.5802291823
 30
0.0
 11
168.1036315342
 21
125.2630859305
 31
0.0
  0
LINE
  5
193
330
1F
100
AcDbEntity
  8
0
  6
HIDDEN
 62
     7
370
     0
100
AcDbLine
 10
166.7446122767
 20
123.9704976979
 30
0.0
 11
166.6778102458
 21
123.8079445637
 31
0.0
  0
LINE
  5
194
330
1F
100
AcDbEntity
  8
0
  6
HIDDEN
 62
     7
370
     0
100
AcDbLine
 10
166.3693199687
 20
122.245694959
 30
0.0
 11
166.3693199687
 21
122.0699507336
 31
0.0
  0
DIMENSION
  5
195
330
1F
100
AcDbEntity
  8
VERMASSUNG
100
AcDbDimension
  2
_D
 10
248.0272409938
 20
83.8252273192
 30
0.0
 11
248.0272409938
 21
108.8252273192
 31
0.0
 70
   160
  1
ST5 %%c<>
 71
     2
 42
-1.0
  3
SLDDIMSTYLE0
100
AcDbAlignedDimension
 13
234.1968199687
 23
133.8252273192
 33
0.0
 14
234.1968199687
 24
83.8252273192
 34
0.0
 50
90.0
100
AcDbRotatedDimension
  0
DIMENSION
  5
1A2
330
1F
100
AcDbEntity
  8
VERMASSUNG
100
AcDbDimension
  2
_D_1
 10
242.0272409938
 20
94.8252273192
 30
0.0
 11
242.0272409938
 21
108.8252273192
 31
0.0
 70
   160
  1
%%c<>
 71
     2
 42
-1.0
  3
SLDDIMSTYLE0
100
AcDbAlignedDimension
 13
221.0968199687
 23
122.8252273192
 33
0.0
 14
221.0968199687
 24
94.8252273192
 34
0.0
 50
90.0
100
AcDbRotatedDimension
  0
DIMENSION
  5
1AD
330
1F
100
AcDbEntity
  8
VERMASSUNG
100
AcDbDimension
  2
_D_2
 10
234.6968199687
 20
164.0600296053
 30
0.0
 11
217.6968199687
 21
164.0600296053
 31
0.0
 70
   160
  1
(<>)
 71
     2
 42
-1.0
  3
SLDDIMSTYLE0
100
AcDbAlignedDimension
 13
200.6968199687
 23
157.8252273192
 33
0.0
 14
234.6968199687
 24
133.3252273192
 34
0.0
100
AcDbRotatedDimension
  0
DIMENSION
  5
1B9
330
1F
100
AcDbEntity
  8
VERMASSUNG
100
AcDbDimension
  2
_D_3
 10
234.6968199687
 20
170.0600296053
 30
0.0
 11
198.6968199687
 21
170.0600296053
 31
0.0
 70
   160
  1
<>
 71
     2
 42
-1.0
  3
SLDDIMSTYLE0
100
AcDbAlignedDimension
 13
162.6968199687
 23
143.7502273192
 33
0.0
 14
234.6968199687
 24
133.3252273192
 34
0.0
100
AcDbRotatedDimension
  0
DIMENSION
  5
1C3
330
1F
100
AcDbEntity
  8
VERMASSUNG
100
AcDbDimension
  2
_D_4
 10
234.6968199687
 20
176.0600296053
 30
0.0
 11
147.7968199687
 21
176.0600296053
 31
0.0
 70
   160
  1
(<>)
 71
     2
 42
-1.0
  3
SLDDIMSTYLE0
100
AcDbAlignedDimension
 13
60.8968199687
 23
127.1749051799
 33
0.0
 14
234.6968199687
 24
133.3252273192
 34
0.0
100
AcDbRotatedDimension
  0
DIMENSION
  5
1CF
330
1F
100
AcDbEntity
  8
VERMASSUNG
100
AcDbDimension
  2
_D_5
 10
53.5844522654
 20
58.8252273192
 30
0.0
 11
53.5844522654
 21
108.8252273192
 31
0.0
 70
   160
  1
MAS BT 50 %%c<>
 71
     2
 42
-1.0
  3
SLDDIMSTYLE0
100
AcDbAlignedDimension
 13
196.6968218772
 23
158.8252273192
 33
0.0
 14
196.6968220307
 24
58.8252273192
 34
0.0
 50
90.0
100
AcDbRotatedDimension
  0
LINE
  5
1DB
330
1F
100
AcDbEntity
  8
VERMASSUNG
  6
CENTERX2
370
     0
100
AcDbLine
 10
58.8968199687
 20
108.8252273192
 30
0.0
 11
236.2717504422
 21
108.8252273192
 31
0.0
  0
LINE
  5
1DC
330
1F
100
AcDbEntity
  8
VERMASSUNG
  6
CENTERX2
370
     0
100
AcDbLine
 10
163.7347080767
 20
123.5775225913
 30
0.0
 11
188.4435415515
 21
118.6983823666
 31
0.0
  0
LINE
  5
1DD
330
1F
100
AcDbEntity
  8
VERMASSUNG
  6
CENTERX2
370
     0
100
AcDbLine
 10
165.7183947988
 20
94.4646415825
 30
0.0
 11
186.2771557605
 21
98.5242859878
 31
0.0
  0
LINE
  5
1DE
330
1F
100
AcDbEntity
  8
VERMASSUNG
  6
CENTERX2
370
     0
100
AcDbLine
 10
185.8968199687
 20
97.7444643121
 30
0.0
 11
185.8968199687
 21
122.9356131262
 31
0.0
  0
LINE
  5
1DF
330
1F
100
AcDbEntity
  8
0
  6
Continuous
 62
     7
370
    15
100
AcDbLine
 10
277.8527403702
 20
39.7342775211
 30
0.0
 11
277.6759349507
 21
39.8363782949
 31
0.0
  0
LINE
  5
1E0
330
1F
100
AcDbEntity
  8
0
  6
Continuous
 62
     7
370
    15
100
AcDbLine
 10
274.4934374001
 20
39.8363782949
 30
0.0
 11
274.3166319807
 21
39.7342775211
 31
0.0
  0
LINE
  5
1E1
330
1F
100
AcDbEntity
  8
0
  6
Continuous
 62
     7
370
    15
100
AcDbLine
 10
278.5846861754
 20
38.5097980265
 30
0.0
 11
278.5846861754
 21
38.7139332295
 31
0.0
  0
LINE
  5
1E2
330
1F
100
AcDbEntity
  8
0
  6
Continuous
 62
     7
370
    15
100
AcDbLine
 10
273.5846861754
 20
38.7139332295
 30
0.0
 11
273.5846861754
 21
38.5097980265
 31
0.0
  0
SPLINE
  5
1E3
330
1F
100
AcDbEntity
  8
0
  6
Continuous
 62
     7
370
    15
100
AcDbSpline
210
0.0
220
0.0
230
1.0
 70
     8
 71
     3
 72
    18
 73
    14
 74
     0
 42
0.000000001
 43
0.00000001
 40
0.0
 40
0.0
 40
0.0
 40
0.0
 40
0.0262339791816979
 40
0.1271194126796276
 40
0.2284211548108465
 40
0.330090357767935
 40
0.432038984148978
 40
0.5341722979269355
 40
0.6364089601961133
 40
0.7386885628838344
 40
0.8409636988150163
 40
0.9432131711670144
 40
1.0
 40
1.0
 40
1.0
 40
1.0
 10
259.621857490473
 20
10.38172447606987
 30
0.0
 10
259.7276074039602
 20
10.36799353400776
 30
0.0
 10
260.2400293587201
 20
10.30145885856323
 30
0.0
 10
261.2109425838377
 20
10.32635575021992
 30
0.0
 10
262.5276386985999
 20
10.46134838081587
 30
0.0
 10
263.8856865128331
 20
10.75200013138186
 30
0.0
 10
265.2710356424773
 20
11.18221097639278
 30
0.0
 10
266.6759585820088
 20
11.75303758447888
 30
0.0
 10
268.0906872828139
 20
12.46004723002658
 30
0.0
 10
269.5065879408111
 20
13.29693075720817
 30
0.0
 10
270.9127910239227
 20
14.26449111903466
 30
0.0
 10
272.1006645512476
 20
15.17377708281126
 30
0.0
 10
272.8054636107033
 20
15.80155627990958
 30
0.0
 10
273.0571250443052
 20
16.02571635874004
 30
0.0
  0
SPLINE
  5
1E4
330
1F
100
AcDbEntity
  8
0
  6
Continuous
 62
     7
370
    15
100
AcDbSpline
210
0.0
220
0.0
230
1.0
 70
     8
 71
     3
 72
    18
 73
    14
 74
     0
 42
0.000000001
 43
0.00000001
 40
0.0
 40
0.0
 40
0.0
 40
0.0
 40
0.0246743201705175
 40
0.1272618359938903
 40
0.2298990755180465
 40
0.3325862124429326
 40
0.4353173886768506
 40
0.5380772189723574
 40
0.6408241140602134
 40
0.7435003984152249
 40
0.8460260988168626
 40
0.948301161748827
 40
1.0
 40
1.0
 40
1.0
 40
1.0
 10
285.5590775892481
 20
37.67522430492184
 30
0.0
 10
285.5907847103031
 20
37.81862474599745
 30
0.0
 10
285.7543193654286
 20
38.55823594044976
 30
0.0
 10
285.9420060684003
 20
39.86609717401015
 30
0.0
 10
286.1151105030023
 20
41.58408437789202
 30
0.0
 10
286.1667714367646
 20
43.24838610211584
 30
0.0
 10
286.1073719659325
 20
44.85134140743082
 30
0.0
 10
285.9338663151609
 20
46.3822091046854
 30
0.0
 10
285.6471158888909
 20
47.83070733858826
 30
0.0
 10
285.2500559704438
 20
49.18922865456436
 30
0.0
 10
284.738242140545
 20
50.44067965084735
 30
0.0
 10
284.2380044282729
 20
51.41461950358355
 30
0.0
 10
283.8704045730663
 20
51.92367361546732
 30
0.0
 10
283.746977905888
 20
52.09459547942705
 30
0.0
  0
LINE
  5
1E5
330
1F
100
AcDbEntity
  8
0
  6
Continuous
 62
     7
370
    15
100
AcDbLine
 10
253.606657568
 20
12.8208664634
 30
0.0
 11
255.825205094
 21
11.540126238
 31
0.0
  0
LINE
  5
1E6
330
1F
100
AcDbEntity
  8
0
  6
Continuous
 62
     7
370
    15
100
AcDbLine
 10
280.8231734099
 20
54.842569357
 30
0.0
 11
278.6046258839
 21
56.1233095824
 31
0.0
  0
LINE
  5
1E7
330
1F
100
AcDbEntity
  8
0
  6
Continuous
 62
     7
370
    15
100
AcDbLine
 10
280.5232177866
 20
15.9438971273
 30
0.0
 11
280.6999657507
 21
16.0459647274
 31
0.0
  0
LINE
  5
1E8
330
1F
100
AcDbEntity
  8
0
  6
Continuous
 62
     7
370
    15
100
AcDbLine
 10
289.3606159922
 20
31.048276504
 30
0.0
 11
289.3606159922
 21
31.2523785319
 31
0.0
  0
LINE
  5
1E9
330
1F
100
AcDbEntity
  8
0
  6
Continuous
 62
     7
370
    15
100
AcDbLine
 10
286.7712733064
 20
36.9754386128
 30
0.0
 11
276.3414482839
 21
42.9964484375
 31
0.0
  0
LINE
  5
1EA
330
1F
100
AcDbEntity
  8
0
  6
Continuous
 62
     7
370
    15
100
AcDbLine
 10
263.8424641259
 20
21.345226878
 30
0.0
 11
274.2722891484
 21
15.3242170533
 31
0.0
  0
LINE
  5
1EB
330
1F
100
AcDbEntity
  8
0
  6
Continuous
 62
     7
370
    15
100
AcDbLine
 10
273.2836473555
 20
59.1950451032
 30
0.0
 11
269.1559115203
 21
61.5779362796
 31
0.0
  0
SPLINE
  5
1EC
330
1F
100
AcDbEntity
  8
0
  6
Continuous
 62
     7
370
    15
100
AcDbSpline
210
0.0
220
0.0
230
1.0
 70
     8
 71
     3
 72
    31
 73
    27
 74
     0
 42
0.000000001
 43
0.00000001
 40
0.0
 40
0.0
 40
0.0
 40
0.0
 40
0.0182239934469082
 40
0.0617824007612076
 40
0.1055178609105048
 40
0.1494039945831699
 40
0.1934010791149139
 40
0.2374690326252148
 40
0.2815747258529964
 40
0.3256939655672293
 40
0.3698080036333312
 40
0.4139097612949064
 40
0.457996219628435
 40
0.5020669816102872
 40
0.5461232630075576
 40
0.5901672288851453
 40
0.6342015794255134
 40
0.6782293041015806
 40
0.7222535442117135
 40
0.7662775216106482
 40
0.8103038810604959
 40
0.854335453920584
 40
0.8983755468798706
 40
0.9424274374172817
 40
0.9864942920449876
 40
1.0
 40
1.0
 40
1.0
 40
1.0
 10
265.269622358158
 20
62.74020583510598
 30
0.0
 10
265.0978812501723
 20
62.75842367395365
 30
0.0
 10
264.5156500289169
 20
62.820185209589
 30
0.0
 10
263.470276646024
 20
62.77300073361132
 30
0.0
 10
262.1434137720926
 20
62.60256967397117
 30
0.0
 10
260.7782405084374
 20
62.27942316854045
 30
0.0
 10
259.3875676986193
 20
61.81654542788669
 30
0.0
 10
257.9795593852604
 20
61.21394212263848
 30
0.0
 10
256.5637539735506
 20
60.4765051079942
 30
0.0
 10
255.1492646580623
 20
59.60906097090137
 30
0.0
 10
253.7451100960988
 20
58.61752671882959
 30
0.0
 10
252.3600709679523
 20
57.50846348842389
 30
0.0
 10
251.002687506615
 20
56.28907348731037
 30
0.0
 10
249.6812953656992
 20
54.96717200039534
 30
0.0
 10
248.4040012956218
 20
53.5511559385273
 30
0.0
 10
247.1786479534148
 20
52.04996132960198
 30
0.0
 10
246.0127734707633
 20
50.47301800278026
 30
0.0
 10
244.9135712435541
 20
48.83019891244042
 30
0.0
 10
243.8878384684733
 20
47.13176159298542
 30
0.0
 10
242.9419716586783
 20
45.3883037613674
 30
0.0
 10
242.0818036455191
 20
43.61066669121754
 30
0.0
 10
241.3130154925148
 20
41.80997663441213
 30
0.0
 10
240.6394163340107
 20
39.99713591796682
 30
0.0
 10
240.0692170720824
 20
38.18436163564037
 30
0.0
 10
239.7020009198821
 20
36.79668152064669
 30
0.0
 10
239.5367266272338
 20
36.02000251515802
 30
0.0
 10
239.4979556184608
 20
35.83780461823709
 30
0.0
  0
SPLINE
  5
1ED
330
1F
100
AcDbEntity
  8
0
  6
Continuous
 62
     7
370
    15
100
AcDbSpline
210
0.0
220
0.0
230
1.0
 70
     8
 71
     3
 72
    19
 73
    15
 74
     0
 42
0.000000001
 43
0.00000001
 40
0.0
 40
0.0
 40
0.0
 40
0.0
 40
0.0064814783554793
 40
0.1054089223575136
 40
0.204253497034617
 40
0.3029427898542245
 40
0.4014105556484872
 40
0.4996087617241681
 40
0.5975436725367103
 40
0.6953552628111882
 40
0.7932934090569408
 40
0.8920815801431123
 40
0.9929226775489076
 40
1.0
 40
1.0
 40
1.0
 40
1.0
 10
277.2492787958735
 20
28.45595104137636
 30
0.0
 10
277.2605508434688
 20
28.47593794370546
 30
0.0
 10
277.4438692663066
 20
28.80098690942394
 30
0.0
 10
277.8687112195148
 20
29.38562330323201
 30
0.0
 10
278.5126737561382
 20
30.18089187915612
 30
0.0
 10
279.2077787538064
 20
30.88023129430734
 30
0.0
 10
279.9264379562459
 20
31.47445173799023
 30
0.0
 10
280.6536071041266
 20
31.94909763976758
 30
0.0
 10
281.3705376424176
 20
32.29584518926426
 30
0.0
 10
282.058785450214
 20
32.50816551286577
 30
0.0
 10
282.7049955361899
 20
32.5899325120718
 30
0.0
 10
283.2875417577395
 20
32.52632172231374
 30
0.0
 10
283.6636722808777
 20
32.43072071285172
 30
0.0
 10
283.8244225208855
 20
32.31932141735009
 30
0.0
 10
283.8349645700013
 20
32.31201581802669
 30
0.0
  0
SPLINE
  5
1EE
330
1F
100
AcDbEntity
  8
0
  6
Continuous
 62
     7
370
    15
100
AcDbSpline
210
0.0
220
0.0
230
1.0
 70
     8
 71
     3
 72
    10
 73
     6
 74
     0
 42
0.000000001
 43
0.00000001
 40
0.0
 40
0.0
 40
0.0
 40
0.0
 40
0.0961639693045012
 40
0.5631196643910835
 40
1.0
 40
1.0
 40
1.0
 40
1.0
 10
276.2559774858835
 20
26.46055326077674
 30
0.0
 10
276.2806518948639
 20
26.52612591709086
 30
0.0
 10
276.4251409899434
 20
26.91010811420588
 30
0.0
 10
276.7398510074141
 20
27.58969052361769
 30
0.0
 10
277.0832787463596
 20
28.17367494239329
 30
0.0
 10
277.2492787958735
 20
28.45595104137636
 30
0.0
  0
LINE
  5
1EF
330
1F
100
AcDbEntity
  8
0
  6
Continuous
 62
     7
370
    15
100
AcDbLine
 10
276.1737863664
 20
20.8608462537
 30
0.0
 11
276.1066683411
 21
20.9650380548
 31
0.0
  0
SPLINE
  5
1F0
330
1F
100
AcDbEntity
  8
0
  6
Continuous
 62
     7
370
    15
100
AcDbSpline
210
0.0
220
0.0
230
1.0
 70
     8
 71
     3
 72
    10
 73
     6
 74
     0
 42
0.000000001
 43
0.00000001
 40
0.0
 40
0.0
 40
0.0
 40
0.0
 40
0.4813608774191193
 40
0.9612538985461023
 40
1.0
 40
1.0
 40
1.0
 40
1.0
 10
276.9964564356285
 20
20.11011793208881
 30
0.0
 10
276.847066649123
 20
20.20067176618086
 30
0.0
 10
276.5487426235989
 20
20.38150330055062
 30
0.0
 10
276.2955314555075
 20
20.67036980506206
 30
0.0
 10
276.1822493599943
 20
20.8476054653003
 30
0.0
 10
276.1737863664125
 20
20.86084625369024
 30
0.0
  0
LINE
  5
1F1
330
1F
100
AcDbEntity
  8
0
  6
Continuous
 62
     7
370
    15
100
AcDbLine
 10
254.7339565445
 20
59.2939115174
 30
0.0
 11
224.3865635082
 21
70.2299090387
 31
0.0
  0
LINE
  5
1F2
330
1F
100
AcDbEntity
  8
0
  6
Continuous
 62
     7
370
    15
100
AcDbLine
 10
214.2772088328
 20
52.7180956677
 30
0.0
 11
243.7409461594
 21
27.8391594424
 31
0.0
  0
LINE
  5
1F3
330
1F
100
AcDbEntity
  8
0
  6
Continuous
 62
     7
370
    15
100
AcDbLine
 10
244.1579432044
 20
18.2754931605
 30
0.0
 11
248.2856790396
 21
15.8926019841
 31
0.0
  0
SPLINE
  5
1F4
330
1F
100
AcDbEntity
  8
0
  6
Continuous
 62
     7
370
    15
100
AcDbSpline
210
0.0
220
0.0
230
1.0
 70
     8
 71
     3
 72
    11
 73
     7
 74
     0
 42
0.000000001
 43
0.00000001
 40
0.0
 40
0.0
 40
0.0
 40
0.0
 40
0.103892601231773
 40
0.4191455586386527
 40
0.7339157477805021
 40
1.0
 40
1.0
 40
1.0
 40
1.0
 10
239.5023744049394
 20
24.74989430735834
 30
0.0
 10
239.5446553955991
 20
24.59998027994047
 30
0.0
 10
239.7152343323062
 20
23.99516532656711
 30
0.0
 10
240.0952795822368
 20
23.00680142633516
 30
0.0
 10
240.6407946360371
 20
21.87833301333494
 30
0.0
 10
241.0781610926494
 20
21.23788448315845
 30
0.0
 10
241.278514775546
 20
20.94450070901068
 30
0.0
  0
SPLINE
  5
1F5
330
1F
100
AcDbEntity
  8
0
  6
Continuous
 62
     7
370
    15
100
AcDbSpline
210
0.0
220
0.0
230
1.0
 70
     8
 71
     3
 72
    26
 73
    22
 74
     0
 42
0.000000001
 43
0.00000001
 40
0.0
 40
0.0
 40
0.0
 40
0.0
 40
0.0197718130349116
 40
0.0719291881301987
 40
0.1247388498623818
 40
0.1787271579796435
 40
0.2339852864304384
 40
0.2902232408334229
 40
0.3469997390200578
 40
0.4039310368551973
 40
0.4607877573149275
 40
0.5175200098690544
 40
0.5741374220511487
 40
0.630677120154301
 40
0.6871877750909801
 40
0.7437219618168532
 40
0.8003180846586544
 40
0.8570329297723878
 40
0.9139216282917155
 40
0.9710300866836912
 40
1.0
 40
1.0
 40
1.0
 40
1.0
 10
224.4533314315539
 20
70.18559100152066
 30
0.0
 10
224.3606914011031
 20
70.22607044211796
 30
0.0
 10
224.0236700987612
 20
70.37333328002698
 30
0.0
 10
223.3784436133092
 20
70.4789942605657
 30
0.0
 10
222.5366302390435
 20
70.50300089283526
 30
0.0
 10
221.6531811806612
 20
70.37397915461074
 30
0.0
 10
220.7420876775909
 20
70.10316923295053
 30
0.0
 10
219.8148058862415
 20
69.68880723286895
 30
0.0
 10
218.8878620459094
 20
69.13789077622141
 30
0.0
 10
217.9778581918733
 20
68.46056489621775
 30
0.0
 10
217.0999982572258
 20
67.66982208372474
 30
0.0
 10
216.2675010361164
 20
66.7795983898412
 30
0.0
 10
215.4920774641673
 20
65.80426811831164
 30
0.0
 10
214.7845540601601
 20
64.7588306700394
 30
0.0
 10
214.1549722957922
 20
63.65888460800355
 30
0.0
 10
213.6125379472961
 20
62.52058358510521
 30
0.0
 10
213.1656875711083
 20
61.36045244279659
 30
0.0
 10
212.8211798518626
 20
60.19470397851256
 30
0.0
 10
212.5873572457056
 20
59.04051089832362
 30
0.0
 10
212.4829164997303
 20
58.09726382144524
 30
0.0
 10
212.4736225119957
 20
57.55110875237637
 30
0.0
 10
212.4704945948001
 20
57.36729875813289
 30
0.0
  0
SPLINE
  5
1F6
330
1F
100
AcDbEntity
  8
0
  6
Continuous
 62
     7
370
    15
100
AcDbSpline
210
0.0
220
0.0
230
1.0
 70
     8
 71
     3
 72
    13
 73
     9
 74
     0
 42
0.000000001
 43
0.00000001
 40
0.0
 40
0.0
 40
0.0
 40
0.0
 40
0.1017086554518487
 40
0.2935148688881801
 40
0.4853091559269201
 40
0.6752471149565382
 40
0.8614317085389452
 40
1.0
 40
1.0
 40
1.0
 40
1.0
 10
212.4704945948001
 20
57.36729875813289
 30
0.0
 10
212.4739391242999
 20
57.1769970410979
 30
0.0
 10
212.4838794840463
 20
56.6278168039138
 30
0.0
 10
212.5953405877046
 20
55.76598673202803
 30
0.0
 10
212.8460544995956
 20
54.81924884397883
 30
0.0
 10
213.2267116182975
 20
53.97569667483617
 30
0.0
 10
213.6737664320186
 20
53.29084443354385
 30
0.0
 10
214.041307887341
 20
52.95139558630817
 30
0.0
 10
214.1981335657282
 20
52.80655669813761
 30
0.0
  0
LWPOLYLINE
  5
1F7
330
1F
100
AcDbEntity
  8
0
  6
Continuous
 62
     7
370
    15
100
AcDbPolyline
 90
       23
 70
   128
 43
0.0
 10
274.4936959178
 20
37.9996093066
 10
274.1099084489
 20
38.2955731926
 10
273.886105727
 20
38.6419679407
 10
273.8404189176
 20
39.0107307086
 10
273.9765492942
 20
39.37198653
 10
274.2834683834
 20
39.6964686067
 10
274.7363114258
 20
39.9578893306
 10
275.2983917713
 20
40.1350699494
 10
275.9241730132
 20
40.2136563431
 10
276.5629580769
 20
40.1872819094
 10
277.1629963956
 20
40.0580833481
 10
277.6756764331
 20
39.8365275582
 10
278.059463902
 20
39.5405636723
 10
278.2832666239
 20
39.1941689242
 10
278.3289534333
 20
38.8254061563
 10
278.1928230567
 20
38.4641503349
 10
277.8859039675
 20
38.1396682582
 10
277.4330609251
 20
37.8782475343
 10
276.8709805795
 20
37.7010669155
 10
276.2451993376
 20
37.6224805218
 10
275.6064142739
 20
37.6488549555
 10
275.0063759553
 20
37.7780535168
 10
274.4936959178
 20
37.9996093066
  0
LWPOLYLINE
  5
1F8
330
1F
100
AcDbEntity
  8
0
  6
Continuous
 62
     7
370
    15
100
AcDbPolyline
 90
        7
 70
   128
 43
0.0
 10
274.3169192225
 20
37.6934230897
 10
273.9055350004
 20
38.0065967146
 10
273.6557684519
 20
38.372230253
 10
273.5861436195
 20
38.7632063379
 10
273.7018242584
 20
39.1505280619
 10
273.9942308648
 20
39.5054695443
 10
274.3166319807
 20
39.7342775211
  0
LWPOLYLINE
  5
1F9
330
1F
100
AcDbEntity
  8
0
  6
Continuous
 62
     7
370
    15
100
AcDbPolyline
 90
       13
 70
   128
 43
0.0
 10
277.8527403702
 20
39.7342775211
 10
278.076698954
 20
39.5859788366
 10
278.4103822838
 20
39.2433843111
 10
278.5715793726
 20
38.8615228209
 10
278.5483349697
 20
38.4687152859
 10
278.3423730062
 20
38.094094444
 10
277.9689687388
 20
37.7654442092
 10
277.4558158536
 20
37.507139066
 10
276.8409725526
 20
37.3383363252
 10
276.1700389509
 20
37.2715553138
 10
275.4927751243
 20
37.311748874
 10
274.8594106325
 20
37.4559360333
 10
274.3169192225
 20
37.6934230897
  0
LWPOLYLINE
  5
1FA
330
1F
100
AcDbEntity
  8
0
  6
Continuous
 62
     7
370
    15
100
AcDbPolyline
 90
       19
 70
   128
 43
0.0
 10
275.0240260037
 20
38.3057623486
 10
274.7252244949
 20
38.5521099383
 10
274.5903941283
 20
38.8425975235
 10
274.635797436
 20
39.142188014
 10
274.855958109
 20
39.4147463754
 10
275.2243215209
 20
39.6273980467
 10
275.6964576078
 20
39.7544940979
 10
276.2154197896
 20
39.7807048695
 10
276.718613568
 20
39.7028689557
 10
277.1453463472
 20
39.5303745163
 10
277.444147856
 20
39.2840269266
 10
277.5789782226
 20
38.9935393414
 10
277.5335749149
 20
38.6939488509
 10
277.3134142419
 20
38.4213904895
 10
276.94505083
 20
38.2087388182
 10
276.4729147431
 20
38.081642767
 10
275.9539525613
 20
38.0554319954
 10
275.4507587828
 20
38.1332679092
 10
275.0240260037
 20
38.3057623486
  0
SPLINE
  5
1FB
330
1F
100
AcDbEntity
  8
0
  6
Continuous
 62
     7
370
    15
100
AcDbSpline
210
0.0
220
0.0
230
1.0
 70
     8
 71
     3
 72
     9
 73
     5
 74
     0
 42
0.000000001
 43
0.00000001
 40
0.0
 40
0.0
 40
0.0
 40
0.0
 40
0.6300416123970569
 40
0.9999999999999999
 40
0.9999999999999999
 40
0.9999999999999999
 40
0.9999999999999999
 10
275.2009783442408
 20
38.20794769960127
 30
0.0
 10
275.0886814588694
 20
38.2850184660502
 30
0.0
 10
274.9104442072947
 20
38.40734493613162
 30
0.0
 10
274.7498905193788
 20
38.58897691610515
 30
0.0
 10
274.6904923358737
 20
38.65617319055328
 30
0.0
  0
SPLINE
  5
1FC
330
1F
100
AcDbEntity
  8
0
  6
Continuous
 62
     7
370
    15
100
AcDbSpline
210
0.0
220
0.0
230
1.0
 70
     8
 71
     3
 72
    10
 73
     6
 74
     0
 42
0.000000001
 43
0.00000001
 40
0.0
 40
0.0
 40
0.0
 40
0.0
 40
0.4391256427914776
 40
0.7513741901692056
 40
1.0
 40
1.0
 40
1.0
 40
1.0
 10
277.4788800149998
 20
39.08749152641987
 30
0.0
 10
277.4253989388325
 20
38.90236134776019
 30
0.0
 10
277.3338891375851
 20
38.58559087363793
 30
0.0
 10
277.2008652332115
 20
38.35216763782546
 30
0.0
 10
277.1346562069471
 20
38.30399475322997
 30
0.0
 10
277.1053069015964
 20
38.28264055457478
 30
0.0
  0
SPLINE
  5
1FD
330
1F
100
AcDbEntity
  8
0
  6
Continuous
 62
     7
370
    15
100
AcDbSpline
210
0.0
220
0.0
230
1.0
 70
     8
 71
     3
 72
    11
 73
     7
 74
     0
 42
0.000000001
 43
0.00000001
 40
0.0
 40
0.0
 40
0.0
 40
0.0
 40
0.1849308168246117
 40
0.5198464202157771
 40
0.871443823369266
 40
1.0
 40
1.0
 40
1.0
 40
1.0
 10
276.4582592888401
 20
39.67668333033167
 30
0.0
 10
276.5176644019819
 20
39.61054246344619
 30
0.0
 10
276.6846540683853
 20
39.42461837858699
 30
0.0
 10
276.996372170037
 20
39.17852577487876
 30
0.0
 10
277.2842565908393
 20
39.09332797150244
 30
0.0
 10
277.4377766105789
 20
39.08872415175078
 30
0.0
 10
277.4788800149998
 20
39.08749152641987
 30
0.0
  0
SPLINE
  5
1FE
330
1F
100
AcDbEntity
  8
0
  6
Continuous
 62
     7
370
    15
100
AcDbSpline
210
0.0
220
0.0
230
1.0
 70
     8
 71
     3
 72
    10
 73
     6
 74
     0
 42
0.000000001
 43
0.00000001
 40
0.0
 40
0.0
 40
0.0
 40
0.0
 40
0.4391256427914792
 40
0.7513741901692086
 40
1.0
 40
1.0
 40
1.0
 40
1.0
 10
275.0640654492771
 20
39.46102416239837
 30
0.0
 10
275.2636595427767
 20
39.42199116942131
 30
0.0
 10
275.6051787704229
 20
39.35520303265575
 30
0.0
 10
276.1016307401661
 20
39.48516848402514
 30
0.0
 10
276.3487261901045
 20
39.6178624236829
 30
0.0
 10
276.4582592888401
 20
39.67668333033167
 30
0.0
  0
SPLINE
  5
1FF
330
1F
100
AcDbEntity
  8
0
  6
Continuous
 62
     7
370
    15
100
AcDbSpline
210
0.0
220
0.0
230
1.0
 70
     8
 71
     3
 72
    10
 73
     6
 74
     0
 42
0.000000001
 43
0.00000001
 40
0.0
 40
0.0
 40
0.0
 40
0.0
 40
0.4391256427914769
 40
0.7513741901692067
 40
1.0
 40
1.0
 40
1.0
 40
1.0
 10
274.6904923358737
 20
38.65617319055328
 30
0.0
 10
274.743973412041
 20
38.70148944705792
 30
0.0
 10
274.8354832132885
 20
38.77902868005791
 30
0.0
 10
274.968507117662
 20
39.11879668779223
 30
0.0
 10
275.0347161439264
 20
39.35591413712006
 30
0.0
 10
275.0640654492771
 20
39.46102416239837
 30
0.0
  0
LINE
  5
200
330
1F
100
AcDbEntity
  8
0
  6
Continuous
 62
     7
370
    15
100
AcDbLine
 10
275.0640654493
 20
38.283489439
 30
0.0
 11
275.0640654493
 21
39.4610241624
 31
0.0
  0
LINE
  5
201
330
1F
100
AcDbEntity
  8
0
  6
Continuous
 62
     7
370
    15
100
AcDbLine
 10
276.4582592888
 20
38.0794215437
 30
0.0
 11
276.4582592888
 21
39.6766833303
 31
0.0
  0
ARC
  5
202
330
1F
100
AcDbEntity
  8
0
  6
Continuous
 62
     7
370
    15
100
AcDbCircle
 10
276.4656963346
 20
47.2919048215
 30
0.0
 40
8.70789896806236
100
AcDbArc
 50
34.3406250395
 51
84.8700882705
  0
ARC
  5
203
330
1F
100
AcDbEntity
  8
0
  6
Continuous
 62
     7
370
    15
100
AcDbCircle
 10
260.1717989487
 20
19.0672301344
 30
0.0
 40
8.684222788799996
100
AcDbArc
 50
215.2000783552
 51
265.4598339297
  0
LWPOLYLINE
  5
204
330
1F
100
AcDbEntity
  8
0
  6
Continuous
 62
     7
370
    15
100
AcDbPolyline
 90
        9
 70
   128
 43
0.0
 10
253.606657568
 20
12.8208664634
 10
253.4403343048
 20
12.9194724742
 10
252.449439917
 20
13.6259276659
 10
251.5550188112
 20
14.4796490988
 10
250.7633895629
 20
15.4746057175
 10
250.0801445815
 20
16.6037687207
 10
249.5101106033
 20
17.8591612153
 10
249.0573145934
 20
19.2319145688
 10
248.7249552977
 20
20.7123310613
  0
SPLINE
  5
205
330
1F
100
AcDbEntity
  8
0
  6
Continuous
 62
     7
370
    15
100
AcDbSpline
210
0.0
220
0.0
230
1.0
 70
     8
 71
     3
 72
    32
 73
    28
 74
     0
 42
0.000000001
 43
0.00000001
 40
0.0
 40
0.0
 40
0.0
 40
0.0
 40
0.0193254758647258
 40
0.0385826927399014
 40
0.0577846348003733
 40
0.0769443985950771
 40
0.0960751672943215
 40
0.1151901840580798
 40
0.1343027247879751
 40
0.1534260705402312
 40
0.172573479885108
 40
0.1917581614995186
 40
0.2109932472740069
 40
0.2302917662029109
 40
0.2496666193081449
 40
0.3745846283005043
 40
0.4997410234224777
 40
0.4999962720873377
 40
0.6248627021449072
 40
0.7503411293897363
 40
0.7861451323127985
 40
0.8217618640028611
 40
0.8572756267732794
 40
0.8927714566788081
 40
0.9283345184945242
 40
0.9640494961196089
 40
1.0
 40
1.0
 40
1.0
 40
1.0
 10
248.7249000216482
 20
28.16415582779259
 30
0.0
 10
248.7468432389359
 20
28.10406478407862
 30
0.0
 10
248.7906521684681
 20
27.98409494259761
 30
0.0
 10
248.8530914196901
 20
27.80334738849049
 30
0.0
 10
248.9130000472168
 20
27.62250399207507
 30
0.0
 10
248.9701866328503
 20
27.44149687653504
 30
0.0
 10
249.0247447040583
 20
27.260367474214
 30
0.0
 10
249.0766924506491
 20
27.07912895688312
 30
0.0
 10
249.126068930112
 20
26.89780300267321
 30
0.0
 10
249.1729083115595
 20
26.71640992593739
 30
0.0
 10
249.2172469179052
 20
26.53497157053422
 30
0.0
 10
249.2591207611285
 20
26.35350968156033
 30
0.0
 10
249.298568352317
 20
26.17204962910692
 30
0.0
 10
249.3356218716773
 20
25.99060718341363
 30
0.0
 10
249.4333139713115
 20
25.48025623167154
 30
0.0
 10
249.5508101701448
 20
24.65365470298329
 30
0.0
 10
249.5856616062654
 20
23.93833520768993
 30
0.0
 10
249.5860574304394
 20
23.26162324278897
 30
0.0
 10
249.5510060793931
 20
22.61993211869133
 30
0.0
 10
249.4260719992221
 20
21.998631179911
 30
0.0
 10
249.3053458183491
 20
21.62600707792048
 30
0.0
 10
249.2310384058264
 20
21.43721037677796
 30
0.0
 10
249.1481249345944
 20
21.26301909381082
 30
0.0
 10
249.0564261335851
 20
21.10320292374545
 30
0.0
 10
248.9555240659631
 20
20.95799905113563
 30
0.0
 10
248.845971169164
 20
20.82595209101846
 30
0.0
 10
248.765442871263
 20
20.75025260608689
 30
0.0
 10
248.7250463955071
 20
20.71227847168345
 30
0.0
  0
LWPOLYLINE
  5
206
330
1F
100
AcDbEntity
  8
0
  6
Continuous
 62
     7
370
    15
100
AcDbPolyline
 90
       27
 70
   128
 43
0.0
 10
248.7249000214
 20
28.1641558279
 10
249.0572393614
 20
30.0283216903
 10
249.5100189198
 20
31.9238810038
 10
250.0800399883
 20
33.837442392
 10
250.7632755935
 20
35.7554873004
 10
251.5548989461
 20
37.6644655006
 10
252.4493175402
 20
39.5508908169
 10
253.4402126625
 20
41.4014364005
 10
254.5205840307
 20
43.203028879
 10
255.6827992486
 20
44.9429407143
 10
256.9186477254
 20
46.6088801175
 10
258.2193986805
 20
48.1890778857
 10
259.575862823
 20
49.6723705469
 10
260.9784572703
 20
51.0482792252
 10
262.4172732475
 20
52.30708367
 10
263.882146089
 20
53.439890926
 10
265.3627270475
 20
54.4386981579
 10
266.8485564044
 20
55.2964491879
 10
268.3291373629
 20
56.0070843441
 10
269.7940102043
 20
56.5655832705
 10
271.2328261816
 20
56.9680003929
 10
272.6354206289
 20
57.2114927936
 10
273.9918847714
 20
57.2943402951
 10
275.2926357265
 20
57.2159576126
 10
276.5284842033
 20
56.9768984887
 10
277.6906994212
 20
56.5788517816
 10
278.6046258839
 20
56.1233095824
  0
LWPOLYLINE
  5
207
330
1F
100
AcDbEntity
  8
0
  6
Continuous
 62
     7
370
    15
100
AcDbPolyline
 90
       53
 70
   128
 43
0.0
 10
280.6985579227
 20
36.0504017647
 10
279.6544621988
 20
35.3747277352
 10
278.6255917417
 20
34.5630457589
 10
277.6269497994
 20
33.6271919868
 10
276.6730988202
 20
32.5808132741
 10
275.7779480992
 20
31.4391681788
 10
274.9545509498
 20
30.2189044572
 10
274.2149143563
 20
28.937816302
 10
273.569823886
 20
27.6145848633
 10
273.0286864105
 20
26.2685058353
 10
272.5993929326
 20
24.9192080811
 10
272.288203518
 20
23.5863674004
 10
272.0996560091
 20
22.2894196117
 10
272.0364998531
 20
21.0472771341
 10
272.0996560091
 20
19.8780532021
 10
272.288203518
 20
18.7987977335
 10
272.5993929326
 20
17.8252487032
 10
273.0286864105
 20
16.9716026483
 10
273.569823886
 20
16.2503076506
 10
274.2149143563
 20
15.6718818154
 10
274.9545509498
 20
15.2447598938
 10
275.7779480992
 20
14.9751702852
 10
276.6730988202
 20
14.8670442132
 10
277.6269497994
 20
14.9219583995
 10
278.6255917417
 20
15.1391120715
 10
279.6544621988
 20
15.5153386396
 10
280.6985579227
 20
16.0451518735
 10
281.7426536466
 20
16.7208259029
 10
282.7715241037
 20
17.5325078792
 10
283.770166046
 20
18.4683616514
 10
284.7240170252
 20
19.514740364
 10
285.6191677461
 20
20.6563854593
 10
286.4425648956
 20
21.8766491809
 10
287.182201489
 20
23.1577373361
 10
287.8272919593
 20
24.4809687748
 10
288.3684294349
 20
25.8270478029
 10
288.7977229128
 20
27.176345557
 10
289.1089123274
 20
28.5091862377
 10
289.2974598363
 20
29.8061340264
 10
289.3606159922
 20
31.048276504
 10
289.2974598363
 20
32.217500436
 10
289.1089123274
 20
33.2967559046
 10
288.7977229128
 20
34.270304935
 10
288.3684294349
 20
35.1239509898
 10
287.8272919593
 20
35.8452459875
 10
287.182201489
 20
36.4236718228
 10
286.4425648956
 20
36.8507937444
 10
285.6191677461
 20
37.1203833529
 10
284.7240170252
 20
37.2285094249
 10
283.770166046
 20
37.1735952386
 10
282.7715241037
 20
36.9564415666
 10
281.7426536466
 20
36.5802149985
 10
280.6985579227
 20
36.0504017647
  0
LWPOLYLINE
  5
208
330
1F
100
AcDbEntity
  8
0
  6
Continuous
 62
     7
370
    15
100
AcDbPolyline
 90
       28
 70
   128
 43
0.0
 10
280.5217812274
 20
36.3565879816
 10
279.4763842125
 20
35.6814528612
 10
278.4456622802
 20
34.8725146189
 10
277.4440845069
 20
33.9411289745
 10
276.4857108493
 20
32.9003705409
 10
275.5839947725
 20
31.764849285
 10
274.7515943939
 20
30.5505054362
 10
274.0001947899
 20
29.2743857203
 10
273.3403439641
 20
27.9544040607
 10
272.7813047755
 20
26.6090901066
 10
272.330924909
 20
25.2573291168
 10
271.9955267106
 20
23.9180968527
 10
271.7798184359
 20
22.6101931995
 10
271.6868281561
 20
21.3519782576
 10
271.717861251
 20
20.1611146067
 10
271.8724820839
 20
19.0543193621
 10
272.1485201173
 20
18.0471295029
 10
272.5421003823
 20
17.1536837669
 10
273.0476978746
 20
16.3865241738
 10
273.6582151139
 20
15.7564199626
 10
274.3650817762
 20
15.2722164154
 10
275.1583750032
 20
14.9407106884
 10
276.0269586969
 20
14.7665563954
 10
276.9586398461
 20
14.752198281
 10
277.9403396898
 20
14.8978379015
 10
278.9582773141
 20
15.2014307961
 10
279.9981631061
 20
15.6587151858
 10
280.5232177866
 20
15.9438971273
  0
LWPOLYLINE
  5
209
330
1F
100
AcDbEntity
  8
0
  6
Continuous
 62
     7
370
    15
100
AcDbPolyline
 90
       15
 70
   128
 43
0.0
 10
289.3606159922
 20
31.2523785319
 10
289.3567342987
 20
31.5525979474
 10
289.2637440189
 20
32.7034485976
 10
289.0480357441
 20
33.762300778
 10
288.7126375458
 20
34.7142905249
 10
288.2622576792
 20
35.5460539893
 10
287.7032184907
 20
36.2459150351
 10
287.0433676648
 20
36.8040491475
 10
286.2919680609
 20
37.212621347
 10
285.4595676822
 20
37.4658961756
 10
284.5578516055
 20
37.5603182097
 10
283.5994779478
 20
37.494561971
 10
282.5979001746
 20
37.269550533
 10
281.5671782423
 20
36.8884425631
 10
280.5217812274
 20
36.3565879816
  0
SPLINE
  5
20A
330
1F
100
AcDbEntity
  8
0
  6
Continuous
 62
     7
370
    15
100
AcDbSpline
210
0.0
220
0.0
230
1.0
 70
    11
 71
     3
 72
    77
 73
    73
 74
     0
 42
0.000000001
 43
0.00000001
 40
0.0
 40
0.0
 40
0.0
 40
0.0
 40
0.0312499999999995
 40
0.0312499999999995
 40
0.062499999999999
 40
0.062499999999999
 40
0.0937499999999986
 40
0.0937499999999986
 40
0.1249999999999981
 40
0.1249999999999981
 40
0.1562499999999976
 40
0.1562499999999976
 40
0.1874999999999971
 40
0.1874999999999971
 40
0.2187499999999966
 40
0.2187499999999966
 40
0.2499999999999967
 40
0.2499999999999967
 40
0.2812499999999967
 40
0.2812499999999967
 40
0.3124999999999967
 40
0.3124999999999967
 40
0.3437499999999967
 40
0.3437499999999967
 40
0.3593749999999966
 40
0.3593749999999966
 40
0.3749999999999964
 40
0.3906249999999963
 40
0.3906249999999963
 40
0.4062499999999962
 40
0.4062499999999962
 40
0.4374999999999962
 40
0.4374999999999962
 40
0.4687499999999962
 40
0.4687499999999962
 40
0.4999999999999962
 40
0.4999999999999962
 40
0.5312499999999963
 40
0.5312499999999963
 40
0.5624999999999963
 40
0.5624999999999963
 40
0.5937499999999964
 40
0.5937499999999964
 40
0.6249999999999966
 40
0.6249999999999966
 40
0.6562499999999966
 40
0.6562499999999966
 40
0.6874999999999967
 40
0.6874999999999967
 40
0.7187499999999968
 40
0.7187499999999968
 40
0.7499999999999968
 40
0.7499999999999968
 40
0.7656249999999969
 40
0.7656249999999969
 40
0.781249999999997
 40
0.781249999999997
 40
0.8124999999999976
 40
0.8124999999999976
 40
0.8437499999999981
 40
0.8437499999999981
 40
0.8749999999999986
 40
0.8749999999999986
 40
0.8906249999999988
 40
0.8906249999999988
 40
0.906249999999999
 40
0.906249999999999
 40
0.9374999999999993
 40
0.9374999999999993
 40
0.9687499999999996
 40
0.9687499999999996
 40
1.0
 40
1.0
 40
1.0
 40
1.0
 10
276.0698831541266
 20
40.42606770086116
 30
0.0
 10
276.2568009878359
 20
40.39973439403566
 30
0.0
 10
276.4390016313807
 20
40.363971066056
 30
0.0
 10
276.7949718420638
 20
40.27681693618995
 30
0.0
 10
276.969921844952
 20
40.22497881139753
 30
0.0
 10
277.3058201267365
 20
40.10854322194381
 30
0.0
 10
277.4647045815466
 20
40.04480323995371
 30
0.0
 10
277.7651249716341
 20
39.90755157348414
 30
0.0
 10
277.9078711084804
 20
39.83326329839304
 30
0.0
 10
278.1678847553283
 20
39.67892980315482
 30
0.0
 10
278.2852392051273
 20
39.59908427477443
 30
0.0
 10
278.4948310309497
 20
39.43369237955959
 30
0.0
 10
278.587742642014
 20
39.34724890539253
 30
0.0
 10
278.7412213699345
 20
39.17300046862103
 30
0.0
 10
278.8024122054651
 20
39.08501411822966
 30
0.0
 10
278.8928981246131
 20
38.90576270913359
 30
0.0
 10
278.9221212948419
 20
38.81353250334713
 30
0.0
 10
278.943821437535
 20
38.6309938503998
 30
0.0
 10
278.9369548809473
 20
38.54014274997638
 30
0.0
 10
278.8854320501512
 20
38.35740859296833
 30
0.0
 10
278.8398299236742
 20
38.26483792005421
 30
0.0
 10
278.7119769512746
 20
38.08652690629967
 30
0.0
 10
278.6297207555706
 20
37.999655401276
 30
0.0
 10
278.4765015483112
 20
37.87220427299782
 30
0.0
 10
278.4203965862371
 20
37.83027826739495
 30
0.0
 10
278.3012322412754
 20
37.74978202334069
 30
0.0
 10
278.1743936237424
 20
37.67200849289178
 30
0.0
 10
278.0323598734631
 20
37.59959269853245
 30
0.0
 10
277.8825620138363
 20
37.52994958093601
 30
0.0
 10
277.803739067127
 20
37.49655176568467
 30
0.0
 10
277.5619644259805
 20
37.4032491196506
 30
0.0
 10
277.3917758711729
 20
37.34916810124868
 30
0.0
 10
277.0339429148326
 20
37.25781583909455
 30
0.0
 10
276.8502662047651
 20
37.22168249020144
 30
0.0
 10
276.480037361333
 20
37.16953372163881
 30
0.0
 10
276.2907558276175
 20
37.15332923677704
 30
0.0
 10
275.9199046906736
 20
37.1426109551719
 30
0.0
 10
275.7374037330193
 20
37.14777628305298
 30
0.0
 10
275.3778340523776
 20
37.18001676288848
 30
0.0
 10
275.2022186230541
 20
37.2071886556685
 30
0.0
 10
274.8685678556054
 20
37.2822813582838
 30
0.0
 10
274.7090024710723
 20
37.33031722802232
 30
0.0
 10
274.4045939413604
 20
37.44862641696588
 30
0.0
 10
274.2636921947517
 20
37.51741316002839
 30
0.0
 10
274.0047182720053
 20
37.67308147365288
 30
0.0
 10
273.8860586159624
 20
37.76038349564444
 30
0.0
 10
273.6739217432188
 20
37.95247502891989
 30
0.0
 10
273.5827355262421
 20
38.05504170140944
 30
0.0
 10
273.4295672495638
 20
38.27207694558739
 30
0.0
 10
273.367273370646
 20
38.3873458494011
 30
0.0
 10
273.2759518638083
 20
38.62593329850262
 30
0.0
 10
273.2474996989462
 20
38.74708863540911
 30
0.0
 10
273.2310540317807
 20
38.9304691024409
 30
0.0
 10
273.2299749185188
 20
38.99187239141668
 30
0.0
 10
273.2371132711178
 20
39.11505238019664
 30
0.0
 10
273.2454399612735
 20
39.17718862676422
 30
0.0
 10
273.2845442791933
 20
39.35973457537317
 30
0.0
 10
273.3291111098952
 20
39.47712019559743
 30
0.0
 10
273.4568498356626
 20
39.70141566072642
 30
0.0
 10
273.5416921762083
 20
39.80956073078077
 30
0.0
 10
273.7450560647936
 20
40.00250743869316
 30
0.0
 10
273.8635442427826
 20
40.088380396792
 30
0.0
 10
274.0675348106199
 20
40.20037902149755
 30
0.0
 10
274.139851542826
 20
40.23475363211438
 30
0.0
 10
274.2892942927526
 20
40.2960167306567
 30
0.0
 10
274.3668854311176
 20
40.32317672454925
 30
0.0
 10
274.6080591115394
 20
40.39462805630756
 30
0.0
 10
274.7820928254704
 20
40.42903750276266
 30
0.0
 10
275.1379382800521
 20
40.47024724071299
 30
0.0
 10
275.3205447513359
 20
40.4776442180531
 30
0.0
 10
275.694914902706
 20
40.46871325749201
 30
0.0
 10
275.8829653204172
 20
40.45240100768665
 30
0.0
 10
276.0698831541265
 20
40.42606770086115
 30
0.0
  0
LINE
  5
20B
330
1F
100
AcDbEntity
  8
0
  6
Continuous
 62
     7
370
    15
100
AcDbLine
 10
285.3190089906
 20
25.8791267996
 30
0.0
 11
287.0801966229
 21
28.0700274708
 31
0.0
  0
SPLINE
  5
20C
330
1F
100
AcDbEntity
  8
0
  6
Continuous
 62
     7
370
    15
100
AcDbSpline
210
0.0
220
0.0
230
1.0
 70
     8
 71
     3
 72
    22
 73
    18
 74
     0
 42
0.000000001
 43
0.00000001
 40
0.0
 40
0.0
 40
0.0
 40
0.0
 40
0.0500000000000107
 40
0.0999999999999999
 40
0.15
 40
0.1999999999999999
 40
0.25
 40
0.2968749999999668
 40
0.34375
 40
0.3906249999999996
 40
0.4374999999999987
 40
0.5292946909502637
 40
0.5292946909502637
 40
0.53125
 40
0.625
 40
0.8125
 40
0.8968030376399279
 40
0.8968030376399279
 40
0.8968030376399279
 40
0.8968030376399279
 10
287.0801966228838
 20
28.07002747080916
 30
0.0
 10
287.1613963048867
 20
28.17103910326992
 30
0.0
 10
287.3209856965092
 20
28.39105245566187
 30
0.0
 10
287.5401614336319
 20
28.76724851829835
 30
0.0
 10
287.7270222178357
 20
29.18453842627193
 30
0.0
 10
287.8643570586433
 20
29.6241964056822
 30
0.0
 10
287.9350303703483
 20
30.05135742909073
 30
0.0
 10
287.9345509499898
 20
30.44086221369779
 30
0.0
 10
287.866228776754
 20
30.77303340298097
 30
0.0
 10
287.734503564378
 20
31.04003346948208
 30
0.0
 10
287.4945256965354
 20
31.2932503318948
 30
0.0
 10
287.2499665288159
 20
31.37732249031346
 30
0.0
 10
287.0773866447053
 20
31.39381845526851
 30
0.0
 10
286.9132824885644
 20
31.40954149428983
 30
0.0
 10
286.5040684658184
 20
31.44417317205023
 30
0.0
 10
286.1584356170937
 20
31.47608900325513
 30
0.0
 10
285.5273354248451
 20
31.53254412126138
 30
0.0
 10
285.3189620841875
 20
31.55116091527153
 30
0.0
  0
SPLINE
  5
20D
330
1F
100
AcDbEntity
  8
0
  6
Continuous
 62
     7
370
    15
100
AcDbSpline
210
0.0
220
0.0
230
1.0
 70
     8
 71
     3
 72
    22
 73
    18
 74
     0
 42
0.000000001
 43
0.00000001
 40
0.0
 40
0.0
 40
0.0
 40
0.0
 40
0.0500000000000107
 40
0.0999999999999999
 40
0.15
 40
0.1999999999999999
 40
0.25
 40
0.2968749999999668
 40
0.34375
 40
0.3906249999999996
 40
0.4374999999999987
 40
0.5292946909502637
 40
0.5292946909502637
 40
0.53125
 40
0.625
 40
0.8125
 40
0.895592798935398
 40
0.895592798935398
 40
0.895592798935398
 40
0.895592798935398
 10
274.3169192224742
 20
20.70194426161365
 30
0.0
 10
274.2366632939348
 20
20.70912035100223
 30
0.0
 10
274.0756921515801
 20
20.7449992640594
 30
0.0
 10
273.8570717719708
 20
20.8680907458664
 30
0.0
 10
273.6700621838119
 20
21.06964910406267
 30
0.0
 10
273.5327672013113
 20
21.35074003494426
 30
0.0
 10
273.4620834817763
 20
21.69630451202354
 30
0.0
 10
273.4625650521882
 20
22.08636195820616
 30
0.0
 10
273.530888387817
 20
22.4974186231695
 30
0.0
 10
273.6626068473079
 20
22.9164967350545
 30
0.0
 10
273.9026188212626
 20
23.44682865372186
 30
0.0
 10
274.1470248134891
 20
23.81307224593362
 30
0.0
 10
274.3197239273953
 20
24.02897301819048
 30
0.0
 10
274.4839546445958
 20
24.23432411737634
 30
0.0
 10
274.8942651676974
 20
24.74278829675007
 30
0.0
 10
275.2301981504982
 20
25.16169342658327
 30
0.0
 10
275.87086456224
 20
25.95870471069372
 30
0.0
 10
276.0781541782673
 20
26.21655696756594
 30
0.0
  0
LINE
  5
20E
330
1F
100
AcDbEntity
  8
0
  6
Continuous
 62
     7
370
    15
100
AcDbLine
 10
276.0781068547
 20
20.5444675479
 30
0.0
 11
274.3169192225
 21
20.7019442616
 31
0.0
  0
SPLINE
  5
20F
330
1F
100
AcDbEntity
  8
0
  6
Continuous
 62
     7
370
    15
100
AcDbSpline
210
0.0
220
0.0
230
1.0
 70
     8
 71
     3
 72
     8
 73
     4
 74
     0
 42
0.000000001
 43
0.00000001
 40
0.0
 40
0.0
 40
0.0
 40
0.0
 40
1.0
 40
1.0
 40
1.0
 40
1.0
 10
247.7629067425921
 20
33.59949354571901
 30
0.0
 10
246.5932803226541
 20
33.40393737247626
 30
0.0
 10
245.4226770797943
 20
33.21035240575635
 30
0.0
 10
244.2514455981414
 20
33.01807295651008
 30
0.0
  0
SPLINE
  5
210
330
1F
100
AcDbEntity
  8
0
  6
Continuous
 62
     7
370
    15
100
AcDbSpline
210
0.0
220
0.0
230
1.0
 70
     8
 71
     3
 72
     8
 73
     4
 74
     0
 42
0.000000001
 43
0.00000001
 40
0.0
 40
0.0
 40
0.0
 40
0.0
 40
0.0012417047560385
 40
0.0012417047560385
 40
0.0012417047560385
 40
0.0012417047560385
 10
243.7769449944917
 20
33.29204837738995
 30
0.0
 10
243.9352161349521
 20
33.20066305263201
 30
0.0
 10
244.0933854406314
 20
33.10933650522841
 30
0.0
 10
244.2514455981414
 20
33.01807295651008
 30
0.0
  0
LWPOLYLINE
  5
211
330
1F
100
AcDbEntity
  8
0
  6
Continuous
 62
     7
370
    15
100
AcDbPolyline
 90
       28
 70
   128
 43
0.0
 10
243.7769449945
 20
33.2920483774
 10
244.2557805853
 20
35.2407145136
 10
244.8576623016
 20
37.2065257074
 10
245.5781095493
 20
39.1748478507
 10
246.4117590959
 20
41.1310281436
 10
247.3524049956
 20
43.0605041735
 10
248.3930447889
 20
44.9489123229
 10
249.5259316306
 20
46.7821946961
 10
250.7426319598
 20
48.5467037709
 10
252.0340882822
 20
50.2293039948
 10
253.3906865966
 20
51.8174695702
 10
254.8023279647
 20
53.2993777003
 10
256.2585036906
 20
54.6639966016
 10
257.7483735508
 20
55.9011676281
 10
259.2608464922
 20
57.0016808951
 10
260.7846631975
 20
57.9573438408
 10
262.3084799028
 20
58.761042214
 10
263.8209528443
 20
59.4067930349
 10
265.3108227044
 20
59.8897891342
 10
266.7669984303
 20
60.2064349392
 10
268.1786397984
 20
60.3543732404
 10
269.5352381128
 20
60.3325027393
 10
270.8266944352
 20
60.1409862467
 10
272.0433947644
 20
59.7812494706
 10
273.1762816061
 20
59.2559704031
 10
274.2169213994
 20
58.5690593845
 10
275.1575672991
 20
57.7256299933
 10
275.6577976419
 20
57.1631699416
  0
LINE
  5
212
330
1F
100
AcDbEntity
  8
0
  6
Continuous
 62
     7
370
    15
100
AcDbLine
 10
239.6492091593
 20
35.6749395538
 30
0.0
 11
243.7769449945
 21
33.2920483774
 31
0.0
  0
ARC
  5
213
330
1F
100
AcDbEntity
  8
0
  6
Continuous
 62
     7
370
    15
100
AcDbCircle
 10
264.7930978925
 20
53.9454912079
 30
0.0
 40
8.791379898621159
100
AcDbArc
 50
60.2471036508
 51
85.9809519032
  0
SPLINE
  5
214
330
1F
100
AcDbEntity
  8
0
  6
Continuous
 62
     7
370
    15
100
AcDbSpline
210
0.0
220
0.0
230
1.0
 70
     8
 71
     3
 72
    13
 73
     9
 74
     0
 42
0.000000001
 43
0.00000001
 40
0.0
 40
0.0
 40
0.0
 40
0.0
 40
0.1935905955791435
 40
0.3928012754935896
 40
0.5863901717867122
 40
0.7855816257780849
 40
0.9793802664217155
 40
1.0
 40
1.0
 40
1.0
 40
1.0
 10
257.4842715313563
 20
48.49455603416541
 30
0.0
 10
257.5353777567448
 20
48.46862770388708
 30
0.0
 10
257.6390738606706
 20
48.4160183239
 30
0.0
 10
257.8185287974248
 20
48.37100799219333
 30
0.0
 10
258.0117577427045
 20
48.35128461788032
 30
0.0
 10
258.2114208015039
 20
48.36314644159604
 30
0.0
 10
258.355292390809
 20
48.38387999677492
 30
0.0
 10
258.4278853649255
 20
48.40739479575144
 30
0.0
 10
258.4348663328178
 20
48.40965611730004
 30
0.0
  0
LWPOLYLINE
  5
215
330
1F
100
AcDbEntity
  8
0
  6
Continuous
 62
     7
370
    15
100
AcDbPolyline
 90
       25
 70
   128
 43
0.0
 10
259.5162878379
 20
49.6055212627
 10
259.5003884379
 20
49.7126503215
 10
259.4431375213
 20
49.8560679286
 10
259.3555303497
 20
49.9814955145
 10
259.2349386098
 20
50.0927626765
 10
259.0916928043
 20
50.1805018008
 10
258.9214937137
 20
50.2474427388
 10
258.7388104194
 20
50.2878543064
 10
258.5383535628
 20
50.3027727289
 10
258.3367609323
 20
50.290666336
 10
258.1285888378
 20
50.2508374061
 10
257.9311534086
 20
50.186207499
 10
257.7391378651
 20
50.0946283535
 10
257.5688847949
 20
49.9836327599
 10
257.4154147526
 20
49.8497982849
 10
257.291834959
 20
49.7045669355
 10
257.1943030138
 20
49.5436252997
 10
257.1309316081
 20
49.3806363851
 10
257.0997839479
 20
49.2111596312
 10
257.1033718842
 20
49.0494294652
 10
257.1417439334
 20
48.8913766228
 10
257.2116280397
 20
48.7504689131
 10
257.3149383483
 20
48.6230274029
 10
257.4842715314
 20
48.4945560342
 10
257.4842715314
 20
48.4945560342
  0
SPLINE
  5
216
330
1F
100
AcDbEntity
  8
0
  6
Continuous
 62
     7
370
    15
100
AcDbSpline
210
0.0
220
0.0
230
1.0
 70
     8
 71
     3
 72
    10
 73
     6
 74
     0
 42
0.000000001
 43
0.00000001
 40
0.0
 40
0.0
 40
0.0
 40
0.0
 40
0.1983717319861197
 40
0.6709802692894349
 40
1.0
 40
1.0
 40
1.0
 40
1.0
 10
249.6050572132933
 20
32.21110892708572
 30
0.0
 10
249.5206638237417
 20
32.32161656134842
 30
0.0
 10
249.235208337314
 20
32.69540188576813
 30
0.0
 10
248.7438697675432
 20
33.1448349333748
 30
0.0
 10
248.3268673081887
 20
33.4263161431813
 30
0.0
 10
248.1557131182018
 20
33.54184708881533
 30
0.0
  0
SPLINE
  5
217
330
1F
100
AcDbEntity
  8
0
  6
Continuous
 62
     7
370
    15
100
AcDbSpline
210
0.0
220
0.0
230
1.0
 70
     8
 71
     3
 72
    10
 73
     6
 74
     0
 42
0.000000001
 43
0.00000001
 40
0.0
 40
0.0
 40
0.0
 40
0.0
 40
0.5
 40
0.5
 40
1.0
 40
1.0
 40
1.0
 40
1.0
 10
248.0197837709697
 20
33.59437707062465
 30
0.0
 10
247.9792084625748
 20
33.60320159195161
 30
0.0
 10
247.9356341195211
 20
33.6081546678603
 30
0.0
 10
247.8478313925343
 20
33.60973985312641
 30
0.0
 10
247.8048632756124
 20
33.60650848561787
 30
0.0
 10
247.7629067425921
 20
33.59949354571901
 30
0.0
  0
SPLINE
  5
218
330
1F
100
AcDbEntity
  8
0
  6
Continuous
 62
     7
370
    15
100
AcDbSpline
210
0.0
220
0.0
230
1.0
 70
     8
 71
     3
 72
     8
 73
     4
 74
     0
 42
0.000000001
 43
0.00000001
 40
0.0
 40
0.0
 40
0.0
 40
0.0
 40
1.0
 40
1.0
 40
1.0
 40
1.0
 10
248.1557131182018
 20
33.54184708881533
 30
0.0
 10
248.1172311763657
 20
33.5655178986112
 30
0.0
 10
248.0711235246187
 20
33.58321144382064
 30
0.0
 10
248.0197837709697
 20
33.5943770706247
 30
0.0
  0
SPLINE
  5
219
330
1F
100
AcDbEntity
  8
0
  6
Continuous
 62
     7
370
    15
100
AcDbSpline
210
0.0
220
0.0
230
1.0
 70
     8
 71
     3
 72
    10
 73
     6
 74
     0
 42
0.000000001
 43
0.00000001
 40
0.0
 40
0.0
 40
0.0
 40
0.0
 40
0.5
 40
0.5
 40
1.0
 40
1.0
 40
1.0
 40
1.0
 10
239.4925122395045
 20
35.76538743695307
 30
0.0
 10
239.5035628378545
 20
35.75901160240893
 30
0.0
 10
239.5221827837939
 20
35.74826536090355
 30
0.0
 10
239.5754827338545
 20
35.71749988806358
 30
0.0
 10
239.6090635065758
 20
35.69811514579263
 30
0.0
 10
239.6492091593153
 20
35.67493955377248
 30
0.0
  0
SPLINE
  5
21A
330
1F
100
AcDbEntity
  8
0
  6
Continuous
 62
     7
370
    15
100
AcDbSpline
210
0.0
220
0.0
230
1.0
 70
     8
 71
     3
 72
    11
 73
     7
 74
     0
 42
0.000000001
 43
0.00000001
 40
0.0
 40
0.0
 40
0.0
 40
0.0
 40
0.2801302297558391
 40
0.5950396415719484
 40
0.9099354234495275
 40
1.0
 40
1.0
 40
1.0
 40
1.0
 10
274.2285308748221
 20
21.03180705415049
 30
0.0
 10
274.1059151672081
 20
21.05985756289346
 30
0.0
 10
273.8454605680265
 20
21.11944115257912
 30
0.0
 10
273.5843127951327
 20
21.45828353832604
 30
0.0
 10
273.451065199718
 20
21.82801677800625
 30
0.0
 10
273.4775970798007
 20
22.09016848783934
 30
0.0
 10
273.4834978611858
 20
22.14847192976079
 30
0.0
  0
SPLINE
  5
21B
330
1F
100
AcDbEntity
  8
0
  6
Continuous
 62
     7
370
    15
100
AcDbSpline
210
0.0
220
0.0
230
1.0
 70
     8
 71
     3
 72
    13
 73
     9
 74
     0
 42
0.000000001
 43
0.00000001
 40
0.0
 40
0.0
 40
0.0
 40
0.0
 40
0.0050620220451745
 40
0.1380680497781401
 40
0.3621887298027801
 40
0.5716402702530088
 40
0.7860229126028273
 40
1.0
 40
1.0
 40
1.0
 40
1.0
 10
276.2530740879475
 20
26.46162145545515
 30
0.0
 10
276.2530663850181
 20
26.46147478706803
 30
0.0
 10
276.2528562854908
 20
26.45747436628904
 30
0.0
 10
276.2387002357643
 20
26.43263275055417
 30
0.0
 10
276.2110301344197
 20
26.38993967225868
 30
0.0
 10
276.1693707884945
 20
26.33310198668331
 30
0.0
 10
276.1253281817255
 20
26.27564901935033
 30
0.0
 10
276.0938689179356
 20
26.23624188175986
 30
0.0
 10
276.0781541782671
 20
26.21655696756577
 30
0.0
  0
SPLINE
  5
21C
330
1F
100
AcDbEntity
  8
0
  6
Continuous
 62
     7
370
    15
100
AcDbSpline
210
0.0
220
0.0
230
1.0
 70
     8
 71
     3
 72
    16
 73
    12
 74
     0
 42
0.000000001
 43
0.00000001
 40
0.0
 40
0.0
 40
0.0
 40
0.0
 40
0.2500000000000022
 40
0.2500000000000022
 40
0.5000000000000043
 40
0.5000000000000043
 40
0.6250000000000036
 40
0.6250000000000036
 40
0.7500000000000027
 40
0.7500000000000027
 40
1.0
 40
1.0
 40
1.0
 40
1.0
 10
285.3189620841937
 20
31.55116091527098
 30
0.0
 10
285.2873118461098
 20
31.55398865686653
 30
0.0
 10
285.2531831198597
 20
31.55547377435845
 30
0.0
 10
285.1760044758317
 20
31.55361211925677
 30
0.0
 10
285.1323092453808
 20
31.55041260072364
 30
0.0
 10
285.0585946553661
 20
31.53656768378879
 30
0.0
 10
285.0326763384508
 20
31.53024887025961
 30
0.0
 10
284.9844730912398
 20
31.51468439915411
 30
0.0
 10
284.9621259997539
 20
31.50537654013335
 30
0.0
 10
284.9073094558331
 20
31.47731999420267
 30
0.0
 10
284.8853298164502
 20
31.45895338681791
 30
0.0
 10
284.869108203774
 20
31.44184348488149
 30
0.0
  0
SPLINE
  5
21D
330
1F
100
AcDbEntity
  8
0
  6
Continuous
 62
     7
370
    15
100
AcDbSpline
210
0.0
220
0.0
230
1.0
 70
     8
 71
     3
 72
     8
 73
     4
 74
     0
 42
0.000000001
 43
0.00000001
 40
0.0
 40
0.0
 40
0.0
 40
0.0
 40
1.0
 40
1.0
 40
1.0
 40
1.0
 10
284.869108203774
 20
31.44184348488149
 30
0.0
 10
284.8178782365297
 20
31.46130025348039
 30
0.0
 10
284.7671602444932
 20
31.48366700257363
 30
0.0
 10
284.7281359734448
 20
31.50619523472296
 30
0.0
  0
LINE
  5
21E
330
1F
100
AcDbEntity
  8
0
  6
Continuous
 62
     7
370
    15
100
AcDbLine
 10
283.9154307744
 20
32.2734004781
 30
0.0
 11
283.8271032372
 21
32.3218800264
 31
0.0
  0
LINE
  5
21F
330
1F
100
AcDbEntity
  8
0
  6
Continuous
 62
     7
370
    15
100
AcDbLine
 10
282.9286356584
 20
32.5450246545
 30
0.0
 11
284.7281359734
 21
31.5061952347
 31
0.0
  0
ARC
  5
220
330
1F
100
AcDbEntity
  8
0
  6
Continuous
 62
     7
370
    15
100
AcDbCircle
 10
272.1297544402
 20
31.763840444
 30
0.0
 40
8.704930266734717
100
AcDbArc
 50
338.0321293294
 51
1.7082709066
  0
LINE
  5
221
330
1F
100
AcDbEntity
  8
0
  6
Continuous
 62
     7
370
    15
100
AcDbLine
 10
280.2026525739
 20
28.5074426379
 30
0.0
 11
284.7281359734
 21
25.89493668
 31
0.0
  0
LINE
  5
222
330
1F
100
AcDbEntity
  8
0
  6
Continuous
 62
     7
370
    15
100
AcDbLine
 10
276.915999646
 20
20.1487164048
 30
0.0
 11
277.0043100995
 21
20.1002457591
 31
0.0
  0
LINE
  5
223
330
1F
100
AcDbEntity
  8
0
  6
Continuous
 62
     7
370
    15
100
AcDbLine
 10
273.5328453767
 20
22.3998103109
 30
0.0
 11
276.103294447
 21
20.9159216481
 31
0.0
  0
SPLINE
  5
224
330
1F
100
AcDbEntity
  8
0
  6
Continuous
 62
     7
370
    15
100
AcDbSpline
210
0.0
220
0.0
230
1.0
 70
     8
 71
     3
 72
     9
 73
     5
 74
     0
 42
0.000000001
 43
0.00000001
 40
0.0
 40
0.0
 40
0.0
 40
0.0
 40
0.5377956222894344
 40
1.0
 40
1.0
 40
1.0
 40
1.0
 10
248.1557131182018
 20
23.05249102587222
 30
0.0
 10
248.3957792916493
 20
22.92572497833073
 30
0.0
 10
248.8421685211217
 20
22.69001081055481
 30
0.0
 10
249.2337746785647
 20
22.57436617154056
 30
0.0
 10
249.4147767588733
 20
22.52091471312941
 30
0.0
  0
SPLINE
  5
225
330
1F
100
AcDbEntity
  8
0
  6
Continuous
 62
     7
370
    15
100
AcDbSpline
210
0.0
220
0.0
230
1.0
 70
     8
 71
     3
 72
     8
 73
     4
 74
     0
 42
0.000000001
 43
0.00000001
 40
0.0
 40
0.0
 40
0.0
 40
0.0
 40
1.0
 40
1.0
 40
1.0
 40
1.0
 10
248.0197837709703
 20
23.10182763789264
 30
0.0
 10
248.0711121529674
 20
23.09066448425235
 30
0.0
 10
248.1172327170717
 20
23.07395047995065
 30
0.0
 10
248.1557131182019
 20
23.05249102587225
 30
0.0
  0
SPLINE
  5
226
330
1F
100
AcDbEntity
  8
0
  6
Continuous
 62
     7
370
    15
100
AcDbSpline
210
0.0
220
0.0
230
1.0
 70
     8
 71
     3
 72
    12
 73
     8
 74
     0
 42
0.000000001
 43
0.00000001
 40
0.0
 40
0.0
 40
0.0
 40
0.0
 40
0.1882354094303036
 40
0.3552040209501064
 40
0.500948000530457
 40
0.75630463504078
 40
0.9999999999999999
 40
0.9999999999999999
 40
0.9999999999999999
 40
0.9999999999999999
 10
248.835700287302
 20
21.43625262859091
 30
0.0
 10
248.9247438201815
 20
21.53053427718883
 30
0.0
 10
249.0927707658774
 20
21.7084456530832
 30
0.0
 10
249.2726801234773
 20
22.05576274713724
 30
0.0
 10
249.434204095475
 20
22.5164163846959
 30
0.0
 10
249.559960760049
 20
23.13796443308884
 30
0.0
 10
249.5772635291127
 20
23.72128840033851
 30
0.0
 10
249.5857127581034
 20
24.00613516428189
 30
0.0
  0
SPLINE
  5
227
330
1F
100
AcDbEntity
  8
0
  6
Continuous
 62
     7
370
    15
100
AcDbSpline
210
0.0
220
0.0
230
1.0
 70
     8
 71
     3
 72
     9
 73
     5
 74
     0
 42
0.000000001
 43
0.00000001
 40
0.0
 40
0.0
 40
0.0
 40
0.0
 40
0.5048005003628353
 40
1.0
 40
1.0
 40
1.0
 40
1.0
 10
248.7249658752712
 20
20.71222810832981
 30
0.0
 10
248.7435107736049
 20
20.8339419843744
 30
0.0
 10
248.7802478575032
 20
21.07505481203029
 30
0.0
 10
248.817344968859
 20
21.31656104527746
 30
0.0
 10
248.8357154398404
 20
21.43615481114072
 30
0.0
  0
LINE
  5
228
330
1F
100
AcDbEntity
  8
0
  6
Continuous
 62
     7
370
    15
100
AcDbLine
 10
276.174454251
 20
20.8578121812
 30
0.0
 11
274.2285308748
 21
21.0318070542
 31
0.0
  0
SPLINE
  5
229
330
1F
100
AcDbEntity
  8
0
  6
Continuous
 62
     7
370
    15
100
AcDbSpline
210
0.0
220
0.0
230
1.0
 70
     8
 71
     3
 72
    16
 73
    12
 74
     0
 42
0.000000001
 43
0.00000001
 40
0.0
 40
0.0
 40
0.0
 40
0.0
 40
0.2500000000000016
 40
0.2500000000000016
 40
0.5000000000000031
 40
0.5000000000000031
 40
0.625000000000002
 40
0.625000000000002
 40
0.7500000000000009
 40
0.7500000000000009
 40
1.0
 40
1.0
 40
1.0
 40
1.0
 10
276.0781068547144
 20
20.5444675479424
 30
0.0
 10
276.1093679133597
 20
20.5416723382264
 30
0.0
 10
276.1402980559894
 20
20.5422758589451
 30
0.0
 10
276.1969539678677
 20
20.55618010434427
 30
0.0
 10
276.2237951534515
 20
20.56908902697619
 30
0.0
 10
276.2491472439904
 20
20.61099910653147
 30
0.0
 10
276.2545818647484
 20
20.62913605544863
 30
0.0
 10
276.2557034660927
 20
20.6717653098334
 30
0.0
 10
276.2513406185815
 20
20.69630832137151
 30
0.0
 10
276.2280970562663
 20
20.76958828882361
 30
0.0
 10
276.2019688888793
 20
20.81561233841671
 30
0.0
 10
276.1744542509805
 20
20.85781218118873
 30
0.0
  0
SPLINE
  5
22A
330
1F
100
AcDbEntity
  8
0
  6
Continuous
 62
     7
370
    15
100
AcDbSpline
210
0.0
220
0.0
230
1.0
 70
     8
 71
     3
 72
     8
 73
     4
 74
     0
 42
0.000000001
 43
0.00000001
 40
0.0
 40
0.0
 40
0.0
 40
0.0
 40
1.0
 40
1.0
 40
1.0
 40
1.0
 10
276.1032944469639
 20
20.91592164811682
 30
0.0
 10
276.1422819376625
 20
20.89341464881148
 30
0.0
 10
276.1646996047859
 20
20.87356246149464
 30
0.0
 10
276.1744542509805
 20
20.85781218118876
 30
0.0
  0
SPLINE
  5
22B
330
1F
100
AcDbEntity
  8
0
  6
Continuous
 62
     7
370
    15
100
AcDbSpline
210
0.0
220
0.0
230
1.0
 70
     8
 71
     3
 72
     8
 73
     4
 74
     0
 42
0.000000001
 43
0.00000001
 40
0.0
 40
0.0
 40
0.0
 40
0.0
 40
1.0
 40
1.0
 40
1.0
 40
1.0
 10
284.7281359734448
 20
25.89493668003936
 30
0.0
 10
284.7671234641435
 20
25.872429680734
 30
0.0
 10
284.8178712442621
 20
25.86893211953128
 30
0.0
 10
284.8691082037841
 20
25.87712906897818
 30
0.0
  0
SPLINE
  5
22C
330
1F
100
AcDbEntity
  8
0
  6
Continuous
 62
     7
370
    15
100
AcDbSpline
210
0.0
220
0.0
230
1.0
 70
     8
 71
     3
 72
    16
 73
    12
 74
     0
 42
0.000000001
 43
0.00000001
 40
0.0
 40
0.0
 40
0.0
 40
0.0
 40
0.2500000000000017
 40
0.2500000000000017
 40
0.3750000000000027
 40
0.3750000000000027
 40
0.5000000000000037
 40
0.5000000000000037
 40
0.7500000000000018
 40
0.7500000000000018
 40
1.0
 40
1.0
 40
1.0
 40
1.0
 10
284.8691082037842
 20
25.87712906897815
 30
0.0
 10
284.8852374264092
 20
25.82834000569696
 30
0.0
 10
284.9076437351335
 20
25.77921396460017
 30
0.0
 10
284.9619695573689
 20
25.7249743742015
 30
0.0
 10
284.9840360530331
 20
25.71065399039263
 30
0.0
 10
285.0323822422629
 20
25.69631889567263
 30
0.0
 10
285.0584672076569
 20
25.69633822691377
 30
0.0
 10
285.1322048809001
 20
25.71180677937509
 30
0.0
 10
285.1756810389388
 20
25.7395074133994
 30
0.0
 10
285.2529887036526
 20
25.80288259316837
 30
0.0
 10
285.2876421060807
 20
25.84010669340257
 30
0.0
 10
285.3190089906436
 20
25.87912679959933
 30
0.0
  0
LINE
  5
22D
330
1F
100
AcDbEntity
  8
0
  6
Continuous
 62
     7
370
    15
100
AcDbLine
 10
239.9265793396
 20
35.514765104
 30
0.0
 11
239.4925122395
 21
35.765387437
 31
0.0
  0
LINE
  5
22E
330
1F
100
AcDbEntity
  8
0
  6
Continuous
 62
     7
370
    15
100
AcDbLine
 10
244.2514455981
 20
33.0180729565
 30
0.0
 11
239.9265793396
 21
35.514765104
 31
0.0
  0
SPLINE
  5
22F
330
1F
100
AcDbEntity
  8
0
  6
Continuous
 62
     7
370
    15
100
AcDbSpline
210
0.0
220
0.0
230
1.0
 70
     8
 71
     3
 72
    11
 73
     7
 74
     0
 42
0.000000001
 43
0.00000001
 40
0.0
 40
0.0
 40
0.0
 40
0.0
 40
0.0763291486414734
 40
0.4828240100966647
 40
0.8892344489868842
 40
0.9999999999999999
 40
0.9999999999999999
 40
0.9999999999999999
 40
0.9999999999999999
 10
243.8229392838006
 20
30.20203375828318
 30
0.0
 10
243.8225039044705
 20
30.28027289730318
 30
0.0
 10
243.8197498898146
 20
30.77517865114027
 30
0.0
 10
243.7750542326007
 20
31.7081646936376
 30
0.0
 10
243.736979118039
 20
32.67364850191682
 30
0.0
 10
243.7489971371751
 20
33.19498726435178
 30
0.0
 10
243.7515710820946
 20
33.30664437220862
 30
0.0
  0
LINE
  5
230
330
1F
100
AcDbEntity
  8
0
  6
Continuous
 62
     7
370
    15
100
AcDbLine
 10
243.8229392838
 20
28.4262331293
 30
0.0
 11
243.8229392838
 21
30.2020337583
 31
0.0
  0
LINE
  5
231
330
1F
100
AcDbEntity
  8
0
  6
Continuous
 62
     7
370
    15
100
AcDbLine
 10
242.8948616335
 20
33.6148595055
 30
0.0
 11
242.8959026607
 21
33.8006112375
 31
0.0
  0
ARC
  5
232
330
1F
100
AcDbEntity
  8
0
  6
Continuous
 62
     7
370
    15
100
AcDbCircle
 10
254.8307148348
 20
33.349269841
 30
0.0
 40
11.93880770898599
100
AcDbArc
 50
178.7252979842
 51
202.7773427363
  0
LINE
  5
233
330
1F
100
AcDbEntity
  8
0
  6
Continuous
 62
     7
370
    15
100
AcDbLine
 10
224.3865635082
 20
70.2299090387
 30
0.0
 11
224.4491815649
 21
70.2066644735
 31
0.0
  0
LWPOLYLINE
  5
234
330
1F
100
AcDbEntity
  8
0
  6
Continuous
 62
     7
370
    15
100
AcDbPolyline
 90
        3
 70
   128
 43
0.0
 10
214.2772088328
 20
52.7180956677
 10
214.2154593141
 20
52.7714796967
 10
214.2028503777
 20
52.782692549
  0
SPLINE
  5
235
330
1F
100
AcDbEntity
  8
0
  6
Continuous
 62
     7
370
    15
100
AcDbSpline
210
0.0
220
0.0
230
1.0
 70
     8
 71
     3
 72
    30
 73
    26
 74
     0
 42
0.000000001
 43
0.00000001
 40
0.0
 40
0.0
 40
0.0
 40
0.0
 40
0.1249999999999999
 40
0.1249999999999999
 40
0.1874999999999998
 40
0.1874999999999998
 40
0.2499999999999997
 40
0.2499999999999997
 40
0.3124999999999997
 40
0.3124999999999997
 40
0.3749999999999996
 40
0.3749999999999996
 40
0.4374999999999995
 40
0.4374999999999995
 40
0.4999999999999994
 40
0.4999999999999994
 40
0.6249999999999993
 40
0.6249999999999993
 40
0.6874999999999994
 40
0.6874999999999994
 40
0.7499999999999996
 40
0.7499999999999996
 40
0.8749999999999998
 40
0.8749999999999998
 40
1.0
 40
1.0
 40
1.0
 40
1.0
 10
286.8150315799426
 20
28.29783924937259
 30
0.0
 10
286.9283216703412
 20
28.43877104479975
 30
0.0
 10
287.0306198374681
 20
28.58856146648568
 30
0.0
 10
287.1664945273779
 20
28.82702799024183
 30
0.0
 10
287.2091458275909
 20
28.90945250832839
 30
0.0
 10
287.286590751373
 20
29.07505082095208
 30
0.0
 10
287.321469304618
 20
29.15832579128261
 30
0.0
 10
287.3837310066413
 20
29.32579304979619
 30
0.0
 10
287.4111350404168
 20
29.40997393019098
 30
0.0
 10
287.4582967509397
 20
29.57924075170261
 30
0.0
 10
287.4778501885428
 20
29.6637849179865
 30
0.0
 10
287.5085271374102
 20
29.82881225483885
 30
0.0
 10
287.5197739208791
 20
29.90987255561238
 30
0.0
 10
287.5342433369158
 20
30.06899866293363
 30
0.0
 10
287.5374942201817
 20
30.14753090763874
 30
0.0
 10
287.5349765130944
 20
30.37461953992998
 30
0.0
 10
287.5174861080768
 20
30.5129346563584
 30
0.0
 10
287.4682797446369
 20
30.70062997563457
 30
0.0
 10
287.4479151502986
 20
30.75986030048115
 30
0.0
 10
287.4004446836334
 20
30.86817760566012
 30
0.0
 10
287.3732236625492
 20
30.91776570247806
 30
0.0
 10
287.2811987690806
 20
31.0529282757668
 30
0.0
 10
287.2049601052024
 20
31.12521689066136
 30
0.0
 10
287.0292749317911
 20
31.22684325481525
 30
0.0
 10
286.9283318935194
 20
31.25771785348018
 30
0.0
 10
286.8150315804394
 20
31.26784861162912
 30
0.0
  0
LINE
  5
236
330
1F
100
AcDbEntity
  8
0
  6
Continuous
 62
     7
370
    15
100
AcDbLine
 10
286.8150315804
 20
31.2678486116
 30
0.0
 11
284.8691082038
 21
31.4418434849
 31
0.0
  0
ARC
  5
237
330
1F
100
AcDbEntity
  8
0
  6
Continuous
 62
     7
370
    15
100
AcDbCircle
 10
279.5848513673
 20
33.1023324964
 30
0.0
 40
3.360506813820921
100
AcDbArc
 50
320.6498369943
 51
350.7253969509
  0
LINE
  5
238
330
1F
100
AcDbEntity
  8
0
  6
Continuous
 62
     7
370
    15
100
AcDbLine
 10
284.8691082038
 20
25.877129069
 30
0.0
 11
286.8150315799
 21
28.2978392494
 31
0.0
  0
LINE
  5
239
330
1F
100
AcDbEntity
  8
0
  6
Continuous
 62
     7
370
    15
100
AcDbLine
 10
280.2026525739
 20
28.5074426379
 30
0.0
 11
282.1834821632
 21
30.9715758156
 31
0.0
  0
LWPOLYLINE
  5
23A
330
1F
100
AcDbEntity
  8
0
  6
Continuous
 62
     7
370
    15
100
AcDbPolyline
 90
       10
 70
   128
 43
0.0
 10
251.2325072816
 20
14.852741625
 10
250.7426319598
 20
14.9466608406
 10
249.5259316306
 20
15.3063976167
 10
248.3930447889
 20
15.8316766842
 10
247.3524049956
 20
16.5185877028
 10
246.4117590959
 20
17.362017094
 10
245.5781095493
 20
18.3556861081
 10
244.8576623016
 20
19.4921975648
 10
244.2557805853
 20
20.7630909206
 10
243.7769449945
 20
22.1589052515
  0
SPLINE
  5
23B
330
1F
100
AcDbEntity
  8
0
  6
Continuous
 62
     7
370
    15
100
AcDbSpline
210
0.0
220
0.0
230
1.0
 70
     8
 71
     3
 72
     8
 73
     4
 74
     0
 42
0.000000001
 43
0.00000001
 40
0.0000000000000006
 40
0.0000000000000006
 40
0.0000000000000006
 40
0.0000000000000006
 40
0.001241704756042
 40
0.001241704756042
 40
0.001241704756042
 40
0.001241704756042
 10
244.2514455981442
 20
22.52552352377658
 30
0.0
 10
244.0933854406337
 20
22.40312031877208
 30
0.0
 10
243.9352161349526
 20
22.28091808880363
 30
0.0
 10
243.7769449944917
 20
22.15890525149251
 30
0.0
  0
SPLINE
  5
23C
330
1F
100
AcDbEntity
  8
0
  6
Continuous
 62
     7
370
    15
100
AcDbSpline
210
0.0
220
0.0
230
1.0
 70
     8
 71
     3
 72
     8
 73
     4
 74
     0
 42
0.000000001
 43
0.00000001
 40
0.0
 40
0.0
 40
0.0
 40
0.0
 40
1.0
 40
1.0
 40
1.0
 40
1.0
 10
244.2514455981432
 20
22.5255235237785
 30
0.0
 10
245.4226781828183
 20
22.7178031541064
 30
0.0
 10
246.5932975574102
 20
22.91139082131654
 30
0.0
 10
247.7629067425921
 20
23.10694411298712
 30
0.0
  0
SPLINE
  5
23D
330
1F
100
AcDbEntity
  8
0
  6
Continuous
 62
     7
370
    15
100
AcDbSpline
210
0.0
220
0.0
230
1.0
 70
     8
 71
     3
 72
    10
 73
     6
 74
     0
 42
0.000000001
 43
0.00000001
 40
0.0
 40
0.0
 40
0.0
 40
0.0
 40
0.5
 40
0.5
 40
1.0
 40
1.0
 40
1.0
 40
1.0
 10
247.7629067425921
 20
23.10694411298712
 30
0.0
 10
247.8046726036065
 20
23.11392717340106
 30
0.0
 10
247.8485698894206
 20
23.11721726440944
 30
0.0
 10
247.9361972722105
 20
23.1155542899804
 30
0.0
 10
247.9787025692711
 20
23.11076218342965
 30
0.0
 10
248.0197837709703
 20
23.10182763789264
 30
0.0
  0
LINE
  5
23E
330
1F
100
AcDbEntity
  8
0
  6
Continuous
 62
     7
370
    15
100
AcDbLine
 10
239.9265793396
 20
25.0222156712
 30
0.0
 11
244.2514455981
 21
22.5255235238
 31
0.0
  0
LINE
  5
23F
330
1F
100
AcDbEntity
  8
0
  6
Continuous
 62
     7
370
    15
100
AcDbLine
 10
239.9265793396
 20
25.0222156712
 30
0.0
 11
243.4693858932
 21
27.0674343609
 31
0.0
  0
LINE
  5
240
330
1F
100
AcDbEntity
  8
0
  6
Continuous
 62
     7
370
    15
100
AcDbLine
 10
239.4925122395
 20
24.7715933383
 30
0.0
 11
239.9265793396
 21
25.0222156712
 31
0.0
  0
LINE
  5
241
330
1F
100
AcDbEntity
  8
0
  6
Continuous
 62
     7
370
    15
100
AcDbLine
 10
243.7769449945
 20
22.1589052515
 30
0.0
 11
239.6492091593
 21
24.5417964279
 31
0.0
  0
SPLINE
  5
242
330
1F
100
AcDbEntity
  8
0
  6
Continuous
 62
     7
370
    15
100
AcDbSpline
210
0.0
220
0.0
230
1.0
 70
     8
 71
     3
 72
     8
 73
     4
 74
     0
 42
0.000000001
 43
0.00000001
 40
0.0
 40
0.0
 40
0.0
 40
0.0
 40
1.0
 40
1.0
 40
1.0
 40
1.0
 10
239.6492091593153
 20
24.54179642787505
 30
0.0
 10
239.5689899301491
 20
24.58810600314565
 30
0.0
 10
239.5146001678634
 20
24.67176884415445
 30
0.0
 10
239.4925122395045
 20
24.77159333826148
 30
0.0
  0
ARC
  5
243
330
1F
100
AcDbEntity
  8
0
  6
Continuous
 62
     7
370
    15
100
AcDbCircle
 10
248.6752209781
 20
25.9632747854
 30
0.0
 40
8.916713789071325
100
AcDbArc
 50
215.0107921099
 51
239.5618524284
  0
ELLIPSE
  5
244
330
1F
100
AcDbEntity
  8
0
  6
Continuous
 62
     7
370
    15
100
AcDbEllipse
 10
243.1764926744
 20
28.053058829
 30
0.0
 11
-7.507462981948265E-5
 21
1.066811201853405
 31
0.0
210
0.0
220
0.0
230
1.0
 40
0.7174342186
 41
3.534193645557445
 42
5.104989972352354
  0
ELLIPSE
  5
245
330
1F
100
AcDbEntity
  8
0
  6
Continuous
 62
     7
370
    15
100
AcDbEllipse
 10
243.1158325026
 20
28.0180290733
 30
0.0
 11
0.3250094736511642
 21
1.213179526238669
 31
0.0
210
0.0
220
0.0
230
1.0
 40
0.5176380889
 41
3.619174351347721
 42
5.189970678142622
  0
LWPOLYLINE
  5
246
330
1F
100
AcDbEntity
  8
0
  6
Continuous
 62
     7
370
    15
100
AcDbPolyline
 90
       13
 70
   128
 43
0.0
 10
259.3651410352
 20
49.9371461891
 10
259.0799361564
 20
50.1777394421
 10
258.6768990927
 20
50.2917425102
 10
258.2173885834
 20
50.2617994596
 10
257.771360938
 20
50.0924688483
 10
257.4067198225
 20
49.809529727
 10
257.178978541
 20
49.456057012
 10
257.1228086393
 20
49.0858637199
 10
257.2467614757
 20
48.7553084236
 10
257.5319663545
 20
48.5147151705
 10
257.9350034182
 20
48.4007121025
 10
258.3945139275
 20
48.4306551531
 10
258.4401724554
 20
48.4414013695
  0
LWPOLYLINE
  5
247
330
1F
100
AcDbEntity
  8
0
  6
Continuous
 62
     7
370
    15
100
AcDbPolyline
 90
        3
 70
   128
 43
0.0
 10
259.490911105
 20
49.5840410878
 10
259.4890938716
 20
49.6065908928
 10
259.3651410352
 20
49.9371461891
  0
LINE
  5
248
330
1F
100
AcDbEntity
  8
0
  6
Continuous
 62
     7
370
    15
100
AcDbLine
 10
257.6029577029
 20
49.5946883773
 30
0.0
 11
257.5557690786
 21
48.9277028622
 31
0.0
  0
LINE
  5
249
330
1F
100
AcDbEntity
  8
0
  6
Continuous
 62
     7
370
    15
100
AcDbLine
 10
258.2587626312
 20
48.6792417913
 30
0.0
 11
257.5557690786
 21
48.9277028622
 31
0.0
  0
LINE
  5
24A
330
1F
100
AcDbEntity
  8
0
  6
Continuous
 62
     7
370
    15
100
AcDbLine
 10
259.008944808
 20
49.0977662354
 30
0.0
 11
258.2587626312
 21
48.6792417913
 31
0.0
  0
LINE
  5
24B
330
1F
100
AcDbEntity
  8
0
  6
Continuous
 62
     7
370
    15
100
AcDbLine
 10
259.008944808
 20
49.0977662354
 30
0.0
 11
259.0561334323
 21
49.7647517504
 31
0.0
  0
LINE
  5
24C
330
1F
100
AcDbEntity
  8
0
  6
Continuous
 62
     7
370
    15
100
AcDbLine
 10
258.3531398797
 20
50.0132128214
 30
0.0
 11
259.0561334323
 21
49.7647517504
 31
0.0
  0
LINE
  5
24D
330
1F
100
AcDbEntity
  8
0
  6
Continuous
 62
     7
370
    15
100
AcDbLine
 10
258.3531398797
 20
50.0132128214
 30
0.0
 11
257.6029577029
 21
49.5946883773
 31
0.0
  0
LINE
  5
24E
330
1F
100
AcDbEntity
  8
0
  6
Continuous
 62
     7
370
    15
100
AcDbLine
 10
257.8448024655
 20
48.9670050115
 30
0.0
 11
257.6029577029
 21
49.5946883773
 31
0.0
  0
LINE
  5
24F
330
1F
100
AcDbEntity
  8
0
  6
Continuous
 62
     7
370
    15
100
AcDbLine
 10
257.8448024655
 20
48.9670050115
 30
0.0
 11
257.8350387194
 21
48.8289997749
 31
0.0
  0
LINE
  5
250
330
1F
100
AcDbEntity
  8
0
  6
Continuous
 62
     7
370
    15
100
AcDbLine
 10
258.5949846423
 20
49.3855294556
 30
0.0
 11
259.0187085542
 21
49.235771472
 31
0.0
  0
LINE
  5
251
330
1F
100
AcDbEntity
  8
0
  6
Continuous
 62
     7
370
    15
100
AcDbLine
 10
258.5949846423
 20
49.3855294556
 30
0.0
 11
258.3531398797
 21
50.0132128214
 31
0.0
  0
LINE
  5
252
330
1F
100
AcDbEntity
  8
0
  6
Continuous
 62
     7
370
    15
100
AcDbLine
 10
258.5949846423
 20
49.3855294556
 30
0.0
 11
257.8448024655
 21
48.9670050115
 31
0.0
  0
LWPOLYLINE
  5
253
330
1F
100
AcDbEntity
  8
0
  6
Continuous
 62
     7
370
     0
100
AcDbPolyline
 90
       41
 70
   128
 43
0.0
 10
251.3536265034
 20
22.9862463997
 10
251.4160368303
 20
24.7188388259
 10
251.6028181431
 20
26.5110053136
 10
251.9126246782
 20
28.3498332622
 10
252.3432242724
 20
30.2220738742
 10
252.8915144458
 20
32.114237613
 10
253.5535447551
 20
34.0126913956
 10
254.3245452567
 20
35.903756819
 10
255.1989608743
 20
37.7738087135
 10
256.1704914235
 20
39.6093733122
 10
257.2321370043
 20
41.3972253302
 10
258.3762484361
 20
43.1244832528
 10
259.5945823696
 20
44.7787021471
 10
260.878360681
 20
46.3479633279
 10
262.2183337182
 20
47.8209602326
 10
263.6048469447
 20
49.1870798847
 10
265.027910501
 20
50.4364793607
 10
266.4772711815
 20
51.5601567088
 10
267.9424863093
 20
52.5500158081
 10
269.4129989758
 20
53.3989247009
 10
270.8782141035
 20
54.1007669793
 10
272.327574784
 20
54.6504858536
 10
273.7506383403
 20
55.0441205867
 10
275.1371515668
 20
55.2788350312
 10
276.477124604
 20
55.3529380644
 10
277.7609029154
 20
55.265895772
 10
278.9792368489
 20
55.0183352958
 10
280.1233482807
 20
54.6120403148
 10
281.1849938615
 20
54.0499381936
 10
282.1565244107
 20
53.3360788907
 10
283.0309400283
 20
52.475605779
 10
283.80194053
 20
51.4747185868
 10
284.4639708392
 20
50.3406287293
 10
285.0122610126
 20
49.0815073499
 10
285.4428606068
 20
47.7064264471
 10
285.7526671419
 20
46.2252935102
 10
285.9394484547
 20
44.6487801359
 10
286.0018587816
 20
42.9882451394
 10
285.9394484547
 20
41.2556527132
 10
285.7526671419
 20
39.4634862255
 10
285.4637446096
 20
37.7302588626
  0
LWPOLYLINE
  5
254
330
1F
100
AcDbEntity
  8
0
  6
Continuous
 62
     7
370
     0
100
AcDbPolyline
 90
       23
 70
   128
 43
0.0
 10
272.9647604516
 20
16.0790373031
 10
272.327574784
 20
15.5380121784
 10
270.8782141035
 20
14.4143348302
 10
269.4129989758
 20
13.424475731
 10
267.9424863093
 20
12.5755668382
 10
266.4772711815
 20
11.8737245598
 10
265.027910501
 20
11.3240056855
 10
263.6048469447
 20
10.9303709524
 10
262.2183337182
 20
10.6956565079
 10
260.878360681
 20
10.6215534747
 10
259.5945823696
 20
10.7085957671
 10
258.3762484361
 20
10.9561562433
 10
257.2321370043
 20
11.3624512243
 10
256.1704914235
 20
11.9245533455
 10
255.1989608743
 20
12.6384126484
 10
254.3245452567
 20
13.4988857601
 10
253.5535447551
 20
14.4997729523
 10
252.8915144458
 20
15.6338628098
 10
252.3432242724
 20
16.8929841891
 10
251.9126246782
 20
18.268065092
 10
251.6028181431
 20
19.7491980289
 10
251.4160368303
 20
21.3257114031
 10
251.3536265034
 20
22.9862463997
  0
LWPOLYLINE
  5
255
330
1F
100
AcDbEntity
  8
0
  6
Continuous
 62
     7
370
     0
100
AcDbPolyline
 90
       27
 70
   128
 43
0.0
 10
250.6465197223
 20
22.9862463997
 10
250.7085177974
 20
24.73019648
 10
250.894077151
 20
26.5334954574
 10
251.2018962175
 20
28.3834944853
 10
251.6298158672
 20
30.2672171498
 10
252.1748345514
 20
32.1714504898
 10
252.8331293555
 20
34.0828376766
 10
253.6000828144
 20
35.9879717024
 10
254.4703153007
 20
37.873489421
 10
255.4377227589
 20
39.7261652801
 10
256.4955195205
 20
41.5330040899
 10
257.6362859015
 20
43.2813321742
 10
258.8520202451
 20
44.9588862678
 10
260.1341950487
 20
46.553899534
 10
261.473816777
 20
48.0551841007
 10
262.8614889463
 20
49.4522095354
 10
264.2874780333
 20
50.7351767084
 10
265.7417817491
 20
51.8950865269
 10
267.2141991981
 20
52.9238030568
 10
268.6944024298
 20
53.8141105907
 10
270.172008882
 20
54.5597642612
 10
271.6366542072
 20
55.1555338433
 10
273.0780649707
 20
55.5972404415
 10
274.4861307117
 20
55.8817858015
 10
275.8509748608
 20
56.0071740419
 10
277.1630240167
 20
55.9725256544
 10
277.2443068172
 20
55.9649244891
  0
ARC
  5
256
330
1F
100
AcDbEntity
  8
0
  6
Continuous
 62
     7
370
     0
100
AcDbCircle
 10
266.0246543029
 20
22.3786025311
 30
0.0
 40
15.3901349653412
100
AcDbArc
 50
177.7372205589
 51
212.7127302931
  0
LWPOLYLINE
  5
257
330
1F
100
AcDbEntity
  8
0
  6
Continuous
 62
     7
370
     0
100
AcDbPolyline
 90
       28
 70
   128
 43
0.0
 10
258.4246943153
 20
27.0682869588
 10
258.4869233741
 20
28.40669096
 10
258.6728551739
 20
29.8006966916
 10
258.9802327546
 20
31.2333828124
 10
259.4053249688
 20
32.6873584536
 10
259.9429717728
 20
34.1449743207
 10
260.5866468627
 20
35.5885369314
 10
261.3285368949
 20
37.0005233912
 10
262.1596363294
 20
38.3637940972
 10
263.0698567448
 20
39.6618007898
 10
264.0481492984
 20
40.878787426
 10
265.0826388438
 20
41.9999814367
 10
266.1607680792
 20
43.0117730453
 10
267.2694499763
 20
43.9018804724
 10
268.3952266386
 20
44.6594990196
 10
269.5244326625
 20
45.275432224
 10
270.6433610165
 20
45.7422034908
 10
271.7384294261
 20
46.0541468492
 10
272.7963452443
 20
46.2074757295
 10
273.8042668061
 20
46.2003289265
 10
274.7499593092
 20
46.032793193
 10
275.6219433275
 20
45.7069021858
 10
276.4096341564
 20
45.2266117801
 10
277.1034702962
 20
44.597752051
 10
277.6950295161
 20
43.8279565036
 10
278.1771310885
 20
42.9265694131
 10
278.5439229534
 20
41.9045323977
 10
278.6017679068
 20
41.6915936938
  0
LWPOLYLINE
  5
258
330
1F
100
AcDbEntity
  8
0
  6
Continuous
 62
     7
370
     0
100
AcDbPolyline
 90
       13
 70
   128
 43
0.0
 10
266.1027837488
 20
20.0403721343
 10
265.0826388438
 20
19.8236916091
 10
264.0481492984
 20
19.7504894141
 10
263.0698567448
 20
19.8379635103
 10
262.1596363294
 20
20.0850520806
 10
261.3285368949
 20
20.4887558045
 10
260.5866468627
 20
21.0441742658
 10
259.9429717728
 20
21.7445654365
 10
259.4053249688
 20
22.5814275168
 10
258.9802327546
 20
23.5446021345
 10
258.6728551739
 20
24.6223976546
 10
258.4869233741
 20
25.8017310996
 10
258.4246943153
 20
27.0682869588
  0
LWPOLYLINE
  5
259
330
1F
100
AcDbEntity
  8
0
  6
Continuous
 62
     7
370
     0
100
AcDbPolyline
 90
        8
 70
   128
 43
0.0
 10
261.25312144
 20
27.0682869588
 10
261.3151603726
 20
25.8969153847
 10
261.5004062797
 20
24.8136159266
 10
261.8062587148
 20
23.8335957344
 10
262.2284241802
 20
22.9706121434
 10
262.7609763982
 20
22.2367795514
 10
263.3964395029
 20
21.6423993596
 10
263.8424641259
 20
21.345226878
  0
LWPOLYLINE
  5
25A
330
1F
100
AcDbEntity
  8
0
  6
Continuous
 62
     7
370
     0
100
AcDbPolyline
 90
       21
 70
   128
 43
0.0
 10
276.3414482839
 20
42.9964484375
 10
275.6611985416
 20
43.3116856408
 10
274.8103328363
 20
43.5254940984
 10
273.8932314659
 20
43.5799080693
 10
272.9227685233
 20
43.4741637006
 10
271.912567181
 20
43.2097454115
 10
270.8768084514
 20
42.7903650551
 10
269.8300321167
 20
42.2219098123
 10
268.7869326221
 20
41.5123595487
 10
267.7621527979
 20
40.6716747946
 10
266.7700783065
 20
39.7116569212
 10
265.8246356992
 20
38.645782475
 10
264.9390969177
 20
37.4890139968
 10
264.1258929854
 20
36.2575899804
 10
263.3964395029
 20
34.9687969197
 10
262.7609763982
 20
33.6407266441
 10
262.2284241802
 20
32.2920223492
 10
261.8062587148
 20
30.9416168869
 10
261.5004062797
 20
29.6084669897
 10
261.3151603726
 20
28.3112871599
 10
261.25312144
 20
27.0682869588
  0
LWPOLYLINE
  5
25B
330
1F
100
AcDbEntity
  8
0
  6
Continuous
 62
     7
370
     0
100
AcDbPolyline
 90
       15
 70
   128
 43
0.0
 10
276.0781068547
 20
20.5444675479
 10
276.5114056714
 20
20.0068076903
 10
277.0445915642
 20
19.6132588433
 10
277.6649450576
 20
19.3732093553
 10
278.3576672401
 20
19.2923857535
 10
279.1062328005
 20
19.3727161344
 10
279.8927842499
 20
19.6122841675
 10
280.6985579227
 20
20.0053748111
 10
281.5043315955
 20
20.5426106476
 10
282.2908830449
 20
21.2111755877
 10
283.0394486053
 20
21.9951206063
 10
283.7321707877
 20
22.8757442157
 10
284.3525242812
 20
23.8320386016
 10
284.8857101739
 20
24.8411907769
 10
285.3190089906
 20
25.8791267996
  0
LWPOLYLINE
  5
25C
330
1F
100
AcDbEntity
  8
0
  6
Continuous
 62
     7
370
     0
100
AcDbPolyline
 90
       15
 70
   128
 43
0.0
 10
285.3189620842
 20
31.5511609153
 10
284.8856588383
 20
32.0887954084
 10
284.352473275
 20
32.4823228099
 10
283.732124412
 20
32.7223556151
 10
283.0394105267
 20
32.8031678974
 10
282.2908561476
 20
32.7228318986
 10
281.5043178652
 20
32.4832640153
 10
280.698558367
 20
32.0901790835
 10
279.8927988582
 20
31.5529540528
 10
279.1062605442
 20
30.8844043011
 10
278.3577061134
 20
30.1004779271
 10
277.6649921575
 20
29.2198753119
 10
277.0446432064
 20
28.2636030258
 10
276.51145754
 20
27.2544727216
 10
276.0781541783
 20
26.2165569676
  0
LWPOLYLINE
  5
25D
330
1F
100
AcDbEntity
  8
0
  6
Continuous
 62
     7
370
     0
100
AcDbPolyline
 90
       21
 70
   128
 43
0.0
 10
247.7629067426
 20
33.5994935457
 10
248.2325522544
 20
35.3589214762
 10
248.8167207432
 20
37.1293772792
 10
249.5106340619
 20
38.89637969
 10
250.3086164164
 20
40.6454756905
 10
251.2041407904
 20
42.3623587265
 10
252.1898823328
 20
44.0329857261
 10
253.2577782699
 20
45.6436919645
 10
254.3990938546
 20
47.1813028322
 10
255.6044938112
 20
48.6332415963
 10
256.8641186922
 20
49.98763227
 10
258.167665523
 20
51.2333967514
 10
259.5044720737
 20
52.3603454355
 10
260.86360407
 20
53.3592605592
 10
262.2339446287
 20
54.2219715971
 10
263.6042851873
 20
54.941422091
 10
264.9634171836
 20
55.5117273684
 10
266.3002237343
 20
55.9282226746
 10
267.6037705651
 20
56.1875013283
 10
268.8633954461
 20
56.2874425859
 10
269.0199133097
 20
56.2886761613
  0
LWPOLYLINE
  5
25E
330
1F
100
AcDbEntity
  8
0
  6
Continuous
 62
     7
370
     0
100
AcDbPolyline
 90
       23
 70
   128
 43
0.0
 10
239.6492091593
 20
35.6749395538
 10
240.1280447501
 20
37.62360569
 10
240.7299264664
 20
39.5894168837
 10
241.4503737142
 20
41.5577390271
 10
242.2840232607
 20
43.51391932
 10
243.2246691605
 20
45.4433953499
 10
244.2653089538
 20
47.3318034993
 10
245.3981957954
 20
49.1650858725
 10
246.6148961246
 20
50.9295949473
 10
247.906352447
 20
52.6121951712
 10
249.2629507615
 20
54.2003607466
 10
250.6745921296
 20
55.6822688767
 10
252.1307678554
 20
57.046887778
 10
253.6206377156
 20
58.2840588045
 10
255.133110657
 20
59.3845720715
 10
256.6569273623
 20
60.3402350172
 10
258.1807440677
 20
61.1439333904
 10
259.6932170091
 20
61.7896842113
 10
261.1830868693
 20
62.2726803105
 10
262.6392625951
 20
62.5893261156
 10
264.0509039632
 20
62.7372644168
 10
265.4075022776
 20
62.7153939157
 10
265.4092691119
 20
62.7152513843
  0
LWPOLYLINE
  5
25F
330
1F
100
AcDbEntity
  8
0
  6
Continuous
 62
     7
370
     0
100
AcDbPolyline
 90
       19
 70
   128
 43
0.0
 10
248.1557131182
 20
33.5418470888
 10
248.6429573356
 20
35.346200048
 10
249.2513545888
 20
37.1612320109
 10
249.9755775062
 20
38.9710498259
 10
250.8092845001
 20
40.7598059986
 10
251.7451752958
 20
42.5118374587
 10
252.7750548562
 20
44.2118027127
 10
253.8899051408
 20
45.8448161792
 10
255.0799640709
 20
47.3965785341
 10
256.3348110109
 20
48.8535019207
 10
257.643458015
 20
50.2028289303
 10
258.9944460425
 20
51.4327443117
 10
260.3759452976
 20
52.5324784301
 10
261.7758588158
 20
53.49240157
 10
263.1819283901
 20
54.3041082576
 10
264.5818419083
 20
54.9604908617
 10
265.9633411634
 20
55.4558018318
 10
267.3143291909
 20
55.7857040253
 10
268.0874200521
 20
55.900982227
  0
LINE
  5
260
330
1F
100
AcDbEntity
  8
0
  6
Continuous
 62
     7
370
     0
100
AcDbLine
 10
274.2285308748
 20
21.0318070542
 30
0.0
 11
274.3169192225
 21
20.7019442616
 31
0.0
  0
LWPOLYLINE
  5
261
330
1F
100
AcDbEntity
  8
0
  6
Continuous
 62
     7
370
     0
100
AcDbPolyline
 90
        3
 70
   128
 43
0.0
 10
284.7281359734
 20
31.5061952347
 10
284.2775446163
 20
32.015788868
 10
283.9154307744
 20
32.2734004781
  0
LWPOLYLINE
  5
262
330
1F
100
AcDbEntity
  8
0
  6
Continuous
 62
     7
370
     0
100
AcDbPolyline
 90
       13
 70
   128
 43
0.0
 10
277.0043100995
 20
20.1002457591
 10
277.1065129561
 20
20.0501047718
 10
277.7465745975
 20
19.8566639147
 10
278.4571592619
 20
19.8311164646
 10
279.2194921502
 20
19.9741374266
 10
280.0134311915
 20
20.281947955
 10
280.8179992289
 20
20.7464151965
 10
281.6119382702
 20
21.3552671735
 10
282.3742711585
 20
22.0924170294
 10
283.0848558229
 20
22.9383880698
 10
283.7249174643
 20
23.870828368
 10
284.2775446163
 20
24.8651013395
 10
284.7281359734
 20
25.89493668
  0
LINE
  5
263
330
1F
100
AcDbEntity
  8
0
  6
Continuous
 62
     7
370
     0
100
AcDbLine
 10
273.7448682911
 20
21.3110195205
 30
0.0
 11
274.2285308748
 21
21.0318070542
 31
0.0
  0
LINE
  5
264
330
1F
100
AcDbEntity
  8
0
  6
Continuous
 62
     7
370
     0
100
AcDbLine
 10
248.019783771
 20
23.1018276379
 30
0.0
 11
249.1792731513
 21
23.7711866094
 31
0.0
  0
LINE
  5
265
330
1F
100
AcDbEntity
  8
0
  6
Continuous
 62
     7
370
     0
100
AcDbLine
 10
249.5647878075
 20
23.5675558847
 30
0.0
 11
249.1792731513
 21
23.7711866094
 31
0.0
  0
ARC
  5
266
330
1F
100
AcDbEntity
  8
0
  6
Continuous
 62
     7
370
     0
100
AcDbCircle
 10
248.4541266904
 20
24.9471071627
 30
0.0
 40
1.38153050540546
100
AcDbArc
 50
301.6605905892
 51
324.2377952694
  0
LINE
  5
267
330
1F
100
AcDbEntity
  8
0
  6
Continuous
 62
     7
370
     0
100
AcDbLine
 10
243.8835994556
 20
28.4612628849
 30
0.0
 11
249.4586025228
 21
25.2428821194
 31
0.0
  0
LINE
  5
268
330
1F
100
AcDbEntity
  8
0
  6
Continuous
 62
     7
370
     0
100
AcDbLine
 10
243.8229392838
 20
28.4262331293
 30
0.0
 11
243.8835994556
 21
28.4612628849
 31
0.0
  0
LINE
  5
269
330
1F
100
AcDbEntity
  8
0
  6
Continuous
 62
     7
370
     0
100
AcDbLine
 10
243.6019684147
 20
33.2066554496
 30
0.0
 11
243.6030094419
 21
33.3924071816
 31
0.0
  0
LWPOLYLINE
  5
26A
330
1F
100
AcDbEntity
  8
0
  6
Continuous
 62
     7
370
     0
100
AcDbPolyline
 90
        3
 70
   128
 43
0.0
 10
243.7414810519
 20
31.1498220852
 10
243.665321251
 20
31.8006849499
 10
243.6019684147
 20
33.2066554496
  0
LWPOLYLINE
  5
26B
330
1F
100
AcDbEntity
  8
0
  6
Continuous
 62
     7
370
     0
100
AcDbPolyline
 90
       18
 70
   128
 43
0.0
 10
212.668748731
 20
57.0222740409
 10
212.7328774674
 20
58.1655264518
 10
212.9241192979
 20
59.3624189594
 10
213.2390615073
 20
60.5915929886
 10
213.6720839446
 20
61.8311138996
 10
214.2154593141
 20
63.0588624125
 10
214.8594910694
 20
64.2529293259
 10
215.5926864486
 20
65.3920064875
 10
216.4019615628
 20
66.4557670384
 10
217.2728748784
 20
67.4252281463
 10
218.1898849266
 20
68.2830897548
 10
219.1366276415
 20
69.0140433031
 10
220.0962083769
 20
69.6050449079
 10
221.0515033917
 20
70.0455481316
 10
221.9854654239
 20
70.3276921836
 10
222.8814278988
 20
70.4464421968
 10
223.7234023448
 20
70.3996790742
 10
224.3865635082
 20
70.2299090387
  0
ARC
  5
26C
330
1F
100
AcDbEntity
  8
0
  6
Continuous
 62
     7
370
     0
100
AcDbCircle
 10
218.2984592191
 20
56.6620471135
 30
0.0
 40
5.641223592378299
100
AcDbArc
 50
176.3388199929
 51
223.4467111484
  0
LINE
  5
26D
330
1F
100
AcDbEntity
  8
0
  6
Continuous
 62
     7
370
     0
100
AcDbLine
 10
287.0801966229
 20
28.0700274708
 30
0.0
 11
286.8150315799
 21
28.2978392494
 31
0.0
  0
LINE
  5
26E
330
1F
100
AcDbEntity
  8
0
  6
Continuous
 62
     7
370
     0
100
AcDbLine
 10
282.1834821632
 20
30.9715758156
 30
0.0
 11
286.8150315799
 21
28.2978392494
 31
0.0
  0
LWPOLYLINE
  5
26F
330
1F
100
AcDbEntity
  8
0
  6
Continuous
 62
     7
370
     0
100
AcDbPolyline
 90
        3
 70
   128
 43
0.0
 10
248.8285218953
 20
21.4327231584
 10
248.6429573356
 20
21.8106982656
 10
248.1557131182
 20
23.0524910259
  0
LWPOLYLINE
  5
270
330
1F
100
AcDbEntity
  8
0
  6
Continuous
 62
     7
370
     0
100
AcDbPolyline
 90
        3
 70
   128
 43
0.0
 10
248.7397666207
 20
20.9201814417
 10
248.2325522544
 20
21.8897573485
 10
247.7629067426
 20
23.106944113
  0
LINE
  5
271
330
1F
100
AcDbEntity
  8
0
  6
Continuous
 62
     7
370
     0
100
AcDbLine
 10
249.1792731513
 20
23.7711866094
 30
0.0
 11
243.4693858932
 21
27.0674343609
 31
0.0
  0
ARC
  5
272
330
1F
100
AcDbEntity
  8
0
  6
Continuous
 62
     7
370
     0
100
AcDbCircle
 10
251.3072317257
 20
27.7296004893
 30
0.0
 40
12.08600781450716
100
AcDbArc
 50
195.2932781317
 51
214.710388838
  0
OLE2FRAME
  5
273
330
1F
100
AcDbEntity
  8
0
100
AcDbOle2Frame
 70
     2
  3
Paintbrush-Bild
 10
13.8511154363
 20
38.264191557
 30
0.0
 11
51.6290888628
 21
31.9806341108
 31
0.0
 71
     2
 72
     0
 73
     1
 90
    12928
310
80552BED0767C5B32B40DDAF6807D121434000000000000000006FFBDDFB85D0
310
4940DDAF6807D121434000000000000000006FFBDDFB85D04940416F4BD60AFB
310
3F4000000000000000002BED0767C5B32B40416F4BD60AFB3F40000000000000
310
0000000000000100000000010000010000000100000000000100000000320000
310
D0CF11E0A1B11AE1000000000000000000000000000000003E000300FEFF0900
310
0600000000000000000000000100000001000000000000000010000002000000
310
01000000FEFFFFFF0000000000000000FFFFFFFFFFFFFFFFFFFFFFFFFFFFFFFF
310
FFFFFFFFFFFFFFFFFFFFFFFFFFFFFFFFFFFFFFFFFFFFFFFFFFFFFFFFFFFFFFFF
310
FFFFFFFFFFFFFFFFFFFFFFFFFFFFFFFFFFFFFFFFFFFFFFFFFFFFFFFFFFFFFFFF
310
FFFFFFFFFFFFFFFFFFFFFFFFFFFFFFFFFFFFFFFFFFFFFFFFFFFFFFFFFFFFFFFF
310
FFFFFFFFFFFFFFFFFFFFFFFFFFFFFFFFFFFFFFFFFFFFFFFFFFFFFFFFFFFFFFFF
310
FFFFFFFFFFFFFFFFFFFFFFFFFFFFFFFFFFFFFFFFFFFFFFFFFFFFFFFFFFFFFFFF
310
FFFFFFFFFFFFFFFFFFFFFFFFFFFFFFFFFFFFFFFFFFFFFFFFFFFFFFFFFFFFFFFF
310
FFFFFFFFFFFFFFFFFFFFFFFFFFFFFFFFFFFFFFFFFFFFFFFFFFFFFFFFFFFFFFFF
310
FFFFFFFFFFFFFFFFFFFFFFFFFFFFFFFFFFFFFFFFFFFFFFFFFFFFFFFFFFFFFFFF
310
FFFFFFFFFFFFFFFFFFFFFFFFFFFFFFFFFFFFFFFFFFFFFFFFFFFFFFFFFFFFFFFF
310
FFFFFFFFFFFFFFFFFFFFFFFFFFFFFFFFFFFFFFFFFFFFFFFFFFFFFFFFFFFFFFFF
310
FFFFFFFFFFFFFFFFFFFFFFFFFFFFFFFFFFFFFFFFFFFFFFFFFFFFFFFFFFFFFFFF
310
FFFFFFFFFFFFFFFFFFFFFFFFFFFFFFFFFFFFFFFFFFFFFFFFFFFFFFFFFFFFFFFF
310
FFFFFFFFFFFFFFFFFFFFFFFFFFFFFFFFFFFFFFFFFFFFFFFFFFFFFFFFFFFFFFFF
310
FDFFFFFFFEFFFFFFFEFFFFFFFEFFFFFF05000000060000000700000008000000
310
090000000A0000000B0000000C0000000D0000000E0000000F00000010000000
310
11000000120000001300000014000000150000001600000017000000FEFFFFFF
310
FFFFFFFFFFFFFFFFFFFFFFFFFFFFFFFFFFFFFFFFFFFFFFFFFFFFFFFFFFFFFFFF
310
FFFFFFFFFFFFFFFFFFFFFFFFFFFFFFFFFFFFFFFFFFFFFFFFFFFFFFFFFFFFFFFF
310
FFFFFFFFFFFFFFFFFFFFFFFFFFFFFFFFFFFFFFFFFFFFFFFFFFFFFFFFFFFFFFFF
310
FFFFFFFFFFFFFFFFFFFFFFFFFFFFFFFFFFFFFFFFFFFFFFFFFFFFFFFFFFFFFFFF
310
FFFFFFFFFFFFFFFFFFFFFFFFFFFFFFFFFFFFFFFFFFFFFFFFFFFFFFFFFFFFFFFF
310
FFFFFFFFFFFFFFFFFFFFFFFFFFFFFFFFFFFFFFFFFFFFFFFFFFFFFFFFFFFFFFFF
310
FFFFFFFFFFFFFFFFFFFFFFFFFFFFFFFFFFFFFFFFFFFFFFFFFFFFFFFFFFFFFFFF
310
FFFFFFFFFFFFFFFFFFFFFFFFFFFFFFFFFFFFFFFFFFFFFFFFFFFFFFFFFFFFFFFF
310
FFFFFFFFFFFFFFFFFFFFFFFFFFFFFFFFFFFFFFFFFFFFFFFFFFFFFFFFFFFFFFFF
310
FFFFFFFFFFFFFFFFFFFFFFFFFFFFFFFFFFFFFFFFFFFFFFFFFFFFFFFFFFFFFFFF
310
FFFFFFFFFFFFFFFFFFFFFFFFFFFFFFFFFFFFFFFFFFFFFFFFFFFFFFFFFFFFFFFF
310
FFFFFFFFFFFFFFFFFFFFFFFFFFFFFFFFFFFFFFFFFFFFFFFFFFFFFFFFFFFFFFFF
310
FFFFFFFFFFFFFFFFFFFFFFFFFFFFFFFFFFFFFFFFFFFFFFFFFFFFFFFFFFFFFFFF
310
52006F006F007400200045006E00740072007900000000000000000000000000
310
0000000000000000000000000000000000000000000000000000000000000000
310
16000500FFFFFFFFFFFFFFFF020000000A00030000000000C000000000000046
310
0000000000000000000000007011C7F9DF22D20103000000C000000000000000
310
01004F006C006500000000000000000000000000000000000000000000000000
310
0000000000000000000000000000000000000000000000000000000000000000
310
0A000200FFFFFFFFFFFFFFFFFFFFFFFF00000000000000000000000000000000
310
0000000000000000000000000000000000000000000000001400000000000000
310
010043006F006D0070004F0062006A0000000000000000000000000000000000
310
0000000000000000000000000000000000000000000000000000000000000000
310
120002010100000003000000FFFFFFFF00000000000000000000000000000000
310
0000000000000000000000000000000000000000010000004D00000000000000
310
01004F006C006500310030004E00610074006900760065000000000000000000
310
0000000000000000000000000000000000000000000000000000000000000000
310
1A000200FFFFFFFFFFFFFFFFFFFFFFFF00000000000000000000000000000000
310
0000000000000000000000000000000000000000040000002426000000000000
310
FEFFFFFF02000000FEFFFFFFFFFFFFFFFFFFFFFFFFFFFFFFFFFFFFFFFFFFFFFF
310
FFFFFFFFFFFFFFFFFFFFFFFFFFFFFFFFFFFFFFFFFFFFFFFFFFFFFFFFFFFFFFFF
310
FFFFFFFFFFFFFFFFFFFFFFFFFFFFFFFFFFFFFFFFFFFFFFFFFFFFFFFFFFFFFFFF
310
FFFFFFFFFFFFFFFFFFFFFFFFFFFFFFFFFFFFFFFFFFFFFFFFFFFFFFFFFFFFFFFF
310
FFFFFFFFFFFFFFFFFFFFFFFFFFFFFFFFFFFFFFFFFFFFFFFFFFFFFFFFFFFFFFFF
310
FFFFFFFFFFFFFFFFFFFFFFFFFFFFFFFFFFFFFFFFFFFFFFFFFFFFFFFFFFFFFFFF
310
FFFFFFFFFFFFFFFFFFFFFFFFFFFFFFFFFFFFFFFFFFFFFFFFFFFFFFFFFFFFFFFF
310
FFFFFFFFFFFFFFFFFFFFFFFFFFFFFFFFFFFFFFFFFFFFFFFFFFFFFFFFFFFFFFFF
310
FFFFFFFFFFFFFFFFFFFFFFFFFFFFFFFFFFFFFFFFFFFFFFFFFFFFFFFFFFFFFFFF
310
FFFFFFFFFFFFFFFFFFFFFFFFFFFFFFFFFFFFFFFFFFFFFFFFFFFFFFFFFFFFFFFF
310
FFFFFFFFFFFFFFFFFFFFFFFFFFFFFFFFFFFFFFFFFFFFFFFFFFFFFFFFFFFFFFFF
310
FFFFFFFFFFFFFFFFFFFFFFFFFFFFFFFFFFFFFFFFFFFFFFFFFFFFFFFFFFFFFFFF
310
FFFFFFFFFFFFFFFFFFFFFFFFFFFFFFFFFFFFFFFFFFFFFFFFFFFFFFFFFFFFFFFF
310
FFFFFFFFFFFFFFFFFFFFFFFFFFFFFFFFFFFFFFFFFFFFFFFFFFFFFFFFFFFFFFFF
310
FFFFFFFFFFFFFFFFFFFFFFFFFFFFFFFFFFFFFFFFFFFFFFFFFFFFFFFFFFFFFFFF
310
FFFFFFFFFFFFFFFFFFFFFFFFFFFFFFFFFFFFFFFFFFFFFFFFFFFFFFFFFFFFFFFF
310
0100000200000000000000000000000000000000000000000000000000000000
310
0000000000000000000000000000000000000000000000000000000000000000
310
0100FEFF030A0000FFFFFFFF0A00030000000000C00000000000004607000000
310
5042727573680007000000504272757368000700000050427275736800F439B2
310
7100000000000000000000000000000000000000000000000000000000000000
310
0000000000000000000000000000000000000000000000000000000000000000
310
0000000000000000000000000000000000000000000000000000000000000000
310
0000000000000000000000000000000000000000000000000000000000000000
310
0000000000000000000000000000000000000000000000000000000000000000
310
0000000000000000000000000000000000000000000000000000000000000000
310
0000000000000000000000000000000000000000000000000000000000000000
310
0000000000000000000000000000000000000000000000000000000000000000
310
0000000000000000000000000000000000000000000000000000000000000000
310
0000000000000000000000000000000000000000000000000000000000000000
310
0000000000000000000000000000000000000000000000000000000000000000
310
0000000000000000000000000000000000000000000000000000000000000000
310
20260000424D0E260000000000003E00000028000000B40200006E0000000100
310
01000000000000000000130B0000130B00000200000002000000000000FFFFFF
310
FFFFFFFFFFFFFFFFFFFFFFFFFFFFFFFFFFFFFFFFFFFFFFFFFFFFFFFFFFFFFFFF
310
FFFFFFFFFFFFFFFFFFFFFFFFFFFFFFFFFFFFFFFFFFFFFFFFFFFFFFFFFFFFFFFF
310
FFFFFFFFFFFFFFFFFFFFFFFFFFFFFFFFFFFFFFFFFFFFFFFFF000FFFFFFFFFFFF
310
FFFFFFFFFFFFFFFFFFFFFFFFFFFFFFFFFFFFFFFFFFFFFFFFFFFFFFFFFFFFFFFF
310
FFFFFFFFFFFFFFFFFFFFFFFFFFFFFFFFFFFFFFFFFFFFFFFFFFFFFFFFFFFFFFFF
310
FFFFFFFFFFFFFFFFFFFFFFFFFFFFFFFFF000FFFFFFFFFFFFFFFFFFFFFFFFFFFF
310
FFFFFFFFFFFFFFFFFFFFFFFFFFFFFFFFFFFFFFFFFFFFFFFFFFFFFFFFFFFFFFFF
310
FFFFFFFFFFFFFFFFFFFFFFFFFFFFFFFFFFFFFFFFFFFFFFFFFFFFFFFFFFFFFFFF
310
FFFFFFFFFFFFFFFFF000FFFFFFFFFFFFFFFFFFFFFFFFFFFFFFFFFFFFFFFFFFFF
310
FFFFFFFFFFFFFFFFFFFFFFFFFFFFFFFFFFFFFFFFFFFFFFFFFFFFFFFFFFFFFFFF
310
FFFFFFFFFFFFFFFFFFFFFFFFFFFFFFFFFFFFFFFFFFFFFFFFFFFFFFFFFFFFFFFF
310
F000FFFFFFFFFFFFFFFFFFFFFFFFFFFFFFFFFFFFFFFFFFFFFFFFFFFFFFFFFFFF
310
FFFFFFFFFFFFFFFFFFFFFFFFFFFFFFFFFFFFFFFFFFFFFFFFFFFFFFFFFFFFFFFF
310
FFFFFFFFFFFFFFFFFFFFFFFFFFFFFFFFFFFFFFFFFFFFFFFFF000FFFFFFFFFFFF
310
FFFFFFFFFFFFFFFFFFFFFFFFFFFFFFFFFFFFFFFFFFFFFFFFFFFFFFFFFFFFFFFF
310
FFFFFFFFFFFFFFFFFFFFFFFFFFFFFFFFFFFFFFFFFFFFFFFFFFFFFFFFFFFFFFFF
310
FFFFFFFFFFFFFFFFFFFFFFFFFFFFFFFFF000FFFFFFFFFFFFFFFFFFFFFFFFFFFF
310
FFFFFFFFFFFFFFFFFFFFFFFFFFFFFFFFFFFFFFFFFFFFFFFFFFFFFFFFFFFFFFFF
310
FFFFFFFFFFFFFFFFFFFFFFFFFFFFFFFFFFFFFFFFFFFFFFFFFFFFFFFFFFFFFFFF
310
FFFFFFFFFFFFFFFFF000FFFFFFFFFFFFFFFFFFFFFFFFFFFFFFFFFFFFFFFFFFFF
310
FFFFFFFFFFFFFFFFFFFFFFFFFFFFFFFFFFFFFFFFFFFFFFFFFFFFFFFFFFFFFFFF
310
FFFFFFFFFFFFFFFFFFFFFFFFFFFFFFFFFFFFFFFFFFFFFFFFFFFFFFFFFFFFFFFF
310
F000FFFFFFFFFFFFFFFFFFFFFFFFFFFFFFFFFFFFFFFFFFFFFFFFFFFFFFFFFFFF
310
FFFFFFFFFFFFFFFFFFFFFFFFFFFFFFFFFFFFFFFFFFFFFFFFFFFFFFFFFFFFFFFF
310
FFFFFFFFFFFFFFFFFFFFFFFFFFFFFFFFFFFFFFFFFFFFFFFFF000FFFFFFFFFFFF
310
FFFFFFFFFFFFFFFFFFFFFFFFFFFFFFFFFFFFFFFFFFFFFFFFFFFFFFFFFFFFFFFF
310
FFFFFFFFFFFFFFFFFFFFFFFFFFFFFFFFFFFFFFFFFFFFFFFFFFFFFFFFFFFFFFFF
310
FFFFFFFFFFFFFFFFFFFFFFFFFFFFFFFFF000FFFFFFFFFFFFFFFFFFFFFFFFFFFF
310
FFFFFFFFFFFFFFFFFFFFFFFFFFFFFFFFFFFFFFFFFFFFFFFFFFFFFFFFFFFFFFFF
310
FFFFFFFFFFFFFFFFFFFFFFFFFFFFFFFFFFFFFFFFFFFFFFFFFFFFFFFFFFFFFFFF
310
FFFFFFFFFFFFFFFFF000FFFFFFFFFFFFFFFFFFFFFFFFFFFFFFFFFFFFFFFFFFFF
310
FFFFFFFFFFFFFFFFFFFFFFFFFFFFFFFFFFFFFFFFFFFFFFFFFFFFFFFFFFFFFFFF
310
FFFFFFFFFFFFFFFFFFFFFFFFFFFFFFFFFFFFFFFFFFFFFFFFFFFFFFFFFFFFFFFF
310
F000FFFFFFFFFFFFFFFFFFFFFFFFFFFFFFFFFFFFFFFFFFFFFFFFFFFFFFFFFFFF
310
FFFFFFFFFFFFFFFFFFFFFFFFFFFFFFFFFFFFFFFFFFFFFFFFFFFFFFFFFFFFFFFF
310
FFFFFFFFFFFFFFFFFFFFFFFFFFFFFFFFFFFFFFFFFFFFFFFFF000FFFFFFFFFFFF
310
FFFFFFFFFFFFFFFFFFFFFFFFFFFFFFFFFFFFFFFFFFFFFFFFFFFFFFFFFFFFFFFF
310
FFFFFFFFFFFFFFFFFFFFFFFFFFFFFFFFFFFFFFFFFFFFFFFFFFFFFFFFFFFFFFFF
310
FFFFFFFFFFFFFFFFFFFFFFFFFFFFFFFFF000FFFFFFFFFFFFFFFFFFFFFFFFFFFF
310
FFFFFFFFFFFFFFFFFFFFFFFFFFFFFFFFFFFFFFFFFFFFFFFFFFFFFFFFFFFFFFFF
310
FFFFFFFFFFFFFFFFFFFFFFFFFFFFFFFFFFFFFFFFFFFFFFFFFFFFFFFFFFFFFFFF
310
FFFFFFFFFFFFFFFFF000FFFFFFFFFFFFFFFFFFFFFFFFFFFFFFFFFFFFFFFFFFFF
310
FFFFFFFFFFFFFFFFFFFFFFFFFFFFFFFFFFFFFFFFFFFFFFFFFFFFFFFFFFFFFFFF
310
FFFFFFFFFFFFFFFFFFFFFFFFFFFFFFFFFFFFFFFFFFFFFFFFFFFFFFFFFFFFFFFF
310
F000FFFFFFFFFFFFFFFFFFFFFFFFFFFFFFFFFFFFFFFFFFFFFFFFFFFFFFFFFFFF
310
FFFFFFFFFFFFFFFFFFFFFFFFFFFFFFFFFFFFFFFFFFFFFFFFFFFFFFFFFFFFFFFF
310
FFFFFFFFFFFFFFFFFFFFFFFFFFFFFFFFFFFFFFFFFFFFFFFFF000FFFFFFFFFFFF
310
FFFFFFFFFFFFFFFFFFFFFFFFFFFFFFFFFFFFFFFFFFFFFFFFFFFFFFFFFFFFFFFF
310
FFFFFFFFFFFFFFFFFFFFFFFFFFFFFFFFFFFFFFFFFFFFFFFFFFFFFFFFFFFFFFFF
310
FFFFFFFFFFFFFFFFFFFFFFFFFFFFFFFFF000FFFFFFFFFFFFFFFFFFFFFFFFFFFF
310
FFFFFFFFFFFFFFFFFFFFFFFFFFFFFFFFFFFFFFFFFFFFFFFFFFFFFFFFFFFFFFFF
310
FFFFFFFFFFFFFFFFFFFFFFFFFFFFFFFFFFFFFFFFFFFFFFFFFFFFFFFFFFFFFFFF
310
FFFFFFFFFFFFFFFFF000FFFFF80003FFFFFFFFFFFFFFFFFFFFFFFFFFFFFFFFFF
310
FFFFF00007FFFFFFFFFF00007FFFFFF800000000000000007FFFFFFFFFFFFFFF
310
FFFFFFFC001FFFFFFFFFFFFFFC001FFFFFFFFFFFFFFFFFFFFFFFFFFE0007FFFF
310
F000FFFF8000007FFFFFFFF8000FFFFFC0007FFFFF80007FFFFF0000007FFFFF
310
FFF8000007FFFFF800000000000000007FFFFFF0001FFFFFFFFFFFC00001FFFF
310
FFFFFFFFC00001FFFFFFFF000000000003FFFFE000007FFFF000FFFE0000000F
310
FFFFFFF0000FFFFF80007FFFFF80007FFFFC0000001FFFFFFFC0000001FFFFF8
310
00000000000000007FFFFFF0001FFFFFFFFFFE0000003FFFFFFFFFFE0000003F
310
FFFFFF000000000003FFFF0000000FFFF000FFF800000003FFFFFFF00007FFFF
310
80007FFFFF80007FFFF000000007FFFFFF000000003FFFF80000000000000000
310
7FFFFFF0001FFFFFFFFFF80000000FFFFFFFFFF80000000FFFFFFF0000000000
310
03FFFC00000003FFF000FFE000000000FFFFFFF00007FFFF80003FFFFF80007F
310
FFC000000001FFFFFC000000001FFFF800000000000000007FFFFFF0001FFFFF
310
FFFFE000000003FFFFFFFFE000000003FFFFFF000000000003FFF000000000FF
310
F000FF80000000007FFFFFF00007FFFF80003FFFFF80007FFF8000000000FFFF
310
F80000000007FFF800000000000000007FFFFFF0001FFFFFFFFFC000000001FF
310
FFFFFFC000000001FFFFFF000000000003FFC0000000007FF000FF0000000000
310
3FFFFFE00007FFFF00003FFFFF80007FFE00000000003FFFF00000000003FFF8
310
00000000000000007FFFFFF0001FFFFFFFFF8000000000FFFFFFFF8000000000
310
FFFFFF000000000003FF80000000003FF000FE00000000001FFFFFE00003FFFF
310
00003FFFFF80007FFC00000000001FFFE00000000001FFF8000001FFFE000000
310
7FFFFFF0001FFFFFFFFE00000000003FFFFFFE00000000003FFFFF0000000000
310
03FF00000000001FF000FC00000000000FFFFFE00003FFFF00001FFFFF80007F
310
F800000000001FFFC00000000000FFF8000001FFFE0000007FFFFFF0001FFFFF
310
FFFC00000000001FFFFFFC00000000001FFFFF000000000003FE00000000000F
310
F000F8000000000007FFFFE00003FFFF00001FFFFF80007FF800000000000FFF
310
800000000000FFF8000001FFFE0000007FFFFFF0001FFFFFFFF800000000000F
310
FFFFF800000000000FFFFF000000000003FC000000000007F000F80000000000
310
03FFFFC00003FFFE00001FFFFF80007FF0000000000007FF0000000000007FF8
310
000001FFFE0000007FFFFFF0001FFFFFFFF0000000000007FFFFF00000000000
310
07FFFF000000000003F8000000000003F000F0000000000003FFFFC00001FFFE
310
00001FFFFF80007FE0000000000007FE0000000000003FF8000001FFFE000000
310
7FFFFFF0001FFFFFFFF0000000000007FFFFF0000000000007FFFF0000000000
310
03F800001F800003F000E00001FFF00001FFFFC00001FFFE00000FFFFF80007F
310
E00001FFE00003FE00001FFF00003FF8000001FFFE0000007FFFFFF0001FFFFF
310
FFE000003E000003FFFFE000003E000003FFFF000000000003F00001FFF80001
310
F000E00007FFFC0001FFFFC00001FFFE00000FFFFF80007FC0000FFFFC0003FC
310
0000FFFFC0001FF8000001FFFE0000007FFFFFF0001FFFFFFFC00003FFE00001
310
FFFFC00003FFE00001FFFF0001FFFFFFFFF00007FFFE0001F000E0000FFFFF00
310
00FFFF800001FFFC00000FFFFF80007FC0001FFFFE0001FC0001FFFFE0001FF8
310
000001FFFE0000007FFFFFF0001FFFFFFF80000FFFF80000FFFF80000FFFF800
310
00FFFF0003FFFFFFFFE0000FFFFF8000F000C0003FFFFF8000FFFF800000FFFC
310
000007FFFF80007F80003FFFFF0001FC0003FFFFF0001FF8000001FFFE000000
310
7FFFFFF0001FFFFFFF80003FFFFE0000FFFF80003FFFFE0000FFFF0003FFFFFF
310
FFE0003FFFFF8000F000C0003FFFFF8000FFFF800000FFFC000007FFFF80007F
310
80007FFFFF8001F80007FFFFF8000FF8000001FFFE0000007FFFFFF0001FFFFF
310
FF00007FFFFF00007FFF00007FFFFF00007FFF0003FFFFFFFFE0003FFFFFC000
310
F000C0007FFFFFC000FFFF000000FFFC000007FFFF80007F8000FFFFFF8000F8
310
000FFFFFF8000FF8000001FFFE0000007FFFFFF0001FFFFFFF0000FFFFFF8000
310
7FFF0000FFFFFF80007FFF0003FFFFFFFFC0007FFFFFC00070008000FFFFFFC0
310
00FFFF000000FFF8000007FFFF80007F8000FFFFFF8000F8000FFFFFF8000FF8
310
000001FFFE0000007FFFFFF0001FFFFFFE0001FFFFFFC0003FFE0001FFFFFFC0
310
003FFF0003FFFFFFFFC0007FFFFFE00070008000FFFFFFC0007FFF0000007FF8
310
000003FFFF80007F0001FFFFFF8000F8000FFFFFF8000FF8000001FFFE000000
310
7FFFFFF0001FFFFFFE0001FFFFFFC0003FFE0001FFFFFFC0003FFF0003FFFFFF
310
FFC000FFFFFFE00070008000FFFFFFC0007FFF0000007FF8000003FFFF80007F
310
0001FFFFFF8000F8001FFFFFF8000FF8000001FFFE0000007FFFFFF0001FFFFF
310
FE0003FFFFFFE0003FFE0003FFFFFFE0003FFF0003FFFFFFFFC000FFFFFFE000
310
70008000FFFFFFC0007FFE0000007FF8000003FFFF80007F0001FFFFFF8000F0
310
001FFFFFF8000FF8000001FFFE0000007FFFFFF0001FFFFFFC0003FFFFFFE000
310
1FFC0003FFFFFFE0001FFF0003FFFFFFFFC000FFFFFFC00070008000FFFFFF80
310
007FFE0000007FF0000003FFFF80007F0001FFFFFF0000F0001FFFFFF8000FF8
310
000001FFFE0000007FFFFFF0001FFFFFFC0007FFFFFFF0001FFC0007FFFFFFF0
310
001FFF0003FFFFFFFFC000FFFFFFC00070008001FFFFFF0000FFFE0000003FF0
310
000001FFFF80007F0001FFFFFF0000F8001FFFFFF0000FF8000001FFFE000000
310
7FFFFFF0001FFFFFFC0007FFFFFFF0001FFC0007FFFFFFF0001FFF0003FFFFFF
310
FFC001FFFFFF80007000FFFFFFFFFE0000FFFE0008003FF0008001FFFF80007F
310
FFFFFFFFFC0000FFFFFFFFFFE0000FF8000001FFFE0000007FFFFFF0001FFFFF
310
F8000FFFFFFFF8000FF8000FFFFFFFF8000FFF0003FFFFFFFFFFFFFFFFFF0000
310
7000FFFFFFFFFC0000FFFC0008003FF0008001FFFF80007FFFFFFFFFF80001FF
310
FFFFFFFF80000FF8000001FFFE0000007FFFFFF0001FFFFFF8000FFFFFFFF800
310
0FF8000FFFFFFFF8000FFF0003FFFFFFFFFFFFFFFFFE0000F000FFFFFFFFE000
310
00FFFC000C003FE000C001FFFF80007FFFFFFFFFC00001FFFFFFFFFE00001FF8
310
000001FFFE0000007FFFFFF0001FFFFFF8000FFFFFFFF8000FF8000FFFFFFFF8
310
000FFF0003FFFFFFFFFFFFFFFFF00000F000FFFFFFFE000001FFFC000C001FE0
310
00C000FFFF80007FFFFFFFFE000001FFFFFFFFE000001FF80FFFFFFFFFFFFFC0
310
7FFFFFF0001FFFFFF8000FFFFFFFF8000FF8000FFFFFFFF8000FFF0003FFFFFF
310
FFFFFFFFFF800000F000FFFFFFC0000001FFFC001C001FE001C000FFFF80007F
310
FFFFFF80000003FFFFFFF80000001FF80FFFFFFFFFFFFFC07FFFFFF0001FFFFF
310
F8001FFFFFFFFC000FF8001FFFFFFFFC000FFF0003FFFFFFFFFFFFFFF0000001
310
F000FFFFF800000001FFF8001C001FE001C000FFFF80007FFFFFF800000003FF
310
FFFF800000003FF80FFFFFFFFFFFFFC07FFFFFF0001FFFFFF8001FFFFFFFFC00
310
0FF8001FFFFFFFFC000FFF0003FFFFFFFFFFFFFE00000001F000FFFFC0000000
310
03FFF8001E001FC001E000FFFF80007FFFFF8000000007FFFFFC000000003FF8
310
0FFFFFFFFFFFFFC07FFFFFF0001FFFFFF8001FFFFFFFFC000FF8001FFFFFFFFC
310
000FFF0003FFFFFFFFFFFFE000000003F000FFFE0000000007FFF8001E000FC0
310
01E0007FFF80007FFFFE0000000007FFFFE0000000007FF80FFFFFFFFFFFFFC0
310
7FFFFFF0001FFFFFF0001FFFFFFFFC0007F0001FFFFFFFFC0007FF0003FFFFFF
310
FFFFFF0000000003F000FFF80000000007FFF8001E000FC003E0007FFF80007F
310
FFF0000000000FFFFF8000000000FFF80FFFFFFFFFFFFFC07FFFFFF0001FFFFF
310
F0001FFFFFFFFC0007F0001FFFFFFFFC0007FF0003FFFFFFFFFFFC0000000007
310
F000FFE0000000000FFFF0003E000FC003E0007FFF80007FFFC0000000001FFF
310
FE0000000001FFF80FFFFFFFFFFFFFC07FFFFFF0001FFFFFF0001FFFFFFFFC00
310
07F0001FFFFFFFFC0007FF0003FFFFFFFFFFF0000000000FF000FFC000000000
310
1FFFF0003F000F8003F0003FFF80007FFF80000000003FFFF80000000003FFF8
310
0FFFFFFFFFFFFFC07FFFFFF0001FFFFFF0001FFFFFFFFC0007F0001FFFFFFFFC
310
0007FF0003FFFFFFFFFFE0000000001FF000FF00000000007FFFF0003F000780
310
03F0003FFF80007FFF00000000007FFFF00000000007FFF80FFFFFFFFFFFFFC0
310
7FFFFFF0001FFFFFF0001FFFFFFFFC0007F0001FFFFFFFFC0007FF0003FFFFFF
310
FFFF80000000007FF000FE0000000000FFFFE0003F00078007F0003FFF80007F
310
FE0000000001FFFFE0000000001FFFF80FFFFFFFFFFFFFC07FFFFFF0001FFFFF
310
F0001FFFFFFFFC0007F0001FFFFFFFFC0007FF0003FFFFFFFFFF0000000000FF
310
F000FC0000000003FFFFE0007F00078007F0003FFF80007FFC0000000007FFFF
310
C0000000007FFFF80FFFFFFFFFFFFFC07FFFFFF0001FFFFFF8001FFFFFFFFC00
310
0FF8001FFFFFFFFC000FFF0003FFFFFFFFFE0000000003FFF000FC000000000F
310
FFFFE0007F80070007F8001FFF80007FF8000000001FFFFF8000000001FFFFF8
310
0FFFFFFFFFFFFFC07FFFFFF0001FFFFFF8001FFFFFFFFC000FF8001FFFFFFFFC
310
000FFF0003FFFFFFFFFC000000000FFFF000F8000000007FFFFFE0007F800700
310
07F8001FFF80007FF000000000FFFFFF800000000FFFFFF80FFFFFFFFFFFFFC0
310
7FFFFFF0001FFFFFF8000FFFFFFFF8000FF8000FFFFFFFF8000FFF0003FFFFFF
310
FFFC000000007FFFF000F800000007FFFFFFC0007F8003000FF8001FFF80007F
310
F000000007FFFFFF000000007FFFFFF80FFFFFFFFFFFFFC07FFFFFF0001FFFFF
310
F8000FFFFFFFF8000FF8000FFFFFFFF8000FFF0003FFFFFFFFF80000000FFFFF
310
F000F0000000FFFFFFFFC000FF8003000FF8001FFF80007FE0000000FFFFFFFF
310
0000000FFFFFFFF8000001FFFE0000007FFFFFF0001FFFFFF8000FFFFFFFF800
310
0FF8000FFFFFFFF8000FFF0003FFFFFFFFF8000000FFFFFFF000F000000FFFFF
310
FFFFC000FFC002000FF8000FFF80007FE000001FFFFFFFFE000001FFFFFFFFF8
310
000001FFFE0000007FFFFFF0001FFFFFF8000FFFFFFFF8000FF8000FFFFFFFF8
310
000FFF0003FFFFFFFFF000001FFFFFFFF000E00000FFFFFFFFFFC000FFC00200
310
0FFC000FFF80007FE00001FFFFFFFFFE00001FFFFFFFFFF8000001FFFE000000
310
7FFFFFF0001FFFFFFC000FFFFFFFF8001FFC000FFFFFFFF8001FFF0003FFFFFF
310
FFF00001FFFFFFFFF000E00007FFFFFFFFFF8000FFC000001FFC000FFF80007F
310
C0000FFFFFFFFFFE0000FFFFFFFFFFF8000001FFFE0000007FFFFFF0001FFFFF
310
FC0007FFFFFFF0001FFC0007FFFFFFF0001FFF0003FFFFFFFFF00007FFFFFFFF
310
F000E0001FFFFFFFFFFF8000FFC000001FFC000FFF80007FC0003FFFFFFFFFFE
310
0001FFFFFFFFFFF8000001FFFE0000007FFFFFF0001FFFFFFC0007FFFFFFF000
310
1FFC0007FFFFFFF0001FFF0003FFFFFFFFF0001FFFFFFFFFF000E0003FFFFF00
310
03FF8001FFE000001FFC0007FF80007FC0007FFFFF0007FC0003FFFFF0003FF8
310
000001FFFE0000007FFFFFF0001FFFFFFC0003FFFFFFE0001FFC0003FFFFFFE0
310
001FFF0003FFFFFFFFF0003FFFFFFFFFF000E0003FFFFF0001FF8001FFE00000
310
1FFE0007FF80007FC0007FFFFE0003FC0007FFFFE0003FF8000001FFFE000000
310
7FFFFFF0001FFFFFFE0003FFFFFFE0003FFE0003FFFFFFE0003FFF0003FFFFFF
310
FFF0003FFFFF8001F000E0003FFFFF0001FF0001FFE000001FFE0007FF80007F
310
C0007FFFFE0003FC0007FFFFE0003FF8000001FFFE0000007FFFFFF0001FFFFF
310
FE0001FFFFFFC0003FFE0001FFFFFFC0003FFF0003FFFFFFFFF0003FFFFF0001
310
F000E0003FFFFF0003FF0001FFE000003FFE0007FF80007FC0007FFFFE0003FC
310
0007FFFFE0003FF8000001FFFE0000007FFFFFF0001FFFFFFF0001FFFFFFC000
310
7FFF0001FFFFFFC0007FFF0003FFFFFFFFF0003FFFFF0001F000E0003FFFFE00
310
03FF0003FFF000003FFE0003FF80007FC0007FFFFC0003FE0007FFFFE0003FF8
310
000001FFFE0000007FFFFFF0001FFFFFFF0000FFFFFF80007FFF0000FFFFFF80
310
007FFF0003FFFFFFFFF0003FFFFF0001F000E0003FFFFE0003FF0003FFF00000
310
3FFF0003FF80007FC0007FFFFC0007FE0007FFFFC0003FF8000001FFFE000000
310
7FFFFFF0001FFFFFFF80007FFFFF0000FFFF80007FFFFF0000FFFF0003FFFFFF
310
FFF0003FFFFF0003F000E0003FFFFC0003FE0003FFF000003FFF0003FF80007F
310
E0003FFFF80007FE0003FFFFC0007FF8000001FFFE0000007FFFFFF0001FFFFF
310
FF80003FFFFE0000FFFF80003FFFFE0000FFFF0003FFFFFFFFF0001FFFFE0003
310
F000F0001FFFF80003FE0003FFF000007FFF0001FF80007FE0003FFFF00007FE
310
0001FFFF80007FF8000001FFFE0000007FFFFFF0001FFFFFFFC0000FFFF80001
310
FFFFC0000FFFF80001FFFF0003FFFFFFFFF0001FFFFC0003F000F0000FFFF000
310
07FE0007FFF800007FFF0001FF80007FE0001FFFE00007FF0000FFFE00007FF8
310
000001FFFE0000007FFFFFF0001FFFFFFFC00003FFE00001FFFFC00003FFE000
310
01FFFF0003FFFFFFFFF8000FFFF80003F000F00003FFC00007FC0007FFF80000
310
7FFF8001FF80007FF00007FF80000FFF00007FF80000FFF8000001FFFE000000
310
7F80000000000001FFE000003E000003FFFFE000003E000003FFFF0003FFFFFF
310
FFF80003FFE00007F000F800000000000FFC0007FFF800007FFF8001FF80007F
310
F000000000000FFF000000000000FFF8000001FFFE0000007F80000000000001
310
FFF0000000000007FFFFF0000000000007FFFF0003FFFFFFFFFC00007E000007
310
F000F800000000000FFC0007FFF80000FFFF8000FF80007FF800000000001FFF
310
800000000001FFF8000001FFFE0000007F80000000000001FFF800000000000F
310
FFFFF800000000000FFFFF0003FFFFFFFFFC00000000000FF000FC0000000000
310
1FFC0007FFFC0000FFFF8000FF80007FF800000000003FFFC00000000001FFF8
310
000001FFFE0000007F80000000000001FFF800000000000FFFFFF80000000000
310
0FFFFF0003FFFFFFFFFE00000000001FF000FE00000000003FF8000FFFFC0000
310
FFFF8000FF80007FFC00000000003FFFC00000000003FFF8000001FFFE000000
310
7F80000000000001FFFC00000000001FFFFFFC00000000001FFFFF0003FFFFFF
310
FFFF00000000001FF000FF00000000003FF8000FFFFC0000FFFFC000FF80007F
310
FE00000000007FFFE00000000007FFF8000001FFFE0000007F80000000000001
310
FFFE00000000003FFFFFFE00000000003FFFFF0003FFFFFFFFFF80000000003F
310
F000FF80000000007FF8000FFFFC0001FFFFC0007F80007FFF0000000000FFFF
310
F0000000000FFFF800000000000000007F80000000000001FFFF8000000000FF
310
FFFFFF8000000000FFFFFF0003FFFFFFFFFFC0000000007FF000FFC000000000
310
FFF8000FFFFE0001FFFFC0007F80007FFF8000000001FFFFF8000000001FFFF8
310
00000000000000007F80000000000001FFFFC000000001FFFFFFFFC000000001
310
FFFFFF0003FFFFFFFFFFE000000000FFF000FFE000000003FFF0001FFFFE0001
310
FFFFC0007F80007FFFC000000007FFFFFE000000003FFFF80000000000000000
310
7F80000000000001FFFFE000000003FFFFFFFFE000000003FFFFFF0003FFFFFF
310
FFFFF000000003FFF000FFF80000000FFFF0001FFFFE0001FFFFE0007F80007F
310
FFF00000000FFFFFFF00000000FFFFF800000000000000007F80000000000001
310
FFFFF80000000FFFFFFFFFF80000000FFFFFFF0003FFFFFFFFFFFC0000000FFF
310
F000FFFE0000003FFFF0001FFFFE0003FFFFE0003F80007FFFFC0000003FFFFF
310
FFC0000003FFFFF800000000000000007F80000000000001FFFFFE0000003FFF
310
FFFFFFFE0000003FFFFFFF0003FFFFFFFFFFFF0000003FFFF000FFFF800000FF
310
FFF0001FFFFF0003FFFFE0003F80007FFFFF000001FFFFFFFFF800001FFFFFF8
310
00000000000000007F80000000000001FFFFFFC00001FFFFFFFFFFFFC00001FF
310
FFFFFF0003FFFFFFFFFFFFC00000FFFFF000FFFFF8000FFFFFFFFFFFFFFFFFFF
310
FFFFFFFFFFFFFFFFFFFFF0001FFFFFFFFFFF0000FFFFFFF80000000000000000
310
7FFFFFFFFFFFFFFFFFFFFFFC001FFFFFFFFFFFFFFC001FFFFFFFFFFFFFFFFFFF
310
FFFFFFFC001FFFFFF000FFFFFFFFFFFFFFFFFFFFFFFFFFFFFFFFFFFFFFFFFFFF
310
FFFFFFFFFFFFFFFFFFFFFFFFFFFFFFFFFFFFFFFFFFFFFFFFFFFFFFFFFFFFFFFF
310
FFFFFFFFFFFFFFFFFFFFFFFFFFFFFFFFFFFFFFFFFFFFFFFFFFFFFFFFFFFFFFFF
310
F000FFFFFFFFFFFFFFFFFFFFFFFFFFFFFFFFFFFFFFFFFFFFFFFFFFFFFFFFFFFF
310
FFFFFFFFFFFFFFFFFFFFFFFFFFFFFFFFFFFFFFFFFFFFFFFFFFFFFFFFFFFFFFFF
310
FFFFFFFFFFFFFFFFFFFFFFFFFFFFFFFFFFFFFFFFFFFFFFFFF000FFFFFFFFFFFF
310
FFFFFFFFFFFFFFFFFFFFFFFFFFFFFFFFFFFFFFFFFFFFFFFFFFFFFFFFFFFFFFFF
310
FFFFFFFFFFFFFFFFFFFFFFFFFFFFFFFFFFFFFFFFFFFFFFFFFFFFFFFFFFFFFFFF
310
FFFFFFFFFFFFFFFFFFFFFFFFFFFFFFFFF000FFFFFFFFFFFFFFFFFFFFFFFFFFFF
310
FFFFFFFFFFFFFFFFFFFFFFFFFFFFFFFFFFFFFFFFFFFFFFFFFFFFFFFFFFFFFFFF
310
FFFFFFFFFFFFFFFFFFFFFFFFFFFFFFFFFFFFFFFFFFFFFFFFFFFFFFFFFFFFFFFF
310
FFFFFFFFFFFFFFFFF000FFFFFFFFFFFFFFFFFFFFFFFFFFFFFFFFFFFFFFFFFFFF
310
FFFFFFFFFFFFFFFFFFFFFFFFFFFFFFFFFFFFFFFFFFFFFFFFFFFFFFFFFFFFFFFF
310
FFFFFFFFFFFFFFFFFFFFFFFFFFFFFFFFFFFFFFFFFFFFFFFFFFFFFFFFFFFFFFFF
310
F000FFFFFFFFFFFFFFFFFFFFFFFFFFFFFFFFFFFFFFFFFFFFFFFFFFFFFFFFFFFF
310
FFFFFFFFFFFFFFFFFFFFFFFFFFFFFFFFFFFFFFFFFFFFFFFFFFFFFFFFFFFFFFFF
310
FFFFFFFFFFFFFFFFFFFFFFFFFFFFFFFFFFFFFFFFFFFFFFFFF000FFFFFFFFFFFF
310
FFFFFFFFFFFFFFFFFFFFFFFFFFFFFFFFFFFFFFFFFFFFFFFFFFFFFFFFFFFFFFFF
310
FFFFFFFFFFFFFFFFFFFFFFFFFFFFFFFFFFFFFFFFFFFFFFFFFFFFFFFFFFFFFFFF
310
FFFFFFFFFFFFFFFFFFFFFFFFFFFFFFFFF000FFFFFFFFFFFFFFFFFFFFFFFFFFFF
310
FFFFFFFFFFFFFFFFFFFFFFFFFFFFFFFFFFFFFFFFFFFFFFFFFFFFFFFFFFFFFFFF
310
FFFFFFFFFFFFFFFFFFFFFFFFFFFFFFFFFFFFFFFFFFFFFFFFFFFFFFFFFFFFFFFF
310
FFFFFFFFFFFFFFFFF000FFFFFFFFFFFFFFFFFFFFFFFFFFFFFFFFFFFFFFFFFFFF
310
FFFFFFFFFFFFFFFFFFFFFFFFFFFFFFFFFFFFFFFFFFFFFFFFFFFFFFFFFFFFFFFF
310
FFFFFFFFFFFFFFFFFFFFFFFFFFFFFFFFFFFFFFFFFFFFFFFFFFFFFFFFFFFFFFFF
310
F000FFFFFFFFFFFFFFFFFFFFFFFFFFFFFFFFFFFFFFFFFFFFFFFFFFFFFFFFFFFF
310
FFFFFFFFFFFFFFFFFFFFFFFFFFFFFFFFFFFFFFFFFFFFFFFFFFFFFFFFFFFFFFFF
310
FFFFFFFFFFFFFFFFFFFFFFFFFFFFFFFFFFFFFFFFFFFFFFFFF000FFFFFFFFFFFF
310
FFFFFFFFFFFFFFFFFFFFFFFFFFFFFFFFFFFFFFFFFFFFFFFFFFFFFFFFFFFFFFFF
310
FFFFFFFFFFFFFFFFFFFFFFFFFFFFFFFFFFFFFFFFFFFFFFFFFFFFFFFFFFFFFFFF
310
FFFFFFFFFFFFFFFFFFFFFFFFFFFFFFFFF000FFFFFFFFFFFFFFFFFFFFFFFFFFFF
310
FFFFFFFFFFFFFFFFFFFFFFFFFFFFFFFFFFFFFFFFFFFFFFFFFFFFFFFFFFFFFFFF
310
FFFFFFFFFFFFFFFFFFFFFFFFFFFFFFFFFFFFFFFFFFFFFFFFFFFFFFFFFFFFFFFF
310
FFFFFFFFFFFFFFFFF000FFFFFFFFFFFFFFFFFFFFFFFFFFFFFFFFFFFFFFFFFFFF
310
FFFFFFFFFFFFFFFFFFFFFFFFFFFFFFFFFFFFFFFFFFFFFFFFFFFFFFFFFFFFFFFF
310
FFFFFFFFFFFFFFFFFFFFFFFFFFFFFFFFFFFFFFFFFFFFFFFFFFFFFFFFFFFFFFFF
310
F000FFFFFFFFFFFFFFFFFFFFFFFFFFFFFFFFFFFFFFFFFFFFFFFFFFFFFFFFFFFF
310
FFFFFFFFFFFFFFFFFFFFFFFFFFFFFFFFFFFFFFFFFFFFFFFFFFFFFFFFFFFFFFFF
310
FFFFFFFFFFFFFFFFFFFFFFFFFFFFFFFFFFFFFFFFFFFFFFFFF000FFFFFFFFFFFF
310
FFFFFFFFFFFFFFFFFFFFFFFFFFFFFFFFFFFFFFFFFFFFFFFFFFFFFFFFFFFFFFFF
310
FFFFFFFFFFFFFFFFFFFFFFFFFFFFFFFFFFFFFFFFFFFFFFFFFFFFFFFFFFFFFFFF
310
FFFFFFFFFFFFFFFFFFFFFFFFFFFFFFFFF000FFFFFFFFFFFFFFFFFFFFFFFFFFFF
310
FFFFFFFFFFFFFFFFFFFFFFFFFFFFFFFFFFFFFFFFFFFFFFFFFFFFFFFFFFFFFFFF
310
FFFFFFFFFFFFFFFFFFFFFFFFFFFFFFFFFFFFFFFFFFFFFFFFFFFFFFFFFFFFFFFF
310
FFFFFFFFFFFFFFFFF000FFFFFFFFFFFFFFFFFFFFFFFFFFFFFFFFFFFFFFFFFFFF
310
FFFFFFFFFFFFFFFFFFFFFFFFFFFFFFFFFFFFFFFFFFFFFFFFFFFFFFFFFFFFFFFF
310
FFFFFFFFFFFFFFFFFFFFFFFFFFFFFFFFFFFFFFFFFFFFFFFFFFFFFFFFFFFFFFFF
310
F000FFFFFFFFFFFFFFFFFFFFFFFFFFFFFFFFFFFFFFFFFFFFFFFFFFFFFFFFFFFF
310
FFFFFFFFFFFFFFFFFFFFFFFFFFFFFFFFFFFFFFFFFFFFFFFFFFFFFFFFFFFFFFFF
310
FFFFFFFFFFFFFFFFFFFFFFFFFFFFFFFFFFFFFFFFFFFFFFFFF000FFFFFFFFFFFF
310
FFFFFFFFFFFFFFFFFFFFFFFFFFFFFFFFFFFFFFFFFFFFFFFFFFFFFFFFFFFFFFFF
310
FFFFFFFFFFFFFFFFFFFFFFFFFFFFFFFFFFFFFFFFFFFFFFFFFFFFFFFFFFFFFFFF
310
FFFFFFFFFFFFFFFFFFFFFFFFFFFFFFFFF000FFFFFFFFFFFFFFFFFFFFFFFFFFFF
310
FFFFFFFFFFFFFFFFFFFFFFFFFFFFFFFFFFFFFFFFFFFFFFFFFFFFFFFFFFFFFFFF
310
FFFFFFFFFFFFFFFFFFFFFFFFFFFFFFFFFFFFFFFFFFFFFFFFFFFFFFFFFFFFFFFF
310
FFFFFFFFFFFFFFFFF000FFFFFFFFFFFFFFFFFFFFFFFFFFFFFFFFFFFFFFFFFFFF
310
FFFFFFFFFFFFFFFFFFFFFFFFFFFFFFFFFFFFFFFFFFFFFFFFFFFFFFFFFFFFFFFF
310
FFFFFFFFFFFFFFFFFFFFFFFFFFFFFFFFFFFFFFFFFFFFFFFFFFFFFFFFFFFFFFFF
310
F000FFFFFFFFFFFFFFFFFFFFFFFFFFFFFFFFFFFFFFFFFFFFFFFFFFFFFFFFFFFF
310
FFFFFFFFFFFFFFFFFFFFFFFFFFFFFFFFFFFFFFFFFFFFFFFFFFFFFFFFFFFFFFFF
310
FFFFFFFFFFFFFFFFFFFFFFFFFFFFFFFFFFFFFFFFFFFFFFFFF000FFFFFFFFFFFF
310
FFFFFFFFFFFFFFFFFFFFFFFFFFFFFFFFFFFFFFFFFFFFFFFFFFFFFFFFFFFFFFFF
310
FFFFFFFFFFFFFFFFFFFFFFFFFFFFFFFFFFFFFFFFFFFFFFFFFFFFFFFFFFFFFFFF
310
FFFFFFFFFFFFFFFFFFFFFFFFFFFFFFFFF0000000000000000000000000000000
310
0000000000000000000000000000000000000000000000000000000000000000
310
0000000000000000000000000000000000000000000000000000000000000000
310
0000000000000000000000000000000000000000000000000000000000000000
310
0000000000000000000000000000000000000000000000000000000000000000
310
0000000000000000000000000000000000000000000000000000000000000000
310
0000000000000000000000000000000000000000000000000000000000000000
310
0000000000000000000000000000000000000000000000000000000000000000
310
0000000000000000000000000000000000000000000000000000000000000000
310
0000000000000000000000000000000000000000000000000000000000000000
310
0000000000000000000000000000000000000000000000000000000000000000
310
0000000000000000000000000000000000000000000000000000000000000000
310
0000000000000000000000000000000000000000000000000000000000000000
310
0000000000000000000000000000000000000000000000000000000000000000
310
0000000000000000000000000000000000000000000000000000000000000000
310
0000000000000000000000000000000000000000000000000000000000000000
  1
OLE
  0
ENDSEC
  0
SECTION
  2
OBJECTS
  0
DICTIONARY
  5
C
330
0
100
AcDbDictionary
281
     1
  3
ACAD_GROUP
350
D
  3
ACAD_LAYOUT
350
1A
  3
ACAD_MLINESTYLE
350
17
  3
ACAD_PLOTSETTINGS
350
19
  3
ACAD_PLOTSTYLENAME
350
E
  3
ACAD_SCALELIST
350
47
  0
DICTIONARY
  5
D
102
{ACAD_REACTORS
330
C
102
}
330
C
100
AcDbDictionary
281
     1
  0
DICTIONARY
  5
1A
102
{ACAD_REACTORS
330
C
102
}
330
C
100
AcDbDictionary
281
     1
  3
Layout1
350
1E
  3
Layout2
350
26
  3
Model
350
22
  0
DICTIONARY
  5
17
102
{ACAD_REACTORS
330
C
102
}
330
C
100
AcDbDictionary
281
     1
  3
Standard
350
18
  0
DICTIONARY
  5
19
102
{ACAD_REACTORS
330
C
102
}
330
C
100
AcDbDictionary
281
     1
  0
ACDBDICTIONARYWDFLT
  5
E
102
{ACAD_REACTORS
330
C
102
}
330
C
100
AcDbDictionary
281
     1
  3
Normal
350
F
100
AcDbDictionaryWithDefault
340
F
  0
DICTIONARY
  5
47
102
{ACAD_REACTORS
330
C
102
}
330
C
100
AcDbDictionary
281
     1
  3
A0
350
48
  3
A1
350
49
  3
A2
350
4A
  3
A3
350
4B
  3
A4
350
4C
  3
A5
350
4D
  3
A6
350
4E
  3
A7
350
4F
  3
A8
350
50
  3
A9
350
51
  3
B0
350
52
  3
B1
350
53
  3
B2
350
54
  3
B3
350
55
  3
B4
350
56
  3
B5
350
57
  3
B6
350
58
  3
B7
350
59
  3
B8
350
5A
  3
B9
350
5B
  3
C0
350
5C
  3
C1
350
5D
  3
C2
350
5E
  3
C3
350
5F
  3
C4
350
60
  3
C5
350
61
  3
C6
350
62
  3
C7
350
63
  3
C8
350
64
  3
C9
350
65
  3
D0
350
66
  3
D1
350
67
  3
D2
350
68
  0
LAYOUT
  5
1E
102
{ACAD_REACTORS
330
1A
102
}
330
1A
100
AcDbPlotSettings
  1

  2
none_device
  4

  6

 40
0.0
 41
0.0
 42
0.0
 43
0.0
 44
0.0
 45
0.0
 46
0.0
 47
0.0
 48
0.0
 49
0.0
140
0.0
141
0.0
142
1.0
143
1.0
 70
   688
 72
     1
 73
     0
 74
     5
  7

 75
    16
147
1.0
148
0.0
149
0.0
100
AcDbLayout
  1
Layout1
 70
     1
 71
     1
 10
0.0
 20
0.0
 11
420.0
 21
297.0
 12
0.0
 22
0.0
 32
0.0
 14
1.0000000000E+20
 24
1.0000000000E+20
 34
1.0000000000E+20
 15
-1.0000000000E+20
 25
-1.0000000000E+20
 35
-1.0000000000E+20
146
0.0
 13
0.0
 23
0.0
 33
0.0
 16
1.0
 26
0.0
 36
0.0
 17
0.0
 27
1.0
 37
0.0
 76
     0
330
1B
  0
LAYOUT
  5
26
102
{ACAD_REACTORS
330
1A
102
}
330
1A
100
AcDbPlotSettings
  1

  2
none_device
  4

  6

 40
0.0
 41
0.0
 42
0.0
 43
0.0
 44
0.0
 45
0.0
 46
0.0
 47
0.0
 48
0.0
 49
0.0
140
0.0
141
0.0
142
1.0
143
1.0
 70
   688
 72
     1
 73
     0
 74
     5
  7

 75
    16
147
1.0
148
0.0
149
0.0
100
AcDbLayout
  1
Layout2
 70
     1
 71
     2
 10
0.0
 20
0.0
 11
0.0
 21
0.0
 12
0.0
 22
0.0
 32
0.0
 14
0.0
 24
0.0
 34
0.0
 15
0.0
 25
0.0
 35
0.0
146
0.0
 13
0.0
 23
0.0
 33
0.0
 16
1.0
 26
0.0
 36
0.0
 17
0.0
 27
1.0
 37
0.0
 76
     0
330
23
  0
LAYOUT
  5
22
102
{ACAD_REACTORS
330
1A
102
}
330
1A
100
AcDbPlotSettings
  1

  2
none_device
  4
Letter_(8.50_x_11.00_Inches)
  6

 40
6.35
 41
6.35
 42
6.35000508
 43
6.35000508
 44
215.9
 45
279.4
 46
0.0
 47
0.0
 48
0.0
 49
0.0
140
0.0
141
0.0
142
1.0
143
1.0
 70
  1712
 72
     1
 73
     0
 74
     0
  7

 75
     0
147
1.0
148
0.0
149
0.0
100
AcDbLayout
  1
Model
 70
     1
 71
     0
 10
0.0
 20
0.0
 11
297.0
 21
210.0
 12
0.0
 22
0.0
 32
0.0
 14
0.0
 24
0.0
 34
0.0
 15
297.0
 25
210.0
 35
0.0
146
0.0
 13
0.0
 23
0.0
 33
0.0
 16
1.0
 26
0.0
 36
0.0
 17
0.0
 27
1.0
 37
0.0
 76
     0
330
1F
331
29
  0
MLINESTYLE
  5
18
102
{ACAD_REACTORS
330
17
102
}
330
17
100
AcDbMlineStyle
  2
Standard
 70
     0
  3

 62
   256
 51
90.0
 52
90.0
 71
     2
 49
0.5
 62
   256
  6
BYLAYER
 49
-0.5
 62
   256
  6
BYLAYER
  0
ACDBPLACEHOLDER
  5
F
102
{ACAD_REACTORS
330
E
102
}
330
E
  0
SCALE
  5
48
102
{ACAD_REACTORS
330
47
102
}
330
47
100
AcDbScale
 70
     0
300
1:1
140
1.0
141
1.0
290
     1
  0
SCALE
  5
49
102
{ACAD_REACTORS
330
47
102
}
330
47
100
AcDbScale
 70
     0
300
1:2
140
1.0
141
2.0
290
     0
  0
SCALE
  5
4A
102
{ACAD_REACTORS
330
47
102
}
330
47
100
AcDbScale
 70
     0
300
1:4
140
1.0
141
4.0
290
     0
  0
SCALE
  5
4B
102
{ACAD_REACTORS
330
47
102
}
330
47
100
AcDbScale
 70
     0
300
1:5
140
1.0
141
5.0
290
     0
  0
SCALE
  5
4C
102
{ACAD_REACTORS
330
47
102
}
330
47
100
AcDbScale
 70
     0
300
1:8
140
1.0
141
8.0
290
     0
  0
SCALE
  5
4D
102
{ACAD_REACTORS
330
47
102
}
330
47
100
AcDbScale
 70
     0
300
1:10
140
1.0
141
10.0
290
     0
  0
SCALE
  5
4E
102
{ACAD_REACTORS
330
47
102
}
330
47
100
AcDbScale
 70
     0
300
1:16
140
1.0
141
16.0
290
     0
  0
SCALE
  5
4F
102
{ACAD_REACTORS
330
47
102
}
330
47
100
AcDbScale
 70
     0
300
1:20
140
1.0
141
20.0
290
     0
  0
SCALE
  5
50
102
{ACAD_REACTORS
330
47
102
}
330
47
100
AcDbScale
 70
     0
300
1:30
140
1.0
141
30.0
290
     0
  0
SCALE
  5
51
102
{ACAD_REACTORS
330
47
102
}
330
47
100
AcDbScale
 70
     0
300
1:40
140
1.0
141
40.0
290
     0
  0
SCALE
  5
52
102
{ACAD_REACTORS
330
47
102
}
330
47
100
AcDbScale
 70
     0
300
1:50
140
1.0
141
50.0
290
     0
  0
SCALE
  5
53
102
{ACAD_REACTORS
330
47
102
}
330
47
100
AcDbScale
 70
     0
300
1:100
140
1.0
141
100.0
290
     0
  0
SCALE
  5
54
102
{ACAD_REACTORS
330
47
102
}
330
47
100
AcDbScale
 70
     0
300
2:1
140
2.0
141
1.0
290
     0
  0
SCALE
  5
55
102
{ACAD_REACTORS
330
47
102
}
330
47
100
AcDbScale
 70
     0
300
4:1
140
4.0
141
1.0
290
     0
  0
SCALE
  5
56
102
{ACAD_REACTORS
330
47
102
}
330
47
100
AcDbScale
 70
     0
300
8:1
140
8.0
141
1.0
290
     0
  0
SCALE
  5
57
102
{ACAD_REACTORS
330
47
102
}
330
47
100
AcDbScale
 70
     0
300
10:1
140
10.0
141
1.0
290
     0
  0
SCALE
  5
58
102
{ACAD_REACTORS
330
47
102
}
330
47
100
AcDbScale
 70
     0
300
100:1
140
100.0
141
1.0
290
     0
  0
SCALE
  5
59
102
{ACAD_REACTORS
330
47
102
}
330
47
100
AcDbScale
 70
     0
300
1/128" = 1'-0"
140
0.0078125
141
12.0
290
     0
  0
SCALE
  5
5A
102
{ACAD_REACTORS
330
47
102
}
330
47
100
AcDbScale
 70
     0
300
1/64" = 1'-0"
140
0.015625
141
12.0
290
     0
  0
SCALE
  5
5B
102
{ACAD_REACTORS
330
47
102
}
330
47
100
AcDbScale
 70
     0
300
1/32" = 1'-0"
140
0.03125
141
12.0
290
     0
  0
SCALE
  5
5C
102
{ACAD_REACTORS
330
47
102
}
330
47
100
AcDbScale
 70
     0
300
1/16" = 1'-0"
140
0.0625
141
12.0
290
     0
  0
SCALE
  5
5D
102
{ACAD_REACTORS
330
47
102
}
330
47
100
AcDbScale
 70
     0
300
3/32" = 1'-0"
140
0.09375
141
12.0
290
     0
  0
SCALE
  5
5E
102
{ACAD_REACTORS
330
47
102
}
330
47
100
AcDbScale
 70
     0
300
1/8" = 1'-0"
140
0.125
141
12.0
290
     0
  0
SCALE
  5
5F
102
{ACAD_REACTORS
330
47
102
}
330
47
100
AcDbScale
 70
     0
300
3/16" = 1'-0"
140
0.1875
141
12.0
290
     0
  0
SCALE
  5
60
102
{ACAD_REACTORS
330
47
102
}
330
47
100
AcDbScale
 70
     0
300
1/4" = 1'-0"
140
0.25
141
12.0
290
     0
  0
SCALE
  5
61
102
{ACAD_REACTORS
330
47
102
}
330
47
100
AcDbScale
 70
     0
300
3/8" = 1'-0"
140
0.375
141
12.0
290
     0
  0
SCALE
  5
62
102
{ACAD_REACTORS
330
47
102
}
330
47
100
AcDbScale
 70
     0
300
1/2" = 1'-0"
140
0.5
141
12.0
290
     0
  0
SCALE
  5
63
102
{ACAD_REACTORS
330
47
102
}
330
47
100
AcDbScale
 70
     0
300
3/4" = 1'-0"
140
0.75
141
12.0
290
     0
  0
SCALE
  5
64
102
{ACAD_REACTORS
330
47
102
}
330
47
100
AcDbScale
 70
     0
300
1" = 1'-0"
140
1.0
141
12.0
290
     0
  0
SCALE
  5
65
102
{ACAD_REACTORS
330
47
102
}
330
47
100
AcDbScale
 70
     0
300
1-1/2" = 1'-0"
140
1.5
141
12.0
290
     0
  0
SCALE
  5
66
102
{ACAD_REACTORS
330
47
102
}
330
47
100
AcDbScale
 70
     0
300
3" = 1'-0"
140
3.0
141
12.0
290
     0
  0
SCALE
  5
67
102
{ACAD_REACTORS
330
47
102
}
330
47
100
AcDbScale
 70
     0
300
6" = 1'-0"
140
6.0
141
12.0
290
     0
  0
SCALE
  5
68
102
{ACAD_REACTORS
330
47
102
}
330
47
100
AcDbScale
 70
     0
300
1'-0" = 1'-0"
140
12.0
141
12.0
290
     0
  0
ENDSEC
  0
EOF
