  0
SECTION
  2
HEADER
  9
$ACADVER
  1
AC1015
  9
$ACADMAINTVER
 70
    13
  9
$DWGCODEPAGE
  3
ANSI_1252
  9
$INSBASE
 10
0.0
 20
0.0
 30
0.0
  9
$EXTMIN
 10
-22.98922838009093
 20
-51.37510686005953
 30
-0.0000000000000053
  9
$EXTMAX
 10
131.3760459729287
 20
22.43723091943059
 30
0.0000000000000099
  9
$LIMMIN
 10
0.0
 20
0.0
  9
$LIMMAX
 10
420.0
 20
297.0
  9
$ORTHOMODE
 70
     0
  9
$REGENMODE
 70
     1
  9
$FILLMODE
 70
     1
  9
$QTEXTMODE
 70
     0
  9
$MIRRTEXT
 70
     1
  9
$LTSCALE
 40
1.0
  9
$ATTMODE
 70
     1
  9
$TEXTSIZE
 40
2.5
  9
$TRACEWID
 40
1.0
  9
$TEXTSTYLE
  7
STANDARD
  9
$CLAYER
  8
3
  9
$CELTYPE
  6
ByLayer
  9
$CECOLOR
 62
     0
  9
$CELTSCALE
 40
1.0
  9
$DISPSILH
 70
     0
  9
$DIMSCALE
 40
1.0
  9
$DIMASZ
 40
4.57
  9
$DIMEXO
 40
0.0
  9
$DIMDLI
 40
2.299999999999998
  9
$DIMRND
 40
0.0
  9
$DIMDLE
 40
0.0
  9
$DIMEXE
 40
2.5
  9
$DIMTP
 40
0.1
  9
$DIMTM
 40
0.1
  9
$DIMTXT
 40
4.57
  9
$DIMCEN
 40
2.0
  9
$DIMTSZ
 40
0.0
  9
$DIMTOL
 70
     0
  9
$DIMLIM
 70
     0
  9
$DIMTIH
 70
     0
  9
$DIMTOH
 70
     0
  9
$DIMSE1
 70
     0
  9
$DIMSE2
 70
     0
  9
$DIMTAD
 70
     1
  9
$DIMZIN
 70
     8
  9
$DIMBLK
  1

  9
$DIMASO
 70
     1
  9
$DIMSHO
 70
     1
  9
$DIMPOST
  1

  9
$DIMAPOST
  1

  9
$DIMALT
 70
     0
  9
$DIMALTD
 70
     2
  9
$DIMALTF
 40
25.4
  9
$DIMLFAC
 40
1.0
  9
$DIMTOFL
 70
     1
  9
$DIMTVP
 40
0.0
  9
$DIMTIX
 70
     0
  9
$DIMSOXD
 70
     0
  9
$DIMSAH
 70
     0
  9
$DIMBLK1
  1

  9
$DIMBLK2
  1

  9
$DIMSTYLE
  2
GEN-ISO_TDM
  9
$DIMCLRD
 70
     0
  9
$DIMCLRE
 70
     0
  9
$DIMCLRT
 70
     7
  9
$DIMTFAC
 40
0.7
  9
$DIMGAP
 40
1.5
  9
$DIMJUST
 70
     0
  9
$DIMSD1
 70
     0
  9
$DIMSD2
 70
     0
  9
$DIMTOLJ
 70
     1
  9
$DIMTZIN
 70
     8
  9
$DIMALTZ
 70
     8
  9
$DIMALTTZ
 70
     8
  9
$DIMUPT
 70
     0
  9
$DIMDEC
 70
     2
  9
$DIMTDEC
 70
     2
  9
$DIMALTU
 70
     2
  9
$DIMALTTD
 70
     2
  9
$DIMTXSTY
  7
GENPRESET
  9
$DIMAUNIT
 70
     0
  9
$DIMADEC
 70
     1
  9
$DIMALTRND
 40
0.0
  9
$DIMAZIN
 70
     0
  9
$DIMDSEP
 70
    46
  9
$DIMATFIT
 70
     3
  9
$DIMFRAC
 70
     0
  9
$DIMLDRBLK
  1

  9
$DIMLUNIT
 70
     2
  9
$DIMLWD
 70
    -2
  9
$DIMLWE
 70
    -2
  9
$DIMTMOVE
 70
     0
  9
$LUNITS
 70
     2
  9
$LUPREC
 70
     0
  9
$SKETCHINC
 40
1.0
  9
$FILLETRAD
 40
10.0
  9
$AUNITS
 70
     0
  9
$AUPREC
 70
     0
  9
$MENU
  1
.
  9
$ELEVATION
 40
0.0
  9
$PELEVATION
 40
0.0
  9
$THICKNESS
 40
0.0
  9
$LIMCHECK
 70
     0
  9
$CHAMFERA
 40
10.0
  9
$CHAMFERB
 40
10.0
  9
$CHAMFERC
 40
20.0
  9
$CHAMFERD
 40
0.0
  9
$SKPOLY
 70
     0
  9
$TDCREATE
 40
2454355.550041180
  9
$TDUCREATE
 40
2454355.508374514
  9
$TDUPDATE
 40
2454448.307886076
  9
$TDUUPDATE
 40
2454448.266219409
  9
$TDINDWG
 40
0.2568626968
  9
$TDUSRTIMER
 40
0.2568625116
  9
$USRTIMER
 70
     1
  9
$ANGBASE
 50
0.0
  9
$ANGDIR
 70
     0
  9
$PDMODE
 70
     0
  9
$PDSIZE
 40
-1.0
  9
$PLINEWID
 40
0.0
  9
$SPLFRAME
 70
     0
  9
$SPLINETYPE
 70
     6
  9
$SPLINESEGS
 70
     8
  9
$HANDSEED
  5
14B5
  9
$SURFTAB1
 70
     6
  9
$SURFTAB2
 70
     6
  9
$SURFTYPE
 70
     6
  9
$SURFU
 70
     6
  9
$SURFV
 70
     6
  9
$UCSBASE
  2

  9
$UCSNAME
  2

  9
$UCSORG
 10
0.0
 20
0.0
 30
0.0
  9
$UCSXDIR
 10
1.0
 20
0.0
 30
0.0
  9
$UCSYDIR
 10
0.0
 20
1.0
 30
0.0
  9
$UCSORTHOREF
  2

  9
$UCSORTHOVIEW
 70
     0
  9
$UCSORGTOP
 10
0.0
 20
0.0
 30
0.0
  9
$UCSORGBOTTOM
 10
0.0
 20
0.0
 30
0.0
  9
$UCSORGLEFT
 10
0.0
 20
0.0
 30
0.0
  9
$UCSORGRIGHT
 10
0.0
 20
0.0
 30
0.0
  9
$UCSORGFRONT
 10
0.0
 20
0.0
 30
0.0
  9
$UCSORGBACK
 10
0.0
 20
0.0
 30
0.0
  9
$PUCSBASE
  2

  9
$PUCSNAME
  2

  9
$PUCSORG
 10
0.0
 20
0.0
 30
0.0
  9
$PUCSXDIR
 10
1.0
 20
0.0
 30
0.0
  9
$PUCSYDIR
 10
0.0
 20
1.0
 30
0.0
  9
$PUCSORTHOREF
  2

  9
$PUCSORTHOVIEW
 70
     0
  9
$PUCSORGTOP
 10
0.0
 20
0.0
 30
0.0
  9
$PUCSORGBOTTOM
 10
0.0
 20
0.0
 30
0.0
  9
$PUCSORGLEFT
 10
0.0
 20
0.0
 30
0.0
  9
$PUCSORGRIGHT
 10
0.0
 20
0.0
 30
0.0
  9
$PUCSORGFRONT
 10
0.0
 20
0.0
 30
0.0
  9
$PUCSORGBACK
 10
0.0
 20
0.0
 30
0.0
  9
$USERI1
 70
     0
  9
$USERI2
 70
     0
  9
$USERI3
 70
     0
  9
$USERI4
 70
     0
  9
$USERI5
 70
     0
  9
$USERR1
 40
0.0
  9
$USERR2
 40
0.0
  9
$USERR3
 40
0.0
  9
$USERR4
 40
0.0
  9
$USERR5
 40
0.0
  9
$WORLDVIEW
 70
     1
  9
$SHADEDGE
 70
     3
  9
$SHADEDIF
 70
    70
  9
$TILEMODE
 70
     1
  9
$MAXACTVP
 70
    64
  9
$PINSBASE
 10
0.0
 20
0.0
 30
0.0
  9
$PLIMCHECK
 70
     0
  9
$PEXTMIN
 10
1.000000000000000E+20
 20
1.000000000000000E+20
 30
1.000000000000000E+20
  9
$PEXTMAX
 10
-1.000000000000000E+20
 20
-1.000000000000000E+20
 30
-1.000000000000000E+20
  9
$PLIMMIN
 10
0.0
 20
0.0
  9
$PLIMMAX
 10
420.0
 20
297.0
  9
$UNITMODE
 70
     0
  9
$VISRETAIN
 70
     1
  9
$PLINEGEN
 70
     0
  9
$PSLTSCALE
 70
     1
  9
$TREEDEPTH
 70
  3020
  9
$CMLSTYLE
  2
Standard
  9
$CMLJUST
 70
     0
  9
$CMLSCALE
 40
20.0
  9
$PROXYGRAPHICS
 70
     1
  9
$MEASUREMENT
 70
     1
  9
$CELWEIGHT
370
    -1
  9
$ENDCAPS
280
     0
  9
$JOINSTYLE
280
     0
  9
$LWDISPLAY
290
     1
  9
$INSUNITS
 70
     4
  9
$HYPERLINKBASE
  1

  9
$STYLESHEET
  1

  9
$XEDIT
290
     1
  9
$CEPSNTYPE
380
     0
  9
$PSTYLEMODE
290
     1
  9
$FINGERPRINTGUID
  2
{245634DB-B981-41E4-8F20-D13C5AF96EA0}
  9
$VERSIONGUID
  2
{C0B34B25-8AB1-41B6-B7B9-6C447F7661BB}
  9
$EXTNAMES
290
     1
  9
$PSVPSCALE
 40
0.0
  9
$OLESTARTUP
290
     0
  0
ENDSEC
  0
SECTION
  2
CLASSES
  0
CLASS
  1
ACDBDICTIONARYWDFLT
  2
AcDbDictionaryWithDefault
  3
AutoCAD 2000
 90
        0
280
     0
281
     0
  0
CLASS
  1
ACDBPLACEHOLDER
  2
AcDbPlaceHolder
  3
AutoCAD 2000
 90
        0
280
     0
281
     0
  0
CLASS
  1
LAYOUT
  2
AcDbLayout
  3
AutoCAD 2000
 90
        0
280
     0
281
     0
  0
CLASS
  1
DICTIONARYVAR
  2
AcDbDictionaryVar
  3
AutoCAD 2000
 90
        0
280
     0
281
     0
  0
ENDSEC
  0
SECTION
  2
TABLES
  0
TABLE
  2
VPORT
  5
8
330
0
100
AcDbSymbolTable
 70
     2
  0
VPORT
  5
14B4
330
8
100
AcDbSymbolTableRecord
100
AcDbViewportTableRecord
  2
*Active
 70
     0
 10
0.0
 20
0.0
 11
1.0
 21
1.0
 12
-44.62701545148109
 22
-89.97507381351445
 13
0.0
 23
0.0
 14
10.0
 24
10.0
 15
10.0
 25
10.0
 16
0.0
 26
0.0
 36
1.0
 17
98.8204242479
 27
75.5061358432
 37
0.0
 40
99.54687499234019
 41
1.558227848101265
 42
50.0
 43
0.0
 44
0.0
 50
0.0
 51
0.0
 71
     0
 72
  2000
 73
     1
 74
     3
 75
     0
 76
     0
 77
     0
 78
     0
281
     0
 65
     1
110
0.0
120
0.0
130
0.0
111
1.0
121
0.0
131
0.0
112
0.0
122
1.0
132
0.0
 79
     0
146
0.0
  0
ENDTAB
  0
TABLE
  2
LTYPE
  5
5
330
0
100
AcDbSymbolTable
 70
    10
  0
LTYPE
  5
14
330
5
100
AcDbSymbolTableRecord
100
AcDbLinetypeTableRecord
  2
ByBlock
 70
     0
  3

 72
    65
 73
     0
 40
0.0
  0
LTYPE
  5
15
330
5
100
AcDbSymbolTableRecord
100
AcDbLinetypeTableRecord
  2
ByLayer
 70
     0
  3

 72
    65
 73
     0
 40
0.0
  0
LTYPE
  5
16
330
5
100
AcDbSymbolTableRecord
100
AcDbLinetypeTableRecord
  2
Continuous
 70
     0
  3
Solid line
 72
    65
 73
     0
 40
0.0
  0
LTYPE
  5
2A
330
5
100
AcDbSymbolTableRecord
100
AcDbLinetypeTableRecord
  2
SLD-Durchgehend
 70
     0
  3
SolidWorks Line Style
 72
    65
 73
     0
 40
0.0
  0
LTYPE
  5
2B
330
5
100
AcDbSymbolTableRecord
100
AcDbLinetypeTableRecord
  2
SLD-Gestrichelt
 70
     0
  3
SolidWorks Line Style
 72
    65
 73
     2
 40
1.905
 49
1.27
 74
     0
 49
-0.635
 74
     0
  0
LTYPE
  5
2C
330
5
100
AcDbSymbolTableRecord
100
AcDbLinetypeTableRecord
  2
SLD-Phantom
 70
     0
  3
SolidWorks Line Style
 72
    65
 73
     6
 40
12.7
 49
6.349999999999997
 74
     0
 49
-1.27
 74
     0
 49
1.27
 74
     0
 49
-1.27
 74
     0
 49
1.27
 74
     0
 49
-1.27
 74
     0
  0
LTYPE
  5
2D
330
5
100
AcDbSymbolTableRecord
100
AcDbLinetypeTableRecord
  2
SLD-Kette
 70
     0
  3
SolidWorks Line Style
 72
    65
 73
     4
 40
10.16
 49
6.349999999999997
 74
     0
 49
-1.27
 74
     0
 49
1.27
 74
     0
 49
-1.27
 74
     0
  0
LTYPE
  5
2E
330
5
100
AcDbSymbolTableRecord
100
AcDbLinetypeTableRecord
  2
SLD-Punktstrich
 70
     0
  3
SolidWorks Line Style
 72
    65
 73
     4
 40
19.05
 49
15.24
 74
     0
 49
-1.27
 74
     0
 49
1.27
 74
     0
 49
-1.27
 74
     0
  0
LTYPE
  5
2F
330
5
100
AcDbSymbolTableRecord
100
AcDbLinetypeTableRecord
  2
SLD-Naht
 70
     0
  3
SolidWorks Line Style
 72
    65
 73
     2
 40
0.635
 49
0.0
 74
     0
 49
-0.635
 74
     0
  0
LTYPE
  5
30
330
5
100
AcDbSymbolTableRecord
100
AcDbLinetypeTableRecord
  2
SLD-Dicke-Dünne-Kette
 70
     0
  3
SolidWorks Line Style
 72
    65
 73
     4
 40
10.16
 49
6.349999999999997
 74
     0
 49
-1.27
 74
     0
 49
1.27
 74
     0
 49
-1.27
 74
     0
  0
LTYPE
  5
205
330
5
100
AcDbSymbolTableRecord
100
AcDbLinetypeTableRecord
  2
GEN3A
 70
     0
  3
 - - - - -
 72
    65
 73
     2
 40
3.1
 49
2.5
 74
     0
 49
-0.6
 74
     0
  0
LTYPE
  5
207
330
5
100
AcDbSymbolTableRecord
100
AcDbLinetypeTableRecord
  2
GEN7A
 70
     0
  3
__ . __ . __
 72
    65
 73
     4
 40
7.5
 49
5.0
 74
     0
 49
-1.25
 74
     0
 49
0.0
 74
     0
 49
-1.25
 74
     0
  0
ENDTAB
  0
TABLE
  2
LAYER
  5
2
102
{ACAD_XDICTIONARY
360
268
102
}
330
0
100
AcDbSymbolTable
 70
    16
  0
LAYER
  5
10
330
2
100
AcDbSymbolTableRecord
100
AcDbLayerTableRecord
  2
0
 70
     0
 62
     7
  6
Continuous
370
    -3
390
F
  0
LAYER
  5
31
330
2
100
AcDbSymbolTableRecord
100
AcDbLayerTableRecord
  2
FORMAT
 70
     0
 62
     7
  6
SLD-Durchgehend
370
     0
390
F
  0
LAYER
  5
32
330
2
100
AcDbSymbolTableRecord
100
AcDbLayerTableRecord
  2
VERMASSUNG
 70
     0
 62
     7
  6
SLD-Durchgehend
370
     0
390
F
  0
LAYER
  5
33
330
2
100
AcDbSymbolTableRecord
100
AcDbLayerTableRecord
  2
KOPF__DÜNN
 70
     0
 62
     7
  6
SLD-Durchgehend
370
     0
390
F
  0
LAYER
  5
34
330
2
100
AcDbSymbolTableRecord
100
AcDbLayerTableRecord
  2
KOPF__DICK
 70
     0
 62
     7
  6
SLD-Durchgehend
370
    15
390
F
  0
LAYER
  5
1C4
330
2
100
AcDbSymbolTableRecord
100
AcDbLayerTableRecord
  2
Defpoints
 70
     0
 62
     7
  6
Continuous
290
     0
370
    -3
390
F
  0
LAYER
  5
203
330
2
100
AcDbSymbolTableRecord
100
AcDbLayerTableRecord
  2
1
 70
     0
 62
     4
  6
Continuous
370
    -3
390
F
  0
LAYER
  5
204
330
2
100
AcDbSymbolTableRecord
100
AcDbLayerTableRecord
  2
3
 70
     0
 62
     1
  6
GEN3A
370
    -3
390
F
  0
LAYER
  5
206
330
2
100
AcDbSymbolTableRecord
100
AcDbLayerTableRecord
  2
4
 70
     0
 62
     2
  6
GEN7A
370
    -3
390
F
  0
LAYER
  5
208
330
2
100
AcDbSymbolTableRecord
100
AcDbLayerTableRecord
  2
SK1
 70
     0
 62
     4
  6
Continuous
370
    -3
390
F
  0
LAYER
  5
212
330
2
100
AcDbSymbolTableRecord
100
AcDbLayerTableRecord
  2
SK4
 70
     0
 62
     2
  6
GEN7A
370
    -3
390
F
  0
LAYER
  5
238
330
2
100
AcDbSymbolTableRecord
100
AcDbLayerTableRecord
  2
SK2
 70
     0
 62
     7
  6
Continuous
370
    -3
390
F
  0
LAYER
  5
251
330
2
100
AcDbSymbolTableRecord
100
AcDbLayerTableRecord
  2
2
 70
     0
 62
     7
  6
Continuous
370
    -3
390
F
  0
LAYER
  5
267
330
2
100
AcDbSymbolTableRecord
100
AcDbLayerTableRecord
  2
5
 70
     0
 62
     7
  6
Continuous
370
    -3
390
F
  0
LAYER
  5
28C
330
2
100
AcDbSymbolTableRecord
100
AcDbLayerTableRecord
  2
SK3
 70
     0
 62
     1
  6
GEN3A
370
    -3
390
F
  0
LAYER
  5
400
330
2
100
AcDbSymbolTableRecord
100
AcDbLayerTableRecord
  2
1L
 70
     0
 62
     4
  6
Continuous
370
    -3
390
F
  0
ENDTAB
  0
TABLE
  2
STYLE
  5
3
330
0
100
AcDbSymbolTable
 70
     3
  0
STYLE
  5
11
330
3
100
AcDbSymbolTableRecord
100
AcDbTextStyleTableRecord
  2
STANDARD
 70
     0
 40
0.0
 41
1.0
 50
0.0
 71
     0
 42
2.5
  3
ISOCPEUR.TTF
  4

1001
ACAD
1000
ISOCPEUR
1071
       34
  0
STYLE
  5
35
330
3
100
AcDbSymbolTableRecord
100
AcDbTextStyleTableRecord
  2
SLDTEXTSTYLE0
 70
     0
 40
0.0
 41
1.0
 50
0.0
 71
     0
 42
0.2
  3
ISOCPEUR.TTF
  4

1001
ACAD
1000
ISOCPEUR
1071
       34
  0
STYLE
  5
23A
330
3
100
AcDbSymbolTableRecord
100
AcDbTextStyleTableRecord
  2
GENPRESET
 70
     0
 40
0.0
 41
1.0
 50
0.0
 71
     0
 42
3.5
  3
simplex.shx
  4

  0
ENDTAB
  0
TABLE
  2
VIEW
  5
6
330
0
100
AcDbSymbolTable
 70
     0
  0
ENDTAB
  0
TABLE
  2
UCS
  5
7
330
0
100
AcDbSymbolTable
 70
     0
  0
ENDTAB
  0
TABLE
  2
APPID
  5
9
330
0
100
AcDbSymbolTable
 70
     1
  0
APPID
  5
12
330
9
100
AcDbSymbolTableRecord
100
AcDbRegAppTableRecord
  2
ACAD
 70
     0
  0
ENDTAB
  0
TABLE
  2
DIMSTYLE
  5
A
330
0
100
AcDbSymbolTable
 70
     3
100
AcDbDimStyleTable
 71
     1
340
239
  0
DIMSTYLE
105
27
330
A
100
AcDbSymbolTableRecord
100
AcDbDimStyleTableRecord
  2
ISO-25
 70
     0
 41
2.5
 42
0.625
 43
3.75
 44
1.25
 73
     0
 74
     0
 77
     1
 78
     8
140
2.5
141
2.5
143
0.0393700787
147
0.625
171
     3
172
     1
271
     2
272
     2
274
     3
278
    44
283
     0
284
     8
340
11
  0
DIMSTYLE
105
1D2
102
{ACAD_REACTORS
330
499
330
49B
102
}
330
A
100
AcDbSymbolTableRecord
100
AcDbDimStyleTableRecord
  2
SLDDIMSTYLE0
 70
     0
 41
3.0
 44
0.0
 73
     0
 74
     0
 77
     2
 78
    12
140
2.0
144
0.5
147
0.5
173
     1
271
     0
272
     3
284
    12
340
35
  0
DIMSTYLE
105
239
102
{ACAD_REACTORS
330
E2B
330
11E4
102
}
330
A
100
AcDbSymbolTableRecord
100
AcDbDimStyleTableRecord
  2
GEN-ISO_TDM
 70
     0
 41
4.57
 42
0.0
 43
2.299999999999998
 44
2.5
 47
0.1
 48
0.1
 73
     0
 74
     0
 77
     1
 78
     8
140
4.57
141
2.0
146
0.7
147
1.5
172
     1
178
     7
179
     1
271
     2
272
     2
284
     8
285
     8
286
     8
340
23A
  0
ENDTAB
  0
TABLE
  2
BLOCK_RECORD
  5
1
330
0
100
AcDbSymbolTable
 70
    18
  0
BLOCK_RECORD
  5
1F
330
1
100
AcDbSymbolTableRecord
100
AcDbBlockTableRecord
  2
*Model_Space
340
22
  0
BLOCK_RECORD
  5
1B
330
1
100
AcDbSymbolTableRecord
100
AcDbBlockTableRecord
  2
*Paper_Space
340
1E
  0
BLOCK_RECORD
  5
23
330
1
100
AcDbSymbolTableRecord
100
AcDbBlockTableRecord
  2
*Paper_Space0
340
26
  0
BLOCK_RECORD
  5
1C5
330
1
100
AcDbSymbolTableRecord
100
AcDbBlockTableRecord
  2
*D1
340
0
  0
BLOCK_RECORD
  5
1DC
330
1
100
AcDbSymbolTableRecord
100
AcDbBlockTableRecord
  2
*D2
340
0
  0
BLOCK_RECORD
  5
2A0
330
1
100
AcDbSymbolTableRecord
100
AcDbBlockTableRecord
  2
A$C31AB3320
340
0
102
{BLKREFS
331
320
102
}
  0
BLOCK_RECORD
  5
374
330
1
100
AcDbSymbolTableRecord
100
AcDbBlockTableRecord
  2
A$C44845C43
340
0
  0
BLOCK_RECORD
  5
38E
330
1
100
AcDbSymbolTableRecord
100
AcDbBlockTableRecord
  2
*D5
340
0
  0
BLOCK_RECORD
  5
484
330
1
100
AcDbSymbolTableRecord
100
AcDbBlockTableRecord
  2
*D6
340
0
  0
BLOCK_RECORD
  5
48F
330
1
100
AcDbSymbolTableRecord
100
AcDbBlockTableRecord
  2
*D7
340
0
  0
BLOCK_RECORD
  5
498
330
1
100
AcDbSymbolTableRecord
100
AcDbBlockTableRecord
  2
A$C3FCB2D76
340
0
  0
BLOCK_RECORD
  5
BDE
330
1
100
AcDbSymbolTableRecord
100
AcDbBlockTableRecord
  2
*D9
340
0
  0
BLOCK_RECORD
  5
105F
330
1
100
AcDbSymbolTableRecord
100
AcDbBlockTableRecord
  2
*D10
340
0
  0
BLOCK_RECORD
  5
1074
330
1
100
AcDbSymbolTableRecord
100
AcDbBlockTableRecord
  2
*D11
340
0
  0
BLOCK_RECORD
  5
1083
330
1
100
AcDbSymbolTableRecord
100
AcDbBlockTableRecord
  2
*D12
340
0
  0
BLOCK_RECORD
  5
1098
330
1
100
AcDbSymbolTableRecord
100
AcDbBlockTableRecord
  2
*D13
340
0
  0
BLOCK_RECORD
  5
10A7
330
1
100
AcDbSymbolTableRecord
100
AcDbBlockTableRecord
  2
*D14
340
0
  0
BLOCK_RECORD
  5
10BC
330
1
100
AcDbSymbolTableRecord
100
AcDbBlockTableRecord
  2
*D15
340
0
  0
BLOCK_RECORD
  5
10CB
330
1
100
AcDbSymbolTableRecord
100
AcDbBlockTableRecord
  2
*D16
340
0
  0
BLOCK_RECORD
  5
11E5
330
1
100
AcDbSymbolTableRecord
100
AcDbBlockTableRecord
  2
*D17
340
0
  0
ENDTAB
  0
ENDSEC
  0
SECTION
  2
BLOCKS
  0
BLOCK
  5
20
330
1F
100
AcDbEntity
  8
0
100
AcDbBlockBegin
  2
*Model_Space
 70
     0
 10
0.0
 20
0.0
 30
0.0
  3
*Model_Space
  1

  0
ENDBLK
  5
21
330
1F
100
AcDbEntity
  8
0
100
AcDbBlockEnd
  0
BLOCK
  5
1C
330
1B
100
AcDbEntity
 67
     1
  8
0
100
AcDbBlockBegin
  2
*Paper_Space
 70
     0
 10
0.0
 20
0.0
 30
0.0
  3
*Paper_Space
  1

  0
ENDBLK
  5
1D
330
1B
100
AcDbEntity
 67
     1
  8
0
100
AcDbBlockEnd
  0
BLOCK
  5
24
330
23
100
AcDbEntity
  8
0
100
AcDbBlockBegin
  2
*Paper_Space0
 70
     0
 10
0.0
 20
0.0
 30
0.0
  3
*Paper_Space0
  1

  0
ENDBLK
  5
25
330
23
100
AcDbEntity
  8
0
100
AcDbBlockEnd
  0
BLOCK
  5
1D0
330
1C5
100
AcDbEntity
  8
0
100
AcDbBlockBegin
  2
*D1
 70
     1
 10
0.0
 20
0.0
 30
0.0
  3
*D1
  1

  0
LINE
  5
47B
330
1C5
100
AcDbEntity
  8
SK2
 62
     0
370
    -2
100
AcDbLine
 10
-62.31679969333526
 20
-28.82836833438853
 30
0.0
 11
-78.97402244213523
 21
-28.82836833438853
 31
0.0
  0
LINE
  5
47C
330
1C5
100
AcDbEntity
  8
SK2
 62
     0
370
    -2
100
AcDbLine
 10
-62.31679969333526
 20
-48.82836833438854
 30
0.0
 11
-78.97402244213525
 21
-48.82836833438854
 31
0.0
  0
LINE
  5
47D
330
1C5
100
AcDbEntity
  8
SK2
 62
     0
370
    -2
100
AcDbLine
 10
-76.47402244213525
 20
-33.39836833438853
 30
0.0
 11
-76.47402244213525
 21
-44.25836833438854
 31
0.0
  0
SOLID
  5
47E
330
1C5
100
AcDbEntity
  8
SK2
 62
     0
100
AcDbTrace
 10
-77.23568910880192
 20
-33.39836833438853
 30
0.0
 11
-75.71235577546858
 21
-33.39836833438853
 31
0.0
 12
-76.47402244213523
 22
-28.82836833438853
 32
0.0
 13
-76.47402244213523
 23
-28.82836833438853
 33
0.0
  0
SOLID
  5
47F
330
1C5
100
AcDbEntity
  8
SK2
 62
     0
100
AcDbTrace
 10
-77.23568910880192
 20
-44.25836833438854
 30
0.0
 11
-75.71235577546858
 21
-44.25836833438854
 31
0.0
 12
-76.47402244213525
 22
-48.82836833438854
 32
0.0
 13
-76.47402244213525
 23
-48.82836833438854
 33
0.0
  0
MTEXT
  5
480
330
1C5
100
AcDbEntity
  8
SK2
 62
     7
100
AcDbMText
 10
-80.25902244213524
 20
-38.82836833438853
 30
0.0
 40
4.57
 41
0.0
 71
     5
 72
     1
  1
\A1;MBM %%c20
  7
GENPRESET
 11
0.0000000000000001
 21
1.0
 31
0.0
 73
     1
 44
1.0
  0
POINT
  5
481
330
1C5
100
AcDbEntity
  8
Defpoints
 62
     0
100
AcDbPoint
 10
-62.31679969333526
 20
-28.82836833438853
 30
0.0
  0
POINT
  5
482
330
1C5
100
AcDbEntity
  8
Defpoints
 62
     0
100
AcDbPoint
 10
-62.31679969333526
 20
-48.82836833438854
 30
0.0
  0
POINT
  5
483
330
1C5
100
AcDbEntity
  8
Defpoints
 62
     0
100
AcDbPoint
 10
-76.47402244213525
 20
-48.82836833438854
 30
0.0
  0
ENDBLK
  5
1D1
330
1C5
100
AcDbEntity
  8
0
100
AcDbBlockEnd
  0
BLOCK
  5
1E6
330
1DC
100
AcDbEntity
  8
0
100
AcDbBlockBegin
  2
*D2
 70
     1
 10
0.0
 20
0.0
 30
0.0
  3
*D2
  1

  0
LINE
  5
290
330
1DC
100
AcDbEntity
  8
2
 62
     0
370
    -2
100
AcDbLine
 10
0.0
 20
9.799999999999997
 30
0.0
 11
0.0000000000000004
 21
15.8969279116
 31
0.0
  0
LINE
  5
291
330
1DC
100
AcDbEntity
  8
2
 62
     0
370
    -2
100
AcDbLine
 10
25.32261682625
 20
9.693581069650006
 30
0.0
 11
25.32261682625
 21
15.8969279116
 31
0.0
  0
LINE
  5
292
330
1DC
100
AcDbEntity
  8
2
 62
     0
370
    -2
100
AcDbLine
 10
4.57
 20
13.3969279116
 30
0.0
 11
20.75261682624998
 21
13.3969279116
 31
0.0
  0
SOLID
  5
293
330
1DC
100
AcDbEntity
  8
2
 62
     0
100
AcDbTrace
 10
4.57
 20
14.15859457826668
 30
0.0
 11
4.57
 21
12.63526124493335
 31
0.0
 12
0.0000000000000002
 22
13.3969279116
 32
0.0
 13
0.0000000000000002
 23
13.3969279116
 33
0.0
  0
SOLID
  5
294
330
1DC
100
AcDbEntity
  8
2
 62
     0
100
AcDbTrace
 10
20.75261682624998
 20
14.15859457826668
 30
0.0
 11
20.75261682624998
 21
12.63526124493335
 31
0.0
 12
25.32261682625
 22
13.3969279116
 32
0.0
 13
25.32261682625
 23
13.3969279116
 33
0.0
  0
MTEXT
  5
295
330
1DC
100
AcDbEntity
  8
2
 62
     7
100
AcDbMText
 10
5.468459072990476
 20
19.46692791160001
 30
0.0
 40
4.57
 41
0.0
 71
     1
 72
     1
  1
\A1;25.3
  7
GENPRESET
 73
     1
 44
1.0
  0
POINT
  5
296
330
1DC
100
AcDbEntity
  8
Defpoints
 62
     0
100
AcDbPoint
 10
0.0
 20
9.799999999999997
 30
0.0
  0
POINT
  5
297
330
1DC
100
AcDbEntity
  8
Defpoints
 62
     0
100
AcDbPoint
 10
25.32261682625
 20
9.693581069650006
 30
0.0
  0
POINT
  5
298
330
1DC
100
AcDbEntity
  8
Defpoints
 62
     0
100
AcDbPoint
 10
25.32261682625
 20
13.3969279116
 30
0.0
  0
ENDBLK
  5
1E7
330
1DC
100
AcDbEntity
  8
0
100
AcDbBlockEnd
  0
BLOCK
  5
2DE
330
2A0
100
AcDbEntity
  8
0
100
AcDbBlockBegin
  2
A$C31AB3320
 70
     0
 10
0.0
 20
0.0
 30
0.0
  3
A$C31AB3320
  1

  0
LINE
  5
2A1
330
2A0
100
AcDbEntity
  8
0
  6
SLD-Durchgehend
 62
     7
370
    15
100
AcDbLine
 10
39.99411425280001
 20
20.0
 30
0.0
 11
0.4000000000000057
 21
20.0
 31
0.0
  0
LINE
  5
2A2
330
2A0
100
AcDbEntity
  8
0
  6
SLD-Durchgehend
 62
     7
370
    15
100
AcDbLine
 10
42.95281331090001
 20
20.0
 30
0.0
 11
41.47589540960001
 21
20.0
 31
0.0
  0
LINE
  5
2A3
330
2A0
100
AcDbEntity
  8
0
  6
SLD-Durchgehend
 62
     7
370
    15
100
AcDbLine
 10
45.88735441639999
 20
20.0
 30
0.0
 11
45.5463962403
 21
20.0
 31
0.0
  0
ELLIPSE
  5
2A4
330
2A0
100
AcDbEntity
  8
0
  6
SLD-Durchgehend
 62
     7
370
    15
100
AcDbEllipse
 10
68.44807653610001
 20
0.0
 30
0.0
 11
74.64101615137959
 21
0.0
 31
0.0
210
0.0
220
0.0
230
1.0
 40
0.2679491924
 41
2.111407825341649
 42
2.14349425706625
  0
LINE
  5
2A5
330
2A0
100
AcDbEntity
  8
0
  6
SLD-Durchgehend
 62
     7
370
    15
100
AcDbLine
 10
28.0
 20
14.2546501681
 30
0.0
 11
28.0
 21
16.80884046529999
 31
0.0
  0
ELLIPSE
  5
2A6
330
2A0
100
AcDbEntity
  8
0
  6
SLD-Durchgehend
 62
     7
370
    15
100
AcDbEllipse
 10
31.75898384859998
 20
0.0
 30
0.0
 11
0.0
 21
20.00000000000001
 31
0.0
210
0.0
220
0.0
230
1.0
 40
0.2679491924
 41
0.7774101950689281
 42
2.364182458520864
  0
LINE
  5
2A7
330
2A0
100
AcDbEntity
  8
0
  6
SLD-Durchgehend
 62
     7
370
    15
100
AcDbLine
 10
28.0
 20
14.2546501681
 30
0.0
 11
28.0
 21
-14.2546501681
 31
0.0
  0
LWPOLYLINE
  5
2A8
330
2A0
100
AcDbEntity
  8
0
  6
SLD-Durchgehend
 62
     7
370
    15
100
AcDbPolyline
 90
       26
 70
   128
 43
0.0
 10
26.55223489089999
 20
0.0
 10
26.5684974433
 20
-0.4973797743999884
 10
26.61626326480001
 20
-0.9635073481999969
 10
26.69253105300001
 20
-1.369094211899991
 10
26.79250862220001
 20
-1.688655850999975
 10
26.9099140143
 20
-1.902113032599999
 10
27.03737021649998
 20
-1.996053456899985
 10
27.1668686869
 20
-1.964574501499994
 10
27.29027256040001
 20
-1.809654105000004
 10
27.39982791779999
 20
-1.541026485599999
 10
27.48865099300002
 20
-1.175570504599988
 10
27.55116070559997
 20
-0.7362491053999918
 10
27.5834293403
 20
-0.2506664671999914
 10
27.5834293403
 20
0.2506664671000038
 10
27.55116070559997
 20
0.7362491053000042
 10
27.48865099300002
 20
1.175570504600002
 10
27.39982791779999
 20
1.541026485500012
 10
27.29027256040001
 20
1.809654104899989
 10
27.1668686869
 20
1.964574501400008
 10
27.03737021649998
 20
1.996053456799995
 10
26.9099140143
 20
1.902113032599999
 10
26.79250862220001
 20
1.688655851000004
 10
26.69253105300001
 20
1.369094211800003
 10
26.61626326480001
 20
0.9635073482000107
 10
26.5684974433
 20
0.4973797743000006
 10
26.55223489089999
 20
0.0
  0
LINE
  5
2A9
330
2A0
100
AcDbEntity
  8
0
  6
SLD-Durchgehend
 62
     7
370
    15
100
AcDbLine
 10
28.0
 20
-16.80884046529999
 30
0.0
 11
28.0
 21
-14.2546501681
 31
0.0
  0
ELLIPSE
  5
2AA
330
2A0
100
AcDbEntity
  8
0
  6
SLD-Durchgehend
 62
     7
370
    15
100
AcDbEllipse
 10
68.44807653610001
 20
0.0
 30
0.0
 11
74.64101615137959
 21
0.0
 31
0.0
210
0.0
220
0.0
230
1.0
 40
0.2679491924
 41
4.139691050113353
 42
4.171777481837953
  0
ELLIPSE
  5
2AB
330
2A0
100
AcDbEntity
  8
0
  6
SLD-Durchgehend
 62
     7
370
    15
100
AcDbEllipse
 10
32.79135924870002
 20
0.0
 30
0.0
 11
0.0
 21
20.00000000000001
 31
0.0
210
0.0
220
0.0
230
1.0
 40
0.2679491924
 41
2.600981155043037
 42
2.727882188683329
  0
ARC
  5
2AC
330
2A0
100
AcDbEntity
  8
0
  6
SLD-Durchgehend
 62
     7
370
    15
100
AcDbCircle
 10
23.1059231844
 20
0.0
 30
0.0
 40
19.99999999999995
100
AcDbArc
 50
293.3676760770996
 51
298.6263915198997
  0
ELLIPSE
  5
2AD
330
2A0
100
AcDbEntity
  8
0
  6
SLD-Durchgehend
 62
     7
370
    15
100
AcDbEllipse
 10
68.44807653610001
 20
0.0
 30
0.0
 11
74.64101615137234
 21
0.0
 31
0.0
210
0.0
220
0.0
230
1.0
 40
0.2679491924
 41
4.212764195397959
 42
4.220881740161178
  0
LINE
  5
2AE
330
2A0
100
AcDbEntity
  8
0
  6
SLD-Durchgehend
 62
     7
370
    15
100
AcDbLine
 10
32.6878476386
 20
-16.55524775539999
 30
0.0
 11
32.6878476386
 21
-17.55524775539998
 31
0.0
  0
LINE
  5
2AF
330
2A0
100
AcDbEntity
  8
0
  6
SLD-Durchgehend
 62
     7
370
    15
100
AcDbLine
 10
33.22085779490001
 20
-16.6324502076
 30
0.0
 11
33.22085779490001
 21
-17.6324502076
 31
0.0
  0
LINE
  5
2B0
330
2A0
100
AcDbEntity
  8
0
  6
SLD-Durchgehend
 62
     7
370
    15
100
AcDbLine
 10
30.03330256809999
 20
17.1478825522
 30
0.0
 11
30.03330256809999
 21
-17.14788255219998
 31
0.0
  0
ARC
  5
2B1
330
2A0
100
AcDbEntity
  8
0
  6
SLD-Durchgehend
 62
     7
370
    15
100
AcDbCircle
 10
30.8747269204
 20
-18.01939469389999
 30
0.0
 40
0.3775571019692143
100
AcDbArc
 50
230.9754271568999
 51
295.7112097526001
  0
ARC
  5
2B2
330
2A0
100
AcDbEntity
  8
0
  6
SLD-Durchgehend
 62
     7
370
    15
100
AcDbCircle
 10
27.14758126000001
 20
0.0
 30
0.0
 40
19.99999999999996
100
AcDbArc
 50
290.7275699381999
 51
295.8738435549999
  0
ARC
  5
2B3
330
2A0
100
AcDbEntity
  8
0
  6
SLD-Durchgehend
 62
     7
370
    15
100
AcDbCircle
 10
34.06233237309999
 20
-18.32302838679999
 30
0.0
 40
0.4160287584363235
100
AcDbArc
 50
235.1417530788999
 51
293.1784604144997
  0
ELLIPSE
  5
2B4
330
2A0
100
AcDbEntity
  8
0
  6
SLD-Durchgehend
 62
     7
370
    15
100
AcDbEllipse
 10
35.7500583069
 20
0.0
 30
0.0
 11
0.0
 21
20.00000000000001
 31
0.0
210
0.0
220
0.0
230
1.0
 40
0.2679491924
 41
2.650085413366265
 42
2.77407026621315
  0
ARC
  5
2B5
330
2A0
100
AcDbEntity
  8
0
  6
SLD-Durchgehend
 62
     7
370
    15
100
AcDbCircle
 10
31.1892393356
 20
0.0
 30
0.0
 40
19.99999999999998
100
AcDbArc
 50
288.1327556642998
 51
293.1840445404001
  0
ARC
  5
2B6
330
2A0
100
AcDbEntity
  8
0
  6
SLD-Durchgehend
 62
     7
370
    15
100
AcDbCircle
 10
37.24989234439997
 20
-18.57107995479998
 30
0.0
 40
0.4654332800627607
100
AcDbArc
 50
239.2768748912995
 51
290.5978750330003
  0
ELLIPSE
  5
2B7
330
2A0
100
AcDbEntity
  8
0
  6
SLD-Durchgehend
 62
     7
370
    15
100
AcDbEllipse
 10
38.708757365
 20
0.0
 30
0.0
 11
0.0
 21
20.00000000000001
 31
0.0
210
0.0
220
0.0
230
1.0
 40
0.2679491924
 41
2.697930325922373
 42
2.819450509897253
  0
ELLIPSE
  5
2B8
330
2A0
100
AcDbEntity
  8
0
  6
SLD-Durchgehend
 62
     7
370
    15
100
AcDbEllipse
 10
68.44807653610001
 20
0.0
 30
0.0
 11
74.64101615137233
 21
0.0
 31
0.0
210
0.0
220
0.0
230
1.0
 40
0.2679491924
 41
4.260805220204373
 42
4.268726652717287
  0
LINE
  5
2B9
330
2A0
100
AcDbEntity
  8
0
  6
SLD-Durchgehend
 62
     7
370
    15
100
AcDbLine
 10
35.87540286540003
 20
-16.9951418451
 30
0.0
 11
35.87540286540003
 21
-17.9951418451
 31
0.0
  0
LINE
  5
2BA
330
2A0
100
AcDbEntity
  8
0
  6
SLD-Durchgehend
 62
     7
370
    15
100
AcDbLine
 10
36.4084130216
 20
-17.06371338539999
 30
0.0
 11
36.4084130216
 21
-18.06371338539999
 31
0.0
  0
ARC
  5
2BB
330
2A0
100
AcDbEntity
  8
0
  6
SLD-Durchgehend
 62
     7
370
    15
100
AcDbCircle
 10
35.23089741119999
 20
0.0
 30
0.0
 40
19.99999999999999
100
AcDbArc
 50
285.5758984239002
 51
290.5473166738999
  0
ARC
  5
2BC
330
2A0
100
AcDbEntity
  8
0
  6
SLD-Durchgehend
 62
     7
370
    15
100
AcDbCircle
 10
40.43742667979997
 20
-18.76027612599997
 30
0.0
 40
0.5311137844315037
100
AcDbArc
 50
243.4056393987003
 51
287.9592107037002
  0
ELLIPSE
  5
2BD
330
2A0
100
AcDbEntity
  8
0
  6
SLD-Durchgehend
 62
     7
370
    15
100
AcDbEllipse
 10
41.66745642320001
 20
0.0
 30
0.0
 11
0.0
 21
20.00000000000001
 31
0.0
210
0.0
220
0.0
230
1.0
 40
0.2679491924
 41
2.744710252465837
 42
2.864153017737922
  0
ELLIPSE
  5
2BE
330
2A0
100
AcDbEntity
  8
0
  6
SLD-Durchgehend
 62
     7
370
    15
100
AcDbEllipse
 10
68.44807653610001
 20
0.0
 30
0.0
 11
74.64101615137233
 21
0.0
 31
0.0
210
0.0
220
0.0
230
1.0
 40
0.2679491924
 41
4.307751069225161
 42
4.315506579260746
  0
LINE
  5
2BF
330
2A0
100
AcDbEntity
  8
0
  6
SLD-Durchgehend
 62
     7
370
    15
100
AcDbLine
 10
39.06295809210002
 20
-17.38490013419999
 30
0.0
 11
39.06295809210002
 21
-18.38490013419998
 31
0.0
  0
LINE
  5
2C0
330
2A0
100
AcDbEntity
  8
0
  6
SLD-Durchgehend
 62
     7
370
    15
100
AcDbLine
 10
39.5959682484
 20
-17.44541132269998
 30
0.0
 11
39.5959682484
 21
-18.44541132269998
 31
0.0
  0
ELLIPSE
  5
2C1
330
2A0
100
AcDbEntity
  8
0
  6
SLD-Durchgehend
 62
     7
370
    15
100
AcDbEllipse
 10
44.6261554813
 20
0.0
 30
0.0
 11
0.0
 21
20.00000000000001
 31
0.0
210
0.0
220
0.0
230
1.0
 40
0.2679491924
 41
2.790589666699016
 42
2.908293089774283
  0
ARC
  5
2C2
330
2A0
100
AcDbEntity
  8
0
  6
SLD-Durchgehend
 62
     7
370
    15
100
AcDbCircle
 10
39.2725554868
 20
0.0
 30
0.0
 40
19.99999999999998
100
AcDbArc
 50
283.0504841283998
 51
287.9553440187993
  0
ARC
  5
2C3
330
2A0
100
AcDbEntity
  8
0
  6
SLD-Durchgehend
 62
     7
370
    15
100
AcDbCircle
 10
43.6249521762
 20
-18.88294387029998
 30
0.0
 40
0.6224237501524714
100
AcDbArc
 50
247.5454975120998
 51
285.2572897326996
  0
ELLIPSE
  5
2C4
330
2A0
100
AcDbEntity
  8
0
  6
SLD-Durchgehend
 62
     7
370
    15
100
AcDbEllipse
 10
68.44807653610001
 20
0.0
 30
0.0
 11
74.64101615137237
 21
0.0
 31
0.0
210
0.0
220
0.0
230
1.0
 40
0.2679491924
 41
4.353770651974881
 42
4.36138599349393
  0
LINE
  5
2C5
330
2A0
100
AcDbEntity
  8
0
  6
SLD-Durchgehend
 62
     7
370
    15
100
AcDbLine
 10
42.7835234751
 20
-17.78056636809997
 30
0.0
 11
42.7835234751
 21
-18.78056636809996
 31
0.0
  0
LINE
  5
2C6
330
2A0
100
AcDbEntity
  8
0
  6
SLD-Durchgehend
 62
     7
370
    15
100
AcDbLine
 10
42.25051331889999
 20
-17.72765315009999
 30
0.0
 11
42.25051331889999
 21
-18.72765315009998
 31
0.0
  0
ARC
  5
2C7
330
2A0
100
AcDbEntity
  8
0
  6
SLD-Durchgehend
 62
     7
370
    15
100
AcDbCircle
 10
43.31421356239999
 20
0.0
 30
0.0
 40
19.99999999999995
100
AcDbArc
 50
280.5506322361999
 51
285.4008553724998
  0
ARC
  5
2C8
330
2A0
100
AcDbEntity
  8
0
  6
SLD-Durchgehend
 62
     7
370
    15
100
AcDbCircle
 10
46.81248476229995
 20
-18.92244745219999
 30
0.0
 40
0.7573511961178385
100
AcDbArc
 50
251.7072233264
 51
282.4918727109997
  0
ELLIPSE
  5
2C9
330
2A0
100
AcDbEntity
  8
0
  6
SLD-Durchgehend
 62
     7
370
    15
100
AcDbEllipse
 10
47.5848545395
 20
0.0
 30
0.0
 11
0.0
 21
20.00000000000001
 31
0.0
210
0.0
220
0.0
230
1.0
 40
0.2679491924
 41
2.835710318445196
 42
2.951974599548689
  0
ELLIPSE
  5
2CA
330
2A0
100
AcDbEntity
  8
0
  6
SLD-Durchgehend
 62
     7
370
    15
100
AcDbEllipse
 10
68.44807653610001
 20
0.0
 30
0.0
 11
74.64101615134492
 21
0.0
 31
0.0
210
0.0
220
0.0
230
1.0
 40
0.2679491924
 41
4.39900910892815
 42
4.40650664524009
  0
LINE
  5
2CB
330
2A0
100
AcDbEntity
  8
0
  6
SLD-Durchgehend
 62
     7
370
    15
100
AcDbLine
 10
45.4380685456
 20
-18.02594146739998
 30
0.0
 11
45.4380685456
 21
-19.0259414674
 31
0.0
  0
LINE
  5
2CC
330
2A0
100
AcDbEntity
  8
0
  6
SLD-Durchgehend
 62
     7
370
    15
100
AcDbLine
 10
45.9710787019
 20
-18.07163244179998
 30
0.0
 11
45.9710787019
 21
-19.07163244179998
 31
0.0
  0
ELLIPSE
  5
2CD
330
2A0
100
AcDbEntity
  8
0
  6
SLD-Durchgehend
 62
     7
370
    15
100
AcDbEllipse
 10
68.44807653610001
 20
0.0
 30
0.0
 11
74.64101615138531
 21
0.0
 31
0.0
210
0.0
220
0.0
230
1.0
 40
0.2679491924
 41
4.443593346511213
 42
4.450992828118821
  0
LINE
  5
2CE
330
2A0
100
AcDbEntity
  8
0
  6
SLD-Durchgehend
 62
     7
370
    15
100
AcDbLine
 10
48.62562377240003
 20
-18.2818287925
 30
0.0
 11
48.62562377240003
 21
-19.2818287925
 31
0.0
  0
LINE
  5
2CF
330
2A0
100
AcDbEntity
  8
0
  6
SLD-Durchgehend
 62
     7
370
    15
100
AcDbLine
 10
49.1586339286
 20
-18.3206022559
 30
0.0
 11
49.1586339286
 21
-19.32060225589999
 31
0.0
  0
ELLIPSE
  5
2D0
330
2A0
100
AcDbEntity
  8
0
  6
SLD-Durchgehend
 62
     7
370
    15
100
AcDbEllipse
 10
50.54355359760001
 20
0.0
 30
0.0
 11
0.0
 21
20.00000000000001
 31
0.0
210
0.0
220
0.0
230
1.0
 40
0.2679491924
 41
2.880196501323913
 42
2.995292652286758
  0
ELLIPSE
  5
2D1
330
2A0
100
AcDbEntity
  8
0
  6
SLD-Durchgehend
 62
     7
370
    15
100
AcDbEllipse
 10
60.179751463
 20
0.0
 30
0.0
 11
74.64101615137528
 21
0.0
 31
0.0
210
0.0
220
0.0
230
1.0
 40
0.2679491924
 41
4.574660577400869
 42
4.578284064409112
  0
LINE
  5
2D2
330
2A0
100
AcDbEntity
  8
0
  6
SLD-Durchgehend
 62
     7
370
    15
100
AcDbLine
 10
50.19999999999999
 20
-19.82042807769998
 30
0.0
 11
50.64523365240001
 21
-19.38716213939999
 31
0.0
  0
LINE
  5
2D3
330
2A0
100
AcDbEntity
  8
0
  6
SLD-Durchgehend
 62
     7
370
    15
100
AcDbLine
 10
50.64523365240001
 20
-19.38716213939999
 30
0.0
 11
50.80000000000001
 21
-19.25097400139996
 31
0.0
  0
LINE
  5
2D4
330
2A0
100
AcDbEntity
  8
0
  6
SLD-Durchgehend
 62
     7
370
    15
100
AcDbLine
 10
50.64523365240001
 20
-18.31555791479998
 30
0.0
 11
50.64523365240001
 21
-19.38716213939999
 31
0.0
  0
LINE
  5
2D5
330
2A0
100
AcDbEntity
  8
0
  6
SLD-Durchgehend
 62
     7
370
    15
100
AcDbLine
 10
50.19999999999999
 20
-20.0
 30
0.0
 11
50.80000000000001
 21
-19.39999999999998
 31
0.0
  0
LINE
  5
2D6
330
2A0
100
AcDbEntity
  8
0
  6
SLD-Durchgehend
 62
     7
370
    15
100
AcDbLine
 10
50.19999999999999
 20
-19.82042807769998
 30
0.0
 11
50.19999999999999
 21
-20.0
 31
0.0
  0
ARC
  5
2D7
330
2A0
100
AcDbEntity
  8
0
  6
SLD-Durchgehend
 62
     7
370
    15
100
AcDbCircle
 10
49.9080917777
 20
-19.3724568601
 30
0.0
 40
0.4388053186748643
100
AcDbArc
 50
250.5986673819995
 51
273.1277037893995
  0
LINE
  5
2D8
330
2A0
100
AcDbEntity
  8
0
  6
SLD-Durchgehend
 62
     7
370
    15
100
AcDbLine
 10
0.4000000000000057
 20
-20.0
 30
0.0
 11
50.19999999999999
 21
-20.0
 31
0.0
  0
LINE
  5
2D9
330
2A0
100
AcDbEntity
  8
0
  6
SLD-Durchgehend
 62
     7
370
    15
100
AcDbLine
 10
39.5959682484
 20
0.201717850700021
 30
0.0
 11
39.5959682484
 21
-3.709960361199988
 31
0.0
  0
LINE
  5
2DA
330
2A0
100
AcDbEntity
  8
0
  6
SLD-Durchgehend
 62
     7
370
    15
100
AcDbLine
 10
39.06295809210002
 20
0.5067328673000162
 30
0.0
 11
39.06295809210002
 21
-3.069442679700002
 31
0.0
  0
LINE
  5
2DB
330
2A0
100
AcDbEntity
  8
0
  6
SLD-Durchgehend
 62
     7
370
    15
100
AcDbLine
 10
42.25051331889999
 20
-0.5722074336999869
 30
0.0
 11
42.25051331889999
 21
-4.844022210600002
 31
0.0
  0
LINE
  5
2DC
330
2A0
100
AcDbEntity
  8
0
  6
SLD-Durchgehend
 62
     7
370
    15
100
AcDbLine
 10
42.7835234751
 20
-0.5993738952999906
 30
0.0
 11
42.7835234751
 21
-4.6584085992
 31
0.0
  0
LINE
  5
2DD
330
2A0
100
AcDbEntity
  8
0
  6
SLD-Durchgehend
 62
     7
370
    15
100
AcDbLine
 10
45.4380685456
 20
-0.1952915882999946
 30
0.0
 11
45.4380685456
 21
-1.410156087799989
 31
0.0
  0
ENDBLK
  5
2DF
330
2A0
100
AcDbEntity
  8
0
100
AcDbBlockEnd
  0
BLOCK
  5
378
330
374
100
AcDbEntity
  8
0
 62
     0
100
AcDbBlockBegin
  2
A$C44845C43
 70
     0
 10
0.0
 20
0.0
 30
0.0
  3
A$C44845C43
  1

  0
LINE
  5
375
330
374
100
AcDbEntity
  8
0
  6
SLD-Durchgehend
 62
     7
370
    15
100
AcDbLine
 10
-2.254766347590788
 20
-7.315557914812287
 30
0.0
 11
-2.254766347590788
 21
-8.387162139412282
 31
0.0
  0
LINE
  5
376
330
374
100
AcDbEntity
  8
0
  6
SLD-Durchgehend
 62
     7
370
    15
100
AcDbLine
 10
-2.099999999990784
 20
-7.259748394212294
 30
0.0
 11
-2.099999999990784
 21
-8.250974001412284
 31
0.0
  0
LINE
  5
377
330
374
100
AcDbEntity
  8
0
  6
SLD-Durchgehend
 62
     7
370
    15
100
AcDbLine
 10
-2.099999999990784
 20
-8.28600528881229
 30
0.0
 11
-2.099999999990784
 21
-9.813082026112283
 31
0.0
  0
ENDBLK
  5
379
330
374
100
AcDbEntity
  8
0
 62
     0
100
AcDbBlockEnd
  0
BLOCK
  5
398
330
38E
100
AcDbEntity
  8
0
 62
     0
100
AcDbBlockBegin
  2
*D5
 70
     1
 10
0.0
 20
0.0
 30
0.0
  3
*D5
  1

  0
LINE
  5
472
330
38E
100
AcDbEntity
  8
2
 62
     0
370
    -2
100
AcDbLine
 10
-62.51679969333526
 20
-29.02836833558854
 30
0.0
 11
-62.51679969333526
 21
-22.43543669795835
 31
0.0
  0
LINE
  5
473
330
38E
100
AcDbEntity
  8
2
 62
     0
370
    -2
100
AcDbLine
 10
-37.11679969333526
 20
-29.20288133373853
 30
0.0
 11
-37.11679969333526
 21
-22.43543669795835
 31
0.0
  0
LINE
  5
474
330
38E
100
AcDbEntity
  8
2
 62
     0
370
    -2
100
AcDbLine
 10
-57.94679969333524
 20
-24.93543669795835
 30
0.0
 11
-41.68679969333526
 21
-24.93543669795835
 31
0.0
  0
SOLID
  5
475
330
38E
100
AcDbEntity
  8
2
 62
     0
100
AcDbTrace
 10
-57.94679969333524
 20
-24.17377003129168
 30
0.0
 11
-57.94679969333524
 21
-25.69710336462502
 31
0.0
 12
-62.51679969333526
 22
-24.93543669795835
 32
0.0
 13
-62.51679969333526
 23
-24.93543669795835
 33
0.0
  0
SOLID
  5
476
330
38E
100
AcDbEntity
  8
2
 62
     0
100
AcDbTrace
 10
-41.68679969333526
 20
-24.17377003129168
 30
0.0
 11
-41.68679969333526
 21
-25.69710336462502
 31
0.0
 12
-37.11679969333526
 22
-24.93543669795835
 32
0.0
 13
-37.11679969333526
 23
-24.93543669795835
 33
0.0
  0
MTEXT
  5
477
330
38E
100
AcDbEntity
  8
2
 62
     7
100
AcDbMText
 10
-49.81679969333526
 20
-21.15043669795835
 30
0.0
 40
4.57
 41
0.0
 71
     5
 72
     1
  1
\A1;25.4
  7
GENPRESET
 73
     1
 44
1.0
  0
POINT
  5
478
330
38E
100
AcDbEntity
  8
Defpoints
 62
     0
100
AcDbPoint
 10
-62.51679969333526
 20
-29.02836833558854
 30
0.0
  0
POINT
  5
479
330
38E
100
AcDbEntity
  8
Defpoints
 62
     0
100
AcDbPoint
 10
-37.11679969333526
 20
-29.20288133373853
 30
0.0
  0
POINT
  5
47A
330
38E
100
AcDbEntity
  8
Defpoints
 62
     0
100
AcDbPoint
 10
-37.11679969333526
 20
-24.93543669795835
 30
0.0
  0
ENDBLK
  5
399
330
38E
100
AcDbEntity
  8
0
 62
     0
100
AcDbBlockEnd
  0
BLOCK
  5
48D
330
484
100
AcDbEntity
  8
0
100
AcDbBlockBegin
  2
*D6
 70
     1
 10
0.0
 20
0.0
 30
0.0
  3
*D6
  1

  0
SOLID
  5
485
330
484
100
AcDbEntity
  8
VERMASSUNG
100
AcDbTrace
 10
81.1245196267
 20
83.7205338809
 30
0.0
 11
81.5745196267
 21
86.72053388090002
 31
0.0
 12
80.6745196267
 22
86.72053388090002
 32
0.0
 13
80.6745196267
 23
86.72053388090002
 33
0.0
  0
SOLID
  5
486
330
484
100
AcDbEntity
  8
VERMASSUNG
100
AcDbTrace
 10
81.1245196267
 20
138.7205338808998
 30
0.0
 11
80.6745196267
 21
135.7205338809
 31
0.0
 12
81.5745196267
 22
135.7205338809
 32
0.0
 13
81.5745196267
 23
135.7205338809
 33
0.0
  0
LINE
  5
487
330
484
100
AcDbEntity
  8
VERMASSUNG
100
AcDbLine
 10
117.2859342916
 20
83.7205338809
 30
0.0
 11
80.12451962670002
 21
83.7205338809
 31
0.0
  0
LINE
  5
488
330
484
100
AcDbEntity
  8
VERMASSUNG
100
AcDbLine
 10
117.2859342916
 20
138.7205338808998
 30
0.0
 11
80.12451962670002
 21
138.7205338808998
 31
0.0
  0
LINE
  5
489
330
484
100
AcDbEntity
  8
VERMASSUNG
100
AcDbLine
 10
81.1245196267
 20
83.7205338809
 30
0.0
 11
81.1245196267
 21
138.7205338808998
 31
0.0
  0
MTEXT
  5
48A
330
484
100
AcDbEntity
  8
VERMASSUNG
100
AcDbMText
 10
78.3245198501
 20
104.8164942504999
 30
0.0
 40
2.0
 41
0.0
 71
     1
 72
     1
  1
{MBM }
  7
SLDTEXTSTYLE0
 11
0.0000000000000001
 21
1.0
 31
0.0
 73
     1
 44
1.0
  0
MTEXT
  5
48B
330
484
100
AcDbEntity
  8
VERMASSUNG
100
AcDbMText
 10
78.5245198013
 20
111.2164940887999
 30
0.0
 40
2.0
 41
0.0
 71
     1
 72
     1
  1
{%%c}
  7
SLDTEXTSTYLE0
 11
0.0000000000000001
 21
1.0
 31
0.0
 73
     1
 44
1.0
  0
MTEXT
  5
48C
330
484
100
AcDbEntity
  8
VERMASSUNG
100
AcDbMText
 10
78.52451951029998
 20
114.8253332649
 30
0.0
 40
2.0
 41
0.0
 71
     1
 72
     1
  1
{55}
  7
SLDTEXTSTYLE0
 11
0.0000000000000001
 21
1.0
 31
0.0
 73
     1
 44
1.0
  0
ENDBLK
  5
48E
330
484
100
AcDbEntity
  8
0
100
AcDbBlockEnd
  0
BLOCK
  5
496
330
48F
100
AcDbEntity
  8
0
100
AcDbBlockBegin
  2
*D7
 70
     1
 10
0.0
 20
0.0
 30
0.0
  3
*D7
  1

  0
SOLID
  5
490
330
48F
100
AcDbEntity
  8
VERMASSUNG
100
AcDbTrace
 10
116.8859342915999
 20
144.3929717519999
 30
0.0
 11
119.8859342915999
 21
143.942971752
 31
0.0
 12
119.8859342915999
 22
144.842971752
 32
0.0
 13
119.8859342915999
 23
144.842971752
 33
0.0
  0
SOLID
  5
491
330
48F
100
AcDbEntity
  8
VERMASSUNG
100
AcDbTrace
 10
194.8859342915999
 20
144.3929717519999
 30
0.0
 11
191.8859342915999
 21
144.842971752
 31
0.0
 12
191.8859342915999
 22
143.942971752
 32
0.0
 13
191.8859342915999
 23
143.942971752
 33
0.0
  0
LINE
  5
492
330
48F
100
AcDbEntity
  8
VERMASSUNG
100
AcDbLine
 10
116.8859342915999
 20
138.3205338808999
 30
0.0
 11
116.8859342915999
 21
145.3929717519999
 31
0.0
  0
LINE
  5
493
330
48F
100
AcDbEntity
  8
VERMASSUNG
100
AcDbLine
 10
194.8859342915999
 20
137.8920542724999
 30
0.0
 11
194.8859342915999
 21
145.3929717519999
 31
0.0
  0
LINE
  5
494
330
48F
100
AcDbEntity
  8
VERMASSUNG
100
AcDbLine
 10
116.8859342915999
 20
144.3929717519999
 30
0.0
 11
194.8859342915999
 21
144.3929717519999
 31
0.0
  0
MTEXT
  5
495
330
48F
100
AcDbEntity
  8
VERMASSUNG
100
AcDbMText
 10
154.4863141684
 20
146.9929718683999
 30
0.0
 40
2.0
 41
0.0
 71
     1
 72
     1
  1
{78}
  7
SLDTEXTSTYLE0
 73
     1
 44
1.0
  0
ENDBLK
  5
497
330
48F
100
AcDbEntity
  8
0
100
AcDbBlockEnd
  0
BLOCK
  5
59B
330
498
100
AcDbEntity
  8
0
 62
     0
100
AcDbBlockBegin
  2
A$C3FCB2D76
 70
     0
 10
0.0
 20
0.0
 30
0.0
  3
A$C3FCB2D76
  1

  0
DIMENSION
  5
499
330
498
100
AcDbEntity
  8
VERMASSUNG
100
AcDbDimension
  2
*D6
 10
-35.76141466489998
 20
27.5
 30
0.0
 11
-35.76141466489998
 21
0.0
 31
0.0
 12
-116.8859342915999
 22
-111.2205338809
 32
0.0
 70
   128
  1
MBM %%c<>
 71
     5
 42
55.0
  3
SLDDIMSTYLE0
100
AcDbAlignedDimension
 13
0.4000000000000057
 23
-27.5
 33
0.0
 14
0.4000000000000057
 24
27.5
 34
0.0
 50
90.0
100
AcDbRotatedDimension
1001
ACAD
1000
DSTYLE
1002
{
1070
   143
1040
0.0394
1070
    41
1040
3.0
1070
    44
1040
1.0
1070
    42
1040
0.0
1070
   147
1040
1.524
1070
    73
1070
     1
1070
    74
1070
     1
1070
   140
1040
2.0
1070
   284
1070
     0
1070
    78
1070
     0
1002
}
  0
LINE
  5
49A
330
498
100
AcDbEntity
  8
VERMASSUNG
  6
SLD-Punktstrich
370
     0
100
AcDbLine
 10
-31.00929299789999
 20
0.0
 30
0.0
 11
81.25625161900002
 21
0.0
 31
0.0
  0
DIMENSION
  5
49B
330
498
100
AcDbEntity
  8
VERMASSUNG
100
AcDbDimension
  2
*D7
 10
78.0
 20
33.17243787109998
 30
0.0
 11
39.0
 21
33.17243787109998
 31
0.0
 12
-116.8859342915999
 22
-111.2205338809
 32
0.0
 70
   128
 71
     5
 42
78.0
  3
SLDDIMSTYLE0
100
AcDbAlignedDimension
 13
0.0
 23
27.09999999999999
 33
0.0
 14
78.0
 24
26.67152039159998
 34
0.0
100
AcDbRotatedDimension
1001
ACAD
1000
DSTYLE
1002
{
1070
   143
1040
0.0394
1070
    41
1040
3.0
1070
    44
1040
1.0
1070
    42
1040
0.0
1070
   147
1040
1.524
1070
    73
1070
     1
1070
    74
1070
     1
1070
   140
1040
2.0
1070
   284
1070
     0
1070
    78
1070
     0
1002
}
  0
LINE
  5
49C
330
498
100
AcDbEntity
  8
0
  6
SLD-Durchgehend
 62
     7
370
    15
100
AcDbLine
 10
77.59999999999998
 20
27.5
 30
0.0
 11
0.4000000000000057
 21
27.5
 31
0.0
  0
LINE
  5
49D
330
498
100
AcDbEntity
  8
0
  6
SLD-Durchgehend
 62
     7
370
    15
100
AcDbLine
 10
0.4000000000000057
 20
-27.5
 30
0.0
 11
77.59999999999998
 21
-27.5
 31
0.0
  0
LINE
  5
49E
330
498
100
AcDbEntity
  8
0
  6
SLD-Durchgehend
 62
     7
370
     0
100
AcDbLine
 10
-28.119731976
 20
-14.72186089049999
 30
0.0
 11
-28.119731976
 21
14.72186089049998
 31
0.0
  0
LINE
  5
49F
330
498
100
AcDbEntity
  8
0
  6
SLD-Durchgehend
 62
     7
370
     0
100
AcDbLine
 10
-29.06108145789998
 20
-14.88784620239998
 30
0.0
 11
-29.06108145789998
 21
14.88784620239998
 31
0.0
  0
LINE
  5
4A0
330
498
100
AcDbEntity
  8
0
  6
SLD-Durchgehend
 62
     7
370
     0
100
AcDbLine
 10
-27.99460346459998
 20
-14.7196767642
 30
0.0
 11
-27.99460346459998
 21
14.71967676419998
 31
0.0
  0
LINE
  5
4A1
330
498
100
AcDbEntity
  8
0
  6
SLD-Durchgehend
 62
     7
370
     0
100
AcDbLine
 10
-4.957055236100003
 20
-14.77725933899999
 30
0.0
 11
-4.957055236100003
 21
14.77725933899999
 31
0.0
  0
LINE
  5
4A2
330
498
100
AcDbEntity
  8
0
  6
SLD-Durchgehend
 62
     7
370
     0
100
AcDbLine
 10
0.4000000000000057
 20
-27.5
 30
0.0
 11
0.4000000000000057
 21
27.5
 31
0.0
  0
LINE
  5
4A3
330
498
100
AcDbEntity
  8
0
  6
SLD-Durchgehend
 62
     7
370
    15
100
AcDbLine
 10
-30.0
 20
-14.10000000000001
 30
0.0
 11
-30.0
 21
14.09999997989999
 31
0.0
  0
LINE
  5
4A4
330
498
100
AcDbEntity
  8
0
  6
SLD-Durchgehend
 62
     7
370
    15
100
AcDbLine
 10
-26.0
 20
-15.0
 30
0.0
 11
-26.0
 21
15.0
 31
0.0
  0
LINE
  5
4A5
330
498
100
AcDbEntity
  8
0
  6
SLD-Durchgehend
 62
     7
370
    15
100
AcDbLine
 10
-5.788334699999992
 20
-15.0
 30
0.0
 11
-5.788334699999992
 21
15.0
 31
0.0
  0
LINE
  5
4A6
330
498
100
AcDbEntity
  8
0
  6
SLD-Durchgehend
 62
     7
370
    15
100
AcDbLine
 10
-3.950000000000001
 20
-13.64003757329999
 30
0.0
 11
-3.950000000000001
 21
13.64003757329999
 31
0.0
  0
LINE
  5
4A7
330
498
100
AcDbEntity
  8
0
  6
SLD-Durchgehend
 62
     7
370
    15
100
AcDbLine
 10
-0.1499999999999915
 20
12.7860318127
 30
0.0
 11
-0.1499999999999915
 21
-12.7860318127
 31
0.0
  0
LINE
  5
4A8
330
498
100
AcDbEntity
  8
0
  6
SLD-Durchgehend
 62
     7
370
    15
100
AcDbLine
 10
0.0
 20
-27.1
 30
0.0
 11
0.0
 21
27.09999999489999
 31
0.0
  0
LINE
  5
4A9
330
498
100
AcDbEntity
  8
0
  6
SLD-Durchgehend
 62
     7
370
    15
100
AcDbLine
 10
-5.788334699999992
 20
-15.0
 30
0.0
 11
-4.957055236100003
 21
-14.77725933899999
 31
0.0
  0
LINE
  5
4AA
330
498
100
AcDbEntity
  8
0
  6
SLD-Durchgehend
 62
     7
370
    15
100
AcDbLine
 10
-26.0
 20
-15.0
 30
0.0
 11
-5.788334699999992
 21
-15.0
 31
0.0
  0
ARC
  5
4AB
330
498
100
AcDbEntity
  8
0
  6
SLD-Durchgehend
 62
     7
370
    15
100
AcDbCircle
 10
-29.19999999999999
 20
-14.10000000000001
 30
0.0
 40
0.8000000000000161
100
AcDbArc
 50
180.0
 51
280.0
  0
LINE
  5
4AC
330
498
100
AcDbEntity
  8
0
  6
SLD-Durchgehend
 62
     7
370
    15
100
AcDbLine
 10
-27.99460346459998
 20
-14.7196767642
 30
0.0
 11
-26.0
 21
-15.0
 31
0.0
  0
ARC
  5
4AD
330
498
100
AcDbEntity
  8
0
  6
SLD-Durchgehend
 62
     7
370
    15
100
AcDbCircle
 10
-28.050272705
 20
-15.1157839917
 30
0.0
 40
0.4000000000000015
100
AcDbArc
 50
82.00000000000008
 51
100.0000000000001
  0
LINE
  5
4AE
330
498
100
AcDbEntity
  8
0
  6
SLD-Durchgehend
 62
     7
370
    15
100
AcDbLine
 10
-29.06108145789998
 20
-14.88784620239998
 30
0.0
 11
-28.119731976
 21
-14.72186089049999
 31
0.0
  0
LINE
  5
4AF
330
498
100
AcDbEntity
  8
0
  6
SLD-Durchgehend
 62
     7
370
    15
100
AcDbLine
 10
-3.950000000000001
 20
-21.025
 30
0.0
 11
-3.950000000000001
 21
-13.64003757329999
 31
0.0
  0
LINE
  5
4B0
330
498
100
AcDbEntity
  8
0
  6
SLD-Durchgehend
 62
     7
370
    15
100
AcDbLine
 10
-1.606834536399985
 20
-21.025
 30
0.0
 11
-1.606834536399985
 21
-13.64003757329999
 31
0.0
  0
LINE
  5
4B1
330
498
100
AcDbEntity
  8
0
  6
SLD-Durchgehend
 62
     7
370
    15
100
AcDbLine
 10
-1.606834536399985
 20
-21.025
 30
0.0
 11
-0.5880946094000024
 21
-20.5499537704
 31
0.0
  0
ARC
  5
4B2
330
498
100
AcDbEntity
  8
0
  6
SLD-Durchgehend
 62
     7
370
    15
100
AcDbCircle
 10
0.4000000000000057
 20
-27.1
 30
0.0
 40
0.3999999999999915
100
AcDbArc
 50
180.0
 51
270.0
  0
LINE
  5
4B3
330
498
100
AcDbEntity
  8
0
  6
SLD-Durchgehend
 62
     7
370
    15
100
AcDbLine
 10
-3.950000000000001
 20
-21.025
 30
0.0
 11
-1.606834536399985
 21
-21.025
 31
0.0
  0
LINE
  5
4B4
330
498
100
AcDbEntity
  8
0
  6
SLD-Durchgehend
 62
     7
370
     0
100
AcDbLine
 10
-0.5880946094000024
 20
-20.5499537704
 30
0.0
 11
-0.5880946094000024
 21
-12.8957589914
 31
0.0
  0
ARC
  5
4B5
330
498
100
AcDbEntity
  8
0
  6
SLD-Durchgehend
 62
     7
370
    15
100
AcDbCircle
 10
-4.75
 20
-15.55000000000001
 30
0.0
 40
0.7999999999999972
100
AcDbArc
 50
0.0
 51
105.0000000000002
  0
ARC
  5
4B6
330
498
100
AcDbEntity
  8
0
  6
SLD-Durchgehend
 62
     7
370
    15
100
AcDbCircle
 10
-0.25
 20
-21.27499999999999
 30
0.0
 40
0.8000000000000115
100
AcDbArc
 50
71.79004313569997
 51
114.9999999999996
  0
LWPOLYLINE
  5
4B7
330
498
100
AcDbEntity
  8
0
  6
SLD-Durchgehend
 62
     7
370
    15
100
AcDbPolyline
 90
        3
 70
   128
 43
0.0
 10
-1.606834536399985
 20
-13.64003757329999
 10
-0.8737795698999946
 20
-13.10700410569999
 10
-0.5880946094000024
 20
-12.8957589914
  0
LINE
  5
4B8
330
498
100
AcDbEntity
  8
0
  6
SLD-Durchgehend
 62
     7
370
    15
100
AcDbLine
 10
-1.606834536399985
 20
-13.64003757329999
 30
0.0
 11
-3.950000000000001
 21
-13.64003757329999
 31
0.0
  0
ARC
  5
4B9
330
498
100
AcDbEntity
  8
0
  6
SLD-Durchgehend
 62
     7
370
    15
100
AcDbCircle
 10
-0.2491211378999907
 20
-13.31971029360001
 30
0.0
 40
0.5428054172534368
100
AcDbArc
 50
79.47823807240006
 51
128.6443478603997
  0
LINE
  5
4BA
330
498
100
AcDbEntity
  8
0
  6
SLD-Durchgehend
 62
     7
370
    15
100
AcDbLine
 10
-4.957055236100003
 20
14.77725933899999
 30
0.0
 11
-5.788334699999992
 21
15.0
 31
0.0
  0
CIRCLE
  5
4BB
330
498
100
AcDbEntity
  8
0
  6
SLD-Durchgehend
 62
     7
370
    15
100
AcDbCircle
 10
-14.19999999999999
 20
0.0
 30
0.0
 40
4.0
  0
CIRCLE
  5
4BC
330
498
100
AcDbEntity
  8
0
  6
SLD-Durchgehend
 62
     7
370
    15
100
AcDbCircle
 10
-14.19999999999999
 20
0.0
 30
0.0
 40
4.942344702964476
  0
LWPOLYLINE
  5
4BD
330
498
100
AcDbEntity
  8
0
  6
SLD-Durchgehend
 62
     7
370
    15
100
AcDbPolyline
 90
       17
 70
   128
 43
0.0
 10
-20.95
 20
0.0
 10
-20.90063933879999
 20
0.6767369768000009
 10
-20.4561218859
 20
2.10673752929999
 10
-19.56836317909997
 20
3.406654401099998
 10
-18.64420103779999
 20
4.235854434999993
 10
-17.63263297299998
 20
4.851666239500004
 10
-16.52821761889998
 20
5.295072258399997
 10
-15.35360711809998
 20
5.561713012599994
 10
-14.14818960759999
 20
5.6464416469
 10
-12.91131613529999
 20
5.54055707789999
 10
-11.7107588844
 20
5.242960059099998
 10
-10.580185732
 20
4.754787970699993
 10
-9.555473373299989
 20
4.082530322599993
 10
-8.834776801700002
 20
3.409524616699997
 10
-8.234052702499994
 20
2.626061678399991
 10
-7.585777725300004
 20
1.118966402899985
 10
-7.450000000000001
 20
0.0
  0
LWPOLYLINE
  5
4BE
330
498
100
AcDbEntity
  8
0
  6
SLD-Durchgehend
 62
     7
370
    15
100
AcDbPolyline
 90
       17
 70
   128
 43
0.0
 10
-7.450000000000001
 20
0.0
 10
-7.480888330699997
 20
-0.5356843696999932
 10
-7.88567064419999
 20
-1.982905565300015
 10
-8.730205990000001
 20
-3.292356966399991
 10
-10.10061297549998
 20
-4.473194231300012
 10
-11.05387813989999
 20
-4.986920057100021
 10
-12.07741448309998
 20
-5.355942475300011
 10
-13.27273556989999
 20
-5.591681761599999
 10
-14.49335345289997
 20
-5.641189766700009
 10
-15.72541346099999
 20
-5.497724631500004
 10
-16.91451420679999
 20
-5.163268941600009
 10
-18.02788078459998
 20
-4.638678717100019
 10
-19.0280286353
 20
-3.930759756800013
 10
-19.70702479799999
 20
-3.248246645700007
 10
-20.26584749769998
 20
-2.4622338283
 10
-20.8514107009
 20
-0.9547501941000009
 10
-20.95
 20
0.0
  0
LINE
  5
4BF
330
498
100
AcDbEntity
  8
0
  6
SLD-Durchgehend
 62
     7
370
    15
100
AcDbLine
 10
-5.788334699999992
 20
15.0
 30
0.0
 11
-26.0
 21
15.0
 31
0.0
  0
ARC
  5
4C0
330
498
100
AcDbEntity
  8
0
  6
SLD-Durchgehend
 62
     7
370
    15
100
AcDbCircle
 10
-29.19999999999999
 20
14.09999999999999
 30
0.0
 40
0.8000000000000021
100
AcDbArc
 50
79.9999999999998
 51
180.0
  0
ARC
  5
4C1
330
498
100
AcDbEntity
  8
0
  6
SLD-Durchgehend
 62
     7
370
    15
100
AcDbCircle
 10
-28.050272705
 20
15.1157839917
 30
0.0
 40
0.3999999999999916
100
AcDbArc
 50
259.9999999999998
 51
277.9999999999999
  0
LINE
  5
4C2
330
498
100
AcDbEntity
  8
0
  6
SLD-Durchgehend
 62
     7
370
    15
100
AcDbLine
 10
-28.119731976
 20
14.72186089049998
 30
0.0
 11
-29.06108145789998
 21
14.88784620239998
 31
0.0
  0
LINE
  5
4C3
330
498
100
AcDbEntity
  8
0
  6
SLD-Durchgehend
 62
     7
370
    15
100
AcDbLine
 10
-26.0
 20
15.0
 30
0.0
 11
-27.99460346459998
 21
14.71967676419998
 31
0.0
  0
LINE
  5
4C4
330
498
100
AcDbEntity
  8
0
  6
SLD-Durchgehend
 62
     7
370
     0
100
AcDbLine
 10
-0.5880946094000024
 20
12.89575899139998
 30
0.0
 11
-0.5880946094000024
 21
20.54995377039998
 31
0.0
  0
LINE
  5
4C5
330
498
100
AcDbEntity
  8
0
  6
SLD-Durchgehend
 62
     7
370
    15
100
AcDbLine
 10
-1.606834536399985
 20
13.64003757329999
 30
0.0
 11
-1.606834536399985
 21
21.025
 31
0.0
  0
LINE
  5
4C6
330
498
100
AcDbEntity
  8
0
  6
SLD-Durchgehend
 62
     7
370
    15
100
AcDbLine
 10
-3.950000000000001
 20
13.64003757329999
 30
0.0
 11
-3.950000000000001
 21
21.025
 31
0.0
  0
LINE
  5
4C7
330
498
100
AcDbEntity
  8
0
  6
SLD-Durchgehend
 62
     7
370
    15
100
AcDbLine
 10
-0.5880946094000024
 20
12.89575899139998
 30
0.0
 11
-1.606834536399985
 21
13.64003757329999
 31
0.0
  0
LINE
  5
4C8
330
498
100
AcDbEntity
  8
0
  6
SLD-Durchgehend
 62
     7
370
    15
100
AcDbLine
 10
-1.606834536399985
 20
13.64003757329999
 30
0.0
 11
-3.950000000000001
 21
13.64003757329999
 31
0.0
  0
ARC
  5
4C9
330
498
100
AcDbEntity
  8
0
  6
SLD-Durchgehend
 62
     7
370
    15
100
AcDbCircle
 10
-0.2490740635000037
 20
13.3198982419
 30
0.0
 40
0.5429816151344861
100
AcDbArc
 50
231.3641575190001
 51
280.5132565493002
  0
ARC
  5
4CA
330
498
100
AcDbEntity
  8
0
  6
SLD-Durchgehend
 62
     7
370
    15
100
AcDbCircle
 10
-4.75
 20
15.54999999999999
 30
0.0
 40
0.8000000000000081
100
AcDbArc
 50
254.9999999999995
 51
0.0
  0
LINE
  5
4CB
330
498
100
AcDbEntity
  8
0
  6
SLD-Durchgehend
 62
     7
370
    15
100
AcDbLine
 10
-0.5880946094000024
 20
20.54995377039998
 30
0.0
 11
-1.606834536399985
 21
21.025
 31
0.0
  0
LINE
  5
4CC
330
498
100
AcDbEntity
  8
0
  6
SLD-Durchgehend
 62
     7
370
    15
100
AcDbLine
 10
-1.606834536399985
 20
21.025
 30
0.0
 11
-3.950000000000001
 21
21.025
 31
0.0
  0
ARC
  5
4CD
330
498
100
AcDbEntity
  8
0
  6
SLD-Durchgehend
 62
     7
370
    15
100
AcDbCircle
 10
-0.25
 20
21.27499999999999
 30
0.0
 40
0.8000000000000115
100
AcDbArc
 50
245.0000000000003
 51
288.2099568642999
  0
ARC
  5
4CE
330
498
100
AcDbEntity
  8
0
  6
SLD-Durchgehend
 62
     7
370
    15
100
AcDbCircle
 10
0.4000000000000057
 20
27.09999999999999
 30
0.0
 40
0.4000000000000057
100
AcDbArc
 50
90.0
 51
180.0
  0
LINE
  5
4CF
330
498
100
AcDbEntity
  8
0
  6
SLD-Durchgehend
 62
     7
370
     0
100
AcDbLine
 10
77.4731565326
 20
-2.562827085500002
 30
0.0
 11
77.4731565326
 21
-26.99277736
 31
0.0
  0
LINE
  5
4D0
330
498
100
AcDbEntity
  8
0
  6
SLD-Durchgehend
 62
     7
370
     0
100
AcDbLine
 10
77.23274022700002
 20
-2.568705470900013
 30
0.0
 11
77.23274022700002
 21
-26.94483834140001
 31
0.0
  0
LINE
  5
4D1
330
498
100
AcDbEntity
  8
0
  6
SLD-Durchgehend
 62
     7
370
     0
100
AcDbLine
 10
73.26171992999999
 20
2.159756774099988
 30
0.0
 11
73.26171992999999
 21
-26.705664304
 31
0.0
  0
LINE
  5
4D2
330
498
100
AcDbEntity
  8
0
  6
SLD-Durchgehend
 62
     7
370
     0
100
AcDbLine
 10
72.69288884339998
 20
1.472134495699988
 30
0.0
 11
72.69288884339998
 21
-26.6677520181
 31
0.0
  0
LINE
  5
4D3
330
498
100
AcDbEntity
  8
0
  6
SLD-Durchgehend
 62
     7
370
     0
100
AcDbLine
 10
68.7218685464
 20
-0.9606947246000173
 30
0.0
 11
68.7218685464
 21
-26.37704511
 31
0.0
  0
LINE
  5
4D4
330
498
100
AcDbEntity
  8
0
  6
SLD-Durchgehend
 62
     7
370
     0
100
AcDbLine
 10
68.15303745990002
 20
-1.094456682500009
 30
0.0
 11
68.15303745990002
 21
-26.33161945889999
 31
0.0
  0
LINE
  5
4D5
330
498
100
AcDbEntity
  8
0
  6
SLD-Durchgehend
 62
     7
370
     0
100
AcDbLine
 10
64.18201716279998
 20
-0.9238265924000046
 30
0.0
 11
64.18201716279998
 21
-25.9874010382
 31
0.0
  0
LINE
  5
4D6
330
498
100
AcDbEntity
  8
0
  6
SLD-Durchgehend
 62
     7
370
     0
100
AcDbLine
 10
63.61318607630003
 20
-0.735682994100003
 30
0.0
 11
63.61318607630003
 21
-25.93414486969999
 31
0.0
  0
LINE
  5
4D7
330
498
100
AcDbEntity
  8
0
  6
SLD-Durchgehend
 62
     7
370
     0
100
AcDbLine
 10
50.56246301219999
 20
24.42084215789998
 30
0.0
 11
50.56246301219999
 21
-24.42084215790001
 31
0.0
  0
LINE
  5
4D8
330
498
100
AcDbEntity
  8
0
  6
SLD-Durchgehend
 62
     7
370
     0
100
AcDbLine
 10
49.9936319256
 20
24.34132160609999
 30
0.0
 11
49.9936319256
 21
-24.34132160610001
 31
0.0
  0
LINE
  5
4D9
330
498
100
AcDbEntity
  8
0
  6
SLD-Durchgehend
 62
     7
370
    15
100
AcDbLine
 10
78.0
 20
-2.552369869500011
 30
0.0
 11
78.0
 21
-26.67152039159998
 31
0.0
  0
LINE
  5
4DA
330
498
100
AcDbEntity
  8
0
  6
SLD-Durchgehend
 62
     7
370
    15
100
AcDbLine
 10
77.56805501689999
 20
-2.562220726600002
 30
0.0
 11
77.56805501689999
 21
-26.9977175275
 31
0.0
  0
LINE
  5
4DB
330
498
100
AcDbEntity
  8
0
  6
SLD-Durchgehend
 62
     7
370
    15
100
AcDbLine
 10
77.2073122548
 20
-26.9253011828
 30
0.0
 11
77.2073122548
 21
-2.571098207199995
 31
0.0
  0
LINE
  5
4DC
330
498
100
AcDbEntity
  8
0
  6
SLD-Durchgehend
 62
     7
370
    15
100
AcDbLine
 10
77.09999999999998
 20
-2.581647507200003
 30
0.0
 11
77.09999999999998
 21
-26.838997059
 31
0.0
  0
LINE
  5
4DD
330
498
100
AcDbEntity
  8
0
  6
SLD-Durchgehend
 62
     7
370
    15
100
AcDbLine
 10
76.37143005670004
 20
-2.672574892800013
 30
0.0
 11
76.37143005670004
 21
-26.0834589208
 31
0.0
  0
LINE
  5
4DE
330
498
100
AcDbEntity
  8
0
  6
SLD-Durchgehend
 62
     7
370
    15
100
AcDbLine
 10
75.61486307619998
 20
-2.6807028141
 30
0.0
 11
75.61486307619998
 21
-26.01486911929999
 31
0.0
  0
LINE
  5
4DF
330
498
100
AcDbEntity
  8
0
  6
SLD-Durchgehend
 62
     7
370
    15
100
AcDbLine
 10
71.07501169259998
 20
0.0988885284999981
 30
0.0
 11
71.07501169259998
 21
-25.5656890861
 31
0.0
  0
LINE
  5
4E0
330
498
100
AcDbEntity
  8
0
  6
SLD-Durchgehend
 62
     7
370
    15
100
AcDbLine
 10
71.8315786732
 20
0.6552073755999857
 30
0.0
 11
71.8315786732
 21
-25.6450984282
 31
0.0
  0
LINE
  5
4E1
330
498
100
AcDbEntity
  8
0
  6
SLD-Durchgehend
 62
     7
370
    15
100
AcDbLine
 10
67.2917272896
 20
-1.21772828840001
 30
0.0
 11
67.2917272896
 21
-25.14032256520001
 31
0.0
  0
LINE
  5
4E2
330
498
100
AcDbEntity
  8
0
  6
SLD-Durchgehend
 62
     7
370
    15
100
AcDbLine
 10
66.53516030910001
 20
-1.25
 30
0.0
 11
66.53516030910001
 21
-25.04947110760001
 31
0.0
  0
LINE
  5
4E3
330
498
100
AcDbEntity
  8
0
  6
SLD-Durchgehend
 62
     7
370
    15
100
AcDbLine
 10
62.75187590599998
 20
-0.3587682442000073
 30
0.0
 11
62.75187590599998
 21
-24.5650374546
 31
0.0
  0
ELLIPSE
  5
4E4
330
498
100
AcDbEntity
  8
0
  6
SLD-Durchgehend
 62
     7
370
    15
100
AcDbEllipse
 10
57.93467112150003
 20
-7.5
 30
0.0
 11
4.740259054514268
 21
0.0
 31
0.0
210
0.0
220
0.0
230
1.0
 40
0.8965754721999999
 41
5.741086702161187
 42
6.825283912198016
  0
LINE
  5
4E5
330
498
100
AcDbEntity
  8
0
  6
SLD-Durchgehend
 62
     7
370
    15
100
AcDbLine
 10
52.91560615840001
 20
23.05067553809999
 30
0.0
 11
52.91560615840001
 21
-23.05067553809999
 31
0.0
  0
ELLIPSE
  5
4E6
330
498
100
AcDbEntity
  8
0
  6
SLD-Durchgehend
 62
     7
370
    15
100
AcDbEllipse
 10
57.93467112150003
 20
-7.5
 30
0.0
 11
4.74025905451424
 21
0.0
 31
0.0
210
0.0
220
0.0
230
1.0
 40
0.8965754722000001
 41
2.68876148222489
 42
3.594423824954711
  0
LINE
  5
4E7
330
498
100
AcDbEntity
  8
0
  6
SLD-Durchgehend
 62
     7
370
    15
100
AcDbLine
 10
49.1323217554
 20
22.35843938079999
 30
0.0
 11
49.1323217554
 21
-22.35843938079999
 31
0.0
  0
LINE
  5
4E8
330
498
100
AcDbEntity
  8
0
  6
SLD-Durchgehend
 62
     7
370
    15
100
AcDbLine
 10
48.0
 20
18.00959887069998
 30
0.0
 11
48.0
 21
-18.0095988707
 31
0.0
  0
ELLIPSE
  5
4E9
330
498
100
AcDbEntity
  8
0
  6
SLD-Durchgehend
 62
     7
370
    15
100
AcDbEllipse
 10
53.56860279180001
 20
0.0
 30
0.0
 11
0.0
 21
27.5
 31
0.0
210
0.0
220
0.0
230
1.0
 40
0.2679491924
 41
0.8567533108677761
 42
2.284839342722018
  0
ARC
  5
4EA
330
498
100
AcDbEntity
  8
0
  6
SLD-Durchgehend
 62
     7
370
    15
100
AcDbCircle
 10
60.1513284671
 20
-7.5
 30
0.0
 40
4.184252510249616
100
AcDbArc
 50
95.86431172879994
 51
264.1356882711999
  0
ELLIPSE
  5
4EB
330
498
100
AcDbEntity
  8
0
  6
SLD-Durchgehend
 62
     7
370
    15
100
AcDbEllipse
 10
59.02271574180001
 20
-7.5
 30
0.0
 11
0.0
 21
4.250000000000013
 31
0.0
210
0.0
220
0.0
230
1.0
 40
0.8164965808999998
 41
3.321064754170042
 42
4.170290375366294
  0
ARC
  5
4EC
330
498
100
AcDbEntity
  8
0
  6
SLD-Durchgehend
 62
     7
370
    15
100
AcDbCircle
 10
49.43099630069999
 20
0.0
 30
0.0
 40
27.50000000000019
100
AcDbArc
 50
291.7967552762003
 51
297.1862259202003
  0
LINE
  5
4ED
330
498
100
AcDbEntity
  8
0
  6
SLD-Durchgehend
 62
     7
370
     0
100
AcDbLine
 10
59.6421657793
 20
-11.6817367775
 30
0.0
 11
59.6421657793
 21
-25.5339385501
 31
0.0
  0
LINE
  5
4EE
330
498
100
AcDbEntity
  8
0
  6
SLD-Durchgehend
 62
     7
370
     0
100
AcDbLine
 10
59.0733346927
 20
-11.74271895110001
 30
0.0
 11
59.0733346927
 21
-25.4724568523
 31
0.0
  0
LINE
  5
4EF
330
498
100
AcDbEntity
  8
0
  6
SLD-Durchgehend
 62
     7
370
     0
100
AcDbLine
 10
55.1023143957
 20
-10.16373172790001
 30
0.0
 11
55.1023143957
 21
-25.01318700620001
 31
0.0
  0
LINE
  5
4F0
330
498
100
AcDbEntity
  8
0
  6
SLD-Durchgehend
 62
     7
370
     0
100
AcDbLine
 10
54.53348330919999
 20
-9.359430707000015
 30
0.0
 11
54.53348330919999
 21
-24.94298994159999
 31
0.0
  0
LINE
  5
4F1
330
498
100
AcDbEntity
  8
0
  6
SLD-Durchgehend
 62
     7
370
    15
100
AcDbLine
 10
58.2120245225
 20
-11.74271895110001
 30
0.0
 11
58.2120245225
 21
-23.91415507130001
 31
0.0
  0
LINE
  5
4F2
330
498
100
AcDbEntity
  8
0
  6
SLD-Durchgehend
 62
     7
370
    15
100
AcDbLine
 10
57.45545754200001
 20
-11.72822656639999
 30
0.0
 11
57.45545754200001
 21
-23.7979115665
 31
0.0
  0
LINE
  5
4F3
330
498
100
AcDbEntity
  8
0
  6
SLD-Durchgehend
 62
     7
370
    15
100
AcDbLine
 10
53.67217313890001
 20
-9.359430707000015
 30
0.0
 11
53.67217313890001
 21
-23.1813084526
 31
0.0
  0
LINE
  5
4F4
330
498
100
AcDbEntity
  8
0
  6
SLD-Durchgehend
 62
     7
370
    15
100
AcDbLine
 10
48.0
 20
-22.13802539639999
 30
0.0
 11
48.0
 21
-18.0095988707
 31
0.0
  0
ARC
  5
4F5
330
498
100
AcDbEntity
  8
0
  6
SLD-Durchgehend
 62
     7
370
    15
100
AcDbCircle
 10
37.91839450959999
 20
0.0
 30
0.0
 40
27.50000000000027
100
AcDbArc
 50
297.3731902453998
 51
303.0488000289001
  0
ARC
  5
4F6
330
498
100
AcDbEntity
  8
0
  6
SLD-Durchgehend
 62
     7
370
    15
100
AcDbCircle
 10
50.33012210040002
 20
-24.0085785663
 30
0.0
 40
0.4732267620314757
100
AcDbArc
 50
224.6791958832
 51
299.4044636119001
  0
ELLIPSE
  5
4F7
330
498
100
AcDbEntity
  8
0
  6
SLD-Durchgehend
 62
     7
370
    15
100
AcDbEllipse
 10
53.42244010449999
 20
0.0
 30
0.0
 11
0.0
 21
27.5
 31
0.0
210
0.0
220
0.0
230
1.0
 40
0.2679491924
 41
2.520141037206201
 42
2.657588898028589
  0
ELLIPSE
  5
4F8
330
498
100
AcDbEntity
  8
0
  6
SLD-Durchgehend
 62
     7
370
    15
100
AcDbEllipse
 10
108.8859620036
 20
0.0
 30
0.0
 11
102.6313972081432
 21
0.0
 31
0.0
210
0.0
220
0.0
230
1.0
 40
0.2679491924
 41
4.077300325667916
 42
4.090937364001115
  0
ARC
  5
4F9
330
498
100
AcDbEntity
  8
0
  6
SLD-Durchgehend
 62
     7
370
    15
100
AcDbCircle
 10
43.67469540510001
 20
0.0
 30
0.0
 40
27.50000000000022
100
AcDbArc
 50
294.5539436115002
 51
300.0740351490996
  0
ARC
  5
4FA
330
498
100
AcDbEntity
  8
0
  6
SLD-Durchgehend
 62
     7
370
    15
100
AcDbCircle
 10
54.8702128236
 20
-24.5541702765
 30
0.0
 40
0.5143612523261938
100
AcDbArc
 50
229.1064531960001
 51
296.8234187934998
  0
ELLIPSE
  5
4FB
330
498
100
AcDbEntity
  8
0
  6
SLD-Durchgehend
 62
     7
370
    15
100
AcDbEllipse
 10
57.6363448237
 20
0.0
 30
0.0
 11
0.0
 21
27.5
 31
0.0
210
0.0
220
0.0
230
1.0
 40
0.2679491924
 41
2.573551974805392
 42
2.70694345072497
  0
ELLIPSE
  5
4FC
330
498
100
AcDbEntity
  8
0
  6
SLD-Durchgehend
 62
     7
370
    15
100
AcDbEllipse
 10
108.8859620036
 20
0.0
 30
0.0
 11
102.6313972081432
 21
0.0
 31
0.0
210
0.0
220
0.0
230
1.0
 40
0.2679491924
 41
4.135578606046896
 42
4.144348301600301
  0
ARC
  5
4FD
330
498
100
AcDbEntity
  8
0
  6
SLD-Durchgehend
 62
     7
370
    15
100
AcDbCircle
 10
59.4101770297
 20
-25.01814294350001
 30
0.0
 40
0.5655651047614742
100
AcDbArc
 50
233.4456225547003
 51
294.2167263445996
  0
ELLIPSE
  5
4FE
330
498
100
AcDbEntity
  8
0
  6
SLD-Durchgehend
 62
     7
370
    15
100
AcDbEllipse
 10
61.8502495429
 20
0.0
 30
0.0
 11
0.0
 21
27.5
 31
0.0
210
0.0
220
0.0
230
1.0
 40
0.2679491924
 41
2.625199373813682
 42
2.755191105186957
  0
ELLIPSE
  5
4FF
330
498
100
AcDbEntity
  8
0
  6
SLD-Durchgehend
 62
     7
370
    15
100
AcDbEllipse
 10
108.8859620036
 20
0.0
 30
0.0
 11
102.6313972081432
 21
0.0
 31
0.0
210
0.0
220
0.0
230
1.0
 40
0.2679491924
 41
4.187498047672735
 42
4.195995700608595
  0
ELLIPSE
  5
500
330
498
100
AcDbEntity
  8
0
  6
SLD-Durchgehend
 62
     7
370
    15
100
AcDbEllipse
 10
57.80626622990002
 20
-7.5
 30
0.0
 11
0.0
 21
4.250000000000013
 31
0.0
210
0.0
220
0.0
230
1.0
 40
0.8164965808999998
 41
2.248185026420109
 42
3.040325271894996
  0
LINE
  5
501
330
498
100
AcDbEntity
  8
0
  6
SLD-Durchgehend
 62
     7
370
    15
100
AcDbLine
 10
53.67217313890001
 20
-9.359430707000015
 30
0.0
 11
54.53348330919999
 21
-9.359430707000015
 31
0.0
  0
ARC
  5
502
330
498
100
AcDbEntity
  8
0
  6
SLD-Durchgehend
 62
     7
370
    15
100
AcDbCircle
 10
52.1209942195
 20
-11.66893077029999
 30
0.0
 40
3.339744623542478
100
AcDbArc
 50
26.78814556020016
 51
43.75054750309987
  0
ELLIPSE
  5
503
330
498
100
AcDbEntity
  8
0
  6
SLD-Durchgehend
 62
     7
370
    15
100
AcDbEllipse
 10
57.93467112150003
 20
-7.5
 30
0.0
 11
4.74025905451424
 21
0.0
 31
0.0
210
0.0
220
0.0
230
1.0
 40
0.8965754722000001
 41
4.611121598689901
 42
4.77093259426591
  0
LINE
  5
504
330
498
100
AcDbEntity
  8
0
  6
SLD-Durchgehend
 62
     7
370
    15
100
AcDbLine
 10
58.2120245225
 20
-11.74271895110001
 30
0.0
 11
59.0733346927
 21
-11.74271895110001
 31
0.0
  0
ARC
  5
505
330
498
100
AcDbEntity
  8
0
  6
SLD-Durchgehend
 62
     7
370
    15
100
AcDbCircle
 10
59.02803549310002
 20
-8.636706208800021
 30
0.0
 40
3.10634305462091
100
AcDbArc
 50
270.8355628816004
 51
281.4026112887998
  0
ELLIPSE
  5
506
330
498
100
AcDbEntity
  8
0
  6
SLD-Durchgehend
 62
     7
370
    15
100
AcDbEllipse
 10
78.70586841959998
 20
0.0
 30
0.0
 11
0.0
 21
27.5
 31
0.0
210
0.0
220
0.0
230
1.0
 40
0.2679491924
 41
2.819229550890117
 42
2.921895659608308
  0
LINE
  5
507
330
498
100
AcDbEntity
  8
0
  6
SLD-Durchgehend
 62
     7
370
    15
100
AcDbLine
 10
61.99530892549997
 20
-9.692723112100011
 30
0.0
 11
61.99530892549997
 21
-24.46197147130002
 31
0.0
  0
ARC
  5
508
330
498
100
AcDbEntity
  8
0
  6
SLD-Durchgehend
 62
     7
370
    15
100
AcDbCircle
 10
68.48988957759999
 20
-25.6977087055
 30
0.0
 40
0.7178524865907738
100
AcDbArc
 50
242.0143911885002
 51
288.8539473687998
  0
ARC
  5
509
330
498
100
AcDbEntity
  8
0
  6
SLD-Durchgehend
 62
     7
370
    15
100
AcDbCircle
 10
55.18729719620001
 20
0.0
 30
0.0
 40
27.50000000000016
100
AcDbArc
 50
289.0916829028997
 51
294.3713855335999
  0
ARC
  5
50A
330
498
100
AcDbEntity
  8
0
  6
SLD-Durchgehend
 62
     7
370
    15
100
AcDbCircle
 10
63.95005795970002
 20
-25.400484864
 30
0.0
 40
0.6310908551548829
100
AcDbArc
 50
237.7379071105001
 51
291.5647703206999
  0
ELLIPSE
  5
50B
330
498
100
AcDbEntity
  8
0
  6
SLD-Durchgehend
 62
     7
370
    15
100
AcDbEllipse
 10
66.064154262
 20
0.0
 30
0.0
 11
0.0
 21
27.5
 31
0.0
210
0.0
220
0.0
230
1.0
 40
0.2679491924
 41
2.675373242038153
 42
2.80250886191846
  0
ELLIPSE
  5
50C
330
498
100
AcDbEntity
  8
0
  6
SLD-Durchgehend
 62
     7
370
    15
100
AcDbEllipse
 10
108.8859620036
 20
0.0
 30
0.0
 11
102.6313972081432
 21
0.0
 31
0.0
210
0.0
220
0.0
230
1.0
 40
0.2679491924
 41
4.23789982688593
 42
4.24616956883306
  0
ELLIPSE
  5
50D
330
498
100
AcDbEntity
  8
0
  6
SLD-Durchgehend
 62
     7
370
    15
100
AcDbEllipse
 10
70.27805898119999
 20
0.0
 30
0.0
 11
0.0
 21
27.5
 31
0.0
210
0.0
220
0.0
230
1.0
 40
0.2679491924
 41
2.724309885471869
 42
2.849049076202071
  0
ELLIPSE
  5
50E
330
498
100
AcDbEntity
  8
0
  6
SLD-Durchgehend
 62
     7
370
    15
100
AcDbEllipse
 10
108.8859620036
 20
0.0
 30
0.0
 11
102.6313972081432
 21
0.0
 31
0.0
210
0.0
220
0.0
230
1.0
 40
0.2679491924
 41
4.287028059550633
 42
4.295106212266769
  0
ARC
  5
50F
330
498
100
AcDbEntity
  8
0
  6
SLD-Durchgehend
 62
     7
370
    15
100
AcDbCircle
 10
66.69989898729999
 20
0.0
 30
0.0
 40
27.5000000000001
100
AcDbArc
 50
283.8046145243998
 51
288.9159339754
  0
ELLIPSE
  5
510
330
498
100
AcDbEntity
  8
0
  6
SLD-Durchgehend
 62
     7
370
    15
100
AcDbEllipse
 10
74.49196370040002
 20
0.0
 30
0.0
 11
0.0
 21
27.5
 31
0.0
210
0.0
220
0.0
230
1.0
 40
0.2679491924
 41
2.772206188349358
 42
2.894945317480673
  0
ARC
  5
511
330
498
100
AcDbEntity
  8
0
  6
SLD-Durchgehend
 62
     7
370
    15
100
AcDbCircle
 10
73.0296998119
 20
-25.90057390480001
 30
0.0
 40
0.8378567216336474
100
AcDbArc
 50
246.2972873601996
 51
286.0765257671001
  0
ELLIPSE
  5
512
330
498
100
AcDbEntity
  8
0
  6
SLD-Durchgehend
 62
     7
370
    15
100
AcDbEllipse
 10
108.8859620036
 20
0.0
 30
0.0
 11
102.6313972081432
 21
0.0
 31
0.0
210
0.0
220
0.0
230
1.0
 40
0.2679491924
 41
4.335085415548687
 42
4.343002515144262
  0
ARC
  5
513
330
498
100
AcDbEntity
  8
0
  6
SLD-Durchgehend
 62
     7
370
    15
100
AcDbCircle
 10
60.94359809180001
 20
0.0
 30
0.0
 40
27.50000000000012
100
AcDbArc
 50
286.4301484182996
 51
291.6179018602995
  0
ELLIPSE
  5
514
330
498
100
AcDbEntity
  8
0
  6
SLD-Durchgehend
 62
     7
370
    15
100
AcDbEllipse
 10
108.8859620036
 20
0.0
 30
0.0
 11
102.6313972081412
 21
0.0
 31
0.0
210
0.0
220
0.0
230
1.0
 40
0.2679491924
 41
4.382243651423392
 42
4.39002587768502
  0
LINE
  5
515
330
498
100
AcDbEntity
  8
0
  6
SLD-Durchgehend
 62
     7
370
    15
100
AcDbLine
 10
78.0
 20
-26.67152039159998
 30
0.0
 11
78.0
 21
-27.1
 31
0.0
  0
LINE
  5
516
330
498
100
AcDbEntity
  8
0
  6
SLD-Durchgehend
 62
     7
370
    15
100
AcDbLine
 10
77.59999999999998
 20
-27.00388860890001
 30
0.0
 11
78.0
 21
-26.67152039159998
 31
0.0
  0
LINE
  5
517
330
498
100
AcDbEntity
  8
0
  6
SLD-Durchgehend
 62
     7
370
    15
100
AcDbLine
 10
77.59999999999998
 20
-27.00388860890001
 30
0.0
 11
77.59999999999998
 21
-27.5
 31
0.0
  0
ARC
  5
518
330
498
100
AcDbEntity
  8
0
  6
SLD-Durchgehend
 62
     7
370
    15
100
AcDbCircle
 10
82.80000000000002
 20
0.0
 30
0.0
 40
27.50000000000003
100
AcDbArc
 50
259.0324772103999
 51
259.1002645458996
  0
ELLIPSE
  5
519
330
498
100
AcDbEntity
  8
0
  6
SLD-Durchgehend
 62
     7
370
    15
100
AcDbEllipse
 10
97.09393951630005
 20
0.0
 30
0.0
 11
102.6313972081419
 21
0.0
 31
0.0
210
0.0
220
0.0
230
1.0
 40
0.2679491924
 41
4.520027654438329
 42
4.520969596918976
  0
ARC
  5
51A
330
498
100
AcDbEntity
  8
0
  6
SLD-Durchgehend
 62
     7
370
    15
100
AcDbCircle
 10
77.4425668884
 20
-26.5193670536
 30
0.0
 40
0.4743975595898079
100
AcDbArc
 50
243.7491938788997
 51
273.6970559474996
  0
ELLIPSE
  5
51B
330
498
100
AcDbEntity
  8
0
  6
SLD-Durchgehend
 62
     7
370
    15
100
AcDbEllipse
 10
78.70586841959998
 20
0.0
 30
0.0
 11
0.0
 21
27.5
 31
0.0
210
0.0
220
0.0
230
1.0
 40
0.2679491924
 41
2.936793552551801
 42
2.940316780334101
  0
ARC
  5
51C
330
498
100
AcDbEntity
  8
0
  6
SLD-Durchgehend
 62
     7
370
    15
100
AcDbCircle
 10
82.80000000000002
 20
0.0
 30
0.0
 40
27.50000000000005
100
AcDbArc
 50
258.0374252062999
 51
258.2658758624003
  0
LINE
  5
51D
330
498
100
AcDbEntity
  8
0
  6
SLD-Durchgehend
 62
     7
370
    15
100
AcDbLine
 10
77.09999999999998
 20
-26.9027879596
 30
0.0
 11
77.09999999999998
 21
-26.838997059
 31
0.0
  0
LINE
  5
51E
330
498
100
AcDbEntity
  8
0
  6
SLD-Durchgehend
 62
     7
370
    15
100
AcDbLine
 10
77.59999999999998
 20
-27.5
 30
0.0
 11
78.0
 21
-27.1
 31
0.0
  0
ELLIPSE
  5
51F
330
498
100
AcDbEntity
  8
0
  6
SLD-Durchgehend
 62
     7
370
    15
100
AcDbEllipse
 10
59.02271574180001
 20
-7.5
 30
0.0
 11
0.0
 21
4.250000000000013
 31
0.0
210
0.0
220
0.0
230
1.0
 40
0.8164965808999998
 41
5.254487585403111
 42
6.10371320659937
  0
ARC
  5
520
330
498
100
AcDbEntity
  8
0
  6
SLD-Durchgehend
 62
     7
370
    15
100
AcDbCircle
 10
49.43099630069999
 20
0.0
 30
0.0
 40
27.50000000000019
100
AcDbArc
 50
62.81377407979958
 51
68.20324472379964
  0
ARC
  5
521
330
498
100
AcDbEntity
  8
0
  6
SLD-Durchgehend
 62
     7
370
    15
100
AcDbCircle
 10
66.7435435461
 20
7.493713559500007
 30
0.0
 40
8.760616043469244
100
AcDbArc
 50
91.80140859369991
 51
209.3463129404002
  0
ARC
  5
522
330
498
100
AcDbEntity
  8
0
  6
SLD-Durchgehend
 62
     7
370
    15
100
AcDbCircle
 10
66.52113163230001
 20
7.150550173199987
 30
0.0
 40
8.400717242801134
100
AcDbArc
 50
208.0494832056996
 51
269.6386492716998
  0
LWPOLYLINE
  5
523
330
498
100
AcDbEntity
  8
0
  6
SLD-Durchgehend
 62
     7
370
    15
100
AcDbPolyline
 90
       46
 70
   128
 43
0.0
 10
59.20549869459998
 20
3.200247798899993
 10
59.85515499799999
 20
2.181500236000005
 10
60.63544003509996
 20
1.266271221299986
 10
61.5311664452
 20
0.4723746465999882
 10
62.52489993250001
 20
-0.1847371945000162
 10
63.59729860519999
 20
-0.6922743673000014
 10
64.72748944279999
 20
-1.040358238199998
 10
65.89347456630003
 20
-1.222213750400015
 10
67.07255940159999
 20
-1.234301293400008
 10
68.2417944035
 20
-1.076385596800008
 10
69.37842174279999
 20
-0.7515403101000118
 10
70.460318261
 20
-0.2660881772000039
 10
71.46642607320001
 20
0.3705220282999875
 10
72.37716243520002
 20
1.145899412800004
 10
73.17480089970001
 20
2.044952137599991
 10
73.84381634119998
 20
3.050181163899991
 10
74.37118713520002
 20
4.142020852399993
 10
74.74664860909999
 20
5.299219785299996
 10
74.96289283240002
 20
6.499254401699999
 10
75.01571085710001
 20
7.718767392800002
 10
74.90407464060002
 20
8.934022325599983
 10
74.63015705480001
 20
10.12136564489999
 10
74.19928959400002
 20
11.25768706369999
 10
73.61985860310003
 20
12.32086937809998
 10
72.90314204730001
 20
13.29021895369997
 10
72.06308999920003
 20
14.14686850369997
 10
71.11605311619998
 20
14.87414431889998
 10
70.08046439410001
 20
15.45789080299998
 10
68.97648038939999
 20
15.8867459945
 10
67.82558889500001
 20
16.15236271499999
 10
66.65019070470001
 20
16.24957103719998
 10
65.4731636072
 20
16.1764789117
 10
64.31741709619998
 20
15.9345089934
 10
63.2054464629
 20
15.5283709518
 10
62.15889495080002
 20
14.96596980169999
 10
61.19813249470002
 20
14.25825204179999
 10
60.34185924279999
 20
13.41899259329998
 10
59.60674158009999
 20
12.46452668679999
 10
59.00708773569999
 20
11.41343191529998
 10
58.55456928959998
 20
10.28616664309998
 10
58.25799399849998
 20
9.104671806399991
 10
58.1231343632
 20
7.891943858299995
 10
58.15261527310003
 20
6.671587168799987
 10
58.34586291580001
 20
5.467354592700003
 10
58.69911594580003
 20
4.302685147399998
 10
59.20549869459998
 20
3.200247798899993
  0
LINE
  5
524
330
498
100
AcDbEntity
  8
0
  6
SLD-Durchgehend
 62
     7
370
     0
100
AcDbLine
 10
59.6421657793
 20
25.5339385501
 30
0.0
 11
59.6421657793
 21
12.6597603127
 31
0.0
  0
LINE
  5
525
330
498
100
AcDbEntity
  8
0
  6
SLD-Durchgehend
 62
     7
370
     0
100
AcDbLine
 10
59.0733346927
 20
25.47245685229998
 30
0.0
 11
59.0733346927
 21
11.73711128299999
 31
0.0
  0
LINE
  5
526
330
498
100
AcDbEntity
  8
0
  6
SLD-Durchgehend
 62
     7
370
     0
100
AcDbLine
 10
55.1023143957
 20
25.01318700619998
 30
0.0
 11
55.1023143957
 21
-4.836268272100013
 31
0.0
  0
LINE
  5
527
330
498
100
AcDbEntity
  8
0
  6
SLD-Durchgehend
 62
     7
370
     0
100
AcDbLine
 10
54.53348330919999
 20
24.94298994159999
 30
0.0
 11
54.53348330919999
 21
-5.640569292999996
 31
0.0
  0
LINE
  5
528
330
498
100
AcDbEntity
  8
0
  6
SLD-Durchgehend
 62
     7
370
    15
100
AcDbLine
 10
58.2120245225
 20
23.91415507129996
 30
0.0
 11
58.2120245225
 21
9.372152042399987
 31
0.0
  0
LINE
  5
529
330
498
100
AcDbEntity
  8
0
  6
SLD-Durchgehend
 62
     7
370
    15
100
AcDbLine
 10
57.45545754200001
 20
23.79791156649996
 30
0.0
 11
57.45545754200001
 21
-3.271773433600016
 31
0.0
  0
LINE
  5
52A
330
498
100
AcDbEntity
  8
0
  6
SLD-Durchgehend
 62
     7
370
    15
100
AcDbLine
 10
53.67217313890001
 20
23.1813084526
 30
0.0
 11
53.67217313890001
 21
-5.640569292999996
 31
0.0
  0
LINE
  5
52B
330
498
100
AcDbEntity
  8
0
  6
SLD-Durchgehend
 62
     7
370
     0
100
AcDbLine
 10
59.0733346927
 20
3.262888716999995
 30
0.0
 11
59.0733346927
 21
-3.257281048899996
 31
0.0
  0
LINE
  5
52C
330
498
100
AcDbEntity
  8
0
  6
SLD-Durchgehend
 62
     7
370
    15
100
AcDbLine
 10
58.2120245225
 20
5.627847957599996
 30
0.0
 11
58.2120245225
 21
-3.257281048899996
 31
0.0
  0
LWPOLYLINE
  5
52D
330
498
100
AcDbEntity
  8
0
  6
SLD-Durchgehend
 62
     7
370
    15
100
AcDbPolyline
 90
       23
 70
   128
 43
0.0
 10
46.66128947689999
 20
0.0
 10
46.68330585559999
 20
-0.5916383694000161
 10
46.74757135589999
 20
-1.1353457167
 10
46.8488795689
 20
-1.587074106100003
 10
46.97902310590001
 20
-1.910227190200004
 10
47.1274585115
 20
-2.078625027900016
 10
47.28216043169999
 20
-2.078625027900016
 10
47.4305958373
 20
-1.910227190200004
 10
47.5607393743
 20
-1.587074106100003
 10
47.66204758729999
 20
-1.1353457167
 10
47.72631308750002
 20
-0.5916383694000161
 10
47.74832946630001
 20
0.0
 10
47.72631308750002
 20
0.5916383694000018
 10
47.66204758729999
 20
1.1353457167
 10
47.5607393743
 20
1.587074106100003
 10
47.4305958373
 20
1.910227190200004
 10
47.28216043169999
 20
2.07862502799999
 10
47.1274585115
 20
2.07862502799999
 10
46.97902310590001
 20
1.910227190200004
 10
46.8488795689
 20
1.587074106100003
 10
46.74757135589999
 20
1.1353457167
 10
46.68330585559999
 20
0.5916383694000018
 10
46.66128947689999
 20
0.0
  0
ELLIPSE
  5
52E
330
498
100
AcDbEntity
  8
0
  6
SLD-Durchgehend
 62
     7
370
    15
100
AcDbEllipse
 10
57.80626622990002
 20
-7.5
 30
0.0
 11
0.0
 21
4.250000000000013
 31
0.0
210
0.0
220
0.0
230
1.0
 40
0.8164965808999998
 41
0.1012673816947972
 42
0.8934076271696802
  0
ARC
  5
52F
330
498
100
AcDbEntity
  8
0
  6
SLD-Durchgehend
 62
     7
370
    15
100
AcDbCircle
 10
53.04288976410001
 20
-3.983067462500001
 30
0.0
 40
2.229166085039858
100
AcDbArc
 50
311.9650872609001
 51
337.4962196758995
  0
LINE
  5
530
330
498
100
AcDbEntity
  8
0
  6
SLD-Durchgehend
 62
     7
370
    15
100
AcDbLine
 10
54.53348330919999
 20
-5.640569292999996
 30
0.0
 11
53.67217313890001
 21
-5.640569292999996
 31
0.0
  0
LINE
  5
531
330
498
100
AcDbEntity
  8
0
  6
SLD-Durchgehend
 62
     7
370
     0
100
AcDbLine
 10
59.6421657793
 20
2.340239687299983
 30
0.0
 11
59.6421657793
 21
-3.318263222500006
 31
0.0
  0
ARC
  5
532
330
498
100
AcDbEntity
  8
0
  6
SLD-Durchgehend
 62
     7
370
    15
100
AcDbCircle
 10
59.00577395869999
 20
-6.570945504300012
 30
0.0
 40
3.314353115779055
100
AcDbArc
 50
78.92984049569967
 51
88.8319853339002
  0
LINE
  5
533
330
498
100
AcDbEntity
  8
0
  6
SLD-Durchgehend
 62
     7
370
    15
100
AcDbLine
 10
59.0733346927
 20
-3.257281048899996
 30
0.0
 11
58.2120245225
 21
-3.257281048899996
 31
0.0
  0
ELLIPSE
  5
534
330
498
100
AcDbEntity
  8
0
  6
SLD-Durchgehend
 62
     7
370
    15
100
AcDbEllipse
 10
57.93467112150003
 20
-7.5
 30
0.0
 11
4.74025905451424
 21
0.0
 31
0.0
210
0.0
220
0.0
230
1.0
 40
0.8965754722000001
 41
1.512252712913688
 42
1.672063708489698
  0
ARC
  5
535
330
498
100
AcDbEntity
  8
0
  6
SLD-Durchgehend
 62
     7
370
    15
100
AcDbCircle
 10
37.91839450959999
 20
0.0
 30
0.0
 40
27.50000000000026
100
AcDbArc
 50
56.95119997109976
 51
62.62680975470013
  0
LINE
  5
536
330
498
100
AcDbEntity
  8
0
  6
SLD-Durchgehend
 62
     7
370
    15
100
AcDbLine
 10
48.0
 20
18.00959887069998
 30
0.0
 11
48.0
 21
22.13802539639999
 31
0.0
  0
ELLIPSE
  5
537
330
498
100
AcDbEntity
  8
0
  6
SLD-Durchgehend
 62
     7
370
    15
100
AcDbEllipse
 10
108.8859620036
 20
0.0
 30
0.0
 11
102.6313972081432
 21
0.0
 31
0.0
210
0.0
220
0.0
230
1.0
 40
0.2679491924
 41
2.19224794317849
 42
2.205884981511688
  0
ELLIPSE
  5
538
330
498
100
AcDbEntity
  8
0
  6
SLD-Durchgehend
 62
     7
370
    15
100
AcDbEllipse
 10
53.42244010449999
 20
0.0
 30
0.0
 11
0.0
 21
27.5
 31
0.0
210
0.0
220
0.0
230
1.0
 40
0.2679491924
 41
0.4840037555612029
 42
0.6214516163835922
  0
ARC
  5
539
330
498
100
AcDbEntity
  8
0
  6
SLD-Durchgehend
 62
     7
370
    15
100
AcDbCircle
 10
50.33819461870002
 20
23.9508337538
 30
0.0
 40
0.5207727069075096
100
AcDbArc
 50
64.49147139919985
 51
131.4248691056997
  0
ARC
  5
53A
330
498
100
AcDbEntity
  8
0
  6
SLD-Durchgehend
 62
     7
370
    15
100
AcDbCircle
 10
43.67469540510001
 20
0.0
 30
0.0
 40
27.50000000000019
100
AcDbArc
 50
59.92596485090039
 51
65.44605638849971
  0
ELLIPSE
  5
53B
330
498
100
AcDbEntity
  8
0
  6
SLD-Durchgehend
 62
     7
370
    15
100
AcDbEllipse
 10
108.8859620036
 20
0.0
 30
0.0
 11
102.6313972081432
 21
0.0
 31
0.0
210
0.0
220
0.0
230
1.0
 40
0.2679491924
 41
2.138837005579301
 42
2.147606701132706
  0
ELLIPSE
  5
53C
330
498
100
AcDbEntity
  8
0
  6
SLD-Durchgehend
 62
     7
370
    15
100
AcDbEllipse
 10
57.6363448237
 20
0.0
 30
0.0
 11
0.0
 21
27.5
 31
0.0
210
0.0
220
0.0
230
1.0
 40
0.2679491924
 41
0.4346492028648224
 42
0.5680406787844001
  0
ARC
  5
53D
330
498
100
AcDbEntity
  8
0
  6
SLD-Durchgehend
 62
     7
370
    15
100
AcDbCircle
 10
54.87927027880002
 20
24.48077458590001
 30
0.0
 40
0.5772448903366172
100
AcDbArc
 50
67.26967455270008
 51
126.8004534577999
  0
ELLIPSE
  5
53E
330
498
100
AcDbEntity
  8
0
  6
SLD-Durchgehend
 62
     7
370
    15
100
AcDbEllipse
 10
108.8859620036
 20
0.0
 30
0.0
 11
102.6313972081432
 21
0.0
 31
0.0
210
0.0
220
0.0
230
1.0
 40
0.2679491924
 41
2.087189606571005
 42
2.095687259506866
  0
ELLIPSE
  5
53F
330
498
100
AcDbEntity
  8
0
  6
SLD-Durchgehend
 62
     7
370
    15
100
AcDbEllipse
 10
61.8502495429
 20
0.0
 30
0.0
 11
0.0
 21
27.5
 31
0.0
210
0.0
220
0.0
230
1.0
 40
0.2679491924
 41
0.386401548402836
 42
0.5163932797761098
  0
ARC
  5
540
330
498
100
AcDbEntity
  8
0
  6
SLD-Durchgehend
 62
     7
370
    15
100
AcDbCircle
 10
59.42013285450002
 20
24.92603126099998
 30
0.0
 40
0.6471861337961129
100
AcDbArc
 50
69.9357123494002
 51
122.4019387512999
  0
LINE
  5
541
330
498
100
AcDbEntity
  8
0
  6
SLD-Durchgehend
 62
     7
370
     0
100
AcDbLine
 10
77.4731565326
 20
26.99277735999999
 30
0.0
 11
77.4731565326
 21
2.562827085499989
 31
0.0
  0
LINE
  5
542
330
498
100
AcDbEntity
  8
0
  6
SLD-Durchgehend
 62
     7
370
     0
100
AcDbLine
 10
77.23274022700002
 20
26.94483834139997
 30
0.0
 11
77.23274022700002
 21
2.568705470899999
 31
0.0
  0
LINE
  5
543
330
498
100
AcDbEntity
  8
0
  6
SLD-Durchgehend
 62
     7
370
     0
100
AcDbLine
 10
73.26171992999999
 20
26.70566430399998
 30
0.0
 11
73.26171992999999
 21
12.84024322589998
 31
0.0
  0
LINE
  5
544
330
498
100
AcDbEntity
  8
0
  6
SLD-Durchgehend
 62
     7
370
     0
100
AcDbLine
 10
72.69288884339998
 20
26.6677520181
 30
0.0
 11
72.69288884339998
 21
13.52786550429999
 31
0.0
  0
LINE
  5
545
330
498
100
AcDbEntity
  8
0
  6
SLD-Durchgehend
 62
     7
370
    15
100
AcDbLine
 10
78.0
 20
26.67152039159998
 30
0.0
 11
78.0
 21
2.552369869599985
 31
0.0
  0
LINE
  5
546
330
498
100
AcDbEntity
  8
0
  6
SLD-Durchgehend
 62
     7
370
    15
100
AcDbLine
 10
77.56805501689999
 20
26.99771752749998
 30
0.0
 11
77.56805501689999
 21
2.56222072669999
 31
0.0
  0
LINE
  5
547
330
498
100
AcDbEntity
  8
0
  6
SLD-Durchgehend
 62
     7
370
    15
100
AcDbLine
 10
77.2073122548
 20
2.571098207199979
 30
0.0
 11
77.2073122548
 21
26.92530118280001
 31
0.0
  0
LINE
  5
548
330
498
100
AcDbEntity
  8
0
  6
SLD-Durchgehend
 62
     7
370
    15
100
AcDbLine
 10
77.09999999999998
 20
26.83899705899998
 30
0.0
 11
77.09999999999998
 21
2.581647507199988
 31
0.0
  0
LINE
  5
549
330
498
100
AcDbEntity
  8
0
  6
SLD-Durchgehend
 62
     7
370
    15
100
AcDbLine
 10
75.61486307619998
 20
26.01486911929999
 30
0.0
 11
75.61486307619998
 21
2.680702814099986
 31
0.0
  0
LINE
  5
54A
330
498
100
AcDbEntity
  8
0
  6
SLD-Durchgehend
 62
     7
370
    15
100
AcDbLine
 10
76.37143005670004
 20
26.08345892079998
 30
0.0
 11
76.37143005670004
 21
2.6725748928
 31
0.0
  0
ELLIPSE
  5
54B
330
498
100
AcDbEntity
  8
0
  6
SLD-Durchgehend
 62
     7
370
    15
100
AcDbEllipse
 10
78.70586841959998
 20
-222.5
 30
0.0
 11
0.0
 21
220.0
 31
0.0
210
0.0
220
0.0
230
1.0
 40
0.2679491924
 41
0.0272451093140951
 42
0.039611460656775
  0
ELLIPSE
  5
54C
330
498
100
AcDbEntity
  8
0
  6
SLD-Durchgehend
 62
     7
370
    15
100
AcDbEllipse
 10
78.70586841959998
 20
222.5
 30
0.0
 11
0.0
 21
220.0
 31
0.0
210
0.0
220
0.0
230
1.0
 40
0.2679491924
 41
3.101981192933015
 42
3.114347544275698
  0
LINE
  5
54D
330
498
100
AcDbEntity
  8
0
  6
SLD-Durchgehend
 62
     7
370
    15
100
AcDbLine
 10
78.0
 20
-2.5
 30
0.0
 11
75.0
 21
-2.5
 31
0.0
  0
LINE
  5
54E
330
498
100
AcDbEntity
  8
0
  6
SLD-Durchgehend
 62
     7
370
    15
100
AcDbLine
 10
75.0
 20
2.5
 30
0.0
 11
78.0
 21
2.5
 31
0.0
  0
LINE
  5
54F
330
498
100
AcDbEntity
  8
0
  6
SLD-Durchgehend
 62
     7
370
    15
100
AcDbLine
 10
75.0
 20
-2.656627747900017
 30
0.0
 11
75.0
 21
2.656627747899989
 31
0.0
  0
LINE
  5
550
330
498
100
AcDbEntity
  8
0
  6
SLD-Durchgehend
 62
     7
370
    15
100
AcDbLine
 10
61.99530892549997
 20
0.0757291265999953
 30
0.0
 11
61.99530892549997
 21
-5.307276887900016
 31
0.0
  0
LINE
  5
551
330
498
100
AcDbEntity
  8
0
  6
SLD-Durchgehend
 62
     7
370
    15
100
AcDbLine
 10
66.46815067630001
 20
-1.25
 30
0.0
 11
66.56650191349999
 21
-1.25
 31
0.0
  0
ARC
  5
552
330
498
100
AcDbEntity
  8
0
  6
SLD-Durchgehend
 62
     7
370
    15
100
AcDbCircle
 10
66.69989898729999
 20
-222.5
 30
0.0
 40
220.0
100
AcDbArc
 50
87.67759221359991
 51
87.83784705769999
  0
ELLIPSE
  5
553
330
498
100
AcDbEntity
  8
0
  6
SLD-Durchgehend
 62
     7
370
    15
100
AcDbEllipse
 10
108.8859620036
 20
-222.5
 30
0.0
 11
821.0511776651305
 21
0.0
 31
0.0
210
0.0
220
0.0
230
1.0
 40
0.2679491924
 41
1.610407787451672
 42
1.611329989241444
  0
ARC
  5
554
330
498
100
AcDbEntity
  8
0
  6
SLD-Durchgehend
 62
     7
370
    15
100
AcDbCircle
 10
67.06240986570001
 20
7.382797634400005
 30
0.0
 40
2.884104759707066
100
AcDbArc
 50
274.1402211142001
 51
330.7678732218001
  0
ARC
  5
555
330
498
100
AcDbEntity
  8
0
  6
SLD-Durchgehend
 62
     7
370
    15
100
AcDbCircle
 10
67.06386399180002
 20
7.616692626199977
 30
0.0
 40
2.883576132799283
100
AcDbArc
 50
28.08444799420048
 51
89.02694791580014
  0
LINE
  5
556
330
498
100
AcDbEntity
  8
0
  6
SLD-Durchgehend
 62
     7
370
    15
100
AcDbLine
 10
67.11283330349999
 20
10.499852927
 30
0.0
 11
68.78578389170002
 21
10.4827024545
 31
0.0
  0
LINE
  5
557
330
498
100
AcDbEntity
  8
0
  6
SLD-Durchgehend
 62
     7
370
    15
100
AcDbLine
 10
66.24739813599997
 20
10.51700339959998
 30
0.0
 11
69.59329931240003
 21
10.4827024545
 31
0.0
  0
LINE
  5
558
330
498
100
AcDbEntity
  8
0
  6
SLD-Durchgehend
 62
     7
370
    15
100
AcDbLine
 10
69.53591271279998
 20
4.482996600399985
 30
0.0
 11
66.19001153639999
 21
4.517297545499984
 31
0.0
  0
LWPOLYLINE
  5
559
330
498
100
AcDbEntity
  8
0
  6
SLD-Durchgehend
 62
     7
370
    15
100
AcDbPolyline
 90
       32
 70
   128
 43
0.0
 10
64.21115381490003
 20
5.350123899400003
 10
64.7045146028
 20
4.627117062499991
 10
65.32835731029999
 20
4.021726390499991
 10
66.0571417438
 20
3.558736648899993
 10
66.86103138290002
 20
3.2571026918
 10
67.70711489140001
 20
3.129173449099993
 10
68.560753511
 20
3.180186358999989
 10
69.38699917630001
 20
3.408052946799998
 10
70.15202529270002
 20
3.803444327800007
 10
70.8245116011
 20
4.350173132399986
 10
71.37692643310001
 20
5.025856218999989
 10
71.78665386040002
 20
5.802831042699992
 10
72.03691959420002
 20
6.649288162899977
 10
72.11747772570001
 20
7.530573525699992
 10
72.02503019580001
 20
8.410607204699985
 10
71.763361817
 20
9.253360517800004
 10
71.3431853237
 20
10.0243310453
 10
70.7817027907
 20
10.69195516319999
 10
70.10190137900004
 20
11.22890026169999
 10
69.33161223819999
 20
11.61318374529999
 10
68.5023710962
 20
11.82907300309999
 10
67.64812718290001
 20
11.86772950349999
 10
66.8038533445
 20
11.72757064489999
 10
66.00411425090001
 20
11.41433454739998
 10
65.2816513148
 20
10.9408451335
 10
64.6660422537
 20
10.32648711559998
 10
64.1824901747
 20
9.596412383099988
 10
63.85079175680002
 20
8.780510281399982
 10
63.68452677229999
 20
7.912183938199987
 10
63.6905021291
 20
7.026982736199982
 10
63.86847319540001
 20
6.161146916499987
 10
64.21115381490003
 20
5.350123899400003
  0
LINE
  5
55A
330
498
100
AcDbEntity
  8
0
  6
SLD-Durchgehend
 62
     7
370
    15
100
AcDbLine
 10
64.54575424800001
 20
7.5343009451
 30
0.0
 11
66.24739813599997
 21
10.51700339959998
 31
0.0
  0
ARC
  5
55B
330
498
100
AcDbEntity
  8
0
  6
SLD-Durchgehend
 62
     7
370
    15
100
AcDbCircle
 10
67.08533881550001
 20
7.310637684199988
 30
0.0
 40
2.810699370738845
100
AcDbArc
 50
249.5397300935003
 51
265.0009446247996
  0
LINE
  5
55C
330
498
100
AcDbEntity
  8
0
  6
SLD-Durchgehend
 62
     7
370
    15
100
AcDbLine
 10
66.19001153639999
 20
4.517297545499984
 30
0.0
 11
64.54575424800001
 21
7.5343009451
 31
0.0
  0
ARC
  5
55D
330
498
100
AcDbEntity
  8
0
  6
SLD-Durchgehend
 62
     7
370
    15
100
AcDbCircle
 10
67.08528750759999
 20
7.688670129099987
 30
0.0
 40
2.811317750532227
100
AcDbArc
 50
89.43859668579969
 51
109.5313074730997
  0
LINE
  5
55E
330
498
100
AcDbEntity
  8
0
  6
SLD-Durchgehend
 62
     7
370
    15
100
AcDbLine
 10
66.24270276479997
 20
10.5087731845
 30
0.0
 11
67.11283330349999
 21
10.499852927
 31
0.0
  0
ARC
  5
55F
330
498
100
AcDbEntity
  8
0
  6
SLD-Durchgehend
 62
     7
370
    15
100
AcDbCircle
 10
66.89005563380002
 20
7.500133102299982
 30
0.0
 40
3.091863771902108
100
AcDbArc
 50
330.4301673993996
 51
28.47380896990017
  0
LINE
  5
560
330
498
100
AcDbEntity
  8
0
  6
SLD-Durchgehend
 62
     7
370
    15
100
AcDbLine
 10
69.6079125359
 20
8.974200754699991
 30
0.0
 11
70.43004118009998
 21
7.465699054899985
 31
0.0
  0
LINE
  5
561
330
498
100
AcDbEntity
  8
0
  6
SLD-Durchgehend
 62
     7
370
    15
100
AcDbLine
 10
69.59329931240003
 20
10.4827024545
 30
0.0
 11
71.23755660080002
 21
7.465699054899985
 31
0.0
  0
LINE
  5
562
330
498
100
AcDbEntity
  8
0
  6
SLD-Durchgehend
 62
     7
370
    15
100
AcDbLine
 10
70.43004118009998
 20
7.465699054899985
 30
0.0
 11
69.5792192361
 21
5.974347827599999
 31
0.0
  0
LINE
  5
563
330
498
100
AcDbEntity
  8
0
  6
SLD-Durchgehend
 62
     7
370
    15
100
AcDbLine
 10
69.5792192361
 20
5.974347827599999
 30
0.0
 11
68.73309266330003
 21
4.491226815499985
 31
0.0
  0
LINE
  5
564
330
498
100
AcDbEntity
  8
0
  6
SLD-Durchgehend
 62
     7
370
    15
100
AcDbLine
 10
70.43004118009998
 20
7.465699054899985
 30
0.0
 11
71.23755660080002
 21
7.465699054899985
 31
0.0
  0
LINE
  5
565
330
498
100
AcDbEntity
  8
0
  6
SLD-Durchgehend
 62
     7
370
    15
100
AcDbLine
 10
71.23755660080002
 20
7.465699054899985
 30
0.0
 11
69.53591271279998
 21
4.482996600399985
 31
0.0
  0
ARC
  5
566
330
498
100
AcDbEntity
  8
0
  6
SLD-Durchgehend
 62
     7
370
    15
100
AcDbCircle
 10
66.69989898729999
 20
222.5
 30
0.0
 40
220.0000000000001
100
AcDbArc
 50
272.1621529422999
 51
272.3224077863999
  0
ELLIPSE
  5
567
330
498
100
AcDbEntity
  8
0
  6
SLD-Durchgehend
 62
     7
370
    15
100
AcDbEllipse
 10
108.8859620036
 20
222.5
 30
0.0
 11
821.0511776651308
 21
0.0
 31
0.0
210
0.0
220
0.0
230
1.0
 40
0.2679491924
 41
4.671855317938143
 42
4.672777519727916
  0
LINE
  5
568
330
498
100
AcDbEntity
  8
0
  6
SLD-Durchgehend
 62
     7
370
    15
100
AcDbLine
 10
68.78578389170002
 20
10.4827024545
 30
0.0
 11
69.6079125359
 21
8.974200754699991
 31
0.0
  0
LINE
  5
569
330
498
100
AcDbEntity
  8
0
  6
SLD-Durchgehend
 62
     7
370
    15
100
AcDbLine
 10
68.78578389170002
 20
10.4827024545
 30
0.0
 11
69.59329931240003
 21
10.4827024545
 31
0.0
  0
LINE
  5
56A
330
498
100
AcDbEntity
  8
0
  6
SLD-Durchgehend
 62
     7
370
    15
100
AcDbLine
 10
77.09999999999998
 20
-2.573853305200002
 30
0.0
 11
77.09999999999998
 21
-2.581647507200003
 31
0.0
  0
ARC
  5
56B
330
498
100
AcDbEntity
  8
0
  6
SLD-Durchgehend
 62
     7
370
    15
100
AcDbCircle
 10
82.80000000000002
 20
-222.5
 30
0.0
 40
220.0000000000001
100
AcDbArc
 50
91.4566905789999
 51
91.48464769429962
  0
ELLIPSE
  5
56C
330
498
100
AcDbEntity
  8
0
  6
SLD-Durchgehend
 62
     7
370
    15
100
AcDbEllipse
 10
78.70586841959998
 20
-222.5
 30
0.0
 11
0.0
 21
220.0
 31
0.0
210
0.0
220
0.0
230
1.0
 40
0.2679491924
 41
0.0249925529450352
 42
0.0254240467859909
  0
ARC
  5
56D
330
498
100
AcDbEntity
  8
0
  6
SLD-Durchgehend
 62
     7
370
    15
100
AcDbCircle
 10
77.47328900920002
 20
-7.48750034290002
 30
0.0
 40
4.924673259186698
100
AcDbArc
 50
90.00154129070031
 51
92.7997626911002
  0
ELLIPSE
  5
56E
330
498
100
AcDbEntity
  8
0
  6
SLD-Durchgehend
 62
     7
370
    15
100
AcDbEllipse
 10
97.09393951630005
 20
-222.5
 30
0.0
 11
821.0511776651358
 21
0.0
 31
0.0
210
0.0
220
0.0
230
1.0
 40
0.2679491924
 41
1.594580137133136
 42
1.594695751682534
  0
ARC
  5
56F
330
498
100
AcDbEntity
  8
0
  6
SLD-Durchgehend
 62
     7
370
    15
100
AcDbCircle
 10
82.80000000000002
 20
-222.5
 30
0.0
 40
220.0
100
AcDbArc
 50
91.25018893679971
 51
91.36271195310028
  0
LINE
  5
570
330
498
100
AcDbEntity
  8
0
  6
SLD-Durchgehend
 62
     7
370
    15
100
AcDbLine
 10
78.0
 20
-2.552369869500011
 30
0.0
 11
78.0
 21
-2.5
 31
0.0
  0
LINE
  5
571
330
498
100
AcDbEntity
  8
0
  6
SLD-Durchgehend
 62
     7
370
    15
100
AcDbLine
 10
78.0
 20
2.5
 30
0.0
 11
78.0
 21
2.552369869599985
 31
0.0
  0
ARC
  5
572
330
498
100
AcDbEntity
  8
0
  6
SLD-Durchgehend
 62
     7
370
    15
100
AcDbCircle
 10
82.80000000000002
 20
222.5
 30
0.0
 40
220.0000000000001
100
AcDbArc
 50
268.6372880468997
 51
268.7498110632001
  0
ELLIPSE
  5
573
330
498
100
AcDbEntity
  8
0
  6
SLD-Durchgehend
 62
     7
370
    15
100
AcDbEllipse
 10
97.09393951630005
 20
222.5
 30
0.0
 11
821.0511776651358
 21
0.0
 31
0.0
210
0.0
220
0.0
230
1.0
 40
0.2679491924
 41
4.688489555497054
 42
4.688605170046454
  0
ARC
  5
574
330
498
100
AcDbEntity
  8
0
  6
SLD-Durchgehend
 62
     7
370
    15
100
AcDbCircle
 10
77.43712577380001
 20
6.008483418599992
 30
0.0
 40
3.445844712290633
100
AcDbArc
 50
266.5995836951997
 51
270.5991123228999
  0
ELLIPSE
  5
575
330
498
100
AcDbEntity
  8
0
  6
SLD-Durchgehend
 62
     7
370
    15
100
AcDbEllipse
 10
78.70586841959998
 20
222.5
 30
0.0
 11
0.0
 21
220.0
 31
0.0
210
0.0
220
0.0
230
1.0
 40
0.2679491924
 41
3.116168606803801
 42
3.116600100644758
  0
ARC
  5
576
330
498
100
AcDbEntity
  8
0
  6
SLD-Durchgehend
 62
     7
370
    15
100
AcDbCircle
 10
82.80000000000002
 20
222.5
 30
0.0
 40
220.0000000000001
100
AcDbArc
 50
268.5153523056996
 51
268.5433094210001
  0
LINE
  5
577
330
498
100
AcDbEntity
  8
0
  6
SLD-Durchgehend
 62
     7
370
    15
100
AcDbLine
 10
77.09999999999998
 20
2.581647507199988
 30
0.0
 11
77.09999999999998
 21
2.573853305300005
 31
0.0
  0
ELLIPSE
  5
578
330
498
100
AcDbEntity
  8
0
  6
SLD-Durchgehend
 62
     7
370
    15
100
AcDbEllipse
 10
78.70586841959998
 20
0.0
 30
0.0
 11
0.0
 21
27.5
 31
0.0
210
0.0
220
0.0
230
1.0
 40
0.2679491924
 41
0.2196969939814834
 42
0.3223631026996744
  0
LINE
  5
579
330
498
100
AcDbEntity
  8
0
  6
SLD-Durchgehend
 62
     7
370
     0
100
AcDbLine
 10
68.7218685464
 20
26.37704510999998
 30
0.0
 11
68.7218685464
 21
15.96069472459999
 31
0.0
  0
LINE
  5
57A
330
498
100
AcDbEntity
  8
0
  6
SLD-Durchgehend
 62
     7
370
     0
100
AcDbLine
 10
68.15303745990002
 20
26.33161945889998
 30
0.0
 11
68.15303745990002
 21
16.09445668249999
 31
0.0
  0
LINE
  5
57B
330
498
100
AcDbEntity
  8
0
  6
SLD-Durchgehend
 62
     7
370
     0
100
AcDbLine
 10
64.18201716279998
 20
25.9874010382
 30
0.0
 11
64.18201716279998
 21
15.92382659239999
 31
0.0
  0
LINE
  5
57C
330
498
100
AcDbEntity
  8
0
  6
SLD-Durchgehend
 62
     7
370
     0
100
AcDbLine
 10
63.61318607630003
 20
25.93414486969999
 30
0.0
 11
63.61318607630003
 21
15.73568299419999
 31
0.0
  0
ELLIPSE
  5
57D
330
498
100
AcDbEntity
  8
0
  6
SLD-Durchgehend
 62
     7
370
    15
100
AcDbEllipse
 10
66.064154262
 20
0.0
 30
0.0
 11
0.0
 21
27.5
 31
0.0
210
0.0
220
0.0
230
1.0
 40
0.2679491924
 41
0.3390837916713305
 42
0.4662194115516403
  0
ARC
  5
57E
330
498
100
AcDbEntity
  8
0
  6
SLD-Durchgehend
 62
     7
370
    15
100
AcDbCircle
 10
55.18729719620001
 20
0.0
 30
0.0
 40
27.50000000000012
100
AcDbArc
 50
65.62861446640008
 51
70.90831709710027
  0
ELLIPSE
  5
57F
330
498
100
AcDbEntity
  8
0
  6
SLD-Durchgehend
 62
     7
370
    15
100
AcDbEllipse
 10
70.27805898119999
 20
0.0
 30
0.0
 11
0.0
 21
27.5
 31
0.0
210
0.0
220
0.0
230
1.0
 40
0.2679491924
 41
0.2925435773877222
 42
0.4172827681179249
  0
ARC
  5
580
330
498
100
AcDbEntity
  8
0
  6
SLD-Durchgehend
 62
     7
370
    15
100
AcDbCircle
 10
60.94359809180001
 20
0.0
 30
0.0
 40
27.5000000000001
100
AcDbArc
 50
68.38209813970036
 51
73.56985158170037
  0
ELLIPSE
  5
581
330
498
100
AcDbEntity
  8
0
  6
SLD-Durchgehend
 62
     7
370
    15
100
AcDbEllipse
 10
74.49196370040002
 20
0.0
 30
0.0
 11
0.0
 21
27.5
 31
0.0
210
0.0
220
0.0
230
1.0
 40
0.2679491924
 41
0.2466473361091183
 42
0.3693864652404357
  0
LINE
  5
582
330
498
100
AcDbEntity
  8
0
  6
SLD-Durchgehend
 62
     7
370
    15
100
AcDbLine
 10
66.53516030910001
 20
25.04947110759998
 30
0.0
 11
66.53516030910001
 21
16.25
 31
0.0
  0
LINE
  5
583
330
498
100
AcDbEntity
  8
0
  6
SLD-Durchgehend
 62
     7
370
    15
100
AcDbLine
 10
67.2917272896
 20
25.14032256519999
 30
0.0
 11
67.2917272896
 21
16.21772828839999
 31
0.0
  0
LINE
  5
584
330
498
100
AcDbEntity
  8
0
  6
SLD-Durchgehend
 62
     7
370
    15
100
AcDbLine
 10
61.99530892549997
 20
24.46197147139997
 30
0.0
 11
61.99530892549997
 21
14.92427087339999
 31
0.0
  0
LINE
  5
585
330
498
100
AcDbEntity
  8
0
  6
SLD-Durchgehend
 62
     7
370
    15
100
AcDbLine
 10
62.75187590599998
 20
24.56503745459996
 30
0.0
 11
62.75187590599998
 21
15.35876824419999
 31
0.0
  0
LINE
  5
586
330
498
100
AcDbEntity
  8
0
  6
SLD-Durchgehend
 62
     7
370
    15
100
AcDbLine
 10
66.56650191349999
 20
16.25
 30
0.0
 11
66.46815067630001
 21
16.25
 31
0.0
  0
ELLIPSE
  5
587
330
498
100
AcDbEntity
  8
0
  6
SLD-Durchgehend
 62
     7
370
    15
100
AcDbEllipse
 10
108.8859620036
 20
0.0
 30
0.0
 11
102.6313972081432
 21
0.0
 31
0.0
210
0.0
220
0.0
230
1.0
 40
0.2679491924
 41
2.037015738346536
 42
2.045285480293668
  0
ELLIPSE
  5
588
330
498
100
AcDbEntity
  8
0
  6
SLD-Durchgehend
 62
     7
370
    15
100
AcDbEllipse
 10
108.8859620036
 20
0.0
 30
0.0
 11
102.6313972081432
 21
0.0
 31
0.0
210
0.0
220
0.0
230
1.0
 40
0.2679491924
 41
1.988079094912828
 42
1.996157247628964
  0
LINE
  5
589
330
498
100
AcDbEntity
  8
0
  6
SLD-Durchgehend
 62
     7
370
    15
100
AcDbLine
 10
71.07501169259998
 20
25.5656890861
 30
0.0
 11
71.07501169259998
 21
14.90111147149997
 31
0.0
  0
LINE
  5
58A
330
498
100
AcDbEntity
  8
0
  6
SLD-Durchgehend
 62
     7
370
    15
100
AcDbLine
 10
71.8315786732
 20
25.64509842819998
 30
0.0
 11
71.8315786732
 21
14.3447926244
 31
0.0
  0
ELLIPSE
  5
58B
330
498
100
AcDbEntity
  8
0
  6
SLD-Durchgehend
 62
     7
370
    15
100
AcDbEllipse
 10
108.8859620036
 20
0.0
 30
0.0
 11
102.6313972081432
 21
0.0
 31
0.0
210
0.0
220
0.0
230
1.0
 40
0.2679491924
 41
1.940182792035331
 42
1.94809989163091
  0
ARC
  5
58C
330
498
100
AcDbEntity
  8
0
  6
SLD-Durchgehend
 62
     7
370
    15
100
AcDbCircle
 10
68.50140096540002
 20
25.55356029799998
 30
0.0
 40
0.8524864749176501
100
AcDbArc
 50
75.0119783604001
 51
114.1196830824003
  0
ARC
  5
58D
330
498
100
AcDbEntity
  8
0
  6
SLD-Durchgehend
 62
     7
370
    15
100
AcDbCircle
 10
63.96083026099997
 20
25.285425519
 30
0.0
 40
0.7359981489170231
100
AcDbArc
 50
72.51077507170015
 51
118.1865474971998
  0
ARC
  5
58E
330
498
100
AcDbEntity
  8
0
  6
SLD-Durchgehend
 62
     7
370
    15
100
AcDbCircle
 10
73.0418798734
 20
25.71782581989998
 30
0.0
 40
1.012005198183004
100
AcDbArc
 50
77.45348482029989
 51
110.1727020525
  0
ARC
  5
58F
330
498
100
AcDbEntity
  8
0
  6
SLD-Durchgehend
 62
     7
370
    15
100
AcDbCircle
 10
66.69989898729999
 20
0.0
 30
0.0
 40
27.50000000000005
100
AcDbArc
 50
71.08406602459997
 51
76.19538547559996
  0
ELLIPSE
  5
590
330
498
100
AcDbEntity
  8
0
  6
SLD-Durchgehend
 62
     7
370
    15
100
AcDbEllipse
 10
108.8859620036
 20
0.0
 30
0.0
 11
102.6313972081412
 21
0.0
 31
0.0
210
0.0
220
0.0
230
1.0
 40
0.2679491924
 41
1.893159429494575
 42
1.9009416557562
  0
LINE
  5
591
330
498
100
AcDbEntity
  8
0
  6
SLD-Durchgehend
 62
     7
370
    15
100
AcDbLine
 10
78.0
 20
27.09999999999999
 30
0.0
 11
78.0
 21
26.67152039159998
 31
0.0
  0
LINE
  5
592
330
498
100
AcDbEntity
  8
0
  6
SLD-Durchgehend
 62
     7
370
    15
100
AcDbLine
 10
78.0
 20
26.67152039159998
 30
0.0
 11
77.59999999999998
 21
27.00388860889998
 31
0.0
  0
LINE
  5
593
330
498
100
AcDbEntity
  8
0
  6
SLD-Durchgehend
 62
     7
370
    15
100
AcDbLine
 10
77.09999999999998
 20
26.83899705899998
 30
0.0
 11
77.09999999999998
 21
26.90278795959996
 31
0.0
  0
ARC
  5
594
330
498
100
AcDbEntity
  8
0
  6
SLD-Durchgehend
 62
     7
370
    15
100
AcDbCircle
 10
82.80000000000002
 20
0.0
 30
0.0
 40
27.50000000000005
100
AcDbArc
 50
101.7341241375996
 51
101.9625747936999
  0
ELLIPSE
  5
595
330
498
100
AcDbEntity
  8
0
  6
SLD-Durchgehend
 62
     7
370
    15
100
AcDbEllipse
 10
78.70586841959998
 20
0.0
 30
0.0
 11
0.0
 21
27.5
 31
0.0
210
0.0
220
0.0
230
1.0
 40
0.2679491924
 41
0.2012758732556922
 42
0.2047991010379932
  0
ARC
  5
596
330
498
100
AcDbEntity
  8
0
  6
SLD-Durchgehend
 62
     7
370
    15
100
AcDbCircle
 10
77.47732509599998
 20
26.34505310049998
 30
0.0
 40
0.6477376732413341
100
AcDbArc
 50
90.36873374700016
 51
112.1850164266995
  0
ELLIPSE
  5
597
330
498
100
AcDbEntity
  8
0
  6
SLD-Durchgehend
 62
     7
370
    15
100
AcDbEllipse
 10
97.09393951630005
 20
0.0
 30
0.0
 11
102.6313972081419
 21
0.0
 31
0.0
210
0.0
220
0.0
230
1.0
 40
0.2679491924
 41
1.762215710260615
 42
1.763157652741263
  0
ARC
  5
598
330
498
100
AcDbEntity
  8
0
  6
SLD-Durchgehend
 62
     7
370
    15
100
AcDbCircle
 10
82.80000000000002
 20
0.0
 30
0.0
 40
27.50000000000003
100
AcDbArc
 50
100.8997354541002
 51
100.9675227896
  0
LINE
  5
599
330
498
100
AcDbEntity
  8
0
  6
SLD-Durchgehend
 62
     7
370
    15
100
AcDbLine
 10
77.59999999999998
 20
27.5
 30
0.0
 11
77.59999999999998
 21
27.00388860889998
 31
0.0
  0
LINE
  5
59A
330
498
100
AcDbEntity
  8
0
  6
SLD-Durchgehend
 62
     7
370
    15
100
AcDbLine
 10
78.0
 20
27.09999999999999
 30
0.0
 11
77.59999999999998
 21
27.5
 31
0.0
  0
ENDBLK
  5
59C
330
498
100
AcDbEntity
  8
0
 62
     0
100
AcDbBlockEnd
  0
BLOCK
  5
BE7
330
BDE
100
AcDbEntity
  8
0
100
AcDbBlockBegin
  2
*D9
 70
     1
 10
0.0
 20
0.0
 30
0.0
  3
*D9
  1

  0
SOLID
  5
BDF
330
BDE
100
AcDbEntity
  8
VERMASSUNG
100
AcDbTrace
 10
105.9531674968
 20
123.7115945607
 30
0.0
 11
105.5031674967999
 21
120.7115945606999
 31
0.0
 12
106.4031674968
 22
120.7115945606999
 32
0.0
 13
106.4031674968
 23
120.7115945606999
 33
0.0
  0
SOLID
  5
BE0
330
BDE
100
AcDbEntity
  8
VERMASSUNG
100
AcDbTrace
 10
105.9531674968
 20
98.7115945607
 30
0.0
 11
106.4031674968
 21
101.7115945607
 31
0.0
 12
105.5031674967999
 22
101.7115945607
 32
0.0
 13
105.5031674967999
 23
101.7115945607
 33
0.0
  0
LINE
  5
BE1
330
BDE
100
AcDbEntity
  8
VERMASSUNG
100
AcDbLine
 10
127.1576804564999
 20
123.7115945607
 30
0.0
 11
104.9531674968
 21
123.7115945607
 31
0.0
  0
LINE
  5
BE2
330
BDE
100
AcDbEntity
  8
VERMASSUNG
100
AcDbLine
 10
127.1576804564999
 20
98.7115945607
 30
0.0
 11
104.9531674968
 21
98.7115945607
 31
0.0
  0
LINE
  5
BE3
330
BDE
100
AcDbEntity
  8
VERMASSUNG
100
AcDbLine
 10
105.9531674968
 20
123.7115945607
 30
0.0
 11
105.9531674968
 21
98.7115945607
 31
0.0
  0
MTEXT
  5
BE4
330
BDE
100
AcDbEntity
  8
VERMASSUNG
100
AcDbMText
 10
103.1531677202
 20
105.0544898519
 30
0.0
 40
2.0
 41
0.0
 71
     1
 72
     1
  1
{MBM}
  7
SLDTEXTSTYLE0
 11
-0.000000000000007
 21
1.0
 31
0.0
 73
     1
 44
1.0
  0
MTEXT
  5
BE5
330
BDE
100
AcDbEntity
  8
VERMASSUNG
100
AcDbMText
 10
103.3531676715
 20
110.2544898661
 30
0.0
 40
2.0
 41
0.0
 71
     1
 72
     1
  1
{%%c}
  7
SLDTEXTSTYLE0
 11
-0.000000000000007
 21
1.0
 31
0.0
 73
     1
 44
1.0
  0
MTEXT
  5
BE6
330
BDE
100
AcDbEntity
  8
VERMASSUNG
100
AcDbMText
 10
103.3531673804
 20
113.8634686428
 30
0.0
 40
2.0
 41
0.0
 71
     1
 72
     1
  1
{25}
  7
SLDTEXTSTYLE0
 11
-0.000000000000007
 21
1.0
 31
0.0
 73
     1
 44
1.0
  0
ENDBLK
  5
BE8
330
BDE
100
AcDbEntity
  8
0
100
AcDbBlockEnd
  0
BLOCK
  5
1069
330
105F
100
AcDbEntity
  8
0
 62
     0
100
AcDbBlockBegin
  2
*D10
 70
     1
 10
0.0
 20
0.0
 30
0.0
  3
*D10
  1

  0
LINE
  5
1172
330
105F
100
AcDbEntity
  8
SK2
 62
     0
370
    -2
100
AcDbLine
 10
0.1999995677999919
 20
12.5
 30
0.0
 11
-19.38169290102023
 21
12.5
 31
0.0
  0
LINE
  5
1173
330
105F
100
AcDbEntity
  8
SK2
 62
     0
370
    -2
100
AcDbLine
 10
0.1999995677999919
 20
-12.5
 30
0.0
 11
-19.38169290102023
 21
-12.49999999999999
 31
0.0
  0
LINE
  5
1174
330
105F
100
AcDbEntity
  8
SK2
 62
     0
370
    -2
100
AcDbLine
 10
-16.88169290102024
 20
7.930000000000005
 30
0.0
 11
-16.88169290102024
 21
-7.929999999999994
 31
0.0
  0
SOLID
  5
1175
330
105F
100
AcDbEntity
  8
SK2
 62
     0
100
AcDbTrace
 10
-17.64335956768691
 20
7.930000000000005
 30
0.0
 11
-16.12002623435357
 21
7.930000000000005
 31
0.0
 12
-16.88169290102024
 22
12.5
 32
0.0
 13
-16.88169290102024
 23
12.5
 33
0.0
  0
SOLID
  5
1176
330
105F
100
AcDbEntity
  8
SK2
 62
     0
100
AcDbTrace
 10
-17.64335956768691
 20
-7.929999999999994
 30
0.0
 11
-16.12002623435357
 21
-7.929999999999994
 31
0.0
 12
-16.88169290102024
 22
-12.49999999999999
 32
0.0
 13
-16.88169290102024
 23
-12.49999999999999
 33
0.0
  0
MTEXT
  5
1177
330
105F
100
AcDbEntity
  8
SK2
 62
     7
100
AcDbMText
 10
-22.95169290102023
 20
-13.2747619047619
 30
0.0
 40
4.57
 41
0.0
 71
     1
 72
     1
  1
\A1;MBM%%c25
  7
GENPRESET
 11
0.0000000000000001
 21
1.0
 31
0.0
 73
     1
 44
1.0
  0
POINT
  5
1178
330
105F
100
AcDbEntity
  8
Defpoints
 62
     0
100
AcDbPoint
 10
0.1999995677999919
 20
12.5
 30
0.0
  0
POINT
  5
1179
330
105F
100
AcDbEntity
  8
Defpoints
 62
     0
100
AcDbPoint
 10
0.1999995677999919
 20
-12.5
 30
0.0
  0
POINT
  5
117A
330
105F
100
AcDbEntity
  8
Defpoints
 62
     0
100
AcDbPoint
 10
-16.88169290102024
 20
-12.49999999999999
 30
0.0
  0
ENDBLK
  5
106A
330
105F
100
AcDbEntity
  8
0
 62
     0
100
AcDbBlockEnd
  0
BLOCK
  5
107B
330
1074
100
AcDbEntity
  8
0
100
AcDbBlockBegin
  2
*D11
 70
     1
 10
0.0
 20
0.0
 30
0.0
  3
*D11
  1

  0
SOLID
  5
1075
330
1074
100
AcDbEntity
  8
VERMASSUNG
100
AcDbTrace
 10
126.9576804564999
 20
127.1266100962999
 30
0.0
 11
129.9576804564999
 21
126.6766100963
 31
0.0
 12
129.9576804564999
 22
127.5766100962999
 32
0.0
 13
129.9576804564999
 23
127.5766100962999
 33
0.0
  0
SOLID
  5
1076
330
1074
100
AcDbEntity
  8
VERMASSUNG
100
AcDbTrace
 10
160.7576804565
 20
127.1266100962999
 30
0.0
 11
157.7576804565
 21
127.5766100962999
 31
0.0
 12
157.7576804565
 22
126.6766100963
 32
0.0
 13
157.7576804565
 23
126.6766100963
 33
0.0
  0
LINE
  5
1077
330
1074
100
AcDbEntity
  8
VERMASSUNG
100
AcDbLine
 10
126.9576804564999
 20
123.5115945606999
 30
0.0
 11
126.9576804564999
 21
128.1266100962999
 31
0.0
  0
LINE
  5
1078
330
1074
100
AcDbEntity
  8
VERMASSUNG
100
AcDbLine
 10
160.7576804565
 20
123.1915517012
 30
0.0
 11
160.7576804565
 21
128.1266100962999
 31
0.0
  0
LINE
  5
1079
330
1074
100
AcDbEntity
  8
VERMASSUNG
100
AcDbLine
 10
126.9576804564999
 20
127.1266100962999
 30
0.0
 11
160.7576804565
 21
127.1266100962999
 31
0.0
  0
MTEXT
  5
107A
330
1074
100
AcDbEntity
  8
VERMASSUNG
100
AcDbMText
 10
141.2353683079
 20
129.7266102126999
 30
0.0
 40
2.0
 41
0.0
 71
     1
 72
     1
  1
{33.8}
  7
SLDTEXTSTYLE0
 73
     1
 44
1.0
  0
ENDBLK
  5
107C
330
1074
100
AcDbEntity
  8
0
100
AcDbBlockEnd
  0
BLOCK
  5
108D
330
1083
100
AcDbEntity
  8
0
 62
     0
100
AcDbBlockBegin
  2
*D12
 70
     1
 10
0.0
 20
0.0
 30
0.0
  3
*D12
  1

  0
LINE
  5
108F
330
1083
100
AcDbEntity
  8
VERMASSUNG
 62
     0
370
    -2
100
AcDbLine
 10
126.9576804564999
 20
123.5115945606999
 30
0.0
 11
126.9576804564999
 21
128.1266100962999
 31
0.0
  0
LINE
  5
1090
330
1083
100
AcDbEntity
  8
VERMASSUNG
 62
     0
370
    -2
100
AcDbLine
 10
160.7576804565
 20
123.1915517012
 30
0.0
 11
160.7576804565
 21
128.1266100962999
 31
0.0
  0
LINE
  5
1091
330
1083
100
AcDbEntity
  8
VERMASSUNG
 62
     0
370
    -2
100
AcDbLine
 10
129.9576804564999
 20
127.1266100962999
 30
0.0
 11
157.7576804565
 21
127.1266100962999
 31
0.0
  0
SOLID
  5
1092
330
1083
100
AcDbEntity
  8
VERMASSUNG
 62
     0
100
AcDbTrace
 10
129.9576804564999
 20
127.6266100963
 30
0.0
 11
129.9576804564999
 21
126.6266100963
 31
0.0
 12
126.9576804564999
 22
127.1266100962999
 32
0.0
 13
126.9576804564999
 23
127.1266100962999
 33
0.0
  0
SOLID
  5
1093
330
1083
100
AcDbEntity
  8
VERMASSUNG
 62
     0
100
AcDbTrace
 10
157.7576804565
 20
127.6266100963
 30
0.0
 11
157.7576804565
 21
126.6266100963
 31
0.0
 12
160.7576804565
 22
127.1266100962999
 32
0.0
 13
160.7576804565
 23
127.1266100962999
 33
0.0
  0
MTEXT
  5
1094
330
1083
100
AcDbEntity
  8
VERMASSUNG
 62
     0
100
AcDbMText
 10
142.6342688033999
 20
130.6506100963
 30
0.0
 40
2.0
 41
0.0
 71
     1
 72
     1
  1
\A1;17
  7
SLDTEXTSTYLE0
 73
     1
 44
1.0
  0
POINT
  5
1095
330
1083
100
AcDbEntity
  8
Defpoints
 62
     0
100
AcDbPoint
 10
126.9576804564999
 20
123.5115945606999
 30
0.0
  0
POINT
  5
1096
330
1083
100
AcDbEntity
  8
Defpoints
 62
     0
100
AcDbPoint
 10
160.7576804565
 20
123.1915517012
 30
0.0
  0
POINT
  5
1097
330
1083
100
AcDbEntity
  8
Defpoints
 62
     0
100
AcDbPoint
 10
160.7576804565
 20
127.1266100962999
 30
0.0
  0
ENDBLK
  5
108E
330
1083
100
AcDbEntity
  8
0
 62
     0
100
AcDbBlockEnd
  0
BLOCK
  5
109F
330
1098
100
AcDbEntity
  8
0
100
AcDbBlockBegin
  2
*D13
 70
     1
 10
0.0
 20
0.0
 30
0.0
  3
*D13
  1

  0
SOLID
  5
1099
330
1098
100
AcDbEntity
  8
VERMASSUNG
100
AcDbTrace
 10
126.9576804564999
 20
127.1266100962999
 30
0.0
 11
129.9576804564999
 21
126.6766100963
 31
0.0
 12
129.9576804564999
 22
127.5766100962999
 32
0.0
 13
129.9576804564999
 23
127.5766100962999
 33
0.0
  0
SOLID
  5
109A
330
1098
100
AcDbEntity
  8
VERMASSUNG
100
AcDbTrace
 10
160.7576804565
 20
127.1266100962999
 30
0.0
 11
157.7576804565
 21
127.5766100962999
 31
0.0
 12
157.7576804565
 22
126.6766100963
 32
0.0
 13
157.7576804565
 23
126.6766100963
 33
0.0
  0
LINE
  5
109B
330
1098
100
AcDbEntity
  8
VERMASSUNG
100
AcDbLine
 10
126.9576804564999
 20
123.5115945606999
 30
0.0
 11
126.9576804564999
 21
128.1266100962999
 31
0.0
  0
LINE
  5
109C
330
1098
100
AcDbEntity
  8
VERMASSUNG
100
AcDbLine
 10
160.7576804565
 20
123.1915517012
 30
0.0
 11
160.7576804565
 21
128.1266100962999
 31
0.0
  0
LINE
  5
109D
330
1098
100
AcDbEntity
  8
VERMASSUNG
100
AcDbLine
 10
126.9576804564999
 20
127.1266100962999
 30
0.0
 11
160.7576804565
 21
127.1266100962999
 31
0.0
  0
MTEXT
  5
109E
330
1098
100
AcDbEntity
  8
VERMASSUNG
100
AcDbMText
 10
141.2353683079
 20
129.7266102126999
 30
0.0
 40
2.0
 41
0.0
 71
     1
 72
     1
  1
{33.8}
  7
SLDTEXTSTYLE0
 73
     1
 44
1.0
  0
ENDBLK
  5
10A0
330
1098
100
AcDbEntity
  8
0
100
AcDbBlockEnd
  0
BLOCK
  5
10B1
330
10A7
100
AcDbEntity
  8
0
 62
     0
100
AcDbBlockBegin
  2
*D14
 70
     1
 10
0.0
 20
0.0
 30
0.0
  3
*D14
  1

  0
LINE
  5
10B3
330
10A7
100
AcDbEntity
  8
VERMASSUNG
 62
     0
370
    -2
100
AcDbLine
 10
126.9576804564999
 20
123.5115945606999
 30
0.0
 11
126.9576804564999
 21
128.1266100962999
 31
0.0
  0
LINE
  5
10B4
330
10A7
100
AcDbEntity
  8
VERMASSUNG
 62
     0
370
    -2
100
AcDbLine
 10
160.7576804565
 20
123.1915517012
 30
0.0
 11
160.7576804565
 21
128.1266100962999
 31
0.0
  0
LINE
  5
10B5
330
10A7
100
AcDbEntity
  8
VERMASSUNG
 62
     0
370
    -2
100
AcDbLine
 10
129.9576804564999
 20
127.1266100962999
 30
0.0
 11
157.7576804565
 21
127.1266100962999
 31
0.0
  0
SOLID
  5
10B6
330
10A7
100
AcDbEntity
  8
VERMASSUNG
 62
     0
100
AcDbTrace
 10
129.9576804564999
 20
127.6266100963
 30
0.0
 11
129.9576804564999
 21
126.6266100963
 31
0.0
 12
126.9576804564999
 22
127.1266100962999
 32
0.0
 13
126.9576804564999
 23
127.1266100962999
 33
0.0
  0
SOLID
  5
10B7
330
10A7
100
AcDbEntity
  8
VERMASSUNG
 62
     0
100
AcDbTrace
 10
157.7576804565
 20
127.6266100963
 30
0.0
 11
157.7576804565
 21
126.6266100963
 31
0.0
 12
160.7576804565
 22
127.1266100962999
 32
0.0
 13
160.7576804565
 23
127.1266100962999
 33
0.0
  0
MTEXT
  5
10B8
330
10A7
100
AcDbEntity
  8
VERMASSUNG
 62
     0
100
AcDbMText
 10
142.6342688033999
 20
130.6506100963
 30
0.0
 40
2.0
 41
0.0
 71
     1
 72
     1
  1
\A1;17
  7
SLDTEXTSTYLE0
 73
     1
 44
1.0
  0
POINT
  5
10B9
330
10A7
100
AcDbEntity
  8
Defpoints
 62
     0
100
AcDbPoint
 10
126.9576804564999
 20
123.5115945606999
 30
0.0
  0
POINT
  5
10BA
330
10A7
100
AcDbEntity
  8
Defpoints
 62
     0
100
AcDbPoint
 10
160.7576804565
 20
123.1915517012
 30
0.0
  0
POINT
  5
10BB
330
10A7
100
AcDbEntity
  8
Defpoints
 62
     0
100
AcDbPoint
 10
160.7576804565
 20
127.1266100962999
 30
0.0
  0
ENDBLK
  5
10B2
330
10A7
100
AcDbEntity
  8
0
 62
     0
100
AcDbBlockEnd
  0
BLOCK
  5
10C3
330
10BC
100
AcDbEntity
  8
0
100
AcDbBlockBegin
  2
*D15
 70
     1
 10
0.0
 20
0.0
 30
0.0
  3
*D15
  1

  0
SOLID
  5
10BD
330
10BC
100
AcDbEntity
  8
VERMASSUNG
100
AcDbTrace
 10
126.9576804564999
 20
127.1266100962999
 30
0.0
 11
129.9576804564999
 21
126.6766100963
 31
0.0
 12
129.9576804564999
 22
127.5766100962999
 32
0.0
 13
129.9576804564999
 23
127.5766100962999
 33
0.0
  0
SOLID
  5
10BE
330
10BC
100
AcDbEntity
  8
VERMASSUNG
100
AcDbTrace
 10
160.7576804565
 20
127.1266100962999
 30
0.0
 11
157.7576804565
 21
127.5766100962999
 31
0.0
 12
157.7576804565
 22
126.6766100963
 32
0.0
 13
157.7576804565
 23
126.6766100963
 33
0.0
  0
LINE
  5
10BF
330
10BC
100
AcDbEntity
  8
VERMASSUNG
100
AcDbLine
 10
126.9576804564999
 20
123.5115945606999
 30
0.0
 11
126.9576804564999
 21
128.1266100962999
 31
0.0
  0
LINE
  5
10C0
330
10BC
100
AcDbEntity
  8
VERMASSUNG
100
AcDbLine
 10
160.7576804565
 20
123.1915517012
 30
0.0
 11
160.7576804565
 21
128.1266100962999
 31
0.0
  0
LINE
  5
10C1
330
10BC
100
AcDbEntity
  8
VERMASSUNG
100
AcDbLine
 10
126.9576804564999
 20
127.1266100962999
 30
0.0
 11
160.7576804565
 21
127.1266100962999
 31
0.0
  0
MTEXT
  5
10C2
330
10BC
100
AcDbEntity
  8
VERMASSUNG
100
AcDbMText
 10
141.2353683079
 20
129.7266102126999
 30
0.0
 40
2.0
 41
0.0
 71
     1
 72
     1
  1
{33.8}
  7
SLDTEXTSTYLE0
 73
     1
 44
1.0
  0
ENDBLK
  5
10C4
330
10BC
100
AcDbEntity
  8
0
100
AcDbBlockEnd
  0
BLOCK
  5
10D5
330
10CB
100
AcDbEntity
  8
0
 62
     0
100
AcDbBlockBegin
  2
*D16
 70
     1
 10
0.0
 20
0.0
 30
0.0
  3
*D16
  1

  0
LINE
  5
10D7
330
10CB
100
AcDbEntity
  8
VERMASSUNG
 62
     0
370
    -2
100
AcDbLine
 10
110.4019750842718
 20
139.9283070962312
 30
0.0
 11
110.4019750842718
 21
144.5433226318313
 31
0.0
  0
LINE
  5
10D8
330
10CB
100
AcDbEntity
  8
VERMASSUNG
 62
     0
370
    -2
100
AcDbLine
 10
144.2019750842718
 20
139.6082642367312
 30
0.0
 11
144.2019750842718
 21
144.5433226318313
 31
0.0
  0
LINE
  5
10D9
330
10CB
100
AcDbEntity
  8
VERMASSUNG
 62
     0
370
    -2
100
AcDbLine
 10
113.4019750842717
 20
143.5433226318313
 30
0.0
 11
141.2019750842718
 21
143.5433226318313
 31
0.0
  0
SOLID
  5
10DA
330
10CB
100
AcDbEntity
  8
VERMASSUNG
 62
     0
100
AcDbTrace
 10
113.4019750842717
 20
144.0433226318313
 30
0.0
 11
113.4019750842717
 21
143.0433226318313
 31
0.0
 12
110.4019750842718
 22
143.5433226318313
 32
0.0
 13
110.4019750842718
 23
143.5433226318313
 33
0.0
  0
SOLID
  5
10DB
330
10CB
100
AcDbEntity
  8
VERMASSUNG
 62
     0
100
AcDbTrace
 10
141.2019750842718
 20
144.0433226318313
 30
0.0
 11
141.2019750842718
 21
143.0433226318313
 31
0.0
 12
144.2019750842718
 22
143.5433226318313
 32
0.0
 13
144.2019750842718
 23
143.5433226318313
 33
0.0
  0
MTEXT
  5
10DC
330
10CB
100
AcDbEntity
  8
VERMASSUNG
 62
     0
100
AcDbMText
 10
126.0785634311718
 20
147.0673226318313
 30
0.0
 40
2.0
 41
0.0
 71
     1
 72
     1
  1
\A1;17
  7
SLDTEXTSTYLE0
 73
     1
 44
1.0
  0
POINT
  5
10DD
330
10CB
100
AcDbEntity
  8
Defpoints
 62
     0
100
AcDbPoint
 10
110.4019750842718
 20
139.9283070962312
 30
0.0
  0
POINT
  5
10DE
330
10CB
100
AcDbEntity
  8
Defpoints
 62
     0
100
AcDbPoint
 10
144.2019750842718
 20
139.6082642367312
 30
0.0
  0
POINT
  5
10DF
330
10CB
100
AcDbEntity
  8
Defpoints
 62
     0
100
AcDbPoint
 10
144.2019750842718
 20
143.5433226318313
 30
0.0
  0
ENDBLK
  5
10D6
330
10CB
100
AcDbEntity
  8
0
 62
     0
100
AcDbBlockEnd
  0
BLOCK
  5
11EF
330
11E5
100
AcDbEntity
  8
0
 62
     0
100
AcDbBlockBegin
  2
*D17
 70
     1
 10
0.0
 20
0.0
 30
0.0
  3
*D17
  1

  0
LINE
  5
11F1
330
11E5
100
AcDbEntity
  8
2
 62
     0
370
    -2
100
AcDbLine
 10
-0.0000000000000142
 20
12.29999999999999
 30
0.0
 11
-0.0000000000000138
 21
18.85611432716574
 31
0.0
  0
LINE
  5
11F2
330
11E5
100
AcDbEntity
  8
2
 62
     0
370
    -2
100
AcDbLine
 10
33.80000032479999
 20
11.97995711109999
 30
0.0
 11
33.80000032479999
 21
18.85611432716574
 31
0.0
  0
LINE
  5
11F3
330
11E5
100
AcDbEntity
  8
2
 62
     0
370
    -2
100
AcDbLine
 10
4.569999999999986
 20
16.35611432716574
 30
0.0
 11
29.23000032479999
 21
16.35611432716574
 31
0.0
  0
SOLID
  5
11F4
330
11E5
100
AcDbEntity
  8
2
 62
     0
100
AcDbTrace
 10
4.569999999999986
 20
17.1177809938324
 30
0.0
 11
4.569999999999986
 21
15.59444766049907
 31
0.0
 12
-0.000000000000014
 22
16.35611432716574
 32
0.0
 13
-0.000000000000014
 23
16.35611432716574
 33
0.0
  0
SOLID
  5
11F5
330
11E5
100
AcDbEntity
  8
2
 62
     0
100
AcDbTrace
 10
29.23000032479999
 20
17.1177809938324
 30
0.0
 11
29.23000032479999
 21
15.59444766049907
 31
0.0
 12
33.80000032479999
 22
16.35611432716574
 32
0.0
 13
33.80000032479999
 23
16.35611432716574
 33
0.0
  0
MTEXT
  5
11F6
330
11E5
100
AcDbEntity
  8
2
 62
     7
100
AcDbMText
 10
16.90000016239998
 20
20.14111432716574
 30
0.0
 40
4.57
 41
0.0
 71
     5
 72
     1
  1
\A1;33.8
  7
GENPRESET
 73
     1
 44
1.0
  0
POINT
  5
11F7
330
11E5
100
AcDbEntity
  8
Defpoints
 62
     0
100
AcDbPoint
 10
-0.0000000000000142
 20
12.29999999999999
 30
0.0
  0
POINT
  5
11F8
330
11E5
100
AcDbEntity
  8
Defpoints
 62
     0
100
AcDbPoint
 10
33.80000032479999
 20
11.97995711109999
 30
0.0
  0
POINT
  5
11F9
330
11E5
100
AcDbEntity
  8
Defpoints
 62
     0
100
AcDbPoint
 10
33.80000032479999
 20
16.35611432716574
 30
0.0
  0
ENDBLK
  5
11F0
330
11E5
100
AcDbEntity
  8
0
 62
     0
100
AcDbBlockEnd
  0
ENDSEC
  0
SECTION
  2
ENTITIES
  0
MTEXT
  5
36
330
1F
100
AcDbEntity
  8
5
100
AcDbMText
 10
-19.48558274173971
 20
-46.7873189265986
 30
0.0
 40
4.57
 41
0.0
 71
     1
 72
     1
  1
142.250.000
  7
GENPRESET
 73
     1
 44
1.0
  0
MTEXT
  5
37
330
1F
100
AcDbEntity
  8
5
100
AcDbMText
 10
-19.44179956893971
 20
-38.74818013369859
 30
0.0
 40
4.57
 41
0.0
 71
     1
 72
     1
  1
{Zweischneiderkopf_Twin cutter boring head}
  7
GENPRESET
 73
     1
 44
1.0
  0
REGION
  5
27D
330
1F
100
AcDbEntity
  8
5
100
AcDbModelerGeometry
 70
     1
  1
koo mi n o          
  1
h J1410(1 nl ^ \VL kqoqm QK mk K7* [:< nl ohemlemn mooh 
  1
rn fqfffffffffffffffj:rooh n:rono 
  1
=0;& {rn {n {rn {rn |
  1
3*2/ {rn {rn {m {o |
  1
,7:33 {rn {rn {rn {l {rn {n |
  1
9><: {rn {rn {k {m {rn {j 90-(>-; ;0*=3: 0*+ |
  1
300/ {rn {rn {i {l |
  1
/3>1:r,*-9><: {rn moqkhfffjmhkogkmhk rmfqmmgfohnhjiijglf o o o n m o o 90-(>-;@) V V V V |
  1
<0:;8: {rn {h {g {rn {f -:):-,:; {k {rn |
  1
<0:;8: {rn {no {i {rn {nn -:):-,:; {k {rn |
  1
<0:;8: {rn {i {no {rn {nm -:):-,:; {k {rn |
  1
:;8: {rn {nl {nk {i {nj 90-(>-; |
  1
<0:;8: {rn {g {h {rn {ni -:):-,:; {k {rn |
  1
:;8: {rn {nh {nl {h {ng 90-(>-; |
  1
:;8: {rn {nk {nf {g {mo 90-(>-; |
  1
):-+:' {rn {f {mn |
  1
):-+:' {rn {f {mm |
  1
,+->687+r<*-): {rn ioqlgkfklomojjinli rljqmjfhililmmnhlnk o rm o o V V |
  1
:;8: {rn {nf {nh {no {ml 90-(>-; |
  1
):-+:' {rn {ni {mk |
  1
,+->687+r<*-): {rn ioqlgkfklomojjinli rmlqnfgojohnfnnklil o mqljiljhikkijlllgm:ronj rm o V V |
  1
):-+:' {rn {nm {mj |
  1
,+->687+r<*-): {rn rnfqkmkfjmkhmlghjgg rljqmjfhililmmnhlnk o o m o V V |
  1
/061+ {rn ioqlgkfklomojjinli rljqmjfhililmmnhlnk o |
  1
/061+ {rn rnfqkmkfjmkhmlghjgg rljqmjfhililmmnhlnk o |
  1
,+->687+r<*-): {rn rnfqkmkfjmkhmlghjgg rmlqnfgojohnfnnklil o m o o V V |
  1
/061+ {rn ioqlgkfklomojjinli rmlqnfgojohnfnnklil o |
  1
/061+ {rn rnfqkmkfjmkhmlghjgg rmlqnfgojohnfnnklil o |
  0
REGION
  5
27E
330
1F
100
AcDbEntity
  8
5
100
AcDbModelerGeometry
 70
     1
  1
koo hn n o          
  1
h J1410(1 nl ^ \VL kqoqm QK mk K7* [:< nl ohemlemn mooh 
  1
rn fqfffffffffffffffj:rooh n:rono 
  1
=0;& {rn {n {rn {rn |
  1
3*2/ {rn {rn {m {o |
  1
,7:33 {rn {rn {rn {l {rn {n |
  1
9><: {rn {rn {k {m {rn {j 90-(>-; ;0*=3: 0*+ |
  1
300/ {rn {rn {i {l |
  1
/3>1:r,*-9><: {rn rhqjjgiijnhomligohl rmgqfjijgfijghllnlh o o o n m o o 90-(>-;@) V V V V |
  1
<0:;8: {rn {h {g {rn {f -:):-,:; {k {rn |
  1
<0:;8: {rn {no {i {rn {nn -:):-,:; {k {rn |
  1
<0:;8: {rn {i {nm {rn {nl -:):-,:; {k {rn |
  1
:;8: {rn {nk {nj {i {ni 90-(>-; |
  1
<0:;8: {rn {nh {h {rn {ng -:):-,:; {k {rn |
  1
:;8: {rn {nf {nk {h {mo 90-(>-; |
  1
<0:;8: {rn {g {mn {rn {mm -:):-,:; {k {rn |
  1
:;8: {rn {nj {ml {g {mk 90-(>-; |
  1
):-+:' {rn {f {mj |
  1
):-+:' {rn {f {mi |
  1
,+->687+r<*-): {rn rnoqjnhffnjjhfhfogh rllqokhmnnihlhijki o roqjlmonliifjkjgkgfk nqfmhfkmmgjmfngkfh o V V |
  1
<0:;8: {rn {mh {no {rn {mg -:):-,:; {k {rn |
  1
:;8: {rn {mf {nf {no {lo 90-(>-; |
  1
):-+:' {rn {ng {ln |
  1
,+->687+r<*-): {rn rgqgnfjimjgonlninif rllqokhmnnihlhijki o rm o o V V |
  1
<0:;8: {rn {nm {lm {rn {ll -:):-,:; {k {rn |
  1
:;8: {rn {ml {lk {nm {lj 90-(>-; |
  1
):-+:' {rn {nl {li |
  1
,+->687+r<*-): {rn rnmqjnnjljlogilfmmj rmjqgmmgfnnohkmoooi o m o o V V |
  1
/061+ {rn rnoqjnhffnjjhfhfogh rllqokhmnnihlhijki o |
  1
/061+ {rn rnmqjnnjljlogilfmmj rmjqgmmgfnnohkmoooi o |
  1
<0:;8: {rn {lh {nh {rn {lg -:):-,:; {k {rn |
  1
:;8: {rn {lf {mf {nh {ko 90-(>-; |
  1
):-+:' {rn {mg {kn |
  1
,+->687+r<*-): {rn rhqjgmmfhhmhimhlkfn rmgqmkijkiogillfmmm o roqkffnkkjioljfmlmll rnqflihnmlkjnjnfokk o V V |
  1
/061+ {rn rgqgnfjimjgonlninif rllqokhmnnihlhijki o |
  1
<0:;8: {rn {mn {km {rn {kl -:):-,:; {k {rn |
  1
:;8: {rn {lk {kk {mn {kj 90-(>-; |
  1
):-+:' {rn {mm {ki |
  1
,+->687+r<*-): {rn rnoqhfjgkiojkgngfmk rmjqgmmgfnnohkmoooi o oqkjfngfjmfijlloohl rnqfkijhmimmgojhloj o V V |
  1
/061+ {rn rnoqhfjgkiojkgngfmk rmjqgmmgfnnohkmoooi o |
  1
<0:;8: {rn {kh {mh {rn {kg -:):-,:; {k {rn |
  1
:;8: {rn {kf {lf {mh {jo 90-(>-; |
  1
):-+:' {rn {lg {jn |
  1
,+->687+r<*-): {rn riqmlmjjmiokjnkoifn rllqokhmnnihlhijki o roqjknlmigjnonmjgikf nqfmjlkgogmfnnfifg o V V |
  1
/061+ {rn rhqjgmmfhhmhimhlkfn rmgqmkijkiogillfmmm o |
  1
<0:;8: {rn {lm {jm {rn {jl -:):-,:; {k {rn |
  1
:;8: {rn {kk {jk {lm {jj 90-(>-; |
  1
):-+:' {rn {ll {ji |
  1
,+->687+r<*-): {rn rfqigjnnohkjjogiiim rloqjlnkiloiggokhfh o oqjkiffiokfiomonjof nqfmlhkjnmfofjhflm o V V |
  1
/061+ {rn rfqigjnnohkjjogiiim rloqjlnkiloiggokhfh o |
  1
<0:;8: {rn {jm {lh {rn {jh -:):-,:; {k {rn |
  1
:;8: {rn {jg {kf {lh {jf 90-(>-; |
  1
):-+:' {rn {kg {io |
  1
,+->687+r<*-): {rn rkqjhfnnjklmgkongln rllqokhmnnihlhijki o rm o o V V |
  1
/061+ {rn riqmlmjjmiokjnkoifn rllqokhmnnihlhijki o |
  1
<0:;8: {rn {km {kh {rn {in -:):-,:; {k {rn |
  1
:;8: {rn {jk {im {km {il 90-(>-; |
  1
):-+:' {rn {kl {ik |
  1
,+->687+r<*-): {rn rgqlkimhfkofohjkohl rmjqgmmgfnnohkmoooi o m o o V V |
  1
/061+ {rn rgqlkimhfkofohjkohl rmjqgmmgfnnohkmoooi o |
  1
:;8: {rn {ij {jg {kh {ii 90-(>-; |
  1
):-+:' {rn {jh {ih |
  1
,+->687+r<*-): {rn rmqinmfjklmniogkiff rmjqgmmgfnnohkmoooi o roqjmjmnllmokmjomhkk rnqfmfgojfkojnjmfli o V V |
  1
/061+ {rn rkqjhfnnjklmgkongln rllqokhmnnihlhijki o |
  1
:;8: {rn {im {ij {jm {ig 90-(>-; |
  1
):-+:' {rn {jl {if |
  1
,+->687+r<*-): {rn riqhifklmoigfngiinn rmjqgmmgfnnohkmoooi o oqjojlgfiiloigogfgi rnqfljofmoimonmjlkh o V V |
  1
/061+ {rn riqhifklmoigfngiinn rmjqgmmgfnnohkmoooi o |
  1
):-+:' {rn {in {ho |
  1
,+->687+r<*-): {rn rkqmhomhfnlllmommff rmjqgmmgfnnohkmoooi o m o o V V |
  1
/061+ {rn rmqinmfjklmniogkiff rmjqgmmgfnnohkmoooi o |
  1
,+->687+r<*-): {rn rjqjlfifomigofikmnh rloqjlnkiloiggokhfh o oqjmoioknljjlnghihf nqflnojkkinhokokh o V V |
  1
/061+ {rn rjqjlfifomigofikmnh rloqjlnkiloiggokhfh o |
  1
/061+ {rn rkqmhomhfnlllmommff rmjqgmmgfnnohkmoooi o |
  0
REGION
  5
27F
330
1F
100
AcDbEntity
  8
5
100
AcDbModelerGeometry
 70
     1
  1
koo mi n o          
  1
h J1410(1 nl ^ \VL kqoqm QK mk K7* [:< nl ohemlemn mooh 
  1
rn fqfffffffffffffffj:rooh n:rono 
  1
=0;& {rn {n {rn {rn |
  1
3*2/ {rn {rn {m {o |
  1
,7:33 {rn {rn {rn {l {rn {n |
  1
9><: {rn {rn {k {m {rn {j -:):-,:; ;0*=3: 0*+ |
  1
300/ {rn {rn {i {l |
  1
/3>1:r,*-9><: {rn rniqnmimfmknnfmglhj rmfqklknkhjnmmlifhi o o o rn rm o o 90-(>-;@) V V V V |
  1
<0:;8: {rn {h {g {rn {f -:):-,:; {k {rn |
  1
<0:;8: {rn {no {i {rn {nn 90-(>-; {k {rn |
  1
<0:;8: {rn {i {no {rn {nm 90-(>-; {k {rn |
  1
:;8: {rn {nl {nk {i {nj 90-(>-; |
  1
<0:;8: {rn {g {h {rn {ni 90-(>-; {k {rn |
  1
:;8: {rn {nl {nh {h {ng 90-(>-; |
  1
:;8: {rn {nf {nk {g {mo 90-(>-; |
  1
):-+:' {rn {f {mn |
  1
):-+:' {rn {f {mm |
  1
61+<*-):r<*-): {rn 90-(>-; $ :'><+<*- 1*=, l 0/:1 mk 
  1
 o l oqligokiljfljmjmjj n oqikiffjgmifofigklg n nqoigjglohkoojklhk n nqiohihjljnioiinng n 
  1
 nqfhmmojknmiffgfof n mqnfkhjgmkmhhogjlf n mqioinmmijimmmlmmg n lqnlhnlfiiikkokmkj n lqifnmlfgjmonggmhk n 
  1
 kqokoilfionkiiffnk n kqlffkggihjloikjmk n kqgnjjkihfkomhonmj n jqljoknhiinlnnjjjf n jqgnogkngnofmjifjk n 
  1
 iqmmhnfffmkgnlkoni n iqinkmilhmmmoihgkk n hqkgfigmoofjhoomml n hqgihgfiogmnmng n gqmjlnglnofmnkimnl n 
  1
 gqjjhhkmomokmlmfin n gqhimgololoifolglj n fqnknnhijkkiknoojg n fqmjiilgghlkomkimn l 
  1
 rnkqhgkigjjinhjoihg rmgqnmmgjknmfkkgfmj o 
  1
 rnkqgnojlmoifonkigk rmhqgikilmflifkgnmi o 
  1
 rnkqgjjfignkkfhlhkk rmhqknohoogfgfhffjk o 
  1
 rnjqjnmlgogoknnghil rmiqfghnlgjlnkiiinl o 
  1
 rniqlolmikhnnjljfol rmiqfkiljnkomnllhhm o 
  1
 rnhqlgifmkkfkfhkhlj rmiqfgomlnnljonjfmh o 
  1
 rnhqjoikffhnilfonih rmhqflnmiihnojigglj o 
  1
 rnhqoooiiokmonkfhnk rmgqkmhklinlhjhgkmj o 
  1
 rniqnfhknmgohmmmgkh rmgqjnlljginomlfjoh o 
  1
 rnjqmkokokjnmggokol rmgqhkimghnmfimkhkh o 
  1
 rnkqmfmkmhhnihggnfh rmgqfklmflnmmogfoln o 
  1
 rnlqjjkmlfiohljnmkf rmfqliikngjhggmnlmj o 
  1
 rnlqolhlkmifkhigkmh rmfqfklfhjofngojmjh o 
  1
 rnmqgjogoiofkklfnli rloqgmlofkiohkkghii o 
  1
 rnmqfghlojmjlllfogg rlnqgoomklfnmlmjigl o 
  1
 rnlqijjmojjhjlohllj rlmqjmnikimmniihgfl o 
  1
 rnkqkonmhfmljgflflg rlmqfnfhmnmninmhjfg o 
  1
 rnjqkhkjflkioikinnf rllqmhimfglkhlljjmi o 
  1
 rniqjfjligmignnngfg rllqniloimgjmgogoig o 
  1
 rnhqiifnljlonijjgkm rlmqfihfgokifohhlng o 
  1
 rngqlmmjooiofngogoh rlmqiklmoonnmgjgihf o 
  1
 rngqhlhhkoglolmgoij rlmqmojmmlhmonofhnk o 
  1
 rnfqnnfkofnnjofhnji rlnqhilkngffkolnhlg o 
  1
 rnfqmnjloiinjkjmfkj rlnqnfinkljfhhmkkmf o 
  1
 rnfqmignkgonijlgjin rloqfffklhmkojfoilg o 
  1
 rnfqmfllmhoofkmlikf rloqjijojmmggljmokf o 
  1
 o 
  1
 1*33@,*-9><: 
  1
 1*33@,*-9><: 
  1
 1*33=, 
  1
 1*33=, 
  1
 V V 
  1
 o 
  1
 o 
  3
 mm oqligokiljfljmjmjj oqikiffjgmifofigklg nqoigjglohkoojklhk nqiohihjljnioiinng nqfhmmojknmiffgfof mqnfkhjgmkmhhogjlf mqioinmmijimmmlmmg lqnlhnlfiiikkokmkj lqifnmlfgjmonggmhk kqokoilfionkiiffnk kqlffkggihjloikjmk kqgnjjkihfkomhonmj jqljoknhiinlnnjjjf jqg
  1
nogkngnofmjifjk iqmmhnfffmkgnlkoni iqinkmilhmmmoihgkk hqkgfigmoofjhoomml hqgihgfiogmnmng gqmjlnglnofmnkimnl gqjjhhkmomokmlmfin gqhimgololoifolglj fqnknnhijkkiknoojg 
  1
 Y n Y o " V V |
  1
:;8: {rn {nh {nf {no {ml 90-(>-; |
  1
):-+:' {rn {ni {mk |
  1
,+->687+r<*-): {rn rnkqhgkigjjinhjoihg rmgqnmmgjknmfkkgfmj o nqfffffggjlnomnhjn roqoomnkngiioojnojinfi o V V |
  1
):-+:' {rn {nm {mj |
  1
,+->687+r<*-): {rn rnhqhogngomfhgjhlgm rloqjimflkkmkhijfnl o rnqfffffgmnkfmjoklf roqoomihmnlllkfklhngfk o V V |
  1
/061+ {rn rnkqhgkigjjinhjoihg rmgqnmmgjknmfkkgfmj o |
  1
/061+ {rn rnfqmfllmhoofkmlikf rloqjijojmmggljmokf o |
  1
61+<*-):r<*-): {rn 90-(>-; $ :'><+<*- 1*=, l 0/:1 mg 
  1
 o l oqlfigjomnhmmhnoggk n oqhmihgjfojjnjijimj n nqongknlhimogofofh n nqmhjijkomimihfkmn n 
  1
 nqjjhhfooifjkllfmm n nqginnnojigjoifhom n mqjkkgnlhjikjngfjl n mqgnmoofmlhlingolh n lqokfffiohonmmmllj n 
  1
 lqlloonlmhgjlffngk n lqjhjiljhgilhmngkg n lqflkijnjffnhfgkfk n kqklfnimomimokiofi n kqihhohhmgmkfjfon n 
  1
 kqfjglhmkoiilonmjg n jqlmoknigoglljkill n jqijoooimimfnhomng n iqnnmooijfhfmfnkjk n iqillkinjnnhkjhlfi n 
  1
 iqfknhinkfmmgkfnmf n hqmokikooliljffifi n hqkfmhhkhgfkhifngl n hqhnffflnfkkoglkjn n gqmmhonmnijoikjmjg n 
  1
 gqhgfgkommjlomnifh n fqnlnohigkhjkjhkmm n fqlggifigilfmffjgm l 
  1
 rnlqmoljmnikmmjnmki rmgqnmkjkhkjnoklhfi o 
  1
 rnlqnfjnkimhfnjfmlm rmhqgjknoogfhmjlhjg o 
  1
 rnlqnhfgohhjhoojoog rmhqljggogggmgflogi o 
  1
 rnlqjlnknjjjonlmmjm rmiqhjikojnjjngnlgl o 
  1
 rnlqfmonmlnkgkgifij rmiqlomghnninihnlhi o 
  1
 rnkqklifhnohgoknilh rmiqogmojohikmkghfn o 
  1
 rnkqfklhojjnolljghk rmjqglkgjmhongoioff o 
  1
 rnjqhgfghmjomfnflml rmjqhnhogjfhgnljonh o 
  1
 rniqilmmnlhfmhkkljm rmjqhonlijjhhfogfjf o 
  1
 rnhqknnihloghiiifkn rmjqgiihfholhfijik o 
  1
 rnhqgfkolmnklggjiih rmiqogmjjmjhhhhiiih o 
  1
 rngqmffmhfjiffkoljl rmiqlfmohighjomnmi o 
  1
 rngqhjmgfmmmfklhmog rmiqhhglgikfnoghki o 
  1
 rnfqohfjfnmhgmjhgml rmhqkilhhmmlkojjilf o 
  1
 rnfqnmmnjlnoilffhij rmgqmkoghmlmimfokhm o 
  1
 rngqgmiikjhkingkoh rmgqgilgflgkginoil o 
  1
 rngqkjifhkjooolghmi rmfqllijnhoohhgnngl o 
  1
 rnhqgjgjnhihkjifmji rmfqimlmfjghjoggnkh o 
  1
 rnhqnkniihgmjfmkihn rmfqgflfmokngfffffh o 
  1
 rniqmhikgnofhllflff rloqohnhnoinkmnmmj o 
  1
 rnjqklfhonlljmfoimn rloqnfhnmhmiolhfnoj o 
  1
 rnkqhnfhjmonnhhofj rloqkgkgnmhonmfjlmi o 
  1
 rnkqkfmomngiljnffof rlnqoikmmgmmkjmgilk o 
  1
 rnkqiiimhkljkmiokii rlnqimihkmnmjkiiilj o 
  1
 rnjqllnojfmknknognl rlnqfomgnjijomninnm o 
  1
 rniqnhlkmfnmgkkkilf rlnqfgloklohgmjill o 
  1
 rnhqnfjmlkmilolhoog rlnqgljnklkgkinnolg o 
  1
 rnhqijoiinklofinikg rlnqnllogoomoohmmmg o 
  1
 rnhqifoghfnhohfhimf rloqhlkkmghgigijnfj o 
  1
 rnhqhogngomfhgjhlgm rloqjimflkkmkhijfnl o 
  1
 o 
  1
 1*33@,*-9><: 
  1
 1*33@,*-9><: 
  1
 1*33=, 
  1
 1*33=, 
  1
 V V 
  1
 o 
  1
 o 
  3
 mi oqlfigjomnhmmhnoggk oqhmihgjfojjnjijimj nqongknlhimogofofh nqmhjijkomimihfkmn nqjjhhfooifjkllfmm nqginnnojigjoifhom mqjkkgnlhjikjngfjl mqgnmoofmlhlingolh lqokfffiohonmmmllj lqlloonlmhgjlffngk lqjhjiljhgilhmngkg lqflkijnjffnhfgkfk kqklfnimomimokiofi kq
  1
ihhohhmgmkfjfon kqfjglhmkoiilonmjg jqlmoknigoglljkill jqijoooimimfnhomng iqnnmooijfhfmfnkjk iqillkinjnnhkjhlfi iqfknhinkfmmgkfnmf hqmokikooliljffifi hqkfmhhkhgfkhifngl hqhnffflnfkkoglkjn gqmmhonmnijoikjmjg gqhgfgkommjlomnifh fqnlnohigkhjkjhkmm 
  1
 Y n Y o " V V |
  1
/061+ {rn rnlqmoljmnikmmjnmki rmgqnmkjkhkjnoklhfi o |
  1
/061+ {rn rnhqhogngomfhgjhlgm rloqjimflkkmkhijfnl o |
  0
REGION
  5
280
330
1F
100
AcDbEntity
  8
5
100
AcDbModelerGeometry
 70
     1
  1
koo mi n o          
  1
h J1410(1 nl ^ \VL kqoqm QK mk K7* [:< nl ohemlemn mooh 
  1
rn fqfffffffffffffffj:rooh n:rono 
  1
=0;& {rn {n {rn {rn |
  1
3*2/ {rn {rn {m {o |
  1
,7:33 {rn {rn {rn {l {rn {n |
  1
9><: {rn {rn {k {m {rn {j -:):-,:; ;0*=3: 0*+ |
  1
300/ {rn {rn {i {l |
  1
/3>1:r,*-9><: {rn nnqohoijkojiogihmk rmfqklknkhjnmmlifhi o o o rn rm o o 90-(>-;@) V V V V |
  1
<0:;8: {rn {h {g {rn {f -:):-,:; {k {rn |
  1
<0:;8: {rn {no {i {rn {nn 90-(>-; {k {rn |
  1
<0:;8: {rn {i {no {rn {nm 90-(>-; {k {rn |
  1
:;8: {rn {nl {nk {i {nj 90-(>-; |
  1
<0:;8: {rn {g {h {rn {ni 90-(>-; {k {rn |
  1
:;8: {rn {nl {nh {h {ng 90-(>-; |
  1
:;8: {rn {nf {nk {g {mo 90-(>-; |
  1
):-+:' {rn {f {mn |
  1
):-+:' {rn {f {mm |
  1
61+<*-):r<*-): {rn 90-(>-; $ :'><+<*- 1*=, l 0/:1 mk 
  1
 o l oqligokiljfljmjmjj n oqikiffjgmifofigklg n nqoigjglohkoojklhk n nqiohihjljnioiinng n 
  1
 nqfhmmojknmiffgfof n mqnfkhjgmkmhhogjlf n mqioinmmijimmmlmmg n lqnlhnlfiiikkokmkj n lqifnmlfgjmonggmhk n 
  1
 kqokoilfionkiiffnk n kqlffkggihjloikjmk n kqgnjjkihfkomhonmj n jqljoknhiinlnnjjjf n jqgnogkngnofmjifjk n 
  1
 iqmmhnfffmkgnlkoni n iqinkmilhmmmoihgkk n hqkgfigmoofjhoomml n hqgihgfiogmnmng n gqmjlnglnofmnkimnl n 
  1
 gqjjhhkmomokmlmfin n gqhimgololoifolglj n fqnknnhijkkiknoojg n fqmjiilgghlkomkimn l 
  1
 nmqknmmiofoimikkoh rmgqnmmgjknmfkkgfmj o 
  1
 nmqlgiknklffoookon rmhqgikilmflifkgnmi o 
  1
 nmqlkofhglmloknlkn rmhqknohoogfgfhffjk o 
  1
 nnqigkjijiilgfilmm rmiqfghnlgjlnkiiinl o 
  1
 noqgflignhjikhfngm rmiqfkiljnkomnllhhm o 
  1
 fqgnoomnfhlokolkfj rmiqfgomlnnljonjfmh o 
  1
 fqifokkihjnimkfngk rmhqflnmiihnojigglj o 
  1
 noqnfimgiokhgijlhn rmgqkmhklinlhjhgkmj o 
  1
 noqfffjlliiohfmmlg rmgqjnlljginomlfjoh o 
  1
 nnqfjijknfjjnlkigm rmgqhkimghnmfimkhkh o 
  1
 nmqfokjnghjnmmiggg rmgqfklmflnmmogfoln o 
  1
 nlqikmhoigioiilgj rmfqliikngjhggmnlmj o 
  1
 nkqnjfiolhhlmkiijg rmfqfklfhjofngojmjh o 
  1
 nkqlkinkolhljhjfil rloqgmlofkiohkkghii o 
  1
 nkqmofiknmnkihjffh rlnqgoomklfnmlmjigl o 
  1
 nlqjknhkogfmhohhj rlmqjmnikimmniihgfl o 
  1
 nmqhfjiihmlmnmnnkh rlmqfnfhmnmninmhjfg o 
  1
 nnqhmmljloohligfii rllqmhimfglkhlljjmi o 
  1
 noqionjhgnfffolngh rllqniloimgjmgogoig o 
  1
 fqjmhgnnniiljfmkmi rlmqfihfgokifohhlng o 
  1
 gqghkkkjgjgglkmhgn rlmqiklmoonnmgjgihf o 
  1
 gqkjfmojilhighomok rlmqmojmmlhmonofhnk o 
  1
 gqohhjlhljmfnhfmfn rlnqhilkngffkolnhlg o 
  1
 hqfgnilfgjmjimnlfj rlnqnfinkljfhhmkkmf o 
  1
 hqfmghfgkjnkhijmkm rloqfffklhmkojfoilg o 
  1
 hqfolinfkjgjfnkljf rloqjijojmmggljmokf o 
  1
 o 
  1
 1*33@,*-9><: 
  1
 1*33@,*-9><: 
  1
 1*33=, 
  1
 1*33=, 
  1
 V V 
  1
 o 
  1
 o 
  3
 mm oqligokiljfljmjmjj oqikiffjgmifofigklg nqoigjglohkoojklhk nqiohihjljnioiinng nqfhmmojknmiffgfof mqnfkhjgmkmhhogjlf mqioinmmijimmmlmmg lqnlhnlfiiikkokmkj lqifnmlfgjmonggmhk kqokoilfionkiiffnk kqlffkggihjloikjmk kqgnjjkihfkomhonmj jqljoknhiinlnnjjjf jqg
  1
nogkngnofmjifjk iqmmhnfffmkgnlkoni iqinkmilhmmmoihgkk hqkgfigmoofjhoomml hqgihgfiogmnmng gqmjlnglnofmnkimnl gqjjhhkmomokmlmfin gqhimgololoifolglj fqnknnhijkkiknoojg 
  1
 Y n Y o " V V |
  1
:;8: {rn {nh {nf {no {ml 90-(>-; |
  1
):-+:' {rn {ni {mk |
  1
,+->687+r<*-): {rn nmqknmmiofoimikkoh rmgqnmmgjknmfkkgfmj o nqfffffggjlnomnhjn roqoomnkngiioojnojinfi o V V |
  1
):-+:' {rn {nm {mj |
  1
,+->687+r<*-): {rn fqkgghiinhonjhholn rloqjimflkkmkhijfnl o rnqfffffgmnkfmjoklf roqoomihmnlllkfklhngfk o V V |
  1
/061+ {rn nmqknmmiofoimikkoh rmgqnmmgjknmfkkgfmj o |
  1
/061+ {rn hqfolinfkjgjfnkljf rloqjijojmmggljmokf o |
  1
61+<*-):r<*-): {rn 90-(>-; $ :'><+<*- 1*=, l 0/:1 mg 
  1
 o l oqlfigjomnhmmhnoggk n oqhmihgjfojjnjijimj n nqongknlhimogofofh n nqmhjijkomimihfkmn n 
  1
 nqjjhhfooifjkllfmm n nqginnnojigjoifhom n mqjkkgnlhjikjngfjl n mqgnmoofmlhlingolh n lqokfffiohonmmmllj n 
  1
 lqlloonlmhgjlffngk n lqjhjiljhgilhmngkg n lqflkijnjffnhfgkfk n kqklfnimomimokiofi n kqihhohhmgmkfjfon n 
  1
 kqfjglhmkoiilonmjg n jqlmoknigoglljkill n jqijoooimimfnhomng n iqnnmooijfhfmfnkjk n iqillkinjnnhkjhlfi n 
  1
 iqfknhinkfmmgkfnmf n hqmokikooliljffifi n hqkfmhhkhgfkhifngl n hqhnffflnfkkoglkjn n gqmmhonmnijoikjmjg n 
  1
 gqhgfgkommjlomnifh n fqnlnohigkhjkjhkmm n fqlggifigilfmffjgm l 
  1
 nlqfflkmkgmjhilglf rmgqnmkjkhkjnoklhfi o 
  1
 nkqoongoongggjjglf rmhqgjknoogfhmjlhjg o 
  1
 nkqonhnlghnnonoohh rmhqljggogggmgflogi o 
  1
 nlqiijjlofnhggmgnf rmiqhjikojnjjngnlgl o 
  1
 nlqmhigmllnfjmgnm rmiqlomghnninihnlhi o 
  1
 nmqhjffhjlgffhlkkg rmiqogmojohikmkghfn o 
  1
 nmqmjlmkofjhihfmnn rmjqglkgjmhongoioff o 
  1
 nnqkohohlfijofjhim rmjqhnhogjfhgnljonh o 
  1
 noqjikhlmihjmhohll rmjqhonlijjhhfogfjf o 
  1
 fqhgjmhllgolkgnkkm rmjqgiihfholhfijik o 
  1
 fqlomfnklmknmfknhf rmiqogmjjmjhhhhiiih o 
  1
 gqgfhiiigfgohkhlm rmiqlfmohighjomnmi o 
  1
 gqkkkojkmlgjhhghh rmiqhhglgikfnoghki o 
  1
 gqnnhljjngfhjhmimm rmhqkilhhmmlkojjilf o 
  1
 gqohkhfllininjlmoj rmgqmkoghmlmimfokhm o 
  1
 gqlholoohmnglnonkg rmgqgilgflgkginoil o 
  1
 gqhlffhnfihfhiljfm rmfqllijnhoohhgnngl o 
  1
 fqllgkmghflkkjgmgj rmfqimlmfjghjoggnkh o 
  1
 noqojjmhgikmofoknk rmfqgflfmokngfffffh o 
  1
 noqfmokijlhoihjigi rloqohnhnoinkmnmmj o 
  1
 nnqhjhmkjnlmhmkkik rloqnfhnmhmiolhfnoj o 
  1
 nmqkhhnfkkjimkknlj rloqkgkgnmhonmfjlmi o 
  1
 nmqhokfmkiokkfjnhi rlnqoikmmgmmkjmgilk o 
  1
 nmqjloihmnnlhjkinf rlnqimihkmnmjkiiilj o 
  1
 nnqgijgghmmiiokmhm rlnqfomgnjijomninnm o 
  1
 nnqomljnhllfjhokki rlnqfgloklohgmjill o 
  1
 noqoonhnmmokfhgohh rlnqgljnklkgkinnolg o 
  1
 fqjkimgjolhojlklif rlnqnllogoomoohmmmg o 
  1
 fqjoioihmfhmnhkjjg rloqhlkkmghgigijnfj o 
  1
 fqkgghiinhonjhholn rloqjimflkkmkhijfnl o 
  1
 o 
  1
 1*33@,*-9><: 
  1
 1*33@,*-9><: 
  1
 1*33=, 
  1
 1*33=, 
  1
 V V 
  1
 o 
  1
 o 
  3
 mi oqlfigjomnhmmhnoggk oqhmihgjfojjnjijimj nqongknlhimogofofh nqmhjijkomimihfkmn nqjjhhfooifjkllfmm nqginnnojigjoifhom mqjkkgnlhjikjngfjl mqgnmoofmlhlingolh lqokfffiohonmmmllj lqlloonlmhgjlffngk lqjhjiljhgilhmngkg lqflkijnjffnhfgkfk kqklfnimomimokiofi kq
  1
ihhohhmgmkfjfon kqfjglhmkoiilonmjg jqlmoknigoglljkill jqijoooimimfnhomng iqnnmooijfhfmfnkjk iqillkinjnnhkjhlfi iqfknhinkfmmgkfnmf hqmokikooliljffifi hqkfmhhkhgfkhifngl hqhnffflnfkkoglkjn gqmmhonmnijoikjmjg gqhgfgkommjlomnifh fqnlnohigkhjkjhkmm 
  1
 Y n Y o " V V |
  1
/061+ {rn nlqfflkmkgmjhilglf rmgqnmkjkhkjnoklhfi o |
  1
/061+ {rn fqkgghiinhonjhholn rloqjimflkkmkhijfnl o |
  0
REGION
  5
281
330
1F
100
AcDbEntity
  8
5
100
AcDbModelerGeometry
 70
     1
  1
koo mi n o          
  1
h J1410(1 nl ^ \VL kqoqm QK mk K7* [:< nl ohemlemn mooh 
  1
rn fqfffffffffffffffj:rooh n:rono 
  1
=0;& {rn {n {rn {rn |
  1
3*2/ {rn {rn {m {o |
  1
,7:33 {rn {rn {rn {l {rn {n |
  1
9><: {rn {rn {k {m {rn {j 90-(>-; ;0*=3: 0*+ |
  1
300/ {rn {rn {i {l |
  1
/3>1:r,*-9><: {rn kqoimhohnmhkffolgj rmfqklknkhjnmmlifhi o o o n m o o 90-(>-;@) V V V V |
  1
<0:;8: {rn {h {g {rn {f 90-(>-; {k {rn |
  1
<0:;8: {rn {no {i {rn {nn -:):-,:; {k {rn |
  1
<0:;8: {rn {i {no {rn {nm 90-(>-; {k {rn |
  1
:;8: {rn {nl {nk {i {nj 90-(>-; |
  1
<0:;8: {rn {g {h {rn {ni 90-(>-; {k {rn |
  1
:;8: {rn {nh {nk {h {ng 90-(>-; |
  1
:;8: {rn {nf {nl {g {mo 90-(>-; |
  1
):-+:' {rn {f {mn |
  1
):-+:' {rn {f {mm |
  1
,+->687+r<*-): {rn mqkgognfmknjhoolnf rloqjimflkkmkhijfnl o rnqfffffgmnkfmjoklf roqoomihmnlllkfklhngfk o V V |
  1
:;8: {rn {nh {nf {no {ml 90-(>-; |
  1
):-+:' {rn {nn {mk |
  1
61+<*-):r<*-): {rn 90-(>-; $ :'><+<*- 1*=, l 0/:1 mk 
  1
 o l oqligokiljfljmjmjj n oqikiffjgmifofigklg n nqoigjglohkoojklhk n nqiohihjljnioiinng n 
  1
 nqfhmmojknmiffgfof n mqnfkhjgmkmhhogjlf n mqioinmmijimmmlmmg n lqnlhnlfiiikkokmkj n lqifnmlfgjmonggmhk n 
  1
 kqokoilfionkiiffnk n kqlffkggihjloikjmk n kqgnjjkihfkomhonmj n jqljoknhiinlnnjjjf n jqgnogkngnofmjifjk n 
  1
 iqmmhnfffmkgnlkoni n iqinkmilhmmmoihgkk n hqkgfigmoofjhoomml n hqgihgfiogmnmng n gqmjlnglnofmnkimnl n 
  1
 gqjjhhkmomokmlmfin n gqhimgololoifolglj n fqnknnhijkkiknoojg n fqmjiilgghlkomkimn l 
  1
 jqkoklnlfhhihihlim rmgqnmmgjknmfkkgfmj o 
  1
 jqlhgkihkhoknmhmfg rmhqgikilmflifkgnmi o 
  1
 jqlllolnlfkkjliifg rmhqknohoogfgfhffjk o 
  1
 kqihiinghljlogijog rmiqfghnlgjlnkiiinl o 
  1
 lqggjhlkgmhgfnjnnn rmiqfkiljnkomnllhhm o 
  1
 mqgomohjokkkjmihgl rmiqfgomlnnljonjfmh o 
  1
 mqigmkffgmlolhmkhm rmhqflnmiihnojigglj o 
  1
 lqnggllfnnfmhhiffg rmgqkmhklinlhjhgkmj o 
  1
 lqffnjgihlmmokjihn rmgqjnlljginomlfjoh o 
  1
 kqfkgjfjomijkhonof rmgqhkimghnmfimkhkh o 
  1
 jqgfijhngmmilfmnh rmgqfklmflnmmogfoln o 
  1
 iqilkhjfflmohinikj rmfqliikngjhggmnlmj o 
  1
 hqnjnijigkkijgfghm rmfqfklfhjofngojmjh o 
  1
 hqllgnflkkkfggmhhh rloqgmlofkiohkkghii o 
  1
 hqmonifkmgiogglmim rlnqgoomklfnmlmjigl o 
  1
 iqjllhflfiknmoohfn rlmqjmnikimmniihgfl o 
  1
 jqhghhmololjllkhjf rlmqfnfhmnmninmhjfg o 
  1
 kqhnkkoiohghgnmfkh rllqmhimfglkhlljjmi o 
  1
 lqjflilnmhnlnjjnin rllqniloimgjmgogoig o 
  1
 mqjnfgikmlhhhnjhnk rlmqfihfgokifohhlng o 
  1
 nqgiikfgflomkiioig rlmqiklmoonnmgjgihf o 
  1
 nqkjnmjghofofflkfm rlmqmojmmlhmonofhnk o 
  1
 nqoifjfokmkllomjhf rlnqhilkngffkolnhlg o 
  1
 oqfhlifmfmlfhkkigmh rlnqnfinkljfhhmkkmf o 
  1
 oqfmogjnjmmggggjmfh rloqfffklhmkojfoilg o 
  1
 oqgfjihmjlooolhikig rloqjijojmmggljmokf o 
  1
 o 
  1
 1*33@,*-9><: 
  1
 1*33@,*-9><: 
  1
 1*33=, 
  1
 1*33=, 
  1
 V V 
  1
 o 
  1
 o 
  3
 mm oqligokiljfljmjmjj oqikiffjgmifofigklg nqoigjglohkoojklhk nqiohihjljnioiinng nqfhmmojknmiffgfof mqnfkhjgmkmhhogjlf mqioinmmijimmmlmmg lqnlhnlfiiikkokmkj lqifnmlfgjmonggmhk kqokoilfionkiiffnk kqlffkggihjloikjmk kqgnjjkihfkomhonmj jqljoknhiinlnnjjjf jqg
  1
nogkngnofmjifjk iqmmhnfffmkgnlkoni iqinkmilhmmmoihgkk hqkgfigmoofjhoomml hqgihgfiogmnmng gqmjlnglnofmnkimnl gqjjhhkmomokmlmfin gqhimgololoifolglj fqnknnhijkkiknoojg 
  1
 Y n Y o " V V |
  1
):-+:' {rn {ni {mj |
  1
61+<*-):r<*-): {rn 90-(>-; $ :'><+<*- 1*=, l 0/:1 mg 
  1
 o l oqlfigjomnhmmhnoggk n oqhmihgjfojjnjijimj n nqongknlhimogofofh n nqmhjijkomimihfkmn n 
  1
 nqjjhhfooifjkllfmm n nqginnnojigjoifhom n mqjkkgnlhjikjngfjl n mqgnmoofmlhlingolh n lqokfffiohonmmmllj n 
  1
 lqlloonlmhgjlffngk n lqjhjiljhgilhmngkg n lqflkijnjffnhfgkfk n kqklfnimomimokiofi n kqihhohhmgmkfjfon n 
  1
 kqfjglhmkoiilonmjg n jqlmoknigoglljkill n jqijoooimimfnhomng n iqnnmooijfhfmfnkjk n iqillkinjnnhkjhlfi n 
  1
 iqfknhinkfmmgkfnmf n hqmokikooliljffifi n hqkfmhhkhgfkhifngl n hqhnffflnfkkoglkjn n gqmmhonmnijoikjmjg n 
  1
 gqhgfgkommjlomnifh n fqnlnohigkhjkjhkmm n fqlggifigilfmffjgm l 
  1
 iqfgjkhhgfhnhinihj rmgqnmkjkhkjnoklhfi o 
  1
 iqfflgjlmiomigngng rmhqgjknoogfhmjlhjg o 
  1
 hqoofnfnhgmkmmkojj rmhqljggogggmgflogi o 
  1
 iqijhjglfgfmfjnim rmiqhjikojnjjngnlgl o 
  1
 iqmigghilfofkokkgi rmiqlomghnninihnlhi o 
  1
 jqhjmomgkinlgjhhig rmiqogmojohikmkghfn o 
  1
 jqmkjmfkomfofnjlfl rmjqglkgjmhongoioff o 
  1
 kqlffnmholijogofog rmjqhnhogjfhgnljonh o 
  1
 lqjjihgjhkiigloinh rmjqhonlijjhhfogfjf o 
  1
 mqhhhlmikjnhiokhl rmjqgiihfholhfijik o 
  1
 mqmfkfihlfjjknhkih rmiqogmjjmjhhhhiiih o 
  1
 nqggfhnffifkghoiog rmiqlfmohighjomnmi o 
  1
 nqklinohlofffomojh rmiqhhglgikfnoghki o 
  1
 nqnofkogminnifjfn rmhqkilhhmmlkojjilf o 
  1
 nqoiigkikllomhikfl rmgqmkoghmlmimfokhm o 
  1
 nqlimljlhflmkllkli rmgqgilgflgkginoil o 
  1
 nqhlmomjolflggigg rmfqllijnhoohhgnngl o 
  1
 mqllokgngikgjgnjhl rmfqimlmfjghjoggnkh o 
  1
 lqokhllnhnljomhkmf rmfqgflfmokngfffffh o 
  1
 lqfnmjngkkmoggonki rloqohnhnoinkmnmmj o 
  1
 kqhkfmfgmoknlihfmk rloqnfhnmhmiolhfnoj o 
  1
 jqkifmkhjmhijikili rloqkgkgnmhonmfjlmi o 
  1
 jqififhhihjfohjoki rlnqoikmmgmmkjmgilk o 
  1
 jqjmmhmjngjniifkhf rlnqimihkmnmjkiiilj o 
  1
 kqgjhfkomfgoniioof rlnqfomgnjijomninnm o 
  1
 kqonjjhoknofgmhhjm rlnqfgloklohgmjill o 
  1
 mqfflhijmhilfokojj rlnqgljnklkgkinnolg o 
  1
 mqjlgllgnogkijhijh rlnqnllogoomoohmmmg o 
  1
 mqkfgnmoligimfhgki rloqhlkkmghgigijnfj o 
  1
 mqkgognfmknjhoolnf rloqjimflkkmkhijfnl o 
  1
 o 
  1
 1*33@,*-9><: 
  1
 1*33@,*-9><: 
  1
 1*33=, 
  1
 1*33=, 
  1
 V V 
  1
 o 
  1
 o 
  3
 mi oqlfigjomnhmmhnoggk oqhmihgjfojjnjijimj nqongknlhimogofofh nqmhjijkomimihfkmn nqjjhhfooifjkllfmm nqginnnojigjoifhom mqjkkgnlhjikjngfjl mqgnmoofmlhlingolh lqokfffiohonmmmllj lqlloonlmhgjlffngk lqjhjiljhgilhmngkg lqflkijnjffnhfgkfk kqklfnimomimokiofi kq
  1
ihhohhmgmkfjfon kqfjglhmkoiilonmjg jqlmoknigoglljkill jqijoooimimfnhomng iqnnmooijfhfmfnkjk iqillkinjnnhkjhlfi iqfknhinkfmmgkfnmf hqmokikooliljffifi hqkfmhhkhgfkhifngl hqhnffflnfkkoglkjn gqmmhonmnijoikjmjg gqhgfgkommjlomnifh fqnlnohigkhjkjhkmm 
  1
 Y n Y o " V V |
  1
/061+ {rn mqkgognfmknjhoolnf rloqjimflkkmkhijfnl o |
  1
/061+ {rn oqgfjihmjlooolhikig rloqjijojmmggljmokf o |
  1
,+->687+r<*-): {rn jqkoklnlfhhihihlim rmgqnmmgjknmfkkgfmj o nqfffffggjlnomnhjn roqoomnkngiioojnojinfi o V V |
  1
/061+ {rn jqkoklnlfhhihihlim rmgqnmmgjknmfkkgfmj o |
  1
/061+ {rn iqfgjkhhgfhnhinihj rmgqnmkjkhkjnoklhfi o |
  0
REGION
  5
282
330
1F
100
AcDbEntity
  8
5
100
AcDbModelerGeometry
 70
     1
  1
koo mi n o          
  1
h J1410(1 nl ^ \VL kqoqm QK mk K7* [:< nl ohemlemn mooh 
  1
rn fqfffffffffffffffj:rooh n:rono 
  1
=0;& {rn {n {rn {rn |
  1
3*2/ {rn {rn {m {o |
  1
,7:33 {rn {rn {rn {l {rn {n |
  1
9><: {rn {rn {k {m {rn {j 90-(>-; ;0*=3: 0*+ |
  1
300/ {rn {rn {i {l |
  1
/3>1:r,*-9><: {rn roqgiioihmgjnojhhnnl rmfqklgfmholmkfnkil o o o n m o o 90-(>-;@) V V V V |
  1
<0:;8: {rn {h {g {rn {f -:):-,:; {k {rn |
  1
<0:;8: {rn {no {i {rn {nn -:):-,:; {k {rn |
  1
<0:;8: {rn {i {no {rn {nm -:):-,:; {k {rn |
  1
:;8: {rn {nl {nk {i {nj 90-(>-; |
  1
<0:;8: {rn {g {h {rn {ni -:):-,:; {k {rn |
  1
:;8: {rn {nh {nl {h {ng 90-(>-; |
  1
:;8: {rn {nk {nf {g {mo 90-(>-; |
  1
):-+:' {rn {f {mn |
  1
):-+:' {rn {f {mm |
  1
,+->687+r<*-): {rn rnqhimioomhlgimlkh rllqomfkkhhfoolfknl o o m o V V |
  1
:;8: {rn {nf {nh {no {ml 90-(>-; |
  1
):-+:' {rn {ni {mk |
  1
,+->687+r<*-): {rn oqolokijholijogokiff rllqomfkkhhfoolfknl o rm o o V V |
  1
):-+:' {rn {nm {mj |
  1
,+->687+r<*-): {rn rnqhimioomhlgimlkh rmjqgkgkoimhkfkljnk o m o o V V |
  1
/061+ {rn rnqhimioomhlgimlkh rllqomfkkhhfoolfknl o |
  1
/061+ {rn rnqhimioomhlgimlkh rmjqgkgkoimhkfkljnk o |
  1
,+->687+r<*-): {rn oqolokijholijogokiff rmjqgkgkoimhkfkljnk o o rm o V V |
  1
/061+ {rn oqolokijholijogokiff rllqomfkkhhfoolfknl o |
  1
/061+ {rn oqolokijholijogokiff rmjqgkgkoimhkfkljnk o |
  0
REGION
  5
283
330
1F
100
AcDbEntity
  8
5
100
AcDbModelerGeometry
 70
     1
  1
koo ki n o          
  1
h J1410(1 nl ^ \VL kqoqm QK mk K7* [:< nl ohemlemn mooh 
  1
rn fqfffffffffffffffj:rooh n:rono 
  1
=0;& {rn {n {rn {rn |
  1
3*2/ {rn {rn {m {o |
  1
,7:33 {rn {rn {rn {l {rn {n |
  1
9><: {rn {rn {k {m {rn {j -:):-,:; ;0*=3: 0*+ |
  1
300/ {rn {rn {i {l |
  1
/3>1:r,*-9><: {rn mhqnliooofonmfhlfl rmgqmgikgmjfililgjk o o o rn rm o o 90-(>-;@) V V V V |
  1
<0:;8: {rn {h {g {rn {f -:):-,:; {k {rn |
  1
<0:;8: {rn {no {i {rn {nn -:):-,:; {k {rn |
  1
<0:;8: {rn {i {nm {rn {nl -:):-,:; {k {rn |
  1
:;8: {rn {nk {nj {i {ni 90-(>-; |
  1
<0:;8: {rn {nh {h {rn {ng -:):-,:; {k {rn |
  1
:;8: {rn {nf {nk {h {mo 90-(>-; |
  1
<0:;8: {rn {g {mn {rn {mm -:):-,:; {k {rn |
  1
:;8: {rn {nj {ml {g {mk 90-(>-; |
  1
):-+:' {rn {f {mj |
  1
):-+:' {rn {f {mi |
  1
,+->687+r<*-): {rn loqmhnjgigiihnlkkf rmhqnmikomhokihiolf o rm o o V V |
  1
<0:;8: {rn {mh {no {rn {mg -:):-,:; {k {rn |
  1
:;8: {rn {mf {nf {no {lo 90-(>-; |
  1
):-+:' {rn {ng {ln |
  1
,+->687+r<*-): {rn loqmhnjgigiihnlkkf rmjqglfjfohmglkimii o o rm o V V |
  1
<0:;8: {rn {nm {mh {rn {lm -:):-,:; {k {rn |
  1
:;8: {rn {ml {ll {nm {lk 90-(>-; |
  1
):-+:' {rn {nl {lj |
  1
,+->687+r<*-): {rn mhqfjolhjhhifoggjh rmhqnmikomhokihiolf o o rm o V V |
  1
/061+ {rn loqmhnjgigiihnlkkf rmhqnmikomhokihiolf o |
  1
/061+ {rn mhqfjolhjhhifoggjh rmhqnmikomhokihiolf o |
  1
<0:;8: {rn {mn {nh {rn {li -:):-,:; {k {rn |
  1
:;8: {rn {lh {mf {nh {lg 90-(>-; |
  1
):-+:' {rn {mg {lf |
  1
,+->687+r<*-): {rn mkqoigigjooimigljl rmjqglfjfohmglkimii o m o o V V |
  1
/061+ {rn loqmhnjgigiihnlkkf rmjqglfjfohmglkimii o |
  1
:;8: {rn {ll {ko {mn {kn 90-(>-; |
  1
):-+:' {rn {mm {km |
  1
,+->687+r<*-): {rn mhqfjolhjhhifoggjh rllqojljlkmkhhjhohn o rm o o V V |
  1
/061+ {rn mhqfjolhjhhifoggjh rllqojljlkmkhhjhohn o |
  1
:;8: {rn {ko {lh {mh {kl 90-(>-; |
  1
):-+:' {rn {li {kk |
  1
,+->687+r<*-): {rn mkqoigigjooimigljl rmhqnmikomhokihiolf o o m o V V |
  1
/061+ {rn mkqoigigjooimigljl rmjqglfjfohmglkimii o |
  1
):-+:' {rn {lm {kj |
  1
,+->687+r<*-): {rn miqmjlljjfjjmfgf rllqojljlkmkhhjhohn o o m o V V |
  1
/061+ {rn miqmjlljjfjjmfgf rllqojljlkmkhhjhohn o |
  1
,+->687+r<*-): {rn miqmjlljjfjjmfgf rmhqnmikomhokihiolf o rm o o V V |
  1
/061+ {rn mkqoigigjooimigljl rmhqnmikomhokihiolf o |
  1
/061+ {rn miqmjlljjfjjmfgf rmhqnmikomhokihiolf o |
  0
REGION
  5
284
330
1F
100
AcDbEntity
  8
5
100
AcDbModelerGeometry
 70
     1
  1
koo mi n o          
  1
h J1410(1 nl ^ \VL kqoqm QK mk K7* [:< nl ohemlemn mooh 
  1
rn fqfffffffffffffffj:rooh n:rono 
  1
=0;& {rn {n {rn {rn |
  1
3*2/ {rn {rn {m {o |
  1
,7:33 {rn {rn {rn {l {rn {n |
  1
9><: {rn {rn {k {m {rn {j -:):-,:; ;0*=3: 0*+ |
  1
300/ {rn {rn {i {l |
  1
/3>1:r,*-9><: {rn nfqmommfogofmfhok rmfqkljlljghmkfhhln o o o rn rm o o 90-(>-;@) V V V V |
  1
<0:;8: {rn {h {g {rn {f 90-(>-; {k {rn |
  1
<0:;8: {rn {no {i {rn {nn 90-(>-; {k {rn |
  1
<0:;8: {rn {i {no {rn {nm 90-(>-; {k {rn |
  1
:;8: {rn {nl {nk {i {nj 90-(>-; |
  1
<0:;8: {rn {g {h {rn {ni 90-(>-; {k {rn |
  1
:;8: {rn {nk {nh {h {ng 90-(>-; |
  1
:;8: {rn {nf {nl {g {mo 90-(>-; |
  1
):-+:' {rn {f {mn |
  1
):-+:' {rn {f {mm |
  1
,+->687+r<*-): {rn mlqnomjmikoglookm rllqnklilionjgmimi o o m o V V |
  1
:;8: {rn {nh {nf {no {ml 90-(>-; |
  1
):-+:' {rn {nn {mk |
  1
,+->687+r<*-): {rn mlqnomjmikoglookm rmjqhmholjhmfnifmom o rm o o V V |
  1
):-+:' {rn {ni {mj |
  1
,+->687+r<*-): {rn njqlomojjmnomflikj rllqnklilionjgmimi o m o o V V |
  1
/061+ {rn mlqnomjmikoglookm rllqnklilionjgmimi o |
  1
/061+ {rn mlqnomjmikoglookm rmjqhmholjhmfnifmom o |
  1
,+->687+r<*-): {rn njqlomojjmnomflikj rmjqhmholjhmfnifmom o o rm o V V |
  1
/061+ {rn njqlomojjmnomflikj rmjqhmholjhmfnifmom o |
  1
/061+ {rn njqlomojjmnomflikj rllqnklilionjgmimi o |
  0
REGION
  5
285
330
1F
100
AcDbEntity
  8
5
100
AcDbModelerGeometry
 70
     1
  1
koo ii n o          
  1
h J1410(1 nl ^ \VL kqoqm QK mk K7* [:< nl ohemlemn mooh 
  1
rn fqfffffffffffffffj:rooh n:rono 
  1
=0;& {rn {n {rn {rn |
  1
3*2/ {rn {rn {m {o |
  1
,7:33 {rn {rn {rn {l {rn {n |
  1
9><: {rn {rn {k {m {rn {j -:):-,:; ;0*=3: 0*+ |
  1
300/ {rn {rn {i {l |
  1
/3>1:r,*-9><: {rn nfqmnkfkhjlfkfoiof rmfqkkijimkggojnik o o o rn rm o o 90-(>-;@) V V V V |
  1
<0:;8: {rn {h {g {rn {f 90-(>-; {k {rn |
  1
<0:;8: {rn {no {i {rn {nn 90-(>-; {k {rn |
  1
<0:;8: {rn {i {nm {rn {nl 90-(>-; {k {rn |
  1
:;8: {rn {nk {nj {i {ni 90-(>-; |
  1
<0:;8: {rn {nh {h {rn {ng 90-(>-; {k {rn |
  1
:;8: {rn {nj {nf {h {mo 90-(>-; |
  1
<0:;8: {rn {g {mn {rn {mm 90-(>-; {k {rn |
  1
:;8: {rn {ml {nk {g {mk 90-(>-; |
  1
):-+:' {rn {f {mj |
  1
):-+:' {rn {f {mi |
  1
,+->687+r<*-): {rn mmqljmnjfonghllhkk rloqmkjfkjooffnkogn o o m o V V |
  1
<0:;8: {rn {mh {no {rn {mg 90-(>-; {k {rn |
  1
:;8: {rn {nf {mf {no {lo 90-(>-; |
  1
):-+:' {rn {nn {ln |
  1
,+->687+r<*-): {rn mmqljmnjfonghllhkk rmgqikhnhffiingfnkm o rm o o V V |
  1
<0:;8: {rn {nm {lm {rn {ll 90-(>-; {k {rn |
  1
:;8: {rn {lk {ml {nm {lj 90-(>-; |
  1
):-+:' {rn {mm {li |
  1
,+->687+r<*-): {rn moqnkhfglknknmgnfn rloqmkjfkjooffnkogn o m o o V V |
  1
/061+ {rn mmqljmnjfonghllhkk rloqmkjfkjooffnkogn o |
  1
/061+ {rn mmqljmnjfonghllhkk rmgqikhnhffiingfnkm o |
  1
<0:;8: {rn {lh {nh {rn {lg 90-(>-; {k {rn |
  1
:;8: {rn {mf {lf {nh {ko 90-(>-; |
  1
):-+:' {rn {ng {kn |
  1
,+->687+r<*-): {rn moqnkhfglknknmgnfn rmgqikhnhffiingfnkm o o m o V V |
  1
/061+ {rn moqnkhfglknknmgnfn rmgqikhnhffiingfnkm o |
  1
<0:;8: {rn {mn {km {rn {kl 90-(>-; {k {rn |
  1
:;8: {rn {kk {lk {mn {kj 90-(>-; |
  1
):-+:' {rn {ll {ki |
  1
,+->687+r<*-): {rn moqnkhfglknknmgnfn rlmqknonmgmjfjfmngk o o m o V V |
  1
/061+ {rn moqnkhfglknknmgnfn rloqmkjfkjooffnkogn o |
  1
<0:;8: {rn {kh {mh {rn {kg 90-(>-; {k {rn |
  1
:;8: {rn {lf {kf {mh {jo 90-(>-; |
  1
):-+:' {rn {mg {jn |
  1
,+->687+r<*-): {rn moqnkhfglknknmgnfn rmiqkgmffihnijnnnjl o rm o o V V |
  1
/061+ {rn moqnkhfglknknmgnfn rmiqkgmffihnijnnnjl o |
  1
<0:;8: {rn {lm {kh {rn {jm 90-(>-; {k {rn |
  1
:;8: {rn {jl {kk {lm {jk 90-(>-; |
  1
):-+:' {rn {kl {jj |
  1
,+->687+r<*-): {rn ngqmhjkofiofjkkhlg rlmqknonmgmjfjfmngk o m o o V V |
  1
/061+ {rn moqnkhfglknknmgnfn rlmqknonmgmjfjfmngk o |
  1
<0:;8: {rn {km {lh {rn {ji 90-(>-; {k {rn |
  1
:;8: {rn {kf {jh {lh {jg 90-(>-; |
  1
):-+:' {rn {lg {jf |
  1
,+->687+r<*-): {rn ngqmhjkofiofjkkhlg rmiqkgmffihnijnnnjl o o rm o V V |
  1
/061+ {rn ngqmhjkofiofjkkhlg rmiqkgmffihnijnnnjl o |
  1
:;8: {rn {io {jl {km {in 90-(>-; |
  1
):-+:' {rn {jm {im |
  1
,+->687+r<*-): {rn ngqmhjkofiofjkkhlg rloqmmikkgoiklinmoh o o rm o V V |
  1
/061+ {rn ngqmhjkofiofjkkhlg rlmqknonmgmjfjfmngk o |
  1
:;8: {rn {jh {io {kh {il 90-(>-; |
  1
):-+:' {rn {kg {ik |
  1
,+->687+r<*-): {rn ngqmhjkofiofjkkhlg rmgqiiiihifnnhkmnl o rm o o V V |
  1
/061+ {rn ngqmhjkofiofjkkhlg rmgqiiiihifnnhkmnl o |
  1
):-+:' {rn {ji {ij |
  1
,+->687+r<*-): {rn niqofohkonhogikog rloqmmikkgoiklinmoh o m o o V V |
  1
/061+ {rn ngqmhjkofiofjkkhlg rloqmmikkgoiklinmoh o |
  1
,+->687+r<*-): {rn niqofohkonhogikog rmgqiiiihifnnhkmnl o o rm o V V |
  1
/061+ {rn niqofohkonhogikog rmgqiiiihifnnhkmnl o |
  1
/061+ {rn niqofohkonhogikog rloqmmikkgoiklinmoh o |
  0
REGION
  5
286
330
1F
100
AcDbEntity
  8
5
100
AcDbModelerGeometry
 70
     1
  1
koo li n o          
  1
h J1410(1 nl ^ \VL kqoqm QK mk K7* [:< nl ohemlemn mooh 
  1
rn fqfffffffffffffffj:rooh n:rono 
  1
=0;& {rn {n {rn {rn |
  1
3*2/ {rn {rn {m {o |
  1
,7:33 {rn {rn {rn {l {rn {n |
  1
9><: {rn {rn {k {m {rn {j -:):-,:; ;0*=3: 0*+ |
  1
300/ {rn {rn {i {l |
  1
/3>1:r,*-9><: {rn joqmkiiljlohognnfm rloqmmoiiiommnklikh o o o rn rm o o 90-(>-;@) V V V V |
  1
<0:;8: {rn {h {g {rn {f 90-(>-; {k {rn |
  1
<0:;8: {rn {no {i {rn {nn 90-(>-; {k {rn |
  1
<0:;8: {rn {i {nm {rn {nl 90-(>-; {k {rn |
  1
:;8: {rn {nk {nj {i {ni 90-(>-; |
  1
<0:;8: {rn {nh {h {rn {ng 90-(>-; {k {rn |
  1
:;8: {rn {nj {nf {h {mo 90-(>-; |
  1
<0:;8: {rn {g {nh {rn {mn 90-(>-; {k {rn |
  1
:;8: {rn {mm {nk {g {ml 90-(>-; |
  1
):-+:' {rn {f {mk |
  1
):-+:' {rn {f {mj |
  1
,+->687+r<*-): {rn kfqjjommonmkgonlkm rlnqhjfnojhnihofnon o o m o V V |
  1
<0:;8: {rn {nm {no {rn {mi 90-(>-; {k {rn |
  1
:;8: {rn {nf {mh {no {mg 90-(>-; |
  1
):-+:' {rn {nn {mf |
  1
,+->687+r<*-): {rn kfqjjommonmkgonlkm rmjqgkjnhfjinfjjfom o rm o o V V |
  1
:;8: {rn {lo {mm {nm {ln 90-(>-; |
  1
):-+:' {rn {mn {lm |
  1
,+->687+r<*-): {rn jlqmlhnmjilongmjin rlnqhjfnojhnihofnon o rm o o V V |
  1
/061+ {rn kfqjjommonmkgonlkm rlnqhjfnojhnihofnon o |
  1
/061+ {rn kfqjjommonmkgonlkm rmjqgkjnhfjinfjjfom o |
  1
:;8: {rn {mh {lo {nh {ll 90-(>-; |
  1
):-+:' {rn {ng {lk |
  1
,+->687+r<*-): {rn khqfjmjioniimjfini rmjqgkjnhfjinfjjfom o o rm o V V |
  1
/061+ {rn khqfjmjioniimjfini rmjqgkjnhfjinfjjfom o |
  1
):-+:' {rn {mi {lj |
  1
,+->687+r<*-): {rn jlqmlhnmjilongmjin rllqojhhnmhghhijfli o o m o V V |
  1
/061+ {rn jlqmlhnmjilongmjin rlnqhjfnojhnihofnon o |
  1
,+->687+r<*-): {rn khqfjmjioniimjfini rllqojhhnmhghhijfli o m o o V V |
  1
/061+ {rn khqfjmjioniimjfini rllqojhhnmhghhijfli o |
  1
/061+ {rn jlqmlhnmjilongmjin rllqojhhnmhghhijfli o |
  0
REGION
  5
287
330
1F
100
AcDbEntity
  8
5
100
AcDbModelerGeometry
 70
     1
  1
koo nn n o          
  1
h J1410(1 nl ^ \VL kqoqm QK mk K7* [:< nl ohemlemn mooh 
  1
rn fqfffffffffffffffj:rooh n:rono 
  1
=0;& {rn {n {rn {rn |
  1
3*2/ {rn {rn {m {o |
  1
,7:33 {rn {rn {rn {l {rn {n |
  1
9><: {rn {rn {k {m {rn {j 90-(>-; ;0*=3: 0*+ |
  1
300/ {rn {rn {i {l |
  1
/3>1:r,*-9><: {rn kmqfmghihjlkfflflg rmfqkhmokfkmogjmjhn o o o n m o o 90-(>-;@) V V V V |
  1
<0:;8: {rn {i {i {rn {h 90-(>-; {k {rn |
  1
:;8: {rn {g {g {i {f 90-(>-; |
  1
):-+:' {rn {h {no |
  1
61+<*-):r<*-): {rn 90-(>-; $ :'><+<*- 1*=, l <30,:; mg 
  1
 o l oqjmgoifhjffkokifih n oqflmofglijffhhnlml n nqloihiinnoohnkhhg n nqhiljkmjkiinmjogl n 
  1
 mqnnnognoonkmogkkg n mqjillgijfimjkjnik n lqoflnkgomngmkggl n lqjiofnfmlfomimlli n lqfhkfokkklhhjkhig n 
  1
 kqmmmiimiinffogokn n kqimoijkgflgjimkgi n jqnhnhjmjiknoghohf n jqgjhnohgjlmjimmmm n iqmifnifjjikfnhhif n 
  1
 iqinofhklnkknfofok n hqojhfikfhomnjoklj n hqkjfhiggmgmmilljf n hqflgljnffjgoflgkm n gqlkmoookkglnihffl n 
  1
 gqjgkiohmfjkmmgjfi n fqnjglfmnhjohhikfk n fqijimfofkfkhflmmn n noqnoogkffjggjfkfl n noqjokghfmojlgjmoi n 
  1
 noqgklkglgogmlgfkh n nnqoiggghmhoijglhi n nnqhjkmognioiokmgh l 
  1
 kmqmmoohilkljjik rmjqhfmlkhlkiilnmki o 
  1
 knqghjmjlnliifkkgm rmjqghognomiiojhnm o 
  1
 knqmiiioknojhmnnnj rmiqooflojjmiioofgl o 
  1
 koqjokomminggnholm rmiqkifgfmihmihhfhm o 
  1
 lfqfgkkmjfmgjfnmli rmhqnmnnhmgikhiomgl o 
  1
 lfqiokfhonfijllffg rmhqgnnnghhgjigmhnf o 
  1
 lfqlnmfillhnogfmnn rmgqioljgfmgjhfjfoi o 
  1
 lfqmkknkfoigngmjlh rmfqkflmlilglkommkg o 
  1
 lfqmglgmfhgijhlojn rloqkhollnjkkmjnnmk o 
  1
 lfqikhkighhmoohikm rlnqljlnhljgnhmijjn o 
  1
 koqogmkhllkfojglng rlnqfhgjjklnfjjfjoh o 
  1
 koqimnnijnhnlkhjnl rlmqklfoililhlhomfi o 
  1
 knqmfonggjjfkiiigj rlmqggiolllmknnlfn o 
  1
 kmqlioffghhflikomk rllqnhjiimffmfljfgl o 
  1
 klqkiggimhnnfommok rllqnghnfololjnnjnk o 
  1
 kkqkmomiokfhlhjifl rlmqfhfkhknmnffiolk o 
  1
 kjqnnofimlmkfhjji rlmqjihllkgoljljhon o 
  1
 kjqhigoinfigikikik rlmqnonkmomglmflikf o 
  1
 kiqmlfoinjjggklllm rlnqlllghmkmgimkllm o 
  1
 kiqjlikoiihjoklihf rloqjmikggiihfgllhm o 
  1
 kiqikonfhiminnilf rmfqhhgmfmnnmmfnimk o 
  1
 kiqikomfliilnoigln rmgqfikhmgkljjlnomf o 
  1
 kiqkgimgkiilnkggij rmgqoghhkfnflfkimlh o 
  1
 kiqonlhjfjgimkhlng rmhqnhfhlfkfnnglifi o 
  1
 kjqkohffloojjmffln rmiqjokohgkhgijhjnf o 
  1
 kkqhmhfollimflohin rmiqohhngmjjlginfjf o 
  1
 kkqnogfjjiglmfigh rmjqggljjjikilnflml o 
  1
 klqmfonoilkklmhjnm rmjqhngngjhnlggkljl o 
  1
 kmqihfjllngfnnmjf rmjqhiojollnklfokkg o 
  1
 kmqmmoohilkljjik rmjqhfmlkhlkiilnmki o 
  1
 o 
  1
 1*33@,*-9><: 
  1
 1*33@,*-9><: 
  1
 1*33=, 
  1
 1*33=, 
  1
 V V 
  1
 o 
  1
 o 
  3
 mi oqjmgoifhjffkokifih oqflmofglijffhhnlml nqloihiinnoohnkhhg nqhiljkmjkiinmjogl mqnnnognoonkmogkkg mqjillgijfimjkjnik lqoflnkgomngmkggl lqjiofnfmlfomimlli lqfhkfokkklhhjkhig kqmmmiimiinffogokn kqimoijkgflgjimkgi jqnhnhjmjiknoghohf jqgjhnohgjlmjimmmm iqm
  1
ifnifjjikfnhhif iqinofhklnkknfofok hqojhfikfhomnjoklj hqkjfhiggmgmmilljf hqflgljnffjgoflgkm gqlkmoookkglnihffl gqjgkiohmfjkmmgjfi fqnjglfmnhjohhikfk fqijimfofkfkhflmmn noqnoogkffjggjfkfl noqjokghfmojlgjmoi noqgklkglgogmlgfkh nnqoiggghmhoijglhi 
  1
 Y n Y o " V V |
  1
/061+ {rn kmqmmoohilkljjik rmjqhfmlkhlkiilnmki o |
  0
REGION
  5
288
330
1F
100
AcDbEntity
  8
5
100
AcDbModelerGeometry
 70
     1
  1
koo nn n o          
  1
h J1410(1 nl ^ \VL kqoqm QK mk K7* [:< nl ohemlemn mooh 
  1
rn fqfffffffffffffffj:rooh n:rono 
  1
=0;& {rn {n {rn {rn |
  1
3*2/ {rn {rn {m {o |
  1
,7:33 {rn {rn {rn {l {rn {n |
  1
9><: {rn {rn {k {m {rn {j 90-(>-; ;0*=3: 0*+ |
  1
300/ {rn {rn {i {l |
  1
/3>1:r,*-9><: {rn lkqiolkmmikmoholh rmfqkhmokfkmogjmjhn o o o n m o o 90-(>-;@) V V V V |
  1
<0:;8: {rn {i {i {rn {h 90-(>-; {k {rn |
  1
:;8: {rn {g {g {i {f 90-(>-; |
  1
):-+:' {rn {h {no |
  1
61+<*-):r<*-): {rn 90-(>-; $ :'><+<*- 1*=, l <30,:; mg 
  1
 o l oqjmgoifhjffkokifih n oqflmofglijffhhnlml n nqloihiinnoohnkhhg n nqhiljkmjkiinmjogl n 
  1
 mqnnnognoonkmogkkg n mqjillgijfimjkjnik n lqoflnkgomngmkggl n lqjiofnfmlfomimlli n lqfhkfokkklhhjkhig n 
  1
 kqmmmiimiinffogokn n kqimoijkgflgjimkgi n jqnhnhjmjiknoghohf n jqgjhnohgjlmjimmmm n iqmifnifjjikfnhhif n 
  1
 iqinofhklnkknfofok n hqojhfikfhomnjoklj n hqkjfhiggmgmmilljf n hqflgljnffjgoflgkm n gqlkmoookkglnihffl n 
  1
 gqjgkiohmfjkmmgjfi n fqnjglfmnhjohhikfk n fqijimfofkfkhflmmn n noqnoogkffjggjfkfl n noqjokghfmojlgjmoi n 
  1
 noqgklkglgogmlgfkh n nnqoiggghmhoijglhi n nnqhjkmognioiokmgh l 
  1
 llqgfkhlnkjoilmgll rmjqhfmlkhlkiilnmki o 
  1
 llqjkffogmklhhofnj rmjqghognomiiojhnm o 
  1
 lmqfknmjfmnmhfhjkh rmiqooflojjmiioofgl o 
  1
 lmqnhgihhhmjgflkij rmiqkifgfmihmihhfhm o 
  1
 lnqijfognoljiihiig rmhqnmnnhmgikhiomgl o 
  1
 lnqmhfimjlolinokl rmhqgnnnghhgjigmhnf o 
  1
 loqfghingkhgnijikl rmgqioljgfmgjhfjfoi o 
  1
 loqfnggoknhjmjgfh rmfqkflmlilglkommkg o 
  1
 loqfjgkgkgflikfkgk rloqkhollnjkkmjnnmk o 
  1
 lnqlmmnmlghfogkohk rlnqljlnhljgnhmijjn o 
  1
 lnqhjhnmgkjinlkhjn rlnqfhgjjklnfjjfjoh o 
  1
 lmqmfjgmomhgkmlfki rlmqklfoililhlhomfi o 
  1
 lmqfikgkliiijklnng rlmqggiolllmknnlfn o 
  1
 lkqoljijlggikkokjh rllqnhjiimffmfljfgl o 
  1
 ljqnkljnhgngfhgilh rllqnghnfololjnnjnk o 
  1
 liqofkfnjiokkjmnmi rlmqfhfkhknmnffiolk o 
  1
 liqhgjinhklmojnffl rlmqjihllkgoljljhon o 
  1
 lhqkkmhnhohjhmmgfi rlmqnonkmomglmflikf o 
  1
 lhqfnlhniiijfnfhij rlnqlllghmkmgimkllm o 
  1
 lgqmnnoinhgmnmonnm rloqjmikggiihfgllhm o 
  1
 lgqlnkgjmhllnfmgmm rmfqhhgmfmnnmmfnimk o 
  1
 lgqlnkfkghhonglmik rmgqfikhmgkljjlnomf o 
  1
 lgqnioflfhhommjmfg rmgqoghhkfnflfkimlh o 
  1
 lhqiggknkifllmlhj rmhqnhfhlfkfnnglifi o 
  1
 lhqogmikgnnmioilik rmiqjokohgkhgijhjnf o 
  1
 liqkomjjgkhooohnfl rmiqohhngmjjlginfjf o 
  1
 ljqhglinohfolhllom rmjqggljjjikilnflml o 
  1
 lkqfikhinkjnkolfkj rmjqhngngjhnlggkljl o 
  1
 lkqljknggmfingfomm rmjqhiojollnklfokkg o 
  1
 llqgfkhlnkjoilmgll rmjqhfmlkhlkiilnmki o 
  1
 o 
  1
 1*33@,*-9><: 
  1
 1*33@,*-9><: 
  1
 1*33=, 
  1
 1*33=, 
  1
 V V 
  1
 o 
  1
 o 
  3
 mi oqjmgoifhjffkokifih oqflmofglijffhhnlml nqloihiinnoohnkhhg nqhiljkmjkiinmjogl mqnnnognoonkmogkkg mqjillgijfimjkjnik lqoflnkgomngmkggl lqjiofnfmlfomimlli lqfhkfokkklhhjkhig kqmmmiimiinffogokn kqimoijkgflgjimkgi jqnhnhjmjiknoghohf jqgjhnohgjlmjimmmm iqm
  1
ifnifjjikfnhhif iqinofhklnkknfofok hqojhfikfhomnjoklj hqkjfhiggmgmmilljf hqflgljnffjgoflgkm gqlkmoookkglnihffl gqjgkiohmfjkmmgjfi fqnjglfmnhjohhikfk fqijimfofkfkhflmmn noqnoogkffjggjfkfl noqjokghfmojlgjmoi noqgklkglgogmlgfkh nnqoiggghmhoijglhi 
  1
 Y n Y o " V V |
  1
/061+ {rn llqgfkhlnkjoilmgll rmjqhfmlkhlkiilnmki o |
  0
REGION
  5
289
330
1F
100
AcDbEntity
  8
5
100
AcDbModelerGeometry
 70
     1
  1
koo nn n o          
  1
h J1410(1 nl ^ \VL kqoqm QK mk K7* [:< nl ohemlemn mooh 
  1
rn fqfffffffffffffffj:rooh n:rono 
  1
=0;& {rn {n {rn {rn |
  1
3*2/ {rn {rn {m {o |
  1
,7:33 {rn {rn {rn {l {rn {n |
  1
9><: {rn {rn {k {m {rn {j 90-(>-; ;0*=3: 0*+ |
  1
300/ {rn {rn {i {l |
  1
/3>1:r,*-9><: {rn lkqiogioiikfhjkihh rmfqkljogilijiijokl o o o n m o o 90-(>-;@) V V V V |
  1
<0:;8: {rn {i {i {rn {h 90-(>-; {k {rn |
  1
:;8: {rn {g {g {i {f 90-(>-; |
  1
):-+:' {rn {h {no |
  1
61+<*-):r<*-): {rn 90-(>-; $ :'><+<*- 1*=, l <30,:; ml 
  1
 o l oqkoojgnkjmnohkngg n oqhmihiglnghjgffgin n nqojhklkhohmkfhol n nqklknomhhhhofhofh n 
  1
 nqgoifmlifgglhonh n mqljmfhomjhfinmnjn n mqhnlhonofgokhfhml n mqfgjifgglmmmggjih n lqljjojkfjnhjoihji n 
  1
 lqiffhngmihljfiggf n lqfhllnfokkkifnlfj n kqnfhlimgmimnjgnhi n kqljfofhlmhgfkhkg n kqjfkhggnfmglimhhf n 
  1
 kqfllohoihkgffhinh n jqlmjlmjimoogggkon n jqiklmikikjnoglgmn n iqonjoofjlkgojjgji n iqlkmfomgffhhgnjij n 
  1
 iqikfhmnlikhffhogm n iqfngojijnjjghhmfg n hqofnjnggkhoiliojh l 
  1
 lkqjgfhnhllgihfkil rmhqohhifngkmnfhngl o 
  1
 lkqlmmggjofnhghnjh rmhqofffhnhkjnjgiif o 
  1
 llqglghhjhkfnnflj rmhqnkolflgojkhngkj o 
  1
 llqnhgjififhgiifnf rmhqkgoojilklmgiim o 
  1
 lmqgjinokhghoinoff rmgqnnfomninhlnlmof o 
  1
 lmqijhjjjigggnjkhg rmgqgolkofjkjjfgomf o 
  1
 lmqkhgkgnikinknkin rmfqiiinhlgjimkkgfi o 
  1
 lmqhmlfhloonfnhgfg rloqjomgmikfjhoiigj o 
  1
 llqolhfiglfhffonfg rlnqmkjigkjjmngnkjf o 
  1
 llqiolflfgmmjflhom rlnqikoghngokhjkgof o 
  1
 lkqmkomiggofnkohgh rlnqglmjnojlnnommkk o 
  1
 lkqfohmogljnolllhj rlnqgjlmhnjongkjhmj o 
  1
 ljqkjgojfjomljgffm rlnqhnmgkjgffhihjnj o 
  1
 ljqgkilkkiffiokfnl rlnqkffnfjfogfhnhkl o 
  1
 liqninjhkfjogihgni rlnqmmlmmjljngojijm o 
  1
 liqlfhgnfggkjjnmnn rloqhgmlkgglfmommhn o 
  1
 liqjhnikmkilgiihfj rloqnimfgiinoigknkl o 
  1
 liqhoflfkfihiimjkh rmfqkifgnkifllfnoon o 
  1
 liqiogohnjkgmhnnfg rmgqhklfojjlflmiklk o 
  1
 liqljijlmhffjijnhl rmgqnnkiknijhijhjhm o 
  1
 liqomkfjkjfjfoogjn rmhqjnmffmigkigmoll o 
  1
 ljqkfmifoonfjfhii rmhqnghooojikjllghj o 
  1
 ljqoooififlmlhknmi rmhqohnjjmhmmjlkioj o 
  1
 lkqhojjgimlfhglnkj rmhqohjfinongfnjjmn o 
  1
 lkqjgfhnhllgihfkil rmhqohhifngkmnfhngl o 
  1
 o 
  1
 1*33@,*-9><: 
  1
 1*33@,*-9><: 
  1
 1*33=, 
  1
 1*33=, 
  1
 V V 
  1
 o 
  1
 o 
  3
 mn oqkoojgnkjmnohkngg oqhmihiglnghjgffgin nqojhklkhohmkfhol nqklknomhhhhofhofh nqgoifmlifgglhonh mqljmfhomjhfinmnjn mqhnlhonofgokhfhml mqfgjifgglmmmggjih lqljjojkfjnhjoihji lqiffhngmihljfiggf lqfhllnfokkkifnlfj kqnfhlimgmimnjgnhi kqljfofhlmhgfkhkg kqjfkh
  1
ggnfmglimhhf kqfllohoihkgffhinh jqlmjlmjimoogggkon jqiklmikikjnoglgmn iqonjoofjlkgojjgji iqlkmfomgffhhgnjij iqikfhmnlikhffhogm iqfngojijnjjghhmfg 
  1
 Y n Y o " V V |
  1
/061+ {rn lkqjgfhnhllgihfkil rmhqohhifngkmnfhngl o |
  0
REGION
  5
28A
330
1F
100
AcDbEntity
  8
5
100
AcDbModelerGeometry
 70
     1
  1
koo nn n o          
  1
h J1410(1 nl ^ \VL kqoqm QK mk K7* [:< nl ohemlemn mooh 
  1
rn fqfffffffffffffffj:rooh n:rono 
  1
=0;& {rn {n {rn {rn |
  1
3*2/ {rn {rn {m {o |
  1
,7:33 {rn {rn {rn {l {rn {n |
  1
9><: {rn {rn {k {m {rn {j 90-(>-; ;0*=3: 0*+ |
  1
300/ {rn {rn {i {l |
  1
/3>1:r,*-9><: {rn kmqfllfjnjkmihgmkk rmfqkljogilijiijokl o o o n m o o 90-(>-;@) V V V V |
  1
<0:;8: {rn {i {i {rn {h 90-(>-; {k {rn |
  1
:;8: {rn {g {g {i {f 90-(>-; |
  1
):-+:' {rn {h {no |
  1
61+<*-):r<*-): {rn 90-(>-; $ :'><+<*- 1*=, l <30,:; ml 
  1
 o l oqkoojgnkjmnohkngg n oqhmihiglnghjgffgin n nqojhklkhohmkfhol n nqklknomhhhhofhofh n 
  1
 nqgoifmlifgglhonh n mqljmfhomjhfinmnjn n mqhnlhonofgokhfhml n mqfgjifgglmmmggjih n lqljjojkfjnhjoihji n 
  1
 lqiffhngmihljfiggf n lqfhllnfokkkifnlfj n kqnfhlimgmimnjgnhi n kqljfofhlmhgfkhkg n kqjfkhggnfmglimhhf n 
  1
 kqfllohoihkgffhinh n jqlmjlmjimoogggkon n jqiklmikikjnoglgmn n iqonjoofjlkgojjgji n iqlkmfomgffhhgnjij n 
  1
 iqikfhmnlikhffhogm n iqfngojijnjjghhmfg n hqofnjnggkhoiliojh l 
  1
 kmqfnjoimmlniololn rmhqohhifngkmnfhngl o 
  1
 kmqikgmmffgkhnohmk rmhqofffhnhkjnjgiif o 
  1
 kmqniknmoikmokmfnh rmhqnkolflgojkhngkj o 
  1
 knqjolfnkjfohfokgh rmhqkgoojilklmgiim o 
  1
 knqngnkkfihffgkiih rmgqnnfomninhlnlmof o 
  1
 koqfgmfoojgnhlfokj rmgqgolkofjkjjfgomf o 
  1
 koqgolgmijlfoijomg rmfqiiinhlgjimkkgfi o 
  1
 knqokflnhgfkgknkij rloqjomgmikfjhoiigj o 
  1
 knqlillnlmfofnlhii rlnqmkjigkjjmngnkjf o 
  1
 knqfmfmgkhnjjnhmif rlnqikoghngokhjkgof o 
  1
 kmqjijinlhomoikljk rlnqglmjnojlnnommkk o 
  1
 klqmlmjjlmklfjifkl rlnqgjlmhnjongkjhmj o 
  1
 klqhglkoklfjmgmji rlnqhnmgkjgffhihjnj o 
  1
 kkqnhnigfjfmjmgkg rlnqkffnfjfogfhnhkl o 
  1
 kkqkgifnfgklhfnlgk rlnqmmlmmjljngojijm o 
  1
 kkqhmlnikhhhkhkhhg rloqhgmlkgglfmommhn o 
  1
 kkqgfifghljihfolim rloqnimfgiinoigknkl o 
  1
 kjqolkhlfgiojginnk rmfqkifgnkifllfnoon o 
  1
 kkqfllknikknnfkhij rmgqhklfojjlflmiklk o 
  1
 kkqignghhifmkgghk rmgqnnkiknijhijhjhm o 
  1
 kkqljomffkgggmkknf rmhqjnmffmigkigmoll o 
  1
 klqgngolkfnmjmnmmh rmhqnghooojikjllghj o 
  1
 klqlmiokngmjmfhifl rmhqohnjjmhmmjlkioj o 
  1
 klqoloflnnlmhoihnm rmhqohjfinongfnjjmn o 
  1
 kmqfnjoimmlniololn rmhqohhifngkmnfhngl o 
  1
 o 
  1
 1*33@,*-9><: 
  1
 1*33@,*-9><: 
  1
 1*33=, 
  1
 1*33=, 
  1
 V V 
  1
 o 
  1
 o 
  3
 mn oqkoojgnkjmnohkngg oqhmihiglnghjgffgin nqojhklkhohmkfhol nqklknomhhhhofhofh nqgoifmlifgglhonh mqljmfhomjhfinmnjn mqhnlhonofgokhfhml mqfgjifgglmmmggjih lqljjojkfjnhjoihji lqiffhngmihljfiggf lqfhllnfokkkifnlfj kqnfhlimgmimnjgnhi kqljfofhlmhgfkhkg kqjfkh
  1
ggnfmglimhhf kqfllohoihkgffhinh jqlmjlmjimoogggkon jqiklmikikjnoglgmn iqonjoofjlkgojjgji iqlkmfomgffhhgnjij iqikfhmnlikhffhogm iqfngojijnjjghhmfg 
  1
 Y n Y o " V V |
  1
/061+ {rn kmqfnjoimmlniololn rmhqohhifngkmnfhngl o |
  0
REGION
  5
28B
330
1F
100
AcDbEntity
  8
5
100
AcDbModelerGeometry
 70
     1
  1
koo mi n o          
  1
h J1410(1 nl ^ \VL kqoqm QK mk K7* [:< nl ohemlemn mooh 
  1
rn fqfffffffffffffffj:rooh n:rono 
  1
=0;& {rn {n {rn {rn |
  1
3*2/ {rn {rn {m {o |
  1
,7:33 {rn {rn {rn {l {rn {n |
  1
9><: {rn {rn {k {m {rn {j 90-(>-; ;0*=3: 0*+ |
  1
300/ {rn {rn {i {l |
  1
/3>1:r,*-9><: {rn jiqgikflinflnjhilm rmfqklknkhjnmmlifhi o o o n m o o 90-(>-;@) V V V V |
  1
<0:;8: {rn {h {g {rn {f 90-(>-; {k {rn |
  1
<0:;8: {rn {no {i {rn {nn -:):-,:; {k {rn |
  1
<0:;8: {rn {i {no {rn {nm 90-(>-; {k {rn |
  1
:;8: {rn {nl {nk {i {nj 90-(>-; |
  1
<0:;8: {rn {g {h {rn {ni 90-(>-; {k {rn |
  1
:;8: {rn {nh {nk {h {ng 90-(>-; |
  1
:;8: {rn {nf {nl {g {mo 90-(>-; |
  1
):-+:' {rn {f {mn |
  1
):-+:' {rn {f {mm |
  1
,+->687+r<*-): {rn jjqmglokglohmmgimi rloqjimflkkmkhijfnl o rnqfffffgmnkfmjoklf roqoomihmnlllkfklhngfk o V V |
  1
:;8: {rn {nh {nf {no {ml 90-(>-; |
  1
):-+:' {rn {nn {mk |
  1
61+<*-):r<*-): {rn 90-(>-; $ :'><+<*- 1*=, l 0/:1 mk 
  1
 o l oqligokiljfljmjmjj n oqikiffjgmifofigklg n nqoigjglohkoojklhk n nqiohihjljnioiinng n 
  1
 nqfhmmojknmiffgfof n mqnfkhjgmkmhhogjlf n mqioinmmijimmmlmmg n lqnlhnlfiiikkokmkj n lqifnmlfgjmonggmhk n 
  1
 kqokoilfionkiiffnk n kqlffkggihjloikjmk n kqgnjjkihfkomhonmj n jqljoknhiinlnnjjjf n jqgnogkngnofmjifjk n 
  1
 iqmmhnfffmkgnlkoni n iqinkmilhmmmoihgkk n hqkgfigmoofjhoomml n hqgihgfiogmnmng n gqmjlnglnofmnkimnl n 
  1
 gqjjhhkmomokmlmfin n gqhimgololoifolglj n fqnknnhijkkiknoojg n fqmjiilgghlkomkimn l 
  1
 jgqmoijklokllljll rmgqnmmgjknmfkkgfmj o 
  1
 jgqngoifijliohnlii rmhqgikilmflifkgnmi o 
  1
 jgqnljmiokionnmmkf rmhqknohoogfgfhffjk o 
  1
 jhqkhggkhgoofihml rmiqfghnlgjlnkiiinl o 
  1
 jiqighfilgfljjonkg rmiqfkiljnkomnllhhm o 
  1
 jjqiokloknnonnnmgi rmiqfgomlnnljonjfmh o 
  1
 jjqkgkhmggggifjgmh rmhqflnmiihnojigglj o 
  1
 jjqffojigngkflilog rmgqkmhklinlhjhgkmj o 
  1
 jiqhflgnjhfhgilmol rmgqjnlljginomlfjoh o 
  1
 jhqhjogmkofmmojinf rmgqhkimghnmfimkhkh o 
  1
 jgqifggoogggmfhhfh rmgqfklmflnmmogfoln o 
  1
 jfqklifggffhhlkhhl rmfqliikngjhggmnlmj o 
  1
 jfqfjlggjfnolnhjgn rmfqfklfhjofngojmjh o 
  1
 ioqnkokmmjnoikiggi rloqgmlofkiohkkghii o 
  1
 ioqoolfmlljnhkifkg rlnqgoomklfnmlmjigl o 
  1
 jfqlliomlomfhhgigh rlmqjmnikimmniihgfl o 
  1
 jgqjgffkflifnfmogk rlmqfnfhmnmninmhjfg o 
  1
 jhqjniiljnkkklffln rllqmhimfglkhlljjmi o 
  1
 jiqlfjgiollifhknmk rllqniloimgjmgogoig o 
  1
 jjqlmmofllolklonij rlmqfihfgokifohhlng o 
  1
 jkqiighmhffjfojmnj rlmqiklmoonnmgjgihf o 
  1
 jkqmjlkghhhkhjhfjh rlmqmojmmlhmonofhnk o 
  1
 jlqghngnfkgffgggii rlnqhilkngffkolnhlg o 
  1
 jlqhhjfmnfgfillokg rlnqnfinkljfhhmkkmf o 
  1
 jlqhmlogojggjkhkhj rloqfffklhmkojfoilg o 
  1
 jlqifhfonjfjiimljg rloqjijojmmggljmokf o 
  1
 o 
  1
 1*33@,*-9><: 
  1
 1*33@,*-9><: 
  1
 1*33=, 
  1
 1*33=, 
  1
 V V 
  1
 o 
  1
 o 
  3
 mm oqligokiljfljmjmjj oqikiffjgmifofigklg nqoigjglohkoojklhk nqiohihjljnioiinng nqfhmmojknmiffgfof mqnfkhjgmkmhhogjlf mqioinmmijimmmlmmg lqnlhnlfiiikkokmkj lqifnmlfgjmonggmhk kqokoilfionkiiffnk kqlffkggihjloikjmk kqgnjjkihfkomhonmj jqljoknhiinlnnjjjf jqg
  1
nogkngnofmjifjk iqmmhnfffmkgnlkoni iqinkmilhmmmoihgkk hqkgfigmoofjhoomml hqgihgfiogmnmng gqmjlnglnofmnkimnl gqjjhhkmomokmlmfin gqhimgololoifolglj fqnknnhijkkiknoojg 
  1
 Y n Y o " V V |
  1
):-+:' {rn {ni {mj |
  1
61+<*-):r<*-): {rn 90-(>-; $ :'><+<*- 1*=, l 0/:1 mg 
  1
 o l oqlfigjomnhmmhnoggk n oqhmihgjfojjnjijimj n nqongknlhimogofofh n nqmhjijkomimihfkmn n 
  1
 nqjjhhfooifjkllfmm n nqginnnojigjoifhom n mqjkkgnlhjikjngfjl n mqgnmoofmlhlingolh n lqokfffiohonmmmllj n 
  1
 lqlloonlmhgjlffngk n lqjhjiljhgilhmngkg n lqflkijnjffnhfgkfk n kqklfnimomimokiofi n kqihhohhmgmkfjfon n 
  1
 kqfjglhmkoiilonmjg n jqlmoknigoglljkill n jqijoooimimfnhomng n iqnnmooijfhfmfnkjk n iqillkinjnnhkjhlfi n 
  1
 iqfknhinkfmmgkfnmf n hqmokikooliljffifi n hqkfmhhkhgfkhifngl n hqhnffflnfkkoglkjn n gqmmhonmnijoikjmjg n 
  1
 gqhgfgkommjlomnifh n fqnlnohigkhjkjhkmm n fqlggifigilfmffjgm l 
  1
 jfqhghhoifimglkhin rmgqnmkjkhkjnoklhfi o 
  1
 jfqhfiogmlmjfmihin rmhqgjknoogfhmjlhjg o 
  1
 jfqgnnkmogkgognonl rmhqljggogggmgflogi o 
  1
 jfqkjfgnlojkfjlhh rmiqhjikojnjjngnlgl o 
  1
 jfqohnnojkjijffohn rmiqlomghnninihnlhi o 
  1
 jgqjjkmjhjmhokklff rmiqogmojohikmkghfn o 
  1
 jgqokhjmlofkhjonkh rmjqglkgjmhongoioff o 
  1
 jhqmonljinomniiiff rmjqhnhogjfhgnljonh o 
  1
 jiqljfonkgnmlknigk rmjqhonlijjhhfogfjf o 
  1
 jjqjhfjjjjnhknfoih rmjqgiihfholhfijik o 
  1
 jjqofhnfikinmoolmi rmiqogmjjmjhhhhiiih o 
  1
 jkqifnfkfoljnkjigl rmiqlfmohighjomnmi o 
  1
 jkqmlgllilhjikggmg rmiqhhglgikfnoghki o 
  1
 jlqfnnilhlmigmgmnl rmhqkilhhmmlkojjilf o 
  1
 jlqgifohjkfgigimkl rmgqmkoghmlmimfokhm o 
  1
 jkqnikjgmgjgfonfjm rmgqgilgflgkginoil o 
  1
 jkqjlkmjknojokhmfi rmfqllijnhoohhgnngl o 
  1
 jjqnlmhnoflojnihlh rmfqimlmfjghjoggnkh o 
  1
 jjqgkfjiohhfninlmm rmfqgflfmokngfffffh o 
  1
 jiqhnkhkhjohhkiiog rloqohnhnoinkmnmmj o 
  1
 jhqjjnjmhmifhfjlhm rloqnfhnmhmiolhfnoj o 
  1
 jgqmhnkhijfllnjohm rloqkgkgnmhonmfjlmi o 
  1
 jgqkffmoihknjiinmh rlnqoikmmgmmkjmgilk o 
  1
 jgqlmkfjkmjogmjjji rlnqimihkmnmjkiiilj o 
  1
 jhqiioniflilihjmof rlnqfomgnjijomninnm o 
  1
 jiqgnhhffkhiiknlif rlnqfgloklohgmjill o 
  1
 jjqhfjffklkmokfomg rlnqgljnklkgkinnolg o 
  1
 jjqlkojihnhknmklhk rlnqnllogoomoohmmmg o 
  1
 jjqloolkfklkmggkmn rloqhlkkmghgigijnfj o 
  1
 jjqmglokglohmmgimi rloqjimflkkmkhijfnl o 
  1
 o 
  1
 1*33@,*-9><: 
  1
 1*33@,*-9><: 
  1
 1*33=, 
  1
 1*33=, 
  1
 V V 
  1
 o 
  1
 o 
  3
 mi oqlfigjomnhmmhnoggk oqhmihgjfojjnjijimj nqongknlhimogofofh nqmhjijkomimihfkmn nqjjhhfooifjkllfmm nqginnnojigjoifhom mqjkkgnlhjikjngfjl mqgnmoofmlhlingolh lqokfffiohonmmmllj lqlloonlmhgjlffngk lqjhjiljhgilhmngkg lqflkijnjffnhfgkfk kqklfnimomimokiofi kq
  1
ihhohhmgmkfjfon kqfjglhmkoiilonmjg jqlmoknigoglljkill jqijoooimimfnhomng iqnnmooijfhfmfnkjk iqillkinjnnhkjhlfi iqfknhinkfmmgkfnmf hqmokikooliljffifi hqkfmhhkhgfkhifngl hqhnffflnfkkoglkjn gqmmhonmnijoikjmjg gqhgfgkommjlomnifh fqnlnohigkhjkjhkmm 
  1
 Y n Y o " V V |
  1
/061+ {rn jjqmglokglohmmgimi rloqjimflkkmkhijfnl o |
  1
/061+ {rn jlqifhfonjfjiimljg rloqjijojmmggljmokf o |
  1
,+->687+r<*-): {rn jgqmoijklokllljll rmgqnmmgjknmfkkgfmj o nqfffffggjlnomnhjn roqoomnkngiioojnojinfi o V V |
  1
/061+ {rn jgqmoijklokllljll rmgqnmmgjknmfkkgfmj o |
  1
/061+ {rn jfqhghhoifimglkhin rmgqnmkjkhkjnoklhfi o |
  0
LINE
  5
E26
330
1F
100
AcDbEntity
  8
SK4
100
AcDbLine
 10
20.22909559309999
 20
0.0
 30
0.0
 11
31.29999898369997
 21
0.0
 31
0.0
  0
LINE
  5
E27
330
1F
100
AcDbEntity
  8
3
100
AcDbLine
 10
8.799999952299984
 20
-1.000000047499994
 30
0.0
 11
19.10192333159998
 21
-1.000000047499994
 31
0.0
  0
LINE
  5
E28
330
1F
100
AcDbEntity
  8
3
100
AcDbLine
 10
19.10192333159998
 20
1.000000047500009
 30
0.0
 11
8.799999952299984
 21
1.000000047500009
 31
0.0
  0
LINE
  5
E29
330
1F
100
AcDbEntity
  8
1
100
AcDbLine
 10
20.29999904334998
 20
12.50000018620001
 30
0.0
 11
0.1999996601999783
 21
12.50000018620001
 31
0.0
  0
LINE
  5
E2A
330
1F
100
AcDbEntity
  8
1
100
AcDbLine
 10
0.1999996601999783
 20
-12.50000018629997
 30
0.0
 11
33.49999897179996
 21
-12.50000018629997
 31
0.0
  0
DIMENSION
  5
E2B
330
1F
100
AcDbEntity
  8
SK2
100
AcDbDimension
  2
*D10
 10
-16.88169290102024
 20
-12.49999999999999
 30
0.0
 11
-16.88169290102024
 21
0.0000000000000028
 31
0.0
 70
   160
  1
MBM%%c<>
 71
     5
 42
25.0
  3
GEN-ISO_TDM
100
AcDbAlignedDimension
 13
0.1999995677999919
 23
12.5
 33
0.0
 14
0.1999995677999919
 24
-12.5
 34
0.0
 50
90.0
100
AcDbRotatedDimension
  0
LINE
  5
E36
330
1F
100
AcDbEntity
  8
3
100
AcDbLine
 10
9.999999776400002
 20
2.499999944099997
 30
0.0
 11
0.0
 21
2.499999944099997
 31
0.0
  0
LINE
  5
E37
330
1F
100
AcDbEntity
  8
3
100
AcDbLine
 10
0.0
 20
-2.499999944199998
 30
0.0
 11
9.999999776400002
 21
-2.499999944199998
 31
0.0
  0
LINE
  5
E6C
330
1F
100
AcDbEntity
  8
3
100
AcDbLine
 10
11.50215044609997
 20
0.0
 30
0.0
 11
9.999999776400002
 21
2.499999944099997
 31
0.0
  0
ARC
  5
E6E
330
1F
100
AcDbEntity
  8
3
100
AcDbCircle
 10
8.799999567799986
 20
0.0
 30
0.0
 40
1.000000000000009
100
AcDbArc
 50
14.73041310939989
 51
345.2695868905999
  0
LINE
  5
E73
330
1F
100
AcDbEntity
  8
3
100
AcDbLine
 10
9.999999776400002
 20
-2.499999944199998
 30
0.0
 11
11.50215044609997
 21
0.0
 31
0.0
  0
LINE
  5
E74
330
1F
100
AcDbEntity
  8
3
100
AcDbLine
 10
9.999999776400002
 20
2.499999944099997
 30
0.0
 11
9.999999776400002
 21
-2.499999944199998
 31
0.0
  0
LINE
  5
E77
330
1F
100
AcDbEntity
  8
SK1
100
AcDbLine
 10
33.80000032479999
 20
-8.495868787829262
 30
0.0
 11
33.80000032479999
 21
-2.012092620199993
 31
0.0
  0
LINE
  5
E78
330
1F
100
AcDbEntity
  8
SK1
100
AcDbLine
 10
32.97931514679997
 20
-2.000000094999989
 30
0.0
 11
32.97931514679997
 21
-8.762562269279099
 31
0.0
  0
LINE
  5
E79
330
1F
100
AcDbEntity
  8
SK1
100
AcDbLine
 10
32.7128116041
 20
-2.000000094999988
 30
0.0
 11
32.7128116041
 21
-8.788079768651854
 31
0.0
  0
LINE
  5
E7A
330
1F
100
AcDbEntity
  8
SK1
100
AcDbLine
 10
31.38553909949997
 20
-2.000000094999989
 30
0.0
 11
31.38553909949997
 21
-8.671821703254517
 31
0.0
  0
LINE
  5
E7B
330
1F
100
AcDbEntity
  8
SK1
100
AcDbLine
 10
31.11903555689998
 20
0.1576916838000102
 30
0.0
 11
31.11903555689997
 21
-8.647046633925459
 31
0.0
  0
LINE
  5
E7C
330
1F
100
AcDbEntity
  8
SK1
100
AcDbLine
 10
29.7917630523
 20
-0.5069204661547873
 30
0.0
 11
29.7917630523
 21
-8.516376503191667
 31
0.0
  0
LINE
  5
E7D
330
1F
100
AcDbEntity
  8
SK1
100
AcDbLine
 10
29.52525578439998
 20
-0.6105031352999788
 30
0.0
 11
29.52525578439998
 21
-8.488649211273784
 31
0.0
  0
LINE
  5
E7E
330
1F
100
AcDbEntity
  8
SK1
100
AcDbLine
 10
28.1979832798
 20
-0.7231283104055452
 30
0.0
 11
28.1979832798
 21
-8.342969177451047
 31
0.0
  0
LINE
  5
E7F
330
1F
100
AcDbEntity
  8
SK1
100
AcDbLine
 10
27.93147973709999
 20
-0.6970942728562474
 30
0.0
 11
27.93147973709999
 21
-8.312164819072208
 31
0.0
  0
LINE
  5
E80
330
1F
100
AcDbEntity
  8
SK1
100
AcDbLine
 10
26.60420723259999
 20
-4.420735407700006
 30
0.0
 11
26.60420723259999
 21
-8.150784453404014
 31
0.0
  0
LINE
  5
E81
330
1F
100
AcDbEntity
  8
SK1
100
AcDbLine
 10
26.33769996459998
 20
-5.050301551900004
 30
0.0
 11
26.33769996459998
 21
-8.11674669272503
 31
0.0
  0
LINE
  5
E82
330
1F
100
AcDbEntity
  8
SK1
100
AcDbLine
 10
25.01042745999999
 20
-6.0037500225
 30
0.0
 11
25.01042745999999
 21
-7.938833199504965
 31
0.0
  0
LINE
  5
E83
330
1F
100
AcDbEntity
  8
SK1
100
AcDbLine
 10
24.74392391739998
 20
-6.063555367299996
 30
0.0
 11
24.74392391739998
 21
-7.901386974847739
 31
0.0
  0
LINE
  5
E84
330
1F
100
AcDbEntity
  8
SK1
100
AcDbLine
 10
23.41665141279998
 20
-5.941458046499987
 30
0.0
 11
23.41665141279998
 21
-7.705971946000993
 31
0.0
  0
LINE
  5
E85
330
1F
100
AcDbEntity
  8
SK1
100
AcDbLine
 10
23.15014414489998
 20
-5.824729800299977
 30
0.0
 11
23.15014414489998
 21
-7.664898302089652
 31
0.0
  0
LINE
  5
E86
330
1F
100
AcDbEntity
  8
SK1
100
AcDbLine
 10
21.55636809759998
 20
10.55585592979999
 30
0.0
 11
21.55636809759998
 21
-7.405856406297115
 31
0.0
  0
LINE
  5
E87
330
1F
100
AcDbEntity
  8
SK1
100
AcDbLine
 10
21.82287164029998
 20
10.60081087050001
 30
0.0
 11
21.82287164029998
 21
-7.450807140464737
 31
0.0
  0
LINE
  5
E88
330
1F
100
AcDbEntity
  8
1
100
AcDbLine
 10
20.22909559309998
 20
10.3217018768
 30
0.0
 11
20.22909559309998
 21
-10.3217018769
 31
0.0
  0
LINE
  5
E89
330
1F
100
AcDbEntity
  8
1
100
AcDbLine
 10
19.59999836979998
 20
-10.20451355729999
 30
0.0
 11
19.59999836979998
 21
-8.525801822600001
 31
0.0
  0
ARC
  5
E8A
330
1F
100
AcDbEntity
  8
1
100
AcDbCircle
 10
20.92379019779998
 20
0.0
 30
0.0
 40
12.4999999999996
100
AcDbArc
 50
291.5393377722999
 51
295.6652731570997
  0
ARC
  5
E8C
330
1F
100
AcDbEntity
  8
1
100
AcDbCircle
 10
14.86130308439997
 20
0.0
 30
0.0
 40
12.49999999999938
100
AcDbArc
 50
298.0104298350001
 51
302.3849643111002
  0
ELLIPSE
  5
E8E
330
1F
100
AcDbEntity
  8
1
100
AcDbEllipse
 10
46.54269118389996
 20
0.0
 30
0.0
 11
46.65063509477921
 21
0.0
 31
0.0
210
0.0
220
0.0
230
1.0
 40
0.2679491924
 41
4.096674679754935
 42
4.113098748406076
  0
ELLIPSE
  5
E8F
330
1F
100
AcDbEntity
  8
1
100
AcDbEllipse
 10
22.11832678609998
 20
0.0
 30
0.0
 11
0.0
 21
12.5
 31
0.0
210
0.0
220
0.0
230
1.0
 40
0.2679491924
 41
2.542302421611158
 42
2.647837514759259
  0
ARC
  5
E90
330
1F
100
AcDbEntity
  8
1
100
AcDbCircle
 10
20.64966168809998
 20
-10.89348518139998
 30
0.0
 40
0.1642512662579569
100
AcDbArc
 50
223.7139062761999
 51
299.9680690285998
  0
ELLIPSE
  5
E94
330
1F
100
AcDbEntity
  8
1
100
AcDbEllipse
 10
46.54269118359997
 20
0.0
 30
0.0
 11
46.65063509413818
 21
0.0
 31
0.0
210
0.0
220
0.0
230
1.0
 40
0.2679491924
 41
4.147164725014241
 42
4.153915273055718
  0
ELLIPSE
  5
E95
330
1F
100
AcDbEntity
  8
1
100
AcDbEllipse
 10
23.59767631519999
 20
0.0
 30
0.0
 11
0.0
 21
12.5
 31
0.0
210
0.0
220
0.0
230
1.0
 40
0.2679491924
 41
2.583118946260798
 42
2.686248162493365
  0
ARC
  5
E96
330
1F
100
AcDbEntity
  8
1
100
AcDbCircle
 10
22.24351892809998
 20
-11.09823941029998
 30
0.0
 40
0.1747296712202939
100
AcDbArc
 50
227.1644000665001
 51
297.9756928678003
  0
ARC
  5
E97
330
1F
100
AcDbEntity
  8
1
100
AcDbCircle
 10
16.88213212219999
 20
0.0
 30
0.0
 40
12.49999999999948
100
AcDbArc
 50
295.8150878989001
 51
300.0953877743004
  0
ELLIPSE
  5
E98
330
1F
100
AcDbEntity
  8
1
100
AcDbEllipse
 10
46.54269118359997
 20
0.0
 30
0.0
 11
46.65063509414839
 21
0.0
 31
0.0
210
0.0
220
0.0
230
0.9999999999999998
 40
0.2679491924
 41
4.187125374058247
 42
4.193715747977387
  0
ELLIPSE
  5
E99
330
1F
100
AcDbEntity
  8
1
100
AcDbEllipse
 10
25.0770258442
 20
0.0
 30
0.0
 11
0.0
 21
12.5
 31
0.0
210
0.0
220
0.0
230
1.0
 40
0.2679491924
 41
2.622919421182479
 42
2.723949166829465
  0
ARC
  5
E9A
330
1F
100
AcDbEntity
  8
1
100
AcDbCircle
 10
23.83734269299998
 20
-11.28117087849999
 30
0.0
 40
0.1870335339421533
100
AcDbArc
 50
230.5484372853
 51
295.9752347184998
  0
ARC
  5
E9B
330
1F
100
AcDbEntity
  8
1
100
AcDbCircle
 10
18.90296116
 20
0.0
 30
0.0
 40
12.49999999999954
100
AcDbArc
 50
293.6597265622001
 51
297.8576839798999
  0
ELLIPSE
  5
E9C
330
1F
100
AcDbEntity
  8
1
100
AcDbEllipse
 10
46.54269118359997
 20
0.0
 30
0.0
 11
46.65063509414421
 21
0.0
 31
0.0
210
0.0
220
0.0
230
1.0
 40
0.2679491924
 41
4.226180672954924
 42
4.232631337408689
  0
ELLIPSE
  5
E9D
330
1F
100
AcDbEntity
  8
1
100
AcDbEllipse
 10
26.55637537329997
 20
0.0
 30
0.0
 11
0.0
 21
12.5
 31
0.0
210
0.0
220
0.0
230
1.0
 40
0.2679491924
 41
2.661835010613776
 42
2.761029380068158
  0
ARC
  5
E9E
330
1F
100
AcDbEntity
  8
1
100
AcDbCircle
 10
25.43114732979999
 20
-11.44273887999998
 30
0.0
 40
0.2017050367196414
100
AcDbArc
 50
233.8905425045002
 51
293.9539091483003
  0
ELLIPSE
  5
EAA
330
1F
100
AcDbEntity
  8
1
100
AcDbEllipse
 10
46.54269118359997
 20
0.0
 30
0.0
 11
46.65063509414486
 21
0.0
 31
0.0
210
0.0
220
0.0
230
1.0
 40
0.2679491924
 41
4.338987490080323
 42
4.345115748084826
  0
ELLIPSE
  5
EAC
330
1F
100
AcDbEntity
  8
1
100
AcDbEllipse
 10
46.54269118359997
 20
0.0
 30
0.0
 11
46.65063509414483
 21
0.0
 31
0.0
210
0.0
220
0.0
230
1.0
 40
0.2679491924
 41
4.264445460369011
 42
4.270773985158186
  0
ELLIPSE
  5
EAD
330
1F
100
AcDbEntity
  8
1
100
AcDbEllipse
 10
28.03572490239998
 20
0.0
 30
0.0
 11
0.0
 21
12.5
 31
0.0
210
0.0
220
0.0
230
1.0
 40
0.2679491924
 41
2.699977658363275
 42
2.797567206692252
  0
ARC
  5
EAE
330
1F
100
AcDbEntity
  8
1
100
AcDbCircle
 10
27.02493055149998
 20
-11.58305304049999
 30
0.0
 40
0.2194857189466965
100
AcDbArc
 50
237.2059838765995
 51
291.9056006052
  0
ARC
  5
EAF
330
1F
100
AcDbEntity
  8
1
100
AcDbCircle
 10
22.9446192356
 20
0.0
 30
0.0
 40
12.4999999999997
100
AcDbArc
 50
289.4494959180997
 51
293.5124762159999
  0
ELLIPSE
  5
EB0
330
1F
100
AcDbEntity
  8
1
100
AcDbEllipse
 10
46.54269118359997
 20
0.0
 30
0.0
 11
46.65063509414307
 21
0.0
 31
0.0
210
0.0
220
0.0
230
1.0
 40
0.2679491924
 41
4.30201885511881
 42
4.308240520960681
  0
ELLIPSE
  5
EB1
330
1F
100
AcDbEntity
  8
1
100
AcDbEllipse
 10
29.51507443149998
 20
0.0
 30
0.0
 11
0.0
 21
12.5
 31
0.0
210
0.0
220
0.0
230
1.0
 40
0.2679491924
 41
2.737444194165765
 42
2.833632619702433
  0
ARC
  5
EB2
330
1F
100
AcDbEntity
  8
1
100
AcDbCircle
 10
28.61870680179997
 20
-11.70172551639999
 30
0.0
 40
0.241484016533495
100
AcDbArc
 50
240.5103569491001
 51
289.8224768739996
  0
ARC
  5
EB3
330
1F
100
AcDbEntity
  8
1
100
AcDbCircle
 10
24.96544827339998
 20
0.0
 30
0.0
 40
12.49999999999975
100
AcDbArc
 50
287.3862458069999
 51
291.3943294582996
  0
ELLIPSE
  5
EBC
330
1F
100
AcDbEntity
  8
1
100
AcDbEllipse
 10
30.99442396049998
 20
0.0
 30
0.0
 11
0.0
 21
12.5
 31
0.0
210
0.0
220
0.0
230
1.0
 40
0.2679491924
 41
2.774319421289917
 42
2.869288751213792
  0
ARC
  5
EBD
330
1F
100
AcDbEntity
  8
1
100
AcDbCircle
 10
30.21247156239998
 20
-11.79771239859998
 30
0.0
 40
0.2693556294678291
100
AcDbArc
 50
243.8139741632999
 51
287.7016053925999
  0
ARC
  5
EBE
330
1F
100
AcDbEntity
  8
1
100
AcDbCircle
 10
26.9862773112
 20
0.0
 30
0.0
 40
12.49999999999981
100
AcDbArc
 50
285.3460141078
 51
289.3064429902001
  0
ELLIPSE
  5
EBF
330
1F
100
AcDbEntity
  8
1
100
AcDbEllipse
 10
46.5426911837
 20
0.0
 30
0.0
 11
46.65063509413949
 21
0.0
 31
0.0
210
0.0
220
0.0
230
1.0
 40
0.2679491924
 41
4.375427983357082
 42
4.381474810049716
  0
ELLIPSE
  5
EC0
330
1F
100
AcDbEntity
  8
1
100
AcDbEllipse
 10
32.47377348959998
 20
0.0
 30
0.0
 11
0.0
 21
12.5
 31
0.0
210
0.0
220
0.0
230
1.0
 40
0.2679491924
 41
2.810678483254809
 42
2.904593168260471
  0
ARC
  5
EC1
330
1F
100
AcDbEntity
  8
1
100
AcDbCircle
 10
31.80623684249998
 20
-11.86884870409999
 30
0.0
 40
0.3057803028977287
100
AcDbArc
 50
247.1272676659002
 51
285.5385950910998
  0
ARC
  5
EC2
330
1F
100
AcDbEntity
  8
1
100
AcDbCircle
 10
29.00710634899998
 20
0.0
 30
0.0
 40
12.5000000000005
100
AcDbArc
 50
283.3255381723996
 51
287.2448905594003
  0
ELLIPSE
  5
EC3
330
1F
100
AcDbEntity
  8
1
100
AcDbEllipse
 10
46.54269118379999
 20
0.0
 30
0.0
 11
46.65063509461077
 21
0.0
 31
0.0
210
0.0
220
0.0
230
1.0
 40
0.2679491924
 41
4.411408860977831
 42
4.417385037413787
  0
ELLIPSE
  5
EC6
330
1F
100
AcDbEntity
  8
1
100
AcDbEllipse
 10
42.4085286473
 20
0.0
 30
0.0
 11
46.65063509461027
 21
0.0
 31
0.0
210
0.0
220
0.0
230
1.0
 40
0.2679491924
 41
4.517319489998811
 42
4.520246225874396
  0
LINE
  5
EC8
330
1F
100
AcDbEntity
  8
1
100
AcDbLine
 10
33.49999897179996
 20
-12.26996630429999
 30
0.0
 11
33.80000032479999
 21
-11.97995711119997
 31
0.0
  0
LINE
  5
EC9
330
1F
100
AcDbEntity
  8
1
100
AcDbLine
 10
33.49999897179996
 20
-12.26996630429999
 30
0.0
 11
33.49999897179996
 21
-12.50000018629997
 31
0.0
  0
ARC
  5
ECB
330
1F
100
AcDbEntity
  8
1
100
AcDbCircle
 10
33.35542185639997
 20
-12.09617232159999
 30
0.0
 40
0.1670911850956263
100
AcDbArc
 50
243.6141661150002
 51
273.6349021931003
  0
ELLIPSE
  5
ECC
330
1F
100
AcDbEntity
  8
1
100
AcDbEllipse
 10
33.95312301869999
 20
0.0
 30
0.0
 11
0.0
 21
12.5
 31
0.0
210
0.0
220
0.0
230
1.0
 40
0.2679491924
 41
2.84658871061887
 42
2.939598913190911
  0
LINE
  5
ED5
330
1F
100
AcDbEntity
  8
1
100
AcDbLine
 10
33.49999897179996
 20
-12.50000018629997
 30
0.0
 11
33.80000032479999
 21
-12.19999976459998
 31
0.0
  0
LINE
  5
EEE
330
1F
100
AcDbEntity
  8
SK1
100
AcDbLine
 10
33.80000032479999
 20
2.012092620100006
 30
0.0
 11
33.80000032479999
 21
12.1999997645
 31
0.0
  0
LINE
  5
EEF
330
1F
100
AcDbEntity
  8
SK1
100
AcDbLine
 10
32.97931514679997
 20
3.502205227820809
 30
0.0
 11
32.97931514679997
 21
2.000000095000004
 31
0.0
  0
LINE
  5
EF0
330
1F
100
AcDbEntity
  8
SK1
100
AcDbLine
 10
23.41665141279998
 20
10.8559709042
 30
0.0
 11
23.41665141279998
 21
-2.05854186789999
 31
0.0
  0
LINE
  5
EF1
330
1F
100
AcDbEntity
  8
SK1
100
AcDbLine
 10
23.15014414489998
 20
10.814897716
 30
0.0
 11
23.15014414489998
 21
-2.17527034699998
 31
0.0
  0
LINE
  5
EF2
330
1F
100
AcDbEntity
  8
1
100
AcDbLine
 10
19.59999836979998
 20
8.5258018225
 30
0.0
 11
19.59999836979998
 21
-8.525801822600001
 31
0.0
  0
ELLIPSE
  5
EF3
330
1F
100
AcDbEntity
  8
1
100
AcDbEllipse
 10
22.04936447319998
 20
0.0
 30
0.0
 11
0.0
 21
12.5
 31
0.0
210
0.0
220
0.0
230
1.0
 40
0.2679491924
 41
0.8202147822320714
 42
2.32137787135772
  0
ARC
  5
EF4
330
1F
100
AcDbEntity
  8
1
100
AcDbCircle
 10
28.62095104989999
 20
3.941738487000008
 30
0.0
 40
1.441880869881641
100
AcDbArc
 50
271.0173913082001
 51
331.9571055498003
  0
ARC
  5
EF5
330
1F
100
AcDbEntity
  8
1
100
AcDbCircle
 10
28.63133602439996
 20
3.903414036900001
 30
0.0
 40
1.40341160904409
100
AcDbArc
 50
250.4866551765995
 51
270.6212588266998
  0
LWPOLYLINE
  5
EF7
330
1F
100
AcDbEntity
  8
1
100
AcDbPolyline
 90
       31
 70
   128
 43
0.0
 10
28.47030945119998
 20
-0.7497311453999913
 10
29.42311950019997
 20
-0.6354307988999893
 10
30.33214993769998
 20
-0.3185398527999865
 10
31.15767799309999
 20
0.1870919804000124
 10
31.86362422999998
 20
0.8593662059000022
 10
32.41912834339997
 20
1.668901182700011
 10
32.79992006719997
 20
2.580316271599996
 10
32.9893510788
 20
3.553778631599996
 10
32.97914750869999
 20
4.546742886300008
 10
32.76974894099996
 20
5.515811499199998
 10
32.37031213939998
 20
6.418632343400004
 10
31.79829381399998
 20
7.215747144000004
 10
31.07869438819998
 20
7.872318848899992
 10
30.24296276269996
 20
8.359651081200013
 10
29.32762168339998
 20
8.656445890599997
 10
28.37267704299998
 20
8.749730885000005
 10
27.41987071929999
 20
8.635430596700004
 10
26.51083655649998
 20
8.318539708800017
 10
25.68530850109998
 20
7.812907919199999
 10
24.97936598949998
 20
7.140633650099998
 10
24.4238581508
 20
6.331098731600008
 10
24.0430701524
 20
5.419683642600006
 10
23.85363541539998
 20
4.446221515500012
 10
23.8638427108
 20
3.453257260799999
 10
24.0732375532
 20
2.484188415100006
 10
24.47267435490001
 20
1.581367687300001
 10
25.04469268019998
 20
0.7842528283999997
 10
25.76429210599998
 20
0.1276815892000087
 10
26.60002745679999
 20
-0.3596507594999849
 10
27.51536853609998
 20
-0.6564454524999947
 10
28.47030945119998
 20
-0.7497311453999913
  0
LWPOLYLINE
  5
EF8
330
1F
100
AcDbEntity
  8
1
100
AcDbPolyline
 90
       22
 70
   128
 43
0.0
 10
29.05930392439996
 20
1.625134376800004
 10
29.73437123
 20
1.738091115800003
 10
30.34728579219998
 20
2.052028430600003
 10
30.84359131749998
 20
2.539051463800021
 10
31.179184094
 20
3.155886195600004
 10
31.32424689829999
 20
3.847724059600011
 10
31.26589395099999
 20
4.55309264360001
 10
31.00930340579999
 20
5.209316033800021
 10
30.57728148989999
 20
5.758086685000008
 10
30.0082098692
 20
6.150643806900005
 10
29.35265563419998
 20
6.352106574900004
 10
28.66886369879999
 20
6.344574037900017
 10
28.01760099819999
 20
6.128716282500008
 10
27.45672501619999
 20
5.723712500100005
 10
27.0360764116
 20
5.165549460800007
 10
26.79303474719999
 20
4.503821954100003
 10
26.74918808039997
 20
3.797327866700001
 10
26.90844051539999
 20
3.108842065500013
 10
27.256635949
 20
2.499539637900014
 10
27.76283584529998
 20
2.0235595293
 10
28.38206477459998
 20
1.723194960500008
 10
29.05930392439996
 20
1.625134376800004
  0
LINE
  5
EF9
330
1F
100
AcDbEntity
  8
SK3
100
AcDbLine
 10
22.80000038439998
 20
-1.249999972099985
 30
0.0
 11
31.29999898369998
 21
-1.249999972099985
 31
0.0
  0
LINE
  5
EFA
330
1F
100
AcDbEntity
  8
SK3
100
AcDbLine
 10
31.29999898369998
 20
1.249999972000011
 30
0.0
 11
22.80000038439998
 21
1.249999972000011
 31
0.0
  0
ELLIPSE
  5
F0E
330
1F
100
AcDbEntity
  8
SK1
100
AcDbEllipse
 10
24.85291892649998
 20
-4.0
 30
0.0
 11
0.0
 21
2.100000000000008
 31
0.0
210
0.0
220
0.0
230
1.0
 40
0.8164965808999998
 41
5.236153558475086
 42
5.887988200973994
  0
ELLIPSE
  5
F0F
330
1F
100
AcDbEntity
  8
SK1
100
AcDbEllipse
 10
24.85291892649998
 20
-4.0
 30
0.0
 11
0.0
 21
2.100000000000008
 31
0.0
210
0.0
220
0.0
230
1.0
 40
0.8164965808999998
 41
3.536789759795421
 42
4.188624402294323
  0
ELLIPSE
  5
F13
330
1F
100
AcDbEntity
  8
SK1
100
AcDbEllipse
 10
23.99881607759998
 20
-4.0
 30
0.0
 11
0.0
 21
2.100000000000008
 31
0.0
210
0.0
220
0.0
230
1.0
 40
0.8164965808999998
 41
0.5177825503156706
 42
1.350839881845452
  0
ARC
  5
F14
330
1F
100
AcDbEntity
  8
SK1
100
AcDbCircle
 10
25.31085445699998
 20
-3.969988585099996
 30
0.0
 40
2.031130797417048
100
AcDbArc
 50
100.8178458194995
 51
184.9533729736998
  0
ARC
  5
F1A
330
1F
100
AcDbEntity
  8
SK1
100
AcDbCircle
 10
24.65561548369997
 20
-3.999999840800001
 30
0.0
 40
2.374753266774233
100
AcDbArc
 50
168.8753941042002
 51
191.1246058957996
  0
LINE
  5
F1B
330
1F
100
AcDbEntity
  8
SK1
100
AcDbLine
 10
23.41665141279998
 20
-5.941458046499987
 30
0.0
 11
23.71849678449997
 21
-5.941458046499987
 31
0.0
  0
ARC
  5
F1C
330
1F
100
AcDbEntity
  8
SK1
100
AcDbCircle
 10
23.25690655799998
 20
-7.715253266000003
 30
0.0
 40
1.832870704136024
100
AcDbArc
 50
68.81533914729981
 51
75.4135771322003
  0
ELLIPSE
  5
F1D
330
1F
100
AcDbEntity
  8
SK1
100
AcDbEllipse
 10
24.42586750199997
 20
-4.0
 30
0.0
 11
0.0
 21
2.100000000000008
 31
0.0
210
0.0
220
0.0
230
1.0
 40
0.8164965808999998
 41
2.841657326280262
 42
3.328167175043359
  0
ELLIPSE
  5
F1E
330
1F
100
AcDbEntity
  8
SK1
100
AcDbEllipse
 10
24.30945096829999
 20
-4.0
 30
0.0
 11
2.342245650467701
 21
0.0
 31
0.0
210
0.0
220
0.0
230
1.0
 40
0.8965754721999999
 41
4.898963501838256
 42
5.016322582170941
  0
LINE
  5
F1F
330
1F
100
AcDbEntity
  8
SK1
100
AcDbLine
 10
25.01042745999999
 20
-6.0037500225
 30
0.0
 11
25.31227655709998
 21
-6.0037500225
 31
0.0
  0
ARC
  5
F20
330
1F
100
AcDbEntity
  8
SK1
100
AcDbCircle
 10
25.18395526929996
 20
-5.27118967829999
 30
0.0
 40
0.7437143341766173
100
AcDbArc
 50
279.9355968487998
 51
296.2627303243996
  0
ELLIPSE
  5
F21
330
1F
100
AcDbEntity
  8
SK1
100
AcDbEllipse
 10
24.30945096829999
 20
-4.0
 30
0.0
 11
2.342245650467673
 21
0.0
 31
0.0
210
0.0
220
0.0
230
1.0
 40
0.8965754721999999
 41
4.194606430069044
 42
4.32132454273978
  0
ELLIPSE
  5
F22
330
1F
100
AcDbEntity
  8
SK1
100
AcDbEllipse
 10
23.99881607759998
 20
-4.0
 30
0.0
 11
0.0
 21
2.100000000000008
 31
0.0
210
0.0
220
0.0
230
1.0
 40
0.8164965808999998
 41
1.790752771744339
 42
2.623810103274123
  0
ARC
  5
F23
330
1F
100
AcDbEntity
  8
SK1
100
AcDbCircle
 10
25.31610026739999
 20
-4.030069831399983
 30
0.0
 40
2.032064467220698
100
AcDbArc
 50
183.2526370281
 51
259.0365628950996
  0
LWPOLYLINE
  5
F24
330
1F
100
AcDbEntity
  8
1
100
AcDbPolyline
 90
       17
 70
   128
 43
0.0
 10
18.84310506279996
 20
0.0
 10
18.86280439789996
 20
-0.3826834436000013
 10
18.91891099509996
 20
-0.7071067811999825
 10
19.00287903839996
 20
-0.9238795611000083
 10
19.10192333159998
 20
-1.000000047499994
 10
19.2009676247
 20
-0.9238795611000083
 10
19.2849356681
 20
-0.7071067811999825
 10
19.34104226529997
 20
-0.3826834436000013
 10
19.36074160039996
 20
0.0
 10
19.34104226529997
 20
0.3826834436000155
 10
19.2849356681
 20
0.707106781200011
 10
19.2009676247
 20
0.9238795610000067
 10
19.10192333159998
 20
1.000000047500009
 10
19.00287903839996
 20
0.9238795610000067
 10
18.91891099509996
 20
0.707106781200011
 10
18.86280439789996
 20
0.3826834436000155
 10
18.84310506279996
 20
0.0
  0
LINE
  5
F25
330
1F
100
AcDbEntity
  8
SK3
100
AcDbLine
 10
22.0489222556
 20
0.0
 30
0.0
 11
22.80000038439998
 21
-1.249999972099985
 31
0.0
  0
LINE
  5
F26
330
1F
100
AcDbEntity
  8
SK3
100
AcDbLine
 10
22.80000038439998
 20
1.249999972000011
 30
0.0
 11
22.0489222556
 21
0.0
 31
0.0
  0
LINE
  5
F2C
330
1F
100
AcDbEntity
  8
SK3
100
AcDbLine
 10
22.80000038439998
 20
1.249999972000011
 30
0.0
 11
22.80000038439998
 21
-1.249999972099985
 31
0.0
  0
LINE
  5
F37
330
1F
100
AcDbEntity
  8
SK1
100
AcDbLine
 10
25.01042745999999
 20
0.8320018513890168
 30
0.0
 11
25.01042745999999
 21
-1.996250124699983
 31
0.0
  0
LINE
  5
F38
330
1F
100
AcDbEntity
  8
SK1
100
AcDbLine
 10
24.74392391739998
 20
1.203377949601535
 30
0.0
 11
24.74392391739998
 21
-1.936444663499996
 31
0.0
  0
ARC
  5
F39
330
1F
100
AcDbEntity
  8
SK1
100
AcDbCircle
 10
25.19270097889998
 20
-2.702051613699977
 30
0.0
 40
0.7158589671206017
100
AcDbArc
 50
63.41731352579968
 51
80.38435930090003
  0
LINE
  5
F3A
330
1F
100
AcDbEntity
  8
SK1
100
AcDbLine
 10
25.31227655709998
 20
-1.996250124699983
 30
0.0
 11
25.01042745999999
 21
-1.996250124699983
 31
0.0
  0
ELLIPSE
  5
F3B
330
1F
100
AcDbEntity
  8
SK1
100
AcDbEllipse
 10
24.30945096829999
 20
-4.0
 30
0.0
 11
2.342245650467701
 21
0.0
 31
0.0
210
0.0
220
0.0
230
1.0
 40
0.8965754721999999
 41
1.266862725008662
 42
1.384221805341343
  0
ELLIPSE
  5
F3C
330
1F
100
AcDbEntity
  8
SK1
100
AcDbEllipse
 10
24.42586750199997
 20
-4.0
 30
0.0
 11
0.0
 21
2.100000000000008
 31
0.0
210
0.0
220
0.0
230
1.0
 40
0.8164965808999998
 41
6.096610785726054
 42
6.583120634489128
  0
ARC
  5
F3D
330
1F
100
AcDbEntity
  8
SK1
100
AcDbCircle
 10
23.35147626529998
 20
-0.5777878200999993
 30
0.0
 40
1.525561080936061
100
AcDbArc
 50
283.9208149736996
 51
291.8501483864996
  0
LINE
  5
F3E
330
1F
100
AcDbEntity
  8
SK1
100
AcDbLine
 10
23.71849678449997
 20
-2.05854186789999
 30
0.0
 11
23.41665141279998
 21
-2.05854186789999
 31
0.0
  0
ELLIPSE
  5
F3F
330
1F
100
AcDbEntity
  8
SK1
100
AcDbEllipse
 10
24.30945096829999
 20
-4.0
 30
0.0
 11
2.342245650467673
 21
0.0
 31
0.0
210
0.0
220
0.0
230
1.0
 40
0.8965754721999999
 41
1.961860764439811
 42
2.088578877110554
  0
LINE
  5
F4B
330
1F
100
AcDbEntity
  8
SK1
100
AcDbLine
 10
26.60420723259999
 20
-0.3610060305606018
 30
0.0
 11
26.60420723259999
 21
-3.579264739599991
 31
0.0
  0
ELLIPSE
  5
F4C
330
1F
100
AcDbEntity
  8
SK1
100
AcDbEllipse
 10
24.30945096829999
 20
-4.0
 30
0.0
 11
2.342245650467673
 21
0.0
 31
0.0
210
0.0
220
0.0
230
1.0
 40
0.8965754721999999
 41
0.2017153159223404
 42
0.5237645780903807
  0
LINE
  5
F66
330
1F
100
AcDbEntity
  8
SK1
100
AcDbLine
 10
26.60420723259999
 20
-4.420735407700006
 30
0.0
 11
26.90605260429997
 21
-4.420735407700006
 31
0.0
  0
ARC
  5
F67
330
1F
100
AcDbEntity
  8
SK1
100
AcDbCircle
 10
25.84525597149998
 20
-4.000000073600006
 30
0.0
 40
1.141186977401547
100
AcDbArc
 50
338.3656314537
 51
21.6343685463
  0
LINE
  5
F68
330
1F
100
AcDbEntity
  8
SK1
100
AcDbLine
 10
26.90605260429997
 20
-3.579264739599991
 30
0.0
 11
26.60420723259999
 21
-3.579264739599991
 31
0.0
  0
ELLIPSE
  5
F69
330
1F
100
AcDbEntity
  8
SK1
100
AcDbEllipse
 10
24.30945096829999
 20
-4.0
 30
0.0
 11
2.342245650467673
 21
0.0
 31
0.0
210
0.0
220
0.0
230
1.0
 40
0.8965754721999999
 41
5.759420729089226
 42
6.081469991257266
  0
LINE
  5
F94
330
1F
100
AcDbEntity
  8
SK1
100
AcDbLine
 10
26.33769996459998
 20
-0.2066828698683806
 30
0.0
 11
26.33769996459998
 21
-2.949698362500001
 31
0.0
  0
LINE
  5
F9A
330
1F
100
AcDbEntity
  8
SK3
100
AcDbLine
 10
31.29999898369998
 20
0.3011066583000002
 30
0.0
 11
31.29999898369997
 21
2.000000095000004
 31
0.0
  0
LINE
  5
F9D
330
1F
100
AcDbEntity
  8
SK1
100
AcDbLine
 10
32.7128116041
 20
2.37182443031747
 30
0.0
 11
32.7128116041
 21
2.000000095000004
 31
0.0
  0
LINE
  5
F9E
330
1F
100
AcDbEntity
  8
0
  6
SLD-Durchgehend
 62
     7
370
    15
100
AcDbLine
 10
33.80000032479999
 20
-2.012092620199993
 30
0.0
 11
33.80000032479999
 21
-2.000000094999989
 31
0.0
  0
LINE
  5
FA6
330
1F
100
AcDbEntity
  8
0
  6
SLD-Durchgehend
 62
     7
370
    15
100
AcDbLine
 10
33.80000032479999
 20
2.000000095000004
 30
0.0
 11
33.80000032479999
 21
2.012092620100006
 31
0.0
  0
LINE
  5
FAD
330
1F
100
AcDbEntity
  8
SK1
100
AcDbLine
 10
31.29999898369997
 20
-2.000000094999989
 30
0.0
 11
31.29999898369998
 21
0.3011066583000002
 31
0.0
  0
LINE
  5
FB2
330
1F
100
AcDbEntity
  8
SK1
100
AcDbLine
 10
33.80000032479999
 20
-2.000000094999989
 30
0.0
 11
31.29999898369998
 21
-2.000000094999989
 31
0.0
  0
LINE
  5
FB3
330
1F
100
AcDbEntity
  8
SK1
100
AcDbLine
 10
32.55746237703462
 20
2.000000095000004
 30
0.0
 11
33.80000032479999
 21
2.000000095000004
 31
0.0
  0
ARC
  5
FB8
330
1F
100
AcDbEntity
  8
SK1
100
AcDbCircle
 10
20.92379019779998
 20
0.0
 30
0.0
 40
12.49999999999963
100
AcDbArc
 50
64.33472684289956
 51
68.46066222769991
  0
LINE
  5
FBA
330
1F
100
AcDbEntity
  8
SK1
100
AcDbLine
 10
24.74392391739998
 20
11.05138752610001
 30
0.0
 11
24.74392391739998
 21
6.797526738962637
 31
0.0
  0
LINE
  5
FBB
330
1F
100
AcDbEntity
  8
SK1
100
AcDbLine
 10
25.01042745999999
 20
11.0888350755
 30
0.0
 11
25.01042745999999
 21
7.170213717930514
 31
0.0
  0
ARC
  5
FCB
330
1F
100
AcDbEntity
  8
SK1
100
AcDbCircle
 10
14.86130308439997
 20
0.0
 30
0.0
 40
12.4999999999994
100
AcDbArc
 50
57.61503568889985
 51
61.98957016499979
  0
ELLIPSE
  5
FCD
330
1F
100
AcDbEntity
  8
1
100
AcDbEllipse
 10
46.54269118389996
 20
0.0
 30
0.0
 11
46.65063509477921
 21
0.0
 31
0.0
210
0.0
220
0.0
230
1.0
 40
0.2679491924
 41
2.170086558773526
 42
2.186510627424669
  0
ARC
  5
FCE
330
1F
100
AcDbEntity
  8
SK1
100
AcDbCircle
 10
20.65240768439998
 20
10.8743322417
 30
0.0
 40
0.179869001616606
100
AcDbArc
 50
63.84006259340036
 51
132.4779621017995
  0
ELLIPSE
  5
FCF
330
1F
100
AcDbEntity
  8
SK1
100
AcDbEllipse
 10
22.11832678609998
 20
0.0
 30
0.0
 11
0.0
 21
12.5
 31
0.0
210
0.0
220
0.0
230
1.0
 40
0.2679491924
 41
0.493755138830534
 42
0.5738713876432547
  0
LINE
  5
FD0
330
1F
100
AcDbEntity
  8
1
100
AcDbLine
 10
19.59999836979998
 20
8.5258018225
 30
0.0
 11
19.59999836979998
 21
10.20451355720001
 31
0.0
  0
ARC
  5
FD4
330
1F
100
AcDbEntity
  8
SK1
100
AcDbCircle
 10
25.43466162629998
 20
11.40973361370001
 30
0.0
 40
0.2310387997447889
100
AcDbArc
 50
70.16924503050039
 51
121.9863033166999
  0
ELLIPSE
  5
FD5
330
1F
100
AcDbEntity
  8
SK1
100
AcDbEllipse
 10
26.55637537329997
 20
0.0
 30
0.0
 11
0.0
 21
12.5
 31
0.0
210
0.0
220
0.0
230
1.0
 40
0.2679491924
 41
0.3805632735216347
 42
0.4797576429760154
  0
ELLIPSE
  5
FD6
330
1F
100
AcDbEntity
  8
SK1
100
AcDbEllipse
 10
46.54269118359997
 20
0.0
 30
0.0
 11
46.65063509414421
 21
0.0
 31
0.0
210
0.0
220
0.0
230
1.0
 40
0.2679491924
 41
2.050553969770909
 42
2.057004634224675
  0
ARC
  5
FD7
330
1F
100
AcDbEntity
  8
SK1
100
AcDbCircle
 10
18.90296116
 20
0.0
 30
0.0
 40
12.49999999999956
100
AcDbArc
 50
62.14231602010002
 51
66.34027343779973
  0
ARC
  5
FD8
330
1F
100
AcDbEntity
  8
SK1
100
AcDbCircle
 10
23.84061880399998
 20
11.2534420828
 30
0.0
 40
0.2110664889763754
100
AcDbArc
 50
68.12454358629989
 51
125.3517844099
  0
ELLIPSE
  5
FD9
330
1F
100
AcDbEntity
  8
SK1
100
AcDbEllipse
 10
25.0770258442
 20
0.0
 30
0.0
 11
0.0
 21
12.5
 31
0.0
210
0.0
220
0.0
230
1.0
 40
0.2679491924
 41
0.4176434867603274
 42
0.5186732324073139
  0
ELLIPSE
  5
FDA
330
1F
100
AcDbEntity
  8
SK1
100
AcDbEllipse
 10
46.54269118359997
 20
0.0
 30
0.0
 11
46.65063509414839
 21
0.0
 31
0.0
210
0.0
220
0.0
230
0.9999999999999998
 40
0.2679491924
 41
2.089469559202211
 42
2.096059933121352
  0
ARC
  5
FDB
330
1F
100
AcDbEntity
  8
SK1
100
AcDbCircle
 10
16.88213212219999
 20
0.0
 30
0.0
 40
12.49999999999948
100
AcDbArc
 50
59.90461222569964
 51
64.18491210109976
  0
ARC
  5
FDC
330
1F
100
AcDbEntity
  8
SK1
100
AcDbCircle
 10
22.24653896249999
 20
11.07508122970001
 30
0.0
 40
0.1942368960614387
100
AcDbArc
 50
66.01877283909971
 51
128.8411342265995
  0
ELLIPSE
  5
FDD
330
1F
100
AcDbEntity
  8
SK1
100
AcDbEllipse
 10
23.59767631519999
 20
0.0
 30
0.0
 11
0.0
 21
12.5
 31
0.0
210
0.0
220
0.0
230
1.0
 40
0.2679491924
 41
0.4553444910964268
 42
0.5584737073289942
  0
ELLIPSE
  5
FDE
330
1F
100
AcDbEntity
  8
SK1
100
AcDbEllipse
 10
46.54269118359997
 20
0.0
 30
0.0
 11
46.65063509413818
 21
0.0
 31
0.0
210
0.0
220
0.0
230
1.0
 40
0.2679491924
 41
2.129270034123885
 42
2.13602058216536
  0
LINE
  5
FEF
330
1F
100
AcDbEntity
  8
SK1
100
AcDbLine
 10
32.97931514679997
 20
11.9600128382
 30
0.0
 11
32.97931514679997
 21
4.54522017389999
 31
0.0
  0
LINE
  5
FF0
330
1F
100
AcDbEntity
  8
SK1
100
AcDbLine
 10
32.7128116041
 20
11.9380801916
 30
0.0
 11
32.7128116041
 21
5.644503233062858
 31
0.0
  0
LINE
  5
FF1
330
1F
100
AcDbEntity
  8
SK1
100
AcDbLine
 10
31.38553909949997
 20
11.82182133190001
 30
0.0
 11
31.38553909949997
 21
7.592349816109558
 31
0.0
  0
LINE
  5
FF2
330
1F
100
AcDbEntity
  8
SK1
100
AcDbLine
 10
31.11903555689998
 20
11.7970472201
 30
0.0
 11
31.11903555689998
 21
7.842307910300007
 31
0.0
  0
LINE
  5
FF3
330
1F
100
AcDbEntity
  8
SK1
100
AcDbLine
 10
26.33769996459998
 20
11.26674655819999
 30
0.0
 11
26.33769996459998
 21
8.212494415445052
 31
0.0
  0
LINE
  5
FF5
330
1F
100
AcDbEntity
  8
1
100
AcDbLine
 10
28.19303728525092
 20
5.509129259700016
 30
0.0
 11
29.85594980410001
 21
5.509129259700016
 31
0.0
  0
ARC
  5
FF6
330
1F
100
AcDbEntity
  8
1
100
AcDbCircle
 10
28.6202475532
 20
4.058610091000004
 30
0.0
 40
1.442061350821524
100
AcDbArc
 50
29.27490630800015
 51
85.7446759358997
  0
LINE
  5
FF7
330
1F
100
AcDbEntity
  8
1
100
AcDbLine
 10
29.89354915909999
 20
3.263863502000006
 30
0.0
 11
29.48302216819998
 21
2.509298967200009
 31
0.0
  0
LINE
  5
FF8
330
1F
100
AcDbEntity
  8
1
100
AcDbLine
 10
29.45471741259996
 20
5.504709202800015
 30
0.0
 11
29.87813390789998
 21
4.763778764700019
 31
0.0
  0
LINE
  5
FF9
330
1F
100
AcDbEntity
  8
1
100
AcDbLine
 10
29.48302216819998
 20
2.509298967200009
 30
0.0
 11
29.8867803067
 21
2.509298967200009
 31
0.0
  0
LINE
  5
1012
330
1F
100
AcDbEntity
  8
1
100
AcDbLine
 10
28.72725017369999
 20
5.49669610330001
 30
0.0
 11
28.6157224327
 21
5.4999152198
 31
0.0
  0
LINE
  5
1014
330
1F
100
AcDbEntity
  8
1
100
AcDbLine
 10
28.6157224327
 20
5.4999152198
 30
0.0
 11
28.50428409869998
 21
5.494240205699994
 31
0.0
  0
LINE
  5
1019
330
1F
100
AcDbEntity
  8
1
100
AcDbLine
 10
29.4521916657
 20
5.509129259700016
 30
0.0
 11
29.45471741259996
 21
5.504709202800015
 31
0.0
  0
ARC
  5
101E
330
1F
100
AcDbEntity
  8
1
100
AcDbCircle
 10
28.63236177079999
 20
4.091938803600014
 30
0.0
 40
1.408138172341212
100
AcDbArc
 50
95.21856889429992
 51
110.4796476218002
  0
LINE
  5
101F
330
1F
100
AcDbEntity
  8
1
100
AcDbLine
 10
29.48302216819998
 20
2.509298967200009
 30
0.0
 11
28.64655293519998
 21
2.500084927299994
 31
0.0
  0
LINE
  5
1020
330
1F
100
AcDbEntity
  8
1
100
AcDbLine
 10
28.64655293519998
 20
2.500084927299994
 30
0.0
 11
28.21131609379998
 21
2.49529047860001
 31
0.0
  0
LINE
  5
1021
330
1F
100
AcDbEntity
  8
1
100
AcDbLine
 10
28.21384184059997
 20
2.490870887400005
 30
0.0
 11
27.36195735629998
 21
3.981572110200005
 31
0.0
  0
LINE
  5
1022
330
1F
100
AcDbEntity
  8
1
100
AcDbLine
 10
27.36195735629998
 20
3.981572110200005
 30
0.0
 11
28.19303728525092
 21
5.509129259700016
 31
0.0
  0
ARC
  5
1026
330
1F
100
AcDbEntity
  8
1
100
AcDbCircle
 10
28.53409177619997
 20
3.999928640500016
 30
0.0
 40
1.545935401008039
100
AcDbArc
 50
331.5670959463
 51
29.61056757099992
  0
LINE
  5
1027
330
1F
100
AcDbEntity
  8
1
100
AcDbLine
 10
30.30407615
 20
4.018428269700008
 30
0.0
 11
29.89354915909999
 21
3.263863502000006
 31
0.0
  0
LINE
  5
1028
330
1F
100
AcDbEntity
  8
1
100
AcDbLine
 10
29.87813390789998
 20
4.763778764700019
 30
0.0
 11
30.30407615
 21
4.018428269700008
 31
0.0
  0
LINE
  5
1029
330
1F
100
AcDbEntity
  8
1
100
AcDbLine
 10
30.30407615
 20
4.018428269700008
 30
0.0
 11
30.70783428839998
 21
4.018428269700008
 31
0.0
  0
LINE
  5
102A
330
1F
100
AcDbEntity
  8
1
100
AcDbLine
 10
29.85594980410001
 20
5.509129259700016
 30
0.0
 11
30.70783428839998
 21
4.018428269700008
 31
0.0
  0
LINE
  5
102B
330
1F
100
AcDbEntity
  8
1
100
AcDbLine
 10
30.70783428839998
 20
4.018428269700008
 30
0.0
 11
29.8867803067
 21
2.509298967200009
 31
0.0
  0
ELLIPSE
  5
102C
330
1F
100
AcDbEntity
  8
SK1
100
AcDbEllipse
 10
46.54269118359997
 20
0.0
 30
0.0
 11
46.65063509414486
 21
0.0
 31
0.0
210
0.0
220
0.0
230
1.0
 40
0.2679491924
 41
1.938069559094769
 42
1.944197817099273
  0
ARC
  5
102F
330
1F
100
AcDbEntity
  8
SK1
100
AcDbCircle
 10
24.96544827339998
 20
0.0
 30
0.0
 40
12.49999999999976
100
AcDbArc
 50
68.60567054170032
 51
72.61375419300001
  0
ARC
  5
1030
330
1F
100
AcDbEntity
  8
SK1
100
AcDbCircle
 10
28.62264434749998
 20
11.6551618624
 30
0.0
 40
0.2846218086050831
100
AcDbArc
 50
74.10489665309977
 51
115.5622695237004
  0
ELLIPSE
  5
1031
330
1F
100
AcDbEntity
  8
SK1
100
AcDbEllipse
 10
29.51507443149998
 20
0.0
 30
0.0
 11
0.0
 21
12.5
 31
0.0
210
0.0
220
0.0
230
1.0
 40
0.2679491924
 41
0.3079600338873587
 42
0.4041484594240287
  0
ELLIPSE
  5
1032
330
1F
100
AcDbEntity
  8
SK1
100
AcDbEllipse
 10
46.54269118359997
 20
0.0
 30
0.0
 11
46.65063509414307
 21
0.0
 31
0.0
210
0.0
220
0.0
230
1.0
 40
0.2679491924
 41
1.974944786218913
 42
1.981166452060785
  0
ARC
  5
1033
330
1F
100
AcDbEntity
  8
SK1
100
AcDbCircle
 10
22.9446192356
 20
0.0
 30
0.0
 40
12.49999999999972
100
AcDbArc
 50
66.48752378400009
 51
70.55050408190019
  0
ARC
  5
1034
330
1F
100
AcDbEntity
  8
SK1
100
AcDbCircle
 10
27.02866436329999
 20
11.5438760951
 30
0.0
 40
0.2550826502471571
100
AcDbArc
 50
72.15894294670029
 51
118.7294725716
  0
ELLIPSE
  5
1036
330
1F
100
AcDbEntity
  8
SK1
100
AcDbEllipse
 10
46.54269118359997
 20
0.0
 30
0.0
 11
46.65063509414483
 21
0.0
 31
0.0
210
0.0
220
0.0
230
1.0
 40
0.2679491924
 41
2.01241132202141
 42
2.018739846810584
  0
LINE
  5
1037
330
1F
100
AcDbEntity
  8
SK1
100
AcDbLine
 10
29.52525578439998
 20
11.638648808
 30
0.0
 11
29.52525578439998
 21
8.592364012638077
 31
0.0
  0
LINE
  5
1038
330
1F
100
AcDbEntity
  8
SK1
100
AcDbLine
 10
27.93147973709999
 20
11.4621650427
 30
0.0
 11
27.93147973709999
 21
8.69680409599033
 31
0.0
  0
LINE
  5
1039
330
1F
100
AcDbEntity
  8
SK1
100
AcDbLine
 10
28.1979832798
 20
11.4929694682
 30
0.0
 11
28.1979832798
 21
8.728774320164841
 31
0.0
  0
LINE
  5
103A
330
1F
100
AcDbEntity
  8
SK1
100
AcDbLine
 10
26.60420723259999
 20
11.300782673
 30
0.0
 11
26.60420723259999
 21
8.351088888648233
 31
0.0
  0
ELLIPSE
  5
103C
330
1F
100
AcDbEntity
  8
SK1
100
AcDbEllipse
 10
28.03572490239998
 20
0.0
 30
0.0
 11
0.0
 21
12.5
 31
0.0
210
0.0
220
0.0
230
1.0
 40
0.2679491924
 41
0.3440254468975402
 42
0.4416149952265168
  0
ELLIPSE
  5
1044
330
1F
100
AcDbEntity
  8
SK1
100
AcDbEllipse
 10
42.4085286473
 20
0.0
 30
0.0
 11
46.65063509461027
 21
0.0
 31
0.0
210
0.0
220
0.0
230
1.0
 40
0.2679491924
 41
1.762939081305195
 42
1.76586581718078
  0
ELLIPSE
  5
1046
330
1F
100
AcDbEntity
  8
SK1
100
AcDbEllipse
 10
33.95312301869999
 20
0.0
 30
0.0
 11
0.0
 21
12.5
 31
0.0
210
0.0
220
0.0
230
1.0
 40
0.2679491924
 41
0.201993740398882
 42
0.2950039429709203
  0
ELLIPSE
  5
1047
330
1F
100
AcDbEntity
  8
SK1
100
AcDbEllipse
 10
46.54269118379999
 20
0.0
 30
0.0
 11
46.65063509461077
 21
0.0
 31
0.0
210
0.0
220
0.0
230
1.0
 40
0.2679491924
 41
1.865800269765804
 42
1.87177644620176
  0
ARC
  5
1048
330
1F
100
AcDbEntity
  8
SK1
100
AcDbCircle
 10
29.00710634899998
 20
0.0
 30
0.0
 40
12.50000000000051
100
AcDbArc
 50
72.7551094405997
 51
76.67446182760037
  0
ARC
  5
1049
330
1F
100
AcDbEntity
  8
SK1
100
AcDbCircle
 10
31.81053199849996
 20
11.80183108829999
 30
0.0
 40
0.3698581602625078
100
AcDbArc
 50
77.88567622810042
 51
109.4484610148998
  0
ELLIPSE
  5
104A
330
1F
100
AcDbEntity
  8
SK1
100
AcDbEllipse
 10
32.47377348959998
 20
0.0
 30
0.0
 11
0.0
 21
12.5
 31
0.0
210
0.0
220
0.0
230
1.0
 40
0.2679491924
 41
0.2369994853293213
 42
0.330914170334984
  0
ELLIPSE
  5
104B
330
1F
100
AcDbEntity
  8
SK1
100
AcDbEllipse
 10
46.5426911837
 20
0.0
 30
0.0
 11
46.65063509413949
 21
0.0
 31
0.0
210
0.0
220
0.0
230
1.0
 40
0.2679491924
 41
1.901710497129878
 42
1.907757323822513
  0
ARC
  5
104C
330
1F
100
AcDbEntity
  8
SK1
100
AcDbCircle
 10
26.9862773112
 20
0.0
 30
0.0
 40
12.49999999999981
100
AcDbArc
 50
70.69355700979979
 51
74.6539858922
  0
ARC
  5
104D
330
1F
100
AcDbEntity
  8
SK1
100
AcDbCircle
 10
30.21659605399998
 20
11.74210837059999
 30
0.0
 40
0.3217482546568045
100
AcDbArc
 50
76.01142119610002
 51
112.472999248
  0
ELLIPSE
  5
104E
330
1F
100
AcDbEntity
  8
SK1
100
AcDbEllipse
 10
30.99442396049998
 20
0.0
 30
0.0
 11
0.0
 21
12.5
 31
0.0
210
0.0
220
0.0
230
1.0
 40
0.2679491924
 41
0.2723039023759989
 42
0.3672732322998759
  0
LINE
  5
1050
330
1F
100
AcDbEntity
  8
SK1
100
AcDbLine
 10
33.80000032479999
 20
11.97995711109999
 30
0.0
 11
33.49999897179996
 21
12.26996630430001
 31
0.0
  0
LINE
  5
1051
330
1F
100
AcDbEntity
  8
SK1
100
AcDbLine
 10
29.7917630523
 20
11.666374281
 30
0.0
 11
29.7917630523
 21
8.505950351578983
 31
0.0
  0
ARC
  5
105B
330
1F
100
AcDbEntity
  8
SK1
100
AcDbCircle
 10
33.36768320449997
 20
12.0352281369
 30
0.0
 40
0.2277053408615622
100
AcDbArc
 50
90.41971597379999
 51
112.3312157180996
  0
LINE
  5
105D
330
1F
100
AcDbEntity
  8
SK1
100
AcDbLine
 10
33.49999897179996
 20
12.50000018620001
 30
0.0
 11
33.49999897179996
 21
12.26996630430001
 31
0.0
  0
LINE
  5
105E
330
1F
100
AcDbEntity
  8
SK1
100
AcDbLine
 10
33.80000032479999
 20
12.1999997645
 30
0.0
 11
33.49999897179996
 21
12.50000018620001
 31
0.0
  0
LINE
  5
111B
330
1F
100
AcDbEntity
  8
SK4
100
AcDbLine
 10
0.0
 20
0.0
 30
0.0
 11
-14.0
 21
0.0
 31
0.0
  0
LINE
  5
111C
330
1F
100
AcDbEntity
  8
SK3
100
AcDbLine
 10
-10.89913983462796
 20
-2.499999999999999
 30
0.0
 11
0.0
 21
-2.499999999999999
 31
0.0
  0
LINE
  5
111D
330
1F
100
AcDbEntity
  8
SK3
100
AcDbLine
 10
0.0
 20
2.499999999999999
 30
0.0
 11
-10.89913983468816
 21
2.5
 31
0.0
  0
CIRCLE
  5
111E
330
1F
100
AcDbEntity
  8
SK1
100
AcDbCircle
 10
-7.0
 20
0.0
 30
0.0
 40
2.099999999999992
  0
CIRCLE
  5
111F
330
1F
100
AcDbEntity
  8
SK1
100
AcDbCircle
 10
-7.0
 20
0.0
 30
0.0
 40
2.64919909433145
  0
LWPOLYLINE
  5
1120
330
1F
100
AcDbEntity
  8
SK1
100
AcDbPolyline
 90
       30
 70
   128
 43
0.0
 10
-10.25
 20
0.0
 10
-10.23323195909999
 20
0.2724922474999971
 10
-10.16240336119998
 20
0.6195801427000021
 10
-10.03605876434998
 20
0.9591804905500111
 10
-9.856856693099999
 20
1.282479844849999
 10
-9.748590987750006
 20
1.436029584449995
 10
-9.629544652250004
 20
1.582188215749994
 10
-9.417101294099992
 20
1.801059922849999
 10
-9.181005605000008
 20
1.998990904250007
 10
-8.951331716049992
 20
2.157669628450006
 10
-8.706889043200007
 20
2.297552303249998
 10
-8.445596330550003
 20
2.4195821813
 10
-8.172601234150008
 20
2.52093366225
 10
-7.899141707400002
 20
2.598623074399995
 10
-7.618025449699999
 20
2.655704332400004
 10
-7.326985629649995
 20
2.691915280450003
 10
-7.031662511999996
 20
2.705740011500009
 10
-6.737606941449996
 20
2.696891840900008
 10
-6.443330751749996
 20
2.665237885900009
 10
-6.146664709900007
 20
2.609455793199998
 10
-5.854084647500002
 20
2.529526974849999
 10
-5.579834407549995
 20
2.430098790349997
 10
-5.313537966449999
 20
2.308057113300009
 10
-5.05357263095
 20
2.160750458399999
 10
-4.806472797950005
 20
1.989461076150004
 10
-4.624989866000007
 20
1.839398356100003
 10
-4.454768606099988
 20
1.67463188175
 10
-4.295530218800008
 20
1.492602475149993
 10
-4.151640446849995
 20
1.295404785950011
 10
-4.062004200450004
 20
1.14970418755
  0
LWPOLYLINE
  5
1121
330
1F
100
AcDbEntity
  8
SK1
100
AcDbPolyline
 90
       33
 70
   128
 43
0.0
 10
-4.062004200450004
 20
-1.14970418755
 10
-4.188472256549998
 20
-1.349592989549989
 10
-4.3331325486
 20
-1.538516656849991
 10
-4.475323320300002
 20
-1.6959829205
 10
-4.629354413349997
 20
-1.843291347849998
 10
-4.795932182699985
 20
-1.981362044299998
 10
-4.972545917200005
 20
-2.108280762299997
 10
-5.188978661400011
 20
-2.241257011750008
 10
-5.416527007249996
 20
-2.358460402800004
 10
-5.656718819849999
 20
-2.46051585194999
 10
-5.905727139299997
 20
-2.545521794299999
 10
-6.183946275950006
 20
-2.617825625899996
 10
-6.469465161299991
 20
-2.668987503699995
 10
-6.764620928500007
 20
-2.698647612099989
 10
-7.063538872449996
 20
-2.705344826249998
 10
-7.357127129299994
 20
-2.689216174600005
 10
-7.650273235400008
 20
-2.650280185149995
 10
-7.945107121499987
 20
-2.587137472199998
 10
-8.235175511899996
 20
-2.499891805549991
 10
-8.506578324199992
 20
-2.393416015449997
 10
-8.76937884064999
 20
-2.26433046254999
 10
-9.025142541249991
 20
-2.109824966600001
 10
-9.267250854300002
 20
-1.931291218499993
 10
-9.440629021999995
 20
-1.778979923000008
 10
-9.602628190199991
 20
-1.612594321300008
 10
-9.753440374799991
 20
-1.429620270249998
 10
-9.888863928099992
 20
-1.232232329899999
 10
-9.983794351699998
 20
-1.065707968749989
 10
-10.06626991094999
 20
-0.8909065646000016
 10
-10.1358597758
 20
-0.7058610457499981
 10
-10.1900278458
 20
-0.5137041361499968
 10
-10.2346621182
 20
-0.2606399676499933
 10
-10.25
 20
0.0
  0
LINE
  5
1122
330
1F
100
AcDbEntity
  8
SK1
100
AcDbLine
 10
-4.062004200450004
 20
7.0
 30
0.0
 11
-11.5
 21
7.0
 31
0.0
  0
LINE
  5
1123
330
1F
100
AcDbEntity
  8
SK1
100
AcDbLine
 10
-11.5
 20
-7.0
 30
0.0
 11
-4.062004200450004
 21
-7.0
 31
0.0
  0
LINE
  5
1125
330
1F
100
AcDbEntity
  8
SK1
100
AcDbLine
 10
-14.0
 20
-6.400000000000002
 30
0.0
 11
-14.0
 21
6.400000000000002
 31
0.0
  0
LINE
  5
1126
330
1F
100
AcDbEntity
  8
SK1
100
AcDbLine
 10
-11.5
 20
-7.0
 30
0.0
 11
-11.5
 21
7.0
 31
0.0
  0
LINE
  5
1127
330
1F
100
AcDbEntity
  8
SK1
100
AcDbLine
 10
-12.84144658584999
 20
-6.811471977099995
 30
0.0
 11
-11.5
 21
-7.0
 31
0.0
  0
ARC
  5
1128
330
1F
100
AcDbEntity
  8
SK1
100
AcDbCircle
 10
-12.89711582619998
 20
-7.207579204599994
 30
0.0
 40
0.4000000000000082
100
AcDbArc
 50
82.0
 51
100.0
  0
LINE
  5
1129
330
1F
100
AcDbEntity
  8
SK1
100
AcDbLine
 10
-13.41317591119999
 20
-6.892403876499997
 30
0.0
 11
-12.96657509729999
 21
-6.813656103400006
 31
0.0
  0
ARC
  5
112A
330
1F
100
AcDbEntity
  8
SK1
100
AcDbCircle
 10
-13.5
 20
-6.400000000000002
 30
0.0
 40
0.5
100
AcDbArc
 50
180.0
 51
280.0
  0
LINE
  5
112C
330
1F
100
AcDbEntity
  8
SK1
100
AcDbLine
 10
-11.5
 20
7.0
 30
0.0
 11
-12.84144658584999
 21
6.811471977150006
 31
0.0
  0
ARC
  5
112E
330
1F
100
AcDbEntity
  8
SK1
100
AcDbCircle
 10
-12.89711582619998
 20
7.207579204650002
 30
0.0
 40
0.4000000000000082
100
AcDbArc
 50
260.0
 51
278.0
  0
LINE
  5
112F
330
1F
100
AcDbEntity
  8
SK1
100
AcDbLine
 10
-12.96657509729999
 20
6.81365610345
 30
0.0
 11
-13.41317591119999
 21
6.892403876500011
 31
0.0
  0
ARC
  5
1130
330
1F
100
AcDbEntity
  8
SK1
100
AcDbCircle
 10
-13.5
 20
6.400000000000002
 30
0.0
 40
0.500000000000005
100
AcDbArc
 50
80.0
 51
180.0
  0
LINE
  5
1131
330
1F
100
AcDbEntity
  8
1
100
AcDbLine
 10
0.0
 20
-12.29999999999999
 30
0.0
 11
0.0
 21
12.29999999999999
 31
0.0
  0
ARC
  5
1132
330
1F
100
AcDbEntity
  8
1
100
AcDbCircle
 10
0.2000000000000028
 20
-12.29999999999999
 30
0.0
 40
0.2000000000000028
100
AcDbArc
 50
180.0
 51
270.0
  0
LINE
  5
1133
330
1F
100
AcDbEntity
  8
3
100
AcDbLine
 10
0.3500000000000085
 20
-9.575000000000002
 30
0.0
 11
0.3500000000000085
 21
9.575000000000002
 31
0.0
  0
LINE
  5
1134
330
1F
100
AcDbEntity
  8
SK1
100
AcDbLine
 10
-4.062004200450004
 20
1.14970418755
 30
0.0
 11
-4.062004200450004
 21
7.0
 31
0.0
  0
LINE
  5
1135
330
1F
100
AcDbEntity
  8
SK1
100
AcDbLine
 10
-2.450000000000001
 20
-9.325000000000002
 30
0.0
 11
-2.450000000000001
 21
9.325000000000002
 31
0.0
  0
LINE
  5
1136
330
1F
100
AcDbEntity
  8
SK1
100
AcDbLine
 10
-0.1499999999999915
 20
4.627238076400002
 30
0.0
 11
-0.1499999999999915
 21
-4.62723807635001
 31
0.0
  0
ARC
  5
1137
330
1F
100
AcDbEntity
  8
3
100
AcDbCircle
 10
-0.25
 20
-9.575000000000002
 30
0.0
 40
0.6000000000000038
100
AcDbArc
 50
0.0
 51
65.37568164779999
  0
LINE
  5
1138
330
1F
100
AcDbEntity
  8
3
100
AcDbLine
 10
0.0
 20
-10.45859421974997
 30
0.0
 11
0.2937846722000046
 21
-9.828570957050004
 31
0.0
  0
LINE
  5
1139
330
1F
100
AcDbEntity
  8
SK1
100
AcDbLine
 10
-4.062004200450004
 20
-7.0
 30
0.0
 11
-4.062004200450004
 21
-1.14970418755
 31
0.0
  0
LINE
  5
113A
330
1F
100
AcDbEntity
  8
SK1
100
AcDbLine
 10
-1.133594219799999
 20
-5.259812258999999
 30
0.0
 11
-0.5035709570500018
 21
-4.719412071049987
 31
0.0
  0
LINE
  5
113B
330
1F
100
AcDbEntity
  8
SK1
100
AcDbLine
 10
-1.133594219799999
 20
-5.259812258999999
 30
0.0
 11
-2.450000000000001
 21
-5.259812258999999
 31
0.0
  0
LINE
  5
113C
330
1F
100
AcDbEntity
  8
SK1
100
AcDbLine
 10
-1.133594219799999
 20
-9.325000000000002
 30
0.0
 11
-1.133594219799999
 21
-5.259812258999999
 31
0.0
  0
LINE
  5
113D
330
1F
100
AcDbEntity
  8
SK1
100
AcDbLine
 10
-4.062004200450004
 20
-7.0
 30
0.0
 11
-3.205291427049997
 21
-6.770444504199999
 31
0.0
  0
ARC
  5
113E
330
1F
100
AcDbEntity
  8
SK1
100
AcDbCircle
 10
-3.049999999999997
 20
-7.349999999999994
 30
0.0
 40
0.6000000000000071
100
AcDbArc
 50
0.0
 51
104.9999999999998
  0
LINE
  5
113F
330
1F
100
AcDbEntity
  8
SK1
100
AcDbLine
 10
-2.450000000000001
 20
-9.325000000000002
 30
0.0
 11
-1.133594219799999
 21
-9.325000000000002
 31
0.0
  0
LINE
  5
1140
330
1F
100
AcDbEntity
  8
SK1
100
AcDbLine
 10
-1.133594219799999
 20
-9.325000000000002
 30
0.0
 11
-0.5035709570500018
 21
-9.031215327750002
 31
0.0
  0
ARC
  5
1141
330
1F
100
AcDbEntity
  8
SK1
100
AcDbCircle
 10
-0.25
 20
-9.575000000000002
 30
0.0
 40
0.6000000000000038
100
AcDbArc
 50
65.37568164779999
 51
115.0
  0
ARC
  5
1142
330
1F
100
AcDbEntity
  8
SK1
100
AcDbCircle
 10
-6.624832700799997
 20
0.0
 30
0.0
 40
2.808898296672785
100
AcDbArc
 50
335.8386361144998
 51
24.1613638855
  0
ARC
  5
1143
330
1F
100
AcDbEntity
  8
SK1
100
AcDbCircle
 10
-0.2529983286000004
 20
-4.956365787149991
 30
0.0
 40
0.3448676640269904
100
AcDbArc
 50
72.6228361437
 51
136.6001254825997
  0
ARC
  5
1144
330
1F
100
AcDbEntity
  8
3
100
AcDbCircle
 10
-0.25
 20
-9.575000000000002
 30
0.0
 40
0.6000000000000015
100
AcDbArc
 50
335.0
 51
0.0
  0
ARC
  5
1145
330
1F
100
AcDbEntity
  8
3
100
AcDbCircle
 10
-0.25
 20
9.575000000000002
 30
0.0
 40
0.60000000000001
100
AcDbArc
 50
294.6243183522
 51
345.625
  0
LINE
  5
1146
330
1F
100
AcDbEntity
  8
3
100
AcDbLine
 10
0.2937846722000046
 20
9.828570957050004
 30
0.0
 11
0.0
 21
10.4585942198
 31
0.0
  0
ARC
  5
1147
330
1F
100
AcDbEntity
  8
1
100
AcDbCircle
 10
0.2000000000000028
 20
12.29999999999999
 30
0.0
 40
0.200000000000017
100
AcDbArc
 50
90.0
 51
180.0
  0
LINE
  5
1148
330
1F
100
AcDbEntity
  8
SK1
100
AcDbLine
 10
-1.133594219799999
 20
5.259812258999999
 30
0.0
 11
-1.133594219799999
 21
9.325000000000002
 31
0.0
  0
LINE
  5
1149
330
1F
100
AcDbEntity
  8
SK1
100
AcDbLine
 10
-0.5035709570500018
 20
4.719412071100006
 30
0.0
 11
-1.133594219799999
 21
5.259812258999999
 31
0.0
  0
LINE
  5
114A
330
1F
100
AcDbEntity
  8
SK1
100
AcDbLine
 10
-1.133594219799999
 20
5.259812258999999
 30
0.0
 11
-2.450000000000001
 21
5.259812258999999
 31
0.0
  0
ARC
  5
114B
330
1F
100
AcDbEntity
  8
SK1
100
AcDbCircle
 10
-0.2491460191499897
 20
4.971142891400003
 30
0.0
 40
0.3579112388871139
100
AcDbArc
 50
224.6950343722
 51
286.0820040016
  0
LINE
  5
114C
330
1F
100
AcDbEntity
  8
SK1
100
AcDbLine
 10
-3.205291427049997
 20
6.770444504250007
 30
0.0
 11
-4.062004200450004
 21
7.0
 31
0.0
  0
ARC
  5
114D
330
1F
100
AcDbEntity
  8
SK1
100
AcDbCircle
 10
-3.049999999999997
 20
7.349999999999994
 30
0.0
 40
0.6000000000000071
100
AcDbArc
 50
255.0
 51
0.0
  0
LINE
  5
114E
330
1F
100
AcDbEntity
  8
SK1
100
AcDbLine
 10
-0.5035709570500018
 20
9.031215327799998
 30
0.0
 11
-1.133594219799999
 21
9.325000000000002
 31
0.0
  0
LINE
  5
114F
330
1F
100
AcDbEntity
  8
SK1
100
AcDbLine
 10
-1.133594219799999
 20
9.325000000000002
 30
0.0
 11
-2.450000000000001
 21
9.325000000000002
 31
0.0
  0
ARC
  5
1150
330
1F
100
AcDbEntity
  8
SK1
100
AcDbCircle
 10
-0.25
 20
9.575000000000002
 30
0.0
 40
0.6000000000000135
100
AcDbArc
 50
245.0
 51
294.6243183522
  0
ARC
  5
1151
330
1F
100
AcDbEntity
  8
3
100
AcDbCircle
 10
-0.25
 20
9.575000000000002
 30
0.0
 40
0.5999999999999979
100
AcDbArc
 50
345.625
 51
25.0
  0
LINE
  5
115D
330
1F
100
AcDbEntity
  8
SK3
100
AcDbLine
 10
-10.89913980109999
 20
-2.499999944200098
 30
0.0
 11
-10.89913980109999
 21
2.49999994409991
 31
0.0
  0
LINE
  5
115E
330
1F
100
AcDbEntity
  8
SK3
100
AcDbLine
 10
-11.5000004881
 20
-3.50000010810008
 30
0.0
 11
-10.89913980109999
 21
-2.499999944200098
 31
0.0
  0
LINE
  5
115F
330
1F
100
AcDbEntity
  8
SK3
100
AcDbLine
 10
-13.50000040839999
 20
-3.50000010810008
 30
0.0
 11
-11.5000004881
 21
-3.50000010810008
 31
0.0
  0
ARC
  5
1160
330
1F
100
AcDbEntity
  8
SK3
100
AcDbCircle
 10
-13.50000043220011
 20
-4.000000000000085
 30
0.0
 40
0.5
100
AcDbArc
 50
90.0
 51
180.0
  0
LINE
  5
1161
330
1F
100
AcDbEntity
  8
SK3
100
AcDbLine
 10
-10.89913980109999
 20
2.49999994409991
 30
0.0
 11
-11.5000004881
 21
3.500000108000008
 31
0.0
  0
LINE
  5
1162
330
1F
100
AcDbEntity
  8
SK3
100
AcDbLine
 10
-11.5000004881
 20
3.500000108000008
 30
0.0
 11
-13.50000040839999
 21
3.500000108000008
 31
0.0
  0
ARC
  5
1163
330
1F
100
AcDbEntity
  8
SK3
100
AcDbCircle
 10
-13.50000043220011
 20
4.0
 30
0.0
 40
0.5
100
AcDbArc
 50
180.0
 51
270.0
  0
LINE
  5
1166
330
1F
100
AcDbEntity
  8
SK3
100
AcDbLine
 10
31.29999898369997
 20
2.000000095000004
 30
0.0
 11
32.55746237703462
 21
2.000000095000004
 31
0.0
  0
LINE
  5
1168
330
1F
100
AcDbEntity
  8
4
100
AcDbLine
 10
0.0
 20
0.0
 30
0.0
 11
20.22909559309999
 21
0.0
 31
0.0
  0
LINE
  5
11CC
330
1F
100
AcDbEntity
  8
SK1
100
AcDbLine
 10
20.29999904334998
 20
12.50000018620001
 30
0.0
 11
33.49999897179996
 21
12.50000018620001
 31
0.0
  0
LINE
  5
11D2
330
1F
100
AcDbEntity
  8
1
100
AcDbLine
 10
20.22909559309998
 20
10.3217018768
 30
0.0
 11
20.29999904334998
 21
10.49756933109942
 31
0.0
  0
LINE
  5
11D3
330
1F
100
AcDbEntity
  8
1
100
AcDbLine
 10
33.80000032479999
 20
-8.495868787829262
 30
0.0
 11
33.80000032479999
 21
-12.19999976459998
 31
0.0
  0
LINE
  5
11D4
330
1F
100
AcDbEntity
  8
1
100
AcDbLine
 10
32.97931514679997
 20
-8.762562269279099
 30
0.0
 11
32.97931653213328
 21
-11.96001244779586
 31
0.0
  0
LINE
  5
11D5
330
1F
100
AcDbEntity
  8
1
100
AcDbLine
 10
32.7128116041
 20
-8.788079768651854
 30
0.0
 11
32.7128116041
 21
-11.93807982632068
 31
0.0
  0
LINE
  5
11D6
330
1F
100
AcDbEntity
  8
1
100
AcDbLine
 10
31.38553909949997
 20
-8.671821703254517
 30
0.0
 11
31.38553891887396
 21
-11.82182147173204
 31
0.0
  0
LINE
  5
11D7
330
1F
100
AcDbEntity
  8
1
100
AcDbLine
 10
31.11903555689997
 20
-8.647046633925459
 30
0.0
 11
31.11903384069668
 21
-11.79704723366313
 31
0.0
  0
LINE
  5
11D8
330
1F
100
AcDbEntity
  8
1
100
AcDbLine
 10
29.7917630523
 20
-8.516376503191667
 30
0.0
 11
29.79176130534666
 21
-11.6663739937401
 31
0.0
  0
LINE
  5
11D9
330
1F
100
AcDbEntity
  8
1
100
AcDbLine
 10
29.52525578439998
 20
-8.488649211273784
 30
0.0
 11
29.52525622724564
 21
-11.63864903775517
 31
0.0
  0
LINE
  5
11DA
330
1F
100
AcDbEntity
  8
1
100
AcDbLine
 10
28.1979832798
 20
-8.342969177451047
 30
0.0
 11
28.1979832798
 21
-11.49296978702609
 31
0.0
  0
LINE
  5
11DB
330
1F
100
AcDbEntity
  8
1
100
AcDbLine
 10
27.93147973709999
 20
-8.312164819072208
 30
0.0
 11
27.93147973709999
 21
-11.46216543720903
 31
0.0
  0
LINE
  5
11DC
330
1F
100
AcDbEntity
  8
1
100
AcDbLine
 10
26.60420723259999
 20
-8.150784453404014
 30
0.0
 11
26.60420607862452
 21
-11.30078241639206
 31
0.0
  0
LINE
  5
11DD
330
1F
100
AcDbEntity
  8
1
100
AcDbLine
 10
26.33769996459998
 20
-8.11674669272503
 30
0.0
 11
26.33770100051181
 21
-11.26674619348802
 31
0.0
  0
LINE
  5
11DE
330
1F
100
AcDbEntity
  8
1
100
AcDbLine
 10
25.01042745999999
 20
-7.938833199504965
 30
0.0
 11
25.0104284654284
 21
-11.0888351519404
 31
0.0
  0
LINE
  5
11DF
330
1F
100
AcDbEntity
  8
1
100
AcDbLine
 10
24.74392391739998
 20
-7.901386974847739
 30
0.0
 11
24.74392338715116
 21
-11.05138725367331
 31
0.0
  0
LINE
  5
11E0
330
1F
100
AcDbEntity
  8
1
100
AcDbLine
 10
23.41665141279998
 20
-7.705971946000993
 30
0.0
 11
23.41665085190057
 21
-10.85597075028555
 31
0.0
  0
LINE
  5
11E1
330
1F
100
AcDbEntity
  8
1
100
AcDbLine
 10
23.15014414489998
 20
-7.664898302089652
 30
0.0
 11
23.15014577378798
 21
-10.81489735664411
 31
0.0
  0
LINE
  5
11E2
330
1F
100
AcDbEntity
  8
1
100
AcDbLine
 10
21.82287164029998
 20
-7.450807140464737
 30
0.0
 11
21.82287164029998
 21
-10.60081059895465
 31
0.0
  0
LINE
  5
11E3
330
1F
100
AcDbEntity
  8
1
100
AcDbLine
 10
21.55636809759998
 20
-7.405856406297115
 30
0.0
 11
21.556368160339
 21
-10.55585636644066
 31
0.0
  0
DIMENSION
  5
11E4
330
1F
100
AcDbEntity
  8
2
100
AcDbDimension
  2
*D17
 10
33.80000032479999
 20
16.35611432716574
 30
0.0
 11
16.90000016239998
 21
20.14111432716574
 31
0.0
 70
    32
 71
     5
 42
33.8000003248
  3
GEN-ISO_TDM
100
AcDbAlignedDimension
 13
-0.0000000000000142
 23
12.29999999999999
 33
0.0
 14
33.80000032479999
 24
11.97995711109999
 34
0.0
100
AcDbRotatedDimension
  0
ENDSEC
  0
SECTION
  2
OBJECTS
  0
DICTIONARY
  5
C
330
0
100
AcDbDictionary
281
     1
  3
ACAD_GROUP
350
D
  3
ACAD_LAYOUT
350
1A
  3
ACAD_MLINESTYLE
350
17
  3
ACAD_PLOTSETTINGS
350
19
  3
ACAD_PLOTSTYLENAME
350
E
  3
AcDbVariableDictionary
350
28D
  0
DICTIONARY
  5
268
330
2
100
AcDbDictionary
280
     1
281
     1
  3
ACAD_LAYERSTATES
360
269
  0
DICTIONARY
  5
D
102
{ACAD_REACTORS
330
C
102
}
330
C
100
AcDbDictionary
281
     1
  0
DICTIONARY
  5
1A
102
{ACAD_REACTORS
330
C
102
}
330
C
100
AcDbDictionary
281
     1
  3
Layout1
350
1E
  3
Layout2
350
26
  3
Model
350
22
  0
DICTIONARY
  5
17
102
{ACAD_REACTORS
330
C
102
}
330
C
100
AcDbDictionary
281
     1
  3
Standard
350
18
  0
DICTIONARY
  5
19
102
{ACAD_REACTORS
330
C
102
}
330
C
100
AcDbDictionary
281
     1
  0
ACDBDICTIONARYWDFLT
  5
E
102
{ACAD_REACTORS
330
C
102
}
330
C
100
AcDbDictionary
281
     1
  3
Normal
350
F
100
AcDbDictionaryWithDefault
340
F
  0
DICTIONARY
  5
28D
102
{ACAD_REACTORS
330
C
102
}
330
C
100
AcDbDictionary
281
     1
  3
DIMASSOC
350
28E
  0
DICTIONARY
  5
269
102
{ACAD_REACTORS
330
268
102
}
330
268
100
AcDbDictionary
281
     1
  0
LAYOUT
  5
1E
102
{ACAD_REACTORS
330
1A
102
}
330
1A
100
AcDbPlotSettings
  1

  2

  4

  6

 40
0.0
 41
0.0
 42
0.0
 43
0.0
 44
0.0
 45
0.0
 46
0.0
 47
0.0
 48
0.0
 49
0.0
140
0.0
141
0.0
142
1.0
143
1.0
 70
   688
 72
     0
 73
     0
 74
     5
  7

 75
    16
147
1.0
148
0.0
149
0.0
100
AcDbLayout
  1
Layout1
 70
     1
 71
     1
 10
0.0
 20
0.0
 11
420.0
 21
297.0
 12
0.0
 22
0.0
 32
0.0
 14
1.000000000000000E+20
 24
1.000000000000000E+20
 34
1.000000000000000E+20
 15
-1.000000000000000E+20
 25
-1.000000000000000E+20
 35
-1.000000000000000E+20
146
0.0
 13
0.0
 23
0.0
 33
0.0
 16
1.0
 26
0.0
 36
0.0
 17
0.0
 27
1.0
 37
0.0
 76
     0
330
1B
  0
LAYOUT
  5
26
102
{ACAD_REACTORS
330
1A
102
}
330
1A
100
AcDbPlotSettings
  1

  2

  4

  6

 40
0.0
 41
0.0
 42
0.0
 43
0.0
 44
0.0
 45
0.0
 46
0.0
 47
0.0
 48
0.0
 49
0.0
140
0.0
141
0.0
142
1.0
143
1.0
 70
   688
 72
     0
 73
     0
 74
     5
  7

 75
    16
147
1.0
148
0.0
149
0.0
100
AcDbLayout
  1
Layout2
 70
     1
 71
     2
 10
0.0
 20
0.0
 11
0.0
 21
0.0
 12
0.0
 22
0.0
 32
0.0
 14
0.0
 24
0.0
 34
0.0
 15
0.0
 25
0.0
 35
0.0
146
0.0
 13
0.0
 23
0.0
 33
0.0
 16
1.0
 26
0.0
 36
0.0
 17
0.0
 27
1.0
 37
0.0
 76
     0
330
23
  0
LAYOUT
  5
22
102
{ACAD_REACTORS
330
1A
102
}
330
1A
100
AcDbPlotSettings
  1

  2

  4

  6

 40
0.0
 41
0.0
 42
0.0
 43
0.0
 44
0.0
 45
0.0
 46
0.0
 47
0.0
 48
0.0
 49
0.0
140
0.0
141
0.0
142
1.0
143
1.0
 70
  1712
 72
     0
 73
     0
 74
     0
  7

 75
     0
147
1.0
148
0.0
149
0.0
100
AcDbLayout
  1
Model
 70
     1
 71
     0
 10
0.0
 20
0.0
 11
0.0
 21
0.0
 12
0.0
 22
0.0
 32
0.0
 14
0.0
 24
0.0
 34
0.0
 15
297.0
 25
210.0
 35
0.0
146
0.0
 13
0.0
 23
0.0
 33
0.0
 16
1.0
 26
0.0
 36
0.0
 17
0.0
 27
1.0
 37
0.0
 76
     0
330
1F
  0
MLINESTYLE
  5
18
102
{ACAD_REACTORS
330
17
102
}
330
17
100
AcDbMlineStyle
  2
STANDARD
 70
     0
  3

 62
   256
 51
90.0
 52
90.0
 71
     2
 49
0.5
 62
   256
  6
BYLAYER
 49
-0.5
 62
   256
  6
BYLAYER
  0
ACDBPLACEHOLDER
  5
F
102
{ACAD_REACTORS
330
E
102
}
330
E
  0
DICTIONARYVAR
  5
28E
102
{ACAD_REACTORS
330
28D
102
}
330
28D
100
DictionaryVariables
280
     0
  1
1
  0
ENDSEC
  0
EOF
