  0
SECTION
  2
HEADER
  9
$ACADVER
  1
AC1015
  9
$ACADMAINTVER
 70
     6
  9
$DWGCODEPAGE
  3
ANSI_1252
  9
$INSBASE
 10
0.0
 20
0.0
 30
0.0
  9
$EXTMIN
 10
0.0
 20
0.0
 30
0.0
  9
$EXTMAX
 10
297.0
 20
210.0
 30
0.0
  9
$LIMMIN
 10
0.0
 20
0.0
  9
$LIMMAX
 10
297.0
 20
210.0
  9
$ORTHOMODE
 70
     0
  9
$REGENMODE
 70
     1
  9
$FILLMODE
 70
     1
  9
$QTEXTMODE
 70
     0
  9
$MIRRTEXT
 70
     1
  9
$LTSCALE
 40
1.0
  9
$ATTMODE
 70
     1
  9
$TEXTSIZE
 40
2.0
  9
$TRACEWID
 40
1.0
  9
$TEXTSTYLE
  7
Standard
  9
$CLAYER
  8
0
  9
$CELTYPE
  6
ByLayer
  9
$CECOLOR
 62
   256
  9
$CELTSCALE
 40
1.0
  9
$DISPSILH
 70
     0
  9
$DIMSCALE
 40
1.0
  9
$DIMASZ
 40
3.0
  9
$DIMEXO
 40
0.0
  9
$DIMDLI
 40
3.75
  9
$DIMRND
 40
0.0
  9
$DIMDLE
 40
0.0
  9
$DIMEXE
 40
1.0
  9
$DIMTP
 40
0.0
  9
$DIMTM
 40
0.0
  9
$DIMTXT
 40
2.0
  9
$DIMCEN
 40
2.5
  9
$DIMTSZ
 40
0.0
  9
$DIMTOL
 70
     0
  9
$DIMLIM
 70
     0
  9
$DIMTIH
 70
     1
  9
$DIMTOH
 70
     1
  9
$DIMSE1
 70
     0
  9
$DIMSE2
 70
     0
  9
$DIMTAD
 70
     1
  9
$DIMZIN
 70
     0
  9
$DIMBLK
  1

  9
$DIMASO
 70
     1
  9
$DIMSHO
 70
     1
  9
$DIMPOST
  1

  9
$DIMAPOST
  1

  9
$DIMALT
 70
     0
  9
$DIMALTD
 70
     3
  9
$DIMALTF
 40
0.0393700787
  9
$DIMLFAC
 40
1.0
  9
$DIMTOFL
 70
     1
  9
$DIMTVP
 40
0.0
  9
$DIMTIX
 70
     0
  9
$DIMSOXD
 70
     0
  9
$DIMSAH
 70
     0
  9
$DIMBLK1
  1

  9
$DIMBLK2
  1

  9
$DIMSTYLE
  2
ISO-25
  9
$DIMCLRD
 70
     0
  9
$DIMCLRE
 70
     0
  9
$DIMCLRT
 70
     0
  9
$DIMTFAC
 40
1.0
  9
$DIMGAP
 40
1.524
  9
$DIMJUST
 70
     0
  9
$DIMSD1
 70
     0
  9
$DIMSD2
 70
     0
  9
$DIMTOLJ
 70
     0
  9
$DIMTZIN
 70
     0
  9
$DIMALTZ
 70
     0
  9
$DIMALTTZ
 70
     0
  9
$DIMUPT
 70
     0
  9
$DIMDEC
 70
     2
  9
$DIMTDEC
 70
     3
  9
$DIMALTU
 70
     2
  9
$DIMALTTD
 70
     3
  9
$DIMTXSTY
  7
Standard
  9
$DIMAUNIT
 70
     0
  9
$DIMADEC
 70
     2
  9
$DIMALTRND
 40
0.0
  9
$DIMAZIN
 70
     0
  9
$DIMDSEP
 70
    44
  9
$DIMATFIT
 70
     3
  9
$DIMFRAC
 70
     0
  9
$DIMLDRBLK
  1

  9
$DIMLUNIT
 70
     2
  9
$DIMLWD
 70
    -2
  9
$DIMLWE
 70
    -2
  9
$DIMTMOVE
 70
     0
  9
$LUNITS
 70
     2
  9
$LUPREC
 70
     2
  9
$SKETCHINC
 40
1.0
  9
$FILLETRAD
 40
10.0
  9
$AUNITS
 70
     0
  9
$AUPREC
 70
     2
  9
$MENU
  1
.
  9
$ELEVATION
 40
0.0
  9
$PELEVATION
 40
0.0
  9
$THICKNESS
 40
0.0
  9
$LIMCHECK
 70
     0
  9
$CHAMFERA
 40
0.0
  9
$CHAMFERB
 40
0.0
  9
$CHAMFERC
 40
0.0
  9
$CHAMFERD
 40
0.0
  9
$SKPOLY
 70
     0
  9
$TDCREATE
 40
2457669.414333808
  9
$TDUCREATE
 40
2457669.331000475
  9
$TDUPDATE
 40
2457669.414335301
  9
$TDUUPDATE
 40
2457669.331001968
  9
$TDINDWG
 40
0.0000000116
  9
$TDUSRTIMER
 40
0.0000000116
  9
$USRTIMER
 70
     1
  9
$ANGBASE
 50
0.0
  9
$ANGDIR
 70
     0
  9
$PDMODE
 70
     0
  9
$PDSIZE
 40
-1.0
  9
$PLINEWID
 40
0.0
  9
$SPLFRAME
 70
     0
  9
$SPLINETYPE
 70
     6
  9
$SPLINESEGS
 70
     8
  9
$HANDSEED
  5
279
  9
$SURFTAB1
 70
     6
  9
$SURFTAB2
 70
     6
  9
$SURFTYPE
 70
     6
  9
$SURFU
 70
     6
  9
$SURFV
 70
     6
  9
$UCSBASE
  2

  9
$UCSNAME
  2

  9
$UCSORG
 10
0.0
 20
0.0
 30
0.0
  9
$UCSXDIR
 10
1.0
 20
0.0
 30
0.0
  9
$UCSYDIR
 10
0.0
 20
1.0
 30
0.0
  9
$UCSORTHOREF
  2

  9
$UCSORTHOVIEW
 70
     0
  9
$UCSORGTOP
 10
0.0
 20
0.0
 30
0.0
  9
$UCSORGBOTTOM
 10
0.0
 20
0.0
 30
0.0
  9
$UCSORGLEFT
 10
0.0
 20
0.0
 30
0.0
  9
$UCSORGRIGHT
 10
0.0
 20
0.0
 30
0.0
  9
$UCSORGFRONT
 10
0.0
 20
0.0
 30
0.0
  9
$UCSORGBACK
 10
0.0
 20
0.0
 30
0.0
  9
$PUCSBASE
  2

  9
$PUCSNAME
  2

  9
$PUCSORG
 10
0.0
 20
0.0
 30
0.0
  9
$PUCSXDIR
 10
1.0
 20
0.0
 30
0.0
  9
$PUCSYDIR
 10
0.0
 20
1.0
 30
0.0
  9
$PUCSORTHOREF
  2

  9
$PUCSORTHOVIEW
 70
     0
  9
$PUCSORGTOP
 10
0.0
 20
0.0
 30
0.0
  9
$PUCSORGBOTTOM
 10
0.0
 20
0.0
 30
0.0
  9
$PUCSORGLEFT
 10
0.0
 20
0.0
 30
0.0
  9
$PUCSORGRIGHT
 10
0.0
 20
0.0
 30
0.0
  9
$PUCSORGFRONT
 10
0.0
 20
0.0
 30
0.0
  9
$PUCSORGBACK
 10
0.0
 20
0.0
 30
0.0
  9
$USERI1
 70
     0
  9
$USERI2
 70
     0
  9
$USERI3
 70
     0
  9
$USERI4
 70
     0
  9
$USERI5
 70
     0
  9
$USERR1
 40
0.0
  9
$USERR2
 40
0.0
  9
$USERR3
 40
0.0
  9
$USERR4
 40
0.0
  9
$USERR5
 40
0.0
  9
$WORLDVIEW
 70
     1
  9
$SHADEDGE
 70
     3
  9
$SHADEDIF
 70
    70
  9
$TILEMODE
 70
     1
  9
$MAXACTVP
 70
    64
  9
$PINSBASE
 10
0.0
 20
0.0
 30
0.0
  9
$PLIMCHECK
 70
     0
  9
$PEXTMIN
 10
1.0000000000E+20
 20
1.0000000000E+20
 30
1.0000000000E+20
  9
$PEXTMAX
 10
-1.0000000000E+20
 20
-1.0000000000E+20
 30
-1.0000000000E+20
  9
$PLIMMIN
 10
0.0
 20
0.0
  9
$PLIMMAX
 10
420.0
 20
297.0
  9
$UNITMODE
 70
     0
  9
$VISRETAIN
 70
     1
  9
$PLINEGEN
 70
     0
  9
$PSLTSCALE
 70
     1
  9
$TREEDEPTH
 70
  3020
  9
$CMLSTYLE
  2
Standard
  9
$CMLJUST
 70
     0
  9
$CMLSCALE
 40
20.0
  9
$PROXYGRAPHICS
 70
     1
  9
$MEASUREMENT
 70
     1
  9
$CELWEIGHT
370
    -1
  9
$ENDCAPS
280
     0
  9
$JOINSTYLE
280
     0
  9
$LWDISPLAY
290
     1
  9
$INSUNITS
 70
     4
  9
$HYPERLINKBASE
  1

  9
$STYLESHEET
  1

  9
$XEDIT
290
     1
  9
$CEPSNTYPE
380
     0
  9
$PSTYLEMODE
290
     1
  9
$FINGERPRINTGUID
  2
{7258037D-04EA-408D-B3BB-6774B4917264}
  9
$VERSIONGUID
  2
{FAEB1C32-E019-11D5-929B-00C0DF256EC4}
  9
$EXTNAMES
290
     1
  9
$PSVPSCALE
 40
0.0
  9
$OLESTARTUP
290
     0
  0
ENDSEC
  0
SECTION
  2
CLASSES
  0
CLASS
  1
ACDBDICTIONARYWDFLT
  2
AcDbDictionaryWithDefault
  3
ObjectDBX Classes
 90
        0
280
     0
281
     0
  0
CLASS
  1
VISUALSTYLE
  2
AcDbVisualStyle
  3
ObjectDBX Classes
 90
     4095
280
     0
281
     0
  0
CLASS
  1
MATERIAL
  2
AcDbMaterial
  3
ObjectDBX Classes
 90
     1153
280
     0
281
     0
  0
CLASS
  1
SCALE
  2
AcDbScale
  3
ObjectDBX Classes
 90
     1153
280
     0
281
     0
  0
CLASS
  1
TABLESTYLE
  2
AcDbTableStyle
  3
ObjectDBX Classes
 90
     4095
280
     0
281
     0
  0
CLASS
  1
MLEADERSTYLE
  2
AcDbMLeaderStyle
  3
ACDB_MLEADERSTYLE_CLASS
 90
     4095
280
     0
281
     0
  0
CLASS
  1
SUN
  2
AcDbSun
  3
SCENEOE
 90
     1153
280
     0
281
     0
  0
CLASS
  1
ACDBPLACEHOLDER
  2
AcDbPlaceHolder
  3
ObjectDBX Classes
 90
        0
280
     0
281
     0
  0
CLASS
  1
LAYOUT
  2
AcDbLayout
  3
ObjectDBX Classes
 90
        0
280
     0
281
     0
  0
ENDSEC
  0
SECTION
  2
TABLES
  0
TABLE
  2
VPORT
  5
8
330
0
100
AcDbSymbolTable
 70
     1
  0
VPORT
  5
29
330
8
100
AcDbSymbolTableRecord
100
AcDbViewportTableRecord
  2
*Active
 70
     0
 10
0.0
 20
0.0
 11
1.0
 21
1.0
 12
148.5
 22
105.0
 13
0.0
 23
0.0
 14
10.0
 24
10.0
 15
10.0
 25
10.0
 16
0.0
 26
0.0
 36
1.0
 17
0.0
 27
0.0
 37
0.0
 40
210.0
 41
1.4142857143
 42
50.0
 43
0.0
 44
0.0
 50
0.0
 51
0.0
 71
     0
 72
  2000
 73
     1
 74
     3
 75
     0
 76
     0
 77
     0
 78
     0
281
     0
 65
     1
110
0.0
120
0.0
130
0.0
111
1.0
121
0.0
131
0.0
112
0.0
122
1.0
132
0.0
 79
     0
146
0.0
  0
ENDTAB
  0
TABLE
  2
LTYPE
  5
5
330
0
100
AcDbSymbolTable
 70
     6
  0
LTYPE
  5
14
330
5
100
AcDbSymbolTableRecord
100
AcDbLinetypeTableRecord
  2
ByBlock
 70
     0
  3

 72
    65
 73
     0
 40
0.0
  0
LTYPE
  5
15
330
5
100
AcDbSymbolTableRecord
100
AcDbLinetypeTableRecord
  2
ByLayer
 70
     0
  3

 72
    65
 73
     0
 40
0.0
  0
LTYPE
  5
16
330
5
100
AcDbSymbolTableRecord
100
AcDbLinetypeTableRecord
  2
Continuous
 70
     0
  3
Solid line
 72
    65
 73
     0
 40
0.0
  0
LTYPE
  5
6E
330
5
100
AcDbSymbolTableRecord
100
AcDbLinetypeTableRecord
  2
HIDDEN
 70
     0
  3
Hidden __ __ __ __ __ __ __ __ __ __ __ __ __ __
 72
    65
 73
     2
 40
1.905
 49
1.27
 74
     0
 49
-0.635
 74
     0
  0
LTYPE
  5
6F
330
5
100
AcDbSymbolTableRecord
100
AcDbLinetypeTableRecord
  2
PHANTOM
 70
     0
  3
Phantom ______  __  __  ______  __  __  ______
 72
    65
 73
     6
 40
12.7
 49
6.35
 74
     0
 49
-1.27
 74
     0
 49
1.27
 74
     0
 49
-1.27
 74
     0
 49
1.27
 74
     0
 49
-1.27
 74
     0
  0
LTYPE
  5
70
330
5
100
AcDbSymbolTableRecord
100
AcDbLinetypeTableRecord
  2
CENTER
 70
     0
  3
Center ____ _ ____ _ ____ _ ____ _ ____ _ ____
 72
    65
 73
     4
 40
10.16
 49
6.35
 74
     0
 49
-1.27
 74
     0
 49
1.27
 74
     0
 49
-1.27
 74
     0
  0
LTYPE
  5
71
330
5
100
AcDbSymbolTableRecord
100
AcDbLinetypeTableRecord
  2
CENTERX2
 70
     0
  3
Center (2x) ________  __  ________  __  _____
 72
    65
 73
     4
 40
20.32
 49
12.7
 74
     0
 49
-2.54
 74
     0
 49
2.54
 74
     0
 49
-2.54
 74
     0
  0
LTYPE
  5
72
330
5
100
AcDbSymbolTableRecord
100
AcDbLinetypeTableRecord
  2
DOT2
 70
     0
  3
Dot (.5x) ........................................
 72
    65
 73
     2
 40
0.635
 49
0.0
 74
     0
 49
-0.635
 74
     0
  0
ENDTAB
  0
TABLE
  2
LAYER
  5
2
330
0
100
AcDbSymbolTable
 70
     5
  0
LAYER
  5
10
330
2
100
AcDbSymbolTableRecord
100
AcDbLayerTableRecord
  2
0
 70
     0
 62
     7
  6
Continuous
370
    -3
390
F
  0
LAYER
  5
73
330
2
100
AcDbSymbolTableRecord
100
AcDbLayerTableRecord
  2
FORMAT
 70
     0
 62
     7
  6
Continuous
370
    -3
390
F
  0
LAYER
  5
74
330
2
100
AcDbSymbolTableRecord
100
AcDbLayerTableRecord
  2
VERMASSUNG
 70
     0
 62
     7
  6
Continuous
370
    -3
390
F
  0
LAYER
  5
75
330
2
100
AcDbSymbolTableRecord
100
AcDbLayerTableRecord
  2
KOPF_DÜNN
 70
     0
 62
     7
  6
Continuous
370
    -3
390
F
  0
LAYER
  5
76
330
2
100
AcDbSymbolTableRecord
100
AcDbLayerTableRecord
  2
KOPF_DICK
 70
     0
 62
     7
  6
Continuous
370
    15
390
F
  0
ENDTAB
  0
TABLE
  2
STYLE
  5
3
330
0
100
AcDbSymbolTable
 70
     2
  0
STYLE
  5
11
330
3
100
AcDbSymbolTableRecord
100
AcDbTextStyleTableRecord
  2
Standard
 70
     0
 40
0.0
 41
1.0
 50
0.0
 71
     0
 42
2.0
  3
txt
  4

  0
STYLE
  5
77
330
3
100
AcDbSymbolTableRecord
100
AcDbTextStyleTableRecord
  2
SLDTEXTSTYLE0
 70
     0
 40
0.0
 41
0.7
 50
0.0
 71
     0
 42
2.0
  3
TXT
  4

  0
ENDTAB
  0
TABLE
  2
VIEW
  5
6
330
0
100
AcDbSymbolTable
 70
     0
  0
ENDTAB
  0
TABLE
  2
UCS
  5
7
330
0
100
AcDbSymbolTable
 70
     0
  0
ENDTAB
  0
TABLE
  2
APPID
  5
9
330
0
100
AcDbSymbolTable
 70
     1
  0
APPID
  5
12
330
9
100
AcDbSymbolTableRecord
100
AcDbRegAppTableRecord
  2
ACAD
 70
     0
  0
ENDTAB
  0
TABLE
  2
DIMSTYLE
  5
A
330
0
100
AcDbSymbolTable
 70
     4
100
AcDbDimStyleTable
  0
DIMSTYLE
105
27
330
A
100
AcDbSymbolTableRecord
100
AcDbDimStyleTableRecord
  2
ISO-25
 70
     0
 41
2.5
 42
0.625
 43
3.75
 44
1.25
 73
     0
 74
     0
 77
     1
 78
     8
140
2.5
141
2.5
143
0.0393700787
147
0.625
171
     3
172
     1
178
     0
271
     2
272
     2
274
     3
278
    44
283
     0
284
     8
340
11
  0
DIMSTYLE
105
16C
102
{ACAD_REACTORS
330
16B
330
178
330
184
330
18F
330
19B
330
1A5
102
}
330
A
100
AcDbSymbolTableRecord
100
AcDbDimStyleTableRecord
  2
SLDDIMSTYLE0
 70
     0
 41
3.0
 44
0.0
 45
0.000000001
 73
     0
 74
     0
 77
     1
 78
    12
 79
     3
140
2.0
147
0.5
173
     1
178
     0
271
     2
272
     3
276
     2
284
    12
340
77
  0
DIMSTYLE
105
1B2
102
{ACAD_REACTORS
330
1B1
102
}
330
A
100
AcDbSymbolTableRecord
100
AcDbDimStyleTableRecord
  2
SLDDIMSTYLE1
 70
     0
 41
3.0
 44
0.0
 73
     0
 74
     0
 77
     1
 78
    12
 79
     3
140
2.0
147
0.5
173
     1
178
     0
179
     2
272
     3
276
     2
284
    12
340
77
  0
DIMSTYLE
105
1BB
102
{ACAD_REACTORS
330
1BA
102
}
330
A
100
AcDbSymbolTableRecord
100
AcDbDimStyleTableRecord
  2
SLDDIMSTYLE2
 70
     0
 41
3.0
 44
0.0
 45
0.000000001
 73
     0
 74
     0
 77
     1
 78
    12
 79
     3
140
2.0
141
0.0
147
0.5
173
     1
178
     0
271
     2
272
     3
276
     2
279
     1
284
    12
340
77
  0
ENDTAB
  0
TABLE
  2
BLOCK_RECORD
  5
1
330
0
100
AcDbSymbolTable
 70
     9
  0
BLOCK_RECORD
  5
1F
330
1
100
AcDbSymbolTableRecord
100
AcDbBlockTableRecord
  2
*Model_Space
340
22
  0
BLOCK_RECORD
  5
1B
330
1
100
AcDbSymbolTableRecord
100
AcDbBlockTableRecord
  2
*Paper_Space
340
1E
  0
BLOCK_RECORD
  5
23
330
1
100
AcDbSymbolTableRecord
100
AcDbBlockTableRecord
  2
*Paper_Space0
340
26
  0
BLOCK_RECORD
  5
16D
330
1
100
AcDbSymbolTableRecord
100
AcDbBlockTableRecord
  2
_D
340
0
  0
BLOCK_RECORD
  5
179
330
1
100
AcDbSymbolTableRecord
100
AcDbBlockTableRecord
  2
_D_1
340
0
  0
BLOCK_RECORD
  5
185
330
1
100
AcDbSymbolTableRecord
100
AcDbBlockTableRecord
  2
_D_2
340
0
  0
BLOCK_RECORD
  5
190
330
1
100
AcDbSymbolTableRecord
100
AcDbBlockTableRecord
  2
_D_3
340
0
  0
BLOCK_RECORD
  5
19C
330
1
100
AcDbSymbolTableRecord
100
AcDbBlockTableRecord
  2
_D_4
340
0
  0
BLOCK_RECORD
  5
1A6
330
1
100
AcDbSymbolTableRecord
100
AcDbBlockTableRecord
  2
_D_5
340
0
  0
BLOCK_RECORD
  5
1B3
330
1
100
AcDbSymbolTableRecord
100
AcDbBlockTableRecord
  2
_D_6
340
0
  0
BLOCK_RECORD
  5
1BC
330
1
100
AcDbSymbolTableRecord
100
AcDbBlockTableRecord
  2
_D_7
340
0
  0
ENDTAB
  0
ENDSEC
  0
SECTION
  2
BLOCKS
  0
BLOCK
  5
20
330
1F
100
AcDbEntity
  8
0
100
AcDbBlockBegin
  2
*Model_Space
 70
     0
 10
0.0
 20
0.0
 30
0.0
  3
*Model_Space
  1

  0
ENDBLK
  5
21
330
1F
100
AcDbEntity
  8
0
100
AcDbBlockEnd
  0
BLOCK
  5
1C
330
1B
100
AcDbEntity
 67
     1
  8
0
100
AcDbBlockBegin
  2
*Paper_Space
 70
     0
 10
0.0
 20
0.0
 30
0.0
  3
*Paper_Space
  1

  0
ENDBLK
  5
1D
330
1B
100
AcDbEntity
 67
     1
  8
0
100
AcDbBlockEnd
  0
BLOCK
  5
24
330
23
100
AcDbEntity
  8
0
100
AcDbBlockBegin
  2
*Paper_Space0
 70
     0
 10
0.0
 20
0.0
 30
0.0
  3
*Paper_Space0
  1

  0
ENDBLK
  5
25
330
23
100
AcDbEntity
  8
0
100
AcDbBlockEnd
  0
BLOCK
  5
16E
330
16D
100
AcDbEntity
  8
0
100
AcDbBlockBegin
  2
_D
 70
     0
 10
0.0
 20
0.0
 30
0.0
  3
_D
  1

  0
SOLID
  5
170
330
16D
100
AcDbEntity
  8
VERMASSUNG
100
AcDbTrace
 10
221.4923343163
 20
124.7619520282
 30
0.0
 11
221.0423343163
 21
121.7619520282
 31
0.0
 12
221.9423343163
 22
121.7619520282
 32
0.0
 13
221.9423343163
 23
121.7619520282
 33
0.0
  0
SOLID
  5
171
330
16D
100
AcDbEntity
  8
VERMASSUNG
100
AcDbTrace
 10
221.4923343163
 20
104.7619520282
 30
0.0
 11
221.9423343163
 21
107.7619520282
 31
0.0
 12
221.0423343163
 22
107.7619520282
 32
0.0
 13
221.0423343163
 23
107.7619520282
 33
0.0
  0
LINE
  5
172
330
16D
100
AcDbEntity
  8
VERMASSUNG
100
AcDbLine
 10
207.1586292856
 20
124.7619520282
 30
0.0
 11
222.4923343163
 21
124.7619520282
 31
0.0
  0
LINE
  5
173
330
16D
100
AcDbEntity
  8
VERMASSUNG
100
AcDbLine
 10
207.1586292856
 20
104.7619520282
 30
0.0
 11
222.4923343163
 21
104.7619520282
 31
0.0
  0
LINE
  5
174
330
16D
100
AcDbEntity
  8
VERMASSUNG
100
AcDbLine
 10
221.4923343163
 20
124.7619520282
 30
0.0
 11
221.4923343163
 21
104.7619520282
 31
0.0
  0
MTEXT
  5
175
330
16D
100
AcDbEntity
  8
VERMASSUNG
100
AcDbMText
 10
218.7141990601
 20
108.8569524666
 30
0.0
 40
2.0
 41
0.0
 71
     1
 72
     1
  1
ST1
  7
SLDTEXTSTYLE0
 11
-7.044195017643634E-15
 21
1.0
 31
0.0
 73
     1
 44
1.0
  0
MTEXT
  5
176
330
16D
100
AcDbEntity
  8
VERMASSUNG
100
AcDbMText
 10
218.9141990114
 20
114.2569526066
 30
0.0
 40
2.0
 41
0.0
 71
     1
 72
     1
  1
%%c
  7
SLDTEXTSTYLE0
 11
-7.044195017643634E-15
 21
1.0
 31
0.0
 73
     1
 44
1.0
  0
MTEXT
  5
177
330
16D
100
AcDbEntity
  8
VERMASSUNG
100
AcDbMText
 10
218.7141990601
 20
117.8669526209
 30
0.0
 40
2.0
 41
0.0
 71
     1
 72
     1
  1
20
  7
SLDTEXTSTYLE0
 11
-7.044195017643634E-15
 21
1.0
 31
0.0
 73
     1
 44
1.0
  0
ENDBLK
  5
16F
330
16D
100
AcDbEntity
  8
0
100
AcDbBlockEnd
  0
BLOCK
  5
17A
330
179
100
AcDbEntity
  8
0
100
AcDbBlockBegin
  2
_D_1
 70
     0
 10
0.0
 20
0.0
 30
0.0
  3
_D_1
  1

  0
SOLID
  5
17C
330
179
100
AcDbEntity
  8
VERMASSUNG
100
AcDbTrace
 10
86.0081599246
 20
164.7619520282
 30
0.0
 11
85.5581599246
 21
161.7619520282
 31
0.0
 12
86.4581599246
 22
161.7619520282
 32
0.0
 13
86.4581599246
 23
161.7619520282
 33
0.0
  0
SOLID
  5
17D
330
179
100
AcDbEntity
  8
VERMASSUNG
100
AcDbTrace
 10
86.0081599246
 20
64.7619520282
 30
0.0
 11
86.4581599246
 21
67.7619520282
 31
0.0
 12
85.5581599246
 22
67.7619520282
 32
0.0
 13
85.5581599246
 23
67.7619520282
 33
0.0
  0
LINE
  5
17E
330
179
100
AcDbEntity
  8
VERMASSUNG
100
AcDbLine
 10
152.6586292856
 20
164.7619520282
 30
0.0
 11
85.0081599246
 21
164.7619520282
 31
0.0
  0
LINE
  5
17F
330
179
100
AcDbEntity
  8
VERMASSUNG
100
AcDbLine
 10
152.6586292856
 20
64.7619520282
 30
0.0
 11
85.0081599246
 21
64.7619520282
 31
0.0
  0
LINE
  5
180
330
179
100
AcDbEntity
  8
VERMASSUNG
100
AcDbLine
 10
86.0081599246
 20
164.7619520282
 30
0.0
 11
86.0081599246
 21
64.7619520282
 31
0.0
  0
MTEXT
  5
181
330
179
100
AcDbEntity
  8
VERMASSUNG
100
AcDbMText
 10
83.2300246684
 20
104.0585699478
 30
0.0
 40
2.0
 41
0.0
 71
     1
 72
     1
  1
HSK A 100
  7
SLDTEXTSTYLE0
 11
-7.044195017643634E-15
 21
1.0
 31
0.0
 73
     1
 44
1.0
  0
MTEXT
  5
182
330
179
100
AcDbEntity
  8
VERMASSUNG
100
AcDbMText
 10
83.4300246197
 20
118.05857038
 30
0.0
 40
2.0
 41
0.0
 71
     1
 72
     1
  1
%%c
  7
SLDTEXTSTYLE0
 11
-7.044195017643634E-15
 21
1.0
 31
0.0
 73
     1
 44
1.0
  0
MTEXT
  5
183
330
179
100
AcDbEntity
  8
VERMASSUNG
100
AcDbMText
 10
83.4300243286
 20
121.6666482177
 30
0.0
 40
2.0
 41
0.0
 71
     1
 72
     1
  1
100
  7
SLDTEXTSTYLE0
 11
-7.044195017643634E-15
 21
1.0
 31
0.0
 73
     1
 44
1.0
  0
ENDBLK
  5
17B
330
179
100
AcDbEntity
  8
0
100
AcDbBlockEnd
  0
BLOCK
  5
186
330
185
100
AcDbEntity
  8
0
100
AcDbBlockBegin
  2
_D_2
 70
     0
 10
0.0
 20
0.0
 30
0.0
  3
_D_2
  1

  0
SOLID
  5
188
330
185
100
AcDbEntity
  8
VERMASSUNG
100
AcDbTrace
 10
214.0697295336
 20
120.2619520282
 30
0.0
 11
213.6197295336
 21
117.2619520282
 31
0.0
 12
214.5197295336
 22
117.2619520282
 32
0.0
 13
214.5197295336
 23
117.2619520282
 33
0.0
  0
SOLID
  5
189
330
185
100
AcDbEntity
  8
VERMASSUNG
100
AcDbTrace
 10
214.0697295336
 20
109.2619520282
 30
0.0
 11
214.5197295336
 21
112.2619520282
 31
0.0
 12
213.6197295336
 22
112.2619520282
 32
0.0
 13
213.6197295336
 23
112.2619520282
 33
0.0
  0
LINE
  5
18A
330
185
100
AcDbEntity
  8
VERMASSUNG
100
AcDbLine
 10
201.2586292856
 20
120.2619520282
 30
0.0
 11
215.0697295336
 21
120.2619520282
 31
0.0
  0
LINE
  5
18B
330
185
100
AcDbEntity
  8
VERMASSUNG
100
AcDbLine
 10
201.2586292856
 20
109.2619520282
 30
0.0
 11
215.0697295336
 21
109.2619520282
 31
0.0
  0
LINE
  5
18C
330
185
100
AcDbEntity
  8
VERMASSUNG
100
AcDbLine
 10
214.0697295336
 20
120.2619520282
 30
0.0
 11
214.0697295336
 21
109.2619520282
 31
0.0
  0
MTEXT
  5
18D
330
185
100
AcDbEntity
  8
VERMASSUNG
100
AcDbMText
 10
211.4915939959
 20
111.9581600611
 30
0.0
 40
2.0
 41
0.0
 71
     1
 72
     1
  1
%%c
  7
SLDTEXTSTYLE0
 11
-7.044195017643634E-15
 21
1.0
 31
0.0
 73
     1
 44
1.0
  0
MTEXT
  5
18E
330
185
100
AcDbEntity
  8
VERMASSUNG
100
AcDbMText
 10
211.4915939377
 20
115.5671322547
 30
0.0
 40
2.0
 41
0.0
 71
     1
 72
     1
  1
11
  7
SLDTEXTSTYLE0
 11
-7.044195017643634E-15
 21
1.0
 31
0.0
 73
     1
 44
1.0
  0
ENDBLK
  5
187
330
185
100
AcDbEntity
  8
0
100
AcDbBlockEnd
  0
BLOCK
  5
191
330
190
100
AcDbEntity
  8
0
100
AcDbBlockBegin
  2
_D_3
 70
     0
 10
0.0
 20
0.0
 30
0.0
  3
_D_3
  1

  0
ARC
  5
193
330
190
100
AcDbEntity
  8
VERMASSUNG
100
AcDbCircle
 10
193.2454227974
 20
168.921822818
 30
0.0
 40
4.247059938537323
100
AcDbArc
 50
153.4349488229
 51
206.5650511771
  0
ARC
  5
194
330
190
100
AcDbEntity
  8
VERMASSUNG
100
AcDbCircle
 10
195.0218357737
 20
168.921822818
 30
0.0
 40
4.247059938537297
100
AcDbArc
 50
333.4349488229
 51
26.5650511771
  0
SOLID
  5
195
330
190
100
AcDbEntity
  8
VERMASSUNG
100
AcDbTrace
 10
181.1086292856
 20
167.0224798726
 30
0.0
 11
184.1086292856
 21
166.5724798726
 31
0.0
 12
184.1086292856
 22
167.4724798726
 32
0.0
 13
184.1086292856
 23
167.4724798726
 33
0.0
  0
SOLID
  5
196
330
190
100
AcDbEntity
  8
VERMASSUNG
100
AcDbTrace
 10
207.1586292856
 20
167.0224798726
 30
0.0
 11
204.1586292856
 21
167.4724798726
 31
0.0
 12
204.1586292856
 22
166.5724798726
 32
0.0
 13
204.1586292856
 23
166.5724798726
 33
0.0
  0
LINE
  5
197
330
190
100
AcDbEntity
  8
VERMASSUNG
100
AcDbLine
 10
181.1086292856
 20
162.730691849
 30
0.0
 11
181.1086292856
 21
168.0224798726
 31
0.0
  0
LINE
  5
198
330
190
100
AcDbEntity
  8
VERMASSUNG
100
AcDbLine
 10
207.1586292856
 20
124.5734839556
 30
0.0
 11
207.1586292856
 21
168.0224798726
 31
0.0
  0
LINE
  5
199
330
190
100
AcDbEntity
  8
VERMASSUNG
100
AcDbLine
 10
181.1086292856
 20
167.0224798726
 30
0.0
 11
207.1586292856
 21
167.0224798726
 31
0.0
  0
MTEXT
  5
19A
330
190
100
AcDbEntity
  8
VERMASSUNG
100
AcDbMText
 10
191.0342369066
 20
169.6006154686
 30
0.0
 40
2.0
 41
0.0
 71
     1
 72
     1
  1
26.05
  7
SLDTEXTSTYLE0
 73
     1
 44
1.0
  0
ENDBLK
  5
192
330
190
100
AcDbEntity
  8
0
100
AcDbBlockEnd
  0
BLOCK
  5
19D
330
19C
100
AcDbEntity
  8
0
100
AcDbBlockBegin
  2
_D_4
 70
     0
 10
0.0
 20
0.0
 30
0.0
  3
_D_4
  1

  0
SOLID
  5
19F
330
19C
100
AcDbEntity
  8
VERMASSUNG
100
AcDbTrace
 10
152.1586292856
 20
173.0224798726
 30
0.0
 11
155.1586292856
 21
172.5724798726
 31
0.0
 12
155.1586292856
 22
173.4724798726
 32
0.0
 13
155.1586292856
 23
173.4724798726
 33
0.0
  0
SOLID
  5
1A0
330
19C
100
AcDbEntity
  8
VERMASSUNG
100
AcDbTrace
 10
207.1586292856
 20
173.0224798726
 30
0.0
 11
204.1586292856
 21
173.4724798726
 31
0.0
 12
204.1586292856
 22
172.5724798726
 32
0.0
 13
204.1586292856
 23
172.5724798726
 33
0.0
  0
LINE
  5
1A1
330
19C
100
AcDbEntity
  8
VERMASSUNG
100
AcDbLine
 10
152.1586292856
 20
164.2619520282
 30
0.0
 11
152.1586292856
 21
174.0224798726
 31
0.0
  0
LINE
  5
1A2
330
19C
100
AcDbEntity
  8
VERMASSUNG
100
AcDbLine
 10
207.1586292856
 20
124.5734839556
 30
0.0
 11
207.1586292856
 21
174.0224798726
 31
0.0
  0
LINE
  5
1A3
330
19C
100
AcDbEntity
  8
VERMASSUNG
100
AcDbLine
 10
152.1586292856
 20
173.0224798726
 30
0.0
 11
207.1586292856
 21
173.0224798726
 31
0.0
  0
MTEXT
  5
1A4
330
19C
100
AcDbEntity
  8
VERMASSUNG
100
AcDbMText
 10
178.2589392753
 20
175.6006154686
 30
0.0
 40
2.0
 41
0.0
 71
     1
 72
     1
  1
55
  7
SLDTEXTSTYLE0
 73
     1
 44
1.0
  0
ENDBLK
  5
19E
330
19C
100
AcDbEntity
  8
0
100
AcDbBlockEnd
  0
BLOCK
  5
1A7
330
1A6
100
AcDbEntity
  8
0
100
AcDbBlockBegin
  2
_D_5
 70
     0
 10
0.0
 20
0.0
 30
0.0
  3
_D_5
  1

  0
ARC
  5
1A9
330
1A6
100
AcDbEntity
  8
VERMASSUNG
100
AcDbCircle
 10
153.9207945791
 20
180.921822818
 30
0.0
 40
4.247059938537284
100
AcDbArc
 50
153.4349488229
 51
206.5650511771
  0
ARC
  5
1AA
330
1A6
100
AcDbEntity
  8
VERMASSUNG
100
AcDbCircle
 10
155.4964639921
 20
180.921822818
 30
0.0
 40
4.247059938537284
100
AcDbArc
 50
333.4349488229
 51
26.5650511771
  0
SOLID
  5
1AB
330
1A6
100
AcDbEntity
  8
VERMASSUNG
100
AcDbTrace
 10
102.2586292856
 20
179.0224798726
 30
0.0
 11
105.2586292856
 21
178.5724798726
 31
0.0
 12
105.2586292856
 22
179.4724798726
 32
0.0
 13
105.2586292856
 23
179.4724798726
 33
0.0
  0
SOLID
  5
1AC
330
1A6
100
AcDbEntity
  8
VERMASSUNG
100
AcDbTrace
 10
207.1586292856
 20
179.0224798726
 30
0.0
 11
204.1586292856
 21
179.4724798726
 31
0.0
 12
204.1586292856
 22
178.5724798726
 32
0.0
 13
204.1586292856
 23
178.5724798726
 33
0.0
  0
LINE
  5
1AD
330
1A6
100
AcDbEntity
  8
VERMASSUNG
100
AcDbLine
 10
102.2586292856
 20
145.2646217707
 30
0.0
 11
102.2586292856
 21
180.0224798726
 31
0.0
  0
LINE
  5
1AE
330
1A6
100
AcDbEntity
  8
VERMASSUNG
100
AcDbLine
 10
207.1586292856
 20
124.5734839556
 30
0.0
 11
207.1586292856
 21
180.0224798726
 31
0.0
  0
LINE
  5
1AF
330
1A6
100
AcDbEntity
  8
VERMASSUNG
100
AcDbLine
 10
102.2586292856
 20
179.0224798726
 30
0.0
 11
207.1586292856
 21
179.0224798726
 31
0.0
  0
MTEXT
  5
1B0
330
1A6
100
AcDbEntity
  8
VERMASSUNG
100
AcDbMText
 10
151.7096086882
 20
181.6006154686
 30
0.0
 40
2.0
 41
0.0
 71
     1
 72
     1
  1
104.9
  7
SLDTEXTSTYLE0
 73
     1
 44
1.0
  0
ENDBLK
  5
1A8
330
1A6
100
AcDbEntity
  8
0
100
AcDbBlockEnd
  0
BLOCK
  5
1B4
330
1B3
100
AcDbEntity
  8
0
100
AcDbBlockBegin
  2
_D_6
 70
     0
 10
0.0
 20
0.0
 30
0.0
  3
_D_6
  1

  0
ARC
  5
1B6
330
1B3
100
AcDbEntity
  8
VERMASSUNG
100
AcDbCircle
 10
380.5901748783
 20
114.7619520282
 30
0.0
 40
190.7148190366912
100
AcDbArc
 50
176.7
 51
180.0
  0
SOLID
  5
1B7
330
1B3
100
AcDbEntity
  8
VERMASSUNG
100
AcDbTrace
 10
190.191595986
 20
125.7402650128
 30
0.0
 11
189.5930197316
 21
122.7663439534
 31
0.0
 12
190.4919070169
 22
122.7216041698
 32
0.0
 13
190.4919070169
 23
122.7216041698
 33
0.0
  0
SOLID
  5
1B8
330
1B3
100
AcDbEntity
  8
VERMASSUNG
100
AcDbTrace
 10
189.8753558416
 20
114.7619520282
 30
0.0
 11
190.3489351759
 21
117.7583202656
 31
0.0
 12
189.4489630084
 22
117.7653982407
 32
0.0
 13
189.4489630084
 23
117.7653982407
 33
0.0
  0
MTEXT
  5
1B9
330
1B3
100
AcDbEntity
  8
VERMASSUNG
100
AcDbMText
 10
187.3111395674
 20
118.0285739919
 30
0.0
 40
2.0
 41
0.0
 71
     1
 72
     1
  1
3.3°
  7
SLDTEXTSTYLE0
 11
0.02879395236825286
 21
0.99958536819374
 31
0.0
 73
     1
 44
1.0
  0
ENDBLK
  5
1B5
330
1B3
100
AcDbEntity
  8
0
100
AcDbBlockEnd
  0
BLOCK
  5
1BD
330
1BC
100
AcDbEntity
  8
0
100
AcDbBlockBegin
  2
_D_7
 70
     0
 10
0.0
 20
0.0
 30
0.0
  3
_D_7
  1

  0
SOLID
  5
1BF
330
1BC
100
AcDbEntity
  8
VERMASSUNG
100
AcDbTrace
 10
183.7838896918
 20
126.5573019136
 30
0.0
 11
185.5993186113
 21
128.9876759256
 31
0.0
 12
184.8063538143
 22
129.4133598819
 32
0.0
 13
184.8063538143
 23
129.4133598819
 33
0.0
  0
LINE
  5
1C0
330
1BC
100
AcDbEntity
  8
VERMASSUNG
100
AcDbLine
 10
183.7838896918
 20
126.5573019136
 30
0.0
 11
189.292097418
 21
136.8180006246
 31
0.0
  0
MTEXT
  5
1C1
330
1BC
100
AcDbEntity
  8
VERMASSUNG
100
AcDbMText
 10
185.6147321521
 20
135.3606852819
 30
0.0
 40
2.0
 41
0.0
 71
     1
 72
     1
  1
R5
  7
SLDTEXTSTYLE0
 11
0.4649479187589277
 21
0.885338033093429
 31
0.0
 73
     1
 44
1.0
  0
ENDBLK
  5
1BE
330
1BC
100
AcDbEntity
  8
0
100
AcDbBlockEnd
  0
ENDSEC
  0
SECTION
  2
ENTITIES
  0
MTEXT
  5
78
330
1F
100
AcDbEntity
  8
KOPF_DÜNN
100
AcDbMText
 10
13.8892156294
 20
23.8442973028
 30
0.0
 40
3.0
 41
0.0
 71
     1
 72
     1
  1
144.810.020.055
  7
SLDTEXTSTYLE0
 73
     1
 44
1.0
  0
MTEXT
  5
79
330
1F
100
AcDbEntity
  8
VERMASSUNG
100
AcDbMText
 10
13.9329988022
 20
28.8834360957
 30
0.0
 40
3.0
 41
0.0
 71
     1
 72
     1
  1
Aufnahme_Master shank ST1
  7
SLDTEXTSTYLE0
 73
     1
 44
1.0
  0
MTEXT
  5
7A
330
1F
100
AcDbEntity
  8
VERMASSUNG
100
AcDbMText
 10
98.8601118557
 20
13.8365368761
 30
0.0
 40
2.0
 41
0.0
 71
     1
 72
     1
  1
Datum: 10.06.2008
  7
SLDTEXTSTYLE0
 73
     1
 44
1.0
  0
MTEXT
  5
7B
330
1F
100
AcDbEntity
  8
VERMASSUNG
100
AcDbMText
 10
13.933048693
 20
18.0482802738
 30
0.0
 40
2.0
 41
0.0
 71
     1
 72
     1
  1
DIN 69893 HSK A 100
  7
SLDTEXTSTYLE0
 73
     1
 44
1.0
  0
MTEXT
  5
7C
330
1F
100
AcDbEntity
  8
VERMASSUNG
100
AcDbMText
 10
13.9808475933
 20
13.9090974274
 30
0.0
 40
2.0
 41
0.0
 71
     1
 72
     1
  1
Gewicht: 2055g
  7
SLDTEXTSTYLE0
 73
     1
 44
1.0
  0
LINE
  5
7D
330
1F
100
AcDbEntity
  8
0
  6
Continuous
 62
     7
370
    15
100
AcDbLine
 10
152.6586292856
 20
64.7619520282
 30
0.0
 11
157.1086292856
 21
64.7619520282
 31
0.0
  0
LINE
  5
7E
330
1F
100
AcDbEntity
  8
0
  6
Continuous
 62
     7
370
    15
100
AcDbLine
 10
157.142702118
 20
164.7619520282
 30
0.0
 11
152.6586292856
 21
164.7619520282
 31
0.0
  0
ARC
  5
7F
330
1F
100
AcDbEntity
  8
0
  6
Continuous
 62
     7
370
    15
100
AcDbCircle
 10
152.6586292856
 20
65.2619520282
 30
0.0
 40
0.5
100
AcDbArc
 50
180.0
 51
270.0
  0
ARC
  5
80
330
1F
100
AcDbEntity
  8
0
  6
Continuous
 62
     7
370
    15
100
AcDbCircle
 10
152.6586292856
 20
164.2619520282
 30
0.0
 40
0.5
100
AcDbArc
 50
90.0
 51
180.0
  0
ARC
  5
81
330
1F
100
AcDbEntity
  8
0
  6
Continuous
 62
     7
370
    15
100
AcDbCircle
 10
151.2616923671
 20
76.1334667037
 30
0.0
 40
0.9962338214386932
100
AcDbArc
 50
25.7988228126
 51
90.0
  0
ARC
  5
82
330
1F
100
AcDbEntity
  8
0
  6
Continuous
 62
     7
370
    15
100
AcDbCircle
 10
151.2616923671
 20
153.3904373526
 30
0.0
 40
0.9962338214386921
100
AcDbArc
 50
270.0
 51
334.2011771874
  0
LINE
  5
83
330
1F
100
AcDbEntity
  8
0
  6
Continuous
 62
     7
370
    15
100
AcDbLine
 10
149.6586292856
 20
76.8797005252
 30
0.0
 11
150.4644754399
 21
77.0956263515
 31
0.0
  0
LINE
  5
84
330
1F
100
AcDbEntity
  8
0
  6
Continuous
 62
     7
370
    15
100
AcDbLine
 10
150.4644754399
 20
152.4282777049
 30
0.0
 11
149.6586292856
 21
152.6442035312
 31
0.0
  0
LINE
  5
85
330
1F
100
AcDbEntity
  8
0
  6
Continuous
 62
     7
370
    15
100
AcDbLine
 10
130.6779338642
 20
151.6932668868
 30
0.0
 11
112.3586292856
 21
150.7754660562
 31
0.0
  0
LINE
  5
86
330
1F
100
AcDbEntity
  8
0
  6
Continuous
 62
     7
370
    15
100
AcDbLine
 10
149.6586292856
 20
152.6442035312
 30
0.0
 11
143.5905901311
 21
152.3401935535
 31
0.0
  0
LINE
  5
87
330
1F
100
AcDbEntity
  8
0
  6
Continuous
 62
     7
370
    15
100
AcDbLine
 10
143.5907134076
 20
77.1837043267
 30
0.0
 11
149.6586292856
 21
76.8797005252
 31
0.0
  0
LINE
  5
88
330
1F
100
AcDbEntity
  8
0
  6
Continuous
 62
     7
370
    15
100
AcDbLine
 10
117.3586292856
 20
78.4979369981
 30
0.0
 11
130.6785804395
 21
77.830604776
 31
0.0
  0
ARC
  5
89
330
1F
100
AcDbEntity
  8
0
  6
Continuous
 62
     7
370
    15
100
AcDbCircle
 10
150.723294485
 20
76.1297005252
 30
0.0
 40
1.0
100
AcDbArc
 50
90.0
 51
105.0
  0
ARC
  5
8A
330
1F
100
AcDbEntity
  8
0
  6
Continuous
 62
     7
370
    15
100
AcDbCircle
 10
150.723294485
 20
153.3942035312
 30
0.0
 40
0.9999999999999716
100
AcDbArc
 50
255.0
 51
270.0
  0
LINE
  5
8B
330
1F
100
AcDbEntity
  8
0
  6
Continuous
 62
     7
370
    15
100
AcDbLine
 10
150.723294485
 20
77.1297005252
 30
0.0
 11
151.2616923671
 21
77.1297005252
 31
0.0
  0
LINE
  5
8C
330
1F
100
AcDbEntity
  8
0
  6
Continuous
 62
     7
370
    15
100
AcDbLine
 10
151.2616923671
 20
152.3942035312
 30
0.0
 11
150.723294485
 21
152.3942035312
 31
0.0
  0
LINE
  5
8D
330
1F
100
AcDbEntity
  8
0
  6
Continuous
 62
     7
370
    15
100
AcDbLine
 10
103.9086292856
 20
82.5119520282
 30
0.0
 11
115.4586292856
 21
82.5119520282
 31
0.0
  0
ARC
  5
8E
330
1F
100
AcDbEntity
  8
0
  6
Continuous
 62
     7
370
    15
100
AcDbCircle
 10
115.4586292856
 20
80.6119520282
 30
0.0
 40
1.899999999999996
100
AcDbArc
 50
35.6630613694
 51
90.0
  0
ARC
  5
8F
330
1F
100
AcDbEntity
  8
0
  6
Continuous
 62
     7
370
    15
100
AcDbCircle
 10
110.4586292856
 20
148.9119520282
 30
0.0
 40
1.900000000000017
100
AcDbArc
 50
270.0
 51
310.9212832533
  0
LINE
  5
90
330
1F
100
AcDbEntity
  8
0
  6
Continuous
 62
     7
370
    15
100
AcDbLine
 10
103.9086292856
 20
147.0119520282
 30
0.0
 11
102.3154129236
 21
145.4187356662
 31
0.0
  0
LINE
  5
91
330
1F
100
AcDbEntity
  8
0
  6
Continuous
 62
     7
370
    15
100
AcDbLine
 10
102.316152186
 20
84.1044291277
 30
0.0
 11
103.9086292856
 21
82.5119520282
 31
0.0
  0
ARC
  5
92
330
1F
100
AcDbEntity
  8
0
  6
Continuous
 62
     7
370
    15
100
AcDbCircle
 10
186.1086292856
 20
98.5399119772
 30
0.0
 40
5.000000000000007
100
AcDbArc
 50
93.3
 51
180.0
  0
ARC
  5
93
330
1F
100
AcDbEntity
  8
0
  6
Continuous
 62
     7
370
    15
100
AcDbCircle
 10
186.1086292856
 20
130.9839920791
 30
0.0
 40
5.000000000000007
100
AcDbArc
 50
180.0
 51
266.7
  0
LINE
  5
94
330
1F
100
AcDbEntity
  8
0
  6
Continuous
 62
     7
370
    15
100
AcDbLine
 10
110.4586292856
 20
147.0119520282
 30
0.0
 11
103.9086292856
 21
147.0119520282
 31
0.0
  0
LINE
  5
95
330
1F
100
AcDbEntity
  8
0
  6
Continuous
 62
     7
370
    15
100
AcDbLine
 10
185.8208091508
 20
103.5316210603
 30
0.0
 11
206.9586292856
 21
104.7504201007
 31
0.0
  0
LINE
  5
96
330
1F
100
AcDbEntity
  8
0
  6
Continuous
 62
     7
370
    15
100
AcDbLine
 10
206.9586292856
 20
124.7734839556
 30
0.0
 11
185.8208091508
 21
125.992282996
 31
0.0
  0
LINE
  5
97
330
1F
100
AcDbEntity
  8
0
  6
Continuous
 62
     7
370
    15
100
AcDbLine
 10
206.9586292856
 20
104.7504201007
 30
0.0
 11
207.1586292856
 21
104.9504201007
 31
0.0
  0
LINE
  5
98
330
1F
100
AcDbEntity
  8
0
  6
Continuous
 62
     7
370
    15
100
AcDbLine
 10
207.1586292856
 20
124.5734839556
 30
0.0
 11
206.9586292856
 21
124.7734839556
 31
0.0
  0
SPLINE
  5
99
330
1F
100
AcDbEntity
  8
0
  6
Continuous
 62
     7
370
    15
100
AcDbSpline
210
0.0
220
0.0
230
1.0
 70
    24
 71
     3
 72
    11
 73
     7
 74
     0
 42
0.000000001
 43
0.00000001
 40
0.0
 40
0.0
 40
0.0
 40
0.0
 40
0.1208913875340453
 40
0.4766714197330139
 40
0.8143663490172337
 40
1.0
 40
1.0
 40
1.0
 40
1.0
 10
201.3621180345002
 20
113.8810125947453
 30
0.0
 10
201.3473712433264
 20
113.9221491475211
 30
0.0
 10
201.2892250508744
 20
114.0843494449494
 30
0.0
 10
201.1795665195763
 20
114.390244734771
 30
0.0
 10
201.0593997276223
 20
114.725453087615
 30
0.0
 10
200.9952224987119
 20
114.9044771161615
 30
0.0
 10
200.9724577314857
 20
114.9679800190907
 30
0.0
  0
SPLINE
  5
9A
330
1F
100
AcDbEntity
  8
0
  6
Continuous
 62
     7
370
    15
100
AcDbSpline
210
0.0
220
0.0
230
1.0
 70
    24
 71
     3
 72
    10
 73
     6
 74
     0
 42
0.000000001
 43
0.00000001
 40
0.0
 40
0.0
 40
0.0
 40
0.0
 40
0.439105167106176
 40
0.7513578980692781
 40
1.0
 40
1.0
 40
1.0
 40
1.0
 10
202.4982895885766
 20
113.6749846038294
 30
0.0
 10
202.33564244832
 20
113.7044782691259
 30
0.0
 10
202.0573350573238
 20
113.7549452187852
 30
0.0
 10
201.6527594501647
 20
113.8283090512254
 30
0.0
 10
201.4513859719966
 20
113.8648251679877
 30
0.0
 10
201.3621180345002
 20
113.8810125947453
 30
0.0
  0
SPLINE
  5
9B
330
1F
100
AcDbEntity
  8
0
  6
Continuous
 62
     7
370
    15
100
AcDbSpline
210
0.0
220
0.0
230
1.0
 70
    24
 71
     3
 72
    10
 73
     6
 74
     0
 42
0.000000001
 43
0.00000001
 40
0.0
 40
0.0
 40
0.0
 40
0.0
 40
0.4391051671061799
 40
0.7513578980692889
 40
1.0
 40
1.0
 40
1.0
 40
1.0
 10
203.2448008396387
 20
114.5559240372589
 30
0.0
 10
203.1379350061129
 20
114.429814314592
 30
0.0
 10
202.9550756501583
 20
114.214026518758
 30
0.0
 10
202.6892529039666
 20
113.9003356814268
 30
0.0
 10
202.5569422801188
 20
113.744199192066
 30
0.0
 10
202.4982895885766
 20
113.6749846038294
 30
0.0
  0
SPLINE
  5
9C
330
1F
100
AcDbEntity
  8
0
  6
Continuous
 62
     7
370
    15
100
AcDbSpline
210
0.0
220
0.0
230
1.0
 70
    24
 71
     3
 72
    11
 73
     7
 74
     0
 42
0.000000001
 43
0.00000001
 40
0.0
 40
0.0
 40
0.0
 40
0.0
 40
0.1856336509827707
 40
0.5233285802669906
 40
0.8791086124659554
 40
1.0
 40
1.0
 40
1.0
 40
1.0
 10
202.8551405366242
 20
115.6428914616043
 30
0.0
 10
202.8779053038504
 20
115.5793885586752
 30
0.0
 10
202.9420825327608
 20
115.4003645301287
 30
0.0
 10
203.0622493247148
 20
115.0651561772847
 30
0.0
 10
203.171907856013
 20
114.759260887463
 30
0.0
 10
203.2300540484649
 20
114.5970605900347
 30
0.0
 10
203.2448008396387
 20
114.5559240372589
 30
0.0
  0
SPLINE
  5
9D
330
1F
100
AcDbEntity
  8
0
  6
Continuous
 62
     7
370
    15
100
AcDbSpline
210
0.0
220
0.0
230
1.0
 70
    24
 71
     3
 72
    10
 73
     6
 74
     0
 42
0.000000001
 43
0.00000001
 40
0.0
 40
0.0
 40
0.0
 40
0.0
 40
0.4391051671061919
 40
0.7513578980692869
 40
1.0
 40
1.0
 40
1.0
 40
1.0
 10
201.7189689825478
 20
115.8489194525202
 30
0.0
 10
201.8816161228045
 20
115.8194257872237
 30
0.0
 10
202.1599235138007
 20
115.7689588375644
 30
0.0
 10
202.5644991209597
 20
115.6955950051242
 30
0.0
 10
202.7658725991278
 20
115.6590788883618
 30
0.0
 10
202.8551405366242
 20
115.6428914616043
 30
0.0
  0
CIRCLE
  5
9E
330
1F
100
AcDbEntity
  8
0
  6
Continuous
 62
     7
370
    15
100
AcDbCircle
 10
202.1086292856
 20
114.7619520282
 30
0.0
 40
1.249999999999993
  0
SPLINE
  5
9F
330
1F
100
AcDbEntity
  8
0
  6
Continuous
 62
     7
370
    15
100
AcDbSpline
210
0.0
220
0.0
230
1.0
 70
    24
 71
     3
 72
    10
 73
     6
 74
     0
 42
0.000000001
 43
0.00000001
 40
0.0
 40
0.0
 40
0.0
 40
0.0
 40
0.4391051671061853
 40
0.7513578980692961
 40
1.0
 40
1.0
 40
1.0
 40
1.0
 10
200.9724577314857
 20
114.9679800190907
 30
0.0
 10
201.0793235650116
 20
115.0940897417576
 30
0.0
 10
201.2621829209662
 20
115.3098775375916
 30
0.0
 10
201.5280056671579
 20
115.6235683749227
 30
0.0
 10
201.6603162910057
 20
115.7797048642836
 30
0.0
 10
201.7189689825478
 20
115.8489194525202
 30
0.0
  0
CIRCLE
  5
A0
330
1F
100
AcDbEntity
  8
0
  6
Continuous
 62
     7
370
    15
100
AcDbCircle
 10
202.1086292856
 20
114.7619520282
 30
0.0
 40
1.75
  0
ARC
  5
A1
330
1F
100
AcDbEntity
  8
0
  6
Continuous
 62
     7
370
    15
100
AcDbCircle
 10
202.1086292856
 20
114.7619520282
 30
0.0
 40
1.000000000000024
100
AcDbArc
 50
319.7219384616
 51
19.7219384616
  0
ARC
  5
A2
330
1F
100
AcDbEntity
  8
0
  6
Continuous
 62
     7
370
    15
100
AcDbCircle
 10
202.1086292856
 20
114.7619520282
 30
0.0
 40
1.000000000000003
100
AcDbArc
 50
139.7219384616
 51
199.7219384616
  0
ARC
  5
A3
330
1F
100
AcDbEntity
  8
0
  6
Continuous
 62
     7
370
    15
100
AcDbCircle
 10
202.1086292856
 20
114.7619520282
 30
0.0
 40
1.000000000000024
100
AcDbArc
 50
259.7219384616
 51
319.7219384616
  0
ARC
  5
A4
330
1F
100
AcDbEntity
  8
0
  6
Continuous
 62
     7
370
    15
100
AcDbCircle
 10
202.1086292856
 20
114.7619520282
 30
0.0
 40
1.000000000000025
100
AcDbArc
 50
79.7219384616
 51
139.7219384616
  0
ARC
  5
A5
330
1F
100
AcDbEntity
  8
0
  6
Continuous
 62
     7
370
    15
100
AcDbCircle
 10
202.1086292856
 20
114.7619520282
 30
0.0
 40
1.000000000000025
100
AcDbArc
 50
19.7219384616
 51
79.7219384616
  0
ARC
  5
A6
330
1F
100
AcDbEntity
  8
0
  6
Continuous
 62
     7
370
    15
100
AcDbCircle
 10
202.1086292856
 20
114.7619520282
 30
0.0
 40
0.9999999999999922
100
AcDbArc
 50
199.7219384616
 51
259.7219384616
  0
LINE
  5
A7
330
1F
100
AcDbEntity
  8
0
  6
Continuous
 62
     7
370
    15
100
AcDbLine
 10
175.4206583065
 20
65.9869584351
 30
0.0
 11
175.4206583065
 21
146.1119520282
 31
0.0
  0
SPLINE
  5
A8
330
1F
100
AcDbEntity
  8
0
  6
Continuous
 62
     7
370
    15
100
AcDbSpline
210
0.0
220
0.0
230
1.0
 70
     8
 71
     3
 72
     8
 73
     4
 74
     0
 42
0.000000001
 43
0.00000001
 40
0.0
 40
0.0
 40
0.0
 40
0.0
 40
1.0
 40
1.0
 40
1.0
 40
1.0
 10
175.4206583064836
 20
65.986958435146
 30
0.0
 10
174.9695535770834
 20
66.7879183669659
 30
0.0
 10
174.51885574984
 20
67.58910837852655
 30
0.0
 10
174.0686292855622
 20
68.39056374115133
 30
0.0
  0
LINE
  5
A9
330
1F
100
AcDbEntity
  8
0
  6
Continuous
 62
     7
370
    15
100
AcDbLine
 10
174.0686292856
 20
68.3905637412
 30
0.0
 11
174.0686292856
 21
146.1119520282
 31
0.0
  0
SPLINE
  5
AA
330
1F
100
AcDbEntity
  8
0
  6
Continuous
 62
     7
370
    15
100
AcDbSpline
210
0.0
220
0.0
230
1.0
 70
    24
 71
     3
 72
     8
 73
     4
 74
     0
 42
0.000000001
 43
0.00000001
 40
0.0
 40
0.0
 40
0.0
 40
0.0
 40
1.0
 40
1.0
 40
1.0
 40
1.0
 10
174.0686292855622
 20
146.1119520281748
 30
0.0
 10
174.5128421679161
 20
146.1119520281748
 30
0.0
 10
174.9638567341553
 20
146.1119520281748
 30
0.0
 10
175.4206583064836
 20
146.1119520281748
 30
0.0
  0
LINE
  5
AB
330
1F
100
AcDbEntity
  8
0
  6
Continuous
 62
     7
370
    15
100
AcDbLine
 10
157.1086292856
 20
146.1119520282
 30
0.0
 11
168.8966002646
 21
146.1119520282
 31
0.0
  0
LINE
  5
AC
330
1F
100
AcDbEntity
  8
0
  6
Continuous
 62
     7
370
    15
100
AcDbLine
 10
168.8966002646
 20
65.9869584351
 30
0.0
 11
168.8966002646
 21
146.1119520282
 31
0.0
  0
LINE
  5
AD
330
1F
100
AcDbEntity
  8
0
  6
Continuous
 62
     7
370
    15
100
AcDbLine
 10
168.8966002646
 20
65.9869584351
 30
0.0
 11
167.1086292856
 21
65.9869584351
 31
0.0
  0
SPLINE
  5
AE
330
1F
100
AcDbEntity
  8
0
  6
Continuous
 62
     7
370
    15
100
AcDbSpline
210
0.0
220
0.0
230
1.0
 70
     8
 71
     3
 72
    30
 73
    26
 74
     0
 42
0.000000001
 43
0.00000001
 40
0.0
 40
0.0
 40
0.0
 40
0.0
 40
0.1250000000000006
 40
0.1250000000000006
 40
0.187500000000001
 40
0.187500000000001
 40
0.2500000000000013
 40
0.2500000000000013
 40
0.3750000000000014
 40
0.3750000000000014
 40
0.4375000000000014
 40
0.4375000000000014
 40
0.5000000000000013
 40
0.5000000000000013
 40
0.625000000000001
 40
0.625000000000001
 40
0.6875000000000009
 40
0.6875000000000009
 40
0.7500000000000007
 40
0.7500000000000007
 40
0.8125000000000006
 40
0.8125000000000006
 40
0.8750000000000004
 40
0.8750000000000004
 40
1.0
 40
1.0
 40
1.0
 40
1.0
 10
167.1086292855622
 20
65.986958435146
 30
0.0
 10
166.4458845917172
 20
65.986958435146
 30
0.0
 10
165.7946287326014
 20
65.97211835855718
 30
0.0
 10
164.8341781943432
 20
65.92974879432757
 30
0.0
 10
164.5167867511102
 20
65.91227069154837
 30
0.0
 10
163.8876232495554
 20
65.87094240499609
 30
0.0
 10
163.5754750631136
 20
65.84701713153837
 30
0.0
 10
162.6681677612654
 20
65.76821061507145
 30
0.0
 10
162.0947428036241
 20
65.705904595095
 30
0.0
 10
161.2808659340494
 20
65.60277527485565
 30
0.0
 10
161.0160597374796
 20
65.56659135580911
 30
0.0
 10
160.5091523266653
 20
65.49279657160861
 30
0.0
 10
160.2677581753118
 20
65.45532271283696
 30
0.0
 10
159.5786167031794
 20
65.34261076949724
 30
0.0
 10
159.1655618883152
 20
65.26707467202347
 30
0.0
 10
158.6174070689401
 20
65.15868141500599
 30
0.0
 10
158.4479444615945
 20
65.1236091833427
 30
0.0
 10
158.1399272135792
 20
65.05737372274287
 30
0.0
 10
158.0005471929708
 20
65.02604702598813
 30
0.0
 10
157.7507616803441
 20
64.9676382544072
 30
0.0
 10
157.6403555676902
 20
64.94055501922438
 30
0.0
 10
157.4490977140524
 20
64.89129526461076
 30
0.0
 10
157.3679781957681
 20
64.86903328480314
 30
0.0
 10
157.1738312756597
 20
64.81146637763483
 30
0.0
 10
157.1086292855622
 20
64.78520677284885
 30
0.0
 10
157.1086292855622
 20
64.77195302837482
 30
0.0
  0
LINE
  5
AF
330
1F
100
AcDbEntity
  8
0
  6
Continuous
 62
     7
370
    15
100
AcDbLine
 10
157.1086292856
 20
64.7719530284
 30
0.0
 11
157.1086292856
 21
64.7619520282
 31
0.0
  0
SPLINE
  5
B0
330
1F
100
AcDbEntity
  8
0
  6
Continuous
 62
     7
370
    15
100
AcDbSpline
210
0.0
220
0.0
230
1.0
 70
     8
 71
     3
 72
    17
 73
    13
 74
     0
 42
0.000000001
 43
0.00000001
 40
0.0
 40
0.0
 40
0.0
 40
0.0
 40
0.1043843840547469
 40
0.2118345768143993
 40
0.3162082005190449
 40
0.4235375806108391
 40
0.5292276236193851
 40
0.637927586480349
 40
0.7444714844189682
 40
0.8541836219421858
 40
0.9593080534965216
 40
1.0
 40
1.0
 40
1.0
 40
1.0
 10
167.1086292855622
 20
163.7517468838383
 30
0.0
 10
166.5606908377028
 20
163.7571150875871
 30
0.0
 10
165.4487207832381
 20
163.7680091612521
 30
0.0
 10
163.8358648700232
 20
163.853186535511
 30
0.0
 10
162.3023516530462
 20
163.9795612418035
 30
0.0
 10
160.9113308037096
 20
164.1364640623804
 30
0.0
 10
159.6758142864793
 20
164.3081628919009
 30
0.0
 10
158.652458519324
 20
164.473499168002
 30
0.0
 10
157.8521165210589
 20
164.6172126475886
 30
0.0
 10
157.3417844191453
 20
164.7153674547677
 30
0.0
 10
157.1018759903207
 20
164.7632958516376
 30
0.0
 10
157.1337947697406
 20
164.756928452398
 30
0.0
 10
157.1427021180228
 20
164.7551515472747
 30
0.0
  0
LINE
  5
B1
330
1F
100
AcDbEntity
  8
0
  6
Continuous
 62
     7
370
    15
100
AcDbLine
 10
168.8966002646
 20
163.7517468838
 30
0.0
 11
167.1086292856
 21
163.7517468838
 31
0.0
  0
LINE
  5
B2
330
1F
100
AcDbEntity
  8
0
  6
Continuous
 62
     7
370
    15
100
AcDbLine
 10
168.8966002646
 20
153.7129147891
 30
0.0
 11
168.8966002646
 21
163.7517468838
 31
0.0
  0
LINE
  5
B3
330
1F
100
AcDbEntity
  8
0
  6
Continuous
 62
     7
370
    15
100
AcDbLine
 10
166.8165961337
 20
153.7129147891
 30
0.0
 11
168.8966002646
 21
153.7129147891
 31
0.0
  0
SPLINE
  5
B4
330
1F
100
AcDbEntity
  8
0
  6
Continuous
 62
     7
370
    15
100
AcDbSpline
210
0.0
220
0.0
230
1.0
 70
     8
 71
     3
 72
    22
 73
    18
 74
     0
 42
0.000000001
 43
0.00000001
 40
0.0
 40
0.0
 40
0.0
 40
0.0
 40
0.2500000000000001
 40
0.2500000000000001
 40
0.3750000000000002
 40
0.3750000000000002
 40
0.5000000000000002
 40
0.5000000000000002
 40
0.6250000000000001
 40
0.6250000000000001
 40
0.7500000000000001
 40
0.7500000000000001
 40
0.875
 40
0.875
 40
0.9375
 40
0.9375
 40
1.0
 40
1.0
 40
1.0
 40
1.0
 10
157.1086292855622
 20
146.1119520281748
 30
0.0
 10
157.3113542414813
 20
147.1311983700394
 30
0.0
 10
157.6260979632766
 20
148.0903065199787
 30
0.0
 10
158.3341534329476
 20
149.432785597488
 30
0.0
 10
158.6126160631653
 20
149.866994180228
 30
0.0
 10
159.2513834698025
 20
150.6786218957301
 30
0.0
 10
159.6117971495927
 20
151.0579021886669
 30
0.0
 10
160.429329381582
 20
151.7608607676879
 30
0.0
 10
160.8904973648691
 20
152.0858895853885
 30
0.0
 10
161.8884876113529
 20
152.6509049087794
 30
0.0
 10
162.4282468053452
 20
152.894608502986
 30
0.0
 10
163.6028397693765
 20
153.2988084306309
 30
0.0
 10
164.2145759553684
 20
153.4512456236764
 30
0.0
 10
165.1664851802301
 20
153.6065731712851
 30
0.0
 10
165.4897183444907
 20
153.6460779513352
 30
0.0
 10
166.148781515766
 20
153.6993870720039
 30
0.0
 10
166.48284552634
 20
153.7129147890617
 30
0.0
 10
166.8165961337415
 20
153.7129147890617
 30
0.0
  0
LINE
  5
B5
330
1F
100
AcDbEntity
  8
0
  6
Continuous
 62
     7
370
    15
100
AcDbLine
 10
152.1586292856
 20
65.2619520282
 30
0.0
 11
152.1586292856
 21
164.2619520252
 31
0.0
  0
LINE
  5
B6
330
1F
100
AcDbEntity
  8
0
  6
Continuous
 62
     7
370
    15
100
AcDbLine
 10
181.1086292856
 20
67.0126064829
 30
0.0
 11
181.1086292856
 21
146.1119520282
 31
0.0
  0
SPLINE
  5
B7
330
1F
100
AcDbEntity
  8
0
  6
Continuous
 62
     7
370
    15
100
AcDbSpline
210
0.0
220
0.0
230
1.0
 70
     8
 71
     3
 72
    14
 73
    10
 74
     0
 42
0.000000001
 43
0.00000001
 40
0.0
 40
0.0
 40
0.0
 40
0.0
 40
0.25
 40
0.25
 40
0.5
 40
0.5
 40
0.75
 40
0.75
 40
1.0
 40
1.0
 40
1.0
 40
1.0
 10
181.1086292855622
 20
67.01260648292148
 30
0.0
 10
181.1086292855622
 20
66.87918078686694
 30
0.0
 10
181.0833181856513
 20
66.7473329790226
 30
0.0
 10
180.9849834218066
 20
66.50081043032849
 30
0.0
 10
180.9118394175505
 20
66.38700524208797
 30
0.0
 10
180.7284013564548
 20
66.19654806514068
 30
0.0
 10
180.6167150221162
 20
66.11891320129077
 30
0.0
 10
180.3742115918099
 20
66.01462179117829
 30
0.0
 10
180.2408371631157
 20
65.98695843514594
 30
0.0
 10
180.1086292855622
 20
65.98695843514595
 30
0.0
  0
SPLINE
  5
B8
330
1F
100
AcDbEntity
  8
0
  6
Continuous
 62
     7
370
    15
100
AcDbSpline
210
0.0
220
0.0
230
1.0
 70
    24
 71
     3
 72
    12
 73
     8
 74
     0
 42
0.000000001
 43
0.00000001
 40
0.0
 40
0.0
 40
0.0
 40
0.0
 40
0.2500000000000016
 40
0.2500000000000016
 40
0.5000000000000032
 40
0.5000000000000032
 40
1.0
 40
1.0
 40
1.0
 40
1.0
 10
180.1086292855622
 20
146.1119520281748
 30
0.0
 10
180.2607195225072
 20
146.1119520281748
 30
0.0
 10
180.4091787835826
 20
146.1119520281748
 30
0.0
 10
180.6665824158483
 20
146.1119520281748
 30
0.0
 10
180.7756871636902
 20
146.1119520281748
 30
0.0
 10
181.0297466400978
 20
146.1119520281748
 30
0.0
 10
181.1086292855622
 20
146.1119520281748
 30
0.0
 10
181.1086292855622
 20
146.1119520281748
 30
0.0
  0
LINE
  5
B9
330
1F
100
AcDbEntity
  8
0
  6
Continuous
 62
     7
370
    15
100
AcDbLine
 10
170.2486292856
 20
68.3905637412
 30
0.0
 11
170.2486292856
 21
146.1119520282
 31
0.0
  0
SPLINE
  5
BA
330
1F
100
AcDbEntity
  8
0
  6
Continuous
 62
     7
370
    15
100
AcDbSpline
210
0.0
220
0.0
230
1.0
 70
     8
 71
     3
 72
     8
 73
     4
 74
     0
 42
0.000000001
 43
0.00000001
 40
0.0
 40
0.0
 40
0.0
 40
0.0
 40
1.0
 40
1.0
 40
1.0
 40
1.0
 10
170.2486292855622
 20
68.39056374115131
 30
0.0
 10
169.7984028212844
 20
67.58910837852655
 30
0.0
 10
169.347704994041
 20
66.78791836696588
 30
0.0
 10
168.8966002646408
 20
65.98695843514598
 30
0.0
  0
SPLINE
  5
BB
330
1F
100
AcDbEntity
  8
0
  6
Continuous
 62
     7
370
    15
100
AcDbSpline
210
0.0
220
0.0
230
1.0
 70
    24
 71
     3
 72
     8
 73
     4
 74
     0
 42
0.000000001
 43
0.00000001
 40
0.0
 40
0.0
 40
0.0
 40
0.0
 40
1.0
 40
1.0
 40
1.0
 40
1.0
 10
168.8966002646408
 20
146.1119520281748
 30
0.0
 10
169.3534018369691
 20
146.1119520281748
 30
0.0
 10
169.8044164032083
 20
146.1119520281748
 30
0.0
 10
170.2486292855622
 20
146.1119520281748
 30
0.0
  0
LINE
  5
BC
330
1F
100
AcDbEntity
  8
0
  6
Continuous
 62
     7
370
    15
100
AcDbLine
 10
180.1086292856
 20
65.9869584351
 30
0.0
 11
175.4206583065
 21
65.9869584351
 31
0.0
  0
LINE
  5
BD
330
1F
100
AcDbEntity
  8
0
  6
Continuous
 62
     7
370
    15
100
AcDbLine
 10
175.4206583065
 20
146.1119520282
 30
0.0
 11
180.1086292856
 21
146.1119520282
 31
0.0
  0
SPLINE
  5
BE
330
1F
100
AcDbEntity
  8
0
  6
Continuous
 62
     7
370
    15
100
AcDbSpline
210
0.0
220
0.0
230
1.0
 70
     8
 71
     3
 72
    14
 73
    10
 74
     0
 42
0.000000001
 43
0.00000001
 40
0.0
 40
0.0
 40
0.0
 40
0.0
 40
0.25
 40
0.25
 40
0.5
 40
0.5
 40
0.75
 40
0.75
 40
1.0
 40
1.0
 40
1.0
 40
1.0
 10
174.0686292855622
 20
69.2987732457799
 30
0.0
 10
174.0686292855622
 20
69.40581732677428
 30
0.0
 10
174.048511598404
 20
69.51105246701673
 30
0.0
 10
173.9700204091384
 20
69.70890295386442
 30
0.0
 10
173.9118637843372
 20
69.79995471742933
 30
0.0
 10
173.7653485287191
 20
69.95312081135411
 30
0.0
 10
173.6767059800781
 20
70.01541525756352
 30
0.0
 10
173.4809826572777
 20
70.10020904309953
 30
0.0
 10
173.3757514662068
 20
70.12227657012514
 30
0.0
 10
173.2686292855622
 20
70.12227657012515
 30
0.0
  0
SPLINE
  5
BF
330
1F
100
AcDbEntity
  8
0
  6
Continuous
 62
     7
370
    15
100
AcDbSpline
210
0.0
220
0.0
230
1.0
 70
    24
 71
     3
 72
    14
 73
    10
 74
     0
 42
0.000000001
 43
0.00000001
 40
0.0
 40
0.0
 40
0.0
 40
0.0
 40
0.25
 40
0.25
 40
0.5
 40
0.5
 40
0.75
 40
0.75
 40
1.0
 40
1.0
 40
1.0
 40
1.0
 10
173.2686292855622
 20
146.1119520281748
 30
0.0
 10
173.3923990503273
 20
146.1119520281748
 30
0.0
 10
173.5167661543342
 20
146.1119520281748
 30
0.0
 10
173.7231226230603
 20
146.1119520281748
 30
0.0
 10
173.8084507664786
 20
146.1119520281748
 30
0.0
 10
173.9406428251939
 20
146.1119520281748
 30
0.0
 10
173.9892880689445
 20
146.1119520281748
 30
0.0
 10
174.0528238606732
 20
146.1119520281748
 30
0.0
 10
174.0686292855622
 20
146.1119520281748
 30
0.0
 10
174.0686292855622
 20
146.1119520281748
 30
0.0
  0
SPLINE
  5
C0
330
1F
100
AcDbEntity
  8
0
  6
Continuous
 62
     7
370
    15
100
AcDbSpline
210
0.0
220
0.0
230
1.0
 70
     8
 71
     3
 72
    12
 73
     8
 74
     0
 42
0.000000001
 43
0.00000001
 40
0.0
 40
0.0
 40
0.0
 40
0.0
 40
0.25
 40
0.25
 40
0.5
 40
0.5
 40
1.0
 40
1.0
 40
1.0
 40
1.0
 10
171.0486292855622
 20
70.12227657012515
 30
0.0
 10
170.9428686322132
 20
70.12227657012515
 30
0.0
 10
170.8348810040303
 20
70.09973706412474
 30
0.0
 10
170.6402863387648
 20
70.01516643212946
 30
0.0
 10
170.5514144259259
 20
69.95268477937064
 30
0.0
 10
170.3322221336
 20
69.72329582789848
 30
0.0
 10
170.2486292855622
 20
69.5107124903761
 30
0.0
 10
170.2486292855622
 20
69.2987732457799
 30
0.0
  0
SPLINE
  5
C1
330
1F
100
AcDbEntity
  8
0
  6
Continuous
 62
     7
370
    15
100
AcDbSpline
210
0.0
220
0.0
230
1.0
 70
    24
 71
     3
 72
    14
 73
    10
 74
     0
 42
0.000000001
 43
0.00000001
 40
0.0
 40
0.0
 40
0.0
 40
0.0
 40
0.25
 40
0.25
 40
0.5
 40
0.5
 40
0.75
 40
0.75
 40
1.0
 40
1.0
 40
1.0
 40
1.0
 10
170.2486292855622
 20
146.1119520281748
 30
0.0
 10
170.2486292855622
 20
146.1119520281748
 30
0.0
 10
170.2643436060281
 20
146.1119520281748
 30
0.0
 10
170.3280275844965
 20
146.1119520281748
 30
0.0
 10
170.376630778907
 20
146.1119520281748
 30
0.0
 10
170.5093143013326
 20
146.1119520281748
 30
0.0
 10
170.5944164056432
 20
146.1119520281748
 30
0.0
 10
170.8008586405533
 20
146.1119520281748
 30
0.0
 10
170.9249395821763
 20
146.1119520281748
 30
0.0
 10
171.0486292855622
 20
146.1119520281748
 30
0.0
  0
LINE
  5
C2
330
1F
100
AcDbEntity
  8
0
  6
Continuous
 62
     7
370
    15
100
AcDbLine
 10
173.2686292856
 20
70.1222765701
 30
0.0
 11
171.0486292856
 21
70.1222765701
 31
0.0
  0
LINE
  5
C3
330
1F
100
AcDbEntity
  8
0
  6
Continuous
 62
     7
370
    15
100
AcDbLine
 10
171.0486292856
 20
146.1119520282
 30
0.0
 11
173.2686292856
 21
146.1119520282
 31
0.0
  0
LINE
  5
C4
330
1F
100
AcDbEntity
  8
0
  6
Continuous
 62
     7
370
    15
100
AcDbLine
 10
149.6586292856
 20
76.8797005252
 30
0.0
 11
149.6586292856
 21
152.6442035312
 31
0.0
  0
LINE
  5
C5
330
1F
100
AcDbEntity
  8
0
  6
Continuous
 62
     7
370
    15
100
AcDbLine
 10
117.3586292856
 20
78.4979369981
 30
0.0
 11
117.3586292856
 21
80.8926187628
 31
0.0
  0
SPLINE
  5
C6
330
1F
100
AcDbEntity
  8
0
  6
Continuous
 62
     7
370
    15
100
AcDbSpline
210
0.0
220
0.0
230
1.0
 70
     8
 71
     3
 72
    14
 73
    10
 74
     0
 42
0.000000001
 43
0.00000001
 40
0.0
 40
0.0
 40
0.0
 40
0.0
 40
0.25
 40
0.25
 40
0.5
 40
0.5
 40
0.75
 40
0.75
 40
1.0
 40
1.0
 40
1.0
 40
1.0
 10
116.3542068142253
 20
82.59547068443126
 30
0.0
 10
116.4429753921706
 20
82.43693655312332
 30
0.0
 10
116.5646932308495
 20
82.28449387623475
 30
0.0
 10
116.7997428407063
 20
81.98735925240582
 30
0.0
 10
116.9153730269232
 20
81.84267660878847
 30
0.0
 10
117.115777960351
 20
81.55938740628505
 30
0.0
 10
117.2011782523353
 20
81.42083341324822
 30
0.0
 10
117.3228838860526
 20
81.14944938321467
 30
0.0
 10
117.3586292855652
 20
81.01731351458005
 30
0.0
 10
117.3586292855652
 20
80.89261876280929
 30
0.0
  0
SPLINE
  5
C7
330
1F
100
AcDbEntity
  8
0
  6
Continuous
 62
     7
370
    15
100
AcDbSpline
210
0.0
220
0.0
230
1.0
 70
     8
 71
     3
 72
    14
 73
    10
 74
     0
 42
0.000000001
 43
0.00000001
 40
0.0
 40
0.0
 40
0.0
 40
0.0
 40
0.1249999999999983
 40
0.1249999999999983
 40
0.2499999999999966
 40
0.2499999999999966
 40
0.4999999999999978
 40
0.4999999999999978
 40
1.0
 40
1.0
 40
1.0
 40
1.0
 10
115.4586292855622
 20
83.22430062353136
 30
0.0
 10
115.5262115853467
 20
83.23145650863276
 30
0.0
 10
115.5986991630946
 20
83.22703203859378
 30
0.0
 10
115.7309902723605
 20
83.19732588082341
 30
0.0
 10
115.7882676517507
 20
83.17404159924517
 30
0.0
 10
115.937918078951
 20
83.09655635939485
 30
0.0
 10
116.0116313744725
 20
83.03470453249349
 30
0.0
 10
116.1994393577987
 20
82.85002707984515
 30
0.0
 10
116.2834796641602
 20
82.72178415655395
 30
0.0
 10
116.3542068142265
 20
82.59547068443136
 30
0.0
  0
SPLINE
  5
C8
330
1F
100
AcDbEntity
  8
0
  6
Continuous
 62
     7
370
    15
100
AcDbSpline
210
0.0
220
0.0
230
1.0
 70
     8
 71
     3
 72
     8
 73
     4
 74
     0
 42
0.000000001
 43
0.00000001
 40
0.0
 40
0.0
 40
0.0
 40
0.0
 40
1.0
 40
1.0
 40
1.0
 40
1.0
 10
111.9139888974814
 20
82.80625203873957
 30
0.0
 10
113.0792872081903
 20
82.96143951062619
 30
0.0
 10
114.2639024222301
 20
83.09779814893652
 30
0.0
 10
115.4586292855622
 20
83.22430062353136
 30
0.0
  0
SPLINE
  5
C9
330
1F
100
AcDbEntity
  8
0
  6
Continuous
 62
     7
370
    15
100
AcDbSpline
210
0.0
220
0.0
230
1.0
 70
     8
 71
     3
 72
    14
 73
    10
 74
     0
 42
0.000000001
 43
0.00000001
 40
0.0
 40
0.0
 40
0.0
 40
0.0
 40
0.4999999999999972
 40
0.4999999999999972
 40
0.7499999999999971
 40
0.7499999999999971
 40
0.8749999999999986
 40
0.8749999999999986
 40
1.0
 40
1.0
 40
1.0
 40
1.0
 10
104.1585544015335
 20
82.51611985960966
 30
0.0
 10
105.4668559640672
 20
82.52313458335078
 30
0.0
 10
106.7719153387241
 20
82.53854315979528
 30
0.0
 10
108.7177913902124
 20
82.59243971526195
 30
0.0
 10
109.3644888939514
 20
82.61547127986464
 30
0.0
 10
110.3283312578057
 20
82.6664138047354
 30
0.0
 10
110.6485699497398
 20
82.68614872696858
 30
0.0
 10
111.2852651760822
 20
82.73563585544017
 30
0.0
 10
111.6019805843651
 20
82.76470063436939
 30
0.0
 10
111.9139888974814
 20
82.80625203873953
 30
0.0
  0
SPLINE
  5
CA
330
1F
100
AcDbEntity
  8
0
  6
Continuous
 62
     7
370
    15
100
AcDbSpline
210
0.0
220
0.0
230
1.0
 70
     8
 71
     3
 72
    12
 73
     8
 74
     0
 42
0.000000001
 43
0.00000001
 40
0.0
 40
0.0
 40
0.0
 40
0.0
 40
0.2500000000000009
 40
0.2500000000000009
 40
0.5000000000000018
 40
0.5000000000000018
 40
1.0
 40
1.0
 40
1.0
 40
1.0
 10
110.4586292855622
 20
146.8484749196712
 30
0.0
 10
109.939930463734
 20
146.8809976945195
 30
0.0
 10
109.418218890529
 20
146.9042944356899
 30
0.0
 10
108.3719268740334
 20
146.942139950112
 30
0.0
 10
107.8472552483632
 20
146.9564084246082
 30
0.0
 10
106.270409225824
 20
146.9906179120665
 30
0.0
 10
105.215453911277
 20
147.0021174160104
 30
0.0
 10
104.1585544015318
 20
147.0077841967399
 30
0.0
  0
SPLINE
  5
CB
330
1F
100
AcDbEntity
  8
0
  6
Continuous
 62
     7
370
    15
100
AcDbSpline
210
0.0
220
0.0
230
1.0
 70
     8
 71
     3
 72
    20
 73
    16
 74
     0
 42
0.000000001
 43
0.00000001
 40
0.0
 40
0.0
 40
0.0
 40
0.0
 40
0.2500000000000003
 40
0.2500000000000003
 40
0.5000000000000007
 40
0.5000000000000007
 40
0.750000000000001
 40
0.750000000000001
 40
0.8750000000000007
 40
0.8750000000000007
 40
0.9375000000000012
 40
0.9375000000000012
 40
0.9687500000000007
 40
0.9687500000000007
 40
1.0
 40
1.0
 40
1.0
 40
1.0
 10
112.3586292855622
 20
148.5065607651593
 30
0.0
 10
112.3586292855622
 20
148.3708784454126
 30
0.0
 10
112.3099174963456
 20
148.2297914592725
 30
0.0
 10
112.1407560731204
 20
147.937719740542
 30
0.0
 10
112.018975659202
 20
147.7860709984516
 30
0.0
 10
111.7214285644526
 20
147.4836625582984
 30
0.0
 10
111.5475159587498
 20
147.3310739221751
 30
0.0
 10
111.228101124868
 20
147.1058031583329
 30
0.0
 10
111.1130603494207
 20
147.0310800638221
 30
0.0
 10
110.9059760254043
 20
146.9316696545651
 30
0.0
 10
110.8298681905979
 20
146.9001045622205
 30
0.0
 10
110.6984736510445
 20
146.8656611780276
 30
0.0
 10
110.6519204320431
 20
146.8566096062599
 30
0.0
 10
110.5555870809624
 20
146.8464339574215
 30
0.0
 10
110.5063276576069
 20
146.8454841987464
 30
0.0
 10
110.4586292855602
 20
146.848474919661
 30
0.0
  0
LINE
  5
CC
330
1F
100
AcDbEntity
  8
0
  6
Continuous
 62
     7
370
    15
100
AcDbLine
 10
112.3586292856
 20
148.5065607652
 30
0.0
 11
112.3586292856
 21
150.7754660562
 31
0.0
  0
SPLINE
  5
CD
330
1F
100
AcDbEntity
  8
0
  6
Continuous
 62
     7
370
    15
100
AcDbSpline
210
0.0
220
0.0
230
1.0
 70
     8
 71
     3
 72
    24
 73
    20
 74
     0
 42
0.000000001
 43
0.00000001
 40
0.0
 40
0.0
 40
0.0
 40
0.0
 40
0.0002934293894792
 40
0.062808005175934
 40
0.1260453927228742
 40
0.1890746766613222
 40
0.2513200540860153
 40
0.3133304633787786
 40
0.3759158453762985
 40
0.4383740564607907
 40
0.5000631094857534
 40
0.561659398803632
 40
0.6245050380643723
 40
0.6872231506498981
 40
0.7494953263230506
 40
0.811758379753676
 40
0.8747365508229972
 40
0.9378980306234588
 40
1.0
 40
1.0
 40
1.0
 40
1.0
 10
130.6785855494016
 20
77.8307067698624
 30
0.0
 10
130.6783906965169
 20
77.83068246246843
 30
0.0
 10
130.6366828055046
 20
77.82547951081467
 30
0.0
 10
130.7818011970349
 20
77.84411413414466
 30
0.0
 10
131.1368801385768
 20
77.8866339126937
 30
0.0
 10
131.7414557761212
 20
77.95477019629524
 30
0.0
 10
132.5478910849365
 20
78.02802573331132
 30
0.0
 10
133.533368508854
 20
78.09254507412925
 30
0.0
 10
134.6650381055393
 20
78.13110930219011
 30
0.0
 10
135.8873305757002
 20
78.13480380819203
 30
0.0
 10
137.15465925715
 20
78.0923778281426
 30
0.0
 10
138.4211447875682
 20
78.00413068735986
 30
0.0
 10
139.6372821513837
 20
77.87573741709633
 30
0.0
 10
140.7626926472322
 20
77.72309642850402
 30
0.0
 10
141.7401097087828
 20
77.56132181339875
 30
0.0
 10
142.5433751873327
 20
77.40879292029703
 30
0.0
 10
143.1318687103327
 20
77.28477917702969
 30
0.0
 10
143.5207748219825
 20
77.19985525075354
 30
0.0
 10
143.5675359527218
 20
77.18912893947468
 30
0.0
 10
143.5907187592648
 20
77.18381114678307
 30
0.0
  0
SPLINE
  5
CE
330
1F
100
AcDbEntity
  8
0
  6
Continuous
 62
     7
370
    15
100
AcDbSpline
210
0.0
220
0.0
230
1.0
 70
     8
 71
     3
 72
    41
 73
    37
 74
     0
 42
0.000000001
 43
0.00000001
 40
0.0
 40
0.0
 40
0.0
 40
0.0
 40
0.0619930088509839
 40
0.1254347838145775
 40
0.1886508980472116
 40
0.2510246518033717
 40
0.3131658325488003
 40
0.3756581805174138
 40
0.4382227337755126
 40
0.4998045140815232
 40
0.5615164441950592
 40
0.6240683366165516
 40
0.6867257531767135
 40
0.7488365631577227
 40
0.8110686297815293
 40
0.8741743265521017
 40
0.9373213196239055
 40
0.9685512131825712
 40
0.984208730152181
 40
0.9920641614991338
 40
0.9960005295431176
 40
0.9979711229155214
 40
0.9989570525954502
 40
0.9994501795074999
 40
0.9996967839589611
 40
0.9998200964931961
 40
0.9998817553448917
 40
0.9999125854178162
 40
0.9999280006161619
 40
0.9999357082558221
 40
0.9999395620857765
 40
0.9999414890032835
 40
0.999942452462671
 40
0.9999434159224786
 40
0.9999502132898598
 40
0.9999999999999999
 40
0.9999999999999999
 40
0.9999999999999999
 40
0.9999999999999999
 10
143.5905974287868
 20
152.340047891615
 30
0.0
 10
143.5670257834435
 20
152.3347384119651
 30
0.0
 10
143.5193316273994
 20
152.3239953710256
 30
0.0
 10
143.1272896379719
 20
152.2387662345699
 30
0.0
 10
142.5367755886991
 20
152.1141974559294
 30
0.0
 10
141.732738142659
 20
151.9612505097778
 30
0.0
 10
140.7566627424781
 20
151.7994939558242
 30
0.0
 10
139.6348540071991
 20
151.6472611878922
 30
0.0
 10
138.4213230874098
 20
151.5194812466906
 30
0.0
 10
137.1564923810133
 20
151.431632695008
 30
0.0
 10
135.888449343569
 20
151.3892472111374
 30
0.0
 10
134.6649419858674
 20
151.3929830191088
 30
0.0
 10
133.5314434454485
 20
151.4315784895564
 30
0.0
 10
132.5453376344761
 20
151.4960178608481
 30
0.0
 10
131.7367098256927
 20
151.5695276681296
 30
0.0
 10
131.1400911305804
 20
151.6368413529409
 30
0.0
 10
130.8246998411225
 20
151.6748059042086
 30
0.0
 10
130.7146332723228
 20
151.6886049635409
 30
0.0
 10
130.6872138845122
 20
151.6920910374612
 30
0.0
 10
130.6802918336777
 20
151.6929702631552
 30
0.0
 10
130.6785235935014
 20
151.6931910377606
 30
0.0
 10
130.6780632143179
 20
151.6932462404726
 30
0.0
 10
130.6779390556474
 20
151.6932599802579
 30
0.0
 10
130.6779035011341
 20
151.6932633760914
 30
0.0
 10
130.6778923570924
 20
151.6932642044082
 30
0.0
 10
130.6778884438562
 20
151.693264401002
 30
0.0
 10
130.677886901708
 20
151.693264444925
 30
0.0
 10
130.6778862346266
 20
151.6932644532417
 30
0.0
 10
130.6778859265616
 20
151.6932644540579
 30
0.0
 10
130.6778857796363
 20
151.6932644535325
 30
0.0
 10
130.6778857069086
 20
151.6932644531747
 30
0.0
 10
130.677885672199
 20
151.6932644527769
 30
0.0
 10
130.6778856504655
 20
151.6932644528018
 30
0.0
 10
130.6778856186104
 20
151.6932644505571
 30
0.0
 10
130.67788366927
 20
151.6932646665031
 30
0.0
 10
130.6779106041329
 20
151.6932611853724
 30
0.0
 10
130.6779343033479
 20
151.6932581224252
 30
0.0
  0
SPLINE
  5
CF
330
1F
100
AcDbEntity
  8
0
  6
Continuous
 62
     7
370
    15
100
AcDbSpline
210
0.0
220
0.0
230
1.0
 70
     8
 71
     3
 72
    20
 73
    16
 74
     0
 42
0.000000001
 43
0.00000001
 40
0.0
 40
0.0
 40
0.0
 40
0.0
 40
0.2499999999999887
 40
0.2499999999999887
 40
0.374999999999986
 40
0.374999999999986
 40
0.4374999999999881
 40
0.4374999999999881
 40
0.4999999999999901
 40
0.4999999999999901
 40
0.6249999999999891
 40
0.6249999999999891
 40
0.7499999999999881
 40
0.7499999999999881
 40
1.0
 40
1.0
 40
1.0
 40
1.0
 10
102.5494435172782
 20
84.08346887547408
 30
0.0
 10
102.5757157344917
 20
84.10278681655655
 30
0.0
 10
102.6063958767464
 20
84.11717552765829
 30
0.0
 10
102.6778667471284
 20
84.11027116582228
 30
0.0
 10
102.7058937841727
 20
84.10310516247387
 30
0.0
 10
102.7609773736703
 20
84.07340613577027
 30
0.0
 10
102.7818687022227
 20
84.05993249320895
 30
0.0
 10
102.8270773496681
 20
84.02473422769295
 30
0.0
 10
102.8514815620637
 20
84.00282599896569
 30
0.0
 10
102.9228138801151
 20
83.93070113897014
 30
0.0
 10
102.9647106649354
 20
83.87836059802008
 30
0.0
 10
103.0362866237913
 20
83.78087720611931
 30
0.0
 10
103.0671146136086
 20
83.7341234362409
 30
0.0
 10
103.1502145464442
 20
83.6008302204018
 30
0.0
 10
103.1950694518145
 20
83.5181928224866
 30
0.0
 10
103.235181527267
 20
83.43908592769581
 30
0.0
  0
SPLINE
  5
D0
330
1F
100
AcDbEntity
  8
0
  6
Continuous
 62
     7
370
    15
100
AcDbSpline
210
0.0
220
0.0
230
1.0
 70
     8
 71
     3
 72
    14
 73
    10
 74
     0
 42
0.000000001
 43
0.00000001
 40
0.0
 40
0.0
 40
0.0
 40
0.0
 40
0.25
 40
0.25
 40
0.5
 40
0.5
 40
0.75
 40
0.75
 40
1.0
 40
1.0
 40
1.0
 40
1.0
 10
102.2586292855622
 20
84.25928228560686
 30
0.0
 10
102.2586292855622
 20
84.21803535458251
 30
0.0
 10
102.2672390019435
 20
84.18112838230003
 30
0.0
 10
102.2983251815138
 20
84.12022832240062
 30
0.0
 10
102.3207147349979
 20
84.09604740286093
 30
0.0
 10
102.375458666174
 20
84.06207981197768
 30
0.0
 10
102.4079089057592
 20
84.05215972800949
 30
0.0
 10
102.4779104204872
 20
84.05080851910463
 30
0.0
 10
102.5161209206098
 20
84.0589667958008
 30
0.0
 10
102.5494435172829
 20
84.08346887546888
 30
0.0
  0
LINE
  5
D1
330
1F
100
AcDbEntity
  8
0
  6
Continuous
 62
     7
370
    15
100
AcDbLine
 10
102.2586292856
 20
84.2592822856
 30
0.0
 11
102.2586292856
 21
145.2646217707
 31
0.0
  0
SPLINE
  5
D2
330
1F
100
AcDbEntity
  8
0
  6
Continuous
 62
     7
370
    15
100
AcDbSpline
210
0.0
220
0.0
230
1.0
 70
     8
 71
     3
 72
    10
 73
     6
 74
     0
 42
0.000000001
 43
0.00000001
 40
0.0
 40
0.0
 40
0.0
 40
0.0
 40
0.0592402688376416
 40
0.6438088530391356
 40
1.0
 40
1.0
 40
1.0
 40
1.0
 10
102.5494435172828
 20
145.4404351808807
 30
0.0
 10
102.5446112596617
 20
145.4436840875123
 30
0.0
 10
102.4920954575269
 20
145.478992415668
 30
0.0
 10
102.3931452598482
 20
145.4852467122265
 30
0.0
 10
102.3437167349568
 20
145.4300464745376
 30
0.0
 10
102.3250020702125
 20
145.4091465196144
 30
0.0
  0
SPLINE
  5
D3
330
1F
100
AcDbEntity
  8
0
  6
Continuous
 62
     7
370
    15
100
AcDbSpline
210
0.0
220
0.0
230
1.0
 70
     8
 71
     3
 72
     8
 73
     4
 74
     0
 42
0.000000001
 43
0.00000001
 40
0.0
 40
0.0
 40
0.0
 40
0.0
 40
1.0
 40
1.0
 40
1.0
 40
1.0
 10
102.2822629544984
 20
145.3722012718124
 30
0.0
 10
102.2669139158624
 20
145.3416912168164
 30
0.0
 10
102.2586292855622
 20
145.3053796613041
 30
0.0
 10
102.2586292855622
 20
145.2646217707427
 30
0.0
  0
SPLINE
  5
D4
330
1F
100
AcDbEntity
  8
0
  6
Continuous
 62
     7
370
    15
100
AcDbSpline
210
0.0
220
0.0
230
1.0
 70
     8
 71
     3
 72
    20
 73
    16
 74
     0
 42
0.000000001
 43
0.00000001
 40
0.0
 40
0.0
 40
0.0
 40
0.0
 40
0.2499999999999868
 40
0.2499999999999868
 40
0.3749999999999822
 40
0.3749999999999822
 40
0.4999999999999776
 40
0.4999999999999776
 40
0.5624999999999778
 40
0.5624999999999778
 40
0.624999999999978
 40
0.624999999999978
 40
0.7499999999999855
 40
0.7499999999999855
 40
1.0
 40
1.0
 40
1.0
 40
1.0
 10
103.2351815272646
 20
146.084818128653
 30
0.0
 10
103.1951853094408
 20
146.0059397220955
 30
0.0
 10
103.1500716816031
 20
145.922810075404
 30
0.0
 10
103.0668174672366
 20
145.789321411053
 30
0.0
 10
103.0365981386161
 20
145.743456355171
 30
0.0
 10
102.9645099034746
 20
145.6452648027661
 30
0.0
 10
102.9225925860636
 20
145.5929549832426
 30
0.0
 10
102.8513419815121
 20
145.5209490805081
 30
0.0
 10
102.8271061691328
 20
145.4991788682065
 30
0.0
 10
102.7815079789482
 20
145.4637042098775
 30
0.0
 10
102.7607054893484
 20
145.4503340257
 30
0.0
 10
102.7057644909294
 20
145.4207641135647
 30
0.0
 10
102.6776955028425
 20
145.4136375912628
 30
0.0
 10
102.6071926727797
 20
145.4067632197801
 30
0.0
 10
102.5757685849889
 20
145.4210783788673
 30
0.0
 10
102.5494435172802
 20
145.4404351808778
 30
0.0
  0
SPLINE
  5
D5
330
1F
100
AcDbEntity
  8
0
  6
Continuous
 62
     7
370
    15
100
AcDbSpline
210
0.0
220
0.0
230
1.0
 70
     8
 71
     3
 72
    10
 73
     6
 74
     0
 42
0.000000001
 43
0.00000001
 40
0.0
 40
0.0
 40
0.0
 40
0.0
 40
0.4999999999999989
 40
0.4999999999999989
 40
1.0
 40
1.0
 40
1.0
 40
1.0
 10
103.9086292855622
 20
147.0102372299948
 30
0.0
 10
103.783741014812
 20
146.8792409519233
 30
0.0
 10
103.6622908967516
 20
146.7355281152583
 30
0.0
 10
103.4327069217941
 20
146.4249578225691
 30
0.0
 10
103.3224319463981
 20
146.256888749506
 30
0.0
 10
103.2351815272646
 20
146.084818128653
 30
0.0
  0
SPLINE
  5
D6
330
1F
100
AcDbEntity
  8
0
  6
Continuous
 62
     7
370
    15
100
AcDbSpline
210
0.0
220
0.0
230
1.0
 70
     8
 71
     3
 72
     8
 73
     4
 74
     0
 42
0.000000001
 43
0.00000001
 40
0.0
 40
0.0
 40
0.0
 40
0.0
 40
1.0
 40
1.0
 40
1.0
 40
1.0
 10
104.1585544015279
 20
147.0077841967394
 30
0.0
 10
104.0715363716796
 20
147.0082507615265
 30
0.0
 10
103.9885823452996
 20
147.0092907811026
 30
0.0
 10
103.9086292855599
 20
147.0102372299949
 30
0.0
  0
SPLINE
  5
D7
330
1F
100
AcDbEntity
  8
0
  6
Continuous
 62
     7
370
    15
100
AcDbSpline
210
0.0
220
0.0
230
1.0
 70
     8
 71
     3
 72
     8
 73
     4
 74
     0
 42
0.000000001
 43
0.00000001
 40
0.0
 40
0.0
 40
0.0
 40
0.0
 40
1.0
 40
1.0
 40
1.0
 40
1.0
 10
103.9086292855599
 20
82.51366682635471
 30
0.0
 10
103.9885823453002
 20
82.51461327524697
 30
0.0
 10
104.0715363716807
 20
82.51565329482311
 30
0.0
 10
104.1585544015296
 20
82.51611985961017
 30
0.0
  0
SPLINE
  5
D8
330
1F
100
AcDbEntity
  8
0
  6
Continuous
 62
     7
370
    15
100
AcDbSpline
210
0.0
220
0.0
230
1.0
 70
     8
 71
     3
 72
    10
 73
     6
 74
     0
 42
0.000000001
 43
0.00000001
 40
0.0
 40
0.0
 40
0.0
 40
0.0
 40
0.4999999999999989
 40
0.4999999999999989
 40
1.0
 40
1.0
 40
1.0
 40
1.0
 10
103.2351815272637
 20
83.43908592769839
 30
0.0
 10
103.3224319463972
 20
83.26701530684502
 30
0.0
 10
103.4327069217933
 20
83.09894623378159
 30
0.0
 10
103.6622908967512
 20
82.78837594109176
 30
0.0
 10
103.7837410148118
 20
82.64466310442648
 30
0.0
 10
103.9086292855622
 20
82.51366682635478
 30
0.0
  0
SPLINE
  5
D9
330
1F
100
AcDbEntity
  8
0
  6
Continuous
 62
     7
370
    15
100
AcDbSpline
210
0.0
220
0.0
230
1.0
 70
     8
 71
     3
 72
    10
 73
     6
 74
     0
 42
0.000000001
 43
0.00000001
 40
0.0
 40
0.0
 40
0.0
 40
0.0
 40
0.5
 40
0.5
 40
1.0
 40
1.0
 40
1.0
 40
1.0
 10
171.0486292855622
 20
159.6362277883472
 30
0.0
 10
170.8360929717059
 20
159.6362277883472
 30
0.0
 10
170.6261568000519
 20
159.7276403749774
 30
0.0
 10
170.3324496590406
 20
160.0323852408816
 30
0.0
 10
170.2486292855622
 20
160.2445402107902
 30
0.0
 10
170.2486292855622
 20
160.4555032690228
 30
0.0
  0
SPLINE
  5
DA
330
1F
100
AcDbEntity
  8
0
  6
Continuous
 62
     7
370
    15
100
AcDbSpline
210
0.0
220
0.0
230
1.0
 70
     8
 71
     3
 72
    14
 73
    10
 74
     0
 42
0.000000001
 43
0.00000001
 40
0.0
 40
0.0
 40
0.0
 40
0.0
 40
0.25
 40
0.25
 40
0.5
 40
0.5
 40
0.75
 40
0.75
 40
1.0
 40
1.0
 40
1.0
 40
1.0
 10
170.2486292855622
 20
149.4761872206718
 30
0.0
 10
170.2486292855622
 20
149.3523203438826
 30
0.0
 10
170.2644884131898
 20
149.2280606670451
 30
0.0
 10
170.3278500587097
 20
148.9904523046393
 30
0.0
 10
170.376439766759
 20
148.8736719198868
 30
0.0
 10
170.5087253715339
 20
148.6648693912778
 30
0.0
 10
170.5940501627945
 20
148.5703586876852
 30
0.0
 10
170.8009414111007
 20
148.4324018868829
 30
0.0
 10
170.9249093569907
 20
148.3904834412472
 30
0.0
 10
171.0486292855622
 20
148.3904834412472
 30
0.0
  0
LINE
  5
DB
330
1F
100
AcDbEntity
  8
0
  6
Continuous
 62
     7
370
    15
100
AcDbLine
 10
180.1086292856
 20
163.7517468838
 30
0.0
 11
175.4206583065
 21
163.7517468838
 31
0.0
  0
LINE
  5
DC
330
1F
100
AcDbEntity
  8
0
  6
Continuous
 62
     7
370
    15
100
AcDbLine
 10
175.4206583065
 20
153.7129147891
 30
0.0
 11
180.1086292856
 21
153.7129147891
 31
0.0
  0
LINE
  5
DD
330
1F
100
AcDbEntity
  8
0
  6
Continuous
 62
     7
370
    15
100
AcDbLine
 10
175.4206583065
 20
153.7129147891
 30
0.0
 11
175.4206583065
 21
163.7517468838
 31
0.0
  0
SPLINE
  5
DE
330
1F
100
AcDbEntity
  8
0
  6
Continuous
 62
     7
370
    15
100
AcDbSpline
210
0.0
220
0.0
230
1.0
 70
     8
 71
     3
 72
     8
 73
     4
 74
     0
 42
0.000000001
 43
0.00000001
 40
0.0
 40
0.0
 40
0.0
 40
0.0
 40
1.0
 40
1.0
 40
1.0
 40
1.0
 10
168.8966002646408
 20
153.7129147890617
 30
0.0
 10
169.3535266184404
 20
152.6969968193874
 30
0.0
 10
169.8047322602434
 20
151.6782009902963
 30
0.0
 10
170.2486292855622
 20
150.6573995343126
 30
0.0
  0
LINE
  5
DF
330
1F
100
AcDbEntity
  8
0
  6
Continuous
 62
     7
370
    15
100
AcDbLine
 10
170.2486292856
 20
150.6573995343
 30
0.0
 11
170.2486292856
 21
149.4761872207
 31
0.0
  0
LINE
  5
E0
330
1F
100
AcDbEntity
  8
0
  6
Continuous
 62
     7
370
    15
100
AcDbLine
 10
171.0486292856
 20
148.3904834412
 30
0.0
 11
173.2686292856
 21
148.3904834412
 31
0.0
  0
SPLINE
  5
E1
330
1F
100
AcDbEntity
  8
0
  6
Continuous
 62
     7
370
    15
100
AcDbSpline
210
0.0
220
0.0
230
1.0
 70
     8
 71
     3
 72
    12
 73
     8
 74
     0
 42
0.000000001
 43
0.00000001
 40
0.0
 40
0.0
 40
0.0
 40
0.0
 40
0.2500000000000039
 40
0.2500000000000039
 40
0.5000000000000078
 40
0.5000000000000078
 40
1.0
 40
1.0
 40
1.0
 40
1.0
 10
173.2686292855622
 20
148.3904834412473
 30
0.0
 10
173.3923302355422
 20
148.3904834412473
 30
0.0
 10
173.5164268478124
 20
148.4324770529798
 30
0.0
 10
173.7230820108994
 20
148.5702723796242
 30
0.0
 10
173.8081227776262
 20
148.664245978089
 30
0.0
 10
174.0076013460998
 20
148.97903418431
 30
0.0
 10
174.0686292855622
 20
149.2292731765376
 30
0.0
 10
174.0686292855622
 20
149.4761872206718
 30
0.0
  0
LINE
  5
E2
330
1F
100
AcDbEntity
  8
0
  6
Continuous
 62
     7
370
    15
100
AcDbLine
 10
174.0686292856
 20
149.4761872207
 30
0.0
 11
174.0686292856
 21
150.6573995343
 31
0.0
  0
SPLINE
  5
E3
330
1F
100
AcDbEntity
  8
0
  6
Continuous
 62
     7
370
    15
100
AcDbSpline
210
0.0
220
0.0
230
1.0
 70
     8
 71
     3
 72
     8
 73
     4
 74
     0
 42
0.000000001
 43
0.00000001
 40
0.0
 40
0.0
 40
0.0
 40
0.0
 40
1.0
 40
1.0
 40
1.0
 40
1.0
 10
174.0686292855622
 20
150.6573995343126
 30
0.0
 10
174.5127792965877
 20
151.6787827652643
 30
0.0
 10
174.9638536068456
 20
152.6972673020326
 30
0.0
 10
175.4206583064836
 20
153.7129147890617
 30
0.0
  0
SPLINE
  5
E4
330
1F
100
AcDbEntity
  8
0
  6
Continuous
 62
     7
370
    15
100
AcDbSpline
210
0.0
220
0.0
230
1.0
 70
     8
 71
     3
 72
    16
 73
    12
 74
     0
 42
0.000000001
 43
0.00000001
 40
0.0
 40
0.0
 40
0.0
 40
0.0
 40
0.1249999999999996
 40
0.1249999999999996
 40
0.2499999999999992
 40
0.2499999999999992
 40
0.4999999999999994
 40
0.4999999999999994
 40
0.7499999999999997
 40
0.7499999999999997
 40
1.0
 40
1.0
 40
1.0
 40
1.0
 10
180.1086292855622
 20
153.7129147890617
 30
0.0
 10
180.1842669919734
 20
153.7129147890617
 30
0.0
 10
180.2605826563916
 20
153.7015697889268
 30
0.0
 10
180.4049933942836
 20
153.6589172382883
 30
0.0
 10
180.473439843392
 20
153.6279829136054
 30
0.0
 10
180.6683710960051
 20
153.5087265418378
 30
0.0
 10
180.776212269786
 20
153.3985745282173
 30
0.0
 10
180.9449250179981
 20
153.1504384425592
 30
0.0
 10
181.0072894307216
 20
153.0100961185555
 30
0.0
 10
181.08859335523
 20
152.7218244270668
 30
0.0
 10
181.1086292855622
 20
152.571019454087
 30
0.0
 10
181.1086292855622
 20
152.4206495627418
 30
0.0
  0
LINE
  5
E5
330
1F
100
AcDbEntity
  8
0
  6
Continuous
 62
     7
370
    15
100
AcDbLine
 10
181.1086292856
 20
152.4206495627
 30
0.0
 11
181.1086292856
 21
146.1119520282
 31
0.0
  0
SPLINE
  5
E6
330
1F
100
AcDbEntity
  8
0
  6
Continuous
 62
     7
370
    15
100
AcDbSpline
210
0.0
220
0.0
230
1.0
 70
     8
 71
     3
 72
    14
 73
    10
 74
     0
 42
0.000000001
 43
0.00000001
 40
0.0
 40
0.0
 40
0.0
 40
0.0
 40
0.25
 40
0.25
 40
0.5
 40
0.5
 40
0.75
 40
0.75
 40
1.0
 40
1.0
 40
1.0
 40
1.0
 10
174.0686292855622
 20
160.4555032690228
 30
0.0
 10
174.0686292855622
 20
160.3491465752705
 30
0.0
 10
174.048241729421
 20
160.2433060875103
 30
0.0
 10
173.9696073839594
 20
160.0467411739739
 30
0.0
 10
173.9108760243208
 20
159.9555704316867
 30
0.0
 10
173.7642671187182
 20
159.8036593426551
 30
0.0
 10
173.6748617986917
 20
159.7415905058355
 30
0.0
 10
173.4809710660914
 20
159.6583224580768
 30
0.0
 10
173.3744660762015
 20
159.6362277883472
 30
0.0
 10
173.2686292855622
 20
159.6362277883472
 30
0.0
  0
SPLINE
  5
E7
330
1F
100
AcDbEntity
  8
0
  6
Continuous
 62
     7
370
    15
100
AcDbSpline
210
0.0
220
0.0
230
1.0
 70
     8
 71
     3
 72
    12
 73
     8
 74
     0
 42
0.000000001
 43
0.00000001
 40
0.0
 40
0.0
 40
0.0
 40
0.0
 40
0.4999999999999953
 40
0.4999999999999953
 40
0.7499999999999977
 40
0.7499999999999977
 40
1.0
 40
1.0
 40
1.0
 40
1.0
 10
181.1086292855622
 20
162.7306918490206
 30
0.0
 10
181.1086292855622
 20
162.995961281787
 30
0.0
 10
181.0040225420757
 20
163.2584763874394
 30
0.0
 10
180.7273541903304
 20
163.5440139934767
 30
0.0
 10
180.6169889309784
 20
163.6203356103381
 30
0.0
 10
180.3729168823627
 20
163.7246777751782
 30
0.0
 10
180.241164421031
 20
163.7517468838384
 30
0.0
 10
180.1086292855622
 20
163.7517468838384
 30
0.0
  0
LINE
  5
E8
330
1F
100
AcDbEntity
  8
0
  6
Continuous
 62
     7
370
    15
100
AcDbLine
 10
181.1086292856
 20
152.4206495627
 30
0.0
 11
181.1086292856
 21
162.730691849
 31
0.0
  0
SPLINE
  5
E9
330
1F
100
AcDbEntity
  8
0
  6
Continuous
 62
     7
370
    15
100
AcDbSpline
210
0.0
220
0.0
230
1.0
 70
     8
 71
     3
 72
     8
 73
     4
 74
     0
 42
0.000000001
 43
0.00000001
 40
0.0
 40
0.0
 40
0.0
 40
0.0
 40
1.0
 40
1.0
 40
1.0
 40
1.0
 10
170.2486292855622
 20
161.3592228888797
 30
0.0
 10
169.7983210498777
 20
162.1569380139933
 30
0.0
 10
169.347627233354
 20
162.9544363136505
 30
0.0
 10
168.8966002646408
 20
163.7517468838383
 30
0.0
  0
LINE
  5
EA
330
1F
100
AcDbEntity
  8
0
  6
Continuous
 62
     7
370
    15
100
AcDbLine
 10
170.2486292856
 20
150.6573995343
 30
0.0
 11
170.2486292856
 21
161.3592228889
 31
0.0
  0
SPLINE
  5
EB
330
1F
100
AcDbEntity
  8
0
  6
Continuous
 62
     7
370
    15
100
AcDbSpline
210
0.0
220
0.0
230
1.0
 70
     8
 71
     3
 72
     8
 73
     4
 74
     0
 42
0.000000001
 43
0.00000001
 40
0.0
 40
0.0
 40
0.0
 40
0.0
 40
1.0
 40
1.0
 40
1.0
 40
1.0
 10
175.4206583064836
 20
163.7517468838384
 30
0.0
 10
174.9696313377704
 20
162.9544363136505
 30
0.0
 10
174.5189375212468
 20
162.1569380139933
 30
0.0
 10
174.0686292855622
 20
161.3592228888797
 30
0.0
  0
LINE
  5
EC
330
1F
100
AcDbEntity
  8
0
  6
Continuous
 62
     7
370
    15
100
AcDbLine
 10
174.0686292856
 20
150.6573995343
 30
0.0
 11
174.0686292856
 21
161.3592228889
 31
0.0
  0
LINE
  5
ED
330
1F
100
AcDbEntity
  8
0
  6
Continuous
 62
     7
370
    15
100
AcDbLine
 10
173.2686292856
 20
159.6362277883
 30
0.0
 11
171.0486292856
 21
159.6362277883
 31
0.0
  0
LINE
  5
EE
330
1F
100
AcDbEntity
  8
0
  6
Continuous
 62
     7
370
    15
100
AcDbLine
 10
103.9086292856
 20
82.5119520282
 30
0.0
 11
103.9086292856
 21
82.5136668264
 31
0.0
  0
LINE
  5
EF
330
1F
100
AcDbEntity
  8
0
  6
Continuous
 62
     7
370
    15
100
AcDbLine
 10
103.9086292856
 20
147.0119520282
 30
0.0
 11
103.9086292856
 21
147.01023723
 31
0.0
  0
SPLINE
  5
F0
330
1F
100
AcDbEntity
  8
0
  6
Continuous
 62
     7
370
    15
100
AcDbSpline
210
0.0
220
0.0
230
1.0
 70
    11
 71
     3
 72
    62
 73
    58
 74
     0
 42
0.000000001
 43
0.00000001
 40
0.0
 40
0.0
 40
0.0
 40
0.0
 40
0.0312499999999997
 40
0.0312499999999997
 40
0.0624999999999993
 40
0.0624999999999993
 40
0.1249999999999987
 40
0.1249999999999987
 40
0.1874999999999981
 40
0.1874999999999981
 40
0.2187499999999978
 40
0.2187499999999978
 40
0.2499999999999974
 40
0.2499999999999974
 40
0.2812499999999971
 40
0.2812499999999971
 40
0.3124999999999968
 40
0.3124999999999968
 40
0.3437499999999964
 40
0.3437499999999964
 40
0.3749999999999961
 40
0.3749999999999961
 40
0.4062499999999958
 40
0.4062499999999958
 40
0.4374999999999954
 40
0.4374999999999954
 40
0.4999999999999951
 40
0.4999999999999951
 40
0.531249999999995
 40
0.531249999999995
 40
0.5624999999999949
 40
0.5624999999999949
 40
0.5937499999999948
 40
0.5937499999999948
 40
0.6249999999999947
 40
0.6249999999999947
 40
0.6562499999999946
 40
0.6562499999999946
 40
0.6874999999999944
 40
0.6874999999999944
 40
0.7499999999999956
 40
0.7499999999999956
 40
0.7812499999999961
 40
0.7812499999999961
 40
0.8124999999999967
 40
0.8124999999999967
 40
0.8437499999999972
 40
0.8437499999999972
 40
0.8749999999999978
 40
0.8749999999999978
 40
0.9062499999999983
 40
0.9062499999999983
 40
0.9374999999999989
 40
0.9374999999999989
 40
0.9687499999999994
 40
0.9687499999999994
 40
1.0
 40
1.0
 40
1.0
 40
1.0
 10
199.4442754725426
 20
115.0456962983886
 30
0.0
 10
199.4667681334127
 20
115.2040204646471
 30
0.0
 10
199.5072047387773
 20
115.3557262646857
 30
0.0
 10
199.6203217607488
 20
115.6473136197623
 30
0.0
 10
199.6942055659622
 20
115.788751484149
 30
0.0
 10
199.9556848616136
 20
116.1817065692002
 30
0.0
 10
200.1844704492555
 20
116.4053396538033
 30
0.0
 10
200.7021255880095
 20
116.7543164270282
 30
0.0
 10
200.9952317050001
 20
116.8824949892741
 30
0.0
 10
201.4514693186379
 20
116.9957021576362
 30
0.0
 10
201.6090493066083
 20
117.0209202603247
 30
0.0
 10
201.9237783904125
 20
117.0442208791971
 30
0.0
 10
202.0808031723705
 20
117.042619328595
 30
0.0
 10
202.3941748123143
 20
117.0129550660823
 30
0.0
 10
202.5520938401768
 20
116.9843679746848
 30
0.0
 10
202.8571194022726
 20
116.9011269774437
 30
0.0
 10
203.004564284833
 20
116.8467805033506
 30
0.0
 10
203.2890998131846
 20
116.7120180116662
 30
0.0
 10
203.4275264915069
 20
116.6304712228578
 30
0.0
 10
203.6828046592062
 20
116.4454355811237
 30
0.0
 10
203.8005069314467
 20
116.3419246975075
 30
0.0
 10
204.0150395094751
 20
116.1116288110458
 30
0.0
 10
204.1123465882827
 20
115.9834482878634
 30
0.0
 10
204.2747143217629
 20
115.7142144951448
 30
0.0
 10
204.3411790633337
 20
115.5720700159588
 30
0.0
 10
204.4929216956239
 20
115.121119963217
 30
0.0
 10
204.5244750281963
 20
114.7981356000006
 30
0.0
 10
204.4598132139825
 20
114.326196267898
 30
0.0
 10
204.4205433304867
 20
114.1734317228244
 30
0.0
 10
204.3077454195526
 20
113.8766658520937
 30
0.0
 10
204.2344498471841
 20
113.7344057102983
 30
0.0
 10
204.061360409401
 20
113.4707984621259
 30
0.0
 10
203.9597262311958
 20
113.3467620915489
 30
0.0
 10
203.7357241377595
 20
113.123194460298
 30
0.0
 10
203.6137091397029
 20
113.023408339651
 30
0.0
 10
203.3505833063179
 20
112.8465364498777
 30
0.0
 10
203.2098778626743
 20
112.7701280117111
 30
0.0
 10
202.9203572982296
 20
112.6448519216925
 30
0.0
 10
202.7703083151737
 20
112.5951153621982
 30
0.0
 10
202.3042161684265
 20
112.4847003329105
 30
0.0
 10
201.9876726422066
 20
112.4658560336767
 30
0.0
 10
201.5148241422118
 20
112.5168935431236
 30
0.0
 10
201.3608167011903
 20
112.5469122345726
 30
0.0
 10
201.0597612738903
 20
112.6323385503701
 30
0.0
 10
200.9115245766659
 20
112.6883361190515
 30
0.0
 10
200.6282098211049
 20
112.825059111983
 30
0.0
 10
200.4944328523362
 20
112.9048682675824
 30
0.0
 10
200.2427362947066
 20
113.0879365706055
 30
0.0
 10
200.1236369029698
 20
113.192478404979
 30
0.0
 10
199.9093286140778
 20
113.4220913135605
 30
0.0
 10
199.8148148468311
 20
113.5458725224415
 30
0.0
 10
199.6523041865217
 20
113.8125272732499
 30
0.0
 10
199.5836418063995
 20
113.9577623967477
 30
0.0
 10
199.4822773087472
 20
114.2565029393088
 30
0.0
 10
199.4488631489931
 20
114.4099673006776
 30
0.0
 10
199.4183033130721
 20
114.725535652256
 30
0.0
 10
199.4217828116726
 20
114.8873721321301
 30
0.0
 10
199.4442754725426
 20
115.0456962983886
 30
0.0
  0
LINE
  5
F1
330
1F
100
AcDbEntity
  8
0
  6
Continuous
 62
     7
370
    15
100
AcDbLine
 10
206.9586292856
 20
114.7619520282
 30
0.0
 11
206.9586292856
 21
104.7504201007
 31
0.0
  0
LINE
  5
F2
330
1F
100
AcDbEntity
  8
0
  6
Continuous
 62
     7
370
    15
100
AcDbLine
 10
206.9586292856
 20
124.7734839556
 30
0.0
 11
206.9586292856
 21
114.7619520282
 31
0.0
  0
LINE
  5
F3
330
1F
100
AcDbEntity
  8
0
  6
Continuous
 62
     7
370
    15
100
AcDbLine
 10
207.1586292856
 20
114.7619520282
 30
0.0
 11
207.1586292856
 21
104.9504201007
 31
0.0
  0
LINE
  5
F4
330
1F
100
AcDbEntity
  8
0
  6
Continuous
 62
     7
370
    15
100
AcDbLine
 10
207.1586292856
 20
124.5734839556
 30
0.0
 11
207.1586292856
 21
114.7619520282
 31
0.0
  0
CIRCLE
  5
F5
330
1F
100
AcDbEntity
  8
0
  6
HIDDEN
 62
     7
370
     0
100
AcDbCircle
 10
202.1086292856
 20
114.7619520282
 30
0.0
 40
2.000000000000006
  0
CIRCLE
  5
F6
330
1F
100
AcDbEntity
  8
0
  6
HIDDEN
 62
     7
370
     0
100
AcDbCircle
 10
202.1086292856
 20
114.7619520282
 30
0.0
 40
1.426794919243116
  0
CIRCLE
  5
F7
330
1F
100
AcDbEntity
  8
0
  6
HIDDEN
 62
     7
370
     0
100
AcDbCircle
 10
202.1086292856
 20
114.7619520282
 30
0.0
 40
1.326794919243087
  0
LINE
  5
F8
330
1F
100
AcDbEntity
  8
0
  6
HIDDEN
 62
     7
370
     0
100
AcDbLine
 10
168.8966002646
 20
153.7129147891
 30
0.0
 11
168.8966002646
 21
146.1119520282
 31
0.0
  0
LINE
  5
F9
330
1F
100
AcDbEntity
  8
0
  6
HIDDEN
 62
     7
370
     0
100
AcDbLine
 10
132.572054035
 20
78.0261456659
 30
0.0
 11
132.2964392128
 21
78.0017196685
 31
0.0
  0
SPLINE
  5
FA
330
1F
100
AcDbEntity
  8
0
  6
HIDDEN
 62
     7
370
     0
100
AcDbSpline
210
0.0
220
0.0
230
1.0
 70
     8
 71
     3
 72
    13
 73
     9
 74
     0
 42
0.000000001
 43
0.00000001
 40
0.0
 40
0.0
 40
0.0
 40
0.0
 40
0.1247123583496572
 40
0.2490591701008075
 40
0.3740782882418872
 40
0.5009715943216706
 40
0.7521524312994651
 40
1.0
 40
1.0
 40
1.0
 40
1.0
 10
130.6779343033479
 20
151.6932581224252
 30
0.0
 10
130.6837209137978
 20
151.6924818776227
 30
0.0
 10
130.6952771734616
 20
151.6909316632826
 30
0.0
 10
130.7922872902164
 20
151.678715356533
 30
0.0
 10
130.9475828261005
 20
151.6597886451553
 30
0.0
 10
131.2377511047875
 20
151.6258165667388
 30
0.0
 10
131.7253070225532
 20
151.5692952433216
 30
0.0
 10
132.2910037496747
 20
151.5214868505078
 30
0.0
 10
132.5719628230331
 20
151.4977423225659
 30
0.0
  0
SPLINE
  5
FB
330
1F
100
AcDbEntity
  8
0
  6
HIDDEN
 62
     7
370
     0
100
AcDbSpline
210
0.0
220
0.0
230
1.0
 70
     8
 71
     3
 72
    33
 73
    29
 74
     0
 42
0.000000001
 43
0.00000001
 40
0.0
 40
0.0
 40
0.0
 40
0.0
 40
0.0315770179393607
 40
0.0633746224220138
 40
0.0958646166390168
 40
0.1285928875532777
 40
0.1921424622188027
 40
0.2244008151544716
 40
0.2571337390781632
 40
0.3204624753608076
 40
0.3526219946445607
 40
0.3852678197272866
 40
0.4475657721394208
 40
0.4791918606709094
 40
0.5112822417367832
 40
0.5733461802058509
 40
0.6048366629229605
 40
0.6367713304544766
 40
0.6997447529605778
 40
0.7316987673527409
 40
0.7641085796737865
 40
0.7957195281272186
 40
0.827552170883774
 40
0.8600894066798194
 40
0.8928727782868541
 40
0.9558819713606229
 40
0.9878779765861394
 40
1.0
 40
1.0
 40
1.0
 40
1.0
 10
142.4118349407532
 20
83.39562980742771
 30
0.0
 10
142.3279629708188
 20
83.40950361803945
 30
0.0
 10
142.1596331292678
 20
83.43734815708878
 30
0.0
 10
141.8602910769304
 20
83.48377969630893
 30
0.0
 10
141.5262427494443
 20
83.5323965868815
 30
0.0
 10
141.0398960935548
 20
83.59775753405225
 30
0.0
 10
140.4963321966064
 20
83.66135551492351
 30
0.0
 10
139.9076497677482
 20
83.7178179085388
 30
0.0
 10
139.2930720360077
 20
83.7678069701499
 30
0.0
 10
138.6443171171185
 20
83.80605843918772
 30
0.0
 10
137.977782061038
 20
83.82920375825124
 30
0.0
 10
137.3084649236928
 20
83.84146097790156
 30
0.0
 10
136.6362320123117
 20
83.83731252595352
 30
0.0
 10
135.9780044001878
 20
83.81744632200977
 30
0.0
 10
135.3322982829141
 20
83.7876572423912
 30
0.0
 10
134.7098467886914
 20
83.74430020569359
 30
0.0
 10
134.125294845205
 20
83.69123587120902
 30
0.0
 10
133.5648905862691
 20
83.63263964132142
 30
0.0
 10
133.0499760562033
 20
83.56841761457765
 30
0.0
 10
132.5930713467125
 20
83.50401309989348
 30
0.0
 10
132.2809646309952
 20
83.45678694219652
 30
0.0
 10
132.0037327898995
 20
83.41228746796136
 30
0.0
 10
131.7621636002236
 20
83.37157605920919
 30
0.0
 10
131.5566869281863
 20
83.33552374503395
 30
0.0
 10
131.3385919700429
 20
83.29598021209915
 30
0.0
 10
131.2080509661871
 20
83.271357100685
 30
0.0
 10
131.1575657735299
 20
83.26175006017314
 30
0.0
 10
131.1624560030026
 20
83.2626806482805
 30
0.0
 10
131.1637996595075
 20
83.26293633991438
 30
0.0
  0
SPLINE
  5
FC
330
1F
100
AcDbEntity
  8
0
  6
HIDDEN
 62
     7
370
     0
100
AcDbSpline
210
0.0
220
0.0
230
1.0
 70
     8
 71
     3
 72
    24
 73
    20
 74
     0
 42
0.000000001
 43
0.00000001
 40
0.0
 40
0.0
 40
0.0
 40
0.0
 40
0.0203729619474675
 40
0.0822870750602626
 40
0.1459896397253444
 40
0.2080895879354082
 40
0.2719360348739571
 40
0.3350079792507122
 40
0.3998886074506654
 40
0.4632504589199172
 40
0.5284999352472104
 40
0.5909722114153432
 40
0.6552989095534102
 40
0.7170937383192268
 40
0.7806505850197494
 40
0.8430286835696726
 40
0.9071616706581621
 40
0.9532355028060499
 40
1.0
 40
1.0
 40
1.0
 40
1.0
 10
131.1775463999141
 20
146.2583577285427
 30
0.0
 10
131.1721679560182
 20
146.2593793033137
 30
0.0
 10
131.1504442411403
 20
146.2635054779994
 30
0.0
 10
131.2827177108488
 20
146.2383148662621
 30
0.0
 10
131.5686406933299
 20
146.1857473992935
 30
0.0
 10
132.0234105363079
 20
146.1073254606845
 30
0.0
 10
132.6140155894574
 20
146.015141103873
 30
0.0
 10
133.3411446797586
 20
145.9167563371164
 30
0.0
 10
134.1746490245021
 20
145.8247181340797
 30
0.0
 10
135.1040991886921
 20
145.7484761215578
 30
0.0
 10
136.0824794930503
 20
145.6985629392647
 30
0.0
 10
137.0968914224322
 20
145.6797989411705
 30
0.0
 10
138.0953369835639
 20
145.6941287985141
 30
0.0
 10
139.0719472102251
 20
145.7395835261516
 30
0.0
 10
139.985144226832
 20
145.8100081942982
 30
0.0
 10
140.8305509579578
 20
145.8991425910768
 30
0.0
 10
141.5035484034042
 20
145.9872001903575
 30
0.0
 10
142.0336428970673
 20
146.0660640330368
 30
0.0
 10
142.2851472424838
 20
146.1074349182408
 30
0.0
 10
142.4118349407532
 20
146.1282742489218
 30
0.0
  0
SPLINE
  5
FD
330
1F
100
AcDbEntity
  8
0
  6
HIDDEN
 62
     7
370
     0
100
AcDbSpline
210
0.0
220
0.0
230
1.0
 70
     8
 71
     3
 72
    11
 73
     7
 74
     0
 42
0.000000001
 43
0.00000001
 40
0.0
 40
0.0
 40
0.0
 40
0.0
 40
0.3257543790598221
 40
0.6609931896520465
 40
0.9867978820916951
 40
1.0
 40
1.0
 40
1.0
 40
1.0
 10
142.4118349407532
 20
146.1282742489218
 30
0.0
 10
142.5577174704208
 20
146.1515399265305
 30
0.0
 10
142.8537299411597
 20
146.1987486685783
 30
0.0
 10
143.082864200555
 20
146.2288403533439
 30
0.0
 10
143.1841484368549
 20
146.2420182822835
 30
0.0
 10
143.1564639719758
 20
146.2384099350068
 30
0.0
 10
143.1553858415123
 20
146.2382694132687
 30
0.0
  0
SPLINE
  5
FE
330
1F
100
AcDbEntity
  8
0
  6
HIDDEN
 62
     7
370
     0
100
AcDbSpline
210
0.0
220
0.0
230
1.0
 70
     8
 71
     3
 72
    13
 73
     9
 74
     0
 42
0.000000001
 43
0.00000001
 40
0.0
 40
0.0
 40
0.0
 40
0.0
 40
0.1540072230024667
 40
0.3222857685402294
 40
0.4885570907394365
 40
0.6560376321918829
 40
0.8273518388946336
 40
1.0
 40
1.0
 40
1.0
 40
1.0
 10
143.1378626661849
 20
83.28788725655187
 30
0.0
 10
143.1430474919985
 20
83.28721553661889
 30
0.0
 10
143.153897603698
 20
83.28580985076452
 30
0.0
 10
143.0845575723189
 20
83.29479656128254
 30
0.0
 10
142.9844404168171
 20
83.30821063741112
 30
0.0
 10
142.8379125655339
 20
83.32885119656736
 30
0.0
 10
142.6516986901199
 20
83.35641665456836
 30
0.0
 10
142.4919959768264
 20
83.3825250053507
 30
0.0
 10
142.4118349407532
 20
83.39562980742771
 30
0.0
  0
LINE
  5
FF
330
1F
100
AcDbEntity
  8
0
  6
HIDDEN
 62
     7
370
     0
100
AcDbLine
 10
122.1552536126
 20
88.2619520282
 30
0.0
 11
122.1552536126
 21
141.2619520282
 31
0.0
  0
LINE
  5
100
330
1F
100
AcDbEntity
  8
0
  6
HIDDEN
 62
     7
370
     0
100
AcDbLine
 10
161.4427069039
 20
88.2619520282
 30
0.0
 11
161.4427069039
 21
141.2619520282
 31
0.0
  0
LINE
  5
101
330
1F
100
AcDbEntity
  8
0
  6
HIDDEN
 62
     7
370
     0
100
AcDbLine
 10
164.6086292856
 20
89.8869520282
 30
0.0
 11
164.6086292856
 21
139.6369520282
 31
0.0
  0
SPLINE
  5
102
330
1F
100
AcDbEntity
  8
0
  6
HIDDEN
 62
     7
370
     0
100
AcDbSpline
210
0.0
220
0.0
230
1.0
 70
     8
 71
     3
 72
    20
 73
    16
 74
     0
 42
0.000000001
 43
0.00000001
 40
0.0
 40
0.0
 40
0.0
 40
0.0
 40
0.2499999999999978
 40
0.2499999999999978
 40
0.3749999999999982
 40
0.3749999999999982
 40
0.4999999999999986
 40
0.4999999999999986
 40
0.6249999999999989
 40
0.6249999999999989
 40
0.7499999999999992
 40
0.7499999999999992
 40
0.8749999999999997
 40
0.8749999999999997
 40
1.0
 40
1.0
 40
1.0
 40
1.0
 10
112.3586292855622
 20
139.9904656585891
 30
0.0
 10
112.3586292855622
 20
139.9112626720568
 30
0.0
 10
112.3116467903495
 20
139.8301664536539
 30
0.0
 10
112.1738251995719
 20
139.709969761903
 30
0.0
 10
112.1175429156619
 20
139.6710430579009
 30
0.0
 10
111.9844580641947
 20
139.5958543254765
 30
0.0
 10
111.9066181219616
 20
139.5592121201345
 30
0.0
 10
111.7339857658473
 20
139.4916215873027
 30
0.0
 10
111.6395927687562
 20
139.4606634055271
 30
0.0
 10
111.4341554624411
 20
139.4051389841574
 30
0.0
 10
111.3218092224539
 20
139.3804304703241
 30
0.0
 10
111.0895683585542
 20
139.3406342432159
 30
0.0
 10
110.9688577161315
 20
139.3252144058189
 30
0.0
 10
110.7177868568625
 20
139.3041344309793
 30
0.0
 10
110.5882648604467
 20
139.2986571859583
 30
0.0
 10
110.4586292855622
 20
139.2986571859583
 30
0.0
  0
LINE
  5
103
330
1F
100
AcDbEntity
  8
0
  6
HIDDEN
 62
     7
370
     0
100
AcDbLine
 10
110.4586292856
 20
139.298657186
 30
0.0
 11
103.9086292856
 21
139.298657186
 31
0.0
  0
LINE
  5
104
330
1F
100
AcDbEntity
  8
0
  6
HIDDEN
 62
     7
370
     0
100
AcDbLine
 10
103.9086292856
 20
90.2252468704
 30
0.0
 11
115.4586292856
 21
90.2252468704
 31
0.0
  0
SPLINE
  5
105
330
1F
100
AcDbEntity
  8
0
  6
HIDDEN
 62
     7
370
     0
100
AcDbSpline
210
0.0
220
0.0
230
1.0
 70
     8
 71
     3
 72
    18
 73
    14
 74
     0
 42
0.000000001
 43
0.00000001
 40
0.0
 40
0.0
 40
0.0
 40
0.0
 40
0.1249999999999982
 40
0.1249999999999982
 40
0.2499999999999964
 40
0.2499999999999964
 40
0.4999999999999988
 40
0.4999999999999988
 40
0.7500000000000011
 40
0.7500000000000011
 40
0.8750000000000006
 40
0.8750000000000006
 40
1.0
 40
1.0
 40
1.0
 40
1.0
 10
115.4586292855622
 20
90.22524687039127
 30
0.0
 10
115.5880965985194
 20
90.22524687039127
 30
0.0
 10
115.7151073474161
 20
90.21989387179863
 30
0.0
 10
115.9644706686133
 20
90.19915589910984
 30
0.0
 10
116.0880943232417
 20
90.18348399485555
 30
0.0
 10
116.4371266601758
 20
90.12378926645347
 30
0.0
 10
116.6476384249826
 20
90.06602408677247
 30
0.0
 10
116.9915551026821
 20
89.93150224549498
 30
0.0
 10
117.1279055041999
 20
89.85383313198957
 30
0.0
 10
117.2649435607624
 20
89.73454199790224
 30
0.0
 10
117.3001625794753
 20
89.69362298876719
 30
0.0
 10
117.3467861564139
 20
89.61296699547717
 30
0.0
 10
117.3586292855622
 20
89.5729984752843
 30
0.0
 10
117.3586292855622
 20
89.53343839776048
 30
0.0
  0
LINE
  5
106
330
1F
100
AcDbEntity
  8
0
  6
HIDDEN
 62
     7
370
     0
100
AcDbLine
 10
103.9086292856
 20
90.2252468704
 30
0.0
 11
103.9086292856
 21
139.298657186
 31
0.0
  0
LINE
  5
107
330
1F
100
AcDbEntity
  8
0
  6
HIDDEN
 62
     7
370
     0
100
AcDbLine
 10
103.9086292856
 20
87.3919520282
 30
0.0
 11
103.9086292856
 21
82.5136668264
 31
0.0
  0
LINE
  5
108
330
1F
100
AcDbEntity
  8
0
  6
HIDDEN
 62
     7
370
     0
100
AcDbLine
 10
117.3586292856
 20
87.3919520282
 30
0.0
 11
117.3586292856
 21
80.8926187628
 31
0.0
  0
LINE
  5
109
330
1F
100
AcDbEntity
  8
0
  6
HIDDEN
 62
     7
370
     0
100
AcDbLine
 10
112.3586292856
 20
142.1319520282
 30
0.0
 11
112.3586292856
 21
148.5065607652
 31
0.0
  0
LINE
  5
10A
330
1F
100
AcDbEntity
  8
0
  6
HIDDEN
 62
     7
370
     0
100
AcDbLine
 10
103.9086292856
 20
142.1319520282
 30
0.0
 11
103.9086292856
 21
147.01023723
 31
0.0
  0
LINE
  5
10B
330
1F
100
AcDbEntity
  8
0
  6
HIDDEN
 62
     7
370
     0
100
AcDbLine
 10
176.4586292856
 20
101.7619520282
 30
0.0
 11
176.4586292856
 21
127.7619520282
 31
0.0
  0
LINE
  5
10C
330
1F
100
AcDbEntity
  8
0
  6
HIDDEN
 62
     7
370
     0
100
AcDbLine
 10
180.4586292856
 20
101.7619520282
 30
0.0
 11
180.4586292856
 21
127.7619520282
 31
0.0
  0
LINE
  5
10D
330
1F
100
AcDbEntity
  8
0
  6
HIDDEN
 62
     7
370
     0
100
AcDbLine
 10
165.3586292856
 20
103.5119520282
 30
0.0
 11
165.3586292856
 21
126.0119520282
 31
0.0
  0
ELLIPSE
  5
10E
330
1F
100
AcDbEntity
  8
0
  6
HIDDEN
 62
     7
370
     0
100
AcDbEllipse
 10
95.9739560853
 20
114.7619520282
 30
0.0
 11
31.08108570811662
 21
0.0
 31
0.0
210
0.0
220
0.0
230
1.0
 40
0.8164965809
 41
4.915995335118103
 42
4.970536038964787
  0
ELLIPSE
  5
10F
330
1F
100
AcDbEntity
  8
0
  6
HIDDEN
 62
     7
370
     0
100
AcDbEllipse
 10
95.9739560853
 20
114.7619520282
 30
0.0
 11
31.08108570811662
 21
1.421085471520200E-14
 31
0.0
210
0.0
220
0.0
230
1.0
 40
0.8164965809
 41
1.31264926821481
 42
1.367189972061495
  0
LINE
  5
110
330
1F
100
AcDbEntity
  8
0
  6
HIDDEN
 62
     7
370
     0
100
AcDbLine
 10
181.1086292856
 20
70.8619520282
 30
0.0
 11
167.1086292856
 21
70.8619520282
 31
0.0
  0
LINE
  5
111
330
1F
100
AcDbEntity
  8
0
  6
HIDDEN
 62
     7
370
     0
100
AcDbLine
 10
157.1086292856
 20
64.7719530284
 30
0.0
 11
157.1086292856
 21
70.8619520282
 31
0.0
  0
LINE
  5
112
330
1F
100
AcDbEntity
  8
0
  6
HIDDEN
 62
     7
370
     0
100
AcDbLine
 10
167.1086292856
 20
70.8619520282
 30
0.0
 11
157.1086292856
 21
70.8619520282
 31
0.0
  0
LINE
  5
113
330
1F
100
AcDbEntity
  8
0
  6
HIDDEN
 62
     7
370
     0
100
AcDbLine
 10
117.3586292856
 20
87.3919520282
 30
0.0
 11
117.3586292856
 21
89.5334383978
 31
0.0
  0
LINE
  5
114
330
1F
100
AcDbEntity
  8
0
  6
HIDDEN
 62
     7
370
     0
100
AcDbLine
 10
103.9086292856
 20
87.3919520282
 30
0.0
 11
103.9086292856
 21
90.2252468704
 31
0.0
  0
LINE
  5
115
330
1F
100
AcDbEntity
  8
0
  6
HIDDEN
 62
     7
370
     0
100
AcDbLine
 10
103.9086292856
 20
142.1319520282
 30
0.0
 11
103.9086292856
 21
139.298657186
 31
0.0
  0
LINE
  5
116
330
1F
100
AcDbEntity
  8
0
  6
HIDDEN
 62
     7
370
     0
100
AcDbLine
 10
112.3586292856
 20
142.1319520282
 30
0.0
 11
112.3586292856
 21
139.9904656586
 31
0.0
  0
LINE
  5
117
330
1F
100
AcDbEntity
  8
0
  6
HIDDEN
 62
     7
370
     0
100
AcDbLine
 10
167.1086292856
 20
158.6619520282
 30
0.0
 11
157.1086292856
 21
158.6619520282
 31
0.0
  0
LINE
  5
118
330
1F
100
AcDbEntity
  8
0
  6
HIDDEN
 62
     7
370
     0
100
AcDbLine
 10
181.1086292856
 20
158.6619520282
 30
0.0
 11
167.1086292856
 21
158.6619520282
 31
0.0
  0
LWPOLYLINE
  5
119
330
1F
100
AcDbEntity
  8
0
  6
HIDDEN
 62
     7
370
     0
100
AcDbPolyline
 90
       32
 70
   128
 43
0.0
 10
143.1580899334
 20
77.6620471506
 10
143.074720808
 20
77.6850851227
 10
142.7862138469
 20
77.7554090705
 10
142.2441345046
 20
77.8728705582
 10
142.0001378672
 20
77.9224993963
 10
141.7227274997
 20
77.9773657388
 10
141.4112925912
 20
78.0374695858
 10
140.8250734718
 20
78.1420843828
 10
140.2879331574
 20
78.2278370199
 10
139.8304611646
 20
78.2947274973
 10
139.4727956497
 20
78.3427558148
 10
138.2777261686
 20
78.4735900009
 10
137.1772554549
 20
78.5555695198
 10
136.1522703017
 20
78.593011271
 10
135.0630477917
 20
78.5964230455
 10
133.9629674235
 20
78.5658048431
 10
133.605956938
 20
78.5480365587
 10
133.2589186412
 20
78.5264871656
 10
132.9252694397
 20
78.5011566641
 10
132.408563743
 20
78.4553875841
 10
132.0381215547
 20
78.4182913003
 10
131.784205223
 20
78.3898678129
 10
131.6195180949
 20
78.3701171217
 10
131.2621372568
 20
78.3242314808
 10
131.1586317822
 20
78.3088587154
 10
131.1822270573
 20
78.3126174014
 10
131.2601439304
 20
78.324009781
 10
131.4016157308
 20
78.3430358541
 10
131.6155429739
 20
78.3696956208
 10
132.0362467033
 20
78.4180836687
 10
132.9187160296
 20
78.5006141152
 10
132.9187160296
 20
78.5006141152
  0
SPLINE
  5
11A
330
1F
100
AcDbEntity
  8
0
  6
HIDDEN
 62
     7
370
     0
100
AcDbSpline
210
0.0
220
0.0
230
1.0
 70
     8
 71
     3
 72
    32
 73
    28
 74
     0
 42
0.000000001
 43
0.00000001
 40
0.0
 40
0.0
 40
0.0
 40
0.0
 40
0.0001353497821227
 40
0.0227318153052691
 40
0.0465266483578367
 40
0.0715221639188579
 40
0.0977203428909977
 40
0.1251228895288174
 40
0.1547097971497691
 40
0.1963863631250113
 40
0.250138121172694
 40
0.320549513670901
 40
0.3856310024093256
 40
0.4454211681822056
 40
0.4999714975774485
 40
0.5225357310365001
 40
0.5463103335655284
 40
0.5712995071640766
 40
0.5975068543322004
 40
0.6249354822708819
 40
0.6542088698744408
 40
0.6958851442450791
 40
0.7499499130939689
 40
0.8216057994081278
 40
0.8871539823185651
 40
0.9466463174557703
 40
0.9999999999999999
 40
0.9999999999999999
 40
0.9999999999999999
 40
0.9999999999999999
 10
131.1587441423891
 20
151.2149594785477
 30
0.0
 10
131.1587056964136
 20
151.2149678613646
 30
0.0
 10
131.1522487461215
 20
151.2163757442844
 30
0.0
 10
131.1722067366312
 20
151.2125180051098
 30
0.0
 10
131.2170480574554
 20
151.2059294198627
 30
0.0
 10
131.305386175212
 20
151.1933618127724
 30
0.0
 10
131.4352828314826
 20
151.1761836679117
 30
0.0
 10
131.6152881928248
 20
151.1540523644414
 30
0.0
 10
131.8799328876894
 20
151.122005009296
 30
0.0
 10
132.2933914140713
 20
151.0783254957224
 30
0.0
 10
132.9696596099006
 20
151.0152821495724
 30
0.0
 10
133.9080951743239
 20
150.9539856963057
 30
0.0
 10
135.017595470698
 20
150.9226948861573
 30
0.0
 10
136.1150471706974
 20
150.9243577644819
 30
0.0
 10
136.978417990278
 20
150.9543650393559
 30
0.0
 10
137.6122879766139
 20
150.9947557932119
 30
0.0
 10
138.0576956796328
 20
151.0295264923166
 30
0.0
 10
138.5199835802219
 20
151.0720548704536
 30
0.0
 10
138.9953567921714
 20
151.1224254094685
 30
0.0
 10
139.4828480841872
 20
151.1806190164038
 30
0.0
 10
140.0393965208408
 20
151.2573856931722
 30
0.0
 10
140.7059927346497
 20
151.3590168173943
 30
0.0
 10
141.5073302710774
 20
151.501162543858
 30
0.0
 10
142.2598387347165
 20
151.6524046696619
 30
0.0
 10
142.8051248023928
 20
151.7702559874948
 30
0.0
 10
143.1078397259029
 20
151.8464833987706
 30
0.0
 10
143.1421297750489
 20
151.85693551814
 30
0.0
 10
143.1583421362306
 20
151.8618772880863
 30
0.0
  0
SPLINE
  5
11B
330
1F
100
AcDbEntity
  8
0
  6
HIDDEN
 62
     7
370
     0
100
AcDbSpline
210
0.0
220
0.0
230
1.0
 70
     8
 71
     3
 72
    16
 73
    12
 74
     0
 42
0.000000001
 43
0.00000001
 40
0.0
 40
0.0
 40
0.0
 40
0.0
 40
0.2500000000000034
 40
0.2500000000000034
 40
0.5000000000000068
 40
0.5000000000000068
 40
0.6250000000000084
 40
0.6250000000000084
 40
0.7500000000000102
 40
0.7500000000000102
 40
1.0
 40
1.0
 40
1.0
 40
1.0
 10
207.1586292855622
 20
120.2305881096087
 30
0.0
 10
207.1586292855622
 20
120.1614542082697
 30
0.0
 10
207.1540954763423
 20
120.0908330608349
 30
0.0
 10
207.1289316293614
 20
119.9443095744786
 30
0.0
 10
207.1086444868244
 20
119.8668676993281
 30
0.0
 10
207.0500351100541
 20
119.761219235374
 30
0.0
 10
207.0255068134679
 20
119.7291389553039
 30
0.0
 10
206.9711609076263
 20
119.6820132319477
 30
0.0
 10
206.9415610828584
 20
119.6669598834902
 30
0.0
 10
206.8576115246665
 20
119.6429544491189
 30
0.0
 10
206.8062531259353
 20
119.6505168838621
 30
0.0
 10
206.7586292856753
 20
119.664556238932
 30
0.0
  0
SPLINE
  5
11C
330
1F
100
AcDbEntity
  8
0
  6
HIDDEN
 62
     7
370
     0
100
AcDbSpline
210
0.0
220
0.0
230
1.0
 70
     8
 71
     3
 72
     8
 73
     4
 74
     0
 42
0.000000001
 43
0.00000001
 40
0.0
 40
0.0
 40
0.0
 40
0.0
 40
1.0
 40
1.0
 40
1.0
 40
1.0
 10
206.7586292856749
 20
119.6645562389321
 30
0.0
 10
206.6994629767827
 20
119.6307069481036
 30
0.0
 10
206.6306799912584
 20
119.6085915719228
 30
0.0
 10
206.5586292855622
 20
119.6085915719228
 30
0.0
  0
SPLINE
  5
11D
330
1F
100
AcDbEntity
  8
0
  6
HIDDEN
 62
     7
370
     0
100
AcDbSpline
210
0.0
220
0.0
230
1.0
 70
     8
 71
     3
 72
     8
 73
     4
 74
     0
 42
0.000000001
 43
0.00000001
 40
0.0
 40
0.0
 40
0.0
 40
0.0
 40
1.0
 40
1.0
 40
1.0
 40
1.0
 10
206.7586292854973
 20
109.859347817519
 30
0.0
 10
206.6994629766475
 20
109.8931971082904
 30
0.0
 10
206.6306799911863
 20
109.9153124844267
 30
0.0
 10
206.5586292855622
 20
109.9153124844267
 30
0.0
  0
SPLINE
  5
11E
330
1F
100
AcDbEntity
  8
0
  6
HIDDEN
 62
     7
370
     0
100
AcDbSpline
210
0.0
220
0.0
230
1.0
 70
     8
 71
     3
 72
    16
 73
    12
 74
     0
 42
0.000000001
 43
0.00000001
 40
0.0
 40
0.0
 40
0.0
 40
0.0
 40
0.2499999999999906
 40
0.2499999999999906
 40
0.374999999999993
 40
0.374999999999993
 40
0.4999999999999953
 40
0.4999999999999953
 40
0.7499999999999977
 40
0.7499999999999977
 40
1.0
 40
1.0
 40
1.0
 40
1.0
 10
206.758629285485
 20
109.8593478175187
 30
0.0
 10
206.8059338733482
 20
109.8732929863096
 30
0.0
 10
206.8569320125019
 20
109.8808739737092
 30
0.0
 10
206.9405310187706
 20
109.8573651407481
 30
0.0
 10
206.9696683606057
 20
109.8428008731574
 30
0.0
 10
207.0239920325456
 20
109.7964311865294
 30
0.0
 10
207.0484751794615
 20
109.7649067231405
 30
0.0
 10
207.1073157357541
 20
109.6605316239185
 30
0.0
 10
207.1281971134094
 20
109.582765798716
 30
0.0
 10
207.1539678239658
 20
109.4348782642461
 30
0.0
 10
207.1586289781891
 20
109.3627676123228
 30
0.0
 10
207.1586292855478
 20
109.2933212621855
 30
0.0
  0
LINE
  5
11F
330
1F
100
AcDbEntity
  8
0
  6
HIDDEN
 62
     7
370
     0
100
AcDbLine
 10
197.0246546893
 20
114.7619520282
 30
0.0
 11
197.0246546893
 21
109.2619520282
 31
0.0
  0
LINE
  5
120
330
1F
100
AcDbEntity
  8
0
  6
HIDDEN
 62
     7
370
     0
100
AcDbLine
 10
197.0246546893
 20
120.2619520282
 30
0.0
 11
197.0246546893
 21
114.7619520282
 31
0.0
  0
LINE
  5
121
330
1F
100
AcDbEntity
  8
0
  6
HIDDEN
 62
     7
370
     0
100
AcDbLine
 10
201.2586292856
 20
119.6085915719
 30
0.0
 11
206.5586292856
 21
119.6085915719
 31
0.0
  0
LINE
  5
122
330
1F
100
AcDbEntity
  8
0
  6
HIDDEN
 62
     7
370
     0
100
AcDbLine
 10
201.2586292856
 20
109.9153124844
 30
0.0
 11
206.5586292856
 21
109.9153124844
 31
0.0
  0
SPLINE
  5
123
330
1F
100
AcDbEntity
  8
0
  6
HIDDEN
 62
     7
370
     0
100
AcDbSpline
210
0.0
220
0.0
230
1.0
 70
    11
 71
     3
 72
    20
 73
    16
 74
     0
 42
0.000000001
 43
0.00000001
 40
0.0
 40
0.0
 40
0.0
 40
0.0
 40
0.1250000000000001
 40
0.1250000000000001
 40
0.2500000000000003
 40
0.2500000000000003
 40
0.5000000000000002
 40
0.5000000000000002
 40
0.6250000000000002
 40
0.6250000000000002
 40
0.7500000000000001
 40
0.7500000000000001
 40
0.8750000000000001
 40
0.8750000000000001
 40
1.0
 40
1.0
 40
1.0
 40
1.0
 10
206.7586292855622
 20
122.1619520281748
 30
0.0
 10
206.7586292855622
 20
122.2611267094853
 30
0.0
 10
206.7587957282192
 20
122.3506733271643
 30
0.0
 10
206.756835388916
 20
122.5110700038226
 30
0.0
 10
206.7548470220145
 20
122.5811998714132
 30
0.0
 10
206.7478433712019
 20
122.7505901467629
 30
0.0
 10
206.7401145482517
 20
122.8119355690351
 30
0.0
 10
206.7344329567354
 20
122.8119602526554
 30
0.0
 10
206.7334395139505
 20
122.7972578645629
 30
0.0
 10
206.7350230138072
 20
122.7384740286977
 30
0.0
 10
206.7373524288104
 20
122.6946586170545
 30
0.0
 10
206.7440222283182
 20
122.5817695415892
 30
0.0
 10
206.7486160228588
 20
122.5114223498671
 30
0.0
 10
206.7558934433401
 20
122.3518776276022
 30
0.0
 10
206.7586292547899
 20
122.2611435942769
 30
0.0
 10
206.7586291606121
 20
122.1619520281768
 30
0.0
  0
LWPOLYLINE
  5
124
330
1F
100
AcDbEntity
  8
0
  6
HIDDEN
 62
     7
370
     0
100
AcDbPolyline
 90
        4
 70
   128
 43
0.0
 10
206.7586291606
 20
122.1619520282
 10
206.7586292843
 20
121.4198413276
 10
206.7586293022
 20
120.6777306271
 10
206.7586292857
 20
119.6645562389
  0
LWPOLYLINE
  5
125
330
1F
100
AcDbEntity
  8
0
  6
HIDDEN
 62
     7
370
     0
100
AcDbPolyline
 90
        3
 70
   128
 43
0.0
 10
206.7586293358
 20
107.3619520282
 10
206.7586292811
 20
108.6386322563
 10
206.7586292855
 20
109.8593478175
  0
SPLINE
  5
126
330
1F
100
AcDbEntity
  8
0
  6
HIDDEN
 62
     7
370
     0
100
AcDbSpline
210
0.0
220
0.0
230
1.0
 70
     8
 71
     3
 72
    11
 73
     7
 74
     0
 42
0.000000001
 43
0.00000001
 40
0.0
 40
0.0
 40
0.0
 40
0.0
 40
0.2832653816797219
 40
0.6060535643999954
 40
0.9293812402115937
 40
1.0
 40
1.0
 40
1.0
 40
1.0
 10
206.7368383167733
 20
106.7200808658928
 30
0.0
 10
206.7352556343254
 20
106.7285883575338
 30
0.0
 10
206.7318694445512
 20
106.7467903545534
 30
0.0
 10
206.7450074588103
 20
106.9501683786847
 30
0.0
 10
206.7577659689858
 20
107.1836108209095
 30
0.0
 10
206.758498095008
 20
107.3348423027755
 30
0.0
 10
206.7586293357733
 20
107.3619520281728
 30
0.0
  0
LINE
  5
127
330
1F
100
AcDbEntity
  8
0
  6
HIDDEN
 62
     7
370
     0
100
AcDbLine
 10
201.2586292856
 20
107.3619520282
 30
0.0
 11
201.2586292856
 21
109.9153124844
 31
0.0
  0
LINE
  5
128
330
1F
100
AcDbEntity
  8
0
  6
HIDDEN
 62
     7
370
     0
100
AcDbLine
 10
201.2586292856
 20
122.1619520282
 30
0.0
 11
201.2586292856
 21
119.6085915719
 31
0.0
  0
LINE
  5
129
330
1F
100
AcDbEntity
  8
0
  6
HIDDEN
 62
     7
370
     0
100
AcDbLine
 10
201.2586292856
 20
106.7119520282
 30
0.0
 11
201.2586292856
 21
107.3619520282
 31
0.0
  0
LINE
  5
12A
330
1F
100
AcDbEntity
  8
0
  6
HIDDEN
 62
     7
370
     0
100
AcDbLine
 10
201.2586292856
 20
122.8119520282
 30
0.0
 11
201.2586292856
 21
122.1619520282
 31
0.0
  0
LINE
  5
12B
330
1F
100
AcDbEntity
  8
0
  6
HIDDEN
 62
     7
370
     0
100
AcDbLine
 10
175.4206583065
 20
153.7129147891
 30
0.0
 11
175.4206583065
 21
146.1119520282
 31
0.0
  0
LINE
  5
12C
330
1F
100
AcDbEntity
  8
0
  6
HIDDEN
 62
     7
370
     0
100
AcDbLine
 10
170.2486292856
 20
149.4761872207
 30
0.0
 11
170.2486292856
 21
146.1119520282
 31
0.0
  0
LINE
  5
12D
330
1F
100
AcDbEntity
  8
0
  6
HIDDEN
 62
     7
370
     0
100
AcDbLine
 10
174.0686292856
 20
149.4761872207
 30
0.0
 11
174.0686292856
 21
146.1119520282
 31
0.0
  0
CIRCLE
  5
12E
330
1F
100
AcDbEntity
  8
0
  6
HIDDEN
 62
     7
370
     0
100
AcDbCircle
 10
159.1586292856
 20
114.7619520282
 30
0.0
 40
5.0
  0
ARC
  5
12F
330
1F
100
AcDbEntity
  8
0
  6
HIDDEN
 62
     7
370
     0
100
AcDbCircle
 10
194.4086292856
 20
109.5119520282
 30
0.0
 40
0.75
100
AcDbArc
 50
180.0
 51
0.0
  0
ARC
  5
130
330
1F
100
AcDbEntity
  8
0
  6
HIDDEN
 62
     7
370
     0
100
AcDbCircle
 10
194.4086292856
 20
109.5119520282
 30
0.0
 40
0.75
100
AcDbArc
 50
0.0
 51
180.0
  0
ARC
  5
131
330
1F
100
AcDbEntity
  8
0
  6
HIDDEN
 62
     7
370
     0
100
AcDbCircle
 10
194.4086292856
 20
120.0119520282
 30
0.0
 40
0.75
100
AcDbArc
 50
0.0
 51
180.0
  0
ARC
  5
132
330
1F
100
AcDbEntity
  8
0
  6
HIDDEN
 62
     7
370
     0
100
AcDbCircle
 10
194.4086292856
 20
120.0119520282
 30
0.0
 40
0.75
100
AcDbArc
 50
180.0
 51
0.0
  0
LINE
  5
133
330
1F
100
AcDbEntity
  8
0
  6
HIDDEN
 62
     7
370
     0
100
AcDbLine
 10
195.1586292856
 20
109.5119520282
 30
0.0
 11
195.1586292856
 21
120.0119520282
 31
0.0
  0
LINE
  5
134
330
1F
100
AcDbEntity
  8
0
  6
HIDDEN
 62
     7
370
     0
100
AcDbLine
 10
193.6586292856
 20
120.0119520282
 30
0.0
 11
193.6586292856
 21
109.5119520282
 31
0.0
  0
LINE
  5
135
330
1F
100
AcDbEntity
  8
0
  6
HIDDEN
 62
     7
370
     0
100
AcDbLine
 10
152.1586292856
 20
75.3572690716
 30
0.0
 11
152.2482309095
 21
75.9948177535
 31
0.0
  0
LINE
  5
136
330
1F
100
AcDbEntity
  8
0
  6
HIDDEN
 62
     7
370
     0
100
AcDbLine
 10
152.2482309095
 20
153.5290863028
 30
0.0
 11
152.1586292856
 21
154.1666349848
 31
0.0
  0
ARC
  5
137
330
1F
100
AcDbEntity
  8
0
  6
HIDDEN
 62
     7
370
     0
100
AcDbCircle
 10
151.2616923671
 20
76.1334667037
 30
0.0
 40
0.9962338214386983
100
AcDbArc
 50
352.0
 51
0.0
  0
ARC
  5
138
330
1F
100
AcDbEntity
  8
0
  6
HIDDEN
 62
     7
370
     0
100
AcDbCircle
 10
151.2616923671
 20
76.1334667037
 30
0.0
 40
0.9962338214386932
100
AcDbArc
 50
0.0
 51
25.7988228126
  0
ARC
  5
139
330
1F
100
AcDbEntity
  8
0
  6
HIDDEN
 62
     7
370
     0
100
AcDbCircle
 10
151.2616923671
 20
153.3904373526
 30
0.0
 40
0.9962338214387042
100
AcDbArc
 50
348.75
 51
8.0
  0
LWPOLYLINE
  5
13A
330
1F
100
AcDbEntity
  8
0
  6
HIDDEN
 62
     7
370
     0
100
AcDbPolyline
 90
        3
 70
   128
 43
0.0
 10
152.238783835
 20
153.1960817756
 10
152.1820924043
 20
153.0091951744
 10
152.1586292856
 20
152.9568638395
  0
LINE
  5
13B
330
1F
100
AcDbEntity
  8
0
  6
HIDDEN
 62
     7
370
     0
100
AcDbLine
 10
152.2579261886
 20
76.1334667037
 30
0.0
 11
152.2579261886
 21
153.3904373526
 31
0.0
  0
LINE
  5
13C
330
1F
100
AcDbEntity
  8
0
  6
HIDDEN
 62
     7
370
     0
100
AcDbLine
 10
125.6193552277
 20
83.2619520282
 30
0.0
 11
131.1637996595
 21
83.2619520282
 31
0.0
  0
LINE
  5
13D
330
1F
100
AcDbEntity
  8
0
  6
HIDDEN
 62
     7
370
     0
100
AcDbLine
 10
131.1775463999
 20
146.2619520282
 30
0.0
 11
125.6193552277
 21
146.2619520282
 31
0.0
  0
ARC
  5
13E
330
1F
100
AcDbEntity
  8
0
  6
HIDDEN
 62
     7
370
     0
100
AcDbCircle
 10
142.4118349408
 20
95.2619520282
 30
0.0
 40
12.0
100
AcDbArc
 50
273.4748925119
 51
324.3146652873
  0
ARC
  5
13F
330
1F
100
AcDbEntity
  8
0
  6
HIDDEN
 62
     7
370
     0
100
AcDbCircle
 10
142.4118349408
 20
134.2619520282
 30
0.0
 40
12.0
100
AcDbArc
 50
35.6853347127
 51
86.4409956228
  0
ARC
  5
140
330
1F
100
AcDbEntity
  8
0
  6
HIDDEN
 62
     7
370
     0
100
AcDbCircle
 10
125.6193552277
 20
84.2619520282
 30
0.0
 40
1.000000000000014
100
AcDbArc
 50
210.0
 51
270.0
  0
ARC
  5
141
330
1F
100
AcDbEntity
  8
0
  6
HIDDEN
 62
     7
370
     0
100
AcDbCircle
 10
125.6193552277
 20
145.2619520282
 30
0.0
 40
1.0
100
AcDbArc
 50
90.0
 51
150.0
  0
LINE
  5
142
330
1F
100
AcDbEntity
  8
0
  6
HIDDEN
 62
     7
370
     0
100
AcDbLine
 10
124.7533298239
 20
145.7619520282
 30
0.0
 11
122.1552536126
 21
141.2619520282
 31
0.0
  0
LINE
  5
143
330
1F
100
AcDbEntity
  8
0
  6
HIDDEN
 62
     7
370
     0
100
AcDbLine
 10
122.1552536126
 20
88.2619520282
 30
0.0
 11
124.7533298239
 21
83.7619520282
 31
0.0
  0
ARC
  5
144
330
1F
100
AcDbEntity
  8
0
  6
HIDDEN
 62
     7
370
     0
100
AcDbCircle
 10
162.6086292856
 20
89.8869520282
 30
0.0
 40
2.000000000000015
100
AcDbArc
 50
234.3409123039
 51
0.0
  0
ARC
  5
145
330
1F
100
AcDbEntity
  8
0
  6
HIDDEN
 62
     7
370
     0
100
AcDbCircle
 10
162.6086292856
 20
139.6369520282
 30
0.0
 40
2.000000000000003
100
AcDbArc
 50
0.0
 51
125.6590876961
  0
LINE
  5
146
330
1F
100
AcDbEntity
  8
0
  6
HIDDEN
 62
     7
370
     0
100
AcDbLine
 10
117.3586292856
 20
88.2619520282
 30
0.0
 11
122.1552536126
 21
88.2619520282
 31
0.0
  0
LINE
  5
147
330
1F
100
AcDbEntity
  8
0
  6
HIDDEN
 62
     7
370
     0
100
AcDbLine
 10
122.1552536126
 20
141.2619520282
 30
0.0
 11
112.3586292856
 21
141.2619520282
 31
0.0
  0
LINE
  5
148
330
1F
100
AcDbEntity
  8
0
  6
HIDDEN
 62
     7
370
     0
100
AcDbLine
 10
152.1586292856
 20
88.2619520282
 30
0.0
 11
161.4427069039
 21
88.2619520282
 31
0.0
  0
LINE
  5
149
330
1F
100
AcDbEntity
  8
0
  6
HIDDEN
 62
     7
370
     0
100
AcDbLine
 10
161.4427069039
 20
141.2619520282
 30
0.0
 11
152.1586292856
 21
141.2619520282
 31
0.0
  0
LINE
  5
14A
330
1F
100
AcDbEntity
  8
0
  6
HIDDEN
 62
     7
370
     0
100
AcDbLine
 10
176.4586292856
 20
101.7619520282
 30
0.0
 11
180.4586292856
 21
101.7619520282
 31
0.0
  0
LINE
  5
14B
330
1F
100
AcDbEntity
  8
0
  6
HIDDEN
 62
     7
370
     0
100
AcDbLine
 10
180.4586292856
 20
127.7619520282
 30
0.0
 11
176.4586292856
 21
127.7619520282
 31
0.0
  0
LINE
  5
14C
330
1F
100
AcDbEntity
  8
0
  6
HIDDEN
 62
     7
370
     0
100
AcDbLine
 10
164.6086292856
 20
102.7619520282
 30
0.0
 11
165.3586292856
 21
103.5119520282
 31
0.0
  0
LINE
  5
14D
330
1F
100
AcDbEntity
  8
0
  6
HIDDEN
 62
     7
370
     0
100
AcDbLine
 10
165.3586292856
 20
126.0119520282
 30
0.0
 11
164.6086292856
 21
126.7619520282
 31
0.0
  0
LINE
  5
14E
330
1F
100
AcDbEntity
  8
0
  6
HIDDEN
 62
     7
370
     0
100
AcDbLine
 10
165.3586292856
 20
103.5119520282
 30
0.0
 11
176.4586292856
 21
103.5119520282
 31
0.0
  0
LINE
  5
14F
330
1F
100
AcDbEntity
  8
0
  6
HIDDEN
 62
     7
370
     0
100
AcDbLine
 10
176.4586292856
 20
126.0119520282
 30
0.0
 11
165.3586292856
 21
126.0119520282
 31
0.0
  0
LINE
  5
150
330
1F
100
AcDbEntity
  8
0
  6
HIDDEN
 62
     7
370
     0
100
AcDbLine
 10
157.1086292856
 20
164.7619520282
 30
0.0
 11
157.1086292856
 21
158.6619520282
 31
0.0
  0
LINE
  5
151
330
1F
100
AcDbEntity
  8
0
  6
HIDDEN
 62
     7
370
     0
100
AcDbLine
 10
143.5913419016
 20
77.1836724576
 30
0.0
 11
143.1586326151
 21
77.661897175
 31
0.0
  0
LINE
  5
152
330
1F
100
AcDbEntity
  8
0
  6
HIDDEN
 62
     7
370
     0
100
AcDbLine
 10
131.1586297436
 20
78.3088585316
 30
0.0
 11
130.6780024384
 21
77.8306338208
 31
0.0
  0
LINE
  5
153
330
1F
100
AcDbEntity
  8
0
  6
HIDDEN
 62
     7
370
     0
100
AcDbLine
 10
130.6778840969
 20
151.6932643194
 30
0.0
 11
131.1586295609
 21
151.2149846476
 31
0.0
  0
LINE
  5
154
330
1F
100
AcDbEntity
  8
0
  6
HIDDEN
 62
     7
370
     0
100
AcDbLine
 10
143.1586292877
 20
151.8619570349
 30
0.0
 11
143.5914509574
 21
152.3402367078
 31
0.0
  0
LINE
  5
155
330
1F
100
AcDbEntity
  8
0
  6
HIDDEN
 62
     7
370
     0
100
AcDbLine
 10
143.1586292856
 20
77.5617683326
 30
0.0
 11
143.1586292856
 21
83.2878871342
 31
0.0
  0
LINE
  5
156
330
1F
100
AcDbEntity
  8
0
  6
HIDDEN
 62
     7
370
     0
100
AcDbLine
 10
131.1586292856
 20
83.2629362275
 30
0.0
 11
131.1586292856
 21
78.3088969461
 31
0.0
  0
LINE
  5
157
330
1F
100
AcDbEntity
  8
0
  6
HIDDEN
 62
     7
370
     0
100
AcDbLine
 10
143.1586292856
 20
146.2382779309
 30
0.0
 11
143.1586292856
 21
151.961960861
 31
0.0
  0
LINE
  5
158
330
1F
100
AcDbEntity
  8
0
  6
HIDDEN
 62
     7
370
     0
100
AcDbLine
 10
131.1586292856
 20
151.2149741483
 30
0.0
 11
131.1586292856
 21
146.2583612049
 31
0.0
  0
ARC
  5
159
330
1F
100
AcDbEntity
  8
0
  6
HIDDEN
 62
     7
370
     0
100
AcDbCircle
 10
195.0533072875
 20
119.9619520282
 30
0.0
 40
0.7999999999999982
100
AcDbArc
 50
75.0
 51
90.0
  0
ARC
  5
15A
330
1F
100
AcDbEntity
  8
0
  6
HIDDEN
 62
     7
370
     0
100
AcDbCircle
 10
195.0533072875
 20
109.5619520282
 30
0.0
 40
0.7999999999999982
100
AcDbArc
 50
270.0
 51
285.0
  0
LINE
  5
15B
330
1F
100
AcDbEntity
  8
0
  6
HIDDEN
 62
     7
370
     0
100
AcDbLine
 10
195.0533072875
 20
120.7619520282
 30
0.0
 11
194.4586292856
 21
120.7619520282
 31
0.0
  0
LINE
  5
15C
330
1F
100
AcDbEntity
  8
0
  6
HIDDEN
 62
     7
370
     0
100
AcDbLine
 10
194.4586292856
 20
108.7619520282
 30
0.0
 11
195.0533072875
 21
108.7619520282
 31
0.0
  0
ARC
  5
15D
330
1F
100
AcDbEntity
  8
0
  6
HIDDEN
 62
     7
370
     0
100
AcDbCircle
 10
194.4586292856
 20
119.9619520282
 30
0.0
 40
0.8000000000000114
100
AcDbArc
 50
90.0
 51
180.0
  0
ARC
  5
15E
330
1F
100
AcDbEntity
  8
0
  6
HIDDEN
 62
     7
370
     0
100
AcDbCircle
 10
194.4586292856
 20
109.5619520282
 30
0.0
 40
0.8000000000000114
100
AcDbArc
 50
180.0
 51
270.0
  0
LINE
  5
15F
330
1F
100
AcDbEntity
  8
0
  6
HIDDEN
 62
     7
370
     0
100
AcDbLine
 10
195.2603625236
 20
108.7892113671
 30
0.0
 11
197.0246546893
 21
109.2619520282
 31
0.0
  0
LINE
  5
160
330
1F
100
AcDbEntity
  8
0
  6
HIDDEN
 62
     7
370
     0
100
AcDbLine
 10
197.0246546893
 20
120.2619520282
 30
0.0
 11
195.2603625236
 21
120.7346926892
 31
0.0
  0
LINE
  5
161
330
1F
100
AcDbEntity
  8
0
  6
HIDDEN
 62
     7
370
     0
100
AcDbLine
 10
201.2586292856
 20
120.2619520282
 30
0.0
 11
197.0246546893
 21
120.2619520282
 31
0.0
  0
LINE
  5
162
330
1F
100
AcDbEntity
  8
0
  6
HIDDEN
 62
     7
370
     0
100
AcDbLine
 10
197.0246546893
 20
109.2619520282
 30
0.0
 11
201.2586292856
 21
109.2619520282
 31
0.0
  0
LINE
  5
163
330
1F
100
AcDbEntity
  8
0
  6
HIDDEN
 62
     7
370
     0
100
AcDbLine
 10
207.1586292856
 20
123.2342547603
 30
0.0
 11
206.7305483647
 21
122.8062818407
 31
0.0
  0
LINE
  5
164
330
1F
100
AcDbEntity
  8
0
  6
HIDDEN
 62
     7
370
     0
100
AcDbLine
 10
206.7305495649
 20
106.7176118718
 30
0.0
 11
207.1586292856
 21
106.2896438731
 31
0.0
  0
LINE
  5
165
330
1F
100
AcDbEntity
  8
0
  6
HIDDEN
 62
     7
370
     0
100
AcDbLine
 10
180.4586292856
 20
112.6619520282
 30
0.0
 11
193.6586292856
 21
112.6619520282
 31
0.0
  0
LINE
  5
166
330
1F
100
AcDbEntity
  8
0
  6
HIDDEN
 62
     7
370
     0
100
AcDbLine
 10
193.6586292856
 20
116.8619520282
 30
0.0
 11
180.4586292856
 21
116.8619520282
 31
0.0
  0
LINE
  5
167
330
1F
100
AcDbEntity
  8
0
  6
HIDDEN
 62
     7
370
     0
100
AcDbLine
 10
201.2586292856
 20
106.7119520282
 30
0.0
 11
206.7368877421
 21
106.7119520282
 31
0.0
  0
LINE
  5
168
330
1F
100
AcDbEntity
  8
0
  6
HIDDEN
 62
     7
370
     0
100
AcDbLine
 10
206.7363873605
 20
122.8119520282
 30
0.0
 11
201.2586292856
 21
122.8119520282
 31
0.0
  0
POINT
  5
169
330
1F
100
AcDbEntity
  8
VERMASSUNG
100
AcDbPoint
 10
207.1586292856
 20
124.7619520282
 30
0.0
  0
POINT
  5
16A
330
1F
100
AcDbEntity
  8
VERMASSUNG
100
AcDbPoint
 10
207.1586292856
 20
104.7619520282
 30
0.0
  0
DIMENSION
  5
16B
330
1F
100
AcDbEntity
  8
VERMASSUNG
100
AcDbDimension
  2
_D
 10
221.4923343163
 20
104.7619520282
 30
0.0
 11
221.4923343163
 21
114.7619520282
 31
0.0
 70
   160
  1
ST1 %%c<>
 71
     2
 42
-1.0
  3
SLDDIMSTYLE0
100
AcDbAlignedDimension
 13
207.1586292856
 23
124.7619520282
 33
0.0
 14
207.1586292856
 24
104.7619520282
 34
0.0
 50
90.0
100
AcDbRotatedDimension
  0
DIMENSION
  5
178
330
1F
100
AcDbEntity
  8
VERMASSUNG
100
AcDbDimension
  2
_D_1
 10
86.0081599246
 20
64.7619520282
 30
0.0
 11
86.0081599246
 21
114.7619520282
 31
0.0
 70
   160
  1
HSK A 100 %%c<>
 71
     2
 42
-1.0
  3
SLDDIMSTYLE0
100
AcDbAlignedDimension
 13
152.6586292856
 23
164.7619520282
 33
0.0
 14
152.6586292856
 24
64.7619520282
 34
0.0
 50
90.0
100
AcDbRotatedDimension
  0
DIMENSION
  5
184
330
1F
100
AcDbEntity
  8
VERMASSUNG
100
AcDbDimension
  2
_D_2
 10
214.0697295336
 20
109.2619520282
 30
0.0
 11
214.0697295336
 21
114.7619520282
 31
0.0
 70
   160
  1
%%c<>
 71
     2
 42
-1.0
  3
SLDDIMSTYLE0
100
AcDbAlignedDimension
 13
201.2586292856
 23
120.2619520282
 33
0.0
 14
201.2586292856
 24
109.2619520282
 34
0.0
 50
90.0
100
AcDbRotatedDimension
  0
DIMENSION
  5
18F
330
1F
100
AcDbEntity
  8
VERMASSUNG
100
AcDbDimension
  2
_D_3
 10
207.1586292856
 20
167.0224798726
 30
0.0
 11
194.1336292856
 21
167.0224798726
 31
0.0
 70
   160
  1
(<>)
 71
     2
 42
-1.0
  3
SLDDIMSTYLE0
100
AcDbAlignedDimension
 13
181.1086292856
 23
162.730691849
 33
0.0
 14
207.1586292856
 24
124.5734839556
 34
0.0
100
AcDbRotatedDimension
  0
DIMENSION
  5
19B
330
1F
100
AcDbEntity
  8
VERMASSUNG
100
AcDbDimension
  2
_D_4
 10
207.1586292856
 20
173.0224798726
 30
0.0
 11
179.6586292856
 21
173.0224798726
 31
0.0
 70
   160
  1
<>
 71
     2
 42
-1.0
  3
SLDDIMSTYLE0
100
AcDbAlignedDimension
 13
152.1586292856
 23
164.2619520282
 33
0.0
 14
207.1586292856
 24
124.5734839556
 34
0.0
100
AcDbRotatedDimension
  0
DIMENSION
  5
1A5
330
1F
100
AcDbEntity
  8
VERMASSUNG
100
AcDbDimension
  2
_D_5
 10
207.1586292856
 20
179.0224798726
 30
0.0
 11
154.7086292856
 21
179.0224798726
 31
0.0
 70
   160
  1
(<>)
 71
     2
 42
-1.0
  3
SLDDIMSTYLE0
100
AcDbAlignedDimension
 13
102.2586292856
 23
145.2646217707
 33
0.0
 14
207.1586292856
 24
124.5734839556
 34
0.0
100
AcDbRotatedDimension
  0
DIMENSION
  5
1B1
330
1F
100
AcDbEntity
  8
VERMASSUNG
100
AcDbDimension
  2
_D_6
 10
185.8208091508
 20
125.992282996
 30
0.0
 11
189.9544322715
 21
120.2533854434
 31
0.0
 70
   162
  1
<>
 71
     1
 42
-1.0
  3
SLDDIMSTYLE1
100
AcDb2LineAngularDimension
 13
208.606164245
 23
114.7619520282
 33
0.0
 14
100.5701047926
 24
114.7619520282
 34
0.0
 15
206.9586292856
 25
124.7734839556
 35
0.0
 16
189.9544322715
 26
120.2533854434
 36
0.0
  0
DIMENSION
  5
1BA
330
1F
100
AcDbEntity
  8
VERMASSUNG
100
AcDbDimension
  2
_D_7
 10
186.1086292856
 20
130.9839920791
 30
0.0
 11
188.6421541627
 21
135.8082350472
 31
0.0
 70
   164
  1
<>
 71
     1
 42
-1.0
  3
SLDDIMSTYLE2
100
AcDbRadialDimension
 15
183.7838896918
 25
126.5573019136
 35
0.0
 40
0.0
  0
LINE
  5
1C2
330
1F
100
AcDbEntity
  8
VERMASSUNG
  6
CENTERX2
370
     0
100
AcDbLine
 10
100.5701047926
 20
114.7619520282
 30
0.0
 11
208.606164245
 21
114.7619520282
 31
0.0
  0
LINE
  5
1C3
330
1F
100
AcDbEntity
  8
0
  6
Continuous
 62
     7
370
    15
100
AcDbLine
 10
231.4899759063
 20
26.1396038729
 30
0.0
 11
237.2309656023
 21
22.8254010662
 31
0.0
  0
LINE
  5
1C4
330
1F
100
AcDbEntity
  8
0
  6
Continuous
 62
     7
370
    15
100
AcDbLine
 10
258.6743380309
 20
68.1798687124
 30
0.0
 11
256.4879442222
 21
69.442046992
 31
0.0
  0
SPLINE
  5
1C5
330
1F
100
AcDbEntity
  8
0
  6
Continuous
 62
     7
370
    15
100
AcDbSpline
210
0.0
220
0.0
230
1.0
 70
     8
 71
     3
 72
    34
 73
    30
 74
     0
 42
0.000000001
 43
0.00000001
 40
0.0
 40
0.0
 40
0.0
 40
0.0
 40
0.0155814617465076
 40
0.0542429861518091
 40
0.0929322885996712
 40
0.1316372808360205
 40
0.17034897680582
 40
0.2090601372984004
 40
0.2477672030912007
 40
0.2864685190174103
 40
0.3251634769084815
 40
0.36385215997662
 40
0.4025350917780532
 40
0.4412130666727744
 40
0.479887039666069
 40
0.5185580576313703
 40
0.5572272183765682
 40
0.5958956477392823
 40
0.6345644808741288
 40
0.6732344940597099
 40
0.7119068451317565
 40
0.7505826918070687
 40
0.7892631788460998
 40
0.8279494137795739
 40
0.8666424235414809
 40
0.9053430815574781
 40
0.9440519907984903
 40
0.9827693034252446
 40
1.0
 40
1.0
 40
1.0
 40
1.0
 10
248.770506079452
 20
70.23602946157223
 30
0.0
 10
248.6070659257098
 20
70.19928746823601
 30
0.0
 10
248.0380896550417
 20
70.07137935100344
 30
0.0
 10
247.0403760981572
 20
69.7324025140133
 30
0.0
 10
245.7852880516746
 20
69.22375401880012
 30
0.0
 10
244.5198436473897
 20
68.5985051836718
 30
0.0
 10
243.252418634167
 20
67.86901498948644
 30
0.0
 10
241.9890118560856
 20
67.03672674141161
 30
0.0
 10
240.7361737230669
 20
66.10665829544065
 30
0.0
 10
239.5001856372
 20
65.08346502210065
 30
0.0
 10
238.2872697456414
 20
63.97246718619969
 30
0.0
 10
237.1035139350211
 20
62.77934891398344
 30
0.0
 10
235.9548624528688
 20
61.51020772384244
 30
0.0
 10
234.8470856468169
 20
60.1715070124558
 30
0.0
 10
233.7857540937258
 20
58.77005161328701
 30
0.0
 10
232.7762112688296
 20
57.31295415867746
 30
0.0
 10
231.8235471064776
 20
55.80760105655484
 30
0.0
 10
230.93257247997
 20
54.26161609791096
 30
0.0
 10
230.107797691273
 20
52.68282751323169
 30
0.0
 10
229.3534060408258
 20
51.07922371200821
 30
0.0
 10
228.6732338411643
 20
49.45891290557979
 30
0.0
 10
228.0707472274617
 20
47.83007471479022
 30
0.0
 10
227.549040286564
 20
46.20093094633789
 30
0.0
 10
227.1107780781408
 20
44.57967854750383
 30
0.0
 10
226.7583470259578
 20
42.97454619736168
 30
0.0
 10
226.4932430416298
 20
41.3933934528167
 30
0.0
 10
226.3183168383769
 20
39.84502481314463
 30
0.0
 10
226.2458244128149
 20
38.6137151608277
 30
0.0
 10
226.2398937402383
 20
37.90579739476185
 30
0.0
 10
226.2380672298565
 20
37.68777504864001
 30
0.0
  0
SPLINE
  5
1C6
330
1F
100
AcDbEntity
  8
0
  6
Continuous
 62
     7
370
    15
100
AcDbSpline
210
0.0
220
0.0
230
1.0
 70
     8
 71
     3
 72
    12
 73
     8
 74
     0
 42
0.000000001
 43
0.00000001
 40
0.0
 40
0.0
 40
0.0
 40
0.0
 40
0.128025977036001
 40
0.3712393122933431
 40
0.6145140545373704
 40
0.8577587979508002
 40
1.0
 40
1.0
 40
1.0
 40
1.0
 10
226.2380672298565
 20
37.68777504864001
 30
0.0
 10
226.2406171573975
 20
37.43250747641162
 30
0.0
 10
226.2480112298244
 20
36.69230333847941
 30
0.0
 10
226.328805968522
 20
35.50750449636294
 30
0.0
 10
226.5147605683975
 20
34.16373971795178
 30
0.0
 10
226.7406772705442
 20
33.05429302733159
 30
0.0
 10
226.9393885284407
 20
32.42623055543526
 30
0.0
 10
227.0127113785124
 20
32.1944805733255
 30
0.0
  0
LINE
  5
1C7
330
1F
100
AcDbEntity
  8
0
  6
Continuous
 62
     7
370
    15
100
AcDbLine
 10
253.0230293462
 20
36.0973013314
 30
0.0
 11
260.7883738512
 21
32.3175330752
 31
0.0
  0
LINE
  5
1C8
330
1F
100
AcDbEntity
  8
0
  6
Continuous
 62
     7
370
    15
100
AcDbLine
 10
265.7895703559
 20
40.9807982029
 30
0.0
 11
258.6330690874
 21
45.8152281533
 31
0.0
  0
LINE
  5
1C9
330
1F
100
AcDbEntity
  8
0
  6
Continuous
 62
     7
370
    15
100
AcDbLine
 10
263.1874844598
 20
32.62100527
 30
0.0
 11
263.2581836454
 21
32.6618323101
 31
0.0
  0
LINE
  5
1CA
330
1F
100
AcDbEntity
  8
0
  6
Continuous
 62
     7
370
    15
100
AcDbLine
 10
266.7265202314
 20
38.6698184726
 30
0.0
 11
266.7265202314
 21
38.7514592838
 31
0.0
  0
LINE
  5
1CB
330
1F
100
AcDbEntity
  8
0
  6
Continuous
 62
     7
370
    15
100
AcDbLine
 10
244.6855014169
 20
68.6629667253
 30
0.0
 11
235.4205873589
 21
73.2790024424
 31
0.0
  0
LINE
  5
1CC
330
1F
100
AcDbEntity
  8
0
  6
Continuous
 62
     7
370
    15
100
AcDbLine
 10
217.6318646036
 20
42.4646920336
 30
0.0
 11
226.2622211472
 21
36.7500283807
 31
0.0
  0
SPLINE
  5
1CD
330
1F
100
AcDbEntity
  8
0
  6
Continuous
 62
     7
370
    15
100
AcDbSpline
210
0.0
220
0.0
230
1.0
 70
     8
 71
     3
 72
    35
 73
    31
 74
     0
 42
0.000000001
 43
0.00000001
 40
0.0
 40
0.0
 40
0.0
 40
0.0
 40
0.0159013726699839
 40
0.0522360171494666
 40
0.0887051702815618
 40
0.1253068697841662
 40
0.1620223540478536
 40
0.198824714893761
 40
0.2356862416773089
 40
0.2725829332760988
 40
0.3094963061695777
 40
0.3464118756790325
 40
0.383320948124617
 40
0.420219713404258
 40
0.4571065800543707
 40
0.4939814369203019
 40
0.5308451232588508
 40
0.5676990670152022
 40
0.6045450479022565
 40
0.6413850483416327
 40
0.6782211639126802
 40
0.7150555525931542
 40
0.7518904078427913
 40
0.788727307622733
 40
0.8255683814263676
 40
0.8624158596299701
 40
0.8992719513372308
 40
0.936138799984579
 40
0.9730184033916904
 40
1.0
 40
1.0
 40
1.0
 40
1.0
 10
244.1066278613559
 20
19.49784978293449
 30
0.0
 10
244.2621157750504
 20
19.46627608573256
 30
0.0
 10
244.7728936490646
 20
19.36255647468134
 30
0.0
 10
245.6873995926815
 20
19.31009735020944
 30
0.0
 10
246.8424514606862
 20
19.33701373189831
 30
0.0
 10
248.0356817707046
 20
19.4877493815332
 30
0.0
 10
249.2575377821715
 20
19.75318366250793
 30
0.0
 10
250.5024534850987
 20
20.13443969147432
 30
0.0
 10
251.763496396476
 20
20.62889617511711
 30
0.0
 10
253.0340048953548
 20
21.23400846565806
 30
0.0
 10
254.3072665508974
 20
21.94636962574284
 30
0.0
 10
255.5766873802608
 20
22.76206077233787
 30
0.0
 10
256.8357983808004
 20
23.6766484130522
 30
0.0
 10
258.0782834171822
 20
24.68526555005759
 30
0.0
 10
259.2979650991297
 20
25.78263224731137
 30
0.0
 10
260.4887966617453
 20
26.96306691092487
 30
0.0
 10
261.6448781244145
 20
28.22050779348125
 30
0.0
 10
262.7604769570286
 20
29.54853659841637
 30
0.0
 10
263.8300516339058
 20
30.94040462880491
 30
0.0
 10
264.8482765302522
 20
32.38906187354853
 30
0.0
 10
265.8100679798864
 20
33.88718919760274
 30
0.0
 10
266.7106070524972
 20
35.42723220941475
 30
0.0
 10
267.5453668842158
 20
37.00143155994392
 30
0.0
 10
268.3101099113579
 20
38.60185855320056
 30
0.0
 10
269.0010246825553
 20
40.22049350079998
 30
0.0
 10
269.6143160747087
 20
41.84913971178222
 30
0.0
 10
270.1478233601271
 20
43.4799662752657
 30
0.0
 10
270.5950302427315
 20
45.10364375393183
 30
0.0
 10
270.9341132389966
 20
46.57199038397771
 30
0.0
 10
271.0846826334551
 20
47.48494029185332
 30
0.0
 10
271.1482987675374
 20
47.87066505324123
 30
0.0
  0
LINE
  5
1CE
330
1F
100
AcDbEntity
  8
0
  6
Continuous
 62
     7
370
    15
100
AcDbLine
 10
239.5375684434
 20
21.4938275894
 30
0.0
 11
241.1950164781
 21
20.5370032055
 31
0.0
  0
SPLINE
  5
1CF
330
1F
100
AcDbEntity
  8
0
  6
Continuous
 62
     7
370
    15
100
AcDbSpline
210
0.0
220
0.0
230
1.0
 70
     8
 71
     3
 72
    17
 73
    13
 74
     0
 42
0.000000001
 43
0.00000001
 40
0.0
 40
0.0
 40
0.0
 40
0.0
 40
0.0194821348329202
 40
0.1352249040327442
 40
0.2512400952136135
 40
0.367118073889114
 40
0.4824885524639665
 40
0.5970728891130456
 40
0.7107748740207865
 40
0.8241223727230956
 40
0.9385697949371243
 40
1.0
 40
1.0
 40
1.0
 40
1.0
 10
261.4539007047246
 20
36.83317740023973
 30
0.0
 10
261.464897676751
 20
36.86334036217956
 30
0.0
 10
261.5412273243825
 20
37.072700561595
 30
0.0
 10
261.7338534729696
 20
37.45886971418022
 30
0.0
 10
262.051282618733
 20
37.9605976262058
 30
0.0
 10
262.4199525559291
 20
38.40656131703747
 30
0.0
 10
262.8166663553813
 20
38.77546075532076
 30
0.0
 10
263.2208078825194
 20
39.05047038959468
 30
0.0
 10
263.6103098015847
 20
39.22311312144279
 30
0.0
 10
263.9596674406208
 20
39.28594640063628
 30
0.0
 10
264.2142770922297
 20
39.27065213843667
 30
0.0
 10
264.3308848368809
 20
39.20526949563868
 30
0.0
 10
264.3716133694223
 20
39.18243276980368
 30
0.0
  0
SPLINE
  5
1D0
330
1F
100
AcDbEntity
  8
0
  6
Continuous
 62
     7
370
    15
100
AcDbSpline
210
0.0
220
0.0
230
1.0
 70
     8
 71
     3
 72
    10
 73
     6
 74
     0
 42
0.000000001
 43
0.00000001
 40
0.0
 40
0.0
 40
0.0
 40
0.0
 40
0.2849111826088557
 40
0.8474412610766415
 40
1.0
 40
1.0
 40
1.0
 40
1.0
 10
261.7193516452734
 20
34.39702541887881
 30
0.0
 10
261.6777895231084
 20
34.4145042395104
 30
0.0
 10
261.5541669369467
 20
34.46649333190943
 30
0.0
 10
261.4449258168754
 20
34.59558411123064
 30
0.0
 10
261.3774721239496
 20
34.71130120565533
 30
0.0
 10
261.3630813936261
 20
34.73598856415957
 30
0.0
  0
SPLINE
  5
1D1
330
1F
100
AcDbEntity
  8
0
  6
Continuous
 62
     7
370
    15
100
AcDbSpline
210
0.0
220
0.0
230
1.0
 70
     8
 71
     3
 72
    15
 73
    11
 74
     0
 42
0.000000001
 43
0.00000001
 40
0.0
 40
0.0
 40
0.0
 40
0.0
 40
0.0788702360290579
 40
0.2281862895843012
 40
0.3773844671674468
 40
0.5262817371084011
 40
0.6747541018846139
 40
0.8226949190963153
 40
0.9700514126122559
 40
1.0
 40
1.0
 40
1.0
 40
1.0
 10
271.1691600150526
 20
56.03111638590701
 30
0.0
 10
271.1221872302231
 20
56.25870272334738
 30
0.0
 10
270.9862862107597
 20
56.91715240620956
 30
0.0
 10
270.6921918455835
 20
57.95125150787734
 30
0.0
 10
270.2590162216484
 20
59.10202720479715
 30
0.0
 10
269.7378207107179
 20
60.16500963694676
 30
0.0
 10
269.1340618228441
 20
61.13635367953191
 30
0.0
 10
268.4478670471981
 20
62.00560259518215
 30
0.0
 10
267.894292072843
 20
62.57934533782934
 30
0.0
 10
267.5663920572333
 20
62.85456475802705
 30
0.0
 10
267.5110064911689
 20
62.90105204882879
 30
0.0
  0
SPLINE
  5
1D2
330
1F
100
AcDbEntity
  8
0
  6
Continuous
 62
     7
370
    15
100
AcDbSpline
210
0.0
220
0.0
230
1.0
 70
     8
 71
     3
 72
    29
 73
    25
 74
     0
 42
0.000000001
 43
0.00000001
 40
0.0
 40
0.0
 40
0.0
 40
0.0
 40
0.0280835594842309
 40
0.0727873344939197
 40
0.1176797610143923
 40
0.1629543185515121
 40
0.2087134454861373
 40
0.2549599764062231
 40
0.3016183403582292
 40
0.3485734227384922
 40
0.3957082979392845
 40
0.4429276523689099
 40
0.490157363355392
 40
0.5373571791227558
 40
0.5845121994445167
 40
0.631618874537288
 40
0.6786805364219894
 40
0.7257044609770262
 40
0.772700074775753
 40
0.819677928620204
 40
0.8666491494955139
 40
0.913624979164103
 40
0.9606133749349813
 40
1.0
 40
1.0
 40
1.0
 40
1.0
 10
235.392542480256
 20
73.27635217726828
 30
0.0
 10
235.2207664594274
 20
73.36228597601172
 30
0.0
 10
234.7755551359444
 20
73.58501031253981
 30
0.0
 10
233.9932705350183
 20
73.81630702829553
 30
0.0
 10
233.0621276151696
 20
73.98223070480903
 30
0.0
 10
232.0859016699207
 20
74.02691821594675
 30
0.0
 10
231.0727893852859
 20
73.95551136929075
 30
0.0
 10
230.028082121103
 20
73.76580463548765
 30
0.0
 10
228.9594240995376
 20
73.4586871575648
 30
0.0
 10
227.8750917604548
 20
73.03590384595077
 30
0.0
 10
226.783815651303
 20
72.50081782186002
 30
0.0
 10
225.6942548724464
 20
71.85801498254935
 30
0.0
 10
224.6146986453
 20
71.11303576555584
 30
0.0
 10
223.5529440567241
 20
70.27207269479253
 30
0.0
 10
222.5162946391112
 20
69.3417527087526
 30
0.0
 10
221.511699294807
 20
68.32909515949696
 30
0.0
 10
220.5458416466197
 20
67.24152933549271
 30
0.0
 10
219.6251707119201
 20
66.08687333196079
 30
0.0
 10
218.7557985564959
 20
64.87331529831769
 30
0.0
 10
217.9438009647073
 20
63.60935429827489
 30
0.0
 10
217.1939611559472
 20
62.30384702145116
 30
0.0
 10
216.514318935909
 20
60.9656522342847
 30
0.0
 10
215.9323470249306
 20
59.67840589913689
 30
0.0
 10
215.6165397723789
 20
58.83588620330634
 30
0.0
 10
215.4725330708037
 20
58.4517009718768
 30
0.0
  0
LINE
  5
1D3
330
1F
100
AcDbEntity
  8
0
  6
Continuous
 62
     7
370
    15
100
AcDbLine
 10
215.8565751184
 20
56.1205139104
 30
0.0
 11
219.641253707
 21
53.9356654671
 31
0.0
  0
LINE
  5
1D4
330
1F
100
AcDbEntity
  8
0
  6
Continuous
 62
     7
370
    15
100
AcDbLine
 10
215.3511354262
 20
57.8877108492
 30
0.0
 11
215.3511354262
 21
57.2376552382
 31
0.0
  0
LINE
  5
1D5
330
1F
100
AcDbEntity
  8
0
  6
Continuous
 62
     7
370
    15
100
AcDbLine
 10
219.747058794
 20
42.004988363
 30
0.0
 11
219.7413076558
 21
42.0467069986
 31
0.0
  0
LINE
  5
1D6
330
1F
100
AcDbEntity
  8
0
  6
Continuous
 62
     7
370
    15
100
AcDbLine
 10
215.3511354262
 20
45.7294002014
 30
0.0
 11
215.3511354262
 21
45.0793625492
 31
0.0
  0
SPLINE
  5
1D7
330
1F
100
AcDbEntity
  8
0
  6
Continuous
 62
     7
370
    15
100
AcDbSpline
210
0.0
220
0.0
230
1.0
 70
     8
 71
     3
 72
    11
 73
     7
 74
     0
 42
0.000000001
 43
0.00000001
 40
0.0
 40
0.0
 40
0.0
 40
0.0
 40
0.2565550147448583
 40
0.555976524930917
 40
0.8519279337473655
 40
1.0
 40
1.0
 40
1.0
 40
1.0
 10
215.4763403023406
 20
44.75814493876715
 30
0.0
 10
215.6271770063569
 20
44.51861564217794
 30
0.0
 10
215.9540529655517
 20
43.99953529572959
 30
0.0
 10
216.5640738627875
 20
43.32093761595842
 30
0.0
 10
217.145127673397
 20
42.787459346443
 30
0.0
 10
217.5395366538342
 20
42.54046598722361
 30
0.0
 10
217.6710633769942
 20
42.45809913253287
 30
0.0
  0
SPLINE
  5
1D8
330
1F
100
AcDbEntity
  8
0
  6
Continuous
 62
     7
370
    15
100
AcDbSpline
210
0.0
220
0.0
230
1.0
 70
     8
 71
     3
 72
     9
 73
     5
 74
     0
 42
0.000000001
 43
0.00000001
 40
0.0
 40
0.0
 40
0.0
 40
0.0
 40
0.0059771832110667
 40
1.0
 40
1.0
 40
1.0
 40
1.0
 10
215.3928004733465
 20
44.8837616789038
 30
0.0
 10
215.3929458635476
 20
44.88349095508391
 30
0.0
 10
215.4172700637588
 20
44.83819807876729
 30
0.0
 10
215.4468937160483
 20
44.79805152711998
 30
0.0
 10
215.4763403023406
 20
44.75814493876715
 30
0.0
  0
LWPOLYLINE
  5
1D9
330
1F
100
AcDbEntity
  8
0
  6
Continuous
 62
     7
370
    15
100
AcDbPolyline
 90
       10
 70
   128
 43
0.0
 10
260.6809598758
 20
41.7969521626
 10
260.8841715602
 20
41.9553274215
 10
261.176901473
 20
42.0567538727
 10
261.5145841384
 20
42.0857902585
 10
261.8458104318
 20
42.0380160522
 10
262.1201541527
 20
41.9207044439
 10
262.2958489563
 20
41.7517150623
 10
262.3461469016
 20
41.5567750089
 10
262.2633905823
 20
41.3655621398
 10
262.1776779557
 20
41.2824635475
  0
ARC
  5
1DA
330
1F
100
AcDbEntity
  8
0
  6
Continuous
 62
     7
370
    15
100
AcDbCircle
 10
260.9405695347
 20
41.5780563756
 30
0.0
 40
0.3395770023982766
100
AcDbArc
 50
139.8633261529
 51
234.6547511533
  0
LWPOLYLINE
  5
1DB
330
1F
100
AcDbEntity
  8
0
  6
Continuous
 62
     7
370
    15
100
AcDbPolyline
 90
       17
 70
   128
 43
0.0
 10
260.9070214053
 20
41.7353250165
 10
261.0521726085
 20
41.8484502014
 10
261.2612654033
 20
41.9208976666
 10
261.5024673072
 20
41.9416379421
 10
261.7390575168
 20
41.9075135091
 10
261.9350173173
 20
41.8237195031
 10
262.0605136057
 20
41.703012802
 10
262.0964407094
 20
41.5637699067
 10
262.0373290528
 20
41.4271892859
 10
261.8921778497
 20
41.314064101
 10
261.6830850548
 20
41.2416166358
 10
261.441883151
 20
41.2208763603
 10
261.2052929414
 20
41.2550007933
 10
261.0093331408
 20
41.3387947993
 10
260.8838368525
 20
41.4595015004
 10
260.8479097487
 20
41.5987443957
 10
260.9070214053
 20
41.7353250165
  0
SPLINE
  5
1DC
330
1F
100
AcDbEntity
  8
0
  6
Continuous
 62
     7
370
    15
100
AcDbSpline
210
0.0
220
0.0
230
1.0
 70
     8
 71
     3
 72
    11
 73
     7
 74
     0
 42
0.000000001
 43
0.00000001
 40
0.0
 40
0.0
 40
0.0
 40
0.0
 40
0.120891387534045
 40
0.4766714197330129
 40
0.8143663490172318
 40
1.0
 40
1.0
 40
1.0
 40
1.0
 10
260.8967845215356
 20
41.51491213667565
 30
0.0
 10
260.9061147112269
 20
41.51783732359089
 30
0.0
 10
260.9429033928465
 20
41.52937125523245
 30
0.0
 10
261.0122835641815
 20
41.58091474049303
 30
0.0
 10
261.0883122371526
 20
41.70022398407311
 30
0.0
 10
261.1289167125628
 20
41.7859030216715
 30
0.0
 10
261.143319818567
 20
41.81629485036537
 30
0.0
  0
SPLINE
  5
1DD
330
1F
100
AcDbEntity
  8
0
  6
Continuous
 62
     7
370
    15
100
AcDbSpline
210
0.0
220
0.0
230
1.0
 70
     8
 71
     3
 72
    10
 73
     6
 74
     0
 42
0.000000001
 43
0.00000001
 40
0.0
 40
0.0
 40
0.0
 40
0.0
 40
0.1428059593664114
 40
0.6200098208678531
 40
0.9999999999999999
 40
0.9999999999999999
 40
0.9999999999999999
 40
0.9999999999999999
 10
261.1124658905543
 20
41.28636904384658
 30
0.0
 10
261.1023425766576
 20
41.28975488625312
 30
0.0
 10
261.0583909512242
 20
41.30445494186201
 30
0.0
 10
260.9806736792774
 20
41.39250256223193
 30
0.0
 10
260.9225503335855
 20
41.47731511969368
 30
0.0
 10
260.8967845215356
 20
41.51491213667565
 30
0.0
  0
SPLINE
  5
1DE
330
1F
100
AcDbEntity
  8
0
  6
Continuous
 62
     7
370
    15
100
AcDbSpline
210
0.0
220
0.0
230
1.0
 70
     8
 71
     3
 72
    10
 73
     6
 74
     0
 42
0.000000001
 43
0.00000001
 40
0.0
 40
0.0
 40
0.0
 40
0.0
 40
0.2303900511244087
 40
0.6495034586900715
 40
0.9999999999999999
 40
0.9999999999999999
 40
0.9999999999999999
 40
0.9999999999999999
 10
262.0475659365863
 20
41.56978626594685
 30
0.0
 10
262.0331833270765
 20
41.53954024175984
 30
0.0
 10
261.9926366343004
 20
41.45427224852312
 30
0.0
 10
261.9222900242698
 20
41.34020128753473
 30
0.0
 10
261.8709917035579
 20
41.30769761400287
 30
0.0
 10
261.8476293704556
 20
41.29289475812837
 30
0.0
  0
SPLINE
  5
1DF
330
1F
100
AcDbEntity
  8
0
  6
Continuous
 62
     7
370
    15
100
AcDbSpline
210
0.0
220
0.0
230
1.0
 70
     8
 71
     3
 72
    10
 73
     6
 74
     0
 42
0.000000001
 43
0.00000001
 40
0.0
 40
0.0
 40
0.0
 40
0.0
 40
0.4391051671061924
 40
0.7513578980692873
 40
1.0
 40
1.0
 40
1.0
 40
1.0
 10
261.7187105260924
 20
41.84373191500097
 30
0.0
 10
261.7657873886338
 20
41.77655385859762
 30
0.0
 10
261.8463411491827
 20
41.66160471420872
 30
0.0
 10
261.963442195139
 20
41.58532130234014
 30
0.0
 10
262.0217280742282
 20
41.57455771482859
 30
0.0
 10
262.0475659365863
 20
41.56978626594685
 30
0.0
  0
SPLINE
  5
1E0
330
1F
100
AcDbEntity
  8
0
  6
Continuous
 62
     7
370
    15
100
AcDbSpline
210
0.0
220
0.0
230
1.0
 70
     8
 71
     3
 72
    10
 73
     6
 74
     0
 42
0.000000001
 43
0.00000001
 40
0.0
 40
0.0
 40
0.0
 40
0.0
 40
0.4391051671061832
 40
0.7513578980692961
 40
1.0
 40
1.0
 40
1.0
 40
1.0
 10
261.143319818567
 20
41.81629485036537
 30
0.0
 10
261.2256891163843
 20
41.79226083882792
 30
0.0
 10
261.3666321685495
 20
41.7511359654634
 30
0.0
 10
261.5715211608989
 20
41.78217093693295
 30
0.0
 10
261.6735026157806
 20
41.82482400564528
 30
0.0
 10
261.7187105260923
 20
41.84373191500097
 30
0.0
  0
LINE
  5
1E1
330
1F
100
AcDbEntity
  8
0
  6
Continuous
 62
     7
370
    15
100
AcDbLine
 10
261.1433198186
 20
41.2744358634
 30
0.0
 11
261.1433198186
 21
41.8162948504
 31
0.0
  0
LINE
  5
1E2
330
1F
100
AcDbEntity
  8
0
  6
Continuous
 62
     7
370
    15
100
AcDbLine
 10
261.7187105261
 20
41.2497083251
 30
0.0
 11
261.7187105261
 21
41.843731915
 31
0.0
  0
LWPOLYLINE
  5
1E3
330
1F
100
AcDbEntity
  8
0
  6
Continuous
 62
     7
370
    15
100
AcDbPolyline
 90
       27
 70
   128
 43
0.0
 10
237.1656110105
 20
36.7293589431
 10
237.5221014781
 20
38.448330293
 10
237.9801354811
 20
40.1890279383
 10
238.5368985494
 20
41.9407558578
 10
239.1889695547
 20
43.6927502527
 10
239.9323417328
 20
45.4342456867
 10
240.7624473031
 20
47.1545412365
 10
241.6741855368
 20
48.8430662449
 10
242.6619540986
 20
50.4894452746
 10
243.7196834718
 20
52.0835618614
 10
244.8408742532
 20
53.615620677
 10
246.0186370896
 20
55.0762077178
 10
247.2457350114
 20
56.4563481512
 10
248.5146279005
 20
57.7475614627
 10
249.8175188225
 20
58.9419135662
 10
251.1464019361
 20
60.0320655561
 10
252.4931116864
 20
61.0113188028
 10
253.8493729798
 20
61.8736561133
 10
255.2068520313
 20
62.613778705
 10
256.5572075733
 20
63.2271387652
 10
257.8921421099
 20
63.7099673956
 10
259.2034529022
 20
64.0592977713
 10
260.4830823715
 20
64.2729833705
 10
261.7231676105
 20
64.3497111647
 10
262.9160886986
 20
64.2890096867
 10
264.0545155233
 20
64.0912519271
 10
265.1314528217
 20
63.7576530432
  0
SPLINE
  5
1E4
330
1F
100
AcDbEntity
  8
0
  6
Continuous
 62
     7
370
    15
100
AcDbSpline
210
0.0
220
0.0
230
1.0
 70
     8
 71
     3
 72
    14
 73
    10
 74
     0
 42
0.000000001
 43
0.00000001
 40
0.0
 40
0.0
 40
0.0
 40
0.0
 40
0.25
 40
0.25
 40
0.5
 40
0.5
 40
0.75
 40
0.75
 40
1.0
 40
1.0
 40
1.0
 40
1.0
 10
237.165611010468
 20
36.72935894313605
 30
0.0
 10
237.1184379032357
 20
36.70212648798992
 30
0.0
 10
237.0628738385369
 20
36.68038212984898
 30
0.0
 10
236.9409483664179
 20
36.65013670244296
 30
0.0
 10
236.874851845542
 20
36.64183767233266
 30
0.0
 10
236.7426599164052
 20
36.64040505655289
 30
0.0
 10
236.6757247648745
 20
36.6473550307345
 30
0.0
 10
236.5531142732042
 20
36.67556438434391
 30
0.0
 10
236.4961788184005
 20
36.69714022865156
 30
0.0
 10
236.4494362750283
 20
36.72412412457196
 30
0.0
  0
LWPOLYLINE
  5
1E5
330
1F
100
AcDbEntity
  8
0
  6
Continuous
 62
     7
370
    15
100
AcDbPolyline
 90
       27
 70
   128
 43
0.0
 10
236.449436275
 20
36.7241241246
 10
236.8046435265
 20
38.4662043196
 10
237.2624197611
 20
40.2308883267
 10
237.819984906
 20
42.0074592283
 10
238.4739528708
 20
43.7851279182
 10
239.2203521112
 20
45.553098623
 10
240.0546497483
 20
47.3006344654
 10
240.9717790967
 20
49.0171226686
 10
241.9661704342
 20
50.6921390083
 10
243.0317848272
 20
52.3155111184
 10
244.1621508046
 20
53.877380268
 10
245.3504036594
 20
55.3682612334
 10
246.5893271379
 20
56.7790999017
 10
247.8713972638
 20
58.1013282568
 10
249.1888280314
 20
59.3269164122
 10
250.5336186903
 20
60.448421377
 10
251.8976023332
 20
61.4590322571
 10
253.2724954943
 20
62.3526116176
 10
254.649948454
 20
63.1237327554
 10
256.0215959473
 20
63.7677126555
 10
257.3791079657
 20
64.2806404312
 10
258.7142403452
 20
64.6594010747
 10
260.0188848336
 20
64.9016943743
 10
261.2851183312
 20
65.0060488841
 10
262.5052510081
 20
64.9718308596
 10
263.6718730047
 20
64.7992481067
 10
264.7778994311
 20
64.4893487197
  0
SPLINE
  5
1E6
330
1F
100
AcDbEntity
  8
0
  6
Continuous
 62
     7
370
    15
100
AcDbSpline
210
0.0
220
0.0
230
1.0
 70
     8
 71
     3
 72
    12
 73
     8
 74
     0
 42
0.000000001
 43
0.00000001
 40
0.0
 40
0.0
 40
0.0
 40
0.0
 40
0.2500000000000016
 40
0.2500000000000016
 40
0.5000000000000032
 40
0.5000000000000032
 40
1.0
 40
1.0
 40
1.0
 40
1.0
 10
264.7778994311081
 20
64.48934871972625
 30
0.0
 10
264.8316714500561
 20
64.45830679393352
 30
0.0
 10
264.8841597251742
 20
64.4093321646767
 30
0.0
 10
264.9751656521129
 20
64.29260128982719
 30
0.0
 10
265.0137400056422
 20
64.22514982449405
 30
0.0
 10
265.1035635949384
 20
64.02083259748716
 30
0.0
 10
265.1314528217014
 20
63.88046976828975
 30
0.0
 10
265.1314528217014
 20
63.75765304323505
 30
0.0
  0
LINE
  5
1E7
330
1F
100
AcDbEntity
  8
0
  6
Continuous
 62
     7
370
    15
100
AcDbLine
 10
236.449436275
 20
36.7241241246
 30
0.0
 11
234.7919882404
 21
37.6809485084
 31
0.0
  0
LWPOLYLINE
  5
1E8
330
1F
100
AcDbEntity
  8
0
  6
Continuous
 62
     7
370
    15
100
AcDbPolyline
 90
       27
 70
   128
 43
0.0
 10
234.7919882404
 20
37.6809485084
 10
235.1471954919
 20
39.4230287035
 10
235.6049717265
 20
41.1877127105
 10
236.1625368714
 20
42.9642836122
 10
236.8165048362
 20
44.741952302
 10
237.5629040766
 20
46.5099230069
 10
238.3972017137
 20
48.2574588492
 10
239.314331062
 20
49.9739470524
 10
240.3087223995
 20
51.6489633921
 10
241.3743367925
 20
53.2723355022
 10
242.5047027699
 20
54.8342046518
 10
243.6929556248
 20
56.3250856172
 10
244.9318791032
 20
57.7359242856
 10
246.2139492291
 20
59.0581526406
 10
247.5313799968
 20
60.283740796
 10
248.8761706556
 20
61.4052457608
 10
250.2401542986
 20
62.415856641
 10
251.6150474596
 20
63.3094360014
 10
252.9925004194
 20
64.0805571392
 10
254.3641479127
 20
64.7245370393
 10
255.721659931
 20
65.237464815
 10
257.0567923106
 20
65.6162254585
 10
258.361436799
 20
65.8585187581
 10
259.6276702965
 20
65.9628732679
 10
260.8478029735
 20
65.9286552434
 10
262.01442497
 20
65.7560724906
 10
263.1204513965
 20
65.4461731036
  0
LINE
  5
1E9
330
1F
100
AcDbEntity
  8
0
  6
Continuous
 62
     7
370
    15
100
AcDbLine
 10
263.1204513965
 20
65.4461731036
 30
0.0
 11
264.7778994311
 21
64.4893487197
 31
0.0
  0
LINE
  5
1EA
330
1F
100
AcDbEntity
  8
0
  6
Continuous
 62
     7
370
    15
100
AcDbLine
 10
269.5685478736
 20
55.0269058238
 30
0.0
 11
271.0070646327
 21
55.8573438724
 31
0.0
  0
LINE
  5
1EB
330
1F
100
AcDbEntity
  8
0
  6
Continuous
 62
     7
370
    15
100
AcDbLine
 10
269.5685478736
 20
46.8614977049
 30
0.0
 11
269.5685478736
 21
55.0269058238
 31
0.0
  0
LINE
  5
1EC
330
1F
100
AcDbEntity
  8
0
  6
Continuous
 62
     7
370
    15
100
AcDbLine
 10
271.0070646327
 20
47.6919357536
 30
0.0
 11
269.5685478736
 21
46.8614977049
 31
0.0
  0
LWPOLYLINE
  5
1ED
330
1F
100
AcDbEntity
  8
0
  6
Continuous
 62
     7
370
    15
100
AcDbPolyline
 90
       36
 70
   128
 43
0.0
 10
271.0070646327
 20
47.6919357536
 10
270.6828231288
 20
46.0023174095
 10
270.2589258485
 20
44.2886275396
 10
269.7379122047
 20
42.5611322293
 10
269.1229033983
 20
40.8301802676
 10
268.4175837208
 20
39.1061411505
 10
267.6261784828
 20
37.3993429622
 10
266.753428702
 20
35.7200105025
 10
265.8045627012
 20
34.0782040344
 10
264.7852647873
 20
32.4837590162
 10
263.7016411993
 20
30.9462271814
 10
262.5601835272
 20
29.4748193175
 10
261.367729824
 20
28.0783500876
 10
260.1314236411
 20
26.765185225
 10
258.8586712339
 20
25.5431914171
 10
257.5570971937
 20
24.4196891794
 10
256.2344987718
 20
23.4014090003
 10
254.8987991686
 20
22.4944510217
 10
253.5580000689
 20
21.7042484951
 10
252.2201337069
 20
21.0355352331
 10
250.8932147476
 20
20.4923172507
 10
249.5851922743
 20
20.0778487672
 10
248.3039021683
 20
19.7946127105
 10
247.0570201673
 20
19.6443058438
 10
245.8520158824
 20
19.6278286001
 10
244.6961080509
 20
19.7452796886
 10
243.5962212915
 20
19.9959555031
 10
242.5589446209
 20
20.3783543368
 10
241.590491982
 20
20.8901853792
 10
240.6966650182
 20
21.5283824388
 10
239.8828183181
 20
22.2891223118
 10
239.1538273376
 20
23.1678476856
 10
238.5140591935
 20
24.1592944398
 10
237.9673465015
 20
25.2575231816
 10
237.516964416
 20
26.4559548268
 10
237.1656110105
 20
27.7474100124
  0
LINE
  5
1EE
330
1F
100
AcDbEntity
  8
0
  6
Continuous
 62
     7
370
    15
100
AcDbLine
 10
237.1656110105
 20
27.7474100124
 30
0.0
 11
238.5265601796
 21
28.5330692445
 31
0.0
  0
LINE
  5
1EF
330
1F
100
AcDbEntity
  8
0
  6
Continuous
 62
     7
370
    15
100
AcDbLine
 10
238.5265601796
 20
28.5330692445
 30
0.0
 11
238.5265601796
 21
37.5150181752
 31
0.0
  0
LINE
  5
1F0
330
1F
100
AcDbEntity
  8
0
  6
Continuous
 62
     7
370
    15
100
AcDbLine
 10
238.5265601796
 20
37.5150181752
 30
0.0
 11
237.1656110105
 21
36.7293589431
 31
0.0
  0
LINE
  5
1F1
330
1F
100
AcDbEntity
  8
0
  6
Continuous
 62
     7
370
    15
100
AcDbLine
 10
265.1314528217
 20
63.7576530432
 30
0.0
 11
265.1314528217
 21
61.1819985398
 31
0.0
  0
LINE
  5
1F2
330
1F
100
AcDbEntity
  8
0
  6
Continuous
 62
     7
370
    15
100
AcDbLine
 10
267.3619142253
 20
62.4696165004
 30
0.0
 11
265.1314528217
 21
61.1819985398
 31
0.0
  0
ARC
  5
1F3
330
1F
100
AcDbEntity
  8
0
  6
Continuous
 62
     7
370
    15
100
AcDbCircle
 10
260.0208697015
 20
54.1118475537
 30
0.0
 40
11.12399372828755
100
AcDbArc
 50
9.0277456972
 51
48.705552358
  0
LWPOLYLINE
  5
1F4
330
1F
100
AcDbEntity
  8
0
  6
Continuous
 62
     7
370
    15
100
AcDbPolyline
 90
       25
 70
   128
 43
0.0
 10
233.8132026494
 20
39.2271508376
 10
234.171610755
 20
40.9154029724
 10
234.630224235
 20
42.6241835578
 10
235.1861773798
 20
44.3428150417
 10
235.8359962391
 20
46.0605583174
 10
236.5756203298
 20
47.7666798282
 10
237.4004280083
 20
49.4505186377
 10
238.3052653498
 20
51.101553046
 10
239.2844783528
 20
52.7094663361
 10
240.3319482694
 20
54.264211239
 10
241.4411298387
 20
55.7560727162
 10
242.6050921861
 20
57.1757286646
 10
243.8165621319
 20
58.5143081674
 10
245.0679696382
 20
59.7634469255
 10
246.3514951122
 20
60.9153395222
 10
247.6591182672
 20
61.9627881974
 10
248.9826682389
 20
62.8992478228
 10
250.313874642
 20
63.718866801
 10
251.6444192491
 20
64.4165236292
 10
252.965987968
 20
64.9878589022
 10
254.2703227936
 20
65.4293025525
 10
255.5492734092
 20
65.7380961583
 10
256.7948481149
 20
65.9123101799
 10
257.9992637645
 20
65.950856017
 10
258.7445049353
 20
65.9042304633
  0
SPLINE
  5
1F5
330
1F
100
AcDbEntity
  8
0
  6
Continuous
 62
     7
370
    15
100
AcDbSpline
210
0.0
220
0.0
230
1.0
 70
     8
 71
     3
 72
     8
 73
     4
 74
     0
 42
0.000000001
 43
0.00000001
 40
0.0
 40
0.0
 40
0.0
 40
0.0
 40
1.0
 40
1.0
 40
1.0
 40
1.0
 10
233.8132026493648
 20
39.22715083757566
 30
0.0
 10
233.3706662955195
 20
39.15546430714641
 30
0.0
 10
232.9280571054678
 20
39.08392814154463
 30
0.0
 10
232.4853853992514
 20
39.01252198523994
 30
0.0
  0
LWPOLYLINE
  5
1F6
330
1F
100
AcDbEntity
  8
0
  6
Continuous
 62
     7
370
    15
100
AcDbPolyline
 90
       27
 70
   128
 43
0.0
 10
232.4853853993
 20
39.0125219852
 10
232.8405926507
 20
40.7546021803
 10
233.2983688854
 20
42.5192861873
 10
233.8559340303
 20
44.295857089
 10
234.509901995
 20
46.0735257789
 10
235.2563012355
 20
47.8414964837
 10
236.0905988726
 20
49.589032326
 10
237.0077282209
 20
51.3055205293
 10
238.0021195584
 20
52.980536869
 10
239.0677339514
 20
54.603908979
 10
240.1980999288
 20
56.1657781286
 10
241.3863527837
 20
57.656659094
 10
242.6252762621
 20
59.0674977624
 10
243.907346388
 20
60.3897261175
 10
245.2247771556
 20
61.6153142728
 10
246.5695678145
 20
62.7368192377
 10
247.9335514575
 20
63.7474301178
 10
249.3084446185
 20
64.6410094783
 10
250.6858975782
 20
65.412130616
 10
252.0575450715
 20
66.0561105162
 10
253.4150570899
 20
66.5690382919
 10
254.7501894695
 20
66.9477989353
 10
256.0548339578
 20
67.190092235
 10
257.3210674554
 20
67.2944467447
 10
258.5412001324
 20
67.2602287203
 10
259.7078221289
 20
67.0876459674
 10
260.8138485553
 20
66.7777465804
  0
LINE
  5
1F7
330
1F
100
AcDbEntity
  8
0
  6
Continuous
 62
     7
370
    15
100
AcDbLine
 10
260.8138485553
 20
66.7777465804
 30
0.0
 11
261.1089542876
 21
65.8372469059
 31
0.0
  0
LINE
  5
1F8
330
1F
100
AcDbEntity
  8
0
  6
Continuous
 62
     7
370
    15
100
AcDbLine
 10
256.6461714475
 20
69.1836953627
 30
0.0
 11
260.8138485553
 21
66.7777465804
 31
0.0
  0
LINE
  5
1F9
330
1F
100
AcDbEntity
  8
0
  6
Continuous
 62
     7
370
    15
100
AcDbLine
 10
232.4853853993
 20
39.0125219852
 30
0.0
 11
231.8532421973
 21
39.377450488
 31
0.0
  0
SPLINE
  5
1FA
330
1F
100
AcDbEntity
  8
0
  6
Continuous
 62
     7
370
    15
100
AcDbSpline
210
0.0
220
0.0
230
1.0
 70
     8
 71
     3
 72
    30
 73
    26
 74
     0
 42
0.000000001
 43
0.00000001
 40
0.0
 40
0.0
 40
0.0
 40
0.0
 40
0.1250000000000006
 40
0.1250000000000006
 40
0.187500000000001
 40
0.187500000000001
 40
0.2500000000000013
 40
0.2500000000000013
 40
0.3750000000000014
 40
0.3750000000000014
 40
0.4375000000000014
 40
0.4375000000000014
 40
0.5000000000000013
 40
0.5000000000000013
 40
0.625000000000001
 40
0.625000000000001
 40
0.6875000000000009
 40
0.6875000000000009
 40
0.7500000000000007
 40
0.7500000000000007
 40
0.8125000000000006
 40
0.8125000000000006
 40
0.8750000000000004
 40
0.8750000000000004
 40
1.0
 40
1.0
 40
1.0
 40
1.0
 10
231.8532421973158
 20
39.37745048799578
 30
0.0
 10
231.6189265637092
 20
39.51271802402641
 30
0.0
 10
231.3834260871805
 20
39.61598055295577
 30
0.0
 10
231.0288756397908
 20
39.72522329071954
 30
0.0
 10
230.9104813763917
 20
39.75397625271624
 30
0.0
 10
230.6734267313415
 20
39.79592941736595
 30
0.0
 10
230.5546068201056
 20
39.80903455226805
 30
0.0
 10
230.2059629361294
 20
39.82428594128236
 30
0.0
 10
229.9811980934875
 20
39.80320717984036
 30
0.0
 10
229.6569874458837
 20
39.72620412796467
 30
0.0
 10
229.5505713699725
 20
39.69269552293146
 30
0.0
 10
229.3452621400001
 20
39.61115717680783
 30
0.0
 10
229.2466674094923
 20
39.5633515717065
 30
0.0
 10
228.9631694156934
 20
39.39968436215359
 30
0.0
 10
228.7904264420232
 20
39.26377226567701
 30
0.0
 10
228.5583016435271
 20
39.01940112877192
 30
0.0
 10
228.4859876577011
 20
38.93158404356428
 30
0.0
 10
228.3536693436315
 20
38.746203474624
 30
0.0
 10
228.2933154049107
 20
38.64828247458367
 30
0.0
 10
228.1843522707676
 20
38.44219462387943
 30
0.0
 10
228.1357424456695
 20
38.33402781703518
 30
0.0
 10
228.0507066297748
 20
38.10733810352843
 30
0.0
 10
228.0141557505998
 20
37.98819767580565
 30
0.0
 10
227.9251614735069
 20
37.62021334735152
 30
0.0
 10
227.8928249165268
 20
37.36098822205484
 30
0.0
 10
227.88813901023
 20
37.0877816406247
 30
0.0
  0
ARC
  5
1FB
330
1F
100
AcDbEntity
  8
0
  6
Continuous
 62
     7
370
    15
100
AcDbCircle
 10
251.4562040864
 20
36.6795112347
 30
0.0
 40
23.57160105208283
100
AcDbArc
 50
179.0075624958
 51
180.9924375042
  0
SPLINE
  5
1FC
330
1F
100
AcDbEntity
  8
0
  6
Continuous
 62
     7
370
    15
100
AcDbSpline
210
0.0
220
0.0
230
1.0
 70
     8
 71
     3
 72
    30
 73
    26
 74
     0
 42
0.000000001
 43
0.00000001
 40
0.0
 40
0.0
 40
0.0
 40
0.0
 40
0.1249999999999998
 40
0.1249999999999998
 40
0.1874999999999997
 40
0.1874999999999997
 40
0.2499999999999996
 40
0.2499999999999996
 40
0.3749999999999996
 40
0.3749999999999996
 40
0.4374999999999998
 40
0.4374999999999998
 40
0.5
 40
0.5
 40
0.6250000000000002
 40
0.6250000000000002
 40
0.6875000000000002
 40
0.6875000000000002
 40
0.7500000000000001
 40
0.7500000000000001
 40
0.8125000000000001
 40
0.8125000000000001
 40
0.8750000000000001
 40
0.8750000000000001
 40
1.0
 40
1.0
 40
1.0
 40
1.0
 10
227.88813901023
 20
36.27124082873895
 30
0.0
 10
227.8928252568887
 20
36.00342502810723
 30
0.0
 10
227.9251347772075
 20
35.72970886312182
 30
0.0
 10
228.0127928325761
 20
35.3104607159264
 30
0.0
 10
228.0485870038896
 20
35.1692502972341
 30
0.0
 10
228.133447618742
 20
34.88374968224195
 30
0.0
 10
228.1827002666557
 20
34.73916461741093
 30
0.0
 10
228.346904602825
 20
34.31007234825932
 30
0.0
 10
228.4789570608854
 20
34.02709953277548
 30
0.0
 10
228.7090076284044
 20
33.60609562203834
 30
0.0
 10
228.7914706668982
 20
33.46569055216455
 30
0.0
 10
228.9652224021173
 20
33.18902625807031
 30
0.0
 10
229.056023993951
 20
33.05344170902394
 30
0.0
 10
229.3394184661823
 20
32.6543446422643
 30
0.0
 10
229.5428983408494
 20
32.39841769925711
 30
0.0
 10
229.8688063280982
 20
32.02879171922143
 30
0.0
 10
229.9805469435593
 20
31.90847287203592
 30
0.0
 10
230.2058510476967
 20
31.67763527390512
 30
0.0
 10
230.3199736951757
 20
31.56647267982556
 30
0.0
 10
230.5508834817401
 20
31.35239887065058
 30
0.0
 10
230.6676708977488
 20
31.24948774391611
 30
0.0
 10
230.9037538602187
 20
31.05192957700089
 30
0.0
 10
231.0236312346084
 20
30.95685780439551
 30
0.0
 10
231.3821144897722
 20
30.68805272579293
 30
0.0
 10
231.6189231563354
 20
30.53077106031817
 30
0.0
 10
231.8532421973158
 20
30.39550155725253
 30
0.0
  0
LINE
  5
1FD
330
1F
100
AcDbEntity
  8
0
  6
Continuous
 62
     7
370
    15
100
AcDbLine
 10
231.8532421973
 20
30.3955015573
 30
0.0
 11
232.4853853993
 21
30.0305730545
 31
0.0
  0
LWPOLYLINE
  5
1FE
330
1F
100
AcDbEntity
  8
0
  6
Continuous
 62
     7
370
    15
100
AcDbPolyline
 90
       10
 70
   128
 43
0.0
 10
238.4375718863
 20
22.2519510644
 10
237.7464375806
 20
22.5514129491
 10
236.8001707349
 20
23.0918569002
 10
235.9275946305
 20
23.7541791323
 10
235.1336823441
 20
24.5346048695
 10
234.422958623
 20
25.4286862285
 10
233.7994740977
 20
26.4313275676
 10
233.2667821963
 20
27.5368145292
 10
232.8279188916
 20
28.7388466069
 10
232.4853853993
 20
30.0305730545
  0
LINE
  5
1FF
330
1F
100
AcDbEntity
  8
0
  6
Continuous
 62
     7
370
    15
100
AcDbLine
 10
262.7658021983
 20
65.6504034036
 30
0.0
 11
263.1182130355
 21
65.4469609577
 31
0.0
  0
SPLINE
  5
200
330
1F
100
AcDbEntity
  8
0
  6
Continuous
 62
     7
370
    15
100
AcDbSpline
210
0.0
220
0.0
230
1.0
 70
     8
 71
     3
 72
    22
 73
    18
 74
     0
 42
0.000000001
 43
0.00000001
 40
0.0
 40
0.0
 40
0.0
 40
0.0
 40
0.2500000000000001
 40
0.2500000000000001
 40
0.3750000000000002
 40
0.3750000000000002
 40
0.5000000000000002
 40
0.5000000000000002
 40
0.6250000000000001
 40
0.6250000000000001
 40
0.7500000000000001
 40
0.7500000000000001
 40
0.875
 40
0.875
 40
0.9375
 40
0.9375
 40
1.0
 40
1.0
 40
1.0
 40
1.0
 10
256.6461714474628
 20
69.18369536270684
 30
0.0
 10
257.0782035430018
 20
69.0154249246004
 30
0.0
 10
257.5285781913673
 20
68.80474891972018
 30
0.0
 10
258.2535516330515
 20
68.41965468346355
 30
0.0
 10
258.5055189567709
 20
68.27852914518778
 30
0.0
 10
259.0183110699032
 20
67.9795121759706
 30
0.0
 10
259.2798323819623
 20
67.82134633861477
 30
0.0
 10
259.8174070635608
 20
67.48874639727728
 30
0.0
 10
260.0953696082237
 20
67.31304858591125
 30
0.0
 10
260.647975526969
 20
66.96140566981788
 30
0.0
 10
260.9249714521403
 20
66.78402684069516
 30
0.0
 10
261.4831590320371
 20
66.4297164213826
 30
0.0
 10
261.7533351211969
 20
66.25985858167014
 30
0.0
 10
262.1448024362933
 20
66.01928959669543
 30
0.0
 10
262.2730496664012
 20
65.94142171414704
 30
0.0
 10
262.5249113055826
 20
65.7908154186486
 30
0.0
 10
262.647803539429
 20
65.71852257943766
 30
0.0
 10
262.7658021982884
 20
65.65040340363556
 30
0.0
  0
ARC
  5
201
330
1F
100
AcDbEntity
  8
0
  6
Continuous
 62
     7
370
    15
100
AcDbCircle
 10
251.7173205825
 20
60.5135073551
 30
0.0
 40
10.12312550345237
100
AcDbArc
 50
61.8838861263
 51
106.2631400287
  0
ARC
  5
202
330
1F
100
AcDbEntity
  8
0
  6
Continuous
 62
     7
370
    15
100
AcDbCircle
 10
236.8542495219
 20
34.7327766838
 30
0.0
 40
10.13005678070385
100
AcDbArc
 50
195.0631784563
 51
238.0255979285
  0
LINE
  5
203
330
1F
100
AcDbEntity
  8
0
  6
Continuous
 62
     7
370
    15
100
AcDbLine
 10
234.1343031991
 20
39.4125182393
 30
0.0
 11
233.8132026494
 21
39.2271508376
 31
0.0
  0
LINE
  5
204
330
1F
100
AcDbEntity
  8
0
  6
Continuous
 62
     7
370
    15
100
AcDbLine
 10
235.0949529826
 20
39.1941043207
 30
0.0
 11
234.7082983041
 21
39.4173153154
 31
0.0
  0
SPLINE
  5
205
330
1F
100
AcDbEntity
  8
0
  6
Continuous
 62
     7
370
    15
100
AcDbSpline
210
0.0
220
0.0
230
1.0
 70
     8
 71
     3
 72
    12
 73
     8
 74
     0
 42
0.000000001
 43
0.00000001
 40
0.0
 40
0.0
 40
0.0
 40
0.0
 40
0.25
 40
0.25
 40
0.5
 40
0.5
 40
1.0
 40
1.0
 40
1.0
 40
1.0
 10
234.7082983040571
 20
39.41731531544154
 30
0.0
 10
234.6709062664742
 20
39.43890127926798
 30
0.0
 10
234.6247579556192
 20
39.45634141429043
 30
0.0
 10
234.5260581182366
 20
39.47879754260477
 30
0.0
 10
234.4725465519412
 20
39.48418384820538
 30
0.0
 10
234.3139491322399
 20
39.48210268939525
 30
0.0
 10
234.2092350376221
 20
39.45577546890446
 30
0.0
 10
234.1343031990953
 20
39.41251823927898
 30
0.0
  0
LINE
  5
206
330
1F
100
AcDbEntity
  8
0
  6
Continuous
 62
     7
370
    15
100
AcDbLine
 10
233.5768127113
 20
31.3904976359
 30
0.0
 11
238.5265601796
 21
28.5330692445
 31
0.0
  0
ARC
  5
207
330
1F
100
AcDbEntity
  8
0
  6
Continuous
 62
     7
370
    15
100
AcDbCircle
 10
237.6848936986
 20
37.8447822054
 30
0.0
 40
7.650759354637011
100
AcDbArc
 50
182.476303705
 51
237.5236964406
  0
LINE
  5
208
330
1F
100
AcDbEntity
  8
0
  6
Continuous
 62
     7
370
    15
100
AcDbLine
 10
230.0412788053
 20
38.3307627867
 30
0.0
 11
230.0412788053
 21
37.5142219748
 31
0.0
  0
ARC
  5
209
330
1F
100
AcDbEntity
  8
0
  6
Continuous
 62
     7
370
    15
100
AcDbCircle
 10
233.2716200213
 20
38.437124647
 30
0.0
 40
3.232091771120169
100
AcDbArc
 50
154.0951490689
 51
181.8858332577
  0
SPLINE
  5
20A
330
1F
100
AcDbEntity
  8
0
  6
Continuous
 62
     7
370
    15
100
AcDbSpline
210
0.0
220
0.0
230
1.0
 70
    11
 71
     3
 72
    62
 73
    58
 74
     0
 42
0.000000001
 43
0.00000001
 40
0.0
 40
0.0
 40
0.0
 40
0.0
 40
0.0312499999999997
 40
0.0312499999999997
 40
0.0624999999999993
 40
0.0624999999999993
 40
0.1249999999999987
 40
0.1249999999999987
 40
0.1874999999999981
 40
0.1874999999999981
 40
0.2187499999999978
 40
0.2187499999999978
 40
0.2499999999999974
 40
0.2499999999999974
 40
0.2812499999999971
 40
0.2812499999999971
 40
0.3124999999999968
 40
0.3124999999999968
 40
0.3437499999999964
 40
0.3437499999999964
 40
0.3749999999999961
 40
0.3749999999999961
 40
0.4062499999999958
 40
0.4062499999999958
 40
0.4374999999999954
 40
0.4374999999999954
 40
0.4999999999999951
 40
0.4999999999999951
 40
0.531249999999995
 40
0.531249999999995
 40
0.5624999999999949
 40
0.5624999999999949
 40
0.5937499999999948
 40
0.5937499999999948
 40
0.6249999999999947
 40
0.6249999999999947
 40
0.6562499999999946
 40
0.6562499999999946
 40
0.6874999999999944
 40
0.6874999999999944
 40
0.7499999999999956
 40
0.7499999999999956
 40
0.7812499999999961
 40
0.7812499999999961
 40
0.8124999999999967
 40
0.8124999999999967
 40
0.8437499999999972
 40
0.8437499999999972
 40
0.8749999999999978
 40
0.8749999999999978
 40
0.9062499999999983
 40
0.9062499999999983
 40
0.9374999999999989
 40
0.9374999999999989
 40
0.9687499999999994
 40
0.9687499999999994
 40
1.0
 40
1.0
 40
1.0
 40
1.0
 10
260.6305026535233
 20
42.5624246685537
 30
0.0
 10
260.6944310558309
 20
42.58786182792203
 30
0.0
 10
260.762363654738
 20
42.60647185546017
 30
0.0
 10
260.9054482594312
 20
42.63177227677802
 30
0.0
 10
260.9815759657865
 20
42.63842284308374
 30
0.0
 10
261.2129534600047
 20
42.64113600877571
 30
0.0
 10
261.3729076155446
 20
42.6203125123224
 30
0.0
 10
261.6793082664212
 20
42.54818201175089
 30
0.0
 10
261.8282548931703
 20
42.49636853699343
 30
0.0
 10
262.0295840266019
 20
42.40531691999269
 30
0.0
 10
262.0942129113483
 20
42.37217662648704
 30
0.0
 10
262.2137244588509
 20
42.30295246157539
 30
0.0
 10
262.2686748692738
 20
42.2669339271693
 30
0.0
 10
262.3689805745008
 20
42.19209242566348
 30
0.0
 10
262.41470631915
 20
42.15285173453989
 30
0.0
 10
262.4931190040356
 20
42.07365210584781
 30
0.0
 10
262.5260342620081
 20
42.03365188177736
 30
0.0
 10
262.5789870269413
 20
41.95230620402587
 30
0.0
 10
262.5990971047354
 20
41.91050690091944
 30
0.0
 10
262.6239315879542
 20
41.82788265692211
 30
0.0
 10
262.6289490015196
 20
41.78687252652063
 30
0.0
 10
262.6233758303761
 20
41.70464012257841
 30
0.0
 10
262.6124604194381
 20
41.66306974593473
 30
0.0
 10
262.574677561855
 20
41.58294855742946
 30
0.0
 10
262.5479207340219
 20
41.54393982573667
 30
0.0
 10
262.4421349360306
 20
41.42933145116868
 30
0.0
 10
262.3390985070223
 20
41.35896456926768
 30
0.0
 10
262.1493813523459
 20
41.27207573210744
 30
0.0
 10
262.0814869290145
 20
41.24663400930319
 30
0.0
 10
261.9366842653428
 20
41.20293814006715
 30
0.0
 10
261.8604738117383
 20
41.18501436613681
 30
0.0
 10
261.706078217758
 20
41.15829607786231
 30
0.0
 10
261.626291630079
 20
41.14924850203129
 30
0.0
 10
261.4680518363889
 20
41.14083787652292
 30
0.0
 10
261.3896332988339
 20
41.14135314972106
 30
0.0
 10
261.2340706119579
 20
41.15212260991162
 30
0.0
 10
261.157309262899
 20
41.16246675762814
 30
0.0
 10
261.0106564993068
 20
41.19246768809361
 30
0.0
 10
260.9400216433467
 20
41.21216103502542
 30
0.0
 10
260.7361955765582
 20
41.28607823226332
 30
0.0
 10
260.6176180737054
 20
41.35265531134464
 30
0.0
 10
260.4684853678076
 20
41.47567328314678
 30
0.0
 10
260.4246487250008
 20
41.51969039205714
 30
0.0
 10
260.3484123215185
 20
41.61331315208751
 30
0.0
 10
260.3158008648768
 20
41.66336015484515
 30
0.0
 10
260.2639728501661
 20
41.76689187278784
 30
0.0
 10
260.2448923468372
 20
41.81982032280749
 30
0.0
 10
260.2206285947306
 20
41.92745539122527
 30
0.0
 10
260.215481720966
 20
41.98277064165058
 30
0.0
 10
260.220892721149
 20
42.09169782223012
 30
0.0
 10
260.2312403243728
 20
42.14482634867969
 30
0.0
 10
260.2680608206789
 20
42.24763139822964
 30
0.0
 10
260.2951333737264
 20
42.29799551187681
 30
0.0
 10
260.3649163436257
 20
42.38971401089401
 30
0.0
 10
260.4073604994481
 20
42.4312655059841
 30
0.0
 10
260.5081262265067
 20
42.5050262423018
 30
0.0
 10
260.5665742512156
 20
42.53698750918536
 30
0.0
 10
260.6305026535233
 20
42.5624246685537
 30
0.0
  0
LWPOLYLINE
  5
20B
330
1F
100
AcDbEntity
  8
0
  6
Continuous
 62
     7
370
    15
100
AcDbPolyline
 90
       20
 70
   128
 43
0.0
 10
263.1869091734
 20
40.7954975186
 10
262.588712001
 20
40.3913719379
 10
262.0077238721
 20
39.8812849073
 10
261.4606587574
 20
39.2799107018
 10
260.9632547242
 20
38.6045497624
 10
260.5298211808
 20
37.8746309937
 10
260.1728272213
 20
37.1111528298
 10
259.9025429118
 20
36.3360791473
 10
259.7267438399
 20
35.5717074049
 10
259.6504874246
 20
34.840027186
 10
259.6759674244
 20
34.1620875983
 10
259.8024508259
 20
33.5573917294
 10
260.026298932
 20
33.0433355785
 10
260.3410720402
 20
32.634707605
 10
260.7377147014
 20
32.3432632919
 10
261.2048162282
 20
32.1773869614
 10
261.7289389604
 20
32.1418505735
 10
262.295004841
 20
32.2376764453
 10
262.8867291854
 20
32.4621078411
 10
263.1874844598
 20
32.62100527
  0
LWPOLYLINE
  5
20C
330
1F
100
AcDbEntity
  8
0
  6
Continuous
 62
     7
370
    15
100
AcDbPolyline
 90
       11
 70
   128
 43
0.0
 10
266.7265202314
 20
38.7514592838
 10
266.7233309222
 20
38.9230928267
 10
266.647074507
 20
39.5667292626
 10
266.471275435
 20
40.1281277169
 10
266.2009911256
 20
40.5911377782
 10
265.843997166
 20
40.9424394898
 10
265.4105636227
 20
41.1719265414
 10
264.9131595895
 20
41.2729970081
 10
264.3660944748
 20
41.2427432768
 10
263.7851063459
 20
41.082035692
 10
263.1869091734
 20
40.7954975186
  0
LINE
  5
20D
330
1F
100
AcDbEntity
  8
0
  6
Continuous
 62
     7
370
    15
100
AcDbLine
 10
227.8881390102
 20
37.0877816406
 30
0.0
 11
230.0412788053
 21
38.3307627867
 31
0.0
  0
LWPOLYLINE
  5
20E
330
1F
100
AcDbEntity
  8
0
  6
Continuous
 62
     7
370
    15
100
AcDbPolyline
 90
       38
 70
   128
 43
0.0
 10
263.2576198516
 20
40.6730230318
 10
262.6713728417
 20
40.2769706528
 10
262.101991091
 20
39.7770736118
 10
261.5658546757
 20
39.1877130363
 10
261.0783872643
 20
38.5258437573
 10
260.6536124067
 20
37.8105065486
 10
260.3037501022
 20
37.0622803595
 10
260.0388652523
 20
36.302690295
 10
259.8665781118
 20
35.5535883785
 10
259.7918450682
 20
34.836524908
 10
259.8168160549
 20
34.1721284941
 10
259.9407727022
 20
33.5795126121
 10
260.160149003
 20
33.0757257417
 10
260.4686339006
 20
32.6752609141
 10
260.8573528461
 20
32.3896387731
 10
261.3151231032
 20
32.2270761479
 10
261.8287754551
 20
32.1922496691
 10
262.3835330587
 20
32.286161231
 10
262.9634365479
 20
32.5061091692
 10
263.5518031552
 20
32.8457659817
 10
264.1317066444
 20
33.2953603607
 10
264.6864642481
 20
33.8419582942
 10
265.2001165999
 20
34.4698351551
 10
265.657886857
 20
35.1609280691
 10
266.0466058025
 20
35.8953555514
 10
266.3550907001
 20
36.6519894605
 10
266.5744670009
 20
37.4090628164
 10
266.6984236482
 20
38.1447959972
 10
266.7233946349
 20
38.8380232986
 10
266.6486615913
 20
39.4688018335
 10
266.4763744508
 20
40.0189852518
 10
266.2114896009
 20
40.4727457783
 10
265.8616272964
 20
40.8170295488
 10
265.4368524388
 20
41.0419321461
 10
264.9493850274
 20
41.1409835319
 10
264.4132486121
 20
41.1113341781
 10
263.8438668614
 20
40.9538370428
 10
263.2576198516
 20
40.6730230318
  0
LWPOLYLINE
  5
20F
330
1F
100
AcDbEntity
  8
0
  6
Continuous
 62
     7
370
    15
100
AcDbPolyline
 90
       11
 70
   128
 43
0.0
 10
261.3242119138
 20
34.447633171
 10
261.5825416362
 20
34.1315848767
 10
261.9233459612
 20
33.9403840078
 10
262.3298449549
 20
33.8834445818
 10
262.7820241235
 20
33.9635700837
 10
263.2576198516
 20
34.1768154326
 10
263.7332155796
 20
34.5126812231
 10
264.1853947482
 20
34.9546306766
 10
264.591893742
 20
35.4809038507
 10
264.9326980669
 20
36.0655890176
 10
265.1910277893
 20
36.6798984609
  0
LINE
  5
210
330
1F
100
AcDbEntity
  8
0
  6
Continuous
 62
     7
370
    15
100
AcDbLine
 10
265.1910277893
 20
36.6798984609
 30
0.0
 11
265.9446256201
 21
37.617366998
 31
0.0
  0
SPLINE
  5
211
330
1F
100
AcDbEntity
  8
0
  6
Continuous
 62
     7
370
    15
100
AcDbSpline
210
0.0
220
0.0
230
1.0
 70
     8
 71
     3
 72
    21
 73
    17
 74
     0
 42
0.000000001
 43
0.00000001
 40
0.0
 40
0.0
 40
0.0
 40
0.0
 40
0.0416666666666665
 40
0.0833333333333333
 40
0.1250000000000029
 40
0.1666666666666667
 40
0.2083333333333333
 40
0.2499999999976954
 40
0.3339999999999607
 40
0.418
 40
0.4330099753158395
 40
0.4330099753158395
 40
0.5019999999997409
 40
0.5859999999988201
 40
0.6699999999999805
 40
0.8156536847925594
 40
0.8156536847925594
 40
0.8156536847925594
 40
0.8156536847925594
 10
265.9446256200653
 20
37.61736699795372
 30
0.0
 10
265.9746020871602
 20
37.65465743803899
 30
0.0
 10
266.0327490355208
 20
37.73497044509843
 30
0.0
 10
266.1128152379403
 20
37.87291989454216
 30
0.0
 10
266.1806487057235
 20
38.02552684241777
 30
0.0
 10
266.2301826919975
 20
38.18642781800211
 30
0.0
 10
266.255603661953
 20
38.34637393638511
 30
0.0
 10
266.2514794346623
 20
38.54595493694858
 30
0.0
 10
266.1756159455899
 20
38.73617645302949
 30
0.0
 10
266.0330584766708
 20
38.80705161502937
 30
0.0
 10
265.9591903683462
 20
38.81846047485989
 30
0.0
 10
265.9000629364664
 20
38.82472052778341
 30
0.0
 10
265.8118298660193
 20
38.83069316308006
 30
0.0
 10
265.6786033904635
 20
38.84349384947347
 30
0.0
 10
265.5463595738535
 20
38.85504665142745
 30
0.0
 10
265.3387245428772
 20
38.87359689052756
 30
0.0
 10
265.1910746800687
 20
38.88681415642072
 30
0.0
  0
LWPOLYLINE
  5
212
330
1F
100
AcDbEntity
  8
0
  6
Continuous
 62
     7
370
    15
100
AcDbPolyline
 90
       11
 70
   128
 43
0.0
 10
265.1910746801
 20
38.8868141564
 10
264.9327513362
 20
39.2028998382
 10
264.5919434845
 20
39.3941292917
 10
264.1854327138
 20
39.4510862605
 10
263.7332358654
 20
39.3709661485
 10
263.257619391
 20
39.1577141193
 10
262.7820029393
 20
38.8218308344
 10
262.3298061578
 20
38.379855394
 10
261.923295495
 20
37.8535509415
 10
261.5824877868
 20
37.2688330328
 10
261.324164615
 20
36.6544935386
  0
SPLINE
  5
213
330
1F
100
AcDbEntity
  8
0
  6
Continuous
 62
     7
370
    15
100
AcDbSpline
210
0.0
220
0.0
230
1.0
 70
     8
 71
     3
 72
    21
 73
    17
 74
     0
 42
0.000000001
 43
0.00000001
 40
0.0
 40
0.0
 40
0.0
 40
0.0
 40
0.0416666666666665
 40
0.0833333333333333
 40
0.1250000000000029
 40
0.1666666666666667
 40
0.2083333333333333
 40
0.2499999999976954
 40
0.3339999999999607
 40
0.418
 40
0.4330099753158395
 40
0.4330099753158395
 40
0.5019999999997409
 40
0.5859999999988201
 40
0.6699999999999805
 40
0.8133971939531262
 40
0.8133971939531262
 40
0.8133971939531262
 40
0.8133971939531262
 10
260.5706140830487
 20
34.51501617302813
 30
0.0
 10
260.5415408365184
 20
34.5176157593729
 30
0.0
 10
260.4820714811314
 20
34.53091197114347
 30
0.0
 10
260.4025367869424
 20
34.57637142988717
 30
0.0
 10
260.3345608967767
 20
34.65067224382505
 30
0.0
 10
260.2850650918023
 20
34.75437913367206
 30
0.0
 10
260.259633819031
 20
34.88497555408105
 30
0.0
 10
260.2637621024328
 20
35.08931888281942
 30
0.0
 10
260.3396184136678
 20
35.36712378484128
 30
0.0
 10
260.4821929025425
 20
35.60261295629733
 30
0.0
 10
260.5560450831503
 20
35.69928823447721
 30
0.0
 10
260.6151584868729
 20
35.77379787731676
 30
0.0
 10
260.7033616957344
 20
35.88160520174024
 30
0.0
 10
260.8368863199602
 20
36.04859674954055
 30
0.0
 10
260.9667168953732
 20
36.20983493269242
 30
0.0
 10
261.1770036803089
 20
36.47141259963663
 30
0.0
 10
261.3241646149703
 20
36.65449353857666
 30
0.0
  0
LINE
  5
214
330
1F
100
AcDbEntity
  8
0
  6
Continuous
 62
     7
370
    15
100
AcDbLine
 10
261.3242119138
 20
34.447633171
 30
0.0
 11
260.570614083
 21
34.515016173
 31
0.0
  0
SPLINE
  5
215
330
1F
100
AcDbEntity
  8
0
  6
Continuous
 62
     7
370
    15
100
AcDbSpline
210
0.0
220
0.0
230
1.0
 70
     8
 71
     3
 72
     8
 73
     4
 74
     0
 42
0.000000001
 43
0.00000001
 40
0.0
 40
0.0
 40
0.0
 40
0.0
 40
1.0
 40
1.0
 40
1.0
 40
1.0
 10
218.2855082264677
 20
42.82409253745143
 30
0.0
 10
218.7523704521345
 20
42.44385095018949
 30
0.0
 10
219.219405236518
 20
42.07694430164664
 30
0.0
 10
219.6865303486933
 20
41.71701797605468
 30
0.0
  0
SPLINE
  5
216
330
1F
100
AcDbEntity
  8
0
  6
Continuous
 62
     7
370
    15
100
AcDbSpline
210
0.0
220
0.0
230
1.0
 70
     8
 71
     3
 72
    14
 73
    10
 74
     0
 42
0.000000001
 43
0.00000001
 40
0.0
 40
0.0
 40
0.0
 40
0.0
 40
0.125
 40
0.125
 40
0.25
 40
0.25
 40
0.5
 40
0.5
 40
1.0
 40
1.0
 40
1.0
 40
1.0
 10
219.6865303486933
 20
41.71701797605465
 30
0.0
 10
219.7129542873665
 20
41.69665796776903
 30
0.0
 10
219.7370182298714
 20
41.68114566445436
 30
0.0
 10
219.7732874872965
 20
41.664162295895
 30
0.0
 10
219.7853058622846
 20
41.66228805448907
 30
0.0
 10
219.810820108955
 20
41.66642889582431
 30
0.0
 10
219.8150137714031
 20
41.68137128388732
 30
0.0
 10
219.8161205811386
 20
41.73572262023247
 30
0.0
 10
219.80049259605
 20
41.78714358090848
 30
0.0
 10
219.7808398634164
 20
41.84349240849444
 30
0.0
  0
SPLINE
  5
217
330
1F
100
AcDbEntity
  8
0
  6
Continuous
 62
     7
370
    15
100
AcDbSpline
210
0.0
220
0.0
230
1.0
 70
     8
 71
     3
 72
    14
 73
    10
 74
     0
 42
0.000000001
 43
0.00000001
 40
0.0
 40
0.0
 40
0.0
 40
0.0
 40
0.25
 40
0.25
 40
0.5
 40
0.5
 40
0.75
 40
0.75
 40
1.0
 40
1.0
 40
1.0
 40
1.0
 10
219.7808398634159
 20
41.8434924084948
 30
0.0
 10
219.756174015478
 20
41.91421497103261
 30
0.0
 10
219.7453111447535
 20
41.97728126878282
 30
0.0
 10
219.7233607775587
 20
42.10884800974142
 30
0.0
 10
219.7130891827397
 20
42.1768013487331
 30
0.0
 10
219.6837851683811
 20
42.32540635257654
 30
0.0
 10
219.6649924971514
 20
42.4058701590074
 30
0.0
 10
219.6120731926352
 20
42.58544103282173
 30
0.0
 10
219.5779940154563
 20
42.6842720787496
 30
0.0
 10
219.5339077631785
 20
42.79187213372887
 30
0.0
  0
LWPOLYLINE
  5
218
330
1F
100
AcDbEntity
  8
0
  6
Continuous
 62
     7
370
    15
100
AcDbPolyline
 90
        9
 70
   128
 43
0.0
 10
219.5339077632
 20
42.7918721337
 10
219.1658278393
 20
43.8630176732
 10
218.9006984504
 20
45.0270203928
 10
218.7407310428
 20
46.2741713369
 10
218.6872599059
 20
47.5940680098
 10
218.7407310428
 20
48.9757011434
 10
218.9006984504
 20
50.4075465249
 10
219.1658278393
 20
51.8776611212
 10
219.5339077632
 20
53.3737826949
  0
SPLINE
  5
219
330
1F
100
AcDbEntity
  8
0
  6
Continuous
 62
     7
370
    15
100
AcDbSpline
210
0.0
220
0.0
230
1.0
 70
     8
 71
     3
 72
    14
 73
    10
 74
     0
 42
0.000000001
 43
0.00000001
 40
0.0
 40
0.0
 40
0.0
 40
0.0
 40
0.25
 40
0.25
 40
0.5
 40
0.5
 40
0.75
 40
0.75
 40
1.0
 40
1.0
 40
1.0
 40
1.0
 10
219.7808398634159
 20
55.42728280780332
 30
0.0
 10
219.756174015478
 20
55.25561027631046
 30
0.0
 10
219.7453111447535
 20
55.08063054413486
 30
0.0
 10
219.7233607775587
 20
54.73182404049367
 30
0.0
 10
219.7130891827397
 20
54.55760994855788
 30
0.0
 10
219.6837851683811
 20
54.21155903660679
 30
0.0
 10
219.6649924971514
 20
54.03967618269154
 30
0.0
 10
219.6120731926352
 20
53.69964451379732
 30
0.0
 10
219.5779940154563
 20
53.5322836533002
 30
0.0
 10
219.5339077631785
 20
53.37378269489724
 30
0.0
  0
SPLINE
  5
21A
330
1F
100
AcDbEntity
  8
0
  6
Continuous
 62
     7
370
    15
100
AcDbSpline
210
0.0
220
0.0
230
1.0
 70
     8
 71
     3
 72
    14
 73
    10
 74
     0
 42
0.000000001
 43
0.00000001
 40
0.0
 40
0.0
 40
0.0
 40
0.0
 40
0.1249999999999983
 40
0.1249999999999983
 40
0.2499999999999966
 40
0.2499999999999966
 40
0.4999999999999978
 40
0.4999999999999978
 40
1.0
 40
1.0
 40
1.0
 40
1.0
 10
219.6865303486934
 20
56.17602655144599
 30
0.0
 10
219.7129542873666
 20
56.17172025217378
 30
0.0
 10
219.7370182298714
 20
56.15583674563337
 30
0.0
 10
219.7732874872965
 20
56.10669217274197
 30
0.0
 10
219.7853058622847
 20
56.07568081738962
 30
0.0
 10
219.810820108955
 20
55.97882227552218
 30
0.0
 10
219.8150137714031
 20
55.90854165464604
 30
0.0
 10
219.8161205811386
 20
55.70214025256816
 30
0.0
 10
219.80049259605
 20
55.56406441654599
 30
0.0
 10
219.7808398634164
 20
55.42728280780323
 30
0.0
  0
SPLINE
  5
21B
330
1F
100
AcDbEntity
  8
0
  6
Continuous
 62
     7
370
    15
100
AcDbSpline
210
0.0
220
0.0
230
1.0
 70
     8
 71
     3
 72
     8
 73
     4
 74
     0
 42
0.000000001
 43
0.00000001
 40
0.0
 40
0.0
 40
0.0
 40
0.0
 40
1.0
 40
1.0
 40
1.0
 40
1.0
 10
218.2855082264677
 20
56.34523944533094
 30
0.0
 10
218.7523704521346
 20
56.31314969126564
 30
0.0
 10
219.219405236518
 20
56.25215375395997
 30
0.0
 10
219.6865303486934
 20
56.17602655144598
 30
0.0
  0
SPLINE
  5
21C
330
1F
100
AcDbEntity
  8
0
  6
Continuous
 62
     7
370
    15
100
AcDbSpline
210
0.0
220
0.0
230
1.0
 70
     8
 71
     3
 72
    14
 73
    10
 74
     0
 42
0.000000001
 43
0.00000001
 40
0.0
 40
0.0
 40
0.0
 40
0.0
 40
0.4999999999999972
 40
0.4999999999999972
 40
0.7499999999999971
 40
0.7499999999999971
 40
0.8749999999999986
 40
0.8749999999999986
 40
1.0
 40
1.0
 40
1.0
 40
1.0
 10
215.4409708492497
 20
57.26982132149315
 30
0.0
 10
215.9060053819647
 20
57.07347607223232
 30
0.0
 10
216.3728613032463
 20
56.88582356076427
 30
0.0
 10
217.0798876888508
 20
56.63580560381983
 30
0.0
 10
217.3166726717419
 20
56.55764434602099
 30
0.0
 10
217.6754533098735
 20
56.45707708062601
 30
0.0
 10
217.7956521338746
 20
56.42635558437438
 30
0.0
 10
218.0382542319843
 20
56.37508087798982
 30
0.0
 10
218.1605059895732
 20
56.35383146845684
 30
0.0
 10
218.2855082264677
 20
56.34523944533089
 30
0.0
  0
SPLINE
  5
21D
330
1F
100
AcDbEntity
  8
0
  6
Continuous
 62
     7
370
    15
100
AcDbSpline
210
0.0
220
0.0
230
1.0
 70
     8
 71
     3
 72
    14
 73
    10
 74
     0
 42
0.000000001
 43
0.00000001
 40
0.0
 40
0.0
 40
0.0
 40
0.0
 40
0.4999999999999986
 40
0.4999999999999986
 40
0.7499999999999978
 40
0.7499999999999978
 40
0.8749999999999989
 40
0.8749999999999989
 40
1.0
 40
1.0
 40
1.0
 40
1.0
 10
215.4409708492497
 20
44.94687734561876
 30
0.0
 10
215.9060053819647
 20
44.61203202938039
 30
0.0
 10
216.3728613032463
 20
44.27324385430886
 30
0.0
 10
217.0798876888508
 20
43.75094810727612
 30
0.0
 10
217.3166726717419
 20
43.57452639918575
 30
0.0
 10
217.6754533098735
 20
43.30244424766681
 30
0.0
 10
217.7956521338746
 20
43.2104988863099
 30
0.0
 10
218.0382542319843
 20
43.02207286547959
 30
0.0
 10
218.1605059895732
 20
42.92590212142494
 30
0.0
 10
218.2855082264677
 20
42.82409253745145
 30
0.0
  0
SPLINE
  5
21E
330
1F
100
AcDbEntity
  8
0
  6
Continuous
 62
     7
370
    15
100
AcDbSpline
210
0.0
220
0.0
230
1.0
 70
     8
 71
     3
 72
    17
 73
    13
 74
     0
 42
0.000000001
 43
0.00000001
 40
0.0
 40
0.0
 40
0.0
 40
0.0
 40
0.1228850510116205
 40
0.2462026108941776
 40
0.369496116034066
 40
0.4923283167538088
 40
0.6144707776350395
 40
0.6760087745498442
 40
0.7367889456244195
 40
0.8587733475788747
 40
0.9813261090344212
 40
1.0
 40
1.0
 40
1.0
 40
1.0
 10
223.8992143834167
 20
42.50310130239591
 30
0.0
 10
223.6954456477136
 20
42.876990904456
 30
0.0
 10
223.2871909874785
 20
43.62608605846846
 30
0.0
 10
223.0939233772503
 20
44.77440456713272
 30
0.0
 10
223.2992858834183
 20
45.72674319430719
 30
0.0
 10
223.858574615471
 20
46.36020944092487
 30
0.0
 10
224.5344720047127
 20
46.50151711171483
 30
0.0
 10
225.1093576829141
 20
46.37532248639767
 30
0.0
 10
225.6896102606417
 20
46.08725477886687
 30
0.0
 10
226.3530824419024
 20
45.42855520609061
 30
0.0
 10
226.8616747007952
 20
44.6582177611506
 30
0.0
 10
227.0072645550733
 20
44.19476523862549
 30
0.0
 10
227.0265153764861
 20
44.13348458284991
 30
0.0
  0
SPLINE
  5
21F
330
1F
100
AcDbEntity
  8
0
  6
Continuous
 62
     7
370
    15
100
AcDbSpline
210
0.0
220
0.0
230
1.0
 70
     8
 71
     3
 72
    12
 73
     8
 74
     0
 42
0.000000001
 43
0.00000001
 40
0.0
 40
0.0
 40
0.0
 40
0.0
 40
0.0356378841915162
 40
0.3562120584707482
 40
0.5161795263335499
 40
0.6782957129077978
 40
1.0
 40
1.0
 40
1.0
 40
1.0
 10
226.4029727060905
 20
40.47098364387902
 30
0.0
 10
226.3800930702863
 20
40.46710195112912
 30
0.0
 10
226.151403787749
 20
40.42830318975023
 30
0.0
 10
225.6773926662167
 20
40.69191289133428
 30
0.0
 10
225.1086815688796
 20
41.10136032376457
 30
0.0
 10
224.5252355355886
 20
41.63758223913201
 30
0.0
 10
224.1492298991091
 20
42.15743695192977
 30
0.0
 10
223.8992143834167
 20
42.50310130239591
 30
0.0
  0
SPLINE
  5
220
330
1F
100
AcDbEntity
  8
0
  6
Continuous
 62
     7
370
    15
100
AcDbSpline
210
0.0
220
0.0
230
1.0
 70
     8
 71
     3
 72
    14
 73
    10
 74
     0
 42
0.000000001
 43
0.00000001
 40
0.0
 40
0.0
 40
0.0
 40
0.0
 40
0.25
 40
0.25
 40
0.5
 40
0.5
 40
0.75
 40
0.75
 40
1.0
 40
1.0
 40
1.0
 40
1.0
 10
271.0145087116978
 20
48.10443718480744
 30
0.0
 10
271.0611907480364
 20
48.07748821885401
 30
0.0
 10
271.0988773626424
 20
48.04438149470289
 30
0.0
 10
271.1477488413969
 20
47.97377292164036
 30
0.0
 10
271.1598500717967
 20
47.93527734725028
 30
0.0
 10
271.1576804602415
 20
47.8593192330549
 30
0.0
 10
271.1434400461595
 20
47.82112552546254
 30
0.0
 10
271.0915886035699
 20
47.75113087653747
 30
0.0
 10
271.0538820634662
 20
47.71896288105569
 30
0.0
 10
271.0070646327489
 20
47.6919357535911
 30
0.0
  0
ARC
  5
221
330
1F
100
AcDbEntity
  8
0
  6
Continuous
 62
     7
370
    15
100
AcDbCircle
 10
245.4838479491
 20
27.966683595
 30
0.0
 40
8.57448653718491
100
AcDbArc
 50
219.7751913043
 51
260.015632353
  0
SPLINE
  5
222
330
1F
100
AcDbEntity
  8
0
  6
Continuous
 62
     7
370
    15
100
AcDbSpline
210
0.0
220
0.0
230
1.0
 70
     8
 71
     3
 72
    14
 73
    10
 74
     0
 42
0.000000001
 43
0.00000001
 40
0.0
 40
0.0
 40
0.0
 40
0.0
 40
0.25
 40
0.25
 40
0.5
 40
0.5
 40
0.75
 40
0.75
 40
1.0
 40
1.0
 40
1.0
 40
1.0
 10
236.4494362750283
 20
27.74217519382872
 30
0.0
 10
236.496657438452
 20
27.71491499643389
 30
0.0
 10
236.5529441978833
 20
27.69363306490973
 30
0.0
 10
236.6763735459566
 20
27.66527843507861
 30
0.0
 10
236.7430268694166
 20
27.65843505273845
 30
0.0
 10
236.8751517463583
 20
27.65991716836765
 30
0.0
 10
236.941511102343
 20
27.66830770005384
 30
0.0
 10
237.0627653344637
 20
27.69842602352522
 30
0.0
 10
237.118876436941
 20
27.72043071736603
 30
0.0
 10
237.1656110104684
 20
27.74741001239298
 30
0.0
  0
SPLINE
  5
223
330
1F
100
AcDbEntity
  8
0
  6
Continuous
 62
     7
370
    15
100
AcDbSpline
210
0.0
220
0.0
230
1.0
 70
     8
 71
     3
 72
    11
 73
     7
 74
     0
 42
0.000000001
 43
0.00000001
 40
0.0
 40
0.0
 40
0.0
 40
0.0
 40
0.3176374646799973
 40
0.6352804794095759
 40
0.9529670978544931
 40
1.0
 40
1.0
 40
1.0
 40
1.0
 10
260.4999034049294
 20
34.77890640706397
 30
0.0
 10
260.4573780176377
 20
34.78936563224566
 30
0.0
 10
260.3723265000123
 20
34.81028426536212
 30
0.0
 10
260.2935406040121
 20
34.92656784859485
 30
0.0
 10
260.2558411904002
 20
35.03706352098227
 30
0.0
 10
260.2645656445239
 20
35.10991507705032
 30
0.0
 10
260.2656907183791
 20
35.11930974861095
 30
0.0
  0
LINE
  5
224
330
1F
100
AcDbEntity
  8
0
  6
Continuous
 62
     7
370
    15
100
AcDbLine
 10
260.4999034049
 20
34.7789064071
 30
0.0
 11
260.570614083
 21
34.515016173
 31
0.0
  0
ARC
  5
225
330
1F
100
AcDbEntity
  8
0
  6
Continuous
 62
     7
370
    15
100
AcDbCircle
 10
259.9403477052
 20
37.7735309976
 30
0.0
 40
1.779661224686746
100
AcDbArc
 50
321.0389156466
 51
328.1323842619
  0
LINE
  5
226
330
1F
100
AcDbEntity
  8
0
  6
Continuous
 62
     7
370
    15
100
AcDbLine
 10
234.7919882404
 20
28.6989995777
 30
0.0
 11
236.449436275
 21
27.7421751938
 31
0.0
  0
SPLINE
  5
227
330
1F
100
AcDbEntity
  8
0
  6
Continuous
 62
     7
370
    15
100
AcDbSpline
210
0.0
220
0.0
230
1.0
 70
     8
 71
     3
 72
     8
 73
     4
 74
     0
 42
0.000000001
 43
0.00000001
 40
0.0
 40
0.0
 40
0.0
 40
0.0
 40
1.0
 40
1.0
 40
1.0
 40
1.0
 10
235.1637766014312
 20
29.46553216004173
 30
0.0
 10
235.0395984335462
 20
29.21006136081565
 30
0.0
 10
234.9156807334044
 20
28.95454851414269
 30
0.0
 10
234.7919882403722
 20
28.69899957765603
 30
0.0
  0
LINE
  5
228
330
1F
100
AcDbEntity
  8
0
  6
Continuous
 62
     7
370
    15
100
AcDbLine
 10
235.4848771512
 20
29.6508995617
 30
0.0
 11
235.1637766014
 21
29.46553216
 31
0.0
  0
SPLINE
  5
229
330
1F
100
AcDbEntity
  8
0
  6
Continuous
 62
     7
370
    15
100
AcDbSpline
210
0.0
220
0.0
230
1.0
 70
     8
 71
     3
 72
    12
 73
     8
 74
     0
 42
0.000000001
 43
0.00000001
 40
0.0
 40
0.0
 40
0.0
 40
0.0
 40
0.2499999999999986
 40
0.2499999999999986
 40
0.4999999999999971
 40
0.4999999999999971
 40
1.0
 40
1.0
 40
1.0
 40
1.0
 10
235.4931868311741
 20
29.98225988263669
 30
0.0
 10
235.530578868757
 20
29.96067391881025
 30
0.0
 10
235.5607893420745
 20
29.93403306602019
 30
0.0
 10
235.5996887120839
 20
29.87705486271438
 30
0.0
 10
235.6090190780139
 20
29.84616329303757
 30
0.0
 10
235.6054140145999
 20
29.7546069514755
 30
0.0
 10
235.5598089896884
 20
29.69415679137048
 30
0.0
 10
235.4848771511616
 20
29.65089956174501
 30
0.0
  0
LINE
  5
22A
330
1F
100
AcDbEntity
  8
0
  6
Continuous
 62
     7
370
    15
100
AcDbLine
 10
234.7082983041
 20
30.4353663847
 30
0.0
 11
235.4931868312
 21
29.9822598826
 31
0.0
  0
SPLINE
  5
22B
330
1F
100
AcDbEntity
  8
0
  6
Continuous
 62
     7
370
    15
100
AcDbSpline
210
0.0
220
0.0
230
1.0
 70
     8
 71
     3
 72
    14
 73
    10
 74
     0
 42
0.000000001
 43
0.00000001
 40
0.0
 40
0.0
 40
0.0
 40
0.0
 40
0.25
 40
0.25
 40
0.5
 40
0.5
 40
0.75
 40
0.75
 40
1.0
 40
1.0
 40
1.0
 40
1.0
 10
234.1343031990953
 20
30.43056930853574
 30
0.0
 10
234.1721489968738
 20
30.45241722254734
 30
0.0
 10
234.2164679140218
 20
30.46978986733626
 30
0.0
 10
234.3141694505738
 20
30.49415134202813
 30
0.0
 10
234.3669225821857
 20
30.50086530655968
 30
0.0
 10
234.4728759394141
 20
30.50222275614569
 30
0.0
 10
234.5262402257094
 20
30.49684505500661
 30
0.0
 10
234.6254180004812
 20
30.47420411149076
 30
0.0
 10
234.6704248938824
 20
30.45723023900689
 30
0.0
 10
234.7082983040571
 20
30.43536638469829
 30
0.0
  0
LINE
  5
22C
330
1F
100
AcDbEntity
  8
0
  6
Continuous
 62
     7
370
    15
100
AcDbLine
 10
233.8132026494
 20
30.2452019068
 30
0.0
 11
234.1343031991
 21
30.4305693085
 31
0.0
  0
SPLINE
  5
22D
330
1F
100
AcDbEntity
  8
0
  6
Continuous
 62
     7
370
    15
100
AcDbSpline
210
0.0
220
0.0
230
1.0
 70
     8
 71
     3
 72
     8
 73
     4
 74
     0
 42
0.000000001
 43
0.00000001
 40
0.0
 40
0.0
 40
0.0
 40
0.0
 40
1.0
 40
1.0
 40
1.0
 40
1.0
 10
232.4853853992514
 20
30.03057305449668
 30
0.0
 10
232.9280571054678
 20
30.10197921080139
 30
0.0
 10
233.3706662955195
 20
30.17351537640316
 30
0.0
 10
233.8132026493648
 20
30.24520190683241
 30
0.0
  0
LINE
  5
22E
330
1F
100
AcDbEntity
  8
0
  6
Continuous
 62
     7
370
    15
100
AcDbLine
 10
231.8532421973
 20
30.3955015573
 30
0.0
 11
233.5768127113
 21
31.3904976359
 31
0.0
  0
LINE
  5
22F
330
1F
100
AcDbEntity
  8
0
  6
Continuous
 62
     7
370
    15
100
AcDbLine
 10
269.5685478736
 20
48.9391726088
 30
0.0
 11
271.0145087117
 21
48.1044371848
 31
0.0
  0
ARC
  5
230
330
1F
100
AcDbEntity
  8
0
  6
Continuous
 62
     7
370
    15
100
AcDbCircle
 10
245.1797257799
 20
30.3753404366
 30
0.0
 40
10.5221295309541
100
AcDbArc
 50
189.1671816022
 51
237.5734356253
  0
SPLINE
  5
231
330
1F
100
AcDbEntity
  8
0
  6
Continuous
 62
     7
370
    15
100
AcDbSpline
210
0.0
220
0.0
230
1.0
 70
     8
 71
     3
 72
    16
 73
    12
 74
     0
 42
0.000000001
 43
0.00000001
 40
0.0
 40
0.0
 40
0.0
 40
0.0
 40
0.2500000000000034
 40
0.2500000000000034
 40
0.5000000000000068
 40
0.5000000000000068
 40
0.6250000000000084
 40
0.6250000000000084
 40
0.7500000000000102
 40
0.7500000000000102
 40
1.0
 40
1.0
 40
1.0
 40
1.0
 10
265.1910746800687
 20
38.88681415642071
 30
0.0
 10
265.1666321548453
 20
38.88900219336727
 30
0.0
 10
265.1400608651001
 20
38.89002703420709
 30
0.0
 10
265.0793602262768
 20
38.88794587394099
 30
0.0
 10
265.0448078007141
 20
38.88498062170247
 30
0.0
 10
264.9867338841945
 20
38.87267058513929
 30
0.0
 10
264.966719729981
 20
38.86713394804951
 30
0.0
 10
264.930844091429
 20
38.85410595518168
 30
0.0
 10
264.9150568106344
 20
38.84667300988384
 30
0.0
 10
264.8768889569823
 20
38.82499792432276
 30
0.0
 10
264.86140474542
 20
38.81103015447504
 30
0.0
 10
264.8495308368097
 20
38.797855208128
 30
0.0
  0
SPLINE
  5
232
330
1F
100
AcDbEntity
  8
0
  6
Continuous
 62
     7
370
    15
100
AcDbSpline
210
0.0
220
0.0
230
1.0
 70
     8
 71
     3
 72
     8
 73
     4
 74
     0
 42
0.000000001
 43
0.00000001
 40
0.0
 40
0.0
 40
0.0
 40
0.0
 40
1.0
 40
1.0
 40
1.0
 40
1.0
 10
264.8495308368096
 20
38.79785520812796
 30
0.0
 10
264.8166448561503
 20
38.81100124941814
 30
0.0
 10
264.7845074321701
 20
38.8257391296578
 30
0.0
 10
264.7590336608765
 20
38.84044482480601
 30
0.0
  0
LINE
  5
233
330
1F
100
AcDbEntity
  8
0
  6
Continuous
 62
     7
370
    15
100
AcDbLine
 10
264.4203760746
 20
39.1713604972
 30
0.0
 11
264.3669827589
 21
39.1998780078
 31
0.0
  0
LWPOLYLINE
  5
234
330
1F
100
AcDbEntity
  8
0
  6
Continuous
 62
     7
370
    15
100
AcDbPolyline
 90
       13
 70
   128
 43
0.0
 10
262.1790717416
 20
41.2835634063
 10
262.28056982
 20
41.3879535135
 10
262.3471752291
 20
41.5812571512
 10
262.28056982
 20
41.7745607889
 10
262.0908936626
 20
41.9384357001
 10
261.8070232324
 20
42.0479334151
 10
261.4721752291
 20
42.0863838993
 10
261.1373272257
 20
42.0479334151
 10
260.8534567955
 20
41.9384357001
 10
260.6637806381
 20
41.7745607889
 10
260.5971752291
 20
41.5812571512
 10
260.6637806381
 20
41.3879535135
 10
260.6684064997
 20
41.3816283979
  0
LINE
  5
235
330
1F
100
AcDbEntity
  8
0
  6
Continuous
 62
     7
370
    15
100
AcDbLine
 10
264.022859605
 20
39.2654290612
 30
0.0
 11
264.7590336609
 21
38.8404448248
 31
0.0
  0
ARC
  5
236
330
1F
100
AcDbEntity
  8
0
  6
Continuous
 62
     7
370
    15
100
AcDbCircle
 10
259.5679921628
 20
39.062115157
 30
0.0
 40
3.549494718035866
100
AcDbArc
 50
339.1568466117
 51
358.3093926186
  0
LINE
  5
237
330
1F
100
AcDbEntity
  8
0
  6
Continuous
 62
     7
370
    15
100
AcDbLine
 10
262.8852006907
 20
37.7991660939
 30
0.0
 11
264.7590336609
 21
36.7174253458
 31
0.0
  0
LINE
  5
238
330
1F
100
AcDbEntity
  8
0
  6
Continuous
 62
     7
370
    15
100
AcDbLine
 10
261.6705995598
 20
34.4080917541
 30
0.0
 11
261.7239794403
 21
34.3795808601
 31
0.0
  0
LINE
  5
239
330
1F
100
AcDbEntity
  8
0
  6
Continuous
 62
     7
370
    15
100
AcDbLine
 10
260.3513428784
 20
35.3050952346
 30
0.0
 11
261.3319419735
 21
34.7390074265
 31
0.0
  0
LINE
  5
23A
330
1F
100
AcDbEntity
  8
0
  6
Continuous
 62
     7
370
    15
100
AcDbLine
 10
227.8881390102
 20
36.2712408287
 30
0.0
 11
230.0412788053
 21
37.5142219748
 31
0.0
  0
LINE
  5
23B
330
1F
100
AcDbEntity
  8
0
  6
Continuous
 62
     7
370
    15
100
AcDbLine
 10
261.3828661539
 20
34.6999562319
 30
0.0
 11
260.4999034049
 21
34.7789064071
 31
0.0
  0
SPLINE
  5
23C
330
1F
100
AcDbEntity
  8
0
  6
Continuous
 62
     7
370
    15
100
AcDbSpline
210
0.0
220
0.0
230
1.0
 70
     8
 71
     3
 72
    16
 73
    12
 74
     0
 42
0.000000001
 43
0.00000001
 40
0.0
 40
0.0
 40
0.0
 40
0.0
 40
0.2499999999999952
 40
0.2499999999999952
 40
0.4999999999999905
 40
0.4999999999999905
 40
0.6249999999999892
 40
0.6249999999999892
 40
0.7499999999999881
 40
0.7499999999999881
 40
1.0
 40
1.0
 40
1.0
 40
1.0
 10
261.324211913764
 20
34.44763317099106
 30
0.0
 10
261.3485379255447
 20
34.44545805896902
 30
0.0
 10
261.3723495147525
 20
34.44630499451124
 30
0.0
 10
261.4152875248677
 20
34.45882051195716
 30
0.0
 10
261.4357516514195
 20
34.47066098673452
 30
0.0
 10
261.4518579122769
 20
34.50673351161104
 30
0.0
 10
261.4544642628243
 20
34.52232059018966
 30
0.0
 10
261.4516675328214
 20
34.55789584430582
 30
0.0
 10
261.4464502755561
 20
34.57724475481625
 30
0.0
 10
261.4252115668129
 20
34.63289450685468
 30
0.0
 10
261.4044062957562
 20
34.6677316322567
 30
0.0
 10
261.3828661538924
 20
34.69995623193461
 30
0.0
  0
SPLINE
  5
23D
330
1F
100
AcDbEntity
  8
0
  6
Continuous
 62
     7
370
    15
100
AcDbSpline
210
0.0
220
0.0
230
1.0
 70
     8
 71
     3
 72
     8
 73
     4
 74
     0
 42
0.000000001
 43
0.00000001
 40
0.0
 40
0.0
 40
0.0
 40
0.0
 40
1.0
 40
1.0
 40
1.0
 40
1.0
 10
261.3319419735254
 20
34.73900742646398
 30
0.0
 10
261.3573680319104
 20
34.7243292753916
 30
0.0
 10
261.373916128342
 20
34.71096102108072
 30
0.0
 10
261.3828661538927
 20
34.69995623193446
 30
0.0
  0
SPLINE
  5
23E
330
1F
100
AcDbEntity
  8
0
  6
Continuous
 62
     7
370
    15
100
AcDbSpline
210
0.0
220
0.0
230
1.0
 70
     8
 71
     3
 72
     8
 73
     4
 74
     0
 42
0.000000001
 43
0.00000001
 40
0.0
 40
0.0
 40
0.0
 40
0.0
 40
1.0
 40
1.0
 40
1.0
 40
1.0
 10
264.7590336608765
 20
36.71742534576229
 30
0.0
 10
264.7844597192613
 20
36.70274719468997
 30
0.0
 10
264.8166481334544
 20
36.69840790363597
 30
0.0
 10
264.8495308367471
 20
36.70121915526751
 30
0.0
  0
SPLINE
  5
23F
330
1F
100
AcDbEntity
  8
0
  6
Continuous
 62
     7
370
    15
100
AcDbSpline
210
0.0
220
0.0
230
1.0
 70
     8
 71
     3
 72
    16
 73
    12
 74
     0
 42
0.000000001
 43
0.00000001
 40
0.0
 40
0.0
 40
0.0
 40
0.0
 40
0.2499999999999995
 40
0.2499999999999995
 40
0.3749999999999988
 40
0.3749999999999988
 40
0.4999999999999981
 40
0.4999999999999981
 40
0.749999999999999
 40
0.749999999999999
 40
1.0
 40
1.0
 40
1.0
 40
1.0
 10
264.8495308367469
 20
36.70121915526788
 30
0.0
 10
264.8612429933279
 20
36.66339515247366
 30
0.0
 10
264.8767012585066
 20
36.62546134151892
 30
0.0
 10
264.914116135213
 20
36.57963808106489
 30
0.0
 10
264.9295289441655
 20
36.56618032982647
 30
0.0
 10
264.9655664664932
 20
36.5495581588358
 30
0.0
 10
264.9855840770743
 20
36.54691444794685
 30
0.0
 10
265.043318226157
 20
36.55316488602255
 30
0.0
 10
265.0785280638427
 20
36.57352718485744
 30
0.0
 10
265.13978940136
 20
36.62123298035799
 30
0.0
 10
265.1664940919433
 20
36.64937877452787
 30
0.0
 10
265.1910277893499
 20
36.6798984608641
 30
0.0
  0
ARC
  5
240
330
1F
100
AcDbEntity
  8
0
  6
Continuous
 62
     7
370
    15
100
AcDbCircle
 10
245.4395708687
 20
32.7572140474
 30
0.0
 40
11.8946476604708
100
AcDbArc
 50
192.1920072326
 51
214.8828158913
  0
LINE
  5
241
330
1F
100
AcDbEntity
  8
0
  6
Continuous
 62
     7
370
    15
100
AcDbLine
 10
265.9446256201
 20
37.617366998
 30
0.0
 11
265.7324935857
 21
37.7996164208
 31
0.0
  0
SPLINE
  5
242
330
1F
100
AcDbEntity
  8
0
  6
Continuous
 62
     7
370
    15
100
AcDbSpline
210
0.0
220
0.0
230
1.0
 70
     8
 71
     3
 72
    20
 73
    16
 74
     0
 42
0.000000001
 43
0.00000001
 40
0.0
 40
0.0
 40
0.0
 40
0.0
 40
0.1250000000000001
 40
0.1250000000000001
 40
0.2500000000000003
 40
0.2500000000000003
 40
0.5000000000000002
 40
0.5000000000000002
 40
0.6250000000000002
 40
0.6250000000000002
 40
0.7500000000000001
 40
0.7500000000000001
 40
0.8750000000000001
 40
0.8750000000000001
 40
1.0
 40
1.0
 40
1.0
 40
1.0
 10
265.7324935857099
 20
37.79961642080798
 30
0.0
 10
265.7675571305482
 20
37.84323513724399
 30
0.0
 10
265.7992754872105
 20
37.88959700310769
 30
0.0
 10
265.8552911914756
 20
37.98817416370699
 30
0.0
 10
265.8793828500843
 20
38.04022961522358
 30
0.0
 10
265.9367951917764
 20
38.19596368198601
 30
0.0
 10
265.9557515222588
 20
38.30267357778692
 30
0.0
 10
265.9537515032919
 20
38.44332422654638
 30
0.0
 10
265.948202189067
 20
38.48622049015342
 30
0.0
 10
265.9279788163281
 20
38.56369226076514
 30
0.0
 10
265.9133113015539
 20
38.59742659660205
 30
0.0
 10
265.8757571163928
 20
38.65297523497395
 30
0.0
 10
265.8525097798762
 20
38.67514125714551
 30
0.0
 10
265.7986751590541
 20
38.70629502698701
 30
0.0
 10
265.7675630893439
 20
38.71576929624533
 30
0.0
 10
265.732493541534
 20
38.71890505852748
 30
0.0
  0
LWPOLYLINE
  5
243
330
1F
100
AcDbEntity
  8
0
  6
Continuous
 62
     7
370
    15
100
AcDbPolyline
 90
        4
 70
   128
 43
0.0
 10
265.7324935415
 20
38.7189050585
 10
265.4701178309
 20
38.7423653795
 10
265.2077420828
 20
38.765825722
 10
264.8495308368
 20
38.7978552081
  0
SPLINE
  5
244
330
1F
100
AcDbEntity
  8
0
  6
Continuous
 62
     7
370
    15
100
AcDbSpline
210
0.0
220
0.0
230
1.0
 70
     8
 71
     3
 72
    21
 73
    17
 74
     0
 42
0.000000001
 43
0.00000001
 40
0.0
 40
0.0
 40
0.0
 40
0.0
 40
0.0477287229189209
 40
0.1095183885042634
 40
0.1722376582800025
 40
0.292180739821581
 40
0.3530592912853641
 40
0.4148184914701521
 40
0.5351101424398377
 40
0.5961419588527737
 40
0.6580330751832
 40
0.7802158528118331
 40
0.8422228749772322
 40
0.9051255671763218
 40
0.9661157726013613
 40
1.0
 40
1.0
 40
1.0
 40
1.0
 10
225.300371120689
 20
46.1717978572152
 30
0.0
 10
225.2881353566447
 20
46.12463270888922
 30
0.0
 10
225.2600591568577
 20
46.01640749936495
 30
0.0
 10
225.2498803142601
 20
45.82740725040025
 30
0.0
 10
225.2513032608435
 20
45.55379501671302
 30
0.0
 10
225.2902059126362
 20
45.26742542637763
 30
0.0
 10
225.3615116929929
 20
44.97724541370756
 30
0.0
 10
225.454852782019
 20
44.68446041869189
 30
0.0
 10
225.5794802977309
 20
44.39071294474098
 30
0.0
 10
225.7311878632742
 20
44.10235926378703
 30
0.0
 10
225.9010863943467
 20
43.81685822158471
 30
0.0
 10
226.0952883722405
 20
43.53999700327359
 30
0.0
 10
226.3078222246666
 20
43.27738821934457
 30
0.0
 10
226.4756558668716
 20
43.08911979977296
 30
0.0
 10
226.622696765682
 20
42.93601606497706
 30
0.0
 10
226.7139376944017
 20
42.85131640766702
 30
0.0
 10
226.7465242225609
 20
42.82106608243753
 30
0.0
  0
LINE
  5
245
330
1F
100
AcDbEntity
  8
0
  6
Continuous
 62
     7
370
    15
100
AcDbLine
 10
264.8495308367
 20
36.7012191553
 30
0.0
 11
265.7324935857
 21
37.7996164208
 31
0.0
  0
LINE
  5
246
330
1F
100
AcDbEntity
  8
0
  6
Continuous
 62
     7
370
    15
100
AcDbLine
 10
262.8852006907
 20
37.7991660939
 30
0.0
 11
263.7879499374
 21
38.9221775746
 31
0.0
  0
LINE
  5
247
330
1F
100
AcDbEntity
  8
0
  6
Continuous
 62
     7
370
    15
100
AcDbLine
 10
263.7879499374
 20
38.9221775746
 30
0.0
 11
265.7324935857
 21
37.7996164208
 31
0.0
  0
ARC
  5
248
330
1F
100
AcDbEntity
  8
0
  6
Continuous
 62
     7
370
    15
100
AcDbCircle
 10
262.9322449508
 20
39.6101957425
 30
0.0
 40
1.097998189277842
100
AcDbArc
 50
321.199443072
 51
342.0032557254
  0
SPLINE
  5
249
330
1F
100
AcDbEntity
  8
0
  6
Continuous
 62
     7
370
    15
100
AcDbSpline
210
0.0
220
0.0
230
1.0
 70
     8
 71
     3
 72
    15
 73
    11
 74
     0
 42
0.000000001
 43
0.00000001
 40
0.0
 40
0.0
 40
0.0
 40
0.0
 40
0.1886106556571768
 40
0.3628651427578188
 40
0.522866378783597
 40
0.6687520192194102
 40
0.7448773574937766
 40
0.8260780958713224
 40
0.9123747353509
 40
0.9999999999999999
 40
0.9999999999999999
 40
0.9999999999999999
 40
0.9999999999999999
 10
224.1895278359518
 20
42.68551170560691
 30
0.0
 10
224.3159469173069
 20
42.50250199020192
 30
0.0
 10
224.5591626457257
 20
42.15041241034699
 30
0.0
 10
224.9655308697603
 20
41.70832586410413
 30
0.0
 10
225.3515131714331
 20
41.36310455149589
 30
0.0
 10
225.6584162129969
 20
41.14265157499994
 30
0.0
 10
225.893270314353
 20
41.00137357677489
 30
0.0
 10
226.0765106807166
 20
40.90889253807739
 30
0.0
 10
226.2619333978769
 20
40.83390134633132
 30
0.0
 10
226.3799170896283
 20
40.80577281010925
 30
0.0
 10
226.4393595863386
 20
40.79160110216367
 30
0.0
  0
SPLINE
  5
24A
330
1F
100
AcDbEntity
  8
0
  6
Continuous
 62
     7
370
    15
100
AcDbSpline
210
0.0
220
0.0
230
1.0
 70
     8
 71
     3
 72
    22
 73
    18
 74
     0
 42
0.000000001
 43
0.00000001
 40
0.0
 40
0.0
 40
0.0
 40
0.0
 40
0.1402864692907324
 40
0.2282537884295858
 40
0.2750030522914542
 40
0.323565055054008
 40
0.3962761026350631
 40
0.4526559277739687
 40
0.4926849906388197
 40
0.5822231041263358
 40
0.6617017271911216
 40
0.700226200977229
 40
0.7412752563996583
 40
0.7848545772578678
 40
0.8309688324369418
 40
0.897593496058984
 40
0.9999999999999999
 40
0.9999999999999999
 40
0.9999999999999999
 40
0.9999999999999999
 10
225.6496219625778
 20
46.03572730465069
 30
0.0
 10
225.4249068973693
 20
46.1469895406821
 30
0.0
 10
225.0592831475497
 20
46.32801930792704
 30
0.0
 10
224.6381047525959
 20
46.31170929781412
 30
0.0
 10
224.3790942808804
 20
46.24640570188364
 30
0.0
 10
224.1571010719028
 20
46.14437775908979
 30
0.0
 10
223.9500609157347
 20
45.98557962193033
 30
0.0
 10
223.7882814675709
 20
45.78734889673829
 30
0.0
 10
223.6420077611855
 20
45.53436413378859
 30
0.0
 10
223.5299771786009
 20
45.20104713562939
 30
0.0
 10
223.4926620761533
 20
44.82165247350412
 30
0.0
 10
223.5061065413403
 20
44.51401115908971
 30
0.0
 10
223.5378193658637
 20
44.26842420323108
 30
0.0
 10
223.5946474892961
 20
44.00159343676624
 30
0.0
 10
223.6913392899854
 20
43.67830224929826
 30
0.0
 10
223.8683036653284
 20
43.22980635871282
 30
0.0
 10
224.0683381568899
 20
42.89086018295534
 30
0.0
 10
224.1895278359518
 20
42.68551170560691
 30
0.0
  0
SPLINE
  5
24B
330
1F
100
AcDbEntity
  8
0
  6
Continuous
 62
     7
370
    15
100
AcDbSpline
210
0.0
220
0.0
230
1.0
 70
     8
 71
     3
 72
     9
 73
     5
 74
     0
 42
0.000000001
 43
0.00000001
 40
0.0
 40
0.0
 40
0.0
 40
0.0
 40
0.1883699358114506
 40
1.0
 40
1.0
 40
1.0
 40
1.0
 10
265.1314528217014
 20
63.74466687850716
 30
0.0
 10
265.1738288638273
 20
63.75419937809904
 30
0.0
 10
265.3987906760373
 20
63.80480458508614
 30
0.0
 10
265.6245580025928
 20
63.85420334601702
 30
0.0
 10
265.8077975523368
 20
63.89429686552219
 30
0.0
  0
LINE
  5
24C
330
1F
100
AcDbEntity
  8
0
  6
Continuous
 62
     7
370
    15
100
AcDbLine
 10
265.8077975523
 20
63.8942968655
 30
0.0
 11
267.465245587
 21
62.9374724817
 31
0.0
  0
SPLINE
  5
24D
330
1F
100
AcDbEntity
  8
0
  6
Continuous
 62
     7
370
    15
100
AcDbSpline
210
0.0
220
0.0
230
1.0
 70
     8
 71
     3
 72
    16
 73
    12
 74
     0
 42
0.000000001
 43
0.00000001
 40
0.0
 40
0.0
 40
0.0
 40
0.0
 40
0.1249999999999996
 40
0.1249999999999996
 40
0.2499999999999992
 40
0.2499999999999992
 40
0.4999999999999994
 40
0.4999999999999994
 40
0.7499999999999997
 40
0.7499999999999997
 40
1.0
 40
1.0
 40
1.0
 40
1.0
 10
267.4652455869929
 20
62.93747248169488
 30
0.0
 10
267.4919875545512
 20
62.92203467242643
 30
0.0
 10
267.5149581531977
 20
62.9041429530192
 30
0.0
 10
267.5509351053217
 20
62.86596295647406
 30
0.0
 10
267.5641976441008
 20
62.84567913900347
 30
0.0
 10
267.5909527548065
 20
62.78155280770878
 30
0.0
 10
267.5901357495461
 20
62.73705995607962
 30
0.0
 10
267.5620553592998
 20
62.65198026373577
 30
0.0
 10
267.5344860043753
 20
62.61060740768946
 30
0.0
 10
267.4613118486159
 20
62.53517627498151
 30
0.0
 10
267.4150780102032
 20
62.50030730015774
 30
0.0
 10
267.3619142252749
 20
62.46961650039069
 30
0.0
  0
LINE
  5
24E
330
1F
100
AcDbEntity
  8
0
  6
Continuous
 62
     7
370
    15
100
AcDbLine
 10
218.0781969703
 20
48.6460212497
 30
0.0
 11
218.7009705015
 21
48.2865017427
 31
0.0
  0
SPLINE
  5
24F
330
1F
100
AcDbEntity
  8
0
  6
Continuous
 62
     7
370
    15
100
AcDbSpline
210
0.0
220
0.0
230
1.0
 70
     8
 71
     3
 72
    11
 73
     7
 74
     0
 42
0.000000001
 43
0.00000001
 40
0.0
 40
0.0
 40
0.0
 40
0.0
 40
0.0466207238589348
 40
0.4280369362498395
 40
0.8086085767156601
 40
0.9999999999999999
 40
0.9999999999999999
 40
0.9999999999999999
 40
0.9999999999999999
 10
271.0070646327489
 20
55.8573438724486
 30
0.0
 10
271.0120424944942
 20
55.86029159473253
 30
0.0
 10
271.0577455319887
 20
55.88735539621162
 30
0.0
 10
271.124183662693
 20
55.94859499600151
 30
0.0
 10
271.1668048385069
 20
56.03239257895315
 30
0.0
 10
271.152962691155
 20
56.0825736099099
 30
0.0
 10
271.1483308041488
 20
56.09936528676
 30
0.0
  0
LINE
  5
250
330
1F
100
AcDbEntity
  8
0
  6
Continuous
 62
     7
370
    15
100
AcDbLine
 10
215.4262057991
 20
58.3274524757
 30
0.0
 11
215.4419506509
 21
58.3747841323
 31
0.0
  0
LWPOLYLINE
  5
251
330
1F
100
AcDbEntity
  8
0
  6
Continuous
 62
     7
370
    15
100
AcDbPolyline
 90
       11
 70
   128
 43
0.0
 10
215.4681282692
 20
58.4534784287
 10
215.4734534365
 20
58.4694867717
 10
215.4906215862
 20
58.5112326866
 10
215.4989122752
 20
58.5244063333
 10
215.5031941988
 20
58.523391215
 10
215.504359555
 20
58.5094982751
 10
215.501885072
 20
58.4796467801
 10
215.4922618282
 20
58.4147061702
 10
215.4517364263
 20
58.2038339393
 10
215.4408270215
 20
58.1517262855
 10
215.4408270215
 20
58.1517262855
  0
SPLINE
  5
252
330
1F
100
AcDbEntity
  8
0
  6
Continuous
 62
     7
370
    15
100
AcDbSpline
210
0.0
220
0.0
230
1.0
 70
     8
 71
     3
 72
    10
 73
     6
 74
     0
 42
0.000000001
 43
0.00000001
 40
0.0
 40
0.0
 40
0.0
 40
0.0
 40
0.1815690553731935
 40
0.7767097940434246
 40
1.0
 40
1.0
 40
1.0
 40
1.0
 10
215.3568898902876
 20
57.88784764635409
 30
0.0
 10
215.3552650759347
 20
57.91355310825139
 30
0.0
 10
215.3483145015716
 20
58.02351503967741
 30
0.0
 10
215.3790717227751
 20
58.16627433205368
 30
0.0
 10
215.4161027330168
 20
58.29290436187867
 30
0.0
 10
215.4262057990824
 20
58.32745247571228
 30
0.0
  0
SPLINE
  5
253
330
1F
100
AcDbEntity
  8
0
  6
Continuous
 62
     7
370
    15
100
AcDbSpline
210
0.0
220
0.0
230
1.0
 70
     8
 71
     3
 72
     8
 73
     4
 74
     0
 42
0.000000001
 43
0.00000001
 40
0.0
 40
0.0
 40
0.0
 40
0.0
 40
1.0
 40
1.0
 40
1.0
 40
1.0
 10
215.3517416988783
 20
57.2908182712839
 30
0.0
 10
215.3803439944527
 20
57.28926485615037
 30
0.0
 10
215.4100403741903
 20
57.2828806781876
 30
0.0
 10
215.4409708492485
 20
57.26982132149951
 30
0.0
  0
SPLINE
  5
254
330
1F
100
AcDbEntity
  8
0
  6
Continuous
 62
     7
370
    15
100
AcDbSpline
210
0.0
220
0.0
230
1.0
 70
     8
 71
     3
 72
    10
 73
     6
 74
     0
 42
0.000000001
 43
0.00000001
 40
0.0
 40
0.0
 40
0.0
 40
0.0
 40
0.4999999999999989
 40
0.4999999999999989
 40
1.0
 40
1.0
 40
1.0
 40
1.0
 10
215.4408270215451
 20
58.15172628547826
 30
0.0
 10
215.4108385516362
 20
58.00993542930826
 30
0.0
 10
215.3904052524497
 20
57.86767761326495
 30
0.0
 10
215.3617722652239
 20
57.58086734509519
 30
0.0
 10
215.3539012055774
 20
57.43641081189966
 30
0.0
 10
215.3517416988791
 20
57.29081827128019
 30
0.0
  0
ARC
  5
255
330
1F
100
AcDbEntity
  8
0
  6
Continuous
 62
     7
370
    15
100
AcDbCircle
 10
219.1535360267
 20
54.8943160587
 30
0.0
 40
0.8231425509791299
100
AcDbArc
 50
40.3517278188
 51
62.0985124778
  0
LINE
  5
256
330
1F
100
AcDbEntity
  8
0
  6
Continuous
 62
     7
370
    15
100
AcDbLine
 10
219.5387278541
 20
55.6217711537
 30
0.0
 11
219.6865303487
 21
56.1760265514
 31
0.0
  0
LINE
  5
257
330
1F
100
AcDbEntity
  8
0
  6
Continuous
 62
     7
370
    15
100
AcDbLine
 10
219.5387278541
 20
55.6217711537
 30
0.0
 11
218.2855082265
 21
56.3452394453
 31
0.0
  0
ARC
  5
258
330
1F
100
AcDbEntity
  8
0
  6
Continuous
 62
     7
370
    15
100
AcDbCircle
 10
216.571074468
 20
57.1227640331
 30
0.0
 40
1.230859305078328
100
AcDbArc
 50
172.152662553
 51
234.515109951
  0
LINE
  5
259
330
1F
100
AcDbEntity
  8
0
  6
Continuous
 62
     7
370
    15
100
AcDbLine
 10
215.4408270215
 20
58.1517262855
 30
0.0
 11
215.4262057991
 21
58.3274524757
 31
0.0
  0
ARC
  5
25A
330
1F
100
AcDbEntity
  8
0
  6
Continuous
 62
     7
370
    15
100
AcDbCircle
 10
219.2570772713
 20
41.5928750177
 30
0.0
 40
0.5806344198069994
100
AcDbArc
 50
25.5708468831
 51
60.9826879702
  0
SPLINE
  5
25B
330
1F
100
AcDbEntity
  8
0
  6
Continuous
 62
     7
370
    15
100
AcDbSpline
210
0.0
220
0.0
230
1.0
 70
     8
 71
     3
 72
     8
 73
     4
 74
     0
 42
0.000000001
 43
0.00000001
 40
0.0
 40
0.0
 40
0.0
 40
0.0
 40
1.0
 40
1.0
 40
1.0
 40
1.0
 10
215.351741698879
 20
45.02689950371785
 30
0.0
 10
215.3803439944531
 20
44.99620209985974
 30
0.0
 10
215.4100403741905
 20
44.96914864800926
 30
0.0
 10
215.4409708492485
 20
44.94687734561419
 30
0.0
  0
ARC
  5
25C
330
1F
100
AcDbEntity
  8
0
  6
Continuous
 62
     7
370
    15
100
AcDbCircle
 10
219.0842433352
 20
44.9194082377
 30
0.0
 40
3.734049120875853
100
AcDbArc
 50
122.5266432908
 51
178.3504108787
  0
LINE
  5
25D
330
1F
100
AcDbEntity
  8
0
  6
Continuous
 62
     7
370
    15
100
AcDbLine
 10
219.5387278541
 20
42.1006242459
 30
0.0
 11
218.2855082265
 21
42.8240925375
 31
0.0
  0
LINE
  5
25E
330
1F
100
AcDbEntity
  8
0
  6
Continuous
 62
     7
370
    15
100
AcDbLine
 10
217.0764759723
 20
48.0677400267
 30
0.0
 11
218.0781969703
 21
48.6460212497
 31
0.0
  0
LINE
  5
25F
330
1F
100
AcDbEntity
  8
0
  6
Continuous
 62
     7
370
    15
100
AcDbLine
 10
219.5387278541
 20
42.1006242459
 30
0.0
 11
219.6865303487
 21
41.7170179761
 31
0.0
  0
SPLINE
  5
260
330
1F
100
AcDbEntity
  8
0
  6
Continuous
 62
     7
370
    15
100
AcDbSpline
210
0.0
220
0.0
230
1.0
 70
     8
 71
     3
 72
    10
 73
     6
 74
     0
 42
0.000000001
 43
0.00000001
 40
0.0
 40
0.0
 40
0.0
 40
0.0
 40
0.3881760899111059
 40
0.831661290901422
 40
1.0
 40
1.0
 40
1.0
 40
1.0
 10
215.3855468686908
 20
46.09405034154481
 30
0.0
 10
215.3777343050675
 20
46.04735139231957
 30
0.0
 10
215.3609960078948
 20
45.94729961322803
 30
0.0
 10
215.3508696295456
 20
45.82477329799883
 30
0.0
 10
215.3523047307426
 20
45.74998836302165
 30
0.0
 10
215.3526995879538
 20
45.72941185529371
 30
0.0
  0
ARC
  5
261
330
1F
100
AcDbEntity
  8
0
  6
Continuous
 62
     7
370
    15
100
AcDbCircle
 10
217.8691572039
 20
45.6066182555
 30
0.0
 40
2.5309899912386
100
AcDbArc
 50
122.9343892187
 51
168.8962877716
  0
LINE
  5
262
330
1F
100
AcDbEntity
  8
0
  6
Continuous
 62
     7
370
    15
100
AcDbLine
 10
217.0764759723
 20
48.0677400267
 30
0.0
 11
216.4931128778
 21
47.730862203
 31
0.0
  0
SPLINE
  5
263
330
1F
100
AcDbEntity
  8
0
  6
Continuous
 62
     7
370
    15
100
AcDbSpline
210
0.0
220
0.0
230
1.0
 70
     8
 71
     3
 72
     9
 73
     5
 74
     0
 42
0.000000001
 43
0.00000001
 40
0.0
 40
0.0
 40
0.0
 40
0.0
 40
0.2365411664913156
 40
1.0
 40
1.0
 40
1.0
 40
1.0
 10
215.3964555589255
 20
44.88554553675093
 30
0.0
 10
215.3892267258834
 20
44.89553978784939
 30
0.0
 10
215.3586661551828
 20
44.93779142314277
 30
0.0
 10
215.3547395218121
 20
44.98832170991918
 30
0.0
 10
215.3517416988792
 20
45.02689950371835
 30
0.0
  0
LWPOLYLINE
  5
264
330
1F
100
AcDbEntity
  8
0
  6
Continuous
 62
     7
370
    15
100
AcDbPolyline
 90
       25
 70
   128
 43
0.0
 10
248.3121967643
 20
38.6731714651
 10
248.3633705574
 20
39.5854701571
 10
248.5159787391
 20
40.5405728611
 10
248.767298013
 20
41.5214357469
 10
249.1128435805
 20
42.510555293
 10
249.5464491728
 20
43.4902806377
 10
250.0603770878
 20
44.4431285589
 10
250.6454562698
 20
45.352095463
 10
251.2912459668
 20
46.200960814
 10
251.9862220465
 20
46.9745765897
 10
252.7179826442
 20
47.6591375981
 10
253.4734694747
 20
48.2424278318
 10
254.2392008577
 20
48.7140384629
 10
255.0015122984
 20
49.0655535885
 10
255.7468003311
 20
49.2907004127
 10
256.4617652733
 20
49.3854611852
 10
257.1336485586
 20
49.3481448978
 10
257.7504604138
 20
49.1794174604
 10
258.3011938169
 20
48.8822898183
 10
258.7760209171
 20
48.4620642211
 10
259.1664684136
 20
47.9262396048
 10
259.4655687617
 20
47.2843777721
 10
259.6679845084
 20
46.5479327628
 10
259.77010354
 20
45.7300464554
 10
259.7787772216
 20
45.0412681538
  0
LWPOLYLINE
  5
265
330
1F
100
AcDbEntity
  8
0
  6
Continuous
 62
     7
370
    15
100
AcDbPolyline
 90
       14
 70
   128
 43
0.0
 10
254.2662092228
 20
35.4921856368
 10
254.2392008577
 20
35.4754777325
 10
253.4734694747
 20
35.0629937274
 10
252.7179826442
 20
34.7740174334
 10
251.9862220465
 20
34.6137056393
 10
251.2912459668
 20
34.5849191129
 10
250.6454562698
 20
34.6881715506
 10
250.0603770878
 20
34.92162041
 10
249.5464491728
 20
35.2810997907
 10
249.1128435805
 20
35.7601947747
 10
248.767298013
 20
36.3503559006
 10
248.5159787391
 20
37.0410517292
 10
248.3633705574
 20
37.8199567771
 10
248.3121967643
 20
38.6731714651
  0
LWPOLYLINE
  5
266
330
1F
100
AcDbEntity
  8
0
  6
Continuous
 62
     7
370
    15
100
AcDbPolyline
 90
       26
 70
   128
 43
0.0
 10
226.3112905346
 20
37.5857240347
 10
226.3619185797
 20
39.1587999221
 10
226.5135127221
 20
40.78131927
 10
226.7652046443
 20
42.4439884344
 10
227.1155526778
 20
44.137283797
 10
227.5625500608
 20
45.8515063151
 10
228.1036364327
 20
47.5768370776
 10
228.7357124998
 20
49.3033935459
 10
229.4551577877
 20
51.0212861611
 10
230.2578513788
 20
52.7206749898
 10
231.1391955169
 20
54.3918260866
 10
232.0941419428
 20
56.0251672495
 10
233.1172208096
 20
57.6113428482
 10
234.2025720144
 20
59.1412674124
 10
235.3439787636
 20
60.6061776729
 10
236.5349031829
 20
61.9976827563
 10
237.768523765
 20
63.3078122475
 10
239.0377744428
 20
64.5290618434
 10
240.3353850635
 20
65.654436337
 10
241.653923031
 20
66.677489685
 10
242.9858358791
 20
67.5923619305
 10
244.3234945317
 20
68.3938127682
 10
245.6592370012
 20
69.0772515603
 10
246.9854122757
 20
69.6387636311
 10
248.2944241432
 20
70.0751326905
 10
248.8823475721
 20
70.2315626126
  0
ARC
  5
267
330
1F
100
AcDbEntity
  8
0
  6
Continuous
 62
     7
370
    15
100
AcDbCircle
 10
244.877555533
 20
37.3657012569
 30
0.0
 40
18.56756866192361
100
AcDbArc
 50
179.3210381046
 51
196.4745437271
  0
LWPOLYLINE
  5
268
330
1F
100
AcDbEntity
  8
0
  6
Continuous
 62
     7
370
    15
100
AcDbPolyline
 90
       23
 70
   128
 43
0.0
 10
234.1343031991
 20
39.4125182393
 10
234.4941110324
 20
41.0807575742
 10
234.9532706685
 20
42.7687227521
 10
235.5088790422
 20
44.4657415093
 10
236.1574232855
 20
46.1610843404
 10
236.8948029375
 20
47.8440323362
 10
237.7163558701
 20
49.5039449544
 10
238.6168877644
 20
51.1303272954
 10
239.590704952
 20
52.712896457
 10
240.6316504139
 20
54.2416465484
 10
241.7331427085
 20
55.706911953
 10
242.888217583
 20
57.0994284404
 10
244.0895720055
 20
58.4103917394
 10
245.3296103389
 20
59.6315132039
 10
246.6004923644
 20
60.7550722184
 10
247.8941828525
 20
61.773965012
 10
249.2025023653
 20
62.6817495724
 10
250.5171789725
 20
63.4726863758
 10
251.8299005503
 20
64.1417746757
 10
253.1323673358
 20
64.6847841202
 10
254.4163444028
 20
65.0982814988
 10
255.6737137272
 20
65.3796524487
 10
256.6131112427
 20
65.5046026042
  0
LWPOLYLINE
  5
269
330
1F
100
AcDbEntity
  8
0
  6
Continuous
 62
     7
370
    15
100
AcDbPolyline
 90
       20
 70
   128
 43
0.0
 10
234.7082983041
 20
39.4173153154
 10
235.06947949
 20
41.0675914124
 10
235.5292608296
 20
42.7368556616
 10
236.0847025945
 20
44.4144352001
 10
236.7322534274
 20
46.0896039994
 10
237.4677730486
 20
47.7516514444
 10
238.2865587275
 20
49.3899508148
 10
239.1833753509
 20
50.9940272297
 10
240.1524888951
 20
52.5536246212
 10
241.1877030879
 20
54.0587713092
 10
242.2823990258
 20
55.4998437582
 10
243.4295774935
 20
56.8676281072
 10
244.6219037158
 20
58.1533790815
 10
245.8517542537
 20
59.3488759073
 10
247.1112657469
 20
60.4464748735
 10
248.3923851906
 20
61.4391582039
 10
249.6869214237
 20
62.3205789267
 10
250.9865975019
 20
63.0851014559
 10
252.2831036178
 20
63.7278376234
 10
252.5392482067
 20
63.8405140843
  0
LWPOLYLINE
  5
26A
330
1F
100
AcDbEntity
  8
0
  6
Continuous
 62
     7
370
    15
100
AcDbPolyline
 90
       22
 70
   128
 43
0.0
 10
258.6330690874
 20
45.8152281533
 10
258.4640381974
 20
45.9168955654
 10
257.9690745371
 20
46.0978281298
 10
257.4156942661
 20
46.1473086649
 10
256.8182296426
 20
46.0640556509
 10
256.1921546865
 20
45.8502252972
 10
255.5536844104
 20
45.5113556975
 10
254.9193548591
 20
45.0562233965
 10
254.3055948347
 20
44.4966160818
 10
253.7283003994
 20
43.8470272888
 10
253.202423176
 20
43.124281026
 10
252.7415831082
 20
42.3470960421
 10
252.3577157117
 20
41.5356010198
 10
252.0607629505
 20
40.7108132541
 10
251.8584157452
 20
39.8940943147
 10
251.7559147819
 20
39.1065967932
 10
251.7559147819
 20
38.3687164617
 10
251.8584157452
 20
37.6995640334
 10
252.0607629505
 20
37.1164702045
 10
252.3577157117
 20
36.6345367989
 10
252.7415831082
 20
36.2662456387
 10
253.0230293462
 20
36.0973013314
  0
LWPOLYLINE
  5
26B
330
1F
100
AcDbEntity
  8
0
  6
Continuous
 62
     7
370
    15
100
AcDbPolyline
 90
       22
 70
   128
 43
0.0
 10
215.4409708492
 20
57.2698213215
 10
215.9707667369
 20
58.7420771946
 10
216.5898213678
 20
60.2056928868
 10
217.2930517765
 20
61.6486508679
 10
218.0746838431
 20
63.0591032249
 10
218.9282997031
 20
64.425468944
 10
219.846890444
 20
65.7365289998
 10
220.8229136543
 20
66.9815184737
 10
221.8483553527
 20
68.1502149428
 10
222.9147957904
 20
69.2330224146
 10
224.013478584
 20
70.2210501183
 10
225.1353826128
 20
71.1061855058
 10
226.2712960901
 20
71.8811608624
 10
227.4118921998
 20
72.5396129809
 10
228.5478056771
 20
73.0761354093
 10
229.6697097059
 20
73.4863228417
 10
230.7683924995
 20
73.7668072904
 10
231.8348329372
 20
73.9152857394
 10
232.8602746356
 20
73.9305390542
 10
233.8362978458
 20
73.8124419922
 10
234.7548885868
 20
73.5619642308
 10
235.4205873589
 20
73.2790024424
  0
ARC
  5
26C
330
1F
100
AcDbEntity
  8
0
  6
Continuous
 62
     7
370
    15
100
AcDbCircle
 10
221.335947299
 20
47.9420757164
 30
0.0
 40
6.612258360294311
100
AcDbArc
 50
206.9348210899
 51
235.9314622704
  0
ARC
  5
26D
330
1F
100
AcDbEntity
  8
0
  6
Continuous
 62
     7
370
    15
100
AcDbCircle
 10
248.4171855
 20
30.1039771043
 30
0.0
 40
12.19857080875482
100
AcDbArc
 50
191.1637103936
 51
218.6758449595
  0
LWPOLYLINE
  5
26E
330
1F
100
AcDbEntity
  8
0
  6
Continuous
 62
     7
370
    15
100
AcDbPolyline
 90
        3
 70
   128
 43
0.0
 10
264.7590336609
 20
38.8404448248
 10
264.4918724833
 20
39.1255523899
 10
264.4203760746
 20
39.1713604972
  0
LWPOLYLINE
  5
26F
330
1F
100
AcDbEntity
  8
0
  6
Continuous
 62
     7
370
    15
100
AcDbPolyline
 90
        9
 70
   128
 43
0.0
 10
261.7239794403
 20
34.3795808601
 10
261.9489341436
 20
34.3022991907
 10
262.3614399496
 20
34.2928703288
 10
262.8130433151
 20
34.4261521935
 10
263.2779323193
 20
34.694526903
 10
263.7295356848
 20
35.0826551857
 10
264.1420414908
 20
35.5683531135
 10
264.4918724833
 20
36.1238600507
 10
264.7590336609
 20
36.7174253458
  0
LINE
  5
270
330
1F
100
AcDbEntity
  8
0
  6
Continuous
 62
     7
370
    15
100
AcDbLine
 10
260.3486526514
 20
34.8662216085
 30
0.0
 11
260.4999034049
 21
34.7789064071
 31
0.0
  0
LINE
  5
271
330
1F
100
AcDbEntity
  8
0
  6
Continuous
 62
     7
370
    15
100
AcDbLine
 10
235.5606904381
 20
29.7159457985
 30
0.0
 11
235.4931868312
 21
29.9822598826
 31
0.0
  0
LINE
  5
272
330
1F
100
AcDbEntity
  8
0
  6
Continuous
 62
     7
370
    15
100
AcDbLine
 10
235.0460307016
 20
29.2704695389
 30
0.0
 11
234.7082983041
 21
30.4353663847
 31
0.0
  0
ARC
  5
273
330
1F
100
AcDbEntity
  8
0
  6
Continuous
 62
     7
370
    15
100
AcDbCircle
 10
246.5424073202
 20
33.3018020435
 30
0.0
 40
12.73597366903474
100
AcDbArc
 50
193.0289139223
 51
204.5990437934
  0
LINE
  5
274
330
1F
100
AcDbEntity
  8
0
  6
Continuous
 62
     7
370
    15
100
AcDbLine
 10
262.7658021983
 20
65.6504034036
 30
0.0
 11
262.6654321786
 21
65.5924610246
 31
0.0
  0
ARC
  5
275
330
1F
100
AcDbEntity
  8
0
  6
Continuous
 62
     7
370
    15
100
AcDbCircle
 10
221.3955142757
 20
54.9549261449
 30
0.0
 40
1.97290093043874
100
AcDbArc
 50
160.2447912923
 51
206.8893927025
  0
ARC
  5
276
330
1F
100
AcDbEntity
  8
0
  6
Continuous
 62
     7
370
    15
100
AcDbCircle
 10
221.4944488911
 20
42.7466424563
 30
0.0
 40
2.059656355480537
100
AcDbArc
 50
172.8744043428
 51
198.2795396692
  0
LINE
  5
277
330
1F
100
AcDbEntity
  8
0
  6
Continuous
 62
     7
370
    15
100
AcDbLine
 10
218.6935433855
 20
47.1342268794
 30
0.0
 11
217.0764759723
 21
48.0677400267
 31
0.0
  0
OLE2FRAME
  5
278
330
1F
100
AcDbEntity
  8
0
100
AcDbOle2Frame
 70
     2
  3
Paintbrush-Bild
 10
13.8511154363
 20
38.264191557
 30
0.0
 11
51.6290888628
 21
31.9806341108
 31
0.0
 71
     2
 72
     0
 73
     1
 90
    12928
310
80552BED0767C5B32B40DDAF6807D121434000000000000000006FFBDDFB85D0
310
4940DDAF6807D121434000000000000000006FFBDDFB85D04940416F4BD60AFB
310
3F4000000000000000002BED0767C5B32B40416F4BD60AFB3F40000000000000
310
0000000000000100000000010000010000000100000000000100000000320000
310
D0CF11E0A1B11AE1000000000000000000000000000000003E000300FEFF0900
310
0600000000000000000000000100000001000000000000000010000002000000
310
01000000FEFFFFFF0000000000000000FFFFFFFFFFFFFFFFFFFFFFFFFFFFFFFF
310
FFFFFFFFFFFFFFFFFFFFFFFFFFFFFFFFFFFFFFFFFFFFFFFFFFFFFFFFFFFFFFFF
310
FFFFFFFFFFFFFFFFFFFFFFFFFFFFFFFFFFFFFFFFFFFFFFFFFFFFFFFFFFFFFFFF
310
FFFFFFFFFFFFFFFFFFFFFFFFFFFFFFFFFFFFFFFFFFFFFFFFFFFFFFFFFFFFFFFF
310
FFFFFFFFFFFFFFFFFFFFFFFFFFFFFFFFFFFFFFFFFFFFFFFFFFFFFFFFFFFFFFFF
310
FFFFFFFFFFFFFFFFFFFFFFFFFFFFFFFFFFFFFFFFFFFFFFFFFFFFFFFFFFFFFFFF
310
FFFFFFFFFFFFFFFFFFFFFFFFFFFFFFFFFFFFFFFFFFFFFFFFFFFFFFFFFFFFFFFF
310
FFFFFFFFFFFFFFFFFFFFFFFFFFFFFFFFFFFFFFFFFFFFFFFFFFFFFFFFFFFFFFFF
310
FFFFFFFFFFFFFFFFFFFFFFFFFFFFFFFFFFFFFFFFFFFFFFFFFFFFFFFFFFFFFFFF
310
FFFFFFFFFFFFFFFFFFFFFFFFFFFFFFFFFFFFFFFFFFFFFFFFFFFFFFFFFFFFFFFF
310
FFFFFFFFFFFFFFFFFFFFFFFFFFFFFFFFFFFFFFFFFFFFFFFFFFFFFFFFFFFFFFFF
310
FFFFFFFFFFFFFFFFFFFFFFFFFFFFFFFFFFFFFFFFFFFFFFFFFFFFFFFFFFFFFFFF
310
FFFFFFFFFFFFFFFFFFFFFFFFFFFFFFFFFFFFFFFFFFFFFFFFFFFFFFFFFFFFFFFF
310
FFFFFFFFFFFFFFFFFFFFFFFFFFFFFFFFFFFFFFFFFFFFFFFFFFFFFFFFFFFFFFFF
310
FDFFFFFFFEFFFFFFFEFFFFFFFEFFFFFF05000000060000000700000008000000
310
090000000A0000000B0000000C0000000D0000000E0000000F00000010000000
310
11000000120000001300000014000000150000001600000017000000FEFFFFFF
310
FFFFFFFFFFFFFFFFFFFFFFFFFFFFFFFFFFFFFFFFFFFFFFFFFFFFFFFFFFFFFFFF
310
FFFFFFFFFFFFFFFFFFFFFFFFFFFFFFFFFFFFFFFFFFFFFFFFFFFFFFFFFFFFFFFF
310
FFFFFFFFFFFFFFFFFFFFFFFFFFFFFFFFFFFFFFFFFFFFFFFFFFFFFFFFFFFFFFFF
310
FFFFFFFFFFFFFFFFFFFFFFFFFFFFFFFFFFFFFFFFFFFFFFFFFFFFFFFFFFFFFFFF
310
FFFFFFFFFFFFFFFFFFFFFFFFFFFFFFFFFFFFFFFFFFFFFFFFFFFFFFFFFFFFFFFF
310
FFFFFFFFFFFFFFFFFFFFFFFFFFFFFFFFFFFFFFFFFFFFFFFFFFFFFFFFFFFFFFFF
310
FFFFFFFFFFFFFFFFFFFFFFFFFFFFFFFFFFFFFFFFFFFFFFFFFFFFFFFFFFFFFFFF
310
FFFFFFFFFFFFFFFFFFFFFFFFFFFFFFFFFFFFFFFFFFFFFFFFFFFFFFFFFFFFFFFF
310
FFFFFFFFFFFFFFFFFFFFFFFFFFFFFFFFFFFFFFFFFFFFFFFFFFFFFFFFFFFFFFFF
310
FFFFFFFFFFFFFFFFFFFFFFFFFFFFFFFFFFFFFFFFFFFFFFFFFFFFFFFFFFFFFFFF
310
FFFFFFFFFFFFFFFFFFFFFFFFFFFFFFFFFFFFFFFFFFFFFFFFFFFFFFFFFFFFFFFF
310
FFFFFFFFFFFFFFFFFFFFFFFFFFFFFFFFFFFFFFFFFFFFFFFFFFFFFFFFFFFFFFFF
310
FFFFFFFFFFFFFFFFFFFFFFFFFFFFFFFFFFFFFFFFFFFFFFFFFFFFFFFFFFFFFFFF
310
52006F006F007400200045006E00740072007900000000000000000000000000
310
0000000000000000000000000000000000000000000000000000000000000000
310
16000500FFFFFFFFFFFFFFFF020000000A00030000000000C000000000000046
310
000000000000000000000000806A3D557020D20103000000C000000000000000
310
01004F006C006500000000000000000000000000000000000000000000000000
310
0000000000000000000000000000000000000000000000000000000000000000
310
0A000200FFFFFFFFFFFFFFFFFFFFFFFF00000000000000000000000000000000
310
0000000000000000000000000000000000000000000000001400000000000000
310
010043006F006D0070004F0062006A0000000000000000000000000000000000
310
0000000000000000000000000000000000000000000000000000000000000000
310
120002010100000003000000FFFFFFFF00000000000000000000000000000000
310
0000000000000000000000000000000000000000010000004D00000000000000
310
01004F006C006500310030004E00610074006900760065000000000000000000
310
0000000000000000000000000000000000000000000000000000000000000000
310
1A000200FFFFFFFFFFFFFFFFFFFFFFFF00000000000000000000000000000000
310
0000000000000000000000000000000000000000040000002426000000000000
310
FEFFFFFF02000000FEFFFFFFFFFFFFFFFFFFFFFFFFFFFFFFFFFFFFFFFFFFFFFF
310
FFFFFFFFFFFFFFFFFFFFFFFFFFFFFFFFFFFFFFFFFFFFFFFFFFFFFFFFFFFFFFFF
310
FFFFFFFFFFFFFFFFFFFFFFFFFFFFFFFFFFFFFFFFFFFFFFFFFFFFFFFFFFFFFFFF
310
FFFFFFFFFFFFFFFFFFFFFFFFFFFFFFFFFFFFFFFFFFFFFFFFFFFFFFFFFFFFFFFF
310
FFFFFFFFFFFFFFFFFFFFFFFFFFFFFFFFFFFFFFFFFFFFFFFFFFFFFFFFFFFFFFFF
310
FFFFFFFFFFFFFFFFFFFFFFFFFFFFFFFFFFFFFFFFFFFFFFFFFFFFFFFFFFFFFFFF
310
FFFFFFFFFFFFFFFFFFFFFFFFFFFFFFFFFFFFFFFFFFFFFFFFFFFFFFFFFFFFFFFF
310
FFFFFFFFFFFFFFFFFFFFFFFFFFFFFFFFFFFFFFFFFFFFFFFFFFFFFFFFFFFFFFFF
310
FFFFFFFFFFFFFFFFFFFFFFFFFFFFFFFFFFFFFFFFFFFFFFFFFFFFFFFFFFFFFFFF
310
FFFFFFFFFFFFFFFFFFFFFFFFFFFFFFFFFFFFFFFFFFFFFFFFFFFFFFFFFFFFFFFF
310
FFFFFFFFFFFFFFFFFFFFFFFFFFFFFFFFFFFFFFFFFFFFFFFFFFFFFFFFFFFFFFFF
310
FFFFFFFFFFFFFFFFFFFFFFFFFFFFFFFFFFFFFFFFFFFFFFFFFFFFFFFFFFFFFFFF
310
FFFFFFFFFFFFFFFFFFFFFFFFFFFFFFFFFFFFFFFFFFFFFFFFFFFFFFFFFFFFFFFF
310
FFFFFFFFFFFFFFFFFFFFFFFFFFFFFFFFFFFFFFFFFFFFFFFFFFFFFFFFFFFFFFFF
310
FFFFFFFFFFFFFFFFFFFFFFFFFFFFFFFFFFFFFFFFFFFFFFFFFFFFFFFFFFFFFFFF
310
FFFFFFFFFFFFFFFFFFFFFFFFFFFFFFFFFFFFFFFFFFFFFFFFFFFFFFFFFFFFFFFF
310
0100000200000000000000000000000000000000000000000000000000000000
310
0000000000000000000000000000000000000000000000000000000000000000
310
0100FEFF030A0000FFFFFFFF0A00030000000000C00000000000004607000000
310
5042727573680007000000504272757368000700000050427275736800F439B2
310
7100000000000000000000000000000000000000000000000000000000000000
310
0000000000000000000000000000000000000000000000000000000000000000
310
0000000000000000000000000000000000000000000000000000000000000000
310
0000000000000000000000000000000000000000000000000000000000000000
310
0000000000000000000000000000000000000000000000000000000000000000
310
0000000000000000000000000000000000000000000000000000000000000000
310
0000000000000000000000000000000000000000000000000000000000000000
310
0000000000000000000000000000000000000000000000000000000000000000
310
0000000000000000000000000000000000000000000000000000000000000000
310
0000000000000000000000000000000000000000000000000000000000000000
310
0000000000000000000000000000000000000000000000000000000000000000
310
0000000000000000000000000000000000000000000000000000000000000000
310
20260000424D0E260000000000003E00000028000000B40200006E0000000100
310
01000000000000000000130B0000130B00000200000002000000000000FFFFFF
310
FFFFFFFFFFFFFFFFFFFFFFFFFFFFFFFFFFFFFFFFFFFFFFFFFFFFFFFFFFFFFFFF
310
FFFFFFFFFFFFFFFFFFFFFFFFFFFFFFFFFFFFFFFFFFFFFFFFFFFFFFFFFFFFFFFF
310
FFFFFFFFFFFFFFFFFFFFFFFFFFFFFFFFFFFFFFFFFFFFFFFFF000FFFFFFFFFFFF
310
FFFFFFFFFFFFFFFFFFFFFFFFFFFFFFFFFFFFFFFFFFFFFFFFFFFFFFFFFFFFFFFF
310
FFFFFFFFFFFFFFFFFFFFFFFFFFFFFFFFFFFFFFFFFFFFFFFFFFFFFFFFFFFFFFFF
310
FFFFFFFFFFFFFFFFFFFFFFFFFFFFFFFFF000FFFFFFFFFFFFFFFFFFFFFFFFFFFF
310
FFFFFFFFFFFFFFFFFFFFFFFFFFFFFFFFFFFFFFFFFFFFFFFFFFFFFFFFFFFFFFFF
310
FFFFFFFFFFFFFFFFFFFFFFFFFFFFFFFFFFFFFFFFFFFFFFFFFFFFFFFFFFFFFFFF
310
FFFFFFFFFFFFFFFFF000FFFFFFFFFFFFFFFFFFFFFFFFFFFFFFFFFFFFFFFFFFFF
310
FFFFFFFFFFFFFFFFFFFFFFFFFFFFFFFFFFFFFFFFFFFFFFFFFFFFFFFFFFFFFFFF
310
FFFFFFFFFFFFFFFFFFFFFFFFFFFFFFFFFFFFFFFFFFFFFFFFFFFFFFFFFFFFFFFF
310
F000FFFFFFFFFFFFFFFFFFFFFFFFFFFFFFFFFFFFFFFFFFFFFFFFFFFFFFFFFFFF
310
FFFFFFFFFFFFFFFFFFFFFFFFFFFFFFFFFFFFFFFFFFFFFFFFFFFFFFFFFFFFFFFF
310
FFFFFFFFFFFFFFFFFFFFFFFFFFFFFFFFFFFFFFFFFFFFFFFFF000FFFFFFFFFFFF
310
FFFFFFFFFFFFFFFFFFFFFFFFFFFFFFFFFFFFFFFFFFFFFFFFFFFFFFFFFFFFFFFF
310
FFFFFFFFFFFFFFFFFFFFFFFFFFFFFFFFFFFFFFFFFFFFFFFFFFFFFFFFFFFFFFFF
310
FFFFFFFFFFFFFFFFFFFFFFFFFFFFFFFFF000FFFFFFFFFFFFFFFFFFFFFFFFFFFF
310
FFFFFFFFFFFFFFFFFFFFFFFFFFFFFFFFFFFFFFFFFFFFFFFFFFFFFFFFFFFFFFFF
310
FFFFFFFFFFFFFFFFFFFFFFFFFFFFFFFFFFFFFFFFFFFFFFFFFFFFFFFFFFFFFFFF
310
FFFFFFFFFFFFFFFFF000FFFFFFFFFFFFFFFFFFFFFFFFFFFFFFFFFFFFFFFFFFFF
310
FFFFFFFFFFFFFFFFFFFFFFFFFFFFFFFFFFFFFFFFFFFFFFFFFFFFFFFFFFFFFFFF
310
FFFFFFFFFFFFFFFFFFFFFFFFFFFFFFFFFFFFFFFFFFFFFFFFFFFFFFFFFFFFFFFF
310
F000FFFFFFFFFFFFFFFFFFFFFFFFFFFFFFFFFFFFFFFFFFFFFFFFFFFFFFFFFFFF
310
FFFFFFFFFFFFFFFFFFFFFFFFFFFFFFFFFFFFFFFFFFFFFFFFFFFFFFFFFFFFFFFF
310
FFFFFFFFFFFFFFFFFFFFFFFFFFFFFFFFFFFFFFFFFFFFFFFFF000FFFFFFFFFFFF
310
FFFFFFFFFFFFFFFFFFFFFFFFFFFFFFFFFFFFFFFFFFFFFFFFFFFFFFFFFFFFFFFF
310
FFFFFFFFFFFFFFFFFFFFFFFFFFFFFFFFFFFFFFFFFFFFFFFFFFFFFFFFFFFFFFFF
310
FFFFFFFFFFFFFFFFFFFFFFFFFFFFFFFFF000FFFFFFFFFFFFFFFFFFFFFFFFFFFF
310
FFFFFFFFFFFFFFFFFFFFFFFFFFFFFFFFFFFFFFFFFFFFFFFFFFFFFFFFFFFFFFFF
310
FFFFFFFFFFFFFFFFFFFFFFFFFFFFFFFFFFFFFFFFFFFFFFFFFFFFFFFFFFFFFFFF
310
FFFFFFFFFFFFFFFFF000FFFFFFFFFFFFFFFFFFFFFFFFFFFFFFFFFFFFFFFFFFFF
310
FFFFFFFFFFFFFFFFFFFFFFFFFFFFFFFFFFFFFFFFFFFFFFFFFFFFFFFFFFFFFFFF
310
FFFFFFFFFFFFFFFFFFFFFFFFFFFFFFFFFFFFFFFFFFFFFFFFFFFFFFFFFFFFFFFF
310
F000FFFFFFFFFFFFFFFFFFFFFFFFFFFFFFFFFFFFFFFFFFFFFFFFFFFFFFFFFFFF
310
FFFFFFFFFFFFFFFFFFFFFFFFFFFFFFFFFFFFFFFFFFFFFFFFFFFFFFFFFFFFFFFF
310
FFFFFFFFFFFFFFFFFFFFFFFFFFFFFFFFFFFFFFFFFFFFFFFFF000FFFFFFFFFFFF
310
FFFFFFFFFFFFFFFFFFFFFFFFFFFFFFFFFFFFFFFFFFFFFFFFFFFFFFFFFFFFFFFF
310
FFFFFFFFFFFFFFFFFFFFFFFFFFFFFFFFFFFFFFFFFFFFFFFFFFFFFFFFFFFFFFFF
310
FFFFFFFFFFFFFFFFFFFFFFFFFFFFFFFFF000FFFFFFFFFFFFFFFFFFFFFFFFFFFF
310
FFFFFFFFFFFFFFFFFFFFFFFFFFFFFFFFFFFFFFFFFFFFFFFFFFFFFFFFFFFFFFFF
310
FFFFFFFFFFFFFFFFFFFFFFFFFFFFFFFFFFFFFFFFFFFFFFFFFFFFFFFFFFFFFFFF
310
FFFFFFFFFFFFFFFFF000FFFFFFFFFFFFFFFFFFFFFFFFFFFFFFFFFFFFFFFFFFFF
310
FFFFFFFFFFFFFFFFFFFFFFFFFFFFFFFFFFFFFFFFFFFFFFFFFFFFFFFFFFFFFFFF
310
FFFFFFFFFFFFFFFFFFFFFFFFFFFFFFFFFFFFFFFFFFFFFFFFFFFFFFFFFFFFFFFF
310
F000FFFFFFFFFFFFFFFFFFFFFFFFFFFFFFFFFFFFFFFFFFFFFFFFFFFFFFFFFFFF
310
FFFFFFFFFFFFFFFFFFFFFFFFFFFFFFFFFFFFFFFFFFFFFFFFFFFFFFFFFFFFFFFF
310
FFFFFFFFFFFFFFFFFFFFFFFFFFFFFFFFFFFFFFFFFFFFFFFFF000FFFFFFFFFFFF
310
FFFFFFFFFFFFFFFFFFFFFFFFFFFFFFFFFFFFFFFFFFFFFFFFFFFFFFFFFFFFFFFF
310
FFFFFFFFFFFFFFFFFFFFFFFFFFFFFFFFFFFFFFFFFFFFFFFFFFFFFFFFFFFFFFFF
310
FFFFFFFFFFFFFFFFFFFFFFFFFFFFFFFFF000FFFFFFFFFFFFFFFFFFFFFFFFFFFF
310
FFFFFFFFFFFFFFFFFFFFFFFFFFFFFFFFFFFFFFFFFFFFFFFFFFFFFFFFFFFFFFFF
310
FFFFFFFFFFFFFFFFFFFFFFFFFFFFFFFFFFFFFFFFFFFFFFFFFFFFFFFFFFFFFFFF
310
FFFFFFFFFFFFFFFFF000FFFFF80003FFFFFFFFFFFFFFFFFFFFFFFFFFFFFFFFFF
310
FFFFF00007FFFFFFFFFF00007FFFFFF800000000000000007FFFFFFFFFFFFFFF
310
FFFFFFFC001FFFFFFFFFFFFFFC001FFFFFFFFFFFFFFFFFFFFFFFFFFE0007FFFF
310
F000FFFF8000007FFFFFFFF8000FFFFFC0007FFFFF80007FFFFF0000007FFFFF
310
FFF8000007FFFFF800000000000000007FFFFFF0001FFFFFFFFFFFC00001FFFF
310
FFFFFFFFC00001FFFFFFFF000000000003FFFFE000007FFFF000FFFE0000000F
310
FFFFFFF0000FFFFF80007FFFFF80007FFFFC0000001FFFFFFFC0000001FFFFF8
310
00000000000000007FFFFFF0001FFFFFFFFFFE0000003FFFFFFFFFFE0000003F
310
FFFFFF000000000003FFFF0000000FFFF000FFF800000003FFFFFFF00007FFFF
310
80007FFFFF80007FFFF000000007FFFFFF000000003FFFF80000000000000000
310
7FFFFFF0001FFFFFFFFFF80000000FFFFFFFFFF80000000FFFFFFF0000000000
310
03FFFC00000003FFF000FFE000000000FFFFFFF00007FFFF80003FFFFF80007F
310
FFC000000001FFFFFC000000001FFFF800000000000000007FFFFFF0001FFFFF
310
FFFFE000000003FFFFFFFFE000000003FFFFFF000000000003FFF000000000FF
310
F000FF80000000007FFFFFF00007FFFF80003FFFFF80007FFF8000000000FFFF
310
F80000000007FFF800000000000000007FFFFFF0001FFFFFFFFFC000000001FF
310
FFFFFFC000000001FFFFFF000000000003FFC0000000007FF000FF0000000000
310
3FFFFFE00007FFFF00003FFFFF80007FFE00000000003FFFF00000000003FFF8
310
00000000000000007FFFFFF0001FFFFFFFFF8000000000FFFFFFFF8000000000
310
FFFFFF000000000003FF80000000003FF000FE00000000001FFFFFE00003FFFF
310
00003FFFFF80007FFC00000000001FFFE00000000001FFF8000001FFFE000000
310
7FFFFFF0001FFFFFFFFE00000000003FFFFFFE00000000003FFFFF0000000000
310
03FF00000000001FF000FC00000000000FFFFFE00003FFFF00001FFFFF80007F
310
F800000000001FFFC00000000000FFF8000001FFFE0000007FFFFFF0001FFFFF
310
FFFC00000000001FFFFFFC00000000001FFFFF000000000003FE00000000000F
310
F000F8000000000007FFFFE00003FFFF00001FFFFF80007FF800000000000FFF
310
800000000000FFF8000001FFFE0000007FFFFFF0001FFFFFFFF800000000000F
310
FFFFF800000000000FFFFF000000000003FC000000000007F000F80000000000
310
03FFFFC00003FFFE00001FFFFF80007FF0000000000007FF0000000000007FF8
310
000001FFFE0000007FFFFFF0001FFFFFFFF0000000000007FFFFF00000000000
310
07FFFF000000000003F8000000000003F000F0000000000003FFFFC00001FFFE
310
00001FFFFF80007FE0000000000007FE0000000000003FF8000001FFFE000000
310
7FFFFFF0001FFFFFFFF0000000000007FFFFF0000000000007FFFF0000000000
310
03F800001F800003F000E00001FFF00001FFFFC00001FFFE00000FFFFF80007F
310
E00001FFE00003FE00001FFF00003FF8000001FFFE0000007FFFFFF0001FFFFF
310
FFE000003E000003FFFFE000003E000003FFFF000000000003F00001FFF80001
310
F000E00007FFFC0001FFFFC00001FFFE00000FFFFF80007FC0000FFFFC0003FC
310
0000FFFFC0001FF8000001FFFE0000007FFFFFF0001FFFFFFFC00003FFE00001
310
FFFFC00003FFE00001FFFF0001FFFFFFFFF00007FFFE0001F000E0000FFFFF00
310
00FFFF800001FFFC00000FFFFF80007FC0001FFFFE0001FC0001FFFFE0001FF8
310
000001FFFE0000007FFFFFF0001FFFFFFF80000FFFF80000FFFF80000FFFF800
310
00FFFF0003FFFFFFFFE0000FFFFF8000F000C0003FFFFF8000FFFF800000FFFC
310
000007FFFF80007F80003FFFFF0001FC0003FFFFF0001FF8000001FFFE000000
310
7FFFFFF0001FFFFFFF80003FFFFE0000FFFF80003FFFFE0000FFFF0003FFFFFF
310
FFE0003FFFFF8000F000C0003FFFFF8000FFFF800000FFFC000007FFFF80007F
310
80007FFFFF8001F80007FFFFF8000FF8000001FFFE0000007FFFFFF0001FFFFF
310
FF00007FFFFF00007FFF00007FFFFF00007FFF0003FFFFFFFFE0003FFFFFC000
310
F000C0007FFFFFC000FFFF000000FFFC000007FFFF80007F8000FFFFFF8000F8
310
000FFFFFF8000FF8000001FFFE0000007FFFFFF0001FFFFFFF0000FFFFFF8000
310
7FFF0000FFFFFF80007FFF0003FFFFFFFFC0007FFFFFC00070008000FFFFFFC0
310
00FFFF000000FFF8000007FFFF80007F8000FFFFFF8000F8000FFFFFF8000FF8
310
000001FFFE0000007FFFFFF0001FFFFFFE0001FFFFFFC0003FFE0001FFFFFFC0
310
003FFF0003FFFFFFFFC0007FFFFFE00070008000FFFFFFC0007FFF0000007FF8
310
000003FFFF80007F0001FFFFFF8000F8000FFFFFF8000FF8000001FFFE000000
310
7FFFFFF0001FFFFFFE0001FFFFFFC0003FFE0001FFFFFFC0003FFF0003FFFFFF
310
FFC000FFFFFFE00070008000FFFFFFC0007FFF0000007FF8000003FFFF80007F
310
0001FFFFFF8000F8001FFFFFF8000FF8000001FFFE0000007FFFFFF0001FFFFF
310
FE0003FFFFFFE0003FFE0003FFFFFFE0003FFF0003FFFFFFFFC000FFFFFFE000
310
70008000FFFFFFC0007FFE0000007FF8000003FFFF80007F0001FFFFFF8000F0
310
001FFFFFF8000FF8000001FFFE0000007FFFFFF0001FFFFFFC0003FFFFFFE000
310
1FFC0003FFFFFFE0001FFF0003FFFFFFFFC000FFFFFFC00070008000FFFFFF80
310
007FFE0000007FF0000003FFFF80007F0001FFFFFF0000F0001FFFFFF8000FF8
310
000001FFFE0000007FFFFFF0001FFFFFFC0007FFFFFFF0001FFC0007FFFFFFF0
310
001FFF0003FFFFFFFFC000FFFFFFC00070008001FFFFFF0000FFFE0000003FF0
310
000001FFFF80007F0001FFFFFF0000F8001FFFFFF0000FF8000001FFFE000000
310
7FFFFFF0001FFFFFFC0007FFFFFFF0001FFC0007FFFFFFF0001FFF0003FFFFFF
310
FFC001FFFFFF80007000FFFFFFFFFE0000FFFE0008003FF0008001FFFF80007F
310
FFFFFFFFFC0000FFFFFFFFFFE0000FF8000001FFFE0000007FFFFFF0001FFFFF
310
F8000FFFFFFFF8000FF8000FFFFFFFF8000FFF0003FFFFFFFFFFFFFFFFFF0000
310
7000FFFFFFFFFC0000FFFC0008003FF0008001FFFF80007FFFFFFFFFF80001FF
310
FFFFFFFF80000FF8000001FFFE0000007FFFFFF0001FFFFFF8000FFFFFFFF800
310
0FF8000FFFFFFFF8000FFF0003FFFFFFFFFFFFFFFFFE0000F000FFFFFFFFE000
310
00FFFC000C003FE000C001FFFF80007FFFFFFFFFC00001FFFFFFFFFE00001FF8
310
000001FFFE0000007FFFFFF0001FFFFFF8000FFFFFFFF8000FF8000FFFFFFFF8
310
000FFF0003FFFFFFFFFFFFFFFFF00000F000FFFFFFFE000001FFFC000C001FE0
310
00C000FFFF80007FFFFFFFFE000001FFFFFFFFE000001FF80FFFFFFFFFFFFFC0
310
7FFFFFF0001FFFFFF8000FFFFFFFF8000FF8000FFFFFFFF8000FFF0003FFFFFF
310
FFFFFFFFFF800000F000FFFFFFC0000001FFFC001C001FE001C000FFFF80007F
310
FFFFFF80000003FFFFFFF80000001FF80FFFFFFFFFFFFFC07FFFFFF0001FFFFF
310
F8001FFFFFFFFC000FF8001FFFFFFFFC000FFF0003FFFFFFFFFFFFFFF0000001
310
F000FFFFF800000001FFF8001C001FE001C000FFFF80007FFFFFF800000003FF
310
FFFF800000003FF80FFFFFFFFFFFFFC07FFFFFF0001FFFFFF8001FFFFFFFFC00
310
0FF8001FFFFFFFFC000FFF0003FFFFFFFFFFFFFE00000001F000FFFFC0000000
310
03FFF8001E001FC001E000FFFF80007FFFFF8000000007FFFFFC000000003FF8
310
0FFFFFFFFFFFFFC07FFFFFF0001FFFFFF8001FFFFFFFFC000FF8001FFFFFFFFC
310
000FFF0003FFFFFFFFFFFFE000000003F000FFFE0000000007FFF8001E000FC0
310
01E0007FFF80007FFFFE0000000007FFFFE0000000007FF80FFFFFFFFFFFFFC0
310
7FFFFFF0001FFFFFF0001FFFFFFFFC0007F0001FFFFFFFFC0007FF0003FFFFFF
310
FFFFFF0000000003F000FFF80000000007FFF8001E000FC003E0007FFF80007F
310
FFF0000000000FFFFF8000000000FFF80FFFFFFFFFFFFFC07FFFFFF0001FFFFF
310
F0001FFFFFFFFC0007F0001FFFFFFFFC0007FF0003FFFFFFFFFFFC0000000007
310
F000FFE0000000000FFFF0003E000FC003E0007FFF80007FFFC0000000001FFF
310
FE0000000001FFF80FFFFFFFFFFFFFC07FFFFFF0001FFFFFF0001FFFFFFFFC00
310
07F0001FFFFFFFFC0007FF0003FFFFFFFFFFF0000000000FF000FFC000000000
310
1FFFF0003F000F8003F0003FFF80007FFF80000000003FFFF80000000003FFF8
310
0FFFFFFFFFFFFFC07FFFFFF0001FFFFFF0001FFFFFFFFC0007F0001FFFFFFFFC
310
0007FF0003FFFFFFFFFFE0000000001FF000FF00000000007FFFF0003F000780
310
03F0003FFF80007FFF00000000007FFFF00000000007FFF80FFFFFFFFFFFFFC0
310
7FFFFFF0001FFFFFF0001FFFFFFFFC0007F0001FFFFFFFFC0007FF0003FFFFFF
310
FFFF80000000007FF000FE0000000000FFFFE0003F00078007F0003FFF80007F
310
FE0000000001FFFFE0000000001FFFF80FFFFFFFFFFFFFC07FFFFFF0001FFFFF
310
F0001FFFFFFFFC0007F0001FFFFFFFFC0007FF0003FFFFFFFFFF0000000000FF
310
F000FC0000000003FFFFE0007F00078007F0003FFF80007FFC0000000007FFFF
310
C0000000007FFFF80FFFFFFFFFFFFFC07FFFFFF0001FFFFFF8001FFFFFFFFC00
310
0FF8001FFFFFFFFC000FFF0003FFFFFFFFFE0000000003FFF000FC000000000F
310
FFFFE0007F80070007F8001FFF80007FF8000000001FFFFF8000000001FFFFF8
310
0FFFFFFFFFFFFFC07FFFFFF0001FFFFFF8001FFFFFFFFC000FF8001FFFFFFFFC
310
000FFF0003FFFFFFFFFC000000000FFFF000F8000000007FFFFFE0007F800700
310
07F8001FFF80007FF000000000FFFFFF800000000FFFFFF80FFFFFFFFFFFFFC0
310
7FFFFFF0001FFFFFF8000FFFFFFFF8000FF8000FFFFFFFF8000FFF0003FFFFFF
310
FFFC000000007FFFF000F800000007FFFFFFC0007F8003000FF8001FFF80007F
310
F000000007FFFFFF000000007FFFFFF80FFFFFFFFFFFFFC07FFFFFF0001FFFFF
310
F8000FFFFFFFF8000FF8000FFFFFFFF8000FFF0003FFFFFFFFF80000000FFFFF
310
F000F0000000FFFFFFFFC000FF8003000FF8001FFF80007FE0000000FFFFFFFF
310
0000000FFFFFFFF8000001FFFE0000007FFFFFF0001FFFFFF8000FFFFFFFF800
310
0FF8000FFFFFFFF8000FFF0003FFFFFFFFF8000000FFFFFFF000F000000FFFFF
310
FFFFC000FFC002000FF8000FFF80007FE000001FFFFFFFFE000001FFFFFFFFF8
310
000001FFFE0000007FFFFFF0001FFFFFF8000FFFFFFFF8000FF8000FFFFFFFF8
310
000FFF0003FFFFFFFFF000001FFFFFFFF000E00000FFFFFFFFFFC000FFC00200
310
0FFC000FFF80007FE00001FFFFFFFFFE00001FFFFFFFFFF8000001FFFE000000
310
7FFFFFF0001FFFFFFC000FFFFFFFF8001FFC000FFFFFFFF8001FFF0003FFFFFF
310
FFF00001FFFFFFFFF000E00007FFFFFFFFFF8000FFC000001FFC000FFF80007F
310
C0000FFFFFFFFFFE0000FFFFFFFFFFF8000001FFFE0000007FFFFFF0001FFFFF
310
FC0007FFFFFFF0001FFC0007FFFFFFF0001FFF0003FFFFFFFFF00007FFFFFFFF
310
F000E0001FFFFFFFFFFF8000FFC000001FFC000FFF80007FC0003FFFFFFFFFFE
310
0001FFFFFFFFFFF8000001FFFE0000007FFFFFF0001FFFFFFC0007FFFFFFF000
310
1FFC0007FFFFFFF0001FFF0003FFFFFFFFF0001FFFFFFFFFF000E0003FFFFF00
310
03FF8001FFE000001FFC0007FF80007FC0007FFFFF0007FC0003FFFFF0003FF8
310
000001FFFE0000007FFFFFF0001FFFFFFC0003FFFFFFE0001FFC0003FFFFFFE0
310
001FFF0003FFFFFFFFF0003FFFFFFFFFF000E0003FFFFF0001FF8001FFE00000
310
1FFE0007FF80007FC0007FFFFE0003FC0007FFFFE0003FF8000001FFFE000000
310
7FFFFFF0001FFFFFFE0003FFFFFFE0003FFE0003FFFFFFE0003FFF0003FFFFFF
310
FFF0003FFFFF8001F000E0003FFFFF0001FF0001FFE000001FFE0007FF80007F
310
C0007FFFFE0003FC0007FFFFE0003FF8000001FFFE0000007FFFFFF0001FFFFF
310
FE0001FFFFFFC0003FFE0001FFFFFFC0003FFF0003FFFFFFFFF0003FFFFF0001
310
F000E0003FFFFF0003FF0001FFE000003FFE0007FF80007FC0007FFFFE0003FC
310
0007FFFFE0003FF8000001FFFE0000007FFFFFF0001FFFFFFF0001FFFFFFC000
310
7FFF0001FFFFFFC0007FFF0003FFFFFFFFF0003FFFFF0001F000E0003FFFFE00
310
03FF0003FFF000003FFE0003FF80007FC0007FFFFC0003FE0007FFFFE0003FF8
310
000001FFFE0000007FFFFFF0001FFFFFFF0000FFFFFF80007FFF0000FFFFFF80
310
007FFF0003FFFFFFFFF0003FFFFF0001F000E0003FFFFE0003FF0003FFF00000
310
3FFF0003FF80007FC0007FFFFC0007FE0007FFFFC0003FF8000001FFFE000000
310
7FFFFFF0001FFFFFFF80007FFFFF0000FFFF80007FFFFF0000FFFF0003FFFFFF
310
FFF0003FFFFF0003F000E0003FFFFC0003FE0003FFF000003FFF0003FF80007F
310
E0003FFFF80007FE0003FFFFC0007FF8000001FFFE0000007FFFFFF0001FFFFF
310
FF80003FFFFE0000FFFF80003FFFFE0000FFFF0003FFFFFFFFF0001FFFFE0003
310
F000F0001FFFF80003FE0003FFF000007FFF0001FF80007FE0003FFFF00007FE
310
0001FFFF80007FF8000001FFFE0000007FFFFFF0001FFFFFFFC0000FFFF80001
310
FFFFC0000FFFF80001FFFF0003FFFFFFFFF0001FFFFC0003F000F0000FFFF000
310
07FE0007FFF800007FFF0001FF80007FE0001FFFE00007FF0000FFFE00007FF8
310
000001FFFE0000007FFFFFF0001FFFFFFFC00003FFE00001FFFFC00003FFE000
310
01FFFF0003FFFFFFFFF8000FFFF80003F000F00003FFC00007FC0007FFF80000
310
7FFF8001FF80007FF00007FF80000FFF00007FF80000FFF8000001FFFE000000
310
7F80000000000001FFE000003E000003FFFFE000003E000003FFFF0003FFFFFF
310
FFF80003FFE00007F000F800000000000FFC0007FFF800007FFF8001FF80007F
310
F000000000000FFF000000000000FFF8000001FFFE0000007F80000000000001
310
FFF0000000000007FFFFF0000000000007FFFF0003FFFFFFFFFC00007E000007
310
F000F800000000000FFC0007FFF80000FFFF8000FF80007FF800000000001FFF
310
800000000001FFF8000001FFFE0000007F80000000000001FFF800000000000F
310
FFFFF800000000000FFFFF0003FFFFFFFFFC00000000000FF000FC0000000000
310
1FFC0007FFFC0000FFFF8000FF80007FF800000000003FFFC00000000001FFF8
310
000001FFFE0000007F80000000000001FFF800000000000FFFFFF80000000000
310
0FFFFF0003FFFFFFFFFE00000000001FF000FE00000000003FF8000FFFFC0000
310
FFFF8000FF80007FFC00000000003FFFC00000000003FFF8000001FFFE000000
310
7F80000000000001FFFC00000000001FFFFFFC00000000001FFFFF0003FFFFFF
310
FFFF00000000001FF000FF00000000003FF8000FFFFC0000FFFFC000FF80007F
310
FE00000000007FFFE00000000007FFF8000001FFFE0000007F80000000000001
310
FFFE00000000003FFFFFFE00000000003FFFFF0003FFFFFFFFFF80000000003F
310
F000FF80000000007FF8000FFFFC0001FFFFC0007F80007FFF0000000000FFFF
310
F0000000000FFFF800000000000000007F80000000000001FFFF8000000000FF
310
FFFFFF8000000000FFFFFF0003FFFFFFFFFFC0000000007FF000FFC000000000
310
FFF8000FFFFE0001FFFFC0007F80007FFF8000000001FFFFF8000000001FFFF8
310
00000000000000007F80000000000001FFFFC000000001FFFFFFFFC000000001
310
FFFFFF0003FFFFFFFFFFE000000000FFF000FFE000000003FFF0001FFFFE0001
310
FFFFC0007F80007FFFC000000007FFFFFE000000003FFFF80000000000000000
310
7F80000000000001FFFFE000000003FFFFFFFFE000000003FFFFFF0003FFFFFF
310
FFFFF000000003FFF000FFF80000000FFFF0001FFFFE0001FFFFE0007F80007F
310
FFF00000000FFFFFFF00000000FFFFF800000000000000007F80000000000001
310
FFFFF80000000FFFFFFFFFF80000000FFFFFFF0003FFFFFFFFFFFC0000000FFF
310
F000FFFE0000003FFFF0001FFFFE0003FFFFE0003F80007FFFFC0000003FFFFF
310
FFC0000003FFFFF800000000000000007F80000000000001FFFFFE0000003FFF
310
FFFFFFFE0000003FFFFFFF0003FFFFFFFFFFFF0000003FFFF000FFFF800000FF
310
FFF0001FFFFF0003FFFFE0003F80007FFFFF000001FFFFFFFFF800001FFFFFF8
310
00000000000000007F80000000000001FFFFFFC00001FFFFFFFFFFFFC00001FF
310
FFFFFF0003FFFFFFFFFFFFC00000FFFFF000FFFFF8000FFFFFFFFFFFFFFFFFFF
310
FFFFFFFFFFFFFFFFFFFFF0001FFFFFFFFFFF0000FFFFFFF80000000000000000
310
7FFFFFFFFFFFFFFFFFFFFFFC001FFFFFFFFFFFFFFC001FFFFFFFFFFFFFFFFFFF
310
FFFFFFFC001FFFFFF000FFFFFFFFFFFFFFFFFFFFFFFFFFFFFFFFFFFFFFFFFFFF
310
FFFFFFFFFFFFFFFFFFFFFFFFFFFFFFFFFFFFFFFFFFFFFFFFFFFFFFFFFFFFFFFF
310
FFFFFFFFFFFFFFFFFFFFFFFFFFFFFFFFFFFFFFFFFFFFFFFFFFFFFFFFFFFFFFFF
310
F000FFFFFFFFFFFFFFFFFFFFFFFFFFFFFFFFFFFFFFFFFFFFFFFFFFFFFFFFFFFF
310
FFFFFFFFFFFFFFFFFFFFFFFFFFFFFFFFFFFFFFFFFFFFFFFFFFFFFFFFFFFFFFFF
310
FFFFFFFFFFFFFFFFFFFFFFFFFFFFFFFFFFFFFFFFFFFFFFFFF000FFFFFFFFFFFF
310
FFFFFFFFFFFFFFFFFFFFFFFFFFFFFFFFFFFFFFFFFFFFFFFFFFFFFFFFFFFFFFFF
310
FFFFFFFFFFFFFFFFFFFFFFFFFFFFFFFFFFFFFFFFFFFFFFFFFFFFFFFFFFFFFFFF
310
FFFFFFFFFFFFFFFFFFFFFFFFFFFFFFFFF000FFFFFFFFFFFFFFFFFFFFFFFFFFFF
310
FFFFFFFFFFFFFFFFFFFFFFFFFFFFFFFFFFFFFFFFFFFFFFFFFFFFFFFFFFFFFFFF
310
FFFFFFFFFFFFFFFFFFFFFFFFFFFFFFFFFFFFFFFFFFFFFFFFFFFFFFFFFFFFFFFF
310
FFFFFFFFFFFFFFFFF000FFFFFFFFFFFFFFFFFFFFFFFFFFFFFFFFFFFFFFFFFFFF
310
FFFFFFFFFFFFFFFFFFFFFFFFFFFFFFFFFFFFFFFFFFFFFFFFFFFFFFFFFFFFFFFF
310
FFFFFFFFFFFFFFFFFFFFFFFFFFFFFFFFFFFFFFFFFFFFFFFFFFFFFFFFFFFFFFFF
310
F000FFFFFFFFFFFFFFFFFFFFFFFFFFFFFFFFFFFFFFFFFFFFFFFFFFFFFFFFFFFF
310
FFFFFFFFFFFFFFFFFFFFFFFFFFFFFFFFFFFFFFFFFFFFFFFFFFFFFFFFFFFFFFFF
310
FFFFFFFFFFFFFFFFFFFFFFFFFFFFFFFFFFFFFFFFFFFFFFFFF000FFFFFFFFFFFF
310
FFFFFFFFFFFFFFFFFFFFFFFFFFFFFFFFFFFFFFFFFFFFFFFFFFFFFFFFFFFFFFFF
310
FFFFFFFFFFFFFFFFFFFFFFFFFFFFFFFFFFFFFFFFFFFFFFFFFFFFFFFFFFFFFFFF
310
FFFFFFFFFFFFFFFFFFFFFFFFFFFFFFFFF000FFFFFFFFFFFFFFFFFFFFFFFFFFFF
310
FFFFFFFFFFFFFFFFFFFFFFFFFFFFFFFFFFFFFFFFFFFFFFFFFFFFFFFFFFFFFFFF
310
FFFFFFFFFFFFFFFFFFFFFFFFFFFFFFFFFFFFFFFFFFFFFFFFFFFFFFFFFFFFFFFF
310
FFFFFFFFFFFFFFFFF000FFFFFFFFFFFFFFFFFFFFFFFFFFFFFFFFFFFFFFFFFFFF
310
FFFFFFFFFFFFFFFFFFFFFFFFFFFFFFFFFFFFFFFFFFFFFFFFFFFFFFFFFFFFFFFF
310
FFFFFFFFFFFFFFFFFFFFFFFFFFFFFFFFFFFFFFFFFFFFFFFFFFFFFFFFFFFFFFFF
310
F000FFFFFFFFFFFFFFFFFFFFFFFFFFFFFFFFFFFFFFFFFFFFFFFFFFFFFFFFFFFF
310
FFFFFFFFFFFFFFFFFFFFFFFFFFFFFFFFFFFFFFFFFFFFFFFFFFFFFFFFFFFFFFFF
310
FFFFFFFFFFFFFFFFFFFFFFFFFFFFFFFFFFFFFFFFFFFFFFFFF000FFFFFFFFFFFF
310
FFFFFFFFFFFFFFFFFFFFFFFFFFFFFFFFFFFFFFFFFFFFFFFFFFFFFFFFFFFFFFFF
310
FFFFFFFFFFFFFFFFFFFFFFFFFFFFFFFFFFFFFFFFFFFFFFFFFFFFFFFFFFFFFFFF
310
FFFFFFFFFFFFFFFFFFFFFFFFFFFFFFFFF000FFFFFFFFFFFFFFFFFFFFFFFFFFFF
310
FFFFFFFFFFFFFFFFFFFFFFFFFFFFFFFFFFFFFFFFFFFFFFFFFFFFFFFFFFFFFFFF
310
FFFFFFFFFFFFFFFFFFFFFFFFFFFFFFFFFFFFFFFFFFFFFFFFFFFFFFFFFFFFFFFF
310
FFFFFFFFFFFFFFFFF000FFFFFFFFFFFFFFFFFFFFFFFFFFFFFFFFFFFFFFFFFFFF
310
FFFFFFFFFFFFFFFFFFFFFFFFFFFFFFFFFFFFFFFFFFFFFFFFFFFFFFFFFFFFFFFF
310
FFFFFFFFFFFFFFFFFFFFFFFFFFFFFFFFFFFFFFFFFFFFFFFFFFFFFFFFFFFFFFFF
310
F000FFFFFFFFFFFFFFFFFFFFFFFFFFFFFFFFFFFFFFFFFFFFFFFFFFFFFFFFFFFF
310
FFFFFFFFFFFFFFFFFFFFFFFFFFFFFFFFFFFFFFFFFFFFFFFFFFFFFFFFFFFFFFFF
310
FFFFFFFFFFFFFFFFFFFFFFFFFFFFFFFFFFFFFFFFFFFFFFFFF000FFFFFFFFFFFF
310
FFFFFFFFFFFFFFFFFFFFFFFFFFFFFFFFFFFFFFFFFFFFFFFFFFFFFFFFFFFFFFFF
310
FFFFFFFFFFFFFFFFFFFFFFFFFFFFFFFFFFFFFFFFFFFFFFFFFFFFFFFFFFFFFFFF
310
FFFFFFFFFFFFFFFFFFFFFFFFFFFFFFFFF000FFFFFFFFFFFFFFFFFFFFFFFFFFFF
310
FFFFFFFFFFFFFFFFFFFFFFFFFFFFFFFFFFFFFFFFFFFFFFFFFFFFFFFFFFFFFFFF
310
FFFFFFFFFFFFFFFFFFFFFFFFFFFFFFFFFFFFFFFFFFFFFFFFFFFFFFFFFFFFFFFF
310
FFFFFFFFFFFFFFFFF000FFFFFFFFFFFFFFFFFFFFFFFFFFFFFFFFFFFFFFFFFFFF
310
FFFFFFFFFFFFFFFFFFFFFFFFFFFFFFFFFFFFFFFFFFFFFFFFFFFFFFFFFFFFFFFF
310
FFFFFFFFFFFFFFFFFFFFFFFFFFFFFFFFFFFFFFFFFFFFFFFFFFFFFFFFFFFFFFFF
310
F000FFFFFFFFFFFFFFFFFFFFFFFFFFFFFFFFFFFFFFFFFFFFFFFFFFFFFFFFFFFF
310
FFFFFFFFFFFFFFFFFFFFFFFFFFFFFFFFFFFFFFFFFFFFFFFFFFFFFFFFFFFFFFFF
310
FFFFFFFFFFFFFFFFFFFFFFFFFFFFFFFFFFFFFFFFFFFFFFFFF000FFFFFFFFFFFF
310
FFFFFFFFFFFFFFFFFFFFFFFFFFFFFFFFFFFFFFFFFFFFFFFFFFFFFFFFFFFFFFFF
310
FFFFFFFFFFFFFFFFFFFFFFFFFFFFFFFFFFFFFFFFFFFFFFFFFFFFFFFFFFFFFFFF
310
FFFFFFFFFFFFFFFFFFFFFFFFFFFFFFFFF000FFFFFFFFFFFFFFFFFFFFFFFFFFFF
310
FFFFFFFFFFFFFFFFFFFFFFFFFFFFFFFFFFFFFFFFFFFFFFFFFFFFFFFFFFFFFFFF
310
FFFFFFFFFFFFFFFFFFFFFFFFFFFFFFFFFFFFFFFFFFFFFFFFFFFFFFFFFFFFFFFF
310
FFFFFFFFFFFFFFFFF000FFFFFFFFFFFFFFFFFFFFFFFFFFFFFFFFFFFFFFFFFFFF
310
FFFFFFFFFFFFFFFFFFFFFFFFFFFFFFFFFFFFFFFFFFFFFFFFFFFFFFFFFFFFFFFF
310
FFFFFFFFFFFFFFFFFFFFFFFFFFFFFFFFFFFFFFFFFFFFFFFFFFFFFFFFFFFFFFFF
310
F000FFFFFFFFFFFFFFFFFFFFFFFFFFFFFFFFFFFFFFFFFFFFFFFFFFFFFFFFFFFF
310
FFFFFFFFFFFFFFFFFFFFFFFFFFFFFFFFFFFFFFFFFFFFFFFFFFFFFFFFFFFFFFFF
310
FFFFFFFFFFFFFFFFFFFFFFFFFFFFFFFFFFFFFFFFFFFFFFFFF000FFFFFFFFFFFF
310
FFFFFFFFFFFFFFFFFFFFFFFFFFFFFFFFFFFFFFFFFFFFFFFFFFFFFFFFFFFFFFFF
310
FFFFFFFFFFFFFFFFFFFFFFFFFFFFFFFFFFFFFFFFFFFFFFFFFFFFFFFFFFFFFFFF
310
FFFFFFFFFFFFFFFFFFFFFFFFFFFFFFFFF0000000000000000000000000000000
310
0000000000000000000000000000000000000000000000000000000000000000
310
0000000000000000000000000000000000000000000000000000000000000000
310
0000000000000000000000000000000000000000000000000000000000000000
310
0000000000000000000000000000000000000000000000000000000000000000
310
0000000000000000000000000000000000000000000000000000000000000000
310
0000000000000000000000000000000000000000000000000000000000000000
310
0000000000000000000000000000000000000000000000000000000000000000
310
0000000000000000000000000000000000000000000000000000000000000000
310
0000000000000000000000000000000000000000000000000000000000000000
310
0000000000000000000000000000000000000000000000000000000000000000
310
0000000000000000000000000000000000000000000000000000000000000000
310
0000000000000000000000000000000000000000000000000000000000000000
310
0000000000000000000000000000000000000000000000000000000000000000
310
0000000000000000000000000000000000000000000000000000000000000000
310
0000000000000000000000000000000000000000000000000000000000000000
  1
OLE
  0
ENDSEC
  0
SECTION
  2
OBJECTS
  0
DICTIONARY
  5
C
330
0
100
AcDbDictionary
281
     1
  3
ACAD_GROUP
350
D
  3
ACAD_LAYOUT
350
1A
  3
ACAD_MLINESTYLE
350
17
  3
ACAD_PLOTSETTINGS
350
19
  3
ACAD_PLOTSTYLENAME
350
E
  3
ACAD_SCALELIST
350
47
  0
DICTIONARY
  5
D
102
{ACAD_REACTORS
330
C
102
}
330
C
100
AcDbDictionary
281
     1
  0
DICTIONARY
  5
1A
102
{ACAD_REACTORS
330
C
102
}
330
C
100
AcDbDictionary
281
     1
  3
Layout1
350
1E
  3
Layout2
350
26
  3
Model
350
22
  0
DICTIONARY
  5
17
102
{ACAD_REACTORS
330
C
102
}
330
C
100
AcDbDictionary
281
     1
  3
Standard
350
18
  0
DICTIONARY
  5
19
102
{ACAD_REACTORS
330
C
102
}
330
C
100
AcDbDictionary
281
     1
  0
ACDBDICTIONARYWDFLT
  5
E
102
{ACAD_REACTORS
330
C
102
}
330
C
100
AcDbDictionary
281
     1
  3
Normal
350
F
100
AcDbDictionaryWithDefault
340
F
  0
DICTIONARY
  5
47
102
{ACAD_REACTORS
330
C
102
}
330
C
100
AcDbDictionary
281
     1
  3
A0
350
48
  3
A1
350
49
  3
A2
350
4A
  3
A3
350
4B
  3
A4
350
4C
  3
A5
350
4D
  3
A6
350
4E
  3
A7
350
4F
  3
A8
350
50
  3
A9
350
51
  3
B0
350
52
  3
B1
350
53
  3
B2
350
54
  3
B3
350
55
  3
B4
350
56
  3
B5
350
57
  3
B6
350
58
  3
B7
350
59
  3
B8
350
5A
  3
B9
350
5B
  3
C0
350
5C
  3
C1
350
5D
  3
C2
350
5E
  3
C3
350
5F
  3
C4
350
60
  3
C5
350
61
  3
C6
350
62
  3
C7
350
63
  3
C8
350
64
  3
C9
350
65
  3
D0
350
66
  3
D1
350
67
  3
D2
350
68
  0
LAYOUT
  5
1E
102
{ACAD_REACTORS
330
1A
102
}
330
1A
100
AcDbPlotSettings
  1

  2
none_device
  4

  6

 40
0.0
 41
0.0
 42
0.0
 43
0.0
 44
0.0
 45
0.0
 46
0.0
 47
0.0
 48
0.0
 49
0.0
140
0.0
141
0.0
142
1.0
143
1.0
 70
   688
 72
     1
 73
     0
 74
     5
  7

 75
    16
147
1.0
148
0.0
149
0.0
100
AcDbLayout
  1
Layout1
 70
     1
 71
     1
 10
0.0
 20
0.0
 11
420.0
 21
297.0
 12
0.0
 22
0.0
 32
0.0
 14
1.0000000000E+20
 24
1.0000000000E+20
 34
1.0000000000E+20
 15
-1.0000000000E+20
 25
-1.0000000000E+20
 35
-1.0000000000E+20
146
0.0
 13
0.0
 23
0.0
 33
0.0
 16
1.0
 26
0.0
 36
0.0
 17
0.0
 27
1.0
 37
0.0
 76
     0
330
1B
  0
LAYOUT
  5
26
102
{ACAD_REACTORS
330
1A
102
}
330
1A
100
AcDbPlotSettings
  1

  2
none_device
  4

  6

 40
0.0
 41
0.0
 42
0.0
 43
0.0
 44
0.0
 45
0.0
 46
0.0
 47
0.0
 48
0.0
 49
0.0
140
0.0
141
0.0
142
1.0
143
1.0
 70
   688
 72
     1
 73
     0
 74
     5
  7

 75
    16
147
1.0
148
0.0
149
0.0
100
AcDbLayout
  1
Layout2
 70
     1
 71
     2
 10
0.0
 20
0.0
 11
0.0
 21
0.0
 12
0.0
 22
0.0
 32
0.0
 14
0.0
 24
0.0
 34
0.0
 15
0.0
 25
0.0
 35
0.0
146
0.0
 13
0.0
 23
0.0
 33
0.0
 16
1.0
 26
0.0
 36
0.0
 17
0.0
 27
1.0
 37
0.0
 76
     0
330
23
  0
LAYOUT
  5
22
102
{ACAD_REACTORS
330
1A
102
}
330
1A
100
AcDbPlotSettings
  1

  2
none_device
  4
Letter_(8.50_x_11.00_Inches)
  6

 40
6.35
 41
6.35
 42
6.35000508
 43
6.35000508
 44
215.9
 45
279.4
 46
0.0
 47
0.0
 48
0.0
 49
0.0
140
0.0
141
0.0
142
1.0
143
1.0
 70
  1712
 72
     1
 73
     0
 74
     0
  7

 75
     0
147
1.0
148
0.0
149
0.0
100
AcDbLayout
  1
Model
 70
     1
 71
     0
 10
0.0
 20
0.0
 11
297.0
 21
210.0
 12
0.0
 22
0.0
 32
0.0
 14
0.0
 24
0.0
 34
0.0
 15
297.0
 25
210.0
 35
0.0
146
0.0
 13
0.0
 23
0.0
 33
0.0
 16
1.0
 26
0.0
 36
0.0
 17
0.0
 27
1.0
 37
0.0
 76
     0
330
1F
331
29
  0
MLINESTYLE
  5
18
102
{ACAD_REACTORS
330
17
102
}
330
17
100
AcDbMlineStyle
  2
Standard
 70
     0
  3

 62
   256
 51
90.0
 52
90.0
 71
     2
 49
0.5
 62
   256
  6
BYLAYER
 49
-0.5
 62
   256
  6
BYLAYER
  0
ACDBPLACEHOLDER
  5
F
102
{ACAD_REACTORS
330
E
102
}
330
E
  0
SCALE
  5
48
102
{ACAD_REACTORS
330
47
102
}
330
47
100
AcDbScale
 70
     0
300
1:1
140
1.0
141
1.0
290
     1
  0
SCALE
  5
49
102
{ACAD_REACTORS
330
47
102
}
330
47
100
AcDbScale
 70
     0
300
1:2
140
1.0
141
2.0
290
     0
  0
SCALE
  5
4A
102
{ACAD_REACTORS
330
47
102
}
330
47
100
AcDbScale
 70
     0
300
1:4
140
1.0
141
4.0
290
     0
  0
SCALE
  5
4B
102
{ACAD_REACTORS
330
47
102
}
330
47
100
AcDbScale
 70
     0
300
1:5
140
1.0
141
5.0
290
     0
  0
SCALE
  5
4C
102
{ACAD_REACTORS
330
47
102
}
330
47
100
AcDbScale
 70
     0
300
1:8
140
1.0
141
8.0
290
     0
  0
SCALE
  5
4D
102
{ACAD_REACTORS
330
47
102
}
330
47
100
AcDbScale
 70
     0
300
1:10
140
1.0
141
10.0
290
     0
  0
SCALE
  5
4E
102
{ACAD_REACTORS
330
47
102
}
330
47
100
AcDbScale
 70
     0
300
1:16
140
1.0
141
16.0
290
     0
  0
SCALE
  5
4F
102
{ACAD_REACTORS
330
47
102
}
330
47
100
AcDbScale
 70
     0
300
1:20
140
1.0
141
20.0
290
     0
  0
SCALE
  5
50
102
{ACAD_REACTORS
330
47
102
}
330
47
100
AcDbScale
 70
     0
300
1:30
140
1.0
141
30.0
290
     0
  0
SCALE
  5
51
102
{ACAD_REACTORS
330
47
102
}
330
47
100
AcDbScale
 70
     0
300
1:40
140
1.0
141
40.0
290
     0
  0
SCALE
  5
52
102
{ACAD_REACTORS
330
47
102
}
330
47
100
AcDbScale
 70
     0
300
1:50
140
1.0
141
50.0
290
     0
  0
SCALE
  5
53
102
{ACAD_REACTORS
330
47
102
}
330
47
100
AcDbScale
 70
     0
300
1:100
140
1.0
141
100.0
290
     0
  0
SCALE
  5
54
102
{ACAD_REACTORS
330
47
102
}
330
47
100
AcDbScale
 70
     0
300
2:1
140
2.0
141
1.0
290
     0
  0
SCALE
  5
55
102
{ACAD_REACTORS
330
47
102
}
330
47
100
AcDbScale
 70
     0
300
4:1
140
4.0
141
1.0
290
     0
  0
SCALE
  5
56
102
{ACAD_REACTORS
330
47
102
}
330
47
100
AcDbScale
 70
     0
300
8:1
140
8.0
141
1.0
290
     0
  0
SCALE
  5
57
102
{ACAD_REACTORS
330
47
102
}
330
47
100
AcDbScale
 70
     0
300
10:1
140
10.0
141
1.0
290
     0
  0
SCALE
  5
58
102
{ACAD_REACTORS
330
47
102
}
330
47
100
AcDbScale
 70
     0
300
100:1
140
100.0
141
1.0
290
     0
  0
SCALE
  5
59
102
{ACAD_REACTORS
330
47
102
}
330
47
100
AcDbScale
 70
     0
300
1/128" = 1'-0"
140
0.0078125
141
12.0
290
     0
  0
SCALE
  5
5A
102
{ACAD_REACTORS
330
47
102
}
330
47
100
AcDbScale
 70
     0
300
1/64" = 1'-0"
140
0.015625
141
12.0
290
     0
  0
SCALE
  5
5B
102
{ACAD_REACTORS
330
47
102
}
330
47
100
AcDbScale
 70
     0
300
1/32" = 1'-0"
140
0.03125
141
12.0
290
     0
  0
SCALE
  5
5C
102
{ACAD_REACTORS
330
47
102
}
330
47
100
AcDbScale
 70
     0
300
1/16" = 1'-0"
140
0.0625
141
12.0
290
     0
  0
SCALE
  5
5D
102
{ACAD_REACTORS
330
47
102
}
330
47
100
AcDbScale
 70
     0
300
3/32" = 1'-0"
140
0.09375
141
12.0
290
     0
  0
SCALE
  5
5E
102
{ACAD_REACTORS
330
47
102
}
330
47
100
AcDbScale
 70
     0
300
1/8" = 1'-0"
140
0.125
141
12.0
290
     0
  0
SCALE
  5
5F
102
{ACAD_REACTORS
330
47
102
}
330
47
100
AcDbScale
 70
     0
300
3/16" = 1'-0"
140
0.1875
141
12.0
290
     0
  0
SCALE
  5
60
102
{ACAD_REACTORS
330
47
102
}
330
47
100
AcDbScale
 70
     0
300
1/4" = 1'-0"
140
0.25
141
12.0
290
     0
  0
SCALE
  5
61
102
{ACAD_REACTORS
330
47
102
}
330
47
100
AcDbScale
 70
     0
300
3/8" = 1'-0"
140
0.375
141
12.0
290
     0
  0
SCALE
  5
62
102
{ACAD_REACTORS
330
47
102
}
330
47
100
AcDbScale
 70
     0
300
1/2" = 1'-0"
140
0.5
141
12.0
290
     0
  0
SCALE
  5
63
102
{ACAD_REACTORS
330
47
102
}
330
47
100
AcDbScale
 70
     0
300
3/4" = 1'-0"
140
0.75
141
12.0
290
     0
  0
SCALE
  5
64
102
{ACAD_REACTORS
330
47
102
}
330
47
100
AcDbScale
 70
     0
300
1" = 1'-0"
140
1.0
141
12.0
290
     0
  0
SCALE
  5
65
102
{ACAD_REACTORS
330
47
102
}
330
47
100
AcDbScale
 70
     0
300
1-1/2" = 1'-0"
140
1.5
141
12.0
290
     0
  0
SCALE
  5
66
102
{ACAD_REACTORS
330
47
102
}
330
47
100
AcDbScale
 70
     0
300
3" = 1'-0"
140
3.0
141
12.0
290
     0
  0
SCALE
  5
67
102
{ACAD_REACTORS
330
47
102
}
330
47
100
AcDbScale
 70
     0
300
6" = 1'-0"
140
6.0
141
12.0
290
     0
  0
SCALE
  5
68
102
{ACAD_REACTORS
330
47
102
}
330
47
100
AcDbScale
 70
     0
300
1'-0" = 1'-0"
140
12.0
141
12.0
290
     0
  0
ENDSEC
  0
EOF
