  0
SECTION
  2
HEADER
  9
$ACADVER
  1
AC1015
  9
$ACADMAINTVER
 70
     6
  9
$DWGCODEPAGE
  3
ANSI_1252
  9
$INSBASE
 10
0.0
 20
0.0
 30
0.0
  9
$EXTMIN
 10
0.0
 20
0.0
 30
0.0
  9
$EXTMAX
 10
297.0
 20
210.0
 30
0.0
  9
$LIMMIN
 10
0.0
 20
0.0
  9
$LIMMAX
 10
297.0
 20
210.0
  9
$ORTHOMODE
 70
     0
  9
$REGENMODE
 70
     1
  9
$FILLMODE
 70
     1
  9
$QTEXTMODE
 70
     0
  9
$MIRRTEXT
 70
     1
  9
$LTSCALE
 40
1.0
  9
$ATTMODE
 70
     1
  9
$TEXTSIZE
 40
2.0
  9
$TRACEWID
 40
1.0
  9
$TEXTSTYLE
  7
Standard
  9
$CLAYER
  8
0
  9
$CELTYPE
  6
ByLayer
  9
$CECOLOR
 62
   256
  9
$CELTSCALE
 40
1.0
  9
$DISPSILH
 70
     0
  9
$DIMSCALE
 40
1.0
  9
$DIMASZ
 40
3.0
  9
$DIMEXO
 40
0.0
  9
$DIMDLI
 40
3.75
  9
$DIMRND
 40
0.0
  9
$DIMDLE
 40
0.0
  9
$DIMEXE
 40
1.0
  9
$DIMTP
 40
0.0
  9
$DIMTM
 40
0.0
  9
$DIMTXT
 40
2.0
  9
$DIMCEN
 40
2.5
  9
$DIMTSZ
 40
0.0
  9
$DIMTOL
 70
     0
  9
$DIMLIM
 70
     0
  9
$DIMTIH
 70
     1
  9
$DIMTOH
 70
     1
  9
$DIMSE1
 70
     0
  9
$DIMSE2
 70
     0
  9
$DIMTAD
 70
     1
  9
$DIMZIN
 70
     0
  9
$DIMBLK
  1

  9
$DIMASO
 70
     1
  9
$DIMSHO
 70
     1
  9
$DIMPOST
  1

  9
$DIMAPOST
  1

  9
$DIMALT
 70
     0
  9
$DIMALTD
 70
     3
  9
$DIMALTF
 40
0.0393700787
  9
$DIMLFAC
 40
1.0
  9
$DIMTOFL
 70
     1
  9
$DIMTVP
 40
0.0
  9
$DIMTIX
 70
     0
  9
$DIMSOXD
 70
     0
  9
$DIMSAH
 70
     0
  9
$DIMBLK1
  1

  9
$DIMBLK2
  1

  9
$DIMSTYLE
  2
ISO-25
  9
$DIMCLRD
 70
     0
  9
$DIMCLRE
 70
     0
  9
$DIMCLRT
 70
     0
  9
$DIMTFAC
 40
1.0
  9
$DIMGAP
 40
1.524
  9
$DIMJUST
 70
     0
  9
$DIMSD1
 70
     0
  9
$DIMSD2
 70
     0
  9
$DIMTOLJ
 70
     0
  9
$DIMTZIN
 70
     0
  9
$DIMALTZ
 70
     0
  9
$DIMALTTZ
 70
     0
  9
$DIMUPT
 70
     0
  9
$DIMDEC
 70
     2
  9
$DIMTDEC
 70
     3
  9
$DIMALTU
 70
     2
  9
$DIMALTTD
 70
     3
  9
$DIMTXSTY
  7
Standard
  9
$DIMAUNIT
 70
     0
  9
$DIMADEC
 70
     2
  9
$DIMALTRND
 40
0.0
  9
$DIMAZIN
 70
     0
  9
$DIMDSEP
 70
    44
  9
$DIMATFIT
 70
     3
  9
$DIMFRAC
 70
     0
  9
$DIMLDRBLK
  1

  9
$DIMLUNIT
 70
     2
  9
$DIMLWD
 70
    -2
  9
$DIMLWE
 70
    -2
  9
$DIMTMOVE
 70
     0
  9
$LUNITS
 70
     2
  9
$LUPREC
 70
     2
  9
$SKETCHINC
 40
1.0
  9
$FILLETRAD
 40
10.0
  9
$AUNITS
 70
     0
  9
$AUPREC
 70
     2
  9
$MENU
  1
.
  9
$ELEVATION
 40
0.0
  9
$PELEVATION
 40
0.0
  9
$THICKNESS
 40
0.0
  9
$LIMCHECK
 70
     0
  9
$CHAMFERA
 40
0.0
  9
$CHAMFERB
 40
0.0
  9
$CHAMFERC
 40
0.0
  9
$CHAMFERD
 40
0.0
  9
$SKPOLY
 70
     0
  9
$TDCREATE
 40
2457669.413555162
  9
$TDUCREATE
 40
2457669.330221829
  9
$TDUPDATE
 40
2457669.413556655
  9
$TDUUPDATE
 40
2457669.330223322
  9
$TDINDWG
 40
0.0000000116
  9
$TDUSRTIMER
 40
0.0000000116
  9
$USRTIMER
 70
     1
  9
$ANGBASE
 50
0.0
  9
$ANGDIR
 70
     0
  9
$PDMODE
 70
     0
  9
$PDSIZE
 40
-1.0
  9
$PLINEWID
 40
0.0
  9
$SPLFRAME
 70
     0
  9
$SPLINETYPE
 70
     6
  9
$SPLINESEGS
 70
     8
  9
$HANDSEED
  5
274
  9
$SURFTAB1
 70
     6
  9
$SURFTAB2
 70
     6
  9
$SURFTYPE
 70
     6
  9
$SURFU
 70
     6
  9
$SURFV
 70
     6
  9
$UCSBASE
  2

  9
$UCSNAME
  2

  9
$UCSORG
 10
0.0
 20
0.0
 30
0.0
  9
$UCSXDIR
 10
1.0
 20
0.0
 30
0.0
  9
$UCSYDIR
 10
0.0
 20
1.0
 30
0.0
  9
$UCSORTHOREF
  2

  9
$UCSORTHOVIEW
 70
     0
  9
$UCSORGTOP
 10
0.0
 20
0.0
 30
0.0
  9
$UCSORGBOTTOM
 10
0.0
 20
0.0
 30
0.0
  9
$UCSORGLEFT
 10
0.0
 20
0.0
 30
0.0
  9
$UCSORGRIGHT
 10
0.0
 20
0.0
 30
0.0
  9
$UCSORGFRONT
 10
0.0
 20
0.0
 30
0.0
  9
$UCSORGBACK
 10
0.0
 20
0.0
 30
0.0
  9
$PUCSBASE
  2

  9
$PUCSNAME
  2

  9
$PUCSORG
 10
0.0
 20
0.0
 30
0.0
  9
$PUCSXDIR
 10
1.0
 20
0.0
 30
0.0
  9
$PUCSYDIR
 10
0.0
 20
1.0
 30
0.0
  9
$PUCSORTHOREF
  2

  9
$PUCSORTHOVIEW
 70
     0
  9
$PUCSORGTOP
 10
0.0
 20
0.0
 30
0.0
  9
$PUCSORGBOTTOM
 10
0.0
 20
0.0
 30
0.0
  9
$PUCSORGLEFT
 10
0.0
 20
0.0
 30
0.0
  9
$PUCSORGRIGHT
 10
0.0
 20
0.0
 30
0.0
  9
$PUCSORGFRONT
 10
0.0
 20
0.0
 30
0.0
  9
$PUCSORGBACK
 10
0.0
 20
0.0
 30
0.0
  9
$USERI1
 70
     0
  9
$USERI2
 70
     0
  9
$USERI3
 70
     0
  9
$USERI4
 70
     0
  9
$USERI5
 70
     0
  9
$USERR1
 40
0.0
  9
$USERR2
 40
0.0
  9
$USERR3
 40
0.0
  9
$USERR4
 40
0.0
  9
$USERR5
 40
0.0
  9
$WORLDVIEW
 70
     1
  9
$SHADEDGE
 70
     3
  9
$SHADEDIF
 70
    70
  9
$TILEMODE
 70
     1
  9
$MAXACTVP
 70
    64
  9
$PINSBASE
 10
0.0
 20
0.0
 30
0.0
  9
$PLIMCHECK
 70
     0
  9
$PEXTMIN
 10
1.0000000000E+20
 20
1.0000000000E+20
 30
1.0000000000E+20
  9
$PEXTMAX
 10
-1.0000000000E+20
 20
-1.0000000000E+20
 30
-1.0000000000E+20
  9
$PLIMMIN
 10
0.0
 20
0.0
  9
$PLIMMAX
 10
420.0
 20
297.0
  9
$UNITMODE
 70
     0
  9
$VISRETAIN
 70
     1
  9
$PLINEGEN
 70
     0
  9
$PSLTSCALE
 70
     1
  9
$TREEDEPTH
 70
  3020
  9
$CMLSTYLE
  2
Standard
  9
$CMLJUST
 70
     0
  9
$CMLSCALE
 40
20.0
  9
$PROXYGRAPHICS
 70
     1
  9
$MEASUREMENT
 70
     1
  9
$CELWEIGHT
370
    -1
  9
$ENDCAPS
280
     0
  9
$JOINSTYLE
280
     0
  9
$LWDISPLAY
290
     1
  9
$INSUNITS
 70
     4
  9
$HYPERLINKBASE
  1

  9
$STYLESHEET
  1

  9
$XEDIT
290
     1
  9
$CEPSNTYPE
380
     0
  9
$PSTYLEMODE
290
     1
  9
$FINGERPRINTGUID
  2
{5657B955-0B42-4E13-A560-4C84E6B32293}
  9
$VERSIONGUID
  2
{FAEB1C32-E019-11D5-929B-00C0DF256EC4}
  9
$EXTNAMES
290
     1
  9
$PSVPSCALE
 40
0.0
  9
$OLESTARTUP
290
     0
  0
ENDSEC
  0
SECTION
  2
CLASSES
  0
CLASS
  1
ACDBDICTIONARYWDFLT
  2
AcDbDictionaryWithDefault
  3
ObjectDBX Classes
 90
        0
280
     0
281
     0
  0
CLASS
  1
VISUALSTYLE
  2
AcDbVisualStyle
  3
ObjectDBX Classes
 90
     4095
280
     0
281
     0
  0
CLASS
  1
MATERIAL
  2
AcDbMaterial
  3
ObjectDBX Classes
 90
     1153
280
     0
281
     0
  0
CLASS
  1
SCALE
  2
AcDbScale
  3
ObjectDBX Classes
 90
     1153
280
     0
281
     0
  0
CLASS
  1
TABLESTYLE
  2
AcDbTableStyle
  3
ObjectDBX Classes
 90
     4095
280
     0
281
     0
  0
CLASS
  1
MLEADERSTYLE
  2
AcDbMLeaderStyle
  3
ACDB_MLEADERSTYLE_CLASS
 90
     4095
280
     0
281
     0
  0
CLASS
  1
SUN
  2
AcDbSun
  3
SCENEOE
 90
     1153
280
     0
281
     0
  0
CLASS
  1
ACDBPLACEHOLDER
  2
AcDbPlaceHolder
  3
ObjectDBX Classes
 90
        0
280
     0
281
     0
  0
CLASS
  1
LAYOUT
  2
AcDbLayout
  3
ObjectDBX Classes
 90
        0
280
     0
281
     0
  0
ENDSEC
  0
SECTION
  2
TABLES
  0
TABLE
  2
VPORT
  5
8
330
0
100
AcDbSymbolTable
 70
     1
  0
VPORT
  5
29
330
8
100
AcDbSymbolTableRecord
100
AcDbViewportTableRecord
  2
*Active
 70
     0
 10
0.0
 20
0.0
 11
1.0
 21
1.0
 12
148.5
 22
105.0
 13
0.0
 23
0.0
 14
10.0
 24
10.0
 15
10.0
 25
10.0
 16
0.0
 26
0.0
 36
1.0
 17
0.0
 27
0.0
 37
0.0
 40
210.0
 41
1.4142857143
 42
50.0
 43
0.0
 44
0.0
 50
0.0
 51
0.0
 71
     0
 72
  2000
 73
     1
 74
     3
 75
     0
 76
     0
 77
     0
 78
     0
281
     0
 65
     1
110
0.0
120
0.0
130
0.0
111
1.0
121
0.0
131
0.0
112
0.0
122
1.0
132
0.0
 79
     0
146
0.0
  0
ENDTAB
  0
TABLE
  2
LTYPE
  5
5
330
0
100
AcDbSymbolTable
 70
     6
  0
LTYPE
  5
14
330
5
100
AcDbSymbolTableRecord
100
AcDbLinetypeTableRecord
  2
ByBlock
 70
     0
  3

 72
    65
 73
     0
 40
0.0
  0
LTYPE
  5
15
330
5
100
AcDbSymbolTableRecord
100
AcDbLinetypeTableRecord
  2
ByLayer
 70
     0
  3

 72
    65
 73
     0
 40
0.0
  0
LTYPE
  5
16
330
5
100
AcDbSymbolTableRecord
100
AcDbLinetypeTableRecord
  2
Continuous
 70
     0
  3
Solid line
 72
    65
 73
     0
 40
0.0
  0
LTYPE
  5
6E
330
5
100
AcDbSymbolTableRecord
100
AcDbLinetypeTableRecord
  2
HIDDEN
 70
     0
  3
Hidden __ __ __ __ __ __ __ __ __ __ __ __ __ __
 72
    65
 73
     2
 40
1.905
 49
1.27
 74
     0
 49
-0.635
 74
     0
  0
LTYPE
  5
6F
330
5
100
AcDbSymbolTableRecord
100
AcDbLinetypeTableRecord
  2
PHANTOM
 70
     0
  3
Phantom ______  __  __  ______  __  __  ______
 72
    65
 73
     6
 40
12.7
 49
6.35
 74
     0
 49
-1.27
 74
     0
 49
1.27
 74
     0
 49
-1.27
 74
     0
 49
1.27
 74
     0
 49
-1.27
 74
     0
  0
LTYPE
  5
70
330
5
100
AcDbSymbolTableRecord
100
AcDbLinetypeTableRecord
  2
CENTER
 70
     0
  3
Center ____ _ ____ _ ____ _ ____ _ ____ _ ____
 72
    65
 73
     4
 40
10.16
 49
6.35
 74
     0
 49
-1.27
 74
     0
 49
1.27
 74
     0
 49
-1.27
 74
     0
  0
LTYPE
  5
71
330
5
100
AcDbSymbolTableRecord
100
AcDbLinetypeTableRecord
  2
CENTERX2
 70
     0
  3
Center (2x) ________  __  ________  __  _____
 72
    65
 73
     4
 40
20.32
 49
12.7
 74
     0
 49
-2.54
 74
     0
 49
2.54
 74
     0
 49
-2.54
 74
     0
  0
LTYPE
  5
72
330
5
100
AcDbSymbolTableRecord
100
AcDbLinetypeTableRecord
  2
DOT2
 70
     0
  3
Dot (.5x) ........................................
 72
    65
 73
     2
 40
0.635
 49
0.0
 74
     0
 49
-0.635
 74
     0
  0
ENDTAB
  0
TABLE
  2
LAYER
  5
2
330
0
100
AcDbSymbolTable
 70
     5
  0
LAYER
  5
10
330
2
100
AcDbSymbolTableRecord
100
AcDbLayerTableRecord
  2
0
 70
     0
 62
     7
  6
Continuous
370
    -3
390
F
  0
LAYER
  5
73
330
2
100
AcDbSymbolTableRecord
100
AcDbLayerTableRecord
  2
FORMAT
 70
     0
 62
     7
  6
Continuous
370
    -3
390
F
  0
LAYER
  5
74
330
2
100
AcDbSymbolTableRecord
100
AcDbLayerTableRecord
  2
VERMASSUNG
 70
     0
 62
     7
  6
Continuous
370
    -3
390
F
  0
LAYER
  5
75
330
2
100
AcDbSymbolTableRecord
100
AcDbLayerTableRecord
  2
KOPF_DÜNN
 70
     0
 62
     7
  6
Continuous
370
    -3
390
F
  0
LAYER
  5
76
330
2
100
AcDbSymbolTableRecord
100
AcDbLayerTableRecord
  2
KOPF_DICK
 70
     0
 62
     7
  6
Continuous
370
    15
390
F
  0
ENDTAB
  0
TABLE
  2
STYLE
  5
3
330
0
100
AcDbSymbolTable
 70
     2
  0
STYLE
  5
11
330
3
100
AcDbSymbolTableRecord
100
AcDbTextStyleTableRecord
  2
Standard
 70
     0
 40
0.0
 41
1.0
 50
0.0
 71
     0
 42
2.0
  3
txt
  4

  0
STYLE
  5
77
330
3
100
AcDbSymbolTableRecord
100
AcDbTextStyleTableRecord
  2
SLDTEXTSTYLE0
 70
     0
 40
0.0
 41
0.7
 50
0.0
 71
     0
 42
2.0
  3
TXT
  4

  0
ENDTAB
  0
TABLE
  2
VIEW
  5
6
330
0
100
AcDbSymbolTable
 70
     0
  0
ENDTAB
  0
TABLE
  2
UCS
  5
7
330
0
100
AcDbSymbolTable
 70
     0
  0
ENDTAB
  0
TABLE
  2
APPID
  5
9
330
0
100
AcDbSymbolTable
 70
     1
  0
APPID
  5
12
330
9
100
AcDbSymbolTableRecord
100
AcDbRegAppTableRecord
  2
ACAD
 70
     0
  0
ENDTAB
  0
TABLE
  2
DIMSTYLE
  5
A
330
0
100
AcDbSymbolTable
 70
     2
100
AcDbDimStyleTable
  0
DIMSTYLE
105
27
330
A
100
AcDbSymbolTableRecord
100
AcDbDimStyleTableRecord
  2
ISO-25
 70
     0
 41
2.5
 42
0.625
 43
3.75
 44
1.25
 73
     0
 74
     0
 77
     1
 78
     8
140
2.5
141
2.5
143
0.0393700787
147
0.625
171
     3
172
     1
178
     0
271
     2
272
     2
274
     3
278
    44
283
     0
284
     8
340
11
  0
DIMSTYLE
105
16C
102
{ACAD_REACTORS
330
16B
330
177
330
183
330
18F
330
19B
330
1A5
102
}
330
A
100
AcDbSymbolTableRecord
100
AcDbDimStyleTableRecord
  2
SLDDIMSTYLE0
 70
     0
 41
3.0
 44
0.0
 45
0.000000001
 73
     0
 74
     0
 77
     1
 78
    12
 79
     3
140
2.0
147
0.5
173
     1
178
     0
271
     2
272
     3
276
     2
284
    12
340
77
  0
ENDTAB
  0
TABLE
  2
BLOCK_RECORD
  5
1
330
0
100
AcDbSymbolTable
 70
     7
  0
BLOCK_RECORD
  5
1F
330
1
100
AcDbSymbolTableRecord
100
AcDbBlockTableRecord
  2
*Model_Space
340
22
  0
BLOCK_RECORD
  5
1B
330
1
100
AcDbSymbolTableRecord
100
AcDbBlockTableRecord
  2
*Paper_Space
340
1E
  0
BLOCK_RECORD
  5
23
330
1
100
AcDbSymbolTableRecord
100
AcDbBlockTableRecord
  2
*Paper_Space0
340
26
  0
BLOCK_RECORD
  5
16D
330
1
100
AcDbSymbolTableRecord
100
AcDbBlockTableRecord
  2
_D
340
0
  0
BLOCK_RECORD
  5
178
330
1
100
AcDbSymbolTableRecord
100
AcDbBlockTableRecord
  2
_D_1
340
0
  0
BLOCK_RECORD
  5
184
330
1
100
AcDbSymbolTableRecord
100
AcDbBlockTableRecord
  2
_D_2
340
0
  0
BLOCK_RECORD
  5
190
330
1
100
AcDbSymbolTableRecord
100
AcDbBlockTableRecord
  2
_D_3
340
0
  0
BLOCK_RECORD
  5
19C
330
1
100
AcDbSymbolTableRecord
100
AcDbBlockTableRecord
  2
_D_4
340
0
  0
BLOCK_RECORD
  5
1A6
330
1
100
AcDbSymbolTableRecord
100
AcDbBlockTableRecord
  2
_D_5
340
0
  0
ENDTAB
  0
ENDSEC
  0
SECTION
  2
BLOCKS
  0
BLOCK
  5
20
330
1F
100
AcDbEntity
  8
0
100
AcDbBlockBegin
  2
*Model_Space
 70
     0
 10
0.0
 20
0.0
 30
0.0
  3
*Model_Space
  1

  0
ENDBLK
  5
21
330
1F
100
AcDbEntity
  8
0
100
AcDbBlockEnd
  0
BLOCK
  5
1C
330
1B
100
AcDbEntity
 67
     1
  8
0
100
AcDbBlockBegin
  2
*Paper_Space
 70
     0
 10
0.0
 20
0.0
 30
0.0
  3
*Paper_Space
  1

  0
ENDBLK
  5
1D
330
1B
100
AcDbEntity
 67
     1
  8
0
100
AcDbBlockEnd
  0
BLOCK
  5
24
330
23
100
AcDbEntity
  8
0
100
AcDbBlockBegin
  2
*Paper_Space0
 70
     0
 10
0.0
 20
0.0
 30
0.0
  3
*Paper_Space0
  1

  0
ENDBLK
  5
25
330
23
100
AcDbEntity
  8
0
100
AcDbBlockEnd
  0
BLOCK
  5
16E
330
16D
100
AcDbEntity
  8
0
100
AcDbBlockBegin
  2
_D
 70
     0
 10
0.0
 20
0.0
 30
0.0
  3
_D
  1

  0
SOLID
  5
170
330
16D
100
AcDbEntity
  8
VERMASSUNG
100
AcDbTrace
 10
207.665546142
 20
119.2887903017
 30
0.0
 11
207.215546142
 21
116.2887903017
 31
0.0
 12
208.115546142
 22
116.2887903017
 32
0.0
 13
208.115546142
 23
116.2887903017
 33
0.0
  0
SOLID
  5
171
330
16D
100
AcDbEntity
  8
VERMASSUNG
100
AcDbTrace
 10
207.665546142
 20
101.2887903017
 30
0.0
 11
208.115546142
 21
104.2887903017
 31
0.0
 12
207.215546142
 22
104.2887903017
 32
0.0
 13
207.215546142
 23
104.2887903017
 33
0.0
  0
LINE
  5
172
330
16D
100
AcDbEntity
  8
VERMASSUNG
100
AcDbLine
 10
192.3979788957
 20
119.2887903017
 30
0.0
 11
208.665546142
 21
119.2887903017
 31
0.0
  0
LINE
  5
173
330
16D
100
AcDbEntity
  8
VERMASSUNG
100
AcDbLine
 10
192.3979788957
 20
101.2887903017
 30
0.0
 11
208.665546142
 21
101.2887903017
 31
0.0
  0
LINE
  5
174
330
16D
100
AcDbEntity
  8
VERMASSUNG
100
AcDbLine
 10
207.665546142
 20
119.2887903017
 30
0.0
 11
207.665546142
 21
101.2887903017
 31
0.0
  0
MTEXT
  5
175
330
16D
100
AcDbEntity
  8
VERMASSUNG
100
AcDbMText
 10
205.0874106043
 20
107.2853577579
 30
0.0
 40
2.0
 41
0.0
 71
     1
 72
     1
  1
%%c
  7
SLDTEXTSTYLE0
 11
-7.044195017643634E-15
 21
1.0
 31
0.0
 73
     1
 44
1.0
  0
MTEXT
  5
176
330
16D
100
AcDbEntity
  8
VERMASSUNG
100
AcDbMText
 10
205.0874105461
 20
110.8943299516
 30
0.0
 40
2.0
 41
0.0
 71
     1
 72
     1
  1
18
  7
SLDTEXTSTYLE0
 11
-7.044195017643634E-15
 21
1.0
 31
0.0
 73
     1
 44
1.0
  0
ENDBLK
  5
16F
330
16D
100
AcDbEntity
  8
0
100
AcDbBlockEnd
  0
BLOCK
  5
179
330
178
100
AcDbEntity
  8
0
100
AcDbBlockBegin
  2
_D_1
 70
     0
 10
0.0
 20
0.0
 30
0.0
  3
_D_1
  1

  0
SOLID
  5
17B
330
178
100
AcDbEntity
  8
VERMASSUNG
100
AcDbTrace
 10
213.765546142
 20
126.2887903017
 30
0.0
 11
213.315546142
 21
123.2887903017
 31
0.0
 12
214.215546142
 22
123.2887903017
 32
0.0
 13
214.215546142
 23
123.2887903017
 33
0.0
  0
SOLID
  5
17C
330
178
100
AcDbEntity
  8
VERMASSUNG
100
AcDbTrace
 10
213.765546142
 20
94.2887903017
 30
0.0
 11
214.215546142
 21
97.2887903017
 31
0.0
 12
213.315546142
 22
97.2887903017
 32
0.0
 13
213.315546142
 23
97.2887903017
 33
0.0
  0
LINE
  5
17D
330
178
100
AcDbEntity
  8
VERMASSUNG
100
AcDbLine
 10
200.9979788957
 20
126.2887903017
 30
0.0
 11
214.765546142
 21
126.2887903017
 31
0.0
  0
LINE
  5
17E
330
178
100
AcDbEntity
  8
VERMASSUNG
100
AcDbLine
 10
200.9979788957
 20
94.2887903017
 30
0.0
 11
214.765546142
 21
94.2887903017
 31
0.0
  0
LINE
  5
17F
330
178
100
AcDbEntity
  8
VERMASSUNG
100
AcDbLine
 10
213.765546142
 20
126.2887903017
 30
0.0
 11
213.765546142
 21
94.2887903017
 31
0.0
  0
MTEXT
  5
180
330
178
100
AcDbEntity
  8
VERMASSUNG
100
AcDbMText
 10
210.9874108858
 20
104.1848623923
 30
0.0
 40
2.0
 41
0.0
 71
     1
 72
     1
  1
ST3
  7
SLDTEXTSTYLE0
 11
-7.044195017643634E-15
 21
1.0
 31
0.0
 73
     1
 44
1.0
  0
MTEXT
  5
181
330
178
100
AcDbEntity
  8
VERMASSUNG
100
AcDbMText
 10
211.1874108371
 20
109.9848623186
 30
0.0
 40
2.0
 41
0.0
 71
     1
 72
     1
  1
%%c
  7
SLDTEXTSTYLE0
 11
-7.044195017643634E-15
 21
1.0
 31
0.0
 73
     1
 44
1.0
  0
MTEXT
  5
182
330
178
100
AcDbEntity
  8
VERMASSUNG
100
AcDbMText
 10
211.1874105461
 20
113.5933381905
 30
0.0
 40
2.0
 41
0.0
 71
     1
 72
     1
  1
32
  7
SLDTEXTSTYLE0
 11
-7.044195017643634E-15
 21
1.0
 31
0.0
 73
     1
 44
1.0
  0
ENDBLK
  5
17A
330
178
100
AcDbEntity
  8
0
100
AcDbBlockEnd
  0
BLOCK
  5
185
330
184
100
AcDbEntity
  8
0
100
AcDbBlockBegin
  2
_D_2
 70
     0
 10
0.0
 20
0.0
 30
0.0
  3
_D_2
  1

  0
SOLID
  5
187
330
184
100
AcDbEntity
  8
VERMASSUNG
100
AcDbTrace
 10
88.9094926517
 20
160.2887903017
 30
0.0
 11
88.4594926517
 21
157.2887903017
 31
0.0
 12
89.3594926517
 22
157.2887903017
 32
0.0
 13
89.3594926517
 23
157.2887903017
 33
0.0
  0
SOLID
  5
188
330
184
100
AcDbEntity
  8
VERMASSUNG
100
AcDbTrace
 10
88.9094926517
 20
60.2887903017
 30
0.0
 11
89.3594926517
 21
63.2887903017
 31
0.0
 12
88.4594926517
 22
63.2887903017
 32
0.0
 13
88.4594926517
 23
63.2887903017
 33
0.0
  0
LINE
  5
189
330
184
100
AcDbEntity
  8
VERMASSUNG
100
AcDbLine
 10
144.7979788957
 20
160.2887903017
 30
0.0
 11
87.9094926517
 21
160.2887903017
 31
0.0
  0
LINE
  5
18A
330
184
100
AcDbEntity
  8
VERMASSUNG
100
AcDbLine
 10
144.7979788957
 20
60.2887903017
 30
0.0
 11
87.9094926517
 21
60.2887903017
 31
0.0
  0
LINE
  5
18B
330
184
100
AcDbEntity
  8
VERMASSUNG
100
AcDbLine
 10
88.9094926517
 20
160.2887903017
 30
0.0
 11
88.9094926517
 21
60.2887903017
 31
0.0
  0
MTEXT
  5
18C
330
184
100
AcDbEntity
  8
VERMASSUNG
100
AcDbMText
 10
86.1313573955
 20
99.5854082214
 30
0.0
 40
2.0
 41
0.0
 71
     1
 72
     1
  1
HSK A 100
  7
SLDTEXTSTYLE0
 11
-7.044195017643634E-15
 21
1.0
 31
0.0
 73
     1
 44
1.0
  0
MTEXT
  5
18D
330
184
100
AcDbEntity
  8
VERMASSUNG
100
AcDbMText
 10
86.3313573468
 20
113.5854086535
 30
0.0
 40
2.0
 41
0.0
 71
     1
 72
     1
  1
%%c
  7
SLDTEXTSTYLE0
 11
-7.044195017643634E-15
 21
1.0
 31
0.0
 73
     1
 44
1.0
  0
MTEXT
  5
18E
330
184
100
AcDbEntity
  8
VERMASSUNG
100
AcDbMText
 10
86.3313570558
 20
117.1934864912
 30
0.0
 40
2.0
 41
0.0
 71
     1
 72
     1
  1
100
  7
SLDTEXTSTYLE0
 11
-7.044195017643634E-15
 21
1.0
 31
0.0
 73
     1
 44
1.0
  0
ENDBLK
  5
186
330
184
100
AcDbEntity
  8
0
100
AcDbBlockEnd
  0
BLOCK
  5
191
330
190
100
AcDbEntity
  8
0
100
AcDbBlockBegin
  2
_D_3
 70
     0
 10
0.0
 20
0.0
 30
0.0
  3
_D_3
  1

  0
ARC
  5
193
330
190
100
AcDbEntity
  8
VERMASSUNG
100
AcDbCircle
 10
147.1594129843
 20
178.7915159629
 30
0.0
 40
4.247059938537221
100
AcDbArc
 50
153.4349488229
 51
206.5650511771
  0
ARC
  5
194
330
190
100
AcDbEntity
  8
VERMASSUNG
100
AcDbCircle
 10
148.5365448072
 20
178.7915159629
 30
0.0
 40
4.247059938537221
100
AcDbArc
 50
333.4349488229
 51
26.5650511771
  0
SOLID
  5
195
330
190
100
AcDbEntity
  8
VERMASSUNG
100
AcDbTrace
 10
94.3979788957
 20
176.8921730175
 30
0.0
 11
97.3979788957
 21
176.4421730175
 31
0.0
 12
97.3979788957
 22
177.3421730175
 32
0.0
 13
97.3979788957
 23
177.3421730175
 33
0.0
  0
SOLID
  5
196
330
190
100
AcDbEntity
  8
VERMASSUNG
100
AcDbTrace
 10
201.2979788957
 20
176.8921730175
 30
0.0
 11
198.2979788957
 21
177.3421730175
 31
0.0
 12
198.2979788957
 22
176.4421730175
 32
0.0
 13
198.2979788957
 23
176.4421730175
 33
0.0
  0
LINE
  5
197
330
190
100
AcDbEntity
  8
VERMASSUNG
100
AcDbLine
 10
94.3979788957
 20
140.7914600443
 30
0.0
 11
94.3979788957
 21
177.8921730175
 31
0.0
  0
LINE
  5
198
330
190
100
AcDbEntity
  8
VERMASSUNG
100
AcDbLine
 10
201.2979788957
 20
125.9887903017
 30
0.0
 11
201.2979788957
 21
177.8921730175
 31
0.0
  0
LINE
  5
199
330
190
100
AcDbEntity
  8
VERMASSUNG
100
AcDbLine
 10
94.3979788957
 20
176.8921730175
 30
0.0
 11
201.2979788957
 21
176.8921730175
 31
0.0
  0
MTEXT
  5
19A
330
190
100
AcDbEntity
  8
VERMASSUNG
100
AcDbMText
 10
144.9482270935
 20
179.4703086135
 30
0.0
 40
2.0
 41
0.0
 71
     1
 72
     1
  1
106.9
  7
SLDTEXTSTYLE0
 73
     1
 44
1.0
  0
ENDBLK
  5
192
330
190
100
AcDbEntity
  8
0
100
AcDbBlockEnd
  0
BLOCK
  5
19D
330
19C
100
AcDbEntity
  8
0
100
AcDbBlockBegin
  2
_D_4
 70
     0
 10
0.0
 20
0.0
 30
0.0
  3
_D_4
  1

  0
SOLID
  5
19F
330
19C
100
AcDbEntity
  8
VERMASSUNG
100
AcDbTrace
 10
144.2979788957
 20
170.8921730175
 30
0.0
 11
147.2979788957
 21
170.4421730175
 31
0.0
 12
147.2979788957
 22
171.3421730175
 32
0.0
 13
147.2979788957
 23
171.3421730175
 33
0.0
  0
SOLID
  5
1A0
330
19C
100
AcDbEntity
  8
VERMASSUNG
100
AcDbTrace
 10
201.2979788957
 20
170.8921730175
 30
0.0
 11
198.2979788957
 21
171.3421730175
 31
0.0
 12
198.2979788957
 22
170.4421730175
 32
0.0
 13
198.2979788957
 23
170.4421730175
 33
0.0
  0
LINE
  5
1A1
330
19C
100
AcDbEntity
  8
VERMASSUNG
100
AcDbLine
 10
144.2979788957
 20
159.7887903017
 30
0.0
 11
144.2979788957
 21
171.8921730175
 31
0.0
  0
LINE
  5
1A2
330
19C
100
AcDbEntity
  8
VERMASSUNG
100
AcDbLine
 10
201.2979788957
 20
125.9887903017
 30
0.0
 11
201.2979788957
 21
171.8921730175
 31
0.0
  0
LINE
  5
1A3
330
19C
100
AcDbEntity
  8
VERMASSUNG
100
AcDbLine
 10
144.2979788957
 20
170.8921730175
 30
0.0
 11
201.2979788957
 21
170.8921730175
 31
0.0
  0
MTEXT
  5
1A4
330
19C
100
AcDbEntity
  8
VERMASSUNG
100
AcDbMText
 10
171.3982888854
 20
173.4703086135
 30
0.0
 40
2.0
 41
0.0
 71
     1
 72
     1
  1
57
  7
SLDTEXTSTYLE0
 73
     1
 44
1.0
  0
ENDBLK
  5
19E
330
19C
100
AcDbEntity
  8
0
100
AcDbBlockEnd
  0
BLOCK
  5
1A7
330
1A6
100
AcDbEntity
  8
0
100
AcDbBlockBegin
  2
_D_5
 70
     0
 10
0.0
 20
0.0
 30
0.0
  3
_D_5
  1

  0
ARC
  5
1A9
330
1A6
100
AcDbEntity
  8
VERMASSUNG
100
AcDbCircle
 10
186.3847724076
 20
166.7915159629
 30
0.0
 40
4.247059938537323
100
AcDbArc
 50
153.4349488229
 51
206.5650511771
  0
ARC
  5
1AA
330
1A6
100
AcDbEntity
  8
VERMASSUNG
100
AcDbCircle
 10
188.1611853839
 20
166.7915159629
 30
0.0
 40
4.247059938537297
100
AcDbArc
 50
333.4349488229
 51
26.5650511771
  0
SOLID
  5
1AB
330
1A6
100
AcDbEntity
  8
VERMASSUNG
100
AcDbTrace
 10
173.2479788957
 20
164.8921730175
 30
0.0
 11
176.2479788957
 21
164.4421730175
 31
0.0
 12
176.2479788957
 22
165.3421730175
 32
0.0
 13
176.2479788957
 23
165.3421730175
 33
0.0
  0
SOLID
  5
1AC
330
1A6
100
AcDbEntity
  8
VERMASSUNG
100
AcDbTrace
 10
201.2979788957
 20
164.8921730175
 30
0.0
 11
198.2979788957
 21
165.3421730175
 31
0.0
 12
198.2979788957
 22
164.4421730175
 32
0.0
 13
198.2979788957
 23
164.4421730175
 33
0.0
  0
LINE
  5
1AD
330
1A6
100
AcDbEntity
  8
VERMASSUNG
100
AcDbLine
 10
173.2479788957
 20
158.2575301226
 30
0.0
 11
173.2479788957
 21
165.8921730175
 31
0.0
  0
LINE
  5
1AE
330
1A6
100
AcDbEntity
  8
VERMASSUNG
100
AcDbLine
 10
201.2979788957
 20
125.9887903017
 30
0.0
 11
201.2979788957
 21
165.8921730175
 31
0.0
  0
LINE
  5
1AF
330
1A6
100
AcDbEntity
  8
VERMASSUNG
100
AcDbLine
 10
173.2479788957
 20
164.8921730175
 30
0.0
 11
201.2979788957
 21
164.8921730175
 31
0.0
  0
MTEXT
  5
1B0
330
1A6
100
AcDbEntity
  8
VERMASSUNG
100
AcDbMText
 10
184.1735865168
 20
167.4703086135
 30
0.0
 40
2.0
 41
0.0
 71
     1
 72
     1
  1
28.05
  7
SLDTEXTSTYLE0
 73
     1
 44
1.0
  0
ENDBLK
  5
1A8
330
1A6
100
AcDbEntity
  8
0
100
AcDbBlockEnd
  0
ENDSEC
  0
SECTION
  2
ENTITIES
  0
MTEXT
  5
78
330
1F
100
AcDbEntity
  8
KOPF_DÜNN
100
AcDbMText
 10
13.8892156294
 20
23.8442973028
 30
0.0
 40
3.0
 41
0.0
 71
     1
 72
     1
  1
144.810.032.057
  7
SLDTEXTSTYLE0
 73
     1
 44
1.0
  0
MTEXT
  5
79
330
1F
100
AcDbEntity
  8
VERMASSUNG
100
AcDbMText
 10
13.9329988022
 20
28.8834360957
 30
0.0
 40
3.0
 41
0.0
 71
     1
 72
     1
  1
Aufnahme_Master shank ST3
  7
SLDTEXTSTYLE0
 73
     1
 44
1.0
  0
MTEXT
  5
7A
330
1F
100
AcDbEntity
  8
VERMASSUNG
100
AcDbMText
 10
98.8601118557
 20
13.8365368761
 30
0.0
 40
2.0
 41
0.0
 71
     1
 72
     1
  1
Datum: 10.06.2008
  7
SLDTEXTSTYLE0
 73
     1
 44
1.0
  0
MTEXT
  5
7B
330
1F
100
AcDbEntity
  8
VERMASSUNG
100
AcDbMText
 10
13.933048693
 20
18.0482802738
 30
0.0
 40
2.0
 41
0.0
 71
     1
 72
     1
  1
DIN 69893 HSK A 100
  7
SLDTEXTSTYLE0
 73
     1
 44
1.0
  0
MTEXT
  5
7C
330
1F
100
AcDbEntity
  8
VERMASSUNG
100
AcDbMText
 10
13.9808475933
 20
13.9090974274
 30
0.0
 40
2.0
 41
0.0
 71
     1
 72
     1
  1
Gewicht: 2123g
  7
SLDTEXTSTYLE0
 73
     1
 44
1.0
  0
LINE
  5
7D
330
1F
100
AcDbEntity
  8
0
  6
Continuous
 62
     7
370
    15
100
AcDbLine
 10
144.7979788957
 20
60.2887903017
 30
0.0
 11
149.2479788957
 21
60.2887903017
 31
0.0
  0
LINE
  5
7E
330
1F
100
AcDbEntity
  8
0
  6
Continuous
 62
     7
370
    15
100
AcDbLine
 10
149.2820517282
 20
160.2887903017
 30
0.0
 11
144.7979788957
 21
160.2887903017
 31
0.0
  0
ARC
  5
7F
330
1F
100
AcDbEntity
  8
0
  6
Continuous
 62
     7
370
    15
100
AcDbCircle
 10
144.7979788957
 20
60.7887903017
 30
0.0
 40
0.5000000000000071
100
AcDbArc
 50
180.0
 51
270.0
  0
ARC
  5
80
330
1F
100
AcDbEntity
  8
0
  6
Continuous
 62
     7
370
    15
100
AcDbCircle
 10
144.7979788957
 20
159.7887903017
 30
0.0
 40
0.5
100
AcDbArc
 50
90.0
 51
180.0
  0
ARC
  5
81
330
1F
100
AcDbEntity
  8
0
  6
Continuous
 62
     7
370
    15
100
AcDbCircle
 10
143.4010419773
 20
71.6603049773
 30
0.0
 40
0.9962338214386921
100
AcDbArc
 50
25.7988228126
 51
90.0
  0
ARC
  5
82
330
1F
100
AcDbEntity
  8
0
  6
Continuous
 62
     7
370
    15
100
AcDbCircle
 10
143.4010419773
 20
148.9172756262
 30
0.0
 40
0.9962338214386932
100
AcDbArc
 50
270.0
 51
334.2011771874
  0
LINE
  5
83
330
1F
100
AcDbEntity
  8
0
  6
Continuous
 62
     7
370
    15
100
AcDbLine
 10
141.7979788957
 20
72.4065387987
 30
0.0
 11
142.6038250501
 21
72.622464625
 31
0.0
  0
LINE
  5
84
330
1F
100
AcDbEntity
  8
0
  6
Continuous
 62
     7
370
    15
100
AcDbLine
 10
142.6038250501
 20
147.9551159784
 30
0.0
 11
141.7979788957
 21
148.1710418047
 31
0.0
  0
LINE
  5
85
330
1F
100
AcDbEntity
  8
0
  6
Continuous
 62
     7
370
    15
100
AcDbLine
 10
122.8172834744
 20
147.2201051604
 30
0.0
 11
104.4979788957
 21
146.3023043298
 31
0.0
  0
LINE
  5
86
330
1F
100
AcDbEntity
  8
0
  6
Continuous
 62
     7
370
    15
100
AcDbLine
 10
141.7979788957
 20
148.1710418047
 30
0.0
 11
135.7299397413
 21
147.867031827
 31
0.0
  0
LINE
  5
87
330
1F
100
AcDbEntity
  8
0
  6
Continuous
 62
     7
370
    15
100
AcDbLine
 10
135.7300630177
 20
72.7105426002
 30
0.0
 11
141.7979788957
 21
72.4065387987
 31
0.0
  0
LINE
  5
88
330
1F
100
AcDbEntity
  8
0
  6
Continuous
 62
     7
370
    15
100
AcDbLine
 10
109.4979788957
 20
74.0247752717
 30
0.0
 11
122.8179300497
 21
73.3574430495
 31
0.0
  0
ARC
  5
89
330
1F
100
AcDbEntity
  8
0
  6
Continuous
 62
     7
370
    15
100
AcDbCircle
 10
142.8626440952
 20
71.6565387987
 30
0.0
 40
1.000000000000003
100
AcDbArc
 50
90.0
 51
105.0
  0
ARC
  5
8A
330
1F
100
AcDbEntity
  8
0
  6
Continuous
 62
     7
370
    15
100
AcDbCircle
 10
142.8626440952
 20
148.9210418047
 30
0.0
 40
0.9999999999999756
100
AcDbArc
 50
255.0
 51
270.0
  0
LINE
  5
8B
330
1F
100
AcDbEntity
  8
0
  6
Continuous
 62
     7
370
    15
100
AcDbLine
 10
142.8626440952
 20
72.6565387987
 30
0.0
 11
143.4010419773
 21
72.6565387987
 31
0.0
  0
LINE
  5
8C
330
1F
100
AcDbEntity
  8
0
  6
Continuous
 62
     7
370
    15
100
AcDbLine
 10
143.4010419773
 20
147.9210418047
 30
0.0
 11
142.8626440952
 21
147.9210418047
 31
0.0
  0
ARC
  5
8D
330
1F
100
AcDbEntity
  8
0
  6
Continuous
 62
     7
370
    15
100
AcDbCircle
 10
177.2479788957
 20
90.2887903017
 30
0.0
 40
4.0
100
AcDbArc
 50
90.0
 51
180.0
  0
ARC
  5
8E
330
1F
100
AcDbEntity
  8
0
  6
Continuous
 62
     7
370
    15
100
AcDbCircle
 10
177.2479788957
 20
130.2887903017
 30
0.0
 40
4.0
100
AcDbArc
 50
180.0
 51
270.0
  0
LINE
  5
8F
330
1F
100
AcDbEntity
  8
0
  6
Continuous
 62
     7
370
    15
100
AcDbLine
 10
96.0479788957
 20
78.0387903017
 30
0.0
 11
107.5979788957
 21
78.0387903017
 31
0.0
  0
ARC
  5
90
330
1F
100
AcDbEntity
  8
0
  6
Continuous
 62
     7
370
    15
100
AcDbCircle
 10
107.5979788957
 20
76.1387903017
 30
0.0
 40
1.899999999999996
100
AcDbArc
 50
35.6630613694
 51
90.0
  0
ARC
  5
91
330
1F
100
AcDbEntity
  8
0
  6
Continuous
 62
     7
370
    15
100
AcDbCircle
 10
102.5979788957
 20
144.4387903017
 30
0.0
 40
1.899999999999996
100
AcDbArc
 50
270.0
 51
310.9212832533
  0
LINE
  5
92
330
1F
100
AcDbEntity
  8
0
  6
Continuous
 62
     7
370
    15
100
AcDbLine
 10
96.0479788957
 20
142.5387903017
 30
0.0
 11
94.4547625338
 21
140.9455739398
 31
0.0
  0
LINE
  5
93
330
1F
100
AcDbEntity
  8
0
  6
Continuous
 62
     7
370
    15
100
AcDbLine
 10
94.4555017962
 20
79.6312674013
 30
0.0
 11
96.0479788957
 21
78.0387903017
 31
0.0
  0
LINE
  5
94
330
1F
100
AcDbEntity
  8
0
  6
Continuous
 62
     7
370
    15
100
AcDbLine
 10
102.5979788957
 20
142.5387903017
 30
0.0
 11
96.0479788957
 21
142.5387903017
 31
0.0
  0
LINE
  5
95
330
1F
100
AcDbEntity
  8
0
  6
Continuous
 62
     7
370
    15
100
AcDbLine
 10
200.9979788957
 20
94.2887903017
 30
0.0
 11
201.2979788957
 21
94.5887903017
 31
0.0
  0
LINE
  5
96
330
1F
100
AcDbEntity
  8
0
  6
Continuous
 62
     7
370
    15
100
AcDbLine
 10
201.2979788957
 20
125.9887903017
 30
0.0
 11
200.9979788957
 21
126.2887903017
 31
0.0
  0
LINE
  5
97
330
1F
100
AcDbEntity
  8
0
  6
Continuous
 62
     7
370
    15
100
AcDbLine
 10
200.9979788957
 20
126.2887903017
 30
0.0
 11
177.2479788957
 21
126.2887903017
 31
0.0
  0
LINE
  5
98
330
1F
100
AcDbEntity
  8
0
  6
Continuous
 62
     7
370
    15
100
AcDbLine
 10
177.2479788957
 20
94.2887903017
 30
0.0
 11
200.9979788957
 21
94.2887903017
 31
0.0
  0
SPLINE
  5
99
330
1F
100
AcDbEntity
  8
0
  6
Continuous
 62
     7
370
    15
100
AcDbSpline
210
0.0
220
0.0
230
1.0
 70
    24
 71
     3
 72
    11
 73
     7
 74
     0
 42
0.000000001
 43
0.00000001
 40
0.0
 40
0.0
 40
0.0
 40
0.0
 40
0.1183358584681204
 40
0.4755396850857849
 40
0.8141708872487053
 40
1.0
 40
1.0
 40
1.0
 40
1.0
 10
191.6388156819064
 20
109.6480144038869
 30
0.0
 10
191.6480619995681
 20
109.7114938401955
 30
0.0
 10
191.685218877001
 20
109.9665897303373
 30
0.0
 10
191.7554260604368
 20
110.4485883585914
 30
0.0
 10
191.8326630200788
 20
110.9788490352933
 30
0.0
 10
191.8738688501053
 20
111.2617425025554
 30
0.0
 10
191.8884690831759
 20
111.3619785748178
 30
0.0
  0
SPLINE
  5
9A
330
1F
100
AcDbEntity
  8
0
  6
Continuous
 62
     7
370
    15
100
AcDbSpline
210
0.0
220
0.0
230
1.0
 70
    24
 71
     3
 72
    10
 73
     6
 74
     0
 42
0.000000001
 43
0.00000001
 40
0.0
 40
0.0
 40
0.0
 40
0.0
 40
0.4391165375904188
 40
0.7513669429073294
 40
0.9999999999999999
 40
0.9999999999999999
 40
0.9999999999999999
 40
0.9999999999999999
 10
192.9983254944742
 20
108.574826130781
 30
0.0
 10
192.80370118405
 20
108.7284613055166
 30
0.0
 10
192.4706819041538
 20
108.9913445760887
 30
0.0
 10
191.9865795629052
 20
109.3734918403515
 30
0.0
 10
191.745627086981
 20
109.5636981699765
 30
0.0
 10
191.6388156819064
 20
109.6480144038869
 30
0.0
  0
SPLINE
  5
9B
330
1F
100
AcDbEntity
  8
0
  6
Continuous
 62
     7
370
    15
100
AcDbSpline
210
0.0
220
0.0
230
1.0
 70
    24
 71
     3
 72
    10
 73
     6
 74
     0
 42
0.000000001
 43
0.00000001
 40
0.0
 40
0.0
 40
0.0
 40
0.0
 40
0.4391165375904011
 40
0.7513669429073532
 40
1.0
 40
1.0
 40
1.0
 40
1.0
 10
194.6074887083113
 20
109.2156020286059
 30
0.0
 10
194.3771245888634
 20
109.1238700189523
 30
0.0
 10
193.9829513583699
 20
108.9669084978983
 30
0.0
 10
193.4099509489073
 20
108.7387372044769
 30
0.0
 10
193.1247511975294
 20
108.6251694040343
 30
0.0
 10
192.9983254944742
 20
108.574826130781
 30
0.0
  0
SPLINE
  5
9C
330
1F
100
AcDbEntity
  8
0
  6
Continuous
 62
     7
370
    15
100
AcDbSpline
210
0.0
220
0.0
230
1.0
 70
    24
 71
     3
 72
    11
 73
     7
 74
     0
 42
0.000000001
 43
0.00000001
 40
0.0
 40
0.0
 40
0.0
 40
0.0
 40
0.1858291127512973
 40
0.5244603149142153
 40
0.8816641415318764
 40
1.0
 40
1.0
 40
1.0
 40
1.0
 10
194.8571421095808
 20
110.9295661995367
 30
0.0
 10
194.8425418765102
 20
110.8293301272744
 30
0.0
 10
194.8013360464836
 20
110.5464366600122
 30
0.0
 10
194.7240990868416
 20
110.0161759833104
 30
0.0
 10
194.6538919034059
 20
109.5341773550562
 30
0.0
 10
194.6167350259729
 20
109.2790814649145
 30
0.0
 10
194.6074887083113
 20
109.2156020286059
 30
0.0
  0
SPLINE
  5
9D
330
1F
100
AcDbEntity
  8
0
  6
Continuous
 62
     7
370
    15
100
AcDbSpline
210
0.0
220
0.0
230
1.0
 70
    24
 71
     3
 72
    10
 73
     6
 74
     0
 42
0.000000001
 43
0.00000001
 40
0.0
 40
0.0
 40
0.0
 40
0.0
 40
0.4391165375904012
 40
0.7513669429073527
 40
1.0
 40
1.0
 40
1.0
 40
1.0
 10
191.8884690831759
 20
111.3619785748178
 30
0.0
 10
192.1188332026238
 20
111.4537105844714
 30
0.0
 10
192.5130064331173
 20
111.6106721055254
 30
0.0
 10
193.08600684258
 20
111.8388433989468
 30
0.0
 10
193.3712065939579
 20
111.9524111993894
 30
0.0
 10
193.497632297013
 20
112.0027544726427
 30
0.0
  0
CIRCLE
  5
9E
330
1F
100
AcDbEntity
  8
0
  6
Continuous
 62
     7
370
    15
100
AcDbCircle
 10
193.2479788957
 20
110.2887903017
 30
0.0
 40
1.899999999999995
  0
SPLINE
  5
9F
330
1F
100
AcDbEntity
  8
0
  6
Continuous
 62
     7
370
    15
100
AcDbSpline
210
0.0
220
0.0
230
1.0
 70
    24
 71
     3
 72
    10
 73
     6
 74
     0
 42
0.000000001
 43
0.00000001
 40
0.0
 40
0.0
 40
0.0
 40
0.0
 40
0.4391165375904203
 40
0.751366942907333
 40
1.0
 40
1.0
 40
1.0
 40
1.0
 10
193.497632297013
 20
112.0027544726427
 30
0.0
 10
193.6922566074372
 20
111.8491192979071
 30
0.0
 10
194.0252758873334
 20
111.5862360273349
 30
0.0
 10
194.509378228582
 20
111.2040887630721
 30
0.0
 10
194.7503307045062
 20
111.0138824334472
 30
0.0
 10
194.8571421095808
 20
110.9295661995367
 30
0.0
  0
CIRCLE
  5
A0
330
1F
100
AcDbEntity
  8
0
  6
Continuous
 62
     7
370
    15
100
AcDbCircle
 10
193.2479788957
 20
110.2887903017
 30
0.0
 40
2.599999999999993
  0
CIRCLE
  5
A1
330
1F
100
AcDbEntity
  8
0
  6
Continuous
 62
     7
370
    15
100
AcDbCircle
 10
193.2479788957
 20
110.2887903017
 30
0.0
 40
3.000000000000012
  0
ARC
  5
A2
330
1F
100
AcDbEntity
  8
0
  6
Continuous
 62
     7
370
    15
100
AcDbCircle
 10
193.2479788957
 20
110.2887903017
 30
0.0
 40
1.500000000000022
100
AcDbArc
 50
351.7126654853
 51
51.7126654853
  0
ARC
  5
A3
330
1F
100
AcDbEntity
  8
0
  6
Continuous
 62
     7
370
    15
100
AcDbCircle
 10
193.2479788957
 20
110.2887903017
 30
0.0
 40
1.500000000000007
100
AcDbArc
 50
111.7126654853
 51
171.7126654853
  0
ARC
  5
A4
330
1F
100
AcDbEntity
  8
0
  6
Continuous
 62
     7
370
    15
100
AcDbCircle
 10
193.2479788957
 20
110.2887903017
 30
0.0
 40
1.500000000000005
100
AcDbArc
 50
231.7126654853
 51
291.7126654853
  0
ARC
  5
A5
330
1F
100
AcDbEntity
  8
0
  6
Continuous
 62
     7
370
    15
100
AcDbCircle
 10
193.2479788957
 20
110.2887903017
 30
0.0
 40
1.500000000000005
100
AcDbArc
 50
291.7126654853
 51
351.7126654853
  0
ARC
  5
A6
330
1F
100
AcDbEntity
  8
0
  6
Continuous
 62
     7
370
    15
100
AcDbCircle
 10
193.2479788957
 20
110.2887903017
 30
0.0
 40
1.500000000000022
100
AcDbArc
 50
51.7126654853
 51
111.7126654853
  0
ARC
  5
A7
330
1F
100
AcDbEntity
  8
0
  6
Continuous
 62
     7
370
    15
100
AcDbCircle
 10
193.2479788957
 20
110.2887903017
 30
0.0
 40
1.500000000000007
100
AcDbArc
 50
171.7126654853
 51
231.7126654853
  0
LINE
  5
A8
330
1F
100
AcDbEntity
  8
0
  6
Continuous
 62
     7
370
    15
100
AcDbLine
 10
167.5600079167
 20
61.5137967087
 30
0.0
 11
167.5600079167
 21
141.6387903017
 31
0.0
  0
SPLINE
  5
A9
330
1F
100
AcDbEntity
  8
0
  6
Continuous
 62
     7
370
    15
100
AcDbSpline
210
0.0
220
0.0
230
1.0
 70
     8
 71
     3
 72
     8
 73
     4
 74
     0
 42
0.000000001
 43
0.00000001
 40
0.0
 40
0.0
 40
0.0
 40
0.0
 40
1.0
 40
1.0
 40
1.0
 40
1.0
 10
167.560007916665
 20
61.51379670868303
 30
0.0
 10
167.1089031872648
 20
62.31475664050295
 30
0.0
 10
166.6582053600214
 20
63.11594665206361
 30
0.0
 10
166.2079788957436
 20
63.91740201468837
 30
0.0
  0
LINE
  5
AA
330
1F
100
AcDbEntity
  8
0
  6
Continuous
 62
     7
370
    15
100
AcDbLine
 10
166.2079788957
 20
63.9174020147
 30
0.0
 11
166.2079788957
 21
141.6387903017
 31
0.0
  0
SPLINE
  5
AB
330
1F
100
AcDbEntity
  8
0
  6
Continuous
 62
     7
370
    15
100
AcDbSpline
210
0.0
220
0.0
230
1.0
 70
    24
 71
     3
 72
     8
 73
     4
 74
     0
 42
0.000000001
 43
0.00000001
 40
0.0
 40
0.0
 40
0.0
 40
0.0
 40
1.0
 40
1.0
 40
1.0
 40
1.0
 10
166.2079788957436
 20
141.6387903017119
 30
0.0
 10
166.6521917780975
 20
141.6387903017119
 30
0.0
 10
167.1032063443367
 20
141.6387903017119
 30
0.0
 10
167.560007916665
 20
141.6387903017119
 30
0.0
  0
LINE
  5
AC
330
1F
100
AcDbEntity
  8
0
  6
Continuous
 62
     7
370
    15
100
AcDbLine
 10
149.2479788957
 20
141.6387903017
 30
0.0
 11
161.0359498748
 21
141.6387903017
 31
0.0
  0
LINE
  5
AD
330
1F
100
AcDbEntity
  8
0
  6
Continuous
 62
     7
370
    15
100
AcDbLine
 10
161.0359498748
 20
61.5137967087
 30
0.0
 11
161.0359498748
 21
141.6387903017
 31
0.0
  0
LINE
  5
AE
330
1F
100
AcDbEntity
  8
0
  6
Continuous
 62
     7
370
    15
100
AcDbLine
 10
161.0359498748
 20
61.5137967087
 30
0.0
 11
159.2479788957
 21
61.5137967087
 31
0.0
  0
SPLINE
  5
AF
330
1F
100
AcDbEntity
  8
0
  6
Continuous
 62
     7
370
    15
100
AcDbSpline
210
0.0
220
0.0
230
1.0
 70
     8
 71
     3
 72
    30
 73
    26
 74
     0
 42
0.000000001
 43
0.00000001
 40
0.0
 40
0.0
 40
0.0
 40
0.0
 40
0.1250000000000006
 40
0.1250000000000006
 40
0.187500000000001
 40
0.187500000000001
 40
0.2500000000000013
 40
0.2500000000000013
 40
0.3750000000000014
 40
0.3750000000000014
 40
0.4375000000000014
 40
0.4375000000000014
 40
0.5000000000000013
 40
0.5000000000000013
 40
0.625000000000001
 40
0.625000000000001
 40
0.6875000000000009
 40
0.6875000000000009
 40
0.7500000000000007
 40
0.7500000000000007
 40
0.8125000000000006
 40
0.8125000000000006
 40
0.8750000000000004
 40
0.8750000000000004
 40
1.0
 40
1.0
 40
1.0
 40
1.0
 10
159.2479788957436
 20
61.51379670868303
 30
0.0
 10
158.5852342018985
 20
61.51379670868304
 30
0.0
 10
157.9339783427828
 20
61.49895663209423
 30
0.0
 10
156.9735278045246
 20
61.45658706786462
 30
0.0
 10
156.6561363612916
 20
61.43910896508542
 30
0.0
 10
156.0269728597367
 20
61.39778067853313
 30
0.0
 10
155.714824673295
 20
61.37385540507543
 30
0.0
 10
154.8075173714468
 20
61.29504888860852
 30
0.0
 10
154.2340924138055
 20
61.23274286863206
 30
0.0
 10
153.4202155442308
 20
61.12961354839269
 30
0.0
 10
153.155409347661
 20
61.09342962934616
 30
0.0
 10
152.6485019368467
 20
61.01963484514566
 30
0.0
 10
152.4071077854932
 20
60.98216098637403
 30
0.0
 10
151.7179663133608
 20
60.86944904303429
 30
0.0
 10
151.3049114984966
 20
60.79391294556052
 30
0.0
 10
150.7567566791215
 20
60.68551968854304
 30
0.0
 10
150.5872940717759
 20
60.65044745687976
 30
0.0
 10
150.2792768237605
 20
60.58421199627991
 30
0.0
 10
150.1398968031522
 20
60.55288529952519
 30
0.0
 10
149.8901112905255
 20
60.49447652794426
 30
0.0
 10
149.7797051778715
 20
60.46739329276143
 30
0.0
 10
149.5884473242338
 20
60.41813353814781
 30
0.0
 10
149.5073278059495
 20
60.39587155834018
 30
0.0
 10
149.3131808858411
 20
60.33830465117187
 30
0.0
 10
149.2479788957436
 20
60.3120450463859
 30
0.0
 10
149.2479788957436
 20
60.29879130191188
 30
0.0
  0
LINE
  5
B0
330
1F
100
AcDbEntity
  8
0
  6
Continuous
 62
     7
370
    15
100
AcDbLine
 10
149.2479788957
 20
60.2987913019
 30
0.0
 11
149.2479788957
 21
60.2887903017
 31
0.0
  0
SPLINE
  5
B1
330
1F
100
AcDbEntity
  8
0
  6
Continuous
 62
     7
370
    15
100
AcDbSpline
210
0.0
220
0.0
230
1.0
 70
     8
 71
     3
 72
    17
 73
    13
 74
     0
 42
0.000000001
 43
0.00000001
 40
0.0
 40
0.0
 40
0.0
 40
0.0
 40
0.1043843840547469
 40
0.2118345768143993
 40
0.3162082005190449
 40
0.4235375806108391
 40
0.5292276236193851
 40
0.637927586480349
 40
0.7444714844189682
 40
0.8541836219421858
 40
0.9593080534965216
 40
1.0
 40
1.0
 40
1.0
 40
1.0
 10
159.2479788957436
 20
159.2785851573754
 30
0.0
 10
158.7000404478842
 20
159.2839533611241
 30
0.0
 10
157.5880703934195
 20
159.2948474347891
 30
0.0
 10
155.9752144802046
 20
159.3800248090481
 30
0.0
 10
154.4417012632276
 20
159.5063995153406
 30
0.0
 10
153.050680413891
 20
159.6633023359174
 30
0.0
 10
151.8151638966606
 20
159.835001165438
 30
0.0
 10
150.7918081295053
 20
160.000337441539
 30
0.0
 10
149.9914661312402
 20
160.1440509211256
 30
0.0
 10
149.4811340293267
 20
160.2422057283048
 30
0.0
 10
149.2412256005021
 20
160.2901341251747
 30
0.0
 10
149.2731443799219
 20
160.283766725935
 30
0.0
 10
149.2820517282041
 20
160.2819898208118
 30
0.0
  0
LINE
  5
B2
330
1F
100
AcDbEntity
  8
0
  6
Continuous
 62
     7
370
    15
100
AcDbLine
 10
161.0359498748
 20
159.2785851574
 30
0.0
 11
159.2479788957
 21
159.2785851574
 31
0.0
  0
LINE
  5
B3
330
1F
100
AcDbEntity
  8
0
  6
Continuous
 62
     7
370
    15
100
AcDbLine
 10
161.0359498748
 20
149.2397530626
 30
0.0
 11
161.0359498748
 21
159.2785851574
 31
0.0
  0
LINE
  5
B4
330
1F
100
AcDbEntity
  8
0
  6
Continuous
 62
     7
370
    15
100
AcDbLine
 10
158.9559457439
 20
149.2397530626
 30
0.0
 11
161.0359498748
 21
149.2397530626
 31
0.0
  0
SPLINE
  5
B5
330
1F
100
AcDbEntity
  8
0
  6
Continuous
 62
     7
370
    15
100
AcDbSpline
210
0.0
220
0.0
230
1.0
 70
     8
 71
     3
 72
    22
 73
    18
 74
     0
 42
0.000000001
 43
0.00000001
 40
0.0
 40
0.0
 40
0.0
 40
0.0
 40
0.2500000000000001
 40
0.2500000000000001
 40
0.3750000000000002
 40
0.3750000000000002
 40
0.5000000000000002
 40
0.5000000000000002
 40
0.6250000000000001
 40
0.6250000000000001
 40
0.7500000000000001
 40
0.7500000000000001
 40
0.875
 40
0.875
 40
0.9375
 40
0.9375
 40
1.0
 40
1.0
 40
1.0
 40
1.0
 10
149.2479788957436
 20
141.6387903017119
 30
0.0
 10
149.4507038516627
 20
142.6580366435765
 30
0.0
 10
149.765447573458
 20
143.6171447935158
 30
0.0
 10
150.473503043129
 20
144.959623871025
 30
0.0
 10
150.7519656733467
 20
145.3938324537651
 30
0.0
 10
151.3907330799838
 20
146.2054601692672
 30
0.0
 10
151.7511467597741
 20
146.584740462204
 30
0.0
 10
152.5686789917634
 20
147.287699041225
 30
0.0
 10
153.0298469750504
 20
147.6127278589256
 30
0.0
 10
154.0278372215343
 20
148.1777431823165
 30
0.0
 10
154.5675964155266
 20
148.421446776523
 30
0.0
 10
155.7421893795579
 20
148.825646704168
 30
0.0
 10
156.3539255655498
 20
148.9780838972135
 30
0.0
 10
157.3058347904115
 20
149.1334114448222
 30
0.0
 10
157.6290679546721
 20
149.1729162248722
 30
0.0
 10
158.2881311259474
 20
149.2262253455409
 30
0.0
 10
158.6221951365214
 20
149.2397530625988
 30
0.0
 10
158.9559457439229
 20
149.2397530625988
 30
0.0
  0
LINE
  5
B6
330
1F
100
AcDbEntity
  8
0
  6
Continuous
 62
     7
370
    15
100
AcDbLine
 10
144.2979788957
 20
60.7887903017
 30
0.0
 11
144.2979788957
 21
159.7887902971
 31
0.0
  0
LINE
  5
B7
330
1F
100
AcDbEntity
  8
0
  6
Continuous
 62
     7
370
    15
100
AcDbLine
 10
173.2479788957
 20
62.5394447565
 30
0.0
 11
173.2479788957
 21
141.6387903017
 31
0.0
  0
SPLINE
  5
B8
330
1F
100
AcDbEntity
  8
0
  6
Continuous
 62
     7
370
    15
100
AcDbSpline
210
0.0
220
0.0
230
1.0
 70
     8
 71
     3
 72
    14
 73
    10
 74
     0
 42
0.000000001
 43
0.00000001
 40
0.0
 40
0.0
 40
0.0
 40
0.0
 40
0.25
 40
0.25
 40
0.5
 40
0.5
 40
0.75
 40
0.75
 40
1.0
 40
1.0
 40
1.0
 40
1.0
 10
173.2479788957436
 20
62.53944475645854
 30
0.0
 10
173.2479788957436
 20
62.406019060404
 30
0.0
 10
173.2226677958327
 20
62.27417125255965
 30
0.0
 10
173.124333031988
 20
62.02764870386554
 30
0.0
 10
173.0511890277319
 20
61.913843515625
 30
0.0
 10
172.8677509666362
 20
61.72338633867773
 30
0.0
 10
172.7560646322976
 20
61.64575147482781
 30
0.0
 10
172.5135612019913
 20
61.54146006471534
 30
0.0
 10
172.3801867732971
 20
61.51379670868299
 30
0.0
 10
172.2479788957436
 20
61.513796708683
 30
0.0
  0
SPLINE
  5
B9
330
1F
100
AcDbEntity
  8
0
  6
Continuous
 62
     7
370
    15
100
AcDbSpline
210
0.0
220
0.0
230
1.0
 70
    24
 71
     3
 72
    12
 73
     8
 74
     0
 42
0.000000001
 43
0.00000001
 40
0.0
 40
0.0
 40
0.0
 40
0.0
 40
0.2500000000000016
 40
0.2500000000000016
 40
0.5000000000000032
 40
0.5000000000000032
 40
1.0
 40
1.0
 40
1.0
 40
1.0
 10
172.2479788957436
 20
141.6387903017119
 30
0.0
 10
172.4000691326886
 20
141.6387903017119
 30
0.0
 10
172.548528393764
 20
141.6387903017119
 30
0.0
 10
172.8059320260297
 20
141.6387903017119
 30
0.0
 10
172.9150367738716
 20
141.6387903017119
 30
0.0
 10
173.1690962502792
 20
141.6387903017119
 30
0.0
 10
173.2479788957436
 20
141.6387903017119
 30
0.0
 10
173.2479788957436
 20
141.6387903017119
 30
0.0
  0
LINE
  5
BA
330
1F
100
AcDbEntity
  8
0
  6
Continuous
 62
     7
370
    15
100
AcDbLine
 10
162.3879788957
 20
63.9174020147
 30
0.0
 11
162.3879788957
 21
141.6387903017
 31
0.0
  0
SPLINE
  5
BB
330
1F
100
AcDbEntity
  8
0
  6
Continuous
 62
     7
370
    15
100
AcDbSpline
210
0.0
220
0.0
230
1.0
 70
     8
 71
     3
 72
     8
 73
     4
 74
     0
 42
0.000000001
 43
0.00000001
 40
0.0
 40
0.0
 40
0.0
 40
0.0
 40
1.0
 40
1.0
 40
1.0
 40
1.0
 10
162.3879788957436
 20
63.91740201468837
 30
0.0
 10
161.9377524314658
 20
63.11594665206361
 30
0.0
 10
161.4870546042224
 20
62.31475664050294
 30
0.0
 10
161.0359498748222
 20
61.51379670868303
 30
0.0
  0
SPLINE
  5
BC
330
1F
100
AcDbEntity
  8
0
  6
Continuous
 62
     7
370
    15
100
AcDbSpline
210
0.0
220
0.0
230
1.0
 70
    24
 71
     3
 72
     8
 73
     4
 74
     0
 42
0.000000001
 43
0.00000001
 40
0.0
 40
0.0
 40
0.0
 40
0.0
 40
1.0
 40
1.0
 40
1.0
 40
1.0
 10
161.0359498748222
 20
141.6387903017119
 30
0.0
 10
161.4927514471505
 20
141.6387903017119
 30
0.0
 10
161.9437660133896
 20
141.6387903017119
 30
0.0
 10
162.3879788957436
 20
141.6387903017119
 30
0.0
  0
LINE
  5
BD
330
1F
100
AcDbEntity
  8
0
  6
Continuous
 62
     7
370
    15
100
AcDbLine
 10
172.2479788957
 20
61.5137967087
 30
0.0
 11
167.5600079167
 21
61.5137967087
 31
0.0
  0
LINE
  5
BE
330
1F
100
AcDbEntity
  8
0
  6
Continuous
 62
     7
370
    15
100
AcDbLine
 10
167.5600079167
 20
141.6387903017
 30
0.0
 11
172.2479788957
 21
141.6387903017
 31
0.0
  0
SPLINE
  5
BF
330
1F
100
AcDbEntity
  8
0
  6
Continuous
 62
     7
370
    15
100
AcDbSpline
210
0.0
220
0.0
230
1.0
 70
     8
 71
     3
 72
    14
 73
    10
 74
     0
 42
0.000000001
 43
0.00000001
 40
0.0
 40
0.0
 40
0.0
 40
0.0
 40
0.25
 40
0.25
 40
0.5
 40
0.5
 40
0.75
 40
0.75
 40
1.0
 40
1.0
 40
1.0
 40
1.0
 10
166.2079788957436
 20
64.82561151931695
 30
0.0
 10
166.2079788957436
 20
64.93265560031134
 30
0.0
 10
166.1878612085854
 20
65.03789074055378
 30
0.0
 10
166.1093700193198
 20
65.23574122740148
 30
0.0
 10
166.0512133945186
 20
65.32679299096638
 30
0.0
 10
165.9046981389005
 20
65.47995908489116
 30
0.0
 10
165.8160555902595
 20
65.54225353110057
 30
0.0
 10
165.6203322674591
 20
65.62704731663658
 30
0.0
 10
165.5151010763882
 20
65.64911484366219
 30
0.0
 10
165.4079788957436
 20
65.6491148436622
 30
0.0
  0
SPLINE
  5
C0
330
1F
100
AcDbEntity
  8
0
  6
Continuous
 62
     7
370
    15
100
AcDbSpline
210
0.0
220
0.0
230
1.0
 70
    24
 71
     3
 72
    14
 73
    10
 74
     0
 42
0.000000001
 43
0.00000001
 40
0.0
 40
0.0
 40
0.0
 40
0.0
 40
0.25
 40
0.25
 40
0.5
 40
0.5
 40
0.75
 40
0.75
 40
1.0
 40
1.0
 40
1.0
 40
1.0
 10
165.4079788957436
 20
141.6387903017119
 30
0.0
 10
165.5317486605087
 20
141.6387903017119
 30
0.0
 10
165.6561157645156
 20
141.6387903017119
 30
0.0
 10
165.8624722332416
 20
141.6387903017119
 30
0.0
 10
165.94780037666
 20
141.6387903017119
 30
0.0
 10
166.0799924353752
 20
141.6387903017119
 30
0.0
 10
166.1286376791258
 20
141.6387903017119
 30
0.0
 10
166.1921734708546
 20
141.6387903017119
 30
0.0
 10
166.2079788957436
 20
141.6387903017119
 30
0.0
 10
166.2079788957436
 20
141.6387903017119
 30
0.0
  0
SPLINE
  5
C1
330
1F
100
AcDbEntity
  8
0
  6
Continuous
 62
     7
370
    15
100
AcDbSpline
210
0.0
220
0.0
230
1.0
 70
     8
 71
     3
 72
    12
 73
     8
 74
     0
 42
0.000000001
 43
0.00000001
 40
0.0
 40
0.0
 40
0.0
 40
0.0
 40
0.25
 40
0.25
 40
0.5
 40
0.5
 40
1.0
 40
1.0
 40
1.0
 40
1.0
 10
163.1879788957436
 20
65.6491148436622
 30
0.0
 10
163.0822182423946
 20
65.6491148436622
 30
0.0
 10
162.9742306142117
 20
65.62657533766179
 30
0.0
 10
162.7796359489461
 20
65.54200470566651
 30
0.0
 10
162.6907640361073
 20
65.4795230529077
 30
0.0
 10
162.4715717437813
 20
65.25013410143553
 30
0.0
 10
162.3879788957435
 20
65.03755076391315
 30
0.0
 10
162.3879788957435
 20
64.82561151931695
 30
0.0
  0
SPLINE
  5
C2
330
1F
100
AcDbEntity
  8
0
  6
Continuous
 62
     7
370
    15
100
AcDbSpline
210
0.0
220
0.0
230
1.0
 70
    24
 71
     3
 72
    14
 73
    10
 74
     0
 42
0.000000001
 43
0.00000001
 40
0.0
 40
0.0
 40
0.0
 40
0.0
 40
0.25
 40
0.25
 40
0.5
 40
0.5
 40
0.75
 40
0.75
 40
1.0
 40
1.0
 40
1.0
 40
1.0
 10
162.3879788957436
 20
141.6387903017119
 30
0.0
 10
162.3879788957436
 20
141.6387903017119
 30
0.0
 10
162.4036932162095
 20
141.6387903017119
 30
0.0
 10
162.4673771946779
 20
141.6387903017119
 30
0.0
 10
162.5159803890884
 20
141.6387903017119
 30
0.0
 10
162.6486639115139
 20
141.6387903017119
 30
0.0
 10
162.7337660158246
 20
141.6387903017119
 30
0.0
 10
162.9402082507347
 20
141.6387903017119
 30
0.0
 10
163.0642891923576
 20
141.6387903017119
 30
0.0
 10
163.1879788957436
 20
141.6387903017119
 30
0.0
  0
LINE
  5
C3
330
1F
100
AcDbEntity
  8
0
  6
Continuous
 62
     7
370
    15
100
AcDbLine
 10
165.4079788957
 20
65.6491148437
 30
0.0
 11
163.1879788957
 21
65.6491148437
 31
0.0
  0
LINE
  5
C4
330
1F
100
AcDbEntity
  8
0
  6
Continuous
 62
     7
370
    15
100
AcDbLine
 10
163.1879788957
 20
141.6387903017
 30
0.0
 11
165.4079788957
 21
141.6387903017
 31
0.0
  0
LINE
  5
C5
330
1F
100
AcDbEntity
  8
0
  6
Continuous
 62
     7
370
    15
100
AcDbLine
 10
141.7979788957
 20
72.4065387987
 30
0.0
 11
141.7979788957
 21
148.1710418047
 31
0.0
  0
LINE
  5
C6
330
1F
100
AcDbEntity
  8
0
  6
Continuous
 62
     7
370
    15
100
AcDbLine
 10
109.4979788957
 20
74.0247752717
 30
0.0
 11
109.4979788957
 21
76.4194570363
 31
0.0
  0
SPLINE
  5
C7
330
1F
100
AcDbEntity
  8
0
  6
Continuous
 62
     7
370
    15
100
AcDbSpline
210
0.0
220
0.0
230
1.0
 70
     8
 71
     3
 72
    14
 73
    10
 74
     0
 42
0.000000001
 43
0.00000001
 40
0.0
 40
0.0
 40
0.0
 40
0.0
 40
0.25
 40
0.25
 40
0.5
 40
0.5
 40
0.75
 40
0.75
 40
1.0
 40
1.0
 40
1.0
 40
1.0
 10
108.4935564244066
 20
78.12230895796831
 30
0.0
 10
108.582325002352
 20
77.96377482666037
 30
0.0
 10
108.7040428410309
 20
77.8113321497718
 30
0.0
 10
108.9390924508877
 20
77.51419752594288
 30
0.0
 10
109.0547226371046
 20
77.36951488232552
 30
0.0
 10
109.2551275705324
 20
77.0862256798221
 30
0.0
 10
109.3405278625167
 20
76.94767168678526
 30
0.0
 10
109.462233496234
 20
76.67628765675173
 30
0.0
 10
109.4979788957466
 20
76.5441517881171
 30
0.0
 10
109.4979788957466
 20
76.41945703634634
 30
0.0
  0
SPLINE
  5
C8
330
1F
100
AcDbEntity
  8
0
  6
Continuous
 62
     7
370
    15
100
AcDbSpline
210
0.0
220
0.0
230
1.0
 70
     8
 71
     3
 72
    14
 73
    10
 74
     0
 42
0.000000001
 43
0.00000001
 40
0.0
 40
0.0
 40
0.0
 40
0.0
 40
0.1249999999999983
 40
0.1249999999999983
 40
0.2499999999999966
 40
0.2499999999999966
 40
0.4999999999999978
 40
0.4999999999999978
 40
1.0
 40
1.0
 40
1.0
 40
1.0
 10
107.5979788957436
 20
78.75113889706842
 30
0.0
 10
107.6655611955281
 20
78.75829478216981
 30
0.0
 10
107.738048773276
 20
78.75387031213083
 30
0.0
 10
107.8703398825419
 20
78.72416415436047
 30
0.0
 10
107.9276172619321
 20
78.70087987278222
 30
0.0
 10
108.0772676891324
 20
78.6233946329319
 30
0.0
 10
108.1509809846539
 20
78.56154280603054
 30
0.0
 10
108.3387889679801
 20
78.3768653533822
 30
0.0
 10
108.4228292743416
 20
78.248622430091
 30
0.0
 10
108.4935564244078
 20
78.12230895796841
 30
0.0
  0
SPLINE
  5
C9
330
1F
100
AcDbEntity
  8
0
  6
Continuous
 62
     7
370
    15
100
AcDbSpline
210
0.0
220
0.0
230
1.0
 70
     8
 71
     3
 72
     8
 73
     4
 74
     0
 42
0.000000001
 43
0.00000001
 40
0.0
 40
0.0
 40
0.0
 40
0.0
 40
1.0
 40
1.0
 40
1.0
 40
1.0
 10
104.0533385076628
 20
78.33309031227662
 30
0.0
 10
105.2186368183716
 20
78.48827778416324
 30
0.0
 10
106.4032520324115
 20
78.62463642247357
 30
0.0
 10
107.5979788957436
 20
78.75113889706842
 30
0.0
  0
SPLINE
  5
CA
330
1F
100
AcDbEntity
  8
0
  6
Continuous
 62
     7
370
    15
100
AcDbSpline
210
0.0
220
0.0
230
1.0
 70
     8
 71
     3
 72
    14
 73
    10
 74
     0
 42
0.000000001
 43
0.00000001
 40
0.0
 40
0.0
 40
0.0
 40
0.0
 40
0.4999999999999972
 40
0.4999999999999972
 40
0.7499999999999971
 40
0.7499999999999971
 40
0.8749999999999986
 40
0.8749999999999986
 40
1.0
 40
1.0
 40
1.0
 40
1.0
 10
96.29790401171488
 20
78.04295813314671
 30
0.0
 10
97.60620557424862
 20
78.04997285688783
 30
0.0
 10
98.91126494890544
 20
78.06538143333233
 30
0.0
 10
100.8571410003938
 20
78.119277988799
 30
0.0
 10
101.5038385041328
 20
78.14230955340169
 30
0.0
 10
102.4676808679871
 20
78.19325207827245
 30
0.0
 10
102.7879195599212
 20
78.21298700050563
 30
0.0
 10
103.4246147862636
 20
78.26247412897722
 30
0.0
 10
103.7413301945465
 20
78.29153890790644
 30
0.0
 10
104.0533385076628
 20
78.33309031227658
 30
0.0
  0
SPLINE
  5
CB
330
1F
100
AcDbEntity
  8
0
  6
Continuous
 62
     7
370
    15
100
AcDbSpline
210
0.0
220
0.0
230
1.0
 70
     8
 71
     3
 72
    12
 73
     8
 74
     0
 42
0.000000001
 43
0.00000001
 40
0.0
 40
0.0
 40
0.0
 40
0.0
 40
0.2500000000000009
 40
0.2500000000000009
 40
0.5000000000000018
 40
0.5000000000000018
 40
1.0
 40
1.0
 40
1.0
 40
1.0
 10
102.5979788957436
 20
142.3753131932083
 30
0.0
 10
102.0792800739154
 20
142.4078359680565
 30
0.0
 10
101.5575685007104
 20
142.431132709227
 30
0.0
 10
100.5112764842148
 20
142.4689782236491
 30
0.0
 10
99.98660485854457
 20
142.4832466981452
 30
0.0
 10
98.40975883600534
 20
142.5174561856035
 30
0.0
 10
97.35480352145842
 20
142.5289556895474
 30
0.0
 10
96.29790401171319
 20
142.534622470277
 30
0.0
  0
SPLINE
  5
CC
330
1F
100
AcDbEntity
  8
0
  6
Continuous
 62
     7
370
    15
100
AcDbSpline
210
0.0
220
0.0
230
1.0
 70
     8
 71
     3
 72
    20
 73
    16
 74
     0
 42
0.000000001
 43
0.00000001
 40
0.0
 40
0.0
 40
0.0
 40
0.0
 40
0.2500000000000003
 40
0.2500000000000003
 40
0.5000000000000007
 40
0.5000000000000007
 40
0.750000000000001
 40
0.750000000000001
 40
0.8750000000000007
 40
0.8750000000000007
 40
0.9375000000000012
 40
0.9375000000000012
 40
0.9687500000000007
 40
0.9687500000000007
 40
1.0
 40
1.0
 40
1.0
 40
1.0
 10
104.4979788957436
 20
144.0333990386964
 30
0.0
 10
104.4979788957436
 20
143.8977167189496
 30
0.0
 10
104.449267106527
 20
143.7566297328096
 30
0.0
 10
104.2801056833018
 20
143.464558014079
 30
0.0
 10
104.1583252693834
 20
143.3129092719886
 30
0.0
 10
103.8607781746339
 20
143.0105008318355
 30
0.0
 10
103.6868655689312
 20
142.8579121957122
 30
0.0
 10
103.3674507350494
 20
142.6326414318699
 30
0.0
 10
103.2524099596021
 20
142.5579183373592
 30
0.0
 10
103.0453256355857
 20
142.4585079281022
 30
0.0
 10
102.9692178007793
 20
142.4269428357576
 30
0.0
 10
102.8378232612259
 20
142.3924994515646
 30
0.0
 10
102.7912700422245
 20
142.383447879797
 30
0.0
 10
102.6949366911438
 20
142.3732722309585
 30
0.0
 10
102.6456772677883
 20
142.3723224722835
 30
0.0
 10
102.5979788957416
 20
142.3753131931981
 30
0.0
  0
LINE
  5
CD
330
1F
100
AcDbEntity
  8
0
  6
Continuous
 62
     7
370
    15
100
AcDbLine
 10
104.4979788957
 20
144.0333990387
 30
0.0
 11
104.4979788957
 21
146.3023043298
 31
0.0
  0
SPLINE
  5
CE
330
1F
100
AcDbEntity
  8
0
  6
Continuous
 62
     7
370
    15
100
AcDbSpline
210
0.0
220
0.0
230
1.0
 70
     8
 71
     3
 72
    24
 73
    20
 74
     0
 42
0.000000001
 43
0.00000001
 40
0.0
 40
0.0
 40
0.0
 40
0.0
 40
0.0002934293894792
 40
0.062808005175934
 40
0.1260453927228742
 40
0.1890746766613222
 40
0.2513200540860153
 40
0.3133304633787786
 40
0.3759158453762985
 40
0.4383740564607907
 40
0.5000631094857534
 40
0.561659398803632
 40
0.6245050380643723
 40
0.6872231506498981
 40
0.7494953263230506
 40
0.811758379753676
 40
0.8747365508229972
 40
0.9378980306234588
 40
1.0
 40
1.0
 40
1.0
 40
1.0
 10
122.817935159583
 20
73.35754504339945
 30
0.0
 10
122.8177403066982
 20
73.35752073600548
 30
0.0
 10
122.776032415686
 20
73.35231778435173
 30
0.0
 10
122.9211508072163
 20
73.37095240768171
 30
0.0
 10
123.2762297487582
 20
73.41347218623075
 30
0.0
 10
123.8808053863026
 20
73.48160846983228
 30
0.0
 10
124.6872406951179
 20
73.55486400684838
 30
0.0
 10
125.6727181190354
 20
73.6193833476663
 30
0.0
 10
126.8043877157207
 20
73.65794757572716
 30
0.0
 10
128.0266801858815
 20
73.66164208172908
 30
0.0
 10
129.2940088673314
 20
73.61921610167965
 30
0.0
 10
130.5604943977496
 20
73.53096896089691
 30
0.0
 10
131.7766317615651
 20
73.40257569063338
 30
0.0
 10
132.9020422574136
 20
73.24993470204107
 30
0.0
 10
133.8794593189642
 20
73.0881600869358
 30
0.0
 10
134.6827247975141
 20
72.93563119383408
 30
0.0
 10
135.2712183205141
 20
72.81161745056674
 30
0.0
 10
135.6601244321639
 20
72.7266935242906
 30
0.0
 10
135.7068855629032
 20
72.71596721301174
 30
0.0
 10
135.7300683694461
 20
72.71064942032012
 30
0.0
  0
SPLINE
  5
CF
330
1F
100
AcDbEntity
  8
0
  6
Continuous
 62
     7
370
    15
100
AcDbSpline
210
0.0
220
0.0
230
1.0
 70
     8
 71
     3
 72
    41
 73
    37
 74
     0
 42
0.000000001
 43
0.00000001
 40
0.0
 40
0.0
 40
0.0
 40
0.0
 40
0.0619930088509839
 40
0.1254347838145775
 40
0.1886508980472116
 40
0.2510246518033717
 40
0.3131658325488003
 40
0.3756581805174138
 40
0.4382227337755126
 40
0.4998045140815232
 40
0.5615164441950592
 40
0.6240683366165516
 40
0.6867257531767135
 40
0.7488365631577227
 40
0.8110686297815293
 40
0.8741743265521017
 40
0.9373213196239055
 40
0.9685512131825712
 40
0.984208730152181
 40
0.9920641614991338
 40
0.9960005295431176
 40
0.9979711229155214
 40
0.9989570525954502
 40
0.9994501795074999
 40
0.9996967839589611
 40
0.9998200964931961
 40
0.9998817553448917
 40
0.9999125854178162
 40
0.9999280006161619
 40
0.9999357082558221
 40
0.9999395620857765
 40
0.9999414890032835
 40
0.999942452462671
 40
0.9999434159224786
 40
0.9999502132898598
 40
0.9999999999999999
 40
0.9999999999999999
 40
0.9999999999999999
 40
0.9999999999999999
 10
135.7299470389682
 20
147.866886165152
 30
0.0
 10
135.7063753936249
 20
147.8615766855021
 30
0.0
 10
135.6586812375808
 20
147.8508336445626
 30
0.0
 10
135.2666392481532
 20
147.7656045081069
 30
0.0
 10
134.6761251988805
 20
147.6410357294664
 30
0.0
 10
133.8720877528404
 20
147.4880887833148
 30
0.0
 10
132.8960123526595
 20
147.3263322293613
 30
0.0
 10
131.7742036173805
 20
147.1740994614293
 30
0.0
 10
130.5606726975912
 20
147.0463195202276
 30
0.0
 10
129.2958419911947
 20
146.958470968545
 30
0.0
 10
128.0277989537504
 20
146.9160854846745
 30
0.0
 10
126.8042915960488
 20
146.9198212926459
 30
0.0
 10
125.6707930556299
 20
146.9584167630934
 30
0.0
 10
124.6846872446575
 20
147.0228561343852
 30
0.0
 10
123.8760594358741
 20
147.0963659416666
 30
0.0
 10
123.2794407407617
 20
147.1636796264779
 30
0.0
 10
122.9640494513039
 20
147.2016441777457
 30
0.0
 10
122.8539828825042
 20
147.215443237078
 30
0.0
 10
122.8265634946936
 20
147.2189293109982
 30
0.0
 10
122.819641443859
 20
147.2198085366923
 30
0.0
 10
122.8178732036828
 20
147.2200293112977
 30
0.0
 10
122.8174128244993
 20
147.2200845140097
 30
0.0
 10
122.8172886658288
 20
147.220098253795
 30
0.0
 10
122.8172531113155
 20
147.2201016496285
 30
0.0
 10
122.8172419672738
 20
147.2201024779452
 30
0.0
 10
122.8172380540376
 20
147.220102674539
 30
0.0
 10
122.8172365118893
 20
147.220102718462
 30
0.0
 10
122.8172358448079
 20
147.2201027267787
 30
0.0
 10
122.817235536743
 20
147.2201027275949
 30
0.0
 10
122.8172353898177
 20
147.2201027270696
 30
0.0
 10
122.81723531709
 20
147.2201027267118
 30
0.0
 10
122.8172352823804
 20
147.220102726314
 30
0.0
 10
122.8172352606469
 20
147.2201027263388
 30
0.0
 10
122.8172352287918
 20
147.2201027240941
 30
0.0
 10
122.8172332794514
 20
147.2201029400401
 30
0.0
 10
122.8172602143143
 20
147.2200994589095
 30
0.0
 10
122.8172839135293
 20
147.2200963959622
 30
0.0
  0
SPLINE
  5
D0
330
1F
100
AcDbEntity
  8
0
  6
Continuous
 62
     7
370
    15
100
AcDbSpline
210
0.0
220
0.0
230
1.0
 70
     8
 71
     3
 72
    20
 73
    16
 74
     0
 42
0.000000001
 43
0.00000001
 40
0.0
 40
0.0
 40
0.0
 40
0.0
 40
0.2499999999999887
 40
0.2499999999999887
 40
0.374999999999986
 40
0.374999999999986
 40
0.4374999999999881
 40
0.4374999999999881
 40
0.4999999999999901
 40
0.4999999999999901
 40
0.6249999999999891
 40
0.6249999999999891
 40
0.7499999999999881
 40
0.7499999999999881
 40
1.0
 40
1.0
 40
1.0
 40
1.0
 10
94.68879312745959
 20
79.61030714901113
 30
0.0
 10
94.71506534467302
 20
79.6296250900936
 30
0.0
 10
94.74574548692783
 20
79.64401380119534
 30
0.0
 10
94.81721635730977
 20
79.63710943935934
 30
0.0
 10
94.8452433943541
 20
79.62994343601092
 30
0.0
 10
94.90032698385164
 20
79.60024440930732
 30
0.0
 10
94.92121831240405
 20
79.586770766746
 30
0.0
 10
94.9664269598495
 20
79.55157250123
 30
0.0
 10
94.99083117224508
 20
79.52966427250274
 30
0.0
 10
95.06216349029653
 20
79.45753941250719
 30
0.0
 10
95.10406027511678
 20
79.40519887155713
 30
0.0
 10
95.17563623397264
 20
79.30771547965637
 30
0.0
 10
95.20646422378998
 20
79.26096170977796
 30
0.0
 10
95.28956415662557
 20
79.12766849393886
 30
0.0
 10
95.33441906199586
 20
79.04503109602365
 30
0.0
 10
95.3745311374484
 20
78.96592420123287
 30
0.0
  0
SPLINE
  5
D1
330
1F
100
AcDbEntity
  8
0
  6
Continuous
 62
     7
370
    15
100
AcDbSpline
210
0.0
220
0.0
230
1.0
 70
     8
 71
     3
 72
    14
 73
    10
 74
     0
 42
0.000000001
 43
0.00000001
 40
0.0
 40
0.0
 40
0.0
 40
0.0
 40
0.25
 40
0.25
 40
0.5
 40
0.5
 40
0.75
 40
0.75
 40
1.0
 40
1.0
 40
1.0
 40
1.0
 10
94.39797889574358
 20
79.78612055914391
 30
0.0
 10
94.39797889574359
 20
79.74487362811956
 30
0.0
 10
94.40658861212484
 20
79.70796665583708
 30
0.0
 10
94.43767479169519
 20
79.64706659593767
 30
0.0
 10
94.46006434517925
 20
79.62288567639798
 30
0.0
 10
94.51480827635537
 20
79.58891808551473
 30
0.0
 10
94.54725851594056
 20
79.57899800154654
 30
0.0
 10
94.61726003066862
 20
79.57764679264169
 30
0.0
 10
94.65547053079115
 20
79.58580506933785
 30
0.0
 10
94.68879312746424
 20
79.61030714900593
 30
0.0
  0
LINE
  5
D2
330
1F
100
AcDbEntity
  8
0
  6
Continuous
 62
     7
370
    15
100
AcDbLine
 10
94.3979788957
 20
79.7861205591
 30
0.0
 11
94.3979788957
 21
140.7914600443
 31
0.0
  0
SPLINE
  5
D3
330
1F
100
AcDbEntity
  8
0
  6
Continuous
 62
     7
370
    15
100
AcDbSpline
210
0.0
220
0.0
230
1.0
 70
     8
 71
     3
 72
    10
 73
     6
 74
     0
 42
0.000000001
 43
0.00000001
 40
0.0
 40
0.0
 40
0.0
 40
0.0
 40
0.0592402688376416
 40
0.6438088530391356
 40
1.0
 40
1.0
 40
1.0
 40
1.0
 10
94.68879312746422
 20
140.9672734544177
 30
0.0
 10
94.68396086984305
 20
140.9705223610494
 30
0.0
 10
94.63144506770824
 20
141.005830689205
 30
0.0
 10
94.53249487002954
 20
141.0120849857636
 30
0.0
 10
94.48306634513817
 20
140.9568847480747
 30
0.0
 10
94.46435168039388
 20
140.9359847931514
 30
0.0
  0
SPLINE
  5
D4
330
1F
100
AcDbEntity
  8
0
  6
Continuous
 62
     7
370
    15
100
AcDbSpline
210
0.0
220
0.0
230
1.0
 70
     8
 71
     3
 72
     8
 73
     4
 74
     0
 42
0.000000001
 43
0.00000001
 40
0.0
 40
0.0
 40
0.0
 40
0.0
 40
1.0
 40
1.0
 40
1.0
 40
1.0
 10
94.42161256467979
 20
140.8990395453494
 30
0.0
 10
94.40626352604376
 20
140.8685294903535
 30
0.0
 10
94.39797889574358
 20
140.8322179348412
 30
0.0
 10
94.39797889574358
 20
140.7914600442797
 30
0.0
  0
SPLINE
  5
D5
330
1F
100
AcDbEntity
  8
0
  6
Continuous
 62
     7
370
    15
100
AcDbSpline
210
0.0
220
0.0
230
1.0
 70
     8
 71
     3
 72
    20
 73
    16
 74
     0
 42
0.000000001
 43
0.00000001
 40
0.0
 40
0.0
 40
0.0
 40
0.0
 40
0.2499999999999868
 40
0.2499999999999868
 40
0.3749999999999822
 40
0.3749999999999822
 40
0.4999999999999776
 40
0.4999999999999776
 40
0.5624999999999778
 40
0.5624999999999778
 40
0.624999999999978
 40
0.624999999999978
 40
0.7499999999999855
 40
0.7499999999999855
 40
1.0
 40
1.0
 40
1.0
 40
1.0
 10
95.37453113744598
 20
141.61165640219
 30
0.0
 10
95.33453491962216
 20
141.5327779956325
 30
0.0
 10
95.28942129178449
 20
141.4496483489411
 30
0.0
 10
95.206167077418
 20
141.3161596845901
 30
0.0
 10
95.17594774879747
 20
141.2702946287081
 30
0.0
 10
95.10385951365602
 20
141.1721030763032
 30
0.0
 10
95.06194219624497
 20
141.1197932567796
 30
0.0
 10
94.99069159169352
 20
141.0477873540451
 30
0.0
 10
94.96645577931419
 20
141.0260171417436
 30
0.0
 10
94.92085758912955
 20
140.9905424834145
 30
0.0
 10
94.90005509952982
 20
140.977172299237
 30
0.0
 10
94.84511410111074
 20
140.9476023871018
 30
0.0
 10
94.81704511302392
 20
140.9404758647998
 30
0.0
 10
94.74654228296106
 20
140.9336014933171
 30
0.0
 10
94.71511819517023
 20
140.9479166524043
 30
0.0
 10
94.68879312746162
 20
140.9672734544149
 30
0.0
  0
SPLINE
  5
D6
330
1F
100
AcDbEntity
  8
0
  6
Continuous
 62
     7
370
    15
100
AcDbSpline
210
0.0
220
0.0
230
1.0
 70
     8
 71
     3
 72
    10
 73
     6
 74
     0
 42
0.000000001
 43
0.00000001
 40
0.0
 40
0.0
 40
0.0
 40
0.0
 40
0.4999999999999989
 40
0.4999999999999989
 40
1.0
 40
1.0
 40
1.0
 40
1.0
 10
96.0479788957436
 20
142.5370755035318
 30
0.0
 10
95.92309062499339
 20
142.4060792254604
 30
0.0
 10
95.80164050693294
 20
142.2623663887954
 30
0.0
 10
95.5720565319755
 20
141.9517960961061
 30
0.0
 10
95.46178155657952
 20
141.7837270230431
 30
0.0
 10
95.37453113744601
 20
141.61165640219
 30
0.0
  0
SPLINE
  5
D7
330
1F
100
AcDbEntity
  8
0
  6
Continuous
 62
     7
370
    15
100
AcDbSpline
210
0.0
220
0.0
230
1.0
 70
     8
 71
     3
 72
     8
 73
     4
 74
     0
 42
0.000000001
 43
0.00000001
 40
0.0
 40
0.0
 40
0.0
 40
0.0
 40
1.0
 40
1.0
 40
1.0
 40
1.0
 10
96.29790401170932
 20
142.5346224702764
 30
0.0
 10
96.21088598186097
 20
142.5350890350635
 30
0.0
 10
96.12793195548103
 20
142.5361290546396
 30
0.0
 10
96.04797889574128
 20
142.5370755035319
 30
0.0
  0
SPLINE
  5
D8
330
1F
100
AcDbEntity
  8
0
  6
Continuous
 62
     7
370
    15
100
AcDbSpline
210
0.0
220
0.0
230
1.0
 70
     8
 71
     3
 72
     8
 73
     4
 74
     0
 42
0.000000001
 43
0.00000001
 40
0.0
 40
0.0
 40
0.0
 40
0.0
 40
1.0
 40
1.0
 40
1.0
 40
1.0
 10
96.04797889574128
 20
78.04050509989176
 30
0.0
 10
96.12793195548156
 20
78.04145154878402
 30
0.0
 10
96.21088598186203
 20
78.04249156836016
 30
0.0
 10
96.29790401171101
 20
78.04295813314722
 30
0.0
  0
SPLINE
  5
D9
330
1F
100
AcDbEntity
  8
0
  6
Continuous
 62
     7
370
    15
100
AcDbSpline
210
0.0
220
0.0
230
1.0
 70
     8
 71
     3
 72
    10
 73
     6
 74
     0
 42
0.000000001
 43
0.00000001
 40
0.0
 40
0.0
 40
0.0
 40
0.0
 40
0.4999999999999989
 40
0.4999999999999989
 40
1.0
 40
1.0
 40
1.0
 40
1.0
 10
95.37453113744508
 20
78.96592420123544
 30
0.0
 10
95.46178155657856
 20
78.79385358038208
 30
0.0
 10
95.57205653197472
 20
78.62578450731864
 30
0.0
 10
95.80164050693254
 20
78.31521421462881
 30
0.0
 10
95.92309062499318
 20
78.17150137796354
 30
0.0
 10
96.0479788957436
 20
78.04050509989183
 30
0.0
  0
SPLINE
  5
DA
330
1F
100
AcDbEntity
  8
0
  6
Continuous
 62
     7
370
    15
100
AcDbSpline
210
0.0
220
0.0
230
1.0
 70
     8
 71
     3
 72
    10
 73
     6
 74
     0
 42
0.000000001
 43
0.00000001
 40
0.0
 40
0.0
 40
0.0
 40
0.0
 40
0.5
 40
0.5
 40
1.0
 40
1.0
 40
1.0
 40
1.0
 10
163.1879788957436
 20
155.1630660618843
 30
0.0
 10
162.9754425818872
 20
155.1630660618843
 30
0.0
 10
162.7655064102332
 20
155.2544786485144
 30
0.0
 10
162.4717992692219
 20
155.5592235144187
 30
0.0
 10
162.3879788957436
 20
155.7713784843273
 30
0.0
 10
162.3879788957436
 20
155.9823415425598
 30
0.0
  0
SPLINE
  5
DB
330
1F
100
AcDbEntity
  8
0
  6
Continuous
 62
     7
370
    15
100
AcDbSpline
210
0.0
220
0.0
230
1.0
 70
     8
 71
     3
 72
    14
 73
    10
 74
     0
 42
0.000000001
 43
0.00000001
 40
0.0
 40
0.0
 40
0.0
 40
0.0
 40
0.25
 40
0.25
 40
0.5
 40
0.5
 40
0.75
 40
0.75
 40
1.0
 40
1.0
 40
1.0
 40
1.0
 10
162.3879788957435
 20
145.0030254942089
 30
0.0
 10
162.3879788957435
 20
144.8791586174197
 30
0.0
 10
162.4038380233712
 20
144.7548989405822
 30
0.0
 10
162.4671996688911
 20
144.5172905781763
 30
0.0
 10
162.5157893769404
 20
144.4005101934239
 30
0.0
 10
162.6480749817153
 20
144.1917076648149
 30
0.0
 10
162.7333997729758
 20
144.0971969612222
 30
0.0
 10
162.940291021282
 20
143.9592401604199
 30
0.0
 10
163.064258967172
 20
143.9173217147843
 30
0.0
 10
163.1879788957436
 20
143.9173217147842
 30
0.0
  0
LINE
  5
DC
330
1F
100
AcDbEntity
  8
0
  6
Continuous
 62
     7
370
    15
100
AcDbLine
 10
172.2479788957
 20
159.2785851574
 30
0.0
 11
167.5600079167
 21
159.2785851574
 31
0.0
  0
LINE
  5
DD
330
1F
100
AcDbEntity
  8
0
  6
Continuous
 62
     7
370
    15
100
AcDbLine
 10
167.5600079167
 20
149.2397530626
 30
0.0
 11
172.2479788957
 21
149.2397530626
 31
0.0
  0
LINE
  5
DE
330
1F
100
AcDbEntity
  8
0
  6
Continuous
 62
     7
370
    15
100
AcDbLine
 10
167.5600079167
 20
149.2397530626
 30
0.0
 11
167.5600079167
 21
159.2785851574
 31
0.0
  0
SPLINE
  5
DF
330
1F
100
AcDbEntity
  8
0
  6
Continuous
 62
     7
370
    15
100
AcDbSpline
210
0.0
220
0.0
230
1.0
 70
     8
 71
     3
 72
     8
 73
     4
 74
     0
 42
0.000000001
 43
0.00000001
 40
0.0
 40
0.0
 40
0.0
 40
0.0
 40
1.0
 40
1.0
 40
1.0
 40
1.0
 10
161.0359498748222
 20
149.2397530625988
 30
0.0
 10
161.4928762286218
 20
148.2238350929245
 30
0.0
 10
161.9440818704248
 20
147.2050392638333
 30
0.0
 10
162.3879788957436
 20
146.1842378078497
 30
0.0
  0
LINE
  5
E0
330
1F
100
AcDbEntity
  8
0
  6
Continuous
 62
     7
370
    15
100
AcDbLine
 10
162.3879788957
 20
146.1842378078
 30
0.0
 11
162.3879788957
 21
145.0030254942
 31
0.0
  0
LINE
  5
E1
330
1F
100
AcDbEntity
  8
0
  6
Continuous
 62
     7
370
    15
100
AcDbLine
 10
163.1879788957
 20
143.9173217148
 30
0.0
 11
165.4079788957
 21
143.9173217148
 31
0.0
  0
SPLINE
  5
E2
330
1F
100
AcDbEntity
  8
0
  6
Continuous
 62
     7
370
    15
100
AcDbSpline
210
0.0
220
0.0
230
1.0
 70
     8
 71
     3
 72
    12
 73
     8
 74
     0
 42
0.000000001
 43
0.00000001
 40
0.0
 40
0.0
 40
0.0
 40
0.0
 40
0.2500000000000039
 40
0.2500000000000039
 40
0.5000000000000078
 40
0.5000000000000078
 40
1.0
 40
1.0
 40
1.0
 40
1.0
 10
165.4079788957436
 20
143.9173217147843
 30
0.0
 10
165.5316798457236
 20
143.9173217147843
 30
0.0
 10
165.6557764579938
 20
143.9593153265168
 30
0.0
 10
165.8624316210808
 20
144.0971106531612
 30
0.0
 10
165.9474723878076
 20
144.1910842516261
 30
0.0
 10
166.1469509562812
 20
144.505872457847
 30
0.0
 10
166.2079788957436
 20
144.7561114500746
 30
0.0
 10
166.2079788957436
 20
145.0030254942089
 30
0.0
  0
LINE
  5
E3
330
1F
100
AcDbEntity
  8
0
  6
Continuous
 62
     7
370
    15
100
AcDbLine
 10
166.2079788957
 20
145.0030254942
 30
0.0
 11
166.2079788957
 21
146.1842378078
 31
0.0
  0
SPLINE
  5
E4
330
1F
100
AcDbEntity
  8
0
  6
Continuous
 62
     7
370
    15
100
AcDbSpline
210
0.0
220
0.0
230
1.0
 70
     8
 71
     3
 72
     8
 73
     4
 74
     0
 42
0.000000001
 43
0.00000001
 40
0.0
 40
0.0
 40
0.0
 40
0.0
 40
1.0
 40
1.0
 40
1.0
 40
1.0
 10
166.2079788957436
 20
146.1842378078497
 30
0.0
 10
166.6521289067691
 20
147.2056210388013
 30
0.0
 10
167.103203217027
 20
148.2241055755696
 30
0.0
 10
167.560007916665
 20
149.2397530625988
 30
0.0
  0
SPLINE
  5
E5
330
1F
100
AcDbEntity
  8
0
  6
Continuous
 62
     7
370
    15
100
AcDbSpline
210
0.0
220
0.0
230
1.0
 70
     8
 71
     3
 72
    16
 73
    12
 74
     0
 42
0.000000001
 43
0.00000001
 40
0.0
 40
0.0
 40
0.0
 40
0.0
 40
0.1249999999999996
 40
0.1249999999999996
 40
0.2499999999999992
 40
0.2499999999999992
 40
0.4999999999999994
 40
0.4999999999999994
 40
0.7499999999999997
 40
0.7499999999999997
 40
1.0
 40
1.0
 40
1.0
 40
1.0
 10
172.2479788957436
 20
149.2397530625988
 30
0.0
 10
172.3236166021547
 20
149.2397530625988
 30
0.0
 10
172.399932266573
 20
149.2284080624638
 30
0.0
 10
172.5443430044649
 20
149.1857555118253
 30
0.0
 10
172.6127894535734
 20
149.1548211871425
 30
0.0
 10
172.8077207061865
 20
149.0355648153749
 30
0.0
 10
172.9155618799674
 20
148.9254128017543
 30
0.0
 10
173.0842746281794
 20
148.6772767160962
 30
0.0
 10
173.146639040903
 20
148.5369343920925
 30
0.0
 10
173.2279429654114
 20
148.2486627006039
 30
0.0
 10
173.2479788957436
 20
148.0978577276241
 30
0.0
 10
173.2479788957436
 20
147.9474878362788
 30
0.0
  0
LINE
  5
E6
330
1F
100
AcDbEntity
  8
0
  6
Continuous
 62
     7
370
    15
100
AcDbLine
 10
173.2479788957
 20
147.9474878363
 30
0.0
 11
173.2479788957
 21
141.6387903017
 31
0.0
  0
SPLINE
  5
E7
330
1F
100
AcDbEntity
  8
0
  6
Continuous
 62
     7
370
    15
100
AcDbSpline
210
0.0
220
0.0
230
1.0
 70
     8
 71
     3
 72
    14
 73
    10
 74
     0
 42
0.000000001
 43
0.00000001
 40
0.0
 40
0.0
 40
0.0
 40
0.0
 40
0.25
 40
0.25
 40
0.5
 40
0.5
 40
0.75
 40
0.75
 40
1.0
 40
1.0
 40
1.0
 40
1.0
 10
166.2079788957436
 20
155.9823415425598
 30
0.0
 10
166.2079788957436
 20
155.8759848488075
 30
0.0
 10
166.1875913396023
 20
155.7701443610474
 30
0.0
 10
166.1089569941408
 20
155.5735794475109
 30
0.0
 10
166.0502256345022
 20
155.4824087052238
 30
0.0
 10
165.9036167288996
 20
155.3304976161922
 30
0.0
 10
165.8142114088731
 20
155.2684287793726
 30
0.0
 10
165.6203206762727
 20
155.1851607316139
 30
0.0
 10
165.5138156863829
 20
155.1630660618842
 30
0.0
 10
165.4079788957436
 20
155.1630660618842
 30
0.0
  0
SPLINE
  5
E8
330
1F
100
AcDbEntity
  8
0
  6
Continuous
 62
     7
370
    15
100
AcDbSpline
210
0.0
220
0.0
230
1.0
 70
     8
 71
     3
 72
    12
 73
     8
 74
     0
 42
0.000000001
 43
0.00000001
 40
0.0
 40
0.0
 40
0.0
 40
0.0
 40
0.4999999999999953
 40
0.4999999999999953
 40
0.7499999999999977
 40
0.7499999999999977
 40
1.0
 40
1.0
 40
1.0
 40
1.0
 10
173.2479788957436
 20
158.2575301225577
 30
0.0
 10
173.2479788957436
 20
158.5227995553241
 30
0.0
 10
173.1433721522571
 20
158.7853146609765
 30
0.0
 10
172.8667038005118
 20
159.0708522670137
 30
0.0
 10
172.7563385411598
 20
159.1471738838752
 30
0.0
 10
172.5122664925441
 20
159.2515160487153
 30
0.0
 10
172.3805140312124
 20
159.2785851573754
 30
0.0
 10
172.2479788957436
 20
159.2785851573754
 30
0.0
  0
LINE
  5
E9
330
1F
100
AcDbEntity
  8
0
  6
Continuous
 62
     7
370
    15
100
AcDbLine
 10
173.2479788957
 20
147.9474878363
 30
0.0
 11
173.2479788957
 21
158.2575301226
 31
0.0
  0
SPLINE
  5
EA
330
1F
100
AcDbEntity
  8
0
  6
Continuous
 62
     7
370
    15
100
AcDbSpline
210
0.0
220
0.0
230
1.0
 70
     8
 71
     3
 72
     8
 73
     4
 74
     0
 42
0.000000001
 43
0.00000001
 40
0.0
 40
0.0
 40
0.0
 40
0.0
 40
1.0
 40
1.0
 40
1.0
 40
1.0
 10
162.3879788957436
 20
156.8860611624167
 30
0.0
 10
161.937670660059
 20
157.6837762875303
 30
0.0
 10
161.4869768435354
 20
158.4812745871875
 30
0.0
 10
161.0359498748222
 20
159.2785851573754
 30
0.0
  0
LINE
  5
EB
330
1F
100
AcDbEntity
  8
0
  6
Continuous
 62
     7
370
    15
100
AcDbLine
 10
162.3879788957
 20
146.1842378078
 30
0.0
 11
162.3879788957
 21
156.8860611624
 31
0.0
  0
SPLINE
  5
EC
330
1F
100
AcDbEntity
  8
0
  6
Continuous
 62
     7
370
    15
100
AcDbSpline
210
0.0
220
0.0
230
1.0
 70
     8
 71
     3
 72
     8
 73
     4
 74
     0
 42
0.000000001
 43
0.00000001
 40
0.0
 40
0.0
 40
0.0
 40
0.0
 40
1.0
 40
1.0
 40
1.0
 40
1.0
 10
167.560007916665
 20
159.2785851573754
 30
0.0
 10
167.1089809479517
 20
158.4812745871875
 30
0.0
 10
166.6582871314281
 20
157.6837762875303
 30
0.0
 10
166.2079788957436
 20
156.8860611624167
 30
0.0
  0
LINE
  5
ED
330
1F
100
AcDbEntity
  8
0
  6
Continuous
 62
     7
370
    15
100
AcDbLine
 10
166.2079788957
 20
146.1842378078
 30
0.0
 11
166.2079788957
 21
156.8860611624
 31
0.0
  0
LINE
  5
EE
330
1F
100
AcDbEntity
  8
0
  6
Continuous
 62
     7
370
    15
100
AcDbLine
 10
165.4079788957
 20
155.1630660619
 30
0.0
 11
163.1879788957
 21
155.1630660619
 31
0.0
  0
LINE
  5
EF
330
1F
100
AcDbEntity
  8
0
  6
Continuous
 62
     7
370
    15
100
AcDbLine
 10
96.0479788957
 20
78.0387903017
 30
0.0
 11
96.0479788957
 21
78.0405050999
 31
0.0
  0
LINE
  5
F0
330
1F
100
AcDbEntity
  8
0
  6
Continuous
 62
     7
370
    15
100
AcDbLine
 10
96.0479788957
 20
142.5387903017
 30
0.0
 11
96.0479788957
 21
142.5370755035
 31
0.0
  0
SPLINE
  5
F1
330
1F
100
AcDbEntity
  8
0
  6
Continuous
 62
     7
370
    15
100
AcDbSpline
210
0.0
220
0.0
230
1.0
 70
    11
 71
     3
 72
    66
 73
    62
 74
     0
 42
0.000000001
 43
0.00000001
 40
0.0
 40
0.0
 40
0.0
 40
0.0
 40
0.0312500000000002
 40
0.0312500000000002
 40
0.0625000000000004
 40
0.0625000000000004
 40
0.0937500000000006
 40
0.0937500000000006
 40
0.1250000000000008
 40
0.1250000000000008
 40
0.156250000000001
 40
0.156250000000001
 40
0.1875000000000012
 40
0.1875000000000012
 40
0.2187500000000014
 40
0.2187500000000014
 40
0.2500000000000016
 40
0.2500000000000016
 40
0.2812500000000018
 40
0.2812500000000018
 40
0.312500000000002
 40
0.312500000000002
 40
0.3437500000000022
 40
0.3437500000000022
 40
0.3750000000000024
 40
0.3750000000000024
 40
0.4062500000000026
 40
0.4062500000000026
 40
0.4375000000000028
 40
0.4375000000000028
 40
0.468750000000003
 40
0.468750000000003
 40
0.5000000000000032
 40
0.5000000000000032
 40
0.5312500000000034
 40
0.5312500000000034
 40
0.5625000000000037
 40
0.5625000000000037
 40
0.6250000000000031
 40
0.6250000000000031
 40
0.6562500000000029
 40
0.6562500000000029
 40
0.6875000000000027
 40
0.6875000000000027
 40
0.7187500000000024
 40
0.7187500000000024
 40
0.7500000000000021
 40
0.7500000000000021
 40
0.7812500000000019
 40
0.7812500000000019
 40
0.8125000000000017
 40
0.8125000000000017
 40
0.8437500000000014
 40
0.8437500000000014
 40
0.8750000000000012
 40
0.8750000000000012
 40
0.906250000000001
 40
0.906250000000001
 40
0.9375000000000007
 40
0.9375000000000007
 40
1.0
 40
1.0
 40
1.0
 40
1.0
 10
190.7313193041283
 20
112.7959074600388
 30
0.0
 10
190.9131042090729
 20
112.9448925631474
 30
0.0
 10
191.1061585113141
 20
113.0742203884444
 30
0.0
 10
191.5130232258782
 20
113.2970974089478
 30
0.0
 10
191.7284640888908
 20
113.3911277700295
 30
0.0
 10
192.1733429653343
 20
113.5401564380056
 30
0.0
 10
192.3998355813699
 20
113.594503684503
 30
0.0
 10
192.8606458465074
 20
113.6645126129302
 30
0.0
 10
193.0972633420859
 20
113.6800158267618
 30
0.0
 10
193.5655987250847
 20
113.6705297185738
 30
0.0
 10
193.7970436969374
 20
113.6460390099729
 30
0.0
 10
194.25453914806
 20
113.5578154982286
 30
0.0
 10
194.4827496569198
 20
113.4930884186696
 30
0.0
 10
194.9185396133909
 20
113.3267499802649
 30
0.0
 10
195.126983821702
 20
113.2254417438345
 30
0.0
 10
195.524603607385
 20
112.9854543799697
 30
0.0
 10
195.7154085164695
 20
112.8449750217551
 30
0.0
 10
196.061063776004
 20
112.5348593592699
 30
0.0
 10
196.2175398939744
 20
112.3647690417334
 30
0.0
 10
196.4957899283084
 20
111.9923240928811
 30
0.0
 10
196.6177350276054
 20
111.7881709936137
 30
0.0
 10
196.8110747961114
 20
111.3658482649665
 30
0.0
 10
196.8845368527593
 20
111.1455295408851
 30
0.0
 10
196.9811471041669
 20
110.684927340228
 30
0.0
 10
197.0026625755342
 20
110.4496646621457
 30
0.0
 10
196.9915783374801
 20
109.9834825266752
 30
0.0
 10
196.9584304662572
 20
109.7473222150782
 30
0.0
 10
196.8407780318186
 20
109.2939114579761
 30
0.0
 10
196.757137587292
 20
109.0761441237848
 30
0.0
 10
196.5418192951116
 20
108.657801918898
 30
0.0
 10
196.4124271583894
 20
108.462198681136
 30
0.0
 10
196.1177974169594
 20
108.1015803922357
 30
0.0
 10
195.9501170739728
 20
107.9342771885751
 30
0.0
 10
195.5901222108566
 20
107.6380709930256
 30
0.0
 10
195.3973484011888
 20
107.5079601882425
 30
0.0
 10
194.9869981230657
 20
107.2822575057931
 30
0.0
 10
194.7707673710495
 20
107.1878769104215
 30
0.0
 10
194.1086541921158
 20
106.9651062588672
 30
0.0
 10
193.6352506391684
 20
106.8933185396593
 30
0.0
 10
192.9363561412935
 20
106.9066610023152
 30
0.0
 10
192.7028654380088
 20
106.9308594658437
 30
0.0
 10
192.2401267575802
 20
107.0199348400975
 30
0.0
 10
192.0159769864465
 20
107.0836755938306
 30
0.0
 10
191.5817758805178
 20
107.2489309628042
 30
0.0
 10
191.3703245770015
 20
107.3512818199455
 30
0.0
 10
190.969002211118
 20
107.5935877519256
 30
0.0
 10
190.7823632453107
 20
107.731229653055
 30
0.0
 10
190.437410366885
 20
108.0402152254112
 30
0.0
 10
190.2774886500742
 20
108.2137557230926
 30
0.0
 10
189.997955305493
 20
108.5885211226425
 30
0.0
 10
189.879205879693
 20
108.7875827995393
 30
0.0
 10
189.6854294227661
 20
109.2102206058657
 30
0.0
 10
189.6101214119423
 20
109.436997375052
 30
0.0
 10
189.514715992003
 20
109.894372432276
 30
0.0
 10
189.493163556396
 20
110.1265194756592
 30
0.0
 10
189.5045720988233
 20
110.5980370783593
 30
0.0
 10
189.537912213464
 20
110.8321369767976
 30
0.0
 10
189.6554590372749
 20
111.2843478877719
 30
0.0
 10
189.7412258371416
 20
111.5067916251352
 30
0.0
 10
190.0629973865459
 20
112.1298989996824
 30
0.0
 10
190.3677494942389
 20
112.4979372538215
 30
0.0
 10
190.7313193041282
 20
112.7959074600388
 30
0.0
  0
LINE
  5
F2
330
1F
100
AcDbEntity
  8
0
  6
Continuous
 62
     7
370
    15
100
AcDbLine
 10
201.2979788957
 20
110.2887903017
 30
0.0
 11
201.2979788957
 21
94.5887903017
 31
0.0
  0
LINE
  5
F3
330
1F
100
AcDbEntity
  8
0
  6
Continuous
 62
     7
370
    15
100
AcDbLine
 10
201.2979788957
 20
125.9887903017
 30
0.0
 11
201.2979788957
 21
110.2887903017
 31
0.0
  0
LINE
  5
F4
330
1F
100
AcDbEntity
  8
0
  6
Continuous
 62
     7
370
    15
100
AcDbLine
 10
200.9979788957
 20
110.2887903017
 30
0.0
 11
200.9979788957
 21
94.2887903017
 31
0.0
  0
LINE
  5
F5
330
1F
100
AcDbEntity
  8
0
  6
Continuous
 62
     7
370
    15
100
AcDbLine
 10
200.9979788957
 20
126.2887903017
 30
0.0
 11
200.9979788957
 21
110.2887903017
 31
0.0
  0
CIRCLE
  5
F6
330
1F
100
AcDbEntity
  8
0
  6
HIDDEN
 62
     7
370
     0
100
AcDbCircle
 10
193.2479788957
 20
110.2887903017
 30
0.0
 40
2.153589838486243
  0
CIRCLE
  5
F7
330
1F
100
AcDbEntity
  8
0
  6
HIDDEN
 62
     7
370
     0
100
AcDbCircle
 10
193.2479788957
 20
110.2887903017
 30
0.0
 40
1.953589838486221
  0
LINE
  5
F8
330
1F
100
AcDbEntity
  8
0
  6
HIDDEN
 62
     7
370
     0
100
AcDbLine
 10
161.0359498748
 20
149.2397530626
 30
0.0
 11
161.0359498748
 21
141.6387903017
 31
0.0
  0
LINE
  5
F9
330
1F
100
AcDbEntity
  8
0
  6
HIDDEN
 62
     7
370
     0
100
AcDbLine
 10
124.7114036452
 20
73.5529839394
 30
0.0
 11
124.435788823
 21
73.528557942
 31
0.0
  0
SPLINE
  5
FA
330
1F
100
AcDbEntity
  8
0
  6
HIDDEN
 62
     7
370
     0
100
AcDbSpline
210
0.0
220
0.0
230
1.0
 70
     8
 71
     3
 72
    13
 73
     9
 74
     0
 42
0.000000001
 43
0.00000001
 40
0.0
 40
0.0
 40
0.0
 40
0.0
 40
0.1247123583496572
 40
0.2490591701008075
 40
0.3740782882418872
 40
0.5009715943216706
 40
0.7521524312994651
 40
1.0
 40
1.0
 40
1.0
 40
1.0
 10
122.8172839135293
 20
147.2200963959622
 30
0.0
 10
122.8230705239792
 20
147.2193201511598
 30
0.0
 10
122.834626783643
 20
147.2177699368197
 30
0.0
 10
122.9316369003978
 20
147.2055536300701
 30
0.0
 10
123.0869324362819
 20
147.1866269186923
 30
0.0
 10
123.3771007149688
 20
147.1526548402759
 30
0.0
 10
123.8646566327346
 20
147.0961335168587
 30
0.0
 10
124.4303533598561
 20
147.0483251240448
 30
0.0
 10
124.7113124332145
 20
147.024580596103
 30
0.0
  0
SPLINE
  5
FB
330
1F
100
AcDbEntity
  8
0
  6
HIDDEN
 62
     7
370
     0
100
AcDbSpline
210
0.0
220
0.0
230
1.0
 70
     8
 71
     3
 72
    23
 73
    19
 74
     0
 42
0.000000001
 43
0.00000001
 40
0.0
 40
0.0
 40
0.0
 40
0.0
 40
0.0633571260677582
 40
0.1285545266630667
 40
0.1919098540958634
 40
0.2571115402721681
 40
0.3202403144568474
 40
0.3852600750475549
 40
0.4473665375787845
 40
0.5112910021130347
 40
0.5731724132338449
 40
0.6367989951504449
 40
0.6995859083620213
 40
0.7641543874110673
 40
0.827580116550687
 40
0.8928778468939024
 40
0.9556888039615773
 40
1.0
 40
1.0
 40
1.0
 40
1.0
 10
134.5511845509346
 20
78.92246808096476
 30
0.0
 10
134.3757791413396
 20
78.95115374839028
 30
0.0
 10
134.0198734870882
 20
79.00935828869657
 30
0.0
 10
133.3151932466904
 20
79.10867130612898
 30
0.0
 10
132.4994264560168
 20
79.20415918974753
 30
0.0
 10
131.5970612488514
 20
79.28491796849859
 30
0.0
 10
130.620560431561
 20
79.3425483926782
 30
0.0
 10
129.6202811274887
 20
79.369340548525
 30
0.0
 10
128.6071354405227
 20
79.3631449219605
 30
0.0
 10
127.6298779546116
 20
79.32549819716223
 30
0.0
 10
126.6927182690206
 20
79.26026174938153
 30
0.0
 10
125.8333964059092
 20
79.17557216447472
 30
0.0
 10
125.0591207909844
 20
79.07902384137778
 30
0.0
 10
124.404392821574
 20
78.98250178759744
 30
0.0
 10
123.8784084805857
 20
78.89518322840163
 30
0.0
 10
123.5172310937795
 20
78.83023073293967
 30
0.0
 10
123.3183696738199
 20
78.79269034037745
 30
0.0
 10
123.3173272215991
 20
78.7924740642154
 30
0.0
 10
123.3168960100954
 20
78.79238460134394
 30
0.0
  0
SPLINE
  5
FC
330
1F
100
AcDbEntity
  8
0
  6
HIDDEN
 62
     7
370
     0
100
AcDbSpline
210
0.0
220
0.0
230
1.0
 70
     8
 71
     3
 72
    32
 73
    28
 74
     0
 42
0.000000001
 43
0.00000001
 40
0.0
 40
0.0
 40
0.0
 40
0.0
 40
0.0203568221721047
 40
0.0512207857583791
 40
0.1139954454389429
 40
0.1459779869097671
 40
0.1769364677636723
 40
0.2398766914470386
 40
0.2719275468465718
 40
0.3033698011481655
 40
0.3673099924152951
 40
0.3998847012176185
 40
0.4314690120325904
 40
0.4957360700021207
 40
0.5285028301030417
 40
0.5596434488300027
 40
0.6230067766607695
 40
0.655307982320555
 40
0.6861132872619365
 40
0.7487562626891764
 40
0.7806634244345368
 40
0.8117607067089879
 40
0.8749825776111486
 40
0.9071778073885578
 40
0.9301738434827024
 40
0.9765719131095673
 40
1.0
 40
1.0
 40
1.0
 40
1.0
 10
123.3031492696889
 20
141.7878059899723
 30
0.0
 10
123.3027922177827
 20
141.7878734688992
 30
0.0
 10
123.3018938221961
 20
141.7880432558938
 30
0.0
 10
123.3644875687488
 20
141.7761490147064
 30
0.0
 10
123.5062987502123
 20
141.7495021377868
 30
0.0
 10
123.7303433420878
 20
141.7091200663742
 30
0.0
 10
124.004885457922
 20
141.6612508246238
 30
0.0
 10
124.3535767469296
 20
141.603780939344
 30
0.0
 10
124.769852709307
 20
141.5412863922894
 30
0.0
 10
125.2314467561698
 20
141.4767607106501
 30
0.0
 10
125.7549847052649
 20
141.4121803336669
 30
0.0
 10
126.3271821797197
 20
141.3534249687821
 30
0.0
 10
126.9293885501717
 20
141.3000521123999
 30
0.0
 10
127.5706150569531
 20
141.2571895505677
 30
0.0
 10
128.2317003749493
 20
141.2291255045466
 30
0.0
 10
128.8984113293959
 20
141.2115368470069
 30
0.0
 10
129.5723005500028
 20
141.2100901987662
 30
0.0
 10
130.2366500339506
 20
141.225015737904
 30
0.0
 10
130.8881843081102
 20
141.2500224631277
 30
0.0
 10
131.5188435207662
 20
141.2891265058095
 30
0.0
 10
132.1163824965887
 20
141.3392276635932
 30
0.0
 10
132.6903804645435
 20
141.3953988300764
 30
0.0
 10
133.2213301779367
 20
141.4583128587652
 30
0.0
 10
133.6647110592009
 20
141.5184163608188
 30
0.0
 10
134.0162317067745
 20
141.569306077804
 30
0.0
 10
134.3058992167514
 20
141.6144285543419
 30
0.0
 10
134.489561981149
 20
141.6448915662293
 30
0.0
 10
134.5511845509346
 20
141.6551125224589
 30
0.0
  0
SPLINE
  5
FD
330
1F
100
AcDbEntity
  8
0
  6
HIDDEN
 62
     7
370
     0
100
AcDbSpline
210
0.0
220
0.0
230
1.0
 70
     8
 71
     3
 72
    11
 73
     7
 74
     0
 42
0.000000001
 43
0.00000001
 40
0.0
 40
0.0
 40
0.0
 40
0.0
 40
0.3257610625574157
 40
0.6610067512391697
 40
0.9868181282086909
 40
1.0
 40
1.0
 40
1.0
 40
1.0
 10
134.5511845509346
 20
141.6551125224589
 30
0.0
 10
134.6970671925712
 20
141.6783782146447
 30
0.0
 10
134.9930798905079
 20
141.7255869862713
 30
0.0
 10
135.2222124243563
 20
141.7556784463891
 30
0.0
 10
135.3234979631872
 20
141.7688565451537
 30
0.0
 10
135.2958166888772
 20
141.765248613505
 30
0.0
 10
135.2947402927829
 20
141.7651083178129
 30
0.0
  0
SPLINE
  5
FE
330
1F
100
AcDbEntity
  8
0
  6
HIDDEN
 62
     7
370
     0
100
AcDbSpline
210
0.0
220
0.0
230
1.0
 70
     8
 71
     3
 72
    10
 73
     6
 74
     0
 42
0.000000001
 43
0.00000001
 40
0.0
 40
0.0
 40
0.0
 40
0.0
 40
0.3221364595349633
 40
0.6559727058624597
 40
1.0
 40
1.0
 40
1.0
 40
1.0
 10
135.2947187096842
 20
78.8124750988391
 30
0.0
 10
135.2801718962467
 20
78.81437112142376
 30
0.0
 10
135.2505499385645
 20
78.81823202890074
 30
0.0
 10
135.0010714107063
 20
78.85075114607993
 30
0.0
 10
134.7026423718627
 20
78.89832403131011
 30
0.0
 10
134.5511845509346
 20
78.92246808096476
 30
0.0
  0
LINE
  5
FF
330
1F
100
AcDbEntity
  8
0
  6
HIDDEN
 62
     7
370
     0
100
AcDbLine
 10
114.2946032228
 20
83.7887903017
 30
0.0
 11
114.2946032228
 21
136.7887903017
 31
0.0
  0
LINE
  5
100
330
1F
100
AcDbEntity
  8
0
  6
HIDDEN
 62
     7
370
     0
100
AcDbLine
 10
153.5820565141
 20
83.7887903017
 30
0.0
 11
153.5820565141
 21
136.7887903017
 31
0.0
  0
LINE
  5
101
330
1F
100
AcDbEntity
  8
0
  6
HIDDEN
 62
     7
370
     0
100
AcDbLine
 10
156.7479788957
 20
85.4137903017
 30
0.0
 11
156.7479788957
 21
135.1637903017
 31
0.0
  0
SPLINE
  5
102
330
1F
100
AcDbEntity
  8
0
  6
HIDDEN
 62
     7
370
     0
100
AcDbSpline
210
0.0
220
0.0
230
1.0
 70
     8
 71
     3
 72
    20
 73
    16
 74
     0
 42
0.000000001
 43
0.00000001
 40
0.0
 40
0.0
 40
0.0
 40
0.0
 40
0.2499999999999978
 40
0.2499999999999978
 40
0.3749999999999982
 40
0.3749999999999982
 40
0.4999999999999986
 40
0.4999999999999986
 40
0.6249999999999989
 40
0.6249999999999989
 40
0.7499999999999992
 40
0.7499999999999992
 40
0.8749999999999997
 40
0.8749999999999997
 40
1.0
 40
1.0
 40
1.0
 40
1.0
 10
104.4979788957436
 20
135.5173039321261
 30
0.0
 10
104.4979788957436
 20
135.4381009455938
 30
0.0
 10
104.4509964005309
 20
135.3570047271909
 30
0.0
 10
104.3131748097533
 20
135.23680803544
 30
0.0
 10
104.2568925258433
 20
135.1978813314379
 30
0.0
 10
104.1238076743761
 20
135.1226925990136
 30
0.0
 10
104.045967732143
 20
135.0860503936716
 30
0.0
 10
103.8733353760287
 20
135.0184598608397
 30
0.0
 10
103.7789423789376
 20
134.9875016790641
 30
0.0
 10
103.5735050726225
 20
134.9319772576944
 30
0.0
 10
103.4611588326353
 20
134.9072687438612
 30
0.0
 10
103.2289179687356
 20
134.867472516753
 30
0.0
 10
103.1082073263129
 20
134.8520526793559
 30
0.0
 10
102.8571364670439
 20
134.8309727045163
 30
0.0
 10
102.7276144706281
 20
134.8254954594954
 30
0.0
 10
102.5979788957436
 20
134.8254954594954
 30
0.0
  0
LINE
  5
103
330
1F
100
AcDbEntity
  8
0
  6
HIDDEN
 62
     7
370
     0
100
AcDbLine
 10
102.5979788957
 20
134.8254954595
 30
0.0
 11
96.0479788957
 21
134.8254954595
 31
0.0
  0
LINE
  5
104
330
1F
100
AcDbEntity
  8
0
  6
HIDDEN
 62
     7
370
     0
100
AcDbLine
 10
96.0479788957
 20
85.7520851439
 30
0.0
 11
107.5979788957
 21
85.7520851439
 31
0.0
  0
SPLINE
  5
105
330
1F
100
AcDbEntity
  8
0
  6
HIDDEN
 62
     7
370
     0
100
AcDbSpline
210
0.0
220
0.0
230
1.0
 70
     8
 71
     3
 72
    18
 73
    14
 74
     0
 42
0.000000001
 43
0.00000001
 40
0.0
 40
0.0
 40
0.0
 40
0.0
 40
0.1249999999999982
 40
0.1249999999999982
 40
0.2499999999999964
 40
0.2499999999999964
 40
0.4999999999999988
 40
0.4999999999999988
 40
0.7500000000000011
 40
0.7500000000000011
 40
0.8750000000000006
 40
0.8750000000000006
 40
1.0
 40
1.0
 40
1.0
 40
1.0
 10
107.5979788957436
 20
85.75208514392833
 30
0.0
 10
107.7274462087008
 20
85.75208514392833
 30
0.0
 10
107.8544569575974
 20
85.74673214533568
 30
0.0
 10
108.1038202787947
 20
85.72599417264689
 30
0.0
 10
108.2274439334231
 20
85.7103222683926
 30
0.0
 10
108.5764762703572
 20
85.65062753999052
 30
0.0
 10
108.786988035164
 20
85.59286236030952
 30
0.0
 10
109.1309047128635
 20
85.45834051903203
 30
0.0
 10
109.2672551143813
 20
85.38067140552663
 30
0.0
 10
109.4042931709438
 20
85.26138027143928
 30
0.0
 10
109.4395121896567
 20
85.22046126230424
 30
0.0
 10
109.4861357665953
 20
85.13980526901422
 30
0.0
 10
109.4979788957436
 20
85.09983674882135
 30
0.0
 10
109.4979788957436
 20
85.06027667129753
 30
0.0
  0
LINE
  5
106
330
1F
100
AcDbEntity
  8
0
  6
HIDDEN
 62
     7
370
     0
100
AcDbLine
 10
96.0479788957
 20
85.7520851439
 30
0.0
 11
96.0479788957
 21
134.8254954595
 31
0.0
  0
LINE
  5
107
330
1F
100
AcDbEntity
  8
0
  6
HIDDEN
 62
     7
370
     0
100
AcDbLine
 10
96.0479788957
 20
82.9187903017
 30
0.0
 11
96.0479788957
 21
78.0405050999
 31
0.0
  0
LINE
  5
108
330
1F
100
AcDbEntity
  8
0
  6
HIDDEN
 62
     7
370
     0
100
AcDbLine
 10
109.4979788957
 20
82.9187903017
 30
0.0
 11
109.4979788957
 21
76.4194570363
 31
0.0
  0
LINE
  5
109
330
1F
100
AcDbEntity
  8
0
  6
HIDDEN
 62
     7
370
     0
100
AcDbLine
 10
104.4979788957
 20
137.6587903017
 30
0.0
 11
104.4979788957
 21
144.0333990387
 31
0.0
  0
LINE
  5
10A
330
1F
100
AcDbEntity
  8
0
  6
HIDDEN
 62
     7
370
     0
100
AcDbLine
 10
96.0479788957
 20
137.6587903017
 30
0.0
 11
96.0479788957
 21
142.5370755035
 31
0.0
  0
CIRCLE
  5
10B
330
1F
100
AcDbEntity
  8
0
  6
HIDDEN
 62
     7
370
     0
100
AcDbCircle
 10
193.2479788957
 20
110.2887903017
 30
0.0
 40
2.624999999999986
  0
LINE
  5
10C
330
1F
100
AcDbEntity
  8
0
  6
HIDDEN
 62
     7
370
     0
100
AcDbLine
 10
172.5979788957
 20
97.2887903017
 30
0.0
 11
172.5979788957
 21
123.2887903017
 31
0.0
  0
LINE
  5
10D
330
1F
100
AcDbEntity
  8
0
  6
HIDDEN
 62
     7
370
     0
100
AcDbLine
 10
168.5979788957
 20
97.2887903017
 30
0.0
 11
168.5979788957
 21
123.2887903017
 31
0.0
  0
LINE
  5
10E
330
1F
100
AcDbEntity
  8
0
  6
HIDDEN
 62
     7
370
     0
100
AcDbLine
 10
157.4979788957
 20
99.0387903017
 30
0.0
 11
157.4979788957
 21
121.5387903017
 31
0.0
  0
ELLIPSE
  5
10F
330
1F
100
AcDbEntity
  8
0
  6
HIDDEN
 62
     7
370
     0
100
AcDbEllipse
 10
88.1133056955
 20
110.2887903017
 30
0.0
 11
31.08108570811662
 21
-1.421085471520200E-14
 31
0.0
210
0.0
220
0.0
230
1.0
 40
0.8164965809
 41
4.915995335118103
 42
4.970536038964788
  0
ELLIPSE
  5
110
330
1F
100
AcDbEntity
  8
0
  6
HIDDEN
 62
     7
370
     0
100
AcDbEllipse
 10
88.1133056955
 20
110.2887903017
 30
0.0
 11
31.08108570811662
 21
1.421085471520200E-14
 31
0.0
210
0.0
220
0.0
230
1.0
 40
0.8164965809
 41
1.312649268214811
 42
1.367189972061496
  0
LINE
  5
111
330
1F
100
AcDbEntity
  8
0
  6
HIDDEN
 62
     7
370
     0
100
AcDbLine
 10
173.2479788957
 20
66.3887903017
 30
0.0
 11
159.2479788957
 21
66.3887903017
 31
0.0
  0
LINE
  5
112
330
1F
100
AcDbEntity
  8
0
  6
HIDDEN
 62
     7
370
     0
100
AcDbLine
 10
149.2479788957
 20
60.2987913019
 30
0.0
 11
149.2479788957
 21
66.3887903017
 31
0.0
  0
LINE
  5
113
330
1F
100
AcDbEntity
  8
0
  6
HIDDEN
 62
     7
370
     0
100
AcDbLine
 10
159.2479788957
 20
66.3887903017
 30
0.0
 11
149.2479788957
 21
66.3887903017
 31
0.0
  0
LINE
  5
114
330
1F
100
AcDbEntity
  8
0
  6
HIDDEN
 62
     7
370
     0
100
AcDbLine
 10
109.4979788957
 20
82.9187903017
 30
0.0
 11
109.4979788957
 21
85.0602766713
 31
0.0
  0
LINE
  5
115
330
1F
100
AcDbEntity
  8
0
  6
HIDDEN
 62
     7
370
     0
100
AcDbLine
 10
96.0479788957
 20
82.9187903017
 30
0.0
 11
96.0479788957
 21
85.7520851439
 31
0.0
  0
LINE
  5
116
330
1F
100
AcDbEntity
  8
0
  6
HIDDEN
 62
     7
370
     0
100
AcDbLine
 10
96.0479788957
 20
137.6587903017
 30
0.0
 11
96.0479788957
 21
134.8254954595
 31
0.0
  0
LINE
  5
117
330
1F
100
AcDbEntity
  8
0
  6
HIDDEN
 62
     7
370
     0
100
AcDbLine
 10
104.4979788957
 20
137.6587903017
 30
0.0
 11
104.4979788957
 21
135.5173039321
 31
0.0
  0
LINE
  5
118
330
1F
100
AcDbEntity
  8
0
  6
HIDDEN
 62
     7
370
     0
100
AcDbLine
 10
159.2479788957
 20
154.1887903017
 30
0.0
 11
149.2479788957
 21
154.1887903017
 31
0.0
  0
LINE
  5
119
330
1F
100
AcDbEntity
  8
0
  6
HIDDEN
 62
     7
370
     0
100
AcDbLine
 10
173.2479788957
 20
154.1887903017
 30
0.0
 11
159.2479788957
 21
154.1887903017
 31
0.0
  0
SPLINE
  5
11A
330
1F
100
AcDbEntity
  8
0
  6
HIDDEN
 62
     7
370
     0
100
AcDbSpline
210
0.0
220
0.0
230
1.0
 70
     8
 71
     3
 72
    16
 73
    12
 74
     0
 42
0.000000001
 43
0.00000001
 40
0.0
 40
0.0
 40
0.0
 40
0.0
 40
0.249999999999999
 40
0.249999999999999
 40
0.499999999999998
 40
0.499999999999998
 40
0.6249999999999976
 40
0.6249999999999976
 40
0.7499999999999972
 40
0.7499999999999972
 40
1.0
 40
1.0
 40
1.0
 40
1.0
 10
201.2979788957436
 20
118.8975535585182
 30
0.0
 10
201.2979788957436
 20
118.8240277479968
 30
0.0
 10
201.2937657457618
 20
118.749080236116
 30
0.0
 10
201.2712175535236
 20
118.5944224815231
 30
0.0
 10
201.2530691784715
 20
118.5134782274067
 30
0.0
 10
201.2032567988636
 20
118.3970052288882
 30
0.0
 10
201.1822902524419
 20
118.3585804488525
 30
0.0
 10
201.131106922281
 20
118.2923594548762
 30
0.0
 10
201.1015370807685
 20
118.2659198165418
 30
0.0
 10
201.010997999426
 20
118.2124630734517
 30
0.0
 10
200.9515385120197
 20
118.2092405485592
 30
0.0
 10
200.8979788957033
 20
118.2169960889033
 30
0.0
  0
SPLINE
  5
11B
330
1F
100
AcDbEntity
  8
0
  6
HIDDEN
 62
     7
370
     0
100
AcDbSpline
210
0.0
220
0.0
230
1.0
 70
     8
 71
     3
 72
    10
 73
     6
 74
     0
 42
0.000000001
 43
0.00000001
 40
0.0
 40
0.0
 40
0.0
 40
0.0
 40
0.5
 40
0.5
 40
1.0
 40
1.0
 40
1.0
 40
1.0
 10
200.8979788957118
 20
118.216996088911
 30
0.0
 10
200.8567828338012
 20
118.1841078446747
 30
0.0
 10
200.811345369454
 20
118.1556323178391
 30
0.0
 10
200.7096724381865
 20
118.1141599979254
 30
0.0
 10
200.6545111501884
 20
118.1021062996912
 30
0.0
 10
200.5979788957437
 20
118.1021062996912
 30
0.0
  0
SPLINE
  5
11C
330
1F
100
AcDbEntity
  8
0
  6
HIDDEN
 62
     7
370
     0
100
AcDbSpline
210
0.0
220
0.0
230
1.0
 70
     8
 71
     3
 72
    10
 73
     6
 74
     0
 42
0.000000001
 43
0.00000001
 40
0.0
 40
0.0
 40
0.0
 40
0.0
 40
0.5
 40
0.5
 40
1.0
 40
1.0
 40
1.0
 40
1.0
 10
200.8979788957762
 20
102.3605845144612
 30
0.0
 10
200.8567828338591
 20
102.3934727587111
 30
0.0
 10
200.8113453695052
 20
102.4219482855583
 30
0.0
 10
200.7096724382147
 20
102.463420605492
 30
0.0
 10
200.6545111502031
 20
102.4754743037325
 30
0.0
 10
200.5979788957437
 20
102.4754743037325
 30
0.0
  0
SPLINE
  5
11D
330
1F
100
AcDbEntity
  8
0
  6
HIDDEN
 62
     7
370
     0
100
AcDbSpline
210
0.0
220
0.0
230
1.0
 70
     8
 71
     3
 72
    16
 73
    12
 74
     0
 42
0.000000001
 43
0.00000001
 40
0.0
 40
0.0
 40
0.0
 40
0.0
 40
0.2499999999999891
 40
0.2499999999999891
 40
0.3749999999999909
 40
0.3749999999999909
 40
0.4999999999999927
 40
0.4999999999999927
 40
0.7499999999999963
 40
0.7499999999999963
 40
1.0
 40
1.0
 40
1.0
 40
1.0
 10
200.8979788957578
 20
102.3605845144691
 30
0.0
 10
200.9512335224006
 20
102.3682960467386
 30
0.0
 10
201.0107703269398
 20
102.3650606054866
 30
0.0
 10
201.1008651409078
 20
102.3121600455167
 30
0.0
 10
201.1305143975102
 20
102.2857662106448
 30
0.0
 10
201.1812982187222
 20
102.2205159426458
 30
0.0
 10
201.2022945530072
 20
102.1825641311608
 30
0.0
 10
201.2531004309548
 20
102.0645647709854
 30
0.0
 10
201.2710911680299
 20
101.9838370721206
 30
0.0
 10
201.2937563146024
 20
101.8287652563176
 30
0.0
 10
201.2979788957436
 20
101.7536727338444
 30
0.0
 10
201.2979788957436
 20
101.6800320876566
 30
0.0
  0
LINE
  5
11E
330
1F
100
AcDbEntity
  8
0
  6
HIDDEN
 62
     7
370
     0
100
AcDbLine
 10
184.1640042995
 20
110.2887903017
 30
0.0
 11
184.1640042995
 21
101.2887903017
 31
0.0
  0
LINE
  5
11F
330
1F
100
AcDbEntity
  8
0
  6
HIDDEN
 62
     7
370
     0
100
AcDbLine
 10
184.1640042995
 20
119.2887903017
 30
0.0
 11
184.1640042995
 21
110.2887903017
 31
0.0
  0
LINE
  5
120
330
1F
100
AcDbEntity
  8
0
  6
HIDDEN
 62
     7
370
     0
100
AcDbLine
 10
192.3979788957
 20
118.1021062997
 30
0.0
 11
200.5979788957
 21
118.1021062997
 31
0.0
  0
LINE
  5
121
330
1F
100
AcDbEntity
  8
0
  6
HIDDEN
 62
     7
370
     0
100
AcDbLine
 10
192.3979788957
 20
102.4754743037
 30
0.0
 11
200.5979788957
 21
102.4754743037
 31
0.0
  0
SPLINE
  5
122
330
1F
100
AcDbEntity
  8
0
  6
HIDDEN
 62
     7
370
     0
100
AcDbSpline
210
0.0
220
0.0
230
1.0
 70
     8
 71
     3
 72
    32
 73
    28
 74
     0
 42
0.000000001
 43
0.00000001
 40
0.0
 40
0.0
 40
0.0
 40
0.0
 40
0.0530956234057913
 40
0.1124767305982511
 40
0.177874325205288
 40
0.2010605433357267
 40
0.2249260903365448
 40
0.2494725534607526
 40
0.2912385899177348
 40
0.326081097695352
 40
0.3539963643963574
 40
0.3749817427695042
 40
0.4414397099464036
 40
0.5001575768909575
 40
0.5546725280398339
 40
0.614417002356837
 40
0.6794426360479852
 40
0.7023382965419808
 40
0.7258293777720272
 40
0.7499171128959013
 40
0.7913818080842675
 40
0.8260489040763046
 40
0.8539146170412687
 40
0.874976094865544
 40
0.9411628631566796
 40
0.999913634241676
 40
1.0
 40
1.0
 40
1.0
 40
1.0
 10
135.2974413516082
 20
73.18888492455808
 30
0.0
 10
135.2812541208246
 20
73.19377957607037
 30
0.0
 10
135.2469634075944
 20
73.20414831014313
 30
0.0
 10
134.9457030590525
 20
73.27983554270965
 30
0.0
 10
134.5362927700774
 20
73.36882895108151
 30
0.0
 10
134.1412759104359
 20
73.4492526637106
 30
0.0
 10
133.8636015978222
 20
73.50403692217755
 30
0.0
 10
133.4819440347545
 20
73.57831204115833
 30
0.0
 10
133.007297624594
 20
73.66361792259943
 30
0.0
 10
132.4691616568618
 20
73.74931350487722
 30
0.0
 10
132.0111115367332
 20
73.81659668745374
 30
0.0
 10
131.3555480514352
 20
73.90494709654385
 30
0.0
 10
130.4722400036405
 20
74.00160448874563
 30
0.0
 10
129.3435827710952
 20
74.08837740927343
 30
0.0
 10
128.2538059323318
 20
74.12646527563963
 30
0.0
 10
127.1578400398336
 20
74.1282773202708
 30
0.0
 10
126.3185159135857
 20
74.10415408328834
 30
0.0
 10
125.7391520204008
 20
74.07523087848303
 30
0.0
 10
125.3917441195272
 20
74.05375102851411
 30
0.0
 10
124.9803061485606
 20
74.02194800331289
 30
0.0
 10
124.5627476443628
 20
73.98434771140406
 30
0.0
 10
124.1915586519511
 20
73.94730309124331
 30
0.0
 10
123.9375071462621
 20
73.91861007742648
 30
0.0
 10
123.6364533594291
 20
73.8822280517732
 30
0.0
 10
123.3809685097856
 20
73.84944914002159
 30
0.0
 10
123.2817481653874
 20
73.83311094134723
 30
0.0
 10
123.298029053439
 20
73.83570458103425
 30
0.0
 10
123.2980529518018
 20
73.83570838818176
 30
0.0
  0
SPLINE
  5
123
330
1F
100
AcDbEntity
  8
0
  6
HIDDEN
 62
     7
370
     0
100
AcDbSpline
210
0.0
220
0.0
230
1.0
 70
     8
 71
     3
 72
    32
 73
    28
 74
     0
 42
0.000000001
 43
0.00000001
 40
0.0
 40
0.0
 40
0.0
 40
0.0
 40
0.0001347403632877
 40
0.0227311934182595
 40
0.0465260133414228
 40
0.0715215151105325
 40
0.0977196796271607
 40
0.1251222111449284
 40
0.1547091024405513
 40
0.1963856454196883
 40
0.2501373738084713
 40
0.3205487274554017
 40
0.3856301802834596
 40
0.445420313065595
 40
0.4999706123613062
 40
0.5225348333699681
 40
0.5463094227807548
 40
0.571298582590891
 40
0.5975059152984443
 40
0.6249345281026827
 40
0.6542078995539056
 40
0.6958841509285995
 40
0.7499488899458779
 40
0.8216047367220791
 40
0.8871528834646394
 40
0.9466451857754355
 40
1.0
 40
1.0
 40
1.0
 40
1.0
 10
123.2980932359063
 20
146.7417978647775
 30
0.0
 10
123.298054963867
 20
146.7418062096818
 30
0.0
 10
123.2915983304907
 20
146.7432140256426
 30
0.0
 10
123.3115564865878
 20
146.7393562502511
 30
0.0
 10
123.3563976272847
 20
146.7327677015974
 30
0.0
 10
123.4447357970016
 20
146.7202000839512
 30
0.0
 10
123.5746324383406
 20
146.703021942124
 30
0.0
 10
123.754637803983
 20
146.68089063778
 30
0.0
 10
124.0192824974786
 20
146.6488432829128
 30
0.0
 10
124.4327410244099
 20
146.6051637692275
 30
0.0
 10
125.1090092200192
 20
146.5421204231222
 30
0.0
 10
126.0474447845225
 20
146.4808239698392
 30
0.0
 10
127.1569450808753
 20
146.4495331596951
 30
0.0
 10
128.2543967808797
 20
146.4511960380188
 30
0.0
 10
129.1177676004594
 20
146.481203312893
 30
0.0
 10
129.7516375867951
 20
146.5215940667489
 30
0.0
 10
130.197045289815
 20
146.5563647658539
 30
0.0
 10
130.6593331903998
 20
146.5988931439899
 30
0.0
 10
131.1347064023665
 20
146.6492636830089
 30
0.0
 10
131.6221976943131
 20
146.7074572899274
 30
0.0
 10
132.1787461312846
 20
146.7842239667723
 30
0.0
 10
132.8453423431964
 20
146.8858550905387
 30
0.0
 10
133.646679890433
 20
147.0280008195991
 30
0.0
 10
134.3991883002944
 20
147.1792429324829
 30
0.0
 10
134.9444745561315
 20
147.2970942955216
 30
0.0
 10
135.2471908451978
 20
147.3733220576534
 30
0.0
 10
135.2814809813158
 20
147.3837742206976
 30
0.0
 10
135.2976935696253
 20
147.3887160679914
 30
0.0
  0
SPLINE
  5
124
330
1F
100
AcDbEntity
  8
0
  6
HIDDEN
 62
     7
370
     0
100
AcDbSpline
210
0.0
220
0.0
230
1.0
 70
     8
 71
     3
 72
    14
 73
    10
 74
     0
 42
0.000000001
 43
0.00000001
 40
0.0
 40
0.0
 40
0.0
 40
0.0
 40
0.25
 40
0.25
 40
0.5
 40
0.5
 40
0.75
 40
0.75
 40
1.0
 40
1.0
 40
1.0
 40
1.0
 10
200.8979788957435
 20
122.0887903017118
 30
0.0
 10
200.8979788957435
 20
122.2730546024494
 30
0.0
 10
200.8981309652599
 20
122.4400154517321
 30
0.0
 10
200.8949025159885
 20
122.7404185814154
 30
0.0
 10
200.8920553154765
 20
122.8731550384461
 30
0.0
 10
200.8844053951184
 20
123.0893139704199
 30
0.0
 10
200.8792778603972
 20
123.1757980031743
 30
0.0
 10
200.8692398396804
 20
123.2954543521825
 30
0.0
 10
200.8643032447654
 20
123.3295935232515
 30
0.0
 10
200.8607003405
 20
123.3371942551731
 30
0.0
  0
SPLINE
  5
125
330
1F
100
AcDbEntity
  8
0
  6
HIDDEN
 62
     7
370
     0
100
AcDbSpline
210
0.0
220
0.0
230
1.0
 70
     8
 71
     3
 72
    18
 73
    14
 74
     0
 42
0.000000001
 43
0.00000001
 40
0.0
 40
0.0
 40
0.0
 40
0.0
 40
0.0114059135966572
 40
0.1126314240276254
 40
0.1949224004740616
 40
0.278041967166107
 40
0.3583170091529974
 40
0.500497737819911
 40
0.6036427928235115
 40
0.6840542308522918
 40
0.8264723029730795
 40
0.92979527718944
 40
1.0
 40
1.0
 40
1.0
 40
1.0
 10
200.8588130051084
 20
123.3377811638556
 30
0.0
 10
200.8586634986277
 20
123.3378617132395
 30
0.0
 10
200.8571871479887
 20
123.3386571244746
 30
0.0
 10
200.855876038816
 20
123.3224047982784
 30
0.0
 10
200.8553880926226
 20
123.2837541296527
 30
0.0
 10
200.8567745689648
 20
123.229348435641
 30
0.0
 10
200.8603096431127
 20
123.1409075948364
 30
0.0
 10
200.8668603047057
 20
123.0165632828047
 30
0.0
 10
200.8750828169158
 20
122.8616652105979
 30
0.0
 10
200.883857169877
 20
122.6854383555594
 30
0.0
 10
200.8921618841997
 20
122.4843087935136
 30
0.0
 10
200.8971539535512
 20
122.2681358778233
 30
0.0
 10
200.8977412709455
 20
122.1404490283868
 30
0.0
 10
200.8979788840503
 20
122.0887903017119
 30
0.0
  0
LINE
  5
126
330
1F
100
AcDbEntity
  8
0
  6
HIDDEN
 62
     7
370
     0
100
AcDbLine
 10
200.8979788841
 20
122.0887903017
 30
0.0
 11
200.8979788957
 21
118.2169960889
 31
0.0
  0
LINE
  5
127
330
1F
100
AcDbEntity
  8
0
  6
HIDDEN
 62
     7
370
     0
100
AcDbLine
 10
200.8979789004
 20
98.4887903017
 30
0.0
 11
200.8979788958
 21
102.3605845144
 31
0.0
  0
SPLINE
  5
128
330
1F
100
AcDbEntity
  8
0
  6
HIDDEN
 62
     7
370
     0
100
AcDbSpline
210
0.0
220
0.0
230
1.0
 70
     8
 71
     3
 72
    18
 73
    14
 74
     0
 42
0.000000001
 43
0.00000001
 40
0.0
 40
0.0
 40
0.0
 40
0.0
 40
0.071627703769515
 40
0.1533481259273776
 40
0.2362613808335859
 40
0.2779201103840029
 40
0.4389393835635614
 40
0.5620406641064976
 40
0.6035452882941502
 40
0.7648361862669023
 40
0.8881447732289713
 40
0.929722624408042
 40
1.0
 40
1.0
 40
1.0
 40
1.0
 10
200.8590879350486
 20
97.24373728310552
 30
0.0
 10
200.8582054229532
 20
97.24402812734432
 30
0.0
 10
200.8563160481886
 20
97.24465079729758
 30
0.0
 10
200.855446708601
 20
97.27399312165872
 30
0.0
 10
200.8557846720889
 20
97.31134780863934
 30
0.0
 10
200.8578232329261
 20
97.37939970842511
 30
0.0
 10
200.8626793969752
 20
97.48502908322965
 30
0.0
 10
200.8704457457982
 20
97.62735323089588
 30
0.0
 10
200.8788003944524
 20
97.78932826829481
 30
0.0
 10
200.8879036716785
 20
97.97532069510878
 30
0.0
 10
200.8946348089522
 20
98.19007368704182
 30
0.0
 10
200.8974049057749
 20
98.35470123077592
 30
0.0
 10
200.8977574198388
 20
98.43705092128964
 30
0.0
 10
200.8979789004435
 20
98.48879030171182
 30
0.0
  0
LINE
  5
129
330
1F
100
AcDbEntity
  8
0
  6
HIDDEN
 62
     7
370
     0
100
AcDbLine
 10
192.3979788957
 20
98.4887903017
 30
0.0
 11
192.3979788957
 21
102.4754743037
 31
0.0
  0
LINE
  5
12A
330
1F
100
AcDbEntity
  8
0
  6
HIDDEN
 62
     7
370
     0
100
AcDbLine
 10
192.3979788957
 20
122.0887903017
 30
0.0
 11
192.3979788957
 21
118.1021062997
 31
0.0
  0
LINE
  5
12B
330
1F
100
AcDbEntity
  8
0
  6
HIDDEN
 62
     7
370
     0
100
AcDbLine
 10
192.3979788957
 20
97.2387903017
 30
0.0
 11
192.3979788957
 21
98.4887903017
 31
0.0
  0
LINE
  5
12C
330
1F
100
AcDbEntity
  8
0
  6
HIDDEN
 62
     7
370
     0
100
AcDbLine
 10
192.3979788957
 20
123.3387903017
 30
0.0
 11
192.3979788957
 21
122.0887903017
 31
0.0
  0
LINE
  5
12D
330
1F
100
AcDbEntity
  8
0
  6
HIDDEN
 62
     7
370
     0
100
AcDbLine
 10
167.5600079167
 20
149.2397530626
 30
0.0
 11
167.5600079167
 21
141.6387903017
 31
0.0
  0
LINE
  5
12E
330
1F
100
AcDbEntity
  8
0
  6
HIDDEN
 62
     7
370
     0
100
AcDbLine
 10
162.3879788957
 20
145.0030254942
 30
0.0
 11
162.3879788957
 21
141.6387903017
 31
0.0
  0
LINE
  5
12F
330
1F
100
AcDbEntity
  8
0
  6
HIDDEN
 62
     7
370
     0
100
AcDbLine
 10
166.2079788957
 20
145.0030254942
 30
0.0
 11
166.2079788957
 21
141.6387903017
 31
0.0
  0
CIRCLE
  5
130
330
1F
100
AcDbEntity
  8
0
  6
HIDDEN
 62
     7
370
     0
100
AcDbCircle
 10
151.2979788957
 20
110.2887903017
 30
0.0
 40
5.0
  0
ARC
  5
131
330
1F
100
AcDbEntity
  8
0
  6
HIDDEN
 62
     7
370
     0
100
AcDbCircle
 10
181.5479788957
 20
119.0387903017
 30
0.0
 40
0.75
100
AcDbArc
 50
0.0
 51
180.0
  0
ARC
  5
132
330
1F
100
AcDbEntity
  8
0
  6
HIDDEN
 62
     7
370
     0
100
AcDbCircle
 10
181.5479788957
 20
119.0387903017
 30
0.0
 40
0.75
100
AcDbArc
 50
180.0
 51
0.0
  0
ARC
  5
133
330
1F
100
AcDbEntity
  8
0
  6
HIDDEN
 62
     7
370
     0
100
AcDbCircle
 10
181.5479788957
 20
101.5387903017
 30
0.0
 40
0.75
100
AcDbArc
 50
180.0
 51
0.0
  0
ARC
  5
134
330
1F
100
AcDbEntity
  8
0
  6
HIDDEN
 62
     7
370
     0
100
AcDbCircle
 10
181.5479788957
 20
101.5387903017
 30
0.0
 40
0.75
100
AcDbArc
 50
0.0
 51
180.0
  0
LINE
  5
135
330
1F
100
AcDbEntity
  8
0
  6
HIDDEN
 62
     7
370
     0
100
AcDbLine
 10
180.7979788957
 20
119.0387903017
 30
0.0
 11
180.7979788957
 21
101.5387903017
 31
0.0
  0
LINE
  5
136
330
1F
100
AcDbEntity
  8
0
  6
HIDDEN
 62
     7
370
     0
100
AcDbLine
 10
182.2979788957
 20
101.5387903017
 30
0.0
 11
182.2979788957
 21
119.0387903017
 31
0.0
  0
LINE
  5
137
330
1F
100
AcDbEntity
  8
0
  6
HIDDEN
 62
     7
370
     0
100
AcDbLine
 10
144.2979788957
 20
70.8841073451
 30
0.0
 11
144.3875805197
 21
71.5216560271
 31
0.0
  0
LINE
  5
138
330
1F
100
AcDbEntity
  8
0
  6
HIDDEN
 62
     7
370
     0
100
AcDbLine
 10
144.3875805197
 20
149.0559245764
 30
0.0
 11
144.2979788957
 21
149.6934732583
 31
0.0
  0
ARC
  5
139
330
1F
100
AcDbEntity
  8
0
  6
HIDDEN
 62
     7
370
     0
100
AcDbCircle
 10
143.4010419773
 20
71.6603049773
 30
0.0
 40
0.9962338214386701
100
AcDbArc
 50
352.0
 51
0.0
  0
ARC
  5
13A
330
1F
100
AcDbEntity
  8
0
  6
HIDDEN
 62
     7
370
     0
100
AcDbCircle
 10
143.4010419773
 20
71.6603049773
 30
0.0
 40
0.9962338214386921
100
AcDbArc
 50
0.0
 51
25.7988228126
  0
ARC
  5
13B
330
1F
100
AcDbEntity
  8
0
  6
HIDDEN
 62
     7
370
     0
100
AcDbCircle
 10
143.4010419773
 20
148.9172756262
 30
0.0
 40
0.9962338214386799
100
AcDbArc
 50
348.75
 51
8.0
  0
LWPOLYLINE
  5
13C
330
1F
100
AcDbEntity
  8
0
  6
HIDDEN
 62
     7
370
     0
100
AcDbPolyline
 90
        3
 70
   128
 43
0.0
 10
144.3781334452
 20
148.7229200491
 10
144.3214420145
 20
148.5360334479
 10
144.2979788957
 20
148.483702113
  0
LINE
  5
13D
330
1F
100
AcDbEntity
  8
0
  6
HIDDEN
 62
     7
370
     0
100
AcDbLine
 10
144.3972757987
 20
71.6603049773
 30
0.0
 11
144.3972757987
 21
148.9172756262
 31
0.0
  0
LINE
  5
13E
330
1F
100
AcDbEntity
  8
0
  6
HIDDEN
 62
     7
370
     0
100
AcDbLine
 10
117.7587048379
 20
78.7887903017
 30
0.0
 11
123.3168960101
 21
78.7887903017
 31
0.0
  0
LINE
  5
13F
330
1F
100
AcDbEntity
  8
0
  6
HIDDEN
 62
     7
370
     0
100
AcDbLine
 10
123.3031492697
 20
141.7887903017
 30
0.0
 11
117.7587048379
 21
141.7887903017
 31
0.0
  0
ARC
  5
140
330
1F
100
AcDbEntity
  8
0
  6
HIDDEN
 62
     7
370
     0
100
AcDbCircle
 10
134.5511845509
 20
90.7887903017
 30
0.0
 40
12.0
100
AcDbArc
 50
273.5583792431
 51
324.3146652873
  0
ARC
  5
141
330
1F
100
AcDbEntity
  8
0
  6
HIDDEN
 62
     7
370
     0
100
AcDbCircle
 10
134.5511845509
 20
129.7887903017
 30
0.0
 40
12.00000000000001
100
AcDbArc
 50
35.6853347127
 51
86.4409243883
  0
ARC
  5
142
330
1F
100
AcDbEntity
  8
0
  6
HIDDEN
 62
     7
370
     0
100
AcDbCircle
 10
117.7587048379
 20
79.7887903017
 30
0.0
 40
1.0
100
AcDbArc
 50
210.0
 51
270.0
  0
ARC
  5
143
330
1F
100
AcDbEntity
  8
0
  6
HIDDEN
 62
     7
370
     0
100
AcDbCircle
 10
117.7587048379
 20
140.7887903017
 30
0.0
 40
1.0
100
AcDbArc
 50
90.0
 51
150.0
  0
LINE
  5
144
330
1F
100
AcDbEntity
  8
0
  6
HIDDEN
 62
     7
370
     0
100
AcDbLine
 10
116.8926794341
 20
141.2887903017
 30
0.0
 11
114.2946032228
 21
136.7887903017
 31
0.0
  0
LINE
  5
145
330
1F
100
AcDbEntity
  8
0
  6
HIDDEN
 62
     7
370
     0
100
AcDbLine
 10
114.2946032228
 20
83.7887903017
 30
0.0
 11
116.8926794341
 21
79.2887903017
 31
0.0
  0
ARC
  5
146
330
1F
100
AcDbEntity
  8
0
  6
HIDDEN
 62
     7
370
     0
100
AcDbCircle
 10
154.7479788957
 20
85.4137903017
 30
0.0
 40
2.000000000000028
100
AcDbArc
 50
234.3409123039
 51
0.0
  0
ARC
  5
147
330
1F
100
AcDbEntity
  8
0
  6
HIDDEN
 62
     7
370
     0
100
AcDbCircle
 10
154.7479788957
 20
135.1637903017
 30
0.0
 40
2.000000000000028
100
AcDbArc
 50
0.0
 51
125.6590876961
  0
LINE
  5
148
330
1F
100
AcDbEntity
  8
0
  6
HIDDEN
 62
     7
370
     0
100
AcDbLine
 10
109.4979788957
 20
83.7887903017
 30
0.0
 11
114.2946032228
 21
83.7887903017
 31
0.0
  0
LINE
  5
149
330
1F
100
AcDbEntity
  8
0
  6
HIDDEN
 62
     7
370
     0
100
AcDbLine
 10
114.2946032228
 20
136.7887903017
 30
0.0
 11
104.4979788957
 21
136.7887903017
 31
0.0
  0
LINE
  5
14A
330
1F
100
AcDbEntity
  8
0
  6
HIDDEN
 62
     7
370
     0
100
AcDbLine
 10
144.2979788957
 20
83.7887903017
 30
0.0
 11
153.5820565141
 21
83.7887903017
 31
0.0
  0
LINE
  5
14B
330
1F
100
AcDbEntity
  8
0
  6
HIDDEN
 62
     7
370
     0
100
AcDbLine
 10
153.5820565141
 20
136.7887903017
 30
0.0
 11
144.2979788957
 21
136.7887903017
 31
0.0
  0
LINE
  5
14C
330
1F
100
AcDbEntity
  8
0
  6
HIDDEN
 62
     7
370
     0
100
AcDbLine
 10
168.5979788957
 20
97.2887903017
 30
0.0
 11
172.5979788957
 21
97.2887903017
 31
0.0
  0
LINE
  5
14D
330
1F
100
AcDbEntity
  8
0
  6
HIDDEN
 62
     7
370
     0
100
AcDbLine
 10
172.5979788957
 20
123.2887903017
 30
0.0
 11
168.5979788957
 21
123.2887903017
 31
0.0
  0
LINE
  5
14E
330
1F
100
AcDbEntity
  8
0
  6
HIDDEN
 62
     7
370
     0
100
AcDbLine
 10
156.7479788957
 20
98.2887903017
 30
0.0
 11
157.4979788957
 21
99.0387903017
 31
0.0
  0
LINE
  5
14F
330
1F
100
AcDbEntity
  8
0
  6
HIDDEN
 62
     7
370
     0
100
AcDbLine
 10
157.4979788957
 20
121.5387903017
 30
0.0
 11
156.7479788957
 21
122.2887903017
 31
0.0
  0
LINE
  5
150
330
1F
100
AcDbEntity
  8
0
  6
HIDDEN
 62
     7
370
     0
100
AcDbLine
 10
157.4979788957
 20
99.0387903017
 30
0.0
 11
168.5979788957
 21
99.0387903017
 31
0.0
  0
LINE
  5
151
330
1F
100
AcDbEntity
  8
0
  6
HIDDEN
 62
     7
370
     0
100
AcDbLine
 10
168.5979788957
 20
121.5387903017
 30
0.0
 11
157.4979788957
 21
121.5387903017
 31
0.0
  0
LINE
  5
152
330
1F
100
AcDbEntity
  8
0
  6
HIDDEN
 62
     7
370
     0
100
AcDbLine
 10
149.2479788957
 20
160.2887903017
 30
0.0
 11
149.2479788957
 21
154.1887903017
 31
0.0
  0
ARC
  5
153
330
1F
100
AcDbEntity
  8
0
  6
HIDDEN
 62
     7
370
     0
100
AcDbCircle
 10
182.1926568977
 20
118.9887903017
 30
0.0
 40
0.8000000000000119
100
AcDbArc
 50
75.0
 51
90.0
  0
ARC
  5
154
330
1F
100
AcDbEntity
  8
0
  6
HIDDEN
 62
     7
370
     0
100
AcDbCircle
 10
182.1926568977
 20
101.5887903017
 30
0.0
 40
0.8000000000000119
100
AcDbArc
 50
270.0
 51
285.0
  0
ARC
  5
155
330
1F
100
AcDbEntity
  8
0
  6
HIDDEN
 62
     7
370
     0
100
AcDbCircle
 10
181.5979788957
 20
118.9887903017
 30
0.0
 40
0.7999999999999972
100
AcDbArc
 50
90.0
 51
180.0
  0
ARC
  5
156
330
1F
100
AcDbEntity
  8
0
  6
HIDDEN
 62
     7
370
     0
100
AcDbCircle
 10
181.5979788957
 20
101.5887903017
 30
0.0
 40
0.7999999999999972
100
AcDbArc
 50
180.0
 51
270.0
  0
LINE
  5
157
330
1F
100
AcDbEntity
  8
0
  6
HIDDEN
 62
     7
370
     0
100
AcDbLine
 10
182.1926568977
 20
119.7887903017
 30
0.0
 11
181.5979788957
 21
119.7887903017
 31
0.0
  0
LINE
  5
158
330
1F
100
AcDbEntity
  8
0
  6
HIDDEN
 62
     7
370
     0
100
AcDbLine
 10
181.5979788957
 20
100.7887903017
 30
0.0
 11
182.1926568977
 21
100.7887903017
 31
0.0
  0
LINE
  5
159
330
1F
100
AcDbEntity
  8
0
  6
HIDDEN
 62
     7
370
     0
100
AcDbLine
 10
182.3997121338
 20
100.8160496407
 30
0.0
 11
184.1640042995
 21
101.2887903017
 31
0.0
  0
LINE
  5
15A
330
1F
100
AcDbEntity
  8
0
  6
HIDDEN
 62
     7
370
     0
100
AcDbLine
 10
184.1640042995
 20
119.2887903017
 30
0.0
 11
182.3997121338
 21
119.7615309627
 31
0.0
  0
LINE
  5
15B
330
1F
100
AcDbEntity
  8
0
  6
HIDDEN
 62
     7
370
     0
100
AcDbLine
 10
192.3979788957
 20
119.2887903017
 30
0.0
 11
184.1640042995
 21
119.2887903017
 31
0.0
  0
LINE
  5
15C
330
1F
100
AcDbEntity
  8
0
  6
HIDDEN
 62
     7
370
     0
100
AcDbLine
 10
184.1640042995
 20
101.2887903017
 30
0.0
 11
192.3979788957
 21
101.2887903017
 31
0.0
  0
LINE
  5
15D
330
1F
100
AcDbEntity
  8
0
  6
HIDDEN
 62
     7
370
     0
100
AcDbLine
 10
135.7306915118
 20
72.7105107311
 30
0.0
 11
135.2979822253
 21
73.1887354485
 31
0.0
  0
LINE
  5
15E
330
1F
100
AcDbEntity
  8
0
  6
HIDDEN
 62
     7
370
     0
100
AcDbLine
 10
123.2979793538
 20
73.8356968052
 30
0.0
 11
122.8173520486
 21
73.3574720943
 31
0.0
  0
LINE
  5
15F
330
1F
100
AcDbEntity
  8
0
  6
HIDDEN
 62
     7
370
     0
100
AcDbLine
 10
122.8172337071
 20
147.220102593
 30
0.0
 11
123.2979791711
 21
146.7418229211
 31
0.0
  0
LINE
  5
160
330
1F
100
AcDbEntity
  8
0
  6
HIDDEN
 62
     7
370
     0
100
AcDbLine
 10
135.2979788979
 20
147.3887953084
 30
0.0
 11
135.7308005676
 21
147.8670749813
 31
0.0
  0
LINE
  5
161
330
1F
100
AcDbEntity
  8
0
  6
HIDDEN
 62
     7
370
     0
100
AcDbLine
 10
135.2979788957
 20
73.0886066061
 30
0.0
 11
135.2979788957
 21
78.812464399
 31
0.0
  0
LINE
  5
162
330
1F
100
AcDbEntity
  8
0
  6
HIDDEN
 62
     7
370
     0
100
AcDbLine
 10
123.2979788957
 20
78.792381125
 30
0.0
 11
123.2979788957
 21
73.8357352196
 31
0.0
  0
LINE
  5
163
330
1F
100
AcDbEntity
  8
0
  6
HIDDEN
 62
     7
370
     0
100
AcDbLine
 10
135.2979788957
 20
141.7651162044
 30
0.0
 11
135.2979788957
 21
147.4887991346
 31
0.0
  0
LINE
  5
164
330
1F
100
AcDbEntity
  8
0
  6
HIDDEN
 62
     7
370
     0
100
AcDbLine
 10
123.2979788957
 20
146.7418124218
 30
0.0
 11
123.2979788957
 21
141.7878061024
 31
0.0
  0
LINE
  5
165
330
1F
100
AcDbEntity
  8
0
  6
HIDDEN
 62
     7
370
     0
100
AcDbLine
 10
201.2979788957
 20
123.7777393485
 30
0.0
 11
200.8515561175
 21
123.3313168164
 31
0.0
  0
LINE
  5
166
330
1F
100
AcDbEntity
  8
0
  6
HIDDEN
 62
     7
370
     0
100
AcDbLine
 10
200.8515558441
 20
97.2462645269
 30
0.0
 11
201.2979788957
 21
96.7998417577
 31
0.0
  0
LINE
  5
167
330
1F
100
AcDbEntity
  8
0
  6
HIDDEN
 62
     7
370
     0
100
AcDbLine
 10
172.5979788957
 20
106.8887903017
 30
0.0
 11
180.7979788957
 21
106.8887903017
 31
0.0
  0
LINE
  5
168
330
1F
100
AcDbEntity
  8
0
  6
HIDDEN
 62
     7
370
     0
100
AcDbLine
 10
180.7979788957
 20
113.6887903017
 30
0.0
 11
172.5979788957
 21
113.6887903017
 31
0.0
  0
LINE
  5
169
330
1F
100
AcDbEntity
  8
0
  6
HIDDEN
 62
     7
370
     0
100
AcDbLine
 10
192.3979788957
 20
97.2387903017
 30
0.0
 11
200.8595600543
 21
97.2387903017
 31
0.0
  0
LINE
  5
16A
330
1F
100
AcDbEntity
  8
0
  6
HIDDEN
 62
     7
370
     0
100
AcDbLine
 10
200.8593614245
 20
123.3387903017
 30
0.0
 11
192.3979788957
 21
123.3387903017
 31
0.0
  0
DIMENSION
  5
16B
330
1F
100
AcDbEntity
  8
VERMASSUNG
100
AcDbDimension
  2
_D
 10
207.665546142
 20
101.2887903017
 30
0.0
 11
207.665546142
 21
110.2887903017
 31
0.0
 70
   160
  1
%%c<>
 71
     2
 42
-1.0
  3
SLDDIMSTYLE0
100
AcDbAlignedDimension
 13
192.3979788957
 23
119.2887903017
 33
0.0
 14
192.3979788957
 24
101.2887903017
 34
0.0
 50
90.0
100
AcDbRotatedDimension
  0
DIMENSION
  5
177
330
1F
100
AcDbEntity
  8
VERMASSUNG
100
AcDbDimension
  2
_D_1
 10
213.765546142
 20
94.2887903017
 30
0.0
 11
213.765546142
 21
110.2887903017
 31
0.0
 70
   160
  1
ST3 %%c<>
 71
     2
 42
-1.0
  3
SLDDIMSTYLE0
100
AcDbAlignedDimension
 13
200.9979788957
 23
126.2887903017
 33
0.0
 14
200.9979788957
 24
94.2887903017
 34
0.0
 50
90.0
100
AcDbRotatedDimension
  0
DIMENSION
  5
183
330
1F
100
AcDbEntity
  8
VERMASSUNG
100
AcDbDimension
  2
_D_2
 10
88.9094926517
 20
60.2887903017
 30
0.0
 11
88.9094926517
 21
110.2887903017
 31
0.0
 70
   160
  1
HSK A 100 %%c<>
 71
     2
 42
-1.0
  3
SLDDIMSTYLE0
100
AcDbAlignedDimension
 13
144.7979788957
 23
160.2887903017
 33
0.0
 14
144.7979788957
 24
60.2887903017
 34
0.0
 50
90.0
100
AcDbRotatedDimension
  0
DIMENSION
  5
18F
330
1F
100
AcDbEntity
  8
VERMASSUNG
100
AcDbDimension
  2
_D_3
 10
201.2979788957
 20
176.8921730175
 30
0.0
 11
147.8479788957
 21
176.8921730175
 31
0.0
 70
   160
  1
(<>)
 71
     2
 42
-1.0
  3
SLDDIMSTYLE0
100
AcDbAlignedDimension
 13
94.3979788957
 23
140.7914600443
 33
0.0
 14
201.2979788957
 24
125.9887903017
 34
0.0
100
AcDbRotatedDimension
  0
DIMENSION
  5
19B
330
1F
100
AcDbEntity
  8
VERMASSUNG
100
AcDbDimension
  2
_D_4
 10
201.2979788957
 20
170.8921730175
 30
0.0
 11
172.7979788957
 21
170.8921730175
 31
0.0
 70
   160
  1
<>
 71
     2
 42
-1.0
  3
SLDDIMSTYLE0
100
AcDbAlignedDimension
 13
144.2979788957
 23
159.7887903017
 33
0.0
 14
201.2979788957
 24
125.9887903017
 34
0.0
100
AcDbRotatedDimension
  0
DIMENSION
  5
1A5
330
1F
100
AcDbEntity
  8
VERMASSUNG
100
AcDbDimension
  2
_D_5
 10
201.2979788957
 20
164.8921730175
 30
0.0
 11
187.2729788957
 21
164.8921730175
 31
0.0
 70
   160
  1
(<>)
 71
     2
 42
-1.0
  3
SLDDIMSTYLE0
100
AcDbAlignedDimension
 13
173.2479788957
 23
158.2575301226
 33
0.0
 14
201.2979788957
 24
125.9887903017
 34
0.0
100
AcDbRotatedDimension
  0
LINE
  5
1B1
330
1F
100
AcDbEntity
  8
VERMASSUNG
  6
CENTERX2
370
     0
100
AcDbLine
 10
93.4071654769
 20
110.2887903017
 30
0.0
 11
202.4568965982
 21
110.2887903017
 31
0.0
  0
LINE
  5
1B2
330
1F
100
AcDbEntity
  8
0
  6
Continuous
 62
     7
370
    15
100
AcDbLine
 10
253.895362535
 20
47.2092056157
 30
0.0
 11
253.7539181994
 21
47.2908862348
 31
0.0
  0
LINE
  5
1B3
330
1F
100
AcDbEntity
  8
0
  6
Continuous
 62
     7
370
    15
100
AcDbLine
 10
251.9151418368
 20
47.2908862348
 30
0.0
 11
251.7736975012
 21
47.2092056157
 31
0.0
  0
LINE
  5
1B4
330
1F
100
AcDbEntity
  8
0
  6
Continuous
 62
     7
370
    15
100
AcDbLine
 10
254.3345300181
 20
46.4541043986
 30
0.0
 11
254.3345300181
 21
46.5969990407
 31
0.0
  0
LINE
  5
1B5
330
1F
100
AcDbEntity
  8
0
  6
Continuous
 62
     7
370
    15
100
AcDbLine
 10
251.3345300181
 20
46.5969990407
 30
0.0
 11
251.3345300181
 21
46.4541043986
 31
0.0
  0
LINE
  5
1B6
330
1F
100
AcDbEntity
  8
0
  6
Continuous
 62
     7
370
    15
100
AcDbLine
 10
223.2058840859
 20
28.4655024029
 30
0.0
 11
228.9468737819
 21
25.1512995962
 31
0.0
  0
LINE
  5
1B7
330
1F
100
AcDbEntity
  8
0
  6
Continuous
 62
     7
370
    15
100
AcDbLine
 10
250.3902462105
 20
70.5057672424
 30
0.0
 11
248.2038524018
 21
71.767945522
 31
0.0
  0
SPLINE
  5
1B8
330
1F
100
AcDbEntity
  8
0
  6
Continuous
 62
     7
370
    15
100
AcDbSpline
210
0.0
220
0.0
230
1.0
 70
     8
 71
     3
 72
    17
 73
    13
 74
     0
 42
0.000000001
 43
0.00000001
 40
0.0
 40
0.0
 40
0.0
 40
0.0
 40
0.033611966036604
 40
0.1521904866267014
 40
0.2707807321809638
 40
0.3893862151296215
 40
0.5080103027445126
 40
0.6266560606189844
 40
0.7453259928040631
 40
0.8640216291534402
 40
0.9764955273529579
 40
1.0
 40
1.0
 40
1.0
 40
1.0
 10
221.0983256221859
 20
53.42097056162429
 30
0.0
 10
221.028035071627
 20
53.26870051803351
 30
0.0
 10
220.7097688600295
 20
52.57924212671205
 30
0.0
 10
220.218873659788
 20
51.33623000327589
 30
0.0
 10
219.6320276999197
 20
49.70197680704467
 30
0.0
 10
219.1329473628371
 20
48.06836235953363
 30
0.0
 10
218.7170724591331
 20
46.44538862109573
 30
0.0
 10
218.3885670645518
 20
44.84086159094593
 30
0.0
 10
218.1484760515063
 20
43.26290988648844
 30
0.0
 10
218.0016836237034
 20
41.74706554041505
 30
0.0
 10
217.9565430369792
 20
40.67237507361654
 30
0.0
 10
217.9543538246576
 20
40.11075255550164
 30
0.0
 10
217.9539754094669
 20
40.01367357865547
 30
0.0
  0
SPLINE
  5
1B9
330
1F
100
AcDbEntity
  8
0
  6
Continuous
 62
     7
370
    15
100
AcDbSpline
210
0.0
220
0.0
230
1.0
 70
     8
 71
     3
 72
    10
 73
     6
 74
     0
 42
0.000000001
 43
0.00000001
 40
0.0
 40
0.0
 40
0.0
 40
0.0
 40
0.155752466094416
 40
0.6475803657123341
 40
1.0
 40
1.0
 40
1.0
 40
1.0
 10
222.7120534888632
 20
56.66082287676704
 30
0.0
 10
222.6188912023872
 20
56.49655961091481
 30
0.0
 10
222.2315453769276
 20
55.81359343746622
 30
0.0
 10
221.6869107181437
 20
54.73123684396359
 30
0.0
 10
221.271664500178
 20
53.80684524450596
 30
0.0
 10
221.0983256221859
 20
53.42097056162429
 30
0.0
  0
SPLINE
  5
1BA
330
1F
100
AcDbEntity
  8
0
  6
Continuous
 62
     7
370
    15
100
AcDbSpline
210
0.0
220
0.0
230
1.0
 70
     8
 71
     3
 72
    19
 73
    15
 74
     0
 42
0.000000001
 43
0.00000001
 40
0.0
 40
0.0
 40
0.0
 40
0.0
 40
0.0502370737215628
 40
0.1421961694124435
 40
0.2342148180332646
 40
0.3262656478869683
 40
0.418328688582262
 40
0.5103874637938481
 40
0.6024353037392769
 40
0.6944689099794594
 40
0.7864872771840076
 40
0.8784908991874475
 40
0.9704812153523111
 40
1.0
 40
1.0
 40
1.0
 40
1.0
 10
240.4028607166504
 20
72.54074809418803
 30
0.0
 10
240.1797061052867
 20
72.48689460464242
 30
0.0
 10
239.5480663903919
 20
72.33446216072015
 30
0.0
 10
238.4848890827275
 20
71.9571889158238
 30
0.0
 10
237.2227127403872
 20
71.42128386004622
 30
0.0
 10
235.9519213353003
 20
70.77024689324236
 30
0.0
 10
234.6805020678798
 20
70.01466179570535
 30
0.0
 10
233.4146463581404
 20
69.15662006419095
 30
0.0
 10
232.1608414277147
 20
68.2012705705229
 30
0.0
 10
230.9257077960734
 20
67.15303416636742
 30
0.0
 10
229.714415977824
 20
66.01896821451689
 30
0.0
 10
228.5371375324737
 20
64.79898490860187
 30
0.0
 10
227.6455385670276
 20
63.8106066743989
 30
0.0
 10
227.163416978868
 20
63.20925283926149
 30
0.0
 10
227.0462928849548
 20
63.06316308764801
 30
0.0
  0
SPLINE
  5
1BB
330
1F
100
AcDbEntity
  8
0
  6
Continuous
 62
     7
370
    15
100
AcDbSpline
210
0.0
220
0.0
230
1.0
 70
     8
 71
     3
 72
    12
 73
     8
 74
     0
 42
0.000000001
 43
0.00000001
 40
0.0
 40
0.0
 40
0.0
 40
0.0
 40
0.1344519922677973
 40
0.389874174466009
 40
0.6453611362046134
 40
0.9008161998524513
 40
1.0
 40
1.0
 40
1.0
 40
1.0
 10
217.9539754094669
 20
40.01367357865547
 30
0.0
 10
217.9565511146706
 20
39.75754726806169
 30
0.0
 10
217.964019958553
 20
39.01485069497645
 30
0.0
 10
218.0450591176327
 20
37.82590585571752
 30
0.0
 10
218.2335743338828
 20
36.4791266805473
 30
0.0
 10
218.4399230775524
 20
35.44776017246335
 30
0.0
 10
218.6136580057841
 20
34.89490671795249
 30
0.0
 10
218.662247408017
 20
34.74028715382395
 30
0.0
  0
LINE
  5
1BC
330
1F
100
AcDbEntity
  8
0
  6
Continuous
 62
     7
370
    15
100
AcDbLine
 10
255.5754881931
 20
32.1143943397
 30
0.0
 11
255.6815369715
 21
32.1756348997
 31
0.0
  0
LINE
  5
1BD
330
1F
100
AcDbEntity
  8
0
  6
Continuous
 62
     7
370
    15
100
AcDbLine
 10
261.2314230447
 20
41.7893612219
 30
0.0
 11
261.2314230447
 21
41.9118224386
 31
0.0
  0
LINE
  5
1BE
330
1F
100
AcDbEntity
  8
0
  6
Continuous
 62
     7
370
    15
100
AcDbLine
 10
259.5742437257
 20
45.5745808904
 30
0.0
 11
251.1773506991
 21
50.4220040543
 31
0.0
  0
LINE
  5
1BF
330
1F
100
AcDbEntity
  8
0
  6
Continuous
 62
     7
370
    15
100
AcDbLine
 10
243.178000838
 20
36.5652222563
 30
0.0
 11
251.5748938646
 21
31.7177990923
 31
0.0
  0
SPLINE
  5
1C0
330
1F
100
AcDbEntity
  8
0
  6
Continuous
 62
     7
370
    15
100
AcDbSpline
210
0.0
220
0.0
230
1.0
 70
     8
 71
     3
 72
    19
 73
    15
 74
     0
 42
0.000000001
 43
0.00000001
 40
0.0
 40
0.0
 40
0.0
 40
0.0
 40
0.015863701464355
 40
0.1083548241684831
 40
0.2009919732513258
 40
0.2936225329115528
 40
0.3861020508021782
 40
0.4783202911816148
 40
0.5701811320284649
 40
0.6616452631026107
 40
0.7528403364271722
 40
0.844114687356802
 40
0.9364527261406076
 40
1.0
 40
1.0
 40
1.0
 40
1.0
 10
252.7907200131892
 20
38.86402502414039
 30
0.0
 10
252.8054213318207
 20
38.90351538713152
 30
0.0
 10
252.9058366604215
 20
39.17324886313452
 30
0.0
 10
253.1436764851884
 20
39.66987837238955
 30
0.0
 10
253.5269198123993
 20
40.3284981219761
 30
0.0
 10
253.9694385829107
 20
40.94056537071039
 30
0.0
 10
254.4535507887093
 20
41.48805799572767
 30
0.0
 10
254.9651914179322
 20
41.95518394363469
 30
0.0
 10
255.4877019446129
 20
42.32921508459373
 30
0.0
 10
256.0038563839053
 20
42.60062368820549
 30
0.0
 10
256.497273066506
 20
42.76573326062226
 30
0.0
 10
256.9499496576561
 20
42.82001822342087
 30
0.0
 10
257.315291128639
 20
42.78904697982613
 30
0.0
 10
257.5031620206834
 20
42.70056851798532
 30
0.0
 10
257.5797483444654
 20
42.66449991761548
 30
0.0
  0
LINE
  5
1C1
330
1F
100
AcDbEntity
  8
0
  6
Continuous
 62
     7
370
    15
100
AcDbLine
 10
236.4074496436
 20
70.9858559373
 30
0.0
 11
227.1364955385
 21
75.6049009724
 31
0.0
  0
LINE
  5
1C2
330
1F
100
AcDbEntity
  8
0
  6
Continuous
 62
     7
370
    15
100
AcDbLine
 10
209.3477727832
 20
44.7905905636
 30
0.0
 11
217.9780831682
 21
39.075957475
 31
0.0
  0
SPLINE
  5
1C3
330
1F
100
AcDbEntity
  8
0
  6
Continuous
 62
     7
370
    15
100
AcDbSpline
210
0.0
220
0.0
230
1.0
 70
     8
 71
     3
 72
    23
 73
    19
 74
     0
 42
0.000000001
 43
0.00000001
 40
0.0
 40
0.0
 40
0.0
 40
0.0
 40
0.0251873264550678
 40
0.0909170550605876
 40
0.1568914779747868
 40
0.2231055134340277
 40
0.2895240294118913
 40
0.3560977031528791
 40
0.422776271392361
 40
0.4895165274346581
 40
0.556285412596244
 40
0.6230568376662192
 40
0.6898158617463258
 40
0.7565558747528849
 40
0.8232742123133999
 40
0.8899708314281515
 40
0.9566473650123357
 40
1.0
 40
1.0
 40
1.0
 40
1.0
 10
235.9219038206362
 20
21.80585192129393
 30
0.0
 10
236.05882131942
 20
21.7788347752528
 30
0.0
 10
236.5530435147727
 20
21.68131273937559
 30
0.0
 10
237.4522322225583
 20
21.63529519666983
 30
0.0
 10
238.6127316603434
 20
21.66698665756003
 30
0.0
 10
239.8116353243481
 20
21.82400944781068
 30
0.0
 10
241.0389800135773
 20
22.09629012287997
 30
0.0
 10
242.2892089369685
 20
22.48514558900424
 30
0.0
 10
243.5552920851205
 20
22.9878269764884
 30
0.0
 10
244.8305049751316
 20
23.60174183483081
 30
0.0
 10
246.1080705677225
 20
24.32340162814871
 30
0.0
 10
247.3813234008231
 20
25.1488315836747
 30
0.0
 10
248.6437799482783
 20
26.07345402105284
 30
0.0
 10
249.8889075739403
 20
27.09256701958511
 30
0.0
 10
251.1110806154701
 20
28.19989097748102
 30
0.0
 10
252.3019399030456
 20
29.39306383541813
 30
0.0
 10
253.3285793880217
 20
30.50638914624396
 30
0.0
 10
253.9379030941516
 20
31.24868287653997
 30
0.0
 10
254.1779829617361
 20
31.54115431444002
 30
0.0
  0
SPLINE
  5
1C4
330
1F
100
AcDbEntity
  8
0
  6
Continuous
 62
     7
370
    15
100
AcDbSpline
210
0.0
220
0.0
230
1.0
 70
     8
 71
     3
 72
    12
 73
     8
 74
     0
 42
0.000000001
 43
0.00000001
 40
0.0
 40
0.0
 40
0.0
 40
0.0
 40
0.1450834373767022
 40
0.3823778226328527
 40
0.6197433154818671
 40
0.8571927053557324
 40
1.0
 40
1.0
 40
1.0
 40
1.0
 10
261.0134612106366
 20
43.36853056719379
 30
0.0
 10
261.1396231833729
 20
43.70143733614959
 30
0.0
 10
261.4721321265455
 20
44.57883704320602
 30
0.0
 10
261.9207599626317
 20
46.00373303230354
 30
0.0
 10
262.3617593416239
 20
47.63144485577526
 30
0.0
 10
262.6755124607684
 20
49.0325771174928
 30
0.0
 10
262.8137392016031
 20
49.87922697541262
 30
0.0
 10
262.8656509436178
 20
50.19719055276223
 30
0.0
  0
LINE
  5
1C5
330
1F
100
AcDbEntity
  8
0
  6
Continuous
 62
     7
370
    15
100
AcDbLine
 10
231.253476623
 20
23.8197261194
 30
0.0
 11
232.9109246577
 21
22.8629017356
 31
0.0
  0
LINE
  5
1C6
330
1F
100
AcDbEntity
  8
0
  6
Continuous
 62
     7
370
    15
100
AcDbLine
 10
252.7356238864
 20
35.2672344403
 30
0.0
 11
252.6715297962
 21
35.3563563627
 31
0.0
  0
SPLINE
  5
1C7
330
1F
100
AcDbEntity
  8
0
  6
Continuous
 62
     7
370
    15
100
AcDbSpline
210
0.0
220
0.0
230
1.0
 70
     8
 71
     3
 72
    10
 73
     6
 74
     0
 42
0.000000001
 43
0.00000001
 40
0.0
 40
0.0
 40
0.0
 40
0.0
 40
0.2164597133461639
 40
0.8970648138316134
 40
1.0
 40
1.0
 40
1.0
 40
1.0
 10
253.2865735816301
 20
34.79114157068196
 30
0.0
 10
253.2465482051859
 20
34.80627120536901
 30
0.0
 10
253.0806727343493
 20
34.86897230902506
 30
0.0
 10
252.9287888707846
 20
34.99519161342379
 30
0.0
 10
252.8312777430015
 20
35.1338285458704
 30
0.0
 10
252.818467519631
 20
35.15204154486264
 30
0.0
  0
SPLINE
  5
1C8
330
1F
100
AcDbEntity
  8
0
  6
Continuous
 62
     7
370
    15
100
AcDbSpline
210
0.0
220
0.0
230
1.0
 70
     8
 71
     3
 72
    15
 73
    11
 74
     0
 42
0.000000001
 43
0.00000001
 40
0.0
 40
0.0
 40
0.0
 40
0.0
 40
0.0791396279909504
 40
0.2289663305554857
 40
0.3786741844783659
 40
0.5280783435304124
 40
0.6770535473921343
 40
0.8254924433002245
 40
0.9733427789649887
 40
0.9999999999999999
 40
0.9999999999999999
 40
0.9999999999999999
 40
0.9999999999999999
 10
262.885068194663
 20
58.35701491592247
 30
0.0
 10
262.8379264092525
 20
58.58537118331388
 30
0.0
 10
262.7015360584852
 20
59.24605026320467
 30
0.0
 10
262.4061589918041
 20
60.2834534625942
 30
0.0
 10
261.9708924138411
 20
61.43759405934141
 30
0.0
 10
261.4470240900552
 20
62.5032873963806
 30
0.0
 10
260.8400613100032
 20
63.4766417782571
 30
0.0
 10
260.150169816997
 20
64.3471334108586
 30
0.0
 10
259.5993535160085
 20
64.91528226349878
 30
0.0
 10
259.2764705330335
 20
65.18592178869697
 30
0.0
 10
259.2271479523477
 20
65.22726382442573
 30
0.0
  0
SPLINE
  5
1C9
330
1F
100
AcDbEntity
  8
0
  6
Continuous
 62
     7
370
    15
100
AcDbSpline
210
0.0
220
0.0
230
1.0
 70
     8
 71
     3
 72
    29
 73
    25
 74
     0
 42
0.000000001
 43
0.00000001
 40
0.0
 40
0.0
 40
0.0
 40
0.0
 40
0.0267617291324102
 40
0.0717125544188313
 40
0.1168578485655722
 40
0.1623919142124546
 40
0.2084160634068025
 40
0.2549306625353285
 40
0.3018574258155465
 40
0.3490792406724733
 40
0.3964782656611557
 40
0.4439591601497056
 40
0.4914476361227844
 40
0.5389048820373612
 40
0.5863165405563794
 40
0.6336794995175756
 40
0.6809974308463356
 40
0.7282778756053886
 40
0.7755304747048257
 40
0.8227659621215629
 40
0.8699956311920134
 40
0.9172305757132353
 40
0.964479166665832
 40
0.9999999999999999
 40
0.9999999999999999
 40
0.9999999999999999
 40
0.9999999999999999
 10
227.0671280553732
 20
75.62184771436125
 30
0.0
 10
226.9035202697565
 20
75.70307426335717
 30
0.0
 10
226.4651056900659
 20
75.92073446335033
 30
0.0
 10
225.6886523106039
 20
76.14705407389259
 30
0.0
 10
224.7533637719974
 20
76.31097248400626
 30
0.0
 10
223.7726906126318
 20
76.35250738444904
 30
0.0
 10
222.7550931304351
 20
76.27721989823739
 30
0.0
 10
221.7059029974166
 20
76.08280735386536
 30
0.0
 10
220.6328857980585
 20
75.77023673101355
 30
0.0
 10
219.5444184802652
 20
75.34131642378125
 30
0.0
 10
218.4493239699074
 20
74.7994986168426
 30
0.0
 10
217.3563422537813
 20
74.14946338919225
 30
0.0
 10
216.2738265832655
 20
73.39684417623808
 30
0.0
 10
215.2096323725086
 20
72.54792568677392
 30
0.0
 10
214.1711149241906
 20
71.60942372256726
 30
0.0
 10
213.1652799392184
 20
70.5884548393905
 30
0.0
 10
212.1988640851122
 20
69.49255004944432
 30
0.0
 10
211.2783690061909
 20
68.32963282750717
 30
0.0
 10
210.4099402027268
 20
67.10800059177274
 30
0.0
 10
209.599731970016
 20
65.83625956781525
 30
0.0
 10
208.8524083770285
 20
64.52339040858132
 30
0.0
 10
208.1765974245418
 20
63.17832087747959
 30
0.0
 10
207.6151515513942
 20
61.92466899762871
 30
0.0
 10
207.3168726009963
 20
61.11873838859469
 30
0.0
 10
207.1888649825372
 20
60.77287000677268
 30
0.0
  0
LINE
  5
1CA
330
1F
100
AcDbEntity
  8
0
  6
Continuous
 62
     7
370
    15
100
AcDbLine
 10
207.5724832981
 20
58.4464124404
 30
0.0
 11
211.3571618866
 21
56.2615639971
 31
0.0
  0
LINE
  5
1CB
330
1F
100
AcDbEntity
  8
0
  6
Continuous
 62
     7
370
    15
100
AcDbLine
 10
207.0670436058
 20
60.2136093792
 30
0.0
 11
207.0670436058
 21
59.5635537682
 31
0.0
  0
LINE
  5
1CC
330
1F
100
AcDbEntity
  8
0
  6
Continuous
 62
     7
370
    15
100
AcDbLine
 10
211.4623670791
 20
44.3352880854
 30
0.0
 11
211.4473168382
 21
44.4450280232
 31
0.0
  0
LINE
  5
1CD
330
1F
100
AcDbEntity
  8
0
  6
Continuous
 62
     7
370
    15
100
AcDbLine
 10
207.0670436058
 20
48.0553166902
 30
0.0
 11
207.0670436058
 21
47.4052610792
 31
0.0
  0
SPLINE
  5
1CE
330
1F
100
AcDbEntity
  8
0
  6
Continuous
 62
     7
370
    15
100
AcDbSpline
210
0.0
220
0.0
230
1.0
 70
     8
 71
     3
 72
    11
 73
     7
 74
     0
 42
0.000000001
 43
0.00000001
 40
0.0
 40
0.0
 40
0.0
 40
0.0
 40
0.2589422558238066
 40
0.5642135545586845
 40
0.8659363116110013
 40
1.0
 40
1.0
 40
1.0
 40
1.0
 10
207.1982526450437
 20
47.07494631578042
 30
0.0
 10
207.3481626561507
 20
46.83709473954737
 30
0.0
 10
207.6748040533283
 20
46.31883601481013
 30
0.0
 10
208.2860437805534
 20
45.64128519388338
 30
0.0
 10
208.8557323369806
 20
45.11732308110825
 30
0.0
 10
209.2367824216164
 20
44.87895807216291
 30
0.0
 10
209.3540072236762
 20
44.8056283653389
 30
0.0
  0
SPLINE
  5
1CF
330
1F
100
AcDbEntity
  8
0
  6
Continuous
 62
     7
370
    15
100
AcDbSpline
210
0.0
220
0.0
230
1.0
 70
     8
 71
     3
 72
     9
 73
     5
 74
     0
 42
0.000000001
 43
0.00000001
 40
0.0
 40
0.0
 40
0.0
 40
0.0
 40
0.0168437786898555
 40
1.0
 40
1.0
 40
1.0
 40
1.0
 10
207.1087710852555
 20
47.20967353067603
 30
0.0
 10
207.1092100200799
 20
47.20885544149733
 30
0.0
 10
207.1352691860482
 20
47.16028622233503
 30
0.0
 10
207.1670283880307
 20
47.11725385522366
 30
0.0
 10
207.1982526450437
 20
47.07494631578042
 30
0.0
  0
LWPOLYLINE
  5
1D0
330
1F
100
AcDbEntity
  8
0
  6
Continuous
 62
     7
370
    15
100
AcDbPolyline
 90
       19
 70
   128
 43
0.0
 10
252.0573869391
 20
47.3619198405
 10
252.4606861012
 20
47.4790804173
 10
252.9090763571
 20
47.5095463366
 10
253.3484752242
 20
47.4496429587
 10
253.7258847145
 20
47.3065955152
 10
253.9957836734
 20
47.097657639
 10
254.1256183032
 20
46.8480303213
 10
254.0997286313
 20
46.587822301
 10
253.9212373344
 20
46.3484185055
 10
253.611673097
 20
46.1586945657
 10
253.2083739349
 20
46.0415339889
 10
252.7599836791
 20
46.0110680696
 10
252.3205848119
 20
46.0709714475
 10
251.9431753217
 20
46.214018891
 10
251.6732763628
 20
46.4229567672
 10
251.543441733
 20
46.6725840848
 10
251.5693314048
 20
46.9327921052
 10
251.7478227018
 20
47.1721959007
 10
252.0573869391
 20
47.3619198405
  0
LWPOLYLINE
  5
1D1
330
1F
100
AcDbEntity
  8
0
  6
Continuous
 62
     7
370
    15
100
AcDbPolyline
 90
       17
 70
   128
 43
0.0
 10
253.895362535
 20
47.2092056157
 10
254.0369952935
 20
47.114654983
 10
254.2552390906
 20
46.8748092567
 10
254.334413985
 20
46.6077695309
 10
254.2667697864
 20
46.3396755144
 10
254.0589279803
 20
46.0967701175
 10
253.7312335707
 20
45.902830613
 10
253.3157635697
 20
45.7768411507
 10
252.8531870758
 20
45.7311344571
 10
252.388784299
 20
45.7701846217
 10
251.9680142189
 20
45.8901691424
 10
251.6320647426
 20
46.0793430984
 10
251.4138209455
 20
46.3191888247
 10
251.3346460512
 20
46.5862285506
 10
251.4022902498
 20
46.8543225671
 10
251.6101320559
 20
47.0972279639
 10
251.7736975012
 20
47.2092056157
  0
LWPOLYLINE
  5
1D2
330
1F
100
AcDbEntity
  8
0
  6
Continuous
 62
     7
370
    15
100
AcDbPolyline
 90
       17
 70
   128
 43
0.0
 10
252.2666177681
 20
47.1999472073
 10
252.601284422
 20
47.2919438948
 10
252.9714606036
 20
47.3030037152
 10
253.3207903448
 20
47.2314429112
 10
253.5960913592
 20
47.0881559666
 10
253.755451563
 20
46.8949570196
 10
253.7746098098
 20
46.6812588587
 10
253.6506494301
 20
46.4795950916
 10
253.4024422681
 20
46.3206671989
 10
253.0677756141
 20
46.2286705114
 10
252.6975994326
 20
46.217610691
 10
252.3482696914
 20
46.2891714949
 10
252.072968677
 20
46.4324584396
 10
251.9136084731
 20
46.6256573866
 10
251.8944502264
 20
46.8393555475
 10
252.0184106061
 20
47.0410193146
 10
252.2666177681
 20
47.1999472073
  0
SPLINE
  5
1D3
330
1F
100
AcDbEntity
  8
0
  6
Continuous
 62
     7
370
    15
100
AcDbSpline
210
0.0
220
0.0
230
1.0
 70
     8
 71
     3
 72
    11
 73
     7
 74
     0
 42
0.000000001
 43
0.00000001
 40
0.0
 40
0.0
 40
0.0
 40
0.0
 40
0.1183358584681204
 40
0.4755396850857849
 40
0.8141708872487053
 40
1.0
 40
1.0
 40
1.0
 40
1.0
 10
252.0390564165215
 20
46.88938833316793
 30
0.0
 10
252.0647688534212
 20
46.88799592055422
 30
0.0
 10
252.1680958103075
 20
46.88240042765457
 30
0.0
 10
252.3633300473358
 20
46.9161049865404
 30
0.0
 10
252.5781128964425
 20
47.04807886545989
 30
0.0
 10
252.6926993018879
 20
47.15158306294305
 30
0.0
 10
252.7333000670015
 20
47.18825713081314
 30
0.0
  0
SPLINE
  5
1D4
330
1F
100
AcDbEntity
  8
0
  6
Continuous
 62
     7
370
    15
100
AcDbSpline
210
0.0
220
0.0
230
1.0
 70
     8
 71
     3
 72
    10
 73
     6
 74
     0
 42
0.000000001
 43
0.00000001
 40
0.0
 40
0.0
 40
0.0
 40
0.0
 40
0.4391165375904208
 40
0.7513669429073272
 40
1.0
 40
1.0
 40
1.0
 40
1.0
 10
252.1402863675982
 20
46.39286972047802
 30
0.0
 10
252.125794519698
 20
46.42200671544208
 30
0.0
 10
252.1009976957988
 20
46.47186267156657
 30
0.0
 10
252.0649511326422
 20
46.68056676425262
 30
0.0
 10
252.0470096605586
 20
46.82525135286488
 30
0.0
 10
252.0390564165215
 20
46.88938833316793
 30
0.0
  0
LINE
  5
1D5
330
1F
100
AcDbEntity
  8
0
  6
Continuous
 62
     7
370
    15
100
AcDbLine
 10
252.263649415
 20
46.318454977
 30
0.0
 11
252.1402863676
 21
46.3928697205
 31
0.0
  0
SPLINE
  5
1D6
330
1F
100
AcDbEntity
  8
0
  6
Continuous
 62
     7
370
    15
100
AcDbSpline
210
0.0
220
0.0
230
1.0
 70
     8
 71
     3
 72
     9
 73
     5
 74
     0
 42
0.000000001
 43
0.00000001
 40
0.0
 40
0.0
 40
0.0
 40
0.0
 40
0.4931769954323175
 40
0.9999999999999999
 40
0.9999999999999999
 40
0.9999999999999999
 40
0.9999999999999999
 10
253.6300036196346
 20
46.4940887030786
 30
0.0
 10
253.5895906020897
 20
46.45619969932906
 30
0.0
 10
253.5076463550563
 20
46.37937331833308
 30
0.0
 10
253.4165843437916
 20
46.33043629945339
 30
0.0
 10
253.3704320216405
 20
46.30563389251019
 30
0.0
  0
SPLINE
  5
1D7
330
1F
100
AcDbEntity
  8
0
  6
Continuous
 62
     7
370
    15
100
AcDbSpline
210
0.0
220
0.0
230
1.0
 70
     8
 71
     3
 72
    10
 73
     6
 74
     0
 42
0.000000001
 43
0.00000001
 40
0.0
 40
0.0
 40
0.0
 40
0.0
 40
0.4391165375904223
 40
0.7513669429073306
 40
1.0
 40
1.0
 40
1.0
 40
1.0
 10
253.528773668558
 20
46.99060731576849
 30
0.0
 10
253.5432655164582
 20
46.87758337638074
 30
0.0
 10
253.5680623403574
 20
46.68418949447614
 30
0.0
 10
253.6041089035139
 20
46.53928698476081
 30
0.0
 10
253.6220503755976
 20
46.50797080020602
 30
0.0
 10
253.6300036196346
 20
46.4940887030786
 30
0.0
  0
SPLINE
  5
1D8
330
1F
100
AcDbEntity
  8
0
  6
Continuous
 62
     7
370
    15
100
AcDbSpline
210
0.0
220
0.0
230
1.0
 70
     8
 71
     3
 72
    10
 73
     6
 74
     0
 42
0.000000001
 43
0.00000001
 40
0.0
 40
0.0
 40
0.0
 40
0.0
 40
0.4391165375903991
 40
0.7513669429073551
 40
0.9999999999999999
 40
0.9999999999999999
 40
0.9999999999999999
 40
0.9999999999999999
 10
252.7333000670015
 20
47.18825713081314
 30
0.0
 10
252.8471782455423
 20
47.11801856385249
 30
0.0
 10
253.0420338056257
 20
46.99783421001101
 30
0.0
 10
253.3252907776277
 20
46.95935467961419
 30
0.0
 10
253.4662763976325
 20
46.98100845239505
 30
0.0
 10
253.528773668558
 20
46.99060731576849
 30
0.0
  0
LINE
  5
1D9
330
1F
100
AcDbEntity
  8
0
  6
Continuous
 62
     7
370
    15
100
AcDbLine
 10
253.5287736686
 20
46.406448039
 30
0.0
 11
253.5287736686
 21
46.9906073158
 31
0.0
  0
LINE
  5
1DA
330
1F
100
AcDbEntity
  8
0
  6
Continuous
 62
     7
370
    15
100
AcDbLine
 10
252.733300067
 20
46.215006322
 30
0.0
 11
252.733300067
 21
47.1882571308
 31
0.0
  0
SPLINE
  5
1DB
330
1F
100
AcDbEntity
  8
0
  6
Continuous
 62
     7
370
    15
100
AcDbSpline
210
0.0
220
0.0
230
1.0
 70
     8
 71
     3
 72
    14
 73
    10
 74
     0
 42
0.000000001
 43
0.00000001
 40
0.0
 40
0.0
 40
0.0
 40
0.0
 40
0.25
 40
0.25
 40
0.5
 40
0.5
 40
0.75
 40
0.75
 40
1.0
 40
1.0
 40
1.0
 40
1.0
 10
228.8815191900784
 20
39.05525747315151
 30
0.0
 10
228.8343460828461
 20
39.02802501800537
 30
0.0
 10
228.7787820181473
 20
39.00628065986443
 30
0.0
 10
228.6568565460283
 20
38.97603523245841
 30
0.0
 10
228.5907600251525
 20
38.96773620234811
 30
0.0
 10
228.4585680960157
 20
38.96630358656834
 30
0.0
 10
228.391632944485
 20
38.97325356074996
 30
0.0
 10
228.2690224528147
 20
39.00146291435937
 30
0.0
 10
228.212086998011
 20
39.02303875866702
 30
0.0
 10
228.1653444546388
 20
39.05002265458742
 30
0.0
  0
SPLINE
  5
1DC
330
1F
100
AcDbEntity
  8
0
  6
Continuous
 62
     7
370
    15
100
AcDbSpline
210
0.0
220
0.0
230
1.0
 70
     8
 71
     3
 72
    12
 73
     8
 74
     0
 42
0.000000001
 43
0.00000001
 40
0.0
 40
0.0
 40
0.0
 40
0.0
 40
0.2500000000000016
 40
0.2500000000000016
 40
0.5000000000000032
 40
0.5000000000000032
 40
1.0
 40
1.0
 40
1.0
 40
1.0
 10
256.4938076107185
 20
66.8152472497417
 30
0.0
 10
256.5475796296665
 20
66.78420532394898
 30
0.0
 10
256.6000679047847
 20
66.73523069469216
 30
0.0
 10
256.6910738317233
 20
66.61849981984265
 30
0.0
 10
256.7296481852526
 20
66.5510483545095
 30
0.0
 10
256.8194717745488
 20
66.34673112750261
 30
0.0
 10
256.8473610013118
 20
66.20636829830521
 30
0.0
 10
256.8473610013118
 20
66.08355157325052
 30
0.0
  0
LINE
  5
1DD
330
1F
100
AcDbEntity
  8
0
  6
Continuous
 62
     7
370
    15
100
AcDbLine
 10
228.1653444546
 20
39.0500226546
 30
0.0
 11
226.50789642
 21
40.0068470384
 31
0.0
  0
LWPOLYLINE
  5
1DE
330
1F
100
AcDbEntity
  8
0
  6
Continuous
 62
     7
370
    15
100
AcDbPolyline
 90
       27
 70
   128
 43
0.0
 10
226.50789642
 20
40.0068470384
 10
226.8631036715
 20
41.7489272335
 10
227.3208799061
 20
43.5136112405
 10
227.878445051
 20
45.2901821422
 10
228.5324130158
 20
47.067850832
 10
229.2788122562
 20
48.8358215369
 10
230.1131098933
 20
50.5833573792
 10
231.0302392416
 20
52.2998455825
 10
232.0246305792
 20
53.9748619221
 10
233.0902449721
 20
55.5982340322
 10
234.2206109496
 20
57.1601031818
 10
235.4088638044
 20
58.6509841472
 10
236.6477872828
 20
60.0618228156
 10
237.9298574087
 20
61.3840511706
 10
239.2472881764
 20
62.609639326
 10
240.5920788352
 20
63.7311442908
 10
241.9560624782
 20
64.741755171
 10
243.3309556392
 20
65.6353345315
 10
244.708408599
 20
66.4064556692
 10
246.0800560923
 20
67.0504355693
 10
247.4375681106
 20
67.5633633451
 10
248.7727004902
 20
67.9421239885
 10
250.0773449786
 20
68.1844172881
 10
251.3435784761
 20
68.2887717979
 10
252.5637111531
 20
68.2545537734
 10
253.7303331496
 20
68.0819710206
 10
254.8363595761
 20
67.7720716336
  0
LINE
  5
1DF
330
1F
100
AcDbEntity
  8
0
  6
Continuous
 62
     7
370
    15
100
AcDbLine
 10
254.8363595761
 20
67.7720716336
 30
0.0
 11
256.4938076107
 21
66.8152472497
 31
0.0
  0
LINE
  5
1E0
330
1F
100
AcDbEntity
  8
0
  6
Continuous
 62
     7
370
    15
100
AcDbLine
 10
261.2844560533
 20
57.3528043538
 30
0.0
 11
262.7229728124
 21
58.1832424025
 31
0.0
  0
LINE
  5
1E1
330
1F
100
AcDbEntity
  8
0
  6
Continuous
 62
     7
370
    15
100
AcDbLine
 10
261.2844560533
 20
49.1873962349
 30
0.0
 11
261.2844560533
 21
57.3528043538
 31
0.0
  0
LINE
  5
1E2
330
1F
100
AcDbEntity
  8
0
  6
Continuous
 62
     7
370
    15
100
AcDbLine
 10
262.7229728124
 20
50.0178342836
 30
0.0
 11
261.2844560533
 21
49.1873962349
 31
0.0
  0
LINE
  5
1E3
330
1F
100
AcDbEntity
  8
0
  6
Continuous
 62
     7
370
    15
100
AcDbLine
 10
228.8815191901
 20
30.0733085424
 30
0.0
 11
230.2424683592
 21
30.8589677745
 31
0.0
  0
LINE
  5
1E4
330
1F
100
AcDbEntity
  8
0
  6
Continuous
 62
     7
370
    15
100
AcDbLine
 10
230.2424683592
 20
30.8589677745
 30
0.0
 11
230.2424683592
 21
39.8409167052
 31
0.0
  0
LINE
  5
1E5
330
1F
100
AcDbEntity
  8
0
  6
Continuous
 62
     7
370
    15
100
AcDbLine
 10
230.2424683592
 20
39.8409167052
 30
0.0
 11
228.8815191901
 21
39.0552574732
 31
0.0
  0
LINE
  5
1E6
330
1F
100
AcDbEntity
  8
0
  6
Continuous
 62
     7
370
    15
100
AcDbLine
 10
256.8473610013
 20
66.0835515733
 30
0.0
 11
256.8473610013
 21
63.5078970698
 31
0.0
  0
LINE
  5
1E7
330
1F
100
AcDbEntity
  8
0
  6
Continuous
 62
     7
370
    15
100
AcDbLine
 10
259.0778224049
 20
64.7955150304
 30
0.0
 11
256.8473610013
 21
63.5078970698
 31
0.0
  0
LWPOLYLINE
  5
1E8
330
1F
100
AcDbEntity
  8
0
  6
Continuous
 62
     7
370
    15
100
AcDbPolyline
 90
       25
 70
   128
 43
0.0
 10
225.529110829
 20
41.5530493676
 10
225.8875189346
 20
43.2413015024
 10
226.3461324147
 20
44.9500820878
 10
226.9020855594
 20
46.6687135717
 10
227.5519044187
 20
48.3864568474
 10
228.2915285094
 20
50.0925783582
 10
229.116336188
 20
51.7764171678
 10
230.0211735294
 20
53.4274515761
 10
231.0003865325
 20
55.0353648661
 10
232.047856449
 20
56.590109769
 10
233.1570380183
 20
58.0819712462
 10
234.3210003657
 20
59.5016271946
 10
235.5324703115
 20
60.8402066974
 10
236.7838778179
 20
62.0893454555
 10
238.0674032918
 20
63.2412380523
 10
239.3750264468
 20
64.2886867274
 10
240.6985764185
 20
65.2251463528
 10
242.0297828216
 20
66.044765331
 10
243.3603274287
 20
66.7424221592
 10
244.6818961476
 20
67.3137574323
 10
245.9862309732
 20
67.7552010825
 10
247.2651815888
 20
68.0639946883
 10
248.5107562945
 20
68.2382087099
 10
249.7151719441
 20
68.2767545471
 10
250.4604131149
 20
68.2301289933
  0
SPLINE
  5
1E9
330
1F
100
AcDbEntity
  8
0
  6
Continuous
 62
     7
370
    15
100
AcDbSpline
210
0.0
220
0.0
230
1.0
 70
     8
 71
     3
 72
     8
 73
     4
 74
     0
 42
0.000000001
 43
0.00000001
 40
0.0
 40
0.0
 40
0.0
 40
0.0
 40
1.0
 40
1.0
 40
1.0
 40
1.0
 10
225.5291108289753
 20
41.55304936759111
 30
0.0
 10
225.0865744751299
 20
41.48136283716186
 30
0.0
 10
224.6439652850783
 20
41.40982667156009
 30
0.0
 10
224.2012935788619
 20
41.33842051525539
 30
0.0
  0
LWPOLYLINE
  5
1EA
330
1F
100
AcDbEntity
  8
0
  6
Continuous
 62
     7
370
    15
100
AcDbPolyline
 90
       27
 70
   128
 43
0.0
 10
224.2012935789
 20
41.3384205153
 10
224.5565008304
 20
43.0805007103
 10
225.014277065
 20
44.8451847174
 10
225.5718422099
 20
46.621755619
 10
226.2258101747
 20
48.3994243089
 10
226.9722094151
 20
50.1673950137
 10
227.8065070522
 20
51.9149308561
 10
228.7236364005
 20
53.6314190593
 10
229.718027738
 20
55.306435399
 10
230.783642131
 20
56.9298075091
 10
231.9140081084
 20
58.4916766586
 10
233.1022609633
 20
59.982557624
 10
234.3411844417
 20
61.3933962924
 10
235.6232545676
 20
62.7156246475
 10
236.9406853353
 20
63.9412128028
 10
238.2854759941
 20
65.0627177677
 10
239.6494596371
 20
66.0733286478
 10
241.0243527981
 20
66.9669080083
 10
242.4018057578
 20
67.738029146
 10
243.7734532511
 20
68.3820090462
 10
245.1309652695
 20
68.8949368219
 10
246.4660976491
 20
69.2736974653
 10
247.7707421374
 20
69.515990765
 10
249.036975635
 20
69.6203452748
 10
250.257108312
 20
69.5861272503
 10
251.4237303085
 20
69.4135444974
 10
252.5297567349
 20
69.1036451104
  0
LINE
  5
1EB
330
1F
100
AcDbEntity
  8
0
  6
Continuous
 62
     7
370
    15
100
AcDbLine
 10
252.5297567349
 20
69.1036451104
 30
0.0
 11
252.8254502818
 21
68.1612720755
 31
0.0
  0
LINE
  5
1EC
330
1F
100
AcDbEntity
  8
0
  6
Continuous
 62
     7
370
    15
100
AcDbLine
 10
248.3620796271
 20
71.5095938927
 30
0.0
 11
252.5297567349
 21
69.1036451104
 31
0.0
  0
LINE
  5
1ED
330
1F
100
AcDbEntity
  8
0
  6
Continuous
 62
     7
370
    15
100
AcDbLine
 10
224.2012935789
 20
41.3384205153
 30
0.0
 11
223.5691503769
 21
41.703349018
 31
0.0
  0
SPLINE
  5
1EE
330
1F
100
AcDbEntity
  8
0
  6
Continuous
 62
     7
370
    15
100
AcDbSpline
210
0.0
220
0.0
230
1.0
 70
     8
 71
     3
 72
    30
 73
    26
 74
     0
 42
0.000000001
 43
0.00000001
 40
0.0
 40
0.0
 40
0.0
 40
0.0
 40
0.1250000000000006
 40
0.1250000000000006
 40
0.187500000000001
 40
0.187500000000001
 40
0.2500000000000013
 40
0.2500000000000013
 40
0.3750000000000014
 40
0.3750000000000014
 40
0.4375000000000014
 40
0.4375000000000014
 40
0.5000000000000013
 40
0.5000000000000013
 40
0.625000000000001
 40
0.625000000000001
 40
0.6875000000000009
 40
0.6875000000000009
 40
0.7500000000000007
 40
0.7500000000000007
 40
0.8125000000000006
 40
0.8125000000000006
 40
0.8750000000000004
 40
0.8750000000000004
 40
1.0
 40
1.0
 40
1.0
 40
1.0
 10
223.5691503769262
 20
41.70334901801123
 30
0.0
 10
223.3348347433196
 20
41.83861655404186
 30
0.0
 10
223.0993342667909
 20
41.94187908297122
 30
0.0
 10
222.7447838194012
 20
42.051121820735
 30
0.0
 10
222.6263895560022
 20
42.07987478273169
 30
0.0
 10
222.389334910952
 20
42.12182794738141
 30
0.0
 10
222.2705149997161
 20
42.1349330822835
 30
0.0
 10
221.9218711157399
 20
42.15018447129782
 30
0.0
 10
221.697106273098
 20
42.12910570985581
 30
0.0
 10
221.3728956254942
 20
42.05210265798012
 30
0.0
 10
221.266479549583
 20
42.0185940529469
 30
0.0
 10
221.0611703196105
 20
41.93705570682328
 30
0.0
 10
220.9625755891028
 20
41.88925010172196
 30
0.0
 10
220.6790775953038
 20
41.72558289216904
 30
0.0
 10
220.5063346216337
 20
41.58967079569246
 30
0.0
 10
220.2742098231376
 20
41.34529965878738
 30
0.0
 10
220.2018958373115
 20
41.25748257357972
 30
0.0
 10
220.0695775232419
 20
41.07210200463945
 30
0.0
 10
220.0092235845212
 20
40.97418100459912
 30
0.0
 10
219.9002604503781
 20
40.76809315389489
 30
0.0
 10
219.8516506252799
 20
40.65992634705063
 30
0.0
 10
219.7666148093853
 20
40.43323663354388
 30
0.0
 10
219.7300639302103
 20
40.3140962058211
 30
0.0
 10
219.6410696531174
 20
39.94611187736697
 30
0.0
 10
219.6087330961372
 20
39.6868867520703
 30
0.0
 10
219.6040471898404
 20
39.41368017064016
 30
0.0
  0
ARC
  5
1EF
330
1F
100
AcDbEntity
  8
0
  6
Continuous
 62
     7
370
    15
100
AcDbCircle
 10
243.1721122658
 20
39.0054097647
 30
0.0
 40
23.57160105185108
100
AcDbArc
 50
179.0075624958
 51
180.9924375042
  0
SPLINE
  5
1F0
330
1F
100
AcDbEntity
  8
0
  6
Continuous
 62
     7
370
    15
100
AcDbSpline
210
0.0
220
0.0
230
1.0
 70
     8
 71
     3
 72
    30
 73
    26
 74
     0
 42
0.000000001
 43
0.00000001
 40
0.0
 40
0.0
 40
0.0
 40
0.0
 40
0.1249999999999998
 40
0.1249999999999998
 40
0.1874999999999997
 40
0.1874999999999997
 40
0.2499999999999996
 40
0.2499999999999996
 40
0.3749999999999996
 40
0.3749999999999996
 40
0.4374999999999998
 40
0.4374999999999998
 40
0.5
 40
0.5
 40
0.6250000000000002
 40
0.6250000000000002
 40
0.6875000000000002
 40
0.6875000000000002
 40
0.7500000000000001
 40
0.7500000000000001
 40
0.8125000000000001
 40
0.8125000000000001
 40
0.8750000000000001
 40
0.8750000000000001
 40
1.0
 40
1.0
 40
1.0
 40
1.0
 10
219.6040471898404
 20
38.5971393587544
 30
0.0
 10
219.6087334364992
 20
38.32932355812268
 30
0.0
 10
219.6410429568179
 20
38.05560739313727
 30
0.0
 10
219.7287010121865
 20
37.63635924594186
 30
0.0
 10
219.7644951835
 20
37.49514882724955
 30
0.0
 10
219.8493557983524
 20
37.20964821225741
 30
0.0
 10
219.8986084462661
 20
37.06506314742638
 30
0.0
 10
220.0628127824355
 20
36.63597087827477
 30
0.0
 10
220.1948652404959
 20
36.35299806279094
 30
0.0
 10
220.4249158080148
 20
35.9319941520538
 30
0.0
 10
220.5073788465087
 20
35.79158908218
 30
0.0
 10
220.6811305817278
 20
35.51492478808576
 30
0.0
 10
220.7719321735615
 20
35.37934023903939
 30
0.0
 10
221.0553266457928
 20
34.98024317227976
 30
0.0
 10
221.2588065204598
 20
34.72431622927257
 30
0.0
 10
221.5847145077086
 20
34.35469024923689
 30
0.0
 10
221.6964551231697
 20
34.23437140205137
 30
0.0
 10
221.9217592273071
 20
34.00353380392057
 30
0.0
 10
222.0358818747862
 20
33.89237120984102
 30
0.0
 10
222.2667916613505
 20
33.67829740066604
 30
0.0
 10
222.3835790773593
 20
33.57538627393157
 30
0.0
 10
222.6196620398291
 20
33.37782810701634
 30
0.0
 10
222.7395394142189
 20
33.28275633441097
 30
0.0
 10
223.0980226693826
 20
33.01395125580839
 30
0.0
 10
223.3348313359459
 20
32.85666959033362
 30
0.0
 10
223.5691503769262
 20
32.72140008726799
 30
0.0
  0
LINE
  5
1F1
330
1F
100
AcDbEntity
  8
0
  6
Continuous
 62
     7
370
    15
100
AcDbLine
 10
223.5691503769
 20
32.7214000873
 30
0.0
 11
224.2012935789
 21
32.3564715845
 31
0.0
  0
LWPOLYLINE
  5
1F2
330
1F
100
AcDbEntity
  8
0
  6
Continuous
 62
     7
370
    15
100
AcDbPolyline
 90
       10
 70
   128
 43
0.0
 10
230.1534800659
 20
24.5778495944
 10
229.4623457602
 20
24.8773114791
 10
228.5160789145
 20
25.4177554302
 10
227.6435028102
 20
26.0800776623
 10
226.8495905237
 20
26.8605033996
 10
226.1388668026
 20
27.7545847585
 10
225.5153822773
 20
28.7572260977
 10
224.9826903759
 20
29.8627130592
 10
224.5438270713
 20
31.0647451369
 10
224.2012935789
 20
32.3564715845
  0
LINE
  5
1F3
330
1F
100
AcDbEntity
  8
0
  6
Continuous
 62
     7
370
    15
100
AcDbLine
 10
254.4817103779
 20
67.9763019337
 30
0.0
 11
254.8341212151
 21
67.7728594877
 31
0.0
  0
SPLINE
  5
1F4
330
1F
100
AcDbEntity
  8
0
  6
Continuous
 62
     7
370
    15
100
AcDbSpline
210
0.0
220
0.0
230
1.0
 70
     8
 71
     3
 72
    22
 73
    18
 74
     0
 42
0.000000001
 43
0.00000001
 40
0.0
 40
0.0
 40
0.0
 40
0.0
 40
0.2500000000000001
 40
0.2500000000000001
 40
0.3750000000000002
 40
0.3750000000000002
 40
0.5000000000000002
 40
0.5000000000000002
 40
0.6250000000000001
 40
0.6250000000000001
 40
0.7500000000000001
 40
0.7500000000000001
 40
0.875
 40
0.875
 40
0.9375
 40
0.9375
 40
1.0
 40
1.0
 40
1.0
 40
1.0
 10
248.3620796270732
 20
71.5095938927223
 30
0.0
 10
248.7941117226123
 20
71.34132345461586
 30
0.0
 10
249.2444863709777
 20
71.13064744973565
 30
0.0
 10
249.9694598126619
 20
70.745553213479
 30
0.0
 10
250.2214271363814
 20
70.60442767520323
 30
0.0
 10
250.7342192495136
 20
70.30541070598603
 30
0.0
 10
250.9957405615726
 20
70.14724486863022
 30
0.0
 10
251.5333152431712
 20
69.81464492729272
 30
0.0
 10
251.8112777878341
 20
69.6389471159267
 30
0.0
 10
252.3638837065794
 20
69.28730419983334
 30
0.0
 10
252.6408796317507
 20
69.10992537071061
 30
0.0
 10
253.1990672116475
 20
68.75561495139804
 30
0.0
 10
253.4692433008073
 20
68.58575711168561
 30
0.0
 10
253.8607106159038
 20
68.34518812671088
 30
0.0
 10
253.9889578460116
 20
68.26732024416249
 30
0.0
 10
254.2408194851931
 20
68.11671394866406
 30
0.0
 10
254.3637117190395
 20
68.04442110945313
 30
0.0
 10
254.4817103778989
 20
67.97630193365103
 30
0.0
  0
ARC
  5
1F5
330
1F
100
AcDbEntity
  8
0
  6
Continuous
 62
     7
370
    15
100
AcDbCircle
 10
243.4258817568
 20
62.8166045789
 30
0.0
 40
10.14669937289261
100
AcDbArc
 50
61.9079713119
 51
106.6670056639
  0
ARC
  5
1F6
330
1F
100
AcDbEntity
  8
0
  6
Continuous
 62
     7
370
    15
100
AcDbCircle
 10
228.6144655013
 20
37.1061032555
 30
0.0
 40
10.19375966066437
100
AcDbArc
 50
193.9714288853
 51
237.955504924
  0
LINE
  5
1F7
330
1F
100
AcDbEntity
  8
0
  6
Continuous
 62
     7
370
    15
100
AcDbLine
 10
225.8502113787
 20
41.7384167693
 30
0.0
 11
225.529110829
 21
41.5530493676
 31
0.0
  0
LINE
  5
1F8
330
1F
100
AcDbEntity
  8
0
  6
Continuous
 62
     7
370
    15
100
AcDbLine
 10
226.8108611622
 20
41.5200028507
 30
0.0
 11
226.4242064837
 21
41.7432138455
 31
0.0
  0
SPLINE
  5
1F9
330
1F
100
AcDbEntity
  8
0
  6
Continuous
 62
     7
370
    15
100
AcDbSpline
210
0.0
220
0.0
230
1.0
 70
     8
 71
     3
 72
    12
 73
     8
 74
     0
 42
0.000000001
 43
0.00000001
 40
0.0
 40
0.0
 40
0.0
 40
0.0
 40
0.25
 40
0.25
 40
0.5
 40
0.5
 40
1.0
 40
1.0
 40
1.0
 40
1.0
 10
226.4242064836675
 20
41.743213845457
 30
0.0
 10
226.3868144460846
 20
41.76479980928343
 30
0.0
 10
226.3406661352297
 20
41.78223994430589
 30
0.0
 10
226.2419662978471
 20
41.80469607262022
 30
0.0
 10
226.1884547315516
 20
41.81008237822083
 30
0.0
 10
226.0298573118503
 20
41.80800121941071
 30
0.0
 10
225.9251432172325
 20
41.78167399891992
 30
0.0
 10
225.8502113787057
 20
41.73841676929443
 30
0.0
  0
ARC
  5
1FA
330
1F
100
AcDbEntity
  8
0
  6
Continuous
 62
     7
370
    15
100
AcDbCircle
 10
259.5769696623
 20
36.3582114445
 30
0.0
 40
42.04789344609386
100
AcDbArc
 50
140.8317587356
 51
151.048565567
  0
LWPOLYLINE
  5
1FB
330
1F
100
AcDbEntity
  8
0
  6
Continuous
 62
     7
370
    15
100
AcDbPolyline
 90
       47
 70
   128
 43
0.0
 10
255.6806348124
 20
44.9948047563
 10
254.9248025789
 20
44.4987704498
 10
254.1830500699
 20
43.8925730325
 10
253.4691947311
 20
43.1875048153
 10
252.7965343368
 20
42.3966998851
 10
252.1775992774
 20
41.5348894414
 10
251.6239191421
 20
40.6181273822
 10
251.1458079441
 20
39.6634912501
 10
250.7521719904
 20
38.6887641099
 10
250.4503439741
 20
37.7121032841
 10
250.24594638
 20
36.7517021159
 10
250.1427867486
 20
35.8254510619
 10
250.1427867486
 20
34.9506044268
 10
250.24594638
 20
34.143458948
 10
250.4503439741
 20
33.4190502187
 10
250.7521719904
 20
32.7908726029
 10
251.1458079441
 20
32.2706278609
 10
251.6239191421
 20
31.868007168
 10
252.1775992774
 20
31.5905105859
 10
252.7965343368
 20
31.4433073509
 10
253.4691947311
 20
31.4291395807
 10
254.1830500699
 20
31.5482711942
 10
254.9248025789
 20
31.7984829946
 10
255.6806348124
 20
32.1751140097
 10
256.4364670458
 20
32.6711483161
 10
257.1782195548
 20
33.2773457334
 10
257.8920748936
 20
33.9824139506
 10
258.5647352879
 20
34.7732188808
 10
259.1836703473
 20
35.6350293245
 10
259.7373504826
 20
36.5517913837
 10
260.2154616806
 20
37.5064275159
 10
260.6090976343
 20
38.481154656
 10
260.9109256506
 20
39.4578154818
 10
261.1153232447
 20
40.41821665
 10
261.2184828761
 20
41.344467704
 10
261.2184828761
 20
42.2193143391
 10
261.1153232447
 20
43.0264598179
 10
260.9109256506
 20
43.7508685472
 10
260.6090976343
 20
44.3790461631
 10
260.2154616806
 20
44.899290905
 10
259.7373504826
 20
45.3019115979
 10
259.1836703473
 20
45.57940818
 10
258.5647352879
 20
45.726611415
 10
257.8920748936
 20
45.7407791852
 10
257.1782195548
 20
45.6216475718
 10
256.4364670458
 20
45.3714357713
 10
255.6806348124
 20
44.9948047563
  0
LWPOLYLINE
  5
1FC
330
1F
100
AcDbEntity
  8
0
  6
Continuous
 62
     7
370
    15
100
AcDbPolyline
 90
       25
 70
   128
 43
0.0
 10
255.5745687952
 20
45.1785164864
 10
254.8205839153
 20
44.6849655196
 10
254.0800539134
 20
44.0836524605
 10
253.366193565
 20
43.3853077547
 10
252.6917417249
 20
42.6023933802
 10
252.0687340022
 20
41.7488804625
 10
251.5082879844
 20
40.8399999599
 10
251.020404844
 20
39.8919708664
 10
250.6137908672
 20
38.9217107836
 10
250.2957020901
 20
37.9465340258
 10
250.0718148143
 20
36.9838426453
 10
249.9461243137
 20
36.0508158925
 10
249.9208735383
 20
35.164103652
 10
249.9965130886
 20
34.3395293248
 10
250.1716931752
 20
33.5918074591
 10
250.4432877051
 20
32.9342811695
 10
250.8064500677
 20
32.3786840281
 10
251.254699622
 20
31.9349306792
 10
251.780037344
 20
31.6109399116
 10
252.3730885696
 20
31.4124933484
 10
253.0232702857
 20
31.3431322731
 10
253.7189799842
 20
31.4040944359
 10
254.4478027089
 20
31.5942919654
 10
255.1967326011
 20
31.9103307822
 10
255.5754881931
 20
32.1143943397
  0
LWPOLYLINE
  5
1FD
330
1F
100
AcDbEntity
  8
0
  6
Continuous
 62
     7
370
    15
100
AcDbPolyline
 90
       13
 70
   128
 43
0.0
 10
261.2314230447
 20
41.9118224386
 10
261.2030132766
 20
42.5492795671
 10
261.077322776
 20
43.3371871568
 10
260.8534355003
 20
44.041383791
 10
260.5353467231
 20
44.649303064
 10
260.1287327463
 20
45.150096642
 10
259.640849606
 20
45.5348278518
 10
259.0804035882
 20
45.7966311557
 10
258.4573958654
 20
45.9308346677
 10
257.7829440253
 20
45.9350435228
 10
257.0690836769
 20
45.809182614
 10
256.3285536751
 20
45.5554979322
 10
255.5745687952
 20
45.1785164864
  0
SPLINE
  5
1FE
330
1F
100
AcDbEntity
  8
0
  6
Continuous
 62
     7
370
    15
100
AcDbSpline
210
0.0
220
0.0
230
1.0
 70
    11
 71
     3
 72
    66
 73
    62
 74
     0
 42
0.000000001
 43
0.00000001
 40
0.0
 40
0.0
 40
0.0
 40
0.0
 40
0.0312500000000002
 40
0.0312500000000002
 40
0.0625000000000004
 40
0.0625000000000004
 40
0.0937500000000006
 40
0.0937500000000006
 40
0.1250000000000008
 40
0.1250000000000008
 40
0.156250000000001
 40
0.156250000000001
 40
0.1875000000000012
 40
0.1875000000000012
 40
0.2187500000000014
 40
0.2187500000000014
 40
0.2500000000000016
 40
0.2500000000000016
 40
0.2812500000000018
 40
0.2812500000000018
 40
0.312500000000002
 40
0.312500000000002
 40
0.3437500000000022
 40
0.3437500000000022
 40
0.3750000000000024
 40
0.3750000000000024
 40
0.4062500000000026
 40
0.4062500000000026
 40
0.4375000000000028
 40
0.4375000000000028
 40
0.468750000000003
 40
0.468750000000003
 40
0.5000000000000032
 40
0.5000000000000032
 40
0.5312500000000034
 40
0.5312500000000034
 40
0.5625000000000037
 40
0.5625000000000037
 40
0.6250000000000031
 40
0.6250000000000031
 40
0.6562500000000029
 40
0.6562500000000029
 40
0.6875000000000027
 40
0.6875000000000027
 40
0.7187500000000024
 40
0.7187500000000024
 40
0.7500000000000021
 40
0.7500000000000021
 40
0.7812500000000019
 40
0.7812500000000019
 40
0.8125000000000017
 40
0.8125000000000017
 40
0.8437500000000014
 40
0.8437500000000014
 40
0.8750000000000012
 40
0.8750000000000012
 40
0.906250000000001
 40
0.906250000000001
 40
0.9375000000000007
 40
0.9375000000000007
 40
1.0
 40
1.0
 40
1.0
 40
1.0
 10
252.8311562584345
 20
47.70497693537836
 30
0.0
 10
252.9481011162882
 20
47.68863206723854
 30
0.0
 10
253.0620804105461
 20
47.66638579396109
 30
0.0
 10
253.2847277361773
 20
47.61208180805558
 30
0.0
 10
253.3941423367469
 20
47.57974177636458
 30
0.0
 10
253.6041203627753
 20
47.50703196362549
 30
0.0
 10
253.7034122483876
 20
47.46719296863171
 30
0.0
 10
253.8910851740644
 20
47.3813272285885
 30
0.0
 10
253.9802233057151
 20
47.33481148863078
 30
0.0
 10
254.1424510225957
 20
47.23812587364721
 30
0.0
 10
254.2156204040662
 20
47.18806909793435
 30
0.0
 10
254.3461777502843
 20
47.08431049122111
 30
0.0
 10
254.4039778710194
 20
47.03004712664035
 30
0.0
 10
254.4992433688323
 20
46.92065842746085
 30
0.0
 10
254.5371216549453
 20
46.86539740030657
 30
0.0
 10
254.5928531321465
 20
46.75278259595395
 30
0.0
 10
254.61064590129
 20
46.69483660993144
 30
0.0
 10
254.6232110463271
 20
46.58021064962126
 30
0.0
 10
254.6183976999103
 20
46.52315945002761
 30
0.0
 10
254.5850947685057
 20
46.408437442091
 30
0.0
 10
254.5560298513823
 20
46.35038882485293
 30
0.0
 10
254.4750721494363
 20
46.23865840062432
 30
0.0
 10
254.423150476734
 20
46.18424778120366
 30
0.0
 10
254.2944598889281
 20
46.07788785477993
 30
0.0
 10
254.2188888392642
 20
46.02716642617647
 30
0.0
 10
254.0501496946884
 20
45.9334209581346
 30
0.0
 10
253.9549348735379
 20
45.88939766949778
 30
0.0
 10
253.7530335459257
 20
45.81197096595061
 30
0.0
 10
253.6464698038088
 20
45.77835305194652
 30
0.0
 10
253.4224369865857
 20
45.72167756564632
 30
0.0
 10
253.3075337700096
 20
45.69934265420902
 30
0.0
 10
253.0758686072068
 20
45.66726002660301
 30
0.0
 10
252.9574340384967
 20
45.65740789307836
 30
0.0
 10
252.7254319292946
 20
45.65127613659968
 30
0.0
 10
252.6112749790851
 20
45.65479619608001
 30
0.0
 10
252.3863962982778
 20
45.67553833541267
 30
0.0
 10
252.2765786032521
 20
45.69281978957688
 30
0.0
 10
251.9637249247019
 20
45.76407524638776
 30
0.0
 10
251.7709707019095
 20
45.83945305402984
 30
0.0
 10
251.5285914554297
 20
45.98600177888891
 30
0.0
 10
251.454595474439
 20
46.04075207931983
 30
0.0
 10
251.3224855456007
 20
46.16107642190838
 30
0.0
 10
251.2657723936169
 20
46.22527690716782
 30
0.0
 10
251.1706857164309
 20
46.3610522400952
 30
0.0
 10
251.1321128836997
 20
46.43314962109741
 30
0.0
 10
251.0758920843331
 20
46.58220489550239
 30
0.0
 10
251.0585690059872
 20
46.65786211815536
 30
0.0
 10
251.0458526429757
 20
46.81049629960059
 30
0.0
 10
251.0506676091283
 20
46.88836178602721
 30
0.0
 10
251.0843372250557
 20
47.04008377482333
 30
0.0
 10
251.1127318937371
 20
47.11324078327345
 30
0.0
 10
251.1936465997931
 20
47.25300829401642
 30
0.0
 10
251.247198892881
 20
47.32035432167367
 30
0.0
 10
251.3751744854349
 20
47.44045559356596
 30
0.0
 10
251.4496309230548
 20
47.49392601774115
 30
0.0
 10
251.6203710990708
 20
47.58695101779915
 30
0.0
 10
251.7149254224751
 20
47.62532390267563
 30
0.0
 10
251.9163652014252
 20
47.68474051259054
 30
0.0
 10
252.0253340818794
 20
47.70624054426458
 30
0.0
 10
252.3593992291426
 20
47.74498490428982
 30
0.0
 10
252.5972665427269
 20
47.73766667165798
 30
0.0
 10
252.8311562584344
 20
47.70497693537835
 30
0.0
  0
LINE
  5
1FF
330
1F
100
AcDbEntity
  8
0
  6
Continuous
 62
     7
370
    15
100
AcDbLine
 10
258.724398198
 20
38.5174313777
 30
0.0
 11
259.9232754995
 21
40.0088233433
 31
0.0
  0
SPLINE
  5
200
330
1F
100
AcDbEntity
  8
0
  6
Continuous
 62
     7
370
    15
100
AcDbSpline
210
0.0
220
0.0
230
1.0
 70
     8
 71
     3
 72
    22
 73
    18
 74
     0
 42
0.000000001
 43
0.00000001
 40
0.0
 40
0.0
 40
0.0
 40
0.0
 40
0.0416666666666667
 40
0.0833333333333335
 40
0.1250000000000033
 40
0.1666666666666679
 40
0.2083333333333337
 40
0.2499999999998967
 40
0.2968749999997767
 40
0.34375
 40
0.3906249999999997
 40
0.4374999999999996
 40
0.4847037825276519
 40
0.4847037825276519
 40
0.53125
 40
0.6249999999999849
 40
0.8414337678077963
 40
0.8414337678077963
 40
0.8414337678077963
 40
0.8414337678077963
 10
259.9232754994718
 20
40.00882334327203
 30
0.0
 10
259.968754827285
 20
40.06539919470769
 30
0.0
 10
260.0580252372266
 20
40.18731980330073
 30
0.0
 10
260.1825179467432
 20
40.39422747564181
 30
0.0
 10
260.2921595947985
 20
40.62319984782641
 30
0.0
 10
260.3791651905736
 20
40.8666042169603
 30
0.0
 10
260.4358407972271
 20
41.1135730820339
 30
0.0
 10
260.4571102412047
 20
41.36161941755249
 30
0.0
 10
260.4338767086069
 20
41.5939822705813
 30
0.0
 10
260.3607915848556
 20
41.79211291789627
 30
0.0
 10
260.2459250224661
 20
41.93745080444031
 30
0.0
 10
260.0966214222285
 20
42.02809043513254
 30
0.0
 10
259.9856980426218
 20
42.05389403531441
 30
0.0
 10
259.8752162590894
 20
42.06430351675908
 30
0.0
 10
259.7269825896509
 20
42.07666325078333
 30
0.0
 10
259.4458871945916
 20
42.10255800785485
 30
0.0
 10
259.0288890245862
 20
42.13977589115249
 30
0.0
 10
258.7242922506114
 20
42.16691627972043
 30
0.0
  0
SPLINE
  5
201
330
1F
100
AcDbEntity
  8
0
  6
Continuous
 62
     7
370
    15
100
AcDbSpline
210
0.0
220
0.0
230
1.0
 70
     8
 71
     3
 72
    22
 73
    18
 74
     0
 42
0.000000001
 43
0.00000001
 40
0.0
 40
0.0
 40
0.0
 40
0.0
 40
0.0416666666666667
 40
0.0833333333333335
 40
0.1250000000000033
 40
0.1666666666666679
 40
0.2083333333333337
 40
0.2499999999998967
 40
0.2968749999997767
 40
0.34375
 40
0.3906249999999997
 40
0.4374999999999996
 40
0.4847037825276519
 40
0.4847037825276519
 40
0.53125
 40
0.6249999999999849
 40
0.8393173095866704
 40
0.8393173095866704
 40
0.8393173095866704
 40
0.8393173095866704
 10
251.437994125236
 20
35.11037467233737
 30
0.0
 10
251.3933214683955
 20
35.1143690810315
 30
0.0
 10
251.3028700103704
 20
35.13332587188992
 30
0.0
 10
251.1788519913938
 20
35.1964548759751
 30
0.0
 10
251.0690831533034
 20
35.29884907175299
 30
0.0
 10
250.9821116271289
 20
35.44179585998509
 30
0.0
 10
250.9254269321084
 20
35.62332931958113
 30
0.0
 10
250.9041598671594
 20
35.84681809216877
 30
0.0
 10
250.9273931909024
 20
36.1060065539211
 30
0.0
 10
251.0004764489571
 20
36.3885168891738
 30
0.0
 10
251.115350691021
 20
36.66648651343886
 30
0.0
 10
251.264625370799
 20
36.929472416655
 30
0.0
 10
251.3756211442959
 20
37.08343548133741
 30
0.0
 10
251.4861316650291
 20
37.22144026488002
 30
0.0
 10
251.6343442909909
 20
37.4049207776589
 30
0.0
 10
251.9122414090564
 20
37.75137822686815
 30
0.0
 10
252.3341848328473
 20
38.27620920527407
 30
0.0
 10
252.6369791569771
 20
38.65278919636088
 30
0.0
  0
LINE
  5
202
330
1F
100
AcDbEntity
  8
0
  6
Continuous
 62
     7
370
    15
100
AcDbLine
 10
252.6368714267
 20
35.0031769757
 30
0.0
 11
251.4379941252
 21
35.1103746723
 31
0.0
  0
LINE
  5
203
330
1F
100
AcDbEntity
  8
0
  6
Continuous
 62
     7
370
    15
100
AcDbLine
 10
225.2927208909
 20
33.7163961659
 30
0.0
 11
230.2424683592
 21
30.8589677745
 31
0.0
  0
ARC
  5
204
330
1F
100
AcDbEntity
  8
0
  6
Continuous
 62
     7
370
    15
100
AcDbCircle
 10
229.4008018782
 20
40.1706807354
 30
0.0
 40
7.650759354637129
100
AcDbArc
 50
182.476303705
 51
237.5236964406
  0
LINE
  5
205
330
1F
100
AcDbEntity
  8
0
  6
Continuous
 62
     7
370
    15
100
AcDbLine
 10
221.7571869849
 20
40.6566613167
 30
0.0
 11
221.7571869849
 21
39.8401205049
 31
0.0
  0
ARC
  5
206
330
1F
100
AcDbEntity
  8
0
  6
Continuous
 62
     7
370
    15
100
AcDbCircle
 10
224.9895062957
 20
40.7627841594
 30
0.0
 40
3.234060943262415
100
AcDbArc
 50
154.1676967856
 51
181.8804477787
  0
SPLINE
  5
207
330
1F
100
AcDbEntity
  8
0
  6
Continuous
 62
     7
370
    15
100
AcDbSpline
210
0.0
220
0.0
230
1.0
 70
     8
 71
     3
 72
    20
 73
    16
 74
     0
 42
0.000000001
 43
0.00000001
 40
0.0
 40
0.0
 40
0.0
 40
0.0
 40
0.1170901673440501
 40
0.1964122803365044
 40
0.276883598782035
 40
0.3173136158289684
 40
0.4344044366187275
 40
0.5137277987304181
 40
0.5942002853648432
 40
0.6346306426648459
 40
0.7517418844646634
 40
0.8310763543362109
 40
0.9115588003907795
 40
0.9519943390668408
 40
0.9999999999999999
 40
0.9999999999999999
 40
0.9999999999999999
 40
0.9999999999999999
 10
251.367283447116
 20
35.37426490637119
 30
0.0
 10
251.3362041785786
 20
35.37873836101323
 30
0.0
 10
251.2840704243695
 20
35.38624233378187
 30
0.0
 10
251.2170319950784
 20
35.41226164739628
 30
0.0
 10
251.1717198163734
 20
35.43720904162302
 30
0.0
 10
251.1212709359157
 20
35.47291999299039
 30
0.0
 10
251.0753646351336
 20
35.51606551596965
 30
0.0
 10
251.0289090019052
 20
35.5768258290091
 30
0.0
 10
250.9997943707554
 20
35.62652704506468
 30
0.0
 10
250.9694554252078
 20
35.69039220995093
 30
0.0
 10
250.9449821679542
 20
35.76004983007705
 30
0.0
 10
250.9250614078523
 20
35.84892845425597
 30
0.0
 10
250.916497838346
 20
35.91736710705781
 30
0.0
 10
250.9117914965326
 20
35.97676500081943
 30
0.0
 10
250.9127990552076
 20
36.00966333385665
 30
0.0
 10
250.9133459555248
 20
36.02752046636988
 30
0.0
  0
SPLINE
  5
208
330
1F
100
AcDbEntity
  8
0
  6
Continuous
 62
     7
370
    15
100
AcDbSpline
210
0.0
220
0.0
230
1.0
 70
     8
 71
     3
 72
    12
 73
     8
 74
     0
 42
0.000000001
 43
0.00000001
 40
0.0
 40
0.0
 40
0.0
 40
0.0
 40
0.0238788033379364
 40
0.1901527464520016
 40
0.4541037937726437
 40
0.7237732109988472
 40
1.0
 40
1.0
 40
1.0
 40
1.0
 10
252.7882717140878
 20
38.86492692077631
 30
0.0
 10
252.7881659442214
 20
38.86424524900341
 30
0.0
 10
252.7873236729276
 20
38.85881693008971
 30
0.0
 10
252.7702916019251
 20
38.83032587562602
 30
0.0
 10
252.7368374647304
 20
38.7814726088903
 30
0.0
 10
252.6891338544841
 20
38.71827660249576
 30
0.0
 10
252.6545027206133
 20
38.67479244407637
 30
0.0
 10
252.636979156977
 20
38.65278919636081
 30
0.0
  0
SPLINE
  5
209
330
1F
100
AcDbEntity
  8
0
  6
Continuous
 62
     7
370
    15
100
AcDbSpline
210
0.0
220
0.0
230
1.0
 70
     8
 71
     3
 72
    16
 73
    12
 74
     0
 42
0.000000001
 43
0.00000001
 40
0.0
 40
0.0
 40
0.0
 40
0.0
 40
0.249999999999999
 40
0.249999999999999
 40
0.499999999999998
 40
0.499999999999998
 40
0.6249999999999976
 40
0.6249999999999976
 40
0.7499999999999972
 40
0.7499999999999972
 40
1.0
 40
1.0
 40
1.0
 40
1.0
 10
258.7242922506126
 20
42.16691627972033
 30
0.0
 10
258.6982969510067
 20
42.16923253055594
 30
0.0
 10
258.6703094306035
 20
42.17046417933583
 30
0.0
 10
258.6076576672681
 20
42.16929490585861
 30
0.0
 10
258.5726231322428
 20
42.16698234159121
 30
0.0
 10
258.5138323730001
 20
42.15731497533196
 30
0.0
 10
258.4928343681593
 20
42.15291304812759
 30
0.0
 10
258.4513256712902
 20
42.14130285183117
 30
0.0
 10
258.431523329785
 20
42.13422513382149
 30
0.0
 10
258.3806131178256
 20
42.11169326406475
 30
0.0
 10
258.3584516798481
 20
42.09589794799709
 30
0.0
 10
258.3422574934851
 20
42.0813345155486
 30
0.0
  0
SPLINE
  5
20A
330
1F
100
AcDbEntity
  8
0
  6
Continuous
 62
     7
370
    15
100
AcDbSpline
210
0.0
220
0.0
230
1.0
 70
     8
 71
     3
 72
    10
 73
     6
 74
     0
 42
0.000000001
 43
0.00000001
 40
0.0
 40
0.0
 40
0.0
 40
0.0
 40
0.5
 40
0.5
 40
1.0
 40
1.0
 40
1.0
 40
1.0
 10
258.3422574934909
 20
42.08133451554608
 30
0.0
 10
258.3160647358629
 20
42.09078241141775
 30
0.0
 10
258.2899325472213
 20
42.10095648688932
 30
0.0
 10
258.2393230583189
 20
42.12301920283253
 30
0.0
 10
258.2155589720377
 20
42.13465878714974
 30
0.0
 10
258.1955718018009
 20
42.14619713492681
 30
0.0
  0
LINE
  5
20B
330
1F
100
AcDbEntity
  8
0
  6
Continuous
 62
     7
370
    15
100
AcDbLine
 10
257.6829645874
 20
42.6250506832
 30
0.0
 11
257.5688119265
 21
42.6845787864
 31
0.0
  0
LINE
  5
20C
330
1F
100
AcDbEntity
  8
0
  6
Continuous
 62
     7
370
    15
100
AcDbLine
 10
257.0805630902
 20
42.789877963
 30
0.0
 11
258.1955718018
 21
42.1461971349
 31
0.0
  0
ARC
  5
20D
330
1F
100
AcDbEntity
  8
0
  6
Continuous
 62
     7
370
    15
100
AcDbCircle
 10
250.0843639725
 20
42.2976466337
 30
0.0
 40
5.628658948005562
100
AcDbArc
 50
337.8177950295
 51
1.3805732857
  0
LINE
  5
20E
330
1F
100
AcDbEntity
  8
0
  6
Continuous
 62
     7
370
    15
100
AcDbLine
 10
255.2964339989
 20
40.1725283799
 30
0.0
 11
258.1955718018
 21
38.4988917506
 31
0.0
  0
LINE
  5
20F
330
1F
100
AcDbEntity
  8
0
  6
Continuous
 62
     7
370
    15
100
AcDbLine
 10
253.1833302905
 20
34.8306109218
 30
0.0
 11
253.2975190128
 21
34.7710659339
 31
0.0
  0
LINE
  5
210
330
1F
100
AcDbEntity
  8
0
  6
Continuous
 62
     7
370
    15
100
AcDbLine
 10
250.9886140199
 20
36.2805253587
 30
0.0
 11
252.6707230761
 21
35.3094644701
 31
0.0
  0
SPLINE
  5
211
330
1F
100
AcDbEntity
  8
0
  6
Continuous
 62
     7
370
    15
100
AcDbSpline
210
0.0
220
0.0
230
1.0
 70
     8
 71
     3
 72
     8
 73
     4
 74
     0
 42
0.000000001
 43
0.00000001
 40
0.0
 40
0.0
 40
0.0
 40
0.0
 40
1.0
 40
1.0
 40
1.0
 40
1.0
 10
210.0014164060781
 20
45.14999106746689
 30
0.0
 10
210.4682786317449
 20
44.76974948020494
 30
0.0
 10
210.9353134161284
 20
44.4028428316621
 30
0.0
 10
211.4024385283037
 20
44.04291650607014
 30
0.0
  0
SPLINE
  5
212
330
1F
100
AcDbEntity
  8
0
  6
Continuous
 62
     7
370
    15
100
AcDbSpline
210
0.0
220
0.0
230
1.0
 70
     8
 71
     3
 72
    14
 73
    10
 74
     0
 42
0.000000001
 43
0.00000001
 40
0.0
 40
0.0
 40
0.0
 40
0.0
 40
0.125
 40
0.125
 40
0.25
 40
0.25
 40
0.5
 40
0.5
 40
1.0
 40
1.0
 40
1.0
 40
1.0
 10
211.4024385283038
 20
44.04291650607011
 30
0.0
 10
211.428862466977
 20
44.02255649778449
 30
0.0
 10
211.4529264094818
 20
44.00704419446982
 30
0.0
 10
211.4891956669069
 20
43.99006082591045
 30
0.0
 10
211.5012140418951
 20
43.98818658450453
 30
0.0
 10
211.5267282885654
 20
43.99232742583976
 30
0.0
 10
211.5309219510135
 20
44.00726981390278
 30
0.0
 10
211.5320287607491
 20
44.06162115024793
 30
0.0
 10
211.5164007756605
 20
44.11304211092394
 30
0.0
 10
211.4967480430269
 20
44.1693909385099
 30
0.0
  0
SPLINE
  5
213
330
1F
100
AcDbEntity
  8
0
  6
Continuous
 62
     7
370
    15
100
AcDbSpline
210
0.0
220
0.0
230
1.0
 70
     8
 71
     3
 72
    14
 73
    10
 74
     0
 42
0.000000001
 43
0.00000001
 40
0.0
 40
0.0
 40
0.0
 40
0.0
 40
0.25
 40
0.25
 40
0.5
 40
0.5
 40
0.75
 40
0.75
 40
1.0
 40
1.0
 40
1.0
 40
1.0
 10
211.4967480430264
 20
44.16939093851026
 30
0.0
 10
211.4720821950884
 20
44.24011350104807
 30
0.0
 10
211.461219324364
 20
44.30317979879828
 30
0.0
 10
211.4392689571691
 20
44.43474653975687
 30
0.0
 10
211.4289973623501
 20
44.50269987874855
 30
0.0
 10
211.3996933479916
 20
44.65130488259199
 30
0.0
 10
211.3809006767619
 20
44.73176868902286
 30
0.0
 10
211.3279813722457
 20
44.91133956283718
 30
0.0
 10
211.2939021950667
 20
45.01017060876505
 30
0.0
 10
211.249815942789
 20
45.11777066374432
 30
0.0
  0
LWPOLYLINE
  5
214
330
1F
100
AcDbEntity
  8
0
  6
Continuous
 62
     7
370
    15
100
AcDbPolyline
 90
        9
 70
   128
 43
0.0
 10
211.2498159428
 20
45.1177706637
 10
210.8817360189
 20
46.1889162032
 10
210.61660663
 20
47.3529189228
 10
210.4566392224
 20
48.6000698669
 10
210.4031680855
 20
49.9199665398
 10
210.4566392224
 20
51.3015996734
 10
210.61660663
 20
52.733445055
 10
210.8817360189
 20
54.2035596512
 10
211.2498159428
 20
55.6996812249
  0
SPLINE
  5
215
330
1F
100
AcDbEntity
  8
0
  6
Continuous
 62
     7
370
    15
100
AcDbSpline
210
0.0
220
0.0
230
1.0
 70
     8
 71
     3
 72
    14
 73
    10
 74
     0
 42
0.000000001
 43
0.00000001
 40
0.0
 40
0.0
 40
0.0
 40
0.0
 40
0.25
 40
0.25
 40
0.5
 40
0.5
 40
0.75
 40
0.75
 40
1.0
 40
1.0
 40
1.0
 40
1.0
 10
211.4967480430264
 20
57.75318133781877
 30
0.0
 10
211.4720821950884
 20
57.58150880632591
 30
0.0
 10
211.461219324364
 20
57.40652907415031
 30
0.0
 10
211.4392689571691
 20
57.05772257050912
 30
0.0
 10
211.4289973623501
 20
56.88350847857333
 30
0.0
 10
211.3996933479916
 20
56.53745756662224
 30
0.0
 10
211.3809006767619
 20
56.36557471270699
 30
0.0
 10
211.3279813722457
 20
56.02554304381277
 30
0.0
 10
211.2939021950667
 20
55.85818218331566
 30
0.0
 10
211.249815942789
 20
55.6996812249127
 30
0.0
  0
SPLINE
  5
216
330
1F
100
AcDbEntity
  8
0
  6
Continuous
 62
     7
370
    15
100
AcDbSpline
210
0.0
220
0.0
230
1.0
 70
     8
 71
     3
 72
    14
 73
    10
 74
     0
 42
0.000000001
 43
0.00000001
 40
0.0
 40
0.0
 40
0.0
 40
0.0
 40
0.1249999999999983
 40
0.1249999999999983
 40
0.2499999999999966
 40
0.2499999999999966
 40
0.4999999999999978
 40
0.4999999999999978
 40
1.0
 40
1.0
 40
1.0
 40
1.0
 10
211.4024385283038
 20
58.50192508146144
 30
0.0
 10
211.428862466977
 20
58.49761878218922
 30
0.0
 10
211.4529264094818
 20
58.48173527564883
 30
0.0
 10
211.4891956669069
 20
58.43259070275742
 30
0.0
 10
211.5012140418951
 20
58.40157934740508
 30
0.0
 10
211.5267282885655
 20
58.30472080553764
 30
0.0
 10
211.5309219510135
 20
58.23444018466149
 30
0.0
 10
211.5320287607491
 20
58.02803878258361
 30
0.0
 10
211.5164007756605
 20
57.88996294656145
 30
0.0
 10
211.4967480430269
 20
57.75318133781868
 30
0.0
  0
SPLINE
  5
217
330
1F
100
AcDbEntity
  8
0
  6
Continuous
 62
     7
370
    15
100
AcDbSpline
210
0.0
220
0.0
230
1.0
 70
     8
 71
     3
 72
     8
 73
     4
 74
     0
 42
0.000000001
 43
0.00000001
 40
0.0
 40
0.0
 40
0.0
 40
0.0
 40
1.0
 40
1.0
 40
1.0
 40
1.0
 10
210.0014164060781
 20
58.67113797534639
 30
0.0
 10
210.468278631745
 20
58.63904822128109
 30
0.0
 10
210.9353134161284
 20
58.57805228397542
 30
0.0
 10
211.4024385283038
 20
58.50192508146143
 30
0.0
  0
SPLINE
  5
218
330
1F
100
AcDbEntity
  8
0
  6
Continuous
 62
     7
370
    15
100
AcDbSpline
210
0.0
220
0.0
230
1.0
 70
     8
 71
     3
 72
    14
 73
    10
 74
     0
 42
0.000000001
 43
0.00000001
 40
0.0
 40
0.0
 40
0.0
 40
0.0
 40
0.4999999999999972
 40
0.4999999999999972
 40
0.7499999999999971
 40
0.7499999999999971
 40
0.8749999999999986
 40
0.8749999999999986
 40
1.0
 40
1.0
 40
1.0
 40
1.0
 10
207.1568790288601
 20
59.59571985150861
 30
0.0
 10
207.6219135615752
 20
59.39937460224777
 30
0.0
 10
208.0887694828567
 20
59.21172209077971
 30
0.0
 10
208.7957958684613
 20
58.96170413383528
 30
0.0
 10
209.0325808513523
 20
58.88354287603645
 30
0.0
 10
209.3913614894839
 20
58.78297561064147
 30
0.0
 10
209.511560313485
 20
58.75225411438984
 30
0.0
 10
209.7541624115948
 20
58.70097940800527
 30
0.0
 10
209.8764141691836
 20
58.67972999847228
 30
0.0
 10
210.0014164060781
 20
58.67113797534634
 30
0.0
  0
LINE
  5
219
330
1F
100
AcDbEntity
  8
0
  6
Continuous
 62
     7
370
    15
100
AcDbLine
 10
227.0805222847
 20
75.6324237061
 30
0.0
 11
227.1364955385
 21
75.6049009724
 31
0.0
  0
SPLINE
  5
21A
330
1F
100
AcDbEntity
  8
0
  6
Continuous
 62
     7
370
    15
100
AcDbSpline
210
0.0
220
0.0
230
1.0
 70
     8
 71
     3
 72
    14
 73
    10
 74
     0
 42
0.000000001
 43
0.00000001
 40
0.0
 40
0.0
 40
0.0
 40
0.0
 40
0.4999999999999986
 40
0.4999999999999986
 40
0.7499999999999978
 40
0.7499999999999978
 40
0.8749999999999989
 40
0.8749999999999989
 40
1.0
 40
1.0
 40
1.0
 40
1.0
 10
207.1568790288601
 20
47.27277587563422
 30
0.0
 10
207.6219135615752
 20
46.93793055939584
 30
0.0
 10
208.0887694828568
 20
46.59914238432431
 30
0.0
 10
208.7957958684613
 20
46.07684663729158
 30
0.0
 10
209.0325808513523
 20
45.90042492920121
 30
0.0
 10
209.3913614894839
 20
45.62834277768227
 30
0.0
 10
209.511560313485
 20
45.53639741632536
 30
0.0
 10
209.7541624115948
 20
45.34797139549504
 30
0.0
 10
209.8764141691836
 20
45.2518006514404
 30
0.0
 10
210.0014164060781
 20
45.14999106746691
 30
0.0
  0
SPLINE
  5
21B
330
1F
100
AcDbEntity
  8
0
  6
Continuous
 62
     7
370
    15
100
AcDbSpline
210
0.0
220
0.0
230
1.0
 70
     8
 71
     3
 72
    17
 73
    13
 74
     0
 42
0.000000001
 43
0.00000001
 40
0.0
 40
0.0
 40
0.0
 40
0.0
 40
0.1230570947810287
 40
0.2465473039619483
 40
0.37001342472264
 40
0.4930175952193618
 40
0.6153310602154284
 40
0.6769552126785596
 40
0.737820478316313
 40
0.8599756630970637
 40
0.9827000031039362
 40
1.0
 40
1.0
 40
1.0
 40
1.0
 10
215.6151225630271
 20
44.82899983241137
 30
0.0
 10
215.4113538353129
 20
45.20288943761724
 30
0.0
 10
215.0030991910838
 20
45.95198459793236
 30
0.0
 10
214.8098314604951
 20
47.10030305920224
 30
0.0
 10
215.015194423708
 20
48.05264186634754
 30
0.0
 10
215.5744814573378
 20
48.68610744417616
 30
0.0
 10
216.250384106404
 20
48.82741718613055
 30
0.0
 10
216.8252590447436
 20
48.70121833177122
 30
0.0
 10
217.4055549514124
 20
48.41316768590502
 30
0.0
 10
218.0686937483472
 20
47.754336836172
 30
0.0
 10
218.5755733162875
 20
46.98848048869745
 30
0.0
 10
218.7200793880732
 20
46.52975670931963
 30
0.0
 10
218.7379331029963
 20
46.47308141890289
 30
0.0
  0
SPLINE
  5
21C
330
1F
100
AcDbEntity
  8
0
  6
Continuous
 62
     7
370
    15
100
AcDbSpline
210
0.0
220
0.0
230
1.0
 70
     8
 71
     3
 72
    12
 73
     8
 74
     0
 42
0.000000001
 43
0.00000001
 40
0.0
 40
0.0
 40
0.0
 40
0.0
 40
0.0350773669424572
 40
0.3558378689002042
 40
0.515898314829601
 40
0.6781087283725745
 40
1.0
 40
1.0
 40
1.0
 40
1.0
 10
218.1177460215058
 20
42.79672837028088
 30
0.0
 10
218.0952346716039
 20
42.79292037538345
 30
0.0
 10
217.8668711576515
 20
42.75429065749984
 30
0.0
 10
217.3932817858772
 20
43.01785416353771
 30
0.0
 10
216.8245933005546
 20
43.42725088822858
 30
0.0
 10
216.2411417491211
 20
43.96348517810298
 30
0.0
 10
215.8651372935225
 20
44.48333724276
 30
0.0
 10
215.6151225630271
 20
44.82899983241137
 30
0.0
  0
SPLINE
  5
21D
330
1F
100
AcDbEntity
  8
0
  6
Continuous
 62
     7
370
    15
100
AcDbSpline
210
0.0
220
0.0
230
1.0
 70
     8
 71
     3
 72
    14
 73
    10
 74
     0
 42
0.000000001
 43
0.00000001
 40
0.0
 40
0.0
 40
0.0
 40
0.0
 40
0.25
 40
0.25
 40
0.5
 40
0.5
 40
0.75
 40
0.75
 40
1.0
 40
1.0
 40
1.0
 40
1.0
 10
262.7304168913082
 20
50.4303357148229
 30
0.0
 10
262.7770989276468
 20
50.40338674886946
 30
0.0
 10
262.8147855422528
 20
50.37028002471834
 30
0.0
 10
262.8636570210073
 20
50.29967145165581
 30
0.0
 10
262.8757582514071
 20
50.26117587726574
 30
0.0
 10
262.8735886398519
 20
50.18521776307036
 30
0.0
 10
262.85934822577
 20
50.147024055478
 30
0.0
 10
262.8074967831804
 20
50.07702940655292
 30
0.0
 10
262.7697902430767
 20
50.04486141107115
 30
0.0
 10
262.7229728123593
 20
50.01783428360656
 30
0.0
  0
ARC
  5
21E
330
1F
100
AcDbEntity
  8
0
  6
Continuous
 62
     7
370
    15
100
AcDbCircle
 10
237.2025277431
 20
30.2960853079
 30
0.0
 40
8.578842232636406
100
AcDbArc
 50
219.8059917557
 51
260.6519675361
  0
SPLINE
  5
21F
330
1F
100
AcDbEntity
  8
0
  6
Continuous
 62
     7
370
    15
100
AcDbSpline
210
0.0
220
0.0
230
1.0
 70
     8
 71
     3
 72
    14
 73
    10
 74
     0
 42
0.000000001
 43
0.00000001
 40
0.0
 40
0.0
 40
0.0
 40
0.0
 40
0.25
 40
0.25
 40
0.5
 40
0.5
 40
0.75
 40
0.75
 40
1.0
 40
1.0
 40
1.0
 40
1.0
 10
228.1653444546388
 20
30.06807372384418
 30
0.0
 10
228.2125656180624
 20
30.04081352644934
 30
0.0
 10
228.2688523774938
 20
30.01953159492519
 30
0.0
 10
228.392281725567
 20
29.99117696509407
 30
0.0
 10
228.458935049027
 20
29.98433358275391
 30
0.0
 10
228.5910599259687
 20
29.9858156983831
 30
0.0
 10
228.6574192819534
 20
29.9942062300693
 30
0.0
 10
228.7786735140742
 20
30.02432455354068
 30
0.0
 10
228.8347846165514
 20
30.04632924738149
 30
0.0
 10
228.8815191900788
 20
30.07330854240844
 30
0.0
  0
LINE
  5
220
330
1F
100
AcDbEntity
  8
0
  6
Continuous
 62
     7
370
    15
100
AcDbLine
 10
226.50789642
 20
31.0248981077
 30
0.0
 11
228.1653444546
 21
30.0680737238
 31
0.0
  0
SPLINE
  5
221
330
1F
100
AcDbEntity
  8
0
  6
Continuous
 62
     7
370
    15
100
AcDbSpline
210
0.0
220
0.0
230
1.0
 70
     8
 71
     3
 72
     8
 73
     4
 74
     0
 42
0.000000001
 43
0.00000001
 40
0.0
 40
0.0
 40
0.0
 40
0.0
 40
1.0
 40
1.0
 40
1.0
 40
1.0
 10
226.8796847810416
 20
31.79143069005719
 30
0.0
 10
226.7555066131567
 20
31.5359598908311
 30
0.0
 10
226.6315889130149
 20
31.28044704415815
 30
0.0
 10
226.5078964199827
 20
31.02489810767149
 30
0.0
  0
LINE
  5
222
330
1F
100
AcDbEntity
  8
0
  6
Continuous
 62
     7
370
    15
100
AcDbLine
 10
227.2007853308
 20
31.9767980918
 30
0.0
 11
226.879684781
 21
31.7914306901
 31
0.0
  0
SPLINE
  5
223
330
1F
100
AcDbEntity
  8
0
  6
Continuous
 62
     7
370
    15
100
AcDbSpline
210
0.0
220
0.0
230
1.0
 70
     8
 71
     3
 72
    12
 73
     8
 74
     0
 42
0.000000001
 43
0.00000001
 40
0.0
 40
0.0
 40
0.0
 40
0.0
 40
0.2499999999999986
 40
0.2499999999999986
 40
0.4999999999999971
 40
0.4999999999999971
 40
1.0
 40
1.0
 40
1.0
 40
1.0
 10
227.2090950107846
 20
32.30815841265215
 30
0.0
 10
227.2464870483674
 20
32.28657244882571
 30
0.0
 10
227.2766975216849
 20
32.25993159603564
 30
0.0
 10
227.3155968916943
 20
32.20295339272983
 30
0.0
 10
227.3249272576243
 20
32.17206182305303
 30
0.0
 10
227.3213221942104
 20
32.08050548149095
 30
0.0
 10
227.2757171692988
 20
32.02005532138594
 30
0.0
 10
227.200785330772
 20
31.97679809176046
 30
0.0
  0
LINE
  5
224
330
1F
100
AcDbEntity
  8
0
  6
Continuous
 62
     7
370
    15
100
AcDbLine
 10
226.4242064837
 20
32.7612649147
 30
0.0
 11
227.2090950108
 21
32.3081584127
 31
0.0
  0
SPLINE
  5
225
330
1F
100
AcDbEntity
  8
0
  6
Continuous
 62
     7
370
    15
100
AcDbSpline
210
0.0
220
0.0
230
1.0
 70
     8
 71
     3
 72
    14
 73
    10
 74
     0
 42
0.000000001
 43
0.00000001
 40
0.0
 40
0.0
 40
0.0
 40
0.0
 40
0.25
 40
0.25
 40
0.5
 40
0.5
 40
0.75
 40
0.75
 40
1.0
 40
1.0
 40
1.0
 40
1.0
 10
225.8502113787057
 20
32.75646783855119
 30
0.0
 10
225.8880571764842
 20
32.7783157525628
 30
0.0
 10
225.9323760936322
 20
32.79568839735172
 30
0.0
 10
226.0300776301843
 20
32.82004987204358
 30
0.0
 10
226.0828307617961
 20
32.82676383657514
 30
0.0
 10
226.1887841190245
 20
32.82812128616114
 30
0.0
 10
226.2421484053199
 20
32.82274358502206
 30
0.0
 10
226.3413261800916
 20
32.80010264150621
 30
0.0
 10
226.3863330734928
 20
32.78312876902235
 30
0.0
 10
226.4242064836675
 20
32.76126491471375
 30
0.0
  0
LINE
  5
226
330
1F
100
AcDbEntity
  8
0
  6
Continuous
 62
     7
370
    15
100
AcDbLine
 10
225.529110829
 20
32.5711004368
 30
0.0
 11
225.8502113787
 21
32.7564678386
 31
0.0
  0
SPLINE
  5
227
330
1F
100
AcDbEntity
  8
0
  6
Continuous
 62
     7
370
    15
100
AcDbSpline
210
0.0
220
0.0
230
1.0
 70
     8
 71
     3
 72
     8
 73
     4
 74
     0
 42
0.000000001
 43
0.00000001
 40
0.0
 40
0.0
 40
0.0
 40
0.0
 40
1.0
 40
1.0
 40
1.0
 40
1.0
 10
224.2012935788619
 20
32.35647158451214
 30
0.0
 10
224.6439652850783
 20
32.42787774081685
 30
0.0
 10
225.0865744751299
 20
32.49941390641861
 30
0.0
 10
225.5291108289753
 20
32.57110043684787
 30
0.0
  0
LINE
  5
228
330
1F
100
AcDbEntity
  8
0
  6
Continuous
 62
     7
370
    15
100
AcDbLine
 10
252.7361694187
 20
35.2518658728
 30
0.0
 11
251.3672834471
 21
35.3742649064
 31
0.0
  0
SPLINE
  5
229
330
1F
100
AcDbEntity
  8
0
  6
Continuous
 62
     7
370
    15
100
AcDbSpline
210
0.0
220
0.0
230
1.0
 70
     8
 71
     3
 72
    16
 73
    12
 74
     0
 42
0.000000001
 43
0.00000001
 40
0.0
 40
0.0
 40
0.0
 40
0.0
 40
0.2499999999999987
 40
0.2499999999999987
 40
0.4999999999999974
 40
0.4999999999999974
 40
0.6249999999999984
 40
0.6249999999999984
 40
0.7499999999999994
 40
0.7499999999999994
 40
1.0
 40
1.0
 40
1.0
 40
1.0
 10
252.636871426745
 20
35.0031769756919
 30
0.0
 10
252.6624289121075
 20
35.00089175137455
 30
0.0
 10
252.6874284492934
 20
35.0012463333052
 30
0.0
 10
252.7348268678712
 20
35.01170064598999
 30
0.0
 10
252.7570788829502
 20
35.02147450073079
 30
0.0
 10
252.7806783267983
 20
35.05178689601851
 30
0.0
 10
252.786750978451
 20
35.06479231065374
 30
0.0
 10
252.7919178286418
 20
35.09717960337321
 30
0.0
 10
252.7907635401954
 20
35.1163894391215
 30
0.0
 10
252.7775439445573
 20
35.175799369459
 30
0.0
 10
252.7578337592462
 20
35.21546241148805
 30
0.0
 10
252.7361694187219
 20
35.25186587275755
 30
0.0
  0
LINE
  5
22A
330
1F
100
AcDbEntity
  8
0
  6
Continuous
 62
     7
370
    15
100
AcDbLine
 10
261.2844560533
 20
51.2650711388
 30
0.0
 11
262.7304168913
 21
50.4303357148
 31
0.0
  0
ARC
  5
22B
330
1F
100
AcDbEntity
  8
0
  6
Continuous
 62
     7
370
    15
100
AcDbCircle
 10
236.8956339595
 20
32.7012389666
 30
0.0
 40
10.52212953095429
100
AcDbArc
 50
189.1671816022
 51
237.5734356253
  0
SPLINE
  5
22C
330
1F
100
AcDbEntity
  8
0
  6
Continuous
 62
     7
370
    15
100
AcDbSpline
210
0.0
220
0.0
230
1.0
 70
     8
 71
     3
 72
     8
 73
     4
 74
     0
 42
0.000000001
 43
0.00000001
 40
0.0
 40
0.0
 40
0.0
 40
0.0
 40
1.0
 40
1.0
 40
1.0
 40
1.0
 10
252.670723076076
 20
35.30946447014254
 30
0.0
 10
252.710757375785
 20
35.28635316085854
 30
0.0
 10
252.7303208164761
 20
35.26653787648736
 30
0.0
 10
252.7361694187215
 20
35.25186587275878
 30
0.0
  0
SPLINE
  5
22D
330
1F
100
AcDbEntity
  8
0
  6
Continuous
 62
     7
370
    15
100
AcDbSpline
210
0.0
220
0.0
230
1.0
 70
     8
 71
     3
 72
     8
 73
     4
 74
     0
 42
0.000000001
 43
0.00000001
 40
0.0
 40
0.0
 40
0.0
 40
0.0
 40
1.0
 40
1.0
 40
1.0
 40
1.0
 10
258.1955718018013
 20
38.49889175063527
 30
0.0
 10
258.2356061015112
 20
38.47578044135084
 30
0.0
 10
258.290103046162
 20
38.47613183955544
 30
0.0
 10
258.3422574935082
 20
38.48819163120139
 30
0.0
  0
SPLINE
  5
22E
330
1F
100
AcDbEntity
  8
0
  6
Continuous
 62
     7
370
    15
100
AcDbSpline
210
0.0
220
0.0
230
1.0
 70
     8
 71
     3
 72
    16
 73
    12
 74
     0
 42
0.000000001
 43
0.00000001
 40
0.0
 40
0.0
 40
0.0
 40
0.0
 40
0.2499999999999973
 40
0.2499999999999973
 40
0.3749999999999962
 40
0.3749999999999962
 40
0.4999999999999952
 40
0.4999999999999952
 40
0.7499999999999976
 40
0.7499999999999976
 40
1.0
 40
1.0
 40
1.0
 40
1.0
 10
258.3422574935114
 20
38.48819163119993
 30
0.0
 10
258.3583255601423
 20
38.44890841462018
 30
0.0
 10
258.3805811273346
 20
38.41001757862531
 30
0.0
 10
258.4310975398509
 20
38.37247458769296
 30
0.0
 10
258.4507107492583
 20
38.36409220151157
 30
0.0
 10
258.4920372472332
 20
38.35843224484928
 30
0.0
 10
258.5130311172372
 20
38.36103273247239
 30
0.0
 10
258.5721076322289
 20
38.37844767190079
 30
0.0
 10
258.6072690484033
 20
38.40181374178992
 30
0.0
 10
258.6701598656898
 20
38.45470569388169
 30
0.0
 10
258.6986158575226
 20
38.48535839130239
 30
0.0
 10
258.7243981979657
 20
38.51743137770577
 30
0.0
  0
ARC
  5
22F
330
1F
100
AcDbEntity
  8
0
  6
Continuous
 62
     7
370
    15
100
AcDbCircle
 10
237.1291508086
 20
35.0716442858
 30
0.0
 40
11.86649261870494
100
AcDbArc
 50
192.164729815
 51
214.9100933088
  0
SPLINE
  5
230
330
1F
100
AcDbEntity
  8
0
  6
Continuous
 62
     7
370
    15
100
AcDbSpline
210
0.0
220
0.0
230
1.0
 70
     8
 71
     3
 72
    22
 73
    18
 74
     0
 42
0.000000001
 43
0.00000001
 40
0.0
 40
0.0
 40
0.0
 40
0.0
 40
0.125
 40
0.125
 40
0.25
 40
0.25
 40
0.375
 40
0.375
 40
0.5
 40
0.5
 40
0.625
 40
0.625
 40
0.75
 40
0.75
 40
0.875
 40
0.875
 40
1.0
 40
1.0
 40
1.0
 40
1.0
 10
259.7111434651172
 20
40.19107276612517
 30
0.0
 10
259.7785728230454
 20
40.27495424634891
 30
0.0
 10
259.8395055772702
 20
40.36414691512107
 30
0.0
 10
259.9473028468357
 20
40.55367314325991
 30
0.0
 10
259.9939108765681
 20
40.6536214369923
 30
0.0
 10
260.0677837808113
 20
40.85312631788648
 30
0.0
 10
260.0959684935168
 20
40.95549870547813
 30
0.0
 10
260.1320908440891
 20
41.15204729045184
 30
0.0
 10
260.1405408333064
 20
41.24788807945676
 30
0.0
 10
260.1382683246717
 20
41.4280397100806
 30
0.0
 10
260.1278151721162
 20
41.51040406696456
 30
0.0
 10
260.0888605872902
 20
41.6594173454957
 30
0.0
 10
260.0605224272967
 20
41.72436672213183
 30
0.0
 10
259.9878452518092
 20
41.83145677915154
 30
0.0
 10
259.9426336488671
 20
41.8743780427184
 30
0.0
 10
259.8385610014556
 20
41.93459973951845
 30
0.0
 10
259.7785798809611
 20
41.95290565269485
 30
0.0
 10
259.7111434609831
 20
41.95893548431138
 30
0.0
  0
LINE
  5
231
330
1F
100
AcDbEntity
  8
0
  6
Continuous
 62
     7
370
    15
100
AcDbLine
 10
259.711143461
 20
41.9589354843
 30
0.0
 11
258.3422574935
 21
42.0813345155
 31
0.0
  0
SPLINE
  5
232
330
1F
100
AcDbEntity
  8
0
  6
Continuous
 62
     7
370
    15
100
AcDbSpline
210
0.0
220
0.0
230
1.0
 70
     8
 71
     3
 72
    20
 73
    16
 74
     0
 42
0.000000001
 43
0.00000001
 40
0.0
 40
0.0
 40
0.0
 40
0.0
 40
0.1090723582136358
 40
0.1717749935578118
 40
0.2313583810056861
 40
0.3525458901601765
 40
0.4142887105434691
 40
0.4740545651252882
 40
0.5955616983001616
 40
0.6574363998422359
 40
0.7181361869920495
 40
0.8415737739730951
 40
0.9044597830932479
 40
0.9654338126699111
 40
1.0
 40
1.0
 40
1.0
 40
1.0
 10
217.0114869419966
 20
48.49956352329486
 30
0.0
 10
216.9923814163996
 20
48.38636675343442
 30
0.0
 10
216.9622926607323
 20
48.2080963398118
 30
0.0
 10
216.9674112346405
 20
47.94687425083461
 30
0.0
 10
216.9933410202685
 20
47.66570930781109
 30
0.0
 10
217.0542749392026
 20
47.37578255814131
 30
0.0
 10
217.1475353862334
 20
47.08324699067758
 30
0.0
 10
217.2615798338166
 20
46.79011503713206
 30
0.0
 10
217.4051586089604
 20
46.4986872728112
 30
0.0
 10
217.574426595851
 20
46.21430265086951
 30
0.0
 10
217.7604648440696
 20
45.93458349897563
 30
0.0
 10
217.9682227637053
 20
45.66516597509131
 30
0.0
 10
218.1917075989784
 20
45.41557268774044
 30
0.0
 10
218.3387773023902
 20
45.25960261907152
 30
0.0
 10
218.4317425667281
 20
45.1779441741749
 30
0.0
 10
218.465377143311
 20
45.14840037372346
 30
0.0
  0
ARC
  5
233
330
1F
100
AcDbEntity
  8
0
  6
Continuous
 62
     7
370
    15
100
AcDbCircle
 10
255.094040125
 20
43.2281655331
 30
0.0
 40
2.072199650649617
100
AcDbArc
 50
321.0658596266
 51
347.226892773
  0
LINE
  5
234
330
1F
100
AcDbEntity
  8
0
  6
Continuous
 62
     7
370
    15
100
AcDbLine
 10
258.3422574935
 20
38.4881916312
 30
0.0
 11
259.7111434651
 21
40.1910727661
 31
0.0
  0
LINE
  5
235
330
1F
100
AcDbEntity
  8
0
  6
Continuous
 62
     7
370
    15
100
AcDbLine
 10
255.2964339989
 20
40.1725283799
 30
0.0
 11
256.7059396451
 21
41.9259400037
 31
0.0
  0
SPLINE
  5
236
330
1F
100
AcDbEntity
  8
0
  6
Continuous
 62
     7
370
    15
100
AcDbSpline
210
0.0
220
0.0
230
1.0
 70
     8
 71
     3
 72
    15
 73
    11
 74
     0
 42
0.000000001
 43
0.00000001
 40
0.0
 40
0.0
 40
0.0
 40
0.0
 40
0.1891805101050735
 40
0.363961476975346
 40
0.5244461290398447
 40
0.6707725376856879
 40
0.7471278754924886
 40
0.8285739478453378
 40
0.9151313176833069
 40
0.9999999999999999
 40
0.9999999999999999
 40
0.9999999999999999
 40
0.9999999999999999
 10
215.9054360155623
 20
45.01141023562236
 30
0.0
 10
216.0318551105809
 20
44.82840048291401
 30
0.0
 10
216.2750708652869
 20
44.47631083129171
 30
0.0
 10
216.6814389085795
 20
44.03422477849689
 30
0.0
 10
217.0674218144619
 20
43.68900181632162
 30
0.0
 10
217.3743231404061
 20
43.46855352368053
 30
0.0
 10
217.6091808316538
 20
43.32726572460497
 30
0.0
 10
217.792409018501
 20
43.23481793750246
 30
0.0
 10
217.9756912503788
 20
43.16057894659806
 30
0.0
 10
218.0916538901923
 20
43.13287654332935
 30
0.0
 10
218.1490640464389
 20
43.11916178741641
 30
0.0
  0
SPLINE
  5
237
330
1F
100
AcDbEntity
  8
0
  6
Continuous
 62
     7
370
    15
100
AcDbSpline
210
0.0
220
0.0
230
1.0
 70
     8
 71
     3
 72
    22
 73
    18
 74
     0
 42
0.000000001
 43
0.00000001
 40
0.0
 40
0.0
 40
0.0
 40
0.0
 40
0.1402864692907324
 40
0.2282537884295858
 40
0.2750030522914542
 40
0.323565055054008
 40
0.3962761026350631
 40
0.4526559277739687
 40
0.4926849906388197
 40
0.5822231041263358
 40
0.6617017271911216
 40
0.700226200977229
 40
0.7412752563996583
 40
0.7848545772578678
 40
0.8309688324369418
 40
0.897593496058984
 40
0.9999999999999999
 40
0.9999999999999999
 40
0.9999999999999999
 40
0.9999999999999999
 10
217.3655301421882
 20
48.36162583466615
 30
0.0
 10
217.1408150769798
 20
48.47288807069756
 30
0.0
 10
216.7751913271601
 20
48.6539178379425
 30
0.0
 10
216.3540129322064
 20
48.63760782782957
 30
0.0
 10
216.0950024604908
 20
48.57230423189909
 30
0.0
 10
215.8730092515132
 20
48.47027628910524
 30
0.0
 10
215.6659690953451
 20
48.31147815194578
 30
0.0
 10
215.5041896471814
 20
48.11324742675374
 30
0.0
 10
215.3579159407959
 20
47.86026266380405
 30
0.0
 10
215.2458853582113
 20
47.52694566564485
 30
0.0
 10
215.2085702557637
 20
47.14755100351957
 30
0.0
 10
215.2220147209507
 20
46.83990968910517
 30
0.0
 10
215.2537275454741
 20
46.59432273324654
 30
0.0
 10
215.3105556689065
 20
46.32749196678169
 30
0.0
 10
215.4072474695959
 20
46.00420077931372
 30
0.0
 10
215.5842118449388
 20
45.55570488872827
 30
0.0
 10
215.7842463365003
 20
45.21675871297079
 30
0.0
 10
215.9054360155623
 20
45.01141023562237
 30
0.0
  0
SPLINE
  5
238
330
1F
100
AcDbEntity
  8
0
  6
Continuous
 62
     7
370
    15
100
AcDbSpline
210
0.0
220
0.0
230
1.0
 70
     8
 71
     3
 72
     9
 73
     5
 74
     0
 42
0.000000001
 43
0.00000001
 40
0.0
 40
0.0
 40
0.0
 40
0.0
 40
0.1883699358114506
 40
1.0
 40
1.0
 40
1.0
 40
1.0
 10
256.8473610013118
 20
66.07056540852261
 30
0.0
 10
256.8897370434378
 20
66.0800979081145
 30
0.0
 10
257.1146988556477
 20
66.13070311510161
 30
0.0
 10
257.3404661822032
 20
66.18010187603248
 30
0.0
 10
257.5237057319472
 20
66.22019539553764
 30
0.0
  0
LINE
  5
239
330
1F
100
AcDbEntity
  8
0
  6
Continuous
 62
     7
370
    15
100
AcDbLine
 10
257.5237057319
 20
66.2201953955
 30
0.0
 11
259.1811537666
 21
65.2633710117
 31
0.0
  0
SPLINE
  5
23A
330
1F
100
AcDbEntity
  8
0
  6
Continuous
 62
     7
370
    15
100
AcDbSpline
210
0.0
220
0.0
230
1.0
 70
     8
 71
     3
 72
    16
 73
    12
 74
     0
 42
0.000000001
 43
0.00000001
 40
0.0
 40
0.0
 40
0.0
 40
0.0
 40
0.1249999999999996
 40
0.1249999999999996
 40
0.2499999999999992
 40
0.2499999999999992
 40
0.4999999999999994
 40
0.4999999999999994
 40
0.7499999999999997
 40
0.7499999999999997
 40
1.0
 40
1.0
 40
1.0
 40
1.0
 10
259.1811537666033
 20
65.26337101171033
 30
0.0
 10
259.2078957341616
 20
65.24793320244189
 30
0.0
 10
259.2308663328081
 20
65.23004148303465
 30
0.0
 10
259.2668432849322
 20
65.19186148648951
 30
0.0
 10
259.2801058237112
 20
65.17157766901893
 30
0.0
 10
259.3068609344169
 20
65.10745133772423
 30
0.0
 10
259.3060439291565
 20
65.06295848609507
 30
0.0
 10
259.2779635389102
 20
64.97787879375122
 30
0.0
 10
259.2503941839857
 20
64.93650593770492
 30
0.0
 10
259.1772200282263
 20
64.86107480499696
 30
0.0
 10
259.1309861898136
 20
64.8262058301732
 30
0.0
 10
259.0778224048854
 20
64.79551503040615
 30
0.0
  0
LINE
  5
23B
330
1F
100
AcDbEntity
  8
0
  6
Continuous
 62
     7
370
    15
100
AcDbLine
 10
209.7941051499
 20
50.9719197798
 30
0.0
 11
210.4168786812
 21
50.6124002727
 31
0.0
  0
SPLINE
  5
23C
330
1F
100
AcDbEntity
  8
0
  6
Continuous
 62
     7
370
    15
100
AcDbSpline
210
0.0
220
0.0
230
1.0
 70
     8
 71
     3
 72
    11
 73
     7
 74
     0
 42
0.000000001
 43
0.00000001
 40
0.0
 40
0.0
 40
0.0
 40
0.0
 40
0.0466211050426239
 40
0.4280404359959806
 40
0.808615188118804
 40
1.0
 40
1.0
 40
1.0
 40
1.0
 10
262.7229728123593
 20
58.18324240246406
 30
0.0
 10
262.7279506742769
 20
58.18619012474839
 30
0.0
 10
262.7736537133541
 20
58.21325392623117
 30
0.0
 10
262.8400917647041
 20
58.27449352583612
 30
0.0
 10
262.8827128693493
 20
58.35829039082358
 30
0.0
 10
262.8688710383451
 20
58.40847070471925
 30
0.0
 10
262.8642393888553
 20
58.42526166432457
 30
0.0
  0
LINE
  5
23D
330
1F
100
AcDbEntity
  8
0
  6
Continuous
 62
     7
370
    15
100
AcDbLine
 10
207.1421139787
 20
60.6533510057
 30
0.0
 11
207.1565101869
 21
60.6966284142
 31
0.0
  0
LWPOLYLINE
  5
23E
330
1F
100
AcDbEntity
  8
0
  6
Continuous
 62
     7
370
    15
100
AcDbPolyline
 90
       11
 70
   128
 43
0.0
 10
207.1826878052
 20
60.7753227106
 10
207.1893616161
 20
60.7953853017
 10
207.2065297658
 20
60.8371312166
 10
207.2148204548
 20
60.8503048633
 10
207.2191023784
 20
60.849289745
 10
207.2202677346
 20
60.8353968051
 10
207.2177932516
 20
60.8055453101
 10
207.2081700078
 20
60.7406047002
 10
207.1676446059
 20
60.5297324693
 10
207.1567352012
 20
60.4776248155
 10
207.1567352012
 20
60.4776248155
  0
SPLINE
  5
23F
330
1F
100
AcDbEntity
  8
0
  6
Continuous
 62
     7
370
    15
100
AcDbSpline
210
0.0
220
0.0
230
1.0
 70
     8
 71
     3
 72
    10
 73
     6
 74
     0
 42
0.000000001
 43
0.00000001
 40
0.0
 40
0.0
 40
0.0
 40
0.0
 40
0.1815690553731935
 40
0.7767097940434246
 40
1.0
 40
1.0
 40
1.0
 40
1.0
 10
207.0727980698981
 20
60.21374617636954
 30
0.0
 10
207.0711732555452
 20
60.23945163826684
 30
0.0
 10
207.064222681182
 20
60.34941356969286
 30
0.0
 10
207.0949799023855
 20
60.49217286206913
 30
0.0
 10
207.1320109126273
 20
60.61880289189413
 30
0.0
 10
207.1421139786928
 20
60.65335100572774
 30
0.0
  0
SPLINE
  5
240
330
1F
100
AcDbEntity
  8
0
  6
Continuous
 62
     7
370
    15
100
AcDbSpline
210
0.0
220
0.0
230
1.0
 70
     8
 71
     3
 72
     8
 73
     4
 74
     0
 42
0.000000001
 43
0.00000001
 40
0.0
 40
0.0
 40
0.0
 40
0.0
 40
1.0
 40
1.0
 40
1.0
 40
1.0
 10
207.0676498784887
 20
59.61671680129936
 30
0.0
 10
207.0962521740631
 20
59.61516338616582
 30
0.0
 10
207.1259485538007
 20
59.60877920820305
 30
0.0
 10
207.1568790288589
 20
59.59571985151496
 30
0.0
  0
SPLINE
  5
241
330
1F
100
AcDbEntity
  8
0
  6
Continuous
 62
     7
370
    15
100
AcDbSpline
210
0.0
220
0.0
230
1.0
 70
     8
 71
     3
 72
    10
 73
     6
 74
     0
 42
0.000000001
 43
0.00000001
 40
0.0
 40
0.0
 40
0.0
 40
0.0
 40
0.4999999999999989
 40
0.4999999999999989
 40
1.0
 40
1.0
 40
1.0
 40
1.0
 10
207.1567352011555
 20
60.47762481549371
 30
0.0
 10
207.1267467312466
 20
60.33583395932371
 30
0.0
 10
207.1063134320601
 20
60.1935761432804
 30
0.0
 10
207.0776804448343
 20
59.90676587511064
 30
0.0
 10
207.0698093851878
 20
59.76230934191511
 30
0.0
 10
207.0676498784896
 20
59.61671680129565
 30
0.0
  0
ARC
  5
242
330
1F
100
AcDbEntity
  8
0
  6
Continuous
 62
     7
370
    15
100
AcDbCircle
 10
208.2869826476
 20
59.4486625631
 30
0.0
 40
1.230859305078334
100
AcDbArc
 50
172.152662553
 51
234.515109951
  0
SPLINE
  5
243
330
1F
100
AcDbEntity
  8
0
  6
Continuous
 62
     7
370
    15
100
AcDbSpline
210
0.0
220
0.0
230
1.0
 70
     8
 71
     3
 72
     8
 73
     4
 74
     0
 42
0.000000001
 43
0.00000001
 40
0.0
 40
0.0
 40
0.0
 40
0.0
 40
1.0
 40
1.0
 40
1.0
 40
1.0
 10
207.0676498784894
 20
47.3527980337333
 30
0.0
 10
207.0962521740636
 20
47.32210062987519
 30
0.0
 10
207.1259485538009
 20
47.29504717802471
 30
0.0
 10
207.1568790288589
 20
47.27277587562965
 30
0.0
  0
ARC
  5
244
330
1F
100
AcDbEntity
  8
0
  6
Continuous
 62
     7
370
    15
100
AcDbCircle
 10
210.8001515148
 20
47.2453067677
 30
0.0
 40
3.734049120875581
100
AcDbArc
 50
122.5266432908
 51
178.3504108787
  0
LINE
  5
245
330
1F
100
AcDbEntity
  8
0
  6
Continuous
 62
     7
370
    15
100
AcDbLine
 10
208.7923841519
 20
50.3936385567
 30
0.0
 11
209.7941051499
 21
50.9719197798
 31
0.0
  0
SPLINE
  5
246
330
1F
100
AcDbEntity
  8
0
  6
Continuous
 62
     7
370
    15
100
AcDbSpline
210
0.0
220
0.0
230
1.0
 70
     8
 71
     3
 72
     9
 73
     5
 74
     0
 42
0.000000001
 43
0.00000001
 40
0.0
 40
0.0
 40
0.0
 40
0.0
 40
0.3882939128165615
 40
1.0
 40
1.0
 40
1.0
 40
1.0
 10
207.1014550483013
 20
48.41994887156027
 30
0.0
 10
207.0931357176252
 20
48.37323607494841
 30
0.0
 10
207.0717103735715
 20
48.25293339939778
 30
0.0
 10
207.0723852462019
 20
48.13023515564441
 30
0.0
 10
207.0727980698981
 20
48.05517989305376
 30
0.0
  0
ARC
  5
247
330
1F
100
AcDbEntity
  8
0
  6
Continuous
 62
     7
370
    15
100
AcDbCircle
 10
209.5850653835
 20
47.9325167855
 30
0.0
 40
2.530989991238199
100
AcDbArc
 50
122.9343892187
 51
168.8962877716
  0
LINE
  5
248
330
1F
100
AcDbEntity
  8
0
  6
Continuous
 62
     7
370
    15
100
AcDbLine
 10
208.7923841519
 20
50.3936385567
 30
0.0
 11
208.2090210574
 21
50.056760733
 31
0.0
  0
SPLINE
  5
249
330
1F
100
AcDbEntity
  8
0
  6
Continuous
 62
     7
370
    15
100
AcDbSpline
210
0.0
220
0.0
230
1.0
 70
     8
 71
     3
 72
     9
 73
     5
 74
     0
 42
0.000000001
 43
0.00000001
 40
0.0
 40
0.0
 40
0.0
 40
0.0
 40
0.2366149268186986
 40
1.0
 40
1.0
 40
1.0
 40
1.0
 10
207.1123719883454
 20
47.21143163015445
 30
0.0
 10
207.1051400474979
 20
47.22142991555349
 30
0.0
 10
207.0745758690465
 20
47.26368542974897
 30
0.0
 10
207.0706482013679
 20
47.31422039533312
 30
0.0
 10
207.0676498784896
 20
47.35279803373381
 30
0.0
  0
LWPOLYLINE
  5
24A
330
1F
100
AcDbEntity
  8
0
  6
Continuous
 62
     7
370
     0
100
AcDbPolyline
 90
       27
 70
   128
 43
0.0
 10
228.8815191901
 20
39.0552574732
 10
229.2380096577
 20
40.774228823
 10
229.6960436607
 20
42.5149264683
 10
230.252806729
 20
44.2666543878
 10
230.9048777343
 20
46.0186487827
 10
231.6482499124
 20
47.7601442167
 10
232.4783554828
 20
49.4804397665
 10
233.3900937164
 20
51.168964775
 10
234.3778622782
 20
52.8153438046
 10
235.4355916514
 20
54.4094603914
 10
236.5567824328
 20
55.941519207
 10
237.7345452692
 20
57.4021062478
 10
238.961643191
 20
58.7822466812
 10
240.2305360801
 20
60.0734599927
 10
241.5334270021
 20
61.2678120962
 10
242.8623101157
 20
62.3579640861
 10
244.2090198661
 20
63.3372173328
 10
245.5652811594
 20
64.1995546433
 10
246.9227602109
 20
64.939677235
 10
248.273115753
 20
65.5530372952
 10
249.6080502895
 20
66.0358659256
 10
250.9193610818
 20
66.3851963013
 10
252.1989905511
 20
66.5988819005
 10
253.4390757901
 20
66.6756096948
 10
254.6319968782
 20
66.6149082167
 10
255.7704237029
 20
66.4171504571
 10
256.8473610013
 20
66.0835515733
  0
LWPOLYLINE
  5
24B
330
1F
100
AcDbEntity
  8
0
  6
Continuous
 62
     7
370
     0
100
AcDbPolyline
 90
       27
 70
   128
 43
0.0
 10
228.1653444546
 20
39.0500226546
 10
228.5205517061
 20
40.7921028497
 10
228.9783279408
 20
42.5567868567
 10
229.5358930856
 20
44.3333577583
 10
230.1898610504
 20
46.1110264482
 10
230.9362602908
 20
47.878997153
 10
231.770557928
 20
49.6265329954
 10
232.6876872763
 20
51.3430211986
 10
233.6820786138
 20
53.0180375383
 10
234.7476930068
 20
54.6414096484
 10
235.8780589842
 20
56.203278798
 10
237.066311839
 20
57.6941597634
 10
238.3052353175
 20
59.1049984318
 10
239.5873054434
 20
60.4272267868
 10
240.904736211
 20
61.6528149422
 10
242.2495268699
 20
62.774319907
 10
243.6135105128
 20
63.7849307871
 10
244.9884036739
 20
64.6785101476
 10
246.3658566336
 20
65.4496312854
 10
247.7375041269
 20
66.0936111855
 10
249.0950161453
 20
66.6065389612
 10
250.4301485249
 20
66.9852996047
 10
251.7347930132
 20
67.2275929043
 10
253.0010265108
 20
67.3319474141
 10
254.2211591877
 20
67.2977293896
 10
255.3877811843
 20
67.1251466368
 10
256.4938076107
 20
66.8152472497
  0
ARC
  5
24C
330
1F
100
AcDbEntity
  8
0
  6
Continuous
 62
     7
370
     0
100
AcDbCircle
 10
228.1199146029
 20
55.8398357168
 30
0.0
 40
35.08941917639932
100
AcDbArc
 50
339.5922330645
 51
350.4493746477
  0
LWPOLYLINE
  5
24D
330
1F
100
AcDbEntity
  8
0
  6
Continuous
 62
     7
370
     0
100
AcDbPolyline
 90
       25
 70
   128
 43
0.0
 10
253.9976757425
 20
31.462474822
 10
253.0836380036
 20
30.4042486176
 10
251.8473318207
 20
29.091083755
 10
250.5745794135
 20
27.8690899472
 10
249.2730053733
 20
26.7455877095
 10
247.9504069514
 20
25.7273075303
 10
246.6147073482
 20
24.8203495517
 10
245.2739082485
 20
24.0301470251
 10
243.9360418865
 20
23.3614337631
 10
242.6091229272
 20
22.8182157807
 10
241.3011004539
 20
22.4037472972
 10
240.0198103479
 20
22.1205112405
 10
238.7729283469
 20
21.9702043738
 10
237.567924062
 20
21.9537271302
 10
236.4120162306
 20
22.0711782187
 10
235.3121294711
 20
22.3218540331
 10
234.2748528005
 20
22.7042528669
 10
233.3064001616
 20
23.2160839093
 10
232.4125731978
 20
23.8542809688
 10
231.5987264977
 20
24.6150208419
 10
230.8697355172
 20
25.4937462156
 10
230.2299673732
 20
26.4851929698
 10
229.6832546811
 20
27.5834217116
 10
229.2328725956
 20
28.7818533568
 10
228.8815191901
 20
30.0733085424
  0
ARC
  5
24E
330
1F
100
AcDbEntity
  8
0
  6
Continuous
 62
     7
370
     0
100
AcDbCircle
 10
251.7367778811
 20
56.4377460837
 30
0.0
 40
11.12399372828675
100
AcDbArc
 50
9.0277456972
 51
48.705552358
  0
LWPOLYLINE
  5
24F
330
1F
100
AcDbEntity
  8
0
  6
Continuous
 62
     7
370
     0
100
AcDbPolyline
 90
       26
 70
   128
 43
0.0
 10
238.6923943943
 20
40.227980708
 10
238.74395044
 20
41.2419745672
 10
238.8978667738
 20
42.300707456
 10
239.151898949
 20
43.3887406647
 10
239.5023426044
 20
44.4902082191
 10
239.9440874824
 20
45.589048242
 10
240.470691948
 20
46.6692371716
 10
241.0744769222
 20
47.7150234207
 10
241.7466378605
 20
48.711157071
 10
242.4773731429
 20
49.6431122508
 10
243.2560270035
 20
50.497298955
 10
244.0712449156
 20
51.261261218
 10
244.9111391663
 20
51.9238587497
 10
245.7634622062
 20
52.475429386
 10
246.6157852461
 20
52.907929985
 10
247.4556794968
 20
53.2150537141
 10
248.2708974089
 20
53.3923220178
 10
249.0495512695
 20
53.4371499249
 10
249.7802865519
 20
53.3488837437
 10
250.4524474902
 20
53.1288105939
 10
251.0562324644
 20
52.7801396375
 10
251.58283693
 20
52.3079552822
 10
252.024581808
 20
51.7191430392
 10
252.3750254634
 20
51.0222891168
 10
252.6290576386
 20
50.2275552145
 10
252.763380919
 20
49.5064082974
  0
LWPOLYLINE
  5
250
330
1F
100
AcDbEntity
  8
0
  6
Continuous
 62
     7
370
     0
100
AcDbPolyline
 90
       13
 70
   128
 43
0.0
 10
244.7640310579
 20
35.6496264993
 10
244.0712449156
 20
35.4049888201
 10
243.2560270035
 20
35.2277205165
 10
242.4773731429
 20
35.1828926093
 10
241.7466378605
 20
35.2711587905
 10
241.0744769222
 20
35.4912319403
 10
240.470691948
 20
35.8399028968
 10
239.9440874824
 20
36.3120872521
 10
239.5023426044
 20
36.9008994951
 10
239.151898949
 20
37.5977534174
 10
238.8978667738
 20
38.3924873197
 10
238.74395044
 20
39.2735121921
 10
238.6923943943
 20
40.227980708
  0
LWPOLYLINE
  5
251
330
1F
100
AcDbEntity
  8
0
  6
Continuous
 62
     7
370
     0
100
AcDbPolyline
 90
       26
 70
   128
 43
0.0
 10
218.0271987142
 20
39.9116225647
 10
218.0778267593
 20
41.4846984522
 10
218.2294209017
 20
43.1072178
 10
218.4811128239
 20
44.7698869645
 10
218.8314608574
 20
46.463182327
 10
219.2784582404
 20
48.1774048452
 10
219.8195446123
 20
49.9027356076
 10
220.4516206794
 20
51.629292076
 10
221.1710659673
 20
53.3471846911
 10
221.9737595584
 20
55.0465735198
 10
222.8551036965
 20
56.7177246167
 10
223.8100501224
 20
58.3510657796
 10
224.8331289892
 20
59.9372413782
 10
225.918480194
 20
61.4671659425
 10
227.0598869433
 20
62.9320762029
 10
228.2508113625
 20
64.3235812863
 10
229.4844319446
 20
65.6337107775
 10
230.7536826224
 20
66.8549603734
 10
232.0512932431
 20
67.980334867
 10
233.3698312106
 20
69.003388215
 10
234.7017440587
 20
69.9182604606
 10
236.0394027113
 20
70.7197112982
 10
237.3751451808
 20
71.4031500903
 10
238.7013204553
 20
71.9646621611
 10
240.0103323228
 20
72.4010312205
 10
240.5157180632
 20
72.5370189446
  0
ARC
  5
252
330
1F
100
AcDbEntity
  8
0
  6
Continuous
 62
     7
370
     0
100
AcDbCircle
 10
236.7320748368
 20
39.7010153103
 30
0.0
 40
18.70606174957539
100
AcDbArc
 50
179.3549063443
 51
195.68156165
  0
LWPOLYLINE
  5
253
330
1F
100
AcDbEntity
  8
0
  6
Continuous
 62
     7
370
     0
100
AcDbPolyline
 90
       23
 70
   128
 43
0.0
 10
225.8502113787
 20
41.7384167693
 10
226.210019212
 20
43.4066561043
 10
226.6691788481
 20
45.0946212822
 10
227.2247872218
 20
46.7916400394
 10
227.8733314651
 20
48.4869828705
 10
228.6107111171
 20
50.1699308662
 10
229.4322640497
 20
51.8298434844
 10
230.332795944
 20
53.4562258254
 10
231.3066131316
 20
55.0387949871
 10
232.3475585935
 20
56.5675450784
 10
233.4490508881
 20
58.0328104831
 10
234.6041257626
 20
59.4253269704
 10
235.8054801851
 20
60.7362902694
 10
237.0455185185
 20
61.9574117339
 10
238.316400544
 20
63.0809707484
 10
239.6100910321
 20
64.099863542
 10
240.9184105449
 20
65.0076481024
 10
242.2330871521
 20
65.7985849058
 10
243.5458087299
 20
66.4676732057
 10
244.8482755154
 20
67.0106826503
 10
246.1322525824
 20
67.4241800288
 10
247.3896219069
 20
67.7055509787
 10
248.3290194223
 20
67.8305011342
  0
LWPOLYLINE
  5
254
330
1F
100
AcDbEntity
  8
0
  6
Continuous
 62
     7
370
     0
100
AcDbPolyline
 90
       20
 70
   128
 43
0.0
 10
226.4242064837
 20
41.7432138455
 10
226.7853876697
 20
43.3934899424
 10
227.2451690092
 20
45.0627541916
 10
227.8006107741
 20
46.7403337301
 10
228.448161607
 20
48.4155025294
 10
229.1836812282
 20
50.0775499744
 10
230.0024669071
 20
51.7158493448
 10
230.8992835305
 20
53.3199257597
 10
231.8683970748
 20
54.8795231512
 10
232.9036112676
 20
56.3846698393
 10
233.9983072054
 20
57.8257422882
 10
235.1454856731
 20
59.1935266372
 10
236.3378118954
 20
60.4792776115
 10
237.5676624333
 20
61.6747744373
 10
238.8271739265
 20
62.7723734035
 10
240.1082933702
 20
63.7650567339
 10
241.4028296033
 20
64.6464774567
 10
242.7025056816
 20
65.4109999859
 10
243.9990117974
 20
66.0537361534
 10
244.2551563863
 20
66.1664126144
  0
ARC
  5
255
330
1F
100
AcDbEntity
  8
0
  6
Continuous
 62
     7
370
     0
100
AcDbCircle
 10
245.5313228211
 20
39.8362263545
 30
0.0
 40
4.029589577999889
100
AcDbArc
 50
174.4209254684
 51
234.2668941382
  0
LWPOLYLINE
  5
256
330
1F
100
AcDbEntity
  8
0
  6
Continuous
 62
     7
370
     0
100
AcDbPolyline
 90
       19
 70
   128
 43
0.0
 10
251.1773506991
 20
50.4220040543
 10
250.8298984243
 20
50.5904218928
 10
250.2215292147
 20
50.7568398642
 10
249.5588423682
 20
50.7936453829
 10
248.8536635473
 20
50.7001816536
 10
248.1185766849
 20
50.4781165387
 10
247.3666994233
 20
50.1314127955
 10
246.6114490301
 20
49.6662573604
 10
245.8663029664
 20
49.0909509433
 10
245.1445583815
 20
48.4157599007
 10
244.4590948245
 20
47.6527330329
 10
243.8221444089
 20
46.8154865723
 10
243.2450735299
 20
45.9189612019
 10
242.738180031
 20
44.9791554381
 10
242.3105094387
 20
44.0128401371
 10
241.9696935448
 20
43.0372592183
 10
241.7218142172
 20
42.0698219464
 10
241.5712948681
 20
41.1277922622
 10
241.5208215191
 20
40.227980708
  0
LWPOLYLINE
  5
257
330
1F
100
AcDbEntity
  8
0
  6
Continuous
 62
     7
370
     0
100
AcDbPolyline
 90
       13
 70
   128
 43
0.0
 10
252.6368714267
 20
35.0031769757
 10
252.9731250517
 20
34.5912763209
 10
253.3988086175
 20
34.3112883356
 10
253.8998616557
 20
34.1724611154
 10
254.4597342188
 20
34.1793801692
 10
255.0599335315
 20
34.3318169583
 10
255.6806348124
 20
34.6247364453
 10
256.3013360932
 20
35.0484634029
 10
256.9015354059
 20
35.5890019898
 10
257.461407969
 20
36.2284980381
 10
257.9624610072
 20
36.9458287824
 10
258.388144573
 20
37.7173005513
 10
258.724398198
 20
38.5174313777
  0
LWPOLYLINE
  5
258
330
1F
100
AcDbEntity
  8
0
  6
Continuous
 62
     7
370
     0
100
AcDbPolyline
 90
       13
 70
   128
 43
0.0
 10
258.7242922506
 20
42.1669162797
 10
258.3880271616
 20
42.5787490522
 10
257.9623470528
 20
42.8586819239
 10
257.4613105423
 20
42.9974697613
 10
256.9014649879
 20
42.9905289226
 10
256.3012999894
 20
42.8380886376
 10
255.6806367469
 20
42.5451834374
 10
255.0599734405
 20
42.1214868828
 10
254.4598082524
 20
41.5809920826
 10
253.899962389
 20
40.9415495538
 10
253.3989254604
 20
40.2242776861
 10
252.973244838
 20
39.4528652803
 10
252.636979157
 20
38.6527891964
  0
LINE
  5
259
330
1F
100
AcDbEntity
  8
0
  6
Continuous
 62
     7
370
     0
100
AcDbLine
 10
219.6040471898
 20
39.4136801706
 30
0.0
 11
221.7571869849
 21
40.6566613167
 31
0.0
  0
LINE
  5
25A
330
1F
100
AcDbEntity
  8
0
  6
Continuous
 62
     7
370
     0
100
AcDbLine
 10
251.3672834471
 20
35.3742649064
 30
0.0
 11
251.4379941252
 21
35.1103746723
 31
0.0
  0
LWPOLYLINE
  5
25B
330
1F
100
AcDbEntity
  8
0
  6
Continuous
 62
     7
370
     0
100
AcDbPolyline
 90
        3
 70
   128
 43
0.0
 10
258.1955718018
 20
42.1461971349
 10
257.8451715608
 20
42.5168175216
 10
257.6829645874
 20
42.6250506832
  0
LWPOLYLINE
  5
25C
330
1F
100
AcDbEntity
  8
0
  6
Continuous
 62
     7
370
     0
100
AcDbPolyline
 90
       11
 70
   128
 43
0.0
 10
253.2975190128
 20
34.7710659339
 10
253.4594084996
 20
34.7062798934
 10
253.9696091865
 20
34.6202456502
 10
254.5331356144
 20
34.6838761129
 10
255.1294550339
 20
34.8948528306
 10
255.736839844
 20
35.245488618
 10
256.3331592634
 20
35.7230076469
 10
256.8966856914
 20
36.3100109488
 10
257.4068863783
 20
36.9851103665
 10
257.8451715608
 20
37.7237078571
 10
258.1955718018
 20
38.4988917506
  0
LWPOLYLINE
  5
25D
330
1F
100
AcDbEntity
  8
0
  6
Continuous
 62
     7
370
     0
100
AcDbPolyline
 90
       22
 70
   128
 43
0.0
 10
207.1568790289
 20
59.5957198515
 10
207.6866749166
 20
61.0679757246
 10
208.3057295474
 20
62.5315914168
 10
209.0089599561
 20
63.9745493979
 10
209.7905920227
 20
65.3850017549
 10
210.6442078827
 20
66.751367474
 10
211.5627986237
 20
68.0624275298
 10
212.5388218339
 20
69.3074170038
 10
213.5642635323
 20
70.4761134728
 10
214.63070397
 20
71.5589209446
 10
215.7293867636
 20
72.5469486483
 10
216.8512907924
 20
73.4320840358
 10
217.9872042697
 20
74.2070593924
 10
219.1278003794
 20
74.865511511
 10
220.2637138567
 20
75.4020339393
 10
221.3856178855
 20
75.8122213717
 10
222.4843006791
 20
76.0927058204
 10
223.5507411168
 20
76.2411842694
 10
224.5761828152
 20
76.2564375842
 10
225.5522060255
 20
76.1383405222
 10
226.4707967664
 20
75.8878627608
 10
227.0805222847
 20
75.6324237061
  0
ARC
  5
25E
330
1F
100
AcDbEntity
  8
0
  6
Continuous
 62
     7
370
     0
100
AcDbCircle
 10
213.0518554786
 20
50.2679742464
 30
0.0
 40
6.612258360294081
100
AcDbArc
 50
206.9348210899
 51
235.9314622704
  0
LINE
  5
25F
330
1F
100
AcDbEntity
  8
0
  6
Continuous
 62
     7
370
     0
100
AcDbLine
 10
251.0419209616
 20
35.5620926712
 30
0.0
 11
251.3672834471
 21
35.3742649064
 31
0.0
  0
ARC
  5
260
330
1F
100
AcDbEntity
  8
0
  6
Continuous
 62
     7
370
     0
100
AcDbCircle
 10
240.1316326111
 20
32.4293986762
 30
0.0
 40
12.19704504275866
100
AcDbArc
 50
191.1628411129
 51
218.695725807
  0
LINE
  5
261
330
1F
100
AcDbEntity
  8
0
  6
Continuous
 62
     7
370
     0
100
AcDbLine
 10
223.5691503769
 20
32.7214000873
 30
0.0
 11
225.2927208909
 21
33.7163961659
 31
0.0
  0
LINE
  5
262
330
1F
100
AcDbEntity
  8
0
  6
Continuous
 62
     7
370
     0
100
AcDbLine
 10
219.6040471898
 20
38.5971393588
 30
0.0
 11
221.7571869849
 21
39.8401205049
 31
0.0
  0
LINE
  5
263
330
1F
100
AcDbEntity
  8
0
  6
Continuous
 62
     7
370
     0
100
AcDbLine
 10
227.2757443607
 20
32.045085116
 30
0.0
 11
227.2090950108
 21
32.3081584127
 31
0.0
  0
LINE
  5
264
330
1F
100
AcDbEntity
  8
0
  6
Continuous
 62
     7
370
     0
100
AcDbLine
 10
226.7612972555
 20
31.5982567058
 30
0.0
 11
226.4242064837
 21
32.7612649147
 31
0.0
  0
LINE
  5
265
330
1F
100
AcDbEntity
  8
0
  6
Continuous
 62
     7
370
     0
100
AcDbLine
 10
259.9232754995
 20
40.0088233433
 30
0.0
 11
259.7111434651
 21
40.1910727661
 31
0.0
  0
ARC
  5
266
330
1F
100
AcDbEntity
  8
0
  6
Continuous
 62
     7
370
     0
100
AcDbCircle
 10
238.2583154998
 20
35.6277005735
 30
0.0
 40
12.73597366899018
100
AcDbArc
 50
193.0289139223
 51
204.5990437934
  0
LINE
  5
267
330
1F
100
AcDbEntity
  8
0
  6
Continuous
 62
     7
370
     0
100
AcDbLine
 10
256.7059396451
 20
41.9259400037
 30
0.0
 11
259.7111434651
 21
40.1910727661
 31
0.0
  0
LINE
  5
268
330
1F
100
AcDbEntity
  8
0
  6
Continuous
 62
     7
370
     0
100
AcDbLine
 10
254.4817103779
 20
67.9763019337
 30
0.0
 11
254.3813403583
 21
67.9183595547
 31
0.0
  0
ARC
  5
269
330
1F
100
AcDbEntity
  8
0
  6
Continuous
 62
     7
370
     0
100
AcDbCircle
 10
213.1114224553
 20
57.2808246749
 30
0.0
 40
1.972900930438498
100
AcDbArc
 50
160.2447912923
 51
206.8893927025
  0
ARC
  5
26A
330
1F
100
AcDbEntity
  8
0
  6
Continuous
 62
     7
370
     0
100
AcDbCircle
 10
210.8694442063
 20
57.2202145887
 30
0.0
 40
0.823142550979486
100
AcDbArc
 50
40.3517278188
 51
62.0985124778
  0
LINE
  5
26B
330
1F
100
AcDbEntity
  8
0
  6
Continuous
 62
     7
370
     0
100
AcDbLine
 10
211.2546360337
 20
57.9476696838
 30
0.0
 11
211.4024385283
 21
58.5019250815
 31
0.0
  0
LINE
  5
26C
330
1F
100
AcDbEntity
  8
0
  6
Continuous
 62
     7
370
     0
100
AcDbLine
 10
211.2546360337
 20
57.9476696838
 30
0.0
 11
210.0014164061
 21
58.6711379753
 31
0.0
  0
LINE
  5
26D
330
1F
100
AcDbEntity
  8
0
  6
Continuous
 62
     7
370
     0
100
AcDbLine
 10
207.1567352012
 20
60.4776248155
 30
0.0
 11
207.1421139787
 21
60.6533510057
 31
0.0
  0
ARC
  5
26E
330
1F
100
AcDbEntity
  8
0
  6
Continuous
 62
     7
370
     0
100
AcDbCircle
 10
210.9729854509
 20
43.9187735478
 30
0.0
 40
0.5806344198069632
100
AcDbArc
 50
25.5708468831
 51
60.9826879702
  0
ARC
  5
26F
330
1F
100
AcDbEntity
  8
0
  6
Continuous
 62
     7
370
     0
100
AcDbCircle
 10
213.2103570707
 20
45.0725409863
 30
0.0
 40
2.059656355468176
100
AcDbArc
 50
172.8744043427
 51
198.2795396693
  0
LINE
  5
270
330
1F
100
AcDbEntity
  8
0
  6
Continuous
 62
     7
370
     0
100
AcDbLine
 10
210.4094515651
 20
49.4601254094
 30
0.0
 11
208.7923841519
 21
50.3936385567
 31
0.0
  0
LINE
  5
271
330
1F
100
AcDbEntity
  8
0
  6
Continuous
 62
     7
370
     0
100
AcDbLine
 10
211.2546360337
 20
44.4265227759
 30
0.0
 11
210.0014164061
 21
45.1499910675
 31
0.0
  0
LINE
  5
272
330
1F
100
AcDbEntity
  8
0
  6
Continuous
 62
     7
370
     0
100
AcDbLine
 10
211.2546360337
 20
44.4265227759
 30
0.0
 11
211.4024385283
 21
44.0429165061
 31
0.0
  0
OLE2FRAME
  5
273
330
1F
100
AcDbEntity
  8
0
100
AcDbOle2Frame
 70
     2
  3
Paintbrush-Bild
 10
13.8511154363
 20
38.264191557
 30
0.0
 11
51.6290888628
 21
31.9806341108
 31
0.0
 71
     2
 72
     0
 73
     1
 90
    12928
310
80552BED0767C5B32B40DDAF6807D121434000000000000000006FFBDDFB85D0
310
4940DDAF6807D121434000000000000000006FFBDDFB85D04940416F4BD60AFB
310
3F4000000000000000002BED0767C5B32B40416F4BD60AFB3F40000000000000
310
0000000000000100000000010000010000000100000000000100000000320000
310
D0CF11E0A1B11AE1000000000000000000000000000000003E000300FEFF0900
310
0600000000000000000000000100000001000000000000000010000002000000
310
01000000FEFFFFFF0000000000000000FFFFFFFFFFFFFFFFFFFFFFFFFFFFFFFF
310
FFFFFFFFFFFFFFFFFFFFFFFFFFFFFFFFFFFFFFFFFFFFFFFFFFFFFFFFFFFFFFFF
310
FFFFFFFFFFFFFFFFFFFFFFFFFFFFFFFFFFFFFFFFFFFFFFFFFFFFFFFFFFFFFFFF
310
FFFFFFFFFFFFFFFFFFFFFFFFFFFFFFFFFFFFFFFFFFFFFFFFFFFFFFFFFFFFFFFF
310
FFFFFFFFFFFFFFFFFFFFFFFFFFFFFFFFFFFFFFFFFFFFFFFFFFFFFFFFFFFFFFFF
310
FFFFFFFFFFFFFFFFFFFFFFFFFFFFFFFFFFFFFFFFFFFFFFFFFFFFFFFFFFFFFFFF
310
FFFFFFFFFFFFFFFFFFFFFFFFFFFFFFFFFFFFFFFFFFFFFFFFFFFFFFFFFFFFFFFF
310
FFFFFFFFFFFFFFFFFFFFFFFFFFFFFFFFFFFFFFFFFFFFFFFFFFFFFFFFFFFFFFFF
310
FFFFFFFFFFFFFFFFFFFFFFFFFFFFFFFFFFFFFFFFFFFFFFFFFFFFFFFFFFFFFFFF
310
FFFFFFFFFFFFFFFFFFFFFFFFFFFFFFFFFFFFFFFFFFFFFFFFFFFFFFFFFFFFFFFF
310
FFFFFFFFFFFFFFFFFFFFFFFFFFFFFFFFFFFFFFFFFFFFFFFFFFFFFFFFFFFFFFFF
310
FFFFFFFFFFFFFFFFFFFFFFFFFFFFFFFFFFFFFFFFFFFFFFFFFFFFFFFFFFFFFFFF
310
FFFFFFFFFFFFFFFFFFFFFFFFFFFFFFFFFFFFFFFFFFFFFFFFFFFFFFFFFFFFFFFF
310
FFFFFFFFFFFFFFFFFFFFFFFFFFFFFFFFFFFFFFFFFFFFFFFFFFFFFFFFFFFFFFFF
310
FDFFFFFFFEFFFFFFFEFFFFFFFEFFFFFF05000000060000000700000008000000
310
090000000A0000000B0000000C0000000D0000000E0000000F00000010000000
310
11000000120000001300000014000000150000001600000017000000FEFFFFFF
310
FFFFFFFFFFFFFFFFFFFFFFFFFFFFFFFFFFFFFFFFFFFFFFFFFFFFFFFFFFFFFFFF
310
FFFFFFFFFFFFFFFFFFFFFFFFFFFFFFFFFFFFFFFFFFFFFFFFFFFFFFFFFFFFFFFF
310
FFFFFFFFFFFFFFFFFFFFFFFFFFFFFFFFFFFFFFFFFFFFFFFFFFFFFFFFFFFFFFFF
310
FFFFFFFFFFFFFFFFFFFFFFFFFFFFFFFFFFFFFFFFFFFFFFFFFFFFFFFFFFFFFFFF
310
FFFFFFFFFFFFFFFFFFFFFFFFFFFFFFFFFFFFFFFFFFFFFFFFFFFFFFFFFFFFFFFF
310
FFFFFFFFFFFFFFFFFFFFFFFFFFFFFFFFFFFFFFFFFFFFFFFFFFFFFFFFFFFFFFFF
310
FFFFFFFFFFFFFFFFFFFFFFFFFFFFFFFFFFFFFFFFFFFFFFFFFFFFFFFFFFFFFFFF
310
FFFFFFFFFFFFFFFFFFFFFFFFFFFFFFFFFFFFFFFFFFFFFFFFFFFFFFFFFFFFFFFF
310
FFFFFFFFFFFFFFFFFFFFFFFFFFFFFFFFFFFFFFFFFFFFFFFFFFFFFFFFFFFFFFFF
310
FFFFFFFFFFFFFFFFFFFFFFFFFFFFFFFFFFFFFFFFFFFFFFFFFFFFFFFFFFFFFFFF
310
FFFFFFFFFFFFFFFFFFFFFFFFFFFFFFFFFFFFFFFFFFFFFFFFFFFFFFFFFFFFFFFF
310
FFFFFFFFFFFFFFFFFFFFFFFFFFFFFFFFFFFFFFFFFFFFFFFFFFFFFFFFFFFFFFFF
310
FFFFFFFFFFFFFFFFFFFFFFFFFFFFFFFFFFFFFFFFFFFFFFFFFFFFFFFFFFFFFFFF
310
52006F006F007400200045006E00740072007900000000000000000000000000
310
0000000000000000000000000000000000000000000000000000000000000000
310
16000500FFFFFFFFFFFFFFFF020000000A00030000000000C000000000000046
310
000000000000000000000000D010242D7020D20103000000C000000000000000
310
01004F006C006500000000000000000000000000000000000000000000000000
310
0000000000000000000000000000000000000000000000000000000000000000
310
0A000200FFFFFFFFFFFFFFFFFFFFFFFF00000000000000000000000000000000
310
0000000000000000000000000000000000000000000000001400000000000000
310
010043006F006D0070004F0062006A0000000000000000000000000000000000
310
0000000000000000000000000000000000000000000000000000000000000000
310
120002010100000003000000FFFFFFFF00000000000000000000000000000000
310
0000000000000000000000000000000000000000010000004D00000000000000
310
01004F006C006500310030004E00610074006900760065000000000000000000
310
0000000000000000000000000000000000000000000000000000000000000000
310
1A000200FFFFFFFFFFFFFFFFFFFFFFFF00000000000000000000000000000000
310
0000000000000000000000000000000000000000040000002426000000000000
310
FEFFFFFF02000000FEFFFFFFFFFFFFFFFFFFFFFFFFFFFFFFFFFFFFFFFFFFFFFF
310
FFFFFFFFFFFFFFFFFFFFFFFFFFFFFFFFFFFFFFFFFFFFFFFFFFFFFFFFFFFFFFFF
310
FFFFFFFFFFFFFFFFFFFFFFFFFFFFFFFFFFFFFFFFFFFFFFFFFFFFFFFFFFFFFFFF
310
FFFFFFFFFFFFFFFFFFFFFFFFFFFFFFFFFFFFFFFFFFFFFFFFFFFFFFFFFFFFFFFF
310
FFFFFFFFFFFFFFFFFFFFFFFFFFFFFFFFFFFFFFFFFFFFFFFFFFFFFFFFFFFFFFFF
310
FFFFFFFFFFFFFFFFFFFFFFFFFFFFFFFFFFFFFFFFFFFFFFFFFFFFFFFFFFFFFFFF
310
FFFFFFFFFFFFFFFFFFFFFFFFFFFFFFFFFFFFFFFFFFFFFFFFFFFFFFFFFFFFFFFF
310
FFFFFFFFFFFFFFFFFFFFFFFFFFFFFFFFFFFFFFFFFFFFFFFFFFFFFFFFFFFFFFFF
310
FFFFFFFFFFFFFFFFFFFFFFFFFFFFFFFFFFFFFFFFFFFFFFFFFFFFFFFFFFFFFFFF
310
FFFFFFFFFFFFFFFFFFFFFFFFFFFFFFFFFFFFFFFFFFFFFFFFFFFFFFFFFFFFFFFF
310
FFFFFFFFFFFFFFFFFFFFFFFFFFFFFFFFFFFFFFFFFFFFFFFFFFFFFFFFFFFFFFFF
310
FFFFFFFFFFFFFFFFFFFFFFFFFFFFFFFFFFFFFFFFFFFFFFFFFFFFFFFFFFFFFFFF
310
FFFFFFFFFFFFFFFFFFFFFFFFFFFFFFFFFFFFFFFFFFFFFFFFFFFFFFFFFFFFFFFF
310
FFFFFFFFFFFFFFFFFFFFFFFFFFFFFFFFFFFFFFFFFFFFFFFFFFFFFFFFFFFFFFFF
310
FFFFFFFFFFFFFFFFFFFFFFFFFFFFFFFFFFFFFFFFFFFFFFFFFFFFFFFFFFFFFFFF
310
FFFFFFFFFFFFFFFFFFFFFFFFFFFFFFFFFFFFFFFFFFFFFFFFFFFFFFFFFFFFFFFF
310
0100000200000000000000000000000000000000000000000000000000000000
310
0000000000000000000000000000000000000000000000000000000000000000
310
0100FEFF030A0000FFFFFFFF0A00030000000000C00000000000004607000000
310
5042727573680007000000504272757368000700000050427275736800F439B2
310
7100000000000000000000000000000000000000000000000000000000000000
310
0000000000000000000000000000000000000000000000000000000000000000
310
0000000000000000000000000000000000000000000000000000000000000000
310
0000000000000000000000000000000000000000000000000000000000000000
310
0000000000000000000000000000000000000000000000000000000000000000
310
0000000000000000000000000000000000000000000000000000000000000000
310
0000000000000000000000000000000000000000000000000000000000000000
310
0000000000000000000000000000000000000000000000000000000000000000
310
0000000000000000000000000000000000000000000000000000000000000000
310
0000000000000000000000000000000000000000000000000000000000000000
310
0000000000000000000000000000000000000000000000000000000000000000
310
0000000000000000000000000000000000000000000000000000000000000000
310
20260000424D0E260000000000003E00000028000000B40200006E0000000100
310
01000000000000000000130B0000130B00000200000002000000000000FFFFFF
310
FFFFFFFFFFFFFFFFFFFFFFFFFFFFFFFFFFFFFFFFFFFFFFFFFFFFFFFFFFFFFFFF
310
FFFFFFFFFFFFFFFFFFFFFFFFFFFFFFFFFFFFFFFFFFFFFFFFFFFFFFFFFFFFFFFF
310
FFFFFFFFFFFFFFFFFFFFFFFFFFFFFFFFFFFFFFFFFFFFFFFFF000FFFFFFFFFFFF
310
FFFFFFFFFFFFFFFFFFFFFFFFFFFFFFFFFFFFFFFFFFFFFFFFFFFFFFFFFFFFFFFF
310
FFFFFFFFFFFFFFFFFFFFFFFFFFFFFFFFFFFFFFFFFFFFFFFFFFFFFFFFFFFFFFFF
310
FFFFFFFFFFFFFFFFFFFFFFFFFFFFFFFFF000FFFFFFFFFFFFFFFFFFFFFFFFFFFF
310
FFFFFFFFFFFFFFFFFFFFFFFFFFFFFFFFFFFFFFFFFFFFFFFFFFFFFFFFFFFFFFFF
310
FFFFFFFFFFFFFFFFFFFFFFFFFFFFFFFFFFFFFFFFFFFFFFFFFFFFFFFFFFFFFFFF
310
FFFFFFFFFFFFFFFFF000FFFFFFFFFFFFFFFFFFFFFFFFFFFFFFFFFFFFFFFFFFFF
310
FFFFFFFFFFFFFFFFFFFFFFFFFFFFFFFFFFFFFFFFFFFFFFFFFFFFFFFFFFFFFFFF
310
FFFFFFFFFFFFFFFFFFFFFFFFFFFFFFFFFFFFFFFFFFFFFFFFFFFFFFFFFFFFFFFF
310
F000FFFFFFFFFFFFFFFFFFFFFFFFFFFFFFFFFFFFFFFFFFFFFFFFFFFFFFFFFFFF
310
FFFFFFFFFFFFFFFFFFFFFFFFFFFFFFFFFFFFFFFFFFFFFFFFFFFFFFFFFFFFFFFF
310
FFFFFFFFFFFFFFFFFFFFFFFFFFFFFFFFFFFFFFFFFFFFFFFFF000FFFFFFFFFFFF
310
FFFFFFFFFFFFFFFFFFFFFFFFFFFFFFFFFFFFFFFFFFFFFFFFFFFFFFFFFFFFFFFF
310
FFFFFFFFFFFFFFFFFFFFFFFFFFFFFFFFFFFFFFFFFFFFFFFFFFFFFFFFFFFFFFFF
310
FFFFFFFFFFFFFFFFFFFFFFFFFFFFFFFFF000FFFFFFFFFFFFFFFFFFFFFFFFFFFF
310
FFFFFFFFFFFFFFFFFFFFFFFFFFFFFFFFFFFFFFFFFFFFFFFFFFFFFFFFFFFFFFFF
310
FFFFFFFFFFFFFFFFFFFFFFFFFFFFFFFFFFFFFFFFFFFFFFFFFFFFFFFFFFFFFFFF
310
FFFFFFFFFFFFFFFFF000FFFFFFFFFFFFFFFFFFFFFFFFFFFFFFFFFFFFFFFFFFFF
310
FFFFFFFFFFFFFFFFFFFFFFFFFFFFFFFFFFFFFFFFFFFFFFFFFFFFFFFFFFFFFFFF
310
FFFFFFFFFFFFFFFFFFFFFFFFFFFFFFFFFFFFFFFFFFFFFFFFFFFFFFFFFFFFFFFF
310
F000FFFFFFFFFFFFFFFFFFFFFFFFFFFFFFFFFFFFFFFFFFFFFFFFFFFFFFFFFFFF
310
FFFFFFFFFFFFFFFFFFFFFFFFFFFFFFFFFFFFFFFFFFFFFFFFFFFFFFFFFFFFFFFF
310
FFFFFFFFFFFFFFFFFFFFFFFFFFFFFFFFFFFFFFFFFFFFFFFFF000FFFFFFFFFFFF
310
FFFFFFFFFFFFFFFFFFFFFFFFFFFFFFFFFFFFFFFFFFFFFFFFFFFFFFFFFFFFFFFF
310
FFFFFFFFFFFFFFFFFFFFFFFFFFFFFFFFFFFFFFFFFFFFFFFFFFFFFFFFFFFFFFFF
310
FFFFFFFFFFFFFFFFFFFFFFFFFFFFFFFFF000FFFFFFFFFFFFFFFFFFFFFFFFFFFF
310
FFFFFFFFFFFFFFFFFFFFFFFFFFFFFFFFFFFFFFFFFFFFFFFFFFFFFFFFFFFFFFFF
310
FFFFFFFFFFFFFFFFFFFFFFFFFFFFFFFFFFFFFFFFFFFFFFFFFFFFFFFFFFFFFFFF
310
FFFFFFFFFFFFFFFFF000FFFFFFFFFFFFFFFFFFFFFFFFFFFFFFFFFFFFFFFFFFFF
310
FFFFFFFFFFFFFFFFFFFFFFFFFFFFFFFFFFFFFFFFFFFFFFFFFFFFFFFFFFFFFFFF
310
FFFFFFFFFFFFFFFFFFFFFFFFFFFFFFFFFFFFFFFFFFFFFFFFFFFFFFFFFFFFFFFF
310
F000FFFFFFFFFFFFFFFFFFFFFFFFFFFFFFFFFFFFFFFFFFFFFFFFFFFFFFFFFFFF
310
FFFFFFFFFFFFFFFFFFFFFFFFFFFFFFFFFFFFFFFFFFFFFFFFFFFFFFFFFFFFFFFF
310
FFFFFFFFFFFFFFFFFFFFFFFFFFFFFFFFFFFFFFFFFFFFFFFFF000FFFFFFFFFFFF
310
FFFFFFFFFFFFFFFFFFFFFFFFFFFFFFFFFFFFFFFFFFFFFFFFFFFFFFFFFFFFFFFF
310
FFFFFFFFFFFFFFFFFFFFFFFFFFFFFFFFFFFFFFFFFFFFFFFFFFFFFFFFFFFFFFFF
310
FFFFFFFFFFFFFFFFFFFFFFFFFFFFFFFFF000FFFFFFFFFFFFFFFFFFFFFFFFFFFF
310
FFFFFFFFFFFFFFFFFFFFFFFFFFFFFFFFFFFFFFFFFFFFFFFFFFFFFFFFFFFFFFFF
310
FFFFFFFFFFFFFFFFFFFFFFFFFFFFFFFFFFFFFFFFFFFFFFFFFFFFFFFFFFFFFFFF
310
FFFFFFFFFFFFFFFFF000FFFFFFFFFFFFFFFFFFFFFFFFFFFFFFFFFFFFFFFFFFFF
310
FFFFFFFFFFFFFFFFFFFFFFFFFFFFFFFFFFFFFFFFFFFFFFFFFFFFFFFFFFFFFFFF
310
FFFFFFFFFFFFFFFFFFFFFFFFFFFFFFFFFFFFFFFFFFFFFFFFFFFFFFFFFFFFFFFF
310
F000FFFFFFFFFFFFFFFFFFFFFFFFFFFFFFFFFFFFFFFFFFFFFFFFFFFFFFFFFFFF
310
FFFFFFFFFFFFFFFFFFFFFFFFFFFFFFFFFFFFFFFFFFFFFFFFFFFFFFFFFFFFFFFF
310
FFFFFFFFFFFFFFFFFFFFFFFFFFFFFFFFFFFFFFFFFFFFFFFFF000FFFFFFFFFFFF
310
FFFFFFFFFFFFFFFFFFFFFFFFFFFFFFFFFFFFFFFFFFFFFFFFFFFFFFFFFFFFFFFF
310
FFFFFFFFFFFFFFFFFFFFFFFFFFFFFFFFFFFFFFFFFFFFFFFFFFFFFFFFFFFFFFFF
310
FFFFFFFFFFFFFFFFFFFFFFFFFFFFFFFFF000FFFFFFFFFFFFFFFFFFFFFFFFFFFF
310
FFFFFFFFFFFFFFFFFFFFFFFFFFFFFFFFFFFFFFFFFFFFFFFFFFFFFFFFFFFFFFFF
310
FFFFFFFFFFFFFFFFFFFFFFFFFFFFFFFFFFFFFFFFFFFFFFFFFFFFFFFFFFFFFFFF
310
FFFFFFFFFFFFFFFFF000FFFFF80003FFFFFFFFFFFFFFFFFFFFFFFFFFFFFFFFFF
310
FFFFF00007FFFFFFFFFF00007FFFFFF800000000000000007FFFFFFFFFFFFFFF
310
FFFFFFFC001FFFFFFFFFFFFFFC001FFFFFFFFFFFFFFFFFFFFFFFFFFE0007FFFF
310
F000FFFF8000007FFFFFFFF8000FFFFFC0007FFFFF80007FFFFF0000007FFFFF
310
FFF8000007FFFFF800000000000000007FFFFFF0001FFFFFFFFFFFC00001FFFF
310
FFFFFFFFC00001FFFFFFFF000000000003FFFFE000007FFFF000FFFE0000000F
310
FFFFFFF0000FFFFF80007FFFFF80007FFFFC0000001FFFFFFFC0000001FFFFF8
310
00000000000000007FFFFFF0001FFFFFFFFFFE0000003FFFFFFFFFFE0000003F
310
FFFFFF000000000003FFFF0000000FFFF000FFF800000003FFFFFFF00007FFFF
310
80007FFFFF80007FFFF000000007FFFFFF000000003FFFF80000000000000000
310
7FFFFFF0001FFFFFFFFFF80000000FFFFFFFFFF80000000FFFFFFF0000000000
310
03FFFC00000003FFF000FFE000000000FFFFFFF00007FFFF80003FFFFF80007F
310
FFC000000001FFFFFC000000001FFFF800000000000000007FFFFFF0001FFFFF
310
FFFFE000000003FFFFFFFFE000000003FFFFFF000000000003FFF000000000FF
310
F000FF80000000007FFFFFF00007FFFF80003FFFFF80007FFF8000000000FFFF
310
F80000000007FFF800000000000000007FFFFFF0001FFFFFFFFFC000000001FF
310
FFFFFFC000000001FFFFFF000000000003FFC0000000007FF000FF0000000000
310
3FFFFFE00007FFFF00003FFFFF80007FFE00000000003FFFF00000000003FFF8
310
00000000000000007FFFFFF0001FFFFFFFFF8000000000FFFFFFFF8000000000
310
FFFFFF000000000003FF80000000003FF000FE00000000001FFFFFE00003FFFF
310
00003FFFFF80007FFC00000000001FFFE00000000001FFF8000001FFFE000000
310
7FFFFFF0001FFFFFFFFE00000000003FFFFFFE00000000003FFFFF0000000000
310
03FF00000000001FF000FC00000000000FFFFFE00003FFFF00001FFFFF80007F
310
F800000000001FFFC00000000000FFF8000001FFFE0000007FFFFFF0001FFFFF
310
FFFC00000000001FFFFFFC00000000001FFFFF000000000003FE00000000000F
310
F000F8000000000007FFFFE00003FFFF00001FFFFF80007FF800000000000FFF
310
800000000000FFF8000001FFFE0000007FFFFFF0001FFFFFFFF800000000000F
310
FFFFF800000000000FFFFF000000000003FC000000000007F000F80000000000
310
03FFFFC00003FFFE00001FFFFF80007FF0000000000007FF0000000000007FF8
310
000001FFFE0000007FFFFFF0001FFFFFFFF0000000000007FFFFF00000000000
310
07FFFF000000000003F8000000000003F000F0000000000003FFFFC00001FFFE
310
00001FFFFF80007FE0000000000007FE0000000000003FF8000001FFFE000000
310
7FFFFFF0001FFFFFFFF0000000000007FFFFF0000000000007FFFF0000000000
310
03F800001F800003F000E00001FFF00001FFFFC00001FFFE00000FFFFF80007F
310
E00001FFE00003FE00001FFF00003FF8000001FFFE0000007FFFFFF0001FFFFF
310
FFE000003E000003FFFFE000003E000003FFFF000000000003F00001FFF80001
310
F000E00007FFFC0001FFFFC00001FFFE00000FFFFF80007FC0000FFFFC0003FC
310
0000FFFFC0001FF8000001FFFE0000007FFFFFF0001FFFFFFFC00003FFE00001
310
FFFFC00003FFE00001FFFF0001FFFFFFFFF00007FFFE0001F000E0000FFFFF00
310
00FFFF800001FFFC00000FFFFF80007FC0001FFFFE0001FC0001FFFFE0001FF8
310
000001FFFE0000007FFFFFF0001FFFFFFF80000FFFF80000FFFF80000FFFF800
310
00FFFF0003FFFFFFFFE0000FFFFF8000F000C0003FFFFF8000FFFF800000FFFC
310
000007FFFF80007F80003FFFFF0001FC0003FFFFF0001FF8000001FFFE000000
310
7FFFFFF0001FFFFFFF80003FFFFE0000FFFF80003FFFFE0000FFFF0003FFFFFF
310
FFE0003FFFFF8000F000C0003FFFFF8000FFFF800000FFFC000007FFFF80007F
310
80007FFFFF8001F80007FFFFF8000FF8000001FFFE0000007FFFFFF0001FFFFF
310
FF00007FFFFF00007FFF00007FFFFF00007FFF0003FFFFFFFFE0003FFFFFC000
310
F000C0007FFFFFC000FFFF000000FFFC000007FFFF80007F8000FFFFFF8000F8
310
000FFFFFF8000FF8000001FFFE0000007FFFFFF0001FFFFFFF0000FFFFFF8000
310
7FFF0000FFFFFF80007FFF0003FFFFFFFFC0007FFFFFC00070008000FFFFFFC0
310
00FFFF000000FFF8000007FFFF80007F8000FFFFFF8000F8000FFFFFF8000FF8
310
000001FFFE0000007FFFFFF0001FFFFFFE0001FFFFFFC0003FFE0001FFFFFFC0
310
003FFF0003FFFFFFFFC0007FFFFFE00070008000FFFFFFC0007FFF0000007FF8
310
000003FFFF80007F0001FFFFFF8000F8000FFFFFF8000FF8000001FFFE000000
310
7FFFFFF0001FFFFFFE0001FFFFFFC0003FFE0001FFFFFFC0003FFF0003FFFFFF
310
FFC000FFFFFFE00070008000FFFFFFC0007FFF0000007FF8000003FFFF80007F
310
0001FFFFFF8000F8001FFFFFF8000FF8000001FFFE0000007FFFFFF0001FFFFF
310
FE0003FFFFFFE0003FFE0003FFFFFFE0003FFF0003FFFFFFFFC000FFFFFFE000
310
70008000FFFFFFC0007FFE0000007FF8000003FFFF80007F0001FFFFFF8000F0
310
001FFFFFF8000FF8000001FFFE0000007FFFFFF0001FFFFFFC0003FFFFFFE000
310
1FFC0003FFFFFFE0001FFF0003FFFFFFFFC000FFFFFFC00070008000FFFFFF80
310
007FFE0000007FF0000003FFFF80007F0001FFFFFF0000F0001FFFFFF8000FF8
310
000001FFFE0000007FFFFFF0001FFFFFFC0007FFFFFFF0001FFC0007FFFFFFF0
310
001FFF0003FFFFFFFFC000FFFFFFC00070008001FFFFFF0000FFFE0000003FF0
310
000001FFFF80007F0001FFFFFF0000F8001FFFFFF0000FF8000001FFFE000000
310
7FFFFFF0001FFFFFFC0007FFFFFFF0001FFC0007FFFFFFF0001FFF0003FFFFFF
310
FFC001FFFFFF80007000FFFFFFFFFE0000FFFE0008003FF0008001FFFF80007F
310
FFFFFFFFFC0000FFFFFFFFFFE0000FF8000001FFFE0000007FFFFFF0001FFFFF
310
F8000FFFFFFFF8000FF8000FFFFFFFF8000FFF0003FFFFFFFFFFFFFFFFFF0000
310
7000FFFFFFFFFC0000FFFC0008003FF0008001FFFF80007FFFFFFFFFF80001FF
310
FFFFFFFF80000FF8000001FFFE0000007FFFFFF0001FFFFFF8000FFFFFFFF800
310
0FF8000FFFFFFFF8000FFF0003FFFFFFFFFFFFFFFFFE0000F000FFFFFFFFE000
310
00FFFC000C003FE000C001FFFF80007FFFFFFFFFC00001FFFFFFFFFE00001FF8
310
000001FFFE0000007FFFFFF0001FFFFFF8000FFFFFFFF8000FF8000FFFFFFFF8
310
000FFF0003FFFFFFFFFFFFFFFFF00000F000FFFFFFFE000001FFFC000C001FE0
310
00C000FFFF80007FFFFFFFFE000001FFFFFFFFE000001FF80FFFFFFFFFFFFFC0
310
7FFFFFF0001FFFFFF8000FFFFFFFF8000FF8000FFFFFFFF8000FFF0003FFFFFF
310
FFFFFFFFFF800000F000FFFFFFC0000001FFFC001C001FE001C000FFFF80007F
310
FFFFFF80000003FFFFFFF80000001FF80FFFFFFFFFFFFFC07FFFFFF0001FFFFF
310
F8001FFFFFFFFC000FF8001FFFFFFFFC000FFF0003FFFFFFFFFFFFFFF0000001
310
F000FFFFF800000001FFF8001C001FE001C000FFFF80007FFFFFF800000003FF
310
FFFF800000003FF80FFFFFFFFFFFFFC07FFFFFF0001FFFFFF8001FFFFFFFFC00
310
0FF8001FFFFFFFFC000FFF0003FFFFFFFFFFFFFE00000001F000FFFFC0000000
310
03FFF8001E001FC001E000FFFF80007FFFFF8000000007FFFFFC000000003FF8
310
0FFFFFFFFFFFFFC07FFFFFF0001FFFFFF8001FFFFFFFFC000FF8001FFFFFFFFC
310
000FFF0003FFFFFFFFFFFFE000000003F000FFFE0000000007FFF8001E000FC0
310
01E0007FFF80007FFFFE0000000007FFFFE0000000007FF80FFFFFFFFFFFFFC0
310
7FFFFFF0001FFFFFF0001FFFFFFFFC0007F0001FFFFFFFFC0007FF0003FFFFFF
310
FFFFFF0000000003F000FFF80000000007FFF8001E000FC003E0007FFF80007F
310
FFF0000000000FFFFF8000000000FFF80FFFFFFFFFFFFFC07FFFFFF0001FFFFF
310
F0001FFFFFFFFC0007F0001FFFFFFFFC0007FF0003FFFFFFFFFFFC0000000007
310
F000FFE0000000000FFFF0003E000FC003E0007FFF80007FFFC0000000001FFF
310
FE0000000001FFF80FFFFFFFFFFFFFC07FFFFFF0001FFFFFF0001FFFFFFFFC00
310
07F0001FFFFFFFFC0007FF0003FFFFFFFFFFF0000000000FF000FFC000000000
310
1FFFF0003F000F8003F0003FFF80007FFF80000000003FFFF80000000003FFF8
310
0FFFFFFFFFFFFFC07FFFFFF0001FFFFFF0001FFFFFFFFC0007F0001FFFFFFFFC
310
0007FF0003FFFFFFFFFFE0000000001FF000FF00000000007FFFF0003F000780
310
03F0003FFF80007FFF00000000007FFFF00000000007FFF80FFFFFFFFFFFFFC0
310
7FFFFFF0001FFFFFF0001FFFFFFFFC0007F0001FFFFFFFFC0007FF0003FFFFFF
310
FFFF80000000007FF000FE0000000000FFFFE0003F00078007F0003FFF80007F
310
FE0000000001FFFFE0000000001FFFF80FFFFFFFFFFFFFC07FFFFFF0001FFFFF
310
F0001FFFFFFFFC0007F0001FFFFFFFFC0007FF0003FFFFFFFFFF0000000000FF
310
F000FC0000000003FFFFE0007F00078007F0003FFF80007FFC0000000007FFFF
310
C0000000007FFFF80FFFFFFFFFFFFFC07FFFFFF0001FFFFFF8001FFFFFFFFC00
310
0FF8001FFFFFFFFC000FFF0003FFFFFFFFFE0000000003FFF000FC000000000F
310
FFFFE0007F80070007F8001FFF80007FF8000000001FFFFF8000000001FFFFF8
310
0FFFFFFFFFFFFFC07FFFFFF0001FFFFFF8001FFFFFFFFC000FF8001FFFFFFFFC
310
000FFF0003FFFFFFFFFC000000000FFFF000F8000000007FFFFFE0007F800700
310
07F8001FFF80007FF000000000FFFFFF800000000FFFFFF80FFFFFFFFFFFFFC0
310
7FFFFFF0001FFFFFF8000FFFFFFFF8000FF8000FFFFFFFF8000FFF0003FFFFFF
310
FFFC000000007FFFF000F800000007FFFFFFC0007F8003000FF8001FFF80007F
310
F000000007FFFFFF000000007FFFFFF80FFFFFFFFFFFFFC07FFFFFF0001FFFFF
310
F8000FFFFFFFF8000FF8000FFFFFFFF8000FFF0003FFFFFFFFF80000000FFFFF
310
F000F0000000FFFFFFFFC000FF8003000FF8001FFF80007FE0000000FFFFFFFF
310
0000000FFFFFFFF8000001FFFE0000007FFFFFF0001FFFFFF8000FFFFFFFF800
310
0FF8000FFFFFFFF8000FFF0003FFFFFFFFF8000000FFFFFFF000F000000FFFFF
310
FFFFC000FFC002000FF8000FFF80007FE000001FFFFFFFFE000001FFFFFFFFF8
310
000001FFFE0000007FFFFFF0001FFFFFF8000FFFFFFFF8000FF8000FFFFFFFF8
310
000FFF0003FFFFFFFFF000001FFFFFFFF000E00000FFFFFFFFFFC000FFC00200
310
0FFC000FFF80007FE00001FFFFFFFFFE00001FFFFFFFFFF8000001FFFE000000
310
7FFFFFF0001FFFFFFC000FFFFFFFF8001FFC000FFFFFFFF8001FFF0003FFFFFF
310
FFF00001FFFFFFFFF000E00007FFFFFFFFFF8000FFC000001FFC000FFF80007F
310
C0000FFFFFFFFFFE0000FFFFFFFFFFF8000001FFFE0000007FFFFFF0001FFFFF
310
FC0007FFFFFFF0001FFC0007FFFFFFF0001FFF0003FFFFFFFFF00007FFFFFFFF
310
F000E0001FFFFFFFFFFF8000FFC000001FFC000FFF80007FC0003FFFFFFFFFFE
310
0001FFFFFFFFFFF8000001FFFE0000007FFFFFF0001FFFFFFC0007FFFFFFF000
310
1FFC0007FFFFFFF0001FFF0003FFFFFFFFF0001FFFFFFFFFF000E0003FFFFF00
310
03FF8001FFE000001FFC0007FF80007FC0007FFFFF0007FC0003FFFFF0003FF8
310
000001FFFE0000007FFFFFF0001FFFFFFC0003FFFFFFE0001FFC0003FFFFFFE0
310
001FFF0003FFFFFFFFF0003FFFFFFFFFF000E0003FFFFF0001FF8001FFE00000
310
1FFE0007FF80007FC0007FFFFE0003FC0007FFFFE0003FF8000001FFFE000000
310
7FFFFFF0001FFFFFFE0003FFFFFFE0003FFE0003FFFFFFE0003FFF0003FFFFFF
310
FFF0003FFFFF8001F000E0003FFFFF0001FF0001FFE000001FFE0007FF80007F
310
C0007FFFFE0003FC0007FFFFE0003FF8000001FFFE0000007FFFFFF0001FFFFF
310
FE0001FFFFFFC0003FFE0001FFFFFFC0003FFF0003FFFFFFFFF0003FFFFF0001
310
F000E0003FFFFF0003FF0001FFE000003FFE0007FF80007FC0007FFFFE0003FC
310
0007FFFFE0003FF8000001FFFE0000007FFFFFF0001FFFFFFF0001FFFFFFC000
310
7FFF0001FFFFFFC0007FFF0003FFFFFFFFF0003FFFFF0001F000E0003FFFFE00
310
03FF0003FFF000003FFE0003FF80007FC0007FFFFC0003FE0007FFFFE0003FF8
310
000001FFFE0000007FFFFFF0001FFFFFFF0000FFFFFF80007FFF0000FFFFFF80
310
007FFF0003FFFFFFFFF0003FFFFF0001F000E0003FFFFE0003FF0003FFF00000
310
3FFF0003FF80007FC0007FFFFC0007FE0007FFFFC0003FF8000001FFFE000000
310
7FFFFFF0001FFFFFFF80007FFFFF0000FFFF80007FFFFF0000FFFF0003FFFFFF
310
FFF0003FFFFF0003F000E0003FFFFC0003FE0003FFF000003FFF0003FF80007F
310
E0003FFFF80007FE0003FFFFC0007FF8000001FFFE0000007FFFFFF0001FFFFF
310
FF80003FFFFE0000FFFF80003FFFFE0000FFFF0003FFFFFFFFF0001FFFFE0003
310
F000F0001FFFF80003FE0003FFF000007FFF0001FF80007FE0003FFFF00007FE
310
0001FFFF80007FF8000001FFFE0000007FFFFFF0001FFFFFFFC0000FFFF80001
310
FFFFC0000FFFF80001FFFF0003FFFFFFFFF0001FFFFC0003F000F0000FFFF000
310
07FE0007FFF800007FFF0001FF80007FE0001FFFE00007FF0000FFFE00007FF8
310
000001FFFE0000007FFFFFF0001FFFFFFFC00003FFE00001FFFFC00003FFE000
310
01FFFF0003FFFFFFFFF8000FFFF80003F000F00003FFC00007FC0007FFF80000
310
7FFF8001FF80007FF00007FF80000FFF00007FF80000FFF8000001FFFE000000
310
7F80000000000001FFE000003E000003FFFFE000003E000003FFFF0003FFFFFF
310
FFF80003FFE00007F000F800000000000FFC0007FFF800007FFF8001FF80007F
310
F000000000000FFF000000000000FFF8000001FFFE0000007F80000000000001
310
FFF0000000000007FFFFF0000000000007FFFF0003FFFFFFFFFC00007E000007
310
F000F800000000000FFC0007FFF80000FFFF8000FF80007FF800000000001FFF
310
800000000001FFF8000001FFFE0000007F80000000000001FFF800000000000F
310
FFFFF800000000000FFFFF0003FFFFFFFFFC00000000000FF000FC0000000000
310
1FFC0007FFFC0000FFFF8000FF80007FF800000000003FFFC00000000001FFF8
310
000001FFFE0000007F80000000000001FFF800000000000FFFFFF80000000000
310
0FFFFF0003FFFFFFFFFE00000000001FF000FE00000000003FF8000FFFFC0000
310
FFFF8000FF80007FFC00000000003FFFC00000000003FFF8000001FFFE000000
310
7F80000000000001FFFC00000000001FFFFFFC00000000001FFFFF0003FFFFFF
310
FFFF00000000001FF000FF00000000003FF8000FFFFC0000FFFFC000FF80007F
310
FE00000000007FFFE00000000007FFF8000001FFFE0000007F80000000000001
310
FFFE00000000003FFFFFFE00000000003FFFFF0003FFFFFFFFFF80000000003F
310
F000FF80000000007FF8000FFFFC0001FFFFC0007F80007FFF0000000000FFFF
310
F0000000000FFFF800000000000000007F80000000000001FFFF8000000000FF
310
FFFFFF8000000000FFFFFF0003FFFFFFFFFFC0000000007FF000FFC000000000
310
FFF8000FFFFE0001FFFFC0007F80007FFF8000000001FFFFF8000000001FFFF8
310
00000000000000007F80000000000001FFFFC000000001FFFFFFFFC000000001
310
FFFFFF0003FFFFFFFFFFE000000000FFF000FFE000000003FFF0001FFFFE0001
310
FFFFC0007F80007FFFC000000007FFFFFE000000003FFFF80000000000000000
310
7F80000000000001FFFFE000000003FFFFFFFFE000000003FFFFFF0003FFFFFF
310
FFFFF000000003FFF000FFF80000000FFFF0001FFFFE0001FFFFE0007F80007F
310
FFF00000000FFFFFFF00000000FFFFF800000000000000007F80000000000001
310
FFFFF80000000FFFFFFFFFF80000000FFFFFFF0003FFFFFFFFFFFC0000000FFF
310
F000FFFE0000003FFFF0001FFFFE0003FFFFE0003F80007FFFFC0000003FFFFF
310
FFC0000003FFFFF800000000000000007F80000000000001FFFFFE0000003FFF
310
FFFFFFFE0000003FFFFFFF0003FFFFFFFFFFFF0000003FFFF000FFFF800000FF
310
FFF0001FFFFF0003FFFFE0003F80007FFFFF000001FFFFFFFFF800001FFFFFF8
310
00000000000000007F80000000000001FFFFFFC00001FFFFFFFFFFFFC00001FF
310
FFFFFF0003FFFFFFFFFFFFC00000FFFFF000FFFFF8000FFFFFFFFFFFFFFFFFFF
310
FFFFFFFFFFFFFFFFFFFFF0001FFFFFFFFFFF0000FFFFFFF80000000000000000
310
7FFFFFFFFFFFFFFFFFFFFFFC001FFFFFFFFFFFFFFC001FFFFFFFFFFFFFFFFFFF
310
FFFFFFFC001FFFFFF000FFFFFFFFFFFFFFFFFFFFFFFFFFFFFFFFFFFFFFFFFFFF
310
FFFFFFFFFFFFFFFFFFFFFFFFFFFFFFFFFFFFFFFFFFFFFFFFFFFFFFFFFFFFFFFF
310
FFFFFFFFFFFFFFFFFFFFFFFFFFFFFFFFFFFFFFFFFFFFFFFFFFFFFFFFFFFFFFFF
310
F000FFFFFFFFFFFFFFFFFFFFFFFFFFFFFFFFFFFFFFFFFFFFFFFFFFFFFFFFFFFF
310
FFFFFFFFFFFFFFFFFFFFFFFFFFFFFFFFFFFFFFFFFFFFFFFFFFFFFFFFFFFFFFFF
310
FFFFFFFFFFFFFFFFFFFFFFFFFFFFFFFFFFFFFFFFFFFFFFFFF000FFFFFFFFFFFF
310
FFFFFFFFFFFFFFFFFFFFFFFFFFFFFFFFFFFFFFFFFFFFFFFFFFFFFFFFFFFFFFFF
310
FFFFFFFFFFFFFFFFFFFFFFFFFFFFFFFFFFFFFFFFFFFFFFFFFFFFFFFFFFFFFFFF
310
FFFFFFFFFFFFFFFFFFFFFFFFFFFFFFFFF000FFFFFFFFFFFFFFFFFFFFFFFFFFFF
310
FFFFFFFFFFFFFFFFFFFFFFFFFFFFFFFFFFFFFFFFFFFFFFFFFFFFFFFFFFFFFFFF
310
FFFFFFFFFFFFFFFFFFFFFFFFFFFFFFFFFFFFFFFFFFFFFFFFFFFFFFFFFFFFFFFF
310
FFFFFFFFFFFFFFFFF000FFFFFFFFFFFFFFFFFFFFFFFFFFFFFFFFFFFFFFFFFFFF
310
FFFFFFFFFFFFFFFFFFFFFFFFFFFFFFFFFFFFFFFFFFFFFFFFFFFFFFFFFFFFFFFF
310
FFFFFFFFFFFFFFFFFFFFFFFFFFFFFFFFFFFFFFFFFFFFFFFFFFFFFFFFFFFFFFFF
310
F000FFFFFFFFFFFFFFFFFFFFFFFFFFFFFFFFFFFFFFFFFFFFFFFFFFFFFFFFFFFF
310
FFFFFFFFFFFFFFFFFFFFFFFFFFFFFFFFFFFFFFFFFFFFFFFFFFFFFFFFFFFFFFFF
310
FFFFFFFFFFFFFFFFFFFFFFFFFFFFFFFFFFFFFFFFFFFFFFFFF000FFFFFFFFFFFF
310
FFFFFFFFFFFFFFFFFFFFFFFFFFFFFFFFFFFFFFFFFFFFFFFFFFFFFFFFFFFFFFFF
310
FFFFFFFFFFFFFFFFFFFFFFFFFFFFFFFFFFFFFFFFFFFFFFFFFFFFFFFFFFFFFFFF
310
FFFFFFFFFFFFFFFFFFFFFFFFFFFFFFFFF000FFFFFFFFFFFFFFFFFFFFFFFFFFFF
310
FFFFFFFFFFFFFFFFFFFFFFFFFFFFFFFFFFFFFFFFFFFFFFFFFFFFFFFFFFFFFFFF
310
FFFFFFFFFFFFFFFFFFFFFFFFFFFFFFFFFFFFFFFFFFFFFFFFFFFFFFFFFFFFFFFF
310
FFFFFFFFFFFFFFFFF000FFFFFFFFFFFFFFFFFFFFFFFFFFFFFFFFFFFFFFFFFFFF
310
FFFFFFFFFFFFFFFFFFFFFFFFFFFFFFFFFFFFFFFFFFFFFFFFFFFFFFFFFFFFFFFF
310
FFFFFFFFFFFFFFFFFFFFFFFFFFFFFFFFFFFFFFFFFFFFFFFFFFFFFFFFFFFFFFFF
310
F000FFFFFFFFFFFFFFFFFFFFFFFFFFFFFFFFFFFFFFFFFFFFFFFFFFFFFFFFFFFF
310
FFFFFFFFFFFFFFFFFFFFFFFFFFFFFFFFFFFFFFFFFFFFFFFFFFFFFFFFFFFFFFFF
310
FFFFFFFFFFFFFFFFFFFFFFFFFFFFFFFFFFFFFFFFFFFFFFFFF000FFFFFFFFFFFF
310
FFFFFFFFFFFFFFFFFFFFFFFFFFFFFFFFFFFFFFFFFFFFFFFFFFFFFFFFFFFFFFFF
310
FFFFFFFFFFFFFFFFFFFFFFFFFFFFFFFFFFFFFFFFFFFFFFFFFFFFFFFFFFFFFFFF
310
FFFFFFFFFFFFFFFFFFFFFFFFFFFFFFFFF000FFFFFFFFFFFFFFFFFFFFFFFFFFFF
310
FFFFFFFFFFFFFFFFFFFFFFFFFFFFFFFFFFFFFFFFFFFFFFFFFFFFFFFFFFFFFFFF
310
FFFFFFFFFFFFFFFFFFFFFFFFFFFFFFFFFFFFFFFFFFFFFFFFFFFFFFFFFFFFFFFF
310
FFFFFFFFFFFFFFFFF000FFFFFFFFFFFFFFFFFFFFFFFFFFFFFFFFFFFFFFFFFFFF
310
FFFFFFFFFFFFFFFFFFFFFFFFFFFFFFFFFFFFFFFFFFFFFFFFFFFFFFFFFFFFFFFF
310
FFFFFFFFFFFFFFFFFFFFFFFFFFFFFFFFFFFFFFFFFFFFFFFFFFFFFFFFFFFFFFFF
310
F000FFFFFFFFFFFFFFFFFFFFFFFFFFFFFFFFFFFFFFFFFFFFFFFFFFFFFFFFFFFF
310
FFFFFFFFFFFFFFFFFFFFFFFFFFFFFFFFFFFFFFFFFFFFFFFFFFFFFFFFFFFFFFFF
310
FFFFFFFFFFFFFFFFFFFFFFFFFFFFFFFFFFFFFFFFFFFFFFFFF000FFFFFFFFFFFF
310
FFFFFFFFFFFFFFFFFFFFFFFFFFFFFFFFFFFFFFFFFFFFFFFFFFFFFFFFFFFFFFFF
310
FFFFFFFFFFFFFFFFFFFFFFFFFFFFFFFFFFFFFFFFFFFFFFFFFFFFFFFFFFFFFFFF
310
FFFFFFFFFFFFFFFFFFFFFFFFFFFFFFFFF000FFFFFFFFFFFFFFFFFFFFFFFFFFFF
310
FFFFFFFFFFFFFFFFFFFFFFFFFFFFFFFFFFFFFFFFFFFFFFFFFFFFFFFFFFFFFFFF
310
FFFFFFFFFFFFFFFFFFFFFFFFFFFFFFFFFFFFFFFFFFFFFFFFFFFFFFFFFFFFFFFF
310
FFFFFFFFFFFFFFFFF000FFFFFFFFFFFFFFFFFFFFFFFFFFFFFFFFFFFFFFFFFFFF
310
FFFFFFFFFFFFFFFFFFFFFFFFFFFFFFFFFFFFFFFFFFFFFFFFFFFFFFFFFFFFFFFF
310
FFFFFFFFFFFFFFFFFFFFFFFFFFFFFFFFFFFFFFFFFFFFFFFFFFFFFFFFFFFFFFFF
310
F000FFFFFFFFFFFFFFFFFFFFFFFFFFFFFFFFFFFFFFFFFFFFFFFFFFFFFFFFFFFF
310
FFFFFFFFFFFFFFFFFFFFFFFFFFFFFFFFFFFFFFFFFFFFFFFFFFFFFFFFFFFFFFFF
310
FFFFFFFFFFFFFFFFFFFFFFFFFFFFFFFFFFFFFFFFFFFFFFFFF000FFFFFFFFFFFF
310
FFFFFFFFFFFFFFFFFFFFFFFFFFFFFFFFFFFFFFFFFFFFFFFFFFFFFFFFFFFFFFFF
310
FFFFFFFFFFFFFFFFFFFFFFFFFFFFFFFFFFFFFFFFFFFFFFFFFFFFFFFFFFFFFFFF
310
FFFFFFFFFFFFFFFFFFFFFFFFFFFFFFFFF000FFFFFFFFFFFFFFFFFFFFFFFFFFFF
310
FFFFFFFFFFFFFFFFFFFFFFFFFFFFFFFFFFFFFFFFFFFFFFFFFFFFFFFFFFFFFFFF
310
FFFFFFFFFFFFFFFFFFFFFFFFFFFFFFFFFFFFFFFFFFFFFFFFFFFFFFFFFFFFFFFF
310
FFFFFFFFFFFFFFFFF000FFFFFFFFFFFFFFFFFFFFFFFFFFFFFFFFFFFFFFFFFFFF
310
FFFFFFFFFFFFFFFFFFFFFFFFFFFFFFFFFFFFFFFFFFFFFFFFFFFFFFFFFFFFFFFF
310
FFFFFFFFFFFFFFFFFFFFFFFFFFFFFFFFFFFFFFFFFFFFFFFFFFFFFFFFFFFFFFFF
310
F000FFFFFFFFFFFFFFFFFFFFFFFFFFFFFFFFFFFFFFFFFFFFFFFFFFFFFFFFFFFF
310
FFFFFFFFFFFFFFFFFFFFFFFFFFFFFFFFFFFFFFFFFFFFFFFFFFFFFFFFFFFFFFFF
310
FFFFFFFFFFFFFFFFFFFFFFFFFFFFFFFFFFFFFFFFFFFFFFFFF000FFFFFFFFFFFF
310
FFFFFFFFFFFFFFFFFFFFFFFFFFFFFFFFFFFFFFFFFFFFFFFFFFFFFFFFFFFFFFFF
310
FFFFFFFFFFFFFFFFFFFFFFFFFFFFFFFFFFFFFFFFFFFFFFFFFFFFFFFFFFFFFFFF
310
FFFFFFFFFFFFFFFFFFFFFFFFFFFFFFFFF0000000000000000000000000000000
310
0000000000000000000000000000000000000000000000000000000000000000
310
0000000000000000000000000000000000000000000000000000000000000000
310
0000000000000000000000000000000000000000000000000000000000000000
310
0000000000000000000000000000000000000000000000000000000000000000
310
0000000000000000000000000000000000000000000000000000000000000000
310
0000000000000000000000000000000000000000000000000000000000000000
310
0000000000000000000000000000000000000000000000000000000000000000
310
0000000000000000000000000000000000000000000000000000000000000000
310
0000000000000000000000000000000000000000000000000000000000000000
310
0000000000000000000000000000000000000000000000000000000000000000
310
0000000000000000000000000000000000000000000000000000000000000000
310
0000000000000000000000000000000000000000000000000000000000000000
310
0000000000000000000000000000000000000000000000000000000000000000
310
0000000000000000000000000000000000000000000000000000000000000000
310
0000000000000000000000000000000000000000000000000000000000000000
  1
OLE
  0
ENDSEC
  0
SECTION
  2
OBJECTS
  0
DICTIONARY
  5
C
330
0
100
AcDbDictionary
281
     1
  3
ACAD_GROUP
350
D
  3
ACAD_LAYOUT
350
1A
  3
ACAD_MLINESTYLE
350
17
  3
ACAD_PLOTSETTINGS
350
19
  3
ACAD_PLOTSTYLENAME
350
E
  3
ACAD_SCALELIST
350
47
  0
DICTIONARY
  5
D
102
{ACAD_REACTORS
330
C
102
}
330
C
100
AcDbDictionary
281
     1
  0
DICTIONARY
  5
1A
102
{ACAD_REACTORS
330
C
102
}
330
C
100
AcDbDictionary
281
     1
  3
Layout1
350
1E
  3
Layout2
350
26
  3
Model
350
22
  0
DICTIONARY
  5
17
102
{ACAD_REACTORS
330
C
102
}
330
C
100
AcDbDictionary
281
     1
  3
Standard
350
18
  0
DICTIONARY
  5
19
102
{ACAD_REACTORS
330
C
102
}
330
C
100
AcDbDictionary
281
     1
  0
ACDBDICTIONARYWDFLT
  5
E
102
{ACAD_REACTORS
330
C
102
}
330
C
100
AcDbDictionary
281
     1
  3
Normal
350
F
100
AcDbDictionaryWithDefault
340
F
  0
DICTIONARY
  5
47
102
{ACAD_REACTORS
330
C
102
}
330
C
100
AcDbDictionary
281
     1
  3
A0
350
48
  3
A1
350
49
  3
A2
350
4A
  3
A3
350
4B
  3
A4
350
4C
  3
A5
350
4D
  3
A6
350
4E
  3
A7
350
4F
  3
A8
350
50
  3
A9
350
51
  3
B0
350
52
  3
B1
350
53
  3
B2
350
54
  3
B3
350
55
  3
B4
350
56
  3
B5
350
57
  3
B6
350
58
  3
B7
350
59
  3
B8
350
5A
  3
B9
350
5B
  3
C0
350
5C
  3
C1
350
5D
  3
C2
350
5E
  3
C3
350
5F
  3
C4
350
60
  3
C5
350
61
  3
C6
350
62
  3
C7
350
63
  3
C8
350
64
  3
C9
350
65
  3
D0
350
66
  3
D1
350
67
  3
D2
350
68
  0
LAYOUT
  5
1E
102
{ACAD_REACTORS
330
1A
102
}
330
1A
100
AcDbPlotSettings
  1

  2
none_device
  4

  6

 40
0.0
 41
0.0
 42
0.0
 43
0.0
 44
0.0
 45
0.0
 46
0.0
 47
0.0
 48
0.0
 49
0.0
140
0.0
141
0.0
142
1.0
143
1.0
 70
   688
 72
     1
 73
     0
 74
     5
  7

 75
    16
147
1.0
148
0.0
149
0.0
100
AcDbLayout
  1
Layout1
 70
     1
 71
     1
 10
0.0
 20
0.0
 11
420.0
 21
297.0
 12
0.0
 22
0.0
 32
0.0
 14
1.0000000000E+20
 24
1.0000000000E+20
 34
1.0000000000E+20
 15
-1.0000000000E+20
 25
-1.0000000000E+20
 35
-1.0000000000E+20
146
0.0
 13
0.0
 23
0.0
 33
0.0
 16
1.0
 26
0.0
 36
0.0
 17
0.0
 27
1.0
 37
0.0
 76
     0
330
1B
  0
LAYOUT
  5
26
102
{ACAD_REACTORS
330
1A
102
}
330
1A
100
AcDbPlotSettings
  1

  2
none_device
  4

  6

 40
0.0
 41
0.0
 42
0.0
 43
0.0
 44
0.0
 45
0.0
 46
0.0
 47
0.0
 48
0.0
 49
0.0
140
0.0
141
0.0
142
1.0
143
1.0
 70
   688
 72
     1
 73
     0
 74
     5
  7

 75
    16
147
1.0
148
0.0
149
0.0
100
AcDbLayout
  1
Layout2
 70
     1
 71
     2
 10
0.0
 20
0.0
 11
0.0
 21
0.0
 12
0.0
 22
0.0
 32
0.0
 14
0.0
 24
0.0
 34
0.0
 15
0.0
 25
0.0
 35
0.0
146
0.0
 13
0.0
 23
0.0
 33
0.0
 16
1.0
 26
0.0
 36
0.0
 17
0.0
 27
1.0
 37
0.0
 76
     0
330
23
  0
LAYOUT
  5
22
102
{ACAD_REACTORS
330
1A
102
}
330
1A
100
AcDbPlotSettings
  1

  2
none_device
  4
Letter_(8.50_x_11.00_Inches)
  6

 40
6.35
 41
6.35
 42
6.35000508
 43
6.35000508
 44
215.9
 45
279.4
 46
0.0
 47
0.0
 48
0.0
 49
0.0
140
0.0
141
0.0
142
1.0
143
1.0
 70
  1712
 72
     1
 73
     0
 74
     0
  7

 75
     0
147
1.0
148
0.0
149
0.0
100
AcDbLayout
  1
Model
 70
     1
 71
     0
 10
0.0
 20
0.0
 11
297.0
 21
210.0
 12
0.0
 22
0.0
 32
0.0
 14
0.0
 24
0.0
 34
0.0
 15
297.0
 25
210.0
 35
0.0
146
0.0
 13
0.0
 23
0.0
 33
0.0
 16
1.0
 26
0.0
 36
0.0
 17
0.0
 27
1.0
 37
0.0
 76
     0
330
1F
331
29
  0
MLINESTYLE
  5
18
102
{ACAD_REACTORS
330
17
102
}
330
17
100
AcDbMlineStyle
  2
Standard
 70
     0
  3

 62
   256
 51
90.0
 52
90.0
 71
     2
 49
0.5
 62
   256
  6
BYLAYER
 49
-0.5
 62
   256
  6
BYLAYER
  0
ACDBPLACEHOLDER
  5
F
102
{ACAD_REACTORS
330
E
102
}
330
E
  0
SCALE
  5
48
102
{ACAD_REACTORS
330
47
102
}
330
47
100
AcDbScale
 70
     0
300
1:1
140
1.0
141
1.0
290
     1
  0
SCALE
  5
49
102
{ACAD_REACTORS
330
47
102
}
330
47
100
AcDbScale
 70
     0
300
1:2
140
1.0
141
2.0
290
     0
  0
SCALE
  5
4A
102
{ACAD_REACTORS
330
47
102
}
330
47
100
AcDbScale
 70
     0
300
1:4
140
1.0
141
4.0
290
     0
  0
SCALE
  5
4B
102
{ACAD_REACTORS
330
47
102
}
330
47
100
AcDbScale
 70
     0
300
1:5
140
1.0
141
5.0
290
     0
  0
SCALE
  5
4C
102
{ACAD_REACTORS
330
47
102
}
330
47
100
AcDbScale
 70
     0
300
1:8
140
1.0
141
8.0
290
     0
  0
SCALE
  5
4D
102
{ACAD_REACTORS
330
47
102
}
330
47
100
AcDbScale
 70
     0
300
1:10
140
1.0
141
10.0
290
     0
  0
SCALE
  5
4E
102
{ACAD_REACTORS
330
47
102
}
330
47
100
AcDbScale
 70
     0
300
1:16
140
1.0
141
16.0
290
     0
  0
SCALE
  5
4F
102
{ACAD_REACTORS
330
47
102
}
330
47
100
AcDbScale
 70
     0
300
1:20
140
1.0
141
20.0
290
     0
  0
SCALE
  5
50
102
{ACAD_REACTORS
330
47
102
}
330
47
100
AcDbScale
 70
     0
300
1:30
140
1.0
141
30.0
290
     0
  0
SCALE
  5
51
102
{ACAD_REACTORS
330
47
102
}
330
47
100
AcDbScale
 70
     0
300
1:40
140
1.0
141
40.0
290
     0
  0
SCALE
  5
52
102
{ACAD_REACTORS
330
47
102
}
330
47
100
AcDbScale
 70
     0
300
1:50
140
1.0
141
50.0
290
     0
  0
SCALE
  5
53
102
{ACAD_REACTORS
330
47
102
}
330
47
100
AcDbScale
 70
     0
300
1:100
140
1.0
141
100.0
290
     0
  0
SCALE
  5
54
102
{ACAD_REACTORS
330
47
102
}
330
47
100
AcDbScale
 70
     0
300
2:1
140
2.0
141
1.0
290
     0
  0
SCALE
  5
55
102
{ACAD_REACTORS
330
47
102
}
330
47
100
AcDbScale
 70
     0
300
4:1
140
4.0
141
1.0
290
     0
  0
SCALE
  5
56
102
{ACAD_REACTORS
330
47
102
}
330
47
100
AcDbScale
 70
     0
300
8:1
140
8.0
141
1.0
290
     0
  0
SCALE
  5
57
102
{ACAD_REACTORS
330
47
102
}
330
47
100
AcDbScale
 70
     0
300
10:1
140
10.0
141
1.0
290
     0
  0
SCALE
  5
58
102
{ACAD_REACTORS
330
47
102
}
330
47
100
AcDbScale
 70
     0
300
100:1
140
100.0
141
1.0
290
     0
  0
SCALE
  5
59
102
{ACAD_REACTORS
330
47
102
}
330
47
100
AcDbScale
 70
     0
300
1/128" = 1'-0"
140
0.0078125
141
12.0
290
     0
  0
SCALE
  5
5A
102
{ACAD_REACTORS
330
47
102
}
330
47
100
AcDbScale
 70
     0
300
1/64" = 1'-0"
140
0.015625
141
12.0
290
     0
  0
SCALE
  5
5B
102
{ACAD_REACTORS
330
47
102
}
330
47
100
AcDbScale
 70
     0
300
1/32" = 1'-0"
140
0.03125
141
12.0
290
     0
  0
SCALE
  5
5C
102
{ACAD_REACTORS
330
47
102
}
330
47
100
AcDbScale
 70
     0
300
1/16" = 1'-0"
140
0.0625
141
12.0
290
     0
  0
SCALE
  5
5D
102
{ACAD_REACTORS
330
47
102
}
330
47
100
AcDbScale
 70
     0
300
3/32" = 1'-0"
140
0.09375
141
12.0
290
     0
  0
SCALE
  5
5E
102
{ACAD_REACTORS
330
47
102
}
330
47
100
AcDbScale
 70
     0
300
1/8" = 1'-0"
140
0.125
141
12.0
290
     0
  0
SCALE
  5
5F
102
{ACAD_REACTORS
330
47
102
}
330
47
100
AcDbScale
 70
     0
300
3/16" = 1'-0"
140
0.1875
141
12.0
290
     0
  0
SCALE
  5
60
102
{ACAD_REACTORS
330
47
102
}
330
47
100
AcDbScale
 70
     0
300
1/4" = 1'-0"
140
0.25
141
12.0
290
     0
  0
SCALE
  5
61
102
{ACAD_REACTORS
330
47
102
}
330
47
100
AcDbScale
 70
     0
300
3/8" = 1'-0"
140
0.375
141
12.0
290
     0
  0
SCALE
  5
62
102
{ACAD_REACTORS
330
47
102
}
330
47
100
AcDbScale
 70
     0
300
1/2" = 1'-0"
140
0.5
141
12.0
290
     0
  0
SCALE
  5
63
102
{ACAD_REACTORS
330
47
102
}
330
47
100
AcDbScale
 70
     0
300
3/4" = 1'-0"
140
0.75
141
12.0
290
     0
  0
SCALE
  5
64
102
{ACAD_REACTORS
330
47
102
}
330
47
100
AcDbScale
 70
     0
300
1" = 1'-0"
140
1.0
141
12.0
290
     0
  0
SCALE
  5
65
102
{ACAD_REACTORS
330
47
102
}
330
47
100
AcDbScale
 70
     0
300
1-1/2" = 1'-0"
140
1.5
141
12.0
290
     0
  0
SCALE
  5
66
102
{ACAD_REACTORS
330
47
102
}
330
47
100
AcDbScale
 70
     0
300
3" = 1'-0"
140
3.0
141
12.0
290
     0
  0
SCALE
  5
67
102
{ACAD_REACTORS
330
47
102
}
330
47
100
AcDbScale
 70
     0
300
6" = 1'-0"
140
6.0
141
12.0
290
     0
  0
SCALE
  5
68
102
{ACAD_REACTORS
330
47
102
}
330
47
100
AcDbScale
 70
     0
300
1'-0" = 1'-0"
140
12.0
141
12.0
290
     0
  0
ENDSEC
  0
EOF
