  0
SECTION
  2
HEADER
  9
$ACADVER
  1
AC1015
  9
$ACADMAINTVER
 70
     6
  9
$DWGCODEPAGE
  3
ANSI_1252
  9
$INSBASE
 10
0.0
 20
0.0
 30
0.0
  9
$EXTMIN
 10
0.0
 20
0.0
 30
0.0
  9
$EXTMAX
 10
297.0
 20
210.0
 30
0.0
  9
$LIMMIN
 10
0.0
 20
0.0
  9
$LIMMAX
 10
297.0
 20
210.0
  9
$ORTHOMODE
 70
     0
  9
$REGENMODE
 70
     1
  9
$FILLMODE
 70
     1
  9
$QTEXTMODE
 70
     0
  9
$MIRRTEXT
 70
     1
  9
$LTSCALE
 40
1.0
  9
$ATTMODE
 70
     1
  9
$TEXTSIZE
 40
2.0
  9
$TRACEWID
 40
1.0
  9
$TEXTSTYLE
  7
Standard
  9
$CLAYER
  8
0
  9
$CELTYPE
  6
ByLayer
  9
$CECOLOR
 62
   256
  9
$CELTSCALE
 40
1.0
  9
$DISPSILH
 70
     0
  9
$DIMSCALE
 40
1.0
  9
$DIMASZ
 40
3.0
  9
$DIMEXO
 40
0.0
  9
$DIMDLI
 40
3.75
  9
$DIMRND
 40
0.0
  9
$DIMDLE
 40
0.0
  9
$DIMEXE
 40
1.0
  9
$DIMTP
 40
0.0
  9
$DIMTM
 40
0.0
  9
$DIMTXT
 40
2.0
  9
$DIMCEN
 40
2.5
  9
$DIMTSZ
 40
0.0
  9
$DIMTOL
 70
     0
  9
$DIMLIM
 70
     0
  9
$DIMTIH
 70
     1
  9
$DIMTOH
 70
     1
  9
$DIMSE1
 70
     0
  9
$DIMSE2
 70
     0
  9
$DIMTAD
 70
     1
  9
$DIMZIN
 70
     0
  9
$DIMBLK
  1

  9
$DIMASO
 70
     1
  9
$DIMSHO
 70
     1
  9
$DIMPOST
  1

  9
$DIMAPOST
  1

  9
$DIMALT
 70
     0
  9
$DIMALTD
 70
     3
  9
$DIMALTF
 40
0.0393700787
  9
$DIMLFAC
 40
1.0
  9
$DIMTOFL
 70
     1
  9
$DIMTVP
 40
0.0
  9
$DIMTIX
 70
     0
  9
$DIMSOXD
 70
     0
  9
$DIMSAH
 70
     0
  9
$DIMBLK1
  1

  9
$DIMBLK2
  1

  9
$DIMSTYLE
  2
ISO-25
  9
$DIMCLRD
 70
     0
  9
$DIMCLRE
 70
     0
  9
$DIMCLRT
 70
     0
  9
$DIMTFAC
 40
1.0
  9
$DIMGAP
 40
1.524
  9
$DIMJUST
 70
     0
  9
$DIMSD1
 70
     0
  9
$DIMSD2
 70
     0
  9
$DIMTOLJ
 70
     0
  9
$DIMTZIN
 70
     0
  9
$DIMALTZ
 70
     0
  9
$DIMALTTZ
 70
     0
  9
$DIMUPT
 70
     0
  9
$DIMDEC
 70
     2
  9
$DIMTDEC
 70
     3
  9
$DIMALTU
 70
     2
  9
$DIMALTTD
 70
     3
  9
$DIMTXSTY
  7
Standard
  9
$DIMAUNIT
 70
     0
  9
$DIMADEC
 70
     2
  9
$DIMALTRND
 40
0.0
  9
$DIMAZIN
 70
     0
  9
$DIMDSEP
 70
    44
  9
$DIMATFIT
 70
     3
  9
$DIMFRAC
 70
     0
  9
$DIMLDRBLK
  1

  9
$DIMLUNIT
 70
     2
  9
$DIMLWD
 70
    -2
  9
$DIMLWE
 70
    -2
  9
$DIMTMOVE
 70
     0
  9
$LUNITS
 70
     2
  9
$LUPREC
 70
     2
  9
$SKETCHINC
 40
1.0
  9
$FILLETRAD
 40
10.0
  9
$AUNITS
 70
     0
  9
$AUPREC
 70
     2
  9
$MENU
  1
.
  9
$ELEVATION
 40
0.0
  9
$PELEVATION
 40
0.0
  9
$THICKNESS
 40
0.0
  9
$LIMCHECK
 70
     0
  9
$CHAMFERA
 40
0.0
  9
$CHAMFERB
 40
0.0
  9
$CHAMFERC
 40
0.0
  9
$CHAMFERD
 40
0.0
  9
$SKPOLY
 70
     0
  9
$TDCREATE
 40
2457669.409538519
  9
$TDUCREATE
 40
2457669.326205185
  9
$TDUPDATE
 40
2457669.409539942
  9
$TDUUPDATE
 40
2457669.326206609
  9
$TDINDWG
 40
0.0000000116
  9
$TDUSRTIMER
 40
0.0000000116
  9
$USRTIMER
 70
     1
  9
$ANGBASE
 50
0.0
  9
$ANGDIR
 70
     0
  9
$PDMODE
 70
     0
  9
$PDSIZE
 40
-1.0
  9
$PLINEWID
 40
0.0
  9
$SPLFRAME
 70
     0
  9
$SPLINETYPE
 70
     6
  9
$SPLINESEGS
 70
     8
  9
$HANDSEED
  5
26D
  9
$SURFTAB1
 70
     6
  9
$SURFTAB2
 70
     6
  9
$SURFTYPE
 70
     6
  9
$SURFU
 70
     6
  9
$SURFV
 70
     6
  9
$UCSBASE
  2

  9
$UCSNAME
  2

  9
$UCSORG
 10
0.0
 20
0.0
 30
0.0
  9
$UCSXDIR
 10
1.0
 20
0.0
 30
0.0
  9
$UCSYDIR
 10
0.0
 20
1.0
 30
0.0
  9
$UCSORTHOREF
  2

  9
$UCSORTHOVIEW
 70
     0
  9
$UCSORGTOP
 10
0.0
 20
0.0
 30
0.0
  9
$UCSORGBOTTOM
 10
0.0
 20
0.0
 30
0.0
  9
$UCSORGLEFT
 10
0.0
 20
0.0
 30
0.0
  9
$UCSORGRIGHT
 10
0.0
 20
0.0
 30
0.0
  9
$UCSORGFRONT
 10
0.0
 20
0.0
 30
0.0
  9
$UCSORGBACK
 10
0.0
 20
0.0
 30
0.0
  9
$PUCSBASE
  2

  9
$PUCSNAME
  2

  9
$PUCSORG
 10
0.0
 20
0.0
 30
0.0
  9
$PUCSXDIR
 10
1.0
 20
0.0
 30
0.0
  9
$PUCSYDIR
 10
0.0
 20
1.0
 30
0.0
  9
$PUCSORTHOREF
  2

  9
$PUCSORTHOVIEW
 70
     0
  9
$PUCSORGTOP
 10
0.0
 20
0.0
 30
0.0
  9
$PUCSORGBOTTOM
 10
0.0
 20
0.0
 30
0.0
  9
$PUCSORGLEFT
 10
0.0
 20
0.0
 30
0.0
  9
$PUCSORGRIGHT
 10
0.0
 20
0.0
 30
0.0
  9
$PUCSORGFRONT
 10
0.0
 20
0.0
 30
0.0
  9
$PUCSORGBACK
 10
0.0
 20
0.0
 30
0.0
  9
$USERI1
 70
     0
  9
$USERI2
 70
     0
  9
$USERI3
 70
     0
  9
$USERI4
 70
     0
  9
$USERI5
 70
     0
  9
$USERR1
 40
0.0
  9
$USERR2
 40
0.0
  9
$USERR3
 40
0.0
  9
$USERR4
 40
0.0
  9
$USERR5
 40
0.0
  9
$WORLDVIEW
 70
     1
  9
$SHADEDGE
 70
     3
  9
$SHADEDIF
 70
    70
  9
$TILEMODE
 70
     1
  9
$MAXACTVP
 70
    64
  9
$PINSBASE
 10
0.0
 20
0.0
 30
0.0
  9
$PLIMCHECK
 70
     0
  9
$PEXTMIN
 10
1.0000000000E+20
 20
1.0000000000E+20
 30
1.0000000000E+20
  9
$PEXTMAX
 10
-1.0000000000E+20
 20
-1.0000000000E+20
 30
-1.0000000000E+20
  9
$PLIMMIN
 10
0.0
 20
0.0
  9
$PLIMMAX
 10
420.0
 20
297.0
  9
$UNITMODE
 70
     0
  9
$VISRETAIN
 70
     1
  9
$PLINEGEN
 70
     0
  9
$PSLTSCALE
 70
     1
  9
$TREEDEPTH
 70
  3020
  9
$CMLSTYLE
  2
Standard
  9
$CMLJUST
 70
     0
  9
$CMLSCALE
 40
20.0
  9
$PROXYGRAPHICS
 70
     1
  9
$MEASUREMENT
 70
     1
  9
$CELWEIGHT
370
    -1
  9
$ENDCAPS
280
     0
  9
$JOINSTYLE
280
     0
  9
$LWDISPLAY
290
     1
  9
$INSUNITS
 70
     4
  9
$HYPERLINKBASE
  1

  9
$STYLESHEET
  1

  9
$XEDIT
290
     1
  9
$CEPSNTYPE
380
     0
  9
$PSTYLEMODE
290
     1
  9
$FINGERPRINTGUID
  2
{DA2A1B0A-C5A8-4D57-8082-8AE31BEC18AD}
  9
$VERSIONGUID
  2
{FAEB1C32-E019-11D5-929B-00C0DF256EC4}
  9
$EXTNAMES
290
     1
  9
$PSVPSCALE
 40
0.0
  9
$OLESTARTUP
290
     0
  0
ENDSEC
  0
SECTION
  2
CLASSES
  0
CLASS
  1
ACDBDICTIONARYWDFLT
  2
AcDbDictionaryWithDefault
  3
ObjectDBX Classes
 90
        0
280
     0
281
     0
  0
CLASS
  1
VISUALSTYLE
  2
AcDbVisualStyle
  3
ObjectDBX Classes
 90
     4095
280
     0
281
     0
  0
CLASS
  1
MATERIAL
  2
AcDbMaterial
  3
ObjectDBX Classes
 90
     1153
280
     0
281
     0
  0
CLASS
  1
SCALE
  2
AcDbScale
  3
ObjectDBX Classes
 90
     1153
280
     0
281
     0
  0
CLASS
  1
TABLESTYLE
  2
AcDbTableStyle
  3
ObjectDBX Classes
 90
     4095
280
     0
281
     0
  0
CLASS
  1
MLEADERSTYLE
  2
AcDbMLeaderStyle
  3
ACDB_MLEADERSTYLE_CLASS
 90
     4095
280
     0
281
     0
  0
CLASS
  1
SUN
  2
AcDbSun
  3
SCENEOE
 90
     1153
280
     0
281
     0
  0
CLASS
  1
ACDBPLACEHOLDER
  2
AcDbPlaceHolder
  3
ObjectDBX Classes
 90
        0
280
     0
281
     0
  0
CLASS
  1
LAYOUT
  2
AcDbLayout
  3
ObjectDBX Classes
 90
        0
280
     0
281
     0
  0
ENDSEC
  0
SECTION
  2
TABLES
  0
TABLE
  2
VPORT
  5
8
330
0
100
AcDbSymbolTable
 70
     1
  0
VPORT
  5
29
330
8
100
AcDbSymbolTableRecord
100
AcDbViewportTableRecord
  2
*Active
 70
     0
 10
0.0
 20
0.0
 11
1.0
 21
1.0
 12
148.5
 22
105.0
 13
0.0
 23
0.0
 14
10.0
 24
10.0
 15
10.0
 25
10.0
 16
0.0
 26
0.0
 36
1.0
 17
0.0
 27
0.0
 37
0.0
 40
210.0
 41
1.4142857143
 42
50.0
 43
0.0
 44
0.0
 50
0.0
 51
0.0
 71
     0
 72
  2000
 73
     1
 74
     3
 75
     0
 76
     0
 77
     0
 78
     0
281
     0
 65
     1
110
0.0
120
0.0
130
0.0
111
1.0
121
0.0
131
0.0
112
0.0
122
1.0
132
0.0
 79
     0
146
0.0
  0
ENDTAB
  0
TABLE
  2
LTYPE
  5
5
330
0
100
AcDbSymbolTable
 70
     6
  0
LTYPE
  5
14
330
5
100
AcDbSymbolTableRecord
100
AcDbLinetypeTableRecord
  2
ByBlock
 70
     0
  3

 72
    65
 73
     0
 40
0.0
  0
LTYPE
  5
15
330
5
100
AcDbSymbolTableRecord
100
AcDbLinetypeTableRecord
  2
ByLayer
 70
     0
  3

 72
    65
 73
     0
 40
0.0
  0
LTYPE
  5
16
330
5
100
AcDbSymbolTableRecord
100
AcDbLinetypeTableRecord
  2
Continuous
 70
     0
  3
Solid line
 72
    65
 73
     0
 40
0.0
  0
LTYPE
  5
6E
330
5
100
AcDbSymbolTableRecord
100
AcDbLinetypeTableRecord
  2
HIDDEN
 70
     0
  3
Hidden __ __ __ __ __ __ __ __ __ __ __ __ __ __
 72
    65
 73
     2
 40
1.905
 49
1.27
 74
     0
 49
-0.635
 74
     0
  0
LTYPE
  5
6F
330
5
100
AcDbSymbolTableRecord
100
AcDbLinetypeTableRecord
  2
PHANTOM
 70
     0
  3
Phantom ______  __  __  ______  __  __  ______
 72
    65
 73
     6
 40
12.7
 49
6.35
 74
     0
 49
-1.27
 74
     0
 49
1.27
 74
     0
 49
-1.27
 74
     0
 49
1.27
 74
     0
 49
-1.27
 74
     0
  0
LTYPE
  5
70
330
5
100
AcDbSymbolTableRecord
100
AcDbLinetypeTableRecord
  2
CENTER
 70
     0
  3
Center ____ _ ____ _ ____ _ ____ _ ____ _ ____
 72
    65
 73
     4
 40
10.16
 49
6.35
 74
     0
 49
-1.27
 74
     0
 49
1.27
 74
     0
 49
-1.27
 74
     0
  0
LTYPE
  5
71
330
5
100
AcDbSymbolTableRecord
100
AcDbLinetypeTableRecord
  2
CENTERX2
 70
     0
  3
Center (2x) ________  __  ________  __  _____
 72
    65
 73
     4
 40
20.32
 49
12.7
 74
     0
 49
-2.54
 74
     0
 49
2.54
 74
     0
 49
-2.54
 74
     0
  0
LTYPE
  5
72
330
5
100
AcDbSymbolTableRecord
100
AcDbLinetypeTableRecord
  2
DOT2
 70
     0
  3
Dot (.5x) ........................................
 72
    65
 73
     2
 40
0.635
 49
0.0
 74
     0
 49
-0.635
 74
     0
  0
ENDTAB
  0
TABLE
  2
LAYER
  5
2
330
0
100
AcDbSymbolTable
 70
     5
  0
LAYER
  5
10
330
2
100
AcDbSymbolTableRecord
100
AcDbLayerTableRecord
  2
0
 70
     0
 62
     7
  6
Continuous
370
    -3
390
F
  0
LAYER
  5
73
330
2
100
AcDbSymbolTableRecord
100
AcDbLayerTableRecord
  2
FORMAT
 70
     0
 62
     7
  6
Continuous
370
    -3
390
F
  0
LAYER
  5
74
330
2
100
AcDbSymbolTableRecord
100
AcDbLayerTableRecord
  2
VERMASSUNG
 70
     0
 62
     7
  6
Continuous
370
    -3
390
F
  0
LAYER
  5
75
330
2
100
AcDbSymbolTableRecord
100
AcDbLayerTableRecord
  2
KOPF_DÜNN
 70
     0
 62
     7
  6
Continuous
370
    -3
390
F
  0
LAYER
  5
76
330
2
100
AcDbSymbolTableRecord
100
AcDbLayerTableRecord
  2
KOPF_DICK
 70
     0
 62
     7
  6
Continuous
370
    15
390
F
  0
ENDTAB
  0
TABLE
  2
STYLE
  5
3
330
0
100
AcDbSymbolTable
 70
     2
  0
STYLE
  5
11
330
3
100
AcDbSymbolTableRecord
100
AcDbTextStyleTableRecord
  2
Standard
 70
     0
 40
0.0
 41
1.0
 50
0.0
 71
     0
 42
2.0
  3
txt
  4

  0
STYLE
  5
77
330
3
100
AcDbSymbolTableRecord
100
AcDbTextStyleTableRecord
  2
SLDTEXTSTYLE0
 70
     0
 40
0.0
 41
0.7
 50
0.0
 71
     0
 42
2.0
  3
TXT
  4

  0
ENDTAB
  0
TABLE
  2
VIEW
  5
6
330
0
100
AcDbSymbolTable
 70
     0
  0
ENDTAB
  0
TABLE
  2
UCS
  5
7
330
0
100
AcDbSymbolTable
 70
     0
  0
ENDTAB
  0
TABLE
  2
APPID
  5
9
330
0
100
AcDbSymbolTable
 70
     1
  0
APPID
  5
12
330
9
100
AcDbSymbolTableRecord
100
AcDbRegAppTableRecord
  2
ACAD
 70
     0
  0
ENDTAB
  0
TABLE
  2
DIMSTYLE
  5
A
330
0
100
AcDbSymbolTable
 70
     2
100
AcDbDimStyleTable
  0
DIMSTYLE
105
27
330
A
100
AcDbSymbolTableRecord
100
AcDbDimStyleTableRecord
  2
ISO-25
 70
     0
 41
2.5
 42
0.625
 43
3.75
 44
1.25
 73
     0
 74
     0
 77
     1
 78
     8
140
2.5
141
2.5
143
0.0393700787
147
0.625
171
     3
172
     1
178
     0
271
     2
272
     2
274
     3
278
    44
283
     0
284
     8
340
11
  0
DIMSTYLE
105
16A
102
{ACAD_REACTORS
330
169
330
176
330
181
330
18D
330
199
330
1A3
102
}
330
A
100
AcDbSymbolTableRecord
100
AcDbDimStyleTableRecord
  2
SLDDIMSTYLE0
 70
     0
 41
3.0
 44
0.0
 45
0.000000001
 73
     0
 74
     0
 77
     1
 78
    12
 79
     3
140
2.0
147
0.5
173
     1
178
     0
271
     2
272
     3
276
     2
284
    12
340
77
  0
ENDTAB
  0
TABLE
  2
BLOCK_RECORD
  5
1
330
0
100
AcDbSymbolTable
 70
     7
  0
BLOCK_RECORD
  5
1F
330
1
100
AcDbSymbolTableRecord
100
AcDbBlockTableRecord
  2
*Model_Space
340
22
  0
BLOCK_RECORD
  5
1B
330
1
100
AcDbSymbolTableRecord
100
AcDbBlockTableRecord
  2
*Paper_Space
340
1E
  0
BLOCK_RECORD
  5
23
330
1
100
AcDbSymbolTableRecord
100
AcDbBlockTableRecord
  2
*Paper_Space0
340
26
  0
BLOCK_RECORD
  5
16B
330
1
100
AcDbSymbolTableRecord
100
AcDbBlockTableRecord
  2
_D
340
0
  0
BLOCK_RECORD
  5
177
330
1
100
AcDbSymbolTableRecord
100
AcDbBlockTableRecord
  2
_D_1
340
0
  0
BLOCK_RECORD
  5
182
330
1
100
AcDbSymbolTableRecord
100
AcDbBlockTableRecord
  2
_D_2
340
0
  0
BLOCK_RECORD
  5
18E
330
1
100
AcDbSymbolTableRecord
100
AcDbBlockTableRecord
  2
_D_3
340
0
  0
BLOCK_RECORD
  5
19A
330
1
100
AcDbSymbolTableRecord
100
AcDbBlockTableRecord
  2
_D_4
340
0
  0
BLOCK_RECORD
  5
1A4
330
1
100
AcDbSymbolTableRecord
100
AcDbBlockTableRecord
  2
_D_5
340
0
  0
ENDTAB
  0
ENDSEC
  0
SECTION
  2
BLOCKS
  0
BLOCK
  5
20
330
1F
100
AcDbEntity
  8
0
100
AcDbBlockBegin
  2
*Model_Space
 70
     0
 10
0.0
 20
0.0
 30
0.0
  3
*Model_Space
  1

  0
ENDBLK
  5
21
330
1F
100
AcDbEntity
  8
0
100
AcDbBlockEnd
  0
BLOCK
  5
1C
330
1B
100
AcDbEntity
 67
     1
  8
0
100
AcDbBlockBegin
  2
*Paper_Space
 70
     0
 10
0.0
 20
0.0
 30
0.0
  3
*Paper_Space
  1

  0
ENDBLK
  5
1D
330
1B
100
AcDbEntity
 67
     1
  8
0
100
AcDbBlockEnd
  0
BLOCK
  5
24
330
23
100
AcDbEntity
  8
0
100
AcDbBlockBegin
  2
*Paper_Space0
 70
     0
 10
0.0
 20
0.0
 30
0.0
  3
*Paper_Space0
  1

  0
ENDBLK
  5
25
330
23
100
AcDbEntity
  8
0
100
AcDbBlockEnd
  0
BLOCK
  5
16C
330
16B
100
AcDbEntity
  8
0
100
AcDbBlockBegin
  2
_D
 70
     0
 10
0.0
 20
0.0
 30
0.0
  3
_D
  1

  0
SOLID
  5
16E
330
16B
100
AcDbEntity
  8
VERMASSUNG
100
AcDbTrace
 10
86.8190186085
 20
158.8929062457
 30
0.0
 11
86.3690186085
 21
155.8929062457
 31
0.0
 12
87.2690186085
 22
155.8929062457
 32
0.0
 13
87.2690186085
 23
155.8929062457
 33
0.0
  0
SOLID
  5
16F
330
16B
100
AcDbEntity
  8
VERMASSUNG
100
AcDbTrace
 10
86.8190186085
 20
58.8929062456
 30
0.0
 11
87.2690186085
 21
61.8929062456
 31
0.0
 12
86.3690186085
 22
61.8929062456
 32
0.0
 13
86.3690186085
 23
61.8929062456
 33
0.0
  0
LINE
  5
170
330
16B
100
AcDbEntity
  8
VERMASSUNG
100
AcDbLine
 10
143.938636716
 20
158.8929062457
 30
0.0
 11
85.8190186085
 21
158.8929062457
 31
0.0
  0
LINE
  5
171
330
16B
100
AcDbEntity
  8
VERMASSUNG
100
AcDbLine
 10
143.938636716
 20
58.8929062456
 30
0.0
 11
85.8190186085
 21
58.8929062456
 31
0.0
  0
LINE
  5
172
330
16B
100
AcDbEntity
  8
VERMASSUNG
100
AcDbLine
 10
86.8190186085
 20
158.8929062457
 30
0.0
 11
86.8190186085
 21
58.8929062456
 31
0.0
  0
MTEXT
  5
173
330
16B
100
AcDbEntity
  8
VERMASSUNG
100
AcDbMText
 10
84.0408833523
 20
98.1895241653
 30
0.0
 40
2.0
 41
0.0
 71
     1
 72
     1
  1
HSK A 100
  7
SLDTEXTSTYLE0
 11
-7.044195017643634E-15
 21
1.0
 31
0.0
 73
     1
 44
1.0
  0
MTEXT
  5
174
330
16B
100
AcDbEntity
  8
VERMASSUNG
100
AcDbMText
 10
84.2408833036
 20
112.1895245975
 30
0.0
 40
2.0
 41
0.0
 71
     1
 72
     1
  1
%%c
  7
SLDTEXTSTYLE0
 11
-7.044195017643634E-15
 21
1.0
 31
0.0
 73
     1
 44
1.0
  0
MTEXT
  5
175
330
16B
100
AcDbEntity
  8
VERMASSUNG
100
AcDbMText
 10
84.2408830125
 20
115.7976024351
 30
0.0
 40
2.0
 41
0.0
 71
     1
 72
     1
  1
100
  7
SLDTEXTSTYLE0
 11
-7.044195017643634E-15
 21
1.0
 31
0.0
 73
     1
 44
1.0
  0
ENDBLK
  5
16D
330
16B
100
AcDbEntity
  8
0
100
AcDbBlockEnd
  0
BLOCK
  5
178
330
177
100
AcDbEntity
  8
0
100
AcDbBlockBegin
  2
_D_1
 70
     0
 10
0.0
 20
0.0
 30
0.0
  3
_D_1
  1

  0
SOLID
  5
17A
330
177
100
AcDbEntity
  8
VERMASSUNG
100
AcDbTrace
 10
222.8584580359
 20
122.8929062456
 30
0.0
 11
222.4084580359
 21
119.8929062456
 31
0.0
 12
223.3084580359
 22
119.8929062456
 32
0.0
 13
223.3084580359
 23
119.8929062456
 33
0.0
  0
SOLID
  5
17B
330
177
100
AcDbEntity
  8
VERMASSUNG
100
AcDbTrace
 10
222.8584580359
 20
94.8929062456
 30
0.0
 11
223.3084580359
 21
97.8929062456
 31
0.0
 12
222.4084580359
 22
97.8929062456
 32
0.0
 13
222.4084580359
 23
97.8929062456
 33
0.0
  0
LINE
  5
17C
330
177
100
AcDbEntity
  8
VERMASSUNG
100
AcDbLine
 10
201.838636716
 20
122.8929062456
 30
0.0
 11
223.8584580359
 21
122.8929062456
 31
0.0
  0
LINE
  5
17D
330
177
100
AcDbEntity
  8
VERMASSUNG
100
AcDbLine
 10
201.838636716
 20
94.8929062456
 30
0.0
 11
223.8584580359
 21
94.8929062456
 31
0.0
  0
LINE
  5
17E
330
177
100
AcDbEntity
  8
VERMASSUNG
100
AcDbLine
 10
222.8584580359
 20
122.8929062456
 30
0.0
 11
222.8584580359
 21
94.8929062456
 31
0.0
  0
MTEXT
  5
17F
330
177
100
AcDbEntity
  8
VERMASSUNG
100
AcDbMText
 10
220.2803224981
 20
105.6887301385
 30
0.0
 40
2.0
 41
0.0
 71
     1
 72
     1
  1
%%c
  7
SLDTEXTSTYLE0
 11
-7.044195017643634E-15
 21
1.0
 31
0.0
 73
     1
 44
1.0
  0
MTEXT
  5
180
330
177
100
AcDbEntity
  8
VERMASSUNG
100
AcDbMText
 10
220.2803224399
 20
109.2977023322
 30
0.0
 40
2.0
 41
0.0
 71
     1
 72
     1
  1
28
  7
SLDTEXTSTYLE0
 11
-7.044195017643634E-15
 21
1.0
 31
0.0
 73
     1
 44
1.0
  0
ENDBLK
  5
179
330
177
100
AcDbEntity
  8
0
100
AcDbBlockEnd
  0
BLOCK
  5
183
330
182
100
AcDbEntity
  8
0
100
AcDbBlockBegin
  2
_D_2
 70
     0
 10
0.0
 20
0.0
 30
0.0
  3
_D_2
  1

  0
SOLID
  5
185
330
182
100
AcDbEntity
  8
VERMASSUNG
100
AcDbTrace
 10
228.8584580359
 20
133.8929062456
 30
0.0
 11
228.4084580359
 21
130.8929062456
 31
0.0
 12
229.3084580359
 22
130.8929062456
 32
0.0
 13
229.3084580359
 23
130.8929062456
 33
0.0
  0
SOLID
  5
186
330
182
100
AcDbEntity
  8
VERMASSUNG
100
AcDbTrace
 10
228.8584580359
 20
83.8929062456
 30
0.0
 11
229.3084580359
 21
86.8929062456
 31
0.0
 12
228.4084580359
 22
86.8929062456
 32
0.0
 13
228.4084580359
 23
86.8929062456
 33
0.0
  0
LINE
  5
187
330
182
100
AcDbEntity
  8
VERMASSUNG
100
AcDbLine
 10
214.938636716
 20
133.8929062456
 30
0.0
 11
229.8584580359
 21
133.8929062456
 31
0.0
  0
LINE
  5
188
330
182
100
AcDbEntity
  8
VERMASSUNG
100
AcDbLine
 10
214.938636716
 20
83.8929062456
 30
0.0
 11
229.8584580359
 21
83.8929062456
 31
0.0
  0
LINE
  5
189
330
182
100
AcDbEntity
  8
VERMASSUNG
100
AcDbLine
 10
228.8584580359
 20
133.8929062456
 30
0.0
 11
228.8584580359
 21
83.8929062456
 31
0.0
  0
MTEXT
  5
18A
330
182
100
AcDbEntity
  8
VERMASSUNG
100
AcDbMText
 10
226.0803227796
 20
102.7889783363
 30
0.0
 40
2.0
 41
0.0
 71
     1
 72
     1
  1
ST5
  7
SLDTEXTSTYLE0
 11
-7.044195017643634E-15
 21
1.0
 31
0.0
 73
     1
 44
1.0
  0
MTEXT
  5
18B
330
182
100
AcDbEntity
  8
VERMASSUNG
100
AcDbMText
 10
226.2803227309
 20
108.5889782625
 30
0.0
 40
2.0
 41
0.0
 71
     1
 72
     1
  1
%%c
  7
SLDTEXTSTYLE0
 11
-7.044195017643634E-15
 21
1.0
 31
0.0
 73
     1
 44
1.0
  0
MTEXT
  5
18C
330
182
100
AcDbEntity
  8
VERMASSUNG
100
AcDbMText
 10
226.2803224399
 20
112.1974541344
 30
0.0
 40
2.0
 41
0.0
 71
     1
 72
     1
  1
50
  7
SLDTEXTSTYLE0
 11
-7.044195017643634E-15
 21
1.0
 31
0.0
 73
     1
 44
1.0
  0
ENDBLK
  5
184
330
182
100
AcDbEntity
  8
0
100
AcDbBlockEnd
  0
BLOCK
  5
18F
330
18E
100
AcDbEntity
  8
0
100
AcDbBlockBegin
  2
_D_3
 70
     0
 10
0.0
 20
0.0
 30
0.0
  3
_D_3
  1

  0
ARC
  5
191
330
18E
100
AcDbEntity
  8
VERMASSUNG
100
AcDbCircle
 10
154.0008143679
 20
178.3006847493
 30
0.0
 40
4.247059938537233
100
AcDbArc
 50
153.4349488229
 51
206.5650511771
  0
ARC
  5
192
330
18E
100
AcDbEntity
  8
VERMASSUNG
100
AcDbCircle
 10
154.9764590641
 20
178.3006847493
 30
0.0
 40
4.247059938537233
100
AcDbArc
 50
333.4349488229
 51
26.5650511771
  0
SOLID
  5
193
330
18E
100
AcDbEntity
  8
VERMASSUNG
100
AcDbTrace
 10
93.538636716
 20
176.4013418038
 30
0.0
 11
96.538636716
 21
175.9513418038
 31
0.0
 12
96.538636716
 22
176.8513418038
 32
0.0
 13
96.538636716
 23
176.8513418038
 33
0.0
  0
SOLID
  5
194
330
18E
100
AcDbEntity
  8
VERMASSUNG
100
AcDbTrace
 10
215.438636716
 20
176.4013418038
 30
0.0
 11
212.438636716
 21
176.8513418038
 31
0.0
 12
212.438636716
 22
175.9513418038
 32
0.0
 13
212.438636716
 23
175.9513418038
 33
0.0
  0
LINE
  5
195
330
18E
100
AcDbEntity
  8
VERMASSUNG
100
AcDbLine
 10
93.538636716
 20
139.3955759882
 30
0.0
 11
93.538636716
 21
177.4013418038
 31
0.0
  0
LINE
  5
196
330
18E
100
AcDbEntity
  8
VERMASSUNG
100
AcDbLine
 10
215.438636716
 20
133.3929062456
 30
0.0
 11
215.438636716
 21
177.4013418038
 31
0.0
  0
LINE
  5
197
330
18E
100
AcDbEntity
  8
VERMASSUNG
100
AcDbLine
 10
93.538636716
 20
176.4013418038
 30
0.0
 11
215.438636716
 21
176.4013418038
 31
0.0
  0
MTEXT
  5
198
330
18E
100
AcDbEntity
  8
VERMASSUNG
100
AcDbMText
 10
151.7896284771
 20
178.9794773998
 30
0.0
 40
2.0
 41
0.0
 71
     1
 72
     1
  1
121.9
  7
SLDTEXTSTYLE0
 73
     1
 44
1.0
  0
ENDBLK
  5
190
330
18E
100
AcDbEntity
  8
0
100
AcDbBlockEnd
  0
BLOCK
  5
19B
330
19A
100
AcDbEntity
  8
0
100
AcDbBlockBegin
  2
_D_4
 70
     0
 10
0.0
 20
0.0
 30
0.0
  3
_D_4
  1

  0
SOLID
  5
19D
330
19A
100
AcDbEntity
  8
VERMASSUNG
100
AcDbTrace
 10
143.438636716
 20
170.4013418038
 30
0.0
 11
146.438636716
 21
169.9513418038
 31
0.0
 12
146.438636716
 22
170.8513418038
 32
0.0
 13
146.438636716
 23
170.8513418038
 33
0.0
  0
SOLID
  5
19E
330
19A
100
AcDbEntity
  8
VERMASSUNG
100
AcDbTrace
 10
215.438636716
 20
170.4013418038
 30
0.0
 11
212.438636716
 21
170.8513418038
 31
0.0
 12
212.438636716
 22
169.9513418038
 32
0.0
 13
212.438636716
 23
169.9513418038
 33
0.0
  0
LINE
  5
19F
330
19A
100
AcDbEntity
  8
VERMASSUNG
100
AcDbLine
 10
143.438636716
 20
158.3929062457
 30
0.0
 11
143.438636716
 21
171.4013418038
 31
0.0
  0
LINE
  5
1A0
330
19A
100
AcDbEntity
  8
VERMASSUNG
100
AcDbLine
 10
215.438636716
 20
133.3929062456
 30
0.0
 11
215.438636716
 21
171.4013418038
 31
0.0
  0
LINE
  5
1A1
330
19A
100
AcDbEntity
  8
VERMASSUNG
100
AcDbLine
 10
143.438636716
 20
170.4013418038
 30
0.0
 11
215.438636716
 21
170.4013418038
 31
0.0
  0
MTEXT
  5
1A2
330
19A
100
AcDbEntity
  8
VERMASSUNG
100
AcDbMText
 10
178.0389467057
 20
172.9794773998
 30
0.0
 40
2.0
 41
0.0
 71
     1
 72
     1
  1
72
  7
SLDTEXTSTYLE0
 73
     1
 44
1.0
  0
ENDBLK
  5
19C
330
19A
100
AcDbEntity
  8
0
100
AcDbBlockEnd
  0
BLOCK
  5
1A5
330
1A4
100
AcDbEntity
  8
0
100
AcDbBlockBegin
  2
_D_5
 70
     0
 10
0.0
 20
0.0
 30
0.0
  3
_D_5
  1

  0
ARC
  5
1A7
330
1A4
100
AcDbEntity
  8
VERMASSUNG
100
AcDbCircle
 10
192.9250584462
 20
166.3006847493
 30
0.0
 40
4.247059938537386
100
AcDbArc
 50
153.4349488229
 51
206.5650511771
  0
ARC
  5
1A8
330
1A4
100
AcDbEntity
  8
VERMASSUNG
100
AcDbCircle
 10
194.9022149858
 20
166.3006847493
 30
0.0
 40
4.247059938537386
100
AcDbArc
 50
333.4349488229
 51
26.5650511771
  0
SOLID
  5
1A9
330
1A4
100
AcDbEntity
  8
VERMASSUNG
100
AcDbTrace
 10
172.388636716
 20
164.4013418038
 30
0.0
 11
175.388636716
 21
163.9513418038
 31
0.0
 12
175.388636716
 22
164.8513418038
 32
0.0
 13
175.388636716
 23
164.8513418038
 33
0.0
  0
SOLID
  5
1AA
330
1A4
100
AcDbEntity
  8
VERMASSUNG
100
AcDbTrace
 10
215.438636716
 20
164.4013418038
 30
0.0
 11
212.438636716
 21
164.8513418038
 31
0.0
 12
212.438636716
 22
163.9513418038
 32
0.0
 13
212.438636716
 23
163.9513418038
 33
0.0
  0
LINE
  5
1AB
330
1A4
100
AcDbEntity
  8
VERMASSUNG
100
AcDbLine
 10
172.388636716
 20
156.8616460665
 30
0.0
 11
172.388636716
 21
165.4013418038
 31
0.0
  0
LINE
  5
1AC
330
1A4
100
AcDbEntity
  8
VERMASSUNG
100
AcDbLine
 10
215.438636716
 20
133.3929062456
 30
0.0
 11
215.438636716
 21
165.4013418038
 31
0.0
  0
LINE
  5
1AD
330
1A4
100
AcDbEntity
  8
VERMASSUNG
100
AcDbLine
 10
172.388636716
 20
164.4013418038
 30
0.0
 11
215.438636716
 21
164.4013418038
 31
0.0
  0
MTEXT
  5
1AE
330
1A4
100
AcDbEntity
  8
VERMASSUNG
100
AcDbMText
 10
190.7138725553
 20
166.9794773998
 30
0.0
 40
2.0
 41
0.0
 71
     1
 72
     1
  1
43.05
  7
SLDTEXTSTYLE0
 73
     1
 44
1.0
  0
ENDBLK
  5
1A6
330
1A4
100
AcDbEntity
  8
0
100
AcDbBlockEnd
  0
ENDSEC
  0
SECTION
  2
ENTITIES
  0
MTEXT
  5
78
330
1F
100
AcDbEntity
  8
KOPF_DÜNN
100
AcDbMText
 10
13.8892156294
 20
23.8442973028
 30
0.0
 40
3.0
 41
0.0
 71
     1
 72
     1
  1
144.810.050.072
  7
SLDTEXTSTYLE0
 73
     1
 44
1.0
  0
MTEXT
  5
79
330
1F
100
AcDbEntity
  8
VERMASSUNG
100
AcDbMText
 10
13.9329988022
 20
28.8834360957
 30
0.0
 40
3.0
 41
0.0
 71
     1
 72
     1
  1
Aufnahme_Master shank ST5
  7
SLDTEXTSTYLE0
 73
     1
 44
1.0
  0
MTEXT
  5
7A
330
1F
100
AcDbEntity
  8
VERMASSUNG
100
AcDbMText
 10
98.8601118557
 20
13.8365368761
 30
0.0
 40
2.0
 41
0.0
 71
     1
 72
     1
  1
Datum: 10.06.2008
  7
SLDTEXTSTYLE0
 73
     1
 44
1.0
  0
MTEXT
  5
7B
330
1F
100
AcDbEntity
  8
VERMASSUNG
100
AcDbMText
 10
13.933048693
 20
18.0482802738
 30
0.0
 40
2.0
 41
0.0
 71
     1
 72
     1
  1
DIN 69893 HSK A 100
  7
SLDTEXTSTYLE0
 73
     1
 44
1.0
  0
MTEXT
  5
7C
330
1F
100
AcDbEntity
  8
VERMASSUNG
100
AcDbMText
 10
13.9808475933
 20
13.9090974274
 30
0.0
 40
2.0
 41
0.0
 71
     1
 72
     1
  1
Gewicht: 2490g
  7
SLDTEXTSTYLE0
 73
     1
 44
1.0
  0
LINE
  5
7D
330
1F
100
AcDbEntity
  8
0
  6
Continuous
 62
     7
370
    15
100
AcDbLine
 10
143.938636716
 20
58.8929062456
 30
0.0
 11
148.388636716
 21
58.8929062456
 31
0.0
  0
LINE
  5
7E
330
1F
100
AcDbEntity
  8
0
  6
Continuous
 62
     7
370
    15
100
AcDbLine
 10
148.4227095485
 20
158.8929062457
 30
0.0
 11
143.938636716
 21
158.8929062457
 31
0.0
  0
ARC
  5
7F
330
1F
100
AcDbEntity
  8
0
  6
Continuous
 62
     7
370
    15
100
AcDbCircle
 10
143.938636716
 20
59.3929062456
 30
0.0
 40
0.5
100
AcDbArc
 50
180.0
 51
270.0
  0
ARC
  5
80
330
1F
100
AcDbEntity
  8
0
  6
Continuous
 62
     7
370
    15
100
AcDbCircle
 10
143.938636716
 20
158.3929062457
 30
0.0
 40
0.5
100
AcDbArc
 50
90.0
 51
180.0
  0
ARC
  5
81
330
1F
100
AcDbEntity
  8
0
  6
Continuous
 62
     7
370
    15
100
AcDbCircle
 10
142.5416997975
 20
70.2644209212
 30
0.0
 40
0.9962338214386983
100
AcDbArc
 50
25.7988228126
 51
90.0
  0
ARC
  5
82
330
1F
100
AcDbEntity
  8
0
  6
Continuous
 62
     7
370
    15
100
AcDbCircle
 10
142.5416997975
 20
147.5213915701
 30
0.0
 40
0.9962338214387044
100
AcDbArc
 50
270.0
 51
334.2011771874
  0
LINE
  5
83
330
1F
100
AcDbEntity
  8
0
  6
Continuous
 62
     7
370
    15
100
AcDbLine
 10
140.938636716
 20
71.0106547426
 30
0.0
 11
141.7444828704
 21
71.2265805689
 31
0.0
  0
LINE
  5
84
330
1F
100
AcDbEntity
  8
0
  6
Continuous
 62
     7
370
    15
100
AcDbLine
 10
141.7444828704
 20
146.5592319224
 30
0.0
 11
140.938636716
 21
146.7751577487
 31
0.0
  0
LINE
  5
85
330
1F
100
AcDbEntity
  8
0
  6
Continuous
 62
     7
370
    15
100
AcDbLine
 10
121.9579412947
 20
145.8242211043
 30
0.0
 11
103.638636716
 21
144.9064202737
 31
0.0
  0
LINE
  5
86
330
1F
100
AcDbEntity
  8
0
  6
Continuous
 62
     7
370
    15
100
AcDbLine
 10
140.938636716
 20
146.7751577487
 30
0.0
 11
134.8705975615
 21
146.471147771
 31
0.0
  0
LINE
  5
87
330
1F
100
AcDbEntity
  8
0
  6
Continuous
 62
     7
370
    15
100
AcDbLine
 10
134.870720838
 20
71.3146585441
 30
0.0
 11
140.938636716
 21
71.0106547426
 31
0.0
  0
LINE
  5
88
330
1F
100
AcDbEntity
  8
0
  6
Continuous
 62
     7
370
    15
100
AcDbLine
 10
108.638636716
 20
72.6288912156
 30
0.0
 11
121.9585878699
 21
71.9615589934
 31
0.0
  0
ARC
  5
89
330
1F
100
AcDbEntity
  8
0
  6
Continuous
 62
     7
370
    15
100
AcDbCircle
 10
142.0033019155
 20
70.2606547426
 30
0.0
 40
1.000000000000003
100
AcDbArc
 50
90.0
 51
105.0
  0
ARC
  5
8A
330
1F
100
AcDbEntity
  8
0
  6
Continuous
 62
     7
370
    15
100
AcDbCircle
 10
142.0033019155
 20
147.5251577487
 30
0.0
 40
1.00000000000003
100
AcDbArc
 50
255.0
 51
270.0
  0
LINE
  5
8B
330
1F
100
AcDbEntity
  8
0
  6
Continuous
 62
     7
370
    15
100
AcDbLine
 10
142.0033019155
 20
71.2606547426
 30
0.0
 11
142.5416997975
 21
71.2606547426
 31
0.0
  0
LINE
  5
8C
330
1F
100
AcDbEntity
  8
0
  6
Continuous
 62
     7
370
    15
100
AcDbLine
 10
142.5416997975
 20
146.5251577487
 30
0.0
 11
142.0033019155
 21
146.5251577487
 31
0.0
  0
ARC
  5
8D
330
1F
100
AcDbEntity
  8
0
  6
Continuous
 62
     7
370
    15
100
AcDbCircle
 10
176.388636716
 20
79.8929062456
 30
0.0
 40
4.000000000000014
100
AcDbArc
 50
90.0
 51
180.0
  0
ARC
  5
8E
330
1F
100
AcDbEntity
  8
0
  6
Continuous
 62
     7
370
    15
100
AcDbCircle
 10
176.388636716
 20
137.8929062456
 30
0.0
 40
4.0
100
AcDbArc
 50
180.0
 51
270.0
  0
LINE
  5
8F
330
1F
100
AcDbEntity
  8
0
  6
Continuous
 62
     7
370
    15
100
AcDbLine
 10
214.938636716
 20
133.8929062456
 30
0.0
 11
176.388636716
 21
133.8929062456
 31
0.0
  0
LINE
  5
90
330
1F
100
AcDbEntity
  8
0
  6
Continuous
 62
     7
370
    15
100
AcDbLine
 10
176.388636716
 20
83.8929062456
 30
0.0
 11
214.938636716
 21
83.8929062456
 31
0.0
  0
LINE
  5
91
330
1F
100
AcDbEntity
  8
0
  6
Continuous
 62
     7
370
    15
100
AcDbLine
 10
214.938636716
 20
83.8929062456
 30
0.0
 11
215.438636716
 21
84.3929062456
 31
0.0
  0
LINE
  5
92
330
1F
100
AcDbEntity
  8
0
  6
Continuous
 62
     7
370
    15
100
AcDbLine
 10
215.438636716
 20
133.3929062456
 30
0.0
 11
214.938636716
 21
133.8929062456
 31
0.0
  0
LINE
  5
93
330
1F
100
AcDbEntity
  8
0
  6
Continuous
 62
     7
370
    15
100
AcDbLine
 10
95.188636716
 20
76.6429062456
 30
0.0
 11
106.738636716
 21
76.6429062456
 31
0.0
  0
ARC
  5
94
330
1F
100
AcDbEntity
  8
0
  6
Continuous
 62
     7
370
    15
100
AcDbCircle
 10
106.738636716
 20
74.7429062456
 30
0.0
 40
1.899999999999991
100
AcDbArc
 50
35.6630613694
 51
90.0
  0
ARC
  5
95
330
1F
100
AcDbEntity
  8
0
  6
Continuous
 62
     7
370
    15
100
AcDbCircle
 10
101.738636716
 20
143.0429062456
 30
0.0
 40
1.899999999999996
100
AcDbArc
 50
270.0
 51
310.9212832533
  0
LINE
  5
96
330
1F
100
AcDbEntity
  8
0
  6
Continuous
 62
     7
370
    15
100
AcDbLine
 10
95.188636716
 20
141.1429062456
 30
0.0
 11
93.595420354
 21
139.5496898837
 31
0.0
  0
LINE
  5
97
330
1F
100
AcDbEntity
  8
0
  6
Continuous
 62
     7
370
    15
100
AcDbLine
 10
93.5961596164
 20
78.2353833452
 30
0.0
 11
95.188636716
 21
76.6429062456
 31
0.0
  0
LINE
  5
98
330
1F
100
AcDbEntity
  8
0
  6
Continuous
 62
     7
370
    15
100
AcDbLine
 10
101.738636716
 20
141.1429062456
 30
0.0
 11
95.188636716
 21
141.1429062456
 31
0.0
  0
SPLINE
  5
99
330
1F
100
AcDbEntity
  8
0
  6
Continuous
 62
     7
370
    15
100
AcDbSpline
210
0.0
220
0.0
230
1.0
 70
    24
 71
     3
 72
    11
 73
     7
 74
     0
 42
0.000000001
 43
0.00000001
 40
0.0
 40
0.0
 40
0.0
 40
0.0
 40
0.1285561766307342
 40
0.4801535797842245
 40
0.8150691831753921
 40
1.0
 40
1.0
 40
1.0
 40
1.0
 10
204.2430883755933
 20
111.1052223115708
 30
0.0
 10
204.2829060806119
 20
110.9959956243238
 30
0.0
 10
204.4316240504869
 20
110.5880371250582
 30
0.0
 10
204.7105035522808
 20
109.8230235687047
 30
0.0
 10
205.0124712261359
 20
108.9946752584359
 30
0.0
 10
205.1742375170714
 20
108.5509230115671
 30
0.0
 10
205.2317844600801
 20
108.3930620313045
 30
0.0
  0
SPLINE
  5
9A
330
1F
100
AcDbEntity
  8
0
  6
Continuous
 62
     7
370
    15
100
AcDbSpline
210
0.0
220
0.0
230
1.0
 70
    24
 71
     3
 72
    10
 73
     6
 74
     0
 42
0.000000001
 43
0.00000001
 40
0.0
 40
0.0
 40
0.0
 40
0.0
 40
0.4391256427914695
 40
0.7513741901692099
 40
1.0
 40
1.0
 40
1.0
 40
1.0
 10
201.3999406315043
 20
111.6050665259162
 30
0.0
 10
201.8069683205986
 20
111.5335083608877
 30
0.0
 10
202.5034207033962
 20
111.4110674167502
 30
0.0
 10
203.5158238985403
 20
111.2330802260635
 30
0.0
 10
204.0197200219711
 20
111.1444919483521
 30
0.0
 10
204.2430883755933
 20
111.1052223115708
 30
0.0
  0
SPLINE
  5
9B
330
1F
100
AcDbEntity
  8
0
  6
Continuous
 62
     7
370
    15
100
AcDbSpline
210
0.0
220
0.0
230
1.0
 70
    24
 71
     3
 72
    10
 73
     6
 74
     0
 42
0.000000001
 43
0.00000001
 40
0.0
 40
0.0
 40
0.0
 40
0.0
 40
0.4391256427914734
 40
0.7513741901692021
 40
1.0
 40
1.0
 40
1.0
 40
1.0
 10
199.5454889719019
 20
109.3927504599954
 30
0.0
 10
199.810974005212
 20
109.7094676962805
 30
0.0
 10
200.2652371646972
 20
110.2513926802407
 30
0.0
 10
200.9255801909522
 20
111.0391659707647
 30
0.0
 10
201.2542479516432
 20
111.4312586756686
 30
0.0
 10
201.3999406315043
 20
111.6050665259162
 30
0.0
  0
SPLINE
  5
9C
330
1F
100
AcDbEntity
  8
0
  6
Continuous
 62
     7
370
    15
100
AcDbSpline
210
0.0
220
0.0
230
1.0
 70
    24
 71
     3
 72
    11
 73
     7
 74
     0
 42
0.000000001
 43
0.00000001
 40
0.0
 40
0.0
 40
0.0
 40
0.0
 40
0.1849308168246124
 40
0.519846420215779
 40
0.8714438233692626
 40
1.0
 40
1.0
 40
1.0
 40
1.0
 10
200.5341850563887
 20
106.6805901797291
 30
0.0
 10
200.47663811338
 20
106.8384511599917
 30
0.0
 10
200.3148718224444
 20
107.2822034068605
 30
0.0
 10
200.0129041485894
 20
108.1105517171293
 30
0.0
 10
199.7340246467955
 20
108.8755652734828
 30
0.0
 10
199.5853066769204
 20
109.2835237727484
 30
0.0
 10
199.5454889719019
 20
109.3927504599954
 30
0.0
  0
SPLINE
  5
9D
330
1F
100
AcDbEntity
  8
0
  6
Continuous
 62
     7
370
    15
100
AcDbSpline
210
0.0
220
0.0
230
1.0
 70
    24
 71
     3
 72
    10
 73
     6
 74
     0
 42
0.000000001
 43
0.00000001
 40
0.0
 40
0.0
 40
0.0
 40
0.0
 40
0.4391256427914751
 40
0.7513741901692043
 40
0.9999999999999999
 40
0.9999999999999999
 40
0.9999999999999999
 40
0.9999999999999999
 10
203.3773328004777
 20
106.1807459653837
 30
0.0
 10
202.9703051113834
 20
106.2523041304123
 30
0.0
 10
202.2738527285858
 20
106.3747450745497
 30
0.0
 10
201.2614495334417
 20
106.5527322652364
 30
0.0
 10
200.7575534100108
 20
106.6413205429479
 30
0.0
 10
200.5341850563887
 20
106.6805901797291
 30
0.0
  0
SPLINE
  5
9E
330
1F
100
AcDbEntity
  8
0
  6
Continuous
 62
     7
370
    15
100
AcDbSpline
210
0.0
220
0.0
230
1.0
 70
    24
 71
     3
 72
    10
 73
     6
 74
     0
 42
0.000000001
 43
0.00000001
 40
0.0
 40
0.0
 40
0.0
 40
0.0
 40
0.4391256427914751
 40
0.7513741901692071
 40
1.0
 40
1.0
 40
1.0
 40
1.0
 10
205.2317844600801
 20
108.3930620313045
 30
0.0
 10
204.96629942677
 20
108.0763447950195
 30
0.0
 10
204.5120362672848
 20
107.5344198110593
 30
0.0
 10
203.8516932410298
 20
106.7466465205353
 30
0.0
 10
203.5230254803388
 20
106.3545538156314
 30
0.0
 10
203.3773328004777
 20
106.1807459653837
 30
0.0
  0
CIRCLE
  5
9F
330
1F
100
AcDbEntity
  8
0
  6
Continuous
 62
     7
370
    15
100
AcDbCircle
 10
202.388636716
 20
108.8929062456
 30
0.0
 40
3.000000000000016
  0
CIRCLE
  5
A0
330
1F
100
AcDbEntity
  8
0
  6
Continuous
 62
     7
370
    15
100
AcDbCircle
 10
202.388636716
 20
108.8929062456
 30
0.0
 40
4.500000000000011
  0
CIRCLE
  5
A1
330
1F
100
AcDbEntity
  8
0
  6
Continuous
 62
     7
370
    15
100
AcDbCircle
 10
202.388636716
 20
108.8929062456
 30
0.0
 40
5.0
  0
ARC
  5
A2
330
1F
100
AcDbEntity
  8
0
  6
Continuous
 62
     7
370
    15
100
AcDbCircle
 10
202.388636716
 20
108.8929062456
 30
0.0
 40
2.500000000000021
100
AcDbArc
 50
80.0289176497
 51
140.0289176497
  0
ARC
  5
A3
330
1F
100
AcDbEntity
  8
0
  6
Continuous
 62
     7
370
    15
100
AcDbCircle
 10
202.388636716
 20
108.8929062456
 30
0.0
 40
2.500000000000021
100
AcDbArc
 50
20.0289176497
 51
80.0289176497
  0
ARC
  5
A4
330
1F
100
AcDbEntity
  8
0
  6
Continuous
 62
     7
370
    15
100
AcDbCircle
 10
202.388636716
 20
108.8929062456
 30
0.0
 40
2.500000000000012
100
AcDbArc
 50
200.0289176497
 51
260.0289176497
  0
ARC
  5
A5
330
1F
100
AcDbEntity
  8
0
  6
Continuous
 62
     7
370
    15
100
AcDbCircle
 10
202.388636716
 20
108.8929062456
 30
0.0
 40
2.500000000000017
100
AcDbArc
 50
140.0289176497
 51
200.0289176497
  0
ARC
  5
A6
330
1F
100
AcDbEntity
  8
0
  6
Continuous
 62
     7
370
    15
100
AcDbCircle
 10
202.388636716
 20
108.8929062456
 30
0.0
 40
2.500000000000005
100
AcDbArc
 50
320.0289176497
 51
20.0289176497
  0
ARC
  5
A7
330
1F
100
AcDbEntity
  8
0
  6
Continuous
 62
     7
370
    15
100
AcDbCircle
 10
202.388636716
 20
108.8929062456
 30
0.0
 40
2.500000000000012
100
AcDbArc
 50
260.0289176497
 51
320.0289176497
  0
LINE
  5
A8
330
1F
100
AcDbEntity
  8
0
  6
Continuous
 62
     7
370
    15
100
AcDbLine
 10
166.7006657369
 20
60.1179126526
 30
0.0
 11
166.7006657369
 21
140.2429062457
 31
0.0
  0
SPLINE
  5
A9
330
1F
100
AcDbEntity
  8
0
  6
Continuous
 62
     7
370
    15
100
AcDbSpline
210
0.0
220
0.0
230
1.0
 70
     8
 71
     3
 72
     8
 73
     4
 74
     0
 42
0.000000001
 43
0.00000001
 40
0.0
 40
0.0
 40
0.0
 40
0.0
 40
1.0
 40
1.0
 40
1.0
 40
1.0
 10
166.7006657369124
 20
60.11791265262118
 30
0.0
 10
166.2495610075122
 20
60.9188725844411
 30
0.0
 10
165.7988631802689
 20
61.72006259600176
 30
0.0
 10
165.348636715991
 20
62.52151795862653
 30
0.0
  0
LINE
  5
AA
330
1F
100
AcDbEntity
  8
0
  6
Continuous
 62
     7
370
    15
100
AcDbLine
 10
165.348636716
 20
62.5215179586
 30
0.0
 11
165.348636716
 21
140.2429062457
 31
0.0
  0
SPLINE
  5
AB
330
1F
100
AcDbEntity
  8
0
  6
Continuous
 62
     7
370
    15
100
AcDbSpline
210
0.0
220
0.0
230
1.0
 70
    24
 71
     3
 72
     8
 73
     4
 74
     0
 42
0.000000001
 43
0.00000001
 40
0.0
 40
0.0
 40
0.0
 40
0.0
 40
1.0
 40
1.0
 40
1.0
 40
1.0
 10
165.3486367159911
 20
140.24290624565
 30
0.0
 10
165.792849598345
 20
140.24290624565
 30
0.0
 10
166.2438641645842
 20
140.24290624565
 30
0.0
 10
166.7006657369124
 20
140.24290624565
 30
0.0
  0
LINE
  5
AC
330
1F
100
AcDbEntity
  8
0
  6
Continuous
 62
     7
370
    15
100
AcDbLine
 10
148.388636716
 20
140.2429062457
 30
0.0
 11
160.1766076951
 21
140.2429062457
 31
0.0
  0
LINE
  5
AD
330
1F
100
AcDbEntity
  8
0
  6
Continuous
 62
     7
370
    15
100
AcDbLine
 10
160.1766076951
 20
60.1179126526
 30
0.0
 11
160.1766076951
 21
140.2429062457
 31
0.0
  0
LINE
  5
AE
330
1F
100
AcDbEntity
  8
0
  6
Continuous
 62
     7
370
    15
100
AcDbLine
 10
160.1766076951
 20
60.1179126526
 30
0.0
 11
158.388636716
 21
60.1179126526
 31
0.0
  0
SPLINE
  5
AF
330
1F
100
AcDbEntity
  8
0
  6
Continuous
 62
     7
370
    15
100
AcDbSpline
210
0.0
220
0.0
230
1.0
 70
     8
 71
     3
 72
    30
 73
    26
 74
     0
 42
0.000000001
 43
0.00000001
 40
0.0
 40
0.0
 40
0.0
 40
0.0
 40
0.1250000000000006
 40
0.1250000000000006
 40
0.187500000000001
 40
0.187500000000001
 40
0.2500000000000013
 40
0.2500000000000013
 40
0.3750000000000014
 40
0.3750000000000014
 40
0.4375000000000014
 40
0.4375000000000014
 40
0.5000000000000013
 40
0.5000000000000013
 40
0.625000000000001
 40
0.625000000000001
 40
0.6875000000000009
 40
0.6875000000000009
 40
0.7500000000000007
 40
0.7500000000000007
 40
0.8125000000000006
 40
0.8125000000000006
 40
0.8750000000000004
 40
0.8750000000000004
 40
1.0
 40
1.0
 40
1.0
 40
1.0
 10
158.3886367159911
 20
60.11791265262118
 30
0.0
 10
157.725892022146
 20
60.11791265262119
 30
0.0
 10
157.0746361630303
 20
60.10307257603237
 30
0.0
 10
156.114185624772
 20
60.06070301180277
 30
0.0
 10
155.7967941815391
 20
60.04322490902357
 30
0.0
 10
155.1676306799842
 20
60.00189662247128
 30
0.0
 10
154.8554824935425
 20
59.97797134901358
 30
0.0
 10
153.9481751916942
 20
59.89916483254667
 30
0.0
 10
153.374750234053
 20
59.83685881257021
 30
0.0
 10
152.5608733644783
 20
59.73372949233084
 30
0.0
 10
152.2960671679084
 20
59.69754557328432
 30
0.0
 10
151.7891597570941
 20
59.62375078908381
 30
0.0
 10
151.5477656057406
 20
59.58627693031217
 30
0.0
 10
150.8586241336083
 20
59.47356498697244
 30
0.0
 10
150.445569318744
 20
59.39802888949868
 30
0.0
 10
149.897414499369
 20
59.28963563248119
 30
0.0
 10
149.7279518920234
 20
59.25456340081791
 30
0.0
 10
149.419934644008
 20
59.18832794021806
 30
0.0
 10
149.2805546233997
 20
59.15700124346334
 30
0.0
 10
149.0307691107729
 20
59.09859247188241
 30
0.0
 10
148.920362998119
 20
59.07150923669958
 30
0.0
 10
148.7291051444813
 20
59.02224948208597
 30
0.0
 10
148.647985626197
 20
58.99998750227834
 30
0.0
 10
148.4538387060886
 20
58.94242059511002
 30
0.0
 10
148.388636715991
 20
58.91616099032404
 30
0.0
 10
148.388636715991
 20
58.90290724585003
 30
0.0
  0
LINE
  5
B0
330
1F
100
AcDbEntity
  8
0
  6
Continuous
 62
     7
370
    15
100
AcDbLine
 10
148.388636716
 20
58.9029072459
 30
0.0
 11
148.388636716
 21
58.8929062457
 31
0.0
  0
SPLINE
  5
B1
330
1F
100
AcDbEntity
  8
0
  6
Continuous
 62
     7
370
    15
100
AcDbSpline
210
0.0
220
0.0
230
1.0
 70
     8
 71
     3
 72
    17
 73
    13
 74
     0
 42
0.000000001
 43
0.00000001
 40
0.0
 40
0.0
 40
0.0
 40
0.0
 40
0.1043843840547469
 40
0.2118345768143993
 40
0.3162082005190449
 40
0.4235375806108391
 40
0.5292276236193851
 40
0.637927586480349
 40
0.7444714844189682
 40
0.8541836219421858
 40
0.9593080534965216
 40
1.0
 40
1.0
 40
1.0
 40
1.0
 10
158.3886367159911
 20
157.8827011013136
 30
0.0
 10
157.8406982681317
 20
157.8880693050623
 30
0.0
 10
156.7287282136669
 20
157.8989633787273
 30
0.0
 10
155.115872300452
 20
157.9841407529862
 30
0.0
 10
153.5823590834751
 20
158.1105154592787
 30
0.0
 10
152.1913382341384
 20
158.2674182798555
 30
0.0
 10
150.9558217169081
 20
158.4391171093761
 30
0.0
 10
149.9324659497528
 20
158.6044533854772
 30
0.0
 10
149.1321239514877
 20
158.7481668650638
 30
0.0
 10
148.6217918495741
 20
158.8463216722429
 30
0.0
 10
148.3818834207496
 20
158.8942500691128
 30
0.0
 10
148.4138022001694
 20
158.8878826698732
 30
0.0
 10
148.4227095484516
 20
158.8861057647499
 30
0.0
  0
LINE
  5
B2
330
1F
100
AcDbEntity
  8
0
  6
Continuous
 62
     7
370
    15
100
AcDbLine
 10
160.1766076951
 20
157.8827011013
 30
0.0
 11
158.388636716
 21
157.8827011013
 31
0.0
  0
LINE
  5
B3
330
1F
100
AcDbEntity
  8
0
  6
Continuous
 62
     7
370
    15
100
AcDbLine
 10
160.1766076951
 20
147.8438690065
 30
0.0
 11
160.1766076951
 21
157.8827011013
 31
0.0
  0
LINE
  5
B4
330
1F
100
AcDbEntity
  8
0
  6
Continuous
 62
     7
370
    15
100
AcDbLine
 10
158.0966035642
 20
147.8438690065
 30
0.0
 11
160.1766076951
 21
147.8438690065
 31
0.0
  0
SPLINE
  5
B5
330
1F
100
AcDbEntity
  8
0
  6
Continuous
 62
     7
370
    15
100
AcDbSpline
210
0.0
220
0.0
230
1.0
 70
     8
 71
     3
 72
    22
 73
    18
 74
     0
 42
0.000000001
 43
0.00000001
 40
0.0
 40
0.0
 40
0.0
 40
0.0
 40
0.2500000000000001
 40
0.2500000000000001
 40
0.3750000000000002
 40
0.3750000000000002
 40
0.5000000000000002
 40
0.5000000000000002
 40
0.6250000000000001
 40
0.6250000000000001
 40
0.7500000000000001
 40
0.7500000000000001
 40
0.875
 40
0.875
 40
0.9375
 40
0.9375
 40
1.0
 40
1.0
 40
1.0
 40
1.0
 10
148.388636715991
 20
140.24290624565
 30
0.0
 10
148.5913616719101
 20
141.2621525875146
 30
0.0
 10
148.9061053937055
 20
142.2212607374539
 30
0.0
 10
149.6141608633765
 20
143.5637398149632
 30
0.0
 10
149.8926234935941
 20
143.9979483977032
 30
0.0
 10
150.5313909002313
 20
144.8095761132053
 30
0.0
 10
150.8918045800215
 20
145.1888564061422
 30
0.0
 10
151.7093368120108
 20
145.8918149851632
 30
0.0
 10
152.1705047952979
 20
146.2168438028638
 30
0.0
 10
153.1684950417817
 20
146.7818591262546
 30
0.0
 10
153.708254235774
 20
147.0255627204612
 30
0.0
 10
154.8828471998053
 20
147.4297626481061
 30
0.0
 10
155.4945833857972
 20
147.5821998411516
 30
0.0
 10
156.4464926106589
 20
147.7375273887603
 30
0.0
 10
156.7697257749196
 20
147.7770321688104
 30
0.0
 10
157.4287889461948
 20
147.8303412894791
 30
0.0
 10
157.7628529567688
 20
147.8438690065369
 30
0.0
 10
158.0966035641704
 20
147.8438690065369
 30
0.0
  0
LINE
  5
B6
330
1F
100
AcDbEntity
  8
0
  6
Continuous
 62
     7
370
    15
100
AcDbLine
 10
143.438636716
 20
59.3929062456
 30
0.0
 11
143.438636716
 21
158.3929062457
 31
0.0
  0
LINE
  5
B7
330
1F
100
AcDbEntity
  8
0
  6
Continuous
 62
     7
370
    15
100
AcDbLine
 10
172.388636716
 20
61.1435607004
 30
0.0
 11
172.388636716
 21
140.2429062457
 31
0.0
  0
SPLINE
  5
B8
330
1F
100
AcDbEntity
  8
0
  6
Continuous
 62
     7
370
    15
100
AcDbSpline
210
0.0
220
0.0
230
1.0
 70
     8
 71
     3
 72
    14
 73
    10
 74
     0
 42
0.000000001
 43
0.00000001
 40
0.0
 40
0.0
 40
0.0
 40
0.0
 40
0.25
 40
0.25
 40
0.5
 40
0.5
 40
0.75
 40
0.75
 40
1.0
 40
1.0
 40
1.0
 40
1.0
 10
172.3886367159911
 20
61.14356070039669
 30
0.0
 10
172.3886367159911
 20
61.01013500434215
 30
0.0
 10
172.3633256160802
 20
60.8782871964978
 30
0.0
 10
172.2649908522355
 20
60.6317646478037
 30
0.0
 10
172.1918468479793
 20
60.51795945956315
 30
0.0
 10
172.0084087868837
 20
60.32750228261588
 30
0.0
 10
171.8967224525451
 20
60.24986741876597
 30
0.0
 10
171.6542190222388
 20
60.14557600865349
 30
0.0
 10
171.5208445935446
 20
60.11791265262114
 30
0.0
 10
171.3886367159911
 20
60.11791265262115
 30
0.0
  0
SPLINE
  5
B9
330
1F
100
AcDbEntity
  8
0
  6
Continuous
 62
     7
370
    15
100
AcDbSpline
210
0.0
220
0.0
230
1.0
 70
    24
 71
     3
 72
    12
 73
     8
 74
     0
 42
0.000000001
 43
0.00000001
 40
0.0
 40
0.0
 40
0.0
 40
0.0
 40
0.2500000000000016
 40
0.2500000000000016
 40
0.5000000000000032
 40
0.5000000000000032
 40
1.0
 40
1.0
 40
1.0
 40
1.0
 10
171.3886367159911
 20
140.24290624565
 30
0.0
 10
171.540726952936
 20
140.24290624565
 30
0.0
 10
171.6891862140115
 20
140.24290624565
 30
0.0
 10
171.9465898462772
 20
140.24290624565
 30
0.0
 10
172.0556945941191
 20
140.24290624565
 30
0.0
 10
172.3097540705266
 20
140.24290624565
 30
0.0
 10
172.3886367159911
 20
140.24290624565
 30
0.0
 10
172.3886367159911
 20
140.24290624565
 30
0.0
  0
LINE
  5
BA
330
1F
100
AcDbEntity
  8
0
  6
Continuous
 62
     7
370
    15
100
AcDbLine
 10
161.528636716
 20
62.5215179586
 30
0.0
 11
161.528636716
 21
140.2429062457
 31
0.0
  0
SPLINE
  5
BB
330
1F
100
AcDbEntity
  8
0
  6
Continuous
 62
     7
370
    15
100
AcDbSpline
210
0.0
220
0.0
230
1.0
 70
     8
 71
     3
 72
     8
 73
     4
 74
     0
 42
0.000000001
 43
0.00000001
 40
0.0
 40
0.0
 40
0.0
 40
0.0
 40
1.0
 40
1.0
 40
1.0
 40
1.0
 10
161.528636715991
 20
62.52151795862651
 30
0.0
 10
161.0784102517133
 20
61.72006259600175
 30
0.0
 10
160.6277124244699
 20
60.91887258444109
 30
0.0
 10
160.1766076950697
 20
60.11791265262118
 30
0.0
  0
SPLINE
  5
BC
330
1F
100
AcDbEntity
  8
0
  6
Continuous
 62
     7
370
    15
100
AcDbSpline
210
0.0
220
0.0
230
1.0
 70
    24
 71
     3
 72
     8
 73
     4
 74
     0
 42
0.000000001
 43
0.00000001
 40
0.0
 40
0.0
 40
0.0
 40
0.0
 40
1.0
 40
1.0
 40
1.0
 40
1.0
 10
160.1766076950697
 20
140.24290624565
 30
0.0
 10
160.6334092673979
 20
140.24290624565
 30
0.0
 10
161.0844238336371
 20
140.24290624565
 30
0.0
 10
161.528636715991
 20
140.24290624565
 30
0.0
  0
LINE
  5
BD
330
1F
100
AcDbEntity
  8
0
  6
Continuous
 62
     7
370
    15
100
AcDbLine
 10
171.388636716
 20
60.1179126526
 30
0.0
 11
166.7006657369
 21
60.1179126526
 31
0.0
  0
LINE
  5
BE
330
1F
100
AcDbEntity
  8
0
  6
Continuous
 62
     7
370
    15
100
AcDbLine
 10
166.7006657369
 20
140.2429062457
 30
0.0
 11
171.388636716
 21
140.2429062457
 31
0.0
  0
SPLINE
  5
BF
330
1F
100
AcDbEntity
  8
0
  6
Continuous
 62
     7
370
    15
100
AcDbSpline
210
0.0
220
0.0
230
1.0
 70
     8
 71
     3
 72
    14
 73
    10
 74
     0
 42
0.000000001
 43
0.00000001
 40
0.0
 40
0.0
 40
0.0
 40
0.0
 40
0.25
 40
0.25
 40
0.5
 40
0.5
 40
0.75
 40
0.75
 40
1.0
 40
1.0
 40
1.0
 40
1.0
 10
165.3486367159911
 20
63.42972746325509
 30
0.0
 10
165.3486367159911
 20
63.53677154424948
 30
0.0
 10
165.3285190288329
 20
63.64200668449194
 30
0.0
 10
165.2500278395673
 20
63.83985717133961
 30
0.0
 10
165.1918712147661
 20
63.93090893490454
 30
0.0
 10
165.045355959148
 20
64.08407502882932
 30
0.0
 10
164.9567134105069
 20
64.14636947503874
 30
0.0
 10
164.7609900877066
 20
64.2311632605747
 30
0.0
 10
164.6557588966356
 20
64.25323078760034
 30
0.0
 10
164.5486367159911
 20
64.25323078760034
 30
0.0
  0
SPLINE
  5
C0
330
1F
100
AcDbEntity
  8
0
  6
Continuous
 62
     7
370
    15
100
AcDbSpline
210
0.0
220
0.0
230
1.0
 70
    24
 71
     3
 72
    14
 73
    10
 74
     0
 42
0.000000001
 43
0.00000001
 40
0.0
 40
0.0
 40
0.0
 40
0.0
 40
0.25
 40
0.25
 40
0.5
 40
0.5
 40
0.75
 40
0.75
 40
1.0
 40
1.0
 40
1.0
 40
1.0
 10
164.5486367159911
 20
140.24290624565
 30
0.0
 10
164.6724064807562
 20
140.24290624565
 30
0.0
 10
164.7967735847631
 20
140.24290624565
 30
0.0
 10
165.0031300534891
 20
140.24290624565
 30
0.0
 10
165.0884581969075
 20
140.24290624565
 30
0.0
 10
165.2206502556227
 20
140.24290624565
 30
0.0
 10
165.2692954993733
 20
140.24290624565
 30
0.0
 10
165.3328312911021
 20
140.24290624565
 30
0.0
 10
165.3486367159911
 20
140.24290624565
 30
0.0
 10
165.3486367159911
 20
140.24290624565
 30
0.0
  0
SPLINE
  5
C1
330
1F
100
AcDbEntity
  8
0
  6
Continuous
 62
     7
370
    15
100
AcDbSpline
210
0.0
220
0.0
230
1.0
 70
     8
 71
     3
 72
    12
 73
     8
 74
     0
 42
0.000000001
 43
0.00000001
 40
0.0
 40
0.0
 40
0.0
 40
0.0
 40
0.25
 40
0.25
 40
0.5
 40
0.5
 40
1.0
 40
1.0
 40
1.0
 40
1.0
 10
162.3286367159911
 20
64.25323078760034
 30
0.0
 10
162.2228760626421
 20
64.25323078760036
 30
0.0
 10
162.1148884344592
 20
64.23069128159995
 30
0.0
 10
161.9202937691936
 20
64.14612064960465
 30
0.0
 10
161.8314218563548
 20
64.08363899684583
 30
0.0
 10
161.6122295640288
 20
63.85425004537367
 30
0.0
 10
161.528636715991
 20
63.64166670785129
 30
0.0
 10
161.528636715991
 20
63.42972746325509
 30
0.0
  0
SPLINE
  5
C2
330
1F
100
AcDbEntity
  8
0
  6
Continuous
 62
     7
370
    15
100
AcDbSpline
210
0.0
220
0.0
230
1.0
 70
    24
 71
     3
 72
    14
 73
    10
 74
     0
 42
0.000000001
 43
0.00000001
 40
0.0
 40
0.0
 40
0.0
 40
0.0
 40
0.25
 40
0.25
 40
0.5
 40
0.5
 40
0.75
 40
0.75
 40
1.0
 40
1.0
 40
1.0
 40
1.0
 10
161.528636715991
 20
140.24290624565
 30
0.0
 10
161.528636715991
 20
140.24290624565
 30
0.0
 10
161.544351036457
 20
140.24290624565
 30
0.0
 10
161.6080350149254
 20
140.24290624565
 30
0.0
 10
161.6566382093358
 20
140.24290624565
 30
0.0
 10
161.7893217317614
 20
140.24290624565
 30
0.0
 10
161.8744238360721
 20
140.24290624565
 30
0.0
 10
162.0808660709821
 20
140.24290624565
 30
0.0
 10
162.2049470126051
 20
140.24290624565
 30
0.0
 10
162.3286367159911
 20
140.24290624565
 30
0.0
  0
LINE
  5
C3
330
1F
100
AcDbEntity
  8
0
  6
Continuous
 62
     7
370
    15
100
AcDbLine
 10
164.548636716
 20
64.2532307876
 30
0.0
 11
162.328636716
 21
64.2532307876
 31
0.0
  0
LINE
  5
C4
330
1F
100
AcDbEntity
  8
0
  6
Continuous
 62
     7
370
    15
100
AcDbLine
 10
162.328636716
 20
140.2429062457
 30
0.0
 11
164.548636716
 21
140.2429062457
 31
0.0
  0
LINE
  5
C5
330
1F
100
AcDbEntity
  8
0
  6
Continuous
 62
     7
370
    15
100
AcDbLine
 10
140.938636716
 20
71.0106547426
 30
0.0
 11
140.938636716
 21
146.7751577487
 31
0.0
  0
LINE
  5
C6
330
1F
100
AcDbEntity
  8
0
  6
Continuous
 62
     7
370
    15
100
AcDbLine
 10
108.638636716
 20
72.6288912156
 30
0.0
 11
108.638636716
 21
75.0235729803
 31
0.0
  0
SPLINE
  5
C7
330
1F
100
AcDbEntity
  8
0
  6
Continuous
 62
     7
370
    15
100
AcDbSpline
210
0.0
220
0.0
230
1.0
 70
     8
 71
     3
 72
    14
 73
    10
 74
     0
 42
0.000000001
 43
0.00000001
 40
0.0
 40
0.0
 40
0.0
 40
0.0
 40
0.25
 40
0.25
 40
0.5
 40
0.5
 40
0.75
 40
0.75
 40
1.0
 40
1.0
 40
1.0
 40
1.0
 10
107.6342142446541
 20
76.72642490190646
 30
0.0
 10
107.7229828225994
 20
76.5678907705985
 30
0.0
 10
107.8447006612783
 20
76.41544809370995
 30
0.0
 10
108.0797502711352
 20
76.11831346988103
 30
0.0
 10
108.1953804573521
 20
75.97363082626367
 30
0.0
 10
108.3957853907799
 20
75.69034162376026
 30
0.0
 10
108.4811856827642
 20
75.5517876307234
 30
0.0
 10
108.6028913164814
 20
75.28040360068988
 30
0.0
 10
108.6386367159941
 20
75.14826773205526
 30
0.0
 10
108.6386367159941
 20
75.02357298028448
 30
0.0
  0
SPLINE
  5
C8
330
1F
100
AcDbEntity
  8
0
  6
Continuous
 62
     7
370
    15
100
AcDbSpline
210
0.0
220
0.0
230
1.0
 70
     8
 71
     3
 72
    14
 73
    10
 74
     0
 42
0.000000001
 43
0.00000001
 40
0.0
 40
0.0
 40
0.0
 40
0.0
 40
0.1249999999999983
 40
0.1249999999999983
 40
0.2499999999999966
 40
0.2499999999999966
 40
0.4999999999999978
 40
0.4999999999999978
 40
1.0
 40
1.0
 40
1.0
 40
1.0
 10
106.738636715991
 20
77.35525484100657
 30
0.0
 10
106.8062190157755
 20
77.36241072610795
 30
0.0
 10
106.8787065935234
 20
77.35798625606895
 30
0.0
 10
107.0109977027894
 20
77.32828009829862
 30
0.0
 10
107.0682750821796
 20
77.30499581672038
 30
0.0
 10
107.2179255093799
 20
77.22751057687005
 30
0.0
 10
107.2916388049014
 20
77.1656587499687
 30
0.0
 10
107.4794467882276
 20
76.98098129732037
 30
0.0
 10
107.563487094589
 20
76.85273837402914
 30
0.0
 10
107.6342142446553
 20
76.72642490190657
 30
0.0
  0
SPLINE
  5
C9
330
1F
100
AcDbEntity
  8
0
  6
Continuous
 62
     7
370
    15
100
AcDbSpline
210
0.0
220
0.0
230
1.0
 70
     8
 71
     3
 72
     8
 73
     4
 74
     0
 42
0.000000001
 43
0.00000001
 40
0.0
 40
0.0
 40
0.0
 40
0.0
 40
1.0
 40
1.0
 40
1.0
 40
1.0
 10
103.1939963279103
 20
76.93720625621478
 30
0.0
 10
104.3592946386191
 20
77.0923937281014
 30
0.0
 10
105.543909852659
 20
77.22875236641171
 30
0.0
 10
106.738636715991
 20
77.35525484100657
 30
0.0
  0
SPLINE
  5
CA
330
1F
100
AcDbEntity
  8
0
  6
Continuous
 62
     7
370
    15
100
AcDbSpline
210
0.0
220
0.0
230
1.0
 70
     8
 71
     3
 72
    14
 73
    10
 74
     0
 42
0.000000001
 43
0.00000001
 40
0.0
 40
0.0
 40
0.0
 40
0.0
 40
0.4999999999999972
 40
0.4999999999999972
 40
0.7499999999999971
 40
0.7499999999999971
 40
0.8749999999999986
 40
0.8749999999999986
 40
1.0
 40
1.0
 40
1.0
 40
1.0
 10
95.43856183196235
 20
76.64707407708487
 30
0.0
 10
96.74686339449609
 20
76.654088800826
 30
0.0
 10
98.05192276915291
 20
76.66949737727047
 30
0.0
 10
99.99779882064124
 20
76.72339393273714
 30
0.0
 10
100.6444963243802
 20
76.74642549733984
 30
0.0
 10
101.6083386882346
 20
76.7973680222106
 30
0.0
 10
101.9285773801686
 20
76.8171029444438
 30
0.0
 10
102.5652726065111
 20
76.86659007291536
 30
0.0
 10
102.881988014794
 20
76.89565485184458
 30
0.0
 10
103.1939963279103
 20
76.93720625621475
 30
0.0
  0
SPLINE
  5
CB
330
1F
100
AcDbEntity
  8
0
  6
Continuous
 62
     7
370
    15
100
AcDbSpline
210
0.0
220
0.0
230
1.0
 70
     8
 71
     3
 72
    12
 73
     8
 74
     0
 42
0.000000001
 43
0.00000001
 40
0.0
 40
0.0
 40
0.0
 40
0.0
 40
0.2500000000000009
 40
0.2500000000000009
 40
0.5000000000000018
 40
0.5000000000000018
 40
1.0
 40
1.0
 40
1.0
 40
1.0
 10
101.738636715991
 20
140.9794291371464
 30
0.0
 10
101.2199378941629
 20
141.0119519119946
 30
0.0
 10
100.6982263209579
 20
141.0352486531651
 30
0.0
 10
99.65193430446229
 20
141.0730941675872
 30
0.0
 10
99.12726267879204
 20
141.0873626420834
 30
0.0
 10
97.5504166562528
 20
141.1215721295417
 30
0.0
 10
96.49546134170589
 20
141.1330716334856
 30
0.0
 10
95.43856183196066
 20
141.1387384142151
 30
0.0
  0
SPLINE
  5
CC
330
1F
100
AcDbEntity
  8
0
  6
Continuous
 62
     7
370
    15
100
AcDbSpline
210
0.0
220
0.0
230
1.0
 70
     8
 71
     3
 72
    20
 73
    16
 74
     0
 42
0.000000001
 43
0.00000001
 40
0.0
 40
0.0
 40
0.0
 40
0.0
 40
0.2500000000000003
 40
0.2500000000000003
 40
0.5000000000000007
 40
0.5000000000000007
 40
0.750000000000001
 40
0.750000000000001
 40
0.8750000000000007
 40
0.8750000000000007
 40
0.9375000000000012
 40
0.9375000000000012
 40
0.9687500000000007
 40
0.9687500000000007
 40
1.0
 40
1.0
 40
1.0
 40
1.0
 10
103.6386367159911
 20
142.6375149826345
 30
0.0
 10
103.6386367159911
 20
142.5018326628878
 30
0.0
 10
103.5899249267744
 20
142.3607456767477
 30
0.0
 10
103.4207635035492
 20
142.0686739580172
 30
0.0
 10
103.2989830896309
 20
141.9170252159268
 30
0.0
 10
103.0014359948814
 20
141.6146167757736
 30
0.0
 10
102.8275233891786
 20
141.4620281396503
 30
0.0
 10
102.5081085552968
 20
141.2367573758081
 30
0.0
 10
102.3930677798495
 20
141.1620342812973
 30
0.0
 10
102.1859834558332
 20
141.0626238720403
 30
0.0
 10
102.1098756210268
 20
141.0310587796957
 30
0.0
 10
101.9784810814734
 20
140.9966153955028
 30
0.0
 10
101.931927862472
 20
140.9875638237351
 30
0.0
 10
101.8355945113912
 20
140.9773881748967
 30
0.0
 10
101.7863350880358
 20
140.9764384162216
 30
0.0
 10
101.7386367159891
 20
140.9794291371362
 30
0.0
  0
LINE
  5
CD
330
1F
100
AcDbEntity
  8
0
  6
Continuous
 62
     7
370
    15
100
AcDbLine
 10
103.638636716
 20
142.6375149826
 30
0.0
 11
103.638636716
 21
144.9064202737
 31
0.0
  0
SPLINE
  5
CE
330
1F
100
AcDbEntity
  8
0
  6
Continuous
 62
     7
370
    15
100
AcDbSpline
210
0.0
220
0.0
230
1.0
 70
     8
 71
     3
 72
    24
 73
    20
 74
     0
 42
0.000000001
 43
0.00000001
 40
0.0
 40
0.0
 40
0.0
 40
0.0
 40
0.0002934293894792
 40
0.062808005175934
 40
0.1260453927228742
 40
0.1890746766613222
 40
0.2513200540860153
 40
0.3133304633787786
 40
0.3759158453762985
 40
0.4383740564607907
 40
0.5000631094857534
 40
0.561659398803632
 40
0.6245050380643723
 40
0.6872231506498981
 40
0.7494953263230506
 40
0.811758379753676
 40
0.8747365508229972
 40
0.9378980306234588
 40
1.0
 40
1.0
 40
1.0
 40
1.0
 10
121.9585929798305
 20
71.96166098733761
 30
0.0
 10
121.9583981269457
 20
71.96163667994362
 30
0.0
 10
121.9166902359334
 20
71.95643372828987
 30
0.0
 10
122.0618086274637
 20
71.97506835161985
 30
0.0
 10
122.4168875690057
 20
72.0175881301689
 30
0.0
 10
123.02146320655
 20
72.08572441377044
 30
0.0
 10
123.8278985153654
 20
72.15897995078652
 30
0.0
 10
124.8133759392828
 20
72.22349929160443
 30
0.0
 10
125.9450455359681
 20
72.26206351966533
 30
0.0
 10
127.167338006129
 20
72.26575802566722
 30
0.0
 10
128.4346666875789
 20
72.22333204561781
 30
0.0
 10
129.7011522179971
 20
72.13508490483505
 30
0.0
 10
130.9172895818126
 20
72.00669163457152
 30
0.0
 10
132.0427000776611
 20
71.85405064597921
 30
0.0
 10
133.0201171392116
 20
71.69227603087397
 30
0.0
 10
133.8233826177615
 20
71.53974713777222
 30
0.0
 10
134.4118761407616
 20
71.41573339450488
 30
0.0
 10
134.8007822524114
 20
71.33080946822872
 30
0.0
 10
134.8475433831506
 20
71.32008315694989
 30
0.0
 10
134.8707261896936
 20
71.31476536425826
 30
0.0
  0
SPLINE
  5
CF
330
1F
100
AcDbEntity
  8
0
  6
Continuous
 62
     7
370
    15
100
AcDbSpline
210
0.0
220
0.0
230
1.0
 70
     8
 71
     3
 72
    41
 73
    37
 74
     0
 42
0.000000001
 43
0.00000001
 40
0.0
 40
0.0
 40
0.0
 40
0.0
 40
0.0619930088509839
 40
0.1254347838145775
 40
0.1886508980472116
 40
0.2510246518033717
 40
0.3131658325488003
 40
0.3756581805174138
 40
0.4382227337755126
 40
0.4998045140815232
 40
0.5615164441950592
 40
0.6240683366165516
 40
0.6867257531767135
 40
0.7488365631577227
 40
0.8110686297815293
 40
0.8741743265521017
 40
0.9373213196239055
 40
0.9685512131825712
 40
0.984208730152181
 40
0.9920641614991338
 40
0.9960005295431176
 40
0.9979711229155214
 40
0.9989570525954502
 40
0.9994501795074999
 40
0.9996967839589611
 40
0.9998200964931961
 40
0.9998817553448917
 40
0.9999125854178162
 40
0.9999280006161619
 40
0.9999357082558221
 40
0.9999395620857765
 40
0.9999414890032835
 40
0.999942452462671
 40
0.9999434159224786
 40
0.9999502132898598
 40
0.9999999999999999
 40
0.9999999999999999
 40
0.9999999999999999
 40
0.9999999999999999
 10
134.8706048592156
 20
146.4710021090902
 30
0.0
 10
134.8470332138724
 20
146.4656926294403
 30
0.0
 10
134.7993390578282
 20
146.4549495885007
 30
0.0
 10
134.4072970684007
 20
146.3697204520451
 30
0.0
 10
133.8167830191279
 20
146.2451516734046
 30
0.0
 10
133.0127455730879
 20
146.092204727253
 30
0.0
 10
132.036670172907
 20
145.9304481732994
 30
0.0
 10
130.9148614376279
 20
145.7782154053674
 30
0.0
 10
129.7013305178386
 20
145.6504354641658
 30
0.0
 10
128.4364998114421
 20
145.5625869124832
 30
0.0
 10
127.1684567739978
 20
145.5202014286126
 30
0.0
 10
125.9449494162963
 20
145.523937236584
 30
0.0
 10
124.8114508758773
 20
145.5625327070316
 30
0.0
 10
123.825345064905
 20
145.6269720783233
 30
0.0
 10
123.0167172561216
 20
145.7004818856048
 30
0.0
 10
122.4200985610092
 20
145.7677955704161
 30
0.0
 10
122.1047072715514
 20
145.8057601216838
 30
0.0
 10
121.9946407027517
 20
145.8195591810161
 30
0.0
 10
121.9672213149411
 20
145.8230452549364
 30
0.0
 10
121.9602992641065
 20
145.8239244806304
 30
0.0
 10
121.9585310239302
 20
145.8241452552359
 30
0.0
 10
121.9580706447468
 20
145.8242004579478
 30
0.0
 10
121.9579464860762
 20
145.8242141977331
 30
0.0
 10
121.9579109315629
 20
145.8242175935666
 30
0.0
 10
121.9578997875213
 20
145.8242184218834
 30
0.0
 10
121.957895874285
 20
145.8242186184772
 30
0.0
 10
121.9578943321368
 20
145.8242186624002
 30
0.0
 10
121.9578936650554
 20
145.8242186707169
 30
0.0
 10
121.9578933569905
 20
145.8242186715331
 30
0.0
 10
121.9578932100652
 20
145.8242186710077
 30
0.0
 10
121.9578931373375
 20
145.8242186706499
 30
0.0
 10
121.9578931026279
 20
145.8242186702521
 30
0.0
 10
121.9578930808944
 20
145.824218670277
 30
0.0
 10
121.9578930490393
 20
145.8242186680323
 30
0.0
 10
121.9578910996989
 20
145.8242188839783
 30
0.0
 10
121.9579180345618
 20
145.8242154028476
 30
0.0
 10
121.9579417337767
 20
145.8242123399004
 30
0.0
  0
SPLINE
  5
D0
330
1F
100
AcDbEntity
  8
0
  6
Continuous
 62
     7
370
    15
100
AcDbSpline
210
0.0
220
0.0
230
1.0
 70
     8
 71
     3
 72
    20
 73
    16
 74
     0
 42
0.000000001
 43
0.00000001
 40
0.0
 40
0.0
 40
0.0
 40
0.0
 40
0.2499999999999887
 40
0.2499999999999887
 40
0.374999999999986
 40
0.374999999999986
 40
0.4374999999999881
 40
0.4374999999999881
 40
0.4999999999999901
 40
0.4999999999999901
 40
0.6249999999999891
 40
0.6249999999999891
 40
0.7499999999999881
 40
0.7499999999999881
 40
1.0
 40
1.0
 40
1.0
 40
1.0
 10
93.82945094770706
 20
78.21442309294929
 30
0.0
 10
93.85572316492049
 20
78.23374103403175
 30
0.0
 10
93.88640330717529
 20
78.24812974513351
 30
0.0
 10
93.95787417755724
 20
78.2412253832975
 30
0.0
 10
93.98590121460157
 20
78.23405937994907
 30
0.0
 10
94.04098480409911
 20
78.20436035324548
 30
0.0
 10
94.06187613265152
 20
78.19088671068417
 30
0.0
 10
94.10708478009697
 20
78.15568844516815
 30
0.0
 10
94.13148899249255
 20
78.13378021644088
 30
0.0
 10
94.202821310544
 20
78.06165535644536
 30
0.0
 10
94.24471809536425
 20
78.00931481549527
 30
0.0
 10
94.31629405422011
 20
77.91183142359452
 30
0.0
 10
94.34712204403745
 20
77.86507765371611
 30
0.0
 10
94.43022197687304
 20
77.73178443787701
 30
0.0
 10
94.47507688224333
 20
77.6491470399618
 30
0.0
 10
94.51518895769587
 20
77.57004014517102
 30
0.0
  0
SPLINE
  5
D1
330
1F
100
AcDbEntity
  8
0
  6
Continuous
 62
     7
370
    15
100
AcDbSpline
210
0.0
220
0.0
230
1.0
 70
     8
 71
     3
 72
    14
 73
    10
 74
     0
 42
0.000000001
 43
0.00000001
 40
0.0
 40
0.0
 40
0.0
 40
0.0
 40
0.25
 40
0.25
 40
0.5
 40
0.5
 40
0.75
 40
0.75
 40
1.0
 40
1.0
 40
1.0
 40
1.0
 10
93.53863671599105
 20
78.39023650308206
 30
0.0
 10
93.53863671599106
 20
78.34898957205772
 30
0.0
 10
93.5472464323723
 20
78.31208259977524
 30
0.0
 10
93.57833261194266
 20
78.25118253987583
 30
0.0
 10
93.60072216542672
 20
78.22700162033614
 30
0.0
 10
93.65546609660284
 20
78.19303402945287
 30
0.0
 10
93.68791633618802
 20
78.18311394548469
 30
0.0
 10
93.75791785091609
 20
78.18176273657984
 30
0.0
 10
93.79612835103862
 20
78.189921013276
 30
0.0
 10
93.8294509477117
 20
78.21442309294409
 30
0.0
  0
LINE
  5
D2
330
1F
100
AcDbEntity
  8
0
  6
Continuous
 62
     7
370
    15
100
AcDbLine
 10
93.538636716
 20
78.3902365031
 30
0.0
 11
93.538636716
 21
139.3955759882
 31
0.0
  0
SPLINE
  5
D3
330
1F
100
AcDbEntity
  8
0
  6
Continuous
 62
     7
370
    15
100
AcDbSpline
210
0.0
220
0.0
230
1.0
 70
     8
 71
     3
 72
    10
 73
     6
 74
     0
 42
0.000000001
 43
0.00000001
 40
0.0
 40
0.0
 40
0.0
 40
0.0
 40
0.0592402688376416
 40
0.6438088530391356
 40
1.0
 40
1.0
 40
1.0
 40
1.0
 10
93.82945094771169
 20
139.5713893983559
 30
0.0
 10
93.82461869009052
 20
139.5746383049875
 30
0.0
 10
93.77210288795571
 20
139.6099466331432
 30
0.0
 10
93.673152690277
 20
139.6162009297018
 30
0.0
 10
93.62372416538564
 20
139.5610006920129
 30
0.0
 10
93.60500950064133
 20
139.5401007370896
 30
0.0
  0
SPLINE
  5
D4
330
1F
100
AcDbEntity
  8
0
  6
Continuous
 62
     7
370
    15
100
AcDbSpline
210
0.0
220
0.0
230
1.0
 70
     8
 71
     3
 72
     8
 73
     4
 74
     0
 42
0.000000001
 43
0.00000001
 40
0.0
 40
0.0
 40
0.0
 40
0.0
 40
1.0
 40
1.0
 40
1.0
 40
1.0
 10
93.56227038492726
 20
139.5031554892876
 30
0.0
 10
93.54692134629123
 20
139.4726454342916
 30
0.0
 10
93.53863671599105
 20
139.4363338787793
 30
0.0
 10
93.53863671599105
 20
139.3955759882179
 30
0.0
  0
SPLINE
  5
D5
330
1F
100
AcDbEntity
  8
0
  6
Continuous
 62
     7
370
    15
100
AcDbSpline
210
0.0
220
0.0
230
1.0
 70
     8
 71
     3
 72
    20
 73
    16
 74
     0
 42
0.000000001
 43
0.00000001
 40
0.0
 40
0.0
 40
0.0
 40
0.0
 40
0.2499999999999868
 40
0.2499999999999868
 40
0.3749999999999822
 40
0.3749999999999822
 40
0.4999999999999776
 40
0.4999999999999776
 40
0.5624999999999778
 40
0.5624999999999778
 40
0.624999999999978
 40
0.624999999999978
 40
0.7499999999999855
 40
0.7499999999999855
 40
1.0
 40
1.0
 40
1.0
 40
1.0
 10
94.51518895769345
 20
140.2157723461281
 30
0.0
 10
94.47519273986963
 20
140.1368939395707
 30
0.0
 10
94.43007911203196
 20
140.0537642928792
 30
0.0
 10
94.34682489766547
 20
139.9202756285282
 30
0.0
 10
94.31660556904494
 20
139.8744105726462
 30
0.0
 10
94.24451733390349
 20
139.7762190202413
 30
0.0
 10
94.20260001649244
 20
139.7239092007178
 30
0.0
 10
94.13134941194099
 20
139.6519032979833
 30
0.0
 10
94.10711359956166
 20
139.6301330856817
 30
0.0
 10
94.06151540937702
 20
139.5946584273527
 30
0.0
 10
94.04071291977729
 20
139.5812882431752
 30
0.0
 10
93.98577192135821
 20
139.55171833104
 30
0.0
 10
93.95770293327139
 20
139.5445918087379
 30
0.0
 10
93.88720010320853
 20
139.5377174372553
 30
0.0
 10
93.8557760154177
 20
139.5520325963424
 30
0.0
 10
93.82945094770909
 20
139.571389398353
 30
0.0
  0
SPLINE
  5
D6
330
1F
100
AcDbEntity
  8
0
  6
Continuous
 62
     7
370
    15
100
AcDbSpline
210
0.0
220
0.0
230
1.0
 70
     8
 71
     3
 72
    10
 73
     6
 74
     0
 42
0.000000001
 43
0.00000001
 40
0.0
 40
0.0
 40
0.0
 40
0.0
 40
0.4999999999999989
 40
0.4999999999999989
 40
1.0
 40
1.0
 40
1.0
 40
1.0
 10
95.18863671599107
 20
141.14119144747
 30
0.0
 10
95.06374844524086
 20
141.0101951693985
 30
0.0
 10
94.94229832718041
 20
140.8664823327335
 30
0.0
 10
94.71271435222297
 20
140.5559120400443
 30
0.0
 10
94.602439376827
 20
140.3878429669812
 30
0.0
 10
94.51518895769348
 20
140.2157723461282
 30
0.0
  0
SPLINE
  5
D7
330
1F
100
AcDbEntity
  8
0
  6
Continuous
 62
     7
370
    15
100
AcDbSpline
210
0.0
220
0.0
230
1.0
 70
     8
 71
     3
 72
     8
 73
     4
 74
     0
 42
0.000000001
 43
0.00000001
 40
0.0
 40
0.0
 40
0.0
 40
0.0
 40
1.0
 40
1.0
 40
1.0
 40
1.0
 10
95.43856183195679
 20
141.1387384142146
 30
0.0
 10
95.35154380210844
 20
141.1392049790017
 30
0.0
 10
95.2685897757285
 20
141.1402449985778
 30
0.0
 10
95.18863671598875
 20
141.14119144747
 30
0.0
  0
SPLINE
  5
D8
330
1F
100
AcDbEntity
  8
0
  6
Continuous
 62
     7
370
    15
100
AcDbSpline
210
0.0
220
0.0
230
1.0
 70
     8
 71
     3
 72
     8
 73
     4
 74
     0
 42
0.000000001
 43
0.00000001
 40
0.0
 40
0.0
 40
0.0
 40
0.0
 40
1.0
 40
1.0
 40
1.0
 40
1.0
 10
95.18863671598875
 20
76.64462104382991
 30
0.0
 10
95.26858977572903
 20
76.64556749272218
 30
0.0
 10
95.3515438021095
 20
76.6466075122983
 30
0.0
 10
95.43856183195848
 20
76.64707407708538
 30
0.0
  0
SPLINE
  5
D9
330
1F
100
AcDbEntity
  8
0
  6
Continuous
 62
     7
370
    15
100
AcDbSpline
210
0.0
220
0.0
230
1.0
 70
     8
 71
     3
 72
    10
 73
     6
 74
     0
 42
0.000000001
 43
0.00000001
 40
0.0
 40
0.0
 40
0.0
 40
0.0
 40
0.4999999999999989
 40
0.4999999999999989
 40
1.0
 40
1.0
 40
1.0
 40
1.0
 10
94.51518895769254
 20
77.57004014517359
 30
0.0
 10
94.60243937682603
 20
77.3979695243202
 30
0.0
 10
94.71271435222218
 20
77.22990045125677
 30
0.0
 10
94.94229832718001
 20
76.91933015856698
 30
0.0
 10
95.06374844524065
 20
76.77561732190169
 30
0.0
 10
95.18863671599107
 20
76.64462104382999
 30
0.0
  0
SPLINE
  5
DA
330
1F
100
AcDbEntity
  8
0
  6
Continuous
 62
     7
370
    15
100
AcDbSpline
210
0.0
220
0.0
230
1.0
 70
     8
 71
     3
 72
    10
 73
     6
 74
     0
 42
0.000000001
 43
0.00000001
 40
0.0
 40
0.0
 40
0.0
 40
0.0
 40
0.5
 40
0.5
 40
1.0
 40
1.0
 40
1.0
 40
1.0
 10
162.3286367159911
 20
153.7671820058224
 30
0.0
 10
162.1161004021347
 20
153.7671820058224
 30
0.0
 10
161.9061642304807
 20
153.8585945924526
 30
0.0
 10
161.6124570894694
 20
154.1633394583568
 30
0.0
 10
161.528636715991
 20
154.3754944282654
 30
0.0
 10
161.528636715991
 20
154.586457486498
 30
0.0
  0
SPLINE
  5
DB
330
1F
100
AcDbEntity
  8
0
  6
Continuous
 62
     7
370
    15
100
AcDbSpline
210
0.0
220
0.0
230
1.0
 70
     8
 71
     3
 72
    14
 73
    10
 74
     0
 42
0.000000001
 43
0.00000001
 40
0.0
 40
0.0
 40
0.0
 40
0.0
 40
0.25
 40
0.25
 40
0.5
 40
0.5
 40
0.75
 40
0.75
 40
1.0
 40
1.0
 40
1.0
 40
1.0
 10
161.528636715991
 20
143.607141438147
 30
0.0
 10
161.528636715991
 20
143.4832745613578
 30
0.0
 10
161.5444958436186
 20
143.3590148845203
 30
0.0
 10
161.6078574891385
 20
143.1214065221145
 30
0.0
 10
161.6564471971879
 20
143.004626137362
 30
0.0
 10
161.7887328019627
 20
142.795823608753
 30
0.0
 10
161.8740575932233
 20
142.7013129051604
 30
0.0
 10
162.0809488415295
 20
142.5633561043581
 30
0.0
 10
162.2049167874195
 20
142.5214376587224
 30
0.0
 10
162.3286367159911
 20
142.5214376587224
 30
0.0
  0
LINE
  5
DC
330
1F
100
AcDbEntity
  8
0
  6
Continuous
 62
     7
370
    15
100
AcDbLine
 10
171.388636716
 20
157.8827011013
 30
0.0
 11
166.7006657369
 21
157.8827011013
 31
0.0
  0
LINE
  5
DD
330
1F
100
AcDbEntity
  8
0
  6
Continuous
 62
     7
370
    15
100
AcDbLine
 10
166.7006657369
 20
147.8438690065
 30
0.0
 11
171.388636716
 21
147.8438690065
 31
0.0
  0
LINE
  5
DE
330
1F
100
AcDbEntity
  8
0
  6
Continuous
 62
     7
370
    15
100
AcDbLine
 10
166.7006657369
 20
147.8438690065
 30
0.0
 11
166.7006657369
 21
157.8827011013
 31
0.0
  0
SPLINE
  5
DF
330
1F
100
AcDbEntity
  8
0
  6
Continuous
 62
     7
370
    15
100
AcDbSpline
210
0.0
220
0.0
230
1.0
 70
     8
 71
     3
 72
     8
 73
     4
 74
     0
 42
0.000000001
 43
0.00000001
 40
0.0
 40
0.0
 40
0.0
 40
0.0
 40
1.0
 40
1.0
 40
1.0
 40
1.0
 10
160.1766076950697
 20
147.8438690065369
 30
0.0
 10
160.6335340488692
 20
146.8279510368626
 30
0.0
 10
161.0847396906722
 20
145.8091552077715
 30
0.0
 10
161.528636715991
 20
144.7883537517878
 30
0.0
  0
LINE
  5
E0
330
1F
100
AcDbEntity
  8
0
  6
Continuous
 62
     7
370
    15
100
AcDbLine
 10
161.528636716
 20
144.7883537518
 30
0.0
 11
161.528636716
 21
143.6071414381
 31
0.0
  0
LINE
  5
E1
330
1F
100
AcDbEntity
  8
0
  6
Continuous
 62
     7
370
    15
100
AcDbLine
 10
162.328636716
 20
142.5214376587
 30
0.0
 11
164.548636716
 21
142.5214376587
 31
0.0
  0
SPLINE
  5
E2
330
1F
100
AcDbEntity
  8
0
  6
Continuous
 62
     7
370
    15
100
AcDbSpline
210
0.0
220
0.0
230
1.0
 70
     8
 71
     3
 72
    12
 73
     8
 74
     0
 42
0.000000001
 43
0.00000001
 40
0.0
 40
0.0
 40
0.0
 40
0.0
 40
0.2500000000000039
 40
0.2500000000000039
 40
0.5000000000000078
 40
0.5000000000000078
 40
1.0
 40
1.0
 40
1.0
 40
1.0
 10
164.5486367159911
 20
142.5214376587225
 30
0.0
 10
164.672337665971
 20
142.5214376587225
 30
0.0
 10
164.7964342782412
 20
142.563431270455
 30
0.0
 10
165.0030894413283
 20
142.7012265970994
 30
0.0
 10
165.0881302080551
 20
142.7952001955642
 30
0.0
 10
165.2876087765287
 20
143.1099884017852
 30
0.0
 10
165.3486367159911
 20
143.3602273940128
 30
0.0
 10
165.3486367159911
 20
143.607141438147
 30
0.0
  0
LINE
  5
E3
330
1F
100
AcDbEntity
  8
0
  6
Continuous
 62
     7
370
    15
100
AcDbLine
 10
165.348636716
 20
143.6071414381
 30
0.0
 11
165.348636716
 21
144.7883537518
 31
0.0
  0
SPLINE
  5
E4
330
1F
100
AcDbEntity
  8
0
  6
Continuous
 62
     7
370
    15
100
AcDbSpline
210
0.0
220
0.0
230
1.0
 70
     8
 71
     3
 72
     8
 73
     4
 74
     0
 42
0.000000001
 43
0.00000001
 40
0.0
 40
0.0
 40
0.0
 40
0.0
 40
1.0
 40
1.0
 40
1.0
 40
1.0
 10
165.3486367159911
 20
144.7883537517878
 30
0.0
 10
165.7927867270166
 20
145.8097369827395
 30
0.0
 10
166.2438610372745
 20
146.8282215195078
 30
0.0
 10
166.7006657369124
 20
147.8438690065369
 30
0.0
  0
SPLINE
  5
E5
330
1F
100
AcDbEntity
  8
0
  6
Continuous
 62
     7
370
    15
100
AcDbSpline
210
0.0
220
0.0
230
1.0
 70
     8
 71
     3
 72
    16
 73
    12
 74
     0
 42
0.000000001
 43
0.00000001
 40
0.0
 40
0.0
 40
0.0
 40
0.0
 40
0.1249999999999996
 40
0.1249999999999996
 40
0.2499999999999992
 40
0.2499999999999992
 40
0.4999999999999994
 40
0.4999999999999994
 40
0.7499999999999997
 40
0.7499999999999997
 40
1.0
 40
1.0
 40
1.0
 40
1.0
 10
171.3886367159911
 20
147.8438690065369
 30
0.0
 10
171.4642744224022
 20
147.8438690065369
 30
0.0
 10
171.5405900868205
 20
147.832524006402
 30
0.0
 10
171.6850008247124
 20
147.7898714557635
 30
0.0
 10
171.7534472738208
 20
147.7589371310806
 30
0.0
 10
171.948378526434
 20
147.639680759313
 30
0.0
 10
172.0562197002149
 20
147.5295287456924
 30
0.0
 10
172.2249324484269
 20
147.2813926600344
 30
0.0
 10
172.2872968611504
 20
147.1410503360307
 30
0.0
 10
172.3686007856589
 20
146.8527786445421
 30
0.0
 10
172.3886367159911
 20
146.7019736715622
 30
0.0
 10
172.3886367159911
 20
146.5516037802169
 30
0.0
  0
LINE
  5
E6
330
1F
100
AcDbEntity
  8
0
  6
Continuous
 62
     7
370
    15
100
AcDbLine
 10
172.388636716
 20
146.5516037802
 30
0.0
 11
172.388636716
 21
140.2429062457
 31
0.0
  0
SPLINE
  5
E7
330
1F
100
AcDbEntity
  8
0
  6
Continuous
 62
     7
370
    15
100
AcDbSpline
210
0.0
220
0.0
230
1.0
 70
     8
 71
     3
 72
    14
 73
    10
 74
     0
 42
0.000000001
 43
0.00000001
 40
0.0
 40
0.0
 40
0.0
 40
0.0
 40
0.25
 40
0.25
 40
0.5
 40
0.5
 40
0.75
 40
0.75
 40
1.0
 40
1.0
 40
1.0
 40
1.0
 10
165.3486367159911
 20
154.586457486498
 30
0.0
 10
165.3486367159911
 20
154.4801007927456
 30
0.0
 10
165.3282491598498
 20
154.3742603049855
 30
0.0
 10
165.2496148143883
 20
154.1776953914491
 30
0.0
 10
165.1908834547496
 20
154.0865246491619
 30
0.0
 10
165.0442745491471
 20
153.9346135601303
 30
0.0
 10
164.9548692291206
 20
153.8725447233107
 30
0.0
 10
164.7609784965202
 20
153.789276675552
 30
0.0
 10
164.6544735066304
 20
153.7671820058224
 30
0.0
 10
164.5486367159911
 20
153.7671820058224
 30
0.0
  0
SPLINE
  5
E8
330
1F
100
AcDbEntity
  8
0
  6
Continuous
 62
     7
370
    15
100
AcDbSpline
210
0.0
220
0.0
230
1.0
 70
     8
 71
     3
 72
    12
 73
     8
 74
     0
 42
0.000000001
 43
0.00000001
 40
0.0
 40
0.0
 40
0.0
 40
0.0
 40
0.4999999999999953
 40
0.4999999999999953
 40
0.7499999999999977
 40
0.7499999999999977
 40
1.0
 40
1.0
 40
1.0
 40
1.0
 10
172.3886367159911
 20
156.8616460664958
 30
0.0
 10
172.3886367159911
 20
157.1269154992622
 30
0.0
 10
172.2840299725046
 20
157.3894306049146
 30
0.0
 10
172.0073616207593
 20
157.6749682109519
 30
0.0
 10
171.8969963614073
 20
157.7512898278133
 30
0.0
 10
171.6529243127916
 20
157.8556319926534
 30
0.0
 10
171.5211718514598
 20
157.8827011013136
 30
0.0
 10
171.3886367159911
 20
157.8827011013136
 30
0.0
  0
LINE
  5
E9
330
1F
100
AcDbEntity
  8
0
  6
Continuous
 62
     7
370
    15
100
AcDbLine
 10
172.388636716
 20
146.5516037802
 30
0.0
 11
172.388636716
 21
156.8616460665
 31
0.0
  0
SPLINE
  5
EA
330
1F
100
AcDbEntity
  8
0
  6
Continuous
 62
     7
370
    15
100
AcDbSpline
210
0.0
220
0.0
230
1.0
 70
     8
 71
     3
 72
     8
 73
     4
 74
     0
 42
0.000000001
 43
0.00000001
 40
0.0
 40
0.0
 40
0.0
 40
0.0
 40
1.0
 40
1.0
 40
1.0
 40
1.0
 10
161.528636715991
 20
155.4901771063549
 30
0.0
 10
161.0783284803065
 20
156.2878922314685
 30
0.0
 10
160.6276346637829
 20
157.0853905311257
 30
0.0
 10
160.1766076950697
 20
157.8827011013136
 30
0.0
  0
LINE
  5
EB
330
1F
100
AcDbEntity
  8
0
  6
Continuous
 62
     7
370
    15
100
AcDbLine
 10
161.528636716
 20
144.7883537518
 30
0.0
 11
161.528636716
 21
155.4901771064
 31
0.0
  0
SPLINE
  5
EC
330
1F
100
AcDbEntity
  8
0
  6
Continuous
 62
     7
370
    15
100
AcDbSpline
210
0.0
220
0.0
230
1.0
 70
     8
 71
     3
 72
     8
 73
     4
 74
     0
 42
0.000000001
 43
0.00000001
 40
0.0
 40
0.0
 40
0.0
 40
0.0
 40
1.0
 40
1.0
 40
1.0
 40
1.0
 10
166.7006657369124
 20
157.8827011013136
 30
0.0
 10
166.2496387681992
 20
157.0853905311257
 30
0.0
 10
165.7989449516756
 20
156.2878922314685
 30
0.0
 10
165.3486367159911
 20
155.4901771063549
 30
0.0
  0
LINE
  5
ED
330
1F
100
AcDbEntity
  8
0
  6
Continuous
 62
     7
370
    15
100
AcDbLine
 10
165.348636716
 20
144.7883537518
 30
0.0
 11
165.348636716
 21
155.4901771064
 31
0.0
  0
LINE
  5
EE
330
1F
100
AcDbEntity
  8
0
  6
Continuous
 62
     7
370
    15
100
AcDbLine
 10
164.548636716
 20
153.7671820058
 30
0.0
 11
162.328636716
 21
153.7671820058
 31
0.0
  0
SPLINE
  5
EF
330
1F
100
AcDbEntity
  8
0
  6
Continuous
 62
     7
370
    15
100
AcDbSpline
210
0.0
220
0.0
230
1.0
 70
    11
 71
     3
 72
    83
 73
    79
 74
     0
 42
0.000000001
 43
0.00000001
 40
0.0
 40
0.0
 40
0.0
 40
0.0
 40
0.0312499999999991
 40
0.0312499999999991
 40
0.0624999999999982
 40
0.0624999999999982
 40
0.0937499999999974
 40
0.0937499999999974
 40
0.1093749999999969
 40
0.1093749999999969
 40
0.1249999999999964
 40
0.1249999999999964
 40
0.1562499999999961
 40
0.1562499999999961
 40
0.1874999999999957
 40
0.1874999999999957
 40
0.2187499999999954
 40
0.2187499999999954
 40
0.2499999999999955
 40
0.2499999999999955
 40
0.2812499999999956
 40
0.2812499999999956
 40
0.3124999999999957
 40
0.3124999999999957
 40
0.3437499999999959
 40
0.3437499999999959
 40
0.3593749999999961
 40
0.3593749999999961
 40
0.3749999999999962
 40
0.3906249999999964
 40
0.3906249999999964
 40
0.4062499999999966
 40
0.4062499999999966
 40
0.437499999999997
 40
0.437499999999997
 40
0.4687499999999974
 40
0.4687499999999974
 40
0.4999999999999978
 40
0.4999999999999978
 40
0.5312499999999982
 40
0.5312499999999982
 40
0.5468749999999984
 40
0.5468749999999984
 40
0.5624999999999987
 40
0.5624999999999987
 40
0.5937499999999991
 40
0.5937499999999991
 40
0.6249999999999996
 40
0.6249999999999996
 40
0.65625
 40
0.65625
 40
0.6875000000000004
 40
0.6875000000000004
 40
0.7187500000000009
 40
0.7187500000000009
 40
0.7500000000000013
 40
0.7500000000000013
 40
0.7656250000000014
 40
0.7656250000000014
 40
0.7812500000000014
 40
0.7812500000000014
 40
0.8125000000000011
 40
0.8125000000000011
 40
0.8281250000000011
 40
0.8281250000000011
 40
0.8437500000000011
 40
0.8437500000000011
 40
0.8750000000000009
 40
0.8750000000000009
 40
0.8906250000000008
 40
0.8906250000000008
 40
0.9062500000000007
 40
0.9062500000000007
 40
0.9375000000000004
 40
0.9375000000000004
 40
0.9687500000000002
 40
0.9687500000000002
 40
1.0
 40
1.0
 40
1.0
 40
1.0
 10
198.1983390403004
 20
113.0493180552036
 30
0.0
 10
198.5012639393369
 20
113.2957203096839
 30
0.0
 10
198.8227509559069
 20
113.5095017636439
 30
0.0
 10
199.4998714349308
 20
113.8778493147598
 30
0.0
 10
199.8580979182953
 20
114.0331737039241
 30
0.0
 10
200.5980732372139
 20
114.2795599526322
 30
0.0
 10
200.9746760230398
 20
114.3694331811658
 30
0.0
 10
201.5491531654923
 20
114.4563722685485
 30
0.0
 10
201.7422513959382
 20
114.4773188375635
 30
0.0
 10
202.1317223484027
 20
114.502859844815
 30
0.0
 10
202.3284890676476
 20
114.5073638814837
 30
0.0
 10
202.9126223132271
 20
114.495977387252
 30
0.0
 10
203.2974445884036
 20
114.455788606453
 30
0.0
 10
204.0579957625652
 20
114.3107550903763
 30
0.0
 10
204.4373838369008
 20
114.2042947327907
 30
0.0
 10
205.1629426419466
 20
113.9301320942816
 30
0.0
 10
205.5099876319022
 20
113.7631078171433
 30
0.0
 10
206.1720908858055
 20
113.3674699781869
 30
0.0
 10
206.490143495758
 20
113.1357530594439
 30
0.0
 10
207.0674467195562
 20
112.6231663826471
 30
0.0
 10
207.3288628678702
 20
112.3419936535887
 30
0.0
 10
207.793998447741
 20
111.7262756529446
 30
0.0
 10
207.9985839351178
 20
111.387915354907
 30
0.0
 10
208.3232991051035
 20
110.6871832540915
 30
0.0
 10
208.4467391677704
 20
110.3216865057768
 30
0.0
 10
208.5687869334613
 20
109.7487505104453
 30
0.0
 10
208.5986793216399
 20
109.5533515505294
 30
0.0
 10
208.6349879871223
 20
109.165550595776
 30
0.0
 10
208.6485515123408
 20
108.7779095781917
 30
0.0
 10
208.6171728855853
 20
108.3905846909064
 30
0.0
 10
208.562877388828
 20
108.0034208768941
 30
0.0
 10
208.5240315883639
 20
107.8097341813715
 30
0.0
 10
208.3764630511578
 20
107.2442789580448
 30
0.0
 10
208.2365226216377
 20
106.8826524393795
 30
0.0
 10
207.8767314677856
 20
106.1886922369747
 30
0.0
 10
207.6603958571452
 20
105.8641364822868
 30
0.0
 10
207.1685801174784
 20
105.2666502480844
 30
0.0
 10
206.8889452601528
 20
104.9897373623215
 30
0.0
 10
206.2890134896012
 20
104.4996280879016
 30
0.0
 10
205.9679548689411
 20
104.2844511456414
 30
0.0
 10
205.455697966295
 20
104.0045568420701
 30
0.0
 10
205.2793109074443
 20
103.9183327569456
 30
0.0
 10
204.9226782332549
 20
103.7631986865744
 30
0.0
 10
204.7417177182504
 20
103.6938470041137
 30
0.0
 10
204.1911170193827
 20
103.5096505552222
 30
0.0
 10
203.8138220964872
 20
103.4184578240454
 30
0.0
 10
203.0382839530382
 20
103.3003375910701
 30
0.0
 10
202.6497386137971
 20
103.2750052480118
 30
0.0
 10
201.8751114262149
 20
103.2891674759211
 30
0.0
 10
201.4872612408394
 20
103.3287702670646
 30
0.0
 10
200.7173368470094
 20
103.4752649648745
 30
0.0
 10
200.3443696111373
 20
103.5802245348425
 30
0.0
 10
199.6218139846813
 20
103.8524597160024
 30
0.0
 10
199.2702469213621
 20
104.0208875576491
 30
0.0
 10
198.6010697236344
 20
104.4208479074739
 30
0.0
 10
198.2897661639887
 20
104.6481169577093
 30
0.0
 10
197.8580388593246
 20
105.0308532290579
 30
0.0
 10
197.7200424551746
 20
105.1654532088356
 30
0.0
 10
197.4564892250591
 20
105.4495221168299
 30
0.0
 10
197.3302224137332
 20
105.6000171318981
 30
0.0
 10
196.9790169625632
 20
106.0656860079115
 30
0.0
 10
196.7800034441453
 20
106.3955399277995
 30
0.0
 10
196.5362340307803
 20
106.9208770273886
 30
0.0
 10
196.4641703001586
 20
107.1011189260892
 30
0.0
 10
196.3397428748214
 20
107.4726357578745
 30
0.0
 10
196.2880360442172
 20
107.6624336330646
 30
0.0
 10
196.167317567907
 20
108.2327741619316
 30
0.0
 10
196.1308229617168
 20
108.6185870937816
 30
0.0
 10
196.1446079236707
 20
109.2060250532955
 30
0.0
 10
196.160923717021
 20
109.4031438892632
 30
0.0
 10
196.2156610408372
 20
109.7892855732207
 30
0.0
 10
196.2540706776459
 20
109.9797235533839
 30
0.0
 10
196.401536335617
 20
110.543365161091
 30
0.0
 10
196.545053489519
 20
110.912747379058
 30
0.0
 10
196.9038755752199
 20
111.6022339409636
 30
0.0
 10
197.118836190994
 20
111.9249136884431
 30
0.0
 10
197.6169972185841
 20
112.5283741862818
 30
0.0
 10
197.8954141412639
 20
112.8029158007233
 30
0.0
 10
198.1983390403004
 20
113.0493180552036
 30
0.0
  0
LINE
  5
F0
330
1F
100
AcDbEntity
  8
0
  6
Continuous
 62
     7
370
    15
100
AcDbLine
 10
214.938636716
 20
108.8929062456
 30
0.0
 11
214.938636716
 21
83.8929062456
 31
0.0
  0
LINE
  5
F1
330
1F
100
AcDbEntity
  8
0
  6
Continuous
 62
     7
370
    15
100
AcDbLine
 10
214.938636716
 20
133.8929062457
 30
0.0
 11
214.938636716
 21
108.8929062456
 31
0.0
  0
LINE
  5
F2
330
1F
100
AcDbEntity
  8
0
  6
Continuous
 62
     7
370
    15
100
AcDbLine
 10
215.438636716
 20
108.8929062456
 30
0.0
 11
215.438636716
 21
84.3929062456
 31
0.0
  0
LINE
  5
F3
330
1F
100
AcDbEntity
  8
0
  6
Continuous
 62
     7
370
    15
100
AcDbLine
 10
215.438636716
 20
133.3929062456
 30
0.0
 11
215.438636716
 21
108.8929062456
 31
0.0
  0
LINE
  5
F4
330
1F
100
AcDbEntity
  8
0
  6
Continuous
 62
     7
370
    15
100
AcDbLine
 10
95.188636716
 20
76.6429062456
 30
0.0
 11
95.188636716
 21
76.6446210438
 31
0.0
  0
LINE
  5
F5
330
1F
100
AcDbEntity
  8
0
  6
Continuous
 62
     7
370
    15
100
AcDbLine
 10
95.188636716
 20
141.1429062456
 30
0.0
 11
95.188636716
 21
141.1411914475
 31
0.0
  0
CIRCLE
  5
F6
330
1F
100
AcDbEntity
  8
0
  6
HIDDEN
 62
     7
370
     0
100
AcDbCircle
 10
202.388636716
 20
108.8929062456
 30
0.0
 40
3.680384757729361
  0
CIRCLE
  5
F7
330
1F
100
AcDbEntity
  8
0
  6
HIDDEN
 62
     7
370
     0
100
AcDbCircle
 10
202.388636716
 20
108.8929062456
 30
0.0
 40
3.380384757729339
  0
LINE
  5
F8
330
1F
100
AcDbEntity
  8
0
  6
HIDDEN
 62
     7
370
     0
100
AcDbLine
 10
160.1766076951
 20
147.8438690065
 30
0.0
 11
160.1766076951
 21
140.2429062457
 31
0.0
  0
LINE
  5
F9
330
1F
100
AcDbEntity
  8
0
  6
HIDDEN
 62
     7
370
     0
100
AcDbLine
 10
123.8520614654
 20
72.1570998834
 30
0.0
 11
123.5764466432
 21
72.132673886
 31
0.0
  0
SPLINE
  5
FA
330
1F
100
AcDbEntity
  8
0
  6
HIDDEN
 62
     7
370
     0
100
AcDbSpline
210
0.0
220
0.0
230
1.0
 70
     8
 71
     3
 72
    13
 73
     9
 74
     0
 42
0.000000001
 43
0.00000001
 40
0.0
 40
0.0
 40
0.0
 40
0.0
 40
0.1247123583496572
 40
0.2490591701008075
 40
0.3740782882418872
 40
0.5009715943216706
 40
0.7521524312994651
 40
1.0
 40
1.0
 40
1.0
 40
1.0
 10
121.9579417337767
 20
145.8242123399004
 30
0.0
 10
121.9637283442267
 20
145.8234360950979
 30
0.0
 10
121.9752846038904
 20
145.8218858807578
 30
0.0
 10
122.0722947206452
 20
145.8096695740083
 30
0.0
 10
122.2275902565294
 20
145.7907428626305
 30
0.0
 10
122.5177585352163
 20
145.7567707842141
 30
0.0
 10
123.0053144529821
 20
145.7002494607968
 30
0.0
 10
123.5710111801036
 20
145.6524410679829
 30
0.0
 10
123.851970253462
 20
145.6286965400411
 30
0.0
  0
SPLINE
  5
FB
330
1F
100
AcDbEntity
  8
0
  6
HIDDEN
 62
     7
370
     0
100
AcDbSpline
210
0.0
220
0.0
230
1.0
 70
     8
 71
     3
 72
    33
 73
    29
 74
     0
 42
0.000000001
 43
0.00000001
 40
0.0
 40
0.0
 40
0.0
 40
0.0
 40
0.0315773698875103
 40
0.0633753287769056
 40
0.0958656851178231
 40
0.1285943208117603
 40
0.1601713694082661
 40
0.2244011681247344
 40
0.2571344568799635
 40
0.2885965627565485
 40
0.3526214070085074
 40
0.3852675959519927
 40
0.416221218400961
 40
0.47919103539153
 40
0.5112817741273478
 40
0.542125632299066
 40
0.604836055890565
 40
0.6367710793564878
 40
0.668066338471983
 40
0.7316979547407202
 40
0.7641081282919966
 40
0.7957194290717576
 40
0.8275524266255816
 40
0.8600900250720821
 40
0.8928737620729295
 40
0.9241775068323745
 40
0.9878778414776337
 40
1.0
 40
1.0
 40
1.0
 40
1.0
 10
133.6918423711821
 20
77.52658402490292
 30
0.0
 10
133.6079712241768
 20
77.54045776328465
 30
0.0
 10
133.4396430342329
 20
77.5683021573694
 30
0.0
 10
133.1402884378914
 20
77.61473479759978
 30
0.0
 10
132.8062889706326
 20
77.66334739962063
 30
0.0
 10
132.4405190087453
 20
77.71249533280789
 30
0.0
 10
131.9171390940564
 20
77.77656111840051
 30
0.0
 10
131.3407118854618
 20
77.83634263280562
 30
0.0
 10
130.7255747386103
 20
77.88634224026967
 30
0.0
 10
130.0892590125274
 20
77.92848223295312
 30
0.0
 10
129.4254784750887
 20
77.9571169576911
 30
0.0
 10
128.7534127235055
 20
77.96937640877475
 30
0.0
 10
128.0839641400738
 20
77.97070569988303
 30
0.0
 10
127.4187795729598
 20
77.95584517697354
 30
0.0
 10
126.7724883340694
 20
77.9259872125844
 30
0.0
 10
126.143298383211
 20
77.8872439845231
 30
0.0
 10
125.5435826910317
 20
77.83666575076323
 30
0.0
 10
124.9852831249099
 20
77.77826573629669
 30
0.0
 10
124.4550882545223
 20
77.71594250492717
 30
0.0
 10
123.9759215522107
 20
77.65053393039163
 30
0.0
 10
123.5610035670159
 20
77.58774502678564
 30
0.0
 10
123.2837311830898
 20
77.54324042796426
 30
0.0
 10
123.0421758975287
 20
77.50253147852929
 30
0.0
 10
122.8366838931803
 20
77.46647434787981
 30
0.0
 10
122.672519469436
 20
77.43671732292745
 30
0.0
 10
122.5130855228707
 20
77.40713200950306
 30
0.0
 10
122.4348472949221
 20
77.39218273049818
 30
0.0
 10
122.4425720852669
 20
77.3936551530994
 30
0.0
 10
122.4438070899364
 20
77.39389055738957
 30
0.0
  0
SPLINE
  5
FC
330
1F
100
AcDbEntity
  8
0
  6
HIDDEN
 62
     7
370
     0
100
AcDbSpline
210
0.0
220
0.0
230
1.0
 70
     8
 71
     3
 72
    32
 73
    28
 74
     0
 42
0.000000001
 43
0.00000001
 40
0.0
 40
0.0
 40
0.0
 40
0.0
 40
0.0203568221721047
 40
0.0512207857583791
 40
0.1139954454389429
 40
0.1459779869097671
 40
0.1769364677636723
 40
0.2398766914470386
 40
0.2719275468465718
 40
0.3033698011481655
 40
0.3673099924152951
 40
0.3998847012176185
 40
0.4314690120325904
 40
0.4957360700021207
 40
0.5285028301030417
 40
0.5596434488300027
 40
0.6230067766607695
 40
0.655307982320555
 40
0.6861132872619365
 40
0.7487562626891764
 40
0.7806634244345368
 40
0.8117607067089879
 40
0.8749825776111486
 40
0.9071778073885578
 40
0.9301738434827024
 40
0.9765719131095673
 40
1.0
 40
1.0
 40
1.0
 40
1.0
 10
122.4438070899364
 20
140.3919219339104
 30
0.0
 10
122.4434500380301
 20
140.3919894128373
 30
0.0
 10
122.4425516424436
 20
140.392159199832
 30
0.0
 10
122.5051453889963
 20
140.3802649586445
 30
0.0
 10
122.6469565704598
 20
140.353618081725
 30
0.0
 10
122.8710011623353
 20
140.3132360103124
 30
0.0
 10
123.1455432781695
 20
140.2653667685619
 30
0.0
 10
123.4942345671771
 20
140.2078968832821
 30
0.0
 10
123.9105105295545
 20
140.1454023362276
 30
0.0
 10
124.3721045764173
 20
140.0808766545883
 30
0.0
 10
124.8956425255124
 20
140.0162962776051
 30
0.0
 10
125.4678399999672
 20
139.9575409127202
 30
0.0
 10
126.0700463704191
 20
139.9041680563381
 30
0.0
 10
126.7112728772006
 20
139.8613054945058
 30
0.0
 10
127.3723581951968
 20
139.8332414484848
 30
0.0
 10
128.0390691496433
 20
139.8156527909451
 30
0.0
 10
128.7129583702503
 20
139.8142061427043
 30
0.0
 10
129.3773078541981
 20
139.8291316818421
 30
0.0
 10
130.0288421283577
 20
139.8541384070658
 30
0.0
 10
130.6595013410137
 20
139.8932424497477
 30
0.0
 10
131.2570403168362
 20
139.9433436075314
 30
0.0
 10
131.8310382847909
 20
139.9995147740145
 30
0.0
 10
132.3619879981842
 20
140.0624288027033
 30
0.0
 10
132.8053688794483
 20
140.1225323047569
 30
0.0
 10
133.1568895270219
 20
140.1734220217422
 30
0.0
 10
133.4465570369988
 20
140.2185444982801
 30
0.0
 10
133.6302198013965
 20
140.2490075101675
 30
0.0
 10
133.6918423711821
 20
140.259228466397
 30
0.0
  0
SPLINE
  5
FD
330
1F
100
AcDbEntity
  8
0
  6
HIDDEN
 62
     7
370
     0
100
AcDbSpline
210
0.0
220
0.0
230
1.0
 70
     8
 71
     3
 72
    13
 73
     9
 74
     0
 42
0.000000001
 43
0.00000001
 40
0.0
 40
0.0
 40
0.0
 40
0.0
 40
0.1623780157664743
 40
0.3258923512074698
 40
0.4929758429602523
 40
0.6612879755626292
 40
0.8236963827420958
 40
1.0
 40
1.0
 40
1.0
 40
1.0
 10
133.6918423711821
 20
140.259228466397
 30
0.0
 10
133.7674318793193
 20
140.2716042385473
 30
0.0
 10
133.9191398701898
 20
140.2964423883733
 30
0.0
 10
134.1020387825363
 20
140.3237007379225
 30
0.0
 10
134.2511009832806
 20
140.3448205792391
 30
0.0
 10
134.3550517056439
 20
140.3588070306283
 30
0.0
 10
134.4303847741403
 20
140.3686001500885
 30
0.0
 10
134.4221543712632
 20
140.3675287344584
 30
0.0
 10
134.4178703491618
 20
140.3669710499431
 30
0.0
  0
SPLINE
  5
FE
330
1F
100
AcDbEntity
  8
0
  6
HIDDEN
 62
     7
370
     0
100
AcDbSpline
210
0.0
220
0.0
230
1.0
 70
     8
 71
     3
 72
    10
 73
     6
 74
     0
 42
0.000000001
 43
0.00000001
 40
0.0
 40
0.0
 40
0.0
 40
0.0
 40
0.3220199915185495
 40
0.6559135963601063
 40
1.0
 40
1.0
 40
1.0
 40
1.0
 10
134.4353360208167
 20
77.4165963228991
 30
0.0
 10
134.4207942300716
 20
77.41849169085918
 30
0.0
 10
134.3911744595096
 20
77.4223523133294
 30
0.0
 10
134.1417267191105
 20
77.45486741743771
 30
0.0
 10
133.8432993464791
 20
77.50244008547658
 30
0.0
 10
133.6918423711821
 20
77.52658402490292
 30
0.0
  0
LINE
  5
FF
330
1F
100
AcDbEntity
  8
0
  6
HIDDEN
 62
     7
370
     0
100
AcDbLine
 10
113.435261043
 20
82.3929062456
 30
0.0
 11
113.435261043
 21
135.3929062457
 31
0.0
  0
LINE
  5
100
330
1F
100
AcDbEntity
  8
0
  6
HIDDEN
 62
     7
370
     0
100
AcDbLine
 10
152.7227143344
 20
82.3929062456
 30
0.0
 11
152.7227143344
 21
135.3929062457
 31
0.0
  0
LINE
  5
101
330
1F
100
AcDbEntity
  8
0
  6
HIDDEN
 62
     7
370
     0
100
AcDbLine
 10
155.888636716
 20
84.0179062456
 30
0.0
 11
155.888636716
 21
133.7679062309
 31
0.0
  0
SPLINE
  5
102
330
1F
100
AcDbEntity
  8
0
  6
HIDDEN
 62
     7
370
     0
100
AcDbSpline
210
0.0
220
0.0
230
1.0
 70
     8
 71
     3
 72
    20
 73
    16
 74
     0
 42
0.000000001
 43
0.00000001
 40
0.0
 40
0.0
 40
0.0
 40
0.0
 40
0.2499999999999978
 40
0.2499999999999978
 40
0.3749999999999982
 40
0.3749999999999982
 40
0.4999999999999986
 40
0.4999999999999986
 40
0.6249999999999989
 40
0.6249999999999989
 40
0.7499999999999992
 40
0.7499999999999992
 40
0.8749999999999997
 40
0.8749999999999997
 40
1.0
 40
1.0
 40
1.0
 40
1.0
 10
103.6386367159911
 20
134.1214198760643
 30
0.0
 10
103.6386367159911
 20
134.042216889532
 30
0.0
 10
103.5916542207783
 20
133.9611206711291
 30
0.0
 10
103.4538326300007
 20
133.8409239793782
 30
0.0
 10
103.3975503460908
 20
133.8019972753761
 30
0.0
 10
103.2644654946235
 20
133.7268085429517
 30
0.0
 10
103.1866255523905
 20
133.6901663376097
 30
0.0
 10
103.0139931962761
 20
133.6225758047779
 30
0.0
 10
102.9196001991851
 20
133.5916176230023
 30
0.0
 10
102.7141628928699
 20
133.5360932016326
 30
0.0
 10
102.6018166528827
 20
133.5113846877993
 30
0.0
 10
102.3695757889831
 20
133.4715884606911
 30
0.0
 10
102.2488651465604
 20
133.4561686232941
 30
0.0
 10
101.9977942872913
 20
133.4350886484545
 30
0.0
 10
101.8682722908756
 20
133.4296114034335
 30
0.0
 10
101.7386367159911
 20
133.4296114034335
 30
0.0
  0
LINE
  5
103
330
1F
100
AcDbEntity
  8
0
  6
HIDDEN
 62
     7
370
     0
100
AcDbLine
 10
101.738636716
 20
133.4296114034
 30
0.0
 11
95.188636716
 21
133.4296114034
 31
0.0
  0
LINE
  5
104
330
1F
100
AcDbEntity
  8
0
  6
HIDDEN
 62
     7
370
     0
100
AcDbLine
 10
95.188636716
 20
84.3562010879
 30
0.0
 11
106.738636716
 21
84.3562010879
 31
0.0
  0
SPLINE
  5
105
330
1F
100
AcDbEntity
  8
0
  6
HIDDEN
 62
     7
370
     0
100
AcDbSpline
210
0.0
220
0.0
230
1.0
 70
     8
 71
     3
 72
    18
 73
    14
 74
     0
 42
0.000000001
 43
0.00000001
 40
0.0
 40
0.0
 40
0.0
 40
0.0
 40
0.1249999999999982
 40
0.1249999999999982
 40
0.2499999999999964
 40
0.2499999999999964
 40
0.4999999999999988
 40
0.4999999999999988
 40
0.7500000000000011
 40
0.7500000000000011
 40
0.8750000000000006
 40
0.8750000000000006
 40
1.0
 40
1.0
 40
1.0
 40
1.0
 10
106.738636715991
 20
84.35620108786648
 30
0.0
 10
106.8681040289483
 20
84.35620108786647
 30
0.0
 10
106.9951147778449
 20
84.35084808927382
 30
0.0
 10
107.2444780990422
 20
84.33011011658505
 30
0.0
 10
107.3681017536706
 20
84.31443821233076
 30
0.0
 10
107.7171340906046
 20
84.25474348392866
 30
0.0
 10
107.9276458554114
 20
84.1969783042477
 30
0.0
 10
108.2715625331109
 20
84.06245646297019
 30
0.0
 10
108.4079129346288
 20
83.98478734946478
 30
0.0
 10
108.5449509911913
 20
83.86549621537745
 30
0.0
 10
108.5801700099042
 20
83.8245772062424
 30
0.0
 10
108.6267935868427
 20
83.74392121295236
 30
0.0
 10
108.6386367159911
 20
83.70395269275951
 30
0.0
 10
108.6386367159911
 20
83.66439261523568
 30
0.0
  0
LINE
  5
106
330
1F
100
AcDbEntity
  8
0
  6
HIDDEN
 62
     7
370
     0
100
AcDbLine
 10
95.188636716
 20
84.3562010879
 30
0.0
 11
95.188636716
 21
133.4296114034
 31
0.0
  0
LINE
  5
107
330
1F
100
AcDbEntity
  8
0
  6
HIDDEN
 62
     7
370
     0
100
AcDbLine
 10
95.188636716
 20
81.5229062456
 30
0.0
 11
95.188636716
 21
76.6446210438
 31
0.0
  0
LINE
  5
108
330
1F
100
AcDbEntity
  8
0
  6
HIDDEN
 62
     7
370
     0
100
AcDbLine
 10
108.638636716
 20
81.5229062456
 30
0.0
 11
108.638636716
 21
75.0235729803
 31
0.0
  0
LINE
  5
109
330
1F
100
AcDbEntity
  8
0
  6
HIDDEN
 62
     7
370
     0
100
AcDbLine
 10
103.638636716
 20
136.2629062456
 30
0.0
 11
103.638636716
 21
142.6375149826
 31
0.0
  0
LINE
  5
10A
330
1F
100
AcDbEntity
  8
0
  6
HIDDEN
 62
     7
370
     0
100
AcDbLine
 10
95.188636716
 20
136.2629062456
 30
0.0
 11
95.188636716
 21
141.1411914475
 31
0.0
  0
SPLINE
  5
10B
330
1F
100
AcDbEntity
  8
0
  6
HIDDEN
 62
     7
370
     0
100
AcDbSpline
210
0.0
220
0.0
230
1.0
 70
     8
 71
     3
 72
    16
 73
    12
 74
     0
 42
0.000000001
 43
0.00000001
 40
0.0
 40
0.0
 40
0.0
 40
0.0
 40
0.2500000000000016
 40
0.2500000000000016
 40
0.5000000000000032
 40
0.5000000000000032
 40
0.6250000000000021
 40
0.6250000000000021
 40
0.750000000000001
 40
0.750000000000001
 40
1.0
 40
1.0
 40
1.0
 40
1.0
 10
215.4386367159911
 20
121.9613827033684
 30
0.0
 10
215.4386367159911
 20
121.871862311466
 30
0.0
 10
215.433409209115
 20
121.7805592032965
 30
0.0
 10
215.4041373734048
 20
121.591536868786
 30
0.0
 10
215.3803938498095
 20
121.491691617352
 30
0.0
 10
215.3120847889745
 20
121.3515043322978
 30
0.0
 10
215.2832139473181
 20
121.3070671033621
 30
0.0
 10
215.2167629037255
 20
121.2371787750403
 30
0.0
 10
215.178955887211
 20
121.2117786718356
 30
0.0
 10
215.0687336690025
 20
121.1669562903301
 30
0.0
 10
215.0007234198169
 20
121.1727987312919
 30
0.0
 10
214.9386367159741
 20
121.1890037858341
 30
0.0
  0
SPLINE
  5
10C
330
1F
100
AcDbEntity
  8
0
  6
HIDDEN
 62
     7
370
     0
100
AcDbSpline
210
0.0
220
0.0
230
1.0
 70
     8
 71
     3
 72
     8
 73
     4
 74
     0
 42
0.000000001
 43
0.00000001
 40
0.0
 40
0.0
 40
0.0
 40
0.0
 40
1.0
 40
1.0
 40
1.0
 40
1.0
 10
214.9386367159741
 20
121.1890037858341
 30
0.0
 10
214.8523933311668
 20
121.1303469416875
 30
0.0
 10
214.7490140227478
 20
121.0902741057179
 30
0.0
 10
214.638636715991
 20
121.0902741057179
 30
0.0
  0
SPLINE
  5
10D
330
1F
100
AcDbEntity
  8
0
  6
HIDDEN
 62
     7
370
     0
100
AcDbSpline
210
0.0
220
0.0
230
1.0
 70
     8
 71
     3
 72
     8
 73
     4
 74
     0
 42
0.000000001
 43
0.00000001
 40
0.0
 40
0.0
 40
0.0
 40
0.0
 40
1.0
 40
1.0
 40
1.0
 40
1.0
 10
214.9386367160073
 20
96.59680870544331
 30
0.0
 10
214.8523933311924
 20
96.65546554960243
 30
0.0
 10
214.749014022762
 20
96.69553838558204
 30
0.0
 10
214.638636715991
 20
96.69553838558204
 30
0.0
  0
SPLINE
  5
10E
330
1F
100
AcDbEntity
  8
0
  6
HIDDEN
 62
     7
370
     0
100
AcDbSpline
210
0.0
220
0.0
230
1.0
 70
     8
 71
     3
 72
    16
 73
    12
 74
     0
 42
0.000000001
 43
0.00000001
 40
0.0
 40
0.0
 40
0.0
 40
0.0
 40
0.2500000000000249
 40
0.2500000000000249
 40
0.3750000000000256
 40
0.3750000000000256
 40
0.5000000000000263
 40
0.5000000000000263
 40
0.7500000000000131
 40
0.7500000000000131
 40
1.0
 40
1.0
 40
1.0
 40
1.0
 10
214.9386367159972
 20
96.59680870544635
 30
0.0
 10
215.0007098653835
 20
96.61301029983335
 30
0.0
 10
215.0687714227814
 20
96.6188381229418
 30
0.0
 10
215.1789181047548
 20
96.57405517670189
 30
0.0
 10
215.2163468716926
 20
96.54895862111977
 30
0.0
 10
215.2827572868246
 20
96.47934637742144
 30
0.0
 10
215.3117513029296
 20
96.43490028206206
 30
0.0
 10
215.3803499952488
 20
96.2944073472054
 30
0.0
 10
215.4038890660615
 20
96.19536833615072
 30
0.0
 10
215.4332896095794
 20
96.00653454938426
 30
0.0
 10
215.438636715991
 20
95.9140244435909
 30
0.0
 10
215.4386367159911
 20
95.82443096767709
 30
0.0
  0
LINE
  5
10F
330
1F
100
AcDbEntity
  8
0
  6
HIDDEN
 62
     7
370
     0
100
AcDbLine
 10
184.938636716
 20
108.8929062456
 30
0.0
 11
184.938636716
 21
95.3929062456
 31
0.0
  0
LINE
  5
110
330
1F
100
AcDbEntity
  8
0
  6
HIDDEN
 62
     7
370
     0
100
AcDbLine
 10
184.938636716
 20
122.3929062456
 30
0.0
 11
184.938636716
 21
108.8929062456
 31
0.0
  0
LINE
  5
111
330
1F
100
AcDbEntity
  8
0
  6
HIDDEN
 62
     7
370
     0
100
AcDbLine
 10
189.8046621198
 20
108.8929062456
 30
0.0
 11
189.8046621198
 21
94.8929062456
 31
0.0
  0
LINE
  5
112
330
1F
100
AcDbEntity
  8
0
  6
HIDDEN
 62
     7
370
     0
100
AcDbLine
 10
189.8046621198
 20
122.8929062456
 30
0.0
 11
189.8046621198
 21
108.8929062456
 31
0.0
  0
LINE
  5
113
330
1F
100
AcDbEntity
  8
0
  6
HIDDEN
 62
     7
370
     0
100
AcDbLine
 10
201.838636716
 20
121.0902741057
 30
0.0
 11
214.638636716
 21
121.0902741057
 31
0.0
  0
LINE
  5
114
330
1F
100
AcDbEntity
  8
0
  6
HIDDEN
 62
     7
370
     0
100
AcDbLine
 10
201.838636716
 20
96.6955383856
 30
0.0
 11
214.638636716
 21
96.6955383856
 31
0.0
  0
LINE
  5
115
330
1F
100
AcDbEntity
  8
0
  6
HIDDEN
 62
     7
370
     0
100
AcDbLine
 10
171.738636716
 20
95.8929062456
 30
0.0
 11
171.738636716
 21
121.8929062456
 31
0.0
  0
LINE
  5
116
330
1F
100
AcDbEntity
  8
0
  6
HIDDEN
 62
     7
370
     0
100
AcDbLine
 10
167.738636716
 20
95.8929062456
 30
0.0
 11
167.738636716
 21
121.8929062456
 31
0.0
  0
LINE
  5
117
330
1F
100
AcDbEntity
  8
0
  6
HIDDEN
 62
     7
370
     0
100
AcDbLine
 10
156.638636716
 20
97.6429062456
 30
0.0
 11
156.638636716
 21
120.1429062456
 31
0.0
  0
ELLIPSE
  5
118
330
1F
100
AcDbEntity
  8
0
  6
HIDDEN
 62
     7
370
     0
100
AcDbEllipse
 10
87.2539635157
 20
108.8929062456
 30
0.0
 11
31.08108570811662
 21
1.421085471520200E-14
 31
0.0
210
0.0
220
0.0
230
1.0
 40
0.8164965809
 41
1.312649268214811
 42
1.367189972061496
  0
ELLIPSE
  5
119
330
1F
100
AcDbEntity
  8
0
  6
HIDDEN
 62
     7
370
     0
100
AcDbEllipse
 10
87.2539635157
 20
108.8929062456
 30
0.0
 11
31.08108570811662
 21
-1.421085471520200E-14
 31
0.0
210
0.0
220
0.0
230
1.0
 40
0.8164965809
 41
4.915995335118102
 42
4.970536038964788
  0
LINE
  5
11A
330
1F
100
AcDbEntity
  8
0
  6
HIDDEN
 62
     7
370
     0
100
AcDbLine
 10
172.388636716
 20
64.9929062456
 30
0.0
 11
158.388636716
 21
64.9929062456
 31
0.0
  0
LINE
  5
11B
330
1F
100
AcDbEntity
  8
0
  6
HIDDEN
 62
     7
370
     0
100
AcDbLine
 10
148.388636716
 20
58.9029072459
 30
0.0
 11
148.388636716
 21
64.9929062456
 31
0.0
  0
LINE
  5
11C
330
1F
100
AcDbEntity
  8
0
  6
HIDDEN
 62
     7
370
     0
100
AcDbLine
 10
158.388636716
 20
64.9929062456
 30
0.0
 11
148.388636716
 21
64.9929062456
 31
0.0
  0
LINE
  5
11D
330
1F
100
AcDbEntity
  8
0
  6
HIDDEN
 62
     7
370
     0
100
AcDbLine
 10
108.638636716
 20
81.5229062456
 30
0.0
 11
108.638636716
 21
83.6643926152
 31
0.0
  0
LINE
  5
11E
330
1F
100
AcDbEntity
  8
0
  6
HIDDEN
 62
     7
370
     0
100
AcDbLine
 10
95.188636716
 20
81.5229062456
 30
0.0
 11
95.188636716
 21
84.3562010879
 31
0.0
  0
LINE
  5
11F
330
1F
100
AcDbEntity
  8
0
  6
HIDDEN
 62
     7
370
     0
100
AcDbLine
 10
95.188636716
 20
136.2629062456
 30
0.0
 11
95.188636716
 21
133.4296114034
 31
0.0
  0
LINE
  5
120
330
1F
100
AcDbEntity
  8
0
  6
HIDDEN
 62
     7
370
     0
100
AcDbLine
 10
103.638636716
 20
136.2629062456
 30
0.0
 11
103.638636716
 21
134.1214198761
 31
0.0
  0
LINE
  5
121
330
1F
100
AcDbEntity
  8
0
  6
HIDDEN
 62
     7
370
     0
100
AcDbLine
 10
158.388636716
 20
152.7929062456
 30
0.0
 11
148.388636716
 21
152.7929062456
 31
0.0
  0
LINE
  5
122
330
1F
100
AcDbEntity
  8
0
  6
HIDDEN
 62
     7
370
     0
100
AcDbLine
 10
172.388636716
 20
152.7929062456
 30
0.0
 11
158.388636716
 21
152.7929062456
 31
0.0
  0
LINE
  5
123
330
1F
100
AcDbEntity
  8
0
  6
HIDDEN
 62
     7
370
     0
100
AcDbLine
 10
214.9386367154
 20
91.0929062456
 30
0.0
 11
214.938636716
 21
96.5968087054
 31
0.0
  0
SPLINE
  5
124
330
1F
100
AcDbEntity
  8
0
  6
HIDDEN
 62
     7
370
     0
100
AcDbSpline
210
0.0
220
0.0
230
1.0
 70
     8
 71
     3
 72
    14
 73
    10
 74
     0
 42
0.000000001
 43
0.00000001
 40
0.0
 40
0.0
 40
0.0
 40
0.0
 40
0.0746618067347666
 40
0.2406348416865439
 40
0.4015158956211807
 40
0.5670617176371564
 40
0.72800265612333
 40
0.8935907796845072
 40
1.0
 40
1.0
 40
1.0
 40
1.0
 10
214.8796323430413
 20
89.00788433122943
 30
0.0
 10
214.8781413484784
 20
89.00651906858914
 30
0.0
 10
214.8733358762259
 20
89.00211883005124
 30
0.0
 10
214.8737467882754
 20
89.12166354534298
 30
0.0
 10
214.8824486101286
 20
89.35929290467568
 30
0.0
 10
214.8998307079545
 20
89.70864017085967
 30
0.0
 10
214.9207473318103
 20
90.15909778347776
 30
0.0
 10
214.9359480829914
 20
90.62907125311624
 30
0.0
 10
214.9378806627599
 20
90.96247425904868
 30
0.0
 10
214.9386367153868
 20
91.09290624564997
 30
0.0
  0
LINE
  5
125
330
1F
100
AcDbEntity
  8
0
  6
HIDDEN
 62
     7
370
     0
100
AcDbLine
 10
201.838636716
 20
91.0929062456
 30
0.0
 11
201.838636716
 21
96.6955383856
 31
0.0
  0
LINE
  5
126
330
1F
100
AcDbEntity
  8
0
  6
HIDDEN
 62
     7
370
     0
100
AcDbLine
 10
201.838636716
 20
126.6929062456
 30
0.0
 11
201.838636716
 21
121.0902741057
 31
0.0
  0
SPLINE
  5
127
330
1F
100
AcDbEntity
  8
0
  6
HIDDEN
 62
     7
370
     0
100
AcDbSpline
210
0.0
220
0.0
230
1.0
 70
     8
 71
     3
 72
    30
 73
    26
 74
     0
 42
0.000000001
 43
0.00000001
 40
0.0
 40
0.0
 40
0.0
 40
0.0
 40
0.0531063956629778
 40
0.1124894233131686
 40
0.1778891329585079
 40
0.2129145089729707
 40
0.2494689847055759
 40
0.2912363719273281
 40
0.3260800065543187
 40
0.3539961760692372
 40
0.3749822331352214
 40
0.4414423496441708
 40
0.5001621155964538
 40
0.5546788298256151
 40
0.6144252363520871
 40
0.6794529730518659
 40
0.7140112482281225
 40
0.7499095472802134
 40
0.7913755834876041
 40
0.8260438006559825
 40
0.8539104148322312
 40
0.8749725738104934
 40
0.9411614826627749
 40
0.9999141538196605
 40
1.0
 40
1.0
 40
1.0
 40
1.0
 10
134.4381133897136
 20
71.79299693957633
 30
0.0
 10
134.4219244303478
 20
71.79789485683679
 30
0.0
 10
134.3876331424462
 20
71.8082695750075
 30
0.0
 10
134.0863611875878
 20
71.88391171997303
 30
0.0
 10
133.6441980950088
 20
71.98019665295044
 30
0.0
 10
133.149364571366
 20
72.07986168689045
 30
0.0
 10
132.6788890744583
 20
72.17213978697123
 30
0.0
 10
132.1479675990715
 20
72.26777183335764
 30
0.0
 10
131.6098171091187
 20
72.35342207321023
 30
0.0
 10
131.1517697717943
 20
72.42071386689047
 30
0.0
 10
130.4962054500171
 20
72.5090620357785
 30
0.0
 10
129.6128990106114
 20
72.60572012012771
 30
0.0
 10
128.4842372779698
 20
72.69249529668573
 30
0.0
 10
127.3944755282949
 20
72.73057399424499
 30
0.0
 10
126.2984472501716
 20
72.73242442885791
 30
0.0
 10
125.393056003549
 20
72.7062629731629
 30
0.0
 10
124.6967532934489
 20
72.66965574795192
 30
0.0
 10
124.1700735665716
 20
72.63063887249393
 30
0.0
 10
123.7034274530395
 20
72.58842974509815
 30
0.0
 10
123.3322121781212
 20
72.55142565560766
 30
0.0
 10
123.0781657001773
 20
72.52272489511796
 30
0.0
 10
122.7771105469451
 20
72.48634494449172
 30
0.0
 10
122.5216267525276
 20
72.45356477749357
 30
0.0
 10
122.4224060281833
 20
72.43722689289488
 30
0.0
 10
122.4386865856961
 20
72.43982047909833
 30
0.0
 10
122.4387103392463
 20
72.43982426317515
 30
0.0
  0
SPLINE
  5
128
330
1F
100
AcDbEntity
  8
0
  6
HIDDEN
 62
     7
370
     0
100
AcDbSpline
210
0.0
220
0.0
230
1.0
 70
     8
 71
     3
 72
    30
 73
    26
 74
     0
 42
0.000000001
 43
0.00000001
 40
0.0
 40
0.0
 40
0.0
 40
0.0
 40
0.0001299534028164
 40
0.0285602387312598
 40
0.0588632689211516
 40
0.0910432185236042
 40
0.1251035126846299
 40
0.1546915144727957
 40
0.1963696217085397
 40
0.2501233675750276
 40
0.3205373639897425
 40
0.3856212595370209
 40
0.4454136364378752
 40
0.4999659831842623
 40
0.5283577523339353
 40
0.5586418066906719
 40
0.5908258088538809
 40
0.6249160829069038
 40
0.6541905530832471
 40
0.6958683687036031
 40
0.7499351369468963
 40
0.8215936732007687
 40
0.8871442801790945
 40
0.9466388154300606
 40
1.0
 40
1.0
 40
1.0
 40
1.0
 10
122.4387469931439
 20
145.3459146949232
 30
0.0
 10
122.4387101133715
 20
145.3459227363207
 30
0.0
 10
122.4306049381287
 20
145.3476900177398
 30
0.0
 10
122.4592615571171
 20
145.3422361609223
 30
0.0
 10
122.5326541472427
 20
145.3316921617307
 30
0.0
 10
122.6763090035418
 20
145.3120072923942
 30
0.0
 10
122.877345175178
 20
145.2871679339348
 30
0.0
 10
123.1599756035969
 20
145.2529594930808
 30
0.0
 10
123.573384774751
 20
145.2092795872025
 30
0.0
 10
124.2496722566485
 20
145.1462365233694
 30
0.0
 10
125.1881031627945
 20
145.084939351601
 30
0.0
 10
126.297596374191
 20
145.0536509083637
 30
0.0
 10
127.3950771051384
 20
145.0553060757732
 30
0.0
 10
128.2951083434467
 20
145.086612277774
 30
0.0
 10
129.0064492692991
 20
145.133445426481
 30
0.0
 10
129.5718661703035
 20
145.1806122883205
 30
0.0
 10
130.1607895932607
 20
145.2400512948236
 30
0.0
 10
130.725199246334
 20
145.3064085014476
 30
0.0
 10
131.3193954408505
 20
145.3883279078967
 30
0.0
 10
131.9860036019636
 20
145.489975890629
 30
0.0
 10
132.7873363477702
 20
145.6321148012068
 30
0.0
 10
133.5398463327832
 20
145.7833593720009
 30
0.0
 10
134.0851328285454
 20
145.9012102453702
 30
0.0
 10
134.3878543605975
 20
145.9774394772303
 30
0.0
 10
134.4221448112822
 20
145.9878917868124
 30
0.0
 10
134.4383582479683
 20
145.9928339166547
 30
0.0
  0
LINE
  5
129
330
1F
100
AcDbEntity
  8
0
  6
HIDDEN
 62
     7
370
     0
100
AcDbLine
 10
201.838636716
 20
88.9929062456
 30
0.0
 11
201.838636716
 21
91.0929062456
 31
0.0
  0
LINE
  5
12A
330
1F
100
AcDbEntity
  8
0
  6
HIDDEN
 62
     7
370
     0
100
AcDbLine
 10
201.838636716
 20
128.7929062457
 30
0.0
 11
201.838636716
 21
126.6929062456
 31
0.0
  0
LINE
  5
12B
330
1F
100
AcDbEntity
  8
0
  6
HIDDEN
 62
     7
370
     0
100
AcDbLine
 10
166.7006657369
 20
147.8438690065
 30
0.0
 11
166.7006657369
 21
140.2429062457
 31
0.0
  0
LINE
  5
12C
330
1F
100
AcDbEntity
  8
0
  6
HIDDEN
 62
     7
370
     0
100
AcDbLine
 10
161.528636716
 20
143.6071414381
 30
0.0
 11
161.528636716
 21
140.2429062457
 31
0.0
  0
LINE
  5
12D
330
1F
100
AcDbEntity
  8
0
  6
HIDDEN
 62
     7
370
     0
100
AcDbLine
 10
165.348636716
 20
143.6071414381
 30
0.0
 11
165.348636716
 21
140.2429062457
 31
0.0
  0
CIRCLE
  5
12E
330
1F
100
AcDbEntity
  8
0
  6
HIDDEN
 62
     7
370
     0
100
AcDbCircle
 10
150.438636716
 20
108.8929062456
 30
0.0
 40
5.0
  0
ARC
  5
12F
330
1F
100
AcDbEntity
  8
0
  6
HIDDEN
 62
     7
370
     0
100
AcDbCircle
 10
185.938636716
 20
122.3929062457
 30
0.0
 40
1.0
100
AcDbArc
 50
0.0
 51
180.0
  0
ARC
  5
130
330
1F
100
AcDbEntity
  8
0
  6
HIDDEN
 62
     7
370
     0
100
AcDbCircle
 10
185.938636716
 20
122.3929062457
 30
0.0
 40
1.0
100
AcDbArc
 50
180.0
 51
0.0
  0
ARC
  5
131
330
1F
100
AcDbEntity
  8
0
  6
HIDDEN
 62
     7
370
     0
100
AcDbCircle
 10
185.938636716
 20
95.3929062456
 30
0.0
 40
1.0
100
AcDbArc
 50
180.0
 51
0.0
  0
ARC
  5
132
330
1F
100
AcDbEntity
  8
0
  6
HIDDEN
 62
     7
370
     0
100
AcDbCircle
 10
185.938636716
 20
95.3929062456
 30
0.0
 40
1.0
100
AcDbArc
 50
0.0
 51
180.0
  0
LINE
  5
133
330
1F
100
AcDbEntity
  8
0
  6
HIDDEN
 62
     7
370
     0
100
AcDbLine
 10
184.938636716
 20
122.3929062457
 30
0.0
 11
184.938636716
 21
95.3929062456
 31
0.0
  0
LINE
  5
134
330
1F
100
AcDbEntity
  8
0
  6
HIDDEN
 62
     7
370
     0
100
AcDbLine
 10
186.938636716
 20
95.3929062456
 30
0.0
 11
186.938636716
 21
122.3929062457
 31
0.0
  0
LINE
  5
135
330
1F
100
AcDbEntity
  8
0
  6
HIDDEN
 62
     7
370
     0
100
AcDbLine
 10
143.438636716
 20
69.4882232891
 30
0.0
 11
143.5282383399
 21
70.125771971
 31
0.0
  0
LINE
  5
136
330
1F
100
AcDbEntity
  8
0
  6
HIDDEN
 62
     7
370
     0
100
AcDbLine
 10
143.5282383399
 20
147.6600405203
 30
0.0
 11
143.438636716
 21
148.2975892022
 31
0.0
  0
ARC
  5
137
330
1F
100
AcDbEntity
  8
0
  6
HIDDEN
 62
     7
370
     0
100
AcDbCircle
 10
142.5416997975
 20
70.2644209212
 30
0.0
 40
0.9962338214386932
100
AcDbArc
 50
352.0
 51
0.0
  0
ARC
  5
138
330
1F
100
AcDbEntity
  8
0
  6
HIDDEN
 62
     7
370
     0
100
AcDbCircle
 10
142.5416997975
 20
70.2644209212
 30
0.0
 40
0.9962338214386983
100
AcDbArc
 50
0.0
 51
25.7988228126
  0
ARC
  5
139
330
1F
100
AcDbEntity
  8
0
  6
HIDDEN
 62
     7
370
     0
100
AcDbCircle
 10
142.5416997975
 20
147.5213915701
 30
0.0
 40
0.9962338214386799
100
AcDbArc
 50
348.75
 51
8.0
  0
LWPOLYLINE
  5
13A
330
1F
100
AcDbEntity
  8
0
  6
HIDDEN
 62
     7
370
     0
100
AcDbPolyline
 90
        3
 70
   128
 43
0.0
 10
143.5187912654
 20
147.3270359931
 10
143.4620998348
 20
147.1401493919
 10
143.438636716
 20
147.0878180569
  0
LINE
  5
13B
330
1F
100
AcDbEntity
  8
0
  6
HIDDEN
 62
     7
370
     0
100
AcDbLine
 10
143.537933619
 20
70.2644209212
 30
0.0
 11
143.537933619
 21
147.5213915701
 31
0.0
  0
LINE
  5
13C
330
1F
100
AcDbEntity
  8
0
  6
HIDDEN
 62
     7
370
     0
100
AcDbLine
 10
116.8993626582
 20
77.3929062456
 30
0.0
 11
122.4438070899
 21
77.3929062456
 31
0.0
  0
LINE
  5
13D
330
1F
100
AcDbEntity
  8
0
  6
HIDDEN
 62
     7
370
     0
100
AcDbLine
 10
122.4438070899
 20
140.3929062456
 30
0.0
 11
116.8993626582
 21
140.3929062456
 31
0.0
  0
ARC
  5
13E
330
1F
100
AcDbEntity
  8
0
  6
HIDDEN
 62
     7
370
     0
100
AcDbCircle
 10
133.6918423712
 20
89.3929062456
 30
0.0
 40
12.00000000000002
100
AcDbArc
 50
273.5537597149
 51
324.3146652873
  0
ARC
  5
13F
330
1F
100
AcDbEntity
  8
0
  6
HIDDEN
 62
     7
370
     0
100
AcDbCircle
 10
133.6918423712
 20
128.3929062456
 30
0.0
 40
12.00000000000002
100
AcDbArc
 50
35.6853347127
 51
86.5293109831
  0
ARC
  5
140
330
1F
100
AcDbEntity
  8
0
  6
HIDDEN
 62
     7
370
     0
100
AcDbCircle
 10
116.8993626582
 20
78.3929062456
 30
0.0
 40
1.0
100
AcDbArc
 50
210.0
 51
270.0
  0
ARC
  5
141
330
1F
100
AcDbEntity
  8
0
  6
HIDDEN
 62
     7
370
     0
100
AcDbCircle
 10
116.8993626582
 20
139.3929062456
 30
0.0
 40
1.0
100
AcDbArc
 50
90.0
 51
150.0
  0
LINE
  5
142
330
1F
100
AcDbEntity
  8
0
  6
HIDDEN
 62
     7
370
     0
100
AcDbLine
 10
116.0333372544
 20
139.8929062456
 30
0.0
 11
113.435261043
 21
135.3929062456
 31
0.0
  0
LINE
  5
143
330
1F
100
AcDbEntity
  8
0
  6
HIDDEN
 62
     7
370
     0
100
AcDbLine
 10
113.435261043
 20
82.3929062456
 30
0.0
 11
116.0333372544
 21
77.8929062456
 31
0.0
  0
ARC
  5
144
330
1F
100
AcDbEntity
  8
0
  6
HIDDEN
 62
     7
370
     0
100
AcDbCircle
 10
153.888636716
 20
84.0179062456
 30
0.0
 40
2.000000000000028
100
AcDbArc
 50
234.3409123039
 51
0.0
  0
ARC
  5
145
330
1F
100
AcDbEntity
  8
0
  6
HIDDEN
 62
     7
370
     0
100
AcDbCircle
 10
153.888636716
 20
133.7679062456
 30
0.0
 40
2.000000000000028
100
AcDbArc
 50
0.0
 51
125.6590876961
  0
LINE
  5
146
330
1F
100
AcDbEntity
  8
0
  6
HIDDEN
 62
     7
370
     0
100
AcDbLine
 10
143.438636716
 20
82.3929062456
 30
0.0
 11
152.7227143344
 21
82.3929062456
 31
0.0
  0
LINE
  5
147
330
1F
100
AcDbEntity
  8
0
  6
HIDDEN
 62
     7
370
     0
100
AcDbLine
 10
152.7227143344
 20
135.3929062456
 30
0.0
 11
143.438636716
 21
135.3929062456
 31
0.0
  0
LINE
  5
148
330
1F
100
AcDbEntity
  8
0
  6
HIDDEN
 62
     7
370
     0
100
AcDbLine
 10
108.638636716
 20
82.3929062456
 30
0.0
 11
113.435261043
 21
82.3929062456
 31
0.0
  0
LINE
  5
149
330
1F
100
AcDbEntity
  8
0
  6
HIDDEN
 62
     7
370
     0
100
AcDbLine
 10
113.435261043
 20
135.3929062456
 30
0.0
 11
103.638636716
 21
135.3929062456
 31
0.0
  0
LINE
  5
14A
330
1F
100
AcDbEntity
  8
0
  6
HIDDEN
 62
     7
370
     0
100
AcDbLine
 10
187.8069842184
 20
123.3929062456
 30
0.0
 11
185.938636716
 21
123.3929062456
 31
0.0
  0
LINE
  5
14B
330
1F
100
AcDbEntity
  8
0
  6
HIDDEN
 62
     7
370
     0
100
AcDbLine
 10
185.938636716
 20
94.3929062456
 30
0.0
 11
187.8069842184
 21
94.3929062456
 31
0.0
  0
ARC
  5
14C
330
1F
100
AcDbEntity
  8
0
  6
HIDDEN
 62
     7
370
     0
100
AcDbCircle
 10
185.938636716
 20
122.3929062456
 30
0.0
 40
1.0
100
AcDbArc
 50
90.0
 51
180.0
  0
ARC
  5
14D
330
1F
100
AcDbEntity
  8
0
  6
HIDDEN
 62
     7
370
     0
100
AcDbCircle
 10
185.938636716
 20
95.3929062456
 30
0.0
 40
1.0
100
AcDbArc
 50
180.0
 51
270.0
  0
ARC
  5
14E
330
1F
100
AcDbEntity
  8
0
  6
HIDDEN
 62
     7
370
     0
100
AcDbCircle
 10
187.8069842184
 20
122.3929062456
 30
0.0
 40
1.0
100
AcDbArc
 50
75.0
 51
90.0
  0
ARC
  5
14F
330
1F
100
AcDbEntity
  8
0
  6
HIDDEN
 62
     7
370
     0
100
AcDbCircle
 10
187.8069842184
 20
95.3929062456
 30
0.0
 40
1.0
100
AcDbArc
 50
270.0
 51
285.0
  0
LINE
  5
150
330
1F
100
AcDbEntity
  8
0
  6
HIDDEN
 62
     7
370
     0
100
AcDbLine
 10
188.0658032635
 20
94.4269804194
 30
0.0
 11
189.8046621198
 21
94.8929062456
 31
0.0
  0
LINE
  5
151
330
1F
100
AcDbEntity
  8
0
  6
HIDDEN
 62
     7
370
     0
100
AcDbLine
 10
189.8046621198
 20
122.8929062456
 30
0.0
 11
188.0658032635
 21
123.3588320719
 31
0.0
  0
LINE
  5
152
330
1F
100
AcDbEntity
  8
0
  6
HIDDEN
 62
     7
370
     0
100
AcDbLine
 10
201.838636716
 20
122.8929062456
 30
0.0
 11
189.8046621198
 21
122.8929062456
 31
0.0
  0
LINE
  5
153
330
1F
100
AcDbEntity
  8
0
  6
HIDDEN
 62
     7
370
     0
100
AcDbLine
 10
189.8046621198
 20
94.8929062456
 30
0.0
 11
201.838636716
 21
94.8929062456
 31
0.0
  0
LINE
  5
154
330
1F
100
AcDbEntity
  8
0
  6
HIDDEN
 62
     7
370
     0
100
AcDbLine
 10
167.738636716
 20
95.8929062456
 30
0.0
 11
171.738636716
 21
95.8929062456
 31
0.0
  0
LINE
  5
155
330
1F
100
AcDbEntity
  8
0
  6
HIDDEN
 62
     7
370
     0
100
AcDbLine
 10
171.738636716
 20
121.8929062456
 30
0.0
 11
167.738636716
 21
121.8929062456
 31
0.0
  0
LINE
  5
156
330
1F
100
AcDbEntity
  8
0
  6
HIDDEN
 62
     7
370
     0
100
AcDbLine
 10
155.888636716
 20
96.8929062456
 30
0.0
 11
156.638636716
 21
97.6429062456
 31
0.0
  0
LINE
  5
157
330
1F
100
AcDbEntity
  8
0
  6
HIDDEN
 62
     7
370
     0
100
AcDbLine
 10
156.638636716
 20
120.1429062456
 30
0.0
 11
155.888636716
 21
120.8929062456
 31
0.0
  0
LINE
  5
158
330
1F
100
AcDbEntity
  8
0
  6
HIDDEN
 62
     7
370
     0
100
AcDbLine
 10
156.638636716
 20
97.6429062456
 30
0.0
 11
167.738636716
 21
97.6429062456
 31
0.0
  0
LINE
  5
159
330
1F
100
AcDbEntity
  8
0
  6
HIDDEN
 62
     7
370
     0
100
AcDbLine
 10
167.738636716
 20
120.1429062456
 30
0.0
 11
156.638636716
 21
120.1429062456
 31
0.0
  0
LINE
  5
15A
330
1F
100
AcDbEntity
  8
0
  6
HIDDEN
 62
     7
370
     0
100
AcDbLine
 10
148.388636716
 20
158.8929062457
 30
0.0
 11
148.388636716
 21
152.7929062456
 31
0.0
  0
LINE
  5
15B
330
1F
100
AcDbEntity
  8
0
  6
HIDDEN
 62
     7
370
     0
100
AcDbLine
 10
215.438636716
 20
129.3521409137
 30
0.0
 11
214.8686860984
 21
128.7822135178
 31
0.0
  0
LINE
  5
15C
330
1F
100
AcDbEntity
  8
0
  6
HIDDEN
 62
     7
370
     0
100
AcDbLine
 10
214.8689976806
 20
89.0032847107
 30
0.0
 11
215.438636716
 21
88.4336701458
 31
0.0
  0
LINE
  5
15D
330
1F
100
AcDbEntity
  8
0
  6
HIDDEN
 62
     7
370
     0
100
AcDbLine
 10
134.871349332
 20
71.314626675
 30
0.0
 11
134.4386400455
 21
71.7928513924
 31
0.0
  0
LINE
  5
15E
330
1F
100
AcDbEntity
  8
0
  6
HIDDEN
 62
     7
370
     0
100
AcDbLine
 10
122.438637174
 20
72.4398127491
 30
0.0
 11
121.9580098688
 21
71.9615880383
 31
0.0
  0
LINE
  5
15F
330
1F
100
AcDbEntity
  8
0
  6
HIDDEN
 62
     7
370
     0
100
AcDbLine
 10
121.9578915273
 20
145.8242185369
 30
0.0
 11
122.4386369914
 21
145.345938865
 31
0.0
  0
LINE
  5
160
330
1F
100
AcDbEntity
  8
0
  6
HIDDEN
 62
     7
370
     0
100
AcDbLine
 10
134.4386367181
 20
145.9929112524
 30
0.0
 11
134.8714583878
 21
146.4711909253
 31
0.0
  0
LINE
  5
161
330
1F
100
AcDbEntity
  8
0
  6
HIDDEN
 62
     7
370
     0
100
AcDbLine
 10
134.438636716
 20
71.6927225501
 30
0.0
 11
134.438636716
 21
77.416580343
 31
0.0
  0
LINE
  5
162
330
1F
100
AcDbEntity
  8
0
  6
HIDDEN
 62
     7
370
     0
100
AcDbLine
 10
122.438636716
 20
77.393890445
 30
0.0
 11
122.438636716
 21
72.4398511636
 31
0.0
  0
LINE
  5
163
330
1F
100
AcDbEntity
  8
0
  6
HIDDEN
 62
     7
370
     0
100
AcDbLine
 10
134.438636716
 20
140.3669711396
 30
0.0
 11
134.438636716
 21
146.0929150785
 31
0.0
  0
LINE
  5
164
330
1F
100
AcDbEntity
  8
0
  6
HIDDEN
 62
     7
370
     0
100
AcDbLine
 10
122.438636716
 20
145.3459283658
 30
0.0
 11
122.438636716
 21
140.3919220463
 31
0.0
  0
LINE
  5
165
330
1F
100
AcDbEntity
  8
0
  6
HIDDEN
 62
     7
370
     0
100
AcDbLine
 10
171.738636716
 20
103.7929062456
 30
0.0
 11
184.938636716
 21
103.7929062456
 31
0.0
  0
LINE
  5
166
330
1F
100
AcDbEntity
  8
0
  6
HIDDEN
 62
     7
370
     0
100
AcDbLine
 10
184.938636716
 20
113.9929062456
 30
0.0
 11
171.738636716
 21
113.9929062456
 31
0.0
  0
LINE
  5
167
330
1F
100
AcDbEntity
  8
0
  6
HIDDEN
 62
     7
370
     0
100
AcDbLine
 10
201.838636716
 20
88.9929062456
 30
0.0
 11
214.8804690008
 21
88.9929062456
 31
0.0
  0
LINE
  5
168
330
1F
100
AcDbEntity
  8
0
  6
HIDDEN
 62
     7
370
     0
100
AcDbLine
 10
214.8798609722
 20
128.7929062457
 30
0.0
 11
201.838636716
 21
128.7929062457
 31
0.0
  0
DIMENSION
  5
169
330
1F
100
AcDbEntity
  8
VERMASSUNG
100
AcDbDimension
  2
_D
 10
86.8190186085
 20
58.8929062456
 30
0.0
 11
86.8190186085
 21
108.8929062456
 31
0.0
 70
   160
  1
HSK A 100 %%c<>
 71
     2
 42
-1.0
  3
SLDDIMSTYLE0
100
AcDbAlignedDimension
 13
143.938636716
 23
158.8929062457
 33
0.0
 14
143.938636716
 24
58.8929062456
 34
0.0
 50
90.0
100
AcDbRotatedDimension
  0
DIMENSION
  5
176
330
1F
100
AcDbEntity
  8
VERMASSUNG
100
AcDbDimension
  2
_D_1
 10
222.8584580359
 20
94.8929062456
 30
0.0
 11
222.8584580359
 21
108.8929062456
 31
0.0
 70
   160
  1
%%c<>
 71
     2
 42
-1.0
  3
SLDDIMSTYLE0
100
AcDbAlignedDimension
 13
201.838636716
 23
122.8929062456
 33
0.0
 14
201.838636716
 24
94.8929062456
 34
0.0
 50
90.0
100
AcDbRotatedDimension
  0
DIMENSION
  5
181
330
1F
100
AcDbEntity
  8
VERMASSUNG
100
AcDbDimension
  2
_D_2
 10
228.8584580359
 20
83.8929062456
 30
0.0
 11
228.8584580359
 21
108.8929062456
 31
0.0
 70
   160
  1
ST5 %%c<>
 71
     2
 42
-1.0
  3
SLDDIMSTYLE0
100
AcDbAlignedDimension
 13
214.938636716
 23
133.8929062456
 33
0.0
 14
214.938636716
 24
83.8929062456
 34
0.0
 50
90.0
100
AcDbRotatedDimension
  0
DIMENSION
  5
18D
330
1F
100
AcDbEntity
  8
VERMASSUNG
100
AcDbDimension
  2
_D_3
 10
215.438636716
 20
176.4013418038
 30
0.0
 11
154.488636716
 21
176.4013418038
 31
0.0
 70
   160
  1
(<>)
 71
     2
 42
-1.0
  3
SLDDIMSTYLE0
100
AcDbAlignedDimension
 13
93.538636716
 23
139.3955759882
 33
0.0
 14
215.438636716
 24
133.3929062456
 34
0.0
100
AcDbRotatedDimension
  0
DIMENSION
  5
199
330
1F
100
AcDbEntity
  8
VERMASSUNG
100
AcDbDimension
  2
_D_4
 10
215.438636716
 20
170.4013418038
 30
0.0
 11
179.438636716
 21
170.4013418038
 31
0.0
 70
   160
  1
<>
 71
     2
 42
-1.0
  3
SLDDIMSTYLE0
100
AcDbAlignedDimension
 13
143.438636716
 23
158.3929062457
 33
0.0
 14
215.438636716
 24
133.3929062456
 34
0.0
100
AcDbRotatedDimension
  0
DIMENSION
  5
1A3
330
1F
100
AcDbEntity
  8
VERMASSUNG
100
AcDbDimension
  2
_D_5
 10
215.438636716
 20
164.4013418038
 30
0.0
 11
193.913636716
 21
164.4013418038
 31
0.0
 70
   160
  1
(<>)
 71
     2
 42
-1.0
  3
SLDDIMSTYLE0
100
AcDbAlignedDimension
 13
172.388636716
 23
156.8616460665
 33
0.0
 14
215.438636716
 24
133.3929062456
 34
0.0
100
AcDbRotatedDimension
  0
LINE
  5
1AF
330
1F
100
AcDbEntity
  8
VERMASSUNG
  6
CENTERX2
370
     0
100
AcDbLine
 10
91.8139872268
 20
108.8929062456
 30
0.0
 11
216.6882026839
 21
108.8929062456
 31
0.0
  0
LINE
  5
1B0
330
1F
100
AcDbEntity
  8
0
  6
Continuous
 62
     7
370
    15
100
AcDbLine
 10
271.3694748984
 20
41.2550100144
 30
0.0
 11
271.1926694789
 21
41.3571107882
 31
0.0
  0
LINE
  5
1B1
330
1F
100
AcDbEntity
  8
0
  6
Continuous
 62
     7
370
    15
100
AcDbLine
 10
268.0101719283
 20
41.3571107882
 30
0.0
 11
267.8333665088
 21
41.2550100144
 31
0.0
  0
LINE
  5
1B2
330
1F
100
AcDbEntity
  8
0
  6
Continuous
 62
     7
370
    15
100
AcDbLine
 10
272.1014207036
 20
39.9284629183
 30
0.0
 11
272.1014207036
 21
40.2346657228
 31
0.0
  0
LINE
  5
1B3
330
1F
100
AcDbEntity
  8
0
  6
Continuous
 62
     7
370
    15
100
AcDbLine
 10
267.1014207036
 20
40.2346657228
 30
0.0
 11
267.1014207036
 21
39.9284629183
 31
0.0
  0
LINE
  5
1B4
330
1F
100
AcDbEntity
  8
0
  6
Continuous
 62
     7
370
    15
100
AcDbLine
 10
274.0399523148
 20
17.4646296205
 30
0.0
 11
274.2167002789
 21
17.5666972207
 31
0.0
  0
LINE
  5
1B5
330
1F
100
AcDbEntity
  8
0
  6
Continuous
 62
     7
370
    15
100
AcDbLine
 10
282.8773505204
 20
32.5690089972
 30
0.0
 11
282.8773505204
 21
32.7731110252
 31
0.0
  0
LINE
  5
1B6
330
1F
100
AcDbEntity
  8
0
  6
Continuous
 62
     7
370
    15
100
AcDbLine
 10
280.2880078345
 20
38.4961711061
 30
0.0
 11
266.6585246272
 21
46.3643042838
 31
0.0
  0
LINE
  5
1B7
330
1F
100
AcDbEntity
  8
0
  6
Continuous
 62
     7
370
    15
100
AcDbLine
 10
254.1595404692
 20
24.7130827242
 30
0.0
 11
267.7890236766
 21
16.8449495465
 31
0.0
  0
LINE
  5
1B8
330
1F
100
AcDbEntity
  8
0
  6
Continuous
 62
     7
370
    15
100
AcDbLine
 10
236.4372408655
 20
20.5105827516
 30
0.0
 11
242.1782305615
 21
17.1963799449
 31
0.0
  0
LINE
  5
1B9
330
1F
100
AcDbEntity
  8
0
  6
Continuous
 62
     7
370
    15
100
AcDbLine
 10
263.6216029901
 20
62.5508475911
 30
0.0
 11
261.4352091814
 21
63.8130258707
 31
0.0
  0
SPLINE
  5
1BA
330
1F
100
AcDbEntity
  8
0
  6
Continuous
 62
     7
370
    15
100
AcDbSpline
210
0.0
220
0.0
230
1.0
 70
     8
 71
     3
 72
    14
 73
    10
 74
     0
 42
0.000000001
 43
0.00000001
 40
0.0
 40
0.0
 40
0.0
 40
0.0
 40
0.0413455578085946
 40
0.2013860601091307
 40
0.3614524094786096
 40
0.5215489478445152
 40
0.6816791855761792
 40
0.8418451735730262
 40
1.0
 40
1.0
 40
1.0
 40
1.0
 10
233.0285494226947
 20
42.16872735985096
 30
0.0
 10
232.9764598887138
 20
42.02445192405413
 30
0.0
 10
232.7227420390261
 20
41.32171472263187
 30
0.0
 10
232.352792932724
 20
40.0608851895856
 30
0.0
 10
231.9254748905273
 20
38.39763020946307
 30
0.0
 10
231.5958971089065
 20
36.75395620731195
 30
0.0
 10
231.3597050848797
 20
35.14006129173985
 30
0.0
 10
231.2125272364132
 20
33.56635344303994
 30
0.0
 10
231.1943589422274
 20
32.55916595114446
 30
0.0
 10
231.1853321890801
 20
32.05875392735494
 30
0.0
  0
SPLINE
  5
1BB
330
1F
100
AcDbEntity
  8
0
  6
Continuous
 62
     7
370
    15
100
AcDbSpline
210
0.0
220
0.0
230
1.0
 70
     8
 71
     3
 72
    18
 73
    14
 74
     0
 42
0.000000001
 43
0.00000001
 40
0.0
 40
0.0
 40
0.0
 40
0.0
 40
0.0473751429580046
 40
0.1513218785932425
 40
0.2553192363604473
 40
0.3593397119093216
 40
0.4633618651695104
 40
0.567373749873719
 40
0.671370181790129
 40
0.775349180215023
 40
0.8793108637560684
 40
0.9832566748800724
 40
1.0
 40
1.0
 40
1.0
 40
1.0
 10
252.854933380006
 20
64.36783762971464
 30
0.0
 10
252.6621228703385
 20
64.31184050420453
 30
0.0
 10
252.0462630182369
 20
64.1329789810736
 30
0.0
 10
250.9876606073432
 20
63.70373141131427
 30
0.0
 10
249.6882548832907
 20
63.08842647468174
 30
0.0
 10
248.3839829606797
 20
62.35331553648317
 30
0.0
 10
247.0833953239388
 20
61.51111061266971
 30
0.0
 10
245.7930040719239
 20
60.56434463421205
 30
0.0
 10
244.5201941835576
 20
59.5182435075816
 30
0.0
 10
243.2702628723668
 20
58.38060139901169
 30
0.0
 10
242.0552628309993
 20
57.14923776201618
 30
0.0
 10
241.1952647403244
 20
56.22200562298117
 30
0.0
 10
240.7563120117049
 20
55.68658559974804
 30
0.0
 10
240.6954156586753
 20
55.61230624202197
 30
0.0
  0
SPLINE
  5
1BC
330
1F
100
AcDbEntity
  8
0
  6
Continuous
 62
     7
370
    15
100
AcDbSpline
210
0.0
220
0.0
230
1.0
 70
     8
 71
     3
 72
    12
 73
     8
 74
     0
 42
0.000000001
 43
0.00000001
 40
0.0
 40
0.0
 40
0.0
 40
0.0
 40
0.1476715815638852
 40
0.4282174899861887
 40
0.7088369212838793
 40
0.9894180210352215
 40
1.0
 40
1.0
 40
1.0
 40
1.0
 10
231.1853321890801
 20
32.05875392735494
 30
0.0
 10
231.1880643457372
 20
31.79623529973321
 30
0.0
 10
231.1959870432091
 20
31.03498478284777
 30
0.0
 10
231.2802401774908
 20
29.81651466409716
 30
0.0
 10
231.4822418869702
 20
28.44267975034858
 30
0.0
 10
231.6574800837961
 20
27.53541867392002
 30
0.0
 10
231.790497283524
 20
27.11172755551754
 30
0.0
 10
231.7953316368894
 20
27.0963290011326
 30
0.0
  0
SPLINE
  5
1BD
330
1F
100
AcDbEntity
  8
0
  6
Continuous
 62
     7
370
    15
100
AcDbSpline
210
0.0
220
0.0
230
1.0
 70
     8
 71
     3
 72
    22
 73
    18
 74
     0
 42
0.000000001
 43
0.00000001
 40
0.0
 40
0.0
 40
0.0
 40
0.0
 40
0.0134653318491177
 40
0.0880870748005581
 40
0.1627913037283173
 40
0.2375082030700522
 40
0.3121819786711055
 40
0.3867633331151232
 40
0.4612081180333967
 40
0.5354788356504016
 40
0.6095583469644887
 40
0.6834801596438594
 40
0.7573601006682198
 40
0.8314371923265075
 40
0.9062610389915209
 40
0.9826493175225208
 40
1.0
 40
1.0
 40
1.0
 40
1.0
 10
269.7721255744551
 20
27.98132266725171
 30
0.0
 10
269.7920458184788
 20
28.03447727604019
 30
0.0
 10
269.9223594301314
 20
28.38220238618311
 30
0.0
 10
270.2179446370236
 20
29.02059955657006
 30
0.0
 10
270.684735287142
 20
29.87396715021622
 30
0.0
 10
271.2188459104242
 20
30.68548832021498
 30
0.0
 10
271.805211156853
 20
31.43913386309682
 30
0.0
 10
272.43301029773
 20
32.12010679546469
 30
0.0
 10
273.0889080035127
 20
32.71529960251487
 30
0.0
 10
273.7591698352502
 20
33.21360921811311
 30
0.0
 10
274.4294341282223
 20
33.60624032002404
 30
0.0
 10
275.0854741177041
 20
33.88741457524251
 30
0.0
 10
275.7130135156179
 20
34.05335828225198
 30
0.0
 10
276.3019157017113
 20
34.1072542157506
 30
0.0
 10
276.8373933275127
 20
34.03981179159458
 30
0.0
 10
277.2069868480303
 20
33.93408567461525
 30
0.0
 10
277.3780687560168
 20
33.8158090203601
 30
0.0
 10
277.4097352886002
 20
33.79391651536109
 30
0.0
  0
SPLINE
  5
1BE
330
1F
100
AcDbEntity
  8
0
  6
Continuous
 62
     7
370
    15
100
AcDbSpline
210
0.0
220
0.0
230
1.0
 70
     8
 71
     3
 72
    10
 73
     6
 74
     0
 42
0.000000001
 43
0.00000001
 40
0.0
 40
0.0
 40
0.0
 40
0.0
 40
0.3953116155414979
 40
0.9085730096689293
 40
1.0
 40
1.0
 40
1.0
 40
1.0
 10
270.4551547601804
 20
21.669677742366
 30
0.0
 10
270.3392419826592
 20
21.73917944872439
 30
0.0
 10
270.0728313410513
 20
21.89892020017351
 30
0.0
 10
269.8311912919353
 20
22.16599495558991
 30
0.0
 10
269.7060171047993
 20
22.35961991983774
 30
0.0
 10
269.6870911596496
 20
22.38889540815392
 30
0.0
  0
LINE
  5
1BF
330
1F
100
AcDbEntity
  8
0
  6
Continuous
 62
     7
370
    15
100
AcDbLine
 10
249.6292375685
 20
63.0357037533
 30
0.0
 11
240.3678523181
 21
67.6499813211
 31
0.0
  0
LINE
  5
1C0
330
1F
100
AcDbEntity
  8
0
  6
Continuous
 62
     7
370
    15
100
AcDbLine
 10
222.5791295628
 20
36.8356709123
 30
0.0
 11
231.2090681816
 21
31.1212839918
 31
0.0
  0
SPLINE
  5
1C1
330
1F
100
AcDbEntity
  8
0
  6
Continuous
 62
     7
370
    15
100
AcDbSpline
210
0.0
220
0.0
230
1.0
 70
     8
 71
     3
 72
    19
 73
    15
 74
     0
 42
0.000000001
 43
0.00000001
 40
0.0
 40
0.0
 40
0.0
 40
0.0
 40
0.0515715954253584
 40
0.1396329726876185
 40
0.2280331929024491
 40
0.3167503858977801
 40
0.40572644728103
 40
0.4948899105181271
 40
0.5841729691736077
 40
0.6735203773385462
 40
0.7628914397985448
 40
0.8522534183436449
 40
0.9415932144603417
 40
1.0
 40
1.0
 40
1.0
 40
1.0
 10
249.2328399742475
 20
13.83888437481214
 30
0.0
 10
249.4497950024117
 20
13.8020619595438
 30
0.0
 10
250.037212848849
 20
13.70236321524383
 30
0.0
 10
251.0466135103693
 20
13.67734017956842
 30
0.0
 10
252.2496238990316
 20
13.75125469034994
 30
0.0
 10
253.4898522595548
 20
13.95445442385906
 30
0.0
 10
254.7577572316858
 20
14.27901816967966
 30
0.0
 10
256.0468975246405
 20
14.72520452393396
 30
0.0
 10
257.3497881878607
 20
15.28987714494813
 30
0.0
 10
258.6590781936109
 20
15.97021281167298
 30
0.0
 10
259.9678413750701
 20
16.76092194627473
 30
0.0
 10
261.2676909553659
 20
17.66214256474368
 30
0.0
 10
262.4078243837261
 20
18.53713650638147
 30
0.0
 10
263.102173824037
 20
19.14991116303167
 30
0.0
 10
263.3766621972717
 20
19.3921516098418
 30
0.0
  0
SPLINE
  5
1C2
330
1F
100
AcDbEntity
  8
0
  6
Continuous
 62
     7
370
    15
100
AcDbSpline
210
0.0
220
0.0
230
1.0
 70
     8
 71
     3
 72
     9
 73
     5
 74
     0
 42
0.000000001
 43
0.00000001
 40
0.0
 40
0.0
 40
0.0
 40
0.0
 40
0.0992678485937173
 40
1.0
 40
1.0
 40
1.0
 40
1.0
 10
275.8819070892885
 20
41.03975892451386
 30
0.0
 10
275.8910433088894
 20
41.08007595304971
 30
0.0
 10
275.9830793480528
 20
41.48621982648914
 30
0.0
 10
276.0425529794255
 20
41.88378553455827
 30
0.0
 10
276.0961227913638
 20
42.24188575011275
 30
0.0
  0
LINE
  5
1C3
330
1F
100
AcDbEntity
  8
0
  6
Continuous
 62
     7
370
    15
100
AcDbLine
 10
244.4848334026
 20
15.8648064681
 30
0.0
 11
246.1422814373
 21
14.9079820843
 31
0.0
  0
SPLINE
  5
1C4
330
1F
100
AcDbEntity
  8
0
  6
Continuous
 62
     7
370
    15
100
AcDbSpline
210
0.0
220
0.0
230
1.0
 70
     8
 71
     3
 72
    15
 73
    11
 74
     0
 42
0.000000001
 43
0.00000001
 40
0.0
 40
0.0
 40
0.0
 40
0.0
 40
0.080736666310544
 40
0.2335917750242167
 40
0.386321283958642
 40
0.538727496099152
 40
0.6906762486603083
 40
0.8420556548720102
 40
0.9928184096776131
 40
1.0
 40
1.0
 40
1.0
 40
1.0
 10
276.1164249742762
 20
50.40209526462194
 30
0.0
 10
276.0680292384225
 20
50.6361542534477
 30
0.0
 10
275.9280080267691
 20
51.31334662661165
 30
0.0
 10
275.6230697760006
 20
52.37518166707405
 30
0.0
 10
275.1721792287988
 20
53.55411697273063
 30
0.0
 10
274.6283442013477
 20
54.63970555510453
 30
0.0
 10
273.9973557366966
 20
55.62755045245548
 30
0.0
 10
273.2800662924716
 20
56.50718576985526
 30
0.0
 10
272.7410689305657
 20
57.04216355664289
 30
0.0
 10
272.446117209757
 20
57.28642060826342
 30
0.0
 10
272.4327060146806
 20
57.29752676136229
 30
0.0
  0
SPLINE
  5
1C5
330
1F
100
AcDbEntity
  8
0
  6
Continuous
 62
     7
370
    15
100
AcDbSpline
210
0.0
220
0.0
230
1.0
 70
     8
 71
     3
 72
    29
 73
    25
 74
     0
 42
0.000000001
 43
0.00000001
 40
0.0
 40
0.0
 40
0.0
 40
0.0
 40
0.026770898006422
 40
0.073183090714602
 40
0.1198328494062235
 40
0.1669178394766241
 40
0.2145286557399015
 40
0.2626462319545399
 40
0.3111726439241767
 40
0.359977655846153
 40
0.4089386380521153
 40
0.4579616615716893
 40
0.5069725367947827
 40
0.5559433341555629
 40
0.6048637847586216
 40
0.6537339534836287
 40
0.7025599166372645
 40
0.7513510588959648
 40
0.8001184989879662
 40
0.8488742342338452
 40
0.8976307113093552
 40
0.9463977090844017
 40
0.9951867623175004
 40
1.0
 40
1.0
 40
1.0
 40
1.0
 10
240.1777661452632
 20
67.72293184827116
 30
0.0
 10
240.0137328498643
 20
67.80078569005576
 30
0.0
 10
239.565318174551
 20
68.01361324497884
 30
0.0
 10
238.7677798621066
 20
68.2274792929842
 30
0.0
 10
237.8008978914377
 20
68.3743641228596
 30
0.0
 10
236.7874018034042
 20
68.39226711326457
 30
0.0
 10
235.7365028472844
 20
68.28733926204703
 30
0.0
 10
234.6542014955644
 20
68.05727194303259
 30
0.0
 10
233.549097030028
 20
67.70345963586114
 30
0.0
 10
232.4303476000312
 20
67.22826832710638
 30
0.0
 10
231.3074564112638
 20
66.63582529361436
 30
0.0
 10
230.1897634892536
 20
65.93153464419538
 30
0.0
 10
229.086100479495
 20
65.12173775284946
 30
0.0
 10
228.0047632568872
 20
64.21342482961248
 30
0.0
 10
226.9535022609936
 20
63.21399671322798
 30
0.0
 10
225.9397526341537
 20
62.13131973462091
 30
0.0
 10
224.9706441822724
 20
60.97370850582829
 30
0.0
 10
224.0530830649908
 20
59.74989790470271
 30
0.0
 10
223.1934038936028
 20
58.46901868950958
 30
0.0
 10
222.3985378105441
 20
57.14051102644174
 30
0.0
 10
221.6714956849099
 20
55.77424148068302
 30
0.0
 10
221.028081040224
 20
54.37987424796383
 30
0.0
 10
220.6127919551412
 20
53.39308280550522
 30
0.0
 10
220.4355047497672
 20
52.87432369553044
 30
0.0
 10
220.4195851791116
 20
52.82774152798461
 30
0.0
  0
LINE
  5
1C6
330
1F
100
AcDbEntity
  8
0
  6
Continuous
 62
     7
370
    15
100
AcDbLine
 10
220.8038400777
 20
50.4914927891
 30
0.0
 11
224.5885186662
 21
48.3066443458
 31
0.0
  0
LINE
  5
1C7
330
1F
100
AcDbEntity
  8
0
  6
Continuous
 62
     7
370
    15
100
AcDbLine
 10
220.2984003854
 20
52.2586897279
 30
0.0
 11
220.2984003854
 21
51.6086341169
 31
0.0
  0
LINE
  5
1C8
330
1F
100
AcDbEntity
  8
0
  6
Continuous
 62
     7
370
    15
100
AcDbLine
 10
220.2984003854
 20
40.1003790801
 30
0.0
 11
220.2984003854
 21
39.4503414279
 31
0.0
  0
SPLINE
  5
1C9
330
1F
100
AcDbEntity
  8
0
  6
Continuous
 62
     7
370
    15
100
AcDbSpline
210
0.0
220
0.0
230
1.0
 70
     8
 71
     3
 72
    11
 73
     7
 74
     0
 42
0.000000001
 43
0.00000001
 40
0.0
 40
0.0
 40
0.0
 40
0.0
 40
0.2799476822971346
 40
0.6035936806601401
 40
0.9233951155071426
 40
0.9999999999999999
 40
0.9999999999999999
 40
0.9999999999999999
 40
0.9999999999999999
 10
220.4298989809066
 20
39.11893597888781
 30
0.0
 10
220.5870168717038
 20
38.87072136146634
 30
0.0
 10
220.9257779045713
 20
38.33554717001135
 30
0.0
 10
221.5615678739537
 20
37.64422887716979
 30
0.0
 10
222.0972157219756
 20
37.15164312135636
 30
0.0
 10
222.4338022620414
 20
36.94472410736982
 30
0.0
 10
222.4988470702739
 20
36.90473734027637
 30
0.0
  0
SPLINE
  5
1CA
330
1F
100
AcDbEntity
  8
0
  6
Continuous
 62
     7
370
    15
100
AcDbSpline
210
0.0
220
0.0
230
1.0
 70
     8
 71
     3
 72
     9
 73
     5
 74
     0
 42
0.000000001
 43
0.00000001
 40
0.0
 40
0.0
 40
0.0
 40
0.0
 40
0.0998588652079562
 40
1.0
 40
1.0
 40
1.0
 40
1.0
 10
220.3405902732264
 20
39.25485341445603
 30
0.0
 10
220.3431918377818
 20
39.24996792861246
 30
0.0
 10
220.3692442523575
 20
39.20104402152225
 30
0.0
 10
220.4011654225477
 20
39.15783247205836
 30
0.0
 10
220.4298989809066
 20
39.11893597888781
 30
0.0
  0
LWPOLYLINE
  5
1CB
330
1F
100
AcDbEntity
  8
0
  6
Continuous
 62
     7
370
    15
100
AcDbPolyline
 90
       25
 70
   128
 43
0.0
 10
271.6410928872
 20
39.8904573973
 10
271.3257504265
 20
39.6043880991
 10
270.8928977447
 20
39.375182656
 10
270.3720330368
 20
39.2184610403
 10
269.798652372
 20
39.1449035711
 10
269.2118306948
 20
39.1595230683
 10
268.651558933
 20
39.2613232374
 10
268.156018681
 20
39.4433665651
 10
267.7589801883
 20
39.6932470995
 10
267.487500972
 20
39.993935895
 10
267.3600818919
 20
40.3249415072
 10
267.3854063478
 20
40.6637064506
 10
267.56174852
 20
40.9871444541
 10
267.8770909808
 20
41.2732137524
 10
268.3099436625
 20
41.5024191954
 10
268.8308083704
 20
41.6591408111
 10
269.4041890353
 20
41.7326982804
 10
269.9910107124
 20
41.7180787831
 10
270.5512824743
 20
41.616278614
 10
271.0468227262
 20
41.4342352863
 10
271.4438612189
 20
41.184354752
 10
271.7153404353
 20
40.8836659565
 10
271.8427595154
 20
40.5526603443
 10
271.8174350594
 20
40.2138954009
 10
271.6410928872
 20
39.8904573973
  0
LWPOLYLINE
  5
1CC
330
1F
100
AcDbEntity
  8
0
  6
Continuous
 62
     7
370
    15
100
AcDbPolyline
 90
       15
 70
   128
 43
0.0
 10
271.8677231299
 20
39.6253951357
 10
271.5340552755
 20
39.3191733877
 10
271.0789528833
 20
39.0704753901
 10
270.5310117102
 20
38.8949277527
 10
269.9246609154
 20
38.8035607792
 10
269.2979997493
 20
38.8021153925
 10
268.6904036377
 20
38.8906824116
 10
268.1400500788
 20
39.0636968449
 10
267.6815198108
 20
39.3102875594
 10
267.3436239768
 20
39.6149603535
 10
267.1475938147
 20
39.9585715151
 10
267.1057466206
 20
40.3195306912
 10
267.2207118076
 20
40.6751574891
 10
267.4852656902
 20
41.0031065694
 10
267.8333665088
 20
41.2550100144
  0
LWPOLYLINE
  5
1CD
330
1F
100
AcDbEntity
  8
0
  6
Continuous
 62
     7
370
    15
100
AcDbPolyline
 90
        6
 70
   128
 43
0.0
 10
271.3694748984
 20
41.2550100144
 10
271.7068716228
 20
41.0128436544
 10
271.975956435
 20
40.6861254056
 10
272.0958404342
 20
40.3310402846
 10
272.0589908679
 20
39.9698995953
 10
271.8677231299
 20
39.6253951357
  0
LWPOLYLINE
  5
1CE
330
1F
100
AcDbEntity
  8
0
  6
Continuous
 62
     7
370
    15
100
AcDbPolyline
 90
       20
 70
   128
 43
0.0
 10
270.9612021594
 20
40.0732385735
 10
270.6819123742
 20
39.8381614965
 10
270.2855345511
 20
39.6681730215
 10
269.8150223774
 20
39.5816940375
 10
269.321363148
 20
39.5880958842
 10
268.8580525003
 20
39.6866848222
 10
268.4752973319
 20
39.8667772103
 10
268.2145751045
 20
40.1088572438
 10
268.1041391169
 20
40.3866917949
 10
268.1559568219
 20
40.6701731789
 10
268.3644129672
 20
40.9285817891
 10
268.7069180949
 20
41.133915043
 10
269.1463564599
 20
41.2639218966
 10
269.6351080967
 20
41.3045140898
 10
270.1202091818
 20
41.2512928288
 10
270.5490914854
 20
41.110025463
 10
270.8752789552
 20
40.8960205035
 10
271.0634241175
 20
40.6324687082
 10
271.0931385246
 20
40.3479300036
 10
270.9612021594
 20
40.0732385735
  0
SPLINE
  5
1CF
330
1F
100
AcDbEntity
  8
0
  6
Continuous
 62
     7
370
    15
100
AcDbSpline
210
0.0
220
0.0
230
1.0
 70
     8
 71
     3
 72
    10
 73
     6
 74
     0
 42
0.000000001
 43
0.00000001
 40
0.0
 40
0.0
 40
0.0
 40
0.0
 40
0.1591249500362343
 40
0.5943270591528901
 40
1.0
 40
1.0
 40
1.0
 40
1.0
 10
271.039240221738
 20
40.46560570282399
 30
0.0
 10
271.0147233552545
 20
40.41282574269522
 30
0.0
 10
270.923153572179
 20
40.21569412707867
 30
0.0
 10
270.7513226130312
 20
39.91549490187661
 30
0.0
 10
270.6102709962001
 20
39.80980527036459
 30
0.0
 10
270.5422218559461
 20
39.75881621600463
 30
0.0
  0
SPLINE
  5
1D0
330
1F
100
AcDbEntity
  8
0
  6
Continuous
 62
     7
370
    15
100
AcDbSpline
210
0.0
220
0.0
230
1.0
 70
     8
 71
     3
 72
    10
 73
     6
 74
     0
 42
0.000000001
 43
0.00000001
 40
0.0
 40
0.0
 40
0.0
 40
0.0
 40
0.4391256427914697
 40
0.7513741901692104
 40
1.0
 40
1.0
 40
1.0
 40
1.0
 10
270.2107573136079
 20
41.14791714098001
 30
0.0
 10
270.3293637012821
 20
40.98032983652511
 30
0.0
 10
270.5323073916597
 20
40.69357642725713
 30
0.0
 10
270.8273179992009
 20
40.50378772141107
 30
0.0
 10
270.974151496195
 20
40.477332735972
 30
0.0
 10
271.039240221738
 20
40.46560570282399
 30
0.0
  0
SPLINE
  5
1D1
330
1F
100
AcDbEntity
  8
0
  6
Continuous
 62
     7
370
    15
100
AcDbSpline
210
0.0
220
0.0
230
1.0
 70
     8
 71
     3
 72
    10
 73
     6
 74
     0
 42
0.000000001
 43
0.00000001
 40
0.0
 40
0.0
 40
0.0
 40
0.0
 40
0.4391256427914737
 40
0.7513741901692004
 40
1.0
 40
1.0
 40
1.0
 40
1.0
 10
268.7729377954939
 20
41.07487628991726
 30
0.0
 10
268.9787773819204
 20
41.01542592536356
 30
0.0
 10
269.3309830777043
 20
40.91370226095206
 30
0.0
 10
269.842969511475
 20
40.99288342227324
 30
0.0
 10
270.0977968178917
 20
41.10030086437623
 30
0.0
 10
270.2107573136079
 20
41.14791714098001
 30
0.0
  0
SPLINE
  5
1D2
330
1F
100
AcDbEntity
  8
0
  6
Continuous
 62
     7
370
    15
100
AcDbSpline
210
0.0
220
0.0
230
1.0
 70
     8
 71
     3
 72
    11
 73
     7
 74
     0
 42
0.000000001
 43
0.00000001
 40
0.0
 40
0.0
 40
0.0
 40
0.0
 40
0.1849308168246118
 40
0.519846420215779
 40
0.8714438233692623
 40
1.0
 40
1.0
 40
1.0
 40
1.0
 10
268.1636011855099
 20
40.31952400069849
 30
0.0
 10
268.1990675535051
 20
40.33164216964217
 30
0.0
 10
268.298764644325
 20
40.36570672877357
 30
0.0
 10
268.4848683030718
 20
40.53026493937387
 30
0.0
 10
268.6567426463442
 20
40.82431996476434
 30
0.0
 10
268.7483980144894
 20
41.02196016223431
 30
0.0
 10
268.7729377954939
 20
41.07487628991726
 30
0.0
  0
SPLINE
  5
1D3
330
1F
100
AcDbEntity
  8
0
  6
Continuous
 62
     7
370
    15
100
AcDbSpline
210
0.0
220
0.0
230
1.0
 70
     8
 71
     3
 72
    10
 73
     6
 74
     0
 42
0.000000001
 43
0.00000001
 40
0.0
 40
0.0
 40
0.0
 40
0.0
 40
0.1364891132927714
 40
0.617220700597167
 40
1.0
 40
1.0
 40
1.0
 40
1.0
 10
268.7029969397066
 20
39.7514128193503
 30
0.0
 10
268.6787936901167
 20
39.75943380032602
 30
0.0
 10
268.5693435932681
 20
39.79570567123117
 30
0.0
 10
268.3749162825731
 20
40.01431678714177
 30
0.0
 10
268.2285034415884
 20
40.22578419220126
 30
0.0
 10
268.1636011855099
 20
40.31952400069849
 30
0.0
  0
LINE
  5
1D4
330
1F
100
AcDbEntity
  8
0
  6
Continuous
 62
     7
370
    15
100
AcDbLine
 10
268.7729377955
 20
39.716933614
 30
0.0
 11
268.7729377955
 21
41.0748762899
 31
0.0
  0
LINE
  5
1D5
330
1F
100
AcDbEntity
  8
0
  6
Continuous
 62
     7
370
    15
100
AcDbLine
 10
270.2107573136
 20
39.6475357376
 30
0.0
 11
270.2107573136
 21
41.147917141
 31
0.0
  0
SPLINE
  5
1D6
330
1F
100
AcDbEntity
  8
0
  6
Continuous
 62
     7
370
    15
100
AcDbSpline
210
0.0
220
0.0
230
1.0
 70
     8
 71
     3
 72
    14
 73
    10
 74
     0
 42
0.000000001
 43
0.00000001
 40
0.0
 40
0.0
 40
0.0
 40
0.0
 40
0.25
 40
0.25
 40
0.5
 40
0.5
 40
0.75
 40
0.75
 40
1.0
 40
1.0
 40
1.0
 40
1.0
 10
242.1128759696916
 20
31.10033782185098
 30
0.0
 10
242.0657028624593
 20
31.07310536670485
 30
0.0
 10
242.0101387977605
 20
31.05136100856391
 30
0.0
 10
241.8882133256415
 20
31.02111558115789
 30
0.0
 10
241.8221168047656
 20
31.01281655104758
 30
0.0
 10
241.6899248756289
 20
31.01138393526782
 30
0.0
 10
241.6229897240981
 20
31.01833390944943
 30
0.0
 10
241.5003792324278
 20
31.04654326305884
 30
0.0
 10
241.4434437776241
 20
31.06811910736649
 30
0.0
 10
241.3967012342519
 20
31.09510300328689
 30
0.0
  0
SPLINE
  5
1D7
330
1F
100
AcDbEntity
  8
0
  6
Continuous
 62
     7
370
    15
100
AcDbSpline
210
0.0
220
0.0
230
1.0
 70
     8
 71
     3
 72
    12
 73
     8
 74
     0
 42
0.000000001
 43
0.00000001
 40
0.0
 40
0.0
 40
0.0
 40
0.0
 40
0.2500000000000016
 40
0.2500000000000016
 40
0.5000000000000032
 40
0.5000000000000032
 40
1.0
 40
1.0
 40
1.0
 40
1.0
 10
269.7251643903317
 20
58.86032759844117
 30
0.0
 10
269.7789364092797
 20
58.82928567264845
 30
0.0
 10
269.8314246843979
 20
58.78031104339163
 30
0.0
 10
269.9224306113365
 20
58.66358016854212
 30
0.0
 10
269.9610049648658
 20
58.59612870320898
 30
0.0
 10
270.050828554162
 20
58.39181147620208
 30
0.0
 10
270.0787177809249
 20
58.25144864700467
 30
0.0
 10
270.0787177809249
 20
58.12863192194999
 30
0.0
  0
LINE
  5
1D8
330
1F
100
AcDbEntity
  8
0
  6
Continuous
 62
     7
370
    15
100
AcDbLine
 10
241.3967012343
 20
31.0951030033
 30
0.0
 11
239.7392531996
 21
32.0519273871
 31
0.0
  0
LWPOLYLINE
  5
1D9
330
1F
100
AcDbEntity
  8
0
  6
Continuous
 62
     7
370
    15
100
AcDbPolyline
 90
       27
 70
   128
 43
0.0
 10
239.7392531996
 20
32.0519273871
 10
240.0944604511
 20
33.7940075822
 10
240.5522366857
 20
35.5586915892
 10
241.1098018306
 20
37.3352624909
 10
241.7637697954
 20
39.1129311807
 10
242.5101690358
 20
40.8809018856
 10
243.3444666729
 20
42.6284377279
 10
244.2615960213
 20
44.3449259312
 10
245.2559873588
 20
46.0199422708
 10
246.3216017517
 20
47.6433143809
 10
247.4519677292
 20
49.2051835305
 10
248.640220584
 20
50.6960644959
 10
249.8791440625
 20
52.1069031643
 10
251.1612141883
 20
53.4291315193
 10
252.478644956
 20
54.6547196747
 10
253.8234356148
 20
55.7762246395
 10
255.1874192578
 20
56.7868355197
 10
256.5623124189
 20
57.6804148801
 10
257.9397653786
 20
58.4515360179
 10
259.3114128719
 20
59.095515918
 10
260.6689248902
 20
59.6084436938
 10
262.0040572698
 20
59.9872043372
 10
263.3087017582
 20
60.2294976368
 10
264.5749352558
 20
60.3338521466
 10
265.7950679327
 20
60.2996341221
 10
266.9616899292
 20
60.1270513693
 10
268.0677163557
 20
59.8171519823
  0
LINE
  5
1DA
330
1F
100
AcDbEntity
  8
0
  6
Continuous
 62
     7
370
    15
100
AcDbLine
 10
268.0677163557
 20
59.8171519823
 30
0.0
 11
269.7251643903
 21
58.8603275984
 31
0.0
  0
LINE
  5
1DB
330
1F
100
AcDbEntity
  8
0
  6
Continuous
 62
     7
370
    15
100
AcDbLine
 10
274.5158128329
 20
49.3978847025
 30
0.0
 11
275.954329592
 21
50.2283227512
 31
0.0
  0
LINE
  5
1DC
330
1F
100
AcDbEntity
  8
0
  6
Continuous
 62
     7
370
    15
100
AcDbLine
 10
274.5158128329
 20
41.8283883523
 30
0.0
 11
274.5158128329
 21
49.3978847025
 31
0.0
  0
LINE
  5
1DD
330
1F
100
AcDbEntity
  8
0
  6
Continuous
 62
     7
370
    15
100
AcDbLine
 10
275.954329592
 20
42.0629146323
 30
0.0
 11
275.0319434868
 21
41.530432468
 31
0.0
  0
LINE
  5
1DE
330
1F
100
AcDbEntity
  8
0
  6
Continuous
 62
     7
370
    15
100
AcDbLine
 10
242.1128759697
 20
22.1183888911
 30
0.0
 11
243.4738251388
 21
22.9040481232
 31
0.0
  0
LINE
  5
1DF
330
1F
100
AcDbEntity
  8
0
  6
Continuous
 62
     7
370
    15
100
AcDbLine
 10
243.4738251388
 20
22.9040481232
 30
0.0
 11
243.4738251388
 21
31.8859970539
 31
0.0
  0
LINE
  5
1E0
330
1F
100
AcDbEntity
  8
0
  6
Continuous
 62
     7
370
    15
100
AcDbLine
 10
243.4738251388
 20
31.8859970539
 30
0.0
 11
242.1128759697
 21
31.1003378219
 31
0.0
  0
LINE
  5
1E1
330
1F
100
AcDbEntity
  8
0
  6
Continuous
 62
     7
370
    15
100
AcDbLine
 10
270.0787177809
 20
58.1286319219
 30
0.0
 11
270.0787177809
 21
55.5529774185
 31
0.0
  0
LINE
  5
1E2
330
1F
100
AcDbEntity
  8
0
  6
Continuous
 62
     7
370
    15
100
AcDbLine
 10
272.3091791845
 20
56.8405953791
 30
0.0
 11
270.0787177809
 21
55.5529774185
 31
0.0
  0
LWPOLYLINE
  5
1E3
330
1F
100
AcDbEntity
  8
0
  6
Continuous
 62
     7
370
    15
100
AcDbPolyline
 90
       57
 70
   128
 43
0.0
 10
274.2152924509
 20
37.5711342579
 10
273.2454496571
 20
36.9483615243
 10
272.2878031992
 20
36.2076317067
 10
271.3543960371
 20
35.3582599126
 10
270.4569663072
 20
34.4109274849
 10
269.6067997092
 20
33.3775476786
 10
268.8145875814
 20
32.2711158444
 10
268.0902924509
 20
31.1055460045
 10
267.4430227491
 20
29.895495876
 10
266.8809182683
 20
28.6561825413
 10
266.4110477983
 20
27.4031910847
 10
266.0393202329
 20
26.1522786006
 10
265.7704102619
 20
24.9191760396
 10
265.6076995844
 20
23.7193903816
 10
265.5532343813
 20
22.5680096274
 10
265.6076995844
 20
21.4795130582
 10
265.7704102619
 20
20.4675891497
 10
266.0393202329
 20
19.5449634324
 10
266.4110477983
 20
18.7232384599
 10
266.8809182683
 20
18.0127479005
 10
267.4430227491
 20
17.4224265852
 10
268.0902924509
 20
16.9596981471
 10
268.8145875814
 20
16.6303816648
 10
269.6067997092
 20
16.4386184841
 10
270.4569663072
 20
16.3868201383
 10
271.3543960371
 20
16.4756380216
 10
272.2878031992
 20
16.7039551976
 10
273.2454496571
 20
17.0689004454
 10
274.2152924509
 20
17.5658843667
 10
275.1851352446
 20
18.1886571004
 10
276.1427817025
 20
18.9293869179
 10
277.0761888647
 20
19.7787587121
 10
277.9736185945
 20
20.7260911398
 10
278.8237851925
 20
21.7594709461
 10
279.6159973203
 20
22.8659027803
 10
280.3402924509
 20
24.0314726202
 10
280.9875621526
 20
25.2415227487
 10
281.5496666335
 20
26.4808360834
 10
282.0195371035
 20
27.73382754
 10
282.3912646689
 20
28.984740024
 10
282.6601746398
 20
30.2178425851
 10
282.8228853174
 20
31.4176282431
 10
282.8773505204
 20
32.5690089972
 10
282.8228853174
 20
33.6575055665
 10
282.6601746398
 20
34.6694294749
 10
282.3912646689
 20
35.5920551923
 10
282.0195371035
 20
36.4137801648
 10
281.5496666335
 20
37.1242707242
 10
280.9875621526
 20
37.7145920395
 10
280.3402924509
 20
38.1773204776
 10
279.6159973203
 20
38.5066369599
 10
278.8237851925
 20
38.6984001406
 10
277.9736185945
 20
38.7501984864
 10
277.0761888647
 20
38.661380603
 10
276.1427817025
 20
38.433063427
 10
275.1851352446
 20
38.0681181792
 10
274.2152924509
 20
37.5711342579
  0
LWPOLYLINE
  5
1E4
330
1F
100
AcDbEntity
  8
0
  6
Continuous
 62
     7
370
    15
100
AcDbPolyline
 90
       30
 70
   128
 43
0.0
 10
274.0385157556
 20
37.8773204749
 10
273.0661712674
 20
37.2540498291
 10
272.1056297242
 20
36.5144486029
 10
271.168550799
 20
35.6674945532
 10
270.2663093607
 20
34.723468555
 10
269.409857398
 20
33.693829805
 10
268.6095910776
 20
32.5910767228
 10
267.8752245487
 20
31.4285952372
 10
267.2156720259
 20
30.2204962984
 10
266.6389395836
 20
28.9814445912
 10
266.1520279722
 20
27.7264805248
 10
265.7608476392
 20
26.470837663
 10
265.4701469839
 20
25.229757809
 10
265.2834547185
 20
24.0183059913
 10
265.2030370342
 20
22.8511875937
 10
265.2298700927
 20
21.7425698525
 10
265.363628177
 20
20.7059098855
 10
265.6026876452
 20
19.7537913403
 10
265.9441466392
 20
18.8977716461
 10
266.3838603094
 20
18.1482417227
 10
266.9164911274
 20
17.5142998478
 10
267.5355736766
 20
17.0036412171
 10
268.2335931335
 20
16.6224645346
 10
269.0020764876
 20
16.3753967688
 10
269.8316953918
 20
16.2654369878
 10
270.7123793965
 20
16.2939199543
 10
271.6334381909
 20
16.4604999238
 10
272.5836913689
 20
16.763154841
 10
273.5516041442
 20
17.1982108852
 10
274.0399523148
 20
17.4646296205
  0
LWPOLYLINE
  5
1E5
330
1F
100
AcDbEntity
  8
0
  6
Continuous
 62
     7
370
    15
100
AcDbPolyline
 90
       16
 70
   128
 43
0.0
 10
282.8773505204
 20
32.7731110252
 10
282.8739944769
 20
33.0524141861
 10
282.7935767926
 20
34.1266843017
 10
282.6068845272
 20
35.122585818
 10
282.3161838719
 20
36.0280298395
 10
281.9250035389
 20
36.8320255025
 10
281.4380919276
 20
37.5248133887
 10
280.8613594852
 20
38.0979839917
 10
280.2018069625
 20
38.5445797967
 10
279.4674404335
 20
38.8591797356
 10
278.6671741131
 20
39.0379649915
 10
277.8107221504
 20
39.0787653534
 10
276.9084807121
 20
38.9810855603
 10
275.9714017869
 20
38.7461113124
 10
275.0108602437
 20
38.3766948789
 10
274.0385157556
 20
37.8773204749
  0
SPLINE
  5
1E6
330
1F
100
AcDbEntity
  8
0
  6
Continuous
 62
     7
370
    15
100
AcDbSpline
210
0.0
220
0.0
230
1.0
 70
    11
 71
     3
 72
    83
 73
    79
 74
     0
 42
0.000000001
 43
0.00000001
 40
0.0
 40
0.0
 40
0.0
 40
0.0
 40
0.0312499999999991
 40
0.0312499999999991
 40
0.0624999999999982
 40
0.0624999999999982
 40
0.0937499999999974
 40
0.0937499999999974
 40
0.1093749999999969
 40
0.1093749999999969
 40
0.1249999999999964
 40
0.1249999999999964
 40
0.1562499999999961
 40
0.1562499999999961
 40
0.1874999999999957
 40
0.1874999999999957
 40
0.2187499999999954
 40
0.2187499999999954
 40
0.2499999999999955
 40
0.2499999999999955
 40
0.2812499999999956
 40
0.2812499999999956
 40
0.3124999999999957
 40
0.3124999999999957
 40
0.3437499999999959
 40
0.3437499999999959
 40
0.3593749999999961
 40
0.3593749999999961
 40
0.3749999999999962
 40
0.3906249999999964
 40
0.3906249999999964
 40
0.4062499999999966
 40
0.4062499999999966
 40
0.437499999999997
 40
0.437499999999997
 40
0.4687499999999974
 40
0.4687499999999974
 40
0.4999999999999978
 40
0.4999999999999978
 40
0.5312499999999982
 40
0.5312499999999982
 40
0.5468749999999984
 40
0.5468749999999984
 40
0.5624999999999987
 40
0.5624999999999987
 40
0.5937499999999991
 40
0.5937499999999991
 40
0.6249999999999996
 40
0.6249999999999996
 40
0.65625
 40
0.65625
 40
0.6875000000000004
 40
0.6875000000000004
 40
0.7187500000000009
 40
0.7187500000000009
 40
0.7500000000000013
 40
0.7500000000000013
 40
0.7656250000000014
 40
0.7656250000000014
 40
0.7812500000000014
 40
0.7812500000000014
 40
0.8125000000000011
 40
0.8125000000000011
 40
0.8281250000000011
 40
0.8281250000000011
 40
0.8437500000000011
 40
0.8437500000000011
 40
0.8750000000000009
 40
0.8750000000000009
 40
0.8906250000000008
 40
0.8906250000000008
 40
0.9062500000000007
 40
0.9062500000000007
 40
0.9375000000000004
 40
0.9375000000000004
 40
0.9687500000000002
 40
0.9687500000000002
 40
1.0
 40
1.0
 40
1.0
 40
1.0
 10
269.5894402407581
 20
42.00032924364959
 30
0.0
 10
269.7836567184289
 20
41.97183160697041
 30
0.0
 10
269.9729027010624
 20
41.93361610499408
 30
0.0
 10
270.3425314678752
 20
41.84116864369386
 30
0.0
 10
270.5240991200999
 20
41.78648151888646
 30
0.0
 10
270.8728305966853
 20
41.6640748740983
 30
0.0
 10
271.0377547731925
 20
41.59728249934106
 30
0.0
 10
271.2716007238441
 20
41.48971727580319
 30
0.0
 10
271.3472769884324
 20
41.45261887685911
 30
0.0
 10
271.4940058739268
 20
41.37594461343249
 30
0.0
 10
271.5651658321073
 20
41.33627848297343
 30
0.0
 10
271.7676623879975
 20
41.21580231354322
 30
0.0
 10
271.8895087284467
 20
41.13286159334127
 30
0.0
 10
272.1071270834327
 20
40.9613593540857
 30
0.0
 10
272.2036216030765
 20
40.8718638539347
 30
0.0
 10
272.3632142482564
 20
40.69149834404778
 30
0.0
 10
272.4268611816499
 20
40.60053504095082
 30
0.0
 10
272.5210709325802
 20
40.41537808851677
 30
0.0
 10
272.5515952089366
 20
40.32014155485642
 30
0.0
 10
272.5744759635564
 20
40.13149664314795
 30
0.0
 10
272.5674909574477
 20
40.03764631432848
 30
0.0
 10
272.5142520320196
 20
39.84887983972104
 30
0.0
 10
272.4669554941345
 20
39.7530930997484
 30
0.0
 10
272.3340134333192
 20
39.56843032049651
 30
0.0
 10
272.2484334713926
 20
39.47845951302038
 30
0.0
 10
272.0890204090246
 20
39.34641512773825
 30
0.0
 10
272.0305049994213
 20
39.30286179523863
 30
0.0
 10
271.9062337087822
 20
39.21925534584284
 30
0.0
 10
271.7739773430116
 20
39.13847998035477
 30
0.0
 10
271.6259432959692
 20
39.06326493848239
 30
0.0
 10
271.4698638598376
 20
38.99092414464641
 30
0.0
 10
271.3876512074584
 20
38.95618322511193
 30
0.0
 10
271.1355592393485
 20
38.8591335626049
 30
0.0
 10
270.9582285442081
 20
38.80288283374933
 30
0.0
 10
270.5856711793612
 20
38.70784432136176
 30
0.0
 10
270.3944372032067
 20
38.67021168266422
 30
0.0
 10
270.0093107969653
 20
38.61588464416074
 30
0.0
 10
269.8125414553693
 20
38.59897940299994
 30
0.0
 10
269.4271537480338
 20
38.58772577105037
 30
0.0
 10
269.2375658466066
 20
38.59304555718401
 30
0.0
 10
268.9574981017859
 20
38.61813889269266
 30
0.0
 10
268.8646510414259
 20
38.62943513634514
 30
0.0
 10
268.6837141736937
 20
38.65749234090699
 30
0.0
 10
268.5952154475729
 20
38.67427455409405
 30
0.0
 10
268.3354254245844
 20
38.73287214755675
 30
0.0
 10
268.1697900260361
 20
38.78288236581965
 30
0.0
 10
267.8538340770192
 20
38.90611706911906
 30
0.0
 10
267.7075062191514
 20
38.97783984066724
 30
0.0
 10
267.4386412542316
 20
39.14016500543089
 30
0.0
 10
267.3155172072356
 20
39.23116078633657
 30
0.0
 10
267.0951015244112
 20
39.43166885268899
 30
0.0
 10
267.0003465054258
 20
39.53874498635166
 30
0.0
 10
266.8411341851379
 20
39.76530771096243
 30
0.0
 10
266.7763846923649
 20
39.88553190673814
 30
0.0
 10
266.681202162984
 20
40.13480856699224
 30
0.0
 10
266.6514914772552
 20
40.2613699428176
 30
0.0
 10
266.6341705313178
 20
40.45286412271766
 30
0.0
 10
266.6329697139652
 20
40.51697282115374
 30
0.0
 10
266.6402231014395
 20
40.6455503854238
 30
0.0
 10
266.6487890650205
 20
40.71042396860337
 30
0.0
 10
266.6892579969729
 20
40.90120103035985
 30
0.0
 10
266.7355170645392
 20
41.02377681479922
 30
0.0
 10
266.8350662746852
 20
41.19924205275678
 30
0.0
 10
266.8733130327977
 20
41.2563239508209
 30
0.0
 10
266.9606723302271
 20
41.3673114037761
 30
0.0
 10
267.009494887251
 20
41.42072949148063
 30
0.0
 10
267.168460288418
 20
41.57147447332839
 30
0.0
 10
267.2919629668514
 20
41.66068219262524
 30
0.0
 10
267.5045273692387
 20
41.77664056239685
 30
0.0
 10
267.5799879061042
 20
41.81220896894983
 30
0.0
 10
267.7358621741439
 20
41.87541244530808
 30
0.0
 10
267.8167720250535
 20
41.90333985201804
 30
0.0
 10
268.0681864099095
 20
41.97653367936692
 30
0.0
 10
268.249523721867
 20
42.01135671794501
 30
0.0
 10
268.6201567986165
 20
42.05210117668964
 30
0.0
 10
268.8102413719647
 20
42.05863597177605
 30
0.0
 10
269.1997233974305
 20
42.04697775323105
 30
0.0
 10
269.3952237630872
 20
42.02882688032877
 30
0.0
 10
269.5894402407581
 20
42.00032924364959
 30
0.0
  0
LINE
  5
1E7
330
1F
100
AcDbEntity
  8
0
  6
Continuous
 62
     7
370
    15
100
AcDbLine
 10
278.8357435188
 20
27.3998592929
 30
0.0
 11
280.5969311511
 21
29.5907599641
 31
0.0
  0
SPLINE
  5
1E8
330
1F
100
AcDbEntity
  8
0
  6
Continuous
 62
     7
370
    15
100
AcDbSpline
210
0.0
220
0.0
230
1.0
 70
     8
 71
     3
 72
    22
 73
    18
 74
     0
 42
0.000000001
 43
0.00000001
 40
0.0
 40
0.0
 40
0.0
 40
0.0
 40
0.0500000000000111
 40
0.0999999999999997
 40
0.15
 40
0.2
 40
0.25
 40
0.2968749999999668
 40
0.34375
 40
0.3906249999999997
 40
0.4374999999999987
 40
0.5292946909502638
 40
0.5292946909502638
 40
0.53125
 40
0.6250000000000001
 40
0.8125
 40
0.896803037639317
 40
0.896803037639317
 40
0.896803037639317
 40
0.896803037639317
 10
280.596931151071
 20
29.59075996408382
 30
0.0
 10
280.6781308330739
 20
29.69177159654458
 30
0.0
 10
280.8377202246965
 20
29.91178494893652
 30
0.0
 10
281.0568959618191
 20
30.28798101157301
 30
0.0
 10
281.2437567460229
 20
30.70527091954659
 30
0.0
 10
281.3810915868305
 20
31.14492889895684
 30
0.0
 10
281.4517648985356
 20
31.57208992236538
 30
0.0
 10
281.451285478177
 20
31.96159470697245
 30
0.0
 10
281.3829633049412
 20
32.29376589625561
 30
0.0
 10
281.2512380925652
 20
32.56076596275673
 30
0.0
 10
281.0112602247227
 20
32.81398282516944
 30
0.0
 10
280.7667010570031
 20
32.89805498358811
 30
0.0
 10
280.5941211728925
 20
32.91455094854316
 30
0.0
 10
280.4300170167516
 20
32.93027398756448
 30
0.0
 10
280.0208029940056
 20
32.96490566532488
 30
0.0
 10
279.6751701452815
 20
32.99682149652972
 30
0.0
 10
279.0440699530352
 20
33.05327661453578
 30
0.0
 10
278.8356966123793
 20
33.07189340854577
 30
0.0
  0
SPLINE
  5
1E9
330
1F
100
AcDbEntity
  8
0
  6
Continuous
 62
     7
370
    15
100
AcDbSpline
210
0.0
220
0.0
230
1.0
 70
     8
 71
     3
 72
    22
 73
    18
 74
     0
 42
0.000000001
 43
0.00000001
 40
0.0
 40
0.0
 40
0.0
 40
0.0
 40
0.0500000000000111
 40
0.0999999999999997
 40
0.15
 40
0.2
 40
0.25
 40
0.2968749999999668
 40
0.34375
 40
0.3906249999999997
 40
0.4374999999999987
 40
0.5292946909502638
 40
0.5292946909502638
 40
0.53125
 40
0.6250000000000001
 40
0.8125
 40
0.8955927989353988
 40
0.8955927989353988
 40
0.8955927989353988
 40
0.8955927989353988
 10
267.8336537506614
 20
22.22267675488831
 30
0.0
 10
267.7533978221221
 20
22.22985284427689
 30
0.0
 10
267.5924266797674
 20
22.26573175733406
 30
0.0
 10
267.373806300158
 20
22.38882323914107
 30
0.0
 10
267.1867967119991
 20
22.59038159733733
 30
0.0
 10
267.0495017294987
 20
22.87147252821891
 30
0.0
 10
266.9788180099636
 20
23.2170370052982
 30
0.0
 10
266.9792995803754
 20
23.60709445148082
 30
0.0
 10
267.0476229160042
 20
24.01815111644415
 30
0.0
 10
267.1793413754951
 20
24.43722922832916
 30
0.0
 10
267.4193533494498
 20
24.96756114699651
 30
0.0
 10
267.6637593416763
 20
25.33380473920828
 30
0.0
 10
267.8364584555825
 20
25.54970551146513
 30
0.0
 10
268.000689172783
 20
25.755056610651
 30
0.0
 10
268.4109996958846
 20
26.26352079002472
 30
0.0
 10
268.7469326786854
 20
26.68242591985794
 30
0.0
 10
269.3875990904273
 20
27.47943720396834
 30
0.0
 10
269.5948887064545
 20
27.73728946084055
 30
0.0
  0
LINE
  5
1EA
330
1F
100
AcDbEntity
  8
0
  6
Continuous
 62
     7
370
    15
100
AcDbLine
 10
269.5948413829
 20
22.0652000412
 30
0.0
 11
267.8336537507
 21
22.2226767549
 31
0.0
  0
LWPOLYLINE
  5
1EB
330
1F
100
AcDbEntity
  8
0
  6
Continuous
 62
     7
370
    15
100
AcDbPolyline
 90
       24
 70
   128
 43
0.0
 10
238.7604676086
 20
33.5981297163
 10
239.1353133635
 20
35.3544096681
 10
239.6184255539
 20
37.1324324997
 10
240.2065391915
 20
38.9201819061
 10
240.8956796635
 20
40.7055758478
 10
241.6811895929
 20
42.4765482041
 10
242.5577603153
 20
44.2211303187
 10
243.5194677553
 20
45.9275318872
 10
244.5598124633
 20
47.5842206382
 10
245.67176354
 20
49.1800002716
 10
246.8478061532
 20
50.7040861255
 10
248.0799923248
 20
52.1461780622
 10
249.3599946449
 20
53.4965300781
 10
250.6791625505
 20
54.7460161704
 10
252.0285807886
 20
55.8861920121
 10
253.3991296666
 20
56.9093520213
 10
254.7815466866
 20
57.8085814371
 10
256.1664891423
 20
58.5778030514
 10
257.5445972605
 20
59.2118182798
 10
258.9065574556
 20
59.7063422953
 10
260.2431652739
 20
60.0580329859
 10
261.545387599
 20
60.2645135415
 10
262.8044236999
 20
60.3243885171
 10
263.6917698946
 20
60.275209342
  0
SPLINE
  5
1EC
330
1F
100
AcDbEntity
  8
0
  6
Continuous
 62
     7
370
    15
100
AcDbSpline
210
0.0
220
0.0
230
1.0
 70
     8
 71
     3
 72
     8
 73
     4
 74
     0
 42
0.000000001
 43
0.00000001
 40
0.0
 40
0.0
 40
0.0
 40
0.0
 40
1.0
 40
1.0
 40
1.0
 40
1.0
 10
238.7604676085885
 20
33.59812971629059
 30
0.0
 10
238.3179312547431
 20
33.52644318586133
 30
0.0
 10
237.8753220646914
 20
33.45490702025956
 30
0.0
 10
237.432650358475
 20
33.38350086395486
 30
0.0
  0
LWPOLYLINE
  5
1ED
330
1F
100
AcDbEntity
  8
0
  6
Continuous
 62
     7
370
    15
100
AcDbPolyline
 90
       27
 70
   128
 43
0.0
 10
237.4326503585
 20
33.383500864
 10
237.78785761
 20
35.125581059
 10
238.2456338446
 20
36.8902650661
 10
238.8031989895
 20
38.6668359677
 10
239.4571669543
 20
40.4445046576
 10
240.2035661947
 20
42.2124753624
 10
241.0378638318
 20
43.9600112048
 10
241.9549931801
 20
45.676499408
 10
242.9493845177
 20
47.3515157477
 10
244.0149989106
 20
48.9748878578
 10
245.1453648881
 20
50.5367570073
 10
246.3336177429
 20
52.0276379727
 10
247.5725412213
 20
53.4384766411
 10
248.8546113472
 20
54.7607049962
 10
250.1720421149
 20
55.9862931515
 10
251.5168327737
 20
57.1077981164
 10
252.8808164167
 20
58.1184089965
 10
254.2557095777
 20
59.011988357
 10
255.6331625375
 20
59.7831094947
 10
257.0048100308
 20
60.4270893949
 10
258.3623220491
 20
60.9400171706
 10
259.6974544287
 20
61.318777814
 10
261.0020989171
 20
61.5610711137
 10
262.2683324146
 20
61.6654256235
 10
263.4884650916
 20
61.631207599
 10
264.6550870881
 20
61.4586248461
 10
265.7611135146
 20
61.1487254591
  0
LINE
  5
1EE
330
1F
100
AcDbEntity
  8
0
  6
Continuous
 62
     7
370
    15
100
AcDbLine
 10
265.7611135146
 20
61.1487254591
 30
0.0
 11
266.0510458166
 21
60.2247134666
 31
0.0
  0
LINE
  5
1EF
330
1F
100
AcDbEntity
  8
0
  6
Continuous
 62
     7
370
    15
100
AcDbLine
 10
261.5934364067
 20
63.5546742414
 30
0.0
 11
265.7611135146
 21
61.1487254591
 31
0.0
  0
LINE
  5
1F0
330
1F
100
AcDbEntity
  8
0
  6
Continuous
 62
     7
370
    15
100
AcDbLine
 10
237.4326503585
 20
33.383500864
 30
0.0
 11
236.8005071565
 21
33.7484293667
 31
0.0
  0
SPLINE
  5
1F1
330
1F
100
AcDbEntity
  8
0
  6
Continuous
 62
     7
370
    15
100
AcDbSpline
210
0.0
220
0.0
230
1.0
 70
     8
 71
     3
 72
    30
 73
    26
 74
     0
 42
0.000000001
 43
0.00000001
 40
0.0
 40
0.0
 40
0.0
 40
0.0
 40
0.1250000000000006
 40
0.1250000000000006
 40
0.187500000000001
 40
0.187500000000001
 40
0.2500000000000013
 40
0.2500000000000013
 40
0.3750000000000014
 40
0.3750000000000014
 40
0.4375000000000014
 40
0.4375000000000014
 40
0.5000000000000013
 40
0.5000000000000013
 40
0.625000000000001
 40
0.625000000000001
 40
0.6875000000000009
 40
0.6875000000000009
 40
0.7500000000000007
 40
0.7500000000000007
 40
0.8125000000000006
 40
0.8125000000000006
 40
0.8750000000000004
 40
0.8750000000000004
 40
1.0
 40
1.0
 40
1.0
 40
1.0
 10
236.8005071565394
 20
33.7484293667107
 30
0.0
 10
236.5661915229328
 20
33.88369690274133
 30
0.0
 10
236.3306910464041
 20
33.9869594316707
 30
0.0
 10
235.9761405990144
 20
34.09620216943447
 30
0.0
 10
235.8577463356154
 20
34.12495513143117
 30
0.0
 10
235.6206916905651
 20
34.16690829608088
 30
0.0
 10
235.5018717793293
 20
34.18001343098297
 30
0.0
 10
235.1532278953531
 20
34.1952648199973
 30
0.0
 10
234.9284630527112
 20
34.17418605855529
 30
0.0
 10
234.6042524051074
 20
34.0971830066796
 30
0.0
 10
234.4978363291961
 20
34.06367440164638
 30
0.0
 10
234.2925270992237
 20
33.98213605552275
 30
0.0
 10
234.1939323687159
 20
33.93433045042142
 30
0.0
 10
233.910434374917
 20
33.77066324086852
 30
0.0
 10
233.7376914012468
 20
33.63475114439193
 30
0.0
 10
233.5055666027508
 20
33.39038000748685
 30
0.0
 10
233.4332526169247
 20
33.3025629222792
 30
0.0
 10
233.3009343028551
 20
33.11718235333893
 30
0.0
 10
233.2405803641343
 20
33.0192613532986
 30
0.0
 10
233.1316172299912
 20
32.81317350259435
 30
0.0
 10
233.0830074048931
 20
32.70500669575011
 30
0.0
 10
232.9979715889985
 20
32.47831698224335
 30
0.0
 10
232.9614207098234
 20
32.35917655452058
 30
0.0
 10
232.8724264327305
 20
31.99119222606645
 30
0.0
 10
232.8400898757504
 20
31.73196710076978
 30
0.0
 10
232.8354039694536
 20
31.45876051933963
 30
0.0
  0
ARC
  5
1F2
330
1F
100
AcDbEntity
  8
0
  6
Continuous
 62
     7
370
    15
100
AcDbCircle
 10
256.4034690454
 20
31.0504901134
 30
0.0
 40
23.57160105185117
100
AcDbArc
 50
179.0075624958
 51
180.9924375042
  0
SPLINE
  5
1F3
330
1F
100
AcDbEntity
  8
0
  6
Continuous
 62
     7
370
    15
100
AcDbSpline
210
0.0
220
0.0
230
1.0
 70
     8
 71
     3
 72
    30
 73
    26
 74
     0
 42
0.000000001
 43
0.00000001
 40
0.0
 40
0.0
 40
0.0
 40
0.0
 40
0.1249999999999998
 40
0.1249999999999998
 40
0.1874999999999997
 40
0.1874999999999997
 40
0.2499999999999996
 40
0.2499999999999996
 40
0.3749999999999996
 40
0.3749999999999996
 40
0.4374999999999998
 40
0.4374999999999998
 40
0.5
 40
0.5
 40
0.6250000000000002
 40
0.6250000000000002
 40
0.6875000000000002
 40
0.6875000000000002
 40
0.7500000000000001
 40
0.7500000000000001
 40
0.8125000000000001
 40
0.8125000000000001
 40
0.8750000000000001
 40
0.8750000000000001
 40
1.0
 40
1.0
 40
1.0
 40
1.0
 10
232.8354039694536
 20
30.64221970745388
 30
0.0
 10
232.8400902161123
 20
30.37440390682215
 30
0.0
 10
232.8723997364311
 20
30.10068774183675
 30
0.0
 10
232.9600577917997
 20
29.68143959464133
 30
0.0
 10
232.9958519631132
 20
29.54022917594903
 30
0.0
 10
233.0807125779656
 20
29.25472856095688
 30
0.0
 10
233.1299652258793
 20
29.11014349612585
 30
0.0
 10
233.2941695620487
 20
28.68105122697424
 30
0.0
 10
233.426222020109
 20
28.39807841149041
 30
0.0
 10
233.656272587628
 20
27.97707450075327
 30
0.0
 10
233.7387356261218
 20
27.83666943087947
 30
0.0
 10
233.9124873613409
 20
27.56000513678524
 30
0.0
 10
234.0032889531746
 20
27.42442058773887
 30
0.0
 10
234.286683425406
 20
27.02532352097922
 30
0.0
 10
234.490163300073
 20
26.76939657797204
 30
0.0
 10
234.8160712873218
 20
26.39977059793636
 30
0.0
 10
234.9278119027828
 20
26.27945175075084
 30
0.0
 10
235.1531160069202
 20
26.04861415262004
 30
0.0
 10
235.2672386543993
 20
25.93745155854049
 30
0.0
 10
235.4981484409637
 20
25.72337774936551
 30
0.0
 10
235.6149358569725
 20
25.62046662263104
 30
0.0
 10
235.8510188194423
 20
25.42290845571581
 30
0.0
 10
235.970896193832
 20
25.32783668311044
 30
0.0
 10
236.3293794489958
 20
25.05903160450786
 30
0.0
 10
236.566188115559
 20
24.90174993903309
 30
0.0
 10
236.8005071565394
 20
24.76648043596746
 30
0.0
  0
LINE
  5
1F4
330
1F
100
AcDbEntity
  8
0
  6
Continuous
 62
     7
370
    15
100
AcDbLine
 10
236.8005071565
 20
24.766480436
 30
0.0
 11
237.4326503585
 21
24.4015519332
 31
0.0
  0
LWPOLYLINE
  5
1F5
330
1F
100
AcDbEntity
  8
0
  6
Continuous
 62
     7
370
    15
100
AcDbPolyline
 90
       10
 70
   128
 43
0.0
 10
243.3848368455
 20
16.6229299431
 10
242.9197844303
 20
16.8163099736
 10
241.930960522
 20
17.3448880356
 10
241.0189897066
 20
18.0031159547
 10
240.1893706799
 20
18.7870249686
 10
239.447105601
 20
19.6918885255
 10
238.7966699311
 20
20.7122507821
 10
238.2419854492
 20
21.8419595002
 10
237.786396606
 20
23.0742031405
 10
237.4326503585
 20
24.4015519332
  0
LINE
  5
1F6
330
1F
100
AcDbEntity
  8
0
  6
Continuous
 62
     7
370
    15
100
AcDbLine
 10
267.7130671575
 20
60.0213822824
 30
0.0
 11
268.0654779947
 21
59.8179398364
 31
0.0
  0
SPLINE
  5
1F7
330
1F
100
AcDbEntity
  8
0
  6
Continuous
 62
     7
370
    15
100
AcDbSpline
210
0.0
220
0.0
230
1.0
 70
     8
 71
     3
 72
    22
 73
    18
 74
     0
 42
0.000000001
 43
0.00000001
 40
0.0
 40
0.0
 40
0.0
 40
0.0
 40
0.2500000000000001
 40
0.2500000000000001
 40
0.3750000000000002
 40
0.3750000000000002
 40
0.5000000000000002
 40
0.5000000000000002
 40
0.6250000000000001
 40
0.6250000000000001
 40
0.7500000000000001
 40
0.7500000000000001
 40
0.875
 40
0.875
 40
0.9375
 40
0.9375
 40
1.0
 40
1.0
 40
1.0
 40
1.0
 10
261.5934364066864
 20
63.55467424142176
 30
0.0
 10
262.0254685022255
 20
63.38640380331532
 30
0.0
 10
262.4758431505908
 20
63.17572779843511
 30
0.0
 10
263.2008165922751
 20
62.79063356217847
 30
0.0
 10
263.4527839159945
 20
62.64950802390269
 30
0.0
 10
263.9655760291268
 20
62.35049105468551
 30
0.0
 10
264.2270973411858
 20
62.1923252173297
 30
0.0
 10
264.7646720227844
 20
61.8597252759922
 30
0.0
 10
265.0426345674472
 20
61.68402746462618
 30
0.0
 10
265.5952404861926
 20
61.33238454853281
 30
0.0
 10
265.8722364113639
 20
61.15500571941009
 30
0.0
 10
266.4304239912607
 20
60.80069530009752
 30
0.0
 10
266.7006000804205
 20
60.63083746038507
 30
0.0
 10
267.0920673955169
 20
60.39026847541034
 30
0.0
 10
267.2203146256248
 20
60.31240059286196
 30
0.0
 10
267.4721762648063
 20
60.16179429736353
 30
0.0
 10
267.5950684986527
 20
60.08950145815259
 30
0.0
 10
267.7130671575121
 20
60.0213822823505
 30
0.0
  0
ARC
  5
1F8
330
1F
100
AcDbEntity
  8
0
  6
Continuous
 62
     7
370
    15
100
AcDbCircle
 10
256.578591421
 20
54.526124715
 30
0.0
 40
10.48013688582409
100
AcDbArc
 50
62.3925234455
 51
110.1386923085
  0
ARC
  5
1F9
330
1F
100
AcDbEntity
  8
0
  6
Continuous
 62
     7
370
    15
100
AcDbCircle
 10
241.8666093593
 20
29.1894551629
 30
0.0
 40
10.23722953596607
100
AcDbArc
 50
192.3148040394
 51
237.9705387971
  0
LINE
  5
1FA
330
1F
100
AcDbEntity
  8
0
  6
Continuous
 62
     7
370
    15
100
AcDbLine
 10
239.0815681583
 20
33.783497118
 30
0.0
 11
238.7604676086
 21
33.5981297163
 31
0.0
  0
LINE
  5
1FB
330
1F
100
AcDbEntity
  8
0
  6
Continuous
 62
     7
370
    15
100
AcDbLine
 10
240.0422179418
 20
33.5650831994
 30
0.0
 11
239.6555632633
 21
33.7882941942
 31
0.0
  0
SPLINE
  5
1FC
330
1F
100
AcDbEntity
  8
0
  6
Continuous
 62
     7
370
    15
100
AcDbSpline
210
0.0
220
0.0
230
1.0
 70
     8
 71
     3
 72
    12
 73
     8
 74
     0
 42
0.000000001
 43
0.00000001
 40
0.0
 40
0.0
 40
0.0
 40
0.0
 40
0.25
 40
0.25
 40
0.5
 40
0.5
 40
1.0
 40
1.0
 40
1.0
 40
1.0
 10
239.6555632632806
 20
33.78829419415646
 30
0.0
 10
239.6181712256978
 20
33.8098801579829
 30
0.0
 10
239.5720229148428
 20
33.82732029300536
 30
0.0
 10
239.4733230774602
 20
33.8497764213197
 30
0.0
 10
239.4198115111648
 20
33.85516272692031
 30
0.0
 10
239.2612140914635
 20
33.85308156811018
 30
0.0
 10
239.1564999968457
 20
33.82675434761939
 30
0.0
 10
239.0815681583189
 20
33.78349711799391
 30
0.0
  0
SPLINE
  5
1FD
330
1F
100
AcDbEntity
  8
0
  6
Continuous
 62
     7
370
    15
100
AcDbSpline
210
0.0
220
0.0
230
1.0
 70
     8
 71
     3
 72
    14
 73
    10
 74
     0
 42
0.000000001
 43
0.00000001
 40
0.0
 40
0.0
 40
0.0
 40
0.0
 40
0.1382497790630945
 40
0.2796530602920797
 40
0.4347082022205939
 40
0.594261419346254
 40
0.749313437099496
 40
0.9088540791657288
 40
1.0
 40
1.0
 40
1.0
 40
1.0
 10
267.7452654030092
 20
22.55253954742515
 30
0.0
 10
267.6833934495569
 20
22.56224245022855
 30
0.0
 10
267.5582382323373
 20
22.58186958078221
 30
0.0
 10
267.3881356625313
 20
22.66882016838106
 30
0.0
 10
267.2355009836161
 20
22.80401367592639
 30
0.0
 10
267.1114328043415
 20
22.99208617994404
 30
0.0
 10
267.0262831597311
 20
23.2251420784653
 30
0.0
 10
266.9826215262181
 20
23.45182686514027
 30
0.0
 10
266.9859853104305
 20
23.60900517554205
 30
0.0
 10
266.9872083325421
 20
23.66615288091161
 30
0.0
  0
SPLINE
  5
1FE
330
1F
100
AcDbEntity
  8
0
  6
Continuous
 62
     7
370
    15
100
AcDbSpline
210
0.0
220
0.0
230
1.0
 70
     8
 71
     3
 72
    13
 73
     9
 74
     0
 42
0.000000001
 43
0.00000001
 40
0.0
 40
0.0
 40
0.0
 40
0.0
 40
0.0029975728577406
 40
0.1362795817996679
 40
0.3608653016220957
 40
0.5707514441002633
 40
0.7855789202809926
 40
1.0
 40
1.0
 40
1.0
 40
1.0
 10
269.7697963116498
 20
27.98217095417274
 30
0.0
 10
269.7697912116574
 20
27.98208370362175
 30
0.0
 10
269.7695593491271
 20
27.97811700484034
 30
0.0
 10
269.7553957937608
 20
27.95332414663657
 30
0.0
 10
269.7277763575991
 20
27.91068449884058
 30
0.0
 10
269.6861022074564
 20
27.85383120103034
 30
0.0
 10
269.6420634930101
 20
27.79638233846392
 30
0.0
 10
269.6106037069904
 20
27.75697465014027
 30
0.0
 10
269.5948887064544
 20
27.73728946084039
 30
0.0
  0
ARC
  5
1FF
330
1F
100
AcDbEntity
  8
0
  6
Continuous
 62
     7
370
    15
100
AcDbCircle
 10
272.7398898985
 20
28.4233638169
 30
0.0
 40
41.98130180117288
100
AcDbArc
 50
139.8689417319
 51
160.7586572674
  0
SPLINE
  5
200
330
1F
100
AcDbEntity
  8
0
  6
Continuous
 62
     7
370
    15
100
AcDbSpline
210
0.0
220
0.0
230
1.0
 70
     8
 71
     3
 72
    16
 73
    12
 74
     0
 42
0.000000001
 43
0.00000001
 40
0.0
 40
0.0
 40
0.0
 40
0.0
 40
0.2500000000000016
 40
0.2500000000000016
 40
0.5000000000000032
 40
0.5000000000000032
 40
0.6250000000000021
 40
0.6250000000000021
 40
0.750000000000001
 40
0.750000000000001
 40
1.0
 40
1.0
 40
1.0
 40
1.0
 10
278.835696612381
 20
33.07189340854562
 30
0.0
 10
278.8040463742966
 20
33.0747211501412
 30
0.0
 10
278.7699176480512
 20
33.07620626763303
 30
0.0
 10
278.6927390040229
 20
33.07434461253168
 30
0.0
 10
278.649043773572
 20
33.07114509399877
 30
0.0
 10
278.5753291835566
 20
33.05730017706416
 30
0.0
 10
278.5494108666409
 20
33.05098136353507
 30
0.0
 10
278.5012076194292
 20
33.03541689242959
 30
0.0
 10
278.4788605279429
 20
33.02610903340878
 30
0.0
 10
278.4240439840208
 20
32.99805248747776
 30
0.0
 10
278.4020643446376
 20
32.97968588009276
 30
0.0
 10
278.3858427319612
 20
32.96257597815615
 30
0.0
  0
SPLINE
  5
201
330
1F
100
AcDbEntity
  8
0
  6
Continuous
 62
     7
370
    15
100
AcDbSpline
210
0.0
220
0.0
230
1.0
 70
     8
 71
     3
 72
     8
 73
     4
 74
     0
 42
0.000000001
 43
0.00000001
 40
0.0
 40
0.0
 40
0.0
 40
0.0
 40
1.0
 40
1.0
 40
1.0
 40
1.0
 10
278.3858427319612
 20
32.96257597815615
 30
0.0
 10
278.3346127647169
 20
32.98203274675504
 30
0.0
 10
278.2838947726805
 20
33.00439949584828
 30
0.0
 10
278.244870501632
 20
33.02692772799762
 30
0.0
  0
LINE
  5
202
330
1F
100
AcDbEntity
  8
0
  6
Continuous
 62
     7
370
    15
100
AcDbLine
 10
276.436154911
 20
34.0710770131
 30
0.0
 11
278.2448705016
 21
33.026927728
 31
0.0
  0
ARC
  5
203
330
1F
100
AcDbEntity
  8
0
  6
Continuous
 62
     7
370
    15
100
AcDbCircle
 10
265.6469132135
 20
33.2844560909
 30
0.0
 40
8.704493113878298
100
AcDbArc
 50
338.0317979637
 51
1.7135660104
  0
LINE
  5
204
330
1F
100
AcDbEntity
  8
0
  6
Continuous
 62
     7
370
    15
100
AcDbLine
 10
273.719387102
 20
30.0281751311
 30
0.0
 11
278.2448705016
 21
27.4156691733
 31
0.0
  0
LINE
  5
205
330
1F
100
AcDbEntity
  8
0
  6
Continuous
 62
     7
370
    15
100
AcDbLine
 10
267.0495799049
 20
23.9205428042
 30
0.0
 11
269.6200289752
 21
22.4366541414
 31
0.0
  0
LINE
  5
206
330
1F
100
AcDbEntity
  8
0
  6
Continuous
 62
     7
370
    15
100
AcDbLine
 10
269.6911887792
 20
22.3785446745
 30
0.0
 11
267.745265403
 21
22.5525395474
 31
0.0
  0
SPLINE
  5
207
330
1F
100
AcDbEntity
  8
0
  6
Continuous
 62
     7
370
    15
100
AcDbSpline
210
0.0
220
0.0
230
1.0
 70
     8
 71
     3
 72
    16
 73
    12
 74
     0
 42
0.000000001
 43
0.00000001
 40
0.0
 40
0.0
 40
0.0
 40
0.0
 40
0.2500000000000092
 40
0.2500000000000092
 40
0.5000000000000184
 40
0.5000000000000184
 40
0.6250000000000138
 40
0.6250000000000138
 40
0.7500000000000092
 40
0.7500000000000092
 40
1.0
 40
1.0
 40
1.0
 40
1.0
 10
269.5948413829016
 20
22.06520004121708
 30
0.0
 10
269.6261024415469
 20
22.06240483150107
 30
0.0
 10
269.6570325841766
 20
22.06300835221978
 30
0.0
 10
269.713688496055
 20
22.07691259761894
 30
0.0
 10
269.7405296816387
 20
22.08982152025087
 30
0.0
 10
269.7658817721776
 20
22.13173159980613
 30
0.0
 10
269.7713163929355
 20
22.1498685487233
 30
0.0
 10
269.77243799428
 20
22.19249780310806
 30
0.0
 10
269.7680751467686
 20
22.21704081464617
 30
0.0
 10
269.7448315844535
 20
22.29032078209826
 30
0.0
 10
269.7187034170665
 20
22.33634483169136
 30
0.0
 10
269.6911887791678
 20
22.37854467446338
 30
0.0
  0
SPLINE
  5
208
330
1F
100
AcDbEntity
  8
0
  6
Continuous
 62
     7
370
    15
100
AcDbSpline
210
0.0
220
0.0
230
1.0
 70
     8
 71
     3
 72
     8
 73
     4
 74
     0
 42
0.000000001
 43
0.00000001
 40
0.0
 40
0.0
 40
0.0
 40
0.0
 40
1.0
 40
1.0
 40
1.0
 40
1.0
 10
269.6200289751511
 20
22.43665414139148
 30
0.0
 10
269.6590164658497
 20
22.41414714208613
 30
0.0
 10
269.6814341329732
 20
22.39429495476929
 30
0.0
 10
269.6911887791678
 20
22.37854467446341
 30
0.0
  0
LINE
  5
209
330
1F
100
AcDbEntity
  8
0
  6
Continuous
 62
     7
370
    15
100
AcDbLine
 10
238.5240776705
 20
25.7614765146
 30
0.0
 11
243.4738251388
 21
22.9040481232
 31
0.0
  0
ARC
  5
20A
330
1F
100
AcDbEntity
  8
0
  6
Continuous
 62
     7
370
    15
100
AcDbCircle
 10
242.6321586578
 20
32.2157610841
 30
0.0
 40
7.650759354637129
100
AcDbArc
 50
182.476303705
 51
237.5236964406
  0
LINE
  5
20B
330
1F
100
AcDbEntity
  8
0
  6
Continuous
 62
     7
370
    15
100
AcDbLine
 10
234.9885437645
 20
32.7017416654
 30
0.0
 11
234.9885437645
 21
31.8852008536
 31
0.0
  0
ARC
  5
20C
330
1F
100
AcDbEntity
  8
0
  6
Continuous
 62
     7
370
    15
100
AcDbCircle
 10
238.2148637218
 20
32.8085894059
 30
0.0
 40
3.228088738934447
100
AcDbArc
 50
153.9473801901
 51
181.8968013139
  0
SPLINE
  5
20D
330
1F
100
AcDbEntity
  8
0
  6
Continuous
 62
     7
370
    15
100
AcDbSpline
210
0.0
220
0.0
230
1.0
 70
     8
 71
     3
 72
     8
 73
     4
 74
     0
 42
0.000000001
 43
0.00000001
 40
0.0
 40
0.0
 40
0.0
 40
0.0
 40
1.0
 40
1.0
 40
1.0
 40
1.0
 10
278.244870501632
 20
27.415669173314
 30
0.0
 10
278.2838579923306
 20
27.39316217400865
 30
0.0
 10
278.3346057724493
 20
27.38966461280592
 30
0.0
 10
278.3858427319713
 20
27.39786156225283
 30
0.0
  0
SPLINE
  5
20E
330
1F
100
AcDbEntity
  8
0
  6
Continuous
 62
     7
370
    15
100
AcDbSpline
210
0.0
220
0.0
230
1.0
 70
     8
 71
     3
 72
    16
 73
    12
 74
     0
 42
0.000000001
 43
0.00000001
 40
0.0
 40
0.0
 40
0.0
 40
0.0
 40
0.2500000000000038
 40
0.2500000000000038
 40
0.3750000000000044
 40
0.3750000000000044
 40
0.5000000000000051
 40
0.5000000000000051
 40
0.7500000000000026
 40
0.7500000000000026
 40
1.0
 40
1.0
 40
1.0
 40
1.0
 10
278.3858427319714
 20
27.3978615622528
 30
0.0
 10
278.4019719545964
 20
27.34907249897162
 30
0.0
 10
278.4243782633207
 20
27.29994645787481
 30
0.0
 10
278.4787040855562
 20
27.24570686747617
 30
0.0
 10
278.5007705812203
 20
27.23138648366729
 30
0.0
 10
278.5491167704502
 20
27.2170513889473
 30
0.0
 10
278.5752017358441
 20
27.21707072018842
 30
0.0
 10
278.6489394090873
 20
27.23253927264976
 30
0.0
 10
278.692415567126
 20
27.26023990667407
 30
0.0
 10
278.7697232318399
 20
27.32361508644303
 30
0.0
 10
278.804376634268
 20
27.36083918667723
 30
0.0
 10
278.8357435188308
 20
27.39985929287399
 30
0.0
  0
SPLINE
  5
20F
330
1F
100
AcDbEntity
  8
0
  6
Continuous
 62
     7
370
    15
100
AcDbSpline
210
0.0
220
0.0
230
1.0
 70
     8
 71
     3
 72
     8
 73
     4
 74
     0
 42
0.000000001
 43
0.00000001
 40
0.0
 40
0.0
 40
0.0
 40
0.0
 40
1.0
 40
1.0
 40
1.0
 40
1.0
 10
223.2327731856913
 20
37.19507141616636
 30
0.0
 10
223.6996354113581
 20
36.81482982890441
 30
0.0
 10
224.1666701957416
 20
36.44792318036157
 30
0.0
 10
224.6337953079169
 20
36.08799685476961
 30
0.0
  0
SPLINE
  5
210
330
1F
100
AcDbEntity
  8
0
  6
Continuous
 62
     7
370
    15
100
AcDbSpline
210
0.0
220
0.0
230
1.0
 70
     8
 71
     3
 72
    14
 73
    10
 74
     0
 42
0.000000001
 43
0.00000001
 40
0.0
 40
0.0
 40
0.0
 40
0.0
 40
0.125
 40
0.125
 40
0.25
 40
0.25
 40
0.5
 40
0.5
 40
1.0
 40
1.0
 40
1.0
 40
1.0
 10
224.633795307917
 20
36.08799685476957
 30
0.0
 10
224.6602192465901
 20
36.06763684648395
 30
0.0
 10
224.6842831890949
 20
36.05212454316929
 30
0.0
 10
224.7205524465201
 20
36.03514117460993
 30
0.0
 10
224.7325708215083
 20
36.033266933204
 30
0.0
 10
224.7580850681786
 20
36.03740777453923
 30
0.0
 10
224.7622787306267
 20
36.05235016260225
 30
0.0
 10
224.7633855403622
 20
36.10670149894739
 30
0.0
 10
224.7477575552737
 20
36.15812245962341
 30
0.0
 10
224.72810482264
 20
36.21447128720937
 30
0.0
  0
SPLINE
  5
211
330
1F
100
AcDbEntity
  8
0
  6
Continuous
 62
     7
370
    15
100
AcDbSpline
210
0.0
220
0.0
230
1.0
 70
     8
 71
     3
 72
    14
 73
    10
 74
     0
 42
0.000000001
 43
0.00000001
 40
0.0
 40
0.0
 40
0.0
 40
0.0
 40
0.25
 40
0.25
 40
0.5
 40
0.5
 40
0.75
 40
0.75
 40
1.0
 40
1.0
 40
1.0
 40
1.0
 10
224.7281048226396
 20
36.21447128720973
 30
0.0
 10
224.7034389747016
 20
36.28519384974754
 30
0.0
 10
224.6925761039771
 20
36.34826014749775
 30
0.0
 10
224.6706257367823
 20
36.47982688845634
 30
0.0
 10
224.6603541419632
 20
36.54778022744803
 30
0.0
 10
224.6310501276047
 20
36.69638523129146
 30
0.0
 10
224.612257456375
 20
36.77684903772234
 30
0.0
 10
224.5593381518589
 20
36.95641991153666
 30
0.0
 10
224.5252589746799
 20
37.05525095746452
 30
0.0
 10
224.4811727224021
 20
37.1628510124438
 30
0.0
  0
LWPOLYLINE
  5
212
330
1F
100
AcDbEntity
  8
0
  6
Continuous
 62
     7
370
    15
100
AcDbPolyline
 90
        9
 70
   128
 43
0.0
 10
224.4811727224
 20
37.1628510124
 10
224.1130927985
 20
38.2339965519
 10
223.8479634096
 20
39.3979992715
 10
223.687996002
 20
40.6451502156
 10
223.6345248651
 20
41.9650468885
 10
223.687996002
 20
43.3466800221
 10
223.8479634096
 20
44.7785254036
 10
224.1130927985
 20
46.2486399999
 10
224.4811727224
 20
47.7447615736
  0
SPLINE
  5
213
330
1F
100
AcDbEntity
  8
0
  6
Continuous
 62
     7
370
    15
100
AcDbSpline
210
0.0
220
0.0
230
1.0
 70
     8
 71
     3
 72
    14
 73
    10
 74
     0
 42
0.000000001
 43
0.00000001
 40
0.0
 40
0.0
 40
0.0
 40
0.0
 40
0.25
 40
0.25
 40
0.5
 40
0.5
 40
0.75
 40
0.75
 40
1.0
 40
1.0
 40
1.0
 40
1.0
 10
224.7281048226396
 20
49.79826168651825
 30
0.0
 10
224.7034389747016
 20
49.62658915502539
 30
0.0
 10
224.6925761039771
 20
49.45160942284979
 30
0.0
 10
224.6706257367823
 20
49.1028029192086
 30
0.0
 10
224.6603541419632
 20
48.9285888272728
 30
0.0
 10
224.6310501276047
 20
48.58253791532172
 30
0.0
 10
224.612257456375
 20
48.41065506140647
 30
0.0
 10
224.5593381518589
 20
48.07062339251225
 30
0.0
 10
224.5252589746799
 20
47.90326253201513
 30
0.0
 10
224.4811727224021
 20
47.74476157361217
 30
0.0
  0
SPLINE
  5
214
330
1F
100
AcDbEntity
  8
0
  6
Continuous
 62
     7
370
    15
100
AcDbSpline
210
0.0
220
0.0
230
1.0
 70
     8
 71
     3
 72
    14
 73
    10
 74
     0
 42
0.000000001
 43
0.00000001
 40
0.0
 40
0.0
 40
0.0
 40
0.0
 40
0.1249999999999983
 40
0.1249999999999983
 40
0.2499999999999966
 40
0.2499999999999966
 40
0.4999999999999978
 40
0.4999999999999978
 40
1.0
 40
1.0
 40
1.0
 40
1.0
 10
224.633795307917
 20
50.54700543016092
 30
0.0
 10
224.6602192465902
 20
50.5426991308887
 30
0.0
 10
224.684283189095
 20
50.52681562434829
 30
0.0
 10
224.7205524465201
 20
50.47767105145689
 30
0.0
 10
224.7325708215083
 20
50.44665969610455
 30
0.0
 10
224.7580850681786
 20
50.34980115423711
 30
0.0
 10
224.7622787306267
 20
50.27952053336096
 30
0.0
 10
224.7633855403622
 20
50.07311913128309
 30
0.0
 10
224.7477575552736
 20
49.93504329526091
 30
0.0
 10
224.72810482264
 20
49.79826168651816
 30
0.0
  0
SPLINE
  5
215
330
1F
100
AcDbEntity
  8
0
  6
Continuous
 62
     7
370
    15
100
AcDbSpline
210
0.0
220
0.0
230
1.0
 70
     8
 71
     3
 72
     8
 73
     4
 74
     0
 42
0.000000001
 43
0.00000001
 40
0.0
 40
0.0
 40
0.0
 40
0.0
 40
1.0
 40
1.0
 40
1.0
 40
1.0
 10
223.2327731856913
 20
50.71621832404587
 30
0.0
 10
223.6996354113581
 20
50.68412856998057
 30
0.0
 10
224.1666701957416
 20
50.6231326326749
 30
0.0
 10
224.633795307917
 20
50.54700543016091
 30
0.0
  0
SPLINE
  5
216
330
1F
100
AcDbEntity
  8
0
  6
Continuous
 62
     7
370
    15
100
AcDbSpline
210
0.0
220
0.0
230
1.0
 70
     8
 71
     3
 72
    14
 73
    10
 74
     0
 42
0.000000001
 43
0.00000001
 40
0.0
 40
0.0
 40
0.0
 40
0.0
 40
0.4999999999999972
 40
0.4999999999999972
 40
0.7499999999999971
 40
0.7499999999999971
 40
0.8749999999999986
 40
0.8749999999999986
 40
1.0
 40
1.0
 40
1.0
 40
1.0
 10
220.3882358084733
 20
51.64080020020808
 30
0.0
 10
220.8532703411883
 20
51.44445495094724
 30
0.0
 10
221.3201262624699
 20
51.25680243947919
 30
0.0
 10
222.0271526480744
 20
51.00678448253475
 30
0.0
 10
222.2639376309655
 20
50.92862322473592
 30
0.0
 10
222.6227182690971
 20
50.82805595934094
 30
0.0
 10
222.7429170930982
 20
50.7973344630893
 30
0.0
 10
222.9855191912079
 20
50.74605975670474
 30
0.0
 10
223.1077709487968
 20
50.72481034717176
 30
0.0
 10
223.2327731856913
 20
50.71621832404582
 30
0.0
  0
LINE
  5
217
330
1F
100
AcDbEntity
  8
0
  6
Continuous
 62
     7
370
    15
100
AcDbLine
 10
240.203594004
 20
67.7287121817
 30
0.0
 11
240.3678523181
 21
67.6499813211
 31
0.0
  0
SPLINE
  5
218
330
1F
100
AcDbEntity
  8
0
  6
Continuous
 62
     7
370
    15
100
AcDbSpline
210
0.0
220
0.0
230
1.0
 70
     8
 71
     3
 72
    14
 73
    10
 74
     0
 42
0.000000001
 43
0.00000001
 40
0.0
 40
0.0
 40
0.0
 40
0.0
 40
0.4999999999999986
 40
0.4999999999999986
 40
0.7499999999999978
 40
0.7499999999999978
 40
0.8749999999999989
 40
0.8749999999999989
 40
1.0
 40
1.0
 40
1.0
 40
1.0
 10
220.3882358084733
 20
39.31785622433368
 30
0.0
 10
220.8532703411883
 20
38.98301090809531
 30
0.0
 10
221.3201262624699
 20
38.64422273302379
 30
0.0
 10
222.0271526480744
 20
38.12192698599105
 30
0.0
 10
222.2639376309655
 20
37.94550527790068
 30
0.0
 10
222.6227182690971
 20
37.67342312638173
 30
0.0
 10
222.7429170930982
 20
37.58147776502482
 30
0.0
 10
222.985519191208
 20
37.39305174419452
 30
0.0
 10
223.1077709487968
 20
37.29688100013987
 30
0.0
 10
223.2327731856913
 20
37.19507141616638
 30
0.0
  0
SPLINE
  5
219
330
1F
100
AcDbEntity
  8
0
  6
Continuous
 62
     7
370
    15
100
AcDbSpline
210
0.0
220
0.0
230
1.0
 70
     8
 71
     3
 72
    17
 73
    13
 74
     0
 42
0.000000001
 43
0.00000001
 40
0.0
 40
0.0
 40
0.0
 40
0.0
 40
0.123008924090357
 40
0.2464507930380051
 40
0.3698685829948355
 40
0.4928246035180929
 40
0.6150901889173122
 40
0.6766902186105089
 40
0.7375316585445197
 40
0.8596390256872019
 40
0.9823153252602345
 40
1.0
 40
1.0
 40
1.0
 40
1.0
 10
228.8464793426403
 20
36.87408018111084
 30
0.0
 10
228.6427106126733
 20
37.24796978542963
 30
0.0
 10
228.2344559639306
 20
37.99706494396745
 30
0.0
 10
228.0411882672826
 20
39.14538341860214
 30
0.0
 10
228.2465511016127
 20
40.09772217499719
 30
0.0
 10
228.8058386141833
 20
40.73118794141867
 30
0.0
 10
229.4817397800236
 20
40.87249709932224
 30
0.0
 10
230.0566177469132
 20
40.74629943751695
 30
0.0
 10
230.6369014351878
 20
40.45824398040593
 30
0.0
 10
231.300134243677
 20
39.79945014966211
 30
0.0
 10
231.807491670068
 20
39.03233992797501
 30
0.0
 10
231.9523007873682
 20
38.57229343818423
 30
0.0
 10
231.9705459025176
 20
38.51433022884522
 30
0.0
  0
SPLINE
  5
21A
330
1F
100
AcDbEntity
  8
0
  6
Continuous
 62
     7
370
    15
100
AcDbSpline
210
0.0
220
0.0
230
1.0
 70
     8
 71
     3
 72
    12
 73
     8
 74
     0
 42
0.000000001
 43
0.00000001
 40
0.0
 40
0.0
 40
0.0
 40
0.0
 40
0.0340224365878734
 40
0.3551336195002111
 40
0.5153690562705255
 40
0.6777568111704261
 40
1.0
 40
1.0
 40
1.0
 40
1.0
 10
231.3469704839529
 20
34.84151973454779
 30
0.0
 10
231.3251514825438
 20
34.83784938362297
 30
0.0
 10
231.0973999831977
 20
34.79953745950782
 30
0.0
 10
230.6246025528737
 20
35.06301527100299
 30
0.0
 10
230.0559567915779
 20
35.47231618650281
 30
0.0
 10
229.4724948139496
 20
36.00857385725589
 30
0.0
 10
229.0964925895535
 20
36.52842091841193
 30
0.0
 10
228.8464793426403
 20
36.87408018111084
 30
0.0
  0
SPLINE
  5
21B
330
1F
100
AcDbEntity
  8
0
  6
Continuous
 62
     7
370
    15
100
AcDbSpline
210
0.0
220
0.0
230
1.0
 70
     8
 71
     3
 72
    30
 73
    26
 74
     0
 42
0.000000001
 43
0.00000001
 40
0.0
 40
0.0
 40
0.0
 40
0.0
 40
0.1249999999999999
 40
0.1249999999999999
 40
0.1874999999999999
 40
0.1874999999999999
 40
0.2499999999999999
 40
0.2499999999999999
 40
0.3124999999999999
 40
0.3124999999999999
 40
0.3749999999999999
 40
0.3749999999999999
 40
0.4374999999999999
 40
0.4374999999999999
 40
0.5
 40
0.5
 40
0.625
 40
0.625
 40
0.6875000000000001
 40
0.6875000000000001
 40
0.7500000000000003
 40
0.7500000000000003
 40
0.8750000000000001
 40
0.8750000000000001
 40
1.0
 40
1.0
 40
1.0
 40
1.0
 10
280.3317661081299
 20
29.81857174264724
 30
0.0
 10
280.4450561985284
 20
29.95950353807441
 30
0.0
 10
280.5473543656553
 20
30.10929395976033
 30
0.0
 10
280.6832290555652
 20
30.34776048351647
 30
0.0
 10
280.7258803557781
 20
30.43018500160304
 30
0.0
 10
280.8033252795602
 20
30.59578331422674
 30
0.0
 10
280.8382038328052
 20
30.67905828455726
 30
0.0
 10
280.9004655348286
 20
30.84652554307084
 30
0.0
 10
280.9278695686039
 20
30.93070642346563
 30
0.0
 10
280.9750312791269
 20
31.09997324497726
 30
0.0
 10
280.9945847167301
 20
31.18451741126115
 30
0.0
 10
281.0252616655974
 20
31.3495447481135
 30
0.0
 10
281.0365084490663
 20
31.43060504888703
 30
0.0
 10
281.0509778651031
 20
31.58973115620827
 30
0.0
 10
281.0542287483689
 20
31.6682634009134
 30
0.0
 10
281.0517110412816
 20
31.89535203320464
 30
0.0
 10
281.0342206362639
 20
32.03366714963306
 30
0.0
 10
280.9850142728241
 20
32.22136246890921
 30
0.0
 10
280.9646496784858
 20
32.28059279375581
 30
0.0
 10
280.9171792118206
 20
32.38891009893477
 30
0.0
 10
280.8899581907364
 20
32.43849819575272
 30
0.0
 10
280.7979332972678
 20
32.57366076904144
 30
0.0
 10
280.7216946333896
 20
32.64594938393602
 30
0.0
 10
280.5460094599784
 20
32.7475757480899
 30
0.0
 10
280.4450664217065
 20
32.77845034675492
 30
0.0
 10
280.3317661086266
 20
32.78858110490378
 30
0.0
  0
LINE
  5
21C
330
1F
100
AcDbEntity
  8
0
  6
Continuous
 62
     7
370
    15
100
AcDbLine
 10
280.3317661086
 20
32.7885811049
 30
0.0
 11
278.385842732
 21
32.9625759782
 31
0.0
  0
SPLINE
  5
21D
330
1F
100
AcDbEntity
  8
0
  6
Continuous
 62
     7
370
    15
100
AcDbSpline
210
0.0
220
0.0
230
1.0
 70
     8
 71
     3
 72
    14
 73
    10
 74
     0
 42
0.000000001
 43
0.00000001
 40
0.0
 40
0.0
 40
0.0
 40
0.0
 40
0.25
 40
0.25
 40
0.5
 40
0.5
 40
0.75
 40
0.75
 40
1.0
 40
1.0
 40
1.0
 40
1.0
 10
275.9617736709213
 20
42.47541606352237
 30
0.0
 10
276.0084557072599
 20
42.44846709756894
 30
0.0
 10
276.046142321866
 20
42.41536037341781
 30
0.0
 10
276.0950138006204
 20
42.34475180035528
 30
0.0
 10
276.1071150310203
 20
42.30625622596521
 30
0.0
 10
276.1049454194651
 20
42.23029811176982
 30
0.0
 10
276.0907050053831
 20
42.19210440417746
 30
0.0
 10
276.0388535627936
 20
42.1221097552524
 30
0.0
 10
276.0011470226899
 20
42.08994175977061
 30
0.0
 10
275.9543295919725
 20
42.06291463230603
 30
0.0
  0
ARC
  5
21E
330
1F
100
AcDbEntity
  8
0
  6
Continuous
 62
     7
370
    15
100
AcDbCircle
 10
250.44125157
 20
22.3553012918
 30
0.0
 40
8.594350357827993
100
AcDbArc
 50
218.6593726751
 51
261.131147078
  0
SPLINE
  5
21F
330
1F
100
AcDbEntity
  8
0
  6
Continuous
 62
     7
370
    15
100
AcDbSpline
210
0.0
220
0.0
230
1.0
 70
     8
 71
     3
 72
    14
 73
    10
 74
     0
 42
0.000000001
 43
0.00000001
 40
0.0
 40
0.0
 40
0.0
 40
0.0
 40
0.25
 40
0.25
 40
0.5
 40
0.5
 40
0.75
 40
0.75
 40
1.0
 40
1.0
 40
1.0
 40
1.0
 10
241.396701234252
 20
22.11315407254365
 30
0.0
 10
241.4439223976756
 20
22.08589387514881
 30
0.0
 10
241.500209157107
 20
22.06461194362466
 30
0.0
 10
241.6236385051802
 20
22.03625731379354
 30
0.0
 10
241.6902918286402
 20
22.02941393145338
 30
0.0
 10
241.8224167055819
 20
22.03089604708257
 30
0.0
 10
241.8887760615665
 20
22.03928657876877
 30
0.0
 10
242.0100302936874
 20
22.06940490224015
 30
0.0
 10
242.0661413961646
 20
22.09140959608096
 30
0.0
 10
242.1128759696919
 20
22.11838889110791
 30
0.0
  0
LINE
  5
220
330
1F
100
AcDbEntity
  8
0
  6
Continuous
 62
     7
370
    15
100
AcDbLine
 10
239.7392531996
 20
23.0699784564
 30
0.0
 11
241.3967012343
 21
22.1131540725
 31
0.0
  0
SPLINE
  5
221
330
1F
100
AcDbEntity
  8
0
  6
Continuous
 62
     7
370
    15
100
AcDbSpline
210
0.0
220
0.0
230
1.0
 70
     8
 71
     3
 72
     8
 73
     4
 74
     0
 42
0.000000001
 43
0.00000001
 40
0.0
 40
0.0
 40
0.0
 40
0.0
 40
1.0
 40
1.0
 40
1.0
 40
1.0
 10
240.1110415606548
 20
23.83651103875666
 30
0.0
 10
239.9868633927698
 20
23.58104023953058
 30
0.0
 10
239.862945692628
 20
23.32552739285762
 30
0.0
 10
239.7392531995959
 20
23.06997845637096
 30
0.0
  0
LINE
  5
222
330
1F
100
AcDbEntity
  8
0
  6
Continuous
 62
     7
370
    15
100
AcDbLine
 10
240.4321421104
 20
24.0218784405
 30
0.0
 11
240.1110415607
 21
23.8365110388
 31
0.0
  0
SPLINE
  5
223
330
1F
100
AcDbEntity
  8
0
  6
Continuous
 62
     7
370
    15
100
AcDbSpline
210
0.0
220
0.0
230
1.0
 70
     8
 71
     3
 72
    12
 73
     8
 74
     0
 42
0.000000001
 43
0.00000001
 40
0.0
 40
0.0
 40
0.0
 40
0.0
 40
0.2499999999999986
 40
0.2499999999999986
 40
0.4999999999999971
 40
0.4999999999999971
 40
1.0
 40
1.0
 40
1.0
 40
1.0
 10
240.4404517903977
 20
24.35323876135162
 30
0.0
 10
240.4778438279806
 20
24.33165279752518
 30
0.0
 10
240.508054301298
 20
24.30501194473511
 30
0.0
 10
240.5469536713075
 20
24.24803374142931
 30
0.0
 10
240.5562840372374
 20
24.2171421717525
 30
0.0
 10
240.5526789738235
 20
24.12558583019042
 30
0.0
 10
240.507073948912
 20
24.06513567008541
 30
0.0
 10
240.4321421103852
 20
24.02187844045993
 30
0.0
  0
LINE
  5
224
330
1F
100
AcDbEntity
  8
0
  6
Continuous
 62
     7
370
    15
100
AcDbLine
 10
239.6555632633
 20
24.8063452634
 30
0.0
 11
240.4404517904
 21
24.3532387614
 31
0.0
  0
SPLINE
  5
225
330
1F
100
AcDbEntity
  8
0
  6
Continuous
 62
     7
370
    15
100
AcDbSpline
210
0.0
220
0.0
230
1.0
 70
     8
 71
     3
 72
    14
 73
    10
 74
     0
 42
0.000000001
 43
0.00000001
 40
0.0
 40
0.0
 40
0.0
 40
0.0
 40
0.25
 40
0.25
 40
0.5
 40
0.5
 40
0.75
 40
0.75
 40
1.0
 40
1.0
 40
1.0
 40
1.0
 10
239.0815681583189
 20
24.80154818725066
 30
0.0
 10
239.1194139560974
 20
24.82339610126227
 30
0.0
 10
239.1637328732454
 20
24.84076874605119
 30
0.0
 10
239.2614344097975
 20
24.86513022074305
 30
0.0
 10
239.3141875414093
 20
24.87184418527461
 30
0.0
 10
239.4201408986377
 20
24.87320163486062
 30
0.0
 10
239.473505184933
 20
24.86782393372153
 30
0.0
 10
239.5726829597048
 20
24.84518299020569
 30
0.0
 10
239.617689853106
 20
24.82820911772182
 30
0.0
 10
239.6555632632806
 20
24.80634526341322
 30
0.0
  0
LINE
  5
226
330
1F
100
AcDbEntity
  8
0
  6
Continuous
 62
     7
370
    15
100
AcDbLine
 10
238.7604676086
 20
24.6161807855
 30
0.0
 11
239.0815681583
 21
24.8015481873
 31
0.0
  0
SPLINE
  5
227
330
1F
100
AcDbEntity
  8
0
  6
Continuous
 62
     7
370
    15
100
AcDbSpline
210
0.0
220
0.0
230
1.0
 70
     8
 71
     3
 72
     8
 73
     4
 74
     0
 42
0.000000001
 43
0.00000001
 40
0.0
 40
0.0
 40
0.0
 40
0.0
 40
1.0
 40
1.0
 40
1.0
 40
1.0
 10
237.432650358475
 20
24.40155193321161
 30
0.0
 10
237.8753220646914
 20
24.47295808951631
 30
0.0
 10
238.3179312547431
 20
24.54449425511808
 30
0.0
 10
238.7604676085885
 20
24.61618078554734
 30
0.0
  0
LINE
  5
228
330
1F
100
AcDbEntity
  8
0
  6
Continuous
 62
     7
370
    15
100
AcDbLine
 10
274.5158128329
 20
43.3101514875
 30
0.0
 11
275.9617736709
 21
42.4754160635
 31
0.0
  0
LWPOLYLINE
  5
229
330
1F
100
AcDbEntity
  8
0
  6
Continuous
 62
     7
370
    15
100
AcDbPolyline
 90
        9
 70
   128
 43
0.0
 10
244.4848334026
 20
15.8648064681
 10
244.2375633632
 20
16.0133145588
 10
243.3255925477
 20
16.6715424779
 10
242.4959735211
 20
17.4554514918
 10
241.7537084422
 20
18.3603150486
 10
241.1032727722
 20
19.3806773053
 10
240.5485882903
 20
20.5103860233
 10
240.0929994471
 20
21.7426296636
 10
239.7392531996
 20
23.0699784564
  0
ARC
  5
22A
330
1F
100
AcDbEntity
  8
0
  6
Continuous
 62
     7
370
    15
100
AcDbCircle
 10
273.1015858955
 20
34.6230649897
 30
0.0
 40
3.360506813820777
100
AcDbArc
 50
320.6498369943
 51
350.7253969509
  0
ARC
  5
22B
330
1F
100
AcDbEntity
  8
0
  6
Continuous
 62
     7
370
    15
100
AcDbCircle
 10
250.3605075882
 20
27.1167246345
 30
0.0
 40
11.86649261870387
100
AcDbArc
 50
192.164729815
 51
214.9100933088
  0
LINE
  5
22C
330
1F
100
AcDbEntity
  8
0
  6
Continuous
 62
     7
370
    15
100
AcDbLine
 10
278.385842732
 20
27.3978615623
 30
0.0
 11
280.3317661081
 21
29.8185717426
 31
0.0
  0
LINE
  5
22D
330
1F
100
AcDbEntity
  8
0
  6
Continuous
 62
     7
370
    15
100
AcDbLine
 10
273.719387102
 20
30.0281751311
 30
0.0
 11
275.7002166914
 21
32.4923083089
 31
0.0
  0
SPLINE
  5
22E
330
1F
100
AcDbEntity
  8
0
  6
Continuous
 62
     7
370
    15
100
AcDbSpline
210
0.0
220
0.0
230
1.0
 70
     8
 71
     3
 72
    20
 73
    16
 74
     0
 42
0.000000001
 43
0.00000001
 40
0.0
 40
0.0
 40
0.0
 40
0.0
 40
0.1090042354528199
 40
0.1716677089350903
 40
0.2312138826936468
 40
0.3523257023899168
 40
0.4140299603779888
 40
0.4737584873079325
 40
0.5951897313986578
 40
0.6570257881771756
 40
0.7176876643736615
 40
0.8410481565769712
 40
0.9038948893064039
 40
0.9648308366475598
 40
1.0
 40
1.0
 40
1.0
 40
1.0
 10
230.2428437216098
 20
40.54464387199433
 30
0.0
 10
230.2237381960096
 20
40.43144710212466
 30
0.0
 10
230.1936494403373
 20
40.2531766884875
 30
0.0
 10
230.1987680142707
 20
39.99195459958325
 30
0.0
 10
230.2246977997942
 20
39.71078965625674
 30
0.0
 10
230.2856317193782
 20
39.4208629084728
 30
0.0
 10
230.3788921648776
 20
39.12832733656541
 30
0.0
 10
230.4929366185297
 20
38.83519540062931
 30
0.0
 10
230.6365153558419
 20
38.54376752653607
 30
0.0
 10
230.8057834321177
 20
38.25938316395532
 30
0.0
 10
230.9918213208109
 20
37.97966296886011
 30
0.0
 10
231.199581486622
 20
37.71025196249225
 30
0.0
 10
231.4230610288258
 20
37.46064331673848
 30
0.0
 10
231.57072437497
 20
37.30409711421379
 30
0.0
 10
231.6643033914451
 20
37.22192088503608
 30
0.0
 10
231.6985481438107
 20
37.19184892313124
 30
0.0
  0
SPLINE
  5
22F
330
1F
100
AcDbEntity
  8
0
  6
Continuous
 62
     7
370
    15
100
AcDbSpline
210
0.0
220
0.0
230
1.0
 70
     8
 71
     3
 72
    14
 73
    10
 74
     0
 42
0.000000001
 43
0.00000001
 40
0.0
 40
0.0
 40
0.0
 40
0.0
 40
0.1897125781765613
 40
0.3649851145638195
 40
0.6713766262309897
 40
0.7479467125724683
 40
0.8296218510940415
 40
0.9164226625678176
 40
0.9999999999999999
 40
0.9999999999999999
 40
0.9999999999999999
 40
0.9999999999999999
 10
229.1367927951755
 20
37.05649058432184
 30
0.0
 10
229.2632896255216
 20
36.87346311765918
 30
0.0
 10
229.5066549340298
 20
36.52133938643233
 30
0.0
 10
230.02410066412
 20
35.95728346614622
 30
0.0
 10
230.4828311386544
 20
35.58721240265405
 30
0.0
 10
230.8405265082784
 20
35.37239204187676
 30
0.0
 10
231.0237642997368
 20
35.2798977824918
 30
0.0
 10
231.2059613642964
 20
35.20605594221792
 30
0.0
 10
231.3209040064058
 20
35.17856629116432
 30
0.0
 10
231.3772879972322
 20
35.16508151123947
 30
0.0
  0
SPLINE
  5
230
330
1F
100
AcDbEntity
  8
0
  6
Continuous
 62
     7
370
    15
100
AcDbSpline
210
0.0
220
0.0
230
1.0
 70
     8
 71
     3
 72
    22
 73
    18
 74
     0
 42
0.000000001
 43
0.00000001
 40
0.0
 40
0.0
 40
0.0
 40
0.0
 40
0.1402864692907324
 40
0.2282537884295858
 40
0.2750030522914542
 40
0.323565055054008
 40
0.3962761026350631
 40
0.4526559277739687
 40
0.4926849906388197
 40
0.5822231041263358
 40
0.6617017271911216
 40
0.700226200977229
 40
0.7412752563996583
 40
0.7848545772578678
 40
0.8309688324369418
 40
0.897593496058984
 40
0.9999999999999999
 40
0.9999999999999999
 40
0.9999999999999999
 40
0.9999999999999999
 10
230.5968869218014
 20
40.40670618336562
 30
0.0
 10
230.372171856593
 20
40.51796841939704
 30
0.0
 10
230.0065481067733
 20
40.69899818664197
 30
0.0
 10
229.5853697118195
 20
40.68268817652904
 30
0.0
 10
229.326359240104
 20
40.61738458059856
 30
0.0
 10
229.1043660311264
 20
40.51535663780471
 30
0.0
 10
228.8973258749583
 20
40.35655850064526
 30
0.0
 10
228.7355464267945
 20
40.15832777545321
 30
0.0
 10
228.5892727204091
 20
39.90534301250351
 30
0.0
 10
228.4772421378244
 20
39.57202601434432
 30
0.0
 10
228.4399270353769
 20
39.19263135221904
 30
0.0
 10
228.4533715005639
 20
38.88499003780464
 30
0.0
 10
228.4850843250873
 20
38.63940308194601
 30
0.0
 10
228.5419124485197
 20
38.37257231548117
 30
0.0
 10
228.638604249209
 20
38.04928112801319
 30
0.0
 10
228.815568624552
 20
37.60078523742775
 30
0.0
 10
229.0156031161135
 20
37.26183906167027
 30
0.0
 10
229.1367927951755
 20
37.05649058432184
 30
0.0
  0
SPLINE
  5
231
330
1F
100
AcDbEntity
  8
0
  6
Continuous
 62
     7
370
    15
100
AcDbSpline
210
0.0
220
0.0
230
1.0
 70
     8
 71
     3
 72
     9
 73
     5
 74
     0
 42
0.000000001
 43
0.00000001
 40
0.0
 40
0.0
 40
0.0
 40
0.0
 40
0.1883699358114506
 40
1.0
 40
1.0
 40
1.0
 40
1.0
 10
270.0787177809249
 20
58.11564575722208
 30
0.0
 10
270.121093823051
 20
58.12517825681396
 30
0.0
 10
270.3460556352609
 20
58.17578346380107
 30
0.0
 10
270.5718229618164
 20
58.22518222473195
 30
0.0
 10
270.7550625115604
 20
58.26527574423711
 30
0.0
  0
LINE
  5
232
330
1F
100
AcDbEntity
  8
0
  6
Continuous
 62
     7
370
    15
100
AcDbLine
 10
270.7550625116
 20
58.2652757442
 30
0.0
 11
272.4125105462
 21
57.3084513604
 31
0.0
  0
SPLINE
  5
233
330
1F
100
AcDbEntity
  8
0
  6
Continuous
 62
     7
370
    15
100
AcDbSpline
210
0.0
220
0.0
230
1.0
 70
     8
 71
     3
 72
    16
 73
    12
 74
     0
 42
0.000000001
 43
0.00000001
 40
0.0
 40
0.0
 40
0.0
 40
0.0
 40
0.1249999999999996
 40
0.1249999999999996
 40
0.2499999999999992
 40
0.2499999999999992
 40
0.4999999999999994
 40
0.4999999999999994
 40
0.7499999999999997
 40
0.7499999999999997
 40
1.0
 40
1.0
 40
1.0
 40
1.0
 10
272.4125105462165
 20
57.3084513604098
 30
0.0
 10
272.4392525137748
 20
57.29301355114136
 30
0.0
 10
272.4622231124213
 20
57.27512183173413
 30
0.0
 10
272.4982000645454
 20
57.23694183518899
 30
0.0
 10
272.5114626033244
 20
57.2166580177184
 30
0.0
 10
272.5382177140301
 20
57.1525316864237
 30
0.0
 10
272.5374007087697
 20
57.10803883479456
 30
0.0
 10
272.5093203185234
 20
57.02295914245069
 30
0.0
 10
272.4817509635989
 20
56.98158628640439
 30
0.0
 10
272.4085768078395
 20
56.90615515369643
 30
0.0
 10
272.3623429694268
 20
56.87128617887266
 30
0.0
 10
272.3091791844985
 20
56.84059537910561
 30
0.0
  0
LINE
  5
234
330
1F
100
AcDbEntity
  8
0
  6
Continuous
 62
     7
370
    15
100
AcDbLine
 10
223.0254619295
 20
43.0170001285
 30
0.0
 11
223.6482354608
 21
42.6574806214
 31
0.0
  0
SPLINE
  5
235
330
1F
100
AcDbEntity
  8
0
  6
Continuous
 62
     7
370
    15
100
AcDbSpline
210
0.0
220
0.0
230
1.0
 70
     8
 71
     3
 72
    14
 73
    10
 74
     0
 42
0.000000001
 43
0.00000001
 40
0.0
 40
0.0
 40
0.0
 40
0.0
 40
0.046437247002555
 40
0.2343415216031405
 40
0.4277138105094835
 40
0.6151527086309942
 40
0.8081818417008357
 40
0.9928595663465682
 40
0.9999999999999999
 40
0.9999999999999999
 40
0.9999999999999999
 40
0.9999999999999999
 10
275.9543295919725
 20
50.22832275116353
 30
0.0
 10
275.9593048137162
 20
50.2312699531616
 30
0.0
 10
275.9844118368283
 20
50.24614275129841
 30
0.0
 10
276.0247961880357
 20
50.27631257202106
 30
0.0
 10
276.0662257627912
 20
50.32089208362164
 30
0.0
 10
276.0946372429231
 20
50.36939368941043
 30
0.0
 10
276.1063765867622
 20
50.41902155935202
 30
0.0
 10
276.1086294482174
 20
50.45361217274075
 30
0.0
 10
276.1028937703792
 20
50.47028773880439
 30
0.0
 10
276.1026802596905
 20
50.47090848698677
 30
0.0
  0
LINE
  5
236
330
1F
100
AcDbEntity
  8
0
  6
Continuous
 62
     7
370
    15
100
AcDbLine
 10
220.3734707583
 20
52.6984313544
 30
0.0
 11
220.3906304013
 21
52.7500161098
 31
0.0
  0
SPLINE
  5
237
330
1F
100
AcDbEntity
  8
0
  6
Continuous
 62
     7
370
    15
100
AcDbSpline
210
0.0
220
0.0
230
1.0
 70
     8
 71
     3
 72
    16
 73
    12
 74
     0
 42
0.000000001
 43
0.00000001
 40
0.0
 40
0.0
 40
0.0
 40
0.0
 40
0.0267683199561987
 40
0.1569418566156229
 40
0.2343029010132176
 40
0.2960949106158573
 40
0.3581211014045614
 40
0.4324073529632288
 40
0.5567113993811911
 40
0.9135939798984448
 40
1.0
 40
1.0
 40
1.0
 40
1.0
 10
220.4168080196303
 20
52.82871040620859
 30
0.0
 10
220.4181191267255
 20
52.83270154234569
 30
0.0
 10
220.4258061082796
 20
52.85610145374799
 30
0.0
 10
220.4361047050138
 20
52.8798399702951
 30
0.0
 10
220.446163198567
 20
52.89730009516119
 30
0.0
 10
220.4510223996517
 20
52.8966637874223
 30
0.0
 10
220.452225335009
 20
52.88129746807491
 30
0.0
 10
220.4489473416224
 20
52.84472632719064
 30
0.0
 10
220.4334366001589
 20
52.7444021459338
 30
0.0
 10
220.4104425597365
 20
52.62910584648325
 30
0.0
 10
220.3917379014555
 20
52.54006169214919
 30
0.0
 10
220.3880919807683
 20
52.52270516419296
 30
0.0
  0
SPLINE
  5
238
330
1F
100
AcDbEntity
  8
0
  6
Continuous
 62
     7
370
    15
100
AcDbSpline
210
0.0
220
0.0
230
1.0
 70
     8
 71
     3
 72
    10
 73
     6
 74
     0
 42
0.000000001
 43
0.00000001
 40
0.0
 40
0.0
 40
0.0
 40
0.0
 40
0.1815690553731935
 40
0.7767097940434246
 40
1.0
 40
1.0
 40
1.0
 40
1.0
 10
220.3041548495113
 20
52.25882652506902
 30
0.0
 10
220.3025300351583
 20
52.28453198696631
 30
0.0
 10
220.2955794607952
 20
52.39449391839234
 30
0.0
 10
220.3263366819987
 20
52.5372532107686
 30
0.0
 10
220.3633676922404
 20
52.66388324059361
 30
0.0
 10
220.373470758306
 20
52.6984313544272
 30
0.0
  0
SPLINE
  5
239
330
1F
100
AcDbEntity
  8
0
  6
Continuous
 62
     7
370
    15
100
AcDbSpline
210
0.0
220
0.0
230
1.0
 70
     8
 71
     3
 72
     8
 73
     4
 74
     0
 42
0.000000001
 43
0.00000001
 40
0.0
 40
0.0
 40
0.0
 40
0.0
 40
1.0
 40
1.0
 40
1.0
 40
1.0
 10
220.2990066581019
 20
51.66179714999883
 30
0.0
 10
220.3276089536762
 20
51.6602437348653
 30
0.0
 10
220.3573053334138
 20
51.65385955690252
 30
0.0
 10
220.3882358084721
 20
51.64080020021443
 30
0.0
  0
SPLINE
  5
23A
330
1F
100
AcDbEntity
  8
0
  6
Continuous
 62
     7
370
    15
100
AcDbSpline
210
0.0
220
0.0
230
1.0
 70
     8
 71
     3
 72
    10
 73
     6
 74
     0
 42
0.000000001
 43
0.00000001
 40
0.0
 40
0.0
 40
0.0
 40
0.0
 40
0.4999999999999989
 40
0.4999999999999989
 40
1.0
 40
1.0
 40
1.0
 40
1.0
 10
220.3880919807687
 20
52.52270516419319
 30
0.0
 10
220.3581035108598
 20
52.38091430802319
 30
0.0
 10
220.3376702116732
 20
52.23865649197987
 30
0.0
 10
220.3090372244475
 20
51.95184622381012
 30
0.0
 10
220.3011661648009
 20
51.80738969061459
 30
0.0
 10
220.2990066581027
 20
51.66179714999512
 30
0.0
  0
ARC
  5
23B
330
1F
100
AcDbEntity
  8
0
  6
Continuous
 62
     7
370
    15
100
AcDbCircle
 10
221.5183394273
 20
51.4937429118
 30
0.0
 40
1.230859305078753
100
AcDbArc
 50
172.152662553
 51
234.515109951
  0
SPLINE
  5
23C
330
1F
100
AcDbEntity
  8
0
  6
Continuous
 62
     7
370
    15
100
AcDbSpline
210
0.0
220
0.0
230
1.0
 70
     8
 71
     3
 72
     8
 73
     4
 74
     0
 42
0.000000001
 43
0.00000001
 40
0.0
 40
0.0
 40
0.0
 40
0.0
 40
1.0
 40
1.0
 40
1.0
 40
1.0
 10
220.2990066581026
 20
39.39787838243278
 30
0.0
 10
220.3276089536767
 20
39.36718097857466
 30
0.0
 10
220.3573053334141
 20
39.34012752672419
 30
0.0
 10
220.3882358084721
 20
39.31785622432912
 30
0.0
  0
ARC
  5
23D
330
1F
100
AcDbEntity
  8
0
  6
Continuous
 62
     7
370
    15
100
AcDbCircle
 10
224.0315082944
 20
39.2903871164
 30
0.0
 40
3.734049120875581
100
AcDbArc
 50
122.5266432908
 51
178.3504108787
  0
LINE
  5
23E
330
1F
100
AcDbEntity
  8
0
  6
Continuous
 62
     7
370
    15
100
AcDbLine
 10
222.0237409315
 20
42.4387189054
 30
0.0
 11
223.0254619295
 21
43.0170001285
 31
0.0
  0
SPLINE
  5
23F
330
1F
100
AcDbEntity
  8
0
  6
Continuous
 62
     7
370
    15
100
AcDbSpline
210
0.0
220
0.0
230
1.0
 70
     8
 71
     3
 72
    10
 73
     6
 74
     0
 42
0.000000001
 43
0.00000001
 40
0.0
 40
0.0
 40
0.0
 40
0.0
 40
0.3881760899111059
 40
0.831661290901422
 40
1.0
 40
1.0
 40
1.0
 40
1.0
 10
220.3328118279144
 20
40.46502922025974
 30
0.0
 10
220.3249992642911
 20
40.41833027103451
 30
0.0
 10
220.3082609671184
 20
40.31827849194296
 30
0.0
 10
220.2981345887692
 20
40.19575217671376
 30
0.0
 10
220.2995696899662
 20
40.12096724173658
 30
0.0
 10
220.2999645471774
 20
40.10039073400865
 30
0.0
  0
ARC
  5
240
330
1F
100
AcDbEntity
  8
0
  6
Continuous
 62
     7
370
    15
100
AcDbCircle
 10
222.8164221631
 20
39.9775971342
 30
0.0
 40
2.530989991238144
100
AcDbArc
 50
122.9343892187
 51
168.8962877716
  0
LINE
  5
241
330
1F
100
AcDbEntity
  8
0
  6
Continuous
 62
     7
370
    15
100
AcDbLine
 10
222.0237409315
 20
42.4387189054
 30
0.0
 11
221.440377837
 21
42.1018410817
 31
0.0
  0
SPLINE
  5
242
330
1F
100
AcDbEntity
  8
0
  6
Continuous
 62
     7
370
    15
100
AcDbSpline
210
0.0
220
0.0
230
1.0
 70
     8
 71
     3
 72
     9
 73
     5
 74
     0
 42
0.000000001
 43
0.00000001
 40
0.0
 40
0.0
 40
0.0
 40
0.0
 40
0.2371597586340053
 40
1.0
 40
1.0
 40
1.0
 40
1.0
 10
220.3437897547198
 20
39.25642004113223
 30
0.0
 10
220.3365348364094
 20
39.26644814918959
 30
0.0
 10
220.3059439876405
 20
39.30873233818996
 30
0.0
 10
220.3020086738356
 20
39.35930189188601
 30
0.0
 10
220.2990066581028
 20
39.39787838243328
 30
0.0
  0
LWPOLYLINE
  5
243
330
1F
100
AcDbEntity
  8
0
  6
Continuous
 62
     7
370
     0
100
AcDbPolyline
 90
       27
 70
   128
 43
0.0
 10
242.1128759697
 20
31.1003378219
 10
242.4693664374
 20
32.8193091717
 10
242.9274004403
 20
34.560006817
 10
243.4841635086
 20
36.3117347365
 10
244.1362345139
 20
38.0637291314
 10
244.879606692
 20
39.8052245654
 10
245.7097122624
 20
41.5255201152
 10
246.621450496
 20
43.2140451237
 10
247.6092190579
 20
44.8604241533
 10
248.6669484311
 20
46.4545407401
 10
249.7881392124
 20
47.9865995557
 10
250.9659020489
 20
49.4471865965
 10
252.1929999706
 20
50.8273270299
 10
253.4618928597
 20
52.1185403414
 10
254.7647837817
 20
53.3128924449
 10
256.0936668953
 20
54.4030444348
 10
257.4403766457
 20
55.3822976815
 10
258.796637939
 20
56.244634992
 10
260.1541169905
 20
56.9847575837
 10
261.5044725326
 20
57.5981176439
 10
262.8394070691
 20
58.0809462743
 10
264.1507178614
 20
58.43027665
 10
265.4303473307
 20
58.6439622492
 10
266.6704325697
 20
58.7206900435
 10
267.8633536578
 20
58.6599885654
 10
269.0017804825
 20
58.4622308058
 10
270.0787177809
 20
58.1286319219
  0
LWPOLYLINE
  5
244
330
1F
100
AcDbEntity
  8
0
  6
Continuous
 62
     7
370
     0
100
AcDbPolyline
 90
       27
 70
   128
 43
0.0
 10
241.3967012343
 20
31.0951030033
 10
241.7519084858
 20
32.8371831984
 10
242.2096847204
 20
34.6018672054
 10
242.7672498653
 20
36.378438107
 10
243.42121783
 20
38.1561067969
 10
244.1676170705
 20
39.9240775017
 10
245.0019147076
 20
41.6716133441
 10
245.9190440559
 20
43.3881015473
 10
246.9134353934
 20
45.063117887
 10
247.9790497864
 20
46.6864899971
 10
249.1094157638
 20
48.2483591467
 10
250.2976686187
 20
49.7392401121
 10
251.5365920971
 20
51.1500787805
 10
252.818662223
 20
52.4723071355
 10
254.1360929906
 20
53.6978952909
 10
255.4808836495
 20
54.8194002557
 10
256.8448672925
 20
55.8300111358
 10
258.2197604535
 20
56.7235904963
 10
259.5972134132
 20
57.4947116341
 10
260.9688609065
 20
58.1386915342
 10
262.3263729249
 20
58.6516193099
 10
263.6615053045
 20
59.0303799534
 10
264.9661497928
 20
59.272673253
 10
266.2323832904
 20
59.3770277628
 10
267.4525159674
 20
59.3428097383
 10
268.6191379639
 20
59.1702269855
 10
269.7251643903
 20
58.8603275984
  0
LINE
  5
245
330
1F
100
AcDbEntity
  8
0
  6
Continuous
 62
     7
370
     0
100
AcDbLine
 10
275.954329592
 20
42.0629146323
 30
0.0
 11
275.7808209529
 21
41.0981147089
 31
0.0
  0
LWPOLYLINE
  5
246
330
1F
100
AcDbEntity
  8
0
  6
Continuous
 62
     7
370
     0
100
AcDbPolyline
 90
       22
 70
   128
 43
0.0
 10
263.2818367949
 20
19.4468931494
 10
263.2730434737
 20
19.4392262918
 10
261.922987702
 20
18.3280798756
 10
260.5543438711
 20
17.3313692656
 10
259.1758001527
 20
16.455421596
 10
257.7961075631
 20
15.7057973957
 10
256.4240244117
 20
15.0872552905
 10
255.068260703
 20
14.603721795
 10
253.7374228457
 20
14.2582663872
 10
252.4399590185
 20
14.0530820231
 10
251.1841055414
 20
13.9894712163
 10
249.9778345912
 20
14.0678377691
 10
248.8288035941
 20
14.2876842095
 10
247.7443066163
 20
14.6476149489
 10
246.7312280609
 20
15.1453451415
 10
245.795998966
 20
15.7777151886
 10
244.9445561799
 20
16.5407107955
 10
244.1823046744
 20
17.4294884547
 10
243.5140832334
 20
18.438406192
 10
242.9441337368
 20
19.5610593826
 10
242.4760742327
 20
20.7903214069
 10
242.1128759697
 20
22.1183888911
  0
ARC
  5
247
330
1F
100
AcDbEntity
  8
0
  6
Continuous
 62
     7
370
     0
100
AcDbCircle
 10
264.9681346607
 20
48.4828264324
 30
0.0
 40
11.12399372828675
100
AcDbArc
 50
9.0277456972
 51
48.705552358
  0
LWPOLYLINE
  5
248
330
1F
100
AcDbEntity
  8
0
  6
Continuous
 62
     7
370
     0
100
AcDbPolyline
 90
       30
 70
   128
 43
0.0
 10
248.7417706586
 20
30.4361428051
 10
248.7961130901
 20
31.68489836
 10
248.9585643412
 20
32.9831592312
 10
249.2274023882
 20
34.3171635306
 10
249.5997774811
 20
35.6727704806
 10
250.0717423511
 20
37.0356103104
 10
250.6382940532
 20
38.3912365788
 10
251.2934269985
 20
39.72527931
 10
252.0301966147
 20
41.0235973193
 10
252.8407929607
 20
42.2724281127
 10
253.7166235134
 20
43.4585337732
 10
254.6484042513
 20
44.5693412857
 10
255.6262580666
 20
45.5930758142
 10
256.6398194656
 20
46.5188855181
 10
257.6783444454
 20
47.3369565842
 10
258.7308243828
 20
48.0386172556
 10
259.7861027287
 20
48.6164297548
 10
260.8329932701
 20
49.0642691254
 10
261.8603987067
 20
49.3773881587
 10
262.8574282855
 20
49.5524677151
 10
263.8135132447
 20
49.5876519078
 10
264.7185188461
 20
49.4825677755
 10
265.5628518051
 20
49.2383292361
 10
266.3375619822
 20
48.857525279
 10
267.034437257
 20
48.3441925209
 10
267.646090578
 20
47.7037724166
 10
268.166038268
 20
46.9430535786
 10
268.588768752
 20
46.0700998158
 10
268.9098009819
 20
45.0941646553
 10
268.9188442501
 20
45.0594495401
  0
LWPOLYLINE
  5
249
330
1F
100
AcDbEntity
  8
0
  6
Continuous
 62
     7
370
     0
100
AcDbPolyline
 90
       14
 70
   128
 43
0.0
 10
256.4198600921
 20
23.4082279806
 10
255.6262580666
 20
23.2278697652
 10
254.6484042513
 20
23.1225983102
 10
253.7166235134
 20
23.1575946821
 10
252.8407929607
 20
23.3324879106
 10
252.0301966147
 20
23.6454240841
 10
251.2934269985
 20
24.0930860012
 10
250.6382940532
 20
24.6707283342
 10
250.0717423511
 20
25.3722279307
 10
249.5997774811
 20
26.1901487206
 10
249.2274023882
 20
27.1158205398
 10
248.9585643412
 20
28.139431037
 10
248.7961130901
 20
29.2501296861
 10
248.7417706586
 20
30.4361428051
  0
LWPOLYLINE
  5
24A
330
1F
100
AcDbEntity
  8
0
  6
Continuous
 62
     7
370
     0
100
AcDbPolyline
 90
        9
 70
   128
 43
0.0
 10
251.5701977834
 20
30.4361428051
 10
251.6238435237
 20
29.3442843057
 10
251.784129558
 20
28.3276175429
 10
252.0491102311
 20
27.3984834738
 10
252.4155690364
 20
26.5681605275
 10
252.8790576605
 20
25.8467276997
 10
253.4339499794
 20
25.2429422076
 10
254.073510352
 20
24.7641331893
 10
254.1595404692
 20
24.7130827242
  0
LWPOLYLINE
  5
24B
330
1F
100
AcDbEntity
  8
0
  6
Continuous
 62
     7
370
     0
100
AcDbPolyline
 90
       23
 70
   128
 43
0.0
 10
266.6585246272
 20
46.3643042838
 10
266.3954124491
 20
46.5039145525
 10
265.6437020884
 20
46.784855076
 10
264.8284499306
 20
46.9292824324
 10
263.9595520325
 20
46.9354434694
 10
263.0475556375
 20
46.8032634003
 10
262.1035311464
 20
46.534346712
 10
261.1389377378
 20
46.1319576889
 10
260.165484269
 20
45.6009807885
 10
259.1949871463
 20
44.9478613513
 10
258.2392268902
 20
44.1805273624
 10
257.3098051355
 20
43.308293217
 10
256.4180038033
 20
42.3417466561
 10
255.5746481536
 20
41.2926202456
 10
254.7899753817
 20
40.1736489589
 10
254.073510352
 20
38.9984155916
 10
253.4339499794
 20
37.7811858849
 10
252.8790576605
 20
36.5367353584
 10
252.4155690364
 20
35.2801699558
 10
252.0491102311
 20
34.0267426789
 10
251.784129558
 20
32.7916684368
 10
251.6238435237
 20
31.5899393579
 10
251.5701977834
 20
30.4361428051
  0
LWPOLYLINE
  5
24C
330
1F
100
AcDbEntity
  8
0
  6
Continuous
 62
     7
370
     0
100
AcDbPolyline
 90
       16
 70
   128
 43
0.0
 10
269.5948413829
 20
22.0652000412
 10
269.9960183237
 20
21.5590248105
 10
270.4848980495
 20
21.177764082
 10
271.051318596
 20
20.9293428274
 10
271.6835062177
 20
20.8189247871
 10
272.3683201199
 20
20.8488051352
 10
273.0915256062
 20
21.0183627722
 10
273.8380899639
 20
21.3240732348
 10
274.5924949378
 20
21.7595819561
 10
275.3390592955
 20
22.3158363536
 10
276.0622647818
 20
22.9812739977
 10
276.747078684
 20
23.7420629511
 10
277.3792663057
 20
24.582389283
 10
277.9456868522
 20
25.4847857803
 10
278.4345665781
 20
26.4304950256
 10
278.8357435188
 20
27.3998592929
  0
LWPOLYLINE
  5
24D
330
1F
100
AcDbEntity
  8
0
  6
Continuous
 62
     7
370
     0
100
AcDbPolyline
 90
       16
 70
   128
 43
0.0
 10
278.8356966124
 20
33.0718934085
 10
278.4345153856
 20
33.5780448545
 10
277.9456355418
 20
33.959285158
 10
277.3792186879
 20
34.2076900525
 10
276.7470380762
 20
34.3180963206
 10
276.0622338905
 20
34.2882091137
 10
275.3390401215
 20
34.1186496522
 10
274.5924887062
 20
33.8129423126
 10
273.8380970819
 20
33.3774413717
 10
273.0915456482
 20
32.8211989302
 10
272.3683518427
 20
32.1557767599
 10
271.6835476032
 20
31.3950059868
 10
271.0513669216
 20
30.5546996044
 10
270.4849499832
 20
29.6523237929
 10
269.9960700417
 20
28.7066348758
 10
269.5948887065
 20
27.7372894608
  0
LWPOLYLINE
  5
24E
330
1F
100
AcDbEntity
  8
0
  6
Continuous
 62
     7
370
     0
100
AcDbPolyline
 90
       25
 70
   128
 43
0.0
 10
231.2585554938
 20
31.9567029134
 10
231.3117132861
 20
33.5692833559
 10
231.4708669657
 20
35.2335402305
 10
231.7350593638
 20
36.9394645005
 10
232.1027015961
 20
38.6767965367
 10
232.571582619
 20
40.4350878196
 10
233.1388825269
 20
42.2037637787
 10
233.8011895113
 20
43.9721873886
 10
234.5545203802
 20
45.7297231416
 10
235.394344513
 20
47.465801011
 10
236.3156111085
 20
49.1699800202
 10
237.3127795612
 20
50.832011036
 10
238.3798527825
 20
52.4418984084
 10
239.5104132686
 20
53.9899600853
 10
240.6976616957
 20
55.4668858416
 10
241.934457812
 20
56.8637932721
 10
243.2133633802
 20
58.172281211
 10
244.5266869117
 20
59.3844802581
 10
245.8665299242
 20
60.4931001054
 10
247.2248344443
 20
61.491473383
 10
248.5934314686
 20
62.3735957563
 10
249.9640900938
 20
63.1341620376
 10
251.3285670174
 20
63.7685980919
 10
252.6786561149
 20
64.2730883461
 10
252.9703453288
 20
64.3655265913
  0
ARC
  5
24F
330
1F
100
AcDbEntity
  8
0
  6
Continuous
 62
     7
370
     0
100
AcDbCircle
 10
250.12300495
 20
31.754822483
 30
0.0
 40
18.86552965052862
100
AcDbArc
 50
179.3868649537
 51
194.5791953419
  0
LWPOLYLINE
  5
250
330
1F
100
AcDbEntity
  8
0
  6
Continuous
 62
     7
370
     0
100
AcDbPolyline
 90
       22
 70
   128
 43
0.0
 10
239.0815681583
 20
33.783497118
 10
239.4578521184
 20
35.5189470411
 10
239.9414776986
 20
37.2752719194
 10
240.5291377761
 20
39.0404616727
 10
241.2168138206
 20
40.802445601
 10
241.9998033739
 20
42.5491749265
 10
242.8727522059
 20
44.2687051851
 10
243.8296909282
 20
45.949277905
 10
244.8640758135
 20
47.5794010137
 10
245.9688335433
 20
49.1479274223
 10
247.1364095762
 20
50.6441312519
 10
248.3588198074
 20
52.057781179
 10
249.6277051655
 20
53.3792103991
 10
250.9343887736
 20
54.5993827305
 10
252.2699352831
 20
55.7099544049
 10
253.6252119754
 20
56.7033311241
 10
254.9909512134
 20
57.5727199912
 10
256.3578138149
 20
58.3121759612
 10
257.7164529161
 20
58.9166424951
 10
259.0575778871
 20
59.3819861368
 10
260.3720178626
 20
59.7050247789
 10
261.5603762019
 20
59.8755814829
  0
LWPOLYLINE
  5
251
330
1F
100
AcDbEntity
  8
0
  6
Continuous
 62
     7
370
     0
100
AcDbPolyline
 90
       19
 70
   128
 43
0.0
 10
239.6555632633
 20
33.7882941942
 10
240.033260113
 20
35.5050470216
 10
240.5174840404
 20
37.2418768423
 10
241.1048865489
 20
38.9867731618
 10
241.7914056431
 20
40.7276697044
 10
242.5722939186
 20
42.4525278536
 10
243.4421513908
 20
44.1494199014
 10
244.3949628368
 20
45.8066115303
 10
245.4241393922
 20
47.4126429585
 10
246.5225641136
 20
48.9564081863
 10
247.6826411943
 20
50.4272317962
 10
248.8963484899
 20
51.8149427752
 10
250.1552929935
 20
53.1099448491
 10
251.4507688749
 20
54.3032828429
 10
252.7738176823
 20
55.3867046072
 10
254.1152902925
 20
56.3527180832
 10
255.4659101782
 20
57.194643112
 10
256.8163375569
 20
57.9066576285
 10
257.4865131659
 20
58.2114929631
  0
LINE
  5
252
330
1F
100
AcDbEntity
  8
0
  6
Continuous
 62
     7
370
     0
100
AcDbLine
 10
267.745265403
 20
22.5525395474
 30
0.0
 11
267.8336537507
 21
22.2226767549
 31
0.0
  0
LWPOLYLINE
  5
253
330
1F
100
AcDbEntity
  8
0
  6
Continuous
 62
     7
370
     0
100
AcDbPolyline
 90
        3
 70
   128
 43
0.0
 10
278.2448705016
 20
33.026927728
 10
277.8300053153
 20
33.5050710262
 10
277.4135253899
 20
33.8047795635
  0
LWPOLYLINE
  5
254
330
1F
100
AcDbEntity
  8
0
  6
Continuous
 62
     7
370
     0
100
AcDbPolyline
 90
       14
 70
   128
 43
0.0
 10
270.4327341742
 20
21.669448898
 10
270.5385801084
 20
21.6119338866
 10
271.1196083988
 20
21.4048213577
 10
271.7647380732
 20
21.3418931101
 10
272.4592673765
 20
21.4245832055
 10
273.1873687932
 20
21.6510072328
 10
273.9324497384
 20
22.0160052515
 10
274.6775306836
 20
22.5112593812
 10
275.4056321003
 20
23.1254833559
 10
276.1001614036
 20
23.8446797254
 10
276.745291078
 20
24.6524588405
 10
277.3263193683
 20
25.5304123542
 10
277.8300053153
 20
26.4585327266
 10
278.2448705016
 20
27.4156691733
  0
LINE
  5
255
330
1F
100
AcDbEntity
  8
0
  6
Continuous
 62
     7
370
     0
100
AcDbLine
 10
267.208274217
 20
22.8625379606
 30
0.0
 11
267.745265403
 21
22.5525395474
 31
0.0
  0
LINE
  5
256
330
1F
100
AcDbEntity
  8
0
  6
Continuous
 62
     7
370
     0
100
AcDbLine
 10
232.8354039695
 20
31.4587605193
 30
0.0
 11
234.9885437645
 21
32.7017416654
 31
0.0
  0
LWPOLYLINE
  5
257
330
1F
100
AcDbEntity
  8
0
  6
Continuous
 62
     7
370
     0
100
AcDbPolyline
 90
       21
 70
   128
 43
0.0
 10
220.3882358085
 20
51.6408002002
 10
220.942076367
 20
53.1742962524
 10
221.5925490086
 20
54.6978720765
 10
222.3338587867
 20
56.197954403
 10
223.1594015027
 20
57.6611792616
 10
224.0618225414
 20
59.0745110392
 10
225.0330823922
 20
60.425358611
 10
226.0645282716
 20
61.7016875131
 10
227.1469712094
 20
62.8921271555
 10
228.2707679116
 20
63.9860721203
 10
229.4259066705
 20
64.973776644
 10
230.6020965577
 20
65.8464414403
 10
231.7888591042
 20
66.5962920919
 10
232.9756216506
 20
67.2166483108
 10
234.1518115379
 20
67.7019834525
 10
235.3069502968
 20
68.0479737513
 10
236.4307469989
 20
68.2515368405
 10
237.5131899367
 20
68.3108592122
 10
238.5446358162
 20
68.2254123738
 10
239.515895667
 20
67.9959575563
 10
240.203594004
 20
67.7287121817
  0
ARC
  5
258
330
1F
100
AcDbEntity
  8
0
  6
Continuous
 62
     7
370
     0
100
AcDbCircle
 10
226.2721799674
 20
42.3033169752
 30
0.0
 40
6.598012940307733
100
AcDbArc
 50
206.9028305451
 51
235.9634528152
  0
LINE
  5
259
330
1F
100
AcDbEntity
  8
0
  6
Continuous
 62
     7
370
     0
100
AcDbLine
 10
280.5969311511
 20
29.5907599641
 30
0.0
 11
280.3317661081
 21
29.8185717426
 31
0.0
  0
ARC
  5
25A
330
1F
100
AcDbEntity
  8
0
  6
Continuous
 62
     7
370
     0
100
AcDbCircle
 10
253.4051772228
 20
24.4845679232
 30
0.0
 40
12.24038803385777
100
AcDbArc
 50
191.1709415655
 51
217.7753812979
  0
LINE
  5
25B
330
1F
100
AcDbEntity
  8
0
  6
Continuous
 62
     7
370
     0
100
AcDbLine
 10
236.8005071565
 20
24.766480436
 30
0.0
 11
238.5240776705
 21
25.7614765146
 31
0.0
  0
LINE
  5
25C
330
1F
100
AcDbEntity
  8
0
  6
Continuous
 62
     7
370
     0
100
AcDbLine
 10
232.8354039695
 20
30.6422197075
 30
0.0
 11
234.9885437645
 21
31.8852008536
 31
0.0
  0
LINE
  5
25D
330
1F
100
AcDbEntity
  8
0
  6
Continuous
 62
     7
370
     0
100
AcDbLine
 10
275.7002166914
 20
32.4923083089
 30
0.0
 11
280.3317661081
 21
29.8185717426
 31
0.0
  0
LINE
  5
25E
330
1F
100
AcDbEntity
  8
0
  6
Continuous
 62
     7
370
     0
100
AcDbLine
 10
240.5068309618
 20
24.0911910865
 30
0.0
 11
240.4404517904
 21
24.3532387614
 31
0.0
  0
LINE
  5
25F
330
1F
100
AcDbEntity
  8
0
  6
Continuous
 62
     7
370
     0
100
AcDbLine
 10
239.9993526643
 20
23.6236669516
 30
0.0
 11
239.6555632633
 21
24.8063452634
 31
0.0
  0
LWPOLYLINE
  5
260
330
1F
100
AcDbEntity
  8
0
  6
Continuous
 62
     7
370
     0
100
AcDbPolyline
 90
        3
 70
   128
 43
0.0
 10
239.9095766568
 20
22.371232972
 10
239.4514130213
 20
23.5193054812
 10
239.0815681583
 20
24.8015481873
  0
LINE
  5
261
330
1F
100
AcDbEntity
  8
0
  6
Continuous
 62
     7
370
     0
100
AcDbLine
 10
267.7130671575
 20
60.0213822824
 30
0.0
 11
267.6126971379
 21
59.9634399034
 31
0.0
  0
ARC
  5
262
330
1F
100
AcDbEntity
  8
0
  6
Continuous
 62
     7
370
     0
100
AcDbCircle
 10
226.3427792349
 20
49.3259050236
 30
0.0
 40
1.972900930438451
100
AcDbArc
 50
160.2447912923
 51
206.8893927025
  0
ARC
  5
263
330
1F
100
AcDbEntity
  8
0
  6
Continuous
 62
     7
370
     0
100
AcDbCircle
 10
224.1008009859
 20
49.2652949374
 30
0.0
 40
0.8231425509792859
100
AcDbArc
 50
40.3517278188
 51
62.0985124778
  0
LINE
  5
264
330
1F
100
AcDbEntity
  8
0
  6
Continuous
 62
     7
370
     0
100
AcDbLine
 10
224.4859928133
 20
49.9927500325
 30
0.0
 11
224.6337953079
 21
50.5470054302
 31
0.0
  0
LINE
  5
265
330
1F
100
AcDbEntity
  8
0
  6
Continuous
 62
     7
370
     0
100
AcDbLine
 10
224.4859928133
 20
49.9927500325
 30
0.0
 11
223.2327731857
 21
50.716218324
 31
0.0
  0
LINE
  5
266
330
1F
100
AcDbEntity
  8
0
  6
Continuous
 62
     7
370
     0
100
AcDbLine
 10
220.3880919808
 20
52.5227051642
 30
0.0
 11
220.3734707583
 21
52.6984313544
 31
0.0
  0
ARC
  5
267
330
1F
100
AcDbEntity
  8
0
  6
Continuous
 62
     7
370
     0
100
AcDbCircle
 10
224.2043422305
 20
35.9638538965
 30
0.0
 40
0.5806344198069632
100
AcDbArc
 50
25.5708468831
 51
60.9826879702
  0
ARC
  5
268
330
1F
100
AcDbEntity
  8
0
  6
Continuous
 62
     7
370
     0
100
AcDbCircle
 10
226.4417138503
 20
37.117621335
 30
0.0
 40
2.059656355467479
100
AcDbArc
 50
172.8744043427
 51
198.2795396693
  0
LINE
  5
269
330
1F
100
AcDbEntity
  8
0
  6
Continuous
 62
     7
370
     0
100
AcDbLine
 10
223.6408083447
 20
41.5052057581
 30
0.0
 11
222.0237409315
 21
42.4387189054
 31
0.0
  0
LINE
  5
26A
330
1F
100
AcDbEntity
  8
0
  6
Continuous
 62
     7
370
     0
100
AcDbLine
 10
224.4859928133
 20
36.4716031246
 30
0.0
 11
223.2327731857
 21
37.1950714162
 31
0.0
  0
LINE
  5
26B
330
1F
100
AcDbEntity
  8
0
  6
Continuous
 62
     7
370
     0
100
AcDbLine
 10
224.4859928133
 20
36.4716031246
 30
0.0
 11
224.6337953079
 21
36.0879968548
 31
0.0
  0
OLE2FRAME
  5
26C
330
1F
100
AcDbEntity
  8
0
100
AcDbOle2Frame
 70
     2
  3
Paintbrush-Bild
 10
13.8511154363
 20
38.264191557
 30
0.0
 11
51.6290888628
 21
31.9806341108
 31
0.0
 71
     2
 72
     0
 73
     1
 90
    12928
310
80552BED0767C5B32B40DDAF6807D121434000000000000000006FFBDDFB85D0
310
4940DDAF6807D121434000000000000000006FFBDDFB85D04940416F4BD60AFB
310
3F4000000000000000002BED0767C5B32B40416F4BD60AFB3F40000000000000
310
0000000000000100000000010000010000000100000000000100000000320000
310
D0CF11E0A1B11AE1000000000000000000000000000000003E000300FEFF0900
310
0600000000000000000000000100000001000000000000000010000002000000
310
01000000FEFFFFFF0000000000000000FFFFFFFFFFFFFFFFFFFFFFFFFFFFFFFF
310
FFFFFFFFFFFFFFFFFFFFFFFFFFFFFFFFFFFFFFFFFFFFFFFFFFFFFFFFFFFFFFFF
310
FFFFFFFFFFFFFFFFFFFFFFFFFFFFFFFFFFFFFFFFFFFFFFFFFFFFFFFFFFFFFFFF
310
FFFFFFFFFFFFFFFFFFFFFFFFFFFFFFFFFFFFFFFFFFFFFFFFFFFFFFFFFFFFFFFF
310
FFFFFFFFFFFFFFFFFFFFFFFFFFFFFFFFFFFFFFFFFFFFFFFFFFFFFFFFFFFFFFFF
310
FFFFFFFFFFFFFFFFFFFFFFFFFFFFFFFFFFFFFFFFFFFFFFFFFFFFFFFFFFFFFFFF
310
FFFFFFFFFFFFFFFFFFFFFFFFFFFFFFFFFFFFFFFFFFFFFFFFFFFFFFFFFFFFFFFF
310
FFFFFFFFFFFFFFFFFFFFFFFFFFFFFFFFFFFFFFFFFFFFFFFFFFFFFFFFFFFFFFFF
310
FFFFFFFFFFFFFFFFFFFFFFFFFFFFFFFFFFFFFFFFFFFFFFFFFFFFFFFFFFFFFFFF
310
FFFFFFFFFFFFFFFFFFFFFFFFFFFFFFFFFFFFFFFFFFFFFFFFFFFFFFFFFFFFFFFF
310
FFFFFFFFFFFFFFFFFFFFFFFFFFFFFFFFFFFFFFFFFFFFFFFFFFFFFFFFFFFFFFFF
310
FFFFFFFFFFFFFFFFFFFFFFFFFFFFFFFFFFFFFFFFFFFFFFFFFFFFFFFFFFFFFFFF
310
FFFFFFFFFFFFFFFFFFFFFFFFFFFFFFFFFFFFFFFFFFFFFFFFFFFFFFFFFFFFFFFF
310
FFFFFFFFFFFFFFFFFFFFFFFFFFFFFFFFFFFFFFFFFFFFFFFFFFFFFFFFFFFFFFFF
310
FDFFFFFFFEFFFFFFFEFFFFFFFEFFFFFF05000000060000000700000008000000
310
090000000A0000000B0000000C0000000D0000000E0000000F00000010000000
310
11000000120000001300000014000000150000001600000017000000FEFFFFFF
310
FFFFFFFFFFFFFFFFFFFFFFFFFFFFFFFFFFFFFFFFFFFFFFFFFFFFFFFFFFFFFFFF
310
FFFFFFFFFFFFFFFFFFFFFFFFFFFFFFFFFFFFFFFFFFFFFFFFFFFFFFFFFFFFFFFF
310
FFFFFFFFFFFFFFFFFFFFFFFFFFFFFFFFFFFFFFFFFFFFFFFFFFFFFFFFFFFFFFFF
310
FFFFFFFFFFFFFFFFFFFFFFFFFFFFFFFFFFFFFFFFFFFFFFFFFFFFFFFFFFFFFFFF
310
FFFFFFFFFFFFFFFFFFFFFFFFFFFFFFFFFFFFFFFFFFFFFFFFFFFFFFFFFFFFFFFF
310
FFFFFFFFFFFFFFFFFFFFFFFFFFFFFFFFFFFFFFFFFFFFFFFFFFFFFFFFFFFFFFFF
310
FFFFFFFFFFFFFFFFFFFFFFFFFFFFFFFFFFFFFFFFFFFFFFFFFFFFFFFFFFFFFFFF
310
FFFFFFFFFFFFFFFFFFFFFFFFFFFFFFFFFFFFFFFFFFFFFFFFFFFFFFFFFFFFFFFF
310
FFFFFFFFFFFFFFFFFFFFFFFFFFFFFFFFFFFFFFFFFFFFFFFFFFFFFFFFFFFFFFFF
310
FFFFFFFFFFFFFFFFFFFFFFFFFFFFFFFFFFFFFFFFFFFFFFFFFFFFFFFFFFFFFFFF
310
FFFFFFFFFFFFFFFFFFFFFFFFFFFFFFFFFFFFFFFFFFFFFFFFFFFFFFFFFFFFFFFF
310
FFFFFFFFFFFFFFFFFFFFFFFFFFFFFFFFFFFFFFFFFFFFFFFFFFFFFFFFFFFFFFFF
310
FFFFFFFFFFFFFFFFFFFFFFFFFFFFFFFFFFFFFFFFFFFFFFFFFFFFFFFFFFFFFFFF
310
52006F006F007400200045006E00740072007900000000000000000000000000
310
0000000000000000000000000000000000000000000000000000000000000000
310
16000500FFFFFFFFFFFFFFFF020000000A00030000000000C000000000000046
310
000000000000000000000000905A495E6F20D20103000000C000000000000000
310
01004F006C006500000000000000000000000000000000000000000000000000
310
0000000000000000000000000000000000000000000000000000000000000000
310
0A000200FFFFFFFFFFFFFFFFFFFFFFFF00000000000000000000000000000000
310
0000000000000000000000000000000000000000000000001400000000000000
310
010043006F006D0070004F0062006A0000000000000000000000000000000000
310
0000000000000000000000000000000000000000000000000000000000000000
310
120002010100000003000000FFFFFFFF00000000000000000000000000000000
310
0000000000000000000000000000000000000000010000004D00000000000000
310
01004F006C006500310030004E00610074006900760065000000000000000000
310
0000000000000000000000000000000000000000000000000000000000000000
310
1A000200FFFFFFFFFFFFFFFFFFFFFFFF00000000000000000000000000000000
310
0000000000000000000000000000000000000000040000002426000000000000
310
FEFFFFFF02000000FEFFFFFFFFFFFFFFFFFFFFFFFFFFFFFFFFFFFFFFFFFFFFFF
310
FFFFFFFFFFFFFFFFFFFFFFFFFFFFFFFFFFFFFFFFFFFFFFFFFFFFFFFFFFFFFFFF
310
FFFFFFFFFFFFFFFFFFFFFFFFFFFFFFFFFFFFFFFFFFFFFFFFFFFFFFFFFFFFFFFF
310
FFFFFFFFFFFFFFFFFFFFFFFFFFFFFFFFFFFFFFFFFFFFFFFFFFFFFFFFFFFFFFFF
310
FFFFFFFFFFFFFFFFFFFFFFFFFFFFFFFFFFFFFFFFFFFFFFFFFFFFFFFFFFFFFFFF
310
FFFFFFFFFFFFFFFFFFFFFFFFFFFFFFFFFFFFFFFFFFFFFFFFFFFFFFFFFFFFFFFF
310
FFFFFFFFFFFFFFFFFFFFFFFFFFFFFFFFFFFFFFFFFFFFFFFFFFFFFFFFFFFFFFFF
310
FFFFFFFFFFFFFFFFFFFFFFFFFFFFFFFFFFFFFFFFFFFFFFFFFFFFFFFFFFFFFFFF
310
FFFFFFFFFFFFFFFFFFFFFFFFFFFFFFFFFFFFFFFFFFFFFFFFFFFFFFFFFFFFFFFF
310
FFFFFFFFFFFFFFFFFFFFFFFFFFFFFFFFFFFFFFFFFFFFFFFFFFFFFFFFFFFFFFFF
310
FFFFFFFFFFFFFFFFFFFFFFFFFFFFFFFFFFFFFFFFFFFFFFFFFFFFFFFFFFFFFFFF
310
FFFFFFFFFFFFFFFFFFFFFFFFFFFFFFFFFFFFFFFFFFFFFFFFFFFFFFFFFFFFFFFF
310
FFFFFFFFFFFFFFFFFFFFFFFFFFFFFFFFFFFFFFFFFFFFFFFFFFFFFFFFFFFFFFFF
310
FFFFFFFFFFFFFFFFFFFFFFFFFFFFFFFFFFFFFFFFFFFFFFFFFFFFFFFFFFFFFFFF
310
FFFFFFFFFFFFFFFFFFFFFFFFFFFFFFFFFFFFFFFFFFFFFFFFFFFFFFFFFFFFFFFF
310
FFFFFFFFFFFFFFFFFFFFFFFFFFFFFFFFFFFFFFFFFFFFFFFFFFFFFFFFFFFFFFFF
310
0100000200000000000000000000000000000000000000000000000000000000
310
0000000000000000000000000000000000000000000000000000000000000000
310
0100FEFF030A0000FFFFFFFF0A00030000000000C00000000000004607000000
310
5042727573680007000000504272757368000700000050427275736800F439B2
310
7100000000000000000000000000000000000000000000000000000000000000
310
0000000000000000000000000000000000000000000000000000000000000000
310
0000000000000000000000000000000000000000000000000000000000000000
310
0000000000000000000000000000000000000000000000000000000000000000
310
0000000000000000000000000000000000000000000000000000000000000000
310
0000000000000000000000000000000000000000000000000000000000000000
310
0000000000000000000000000000000000000000000000000000000000000000
310
0000000000000000000000000000000000000000000000000000000000000000
310
0000000000000000000000000000000000000000000000000000000000000000
310
0000000000000000000000000000000000000000000000000000000000000000
310
0000000000000000000000000000000000000000000000000000000000000000
310
0000000000000000000000000000000000000000000000000000000000000000
310
20260000424D0E260000000000003E00000028000000B40200006E0000000100
310
01000000000000000000130B0000130B00000200000002000000000000FFFFFF
310
FFFFFFFFFFFFFFFFFFFFFFFFFFFFFFFFFFFFFFFFFFFFFFFFFFFFFFFFFFFFFFFF
310
FFFFFFFFFFFFFFFFFFFFFFFFFFFFFFFFFFFFFFFFFFFFFFFFFFFFFFFFFFFFFFFF
310
FFFFFFFFFFFFFFFFFFFFFFFFFFFFFFFFFFFFFFFFFFFFFFFFF000FFFFFFFFFFFF
310
FFFFFFFFFFFFFFFFFFFFFFFFFFFFFFFFFFFFFFFFFFFFFFFFFFFFFFFFFFFFFFFF
310
FFFFFFFFFFFFFFFFFFFFFFFFFFFFFFFFFFFFFFFFFFFFFFFFFFFFFFFFFFFFFFFF
310
FFFFFFFFFFFFFFFFFFFFFFFFFFFFFFFFF000FFFFFFFFFFFFFFFFFFFFFFFFFFFF
310
FFFFFFFFFFFFFFFFFFFFFFFFFFFFFFFFFFFFFFFFFFFFFFFFFFFFFFFFFFFFFFFF
310
FFFFFFFFFFFFFFFFFFFFFFFFFFFFFFFFFFFFFFFFFFFFFFFFFFFFFFFFFFFFFFFF
310
FFFFFFFFFFFFFFFFF000FFFFFFFFFFFFFFFFFFFFFFFFFFFFFFFFFFFFFFFFFFFF
310
FFFFFFFFFFFFFFFFFFFFFFFFFFFFFFFFFFFFFFFFFFFFFFFFFFFFFFFFFFFFFFFF
310
FFFFFFFFFFFFFFFFFFFFFFFFFFFFFFFFFFFFFFFFFFFFFFFFFFFFFFFFFFFFFFFF
310
F000FFFFFFFFFFFFFFFFFFFFFFFFFFFFFFFFFFFFFFFFFFFFFFFFFFFFFFFFFFFF
310
FFFFFFFFFFFFFFFFFFFFFFFFFFFFFFFFFFFFFFFFFFFFFFFFFFFFFFFFFFFFFFFF
310
FFFFFFFFFFFFFFFFFFFFFFFFFFFFFFFFFFFFFFFFFFFFFFFFF000FFFFFFFFFFFF
310
FFFFFFFFFFFFFFFFFFFFFFFFFFFFFFFFFFFFFFFFFFFFFFFFFFFFFFFFFFFFFFFF
310
FFFFFFFFFFFFFFFFFFFFFFFFFFFFFFFFFFFFFFFFFFFFFFFFFFFFFFFFFFFFFFFF
310
FFFFFFFFFFFFFFFFFFFFFFFFFFFFFFFFF000FFFFFFFFFFFFFFFFFFFFFFFFFFFF
310
FFFFFFFFFFFFFFFFFFFFFFFFFFFFFFFFFFFFFFFFFFFFFFFFFFFFFFFFFFFFFFFF
310
FFFFFFFFFFFFFFFFFFFFFFFFFFFFFFFFFFFFFFFFFFFFFFFFFFFFFFFFFFFFFFFF
310
FFFFFFFFFFFFFFFFF000FFFFFFFFFFFFFFFFFFFFFFFFFFFFFFFFFFFFFFFFFFFF
310
FFFFFFFFFFFFFFFFFFFFFFFFFFFFFFFFFFFFFFFFFFFFFFFFFFFFFFFFFFFFFFFF
310
FFFFFFFFFFFFFFFFFFFFFFFFFFFFFFFFFFFFFFFFFFFFFFFFFFFFFFFFFFFFFFFF
310
F000FFFFFFFFFFFFFFFFFFFFFFFFFFFFFFFFFFFFFFFFFFFFFFFFFFFFFFFFFFFF
310
FFFFFFFFFFFFFFFFFFFFFFFFFFFFFFFFFFFFFFFFFFFFFFFFFFFFFFFFFFFFFFFF
310
FFFFFFFFFFFFFFFFFFFFFFFFFFFFFFFFFFFFFFFFFFFFFFFFF000FFFFFFFFFFFF
310
FFFFFFFFFFFFFFFFFFFFFFFFFFFFFFFFFFFFFFFFFFFFFFFFFFFFFFFFFFFFFFFF
310
FFFFFFFFFFFFFFFFFFFFFFFFFFFFFFFFFFFFFFFFFFFFFFFFFFFFFFFFFFFFFFFF
310
FFFFFFFFFFFFFFFFFFFFFFFFFFFFFFFFF000FFFFFFFFFFFFFFFFFFFFFFFFFFFF
310
FFFFFFFFFFFFFFFFFFFFFFFFFFFFFFFFFFFFFFFFFFFFFFFFFFFFFFFFFFFFFFFF
310
FFFFFFFFFFFFFFFFFFFFFFFFFFFFFFFFFFFFFFFFFFFFFFFFFFFFFFFFFFFFFFFF
310
FFFFFFFFFFFFFFFFF000FFFFFFFFFFFFFFFFFFFFFFFFFFFFFFFFFFFFFFFFFFFF
310
FFFFFFFFFFFFFFFFFFFFFFFFFFFFFFFFFFFFFFFFFFFFFFFFFFFFFFFFFFFFFFFF
310
FFFFFFFFFFFFFFFFFFFFFFFFFFFFFFFFFFFFFFFFFFFFFFFFFFFFFFFFFFFFFFFF
310
F000FFFFFFFFFFFFFFFFFFFFFFFFFFFFFFFFFFFFFFFFFFFFFFFFFFFFFFFFFFFF
310
FFFFFFFFFFFFFFFFFFFFFFFFFFFFFFFFFFFFFFFFFFFFFFFFFFFFFFFFFFFFFFFF
310
FFFFFFFFFFFFFFFFFFFFFFFFFFFFFFFFFFFFFFFFFFFFFFFFF000FFFFFFFFFFFF
310
FFFFFFFFFFFFFFFFFFFFFFFFFFFFFFFFFFFFFFFFFFFFFFFFFFFFFFFFFFFFFFFF
310
FFFFFFFFFFFFFFFFFFFFFFFFFFFFFFFFFFFFFFFFFFFFFFFFFFFFFFFFFFFFFFFF
310
FFFFFFFFFFFFFFFFFFFFFFFFFFFFFFFFF000FFFFFFFFFFFFFFFFFFFFFFFFFFFF
310
FFFFFFFFFFFFFFFFFFFFFFFFFFFFFFFFFFFFFFFFFFFFFFFFFFFFFFFFFFFFFFFF
310
FFFFFFFFFFFFFFFFFFFFFFFFFFFFFFFFFFFFFFFFFFFFFFFFFFFFFFFFFFFFFFFF
310
FFFFFFFFFFFFFFFFF000FFFFFFFFFFFFFFFFFFFFFFFFFFFFFFFFFFFFFFFFFFFF
310
FFFFFFFFFFFFFFFFFFFFFFFFFFFFFFFFFFFFFFFFFFFFFFFFFFFFFFFFFFFFFFFF
310
FFFFFFFFFFFFFFFFFFFFFFFFFFFFFFFFFFFFFFFFFFFFFFFFFFFFFFFFFFFFFFFF
310
F000FFFFFFFFFFFFFFFFFFFFFFFFFFFFFFFFFFFFFFFFFFFFFFFFFFFFFFFFFFFF
310
FFFFFFFFFFFFFFFFFFFFFFFFFFFFFFFFFFFFFFFFFFFFFFFFFFFFFFFFFFFFFFFF
310
FFFFFFFFFFFFFFFFFFFFFFFFFFFFFFFFFFFFFFFFFFFFFFFFF000FFFFFFFFFFFF
310
FFFFFFFFFFFFFFFFFFFFFFFFFFFFFFFFFFFFFFFFFFFFFFFFFFFFFFFFFFFFFFFF
310
FFFFFFFFFFFFFFFFFFFFFFFFFFFFFFFFFFFFFFFFFFFFFFFFFFFFFFFFFFFFFFFF
310
FFFFFFFFFFFFFFFFFFFFFFFFFFFFFFFFF000FFFFFFFFFFFFFFFFFFFFFFFFFFFF
310
FFFFFFFFFFFFFFFFFFFFFFFFFFFFFFFFFFFFFFFFFFFFFFFFFFFFFFFFFFFFFFFF
310
FFFFFFFFFFFFFFFFFFFFFFFFFFFFFFFFFFFFFFFFFFFFFFFFFFFFFFFFFFFFFFFF
310
FFFFFFFFFFFFFFFFF000FFFFF80003FFFFFFFFFFFFFFFFFFFFFFFFFFFFFFFFFF
310
FFFFF00007FFFFFFFFFF00007FFFFFF800000000000000007FFFFFFFFFFFFFFF
310
FFFFFFFC001FFFFFFFFFFFFFFC001FFFFFFFFFFFFFFFFFFFFFFFFFFE0007FFFF
310
F000FFFF8000007FFFFFFFF8000FFFFFC0007FFFFF80007FFFFF0000007FFFFF
310
FFF8000007FFFFF800000000000000007FFFFFF0001FFFFFFFFFFFC00001FFFF
310
FFFFFFFFC00001FFFFFFFF000000000003FFFFE000007FFFF000FFFE0000000F
310
FFFFFFF0000FFFFF80007FFFFF80007FFFFC0000001FFFFFFFC0000001FFFFF8
310
00000000000000007FFFFFF0001FFFFFFFFFFE0000003FFFFFFFFFFE0000003F
310
FFFFFF000000000003FFFF0000000FFFF000FFF800000003FFFFFFF00007FFFF
310
80007FFFFF80007FFFF000000007FFFFFF000000003FFFF80000000000000000
310
7FFFFFF0001FFFFFFFFFF80000000FFFFFFFFFF80000000FFFFFFF0000000000
310
03FFFC00000003FFF000FFE000000000FFFFFFF00007FFFF80003FFFFF80007F
310
FFC000000001FFFFFC000000001FFFF800000000000000007FFFFFF0001FFFFF
310
FFFFE000000003FFFFFFFFE000000003FFFFFF000000000003FFF000000000FF
310
F000FF80000000007FFFFFF00007FFFF80003FFFFF80007FFF8000000000FFFF
310
F80000000007FFF800000000000000007FFFFFF0001FFFFFFFFFC000000001FF
310
FFFFFFC000000001FFFFFF000000000003FFC0000000007FF000FF0000000000
310
3FFFFFE00007FFFF00003FFFFF80007FFE00000000003FFFF00000000003FFF8
310
00000000000000007FFFFFF0001FFFFFFFFF8000000000FFFFFFFF8000000000
310
FFFFFF000000000003FF80000000003FF000FE00000000001FFFFFE00003FFFF
310
00003FFFFF80007FFC00000000001FFFE00000000001FFF8000001FFFE000000
310
7FFFFFF0001FFFFFFFFE00000000003FFFFFFE00000000003FFFFF0000000000
310
03FF00000000001FF000FC00000000000FFFFFE00003FFFF00001FFFFF80007F
310
F800000000001FFFC00000000000FFF8000001FFFE0000007FFFFFF0001FFFFF
310
FFFC00000000001FFFFFFC00000000001FFFFF000000000003FE00000000000F
310
F000F8000000000007FFFFE00003FFFF00001FFFFF80007FF800000000000FFF
310
800000000000FFF8000001FFFE0000007FFFFFF0001FFFFFFFF800000000000F
310
FFFFF800000000000FFFFF000000000003FC000000000007F000F80000000000
310
03FFFFC00003FFFE00001FFFFF80007FF0000000000007FF0000000000007FF8
310
000001FFFE0000007FFFFFF0001FFFFFFFF0000000000007FFFFF00000000000
310
07FFFF000000000003F8000000000003F000F0000000000003FFFFC00001FFFE
310
00001FFFFF80007FE0000000000007FE0000000000003FF8000001FFFE000000
310
7FFFFFF0001FFFFFFFF0000000000007FFFFF0000000000007FFFF0000000000
310
03F800001F800003F000E00001FFF00001FFFFC00001FFFE00000FFFFF80007F
310
E00001FFE00003FE00001FFF00003FF8000001FFFE0000007FFFFFF0001FFFFF
310
FFE000003E000003FFFFE000003E000003FFFF000000000003F00001FFF80001
310
F000E00007FFFC0001FFFFC00001FFFE00000FFFFF80007FC0000FFFFC0003FC
310
0000FFFFC0001FF8000001FFFE0000007FFFFFF0001FFFFFFFC00003FFE00001
310
FFFFC00003FFE00001FFFF0001FFFFFFFFF00007FFFE0001F000E0000FFFFF00
310
00FFFF800001FFFC00000FFFFF80007FC0001FFFFE0001FC0001FFFFE0001FF8
310
000001FFFE0000007FFFFFF0001FFFFFFF80000FFFF80000FFFF80000FFFF800
310
00FFFF0003FFFFFFFFE0000FFFFF8000F000C0003FFFFF8000FFFF800000FFFC
310
000007FFFF80007F80003FFFFF0001FC0003FFFFF0001FF8000001FFFE000000
310
7FFFFFF0001FFFFFFF80003FFFFE0000FFFF80003FFFFE0000FFFF0003FFFFFF
310
FFE0003FFFFF8000F000C0003FFFFF8000FFFF800000FFFC000007FFFF80007F
310
80007FFFFF8001F80007FFFFF8000FF8000001FFFE0000007FFFFFF0001FFFFF
310
FF00007FFFFF00007FFF00007FFFFF00007FFF0003FFFFFFFFE0003FFFFFC000
310
F000C0007FFFFFC000FFFF000000FFFC000007FFFF80007F8000FFFFFF8000F8
310
000FFFFFF8000FF8000001FFFE0000007FFFFFF0001FFFFFFF0000FFFFFF8000
310
7FFF0000FFFFFF80007FFF0003FFFFFFFFC0007FFFFFC00070008000FFFFFFC0
310
00FFFF000000FFF8000007FFFF80007F8000FFFFFF8000F8000FFFFFF8000FF8
310
000001FFFE0000007FFFFFF0001FFFFFFE0001FFFFFFC0003FFE0001FFFFFFC0
310
003FFF0003FFFFFFFFC0007FFFFFE00070008000FFFFFFC0007FFF0000007FF8
310
000003FFFF80007F0001FFFFFF8000F8000FFFFFF8000FF8000001FFFE000000
310
7FFFFFF0001FFFFFFE0001FFFFFFC0003FFE0001FFFFFFC0003FFF0003FFFFFF
310
FFC000FFFFFFE00070008000FFFFFFC0007FFF0000007FF8000003FFFF80007F
310
0001FFFFFF8000F8001FFFFFF8000FF8000001FFFE0000007FFFFFF0001FFFFF
310
FE0003FFFFFFE0003FFE0003FFFFFFE0003FFF0003FFFFFFFFC000FFFFFFE000
310
70008000FFFFFFC0007FFE0000007FF8000003FFFF80007F0001FFFFFF8000F0
310
001FFFFFF8000FF8000001FFFE0000007FFFFFF0001FFFFFFC0003FFFFFFE000
310
1FFC0003FFFFFFE0001FFF0003FFFFFFFFC000FFFFFFC00070008000FFFFFF80
310
007FFE0000007FF0000003FFFF80007F0001FFFFFF0000F0001FFFFFF8000FF8
310
000001FFFE0000007FFFFFF0001FFFFFFC0007FFFFFFF0001FFC0007FFFFFFF0
310
001FFF0003FFFFFFFFC000FFFFFFC00070008001FFFFFF0000FFFE0000003FF0
310
000001FFFF80007F0001FFFFFF0000F8001FFFFFF0000FF8000001FFFE000000
310
7FFFFFF0001FFFFFFC0007FFFFFFF0001FFC0007FFFFFFF0001FFF0003FFFFFF
310
FFC001FFFFFF80007000FFFFFFFFFE0000FFFE0008003FF0008001FFFF80007F
310
FFFFFFFFFC0000FFFFFFFFFFE0000FF8000001FFFE0000007FFFFFF0001FFFFF
310
F8000FFFFFFFF8000FF8000FFFFFFFF8000FFF0003FFFFFFFFFFFFFFFFFF0000
310
7000FFFFFFFFFC0000FFFC0008003FF0008001FFFF80007FFFFFFFFFF80001FF
310
FFFFFFFF80000FF8000001FFFE0000007FFFFFF0001FFFFFF8000FFFFFFFF800
310
0FF8000FFFFFFFF8000FFF0003FFFFFFFFFFFFFFFFFE0000F000FFFFFFFFE000
310
00FFFC000C003FE000C001FFFF80007FFFFFFFFFC00001FFFFFFFFFE00001FF8
310
000001FFFE0000007FFFFFF0001FFFFFF8000FFFFFFFF8000FF8000FFFFFFFF8
310
000FFF0003FFFFFFFFFFFFFFFFF00000F000FFFFFFFE000001FFFC000C001FE0
310
00C000FFFF80007FFFFFFFFE000001FFFFFFFFE000001FF80FFFFFFFFFFFFFC0
310
7FFFFFF0001FFFFFF8000FFFFFFFF8000FF8000FFFFFFFF8000FFF0003FFFFFF
310
FFFFFFFFFF800000F000FFFFFFC0000001FFFC001C001FE001C000FFFF80007F
310
FFFFFF80000003FFFFFFF80000001FF80FFFFFFFFFFFFFC07FFFFFF0001FFFFF
310
F8001FFFFFFFFC000FF8001FFFFFFFFC000FFF0003FFFFFFFFFFFFFFF0000001
310
F000FFFFF800000001FFF8001C001FE001C000FFFF80007FFFFFF800000003FF
310
FFFF800000003FF80FFFFFFFFFFFFFC07FFFFFF0001FFFFFF8001FFFFFFFFC00
310
0FF8001FFFFFFFFC000FFF0003FFFFFFFFFFFFFE00000001F000FFFFC0000000
310
03FFF8001E001FC001E000FFFF80007FFFFF8000000007FFFFFC000000003FF8
310
0FFFFFFFFFFFFFC07FFFFFF0001FFFFFF8001FFFFFFFFC000FF8001FFFFFFFFC
310
000FFF0003FFFFFFFFFFFFE000000003F000FFFE0000000007FFF8001E000FC0
310
01E0007FFF80007FFFFE0000000007FFFFE0000000007FF80FFFFFFFFFFFFFC0
310
7FFFFFF0001FFFFFF0001FFFFFFFFC0007F0001FFFFFFFFC0007FF0003FFFFFF
310
FFFFFF0000000003F000FFF80000000007FFF8001E000FC003E0007FFF80007F
310
FFF0000000000FFFFF8000000000FFF80FFFFFFFFFFFFFC07FFFFFF0001FFFFF
310
F0001FFFFFFFFC0007F0001FFFFFFFFC0007FF0003FFFFFFFFFFFC0000000007
310
F000FFE0000000000FFFF0003E000FC003E0007FFF80007FFFC0000000001FFF
310
FE0000000001FFF80FFFFFFFFFFFFFC07FFFFFF0001FFFFFF0001FFFFFFFFC00
310
07F0001FFFFFFFFC0007FF0003FFFFFFFFFFF0000000000FF000FFC000000000
310
1FFFF0003F000F8003F0003FFF80007FFF80000000003FFFF80000000003FFF8
310
0FFFFFFFFFFFFFC07FFFFFF0001FFFFFF0001FFFFFFFFC0007F0001FFFFFFFFC
310
0007FF0003FFFFFFFFFFE0000000001FF000FF00000000007FFFF0003F000780
310
03F0003FFF80007FFF00000000007FFFF00000000007FFF80FFFFFFFFFFFFFC0
310
7FFFFFF0001FFFFFF0001FFFFFFFFC0007F0001FFFFFFFFC0007FF0003FFFFFF
310
FFFF80000000007FF000FE0000000000FFFFE0003F00078007F0003FFF80007F
310
FE0000000001FFFFE0000000001FFFF80FFFFFFFFFFFFFC07FFFFFF0001FFFFF
310
F0001FFFFFFFFC0007F0001FFFFFFFFC0007FF0003FFFFFFFFFF0000000000FF
310
F000FC0000000003FFFFE0007F00078007F0003FFF80007FFC0000000007FFFF
310
C0000000007FFFF80FFFFFFFFFFFFFC07FFFFFF0001FFFFFF8001FFFFFFFFC00
310
0FF8001FFFFFFFFC000FFF0003FFFFFFFFFE0000000003FFF000FC000000000F
310
FFFFE0007F80070007F8001FFF80007FF8000000001FFFFF8000000001FFFFF8
310
0FFFFFFFFFFFFFC07FFFFFF0001FFFFFF8001FFFFFFFFC000FF8001FFFFFFFFC
310
000FFF0003FFFFFFFFFC000000000FFFF000F8000000007FFFFFE0007F800700
310
07F8001FFF80007FF000000000FFFFFF800000000FFFFFF80FFFFFFFFFFFFFC0
310
7FFFFFF0001FFFFFF8000FFFFFFFF8000FF8000FFFFFFFF8000FFF0003FFFFFF
310
FFFC000000007FFFF000F800000007FFFFFFC0007F8003000FF8001FFF80007F
310
F000000007FFFFFF000000007FFFFFF80FFFFFFFFFFFFFC07FFFFFF0001FFFFF
310
F8000FFFFFFFF8000FF8000FFFFFFFF8000FFF0003FFFFFFFFF80000000FFFFF
310
F000F0000000FFFFFFFFC000FF8003000FF8001FFF80007FE0000000FFFFFFFF
310
0000000FFFFFFFF8000001FFFE0000007FFFFFF0001FFFFFF8000FFFFFFFF800
310
0FF8000FFFFFFFF8000FFF0003FFFFFFFFF8000000FFFFFFF000F000000FFFFF
310
FFFFC000FFC002000FF8000FFF80007FE000001FFFFFFFFE000001FFFFFFFFF8
310
000001FFFE0000007FFFFFF0001FFFFFF8000FFFFFFFF8000FF8000FFFFFFFF8
310
000FFF0003FFFFFFFFF000001FFFFFFFF000E00000FFFFFFFFFFC000FFC00200
310
0FFC000FFF80007FE00001FFFFFFFFFE00001FFFFFFFFFF8000001FFFE000000
310
7FFFFFF0001FFFFFFC000FFFFFFFF8001FFC000FFFFFFFF8001FFF0003FFFFFF
310
FFF00001FFFFFFFFF000E00007FFFFFFFFFF8000FFC000001FFC000FFF80007F
310
C0000FFFFFFFFFFE0000FFFFFFFFFFF8000001FFFE0000007FFFFFF0001FFFFF
310
FC0007FFFFFFF0001FFC0007FFFFFFF0001FFF0003FFFFFFFFF00007FFFFFFFF
310
F000E0001FFFFFFFFFFF8000FFC000001FFC000FFF80007FC0003FFFFFFFFFFE
310
0001FFFFFFFFFFF8000001FFFE0000007FFFFFF0001FFFFFFC0007FFFFFFF000
310
1FFC0007FFFFFFF0001FFF0003FFFFFFFFF0001FFFFFFFFFF000E0003FFFFF00
310
03FF8001FFE000001FFC0007FF80007FC0007FFFFF0007FC0003FFFFF0003FF8
310
000001FFFE0000007FFFFFF0001FFFFFFC0003FFFFFFE0001FFC0003FFFFFFE0
310
001FFF0003FFFFFFFFF0003FFFFFFFFFF000E0003FFFFF0001FF8001FFE00000
310
1FFE0007FF80007FC0007FFFFE0003FC0007FFFFE0003FF8000001FFFE000000
310
7FFFFFF0001FFFFFFE0003FFFFFFE0003FFE0003FFFFFFE0003FFF0003FFFFFF
310
FFF0003FFFFF8001F000E0003FFFFF0001FF0001FFE000001FFE0007FF80007F
310
C0007FFFFE0003FC0007FFFFE0003FF8000001FFFE0000007FFFFFF0001FFFFF
310
FE0001FFFFFFC0003FFE0001FFFFFFC0003FFF0003FFFFFFFFF0003FFFFF0001
310
F000E0003FFFFF0003FF0001FFE000003FFE0007FF80007FC0007FFFFE0003FC
310
0007FFFFE0003FF8000001FFFE0000007FFFFFF0001FFFFFFF0001FFFFFFC000
310
7FFF0001FFFFFFC0007FFF0003FFFFFFFFF0003FFFFF0001F000E0003FFFFE00
310
03FF0003FFF000003FFE0003FF80007FC0007FFFFC0003FE0007FFFFE0003FF8
310
000001FFFE0000007FFFFFF0001FFFFFFF0000FFFFFF80007FFF0000FFFFFF80
310
007FFF0003FFFFFFFFF0003FFFFF0001F000E0003FFFFE0003FF0003FFF00000
310
3FFF0003FF80007FC0007FFFFC0007FE0007FFFFC0003FF8000001FFFE000000
310
7FFFFFF0001FFFFFFF80007FFFFF0000FFFF80007FFFFF0000FFFF0003FFFFFF
310
FFF0003FFFFF0003F000E0003FFFFC0003FE0003FFF000003FFF0003FF80007F
310
E0003FFFF80007FE0003FFFFC0007FF8000001FFFE0000007FFFFFF0001FFFFF
310
FF80003FFFFE0000FFFF80003FFFFE0000FFFF0003FFFFFFFFF0001FFFFE0003
310
F000F0001FFFF80003FE0003FFF000007FFF0001FF80007FE0003FFFF00007FE
310
0001FFFF80007FF8000001FFFE0000007FFFFFF0001FFFFFFFC0000FFFF80001
310
FFFFC0000FFFF80001FFFF0003FFFFFFFFF0001FFFFC0003F000F0000FFFF000
310
07FE0007FFF800007FFF0001FF80007FE0001FFFE00007FF0000FFFE00007FF8
310
000001FFFE0000007FFFFFF0001FFFFFFFC00003FFE00001FFFFC00003FFE000
310
01FFFF0003FFFFFFFFF8000FFFF80003F000F00003FFC00007FC0007FFF80000
310
7FFF8001FF80007FF00007FF80000FFF00007FF80000FFF8000001FFFE000000
310
7F80000000000001FFE000003E000003FFFFE000003E000003FFFF0003FFFFFF
310
FFF80003FFE00007F000F800000000000FFC0007FFF800007FFF8001FF80007F
310
F000000000000FFF000000000000FFF8000001FFFE0000007F80000000000001
310
FFF0000000000007FFFFF0000000000007FFFF0003FFFFFFFFFC00007E000007
310
F000F800000000000FFC0007FFF80000FFFF8000FF80007FF800000000001FFF
310
800000000001FFF8000001FFFE0000007F80000000000001FFF800000000000F
310
FFFFF800000000000FFFFF0003FFFFFFFFFC00000000000FF000FC0000000000
310
1FFC0007FFFC0000FFFF8000FF80007FF800000000003FFFC00000000001FFF8
310
000001FFFE0000007F80000000000001FFF800000000000FFFFFF80000000000
310
0FFFFF0003FFFFFFFFFE00000000001FF000FE00000000003FF8000FFFFC0000
310
FFFF8000FF80007FFC00000000003FFFC00000000003FFF8000001FFFE000000
310
7F80000000000001FFFC00000000001FFFFFFC00000000001FFFFF0003FFFFFF
310
FFFF00000000001FF000FF00000000003FF8000FFFFC0000FFFFC000FF80007F
310
FE00000000007FFFE00000000007FFF8000001FFFE0000007F80000000000001
310
FFFE00000000003FFFFFFE00000000003FFFFF0003FFFFFFFFFF80000000003F
310
F000FF80000000007FF8000FFFFC0001FFFFC0007F80007FFF0000000000FFFF
310
F0000000000FFFF800000000000000007F80000000000001FFFF8000000000FF
310
FFFFFF8000000000FFFFFF0003FFFFFFFFFFC0000000007FF000FFC000000000
310
FFF8000FFFFE0001FFFFC0007F80007FFF8000000001FFFFF8000000001FFFF8
310
00000000000000007F80000000000001FFFFC000000001FFFFFFFFC000000001
310
FFFFFF0003FFFFFFFFFFE000000000FFF000FFE000000003FFF0001FFFFE0001
310
FFFFC0007F80007FFFC000000007FFFFFE000000003FFFF80000000000000000
310
7F80000000000001FFFFE000000003FFFFFFFFE000000003FFFFFF0003FFFFFF
310
FFFFF000000003FFF000FFF80000000FFFF0001FFFFE0001FFFFE0007F80007F
310
FFF00000000FFFFFFF00000000FFFFF800000000000000007F80000000000001
310
FFFFF80000000FFFFFFFFFF80000000FFFFFFF0003FFFFFFFFFFFC0000000FFF
310
F000FFFE0000003FFFF0001FFFFE0003FFFFE0003F80007FFFFC0000003FFFFF
310
FFC0000003FFFFF800000000000000007F80000000000001FFFFFE0000003FFF
310
FFFFFFFE0000003FFFFFFF0003FFFFFFFFFFFF0000003FFFF000FFFF800000FF
310
FFF0001FFFFF0003FFFFE0003F80007FFFFF000001FFFFFFFFF800001FFFFFF8
310
00000000000000007F80000000000001FFFFFFC00001FFFFFFFFFFFFC00001FF
310
FFFFFF0003FFFFFFFFFFFFC00000FFFFF000FFFFF8000FFFFFFFFFFFFFFFFFFF
310
FFFFFFFFFFFFFFFFFFFFF0001FFFFFFFFFFF0000FFFFFFF80000000000000000
310
7FFFFFFFFFFFFFFFFFFFFFFC001FFFFFFFFFFFFFFC001FFFFFFFFFFFFFFFFFFF
310
FFFFFFFC001FFFFFF000FFFFFFFFFFFFFFFFFFFFFFFFFFFFFFFFFFFFFFFFFFFF
310
FFFFFFFFFFFFFFFFFFFFFFFFFFFFFFFFFFFFFFFFFFFFFFFFFFFFFFFFFFFFFFFF
310
FFFFFFFFFFFFFFFFFFFFFFFFFFFFFFFFFFFFFFFFFFFFFFFFFFFFFFFFFFFFFFFF
310
F000FFFFFFFFFFFFFFFFFFFFFFFFFFFFFFFFFFFFFFFFFFFFFFFFFFFFFFFFFFFF
310
FFFFFFFFFFFFFFFFFFFFFFFFFFFFFFFFFFFFFFFFFFFFFFFFFFFFFFFFFFFFFFFF
310
FFFFFFFFFFFFFFFFFFFFFFFFFFFFFFFFFFFFFFFFFFFFFFFFF000FFFFFFFFFFFF
310
FFFFFFFFFFFFFFFFFFFFFFFFFFFFFFFFFFFFFFFFFFFFFFFFFFFFFFFFFFFFFFFF
310
FFFFFFFFFFFFFFFFFFFFFFFFFFFFFFFFFFFFFFFFFFFFFFFFFFFFFFFFFFFFFFFF
310
FFFFFFFFFFFFFFFFFFFFFFFFFFFFFFFFF000FFFFFFFFFFFFFFFFFFFFFFFFFFFF
310
FFFFFFFFFFFFFFFFFFFFFFFFFFFFFFFFFFFFFFFFFFFFFFFFFFFFFFFFFFFFFFFF
310
FFFFFFFFFFFFFFFFFFFFFFFFFFFFFFFFFFFFFFFFFFFFFFFFFFFFFFFFFFFFFFFF
310
FFFFFFFFFFFFFFFFF000FFFFFFFFFFFFFFFFFFFFFFFFFFFFFFFFFFFFFFFFFFFF
310
FFFFFFFFFFFFFFFFFFFFFFFFFFFFFFFFFFFFFFFFFFFFFFFFFFFFFFFFFFFFFFFF
310
FFFFFFFFFFFFFFFFFFFFFFFFFFFFFFFFFFFFFFFFFFFFFFFFFFFFFFFFFFFFFFFF
310
F000FFFFFFFFFFFFFFFFFFFFFFFFFFFFFFFFFFFFFFFFFFFFFFFFFFFFFFFFFFFF
310
FFFFFFFFFFFFFFFFFFFFFFFFFFFFFFFFFFFFFFFFFFFFFFFFFFFFFFFFFFFFFFFF
310
FFFFFFFFFFFFFFFFFFFFFFFFFFFFFFFFFFFFFFFFFFFFFFFFF000FFFFFFFFFFFF
310
FFFFFFFFFFFFFFFFFFFFFFFFFFFFFFFFFFFFFFFFFFFFFFFFFFFFFFFFFFFFFFFF
310
FFFFFFFFFFFFFFFFFFFFFFFFFFFFFFFFFFFFFFFFFFFFFFFFFFFFFFFFFFFFFFFF
310
FFFFFFFFFFFFFFFFFFFFFFFFFFFFFFFFF000FFFFFFFFFFFFFFFFFFFFFFFFFFFF
310
FFFFFFFFFFFFFFFFFFFFFFFFFFFFFFFFFFFFFFFFFFFFFFFFFFFFFFFFFFFFFFFF
310
FFFFFFFFFFFFFFFFFFFFFFFFFFFFFFFFFFFFFFFFFFFFFFFFFFFFFFFFFFFFFFFF
310
FFFFFFFFFFFFFFFFF000FFFFFFFFFFFFFFFFFFFFFFFFFFFFFFFFFFFFFFFFFFFF
310
FFFFFFFFFFFFFFFFFFFFFFFFFFFFFFFFFFFFFFFFFFFFFFFFFFFFFFFFFFFFFFFF
310
FFFFFFFFFFFFFFFFFFFFFFFFFFFFFFFFFFFFFFFFFFFFFFFFFFFFFFFFFFFFFFFF
310
F000FFFFFFFFFFFFFFFFFFFFFFFFFFFFFFFFFFFFFFFFFFFFFFFFFFFFFFFFFFFF
310
FFFFFFFFFFFFFFFFFFFFFFFFFFFFFFFFFFFFFFFFFFFFFFFFFFFFFFFFFFFFFFFF
310
FFFFFFFFFFFFFFFFFFFFFFFFFFFFFFFFFFFFFFFFFFFFFFFFF000FFFFFFFFFFFF
310
FFFFFFFFFFFFFFFFFFFFFFFFFFFFFFFFFFFFFFFFFFFFFFFFFFFFFFFFFFFFFFFF
310
FFFFFFFFFFFFFFFFFFFFFFFFFFFFFFFFFFFFFFFFFFFFFFFFFFFFFFFFFFFFFFFF
310
FFFFFFFFFFFFFFFFFFFFFFFFFFFFFFFFF000FFFFFFFFFFFFFFFFFFFFFFFFFFFF
310
FFFFFFFFFFFFFFFFFFFFFFFFFFFFFFFFFFFFFFFFFFFFFFFFFFFFFFFFFFFFFFFF
310
FFFFFFFFFFFFFFFFFFFFFFFFFFFFFFFFFFFFFFFFFFFFFFFFFFFFFFFFFFFFFFFF
310
FFFFFFFFFFFFFFFFF000FFFFFFFFFFFFFFFFFFFFFFFFFFFFFFFFFFFFFFFFFFFF
310
FFFFFFFFFFFFFFFFFFFFFFFFFFFFFFFFFFFFFFFFFFFFFFFFFFFFFFFFFFFFFFFF
310
FFFFFFFFFFFFFFFFFFFFFFFFFFFFFFFFFFFFFFFFFFFFFFFFFFFFFFFFFFFFFFFF
310
F000FFFFFFFFFFFFFFFFFFFFFFFFFFFFFFFFFFFFFFFFFFFFFFFFFFFFFFFFFFFF
310
FFFFFFFFFFFFFFFFFFFFFFFFFFFFFFFFFFFFFFFFFFFFFFFFFFFFFFFFFFFFFFFF
310
FFFFFFFFFFFFFFFFFFFFFFFFFFFFFFFFFFFFFFFFFFFFFFFFF000FFFFFFFFFFFF
310
FFFFFFFFFFFFFFFFFFFFFFFFFFFFFFFFFFFFFFFFFFFFFFFFFFFFFFFFFFFFFFFF
310
FFFFFFFFFFFFFFFFFFFFFFFFFFFFFFFFFFFFFFFFFFFFFFFFFFFFFFFFFFFFFFFF
310
FFFFFFFFFFFFFFFFFFFFFFFFFFFFFFFFF000FFFFFFFFFFFFFFFFFFFFFFFFFFFF
310
FFFFFFFFFFFFFFFFFFFFFFFFFFFFFFFFFFFFFFFFFFFFFFFFFFFFFFFFFFFFFFFF
310
FFFFFFFFFFFFFFFFFFFFFFFFFFFFFFFFFFFFFFFFFFFFFFFFFFFFFFFFFFFFFFFF
310
FFFFFFFFFFFFFFFFF000FFFFFFFFFFFFFFFFFFFFFFFFFFFFFFFFFFFFFFFFFFFF
310
FFFFFFFFFFFFFFFFFFFFFFFFFFFFFFFFFFFFFFFFFFFFFFFFFFFFFFFFFFFFFFFF
310
FFFFFFFFFFFFFFFFFFFFFFFFFFFFFFFFFFFFFFFFFFFFFFFFFFFFFFFFFFFFFFFF
310
F000FFFFFFFFFFFFFFFFFFFFFFFFFFFFFFFFFFFFFFFFFFFFFFFFFFFFFFFFFFFF
310
FFFFFFFFFFFFFFFFFFFFFFFFFFFFFFFFFFFFFFFFFFFFFFFFFFFFFFFFFFFFFFFF
310
FFFFFFFFFFFFFFFFFFFFFFFFFFFFFFFFFFFFFFFFFFFFFFFFF000FFFFFFFFFFFF
310
FFFFFFFFFFFFFFFFFFFFFFFFFFFFFFFFFFFFFFFFFFFFFFFFFFFFFFFFFFFFFFFF
310
FFFFFFFFFFFFFFFFFFFFFFFFFFFFFFFFFFFFFFFFFFFFFFFFFFFFFFFFFFFFFFFF
310
FFFFFFFFFFFFFFFFFFFFFFFFFFFFFFFFF000FFFFFFFFFFFFFFFFFFFFFFFFFFFF
310
FFFFFFFFFFFFFFFFFFFFFFFFFFFFFFFFFFFFFFFFFFFFFFFFFFFFFFFFFFFFFFFF
310
FFFFFFFFFFFFFFFFFFFFFFFFFFFFFFFFFFFFFFFFFFFFFFFFFFFFFFFFFFFFFFFF
310
FFFFFFFFFFFFFFFFF000FFFFFFFFFFFFFFFFFFFFFFFFFFFFFFFFFFFFFFFFFFFF
310
FFFFFFFFFFFFFFFFFFFFFFFFFFFFFFFFFFFFFFFFFFFFFFFFFFFFFFFFFFFFFFFF
310
FFFFFFFFFFFFFFFFFFFFFFFFFFFFFFFFFFFFFFFFFFFFFFFFFFFFFFFFFFFFFFFF
310
F000FFFFFFFFFFFFFFFFFFFFFFFFFFFFFFFFFFFFFFFFFFFFFFFFFFFFFFFFFFFF
310
FFFFFFFFFFFFFFFFFFFFFFFFFFFFFFFFFFFFFFFFFFFFFFFFFFFFFFFFFFFFFFFF
310
FFFFFFFFFFFFFFFFFFFFFFFFFFFFFFFFFFFFFFFFFFFFFFFFF000FFFFFFFFFFFF
310
FFFFFFFFFFFFFFFFFFFFFFFFFFFFFFFFFFFFFFFFFFFFFFFFFFFFFFFFFFFFFFFF
310
FFFFFFFFFFFFFFFFFFFFFFFFFFFFFFFFFFFFFFFFFFFFFFFFFFFFFFFFFFFFFFFF
310
FFFFFFFFFFFFFFFFFFFFFFFFFFFFFFFFF0000000000000000000000000000000
310
0000000000000000000000000000000000000000000000000000000000000000
310
0000000000000000000000000000000000000000000000000000000000000000
310
0000000000000000000000000000000000000000000000000000000000000000
310
0000000000000000000000000000000000000000000000000000000000000000
310
0000000000000000000000000000000000000000000000000000000000000000
310
0000000000000000000000000000000000000000000000000000000000000000
310
0000000000000000000000000000000000000000000000000000000000000000
310
0000000000000000000000000000000000000000000000000000000000000000
310
0000000000000000000000000000000000000000000000000000000000000000
310
0000000000000000000000000000000000000000000000000000000000000000
310
0000000000000000000000000000000000000000000000000000000000000000
310
0000000000000000000000000000000000000000000000000000000000000000
310
0000000000000000000000000000000000000000000000000000000000000000
310
0000000000000000000000000000000000000000000000000000000000000000
310
0000000000000000000000000000000000000000000000000000000000000000
  1
OLE
  0
ENDSEC
  0
SECTION
  2
OBJECTS
  0
DICTIONARY
  5
C
330
0
100
AcDbDictionary
281
     1
  3
ACAD_GROUP
350
D
  3
ACAD_LAYOUT
350
1A
  3
ACAD_MLINESTYLE
350
17
  3
ACAD_PLOTSETTINGS
350
19
  3
ACAD_PLOTSTYLENAME
350
E
  3
ACAD_SCALELIST
350
47
  0
DICTIONARY
  5
D
102
{ACAD_REACTORS
330
C
102
}
330
C
100
AcDbDictionary
281
     1
  0
DICTIONARY
  5
1A
102
{ACAD_REACTORS
330
C
102
}
330
C
100
AcDbDictionary
281
     1
  3
Layout1
350
1E
  3
Layout2
350
26
  3
Model
350
22
  0
DICTIONARY
  5
17
102
{ACAD_REACTORS
330
C
102
}
330
C
100
AcDbDictionary
281
     1
  3
Standard
350
18
  0
DICTIONARY
  5
19
102
{ACAD_REACTORS
330
C
102
}
330
C
100
AcDbDictionary
281
     1
  0
ACDBDICTIONARYWDFLT
  5
E
102
{ACAD_REACTORS
330
C
102
}
330
C
100
AcDbDictionary
281
     1
  3
Normal
350
F
100
AcDbDictionaryWithDefault
340
F
  0
DICTIONARY
  5
47
102
{ACAD_REACTORS
330
C
102
}
330
C
100
AcDbDictionary
281
     1
  3
A0
350
48
  3
A1
350
49
  3
A2
350
4A
  3
A3
350
4B
  3
A4
350
4C
  3
A5
350
4D
  3
A6
350
4E
  3
A7
350
4F
  3
A8
350
50
  3
A9
350
51
  3
B0
350
52
  3
B1
350
53
  3
B2
350
54
  3
B3
350
55
  3
B4
350
56
  3
B5
350
57
  3
B6
350
58
  3
B7
350
59
  3
B8
350
5A
  3
B9
350
5B
  3
C0
350
5C
  3
C1
350
5D
  3
C2
350
5E
  3
C3
350
5F
  3
C4
350
60
  3
C5
350
61
  3
C6
350
62
  3
C7
350
63
  3
C8
350
64
  3
C9
350
65
  3
D0
350
66
  3
D1
350
67
  3
D2
350
68
  0
LAYOUT
  5
1E
102
{ACAD_REACTORS
330
1A
102
}
330
1A
100
AcDbPlotSettings
  1

  2
none_device
  4

  6

 40
0.0
 41
0.0
 42
0.0
 43
0.0
 44
0.0
 45
0.0
 46
0.0
 47
0.0
 48
0.0
 49
0.0
140
0.0
141
0.0
142
1.0
143
1.0
 70
   688
 72
     1
 73
     0
 74
     5
  7

 75
    16
147
1.0
148
0.0
149
0.0
100
AcDbLayout
  1
Layout1
 70
     1
 71
     1
 10
0.0
 20
0.0
 11
420.0
 21
297.0
 12
0.0
 22
0.0
 32
0.0
 14
1.0000000000E+20
 24
1.0000000000E+20
 34
1.0000000000E+20
 15
-1.0000000000E+20
 25
-1.0000000000E+20
 35
-1.0000000000E+20
146
0.0
 13
0.0
 23
0.0
 33
0.0
 16
1.0
 26
0.0
 36
0.0
 17
0.0
 27
1.0
 37
0.0
 76
     0
330
1B
  0
LAYOUT
  5
26
102
{ACAD_REACTORS
330
1A
102
}
330
1A
100
AcDbPlotSettings
  1

  2
none_device
  4

  6

 40
0.0
 41
0.0
 42
0.0
 43
0.0
 44
0.0
 45
0.0
 46
0.0
 47
0.0
 48
0.0
 49
0.0
140
0.0
141
0.0
142
1.0
143
1.0
 70
   688
 72
     1
 73
     0
 74
     5
  7

 75
    16
147
1.0
148
0.0
149
0.0
100
AcDbLayout
  1
Layout2
 70
     1
 71
     2
 10
0.0
 20
0.0
 11
0.0
 21
0.0
 12
0.0
 22
0.0
 32
0.0
 14
0.0
 24
0.0
 34
0.0
 15
0.0
 25
0.0
 35
0.0
146
0.0
 13
0.0
 23
0.0
 33
0.0
 16
1.0
 26
0.0
 36
0.0
 17
0.0
 27
1.0
 37
0.0
 76
     0
330
23
  0
LAYOUT
  5
22
102
{ACAD_REACTORS
330
1A
102
}
330
1A
100
AcDbPlotSettings
  1

  2
none_device
  4
Letter_(8.50_x_11.00_Inches)
  6

 40
6.35
 41
6.35
 42
6.35000508
 43
6.35000508
 44
215.9
 45
279.4
 46
0.0
 47
0.0
 48
0.0
 49
0.0
140
0.0
141
0.0
142
1.0
143
1.0
 70
  1712
 72
     1
 73
     0
 74
     0
  7

 75
     0
147
1.0
148
0.0
149
0.0
100
AcDbLayout
  1
Model
 70
     1
 71
     0
 10
0.0
 20
0.0
 11
297.0
 21
210.0
 12
0.0
 22
0.0
 32
0.0
 14
0.0
 24
0.0
 34
0.0
 15
297.0
 25
210.0
 35
0.0
146
0.0
 13
0.0
 23
0.0
 33
0.0
 16
1.0
 26
0.0
 36
0.0
 17
0.0
 27
1.0
 37
0.0
 76
     0
330
1F
331
29
  0
MLINESTYLE
  5
18
102
{ACAD_REACTORS
330
17
102
}
330
17
100
AcDbMlineStyle
  2
Standard
 70
     0
  3

 62
   256
 51
90.0
 52
90.0
 71
     2
 49
0.5
 62
   256
  6
BYLAYER
 49
-0.5
 62
   256
  6
BYLAYER
  0
ACDBPLACEHOLDER
  5
F
102
{ACAD_REACTORS
330
E
102
}
330
E
  0
SCALE
  5
48
102
{ACAD_REACTORS
330
47
102
}
330
47
100
AcDbScale
 70
     0
300
1:1
140
1.0
141
1.0
290
     1
  0
SCALE
  5
49
102
{ACAD_REACTORS
330
47
102
}
330
47
100
AcDbScale
 70
     0
300
1:2
140
1.0
141
2.0
290
     0
  0
SCALE
  5
4A
102
{ACAD_REACTORS
330
47
102
}
330
47
100
AcDbScale
 70
     0
300
1:4
140
1.0
141
4.0
290
     0
  0
SCALE
  5
4B
102
{ACAD_REACTORS
330
47
102
}
330
47
100
AcDbScale
 70
     0
300
1:5
140
1.0
141
5.0
290
     0
  0
SCALE
  5
4C
102
{ACAD_REACTORS
330
47
102
}
330
47
100
AcDbScale
 70
     0
300
1:8
140
1.0
141
8.0
290
     0
  0
SCALE
  5
4D
102
{ACAD_REACTORS
330
47
102
}
330
47
100
AcDbScale
 70
     0
300
1:10
140
1.0
141
10.0
290
     0
  0
SCALE
  5
4E
102
{ACAD_REACTORS
330
47
102
}
330
47
100
AcDbScale
 70
     0
300
1:16
140
1.0
141
16.0
290
     0
  0
SCALE
  5
4F
102
{ACAD_REACTORS
330
47
102
}
330
47
100
AcDbScale
 70
     0
300
1:20
140
1.0
141
20.0
290
     0
  0
SCALE
  5
50
102
{ACAD_REACTORS
330
47
102
}
330
47
100
AcDbScale
 70
     0
300
1:30
140
1.0
141
30.0
290
     0
  0
SCALE
  5
51
102
{ACAD_REACTORS
330
47
102
}
330
47
100
AcDbScale
 70
     0
300
1:40
140
1.0
141
40.0
290
     0
  0
SCALE
  5
52
102
{ACAD_REACTORS
330
47
102
}
330
47
100
AcDbScale
 70
     0
300
1:50
140
1.0
141
50.0
290
     0
  0
SCALE
  5
53
102
{ACAD_REACTORS
330
47
102
}
330
47
100
AcDbScale
 70
     0
300
1:100
140
1.0
141
100.0
290
     0
  0
SCALE
  5
54
102
{ACAD_REACTORS
330
47
102
}
330
47
100
AcDbScale
 70
     0
300
2:1
140
2.0
141
1.0
290
     0
  0
SCALE
  5
55
102
{ACAD_REACTORS
330
47
102
}
330
47
100
AcDbScale
 70
     0
300
4:1
140
4.0
141
1.0
290
     0
  0
SCALE
  5
56
102
{ACAD_REACTORS
330
47
102
}
330
47
100
AcDbScale
 70
     0
300
8:1
140
8.0
141
1.0
290
     0
  0
SCALE
  5
57
102
{ACAD_REACTORS
330
47
102
}
330
47
100
AcDbScale
 70
     0
300
10:1
140
10.0
141
1.0
290
     0
  0
SCALE
  5
58
102
{ACAD_REACTORS
330
47
102
}
330
47
100
AcDbScale
 70
     0
300
100:1
140
100.0
141
1.0
290
     0
  0
SCALE
  5
59
102
{ACAD_REACTORS
330
47
102
}
330
47
100
AcDbScale
 70
     0
300
1/128" = 1'-0"
140
0.0078125
141
12.0
290
     0
  0
SCALE
  5
5A
102
{ACAD_REACTORS
330
47
102
}
330
47
100
AcDbScale
 70
     0
300
1/64" = 1'-0"
140
0.015625
141
12.0
290
     0
  0
SCALE
  5
5B
102
{ACAD_REACTORS
330
47
102
}
330
47
100
AcDbScale
 70
     0
300
1/32" = 1'-0"
140
0.03125
141
12.0
290
     0
  0
SCALE
  5
5C
102
{ACAD_REACTORS
330
47
102
}
330
47
100
AcDbScale
 70
     0
300
1/16" = 1'-0"
140
0.0625
141
12.0
290
     0
  0
SCALE
  5
5D
102
{ACAD_REACTORS
330
47
102
}
330
47
100
AcDbScale
 70
     0
300
3/32" = 1'-0"
140
0.09375
141
12.0
290
     0
  0
SCALE
  5
5E
102
{ACAD_REACTORS
330
47
102
}
330
47
100
AcDbScale
 70
     0
300
1/8" = 1'-0"
140
0.125
141
12.0
290
     0
  0
SCALE
  5
5F
102
{ACAD_REACTORS
330
47
102
}
330
47
100
AcDbScale
 70
     0
300
3/16" = 1'-0"
140
0.1875
141
12.0
290
     0
  0
SCALE
  5
60
102
{ACAD_REACTORS
330
47
102
}
330
47
100
AcDbScale
 70
     0
300
1/4" = 1'-0"
140
0.25
141
12.0
290
     0
  0
SCALE
  5
61
102
{ACAD_REACTORS
330
47
102
}
330
47
100
AcDbScale
 70
     0
300
3/8" = 1'-0"
140
0.375
141
12.0
290
     0
  0
SCALE
  5
62
102
{ACAD_REACTORS
330
47
102
}
330
47
100
AcDbScale
 70
     0
300
1/2" = 1'-0"
140
0.5
141
12.0
290
     0
  0
SCALE
  5
63
102
{ACAD_REACTORS
330
47
102
}
330
47
100
AcDbScale
 70
     0
300
3/4" = 1'-0"
140
0.75
141
12.0
290
     0
  0
SCALE
  5
64
102
{ACAD_REACTORS
330
47
102
}
330
47
100
AcDbScale
 70
     0
300
1" = 1'-0"
140
1.0
141
12.0
290
     0
  0
SCALE
  5
65
102
{ACAD_REACTORS
330
47
102
}
330
47
100
AcDbScale
 70
     0
300
1-1/2" = 1'-0"
140
1.5
141
12.0
290
     0
  0
SCALE
  5
66
102
{ACAD_REACTORS
330
47
102
}
330
47
100
AcDbScale
 70
     0
300
3" = 1'-0"
140
3.0
141
12.0
290
     0
  0
SCALE
  5
67
102
{ACAD_REACTORS
330
47
102
}
330
47
100
AcDbScale
 70
     0
300
6" = 1'-0"
140
6.0
141
12.0
290
     0
  0
SCALE
  5
68
102
{ACAD_REACTORS
330
47
102
}
330
47
100
AcDbScale
 70
     0
300
1'-0" = 1'-0"
140
12.0
141
12.0
290
     0
  0
ENDSEC
  0
EOF
