  0
SECTION
  2
HEADER
  9
$ACADVER
  1
AC1015
  9
$ACADMAINTVER
 70
     6
  9
$DWGCODEPAGE
  3
ANSI_1252
  9
$INSBASE
 10
0.0
 20
0.0
 30
0.0
  9
$EXTMIN
 10
0.0
 20
0.0
 30
0.0
  9
$EXTMAX
 10
297.0
 20
210.0
 30
0.0
  9
$LIMMIN
 10
0.0
 20
0.0
  9
$LIMMAX
 10
297.0
 20
210.0
  9
$ORTHOMODE
 70
     0
  9
$REGENMODE
 70
     1
  9
$FILLMODE
 70
     1
  9
$QTEXTMODE
 70
     0
  9
$MIRRTEXT
 70
     1
  9
$LTSCALE
 40
1.0
  9
$ATTMODE
 70
     1
  9
$TEXTSIZE
 40
2.0
  9
$TRACEWID
 40
1.0
  9
$TEXTSTYLE
  7
Standard
  9
$CLAYER
  8
0
  9
$CELTYPE
  6
ByLayer
  9
$CECOLOR
 62
   256
  9
$CELTSCALE
 40
1.0
  9
$DISPSILH
 70
     0
  9
$DIMSCALE
 40
1.0
  9
$DIMASZ
 40
3.0
  9
$DIMEXO
 40
0.0
  9
$DIMDLI
 40
3.75
  9
$DIMRND
 40
0.0
  9
$DIMDLE
 40
0.0
  9
$DIMEXE
 40
1.0
  9
$DIMTP
 40
0.0
  9
$DIMTM
 40
0.0
  9
$DIMTXT
 40
2.0
  9
$DIMCEN
 40
2.5
  9
$DIMTSZ
 40
0.0
  9
$DIMTOL
 70
     0
  9
$DIMLIM
 70
     0
  9
$DIMTIH
 70
     1
  9
$DIMTOH
 70
     1
  9
$DIMSE1
 70
     0
  9
$DIMSE2
 70
     0
  9
$DIMTAD
 70
     1
  9
$DIMZIN
 70
     0
  9
$DIMBLK
  1

  9
$DIMASO
 70
     1
  9
$DIMSHO
 70
     1
  9
$DIMPOST
  1

  9
$DIMAPOST
  1

  9
$DIMALT
 70
     0
  9
$DIMALTD
 70
     3
  9
$DIMALTF
 40
0.0393700787
  9
$DIMLFAC
 40
1.0
  9
$DIMTOFL
 70
     1
  9
$DIMTVP
 40
0.0
  9
$DIMTIX
 70
     0
  9
$DIMSOXD
 70
     0
  9
$DIMSAH
 70
     0
  9
$DIMBLK1
  1

  9
$DIMBLK2
  1

  9
$DIMSTYLE
  2
ISO-25
  9
$DIMCLRD
 70
     0
  9
$DIMCLRE
 70
     0
  9
$DIMCLRT
 70
     0
  9
$DIMTFAC
 40
1.0
  9
$DIMGAP
 40
1.524
  9
$DIMJUST
 70
     0
  9
$DIMSD1
 70
     0
  9
$DIMSD2
 70
     0
  9
$DIMTOLJ
 70
     0
  9
$DIMTZIN
 70
     0
  9
$DIMALTZ
 70
     0
  9
$DIMALTTZ
 70
     0
  9
$DIMUPT
 70
     0
  9
$DIMDEC
 70
     2
  9
$DIMTDEC
 70
     3
  9
$DIMALTU
 70
     2
  9
$DIMALTTD
 70
     3
  9
$DIMTXSTY
  7
Standard
  9
$DIMAUNIT
 70
     0
  9
$DIMADEC
 70
     2
  9
$DIMALTRND
 40
0.0
  9
$DIMAZIN
 70
     0
  9
$DIMDSEP
 70
    44
  9
$DIMATFIT
 70
     3
  9
$DIMFRAC
 70
     0
  9
$DIMLDRBLK
  1

  9
$DIMLUNIT
 70
     2
  9
$DIMLWD
 70
    -2
  9
$DIMLWE
 70
    -2
  9
$DIMTMOVE
 70
     0
  9
$LUNITS
 70
     2
  9
$LUPREC
 70
     2
  9
$SKETCHINC
 40
1.0
  9
$FILLETRAD
 40
10.0
  9
$AUNITS
 70
     0
  9
$AUPREC
 70
     2
  9
$MENU
  1
.
  9
$ELEVATION
 40
0.0
  9
$PELEVATION
 40
0.0
  9
$THICKNESS
 40
0.0
  9
$LIMCHECK
 70
     0
  9
$CHAMFERA
 40
0.0
  9
$CHAMFERB
 40
0.0
  9
$CHAMFERC
 40
0.0
  9
$CHAMFERD
 40
0.0
  9
$SKPOLY
 70
     0
  9
$TDCREATE
 40
2457669.408495023
  9
$TDUCREATE
 40
2457669.32516169
  9
$TDUPDATE
 40
2457669.408496493
  9
$TDUUPDATE
 40
2457669.32516316
  9
$TDINDWG
 40
0.0000000116
  9
$TDUSRTIMER
 40
0.0000000116
  9
$USRTIMER
 70
     1
  9
$ANGBASE
 50
0.0
  9
$ANGDIR
 70
     0
  9
$PDMODE
 70
     0
  9
$PDSIZE
 40
-1.0
  9
$PLINEWID
 40
0.0
  9
$SPLFRAME
 70
     0
  9
$SPLINETYPE
 70
     6
  9
$SPLINESEGS
 70
     8
  9
$HANDSEED
  5
268
  9
$SURFTAB1
 70
     6
  9
$SURFTAB2
 70
     6
  9
$SURFTYPE
 70
     6
  9
$SURFU
 70
     6
  9
$SURFV
 70
     6
  9
$UCSBASE
  2

  9
$UCSNAME
  2

  9
$UCSORG
 10
0.0
 20
0.0
 30
0.0
  9
$UCSXDIR
 10
1.0
 20
0.0
 30
0.0
  9
$UCSYDIR
 10
0.0
 20
1.0
 30
0.0
  9
$UCSORTHOREF
  2

  9
$UCSORTHOVIEW
 70
     0
  9
$UCSORGTOP
 10
0.0
 20
0.0
 30
0.0
  9
$UCSORGBOTTOM
 10
0.0
 20
0.0
 30
0.0
  9
$UCSORGLEFT
 10
0.0
 20
0.0
 30
0.0
  9
$UCSORGRIGHT
 10
0.0
 20
0.0
 30
0.0
  9
$UCSORGFRONT
 10
0.0
 20
0.0
 30
0.0
  9
$UCSORGBACK
 10
0.0
 20
0.0
 30
0.0
  9
$PUCSBASE
  2

  9
$PUCSNAME
  2

  9
$PUCSORG
 10
0.0
 20
0.0
 30
0.0
  9
$PUCSXDIR
 10
1.0
 20
0.0
 30
0.0
  9
$PUCSYDIR
 10
0.0
 20
1.0
 30
0.0
  9
$PUCSORTHOREF
  2

  9
$PUCSORTHOVIEW
 70
     0
  9
$PUCSORGTOP
 10
0.0
 20
0.0
 30
0.0
  9
$PUCSORGBOTTOM
 10
0.0
 20
0.0
 30
0.0
  9
$PUCSORGLEFT
 10
0.0
 20
0.0
 30
0.0
  9
$PUCSORGRIGHT
 10
0.0
 20
0.0
 30
0.0
  9
$PUCSORGFRONT
 10
0.0
 20
0.0
 30
0.0
  9
$PUCSORGBACK
 10
0.0
 20
0.0
 30
0.0
  9
$USERI1
 70
     0
  9
$USERI2
 70
     0
  9
$USERI3
 70
     0
  9
$USERI4
 70
     0
  9
$USERI5
 70
     0
  9
$USERR1
 40
0.0
  9
$USERR2
 40
0.0
  9
$USERR3
 40
0.0
  9
$USERR4
 40
0.0
  9
$USERR5
 40
0.0
  9
$WORLDVIEW
 70
     1
  9
$SHADEDGE
 70
     3
  9
$SHADEDIF
 70
    70
  9
$TILEMODE
 70
     1
  9
$MAXACTVP
 70
    64
  9
$PINSBASE
 10
0.0
 20
0.0
 30
0.0
  9
$PLIMCHECK
 70
     0
  9
$PEXTMIN
 10
1.0000000000E+20
 20
1.0000000000E+20
 30
1.0000000000E+20
  9
$PEXTMAX
 10
-1.0000000000E+20
 20
-1.0000000000E+20
 30
-1.0000000000E+20
  9
$PLIMMIN
 10
0.0
 20
0.0
  9
$PLIMMAX
 10
420.0
 20
297.0
  9
$UNITMODE
 70
     0
  9
$VISRETAIN
 70
     1
  9
$PLINEGEN
 70
     0
  9
$PSLTSCALE
 70
     1
  9
$TREEDEPTH
 70
  3020
  9
$CMLSTYLE
  2
Standard
  9
$CMLJUST
 70
     0
  9
$CMLSCALE
 40
20.0
  9
$PROXYGRAPHICS
 70
     1
  9
$MEASUREMENT
 70
     1
  9
$CELWEIGHT
370
    -1
  9
$ENDCAPS
280
     0
  9
$JOINSTYLE
280
     0
  9
$LWDISPLAY
290
     1
  9
$INSUNITS
 70
     4
  9
$HYPERLINKBASE
  1

  9
$STYLESHEET
  1

  9
$XEDIT
290
     1
  9
$CEPSNTYPE
380
     0
  9
$PSTYLEMODE
290
     1
  9
$FINGERPRINTGUID
  2
{EB2009F7-3DF9-4993-9866-A57436B11A3C}
  9
$VERSIONGUID
  2
{FAEB1C32-E019-11D5-929B-00C0DF256EC4}
  9
$EXTNAMES
290
     1
  9
$PSVPSCALE
 40
0.0
  9
$OLESTARTUP
290
     0
  0
ENDSEC
  0
SECTION
  2
CLASSES
  0
CLASS
  1
ACDBDICTIONARYWDFLT
  2
AcDbDictionaryWithDefault
  3
ObjectDBX Classes
 90
        0
280
     0
281
     0
  0
CLASS
  1
VISUALSTYLE
  2
AcDbVisualStyle
  3
ObjectDBX Classes
 90
     4095
280
     0
281
     0
  0
CLASS
  1
MATERIAL
  2
AcDbMaterial
  3
ObjectDBX Classes
 90
     1153
280
     0
281
     0
  0
CLASS
  1
SCALE
  2
AcDbScale
  3
ObjectDBX Classes
 90
     1153
280
     0
281
     0
  0
CLASS
  1
TABLESTYLE
  2
AcDbTableStyle
  3
ObjectDBX Classes
 90
     4095
280
     0
281
     0
  0
CLASS
  1
MLEADERSTYLE
  2
AcDbMLeaderStyle
  3
ACDB_MLEADERSTYLE_CLASS
 90
     4095
280
     0
281
     0
  0
CLASS
  1
SUN
  2
AcDbSun
  3
SCENEOE
 90
     1153
280
     0
281
     0
  0
CLASS
  1
ACDBPLACEHOLDER
  2
AcDbPlaceHolder
  3
ObjectDBX Classes
 90
        0
280
     0
281
     0
  0
CLASS
  1
LAYOUT
  2
AcDbLayout
  3
ObjectDBX Classes
 90
        0
280
     0
281
     0
  0
ENDSEC
  0
SECTION
  2
TABLES
  0
TABLE
  2
VPORT
  5
8
330
0
100
AcDbSymbolTable
 70
     1
  0
VPORT
  5
29
330
8
100
AcDbSymbolTableRecord
100
AcDbViewportTableRecord
  2
*Active
 70
     0
 10
0.0
 20
0.0
 11
1.0
 21
1.0
 12
148.5
 22
105.0
 13
0.0
 23
0.0
 14
10.0
 24
10.0
 15
10.0
 25
10.0
 16
0.0
 26
0.0
 36
1.0
 17
0.0
 27
0.0
 37
0.0
 40
210.0
 41
1.4142857143
 42
50.0
 43
0.0
 44
0.0
 50
0.0
 51
0.0
 71
     0
 72
  2000
 73
     1
 74
     3
 75
     0
 76
     0
 77
     0
 78
     0
281
     0
 65
     1
110
0.0
120
0.0
130
0.0
111
1.0
121
0.0
131
0.0
112
0.0
122
1.0
132
0.0
 79
     0
146
0.0
  0
ENDTAB
  0
TABLE
  2
LTYPE
  5
5
330
0
100
AcDbSymbolTable
 70
     6
  0
LTYPE
  5
14
330
5
100
AcDbSymbolTableRecord
100
AcDbLinetypeTableRecord
  2
ByBlock
 70
     0
  3

 72
    65
 73
     0
 40
0.0
  0
LTYPE
  5
15
330
5
100
AcDbSymbolTableRecord
100
AcDbLinetypeTableRecord
  2
ByLayer
 70
     0
  3

 72
    65
 73
     0
 40
0.0
  0
LTYPE
  5
16
330
5
100
AcDbSymbolTableRecord
100
AcDbLinetypeTableRecord
  2
Continuous
 70
     0
  3
Solid line
 72
    65
 73
     0
 40
0.0
  0
LTYPE
  5
6E
330
5
100
AcDbSymbolTableRecord
100
AcDbLinetypeTableRecord
  2
HIDDEN
 70
     0
  3
Hidden __ __ __ __ __ __ __ __ __ __ __ __ __ __
 72
    65
 73
     2
 40
1.905
 49
1.27
 74
     0
 49
-0.635
 74
     0
  0
LTYPE
  5
6F
330
5
100
AcDbSymbolTableRecord
100
AcDbLinetypeTableRecord
  2
PHANTOM
 70
     0
  3
Phantom ______  __  __  ______  __  __  ______
 72
    65
 73
     6
 40
12.7
 49
6.35
 74
     0
 49
-1.27
 74
     0
 49
1.27
 74
     0
 49
-1.27
 74
     0
 49
1.27
 74
     0
 49
-1.27
 74
     0
  0
LTYPE
  5
70
330
5
100
AcDbSymbolTableRecord
100
AcDbLinetypeTableRecord
  2
CENTER
 70
     0
  3
Center ____ _ ____ _ ____ _ ____ _ ____ _ ____
 72
    65
 73
     4
 40
10.16
 49
6.35
 74
     0
 49
-1.27
 74
     0
 49
1.27
 74
     0
 49
-1.27
 74
     0
  0
LTYPE
  5
71
330
5
100
AcDbSymbolTableRecord
100
AcDbLinetypeTableRecord
  2
CENTERX2
 70
     0
  3
Center (2x) ________  __  ________  __  _____
 72
    65
 73
     4
 40
20.32
 49
12.7
 74
     0
 49
-2.54
 74
     0
 49
2.54
 74
     0
 49
-2.54
 74
     0
  0
LTYPE
  5
72
330
5
100
AcDbSymbolTableRecord
100
AcDbLinetypeTableRecord
  2
DOT2
 70
     0
  3
Dot (.5x) ........................................
 72
    65
 73
     2
 40
0.635
 49
0.0
 74
     0
 49
-0.635
 74
     0
  0
ENDTAB
  0
TABLE
  2
LAYER
  5
2
330
0
100
AcDbSymbolTable
 70
     5
  0
LAYER
  5
10
330
2
100
AcDbSymbolTableRecord
100
AcDbLayerTableRecord
  2
0
 70
     0
 62
     7
  6
Continuous
370
    -3
390
F
  0
LAYER
  5
73
330
2
100
AcDbSymbolTableRecord
100
AcDbLayerTableRecord
  2
FORMAT
 70
     0
 62
     7
  6
Continuous
370
    -3
390
F
  0
LAYER
  5
74
330
2
100
AcDbSymbolTableRecord
100
AcDbLayerTableRecord
  2
VERMASSUNG
 70
     0
 62
     7
  6
Continuous
370
    -3
390
F
  0
LAYER
  5
75
330
2
100
AcDbSymbolTableRecord
100
AcDbLayerTableRecord
  2
KOPF_DÜNN
 70
     0
 62
     7
  6
Continuous
370
    -3
390
F
  0
LAYER
  5
76
330
2
100
AcDbSymbolTableRecord
100
AcDbLayerTableRecord
  2
KOPF_DICK
 70
     0
 62
     7
  6
Continuous
370
    15
390
F
  0
ENDTAB
  0
TABLE
  2
STYLE
  5
3
330
0
100
AcDbSymbolTable
 70
     2
  0
STYLE
  5
11
330
3
100
AcDbSymbolTableRecord
100
AcDbTextStyleTableRecord
  2
Standard
 70
     0
 40
0.0
 41
1.0
 50
0.0
 71
     0
 42
2.0
  3
txt
  4

  0
STYLE
  5
77
330
3
100
AcDbSymbolTableRecord
100
AcDbTextStyleTableRecord
  2
SLDTEXTSTYLE0
 70
     0
 40
0.0
 41
0.7
 50
0.0
 71
     0
 42
2.0
  3
TXT
  4

  0
ENDTAB
  0
TABLE
  2
VIEW
  5
6
330
0
100
AcDbSymbolTable
 70
     0
  0
ENDTAB
  0
TABLE
  2
UCS
  5
7
330
0
100
AcDbSymbolTable
 70
     0
  0
ENDTAB
  0
TABLE
  2
APPID
  5
9
330
0
100
AcDbSymbolTable
 70
     1
  0
APPID
  5
12
330
9
100
AcDbSymbolTableRecord
100
AcDbRegAppTableRecord
  2
ACAD
 70
     0
  0
ENDTAB
  0
TABLE
  2
DIMSTYLE
  5
A
330
0
100
AcDbSymbolTable
 70
     2
100
AcDbDimStyleTable
  0
DIMSTYLE
105
27
330
A
100
AcDbSymbolTableRecord
100
AcDbDimStyleTableRecord
  2
ISO-25
 70
     0
 41
2.5
 42
0.625
 43
3.75
 44
1.25
 73
     0
 74
     0
 77
     1
 78
     8
140
2.5
141
2.5
143
0.0393700787
147
0.625
171
     3
172
     1
178
     0
271
     2
272
     2
274
     3
278
    44
283
     0
284
     8
340
11
  0
DIMSTYLE
105
168
102
{ACAD_REACTORS
330
167
330
174
330
180
330
18B
330
197
330
1A1
102
}
330
A
100
AcDbSymbolTableRecord
100
AcDbDimStyleTableRecord
  2
SLDDIMSTYLE0
 70
     0
 41
3.0
 44
0.0
 45
0.000000001
 73
     0
 74
     0
 77
     1
 78
    12
 79
     3
140
2.0
147
0.5
173
     1
178
     0
271
     2
272
     3
276
     2
284
    12
340
77
  0
ENDTAB
  0
TABLE
  2
BLOCK_RECORD
  5
1
330
0
100
AcDbSymbolTable
 70
     7
  0
BLOCK_RECORD
  5
1F
330
1
100
AcDbSymbolTableRecord
100
AcDbBlockTableRecord
  2
*Model_Space
340
22
  0
BLOCK_RECORD
  5
1B
330
1
100
AcDbSymbolTableRecord
100
AcDbBlockTableRecord
  2
*Paper_Space
340
1E
  0
BLOCK_RECORD
  5
23
330
1
100
AcDbSymbolTableRecord
100
AcDbBlockTableRecord
  2
*Paper_Space0
340
26
  0
BLOCK_RECORD
  5
169
330
1
100
AcDbSymbolTableRecord
100
AcDbBlockTableRecord
  2
_D
340
0
  0
BLOCK_RECORD
  5
175
330
1
100
AcDbSymbolTableRecord
100
AcDbBlockTableRecord
  2
_D_1
340
0
  0
BLOCK_RECORD
  5
181
330
1
100
AcDbSymbolTableRecord
100
AcDbBlockTableRecord
  2
_D_2
340
0
  0
BLOCK_RECORD
  5
18C
330
1
100
AcDbSymbolTableRecord
100
AcDbBlockTableRecord
  2
_D_3
340
0
  0
BLOCK_RECORD
  5
198
330
1
100
AcDbSymbolTableRecord
100
AcDbBlockTableRecord
  2
_D_4
340
0
  0
BLOCK_RECORD
  5
1A2
330
1
100
AcDbSymbolTableRecord
100
AcDbBlockTableRecord
  2
_D_5
340
0
  0
ENDTAB
  0
ENDSEC
  0
SECTION
  2
BLOCKS
  0
BLOCK
  5
20
330
1F
100
AcDbEntity
  8
0
100
AcDbBlockBegin
  2
*Model_Space
 70
     0
 10
0.0
 20
0.0
 30
0.0
  3
*Model_Space
  1

  0
ENDBLK
  5
21
330
1F
100
AcDbEntity
  8
0
100
AcDbBlockEnd
  0
BLOCK
  5
1C
330
1B
100
AcDbEntity
 67
     1
  8
0
100
AcDbBlockBegin
  2
*Paper_Space
 70
     0
 10
0.0
 20
0.0
 30
0.0
  3
*Paper_Space
  1

  0
ENDBLK
  5
1D
330
1B
100
AcDbEntity
 67
     1
  8
0
100
AcDbBlockEnd
  0
BLOCK
  5
24
330
23
100
AcDbEntity
  8
0
100
AcDbBlockBegin
  2
*Paper_Space0
 70
     0
 10
0.0
 20
0.0
 30
0.0
  3
*Paper_Space0
  1

  0
ENDBLK
  5
25
330
23
100
AcDbEntity
  8
0
100
AcDbBlockEnd
  0
BLOCK
  5
16A
330
169
100
AcDbEntity
  8
0
100
AcDbBlockBegin
  2
_D
 70
     0
 10
0.0
 20
0.0
 30
0.0
  3
_D
  1

  0
SOLID
  5
16C
330
169
100
AcDbEntity
  8
VERMASSUNG
100
AcDbTrace
 10
79.4498159978
 20
158.2320385177
 30
0.0
 11
78.9998159978
 21
155.2320385177
 31
0.0
 12
79.8998159978
 22
155.2320385177
 32
0.0
 13
79.8998159978
 23
155.2320385177
 33
0.0
  0
SOLID
  5
16D
330
169
100
AcDbEntity
  8
VERMASSUNG
100
AcDbTrace
 10
79.4498159978
 20
58.2320385177
 30
0.0
 11
79.8998159978
 21
61.2320385177
 31
0.0
 12
78.9998159978
 22
61.2320385177
 32
0.0
 13
78.9998159978
 23
61.2320385177
 33
0.0
  0
LINE
  5
16E
330
169
100
AcDbEntity
  8
VERMASSUNG
100
AcDbLine
 10
136.0434703373
 20
158.2320385177
 30
0.0
 11
78.4498159978
 21
158.2320385177
 31
0.0
  0
LINE
  5
16F
330
169
100
AcDbEntity
  8
VERMASSUNG
100
AcDbLine
 10
136.0434703373
 20
58.2320385177
 30
0.0
 11
78.4498159978
 21
58.2320385177
 31
0.0
  0
LINE
  5
170
330
169
100
AcDbEntity
  8
VERMASSUNG
100
AcDbLine
 10
79.4498159978
 20
158.2320385177
 30
0.0
 11
79.4498159978
 21
58.2320385177
 31
0.0
  0
MTEXT
  5
171
330
169
100
AcDbEntity
  8
VERMASSUNG
100
AcDbMText
 10
76.6716807416
 20
97.5286564374
 30
0.0
 40
2.0
 41
0.0
 71
     1
 72
     1
  1
HSK A 100
  7
SLDTEXTSTYLE0
 11
-7.044195017643634E-15
 21
1.0
 31
0.0
 73
     1
 44
1.0
  0
MTEXT
  5
172
330
169
100
AcDbEntity
  8
VERMASSUNG
100
AcDbMText
 10
76.8716806929
 20
111.5286568695
 30
0.0
 40
2.0
 41
0.0
 71
     1
 72
     1
  1
%%c
  7
SLDTEXTSTYLE0
 11
-7.044195017643634E-15
 21
1.0
 31
0.0
 73
     1
 44
1.0
  0
MTEXT
  5
173
330
169
100
AcDbEntity
  8
VERMASSUNG
100
AcDbMText
 10
76.8716804019
 20
115.1367347072
 30
0.0
 40
2.0
 41
0.0
 71
     1
 72
     1
  1
100
  7
SLDTEXTSTYLE0
 11
-7.044195017643634E-15
 21
1.0
 31
0.0
 73
     1
 44
1.0
  0
ENDBLK
  5
16B
330
169
100
AcDbEntity
  8
0
100
AcDbBlockEnd
  0
BLOCK
  5
176
330
175
100
AcDbEntity
  8
0
100
AcDbBlockBegin
  2
_D_1
 70
     0
 10
0.0
 20
0.0
 30
0.0
  3
_D_1
  1

  0
SOLID
  5
178
330
175
100
AcDbEntity
  8
VERMASSUNG
100
AcDbTrace
 10
226.4077972117
 20
140.2320385177
 30
0.0
 11
225.9577972117
 21
137.2320385177
 31
0.0
 12
226.8577972117
 22
137.2320385177
 32
0.0
 13
226.8577972117
 23
137.2320385177
 33
0.0
  0
SOLID
  5
179
330
175
100
AcDbEntity
  8
VERMASSUNG
100
AcDbTrace
 10
226.4077972117
 20
76.2320385177
 30
0.0
 11
226.8577972117
 21
79.2320385177
 31
0.0
 12
225.9577972117
 22
79.2320385177
 32
0.0
 13
225.9577972117
 23
79.2320385177
 33
0.0
  0
LINE
  5
17A
330
175
100
AcDbEntity
  8
VERMASSUNG
100
AcDbLine
 10
212.9434703373
 20
140.2320385177
 30
0.0
 11
227.4077972117
 21
140.2320385177
 31
0.0
  0
LINE
  5
17B
330
175
100
AcDbEntity
  8
VERMASSUNG
100
AcDbLine
 10
212.9434703373
 20
76.2320385177
 30
0.0
 11
227.4077972117
 21
76.2320385177
 31
0.0
  0
LINE
  5
17C
330
175
100
AcDbEntity
  8
VERMASSUNG
100
AcDbLine
 10
226.4077972117
 20
140.2320385177
 30
0.0
 11
226.4077972117
 21
76.2320385177
 31
0.0
  0
MTEXT
  5
17D
330
175
100
AcDbEntity
  8
VERMASSUNG
100
AcDbMText
 10
223.6296619554
 20
102.0288418133
 30
0.0
 40
2.0
 41
0.0
 71
     1
 72
     1
  1
ST6
  7
SLDTEXTSTYLE0
 11
-7.044195017643634E-15
 21
1.0
 31
0.0
 73
     1
 44
1.0
  0
MTEXT
  5
17E
330
175
100
AcDbEntity
  8
VERMASSUNG
100
AcDbMText
 10
223.8296619067
 20
107.8288417395
 30
0.0
 40
2.0
 41
0.0
 71
     1
 72
     1
  1
%%c
  7
SLDTEXTSTYLE0
 11
-7.044195017643634E-15
 21
1.0
 31
0.0
 73
     1
 44
1.0
  0
MTEXT
  5
17F
330
175
100
AcDbEntity
  8
VERMASSUNG
100
AcDbMText
 10
223.8296616157
 20
111.4373176114
 30
0.0
 40
2.0
 41
0.0
 71
     1
 72
     1
  1
64
  7
SLDTEXTSTYLE0
 11
-7.044195017643634E-15
 21
1.0
 31
0.0
 73
     1
 44
1.0
  0
ENDBLK
  5
177
330
175
100
AcDbEntity
  8
0
100
AcDbBlockEnd
  0
BLOCK
  5
182
330
181
100
AcDbEntity
  8
0
100
AcDbBlockBegin
  2
_D_2
 70
     0
 10
0.0
 20
0.0
 30
0.0
  3
_D_2
  1

  0
SOLID
  5
184
330
181
100
AcDbEntity
  8
VERMASSUNG
100
AcDbTrace
 10
220.4077972117
 20
126.2320385177
 30
0.0
 11
219.9577972117
 21
123.2320385177
 31
0.0
 12
220.8577972117
 22
123.2320385177
 32
0.0
 13
220.8577972117
 23
123.2320385177
 33
0.0
  0
SOLID
  5
185
330
181
100
AcDbEntity
  8
VERMASSUNG
100
AcDbTrace
 10
220.4077972117
 20
90.2320385177
 30
0.0
 11
220.8577972117
 21
93.2320385177
 31
0.0
 12
219.9577972117
 22
93.2320385177
 32
0.0
 13
219.9577972117
 23
93.2320385177
 33
0.0
  0
LINE
  5
186
330
181
100
AcDbEntity
  8
VERMASSUNG
100
AcDbLine
 10
196.9434703372
 20
126.2320385177
 30
0.0
 11
221.4077972117
 21
126.2320385177
 31
0.0
  0
LINE
  5
187
330
181
100
AcDbEntity
  8
VERMASSUNG
100
AcDbLine
 10
196.9434703372
 20
90.2320385177
 30
0.0
 11
221.4077972117
 21
90.2320385177
 31
0.0
  0
LINE
  5
188
330
181
100
AcDbEntity
  8
VERMASSUNG
100
AcDbLine
 10
220.4077972117
 20
126.2320385177
 30
0.0
 11
220.4077972117
 21
90.2320385177
 31
0.0
  0
MTEXT
  5
189
330
181
100
AcDbEntity
  8
VERMASSUNG
100
AcDbMText
 10
217.8296616739
 20
105.0278624106
 30
0.0
 40
2.0
 41
0.0
 71
     1
 72
     1
  1
%%c
  7
SLDTEXTSTYLE0
 11
-7.044195017643634E-15
 21
1.0
 31
0.0
 73
     1
 44
1.0
  0
MTEXT
  5
18A
330
181
100
AcDbEntity
  8
VERMASSUNG
100
AcDbMText
 10
217.8296616157
 20
108.6368346042
 30
0.0
 40
2.0
 41
0.0
 71
     1
 72
     1
  1
36
  7
SLDTEXTSTYLE0
 11
-7.044195017643634E-15
 21
1.0
 31
0.0
 73
     1
 44
1.0
  0
ENDBLK
  5
183
330
181
100
AcDbEntity
  8
0
100
AcDbBlockEnd
  0
BLOCK
  5
18D
330
18C
100
AcDbEntity
  8
0
100
AcDbBlockBegin
  2
_D_3
 70
     0
 10
0.0
 20
0.0
 30
0.0
  3
_D_3
  1

  0
ARC
  5
18F
330
18C
100
AcDbEntity
  8
VERMASSUNG
100
AcDbCircle
 10
148.9049044258
 20
176.1313814631
 30
0.0
 40
4.247059938537284
100
AcDbArc
 50
153.4349488229
 51
206.5650511771
  0
ARC
  5
190
330
18C
100
AcDbEntity
  8
VERMASSUNG
100
AcDbCircle
 10
150.2820362487
 20
176.1313814631
 30
0.0
 40
4.247059938537284
100
AcDbArc
 50
333.4349488229
 51
26.5650511771
  0
SOLID
  5
191
330
18C
100
AcDbEntity
  8
VERMASSUNG
100
AcDbTrace
 10
85.6434703373
 20
174.2320385177
 30
0.0
 11
88.6434703373
 21
173.7820385177
 31
0.0
 12
88.6434703373
 22
174.6820385177
 32
0.0
 13
88.6434703373
 23
174.6820385177
 33
0.0
  0
SOLID
  5
192
330
18C
100
AcDbEntity
  8
VERMASSUNG
100
AcDbTrace
 10
213.5434703373
 20
174.2320385177
 30
0.0
 11
210.5434703373
 21
174.6820385177
 31
0.0
 12
210.5434703373
 22
173.7820385177
 32
0.0
 13
210.5434703373
 23
173.7820385177
 33
0.0
  0
LINE
  5
193
330
18C
100
AcDbEntity
  8
VERMASSUNG
100
AcDbLine
 10
85.6434703373
 20
138.7347082603
 30
0.0
 11
85.6434703373
 21
175.2320385177
 31
0.0
  0
LINE
  5
194
330
18C
100
AcDbEntity
  8
VERMASSUNG
100
AcDbLine
 10
213.5434703373
 20
139.6320385177
 30
0.0
 11
213.5434703373
 21
175.2320385177
 31
0.0
  0
LINE
  5
195
330
18C
100
AcDbEntity
  8
VERMASSUNG
100
AcDbLine
 10
85.6434703373
 20
174.2320385177
 30
0.0
 11
213.5434703373
 21
174.2320385177
 31
0.0
  0
MTEXT
  5
196
330
18C
100
AcDbEntity
  8
VERMASSUNG
100
AcDbMText
 10
146.693718535
 20
176.8101741137
 30
0.0
 40
2.0
 41
0.0
 71
     1
 72
     1
  1
127.9
  7
SLDTEXTSTYLE0
 73
     1
 44
1.0
  0
ENDBLK
  5
18E
330
18C
100
AcDbEntity
  8
0
100
AcDbBlockEnd
  0
BLOCK
  5
199
330
198
100
AcDbEntity
  8
0
100
AcDbBlockBegin
  2
_D_4
 70
     0
 10
0.0
 20
0.0
 30
0.0
  3
_D_4
  1

  0
SOLID
  5
19B
330
198
100
AcDbEntity
  8
VERMASSUNG
100
AcDbTrace
 10
135.5434703373
 20
168.2320385177
 30
0.0
 11
138.5434703373
 21
167.7820385177
 31
0.0
 12
138.5434703373
 22
168.6820385177
 32
0.0
 13
138.5434703373
 23
168.6820385177
 33
0.0
  0
SOLID
  5
19C
330
198
100
AcDbEntity
  8
VERMASSUNG
100
AcDbTrace
 10
213.5434703373
 20
168.2320385177
 30
0.0
 11
210.5434703373
 21
168.6820385177
 31
0.0
 12
210.5434703373
 22
167.7820385177
 32
0.0
 13
210.5434703373
 23
167.7820385177
 33
0.0
  0
LINE
  5
19D
330
198
100
AcDbEntity
  8
VERMASSUNG
100
AcDbLine
 10
135.5434703373
 20
157.7320385177
 30
0.0
 11
135.5434703373
 21
169.2320385177
 31
0.0
  0
LINE
  5
19E
330
198
100
AcDbEntity
  8
VERMASSUNG
100
AcDbLine
 10
213.5434703373
 20
139.6320385177
 30
0.0
 11
213.5434703373
 21
169.2320385177
 31
0.0
  0
LINE
  5
19F
330
198
100
AcDbEntity
  8
VERMASSUNG
100
AcDbLine
 10
135.5434703373
 20
168.2320385177
 30
0.0
 11
213.5434703373
 21
168.2320385177
 31
0.0
  0
MTEXT
  5
1A0
330
198
100
AcDbEntity
  8
VERMASSUNG
100
AcDbMText
 10
173.143780327
 20
170.8101741137
 30
0.0
 40
2.0
 41
0.0
 71
     1
 72
     1
  1
78
  7
SLDTEXTSTYLE0
 73
     1
 44
1.0
  0
ENDBLK
  5
19A
330
198
100
AcDbEntity
  8
0
100
AcDbBlockEnd
  0
BLOCK
  5
1A3
330
1A2
100
AcDbEntity
  8
0
100
AcDbBlockBegin
  2
_D_5
 70
     0
 10
0.0
 20
0.0
 30
0.0
  3
_D_5
  1

  0
ARC
  5
1A5
330
1A2
100
AcDbEntity
  8
VERMASSUNG
100
AcDbCircle
 10
188.0298920675
 20
164.1313814631
 30
0.0
 40
4.247059938537323
100
AcDbArc
 50
153.4349488229
 51
206.5650511771
  0
ARC
  5
1A6
330
1A2
100
AcDbEntity
  8
VERMASSUNG
100
AcDbCircle
 10
190.0070486071
 20
164.1313814631
 30
0.0
 40
4.247059938537323
100
AcDbArc
 50
333.4349488229
 51
26.5650511771
  0
SOLID
  5
1A7
330
1A2
100
AcDbEntity
  8
VERMASSUNG
100
AcDbTrace
 10
164.4934703373
 20
162.2320385177
 30
0.0
 11
167.4934703373
 21
161.7820385177
 31
0.0
 12
167.4934703373
 22
162.6820385177
 32
0.0
 13
167.4934703373
 23
162.6820385177
 33
0.0
  0
SOLID
  5
1A8
330
1A2
100
AcDbEntity
  8
VERMASSUNG
100
AcDbTrace
 10
213.5434703373
 20
162.2320385177
 30
0.0
 11
210.5434703373
 21
162.6820385177
 31
0.0
 12
210.5434703373
 22
161.7820385177
 32
0.0
 13
210.5434703373
 23
161.7820385177
 33
0.0
  0
LINE
  5
1A9
330
1A2
100
AcDbEntity
  8
VERMASSUNG
100
AcDbLine
 10
164.4934703373
 20
156.2007783386
 30
0.0
 11
164.4934703373
 21
163.2320385177
 31
0.0
  0
LINE
  5
1AA
330
1A2
100
AcDbEntity
  8
VERMASSUNG
100
AcDbLine
 10
213.5434703373
 20
139.6320385177
 30
0.0
 11
213.5434703373
 21
163.2320385177
 31
0.0
  0
LINE
  5
1AB
330
1A2
100
AcDbEntity
  8
VERMASSUNG
100
AcDbLine
 10
164.4934703373
 20
162.2320385177
 30
0.0
 11
213.5434703373
 21
162.2320385177
 31
0.0
  0
MTEXT
  5
1AC
330
1A2
100
AcDbEntity
  8
VERMASSUNG
100
AcDbMText
 10
185.8187061766
 20
164.8101741137
 30
0.0
 40
2.0
 41
0.0
 71
     1
 72
     1
  1
49.05
  7
SLDTEXTSTYLE0
 73
     1
 44
1.0
  0
ENDBLK
  5
1A4
330
1A2
100
AcDbEntity
  8
0
100
AcDbBlockEnd
  0
ENDSEC
  0
SECTION
  2
ENTITIES
  0
MTEXT
  5
78
330
1F
100
AcDbEntity
  8
KOPF_DÜNN
100
AcDbMText
 10
13.8892156294
 20
23.8442973028
 30
0.0
 40
3.0
 41
0.0
 71
     1
 72
     1
  1
144.810.064.078
  7
SLDTEXTSTYLE0
 73
     1
 44
1.0
  0
MTEXT
  5
79
330
1F
100
AcDbEntity
  8
VERMASSUNG
100
AcDbMText
 10
13.9329988022
 20
28.8834360957
 30
0.0
 40
3.0
 41
0.0
 71
     1
 72
     1
  1
Aufnahme_Master shank ST6
  7
SLDTEXTSTYLE0
 73
     1
 44
1.0
  0
MTEXT
  5
7A
330
1F
100
AcDbEntity
  8
VERMASSUNG
100
AcDbMText
 10
98.8601118557
 20
13.8365368761
 30
0.0
 40
2.0
 41
0.0
 71
     1
 72
     1
  1
Datum: 10.06.2008
  7
SLDTEXTSTYLE0
 73
     1
 44
1.0
  0
MTEXT
  5
7B
330
1F
100
AcDbEntity
  8
VERMASSUNG
100
AcDbMText
 10
13.933048693
 20
18.0482802738
 30
0.0
 40
2.0
 41
0.0
 71
     1
 72
     1
  1
DIN 69893 HSK A 100
  7
SLDTEXTSTYLE0
 73
     1
 44
1.0
  0
MTEXT
  5
7C
330
1F
100
AcDbEntity
  8
VERMASSUNG
100
AcDbMText
 10
13.9808475933
 20
13.9090974274
 30
0.0
 40
2.0
 41
0.0
 71
     1
 72
     1
  1
Gewicht: 2879g
  7
SLDTEXTSTYLE0
 73
     1
 44
1.0
  0
LINE
  5
7D
330
1F
100
AcDbEntity
  8
0
  6
Continuous
 62
     7
370
    15
100
AcDbLine
 10
136.0434703373
 20
58.2320385177
 30
0.0
 11
140.4934703373
 21
58.2320385177
 31
0.0
  0
LINE
  5
7E
330
1F
100
AcDbEntity
  8
0
  6
Continuous
 62
     7
370
    15
100
AcDbLine
 10
140.5275431697
 20
158.2320385177
 30
0.0
 11
136.0434703373
 21
158.2320385177
 31
0.0
  0
ARC
  5
7F
330
1F
100
AcDbEntity
  8
0
  6
Continuous
 62
     7
370
    15
100
AcDbCircle
 10
136.0434703373
 20
58.7320385177
 30
0.0
 40
0.5
100
AcDbArc
 50
180.0
 51
270.0
  0
ARC
  5
80
330
1F
100
AcDbEntity
  8
0
  6
Continuous
 62
     7
370
    15
100
AcDbCircle
 10
136.0434703373
 20
157.7320385177
 30
0.0
 40
0.5
100
AcDbArc
 50
90.0
 51
180.0
  0
ARC
  5
81
330
1F
100
AcDbEntity
  8
0
  6
Continuous
 62
     7
370
    15
100
AcDbCircle
 10
134.6465334188
 20
69.6035531933
 30
0.0
 40
0.9962338214386983
100
AcDbArc
 50
25.7988228126
 51
90.0
  0
ARC
  5
82
330
1F
100
AcDbEntity
  8
0
  6
Continuous
 62
     7
370
    15
100
AcDbCircle
 10
134.6465334188
 20
146.8605238422
 30
0.0
 40
0.9962338214386932
100
AcDbArc
 50
270.0
 51
334.2011771874
  0
LINE
  5
83
330
1F
100
AcDbEntity
  8
0
  6
Continuous
 62
     7
370
    15
100
AcDbLine
 10
133.0434703373
 20
70.3497870147
 30
0.0
 11
133.8493164917
 21
70.565712841
 31
0.0
  0
LINE
  5
84
330
1F
100
AcDbEntity
  8
0
  6
Continuous
 62
     7
370
    15
100
AcDbLine
 10
133.8493164917
 20
145.8983641944
 30
0.0
 11
133.0434703373
 21
146.1142900207
 31
0.0
  0
LINE
  5
85
330
1F
100
AcDbEntity
  8
0
  6
Continuous
 62
     7
370
    15
100
AcDbLine
 10
114.062774916
 20
145.1633533764
 30
0.0
 11
95.7434703373
 21
144.2455525458
 31
0.0
  0
LINE
  5
86
330
1F
100
AcDbEntity
  8
0
  6
Continuous
 62
     7
370
    15
100
AcDbLine
 10
133.0434703373
 20
146.1142900207
 30
0.0
 11
126.9754311828
 21
145.810280043
 31
0.0
  0
LINE
  5
87
330
1F
100
AcDbEntity
  8
0
  6
Continuous
 62
     7
370
    15
100
AcDbLine
 10
126.9755544593
 20
70.6537908162
 30
0.0
 11
133.0434703373
 21
70.3497870147
 31
0.0
  0
LINE
  5
88
330
1F
100
AcDbEntity
  8
0
  6
Continuous
 62
     7
370
    15
100
AcDbLine
 10
100.7434703373
 20
71.9680234877
 30
0.0
 11
114.0634214912
 21
71.3006912655
 31
0.0
  0
ARC
  5
89
330
1F
100
AcDbEntity
  8
0
  6
Continuous
 62
     7
370
    15
100
AcDbCircle
 10
134.1081355368
 20
69.5997870147
 30
0.0
 40
1.0
100
AcDbArc
 50
90.0
 51
105.0
  0
ARC
  5
8A
330
1F
100
AcDbEntity
  8
0
  6
Continuous
 62
     7
370
    15
100
AcDbCircle
 10
134.1081355368
 20
146.8642900207
 30
0.0
 40
1.0
100
AcDbArc
 50
255.0
 51
270.0
  0
LINE
  5
8B
330
1F
100
AcDbEntity
  8
0
  6
Continuous
 62
     7
370
    15
100
AcDbLine
 10
134.1081355368
 20
70.5997870147
 30
0.0
 11
134.6465334188
 21
70.5997870147
 31
0.0
  0
LINE
  5
8C
330
1F
100
AcDbEntity
  8
0
  6
Continuous
 62
     7
370
    15
100
AcDbLine
 10
134.6465334188
 20
145.8642900207
 30
0.0
 11
134.1081355368
 21
145.8642900207
 31
0.0
  0
ARC
  5
8D
330
1F
100
AcDbEntity
  8
0
  6
Continuous
 62
     7
370
    15
100
AcDbCircle
 10
168.4934703373
 20
72.2320385177
 30
0.0
 40
4.0
100
AcDbArc
 50
90.0
 51
180.0
  0
ARC
  5
8E
330
1F
100
AcDbEntity
  8
0
  6
Continuous
 62
     7
370
    15
100
AcDbCircle
 10
168.4934703373
 20
144.2320385177
 30
0.0
 40
4.0
100
AcDbArc
 50
180.0
 51
270.0
  0
LINE
  5
8F
330
1F
100
AcDbEntity
  8
0
  6
Continuous
 62
     7
370
    15
100
AcDbLine
 10
212.9434703373
 20
76.2320385177
 30
0.0
 11
213.5434703373
 21
76.8320385177
 31
0.0
  0
LINE
  5
90
330
1F
100
AcDbEntity
  8
0
  6
Continuous
 62
     7
370
    15
100
AcDbLine
 10
213.5434703373
 20
139.6320385177
 30
0.0
 11
212.9434703373
 21
140.2320385177
 31
0.0
  0
LINE
  5
91
330
1F
100
AcDbEntity
  8
0
  6
Continuous
 62
     7
370
    15
100
AcDbLine
 10
168.4934703373
 20
76.2320385177
 30
0.0
 11
212.9434703373
 21
76.2320385177
 31
0.0
  0
LINE
  5
92
330
1F
100
AcDbEntity
  8
0
  6
Continuous
 62
     7
370
    15
100
AcDbLine
 10
212.9434703373
 20
140.2320385177
 30
0.0
 11
168.4934703373
 21
140.2320385177
 31
0.0
  0
LINE
  5
93
330
1F
100
AcDbEntity
  8
0
  6
Continuous
 62
     7
370
    15
100
AcDbLine
 10
87.2934703373
 20
75.9820385177
 30
0.0
 11
98.8434703373
 21
75.9820385177
 31
0.0
  0
ARC
  5
94
330
1F
100
AcDbEntity
  8
0
  6
Continuous
 62
     7
370
    15
100
AcDbCircle
 10
98.8434703373
 20
74.0820385177
 30
0.0
 40
1.900000000000006
100
AcDbArc
 50
35.6630613694
 51
90.0
  0
ARC
  5
95
330
1F
100
AcDbEntity
  8
0
  6
Continuous
 62
     7
370
    15
100
AcDbCircle
 10
93.8434703373
 20
142.3820385177
 30
0.0
 40
1.900000000000017
100
AcDbArc
 50
270.0
 51
310.9212832533
  0
LINE
  5
96
330
1F
100
AcDbEntity
  8
0
  6
Continuous
 62
     7
370
    15
100
AcDbLine
 10
87.2934703373
 20
140.4820385177
 30
0.0
 11
85.6941542184
 21
138.8827223988
 31
0.0
  0
LINE
  5
97
330
1F
100
AcDbEntity
  8
0
  6
Continuous
 62
     7
370
    15
100
AcDbLine
 10
85.6949915883
 20
77.5805172667
 30
0.0
 11
87.2934703373
 21
75.9820385177
 31
0.0
  0
LINE
  5
98
330
1F
100
AcDbEntity
  8
0
  6
Continuous
 62
     7
370
    15
100
AcDbLine
 10
93.8434703373
 20
140.4820385177
 30
0.0
 11
87.2934703373
 21
140.4820385177
 31
0.0
  0
SPLINE
  5
99
330
1F
100
AcDbEntity
  8
0
  6
Continuous
 62
     7
370
    15
100
AcDbSpline
210
0.0
220
0.0
230
1.0
 70
    24
 71
     3
 72
    21
 73
    17
 74
     0
 42
0.000000001
 43
0.00000001
 40
0.0
 40
0.0
 40
0.0
 40
0.0
 40
0.0332719011809874
 40
0.0998829348526887
 40
0.1332305572453924
 40
0.1904123667562559
 40
0.2475978485752903
 40
0.3640627298032692
 40
0.4825869795174541
 40
0.5369413286973703
 40
0.5912949214183522
 40
0.7028425793263733
 40
0.8161792985028548
 40
0.8620111759935551
 40
0.9539249348164335
 40
1.0
 40
1.0
 40
1.0
 40
1.0
 10
199.2255211448456
 20
105.2320385177128
 30
0.0
 10
199.1895276310161
 20
105.2320385177128
 30
0.0
 10
199.0814743587548
 20
105.2320385177128
 30
0.0
 10
198.9348586313833
 20
105.2320385177128
 30
0.0
 10
198.7595226378149
 20
105.2320385177128
 30
0.0
 10
198.5924165183015
 20
105.2320385177128
 30
0.0
 10
198.3269530191977
 20
105.2320385177128
 30
0.0
 10
197.9826087479466
 20
105.2320385177128
 30
0.0
 10
197.6338932965766
 20
105.2320385177128
 30
0.0
 10
197.3596805734612
 20
105.2320385177128
 30
0.0
 10
197.0946494163705
 20
105.2320385177128
 30
0.0
 10
196.7620428912837
 20
105.2320385177128
 30
0.0
 10
196.4484990279624
 20
105.2320385177128
 30
0.0
 10
196.164648440325
 20
105.2320385177128
 30
0.0
 10
195.960752765071
 20
105.2320385177128
 30
0.0
 10
195.8113168335898
 20
105.2320385177128
 30
0.0
 10
195.7614195297078
 20
105.2320385177128
 30
0.0
  0
SPLINE
  5
9A
330
1F
100
AcDbEntity
  8
0
  6
Continuous
 62
     7
370
    15
100
AcDbSpline
210
0.0
220
0.0
230
1.0
 70
    24
 71
     3
 72
    11
 73
     7
 74
     0
 42
0.000000001
 43
0.00000001
 40
0.0
 40
0.0
 40
0.0
 40
0.0
 40
0.2164553779443433
 40
0.4403112895790547
 40
0.7519005688038674
 40
1.0
 40
1.0
 40
1.0
 40
1.0
 10
200.9575719524145
 20
108.2320385177128
 30
0.0
 10
200.8389247938944
 20
108.0265356109823
 30
0.0
 10
200.5975739719883
 20
107.6085037249923
 30
0.0
 10
200.1496913073358
 20
106.8327481939851
 30
0.0
 10
199.6692568087529
 20
106.0006112327306
 30
0.0
 10
199.3618075795492
 20
105.4680935470019
 30
0.0
 10
199.2255211448456
 20
105.2320385177128
 30
0.0
  0
SPLINE
  5
9B
330
1F
100
AcDbEntity
  8
0
  6
Continuous
 62
     7
370
    15
100
AcDbSpline
210
0.0
220
0.0
230
1.0
 70
    24
 71
     3
 72
    18
 73
    14
 74
     0
 42
0.000000001
 43
0.00000001
 40
0.0
 40
0.0
 40
0.0
 40
0.0
 40
0.0538551658287095
 40
0.1618899270026985
 40
0.27159095758276
 40
0.3834188972616736
 40
0.4398666969750959
 40
0.5417556799070803
 40
0.6461432894603911
 40
0.7521916325929024
 40
0.8137863138507998
 40
0.9377075813487281
 40
1.0
 40
1.0
 40
1.0
 40
1.0
 10
199.2255211448456
 20
111.2320385177128
 30
0.0
 10
199.2547013924267
 20
111.1814968463249
 30
0.0
 10
199.3424179202311
 20
111.0295673635041
 30
0.0
 10
199.4937499072221
 20
110.7674526732253
 30
0.0
 10
199.6831780173787
 20
110.4393535620524
 30
0.0
 10
199.847856863868
 20
110.1541214330011
 30
0.0
 10
200.0099474256692
 20
109.873372344534
 30
0.0
 10
200.1688068892918
 20
109.5982196822764
 30
0.0
 10
200.3563901030426
 20
109.2733160254131
 30
0.0
 10
200.5164654933675
 20
108.9960573163289
 30
0.0
 10
200.6839860528721
 20
108.7059031959546
 30
0.0
 10
200.8228359137808
 20
108.4654081822369
 30
0.0
 10
200.9237979985202
 20
108.2905367218302
 30
0.0
 10
200.9575719524145
 20
108.2320385177128
 30
0.0
  0
SPLINE
  5
9C
330
1F
100
AcDbEntity
  8
0
  6
Continuous
 62
     7
370
    15
100
AcDbSpline
210
0.0
220
0.0
230
1.0
 70
    24
 71
     3
 72
    11
 73
     7
 74
     0
 42
0.000000001
 43
0.00000001
 40
0.0
 40
0.0
 40
0.0
 40
0.0
 40
0.1843643438496202
 40
0.517452639174023
 40
0.8663352079125943
 40
1.0
 40
1.0
 40
1.0
 40
1.0
 10
195.7614195297078
 20
111.2320385177128
 30
0.0
 10
195.9624365869446
 20
111.2320385177128
 30
0.0
 10
196.5266281470602
 20
111.2320385177128
 30
0.0
 10
197.5777672957767
 20
111.2320385177128
 30
0.0
 10
198.5564912501464
 20
111.2320385177128
 30
0.0
 10
199.0803994666176
 20
111.2320385177128
 30
0.0
 10
199.2255211448456
 20
111.2320385177128
 30
0.0
  0
SPLINE
  5
9D
330
1F
100
AcDbEntity
  8
0
  6
Continuous
 62
     7
370
    15
100
AcDbSpline
210
0.0
220
0.0
230
1.0
 70
    24
 71
     3
 72
    11
 73
     7
 74
     0
 42
0.000000001
 43
0.00000001
 40
0.0
 40
0.0
 40
0.0
 40
0.0
 40
0.2164553779443429
 40
0.4403112895790531
 40
0.751900568803868
 40
1.0
 40
1.0
 40
1.0
 40
1.0
 10
194.0293687221389
 20
108.2320385177128
 30
0.0
 10
194.148015880659
 20
108.4375414244433
 30
0.0
 10
194.3893667025652
 20
108.8555733104332
 30
0.0
 10
194.8372493672176
 20
109.6313288414405
 30
0.0
 10
195.3176838658005
 20
110.463465802695
 30
0.0
 10
195.6251330950042
 20
110.9959834884237
 30
0.0
 10
195.7614195297078
 20
111.2320385177128
 30
0.0
  0
SPLINE
  5
9E
330
1F
100
AcDbEntity
  8
0
  6
Continuous
 62
     7
370
    15
100
AcDbSpline
210
0.0
220
0.0
230
1.0
 70
    24
 71
     3
 72
    11
 73
     7
 74
     0
 42
0.000000001
 43
0.00000001
 40
0.0
 40
0.0
 40
0.0
 40
0.0
 40
0.2164553779443428
 40
0.4403112895790515
 40
0.7519005688038668
 40
1.0
 40
1.0
 40
1.0
 40
1.0
 10
195.7614195297078
 20
105.2320385177128
 30
0.0
 10
195.6427723711877
 20
105.4375414244433
 30
0.0
 10
195.4014215492816
 20
105.8555733104332
 30
0.0
 10
194.9535388846292
 20
106.6313288414405
 30
0.0
 10
194.4731043860463
 20
107.463465802695
 30
0.0
 10
194.1656551568425
 20
107.9959834884237
 30
0.0
 10
194.0293687221389
 20
108.2320385177128
 30
0.0
  0
CIRCLE
  5
9F
330
1F
100
AcDbEntity
  8
0
  6
Continuous
 62
     7
370
    15
100
AcDbCircle
 10
197.4934703373
 20
108.2320385177
 30
0.0
 40
3.5
  0
CIRCLE
  5
A0
330
1F
100
AcDbEntity
  8
0
  6
Continuous
 62
     7
370
    15
100
AcDbCircle
 10
197.4934703373
 20
108.2320385177
 30
0.0
 40
5.500000000000014
  0
CIRCLE
  5
A1
330
1F
100
AcDbEntity
  8
0
  6
Continuous
 62
     7
370
    15
100
AcDbCircle
 10
197.4934703373
 20
108.2320385177
 30
0.0
 40
6.000000000000014
  0
ARC
  5
A2
330
1F
100
AcDbEntity
  8
0
  6
Continuous
 62
     7
370
    15
100
AcDbCircle
 10
197.4934703373
 20
108.2320385177
 30
0.0
 40
3.0
100
AcDbArc
 50
90.0
 51
150.0
  0
ARC
  5
A3
330
1F
100
AcDbEntity
  8
0
  6
Continuous
 62
     7
370
    15
100
AcDbCircle
 10
197.4934703373
 20
108.2320385177
 30
0.0
 40
3.0
100
AcDbArc
 50
30.0
 51
90.0
  0
ARC
  5
A4
330
1F
100
AcDbEntity
  8
0
  6
Continuous
 62
     7
370
    15
100
AcDbCircle
 10
197.4934703373
 20
108.2320385177
 30
0.0
 40
2.999999999999976
100
AcDbArc
 50
150.0
 51
210.0
  0
ARC
  5
A5
330
1F
100
AcDbEntity
  8
0
  6
Continuous
 62
     7
370
    15
100
AcDbCircle
 10
197.4934703373
 20
108.2320385177
 30
0.0
 40
3.0
100
AcDbArc
 50
270.0
 51
330.0
  0
ARC
  5
A6
330
1F
100
AcDbEntity
  8
0
  6
Continuous
 62
     7
370
    15
100
AcDbCircle
 10
197.4934703373
 20
108.2320385177
 30
0.0
 40
3.0
100
AcDbArc
 50
210.0
 51
270.0
  0
ARC
  5
A7
330
1F
100
AcDbEntity
  8
0
  6
Continuous
 62
     7
370
    15
100
AcDbCircle
 10
197.4934703373
 20
108.2320385177
 30
0.0
 40
2.999999999999976
100
AcDbArc
 50
330.0
 51
30.0
  0
LINE
  5
A8
330
1F
100
AcDbEntity
  8
0
  6
Continuous
 62
     7
370
    15
100
AcDbLine
 10
140.4934703373
 20
139.5820385177
 30
0.0
 11
152.2814413164
 21
139.5820385177
 31
0.0
  0
LINE
  5
A9
330
1F
100
AcDbEntity
  8
0
  6
Continuous
 62
     7
370
    15
100
AcDbLine
 10
152.2814413164
 20
59.4570449247
 30
0.0
 11
152.2814413164
 21
139.5820385177
 31
0.0
  0
LINE
  5
AA
330
1F
100
AcDbEntity
  8
0
  6
Continuous
 62
     7
370
    15
100
AcDbLine
 10
152.2814413164
 20
59.4570449247
 30
0.0
 11
150.4934703373
 21
59.4570449247
 31
0.0
  0
SPLINE
  5
AB
330
1F
100
AcDbEntity
  8
0
  6
Continuous
 62
     7
370
    15
100
AcDbSpline
210
0.0
220
0.0
230
1.0
 70
     8
 71
     3
 72
    30
 73
    26
 74
     0
 42
0.000000001
 43
0.00000001
 40
0.0
 40
0.0
 40
0.0
 40
0.0
 40
0.1250000000000006
 40
0.1250000000000006
 40
0.187500000000001
 40
0.187500000000001
 40
0.2500000000000013
 40
0.2500000000000013
 40
0.3750000000000014
 40
0.3750000000000014
 40
0.4375000000000014
 40
0.4375000000000014
 40
0.5000000000000013
 40
0.5000000000000013
 40
0.625000000000001
 40
0.625000000000001
 40
0.6875000000000009
 40
0.6875000000000009
 40
0.7500000000000007
 40
0.7500000000000007
 40
0.8125000000000006
 40
0.8125000000000006
 40
0.8750000000000004
 40
0.8750000000000004
 40
1.0
 40
1.0
 40
1.0
 40
1.0
 10
150.4934703372767
 20
59.45704492468399
 30
0.0
 10
149.8307256434317
 20
59.457044924684
 30
0.0
 10
149.179469784316
 20
59.44220484809518
 30
0.0
 10
148.2190192460577
 20
59.39983528386558
 30
0.0
 10
147.9016278028247
 20
59.38235718108638
 30
0.0
 10
147.2724643012698
 20
59.34102889453409
 30
0.0
 10
146.9603161148281
 20
59.31710362107638
 30
0.0
 10
146.0530088129799
 20
59.23829710460948
 30
0.0
 10
145.4795838553386
 20
59.17599108463302
 30
0.0
 10
144.665706985764
 20
59.07286176439365
 30
0.0
 10
144.4009007891941
 20
59.03667784534712
 30
0.0
 10
143.8939933783797
 20
58.96288306114661
 30
0.0
 10
143.6525992270263
 20
58.92540920237499
 30
0.0
 10
142.9634577548939
 20
58.81269725903525
 30
0.0
 10
142.5504029400297
 20
58.73716116156148
 30
0.0
 10
142.0022481206546
 20
58.62876790454399
 30
0.0
 10
141.8327855133091
 20
58.59369567288072
 30
0.0
 10
141.5247682652937
 20
58.52746021228087
 30
0.0
 10
141.3853882446853
 20
58.49613351552615
 30
0.0
 10
141.1356027320585
 20
58.43772474394522
 30
0.0
 10
141.0251966194046
 20
58.41064150876239
 30
0.0
 10
140.8339387657669
 20
58.36138175414877
 30
0.0
 10
140.7528192474826
 20
58.33911977434114
 30
0.0
 10
140.5586723273742
 20
58.28155286717283
 30
0.0
 10
140.4934703372767
 20
58.25529326238686
 30
0.0
 10
140.4934703372767
 20
58.24203951791284
 30
0.0
  0
LINE
  5
AC
330
1F
100
AcDbEntity
  8
0
  6
Continuous
 62
     7
370
    15
100
AcDbLine
 10
140.4934703373
 20
58.2420395179
 30
0.0
 11
140.4934703373
 21
58.2320385177
 31
0.0
  0
SPLINE
  5
AD
330
1F
100
AcDbEntity
  8
0
  6
Continuous
 62
     7
370
    15
100
AcDbSpline
210
0.0
220
0.0
230
1.0
 70
     8
 71
     3
 72
    17
 73
    13
 74
     0
 42
0.000000001
 43
0.00000001
 40
0.0
 40
0.0
 40
0.0
 40
0.0
 40
0.1043843840547469
 40
0.2118345768143993
 40
0.3162082005190449
 40
0.4235375806108391
 40
0.5292276236193851
 40
0.637927586480349
 40
0.7444714844189682
 40
0.8541836219421858
 40
0.9593080534965216
 40
1.0
 40
1.0
 40
1.0
 40
1.0
 10
150.4934703372767
 20
157.2218333733764
 30
0.0
 10
149.9455318894173
 20
157.2272015771251
 30
0.0
 10
148.8335618349526
 20
157.2380956507901
 30
0.0
 10
147.2207059217376
 20
157.323273025049
 30
0.0
 10
145.6871927047607
 20
157.4496477313415
 30
0.0
 10
144.2961718554241
 20
157.6065505519184
 30
0.0
 10
143.0606553381937
 20
157.7782493814389
 30
0.0
 10
142.0372995710385
 20
157.94358565754
 30
0.0
 10
141.2369575727733
 20
158.0872991371265
 30
0.0
 10
140.7266254708598
 20
158.1854539443057
 30
0.0
 10
140.4867170420353
 20
158.2333823411756
 30
0.0
 10
140.5186358214551
 20
158.227014941936
 30
0.0
 10
140.5275431697373
 20
158.2252380368128
 30
0.0
  0
LINE
  5
AE
330
1F
100
AcDbEntity
  8
0
  6
Continuous
 62
     7
370
    15
100
AcDbLine
 10
152.2814413164
 20
157.2218333734
 30
0.0
 11
150.4934703373
 21
157.2218333734
 31
0.0
  0
LINE
  5
AF
330
1F
100
AcDbEntity
  8
0
  6
Continuous
 62
     7
370
    15
100
AcDbLine
 10
152.2814413164
 20
147.1830012786
 30
0.0
 11
152.2814413164
 21
157.2218333734
 31
0.0
  0
LINE
  5
B0
330
1F
100
AcDbEntity
  8
0
  6
Continuous
 62
     7
370
    15
100
AcDbLine
 10
150.2014371855
 20
147.1830012786
 30
0.0
 11
152.2814413164
 21
147.1830012786
 31
0.0
  0
SPLINE
  5
B1
330
1F
100
AcDbEntity
  8
0
  6
Continuous
 62
     7
370
    15
100
AcDbSpline
210
0.0
220
0.0
230
1.0
 70
     8
 71
     3
 72
    22
 73
    18
 74
     0
 42
0.000000001
 43
0.00000001
 40
0.0
 40
0.0
 40
0.0
 40
0.0
 40
0.2500000000000001
 40
0.2500000000000001
 40
0.3750000000000002
 40
0.3750000000000002
 40
0.5000000000000002
 40
0.5000000000000002
 40
0.6250000000000001
 40
0.6250000000000001
 40
0.7500000000000001
 40
0.7500000000000001
 40
0.875
 40
0.875
 40
0.9375
 40
0.9375
 40
1.0
 40
1.0
 40
1.0
 40
1.0
 10
140.4934703372767
 20
139.5820385177128
 30
0.0
 10
140.6961952931958
 20
140.6012848595774
 30
0.0
 10
141.0109390149912
 20
141.5603930095167
 30
0.0
 10
141.7189944846621
 20
142.902872087026
 30
0.0
 10
141.9974571148798
 20
143.337080669766
 30
0.0
 10
142.636224521517
 20
144.1487083852681
 30
0.0
 10
142.9966382013072
 20
144.527988678205
 30
0.0
 10
143.8141704332965
 20
145.2309472572259
 30
0.0
 10
144.2753384165836
 20
145.5559760749266
 30
0.0
 10
145.2733286630674
 20
146.1209913983174
 30
0.0
 10
145.8130878570597
 20
146.364694992524
 30
0.0
 10
146.987680821091
 20
146.7688949201689
 30
0.0
 10
147.5994170070828
 20
146.9213321132144
 30
0.0
 10
148.5513262319446
 20
147.0766596608231
 30
0.0
 10
148.8745593962052
 20
147.1161644408732
 30
0.0
 10
149.5336225674804
 20
147.1694735615418
 30
0.0
 10
149.8676865780544
 20
147.1830012785997
 30
0.0
 10
150.201437185456
 20
147.1830012785997
 30
0.0
  0
LINE
  5
B2
330
1F
100
AcDbEntity
  8
0
  6
Continuous
 62
     7
370
    15
100
AcDbLine
 10
153.6334703373
 20
61.8606502307
 30
0.0
 11
153.6334703373
 21
139.5820385177
 31
0.0
  0
SPLINE
  5
B3
330
1F
100
AcDbEntity
  8
0
  6
Continuous
 62
     7
370
    15
100
AcDbSpline
210
0.0
220
0.0
230
1.0
 70
     8
 71
     3
 72
     8
 73
     4
 74
     0
 42
0.000000001
 43
0.00000001
 40
0.0
 40
0.0
 40
0.0
 40
0.0
 40
1.0
 40
1.0
 40
1.0
 40
1.0
 10
153.6334703372767
 20
61.86065023068932
 30
0.0
 10
153.1832438729989
 20
61.05919486806456
 30
0.0
 10
152.7325460457555
 20
60.2580048565039
 30
0.0
 10
152.2814413163553
 20
59.45704492468398
 30
0.0
  0
SPLINE
  5
B4
330
1F
100
AcDbEntity
  8
0
  6
Continuous
 62
     7
370
    15
100
AcDbSpline
210
0.0
220
0.0
230
1.0
 70
    24
 71
     3
 72
     8
 73
     4
 74
     0
 42
0.000000001
 43
0.00000001
 40
0.0
 40
0.0
 40
0.0
 40
0.0
 40
1.0
 40
1.0
 40
1.0
 40
1.0
 10
152.2814413163553
 20
139.5820385177128
 30
0.0
 10
152.7382428886835
 20
139.5820385177128
 30
0.0
 10
153.1892574549228
 20
139.5820385177128
 30
0.0
 10
153.6334703372767
 20
139.5820385177128
 30
0.0
  0
LINE
  5
B5
330
1F
100
AcDbEntity
  8
0
  6
Continuous
 62
     7
370
    15
100
AcDbLine
 10
135.5434703373
 20
58.7320385177
 30
0.0
 11
135.5434703373
 21
157.7320385131
 31
0.0
  0
LINE
  5
B6
330
1F
100
AcDbEntity
  8
0
  6
Continuous
 62
     7
370
    15
100
AcDbLine
 10
163.4934703373
 20
59.4570449247
 30
0.0
 11
158.8054993582
 21
59.4570449247
 31
0.0
  0
LINE
  5
B7
330
1F
100
AcDbEntity
  8
0
  6
Continuous
 62
     7
370
    15
100
AcDbLine
 10
158.8054993582
 20
59.4570449247
 30
0.0
 11
158.8054993582
 21
139.5820385177
 31
0.0
  0
LINE
  5
B8
330
1F
100
AcDbEntity
  8
0
  6
Continuous
 62
     7
370
    15
100
AcDbLine
 10
158.8054993582
 20
139.5820385177
 30
0.0
 11
163.4934703373
 21
139.5820385177
 31
0.0
  0
SPLINE
  5
B9
330
1F
100
AcDbEntity
  8
0
  6
Continuous
 62
     7
370
    15
100
AcDbSpline
210
0.0
220
0.0
230
1.0
 70
     8
 71
     3
 72
     8
 73
     4
 74
     0
 42
0.000000001
 43
0.00000001
 40
0.0
 40
0.0
 40
0.0
 40
0.0
 40
1.0
 40
1.0
 40
1.0
 40
1.0
 10
158.8054993581981
 20
59.45704492468399
 30
0.0
 10
158.3543946287978
 20
60.25800485650391
 30
0.0
 10
157.9036968015545
 20
61.05919486806457
 30
0.0
 10
157.4534703372767
 20
61.86065023068933
 30
0.0
  0
LINE
  5
BA
330
1F
100
AcDbEntity
  8
0
  6
Continuous
 62
     7
370
    15
100
AcDbLine
 10
157.4534703373
 20
61.8606502307
 30
0.0
 11
157.4534703373
 21
139.5820385177
 31
0.0
  0
SPLINE
  5
BB
330
1F
100
AcDbEntity
  8
0
  6
Continuous
 62
     7
370
    15
100
AcDbSpline
210
0.0
220
0.0
230
1.0
 70
    24
 71
     3
 72
     8
 73
     4
 74
     0
 42
0.000000001
 43
0.00000001
 40
0.0
 40
0.0
 40
0.0
 40
0.0
 40
1.0
 40
1.0
 40
1.0
 40
1.0
 10
157.4534703372767
 20
139.5820385177128
 30
0.0
 10
157.8976832196306
 20
139.5820385177128
 30
0.0
 10
158.3486977858699
 20
139.5820385177128
 30
0.0
 10
158.8054993581981
 20
139.5820385177128
 30
0.0
  0
LINE
  5
BC
330
1F
100
AcDbEntity
  8
0
  6
Continuous
 62
     7
370
    15
100
AcDbLine
 10
164.4934703373
 20
60.4826929725
 30
0.0
 11
164.4934703373
 21
139.5820385177
 31
0.0
  0
SPLINE
  5
BD
330
1F
100
AcDbEntity
  8
0
  6
Continuous
 62
     7
370
    15
100
AcDbSpline
210
0.0
220
0.0
230
1.0
 70
     8
 71
     3
 72
    14
 73
    10
 74
     0
 42
0.000000001
 43
0.00000001
 40
0.0
 40
0.0
 40
0.0
 40
0.0
 40
0.25
 40
0.25
 40
0.5
 40
0.5
 40
0.75
 40
0.75
 40
1.0
 40
1.0
 40
1.0
 40
1.0
 10
164.4934703372767
 20
60.4826929724595
 30
0.0
 10
164.4934703372767
 20
60.34926727640496
 30
0.0
 10
164.4681592373658
 20
60.21741946856061
 30
0.0
 10
164.3698244735211
 20
59.9708969198665
 30
0.0
 10
164.296680469265
 20
59.85709173162596
 30
0.0
 10
164.1132424081693
 20
59.66663455467869
 30
0.0
 10
164.0015560738307
 20
59.58899969082877
 30
0.0
 10
163.7590526435245
 20
59.4847082807163
 30
0.0
 10
163.6256782148302
 20
59.45704492468395
 30
0.0
 10
163.4934703372767
 20
59.45704492468396
 30
0.0
  0
SPLINE
  5
BE
330
1F
100
AcDbEntity
  8
0
  6
Continuous
 62
     7
370
    15
100
AcDbSpline
210
0.0
220
0.0
230
1.0
 70
    24
 71
     3
 72
    12
 73
     8
 74
     0
 42
0.000000001
 43
0.00000001
 40
0.0
 40
0.0
 40
0.0
 40
0.0
 40
0.2500000000000016
 40
0.2500000000000016
 40
0.5000000000000032
 40
0.5000000000000032
 40
1.0
 40
1.0
 40
1.0
 40
1.0
 10
163.4934703372767
 20
139.5820385177128
 30
0.0
 10
163.6455605742217
 20
139.5820385177128
 30
0.0
 10
163.7940198352971
 20
139.5820385177128
 30
0.0
 10
164.0514234675628
 20
139.5820385177128
 30
0.0
 10
164.1605282154048
 20
139.5820385177128
 30
0.0
 10
164.4145876918123
 20
139.5820385177128
 30
0.0
 10
164.4934703372767
 20
139.5820385177128
 30
0.0
 10
164.4934703372767
 20
139.5820385177128
 30
0.0
  0
SPLINE
  5
BF
330
1F
100
AcDbEntity
  8
0
  6
Continuous
 62
     7
370
    15
100
AcDbSpline
210
0.0
220
0.0
230
1.0
 70
     8
 71
     3
 72
    12
 73
     8
 74
     0
 42
0.000000001
 43
0.00000001
 40
0.0
 40
0.0
 40
0.0
 40
0.0
 40
0.25
 40
0.25
 40
0.5
 40
0.5
 40
1.0
 40
1.0
 40
1.0
 40
1.0
 10
154.4334703372767
 20
63.59236305966315
 30
0.0
 10
154.3277096839278
 20
63.59236305966316
 30
0.0
 10
154.2197220557448
 20
63.56982355366275
 30
0.0
 10
154.0251273904792
 20
63.48525292166746
 30
0.0
 10
153.9362554776404
 20
63.42277126890865
 30
0.0
 10
153.7170631853145
 20
63.19338231743649
 30
0.0
 10
153.6334703372766
 20
62.9807989799141
 30
0.0
 10
153.6334703372766
 20
62.7688597353179
 30
0.0
  0
SPLINE
  5
C0
330
1F
100
AcDbEntity
  8
0
  6
Continuous
 62
     7
370
    15
100
AcDbSpline
210
0.0
220
0.0
230
1.0
 70
    24
 71
     3
 72
    14
 73
    10
 74
     0
 42
0.000000001
 43
0.00000001
 40
0.0
 40
0.0
 40
0.0
 40
0.0
 40
0.25
 40
0.25
 40
0.5
 40
0.5
 40
0.75
 40
0.75
 40
1.0
 40
1.0
 40
1.0
 40
1.0
 10
153.6334703372767
 20
139.5820385177128
 30
0.0
 10
153.6334703372767
 20
139.5820385177128
 30
0.0
 10
153.6491846577426
 20
139.5820385177128
 30
0.0
 10
153.712868636211
 20
139.5820385177128
 30
0.0
 10
153.7614718306215
 20
139.5820385177128
 30
0.0
 10
153.894155353047
 20
139.5820385177128
 30
0.0
 10
153.9792574573577
 20
139.5820385177128
 30
0.0
 10
154.1856996922677
 20
139.5820385177128
 30
0.0
 10
154.3097806338908
 20
139.5820385177128
 30
0.0
 10
154.4334703372767
 20
139.5820385177128
 30
0.0
  0
SPLINE
  5
C1
330
1F
100
AcDbEntity
  8
0
  6
Continuous
 62
     7
370
    15
100
AcDbSpline
210
0.0
220
0.0
230
1.0
 70
     8
 71
     3
 72
    14
 73
    10
 74
     0
 42
0.000000001
 43
0.00000001
 40
0.0
 40
0.0
 40
0.0
 40
0.0
 40
0.25
 40
0.25
 40
0.5
 40
0.5
 40
0.75
 40
0.75
 40
1.0
 40
1.0
 40
1.0
 40
1.0
 10
157.4534703372767
 20
62.7688597353179
 30
0.0
 10
157.4534703372767
 20
62.8759038163123
 30
0.0
 10
157.4333526501185
 20
62.98113895655474
 30
0.0
 10
157.3548614608529
 20
63.17898944340241
 30
0.0
 10
157.2967048360517
 20
63.27004120696734
 30
0.0
 10
157.1501895804336
 20
63.42320730089212
 30
0.0
 10
157.0615470317926
 20
63.48550174710154
 30
0.0
 10
156.8658237089922
 20
63.57029553263752
 30
0.0
 10
156.7605925179213
 20
63.59236305966315
 30
0.0
 10
156.6534703372767
 20
63.59236305966315
 30
0.0
  0
SPLINE
  5
C2
330
1F
100
AcDbEntity
  8
0
  6
Continuous
 62
     7
370
    15
100
AcDbSpline
210
0.0
220
0.0
230
1.0
 70
    24
 71
     3
 72
    14
 73
    10
 74
     0
 42
0.000000001
 43
0.00000001
 40
0.0
 40
0.0
 40
0.0
 40
0.0
 40
0.25
 40
0.25
 40
0.5
 40
0.5
 40
0.75
 40
0.75
 40
1.0
 40
1.0
 40
1.0
 40
1.0
 10
156.6534703372767
 20
139.5820385177128
 30
0.0
 10
156.7772401020418
 20
139.5820385177128
 30
0.0
 10
156.9016072060487
 20
139.5820385177128
 30
0.0
 10
157.1079636747748
 20
139.5820385177128
 30
0.0
 10
157.1932918181931
 20
139.5820385177128
 30
0.0
 10
157.3254838769084
 20
139.5820385177128
 30
0.0
 10
157.3741291206589
 20
139.5820385177128
 30
0.0
 10
157.4376649123877
 20
139.5820385177128
 30
0.0
 10
157.4534703372767
 20
139.5820385177128
 30
0.0
 10
157.4534703372767
 20
139.5820385177128
 30
0.0
  0
LINE
  5
C3
330
1F
100
AcDbEntity
  8
0
  6
Continuous
 62
     7
370
    15
100
AcDbLine
 10
156.6534703373
 20
63.5923630597
 30
0.0
 11
154.4334703373
 21
63.5923630597
 31
0.0
  0
LINE
  5
C4
330
1F
100
AcDbEntity
  8
0
  6
Continuous
 62
     7
370
    15
100
AcDbLine
 10
154.4334703373
 20
139.5820385177
 30
0.0
 11
156.6534703373
 21
139.5820385177
 31
0.0
  0
LINE
  5
C5
330
1F
100
AcDbEntity
  8
0
  6
Continuous
 62
     7
370
    15
100
AcDbLine
 10
133.0434703373
 20
70.3497870147
 30
0.0
 11
133.0434703373
 21
146.1142900207
 31
0.0
  0
LINE
  5
C6
330
1F
100
AcDbEntity
  8
0
  6
Continuous
 62
     7
370
    15
100
AcDbLine
 10
100.7434703373
 20
71.9680234877
 30
0.0
 11
100.7434703373
 21
74.3627052523
 31
0.0
  0
SPLINE
  5
C7
330
1F
100
AcDbEntity
  8
0
  6
Continuous
 62
     7
370
    15
100
AcDbSpline
210
0.0
220
0.0
230
1.0
 70
     8
 71
     3
 72
    14
 73
    10
 74
     0
 42
0.000000001
 43
0.00000001
 40
0.0
 40
0.0
 40
0.0
 40
0.0
 40
0.25
 40
0.25
 40
0.5
 40
0.5
 40
0.75
 40
0.75
 40
1.0
 40
1.0
 40
1.0
 40
1.0
 10
99.73904786593974
 20
76.06555717396927
 30
0.0
 10
99.82781644388506
 20
75.90702304266131
 30
0.0
 10
99.94953428256396
 20
75.75458036577277
 30
0.0
 10
100.1845838924208
 20
75.45744574194384
 30
0.0
 10
100.3002140786377
 20
75.31276309832647
 30
0.0
 10
100.5006190120655
 20
75.02947389582307
 30
0.0
 10
100.5860193040498
 20
74.89091990278621
 30
0.0
 10
100.7077249377671
 20
74.61953587275269
 30
0.0
 10
100.7434703372797
 20
74.48740000411806
 30
0.0
 10
100.7434703372797
 20
74.3627052523473
 30
0.0
  0
SPLINE
  5
C8
330
1F
100
AcDbEntity
  8
0
  6
Continuous
 62
     7
370
    15
100
AcDbSpline
210
0.0
220
0.0
230
1.0
 70
     8
 71
     3
 72
    14
 73
    10
 74
     0
 42
0.000000001
 43
0.00000001
 40
0.0
 40
0.0
 40
0.0
 40
0.0
 40
0.1249999999999983
 40
0.1249999999999983
 40
0.2499999999999966
 40
0.2499999999999966
 40
0.4999999999999978
 40
0.4999999999999978
 40
1.0
 40
1.0
 40
1.0
 40
1.0
 10
98.8434703372767
 20
76.69438711306938
 30
0.0
 10
98.91105263706118
 20
76.70154299817077
 30
0.0
 10
98.9835402148091
 20
76.69711852813177
 30
0.0
 10
99.11583132407502
 20
76.66741237036143
 30
0.0
 10
99.17310870346522
 20
76.64412808878318
 30
0.0
 10
99.32275913066549
 20
76.56664284893286
 30
0.0
 10
99.39647242618699
 20
76.5047910220315
 30
0.0
 10
99.58428040951323
 20
76.32011356938318
 30
0.0
 10
99.66832071587466
 20
76.19187064609196
 30
0.0
 10
99.73904786594095
 20
76.06555717396937
 30
0.0
  0
SPLINE
  5
C9
330
1F
100
AcDbEntity
  8
0
  6
Continuous
 62
     7
370
    15
100
AcDbSpline
210
0.0
220
0.0
230
1.0
 70
     8
 71
     3
 72
     8
 73
     4
 74
     0
 42
0.000000001
 43
0.00000001
 40
0.0
 40
0.0
 40
0.0
 40
0.0
 40
1.0
 40
1.0
 40
1.0
 40
1.0
 10
95.2988299491959
 20
76.27633852827759
 30
0.0
 10
96.46412825990477
 20
76.4315260001642
 30
0.0
 10
97.64874347394459
 20
76.56788463847452
 30
0.0
 10
98.8434703372767
 20
76.69438711306938
 30
0.0
  0
SPLINE
  5
CA
330
1F
100
AcDbEntity
  8
0
  6
Continuous
 62
     7
370
    15
100
AcDbSpline
210
0.0
220
0.0
230
1.0
 70
     8
 71
     3
 72
    14
 73
    10
 74
     0
 42
0.000000001
 43
0.00000001
 40
0.0
 40
0.0
 40
0.0
 40
0.0
 40
0.4999999999999972
 40
0.4999999999999972
 40
0.7499999999999971
 40
0.7499999999999971
 40
0.8749999999999986
 40
0.8749999999999986
 40
1.0
 40
1.0
 40
1.0
 40
1.0
 10
87.543395453248
 20
75.98620634914766
 30
0.0
 10
88.85169701578174
 20
75.9932210728888
 30
0.0
 10
90.15675639043855
 20
76.00862964933327
 30
0.0
 10
92.10263244192687
 20
76.06252620479995
 30
0.0
 10
92.74932994566586
 20
76.08555776940266
 30
0.0
 10
93.71317230952022
 20
76.1365002942734
 30
0.0
 10
94.0334110014543
 20
76.1562352165066
 30
0.0
 10
94.67010622779671
 20
76.20572234497816
 30
0.0
 10
94.98682163607964
 20
76.2347871239074
 30
0.0
 10
95.29882994919595
 20
76.27633852827756
 30
0.0
  0
SPLINE
  5
CB
330
1F
100
AcDbEntity
  8
0
  6
Continuous
 62
     7
370
    15
100
AcDbSpline
210
0.0
220
0.0
230
1.0
 70
     8
 71
     3
 72
    12
 73
     8
 74
     0
 42
0.000000001
 43
0.00000001
 40
0.0
 40
0.0
 40
0.0
 40
0.0
 40
0.2500000000000009
 40
0.2500000000000009
 40
0.5000000000000018
 40
0.5000000000000018
 40
1.0
 40
1.0
 40
1.0
 40
1.0
 10
93.84347033727668
 20
140.3185614092092
 30
0.0
 10
93.32477151544849
 20
140.3510841840574
 30
0.0
 10
92.8030599422435
 20
140.3743809252279
 30
0.0
 10
91.75676792574794
 20
140.41222643965
 30
0.0
 10
91.23209630007767
 20
140.4264949141462
 30
0.0
 10
89.65525027753846
 20
140.4607044016045
 30
0.0
 10
88.60029496299151
 20
140.4722039055484
 30
0.0
 10
87.54339545324629
 20
140.4778706862779
 30
0.0
  0
SPLINE
  5
CC
330
1F
100
AcDbEntity
  8
0
  6
Continuous
 62
     7
370
    15
100
AcDbSpline
210
0.0
220
0.0
230
1.0
 70
     8
 71
     3
 72
    20
 73
    16
 74
     0
 42
0.000000001
 43
0.00000001
 40
0.0
 40
0.0
 40
0.0
 40
0.0
 40
0.2500000000000003
 40
0.2500000000000003
 40
0.5000000000000007
 40
0.5000000000000007
 40
0.750000000000001
 40
0.750000000000001
 40
0.8750000000000007
 40
0.8750000000000007
 40
0.9375000000000012
 40
0.9375000000000012
 40
0.9687500000000007
 40
0.9687500000000007
 40
1.0
 40
1.0
 40
1.0
 40
1.0
 10
95.74347033727669
 20
141.9766472546974
 30
0.0
 10
95.7434703372767
 20
141.8409649349506
 30
0.0
 10
95.69475854806007
 20
141.6998779488105
 30
0.0
 10
95.52559712483486
 20
141.40780623008
 30
0.0
 10
95.40381671091653
 20
141.2561574879896
 30
0.0
 10
95.10626961616705
 20
140.9537490478365
 30
0.0
 10
94.93235701046426
 20
140.8011604117131
 30
0.0
 10
94.61294217658245
 20
140.5758896478708
 30
0.0
 10
94.49790140113521
 20
140.5011665533602
 30
0.0
 10
94.29081707711879
 20
140.4017561441031
 30
0.0
 10
94.2147092423124
 20
140.3701910517585
 30
0.0
 10
94.08331470275903
 20
140.3357476675656
 30
0.0
 10
94.03676148375759
 20
140.326696095798
 30
0.0
 10
93.94042813267689
 20
140.3165204469595
 30
0.0
 10
93.89116870932143
 20
140.3155706882845
 30
0.0
 10
93.8434703372747
 20
140.318561409199
 30
0.0
  0
LINE
  5
CD
330
1F
100
AcDbEntity
  8
0
  6
Continuous
 62
     7
370
    15
100
AcDbLine
 10
95.7434703373
 20
141.9766472547
 30
0.0
 11
95.7434703373
 21
144.2455525458
 31
0.0
  0
SPLINE
  5
CE
330
1F
100
AcDbEntity
  8
0
  6
Continuous
 62
     7
370
    15
100
AcDbSpline
210
0.0
220
0.0
230
1.0
 70
     8
 71
     3
 72
    24
 73
    20
 74
     0
 42
0.000000001
 43
0.00000001
 40
0.0
 40
0.0
 40
0.0
 40
0.0
 40
0.0002934293894792
 40
0.062808005175934
 40
0.1260453927228742
 40
0.1890746766613222
 40
0.2513200540860153
 40
0.3133304633787786
 40
0.3759158453762985
 40
0.4383740564607907
 40
0.5000631094857534
 40
0.561659398803632
 40
0.6245050380643723
 40
0.6872231506498981
 40
0.7494953263230506
 40
0.811758379753676
 40
0.8747365508229972
 40
0.9378980306234588
 40
1.0
 40
1.0
 40
1.0
 40
1.0
 10
114.0634266011161
 20
71.30079325940042
 30
0.0
 10
114.0632317482313
 20
71.30076895200644
 30
0.0
 10
114.0215238572191
 20
71.29556600035268
 30
0.0
 10
114.1666422487493
 20
71.31420062368265
 30
0.0
 10
114.5217211902913
 20
71.3567204022317
 30
0.0
 10
115.1262968278357
 20
71.42485668583325
 30
0.0
 10
115.932732136651
 20
71.49811222284933
 30
0.0
 10
116.9182095605685
 20
71.56263156366724
 30
0.0
 10
118.0498791572538
 20
71.60119579172813
 30
0.0
 10
119.2721716274147
 20
71.60489029773004
 30
0.0
 10
120.5395003088645
 20
71.56246431768062
 30
0.0
 10
121.8059858392827
 20
71.47421717689787
 30
0.0
 10
123.0221232030982
 20
71.34582390663432
 30
0.0
 10
124.1475336989467
 20
71.19318291804203
 30
0.0
 10
125.1249507604973
 20
71.03140830293678
 30
0.0
 10
125.9282162390471
 20
70.87887940983504
 30
0.0
 10
126.5167097620472
 20
70.7548656665677
 30
0.0
 10
126.905615873697
 20
70.66994174029153
 30
0.0
 10
126.9523770044362
 20
70.6592154290127
 30
0.0
 10
126.9755598109792
 20
70.65389763632108
 30
0.0
  0
SPLINE
  5
CF
330
1F
100
AcDbEntity
  8
0
  6
Continuous
 62
     7
370
    15
100
AcDbSpline
210
0.0
220
0.0
230
1.0
 70
     8
 71
     3
 72
    41
 73
    37
 74
     0
 42
0.000000001
 43
0.00000001
 40
0.0
 40
0.0
 40
0.0
 40
0.0
 40
0.0619930088509839
 40
0.1254347838145775
 40
0.1886508980472116
 40
0.2510246518033717
 40
0.3131658325488003
 40
0.3756581805174138
 40
0.4382227337755126
 40
0.4998045140815232
 40
0.5615164441950592
 40
0.6240683366165516
 40
0.6867257531767135
 40
0.7488365631577227
 40
0.8110686297815293
 40
0.8741743265521017
 40
0.9373213196239055
 40
0.9685512131825712
 40
0.984208730152181
 40
0.9920641614991338
 40
0.9960005295431176
 40
0.9979711229155214
 40
0.9989570525954502
 40
0.9994501795074999
 40
0.9996967839589611
 40
0.9998200964931961
 40
0.9998817553448917
 40
0.9999125854178162
 40
0.9999280006161619
 40
0.9999357082558221
 40
0.9999395620857765
 40
0.9999414890032835
 40
0.999942452462671
 40
0.9999434159224786
 40
0.9999502132898598
 40
0.9999999999999999
 40
0.9999999999999999
 40
0.9999999999999999
 40
0.9999999999999999
 10
126.9754384805013
 20
145.810134381153
 30
0.0
 10
126.951866835158
 20
145.8048249015031
 30
0.0
 10
126.9041726791139
 20
145.7940818605636
 30
0.0
 10
126.5121306896864
 20
145.7088527241079
 30
0.0
 10
125.9216166404136
 20
145.5842839454674
 30
0.0
 10
125.1175791943735
 20
145.4313369993158
 30
0.0
 10
124.1415037941926
 20
145.2695804453622
 30
0.0
 10
123.0196950589136
 20
145.1173476774302
 30
0.0
 10
121.8061641391243
 20
144.9895677362286
 30
0.0
 10
120.5413334327278
 20
144.901719184546
 30
0.0
 10
119.2732903952835
 20
144.8593337006754
 30
0.0
 10
118.0497830375819
 20
144.8630695086468
 30
0.0
 10
116.916284497163
 20
144.9016649790943
 30
0.0
 10
115.9301786861906
 20
144.9661043503862
 30
0.0
 10
115.1215508774072
 20
145.0396141576676
 30
0.0
 10
114.5249321822949
 20
145.1069278424789
 30
0.0
 10
114.2095408928371
 20
145.1448923937466
 30
0.0
 10
114.0994743240373
 20
145.1586914530789
 30
0.0
 10
114.0720549362267
 20
145.1621775269992
 30
0.0
 10
114.0651328853922
 20
145.1630567526932
 30
0.0
 10
114.0633646452159
 20
145.1632775272986
 30
0.0
 10
114.0629042660324
 20
145.1633327300106
 30
0.0
 10
114.0627801073619
 20
145.1633464697959
 30
0.0
 10
114.0627445528486
 20
145.1633498656294
 30
0.0
 10
114.0627334088069
 20
145.1633506939462
 30
0.0
 10
114.0627294955707
 20
145.16335089054
 30
0.0
 10
114.0627279534225
 20
145.163350934463
 30
0.0
 10
114.062727286341
 20
145.1633509427797
 30
0.0
 10
114.0627269782761
 20
145.1633509435959
 30
0.0
 10
114.0627268313508
 20
145.1633509430705
 30
0.0
 10
114.0627267586231
 20
145.1633509427127
 30
0.0
 10
114.0627267239135
 20
145.1633509423149
 30
0.0
 10
114.06272670218
 20
145.1633509423398
 30
0.0
 10
114.0627266703249
 20
145.1633509400951
 30
0.0
 10
114.0627247209845
 20
145.1633511560411
 30
0.0
 10
114.0627516558474
 20
145.1633476749104
 30
0.0
 10
114.0627753550623
 20
145.1633446119632
 30
0.0
  0
SPLINE
  5
D0
330
1F
100
AcDbEntity
  8
0
  6
Continuous
 62
     7
370
    15
100
AcDbSpline
210
0.0
220
0.0
230
1.0
 70
     8
 71
     3
 72
    20
 73
    16
 74
     0
 42
0.000000001
 43
0.00000001
 40
0.0
 40
0.0
 40
0.0
 40
0.0
 40
0.2499999999999887
 40
0.2499999999999887
 40
0.374999999999986
 40
0.374999999999986
 40
0.4374999999999881
 40
0.4374999999999881
 40
0.4999999999999901
 40
0.4999999999999901
 40
0.6249999999999891
 40
0.6249999999999891
 40
0.7499999999999881
 40
0.7499999999999881
 40
1.0
 40
1.0
 40
1.0
 40
1.0
 10
85.9342845689927
 20
77.5535553650121
 30
0.0
 10
85.96055678620613
 20
77.57287330609455
 30
0.0
 10
85.99123692846095
 20
77.58726201719632
 30
0.0
 10
86.06270779884287
 20
77.58035765536032
 30
0.0
 10
86.09073483588719
 20
77.57319165201187
 30
0.0
 10
86.14581842538476
 20
77.54349262530829
 30
0.0
 10
86.16670975393716
 20
77.53001898274697
 30
0.0
 10
86.2119184013826
 20
77.49482071723097
 30
0.0
 10
86.23632261377819
 20
77.47291248850368
 30
0.0
 10
86.30765493182963
 20
77.40078762850816
 30
0.0
 10
86.34955171664987
 20
77.34844708755809
 30
0.0
 10
86.42112767550574
 20
77.25096369565733
 30
0.0
 10
86.45195566532307
 20
77.20420992577893
 30
0.0
 10
86.53505559815868
 20
77.07091670993982
 30
0.0
 10
86.57991050352896
 20
76.9882793120246
 30
0.0
 10
86.62002257898152
 20
76.90917241723383
 30
0.0
  0
SPLINE
  5
D1
330
1F
100
AcDbEntity
  8
0
  6
Continuous
 62
     7
370
    15
100
AcDbSpline
210
0.0
220
0.0
230
1.0
 70
     8
 71
     3
 72
    14
 73
    10
 74
     0
 42
0.000000001
 43
0.00000001
 40
0.0
 40
0.0
 40
0.0
 40
0.0
 40
0.25
 40
0.25
 40
0.5
 40
0.5
 40
0.75
 40
0.75
 40
1.0
 40
1.0
 40
1.0
 40
1.0
 10
85.64347033727671
 20
77.72936877514488
 30
0.0
 10
85.64347033727671
 20
77.68812184412052
 30
0.0
 10
85.65208005365795
 20
77.65121487183804
 30
0.0
 10
85.68316623322829
 20
77.59031481193864
 30
0.0
 10
85.70555578671235
 20
77.56613389239894
 30
0.0
 10
85.76029971788847
 20
77.53216630151569
 30
0.0
 10
85.79274995747366
 20
77.52224621754749
 30
0.0
 10
85.86275147220172
 20
77.52089500864265
 30
0.0
 10
85.90096197232427
 20
77.5290532853388
 30
0.0
 10
85.93428456899736
 20
77.5535553650069
 30
0.0
  0
LINE
  5
D2
330
1F
100
AcDbEntity
  8
0
  6
Continuous
 62
     7
370
    15
100
AcDbLine
 10
85.6434703373
 20
77.7293687751
 30
0.0
 11
85.6434703373
 21
138.7347082603
 31
0.0
  0
SPLINE
  5
D3
330
1F
100
AcDbEntity
  8
0
  6
Continuous
 62
     7
370
    15
100
AcDbSpline
210
0.0
220
0.0
230
1.0
 70
     8
 71
     3
 72
     9
 73
     5
 74
     0
 42
0.000000001
 43
0.00000001
 40
0.0
 40
0.0
 40
0.0
 40
0.0
 40
0.0592950272321235
 40
0.9999999999999999
 40
0.9999999999999999
 40
0.9999999999999999
 40
0.9999999999999999
 10
85.93428456899736
 20
138.9105216704187
 30
0.0
 10
85.92940172753516
 20
138.9138145158122
 30
0.0
 10
85.8470534819888
 20
138.9693477628178
 30
0.0
 10
85.78092143150725
 20
138.9120583603053
 30
0.0
 10
85.71871068275996
 20
138.8581659344749
 30
0.0
  0
SPLINE
  5
D4
330
1F
100
AcDbEntity
  8
0
  6
Continuous
 62
     7
370
    15
100
AcDbSpline
210
0.0
220
0.0
230
1.0
 70
     8
 71
     3
 72
     8
 73
     4
 74
     0
 42
0.000000001
 43
0.00000001
 40
0.0
 40
0.0
 40
0.0
 40
0.0
 40
1.0
 40
1.0
 40
1.0
 40
1.0
 10
85.6671040062129
 20
138.8422877613504
 30
0.0
 10
85.65175496757685
 20
138.8117777063544
 30
0.0
 10
85.64347033727671
 20
138.7754661508421
 30
0.0
 10
85.64347033727671
 20
138.7347082602807
 30
0.0
  0
SPLINE
  5
D5
330
1F
100
AcDbEntity
  8
0
  6
Continuous
 62
     7
370
    15
100
AcDbSpline
210
0.0
220
0.0
230
1.0
 70
     8
 71
     3
 72
    20
 73
    16
 74
     0
 42
0.000000001
 43
0.00000001
 40
0.0
 40
0.0
 40
0.0
 40
0.0
 40
0.2499999999999868
 40
0.2499999999999868
 40
0.3749999999999822
 40
0.3749999999999822
 40
0.4999999999999776
 40
0.4999999999999776
 40
0.5624999999999778
 40
0.5624999999999778
 40
0.624999999999978
 40
0.624999999999978
 40
0.7499999999999855
 40
0.7499999999999855
 40
1.0
 40
1.0
 40
1.0
 40
1.0
 10
86.6200225789791
 20
139.554904618191
 30
0.0
 10
86.58002636115526
 20
139.4760262116335
 30
0.0
 10
86.53491273331763
 20
139.392896564942
 30
0.0
 10
86.45165851895109
 20
139.259407900591
 30
0.0
 10
86.42143919033057
 20
139.2135428447091
 30
0.0
 10
86.34935095518914
 20
139.1153512923042
 30
0.0
 10
86.30743363777808
 20
139.0630414727806
 30
0.0
 10
86.23618303322661
 20
138.9910355700461
 30
0.0
 10
86.21194722084729
 20
138.9692653577445
 30
0.0
 10
86.16634903066266
 20
138.9337906994155
 30
0.0
 10
86.14554654106293
 20
138.920420515238
 30
0.0
 10
86.09060554264386
 20
138.8908506031027
 30
0.0
 10
86.06253655455703
 20
138.8837240808008
 30
0.0
 10
85.99203372449418
 20
138.8768497093181
 30
0.0
 10
85.96060963670335
 20
138.8911648684052
 30
0.0
 10
85.93428456899471
 20
138.9105216704158
 30
0.0
  0
SPLINE
  5
D6
330
1F
100
AcDbEntity
  8
0
  6
Continuous
 62
     7
370
    15
100
AcDbSpline
210
0.0
220
0.0
230
1.0
 70
     8
 71
     3
 72
    10
 73
     6
 74
     0
 42
0.000000001
 43
0.00000001
 40
0.0
 40
0.0
 40
0.0
 40
0.0
 40
0.4999999999999989
 40
0.4999999999999989
 40
1.0
 40
1.0
 40
1.0
 40
1.0
 10
87.29347033727669
 20
140.4803237195328
 30
0.0
 10
87.1685820665265
 20
140.3493274414613
 30
0.0
 10
87.04713194846606
 20
140.2056146047963
 30
0.0
 10
86.81754797350862
 20
139.8950443121071
 30
0.0
 10
86.70727299811264
 20
139.726975239044
 30
0.0
 10
86.62002257897912
 20
139.554904618191
 30
0.0
  0
SPLINE
  5
D7
330
1F
100
AcDbEntity
  8
0
  6
Continuous
 62
     7
370
    15
100
AcDbSpline
210
0.0
220
0.0
230
1.0
 70
     8
 71
     3
 72
     8
 73
     4
 74
     0
 42
0.000000001
 43
0.00000001
 40
0.0
 40
0.0
 40
0.0
 40
0.0
 40
1.0
 40
1.0
 40
1.0
 40
1.0
 10
87.54339545324244
 20
140.4778706862774
 30
0.0
 10
87.45637742339407
 20
140.4783372510645
 30
0.0
 10
87.37342339701414
 20
140.4793772706406
 30
0.0
 10
87.29347033727439
 20
140.4803237195329
 30
0.0
  0
SPLINE
  5
D8
330
1F
100
AcDbEntity
  8
0
  6
Continuous
 62
     7
370
    15
100
AcDbSpline
210
0.0
220
0.0
230
1.0
 70
     8
 71
     3
 72
     8
 73
     4
 74
     0
 42
0.000000001
 43
0.00000001
 40
0.0
 40
0.0
 40
0.0
 40
0.0
 40
1.0
 40
1.0
 40
1.0
 40
1.0
 10
87.29347033727439
 20
75.98375331589271
 30
0.0
 10
87.37342339701465
 20
75.98469976478499
 30
0.0
 10
87.45637742339515
 20
75.98573978436112
 30
0.0
 10
87.54339545324413
 20
75.98620634914818
 30
0.0
  0
SPLINE
  5
D9
330
1F
100
AcDbEntity
  8
0
  6
Continuous
 62
     7
370
    15
100
AcDbSpline
210
0.0
220
0.0
230
1.0
 70
     8
 71
     3
 72
    10
 73
     6
 74
     0
 42
0.000000001
 43
0.00000001
 40
0.0
 40
0.0
 40
0.0
 40
0.0
 40
0.4999999999999989
 40
0.4999999999999989
 40
1.0
 40
1.0
 40
1.0
 40
1.0
 10
86.6200225789782
 20
76.90917241723639
 30
0.0
 10
86.70727299811168
 20
76.73710179638302
 30
0.0
 10
86.81754797350783
 20
76.56903272331958
 30
0.0
 10
87.04713194846566
 20
76.25846243062978
 30
0.0
 10
87.16858206652631
 20
76.1147495939645
 30
0.0
 10
87.29347033727669
 20
75.9837533158928
 30
0.0
  0
LINE
  5
DA
330
1F
100
AcDbEntity
  8
0
  6
Continuous
 62
     7
370
    15
100
AcDbLine
 10
213.5434703373
 20
108.2320385177
 30
0.0
 11
213.5434703373
 21
76.8320385177
 31
0.0
  0
LINE
  5
DB
330
1F
100
AcDbEntity
  8
0
  6
Continuous
 62
     7
370
    15
100
AcDbLine
 10
213.5434703373
 20
139.6320385177
 30
0.0
 11
213.5434703373
 21
108.2320385177
 31
0.0
  0
LINE
  5
DC
330
1F
100
AcDbEntity
  8
0
  6
Continuous
 62
     7
370
    15
100
AcDbLine
 10
212.9434703373
 20
108.2320385177
 30
0.0
 11
212.9434703373
 21
76.2320385177
 31
0.0
  0
LINE
  5
DD
330
1F
100
AcDbEntity
  8
0
  6
Continuous
 62
     7
370
    15
100
AcDbLine
 10
212.9434703373
 20
140.2320385177
 30
0.0
 11
212.9434703373
 21
108.2320385177
 31
0.0
  0
SPLINE
  5
DE
330
1F
100
AcDbEntity
  8
0
  6
Continuous
 62
     7
370
    15
100
AcDbSpline
210
0.0
220
0.0
230
1.0
 70
    11
 71
     3
 72
    95
 73
    91
 74
     0
 42
0.000000001
 43
0.00000001
 40
0.0
 40
0.0
 40
0.0
 40
0.0
 40
0.031250000000001
 40
0.031250000000001
 40
0.0625000000000021
 40
0.0625000000000021
 40
0.0937500000000031
 40
0.0937500000000031
 40
0.1093750000000036
 40
0.1093750000000036
 40
0.1250000000000041
 40
0.1406250000000047
 40
0.1406250000000047
 40
0.1562500000000052
 40
0.1562500000000052
 40
0.1875000000000063
 40
0.1875000000000063
 40
0.2031250000000069
 40
0.2031250000000069
 40
0.2187500000000074
 40
0.2187500000000074
 40
0.234375000000008
 40
0.234375000000008
 40
0.2500000000000085
 40
0.2500000000000085
 40
0.2812500000000094
 40
0.2812500000000094
 40
0.2968750000000095
 40
0.2968750000000095
 40
0.3125000000000097
 40
0.3125000000000097
 40
0.3437500000000102
 40
0.3437500000000102
 40
0.3750000000000107
 40
0.3750000000000107
 40
0.4062500000000111
 40
0.4062500000000111
 40
0.4375000000000116
 40
0.4375000000000116
 40
0.468750000000012
 40
0.468750000000012
 40
0.5000000000000125
 40
0.5000000000000125
 40
0.5156250000000124
 40
0.5156250000000124
 40
0.5312500000000122
 40
0.5312500000000122
 40
0.5625000000000112
 40
0.5625000000000112
 40
0.5781250000000108
 40
0.5781250000000108
 40
0.5937500000000103
 40
0.5937500000000103
 40
0.6250000000000091
 40
0.6250000000000091
 40
0.6406250000000085
 40
0.6406250000000085
 40
0.6562500000000079
 40
0.6562500000000079
 40
0.6718750000000073
 40
0.6718750000000073
 40
0.6875000000000067
 40
0.6875000000000067
 40
0.7187500000000054
 40
0.7187500000000054
 40
0.7343750000000048
 40
0.7343750000000048
 40
0.7500000000000042
 40
0.7500000000000042
 40
0.7656250000000037
 40
0.7656250000000037
 40
0.781250000000003
 40
0.781250000000003
 40
0.8125000000000017
 40
0.8125000000000017
 40
0.8437500000000004
 40
0.8437500000000004
 40
0.8749999999999991
 40
0.8749999999999991
 40
0.890624999999999
 40
0.890624999999999
 40
0.9062499999999988
 40
0.9062499999999988
 40
0.9374999999999989
 40
0.9374999999999989
 40
0.9531249999999992
 40
0.9531249999999992
 40
0.9687499999999996
 40
0.9687499999999996
 40
1.0
 40
1.0
 40
1.0
 40
1.0
 10
192.604216285128
 20
113.0745455027535
 30
0.0
 10
192.2539317343983
 20
112.7840723473508
 30
0.0
 10
191.9363552814288
 20
112.4643539926159
 30
0.0
 10
191.3683015289464
 20
111.7642629867434
 30
0.0
 10
191.1164855678507
 20
111.3796856556307
 30
0.0
 10
190.7072548636015
 20
110.578444998758
 30
0.0
 10
190.5465759983823
 20
110.159120261458
 30
0.0
 10
190.376315310772
 20
109.4998280454897
 30
0.0
 10
190.3315352667981
 20
109.274205512506
 30
0.0
 10
190.2689374043818
 20
108.8251240715688
 30
0.0
 10
190.2323451517487
 20
108.375243795562
 30
0.0
 10
190.2471552578073
 20
107.9237834607661
 30
0.0
 10
190.2881771564343
 20
107.4715176280966
 30
0.0
 10
190.3221534149063
 20
107.2439280114903
 30
0.0
 10
190.4610415716676
 20
106.5770741569418
 30
0.0
 10
190.602490388932
 20
106.14859578878
 30
0.0
 10
190.885044764213
 20
105.5289348505421
 30
0.0
 10
190.9913584438807
 20
105.3260665376522
 30
0.0
 10
191.2223434178558
 20
104.9369955846682
 30
0.0
 10
191.347513957293
 20
104.7495663833156
 30
0.0
 10
191.616418760287
 20
104.3882754524901
 30
0.0
 10
191.7601554880991
 20
104.2144156396678
 30
0.0
 10
192.0660155385422
 20
103.8800655490981
 30
0.0
 10
192.2283599167194
 20
103.7195627675311
 30
0.0
 10
192.7327192122078
 20
103.267046065108
 30
0.0
 10
193.0948922987871
 20
103.0002196852467
 30
0.0
 10
193.6754390615522
 20
102.6495291793461
 30
0.0
 10
193.8761984475826
 20
102.5405254655337
 30
0.0
 10
194.2841019963612
 20
102.3423981395736
 30
0.0
 10
194.4914310771076
 20
102.2530307691006
 30
0.0
 10
195.1232191950502
 20
102.0129366815652
 30
0.0
 10
195.5573968042419
 20
101.8899759342447
 30
0.0
 10
196.452086748921
 20
101.7187849611253
 30
0.0
 10
196.9047649661452
 20
101.6724803941893
 30
0.0
 10
197.8062172248629
 20
101.6568247247198
 30
0.0
 10
198.2572724972246
 20
101.6870204920843
 30
0.0
 10
199.160070916191
 20
101.8270216961197
 30
0.0
 10
199.5985210148315
 20
101.9347754036071
 30
0.0
 10
200.449935393792
 20
102.2237564994428
 30
0.0
 10
200.8645246442587
 20
102.4058147159781
 30
0.0
 10
201.6599205721785
 20
102.8461220949801
 30
0.0
 10
202.031345986465
 20
103.0988190299414
 30
0.0
 10
202.5491053685262
 20
103.5271777896695
 30
0.0
 10
202.7150828460636
 20
103.6782404615024
 30
0.0
 10
203.0332139433689
 20
103.9977744861891
 30
0.0
 10
203.1862466860523
 20
104.167385751047
 30
0.0
 10
203.615178750274
 20
104.6946381830992
 30
0.0
 10
203.8614541908853
 20
105.0696360057361
 30
0.0
 10
204.1695990341752
 20
105.6687414480782
 30
0.0
 10
204.2620277311509
 20
105.874588571676
 30
0.0
 10
204.4249693406014
 20
106.299421729266
 30
0.0
 10
204.4950155075404
 20
106.5177966416316
 30
0.0
 10
204.6655878236681
 20
107.1747045477457
 30
0.0
 10
204.7293293390655
 20
107.6207573785921
 30
0.0
 10
204.7474200899047
 20
108.3024539683464
 30
0.0
 10
204.7401791438674
 20
108.5327944344118
 30
0.0
 10
204.6996834979573
 20
108.9854748069451
 30
0.0
 10
204.6665793839157
 20
109.2092143615322
 30
0.0
 10
204.575377814615
 20
109.6516440095264
 30
0.0
 10
204.5172789498068
 20
109.8703338062642
 30
0.0
 10
204.376001929728
 20
110.302657610649
 30
0.0
 10
204.2925173740777
 20
110.5165358681771
 30
0.0
 10
204.0110496008951
 20
111.1354722322003
 30
0.0
 10
203.7808851033505
 20
111.5234268791927
 30
0.0
 10
203.3748989706658
 20
112.0704186152786
 30
0.0
 10
203.2294137715709
 20
112.2465570760411
 30
0.0
 10
202.9245588704103
 20
112.5802654755275
 30
0.0
 10
202.7644921768775
 20
112.7388193377556
 30
0.0
 10
202.429638287468
 20
113.0400210862148
 30
0.0
 10
202.2548492985154
 20
113.1826668734771
 30
0.0
 10
201.8906398273187
 20
113.4522367651368
 30
0.0
 10
201.7006358402136
 20
113.57940441732
 30
0.0
 10
201.1194400789178
 20
113.9307239461403
 30
0.0
 10
200.7141477355499
 20
114.1275009395755
 30
0.0
 10
199.8691585973487
 20
114.4495246610089
 30
0.0
 10
199.426579753952
 20
114.5746473974898
 30
0.0
 10
198.5385186182527
 20
114.7446117124969
 30
0.0
 10
198.089613726696
 20
114.791217189206
 30
0.0
 10
197.4089060586855
 20
114.8034127688347
 30
0.0
 10
197.1796458396982
 20
114.7976883560771
 30
0.0
 10
196.7254112948494
 20
114.7666817191315
 30
0.0
 10
196.500379492848
 20
114.7415254431711
 30
0.0
 10
195.8314000981455
 20
114.6377061744181
 30
0.0
 10
195.3935158378865
 20
114.5309479340561
 30
0.0
 10
194.7492197495979
 20
114.312390400639
 30
0.0
 10
194.5357711165192
 20
114.2293127486253
 30
0.0
 10
194.1209797309171
 20
114.0460507608653
 30
0.0
 10
193.9188332209476
 20
113.9456750355775
 30
0.0
 10
193.3280650507583
 20
113.6183108901199
 30
0.0
 10
192.9545008358576
 20
113.3650186581561
 30
0.0
 10
192.604216285128
 20
113.0745455027535
 30
0.0
  0
LINE
  5
DF
330
1F
100
AcDbEntity
  8
0
  6
Continuous
 62
     7
370
    15
100
AcDbLine
 10
163.4934703373
 20
157.2218333734
 30
0.0
 11
158.8054993582
 21
157.2218333734
 31
0.0
  0
LINE
  5
E0
330
1F
100
AcDbEntity
  8
0
  6
Continuous
 62
     7
370
    15
100
AcDbLine
 10
158.8054993582
 20
147.1830012786
 30
0.0
 11
163.4934703373
 21
147.1830012786
 31
0.0
  0
LINE
  5
E1
330
1F
100
AcDbEntity
  8
0
  6
Continuous
 62
     7
370
    15
100
AcDbLine
 10
158.8054993582
 20
147.1830012786
 30
0.0
 11
158.8054993582
 21
157.2218333734
 31
0.0
  0
SPLINE
  5
E2
330
1F
100
AcDbEntity
  8
0
  6
Continuous
 62
     7
370
    15
100
AcDbSpline
210
0.0
220
0.0
230
1.0
 70
     8
 71
     3
 72
     8
 73
     4
 74
     0
 42
0.000000001
 43
0.00000001
 40
0.0
 40
0.0
 40
0.0
 40
0.0
 40
1.0
 40
1.0
 40
1.0
 40
1.0
 10
158.8054993581981
 20
157.2218333733764
 30
0.0
 10
158.3544723894848
 20
156.4245228031885
 30
0.0
 10
157.9037785729612
 20
155.6270245035313
 30
0.0
 10
157.4534703372767
 20
154.8293093784177
 30
0.0
  0
SPLINE
  5
E3
330
1F
100
AcDbEntity
  8
0
  6
Continuous
 62
     7
370
    15
100
AcDbSpline
210
0.0
220
0.0
230
1.0
 70
     8
 71
     3
 72
     8
 73
     4
 74
     0
 42
0.000000001
 43
0.00000001
 40
0.0
 40
0.0
 40
0.0
 40
0.0
 40
1.0
 40
1.0
 40
1.0
 40
1.0
 10
157.4534703372767
 20
144.1274860238506
 30
0.0
 10
157.8976203483022
 20
145.1488692548023
 30
0.0
 10
158.3486946585601
 20
146.1673537915706
 30
0.0
 10
158.8054993581981
 20
147.1830012785997
 30
0.0
  0
LINE
  5
E4
330
1F
100
AcDbEntity
  8
0
  6
Continuous
 62
     7
370
    15
100
AcDbLine
 10
157.4534703373
 20
144.1274860239
 30
0.0
 11
157.4534703373
 21
154.8293093784
 31
0.0
  0
SPLINE
  5
E5
330
1F
100
AcDbEntity
  8
0
  6
Continuous
 62
     7
370
    15
100
AcDbSpline
210
0.0
220
0.0
230
1.0
 70
     8
 71
     3
 72
    14
 73
    10
 74
     0
 42
0.000000001
 43
0.00000001
 40
0.0
 40
0.0
 40
0.0
 40
0.0
 40
0.25
 40
0.25
 40
0.5
 40
0.5
 40
0.75
 40
0.75
 40
1.0
 40
1.0
 40
1.0
 40
1.0
 10
157.4534703372767
 20
153.9255897585608
 30
0.0
 10
157.4534703372767
 20
153.8192330648084
 30
0.0
 10
157.4330827811355
 20
153.7133925770483
 30
0.0
 10
157.3544484356739
 20
153.5168276635119
 30
0.0
 10
157.2957170760353
 20
153.4256569212247
 30
0.0
 10
157.1491081704327
 20
153.2737458321931
 30
0.0
 10
157.0597028504062
 20
153.2116769953736
 30
0.0
 10
156.8658121178059
 20
153.1284089476148
 30
0.0
 10
156.759307127916
 20
153.1063142778852
 30
0.0
 10
156.6534703372767
 20
153.1063142778852
 30
0.0
  0
SPLINE
  5
E6
330
1F
100
AcDbEntity
  8
0
  6
Continuous
 62
     7
370
    15
100
AcDbSpline
210
0.0
220
0.0
230
1.0
 70
     8
 71
     3
 72
    12
 73
     8
 74
     0
 42
0.000000001
 43
0.00000001
 40
0.0
 40
0.0
 40
0.0
 40
0.0
 40
0.2500000000000039
 40
0.2500000000000039
 40
0.5000000000000078
 40
0.5000000000000078
 40
1.0
 40
1.0
 40
1.0
 40
1.0
 10
156.6534703372767
 20
141.8605699307853
 30
0.0
 10
156.7771712872567
 20
141.8605699307853
 30
0.0
 10
156.9012678995269
 20
141.9025635425178
 30
0.0
 10
157.1079230626139
 20
142.0403588691622
 30
0.0
 10
157.1929638293408
 20
142.134332467627
 30
0.0
 10
157.3924423978144
 20
142.449120673848
 30
0.0
 10
157.4534703372767
 20
142.6993596660756
 30
0.0
 10
157.4534703372767
 20
142.9462737102099
 30
0.0
  0
SPLINE
  5
E7
330
1F
100
AcDbEntity
  8
0
  6
Continuous
 62
     7
370
    15
100
AcDbSpline
210
0.0
220
0.0
230
1.0
 70
     8
 71
     3
 72
    12
 73
     8
 74
     0
 42
0.000000001
 43
0.00000001
 40
0.0
 40
0.0
 40
0.0
 40
0.0
 40
0.4999999999999953
 40
0.4999999999999953
 40
0.7499999999999977
 40
0.7499999999999977
 40
1.0
 40
1.0
 40
1.0
 40
1.0
 10
164.4934703372767
 20
156.2007783385586
 30
0.0
 10
164.4934703372767
 20
156.466047771325
 30
0.0
 10
164.3888635937902
 20
156.7285628769774
 30
0.0
 10
164.1121952420449
 20
157.0141004830147
 30
0.0
 10
164.001829982693
 20
157.0904220998761
 30
0.0
 10
163.7577579340772
 20
157.1947642647162
 30
0.0
 10
163.6260054727455
 20
157.2218333733764
 30
0.0
 10
163.4934703372767
 20
157.2218333733764
 30
0.0
  0
SPLINE
  5
E8
330
1F
100
AcDbEntity
  8
0
  6
Continuous
 62
     7
370
    15
100
AcDbSpline
210
0.0
220
0.0
230
1.0
 70
     8
 71
     3
 72
    16
 73
    12
 74
     0
 42
0.000000001
 43
0.00000001
 40
0.0
 40
0.0
 40
0.0
 40
0.0
 40
0.1249999999999996
 40
0.1249999999999996
 40
0.2499999999999992
 40
0.2499999999999992
 40
0.4999999999999994
 40
0.4999999999999994
 40
0.7499999999999997
 40
0.7499999999999997
 40
1.0
 40
1.0
 40
1.0
 40
1.0
 10
163.4934703372767
 20
147.1830012785997
 30
0.0
 10
163.5691080436879
 20
147.1830012785997
 30
0.0
 10
163.6454237081061
 20
147.1716562784648
 30
0.0
 10
163.7898344459981
 20
147.1290037278263
 30
0.0
 10
163.8582808951064
 20
147.0980694031434
 30
0.0
 10
164.0532121477196
 20
146.9788130313758
 30
0.0
 10
164.1610533215005
 20
146.8686610177552
 30
0.0
 10
164.3297660697125
 20
146.6205249320972
 30
0.0
 10
164.3921304824361
 20
146.4801826080935
 30
0.0
 10
164.4734344069445
 20
146.1919109166049
 30
0.0
 10
164.4934703372767
 20
146.041105943625
 30
0.0
 10
164.4934703372767
 20
145.8907360522797
 30
0.0
  0
LINE
  5
E9
330
1F
100
AcDbEntity
  8
0
  6
Continuous
 62
     7
370
    15
100
AcDbLine
 10
164.4934703373
 20
145.8907360523
 30
0.0
 11
164.4934703373
 21
156.2007783386
 31
0.0
  0
SPLINE
  5
EA
330
1F
100
AcDbEntity
  8
0
  6
Continuous
 62
     7
370
    15
100
AcDbSpline
210
0.0
220
0.0
230
1.0
 70
     8
 71
     3
 72
     8
 73
     4
 74
     0
 42
0.000000001
 43
0.00000001
 40
0.0
 40
0.0
 40
0.0
 40
0.0
 40
1.0
 40
1.0
 40
1.0
 40
1.0
 10
153.6334703372767
 20
154.8293093784177
 30
0.0
 10
153.1831621015922
 20
155.6270245035313
 30
0.0
 10
152.7324682850686
 20
156.4245228031885
 30
0.0
 10
152.2814413163553
 20
157.2218333733764
 30
0.0
  0
LINE
  5
EB
330
1F
100
AcDbEntity
  8
0
  6
Continuous
 62
     7
370
    15
100
AcDbLine
 10
153.6334703373
 20
144.1274860239
 30
0.0
 11
153.6334703373
 21
154.8293093784
 31
0.0
  0
SPLINE
  5
EC
330
1F
100
AcDbEntity
  8
0
  6
Continuous
 62
     7
370
    15
100
AcDbSpline
210
0.0
220
0.0
230
1.0
 70
     8
 71
     3
 72
     8
 73
     4
 74
     0
 42
0.000000001
 43
0.00000001
 40
0.0
 40
0.0
 40
0.0
 40
0.0
 40
1.0
 40
1.0
 40
1.0
 40
1.0
 10
152.2814413163553
 20
147.1830012785997
 30
0.0
 10
152.7383676701548
 20
146.1670833089254
 30
0.0
 10
153.1895733119579
 20
145.1482874798343
 30
0.0
 10
153.6334703372767
 20
144.1274860238507
 30
0.0
  0
LINE
  5
ED
330
1F
100
AcDbEntity
  8
0
  6
Continuous
 62
     7
370
    15
100
AcDbLine
 10
153.6334703373
 20
144.1274860239
 30
0.0
 11
153.6334703373
 21
142.9462737102
 31
0.0
  0
SPLINE
  5
EE
330
1F
100
AcDbEntity
  8
0
  6
Continuous
 62
     7
370
    15
100
AcDbSpline
210
0.0
220
0.0
230
1.0
 70
     8
 71
     3
 72
    14
 73
    10
 74
     0
 42
0.000000001
 43
0.00000001
 40
0.0
 40
0.0
 40
0.0
 40
0.0
 40
0.25
 40
0.25
 40
0.5
 40
0.5
 40
0.75
 40
0.75
 40
1.0
 40
1.0
 40
1.0
 40
1.0
 10
153.6334703372767
 20
142.9462737102099
 30
0.0
 10
153.6334703372767
 20
142.8224068334206
 30
0.0
 10
153.6493294649043
 20
142.6981471565831
 30
0.0
 10
153.7126911104241
 20
142.4605387941773
 30
0.0
 10
153.7612808184735
 20
142.3437584094248
 30
0.0
 10
153.8935664232484
 20
142.1349558808158
 30
0.0
 10
153.978891214509
 20
142.0404451772232
 30
0.0
 10
154.1857824628152
 20
141.9024883764209
 30
0.0
 10
154.3097504087052
 20
141.8605699307852
 30
0.0
 10
154.4334703372767
 20
141.8605699307852
 30
0.0
  0
LINE
  5
EF
330
1F
100
AcDbEntity
  8
0
  6
Continuous
 62
     7
370
    15
100
AcDbLine
 10
154.4334703373
 20
141.8605699308
 30
0.0
 11
156.6534703373
 21
141.8605699308
 31
0.0
  0
LINE
  5
F0
330
1F
100
AcDbEntity
  8
0
  6
Continuous
 62
     7
370
    15
100
AcDbLine
 10
157.4534703373
 20
142.9462737102
 30
0.0
 11
157.4534703373
 21
144.1274860239
 31
0.0
  0
LINE
  5
F1
330
1F
100
AcDbEntity
  8
0
  6
Continuous
 62
     7
370
    15
100
AcDbLine
 10
164.4934703373
 20
145.8907360523
 30
0.0
 11
164.4934703373
 21
139.5820385177
 31
0.0
  0
SPLINE
  5
F2
330
1F
100
AcDbEntity
  8
0
  6
Continuous
 62
     7
370
    15
100
AcDbSpline
210
0.0
220
0.0
230
1.0
 70
     8
 71
     3
 72
    10
 73
     6
 74
     0
 42
0.000000001
 43
0.00000001
 40
0.0
 40
0.0
 40
0.0
 40
0.0
 40
0.5
 40
0.5
 40
1.0
 40
1.0
 40
1.0
 40
1.0
 10
154.4334703372767
 20
153.1063142778852
 30
0.0
 10
154.2209340234203
 20
153.1063142778852
 30
0.0
 10
154.0109978517663
 20
153.1977268645154
 30
0.0
 10
153.7172907107551
 20
153.5024717304196
 30
0.0
 10
153.6334703372767
 20
153.7146267003283
 30
0.0
 10
153.6334703372767
 20
153.9255897585608
 30
0.0
  0
LINE
  5
F3
330
1F
100
AcDbEntity
  8
0
  6
Continuous
 62
     7
370
    15
100
AcDbLine
 10
156.6534703373
 20
153.1063142779
 30
0.0
 11
154.4334703373
 21
153.1063142779
 31
0.0
  0
LINE
  5
F4
330
1F
100
AcDbEntity
  8
0
  6
Continuous
 62
     7
370
    15
100
AcDbLine
 10
87.2934703373
 20
75.9820385177
 30
0.0
 11
87.2934703373
 21
75.9837533159
 31
0.0
  0
LINE
  5
F5
330
1F
100
AcDbEntity
  8
0
  6
Continuous
 62
     7
370
    15
100
AcDbLine
 10
87.2934703373
 20
140.4820385177
 30
0.0
 11
87.2934703373
 21
140.4803237195
 31
0.0
  0
CIRCLE
  5
F6
330
1F
100
AcDbEntity
  8
0
  6
HIDDEN
 62
     7
370
     0
100
AcDbCircle
 10
197.4934703373
 20
108.2320385177
 30
0.0
 40
4.080384757729348
  0
CIRCLE
  5
F7
330
1F
100
AcDbEntity
  8
0
  6
HIDDEN
 62
     7
370
     0
100
AcDbCircle
 10
197.4934703373
 20
108.2320385177
 30
0.0
 40
3.780384757729337
  0
LINE
  5
F8
330
1F
100
AcDbEntity
  8
0
  6
HIDDEN
 62
     7
370
     0
100
AcDbLine
 10
152.2814413164
 20
147.1830012786
 30
0.0
 11
152.2814413164
 21
139.5820385177
 31
0.0
  0
LINE
  5
F9
330
1F
100
AcDbEntity
  8
0
  6
HIDDEN
 62
     7
370
     0
100
AcDbLine
 10
115.9568950867
 20
71.4962321554
 30
0.0
 11
115.6812802645
 21
71.471806158
 31
0.0
  0
SPLINE
  5
FA
330
1F
100
AcDbEntity
  8
0
  6
HIDDEN
 62
     7
370
     0
100
AcDbSpline
210
0.0
220
0.0
230
1.0
 70
     8
 71
     3
 72
    13
 73
     9
 74
     0
 42
0.000000001
 43
0.00000001
 40
0.0
 40
0.0
 40
0.0
 40
0.0
 40
0.1247123583496572
 40
0.2490591701008075
 40
0.3740782882418872
 40
0.5009715943216706
 40
0.7521524312994651
 40
1.0
 40
1.0
 40
1.0
 40
1.0
 10
114.0627753550623
 20
145.1633446119632
 30
0.0
 10
114.0685619655123
 20
145.1625683671607
 30
0.0
 10
114.0801182251761
 20
145.1610181528206
 30
0.0
 10
114.1771283419309
 20
145.1488018460711
 30
0.0
 10
114.332423877815
 20
145.1298751346933
 30
0.0
 10
114.622592156502
 20
145.0959030562769
 30
0.0
 10
115.1101480742677
 20
145.0393817328597
 30
0.0
 10
115.6758448013892
 20
144.9915733400458
 30
0.0
 10
115.9568038747476
 20
144.9678288121039
 30
0.0
  0
SPLINE
  5
FB
330
1F
100
AcDbEntity
  8
0
  6
HIDDEN
 62
     7
370
     0
100
AcDbSpline
210
0.0
220
0.0
230
1.0
 70
     8
 71
     3
 72
     9
 73
     5
 74
     0
 42
0.000000001
 43
0.00000001
 40
0.0
 40
0.0
 40
0.0
 40
0.0
 40
0.661210311289215
 40
1.0
 40
1.0
 40
1.0
 40
1.0
 10
125.7966759924677
 20
139.5983607384599
 30
0.0
 10
126.0881773117036
 20
139.6421461155
 30
0.0
 10
126.5290375255552
 20
139.7083661612139
 30
0.0
 10
126.4776234840335
 20
139.7005606742378
 30
0.0
 10
126.4602049369109
 20
139.697916255735
 30
0.0
  0
SPLINE
  5
FC
330
1F
100
AcDbEntity
  8
0
  6
HIDDEN
 62
     7
370
     0
100
AcDbSpline
210
0.0
220
0.0
230
1.0
 70
     8
 71
     3
 72
    10
 73
     6
 74
     0
 42
0.000000001
 43
0.00000001
 40
0.0
 40
0.0
 40
0.0
 40
0.0
 40
0.3219847240591231
 40
0.6558956975236689
 40
1.0
 40
1.0
 40
1.0
 40
1.0
 10
126.5401573783592
 20
76.7557301934678
 30
0.0
 10
126.5256171084597
 20
76.75762536321088
 30
0.0
 10
126.4959979999887
 20
76.76148589940307
 30
0.0
 10
126.246559579683
 20
76.79399978865973
 30
0.0
 10
125.9481327116649
 20
76.84157239092207
 30
0.0
 10
125.7966759924677
 20
76.86571629696573
 30
0.0
  0
SPLINE
  5
FD
330
1F
100
AcDbEntity
  8
0
  6
HIDDEN
 62
     7
370
     0
100
AcDbSpline
210
0.0
220
0.0
230
1.0
 70
     8
 71
     3
 72
    15
 73
    11
 74
     0
 42
0.000000001
 43
0.00000001
 40
0.0
 40
0.0
 40
0.0
 40
0.0
 40
0.1285821516379734
 40
0.2571635483376874
 40
0.3853235671991887
 40
0.5113778119466694
 40
0.6369260966772226
 40
0.7643185820319293
 40
0.8930603485208918
 40
1.0
 40
1.0
 40
1.0
 40
1.0
 10
125.7966759924677
 20
76.86571629696573
 30
0.0
 10
125.4111538712276
 20
76.92752208754966
 30
0.0
 10
124.6401118922449
 20
77.0511333058401
 30
0.0
 10
122.8615540454883
 20
77.24188188984587
 30
0.0
 10
120.8677427500487
 20
77.3295293269512
 30
0.0
 10
118.8437048428139
 20
77.28262416424877
 30
0.0
 10
117.0155962758549
 20
77.12237395650726
 30
0.0
 10
115.5841650545759
 20
76.92119459862818
 30
0.0
 10
114.6802815771003
 20
76.75865286398145
 30
0.0
 10
114.6176976393442
 20
76.74625257728113
 30
0.0
 10
114.5893003878785
 20
76.74062598885762
 30
0.0
  0
SPLINE
  5
FE
330
1F
100
AcDbEntity
  8
0
  6
HIDDEN
 62
     7
370
     0
100
AcDbSpline
210
0.0
220
0.0
230
1.0
 70
     8
 71
     3
 72
    24
 73
    20
 74
     0
 42
0.000000001
 43
0.00000001
 40
0.0
 40
0.0
 40
0.0
 40
0.0
 40
0.0203729619474675
 40
0.0822870750602626
 40
0.1459896397253444
 40
0.2080895879354082
 40
0.2719360348739571
 40
0.3350079792507122
 40
0.3998886074506654
 40
0.4632504589199172
 40
0.5284999352472104
 40
0.5909722114153432
 40
0.6552989095534102
 40
0.7170937383192266
 40
0.7806505850197494
 40
0.8430286835696726
 40
0.9071616706581621
 40
0.9532355028060499
 40
1.0
 40
1.0
 40
1.0
 40
1.0
 10
114.5623874516285
 20
139.7284442180807
 30
0.0
 10
114.5570090077327
 20
139.7294657928517
 30
0.0
 10
114.5352852928548
 20
139.7335919675374
 30
0.0
 10
114.6675587625633
 20
139.7084013558001
 30
0.0
 10
114.9534817450444
 20
139.6558338888315
 30
0.0
 10
115.4082515880224
 20
139.5774119502225
 30
0.0
 10
115.9988566411719
 20
139.485227593411
 30
0.0
 10
116.7259857314731
 20
139.3868428266544
 30
0.0
 10
117.5594900762165
 20
139.2948046236177
 30
0.0
 10
118.4889402404066
 20
139.2185626110958
 30
0.0
 10
119.4673205447648
 20
139.1686494288028
 30
0.0
 10
120.4817324741466
 20
139.1498854307085
 30
0.0
 10
121.4801780352784
 20
139.1642152880521
 30
0.0
 10
122.4567882619396
 20
139.2096700156896
 30
0.0
 10
123.3699852785465
 20
139.2800946838362
 30
0.0
 10
124.2153920096723
 20
139.3692290806148
 30
0.0
 10
124.8883894551186
 20
139.4572866798955
 30
0.0
 10
125.4184839487818
 20
139.5361505225748
 30
0.0
 10
125.6699882941983
 20
139.5775214077788
 30
0.0
 10
125.7966759924677
 20
139.5983607384599
 30
0.0
  0
LINE
  5
FF
330
1F
100
AcDbEntity
  8
0
  6
HIDDEN
 62
     7
370
     0
100
AcDbLine
 10
105.5400946643
 20
81.7320385177
 30
0.0
 11
105.5400946643
 21
134.7320385177
 31
0.0
  0
LINE
  5
100
330
1F
100
AcDbEntity
  8
0
  6
HIDDEN
 62
     7
370
     0
100
AcDbLine
 10
144.8275479556
 20
81.7320385177
 30
0.0
 11
144.8275479556
 21
134.7320385177
 31
0.0
  0
LINE
  5
101
330
1F
100
AcDbEntity
  8
0
  6
HIDDEN
 62
     7
370
     0
100
AcDbLine
 10
147.9934703373
 20
83.3570385177
 30
0.0
 11
147.9934703373
 21
133.1070385094
 31
0.0
  0
SPLINE
  5
102
330
1F
100
AcDbEntity
  8
0
  6
HIDDEN
 62
     7
370
     0
100
AcDbSpline
210
0.0
220
0.0
230
1.0
 70
     8
 71
     3
 72
    20
 73
    16
 74
     0
 42
0.000000001
 43
0.00000001
 40
0.0
 40
0.0
 40
0.0
 40
0.0
 40
0.2499999999999978
 40
0.2499999999999978
 40
0.3749999999999982
 40
0.3749999999999982
 40
0.4999999999999986
 40
0.4999999999999986
 40
0.6249999999999989
 40
0.6249999999999989
 40
0.7499999999999992
 40
0.7499999999999992
 40
0.8749999999999997
 40
0.8749999999999997
 40
1.0
 40
1.0
 40
1.0
 40
1.0
 10
95.74347033727669
 20
133.4605521481271
 30
0.0
 10
95.7434703372767
 20
133.3813491615948
 30
0.0
 10
95.69648784206396
 20
133.3002529431919
 30
0.0
 10
95.55866625128638
 20
133.180056251441
 30
0.0
 10
95.5023839673764
 20
133.1411295474389
 30
0.0
 10
95.36929911590916
 20
133.0659408150145
 30
0.0
 10
95.29145917367612
 20
133.0292986096726
 30
0.0
 10
95.11882681756177
 20
132.9617080768407
 30
0.0
 10
95.02443382047068
 20
132.9307498950651
 30
0.0
 10
94.81899651415554
 20
132.8752254736954
 30
0.0
 10
94.70665027416837
 20
132.8505169598622
 30
0.0
 10
94.47440941026875
 20
132.8107207327539
 30
0.0
 10
94.35369876784603
 20
132.7953008953569
 30
0.0
 10
94.10262790857699
 20
132.7742209205173
 30
0.0
 10
93.9731059121612
 20
132.7687436754963
 30
0.0
 10
93.84347033727668
 20
132.7687436754963
 30
0.0
  0
LINE
  5
103
330
1F
100
AcDbEntity
  8
0
  6
HIDDEN
 62
     7
370
     0
100
AcDbLine
 10
93.8434703373
 20
132.7687436755
 30
0.0
 11
87.2934703373
 21
132.7687436755
 31
0.0
  0
LINE
  5
104
330
1F
100
AcDbEntity
  8
0
  6
HIDDEN
 62
     7
370
     0
100
AcDbLine
 10
87.2934703373
 20
83.6953333599
 30
0.0
 11
98.8434703373
 21
83.6953333599
 31
0.0
  0
SPLINE
  5
105
330
1F
100
AcDbEntity
  8
0
  6
HIDDEN
 62
     7
370
     0
100
AcDbSpline
210
0.0
220
0.0
230
1.0
 70
     8
 71
     3
 72
    18
 73
    14
 74
     0
 42
0.000000001
 43
0.00000001
 40
0.0
 40
0.0
 40
0.0
 40
0.0
 40
0.1249999999999982
 40
0.1249999999999982
 40
0.2499999999999964
 40
0.2499999999999964
 40
0.4999999999999988
 40
0.4999999999999988
 40
0.7500000000000011
 40
0.7500000000000011
 40
0.8750000000000006
 40
0.8750000000000006
 40
1.0
 40
1.0
 40
1.0
 40
1.0
 10
98.8434703372767
 20
83.6953333599293
 30
0.0
 10
98.9729376502339
 20
83.69533335992928
 30
0.0
 10
99.09994839913054
 20
83.68998036133664
 30
0.0
 10
99.34931172032779
 20
83.66924238864786
 30
0.0
 10
99.47293537495624
 20
83.65357048439357
 30
0.0
 10
99.82196771189028
 20
83.59387575599148
 30
0.0
 10
100.0324794766971
 20
83.53611057631049
 30
0.0
 10
100.3763961543966
 20
83.40158873503299
 30
0.0
 10
100.5127465559144
 20
83.3239196215276
 30
0.0
 10
100.6497846124769
 20
83.20462848744026
 30
0.0
 10
100.6850036311898
 20
83.16370947830521
 30
0.0
 10
100.7316272081284
 20
83.08305348501517
 30
0.0
 10
100.7434703372767
 20
83.04308496482233
 30
0.0
 10
100.7434703372767
 20
83.0035248872985
 30
0.0
  0
LINE
  5
106
330
1F
100
AcDbEntity
  8
0
  6
HIDDEN
 62
     7
370
     0
100
AcDbLine
 10
87.2934703373
 20
83.6953333599
 30
0.0
 11
87.2934703373
 21
132.7687436755
 31
0.0
  0
SPLINE
  5
107
330
1F
100
AcDbEntity
  8
0
  6
HIDDEN
 62
     7
370
     0
100
AcDbSpline
210
0.0
220
0.0
230
1.0
 70
     8
 71
     3
 72
    18
 73
    14
 74
     0
 42
0.000000001
 43
0.00000001
 40
0.0
 40
0.0
 40
0.0
 40
0.0
 40
0.2499999999999943
 40
0.2499999999999943
 40
0.4999999999999887
 40
0.4999999999999887
 40
0.6249999999999915
 40
0.6249999999999915
 40
0.7499999999999943
 40
0.7499999999999943
 40
0.8749999999999971
 40
0.8749999999999971
 40
1.0
 40
1.0
 40
1.0
 40
1.0
 10
213.5434703372767
 20
125.2297397618176
 30
0.0
 10
213.5434703372767
 20
125.1344200967998
 30
0.0
 10
213.5382122741136
 20
125.0373907106319
 30
0.0
 10
213.5107072842466
 20
124.8378065701069
 30
0.0
 10
213.488223790773
 20
124.7328024004038
 30
0.0
 10
213.4299254386521
 20
124.5807936518193
 30
0.0
 10
213.4055986449443
 20
124.5297417516456
 30
0.0
 10
213.3467552857605
 20
124.437190860568
 30
0.0
 10
213.3116325653075
 20
124.3953688839356
 30
0.0
 10
213.2366538933152
 20
124.3308966273335
 30
0.0
 10
213.1966670756613
 20
124.30773874158
 30
0.0
 10
213.1180592311146
 20
124.2777518957846
 30
0.0
 10
213.0802098881123
 20
124.2707139392995
 30
0.0
 10
213.0434307572623
 20
124.268454632324
 30
0.0
  0
SPLINE
  5
108
330
1F
100
AcDbEntity
  8
0
  6
HIDDEN
 62
     7
370
     0
100
AcDbSpline
210
0.0
220
0.0
230
1.0
 70
     8
 71
     3
 72
    10
 73
     6
 74
     0
 42
0.000000001
 43
0.00000001
 40
0.0
 40
0.0
 40
0.0
 40
0.0
 40
0.5
 40
0.5
 40
1.0
 40
1.0
 40
1.0
 40
1.0
 10
213.0434307572623
 20
124.2684546323243
 30
0.0
 10
212.9786092995295
 20
124.2075870279498
 30
0.0
 10
212.9037659032272
 20
124.1526151963295
 30
0.0
 10
212.735155247376
 20
124.0727901880713
 30
0.0
 10
212.6408646953402
 20
124.0484834140442
 30
0.0
 10
212.5434703372767
 20
124.0484834140442
 30
0.0
  0
SPLINE
  5
109
330
1F
100
AcDbEntity
  8
0
  6
HIDDEN
 62
     7
370
     0
100
AcDbSpline
210
0.0
220
0.0
230
1.0
 70
     8
 71
     3
 72
    10
 73
     6
 74
     0
 42
0.000000001
 43
0.00000001
 40
0.0
 40
0.0
 40
0.0
 40
0.0
 40
0.5
 40
0.5
 40
1.0
 40
1.0
 40
1.0
 40
1.0
 10
213.0434205309719
 20
92.19563200550135
 30
0.0
 10
212.9785998448051
 20
92.25649727558326
 30
0.0
 10
212.9037575621476
 20
92.31146681783325
 30
0.0
 10
212.7351502884268
 20
92.39128816514214
 30
0.0
 10
212.640862134522
 20
92.41559362138142
 30
0.0
 10
212.5434703372767
 20
92.41559362138142
 30
0.0
  0
SPLINE
  5
10A
330
1F
100
AcDbEntity
  8
0
  6
HIDDEN
 62
     7
370
     0
100
AcDbSpline
210
0.0
220
0.0
230
1.0
 70
     8
 71
     3
 72
    18
 73
    14
 74
     0
 42
0.000000001
 43
0.00000001
 40
0.0
 40
0.0
 40
0.0
 40
0.0
 40
0.1249999999999999
 40
0.1249999999999999
 40
0.2499999999999998
 40
0.2499999999999998
 40
0.3749999999999997
 40
0.3749999999999997
 40
0.4999999999999996
 40
0.4999999999999996
 40
0.7499999999999998
 40
0.7499999999999998
 40
1.0
 40
1.0
 40
1.0
 40
1.0
 10
213.0434205309718
 20
92.19563200550131
 30
0.0
 10
213.0799074110676
 20
92.19339796921527
 30
0.0
 10
213.1181631030953
 20
92.18625447876406
 30
0.0
 10
213.1957101400839
 20
92.15679259803295
 30
0.0
 10
213.2356575552911
 20
92.13381951695227
 30
0.0
 10
213.3100024655264
 20
92.07039458109439
 30
0.0
 10
213.3451457105279
 20
92.02900458277206
 30
0.0
 10
213.4041286710993
 20
91.93709730753208
 30
0.0
 10
213.4285462936072
 20
91.88642078279439
 30
0.0
 10
213.4876226086672
 20
91.73376976643486
 30
0.0
 10
213.5101114772543
 20
91.6295505648745
 30
0.0
 10
213.5381157387247
 20
91.42840932410834
 30
0.0
 10
213.5434703372767
 20
91.32991506540168
 30
0.0
 10
213.5434703372767
 20
91.23433727360799
 30
0.0
  0
LINE
  5
10B
330
1F
100
AcDbEntity
  8
0
  6
HIDDEN
 62
     7
370
     0
100
AcDbLine
 10
173.0434703373
 20
108.2320385177
 30
0.0
 11
173.0434703373
 21
90.7320385177
 31
0.0
  0
LINE
  5
10C
330
1F
100
AcDbEntity
  8
0
  6
HIDDEN
 62
     7
370
     0
100
AcDbLine
 10
173.0434703373
 20
125.7320385177
 30
0.0
 11
173.0434703373
 21
108.2320385177
 31
0.0
  0
LINE
  5
10D
330
1F
100
AcDbEntity
  8
0
  6
HIDDEN
 62
     7
370
     0
100
AcDbLine
 10
177.9094957411
 20
108.2320385177
 30
0.0
 11
177.9094957411
 21
90.2320385177
 31
0.0
  0
LINE
  5
10E
330
1F
100
AcDbEntity
  8
0
  6
HIDDEN
 62
     7
370
     0
100
AcDbLine
 10
177.9094957411
 20
126.2320385177
 30
0.0
 11
177.9094957411
 21
108.2320385177
 31
0.0
  0
LINE
  5
10F
330
1F
100
AcDbEntity
  8
0
  6
HIDDEN
 62
     7
370
     0
100
AcDbLine
 10
87.2934703373
 20
80.8620385177
 30
0.0
 11
87.2934703373
 21
75.9837533159
 31
0.0
  0
LINE
  5
110
330
1F
100
AcDbEntity
  8
0
  6
HIDDEN
 62
     7
370
     0
100
AcDbLine
 10
196.9434703372
 20
124.048483414
 30
0.0
 11
212.5434703373
 21
124.048483414
 31
0.0
  0
LINE
  5
111
330
1F
100
AcDbEntity
  8
0
  6
HIDDEN
 62
     7
370
     0
100
AcDbLine
 10
196.9434703372
 20
92.4155936214
 30
0.0
 11
212.5434703373
 21
92.4155936214
 31
0.0
  0
LINE
  5
112
330
1F
100
AcDbEntity
  8
0
  6
HIDDEN
 62
     7
370
     0
100
AcDbLine
 10
100.7434703373
 20
80.8620385177
 30
0.0
 11
100.7434703373
 21
74.3627052523
 31
0.0
  0
LINE
  5
113
330
1F
100
AcDbEntity
  8
0
  6
HIDDEN
 62
     7
370
     0
100
AcDbLine
 10
95.7434703373
 20
135.6020385177
 30
0.0
 11
95.7434703373
 21
141.9766472547
 31
0.0
  0
LINE
  5
114
330
1F
100
AcDbEntity
  8
0
  6
HIDDEN
 62
     7
370
     0
100
AcDbLine
 10
87.2934703373
 20
135.6020385177
 30
0.0
 11
87.2934703373
 21
140.4803237195
 31
0.0
  0
LINE
  5
115
330
1F
100
AcDbEntity
  8
0
  6
HIDDEN
 62
     7
370
     0
100
AcDbLine
 10
163.8434703373
 20
95.2320385177
 30
0.0
 11
163.8434703373
 21
121.2320385177
 31
0.0
  0
LINE
  5
116
330
1F
100
AcDbEntity
  8
0
  6
HIDDEN
 62
     7
370
     0
100
AcDbLine
 10
159.8434703373
 20
95.2320385177
 30
0.0
 11
159.8434703373
 21
121.2320385177
 31
0.0
  0
LINE
  5
117
330
1F
100
AcDbEntity
  8
0
  6
HIDDEN
 62
     7
370
     0
100
AcDbLine
 10
148.7434703373
 20
96.9820385177
 30
0.0
 11
148.7434703373
 21
119.4820385177
 31
0.0
  0
ELLIPSE
  5
118
330
1F
100
AcDbEntity
  8
0
  6
HIDDEN
 62
     7
370
     0
100
AcDbEllipse
 10
79.358797137
 20
108.2320385177
 30
0.0
 11
31.08108570811662
 21
1.421085471520200E-14
 31
0.0
210
0.0
220
0.0
230
1.0
 40
0.8164965809
 41
1.312649268214811
 42
1.367189972061496
  0
ELLIPSE
  5
119
330
1F
100
AcDbEntity
  8
0
  6
HIDDEN
 62
     7
370
     0
100
AcDbEllipse
 10
79.358797137
 20
108.2320385177
 30
0.0
 11
31.08108570811662
 21
-1.421085471520200E-14
 31
0.0
210
0.0
220
0.0
230
1.0
 40
0.8164965809
 41
4.915995335118102
 42
4.970536038964787
  0
LINE
  5
11A
330
1F
100
AcDbEntity
  8
0
  6
HIDDEN
 62
     7
370
     0
100
AcDbLine
 10
164.4934703373
 20
64.3320385177
 30
0.0
 11
150.4934703373
 21
64.3320385177
 31
0.0
  0
LINE
  5
11B
330
1F
100
AcDbEntity
  8
0
  6
HIDDEN
 62
     7
370
     0
100
AcDbLine
 10
140.4934703373
 20
58.2420395179
 30
0.0
 11
140.4934703373
 21
64.3320385177
 31
0.0
  0
LINE
  5
11C
330
1F
100
AcDbEntity
  8
0
  6
HIDDEN
 62
     7
370
     0
100
AcDbLine
 10
150.4934703373
 20
64.3320385177
 30
0.0
 11
140.4934703373
 21
64.3320385177
 31
0.0
  0
LINE
  5
11D
330
1F
100
AcDbEntity
  8
0
  6
HIDDEN
 62
     7
370
     0
100
AcDbLine
 10
100.7434703373
 20
80.8620385177
 30
0.0
 11
100.7434703373
 21
83.0035248873
 31
0.0
  0
LINE
  5
11E
330
1F
100
AcDbEntity
  8
0
  6
HIDDEN
 62
     7
370
     0
100
AcDbLine
 10
87.2934703373
 20
80.8620385177
 30
0.0
 11
87.2934703373
 21
83.6953333599
 31
0.0
  0
LINE
  5
11F
330
1F
100
AcDbEntity
  8
0
  6
HIDDEN
 62
     7
370
     0
100
AcDbLine
 10
87.2934703373
 20
135.6020385177
 30
0.0
 11
87.2934703373
 21
132.7687436755
 31
0.0
  0
LINE
  5
120
330
1F
100
AcDbEntity
  8
0
  6
HIDDEN
 62
     7
370
     0
100
AcDbLine
 10
95.7434703373
 20
135.6020385177
 30
0.0
 11
95.7434703373
 21
133.4605521481
 31
0.0
  0
LINE
  5
121
330
1F
100
AcDbEntity
  8
0
  6
HIDDEN
 62
     7
370
     0
100
AcDbLine
 10
150.4934703373
 20
152.1320385177
 30
0.0
 11
140.4934703373
 21
152.1320385177
 31
0.0
  0
LINE
  5
122
330
1F
100
AcDbEntity
  8
0
  6
HIDDEN
 62
     7
370
     0
100
AcDbLine
 10
164.4934703373
 20
152.1320385177
 30
0.0
 11
150.4934703373
 21
152.1320385177
 31
0.0
  0
SPLINE
  5
123
330
1F
100
AcDbEntity
  8
0
  6
HIDDEN
 62
     7
370
     0
100
AcDbSpline
210
0.0
220
0.0
230
1.0
 70
     8
 71
     3
 72
     9
 73
     5
 74
     0
 42
0.000000001
 43
0.00000001
 40
0.0
 40
0.0
 40
0.0
 40
0.0
 40
0.8533202589503854
 40
1.0
 40
1.0
 40
1.0
 40
1.0
 10
213.043470337163
 20
131.1320385177128
 30
0.0
 10
213.0436592024115
 20
131.3658041741912
 30
0.0
 10
213.0438805322657
 20
131.6397525001877
 30
0.0
 10
213.0420809859608
 20
131.866709831992
 30
0.0
 10
213.0418170289748
 20
131.8999998746503
 30
0.0
  0
SPLINE
  5
124
330
1F
100
AcDbEntity
  8
0
  6
HIDDEN
 62
     7
370
     0
100
AcDbSpline
210
0.0
220
0.0
230
1.0
 70
     8
 71
     3
 72
    14
 73
    10
 74
     0
 42
0.000000001
 43
0.00000001
 40
0.0
 40
0.0
 40
0.0
 40
0.0
 40
0.0922334808827822
 40
0.2577617271122121
 40
0.4181801661756802
 40
0.5832388660028439
 40
0.743842637286336
 40
0.9090745944620751
 40
1.0
 40
1.0
 40
1.0
 40
1.0
 10
212.9699332589763
 20
133.7139899880248
 30
0.0
 10
212.9677458810974
 20
133.7140231826261
 30
0.0
 10
212.9616328916004
 20
133.7141159504331
 30
0.0
 10
212.96216263967
 20
133.5515329852415
 30
0.0
 10
212.9767735659303
 20
133.2432989115028
 30
0.0
 10
212.9934635983117
 20
132.7990919060588
 30
0.0
 10
213.0271936443658
 20
132.2308201443003
 30
0.0
 10
213.064325630056
 20
131.6614265027572
 30
0.0
 10
213.0529167528677
 20
131.2707224906151
 30
0.0
 10
213.04886706726
 20
131.1320385177128
 30
0.0
  0
SPLINE
  5
125
330
1F
100
AcDbEntity
  8
0
  6
HIDDEN
 62
     7
370
     0
100
AcDbSpline
210
0.0
220
0.0
230
1.0
 70
     8
 71
     3
 72
    14
 73
    10
 74
     0
 42
0.000000001
 43
0.00000001
 40
0.0
 40
0.0
 40
0.0
 40
0.0
 40
0.25
 40
0.25
 40
0.5
 40
0.5
 40
0.75
 40
0.75
 40
1.0
 40
1.0
 40
1.0
 40
1.0
 10
213.04886706726
 20
131.1320385177128
 30
0.0
 10
213.021049126541
 20
130.5602557235045
 30
0.0
 10
213.0381485698548
 20
129.9882807750157
 30
0.0
 10
213.0508446515035
 20
128.8443645305966
 30
0.0
 10
213.0497412034556
 20
128.2723660770612
 30
0.0
 10
213.0449937749703
 20
127.1283940284175
 30
0.0
 10
213.0422409464607
 20
126.5564085933277
 30
0.0
 10
213.0420819662504
 20
125.4124322235086
 30
0.0
 10
213.0432291252607
 20
124.8404434487742
 30
0.0
 10
213.0434307572622
 20
124.2684546323242
 30
0.0
  0
SPLINE
  5
126
330
1F
100
AcDbEntity
  8
0
  6
HIDDEN
 62
     7
370
     0
100
AcDbSpline
210
0.0
220
0.0
230
1.0
 70
     8
 71
     3
 72
    14
 73
    10
 74
     0
 42
0.000000001
 43
0.00000001
 40
0.0
 40
0.0
 40
0.0
 40
0.0
 40
0.25
 40
0.25
 40
0.5
 40
0.5
 40
0.75
 40
0.75
 40
1.0
 40
1.0
 40
1.0
 40
1.0
 10
213.048856093243
 20
85.33203851771276
 30
0.0
 10
213.0210974695057
 20
85.90374629490222
 30
0.0
 10
213.0381057164455
 20
86.47574008877599
 30
0.0
 10
213.0509019839612
 20
87.61966168829134
 30
0.0
 10
213.0496905194921
 20
88.19167399309931
 30
0.0
 10
213.0449047278946
 20
89.33565711388752
 30
0.0
 10
213.0423082839244
 20
89.90764835260093
 30
0.0
 10
213.0420306035442
 20
91.05163964402645
 30
0.0
 10
213.0431716266122
 20
91.62363586278742
 30
0.0
 10
213.0434205309718
 20
92.1956320055013
 30
0.0
  0
SPLINE
  5
127
330
1F
100
AcDbEntity
  8
0
  6
HIDDEN
 62
     7
370
     0
100
AcDbSpline
210
0.0
220
0.0
230
1.0
 70
     8
 71
     3
 72
     9
 73
     5
 74
     0
 42
0.000000001
 43
0.00000001
 40
0.0
 40
0.0
 40
0.0
 40
0.0
 40
0.9349931520461712
 40
1.0
 40
1.0
 40
1.0
 40
1.0
 10
213.043470337163
 20
85.33203851771277
 30
0.0
 10
213.0438669896357
 20
85.08119288885364
 30
0.0
 10
213.0442912199863
 20
84.81290682888604
 30
0.0
 10
213.0422709742868
 20
84.59417960456439
 30
0.0
 10
213.0421396444818
 20
84.57996083714956
 30
0.0
  0
SPLINE
  5
128
330
1F
100
AcDbEntity
  8
0
  6
HIDDEN
 62
     7
370
     0
100
AcDbSpline
210
0.0
220
0.0
230
1.0
 70
     8
 71
     3
 72
    14
 73
    10
 74
     0
 42
0.000000001
 43
0.00000001
 40
0.0
 40
0.0
 40
0.0
 40
0.0
 40
0.1133565651202074
 40
0.2788681641817946
 40
0.4392491959455451
 40
0.6042651017112353
 40
0.7648716028543406
 40
0.9301055077568096
 40
1.0
 40
1.0
 40
1.0
 40
1.0
 10
212.9698128902476
 20
82.74744854569695
 30
0.0
 10
212.9673345948412
 20
82.75117006225442
 30
0.0
 10
212.9612377473447
 20
82.76032535457695
 30
0.0
 10
212.9630697899922
 20
82.94413980374354
 30
0.0
 10
212.9793345523306
 20
83.27131072538691
 30
0.0
 10
212.9958256734484
 20
83.73149795685842
 30
0.0
 10
213.033824135882
 20
84.3140479875701
 30
0.0
 10
213.0644447010541
 20
84.8652399181696
 30
0.0
 10
213.0524281459172
 20
85.22507391856327
 30
0.0
 10
213.048856093243
 20
85.33203851771276
 30
0.0
  0
LINE
  5
129
330
1F
100
AcDbEntity
  8
0
  6
HIDDEN
 62
     7
370
     0
100
AcDbLine
 10
196.9434703372
 20
131.1320385177
 30
0.0
 11
196.9434703372
 21
124.048483414
 31
0.0
  0
LINE
  5
12A
330
1F
100
AcDbEntity
  8
0
  6
HIDDEN
 62
     7
370
     0
100
AcDbLine
 10
196.9434703372
 20
85.3320385177
 30
0.0
 11
196.9434703372
 21
92.4155936214
 31
0.0
  0
SPLINE
  5
12B
330
1F
100
AcDbEntity
  8
0
  6
HIDDEN
 62
     7
370
     0
100
AcDbSpline
210
0.0
220
0.0
230
1.0
 70
     8
 71
     3
 72
    30
 73
    26
 74
     0
 42
0.000000001
 43
0.00000001
 40
0.0
 40
0.0
 40
0.0
 40
0.0
 40
0.0531100064364106
 40
0.1124928076423022
 40
0.1778922679000303
 40
0.2129175103528167
 40
0.2494718466928552
 40
0.2912390746437333
 40
0.3260825764020788
 40
0.3539986394647382
 40
0.3749846165049446
 40
0.441444479582651
 40
0.5001640216198395
 40
0.5546805279613327
 40
0.6144267066578389
 40
0.6794541953884448
 40
0.7140123387842126
 40
0.7499105009459244
 40
0.7913763790315775
 40
0.8260444640002275
 40
0.8539109719131857
 40
0.8749730505754718
 40
0.941161707030702
 40
0.9999141541470163
 40
0.9999999999999999
 40
0.9999999999999999
 40
0.9999999999999999
 40
0.9999999999999999
 10
126.542952998459
 20
71.13212755708263
 30
0.0
 10
126.5267632874522
 20
71.13702572753547
 30
0.0
 10
126.4924717072346
 20
71.1474005887626
 30
0.0
 10
126.1911952905877
 20
71.22304387653145
 30
0.0
 10
125.7490316492052
 20
71.31932894109977
 30
0.0
 10
125.2541982064129
 20
71.41899395565362
 30
0.0
 10
124.7837226913649
 20
71.51127206008405
 30
0.0
 10
124.2528012213796
 20
71.60690410517532
 30
0.0
 10
123.7146507302056
 20
71.69255434532069
 30
0.0
 10
123.2566033931135
 20
71.75984613894524
 30
0.0
 10
122.6010390712743
 20
71.84819430784812
 30
0.0
 10
121.7177326319065
 20
71.94485239218825
 30
0.0
 10
120.5890708992533
 20
72.03162756874909
 30
0.0
 10
119.4993091495812
 20
72.06970626630762
 30
0.0
 10
118.403280871457
 20
72.07155670092075
 30
0.0
 10
117.4978896248347
 20
72.04539524522569
 30
0.0
 10
116.8015869147345
 20
72.00878802001473
 30
0.0
 10
116.2749071878572
 20
71.96977114455673
 30
0.0
 10
115.8082610743251
 20
71.92756201716098
 30
0.0
 10
115.4370457994068
 20
71.89055792767046
 30
0.0
 10
115.1829993214629
 20
71.86185716718077
 30
0.0
 10
114.8819441682307
 20
71.82547721655445
 30
0.0
 10
114.6264603738139
 20
71.79269704955708
 30
0.0
 10
114.5272396494678
 20
71.77635916495645
 30
0.0
 10
114.5435202069817
 20
71.77895275116114
 30
0.0
 10
114.543543960532
 20
71.77895653523795
 30
0.0
  0
SPLINE
  5
12C
330
1F
100
AcDbEntity
  8
0
  6
HIDDEN
 62
     7
370
     0
100
AcDbSpline
210
0.0
220
0.0
230
1.0
 70
     8
 71
     3
 72
    30
 73
    26
 74
     0
 42
0.000000001
 43
0.00000001
 40
0.0
 40
0.0
 40
0.0
 40
0.0
 40
0.0001279356329213
 40
0.0285582783345944
 40
0.0588613696769752
 40
0.0910413842196005
 40
0.1251017471153947
 40
0.1546898086130993
 40
0.1963679999566034
 40
0.2501218542998783
 40
0.3205359928123014
 40
0.3856200197009732
 40
0.4454125172647662
 40
0.4999649740995425
 40
0.5283568005447183
 40
0.55864091601565
 40
0.59082498312721
 40
0.6249153259755018
 40
0.6541898552286669
 40
0.6958677549561946
 40
0.7499346323079641
 40
0.8215933131710661
 40
0.8871440524326238
 40
0.9466387077454745
 40
1.0
 40
1.0
 40
1.0
 40
1.0
 10
114.5435789034033
 20
144.6850473401882
 30
0.0
 10
114.5435425986419
 20
144.6850552562487
 30
0.0
 10
114.535438511778
 20
144.686822309386
 30
0.0
 10
114.5640956864444
 20
144.6813683311086
 30
0.0
 10
114.6374876193346
 20
144.670824463711
 30
0.0
 10
114.7811426686438
 20
144.6511395556706
 30
0.0
 10
114.9821787863191
 20
144.6263002080319
 30
0.0
 10
115.2648092286034
 20
144.5920917643975
 30
0.0
 10
115.6782183945452
 20
144.5484118595644
 30
0.0
 10
116.35450587853
 20
144.4853687953127
 30
0.0
 10
117.292936783917
 20
144.4240716236965
 30
0.0
 10
118.4024299955152
 20
144.3927831804187
 30
0.0
 10
119.4999107264149
 20
144.3944383478379
 30
0.0
 10
120.3999419647335
 20
144.4257445498366
 30
0.0
 10
121.1112828905845
 20
144.4725776985439
 30
0.0
 10
121.6766997915892
 20
144.5197445603833
 30
0.0
 10
122.2656232145464
 20
144.5791835668864
 30
0.0
 10
122.8300328676197
 20
144.6455407735104
 30
0.0
 10
123.4242290621362
 20
144.7274601799595
 30
0.0
 10
124.0908372232492
 20
144.8291081626918
 30
0.0
 10
124.8921699690558
 20
144.9712470732696
 30
0.0
 10
125.6446799540689
 20
145.1224916440637
 30
0.0
 10
126.189966449831
 20
145.240342517433
 30
0.0
 10
126.4926879818831
 20
145.3165717492931
 30
0.0
 10
126.5269784325679
 20
145.3270240588752
 30
0.0
 10
126.5431918692539
 20
145.3319661887175
 30
0.0
  0
LINE
  5
12D
330
1F
100
AcDbEntity
  8
0
  6
HIDDEN
 62
     7
370
     0
100
AcDbLine
 10
196.9434703372
 20
82.7320385177
 30
0.0
 11
196.9434703372
 21
85.3320385177
 31
0.0
  0
LINE
  5
12E
330
1F
100
AcDbEntity
  8
0
  6
HIDDEN
 62
     7
370
     0
100
AcDbLine
 10
196.9434703372
 20
133.7320385177
 30
0.0
 11
196.9434703372
 21
131.1320385177
 31
0.0
  0
LINE
  5
12F
330
1F
100
AcDbEntity
  8
0
  6
HIDDEN
 62
     7
370
     0
100
AcDbLine
 10
158.8054993582
 20
147.1830012786
 30
0.0
 11
158.8054993582
 21
139.5820385177
 31
0.0
  0
LINE
  5
130
330
1F
100
AcDbEntity
  8
0
  6
HIDDEN
 62
     7
370
     0
100
AcDbLine
 10
153.6334703373
 20
142.9462737102
 30
0.0
 11
153.6334703373
 21
139.5820385177
 31
0.0
  0
LINE
  5
131
330
1F
100
AcDbEntity
  8
0
  6
HIDDEN
 62
     7
370
     0
100
AcDbLine
 10
157.4534703373
 20
142.9462737102
 30
0.0
 11
157.4534703373
 21
139.5820385177
 31
0.0
  0
CIRCLE
  5
132
330
1F
100
AcDbEntity
  8
0
  6
HIDDEN
 62
     7
370
     0
100
AcDbCircle
 10
142.5434703373
 20
108.2320385177
 30
0.0
 40
5.0
  0
LINE
  5
133
330
1F
100
AcDbEntity
  8
0
  6
HIDDEN
 62
     7
370
     0
100
AcDbLine
 10
135.5434703373
 20
68.8273555611
 30
0.0
 11
135.6330719612
 21
69.4649042431
 31
0.0
  0
LINE
  5
134
330
1F
100
AcDbEntity
  8
0
  6
HIDDEN
 62
     7
370
     0
100
AcDbLine
 10
135.6330719612
 20
146.9991727924
 30
0.0
 11
135.5434703373
 21
147.6367214743
 31
0.0
  0
ARC
  5
135
330
1F
100
AcDbEntity
  8
0
  6
HIDDEN
 62
     7
370
     0
100
AcDbCircle
 10
134.6465334188
 20
69.6035531933
 30
0.0
 40
0.9962338214386983
100
AcDbArc
 50
352.0
 51
0.0
  0
ARC
  5
136
330
1F
100
AcDbEntity
  8
0
  6
HIDDEN
 62
     7
370
     0
100
AcDbCircle
 10
134.6465334188
 20
69.6035531933
 30
0.0
 40
0.9962338214386983
100
AcDbArc
 50
0.0
 51
25.7988228126
  0
ARC
  5
137
330
1F
100
AcDbEntity
  8
0
  6
HIDDEN
 62
     7
370
     0
100
AcDbCircle
 10
134.6465334188
 20
146.8605238422
 30
0.0
 40
0.9962338214386963
100
AcDbArc
 50
348.75
 51
8.0
  0
LWPOLYLINE
  5
138
330
1F
100
AcDbEntity
  8
0
  6
HIDDEN
 62
     7
370
     0
100
AcDbPolyline
 90
        3
 70
   128
 43
0.0
 10
135.6236248867
 20
146.6661682651
 10
135.5669334561
 20
146.4792816639
 10
135.5434703373
 20
146.426950329
  0
LINE
  5
139
330
1F
100
AcDbEntity
  8
0
  6
HIDDEN
 62
     7
370
     0
100
AcDbLine
 10
135.6427672403
 20
69.6035531933
 30
0.0
 11
135.6427672403
 21
146.8605238422
 31
0.0
  0
ARC
  5
13A
330
1F
100
AcDbEntity
  8
0
  6
HIDDEN
 62
     7
370
     0
100
AcDbCircle
 10
125.7966759925
 20
88.7320385177
 30
0.0
 40
12.00000000000001
100
AcDbArc
 50
273.5511758818
 51
324.3146652873
  0
ARC
  5
13B
330
1F
100
AcDbEntity
  8
0
  6
HIDDEN
 62
     7
370
     0
100
AcDbCircle
 10
125.7966759925
 20
127.7320385177
 30
0.0
 40
12.00000000000002
100
AcDbArc
 50
35.6853347127
 51
86.8351813991
  0
ARC
  5
13C
330
1F
100
AcDbEntity
  8
0
  6
HIDDEN
 62
     7
370
     0
100
AcDbCircle
 10
109.0041962794
 20
77.7320385177
 30
0.0
 40
1.0
100
AcDbArc
 50
210.0
 51
270.0
  0
ARC
  5
13D
330
1F
100
AcDbEntity
  8
0
  6
HIDDEN
 62
     7
370
     0
100
AcDbCircle
 10
109.0041962794
 20
138.7320385177
 30
0.0
 40
1.0
100
AcDbArc
 50
90.0
 51
150.0
  0
LINE
  5
13E
330
1F
100
AcDbEntity
  8
0
  6
HIDDEN
 62
     7
370
     0
100
AcDbLine
 10
109.0041962794
 20
76.7320385177
 30
0.0
 11
114.5893003879
 21
76.7320385177
 31
0.0
  0
LINE
  5
13F
330
1F
100
AcDbEntity
  8
0
  6
HIDDEN
 62
     7
370
     0
100
AcDbLine
 10
114.5623874516
 20
139.7320385177
 30
0.0
 11
109.0041962794
 21
139.7320385177
 31
0.0
  0
LINE
  5
140
330
1F
100
AcDbEntity
  8
0
  6
HIDDEN
 62
     7
370
     0
100
AcDbLine
 10
108.1381708757
 20
139.2320385177
 30
0.0
 11
105.5400946643
 21
134.7320385177
 31
0.0
  0
LINE
  5
141
330
1F
100
AcDbEntity
  8
0
  6
HIDDEN
 62
     7
370
     0
100
AcDbLine
 10
105.5400946643
 20
81.7320385177
 30
0.0
 11
108.1381708757
 21
77.2320385177
 31
0.0
  0
ARC
  5
142
330
1F
100
AcDbEntity
  8
0
  6
HIDDEN
 62
     7
370
     0
100
AcDbCircle
 10
145.9934703373
 20
83.3570385177
 30
0.0
 40
2.0
100
AcDbArc
 50
234.3409123039
 51
0.0
  0
ARC
  5
143
330
1F
100
AcDbEntity
  8
0
  6
HIDDEN
 62
     7
370
     0
100
AcDbCircle
 10
145.9934703373
 20
133.1070385177
 30
0.0
 40
2.000000000000003
100
AcDbArc
 50
0.0
 51
125.6590876961
  0
LINE
  5
144
330
1F
100
AcDbEntity
  8
0
  6
HIDDEN
 62
     7
370
     0
100
AcDbLine
 10
100.7434703373
 20
81.7320385177
 30
0.0
 11
105.5400946643
 21
81.7320385177
 31
0.0
  0
LINE
  5
145
330
1F
100
AcDbEntity
  8
0
  6
HIDDEN
 62
     7
370
     0
100
AcDbLine
 10
105.5400946643
 20
134.7320385177
 30
0.0
 11
95.7434703373
 21
134.7320385177
 31
0.0
  0
LINE
  5
146
330
1F
100
AcDbEntity
  8
0
  6
HIDDEN
 62
     7
370
     0
100
AcDbLine
 10
135.5434703373
 20
81.7320385177
 30
0.0
 11
144.8275479556
 21
81.7320385177
 31
0.0
  0
LINE
  5
147
330
1F
100
AcDbEntity
  8
0
  6
HIDDEN
 62
     7
370
     0
100
AcDbLine
 10
144.8275479556
 20
134.7320385177
 30
0.0
 11
135.5434703373
 21
134.7320385177
 31
0.0
  0
LINE
  5
148
330
1F
100
AcDbEntity
  8
0
  6
HIDDEN
 62
     7
370
     0
100
AcDbLine
 10
175.9118178397
 20
126.7320385177
 30
0.0
 11
174.0434703373
 21
126.7320385177
 31
0.0
  0
LINE
  5
149
330
1F
100
AcDbEntity
  8
0
  6
HIDDEN
 62
     7
370
     0
100
AcDbLine
 10
174.0434703373
 20
89.7320385177
 30
0.0
 11
175.9118178397
 21
89.7320385177
 31
0.0
  0
ARC
  5
14A
330
1F
100
AcDbEntity
  8
0
  6
HIDDEN
 62
     7
370
     0
100
AcDbCircle
 10
174.0434703373
 20
125.7320385177
 30
0.0
 40
1.0
100
AcDbArc
 50
90.0
 51
180.0
  0
ARC
  5
14B
330
1F
100
AcDbEntity
  8
0
  6
HIDDEN
 62
     7
370
     0
100
AcDbCircle
 10
174.0434703373
 20
90.7320385177
 30
0.0
 40
1.0
100
AcDbArc
 50
180.0
 51
270.0
  0
ARC
  5
14C
330
1F
100
AcDbEntity
  8
0
  6
HIDDEN
 62
     7
370
     0
100
AcDbCircle
 10
175.9118178397
 20
125.7320385177
 30
0.0
 40
0.9999999999999716
100
AcDbArc
 50
75.0
 51
90.0
  0
ARC
  5
14D
330
1F
100
AcDbEntity
  8
0
  6
HIDDEN
 62
     7
370
     0
100
AcDbCircle
 10
175.9118178397
 20
90.7320385177
 30
0.0
 40
0.9999999999999947
100
AcDbArc
 50
270.0
 51
285.0
  0
LINE
  5
14E
330
1F
100
AcDbEntity
  8
0
  6
HIDDEN
 62
     7
370
     0
100
AcDbLine
 10
176.1706368848
 20
89.7661126914
 30
0.0
 11
177.9094957411
 21
90.2320385177
 31
0.0
  0
LINE
  5
14F
330
1F
100
AcDbEntity
  8
0
  6
HIDDEN
 62
     7
370
     0
100
AcDbLine
 10
177.9094957411
 20
126.2320385177
 30
0.0
 11
176.1706368848
 21
126.697964344
 31
0.0
  0
LINE
  5
150
330
1F
100
AcDbEntity
  8
0
  6
HIDDEN
 62
     7
370
     0
100
AcDbLine
 10
196.9434703372
 20
126.2320385177
 30
0.0
 11
177.9094957411
 21
126.2320385177
 31
0.0
  0
LINE
  5
151
330
1F
100
AcDbEntity
  8
0
  6
HIDDEN
 62
     7
370
     0
100
AcDbLine
 10
177.9094957411
 20
90.2320385177
 30
0.0
 11
196.9434703372
 21
90.2320385177
 31
0.0
  0
LINE
  5
152
330
1F
100
AcDbEntity
  8
0
  6
HIDDEN
 62
     7
370
     0
100
AcDbLine
 10
159.8434703373
 20
95.2320385177
 30
0.0
 11
163.8434703373
 21
95.2320385177
 31
0.0
  0
LINE
  5
153
330
1F
100
AcDbEntity
  8
0
  6
HIDDEN
 62
     7
370
     0
100
AcDbLine
 10
163.8434703373
 20
121.2320385177
 30
0.0
 11
159.8434703373
 21
121.2320385177
 31
0.0
  0
LINE
  5
154
330
1F
100
AcDbEntity
  8
0
  6
HIDDEN
 62
     7
370
     0
100
AcDbLine
 10
147.9934703373
 20
96.2320385177
 30
0.0
 11
148.7434703373
 21
96.9820385177
 31
0.0
  0
LINE
  5
155
330
1F
100
AcDbEntity
  8
0
  6
HIDDEN
 62
     7
370
     0
100
AcDbLine
 10
148.7434703373
 20
119.4820385177
 30
0.0
 11
147.9934703373
 21
120.2320385177
 31
0.0
  0
LINE
  5
156
330
1F
100
AcDbEntity
  8
0
  6
HIDDEN
 62
     7
370
     0
100
AcDbLine
 10
148.7434703373
 20
96.9820385177
 30
0.0
 11
159.8434703373
 21
96.9820385177
 31
0.0
  0
LINE
  5
157
330
1F
100
AcDbEntity
  8
0
  6
HIDDEN
 62
     7
370
     0
100
AcDbLine
 10
159.8434703373
 20
119.4820385177
 30
0.0
 11
148.7434703373
 21
119.4820385177
 31
0.0
  0
LINE
  5
158
330
1F
100
AcDbEntity
  8
0
  6
HIDDEN
 62
     7
370
     0
100
AcDbLine
 10
140.4934703373
 20
158.2320385177
 30
0.0
 11
140.4934703373
 21
152.1320385177
 31
0.0
  0
LINE
  5
159
330
1F
100
AcDbEntity
  8
0
  6
HIDDEN
 62
     7
370
     0
100
AcDbLine
 10
213.5434703372
 20
134.3061200435
 30
0.0
 11
212.9567118678
 21
133.7193690539
 31
0.0
  0
LINE
  5
15A
330
1F
100
AcDbEntity
  8
0
  6
HIDDEN
 62
     7
370
     0
100
AcDbLine
 10
212.9565107713
 20
82.7449042813
 30
0.0
 11
213.5434703372
 21
82.1579567576
 31
0.0
  0
LINE
  5
15B
330
1F
100
AcDbEntity
  8
0
  6
HIDDEN
 62
     7
370
     0
100
AcDbLine
 10
126.9761829533
 20
70.6537589471
 30
0.0
 11
126.5434736668
 21
71.1319836645
 31
0.0
  0
LINE
  5
15C
330
1F
100
AcDbEntity
  8
0
  6
HIDDEN
 62
     7
370
     0
100
AcDbLine
 10
114.5434707953
 20
71.7789450212
 30
0.0
 11
114.0628434901
 21
71.3007203103
 31
0.0
  0
LINE
  5
15D
330
1F
100
AcDbEntity
  8
0
  6
HIDDEN
 62
     7
370
     0
100
AcDbLine
 10
114.0627251486
 20
145.163350809
 30
0.0
 11
114.5434706126
 21
144.6850711371
 31
0.0
  0
LINE
  5
15E
330
1F
100
AcDbEntity
  8
0
  6
HIDDEN
 62
     7
370
     0
100
AcDbLine
 10
126.5434703394
 20
145.3320435244
 30
0.0
 11
126.9762920091
 21
145.8103231973
 31
0.0
  0
LINE
  5
15F
330
1F
100
AcDbEntity
  8
0
  6
HIDDEN
 62
     7
370
     0
100
AcDbLine
 10
126.5434703373
 20
139.6979164448
 30
0.0
 11
126.5434703373
 21
145.4320473506
 31
0.0
  0
LINE
  5
160
330
1F
100
AcDbEntity
  8
0
  6
HIDDEN
 62
     7
370
     0
100
AcDbLine
 10
114.5434703373
 20
144.6850606378
 30
0.0
 11
114.5434703373
 21
139.7284476944
 31
0.0
  0
LINE
  5
161
330
1F
100
AcDbEntity
  8
0
  6
HIDDEN
 62
     7
370
     0
100
AcDbLine
 10
126.5434703373
 20
71.0318548221
 30
0.0
 11
126.5434703373
 21
76.755712615
 31
0.0
  0
LINE
  5
162
330
1F
100
AcDbEntity
  8
0
  6
HIDDEN
 62
     7
370
     0
100
AcDbLine
 10
114.5434703373
 20
76.7405178857
 30
0.0
 11
114.5434703373
 21
71.7789834356
 31
0.0
  0
LINE
  5
163
330
1F
100
AcDbEntity
  8
0
  6
HIDDEN
 62
     7
370
     0
100
AcDbLine
 10
163.8434703373
 20
102.2320385177
 30
0.0
 11
173.0434703373
 21
102.2320385177
 31
0.0
  0
LINE
  5
164
330
1F
100
AcDbEntity
  8
0
  6
HIDDEN
 62
     7
370
     0
100
AcDbLine
 10
173.0434703373
 20
114.2320385177
 30
0.0
 11
163.8434703373
 21
114.2320385177
 31
0.0
  0
LINE
  5
165
330
1F
100
AcDbEntity
  8
0
  6
HIDDEN
 62
     7
370
     0
100
AcDbLine
 10
196.9434703372
 20
82.7320385177
 30
0.0
 11
212.9705320718
 21
82.7320385177
 31
0.0
  0
LINE
  5
166
330
1F
100
AcDbEntity
  8
0
  6
HIDDEN
 62
     7
370
     0
100
AcDbLine
 10
212.9707481229
 20
133.7320385177
 30
0.0
 11
196.9434703372
 21
133.7320385177
 31
0.0
  0
DIMENSION
  5
167
330
1F
100
AcDbEntity
  8
VERMASSUNG
100
AcDbDimension
  2
_D
 10
79.4498159978
 20
58.2320385177
 30
0.0
 11
79.4498159978
 21
108.2320385177
 31
0.0
 70
   160
  1
HSK A 100 %%c<>
 71
     2
 42
-1.0
  3
SLDDIMSTYLE0
100
AcDbAlignedDimension
 13
136.0434703373
 23
158.2320385177
 33
0.0
 14
136.0434703373
 24
58.2320385177
 34
0.0
 50
90.0
100
AcDbRotatedDimension
  0
DIMENSION
  5
174
330
1F
100
AcDbEntity
  8
VERMASSUNG
100
AcDbDimension
  2
_D_1
 10
226.4077972117
 20
76.2320385177
 30
0.0
 11
226.4077972117
 21
108.2320385177
 31
0.0
 70
   160
  1
ST6 %%c<>
 71
     2
 42
-1.0
  3
SLDDIMSTYLE0
100
AcDbAlignedDimension
 13
212.9434703373
 23
140.2320385177
 33
0.0
 14
212.9434703373
 24
76.2320385177
 34
0.0
 50
90.0
100
AcDbRotatedDimension
  0
DIMENSION
  5
180
330
1F
100
AcDbEntity
  8
VERMASSUNG
100
AcDbDimension
  2
_D_2
 10
220.4077972117
 20
90.2320385177
 30
0.0
 11
220.4077972117
 21
108.2320385177
 31
0.0
 70
   160
  1
%%c<>
 71
     2
 42
-1.0
  3
SLDDIMSTYLE0
100
AcDbAlignedDimension
 13
196.9434703372
 23
126.2320385177
 33
0.0
 14
196.9434703372
 24
90.2320385177
 34
0.0
 50
90.0
100
AcDbRotatedDimension
  0
DIMENSION
  5
18B
330
1F
100
AcDbEntity
  8
VERMASSUNG
100
AcDbDimension
  2
_D_3
 10
213.5434703373
 20
174.2320385177
 30
0.0
 11
149.5934703373
 21
174.2320385177
 31
0.0
 70
   160
  1
(<>)
 71
     2
 42
-1.0
  3
SLDDIMSTYLE0
100
AcDbAlignedDimension
 13
85.6434703373
 23
138.7347082603
 33
0.0
 14
213.5434703373
 24
139.6320385177
 34
0.0
100
AcDbRotatedDimension
  0
DIMENSION
  5
197
330
1F
100
AcDbEntity
  8
VERMASSUNG
100
AcDbDimension
  2
_D_4
 10
213.5434703373
 20
168.2320385177
 30
0.0
 11
174.5434703373
 21
168.2320385177
 31
0.0
 70
   160
  1
<>
 71
     2
 42
-1.0
  3
SLDDIMSTYLE0
100
AcDbAlignedDimension
 13
135.5434703373
 23
157.7320385177
 33
0.0
 14
213.5434703373
 24
139.6320385177
 34
0.0
100
AcDbRotatedDimension
  0
DIMENSION
  5
1A1
330
1F
100
AcDbEntity
  8
VERMASSUNG
100
AcDbDimension
  2
_D_5
 10
213.5434703373
 20
162.2320385177
 30
0.0
 11
189.0184703373
 21
162.2320385177
 31
0.0
 70
   160
  1
(<>)
 71
     2
 42
-1.0
  3
SLDDIMSTYLE0
100
AcDbAlignedDimension
 13
164.4934703373
 23
156.2007783386
 33
0.0
 14
213.5434703373
 24
139.6320385177
 34
0.0
100
AcDbRotatedDimension
  0
LINE
  5
1AD
330
1F
100
AcDbEntity
  8
VERMASSUNG
  6
CENTERX2
370
     0
100
AcDbLine
 10
84.050818352
 20
108.2320385177
 30
0.0
 11
215.3885219162
 21
108.2320385177
 31
0.0
  0
LINE
  5
1AE
330
1F
100
AcDbEntity
  8
0
  6
Continuous
 62
     7
370
    15
100
AcDbLine
 10
271.9436830597
 20
45.1993610037
 30
0.0
 11
271.7668776402
 21
45.3014617775
 31
0.0
  0
LINE
  5
1AF
330
1F
100
AcDbEntity
  8
0
  6
Continuous
 62
     7
370
    15
100
AcDbLine
 10
267.8771584117
 20
45.3014617775
 30
0.0
 11
267.7003529922
 21
45.1993610037
 31
0.0
  0
LINE
  5
1B0
330
1F
100
AcDbEntity
  8
0
  6
Continuous
 62
     7
370
    15
100
AcDbLine
 10
272.822018026
 20
43.6687450493
 30
0.0
 11
272.822018026
 21
43.9749478537
 31
0.0
  0
LINE
  5
1B1
330
1F
100
AcDbEntity
  8
0
  6
Continuous
 62
     7
370
    15
100
AcDbLine
 10
266.822018026
 20
43.9749478537
 30
0.0
 11
266.822018026
 21
43.6687450493
 31
0.0
  0
LINE
  5
1B2
330
1F
100
AcDbEntity
  8
0
  6
Continuous
 62
     7
370
    15
100
AcDbLine
 10
275.2862567065
 20
14.8974624312
 30
0.0
 11
275.4983542634
 21
15.0199435514
 31
0.0
  0
LINE
  5
1B3
330
1F
100
AcDbEntity
  8
0
  6
Continuous
 62
     7
370
    15
100
AcDbLine
 10
286.5981264096
 20
34.2473961957
 30
0.0
 11
286.5981264096
 21
34.4923186292
 31
0.0
  0
LINE
  5
1B4
330
1F
100
AcDbEntity
  8
0
  6
Continuous
 62
     7
370
    15
100
AcDbLine
 10
251.5696198377
 20
23.1766070792
 30
0.0
 11
267.2850680495
 21
14.1042719365
 31
0.0
  0
LINE
  5
1B5
330
1F
100
AcDbEntity
  8
0
  6
Continuous
 62
     7
370
    15
100
AcDbLine
 10
283.2837677717
 20
41.8178355327
 30
0.0
 11
267.5683195599
 21
50.8901706753
 31
0.0
  0
LINE
  5
1B6
330
1F
100
AcDbEntity
  8
0
  6
Continuous
 62
     7
370
    15
100
AcDbLine
 10
235.5971780161
 20
22.0052781249
 30
0.0
 11
241.3381677121
 21
18.6910753182
 31
0.0
  0
LINE
  5
1B7
330
1F
100
AcDbEntity
  8
0
  6
Continuous
 62
     7
370
    15
100
AcDbLine
 10
262.7815401406
 20
64.0455429644
 30
0.0
 11
260.595146332
 21
65.3077212439
 31
0.0
  0
SPLINE
  5
1B8
330
1F
100
AcDbEntity
  8
0
  6
Continuous
 62
     7
370
    15
100
AcDbSpline
210
0.0
220
0.0
230
1.0
 70
     8
 71
     3
 72
    24
 73
    20
 74
     0
 42
0.000000001
 43
0.00000001
 40
0.0
 40
0.0
 40
0.0
 40
0.0
 40
0.0106056682274427
 40
0.0754284752436315
 40
0.1403193503032792
 40
0.2052332446954269
 40
0.2701379829760566
 40
0.3349957737536466
 40
0.3997763155219895
 40
0.4644506399259586
 40
0.5289946288944292
 40
0.5933969539766293
 40
0.6576751424512401
 40
0.721902045178996
 40
0.7861906893887954
 40
0.8508299949646404
 40
0.9162953488314637
 40
0.983146938707925
 40
1.0
 40
1.0
 40
1.0
 40
1.0
 10
269.6982859004069
 20
28.12820044990801
 30
0.0
 10
269.7178848164613
 20
28.18339099700393
 30
0.0
 10
269.8572740866805
 20
28.57591117829112
 30
0.0
 10
270.1730790119485
 20
29.30452761534792
 30
0.0
 10
270.6743472433492
 20
30.29494555751448
 30
0.0
 10
271.2489745875481
 20
31.25070864250863
 30
0.0
 10
271.883230577641
 20
32.15665388663182
 30
0.0
 10
272.5682216298314
 20
32.99864904991861
 30
0.0
 10
273.2924875451372
 20
33.76366690793048
 30
0.0
 10
274.0442034325562
 20
34.44008192186443
 30
0.0
 10
274.8107980093582
 20
35.01788755973292
 30
0.0
 10
275.5793564974448
 20
35.48900696446721
 30
0.0
 10
276.336872020871
 20
35.84748069442054
 30
0.0
 10
277.0707473002579
 20
36.08995438032764
 30
0.0
 10
277.7689695840733
 20
36.21461718701606
 30
0.0
 10
278.4240241222278
 20
36.22554513169316
 30
0.0
 10
279.0236910888622
 20
36.11306903267243
 30
0.0
 10
279.444688048025
 20
35.96957281319155
 30
0.0
 10
279.6446795573952
 20
35.82635005109694
 30
0.0
 10
279.6849457686303
 20
35.79751363693949
 30
0.0
  0
SPLINE
  5
1B9
330
1F
100
AcDbEntity
  8
0
  6
Continuous
 62
     7
370
    15
100
AcDbSpline
210
0.0
220
0.0
230
1.0
 70
     8
 71
     3
 72
    15
 73
    11
 74
     0
 42
0.000000001
 43
0.00000001
 40
0.0
 40
0.0
 40
0.0
 40
0.0
 40
0.012729105836234
 40
0.1727753773177953
 40
0.3328466582630019
 40
0.4929475109936427
 40
0.6530817521556204
 40
0.8132518632140271
 40
0.9650302418574064
 40
1.0
 40
1.0
 40
1.0
 40
1.0
 10
232.218312049505
 20
43.76419812858335
 30
0.0
 10
232.20170344088
 20
43.71937581154284
 30
0.0
 10
231.9762705896795
 20
43.11099115054906
 30
0.0
 10
231.6230930546814
 20
41.93734794069672
 30
0.0
 10
231.1692022487854
 20
40.2547617006845
 30
0.0
 10
230.8174431420433
 20
38.59025885972102
 30
0.0
 10
230.5578192466586
 20
36.95314583896438
 30
0.0
 10
230.3987826044724
 20
35.38084319058186
 30
0.0
 10
230.348380351892
 20
34.25613796592701
 30
0.0
 10
230.345760014277
 20
33.66427866187745
 30
0.0
 10
230.3452693396485
 20
33.55344930061439
 30
0.0
  0
SPLINE
  5
1BA
330
1F
100
AcDbEntity
  8
0
  6
Continuous
 62
     7
370
    15
100
AcDbSpline
210
0.0
220
0.0
230
1.0
 70
     8
 71
     3
 72
    16
 73
    12
 74
     0
 42
0.000000001
 43
0.00000001
 40
0.0
 40
0.0
 40
0.0
 40
0.0
 40
0.0003042265218645
 40
0.1384409203000113
 40
0.2766645023829355
 40
0.4149326348764762
 40
0.5532138823225093
 40
0.6914855894422869
 40
0.8297385948162614
 40
0.9679688134973461
 40
1.0
 40
1.0
 40
1.0
 40
1.0
 10
251.96517002631
 20
65.86119446778879
 30
0.0
 10
251.9642344162085
 20
65.86094669750503
 30
0.0
 10
251.5384769158302
 20
65.74819667854845
 30
0.0
 10
250.6681100641778
 20
65.41099400527692
 30
0.0
 10
249.3608725894733
 20
64.84274414086576
 30
0.0
 10
248.0441708824859
 20
64.14270552504256
 30
0.0
 10
246.7290525278545
 20
63.33353237781199
 30
0.0
 10
245.4209380896568
 20
62.41714847007279
 30
0.0
 10
244.1305254089877
 20
61.39079235171948
 30
0.0
 10
243.1796739283077
 20
60.57523440766314
 30
0.0
 10
242.6713655840719
 20
60.07620492456869
 30
0.0
 10
242.5757378089017
 20
59.98232277655005
 30
0.0
  0
SPLINE
  5
1BB
330
1F
100
AcDbEntity
  8
0
  6
Continuous
 62
     7
370
    15
100
AcDbSpline
210
0.0
220
0.0
230
1.0
 70
     8
 71
     3
 72
    11
 73
     7
 74
     0
 42
0.000000001
 43
0.00000001
 40
0.0
 40
0.0
 40
0.0
 40
0.0
 40
0.1741210843714539
 40
0.5049204267670822
 40
0.8358075702753768
 40
1.0
 40
1.0
 40
1.0
 40
1.0
 10
230.3452693396485
 20
33.5534493006144
 30
0.0
 10
230.3479001920135
 20
33.28827408521297
 30
0.0
 10
230.3555291997452
 20
32.51931274195079
 30
0.0
 10
230.4471330478473
 20
31.29432990510601
 30
0.0
 10
230.5986311168583
 20
30.12458098715609
 30
0.0
 10
230.7527297012388
 20
29.47326374077137
 30
0.0
 10
230.8038362755242
 20
29.25725531104133
 30
0.0
  0
SPLINE
  5
1BC
330
1F
100
AcDbEntity
  8
0
  6
Continuous
 62
     7
370
    15
100
AcDbSpline
210
0.0
220
0.0
230
1.0
 70
     8
 71
     3
 72
    10
 73
     6
 74
     0
 42
0.000000001
 43
0.00000001
 40
0.0
 40
0.0
 40
0.0
 40
0.0
 40
0.3383424052442969
 40
0.7904011483350304
 40
1.0
 40
1.0
 40
1.0
 40
1.0
 10
270.6011542057422
 20
20.28784441868792
 30
0.0
 10
270.4738297104014
 20
20.36836160728284
 30
0.0
 10
270.1763871617625
 20
20.55645768196841
 30
0.0
 10
269.8581477550144
 20
20.89705604751198
 30
0.0
 10
269.6841425933208
 20
21.17876018556016
 30
0.0
 10
269.6290215120185
 20
21.26799797911404
 30
0.0
  0
LINE
  5
1BD
330
1F
100
AcDbEntity
  8
0
  6
Continuous
 62
     7
370
    15
100
AcDbLine
 10
248.8003873385
 20
64.5248126903
 30
0.0
 11
239.5277894687
 21
69.1446766943
 31
0.0
  0
LINE
  5
1BE
330
1F
100
AcDbEntity
  8
0
  6
Continuous
 62
     7
370
    15
100
AcDbLine
 10
221.7390667133
 20
38.3303662856
 30
0.0
 11
230.3688443602
 21
32.616085954
 31
0.0
  0
SPLINE
  5
1BF
330
1F
100
AcDbEntity
  8
0
  6
Continuous
 62
     7
370
    15
100
AcDbSpline
210
0.0
220
0.0
230
1.0
 70
     8
 71
     3
 72
    17
 73
    13
 74
     0
 42
0.000000001
 43
0.00000001
 40
0.0
 40
0.0
 40
0.0
 40
0.0
 40
0.0686630110537204
 40
0.18198576570017
 40
0.2957485635950421
 40
0.4099157868313743
 40
0.524407603382257
 40
0.6391299461360095
 40
0.7539958263877747
 40
0.8689357821054502
 40
0.9838977829244616
 40
1.0
 40
1.0
 40
1.0
 40
1.0
 10
248.4880541913118
 20
15.31873065210881
 30
0.0
 10
248.715781994618
 20
15.28282341329523
 30
0.0
 10
249.3193561464053
 20
15.18765417662199
 30
0.0
 10
250.350833218116
 20
15.17449477310706
 30
0.0
 10
251.570380318907
 20
15.2650350980882
 30
0.0
 10
252.8268732793624
 20
15.48716286243027
 30
0.0
 10
254.1106250592203
 20
15.83268861195895
 30
0.0
 10
255.414834777391
 20
16.30257252624455
 30
0.0
 10
256.732167133331
 20
16.89008574411518
 30
0.0
 10
258.0536902351358
 20
17.60489283264965
 30
0.0
 10
258.9979770252257
 20
18.16783109980366
 30
0.0
 10
259.4955750203392
 20
18.52221958477836
 30
0.0
 10
259.5567086467582
 20
18.5657588543502
 30
0.0
  0
LINE
  5
1C0
330
1F
100
AcDbEntity
  8
0
  6
Continuous
 62
     7
370
    15
100
AcDbLine
 10
243.6447705532
 20
17.3595018413
 30
0.0
 11
245.3022185879
 21
16.4026774575
 31
0.0
  0
SPLINE
  5
1C1
330
1F
100
AcDbEntity
  8
0
  6
Continuous
 62
     7
370
    15
100
AcDbSpline
210
0.0
220
0.0
230
1.0
 70
     8
 71
     3
 72
    15
 73
    11
 74
     0
 42
0.000000001
 43
0.00000001
 40
0.0
 40
0.0
 40
0.0
 40
0.0
 40
0.0814714976586068
 40
0.2357198112422538
 40
0.389839629248567
 40
0.5436277646235487
 40
0.6969462857990313
 40
0.849681475369724
 40
0.9931560691123547
 40
1.0
 40
1.0
 40
1.0
 40
1.0
 10
275.2763621248446
 20
51.8967906378814
 30
0.0
 10
275.2274713742043
 20
52.13309620403471
 30
0.0
 10
275.086016769298
 20
52.81679424629438
 30
0.0
 10
274.7772815511491
 20
53.88823267451443
 30
0.0
 10
274.3201747324628
 20
55.07687939897625
 30
0.0
 10
273.7683742632988
 20
56.17019352311662
 30
0.0
 10
273.1278445308973
 20
57.16363685089216
 30
0.0
 10
272.4132325607618
 20
58.02989739224999
 30
0.0
 10
271.8831959159468
 20
58.55189474966119
 30
0.0
 10
271.6022575918811
 20
58.78439634007651
 30
0.0
 10
271.5894666036891
 20
58.79498202683723
 30
0.0
  0
SPLINE
  5
1C2
330
1F
100
AcDbEntity
  8
0
  6
Continuous
 62
     7
370
    15
100
AcDbSpline
210
0.0
220
0.0
230
1.0
 70
     8
 71
     3
 72
    28
 73
    24
 74
     0
 42
0.000000001
 43
0.00000001
 40
0.0
 40
0.0
 40
0.0
 40
0.0
 40
0.0317763262426132
 40
0.0783241105996487
 40
0.1251247781791408
 40
0.1723748749297052
 40
0.2201592228156243
 40
0.2684508436708868
 40
0.3171450504167265
 40
0.3661080950635833
 40
0.4152171270800181
 40
0.4643788065430183
 40
0.5135224312936209
 40
0.5626232810128692
 40
0.6116727447972907
 40
0.6606720803681388
 40
0.7096282056900575
 40
0.7585511105697764
 40
0.8074523738645849
 40
0.856344373121212
 40
0.9052398966054592
 40
0.9541480578265994
 40
1.0
 40
1.0
 40
1.0
 40
1.0
 10
239.3884445685584
 20
69.19572268876827
 30
0.0
 10
239.1919404932844
 20
69.2879104986042
 30
0.0
 10
238.707585983341
 20
69.5151402972411
 30
0.0
 10
237.8676765172237
 20
69.73588964814742
 30
0.0
 10
236.8878966091221
 20
69.87492351645602
 30
0.0
 10
235.8615364435855
 20
69.88340456311887
 30
0.0
 10
234.7974824749843
 20
69.76636074357133
 30
0.0
 10
233.7021888064241
 20
69.52186536085614
 30
0.0
 10
232.5845480398229
 20
69.15139918712431
 30
0.0
 10
231.4540440796989
 20
68.65759288520985
 30
0.0
 10
230.3204551349533
 20
68.04485115365429
 30
0.0
 10
229.193348744666
 20
67.31887348092644
 30
0.0
 10
228.0817470859695
 20
66.48628925448531
 30
0.0
 10
226.9941143844153
 20
65.55436901717512
 30
0.0
 10
225.9383738937057
 20
64.53080377002595
 30
0.0
 10
224.9221250339853
 20
63.42377024927361
 30
0.0
 10
223.9526851490175
 20
62.241905367975
 30
0.0
 10
223.0370035277186
 20
60.99428285519549
 30
0.0
 10
222.1819186046849
 20
59.69035738005473
 30
0.0
 10
221.3930523446263
 20
58.33997599427082
 30
0.0
 10
220.6787693479732
 20
56.95311741871331
 30
0.0
 10
220.0487662246239
 20
55.57033144647303
 30
0.0
 10
219.7023024075677
 20
54.64793625993076
 30
0.0
 10
219.5346576041561
 20
54.20161329024945
 30
0.0
  0
LINE
  5
1C3
330
1F
100
AcDbEntity
  8
0
  6
Continuous
 62
     7
370
    15
100
AcDbLine
 10
219.9637772282
 20
51.9861881624
 30
0.0
 11
223.7484558168
 21
49.801339719
 31
0.0
  0
LINE
  5
1C4
330
1F
100
AcDbEntity
  8
0
  6
Continuous
 62
     7
370
    15
100
AcDbLine
 10
219.458337536
 20
53.7558349988
 30
0.0
 11
219.458337536
 21
53.1033294902
 31
0.0
  0
LINE
  5
1C5
330
1F
100
AcDbEntity
  8
0
  6
Continuous
 62
     7
370
    15
100
AcDbLine
 10
223.8537174263
 20
37.8749301507
 30
0.0
 11
223.8394424463
 21
37.9848680879
 31
0.0
  0
LINE
  5
1C6
330
1F
100
AcDbEntity
  8
0
  6
Continuous
 62
     7
370
    15
100
AcDbLine
 10
219.458337536
 20
41.5975423098
 30
0.0
 11
219.458337536
 21
40.9450368012
 31
0.0
  0
SPLINE
  5
1C7
330
1F
100
AcDbEntity
  8
0
  6
Continuous
 62
     7
370
    15
100
AcDbSpline
210
0.0
220
0.0
230
1.0
 70
     8
 71
     3
 72
    11
 73
     7
 74
     0
 42
0.000000001
 43
0.00000001
 40
0.0
 40
0.0
 40
0.0
 40
0.0
 40
0.274726625186053
 40
0.590013004200849
 40
0.901523053088737
 40
0.9999999999999999
 40
0.9999999999999999
 40
0.9999999999999999
 40
0.9999999999999999
 10
219.5899412636746
 20
40.61318487078706
 30
0.0
 10
219.7499725113328
 20
40.36099445642166
 30
0.0
 10
220.0936615044651
 20
39.81938104742055
 30
0.0
 10
220.738075639653
 20
39.12102009503351
 30
0.0
 10
221.3008150970257
 20
38.61186664824763
 30
0.0
 10
221.6635182559035
 20
38.39323604995832
 30
0.0
 10
221.7506378477132
 20
38.34072200916795
 30
0.0
  0
SPLINE
  5
1C8
330
1F
100
AcDbEntity
  8
0
  6
Continuous
 62
     7
370
    15
100
AcDbSpline
210
0.0
220
0.0
230
1.0
 70
     8
 71
     3
 72
     9
 73
     5
 74
     0
 42
0.000000001
 43
0.00000001
 40
0.0
 40
0.0
 40
0.0
 40
0.0
 40
0.103285276466781
 40
1.0
 40
1.0
 40
1.0
 40
1.0
 10
219.5032684849464
 20
40.74484100774027
 30
0.0
 10
219.5058774471656
 20
40.73994295022367
 30
0.0
 10
219.531137216113
 20
40.69252033894593
 30
0.0
 10
219.5621403220793
 20
40.65069250517919
 30
0.0
 10
219.5899412636746
 20
40.61318487078706
 30
0.0
  0
LWPOLYLINE
  5
1C9
330
1F
100
AcDbEntity
  8
0
  6
Continuous
 62
     7
370
    15
100
AcDbPolyline
 90
       27
 70
   128
 43
0.0
 10
267.8774743777
 20
43.056521903
 10
267.4686195271
 20
43.3577879581
 10
267.1965356431
 20
43.7067846991
 10
267.0770352519
 20
44.083229704
 10
267.1170632819
 20
44.4652453572
 10
267.3142934495
 20
44.8306302978
 10
267.6572634543
 20
45.1581496809
 10
268.1260411262
 20
45.4287692706
 10
268.693382811
 20
45.62676164
 10
269.326316672
 20
45.7406201922
 10
269.9880588939
 20
45.7637278821
 10
270.6401514241
 20
45.6947417747
 10
271.244697015
 20
45.5376710917
 10
271.7665616742
 20
45.3016442105
 10
272.1754165248
 20
45.0003781553
 10
272.4475004089
 20
44.6513814143
 10
272.5670008001
 20
44.2749364095
 10
272.5269727701
 20
43.8929207562
 10
272.3297426025
 20
43.5275358157
 10
271.9867725976
 20
43.2000164325
 10
271.5179949257
 20
42.9293968428
 10
270.950653241
 20
42.7314044734
 10
270.31771938
 20
42.6175459212
 10
269.6559771581
 20
42.5944382313
 10
269.0038846279
 20
42.6634243388
 10
268.399339037
 20
42.8204950217
 10
267.8774743777
 20
43.056521903
  0
LWPOLYLINE
  5
1CA
330
1F
100
AcDbEntity
  8
0
  6
Continuous
 62
     7
370
    15
100
AcDbPolyline
 90
        8
 70
   128
 43
0.0
 10
267.7006976824
 20
42.750335686
 10
267.2686680087
 20
43.0657602669
 10
266.9742900953
 20
43.4301993859
 10
266.8334339317
 20
43.8240060358
 10
266.8536931102
 20
44.2259499981
 10
267.0339754533
 20
44.61436237
 10
267.3645618931
 20
44.9683037397
 10
267.7003529922
 20
45.1993610037
  0
LWPOLYLINE
  5
1CB
330
1F
100
AcDbEntity
  8
0
  6
Continuous
 62
     7
370
    15
100
AcDbPolyline
 90
       15
 70
   128
 43
0.0
 10
271.9436830597
 20
45.1993610037
 10
272.1752650207
 20
45.0491108369
 10
272.5409413871
 20
44.706864842
 10
272.7600398913
 20
44.3251610128
 10
272.8207488762
 20
43.9245771015
 10
272.7197955048
 20
43.5267086906
 10
272.4626221995
 20
43.1530049689
 10
272.0630932397
 20
42.823612401
 10
271.542747335
 20
42.5562886253
 10
270.9296364679
 20
42.3654451358
 10
270.2568136039
 20
42.2613703544
 10
269.5605507977
 20
42.2496749796
 10
268.8783837575
 20
42.330989512
 10
268.247088285
 20
42.5009302641
 10
267.7006976824
 20
42.750335686
  0
LWPOLYLINE
  5
1CC
330
1F
100
AcDbEntity
  8
0
  6
Continuous
 62
     7
370
    15
100
AcDbPolyline
 90
       22
 70
   128
 43
0.0
 10
268.5845811589
 20
43.4647259589
 10
268.2748160873
 20
43.7070232914
 10
268.1025266978
 20
43.9912652056
 10
268.0830216587
 20
44.2921955601
 10
268.2180340782
 20
44.5830753724
 10
268.4955675105
 20
44.8380586945
 10
268.8909618921
 20
45.0344891393
 10
269.369084697
 20
45.1549129997
 10
269.887452616
 20
45.1886300874
 10
270.4000063844
 20
45.1326444911
 10
270.8612033507
 20
44.9919307767
 10
271.2300641406
 20
44.7789919753
 10
271.473813854
 20
44.5127486338
 10
271.5707942594
 20
44.2168576415
 10
271.512388222
 20
43.9176102115
 10
271.3037853746
 20
43.6415957914
 10
270.9635209957
 20
43.4133394734
 10
270.5218290685
 20
43.2531228333
 10
270.0179558592
 20
43.1751818225
 10
269.4966727134
 20
43.1864418419
 10
269.0042979265
 20
43.2859023894
 10
268.5845811589
 20
43.4647259589
  0
SPLINE
  5
1CD
330
1F
100
AcDbEntity
  8
0
  6
Continuous
 62
     7
370
    15
100
AcDbSpline
210
0.0
220
0.0
230
1.0
 70
     8
 71
     3
 72
    14
 73
    10
 74
     0
 42
0.000000001
 43
0.00000001
 40
0.0
 40
0.0
 40
0.0
 40
0.0
 40
0.0736585238389949
 40
0.1823920179644128
 40
0.4055413260167556
 40
0.6322696225625135
 40
0.7239555614750339
 40
0.9078275679919935
 40
1.0
 40
1.0
 40
1.0
 40
1.0
 10
268.7611883872931
 20
43.36331445865349
 30
0.0
 10
268.7454829128339
 20
43.3723917343543
 30
0.0
 10
268.7065932768435
 20
43.39486873425059
 30
0.0
 10
268.6203556240346
 20
43.45301051868037
 30
0.0
 10
268.5027583923487
 20
43.54442613361071
 30
0.0
 10
268.3919047818208
 20
43.64663847599464
 30
0.0
 10
268.29154833853
 20
43.74766655569464
 30
0.0
 10
268.2194603638038
 20
43.82505092019678
 30
0.0
 10
268.1666267804885
 20
43.88546371390945
 30
0.0
 10
268.1489854184966
 20
43.90563580703565
 30
0.0
  0
SPLINE
  5
1CE
330
1F
100
AcDbEntity
  8
0
  6
Continuous
 62
     7
370
    15
100
AcDbSpline
210
0.0
220
0.0
230
1.0
 70
     8
 71
     3
 72
    18
 73
    14
 74
     0
 42
0.000000001
 43
0.00000001
 40
0.0
 40
0.0
 40
0.0
 40
0.0
 40
0.0538551658287112
 40
0.1618899270027002
 40
0.2715909575827617
 40
0.3834188972616734
 40
0.4398666969750957
 40
0.541755679907082
 40
0.6461432894603928
 40
0.7521916325929023
 40
0.8137863138508016
 40
0.9377075813487298
 40
1.0
 40
1.0
 40
1.0
 40
1.0
 10
271.4950506334478
 20
44.42321781007556
 30
0.0
 10
271.487498229633
 20
44.39530394655156
 30
0.0
 10
271.464795521667
 20
44.31139419975706
 30
0.0
 10
271.4256279213005
 20
44.17546155617342
 30
0.0
 10
271.3766003187142
 20
44.02001935736213
 30
0.0
 10
271.3339782969172
 20
43.90068866249842
 30
0.0
 10
271.2920261724917
 20
43.79624578394306
 30
0.0
 10
271.2509103178114
 20
43.70619539651496
 30
0.0
 10
271.2023602095512
 20
43.61902471432769
 30
0.0
 10
271.1609296498829
 20
43.56033370794063
 30
0.0
 10
271.1175721386368
 20
43.5106405553751
 30
0.0
 10
271.0816351502238
 20
43.47895903363769
 30
0.0
 10
271.05550423986
 20
43.46280163546976
 30
0.0
 10
271.0467628973638
 20
43.45739664386144
 30
0.0
  0
SPLINE
  5
1CF
330
1F
100
AcDbEntity
  8
0
  6
Continuous
 62
     7
370
    15
100
AcDbSpline
210
0.0
220
0.0
230
1.0
 70
     8
 71
     3
 72
    13
 73
     9
 74
     0
 42
0.000000001
 43
0.00000001
 40
0.0
 40
0.0
 40
0.0
 40
0.0
 40
0.1838529273213713
 40
0.3480769280718183
 40
0.5173798705048326
 40
0.6890065088068179
 40
0.8667059866786567
 40
1.0
 40
1.0
 40
1.0
 40
1.0
 10
270.2703057620562
 20
45.13024797476971
 30
0.0
 10
270.3414689022749
 20
45.05102458511663
 30
0.0
 10
270.4761975008355
 20
44.90103603446562
 30
0.0
 10
270.6901909759882
 20
44.71092425843633
 30
0.0
 10
270.9060987221816
 20
44.56504870508631
 30
0.0
 10
271.1267303572123
 20
44.47051485128487
 30
0.0
 10
271.3238331566654
 20
44.42853825884552
 30
0.0
 10
271.4436823991419
 20
44.42481403765795
 30
0.0
 10
271.4950506334478
 20
44.42321781007556
 30
0.0
  0
SPLINE
  5
1D0
330
1F
100
AcDbEntity
  8
0
  6
Continuous
 62
     7
370
    15
100
AcDbSpline
210
0.0
220
0.0
230
1.0
 70
     8
 71
     3
 72
    11
 73
     7
 74
     0
 42
0.000000001
 43
0.00000001
 40
0.0
 40
0.0
 40
0.0
 40
0.0
 40
0.2164553779443429
 40
0.4403112895790531
 40
0.751900568803868
 40
1.0
 40
1.0
 40
1.0
 40
1.0
 10
268.5972731545806
 20
44.87145697324976
 30
0.0
 10
268.711877509211
 20
44.84482249231601
 30
0.0
 10
268.9450045012862
 20
44.7906429068579
 30
0.0
 10
269.3776259342211
 20
44.78234679776383
 30
0.0
 10
269.8416900242426
 20
44.89947898808919
 30
0.0
 10
270.1386631750031
 20
45.05937090764846
 30
0.0
 10
270.2703057620562
 20
45.13024797476971
 30
0.0
  0
SPLINE
  5
1D1
330
1F
100
AcDbEntity
  8
0
  6
Continuous
 62
     7
370
    15
100
AcDbSpline
210
0.0
220
0.0
230
1.0
 70
     8
 71
     3
 72
    11
 73
     7
 74
     0
 42
0.000000001
 43
0.00000001
 40
0.0
 40
0.0
 40
0.0
 40
0.0
 40
0.2164553779443428
 40
0.4403112895790515
 40
0.7519005688038668
 40
1.0
 40
1.0
 40
1.0
 40
1.0
 10
268.1489854184966
 20
43.90563580703565
 30
0.0
 10
268.1796935627689
 20
43.92743357743217
 30
0.0
 10
268.2421597520293
 20
43.97177437637367
 30
0.0
 10
268.3580803156127
 20
44.1463057875631
 30
0.0
 10
268.4824259137702
 20
44.45955328880974
 30
0.0
 10
268.5619996296902
 20
44.7449472307168
 30
0.0
 10
268.5972731545806
 20
44.87145697324976
 30
0.0
  0
LINE
  5
1D2
330
1F
100
AcDbEntity
  8
0
  6
Continuous
 62
     7
370
    15
100
AcDbLine
 10
268.5972731546
 20
43.4742408115
 30
0.0
 11
268.5972731546
 21
44.8714569732
 31
0.0
  0
LINE
  5
1D3
330
1F
100
AcDbEntity
  8
0
  6
Continuous
 62
     7
370
    15
100
AcDbLine
 10
270.2703057621
 20
43.2025384627
 30
0.0
 11
270.2703057621
 21
45.1302479748
 31
0.0
  0
LWPOLYLINE
  5
1D4
330
1F
100
AcDbEntity
  8
0
  6
Continuous
 62
     7
370
    15
100
AcDbPolyline
 90
       64
 70
   128
 43
0.0
 10
275.496549945
 20
40.6582832645
 10
274.3911898826
 20
39.9564685599
 10
273.2968153851
 20
39.1342209591
 10
272.2243028379
 20
38.1997123281
 10
271.1843113526
 20
37.1622302334
 10
270.1871768318
 20
36.0320856383
 10
269.2428092463
 20
34.8205104275
 10
268.3605941455
 20
33.5395457798
 10
267.5492993794
 20
32.2019224973
 10
266.8169879599
 20
30.8209344811
 10
266.1709379269
 20
29.4103066106
 10
265.6175700158
 20
27.9840583393
 10
265.1623838455
 20
26.5563643634
 10
264.8099032608
 20
25.1414137469
 10
264.563631372
 20
23.7532689048
 10
264.4260157398
 20
22.4057258442
 10
264.3984240501
 20
21.1121770534
 10
264.4811305217
 20
19.8854784015
 10
264.6733131804
 20
18.7378213707
 10
264.9730620286
 20
17.6806118923
 10
265.3773980276
 20
16.724356989
 10
265.8823027046
 20
15.8785603517
 10
266.48275809
 20
15.1516278873
 10
267.1727965885
 20
14.5507841773
 10
267.9455602875
 20
14.0820006764
 10
268.7933691141
 20
13.7499363656
 10
269.7077971633
 20
13.5578914493
 10
270.6797564384
 20
13.507774556
 10
271.6995871714
 20
13.6000837701
 10
272.7571538263
 20
13.833901681
 10
273.8419458306
 20
14.2069045013
 10
274.9431820339
 20
14.7153851615
 10
276.0499178561
 20
15.3542901521
 10
277.1511540594
 20
16.1172697486
 10
278.2359460637
 20
16.9967411167
 10
279.2935127186
 20
17.9839636749
 10
280.3133434516
 20
19.069125962
 10
281.2853027267
 20
20.2414431476
 10
282.1997307759
 20
21.4892642168
 10
283.0475396025
 20
22.8001877631
 10
283.8203033015
 20
24.1611852396
 10
284.5103418
 20
25.5587304417
 10
285.1107971854
 20
26.9789339374
 10
285.6157018624
 20
28.4076811063
 10
286.0200378614
 20
29.8307724171
 10
286.3197867096
 20
31.2340645491
 10
286.5119693683
 20
32.6036109545
 10
286.5946758398
 20
33.9258004659
 10
286.5670841502
 20
35.18749257
 10
286.429468518
 20
36.3761480037
 10
286.1831966292
 20
37.4799533753
 10
285.8307160445
 20
38.4879385712
 10
285.3755298742
 20
39.3900857815
 10
284.8221619631
 20
40.1774290621
 10
284.1761119301
 20
40.8421434416
 10
283.4438005105
 20
41.37762269
 10
282.6325057444
 20
41.7785449738
 10
281.7502906436
 20
42.0409257473
 10
280.8059230582
 20
42.1621573526
 10
279.8087885374
 20
42.1410349353
 10
278.7687970521
 20
41.9777684197
 10
277.6962845049
 20
41.6739804217
 10
276.6019100074
 20
41.2326901229
 10
275.496549945
 20
40.6582832645
  0
LWPOLYLINE
  5
1D5
330
1F
100
AcDbEntity
  8
0
  6
Continuous
 62
     7
370
    15
100
AcDbPolyline
 90
       34
 70
   128
 43
0.0
 10
275.2844179106
 20
41.0257067248
 10
274.175480557
 20
40.322620942
 10
273.0772228764
 20
39.5004865095
 10
272.0002216905
 20
38.5672210313
 10
270.9548491095
 20
37.5318123641
 10
269.9511726428
 20
36.4042320593
 10
268.9988582435
 20
35.1953393318
 10
268.1070772199
 20
33.9167764794
 10
267.2844179106
 20
32.5808567611
 10
266.5388029746
 20
31.2004458143
 10
265.8774130913
 20
29.788837751
 10
265.3066178067
 20
28.3596271283
 10
264.8319141916
 20
26.9265780261
 10
264.4578739012
 20
25.5034914903
 10
264.1880991481
 20
24.1040726225
 10
264.0251880104
 20
22.7417985912
 10
263.9707094117
 20
21.42978884
 10
264.0251880104
 20
20.1806787402
 10
264.1880991481
 20
19.0064979047
 10
264.4578739012
 20
17.918554337
 10
264.8319141916
 20
16.9273255282
 10
265.3066178067
 20
16.0423575537
 10
265.8774130913
 20
15.2721731388
 10
266.5388029746
 20
14.6241895805
 10
267.2844179106
 20
14.1046473147
 10
268.1070772199
 20
13.7185498175
 10
268.9988582435
 20
13.4696154186
 10
269.9511726428
 20
13.3602414926
 10
270.9548491095
 20
13.3914813701
 10
272.0002216905
 20
13.563034194
 10
273.0772228764
 20
13.8732478168
 10
274.175480557
 20
14.3191347118
 10
275.2844179106
 20
14.8964007445
 10
275.2862567065
 20
14.8974624312
  0
LWPOLYLINE
  5
1D6
330
1F
100
AcDbEntity
  8
0
  6
Continuous
 62
     7
370
    15
100
AcDbPolyline
 90
       17
 70
   128
 43
0.0
 10
286.5981264096
 20
34.4923186292
 10
286.5436478108
 20
35.7414287291
 10
286.3807366732
 20
36.9156095645
 10
286.11096192
 20
38.0035531323
 10
285.7369216296
 20
38.9947819411
 10
285.2622180145
 20
39.8797499156
 10
284.69142273
 20
40.6499343304
 10
284.0300328467
 20
41.2979178887
 10
283.2844179106
 20
41.8174601545
 10
282.4617586014
 20
42.2035576518
 10
281.5699775777
 20
42.4524920506
 10
280.6176631785
 20
42.5618659766
 10
279.6139867118
 20
42.5306260992
 10
278.5686141308
 20
42.3590732753
 10
277.4916129449
 20
42.0488596524
 10
276.3933552642
 20
41.6029727574
 10
275.2844179106
 20
41.0257067248
  0
SPLINE
  5
1D7
330
1F
100
AcDbEntity
  8
0
  6
Continuous
 62
     7
370
    15
100
AcDbSpline
210
0.0
220
0.0
230
1.0
 70
    11
 71
     3
 72
    95
 73
    91
 74
     0
 42
0.000000001
 43
0.00000001
 40
0.0
 40
0.0
 40
0.0
 40
0.0
 40
0.031250000000001
 40
0.031250000000001
 40
0.0625000000000021
 40
0.0625000000000021
 40
0.0937500000000031
 40
0.0937500000000031
 40
0.1093750000000036
 40
0.1093750000000036
 40
0.1250000000000041
 40
0.1406250000000047
 40
0.1406250000000047
 40
0.1562500000000052
 40
0.1562500000000052
 40
0.1875000000000063
 40
0.1875000000000063
 40
0.2031250000000069
 40
0.2031250000000069
 40
0.2187500000000074
 40
0.2187500000000074
 40
0.234375000000008
 40
0.234375000000008
 40
0.2500000000000085
 40
0.2500000000000085
 40
0.2812500000000094
 40
0.2812500000000094
 40
0.2968750000000095
 40
0.2968750000000095
 40
0.3125000000000097
 40
0.3125000000000097
 40
0.3437500000000102
 40
0.3437500000000102
 40
0.3750000000000107
 40
0.3750000000000107
 40
0.4062500000000111
 40
0.4062500000000111
 40
0.4375000000000116
 40
0.4375000000000116
 40
0.468750000000012
 40
0.468750000000012
 40
0.5000000000000125
 40
0.5000000000000125
 40
0.5156250000000124
 40
0.5156250000000124
 40
0.5312500000000122
 40
0.5312500000000122
 40
0.5625000000000112
 40
0.5625000000000112
 40
0.5781250000000108
 40
0.5781250000000108
 40
0.5937500000000103
 40
0.5937500000000103
 40
0.6250000000000091
 40
0.6250000000000091
 40
0.6406250000000085
 40
0.6406250000000085
 40
0.6562500000000079
 40
0.6562500000000079
 40
0.6718750000000073
 40
0.6718750000000073
 40
0.6875000000000067
 40
0.6875000000000067
 40
0.7187500000000054
 40
0.7187500000000054
 40
0.7343750000000048
 40
0.7343750000000048
 40
0.7500000000000042
 40
0.7500000000000042
 40
0.7656250000000037
 40
0.7656250000000037
 40
0.781250000000003
 40
0.781250000000003
 40
0.8125000000000017
 40
0.8125000000000017
 40
0.8437500000000004
 40
0.8437500000000004
 40
0.8749999999999991
 40
0.8749999999999991
 40
0.890624999999999
 40
0.890624999999999
 40
0.9062499999999988
 40
0.9062499999999988
 40
0.9374999999999989
 40
0.9374999999999989
 40
0.9531249999999992
 40
0.9531249999999992
 40
0.9687499999999996
 40
0.9687499999999996
 40
1.0
 40
1.0
 40
1.0
 40
1.0
 10
269.8054904418958
 20
46.01489687421663
 30
0.0
 10
269.578948382344
 20
46.04525985572883
 30
0.0
 10
269.3536306422726
 20
46.06315405780593
 30
0.0
 10
268.9052737631932
 20
46.07113976951641
 30
0.0
 10
268.680274756982
 20
46.06075921339109
 30
0.0
 10
268.2523085030414
 20
46.00893495980211
 30
0.0
 10
268.0472462628144
 20
45.96780510847377
 30
0.0
 10
267.7539550210777
 20
45.88051895021456
 30
0.0
 10
267.6583532731692
 20
45.84694854256957
 30
0.0
 10
267.4774473205721
 20
45.77275268595125
 30
0.0
 10
267.3054533086409
 20
45.69116272423908
 30
0.0
 10
267.1510741397676
 20
45.59487531256028
 30
0.0
 10
267.005677452526
 20
45.49111032476996
 30
0.0
 10
266.9372247932934
 20
45.4351739035695
 30
0.0
 10
266.7505607307238
 20
45.26041488235136
 30
0.0
 10
266.6490804598035
 20
45.13368884171352
 30
0.0
 10
266.5298952914789
 20
44.92974701520166
 30
0.0
 10
266.4957580735257
 20
44.85932522297483
 30
0.0
 10
266.4398662396419
 20
44.71730705494012
 30
0.0
 10
266.4178544786279
 20
44.64532258786085
 30
0.0
 10
266.3851910498892
 20
44.49970144430073
 30
0.0
 10
266.3745409310487
 20
44.42606414875502
 30
0.0
 10
266.3644681807639
 20
44.27738986090399
 30
0.0
 10
266.3651192834895
 20
44.20229827932794
 30
0.0
 10
266.3834484080449
 20
43.97978419430794
 30
0.0
 10
266.4171585594869
 20
43.83358656467425
 30
0.0
 10
266.4984250184505
 20
43.61869983438861
 30
0.0
 10
266.5308655474693
 20
43.54748709168307
 30
0.0
 10
266.6050326423127
 20
43.40891185407462
 30
0.0
 10
266.64673840494
 20
43.34144710017848
 30
0.0
 10
266.7852231574656
 20
43.14459202487835
 30
0.0
 10
266.8952549341899
 20
43.02070747420349
 30
0.0
 10
267.1510504486757
 20
42.78882808923445
 30
0.0
 10
267.2947252305828
 20
42.68299065090639
 30
0.0
 10
267.6079016180875
 20
42.49446674913102
 30
0.0
 10
267.7780495549092
 20
42.41118348496218
 30
0.0
 10
268.1467348973309
 20
42.26730498773497
 30
0.0
 10
268.3398471049424
 20
42.20882556654005
 30
0.0
 10
268.7430377916738
 20
42.1171480843561
 30
0.0
 10
268.9539845266212
 20
42.08385735303847
 30
0.0
 10
269.3908716205507
 20
42.0433706400425
 30
0.0
 10
269.6115321932724
 20
42.03654465036963
 30
0.0
 10
269.9460354702038
 20
42.04510046365338
 30
0.0
 10
270.0581260899677
 20
42.05110651990191
 30
0.0
 10
270.2835747559112
 20
42.06947757038792
 30
0.0
 10
270.397646638732
 20
42.08195129797916
 30
0.0
 10
270.7357089094223
 20
42.12837438083791
 30
0.0
 10
270.9553621781287
 20
42.17098833256758
 30
0.0
 10
271.2761235927306
 20
42.2515725645525
 30
0.0
 10
271.3815800204263
 20
42.28123514483553
 30
0.0
 10
271.5893897822187
 20
42.34634048725
 30
0.0
 10
271.6913620327254
 20
42.38172059985427
 30
0.0
 10
271.9839204709479
 20
42.49352845301682
 30
0.0
 10
272.1641599905676
 20
42.57639968930967
 30
0.0
 10
272.4115721775287
 20
42.71320689988173
 30
0.0
 10
272.4904497692744
 20
42.76114985183718
 30
0.0
 10
272.6361790769228
 20
42.85876342074278
 30
0.0
 10
272.7035788832949
 20
42.90870051109784
 30
0.0
 10
272.8277567613885
 20
43.01084640041402
 30
0.0
 10
272.8845342298707
 20
43.0630551873871
 30
0.0
 10
272.9874348072834
 20
43.16988227821608
 30
0.0
 10
273.0335359426943
 20
43.2245929454642
 30
0.0
 10
273.1528491072048
 20
43.38863830155187
 30
0.0
 10
273.2086363495443
 20
43.49916064957595
 30
0.0
 10
273.2584893587194
 20
43.66798247276667
 30
0.0
 10
273.2693269233147
 20
43.72470125080297
 30
0.0
 10
273.2795281754783
 20
43.83707673827149
 30
0.0
 10
273.2789933088411
 20
43.89303135617565
 30
0.0
 10
273.2670954803074
 20
44.00476127337916
 30
0.0
 10
273.2557311423653
 20
44.06053605791802
 30
0.0
 10
273.2222709981356
 20
44.17217634552907
 30
0.0
 10
273.2000549988716
 20
44.22819054598072
 30
0.0
 10
273.1187814774631
 20
44.3936603171425
 30
0.0
 10
273.0450601685035
 20
44.50155320790641
 30
0.0
 10
272.8601639722423
 20
44.71440171714711
 30
0.0
 10
272.7479262892777
 20
44.81992074773374
 30
0.0
 10
272.4940407235477
 20
45.02163780174693
 30
0.0
 10
272.3518064013947
 20
45.11875387724967
 30
0.0
 10
272.1154516858947
 20
45.25913275959982
 30
0.0
 10
272.032372072604
 20
45.30524855999734
 30
0.0
 10
271.860813407525
 20
45.39427750234839
 30
0.0
 10
271.7723585642757
 20
45.4372171752532
 30
0.0
 10
271.499132976565
 20
45.56132510281796
 30
0.0
 10
271.3065727738093
 20
45.63784746631221
 30
0.0
 10
271.0015079502695
 20
45.7422257845744
 30
0.0
 10
270.8966700767751
 20
45.77537331621744
 30
0.0
 10
270.6852262788672
 20
45.83667848110674
 30
0.0
 10
270.5782685168621
 20
45.8649774780564
 30
0.0
 10
270.2536597236518
 20
45.94251441497136
 30
0.0
 10
270.0320325014477
 20
45.98453389270443
 30
0.0
 10
269.8054904418958
 20
46.01489687421663
 30
0.0
  0
LINE
  5
1D8
330
1F
100
AcDbEntity
  8
0
  6
Continuous
 62
     7
370
    15
100
AcDbLine
 10
281.5065192657
 20
27.8427708051
 30
0.0
 11
283.6813109372
 21
30.548190969
 31
0.0
  0
SPLINE
  5
1D9
330
1F
100
AcDbEntity
  8
0
  6
Continuous
 62
     7
370
    15
100
AcDbSpline
210
0.0
220
0.0
230
1.0
 70
     8
 71
     3
 72
    20
 73
    16
 74
     0
 42
0.000000001
 43
0.00000001
 40
0.0
 40
0.0
 40
0.0
 40
0.0
 40
0.0469163091108917
 40
0.0977062414429326
 40
0.1516689633031477
 40
0.2078463383218493
 40
0.2651938476233371
 40
0.3192095203174431
 40
0.3728953068123728
 40
0.4259306594990928
 40
0.4781535685998775
 40
0.5793596734499658
 40
0.6698058354121668
 40
0.8327057026614824
 40
0.907499236378721
 40
0.907499236378721
 40
0.907499236378721
 40
0.907499236378721
 10
283.6813109371899
 20
30.54819096903878
 30
0.0
 10
283.7816422815293
 20
30.67300220756482
 30
0.0
 10
283.9806949685616
 20
30.94850425319627
 30
0.0
 10
284.2466540919115
 20
31.40807357487043
 30
0.0
 10
284.4730682962361
 20
31.91811563340739
 30
0.0
 10
284.6380953748463
 20
32.45465157759282
 30
0.0
 10
284.7210301191386
 20
32.97570829034882
 30
0.0
 10
284.7159924613466
 20
33.4494553988724
 30
0.0
 10
284.6272589876267
 20
33.85213266001131
 30
0.0
 10
284.4599880379643
 20
34.17216140583302
 30
0.0
 10
284.1574067521194
 20
34.47946784316679
 30
0.0
 10
283.6563948748868
 20
34.59773778366894
 30
0.0
 10
282.9444563003538
 20
34.63663367583302
 30
0.0
 10
282.4437615020894
 20
34.69009045057664
 30
0.0
 10
281.739047558644
 20
34.75332846863738
 30
0.0
 10
281.5061448521289
 20
34.7740267303847
 30
0.0
  0
SPLINE
  5
1DA
330
1F
100
AcDbEntity
  8
0
  6
Continuous
 62
     7
370
    15
100
AcDbSpline
210
0.0
220
0.0
230
1.0
 70
     8
 71
     3
 72
    20
 73
    16
 74
     0
 42
0.000000001
 43
0.00000001
 40
0.0
 40
0.0
 40
0.0
 40
0.0
 40
0.0469163091108917
 40
0.0977062414429324
 40
0.1516689633031476
 40
0.2078463383218491
 40
0.265193847623337
 40
0.319209520317443
 40
0.3728953068123727
 40
0.4259306594990926
 40
0.4781535685998772
 40
0.5793596734499656
 40
0.6698058354121665
 40
0.8327057026614824
 40
0.9074992363787213
 40
0.9074992363787213
 40
0.9074992363787213
 40
0.9074992363787213
 10
267.3117889527182
 20
21.09826707468915
 30
0.0
 10
267.2114576083787
 20
21.10723820876684
 30
0.0
 10
267.0124049213464
 20
21.15291891383549
 30
0.0
 10
266.7464457979966
 20
21.3054183678559
 30
0.0
 10
266.520031593672
 20
21.55404815039644
 30
0.0
 10
266.3550045150618
 20
21.90004788529577
 30
0.0
 10
266.2720697707695
 20
22.32535018048198
 30
0.0
 10
266.2771074285614
 20
22.8049136448875
 30
0.0
 10
266.3658409022814
 20
23.31004039408482
 30
0.0
 10
266.5331118519438
 20
23.82319606756455
 30
0.0
 10
266.8356931377886
 20
24.47985542134881
 30
0.0
 10
267.3367050150213
 20
25.17658136252157
 30
0.0
 10
268.0486435895542
 20
26.03746403636085
 30
0.0
 10
268.5493383878186
 20
26.66901072019081
 30
0.0
 10
269.2540523312641
 20
27.54589413842429
 30
0.0
 10
269.4869550377791
 20
27.83549614133689
 30
0.0
  0
LINE
  5
1DB
330
1F
100
AcDbEntity
  8
0
  6
Continuous
 62
     7
370
    15
100
AcDbLine
 10
269.4865806242
 20
20.9038079273
 30
0.0
 11
267.3117889527
 21
21.0982670747
 31
0.0
  0
SPLINE
  5
1DC
330
1F
100
AcDbEntity
  8
0
  6
Continuous
 62
     7
370
    15
100
AcDbSpline
210
0.0
220
0.0
230
1.0
 70
     8
 71
     3
 72
    14
 73
    10
 74
     0
 42
0.000000001
 43
0.00000001
 40
0.0
 40
0.0
 40
0.0
 40
0.0
 40
0.25
 40
0.25
 40
0.5
 40
0.5
 40
0.75
 40
0.75
 40
1.0
 40
1.0
 40
1.0
 40
1.0
 10
241.27281312026
 20
32.59503319511043
 30
0.0
 10
241.2256400130277
 20
32.5678007399643
 30
0.0
 10
241.1700759483289
 20
32.54605638182336
 30
0.0
 10
241.0481504762099
 20
32.51581095441733
 30
0.0
 10
240.982053955334
 20
32.50751192430704
 30
0.0
 10
240.8498620261972
 20
32.50607930852727
 30
0.0
 10
240.7829268746665
 20
32.51302928270889
 30
0.0
 10
240.6603163829962
 20
32.54123863631829
 30
0.0
 10
240.6033809281925
 20
32.56281448062595
 30
0.0
 10
240.5566383848203
 20
32.58979837654634
 30
0.0
  0
SPLINE
  5
1DD
330
1F
100
AcDbEntity
  8
0
  6
Continuous
 62
     7
370
    15
100
AcDbSpline
210
0.0
220
0.0
230
1.0
 70
     8
 71
     3
 72
    12
 73
     8
 74
     0
 42
0.000000001
 43
0.00000001
 40
0.0
 40
0.0
 40
0.0
 40
0.0
 40
0.2500000000000016
 40
0.2500000000000016
 40
0.5000000000000032
 40
0.5000000000000032
 40
1.0
 40
1.0
 40
1.0
 40
1.0
 10
268.8851015409001
 20
60.35502297170063
 30
0.0
 10
268.9388735598481
 20
60.3239810459079
 30
0.0
 10
268.9913618349663
 20
60.27500641665108
 30
0.0
 10
269.0823677619048
 20
60.15827554180157
 30
0.0
 10
269.1209421154342
 20
60.09082407646842
 30
0.0
 10
269.2107657047304
 20
59.88650684946153
 30
0.0
 10
269.2386549314933
 20
59.74614402026413
 30
0.0
 10
269.2386549314933
 20
59.62332729520944
 30
0.0
  0
LINE
  5
1DE
330
1F
100
AcDbEntity
  8
0
  6
Continuous
 62
     7
370
    15
100
AcDbLine
 10
240.5566383848
 20
32.5897983765
 30
0.0
 11
238.8991903502
 21
33.5466227604
 31
0.0
  0
LWPOLYLINE
  5
1DF
330
1F
100
AcDbEntity
  8
0
  6
Continuous
 62
     7
370
    15
100
AcDbPolyline
 90
       26
 70
   128
 43
0.0
 10
238.8991903502
 20
33.5466227604
 10
239.2707558192
 20
35.3589272928
 10
239.7531478709
 20
37.1952178449
 10
240.3431980193
 20
39.043433146
 10
241.0370306496
 20
40.8914336003
 10
241.8300884748
 20
42.7270810233
 10
242.717162469
 20
44.5383183685
 10
243.6924260817
 20
46.3132489217
 10
244.7494735084
 20
48.0402144419
 10
245.8813617654
 20
49.7078717359
 10
247.0806562938
 20
51.3052671634
 10
248.339479791
 20
52.8219085839
 10
249.6495639519
 20
54.2478342717
 10
251.0023037766
 20
55.5736783475
 10
252.3888140911
 20
56.790732296
 10
253.7999879074
 20
57.8910021661
 10
255.2265562405
 20
58.8672610771
 10
256.65914899
 20
59.7130966869
 10
258.0883564856
 20
60.4229533105
 10
259.504791292
 20
60.9921684106
 10
260.8991498688
 20
61.417003223
 10
262.2622736783
 20
61.6946673138
 10
263.5852093414
 20
61.8233369073
 10
264.8592674462
 20
61.8021668657
 10
266.0760796222
 20
61.6312962397
 10
267.2276535062
 20
61.3118473555
  0
LINE
  5
1E0
330
1F
100
AcDbEntity
  8
0
  6
Continuous
 62
     7
370
    15
100
AcDbLine
 10
267.2276535062
 20
61.3118473555
 30
0.0
 11
268.8851015409
 21
60.3550229717
 31
0.0
  0
LINE
  5
1E1
330
1F
100
AcDbEntity
  8
0
  6
Continuous
 62
     7
370
    15
100
AcDbLine
 10
273.6757499834
 20
50.8925800758
 30
0.0
 11
275.1142667425
 21
51.7230181244
 31
0.0
  0
LINE
  5
1E2
330
1F
100
AcDbEntity
  8
0
  6
Continuous
 62
     7
370
    15
100
AcDbLine
 10
273.6757499834
 20
47.3644261394
 30
0.0
 11
273.6757499834
 21
50.8925800758
 31
0.0
  0
LINE
  5
1E3
330
1F
100
AcDbEntity
  8
0
  6
Continuous
 62
     7
370
    15
100
AcDbLine
 10
241.2728131203
 20
23.6130842644
 30
0.0
 11
242.6337622893
 21
24.3987434965
 31
0.0
  0
LINE
  5
1E4
330
1F
100
AcDbEntity
  8
0
  6
Continuous
 62
     7
370
    15
100
AcDbLine
 10
242.6337622893
 20
24.3987434965
 30
0.0
 11
242.6337622893
 21
33.3806924272
 31
0.0
  0
LINE
  5
1E5
330
1F
100
AcDbEntity
  8
0
  6
Continuous
 62
     7
370
    15
100
AcDbLine
 10
242.6337622893
 20
33.3806924272
 30
0.0
 11
241.2728131203
 21
32.5950331951
 31
0.0
  0
LINE
  5
1E6
330
1F
100
AcDbEntity
  8
0
  6
Continuous
 62
     7
370
    15
100
AcDbLine
 10
269.2386549315
 20
59.6233272952
 30
0.0
 11
269.2386549315
 21
57.0476727918
 31
0.0
  0
LINE
  5
1E7
330
1F
100
AcDbEntity
  8
0
  6
Continuous
 62
     7
370
    15
100
AcDbLine
 10
271.4691163351
 20
58.3352907524
 30
0.0
 11
269.2386549315
 21
57.0476727918
 31
0.0
  0
LWPOLYLINE
  5
1E8
330
1F
100
AcDbEntity
  8
0
  6
Continuous
 62
     7
370
    15
100
AcDbPolyline
 90
       24
 70
   128
 43
0.0
 10
237.9204047592
 20
35.0928250896
 10
238.2952505141
 20
36.8491050413
 10
238.7783627044
 20
38.6271278729
 10
239.3664763421
 20
40.4148772793
 10
240.055616814
 20
42.200271221
 10
240.8411267435
 20
43.9712435773
 10
241.7176974659
 20
45.715825692
 10
242.6794049059
 20
47.4222272605
 10
243.7197496138
 20
49.0789160115
 10
244.8317006906
 20
50.6746956448
 10
246.0077433038
 20
52.1987814988
 10
247.2399294754
 20
53.6408734355
 10
248.5199317954
 20
54.9912254514
 10
249.8390997011
 20
56.2407115437
 10
251.1885179391
 20
57.3808873854
 10
252.5590668172
 20
58.4040473946
 10
253.9414838371
 20
59.3032768104
 10
255.3264262929
 20
60.0724984247
 10
256.704534411
 20
60.706513653
 10
258.0664946062
 20
61.2010376685
 10
259.4031024245
 20
61.5527283591
 10
260.7053247496
 20
61.7592089148
 10
261.9643608505
 20
61.8190838903
 10
262.8517070451
 20
61.7699047153
  0
SPLINE
  5
1E9
330
1F
100
AcDbEntity
  8
0
  6
Continuous
 62
     7
370
    15
100
AcDbSpline
210
0.0
220
0.0
230
1.0
 70
     8
 71
     3
 72
     8
 73
     4
 74
     0
 42
0.000000001
 43
0.00000001
 40
0.0
 40
0.0
 40
0.0
 40
0.0
 40
1.0
 40
1.0
 40
1.0
 40
1.0
 10
237.9204047591568
 20
35.09282508955003
 30
0.0
 10
237.4778684053114
 20
35.02113855912079
 30
0.0
 10
237.0352592152598
 20
34.94960239351902
 30
0.0
 10
236.5925875090434
 20
34.8781962372143
 30
0.0
  0
LWPOLYLINE
  5
1EA
330
1F
100
AcDbEntity
  8
0
  6
Continuous
 62
     7
370
    15
100
AcDbPolyline
 90
       26
 70
   128
 43
0.0
 10
236.592587509
 20
34.8781962372
 10
236.9641529781
 20
36.6905007696
 10
237.4465450298
 20
38.5267913217
 10
238.0365951782
 20
40.3750066229
 10
238.7304278085
 20
42.2230070772
 10
239.5234856337
 20
44.0586545002
 10
240.4105596279
 20
45.8698918454
 10
241.3858232406
 20
47.6448223986
 10
242.4428706673
 20
49.3717879188
 10
243.5747589243
 20
51.0394452127
 10
244.7740534527
 20
52.6368406402
 10
246.0328769499
 20
54.1534820607
 10
247.3429611108
 20
55.5794077485
 10
248.6957009355
 20
56.9052518243
 10
250.08221125
 20
58.1223057729
 10
251.4933850663
 20
59.222575643
 10
252.9199533994
 20
60.1988345539
 10
254.3525461489
 20
61.0446701638
 10
255.7817536445
 20
61.7545267873
 10
257.1981884509
 20
62.3237418874
 10
258.5925470277
 20
62.7485766999
 10
259.9556708371
 20
63.0262407906
 10
261.2786065002
 20
63.1549103842
 10
262.5526646051
 20
63.1337403426
 10
263.7694767811
 20
62.9628697166
 10
264.9210506651
 20
62.6434208324
  0
LINE
  5
1EB
330
1F
100
AcDbEntity
  8
0
  6
Continuous
 62
     7
370
    15
100
AcDbLine
 10
264.9210506651
 20
62.6434208324
 30
0.0
 11
265.2032822912
 21
61.7439508341
 31
0.0
  0
LINE
  5
1EC
330
1F
100
AcDbEntity
  8
0
  6
Continuous
 62
     7
370
    15
100
AcDbLine
 10
260.7533735573
 20
65.0493696147
 30
0.0
 11
264.9210506651
 21
62.6434208324
 31
0.0
  0
LINE
  5
1ED
330
1F
100
AcDbEntity
  8
0
  6
Continuous
 62
     7
370
    15
100
AcDbLine
 10
236.592587509
 20
34.8781962372
 30
0.0
 11
235.9604443071
 21
35.24312474
 31
0.0
  0
SPLINE
  5
1EE
330
1F
100
AcDbEntity
  8
0
  6
Continuous
 62
     7
370
    15
100
AcDbSpline
210
0.0
220
0.0
230
1.0
 70
     8
 71
     3
 72
    30
 73
    26
 74
     0
 42
0.000000001
 43
0.00000001
 40
0.0
 40
0.0
 40
0.0
 40
0.0
 40
0.1250000000000006
 40
0.1250000000000006
 40
0.187500000000001
 40
0.187500000000001
 40
0.2500000000000013
 40
0.2500000000000013
 40
0.3750000000000014
 40
0.3750000000000014
 40
0.4375000000000014
 40
0.4375000000000014
 40
0.5000000000000013
 40
0.5000000000000013
 40
0.625000000000001
 40
0.625000000000001
 40
0.6875000000000009
 40
0.6875000000000009
 40
0.7500000000000007
 40
0.7500000000000007
 40
0.8125000000000006
 40
0.8125000000000006
 40
0.8750000000000004
 40
0.8750000000000004
 40
1.0
 40
1.0
 40
1.0
 40
1.0
 10
235.9604443071078
 20
35.24312473997016
 30
0.0
 10
235.7261286735012
 20
35.37839227600079
 30
0.0
 10
235.4906281969724
 20
35.48165480493014
 30
0.0
 10
235.1360777495828
 20
35.59089754269392
 30
0.0
 10
235.0176834861837
 20
35.61965050469062
 30
0.0
 10
234.7806288411335
 20
35.66160366934032
 30
0.0
 10
234.6618089298976
 20
35.67470880424242
 30
0.0
 10
234.3131650459214
 20
35.68996019325674
 30
0.0
 10
234.0884002032795
 20
35.66888143181474
 30
0.0
 10
233.7641895556757
 20
35.59187837993905
 30
0.0
 10
233.6577734797645
 20
35.55836977490583
 30
0.0
 10
233.4524642497921
 20
35.47683142878221
 30
0.0
 10
233.3538695192843
 20
35.42902582368087
 30
0.0
 10
233.0703715254854
 20
35.26535861412797
 30
0.0
 10
232.8976285518152
 20
35.12944651765138
 30
0.0
 10
232.6655037533191
 20
34.8850753807463
 30
0.0
 10
232.5931897674931
 20
34.79725829553865
 30
0.0
 10
232.4608714534235
 20
34.61187772659838
 30
0.0
 10
232.4005175147027
 20
34.51395672655805
 30
0.0
 10
232.2915543805596
 20
34.30786887585381
 30
0.0
 10
232.2429445554615
 20
34.19970206900955
 30
0.0
 10
232.1579087395668
 20
33.9730123555028
 30
0.0
 10
232.1213578603918
 20
33.85387192778003
 30
0.0
 10
232.0323635832989
 20
33.4858875993259
 30
0.0
 10
232.0000270263188
 20
33.22666247402923
 30
0.0
 10
231.9953411200219
 20
32.95345589259908
 30
0.0
  0
ARC
  5
1EF
330
1F
100
AcDbEntity
  8
0
  6
Continuous
 62
     7
370
    15
100
AcDbCircle
 10
255.5634061962
 20
32.5451854867
 30
0.0
 40
23.57160105208277
100
AcDbArc
 50
179.0075624958
 51
180.9924375042
  0
SPLINE
  5
1F0
330
1F
100
AcDbEntity
  8
0
  6
Continuous
 62
     7
370
    15
100
AcDbSpline
210
0.0
220
0.0
230
1.0
 70
     8
 71
     3
 72
    30
 73
    26
 74
     0
 42
0.000000001
 43
0.00000001
 40
0.0
 40
0.0
 40
0.0
 40
0.0
 40
0.1249999999999998
 40
0.1249999999999998
 40
0.1874999999999997
 40
0.1874999999999997
 40
0.2499999999999996
 40
0.2499999999999996
 40
0.3749999999999996
 40
0.3749999999999996
 40
0.4374999999999998
 40
0.4374999999999998
 40
0.5
 40
0.5
 40
0.6250000000000002
 40
0.6250000000000002
 40
0.6875000000000002
 40
0.6875000000000002
 40
0.7500000000000001
 40
0.7500000000000001
 40
0.8125000000000001
 40
0.8125000000000001
 40
0.8750000000000001
 40
0.8750000000000001
 40
1.0
 40
1.0
 40
1.0
 40
1.0
 10
231.9953411200219
 20
32.13691508071333
 30
0.0
 10
232.0000273666807
 20
31.8690992800816
 30
0.0
 10
232.0323368869995
 20
31.59538311509619
 30
0.0
 10
232.119994942368
 20
31.17613496790078
 30
0.0
 10
232.1557891136815
 20
31.03492454920848
 30
0.0
 10
232.240649728534
 20
30.74942393421633
 30
0.0
 10
232.2899023764477
 20
30.6048388693853
 30
0.0
 10
232.454106712617
 20
30.17574660023369
 30
0.0
 10
232.5861591706774
 20
29.89277378474986
 30
0.0
 10
232.8162097381964
 20
29.47176987401272
 30
0.0
 10
232.8986727766902
 20
29.33136480413892
 30
0.0
 10
233.0724245119093
 20
29.05470051004469
 30
0.0
 10
233.163226103743
 20
28.91911596099832
 30
0.0
 10
233.4466205759743
 20
28.52001889423867
 30
0.0
 10
233.6501004506414
 20
28.26409195123149
 30
0.0
 10
233.9760084378902
 20
27.89446597119581
 30
0.0
 10
234.0877490533512
 20
27.77414712401029
 30
0.0
 10
234.3130531574886
 20
27.54330952587949
 30
0.0
 10
234.4271758049677
 20
27.43214693179994
 30
0.0
 10
234.6580855915321
 20
27.21807312262496
 30
0.0
 10
234.7748730075408
 20
27.11516199589049
 30
0.0
 10
235.0109559700107
 20
26.91760382897526
 30
0.0
 10
235.1308333444004
 20
26.82253205636988
 30
0.0
 10
235.4893165995642
 20
26.55372697776731
 30
0.0
 10
235.7261252661274
 20
26.39644531229254
 30
0.0
 10
235.9604443071078
 20
26.26117580922691
 30
0.0
  0
LINE
  5
1F1
330
1F
100
AcDbEntity
  8
0
  6
Continuous
 62
     7
370
    15
100
AcDbLine
 10
235.9604443071
 20
26.2611758092
 30
0.0
 11
236.592587509
 21
25.8962473065
 31
0.0
  0
LWPOLYLINE
  5
1F2
330
1F
100
AcDbEntity
  8
0
  6
Continuous
 62
     7
370
    15
100
AcDbPolyline
 90
       10
 70
   128
 43
0.0
 10
242.544773996
 20
18.1176253164
 10
242.3229185145
 20
18.205837451
 10
241.2883858301
 20
18.7200435899
 10
240.3340292626
 20
19.3723978385
 10
239.465946352
 20
20.1587321988
 10
238.689683422
 20
21.0740226522
 10
238.0102001431
 20
22.1124212582
 10
237.4318378452
 20
23.2672935187
 10
236.9582917794
 20
24.5312607658
 10
236.592587509
 20
25.8962473065
  0
LINE
  5
1F3
330
1F
100
AcDbEntity
  8
0
  6
Continuous
 62
     7
370
    15
100
AcDbLine
 10
266.8730043081
 20
61.5160776556
 30
0.0
 11
267.2254151453
 21
61.3126352097
 31
0.0
  0
SPLINE
  5
1F4
330
1F
100
AcDbEntity
  8
0
  6
Continuous
 62
     7
370
    15
100
AcDbSpline
210
0.0
220
0.0
230
1.0
 70
     8
 71
     3
 72
    22
 73
    18
 74
     0
 42
0.000000001
 43
0.00000001
 40
0.0
 40
0.0
 40
0.0
 40
0.0
 40
0.2500000000000001
 40
0.2500000000000001
 40
0.3750000000000002
 40
0.3750000000000002
 40
0.5000000000000002
 40
0.5000000000000002
 40
0.6250000000000001
 40
0.6250000000000001
 40
0.7500000000000001
 40
0.7500000000000001
 40
0.875
 40
0.875
 40
0.9375
 40
0.9375
 40
1.0
 40
1.0
 40
1.0
 40
1.0
 10
260.7533735572547
 20
65.04936961468121
 30
0.0
 10
261.1854056527939
 20
64.88109917657478
 30
0.0
 10
261.6357803011592
 20
64.67042317169457
 30
0.0
 10
262.3607537428434
 20
64.28532893543792
 30
0.0
 10
262.6127210665629
 20
64.14420339716214
 30
0.0
 10
263.1255131796952
 20
63.84518642794495
 30
0.0
 10
263.3870344917542
 20
63.68702059058914
 30
0.0
 10
263.9246091733528
 20
63.35442064925164
 30
0.0
 10
264.2025717180156
 20
63.17872283788562
 30
0.0
 10
264.755177636761
 20
62.82707992179226
 30
0.0
 10
265.0321735619323
 20
62.64970109266954
 30
0.0
 10
265.590361141829
 20
62.29539067335698
 30
0.0
 10
265.8605372309888
 20
62.12553283364453
 30
0.0
 10
266.2520045460853
 20
61.88496384866981
 30
0.0
 10
266.3802517761932
 20
61.80709596612141
 30
0.0
 10
266.6321134153746
 20
61.65648967062298
 30
0.0
 10
266.7550056492211
 20
61.58419683141204
 30
0.0
 10
266.8730043080804
 20
61.51607765560995
 30
0.0
  0
LWPOLYLINE
  5
1F5
330
1F
100
AcDbEntity
  8
0
  6
Continuous
 62
     7
370
    15
100
AcDbPolyline
 90
        9
 70
   128
 43
0.0
 10
252.0790323269
 20
65.844414555
 10
252.2229321695
 20
65.8883263998
 10
253.5588624796
 20
66.2244609448
 10
254.8611134258
 20
66.421456504
 10
256.121656198
 20
66.4780985343
 10
257.3327191308
 20
66.3940378187
 10
258.4868356185
 20
66.1697926196
 10
259.5768901491
 20
65.8067454831
 10
260.595146332
 20
65.3077212439
  0
ARC
  5
1F6
330
1F
100
AcDbEntity
  8
0
  6
Continuous
 62
     7
370
    15
100
AcDbCircle
 10
241.3654645645
 20
30.9656387906
 30
0.0
 40
10.65650941747454
100
AcDbArc
 50
189.7824903562
 51
237.2283449357
  0
SPLINE
  5
1F7
330
1F
100
AcDbEntity
  8
0
  6
Continuous
 62
     7
370
    15
100
AcDbSpline
210
0.0
220
0.0
230
1.0
 70
     8
 71
     3
 72
    18
 73
    14
 74
     0
 42
0.000000001
 43
0.00000001
 40
0.0
 40
0.0
 40
0.0
 40
0.0
 40
0.2499999999999943
 40
0.2499999999999943
 40
0.4999999999999887
 40
0.4999999999999887
 40
0.6249999999999915
 40
0.6249999999999915
 40
0.7499999999999943
 40
0.7499999999999943
 40
0.8749999999999971
 40
0.8749999999999971
 40
1.0
 40
1.0
 40
1.0
 40
1.0
 10
281.506144852139
 20
34.77402673041782
 30
0.0
 10
281.4724442613817
 20
34.77702173060038
 30
0.0
 10
281.4362801868556
 20
34.77865907223742
 30
0.0
 10
281.3559920548386
 20
34.77754576472448
 30
0.0
 10
281.3109183592637
 20
34.77480788312967
 30
0.0
 10
281.2365635707435
 20
34.763935011316
 30
0.0
 10
281.2099131779432
 20
34.75900966875422
 30
0.0
 10
281.1563872274469
 20
34.74612927132777
 30
0.0
 10
281.1291831689042
 20
34.73802203672903
 30
0.0
 10
281.0798798202783
 20
34.71994400233448
 30
0.0
 10
281.0575547962906
 20
34.70995397560128
 30
0.0
 10
281.0191607753197
 20
34.68983479161646
 30
0.0
 10
281.0032907183914
 20
34.67991856159657
 30
0.0
 10
280.9894885463347
 20
34.67014375779143
 30
0.0
  0
SPLINE
  5
1F8
330
1F
100
AcDbEntity
  8
0
  6
Continuous
 62
     7
370
    15
100
AcDbSpline
210
0.0
220
0.0
230
1.0
 70
     8
 71
     3
 72
    10
 73
     6
 74
     0
 42
0.000000001
 43
0.00000001
 40
0.0
 40
0.0
 40
0.0
 40
0.0
 40
0.5
 40
0.5
 40
1.0
 40
1.0
 40
1.0
 40
1.0
 10
280.9894885463348
 20
34.67014375779144
 30
0.0
 10
280.9450507522663
 20
34.6852981563966
 30
0.0
 10
280.8991541382836
 20
34.70231166991894
 30
0.0
 10
280.8113188668934
 20
34.73924895476445
 30
0.0
 10
280.7693883801486
 20
34.7592622577192
 30
0.0
 10
280.7349542746306
 20
34.77914064371141
 30
0.0
  0
LINE
  5
1F9
330
1F
100
AcDbEntity
  8
0
  6
Continuous
 62
     7
370
    15
100
AcDbLine
 10
279.6968031629
 20
35.8050991831
 30
0.0
 11
279.6426308513
 21
35.8371343072
 31
0.0
  0
SPLINE
  5
1FA
330
1F
100
AcDbEntity
  8
0
  6
Continuous
 62
     7
370
    15
100
AcDbSpline
210
0.0
220
0.0
230
1.0
 70
     8
 71
     3
 72
    11
 73
     7
 74
     0
 42
0.000000001
 43
0.00000001
 40
0.0
 40
0.0
 40
0.0
 40
0.0
 40
0.1200765556915508
 40
0.3339374267341146
 40
0.7106523672308471
 40
1.0
 40
1.0
 40
1.0
 40
1.0
 10
269.6955464525906
 20
28.12922029023351
 30
0.0
 10
269.6927686283912
 20
28.12229730986637
 30
0.0
 10
269.6850433946041
 20
28.10304424055722
 30
0.0
 10
269.6410505865388
 20
28.03562711646583
 30
0.0
 10
269.5715356624257
 20
27.94171468596818
 30
0.0
 10
269.5125704262393
 20
27.86766461127401
 30
0.0
 10
269.4869550378495
 20
27.83549614140476
 30
0.0
  0
SPLINE
  5
1FB
330
1F
100
AcDbEntity
  8
0
  6
Continuous
 62
     7
370
    15
100
AcDbSpline
210
0.0
220
0.0
230
1.0
 70
     8
 71
     3
 72
    14
 73
    10
 74
     0
 42
0.000000001
 43
0.00000001
 40
0.0
 40
0.0
 40
0.0
 40
0.0
 40
0.154429659676503
 40
0.3133374685047597
 40
0.4677552653401207
 40
0.6266509538658005
 40
0.7810900577262394
 40
0.94000176208334
 40
1.0
 40
1.0
 40
1.0
 40
1.0
 10
267.2234006050714
 20
21.42812986723987
 30
0.0
 10
267.1376380943081
 20
21.4423485182345
 30
0.0
 10
266.9636261326715
 20
21.47119813247016
 30
0.0
 10
266.7420131582694
 20
21.5987051266509
 30
0.0
 10
266.5541913996776
 20
21.78669941491044
 30
0.0
 10
266.4103722750921
 20
22.03178297456518
 30
0.0
 10
266.3167975144205
 20
22.33128807289518
 30
0.0
 10
266.2738645908094
 20
22.59630576785809
 30
0.0
 10
266.2823133221467
 20
22.7690406227701
 30
0.0
 10
266.2846289273111
 20
22.81638331910387
 30
0.0
  0
LINE
  5
1FC
330
1F
100
AcDbEntity
  8
0
  6
Continuous
 62
     7
370
    15
100
AcDbLine
 10
278.2681522763
 20
36.2031951255
 30
0.0
 11
280.7349542746
 21
34.7791406437
 31
0.0
  0
ARC
  5
1FD
330
1F
100
AcDbEntity
  8
0
  6
Continuous
 62
     7
370
    15
100
AcDbCircle
 10
265.0803132405
 20
34.9439543466
 30
0.0
 40
10.89874153500973
100
AcDbArc
 50
338.4831885835
 51
3.7748085092
  0
LINE
  5
1FE
330
1F
100
AcDbEntity
  8
0
  6
Continuous
 62
     7
370
    15
100
AcDbLine
 10
275.2195213813
 20
30.9465770408
 30
0.0
 11
280.7349542746
 21
27.7625854047
 31
0.0
  0
LINE
  5
1FF
330
1F
100
AcDbEntity
  8
0
  6
Continuous
 62
     7
370
    15
100
AcDbLine
 10
270.5892949429
 20
20.2802263254
 30
0.0
 11
270.6433622575
 21
20.2482547844
 31
0.0
  0
LINE
  5
200
330
1F
100
AcDbEntity
  8
0
  6
Continuous
 62
     7
370
    15
100
AcDbLine
 10
266.3552121664
 20
23.1511599132
 30
0.0
 11
269.5510388342
 21
21.3062484479
 31
0.0
  0
LINE
  5
201
330
1F
100
AcDbEntity
  8
0
  6
Continuous
 62
     7
370
    15
100
AcDbLine
 10
238.2415053089
 20
35.2781924913
 30
0.0
 11
237.9204047592
 21
35.0928250896
 31
0.0
  0
LINE
  5
202
330
1F
100
AcDbEntity
  8
0
  6
Continuous
 62
     7
370
    15
100
AcDbLine
 10
239.2021550924
 20
35.0597785727
 30
0.0
 11
238.8155004138
 21
35.2829895674
 31
0.0
  0
SPLINE
  5
203
330
1F
100
AcDbEntity
  8
0
  6
Continuous
 62
     7
370
    15
100
AcDbSpline
210
0.0
220
0.0
230
1.0
 70
     8
 71
     3
 72
    12
 73
     8
 74
     0
 42
0.000000001
 43
0.00000001
 40
0.0
 40
0.0
 40
0.0
 40
0.0
 40
0.25
 40
0.25
 40
0.5
 40
0.5
 40
1.0
 40
1.0
 40
1.0
 40
1.0
 10
238.815500413849
 20
35.28298956741592
 30
0.0
 10
238.7781083762661
 20
35.30457553124236
 30
0.0
 10
238.7319600654112
 20
35.32201566626481
 30
0.0
 10
238.6332602280286
 20
35.34447179457914
 30
0.0
 10
238.5797486617332
 20
35.34985810017976
 30
0.0
 10
238.4211512420318
 20
35.34777694136963
 30
0.0
 10
238.316437147414
 20
35.32144972087884
 30
0.0
 10
238.2415053088873
 20
35.27819249125336
 30
0.0
  0
ARC
  5
204
330
1F
100
AcDbEntity
  8
0
  6
Continuous
 62
     7
370
    15
100
AcDbCircle
 10
271.26793079
 20
30.2462342069
 30
0.0
 40
41.27667625282355
100
AcDbArc
 50
134.2232533656
 51
160.7018875632
  0
LINE
  5
205
330
1F
100
AcDbEntity
  8
0
  6
Continuous
 62
     7
370
    15
100
AcDbLine
 10
269.6500308186
 20
21.2111525592
 30
0.0
 11
267.2234006051
 21
21.4281298672
 31
0.0
  0
SPLINE
  5
206
330
1F
100
AcDbEntity
  8
0
  6
Continuous
 62
     7
370
    15
100
AcDbSpline
210
0.0
220
0.0
230
1.0
 70
     8
 71
     3
 72
    18
 73
    14
 74
     0
 42
0.000000001
 43
0.00000001
 40
0.0
 40
0.0
 40
0.0
 40
0.0
 40
0.2500000000000002
 40
0.2500000000000002
 40
0.5000000000000004
 40
0.5000000000000004
 40
0.6250000000000003
 40
0.6250000000000003
 40
0.7500000000000002
 40
0.7500000000000002
 40
0.8750000000000001
 40
0.8750000000000001
 40
1.0
 40
1.0
 40
1.0
 40
1.0
 10
269.4865806242071
 20
20.90380792723283
 30
0.0
 10
269.5201033502901
 20
20.90081049036648
 30
0.0
 10
269.5531254583345
 20
20.90128634540645
 30
0.0
 10
269.614229814309
 20
20.91374019090055
 30
0.0
 10
269.6432621448939
 20
20.92557361488523
 30
0.0
 10
269.676563076176
 20
20.96072287484388
 30
0.0
 10
269.6858355199186
 20
20.97557561034381
 30
0.0
 10
269.6975153061518
 20
21.01218270782513
 30
0.0
 10
269.6998432728193
 20
21.03460128321479
 30
0.0
 10
269.6961013736465
 20
21.08296464589177
 30
0.0
 10
269.690138200054
 20
21.10925204881793
 30
0.0
 10
269.6731621312933
 20
21.16083795806764
 30
0.0
 10
269.6621570349607
 20
21.18651710965337
 30
0.0
 10
269.6500308186461
 20
21.21115255923833
 30
0.0
  0
SPLINE
  5
207
330
1F
100
AcDbEntity
  8
0
  6
Continuous
 62
     7
370
    15
100
AcDbSpline
210
0.0
220
0.0
230
1.0
 70
     8
 71
     3
 72
    10
 73
     6
 74
     0
 42
0.000000001
 43
0.00000001
 40
0.0
 40
0.0
 40
0.0
 40
0.0
 40
0.5
 40
0.5
 40
1.0
 40
1.0
 40
1.0
 40
1.0
 10
269.5510388341713
 20
21.30624844791072
 30
0.0
 10
269.5854770753045
 20
21.28636767447867
 30
0.0
 10
269.6103163426852
 20
21.26780366357526
 30
0.0
 10
269.6415950223199
 20
21.23600275927085
 30
0.0
 10
269.6486357894923
 20
21.22245294946008
 30
0.0
 10
269.6500308186461
 20
21.21115255923833
 30
0.0
  0
SPLINE
  5
208
330
1F
100
AcDbEntity
  8
0
  6
Continuous
 62
     7
370
    15
100
AcDbSpline
210
0.0
220
0.0
230
1.0
 70
     8
 71
     3
 72
    10
 73
     6
 74
     0
 42
0.000000001
 43
0.00000001
 40
0.0
 40
0.0
 40
0.0
 40
0.0
 40
0.5
 40
0.5
 40
1.0
 40
1.0
 40
1.0
 40
1.0
 10
280.7349542746306
 20
27.76258540469161
 30
0.0
 10
280.7693925157639
 20
27.74270463125956
 30
0.0
 10
280.8115502662661
 20
27.73413836785418
 30
0.0
 10
280.8991719571192
 20
27.73486359158814
 30
0.0
 10
280.9450968944661
 20
27.74376113541366
 30
0.0
 10
280.9895156806687
 20
27.75729783146395
 30
0.0
  0
SPLINE
  5
209
330
1F
100
AcDbEntity
  8
0
  6
Continuous
 62
     7
370
    15
100
AcDbSpline
210
0.0
220
0.0
230
1.0
 70
     8
 71
     3
 72
    16
 73
    12
 74
     0
 42
0.000000001
 43
0.00000001
 40
0.0
 40
0.0
 40
0.0
 40
0.0
 40
0.2500000000000232
 40
0.2500000000000232
 40
0.3750000000000219
 40
0.3750000000000219
 40
0.5000000000000207
 40
0.5000000000000207
 40
0.7500000000000103
 40
0.7500000000000103
 40
1.0
 40
1.0
 40
1.0
 40
1.0
 10
280.9895156806687
 20
27.75729783146396
 30
0.0
 10
281.0172403563458
 20
27.70944966337158
 30
0.0
 10
281.0547536239685
 20
27.66586890864873
 30
0.0
 10
281.1289746035949
 20
27.63221140097819
 30
0.0
 10
281.1557406085331
 20
27.62692724430767
 30
0.0
 10
281.2092684450362
 20
27.62771577799187
 30
0.0
 10
281.2358583471703
 20
27.63362637408598
 30
0.0
 10
281.3106420538228
 20
27.66105991013508
 30
0.0
 10
281.3555951447607
 20
27.69191813353136
 30
0.0
 10
281.4362583627227
 20
27.76130162543647
 30
0.0
 10
281.4729737851117
 20
27.80104054599382
 30
0.0
 10
281.5065192657823
 20
27.84277080503776
 30
0.0
  0
LINE
  5
20A
330
1F
100
AcDbEntity
  8
0
  6
Continuous
 62
     7
370
    15
100
AcDbLine
 10
237.684014821
 20
27.2561718878
 30
0.0
 11
242.6337622893
 21
24.3987434965
 31
0.0
  0
ARC
  5
20B
330
1F
100
AcDbEntity
  8
0
  6
Continuous
 62
     7
370
    15
100
AcDbCircle
 10
241.8245614219
 20
33.7292004881
 30
0.0
 40
7.684024037860311
100
AcDbArc
 50
182.6054784857
 51
237.39452166
  0
LINE
  5
20C
330
1F
100
AcDbEntity
  8
0
  6
Continuous
 62
     7
370
    15
100
AcDbLine
 10
234.1484809151
 20
34.1964370387
 30
0.0
 11
234.1484809151
 21
33.3798962268
 31
0.0
  0
ARC
  5
20D
330
1F
100
AcDbEntity
  8
0
  6
Continuous
 62
     7
370
    15
100
AcDbCircle
 10
237.3446580381
 20
34.3118580204
 30
0.0
 40
3.19826049666524
100
AcDbArc
 50
154.7293641837
 51
182.0681778269
  0
SPLINE
  5
20E
330
1F
100
AcDbEntity
  8
0
  6
Continuous
 62
     7
370
    15
100
AcDbSpline
210
0.0
220
0.0
230
1.0
 70
     8
 71
     3
 72
     8
 73
     4
 74
     0
 42
0.000000001
 43
0.00000001
 40
0.0
 40
0.0
 40
0.0
 40
0.0
 40
1.0
 40
1.0
 40
1.0
 40
1.0
 10
222.3927103362597
 20
38.68976678942581
 30
0.0
 10
222.8595725619265
 20
38.30952520216387
 30
0.0
 10
223.3266073463099
 20
37.94261855362102
 30
0.0
 10
223.7937324584853
 20
37.58269222802906
 30
0.0
  0
SPLINE
  5
20F
330
1F
100
AcDbEntity
  8
0
  6
Continuous
 62
     7
370
    15
100
AcDbSpline
210
0.0
220
0.0
230
1.0
 70
     8
 71
     3
 72
    14
 73
    10
 74
     0
 42
0.000000001
 43
0.00000001
 40
0.0
 40
0.0
 40
0.0
 40
0.0
 40
0.125
 40
0.125
 40
0.25
 40
0.25
 40
0.5
 40
0.5
 40
1.0
 40
1.0
 40
1.0
 40
1.0
 10
223.7937324584853
 20
37.58269222802902
 30
0.0
 10
223.8201563971585
 20
37.56233221974341
 30
0.0
 10
223.8442203396633
 20
37.54681991642874
 30
0.0
 10
223.8804895970885
 20
37.52983654786937
 30
0.0
 10
223.8925079720766
 20
37.52796230646345
 30
0.0
 10
223.918022218747
 20
37.53210314779869
 30
0.0
 10
223.9222158811951
 20
37.54704553586171
 30
0.0
 10
223.9233226909306
 20
37.60139687220685
 30
0.0
 10
223.907694705842
 20
37.65281783288286
 30
0.0
 10
223.8880419732084
 20
37.70916666046882
 30
0.0
  0
SPLINE
  5
210
330
1F
100
AcDbEntity
  8
0
  6
Continuous
 62
     7
370
    15
100
AcDbSpline
210
0.0
220
0.0
230
1.0
 70
     8
 71
     3
 72
    14
 73
    10
 74
     0
 42
0.000000001
 43
0.00000001
 40
0.0
 40
0.0
 40
0.0
 40
0.0
 40
0.25
 40
0.25
 40
0.5
 40
0.5
 40
0.75
 40
0.75
 40
1.0
 40
1.0
 40
1.0
 40
1.0
 10
223.8880419732079
 20
37.70916666046918
 30
0.0
 10
223.86337612527
 20
37.77988922300699
 30
0.0
 10
223.8525132545455
 20
37.84295552075721
 30
0.0
 10
223.8305628873507
 20
37.9745222617158
 30
0.0
 10
223.8202912925316
 20
38.04247560070748
 30
0.0
 10
223.7909872781731
 20
38.19108060455091
 30
0.0
 10
223.7721946069434
 20
38.27154441098178
 30
0.0
 10
223.7192753024272
 20
38.45111528479611
 30
0.0
 10
223.6851961252483
 20
38.54994633072397
 30
0.0
 10
223.6411098729705
 20
38.65754638570325
 30
0.0
  0
LWPOLYLINE
  5
211
330
1F
100
AcDbEntity
  8
0
  6
Continuous
 62
     7
370
    15
100
AcDbPolyline
 90
        9
 70
   128
 43
0.0
 10
223.641109873
 20
38.6575463857
 10
223.2730299491
 20
39.7286919252
 10
223.0079005602
 20
40.8926946448
 10
222.8479331526
 20
42.1398455888
 10
222.7944620157
 20
43.4597422618
 10
222.8479331526
 20
44.8413753954
 10
223.0079005602
 20
46.2732207769
 10
223.2730299491
 20
47.7433353731
 10
223.641109873
 20
49.2394569469
  0
SPLINE
  5
212
330
1F
100
AcDbEntity
  8
0
  6
Continuous
 62
     7
370
    15
100
AcDbSpline
210
0.0
220
0.0
230
1.0
 70
     8
 71
     3
 72
    14
 73
    10
 74
     0
 42
0.000000001
 43
0.00000001
 40
0.0
 40
0.0
 40
0.0
 40
0.0
 40
0.25
 40
0.25
 40
0.5
 40
0.5
 40
0.75
 40
0.75
 40
1.0
 40
1.0
 40
1.0
 40
1.0
 10
223.8880419732079
 20
51.2929570597777
 30
0.0
 10
223.86337612527
 20
51.12128452828483
 30
0.0
 10
223.8525132545455
 20
50.94630479610924
 30
0.0
 10
223.8305628873507
 20
50.59749829246805
 30
0.0
 10
223.8202912925316
 20
50.42328420053226
 30
0.0
 10
223.7909872781731
 20
50.07723328858116
 30
0.0
 10
223.7721946069434
 20
49.90535043466591
 30
0.0
 10
223.7192753024272
 20
49.56531876577169
 30
0.0
 10
223.6851961252483
 20
49.39795790527458
 30
0.0
 10
223.6411098729705
 20
49.23945694687163
 30
0.0
  0
SPLINE
  5
213
330
1F
100
AcDbEntity
  8
0
  6
Continuous
 62
     7
370
    15
100
AcDbSpline
210
0.0
220
0.0
230
1.0
 70
     8
 71
     3
 72
    14
 73
    10
 74
     0
 42
0.000000001
 43
0.00000001
 40
0.0
 40
0.0
 40
0.0
 40
0.0
 40
0.1249999999999983
 40
0.1249999999999983
 40
0.2499999999999966
 40
0.2499999999999966
 40
0.4999999999999978
 40
0.4999999999999978
 40
1.0
 40
1.0
 40
1.0
 40
1.0
 10
223.7937324584854
 20
52.04170080342036
 30
0.0
 10
223.8201563971585
 20
52.03739450414815
 30
0.0
 10
223.8442203396634
 20
52.02151099760776
 30
0.0
 10
223.8804895970885
 20
51.97236642471634
 30
0.0
 10
223.8925079720767
 20
51.94135506936399
 30
0.0
 10
223.918022218747
 20
51.84449652749657
 30
0.0
 10
223.9222158811951
 20
51.77421590662041
 30
0.0
 10
223.9233226909306
 20
51.56781450454254
 30
0.0
 10
223.907694705842
 20
51.42973866852036
 30
0.0
 10
223.8880419732084
 20
51.29295705977761
 30
0.0
  0
SPLINE
  5
214
330
1F
100
AcDbEntity
  8
0
  6
Continuous
 62
     7
370
    15
100
AcDbSpline
210
0.0
220
0.0
230
1.0
 70
     8
 71
     3
 72
     8
 73
     4
 74
     0
 42
0.000000001
 43
0.00000001
 40
0.0
 40
0.0
 40
0.0
 40
0.0
 40
1.0
 40
1.0
 40
1.0
 40
1.0
 10
222.3927103362597
 20
52.21091369730532
 30
0.0
 10
222.8595725619265
 20
52.17882394324001
 30
0.0
 10
223.32660734631
 20
52.11782800593435
 30
0.0
 10
223.7937324584854
 20
52.04170080342035
 30
0.0
  0
SPLINE
  5
215
330
1F
100
AcDbEntity
  8
0
  6
Continuous
 62
     7
370
    15
100
AcDbSpline
210
0.0
220
0.0
230
1.0
 70
     8
 71
     3
 72
    14
 73
    10
 74
     0
 42
0.000000001
 43
0.00000001
 40
0.0
 40
0.0
 40
0.0
 40
0.0
 40
0.4999999999999972
 40
0.4999999999999972
 40
0.7499999999999971
 40
0.7499999999999971
 40
0.8749999999999986
 40
0.8749999999999986
 40
1.0
 40
1.0
 40
1.0
 40
1.0
 10
219.5481729590417
 20
53.13549557346754
 30
0.0
 10
220.0132074917567
 20
52.93915032420669
 30
0.0
 10
220.4800634130383
 20
52.75149781273863
 30
0.0
 10
221.1870897986428
 20
52.5014798557942
 30
0.0
 10
221.4238747815339
 20
52.42331859799537
 30
0.0
 10
221.7826554196655
 20
52.32275133260039
 30
0.0
 10
221.9028542436666
 20
52.29202983634876
 30
0.0
 10
222.1454563417763
 20
52.24075512996419
 30
0.0
 10
222.2677080993651
 20
52.21950572043121
 30
0.0
 10
222.3927103362597
 20
52.21091369730527
 30
0.0
  0
LINE
  5
216
330
1F
100
AcDbEntity
  8
0
  6
Continuous
 62
     7
370
    15
100
AcDbLine
 10
239.408715856
 20
69.2023623646
 30
0.0
 11
239.5277894687
 21
69.1446766943
 31
0.0
  0
SPLINE
  5
217
330
1F
100
AcDbEntity
  8
0
  6
Continuous
 62
     7
370
    15
100
AcDbSpline
210
0.0
220
0.0
230
1.0
 70
     8
 71
     3
 72
    14
 73
    10
 74
     0
 42
0.000000001
 43
0.00000001
 40
0.0
 40
0.0
 40
0.0
 40
0.0
 40
0.4999999999999986
 40
0.4999999999999986
 40
0.7499999999999978
 40
0.7499999999999978
 40
0.8749999999999989
 40
0.8749999999999989
 40
1.0
 40
1.0
 40
1.0
 40
1.0
 10
219.5481729590417
 20
40.81255159759313
 30
0.0
 10
220.0132074917567
 20
40.47770628135476
 30
0.0
 10
220.4800634130383
 20
40.13891810628323
 30
0.0
 10
221.1870897986428
 20
39.6166223592505
 30
0.0
 10
221.4238747815339
 20
39.44020065116013
 30
0.0
 10
221.7826554196655
 20
39.16811849964119
 30
0.0
 10
221.9028542436666
 20
39.07617313828428
 30
0.0
 10
222.1454563417763
 20
38.88774711745397
 30
0.0
 10
222.2677080993651
 20
38.79157637339932
 30
0.0
 10
222.3927103362597
 20
38.68976678942583
 30
0.0
  0
SPLINE
  5
218
330
1F
100
AcDbEntity
  8
0
  6
Continuous
 62
     7
370
    15
100
AcDbSpline
210
0.0
220
0.0
230
1.0
 70
     8
 71
     3
 72
    17
 73
    13
 74
     0
 42
0.000000001
 43
0.00000001
 40
0.0
 40
0.0
 40
0.0
 40
0.0
 40
0.1229420372086486
 40
0.2463167838580795
 40
0.3696674646097965
 40
0.4925566270179952
 40
0.6147557297306283
 40
0.6763222640174569
 40
0.7371306210330865
 40
0.8591715915213616
 40
0.9817811850793742
 40
1.0
 40
1.0
 40
1.0
 40
1.0
 10
228.0064164932087
 20
38.36877555437029
 30
0.0
 10
227.8026477601342
 20
38.74266515746547
 30
0.0
 10
227.3943931051658
 20
39.49176031355177
 30
0.0
 10
227.201125455334
 20
40.64007880662133
 30
0.0
 10
227.4064881118885
 20
41.59241749301357
 30
0.0
 10
227.9657762850906
 20
42.22588351957227
 30
0.0
 10
228.6416754050299
 20
42.36719187186013
 30
0.0
 10
229.216557549377
 20
42.24099585501494
 30
0.0
 10
229.7968243841003
 20
41.95293376147038
 30
0.0
 10
230.4601868682674
 20
41.29419099320022
 30
0.0
 10
230.9682099898066
 20
40.5253386988819
 30
0.0
 10
231.1134404184848
 20
40.06345390530827
 30
0.0
 10
231.1322287178735
 20
40.00370038214007
 30
0.0
  0
SPLINE
  5
219
330
1F
100
AcDbEntity
  8
0
  6
Continuous
 62
     7
370
    15
100
AcDbSpline
210
0.0
220
0.0
230
1.0
 70
     8
 71
     3
 72
    12
 73
     8
 74
     0
 42
0.000000001
 43
0.00000001
 40
0.0
 40
0.0
 40
0.0
 40
0.0
 40
0.0359924249411966
 40
0.3564487424462834
 40
0.5163573994277255
 40
0.6784139851597365
 40
1.0
 40
1.0
 40
1.0
 40
1.0
 10
230.5108933263803
 20
36.33675527271263
 30
0.0
 10
230.4877805898146
 20
36.33282676278603
 30
0.0
 10
230.2588850403534
 20
36.2939210089973
 30
0.0
 10
229.7846068052624
 20
36.55756016754917
 30
0.0
 10
229.2158814368668
 20
36.96703960301553
 30
0.0
 10
228.6324388862259
 20
37.50325370849442
 30
0.0
 10
228.2564325044604
 20
38.02311009260598
 30
0.0
 10
228.0064164932087
 20
38.36877555437029
 30
0.0
  0
SPLINE
  5
21A
330
1F
100
AcDbEntity
  8
0
  6
Continuous
 62
     7
370
    15
100
AcDbSpline
210
0.0
220
0.0
230
1.0
 70
     8
 71
     3
 72
    32
 73
    28
 74
     0
 42
0.000000001
 43
0.00000001
 40
0.0
 40
0.0
 40
0.0
 40
0.0
 40
0.1249999999999991
 40
0.1249999999999991
 40
0.1874999999999989
 40
0.1874999999999989
 40
0.2499999999999987
 40
0.2499999999999987
 40
0.3749999999999985
 40
0.3749999999999985
 40
0.4374999999999985
 40
0.4374999999999985
 40
0.4999999999999986
 40
0.4999999999999986
 40
0.6249999999999986
 40
0.6249999999999986
 40
0.6874999999999988
 40
0.6874999999999988
 40
0.749999999999999
 40
0.749999999999999
 40
0.8124999999999992
 40
0.8124999999999992
 40
0.8749999999999993
 40
0.8749999999999993
 40
0.9374999999999997
 40
0.9374999999999997
 40
1.0
 40
1.0
 40
1.0
 40
1.0
 10
283.4161458942434
 20
30.77600274760987
 30
0.0
 10
283.5563652813215
 20
30.95043433209431
 30
0.0
 10
283.6832017428886
 20
31.13620607472017
 30
0.0
 10
283.8520813745969
 20
31.43250153311564
 30
0.0
 10
283.904798885967
 20
31.53460072494999
 30
0.0
 10
284.0002305724226
 20
31.73895755731535
 30
0.0
 10
284.0433420497268
 20
31.8419049882683
 30
0.0
 10
284.1589809780411
 20
32.15304363155981
 30
0.0
 10
284.2179048741631
 20
32.36585683291554
 30
0.0
 10
284.2746449329712
 20
32.67181359203698
 30
0.0
 10
284.2885499426211
 20
32.77220177551506
 30
0.0
 10
284.3064430687626
 20
32.96962596621592
 30
0.0
 10
284.3104084097857
 20
33.06726518508503
 30
0.0
 10
284.3071965105478
 20
33.3472408083906
 30
0.0
 10
284.2855890352567
 20
33.51858760267574
 30
0.0
 10
284.2244280566119
 20
33.75177001783305
 30
0.0
 10
284.1994261588191
 20
33.82452049604184
 30
0.0
 10
284.1409799833173
 20
33.95819269406471
 30
0.0
 10
284.1073758337609
 20
34.01954500751972
 30
0.0
 10
284.0308444264658
 20
34.13155525632023
 30
0.0
 10
283.987597477813
 20
34.1824960608083
 30
0.0
 10
283.894594699916
 20
34.27056785469018
 30
0.0
 10
283.8453880058864
 20
34.30749898484542
 30
0.0
 10
283.739864325963
 20
34.36860360704677
 30
0.0
 10
283.6833439994191
 20
34.39289631251214
 30
0.0
 10
283.5591802002761
 20
34.43055367788614
 30
0.0
 10
283.4915422289068
 20
34.4438213864987
 30
0.0
 10
283.4180539264675
 20
34.45205571291601
 30
0.0
  0
SPLINE
  5
21B
330
1F
100
AcDbEntity
  8
0
  6
Continuous
 62
     7
370
    15
100
AcDbSpline
210
0.0
220
0.0
230
1.0
 70
     8
 71
     3
 72
    14
 73
    10
 74
     0
 42
0.000000001
 43
0.00000001
 40
0.0
 40
0.0
 40
0.0
 40
0.0
 40
0.25
 40
0.25
 40
0.5
 40
0.5
 40
0.75
 40
0.75
 40
1.0
 40
1.0
 40
1.0
 40
1.0
 10
283.4180539264673
 20
34.45205571291586
 30
0.0
 10
283.2060630536315
 20
34.47580918097096
 30
0.0
 10
283.0098849374198
 20
34.49040099442794
 30
0.0
 10
282.6099382133648
 20
34.52397232358642
 30
0.0
 10
282.4073160929046
 20
34.54228012715002
 30
0.0
 10
282.0011824269251
 20
34.57941347624052
 30
0.0
 10
281.7979817651258
 20
34.5980575101491
 30
0.0
 10
281.3934688328253
 20
34.63425448424683
 30
0.0
 10
281.1916458440943
 20
34.65210262836978
 30
0.0
 10
280.9894885463348
 20
34.67014375779146
 30
0.0
  0
ARC
  5
21C
330
1F
100
AcDbEntity
  8
0
  6
Continuous
 62
     7
370
    15
100
AcDbCircle
 10
249.6083332834
 20
23.8626682697
 30
0.0
 40
8.608446082351008
100
AcDbArc
 50
217.9650615219
 51
261.7177805012
  0
SPLINE
  5
21D
330
1F
100
AcDbEntity
  8
0
  6
Continuous
 62
     7
370
    15
100
AcDbSpline
210
0.0
220
0.0
230
1.0
 70
     8
 71
     3
 72
    14
 73
    10
 74
     0
 42
0.000000001
 43
0.00000001
 40
0.0
 40
0.0
 40
0.0
 40
0.0
 40
0.25
 40
0.25
 40
0.5
 40
0.5
 40
0.75
 40
0.75
 40
1.0
 40
1.0
 40
1.0
 40
1.0
 10
240.5566383848203
 20
23.6078494458031
 30
0.0
 10
240.6038595482439
 20
23.58058924840827
 30
0.0
 10
240.6601463076753
 20
23.55930731688411
 30
0.0
 10
240.7835756557486
 20
23.53095268705299
 30
0.0
 10
240.8502289792085
 20
23.52410930471283
 30
0.0
 10
240.9823538561503
 20
23.52559142034202
 30
0.0
 10
241.0487132121349
 20
23.53398195202822
 30
0.0
 10
241.1699674442557
 20
23.5641002754996
 30
0.0
 10
241.2260785467329
 20
23.58610496934041
 30
0.0
 10
241.2728131202603
 20
23.61308426436736
 30
0.0
  0
LINE
  5
21E
330
1F
100
AcDbEntity
  8
0
  6
Continuous
 62
     7
370
    15
100
AcDbLine
 10
238.8991903502
 20
24.5646738296
 30
0.0
 11
240.5566383848
 21
23.6078494458
 31
0.0
  0
SPLINE
  5
21F
330
1F
100
AcDbEntity
  8
0
  6
Continuous
 62
     7
370
    15
100
AcDbSpline
210
0.0
220
0.0
230
1.0
 70
     8
 71
     3
 72
     8
 73
     4
 74
     0
 42
0.000000001
 43
0.00000001
 40
0.0
 40
0.0
 40
0.0
 40
0.0
 40
1.0
 40
1.0
 40
1.0
 40
1.0
 10
239.2709787112231
 20
25.33120641201611
 30
0.0
 10
239.1468005433382
 20
25.07573561279003
 30
0.0
 10
239.0228828431964
 20
24.82022276611707
 30
0.0
 10
238.8991903501642
 20
24.56467382963041
 30
0.0
  0
LINE
  5
220
330
1F
100
AcDbEntity
  8
0
  6
Continuous
 62
     7
370
    15
100
AcDbLine
 10
239.592079261
 20
25.5165738137
 30
0.0
 11
239.2709787112
 21
25.331206412
 31
0.0
  0
SPLINE
  5
221
330
1F
100
AcDbEntity
  8
0
  6
Continuous
 62
     7
370
    15
100
AcDbSpline
210
0.0
220
0.0
230
1.0
 70
     8
 71
     3
 72
    12
 73
     8
 74
     0
 42
0.000000001
 43
0.00000001
 40
0.0
 40
0.0
 40
0.0
 40
0.0
 40
0.2499999999999986
 40
0.2499999999999986
 40
0.4999999999999971
 40
0.4999999999999971
 40
1.0
 40
1.0
 40
1.0
 40
1.0
 10
239.6003889409661
 20
25.84793413461107
 30
0.0
 10
239.637780978549
 20
25.82634817078463
 30
0.0
 10
239.6679914518664
 20
25.79970731799457
 30
0.0
 10
239.7068908218759
 20
25.74272911468876
 30
0.0
 10
239.7162211878058
 20
25.71183754501195
 30
0.0
 10
239.7126161243919
 20
25.62028120344988
 30
0.0
 10
239.6670110994804
 20
25.55983104334486
 30
0.0
 10
239.5920792609535
 20
25.51657381371938
 30
0.0
  0
LINE
  5
222
330
1F
100
AcDbEntity
  8
0
  6
Continuous
 62
     7
370
    15
100
AcDbLine
 10
238.8155004138
 20
26.3010406367
 30
0.0
 11
239.600388941
 21
25.8479341346
 31
0.0
  0
SPLINE
  5
223
330
1F
100
AcDbEntity
  8
0
  6
Continuous
 62
     7
370
    15
100
AcDbSpline
210
0.0
220
0.0
230
1.0
 70
     8
 71
     3
 72
    14
 73
    10
 74
     0
 42
0.000000001
 43
0.00000001
 40
0.0
 40
0.0
 40
0.0
 40
0.0
 40
0.25
 40
0.25
 40
0.5
 40
0.5
 40
0.75
 40
0.75
 40
1.0
 40
1.0
 40
1.0
 40
1.0
 10
238.2415053088873
 20
26.29624356051011
 30
0.0
 10
238.2793511066658
 20
26.31809147452172
 30
0.0
 10
238.3236700238137
 20
26.33546411931064
 30
0.0
 10
238.4213715603658
 20
26.3598255940025
 30
0.0
 10
238.4741246919776
 20
26.36653955853406
 30
0.0
 10
238.5800780492061
 20
26.36789700812007
 30
0.0
 10
238.6334423355014
 20
26.36251930698098
 30
0.0
 10
238.7326201102732
 20
26.33987836346514
 30
0.0
 10
238.7776270036744
 20
26.32290449098127
 30
0.0
 10
238.815500413849
 20
26.30104063667267
 30
0.0
  0
LINE
  5
224
330
1F
100
AcDbEntity
  8
0
  6
Continuous
 62
     7
370
    15
100
AcDbLine
 10
237.9204047592
 20
26.1108761588
 30
0.0
 11
238.2415053089
 21
26.2962435605
 31
0.0
  0
SPLINE
  5
225
330
1F
100
AcDbEntity
  8
0
  6
Continuous
 62
     7
370
    15
100
AcDbSpline
210
0.0
220
0.0
230
1.0
 70
     8
 71
     3
 72
     8
 73
     4
 74
     0
 42
0.000000001
 43
0.00000001
 40
0.0
 40
0.0
 40
0.0
 40
0.0
 40
1.0
 40
1.0
 40
1.0
 40
1.0
 10
236.5925875090434
 20
25.89624730647106
 30
0.0
 10
237.0352592152598
 20
25.96765346277576
 30
0.0
 10
237.4778684053114
 20
26.03918962837754
 30
0.0
 10
237.9204047591568
 20
26.11087615880679
 30
0.0
  0
LWPOLYLINE
  5
226
330
1F
100
AcDbEntity
  8
0
  6
Continuous
 62
     7
370
    15
100
AcDbPolyline
 90
        9
 70
   128
 43
0.0
 10
243.6447705532
 20
17.3595018413
 10
243.5949886713
 20
17.3884701131
 10
242.6406321037
 20
18.0408243617
 10
241.7725491932
 20
18.827158722
 10
240.9962862631
 20
19.7424491753
 10
240.3168029842
 20
20.7808477814
 10
239.7384406863
 20
21.9357200418
 10
239.2648946206
 20
23.199687289
 10
238.8991903502
 20
24.5646738296
  0
ARC
  5
227
330
1F
100
AcDbEntity
  8
0
  6
Continuous
 62
     7
370
    15
100
AcDbCircle
 10
274.4991475966
 20
36.7043224684
 30
0.0
 40
4.169039498119899
100
AcDbArc
 50
320.6700295196
 51
350.3607260605
  0
LINE
  5
228
330
1F
100
AcDbEntity
  8
0
  6
Continuous
 62
     7
370
    15
100
AcDbLine
 10
280.9895156807
 20
27.7572978315
 30
0.0
 11
283.4161458942
 21
30.7760027476
 31
0.0
  0
LINE
  5
229
330
1F
100
AcDbEntity
  8
0
  6
Continuous
 62
     7
370
    15
100
AcDbLine
 10
275.2195213813
 20
30.9465770408
 30
0.0
 11
277.7239363057
 21
34.0620453977
 31
0.0
  0
ARC
  5
22A
330
1F
100
AcDbEntity
  8
0
  6
Continuous
 62
     7
370
    15
100
AcDbCircle
 10
249.4926800385
 20
28.5993260098
 30
0.0
 40
11.83680437452025
100
AcDbArc
 50
192.1358235799
 51
214.938999544
  0
SPLINE
  5
22B
330
1F
100
AcDbEntity
  8
0
  6
Continuous
 62
     7
370
    15
100
AcDbSpline
210
0.0
220
0.0
230
1.0
 70
     8
 71
     3
 72
    16
 73
    12
 74
     0
 42
0.000000001
 43
0.00000001
 40
0.0
 40
0.0
 40
0.0
 40
0.0
 40
0.0473204315840043
 40
0.1723027649092052
 40
0.2919421381394502
 40
0.4150374152341085
 40
0.5350358858242866
 40
0.6584091929859377
 40
0.7802858946662278
 40
0.9056575959209262
 40
1.0
 40
1.0
 40
1.0
 40
1.0
 10
229.4074923290137
 20
42.03750362896285
 30
0.0
 10
229.3956336701918
 20
41.99064993133831
 30
0.0
 10
229.3524540195686
 20
41.82004663427
 30
0.0
 10
229.3519954902054
 20
41.49078122712112
 30
0.0
 10
229.4061229875015
 20
41.06192064059884
 30
0.0
 10
229.5307673281734
 20
40.62428379309763
 30
0.0
 10
229.7179860221523
 20
40.18252414312833
 30
0.0
 10
229.9596407875211
 20
39.75165599367105
 30
0.0
 10
230.251809259979
 20
39.33652565053855
 30
0.0
 10
230.5527848824008
 20
38.97669079273204
 30
0.0
 10
230.7629300490472
 20
38.77658671557753
 30
0.0
 10
230.8531636742253
 20
38.69066460476856
 30
0.0
  0
SPLINE
  5
22C
330
1F
100
AcDbEntity
  8
0
  6
Continuous
 62
     7
370
    15
100
AcDbSpline
210
0.0
220
0.0
230
1.0
 70
     8
 71
     3
 72
    14
 73
    10
 74
     0
 42
0.000000001
 43
0.00000001
 40
0.0
 40
0.0
 40
0.0
 40
0.0
 40
0.1891304059707755
 40
0.3638650824011294
 40
0.6693163684707363
 40
0.7456514836970095
 40
0.827075985197
 40
0.91361043046372
 40
0.9999999999999999
 40
0.9999999999999999
 40
0.9999999999999999
 40
0.9999999999999999
 10
228.2967299457438
 20
38.55118595758129
 30
0.0
 10
228.423226819643
 20
38.36815837203777
 30
0.0
 10
228.6665922119424
 20
38.01603441209785
 30
0.0
 10
229.1840372065743
 20
37.45198049929058
 30
0.0
 10
229.6427711349608
 20
37.08190000829614
 30
0.0
 10
230.0004612901355
 20
36.86709388067963
 30
0.0
 10
230.1837116191106
 20
36.77456539936994
 30
0.0
 10
230.3680829509153
 20
36.69996038533896
 30
0.0
 10
230.4850788709459
 20
36.67203780834618
 30
0.0
 10
230.5435278213734
 20
36.65808821661656
 30
0.0
  0
SPLINE
  5
22D
330
1F
100
AcDbEntity
  8
0
  6
Continuous
 62
     7
370
    15
100
AcDbSpline
210
0.0
220
0.0
230
1.0
 70
     8
 71
     3
 72
    22
 73
    18
 74
     0
 42
0.000000001
 43
0.00000001
 40
0.0
 40
0.0
 40
0.0
 40
0.0
 40
0.1402864692907324
 40
0.2282537884295858
 40
0.2750030522914542
 40
0.323565055054008
 40
0.3962761026350631
 40
0.4526559277739687
 40
0.4926849906388197
 40
0.5822231041263358
 40
0.6617017271911216
 40
0.700226200977229
 40
0.7412752563996583
 40
0.7848545772578678
 40
0.8309688324369418
 40
0.897593496058984
 40
0.9999999999999999
 40
0.9999999999999999
 40
0.9999999999999999
 40
0.9999999999999999
 10
229.7568240723698
 20
41.90140155662507
 30
0.0
 10
229.5321090071614
 20
42.01266379265648
 30
0.0
 10
229.1664852573417
 20
42.19369355990142
 30
0.0
 10
228.7453068623879
 20
42.17738354978849
 30
0.0
 10
228.4862963906724
 20
42.11207995385801
 30
0.0
 10
228.2643031816947
 20
42.01005201106415
 30
0.0
 10
228.0572630255267
 20
41.85125387390471
 30
0.0
 10
227.8954835773629
 20
41.65302314871266
 30
0.0
 10
227.7492098709775
 20
41.40003838576296
 30
0.0
 10
227.6371792883928
 20
41.06672138760377
 30
0.0
 10
227.5998641859453
 20
40.68732672547849
 30
0.0
 10
227.6133086511323
 20
40.37968541106409
 30
0.0
 10
227.6450214756557
 20
40.13409845520546
 30
0.0
 10
227.7018495990881
 20
39.86726768874062
 30
0.0
 10
227.7985413997774
 20
39.54397650127265
 30
0.0
 10
227.9755057751204
 20
39.0954806106872
 30
0.0
 10
228.1755402666819
 20
38.75653443492972
 30
0.0
 10
228.2967299457438
 20
38.5511859575813
 30
0.0
  0
SPLINE
  5
22E
330
1F
100
AcDbEntity
  8
0
  6
Continuous
 62
     7
370
    15
100
AcDbSpline
210
0.0
220
0.0
230
1.0
 70
     8
 71
     3
 72
     9
 73
     5
 74
     0
 42
0.000000001
 43
0.00000001
 40
0.0
 40
0.0
 40
0.0
 40
0.0
 40
0.1883699358114506
 40
1.0
 40
1.0
 40
1.0
 40
1.0
 10
269.2386549314933
 20
59.61034113048153
 30
0.0
 10
269.2810309736194
 20
59.61987363007341
 30
0.0
 10
269.5059927858293
 20
59.67047883706052
 30
0.0
 10
269.7317601123847
 20
59.7198775979914
 30
0.0
 10
269.9149996621287
 20
59.75997111749656
 30
0.0
  0
LINE
  5
22F
330
1F
100
AcDbEntity
  8
0
  6
Continuous
 62
     7
370
    15
100
AcDbLine
 10
269.9149996621
 20
59.7599711175
 30
0.0
 11
271.5724476968
 21
58.8031467337
 31
0.0
  0
SPLINE
  5
230
330
1F
100
AcDbEntity
  8
0
  6
Continuous
 62
     7
370
    15
100
AcDbSpline
210
0.0
220
0.0
230
1.0
 70
     8
 71
     3
 72
    16
 73
    12
 74
     0
 42
0.000000001
 43
0.00000001
 40
0.0
 40
0.0
 40
0.0
 40
0.0
 40
0.1249999999999996
 40
0.1249999999999996
 40
0.2499999999999992
 40
0.2499999999999992
 40
0.4999999999999994
 40
0.4999999999999994
 40
0.7499999999999997
 40
0.7499999999999997
 40
1.0
 40
1.0
 40
1.0
 40
1.0
 10
271.5724476967848
 20
58.80314673366925
 30
0.0
 10
271.5991896643432
 20
58.78770892440081
 30
0.0
 10
271.6221602629897
 20
58.76981720499357
 30
0.0
 10
271.6581372151138
 20
58.73163720844844
 30
0.0
 10
271.6713997538928
 20
58.71135339097785
 30
0.0
 10
271.6981548645984
 20
58.64722705968316
 30
0.0
 10
271.697337859338
 20
58.602734208054
 30
0.0
 10
271.6692574690917
 20
58.51765451571014
 30
0.0
 10
271.6416881141672
 20
58.47628165966384
 30
0.0
 10
271.5685139584079
 20
58.40085052695589
 30
0.0
 10
271.5222801199952
 20
58.36598155213211
 30
0.0
 10
271.4691163350669
 20
58.33529075236506
 30
0.0
  0
LINE
  5
231
330
1F
100
AcDbEntity
  8
0
  6
Continuous
 62
     7
370
    15
100
AcDbLine
 10
222.1853990801
 20
44.5116955017
 30
0.0
 11
222.8081726113
 21
44.1521759947
 31
0.0
  0
SPLINE
  5
232
330
1F
100
AcDbEntity
  8
0
  6
Continuous
 62
     7
370
    15
100
AcDbSpline
210
0.0
220
0.0
230
1.0
 70
     8
 71
     3
 72
    11
 73
     7
 74
     0
 42
0.000000001
 43
0.00000001
 40
0.0
 40
0.0
 40
0.0
 40
0.0
 40
0.0466250422243876
 40
0.4280765842811235
 40
0.8086834761821105
 40
1.0
 40
1.0
 40
1.0
 40
1.0
 10
275.1142667425408
 20
51.72301812442298
 30
0.0
 10
275.119244606239
 20
51.72596584671146
 30
0.0
 10
275.1649476616631
 20
51.75302964823234
 30
0.0
 10
275.2313848933059
 20
51.81426924592697
 30
0.0
 10
275.2740052631768
 20
51.89805869587141
 30
0.0
 10
275.2601666993936
 20
51.9482316040507
 30
0.0
 10
275.2555375028178
 20
51.96501515604189
 30
0.0
  0
SPLINE
  5
233
330
1F
100
AcDbEntity
  8
0
  6
Continuous
 62
     7
370
    15
100
AcDbSpline
210
0.0
220
0.0
230
1.0
 70
     8
 71
     3
 72
    20
 73
    16
 74
     0
 42
0.000000001
 43
0.00000001
 40
0.0
 40
0.0
 40
0.0
 40
0.0
 40
0.2499999999999887
 40
0.2499999999999887
 40
0.374999999999986
 40
0.374999999999986
 40
0.4374999999999881
 40
0.4374999999999881
 40
0.4999999999999901
 40
0.4999999999999901
 40
0.6249999999999891
 40
0.6249999999999891
 40
0.7499999999999881
 40
0.7499999999999881
 40
1.0
 40
1.0
 40
1.0
 40
1.0
 10
219.5334079088746
 20
54.19312672768895
 30
0.0
 10
219.5495264639178
 20
54.24473776490386
 30
0.0
 10
219.5654607098321
 20
54.29417563744364
 30
0.0
 10
219.5882884178473
 20
54.35574935495953
 30
0.0
 10
219.5956639070418
 20
54.37398413261985
 30
0.0
 10
219.6046387052863
 20
54.38911945848577
 30
0.0
 10
219.6072612533188
 20
54.39192996603722
 30
0.0
 10
219.6108004577911
 20
54.3900020641054
 30
0.0
 10
219.6116829212799
 20
54.3851062170752
 30
0.0
 10
219.6114027153884
 20
54.36007245945849
 30
0.0
 10
219.6077102899982
 20
54.33213963693535
 30
0.0
 10
219.5985506292036
 20
54.27372624546963
 30
0.0
 10
219.5929200156651
 20
54.24224676383707
 30
0.0
 10
219.5751740102742
 20
54.14776027746879
 30
0.0
 10
219.5618158819299
 20
54.08258676323426
 30
0.0
 10
219.5480291313373
 20
54.01740053745252
 30
0.0
  0
SPLINE
  5
234
330
1F
100
AcDbEntity
  8
0
  6
Continuous
 62
     7
370
    15
100
AcDbSpline
210
0.0
220
0.0
230
1.0
 70
     8
 71
     3
 72
     9
 73
     5
 74
     0
 42
0.000000001
 43
0.00000001
 40
0.0
 40
0.0
 40
0.0
 40
0.0
 40
0.77665218469388
 40
1.0
 40
1.0
 40
1.0
 40
1.0
 10
219.4822443746099
 20
53.75493129759996
 30
0.0
 10
219.4790585067425
 20
53.86376711248085
 30
0.0
 10
219.4749564544593
 20
54.00390167596476
 30
0.0
 10
219.522736369283
 20
54.15857972365845
 30
0.0
 10
219.5334079088744
 20
54.19312672768665
 30
0.0
  0
SPLINE
  5
235
330
1F
100
AcDbEntity
  8
0
  6
Continuous
 62
     7
370
    15
100
AcDbSpline
210
0.0
220
0.0
230
1.0
 70
     8
 71
     3
 72
     8
 73
     4
 74
     0
 42
0.000000001
 43
0.00000001
 40
0.0
 40
0.0
 40
0.0
 40
0.0
 40
1.0
 40
1.0
 40
1.0
 40
1.0
 10
219.4589438086703
 20
53.15649252325829
 30
0.0
 10
219.4875461042446
 20
53.15493910812474
 30
0.0
 10
219.5172424839822
 20
53.14855493016198
 30
0.0
 10
219.5481729590405
 20
53.13549557347388
 30
0.0
  0
SPLINE
  5
236
330
1F
100
AcDbEntity
  8
0
  6
Continuous
 62
     7
370
    15
100
AcDbSpline
210
0.0
220
0.0
230
1.0
 70
     8
 71
     3
 72
    10
 73
     6
 74
     0
 42
0.000000001
 43
0.00000001
 40
0.0
 40
0.0
 40
0.0
 40
0.0
 40
0.4999999999999989
 40
0.4999999999999989
 40
1.0
 40
1.0
 40
1.0
 40
1.0
 10
219.548029131337
 20
54.01740053745264
 30
0.0
 10
219.5180406614282
 20
53.87560968128263
 30
0.0
 10
219.4976073622416
 20
53.73335186523932
 30
0.0
 10
219.4689743750158
 20
53.44654159706956
 30
0.0
 10
219.4611033153693
 20
53.30208506387404
 30
0.0
 10
219.4589438086711
 20
53.15649252325457
 30
0.0
  0
ARC
  5
237
330
1F
100
AcDbEntity
  8
0
  6
Continuous
 62
     7
370
    15
100
AcDbCircle
 10
220.6782765778
 20
52.988438285
 30
0.0
 40
1.23085930507843
100
AcDbArc
 50
172.152662553
 51
234.515109951
  0
SPLINE
  5
238
330
1F
100
AcDbEntity
  8
0
  6
Continuous
 62
     7
370
    15
100
AcDbSpline
210
0.0
220
0.0
230
1.0
 70
     8
 71
     3
 72
     8
 73
     4
 74
     0
 42
0.000000001
 43
0.00000001
 40
0.0
 40
0.0
 40
0.0
 40
0.0
 40
1.0
 40
1.0
 40
1.0
 40
1.0
 10
219.458943808671
 20
40.89257375569223
 30
0.0
 10
219.4875461042451
 20
40.86187635183411
 30
0.0
 10
219.5172424839825
 20
40.83482289998364
 30
0.0
 10
219.5481729590405
 20
40.81255159758857
 30
0.0
  0
ARC
  5
239
330
1F
100
AcDbEntity
  8
0
  6
Continuous
 62
     7
370
    15
100
AcDbCircle
 10
223.191445445
 20
40.7850824896
 30
0.0
 40
3.73404912087579
100
AcDbArc
 50
122.5266432908
 51
178.3504108787
  0
LINE
  5
23A
330
1F
100
AcDbEntity
  8
0
  6
Continuous
 62
     7
370
    15
100
AcDbLine
 10
221.1836780821
 20
43.9334142786
 30
0.0
 11
222.1853990801
 21
44.5116955017
 31
0.0
  0
SPLINE
  5
23B
330
1F
100
AcDbEntity
  8
0
  6
Continuous
 62
     7
370
    15
100
AcDbSpline
210
0.0
220
0.0
230
1.0
 70
     8
 71
     3
 72
     9
 73
     5
 74
     0
 42
0.000000001
 43
0.00000001
 40
0.0
 40
0.0
 40
0.0
 40
0.0
 40
0.3901122753668738
 40
0.9999999999999999
 40
0.9999999999999999
 40
0.9999999999999999
 40
0.9999999999999999
 10
219.4927489784828
 20
41.95972459351919
 30
0.0
 10
219.4836717361949
 20
41.91293827037646
 30
0.0
 10
219.4604034545717
 20
41.7930078654726
 30
0.0
 10
219.4739701895086
 20
41.67215356520568
 30
0.0
 10
219.4822443746099
 20
41.59844601100376
 30
0.0
  0
ARC
  5
23C
330
1F
100
AcDbEntity
  8
0
  6
Continuous
 62
     7
370
    15
100
AcDbCircle
 10
221.9763593137
 20
41.4722925075
 30
0.0
 40
2.53098999123866
100
AcDbArc
 50
122.9343892187
 51
168.8962877716
  0
LINE
  5
23D
330
1F
100
AcDbEntity
  8
0
  6
Continuous
 62
     7
370
    15
100
AcDbLine
 10
221.1836780821
 20
43.9334142786
 30
0.0
 11
220.6003149876
 21
43.5965364549
 31
0.0
  0
LINE
  5
23E
330
1F
100
AcDbEntity
  8
0
  6
Continuous
 62
     7
370
    15
100
AcDbLine
 10
219.5183565639
 20
40.7536916814
 30
0.0
 11
219.4589438087
 21
40.8925737557
 31
0.0
  0
LWPOLYLINE
  5
23F
330
1F
100
AcDbEntity
  8
0
  6
Continuous
 62
     7
370
     0
100
AcDbPolyline
 90
       25
 70
   128
 43
0.0
 10
248.2552611998
 20
30.5021239827
 10
248.3097397986
 20
31.8141337338
 10
248.4726509362
 20
33.1764077651
 10
248.7424256894
 20
34.575826633
 10
249.1164659798
 20
35.9989131687
 10
249.5911695949
 20
37.431962271
 10
250.1619648794
 20
38.8611728936
 10
250.8233547628
 20
40.272780957
 10
251.5689696988
 20
41.6531919038
 10
252.391629008
 20
42.989111622
 10
253.2834100317
 20
44.2676744745
 10
254.2357244309
 20
45.476567202
 10
255.2394008976
 20
46.6041475067
 10
256.2847734786
 20
47.6395561739
 10
257.3617746645
 20
48.5728216521
 10
258.4600323452
 20
49.3949560846
 10
259.5689696988
 20
50.0980418674
 10
260.6779070524
 20
50.6753079001
 10
261.776164733
 20
51.1211947951
 10
262.8531659189
 20
51.4314084179
 10
263.8985384999
 20
51.6029612418
 10
264.9022149666
 20
51.6342011193
 10
265.8545293659
 20
51.5248271933
 10
266.7463103895
 20
51.2758927944
 10
267.5683195599
 20
50.8901706753
  0
LWPOLYLINE
  5
240
330
1F
100
AcDbEntity
  8
0
  6
Continuous
 62
     7
370
     0
100
AcDbPolyline
 90
       10
 70
   128
 43
0.0
 10
251.5696198377
 20
23.1766070792
 10
251.5689696988
 20
23.1769824574
 10
250.8233547628
 20
23.6965247232
 10
250.1619648794
 20
24.3445082814
 10
249.5911695949
 20
25.1146926963
 10
249.1164659798
 20
25.9996606708
 10
248.7424256894
 20
26.9908894796
 10
248.4726509362
 20
28.0788330474
 10
248.3097397986
 20
29.2530138828
 10
248.2552611998
 20
30.5021239827
  0
LWPOLYLINE
  5
241
330
1F
100
AcDbEntity
  8
0
  6
Continuous
 62
     7
370
     0
100
AcDbPolyline
 90
       18
 70
   128
 43
0.0
 10
269.4865806242
 20
20.9038079273
 10
269.9275005836
 20
20.2858738939
 10
270.4628634407
 20
19.7960228753
 10
271.0835902276
 20
19.4425620253
 10
271.7791543299
 20
19.2314855209
 10
272.5377600019
 20
19.1663729095
 10
273.3465424056
 20
19.2483284054
 10
274.1917857794
 20
19.4759621637
 10
275.059156037
 20
19.8454138502
 10
275.9339438529
 20
20.350418107
 10
276.8013141106
 20
20.9824108036
 10
277.6465574844
 20
21.7306742721
 10
278.4553398881
 20
22.5825190631
 10
279.2139455601
 20
23.52349914
 10
279.9095096623
 20
24.5376568628
 10
280.5302364493
 20
25.6077936061
 10
281.0655993064
 20
26.7157614225
 10
281.5065192657
 20
27.8427708051
  0
LWPOLYLINE
  5
242
330
1F
100
AcDbEntity
  8
0
  6
Continuous
 62
     7
370
     0
100
AcDbPolyline
 90
       18
 70
   128
 43
0.0
 10
281.5061448521
 20
34.7740267304
 10
281.0651857821
 20
35.3917802825
 10
280.5298120673
 20
35.8814716735
 10
279.9091008176
 20
36.2347983243
 10
279.2135760164
 20
36.4457696816
 10
278.45503009
 20
36.5108087858
 10
277.64632397
 20
36.4288129173
 10
276.8011690397
 20
36.2011722927
 10
275.9338946619
 20
35.8317464944
 10
275.0592052281
 20
35.3267990324
 10
274.1919308502
 20
34.694891148
 10
273.34677592
 20
33.9467366604
 10
272.5380697999
 20
33.0950203174
 10
271.7795238736
 20
32.1541827285
 10
271.0839990724
 20
31.1401755289
 10
270.4632878226
 20
30.0701909235
 10
269.9279141078
 20
28.9623701987
 10
269.4869550378
 20
27.8354961413
  0
LWPOLYLINE
  5
243
330
1F
100
AcDbEntity
  8
0
  6
Continuous
 62
     7
370
     0
100
AcDbPolyline
 90
       26
 70
   128
 43
0.0
 10
241.2728131203
 20
32.5950331951
 10
241.6456920308
 20
34.3832861502
 10
242.128286923
 20
36.1945768522
 10
242.7173905664
 20
38.0168678205
 10
243.4090878945
 20
39.8380484691
 10
244.1987820233
 20
41.6460155907
 10
245.0812248016
 20
43.4287537928
 10
246.0505516887
 20
45.1744153491
 10
247.1003207296
 20
46.8713989374
 10
248.2235553664
 20
48.5084267398
 10
249.4127908034
 20
50.0746193926
 10
250.6601236166
 20
51.5595682885
 10
251.9572642782
 20
52.9534047503
 10
253.2955922475
 20
54.246865616
 10
254.666213261
 20
55.4313547998
 10
256.0600184419
 20
56.4990004206
 10
257.4677448361
 20
57.4427071161
 10
258.8800369717
 20
58.2562031981
 10
260.2875090341
 20
58.934082332
 10
261.6808072417
 20
59.471839467
 10
263.0506720095
 20
59.8659007753
 10
264.3879994868
 20
60.1136474032
 10
265.6839020591
 20
60.2134328754
 10
266.9297674136
 20
60.1645940375
 10
268.117315775
 20
59.9674554628
 10
269.2386549315
 20
59.6233272952
  0
LWPOLYLINE
  5
244
330
1F
100
AcDbEntity
  8
0
  6
Continuous
 62
     7
370
     0
100
AcDbPolyline
 90
       26
 70
   128
 43
0.0
 10
240.5566383848
 20
32.5897983765
 10
240.9282038538
 20
34.402102909
 10
241.4105959056
 20
36.2383934611
 10
242.0006460539
 20
38.0866087622
 10
242.6944786842
 20
39.9346092165
 10
243.4875365094
 20
41.7702566395
 10
244.3746105036
 20
43.5814939847
 10
245.3498741164
 20
45.3564245379
 10
246.406921543
 20
47.0833900581
 10
247.5388098001
 20
48.7510473521
 10
248.7381043284
 20
50.3484427796
 10
249.9969278257
 20
51.8650842001
 10
251.3070119865
 20
53.2910098878
 10
252.6597518113
 20
54.6168539636
 10
254.0462621258
 20
55.8339079122
 10
255.457435942
 20
56.9341777823
 10
256.8840042751
 20
57.9104366933
 10
258.3165970247
 20
58.7562723031
 10
259.7458045202
 20
59.4661289266
 10
261.1622393267
 20
60.0353440267
 10
262.5565979035
 20
60.4601788392
 10
263.9197217129
 20
60.7378429299
 10
265.242657376
 20
60.8665125235
 10
266.5167154808
 20
60.8453424819
 10
267.7335276569
 20
60.6744718559
 10
268.8851015409
 20
60.3550229717
  0
LWPOLYLINE
  5
245
330
1F
100
AcDbEntity
  8
0
  6
Continuous
 62
     7
370
     0
100
AcDbPolyline
 90
       19
 70
   128
 43
0.0
 10
259.433147788
 20
18.6370890198
 10
258.3357373032
 20
17.9501169692
 10
256.9560447136
 20
17.2004927689
 10
255.5839615622
 20
16.5819506637
 10
254.2281978536
 20
16.0984171683
 10
252.8973599963
 20
15.7529617604
 10
251.5998961691
 20
15.5477773964
 10
250.3440426919
 20
15.4841665896
 10
249.1377717417
 20
15.5625331424
 10
247.9887407447
 20
15.7823795827
 10
246.9042437668
 20
16.1423103221
 10
245.8911652115
 20
16.6400405147
 10
244.9559361166
 20
17.2724105618
 10
244.1044933305
 20
18.0354061688
 10
243.3422418249
 20
18.9241838279
 10
242.674020384
 20
19.9331015653
 10
242.1040708874
 20
21.0557547559
 10
241.6360113832
 20
22.2850167802
 10
241.2728131203
 20
23.6130842644
  0
ARC
  5
246
330
1F
100
AcDbEntity
  8
0
  6
Continuous
 62
     7
370
     0
100
AcDbCircle
 10
264.1280718113
 20
49.9775218057
 30
0.0
 40
11.12399372828643
100
AcDbArc
 50
9.0277456972
 51
48.705552358
  0
LWPOLYLINE
  5
247
330
1F
100
AcDbEntity
  8
0
  6
Continuous
 62
     7
370
     0
100
AcDbPolyline
 90
       32
 70
   128
 43
0.0
 10
245.426834075
 20
30.5021239827
 10
245.4811291467
 20
31.889603721
 10
245.6435511352
 20
33.3279337268
 10
245.9127143135
 20
34.8048426756
 10
246.2863222762
 20
36.307730101
 10
246.7611875318
 20
37.8237738973
 10
247.3332586976
 20
39.3400397135
 10
247.997655064
 20
40.8435913042
 10
248.7487082354
 20
42.3216008974
 10
249.580010491
 20
43.7614586364
 10
250.4844694531
 20
45.1508801626
 10
251.4543685967
 20
46.4780114214
 10
252.4814330843
 20
47.7315297969
 10
253.5569003638
 20
48.9007407123
 10
254.6715949277
 20
49.9756688723
 10
255.8160065948
 20
50.9471433689
 10
256.9803716484
 20
51.8068759241
 10
258.1547561364
 20
52.547531603
 10
259.3291406244
 20
53.1627913925
 10
260.493505678
 20
53.6474061129
 10
261.6379173451
 20
53.9972412023
 10
262.7526119089
 20
54.2093119912
 10
263.8280791885
 20
54.2818091662
 10
264.8551436761
 20
54.2141142071
 10
265.8250428197
 20
54.0068046634
 10
266.7295017818
 20
53.6616492271
 10
267.5608040374
 20
53.1815926425
 10
268.3118572088
 20
52.5707305833
 10
268.9762535752
 20
51.8342747091
 10
269.548324741
 20
50.9785082018
 10
270.0231899966
 20
50.0107321594
 10
270.2775466698
 20
49.3261671555
  0
LWPOLYLINE
  5
248
330
1F
100
AcDbEntity
  8
0
  6
Continuous
 62
     7
370
     0
100
AcDbPolyline
 90
       15
 70
   128
 43
0.0
 10
254.2788469476
 20
21.6126035593
 10
253.5569003638
 20
21.490281987
 10
252.4814330843
 20
21.4177848119
 10
251.4543685967
 20
21.485479771
 10
250.4844694531
 20
21.6927893147
 10
249.580010491
 20
22.0379447511
 10
248.7487082354
 20
22.5180013356
 10
247.997655064
 20
23.1288633949
 10
247.3332586976
 20
23.8653192691
 10
246.7611875318
 20
24.7210857764
 10
246.2863222762
 20
25.6888618187
 10
245.9127143135
 20
26.7603906721
 10
245.6435511352
 20
27.9265304302
 10
245.4811291467
 20
29.1773319997
 10
245.426834075
 20
30.5021239827
  0
LWPOLYLINE
  5
249
330
1F
100
AcDbEntity
  8
0
  6
Continuous
 62
     7
370
     0
100
AcDbPolyline
 90
       24
 70
   128
 43
0.0
 10
230.4184926444
 20
33.4513982866
 10
230.4729869999
 20
35.0844835516
 10
230.6361340907
 20
36.7704181465
 10
230.9069280606
 20
38.498807724
 10
231.2836993749
 20
40.2589961874
 10
231.7641251131
 20
42.0401313898
 10
232.3452432906
 20
43.8312320401
 10
233.0234711208
 20
45.6212554074
 10
233.7946271036
 20
47.3991654023
 10
234.6539568058
 20
49.1540006185
 10
235.596162174
 20
50.8749419134
 10
236.6154341989
 20
52.5513791115
 10
237.7054887296
 20
54.1729764201
 10
238.8596052172
 20
55.7297361525
 10
240.07066815
 20
57.2120603674
 10
241.3312109222
 20
58.6108100429
 10
242.6334618684
 20
59.9173614223
 10
243.9693921785
 20
61.1236591818
 10
245.330765398
 20
62.2222660946
 10
246.7091882081
 20
63.2064088837
 10
248.096162174
 20
64.0700199816
 10
249.4831361399
 20
64.8077749386
 10
250.86155895
 20
65.4151252503
 10
252.0790323269
 20
65.844414555
  0
ARC
  5
24A
330
1F
100
AcDbEntity
  8
0
  6
Continuous
 62
     7
370
     0
100
AcDbCircle
 10
250.0825997664
 20
33.3187066873
 30
0.0
 40
19.66455481237331
100
AcDbArc
 50
179.6133791797
 51
192.2241165786
  0
ARC
  5
24B
330
1F
100
AcDbEntity
  8
0
  6
Continuous
 62
     7
370
     0
100
AcDbCircle
 10
278.0365148045
 20
33.0868562663
 30
0.0
 40
3.185184765118514
100
AcDbArc
 50
32.0932416839
 51
58.5836359308
  0
LINE
  5
24C
330
1F
100
AcDbEntity
  8
0
  6
Continuous
 62
     7
370
     0
100
AcDbLine
 10
267.2234006051
 20
21.4281298672
 30
0.0
 11
267.3117889527
 21
21.0982670747
 31
0.0
  0
LWPOLYLINE
  5
24D
330
1F
100
AcDbEntity
  8
0
  6
Continuous
 62
     7
370
     0
100
AcDbPolyline
 90
       15
 70
   128
 43
0.0
 10
270.6433622575
 20
20.2482547844
 10
271.1875936692
 20
20.0022665767
 10
271.8898676934
 20
19.8485446888
 10
272.6505886554
 20
19.8420419822
 10
273.4560891561
 20
19.9828752868
 10
274.2918972702
 20
20.2685143386
 10
275.1429965544
 20
20.6938272388
 10
275.9940958386
 20
21.2511726557
 10
276.8299039527
 20
21.9305371118
 10
277.6354044534
 20
22.7197148893
 10
278.3961254154
 20
23.6045273234
 10
279.0983994396
 20
24.5690775406
 10
279.7296092064
 20
25.5960360687
 10
280.2784141636
 20
26.6669521841
 10
280.7349542746
 20
27.7625854047
  0
LWPOLYLINE
  5
24E
330
1F
100
AcDbEntity
  8
0
  6
Continuous
 62
     7
370
     0
100
AcDbPolyline
 90
       22
 70
   128
 43
0.0
 10
238.2415053089
 20
35.2781924913
 10
238.617789269
 20
37.0136424144
 10
239.1014148492
 20
38.7699672927
 10
239.6890749267
 20
40.535157046
 10
240.3767509712
 20
42.2971409743
 10
241.1597405245
 20
44.0438702997
 10
242.0326893565
 20
45.7634005583
 10
242.9896280787
 20
47.4439732783
 10
244.0240129641
 20
49.074096387
 10
245.1287706939
 20
50.6426227956
 10
246.2963467268
 20
52.1388266252
 10
247.518756958
 20
53.5524765522
 10
248.7876423161
 20
54.8739057724
 10
250.0943259242
 20
56.0940781037
 10
251.4298724336
 20
57.2046497781
 10
252.785149126
 20
58.1980264974
 10
254.1508883639
 20
59.0674153644
 10
255.5177509655
 20
59.8068713345
 10
256.8763900667
 20
60.4113378683
 10
258.2175150376
 20
60.87668151
 10
259.5319550132
 20
61.1997201521
 10
260.7203133525
 20
61.3702768562
  0
LWPOLYLINE
  5
24F
330
1F
100
AcDbEntity
  8
0
  6
Continuous
 62
     7
370
     0
100
AcDbPolyline
 90
       19
 70
   128
 43
0.0
 10
238.8155004138
 20
35.2829895674
 10
239.1931972636
 20
36.9997423949
 10
239.677421191
 20
38.7365722155
 10
240.2648236995
 20
40.481468535
 10
240.9513427937
 20
42.2223650777
 10
241.7322310692
 20
43.9472232269
 10
242.6020885413
 20
45.6441152747
 10
243.5548999874
 20
47.3013069035
 10
244.5840765428
 20
48.9073383318
 10
245.6825012642
 20
50.4511035596
 10
246.8425783448
 20
51.9219271695
 10
248.0562856404
 20
53.3096381484
 10
249.3152301441
 20
54.6046402223
 10
250.6107060254
 20
55.7979782162
 10
251.9337548329
 20
56.8813999805
 10
253.2752274431
 20
57.8474134565
 10
254.6258473287
 20
58.6893384852
 10
255.9762747075
 20
59.4013530018
 10
256.6464503165
 20
59.7061883363
  0
LINE
  5
250
330
1F
100
AcDbEntity
  8
0
  6
Continuous
 62
     7
370
     0
100
AcDbLine
 10
266.5496695915
 20
21.8170665026
 30
0.0
 11
267.2234006051
 21
21.4281298672
 31
0.0
  0
LINE
  5
251
330
1F
100
AcDbEntity
  8
0
  6
Continuous
 62
     7
370
     0
100
AcDbLine
 10
231.99534112
 20
32.9534558926
 30
0.0
 11
234.1484809151
 21
34.1964370387
 31
0.0
  0
LWPOLYLINE
  5
252
330
1F
100
AcDbEntity
  8
0
  6
Continuous
 62
     7
370
     0
100
AcDbPolyline
 90
       21
 70
   128
 43
0.0
 10
219.548172959
 20
53.1354955735
 10
220.1020135176
 20
54.6689916257
 10
220.7524861592
 20
56.1925674498
 10
221.4937959373
 20
57.6926497762
 10
222.3193386533
 20
59.1558746349
 10
223.2217596919
 20
60.5692064125
 10
224.1930195427
 20
61.9200539842
 10
225.2244654222
 20
63.1963828864
 10
226.30690836
 20
64.3868225287
 10
227.4307050621
 20
65.4807674936
 10
228.585843821
 20
66.4684720173
 10
229.7620337083
 20
67.3411368136
 10
230.9487962547
 20
68.0909874651
 10
232.1355588012
 20
68.711343684
 10
233.3117486885
 20
69.1966788257
 10
234.4668874473
 20
69.5426691245
 10
235.5906841495
 20
69.7462322137
 10
236.6731270873
 20
69.8055545854
 10
237.7045729667
 20
69.7201077471
 10
238.6758328175
 20
69.4906529296
 10
239.408715856
 20
69.2023623646
  0
ARC
  5
253
330
1F
100
AcDbEntity
  8
0
  6
Continuous
 62
     7
370
     0
100
AcDbCircle
 10
225.432117118
 20
43.7980123485
 30
0.0
 40
6.598012940306714
100
AcDbArc
 50
206.9028305451
 51
235.9634528152
  0
LINE
  5
254
330
1F
100
AcDbEntity
  8
0
  6
Continuous
 62
     7
370
     0
100
AcDbLine
 10
283.6813109372
 20
30.548190969
 30
0.0
 11
283.4161458942
 21
30.7760027476
 31
0.0
  0
ARC
  5
255
330
1F
100
AcDbEntity
  8
0
  6
Continuous
 62
     7
370
     0
100
AcDbCircle
 10
252.578516321
 20
25.9800544769
 30
0.0
 40
12.25368947793836
100
AcDbArc
 50
191.1624303953
 51
217.2268168063
  0
LINE
  5
256
330
1F
100
AcDbEntity
  8
0
  6
Continuous
 62
     7
370
     0
100
AcDbLine
 10
235.9604443071
 20
26.2611758092
 30
0.0
 11
237.684014821
 21
27.2561718878
 31
0.0
  0
LINE
  5
257
330
1F
100
AcDbEntity
  8
0
  6
Continuous
 62
     7
370
     0
100
AcDbLine
 10
231.99534112
 20
32.1369150807
 30
0.0
 11
234.1484809151
 21
33.3798962268
 31
0.0
  0
LINE
  5
258
330
1F
100
AcDbEntity
  8
0
  6
Continuous
 62
     7
370
     0
100
AcDbLine
 10
277.7239363057
 20
34.0620453977
 30
0.0
 11
283.4161458942
 21
30.7760027476
 31
0.0
  0
LINE
  5
259
330
1F
100
AcDbEntity
  8
0
  6
Continuous
 62
     7
370
     0
100
AcDbLine
 10
239.6670795567
 20
25.5847042164
 30
0.0
 11
239.600388941
 21
25.8479341346
 31
0.0
  0
LINE
  5
25A
330
1F
100
AcDbEntity
  8
0
  6
Continuous
 62
     7
370
     0
100
AcDbLine
 10
239.1627361168
 20
25.1082831169
 30
0.0
 11
238.8155004138
 21
26.3010406367
 31
0.0
  0
LWPOLYLINE
  5
25B
330
1F
100
AcDbEntity
  8
0
  6
Continuous
 62
     7
370
     0
100
AcDbPolyline
 90
        3
 70
   128
 43
0.0
 10
239.0695138073
 20
23.8659283452
 10
238.6113501719
 20
25.0140008545
 10
238.2415053089
 20
26.2962435605
  0
LINE
  5
25C
330
1F
100
AcDbEntity
  8
0
  6
Continuous
 62
     7
370
     0
100
AcDbLine
 10
266.8730043081
 20
61.5160776556
 30
0.0
 11
266.7726342884
 21
61.4581352766
 31
0.0
  0
ARC
  5
25D
330
1F
100
AcDbEntity
  8
0
  6
Continuous
 62
     7
370
     0
100
AcDbCircle
 10
225.5027163855
 20
50.8206003968
 30
0.0
 40
1.972900930438916
100
AcDbArc
 50
160.2447912923
 51
206.8893927025
  0
ARC
  5
25E
330
1F
100
AcDbEntity
  8
0
  6
Continuous
 62
     7
370
     0
100
AcDbCircle
 10
223.2607381365
 20
50.7599903107
 30
0.0
 40
0.823142550979862
100
AcDbArc
 50
40.3517278188
 51
62.0985124778
  0
LINE
  5
25F
330
1F
100
AcDbEntity
  8
0
  6
Continuous
 62
     7
370
     0
100
AcDbLine
 10
223.6459299639
 20
51.4874454057
 30
0.0
 11
223.7937324585
 21
52.0417008034
 31
0.0
  0
LINE
  5
260
330
1F
100
AcDbEntity
  8
0
  6
Continuous
 62
     7
370
     0
100
AcDbLine
 10
223.6459299639
 20
51.4874454057
 30
0.0
 11
222.3927103363
 21
52.2109136973
 31
0.0
  0
LINE
  5
261
330
1F
100
AcDbEntity
  8
0
  6
Continuous
 62
     7
370
     0
100
AcDbLine
 10
219.5480291313
 20
54.0174005375
 30
0.0
 11
219.5334079089
 21
54.1931267277
 31
0.0
  0
ARC
  5
262
330
1F
100
AcDbEntity
  8
0
  6
Continuous
 62
     7
370
     0
100
AcDbCircle
 10
223.3642793811
 20
37.4585492697
 30
0.0
 40
0.5806344198070167
100
AcDbArc
 50
25.5708468831
 51
60.9826879702
  0
ARC
  5
263
330
1F
100
AcDbEntity
  8
0
  6
Continuous
 62
     7
370
     0
100
AcDbCircle
 10
225.6016510009
 20
38.6123167083
 30
0.0
 40
2.059656355481299
100
AcDbArc
 50
172.8744043428
 51
198.2795396692
  0
LINE
  5
264
330
1F
100
AcDbEntity
  8
0
  6
Continuous
 62
     7
370
     0
100
AcDbLine
 10
222.8007454953
 20
42.9999011313
 30
0.0
 11
221.1836780821
 21
43.9334142786
 31
0.0
  0
LINE
  5
265
330
1F
100
AcDbEntity
  8
0
  6
Continuous
 62
     7
370
     0
100
AcDbLine
 10
223.6459299639
 20
37.9662984978
 30
0.0
 11
222.3927103363
 21
38.6897667894
 31
0.0
  0
LINE
  5
266
330
1F
100
AcDbEntity
  8
0
  6
Continuous
 62
     7
370
     0
100
AcDbLine
 10
223.6459299639
 20
37.9662984978
 30
0.0
 11
223.7937324585
 21
37.582692228
 31
0.0
  0
OLE2FRAME
  5
267
330
1F
100
AcDbEntity
  8
0
100
AcDbOle2Frame
 70
     2
  3
Paintbrush-Bild
 10
13.8511154363
 20
38.264191557
 30
0.0
 11
51.6290888628
 21
31.9806341108
 31
0.0
 71
     2
 72
     0
 73
     1
 90
    12928
310
80552BED0767C5B32B40DDAF6807D121434000000000000000006FFBDDFB85D0
310
4940DDAF6807D121434000000000000000006FFBDDFB85D04940416F4BD60AFB
310
3F4000000000000000002BED0767C5B32B40416F4BD60AFB3F40000000000000
310
0000000000000100000000010000010000000100000000000100000000320000
310
D0CF11E0A1B11AE1000000000000000000000000000000003E000300FEFF0900
310
0600000000000000000000000100000001000000000000000010000002000000
310
01000000FEFFFFFF0000000000000000FFFFFFFFFFFFFFFFFFFFFFFFFFFFFFFF
310
FFFFFFFFFFFFFFFFFFFFFFFFFFFFFFFFFFFFFFFFFFFFFFFFFFFFFFFFFFFFFFFF
310
FFFFFFFFFFFFFFFFFFFFFFFFFFFFFFFFFFFFFFFFFFFFFFFFFFFFFFFFFFFFFFFF
310
FFFFFFFFFFFFFFFFFFFFFFFFFFFFFFFFFFFFFFFFFFFFFFFFFFFFFFFFFFFFFFFF
310
FFFFFFFFFFFFFFFFFFFFFFFFFFFFFFFFFFFFFFFFFFFFFFFFFFFFFFFFFFFFFFFF
310
FFFFFFFFFFFFFFFFFFFFFFFFFFFFFFFFFFFFFFFFFFFFFFFFFFFFFFFFFFFFFFFF
310
FFFFFFFFFFFFFFFFFFFFFFFFFFFFFFFFFFFFFFFFFFFFFFFFFFFFFFFFFFFFFFFF
310
FFFFFFFFFFFFFFFFFFFFFFFFFFFFFFFFFFFFFFFFFFFFFFFFFFFFFFFFFFFFFFFF
310
FFFFFFFFFFFFFFFFFFFFFFFFFFFFFFFFFFFFFFFFFFFFFFFFFFFFFFFFFFFFFFFF
310
FFFFFFFFFFFFFFFFFFFFFFFFFFFFFFFFFFFFFFFFFFFFFFFFFFFFFFFFFFFFFFFF
310
FFFFFFFFFFFFFFFFFFFFFFFFFFFFFFFFFFFFFFFFFFFFFFFFFFFFFFFFFFFFFFFF
310
FFFFFFFFFFFFFFFFFFFFFFFFFFFFFFFFFFFFFFFFFFFFFFFFFFFFFFFFFFFFFFFF
310
FFFFFFFFFFFFFFFFFFFFFFFFFFFFFFFFFFFFFFFFFFFFFFFFFFFFFFFFFFFFFFFF
310
FFFFFFFFFFFFFFFFFFFFFFFFFFFFFFFFFFFFFFFFFFFFFFFFFFFFFFFFFFFFFFFF
310
FDFFFFFFFEFFFFFFFEFFFFFFFEFFFFFF05000000060000000700000008000000
310
090000000A0000000B0000000C0000000D0000000E0000000F00000010000000
310
11000000120000001300000014000000150000001600000017000000FEFFFFFF
310
FFFFFFFFFFFFFFFFFFFFFFFFFFFFFFFFFFFFFFFFFFFFFFFFFFFFFFFFFFFFFFFF
310
FFFFFFFFFFFFFFFFFFFFFFFFFFFFFFFFFFFFFFFFFFFFFFFFFFFFFFFFFFFFFFFF
310
FFFFFFFFFFFFFFFFFFFFFFFFFFFFFFFFFFFFFFFFFFFFFFFFFFFFFFFFFFFFFFFF
310
FFFFFFFFFFFFFFFFFFFFFFFFFFFFFFFFFFFFFFFFFFFFFFFFFFFFFFFFFFFFFFFF
310
FFFFFFFFFFFFFFFFFFFFFFFFFFFFFFFFFFFFFFFFFFFFFFFFFFFFFFFFFFFFFFFF
310
FFFFFFFFFFFFFFFFFFFFFFFFFFFFFFFFFFFFFFFFFFFFFFFFFFFFFFFFFFFFFFFF
310
FFFFFFFFFFFFFFFFFFFFFFFFFFFFFFFFFFFFFFFFFFFFFFFFFFFFFFFFFFFFFFFF
310
FFFFFFFFFFFFFFFFFFFFFFFFFFFFFFFFFFFFFFFFFFFFFFFFFFFFFFFFFFFFFFFF
310
FFFFFFFFFFFFFFFFFFFFFFFFFFFFFFFFFFFFFFFFFFFFFFFFFFFFFFFFFFFFFFFF
310
FFFFFFFFFFFFFFFFFFFFFFFFFFFFFFFFFFFFFFFFFFFFFFFFFFFFFFFFFFFFFFFF
310
FFFFFFFFFFFFFFFFFFFFFFFFFFFFFFFFFFFFFFFFFFFFFFFFFFFFFFFFFFFFFFFF
310
FFFFFFFFFFFFFFFFFFFFFFFFFFFFFFFFFFFFFFFFFFFFFFFFFFFFFFFFFFFFFFFF
310
FFFFFFFFFFFFFFFFFFFFFFFFFFFFFFFFFFFFFFFFFFFFFFFFFFFFFFFFFFFFFFFF
310
52006F006F007400200045006E00740072007900000000000000000000000000
310
0000000000000000000000000000000000000000000000000000000000000000
310
16000500FFFFFFFFFFFFFFFF020000000A00030000000000C000000000000046
310
000000000000000000000000F0F18C286F20D20103000000C000000000000000
310
01004F006C006500000000000000000000000000000000000000000000000000
310
0000000000000000000000000000000000000000000000000000000000000000
310
0A000200FFFFFFFFFFFFFFFFFFFFFFFF00000000000000000000000000000000
310
0000000000000000000000000000000000000000000000001400000000000000
310
010043006F006D0070004F0062006A0000000000000000000000000000000000
310
0000000000000000000000000000000000000000000000000000000000000000
310
120002010100000003000000FFFFFFFF00000000000000000000000000000000
310
0000000000000000000000000000000000000000010000004D00000000000000
310
01004F006C006500310030004E00610074006900760065000000000000000000
310
0000000000000000000000000000000000000000000000000000000000000000
310
1A000200FFFFFFFFFFFFFFFFFFFFFFFF00000000000000000000000000000000
310
0000000000000000000000000000000000000000040000002426000000000000
310
FEFFFFFF02000000FEFFFFFFFFFFFFFFFFFFFFFFFFFFFFFFFFFFFFFFFFFFFFFF
310
FFFFFFFFFFFFFFFFFFFFFFFFFFFFFFFFFFFFFFFFFFFFFFFFFFFFFFFFFFFFFFFF
310
FFFFFFFFFFFFFFFFFFFFFFFFFFFFFFFFFFFFFFFFFFFFFFFFFFFFFFFFFFFFFFFF
310
FFFFFFFFFFFFFFFFFFFFFFFFFFFFFFFFFFFFFFFFFFFFFFFFFFFFFFFFFFFFFFFF
310
FFFFFFFFFFFFFFFFFFFFFFFFFFFFFFFFFFFFFFFFFFFFFFFFFFFFFFFFFFFFFFFF
310
FFFFFFFFFFFFFFFFFFFFFFFFFFFFFFFFFFFFFFFFFFFFFFFFFFFFFFFFFFFFFFFF
310
FFFFFFFFFFFFFFFFFFFFFFFFFFFFFFFFFFFFFFFFFFFFFFFFFFFFFFFFFFFFFFFF
310
FFFFFFFFFFFFFFFFFFFFFFFFFFFFFFFFFFFFFFFFFFFFFFFFFFFFFFFFFFFFFFFF
310
FFFFFFFFFFFFFFFFFFFFFFFFFFFFFFFFFFFFFFFFFFFFFFFFFFFFFFFFFFFFFFFF
310
FFFFFFFFFFFFFFFFFFFFFFFFFFFFFFFFFFFFFFFFFFFFFFFFFFFFFFFFFFFFFFFF
310
FFFFFFFFFFFFFFFFFFFFFFFFFFFFFFFFFFFFFFFFFFFFFFFFFFFFFFFFFFFFFFFF
310
FFFFFFFFFFFFFFFFFFFFFFFFFFFFFFFFFFFFFFFFFFFFFFFFFFFFFFFFFFFFFFFF
310
FFFFFFFFFFFFFFFFFFFFFFFFFFFFFFFFFFFFFFFFFFFFFFFFFFFFFFFFFFFFFFFF
310
FFFFFFFFFFFFFFFFFFFFFFFFFFFFFFFFFFFFFFFFFFFFFFFFFFFFFFFFFFFFFFFF
310
FFFFFFFFFFFFFFFFFFFFFFFFFFFFFFFFFFFFFFFFFFFFFFFFFFFFFFFFFFFFFFFF
310
FFFFFFFFFFFFFFFFFFFFFFFFFFFFFFFFFFFFFFFFFFFFFFFFFFFFFFFFFFFFFFFF
310
0100000200000000000000000000000000000000000000000000000000000000
310
0000000000000000000000000000000000000000000000000000000000000000
310
0100FEFF030A0000FFFFFFFF0A00030000000000C00000000000004607000000
310
5042727573680007000000504272757368000700000050427275736800F439B2
310
7100000000000000000000000000000000000000000000000000000000000000
310
0000000000000000000000000000000000000000000000000000000000000000
310
0000000000000000000000000000000000000000000000000000000000000000
310
0000000000000000000000000000000000000000000000000000000000000000
310
0000000000000000000000000000000000000000000000000000000000000000
310
0000000000000000000000000000000000000000000000000000000000000000
310
0000000000000000000000000000000000000000000000000000000000000000
310
0000000000000000000000000000000000000000000000000000000000000000
310
0000000000000000000000000000000000000000000000000000000000000000
310
0000000000000000000000000000000000000000000000000000000000000000
310
0000000000000000000000000000000000000000000000000000000000000000
310
0000000000000000000000000000000000000000000000000000000000000000
310
20260000424D0E260000000000003E00000028000000B40200006E0000000100
310
01000000000000000000130B0000130B00000200000002000000000000FFFFFF
310
FFFFFFFFFFFFFFFFFFFFFFFFFFFFFFFFFFFFFFFFFFFFFFFFFFFFFFFFFFFFFFFF
310
FFFFFFFFFFFFFFFFFFFFFFFFFFFFFFFFFFFFFFFFFFFFFFFFFFFFFFFFFFFFFFFF
310
FFFFFFFFFFFFFFFFFFFFFFFFFFFFFFFFFFFFFFFFFFFFFFFFF000FFFFFFFFFFFF
310
FFFFFFFFFFFFFFFFFFFFFFFFFFFFFFFFFFFFFFFFFFFFFFFFFFFFFFFFFFFFFFFF
310
FFFFFFFFFFFFFFFFFFFFFFFFFFFFFFFFFFFFFFFFFFFFFFFFFFFFFFFFFFFFFFFF
310
FFFFFFFFFFFFFFFFFFFFFFFFFFFFFFFFF000FFFFFFFFFFFFFFFFFFFFFFFFFFFF
310
FFFFFFFFFFFFFFFFFFFFFFFFFFFFFFFFFFFFFFFFFFFFFFFFFFFFFFFFFFFFFFFF
310
FFFFFFFFFFFFFFFFFFFFFFFFFFFFFFFFFFFFFFFFFFFFFFFFFFFFFFFFFFFFFFFF
310
FFFFFFFFFFFFFFFFF000FFFFFFFFFFFFFFFFFFFFFFFFFFFFFFFFFFFFFFFFFFFF
310
FFFFFFFFFFFFFFFFFFFFFFFFFFFFFFFFFFFFFFFFFFFFFFFFFFFFFFFFFFFFFFFF
310
FFFFFFFFFFFFFFFFFFFFFFFFFFFFFFFFFFFFFFFFFFFFFFFFFFFFFFFFFFFFFFFF
310
F000FFFFFFFFFFFFFFFFFFFFFFFFFFFFFFFFFFFFFFFFFFFFFFFFFFFFFFFFFFFF
310
FFFFFFFFFFFFFFFFFFFFFFFFFFFFFFFFFFFFFFFFFFFFFFFFFFFFFFFFFFFFFFFF
310
FFFFFFFFFFFFFFFFFFFFFFFFFFFFFFFFFFFFFFFFFFFFFFFFF000FFFFFFFFFFFF
310
FFFFFFFFFFFFFFFFFFFFFFFFFFFFFFFFFFFFFFFFFFFFFFFFFFFFFFFFFFFFFFFF
310
FFFFFFFFFFFFFFFFFFFFFFFFFFFFFFFFFFFFFFFFFFFFFFFFFFFFFFFFFFFFFFFF
310
FFFFFFFFFFFFFFFFFFFFFFFFFFFFFFFFF000FFFFFFFFFFFFFFFFFFFFFFFFFFFF
310
FFFFFFFFFFFFFFFFFFFFFFFFFFFFFFFFFFFFFFFFFFFFFFFFFFFFFFFFFFFFFFFF
310
FFFFFFFFFFFFFFFFFFFFFFFFFFFFFFFFFFFFFFFFFFFFFFFFFFFFFFFFFFFFFFFF
310
FFFFFFFFFFFFFFFFF000FFFFFFFFFFFFFFFFFFFFFFFFFFFFFFFFFFFFFFFFFFFF
310
FFFFFFFFFFFFFFFFFFFFFFFFFFFFFFFFFFFFFFFFFFFFFFFFFFFFFFFFFFFFFFFF
310
FFFFFFFFFFFFFFFFFFFFFFFFFFFFFFFFFFFFFFFFFFFFFFFFFFFFFFFFFFFFFFFF
310
F000FFFFFFFFFFFFFFFFFFFFFFFFFFFFFFFFFFFFFFFFFFFFFFFFFFFFFFFFFFFF
310
FFFFFFFFFFFFFFFFFFFFFFFFFFFFFFFFFFFFFFFFFFFFFFFFFFFFFFFFFFFFFFFF
310
FFFFFFFFFFFFFFFFFFFFFFFFFFFFFFFFFFFFFFFFFFFFFFFFF000FFFFFFFFFFFF
310
FFFFFFFFFFFFFFFFFFFFFFFFFFFFFFFFFFFFFFFFFFFFFFFFFFFFFFFFFFFFFFFF
310
FFFFFFFFFFFFFFFFFFFFFFFFFFFFFFFFFFFFFFFFFFFFFFFFFFFFFFFFFFFFFFFF
310
FFFFFFFFFFFFFFFFFFFFFFFFFFFFFFFFF000FFFFFFFFFFFFFFFFFFFFFFFFFFFF
310
FFFFFFFFFFFFFFFFFFFFFFFFFFFFFFFFFFFFFFFFFFFFFFFFFFFFFFFFFFFFFFFF
310
FFFFFFFFFFFFFFFFFFFFFFFFFFFFFFFFFFFFFFFFFFFFFFFFFFFFFFFFFFFFFFFF
310
FFFFFFFFFFFFFFFFF000FFFFFFFFFFFFFFFFFFFFFFFFFFFFFFFFFFFFFFFFFFFF
310
FFFFFFFFFFFFFFFFFFFFFFFFFFFFFFFFFFFFFFFFFFFFFFFFFFFFFFFFFFFFFFFF
310
FFFFFFFFFFFFFFFFFFFFFFFFFFFFFFFFFFFFFFFFFFFFFFFFFFFFFFFFFFFFFFFF
310
F000FFFFFFFFFFFFFFFFFFFFFFFFFFFFFFFFFFFFFFFFFFFFFFFFFFFFFFFFFFFF
310
FFFFFFFFFFFFFFFFFFFFFFFFFFFFFFFFFFFFFFFFFFFFFFFFFFFFFFFFFFFFFFFF
310
FFFFFFFFFFFFFFFFFFFFFFFFFFFFFFFFFFFFFFFFFFFFFFFFF000FFFFFFFFFFFF
310
FFFFFFFFFFFFFFFFFFFFFFFFFFFFFFFFFFFFFFFFFFFFFFFFFFFFFFFFFFFFFFFF
310
FFFFFFFFFFFFFFFFFFFFFFFFFFFFFFFFFFFFFFFFFFFFFFFFFFFFFFFFFFFFFFFF
310
FFFFFFFFFFFFFFFFFFFFFFFFFFFFFFFFF000FFFFFFFFFFFFFFFFFFFFFFFFFFFF
310
FFFFFFFFFFFFFFFFFFFFFFFFFFFFFFFFFFFFFFFFFFFFFFFFFFFFFFFFFFFFFFFF
310
FFFFFFFFFFFFFFFFFFFFFFFFFFFFFFFFFFFFFFFFFFFFFFFFFFFFFFFFFFFFFFFF
310
FFFFFFFFFFFFFFFFF000FFFFFFFFFFFFFFFFFFFFFFFFFFFFFFFFFFFFFFFFFFFF
310
FFFFFFFFFFFFFFFFFFFFFFFFFFFFFFFFFFFFFFFFFFFFFFFFFFFFFFFFFFFFFFFF
310
FFFFFFFFFFFFFFFFFFFFFFFFFFFFFFFFFFFFFFFFFFFFFFFFFFFFFFFFFFFFFFFF
310
F000FFFFFFFFFFFFFFFFFFFFFFFFFFFFFFFFFFFFFFFFFFFFFFFFFFFFFFFFFFFF
310
FFFFFFFFFFFFFFFFFFFFFFFFFFFFFFFFFFFFFFFFFFFFFFFFFFFFFFFFFFFFFFFF
310
FFFFFFFFFFFFFFFFFFFFFFFFFFFFFFFFFFFFFFFFFFFFFFFFF000FFFFFFFFFFFF
310
FFFFFFFFFFFFFFFFFFFFFFFFFFFFFFFFFFFFFFFFFFFFFFFFFFFFFFFFFFFFFFFF
310
FFFFFFFFFFFFFFFFFFFFFFFFFFFFFFFFFFFFFFFFFFFFFFFFFFFFFFFFFFFFFFFF
310
FFFFFFFFFFFFFFFFFFFFFFFFFFFFFFFFF000FFFFFFFFFFFFFFFFFFFFFFFFFFFF
310
FFFFFFFFFFFFFFFFFFFFFFFFFFFFFFFFFFFFFFFFFFFFFFFFFFFFFFFFFFFFFFFF
310
FFFFFFFFFFFFFFFFFFFFFFFFFFFFFFFFFFFFFFFFFFFFFFFFFFFFFFFFFFFFFFFF
310
FFFFFFFFFFFFFFFFF000FFFFF80003FFFFFFFFFFFFFFFFFFFFFFFFFFFFFFFFFF
310
FFFFF00007FFFFFFFFFF00007FFFFFF800000000000000007FFFFFFFFFFFFFFF
310
FFFFFFFC001FFFFFFFFFFFFFFC001FFFFFFFFFFFFFFFFFFFFFFFFFFE0007FFFF
310
F000FFFF8000007FFFFFFFF8000FFFFFC0007FFFFF80007FFFFF0000007FFFFF
310
FFF8000007FFFFF800000000000000007FFFFFF0001FFFFFFFFFFFC00001FFFF
310
FFFFFFFFC00001FFFFFFFF000000000003FFFFE000007FFFF000FFFE0000000F
310
FFFFFFF0000FFFFF80007FFFFF80007FFFFC0000001FFFFFFFC0000001FFFFF8
310
00000000000000007FFFFFF0001FFFFFFFFFFE0000003FFFFFFFFFFE0000003F
310
FFFFFF000000000003FFFF0000000FFFF000FFF800000003FFFFFFF00007FFFF
310
80007FFFFF80007FFFF000000007FFFFFF000000003FFFF80000000000000000
310
7FFFFFF0001FFFFFFFFFF80000000FFFFFFFFFF80000000FFFFFFF0000000000
310
03FFFC00000003FFF000FFE000000000FFFFFFF00007FFFF80003FFFFF80007F
310
FFC000000001FFFFFC000000001FFFF800000000000000007FFFFFF0001FFFFF
310
FFFFE000000003FFFFFFFFE000000003FFFFFF000000000003FFF000000000FF
310
F000FF80000000007FFFFFF00007FFFF80003FFFFF80007FFF8000000000FFFF
310
F80000000007FFF800000000000000007FFFFFF0001FFFFFFFFFC000000001FF
310
FFFFFFC000000001FFFFFF000000000003FFC0000000007FF000FF0000000000
310
3FFFFFE00007FFFF00003FFFFF80007FFE00000000003FFFF00000000003FFF8
310
00000000000000007FFFFFF0001FFFFFFFFF8000000000FFFFFFFF8000000000
310
FFFFFF000000000003FF80000000003FF000FE00000000001FFFFFE00003FFFF
310
00003FFFFF80007FFC00000000001FFFE00000000001FFF8000001FFFE000000
310
7FFFFFF0001FFFFFFFFE00000000003FFFFFFE00000000003FFFFF0000000000
310
03FF00000000001FF000FC00000000000FFFFFE00003FFFF00001FFFFF80007F
310
F800000000001FFFC00000000000FFF8000001FFFE0000007FFFFFF0001FFFFF
310
FFFC00000000001FFFFFFC00000000001FFFFF000000000003FE00000000000F
310
F000F8000000000007FFFFE00003FFFF00001FFFFF80007FF800000000000FFF
310
800000000000FFF8000001FFFE0000007FFFFFF0001FFFFFFFF800000000000F
310
FFFFF800000000000FFFFF000000000003FC000000000007F000F80000000000
310
03FFFFC00003FFFE00001FFFFF80007FF0000000000007FF0000000000007FF8
310
000001FFFE0000007FFFFFF0001FFFFFFFF0000000000007FFFFF00000000000
310
07FFFF000000000003F8000000000003F000F0000000000003FFFFC00001FFFE
310
00001FFFFF80007FE0000000000007FE0000000000003FF8000001FFFE000000
310
7FFFFFF0001FFFFFFFF0000000000007FFFFF0000000000007FFFF0000000000
310
03F800001F800003F000E00001FFF00001FFFFC00001FFFE00000FFFFF80007F
310
E00001FFE00003FE00001FFF00003FF8000001FFFE0000007FFFFFF0001FFFFF
310
FFE000003E000003FFFFE000003E000003FFFF000000000003F00001FFF80001
310
F000E00007FFFC0001FFFFC00001FFFE00000FFFFF80007FC0000FFFFC0003FC
310
0000FFFFC0001FF8000001FFFE0000007FFFFFF0001FFFFFFFC00003FFE00001
310
FFFFC00003FFE00001FFFF0001FFFFFFFFF00007FFFE0001F000E0000FFFFF00
310
00FFFF800001FFFC00000FFFFF80007FC0001FFFFE0001FC0001FFFFE0001FF8
310
000001FFFE0000007FFFFFF0001FFFFFFF80000FFFF80000FFFF80000FFFF800
310
00FFFF0003FFFFFFFFE0000FFFFF8000F000C0003FFFFF8000FFFF800000FFFC
310
000007FFFF80007F80003FFFFF0001FC0003FFFFF0001FF8000001FFFE000000
310
7FFFFFF0001FFFFFFF80003FFFFE0000FFFF80003FFFFE0000FFFF0003FFFFFF
310
FFE0003FFFFF8000F000C0003FFFFF8000FFFF800000FFFC000007FFFF80007F
310
80007FFFFF8001F80007FFFFF8000FF8000001FFFE0000007FFFFFF0001FFFFF
310
FF00007FFFFF00007FFF00007FFFFF00007FFF0003FFFFFFFFE0003FFFFFC000
310
F000C0007FFFFFC000FFFF000000FFFC000007FFFF80007F8000FFFFFF8000F8
310
000FFFFFF8000FF8000001FFFE0000007FFFFFF0001FFFFFFF0000FFFFFF8000
310
7FFF0000FFFFFF80007FFF0003FFFFFFFFC0007FFFFFC00070008000FFFFFFC0
310
00FFFF000000FFF8000007FFFF80007F8000FFFFFF8000F8000FFFFFF8000FF8
310
000001FFFE0000007FFFFFF0001FFFFFFE0001FFFFFFC0003FFE0001FFFFFFC0
310
003FFF0003FFFFFFFFC0007FFFFFE00070008000FFFFFFC0007FFF0000007FF8
310
000003FFFF80007F0001FFFFFF8000F8000FFFFFF8000FF8000001FFFE000000
310
7FFFFFF0001FFFFFFE0001FFFFFFC0003FFE0001FFFFFFC0003FFF0003FFFFFF
310
FFC000FFFFFFE00070008000FFFFFFC0007FFF0000007FF8000003FFFF80007F
310
0001FFFFFF8000F8001FFFFFF8000FF8000001FFFE0000007FFFFFF0001FFFFF
310
FE0003FFFFFFE0003FFE0003FFFFFFE0003FFF0003FFFFFFFFC000FFFFFFE000
310
70008000FFFFFFC0007FFE0000007FF8000003FFFF80007F0001FFFFFF8000F0
310
001FFFFFF8000FF8000001FFFE0000007FFFFFF0001FFFFFFC0003FFFFFFE000
310
1FFC0003FFFFFFE0001FFF0003FFFFFFFFC000FFFFFFC00070008000FFFFFF80
310
007FFE0000007FF0000003FFFF80007F0001FFFFFF0000F0001FFFFFF8000FF8
310
000001FFFE0000007FFFFFF0001FFFFFFC0007FFFFFFF0001FFC0007FFFFFFF0
310
001FFF0003FFFFFFFFC000FFFFFFC00070008001FFFFFF0000FFFE0000003FF0
310
000001FFFF80007F0001FFFFFF0000F8001FFFFFF0000FF8000001FFFE000000
310
7FFFFFF0001FFFFFFC0007FFFFFFF0001FFC0007FFFFFFF0001FFF0003FFFFFF
310
FFC001FFFFFF80007000FFFFFFFFFE0000FFFE0008003FF0008001FFFF80007F
310
FFFFFFFFFC0000FFFFFFFFFFE0000FF8000001FFFE0000007FFFFFF0001FFFFF
310
F8000FFFFFFFF8000FF8000FFFFFFFF8000FFF0003FFFFFFFFFFFFFFFFFF0000
310
7000FFFFFFFFFC0000FFFC0008003FF0008001FFFF80007FFFFFFFFFF80001FF
310
FFFFFFFF80000FF8000001FFFE0000007FFFFFF0001FFFFFF8000FFFFFFFF800
310
0FF8000FFFFFFFF8000FFF0003FFFFFFFFFFFFFFFFFE0000F000FFFFFFFFE000
310
00FFFC000C003FE000C001FFFF80007FFFFFFFFFC00001FFFFFFFFFE00001FF8
310
000001FFFE0000007FFFFFF0001FFFFFF8000FFFFFFFF8000FF8000FFFFFFFF8
310
000FFF0003FFFFFFFFFFFFFFFFF00000F000FFFFFFFE000001FFFC000C001FE0
310
00C000FFFF80007FFFFFFFFE000001FFFFFFFFE000001FF80FFFFFFFFFFFFFC0
310
7FFFFFF0001FFFFFF8000FFFFFFFF8000FF8000FFFFFFFF8000FFF0003FFFFFF
310
FFFFFFFFFF800000F000FFFFFFC0000001FFFC001C001FE001C000FFFF80007F
310
FFFFFF80000003FFFFFFF80000001FF80FFFFFFFFFFFFFC07FFFFFF0001FFFFF
310
F8001FFFFFFFFC000FF8001FFFFFFFFC000FFF0003FFFFFFFFFFFFFFF0000001
310
F000FFFFF800000001FFF8001C001FE001C000FFFF80007FFFFFF800000003FF
310
FFFF800000003FF80FFFFFFFFFFFFFC07FFFFFF0001FFFFFF8001FFFFFFFFC00
310
0FF8001FFFFFFFFC000FFF0003FFFFFFFFFFFFFE00000001F000FFFFC0000000
310
03FFF8001E001FC001E000FFFF80007FFFFF8000000007FFFFFC000000003FF8
310
0FFFFFFFFFFFFFC07FFFFFF0001FFFFFF8001FFFFFFFFC000FF8001FFFFFFFFC
310
000FFF0003FFFFFFFFFFFFE000000003F000FFFE0000000007FFF8001E000FC0
310
01E0007FFF80007FFFFE0000000007FFFFE0000000007FF80FFFFFFFFFFFFFC0
310
7FFFFFF0001FFFFFF0001FFFFFFFFC0007F0001FFFFFFFFC0007FF0003FFFFFF
310
FFFFFF0000000003F000FFF80000000007FFF8001E000FC003E0007FFF80007F
310
FFF0000000000FFFFF8000000000FFF80FFFFFFFFFFFFFC07FFFFFF0001FFFFF
310
F0001FFFFFFFFC0007F0001FFFFFFFFC0007FF0003FFFFFFFFFFFC0000000007
310
F000FFE0000000000FFFF0003E000FC003E0007FFF80007FFFC0000000001FFF
310
FE0000000001FFF80FFFFFFFFFFFFFC07FFFFFF0001FFFFFF0001FFFFFFFFC00
310
07F0001FFFFFFFFC0007FF0003FFFFFFFFFFF0000000000FF000FFC000000000
310
1FFFF0003F000F8003F0003FFF80007FFF80000000003FFFF80000000003FFF8
310
0FFFFFFFFFFFFFC07FFFFFF0001FFFFFF0001FFFFFFFFC0007F0001FFFFFFFFC
310
0007FF0003FFFFFFFFFFE0000000001FF000FF00000000007FFFF0003F000780
310
03F0003FFF80007FFF00000000007FFFF00000000007FFF80FFFFFFFFFFFFFC0
310
7FFFFFF0001FFFFFF0001FFFFFFFFC0007F0001FFFFFFFFC0007FF0003FFFFFF
310
FFFF80000000007FF000FE0000000000FFFFE0003F00078007F0003FFF80007F
310
FE0000000001FFFFE0000000001FFFF80FFFFFFFFFFFFFC07FFFFFF0001FFFFF
310
F0001FFFFFFFFC0007F0001FFFFFFFFC0007FF0003FFFFFFFFFF0000000000FF
310
F000FC0000000003FFFFE0007F00078007F0003FFF80007FFC0000000007FFFF
310
C0000000007FFFF80FFFFFFFFFFFFFC07FFFFFF0001FFFFFF8001FFFFFFFFC00
310
0FF8001FFFFFFFFC000FFF0003FFFFFFFFFE0000000003FFF000FC000000000F
310
FFFFE0007F80070007F8001FFF80007FF8000000001FFFFF8000000001FFFFF8
310
0FFFFFFFFFFFFFC07FFFFFF0001FFFFFF8001FFFFFFFFC000FF8001FFFFFFFFC
310
000FFF0003FFFFFFFFFC000000000FFFF000F8000000007FFFFFE0007F800700
310
07F8001FFF80007FF000000000FFFFFF800000000FFFFFF80FFFFFFFFFFFFFC0
310
7FFFFFF0001FFFFFF8000FFFFFFFF8000FF8000FFFFFFFF8000FFF0003FFFFFF
310
FFFC000000007FFFF000F800000007FFFFFFC0007F8003000FF8001FFF80007F
310
F000000007FFFFFF000000007FFFFFF80FFFFFFFFFFFFFC07FFFFFF0001FFFFF
310
F8000FFFFFFFF8000FF8000FFFFFFFF8000FFF0003FFFFFFFFF80000000FFFFF
310
F000F0000000FFFFFFFFC000FF8003000FF8001FFF80007FE0000000FFFFFFFF
310
0000000FFFFFFFF8000001FFFE0000007FFFFFF0001FFFFFF8000FFFFFFFF800
310
0FF8000FFFFFFFF8000FFF0003FFFFFFFFF8000000FFFFFFF000F000000FFFFF
310
FFFFC000FFC002000FF8000FFF80007FE000001FFFFFFFFE000001FFFFFFFFF8
310
000001FFFE0000007FFFFFF0001FFFFFF8000FFFFFFFF8000FF8000FFFFFFFF8
310
000FFF0003FFFFFFFFF000001FFFFFFFF000E00000FFFFFFFFFFC000FFC00200
310
0FFC000FFF80007FE00001FFFFFFFFFE00001FFFFFFFFFF8000001FFFE000000
310
7FFFFFF0001FFFFFFC000FFFFFFFF8001FFC000FFFFFFFF8001FFF0003FFFFFF
310
FFF00001FFFFFFFFF000E00007FFFFFFFFFF8000FFC000001FFC000FFF80007F
310
C0000FFFFFFFFFFE0000FFFFFFFFFFF8000001FFFE0000007FFFFFF0001FFFFF
310
FC0007FFFFFFF0001FFC0007FFFFFFF0001FFF0003FFFFFFFFF00007FFFFFFFF
310
F000E0001FFFFFFFFFFF8000FFC000001FFC000FFF80007FC0003FFFFFFFFFFE
310
0001FFFFFFFFFFF8000001FFFE0000007FFFFFF0001FFFFFFC0007FFFFFFF000
310
1FFC0007FFFFFFF0001FFF0003FFFFFFFFF0001FFFFFFFFFF000E0003FFFFF00
310
03FF8001FFE000001FFC0007FF80007FC0007FFFFF0007FC0003FFFFF0003FF8
310
000001FFFE0000007FFFFFF0001FFFFFFC0003FFFFFFE0001FFC0003FFFFFFE0
310
001FFF0003FFFFFFFFF0003FFFFFFFFFF000E0003FFFFF0001FF8001FFE00000
310
1FFE0007FF80007FC0007FFFFE0003FC0007FFFFE0003FF8000001FFFE000000
310
7FFFFFF0001FFFFFFE0003FFFFFFE0003FFE0003FFFFFFE0003FFF0003FFFFFF
310
FFF0003FFFFF8001F000E0003FFFFF0001FF0001FFE000001FFE0007FF80007F
310
C0007FFFFE0003FC0007FFFFE0003FF8000001FFFE0000007FFFFFF0001FFFFF
310
FE0001FFFFFFC0003FFE0001FFFFFFC0003FFF0003FFFFFFFFF0003FFFFF0001
310
F000E0003FFFFF0003FF0001FFE000003FFE0007FF80007FC0007FFFFE0003FC
310
0007FFFFE0003FF8000001FFFE0000007FFFFFF0001FFFFFFF0001FFFFFFC000
310
7FFF0001FFFFFFC0007FFF0003FFFFFFFFF0003FFFFF0001F000E0003FFFFE00
310
03FF0003FFF000003FFE0003FF80007FC0007FFFFC0003FE0007FFFFE0003FF8
310
000001FFFE0000007FFFFFF0001FFFFFFF0000FFFFFF80007FFF0000FFFFFF80
310
007FFF0003FFFFFFFFF0003FFFFF0001F000E0003FFFFE0003FF0003FFF00000
310
3FFF0003FF80007FC0007FFFFC0007FE0007FFFFC0003FF8000001FFFE000000
310
7FFFFFF0001FFFFFFF80007FFFFF0000FFFF80007FFFFF0000FFFF0003FFFFFF
310
FFF0003FFFFF0003F000E0003FFFFC0003FE0003FFF000003FFF0003FF80007F
310
E0003FFFF80007FE0003FFFFC0007FF8000001FFFE0000007FFFFFF0001FFFFF
310
FF80003FFFFE0000FFFF80003FFFFE0000FFFF0003FFFFFFFFF0001FFFFE0003
310
F000F0001FFFF80003FE0003FFF000007FFF0001FF80007FE0003FFFF00007FE
310
0001FFFF80007FF8000001FFFE0000007FFFFFF0001FFFFFFFC0000FFFF80001
310
FFFFC0000FFFF80001FFFF0003FFFFFFFFF0001FFFFC0003F000F0000FFFF000
310
07FE0007FFF800007FFF0001FF80007FE0001FFFE00007FF0000FFFE00007FF8
310
000001FFFE0000007FFFFFF0001FFFFFFFC00003FFE00001FFFFC00003FFE000
310
01FFFF0003FFFFFFFFF8000FFFF80003F000F00003FFC00007FC0007FFF80000
310
7FFF8001FF80007FF00007FF80000FFF00007FF80000FFF8000001FFFE000000
310
7F80000000000001FFE000003E000003FFFFE000003E000003FFFF0003FFFFFF
310
FFF80003FFE00007F000F800000000000FFC0007FFF800007FFF8001FF80007F
310
F000000000000FFF000000000000FFF8000001FFFE0000007F80000000000001
310
FFF0000000000007FFFFF0000000000007FFFF0003FFFFFFFFFC00007E000007
310
F000F800000000000FFC0007FFF80000FFFF8000FF80007FF800000000001FFF
310
800000000001FFF8000001FFFE0000007F80000000000001FFF800000000000F
310
FFFFF800000000000FFFFF0003FFFFFFFFFC00000000000FF000FC0000000000
310
1FFC0007FFFC0000FFFF8000FF80007FF800000000003FFFC00000000001FFF8
310
000001FFFE0000007F80000000000001FFF800000000000FFFFFF80000000000
310
0FFFFF0003FFFFFFFFFE00000000001FF000FE00000000003FF8000FFFFC0000
310
FFFF8000FF80007FFC00000000003FFFC00000000003FFF8000001FFFE000000
310
7F80000000000001FFFC00000000001FFFFFFC00000000001FFFFF0003FFFFFF
310
FFFF00000000001FF000FF00000000003FF8000FFFFC0000FFFFC000FF80007F
310
FE00000000007FFFE00000000007FFF8000001FFFE0000007F80000000000001
310
FFFE00000000003FFFFFFE00000000003FFFFF0003FFFFFFFFFF80000000003F
310
F000FF80000000007FF8000FFFFC0001FFFFC0007F80007FFF0000000000FFFF
310
F0000000000FFFF800000000000000007F80000000000001FFFF8000000000FF
310
FFFFFF8000000000FFFFFF0003FFFFFFFFFFC0000000007FF000FFC000000000
310
FFF8000FFFFE0001FFFFC0007F80007FFF8000000001FFFFF8000000001FFFF8
310
00000000000000007F80000000000001FFFFC000000001FFFFFFFFC000000001
310
FFFFFF0003FFFFFFFFFFE000000000FFF000FFE000000003FFF0001FFFFE0001
310
FFFFC0007F80007FFFC000000007FFFFFE000000003FFFF80000000000000000
310
7F80000000000001FFFFE000000003FFFFFFFFE000000003FFFFFF0003FFFFFF
310
FFFFF000000003FFF000FFF80000000FFFF0001FFFFE0001FFFFE0007F80007F
310
FFF00000000FFFFFFF00000000FFFFF800000000000000007F80000000000001
310
FFFFF80000000FFFFFFFFFF80000000FFFFFFF0003FFFFFFFFFFFC0000000FFF
310
F000FFFE0000003FFFF0001FFFFE0003FFFFE0003F80007FFFFC0000003FFFFF
310
FFC0000003FFFFF800000000000000007F80000000000001FFFFFE0000003FFF
310
FFFFFFFE0000003FFFFFFF0003FFFFFFFFFFFF0000003FFFF000FFFF800000FF
310
FFF0001FFFFF0003FFFFE0003F80007FFFFF000001FFFFFFFFF800001FFFFFF8
310
00000000000000007F80000000000001FFFFFFC00001FFFFFFFFFFFFC00001FF
310
FFFFFF0003FFFFFFFFFFFFC00000FFFFF000FFFFF8000FFFFFFFFFFFFFFFFFFF
310
FFFFFFFFFFFFFFFFFFFFF0001FFFFFFFFFFF0000FFFFFFF80000000000000000
310
7FFFFFFFFFFFFFFFFFFFFFFC001FFFFFFFFFFFFFFC001FFFFFFFFFFFFFFFFFFF
310
FFFFFFFC001FFFFFF000FFFFFFFFFFFFFFFFFFFFFFFFFFFFFFFFFFFFFFFFFFFF
310
FFFFFFFFFFFFFFFFFFFFFFFFFFFFFFFFFFFFFFFFFFFFFFFFFFFFFFFFFFFFFFFF
310
FFFFFFFFFFFFFFFFFFFFFFFFFFFFFFFFFFFFFFFFFFFFFFFFFFFFFFFFFFFFFFFF
310
F000FFFFFFFFFFFFFFFFFFFFFFFFFFFFFFFFFFFFFFFFFFFFFFFFFFFFFFFFFFFF
310
FFFFFFFFFFFFFFFFFFFFFFFFFFFFFFFFFFFFFFFFFFFFFFFFFFFFFFFFFFFFFFFF
310
FFFFFFFFFFFFFFFFFFFFFFFFFFFFFFFFFFFFFFFFFFFFFFFFF000FFFFFFFFFFFF
310
FFFFFFFFFFFFFFFFFFFFFFFFFFFFFFFFFFFFFFFFFFFFFFFFFFFFFFFFFFFFFFFF
310
FFFFFFFFFFFFFFFFFFFFFFFFFFFFFFFFFFFFFFFFFFFFFFFFFFFFFFFFFFFFFFFF
310
FFFFFFFFFFFFFFFFFFFFFFFFFFFFFFFFF000FFFFFFFFFFFFFFFFFFFFFFFFFFFF
310
FFFFFFFFFFFFFFFFFFFFFFFFFFFFFFFFFFFFFFFFFFFFFFFFFFFFFFFFFFFFFFFF
310
FFFFFFFFFFFFFFFFFFFFFFFFFFFFFFFFFFFFFFFFFFFFFFFFFFFFFFFFFFFFFFFF
310
FFFFFFFFFFFFFFFFF000FFFFFFFFFFFFFFFFFFFFFFFFFFFFFFFFFFFFFFFFFFFF
310
FFFFFFFFFFFFFFFFFFFFFFFFFFFFFFFFFFFFFFFFFFFFFFFFFFFFFFFFFFFFFFFF
310
FFFFFFFFFFFFFFFFFFFFFFFFFFFFFFFFFFFFFFFFFFFFFFFFFFFFFFFFFFFFFFFF
310
F000FFFFFFFFFFFFFFFFFFFFFFFFFFFFFFFFFFFFFFFFFFFFFFFFFFFFFFFFFFFF
310
FFFFFFFFFFFFFFFFFFFFFFFFFFFFFFFFFFFFFFFFFFFFFFFFFFFFFFFFFFFFFFFF
310
FFFFFFFFFFFFFFFFFFFFFFFFFFFFFFFFFFFFFFFFFFFFFFFFF000FFFFFFFFFFFF
310
FFFFFFFFFFFFFFFFFFFFFFFFFFFFFFFFFFFFFFFFFFFFFFFFFFFFFFFFFFFFFFFF
310
FFFFFFFFFFFFFFFFFFFFFFFFFFFFFFFFFFFFFFFFFFFFFFFFFFFFFFFFFFFFFFFF
310
FFFFFFFFFFFFFFFFFFFFFFFFFFFFFFFFF000FFFFFFFFFFFFFFFFFFFFFFFFFFFF
310
FFFFFFFFFFFFFFFFFFFFFFFFFFFFFFFFFFFFFFFFFFFFFFFFFFFFFFFFFFFFFFFF
310
FFFFFFFFFFFFFFFFFFFFFFFFFFFFFFFFFFFFFFFFFFFFFFFFFFFFFFFFFFFFFFFF
310
FFFFFFFFFFFFFFFFF000FFFFFFFFFFFFFFFFFFFFFFFFFFFFFFFFFFFFFFFFFFFF
310
FFFFFFFFFFFFFFFFFFFFFFFFFFFFFFFFFFFFFFFFFFFFFFFFFFFFFFFFFFFFFFFF
310
FFFFFFFFFFFFFFFFFFFFFFFFFFFFFFFFFFFFFFFFFFFFFFFFFFFFFFFFFFFFFFFF
310
F000FFFFFFFFFFFFFFFFFFFFFFFFFFFFFFFFFFFFFFFFFFFFFFFFFFFFFFFFFFFF
310
FFFFFFFFFFFFFFFFFFFFFFFFFFFFFFFFFFFFFFFFFFFFFFFFFFFFFFFFFFFFFFFF
310
FFFFFFFFFFFFFFFFFFFFFFFFFFFFFFFFFFFFFFFFFFFFFFFFF000FFFFFFFFFFFF
310
FFFFFFFFFFFFFFFFFFFFFFFFFFFFFFFFFFFFFFFFFFFFFFFFFFFFFFFFFFFFFFFF
310
FFFFFFFFFFFFFFFFFFFFFFFFFFFFFFFFFFFFFFFFFFFFFFFFFFFFFFFFFFFFFFFF
310
FFFFFFFFFFFFFFFFFFFFFFFFFFFFFFFFF000FFFFFFFFFFFFFFFFFFFFFFFFFFFF
310
FFFFFFFFFFFFFFFFFFFFFFFFFFFFFFFFFFFFFFFFFFFFFFFFFFFFFFFFFFFFFFFF
310
FFFFFFFFFFFFFFFFFFFFFFFFFFFFFFFFFFFFFFFFFFFFFFFFFFFFFFFFFFFFFFFF
310
FFFFFFFFFFFFFFFFF000FFFFFFFFFFFFFFFFFFFFFFFFFFFFFFFFFFFFFFFFFFFF
310
FFFFFFFFFFFFFFFFFFFFFFFFFFFFFFFFFFFFFFFFFFFFFFFFFFFFFFFFFFFFFFFF
310
FFFFFFFFFFFFFFFFFFFFFFFFFFFFFFFFFFFFFFFFFFFFFFFFFFFFFFFFFFFFFFFF
310
F000FFFFFFFFFFFFFFFFFFFFFFFFFFFFFFFFFFFFFFFFFFFFFFFFFFFFFFFFFFFF
310
FFFFFFFFFFFFFFFFFFFFFFFFFFFFFFFFFFFFFFFFFFFFFFFFFFFFFFFFFFFFFFFF
310
FFFFFFFFFFFFFFFFFFFFFFFFFFFFFFFFFFFFFFFFFFFFFFFFF000FFFFFFFFFFFF
310
FFFFFFFFFFFFFFFFFFFFFFFFFFFFFFFFFFFFFFFFFFFFFFFFFFFFFFFFFFFFFFFF
310
FFFFFFFFFFFFFFFFFFFFFFFFFFFFFFFFFFFFFFFFFFFFFFFFFFFFFFFFFFFFFFFF
310
FFFFFFFFFFFFFFFFFFFFFFFFFFFFFFFFF000FFFFFFFFFFFFFFFFFFFFFFFFFFFF
310
FFFFFFFFFFFFFFFFFFFFFFFFFFFFFFFFFFFFFFFFFFFFFFFFFFFFFFFFFFFFFFFF
310
FFFFFFFFFFFFFFFFFFFFFFFFFFFFFFFFFFFFFFFFFFFFFFFFFFFFFFFFFFFFFFFF
310
FFFFFFFFFFFFFFFFF000FFFFFFFFFFFFFFFFFFFFFFFFFFFFFFFFFFFFFFFFFFFF
310
FFFFFFFFFFFFFFFFFFFFFFFFFFFFFFFFFFFFFFFFFFFFFFFFFFFFFFFFFFFFFFFF
310
FFFFFFFFFFFFFFFFFFFFFFFFFFFFFFFFFFFFFFFFFFFFFFFFFFFFFFFFFFFFFFFF
310
F000FFFFFFFFFFFFFFFFFFFFFFFFFFFFFFFFFFFFFFFFFFFFFFFFFFFFFFFFFFFF
310
FFFFFFFFFFFFFFFFFFFFFFFFFFFFFFFFFFFFFFFFFFFFFFFFFFFFFFFFFFFFFFFF
310
FFFFFFFFFFFFFFFFFFFFFFFFFFFFFFFFFFFFFFFFFFFFFFFFF000FFFFFFFFFFFF
310
FFFFFFFFFFFFFFFFFFFFFFFFFFFFFFFFFFFFFFFFFFFFFFFFFFFFFFFFFFFFFFFF
310
FFFFFFFFFFFFFFFFFFFFFFFFFFFFFFFFFFFFFFFFFFFFFFFFFFFFFFFFFFFFFFFF
310
FFFFFFFFFFFFFFFFFFFFFFFFFFFFFFFFF000FFFFFFFFFFFFFFFFFFFFFFFFFFFF
310
FFFFFFFFFFFFFFFFFFFFFFFFFFFFFFFFFFFFFFFFFFFFFFFFFFFFFFFFFFFFFFFF
310
FFFFFFFFFFFFFFFFFFFFFFFFFFFFFFFFFFFFFFFFFFFFFFFFFFFFFFFFFFFFFFFF
310
FFFFFFFFFFFFFFFFF000FFFFFFFFFFFFFFFFFFFFFFFFFFFFFFFFFFFFFFFFFFFF
310
FFFFFFFFFFFFFFFFFFFFFFFFFFFFFFFFFFFFFFFFFFFFFFFFFFFFFFFFFFFFFFFF
310
FFFFFFFFFFFFFFFFFFFFFFFFFFFFFFFFFFFFFFFFFFFFFFFFFFFFFFFFFFFFFFFF
310
F000FFFFFFFFFFFFFFFFFFFFFFFFFFFFFFFFFFFFFFFFFFFFFFFFFFFFFFFFFFFF
310
FFFFFFFFFFFFFFFFFFFFFFFFFFFFFFFFFFFFFFFFFFFFFFFFFFFFFFFFFFFFFFFF
310
FFFFFFFFFFFFFFFFFFFFFFFFFFFFFFFFFFFFFFFFFFFFFFFFF000FFFFFFFFFFFF
310
FFFFFFFFFFFFFFFFFFFFFFFFFFFFFFFFFFFFFFFFFFFFFFFFFFFFFFFFFFFFFFFF
310
FFFFFFFFFFFFFFFFFFFFFFFFFFFFFFFFFFFFFFFFFFFFFFFFFFFFFFFFFFFFFFFF
310
FFFFFFFFFFFFFFFFFFFFFFFFFFFFFFFFF0000000000000000000000000000000
310
0000000000000000000000000000000000000000000000000000000000000000
310
0000000000000000000000000000000000000000000000000000000000000000
310
0000000000000000000000000000000000000000000000000000000000000000
310
0000000000000000000000000000000000000000000000000000000000000000
310
0000000000000000000000000000000000000000000000000000000000000000
310
0000000000000000000000000000000000000000000000000000000000000000
310
0000000000000000000000000000000000000000000000000000000000000000
310
0000000000000000000000000000000000000000000000000000000000000000
310
0000000000000000000000000000000000000000000000000000000000000000
310
0000000000000000000000000000000000000000000000000000000000000000
310
0000000000000000000000000000000000000000000000000000000000000000
310
0000000000000000000000000000000000000000000000000000000000000000
310
0000000000000000000000000000000000000000000000000000000000000000
310
0000000000000000000000000000000000000000000000000000000000000000
310
0000000000000000000000000000000000000000000000000000000000000000
  1
OLE
  0
ENDSEC
  0
SECTION
  2
OBJECTS
  0
DICTIONARY
  5
C
330
0
100
AcDbDictionary
281
     1
  3
ACAD_GROUP
350
D
  3
ACAD_LAYOUT
350
1A
  3
ACAD_MLINESTYLE
350
17
  3
ACAD_PLOTSETTINGS
350
19
  3
ACAD_PLOTSTYLENAME
350
E
  3
ACAD_SCALELIST
350
47
  0
DICTIONARY
  5
D
102
{ACAD_REACTORS
330
C
102
}
330
C
100
AcDbDictionary
281
     1
  0
DICTIONARY
  5
1A
102
{ACAD_REACTORS
330
C
102
}
330
C
100
AcDbDictionary
281
     1
  3
Layout1
350
1E
  3
Layout2
350
26
  3
Model
350
22
  0
DICTIONARY
  5
17
102
{ACAD_REACTORS
330
C
102
}
330
C
100
AcDbDictionary
281
     1
  3
Standard
350
18
  0
DICTIONARY
  5
19
102
{ACAD_REACTORS
330
C
102
}
330
C
100
AcDbDictionary
281
     1
  0
ACDBDICTIONARYWDFLT
  5
E
102
{ACAD_REACTORS
330
C
102
}
330
C
100
AcDbDictionary
281
     1
  3
Normal
350
F
100
AcDbDictionaryWithDefault
340
F
  0
DICTIONARY
  5
47
102
{ACAD_REACTORS
330
C
102
}
330
C
100
AcDbDictionary
281
     1
  3
A0
350
48
  3
A1
350
49
  3
A2
350
4A
  3
A3
350
4B
  3
A4
350
4C
  3
A5
350
4D
  3
A6
350
4E
  3
A7
350
4F
  3
A8
350
50
  3
A9
350
51
  3
B0
350
52
  3
B1
350
53
  3
B2
350
54
  3
B3
350
55
  3
B4
350
56
  3
B5
350
57
  3
B6
350
58
  3
B7
350
59
  3
B8
350
5A
  3
B9
350
5B
  3
C0
350
5C
  3
C1
350
5D
  3
C2
350
5E
  3
C3
350
5F
  3
C4
350
60
  3
C5
350
61
  3
C6
350
62
  3
C7
350
63
  3
C8
350
64
  3
C9
350
65
  3
D0
350
66
  3
D1
350
67
  3
D2
350
68
  0
LAYOUT
  5
1E
102
{ACAD_REACTORS
330
1A
102
}
330
1A
100
AcDbPlotSettings
  1

  2
none_device
  4

  6

 40
0.0
 41
0.0
 42
0.0
 43
0.0
 44
0.0
 45
0.0
 46
0.0
 47
0.0
 48
0.0
 49
0.0
140
0.0
141
0.0
142
1.0
143
1.0
 70
   688
 72
     1
 73
     0
 74
     5
  7

 75
    16
147
1.0
148
0.0
149
0.0
100
AcDbLayout
  1
Layout1
 70
     1
 71
     1
 10
0.0
 20
0.0
 11
420.0
 21
297.0
 12
0.0
 22
0.0
 32
0.0
 14
1.0000000000E+20
 24
1.0000000000E+20
 34
1.0000000000E+20
 15
-1.0000000000E+20
 25
-1.0000000000E+20
 35
-1.0000000000E+20
146
0.0
 13
0.0
 23
0.0
 33
0.0
 16
1.0
 26
0.0
 36
0.0
 17
0.0
 27
1.0
 37
0.0
 76
     0
330
1B
  0
LAYOUT
  5
26
102
{ACAD_REACTORS
330
1A
102
}
330
1A
100
AcDbPlotSettings
  1

  2
none_device
  4

  6

 40
0.0
 41
0.0
 42
0.0
 43
0.0
 44
0.0
 45
0.0
 46
0.0
 47
0.0
 48
0.0
 49
0.0
140
0.0
141
0.0
142
1.0
143
1.0
 70
   688
 72
     1
 73
     0
 74
     5
  7

 75
    16
147
1.0
148
0.0
149
0.0
100
AcDbLayout
  1
Layout2
 70
     1
 71
     2
 10
0.0
 20
0.0
 11
0.0
 21
0.0
 12
0.0
 22
0.0
 32
0.0
 14
0.0
 24
0.0
 34
0.0
 15
0.0
 25
0.0
 35
0.0
146
0.0
 13
0.0
 23
0.0
 33
0.0
 16
1.0
 26
0.0
 36
0.0
 17
0.0
 27
1.0
 37
0.0
 76
     0
330
23
  0
LAYOUT
  5
22
102
{ACAD_REACTORS
330
1A
102
}
330
1A
100
AcDbPlotSettings
  1

  2
none_device
  4
Letter_(8.50_x_11.00_Inches)
  6

 40
6.35
 41
6.35
 42
6.35000508
 43
6.35000508
 44
215.9
 45
279.4
 46
0.0
 47
0.0
 48
0.0
 49
0.0
140
0.0
141
0.0
142
1.0
143
1.0
 70
  1712
 72
     1
 73
     0
 74
     0
  7

 75
     0
147
1.0
148
0.0
149
0.0
100
AcDbLayout
  1
Model
 70
     1
 71
     0
 10
0.0
 20
0.0
 11
297.0
 21
210.0
 12
0.0
 22
0.0
 32
0.0
 14
0.0
 24
0.0
 34
0.0
 15
297.0
 25
210.0
 35
0.0
146
0.0
 13
0.0
 23
0.0
 33
0.0
 16
1.0
 26
0.0
 36
0.0
 17
0.0
 27
1.0
 37
0.0
 76
     0
330
1F
331
29
  0
MLINESTYLE
  5
18
102
{ACAD_REACTORS
330
17
102
}
330
17
100
AcDbMlineStyle
  2
Standard
 70
     0
  3

 62
   256
 51
90.0
 52
90.0
 71
     2
 49
0.5
 62
   256
  6
BYLAYER
 49
-0.5
 62
   256
  6
BYLAYER
  0
ACDBPLACEHOLDER
  5
F
102
{ACAD_REACTORS
330
E
102
}
330
E
  0
SCALE
  5
48
102
{ACAD_REACTORS
330
47
102
}
330
47
100
AcDbScale
 70
     0
300
1:1
140
1.0
141
1.0
290
     1
  0
SCALE
  5
49
102
{ACAD_REACTORS
330
47
102
}
330
47
100
AcDbScale
 70
     0
300
1:2
140
1.0
141
2.0
290
     0
  0
SCALE
  5
4A
102
{ACAD_REACTORS
330
47
102
}
330
47
100
AcDbScale
 70
     0
300
1:4
140
1.0
141
4.0
290
     0
  0
SCALE
  5
4B
102
{ACAD_REACTORS
330
47
102
}
330
47
100
AcDbScale
 70
     0
300
1:5
140
1.0
141
5.0
290
     0
  0
SCALE
  5
4C
102
{ACAD_REACTORS
330
47
102
}
330
47
100
AcDbScale
 70
     0
300
1:8
140
1.0
141
8.0
290
     0
  0
SCALE
  5
4D
102
{ACAD_REACTORS
330
47
102
}
330
47
100
AcDbScale
 70
     0
300
1:10
140
1.0
141
10.0
290
     0
  0
SCALE
  5
4E
102
{ACAD_REACTORS
330
47
102
}
330
47
100
AcDbScale
 70
     0
300
1:16
140
1.0
141
16.0
290
     0
  0
SCALE
  5
4F
102
{ACAD_REACTORS
330
47
102
}
330
47
100
AcDbScale
 70
     0
300
1:20
140
1.0
141
20.0
290
     0
  0
SCALE
  5
50
102
{ACAD_REACTORS
330
47
102
}
330
47
100
AcDbScale
 70
     0
300
1:30
140
1.0
141
30.0
290
     0
  0
SCALE
  5
51
102
{ACAD_REACTORS
330
47
102
}
330
47
100
AcDbScale
 70
     0
300
1:40
140
1.0
141
40.0
290
     0
  0
SCALE
  5
52
102
{ACAD_REACTORS
330
47
102
}
330
47
100
AcDbScale
 70
     0
300
1:50
140
1.0
141
50.0
290
     0
  0
SCALE
  5
53
102
{ACAD_REACTORS
330
47
102
}
330
47
100
AcDbScale
 70
     0
300
1:100
140
1.0
141
100.0
290
     0
  0
SCALE
  5
54
102
{ACAD_REACTORS
330
47
102
}
330
47
100
AcDbScale
 70
     0
300
2:1
140
2.0
141
1.0
290
     0
  0
SCALE
  5
55
102
{ACAD_REACTORS
330
47
102
}
330
47
100
AcDbScale
 70
     0
300
4:1
140
4.0
141
1.0
290
     0
  0
SCALE
  5
56
102
{ACAD_REACTORS
330
47
102
}
330
47
100
AcDbScale
 70
     0
300
8:1
140
8.0
141
1.0
290
     0
  0
SCALE
  5
57
102
{ACAD_REACTORS
330
47
102
}
330
47
100
AcDbScale
 70
     0
300
10:1
140
10.0
141
1.0
290
     0
  0
SCALE
  5
58
102
{ACAD_REACTORS
330
47
102
}
330
47
100
AcDbScale
 70
     0
300
100:1
140
100.0
141
1.0
290
     0
  0
SCALE
  5
59
102
{ACAD_REACTORS
330
47
102
}
330
47
100
AcDbScale
 70
     0
300
1/128" = 1'-0"
140
0.0078125
141
12.0
290
     0
  0
SCALE
  5
5A
102
{ACAD_REACTORS
330
47
102
}
330
47
100
AcDbScale
 70
     0
300
1/64" = 1'-0"
140
0.015625
141
12.0
290
     0
  0
SCALE
  5
5B
102
{ACAD_REACTORS
330
47
102
}
330
47
100
AcDbScale
 70
     0
300
1/32" = 1'-0"
140
0.03125
141
12.0
290
     0
  0
SCALE
  5
5C
102
{ACAD_REACTORS
330
47
102
}
330
47
100
AcDbScale
 70
     0
300
1/16" = 1'-0"
140
0.0625
141
12.0
290
     0
  0
SCALE
  5
5D
102
{ACAD_REACTORS
330
47
102
}
330
47
100
AcDbScale
 70
     0
300
3/32" = 1'-0"
140
0.09375
141
12.0
290
     0
  0
SCALE
  5
5E
102
{ACAD_REACTORS
330
47
102
}
330
47
100
AcDbScale
 70
     0
300
1/8" = 1'-0"
140
0.125
141
12.0
290
     0
  0
SCALE
  5
5F
102
{ACAD_REACTORS
330
47
102
}
330
47
100
AcDbScale
 70
     0
300
3/16" = 1'-0"
140
0.1875
141
12.0
290
     0
  0
SCALE
  5
60
102
{ACAD_REACTORS
330
47
102
}
330
47
100
AcDbScale
 70
     0
300
1/4" = 1'-0"
140
0.25
141
12.0
290
     0
  0
SCALE
  5
61
102
{ACAD_REACTORS
330
47
102
}
330
47
100
AcDbScale
 70
     0
300
3/8" = 1'-0"
140
0.375
141
12.0
290
     0
  0
SCALE
  5
62
102
{ACAD_REACTORS
330
47
102
}
330
47
100
AcDbScale
 70
     0
300
1/2" = 1'-0"
140
0.5
141
12.0
290
     0
  0
SCALE
  5
63
102
{ACAD_REACTORS
330
47
102
}
330
47
100
AcDbScale
 70
     0
300
3/4" = 1'-0"
140
0.75
141
12.0
290
     0
  0
SCALE
  5
64
102
{ACAD_REACTORS
330
47
102
}
330
47
100
AcDbScale
 70
     0
300
1" = 1'-0"
140
1.0
141
12.0
290
     0
  0
SCALE
  5
65
102
{ACAD_REACTORS
330
47
102
}
330
47
100
AcDbScale
 70
     0
300
1-1/2" = 1'-0"
140
1.5
141
12.0
290
     0
  0
SCALE
  5
66
102
{ACAD_REACTORS
330
47
102
}
330
47
100
AcDbScale
 70
     0
300
3" = 1'-0"
140
3.0
141
12.0
290
     0
  0
SCALE
  5
67
102
{ACAD_REACTORS
330
47
102
}
330
47
100
AcDbScale
 70
     0
300
6" = 1'-0"
140
6.0
141
12.0
290
     0
  0
SCALE
  5
68
102
{ACAD_REACTORS
330
47
102
}
330
47
100
AcDbScale
 70
     0
300
1'-0" = 1'-0"
140
12.0
141
12.0
290
     0
  0
ENDSEC
  0
EOF
