  0
SECTION
  2
HEADER
  9
$ACADVER
  1
AC1015
  9
$ACADMAINTVER
 70
     6
  9
$DWGCODEPAGE
  3
ANSI_1252
  9
$INSBASE
 10
0.0
 20
0.0
 30
0.0
  9
$EXTMIN
 10
0.0
 20
0.0
 30
0.0
  9
$EXTMAX
 10
297.0
 20
210.0
 30
0.0
  9
$LIMMIN
 10
0.0
 20
0.0
  9
$LIMMAX
 10
297.0
 20
210.0
  9
$ORTHOMODE
 70
     0
  9
$REGENMODE
 70
     1
  9
$FILLMODE
 70
     1
  9
$QTEXTMODE
 70
     0
  9
$MIRRTEXT
 70
     1
  9
$LTSCALE
 40
1.0
  9
$ATTMODE
 70
     1
  9
$TEXTSIZE
 40
2.0
  9
$TRACEWID
 40
1.0
  9
$TEXTSTYLE
  7
Standard
  9
$CLAYER
  8
0
  9
$CELTYPE
  6
ByLayer
  9
$CECOLOR
 62
   256
  9
$CELTSCALE
 40
1.0
  9
$DISPSILH
 70
     0
  9
$DIMSCALE
 40
1.0
  9
$DIMASZ
 40
3.0
  9
$DIMEXO
 40
0.0
  9
$DIMDLI
 40
3.75
  9
$DIMRND
 40
0.0
  9
$DIMDLE
 40
0.0
  9
$DIMEXE
 40
1.0
  9
$DIMTP
 40
0.0
  9
$DIMTM
 40
0.0
  9
$DIMTXT
 40
2.0
  9
$DIMCEN
 40
2.5
  9
$DIMTSZ
 40
0.0
  9
$DIMTOL
 70
     0
  9
$DIMLIM
 70
     0
  9
$DIMTIH
 70
     1
  9
$DIMTOH
 70
     1
  9
$DIMSE1
 70
     0
  9
$DIMSE2
 70
     0
  9
$DIMTAD
 70
     1
  9
$DIMZIN
 70
     0
  9
$DIMBLK
  1

  9
$DIMASO
 70
     1
  9
$DIMSHO
 70
     1
  9
$DIMPOST
  1

  9
$DIMAPOST
  1

  9
$DIMALT
 70
     0
  9
$DIMALTD
 70
     3
  9
$DIMALTF
 40
0.0393700787
  9
$DIMLFAC
 40
1.0
  9
$DIMTOFL
 70
     1
  9
$DIMTVP
 40
0.0
  9
$DIMTIX
 70
     0
  9
$DIMSOXD
 70
     0
  9
$DIMSAH
 70
     0
  9
$DIMBLK1
  1

  9
$DIMBLK2
  1

  9
$DIMSTYLE
  2
ISO-25
  9
$DIMCLRD
 70
     0
  9
$DIMCLRE
 70
     0
  9
$DIMCLRT
 70
     0
  9
$DIMTFAC
 40
1.0
  9
$DIMGAP
 40
1.524
  9
$DIMJUST
 70
     0
  9
$DIMSD1
 70
     0
  9
$DIMSD2
 70
     0
  9
$DIMTOLJ
 70
     0
  9
$DIMTZIN
 70
     0
  9
$DIMALTZ
 70
     0
  9
$DIMALTTZ
 70
     0
  9
$DIMUPT
 70
     0
  9
$DIMDEC
 70
     2
  9
$DIMTDEC
 70
     3
  9
$DIMALTU
 70
     2
  9
$DIMALTTD
 70
     3
  9
$DIMTXSTY
  7
Standard
  9
$DIMAUNIT
 70
     0
  9
$DIMADEC
 70
     2
  9
$DIMALTRND
 40
0.0
  9
$DIMAZIN
 70
     0
  9
$DIMDSEP
 70
    44
  9
$DIMATFIT
 70
     3
  9
$DIMFRAC
 70
     0
  9
$DIMLDRBLK
  1

  9
$DIMLUNIT
 70
     2
  9
$DIMLWD
 70
    -2
  9
$DIMLWE
 70
    -2
  9
$DIMTMOVE
 70
     0
  9
$LUNITS
 70
     2
  9
$LUPREC
 70
     2
  9
$SKETCHINC
 40
1.0
  9
$FILLETRAD
 40
10.0
  9
$AUNITS
 70
     0
  9
$AUPREC
 70
     2
  9
$MENU
  1
.
  9
$ELEVATION
 40
0.0
  9
$PELEVATION
 40
0.0
  9
$THICKNESS
 40
0.0
  9
$LIMCHECK
 70
     0
  9
$CHAMFERA
 40
0.0
  9
$CHAMFERB
 40
0.0
  9
$CHAMFERC
 40
0.0
  9
$CHAMFERD
 40
0.0
  9
$SKPOLY
 70
     0
  9
$TDCREATE
 40
2457669.407754607
  9
$TDUCREATE
 40
2457669.324421273
  9
$TDUPDATE
 40
2457669.40775669
  9
$TDUUPDATE
 40
2457669.324423356
  9
$TDINDWG
 40
0.0000000116
  9
$TDUSRTIMER
 40
0.0000000116
  9
$USRTIMER
 70
     1
  9
$ANGBASE
 50
0.0
  9
$ANGDIR
 70
     0
  9
$PDMODE
 70
     0
  9
$PDSIZE
 40
-1.0
  9
$PLINEWID
 40
0.0
  9
$SPLFRAME
 70
     0
  9
$SPLINETYPE
 70
     6
  9
$SPLINESEGS
 70
     8
  9
$HANDSEED
  5
2D6
  9
$SURFTAB1
 70
     6
  9
$SURFTAB2
 70
     6
  9
$SURFTYPE
 70
     6
  9
$SURFU
 70
     6
  9
$SURFV
 70
     6
  9
$UCSBASE
  2

  9
$UCSNAME
  2

  9
$UCSORG
 10
0.0
 20
0.0
 30
0.0
  9
$UCSXDIR
 10
1.0
 20
0.0
 30
0.0
  9
$UCSYDIR
 10
0.0
 20
1.0
 30
0.0
  9
$UCSORTHOREF
  2

  9
$UCSORTHOVIEW
 70
     0
  9
$UCSORGTOP
 10
0.0
 20
0.0
 30
0.0
  9
$UCSORGBOTTOM
 10
0.0
 20
0.0
 30
0.0
  9
$UCSORGLEFT
 10
0.0
 20
0.0
 30
0.0
  9
$UCSORGRIGHT
 10
0.0
 20
0.0
 30
0.0
  9
$UCSORGFRONT
 10
0.0
 20
0.0
 30
0.0
  9
$UCSORGBACK
 10
0.0
 20
0.0
 30
0.0
  9
$PUCSBASE
  2

  9
$PUCSNAME
  2

  9
$PUCSORG
 10
0.0
 20
0.0
 30
0.0
  9
$PUCSXDIR
 10
1.0
 20
0.0
 30
0.0
  9
$PUCSYDIR
 10
0.0
 20
1.0
 30
0.0
  9
$PUCSORTHOREF
  2

  9
$PUCSORTHOVIEW
 70
     0
  9
$PUCSORGTOP
 10
0.0
 20
0.0
 30
0.0
  9
$PUCSORGBOTTOM
 10
0.0
 20
0.0
 30
0.0
  9
$PUCSORGLEFT
 10
0.0
 20
0.0
 30
0.0
  9
$PUCSORGRIGHT
 10
0.0
 20
0.0
 30
0.0
  9
$PUCSORGFRONT
 10
0.0
 20
0.0
 30
0.0
  9
$PUCSORGBACK
 10
0.0
 20
0.0
 30
0.0
  9
$USERI1
 70
     0
  9
$USERI2
 70
     0
  9
$USERI3
 70
     0
  9
$USERI4
 70
     0
  9
$USERI5
 70
     0
  9
$USERR1
 40
0.0
  9
$USERR2
 40
0.0
  9
$USERR3
 40
0.0
  9
$USERR4
 40
0.0
  9
$USERR5
 40
0.0
  9
$WORLDVIEW
 70
     1
  9
$SHADEDGE
 70
     3
  9
$SHADEDIF
 70
    70
  9
$TILEMODE
 70
     1
  9
$MAXACTVP
 70
    64
  9
$PINSBASE
 10
0.0
 20
0.0
 30
0.0
  9
$PLIMCHECK
 70
     0
  9
$PEXTMIN
 10
1.0000000000E+20
 20
1.0000000000E+20
 30
1.0000000000E+20
  9
$PEXTMAX
 10
-1.0000000000E+20
 20
-1.0000000000E+20
 30
-1.0000000000E+20
  9
$PLIMMIN
 10
0.0
 20
0.0
  9
$PLIMMAX
 10
420.0
 20
297.0
  9
$UNITMODE
 70
     0
  9
$VISRETAIN
 70
     1
  9
$PLINEGEN
 70
     0
  9
$PSLTSCALE
 70
     1
  9
$TREEDEPTH
 70
  3020
  9
$CMLSTYLE
  2
Standard
  9
$CMLJUST
 70
     0
  9
$CMLSCALE
 40
20.0
  9
$PROXYGRAPHICS
 70
     1
  9
$MEASUREMENT
 70
     1
  9
$CELWEIGHT
370
    -1
  9
$ENDCAPS
280
     0
  9
$JOINSTYLE
280
     0
  9
$LWDISPLAY
290
     1
  9
$INSUNITS
 70
     4
  9
$HYPERLINKBASE
  1

  9
$STYLESHEET
  1

  9
$XEDIT
290
     1
  9
$CEPSNTYPE
380
     0
  9
$PSTYLEMODE
290
     1
  9
$FINGERPRINTGUID
  2
{0F888184-DC3D-47E7-9B86-75AF44585AA9}
  9
$VERSIONGUID
  2
{FAEB1C32-E019-11D5-929B-00C0DF256EC4}
  9
$EXTNAMES
290
     1
  9
$PSVPSCALE
 40
0.0
  9
$OLESTARTUP
290
     0
  0
ENDSEC
  0
SECTION
  2
CLASSES
  0
CLASS
  1
ACDBDICTIONARYWDFLT
  2
AcDbDictionaryWithDefault
  3
ObjectDBX Classes
 90
        0
280
     0
281
     0
  0
CLASS
  1
VISUALSTYLE
  2
AcDbVisualStyle
  3
ObjectDBX Classes
 90
     4095
280
     0
281
     0
  0
CLASS
  1
MATERIAL
  2
AcDbMaterial
  3
ObjectDBX Classes
 90
     1153
280
     0
281
     0
  0
CLASS
  1
SCALE
  2
AcDbScale
  3
ObjectDBX Classes
 90
     1153
280
     0
281
     0
  0
CLASS
  1
TABLESTYLE
  2
AcDbTableStyle
  3
ObjectDBX Classes
 90
     4095
280
     0
281
     0
  0
CLASS
  1
MLEADERSTYLE
  2
AcDbMLeaderStyle
  3
ACDB_MLEADERSTYLE_CLASS
 90
     4095
280
     0
281
     0
  0
CLASS
  1
SUN
  2
AcDbSun
  3
SCENEOE
 90
     1153
280
     0
281
     0
  0
CLASS
  1
ACDBPLACEHOLDER
  2
AcDbPlaceHolder
  3
ObjectDBX Classes
 90
        0
280
     0
281
     0
  0
CLASS
  1
LAYOUT
  2
AcDbLayout
  3
ObjectDBX Classes
 90
        0
280
     0
281
     0
  0
ENDSEC
  0
SECTION
  2
TABLES
  0
TABLE
  2
VPORT
  5
8
330
0
100
AcDbSymbolTable
 70
     1
  0
VPORT
  5
29
330
8
100
AcDbSymbolTableRecord
100
AcDbViewportTableRecord
  2
*Active
 70
     0
 10
0.0
 20
0.0
 11
1.0
 21
1.0
 12
148.5
 22
105.0
 13
0.0
 23
0.0
 14
10.0
 24
10.0
 15
10.0
 25
10.0
 16
0.0
 26
0.0
 36
1.0
 17
0.0
 27
0.0
 37
0.0
 40
210.0
 41
1.4142857143
 42
50.0
 43
0.0
 44
0.0
 50
0.0
 51
0.0
 71
     0
 72
  2000
 73
     1
 74
     3
 75
     0
 76
     0
 77
     0
 78
     0
281
     0
 65
     1
110
0.0
120
0.0
130
0.0
111
1.0
121
0.0
131
0.0
112
0.0
122
1.0
132
0.0
 79
     0
146
0.0
  0
ENDTAB
  0
TABLE
  2
LTYPE
  5
5
330
0
100
AcDbSymbolTable
 70
     6
  0
LTYPE
  5
14
330
5
100
AcDbSymbolTableRecord
100
AcDbLinetypeTableRecord
  2
ByBlock
 70
     0
  3

 72
    65
 73
     0
 40
0.0
  0
LTYPE
  5
15
330
5
100
AcDbSymbolTableRecord
100
AcDbLinetypeTableRecord
  2
ByLayer
 70
     0
  3

 72
    65
 73
     0
 40
0.0
  0
LTYPE
  5
16
330
5
100
AcDbSymbolTableRecord
100
AcDbLinetypeTableRecord
  2
Continuous
 70
     0
  3
Solid line
 72
    65
 73
     0
 40
0.0
  0
LTYPE
  5
6E
330
5
100
AcDbSymbolTableRecord
100
AcDbLinetypeTableRecord
  2
HIDDEN
 70
     0
  3
Hidden __ __ __ __ __ __ __ __ __ __ __ __ __ __
 72
    65
 73
     2
 40
1.905
 49
1.27
 74
     0
 49
-0.635
 74
     0
  0
LTYPE
  5
6F
330
5
100
AcDbSymbolTableRecord
100
AcDbLinetypeTableRecord
  2
PHANTOM
 70
     0
  3
Phantom ______  __  __  ______  __  __  ______
 72
    65
 73
     6
 40
12.7
 49
6.35
 74
     0
 49
-1.27
 74
     0
 49
1.27
 74
     0
 49
-1.27
 74
     0
 49
1.27
 74
     0
 49
-1.27
 74
     0
  0
LTYPE
  5
70
330
5
100
AcDbSymbolTableRecord
100
AcDbLinetypeTableRecord
  2
CENTER
 70
     0
  3
Center ____ _ ____ _ ____ _ ____ _ ____ _ ____
 72
    65
 73
     4
 40
10.16
 49
6.35
 74
     0
 49
-1.27
 74
     0
 49
1.27
 74
     0
 49
-1.27
 74
     0
  0
LTYPE
  5
71
330
5
100
AcDbSymbolTableRecord
100
AcDbLinetypeTableRecord
  2
CENTERX2
 70
     0
  3
Center (2x) ________  __  ________  __  _____
 72
    65
 73
     4
 40
20.32
 49
12.7
 74
     0
 49
-2.54
 74
     0
 49
2.54
 74
     0
 49
-2.54
 74
     0
  0
LTYPE
  5
72
330
5
100
AcDbSymbolTableRecord
100
AcDbLinetypeTableRecord
  2
DOT2
 70
     0
  3
Dot (.5x) ........................................
 72
    65
 73
     2
 40
0.635
 49
0.0
 74
     0
 49
-0.635
 74
     0
  0
ENDTAB
  0
TABLE
  2
LAYER
  5
2
330
0
100
AcDbSymbolTable
 70
     5
  0
LAYER
  5
10
330
2
100
AcDbSymbolTableRecord
100
AcDbLayerTableRecord
  2
0
 70
     0
 62
     7
  6
Continuous
370
    -3
390
F
  0
LAYER
  5
73
330
2
100
AcDbSymbolTableRecord
100
AcDbLayerTableRecord
  2
FORMAT
 70
     0
 62
     7
  6
Continuous
370
    -3
390
F
  0
LAYER
  5
74
330
2
100
AcDbSymbolTableRecord
100
AcDbLayerTableRecord
  2
VERMASSUNG
 70
     0
 62
     7
  6
Continuous
370
    -3
390
F
  0
LAYER
  5
75
330
2
100
AcDbSymbolTableRecord
100
AcDbLayerTableRecord
  2
KOPF_DÜNN
 70
     0
 62
     7
  6
Continuous
370
    -3
390
F
  0
LAYER
  5
76
330
2
100
AcDbSymbolTableRecord
100
AcDbLayerTableRecord
  2
KOPF_DICK
 70
     0
 62
     7
  6
Continuous
370
    15
390
F
  0
ENDTAB
  0
TABLE
  2
STYLE
  5
3
330
0
100
AcDbSymbolTable
 70
     2
  0
STYLE
  5
11
330
3
100
AcDbSymbolTableRecord
100
AcDbTextStyleTableRecord
  2
Standard
 70
     0
 40
0.0
 41
1.0
 50
0.0
 71
     0
 42
2.0
  3
txt
  4

  0
STYLE
  5
77
330
3
100
AcDbSymbolTableRecord
100
AcDbTextStyleTableRecord
  2
SLDTEXTSTYLE0
 70
     0
 40
0.0
 41
0.7
 50
0.0
 71
     0
 42
2.0
  3
TXT
  4

  0
ENDTAB
  0
TABLE
  2
VIEW
  5
6
330
0
100
AcDbSymbolTable
 70
     0
  0
ENDTAB
  0
TABLE
  2
UCS
  5
7
330
0
100
AcDbSymbolTable
 70
     0
  0
ENDTAB
  0
TABLE
  2
APPID
  5
9
330
0
100
AcDbSymbolTable
 70
     1
  0
APPID
  5
12
330
9
100
AcDbSymbolTableRecord
100
AcDbRegAppTableRecord
  2
ACAD
 70
     0
  0
ENDTAB
  0
TABLE
  2
DIMSTYLE
  5
A
330
0
100
AcDbSymbolTable
 70
     2
100
AcDbDimStyleTable
  0
DIMSTYLE
105
27
330
A
100
AcDbSymbolTableRecord
100
AcDbDimStyleTableRecord
  2
ISO-25
 70
     0
 41
2.5
 42
0.625
 43
3.75
 44
1.25
 73
     0
 74
     0
 77
     1
 78
     8
140
2.5
141
2.5
143
0.0393700787
147
0.625
171
     3
172
     1
178
     0
271
     2
272
     2
274
     3
278
    44
283
     0
284
     8
340
11
  0
DIMSTYLE
105
1D3
102
{ACAD_REACTORS
330
1D2
330
1DF
330
1EB
330
1F6
330
202
330
20C
102
}
330
A
100
AcDbSymbolTableRecord
100
AcDbDimStyleTableRecord
  2
SLDDIMSTYLE0
 70
     0
 41
3.0
 44
0.0
 45
0.000000001
 73
     0
 74
     0
 77
     1
 78
    12
 79
     3
140
2.0
147
0.5
173
     1
178
     0
271
     2
272
     3
276
     2
284
    12
340
77
  0
ENDTAB
  0
TABLE
  2
BLOCK_RECORD
  5
1
330
0
100
AcDbSymbolTable
 70
     7
  0
BLOCK_RECORD
  5
1F
330
1
100
AcDbSymbolTableRecord
100
AcDbBlockTableRecord
  2
*Model_Space
340
22
  0
BLOCK_RECORD
  5
1B
330
1
100
AcDbSymbolTableRecord
100
AcDbBlockTableRecord
  2
*Paper_Space
340
1E
  0
BLOCK_RECORD
  5
23
330
1
100
AcDbSymbolTableRecord
100
AcDbBlockTableRecord
  2
*Paper_Space0
340
26
  0
BLOCK_RECORD
  5
1D4
330
1
100
AcDbSymbolTableRecord
100
AcDbBlockTableRecord
  2
_D
340
0
  0
BLOCK_RECORD
  5
1E0
330
1
100
AcDbSymbolTableRecord
100
AcDbBlockTableRecord
  2
_D_1
340
0
  0
BLOCK_RECORD
  5
1EC
330
1
100
AcDbSymbolTableRecord
100
AcDbBlockTableRecord
  2
_D_2
340
0
  0
BLOCK_RECORD
  5
1F7
330
1
100
AcDbSymbolTableRecord
100
AcDbBlockTableRecord
  2
_D_3
340
0
  0
BLOCK_RECORD
  5
203
330
1
100
AcDbSymbolTableRecord
100
AcDbBlockTableRecord
  2
_D_4
340
0
  0
BLOCK_RECORD
  5
20D
330
1
100
AcDbSymbolTableRecord
100
AcDbBlockTableRecord
  2
_D_5
340
0
  0
ENDTAB
  0
ENDSEC
  0
SECTION
  2
BLOCKS
  0
BLOCK
  5
20
330
1F
100
AcDbEntity
  8
0
100
AcDbBlockBegin
  2
*Model_Space
 70
     0
 10
0.0
 20
0.0
 30
0.0
  3
*Model_Space
  1

  0
ENDBLK
  5
21
330
1F
100
AcDbEntity
  8
0
100
AcDbBlockEnd
  0
BLOCK
  5
1C
330
1B
100
AcDbEntity
 67
     1
  8
0
100
AcDbBlockBegin
  2
*Paper_Space
 70
     0
 10
0.0
 20
0.0
 30
0.0
  3
*Paper_Space
  1

  0
ENDBLK
  5
1D
330
1B
100
AcDbEntity
 67
     1
  8
0
100
AcDbBlockEnd
  0
BLOCK
  5
24
330
23
100
AcDbEntity
  8
0
100
AcDbBlockBegin
  2
*Paper_Space0
 70
     0
 10
0.0
 20
0.0
 30
0.0
  3
*Paper_Space0
  1

  0
ENDBLK
  5
25
330
23
100
AcDbEntity
  8
0
100
AcDbBlockEnd
  0
BLOCK
  5
1D5
330
1D4
100
AcDbEntity
  8
0
100
AcDbBlockBegin
  2
_D
 70
     0
 10
0.0
 20
0.0
 30
0.0
  3
_D
  1

  0
SOLID
  5
1D7
330
1D4
100
AcDbEntity
  8
VERMASSUNG
100
AcDbTrace
 10
67.1748429051
 20
166.2335018364
 30
0.0
 11
66.7248429051
 21
163.2335018364
 31
0.0
 12
67.6248429051
 22
163.2335018364
 32
0.0
 13
67.6248429051
 23
163.2335018364
 33
0.0
  0
SOLID
  5
1D8
330
1D4
100
AcDbEntity
  8
VERMASSUNG
100
AcDbTrace
 10
67.1748429051
 20
66.2335018364
 30
0.0
 11
67.6248429051
 21
69.2335018364
 31
0.0
 12
66.7248429051
 22
69.2335018364
 32
0.0
 13
66.7248429051
 23
69.2335018364
 33
0.0
  0
LINE
  5
1D9
330
1D4
100
AcDbEntity
  8
VERMASSUNG
100
AcDbLine
 10
123.2176887923
 20
166.2335018364
 30
0.0
 11
66.1748429051
 21
166.2335018364
 31
0.0
  0
LINE
  5
1DA
330
1D4
100
AcDbEntity
  8
VERMASSUNG
100
AcDbLine
 10
123.2176887923
 20
66.2335018364
 30
0.0
 11
66.1748429051
 21
66.2335018364
 31
0.0
  0
LINE
  5
1DB
330
1D4
100
AcDbEntity
  8
VERMASSUNG
100
AcDbLine
 10
67.1748429051
 20
166.2335018364
 30
0.0
 11
67.1748429051
 21
66.2335018364
 31
0.0
  0
MTEXT
  5
1DC
330
1D4
100
AcDbEntity
  8
VERMASSUNG
100
AcDbMText
 10
64.3967076489
 20
105.5301197561
 30
0.0
 40
2.0
 41
0.0
 71
     1
 72
     1
  1
HSK A 100
  7
SLDTEXTSTYLE0
 11
-7.044195017643634E-15
 21
1.0
 31
0.0
 73
     1
 44
1.0
  0
MTEXT
  5
1DD
330
1D4
100
AcDbEntity
  8
VERMASSUNG
100
AcDbMText
 10
64.5967076002
 20
119.5301201882
 30
0.0
 40
2.0
 41
0.0
 71
     1
 72
     1
  1
%%c
  7
SLDTEXTSTYLE0
 11
-7.044195017643634E-15
 21
1.0
 31
0.0
 73
     1
 44
1.0
  0
MTEXT
  5
1DE
330
1D4
100
AcDbEntity
  8
VERMASSUNG
100
AcDbMText
 10
64.5967073092
 20
123.1381980259
 30
0.0
 40
2.0
 41
0.0
 71
     1
 72
     1
  1
100
  7
SLDTEXTSTYLE0
 11
-7.044195017643634E-15
 21
1.0
 31
0.0
 73
     1
 44
1.0
  0
ENDBLK
  5
1D6
330
1D4
100
AcDbEntity
  8
0
100
AcDbBlockEnd
  0
BLOCK
  5
1E1
330
1E0
100
AcDbEntity
  8
0
100
AcDbBlockBegin
  2
_D_1
 70
     0
 10
0.0
 20
0.0
 30
0.0
  3
_D_1
  1

  0
SOLID
  5
1E3
330
1E0
100
AcDbEntity
  8
VERMASSUNG
100
AcDbTrace
 10
244.4304602633
 20
148.2335018364
 30
0.0
 11
243.9804602633
 21
145.2335018364
 31
0.0
 12
244.8804602633
 22
145.2335018364
 32
0.0
 13
244.8804602633
 23
145.2335018364
 33
0.0
  0
SOLID
  5
1E4
330
1E0
100
AcDbEntity
  8
VERMASSUNG
100
AcDbTrace
 10
244.4304602633
 20
84.2335018364
 30
0.0
 11
244.8804602633
 21
87.2335018364
 31
0.0
 12
243.9804602633
 22
87.2335018364
 32
0.0
 13
243.9804602633
 23
87.2335018364
 33
0.0
  0
LINE
  5
1E5
330
1E0
100
AcDbEntity
  8
VERMASSUNG
100
AcDbLine
 10
230.1176887923
 20
148.2335018364
 30
0.0
 11
245.4304602633
 21
148.2335018364
 31
0.0
  0
LINE
  5
1E6
330
1E0
100
AcDbEntity
  8
VERMASSUNG
100
AcDbLine
 10
230.1176887923
 20
84.2335018364
 30
0.0
 11
245.4304602633
 21
84.2335018364
 31
0.0
  0
LINE
  5
1E7
330
1E0
100
AcDbEntity
  8
VERMASSUNG
100
AcDbLine
 10
244.4304602633
 20
148.2335018364
 30
0.0
 11
244.4304602633
 21
84.2335018364
 31
0.0
  0
MTEXT
  5
1E8
330
1E0
100
AcDbEntity
  8
VERMASSUNG
100
AcDbMText
 10
241.6523250071
 20
110.030305132
 30
0.0
 40
2.0
 41
0.0
 71
     1
 72
     1
  1
ST6
  7
SLDTEXTSTYLE0
 11
-7.044195017643634E-15
 21
1.0
 31
0.0
 73
     1
 44
1.0
  0
MTEXT
  5
1E9
330
1E0
100
AcDbEntity
  8
VERMASSUNG
100
AcDbMText
 10
241.8523249584
 20
115.8303050582
 30
0.0
 40
2.0
 41
0.0
 71
     1
 72
     1
  1
%%c
  7
SLDTEXTSTYLE0
 11
-7.044195017643634E-15
 21
1.0
 31
0.0
 73
     1
 44
1.0
  0
MTEXT
  5
1EA
330
1E0
100
AcDbEntity
  8
VERMASSUNG
100
AcDbMText
 10
241.8523246674
 20
119.4387809301
 30
0.0
 40
2.0
 41
0.0
 71
     1
 72
     1
  1
64
  7
SLDTEXTSTYLE0
 11
-7.044195017643634E-15
 21
1.0
 31
0.0
 73
     1
 44
1.0
  0
ENDBLK
  5
1E2
330
1E0
100
AcDbEntity
  8
0
100
AcDbBlockEnd
  0
BLOCK
  5
1ED
330
1EC
100
AcDbEntity
  8
0
100
AcDbBlockBegin
  2
_D_2
 70
     0
 10
0.0
 20
0.0
 30
0.0
  3
_D_2
  1

  0
SOLID
  5
1EF
330
1EC
100
AcDbEntity
  8
VERMASSUNG
100
AcDbTrace
 10
238.4304602633
 20
134.2335018364
 30
0.0
 11
237.9804602633
 21
131.2335018364
 31
0.0
 12
238.8804602633
 22
131.2335018364
 32
0.0
 13
238.8804602633
 23
131.2335018364
 33
0.0
  0
SOLID
  5
1F0
330
1EC
100
AcDbEntity
  8
VERMASSUNG
100
AcDbTrace
 10
238.4304602633
 20
98.2335018364
 30
0.0
 11
238.8804602633
 21
101.2335018364
 31
0.0
 12
237.9804602633
 22
101.2335018364
 32
0.0
 13
237.9804602633
 23
101.2335018364
 33
0.0
  0
LINE
  5
1F1
330
1EC
100
AcDbEntity
  8
VERMASSUNG
100
AcDbLine
 10
214.1176887922
 20
134.2335018364
 30
0.0
 11
239.4304602633
 21
134.2335018364
 31
0.0
  0
LINE
  5
1F2
330
1EC
100
AcDbEntity
  8
VERMASSUNG
100
AcDbLine
 10
214.1176887922
 20
98.2335018364
 30
0.0
 11
239.4304602633
 21
98.2335018364
 31
0.0
  0
LINE
  5
1F3
330
1EC
100
AcDbEntity
  8
VERMASSUNG
100
AcDbLine
 10
238.4304602633
 20
134.2335018364
 30
0.0
 11
238.4304602633
 21
98.2335018364
 31
0.0
  0
MTEXT
  5
1F4
330
1EC
100
AcDbEntity
  8
VERMASSUNG
100
AcDbMText
 10
235.8523247256
 20
113.0293257293
 30
0.0
 40
2.0
 41
0.0
 71
     1
 72
     1
  1
%%c
  7
SLDTEXTSTYLE0
 11
-7.044195017643634E-15
 21
1.0
 31
0.0
 73
     1
 44
1.0
  0
MTEXT
  5
1F5
330
1EC
100
AcDbEntity
  8
VERMASSUNG
100
AcDbMText
 10
235.8523246674
 20
116.6382979229
 30
0.0
 40
2.0
 41
0.0
 71
     1
 72
     1
  1
36
  7
SLDTEXTSTYLE0
 11
-7.044195017643634E-15
 21
1.0
 31
0.0
 73
     1
 44
1.0
  0
ENDBLK
  5
1EE
330
1EC
100
AcDbEntity
  8
0
100
AcDbBlockEnd
  0
BLOCK
  5
1F8
330
1F7
100
AcDbEntity
  8
0
100
AcDbBlockBegin
  2
_D_3
 70
     0
 10
0.0
 20
0.0
 30
0.0
  3
_D_3
  1

  0
ARC
  5
1FA
330
1F7
100
AcDbEntity
  8
VERMASSUNG
100
AcDbCircle
 10
190.3044823041
 20
173.6009759881
 30
0.0
 40
4.24705993853726
100
AcDbArc
 50
153.4349488229
 51
206.5650511771
  0
ARC
  5
1FB
330
1F7
100
AcDbEntity
  8
VERMASSUNG
100
AcDbCircle
 10
192.0808952805
 20
173.6009759881
 30
0.0
 40
4.24705993853726
100
AcDbArc
 50
333.4349488229
 51
26.5650511771
  0
SOLID
  5
1FC
330
1F7
100
AcDbEntity
  8
VERMASSUNG
100
AcDbTrace
 10
151.6676887923
 20
171.7016330427
 30
0.0
 11
154.6676887923
 21
171.2516330427
 31
0.0
 12
154.6676887923
 22
172.1516330427
 32
0.0
 13
154.6676887923
 23
172.1516330427
 33
0.0
  0
SOLID
  5
1FD
330
1F7
100
AcDbEntity
  8
VERMASSUNG
100
AcDbTrace
 10
230.7176887923
 20
171.7016330427
 30
0.0
 11
227.7176887923
 21
172.1516330427
 31
0.0
 12
227.7176887923
 22
171.2516330427
 32
0.0
 13
227.7176887923
 23
171.2516330427
 33
0.0
  0
LINE
  5
1FE
330
1F7
100
AcDbEntity
  8
VERMASSUNG
100
AcDbLine
 10
151.6676887923
 20
164.2022416573
 30
0.0
 11
151.6676887923
 21
172.7016330427
 31
0.0
  0
LINE
  5
1FF
330
1F7
100
AcDbEntity
  8
VERMASSUNG
100
AcDbLine
 10
230.7176887923
 20
147.6335018364
 30
0.0
 11
230.7176887923
 21
172.7016330427
 31
0.0
  0
LINE
  5
200
330
1F7
100
AcDbEntity
  8
VERMASSUNG
100
AcDbLine
 10
151.6676887923
 20
171.7016330427
 30
0.0
 11
230.7176887923
 21
171.7016330427
 31
0.0
  0
MTEXT
  5
201
330
1F7
100
AcDbEntity
  8
VERMASSUNG
100
AcDbMText
 10
188.0932964133
 20
174.2797686386
 30
0.0
 40
2.0
 41
0.0
 71
     1
 72
     1
  1
79.05
  7
SLDTEXTSTYLE0
 73
     1
 44
1.0
  0
ENDBLK
  5
1F9
330
1F7
100
AcDbEntity
  8
0
100
AcDbBlockEnd
  0
BLOCK
  5
204
330
203
100
AcDbEntity
  8
0
100
AcDbBlockBegin
  2
_D_4
 70
     0
 10
0.0
 20
0.0
 30
0.0
  3
_D_4
  1

  0
SOLID
  5
206
330
203
100
AcDbEntity
  8
VERMASSUNG
100
AcDbTrace
 10
122.7176887923
 20
177.7016330427
 30
0.0
 11
125.7176887923
 21
177.2516330427
 31
0.0
 12
125.7176887923
 22
178.1516330427
 32
0.0
 13
125.7176887923
 23
178.1516330427
 33
0.0
  0
SOLID
  5
207
330
203
100
AcDbEntity
  8
VERMASSUNG
100
AcDbTrace
 10
230.7176887923
 20
177.7016330427
 30
0.0
 11
227.7176887923
 21
178.1516330427
 31
0.0
 12
227.7176887923
 22
177.2516330427
 32
0.0
 13
227.7176887923
 23
177.2516330427
 33
0.0
  0
LINE
  5
208
330
203
100
AcDbEntity
  8
VERMASSUNG
100
AcDbLine
 10
122.7176887923
 20
165.7335018364
 30
0.0
 11
122.7176887923
 21
178.7016330427
 31
0.0
  0
LINE
  5
209
330
203
100
AcDbEntity
  8
VERMASSUNG
100
AcDbLine
 10
230.7176887923
 20
147.6335018364
 30
0.0
 11
230.7176887923
 21
178.7016330427
 31
0.0
  0
LINE
  5
20A
330
203
100
AcDbEntity
  8
VERMASSUNG
100
AcDbLine
 10
122.7176887923
 20
177.7016330427
 30
0.0
 11
230.7176887923
 21
177.7016330427
 31
0.0
  0
MTEXT
  5
20B
330
203
100
AcDbEntity
  8
VERMASSUNG
100
AcDbMText
 10
174.8183458469
 20
180.2797686386
 30
0.0
 40
2.0
 41
0.0
 71
     1
 72
     1
  1
108
  7
SLDTEXTSTYLE0
 73
     1
 44
1.0
  0
ENDBLK
  5
205
330
203
100
AcDbEntity
  8
0
100
AcDbBlockEnd
  0
BLOCK
  5
20E
330
20D
100
AcDbEntity
  8
0
100
AcDbBlockBegin
  2
_D_5
 70
     0
 10
0.0
 20
0.0
 30
0.0
  3
_D_5
  1

  0
ARC
  5
210
330
20D
100
AcDbEntity
  8
VERMASSUNG
100
AcDbCircle
 10
151.0791228809
 20
185.6009759881
 30
0.0
 40
4.247059938537323
100
AcDbArc
 50
153.4349488229
 51
206.5650511771
  0
ARC
  5
211
330
20D
100
AcDbEntity
  8
VERMASSUNG
100
AcDbCircle
 10
152.4562547037
 20
185.6009759881
 30
0.0
 40
4.247059938537373
100
AcDbArc
 50
333.4349488229
 51
26.5650511771
  0
SOLID
  5
212
330
20D
100
AcDbEntity
  8
VERMASSUNG
100
AcDbTrace
 10
72.8176887923
 20
183.7016330427
 30
0.0
 11
75.8176887923
 21
183.2516330427
 31
0.0
 12
75.8176887923
 22
184.1516330427
 32
0.0
 13
75.8176887923
 23
184.1516330427
 33
0.0
  0
SOLID
  5
213
330
20D
100
AcDbEntity
  8
VERMASSUNG
100
AcDbTrace
 10
230.7176887923
 20
183.7016330427
 30
0.0
 11
227.7176887923
 21
184.1516330427
 31
0.0
 12
227.7176887923
 22
183.2516330427
 32
0.0
 13
227.7176887923
 23
183.2516330427
 33
0.0
  0
LINE
  5
214
330
20D
100
AcDbEntity
  8
VERMASSUNG
100
AcDbLine
 10
72.8176887923
 20
146.736171579
 30
0.0
 11
72.8176887923
 21
184.7016330427
 31
0.0
  0
LINE
  5
215
330
20D
100
AcDbEntity
  8
VERMASSUNG
100
AcDbLine
 10
230.7176887923
 20
147.6335018364
 30
0.0
 11
230.7176887923
 21
184.7016330427
 31
0.0
  0
LINE
  5
216
330
20D
100
AcDbEntity
  8
VERMASSUNG
100
AcDbLine
 10
72.8176887923
 20
183.7016330427
 30
0.0
 11
230.7176887923
 21
183.7016330427
 31
0.0
  0
MTEXT
  5
217
330
20D
100
AcDbEntity
  8
VERMASSUNG
100
AcDbMText
 10
148.86793699
 20
186.2797686386
 30
0.0
 40
2.0
 41
0.0
 71
     1
 72
     1
  1
157.9
  7
SLDTEXTSTYLE0
 73
     1
 44
1.0
  0
ENDBLK
  5
20F
330
20D
100
AcDbEntity
  8
0
100
AcDbBlockEnd
  0
ENDSEC
  0
SECTION
  2
ENTITIES
  0
MTEXT
  5
78
330
1F
100
AcDbEntity
  8
KOPF_DÜNN
100
AcDbMText
 10
13.8892156294
 20
23.8442973028
 30
0.0
 40
3.0
 41
0.0
 71
     1
 72
     1
  1
144.810.064.108
  7
SLDTEXTSTYLE0
 73
     1
 44
1.0
  0
MTEXT
  5
79
330
1F
100
AcDbEntity
  8
VERMASSUNG
100
AcDbMText
 10
13.9329988022
 20
28.8834360957
 30
0.0
 40
3.0
 41
0.0
 71
     1
 72
     1
  1
Aufnahme_Master shank ST6+
  7
SLDTEXTSTYLE0
 73
     1
 44
1.0
  0
MTEXT
  5
7A
330
1F
100
AcDbEntity
  8
VERMASSUNG
100
AcDbMText
 10
98.8601118557
 20
13.8365368761
 30
0.0
 40
2.0
 41
0.0
 71
     1
 72
     1
  1
Datum: 10.06.2008
  7
SLDTEXTSTYLE0
 73
     1
 44
1.0
  0
MTEXT
  5
7B
330
1F
100
AcDbEntity
  8
VERMASSUNG
100
AcDbMText
 10
13.933048693
 20
18.0482802738
 30
0.0
 40
2.0
 41
0.0
 71
     1
 72
     1
  1
DIN 69893 HSK A 100
  7
SLDTEXTSTYLE0
 73
     1
 44
1.0
  0
MTEXT
  5
7C
330
1F
100
AcDbEntity
  8
VERMASSUNG
100
AcDbMText
 10
13.9808475933
 20
13.9090974274
 30
0.0
 40
2.0
 41
0.0
 71
     1
 72
     1
  1
Gewicht: 3581g
  7
SLDTEXTSTYLE0
 73
     1
 44
1.0
  0
ARC
  5
7D
330
1F
100
AcDbEntity
  8
0
  6
Continuous
 62
     7
370
    15
100
AcDbCircle
 10
123.2176887923
 20
66.7335018364
 30
0.0
 40
0.5
100
AcDbArc
 50
180.0
 51
270.0
  0
ARC
  5
7E
330
1F
100
AcDbEntity
  8
0
  6
Continuous
 62
     7
370
    15
100
AcDbCircle
 10
123.2176887923
 20
165.7335018364
 30
0.0
 40
0.5
100
AcDbArc
 50
90.0
 51
180.0
  0
LINE
  5
7F
330
1F
100
AcDbEntity
  8
0
  6
Continuous
 62
     7
370
    15
100
AcDbLine
 10
123.2176888161
 20
66.2335010914
 30
0.0
 11
127.6676887655
 21
66.2335010914
 31
0.0
  0
LINE
  5
80
330
1F
100
AcDbEntity
  8
0
  6
Continuous
 62
     7
370
    15
100
AcDbLine
 10
127.7017616675
 20
166.2335025815
 30
0.0
 11
123.2176888161
 21
166.2335025815
 31
0.0
  0
ARC
  5
81
330
1F
100
AcDbEntity
  8
0
  6
Continuous
 62
     7
370
    15
100
AcDbCircle
 10
121.8207518739
 20
77.605016512
 30
0.0
 40
0.9962338214386932
100
AcDbArc
 50
25.7988228126
 51
90.0
  0
ARC
  5
82
330
1F
100
AcDbEntity
  8
0
  6
Continuous
 62
     7
370
    15
100
AcDbCircle
 10
121.8207518739
 20
154.8619871609
 30
0.0
 40
0.9962338214386932
100
AcDbArc
 50
270.0
 51
334.2011771874
  0
LINE
  5
83
330
1F
100
AcDbEntity
  8
0
  6
Continuous
 62
     7
370
    15
100
AcDbLine
 10
120.2176888482
 20
78.3512520341
 30
0.0
 11
121.0235349144
 21
78.5671773104
 31
0.0
  0
LINE
  5
84
330
1F
100
AcDbEntity
  8
0
  6
Continuous
 62
     7
370
    15
100
AcDbLine
 10
121.0235349144
 20
153.8998263625
 30
0.0
 11
120.2176888482
 21
154.1157516388
 31
0.0
  0
LINE
  5
85
330
1F
100
AcDbEntity
  8
0
  6
Continuous
 62
     7
370
    15
100
AcDbLine
 10
101.2370092803
 20
153.164819136
 30
0.0
 11
82.9176893466
 21
152.2470156399
 31
0.0
  0
LINE
  5
86
330
1F
100
AcDbEntity
  8
0
  6
Continuous
 62
     7
370
    15
100
AcDbLine
 10
120.2176888482
 20
154.1157516388
 30
0.0
 11
114.1496496284
 21
153.8117418734
 31
0.0
  0
LINE
  5
87
330
1F
100
AcDbEntity
  8
0
  6
Continuous
 62
     7
370
    15
100
AcDbLine
 10
114.1497725629
 20
78.6552543489
 30
0.0
 11
120.2176888482
 21
78.3512520341
 31
0.0
  0
LINE
  5
88
330
1F
100
AcDbEntity
  8
0
  6
Continuous
 62
     7
370
    15
100
AcDbLine
 10
87.9176883035
 20
79.9694883374
 30
0.0
 11
101.237640717
 21
79.3021547345
 31
0.0
  0
ARC
  5
89
330
1F
100
AcDbEntity
  8
0
  6
Continuous
 62
     7
370
    15
100
AcDbCircle
 10
121.2823539918
 20
77.6012503334
 30
0.0
 40
1.000000000000014
100
AcDbArc
 50
90.0
 51
105.0
  0
ARC
  5
8A
330
1F
100
AcDbEntity
  8
0
  6
Continuous
 62
     7
370
    15
100
AcDbCircle
 10
121.2823539918
 20
154.8657533394
 30
0.0
 40
1.0
100
AcDbArc
 50
255.0
 51
270.0
  0
LINE
  5
8B
330
1F
100
AcDbEntity
  8
0
  6
Continuous
 62
     7
370
    15
100
AcDbLine
 10
121.2823539981
 20
78.6012488154
 30
0.0
 11
121.8207518695
 21
78.6012488154
 31
0.0
  0
LINE
  5
8C
330
1F
100
AcDbEntity
  8
0
  6
Continuous
 62
     7
370
    15
100
AcDbLine
 10
121.8207518695
 20
153.8657548574
 30
0.0
 11
121.2823539981
 21
153.8657548574
 31
0.0
  0
ARC
  5
8D
330
1F
100
AcDbEntity
  8
0
  6
Continuous
 62
     7
370
    15
100
AcDbCircle
 10
155.6676887923
 20
80.2335018364
 30
0.0
 40
4.000000000000014
100
AcDbArc
 50
90.0
 51
180.0
  0
ARC
  5
8E
330
1F
100
AcDbEntity
  8
0
  6
Continuous
 62
     7
370
    15
100
AcDbCircle
 10
155.6676887923
 20
152.2335018364
 30
0.0
 40
4.0
100
AcDbArc
 50
180.0
 51
270.0
  0
LINE
  5
8F
330
1F
100
AcDbEntity
  8
0
  6
Continuous
 62
     7
370
    15
100
AcDbLine
 10
155.6676877671
 20
84.2335003165
 30
0.0
 11
230.1176888877
 21
84.2335003165
 31
0.0
  0
LINE
  5
90
330
1F
100
AcDbEntity
  8
0
  6
Continuous
 62
     7
370
    15
100
AcDbLine
 10
230.1176888877
 20
148.2335033563
 30
0.0
 11
155.6676877671
 21
148.2335033563
 31
0.0
  0
ARC
  5
91
330
1F
100
AcDbEntity
  8
0
  6
Continuous
 62
     7
370
    15
100
AcDbCircle
 10
230.1176887923
 20
147.6335018364
 30
0.0
 40
0.6000000000000512
100
AcDbArc
 50
0.0
 51
90.0
  0
ARC
  5
92
330
1F
100
AcDbEntity
  8
0
  6
Continuous
 62
     7
370
    15
100
AcDbCircle
 10
230.1176887923
 20
84.8335018364
 30
0.0
 40
0.6000000000000085
100
AcDbArc
 50
270.0
 51
0.0
  0
LINE
  5
93
330
1F
100
AcDbEntity
  8
0
  6
Continuous
 62
     7
370
    15
100
AcDbLine
 10
74.4676878684
 20
83.9835035352
 30
0.0
 11
86.0176896685
 21
83.9835035352
 31
0.0
  0
ARC
  5
94
330
1F
100
AcDbEntity
  8
0
  6
Continuous
 62
     7
370
    15
100
AcDbCircle
 10
86.0176887923
 20
82.0835018364
 30
0.0
 40
1.900000000000006
100
AcDbArc
 50
35.6630613694
 51
90.0
  0
ARC
  5
95
330
1F
100
AcDbEntity
  8
0
  6
Continuous
 62
     7
370
    15
100
AcDbCircle
 10
81.0176887923
 20
150.3835018364
 30
0.0
 40
1.900000000000008
100
AcDbArc
 50
270.0
 51
310.9212832533
  0
LINE
  5
96
330
1F
100
AcDbEntity
  8
0
  6
Continuous
 62
     7
370
    15
100
AcDbLine
 10
74.4676878684
 20
148.4835001377
 30
0.0
 11
72.8683723145
 21
146.8841864464
 31
0.0
  0
LINE
  5
97
330
1F
100
AcDbEntity
  8
0
  6
Continuous
 62
     7
370
    15
100
AcDbLine
 10
72.8692105048
 20
85.5819808987
 30
0.0
 11
74.4676878684
 21
83.9835035352
 31
0.0
  0
LINE
  5
98
330
1F
100
AcDbEntity
  8
0
  6
Continuous
 62
     7
370
    15
100
AcDbLine
 10
81.0176869863
 20
148.4835001377
 30
0.0
 11
74.4676878684
 21
148.4835001377
 31
0.0
  0
LINE
  5
99
330
1F
100
AcDbEntity
  8
0
  6
Continuous
 62
     7
370
    15
100
AcDbLine
 10
122.7176887923
 20
66.7335021047
 30
0.0
 11
122.7176887923
 21
165.7335015682
 31
0.0
  0
LINE
  5
9A
330
1F
100
AcDbEntity
  8
0
  6
Continuous
 62
     7
370
    15
100
AcDbLine
 10
151.6676889741
 20
68.4841575769
 30
0.0
 11
151.6676889741
 21
147.5835035292
 31
0.0
  0
SPLINE
  5
9B
330
1F
100
AcDbEntity
  8
0
  6
Continuous
 62
     7
370
    15
100
AcDbSpline
210
0.0
220
0.0
230
1.0
 70
     8
 71
     3
 72
    14
 73
    10
 74
     0
 42
0.000000001
 43
0.00000001
 40
0.0
 40
0.0
 40
0.0
 40
0.0
 40
0.25
 40
0.25
 40
0.5
 40
0.5
 40
0.75
 40
0.75
 40
1.0
 40
1.0
 40
1.0
 40
1.0
 10
151.6676887923038
 20
68.48415629117771
 30
0.0
 10
151.6676887923038
 20
68.35073059512317
 30
0.0
 10
151.642377692393
 20
68.2188827872788
 30
0.0
 10
151.5440429285482
 20
67.97236023858471
 30
0.0
 10
151.4708989242921
 20
67.85855505034417
 30
0.0
 10
151.2874608631964
 20
67.66809787339689
 30
0.0
 10
151.1757745288578
 20
67.59046300954698
 30
0.0
 10
150.9332710985516
 20
67.48617159943451
 30
0.0
 10
150.7998966698574
 20
67.45850824340216
 30
0.0
 10
150.6676887923038
 20
67.45850824340216
 30
0.0
  0
SPLINE
  5
9C
330
1F
100
AcDbEntity
  8
0
  6
Continuous
 62
     7
370
    15
100
AcDbSpline
210
0.0
220
0.0
230
1.0
 70
    24
 71
     3
 72
    12
 73
     8
 74
     0
 42
0.000000001
 43
0.00000001
 40
0.0
 40
0.0
 40
0.0
 40
0.0
 40
0.2500000000000032
 40
0.2500000000000032
 40
0.5000000000000064
 40
0.5000000000000064
 40
1.0
 40
1.0
 40
1.0
 40
1.0
 10
150.6676887923038
 20
147.583501836431
 30
0.0
 10
150.8197790292488
 20
147.583501836431
 30
0.0
 10
150.9682382903242
 20
147.583501836431
 30
0.0
 10
151.2256419225899
 20
147.583501836431
 30
0.0
 10
151.3347466704319
 20
147.583501836431
 30
0.0
 10
151.5888061468394
 20
147.583501836431
 30
0.0
 10
151.6676887923038
 20
147.583501836431
 30
0.0
 10
151.6676887923038
 20
147.583501836431
 30
0.0
  0
LINE
  5
9D
330
1F
100
AcDbEntity
  8
0
  6
Continuous
 62
     7
370
    15
100
AcDbLine
 10
150.6676888102
 20
67.4585069267
 30
0.0
 11
145.979718306
 21
67.4585069267
 31
0.0
  0
LINE
  5
9E
330
1F
100
AcDbEntity
  8
0
  6
Continuous
 62
     7
370
    15
100
AcDbLine
 10
145.979718306
 20
67.4585069267
 30
0.0
 11
145.979718306
 21
147.5835035292
 31
0.0
  0
LINE
  5
9F
330
1F
100
AcDbEntity
  8
0
  6
Continuous
 62
     7
370
    15
100
AcDbLine
 10
145.979718306
 20
147.5835035292
 30
0.0
 11
150.6676888102
 21
147.5835035292
 31
0.0
  0
SPLINE
  5
A0
330
1F
100
AcDbEntity
  8
0
  6
Continuous
 62
     7
370
    15
100
AcDbSpline
210
0.0
220
0.0
230
1.0
 70
     8
 71
     3
 72
     8
 73
     4
 74
     0
 42
0.000000001
 43
0.00000001
 40
0.0
 40
0.0
 40
0.0
 40
0.0
 40
1.0
 40
1.0
 40
1.0
 40
1.0
 10
145.9797178132252
 20
67.45850824340219
 30
0.0
 10
145.528613083825
 20
68.25946817522211
 30
0.0
 10
145.0779152565816
 20
69.06065818678277
 30
0.0
 10
144.6276887923038
 20
69.86211354940754
 30
0.0
  0
LINE
  5
A1
330
1F
100
AcDbEntity
  8
0
  6
Continuous
 62
     7
370
    15
100
AcDbLine
 10
144.6276893848
 20
69.862112656
 30
0.0
 11
144.6276893848
 21
147.5835035292
 31
0.0
  0
SPLINE
  5
A2
330
1F
100
AcDbEntity
  8
0
  6
Continuous
 62
     7
370
    15
100
AcDbSpline
210
0.0
220
0.0
230
1.0
 70
    24
 71
     3
 72
     8
 73
     4
 74
     0
 42
0.000000001
 43
0.00000001
 40
0.0
 40
0.0
 40
0.0
 40
0.0
 40
1.0
 40
1.0
 40
1.0
 40
1.0
 10
144.6276887923038
 20
147.583501836431
 30
0.0
 10
145.0719016746577
 20
147.583501836431
 30
0.0
 10
145.522916240897
 20
147.583501836431
 30
0.0
 10
145.9797178132252
 20
147.583501836431
 30
0.0
  0
LINE
  5
A3
330
1F
100
AcDbEntity
  8
0
  6
Continuous
 62
     7
370
    15
100
AcDbLine
 10
127.6676887655
 20
147.5835035292
 30
0.0
 11
139.4556602472
 21
147.5835035292
 31
0.0
  0
LINE
  5
A4
330
1F
100
AcDbEntity
  8
0
  6
Continuous
 62
     7
370
    15
100
AcDbLine
 10
139.4556602472
 20
67.4585069267
 30
0.0
 11
139.4556602472
 21
147.5835035292
 31
0.0
  0
LINE
  5
A5
330
1F
100
AcDbEntity
  8
0
  6
Continuous
 62
     7
370
    15
100
AcDbLine
 10
139.4556602472
 20
67.4585069267
 30
0.0
 11
137.667688542
 21
67.4585069267
 31
0.0
  0
SPLINE
  5
A6
330
1F
100
AcDbEntity
  8
0
  6
Continuous
 62
     7
370
    15
100
AcDbSpline
210
0.0
220
0.0
230
1.0
 70
     8
 71
     3
 72
    30
 73
    26
 74
     0
 42
0.000000001
 43
0.00000001
 40
0.0
 40
0.0
 40
0.0
 40
0.0
 40
0.1250000000000002
 40
0.1250000000000002
 40
0.1875000000000003
 40
0.1875000000000003
 40
0.2500000000000004
 40
0.2500000000000004
 40
0.3750000000000001
 40
0.3750000000000001
 40
0.4374999999999998
 40
0.4374999999999998
 40
0.4999999999999996
 40
0.4999999999999996
 40
0.6249999999999996
 40
0.6249999999999996
 40
0.6874999999999997
 40
0.6874999999999997
 40
0.7499999999999997
 40
0.7499999999999997
 40
0.8124999999999998
 40
0.8124999999999998
 40
0.8749999999999999
 40
0.8749999999999999
 40
1.0
 40
1.0
 40
1.0
 40
1.0
 10
137.6676887923038
 20
67.45850824340219
 30
0.0
 10
137.0049440984588
 20
67.4585082434022
 30
0.0
 10
136.3536882393431
 20
67.44366816681338
 30
0.0
 10
135.3932377010848
 20
67.40129860258376
 30
0.0
 10
135.0758462578518
 20
67.3838204998046
 30
0.0
 10
134.446682756297
 20
67.34249221325229
 30
0.0
 10
134.1345345698552
 20
67.3185669397946
 30
0.0
 10
133.227227268007
 20
67.23976042332768
 30
0.0
 10
132.6538023103657
 20
67.1774544033512
 30
0.0
 10
131.8399254407911
 20
67.07432508311186
 30
0.0
 10
131.5751192442212
 20
67.03814116406534
 30
0.0
 10
131.0682118334068
 20
66.96434637986484
 30
0.0
 10
130.8268176820534
 20
66.9268725210932
 30
0.0
 10
130.137676209921
 20
66.81416057775347
 30
0.0
 10
129.7246213950568
 20
66.73862448027967
 30
0.0
 10
129.1764665756817
 20
66.63023122326219
 30
0.0
 10
129.0070039683362
 20
66.59515899159894
 30
0.0
 10
128.6989867203208
 20
66.52892353099907
 30
0.0
 10
128.5596066997124
 20
66.49759683424436
 30
0.0
 10
128.3098211870857
 20
66.43918806266342
 30
0.0
 10
128.1994150744318
 20
66.41210482748058
 30
0.0
 10
128.008157220794
 20
66.36284507286699
 30
0.0
 10
127.9270377025097
 20
66.34058309305935
 30
0.0
 10
127.7328907824014
 20
66.28301618589107
 30
0.0
 10
127.6676887923038
 20
66.25675658110508
 30
0.0
 10
127.6676887923038
 20
66.24350283663105
 30
0.0
  0
LINE
  5
A7
330
1F
100
AcDbEntity
  8
0
  6
Continuous
 62
     7
370
    15
100
AcDbLine
 10
127.6676887655
 20
66.2435034958
 30
0.0
 11
127.6676887655
 21
66.2335010914
 31
0.0
  0
SPLINE
  5
A8
330
1F
100
AcDbEntity
  8
0
  6
Continuous
 62
     7
370
    15
100
AcDbSpline
210
0.0
220
0.0
230
1.0
 70
     8
 71
     3
 72
    17
 73
    13
 74
     0
 42
0.000000001
 43
0.00000001
 40
0.0
 40
0.0
 40
0.0
 40
0.0
 40
0.1043843958185158
 40
0.2118345569819801
 40
0.3162081801235555
 40
0.4235375330682647
 40
0.5292275935501746
 40
0.6379275752951962
 40
0.7444714855043735
 40
0.8541836194561564
 40
0.959308052615968
 40
1.0
 40
1.0
 40
1.0
 40
1.0
 10
137.6676885419643
 20
165.2232969848037
 30
0.0
 10
137.1197500014507
 20
165.2286644251365
 30
0.0
 10
136.0077799883764
 20
165.2395569473004
 30
0.0
 10
134.3949246558539
 20
165.3247391311184
 30
0.0
 10
132.8614115051162
 20
165.4511096344499
 30
0.0
 10
131.4703906167419
 20
165.6080135059588
 30
0.0
 10
130.2348735004438
 20
165.7797089033945
 30
0.0
 10
129.2115183545874
 20
165.9450537576045
 30
0.0
 10
128.4111756817284
 20
166.0887580554366
 30
0.0
 10
127.9008441289683
 20
166.1869220513684
 30
0.0
 10
127.6609353705089
 20
166.2348433658411
 30
0.0
 10
127.6928542822784
 20
166.2284768578274
 30
0.0
 10
127.7017616675353
 20
166.2267002014041
 30
0.0
  0
LINE
  5
A9
330
1F
100
AcDbEntity
  8
0
  6
Continuous
 62
     7
370
    15
100
AcDbLine
 10
139.4556602472
 20
165.2232969848
 30
0.0
 11
137.667688542
 21
165.2232969848
 31
0.0
  0
LINE
  5
AA
330
1F
100
AcDbEntity
  8
0
  6
Continuous
 62
     7
370
    15
100
AcDbLine
 10
139.4556602472
 20
155.1844629196
 30
0.0
 11
139.4556602472
 21
165.2232969848
 31
0.0
  0
LINE
  5
AB
330
1F
100
AcDbEntity
  8
0
  6
Continuous
 62
     7
370
    15
100
AcDbLine
 10
137.3756555849
 20
155.1844629196
 30
0.0
 11
139.4556602472
 21
155.1844629196
 31
0.0
  0
SPLINE
  5
AC
330
1F
100
AcDbEntity
  8
0
  6
Continuous
 62
     7
370
    15
100
AcDbSpline
210
0.0
220
0.0
230
1.0
 70
     8
 71
     3
 72
    22
 73
    18
 74
     0
 42
0.000000001
 43
0.00000001
 40
0.0
 40
0.0
 40
0.0
 40
0.0
 40
0.2500000000000002
 40
0.2500000000000002
 40
0.3750000000000003
 40
0.3750000000000003
 40
0.5000000000000004
 40
0.5000000000000004
 40
0.6250000000000004
 40
0.6250000000000004
 40
0.7500000000000004
 40
0.7500000000000004
 40
0.8750000000000004
 40
0.8750000000000004
 40
0.9375000000000002
 40
0.9375000000000002
 40
1.0
 40
1.0
 40
1.0
 40
1.0
 10
127.6676887923038
 20
147.583501836431
 30
0.0
 10
127.8704137482229
 20
148.6027481782956
 30
0.0
 10
128.1851574700183
 20
149.5618563282349
 30
0.0
 10
128.8932129396892
 20
150.9043354057442
 30
0.0
 10
129.1716755699069
 20
151.3385439884842
 30
0.0
 10
129.8104429765441
 20
152.1501717039863
 30
0.0
 10
130.1708566563343
 20
152.5294519969232
 30
0.0
 10
130.9883888883236
 20
153.2324105759442
 30
0.0
 10
131.4495568716107
 20
153.5574393936448
 30
0.0
 10
132.4475471180945
 20
154.1224547170357
 30
0.0
 10
132.9873063120868
 20
154.3661583112422
 30
0.0
 10
134.1618992761181
 20
154.7703582388871
 30
0.0
 10
134.77363546211
 20
154.9227954319326
 30
0.0
 10
135.7255446869717
 20
155.0781229795413
 30
0.0
 10
136.0487778512323
 20
155.1176277595914
 30
0.0
 10
136.7078410225076
 20
155.1709368802601
 30
0.0
 10
137.0419050330816
 20
155.1844645973179
 30
0.0
 10
137.3756556404831
 20
155.1844645973179
 30
0.0
  0
LINE
  5
AD
330
1F
100
AcDbEntity
  8
0
  6
Continuous
 62
     7
370
    15
100
AcDbLine
 10
140.8076891684
 20
69.862112656
 30
0.0
 11
140.8076891684
 21
147.5835035292
 31
0.0
  0
SPLINE
  5
AE
330
1F
100
AcDbEntity
  8
0
  6
Continuous
 62
     7
370
    15
100
AcDbSpline
210
0.0
220
0.0
230
1.0
 70
     8
 71
     3
 72
     8
 73
     4
 74
     0
 42
0.000000001
 43
0.00000001
 40
0.0
 40
0.0
 40
0.0
 40
0.0
 40
1.0
 40
1.0
 40
1.0
 40
1.0
 10
140.8076887923038
 20
69.86211354940752
 30
0.0
 10
140.357462328026
 20
69.06065818678277
 30
0.0
 10
139.9067645007827
 20
68.25946817522211
 30
0.0
 10
139.4556597713824
 20
67.45850824340219
 30
0.0
  0
SPLINE
  5
AF
330
1F
100
AcDbEntity
  8
0
  6
Continuous
 62
     7
370
    15
100
AcDbSpline
210
0.0
220
0.0
230
1.0
 70
    24
 71
     3
 72
     8
 73
     4
 74
     0
 42
0.000000001
 43
0.00000001
 40
0.0
 40
0.0
 40
0.0
 40
0.0
 40
1.0
 40
1.0
 40
1.0
 40
1.0
 10
139.4556597713824
 20
147.583501836431
 30
0.0
 10
139.9124613437106
 20
147.583501836431
 30
0.0
 10
140.3634759099499
 20
147.583501836431
 30
0.0
 10
140.8076887923038
 20
147.583501836431
 30
0.0
  0
SPLINE
  5
B0
330
1F
100
AcDbEntity
  8
0
  6
Continuous
 62
     7
370
    15
100
AcDbSpline
210
0.0
220
0.0
230
1.0
 70
     8
 71
     3
 72
    14
 73
    10
 74
     0
 42
0.000000001
 43
0.00000001
 40
0.0
 40
0.0
 40
0.0
 40
0.0
 40
0.25
 40
0.25
 40
0.5
 40
0.5
 40
0.75
 40
0.75
 40
1.0
 40
1.0
 40
1.0
 40
1.0
 10
144.6276887923038
 20
70.77032305403611
 30
0.0
 10
144.6276887923038
 20
70.8773671350305
 30
0.0
 10
144.6075711051456
 20
70.98260227527295
 30
0.0
 10
144.52907991588
 20
71.18045276212062
 30
0.0
 10
144.4709232910788
 20
71.27150452568554
 30
0.0
 10
144.3244080354607
 20
71.42467061961032
 30
0.0
 10
144.2357654868197
 20
71.48696506581973
 30
0.0
 10
144.0400421640193
 20
71.57175885135572
 30
0.0
 10
143.9348109729484
 20
71.59382637838135
 30
0.0
 10
143.8276887923038
 20
71.59382637838135
 30
0.0
  0
SPLINE
  5
B1
330
1F
100
AcDbEntity
  8
0
  6
Continuous
 62
     7
370
    15
100
AcDbSpline
210
0.0
220
0.0
230
1.0
 70
    24
 71
     3
 72
    14
 73
    10
 74
     0
 42
0.000000001
 43
0.00000001
 40
0.0
 40
0.0
 40
0.0
 40
0.0
 40
0.25
 40
0.25
 40
0.5
 40
0.5
 40
0.75
 40
0.75
 40
1.0
 40
1.0
 40
1.0
 40
1.0
 10
143.8276887923038
 20
147.583501836431
 30
0.0
 10
143.9514585570689
 20
147.583501836431
 30
0.0
 10
144.0758256610758
 20
147.583501836431
 30
0.0
 10
144.2821821298019
 20
147.583501836431
 30
0.0
 10
144.3675102732203
 20
147.583501836431
 30
0.0
 10
144.4997023319355
 20
147.583501836431
 30
0.0
 10
144.5483475756861
 20
147.583501836431
 30
0.0
 10
144.6118833674148
 20
147.583501836431
 30
0.0
 10
144.6276887923038
 20
147.583501836431
 30
0.0
 10
144.6276887923038
 20
147.583501836431
 30
0.0
  0
SPLINE
  5
B2
330
1F
100
AcDbEntity
  8
0
  6
Continuous
 62
     7
370
    15
100
AcDbSpline
210
0.0
220
0.0
230
1.0
 70
     8
 71
     3
 72
    12
 73
     8
 74
     0
 42
0.000000001
 43
0.00000001
 40
0.0
 40
0.0
 40
0.0
 40
0.0
 40
0.25
 40
0.25
 40
0.5
 40
0.5
 40
1.0
 40
1.0
 40
1.0
 40
1.0
 10
141.6076887923038
 20
71.59382637838135
 30
0.0
 10
141.5019281389549
 20
71.59382637838135
 30
0.0
 10
141.393940510772
 20
71.57128687238095
 30
0.0
 10
141.1993458455063
 20
71.48671624038563
 30
0.0
 10
141.1104739326675
 20
71.42423458762687
 30
0.0
 10
140.8912816403416
 20
71.1948456361547
 30
0.0
 10
140.8076887923038
 20
70.9822622986323
 30
0.0
 10
140.8076887923038
 20
70.77032305403611
 30
0.0
  0
SPLINE
  5
B3
330
1F
100
AcDbEntity
  8
0
  6
Continuous
 62
     7
370
    15
100
AcDbSpline
210
0.0
220
0.0
230
1.0
 70
    24
 71
     3
 72
    14
 73
    10
 74
     0
 42
0.000000001
 43
0.00000001
 40
0.0
 40
0.0
 40
0.0
 40
0.0
 40
0.25
 40
0.25
 40
0.5
 40
0.5
 40
0.75
 40
0.75
 40
1.0
 40
1.0
 40
1.0
 40
1.0
 10
140.8076887923038
 20
147.583501836431
 30
0.0
 10
140.8076887923038
 20
147.583501836431
 30
0.0
 10
140.8234031127697
 20
147.583501836431
 30
0.0
 10
140.8870870912381
 20
147.583501836431
 30
0.0
 10
140.9356902856486
 20
147.583501836431
 30
0.0
 10
141.0683738080742
 20
147.583501836431
 30
0.0
 10
141.1534759123848
 20
147.583501836431
 30
0.0
 10
141.3599181472949
 20
147.583501836431
 30
0.0
 10
141.4839990889179
 20
147.583501836431
 30
0.0
 10
141.6076887923038
 20
147.583501836431
 30
0.0
  0
LINE
  5
B4
330
1F
100
AcDbEntity
  8
0
  6
Continuous
 62
     7
370
    15
100
AcDbLine
 10
143.8276888811
 20
71.5938250271
 30
0.0
 11
141.6076896721
 21
71.5938250271
 31
0.0
  0
LINE
  5
B5
330
1F
100
AcDbEntity
  8
0
  6
Continuous
 62
     7
370
    15
100
AcDbLine
 10
141.6076896721
 20
147.5835035292
 30
0.0
 11
143.8276888811
 21
147.5835035292
 31
0.0
  0
LINE
  5
B6
330
1F
100
AcDbEntity
  8
0
  6
Continuous
 62
     7
370
    15
100
AcDbLine
 10
120.2176888482
 20
78.3512520341
 30
0.0
 11
120.2176888482
 21
154.1157516388
 31
0.0
  0
LINE
  5
B7
330
1F
100
AcDbEntity
  8
0
  6
Continuous
 62
     7
370
    15
100
AcDbLine
 10
87.9176883035
 20
79.9694883374
 30
0.0
 11
87.9176883035
 21
82.3641682712
 31
0.0
  0
SPLINE
  5
B8
330
1F
100
AcDbEntity
  8
0
  6
Continuous
 62
     7
370
    15
100
AcDbSpline
210
0.0
220
0.0
230
1.0
 70
     8
 71
     3
 72
    14
 73
    10
 74
     0
 42
0.000000001
 43
0.00000001
 40
0.0
 40
0.0
 40
0.0
 40
0.0
 40
0.25
 40
0.25
 40
0.5
 40
0.5
 40
0.75
 40
0.75
 40
1.0
 40
1.0
 40
1.0
 40
1.0
 10
86.91326632096686
 20
84.06702049268746
 30
0.0
 10
87.00203489891217
 20
83.90848636137952
 30
0.0
 10
87.12375273759109
 20
83.75604368449096
 30
0.0
 10
87.35880234744792
 20
83.45890906066204
 30
0.0
 10
87.47443253366481
 20
83.31422641704468
 30
0.0
 10
87.67483746709262
 20
83.03093721454127
 30
0.0
 10
87.76023775907696
 20
82.89238322150442
 30
0.0
 10
87.88194339279417
 20
82.6209991914709
 30
0.0
 10
87.91768879230682
 20
82.48886332283627
 30
0.0
 10
87.9176887923068
 20
82.3641685710655
 30
0.0
  0
SPLINE
  5
B9
330
1F
100
AcDbEntity
  8
0
  6
Continuous
 62
     7
370
    15
100
AcDbSpline
210
0.0
220
0.0
230
1.0
 70
     8
 71
     3
 72
    14
 73
    10
 74
     0
 42
0.000000001
 43
0.00000001
 40
0.0
 40
0.0
 40
0.0
 40
0.0
 40
0.124999999999999
 40
0.124999999999999
 40
0.249999999999998
 40
0.249999999999998
 40
0.5000000000000007
 40
0.5000000000000007
 40
1.0
 40
1.0
 40
1.0
 40
1.0
 10
86.01768879230382
 20
84.69585043178758
 30
0.0
 10
86.0852710920883
 20
84.70300631688899
 30
0.0
 10
86.1577586698362
 20
84.69858184684995
 30
0.0
 10
86.29004977910215
 20
84.6688756890796
 30
0.0
 10
86.34732715849232
 20
84.64559140750139
 30
0.0
 10
86.4969775856926
 20
84.56810616765107
 30
0.0
 10
86.5706908812141
 20
84.50625434074969
 30
0.0
 10
86.75849886454034
 20
84.32157688810138
 30
0.0
 10
86.84253917090179
 20
84.19333396481015
 30
0.0
 10
86.91326632096808
 20
84.06702049268758
 30
0.0
  0
SPLINE
  5
BA
330
1F
100
AcDbEntity
  8
0
  6
Continuous
 62
     7
370
    15
100
AcDbSpline
210
0.0
220
0.0
230
1.0
 70
     8
 71
     3
 72
     8
 73
     4
 74
     0
 42
0.000000001
 43
0.00000001
 40
0.0
 40
0.0
 40
0.0
 40
0.0
 40
1.0
 40
1.0
 40
1.0
 40
1.0
 10
82.47304840422302
 20
84.27780184699579
 30
0.0
 10
83.6383467149319
 20
84.4329893188824
 30
0.0
 10
84.82296192897171
 20
84.56934795719273
 30
0.0
 10
86.01768879230379
 20
84.69585043178759
 30
0.0
  0
SPLINE
  5
BB
330
1F
100
AcDbEntity
  8
0
  6
Continuous
 62
     7
370
    15
100
AcDbSpline
210
0.0
220
0.0
230
1.0
 70
     8
 71
     3
 72
    14
 73
    10
 74
     0
 42
0.000000001
 43
0.00000001
 40
0.0
 40
0.0
 40
0.0
 40
0.0
 40
0.4999999999999972
 40
0.4999999999999972
 40
0.7499999999999971
 40
0.7499999999999971
 40
0.8749999999999986
 40
0.8749999999999986
 40
1.0
 40
1.0
 40
1.0
 40
1.0
 10
74.71761390827511
 20
83.98766966786587
 30
0.0
 10
76.02591547080887
 20
83.99468439160701
 30
0.0
 10
77.33097484546566
 20
84.01009296805148
 30
0.0
 10
79.27685089695399
 20
84.06398952351815
 30
0.0
 10
79.923548400693
 20
84.08702108812085
 30
0.0
 10
80.88739076454733
 20
84.13796361299161
 30
0.0
 10
81.20762945648141
 20
84.15769853522481
 30
0.0
 10
81.84432468282382
 20
84.20718566369636
 30
0.0
 10
82.16104009110676
 20
84.2362504426256
 30
0.0
 10
82.47304840422306
 20
84.27780184699577
 30
0.0
  0
SPLINE
  5
BC
330
1F
100
AcDbEntity
  8
0
  6
Continuous
 62
     7
370
    15
100
AcDbSpline
210
0.0
220
0.0
230
1.0
 70
     8
 71
     3
 72
    12
 73
     8
 74
     0
 42
0.000000001
 43
0.00000001
 40
0.0
 40
0.0
 40
0.0
 40
0.0
 40
0.2500000000000009
 40
0.2500000000000009
 40
0.5000000000000018
 40
0.5000000000000018
 40
1.0
 40
1.0
 40
1.0
 40
1.0
 10
81.01768879230382
 20
148.3200247279274
 30
0.0
 10
80.4989899704756
 20
148.3525475027756
 30
0.0
 10
79.97727839727062
 20
148.3758442439461
 30
0.0
 10
78.93098638077505
 20
148.4136897583682
 30
0.0
 10
78.40631475510479
 20
148.4279582328644
 30
0.0
 10
76.82946873256557
 20
148.4621677203227
 30
0.0
 10
75.77451341801863
 20
148.4736672242666
 30
0.0
 10
74.71761390827342
 20
148.4793340049961
 30
0.0
  0
SPLINE
  5
BD
330
1F
100
AcDbEntity
  8
0
  6
Continuous
 62
     7
370
    15
100
AcDbSpline
210
0.0
220
0.0
230
1.0
 70
     8
 71
     3
 72
    20
 73
    16
 74
     0
 42
0.000000001
 43
0.00000001
 40
0.0
 40
0.0
 40
0.0
 40
0.0
 40
0.2500000000000011
 40
0.2500000000000011
 40
0.5000000000000021
 40
0.5000000000000021
 40
0.7500000000000031
 40
0.7500000000000031
 40
0.8750000000000008
 40
0.8750000000000008
 40
0.9375000000000006
 40
0.9375000000000006
 40
0.9687500000000003
 40
0.9687500000000003
 40
1.0
 40
1.0
 40
1.0
 40
1.0
 10
82.9176887923038
 20
149.9781105734156
 30
0.0
 10
82.91768879230379
 20
149.8424282536688
 30
0.0
 10
82.86897700308718
 20
149.7013412675287
 30
0.0
 10
82.699815579862
 20
149.4092695487982
 30
0.0
 10
82.57803516594367
 20
149.2576208067078
 30
0.0
 10
82.28048807119417
 20
148.9552123665547
 30
0.0
 10
82.10657546549139
 20
148.8026237304313
 30
0.0
 10
81.78716063160957
 20
148.577352966589
 30
0.0
 10
81.67211985616231
 20
148.5026298720783
 30
0.0
 10
81.46503553214589
 20
148.4032194628213
 30
0.0
 10
81.3889276973395
 20
148.3716543704767
 30
0.0
 10
81.25753315778617
 20
148.3372109862838
 30
0.0
 10
81.2109799387847
 20
148.3281594145161
 30
0.0
 10
81.11464658770399
 20
148.3179837656777
 30
0.0
 10
81.06538716434855
 20
148.3170340070027
 30
0.0
 10
81.01768879230181
 20
148.3200247279173
 30
0.0
  0
LINE
  5
BE
330
1F
100
AcDbEntity
  8
0
  6
Continuous
 62
     7
370
    15
100
AcDbLine
 10
82.9176893466
 20
149.9781089572
 30
0.0
 11
82.9176893466
 21
152.2470156399
 31
0.0
  0
SPLINE
  5
BF
330
1F
100
AcDbEntity
  8
0
  6
Continuous
 62
     7
370
    15
100
AcDbSpline
210
0.0
220
0.0
230
1.0
 70
     8
 71
     3
 72
    24
 73
    20
 74
     0
 42
0.000000001
 43
0.00000001
 40
0.0
 40
0.0
 40
0.0
 40
0.0
 40
0.0002934239329635
 40
0.0628079954843725
 40
0.1260453886222317
 40
0.1890746649056576
 40
0.2513200327496127
 40
0.3133304381321615
 40
0.3759158074016681
 40
0.4383740215105411
 40
0.5000631209931454
 40
0.5616593985498132
 40
0.6245050468179062
 40
0.6872231543007362
 40
0.7494953203649202
 40
0.811758388799549
 40
0.8747365576758938
 40
0.937898032705022
 40
1.0
 40
1.0
 40
1.0
 40
1.0
 10
101.2376444422758
 20
79.30225531734226
 30
0.0
 10
101.237449898493
 20
79.30223162008164
 30
0.0
 10
101.1958074022373
 20
79.29715917277923
 30
0.0
 10
101.3408306144101
 20
79.31560046292533
 30
0.0
 10
101.6959478414286
 20
79.35820279169214
 30
0.0
 10
102.3005133950646
 20
79.4263131250185
 30
0.0
 10
103.1069505534704
 20
79.49957843834643
 30
0.0
 10
104.0924276634916
 20
79.56409404165514
 30
0.0
 10
105.2240968048739
 20
79.60266095693443
 30
0.0
 10
106.4463897185362
 20
79.60635025878125
 30
0.0
 10
107.7137188644965
 20
79.56393183238711
 30
0.0
 10
108.9802041075935
 20
79.47567696613558
 30
0.0
 10
110.1963422384542
 20
79.34729135890457
 30
0.0
 10
111.3217516640699
 20
79.19464363223463
 30
0.0
 10
112.2991698572879
 20
79.03287325086963
 30
0.0
 10
113.1024345378055
 20
78.8803408143932
 30
0.0
 10
113.690927946837
 20
78.75632717563232
 30
0.0
 10
114.0798346833224
 20
78.67140558448169
 30
0.0
 10
114.1265954996927
 20
78.6606798761736
 30
0.0
 10
114.149778150872
 20
78.65536238230465
 30
0.0
  0
SPLINE
  5
C0
330
1F
100
AcDbEntity
  8
0
  6
Continuous
 62
     7
370
    15
100
AcDbSpline
210
0.0
220
0.0
230
1.0
 70
     8
 71
     3
 72
    27
 73
    23
 74
     0
 42
0.000000001
 43
0.00000001
 40
0.0
 40
0.0
 40
0.0
 40
0.0
 40
0.0619954680688691
 40
0.1254397621813206
 40
0.1886583727463894
 40
0.2510346191260212
 40
0.3131782550161729
 40
0.3756730771103807
 40
0.438240102585083
 40
0.499824338552288
 40
0.5615387009126992
 40
0.6240931220670074
 40
0.6867530144355115
 40
0.7488662870717026
 40
0.8111008374917962
 40
0.8742090103085145
 40
0.9448189516773964
 40
0.9756082665127883
 40
0.9877505319198371
 40
0.9999433694577808
 40
0.9999501670932723
 40
1.0
 40
1.0
 40
1.0
 40
1.0
 10
114.1496570789373
 20
153.8115965870738
 30
0.0
 10
114.1260854879783
 20
153.8062870020304
 30
0.0
 10
114.0783914410385
 20
153.7955437476302
 30
0.0
 10
113.6863483476594
 20
153.7103168624537
 30
0.0
 10
113.0958357024726
 20
153.5857481814977
 30
0.0
 10
112.2917972544058
 20
153.4327992713277
 30
0.0
 10
111.3157224880056
 20
153.2710420687211
 30
0.0
 10
110.1939141751091
 20
153.1188086507858
 30
0.0
 10
108.9803825393331
 20
152.9910332969818
 30
0.0
 10
107.7155521085024
 20
152.9031847789761
 30
0.0
 10
106.4475087368139
 20
152.8607967492801
 30
0.0
 10
105.2240014358799
 20
152.8645357848675
 30
0.0
 10
104.0905020902046
 20
152.9031243983958
 30
0.0
 10
103.1043974675735
 20
152.9675703318372
 30
0.0
 10
102.2957676251334
 20
153.0410790655415
 30
0.0
 10
101.6755390903861
 20
153.1110495108765
 30
0.0
 10
101.35738590873
 20
153.1496009035234
 30
0.0
 10
101.2617244628877
 20
153.1616719558531
 30
0.0
 10
101.2401056340381
 20
153.16443237661
 30
0.0
 10
101.2372646664665
 20
153.1647607580285
 30
0.0
 10
101.2369442910868
 20
153.1648156952461
 30
0.0
 10
101.2369798512334
 20
153.1648095991908
 30
0.0
 10
101.237011142925
 20
153.1648042348742
 30
0.0
  0
SPLINE
  5
C1
330
1F
100
AcDbEntity
  8
0
  6
Continuous
 62
     7
370
    15
100
AcDbSpline
210
0.0
220
0.0
230
1.0
 70
     8
 71
     3
 72
    20
 73
    16
 74
     0
 42
0.000000001
 43
0.00000001
 40
0.0
 40
0.0
 40
0.0
 40
0.0
 40
0.249999999999986
 40
0.249999999999986
 40
0.3749999999999789
 40
0.3749999999999789
 40
0.4374999999999789
 40
0.4374999999999789
 40
0.4999999999999789
 40
0.4999999999999789
 40
0.6249999999999835
 40
0.6249999999999835
 40
0.7499999999999879
 40
0.7499999999999879
 40
1.0
 40
1.0
 40
1.0
 40
1.0
 10
73.10850302401983
 20
85.55501868373031
 30
0.0
 10
73.13477524123323
 20
85.57433662481276
 30
0.0
 10
73.16545538348807
 20
85.58872533591453
 30
0.0
 10
73.23692625386998
 20
85.58182097407851
 30
0.0
 10
73.26495329091432
 20
85.57465497073011
 30
0.0
 10
73.32003688041183
 20
85.54495594402651
 30
0.0
 10
73.34092820896426
 20
85.53148230146518
 30
0.0
 10
73.3861368564097
 20
85.49628403594916
 30
0.0
 10
73.41054106880529
 20
85.4743758072219
 30
0.0
 10
73.48187338685675
 20
85.40225094722636
 30
0.0
 10
73.523770171677
 20
85.34991040627631
 30
0.0
 10
73.59534613053289
 20
85.25242701437556
 30
0.0
 10
73.62617412035019
 20
85.20567324449713
 30
0.0
 10
73.70927405318575
 20
85.07238002865802
 30
0.0
 10
73.75412895855605
 20
84.98974263074281
 30
0.0
 10
73.79424103400864
 20
84.91063573595203
 30
0.0
  0
SPLINE
  5
C2
330
1F
100
AcDbEntity
  8
0
  6
Continuous
 62
     7
370
    15
100
AcDbSpline
210
0.0
220
0.0
230
1.0
 70
     8
 71
     3
 72
    14
 73
    10
 74
     0
 42
0.000000001
 43
0.00000001
 40
0.0
 40
0.0
 40
0.0
 40
0.0
 40
0.25
 40
0.25
 40
0.5
 40
0.5
 40
0.75
 40
0.75
 40
1.0
 40
1.0
 40
1.0
 40
1.0
 10
72.81768879230383
 20
85.73083209386307
 30
0.0
 10
72.81768879230383
 20
85.68958516283872
 30
0.0
 10
72.82629850868508
 20
85.65267819055624
 30
0.0
 10
72.85738468825541
 20
85.59177813065683
 30
0.0
 10
72.87977424173947
 20
85.56759721111715
 30
0.0
 10
72.93451817291559
 20
85.5336296202339
 30
0.0
 10
72.96696841250078
 20
85.5237095362657
 30
0.0
 10
73.03696992722884
 20
85.52235832736085
 30
0.0
 10
73.0751804273514
 20
85.53051660405701
 30
0.0
 10
73.10850302402447
 20
85.5550186837251
 30
0.0
  0
LINE
  5
C3
330
1F
100
AcDbEntity
  8
0
  6
Continuous
 62
     7
370
    15
100
AcDbLine
 10
72.81768974
 20
85.7308323232
 30
0.0
 11
72.81768974
 21
146.7361713497
 31
0.0
  0
SPLINE
  5
C4
330
1F
100
AcDbEntity
  8
0
  6
Continuous
 62
     7
370
    15
100
AcDbSpline
210
0.0
220
0.0
230
1.0
 70
     8
 71
     3
 72
     9
 73
     5
 74
     0
 42
0.000000001
 43
0.00000001
 40
0.0
 40
0.0
 40
0.0
 40
0.0
 40
0.0592942499244465
 40
1.0
 40
1.0
 40
1.0
 40
1.0
 10
73.10850452716709
 20
146.9119845626473
 30
0.0
 10
73.10362152946834
 20
146.9152777023451
 30
0.0
 10
73.02126956945573
 20
146.9708166408081
 30
0.0
 10
72.95513891504042
 20
146.9135244376954
 30
0.0
 10
72.8929294281757
 20
146.8596293327927
 30
0.0
  0
SPLINE
  5
C5
330
1F
100
AcDbEntity
  8
0
  6
Continuous
 62
     7
370
    15
100
AcDbSpline
210
0.0
220
0.0
230
1.0
 70
     8
 71
     3
 72
     8
 73
     4
 74
     0
 42
0.000000001
 43
0.00000001
 40
0.0
 40
0.0
 40
0.0
 40
0.0
 40
1.0
 40
1.0
 40
1.0
 40
1.0
 10
72.84132246124001
 20
146.8437510800686
 30
0.0
 10
72.82597342260397
 20
146.8132410250726
 30
0.0
 10
72.81768879230383
 20
146.7769294695603
 30
0.0
 10
72.81768879230383
 20
146.7361715789989
 30
0.0
  0
SPLINE
  5
C6
330
1F
100
AcDbEntity
  8
0
  6
Continuous
 62
     7
370
    15
100
AcDbSpline
210
0.0
220
0.0
230
1.0
 70
     8
 71
     3
 72
    20
 73
    16
 74
     0
 42
0.000000001
 43
0.00000001
 40
0.0
 40
0.0
 40
0.0
 40
0.0
 40
0.2500000000000037
 40
0.2500000000000037
 40
0.3750000000000055
 40
0.3750000000000055
 40
0.5000000000000073
 40
0.5000000000000073
 40
0.5625000000000057
 40
0.5625000000000057
 40
0.625000000000004
 40
0.625000000000004
 40
0.7500000000000027
 40
0.7500000000000027
 40
1.0
 40
1.0
 40
1.0
 40
1.0
 10
73.79424103400622
 20
147.5563679369092
 30
0.0
 10
73.75424481618239
 20
147.4774895303517
 30
0.0
 10
73.70913118834474
 20
147.3943598836602
 30
0.0
 10
73.62587697397821
 20
147.2608712193093
 30
0.0
 10
73.59565764535772
 20
147.2150061634273
 30
0.0
 10
73.52356941021628
 20
147.1168146110224
 30
0.0
 10
73.48165209280522
 20
147.0645047914988
 30
0.0
 10
73.41040148825374
 20
146.9924988887643
 30
0.0
 10
73.38616567587442
 20
146.9707286764628
 30
0.0
 10
73.34056748568979
 20
146.9352540181337
 30
0.0
 10
73.31976499609007
 20
146.9218838339562
 30
0.0
 10
73.26482399767096
 20
146.8923139218209
 30
0.0
 10
73.23675500958413
 20
146.885187399519
 30
0.0
 10
73.16625217952131
 20
146.8783130280363
 30
0.0
 10
73.13482809173043
 20
146.8926281871234
 30
0.0
 10
73.10850302402183
 20
146.911984989134
 30
0.0
  0
SPLINE
  5
C7
330
1F
100
AcDbEntity
  8
0
  6
Continuous
 62
     7
370
    15
100
AcDbSpline
210
0.0
220
0.0
230
1.0
 70
     8
 71
     3
 72
    10
 73
     6
 74
     0
 42
0.000000001
 43
0.00000001
 40
0.0
 40
0.0
 40
0.0
 40
0.0
 40
0.4999999999999989
 40
0.4999999999999989
 40
1.0
 40
1.0
 40
1.0
 40
1.0
 10
74.4676887923038
 20
148.481787038251
 30
0.0
 10
74.34280052155361
 20
148.3507907601795
 30
0.0
 10
74.22135040349318
 20
148.2070779235145
 30
0.0
 10
73.99176642853575
 20
147.8965076308253
 30
0.0
 10
73.88149145313977
 20
147.7284385577622
 30
0.0
 10
73.79424103400623
 20
147.5563679369092
 30
0.0
  0
SPLINE
  5
C8
330
1F
100
AcDbEntity
  8
0
  6
Continuous
 62
     7
370
    15
100
AcDbSpline
210
0.0
220
0.0
230
1.0
 70
     8
 71
     3
 72
     8
 73
     4
 74
     0
 42
0.000000001
 43
0.00000001
 40
0.0
 40
0.0
 40
0.0
 40
0.0
 40
1.0
 40
1.0
 40
1.0
 40
1.0
 10
74.71761390826956
 20
148.4793340049956
 30
0.0
 10
74.63059587842119
 20
148.4798005697827
 30
0.0
 10
74.54764185204125
 20
148.4808405893588
 30
0.0
 10
74.4676887923015
 20
148.4817870382511
 30
0.0
  0
SPLINE
  5
C9
330
1F
100
AcDbEntity
  8
0
  6
Continuous
 62
     7
370
    15
100
AcDbSpline
210
0.0
220
0.0
230
1.0
 70
     8
 71
     3
 72
     8
 73
     4
 74
     0
 42
0.000000001
 43
0.00000001
 40
0.0
 40
0.0
 40
0.0
 40
0.0
 40
1.0
 40
1.0
 40
1.0
 40
1.0
 10
74.4676887923015
 20
83.98521663461092
 30
0.0
 10
74.54764185204176
 20
83.98616308350319
 30
0.0
 10
74.63059587842227
 20
83.98720310307932
 30
0.0
 10
74.71761390827125
 20
83.98766966786638
 30
0.0
  0
SPLINE
  5
CA
330
1F
100
AcDbEntity
  8
0
  6
Continuous
 62
     7
370
    15
100
AcDbSpline
210
0.0
220
0.0
230
1.0
 70
     8
 71
     3
 72
    10
 73
     6
 74
     0
 42
0.000000001
 43
0.00000001
 40
0.0
 40
0.0
 40
0.0
 40
0.0
 40
0.4999999999999989
 40
0.4999999999999989
 40
1.0
 40
1.0
 40
1.0
 40
1.0
 10
73.79424103400531
 20
84.9106357359546
 30
0.0
 10
73.88149145313879
 20
84.73856511510122
 30
0.0
 10
73.99176642853494
 20
84.57049604203779
 30
0.0
 10
74.22135040349279
 20
84.25992574934799
 30
0.0
 10
74.34280052155343
 20
84.1162129126827
 30
0.0
 10
74.4676887923038
 20
83.985216634611
 30
0.0
  0
SPLINE
  5
CB
330
1F
100
AcDbEntity
  8
0
  6
Continuous
 62
     7
370
    15
100
AcDbSpline
210
0.0
220
0.0
230
1.0
 70
    11
 71
     3
 72
    39
 73
    35
 74
     0
 42
0.000000001
 43
0.00000001
 40
0.0
 40
0.0
 40
0.0
 40
0.0
 40
0.0306866738518472
 40
0.0618946367627188
 40
0.0930865862145014
 40
0.1241487895875035
 40
0.1552889579681974
 40
0.1868607750220874
 40
0.2185614603448376
 40
0.249920125607664
 40
0.2812988168883229
 40
0.3130451589054882
 40
0.3446715430669484
 40
0.3758551876763332
 40
0.4069242206801237
 40
0.4380723595190464
 40
0.469254774523128
 40
0.5000100191874137
 40
0.5307540932505641
 40
0.5619663246264706
 40
0.5931178220284328
 40
0.624201833386564
 40
0.6553676205388833
 40
0.686987025294268
 40
0.7186996714126731
 40
0.750082635950042
 40
0.7814325435534794
 40
0.8131586190553585
 40
0.8447348520573809
 40
0.8758904110186827
 40
0.906935146716302
 40
0.9381238485826203
 40
0.9693342753526522
 40
1.0
 40
1.0
 40
1.0
 40
1.0
 10
214.6676887923038
 20
109.7659213040522
 30
0.0
 10
214.2554184424083
 20
109.7659582709287
 30
0.0
 10
213.4238923306444
 20
109.8503387764733
 30
0.0
 10
212.2285537413751
 20
110.2298491604748
 30
0.0
 10
211.1232442813678
 20
110.827062498107
 30
0.0
 10
210.1628908333188
 20
111.6333921607001
 30
0.0
 10
209.374399735488
 20
112.6148707122703
 30
0.0
 10
208.791705202808
 20
113.742097390621
 30
0.0
 10
208.4219819070732
 20
114.9619496195641
 30
0.0
 10
208.2998264050107
 20
116.230551735838
 30
0.0
 10
208.4224113677846
 20
117.4996905116553
 30
0.0
 10
208.7918991426741
 20
118.7212448411823
 30
0.0
 10
209.3743390385959
 20
119.8507951191183
 30
0.0
 10
210.1631310009782
 20
120.8338589504421
 30
0.0
 10
211.122917523585
 20
121.6409375184801
 30
0.0
 10
212.2270934361977
 20
122.2385690000658
 30
0.0
 10
213.4227353295586
 20
122.617413479874
 30
0.0
 10
214.6679280261361
 20
122.7426826985688
 30
0.0
 10
215.9134950460073
 20
122.6171386592538
 30
0.0
 10
217.1093086146894
 20
122.2378546968984
 30
0.0
 10
218.2139943920492
 20
121.6398298333355
 30
0.0
 10
219.1735900689521
 20
120.8324792928041
 30
0.0
 10
219.9620366299762
 20
119.8493328629382
 30
0.0
 10
220.5439980589493
 20
118.7204053829157
 30
0.0
 10
220.9130422491897
 20
117.4992406552352
 30
0.0
 10
221.0355368725489
 20
116.2306196455372
 30
0.0
 10
220.9133817732119
 20
114.9617325380857
 30
0.0
 10
220.5434147673869
 20
113.7416492675628
 30
0.0
 10
219.9604242400337
 20
112.6138982109669
 30
0.0
 10
219.171675623984
 20
111.6325618511344
 30
0.0
 10
218.2111901323337
 20
110.8265090273104
 30
0.0
 10
217.1060057758706
 20
110.2296214836727
 30
0.0
 10
215.9109914790238
 20
109.8500330512402
 30
0.0
 10
215.0796776931277
 20
109.7658843624123
 30
0.0
 10
214.6676887923038
 20
109.7659213040522
 30
0.0
  0
LINE
  5
CC
330
1F
100
AcDbEntity
  8
0
  6
Continuous
 62
     7
370
    15
100
AcDbLine
 10
230.7176915937
 20
116.2335018364
 30
0.0
 11
230.7176915937
 21
84.8335030226
 31
0.0
  0
LINE
  5
CD
330
1F
100
AcDbEntity
  8
0
  6
Continuous
 62
     7
370
    15
100
AcDbLine
 10
230.7176915937
 20
147.6335006503
 30
0.0
 11
230.7176915937
 21
116.2335018364
 31
0.0
  0
SPLINE
  5
CE
330
1F
100
AcDbEntity
  8
0
  6
Continuous
 62
     7
370
    15
100
AcDbSpline
210
0.0
220
0.0
230
1.0
 70
     8
 71
     3
 72
    10
 73
     6
 74
     0
 42
0.000000001
 43
0.00000001
 40
0.0
 40
0.0
 40
0.0
 40
0.0
 40
0.5
 40
0.5
 40
1.0
 40
1.0
 40
1.0
 40
1.0
 10
141.6076887923038
 20
161.1077775966035
 30
0.0
 10
141.3951524784475
 20
161.1077775966035
 30
0.0
 10
141.1852163067934
 20
161.1991901832336
 30
0.0
 10
140.8915091657822
 20
161.5039350491378
 30
0.0
 10
140.8076887923038
 20
161.7160900190465
 30
0.0
 10
140.8076887923038
 20
161.927053077279
 30
0.0
  0
SPLINE
  5
CF
330
1F
100
AcDbEntity
  8
0
  6
Continuous
 62
     7
370
    15
100
AcDbSpline
210
0.0
220
0.0
230
1.0
 70
     8
 71
     3
 72
    14
 73
    10
 74
     0
 42
0.000000001
 43
0.00000001
 40
0.0
 40
0.0
 40
0.0
 40
0.0
 40
0.25
 40
0.25
 40
0.5
 40
0.5
 40
0.75
 40
0.75
 40
1.0
 40
1.0
 40
1.0
 40
1.0
 10
140.8076887923038
 20
150.9477370289281
 30
0.0
 10
140.8076887923038
 20
150.8238701521388
 30
0.0
 10
140.8235479199314
 20
150.6996104753013
 30
0.0
 10
140.8869095654513
 20
150.4620021128955
 30
0.0
 10
140.9354992735007
 20
150.345221728143
 30
0.0
 10
141.0677848782755
 20
150.136419199534
 30
0.0
 10
141.1531096695361
 20
150.0419084959414
 30
0.0
 10
141.3600009178423
 20
149.9039516951391
 30
0.0
 10
141.4839688637323
 20
149.8620332495034
 30
0.0
 10
141.6076887923038
 20
149.8620332495034
 30
0.0
  0
SPLINE
  5
D0
330
1F
100
AcDbEntity
  8
0
  6
Continuous
 62
     7
370
    15
100
AcDbSpline
210
0.0
220
0.0
230
1.0
 70
     8
 71
     3
 72
     8
 73
     4
 74
     0
 42
0.000000001
 43
0.00000001
 40
0.0
 40
0.0
 40
0.0
 40
0.0
 40
1.0
 40
1.0
 40
1.0
 40
1.0
 10
140.8076887923038
 20
162.8307726971359
 30
0.0
 10
140.3573805566193
 20
163.6284878222495
 30
0.0
 10
139.9066867400957
 20
164.4259861219067
 30
0.0
 10
139.4556597713824
 20
165.2232966920946
 30
0.0
  0
LINE
  5
D1
330
1F
100
AcDbEntity
  8
0
  6
Continuous
 62
     7
370
    15
100
AcDbLine
 10
140.8076891684
 20
152.1289500145
 30
0.0
 11
140.8076891684
 21
162.8307739941
 31
0.0
  0
SPLINE
  5
D2
330
1F
100
AcDbEntity
  8
0
  6
Continuous
 62
     7
370
    15
100
AcDbSpline
210
0.0
220
0.0
230
1.0
 70
     8
 71
     3
 72
     8
 73
     4
 74
     0
 42
0.000000001
 43
0.00000001
 40
0.0
 40
0.0
 40
0.0
 40
0.0
 40
1.0
 40
1.0
 40
1.0
 40
1.0
 10
139.4556597713824
 20
155.1844645973179
 30
0.0
 10
139.9125861251819
 20
154.1685466276436
 30
0.0
 10
140.363791766985
 20
153.1497507985525
 30
0.0
 10
140.8076887923038
 20
152.1289493425688
 30
0.0
  0
LINE
  5
D3
330
1F
100
AcDbEntity
  8
0
  6
Continuous
 62
     7
370
    15
100
AcDbLine
 10
150.6676888102
 20
165.2232969848
 30
0.0
 11
145.979718306
 21
165.2232969848
 31
0.0
  0
LINE
  5
D4
330
1F
100
AcDbEntity
  8
0
  6
Continuous
 62
     7
370
    15
100
AcDbLine
 10
145.979718306
 20
155.1844629196
 30
0.0
 11
150.6676888102
 21
155.1844629196
 31
0.0
  0
LINE
  5
D5
330
1F
100
AcDbEntity
  8
0
  6
Continuous
 62
     7
370
    15
100
AcDbLine
 10
145.979718306
 20
155.1844629196
 30
0.0
 11
145.979718306
 21
165.2232969848
 31
0.0
  0
SPLINE
  5
D6
330
1F
100
AcDbEntity
  8
0
  6
Continuous
 62
     7
370
    15
100
AcDbSpline
210
0.0
220
0.0
230
1.0
 70
     8
 71
     3
 72
    12
 73
     8
 74
     0
 42
0.000000001
 43
0.00000001
 40
0.0
 40
0.0
 40
0.0
 40
0.0
 40
0.4999999999999953
 40
0.4999999999999953
 40
0.7499999999999977
 40
0.7499999999999977
 40
1.0
 40
1.0
 40
1.0
 40
1.0
 10
151.6676887923038
 20
164.2022416572768
 30
0.0
 10
151.6676887923038
 20
164.4675110900432
 30
0.0
 10
151.5630820488174
 20
164.7300261956956
 30
0.0
 10
151.286413697072
 20
165.0155638017329
 30
0.0
 10
151.1760484377201
 20
165.0918854185943
 30
0.0
 10
150.9319763891043
 20
165.1962275834344
 30
0.0
 10
150.8002239277726
 20
165.2232966920946
 30
0.0
 10
150.6676887923038
 20
165.2232966920946
 30
0.0
  0
SPLINE
  5
D7
330
1F
100
AcDbEntity
  8
0
  6
Continuous
 62
     7
370
    15
100
AcDbSpline
210
0.0
220
0.0
230
1.0
 70
     8
 71
     3
 72
    16
 73
    12
 74
     0
 42
0.000000001
 43
0.00000001
 40
0.0
 40
0.0
 40
0.0
 40
0.0
 40
0.1249999999999978
 40
0.1249999999999978
 40
0.2499999999999955
 40
0.2499999999999955
 40
0.499999999999997
 40
0.499999999999997
 40
0.7499999999999984
 40
0.7499999999999984
 40
1.0
 40
1.0
 40
1.0
 40
1.0
 10
150.6676887923038
 20
155.1844645973179
 30
0.0
 10
150.743326498715
 20
155.1844645973179
 30
0.0
 10
150.8196421631332
 20
155.173119597183
 30
0.0
 10
150.9640529010252
 20
155.1304670465445
 30
0.0
 10
151.0324993501336
 20
155.0995327218616
 30
0.0
 10
151.2274306027468
 20
154.980276350094
 30
0.0
 10
151.3352717765276
 20
154.8701243364735
 30
0.0
 10
151.5039845247397
 20
154.6219882508154
 30
0.0
 10
151.5663489374632
 20
154.4816459268117
 30
0.0
 10
151.6476528619716
 20
154.1933742353231
 30
0.0
 10
151.6676887923038
 20
154.0425692623432
 30
0.0
 10
151.6676887923038
 20
153.892199370998
 30
0.0
  0
LINE
  5
D8
330
1F
100
AcDbEntity
  8
0
  6
Continuous
 62
     7
370
    15
100
AcDbLine
 10
151.6676889741
 20
153.8922006933
 30
0.0
 11
151.6676889741
 21
164.2022433428
 31
0.0
  0
SPLINE
  5
D9
330
1F
100
AcDbEntity
  8
0
  6
Continuous
 62
     7
370
    15
100
AcDbSpline
210
0.0
220
0.0
230
1.0
 70
     8
 71
     3
 72
     8
 73
     4
 74
     0
 42
0.000000001
 43
0.00000001
 40
0.0
 40
0.0
 40
0.0
 40
0.0
 40
1.0
 40
1.0
 40
1.0
 40
1.0
 10
145.9797178132252
 20
165.2232966920946
 30
0.0
 10
145.5286908445119
 20
164.4259861219067
 30
0.0
 10
145.0779970279884
 20
163.6284878222495
 30
0.0
 10
144.6276887923038
 20
162.8307726971359
 30
0.0
  0
SPLINE
  5
DA
330
1F
100
AcDbEntity
  8
0
  6
Continuous
 62
     7
370
    15
100
AcDbSpline
210
0.0
220
0.0
230
1.0
 70
     8
 71
     3
 72
     8
 73
     4
 74
     0
 42
0.000000001
 43
0.00000001
 40
0.0
 40
0.0
 40
0.0
 40
0.0
 40
1.0
 40
1.0
 40
1.0
 40
1.0
 10
144.6276887923038
 20
152.1289493425688
 30
0.0
 10
145.0718388033293
 20
153.1503325735205
 30
0.0
 10
145.5229131135872
 20
154.1688171102888
 30
0.0
 10
145.9797178132252
 20
155.1844645973179
 30
0.0
  0
LINE
  5
DB
330
1F
100
AcDbEntity
  8
0
  6
Continuous
 62
     7
370
    15
100
AcDbLine
 10
144.6276893848
 20
152.1289500145
 30
0.0
 11
144.6276893848
 21
162.8307739941
 31
0.0
  0
SPLINE
  5
DC
330
1F
100
AcDbEntity
  8
0
  6
Continuous
 62
     7
370
    15
100
AcDbSpline
210
0.0
220
0.0
230
1.0
 70
     8
 71
     3
 72
    14
 73
    10
 74
     0
 42
0.000000001
 43
0.00000001
 40
0.0
 40
0.0
 40
0.0
 40
0.0
 40
0.25
 40
0.25
 40
0.5
 40
0.5
 40
0.75
 40
0.75
 40
1.0
 40
1.0
 40
1.0
 40
1.0
 10
144.6276887923038
 20
161.927053077279
 30
0.0
 10
144.6276887923038
 20
161.8206963835266
 30
0.0
 10
144.6073012361626
 20
161.7148558957665
 30
0.0
 10
144.528666890701
 20
161.5182909822301
 30
0.0
 10
144.4699355310624
 20
161.427120239943
 30
0.0
 10
144.3233266254599
 20
161.2752091509113
 30
0.0
 10
144.2339213054333
 20
161.2131403140918
 30
0.0
 10
144.040030572833
 20
161.1298722663331
 30
0.0
 10
143.9335255829431
 20
161.1077775966034
 30
0.0
 10
143.8276887923038
 20
161.1077775966034
 30
0.0
  0
SPLINE
  5
DD
330
1F
100
AcDbEntity
  8
0
  6
Continuous
 62
     7
370
    15
100
AcDbSpline
210
0.0
220
0.0
230
1.0
 70
     8
 71
     3
 72
    12
 73
     8
 74
     0
 42
0.000000001
 43
0.00000001
 40
0.0
 40
0.0
 40
0.0
 40
0.0
 40
0.2500000000000029
 40
0.2500000000000029
 40
0.5000000000000059
 40
0.5000000000000059
 40
1.0
 40
1.0
 40
1.0
 40
1.0
 10
143.8276887923038
 20
149.8620332495035
 30
0.0
 10
143.9513897422838
 20
149.8620332495035
 30
0.0
 10
144.075486354554
 20
149.904026861236
 30
0.0
 10
144.282141517641
 20
150.0418221878804
 30
0.0
 10
144.3671822843679
 20
150.1357957863453
 30
0.0
 10
144.5666608528415
 20
150.4505839925662
 30
0.0
 10
144.6276887923038
 20
150.7008229847938
 30
0.0
 10
144.6276887923038
 20
150.9477370289281
 30
0.0
  0
LINE
  5
DE
330
1F
100
AcDbEntity
  8
0
  6
Continuous
 62
     7
370
    15
100
AcDbLine
 10
140.8076891684
 20
152.1289500145
 30
0.0
 11
140.8076891684
 21
150.9477386919
 31
0.0
  0
LINE
  5
DF
330
1F
100
AcDbEntity
  8
0
  6
Continuous
 62
     7
370
    15
100
AcDbLine
 10
141.6076896721
 20
149.8620326368
 30
0.0
 11
143.8276888811
 21
149.8620326368
 31
0.0
  0
LINE
  5
E0
330
1F
100
AcDbEntity
  8
0
  6
Continuous
 62
     7
370
    15
100
AcDbLine
 10
144.6276893848
 20
150.9477386919
 30
0.0
 11
144.6276893848
 21
152.1289500145
 31
0.0
  0
LINE
  5
E1
330
1F
100
AcDbEntity
  8
0
  6
Continuous
 62
     7
370
    15
100
AcDbLine
 10
151.6676889741
 20
153.8922006933
 30
0.0
 11
151.6676889741
 21
147.5835035292
 31
0.0
  0
LINE
  5
E2
330
1F
100
AcDbEntity
  8
0
  6
Continuous
 62
     7
370
    15
100
AcDbLine
 10
143.8276888811
 20
161.1077788023
 30
0.0
 11
141.6076896721
 21
161.1077788023
 31
0.0
  0
LINE
  5
E3
330
1F
100
AcDbEntity
  8
0
  6
Continuous
 62
     7
370
    15
100
AcDbLine
 10
74.4676878684
 20
83.9835035352
 30
0.0
 11
74.4676878684
 21
83.9852171687
 31
0.0
  0
LINE
  5
E4
330
1F
100
AcDbEntity
  8
0
  6
Continuous
 62
     7
370
    15
100
AcDbLine
 10
74.4676878684
 20
148.4835001377
 30
0.0
 11
74.4676878684
 21
148.4817865042
 31
0.0
  0
SPLINE
  5
E5
330
1F
100
AcDbEntity
  8
0
  6
Continuous
 62
     7
370
    15
100
AcDbSpline
210
0.0
220
0.0
230
1.0
 70
    24
 71
     3
 72
    11
 73
     7
 74
     0
 42
0.000000001
 43
0.00000001
 40
0.0
 40
0.0
 40
0.0
 40
0.0
 40
0.1336639911161971
 40
0.4825479332588308
 40
0.8156347776491869
 40
1.0
 40
1.0
 40
1.0
 40
1.0
 10
216.3997394972599
 20
113.233501810354
 30
0.0
 10
216.2546188405987
 20
113.233501810354
 30
0.0
 10
215.7307105511616
 20
113.233501810354
 30
0.0
 10
214.7519861887066
 20
113.233501810354
 30
0.0
 10
213.7008467957009
 20
113.233501810354
 30
0.0
 10
213.1366550542705
 20
113.233501810354
 30
0.0
 10
212.9356367522037
 20
113.233501810354
 30
0.0
  0
SPLINE
  5
E6
330
1F
100
AcDbEntity
  8
0
  6
Continuous
 62
     7
370
    15
100
AcDbSpline
210
0.0
220
0.0
230
1.0
 70
     8
 71
     3
 72
    11
 73
     7
 74
     0
 42
0.000000001
 43
0.00000001
 40
0.0
 40
0.0
 40
0.0
 40
0.0
 40
0.2164558591131071
 40
0.4403109123478757
 40
0.7519012087894729
 40
1.0
 40
1.0
 40
1.0
 40
1.0
 10
218.1317908697879
 20
116.233501836431
 30
0.0
 10
218.0131415658468
 20
116.0279994001843
 30
0.0
 10
217.7717871230435
 20
115.6099697586478
 30
0.0
 10
217.3239160893029
 20
114.8342072205042
 30
0.0
 10
216.8434704845903
 20
114.0020778708176
 30
0.0
 10
216.5360241884022
 20
113.4695573350084
 30
0.0
 10
216.3997394972599
 20
113.233501810354
 30
0.0
  0
SPLINE
  5
E7
330
1F
100
AcDbEntity
  8
0
  6
Continuous
 62
     7
370
    15
100
AcDbSpline
210
0.0
220
0.0
230
1.0
 70
     8
 71
     3
 72
    11
 73
     7
 74
     0
 42
0.000000001
 43
0.00000001
 40
0.0
 40
0.0
 40
0.0
 40
0.0
 40
0.2164548799544309
 40
0.4403109735072329
 40
0.7519012102213773
 40
1.0
 40
1.0
 40
1.0
 40
1.0
 10
216.3997394972599
 20
119.233501862508
 30
0.0
 10
216.518385250087
 20
119.027998867059
 30
0.0
 10
216.7597335945585
 20
118.6099661389272
 30
0.0
 10
217.2076171174902
 20
117.8342101244912
 30
0.0
 10
217.6880591730001
 20
117.0020775190952
 30
0.0
 10
217.9955059509739
 20
116.4695572619788
 30
0.0
 10
218.1317908697879
 20
116.233501836431
 30
0.0
  0
SPLINE
  5
E8
330
1F
100
AcDbEntity
  8
0
  6
Continuous
 62
     7
370
    15
100
AcDbSpline
210
0.0
220
0.0
230
1.0
 70
    24
 71
     3
 72
    11
 73
     7
 74
     0
 42
0.000000001
 43
0.00000001
 40
0.0
 40
0.0
 40
0.0
 40
0.0
 40
0.1843652223508131
 40
0.5174520667411692
 40
0.8663360088838029
 40
1.0
 40
1.0
 40
1.0
 40
1.0
 10
212.9356367522037
 20
119.233501862508
 30
0.0
 10
213.1366550542705
 20
119.233501862508
 30
0.0
 10
213.7008467957009
 20
119.233501862508
 30
0.0
 10
214.7519861887066
 20
119.233501862508
 30
0.0
 10
215.7307105511616
 20
119.233501862508
 30
0.0
 10
216.2546188405987
 20
119.233501862508
 30
0.0
 10
216.3997394972599
 20
119.233501862508
 30
0.0
  0
SPLINE
  5
E9
330
1F
100
AcDbEntity
  8
0
  6
Continuous
 62
     7
370
    15
100
AcDbSpline
210
0.0
220
0.0
230
1.0
 70
     8
 71
     3
 72
    11
 73
     7
 74
     0
 42
0.000000001
 43
0.00000001
 40
0.0
 40
0.0
 40
0.0
 40
0.0
 40
0.2164558620365359
 40
0.440311930516652
 40
0.7519012054386781
 40
1.0
 40
1.0
 40
1.0
 40
1.0
 10
211.2035853796756
 20
116.233501836431
 30
0.0
 10
211.3222340050094
 20
116.4390046559187
 30
0.0
 10
211.5635876222425
 20
116.8570360380393
 30
0.0
 10
212.0114707581947
 20
117.6327919117256
 30
0.0
 10
212.4919041660987
 20
118.4649280163098
 30
0.0
 10
212.799351396969
 20
118.9974467181865
 30
0.0
 10
212.9356367522037
 20
119.233501862508
 30
0.0
  0
SPLINE
  5
EA
330
1F
100
AcDbEntity
  8
0
  6
Continuous
 62
     7
370
    15
100
AcDbSpline
210
0.0
220
0.0
230
1.0
 70
     8
 71
     3
 72
    11
 73
     7
 74
     0
 42
0.000000001
 43
0.00000001
 40
0.0
 40
0.0
 40
0.0
 40
0.0
 40
0.2164548944971353
 40
0.4403110030898985
 40
0.7519002350104895
 40
1.0
 40
1.0
 40
1.0
 40
1.0
 10
212.9356367522037
 20
113.233501810354
 30
0.0
 10
212.8169911262395
 20
113.4390048747417
 30
0.0
 10
212.5756430398313
 20
113.8570377431083
 30
0.0
 10
212.1277578792692
 20
114.632791477345
 30
0.0
 10
211.6473269546119
 20
115.4649299779143
 30
0.0
 10
211.3398737085685
 20
115.9974469338756
 30
0.0
 10
211.2035853796756
 20
116.233501836431
 30
0.0
  0
CIRCLE
  5
EB
330
1F
100
AcDbEntity
  8
0
  6
Continuous
 62
     7
370
    15
100
AcDbCircle
 10
214.6676887923
 20
116.2335018364
 30
0.0
 40
3.500000000000014
  0
CIRCLE
  5
EC
330
1F
100
AcDbEntity
  8
0
  6
Continuous
 62
     7
370
    15
100
AcDbCircle
 10
214.6676887923
 20
116.2335018364
 30
0.0
 40
5.500000000000014
  0
ARC
  5
ED
330
1F
100
AcDbEntity
  8
0
  6
Continuous
 62
     7
370
    15
100
AcDbCircle
 10
214.6676887923
 20
116.2335018364
 30
0.0
 40
6.000000000000014
100
AcDbArc
 50
214.4115086698
 51
270.0
  0
ARC
  5
EE
330
1F
100
AcDbEntity
  8
0
  6
Continuous
 62
     7
370
    15
100
AcDbCircle
 10
214.6676887923
 20
116.2335018364
 30
0.0
 40
6.000000000000008
100
AcDbArc
 50
34.6030006132
 51
145.5884913302
  0
ARC
  5
EF
330
1F
100
AcDbEntity
  8
0
  6
Continuous
 62
     7
370
    15
100
AcDbCircle
 10
214.6676887923
 20
116.2335018364
 30
0.0
 40
6.000000000000015
100
AcDbArc
 50
270.0
 51
325.4316605354
  0
ARC
  5
F0
330
1F
100
AcDbEntity
  8
0
  6
Continuous
 62
     7
370
    15
100
AcDbCircle
 10
214.6676887923
 20
116.2335018364
 30
0.0
 40
3.000000000000007
100
AcDbArc
 50
330.0
 51
30.0
  0
ARC
  5
F1
330
1F
100
AcDbEntity
  8
0
  6
Continuous
 62
     7
370
    15
100
AcDbCircle
 10
214.6676887923
 20
116.2335018364
 30
0.0
 40
3.0
100
AcDbArc
 50
90.0
 51
150.0
  0
ARC
  5
F2
330
1F
100
AcDbEntity
  8
0
  6
Continuous
 62
     7
370
    15
100
AcDbCircle
 10
214.6676887923
 20
116.2335018364
 30
0.0
 40
3.000000000000014
100
AcDbArc
 50
210.0
 51
270.0
  0
ARC
  5
F3
330
1F
100
AcDbEntity
  8
0
  6
Continuous
 62
     7
370
    15
100
AcDbCircle
 10
214.6676887923
 20
116.2335018364
 30
0.0
 40
3.000000000000007
100
AcDbArc
 50
150.0
 51
210.0
  0
ARC
  5
F4
330
1F
100
AcDbEntity
  8
0
  6
Continuous
 62
     7
370
    15
100
AcDbCircle
 10
214.6676887923
 20
116.2335018364
 30
0.0
 40
3.000000000000014
100
AcDbArc
 50
270.0
 51
330.0
  0
ARC
  5
F5
330
1F
100
AcDbEntity
  8
0
  6
Continuous
 62
     7
370
    15
100
AcDbCircle
 10
214.6676887923
 20
116.2335018364
 30
0.0
 40
3.0
100
AcDbArc
 50
30.0
 51
90.0
  0
LINE
  5
F6
330
1F
100
AcDbEntity
  8
0
  6
HIDDEN
 62
     7
370
     0
100
AcDbLine
 10
122.7176887923
 20
165.7335015682
 30
0.0
 11
122.7176887923
 21
66.7335021047
 31
0.0
  0
LINE
  5
F7
330
1F
100
AcDbEntity
  8
0
  6
HIDDEN
 62
     7
370
     0
100
AcDbLine
 10
127.6676887655
 20
66.2335010914
 30
0.0
 11
127.6676887655
 21
66.2435034958
 31
0.0
  0
SPLINE
  5
F8
330
1F
100
AcDbEntity
  8
0
  6
HIDDEN
 62
     7
370
     0
100
AcDbSpline
210
0.0
220
0.0
230
1.0
 70
     8
 71
     3
 72
    30
 73
    26
 74
     0
 42
0.000000001
 43
0.00000001
 40
0.0
 40
0.0
 40
0.0
 40
0.0
 40
0.1249999999999996
 40
0.1249999999999996
 40
0.1874999999999994
 40
0.1874999999999994
 40
0.2499999999999993
 40
0.2499999999999993
 40
0.3749999999999992
 40
0.3749999999999992
 40
0.4374999999999993
 40
0.4374999999999993
 40
0.4999999999999994
 40
0.4999999999999994
 40
0.6249999999999992
 40
0.6249999999999992
 40
0.6874999999999993
 40
0.6874999999999993
 40
0.7499999999999994
 40
0.7499999999999994
 40
0.8124999999999997
 40
0.8124999999999997
 40
0.8749999999999998
 40
0.8749999999999998
 40
1.0
 40
1.0
 40
1.0
 40
1.0
 10
127.6676887923038
 20
66.24350283663105
 30
0.0
 10
127.6676887923038
 20
66.25675754379395
 30
0.0
 10
127.7328890451763
 20
66.28294241457854
 30
0.0
 10
127.9240368138829
 20
66.33972906737904
 30
0.0
 10
128.0034284680582
 20
66.36157861825453
 30
0.0
 10
128.1942170368291
 20
66.41081211435493
 30
0.0
 10
128.3060521734002
 20
66.43828450310846
 30
0.0
 10
128.6824184501293
 20
66.52635822480177
 30
0.0
 10
128.9891723484167
 20
66.5931050807818
 30
0.0
 10
129.5323172024057
 20
66.70064149202653
 30
0.0
 10
129.7282976037621
 20
66.73790178553519
 30
0.0
 10
130.1444343128962
 20
66.81320919726652
 30
0.0
 10
130.3634125731899
 20
66.8510566222853
 30
0.0
 10
131.0522408788554
 20
66.96378892888205
 30
0.0
 10
131.5536652706192
 20
67.03789253396641
 30
0.0
 10
132.371593081575
 20
67.14177171431656
 30
0.0
 10
132.6543875162225
 20
67.17502746737509
 30
0.0
 10
133.2298804912807
 20
67.23679073177567
 30
0.0
 10
133.523977091408
 20
67.26548172332598
 30
0.0
 10
134.1247968612552
 20
67.31777345716694
 30
0.0
 10
134.4315197456165
 20
67.34137526807376
 30
0.0
 10
135.0578832263667
 20
67.38275524206364
 30
0.0
 10
135.3791069170895
 20
67.4005959687081
 30
0.0
 10
136.3499870769394
 20
67.44365957153076
 30
0.0
 10
137.0049344609504
 20
67.45850824340219
 30
0.0
 10
137.6676887923038
 20
67.4585082434022
 30
0.0
  0
LINE
  5
F9
330
1F
100
AcDbEntity
  8
0
  6
HIDDEN
 62
     7
370
     0
100
AcDbLine
 10
137.667688542
 20
67.4585069267
 30
0.0
 11
139.4556602472
 21
67.4585069267
 31
0.0
  0
LINE
  5
FA
330
1F
100
AcDbEntity
  8
0
  6
HIDDEN
 62
     7
370
     0
100
AcDbLine
 10
139.4556602472
 20
165.2232969848
 30
0.0
 11
139.4556602472
 21
67.4585069267
 31
0.0
  0
LINE
  5
FB
330
1F
100
AcDbEntity
  8
0
  6
HIDDEN
 62
     7
370
     0
100
AcDbLine
 10
137.667688542
 20
165.2232969848
 30
0.0
 11
139.4556602472
 21
165.2232969848
 31
0.0
  0
SPLINE
  5
FC
330
1F
100
AcDbEntity
  8
0
  6
HIDDEN
 62
     7
370
     0
100
AcDbSpline
210
0.0
220
0.0
230
1.0
 70
     8
 71
     3
 72
    17
 73
    13
 74
     0
 42
0.000000001
 43
0.00000001
 40
0.0
 40
0.0
 40
0.0
 40
0.0
 40
0.0675713803268669
 40
0.1712576030248766
 40
0.2779172511717157
 40
0.3822981657295449
 40
0.4896051291308794
 40
0.5957700724795216
 40
0.7049970045876547
 40
0.81132349772151
 40
0.9208377748585306
 40
1.0
 40
1.0
 40
1.0
 40
1.0
 10
127.7017616675353
 20
166.2267002014041
 30
0.0
 10
127.6992289517327
 20
166.2271985797391
 30
0.0
 10
127.6928098607598
 20
166.2284617044324
 30
0.0
 10
127.9965700831341
 20
166.1681323723771
 30
0.0
 10
128.5601229643367
 20
166.0611459692219
 30
0.0
 10
129.3913919164825
 20
165.9145946950174
 30
0.0
 10
130.4450228188167
 20
165.7483848148041
 30
0.0
 10
131.7181544853625
 20
165.5771027334991
 30
0.0
 10
133.1575497597758
 20
165.4225503717731
 30
0.0
 10
134.7433027240605
 20
165.3021034251077
 30
0.0
 10
136.2626205071997
 20
165.233888435196
 30
0.0
 10
137.2524076258005
 20
165.2264273864024
 30
0.0
 10
137.6676885419643
 20
165.2232969848037
 30
0.0
  0
SPLINE
  5
FD
330
1F
100
AcDbEntity
  8
0
  6
HIDDEN
 62
     7
370
     0
100
AcDbSpline
210
0.0
220
0.0
230
1.0
 70
    11
 71
     3
 72
    80
 73
    76
 74
     0
 42
0.000000001
 43
0.00000001
 40
0.0
 40
0.0
 40
0.0
 40
0.0
 40
0.0312499999999999
 40
0.0312499999999999
 40
0.0468749999999998
 40
0.0468749999999998
 40
0.0624999999999998
 40
0.0624999999999998
 40
0.0937499999999996
 40
0.0937499999999996
 40
0.1249999999999995
 40
0.1249999999999995
 40
0.1562499999999993
 40
0.1562499999999993
 40
0.1874999999999992
 40
0.1874999999999992
 40
0.218749999999999
 40
0.218749999999999
 40
0.2499999999999988
 40
0.2499999999999988
 40
0.2812499999999987
 40
0.2812499999999987
 40
0.3124999999999985
 40
0.3124999999999985
 40
0.3281249999999984
 40
0.3281249999999984
 40
0.3437499999999984
 40
0.3437499999999984
 40
0.3749999999999983
 40
0.3749999999999983
 40
0.4062499999999983
 40
0.4062499999999983
 40
0.4218749999999983
 40
0.4218749999999983
 40
0.4374999999999983
 40
0.4374999999999983
 40
0.4687499999999983
 40
0.4687499999999983
 40
0.4999999999999984
 40
0.4999999999999984
 40
0.5312499999999986
 40
0.5312499999999986
 40
0.5624999999999987
 40
0.5624999999999987
 40
0.5937499999999987
 40
0.5937499999999987
 40
0.6249999999999987
 40
0.6249999999999987
 40
0.6562499999999987
 40
0.6562499999999987
 40
0.6874999999999987
 40
0.6874999999999987
 40
0.7031249999999987
 40
0.7031249999999987
 40
0.7187499999999988
 40
0.7187499999999988
 40
0.749999999999999
 40
0.749999999999999
 40
0.7812499999999992
 40
0.7812499999999992
 40
0.7968749999999992
 40
0.7968749999999992
 40
0.8124999999999993
 40
0.8124999999999993
 40
0.8437499999999994
 40
0.8437499999999994
 40
0.8749999999999996
 40
0.8749999999999996
 40
0.9062499999999997
 40
0.9062499999999997
 40
0.9374999999999998
 40
0.9374999999999998
 40
0.9687499999999999
 40
0.9687499999999999
 40
1.0
 40
1.0
 40
1.0
 40
1.0
 10
124.7176887923038
 20
116.233501836431
 30
0.0
 10
124.7176887923038
 20
115.902956693371
 30
0.0
 10
124.7501438864843
 20
115.5779762912698
 30
0.0
 10
124.8454891407186
 20
115.0985020179217
 30
0.0
 10
124.8851059988724
 20
114.9400198388207
 30
0.0
 10
124.9803640946975
 20
114.6257994874372
 30
0.0
 10
125.0362602058414
 20
114.4696785519494
 30
0.0
 10
125.2245388665785
 20
114.0156225563391
 30
0.0
 10
125.3781292147611
 20
113.7285180953774
 30
0.0
 10
125.7409629055381
 20
113.1851626014519
 30
0.0
 10
125.952017127666
 20
112.9280584818326
 30
0.0
 10
126.4130174179407
 20
112.4671526805799
 30
0.0
 10
126.6645957202616
 20
112.2602560058514
 30
0.0
 10
127.2110681226562
 20
111.8947332835734
 30
0.0
 10
127.5017864147368
 20
111.7395287749015
 30
0.0
 10
128.1033295617189
 20
111.4900999454581
 30
0.0
 10
128.4186044074804
 20
111.3940104912833
 30
0.0
 10
129.0641040745992
 20
111.2654917986559
 30
0.0
 10
129.3886525406827
 20
111.2336809658641
 30
0.0
 10
130.0412582740831
 20
111.2333242012766
 30
0.0
 10
130.3727273005948
 20
111.2658213247906
 30
0.0
 10
131.0141415645931
 20
111.3934465348565
 30
0.0
 10
131.3259159800444
 20
111.487874631887
 30
0.0
 10
131.78011445197
 20
111.6757344595978
 30
0.0
 10
131.9299955777623
 20
111.7465619838299
 30
0.0
 10
132.2194497476225
 20
111.9012826965111
 30
0.0
 10
132.3594575800751
 20
111.9852585652986
 30
0.0
 10
132.7656635891618
 20
112.2565806010059
 30
0.0
 10
133.018180480308
 20
112.4631289544564
 30
0.0
 10
133.4851957194495
 20
112.9297390414314
 30
0.0
 10
133.6919795582792
 20
113.1821036613311
 30
0.0
 10
133.9636110508578
 20
113.5880059182343
 30
0.0
 10
134.0476897598209
 20
113.7279070222359
 30
0.0
 10
134.2026212953962
 20
114.0171322385694
 30
0.0
 10
134.2735980832319
 20
114.1669723763056
 30
0.0
 10
134.4619004670498
 20
114.6210907560527
 30
0.0
 10
134.5565784143741
 20
114.9327432333114
 30
0.0
 10
134.6847344088133
 20
115.5737416059814
 30
0.0
 10
134.717568510415
 20
115.9052689192261
 30
0.0
 10
134.7178083989797
 20
116.5580599397846
 30
0.0
 10
134.686275685482
 20
116.8825965727885
 30
0.0
 10
134.5584321998193
 20
117.5278676867314
 30
0.0
 10
134.4625397855059
 20
117.8436109453777
 30
0.0
 10
134.2135889563176
 20
118.4455018377024
 30
0.0
 10
134.0586968748465
 20
118.73625161317
 30
0.0
 10
133.6935732210239
 20
119.2831658551598
 30
0.0
 10
133.4868688094967
 20
119.5349434585668
 30
0.0
 10
133.0263677118531
 20
119.996330372746
 30
0.0
 10
132.7694550942038
 20
120.2075984084567
 30
0.0
 10
132.2264119097178
 20
120.5709007626714
 30
0.0
 10
131.9394876761233
 20
120.7247063208267
 30
0.0
 10
131.4857629189772
 20
120.9133245769616
 30
0.0
 10
131.3297269011837
 20
120.9693547471242
 30
0.0
 10
131.0154907493695
 20
121.0649280996
 30
0.0
 10
130.8570182135312
 20
121.1046908680195
 30
0.0
 10
130.3776281510252
 20
121.2004623243936
 30
0.0
 10
130.0527768576647
 20
121.2331851738115
 30
0.0
 10
129.3921184382614
 20
121.233813969708
 30
0.0
 10
129.0665912041441
 20
121.2016277945671
 30
0.0
 10
128.587060056456
 20
121.1067173624444
 30
0.0
 10
128.4285801019659
 20
121.0672507207504
 30
0.0
 10
128.1144044334865
 20
120.9723211785177
 30
0.0
 10
127.9582030497969
 20
120.9165646796266
 30
0.0
 10
127.5037935602624
 20
120.728625704264
 30
0.0
 10
127.2165366120466
 20
120.575265236789
 30
0.0
 10
126.6729811991741
 20
120.2130027254661
 30
0.0
 10
126.4156402055623
 20
120.0021554951612
 30
0.0
 10
125.9542449436341
 20
119.5414869734249
 30
0.0
 10
125.7471598143218
 20
119.2901125632234
 30
0.0
 10
125.3812904309928
 20
118.7442026852293
 30
0.0
 10
125.2256775942376
 20
118.453379079169
 30
0.0
 10
124.9757143626936
 20
117.8520499776058
 30
0.0
 10
124.8794855622828
 20
117.5375296951734
 30
0.0
 10
124.7501477361602
 20
116.8909476569281
 30
0.0
 10
124.7176887923038
 20
116.564046979491
 30
0.0
 10
124.7176887923038
 20
116.233501836431
 30
0.0
  0
LINE
  5
FE
330
1F
100
AcDbEntity
  8
0
  6
HIDDEN
 62
     7
370
     0
100
AcDbLine
 10
144.6276893848
 20
70.7703235296
 30
0.0
 11
144.6276893848
 21
147.5835035292
 31
0.0
  0
LINE
  5
FF
330
1F
100
AcDbEntity
  8
0
  6
HIDDEN
 62
     7
370
     0
100
AcDbLine
 10
140.8076891684
 20
70.7703235296
 30
0.0
 11
140.8076891684
 21
147.5835035292
 31
0.0
  0
LINE
  5
100
330
1F
100
AcDbEntity
  8
0
  6
HIDDEN
 62
     7
370
     0
100
AcDbLine
 10
127.6676887655
 20
147.5835035292
 30
0.0
 11
137.3756555849
 21
147.5835035292
 31
0.0
  0
LINE
  5
101
330
1F
100
AcDbEntity
  8
0
  6
HIDDEN
 62
     7
370
     0
100
AcDbLine
 10
122.7176887923
 20
76.8288190214
 30
0.0
 11
122.7176887923
 21
155.6112731544
 31
0.0
  0
LINE
  5
102
330
1F
100
AcDbEntity
  8
0
  6
HIDDEN
 62
     7
370
     0
100
AcDbLine
 10
120.2176888482
 20
154.1157516388
 30
0.0
 11
120.2176888482
 21
78.3512520341
 31
0.0
  0
SPLINE
  5
103
330
1F
100
AcDbEntity
  8
0
  6
HIDDEN
 62
     7
370
     0
100
AcDbSpline
210
0.0
220
0.0
230
1.0
 70
     8
 71
     3
 72
     8
 73
     4
 74
     0
 42
0.000000001
 43
0.00000001
 40
0.0
 40
0.0
 40
0.0
 40
0.0
 40
1.0
 40
1.0
 40
1.0
 40
1.0
 10
82.47304840422302
 20
84.27780184699579
 30
0.0
 10
83.63834671493184
 20
84.4329893188824
 30
0.0
 10
84.8229619289716
 20
84.5693479571927
 30
0.0
 10
86.01768879230362
 20
84.69585043178755
 30
0.0
  0
SPLINE
  5
104
330
1F
100
AcDbEntity
  8
0
  6
HIDDEN
 62
     7
370
     0
100
AcDbSpline
210
0.0
220
0.0
230
1.0
 70
     8
 71
     3
 72
    14
 73
    10
 74
     0
 42
0.000000001
 43
0.00000001
 40
0.0
 40
0.0
 40
0.0
 40
0.0
 40
0.1249999999999987
 40
0.1249999999999987
 40
0.2499999999999973
 40
0.2499999999999973
 40
0.4999999999999947
 40
0.4999999999999947
 40
1.0
 40
1.0
 40
1.0
 40
1.0
 10
86.01768879230373
 20
84.69585043178758
 30
0.0
 10
86.08527109208822
 20
84.70300631688899
 30
0.0
 10
86.15775866983611
 20
84.69858184684998
 30
0.0
 10
86.29004977910206
 20
84.66887568907966
 30
0.0
 10
86.34732715849225
 20
84.6455914075014
 30
0.0
 10
86.49697758569255
 20
84.5681061676511
 30
0.0
 10
86.57069088121408
 20
84.5062543407497
 30
0.0
 10
86.75849886454034
 20
84.32157688810139
 30
0.0
 10
86.84253917090179
 20
84.19333396481017
 30
0.0
 10
86.91326632096808
 20
84.06702049268758
 30
0.0
  0
SPLINE
  5
105
330
1F
100
AcDbEntity
  8
0
  6
HIDDEN
 62
     7
370
     0
100
AcDbSpline
210
0.0
220
0.0
230
1.0
 70
     8
 71
     3
 72
    14
 73
    10
 74
     0
 42
0.000000001
 43
0.00000001
 40
0.0
 40
0.0
 40
0.0
 40
0.0
 40
0.25
 40
0.25
 40
0.5
 40
0.5
 40
0.75
 40
0.75
 40
1.0
 40
1.0
 40
1.0
 40
1.0
 10
86.91326632096686
 20
84.06702049268746
 30
0.0
 10
87.00203489891217
 20
83.90848636137952
 30
0.0
 10
87.12375273759109
 20
83.75604368449096
 30
0.0
 10
87.35880234744792
 20
83.45890906066204
 30
0.0
 10
87.47443253366481
 20
83.31422641704468
 30
0.0
 10
87.67483746709262
 20
83.03093721454127
 30
0.0
 10
87.76023775907696
 20
82.89238322150442
 30
0.0
 10
87.88194339279417
 20
82.6209991914709
 30
0.0
 10
87.91768879230682
 20
82.48886332283627
 30
0.0
 10
87.9176887923068
 20
82.3641685710655
 30
0.0
  0
LINE
  5
106
330
1F
100
AcDbEntity
  8
0
  6
HIDDEN
 62
     7
370
     0
100
AcDbLine
 10
87.9176883035
 20
82.3641682712
 30
0.0
 11
87.9176883035
 21
79.9694883374
 31
0.0
  0
LINE
  5
107
330
1F
100
AcDbEntity
  8
0
  6
HIDDEN
 62
     7
370
     0
100
AcDbLine
 10
82.9176893466
 20
152.2470156399
 30
0.0
 11
82.9176893466
 21
149.9781089572
 31
0.0
  0
SPLINE
  5
108
330
1F
100
AcDbEntity
  8
0
  6
HIDDEN
 62
     7
370
     0
100
AcDbSpline
210
0.0
220
0.0
230
1.0
 70
     8
 71
     3
 72
    20
 73
    16
 74
     0
 42
0.000000001
 43
0.00000001
 40
0.0
 40
0.0
 40
0.0
 40
0.0
 40
0.2499999999999997
 40
0.2499999999999997
 40
0.4999999999999994
 40
0.4999999999999994
 40
0.7499999999999991
 40
0.7499999999999991
 40
0.8750000000000007
 40
0.8750000000000007
 40
0.9375000000000008
 40
0.9375000000000008
 40
0.9687500000000003
 40
0.9687500000000003
 40
1.0
 40
1.0
 40
1.0
 40
1.0
 10
82.9176887923038
 20
149.9781105734156
 30
0.0
 10
82.91768879230379
 20
149.8424282536688
 30
0.0
 10
82.86897700308718
 20
149.7013412675287
 30
0.0
 10
82.699815579862
 20
149.4092695487982
 30
0.0
 10
82.57803516594367
 20
149.2576208067078
 30
0.0
 10
82.28048807119417
 20
148.9552123665547
 30
0.0
 10
82.10657546549139
 20
148.8026237304313
 30
0.0
 10
81.78716063160957
 20
148.577352966589
 30
0.0
 10
81.67211985616233
 20
148.5026298720784
 30
0.0
 10
81.4650355321459
 20
148.4032194628213
 30
0.0
 10
81.38892769733953
 20
148.3716543704768
 30
0.0
 10
81.25753315778617
 20
148.3372109862838
 30
0.0
 10
81.2109799387847
 20
148.3281594145162
 30
0.0
 10
81.11464658770402
 20
148.3179837656777
 30
0.0
 10
81.06538716434855
 20
148.3170340070027
 30
0.0
 10
81.01768879230181
 20
148.3200247279173
 30
0.0
  0
SPLINE
  5
109
330
1F
100
AcDbEntity
  8
0
  6
HIDDEN
 62
     7
370
     0
100
AcDbSpline
210
0.0
220
0.0
230
1.0
 70
     8
 71
     3
 72
    12
 73
     8
 74
     0
 42
0.000000001
 43
0.00000001
 40
0.0
 40
0.0
 40
0.0
 40
0.0
 40
0.2500000000000009
 40
0.2500000000000009
 40
0.5000000000000018
 40
0.5000000000000018
 40
1.0
 40
1.0
 40
1.0
 40
1.0
 10
81.01768879230382
 20
148.3200247279274
 30
0.0
 10
80.4989899704756
 20
148.3525475027756
 30
0.0
 10
79.97727839727062
 20
148.3758442439461
 30
0.0
 10
78.93098638077505
 20
148.4136897583682
 30
0.0
 10
78.40631475510479
 20
148.4279582328644
 30
0.0
 10
76.82946873256557
 20
148.4621677203227
 30
0.0
 10
75.77451341801863
 20
148.4736672242666
 30
0.0
 10
74.71761390827342
 20
148.4793340049961
 30
0.0
  0
SPLINE
  5
10A
330
1F
100
AcDbEntity
  8
0
  6
HIDDEN
 62
     7
370
     0
100
AcDbSpline
210
0.0
220
0.0
230
1.0
 70
     8
 71
     3
 72
    14
 73
    10
 74
     0
 42
0.000000001
 43
0.00000001
 40
0.0
 40
0.0
 40
0.0
 40
0.0
 40
0.4999999999999986
 40
0.4999999999999986
 40
0.7499999999999978
 40
0.7499999999999978
 40
0.8749999999999989
 40
0.8749999999999989
 40
1.0
 40
1.0
 40
1.0
 40
1.0
 10
74.71761390827511
 20
83.98766966786587
 30
0.0
 10
76.02591547080887
 20
83.994684391607
 30
0.0
 10
77.33097484546566
 20
84.0100929680515
 30
0.0
 10
79.27685089695397
 20
84.06398952351813
 30
0.0
 10
79.923548400693
 20
84.08702108812085
 30
0.0
 10
80.88739076454735
 20
84.13796361299161
 30
0.0
 10
81.20762945648141
 20
84.15769853522481
 30
0.0
 10
81.84432468282382
 20
84.20718566369636
 30
0.0
 10
82.16104009110674
 20
84.2362504426256
 30
0.0
 10
82.47304840422306
 20
84.27780184699577
 30
0.0
  0
SPLINE
  5
10B
330
1F
100
AcDbEntity
  8
0
  6
HIDDEN
 62
     7
370
     0
100
AcDbSpline
210
0.0
220
0.0
230
1.0
 70
     8
 71
     3
 72
    12
 73
     8
 74
     0
 42
0.000000001
 43
0.00000001
 40
0.0
 40
0.0
 40
0.0
 40
0.0
 40
0.0839234870308008
 40
0.2482589358335761
 40
0.4996929268810884
 40
0.7517603429422128
 40
1.0
 40
1.0
 40
1.0
 40
1.0
 10
103.1311126434362
 20
79.49769522227047
 30
0.0
 10
103.0418567347716
 20
79.48973302864101
 30
0.0
 10
102.7778236531411
 20
79.46617960173657
 30
0.0
 10
102.2078551281976
 20
79.41805009797397
 30
0.0
 10
101.7066273435388
 20
79.35865183436708
 30
0.0
 10
101.3076603165126
 20
79.311508848985
 30
0.0
 10
101.2608637229278
 20
79.30532405497607
 30
0.0
 10
101.2376444422758
 20
79.30225531734226
 30
0.0
  0
SPLINE
  5
10C
330
1F
100
AcDbEntity
  8
0
  6
HIDDEN
 62
     7
370
     0
100
AcDbSpline
210
0.0
220
0.0
230
1.0
 70
     8
 71
     3
 72
    20
 73
    16
 74
     0
 42
0.000000001
 43
0.00000001
 40
0.0
 40
0.0
 40
0.0
 40
0.0
 40
0.000418356455708
 40
0.0837682262268331
 40
0.1682467902922527
 40
0.2524475361374566
 40
0.3356320373710427
 40
0.4186123827497615
 40
0.5021246419430109
 40
0.5856817837477536
 40
0.6679083590237711
 40
0.7502171307502373
 40
0.8336315605145959
 40
0.9171894258508728
 40
0.9999999999999999
 40
0.9999999999999999
 40
0.9999999999999999
 40
0.9999999999999999
 10
114.149778150872
 20
78.65536238230465
 30
0.0
 10
114.1499836770642
 20
78.65531622452282
 30
0.0
 10
114.1911365368512
 20
78.64607397319607
 30
0.0
 10
114.0453405333443
 20
78.67885447616096
 30
0.0
 10
113.690955744348
 20
78.75583222665003
 30
0.0
 10
113.0889871492775
 20
78.88284647214212
 30
0.0
 10
112.286399231245
 20
79.03512492157006
 30
0.0
 10
111.307740769379
 20
79.19698946178941
 30
0.0
 10
110.1842483258932
 20
79.3490424330196
 30
0.0
 10
108.9693741929508
 20
79.47665488075268
 30
0.0
 10
107.704758430791
 20
79.56434970390846
 30
0.0
 10
106.4367136427793
 20
79.60661928324335
 30
0.0
 10
105.2175414280372
 20
79.6024906867982
 30
0.0
 10
104.0759166221048
 20
79.5641566745812
 30
0.0
 10
103.4451028097456
 20
79.51978260011323
 30
0.0
 10
103.1311126434362
 20
79.49769522227047
 30
0.0
  0
SPLINE
  5
10D
330
1F
100
AcDbEntity
  8
0
  6
HIDDEN
 62
     7
370
     0
100
AcDbSpline
210
0.0
220
0.0
230
1.0
 70
     8
 71
     3
 72
    20
 73
    16
 74
     0
 42
0.000000001
 43
0.00000001
 40
0.0
 40
0.0
 40
0.0
 40
0.0
 40
0.0828827278793062
 40
0.1664508331454459
 40
0.2499279818252359
 40
0.3323672054462719
 40
0.4145715067767342
 40
0.4982798081023107
 40
0.5816916488161002
 40
0.664690177201951
 40
0.7477267608560128
 40
0.8318096774656802
 40
0.9161489614604951
 40
0.9994284432461001
 40
1.0
 40
1.0
 40
1.0
 40
1.0
 10
103.131023236469
 20
152.9692935494303
 30
0.0
 10
103.4457402260264
 20
152.9472820113751
 30
0.0
 10
104.0777766762881
 20
152.9030769165157
 30
0.0
 10
105.2200086968108
 20
152.8647673771461
 30
0.0
 10
106.4401815738933
 20
152.8606562968063
 30
0.0
 10
107.7090214048985
 20
152.902821127498
 30
0.0
 10
108.9750367221348
 20
152.99063253084
 30
0.0
 10
110.189578588984
 20
153.1185266769248
 30
0.0
 10
111.3124718061172
 20
153.2707558210983
 30
0.0
 10
112.2896140117147
 20
153.4324514587499
 30
0.0
 10
113.091245860271
 20
153.5844900178946
 30
0.0
 10
113.6921982533161
 20
153.7112602056914
 30
0.0
 10
114.0458854075338
 20
153.7881070085846
 30
0.0
 10
114.1916459540127
 20
153.8210097369281
 30
0.0
 10
114.1499413514719
 20
153.8116603158582
 30
0.0
 10
114.1496570789373
 20
153.8115965870738
 30
0.0
  0
SPLINE
  5
10E
330
1F
100
AcDbEntity
  8
0
  6
HIDDEN
 62
     7
370
     0
100
AcDbSpline
210
0.0
220
0.0
230
1.0
 70
     8
 71
     3
 72
    12
 73
     8
 74
     0
 42
0.000000001
 43
0.00000001
 40
0.0
 40
0.0
 40
0.0
 40
0.0
 40
0.1661348483723788
 40
0.3322012848936272
 40
0.5008930844532496
 40
0.7521368938593884
 40
1.0
 40
1.0
 40
1.0
 40
1.0
 10
101.237011142925
 20
153.1648042348742
 30
0.0
 10
101.2474038844991
 20
153.1634273418408
 30
0.0
 10
101.2681850880715
 20
153.1606741227579
 30
0.0
 10
101.4414841219645
 20
153.1390683680552
 30
0.0
 10
101.7634349374811
 20
153.1012050813208
 30
0.0
 10
102.284600071009
 20
153.0408189830608
 30
0.0
 10
102.8501591203612
 20
152.9930274552538
 30
0.0
 10
103.131023236469
 20
152.9692935494303
 30
0.0
  0
LINE
  5
10F
330
1F
100
AcDbEntity
  8
0
  6
HIDDEN
 62
     7
370
     0
100
AcDbLine
 10
151.6676889741
 20
80.2335033862
 30
0.0
 11
151.6676889741
 21
152.2064286021
 31
0.0
  0
LINE
  5
110
330
1F
100
AcDbEntity
  8
0
  6
HIDDEN
 62
     7
370
     0
100
AcDbLine
 10
72.8929294282
 20
146.8596293328
 30
0.0
 11
72.8413229817
 21
146.8437502829
 31
0.0
  0
SPLINE
  5
111
330
1F
100
AcDbEntity
  8
0
  6
HIDDEN
 62
     7
370
     0
100
AcDbSpline
210
0.0
220
0.0
230
1.0
 70
    11
 71
     3
 72
    49
 73
    45
 74
     0
 42
0.000000001
 43
0.00000001
 40
0.0
 40
0.0
 40
0.0
 40
0.0
 40
0.0163562299157439
 40
0.0344980933153193
 40
0.0544360058727507
 40
0.0761776092763503
 40
0.0997285949677521
 40
0.1250932404653969
 40
0.1502368394476632
 40
0.1736501224623169
 40
0.1953375803215197
 40
0.2153050828432089
 40
0.2335603761414907
 40
0.2501138302434177
 40
0.2849137154960485
 40
0.3265070708789455
 40
0.3749352392480896
 40
0.396832822256767
 40
0.417386660391482
 40
0.4365993791516547
 40
0.4544742940809903
 40
0.4710156251917396
 40
0.4862288033573269
 40
0.5001209194206045
 40
0.53452316900189
 40
0.5761215682200176
 40
0.6249545217946114
 40
0.6466317659356573
 40
0.6670386327163159
 40
0.6861778996522686
 40
0.7040530180655837
 40
0.7206683106633388
 40
0.7360292481498621
 40
0.7501428451949863
 40
0.7848854157546007
 40
0.8264379007106407
 40
0.8748416545900685
 40
0.8967158354002168
 40
0.917252733064637
 40
0.9364549953948789
 40
0.9543259609973597
 40
0.9708698729342973
 40
0.9860921834924923
 40
1.0
 40
1.0
 40
1.0
 40
1.0
 10
214.6676887923038
 20
110.733501836431
 30
0.0
 10
214.8565050319341
 20
110.7335032391637
 30
0.0
 10
215.2547937796763
 20
110.7540347770989
 30
0.0
 10
215.8757221481227
 20
110.854312185287
 30
0.0
 10
216.5395108387287
 20
111.0450866592917
 30
0.0
 10
217.2293218294216
 20
111.345521588009
 30
0.0
 10
217.9223208769226
 20
111.7731140111721
 30
0.0
 10
218.571014802243
 20
112.326221071102
 30
0.0
 10
219.1235637419305
 20
112.973230552841
 30
0.0
 10
219.5499771744539
 20
113.6613691330818
 30
0.0
 10
219.8513977747763
 20
114.348746299257
 30
0.0
 10
220.0441841904227
 20
115.0130480247707
 30
0.0
 10
220.1463988399545
 20
115.6377466944875
 30
0.0
 10
220.1888283997475
 20
116.4410856219714
 30
0.0
 10
220.0709734026649
 20
117.5164435536989
 30
0.0
 10
219.5732579313937
 20
118.8806973150898
 30
0.0
 10
218.8001477133089
 20
119.933254596457
 30
0.0
 10
218.0131801794906
 20
120.6193565034556
 30
0.0
 10
217.4211124553849
 20
121.0111595461965
 30
0.0
 10
216.8260361233984
 20
121.3058229984517
 30
0.0
 10
216.2437249584766
 20
121.5140592260951
 30
0.0
 10
215.6867378833354
 20
121.6475929585363
 30
0.0
 10
215.164322764407
 20
121.7187549282112
 30
0.0
 10
214.4314572842349
 20
121.7509574187171
 30
0.0
 10
213.3914777198375
 20
121.6378235979487
 30
0.0
 10
212.0262256766327
 20
121.1429475402988
 30
0.0
 10
210.9709767470883
 20
120.3691279676547
 30
0.0
 10
210.2844860319106
 20
119.5820050229688
 30
0.0
 10
209.8946921370138
 20
118.994684389836
 30
0.0
 10
209.5999436843668
 20
118.4024494728264
 30
0.0
 10
209.3903842559817
 20
117.8205597058749
 30
0.0
 10
209.2551228311473
 20
117.2613119000717
 30
0.0
 10
209.1825796890829
 20
116.7338842422589
 30
0.0
 10
209.149912187368
 20
115.9928119404592
 30
0.0
 10
209.2654233956313
 20
114.9468473559411
 30
0.0
 10
209.7633461681015
 20
113.5842760583493
 30
0.0
 10
210.5361482239
 20
112.5328161887457
 30
0.0
 10
211.3226486105125
 20
111.8473424371306
 30
0.0
 10
211.9142342246192
 20
111.4558846139523
 30
0.0
 10
212.5089691726923
 20
111.1613503086007
 30
0.0
 10
213.0911279240294
 20
110.9531002029624
 30
0.0
 10
213.6482023268489
 20
110.8194909753592
 30
0.0
 10
214.1708897977107
 20
110.7482376174652
 30
0.0
 10
214.5071370253048
 20
110.7335006436776
 30
0.0
 10
214.6676887923038
 20
110.733501836431
 30
0.0
  0
LINE
  5
112
330
1F
100
AcDbEntity
  8
0
  6
HIDDEN
 62
     7
370
     0
100
AcDbLine
 10
230.7176915937
 20
84.8335030226
 30
0.0
 11
230.7176915937
 21
147.6335006503
 31
0.0
  0
SPLINE
  5
113
330
1F
100
AcDbEntity
  8
0
  6
HIDDEN
 62
     7
370
     0
100
AcDbSpline
210
0.0
220
0.0
230
1.0
 70
    11
 71
     3
 72
    66
 73
    62
 74
     0
 42
0.000000001
 43
0.00000001
 40
0.0
 40
0.0
 40
0.0
 40
0.0
 40
0.0625000000000002
 40
0.0625000000000002
 40
0.1250000000000004
 40
0.1250000000000004
 40
0.1562500000000005
 40
0.1562500000000005
 40
0.1875000000000005
 40
0.1875000000000005
 40
0.2187500000000006
 40
0.2187500000000006
 40
0.2500000000000006
 40
0.2500000000000006
 40
0.2812500000000007
 40
0.2812500000000007
 40
0.3125000000000007
 40
0.3125000000000007
 40
0.3437500000000008
 40
0.3437500000000008
 40
0.3750000000000008
 40
0.3750000000000008
 40
0.4062500000000008
 40
0.4062500000000008
 40
0.4375000000000009
 40
0.4375000000000009
 40
0.4687500000000009
 40
0.4687500000000009
 40
0.500000000000001
 40
0.500000000000001
 40
0.531250000000001
 40
0.531250000000001
 40
0.562500000000001
 40
0.562500000000001
 40
0.593750000000001
 40
0.593750000000001
 40
0.625000000000001
 40
0.625000000000001
 40
0.656250000000001
 40
0.656250000000001
 40
0.687500000000001
 40
0.687500000000001
 40
0.718750000000001
 40
0.718750000000001
 40
0.7500000000000009
 40
0.7500000000000009
 40
0.7812500000000009
 40
0.7812500000000009
 40
0.8125000000000008
 40
0.8125000000000008
 40
0.8437500000000007
 40
0.8437500000000007
 40
0.8750000000000006
 40
0.8750000000000006
 40
0.9062500000000004
 40
0.9062500000000004
 40
0.9375000000000003
 40
0.9375000000000003
 40
0.9687500000000002
 40
0.9687500000000002
 40
1.0
 40
1.0
 40
1.0
 40
1.0
 10
112.9708944474948
 20
84.86717961568394
 30
0.0
 10
112.6496077430184
 20
84.9209884467294
 30
0.0
 10
112.2435286191265
 20
84.98455806127016
 30
0.0
 10
111.2621619498478
 20
85.11153931975063
 30
0.0
 10
110.7101976938206
 20
85.17168315846715
 30
0.0
 10
109.7968964400031
 20
85.24187438712603
 30
0.0
 10
109.4824694110129
 20
85.26152992958774
 30
0.0
 10
108.8448847050463
 20
85.291311161047
 30
0.0
 10
108.5200575919761
 20
85.30157325180016
 30
0.0
 10
107.8578939241121
 20
85.31166379673807
 30
0.0
 10
107.5245414278295
 20
85.3113424180375
 30
0.0
 10
106.869123188638
 20
85.30030444631525
 30
0.0
 10
106.5446268307574
 20
85.2896310899551
 30
0.0
 10
105.9022003310778
 20
85.2586239389828
 30
0.0
 10
105.5877467321499
 20
85.23838767368638
 30
0.0
 10
104.9873993168279
 20
85.19135420773344
 30
0.0
 10
104.6990432122255
 20
85.16443832387154
 30
0.0
 10
104.1463373140815
 20
85.1058768420578
 30
0.0
 10
103.8848788768649
 20
85.07449742463724
 30
0.0
 10
103.4037851728906
 20
85.01166831365592
 30
0.0
 10
103.1820182244625
 20
84.97998685386408
 30
0.0
 10
102.7768001278803
 20
84.91861285275773
 30
0.0
 10
102.595133792333
 20
84.88917318845901
 30
0.0
 10
102.2832370766467
 20
84.83669253812556
 30
0.0
 10
102.151225893519
 20
84.8133757048488
 30
0.0
 10
101.936194925601
 20
84.77456847479736
 30
0.0
 10
101.8540719498943
 20
84.759239924915
 30
0.0
 10
101.7455621176984
 20
84.73884423521788
 30
0.0
 10
101.718029987703
 20
84.73356682599832
 30
0.0
 10
101.7173538572392
 20
84.73343803930806
 30
0.0
 10
101.7449027173403
 20
84.73871874933475
 30
0.0
 10
101.852880565731
 20
84.7590175080033
 30
0.0
 10
101.9331504729087
 20
84.77400654139849
 30
0.0
 10
102.1467997299188
 20
84.8125889662577
 30
0.0
 10
102.2808552948329
 20
84.83628008008218
 30
0.0
 10
102.5927106651334
 20
84.88877697973307
 30
0.0
 10
102.771381742992
 20
84.9177515393549
 30
0.0
 10
103.1747288372377
 20
84.9789221976631
 30
0.0
 10
103.4001756912467
 20
85.01117018992745
 30
0.0
 10
103.8814879557869
 20
85.0740809348072
 30
0.0
 10
104.1391070590297
 20
85.105033435285
 30
0.0
 10
104.6888519474906
 20
85.16343343592825
 30
0.0
 10
104.9823664219847
 20
85.19091376091009
 30
0.0
 10
105.5832666012936
 20
85.23808210953617
 30
0.0
 10
105.8930588142426
 20
85.25806674592644
 30
0.0
 10
106.5316087523712
 20
85.28911477915764
 30
0.0
 10
106.8625069788356
 20
85.30013091948607
 30
0.0
 10
107.5195638880126
 20
85.31131960701987
 30
0.0
 10
107.8483563337157
 20
85.3116839820604
 30
0.0
 10
108.5064703466812
 20
85.30190113822884
 30
0.0
 10
108.8380109756984
 20
85.29157430216955
 30
0.0
 10
109.4782112522248
 20
85.26178575428975
 30
0.0
 10
109.7894428348503
 20
85.24235422242732
 30
0.0
 10
110.3943243444597
 20
85.19604956503437
 30
0.0
 10
110.6897482607161
 20
85.16893155924294
 30
0.0
 10
111.2427235257679
 20
85.1111584334238
 30
0.0
 10
111.5026375349853
 20
85.08037126084817
 30
0.0
 10
111.9895937401181
 20
85.0174662207775
 30
0.0
 10
112.2177914468162
 20
84.98514278806438
 30
0.0
 10
112.6273244914542
 20
84.92354268582115
 30
0.0
 10
112.8102519695342
 20
84.8940838847834
 30
0.0
 10
112.9708944474948
 20
84.86717961568394
 30
0.0
  0
SPLINE
  5
114
330
1F
100
AcDbEntity
  8
0
  6
HIDDEN
 62
     7
370
     0
100
AcDbSpline
210
0.0
220
0.0
230
1.0
 70
    11
 71
     3
 72
    66
 73
    62
 74
     0
 42
0.000000001
 43
0.00000001
 40
0.0
 40
0.0
 40
0.0
 40
0.0
 40
0.0625000000000002
 40
0.0625000000000002
 40
0.1250000000000004
 40
0.1250000000000004
 40
0.1562500000000005
 40
0.1562500000000005
 40
0.1875000000000005
 40
0.1875000000000005
 40
0.2187500000000006
 40
0.2187500000000006
 40
0.2500000000000006
 40
0.2500000000000006
 40
0.2812500000000007
 40
0.2812500000000007
 40
0.3125000000000007
 40
0.3125000000000007
 40
0.3437500000000008
 40
0.3437500000000008
 40
0.3750000000000008
 40
0.3750000000000008
 40
0.4062500000000008
 40
0.4062500000000008
 40
0.4375000000000009
 40
0.4375000000000009
 40
0.4687500000000009
 40
0.4687500000000009
 40
0.500000000000001
 40
0.500000000000001
 40
0.531250000000001
 40
0.531250000000001
 40
0.562500000000001
 40
0.562500000000001
 40
0.593750000000001
 40
0.593750000000001
 40
0.625000000000001
 40
0.625000000000001
 40
0.656250000000001
 40
0.656250000000001
 40
0.687500000000001
 40
0.687500000000001
 40
0.718750000000001
 40
0.718750000000001
 40
0.7500000000000009
 40
0.7500000000000009
 40
0.7812500000000009
 40
0.7812500000000009
 40
0.8125000000000008
 40
0.8125000000000008
 40
0.8437500000000007
 40
0.8437500000000007
 40
0.8750000000000006
 40
0.8750000000000006
 40
0.9062500000000004
 40
0.9062500000000004
 40
0.9375000000000003
 40
0.9375000000000003
 40
0.9687500000000002
 40
0.9687500000000002
 40
1.0
 40
1.0
 40
1.0
 40
1.0
 10
112.9708944474948
 20
147.5998240571781
 30
0.0
 10
112.6496077430184
 20
147.5460152261326
 30
0.0
 10
112.2435286191265
 20
147.4824456115919
 30
0.0
 10
111.2621619498478
 20
147.3554643531114
 30
0.0
 10
110.7101976938206
 20
147.2953205143949
 30
0.0
 10
109.7968964400031
 20
147.2251292857359
 30
0.0
 10
109.4824694110129
 20
147.2054737432742
 30
0.0
 10
108.8448847050463
 20
147.175692511815
 30
0.0
 10
108.5200575919761
 20
147.1654304210618
 30
0.0
 10
107.8578939241121
 20
147.1553398761239
 30
0.0
 10
107.5245414278295
 20
147.1556612548245
 30
0.0
 10
106.869123188638
 20
147.1666992265467
 30
0.0
 10
106.5446268307574
 20
147.1773725829069
 30
0.0
 10
105.9022003310778
 20
147.2083797338792
 30
0.0
 10
105.5877467321499
 20
147.2286159991756
 30
0.0
 10
104.9873993168279
 20
147.2756494651286
 30
0.0
 10
104.6990432122255
 20
147.3025653489905
 30
0.0
 10
104.1463373140815
 20
147.3611268308042
 30
0.0
 10
103.8848788768649
 20
147.3925062482247
 30
0.0
 10
103.4037851728906
 20
147.4553353592061
 30
0.0
 10
103.1820182244625
 20
147.4870168189979
 30
0.0
 10
102.7768001278803
 20
147.5483908201043
 30
0.0
 10
102.595133792333
 20
147.577830484403
 30
0.0
 10
102.2832370766467
 20
147.6303111347364
 30
0.0
 10
102.151225893519
 20
147.6536279680132
 30
0.0
 10
101.936194925601
 20
147.6924351980646
 30
0.0
 10
101.8540719498943
 20
147.707763747947
 30
0.0
 10
101.7455621176984
 20
147.7281594376441
 30
0.0
 10
101.718029987703
 20
147.7334368468637
 30
0.0
 10
101.7173538572392
 20
147.733565633554
 30
0.0
 10
101.7449027173403
 20
147.7282849235272
 30
0.0
 10
101.852880565731
 20
147.7079861648587
 30
0.0
 10
101.9331504729087
 20
147.6929971314635
 30
0.0
 10
102.1467997299188
 20
147.6544147066043
 30
0.0
 10
102.2808552948329
 20
147.6307235927798
 30
0.0
 10
102.5927106651334
 20
147.5782266931289
 30
0.0
 10
102.771381742992
 20
147.5492521335071
 30
0.0
 10
103.1747288372377
 20
147.4880814751989
 30
0.0
 10
103.4001756912467
 20
147.4558334829345
 30
0.0
 10
103.8814879557869
 20
147.3929227380548
 30
0.0
 10
104.1391070590297
 20
147.361970237577
 30
0.0
 10
104.6888519474906
 20
147.3035702369338
 30
0.0
 10
104.9823664219847
 20
147.2760899119519
 30
0.0
 10
105.5832666012936
 20
147.2289215633258
 30
0.0
 10
105.8930588142426
 20
147.2089369269355
 30
0.0
 10
106.5316087523712
 20
147.1778888937044
 30
0.0
 10
106.8625069788356
 20
147.1668727533759
 30
0.0
 10
107.5195638880126
 20
147.1556840658421
 30
0.0
 10
107.8483563337157
 20
147.1553196908016
 30
0.0
 10
108.5064703466812
 20
147.1651025346331
 30
0.0
 10
108.8380109756984
 20
147.1754293706925
 30
0.0
 10
109.4782112522248
 20
147.2052179185723
 30
0.0
 10
109.7894428348503
 20
147.2246494504347
 30
0.0
 10
110.3943243444597
 20
147.2709541078276
 30
0.0
 10
110.6897482607161
 20
147.2980721136191
 30
0.0
 10
111.2427235257679
 20
147.3558452394382
 30
0.0
 10
111.5026375349853
 20
147.3866324120138
 30
0.0
 10
111.9895937401181
 20
147.4495374520845
 30
0.0
 10
112.2177914468162
 20
147.4818608847976
 30
0.0
 10
112.6273244914542
 20
147.5434609870408
 30
0.0
 10
112.8102519695342
 20
147.5729197880786
 30
0.0
 10
112.9708944474948
 20
147.5998240571781
 30
0.0
  0
SPLINE
  5
115
330
1F
100
AcDbEntity
  8
0
  6
HIDDEN
 62
     7
370
     0
100
AcDbSpline
210
0.0
220
0.0
230
1.0
 70
    11
 71
     3
 72
    17
 73
    13
 74
     0
 42
0.000000001
 43
0.00000001
 40
0.0
 40
0.0
 40
0.0
 40
0.0
 40
0.25
 40
0.25
 40
0.3750000000000001
 40
0.3750000000000001
 40
0.5
 40
0.625
 40
0.625
 40
0.75
 40
0.75
 40
1.0
 40
1.0
 40
1.0
 40
1.0
 10
112.9708944474948
 20
147.5998240571781
 30
0.0
 10
113.2163440390714
 20
147.6409317513941
 30
0.0
 10
113.4013747890131
 20
147.6674626529419
 30
0.0
 10
113.5902920089957
 20
147.6935797916417
 30
0.0
 10
113.6384720730281
 20
147.6999430315745
 30
0.0
 10
113.7020056127815
 20
147.7082501547918
 30
0.0
 10
113.7334031618018
 20
147.7122371951919
 30
0.0
 10
113.7019427660701
 20
147.7082421817321
 30
0.0
 10
113.6382417768427
 20
147.6999126745522
 30
0.0
 10
113.5900522725873
 20
147.693547322107
 30
0.0
 10
113.4012413857921
 20
147.6674428607798
 30
0.0
 10
113.2163448877668
 20
147.640931893533
 30
0.0
 10
112.9708944474948
 20
147.5998240571781
 30
0.0
  0
SPLINE
  5
116
330
1F
100
AcDbEntity
  8
0
  6
HIDDEN
 62
     7
370
     0
100
AcDbSpline
210
0.0
220
0.0
230
1.0
 70
    11
 71
     3
 72
    17
 73
    13
 74
     0
 42
0.000000001
 43
0.00000001
 40
0.0
 40
0.0
 40
0.0
 40
0.0
 40
0.2500000000000001
 40
0.2500000000000001
 40
0.3749999999999999
 40
0.3749999999999999
 40
0.4999999999999999
 40
0.6249999999999999
 40
0.6249999999999999
 40
0.7499999999999999
 40
0.7499999999999999
 40
1.0
 40
1.0
 40
1.0
 40
1.0
 10
112.9708944474948
 20
84.86717961568394
 30
0.0
 10
113.2163440390715
 20
84.8260719214678
 30
0.0
 10
113.4013747890132
 20
84.79954101992016
 30
0.0
 10
113.5902920089957
 20
84.77342388122031
 30
0.0
 10
113.6384720730282
 20
84.76706064128753
 30
0.0
 10
113.7020056127815
 20
84.7587535180702
 30
0.0
 10
113.7334031618018
 20
84.75476647767007
 30
0.0
 10
113.7019427660701
 20
84.7587614911299
 30
0.0
 10
113.6382417768427
 20
84.76709099830975
 30
0.0
 10
113.5900522725873
 20
84.77345635075503
 30
0.0
 10
113.4012413857921
 20
84.79956081208226
 30
0.0
 10
113.2163448877668
 20
84.82607177932903
 30
0.0
 10
112.9708944474948
 20
84.86717961568394
 30
0.0
  0
LINE
  5
117
330
1F
100
AcDbEntity
  8
0
  6
HIDDEN
 62
     7
370
     0
100
AcDbLine
 10
122.7176887923
 20
89.7335021494
 30
0.0
 11
122.7176887923
 21
142.7335015235
 31
0.0
  0
LINE
  5
118
330
1F
100
AcDbEntity
  8
0
  6
HIDDEN
 62
     7
370
     0
100
AcDbLine
 10
140.8076891684
 20
150.9477386919
 30
0.0
 11
140.8076891684
 21
161.9270520953
 31
0.0
  0
LINE
  5
119
330
1F
100
AcDbEntity
  8
0
  6
HIDDEN
 62
     7
370
     0
100
AcDbLine
 10
144.6276893848
 20
150.9477386919
 30
0.0
 11
144.6276893848
 21
161.9270520953
 31
0.0
  0
LINE
  5
11A
330
1F
100
AcDbEntity
  8
0
  6
HIDDEN
 62
     7
370
     0
100
AcDbLine
 10
137.3756555849
 20
147.5835035292
 30
0.0
 11
151.6676889741
 21
147.5835035292
 31
0.0
  0
LINE
  5
11B
330
1F
100
AcDbEntity
  8
0
  6
HIDDEN
 62
     7
370
     0
100
AcDbLine
 10
92.7143124872
 20
142.7335015235
 30
0.0
 11
92.7143124872
 21
89.7335021494
 31
0.0
  0
LINE
  5
11C
330
1F
100
AcDbEntity
  8
0
  6
HIDDEN
 62
     7
370
     0
100
AcDbLine
 10
72.81768974
 20
91.380108401
 30
0.0
 11
72.81768974
 21
141.0868952719
 31
0.0
  0
LINE
  5
11D
330
1F
100
AcDbEntity
  8
0
  6
HIDDEN
 62
     7
370
     0
100
AcDbLine
 10
132.0017660045
 20
142.7335015235
 30
0.0
 11
132.0017660045
 21
89.7335021494
 31
0.0
  0
LINE
  5
11E
330
1F
100
AcDbEntity
  8
0
  6
HIDDEN
 62
     7
370
     0
100
AcDbLine
 10
135.1676890635
 20
141.1085019556
 30
0.0
 11
135.1676890635
 21
91.3585017172
 31
0.0
  0
LINE
  5
11F
330
1F
100
AcDbEntity
  8
0
  6
HIDDEN
 62
     7
370
     0
100
AcDbLine
 10
74.4676878684
 20
91.6967971919
 30
0.0
 11
86.0176896685
 21
91.6967971919
 31
0.0
  0
LINE
  5
120
330
1F
100
AcDbEntity
  8
0
  6
HIDDEN
 62
     7
370
     0
100
AcDbLine
 10
74.4676878684
 20
140.770206481
 30
0.0
 11
74.4676878684
 21
91.6967971919
 31
0.0
  0
LINE
  5
121
330
1F
100
AcDbEntity
  8
0
  6
HIDDEN
 62
     7
370
     0
100
AcDbLine
 10
81.0176869863
 20
140.770206481
 30
0.0
 11
74.4676878684
 21
140.770206481
 31
0.0
  0
SPLINE
  5
122
330
1F
100
AcDbEntity
  8
0
  6
HIDDEN
 62
     7
370
     0
100
AcDbSpline
210
0.0
220
0.0
230
1.0
 70
     8
 71
     3
 72
    20
 73
    16
 74
     0
 42
0.000000001
 43
0.00000001
 40
0.0
 40
0.0
 40
0.0
 40
0.0
 40
0.2499999999999978
 40
0.2499999999999978
 40
0.3749999999999982
 40
0.3749999999999982
 40
0.4999999999999986
 40
0.4999999999999986
 40
0.6249999999999989
 40
0.6249999999999989
 40
0.7499999999999992
 40
0.7499999999999992
 40
0.8749999999999997
 40
0.8749999999999997
 40
1.0
 40
1.0
 40
1.0
 40
1.0
 10
82.9176887923038
 20
141.4620154668453
 30
0.0
 10
82.91768879230382
 20
141.382812480313
 30
0.0
 10
82.87070629709108
 20
141.3017162619101
 30
0.0
 10
82.7328847063135
 20
141.1815195701592
 30
0.0
 10
82.67660242240352
 20
141.1425928661571
 30
0.0
 10
82.54351757093629
 20
141.0674041337327
 30
0.0
 10
82.46567762870325
 20
141.0307619283907
 30
0.0
 10
82.29304527258888
 20
140.9631713955589
 30
0.0
 10
82.1986522754978
 20
140.9322132137833
 30
0.0
 10
81.99321496918266
 20
140.8766887924136
 30
0.0
 10
81.8808687291955
 20
140.8519802785804
 30
0.0
 10
81.64862786529586
 20
140.8121840514721
 30
0.0
 10
81.52791722287314
 20
140.7967642140751
 30
0.0
 10
81.27684636360411
 20
140.7756842392355
 30
0.0
 10
81.14732436718833
 20
140.7702069942145
 30
0.0
 10
81.01768879230382
 20
140.7702069942145
 30
0.0
  0
LINE
  5
123
330
1F
100
AcDbEntity
  8
0
  6
HIDDEN
 62
     7
370
     0
100
AcDbLine
 10
82.9176893466
 20
141.4620152412
 30
0.0
 11
82.9176893466
 21
142.7335015235
 31
0.0
  0
SPLINE
  5
124
330
1F
100
AcDbEntity
  8
0
  6
HIDDEN
 62
     7
370
     0
100
AcDbSpline
210
0.0
220
0.0
230
1.0
 70
     8
 71
     3
 72
    20
 73
    16
 74
     0
 42
0.000000001
 43
0.00000001
 40
0.0
 40
0.0
 40
0.0
 40
0.0
 40
0.2499999999999978
 40
0.2499999999999978
 40
0.3749999999999982
 40
0.3749999999999982
 40
0.4999999999999986
 40
0.4999999999999986
 40
0.6249999999999989
 40
0.6249999999999989
 40
0.7499999999999992
 40
0.7499999999999992
 40
0.8749999999999997
 40
0.8749999999999997
 40
1.0
 40
1.0
 40
1.0
 40
1.0
 10
82.9176887923038
 20
141.4620154668453
 30
0.0
 10
82.91768879230382
 20
141.382812480313
 30
0.0
 10
82.87070629709108
 20
141.3017162619101
 30
0.0
 10
82.7328847063135
 20
141.1815195701592
 30
0.0
 10
82.67660242240352
 20
141.1425928661571
 30
0.0
 10
82.54351757093629
 20
141.0674041337327
 30
0.0
 10
82.46567762870325
 20
141.0307619283907
 30
0.0
 10
82.29304527258888
 20
140.9631713955589
 30
0.0
 10
82.1986522754978
 20
140.9322132137833
 30
0.0
 10
81.99321496918266
 20
140.8766887924136
 30
0.0
 10
81.8808687291955
 20
140.8519802785804
 30
0.0
 10
81.64862786529586
 20
140.8121840514721
 30
0.0
 10
81.52791722287314
 20
140.7967642140751
 30
0.0
 10
81.27684636360411
 20
140.7756842392355
 30
0.0
 10
81.14732436718833
 20
140.7702069942145
 30
0.0
 10
81.01768879230382
 20
140.7702069942145
 30
0.0
  0
SPLINE
  5
125
330
1F
100
AcDbEntity
  8
0
  6
HIDDEN
 62
     7
370
     0
100
AcDbSpline
210
0.0
220
0.0
230
1.0
 70
     8
 71
     3
 72
    18
 73
    14
 74
     0
 42
0.000000001
 43
0.00000001
 40
0.0
 40
0.0
 40
0.0
 40
0.0
 40
0.1249999999999982
 40
0.1249999999999982
 40
0.2499999999999964
 40
0.2499999999999964
 40
0.4999999999999988
 40
0.4999999999999988
 40
0.7500000000000011
 40
0.7500000000000011
 40
0.8750000000000006
 40
0.8750000000000006
 40
1.0
 40
1.0
 40
1.0
 40
1.0
 10
86.01768879230382
 20
91.6967966786475
 30
0.0
 10
86.14715610526102
 20
91.69679667864749
 30
0.0
 10
86.27416685415766
 20
91.69144368005485
 30
0.0
 10
86.5235301753549
 20
91.67070570736605
 30
0.0
 10
86.64715382998335
 20
91.65503380311176
 30
0.0
 10
86.9961861669174
 20
91.59533907470968
 30
0.0
 10
87.20669793172418
 20
91.5375738950287
 30
0.0
 10
87.5506146094237
 20
91.4030520537512
 30
0.0
 10
87.6869650109415
 20
91.32538294024579
 30
0.0
 10
87.82400306750404
 20
91.20609180615847
 30
0.0
 10
87.85922208621695
 20
91.1651727970234
 30
0.0
 10
87.90584566315552
 20
91.08451680373338
 30
0.0
 10
87.91768879230382
 20
91.04454828354052
 30
0.0
 10
87.9176887923038
 20
91.0049882060167
 30
0.0
  0
LINE
  5
126
330
1F
100
AcDbEntity
  8
0
  6
HIDDEN
 62
     7
370
     0
100
AcDbLine
 10
87.9176883035
 20
91.0049884317
 30
0.0
 11
87.9176883035
 21
89.7335021494
 31
0.0
  0
SPLINE
  5
127
330
1F
100
AcDbEntity
  8
0
  6
HIDDEN
 62
     7
370
     0
100
AcDbSpline
210
0.0
220
0.0
230
1.0
 70
     8
 71
     3
 72
    18
 73
    14
 74
     0
 42
0.000000001
 43
0.00000001
 40
0.0
 40
0.0
 40
0.0
 40
0.0
 40
0.1249999999999982
 40
0.1249999999999982
 40
0.2499999999999964
 40
0.2499999999999964
 40
0.4999999999999988
 40
0.4999999999999988
 40
0.7500000000000011
 40
0.7500000000000011
 40
0.8750000000000006
 40
0.8750000000000006
 40
1.0
 40
1.0
 40
1.0
 40
1.0
 10
86.01768879230382
 20
91.6967966786475
 30
0.0
 10
86.14715610526102
 20
91.69679667864749
 30
0.0
 10
86.27416685415766
 20
91.69144368005485
 30
0.0
 10
86.5235301753549
 20
91.67070570736605
 30
0.0
 10
86.64715382998335
 20
91.65503380311176
 30
0.0
 10
86.9961861669174
 20
91.59533907470968
 30
0.0
 10
87.20669793172418
 20
91.5375738950287
 30
0.0
 10
87.5506146094237
 20
91.4030520537512
 30
0.0
 10
87.6869650109415
 20
91.32538294024579
 30
0.0
 10
87.82400306750404
 20
91.20609180615847
 30
0.0
 10
87.85922208621695
 20
91.1651727970234
 30
0.0
 10
87.90584566315552
 20
91.08451680373338
 30
0.0
 10
87.91768879230382
 20
91.04454828354052
 30
0.0
 10
87.9176887923038
 20
91.0049882060167
 30
0.0
  0
LINE
  5
128
330
1F
100
AcDbEntity
  8
0
  6
HIDDEN
 62
     7
370
     0
100
AcDbLine
 10
74.4676878684
 20
91.6967971919
 30
0.0
 11
74.4676878684
 21
140.770206481
 31
0.0
  0
LINE
  5
129
330
1F
100
AcDbEntity
  8
0
  6
HIDDEN
 62
     7
370
     0
100
AcDbLine
 10
139.2676895493
 20
137.8335023967
 30
0.0
 11
139.2676895493
 21
94.6335012761
 31
0.0
  0
LINE
  5
12A
330
1F
100
AcDbEntity
  8
0
  6
HIDDEN
 62
     7
370
     0
100
AcDbLine
 10
135.1676890635
 20
94.2335019556
 30
0.0
 11
135.1676890635
 21
138.2061543611
 31
0.0
  0
LINE
  5
12B
330
1F
100
AcDbEntity
  8
0
  6
HIDDEN
 62
     7
370
     0
100
AcDbLine
 10
140.2676897132
 20
135.2335012255
 30
0.0
 11
140.2676897132
 21
97.2335024474
 31
0.0
  0
LINE
  5
12C
330
1F
100
AcDbEntity
  8
0
  6
HIDDEN
 62
     7
370
     0
100
AcDbLine
 10
139.2676895493
 20
96.2335022835
 30
0.0
 11
139.2676895493
 21
136.2335013894
 31
0.0
  0
SPLINE
  5
12D
330
1F
100
AcDbEntity
  8
0
  6
HIDDEN
 62
     7
370
     0
100
AcDbSpline
210
0.0
220
0.0
230
1.0
 70
     8
 71
     3
 72
    18
 73
    14
 74
     0
 42
0.000000001
 43
0.00000001
 40
0.0
 40
0.0
 40
0.0
 40
0.0
 40
0.2500000000000057
 40
0.2500000000000057
 40
0.5000000000000113
 40
0.5000000000000113
 40
0.6250000000000084
 40
0.6250000000000084
 40
0.7500000000000057
 40
0.7500000000000057
 40
0.8750000000000028
 40
0.8750000000000028
 40
1.0
 40
1.0
 40
1.0
 40
1.0
 10
230.7176887923038
 20
133.2312030805356
 30
0.0
 10
230.7176887923038
 20
133.1358834155178
 30
0.0
 10
230.7124307291408
 20
133.03885402935
 30
0.0
 10
230.6849257392738
 20
132.8392698888249
 30
0.0
 10
230.6624422458002
 20
132.7342657191218
 30
0.0
 10
230.6041438936793
 20
132.5822569705374
 30
0.0
 10
230.5798170999715
 20
132.5312050703636
 30
0.0
 10
230.5209737407877
 20
132.4386541792861
 30
0.0
 10
230.4858510203345
 20
132.3968322026537
 30
0.0
 10
230.4108723483422
 20
132.3323599460516
 30
0.0
 10
230.3708855306884
 20
132.3092020602981
 30
0.0
 10
230.2922776861416
 20
132.2792152145028
 30
0.0
 10
230.2544283431393
 20
132.2721772580177
 30
0.0
 10
230.2176492122894
 20
132.2699179510423
 30
0.0
  0
SPLINE
  5
12E
330
1F
100
AcDbEntity
  8
0
  6
HIDDEN
 62
     7
370
     0
100
AcDbSpline
210
0.0
220
0.0
230
1.0
 70
     8
 71
     3
 72
    10
 73
     6
 74
     0
 42
0.000000001
 43
0.00000001
 40
0.0
 40
0.0
 40
0.0
 40
0.0
 40
0.5
 40
0.5
 40
1.0
 40
1.0
 40
1.0
 40
1.0
 10
230.2176492122894
 20
132.2699179510425
 30
0.0
 10
230.1528277545566
 20
132.209050346668
 30
0.0
 10
230.0779843582544
 20
132.1540785150477
 30
0.0
 10
229.9093737024031
 20
132.0742535067895
 30
0.0
 10
229.8150831503674
 20
132.0499467327624
 30
0.0
 10
229.7176887923038
 20
132.0499467327624
 30
0.0
  0
SPLINE
  5
12F
330
1F
100
AcDbEntity
  8
0
  6
HIDDEN
 62
     7
370
     0
100
AcDbSpline
210
0.0
220
0.0
230
1.0
 70
     8
 71
     3
 72
    10
 73
     6
 74
     0
 42
0.000000001
 43
0.00000001
 40
0.0
 40
0.0
 40
0.0
 40
0.0
 40
0.5
 40
0.5
 40
1.0
 40
1.0
 40
1.0
 40
1.0
 10
230.217638985999
 20
100.1970953242196
 30
0.0
 10
230.1528182998323
 20
100.2579605943015
 30
0.0
 10
230.0779760171748
 20
100.3129301365515
 30
0.0
 10
229.909368743454
 20
100.3927514838603
 30
0.0
 10
229.8150805895491
 20
100.4170569400996
 30
0.0
 10
229.7176887923038
 20
100.4170569400996
 30
0.0
  0
SPLINE
  5
130
330
1F
100
AcDbEntity
  8
0
  6
HIDDEN
 62
     7
370
     0
100
AcDbSpline
210
0.0
220
0.0
230
1.0
 70
     8
 71
     3
 72
    18
 73
    14
 74
     0
 42
0.000000001
 43
0.00000001
 40
0.0
 40
0.0
 40
0.0
 40
0.0
 40
0.1249999999999981
 40
0.1249999999999981
 40
0.2499999999999961
 40
0.2499999999999961
 40
0.3749999999999942
 40
0.3749999999999942
 40
0.4999999999999922
 40
0.4999999999999922
 40
0.7499999999999961
 40
0.7499999999999961
 40
1.0
 40
1.0
 40
1.0
 40
1.0
 10
230.2176389859989
 20
100.1970953242195
 30
0.0
 10
230.2541258660947
 20
100.1948612879335
 30
0.0
 10
230.2923815581224
 20
100.1877177974823
 30
0.0
 10
230.3699285951108
 20
100.1582559167512
 30
0.0
 10
230.4098760103181
 20
100.1352828356706
 30
0.0
 10
230.4842209205534
 20
100.0718578998129
 30
0.0
 10
230.5193641655549
 20
100.0304679014905
 30
0.0
 10
230.5783471261263
 20
99.93856062625058
 30
0.0
 10
230.6027647486343
 20
99.88788410151291
 30
0.0
 10
230.6618410636943
 20
99.73523308515337
 30
0.0
 10
230.6843299322813
 20
99.63101388359303
 30
0.0
 10
230.7123341937517
 20
99.42987264282685
 30
0.0
 10
230.7176887923038
 20
99.33137838412013
 30
0.0
 10
230.7176887923038
 20
99.23580059232643
 30
0.0
  0
LINE
  5
131
330
1F
100
AcDbEntity
  8
0
  6
HIDDEN
 62
     7
370
     0
100
AcDbLine
 10
230.7176915937
 20
133.2312023935
 30
0.0
 11
230.7176915937
 21
99.2358012793
 31
0.0
  0
LINE
  5
132
330
1F
100
AcDbEntity
  8
0
  6
HIDDEN
 62
     7
370
     0
100
AcDbLine
 10
170.7176892095
 20
134.833501905
 30
0.0
 11
170.7176892095
 21
97.6335017679
 31
0.0
  0
LINE
  5
133
330
1F
100
AcDbEntity
  8
0
  6
HIDDEN
 62
     7
370
     0
100
AcDbLine
 10
190.2176914745
 20
133.7335019109
 30
0.0
 11
190.2176914745
 21
98.7335017619
 31
0.0
  0
LINE
  5
134
330
1F
100
AcDbEntity
  8
0
  6
HIDDEN
 62
     7
370
     0
100
AcDbLine
 10
195.0837178164
 20
134.2335010616
 30
0.0
 11
195.0837178164
 21
98.2335026113
 31
0.0
  0
LINE
  5
135
330
1F
100
AcDbEntity
  8
0
  6
HIDDEN
 62
     7
370
     0
100
AcDbLine
 10
74.4676878684
 20
88.8635015783
 30
0.0
 11
74.4676878684
 21
83.9835035352
 31
0.0
  0
LINE
  5
136
330
1F
100
AcDbEntity
  8
0
  6
HIDDEN
 62
     7
370
     0
100
AcDbLine
 10
214.1176862651
 20
132.0499463675
 30
0.0
 11
229.7176895672
 21
132.0499463675
 31
0.0
  0
LINE
  5
137
330
1F
100
AcDbEntity
  8
0
  6
HIDDEN
 62
     7
370
     0
100
AcDbLine
 10
214.1176862651
 20
132.0499463675
 30
0.0
 11
214.1176862651
 21
134.2059879301
 31
0.0
  0
LINE
  5
138
330
1F
100
AcDbEntity
  8
0
  6
HIDDEN
 62
     7
370
     0
100
AcDbLine
 10
214.1176862651
 20
100.4170573053
 30
0.0
 11
229.7176895672
 21
100.4170573053
 31
0.0
  0
LINE
  5
139
330
1F
100
AcDbEntity
  8
0
  6
HIDDEN
 62
     7
370
     0
100
AcDbLine
 10
214.1176862651
 20
100.4170573053
 30
0.0
 11
214.1176862651
 21
98.2610157428
 31
0.0
  0
SPLINE
  5
13A
330
1F
100
AcDbEntity
  8
0
  6
HIDDEN
 62
     7
370
     0
100
AcDbSpline
210
0.0
220
0.0
230
1.0
 70
    11
 71
     3
 72
    88
 73
    84
 74
     0
 42
0.000000001
 43
0.00000001
 40
0.0
 40
0.0
 40
0.0
 40
0.0
 40
0.03125
 40
0.03125
 40
0.046875
 40
0.046875
 40
0.0624999999999999
 40
0.0624999999999999
 40
0.0937499999999999
 40
0.0937499999999999
 40
0.1093750000000003
 40
0.1093750000000003
 40
0.1250000000000006
 40
0.1250000000000006
 40
0.1562500000000013
 40
0.1562500000000013
 40
0.1875000000000021
 40
0.1875000000000021
 40
0.2031250000000024
 40
0.2031250000000024
 40
0.2187500000000028
 40
0.2187500000000028
 40
0.2500000000000023
 40
0.2500000000000023
 40
0.2812500000000018
 40
0.2812500000000018
 40
0.3125000000000013
 40
0.3125000000000013
 40
0.3437500000000009
 40
0.3437500000000009
 40
0.3593750000000007
 40
0.3593750000000007
 40
0.3750000000000004
 40
0.3750000000000004
 40
0.40625
 40
0.40625
 40
0.4374999999999996
 40
0.4374999999999996
 40
0.4687499999999992
 40
0.4687499999999992
 40
0.4843749999999991
 40
0.4843749999999991
 40
0.4999999999999989
 40
0.4999999999999989
 40
0.5312499999999988
 40
0.5312499999999988
 40
0.5624999999999986
 40
0.5624999999999986
 40
0.5937499999999982
 40
0.5937499999999982
 40
0.624999999999998
 40
0.624999999999998
 40
0.6406249999999979
 40
0.6406249999999979
 40
0.6562499999999978
 40
0.6562499999999978
 40
0.6874999999999976
 40
0.6874999999999976
 40
0.7187499999999973
 40
0.7187499999999973
 40
0.7343749999999972
 40
0.7343749999999972
 40
0.7499999999999971
 40
0.7499999999999971
 40
0.7812499999999979
 40
0.7812499999999979
 40
0.7968749999999983
 40
0.7968749999999983
 40
0.8124999999999988
 40
0.8124999999999988
 40
0.8437499999999987
 40
0.8437499999999987
 40
0.8749999999999986
 40
0.8749999999999986
 40
0.8906249999999986
 40
0.8906249999999986
 40
0.9062499999999986
 40
0.9062499999999986
 40
0.937499999999999
 40
0.937499999999999
 40
0.9687499999999996
 40
0.9687499999999996
 40
1.0
 40
1.0
 40
1.0
 40
1.0
 10
209.1676887923038
 20
116.233501836431
 30
0.0
 10
209.1676887923038
 20
115.8677948612151
 30
0.0
 10
209.2037970680108
 20
115.508620772386
 30
0.0
 10
209.3096084965368
 20
114.9791626171342
 30
0.0
 10
209.3535529756089
 20
114.8042381447367
 30
0.0
 10
209.459151117013
 20
114.457559983849
 30
0.0
 10
209.5209259639878
 20
114.2858690223816
 30
0.0
 10
209.728605602387
 20
113.7870304999403
 30
0.0
 10
209.8977339934336
 20
113.4719385247802
 30
0.0
 10
210.1970944627755
 20
113.0247697632175
 30
0.0
 10
210.3051936090849
 20
112.8792592477113
 30
0.0
 10
210.5335052492483
 20
112.6015830598174
 30
0.0
 10
210.653663153702
 20
112.4692813904228
 30
0.0
 10
211.0318029520791
 20
112.0913570138966
 30
0.0
 10
211.3072609682312
 20
111.8645168467569
 30
0.0
 10
211.9075995103071
 20
111.4625048592567
 30
0.0
 10
212.2240105631847
 20
111.2932095330651
 30
0.0
 10
212.7195694298603
 20
111.0869647694107
 30
0.0
 10
212.8884400171409
 20
111.0261150903144
 30
0.0
 10
213.2338159267045
 20
110.9206295875577
 30
0.0
 10
213.4113358971871
 20
110.8758503381319
 30
0.0
 10
213.9445319576815
 20
110.7692129632365
 30
0.0
 10
214.3028389430374
 20
110.7337470588294
 30
0.0
 10
215.025107499023
 20
110.7332591241183
 30
0.0
 10
215.3920351950214
 20
110.7694960370526
 30
0.0
 10
216.099260649387
 20
110.910848446929
 30
0.0
 10
216.4432062028081
 20
111.0153999037393
 30
0.0
 10
217.1118329808262
 20
111.2931365624177
 30
0.0
 10
217.4299195928985
 20
111.4640628771111
 30
0.0
 10
217.8749876831837
 20
111.7619136878904
 30
0.0
 10
218.0184898205742
 20
111.8683792154305
 30
0.0
 10
218.29573995825
 20
112.0959412308684
 30
0.0
 10
218.4300312735537
 20
112.2176638447683
 30
0.0
 10
218.8105362436328
 20
112.5981864607018
 30
0.0
 10
219.0366916819349
 20
112.8734833349087
 30
0.0
 10
219.4350397293948
 20
113.4675886738762
 30
0.0
 10
219.6079531299964
 20
113.7896111401248
 30
0.0
 10
219.8836600868258
 20
114.4523626177029
 30
0.0
 10
219.9887099332003
 20
114.7954371242879
 30
0.0
 10
220.0957154202408
 20
115.3283217709457
 30
0.0
 10
220.1228819963656
 20
115.5097945873525
 30
0.0
 10
220.1587054733472
 20
115.8707059096161
 30
0.0
 10
220.1676124215136
 20
116.0510167353039
 30
0.0
 10
220.167840070413
 20
116.5915226109799
 30
0.0
 10
220.1325442438761
 20
116.9531634963782
 30
0.0
 10
219.9899946843422
 20
117.6672444921924
 30
0.0
 10
219.8848290032727
 20
118.0112575898352
 30
0.0
 10
219.6093622343394
 20
118.6745735461416
 30
0.0
 10
219.4367402624765
 20
118.9965388225081
 30
0.0
 10
219.0382157257005
 20
119.5915845685923
 30
0.0
 10
218.811973486868
 20
119.867194776386
 30
0.0
 10
218.4314339015002
 20
120.248028926372
 30
0.0
 10
218.2971788430841
 20
120.3697962942727
 30
0.0
 10
218.0201547063254
 20
120.5973421366721
 30
0.0
 10
217.8768140835267
 20
120.7037710153553
 30
0.0
 10
217.4324038069019
 20
121.0014697007609
 30
0.0
 10
217.1162843159208
 20
121.1717253080161
 30
0.0
 10
216.4462810798322
 20
121.4506160357116
 30
0.0
 10
216.1024618336739
 20
121.5552224339622
 30
0.0
 10
215.5736654171932
 20
121.661349227871
 30
0.0
 10
215.3952072161805
 20
121.6881976026368
 30
0.0
 10
215.0337495599586
 20
121.7243112916323
 30
0.0
 10
214.8503815968809
 20
121.733454826897
 30
0.0
 10
214.3065654479078
 20
121.7335953049869
 30
0.0
 10
213.9480489441354
 20
121.698189076846
 30
0.0
 10
213.4162294665163
 20
121.5922816968616
 30
0.0
 10
213.2389703460972
 20
121.5477880409398
 30
0.0
 10
212.8920719041327
 20
121.4421541504567
 30
0.0
 10
212.7226041266324
 20
121.3812025164571
 30
0.0
 10
212.2256740592895
 20
121.1746829335803
 30
0.0
 10
211.9092470719904
 20
121.0054731355639
 30
0.0
 10
211.3083164121446
 20
120.6033219718069
 30
0.0
 10
211.0326612122349
 20
120.3764105055649
 30
0.0
 10
210.6543198621599
 20
119.9984253771841
 30
0.0
 10
210.5341108020841
 20
119.8661110373334
 30
0.0
 10
210.305722146631
 20
119.5884330711581
 30
0.0
 10
210.1975663233501
 20
119.4428889398572
 30
0.0
 10
209.8982053807321
 20
118.9958685490662
 30
0.0
 10
209.7292431713242
 20
118.6811489493945
 30
0.0
 10
209.4526655514741
 20
118.0175293414255
 30
0.0
 10
209.3453610999058
 20
117.6663111808707
 30
0.0
 10
209.2038160660511
 20
116.958904837591
 30
0.0
 10
209.1676887923038
 20
116.5992088116469
 30
0.0
 10
209.1676887923038
 20
116.233501836431
 30
0.0
  0
LINE
  5
13B
330
1F
100
AcDbEntity
  8
0
  6
HIDDEN
 62
     7
370
     0
100
AcDbLine
 10
87.9176883035
 20
88.8635015783
 30
0.0
 11
87.9176883035
 21
82.3641682712
 31
0.0
  0
LINE
  5
13C
330
1F
100
AcDbEntity
  8
0
  6
HIDDEN
 62
     7
370
     0
100
AcDbLine
 10
82.9176893466
 20
143.6035020945
 30
0.0
 11
82.9176893466
 21
149.9781089572
 31
0.0
  0
LINE
  5
13D
330
1F
100
AcDbEntity
  8
0
  6
HIDDEN
 62
     7
370
     0
100
AcDbLine
 10
74.4676878684
 20
143.6035020945
 30
0.0
 11
74.4676878684
 21
148.4835001377
 31
0.0
  0
LINE
  5
13E
330
1F
100
AcDbEntity
  8
0
  6
HIDDEN
 62
     7
370
     0
100
AcDbLine
 10
72.81768974
 20
143.6035020945
 30
0.0
 11
72.81768974
 21
146.7361713497
 31
0.0
  0
LINE
  5
13F
330
1F
100
AcDbEntity
  8
0
  6
HIDDEN
 62
     7
370
     0
100
AcDbLine
 10
72.81768974
 20
88.8635015783
 30
0.0
 11
72.81768974
 21
85.7308323232
 31
0.0
  0
ELLIPSE
  5
140
330
1F
100
AcDbEntity
  8
0
  6
HIDDEN
 62
     7
370
     0
100
AcDbEllipse
 10
66.533015592
 20
116.2335018364
 30
0.0
 11
31.08108570811662
 21
1.421085471520200E-14
 31
0.0
210
0.0
220
0.0
230
1.0
 40
0.8164965809
 41
1.312649268214811
 42
1.367189972061496
  0
LINE
  5
141
330
1F
100
AcDbEntity
  8
0
  6
HIDDEN
 62
     7
370
     0
100
AcDbLine
 10
72.81768974
 20
143.6035020945
 30
0.0
 11
72.81768974
 21
141.0868952719
 31
0.0
  0
ELLIPSE
  5
142
330
1F
100
AcDbEntity
  8
0
  6
HIDDEN
 62
     7
370
     0
100
AcDbEllipse
 10
66.533015592
 20
116.2335018364
 30
0.0
 11
31.08108570811662
 21
-1.421085471520200E-14
 31
0.0
210
0.0
220
0.0
230
1.0
 40
0.8164965809
 41
4.915995335118102
 42
4.970536038964787
  0
LINE
  5
143
330
1F
100
AcDbEntity
  8
0
  6
HIDDEN
 62
     7
370
     0
100
AcDbLine
 10
72.81768974
 20
88.8635015783
 30
0.0
 11
72.81768974
 21
91.380108401
 31
0.0
  0
LINE
  5
144
330
1F
100
AcDbEntity
  8
0
  6
HIDDEN
 62
     7
370
     0
100
AcDbLine
 10
151.6676889741
 20
72.3335000423
 30
0.0
 11
137.667688542
 21
72.3335000423
 31
0.0
  0
LINE
  5
145
330
1F
100
AcDbEntity
  8
0
  6
HIDDEN
 62
     7
370
     0
100
AcDbLine
 10
144.6276893848
 20
69.862112656
 30
0.0
 11
144.6276893848
 21
70.7703235296
 31
0.0
  0
LINE
  5
146
330
1F
100
AcDbEntity
  8
0
  6
HIDDEN
 62
     7
370
     0
100
AcDbLine
 10
140.8076891684
 20
70.7703235296
 30
0.0
 11
140.8076891684
 21
69.862112656
 31
0.0
  0
LINE
  5
147
330
1F
100
AcDbEntity
  8
0
  6
HIDDEN
 62
     7
370
     0
100
AcDbLine
 10
151.6676889741
 20
72.3335000423
 30
0.0
 11
151.6676889741
 21
68.4841575769
 31
0.0
  0
LINE
  5
148
330
1F
100
AcDbEntity
  8
0
  6
HIDDEN
 62
     7
370
     0
100
AcDbLine
 10
127.6676887655
 20
66.2435034958
 30
0.0
 11
127.6676887655
 21
72.3335000423
 31
0.0
  0
LINE
  5
149
330
1F
100
AcDbEntity
  8
0
  6
HIDDEN
 62
     7
370
     0
100
AcDbLine
 10
137.667688542
 20
72.3335000423
 30
0.0
 11
127.6676887655
 21
72.3335000423
 31
0.0
  0
LINE
  5
14A
330
1F
100
AcDbEntity
  8
0
  6
HIDDEN
 62
     7
370
     0
100
AcDbLine
 10
171.7176875108
 20
125.4835019556
 30
0.0
 11
171.7176875108
 21
106.9835017172
 31
0.0
  0
LINE
  5
14B
330
1F
100
AcDbEntity
  8
0
  6
HIDDEN
 62
     7
370
     0
100
AcDbLine
 10
170.7176892095
 20
126.4766634179
 30
0.0
 11
170.7176892095
 21
105.990340255
 31
0.0
  0
LINE
  5
14C
330
1F
100
AcDbEntity
  8
0
  6
HIDDEN
 62
     7
370
     0
100
AcDbLine
 10
87.9176883035
 20
88.8635015783
 30
0.0
 11
87.9176883035
 21
91.0049884317
 31
0.0
  0
LINE
  5
14D
330
1F
100
AcDbEntity
  8
0
  6
HIDDEN
 62
     7
370
     0
100
AcDbLine
 10
74.4676878684
 20
88.8635015783
 30
0.0
 11
74.4676878684
 21
91.6967971919
 31
0.0
  0
LINE
  5
14E
330
1F
100
AcDbEntity
  8
0
  6
HIDDEN
 62
     7
370
     0
100
AcDbLine
 10
74.4676878684
 20
143.6035020945
 30
0.0
 11
74.4676878684
 21
140.770206481
 31
0.0
  0
LINE
  5
14F
330
1F
100
AcDbEntity
  8
0
  6
HIDDEN
 62
     7
370
     0
100
AcDbLine
 10
82.9176893466
 20
143.6035020945
 30
0.0
 11
82.9176893466
 21
141.4620152412
 31
0.0
  0
LINE
  5
150
330
1F
100
AcDbEntity
  8
0
  6
HIDDEN
 62
     7
370
     0
100
AcDbLine
 10
140.8076891684
 20
161.9270520953
 30
0.0
 11
140.8076891684
 21
162.8307739941
 31
0.0
  0
LINE
  5
151
330
1F
100
AcDbEntity
  8
0
  6
HIDDEN
 62
     7
370
     0
100
AcDbLine
 10
144.6276893848
 20
162.8307739941
 30
0.0
 11
144.6276893848
 21
161.9270520953
 31
0.0
  0
LINE
  5
152
330
1F
100
AcDbEntity
  8
0
  6
HIDDEN
 62
     7
370
     0
100
AcDbLine
 10
151.6676889741
 20
160.1335036305
 30
0.0
 11
151.6676889741
 21
164.2022433428
 31
0.0
  0
LINE
  5
153
330
1F
100
AcDbEntity
  8
0
  6
HIDDEN
 62
     7
370
     0
100
AcDbLine
 10
137.667688542
 20
160.1335036305
 30
0.0
 11
127.6676887655
 21
160.1335036305
 31
0.0
  0
LINE
  5
154
330
1F
100
AcDbEntity
  8
0
  6
HIDDEN
 62
     7
370
     0
100
AcDbLine
 10
151.6676889741
 20
160.1335036305
 30
0.0
 11
137.667688542
 21
160.1335036305
 31
0.0
  0
SPLINE
  5
155
330
1F
100
AcDbEntity
  8
0
  6
HIDDEN
 62
     7
370
     0
100
AcDbSpline
210
0.0
220
0.0
230
1.0
 70
     8
 71
     3
 72
    32
 73
    28
 74
     0
 42
0.000000001
 43
0.00000001
 40
0.0
 40
0.0
 40
0.0
 40
0.0
 40
0.1249999999999995
 40
0.1249999999999995
 40
0.1874999999999995
 40
0.1874999999999995
 40
0.2499999999999996
 40
0.2499999999999996
 40
0.3749999999999996
 40
0.3749999999999996
 40
0.4374999999999998
 40
0.4374999999999998
 40
0.5
 40
0.5
 40
0.6250000000000002
 40
0.6250000000000002
 40
0.6875000000000002
 40
0.6875000000000002
 40
0.7500000000000001
 40
0.7500000000000001
 40
0.8125000000000001
 40
0.8125000000000001
 40
0.8750000000000001
 40
0.8750000000000001
 40
0.9375
 40
0.9375
 40
1.0
 40
1.0
 40
1.0
 40
1.0
 10
230.2176887921902
 20
139.133501836431
 30
0.0
 10
230.2176887921902
 20
139.530102154258
 30
0.0
 10
230.2177580038933
 20
139.8887806308583
 30
0.0
 10
230.213102259618
 20
140.3711001062744
 30
0.0
 10
230.2105999798198
 20
140.5227100251806
 30
0.0
 10
230.2047612847698
 20
140.7984702907619
 30
0.0
 10
230.2013513962766
 20
140.9238178510505
 30
0.0
 10
230.1895999473155
 20
141.2626455815322
 30
0.0
 10
230.1792106094837
 20
141.4396968654514
 30
0.0
 10
230.1644545236757
 20
141.6149380726519
 30
0.0
 10
230.1596535581041
 20
141.6590683446871
 30
0.0
 10
230.1509036880508
 20
141.7184276180656
 30
0.0
 10
230.1470121910445
 20
141.7335347931803
 30
0.0
 10
230.1380266031722
 20
141.7334357581265
 30
0.0
 10
230.1354761819535
 20
141.6748710101343
 30
0.0
 10
230.1394676404781
 20
141.497890180635
 30
0.0
 10
230.1422906355237
 20
141.4243511397019
 30
0.0
 10
230.1499598359103
 20
141.2513711911884
 30
0.0
 10
230.1546452896244
 20
141.1516388493648
 30
0.0
 10
230.1642353581292
 20
140.9255852725715
 30
0.0
 10
230.1693035801223
 20
140.7981962079464
 30
0.0
 10
230.1832389921212
 20
140.5212092162668
 30
0.0
 10
230.1931039393005
 20
140.3721667209752
 30
0.0
 10
230.2133725275492
 20
140.0534320941281
 30
0.0
 10
230.2232125655127
 20
139.8837284314681
 30
0.0
 10
230.232934471422
 20
139.5228182681514
 30
0.0
 10
230.2327288301027
 20
139.3317148365871
 30
0.0
 10
230.2230855222873
 20
139.1335018364313
 30
0.0
  0
SPLINE
  5
156
330
1F
100
AcDbEntity
  8
0
  6
HIDDEN
 62
     7
370
     0
100
AcDbSpline
210
0.0
220
0.0
230
1.0
 70
     8
 71
     3
 72
    14
 73
    10
 74
     0
 42
0.000000001
 43
0.00000001
 40
0.0
 40
0.0
 40
0.0
 40
0.0
 40
0.25
 40
0.25
 40
0.5
 40
0.5
 40
0.75
 40
0.75
 40
1.0
 40
1.0
 40
1.0
 40
1.0
 10
230.2230855222872
 20
139.133501836431
 30
0.0
 10
230.1952675815682
 20
138.5617190422228
 30
0.0
 10
230.2123670248819
 20
137.9897440937339
 30
0.0
 10
230.2250631065306
 20
136.8458278493148
 30
0.0
 10
230.2239596584827
 20
136.2738293957794
 30
0.0
 10
230.2192122299974
 20
135.1298573471358
 30
0.0
 10
230.2164594014879
 20
134.5578719120459
 30
0.0
 10
230.2163004212775
 20
133.4138955422268
 30
0.0
 10
230.2174475802878
 20
132.8419067674924
 30
0.0
 10
230.2176492122894
 20
132.2699179510424
 30
0.0
  0
SPLINE
  5
157
330
1F
100
AcDbEntity
  8
0
  6
HIDDEN
 62
     7
370
     0
100
AcDbSpline
210
0.0
220
0.0
230
1.0
 70
    24
 71
     3
 72
    20
 73
    16
 74
     0
 42
0.000000001
 43
0.00000001
 40
0.0
 40
0.0
 40
0.0
 40
0.0
 40
0.0469163091108917
 40
0.0977062414429314
 40
0.1516689633031468
 40
0.2078463383218484
 40
0.2651938476233361
 40
0.3192095203174417
 40
0.3728953068123714
 40
0.4259306594990913
 40
0.4781535685998755
 40
0.579359673449963
 40
0.6698058354121635
 40
0.8327057026614778
 40
0.9074992363787218
 40
0.9074992363787218
 40
0.9074992363787218
 40
0.9074992363787218
 10
230.7176887921901
 20
139.3835018364356
 30
0.0
 10
230.7176887921901
 20
139.6672817322275
 30
0.0
 10
230.7176887921901
 20
140.2302877514834
 30
0.0
 10
230.7176887921902
 20
140.9825337500398
 30
0.0
 10
230.7176887921901
 20
141.6229298269793
 30
0.0
 10
230.7176887921902
 20
142.0896968924381
 30
0.0
 10
230.7176887921901
 20
142.3242717727783
 30
0.0
 10
230.7176887921902
 20
142.3100231248344
 30
0.0
 10
230.7176887921902
 20
142.0590469608919
 30
0.0
 10
230.7176887921901
 20
141.5859332696846
 30
0.0
 10
230.7176887921902
 20
140.7301041533605
 30
0.0
 10
230.7176887921902
 20
139.3130285699756
 30
0.0
 10
230.7176887921901
 20
137.2993621946133
 30
0.0
 10
230.7176887921901
 20
135.8831834459832
 30
0.0
 10
230.7176887921901
 20
133.889951413155
 30
0.0
 10
230.7176887921901
 20
133.2312030806207
 30
0.0
  0
SPLINE
  5
158
330
1F
100
AcDbEntity
  8
0
  6
HIDDEN
 62
     7
370
     0
100
AcDbSpline
210
0.0
220
0.0
230
1.0
 70
     8
 71
     3
 72
    14
 73
    10
 74
     0
 42
0.000000001
 43
0.00000001
 40
0.0
 40
0.0
 40
0.0
 40
0.0
 40
0.25
 40
0.25
 40
0.5
 40
0.5
 40
0.75
 40
0.75
 40
1.0
 40
1.0
 40
1.0
 40
1.0
 10
230.2230745482702
 20
93.33350183643098
 30
0.0
 10
230.1953159245329
 20
93.90520961362043
 30
0.0
 10
230.2123241714727
 20
94.47720340749422
 30
0.0
 10
230.2251204389883
 20
95.62112500700955
 30
0.0
 10
230.2239089745192
 20
96.19313731181752
 30
0.0
 10
230.2191231829217
 20
97.33712043260574
 30
0.0
 10
230.2165267389515
 20
97.90911167131914
 30
0.0
 10
230.2162490585713
 20
99.05310296274465
 30
0.0
 10
230.2173900816394
 20
99.6250991815056
 30
0.0
 10
230.2176389859989
 20
100.1970953242195
 30
0.0
  0
SPLINE
  5
159
330
1F
100
AcDbEntity
  8
0
  6
HIDDEN
 62
     7
370
     0
100
AcDbSpline
210
0.0
220
0.0
230
1.0
 70
     8
 71
     3
 72
    34
 73
    30
 74
     0
 42
0.000000001
 43
0.00000001
 40
0.0
 40
0.0
 40
0.0
 40
0.0
 40
0.1250000000000005
 40
0.1250000000000005
 40
0.1875000000000004
 40
0.1875000000000004
 40
0.2500000000000004
 40
0.2500000000000004
 40
0.3125000000000003
 40
0.3125000000000003
 40
0.3750000000000003
 40
0.3750000000000003
 40
0.4375000000000003
 40
0.4375000000000003
 40
0.5000000000000002
 40
0.5000000000000002
 40
0.6250000000000003
 40
0.6250000000000003
 40
0.6875000000000003
 40
0.6875000000000003
 40
0.7500000000000002
 40
0.7500000000000002
 40
0.8125000000000002
 40
0.8125000000000002
 40
0.8750000000000001
 40
0.8750000000000001
 40
0.9375000000000001
 40
0.9375000000000001
 40
1.0
 40
1.0
 40
1.0
 40
1.0
 10
230.2176887921901
 20
93.33350183643097
 30
0.0
 10
230.2176887921901
 20
92.9368050204271
 30
0.0
 10
230.2174482179188
 20
92.57862544924775
 30
0.0
 10
230.2128601381217
 20
92.09743681120275
 30
0.0
 10
230.2106259935875
 20
91.94562155470607
 30
0.0
 10
230.2049479231821
 20
91.66906418522919
 30
0.0
 10
230.2014854373494
 20
91.54358110256577
 30
0.0
 10
230.1935181153455
 20
91.31772407565717
 30
0.0
 10
230.1890324792095
 20
91.21734844527171
 30
0.0
 10
230.1794008316762
 20
91.04252936733604
 30
0.0
 10
230.1743053974414
 20
90.96914033565248
 30
0.0
 10
230.1644817210131
 20
90.85211721584481
 30
0.0
 10
230.1596775955313
 20
90.80800860520053
 30
0.0
 10
230.1509253829985
 20
90.74868477378743
 30
0.0
 10
230.1470318861004
 20
90.733511798986
 30
0.0
 10
230.1380113380442
 20
90.73348192622778
 30
0.0
 10
230.1354910957886
 20
90.79231024919747
 30
0.0
 10
230.1394569062211
 20
90.96866948642744
 30
0.0
 10
230.1422816454711
 20
91.04253688253557
 30
0.0
 10
230.1499584598902
 20
91.21581961020252
 30
0.0
 10
230.1546484311256
 20
91.31562493648016
 30
0.0
 10
230.1642503659756
 20
91.5414436476374
 30
0.0
 10
230.1692970581515
 20
91.66808167650882
 30
0.0
 10
230.1832549957654
 20
91.94597544444404
 30
0.0
 10
230.1931096098842
 20
92.09534391786346
 30
0.0
 10
230.2133383387961
 20
92.41430306271134
 30
0.0
 10
230.2231491925617
 20
92.5839063355699
 30
0.0
 10
230.2328659991963
 20
92.94398541167634
 30
0.0
 10
230.2327033560867
 20
93.13518997609059
 30
0.0
 10
230.2230745482701
 20
93.33350183643095
 30
0.0
  0
SPLINE
  5
15A
330
1F
100
AcDbEntity
  8
0
  6
HIDDEN
 62
     7
370
     0
100
AcDbSpline
210
0.0
220
0.0
230
1.0
 70
    24
 71
     3
 72
    20
 73
    16
 74
     0
 42
0.000000001
 43
0.00000001
 40
0.0
 40
0.0
 40
0.0
 40
0.0
 40
0.0469163091108918
 40
0.0977062414429315
 40
0.1516689633031469
 40
0.2078463383218485
 40
0.2651938476233363
 40
0.3192095203174418
 40
0.3728953068123716
 40
0.4259306594990914
 40
0.4781535685998757
 40
0.5793596734499633
 40
0.6698058354121639
 40
0.8327057026614785
 40
0.907499236378722
 40
0.907499236378722
 40
0.907499236378722
 40
0.907499236378722
 10
230.7176887921902
 20
93.08350183642644
 30
0.0
 10
230.7176887921902
 20
92.79972194063451
 30
0.0
 10
230.7176887921902
 20
92.23671592137855
 30
0.0
 10
230.7176887921901
 20
91.48446992282221
 30
0.0
 10
230.7176887921902
 20
90.84407384588268
 30
0.0
 10
230.7176887921902
 20
90.37730678042387
 30
0.0
 10
230.7176887921902
 20
90.14273190008372
 30
0.0
 10
230.7176887921902
 20
90.15698054802758
 30
0.0
 10
230.7176887921902
 20
90.40795671197009
 30
0.0
 10
230.7176887921902
 20
90.88107040317745
 30
0.0
 10
230.7176887921902
 20
91.73689951950153
 30
0.0
 10
230.7176887921902
 20
93.15397510288636
 30
0.0
 10
230.7176887921902
 20
95.16764147824865
 30
0.0
 10
230.7176887921902
 20
96.58382022687877
 30
0.0
 10
230.7176887921902
 20
98.57705225970695
 30
0.0
 10
230.7176887921902
 20
99.23580059224129
 30
0.0
  0
LINE
  5
15B
330
1F
100
AcDbEntity
  8
0
  6
HIDDEN
 62
     7
370
     0
100
AcDbLine
 10
190.2176914745
 20
125.4767144767
 30
0.0
 11
190.2176914745
 21
106.9902891961
 31
0.0
  0
LINE
  5
15C
330
1F
100
AcDbEntity
  8
0
  6
HIDDEN
 62
     7
370
     0
100
AcDbLine
 10
214.1176862651
 20
139.133502051
 30
0.0
 11
214.1176862651
 21
132.0499463675
 31
0.0
  0
LINE
  5
15D
330
1F
100
AcDbEntity
  8
0
  6
HIDDEN
 62
     7
370
     0
100
AcDbLine
 10
214.1176862651
 20
93.3335016219
 30
0.0
 11
214.1176862651
 21
100.4170573053
 31
0.0
  0
SPLINE
  5
15E
330
1F
100
AcDbEntity
  8
0
  6
HIDDEN
 62
     7
370
     0
100
AcDbSpline
210
0.0
220
0.0
230
1.0
 70
    11
 71
     3
 72
    43
 73
    39
 74
     0
 42
0.000000001
 43
0.00000001
 40
0.0
 40
0.0
 40
0.0
 40
0.0
 40
0.0284105698899475
 40
0.0550998574881843
 40
0.0800772929339482
 40
0.1033546039290141
 40
0.1249465072218033
 40
0.154290665226688
 40
0.1874273443296931
 40
0.2118955233434757
 40
0.249980619800602
 40
0.27425987022302
 40
0.2971733732882939
 40
0.3187280787772903
 40
0.3389324365508371
 40
0.3577968097597656
 40
0.3753340366442094
 40
0.4115607085079785
 40
0.4530653289854378
 40
0.4999157535593199
 40
0.5208052877033013
 40
0.5382319773325901
 40
0.5521939656693359
 40
0.5626899286748739
 40
0.5959292802566815
 40
0.6252973741914202
 40
0.6621940257190848
 40
0.7037412342680629
 40
0.7499883761538882
 40
0.7768708437245152
 40
0.7977153902377901
 40
0.812514791496874
 40
0.8456185013180887
 40
0.8750030524641659
 40
0.904390617073086
 40
0.9375064036507931
 40
0.9621386351293953
 40
1.0
 40
1.0
 40
1.0
 40
1.0
 10
103.4777755328221
 20
79.97216392312126
 30
0.0
 10
103.7307512826037
 20
79.99236074825384
 30
0.0
 10
104.2649827352746
 20
80.02942671582299
 30
0.0
 10
105.1420805147323
 20
80.0623756922193
 30
0.0
 10
106.0284098451746
 20
80.074283857493
 30
0.0
 10
106.8915571591908
 20
80.06447777110884
 30
0.0
 10
107.8254104948241
 20
80.02810275805383
 30
0.0
 10
108.8817225813455
 20
79.94734968748547
 30
0.0
 10
109.9323479338976
 20
79.8325024753761
 30
0.0
 10
111.000454764158
 20
79.68041330410975
 30
0.0
 10
111.8611274607901
 20
79.53302193448805
 30
0.0
 10
112.5572299658031
 20
79.39524091140893
 30
0.0
 10
113.0177600470328
 20
79.30075437582059
 30
0.0
 10
113.3518260768685
 20
79.2266240540871
 30
0.0
 10
113.571883152015
 20
79.1735399713615
 30
0.0
 10
113.692346676401
 20
79.14131053335393
 30
0.0
 10
113.7429814921763
 20
79.12570264731976
 30
0.0
 10
113.6051754475929
 20
79.16731746506743
 30
0.0
 10
113.0501547944244
 20
79.29590054125272
 30
0.0
 10
112.2254871169042
 20
79.46396017350156
 30
0.0
 10
111.4270822821499
 20
79.6084400746899
 30
0.0
 10
110.8888574744259
 20
79.69400359805661
 30
0.0
 10
110.430822623389
 20
79.76131168676498
 30
0.0
 10
109.7752624282461
 20
79.8496564019213
 30
0.0
 10
108.891866256195
 20
79.94630612921982
 30
0.0
 10
107.642642202754
 20
80.04242511828028
 30
0.0
 10
106.282121991445
 20
80.0800274982385
 30
0.0
 10
104.7973457269774
 20
80.05938426791562
 30
0.0
 10
103.6213841528505
 20
79.98895270201126
 30
0.0
 10
102.8553968267519
 20
79.91724949635993
 30
0.0
 10
102.4415106620459
 20
79.87352949563025
 30
0.0
 10
102.0723305883462
 20
79.82898930962092
 30
0.0
 10
101.7917011102732
 20
79.79275435530326
 30
0.0
 10
101.6833774031758
 20
79.7746730321747
 30
0.0
 10
101.7896329120293
 20
79.79245816700164
 30
0.0
 10
102.1040596739221
 20
79.83343248009031
 30
0.0
 10
102.6500971277042
 20
79.89764225671412
 30
0.0
 10
103.1406472315242
 20
79.94524861066765
 30
0.0
 10
103.477775532822
 20
79.97216392312126
 30
0.0
  0
SPLINE
  5
15F
330
1F
100
AcDbEntity
  8
0
  6
HIDDEN
 62
     7
370
     0
100
AcDbSpline
210
0.0
220
0.0
230
1.0
 70
    11
 71
     3
 72
    43
 73
    39
 74
     0
 42
0.000000001
 43
0.00000001
 40
0.0
 40
0.0
 40
0.0
 40
0.0
 40
0.0273365738614954
 40
0.0520717403569379
 40
0.0742047603534342
 40
0.093735429299858
 40
0.1106643003349586
 40
0.124993109577529
 40
0.1543513865356858
 40
0.1874527833689965
 40
0.21191776903617
 40
0.2499503115780389
 40
0.2783738631978241
 40
0.3050847229523431
 40
0.3300923654939898
 40
0.3534085554415837
 40
0.3750480314725512
 40
0.4043774817997218
 40
0.4374963616386774
 40
0.4617853789925119
 40
0.4999948248458405
 40
0.5242323768377837
 40
0.5471082899893868
 40
0.5686295237903074
 40
0.5888045366262702
 40
0.6076436979432006
 40
0.6251598482955782
 40
0.66899863538139
 40
0.7186819201206565
 40
0.7374501607232948
 40
0.7656131886438391
 40
0.7919505200854378
 40
0.8125718764315152
 40
0.8617921544245524
 40
0.9062097777925513
 40
0.9344015794628454
 40
0.9656596461796663
 40
1.0
 40
1.0
 40
1.0
 40
1.0
 10
103.4777729246916
 20
152.4947697756909
 30
0.0
 10
103.2343887243489
 20
152.5141350542685
 30
0.0
 10
102.8110652737082
 20
152.55291420758
 30
0.0
 10
102.3326235925944
 20
152.6006491073429
 30
0.0
 10
102.0151113527399
 20
152.6384422276791
 30
0.0
 10
101.8267046871356
 20
152.6654435744302
 30
0.0
 10
101.7353409578803
 20
152.6822203163264
 30
0.0
 10
101.7010301803376
 20
152.6900760261358
 30
0.0
 10
101.7907535241655
 20
152.6739844294162
 30
0.0
 10
102.1053260641225
 20
152.6333722891522
 30
0.0
 10
102.6515456328548
 20
152.5689773003542
 30
0.0
 10
103.3655701883031
 20
152.4998314922376
 30
0.0
 10
104.2695306781797
 20
152.4373247564463
 30
0.0
 10
105.1478257348004
 20
152.4045332364451
 30
0.0
 10
106.0355995062486
 20
152.3928012258871
 30
0.0
 10
106.9004247424938
 20
152.4028148189754
 30
0.0
 10
107.8352706089206
 20
152.4393814188721
 30
0.0
 10
108.8915560995497
 20
152.520317053249
 30
0.0
 10
109.9390792813385
 20
152.6350858226544
 30
0.0
 10
111.0057191234341
 20
152.7873537993118
 30
0.0
 10
111.8649496108746
 20
152.934624408865
 30
0.0
 10
112.5605320771016
 20
153.0724481733679
 30
0.0
 10
113.0197054870008
 20
153.1667371881633
 30
0.0
 10
113.3528108846311
 20
153.2407015264908
 30
0.0
 10
113.5722611990586
 20
153.2936164425011
 30
0.0
 10
113.6924097772157
 20
153.3257975220475
 30
0.0
 10
113.7482536306933
 20
153.3425245514831
 30
0.0
 10
113.5539051784236
 20
153.2873628199388
 30
0.0
 10
112.9511187155017
 20
153.1550505188779
 30
0.0
 10
112.2221043411327
 20
153.0033945962422
 30
0.0
 10
111.5668703177237
 20
152.8805457446383
 30
0.0
 10
110.7933488126133
 20
152.7555642591387
 30
0.0
 10
109.7153784510449
 20
152.6054416752359
 30
0.0
 10
108.3012157782959
 20
152.4636578385473
 30
0.0
 10
106.7510140690562
 20
152.3909258076719
 30
0.0
 10
105.4899394476593
 20
152.3943291460379
 30
0.0
 10
104.4313028825252
 20
152.426966223706
 30
0.0
 10
103.7835134902942
 20
152.4704430066688
 30
0.0
 10
103.4777729246916
 20
152.4947697756909
 30
0.0
  0
LINE
  5
160
330
1F
100
AcDbEntity
  8
0
  6
HIDDEN
 62
     7
370
     0
100
AcDbLine
 10
214.1176862651
 20
93.3335016219
 30
0.0
 11
214.1176862651
 21
90.7335023133
 31
0.0
  0
LINE
  5
161
330
1F
100
AcDbEntity
  8
0
  6
HIDDEN
 62
     7
370
     0
100
AcDbLine
 10
214.1176862651
 20
139.133502051
 30
0.0
 11
214.1176862651
 21
141.7335013596
 31
0.0
  0
LINE
  5
162
330
1F
100
AcDbEntity
  8
0
  6
HIDDEN
 62
     7
370
     0
100
AcDbLine
 10
127.6676887655
 20
72.3335000423
 30
0.0
 11
137.667688542
 21
72.3335000423
 31
0.0
  0
SPLINE
  5
163
330
1F
100
AcDbEntity
  8
0
  6
HIDDEN
 62
     7
370
     0
100
AcDbSpline
210
0.0
220
0.0
230
1.0
 70
     8
 71
     3
 72
    10
 73
     6
 74
     0
 42
0.000000001
 43
0.00000001
 40
0.0
 40
0.0
 40
0.0
 40
0.0
 40
0.5
 40
0.5
 40
1.0
 40
1.0
 40
1.0
 40
1.0
 10
229.7176887923038
 20
100.4170569400996
 30
0.0
 10
229.8150948476537
 20
100.4170569400996
 30
0.0
 10
229.9098429389823
 20
100.3925649063894
 30
0.0
 10
230.0779934554973
 20
100.3128838557792
 30
0.0
 10
230.1528982731691
 20
100.257893334957
 30
0.0
 10
230.2176887921902
 20
100.1970485542343
 30
0.0
  0
LINE
  5
164
330
1F
100
AcDbEntity
  8
0
  6
HIDDEN
 62
     7
370
     0
100
AcDbLine
 10
230.2176905804
 20
100.1970491109
 30
0.0
 11
230.2176905804
 21
93.3335016219
 31
0.0
  0
LINE
  5
165
330
1F
100
AcDbEntity
  8
0
  6
HIDDEN
 62
     7
370
     0
100
AcDbLine
 10
230.2176905804
 20
132.269954562
 30
0.0
 11
230.2176905804
 21
139.133502051
 31
0.0
  0
SPLINE
  5
166
330
1F
100
AcDbEntity
  8
0
  6
HIDDEN
 62
     7
370
     0
100
AcDbSpline
210
0.0
220
0.0
230
1.0
 70
     8
 71
     3
 72
    10
 73
     6
 74
     0
 42
0.000000001
 43
0.00000001
 40
0.0
 40
0.0
 40
0.0
 40
0.0
 40
0.5
 40
0.5
 40
1.0
 40
1.0
 40
1.0
 40
1.0
 10
229.7176887923038
 20
132.0499467327624
 30
0.0
 10
229.8150948476537
 20
132.0499467327624
 30
0.0
 10
229.9098429389823
 20
132.0744387664726
 30
0.0
 10
230.0779934554973
 20
132.1541198170828
 30
0.0
 10
230.1528982731691
 20
132.209110337905
 30
0.0
 10
230.2176887921902
 20
132.2699551186277
 30
0.0
  0
SPLINE
  5
167
330
1F
100
AcDbEntity
  8
0
  6
HIDDEN
 62
     7
370
     0
100
AcDbSpline
210
0.0
220
0.0
230
1.0
 70
     8
 71
     3
 72
    16
 73
    12
 74
     0
 42
0.000000001
 43
0.00000001
 40
0.0
 40
0.0
 40
0.0
 40
0.0
 40
0.2499999999999895
 40
0.2499999999999895
 40
0.3749999999999925
 40
0.3749999999999925
 40
0.4999999999999956
 40
0.4999999999999956
 40
0.7499999999999978
 40
0.7499999999999978
 40
1.0
 40
1.0
 40
1.0
 40
1.0
 10
230.2176887921901
 20
132.2699551186277
 30
0.0
 10
230.291510878874
 20
132.2745502566538
 30
0.0
 10
230.3724244687049
 20
132.2997402105046
 30
0.0
 10
230.4853825514692
 20
132.3967107597408
 30
0.0
 10
230.5199733454125
 20
132.4378256601857
 30
0.0
 10
230.5789679539654
 20
132.5302306363275
 30
0.0
 10
230.6033253397796
 20
132.5810808509534
 30
0.0
 10
230.6621380304314
 20
132.7337884246866
 30
0.0
 10
230.6846090159016
 20
132.8384639809664
 30
0.0
 10
230.7123678433541
 20
133.0388551871669
 30
0.0
 10
230.7176887923043
 20
133.1373811347981
 30
0.0
 10
230.7176887923039
 20
133.2322620822401
 30
0.0
  0
LINE
  5
168
330
1F
100
AcDbEntity
  8
0
  6
HIDDEN
 62
     7
370
     0
100
AcDbLine
 10
230.7176915937
 20
133.2322622386
 30
0.0
 11
230.7176915937
 21
139.3835025576
 31
0.0
  0
SPLINE
  5
169
330
1F
100
AcDbEntity
  8
0
  6
HIDDEN
 62
     7
370
     0
100
AcDbSpline
210
0.0
220
0.0
230
1.0
 70
     8
 71
     3
 72
    18
 73
    14
 74
     0
 42
0.000000001
 43
0.00000001
 40
0.0
 40
0.0
 40
0.0
 40
0.0
 40
0.2500000000000095
 40
0.2500000000000095
 40
0.5000000000000191
 40
0.5000000000000191
 40
0.6250000000000143
 40
0.6250000000000143
 40
0.7500000000000095
 40
0.7500000000000095
 40
0.8750000000000048
 40
0.8750000000000048
 40
1.0
 40
1.0
 40
1.0
 40
1.0
 10
230.7176887923051
 20
99.23474159062327
 30
0.0
 10
230.7176887923056
 20
99.32955817837153
 30
0.0
 10
230.7123643203478
 20
99.4282832764382
 30
0.0
 10
230.6845386258994
 20
99.62893818876512
 30
0.0
 10
230.6621299845493
 20
99.73346266143618
 30
0.0
 10
230.6029193384703
 20
99.88686256483278
 30
0.0
 10
230.5785656082116
 20
99.93744272648554
 30
0.0
 10
230.5200932826222
 20
100.0289504762682
 30
0.0
 10
230.484954192591
 20
100.0706740503674
 30
0.0
 10
230.4103659692474
 20
100.1346785845924
 30
0.0
 10
230.3703699418581
 20
100.1578082100431
 30
0.0
 10
230.2926148417529
 20
100.1875477367938
 30
0.0
 10
230.2542635477398
 20
100.1947719178295
 30
0.0
 10
230.2176887921901
 20
100.1970485542343
 30
0.0
  0
LINE
  5
16A
330
1F
100
AcDbEntity
  8
0
  6
HIDDEN
 62
     7
370
     0
100
AcDbLine
 10
230.7176915937
 20
99.2347414342
 30
0.0
 11
230.7176915937
 21
93.0835011152
 31
0.0
  0
LINE
  5
16B
330
1F
100
AcDbEntity
  8
0
  6
HIDDEN
 62
     7
370
     0
100
AcDbLine
 10
82.9176893466
 20
143.6035020945
 30
0.0
 11
82.9176893466
 21
149.9781089572
 31
0.0
  0
LINE
  5
16C
330
1F
100
AcDbEntity
  8
0
  6
HIDDEN
 62
     7
370
     0
100
AcDbLine
 10
87.9176883035
 20
88.8635015783
 30
0.0
 11
87.9176883035
 21
82.3641682712
 31
0.0
  0
LINE
  5
16D
330
1F
100
AcDbEntity
  8
0
  6
HIDDEN
 62
     7
370
     0
100
AcDbLine
 10
230.7176915937
 20
99.2347414342
 30
0.0
 11
230.7176915937
 21
133.2322622386
 31
0.0
  0
SPLINE
  5
16E
330
1F
100
AcDbEntity
  8
0
  6
HIDDEN
 62
     7
370
     0
100
AcDbSpline
210
0.0
220
0.0
230
1.0
 70
     8
 71
     3
 72
    14
 73
    10
 74
     0
 42
0.000000001
 43
0.00000001
 40
0.0
 40
0.0
 40
0.0
 40
0.0
 40
0.25
 40
0.25
 40
0.5
 40
0.5
 40
0.75
 40
0.75
 40
1.0
 40
1.0
 40
1.0
 40
1.0
 10
150.6676887923038
 20
165.2232966920946
 30
0.0
 10
150.7997255301224
 20
165.2232966920946
 30
0.0
 10
150.9341258205625
 20
165.1954902446461
 30
0.0
 10
151.176214246162
 20
165.0916312351821
 30
0.0
 10
151.28763270304
 20
165.0144402266097
 30
0.0
 10
151.4706431925801
 20
164.8252931488967
 30
0.0
 10
151.5440694388257
 20
164.7115889291941
 30
0.0
 10
151.6422101791836
 20
164.4667901621587
 30
0.0
 10
151.6676887923038
 20
164.3346613482289
 30
0.0
 10
151.6676887923038
 20
164.2022416572768
 30
0.0
  0
SPLINE
  5
16F
330
1F
100
AcDbEntity
  8
0
  6
HIDDEN
 62
     7
370
     0
100
AcDbSpline
210
0.0
220
0.0
230
1.0
 70
     8
 71
     3
 72
    14
 73
    10
 74
     0
 42
0.000000001
 43
0.00000001
 40
0.0
 40
0.0
 40
0.0
 40
0.0
 40
0.25
 40
0.25
 40
0.5
 40
0.5
 40
0.75
 40
0.75
 40
1.0
 40
1.0
 40
1.0
 40
1.0
 10
150.6676887923038
 20
67.4585082434022
 30
0.0
 10
150.8012504117932
 20
67.45850824340222
 30
0.0
 10
150.9329874323305
 20
67.48597422000468
 30
0.0
 10
151.177004791644
 20
67.59106777677134
 30
0.0
 10
151.288031436987
 20
67.66856519945694
 30
0.0
 10
151.4712534094466
 20
67.85904881279309
 30
0.0
 10
151.5445449622189
 20
67.97344986246861
 30
0.0
 10
151.6422418228766
 20
68.21871176093147
 30
0.0
 10
151.6676887923039
 20
68.35197095575023
 30
0.0
 10
151.6676887923038
 20
68.48415629117859
 30
0.0
  0
LINE
  5
170
330
1F
100
AcDbEntity
  8
0
  6
HIDDEN
 62
     7
370
     0
100
AcDbLine
 10
151.6676889741
 20
164.2022433428
 30
0.0
 11
151.6676889741
 21
68.4841575769
 31
0.0
  0
SPLINE
  5
171
330
1F
100
AcDbEntity
  8
0
  6
HIDDEN
 62
     7
370
     0
100
AcDbSpline
210
0.0
220
0.0
230
1.0
 70
     8
 71
     3
 72
     8
 73
     4
 74
     0
 42
0.000000001
 43
0.00000001
 40
0.0
 40
0.0
 40
0.0
 40
0.0
 40
1.0
 40
1.0
 40
1.0
 40
1.0
 10
139.4556597713824
 20
165.2232966920946
 30
0.0
 10
139.9066867400957
 20
164.4259861219067
 30
0.0
 10
140.3573805566193
 20
163.6284878222495
 30
0.0
 10
140.8076887923038
 20
162.8307726971359
 30
0.0
  0
SPLINE
  5
172
330
1F
100
AcDbEntity
  8
0
  6
HIDDEN
 62
     7
370
     0
100
AcDbSpline
210
0.0
220
0.0
230
1.0
 70
     8
 71
     3
 72
    14
 73
    10
 74
     0
 42
0.000000001
 43
0.00000001
 40
0.0
 40
0.0
 40
0.0
 40
0.0
 40
0.25
 40
0.25
 40
0.5
 40
0.5
 40
0.75
 40
0.75
 40
1.0
 40
1.0
 40
1.0
 40
1.0
 10
140.8076887923038
 20
161.927053077279
 30
0.0
 10
140.8076887923038
 20
161.8206963835266
 30
0.0
 10
140.8280763484451
 20
161.7148558957665
 30
0.0
 10
140.9067106939066
 20
161.51829098223
 30
0.0
 10
140.9654420535453
 20
161.4271202399428
 30
0.0
 10
141.1120509591479
 20
161.2752091509112
 30
0.0
 10
141.2014562791745
 20
161.2131403140917
 30
0.0
 10
141.3953470117749
 20
161.129872266333
 30
0.0
 10
141.5018520016647
 20
161.1077775966034
 30
0.0
 10
141.6076887923041
 20
161.1077775966034
 30
0.0
  0
LINE
  5
173
330
1F
100
AcDbEntity
  8
0
  6
HIDDEN
 62
     7
370
     0
100
AcDbLine
 10
141.6076896721
 20
161.1077788023
 30
0.0
 11
143.8276888811
 21
161.1077788023
 31
0.0
  0
SPLINE
  5
174
330
1F
100
AcDbEntity
  8
0
  6
HIDDEN
 62
     7
370
     0
100
AcDbSpline
210
0.0
220
0.0
230
1.0
 70
     8
 71
     3
 72
    10
 73
     6
 74
     0
 42
0.000000001
 43
0.00000001
 40
0.0
 40
0.0
 40
0.0
 40
0.0
 40
0.5
 40
0.5
 40
1.0
 40
1.0
 40
1.0
 40
1.0
 10
143.8276887923038
 20
161.1077775966035
 30
0.0
 10
144.0402251061602
 20
161.1077775966035
 30
0.0
 10
144.2501612778142
 20
161.1991901832336
 30
0.0
 10
144.5438684188254
 20
161.5039350491378
 30
0.0
 10
144.6276887923038
 20
161.7160900190465
 30
0.0
 10
144.6276887923038
 20
161.927053077279
 30
0.0
  0
SPLINE
  5
175
330
1F
100
AcDbEntity
  8
0
  6
HIDDEN
 62
     7
370
     0
100
AcDbSpline
210
0.0
220
0.0
230
1.0
 70
     8
 71
     3
 72
     8
 73
     4
 74
     0
 42
0.000000001
 43
0.00000001
 40
0.0
 40
0.0
 40
0.0
 40
0.0
 40
1.0
 40
1.0
 40
1.0
 40
1.0
 10
144.6276887923038
 20
162.8307726971359
 30
0.0
 10
145.0779970279884
 20
163.6284878222495
 30
0.0
 10
145.5286908445119
 20
164.4259861219067
 30
0.0
 10
145.9797178132252
 20
165.2232966920946
 30
0.0
  0
LINE
  5
176
330
1F
100
AcDbEntity
  8
0
  6
HIDDEN
 62
     7
370
     0
100
AcDbLine
 10
145.979718306
 20
165.2232969848
 30
0.0
 11
150.6676888102
 21
165.2232969848
 31
0.0
  0
LINE
  5
177
330
1F
100
AcDbEntity
  8
0
  6
HIDDEN
 62
     7
370
     0
100
AcDbLine
 10
145.979718306
 20
165.2232969848
 30
0.0
 11
145.979718306
 21
67.4585069267
 31
0.0
  0
LINE
  5
178
330
1F
100
AcDbEntity
  8
0
  6
HIDDEN
 62
     7
370
     0
100
AcDbLine
 10
144.6276893848
 20
162.8307739941
 30
0.0
 11
144.6276893848
 21
69.862112656
 31
0.0
  0
SPLINE
  5
179
330
1F
100
AcDbEntity
  8
0
  6
HIDDEN
 62
     7
370
     0
100
AcDbSpline
210
0.0
220
0.0
230
1.0
 70
     8
 71
     3
 72
    12
 73
     8
 74
     0
 42
0.000000001
 43
0.00000001
 40
0.0
 40
0.0
 40
0.0
 40
0.0
 40
0.250000000000003
 40
0.250000000000003
 40
0.500000000000006
 40
0.500000000000006
 40
1.0
 40
1.0
 40
1.0
 40
1.0
 10
143.8276887923038
 20
71.59382637838137
 30
0.0
 10
143.9334494456528
 20
71.59382637838135
 30
0.0
 10
144.0414370738357
 20
71.57128687238095
 30
0.0
 10
144.2360317391013
 20
71.48671624038563
 30
0.0
 10
144.3249036519402
 20
71.4242345876268
 30
0.0
 10
144.5440959442661
 20
71.19484563615458
 30
0.0
 10
144.6276887923039
 20
70.98226229863216
 30
0.0
 10
144.6276887923038
 20
70.77032305403597
 30
0.0
  0
LINE
  5
17A
330
1F
100
AcDbEntity
  8
0
  6
HIDDEN
 62
     7
370
     0
100
AcDbLine
 10
144.6276893848
 20
161.9270520953
 30
0.0
 11
144.6276893848
 21
70.7703235296
 31
0.0
  0
LINE
  5
17B
330
1F
100
AcDbEntity
  8
0
  6
HIDDEN
 62
     7
370
     0
100
AcDbLine
 10
140.8076891684
 20
161.9270520953
 30
0.0
 11
140.8076891684
 21
70.7703235296
 31
0.0
  0
SPLINE
  5
17C
330
1F
100
AcDbEntity
  8
0
  6
HIDDEN
 62
     7
370
     0
100
AcDbSpline
210
0.0
220
0.0
230
1.0
 70
     8
 71
     3
 72
    14
 73
    10
 74
     0
 42
0.000000001
 43
0.00000001
 40
0.0
 40
0.0
 40
0.0
 40
0.0
 40
0.25
 40
0.25
 40
0.5
 40
0.5
 40
0.75
 40
0.75
 40
1.0
 40
1.0
 40
1.0
 40
1.0
 10
140.8076887923038
 20
70.77032305403611
 30
0.0
 10
140.8076887923038
 20
70.8773671350305
 30
0.0
 10
140.827806479462
 20
70.98260227527295
 30
0.0
 10
140.9062976687276
 20
71.18045276212062
 30
0.0
 10
140.9644542935288
 20
71.27150452568554
 30
0.0
 10
141.1109695491469
 20
71.42467061961032
 30
0.0
 10
141.1996120977879
 20
71.48696506581973
 30
0.0
 10
141.3953354205883
 20
71.57175885135572
 30
0.0
 10
141.5005666116592
 20
71.59382637838135
 30
0.0
 10
141.6076887923038
 20
71.59382637838135
 30
0.0
  0
LINE
  5
17D
330
1F
100
AcDbEntity
  8
0
  6
HIDDEN
 62
     7
370
     0
100
AcDbLine
 10
140.8076891684
 20
162.8307739941
 30
0.0
 11
140.8076891684
 21
69.862112656
 31
0.0
  0
LINE
  5
17E
330
1F
100
AcDbEntity
  8
0
  6
HIDDEN
 62
     7
370
     0
100
AcDbLine
 10
72.81768974
 20
141.0868952719
 30
0.0
 11
72.81768974
 21
91.380108401
 31
0.0
  0
LINE
  5
17F
330
1F
100
AcDbEntity
  8
0
  6
HIDDEN
 62
     7
370
     0
100
AcDbLine
 10
74.4676878684
 20
143.6035020945
 30
0.0
 11
74.4676878684
 21
148.4817865042
 31
0.0
  0
SPLINE
  5
180
330
1F
100
AcDbEntity
  8
0
  6
HIDDEN
 62
     7
370
     0
100
AcDbSpline
210
0.0
220
0.0
230
1.0
 70
     8
 71
     3
 72
     8
 73
     4
 74
     0
 42
0.000000001
 43
0.00000001
 40
0.0
 40
0.0
 40
0.0
 40
0.0
 40
1.0
 40
1.0
 40
1.0
 40
1.0
 10
74.71761390826956
 20
148.4793340049956
 30
0.0
 10
74.63059587842119
 20
148.4798005697827
 30
0.0
 10
74.54764185204125
 20
148.4808405893588
 30
0.0
 10
74.4676887923015
 20
148.4817870382511
 30
0.0
  0
SPLINE
  5
181
330
1F
100
AcDbEntity
  8
0
  6
HIDDEN
 62
     7
370
     0
100
AcDbSpline
210
0.0
220
0.0
230
1.0
 70
     8
 71
     3
 72
    14
 73
    10
 74
     0
 42
0.000000001
 43
0.00000001
 40
0.0
 40
0.0
 40
0.0
 40
0.0
 40
0.25
 40
0.25
 40
0.5
 40
0.5
 40
0.75
 40
0.75
 40
1.0
 40
1.0
 40
1.0
 40
1.0
 10
72.81768879230383
 20
85.73083209386307
 30
0.0
 10
72.81768879230383
 20
85.68958516283872
 30
0.0
 10
72.82629850868508
 20
85.65267819055624
 30
0.0
 10
72.85738468825541
 20
85.59177813065683
 30
0.0
 10
72.87977424173947
 20
85.56759721111715
 30
0.0
 10
72.93451817291559
 20
85.5336296202339
 30
0.0
 10
72.96696841250078
 20
85.5237095362657
 30
0.0
 10
73.03696992722884
 20
85.52235832736085
 30
0.0
 10
73.0751804273514
 20
85.53051660405701
 30
0.0
 10
73.10850302402447
 20
85.5550186837251
 30
0.0
  0
LINE
  5
182
330
1F
100
AcDbEntity
  8
0
  6
HIDDEN
 62
     7
370
     0
100
AcDbLine
 10
72.81768974
 20
88.8635015783
 30
0.0
 11
72.81768974
 21
85.7308323232
 31
0.0
  0
LINE
  5
183
330
1F
100
AcDbEntity
  8
0
  6
HIDDEN
 62
     7
370
     0
100
AcDbLine
 10
74.4676878684
 20
88.8635015783
 30
0.0
 11
74.4676878684
 21
83.9852171687
 31
0.0
  0
SPLINE
  5
184
330
1F
100
AcDbEntity
  8
0
  6
HIDDEN
 62
     7
370
     0
100
AcDbSpline
210
0.0
220
0.0
230
1.0
 70
     8
 71
     3
 72
    10
 73
     6
 74
     0
 42
0.000000001
 43
0.00000001
 40
0.0
 40
0.0
 40
0.0
 40
0.0
 40
0.5
 40
0.5
 40
1.0
 40
1.0
 40
1.0
 40
1.0
 10
73.79424103400531
 20
84.9106357359546
 30
0.0
 10
73.8814914531385
 20
84.7385651151018
 30
0.0
 10
73.99176642853422
 20
84.57049604203891
 30
0.0
 10
74.22135040349119
 20
84.25992574934999
 30
0.0
 10
74.34280052155137
 20
84.11621291268504
 30
0.0
 10
74.46768879230132
 20
83.98521663461361
 30
0.0
  0
SPLINE
  5
185
330
1F
100
AcDbEntity
  8
0
  6
HIDDEN
 62
     7
370
     0
100
AcDbSpline
210
0.0
220
0.0
230
1.0
 70
     8
 71
     3
 72
     8
 73
     4
 74
     0
 42
0.000000001
 43
0.00000001
 40
0.0
 40
0.0
 40
0.0
 40
0.0
 40
1.0
 40
1.0
 40
1.0
 40
1.0
 10
74.46768879230345
 20
83.98521663461095
 30
0.0
 10
74.54764185204311
 20
83.9861630835032
 30
0.0
 10
74.63059587842297
 20
83.98720310307934
 30
0.0
 10
74.71761390827125
 20
83.98766966786638
 30
0.0
  0
SPLINE
  5
186
330
1F
100
AcDbEntity
  8
0
  6
HIDDEN
 62
     7
370
     0
100
AcDbSpline
210
0.0
220
0.0
230
1.0
 70
     8
 71
     3
 72
    10
 73
     6
 74
     0
 42
0.000000001
 43
0.00000001
 40
0.0
 40
0.0
 40
0.0
 40
0.0
 40
0.4999999999999989
 40
0.4999999999999989
 40
1.0
 40
1.0
 40
1.0
 40
1.0
 10
74.4676887923038
 20
148.481787038251
 30
0.0
 10
74.34280052155361
 20
148.3507907601795
 30
0.0
 10
74.22135040349318
 20
148.2070779235145
 30
0.0
 10
73.99176642853575
 20
147.8965076308253
 30
0.0
 10
73.88149145313977
 20
147.7284385577622
 30
0.0
 10
73.79424103400623
 20
147.5563679369092
 30
0.0
  0
LINE
  5
187
330
1F
100
AcDbEntity
  8
0
  6
HIDDEN
 62
     7
370
     0
100
AcDbLine
 10
72.81768974
 20
143.6035020945
 30
0.0
 11
72.81768974
 21
146.7361713497
 31
0.0
  0
SPLINE
  5
188
330
1F
100
AcDbEntity
  8
0
  6
HIDDEN
 62
     7
370
     0
100
AcDbSpline
210
0.0
220
0.0
230
1.0
 70
     8
 71
     3
 72
    12
 73
     8
 74
     0
 42
0.000000001
 43
0.00000001
 40
0.0
 40
0.0
 40
0.0
 40
0.0
 40
0.249999999999997
 40
0.249999999999997
 40
0.4999999999999964
 40
0.4999999999999964
 40
1.0
 40
1.0
 40
1.0
 40
1.0
 10
73.10850302402358
 20
146.911984989136
 30
0.0
 10
73.07500162468669
 20
146.9366185422653
 30
0.0
 10
73.03691075672297
 20
146.9446367034289
 30
0.0
 10
72.96711034600631
 20
146.9433043673194
 30
0.0
 10
72.93465774612365
 20
146.9334387019174
 30
0.0
 10
72.85238423540643
 20
146.8824552745743
 30
0.0
 10
72.81768879230383
 20
146.8183861274015
 30
0.0
 10
72.81768879230383
 20
146.7361715789989
 30
0.0
  0
SPLINE
  5
189
330
1F
100
AcDbEntity
  8
0
  6
HIDDEN
 62
     7
370
     0
100
AcDbSpline
210
0.0
220
0.0
230
1.0
 70
     8
 71
     3
 72
     8
 73
     4
 74
     0
 42
0.000000001
 43
0.00000001
 40
0.0
 40
0.0
 40
0.0
 40
0.0
 40
1.0
 40
1.0
 40
1.0
 40
1.0
 10
139.4556597713824
 20
67.45850824340219
 30
0.0
 10
139.9067645007827
 20
68.25946817522211
 30
0.0
 10
140.357462328026
 20
69.06065818678277
 30
0.0
 10
140.8076887923038
 20
69.86211354940752
 30
0.0
  0
LINE
  5
18A
330
1F
100
AcDbEntity
  8
0
  6
HIDDEN
 62
     7
370
     0
100
AcDbLine
 10
141.6076896721
 20
71.5938250271
 30
0.0
 11
143.8276888811
 21
71.5938250271
 31
0.0
  0
SPLINE
  5
18B
330
1F
100
AcDbEntity
  8
0
  6
HIDDEN
 62
     7
370
     0
100
AcDbSpline
210
0.0
220
0.0
230
1.0
 70
     8
 71
     3
 72
     8
 73
     4
 74
     0
 42
0.000000001
 43
0.00000001
 40
0.0
 40
0.0
 40
0.0
 40
0.0
 40
1.0
 40
1.0
 40
1.0
 40
1.0
 10
144.6276887923038
 20
69.86211354940754
 30
0.0
 10
145.0779152565816
 20
69.06065818678277
 30
0.0
 10
145.528613083825
 20
68.25946817522211
 30
0.0
 10
145.9797178132252
 20
67.45850824340219
 30
0.0
  0
LINE
  5
18C
330
1F
100
AcDbEntity
  8
0
  6
HIDDEN
 62
     7
370
     0
100
AcDbLine
 10
145.979718306
 20
67.4585069267
 30
0.0
 11
150.6676888102
 21
67.4585069267
 31
0.0
  0
SPLINE
  5
18D
330
1F
100
AcDbEntity
  8
0
  6
HIDDEN
 62
     7
370
     0
100
AcDbSpline
210
0.0
220
0.0
230
1.0
 70
     8
 71
     3
 72
    20
 73
    16
 74
     0
 42
0.000000001
 43
0.00000001
 40
0.0
 40
0.0
 40
0.0
 40
0.0
 40
0.249999999999986
 40
0.249999999999986
 40
0.3749999999999789
 40
0.3749999999999789
 40
0.4374999999999789
 40
0.4374999999999789
 40
0.4999999999999789
 40
0.4999999999999789
 40
0.6249999999999835
 40
0.6249999999999835
 40
0.7499999999999879
 40
0.7499999999999879
 40
1.0
 40
1.0
 40
1.0
 40
1.0
 10
73.10850302401983
 20
85.55501868373031
 30
0.0
 10
73.13477524123323
 20
85.57433662481276
 30
0.0
 10
73.16545538348807
 20
85.58872533591453
 30
0.0
 10
73.23692625386998
 20
85.58182097407851
 30
0.0
 10
73.26495329091432
 20
85.57465497073011
 30
0.0
 10
73.32003688041183
 20
85.54495594402651
 30
0.0
 10
73.34092820896426
 20
85.53148230146518
 30
0.0
 10
73.3861368564097
 20
85.49628403594916
 30
0.0
 10
73.41054106880529
 20
85.4743758072219
 30
0.0
 10
73.48187338685675
 20
85.40225094722636
 30
0.0
 10
73.523770171677
 20
85.34991040627631
 30
0.0
 10
73.59534613053289
 20
85.25242701437556
 30
0.0
 10
73.62617412035019
 20
85.20567324449713
 30
0.0
 10
73.70927405318575
 20
85.07238002865802
 30
0.0
 10
73.75412895855605
 20
84.98974263074281
 30
0.0
 10
73.79424103400864
 20
84.91063573595203
 30
0.0
  0
SPLINE
  5
18E
330
1F
100
AcDbEntity
  8
0
  6
HIDDEN
 62
     7
370
     0
100
AcDbSpline
210
0.0
220
0.0
230
1.0
 70
     8
 71
     3
 72
    20
 73
    16
 74
     0
 42
0.000000001
 43
0.00000001
 40
0.0
 40
0.0
 40
0.0
 40
0.0
 40
0.2500000000000037
 40
0.2500000000000037
 40
0.3750000000000055
 40
0.3750000000000055
 40
0.5000000000000073
 40
0.5000000000000073
 40
0.5625000000000057
 40
0.5625000000000057
 40
0.625000000000004
 40
0.625000000000004
 40
0.7500000000000027
 40
0.7500000000000027
 40
1.0
 40
1.0
 40
1.0
 40
1.0
 10
73.79424103400622
 20
147.5563679369092
 30
0.0
 10
73.75424481618239
 20
147.4774895303517
 30
0.0
 10
73.70913118834474
 20
147.3943598836602
 30
0.0
 10
73.62587697397821
 20
147.2608712193093
 30
0.0
 10
73.59565764535772
 20
147.2150061634273
 30
0.0
 10
73.52356941021628
 20
147.1168146110224
 30
0.0
 10
73.48165209280522
 20
147.0645047914988
 30
0.0
 10
73.41040148825374
 20
146.9924988887643
 30
0.0
 10
73.38616567587442
 20
146.9707286764628
 30
0.0
 10
73.34056748568979
 20
146.9352540181337
 30
0.0
 10
73.31976499609007
 20
146.9218838339562
 30
0.0
 10
73.26482399767096
 20
146.8923139218209
 30
0.0
 10
73.23675500958413
 20
146.885187399519
 30
0.0
 10
73.16625217952131
 20
146.8783130280363
 30
0.0
 10
73.13482809173043
 20
146.8926281871234
 30
0.0
 10
73.10850302402183
 20
146.911984989134
 30
0.0
  0
LINE
  5
18F
330
1F
100
AcDbEntity
  8
0
  6
HIDDEN
 62
     7
370
     0
100
AcDbLine
 10
72.81768974
 20
146.7361713497
 30
0.0
 11
72.81768974
 21
85.7308323232
 31
0.0
  0
CIRCLE
  5
190
330
1F
100
AcDbEntity
  8
0
  6
HIDDEN
 62
     7
370
     0
100
AcDbCircle
 10
129.7176887923
 20
116.2335018364
 30
0.0
 40
5.000000000000014
  0
LINE
  5
191
330
1F
100
AcDbEntity
  8
0
  6
HIDDEN
 62
     7
370
     0
100
AcDbLine
 10
122.7176887923
 20
76.8288190214
 30
0.0
 11
122.8072904132
 21
77.4663689283
 31
0.0
  0
LINE
  5
192
330
1F
100
AcDbEntity
  8
0
  6
HIDDEN
 62
     7
370
     0
100
AcDbLine
 10
122.8072904132
 20
155.0006347445
 30
0.0
 11
122.7176887923
 21
155.6381846515
 31
0.0
  0
ARC
  5
193
330
1F
100
AcDbEntity
  8
0
  6
HIDDEN
 62
     7
370
     0
100
AcDbCircle
 10
121.8207518739
 20
77.605016512
 30
0.0
 40
0.996233821438679
100
AcDbArc
 50
352.0
 51
0.0
  0
ARC
  5
194
330
1F
100
AcDbEntity
  8
0
  6
HIDDEN
 62
     7
370
     0
100
AcDbCircle
 10
121.8207518739
 20
77.605016512
 30
0.0
 40
0.9962338214386854
100
AcDbArc
 50
0.0
 51
25.7988228126
  0
ARC
  5
195
330
1F
100
AcDbEntity
  8
0
  6
HIDDEN
 62
     7
370
     0
100
AcDbCircle
 10
121.8207518739
 20
154.8619871609
 30
0.0
 40
0.9962338214386799
100
AcDbArc
 50
348.75
 51
8.0
  0
LWPOLYLINE
  5
196
330
1F
100
AcDbEntity
  8
0
  6
HIDDEN
 62
     7
370
     0
100
AcDbPolyline
 90
        3
 70
   128
 43
0.0
 10
122.7978433389
 20
154.6676310448
 10
122.7411519112
 20
154.4807444064
 10
122.7176887923
 20
154.4284152535
  0
LINE
  5
197
330
1F
100
AcDbEntity
  8
0
  6
HIDDEN
 62
     7
370
     0
100
AcDbLine
 10
122.8169856922
 20
77.6050167827
 30
0.0
 11
122.8169856922
 21
154.8619868902
 31
0.0
  0
LINE
  5
198
330
1F
100
AcDbEntity
  8
0
  6
HIDDEN
 62
     7
370
     0
100
AcDbLine
 10
122.8169856922
 20
77.6050167827
 30
0.0
 11
122.8169856922
 21
154.8619868902
 31
0.0
  0
LINE
  5
199
330
1F
100
AcDbEntity
  8
0
  6
HIDDEN
 62
     7
370
     0
100
AcDbLine
 10
96.1784152323
 20
84.7335013298
 30
0.0
 11
101.7635194593
 21
84.7335013298
 31
0.0
  0
LINE
  5
19A
330
1F
100
AcDbEntity
  8
0
  6
HIDDEN
 62
     7
370
     0
100
AcDbLine
 10
101.7635194593
 20
147.7335023431
 30
0.0
 11
96.1784152323
 21
147.7335023431
 31
0.0
  0
ARC
  5
19B
330
1F
100
AcDbEntity
  8
0
  6
HIDDEN
 62
     7
370
     0
100
AcDbCircle
 10
96.1784147345
 20
85.7335018364
 30
0.0
 40
1.000000000000008
100
AcDbArc
 50
210.0
 51
270.0
  0
ARC
  5
19C
330
1F
100
AcDbEntity
  8
0
  6
HIDDEN
 62
     7
370
     0
100
AcDbCircle
 10
96.1784147345
 20
146.7335018364
 30
0.0
 40
1.000000000000008
100
AcDbArc
 50
90.0
 51
150.0
  0
ARC
  5
19D
330
1F
100
AcDbEntity
  8
0
  6
HIDDEN
 62
     7
370
     0
100
AcDbCircle
 10
112.9708944475
 20
96.7335018364
 30
0.0
 40
12.0
100
AcDbArc
 50
273.1748521159
 51
324.3146652873
  0
ARC
  5
19E
330
1F
100
AcDbEntity
  8
0
  6
HIDDEN
 62
     7
370
     0
100
AcDbCircle
 10
112.9708944475
 20
135.7335018364
 30
0.0
 40
12.00000000000003
100
AcDbArc
 50
35.6853347127
 51
86.8296400224
  0
LINE
  5
19F
330
1F
100
AcDbEntity
  8
0
  6
HIDDEN
 62
     7
370
     0
100
AcDbLine
 10
95.312389546
 20
147.2335013298
 30
0.0
 11
92.7143124872
 21
142.7335015235
 31
0.0
  0
LINE
  5
1A0
330
1F
100
AcDbEntity
  8
0
  6
HIDDEN
 62
     7
370
     0
100
AcDbLine
 10
92.7143124872
 20
89.7335021494
 30
0.0
 11
95.312389546
 21
85.2335023431
 31
0.0
  0
ARC
  5
1A1
330
1F
100
AcDbEntity
  8
0
  6
HIDDEN
 62
     7
370
     0
100
AcDbCircle
 10
133.1676887923
 20
91.3585018364
 30
0.0
 40
2.0
100
AcDbArc
 50
234.3409123039
 51
0.0
  0
ARC
  5
1A2
330
1F
100
AcDbEntity
  8
0
  6
HIDDEN
 62
     7
370
     0
100
AcDbCircle
 10
133.1676887923
 20
141.1085018364
 30
0.0
 40
2.0
100
AcDbArc
 50
0.0
 51
125.6590876961
  0
LINE
  5
1A3
330
1F
100
AcDbEntity
  8
0
  6
HIDDEN
 62
     7
370
     0
100
AcDbLine
 10
122.7176887923
 20
89.7335021494
 30
0.0
 11
132.0017660045
 21
89.7335021494
 31
0.0
  0
LINE
  5
1A4
330
1F
100
AcDbEntity
  8
0
  6
HIDDEN
 62
     7
370
     0
100
AcDbLine
 10
132.0017660045
 20
142.7335015235
 30
0.0
 11
122.7176887923
 21
142.7335015235
 31
0.0
  0
LINE
  5
1A5
330
1F
100
AcDbEntity
  8
0
  6
HIDDEN
 62
     7
370
     0
100
AcDbLine
 10
87.9176883035
 20
89.7335021494
 30
0.0
 11
92.7143124872
 21
89.7335021494
 31
0.0
  0
LINE
  5
1A6
330
1F
100
AcDbEntity
  8
0
  6
HIDDEN
 62
     7
370
     0
100
AcDbLine
 10
92.7143124872
 20
142.7335015235
 30
0.0
 11
82.9176893466
 21
142.7335015235
 31
0.0
  0
ARC
  5
1A7
330
1F
100
AcDbEntity
  8
0
  6
HIDDEN
 62
     7
370
     0
100
AcDbCircle
 10
138.8676887923
 20
94.6335018364
 30
0.0
 40
0.4000000000000057
100
AcDbArc
 50
270.0
 51
0.0
  0
ARC
  5
1A8
330
1F
100
AcDbEntity
  8
0
  6
HIDDEN
 62
     7
370
     0
100
AcDbCircle
 10
138.8676887923
 20
137.8335018364
 30
0.0
 40
0.3999999999999773
100
AcDbArc
 50
0.0
 51
90.0
  0
LINE
  5
1A9
330
1F
100
AcDbEntity
  8
0
  6
HIDDEN
 62
     7
370
     0
100
AcDbLine
 10
135.1676890635
 20
94.2335019556
 30
0.0
 11
138.8676883661
 21
94.2335019556
 31
0.0
  0
LINE
  5
1AA
330
1F
100
AcDbEntity
  8
0
  6
HIDDEN
 62
     7
370
     0
100
AcDbLine
 10
138.8676883661
 20
138.2335017172
 30
0.0
 11
135.1676890635
 21
138.2335017172
 31
0.0
  0
LINE
  5
1AB
330
1F
100
AcDbEntity
  8
0
  6
HIDDEN
 62
     7
370
     0
100
AcDbLine
 10
139.2676895493
 20
96.2335022835
 30
0.0
 11
140.2676897132
 21
97.2335024474
 31
0.0
  0
LINE
  5
1AC
330
1F
100
AcDbEntity
  8
0
  6
HIDDEN
 62
     7
370
     0
100
AcDbLine
 10
140.2676897132
 20
135.2335012255
 30
0.0
 11
139.2676895493
 21
136.2335013894
 31
0.0
  0
LINE
  5
1AD
330
1F
100
AcDbEntity
  8
0
  6
HIDDEN
 62
     7
370
     0
100
AcDbLine
 10
140.2676897132
 20
97.2335024474
 30
0.0
 11
170.317689889
 21
97.2335024474
 31
0.0
  0
LINE
  5
1AE
330
1F
100
AcDbEntity
  8
0
  6
HIDDEN
 62
     7
370
     0
100
AcDbLine
 10
170.317689889
 20
135.2335012255
 30
0.0
 11
140.2676897132
 21
135.2335012255
 31
0.0
  0
ARC
  5
1AF
330
1F
100
AcDbEntity
  8
0
  6
HIDDEN
 62
     7
370
     0
100
AcDbCircle
 10
170.3176887923
 20
134.8335018364
 30
0.0
 40
0.4000000000000057
100
AcDbArc
 50
0.0
 51
90.0
  0
ARC
  5
1B0
330
1F
100
AcDbEntity
  8
0
  6
HIDDEN
 62
     7
370
     0
100
AcDbCircle
 10
170.3176887923
 20
97.6335018364
 30
0.0
 40
0.4000000000000057
100
AcDbArc
 50
270.0
 51
0.0
  0
ARC
  5
1B1
330
1F
100
AcDbEntity
  8
0
  6
HIDDEN
 62
     7
370
     0
100
AcDbCircle
 10
191.2176887923
 20
133.7335018364
 30
0.0
 40
1.0
100
AcDbArc
 50
90.0
 51
180.0
  0
ARC
  5
1B2
330
1F
100
AcDbEntity
  8
0
  6
HIDDEN
 62
     7
370
     0
100
AcDbCircle
 10
191.2176887923
 20
98.7335018364
 30
0.0
 40
1.0
100
AcDbArc
 50
180.0
 51
270.0
  0
LINE
  5
1B3
330
1F
100
AcDbEntity
  8
0
  6
HIDDEN
 62
     7
370
     0
100
AcDbLine
 10
193.0860383445
 20
134.7335020748
 30
0.0
 11
191.2176860505
 21
134.7335020748
 31
0.0
  0
LINE
  5
1B4
330
1F
100
AcDbEntity
  8
0
  6
HIDDEN
 62
     7
370
     0
100
AcDbLine
 10
191.2176860505
 20
97.733501598
 30
0.0
 11
193.0860383445
 21
97.733501598
 31
0.0
  0
ARC
  5
1B5
330
1F
100
AcDbEntity
  8
0
  6
HIDDEN
 62
     7
370
     0
100
AcDbCircle
 10
193.0860362947
 20
133.7335018364
 30
0.0
 40
1.000000000000038
100
AcDbArc
 50
75.0
 51
90.0
  0
ARC
  5
1B6
330
1F
100
AcDbEntity
  8
0
  6
HIDDEN
 62
     7
370
     0
100
AcDbCircle
 10
193.0860362947
 20
98.7335018364
 30
0.0
 40
0.9999999999999967
100
AcDbArc
 50
270.0
 51
285.0
  0
LINE
  5
1B7
330
1F
100
AcDbEntity
  8
0
  6
HIDDEN
 62
     7
370
     0
100
AcDbLine
 10
193.3448566132
 20
97.7675768284
 30
0.0
 11
195.0837178164
 21
98.2335026113
 31
0.0
  0
LINE
  5
1B8
330
1F
100
AcDbEntity
  8
0
  6
HIDDEN
 62
     7
370
     0
100
AcDbLine
 10
195.0837178164
 20
134.2335010616
 30
0.0
 11
193.3448566132
 21
134.6994268445
 31
0.0
  0
LINE
  5
1B9
330
1F
100
AcDbEntity
  8
0
  6
HIDDEN
 62
     7
370
     0
100
AcDbLine
 10
214.1176862651
 20
134.2335010616
 30
0.0
 11
195.0837178164
 21
134.2335010616
 31
0.0
  0
LINE
  5
1BA
330
1F
100
AcDbEntity
  8
0
  6
HIDDEN
 62
     7
370
     0
100
AcDbLine
 10
195.0837178164
 20
98.2335026113
 30
0.0
 11
214.1176862651
 21
98.2335026113
 31
0.0
  0
LINE
  5
1BB
330
1F
100
AcDbEntity
  8
0
  6
HIDDEN
 62
     7
370
     0
100
AcDbLine
 10
170.7176892095
 20
105.9835015533
 30
0.0
 11
171.7176875108
 21
106.9835017172
 31
0.0
  0
LINE
  5
1BC
330
1F
100
AcDbEntity
  8
0
  6
HIDDEN
 62
     7
370
     0
100
AcDbLine
 10
171.7176875108
 20
125.4835019556
 30
0.0
 11
170.7176892095
 21
126.4835021196
 31
0.0
  0
LINE
  5
1BD
330
1F
100
AcDbEntity
  8
0
  6
HIDDEN
 62
     7
370
     0
100
AcDbLine
 10
127.6676887655
 20
166.2335025815
 30
0.0
 11
127.6676887655
 21
160.1335036305
 31
0.0
  0
LINE
  5
1BE
330
1F
100
AcDbEntity
  8
0
  6
HIDDEN
 62
     7
370
     0
100
AcDbLine
 10
230.7176915937
 20
142.3075834957
 30
0.0
 11
230.1309285694
 21
141.7208316473
 31
0.0
  0
LINE
  5
1BF
330
1F
100
AcDbEntity
  8
0
  6
HIDDEN
 62
     7
370
     0
100
AcDbLine
 10
230.1307274037
 20
90.7463676033
 30
0.0
 11
230.7176915937
 21
90.1594201771
 31
0.0
  0
LINE
  5
1C0
330
1F
100
AcDbEntity
  8
0
  6
HIDDEN
 62
     7
370
     0
100
AcDbLine
 10
190.2176914745
 20
125.4835019556
 30
0.0
 11
171.7176875108
 21
125.4835019556
 31
0.0
  0
LINE
  5
1C1
330
1F
100
AcDbEntity
  8
0
  6
HIDDEN
 62
     7
370
     0
100
AcDbLine
 10
171.7176875108
 20
106.9835017172
 30
0.0
 11
190.2176914745
 21
106.9835017172
 31
0.0
  0
LINE
  5
1C2
330
1F
100
AcDbEntity
  8
0
  6
HIDDEN
 62
     7
370
     0
100
AcDbLine
 10
114.1504012057
 20
78.6552208213
 30
0.0
 11
113.7176919737
 21
79.1334475128
 31
0.0
  0
LINE
  5
1C3
330
1F
100
AcDbEntity
  8
0
  6
HIDDEN
 62
     7
370
     0
100
AcDbLine
 10
101.7176890754
 20
79.780407503
 30
0.0
 11
101.2370614343
 21
79.3021845368
 31
0.0
  0
LINE
  5
1C4
330
1F
100
AcDbEntity
  8
0
  6
HIDDEN
 62
     7
370
     0
100
AcDbLine
 10
101.2369440877
 20
153.1648154107
 30
0.0
 11
101.7176890754
 21
152.6865328399
 31
0.0
  0
LINE
  5
1C5
330
1F
100
AcDbEntity
  8
0
  6
HIDDEN
 62
     7
370
     0
100
AcDbLine
 10
113.7176891797
 20
153.3335077313
 30
0.0
 11
114.1505101704
 21
153.8117865769
 31
0.0
  0
LINE
  5
1C6
330
1F
100
AcDbEntity
  8
0
  6
HIDDEN
 62
     7
370
     0
100
AcDbLine
 10
113.7176891797
 20
79.0333191601
 30
0.0
 11
113.7176891797
 21
84.7676249889
 31
0.0
  0
LINE
  5
1C7
330
1F
100
AcDbEntity
  8
0
  6
HIDDEN
 62
     7
370
     0
100
AcDbLine
 10
101.7176890754
 20
84.7419800905
 30
0.0
 11
101.7176890754
 21
79.7804484812
 31
0.0
  0
LINE
  5
1C8
330
1F
100
AcDbEntity
  8
0
  6
HIDDEN
 62
     7
370
     0
100
AcDbLine
 10
113.7176891797
 20
147.6993786839
 30
0.0
 11
113.7176891797
 21
153.4335094241
 31
0.0
  0
LINE
  5
1C9
330
1F
100
AcDbEntity
  8
0
  6
HIDDEN
 62
     7
370
     0
100
AcDbLine
 10
101.7176890754
 20
152.6865253893
 30
0.0
 11
101.7176890754
 21
147.7250235824
 31
0.0
  0
LINE
  5
1CA
330
1F
100
AcDbEntity
  8
0
  6
HIDDEN
 62
     7
370
     0
100
AcDbLine
 10
214.1176862651
 20
90.7335023133
 30
0.0
 11
230.1459191376
 21
90.7335023133
 31
0.0
  0
LINE
  5
1CB
330
1F
100
AcDbEntity
  8
0
  6
HIDDEN
 62
     7
370
     0
100
AcDbLine
 10
230.1467908555
 20
141.7335013596
 30
0.0
 11
214.1176862651
 21
141.7335013596
 31
0.0
  0
ARC
  5
1CC
330
1F
100
AcDbEntity
  8
0
  6
HIDDEN
 62
     7
370
     0
100
AcDbCircle
 10
81.0176887923
 20
150.3835018364
 30
0.0
 40
1.900000000000008
100
AcDbArc
 50
270.0
 51
310.9212832533
  0
ARC
  5
1CD
330
1F
100
AcDbEntity
  8
0
  6
HIDDEN
 62
     7
370
     0
100
AcDbCircle
 10
86.0176887923
 20
82.0835018364
 30
0.0
 40
1.900000000000006
100
AcDbArc
 50
35.6630613694
 51
90.0
  0
LINE
  5
1CE
330
1F
100
AcDbEntity
  8
0
  6
HIDDEN
 62
     7
370
     0
100
AcDbLine
 10
81.0176869863
 20
148.4835001377
 30
0.0
 11
74.4676878684
 21
148.4835001377
 31
0.0
  0
LINE
  5
1CF
330
1F
100
AcDbEntity
  8
0
  6
HIDDEN
 62
     7
370
     0
100
AcDbLine
 10
72.8692105048
 20
85.5819808987
 30
0.0
 11
74.4676878684
 21
83.9835035352
 31
0.0
  0
LINE
  5
1D0
330
1F
100
AcDbEntity
  8
0
  6
HIDDEN
 62
     7
370
     0
100
AcDbLine
 10
74.4676878684
 20
83.9835035352
 30
0.0
 11
86.0176896685
 21
83.9835035352
 31
0.0
  0
LINE
  5
1D1
330
1F
100
AcDbEntity
  8
0
  6
HIDDEN
 62
     7
370
     0
100
AcDbLine
 10
74.4676878684
 20
148.4835001377
 30
0.0
 11
72.8683723145
 21
146.8841864464
 31
0.0
  0
DIMENSION
  5
1D2
330
1F
100
AcDbEntity
  8
VERMASSUNG
100
AcDbDimension
  2
_D
 10
67.1748429051
 20
66.2335018364
 30
0.0
 11
67.1748429051
 21
116.2335018364
 31
0.0
 70
   160
  1
HSK A 100 %%c<>
 71
     2
 42
-1.0
  3
SLDDIMSTYLE0
100
AcDbAlignedDimension
 13
123.2176887923
 23
166.2335018364
 33
0.0
 14
123.2176887923
 24
66.2335018364
 34
0.0
 50
90.0
100
AcDbRotatedDimension
  0
DIMENSION
  5
1DF
330
1F
100
AcDbEntity
  8
VERMASSUNG
100
AcDbDimension
  2
_D_1
 10
244.4304602633
 20
84.2335018364
 30
0.0
 11
244.4304602633
 21
116.2335018364
 31
0.0
 70
   160
  1
ST6 %%c<>
 71
     2
 42
-1.0
  3
SLDDIMSTYLE0
100
AcDbAlignedDimension
 13
230.1176887923
 23
148.2335018364
 33
0.0
 14
230.1176887923
 24
84.2335018364
 34
0.0
 50
90.0
100
AcDbRotatedDimension
  0
DIMENSION
  5
1EB
330
1F
100
AcDbEntity
  8
VERMASSUNG
100
AcDbDimension
  2
_D_2
 10
238.4304602633
 20
98.2335018364
 30
0.0
 11
238.4304602633
 21
116.2335018364
 31
0.0
 70
   160
  1
%%c<>
 71
     2
 42
-1.0
  3
SLDDIMSTYLE0
100
AcDbAlignedDimension
 13
214.1176887922
 23
134.2335018364
 33
0.0
 14
214.1176887922
 24
98.2335018364
 34
0.0
 50
90.0
100
AcDbRotatedDimension
  0
DIMENSION
  5
1F6
330
1F
100
AcDbEntity
  8
VERMASSUNG
100
AcDbDimension
  2
_D_3
 10
230.7176887923
 20
171.7016330427
 30
0.0
 11
191.1926887923
 21
171.7016330427
 31
0.0
 70
   160
  1
(<>)
 71
     2
 42
-1.0
  3
SLDDIMSTYLE0
100
AcDbAlignedDimension
 13
151.6676887923
 23
164.2022416573
 33
0.0
 14
230.7176887923
 24
147.6335018364
 34
0.0
100
AcDbRotatedDimension
  0
DIMENSION
  5
202
330
1F
100
AcDbEntity
  8
VERMASSUNG
100
AcDbDimension
  2
_D_4
 10
230.7176887923
 20
177.7016330427
 30
0.0
 11
176.7176887923
 21
177.7016330427
 31
0.0
 70
   160
  1
<>
 71
     2
 42
-1.0
  3
SLDDIMSTYLE0
100
AcDbAlignedDimension
 13
122.7176887923
 23
165.7335018364
 33
0.0
 14
230.7176887923
 24
147.6335018364
 34
0.0
100
AcDbRotatedDimension
  0
DIMENSION
  5
20C
330
1F
100
AcDbEntity
  8
VERMASSUNG
100
AcDbDimension
  2
_D_5
 10
230.7176887923
 20
183.7016330427
 30
0.0
 11
151.7676887923
 21
183.7016330427
 31
0.0
 70
   160
  1
(<>)
 71
     2
 42
-1.0
  3
SLDDIMSTYLE0
100
AcDbAlignedDimension
 13
72.8176887923
 23
146.736171579
 33
0.0
 14
230.7176887923
 24
147.6335018364
 34
0.0
100
AcDbRotatedDimension
  0
LINE
  5
218
330
1F
100
AcDbEntity
  8
VERMASSUNG
  6
CENTERX2
370
     0
100
AcDbLine
 10
70.4486027917
 20
116.2335018364
 30
0.0
 11
232.6786760984
 21
116.2335018364
 31
0.0
  0
SPLINE
  5
219
330
1F
100
AcDbEntity
  8
0
  6
Continuous
 62
     7
370
    15
100
AcDbSpline
210
0.0
220
0.0
230
1.0
 70
     8
 71
     3
 72
    31
 73
    27
 74
     0
 42
0.000000001
 43
0.00000001
 40
0.0
 40
0.0
 40
0.0
 40
0.0
 40
0.0152286906625592
 40
0.0598467556751266
 40
0.1045630646989276
 40
0.1493281698105503
 40
0.1941064378774503
 40
0.2388756020237228
 40
0.2836287033392569
 40
0.3283642571403985
 40
0.3730837750842992
 40
0.4177904658602256
 40
0.4624883167972815
 40
0.5071817164437684
 40
0.5518751716053383
 40
0.5965723322307599
 40
0.6412773710211858
 40
0.6859950220936453
 40
0.7307298632694115
 40
0.7754861298037805
 40
0.8202670688723109
 40
0.8650739075866741
 40
0.909904003887695
 40
0.954747220509408
 40
0.9995737679175285
 40
0.9999999999999999
 40
0.9999999999999999
 40
0.9999999999999999
 40
0.9999999999999999
 10
269.8682679668931
 20
9.704442838205003
 30
0.0
 10
269.9882702192078
 20
9.726047453300811
 30
0.0
 10
270.4598633215876
 20
9.810950755215872
 30
0.0
 10
271.3109228149868
 20
10.09907386898825
 30
0.0
 10
272.4100719529896
 20
10.56577628937816
 30
0.0
 10
273.5178322017169
 20
11.17035139010429
 30
0.0
 10
274.620997190033
 20
11.89475932139106
 30
0.0
 10
275.7097638845619
 20
12.73499408497607
 30
0.0
 10
276.77379565636
 20
13.68199301508368
 30
0.0
 10
277.8033474918914
 20
14.726907668011
 30
0.0
 10
278.7889317051565
 20
15.85977363897428
 30
0.0
 10
279.7214940385156
 20
17.06993724507593
 30
0.0
 10
280.5924267195148
 20
18.34606141232177
 30
0.0
 10
281.3936773722292
 20
19.67622767062305
 30
0.0
 10
282.1177986158496
 20
21.04803484627714
 30
0.0
 10
282.7580251325919
 20
22.4487135702371
 30
0.0
 10
283.3083368033742
 20
23.86525581995813
 30
0.0
 10
283.7635011605174
 20
25.28453890821982
 30
0.0
 10
284.1191652465903
 20
26.69346397658851
 30
0.0
 10
284.3716940718255
 20
28.07896820687057
 30
0.0
 10
284.5187605634957
 20
29.42856031251716
 30
0.0
 10
284.5573986299646
 20
30.72870845208349
 30
0.0
 10
284.4910690144233
 20
31.9713393425453
 30
0.0
 10
284.3035895987982
 20
33.12968495976611
 30
0.0
 10
284.1379930017541
 20
33.87935560771827
 30
0.0
 10
284.0066303614461
 20
34.212057526054
 30
0.0
 10
284.005393067906
 20
34.21519121713531
 30
0.0
  0
LINE
  5
21A
330
1F
100
AcDbEntity
  8
0
  6
Continuous
 62
     7
370
    15
100
AcDbLine
 10
238.8179418307
 20
25.4743329358
 30
0.0
 11
265.1399921566
 21
10.2789367258
 31
0.0
  0
LINE
  5
21B
330
1F
100
AcDbEntity
  8
0
  6
Continuous
 62
     7
370
    15
100
AcDbLine
 10
281.1386921898
 20
37.9925002647
 30
0.0
 11
254.816641864
 21
53.1878964747
 31
0.0
  0
SPLINE
  5
21C
330
1F
100
AcDbEntity
  8
0
  6
Continuous
 62
     7
370
    15
100
AcDbSpline
210
0.0
220
0.0
230
1.0
 70
     8
 71
     3
 72
    23
 73
    19
 74
     0
 42
0.000000001
 43
0.00000001
 40
0.0
 40
0.0
 40
0.0
 40
0.0
 40
0.0122653468982295
 40
0.0805804973475795
 40
0.1489707317461607
 40
0.2173833067630523
 40
0.2857795266447146
 40
0.3541170500334795
 40
0.4223610151932901
 40
0.490478770566147
 40
0.5584455559089825
 40
0.6262571289464953
 40
0.6939552256439442
 40
0.7616394475102384
 40
0.8295246517213589
 40
0.8980550209598547
 40
0.9678675047598526
 40
1.0
 40
1.0
 40
1.0
 40
1.0
 10
267.5536183644135
 20
24.30296405178153
 30
0.0
 10
267.5761711440925
 20
24.36637524460221
 30
0.0
 10
267.7243376996892
 20
24.78297214131386
 30
0.0
 10
268.0604621877665
 20
25.55118614538328
 30
0.0
 10
268.5926771233344
 20
26.58559378064567
 30
0.0
 10
269.2040687140506
 20
27.58003079174594
 30
0.0
 10
269.8791304596621
 20
28.51721423471996
 30
0.0
 10
270.6073121267039
 20
29.38113450168138
 30
0.0
 10
271.3752429346334
 20
30.15719537442827
 30
0.0
 10
272.1691269869705
 20
30.83252870586738
 30
0.0
 10
272.9743465269713
 20
31.3963570942952
 30
0.0
 10
273.7759717182641
 20
31.84025527664602
 30
0.0
 10
274.5592385646985
 20
32.15871151150992
 30
0.0
 10
275.3096458916746
 20
32.3484178169096
 30
0.0
 10
276.0164112952647
 20
32.41189550663091
 30
0.0
 10
276.6660518625065
 20
32.34250464472191
 30
0.0
 10
277.1593350462575
 20
32.20580132719807
 30
0.0
 10
277.4094069138681
 20
32.0465320120496
 30
0.0
 10
277.4882281875722
 20
31.99633120217064
 30
0.0
  0
LINE
  5
21D
330
1F
100
AcDbEntity
  8
0
  6
Continuous
 62
     7
370
    15
100
AcDbLine
 10
222.8455009098
 20
24.3030036172
 30
0.0
 11
228.5864907657
 21
20.9888007182
 31
0.0
  0
LINE
  5
21E
330
1F
100
AcDbEntity
  8
0
  6
Continuous
 62
     7
370
    15
100
AcDbLine
 10
250.0298622766
 20
66.3432687052
 30
0.0
 11
247.8434684771
 21
67.6054469795
 31
0.0
  0
SPLINE
  5
21F
330
1F
100
AcDbEntity
  8
0
  6
Continuous
 62
     7
370
    15
100
AcDbSpline
210
0.0
220
0.0
230
1.0
 70
     8
 71
     3
 72
    10
 73
     6
 74
     0
 42
0.000000001
 43
0.00000001
 40
0.0
 40
0.0
 40
0.0
 40
0.0
 40
0.2462711573420152
 40
0.7009787468905146
 40
0.9999999999999999
 40
0.9999999999999999
 40
0.9999999999999999
 40
0.9999999999999999
 10
268.5076343416986
 20
16.43838294838078
 30
0.0
 10
268.4074341717785
 20
16.49346056036978
 30
0.0
 10
268.1222274496154
 20
16.65023180329755
 30
0.0
 10
267.7788061642718
 20
16.9861462128645
 30
0.0
 10
267.5688123991628
 20
17.31635935359751
 30
0.0
 10
267.4855031303193
 20
17.44736236362826
 30
0.0
  0
SPLINE
  5
220
330
1F
100
AcDbEntity
  8
0
  6
Continuous
 62
     7
370
    15
100
AcDbSpline
210
0.0
220
0.0
230
1.0
 70
     8
 71
     3
 72
    10
 73
     6
 74
     0
 42
0.000000001
 43
0.00000001
 40
0.0
 40
0.0
 40
0.0
 40
0.0
 40
0.3280252269641779
 40
0.8213660417282003
 40
1.0
 40
1.0
 40
1.0
 40
1.0
 10
217.8252162263694
 20
39.19181369994507
 30
0.0
 10
217.777177539217
 20
38.81635136832726
 30
0.0
 10
217.6568900031596
 20
37.87620413638088
 30
0.0
 10
217.6012340015813
 20
36.76960690873945
 30
0.0
 10
217.5951971072022
 20
36.04405245385568
 30
0.0
 10
217.5935922934773
 20
35.85117517718042
 30
0.0
  0
SPLINE
  5
221
330
1F
100
AcDbEntity
  8
0
  6
Continuous
 62
     7
370
    15
100
AcDbSpline
210
0.0
220
0.0
230
1.0
 70
     8
 71
     3
 72
    11
 73
     7
 74
     0
 42
0.000000001
 43
0.00000001
 40
0.0
 40
0.0
 40
0.0
 40
0.0
 40
0.0461471202814025
 40
0.4576779266204873
 40
0.8692704829336426
 40
1.0
 40
1.0
 40
1.0
 40
1.0
 10
237.0248839939036
 20
67.3095365987472
 30
0.0
 10
236.9737739887592
 20
67.28811261843558
 30
0.0
 10
236.4668751608066
 20
67.07563385856521
 30
0.0
 10
235.4951632563877
 20
66.54354559562067
 30
0.0
 10
234.4296284922718
 20
65.92873732571465
 30
0.0
 10
233.8288320545263
 20
65.50519685192873
 30
0.0
 10
233.6840069920459
 20
65.40310024861135
 30
0.0
  0
SPLINE
  5
222
330
1F
100
AcDbEntity
  8
0
  6
Continuous
 62
     7
370
    15
100
AcDbSpline
210
0.0
220
0.0
230
1.0
 70
     8
 71
     3
 72
     9
 73
     5
 74
     0
 42
0.000000001
 43
0.00000001
 40
0.0
 40
0.0
 40
0.0
 40
0.0
 40
0.3778395356564944
 40
1.0
 40
1.0
 40
1.0
 40
1.0
 10
217.5935922934773
 20
35.85117517718042
 30
0.0
 10
217.5958335415991
 20
35.5732068478771
 30
0.0
 10
217.6017652875132
 20
34.83752859541379
 30
0.0
 10
217.6647488953053
 20
34.13715994566733
 30
0.0
 10
217.7039348059753
 20
33.70141826132944
 30
0.0
  0
LINE
  5
223
330
1F
100
AcDbEntity
  8
0
  6
Continuous
 62
     7
370
    15
100
AcDbLine
 10
236.0497816015
 20
66.8220042872
 30
0.0
 11
226.776111742
 21
71.442402129
 31
0.0
  0
LINE
  5
224
330
1F
100
AcDbEntity
  8
0
  6
Continuous
 62
     7
370
    15
100
AcDbLine
 10
208.9873889544
 20
40.6280921174
 30
0.0
 11
217.6162601054
 21
34.914412161
 31
0.0
  0
SPLINE
  5
225
330
1F
100
AcDbEntity
  8
0
  6
Continuous
 62
     7
370
    15
100
AcDbSpline
210
0.0
220
0.0
230
1.0
 70
     8
 71
     3
 72
    16
 73
    12
 74
     0
 42
0.000000001
 43
0.00000001
 40
0.0
 40
0.0
 40
0.0
 40
0.0
 40
0.0943062785976219
 40
0.218125578731354
 40
0.3424333463917442
 40
0.4671534432724486
 40
0.5921769401335801
 40
0.7173951446507596
 40
0.8427181735458721
 40
0.9680804906135151
 40
1.0
 40
1.0
 40
1.0
 40
1.0
 10
236.1323512290435
 20
17.5619512760466
 30
0.0
 10
236.4387285899578
 20
17.53098259447874
 30
0.0
 10
237.1473636899044
 20
17.45935362459482
 30
0.0
 10
238.3136009958439
 20
17.51025066276461
 30
0.0
 10
239.6139463602363
 20
17.68699302324124
 30
0.0
 10
240.9492875220104
 20
18.00563121944556
 30
0.0
 10
242.3091298666653
 20
18.45953201952056
 30
0.0
 10
243.6857432512213
 20
19.04424757720344
 30
0.0
 10
245.0690751165405
 20
19.76736354081801
 30
0.0
 10
246.1108523843907
 20
20.37826731042211
 30
0.0
 10
246.6846010488805
 20
20.78354011460787
 30
0.0
 10
246.8010402859783
 20
20.86578807274095
 30
0.0
  0
LINE
  5
226
330
1F
100
AcDbEntity
  8
0
  6
Continuous
 62
     7
370
    15
100
AcDbLine
 10
230.8930936128
 20
19.6572272379
 30
0.0
 11
232.5505414796
 21
18.700402951
 31
0.0
  0
LINE
  5
227
330
1F
100
AcDbEntity
  8
0
  6
Continuous
 62
     7
370
    15
100
AcDbLine
 10
259.0908446506
 20
60.8496899866
 30
0.0
 11
258.861082423
 21
61.0573244675
 31
0.0
  0
SPLINE
  5
228
330
1F
100
AcDbEntity
  8
0
  6
Continuous
 62
     7
370
    15
100
AcDbSpline
210
0.0
220
0.0
230
1.0
 70
     8
 71
     3
 72
    14
 73
    10
 74
     0
 42
0.000000001
 43
0.00000001
 40
0.0
 40
0.0
 40
0.0
 40
0.0
 40
0.0895768744213279
 40
0.2591819382921644
 40
0.4286360206263657
 40
0.5976954590369744
 40
0.7661946337717769
 40
0.9340056363583356
 40
1.0
 40
1.0
 40
1.0
 40
1.0
 10
262.524685376052
 20
54.19451661338387
 30
0.0
 10
262.4733628871189
 20
54.44180715622129
 30
0.0
 10
262.3248662774122
 20
55.15731819216635
 30
0.0
 10
261.9973924076372
 20
56.27566333075826
 30
0.0
 10
261.5090446561424
 20
57.51087370295118
 30
0.0
 10
260.918732529275
 20
58.64281058387059
 30
0.0
 10
260.2262510802719
 20
59.6561949871621
 30
0.0
 10
259.613230656297
 20
60.39165696263272
 30
0.0
 10
259.2058365221371
 20
60.74886401868003
 30
0.0
 10
259.0908446506119
 20
60.84968998658849
 30
0.0
  0
SPLINE
  5
229
330
1F
100
AcDbEntity
  8
0
  6
Continuous
 62
     7
370
    15
100
AcDbSpline
210
0.0
220
0.0
230
1.0
 70
     8
 71
     3
 72
    27
 73
    23
 74
     0
 42
0.000000001
 43
0.00000001
 40
0.0
 40
0.0
 40
0.0
 40
0.0
 40
0.0465139205472591
 40
0.0953440424048094
 40
0.1445146399342478
 40
0.1942185837874532
 40
0.2445099316618347
 40
0.2953194830144111
 40
0.3465072789508168
 40
0.3979217893522692
 40
0.4494387615299773
 40
0.5009629514289673
 40
0.5524482277159303
 40
0.6038793187635024
 40
0.6552548787780763
 40
0.7065815671643237
 40
0.7578703233975551
 40
0.8091342216135738
 40
0.8603873624494929
 40
0.9116444479291699
 40
0.9629159750919539
 40
1.0
 40
1.0
 40
1.0
 40
1.0
 10
226.6876468240801
 20
71.48198411413082
 30
0.0
 10
226.3962628003635
 20
71.60878488825867
 30
0.0
 10
225.7989850309034
 20
71.86870059184086
 30
0.0
 10
224.8185253790968
 20
72.09197936388797
 30
0.0
 10
223.7762228729204
 20
72.19220953479658
 30
0.0
 10
222.6863968486792
 20
72.15128944944527
 30
0.0
 10
221.5581031355601
 20
71.97208596972631
 30
0.0
 10
220.3997134959462
 20
71.65379491380361
 30
0.0
 10
219.2217574207065
 20
71.19870704134104
 30
0.0
 10
218.0353192446673
 20
70.61082787659474
 30
0.0
 10
216.8515630724631
 20
69.89606730894774
 30
0.0
 10
215.6811402177892
 20
69.0616346360631
 30
0.0
 10
214.534024529224
 20
68.11566089064927
 30
0.0
 10
213.4195239919862
 20
67.06684394850507
 30
0.0
 10
212.3464574598806
 20
65.92445100584877
 30
0.0
 10
211.3233162456242
 20
64.69829216958797
 30
0.0
 10
210.3581103329392
 20
63.39871791466421
 30
0.0
 10
209.4588322306405
 20
62.03653088717198
 30
0.0
 10
208.6316001629709
 20
60.62304875447119
 30
0.0
 10
207.8873985231001
 20
59.16958824445999
 30
0.0
 10
207.2786477282334
 20
57.82599345846767
 30
0.0
 10
206.9618313267804
 20
56.96659306886856
 30
0.0
 10
206.8288591813136
 20
56.60589105629634
 30
0.0
  0
LINE
  5
22A
330
1F
100
AcDbEntity
  8
0
  6
Continuous
 62
     7
370
    15
100
AcDbLine
 10
207.2120991577
 20
54.2839137971
 30
0.0
 11
210.9919852658
 21
52.1018319939
 31
0.0
  0
LINE
  5
22B
330
1F
100
AcDbEntity
  8
0
  6
Continuous
 62
     7
370
    15
100
AcDbLine
 10
206.706660321
 20
56.0535606788
 30
0.0
 11
206.706660321
 21
55.4010557357
 31
0.0
  0
LINE
  5
22C
330
1F
100
AcDbEntity
  8
0
  6
Continuous
 62
     7
370
    15
100
AcDbLine
 10
206.706660321
 20
43.8952678068
 30
0.0
 11
206.706660321
 21
43.2427628637
 31
0.0
  0
SPLINE
  5
22D
330
1F
100
AcDbEntity
  8
0
  6
Continuous
 62
     7
370
    15
100
AcDbSpline
210
0.0
220
0.0
230
1.0
 70
     8
 71
     3
 72
    11
 73
     7
 74
     0
 42
0.000000001
 43
0.00000001
 40
0.0
 40
0.0
 40
0.0
 40
0.0
 40
0.2533756303952509
 40
0.593614405227115
 40
0.9296194158551776
 40
1.0
 40
1.0
 40
1.0
 40
1.0
 10
206.9326793815416
 20
42.77093215676556
 30
0.0
 10
207.0771591828751
 20
42.54674970576526
 30
0.0
 10
207.4156498704056
 20
42.02152977003069
 30
0.0
 10
208.0719136835787
 20
41.33755551743026
 30
0.0
 10
208.6394161757516
 20
40.83603843631067
 30
0.0
 10
208.9929083434602
 20
40.63441191188183
 30
0.0
 10
209.0541284889918
 20
40.59949287746989
 30
0.0
  0
SPLINE
  5
22E
330
1F
100
AcDbEntity
  8
0
  6
Continuous
 62
     7
370
    15
100
AcDbSpline
210
0.0
220
0.0
230
1.0
 70
     8
 71
     3
 72
     9
 73
     5
 74
     0
 42
0.000000001
 43
0.00000001
 40
0.0
 40
0.0
 40
0.0
 40
0.0
 40
0.2663306159537285
 40
0.9999999999999999
 40
0.9999999999999999
 40
0.9999999999999999
 40
0.9999999999999999
 10
206.7524528718639
 20
43.04283489875415
 30
0.0
 10
206.7591757652227
 20
43.03000346273615
 30
0.0
 10
206.7844184258712
 20
42.98182486347127
 30
0.0
 10
206.8157315787022
 20
42.93958189861321
 30
0.0
 10
206.8387050802524
 20
42.9085895286055
 30
0.0
  0
LINE
  5
22F
330
1F
100
AcDbEntity
  8
0
  6
Continuous
 62
     7
370
    15
100
AcDbLine
 10
269.7986074581
 20
41.3740259464
 30
0.0
 11
269.6218017579
 21
41.4761272598
 31
0.0
  0
LINE
  5
230
330
1F
100
AcDbEntity
  8
0
  6
Continuous
 62
     7
370
    15
100
AcDbLine
 10
265.7320837065
 20
41.4761265628
 30
0.0
 11
265.598588216
 21
41.399036208
 31
0.0
  0
LINE
  5
231
330
1F
100
AcDbEntity
  8
0
  6
Continuous
 62
     7
370
    15
100
AcDbLine
 10
270.6769430066
 20
40.0972635671
 30
0.0
 11
270.6769430066
 21
40.1496123116
 31
0.0
  0
LINE
  5
232
330
1F
100
AcDbEntity
  8
0
  6
Continuous
 62
     7
370
    15
100
AcDbLine
 10
264.6769410309
 20
40.1496136422
 30
0.0
 11
264.6769410309
 21
40.0972618559
 31
0.0
  0
ARC
  5
233
330
1F
100
AcDbEntity
  8
0
  6
Continuous
 62
     7
370
    15
100
AcDbCircle
 10
286.623385122
 20
16.3637426706
 30
0.0
 40
24.43352094137741
100
AcDbArc
 50
125.1905579215
 51
175.5150025527
  0
LWPOLYLINE
  5
234
330
1F
100
AcDbEntity
  8
0
  6
Continuous
 62
     7
370
    15
100
AcDbPolyline
 90
       11
 70
   128
 43
0.0
 10
262.3278431299
 20
14.0450972472
 10
262.6591825551
 20
13.1638318722
 10
263.1529717395
 20
12.2306264676
 10
263.7526180023
 20
11.4236175516
 10
264.4517663891
 20
10.7513601675
 10
265.2430056398
 20
10.2209805479
 10
266.1179472145
 20
9.8381000613
 10
267.0673181481
 20
9.6067785485
 10
268.0810532463
 20
9.5294671653
 10
269.1484080261
 20
9.6069853681
 10
269.7357918609
 20
9.7114385759
  0
LWPOLYLINE
  5
235
330
1F
100
AcDbEntity
  8
0
  6
Continuous
 62
     7
370
    15
100
AcDbPolyline
 90
       12
 70
   128
 43
0.0
 10
283.9229913693
 20
34.3130640238
 10
283.8250177272
 20
34.5967197917
 10
283.3861933016
 20
35.5893943205
 10
282.8387498619
 20
36.460656692
 10
282.1884905024
 20
37.2012720608
 10
281.4423075498
 20
37.8033887613
 10
280.6081107823
 20
38.2606246269
 10
279.694743794
 20
38.5681335384
 10
278.7118871893
 20
38.7226552436
 10
277.6699607885
 20
38.7225516783
 10
276.5800087125
 20
38.5678235171
 10
276.4447749514
 20
38.5385323393
  0
SPLINE
  5
236
330
1F
100
AcDbEntity
  8
0
  6
Continuous
 62
     7
370
    15
100
AcDbSpline
210
0.0
220
0.0
230
1.0
 70
    11
 71
     3
 72
    39
 73
    35
 74
     0
 42
0.000000001
 43
0.00000001
 40
0.0
 40
0.0
 40
0.0
 40
0.0
 40
0.0306866738518472
 40
0.0618946367627188
 40
0.0930865862145014
 40
0.1241487895875035
 40
0.1552889579681974
 40
0.1868607750220874
 40
0.2185614603448376
 40
0.249920125607664
 40
0.2812988168883229
 40
0.3130451589054882
 40
0.3446715430669484
 40
0.3758551876763332
 40
0.4069242206801237
 40
0.4380723595190464
 40
0.469254774523128
 40
0.5000100191874137
 40
0.5307540932505641
 40
0.5619663246264706
 40
0.5931178220284328
 40
0.624201833386564
 40
0.6553676205388833
 40
0.686987025294268
 40
0.7186996714126731
 40
0.750082635950042
 40
0.7814325435534794
 40
0.8131586190553585
 40
0.8447348520573809
 40
0.8758904110186827
 40
0.906935146716302
 40
0.9381238485826203
 40
0.9693342753526522
 40
1.0
 40
1.0
 40
1.0
 40
1.0
 10
265.3903072286548
 20
38.76407893670969
 30
0.0
 10
265.2445607183726
 20
38.84823476278991
 30
0.0
 10
264.9804048560269
 20
39.04236212729467
 30
0.0
 10
264.6919660279128
 20
39.39475671366165
 30
0.0
 10
264.5123269210998
 20
39.78699007709828
 30
0.0
 10
264.4578712895199
 20
40.20035449591783
 30
0.0
 10
264.5261026581314
 20
40.61417889555489
 30
0.0
 10
264.7186238445203
 20
41.00790372855623
 30
0.0
 10
265.0191898112976
 20
41.36200512508911
 30
0.0
 10
265.4245198988862
 20
41.65628526282816
 30
0.0
 10
265.9165685454342
 20
41.87996911406658
 30
0.0
 10
266.4790868760274
 20
42.0242466325131
 30
0.0
 10
267.0843668066572
 20
42.09113051705319
 30
0.0
 10
267.7108124301643
 20
42.0781294100099
 30
0.0
 10
268.3354935736826
 20
41.9941222100357
 30
0.0
 10
268.9371733480382
 20
41.84594770434393
 30
0.0
 10
269.493838343715
 20
41.64832085842184
 30
0.0
 10
269.9783698005385
 20
41.40906903332603
 30
0.0
 10
270.3743577228565
 20
41.13991886890204
 30
0.0
 10
270.6630445336931
 20
40.84938873345708
 30
0.0
 10
270.8421762176472
 20
40.54667148184852
 30
0.0
 10
270.8960030018126
 20
40.23887776912996
 30
0.0
 10
270.8271662030355
 20
39.92992785601545
 30
0.0
 10
270.6337845011475
 20
39.62547144946184
 30
0.0
 10
270.3325143959415
 20
39.33051842791052
 30
0.0
 10
269.9272975260029
 20
39.05691427807147
 30
0.0
 10
269.4354898373345
 20
38.81243900698149
 30
0.0
 10
268.873322170918
 20
38.60925286717833
 30
0.0
 10
268.2684836834839
 20
38.45330744601699
 30
0.0
 10
267.6426641386225
 20
38.36142335304537
 30
0.0
 10
267.0180985275736
 20
38.34017282786373
 30
0.0
 10
266.4163252362594
 20
38.39919468592136
 30
0.0
 10
265.8596191024853
 20
38.53465220120098
 30
0.0
 10
265.5359542405858
 20
38.67998056220011
 30
0.0
 10
265.3903072286548
 20
38.76407893670969
 30
0.0
  0
LINE
  5
237
330
1F
100
AcDbEntity
  8
0
  6
Continuous
 62
     7
370
    15
100
AcDbLine
 10
279.3614445404
 20
24.0174350386
 30
0.0
 11
281.5362364115
 21
26.7228552755
 31
0.0
  0
SPLINE
  5
238
330
1F
100
AcDbEntity
  8
0
  6
Continuous
 62
     7
370
    15
100
AcDbSpline
210
0.0
220
0.0
230
1.0
 70
     8
 71
     3
 72
    20
 73
    16
 74
     0
 42
0.000000001
 43
0.00000001
 40
0.0
 40
0.0
 40
0.0
 40
0.0
 40
0.0469163091108917
 40
0.0977062414429314
 40
0.1516689633031468
 40
0.2078463383218484
 40
0.2651938476233361
 40
0.3192095203174417
 40
0.3728953068123714
 40
0.4259306594990913
 40
0.4781535685998755
 40
0.579359673449963
 40
0.6698058354121635
 40
0.8327057026614778
 40
0.9074992363787218
 40
0.9074992363787218
 40
0.9074992363787218
 40
0.9074992363787218
 10
281.5362351660301
 20
26.72285574913185
 30
0.0
 10
281.6365665103695
 20
26.8476669876579
 30
0.0
 10
281.8356191974019
 20
27.12316903328936
 30
0.0
 10
282.1015783207517
 20
27.58273835496354
 30
0.0
 10
282.3279925250762
 20
28.09278041350055
 30
0.0
 10
282.4930196036865
 20
28.62931635768599
 30
0.0
 10
282.5759543479788
 20
29.15037307044203
 30
0.0
 10
282.5709166901868
 20
29.62412017896562
 30
0.0
 10
282.4821832164669
 20
30.02679744010457
 30
0.0
 10
282.3149122668044
 20
30.34682618592632
 30
0.0
 10
282.0123309809596
 20
30.65413262326005
 30
0.0
 10
281.511319103727
 20
30.77240256376225
 30
0.0
 10
280.799380529194
 20
30.81129845592631
 30
0.0
 10
280.2986857309297
 20
30.86475523066995
 30
0.0
 10
279.5939717874841
 20
30.92799324873068
 30
0.0
 10
279.3610690809689
 20
30.948691510478
 30
0.0
  0
SPLINE
  5
239
330
1F
100
AcDbEntity
  8
0
  6
Continuous
 62
     7
370
    15
100
AcDbSpline
210
0.0
220
0.0
230
1.0
 70
     8
 71
     3
 72
    20
 73
    16
 74
     0
 42
0.000000001
 43
0.00000001
 40
0.0
 40
0.0
 40
0.0
 40
0.0
 40
0.0469163091108918
 40
0.0977062414429315
 40
0.1516689633031469
 40
0.2078463383218485
 40
0.2651938476233363
 40
0.3192095203174418
 40
0.3728953068123716
 40
0.4259306594990914
 40
0.4781535685998757
 40
0.5793596734499633
 40
0.6698058354121639
 40
0.8327057026614785
 40
0.907499236378722
 40
0.907499236378722
 40
0.907499236378722
 40
0.907499236378722
 10
265.1667131815582
 20
17.27293185478215
 30
0.0
 10
265.0663818372187
 20
17.28190298885984
 30
0.0
 10
264.8673291501864
 20
17.3275836939285
 30
0.0
 10
264.6013700268366
 20
17.48008314794892
 30
0.0
 10
264.374955822512
 20
17.72871293048945
 30
0.0
 10
264.2099287439017
 20
18.07471266538879
 30
0.0
 10
264.1269939996095
 20
18.50001496057505
 30
0.0
 10
264.1320316574014
 20
18.97957842498058
 30
0.0
 10
264.2207651311214
 20
19.48470517417794
 30
0.0
 10
264.3880360807838
 20
19.99786084765771
 30
0.0
 10
264.6906173666287
 20
20.65452020144198
 30
0.0
 10
265.1916292438613
 20
21.3512461426148
 30
0.0
 10
265.9035678183943
 20
22.21212881645406
 30
0.0
 10
266.4042626166586
 20
22.84367550028398
 30
0.0
 10
267.1089765601042
 20
23.72055891851762
 30
0.0
 10
267.3418792666193
 20
24.01016092143029
 30
0.0
  0
LINE
  5
23A
330
1F
100
AcDbEntity
  8
0
  6
Continuous
 62
     7
370
    15
100
AcDbLine
 10
267.3415057882
 20
17.078472097
 30
0.0
 11
265.1667139171
 21
17.2729310868
 31
0.0
  0
SPLINE
  5
23B
330
1F
100
AcDbEntity
  8
0
  6
Continuous
 62
     7
370
    15
100
AcDbSpline
210
0.0
220
0.0
230
1.0
 70
     8
 71
     3
 72
    18
 73
    14
 74
     0
 42
0.000000001
 43
0.00000001
 40
0.0
 40
0.0
 40
0.0
 40
0.0
 40
0.2500000000000057
 40
0.2500000000000057
 40
0.5000000000000113
 40
0.5000000000000113
 40
0.6250000000000084
 40
0.6250000000000084
 40
0.7500000000000057
 40
0.7500000000000057
 40
0.8750000000000028
 40
0.8750000000000028
 40
1.0
 40
1.0
 40
1.0
 40
1.0
 10
279.361069080979
 20
30.9486915105111
 30
0.0
 10
279.3273684902217
 20
30.95168651069367
 30
0.0
 10
279.2912044156957
 20
30.95332385233072
 30
0.0
 10
279.2109162836787
 20
30.95221054481777
 30
0.0
 10
279.1658425881038
 20
30.94947266322296
 30
0.0
 10
279.0914877995836
 20
30.93859979140926
 30
0.0
 10
279.0648374067832
 20
30.93367444884749
 30
0.0
 10
279.011311456287
 20
30.92079405142099
 30
0.0
 10
278.9841073977443
 20
30.91268681682224
 30
0.0
 10
278.9348040491183
 20
30.89460878242768
 30
0.0
 10
278.9124790251307
 20
30.88461875569446
 30
0.0
 10
278.8740850041598
 20
30.86449957170963
 30
0.0
 10
278.8582149472314
 20
30.85458334168974
 30
0.0
 10
278.8444127751748
 20
30.84480853788459
 30
0.0
  0
SPLINE
  5
23C
330
1F
100
AcDbEntity
  8
0
  6
Continuous
 62
     7
370
    15
100
AcDbSpline
210
0.0
220
0.0
230
1.0
 70
     8
 71
     3
 72
    10
 73
     6
 74
     0
 42
0.000000001
 43
0.00000001
 40
0.0
 40
0.0
 40
0.0
 40
0.0
 40
0.5
 40
0.5
 40
1.0
 40
1.0
 40
1.0
 40
1.0
 10
278.8444127751749
 20
30.84480853788458
 30
0.0
 10
278.7999749811064
 20
30.85996293648975
 30
0.0
 10
278.7540783671237
 20
30.87697645001208
 30
0.0
 10
278.6662430957335
 20
30.9139137348576
 30
0.0
 10
278.6243126089887
 20
30.93392703781235
 30
0.0
 10
278.5898785034707
 20
30.95380542380455
 30
0.0
  0
SPLINE
  5
23D
330
1F
100
AcDbEntity
  8
0
  6
Continuous
 62
     7
370
    15
100
AcDbSpline
210
0.0
220
0.0
230
1.0
 70
     8
 71
     3
 72
    11
 73
     7
 74
     0
 42
0.000000001
 43
0.00000001
 40
0.0
 40
0.0
 40
0.0
 40
0.0
 40
0.1211126345169357
 40
0.3347213923169351
 40
0.7109942860154934
 40
1.0
 40
1.0
 40
1.0
 40
1.0
 10
267.550568644797
 20
24.30410467585937
 30
0.0
 10
267.5477676260902
 20
24.29711680023445
 30
0.0
 10
267.5400263950849
 20
24.27780426964804
 30
0.0
 10
267.4959852473854
 20
24.21030151701029
 30
0.0
 10
267.4264568516721
 20
24.11637778251157
 30
0.0
 10
267.367494510799
 20
24.04232849475451
 30
0.0
 10
267.3418805000289
 20
24.01016051726189
 30
0.0
  0
SPLINE
  5
23E
330
1F
100
AcDbEntity
  8
0
  6
Continuous
 62
     7
370
    15
100
AcDbSpline
210
0.0
220
0.0
230
1.0
 70
     8
 71
     3
 72
    11
 73
     7
 74
     0
 42
0.000000001
 43
0.00000001
 40
0.0
 40
0.0
 40
0.0
 40
0.0
 40
0.3137209839467409
 40
0.6274182583469081
 40
0.941154102712786
 40
1.0
 40
1.0
 40
1.0
 40
1.0
 10
265.0783253902901
 20
17.6027942472158
 30
0.0
 10
264.9083173259776
 20
17.64464516263089
 30
0.0
 10
264.5683140457571
 20
17.72834383056706
 30
0.0
 10
264.2541136178478
 20
18.19204809307754
 30
0.0
 10
264.1064278674434
 20
18.64235970827244
 30
0.0
 10
264.1440883166185
 20
18.94425315068849
 30
0.0
 10
264.1500364420261
 20
18.99193447405469
 30
0.0
  0
LINE
  5
23F
330
1F
100
AcDbEntity
  8
0
  6
Continuous
 62
     7
370
    15
100
AcDbLine
 10
276.1221727654
 20
32.3783815316
 30
0.0
 11
278.5898786483
 21
30.9538052484
 31
0.0
  0
ARC
  5
240
330
1F
100
AcDbEntity
  8
0
  6
Continuous
 62
     7
370
    15
100
AcDbCircle
 10
262.9424614777
 20
31.1166821714
 30
0.0
 40
10.8913094834547
100
AcDbArc
 50
338.4787294721
 51
3.8455697225
  0
LINE
  5
241
330
1F
100
AcDbEntity
  8
0
  6
Continuous
 62
     7
370
    15
100
AcDbLine
 10
273.0744445876
 20
27.1212422048
 30
0.0
 11
278.5898786483
 21
23.9372498948
 31
0.0
  0
LINE
  5
242
330
1F
100
AcDbEntity
  8
0
  6
Continuous
 62
     7
370
    15
100
AcDbLine
 10
264.2101365309
 20
19.3258247067
 30
0.0
 11
267.4059634661
 21
17.4809130871
 31
0.0
  0
SPLINE
  5
243
330
1F
100
AcDbEntity
  8
0
  6
Continuous
 62
     7
370
    15
100
AcDbSpline
210
0.0
220
0.0
230
1.0
 70
     8
 71
     3
 72
    14
 73
    10
 74
     0
 42
0.000000001
 43
0.00000001
 40
0.0
 40
0.0
 40
0.0
 40
0.0
 40
0.25
 40
0.25
 40
0.5
 40
0.5
 40
0.75
 40
0.75
 40
1.0
 40
1.0
 40
1.0
 40
1.0
 10
228.5211356313019
 20
34.89275881387391
 30
0.0
 10
228.4739625240696
 20
34.86552635872778
 30
0.0
 10
228.4183984593708
 20
34.84378200058683
 30
0.0
 10
228.2964729872518
 20
34.81353657318081
 30
0.0
 10
228.2303764663759
 20
34.80523754307051
 30
0.0
 10
228.0981845372391
 20
34.80380492729074
 30
0.0
 10
228.0312493857084
 20
34.81075490147236
 30
0.0
 10
227.9086388940381
 20
34.83896425508177
 30
0.0
 10
227.8517034392344
 20
34.86054009938942
 30
0.0
 10
227.8049608958622
 20
34.88752399530982
 30
0.0
  0
SPLINE
  5
244
330
1F
100
AcDbEntity
  8
0
  6
Continuous
 62
     7
370
    15
100
AcDbSpline
210
0.0
220
0.0
230
1.0
 70
     8
 71
     3
 72
    12
 73
     8
 74
     0
 42
0.000000001
 43
0.00000001
 40
0.0
 40
0.0
 40
0.0
 40
0.0
 40
0.2500000000000032
 40
0.2500000000000032
 40
0.5000000000000064
 40
0.5000000000000064
 40
1.0
 40
1.0
 40
1.0
 40
1.0
 10
256.133424051942
 20
62.6527485904641
 30
0.0
 10
256.18719607089
 20
62.62170666467137
 30
0.0
 10
256.2396843460082
 20
62.57273203541455
 30
0.0
 10
256.3306902729468
 20
62.45600116056504
 30
0.0
 10
256.3692646264761
 20
62.3885496952319
 30
0.0
 10
256.4590882157723
 20
62.18423246822501
 30
0.0
 10
256.4869774425352
 20
62.0438696390276
 30
0.0
 10
256.4869774425352
 20
61.92105291397291
 30
0.0
  0
LINE
  5
245
330
1F
100
AcDbEntity
  8
0
  6
Continuous
 62
     7
370
    15
100
AcDbLine
 10
227.8049604366
 20
34.8875236986
 30
0.0
 11
226.1475125699
 21
35.8443479855
 31
0.0
  0
LWPOLYLINE
  5
246
330
1F
100
AcDbEntity
  8
0
  6
Continuous
 62
     7
370
    15
100
AcDbPolyline
 90
       25
 70
   128
 43
0.0
 10
226.1475125699
 20
35.8443479855
 10
226.5369850115
 20
37.732769318
 10
227.0465786056
 20
39.6466731372
 10
227.6726608206
 20
41.5724197412
 10
228.4107719932
 20
43.4962850944
 10
229.2556503526
 20
45.4045593052
 10
230.2012741679
 20
47.2836405388
 10
231.2409052118
 20
49.1201384365
 10
232.3671341999
 20
50.9009649864
 10
233.5719347918
 20
52.613428816
 10
234.8467202257
 20
54.2453241609
 10
236.1824065386
 20
55.7850236355
 10
237.569473811
 20
57.2215516116
 10
238.99803729
 20
58.5446724258
 10
240.4579158775
 20
59.7449557727
 10
241.9387050641
 20
60.8138477061
 10
243.4298520856
 20
61.7437292356
 10
244.9207299271
 20
62.5279757778
 10
246.4007133845
 20
63.1609949825
 10
247.8592554559
 20
63.638279958
 10
249.2859611808
 20
63.9564245208
 10
250.6706629614
 20
64.1131651565
 10
252.0034918497
 20
64.1073826293
 10
253.2749503167
 20
63.9391196559
 10
254.47597679
 20
63.6095725342
  0
LINE
  5
247
330
1F
100
AcDbEntity
  8
0
  6
Continuous
 62
     7
370
    15
100
AcDbLine
 10
254.47597679
 20
63.6095725342
 30
0.0
 11
256.1334246567
 21
62.6527482474
 31
0.0
  0
LINE
  5
248
330
1F
100
AcDbEntity
  8
0
  6
Continuous
 62
     7
370
    15
100
AcDbLine
 10
267.5049558765
 20
17.3858171343
 30
0.0
 11
265.0783253903
 21
17.6027942472
 31
0.0
  0
SPLINE
  5
249
330
1F
100
AcDbEntity
  8
0
  6
Continuous
 62
     7
370
    15
100
AcDbSpline
210
0.0
220
0.0
230
1.0
 70
     8
 71
     3
 72
    18
 73
    14
 74
     0
 42
0.000000001
 43
0.00000001
 40
0.0
 40
0.0
 40
0.0
 40
0.0
 40
0.2500000000000095
 40
0.2500000000000095
 40
0.5000000000000191
 40
0.5000000000000191
 40
0.6250000000000143
 40
0.6250000000000143
 40
0.7500000000000095
 40
0.7500000000000095
 40
0.8750000000000048
 40
0.8750000000000048
 40
1.0
 40
1.0
 40
1.0
 40
1.0
 10
267.3415048530472
 20
17.07847270732582
 30
0.0
 10
267.3750275791303
 20
17.07547527045949
 30
0.0
 10
267.4080496871747
 20
17.07595112549945
 30
0.0
 10
267.4691540431492
 20
17.08840497099356
 30
0.0
 10
267.4981863737341
 20
17.10023839497825
 30
0.0
 10
267.5314873050162
 20
17.13538765493694
 30
0.0
 10
267.5407597487587
 20
17.15024039043687
 30
0.0
 10
267.5524395349919
 20
17.18684748791823
 30
0.0
 10
267.5547675016595
 20
17.2092660633079
 30
0.0
 10
267.5510256024867
 20
17.25762942598491
 30
0.0
 10
267.5450624288941
 20
17.28391682891107
 30
0.0
 10
267.5280863601334
 20
17.3355027381608
 30
0.0
 10
267.5170812638008
 20
17.36118188974651
 30
0.0
 10
267.5049550474862
 20
17.38581733933147
 30
0.0
  0
SPLINE
  5
24A
330
1F
100
AcDbEntity
  8
0
  6
Continuous
 62
     7
370
    15
100
AcDbSpline
210
0.0
220
0.0
230
1.0
 70
     8
 71
     3
 72
    10
 73
     6
 74
     0
 42
0.000000001
 43
0.00000001
 40
0.0
 40
0.0
 40
0.0
 40
0.0
 40
0.5
 40
0.5
 40
1.0
 40
1.0
 40
1.0
 40
1.0
 10
267.4059630630114
 20
17.48091322800387
 30
0.0
 10
267.4404013041446
 20
17.46103245457181
 30
0.0
 10
267.4652405715253
 20
17.44246844366841
 30
0.0
 10
267.49651925116
 20
17.41066753936399
 30
0.0
 10
267.5035600183325
 20
17.39711772955322
 30
0.0
 10
267.5049550474862
 20
17.38581733933147
 30
0.0
  0
LINE
  5
24B
330
1F
100
AcDbEntity
  8
0
  6
Continuous
 62
     7
370
    15
100
AcDbLine
 10
260.9240731931
 20
53.1903059323
 30
0.0
 11
262.3625899138
 21
54.0207439588
 31
0.0
  0
LINE
  5
24C
330
1F
100
AcDbEntity
  8
0
  6
Continuous
 62
     7
370
    15
100
AcDbLine
 10
260.9240731931
 20
49.6621520845
 30
0.0
 11
260.9240731931
 21
53.1903059323
 31
0.0
  0
LINE
  5
24D
330
1F
100
AcDbEntity
  8
0
  6
Continuous
 62
     7
370
    15
100
AcDbLine
 10
228.5211361502
 20
25.9108101328
 30
0.0
 11
229.8820842304
 21
26.6964687363
 31
0.0
  0
LINE
  5
24E
330
1F
100
AcDbEntity
  8
0
  6
Continuous
 62
     7
370
    15
100
AcDbLine
 10
229.8820842304
 20
26.6964687363
 30
0.0
 11
229.8820842304
 21
35.6784176183
 31
0.0
  0
LINE
  5
24F
330
1F
100
AcDbEntity
  8
0
  6
Continuous
 62
     7
370
    15
100
AcDbLine
 10
229.8820842304
 20
35.6784176183
 30
0.0
 11
228.5211361502
 21
34.8927590149
 31
0.0
  0
LINE
  5
250
330
1F
100
AcDbEntity
  8
0
  6
Continuous
 62
     7
370
    15
100
AcDbLine
 10
256.4869781053
 20
61.9210537622
 30
0.0
 11
256.4869781053
 21
59.3453994101
 31
0.0
  0
LINE
  5
251
330
1F
100
AcDbEntity
  8
0
  6
Continuous
 62
     7
370
    15
100
AcDbLine
 10
258.7174393779
 20
60.633017295
 30
0.0
 11
256.4869781053
 21
59.3453994101
 31
0.0
  0
LWPOLYLINE
  5
252
330
1F
100
AcDbEntity
  8
0
  6
Continuous
 62
     7
370
    15
100
AcDbPolyline
 90
       23
 70
   128
 43
0.0
 10
225.1687270873
 20
37.3905504249
 10
225.5615620572
 20
39.2205640895
 10
226.0717351705
 20
41.0736277812
 10
226.6955058942
 20
42.9361542801
 10
227.4283012955
 20
44.7944857216
 10
228.264746334
 20
46.6349943545
 10
229.1987099602
 20
48.4441871007
 10
230.2233406773
 20
50.2087930046
 10
231.331127785
 20
51.9158776774
 10
232.5139468198
 20
53.5529197194
 10
233.7631234334
 20
55.1079152772
 10
235.0694992473
 20
56.5694632098
 10
236.4234944146
 20
57.9268468324
 10
237.8151800597
 20
59.1701107162
 10
239.2343510476
 20
60.2901391996
 10
240.6706013051
 20
61.2787196419
 10
242.1133989355
 20
62.1286009958
 10
243.5521641333
 20
62.8335539954
 10
244.9763468096
 20
63.3884083642
 10
246.3755036422
 20
63.789095774
 10
247.7393753307
 20
64.0326761921
 10
249.0579599013
 20
64.1173665113
 10
250.1000295354
 20
64.0676298956
  0
SPLINE
  5
253
330
1F
100
AcDbEntity
  8
0
  6
Continuous
 62
     7
370
    15
100
AcDbSpline
210
0.0
220
0.0
230
1.0
 70
     8
 71
     3
 72
     8
 73
     4
 74
     0
 42
0.000000001
 43
0.00000001
 40
0.0
 40
0.0
 40
0.0
 40
0.0
 40
1.0
 40
1.0
 40
1.0
 40
1.0
 10
225.1687272701987
 20
37.39055070831351
 30
0.0
 10
224.7261909163533
 20
37.31886417788427
 30
0.0
 10
224.2835817263017
 20
37.24732801228249
 30
0.0
 10
223.8409100200853
 20
37.17592185597779
 30
0.0
  0
LWPOLYLINE
  5
254
330
1F
100
AcDbEntity
  8
0
  6
Continuous
 62
     7
370
    15
100
AcDbPolyline
 90
       25
 70
   128
 43
0.0
 10
223.8409097228
 20
37.1759214658
 10
224.2303821644
 20
39.0643427983
 10
224.7399757585
 20
40.9782466175
 10
225.3660579735
 20
42.9039932215
 10
226.104169146
 20
44.8278585748
 10
226.9490475054
 20
46.7361327855
 10
227.8946713208
 20
48.6152140191
 10
228.9343023647
 20
50.4517119168
 10
230.0605313528
 20
52.2325384667
 10
231.2653319447
 20
53.9450022963
 10
232.5401173785
 20
55.5768976412
 10
233.8758036914
 20
57.1165971158
 10
235.2628709639
 20
58.5531250919
 10
236.6914344429
 20
59.8762459061
 10
238.1513130303
 20
61.076529253
 10
239.6321022169
 20
62.1454211864
 10
241.1232492385
 20
63.0753027159
 10
242.61412708
 20
63.8595492581
 10
244.0941105373
 20
64.4925684628
 10
245.5526526087
 20
64.9698534383
 10
246.9793583337
 20
65.2879980011
 10
248.3640601143
 20
65.4447386368
 10
249.6968890025
 20
65.4389561096
 10
250.9683474695
 20
65.2706931362
 10
252.1693739429
 20
64.9411460146
  0
LINE
  5
255
330
1F
100
AcDbEntity
  8
0
  6
Continuous
 62
     7
370
    15
100
AcDbLine
 10
252.1693739429
 20
64.9411460146
 30
0.0
 11
252.4685191027
 21
63.987772632
 31
0.0
  0
LINE
  5
256
330
1F
100
AcDbEntity
  8
0
  6
Continuous
 62
     7
370
    15
100
AcDbLine
 10
248.0016966573
 20
67.3470948995
 30
0.0
 11
252.1693739429
 21
64.9411460146
 31
0.0
  0
LINE
  5
257
330
1F
100
AcDbEntity
  8
0
  6
Continuous
 62
     7
370
    15
100
AcDbLine
 10
223.8409097228
 20
37.1759214658
 30
0.0
 11
223.2087662641
 21
37.5408501167
 31
0.0
  0
SPLINE
  5
258
330
1F
100
AcDbEntity
  8
0
  6
Continuous
 62
     7
370
    15
100
AcDbSpline
210
0.0
220
0.0
230
1.0
 70
     8
 71
     3
 72
    30
 73
    26
 74
     0
 42
0.000000001
 43
0.00000001
 40
0.0
 40
0.0
 40
0.0
 40
0.0
 40
0.1250000000000002
 40
0.1250000000000002
 40
0.1875000000000003
 40
0.1875000000000003
 40
0.2500000000000004
 40
0.2500000000000004
 40
0.3750000000000001
 40
0.3750000000000001
 40
0.4374999999999998
 40
0.4374999999999998
 40
0.4999999999999996
 40
0.4999999999999996
 40
0.6249999999999996
 40
0.6249999999999996
 40
0.6874999999999997
 40
0.6874999999999997
 40
0.7499999999999997
 40
0.7499999999999997
 40
0.8124999999999998
 40
0.8124999999999998
 40
0.8749999999999999
 40
0.8749999999999999
 40
1.0
 40
1.0
 40
1.0
 40
1.0
 10
223.2087668181497
 20
37.54085035873364
 30
0.0
 10
222.9744511845431
 20
37.67611789476427
 30
0.0
 10
222.7389507080143
 20
37.77938042369362
 30
0.0
 10
222.3844002606246
 20
37.8886231614574
 30
0.0
 10
222.2660059972256
 20
37.9173761234541
 30
0.0
 10
222.0289513521754
 20
37.9593292881038
 30
0.0
 10
221.9101314409396
 20
37.9724344230059
 30
0.0
 10
221.5614875569633
 20
37.98768581202022
 30
0.0
 10
221.3367227143214
 20
37.96660705057821
 30
0.0
 10
221.0125120667176
 20
37.88960399870253
 30
0.0
 10
220.9060959908064
 20
37.85609539366931
 30
0.0
 10
220.7007867608339
 20
37.77455704754568
 30
0.0
 10
220.6021920303262
 20
37.72675144244435
 30
0.0
 10
220.3186940365273
 20
37.56308423289145
 30
0.0
 10
220.1459510628571
 20
37.42717213641485
 30
0.0
 10
219.913826264361
 20
37.18280099950977
 30
0.0
 10
219.841512278535
 20
37.09498391430213
 30
0.0
 10
219.7091939644654
 20
36.90960334536186
 30
0.0
 10
219.6488400257446
 20
36.81168234532153
 30
0.0
 10
219.5398768916015
 20
36.60559449461729
 30
0.0
 10
219.4912670665034
 20
36.49742768777303
 30
0.0
 10
219.4062312506087
 20
36.27073797426628
 30
0.0
 10
219.3696803714337
 20
36.15159754654351
 30
0.0
 10
219.2806860943408
 20
35.78361321808939
 30
0.0
 10
219.2483495373607
 20
35.52438809279271
 30
0.0
 10
219.2436636310638
 20
35.25118151136255
 30
0.0
  0
ARC
  5
259
330
1F
100
AcDbEntity
  8
0
  6
Continuous
 62
     7
370
    15
100
AcDbCircle
 10
242.8063412517
 20
34.8429112454
 30
0.0
 40
23.56621418174369
100
AcDbArc
 50
179.0073355702
 51
180.9926644298
  0
SPLINE
  5
25A
330
1F
100
AcDbEntity
  8
0
  6
Continuous
 62
     7
370
    15
100
AcDbSpline
210
0.0
220
0.0
230
1.0
 70
     8
 71
     3
 72
    30
 73
    26
 74
     0
 42
0.000000001
 43
0.00000001
 40
0.0
 40
0.0
 40
0.0
 40
0.0
 40
0.1249999999999996
 40
0.1249999999999996
 40
0.1874999999999994
 40
0.1874999999999994
 40
0.2499999999999993
 40
0.2499999999999993
 40
0.3749999999999992
 40
0.3749999999999992
 40
0.4374999999999993
 40
0.4374999999999993
 40
0.4999999999999994
 40
0.4999999999999994
 40
0.6249999999999992
 40
0.6249999999999992
 40
0.6874999999999993
 40
0.6874999999999993
 40
0.7499999999999994
 40
0.7499999999999994
 40
0.8124999999999997
 40
0.8124999999999997
 40
0.8749999999999998
 40
0.8749999999999998
 40
1.0
 40
1.0
 40
1.0
 40
1.0
 10
219.2436636310638
 20
34.43464069947681
 30
0.0
 10
219.2483498777226
 20
34.16682489884508
 30
0.0
 10
219.2806593980414
 20
33.89310873385967
 30
0.0
 10
219.36831745341
 20
33.47386058666427
 30
0.0
 10
219.4041116247234
 20
33.33265016797196
 30
0.0
 10
219.4889722395759
 20
33.04714955297981
 30
0.0
 10
219.5382248874895
 20
32.90256448814879
 30
0.0
 10
219.7024292236589
 20
32.47347221899717
 30
0.0
 10
219.8344816817193
 20
32.19049940351333
 30
0.0
 10
220.0645322492383
 20
31.76949549277619
 30
0.0
 10
220.1469952877321
 20
31.62909042290239
 30
0.0
 10
220.3207470229512
 20
31.35242612880817
 30
0.0
 10
220.4115486147849
 20
31.21684157976179
 30
0.0
 10
220.6949430870162
 20
30.81774451300216
 30
0.0
 10
220.8984229616833
 20
30.56181756999497
 30
0.0
 10
221.2243309489321
 20
30.19219158995929
 30
0.0
 10
221.3360715643931
 20
30.07187274277377
 30
0.0
 10
221.5613756685305
 20
29.84103514464296
 30
0.0
 10
221.6754983160096
 20
29.72987255056341
 30
0.0
 10
221.906408102574
 20
29.51579874138844
 30
0.0
 10
222.0231955185827
 20
29.41288761465397
 30
0.0
 10
222.2592784810525
 20
29.21532944773874
 30
0.0
 10
222.3791558554423
 20
29.12025767513336
 30
0.0
 10
222.7376391106061
 20
28.85145259653079
 30
0.0
 10
222.9744477771693
 20
28.69417093105601
 30
0.0
 10
223.2087668181497
 20
28.55890142799039
 30
0.0
  0
LINE
  5
25B
330
1F
100
AcDbEntity
  8
0
  6
Continuous
 62
     7
370
    15
100
AcDbLine
 10
223.2087662641
 20
28.5589012347
 30
0.0
 11
223.8409097228
 21
28.1939725837
 31
0.0
  0
LWPOLYLINE
  5
25C
330
1F
100
AcDbEntity
  8
0
  6
Continuous
 62
     7
370
    15
100
AcDbPolyline
 90
        9
 70
   128
 43
0.0
 10
229.7930970866
 20
20.415351711
 10
228.7496701922
 20
20.8970264332
 10
227.7496255758
 20
21.5414148505
 10
226.8400254621
 20
22.3288933646
 10
226.0270377791
 20
23.254123708
 10
225.3161758612
 20
24.3108285024
 10
224.7122628885
 20
25.491843735
 10
224.2193936907
 20
26.789157925
 10
223.8409097228
 20
28.1939725837
  0
LINE
  5
25D
330
1F
100
AcDbEntity
  8
0
  6
Continuous
 62
     7
370
    15
100
AcDbLine
 10
254.1213262063
 20
63.8138036344
 30
0.0
 11
254.4737370801
 21
63.6103611673
 31
0.0
  0
SPLINE
  5
25E
330
1F
100
AcDbEntity
  8
0
  6
Continuous
 62
     7
370
    15
100
AcDbSpline
210
0.0
220
0.0
230
1.0
 70
     8
 71
     3
 72
    22
 73
    18
 74
     0
 42
0.000000001
 43
0.00000001
 40
0.0
 40
0.0
 40
0.0
 40
0.0
 40
0.2500000000000002
 40
0.2500000000000002
 40
0.3750000000000003
 40
0.3750000000000003
 40
0.5000000000000004
 40
0.5000000000000004
 40
0.6250000000000004
 40
0.6250000000000004
 40
0.7500000000000004
 40
0.7500000000000004
 40
0.8750000000000004
 40
0.8750000000000004
 40
0.9375000000000002
 40
0.9375000000000002
 40
1.0
 40
1.0
 40
1.0
 40
1.0
 10
248.0016960682967
 20
67.34709523344469
 30
0.0
 10
248.4337281638358
 20
67.17882479533826
 30
0.0
 10
248.8841028122011
 20
66.96814879045803
 30
0.0
 10
249.6090762538854
 20
66.5830545542014
 30
0.0
 10
249.8610435776048
 20
66.44192901592561
 30
0.0
 10
250.3738356907371
 20
66.14291204670843
 30
0.0
 10
250.6353570027961
 20
65.98474620935264
 30
0.0
 10
251.1729316843947
 20
65.65214626801513
 30
0.0
 10
251.4508942290575
 20
65.4764484566491
 30
0.0
 10
252.0035001478029
 20
65.12480554055573
 30
0.0
 10
252.2804960729742
 20
64.94742671143301
 30
0.0
 10
252.8386836528709
 20
64.59311629212044
 30
0.0
 10
253.1088597420307
 20
64.42325845240799
 30
0.0
 10
253.5003270571272
 20
64.18268946743329
 30
0.0
 10
253.6285742872351
 20
64.1048215848849
 30
0.0
 10
253.8804359264166
 20
63.95421528938645
 30
0.0
 10
254.003328160263
 20
63.88192245017553
 30
0.0
 10
254.1213268191224
 20
63.81380327437343
 30
0.0
  0
LWPOLYLINE
  5
25F
330
1F
100
AcDbEntity
  8
0
  6
Continuous
 62
     7
370
    15
100
AcDbPolyline
 90
       10
 70
   128
 43
0.0
 10
237.1491618741
 20
67.3029104608
 10
238.2541335394
 20
67.7690358349
 10
239.6840960963
 20
68.2483014561
 10
241.0844146013
 20
68.5752755679
 10
242.4455233664
 20
68.7477257784
 10
243.7581257186
 20
68.7644723414
 10
245.0132535989
 20
68.6254012684
 10
246.2023340749
 20
68.331464703
 10
247.317244
 20
67.8846668469
 10
247.8434684771
 20
67.6054469795
  0
LWPOLYLINE
  5
260
330
1F
100
AcDbEntity
  8
0
  6
Continuous
 62
     7
370
    15
100
AcDbPolyline
 90
       10
 70
   128
 43
0.0
 10
222.8455009098
 20
24.3030036172
 10
222.3386007628
 20
24.620387783
 10
221.3943190612
 20
25.3627223905
 10
220.5453327011
 20
26.2457192422
 10
219.7974381914
 20
27.2633442817
 10
219.1557458373
 20
28.4086479196
 10
218.6246402284
 20
29.6738053416
 10
218.2077473105
 20
31.0501743073
 10
217.9079159473
 20
32.5283533269
 10
217.7709874219
 20
33.5963925794
  0
SPLINE
  5
261
330
1F
100
AcDbEntity
  8
0
  6
Continuous
 62
     7
370
    15
100
AcDbSpline
210
0.0
220
0.0
230
1.0
 70
     8
 71
     3
 72
    10
 73
     6
 74
     0
 42
0.000000001
 43
0.00000001
 40
0.0
 40
0.0
 40
0.0
 40
0.0
 40
0.5
 40
0.5
 40
1.0
 40
1.0
 40
1.0
 40
1.0
 10
278.5898785034707
 20
23.93725018478477
 30
0.0
 10
278.6243167446039
 20
23.9173694113527
 30
0.0
 10
278.6664744951062
 20
23.90880314794733
 30
0.0
 10
278.7540961859594
 20
23.90952837168129
 30
0.0
 10
278.8000211233062
 20
23.91842591550681
 30
0.0
 10
278.8444399095088
 20
23.9319626115571
 30
0.0
  0
SPLINE
  5
262
330
1F
100
AcDbEntity
  8
0
  6
Continuous
 62
     7
370
    15
100
AcDbSpline
210
0.0
220
0.0
230
1.0
 70
     8
 71
     3
 72
    16
 73
    12
 74
     0
 42
0.000000001
 43
0.00000001
 40
0.0
 40
0.0
 40
0.0
 40
0.0
 40
0.2499999999999895
 40
0.2499999999999895
 40
0.3749999999999925
 40
0.3749999999999925
 40
0.4999999999999956
 40
0.4999999999999956
 40
0.7499999999999978
 40
0.7499999999999978
 40
1.0
 40
1.0
 40
1.0
 40
1.0
 10
278.8444399095088
 20
23.93196261155711
 30
0.0
 10
278.8721645851859
 20
23.88411444346471
 30
0.0
 10
278.9096778528085
 20
23.84053368874184
 30
0.0
 10
278.9838988324349
 20
23.8068761810712
 30
0.0
 10
279.0106648373731
 20
23.80159202440066
 30
0.0
 10
279.0641926738763
 20
23.80238055808482
 30
0.0
 10
279.0907825760103
 20
23.80829115417892
 30
0.0
 10
279.1655662826628
 20
23.83572469022798
 30
0.0
 10
279.2105193736007
 20
23.86658291362425
 30
0.0
 10
279.2911825915627
 20
23.93596640552936
 30
0.0
 10
279.3278980139517
 20
23.97570532608671
 30
0.0
 10
279.3614434946223
 20
24.01743558513064
 30
0.0
  0
LINE
  5
263
330
1F
100
AcDbEntity
  8
0
  6
Continuous
 62
     7
370
    15
100
AcDbLine
 10
225.489828121
 20
37.575918106
 30
0.0
 11
225.1687270873
 21
37.3905504249
 31
0.0
  0
LINE
  5
264
330
1F
100
AcDbEntity
  8
0
  6
Continuous
 62
     7
370
    15
100
AcDbLine
 10
226.4504772879
 20
37.3575037977
 30
0.0
 11
226.0638227582
 21
37.5807147065
 31
0.0
  0
SPLINE
  5
265
330
1F
100
AcDbEntity
  8
0
  6
Continuous
 62
     7
370
    15
100
AcDbSpline
210
0.0
220
0.0
230
1.0
 70
     8
 71
     3
 72
    12
 73
     8
 74
     0
 42
0.000000001
 43
0.00000001
 40
0.0
 40
0.0
 40
0.0
 40
0.0
 40
0.25
 40
0.25
 40
0.5
 40
0.5
 40
1.0
 40
1.0
 40
1.0
 40
1.0
 10
226.0638229248909
 20
37.5807151861794
 30
0.0
 10
226.026430887308
 20
37.60230115000583
 30
0.0
 10
225.9802825764531
 20
37.61974128502829
 30
0.0
 10
225.8815827390705
 20
37.64219741334261
 30
0.0
 10
225.8280711727751
 20
37.64758371894324
 30
0.0
 10
225.6694737530738
 20
37.64550256013311
 30
0.0
 10
225.564759658456
 20
37.61917533964231
 30
0.0
 10
225.4898278199292
 20
37.57591811001684
 30
0.0
  0
SPLINE
  5
266
330
1F
100
AcDbEntity
  8
0
  6
Continuous
 62
     7
370
    15
100
AcDbSpline
210
0.0
220
0.0
230
1.0
 70
     8
 71
     3
 72
    32
 73
    28
 74
     0
 42
0.000000001
 43
0.00000001
 40
0.0
 40
0.0
 40
0.0
 40
0.0
 40
0.1249999999999995
 40
0.1249999999999995
 40
0.1874999999999995
 40
0.1874999999999995
 40
0.2499999999999996
 40
0.2499999999999996
 40
0.3749999999999996
 40
0.3749999999999996
 40
0.4374999999999998
 40
0.4374999999999998
 40
0.5
 40
0.5
 40
0.6250000000000002
 40
0.6250000000000002
 40
0.6875000000000002
 40
0.6875000000000002
 40
0.7500000000000001
 40
0.7500000000000001
 40
0.8125000000000001
 40
0.8125000000000001
 40
0.8750000000000001
 40
0.8750000000000001
 40
0.9375
 40
0.9375
 40
1.0
 40
1.0
 40
1.0
 40
1.0
 10
281.2710701230835
 20
26.95066752770301
 30
0.0
 10
281.4112895101616
 20
27.12509911218744
 30
0.0
 10
281.5381259717288
 20
27.31087085481332
 30
0.0
 10
281.707005603437
 20
27.60716631320878
 30
0.0
 10
281.759723114807
 20
27.70926550504314
 30
0.0
 10
281.8551548012626
 20
27.9136223374085
 30
0.0
 10
281.8982662785669
 20
28.01656976836145
 30
0.0
 10
282.0139052068812
 20
28.32770841165295
 30
0.0
 10
282.0728291030032
 20
28.54052161300866
 30
0.0
 10
282.1295691618113
 20
28.84647837213012
 30
0.0
 10
282.1434741714613
 20
28.94686655560819
 30
0.0
 10
282.1613672976028
 20
29.14429074630905
 30
0.0
 10
282.1653326386257
 20
29.24192996517816
 30
0.0
 10
282.162120739388
 20
29.52190558848373
 30
0.0
 10
282.1405132640969
 20
29.69325238276888
 30
0.0
 10
282.0793522854521
 20
29.92643479792618
 30
0.0
 10
282.0543503876593
 20
29.99918527613497
 30
0.0
 10
281.9959042121575
 20
30.13285747415786
 30
0.0
 10
281.9623000626011
 20
30.19420978761285
 30
0.0
 10
281.8857686553059
 20
30.30622003641336
 30
0.0
 10
281.8425217066531
 20
30.35716084090145
 30
0.0
 10
281.7495189287561
 20
30.44523263478332
 30
0.0
 10
281.7003122347266
 20
30.48216376493856
 30
0.0
 10
281.5947885548031
 20
30.54326838713991
 30
0.0
 10
281.5382682282591
 20
30.56756109260529
 30
0.0
 10
281.4141044291163
 20
30.60521845797928
 30
0.0
 10
281.3464664577469
 20
30.61848616659184
 30
0.0
 10
281.2729781553076
 20
30.62672049300915
 30
0.0
  0
SPLINE
  5
267
330
1F
100
AcDbEntity
  8
0
  6
Continuous
 62
     7
370
    15
100
AcDbSpline
210
0.0
220
0.0
230
1.0
 70
     8
 71
     3
 72
    14
 73
    10
 74
     0
 42
0.000000001
 43
0.00000001
 40
0.0
 40
0.0
 40
0.0
 40
0.0
 40
0.25
 40
0.25
 40
0.5
 40
0.5
 40
0.75
 40
0.75
 40
1.0
 40
1.0
 40
1.0
 40
1.0
 10
281.2729781553074
 20
30.626720493009
 30
0.0
 10
281.0609872824716
 20
30.6504739610641
 30
0.0
 10
280.8648091662598
 20
30.66506577452108
 30
0.0
 10
280.4648624422049
 20
30.69863710367958
 30
0.0
 10
280.2622403217446
 20
30.71694490724317
 30
0.0
 10
279.8561066557651
 20
30.75407825633368
 30
0.0
 10
279.6529059939659
 20
30.77272229024224
 30
0.0
 10
279.2483930616654
 20
30.80891926433997
 30
0.0
 10
279.0465700729344
 20
30.82676740846292
 30
0.0
 10
278.8444127751749
 20
30.8448085378846
 30
0.0
  0
LWPOLYLINE
  5
268
330
1F
100
AcDbEntity
  8
0
  6
Continuous
 62
     7
370
    15
100
AcDbPolyline
 90
       18
 70
   128
 43
0.0
 10
217.8937786636
 20
39.3284184727
 10
217.9055047071
 20
39.41737404
 10
218.2023383758
 20
41.2234877595
 10
218.6150613898
 20
43.0626133255
 10
219.1408564959
 20
44.9221892962
 10
219.7761319922
 20
46.789512476
 10
220.5165467534
 20
48.6518272676
 10
221.3570444748
 20
50.4964108409
 10
222.2918826482
 20
52.3106643855
 10
223.3146760261
 20
54.0821944765
 10
224.4184374512
 20
55.7988990024
 10
225.595626589
 20
57.4490515726
 10
226.838203928
 20
59.0213798396
 10
228.1376795126
 20
60.5051438222
 10
229.4851774798
 20
61.8902066223
 10
230.8714926944
 20
63.1671066639
 10
232.2871556158
 20
64.3271240374
 10
233.547680433
 20
65.2436674423
  0
ARC
  5
269
330
1F
100
AcDbEntity
  8
0
  6
Continuous
 62
     7
370
    15
100
AcDbCircle
 10
272.3540684966
 20
32.8789887169
 30
0.0
 40
4.169042011086722
100
AcDbArc
 50
320.6700418241
 51
350.3607181244
  0
LINE
  5
26A
330
1F
100
AcDbEntity
  8
0
  6
Continuous
 62
     7
370
    15
100
AcDbLine
 10
278.8444403449
 20
23.9319621793
 30
0.0
 11
281.2710708312
 21
26.9506672152
 31
0.0
  0
LINE
  5
26B
330
1F
100
AcDbEntity
  8
0
  6
Continuous
 62
     7
370
    15
100
AcDbLine
 10
273.0744445876
 20
27.1212422048
 30
0.0
 11
275.5788597169
 21
30.236710746
 31
0.0
  0
LINE
  5
26C
330
1F
100
AcDbEntity
  8
0
  6
Continuous
 62
     7
370
    15
100
AcDbLine
 10
224.9323366093
 20
29.5538972158
 30
0.0
 11
229.8820842304
 21
26.6964687363
 31
0.0
  0
ARC
  5
26D
330
1F
100
AcDbEntity
  8
0
  6
Continuous
 62
     7
370
    15
100
AcDbCircle
 10
229.07288312
 20
36.0269256701
 30
0.0
 40
7.684023866253195
100
AcDbArc
 50
182.6054781208
 51
237.3945216397
  0
LINE
  5
26E
330
1F
100
AcDbEntity
  8
0
  6
Continuous
 62
     7
370
    15
100
AcDbLine
 10
221.3968027824
 20
36.4941623162
 30
0.0
 11
221.3968027824
 21
35.6776214655
 31
0.0
  0
ARC
  5
26F
330
1F
100
AcDbEntity
  8
0
  6
Continuous
 62
     7
370
    15
100
AcDbCircle
 10
224.6023717417
 20
36.6082943448
 30
0.0
 40
3.207600111135732
100
AcDbArc
 50
155.0781057726
 51
182.0391145909
  0
SPLINE
  5
270
330
1F
100
AcDbEntity
  8
0
  6
Continuous
 62
     7
370
    15
100
AcDbSpline
210
0.0
220
0.0
230
1.0
 70
     8
 71
     3
 72
     8
 73
     4
 74
     0
 42
0.000000001
 43
0.00000001
 40
0.0
 40
0.0
 40
0.0
 40
0.0
 40
1.0
 40
1.0
 40
1.0
 40
1.0
 10
209.6410328473016
 20
40.98749240818928
 30
0.0
 10
210.1078950729684
 20
40.60725082092735
 30
0.0
 10
210.5749298573518
 20
40.2403441723845
 30
0.0
 10
211.0420549695272
 20
39.88041784679254
 30
0.0
  0
SPLINE
  5
271
330
1F
100
AcDbEntity
  8
0
  6
Continuous
 62
     7
370
    15
100
AcDbSpline
210
0.0
220
0.0
230
1.0
 70
     8
 71
     3
 72
    14
 73
    10
 74
     0
 42
0.000000001
 43
0.00000001
 40
0.0
 40
0.0
 40
0.0
 40
0.0
 40
0.1249999999999987
 40
0.1249999999999987
 40
0.2499999999999973
 40
0.2499999999999973
 40
0.4999999999999947
 40
0.4999999999999947
 40
1.0
 40
1.0
 40
1.0
 40
1.0
 10
211.0420549695272
 20
39.8804178467925
 30
0.0
 10
211.0684789082004
 20
39.86005783850688
 30
0.0
 10
211.0925428507052
 20
39.84454553519222
 30
0.0
 10
211.1288121081303
 20
39.82756216663286
 30
0.0
 10
211.1408304831185
 20
39.82568792522693
 30
0.0
 10
211.1663447297889
 20
39.82982876656217
 30
0.0
 10
211.170538392237
 20
39.84477115462519
 30
0.0
 10
211.1716452019725
 20
39.89912249097033
 30
0.0
 10
211.1560172168839
 20
39.95054345164634
 30
0.0
 10
211.1363644842503
 20
40.0068922792323
 30
0.0
  0
SPLINE
  5
272
330
1F
100
AcDbEntity
  8
0
  6
Continuous
 62
     7
370
    15
100
AcDbSpline
210
0.0
220
0.0
230
1.0
 70
     8
 71
     3
 72
    14
 73
    10
 74
     0
 42
0.000000001
 43
0.00000001
 40
0.0
 40
0.0
 40
0.0
 40
0.0
 40
0.25
 40
0.25
 40
0.5
 40
0.5
 40
0.75
 40
0.75
 40
1.0
 40
1.0
 40
1.0
 40
1.0
 10
211.1363644842498
 20
40.00689227923266
 30
0.0
 10
211.1116986363118
 20
40.07761484177047
 30
0.0
 10
211.1008357655874
 20
40.14068113952069
 30
0.0
 10
211.0788853983925
 20
40.27224788047927
 30
0.0
 10
211.0686138035735
 20
40.34020121947096
 30
0.0
 10
211.039309789215
 20
40.48880622331439
 30
0.0
 10
211.0205171179853
 20
40.56927002974526
 30
0.0
 10
210.9675978134691
 20
40.74884090355959
 30
0.0
 10
210.9335186362902
 20
40.84767194948745
 30
0.0
 10
210.8894323840124
 20
40.95527200446672
 30
0.0
  0
LWPOLYLINE
  5
273
330
1F
100
AcDbEntity
  8
0
  6
Continuous
 62
     7
370
    15
100
AcDbPolyline
 90
        9
 70
   128
 43
0.0
 10
210.8894321052
 20
40.955272157
 10
210.5213518233
 20
42.0264175367
 10
210.2562231215
 20
43.190420414
 10
210.0962560751
 20
44.4375716569
 10
210.0427848952
 20
45.7574682928
 10
210.0962560751
 20
47.1391014389
 10
210.2562231215
 20
48.5709467023
 10
210.5213518233
 20
50.041060663
 10
210.8894321052
 20
51.5371824902
  0
SPLINE
  5
274
330
1F
100
AcDbEntity
  8
0
  6
Continuous
 62
     7
370
    15
100
AcDbSpline
210
0.0
220
0.0
230
1.0
 70
     8
 71
     3
 72
    14
 73
    10
 74
     0
 42
0.000000001
 43
0.00000001
 40
0.0
 40
0.0
 40
0.0
 40
0.0
 40
0.25
 40
0.25
 40
0.5
 40
0.5
 40
0.75
 40
0.75
 40
1.0
 40
1.0
 40
1.0
 40
1.0
 10
211.1363644842498
 20
53.59068267854118
 30
0.0
 10
211.1116986363118
 20
53.41901014704831
 30
0.0
 10
211.1008357655874
 20
53.24403041487272
 30
0.0
 10
211.0788853983925
 20
52.89522391123153
 30
0.0
 10
211.0686138035735
 20
52.72100981929574
 30
0.0
 10
211.039309789215
 20
52.37495890734464
 30
0.0
 10
211.0205171179853
 20
52.2030760534294
 30
0.0
 10
210.9675978134691
 20
51.86304438453517
 30
0.0
 10
210.9335186362902
 20
51.69568352403805
 30
0.0
 10
210.8894323840124
 20
51.53718256563511
 30
0.0
  0
SPLINE
  5
275
330
1F
100
AcDbEntity
  8
0
  6
Continuous
 62
     7
370
    15
100
AcDbSpline
210
0.0
220
0.0
230
1.0
 70
     8
 71
     3
 72
    14
 73
    10
 74
     0
 42
0.000000001
 43
0.00000001
 40
0.0
 40
0.0
 40
0.0
 40
0.0
 40
0.124999999999999
 40
0.124999999999999
 40
0.249999999999998
 40
0.249999999999998
 40
0.5000000000000007
 40
0.5000000000000007
 40
1.0
 40
1.0
 40
1.0
 40
1.0
 10
211.0420549695273
 20
54.33942642218383
 30
0.0
 10
211.0684789082005
 20
54.33512012291163
 30
0.0
 10
211.0925428507053
 20
54.31923661637121
 30
0.0
 10
211.1288121081304
 20
54.2700920434798
 30
0.0
 10
211.1408304831185
 20
54.23908068812747
 30
0.0
 10
211.1663447297889
 20
54.14222214626004
 30
0.0
 10
211.170538392237
 20
54.07194152538388
 30
0.0
 10
211.1716452019725
 20
53.865540123306
 30
0.0
 10
211.1560172168839
 20
53.72746428728384
 30
0.0
 10
211.1363644842503
 20
53.59068267854109
 30
0.0
  0
SPLINE
  5
276
330
1F
100
AcDbEntity
  8
0
  6
Continuous
 62
     7
370
    15
100
AcDbSpline
210
0.0
220
0.0
230
1.0
 70
     8
 71
     3
 72
     8
 73
     4
 74
     0
 42
0.000000001
 43
0.00000001
 40
0.0
 40
0.0
 40
0.0
 40
0.0
 40
1.0
 40
1.0
 40
1.0
 40
1.0
 10
209.6410328473016
 20
54.50863931606879
 30
0.0
 10
210.1078950729685
 20
54.4765495620035
 30
0.0
 10
210.5749298573519
 20
54.41555362469784
 30
0.0
 10
211.0420549695273
 20
54.33942642218386
 30
0.0
  0
SPLINE
  5
277
330
1F
100
AcDbEntity
  8
0
  6
Continuous
 62
     7
370
    15
100
AcDbSpline
210
0.0
220
0.0
230
1.0
 70
     8
 71
     3
 72
    14
 73
    10
 74
     0
 42
0.000000001
 43
0.00000001
 40
0.0
 40
0.0
 40
0.0
 40
0.0
 40
0.4999999999999972
 40
0.4999999999999972
 40
0.7499999999999971
 40
0.7499999999999971
 40
0.8749999999999986
 40
0.8749999999999986
 40
1.0
 40
1.0
 40
1.0
 40
1.0
 10
206.7964954700836
 20
55.43322119223102
 30
0.0
 10
207.2615300027986
 20
55.23687594297017
 30
0.0
 10
207.7283859240802
 20
55.04922343150212
 30
0.0
 10
208.4354123096847
 20
54.79920547455767
 30
0.0
 10
208.6721972925758
 20
54.72104421675884
 30
0.0
 10
209.0309779307074
 20
54.62047695136386
 30
0.0
 10
209.1511767547084
 20
54.58975545511223
 30
0.0
 10
209.3937788528182
 20
54.53848074872766
 30
0.0
 10
209.5160306104071
 20
54.51723133919469
 30
0.0
 10
209.6410328473016
 20
54.50863931606875
 30
0.0
  0
LINE
  5
278
330
1F
100
AcDbEntity
  8
0
  6
Continuous
 62
     7
370
    15
100
AcDbLine
 10
226.6982586103
 20
71.4804873321
 30
0.0
 11
226.776111742
 21
71.442402129
 31
0.0
  0
SPLINE
  5
279
330
1F
100
AcDbEntity
  8
0
  6
Continuous
 62
     7
370
    15
100
AcDbSpline
210
0.0
220
0.0
230
1.0
 70
     8
 71
     3
 72
    14
 73
    10
 74
     0
 42
0.000000001
 43
0.00000001
 40
0.0
 40
0.0
 40
0.0
 40
0.0
 40
0.4999999999999986
 40
0.4999999999999986
 40
0.7499999999999978
 40
0.7499999999999978
 40
0.8749999999999989
 40
0.8749999999999989
 40
1.0
 40
1.0
 40
1.0
 40
1.0
 10
206.7964954700836
 20
43.11027721635661
 30
0.0
 10
207.2615300027986
 20
42.77543190011824
 30
0.0
 10
207.7283859240802
 20
42.43664372504671
 30
0.0
 10
208.4354123096847
 20
41.91434797801398
 30
0.0
 10
208.6721972925758
 20
41.73792626992361
 30
0.0
 10
209.0309779307074
 20
41.46584411840467
 30
0.0
 10
209.1511767547084
 20
41.37389875704775
 30
0.0
 10
209.3937788528182
 20
41.18547273621745
 30
0.0
 10
209.5160306104071
 20
41.0893019921628
 30
0.0
 10
209.6410328473016
 20
40.9874924081893
 30
0.0
  0
SPLINE
  5
27A
330
1F
100
AcDbEntity
  8
0
  6
Continuous
 62
     7
370
    15
100
AcDbSpline
210
0.0
220
0.0
230
1.0
 70
     8
 71
     3
 72
    17
 73
    13
 74
     0
 42
0.000000001
 43
0.00000001
 40
0.0
 40
0.0
 40
0.0
 40
0.0
 40
0.1209471526023702
 40
0.2423200588379476
 40
0.363669280342535
 40
0.4845644574653133
 40
0.60478077450687
 40
0.6653483479440757
 40
0.7251700882307058
 40
0.8452308545149047
 40
0.9658510043136136
 40
0.9999999999999999
 40
0.9999999999999999
 40
0.9999999999999999
 40
0.9999999999999999
 10
215.2547385976001
 20
40.66650137897305
 30
0.0
 10
215.0509703122023
 20
41.04039096890577
 30
0.0
 10
214.6427164439261
 20
41.78948630089141
 30
0.0
 10
214.4494489976997
 20
42.93780472388491
 30
0.0
 10
214.6548074895802
 20
43.89014184203263
 30
0.0
 10
215.2141124701233
 20
44.52361462777201
 30
0.0
 10
215.8899578194851
 20
44.6649023461752
 30
0.0
 10
216.4649496596133
 20
44.5387486919621
 30
0.0
 10
217.0447698433414
 20
44.25051136410342
 30
0.0
 10
217.7115880038229
 20
43.59312867828995
 30
0.0
 10
218.240552178912
 20
42.77173033759426
 30
0.0
 10
218.3986242231617
 20
42.25411001276262
 30
0.0
 10
218.4335019860407
 20
42.13989981805967
 30
0.0
  0
SPLINE
  5
27B
330
1F
100
AcDbEntity
  8
0
  6
Continuous
 62
     7
370
    15
100
AcDbSpline
210
0.0
220
0.0
230
1.0
 70
     8
 71
     3
 72
    12
 73
     8
 74
     0
 42
0.000000001
 43
0.00000001
 40
0.0
 40
0.0
 40
0.0
 40
0.0
 40
0.036136208773765
 40
0.3565446287602127
 40
0.5164294010178786
 40
0.6784619137881932
 40
1.0
 40
1.0
 40
1.0
 40
1.0
 10
217.7595080239008
 20
38.63452069523749
 30
0.0
 10
217.7363004656802
 20
38.63057304206483
 30
0.0
 10
217.507318773606
 20
38.59162278738452
 30
0.0
 10
217.0329351536138
 20
38.8552750689015
 30
0.0
 10
216.4642031730017
 20
39.26476727423659
 30
0.0
 10
215.8807625305444
 20
39.80097858016101
 30
0.0
 10
215.5047551991142
 20
40.32083557083973
 30
0.0
 10
215.2547385976001
 20
40.66650137897305
 30
0.0
  0
ARC
  5
27C
330
1F
100
AcDbEntity
  8
0
  6
Continuous
 62
     7
370
    15
100
AcDbCircle
 10
236.8940759561
 20
26.225325185
 30
0.0
 40
8.679974811914157
100
AcDbArc
 50
215.590695241
 51
264.1021429299
  0
SPLINE
  5
27D
330
1F
100
AcDbEntity
  8
0
  6
Continuous
 62
     7
370
    15
100
AcDbSpline
210
0.0
220
0.0
230
1.0
 70
     8
 71
     3
 72
    14
 73
    10
 74
     0
 42
0.000000001
 43
0.00000001
 40
0.0
 40
0.0
 40
0.0
 40
0.0
 40
0.25
 40
0.25
 40
0.5
 40
0.5
 40
0.75
 40
0.75
 40
1.0
 40
1.0
 40
1.0
 40
1.0
 10
227.8049608958622
 20
25.90557506456657
 30
0.0
 10
227.8521820592859
 20
25.87831486717174
 30
0.0
 10
227.9084688187172
 20
25.85703293564758
 30
0.0
 10
228.0318981667905
 20
25.82867830581646
 30
0.0
 10
228.0985514902504
 20
25.8218349234763
 30
0.0
 10
228.2306763671922
 20
25.8233170391055
 30
0.0
 10
228.2970357231768
 20
25.8317075707917
 30
0.0
 10
228.4182899552976
 20
25.86182589426307
 30
0.0
 10
228.4744010577749
 20
25.88383058810388
 30
0.0
 10
228.5211356313022
 20
25.91080988313083
 30
0.0
  0
LINE
  5
27E
330
1F
100
AcDbEntity
  8
0
  6
Continuous
 62
     7
370
    15
100
AcDbLine
 10
226.1475125699
 20
26.8623991034
 30
0.0
 11
227.8049604366
 21
25.9055748165
 31
0.0
  0
SPLINE
  5
27F
330
1F
100
AcDbEntity
  8
0
  6
Continuous
 62
     7
370
    15
100
AcDbSpline
210
0.0
220
0.0
230
1.0
 70
     8
 71
     3
 72
     8
 73
     4
 74
     0
 42
0.000000001
 43
0.00000001
 40
0.0
 40
0.0
 40
0.0
 40
0.0
 40
1.0
 40
1.0
 40
1.0
 40
1.0
 10
226.5193012222651
 20
27.62893203077958
 30
0.0
 10
226.3951230543801
 20
27.37346123155351
 30
0.0
 10
226.2712053542383
 20
27.11794838488055
 30
0.0
 10
226.1475128612061
 20
26.86239944839388
 30
0.0
  0
LINE
  5
280
330
1F
100
AcDbEntity
  8
0
  6
Continuous
 62
     7
370
    15
100
AcDbLine
 10
226.8404021496
 20
27.814299433
 30
0.0
 11
226.5193011159
 21
27.6289317518
 31
0.0
  0
SPLINE
  5
281
330
1F
100
AcDbEntity
  8
0
  6
Continuous
 62
     7
370
    15
100
AcDbSpline
210
0.0
220
0.0
230
1.0
 70
     8
 71
     3
 72
    12
 73
     8
 74
     0
 42
0.000000001
 43
0.00000001
 40
0.0
 40
0.0
 40
0.0
 40
0.0
 40
0.250000000000003
 40
0.250000000000003
 40
0.500000000000006
 40
0.500000000000006
 40
1.0
 40
1.0
 40
1.0
 40
1.0
 10
226.848711452008
 20
28.14565975337454
 30
0.0
 10
226.8861034895909
 20
28.1240737895481
 30
0.0
 10
226.9163139629083
 20
28.09743293675805
 30
0.0
 10
226.9552133329178
 20
28.04045473345224
 30
0.0
 10
226.9645436988477
 20
28.00956316377542
 30
0.0
 10
226.9609386354338
 20
27.91800682221335
 30
0.0
 10
226.9153336105223
 20
27.85755666210834
 30
0.0
 10
226.8404017719955
 20
27.81429943248286
 30
0.0
  0
LINE
  5
282
330
1F
100
AcDbEntity
  8
0
  6
Continuous
 62
     7
370
    15
100
AcDbLine
 10
226.0638227582
 20
28.5987658244
 30
0.0
 11
226.8487110057
 21
28.1456594838
 31
0.0
  0
SPLINE
  5
283
330
1F
100
AcDbEntity
  8
0
  6
Continuous
 62
     7
370
    15
100
AcDbSpline
210
0.0
220
0.0
230
1.0
 70
     8
 71
     3
 72
    14
 73
    10
 74
     0
 42
0.000000001
 43
0.00000001
 40
0.0
 40
0.0
 40
0.0
 40
0.0
 40
0.25
 40
0.25
 40
0.5
 40
0.5
 40
0.75
 40
0.75
 40
1.0
 40
1.0
 40
1.0
 40
1.0
 10
225.4898278199292
 20
28.59396917927359
 30
0.0
 10
225.5276736177077
 20
28.61581709328519
 30
0.0
 10
225.5719925348557
 20
28.63318973807411
 30
0.0
 10
225.6696940714077
 20
28.65755121276598
 30
0.0
 10
225.7224472030195
 20
28.66426517729754
 30
0.0
 10
225.828400560248
 20
28.66562262688354
 30
0.0
 10
225.8817648465433
 20
28.66024492574445
 30
0.0
 10
225.9809426213151
 20
28.63760398222861
 30
0.0
 10
226.0259495147163
 20
28.62063010974475
 30
0.0
 10
226.0638229248909
 20
28.59876625543615
 30
0.0
  0
LINE
  5
284
330
1F
100
AcDbEntity
  8
0
  6
Continuous
 62
     7
370
    15
100
AcDbLine
 10
225.1687270873
 20
28.4086015428
 30
0.0
 11
225.489828121
 21
28.5939692239
 31
0.0
  0
SPLINE
  5
285
330
1F
100
AcDbEntity
  8
0
  6
Continuous
 62
     7
370
    15
100
AcDbSpline
210
0.0
220
0.0
230
1.0
 70
     8
 71
     3
 72
     8
 73
     4
 74
     0
 42
0.000000001
 43
0.00000001
 40
0.0
 40
0.0
 40
0.0
 40
0.0
 40
1.0
 40
1.0
 40
1.0
 40
1.0
 10
223.8409100200853
 20
28.19397292523454
 30
0.0
 10
224.2835817263017
 20
28.26537908153924
 30
0.0
 10
224.7261909163533
 20
28.33691524714101
 30
0.0
 10
225.1687272701987
 20
28.40860177757027
 30
0.0
  0
LWPOLYLINE
  5
286
330
1F
100
AcDbEntity
  8
0
  6
Continuous
 62
     7
370
    15
100
AcDbPolyline
 90
        8
 70
   128
 43
0.0
 10
230.8930936128
 20
19.6572272379
 10
230.056228423
 20
20.2098413702
 10
229.1466283093
 20
20.9973198843
 10
228.3336406262
 20
21.9225502277
 10
227.6227787083
 20
22.9792550221
 10
227.0188657356
 20
24.1602702546
 10
226.5259965379
 20
25.4575844447
 10
226.1475125699
 20
26.8623991034
  0
ARC
  5
287
330
1F
100
AcDbEntity
  8
0
  6
Continuous
 62
     7
370
    15
100
AcDbCircle
 10
236.7116888703
 20
30.8842826157
 30
0.0
 40
11.80546329026529
100
AcDbArc
 50
192.1051464299
 51
214.9696743527
  0
SPLINE
  5
288
330
1F
100
AcDbEntity
  8
0
  6
Continuous
 62
     7
370
    15
100
AcDbSpline
210
0.0
220
0.0
230
1.0
 70
     8
 71
     3
 72
    12
 73
     8
 74
     0
 42
0.000000001
 43
0.00000001
 40
0.0
 40
0.0
 40
0.0
 40
0.0
 40
0.1676065239169891
 40
0.4026510325936543
 40
0.6383346781443311
 40
0.8777538537806593
 40
1.0
 40
1.0
 40
1.0
 40
1.0
 10
216.6776965457578
 20
44.32670345899102
 30
0.0
 10
216.6431887074935
 20
44.14942433884129
 30
0.0
 10
216.5602884934386
 20
43.72353625813068
 30
0.0
 10
216.7549217164969
 20
42.91258988292556
 30
0.0
 10
217.1883841160456
 20
42.04027943535625
 30
0.0
 10
217.7099146268862
 20
41.33945403588667
 30
0.0
 10
218.0750158251674
 20
41.02912441974376
 30
0.0
 10
218.1984233286597
 20
40.92423020584305
 30
0.0
  0
SPLINE
  5
289
330
1F
100
AcDbEntity
  8
0
  6
Continuous
 62
     7
370
    15
100
AcDbSpline
210
0.0
220
0.0
230
1.0
 70
     8
 71
     3
 72
    13
 73
     9
 74
     0
 42
0.000000001
 43
0.00000001
 40
0.0
 40
0.0
 40
0.0
 40
0.0
 40
0.1886514118811933
 40
0.3629437345478831
 40
0.6676213342294454
 40
0.7702427215479343
 40
0.8818942432476
 40
1.0
 40
1.0
 40
1.0
 40
1.0
 10
215.5450520170436
 20
40.84891146401306
 30
0.0
 10
215.6715495228613
 20
40.66587803462409
 30
0.0
 10
215.9149162526122
 20
40.31374265568835
 30
0.0
 10
216.4323485554071
 20
39.74978674435177
 30
0.0
 10
216.9130384940331
 20
39.36157829565384
 30
0.0
 10
217.3127669658857
 20
39.1284417752981
 30
0.0
 10
217.5598363505742
 20
39.0141544375737
 30
0.0
 10
217.7166334876086
 20
38.97474873156177
 30
0.0
 10
217.7972343924018
 20
38.95449239513466
 30
0.0
  0
SPLINE
  5
28A
330
1F
100
AcDbEntity
  8
0
  6
Continuous
 62
     7
370
    15
100
AcDbSpline
210
0.0
220
0.0
230
1.0
 70
     8
 71
     3
 72
    21
 73
    17
 74
     0
 42
0.000000001
 43
0.00000001
 40
0.0
 40
0.0
 40
0.0
 40
0.0
 40
0.0291072990320507
 40
0.1766701755092129
 40
0.2610010304581518
 40
0.3058176544268608
 40
0.3523720585966046
 40
0.4220772611717262
 40
0.4761263197634148
 40
0.5145005870914284
 40
0.6757391896703757
 40
0.7255057044945664
 40
0.779574485820041
 40
0.8379566155073763
 40
0.901826978419325
 40
1.0
 40
1.0
 40
1.0
 40
1.0
 10
217.2077428858927
 20
44.06514484858211
 30
0.0
 10
217.1621286250289
 20
44.10251939714912
 30
0.0
 10
216.8852675028873
 20
44.32936861622784
 30
0.0
 10
216.4328575026248
 20
44.47679254563072
 30
0.0
 10
215.9939110059295
 20
44.47663815168512
 30
0.0
 10
215.7345626025522
 20
44.40949942384759
 30
0.0
 10
215.5126500155241
 20
44.30790278592522
 30
0.0
 10
215.3055820962747
 20
44.14898169558911
 30
0.0
 10
215.1438021990965
 20
43.9506721273912
 30
0.0
 10
214.9356925539462
 20
43.59123209151365
 30
0.0
 10
214.8354112153446
 20
43.13297566559789
 30
0.0
 10
214.8673407172793
 20
42.59503448783094
 30
0.0
 10
214.9259919322986
 20
42.25275065171225
 30
0.0
 10
215.0346615079086
 20
41.8724526411149
 30
0.0
 10
215.2238454577054
 20
41.39323652915967
 30
0.0
 10
215.4238689642238
 20
41.05427144562962
 30
0.0
 10
215.5450520170436
 20
40.84891146401306
 30
0.0
  0
SPLINE
  5
28B
330
1F
100
AcDbEntity
  8
0
  6
Continuous
 62
     7
370
    15
100
AcDbSpline
210
0.0
220
0.0
230
1.0
 70
     8
 71
     3
 72
     9
 73
     5
 74
     0
 42
0.000000001
 43
0.00000001
 40
0.0
 40
0.0
 40
0.0
 40
0.0
 40
0.1883710221454139
 40
1.0
 40
1.0
 40
1.0
 40
1.0
 10
256.4869774467499
 20
61.90806715141592
 30
0.0
 10
256.5293535874731
 20
61.91759987389844
 30
0.0
 10
256.7543146257502
 20
61.9682059722991
 30
0.0
 10
256.9800822268917
 20
62.017604062724
 30
0.0
 10
257.1633217542389
 20
62.05769698436352
 30
0.0
  0
LINE
  5
28C
330
1F
100
AcDbEntity
  8
0
  6
Continuous
 62
     7
370
    15
100
AcDbLine
 10
257.1633217542
 20
62.0576969844
 30
0.0
 11
258.820769621
 21
61.1008726975
 31
0.0
  0
SPLINE
  5
28D
330
1F
100
AcDbEntity
  8
0
  6
Continuous
 62
     7
370
    15
100
AcDbSpline
210
0.0
220
0.0
230
1.0
 70
     8
 71
     3
 72
    16
 73
    12
 74
     0
 42
0.000000001
 43
0.00000001
 40
0.0
 40
0.0
 40
0.0
 40
0.0
 40
0.1249999999999978
 40
0.1249999999999978
 40
0.2499999999999955
 40
0.2499999999999955
 40
0.499999999999997
 40
0.499999999999997
 40
0.7499999999999984
 40
0.7499999999999984
 40
1.0
 40
1.0
 40
1.0
 40
1.0
 10
258.8207702078267
 20
61.10087235243273
 30
0.0
 10
258.8475121753851
 20
61.08543454316429
 30
0.0
 10
258.8704827740316
 20
61.06754282375705
 30
0.0
 10
258.9064597261557
 20
61.02936282721191
 30
0.0
 10
258.9197222649346
 20
61.00907900974133
 30
0.0
 10
258.9464773756404
 20
60.94495267844663
 30
0.0
 10
258.9456603703799
 20
60.90045982681748
 30
0.0
 10
258.9175799801337
 20
60.81538013447363
 30
0.0
 10
258.8900106252092
 20
60.77400727842733
 30
0.0
 10
258.8168364694498
 20
60.69857614571936
 30
0.0
 10
258.7706026310371
 20
60.66370717089558
 30
0.0
 10
258.7174388461088
 20
60.63301637112854
 30
0.0
  0
LINE
  5
28E
330
1F
100
AcDbEntity
  8
0
  6
Continuous
 62
     7
370
    15
100
AcDbLine
 10
209.4337214459
 20
46.8094212838
 30
0.0
 11
210.0564951333
 21
46.4499016867
 31
0.0
  0
SPLINE
  5
28F
330
1F
100
AcDbEntity
  8
0
  6
Continuous
 62
     7
370
    15
100
AcDbSpline
210
0.0
220
0.0
230
1.0
 70
     8
 71
     3
 72
    11
 73
     7
 74
     0
 42
0.000000001
 43
0.00000001
 40
0.0
 40
0.0
 40
0.0
 40
0.0
 40
0.0466275143578422
 40
0.4281256289520236
 40
0.8087785236302327
 40
0.9999999999999999
 40
0.9999999999999999
 40
0.9999999999999999
 40
0.9999999999999999
 10
262.3625899137682
 20
54.02074395883875
 30
0.0
 10
262.3675673535178
 20
54.02369154053358
 30
0.0
 10
262.4132693291152
 20
54.05075571679016
 30
0.0
 10
262.4797062766277
 20
54.11199459558548
 30
0.0
 10
262.5223264666026
 20
54.19577396236176
 30
0.0
 10
262.5084920551122
 20
54.24593656918252
 30
0.0
 10
262.5038661499767
 20
54.26270977711145
 30
0.0
  0
LINE
  5
290
330
1F
100
AcDbEntity
  8
0
  6
Continuous
 62
     7
370
    15
100
AcDbLine
 10
206.7817311021
 20
56.4908520243
 30
0.0
 11
206.7948519429
 21
56.5302979292
 31
0.0
  0
LWPOLYLINE
  5
291
330
1F
100
AcDbEntity
  8
0
  6
Continuous
 62
     7
370
    15
100
AcDbPolyline
 90
       11
 70
   128
 43
0.0
 10
206.8210297457
 20
56.6089916352
 10
206.8289783779
 20
56.6328865605
 10
206.8461459746
 20
56.6746323651
 10
206.8544377085
 20
56.6878059599
 10
206.8587189064
 20
56.6867910476
 10
206.8598838716
 20
56.6728982236
 10
206.8574090614
 20
56.6430467426
 10
206.847786409
 20
56.5781067669
 10
206.8072608971
 20
56.3672336667
 10
206.7963514488
 20
56.3151261804
 10
206.7963514488
 20
56.3151261804
  0
SPLINE
  5
292
330
1F
100
AcDbEntity
  8
0
  6
Continuous
 62
     7
370
    15
100
AcDbSpline
210
0.0
220
0.0
230
1.0
 70
     8
 71
     3
 72
     9
 73
     5
 74
     0
 42
0.000000001
 43
0.00000001
 40
0.0
 40
0.0
 40
0.0
 40
0.0
 40
0.7766522094856231
 40
1.0
 40
1.0
 40
1.0
 40
1.0
 10
206.7305674622301
 20
56.05265648850237
 30
0.0
 10
206.7273811522631
 20
56.16149227819727
 30
0.0
 10
206.7232785308735
 20
56.30162680477898
 30
0.0
 10
206.7710593596157
 20
56.45630499273311
 30
0.0
 10
206.7817311021443
 20
56.49085202425343
 30
0.0
  0
SPLINE
  5
293
330
1F
100
AcDbEntity
  8
0
  6
Continuous
 62
     7
370
    15
100
AcDbSpline
210
0.0
220
0.0
230
1.0
 70
     8
 71
     3
 72
     8
 73
     4
 74
     0
 42
0.000000001
 43
0.00000001
 40
0.0
 40
0.0
 40
0.0
 40
0.0
 40
1.0
 40
1.0
 40
1.0
 40
1.0
 10
206.7072663197122
 20
55.45421814202176
 30
0.0
 10
206.7358686152865
 20
55.45266472688822
 30
0.0
 10
206.7655649950241
 20
55.44628054892546
 30
0.0
 10
206.7964954700824
 20
55.43322119223735
 30
0.0
  0
SPLINE
  5
294
330
1F
100
AcDbEntity
  8
0
  6
Continuous
 62
     7
370
    15
100
AcDbSpline
210
0.0
220
0.0
230
1.0
 70
     8
 71
     3
 72
    10
 73
     6
 74
     0
 42
0.000000001
 43
0.00000001
 40
0.0
 40
0.0
 40
0.0
 40
0.0
 40
0.4999999999999989
 40
0.4999999999999989
 40
1.0
 40
1.0
 40
1.0
 40
1.0
 10
206.7963516423789
 20
56.31512615621612
 30
0.0
 10
206.7663631724701
 20
56.17333530004611
 30
0.0
 10
206.7459298732835
 20
56.03107748400281
 30
0.0
 10
206.7172968860577
 20
55.74426721583304
 30
0.0
 10
206.7094258264112
 20
55.59981068263752
 30
0.0
 10
206.707266319713
 20
55.45421814201805
 30
0.0
  0
ARC
  5
295
330
1F
100
AcDbEntity
  8
0
  6
Continuous
 62
     7
370
    15
100
AcDbCircle
 10
207.9266180727
 20
55.2861719463
 30
0.0
 40
1.230877198383927
100
AcDbArc
 50
172.1531384875
 51
234.5145852444
  0
SPLINE
  5
296
330
1F
100
AcDbEntity
  8
0
  6
Continuous
 62
     7
370
    15
100
AcDbSpline
210
0.0
220
0.0
230
1.0
 70
     8
 71
     3
 72
     8
 73
     4
 74
     0
 42
0.000000001
 43
0.00000001
 40
0.0
 40
0.0
 40
0.0
 40
0.0
 40
1.0
 40
1.0
 40
1.0
 40
1.0
 10
206.7072663197129
 20
43.19029937445571
 30
0.0
 10
206.735868615287
 20
43.15960197059758
 30
0.0
 10
206.7655649950244
 20
43.13254851874711
 30
0.0
 10
206.7964954700824
 20
43.11027721635205
 30
0.0
  0
ARC
  5
297
330
1F
100
AcDbEntity
  8
0
  6
Continuous
 62
     7
370
    15
100
AcDbCircle
 10
210.4397662097
 20
43.0828092034
 30
0.0
 40
3.734047488377311
100
AcDbArc
 50
122.5266350896
 51
178.3504233083
  0
LINE
  5
298
330
1F
100
AcDbEntity
  8
0
  6
Continuous
 62
     7
370
    15
100
AcDbLine
 10
208.4320001752
 20
46.2311399033
 30
0.0
 11
209.4337214459
 21
46.8094212838
 31
0.0
  0
SPLINE
  5
299
330
1F
100
AcDbEntity
  8
0
  6
Continuous
 62
     7
370
    15
100
AcDbSpline
210
0.0
220
0.0
230
1.0
 70
     8
 71
     3
 72
     9
 73
     5
 74
     0
 42
0.000000001
 43
0.00000001
 40
0.0
 40
0.0
 40
0.0
 40
0.0
 40
0.3901117718169397
 40
1.0
 40
1.0
 40
1.0
 40
1.0
 10
206.7410719056769
 20
44.25745024276784
 30
0.0
 10
206.7319943490345
 20
44.21066418939444
 30
0.0
 10
206.7087252315707
 20
44.09073432120437
 30
0.0
 10
206.7222927763711
 20
43.96987929476207
 30
0.0
 10
206.7305674622301
 20
43.89617123681816
 30
0.0
  0
ARC
  5
29A
330
1F
100
AcDbEntity
  8
0
  6
Continuous
 62
     7
370
    15
100
AcDbCircle
 10
209.2246811203
 20
43.770018537
 30
0.0
 40
2.530988818361922
100
AcDbArc
 50
122.9343808406
 51
168.8962913337
  0
LINE
  5
29B
330
1F
100
AcDbEntity
  8
0
  6
Continuous
 62
     7
370
    15
100
AcDbLine
 10
208.4320001752
 20
46.2311399033
 30
0.0
 11
207.8486377424
 21
45.8942617013
 31
0.0
  0
LINE
  5
29C
330
1F
100
AcDbEntity
  8
0
  6
Continuous
 62
     7
370
    15
100
AcDbLine
 10
206.7667459219
 20
43.0512626085
 30
0.0
 11
206.7072661819
 21
43.1902996127
 31
0.0
  0
LWPOLYLINE
  5
29D
330
1F
100
AcDbEntity
  8
0
  6
Continuous
 62
     7
370
    15
100
AcDbPolyline
 90
       26
 70
   128
 43
0.0
 10
265.7323983811
 20
39.2311874459
 10
265.3099020726
 20
39.5456239596
 10
265.0361354071
 20
39.910838213
 10
264.9282989086
 20
40.3038827858
 10
264.9931703171
 20
40.7000603367
 10
265.2266755058
 20
41.0744763827
 10
265.6141361557
 20
41.403608675
 10
266.1312127293
 20
41.6667730976
 10
266.7454129492
 20
41.8474354902
 10
267.41814407
 20
41.9342443315
 10
268.1071357247
 20
41.9217451137
 10
268.7690977494
 20
41.8107224594
 10
269.3624356498
 20
41.6081527668
 10
269.8498692212
 20
41.3267633556
 10
270.2007682414
 20
40.9842366766
 10
270.3930859575
 20
40.6020941339
 10
270.4147375839
 20
40.2043477178
 10
270.2643639669
 20
39.8159883083
 10
269.951413615
 20
39.4614180686
 10
269.4955500706
 20
39.1629161164
 10
268.9254170767
 20
38.9392383236
 10
268.2768365529
 20
38.8044401681
 10
267.5905625467
 20
38.7669907012
 10
266.9097156057
 20
38.8292433867
 10
266.2770774155
 20
38.9872855187
 10
265.7323983811
 20
39.2311874459
  0
LWPOLYLINE
  5
29E
330
1F
100
AcDbEntity
  8
0
  6
Continuous
 62
     7
370
    15
100
AcDbPolyline
 90
        6
 70
   128
 43
0.0
 10
265.5556216568
 20
38.9250007986
 10
265.1095993397
 20
39.2536540415
 10
264.8127808176
 20
39.634377601
 10
264.6824150175
 20
40.0450457934
 10
264.7260826923
 20
40.4617898097
 10
264.7265263043
 20
40.4631803277
  0
ARC
  5
29F
330
1F
100
AcDbEntity
  8
0
  6
Continuous
 62
     7
370
    15
100
AcDbCircle
 10
269.2267620608
 20
40.0365668259
 30
0.0
 40
1.454580371582335
100
AcDbArc
 50
4.4573454016
 51
66.8503358395
  0
ARC
  5
2A0
330
1F
100
AcDbEntity
  8
0
  6
Continuous
 62
     7
370
    15
100
AcDbCircle
 10
267.6475470453
 20
42.9325267823
 30
0.0
 40
4.520665475492486
100
AcDbArc
 50
242.4354767388
 51
276.0815381724
  0
LWPOLYLINE
  5
2A1
330
1F
100
AcDbEntity
  8
0
  6
Continuous
 62
     7
370
    15
100
AcDbPolyline
 90
       21
 70
   128
 43
0.0
 10
266.4395051135
 20
39.6393914737
 10
266.1176818211
 20
39.8951024208
 10
265.9484879899
 20
40.1957098356
 10
265.9484886484
 20
40.5117863061
 10
266.117681286
 20
40.8123936972
 10
266.4395052782
 20
41.0681056185
 10
266.8824593129
 20
41.2538906546
 10
267.4031830089
 20
41.3515634852
 10
267.9507028397
 20
41.3515638654
 10
268.4714265768
 20
41.2538903457
 10
268.9143789241
 20
41.0681057135
 10
269.2362048507
 20
40.8123932457
 10
269.4053960477
 20
40.5117873516
 10
269.4053980233
 20
40.1957093604
 10
269.2362027516
 20
39.89510349
 10
268.9143787594
 20
39.6393915687
 10
268.4714247247
 20
39.4536065326
 10
267.9507036629
 20
39.3559321813
 10
267.4031811979
 20
39.3559333218
 10
266.8824600949
 20
39.4536053208
 10
266.4395051135
 20
39.6393914737
  0
SPLINE
  5
2A2
330
1F
100
AcDbEntity
  8
0
  6
Continuous
 62
     7
370
    15
100
AcDbSpline
210
0.0
220
0.0
230
1.0
 70
     8
 71
     3
 72
     9
 73
     5
 74
     0
 42
0.000000001
 43
0.00000001
 40
0.0
 40
0.0
 40
0.0
 40
0.0
 40
0.631175782276032
 40
1.0
 40
1.0
 40
1.0
 40
1.0
 10
266.6164504251845
 20
39.54183013684298
 30
0.0
 10
266.4814829685268
 20
39.63476473366652
 30
0.0
 10
266.2676479950571
 20
39.78200516879289
 30
0.0
 10
266.0749725665465
 20
39.99992604398365
 30
0.0
 10
266.0039092023515
 20
40.0803005403016
 30
0.0
  0
SPLINE
  5
2A3
330
1F
100
AcDbEntity
  8
0
  6
Continuous
 62
     7
370
    15
100
AcDbSpline
210
0.0
220
0.0
230
1.0
 70
     8
 71
     3
 72
    10
 73
     6
 74
     0
 42
0.000000001
 43
0.00000001
 40
0.0
 40
0.0
 40
0.0
 40
0.0
 40
0.4391276015785162
 40
0.7513766454550955
 40
1.0
 40
1.0
 40
1.0
 40
1.0
 10
269.3499748352284
 20
40.59788232336762
 30
0.0
 10
269.2857961610483
 20
40.375725053243
 30
0.0
 10
269.17598216452
 20
39.99559913132496
 30
0.0
 10
269.0163591532406
 20
39.71549402560554
 30
0.0
 10
268.9369068733272
 20
39.65768611182295
 30
0.0
 10
268.901687289668
 20
39.63206103652183
 30
0.0
  0
SPLINE
  5
2A4
330
1F
100
AcDbEntity
  8
0
  6
Continuous
 62
     7
370
    15
100
AcDbSpline
210
0.0
220
0.0
230
1.0
 70
     8
 71
     3
 72
    11
 73
     7
 74
     0
 42
0.000000001
 43
0.00000001
 40
0.0
 40
0.0
 40
0.0
 40
0.0
 40
0.1843652223508131
 40
0.5174520667411692
 40
0.8663360088838029
 40
1.0
 40
1.0
 40
1.0
 40
1.0
 10
268.1252295643504
 20
41.30491271868041
 30
0.0
 10
268.1963002666174
 20
41.2257785649038
 30
0.0
 10
268.3957721697448
 20
41.00367522621877
 30
0.0
 10
268.7674060661281
 20
40.70955213549212
 30
0.0
 10
269.1134373829303
 20
40.60522538498065
 30
0.0
 10
269.2986669350207
 20
40.59947512429111
 30
0.0
 10
269.3499748352284
 20
40.59788232336762
 30
0.0
  0
SPLINE
  5
2A5
330
1F
100
AcDbEntity
  8
0
  6
Continuous
 62
     7
370
    15
100
AcDbSpline
210
0.0
220
0.0
230
1.0
 70
     8
 71
     3
 72
    10
 73
     6
 74
     0
 42
0.000000001
 43
0.00000001
 40
0.0
 40
0.0
 40
0.0
 40
0.0
 40
0.4391285807270807
 40
0.751376649579183
 40
1.0
 40
1.0
 40
1.0
 40
1.0
 10
266.4521967479119
 20
41.0461218271474
 30
0.0
 10
266.6917116613665
 20
40.99928136606702
 30
0.0
 10
267.1015367583752
 20
40.91913438803827
 30
0.0
 10
267.6972782365664
 20
41.07509660377297
 30
0.0
 10
267.9937911697936
 20
41.23432838063632
 30
0.0
 10
268.1252295643504
 20
41.30491271868041
 30
0.0
  0
SPLINE
  5
2A6
330
1F
100
AcDbEntity
  8
0
  6
Continuous
 62
     7
370
    15
100
AcDbSpline
210
0.0
220
0.0
230
1.0
 70
     8
 71
     3
 72
    10
 73
     6
 74
     0
 42
0.000000001
 43
0.00000001
 40
0.0
 40
0.0
 40
0.0
 40
0.0
 40
0.4391276311440557
 40
0.7513756681469642
 40
1.0
 40
1.0
 40
1.0
 40
1.0
 10
266.0039092023515
 20
40.0803005403016
 30
0.0
 10
266.0680871433874
 20
40.13468004692442
 30
0.0
 10
266.1778997352313
 20
40.22772688621296
 30
0.0
 10
266.337529617893
 20
40.63545165423729
 30
0.0
 10
266.4169785208809
 20
40.91999086544944
 30
0.0
 10
266.4521967479119
 20
41.0461218271474
 30
0.0
  0
LINE
  5
2A7
330
1F
100
AcDbEntity
  8
0
  6
Continuous
 62
     7
370
    15
100
AcDbLine
 10
266.4521967479
 20
39.6690003379
 30
0.0
 11
266.4521967479
 21
41.0461218271
 31
0.0
  0
LINE
  5
2A8
330
1F
100
AcDbEntity
  8
0
  6
Continuous
 62
     7
370
    15
100
AcDbLine
 10
268.1252295644
 20
39.3772031684
 30
0.0
 11
268.1252295644
 21
41.3049127187
 31
0.0
  0
LINE
  5
2A9
330
1F
100
AcDbEntity
  8
0
  6
Continuous
 62
     7
370
     0
100
AcDbLine
 10
273.3514751643
 20
36.8329469885
 30
0.0
 11
272.5424045039
 21
36.3317904076
 31
0.0
  0
LWPOLYLINE
  5
2AA
330
1F
100
AcDbEntity
  8
0
  6
Continuous
 62
     7
370
     0
100
AcDbPolyline
 90
       48
 70
   128
 43
0.0
 10
262.2646834432
 20
18.2743965162
 10
262.249899119
 20
17.6044532905
 10
262.3107143872
 20
16.2995386053
 10
262.492495062
 20
15.0791374495
 10
262.7932483875
 20
13.9566199935
 10
263.2096803242
 20
12.9442850373
 10
263.7372278172
 20
12.0532247406
 10
264.3701108213
 20
11.293200187
 10
265.10139618
 20
10.6725402363
 10
265.9230707237
 20
10.1980434183
 10
266.826132149
 20
9.8749083416
 10
267.8006871417
 20
9.7066770299
 10
268.8360570733
 20
9.6951909956
 10
269.9208995025
 20
9.8405769693
 10
271.043327701
 20
10.1412421364
 10
272.1910444202
 20
10.5938912816
 10
273.3514751643
 20
11.1935664638
 10
274.5119059084
 20
11.9336961002
 10
275.6596226276
 20
12.8061724729
 10
276.7820508261
 20
13.8014353192
 10
277.8668932553
 20
14.9085817533
 10
278.9022631869
 20
16.1154804656
 10
279.8768181796
 20
17.4089090214
 10
280.7798796048
 20
18.7746966262
 10
281.6015541485
 20
20.197878679
 10
282.3328395072
 20
21.6628627328
 10
282.9657225114
 20
23.1535984494
 10
283.4932700044
 20
24.6537521166
 10
283.9097019411
 20
26.1468891528
 10
284.2104552666
 20
27.6166490072
 10
284.3922359413
 20
29.0469296626
 10
284.4530512096
 20
30.4220601619
 10
284.3922359413
 20
31.7269748471
 10
284.2104552666
 20
32.9473760028
 10
283.9097019411
 20
34.0698934589
 10
283.4932700044
 20
35.0822284151
 10
282.9657225114
 20
35.9732887118
 10
282.3328395072
 20
36.7333132654
 10
281.6015541485
 20
37.353973216
 10
280.7798796048
 20
37.828470034
 10
279.8768181796
 20
38.1516051107
 10
278.9022631869
 20
38.3198364224
 10
277.8668932553
 20
38.3313224568
 10
276.7820508261
 20
38.185936483
 10
275.6596226276
 20
37.885271316
 10
274.5119059084
 20
37.4326221707
 10
273.3514751643
 20
36.8329469885
 10
273.3514751643
 20
36.8329469885
  0
LWPOLYLINE
  5
2AB
330
1F
100
AcDbEntity
  8
0
  6
Continuous
 62
     7
370
     0
100
AcDbPolyline
 90
       20
 70
   128
 43
0.0
 10
273.1393421732
 20
37.200372106
 10
271.9760554039
 20
36.4595762394
 10
270.8250997159
 20
35.5881441436
 10
269.6986756339
 20
34.5953144881
 10
268.6087235579
 20
33.4916107687
 10
267.5667971571
 20
32.288731718
 10
266.5839405524
 20
30.9994279314
 10
265.6705735641
 20
29.637367942
 10
264.8363767966
 20
28.2169889897
 10
264.090193844
 20
26.7533477903
 10
263.4399344845
 20
25.2619589457
 10
262.8924910448
 20
23.7586318326
 10
262.4536666192
 20
22.2593014064
 10
262.1281125075
 20
20.7798614754
 10
261.9192808001
 20
19.3359949321
 10
261.8293842064
 20
17.9430062885
 10
261.8593769574
 20
16.6156625275
 10
262.0089390006
 20
15.368032599
 10
262.2764865364
 20
14.2133426936
 10
262.3278431299
 20
14.0450972472
  0
ARC
  5
2AC
330
1F
100
AcDbEntity
  8
0
  6
Continuous
 62
     7
370
     0
100
AcDbCircle
 10
279.1862730337
 20
27.0151612447
 30
0.0
 40
11.84499443305008
100
AcDbArc
 50
103.3823256692
 51
120.6974845179
  0
LWPOLYLINE
  5
2AD
330
1F
100
AcDbEntity
  8
0
  6
Continuous
 62
     7
370
     0
100
AcDbPolyline
 90
       24
 70
   128
 43
0.0
 10
235.503582811
 20
32.7998495005
 10
235.5635472397
 20
34.1777868531
 10
235.7428043719
 20
35.61035094
 10
236.0394529895
 20
37.0823554957
 10
236.4503492011
 20
38.5781972573
 10
236.9711380518
 20
40.0820204119
 10
237.596298963
 20
41.5778846544
 10
238.3192043428
 20
43.0499315332
 10
239.1321913674
 20
44.4825585898
 10
240.0266423232
 20
45.860578668
 10
240.993076145
 20
47.1693845454
 10
242.0212478559
 20
48.3951029182
 10
243.1002592028
 20
49.5247411599
 10
244.2186717615
 20
50.5463248592
 10
245.3646302492
 20
51.4490237605
 10
246.5259874625
 20
52.2232702775
 10
247.6904325498
 20
52.8608555959
 10
248.8456221028
 20
53.3550236027
 10
249.9793107539
 20
53.700534111
 10
251.0794814651
 20
53.8937259066
 10
252.1344717425
 20
53.9325493055
 10
253.1330985126
 20
53.8165948973
 10
254.0647763309
 20
53.5470903017
 10
254.816641864
 20
53.1878964747
  0
LWPOLYLINE
  5
2AE
330
1F
100
AcDbEntity
  8
0
  6
Continuous
 62
     7
370
     0
100
AcDbPolyline
 90
        9
 70
   128
 43
0.0
 10
238.8179418307
 20
25.4743329358
 10
238.3192043428
 20
25.8006148922
 10
237.596298963
 20
26.4380129854
 10
236.9711380518
 20
27.2120818036
 10
236.4503492011
 20
28.11461495
 10
236.0394529895
 20
29.1360460439
 10
235.7428043719
 20
30.2655473961
 10
235.5635472397
 20
31.4911456036
 10
235.503582811
 20
32.7998495005
  0
LWPOLYLINE
  5
2AF
330
1F
100
AcDbEntity
  8
0
  6
Continuous
 62
     7
370
     0
100
AcDbPolyline
 90
       17
 70
   128
 43
0.0
 10
267.3415057882
 20
17.078472097
 10
267.8132054142
 20
16.4260723493
 10
268.3909139131
 20
15.9189002302
 10
269.0635726763
 20
15.5666623749
 10
269.8183068293
 20
15.3761020656
 10
270.6406693873
 20
15.3508656514
 10
271.5149199843
 20
15.4914372181
 10
272.4243242632
 20
15.79512663
 10
273.3514751643
 20
16.2561192627
 10
274.2786260653
 20
16.8655922749
 10
275.1880303443
 20
17.6118786941
 10
276.0622809413
 20
18.4806953812
 10
276.8846434993
 20
19.4554113947
 10
277.6393776523
 20
20.5173692089
 10
278.3120364155
 20
21.6462423409
 10
278.8897449144
 20
22.8204224952
 10
279.3614445404
 20
24.0174350386
  0
LWPOLYLINE
  5
2B0
330
1F
100
AcDbEntity
  8
0
  6
Continuous
 62
     7
370
     0
100
AcDbPolyline
 90
       17
 70
   128
 43
0.0
 10
279.3610698285
 20
30.9486908258
 10
278.8893300313
 20
31.6008997011
 10
278.3116126421
 20
32.1079047093
 10
277.6389742938
 20
32.4600041584
 10
276.8842872267
 20
32.6504604701
 10
276.0619933219
 20
32.6756277707
 10
275.1878288297
 20
32.5350260626
 10
274.2785223446
 20
32.2313436758
 10
273.3514751643
 20
31.7703941897
 10
272.424427984
 20
31.1609977844
 10
271.5151214989
 20
30.4148172504
 10
270.6409570066
 20
29.5461301191
 10
269.8186631018
 20
28.5715624845
 10
269.0639760348
 20
27.5097630323
 10
268.3913376865
 20
26.381051877
 10
267.8136202972
 20
25.2070285689
 10
267.3418805
 20
24.0101605173
  0
ARC
  5
2B1
330
1F
100
AcDbEntity
  8
0
  6
Continuous
 62
     7
370
     0
100
AcDbCircle
 10
275.9025671092
 20
29.2721624427
 30
0.0
 40
3.170105019452656
100
AcDbArc
 50
32.0371565525
 51
59.8154342442
  0
LINE
  5
2B2
330
1F
100
AcDbEntity
  8
0
  6
Continuous
 62
     7
370
     0
100
AcDbLine
 10
265.0783253903
 20
17.6027942472
 30
0.0
 11
265.1667139171
 21
17.2729310868
 31
0.0
  0
LWPOLYLINE
  5
2B3
330
1F
100
AcDbEntity
  8
0
  6
Continuous
 62
     7
370
     0
100
AcDbPolyline
 90
       14
 70
   128
 43
0.0
 10
268.4982866317
 20
16.4229192561
 10
269.1776747319
 20
16.1345039484
 10
269.942483628
 20
16.0070282236
 10
270.7697383486
 20
16.0473511414
 10
271.6425315866
 20
16.2546485206
 10
272.5430255937
 20
16.624684498
 10
273.4528165207
 20
17.1498956207
 10
274.3533105278
 20
17.8195478935
 10
275.2261037658
 20
18.6199561373
 10
276.0533584864
 20
19.5347611894
 10
276.8181673825
 20
20.5452664699
 10
277.5049002296
 20
21.6308209842
 10
278.0995214686
 20
22.7692372631
 10
278.5898786483
 20
23.9372498948
  0
LINE
  5
2B4
330
1F
100
AcDbEntity
  8
0
  6
Continuous
 62
     7
370
     0
100
AcDbLine
 10
264.4746718841
 20
17.9512759987
 30
0.0
 11
265.0783253903
 21
17.6027942472
 31
0.0
  0
LWPOLYLINE
  5
2B5
330
1F
100
AcDbEntity
  8
0
  6
Continuous
 62
     7
370
     0
100
AcDbPolyline
 90
       25
 70
   128
 43
0.0
 10
228.5211361502
 20
34.8927590149
 10
228.9119520226
 20
36.7561050982
 10
229.4216825939
 20
38.643906396
 10
230.0466531858
 20
40.5425509673
 10
230.7823540854
 20
42.4383448196
 10
231.6234840095
 20
44.3176221716
 10
232.5639764461
 20
46.1668283416
 10
233.5970483866
 20
47.9726315305
 10
234.7152510343
 20
49.7220076093
 10
235.9105224872
 20
51.4023450573
 10
237.1742423977
 20
53.0015267072
 10
238.497299144
 20
54.5080187128
 10
239.8701523918
 20
55.9109614186
 10
241.2829025708
 20
57.2002353233
 10
242.725362656
 20
58.3665466249
 10
244.1871311839
 20
59.4014830609
 10
245.6576676351
 20
60.2975832812
 10
247.1263683523
 20
61.0483852373
 10
248.582642561
 20
61.6484731102
 10
250.0159897073
 20
62.0935234773
 10
251.4160740998
 20
62.3803240676
 10
252.7727995926
 20
62.5068092704
 10
254.0763831778
 20
62.4720645966
 10
255.3174254496
 20
62.2763415006
 10
256.4869781053
 20
61.9210537622
  0
LWPOLYLINE
  5
2B6
330
1F
100
AcDbEntity
  8
0
  6
Continuous
 62
     7
370
     0
100
AcDbPolyline
 90
       25
 70
   128
 43
0.0
 10
227.8049604366
 20
34.8875236986
 10
228.1944328783
 20
36.7759450311
 10
228.7040264724
 20
38.6898488503
 10
229.3301086874
 20
40.6155954543
 10
230.0682198599
 20
42.5394608075
 10
230.9130982193
 20
44.4477350183
 10
231.8587220347
 20
46.3268162519
 10
232.8983530785
 20
48.1633141496
 10
234.0245820667
 20
49.9441406995
 10
235.2293826586
 20
51.6566045291
 10
236.5041680924
 20
53.288499874
 10
237.8398544053
 20
54.8281993486
 10
239.2269216778
 20
56.2647273247
 10
240.6554851568
 20
57.5878481389
 10
242.1153637442
 20
58.7881314858
 10
243.5961529308
 20
59.8570234192
 10
245.0872999524
 20
60.7869049487
 10
246.5781777939
 20
61.5711514909
 10
248.0581612512
 20
62.2041706956
 10
249.5167033226
 20
62.6814556711
 10
250.9434090476
 20
62.9996002339
 10
252.3281108282
 20
63.1563408696
 10
253.6609397164
 20
63.1505583424
 10
254.9323981834
 20
62.982295369
 10
256.1334246567
 20
62.6527482474
  0
LWPOLYLINE
  5
2B7
330
1F
100
AcDbEntity
  8
0
  6
Continuous
 62
     7
370
     0
100
AcDbPolyline
 90
       18
 70
   128
 43
0.0
 10
246.6814703353
 20
20.9348148978
 10
245.5840598722
 20
20.2478419066
 10
244.1182984655
 20
19.4556748067
 10
242.6617434699
 20
18.8117803527
 10
241.2248324453
 20
18.3207741216
 10
239.8178619822
 20
17.9861743319
 10
238.4509145615
 20
17.810379393
 10
237.1337847158
 20
17.7946480925
 10
235.8759113635
 20
17.9390939946
 10
234.6863080032
 20
18.2426816436
 10
233.573498835
 20
18.7032353159
 10
232.5454581745
 20
19.3174557553
 10
231.609553159
 20
20.0809395708
 10
230.7724904058
 20
20.9882176443
 10
230.0402679383
 20
22.0327882158
 10
229.418133039
 20
23.2071655566
 10
228.9105427374
 20
24.5029343465
 10
228.5211361502
 20
25.9108101328
  0
ARC
  5
2B8
330
1F
100
AcDbEntity
  8
0
  6
Continuous
 62
     7
370
     0
100
AcDbCircle
 10
251.376379053
 20
52.2752396113
 30
0.0
 40
11.12401072022583
100
AcDbArc
 50
9.0277736643
 51
48.7055209086
  0
LWPOLYLINE
  5
2B9
330
1F
100
AcDbEntity
  8
0
  6
Continuous
 62
     7
370
     0
100
AcDbPolyline
 90
       31
 70
   128
 43
0.0
 10
232.6751571983
 20
32.7998498806
 10
232.734575035
 20
34.2526870808
 10
232.9122766851
 20
35.7605634709
 10
233.206599982
 20
37.3093989514
 10
233.6148001124
 20
38.8847340532
 10
234.1330627864
 20
40.4718589302
 10
234.7565523116
 20
42.0559560364
 10
235.4794445206
 20
43.6222341547
 10
236.2949906491
 20
45.1560702169
 10
237.1955772641
 20
46.6431427595
 10
238.1727947522
 20
48.0695672798
 10
239.2175196378
 20
49.4220251262
 10
240.3199975597
 20
50.6878904882
 10
241.4699344794
 20
51.8553423658
 10
242.6565943104
 20
52.9134832874
 10
243.868897206
 20
53.8524295109
 10
245.095524453
 20
54.663418726
 10
246.3250232422
 20
55.3388750997
 10
247.5459140521
 20
55.8724956024
 10
248.7467976212
 20
56.2592950319
 10
249.9164622295
 20
56.495663382
 10
251.0439859161
 20
56.5793944342
 10
252.1188425057
 20
56.5097051388
 10
253.1309957799
 20
56.2872458729
 10
254.0709956252
 20
55.9140951078
 10
254.9300649602
 20
55.3937358268
 10
255.70018403
 20
54.7310266193
 10
256.3741615285
 20
53.9321552861
 10
256.9457044045
 20
53.0045802773
 10
257.4094777888
 20
51.9569626251
 10
257.5258689451
 20
51.6238925318
  0
LWPOLYLINE
  5
2BA
330
1F
100
AcDbEntity
  8
0
  6
Continuous
 62
     7
370
     0
100
AcDbPolyline
 90
       15
 70
   128
 43
0.0
 10
241.5271695704
 20
23.9103286126
 10
241.4699344794
 20
23.8985911053
 10
240.3199975597
 20
23.7383540761
 10
239.2175196378
 20
23.7313255238
 10
238.1727947522
 20
23.8775696922
 10
237.1955772641
 20
24.1757229167
 10
236.2949906491
 20
24.6230002863
 10
235.4794445206
 20
25.2152268313
 10
234.7565523116
 20
25.9468713708
 10
234.1330627864
 20
26.8111027939
 10
233.6148001124
 20
27.7998543242
 10
233.206599982
 20
28.9038915874
 10
232.9122766851
 20
30.1129086224
 10
232.734575035
 20
31.4156150546
 10
232.6751571983
 20
32.7998498806
  0
LWPOLYLINE
  5
2BB
330
1F
100
AcDbEntity
  8
0
  6
Continuous
 62
     7
370
     0
100
AcDbPolyline
 90
       22
 70
   128
 43
0.0
 10
217.6668149004
 20
35.7491237485
 10
217.727192895
 20
37.4697144242
 10
217.9079159473
 20
39.2482635136
 10
218.2077473105
 20
41.0726204565
 10
218.6246402284
 20
42.9303237397
 10
219.1557458373
 20
44.8086826455
 10
219.7974381914
 20
46.6948685052
 10
220.5453327011
 20
48.5759941655
 10
221.3943190612
 20
50.439209804
 10
222.3386007628
 20
52.2717888578
 10
223.3717253869
 20
54.0612131921
 10
224.486635312
 20
55.7952586479
 10
225.675715788
 20
57.4620783082
 10
226.9308436683
 20
59.050289186
 10
228.2434460205
 20
60.5490410406
 10
229.6045547856
 20
61.9480935598
 10
231.0048732907
 20
63.23789278
 10
232.4348358475
 20
64.4096267844
 10
233.8846742654
 20
65.4552929978
 10
235.3444846935
 20
66.3677458997
 10
236.8042951216
 20
67.1407542421
 10
237.1491618741
 20
67.3029104608
  0
LWPOLYLINE
  5
2BC
330
1F
100
AcDbEntity
  8
0
  6
Continuous
 62
     7
370
     0
100
AcDbPolyline
 90
        3
 70
   128
 43
0.0
 10
217.7709874219
 20
33.5963925794
 10
217.727192895
 20
34.0982440215
 10
217.6668149004
 20
35.7491237485
  0
LWPOLYLINE
  5
2BD
330
1F
100
AcDbEntity
  8
0
  6
Continuous
 62
     7
370
     0
100
AcDbPolyline
 90
       22
 70
   128
 43
0.0
 10
225.489828121
 20
37.575918106
 10
225.8841408648
 20
39.384214713
 10
226.394786813
 20
41.2146199882
 10
227.0179780176
 20
43.0535539407
 10
227.7490901791
 20
44.8873720188
 10
228.5826982079
 20
46.7024677691
 10
229.5126183709
 20
48.4853754948
 10
230.5319510974
 20
50.2228664508
 10
231.6331323451
 20
51.9020476984
 10
232.8079928695
 20
53.5104617209
 10
234.0478148584
 20
55.0361738712
 10
235.343399762
 20
56.4678647619
 10
236.6851351354
 20
57.7949129591
 10
238.0630654321
 20
59.0074708322
 10
239.4669674071
 20
60.0965415435
 10
240.8864246973
 20
61.0540464375
 10
242.3109054473
 20
61.8728789785
 10
243.729840594
 20
62.5469651529
 10
245.132702398
 20
63.0713042416
 10
246.5090824809
 20
63.4420047444
 10
247.8487681346
 20
63.6563162647
 10
247.9686357474
 20
63.6680020771
  0
LWPOLYLINE
  5
2BE
330
1F
100
AcDbEntity
  8
0
  6
Continuous
 62
     7
370
     0
100
AcDbPolyline
 90
       18
 70
   128
 43
0.0
 10
226.0638227582
 20
37.5807147065
 10
226.4595895682
 20
39.3695174713
 10
226.9708044989
 20
41.1795635806
 10
227.5936321869
 20
42.9972722875
 10
228.3233982835
 20
44.8090043681
 10
229.1546276494
 20
46.6011670622
 10
230.0810851854
 20
48.3603136893
 10
231.0958179785
 20
50.0732447872
 10
232.1912125957
 20
51.7271081065
 10
233.3590504014
 20
53.3094936641
 10
234.5905688026
 20
54.808530696
 10
235.8765277611
 20
56.2129701615
 10
237.2072792707
 20
57.5122750415
 10
238.5728374917
 20
58.6966973287
 10
239.962957118
 20
59.7573491241
 10
241.367207957
 20
60.6862730669
 10
242.7750536258
 20
61.4764968914
 10
243.894773066
 20
62.0039136203
  0
LINE
  5
2BF
330
1F
100
AcDbEntity
  8
0
  6
Continuous
 62
     7
370
     0
100
AcDbLine
 10
281.5362364115
 20
26.7228552755
 30
0.0
 11
281.2710708312
 21
26.9506672152
 31
0.0
  0
LINE
  5
2C0
330
1F
100
AcDbEntity
  8
0
  6
Continuous
 62
     7
370
     0
100
AcDbLine
 10
275.5788597169
 20
30.236710746
 30
0.0
 11
281.2710708312
 21
26.9506672152
 31
0.0
  0
LINE
  5
2C1
330
1F
100
AcDbEntity
  8
0
  6
Continuous
 62
     7
370
     0
100
AcDbLine
 10
219.2436638546
 20
35.2511816708
 30
0.0
 11
221.3968027824
 21
36.4941623162
 31
0.0
  0
LWPOLYLINE
  5
2C2
330
1F
100
AcDbEntity
  8
0
  6
Continuous
 62
     7
370
     0
100
AcDbPolyline
 90
       21
 70
   128
 43
0.0
 10
206.7964950115
 20
55.4332208227
 10
207.3766470398
 20
57.0332643394
 10
208.0617539405
 20
58.6218614065
 10
208.8451709995
 20
60.1836033879
 10
209.7192992718
 20
61.7033414351
 10
210.6756593383
 20
63.1663347706
 10
211.7049762581
 20
64.5583925062
 10
212.7972641915
 20
65.8660122296
 10
213.9419294624
 20
67.076510984
 10
215.1278690103
 20
68.1781467433
 10
216.3435790505
 20
69.1602343723
 10
217.5772680967
 20
70.0132458546
 10
218.8169694073
 20
70.7289101878
 10
220.0506584534
 20
71.3002857593
 10
221.2663684937
 20
71.7218270657
 10
222.4523080416
 20
71.9894479629
 10
223.5969733125
 20
72.1005515992
 10
224.6892612459
 20
72.05406068
 10
225.7185781657
 20
71.8504269636
 10
226.6749382322
 20
71.4916234575
 10
226.6982586103
 20
71.4804873321
  0
ARC
  5
2C3
330
1F
100
AcDbEntity
  8
0
  6
Continuous
 62
     7
370
     0
100
AcDbCircle
 10
212.6687899818
 20
46.085456746
 30
0.0
 40
6.582973660495577
100
AcDbArc
 50
206.868908893
 51
235.9973871746
  0
ARC
  5
2C4
330
1F
100
AcDbEntity
  8
0
  6
Continuous
 62
     7
370
     0
100
AcDbCircle
 10
240.1016623624
 20
28.3807896685
 30
0.0
 40
12.54334751228062
100
AcDbArc
 50
191.381036103
 51
215.0700815525
  0
LINE
  5
2C5
330
1F
100
AcDbEntity
  8
0
  6
Continuous
 62
     7
370
     0
100
AcDbLine
 10
223.2087662641
 20
28.5589012347
 30
0.0
 11
224.9323366093
 21
29.5538972158
 31
0.0
  0
LINE
  5
2C6
330
1F
100
AcDbEntity
  8
0
  6
Continuous
 62
     7
370
     0
100
AcDbLine
 10
219.2436638546
 20
34.4346408201
 30
0.0
 11
221.3968027824
 21
35.6776214655
 31
0.0
  0
LINE
  5
2C7
330
1F
100
AcDbEntity
  8
0
  6
Continuous
 62
     7
370
     0
100
AcDbLine
 10
226.9148209717
 20
27.8846373209
 30
0.0
 11
226.8487110057
 21
28.1456594838
 31
0.0
  0
LINE
  5
2C8
330
1F
100
AcDbEntity
  8
0
  6
Continuous
 62
     7
370
     0
100
AcDbLine
 10
226.4045879309
 20
27.4249563349
 30
0.0
 11
226.0638227582
 21
28.5987658244
 31
0.0
  0
LWPOLYLINE
  5
2C9
330
1F
100
AcDbEntity
  8
0
  6
Continuous
 62
     7
370
     0
100
AcDbPolyline
 90
        3
 70
   128
 43
0.0
 10
226.3178358873
 20
26.1636536517
 10
225.8871411936
 20
27.2323425279
 10
225.489828121
 20
28.5939692239
  0
LINE
  5
2CA
330
1F
100
AcDbEntity
  8
0
  6
Continuous
 62
     7
370
     0
100
AcDbLine
 10
254.1213262063
 20
63.8138036344
 30
0.0
 11
254.0209574378
 21
63.7558619777
 31
0.0
  0
ARC
  5
2CB
330
1F
100
AcDbEntity
  8
0
  6
Continuous
 62
     7
370
     0
100
AcDbCircle
 10
212.7611730571
 20
53.117385124
 30
0.0
 40
1.982758115011217
100
AcDbArc
 50
160.3181851691
 51
206.3321513809
  0
ARC
  5
2CC
330
1F
100
AcDbEntity
  8
0
  6
Continuous
 62
     7
370
     0
100
AcDbCircle
 10
210.5090620901
 20
53.0577172799
 30
0.0
 40
0.8231407192547966
100
AcDbArc
 50
40.3516534992
 51
62.0985447238
  0
LINE
  5
2CD
330
1F
100
AcDbEntity
  8
0
  6
Continuous
 62
     7
370
     0
100
AcDbLine
 10
210.894252651
 20
53.785170973
 30
0.0
 11
211.0420550633
 21
54.3394258057
 31
0.0
  0
LINE
  5
2CE
330
1F
100
AcDbEntity
  8
0
  6
Continuous
 62
     7
370
     0
100
AcDbLine
 10
210.894252651
 20
53.785170973
 30
0.0
 11
209.6410332327
 21
54.5086391437
 31
0.0
  0
LINE
  5
2CF
330
1F
100
AcDbEntity
  8
0
  6
Continuous
 62
     7
370
     0
100
AcDbLine
 10
206.7963514488
 20
56.3151261804
 30
0.0
 11
206.7817311021
 21
56.4908520243
 31
0.0
  0
ARC
  5
2D0
330
1F
100
AcDbEntity
  8
0
  6
Continuous
 62
     7
370
     0
100
AcDbCircle
 10
210.6126036103
 20
39.756274225
 30
0.0
 40
0.5806338492596468
100
AcDbArc
 50
25.5709532967
 51
60.9828307538
  0
ARC
  5
2D1
330
1F
100
AcDbEntity
  8
0
  6
Continuous
 62
     7
370
     0
100
AcDbCircle
 10
212.8497104614
 20
40.9100158663
 30
0.0
 40
2.059398257777077
100
AcDbArc
 50
172.8727688225
 51
198.2811498095
  0
LINE
  5
2D2
330
1F
100
AcDbEntity
  8
0
  6
Continuous
 62
     7
370
     0
100
AcDbLine
 10
210.0490680684
 20
45.297626479
 30
0.0
 11
208.4320001752
 21
46.2311399033
 31
0.0
  0
LINE
  5
2D3
330
1F
100
AcDbEntity
  8
0
  6
Continuous
 62
     7
370
     0
100
AcDbLine
 10
210.894252651
 20
40.2640236561
 30
0.0
 11
209.6410332327
 21
40.9874918268
 31
0.0
  0
LINE
  5
2D4
330
1F
100
AcDbEntity
  8
0
  6
Continuous
 62
     7
370
     0
100
AcDbLine
 10
210.894252651
 20
40.2640236561
 30
0.0
 11
211.0420550633
 21
39.8804178562
 31
0.0
  0
OLE2FRAME
  5
2D5
330
1F
100
AcDbEntity
  8
0
100
AcDbOle2Frame
 70
     2
  3
Paintbrush-Bild
 10
13.8511154363
 20
38.264191557
 30
0.0
 11
51.6290888628
 21
31.9806341108
 31
0.0
 71
     2
 72
     0
 73
     1
 90
    12928
310
80552BED0767C5B32B40DDAF6807D121434000000000000000006FFBDDFB85D0
310
4940DDAF6807D121434000000000000000006FFBDDFB85D04940416F4BD60AFB
310
3F4000000000000000002BED0767C5B32B40416F4BD60AFB3F40000000000000
310
0000000000000100000000010000010000000100000000000100000000320000
310
D0CF11E0A1B11AE1000000000000000000000000000000003E000300FEFF0900
310
0600000000000000000000000100000001000000000000000010000002000000
310
01000000FEFFFFFF0000000000000000FFFFFFFFFFFFFFFFFFFFFFFFFFFFFFFF
310
FFFFFFFFFFFFFFFFFFFFFFFFFFFFFFFFFFFFFFFFFFFFFFFFFFFFFFFFFFFFFFFF
310
FFFFFFFFFFFFFFFFFFFFFFFFFFFFFFFFFFFFFFFFFFFFFFFFFFFFFFFFFFFFFFFF
310
FFFFFFFFFFFFFFFFFFFFFFFFFFFFFFFFFFFFFFFFFFFFFFFFFFFFFFFFFFFFFFFF
310
FFFFFFFFFFFFFFFFFFFFFFFFFFFFFFFFFFFFFFFFFFFFFFFFFFFFFFFFFFFFFFFF
310
FFFFFFFFFFFFFFFFFFFFFFFFFFFFFFFFFFFFFFFFFFFFFFFFFFFFFFFFFFFFFFFF
310
FFFFFFFFFFFFFFFFFFFFFFFFFFFFFFFFFFFFFFFFFFFFFFFFFFFFFFFFFFFFFFFF
310
FFFFFFFFFFFFFFFFFFFFFFFFFFFFFFFFFFFFFFFFFFFFFFFFFFFFFFFFFFFFFFFF
310
FFFFFFFFFFFFFFFFFFFFFFFFFFFFFFFFFFFFFFFFFFFFFFFFFFFFFFFFFFFFFFFF
310
FFFFFFFFFFFFFFFFFFFFFFFFFFFFFFFFFFFFFFFFFFFFFFFFFFFFFFFFFFFFFFFF
310
FFFFFFFFFFFFFFFFFFFFFFFFFFFFFFFFFFFFFFFFFFFFFFFFFFFFFFFFFFFFFFFF
310
FFFFFFFFFFFFFFFFFFFFFFFFFFFFFFFFFFFFFFFFFFFFFFFFFFFFFFFFFFFFFFFF
310
FFFFFFFFFFFFFFFFFFFFFFFFFFFFFFFFFFFFFFFFFFFFFFFFFFFFFFFFFFFFFFFF
310
FFFFFFFFFFFFFFFFFFFFFFFFFFFFFFFFFFFFFFFFFFFFFFFFFFFFFFFFFFFFFFFF
310
FDFFFFFFFEFFFFFFFEFFFFFFFEFFFFFF05000000060000000700000008000000
310
090000000A0000000B0000000C0000000D0000000E0000000F00000010000000
310
11000000120000001300000014000000150000001600000017000000FEFFFFFF
310
FFFFFFFFFFFFFFFFFFFFFFFFFFFFFFFFFFFFFFFFFFFFFFFFFFFFFFFFFFFFFFFF
310
FFFFFFFFFFFFFFFFFFFFFFFFFFFFFFFFFFFFFFFFFFFFFFFFFFFFFFFFFFFFFFFF
310
FFFFFFFFFFFFFFFFFFFFFFFFFFFFFFFFFFFFFFFFFFFFFFFFFFFFFFFFFFFFFFFF
310
FFFFFFFFFFFFFFFFFFFFFFFFFFFFFFFFFFFFFFFFFFFFFFFFFFFFFFFFFFFFFFFF
310
FFFFFFFFFFFFFFFFFFFFFFFFFFFFFFFFFFFFFFFFFFFFFFFFFFFFFFFFFFFFFFFF
310
FFFFFFFFFFFFFFFFFFFFFFFFFFFFFFFFFFFFFFFFFFFFFFFFFFFFFFFFFFFFFFFF
310
FFFFFFFFFFFFFFFFFFFFFFFFFFFFFFFFFFFFFFFFFFFFFFFFFFFFFFFFFFFFFFFF
310
FFFFFFFFFFFFFFFFFFFFFFFFFFFFFFFFFFFFFFFFFFFFFFFFFFFFFFFFFFFFFFFF
310
FFFFFFFFFFFFFFFFFFFFFFFFFFFFFFFFFFFFFFFFFFFFFFFFFFFFFFFFFFFFFFFF
310
FFFFFFFFFFFFFFFFFFFFFFFFFFFFFFFFFFFFFFFFFFFFFFFFFFFFFFFFFFFFFFFF
310
FFFFFFFFFFFFFFFFFFFFFFFFFFFFFFFFFFFFFFFFFFFFFFFFFFFFFFFFFFFFFFFF
310
FFFFFFFFFFFFFFFFFFFFFFFFFFFFFFFFFFFFFFFFFFFFFFFFFFFFFFFFFFFFFFFF
310
FFFFFFFFFFFFFFFFFFFFFFFFFFFFFFFFFFFFFFFFFFFFFFFFFFFFFFFFFFFFFFFF
310
52006F006F007400200045006E00740072007900000000000000000000000000
310
0000000000000000000000000000000000000000000000000000000000000000
310
16000500FFFFFFFFFFFFFFFF020000000A00030000000000C000000000000046
310
00000000000000000000000000AE73026F20D20103000000C000000000000000
310
01004F006C006500000000000000000000000000000000000000000000000000
310
0000000000000000000000000000000000000000000000000000000000000000
310
0A000200FFFFFFFFFFFFFFFFFFFFFFFF00000000000000000000000000000000
310
0000000000000000000000000000000000000000000000001400000000000000
310
010043006F006D0070004F0062006A0000000000000000000000000000000000
310
0000000000000000000000000000000000000000000000000000000000000000
310
120002010100000003000000FFFFFFFF00000000000000000000000000000000
310
0000000000000000000000000000000000000000010000004D00000000000000
310
01004F006C006500310030004E00610074006900760065000000000000000000
310
0000000000000000000000000000000000000000000000000000000000000000
310
1A000200FFFFFFFFFFFFFFFFFFFFFFFF00000000000000000000000000000000
310
0000000000000000000000000000000000000000040000002426000000000000
310
FEFFFFFF02000000FEFFFFFFFFFFFFFFFFFFFFFFFFFFFFFFFFFFFFFFFFFFFFFF
310
FFFFFFFFFFFFFFFFFFFFFFFFFFFFFFFFFFFFFFFFFFFFFFFFFFFFFFFFFFFFFFFF
310
FFFFFFFFFFFFFFFFFFFFFFFFFFFFFFFFFFFFFFFFFFFFFFFFFFFFFFFFFFFFFFFF
310
FFFFFFFFFFFFFFFFFFFFFFFFFFFFFFFFFFFFFFFFFFFFFFFFFFFFFFFFFFFFFFFF
310
FFFFFFFFFFFFFFFFFFFFFFFFFFFFFFFFFFFFFFFFFFFFFFFFFFFFFFFFFFFFFFFF
310
FFFFFFFFFFFFFFFFFFFFFFFFFFFFFFFFFFFFFFFFFFFFFFFFFFFFFFFFFFFFFFFF
310
FFFFFFFFFFFFFFFFFFFFFFFFFFFFFFFFFFFFFFFFFFFFFFFFFFFFFFFFFFFFFFFF
310
FFFFFFFFFFFFFFFFFFFFFFFFFFFFFFFFFFFFFFFFFFFFFFFFFFFFFFFFFFFFFFFF
310
FFFFFFFFFFFFFFFFFFFFFFFFFFFFFFFFFFFFFFFFFFFFFFFFFFFFFFFFFFFFFFFF
310
FFFFFFFFFFFFFFFFFFFFFFFFFFFFFFFFFFFFFFFFFFFFFFFFFFFFFFFFFFFFFFFF
310
FFFFFFFFFFFFFFFFFFFFFFFFFFFFFFFFFFFFFFFFFFFFFFFFFFFFFFFFFFFFFFFF
310
FFFFFFFFFFFFFFFFFFFFFFFFFFFFFFFFFFFFFFFFFFFFFFFFFFFFFFFFFFFFFFFF
310
FFFFFFFFFFFFFFFFFFFFFFFFFFFFFFFFFFFFFFFFFFFFFFFFFFFFFFFFFFFFFFFF
310
FFFFFFFFFFFFFFFFFFFFFFFFFFFFFFFFFFFFFFFFFFFFFFFFFFFFFFFFFFFFFFFF
310
FFFFFFFFFFFFFFFFFFFFFFFFFFFFFFFFFFFFFFFFFFFFFFFFFFFFFFFFFFFFFFFF
310
FFFFFFFFFFFFFFFFFFFFFFFFFFFFFFFFFFFFFFFFFFFFFFFFFFFFFFFFFFFFFFFF
310
0100000200000000000000000000000000000000000000000000000000000000
310
0000000000000000000000000000000000000000000000000000000000000000
310
0100FEFF030A0000FFFFFFFF0A00030000000000C00000000000004607000000
310
5042727573680007000000504272757368000700000050427275736800F439B2
310
7100000000000000000000000000000000000000000000000000000000000000
310
0000000000000000000000000000000000000000000000000000000000000000
310
0000000000000000000000000000000000000000000000000000000000000000
310
0000000000000000000000000000000000000000000000000000000000000000
310
0000000000000000000000000000000000000000000000000000000000000000
310
0000000000000000000000000000000000000000000000000000000000000000
310
0000000000000000000000000000000000000000000000000000000000000000
310
0000000000000000000000000000000000000000000000000000000000000000
310
0000000000000000000000000000000000000000000000000000000000000000
310
0000000000000000000000000000000000000000000000000000000000000000
310
0000000000000000000000000000000000000000000000000000000000000000
310
0000000000000000000000000000000000000000000000000000000000000000
310
20260000424D0E260000000000003E00000028000000B40200006E0000000100
310
01000000000000000000130B0000130B00000200000002000000000000FFFFFF
310
FFFFFFFFFFFFFFFFFFFFFFFFFFFFFFFFFFFFFFFFFFFFFFFFFFFFFFFFFFFFFFFF
310
FFFFFFFFFFFFFFFFFFFFFFFFFFFFFFFFFFFFFFFFFFFFFFFFFFFFFFFFFFFFFFFF
310
FFFFFFFFFFFFFFFFFFFFFFFFFFFFFFFFFFFFFFFFFFFFFFFFF000FFFFFFFFFFFF
310
FFFFFFFFFFFFFFFFFFFFFFFFFFFFFFFFFFFFFFFFFFFFFFFFFFFFFFFFFFFFFFFF
310
FFFFFFFFFFFFFFFFFFFFFFFFFFFFFFFFFFFFFFFFFFFFFFFFFFFFFFFFFFFFFFFF
310
FFFFFFFFFFFFFFFFFFFFFFFFFFFFFFFFF000FFFFFFFFFFFFFFFFFFFFFFFFFFFF
310
FFFFFFFFFFFFFFFFFFFFFFFFFFFFFFFFFFFFFFFFFFFFFFFFFFFFFFFFFFFFFFFF
310
FFFFFFFFFFFFFFFFFFFFFFFFFFFFFFFFFFFFFFFFFFFFFFFFFFFFFFFFFFFFFFFF
310
FFFFFFFFFFFFFFFFF000FFFFFFFFFFFFFFFFFFFFFFFFFFFFFFFFFFFFFFFFFFFF
310
FFFFFFFFFFFFFFFFFFFFFFFFFFFFFFFFFFFFFFFFFFFFFFFFFFFFFFFFFFFFFFFF
310
FFFFFFFFFFFFFFFFFFFFFFFFFFFFFFFFFFFFFFFFFFFFFFFFFFFFFFFFFFFFFFFF
310
F000FFFFFFFFFFFFFFFFFFFFFFFFFFFFFFFFFFFFFFFFFFFFFFFFFFFFFFFFFFFF
310
FFFFFFFFFFFFFFFFFFFFFFFFFFFFFFFFFFFFFFFFFFFFFFFFFFFFFFFFFFFFFFFF
310
FFFFFFFFFFFFFFFFFFFFFFFFFFFFFFFFFFFFFFFFFFFFFFFFF000FFFFFFFFFFFF
310
FFFFFFFFFFFFFFFFFFFFFFFFFFFFFFFFFFFFFFFFFFFFFFFFFFFFFFFFFFFFFFFF
310
FFFFFFFFFFFFFFFFFFFFFFFFFFFFFFFFFFFFFFFFFFFFFFFFFFFFFFFFFFFFFFFF
310
FFFFFFFFFFFFFFFFFFFFFFFFFFFFFFFFF000FFFFFFFFFFFFFFFFFFFFFFFFFFFF
310
FFFFFFFFFFFFFFFFFFFFFFFFFFFFFFFFFFFFFFFFFFFFFFFFFFFFFFFFFFFFFFFF
310
FFFFFFFFFFFFFFFFFFFFFFFFFFFFFFFFFFFFFFFFFFFFFFFFFFFFFFFFFFFFFFFF
310
FFFFFFFFFFFFFFFFF000FFFFFFFFFFFFFFFFFFFFFFFFFFFFFFFFFFFFFFFFFFFF
310
FFFFFFFFFFFFFFFFFFFFFFFFFFFFFFFFFFFFFFFFFFFFFFFFFFFFFFFFFFFFFFFF
310
FFFFFFFFFFFFFFFFFFFFFFFFFFFFFFFFFFFFFFFFFFFFFFFFFFFFFFFFFFFFFFFF
310
F000FFFFFFFFFFFFFFFFFFFFFFFFFFFFFFFFFFFFFFFFFFFFFFFFFFFFFFFFFFFF
310
FFFFFFFFFFFFFFFFFFFFFFFFFFFFFFFFFFFFFFFFFFFFFFFFFFFFFFFFFFFFFFFF
310
FFFFFFFFFFFFFFFFFFFFFFFFFFFFFFFFFFFFFFFFFFFFFFFFF000FFFFFFFFFFFF
310
FFFFFFFFFFFFFFFFFFFFFFFFFFFFFFFFFFFFFFFFFFFFFFFFFFFFFFFFFFFFFFFF
310
FFFFFFFFFFFFFFFFFFFFFFFFFFFFFFFFFFFFFFFFFFFFFFFFFFFFFFFFFFFFFFFF
310
FFFFFFFFFFFFFFFFFFFFFFFFFFFFFFFFF000FFFFFFFFFFFFFFFFFFFFFFFFFFFF
310
FFFFFFFFFFFFFFFFFFFFFFFFFFFFFFFFFFFFFFFFFFFFFFFFFFFFFFFFFFFFFFFF
310
FFFFFFFFFFFFFFFFFFFFFFFFFFFFFFFFFFFFFFFFFFFFFFFFFFFFFFFFFFFFFFFF
310
FFFFFFFFFFFFFFFFF000FFFFFFFFFFFFFFFFFFFFFFFFFFFFFFFFFFFFFFFFFFFF
310
FFFFFFFFFFFFFFFFFFFFFFFFFFFFFFFFFFFFFFFFFFFFFFFFFFFFFFFFFFFFFFFF
310
FFFFFFFFFFFFFFFFFFFFFFFFFFFFFFFFFFFFFFFFFFFFFFFFFFFFFFFFFFFFFFFF
310
F000FFFFFFFFFFFFFFFFFFFFFFFFFFFFFFFFFFFFFFFFFFFFFFFFFFFFFFFFFFFF
310
FFFFFFFFFFFFFFFFFFFFFFFFFFFFFFFFFFFFFFFFFFFFFFFFFFFFFFFFFFFFFFFF
310
FFFFFFFFFFFFFFFFFFFFFFFFFFFFFFFFFFFFFFFFFFFFFFFFF000FFFFFFFFFFFF
310
FFFFFFFFFFFFFFFFFFFFFFFFFFFFFFFFFFFFFFFFFFFFFFFFFFFFFFFFFFFFFFFF
310
FFFFFFFFFFFFFFFFFFFFFFFFFFFFFFFFFFFFFFFFFFFFFFFFFFFFFFFFFFFFFFFF
310
FFFFFFFFFFFFFFFFFFFFFFFFFFFFFFFFF000FFFFFFFFFFFFFFFFFFFFFFFFFFFF
310
FFFFFFFFFFFFFFFFFFFFFFFFFFFFFFFFFFFFFFFFFFFFFFFFFFFFFFFFFFFFFFFF
310
FFFFFFFFFFFFFFFFFFFFFFFFFFFFFFFFFFFFFFFFFFFFFFFFFFFFFFFFFFFFFFFF
310
FFFFFFFFFFFFFFFFF000FFFFFFFFFFFFFFFFFFFFFFFFFFFFFFFFFFFFFFFFFFFF
310
FFFFFFFFFFFFFFFFFFFFFFFFFFFFFFFFFFFFFFFFFFFFFFFFFFFFFFFFFFFFFFFF
310
FFFFFFFFFFFFFFFFFFFFFFFFFFFFFFFFFFFFFFFFFFFFFFFFFFFFFFFFFFFFFFFF
310
F000FFFFFFFFFFFFFFFFFFFFFFFFFFFFFFFFFFFFFFFFFFFFFFFFFFFFFFFFFFFF
310
FFFFFFFFFFFFFFFFFFFFFFFFFFFFFFFFFFFFFFFFFFFFFFFFFFFFFFFFFFFFFFFF
310
FFFFFFFFFFFFFFFFFFFFFFFFFFFFFFFFFFFFFFFFFFFFFFFFF000FFFFFFFFFFFF
310
FFFFFFFFFFFFFFFFFFFFFFFFFFFFFFFFFFFFFFFFFFFFFFFFFFFFFFFFFFFFFFFF
310
FFFFFFFFFFFFFFFFFFFFFFFFFFFFFFFFFFFFFFFFFFFFFFFFFFFFFFFFFFFFFFFF
310
FFFFFFFFFFFFFFFFFFFFFFFFFFFFFFFFF000FFFFFFFFFFFFFFFFFFFFFFFFFFFF
310
FFFFFFFFFFFFFFFFFFFFFFFFFFFFFFFFFFFFFFFFFFFFFFFFFFFFFFFFFFFFFFFF
310
FFFFFFFFFFFFFFFFFFFFFFFFFFFFFFFFFFFFFFFFFFFFFFFFFFFFFFFFFFFFFFFF
310
FFFFFFFFFFFFFFFFF000FFFFF80003FFFFFFFFFFFFFFFFFFFFFFFFFFFFFFFFFF
310
FFFFF00007FFFFFFFFFF00007FFFFFF800000000000000007FFFFFFFFFFFFFFF
310
FFFFFFFC001FFFFFFFFFFFFFFC001FFFFFFFFFFFFFFFFFFFFFFFFFFE0007FFFF
310
F000FFFF8000007FFFFFFFF8000FFFFFC0007FFFFF80007FFFFF0000007FFFFF
310
FFF8000007FFFFF800000000000000007FFFFFF0001FFFFFFFFFFFC00001FFFF
310
FFFFFFFFC00001FFFFFFFF000000000003FFFFE000007FFFF000FFFE0000000F
310
FFFFFFF0000FFFFF80007FFFFF80007FFFFC0000001FFFFFFFC0000001FFFFF8
310
00000000000000007FFFFFF0001FFFFFFFFFFE0000003FFFFFFFFFFE0000003F
310
FFFFFF000000000003FFFF0000000FFFF000FFF800000003FFFFFFF00007FFFF
310
80007FFFFF80007FFFF000000007FFFFFF000000003FFFF80000000000000000
310
7FFFFFF0001FFFFFFFFFF80000000FFFFFFFFFF80000000FFFFFFF0000000000
310
03FFFC00000003FFF000FFE000000000FFFFFFF00007FFFF80003FFFFF80007F
310
FFC000000001FFFFFC000000001FFFF800000000000000007FFFFFF0001FFFFF
310
FFFFE000000003FFFFFFFFE000000003FFFFFF000000000003FFF000000000FF
310
F000FF80000000007FFFFFF00007FFFF80003FFFFF80007FFF8000000000FFFF
310
F80000000007FFF800000000000000007FFFFFF0001FFFFFFFFFC000000001FF
310
FFFFFFC000000001FFFFFF000000000003FFC0000000007FF000FF0000000000
310
3FFFFFE00007FFFF00003FFFFF80007FFE00000000003FFFF00000000003FFF8
310
00000000000000007FFFFFF0001FFFFFFFFF8000000000FFFFFFFF8000000000
310
FFFFFF000000000003FF80000000003FF000FE00000000001FFFFFE00003FFFF
310
00003FFFFF80007FFC00000000001FFFE00000000001FFF8000001FFFE000000
310
7FFFFFF0001FFFFFFFFE00000000003FFFFFFE00000000003FFFFF0000000000
310
03FF00000000001FF000FC00000000000FFFFFE00003FFFF00001FFFFF80007F
310
F800000000001FFFC00000000000FFF8000001FFFE0000007FFFFFF0001FFFFF
310
FFFC00000000001FFFFFFC00000000001FFFFF000000000003FE00000000000F
310
F000F8000000000007FFFFE00003FFFF00001FFFFF80007FF800000000000FFF
310
800000000000FFF8000001FFFE0000007FFFFFF0001FFFFFFFF800000000000F
310
FFFFF800000000000FFFFF000000000003FC000000000007F000F80000000000
310
03FFFFC00003FFFE00001FFFFF80007FF0000000000007FF0000000000007FF8
310
000001FFFE0000007FFFFFF0001FFFFFFFF0000000000007FFFFF00000000000
310
07FFFF000000000003F8000000000003F000F0000000000003FFFFC00001FFFE
310
00001FFFFF80007FE0000000000007FE0000000000003FF8000001FFFE000000
310
7FFFFFF0001FFFFFFFF0000000000007FFFFF0000000000007FFFF0000000000
310
03F800001F800003F000E00001FFF00001FFFFC00001FFFE00000FFFFF80007F
310
E00001FFE00003FE00001FFF00003FF8000001FFFE0000007FFFFFF0001FFFFF
310
FFE000003E000003FFFFE000003E000003FFFF000000000003F00001FFF80001
310
F000E00007FFFC0001FFFFC00001FFFE00000FFFFF80007FC0000FFFFC0003FC
310
0000FFFFC0001FF8000001FFFE0000007FFFFFF0001FFFFFFFC00003FFE00001
310
FFFFC00003FFE00001FFFF0001FFFFFFFFF00007FFFE0001F000E0000FFFFF00
310
00FFFF800001FFFC00000FFFFF80007FC0001FFFFE0001FC0001FFFFE0001FF8
310
000001FFFE0000007FFFFFF0001FFFFFFF80000FFFF80000FFFF80000FFFF800
310
00FFFF0003FFFFFFFFE0000FFFFF8000F000C0003FFFFF8000FFFF800000FFFC
310
000007FFFF80007F80003FFFFF0001FC0003FFFFF0001FF8000001FFFE000000
310
7FFFFFF0001FFFFFFF80003FFFFE0000FFFF80003FFFFE0000FFFF0003FFFFFF
310
FFE0003FFFFF8000F000C0003FFFFF8000FFFF800000FFFC000007FFFF80007F
310
80007FFFFF8001F80007FFFFF8000FF8000001FFFE0000007FFFFFF0001FFFFF
310
FF00007FFFFF00007FFF00007FFFFF00007FFF0003FFFFFFFFE0003FFFFFC000
310
F000C0007FFFFFC000FFFF000000FFFC000007FFFF80007F8000FFFFFF8000F8
310
000FFFFFF8000FF8000001FFFE0000007FFFFFF0001FFFFFFF0000FFFFFF8000
310
7FFF0000FFFFFF80007FFF0003FFFFFFFFC0007FFFFFC00070008000FFFFFFC0
310
00FFFF000000FFF8000007FFFF80007F8000FFFFFF8000F8000FFFFFF8000FF8
310
000001FFFE0000007FFFFFF0001FFFFFFE0001FFFFFFC0003FFE0001FFFFFFC0
310
003FFF0003FFFFFFFFC0007FFFFFE00070008000FFFFFFC0007FFF0000007FF8
310
000003FFFF80007F0001FFFFFF8000F8000FFFFFF8000FF8000001FFFE000000
310
7FFFFFF0001FFFFFFE0001FFFFFFC0003FFE0001FFFFFFC0003FFF0003FFFFFF
310
FFC000FFFFFFE00070008000FFFFFFC0007FFF0000007FF8000003FFFF80007F
310
0001FFFFFF8000F8001FFFFFF8000FF8000001FFFE0000007FFFFFF0001FFFFF
310
FE0003FFFFFFE0003FFE0003FFFFFFE0003FFF0003FFFFFFFFC000FFFFFFE000
310
70008000FFFFFFC0007FFE0000007FF8000003FFFF80007F0001FFFFFF8000F0
310
001FFFFFF8000FF8000001FFFE0000007FFFFFF0001FFFFFFC0003FFFFFFE000
310
1FFC0003FFFFFFE0001FFF0003FFFFFFFFC000FFFFFFC00070008000FFFFFF80
310
007FFE0000007FF0000003FFFF80007F0001FFFFFF0000F0001FFFFFF8000FF8
310
000001FFFE0000007FFFFFF0001FFFFFFC0007FFFFFFF0001FFC0007FFFFFFF0
310
001FFF0003FFFFFFFFC000FFFFFFC00070008001FFFFFF0000FFFE0000003FF0
310
000001FFFF80007F0001FFFFFF0000F8001FFFFFF0000FF8000001FFFE000000
310
7FFFFFF0001FFFFFFC0007FFFFFFF0001FFC0007FFFFFFF0001FFF0003FFFFFF
310
FFC001FFFFFF80007000FFFFFFFFFE0000FFFE0008003FF0008001FFFF80007F
310
FFFFFFFFFC0000FFFFFFFFFFE0000FF8000001FFFE0000007FFFFFF0001FFFFF
310
F8000FFFFFFFF8000FF8000FFFFFFFF8000FFF0003FFFFFFFFFFFFFFFFFF0000
310
7000FFFFFFFFFC0000FFFC0008003FF0008001FFFF80007FFFFFFFFFF80001FF
310
FFFFFFFF80000FF8000001FFFE0000007FFFFFF0001FFFFFF8000FFFFFFFF800
310
0FF8000FFFFFFFF8000FFF0003FFFFFFFFFFFFFFFFFE0000F000FFFFFFFFE000
310
00FFFC000C003FE000C001FFFF80007FFFFFFFFFC00001FFFFFFFFFE00001FF8
310
000001FFFE0000007FFFFFF0001FFFFFF8000FFFFFFFF8000FF8000FFFFFFFF8
310
000FFF0003FFFFFFFFFFFFFFFFF00000F000FFFFFFFE000001FFFC000C001FE0
310
00C000FFFF80007FFFFFFFFE000001FFFFFFFFE000001FF80FFFFFFFFFFFFFC0
310
7FFFFFF0001FFFFFF8000FFFFFFFF8000FF8000FFFFFFFF8000FFF0003FFFFFF
310
FFFFFFFFFF800000F000FFFFFFC0000001FFFC001C001FE001C000FFFF80007F
310
FFFFFF80000003FFFFFFF80000001FF80FFFFFFFFFFFFFC07FFFFFF0001FFFFF
310
F8001FFFFFFFFC000FF8001FFFFFFFFC000FFF0003FFFFFFFFFFFFFFF0000001
310
F000FFFFF800000001FFF8001C001FE001C000FFFF80007FFFFFF800000003FF
310
FFFF800000003FF80FFFFFFFFFFFFFC07FFFFFF0001FFFFFF8001FFFFFFFFC00
310
0FF8001FFFFFFFFC000FFF0003FFFFFFFFFFFFFE00000001F000FFFFC0000000
310
03FFF8001E001FC001E000FFFF80007FFFFF8000000007FFFFFC000000003FF8
310
0FFFFFFFFFFFFFC07FFFFFF0001FFFFFF8001FFFFFFFFC000FF8001FFFFFFFFC
310
000FFF0003FFFFFFFFFFFFE000000003F000FFFE0000000007FFF8001E000FC0
310
01E0007FFF80007FFFFE0000000007FFFFE0000000007FF80FFFFFFFFFFFFFC0
310
7FFFFFF0001FFFFFF0001FFFFFFFFC0007F0001FFFFFFFFC0007FF0003FFFFFF
310
FFFFFF0000000003F000FFF80000000007FFF8001E000FC003E0007FFF80007F
310
FFF0000000000FFFFF8000000000FFF80FFFFFFFFFFFFFC07FFFFFF0001FFFFF
310
F0001FFFFFFFFC0007F0001FFFFFFFFC0007FF0003FFFFFFFFFFFC0000000007
310
F000FFE0000000000FFFF0003E000FC003E0007FFF80007FFFC0000000001FFF
310
FE0000000001FFF80FFFFFFFFFFFFFC07FFFFFF0001FFFFFF0001FFFFFFFFC00
310
07F0001FFFFFFFFC0007FF0003FFFFFFFFFFF0000000000FF000FFC000000000
310
1FFFF0003F000F8003F0003FFF80007FFF80000000003FFFF80000000003FFF8
310
0FFFFFFFFFFFFFC07FFFFFF0001FFFFFF0001FFFFFFFFC0007F0001FFFFFFFFC
310
0007FF0003FFFFFFFFFFE0000000001FF000FF00000000007FFFF0003F000780
310
03F0003FFF80007FFF00000000007FFFF00000000007FFF80FFFFFFFFFFFFFC0
310
7FFFFFF0001FFFFFF0001FFFFFFFFC0007F0001FFFFFFFFC0007FF0003FFFFFF
310
FFFF80000000007FF000FE0000000000FFFFE0003F00078007F0003FFF80007F
310
FE0000000001FFFFE0000000001FFFF80FFFFFFFFFFFFFC07FFFFFF0001FFFFF
310
F0001FFFFFFFFC0007F0001FFFFFFFFC0007FF0003FFFFFFFFFF0000000000FF
310
F000FC0000000003FFFFE0007F00078007F0003FFF80007FFC0000000007FFFF
310
C0000000007FFFF80FFFFFFFFFFFFFC07FFFFFF0001FFFFFF8001FFFFFFFFC00
310
0FF8001FFFFFFFFC000FFF0003FFFFFFFFFE0000000003FFF000FC000000000F
310
FFFFE0007F80070007F8001FFF80007FF8000000001FFFFF8000000001FFFFF8
310
0FFFFFFFFFFFFFC07FFFFFF0001FFFFFF8001FFFFFFFFC000FF8001FFFFFFFFC
310
000FFF0003FFFFFFFFFC000000000FFFF000F8000000007FFFFFE0007F800700
310
07F8001FFF80007FF000000000FFFFFF800000000FFFFFF80FFFFFFFFFFFFFC0
310
7FFFFFF0001FFFFFF8000FFFFFFFF8000FF8000FFFFFFFF8000FFF0003FFFFFF
310
FFFC000000007FFFF000F800000007FFFFFFC0007F8003000FF8001FFF80007F
310
F000000007FFFFFF000000007FFFFFF80FFFFFFFFFFFFFC07FFFFFF0001FFFFF
310
F8000FFFFFFFF8000FF8000FFFFFFFF8000FFF0003FFFFFFFFF80000000FFFFF
310
F000F0000000FFFFFFFFC000FF8003000FF8001FFF80007FE0000000FFFFFFFF
310
0000000FFFFFFFF8000001FFFE0000007FFFFFF0001FFFFFF8000FFFFFFFF800
310
0FF8000FFFFFFFF8000FFF0003FFFFFFFFF8000000FFFFFFF000F000000FFFFF
310
FFFFC000FFC002000FF8000FFF80007FE000001FFFFFFFFE000001FFFFFFFFF8
310
000001FFFE0000007FFFFFF0001FFFFFF8000FFFFFFFF8000FF8000FFFFFFFF8
310
000FFF0003FFFFFFFFF000001FFFFFFFF000E00000FFFFFFFFFFC000FFC00200
310
0FFC000FFF80007FE00001FFFFFFFFFE00001FFFFFFFFFF8000001FFFE000000
310
7FFFFFF0001FFFFFFC000FFFFFFFF8001FFC000FFFFFFFF8001FFF0003FFFFFF
310
FFF00001FFFFFFFFF000E00007FFFFFFFFFF8000FFC000001FFC000FFF80007F
310
C0000FFFFFFFFFFE0000FFFFFFFFFFF8000001FFFE0000007FFFFFF0001FFFFF
310
FC0007FFFFFFF0001FFC0007FFFFFFF0001FFF0003FFFFFFFFF00007FFFFFFFF
310
F000E0001FFFFFFFFFFF8000FFC000001FFC000FFF80007FC0003FFFFFFFFFFE
310
0001FFFFFFFFFFF8000001FFFE0000007FFFFFF0001FFFFFFC0007FFFFFFF000
310
1FFC0007FFFFFFF0001FFF0003FFFFFFFFF0001FFFFFFFFFF000E0003FFFFF00
310
03FF8001FFE000001FFC0007FF80007FC0007FFFFF0007FC0003FFFFF0003FF8
310
000001FFFE0000007FFFFFF0001FFFFFFC0003FFFFFFE0001FFC0003FFFFFFE0
310
001FFF0003FFFFFFFFF0003FFFFFFFFFF000E0003FFFFF0001FF8001FFE00000
310
1FFE0007FF80007FC0007FFFFE0003FC0007FFFFE0003FF8000001FFFE000000
310
7FFFFFF0001FFFFFFE0003FFFFFFE0003FFE0003FFFFFFE0003FFF0003FFFFFF
310
FFF0003FFFFF8001F000E0003FFFFF0001FF0001FFE000001FFE0007FF80007F
310
C0007FFFFE0003FC0007FFFFE0003FF8000001FFFE0000007FFFFFF0001FFFFF
310
FE0001FFFFFFC0003FFE0001FFFFFFC0003FFF0003FFFFFFFFF0003FFFFF0001
310
F000E0003FFFFF0003FF0001FFE000003FFE0007FF80007FC0007FFFFE0003FC
310
0007FFFFE0003FF8000001FFFE0000007FFFFFF0001FFFFFFF0001FFFFFFC000
310
7FFF0001FFFFFFC0007FFF0003FFFFFFFFF0003FFFFF0001F000E0003FFFFE00
310
03FF0003FFF000003FFE0003FF80007FC0007FFFFC0003FE0007FFFFE0003FF8
310
000001FFFE0000007FFFFFF0001FFFFFFF0000FFFFFF80007FFF0000FFFFFF80
310
007FFF0003FFFFFFFFF0003FFFFF0001F000E0003FFFFE0003FF0003FFF00000
310
3FFF0003FF80007FC0007FFFFC0007FE0007FFFFC0003FF8000001FFFE000000
310
7FFFFFF0001FFFFFFF80007FFFFF0000FFFF80007FFFFF0000FFFF0003FFFFFF
310
FFF0003FFFFF0003F000E0003FFFFC0003FE0003FFF000003FFF0003FF80007F
310
E0003FFFF80007FE0003FFFFC0007FF8000001FFFE0000007FFFFFF0001FFFFF
310
FF80003FFFFE0000FFFF80003FFFFE0000FFFF0003FFFFFFFFF0001FFFFE0003
310
F000F0001FFFF80003FE0003FFF000007FFF0001FF80007FE0003FFFF00007FE
310
0001FFFF80007FF8000001FFFE0000007FFFFFF0001FFFFFFFC0000FFFF80001
310
FFFFC0000FFFF80001FFFF0003FFFFFFFFF0001FFFFC0003F000F0000FFFF000
310
07FE0007FFF800007FFF0001FF80007FE0001FFFE00007FF0000FFFE00007FF8
310
000001FFFE0000007FFFFFF0001FFFFFFFC00003FFE00001FFFFC00003FFE000
310
01FFFF0003FFFFFFFFF8000FFFF80003F000F00003FFC00007FC0007FFF80000
310
7FFF8001FF80007FF00007FF80000FFF00007FF80000FFF8000001FFFE000000
310
7F80000000000001FFE000003E000003FFFFE000003E000003FFFF0003FFFFFF
310
FFF80003FFE00007F000F800000000000FFC0007FFF800007FFF8001FF80007F
310
F000000000000FFF000000000000FFF8000001FFFE0000007F80000000000001
310
FFF0000000000007FFFFF0000000000007FFFF0003FFFFFFFFFC00007E000007
310
F000F800000000000FFC0007FFF80000FFFF8000FF80007FF800000000001FFF
310
800000000001FFF8000001FFFE0000007F80000000000001FFF800000000000F
310
FFFFF800000000000FFFFF0003FFFFFFFFFC00000000000FF000FC0000000000
310
1FFC0007FFFC0000FFFF8000FF80007FF800000000003FFFC00000000001FFF8
310
000001FFFE0000007F80000000000001FFF800000000000FFFFFF80000000000
310
0FFFFF0003FFFFFFFFFE00000000001FF000FE00000000003FF8000FFFFC0000
310
FFFF8000FF80007FFC00000000003FFFC00000000003FFF8000001FFFE000000
310
7F80000000000001FFFC00000000001FFFFFFC00000000001FFFFF0003FFFFFF
310
FFFF00000000001FF000FF00000000003FF8000FFFFC0000FFFFC000FF80007F
310
FE00000000007FFFE00000000007FFF8000001FFFE0000007F80000000000001
310
FFFE00000000003FFFFFFE00000000003FFFFF0003FFFFFFFFFF80000000003F
310
F000FF80000000007FF8000FFFFC0001FFFFC0007F80007FFF0000000000FFFF
310
F0000000000FFFF800000000000000007F80000000000001FFFF8000000000FF
310
FFFFFF8000000000FFFFFF0003FFFFFFFFFFC0000000007FF000FFC000000000
310
FFF8000FFFFE0001FFFFC0007F80007FFF8000000001FFFFF8000000001FFFF8
310
00000000000000007F80000000000001FFFFC000000001FFFFFFFFC000000001
310
FFFFFF0003FFFFFFFFFFE000000000FFF000FFE000000003FFF0001FFFFE0001
310
FFFFC0007F80007FFFC000000007FFFFFE000000003FFFF80000000000000000
310
7F80000000000001FFFFE000000003FFFFFFFFE000000003FFFFFF0003FFFFFF
310
FFFFF000000003FFF000FFF80000000FFFF0001FFFFE0001FFFFE0007F80007F
310
FFF00000000FFFFFFF00000000FFFFF800000000000000007F80000000000001
310
FFFFF80000000FFFFFFFFFF80000000FFFFFFF0003FFFFFFFFFFFC0000000FFF
310
F000FFFE0000003FFFF0001FFFFE0003FFFFE0003F80007FFFFC0000003FFFFF
310
FFC0000003FFFFF800000000000000007F80000000000001FFFFFE0000003FFF
310
FFFFFFFE0000003FFFFFFF0003FFFFFFFFFFFF0000003FFFF000FFFF800000FF
310
FFF0001FFFFF0003FFFFE0003F80007FFFFF000001FFFFFFFFF800001FFFFFF8
310
00000000000000007F80000000000001FFFFFFC00001FFFFFFFFFFFFC00001FF
310
FFFFFF0003FFFFFFFFFFFFC00000FFFFF000FFFFF8000FFFFFFFFFFFFFFFFFFF
310
FFFFFFFFFFFFFFFFFFFFF0001FFFFFFFFFFF0000FFFFFFF80000000000000000
310
7FFFFFFFFFFFFFFFFFFFFFFC001FFFFFFFFFFFFFFC001FFFFFFFFFFFFFFFFFFF
310
FFFFFFFC001FFFFFF000FFFFFFFFFFFFFFFFFFFFFFFFFFFFFFFFFFFFFFFFFFFF
310
FFFFFFFFFFFFFFFFFFFFFFFFFFFFFFFFFFFFFFFFFFFFFFFFFFFFFFFFFFFFFFFF
310
FFFFFFFFFFFFFFFFFFFFFFFFFFFFFFFFFFFFFFFFFFFFFFFFFFFFFFFFFFFFFFFF
310
F000FFFFFFFFFFFFFFFFFFFFFFFFFFFFFFFFFFFFFFFFFFFFFFFFFFFFFFFFFFFF
310
FFFFFFFFFFFFFFFFFFFFFFFFFFFFFFFFFFFFFFFFFFFFFFFFFFFFFFFFFFFFFFFF
310
FFFFFFFFFFFFFFFFFFFFFFFFFFFFFFFFFFFFFFFFFFFFFFFFF000FFFFFFFFFFFF
310
FFFFFFFFFFFFFFFFFFFFFFFFFFFFFFFFFFFFFFFFFFFFFFFFFFFFFFFFFFFFFFFF
310
FFFFFFFFFFFFFFFFFFFFFFFFFFFFFFFFFFFFFFFFFFFFFFFFFFFFFFFFFFFFFFFF
310
FFFFFFFFFFFFFFFFFFFFFFFFFFFFFFFFF000FFFFFFFFFFFFFFFFFFFFFFFFFFFF
310
FFFFFFFFFFFFFFFFFFFFFFFFFFFFFFFFFFFFFFFFFFFFFFFFFFFFFFFFFFFFFFFF
310
FFFFFFFFFFFFFFFFFFFFFFFFFFFFFFFFFFFFFFFFFFFFFFFFFFFFFFFFFFFFFFFF
310
FFFFFFFFFFFFFFFFF000FFFFFFFFFFFFFFFFFFFFFFFFFFFFFFFFFFFFFFFFFFFF
310
FFFFFFFFFFFFFFFFFFFFFFFFFFFFFFFFFFFFFFFFFFFFFFFFFFFFFFFFFFFFFFFF
310
FFFFFFFFFFFFFFFFFFFFFFFFFFFFFFFFFFFFFFFFFFFFFFFFFFFFFFFFFFFFFFFF
310
F000FFFFFFFFFFFFFFFFFFFFFFFFFFFFFFFFFFFFFFFFFFFFFFFFFFFFFFFFFFFF
310
FFFFFFFFFFFFFFFFFFFFFFFFFFFFFFFFFFFFFFFFFFFFFFFFFFFFFFFFFFFFFFFF
310
FFFFFFFFFFFFFFFFFFFFFFFFFFFFFFFFFFFFFFFFFFFFFFFFF000FFFFFFFFFFFF
310
FFFFFFFFFFFFFFFFFFFFFFFFFFFFFFFFFFFFFFFFFFFFFFFFFFFFFFFFFFFFFFFF
310
FFFFFFFFFFFFFFFFFFFFFFFFFFFFFFFFFFFFFFFFFFFFFFFFFFFFFFFFFFFFFFFF
310
FFFFFFFFFFFFFFFFFFFFFFFFFFFFFFFFF000FFFFFFFFFFFFFFFFFFFFFFFFFFFF
310
FFFFFFFFFFFFFFFFFFFFFFFFFFFFFFFFFFFFFFFFFFFFFFFFFFFFFFFFFFFFFFFF
310
FFFFFFFFFFFFFFFFFFFFFFFFFFFFFFFFFFFFFFFFFFFFFFFFFFFFFFFFFFFFFFFF
310
FFFFFFFFFFFFFFFFF000FFFFFFFFFFFFFFFFFFFFFFFFFFFFFFFFFFFFFFFFFFFF
310
FFFFFFFFFFFFFFFFFFFFFFFFFFFFFFFFFFFFFFFFFFFFFFFFFFFFFFFFFFFFFFFF
310
FFFFFFFFFFFFFFFFFFFFFFFFFFFFFFFFFFFFFFFFFFFFFFFFFFFFFFFFFFFFFFFF
310
F000FFFFFFFFFFFFFFFFFFFFFFFFFFFFFFFFFFFFFFFFFFFFFFFFFFFFFFFFFFFF
310
FFFFFFFFFFFFFFFFFFFFFFFFFFFFFFFFFFFFFFFFFFFFFFFFFFFFFFFFFFFFFFFF
310
FFFFFFFFFFFFFFFFFFFFFFFFFFFFFFFFFFFFFFFFFFFFFFFFF000FFFFFFFFFFFF
310
FFFFFFFFFFFFFFFFFFFFFFFFFFFFFFFFFFFFFFFFFFFFFFFFFFFFFFFFFFFFFFFF
310
FFFFFFFFFFFFFFFFFFFFFFFFFFFFFFFFFFFFFFFFFFFFFFFFFFFFFFFFFFFFFFFF
310
FFFFFFFFFFFFFFFFFFFFFFFFFFFFFFFFF000FFFFFFFFFFFFFFFFFFFFFFFFFFFF
310
FFFFFFFFFFFFFFFFFFFFFFFFFFFFFFFFFFFFFFFFFFFFFFFFFFFFFFFFFFFFFFFF
310
FFFFFFFFFFFFFFFFFFFFFFFFFFFFFFFFFFFFFFFFFFFFFFFFFFFFFFFFFFFFFFFF
310
FFFFFFFFFFFFFFFFF000FFFFFFFFFFFFFFFFFFFFFFFFFFFFFFFFFFFFFFFFFFFF
310
FFFFFFFFFFFFFFFFFFFFFFFFFFFFFFFFFFFFFFFFFFFFFFFFFFFFFFFFFFFFFFFF
310
FFFFFFFFFFFFFFFFFFFFFFFFFFFFFFFFFFFFFFFFFFFFFFFFFFFFFFFFFFFFFFFF
310
F000FFFFFFFFFFFFFFFFFFFFFFFFFFFFFFFFFFFFFFFFFFFFFFFFFFFFFFFFFFFF
310
FFFFFFFFFFFFFFFFFFFFFFFFFFFFFFFFFFFFFFFFFFFFFFFFFFFFFFFFFFFFFFFF
310
FFFFFFFFFFFFFFFFFFFFFFFFFFFFFFFFFFFFFFFFFFFFFFFFF000FFFFFFFFFFFF
310
FFFFFFFFFFFFFFFFFFFFFFFFFFFFFFFFFFFFFFFFFFFFFFFFFFFFFFFFFFFFFFFF
310
FFFFFFFFFFFFFFFFFFFFFFFFFFFFFFFFFFFFFFFFFFFFFFFFFFFFFFFFFFFFFFFF
310
FFFFFFFFFFFFFFFFFFFFFFFFFFFFFFFFF000FFFFFFFFFFFFFFFFFFFFFFFFFFFF
310
FFFFFFFFFFFFFFFFFFFFFFFFFFFFFFFFFFFFFFFFFFFFFFFFFFFFFFFFFFFFFFFF
310
FFFFFFFFFFFFFFFFFFFFFFFFFFFFFFFFFFFFFFFFFFFFFFFFFFFFFFFFFFFFFFFF
310
FFFFFFFFFFFFFFFFF000FFFFFFFFFFFFFFFFFFFFFFFFFFFFFFFFFFFFFFFFFFFF
310
FFFFFFFFFFFFFFFFFFFFFFFFFFFFFFFFFFFFFFFFFFFFFFFFFFFFFFFFFFFFFFFF
310
FFFFFFFFFFFFFFFFFFFFFFFFFFFFFFFFFFFFFFFFFFFFFFFFFFFFFFFFFFFFFFFF
310
F000FFFFFFFFFFFFFFFFFFFFFFFFFFFFFFFFFFFFFFFFFFFFFFFFFFFFFFFFFFFF
310
FFFFFFFFFFFFFFFFFFFFFFFFFFFFFFFFFFFFFFFFFFFFFFFFFFFFFFFFFFFFFFFF
310
FFFFFFFFFFFFFFFFFFFFFFFFFFFFFFFFFFFFFFFFFFFFFFFFF000FFFFFFFFFFFF
310
FFFFFFFFFFFFFFFFFFFFFFFFFFFFFFFFFFFFFFFFFFFFFFFFFFFFFFFFFFFFFFFF
310
FFFFFFFFFFFFFFFFFFFFFFFFFFFFFFFFFFFFFFFFFFFFFFFFFFFFFFFFFFFFFFFF
310
FFFFFFFFFFFFFFFFFFFFFFFFFFFFFFFFF000FFFFFFFFFFFFFFFFFFFFFFFFFFFF
310
FFFFFFFFFFFFFFFFFFFFFFFFFFFFFFFFFFFFFFFFFFFFFFFFFFFFFFFFFFFFFFFF
310
FFFFFFFFFFFFFFFFFFFFFFFFFFFFFFFFFFFFFFFFFFFFFFFFFFFFFFFFFFFFFFFF
310
FFFFFFFFFFFFFFFFF000FFFFFFFFFFFFFFFFFFFFFFFFFFFFFFFFFFFFFFFFFFFF
310
FFFFFFFFFFFFFFFFFFFFFFFFFFFFFFFFFFFFFFFFFFFFFFFFFFFFFFFFFFFFFFFF
310
FFFFFFFFFFFFFFFFFFFFFFFFFFFFFFFFFFFFFFFFFFFFFFFFFFFFFFFFFFFFFFFF
310
F000FFFFFFFFFFFFFFFFFFFFFFFFFFFFFFFFFFFFFFFFFFFFFFFFFFFFFFFFFFFF
310
FFFFFFFFFFFFFFFFFFFFFFFFFFFFFFFFFFFFFFFFFFFFFFFFFFFFFFFFFFFFFFFF
310
FFFFFFFFFFFFFFFFFFFFFFFFFFFFFFFFFFFFFFFFFFFFFFFFF000FFFFFFFFFFFF
310
FFFFFFFFFFFFFFFFFFFFFFFFFFFFFFFFFFFFFFFFFFFFFFFFFFFFFFFFFFFFFFFF
310
FFFFFFFFFFFFFFFFFFFFFFFFFFFFFFFFFFFFFFFFFFFFFFFFFFFFFFFFFFFFFFFF
310
FFFFFFFFFFFFFFFFFFFFFFFFFFFFFFFFF0000000000000000000000000000000
310
0000000000000000000000000000000000000000000000000000000000000000
310
0000000000000000000000000000000000000000000000000000000000000000
310
0000000000000000000000000000000000000000000000000000000000000000
310
0000000000000000000000000000000000000000000000000000000000000000
310
0000000000000000000000000000000000000000000000000000000000000000
310
0000000000000000000000000000000000000000000000000000000000000000
310
0000000000000000000000000000000000000000000000000000000000000000
310
0000000000000000000000000000000000000000000000000000000000000000
310
0000000000000000000000000000000000000000000000000000000000000000
310
0000000000000000000000000000000000000000000000000000000000000000
310
0000000000000000000000000000000000000000000000000000000000000000
310
0000000000000000000000000000000000000000000000000000000000000000
310
0000000000000000000000000000000000000000000000000000000000000000
310
0000000000000000000000000000000000000000000000000000000000000000
310
0000000000000000000000000000000000000000000000000000000000000000
  1
OLE
  0
ENDSEC
  0
SECTION
  2
OBJECTS
  0
DICTIONARY
  5
C
330
0
100
AcDbDictionary
281
     1
  3
ACAD_GROUP
350
D
  3
ACAD_LAYOUT
350
1A
  3
ACAD_MLINESTYLE
350
17
  3
ACAD_PLOTSETTINGS
350
19
  3
ACAD_PLOTSTYLENAME
350
E
  3
ACAD_SCALELIST
350
47
  0
DICTIONARY
  5
D
102
{ACAD_REACTORS
330
C
102
}
330
C
100
AcDbDictionary
281
     1
  0
DICTIONARY
  5
1A
102
{ACAD_REACTORS
330
C
102
}
330
C
100
AcDbDictionary
281
     1
  3
Layout1
350
1E
  3
Layout2
350
26
  3
Model
350
22
  0
DICTIONARY
  5
17
102
{ACAD_REACTORS
330
C
102
}
330
C
100
AcDbDictionary
281
     1
  3
Standard
350
18
  0
DICTIONARY
  5
19
102
{ACAD_REACTORS
330
C
102
}
330
C
100
AcDbDictionary
281
     1
  0
ACDBDICTIONARYWDFLT
  5
E
102
{ACAD_REACTORS
330
C
102
}
330
C
100
AcDbDictionary
281
     1
  3
Normal
350
F
100
AcDbDictionaryWithDefault
340
F
  0
DICTIONARY
  5
47
102
{ACAD_REACTORS
330
C
102
}
330
C
100
AcDbDictionary
281
     1
  3
A0
350
48
  3
A1
350
49
  3
A2
350
4A
  3
A3
350
4B
  3
A4
350
4C
  3
A5
350
4D
  3
A6
350
4E
  3
A7
350
4F
  3
A8
350
50
  3
A9
350
51
  3
B0
350
52
  3
B1
350
53
  3
B2
350
54
  3
B3
350
55
  3
B4
350
56
  3
B5
350
57
  3
B6
350
58
  3
B7
350
59
  3
B8
350
5A
  3
B9
350
5B
  3
C0
350
5C
  3
C1
350
5D
  3
C2
350
5E
  3
C3
350
5F
  3
C4
350
60
  3
C5
350
61
  3
C6
350
62
  3
C7
350
63
  3
C8
350
64
  3
C9
350
65
  3
D0
350
66
  3
D1
350
67
  3
D2
350
68
  0
LAYOUT
  5
1E
102
{ACAD_REACTORS
330
1A
102
}
330
1A
100
AcDbPlotSettings
  1

  2
none_device
  4

  6

 40
0.0
 41
0.0
 42
0.0
 43
0.0
 44
0.0
 45
0.0
 46
0.0
 47
0.0
 48
0.0
 49
0.0
140
0.0
141
0.0
142
1.0
143
1.0
 70
   688
 72
     1
 73
     0
 74
     5
  7

 75
    16
147
1.0
148
0.0
149
0.0
100
AcDbLayout
  1
Layout1
 70
     1
 71
     1
 10
0.0
 20
0.0
 11
420.0
 21
297.0
 12
0.0
 22
0.0
 32
0.0
 14
1.0000000000E+20
 24
1.0000000000E+20
 34
1.0000000000E+20
 15
-1.0000000000E+20
 25
-1.0000000000E+20
 35
-1.0000000000E+20
146
0.0
 13
0.0
 23
0.0
 33
0.0
 16
1.0
 26
0.0
 36
0.0
 17
0.0
 27
1.0
 37
0.0
 76
     0
330
1B
  0
LAYOUT
  5
26
102
{ACAD_REACTORS
330
1A
102
}
330
1A
100
AcDbPlotSettings
  1

  2
none_device
  4

  6

 40
0.0
 41
0.0
 42
0.0
 43
0.0
 44
0.0
 45
0.0
 46
0.0
 47
0.0
 48
0.0
 49
0.0
140
0.0
141
0.0
142
1.0
143
1.0
 70
   688
 72
     1
 73
     0
 74
     5
  7

 75
    16
147
1.0
148
0.0
149
0.0
100
AcDbLayout
  1
Layout2
 70
     1
 71
     2
 10
0.0
 20
0.0
 11
0.0
 21
0.0
 12
0.0
 22
0.0
 32
0.0
 14
0.0
 24
0.0
 34
0.0
 15
0.0
 25
0.0
 35
0.0
146
0.0
 13
0.0
 23
0.0
 33
0.0
 16
1.0
 26
0.0
 36
0.0
 17
0.0
 27
1.0
 37
0.0
 76
     0
330
23
  0
LAYOUT
  5
22
102
{ACAD_REACTORS
330
1A
102
}
330
1A
100
AcDbPlotSettings
  1

  2
none_device
  4
Letter_(8.50_x_11.00_Inches)
  6

 40
6.35
 41
6.35
 42
6.35000508
 43
6.35000508
 44
215.9
 45
279.4
 46
0.0
 47
0.0
 48
0.0
 49
0.0
140
0.0
141
0.0
142
1.0
143
1.0
 70
  1712
 72
     1
 73
     0
 74
     0
  7

 75
     0
147
1.0
148
0.0
149
0.0
100
AcDbLayout
  1
Model
 70
     1
 71
     0
 10
0.0
 20
0.0
 11
297.0
 21
210.0
 12
0.0
 22
0.0
 32
0.0
 14
0.0
 24
0.0
 34
0.0
 15
297.0
 25
210.0
 35
0.0
146
0.0
 13
0.0
 23
0.0
 33
0.0
 16
1.0
 26
0.0
 36
0.0
 17
0.0
 27
1.0
 37
0.0
 76
     0
330
1F
331
29
  0
MLINESTYLE
  5
18
102
{ACAD_REACTORS
330
17
102
}
330
17
100
AcDbMlineStyle
  2
Standard
 70
     0
  3

 62
   256
 51
90.0
 52
90.0
 71
     2
 49
0.5
 62
   256
  6
BYLAYER
 49
-0.5
 62
   256
  6
BYLAYER
  0
ACDBPLACEHOLDER
  5
F
102
{ACAD_REACTORS
330
E
102
}
330
E
  0
SCALE
  5
48
102
{ACAD_REACTORS
330
47
102
}
330
47
100
AcDbScale
 70
     0
300
1:1
140
1.0
141
1.0
290
     1
  0
SCALE
  5
49
102
{ACAD_REACTORS
330
47
102
}
330
47
100
AcDbScale
 70
     0
300
1:2
140
1.0
141
2.0
290
     0
  0
SCALE
  5
4A
102
{ACAD_REACTORS
330
47
102
}
330
47
100
AcDbScale
 70
     0
300
1:4
140
1.0
141
4.0
290
     0
  0
SCALE
  5
4B
102
{ACAD_REACTORS
330
47
102
}
330
47
100
AcDbScale
 70
     0
300
1:5
140
1.0
141
5.0
290
     0
  0
SCALE
  5
4C
102
{ACAD_REACTORS
330
47
102
}
330
47
100
AcDbScale
 70
     0
300
1:8
140
1.0
141
8.0
290
     0
  0
SCALE
  5
4D
102
{ACAD_REACTORS
330
47
102
}
330
47
100
AcDbScale
 70
     0
300
1:10
140
1.0
141
10.0
290
     0
  0
SCALE
  5
4E
102
{ACAD_REACTORS
330
47
102
}
330
47
100
AcDbScale
 70
     0
300
1:16
140
1.0
141
16.0
290
     0
  0
SCALE
  5
4F
102
{ACAD_REACTORS
330
47
102
}
330
47
100
AcDbScale
 70
     0
300
1:20
140
1.0
141
20.0
290
     0
  0
SCALE
  5
50
102
{ACAD_REACTORS
330
47
102
}
330
47
100
AcDbScale
 70
     0
300
1:30
140
1.0
141
30.0
290
     0
  0
SCALE
  5
51
102
{ACAD_REACTORS
330
47
102
}
330
47
100
AcDbScale
 70
     0
300
1:40
140
1.0
141
40.0
290
     0
  0
SCALE
  5
52
102
{ACAD_REACTORS
330
47
102
}
330
47
100
AcDbScale
 70
     0
300
1:50
140
1.0
141
50.0
290
     0
  0
SCALE
  5
53
102
{ACAD_REACTORS
330
47
102
}
330
47
100
AcDbScale
 70
     0
300
1:100
140
1.0
141
100.0
290
     0
  0
SCALE
  5
54
102
{ACAD_REACTORS
330
47
102
}
330
47
100
AcDbScale
 70
     0
300
2:1
140
2.0
141
1.0
290
     0
  0
SCALE
  5
55
102
{ACAD_REACTORS
330
47
102
}
330
47
100
AcDbScale
 70
     0
300
4:1
140
4.0
141
1.0
290
     0
  0
SCALE
  5
56
102
{ACAD_REACTORS
330
47
102
}
330
47
100
AcDbScale
 70
     0
300
8:1
140
8.0
141
1.0
290
     0
  0
SCALE
  5
57
102
{ACAD_REACTORS
330
47
102
}
330
47
100
AcDbScale
 70
     0
300
10:1
140
10.0
141
1.0
290
     0
  0
SCALE
  5
58
102
{ACAD_REACTORS
330
47
102
}
330
47
100
AcDbScale
 70
     0
300
100:1
140
100.0
141
1.0
290
     0
  0
SCALE
  5
59
102
{ACAD_REACTORS
330
47
102
}
330
47
100
AcDbScale
 70
     0
300
1/128" = 1'-0"
140
0.0078125
141
12.0
290
     0
  0
SCALE
  5
5A
102
{ACAD_REACTORS
330
47
102
}
330
47
100
AcDbScale
 70
     0
300
1/64" = 1'-0"
140
0.015625
141
12.0
290
     0
  0
SCALE
  5
5B
102
{ACAD_REACTORS
330
47
102
}
330
47
100
AcDbScale
 70
     0
300
1/32" = 1'-0"
140
0.03125
141
12.0
290
     0
  0
SCALE
  5
5C
102
{ACAD_REACTORS
330
47
102
}
330
47
100
AcDbScale
 70
     0
300
1/16" = 1'-0"
140
0.0625
141
12.0
290
     0
  0
SCALE
  5
5D
102
{ACAD_REACTORS
330
47
102
}
330
47
100
AcDbScale
 70
     0
300
3/32" = 1'-0"
140
0.09375
141
12.0
290
     0
  0
SCALE
  5
5E
102
{ACAD_REACTORS
330
47
102
}
330
47
100
AcDbScale
 70
     0
300
1/8" = 1'-0"
140
0.125
141
12.0
290
     0
  0
SCALE
  5
5F
102
{ACAD_REACTORS
330
47
102
}
330
47
100
AcDbScale
 70
     0
300
3/16" = 1'-0"
140
0.1875
141
12.0
290
     0
  0
SCALE
  5
60
102
{ACAD_REACTORS
330
47
102
}
330
47
100
AcDbScale
 70
     0
300
1/4" = 1'-0"
140
0.25
141
12.0
290
     0
  0
SCALE
  5
61
102
{ACAD_REACTORS
330
47
102
}
330
47
100
AcDbScale
 70
     0
300
3/8" = 1'-0"
140
0.375
141
12.0
290
     0
  0
SCALE
  5
62
102
{ACAD_REACTORS
330
47
102
}
330
47
100
AcDbScale
 70
     0
300
1/2" = 1'-0"
140
0.5
141
12.0
290
     0
  0
SCALE
  5
63
102
{ACAD_REACTORS
330
47
102
}
330
47
100
AcDbScale
 70
     0
300
3/4" = 1'-0"
140
0.75
141
12.0
290
     0
  0
SCALE
  5
64
102
{ACAD_REACTORS
330
47
102
}
330
47
100
AcDbScale
 70
     0
300
1" = 1'-0"
140
1.0
141
12.0
290
     0
  0
SCALE
  5
65
102
{ACAD_REACTORS
330
47
102
}
330
47
100
AcDbScale
 70
     0
300
1-1/2" = 1'-0"
140
1.5
141
12.0
290
     0
  0
SCALE
  5
66
102
{ACAD_REACTORS
330
47
102
}
330
47
100
AcDbScale
 70
     0
300
3" = 1'-0"
140
3.0
141
12.0
290
     0
  0
SCALE
  5
67
102
{ACAD_REACTORS
330
47
102
}
330
47
100
AcDbScale
 70
     0
300
6" = 1'-0"
140
6.0
141
12.0
290
     0
  0
SCALE
  5
68
102
{ACAD_REACTORS
330
47
102
}
330
47
100
AcDbScale
 70
     0
300
1'-0" = 1'-0"
140
12.0
141
12.0
290
     0
  0
ENDSEC
  0
EOF
