  0
SECTION
  2
HEADER
  9
$ACADVER
  1
AC1015
  9
$ACADMAINTVER
 70
     6
  9
$DWGCODEPAGE
  3
ANSI_1252
  9
$INSBASE
 10
0.0
 20
0.0
 30
0.0
  9
$EXTMIN
 10
0.0
 20
0.0
 30
0.0
  9
$EXTMAX
 10
297.0
 20
210.0
 30
0.0
  9
$LIMMIN
 10
0.0
 20
0.0
  9
$LIMMAX
 10
297.0
 20
210.0
  9
$ORTHOMODE
 70
     0
  9
$REGENMODE
 70
     1
  9
$FILLMODE
 70
     1
  9
$QTEXTMODE
 70
     0
  9
$MIRRTEXT
 70
     1
  9
$LTSCALE
 40
1.0
  9
$ATTMODE
 70
     1
  9
$TEXTSIZE
 40
2.0
  9
$TRACEWID
 40
1.0
  9
$TEXTSTYLE
  7
Standard
  9
$CLAYER
  8
0
  9
$CELTYPE
  6
ByLayer
  9
$CECOLOR
 62
   256
  9
$CELTSCALE
 40
1.0
  9
$DISPSILH
 70
     0
  9
$DIMSCALE
 40
1.0
  9
$DIMASZ
 40
3.0
  9
$DIMEXO
 40
0.0
  9
$DIMDLI
 40
3.75
  9
$DIMRND
 40
0.0
  9
$DIMDLE
 40
0.0
  9
$DIMEXE
 40
1.0
  9
$DIMTP
 40
0.0
  9
$DIMTM
 40
0.0
  9
$DIMTXT
 40
2.0
  9
$DIMCEN
 40
2.5
  9
$DIMTSZ
 40
0.0
  9
$DIMTOL
 70
     0
  9
$DIMLIM
 70
     0
  9
$DIMTIH
 70
     1
  9
$DIMTOH
 70
     1
  9
$DIMSE1
 70
     0
  9
$DIMSE2
 70
     0
  9
$DIMTAD
 70
     1
  9
$DIMZIN
 70
     0
  9
$DIMBLK
  1

  9
$DIMASO
 70
     1
  9
$DIMSHO
 70
     1
  9
$DIMPOST
  1

  9
$DIMAPOST
  1

  9
$DIMALT
 70
     0
  9
$DIMALTD
 70
     3
  9
$DIMALTF
 40
0.0393700787
  9
$DIMLFAC
 40
1.0
  9
$DIMTOFL
 70
     1
  9
$DIMTVP
 40
0.0
  9
$DIMTIX
 70
     0
  9
$DIMSOXD
 70
     0
  9
$DIMSAH
 70
     0
  9
$DIMBLK1
  1

  9
$DIMBLK2
  1

  9
$DIMSTYLE
  2
ISO-25
  9
$DIMCLRD
 70
     0
  9
$DIMCLRE
 70
     0
  9
$DIMCLRT
 70
     0
  9
$DIMTFAC
 40
1.0
  9
$DIMGAP
 40
1.524
  9
$DIMJUST
 70
     0
  9
$DIMSD1
 70
     0
  9
$DIMSD2
 70
     0
  9
$DIMTOLJ
 70
     0
  9
$DIMTZIN
 70
     0
  9
$DIMALTZ
 70
     0
  9
$DIMALTTZ
 70
     0
  9
$DIMUPT
 70
     0
  9
$DIMDEC
 70
     2
  9
$DIMTDEC
 70
     3
  9
$DIMALTU
 70
     2
  9
$DIMALTTD
 70
     3
  9
$DIMTXSTY
  7
Standard
  9
$DIMAUNIT
 70
     0
  9
$DIMADEC
 70
     2
  9
$DIMALTRND
 40
0.0
  9
$DIMAZIN
 70
     0
  9
$DIMDSEP
 70
    44
  9
$DIMATFIT
 70
     3
  9
$DIMFRAC
 70
     0
  9
$DIMLDRBLK
  1

  9
$DIMLUNIT
 70
     2
  9
$DIMLWD
 70
    -2
  9
$DIMLWE
 70
    -2
  9
$DIMTMOVE
 70
     0
  9
$LUNITS
 70
     2
  9
$LUPREC
 70
     2
  9
$SKETCHINC
 40
1.0
  9
$FILLETRAD
 40
10.0
  9
$AUNITS
 70
     0
  9
$AUPREC
 70
     2
  9
$MENU
  1
.
  9
$ELEVATION
 40
0.0
  9
$PELEVATION
 40
0.0
  9
$THICKNESS
 40
0.0
  9
$LIMCHECK
 70
     0
  9
$CHAMFERA
 40
0.0
  9
$CHAMFERB
 40
0.0
  9
$CHAMFERC
 40
0.0
  9
$CHAMFERD
 40
0.0
  9
$SKPOLY
 70
     0
  9
$TDCREATE
 40
2458184.352554271
  9
$TDUCREATE
 40
2458184.310887604
  9
$TDUPDATE
 40
2458184.35255544
  9
$TDUUPDATE
 40
2458184.310888773
  9
$TDINDWG
 40
0.0000000116
  9
$TDUSRTIMER
 40
0.0000000116
  9
$USRTIMER
 70
     1
  9
$ANGBASE
 50
0.0
  9
$ANGDIR
 70
     0
  9
$PDMODE
 70
     0
  9
$PDSIZE
 40
-1.0
  9
$PLINEWID
 40
0.0
  9
$SPLFRAME
 70
     0
  9
$SPLINETYPE
 70
     6
  9
$SPLINESEGS
 70
     8
  9
$HANDSEED
  5
191
  9
$SURFTAB1
 70
     6
  9
$SURFTAB2
 70
     6
  9
$SURFTYPE
 70
     6
  9
$SURFU
 70
     6
  9
$SURFV
 70
     6
  9
$UCSBASE
  2

  9
$UCSNAME
  2

  9
$UCSORG
 10
0.0
 20
0.0
 30
0.0
  9
$UCSXDIR
 10
1.0
 20
0.0
 30
0.0
  9
$UCSYDIR
 10
0.0
 20
1.0
 30
0.0
  9
$UCSORTHOREF
  2

  9
$UCSORTHOVIEW
 70
     0
  9
$UCSORGTOP
 10
0.0
 20
0.0
 30
0.0
  9
$UCSORGBOTTOM
 10
0.0
 20
0.0
 30
0.0
  9
$UCSORGLEFT
 10
0.0
 20
0.0
 30
0.0
  9
$UCSORGRIGHT
 10
0.0
 20
0.0
 30
0.0
  9
$UCSORGFRONT
 10
0.0
 20
0.0
 30
0.0
  9
$UCSORGBACK
 10
0.0
 20
0.0
 30
0.0
  9
$PUCSBASE
  2

  9
$PUCSNAME
  2

  9
$PUCSORG
 10
0.0
 20
0.0
 30
0.0
  9
$PUCSXDIR
 10
1.0
 20
0.0
 30
0.0
  9
$PUCSYDIR
 10
0.0
 20
1.0
 30
0.0
  9
$PUCSORTHOREF
  2

  9
$PUCSORTHOVIEW
 70
     0
  9
$PUCSORGTOP
 10
0.0
 20
0.0
 30
0.0
  9
$PUCSORGBOTTOM
 10
0.0
 20
0.0
 30
0.0
  9
$PUCSORGLEFT
 10
0.0
 20
0.0
 30
0.0
  9
$PUCSORGRIGHT
 10
0.0
 20
0.0
 30
0.0
  9
$PUCSORGFRONT
 10
0.0
 20
0.0
 30
0.0
  9
$PUCSORGBACK
 10
0.0
 20
0.0
 30
0.0
  9
$USERI1
 70
     0
  9
$USERI2
 70
     0
  9
$USERI3
 70
     0
  9
$USERI4
 70
     0
  9
$USERI5
 70
     0
  9
$USERR1
 40
0.0
  9
$USERR2
 40
0.0
  9
$USERR3
 40
0.0
  9
$USERR4
 40
0.0
  9
$USERR5
 40
0.0
  9
$WORLDVIEW
 70
     1
  9
$SHADEDGE
 70
     3
  9
$SHADEDIF
 70
    70
  9
$TILEMODE
 70
     1
  9
$MAXACTVP
 70
    64
  9
$PINSBASE
 10
0.0
 20
0.0
 30
0.0
  9
$PLIMCHECK
 70
     0
  9
$PEXTMIN
 10
1.0000000000E+20
 20
1.0000000000E+20
 30
1.0000000000E+20
  9
$PEXTMAX
 10
-1.0000000000E+20
 20
-1.0000000000E+20
 30
-1.0000000000E+20
  9
$PLIMMIN
 10
0.0
 20
0.0
  9
$PLIMMAX
 10
420.0
 20
297.0
  9
$UNITMODE
 70
     0
  9
$VISRETAIN
 70
     1
  9
$PLINEGEN
 70
     0
  9
$PSLTSCALE
 70
     1
  9
$TREEDEPTH
 70
  3020
  9
$CMLSTYLE
  2
Standard
  9
$CMLJUST
 70
     0
  9
$CMLSCALE
 40
20.0
  9
$PROXYGRAPHICS
 70
     1
  9
$MEASUREMENT
 70
     1
  9
$CELWEIGHT
370
    -1
  9
$ENDCAPS
280
     0
  9
$JOINSTYLE
280
     0
  9
$LWDISPLAY
290
     1
  9
$INSUNITS
 70
     4
  9
$HYPERLINKBASE
  1

  9
$STYLESHEET
  1

  9
$XEDIT
290
     1
  9
$CEPSNTYPE
380
     0
  9
$PSTYLEMODE
290
     1
  9
$FINGERPRINTGUID
  2
{3BC2DC41-AC0F-46C8-B992-66F82CBD193D}
  9
$VERSIONGUID
  2
{FAEB1C32-E019-11D5-929B-00C0DF256EC4}
  9
$EXTNAMES
290
     1
  9
$PSVPSCALE
 40
0.0
  9
$OLESTARTUP
290
     0
  0
ENDSEC
  0
SECTION
  2
CLASSES
  0
CLASS
  1
ACDBDICTIONARYWDFLT
  2
AcDbDictionaryWithDefault
  3
ObjectDBX Classes
 90
        0
280
     0
281
     0
  0
CLASS
  1
VISUALSTYLE
  2
AcDbVisualStyle
  3
ObjectDBX Classes
 90
     4095
280
     0
281
     0
  0
CLASS
  1
MATERIAL
  2
AcDbMaterial
  3
ObjectDBX Classes
 90
     1153
280
     0
281
     0
  0
CLASS
  1
SCALE
  2
AcDbScale
  3
ObjectDBX Classes
 90
     1153
280
     0
281
     0
  0
CLASS
  1
TABLESTYLE
  2
AcDbTableStyle
  3
ObjectDBX Classes
 90
     4095
280
     0
281
     0
  0
CLASS
  1
MLEADERSTYLE
  2
AcDbMLeaderStyle
  3
ACDB_MLEADERSTYLE_CLASS
 90
     4095
280
     0
281
     0
  0
CLASS
  1
SUN
  2
AcDbSun
  3
SCENEOE
 90
     1153
280
     0
281
     0
  0
CLASS
  1
ACDBPLACEHOLDER
  2
AcDbPlaceHolder
  3
ObjectDBX Classes
 90
        0
280
     0
281
     0
  0
CLASS
  1
LAYOUT
  2
AcDbLayout
  3
ObjectDBX Classes
 90
        0
280
     0
281
     0
  0
ENDSEC
  0
SECTION
  2
TABLES
  0
TABLE
  2
VPORT
  5
8
330
0
100
AcDbSymbolTable
 70
     1
  0
VPORT
  5
29
330
8
100
AcDbSymbolTableRecord
100
AcDbViewportTableRecord
  2
*Active
 70
     0
 10
0.0
 20
0.0
 11
1.0
 21
1.0
 12
148.5
 22
105.0
 13
0.0
 23
0.0
 14
10.0
 24
10.0
 15
10.0
 25
10.0
 16
0.0
 26
0.0
 36
1.0
 17
0.0
 27
0.0
 37
0.0
 40
210.0
 41
1.4142857143
 42
50.0
 43
0.0
 44
0.0
 50
0.0
 51
0.0
 71
     0
 72
  2000
 73
     1
 74
     3
 75
     0
 76
     0
 77
     0
 78
     0
281
     0
 65
     1
110
0.0
120
0.0
130
0.0
111
1.0
121
0.0
131
0.0
112
0.0
122
1.0
132
0.0
 79
     0
146
0.0
  0
ENDTAB
  0
TABLE
  2
LTYPE
  5
5
330
0
100
AcDbSymbolTable
 70
     6
  0
LTYPE
  5
14
330
5
100
AcDbSymbolTableRecord
100
AcDbLinetypeTableRecord
  2
ByBlock
 70
     0
  3

 72
    65
 73
     0
 40
0.0
  0
LTYPE
  5
15
330
5
100
AcDbSymbolTableRecord
100
AcDbLinetypeTableRecord
  2
ByLayer
 70
     0
  3

 72
    65
 73
     0
 40
0.0
  0
LTYPE
  5
16
330
5
100
AcDbSymbolTableRecord
100
AcDbLinetypeTableRecord
  2
Continuous
 70
     0
  3
Solid line
 72
    65
 73
     0
 40
0.0
  0
LTYPE
  5
6E
330
5
100
AcDbSymbolTableRecord
100
AcDbLinetypeTableRecord
  2
HIDDEN
 70
     0
  3
Hidden __ __ __ __ __ __ __ __ __ __ __ __ __ __
 72
    65
 73
     2
 40
1.905
 49
1.27
 74
     0
 49
-0.635
 74
     0
  0
LTYPE
  5
6F
330
5
100
AcDbSymbolTableRecord
100
AcDbLinetypeTableRecord
  2
PHANTOM
 70
     0
  3
Phantom ______  __  __  ______  __  __  ______
 72
    65
 73
     6
 40
12.7
 49
6.35
 74
     0
 49
-1.27
 74
     0
 49
1.27
 74
     0
 49
-1.27
 74
     0
 49
1.27
 74
     0
 49
-1.27
 74
     0
  0
LTYPE
  5
70
330
5
100
AcDbSymbolTableRecord
100
AcDbLinetypeTableRecord
  2
CENTER
 70
     0
  3
Center ____ _ ____ _ ____ _ ____ _ ____ _ ____
 72
    65
 73
     4
 40
10.16
 49
6.35
 74
     0
 49
-1.27
 74
     0
 49
1.27
 74
     0
 49
-1.27
 74
     0
  0
LTYPE
  5
71
330
5
100
AcDbSymbolTableRecord
100
AcDbLinetypeTableRecord
  2
CENTERX2
 70
     0
  3
Center (2x) ________  __  ________  __  _____
 72
    65
 73
     4
 40
20.32
 49
12.7
 74
     0
 49
-2.54
 74
     0
 49
2.54
 74
     0
 49
-2.54
 74
     0
  0
LTYPE
  5
72
330
5
100
AcDbSymbolTableRecord
100
AcDbLinetypeTableRecord
  2
DOT2
 70
     0
  3
Dot (.5x) ........................................
 72
    65
 73
     2
 40
0.635
 49
0.0
 74
     0
 49
-0.635
 74
     0
  0
ENDTAB
  0
TABLE
  2
LAYER
  5
2
330
0
100
AcDbSymbolTable
 70
     5
  0
LAYER
  5
10
330
2
100
AcDbSymbolTableRecord
100
AcDbLayerTableRecord
  2
0
 70
     0
 62
     7
  6
Continuous
370
    -3
390
F
  0
LAYER
  5
73
330
2
100
AcDbSymbolTableRecord
100
AcDbLayerTableRecord
  2
FORMAT
 70
     0
 62
     7
  6
Continuous
370
    -3
390
F
  0
LAYER
  5
74
330
2
100
AcDbSymbolTableRecord
100
AcDbLayerTableRecord
  2
VERMASSUNG
 70
     0
 62
     7
  6
Continuous
370
    -3
390
F
  0
LAYER
  5
75
330
2
100
AcDbSymbolTableRecord
100
AcDbLayerTableRecord
  2
KOPF_DÜNN
 70
     0
 62
     7
  6
Continuous
370
    -3
390
F
  0
LAYER
  5
76
330
2
100
AcDbSymbolTableRecord
100
AcDbLayerTableRecord
  2
KOPF_DICK
 70
     0
 62
     7
  6
Continuous
370
    25
390
F
  0
ENDTAB
  0
TABLE
  2
STYLE
  5
3
330
0
100
AcDbSymbolTable
 70
     2
  0
STYLE
  5
11
330
3
100
AcDbSymbolTableRecord
100
AcDbTextStyleTableRecord
  2
Standard
 70
     0
 40
0.0
 41
1.0
 50
0.0
 71
     0
 42
2.0
  3
txt
  4

  0
STYLE
  5
77
330
3
100
AcDbSymbolTableRecord
100
AcDbTextStyleTableRecord
  2
SLDTEXTSTYLE0
 70
     0
 40
0.0
 41
0.7
 50
0.0
 71
     0
 42
2.0
  3
TXT
  4

  0
ENDTAB
  0
TABLE
  2
VIEW
  5
6
330
0
100
AcDbSymbolTable
 70
     0
  0
ENDTAB
  0
TABLE
  2
UCS
  5
7
330
0
100
AcDbSymbolTable
 70
     0
  0
ENDTAB
  0
TABLE
  2
APPID
  5
9
330
0
100
AcDbSymbolTable
 70
     1
  0
APPID
  5
12
330
9
100
AcDbSymbolTableRecord
100
AcDbRegAppTableRecord
  2
ACAD
 70
     0
  0
ENDTAB
  0
TABLE
  2
DIMSTYLE
  5
A
330
0
100
AcDbSymbolTable
 70
     4
100
AcDbDimStyleTable
  0
DIMSTYLE
105
27
330
A
100
AcDbSymbolTableRecord
100
AcDbDimStyleTableRecord
  2
ISO-25
 70
     0
 41
2.5
 42
0.625
 43
3.75
 44
1.25
 73
     0
 74
     0
 77
     1
 78
     8
140
2.5
141
2.5
143
0.0393700787
147
0.625
171
     3
172
     1
178
     0
271
     2
272
     2
274
     3
278
    44
283
     0
284
     8
340
11
  0
DIMSTYLE
105
E5
102
{ACAD_REACTORS
330
E4
102
}
330
A
100
AcDbSymbolTableRecord
100
AcDbDimStyleTableRecord
  2
SLDDIMSTYLE0
 70
     0
 41
3.0
 44
0.0
 45
0.000000001
 73
     0
 74
     0
 76
     1
 77
     1
 78
    12
 79
     3
140
2.0
147
0.5
173
     1
178
     0
271
     2
272
     3
276
     2
282
     1
284
    12
340
77
  0
DIMSTYLE
105
F2
102
{ACAD_REACTORS
330
F1
102
}
330
A
100
AcDbSymbolTableRecord
100
AcDbDimStyleTableRecord
  2
SLDDIMSTYLE1
 70
     0
 41
3.0
 44
0.0
 73
     0
 74
     0
 77
     1
 78
    12
 79
     3
140
2.0
147
0.5
173
     1
178
     0
179
     2
272
     3
276
     2
284
    12
340
77
  0
DIMSTYLE
105
FC
102
{ACAD_REACTORS
330
FB
102
}
330
A
100
AcDbSymbolTableRecord
100
AcDbDimStyleTableRecord
  2
SLDDIMSTYLE2
 70
     0
 41
3.0
 44
0.0
 45
0.000000001
 73
     0
 74
     0
 77
     1
 78
    12
 79
     3
140
2.0
147
0.5
173
     1
178
     0
271
     2
272
     3
276
     2
284
    12
340
77
  0
ENDTAB
  0
TABLE
  2
BLOCK_RECORD
  5
1
330
0
100
AcDbSymbolTable
 70
     4
  0
BLOCK_RECORD
  5
1F
330
1
100
AcDbSymbolTableRecord
100
AcDbBlockTableRecord
  2
*Model_Space
340
22
  0
BLOCK_RECORD
  5
1B
330
1
100
AcDbSymbolTableRecord
100
AcDbBlockTableRecord
  2
*Paper_Space
340
1E
  0
BLOCK_RECORD
  5
23
330
1
100
AcDbSymbolTableRecord
100
AcDbBlockTableRecord
  2
*Paper_Space0
340
26
  0
BLOCK_RECORD
  5
E6
330
1
100
AcDbSymbolTableRecord
100
AcDbBlockTableRecord
  2
_D
340
0
  0
BLOCK_RECORD
  5
F3
330
1
100
AcDbSymbolTableRecord
100
AcDbBlockTableRecord
  2
_D_1
340
0
  0
BLOCK_RECORD
  5
FD
330
1
100
AcDbSymbolTableRecord
100
AcDbBlockTableRecord
  2
_D_2
340
0
  0
ENDTAB
  0
ENDSEC
  0
SECTION
  2
BLOCKS
  0
BLOCK
  5
20
330
1F
100
AcDbEntity
  8
0
100
AcDbBlockBegin
  2
*Model_Space
 70
     0
 10
0.0
 20
0.0
 30
0.0
  3
*Model_Space
  1

  0
ENDBLK
  5
21
330
1F
100
AcDbEntity
  8
0
100
AcDbBlockEnd
  0
BLOCK
  5
1C
330
1B
100
AcDbEntity
 67
     1
  8
0
100
AcDbBlockBegin
  2
*Paper_Space
 70
     0
 10
0.0
 20
0.0
 30
0.0
  3
*Paper_Space
  1

  0
ENDBLK
  5
1D
330
1B
100
AcDbEntity
 67
     1
  8
0
100
AcDbBlockEnd
  0
BLOCK
  5
24
330
23
100
AcDbEntity
  8
0
100
AcDbBlockBegin
  2
*Paper_Space0
 70
     0
 10
0.0
 20
0.0
 30
0.0
  3
*Paper_Space0
  1

  0
ENDBLK
  5
25
330
23
100
AcDbEntity
  8
0
100
AcDbBlockEnd
  0
BLOCK
  5
E7
330
E6
100
AcDbEntity
  8
0
100
AcDbBlockBegin
  2
_D
 70
     0
 10
0.0
 20
0.0
 30
0.0
  3
_D
  1

  0
SOLID
  5
E9
330
E6
100
AcDbEntity
  8
VERMASSUNG
100
AcDbTrace
 10
187.0022704567
 20
148.86152102
 30
0.0
 11
186.5522704567
 21
145.86152102
 31
0.0
 12
187.4522704567
 22
145.86152102
 32
0.0
 13
187.4522704567
 23
145.86152102
 33
0.0
  0
LINE
  5
EA
330
E6
100
AcDbEntity
  8
VERMASSUNG
100
AcDbLine
 10
175.5668295251
 20
148.86152102
 30
0.0
 11
188.0022704567
 21
148.86152102
 31
0.0
  0
LINE
  5
EB
330
E6
100
AcDbEntity
  8
VERMASSUNG
100
AcDbLine
 10
187.0022704567
 20
148.86152102
 30
0.0
 11
187.0022704567
 21
93.062947556
 31
0.0
  0
MTEXT
  5
EC
330
E6
100
AcDbEntity
  8
VERMASSUNG
100
AcDbMText
 10
184.2241352005
 20
93.062947556
 30
0.0
 40
2.0
 41
0.0
 71
     1
 72
     1
  1
min.
  7
SLDTEXTSTYLE0
 11
-1.592597921464489E-14
 21
1.0
 31
0.0
 73
     1
 44
1.0
  0
MTEXT
  5
ED
330
E6
100
AcDbEntity
  8
VERMASSUNG
100
AcDbMText
 10
184.4241351518
 20
97.4629475322
 30
0.0
 40
2.0
 41
0.0
 71
     1
 72
     1
  1
%%c
  7
SLDTEXTSTYLE0
 11
-1.592597921464489E-14
 21
1.0
 31
0.0
 73
     1
 44
1.0
  0
MTEXT
  5
EE
330
E6
100
AcDbEntity
  8
VERMASSUNG
100
AcDbMText
 10
184.2241352005
 20
101.0729475465
 30
0.0
 40
2.0
 41
0.0
 71
     1
 72
     1
  1
86 - max.
  7
SLDTEXTSTYLE0
 11
-1.592597921464489E-14
 21
1.0
 31
0.0
 73
     1
 44
1.0
  0
MTEXT
  5
EF
330
E6
100
AcDbEntity
  8
VERMASSUNG
100
AcDbMText
 10
184.4241351518
 20
112.8729479905
 30
0.0
 40
2.0
 41
0.0
 71
     1
 72
     1
  1
%%c
  7
SLDTEXTSTYLE0
 11
-1.592597921464489E-14
 21
1.0
 31
0.0
 73
     1
 44
1.0
  0
MTEXT
  5
F0
330
E6
100
AcDbEntity
  8
VERMASSUNG
100
AcDbMText
 10
184.2241352005
 20
116.4829480048
 30
0.0
 40
2.0
 41
0.0
 71
     1
 72
     1
  1
138
  7
SLDTEXTSTYLE0
 11
-1.592597921464489E-14
 21
1.0
 31
0.0
 73
     1
 44
1.0
  0
ENDBLK
  5
E8
330
E6
100
AcDbEntity
  8
0
100
AcDbBlockEnd
  0
BLOCK
  5
F4
330
F3
100
AcDbEntity
  8
0
100
AcDbBlockBegin
  2
_D_1
 70
     0
 10
0.0
 20
0.0
 30
0.0
  3
_D_1
  1

  0
ARC
  5
F6
330
F3
100
AcDbEntity
  8
VERMASSUNG
100
AcDbCircle
 10
172.865736128
 20
148.86152102
 30
0.0
 40
7.587354869291232
100
AcDbArc
 50
270.0
 51
0.0
  0
SOLID
  5
F7
330
F3
100
AcDbEntity
  8
VERMASSUNG
100
AcDbTrace
 10
172.865736128
 20
141.2741661507
 30
0.0
 11
175.8969470842
 21
141.3935819738
 31
0.0
 12
175.7285077297
 22
142.2776793575
 32
0.0
 13
175.7285077297
 23
142.2776793575
 33
0.0
  0
SOLID
  5
F8
330
F3
100
AcDbEntity
  8
VERMASSUNG
100
AcDbTrace
 10
180.4530909973
 20
148.86152102
 30
0.0
 11
179.4495777905
 21
145.9987494182
 31
0.0
 12
180.3336751741
 22
145.8303100637
 32
0.0
 13
180.3336751741
 23
145.8303100637
 33
0.0
  0
LINE
  5
F9
330
F3
100
AcDbEntity
  8
VERMASSUNG
100
AcDbLine
 10
175.5668295251
 20
148.86152102
 30
0.0
 11
181.4530909973
 21
148.86152102
 31
0.0
  0
MTEXT
  5
FA
330
F3
100
AcDbEntity
  8
VERMASSUNG
100
AcDbMText
 10
174.9935755797
 20
143.9052546384
 30
0.0
 40
2.0
 41
0.0
 71
     1
 72
     1
  1
90°
  7
SLDTEXTSTYLE0
 11
0.7071067811865366
 21
0.7071067811865585
 31
0.0
 73
     1
 44
1.0
  0
ENDBLK
  5
F5
330
F3
100
AcDbEntity
  8
0
100
AcDbBlockEnd
  0
BLOCK
  5
FE
330
FD
100
AcDbEntity
  8
0
100
AcDbBlockBegin
  2
_D_2
 70
     0
 10
0.0
 20
0.0
 30
0.0
  3
_D_2
  1

  0
SOLID
  5
100
330
FD
100
AcDbEntity
  8
VERMASSUNG
100
AcDbTrace
 10
172.865736128
 20
158.86152102
 30
0.0
 11
169.865736128
 21
159.31152102
 31
0.0
 12
169.865736128
 22
158.41152102
 32
0.0
 13
169.865736128
 23
158.41152102
 33
0.0
  0
SOLID
  5
101
330
FD
100
AcDbEntity
  8
VERMASSUNG
100
AcDbTrace
 10
133.4650896934
 20
158.86152102
 30
0.0
 11
136.4650896934
 21
158.41152102
 31
0.0
 12
136.4650896934
 22
159.31152102
 32
0.0
 13
136.4650896934
 23
159.31152102
 33
0.0
  0
LINE
  5
102
330
FD
100
AcDbEntity
  8
VERMASSUNG
100
AcDbLine
 10
172.865736128
 20
148.46152102
 30
0.0
 11
172.865736128
 21
159.86152102
 31
0.0
  0
LINE
  5
103
330
FD
100
AcDbEntity
  8
VERMASSUNG
100
AcDbLine
 10
133.4650896934
 20
121.05299146
 30
0.0
 11
133.4650896934
 21
159.86152102
 31
0.0
  0
LINE
  5
104
330
FD
100
AcDbEntity
  8
VERMASSUNG
100
AcDbLine
 10
172.865736128
 20
158.86152102
 30
0.0
 11
133.4650896934
 21
158.86152102
 31
0.0
  0
MTEXT
  5
105
330
FD
100
AcDbEntity
  8
VERMASSUNG
100
AcDbMText
 10
150.6654129666
 20
161.4396566159
 30
0.0
 40
2.0
 41
0.0
 71
     1
 72
     1
  1
39.4
  7
SLDTEXTSTYLE0
 73
     1
 44
1.0
  0
ENDBLK
  5
FF
330
FD
100
AcDbEntity
  8
0
100
AcDbBlockEnd
  0
ENDSEC
  0
SECTION
  2
ENTITIES
  0
MTEXT
  5
78
330
1F
100
AcDbEntity
  8
KOPF_DÜNN
100
AcDbMText
 10
13.8892156294
 20
23.8442973028
 30
0.0
 40
3.0
 41
0.0
 71
     1
 72
     1
  1
148.550.109
  7
SLDTEXTSTYLE0
 73
     1
 44
1.0
  0
MTEXT
  5
79
330
1F
100
AcDbEntity
  8
VERMASSUNG
100
AcDbMText
 10
13.9329988022
 20
28.8834360957
 30
0.0
 40
3.0
 41
0.0
 71
     1
 72
     1
  1
Plattenhalter_Insert holder
  7
SLDTEXTSTYLE0
 73
     1
 44
1.0
  0
MTEXT
  5
7A
330
1F
100
AcDbEntity
  8
VERMASSUNG
100
AcDbMText
 10
98.8601118557
 20
13.8365368761
 30
0.0
 40
2.0
 41
0.0
 71
     1
 72
     1
  1
Datum: 05.02.2008
  7
SLDTEXTSTYLE0
 73
     1
 44
1.0
  0
MTEXT
  5
7B
330
1F
100
AcDbEntity
  8
VERMASSUNG
100
AcDbMText
 10
13.933048693
 20
18.0482802738
 30
0.0
 40
2.0
 41
0.0
 71
     1
 72
     1
  1
zu Feinbohrkopf ø55 / für CC.. 09T3..
  7
SLDTEXTSTYLE0
 73
     1
 44
1.0
  0
MTEXT
  5
7C
330
1F
100
AcDbEntity
  8
VERMASSUNG
100
AcDbMText
 10
13.9808475933
 20
13.9090974274
 30
0.0
 40
2.0
 41
0.0
 71
     1
 72
     1
  1
Gewicht: g
  7
SLDTEXTSTYLE0
 73
     1
 44
1.0
  0
ARC
  5
7D
330
1F
100
AcDbEntity
  8
0
  6
Continuous
 62
     7
370
    25
100
AcDbCircle
 10
168.0212294325
 20
143.1647641983
 30
0.0
 40
1.675000000000002
100
AcDbArc
 50
233.8216043437
 51
292.4215374709
  0
ARC
  5
7E
330
1F
100
AcDbEntity
  8
0
  6
Continuous
 62
     7
370
    25
100
AcDbCircle
 10
168.0212294325
 20
143.1647641983
 30
0.0
 40
1.675000000000002
100
AcDbArc
 50
292.4215374709
 51
352.5283792057
  0
ARC
  5
7F
330
1F
100
AcDbEntity
  8
0
  6
Continuous
 62
     7
370
    25
100
AcDbCircle
 10
168.0212294325
 20
143.1647641983
 30
0.0
 40
1.67500000000001
100
AcDbArc
 50
352.5283792057
 51
51.1283123329
  0
LINE
  5
80
330
1F
100
AcDbEntity
  8
0
  6
Continuous
 62
     7
370
    25
100
AcDbLine
 10
169.0049431071
 20
144.5204678557
 30
0.0
 11
169.0724232814
 21
144.4688410718
 31
0.0
  0
ARC
  5
81
330
1F
100
AcDbEntity
  8
0
  6
Continuous
 62
     7
370
    25
100
AcDbCircle
 10
168.0212294325
 20
143.1647641983
 30
0.0
 40
1.675000000000032
100
AcDbArc
 50
54.0349431048
 51
110.4786612711
  0
LINE
  5
82
330
1F
100
AcDbEntity
  8
0
  6
Continuous
 62
     7
370
    25
100
AcDbLine
 10
167.3245504976
 20
144.6880053026
 30
0.0
 11
167.4352164263
 21
144.7339084736
 31
0.0
  0
ARC
  5
83
330
1F
100
AcDbEntity
  8
0
  6
Continuous
 62
     7
370
    25
100
AcDbCircle
 10
168.0212294325
 20
143.1647641983
 30
0.0
 40
1.674999999999994
100
AcDbArc
 50
114.5777531713
 51
170.3721635053
  0
LINE
  5
84
330
1F
100
AcDbEntity
  8
0
  6
Continuous
 62
     7
370
    25
100
AcDbLine
 10
166.3540215518
 20
143.326142272
 30
0.0
 11
166.3698219783
 21
143.4449041994
 31
0.0
  0
ARC
  5
85
330
1F
100
AcDbEntity
  8
0
  6
Continuous
 62
     7
370
    25
100
AcDbCircle
 10
168.0212294325
 20
143.1647641983
 30
0.0
 40
1.674999999999994
100
AcDbArc
 50
174.4712554056
 51
230.9149735719
  0
LINE
  5
86
330
1F
100
AcDbEntity
  8
0
  6
Continuous
 62
     7
370
    25
100
AcDbLine
 10
167.0324746753
 20
141.8127327527
 30
0.0
 11
166.9651871987
 21
141.864610438
 31
0.0
  0
CIRCLE
  5
87
330
1F
100
AcDbEntity
  8
0
  6
Continuous
 62
     7
370
    25
100
AcDbCircle
 10
168.0212294325
 20
143.1647641983
 30
0.0
 40
1.800000000000028
  0
SPLINE
  5
88
330
1F
100
AcDbEntity
  8
0
  6
Continuous
 62
     7
370
    25
100
AcDbSpline
210
0.0
220
0.0
230
1.0
 70
     8
 71
     3
 72
    11
 73
     7
 74
     0
 42
0.000000001
 43
0.00000001
 40
0.0
 40
0.0
 40
0.0
 40
0.0
 40
0.2657596322624683
 40
0.5530029385954874
 40
0.8418208483437787
 40
1.0
 40
1.0
 40
1.0
 40
1.0
 10
166.3540215518367
 20
143.3261422719605
 30
0.0
 10
166.3587972494498
 20
143.291693203546
 30
0.0
 10
166.3687347060583
 20
143.2200102473992
 30
0.0
 10
166.426468073923
 20
143.1244851356823
 30
0.0
 10
166.4986413173222
 20
143.0603402503271
 30
0.0
 10
166.5512404191684
 20
143.0370614008434
 30
0.0
 10
166.5698536988212
 20
143.0288236986731
 30
0.0
  0
SPLINE
  5
89
330
1F
100
AcDbEntity
  8
0
  6
Continuous
 62
     7
370
    25
100
AcDbSpline
210
0.0
220
0.0
230
1.0
 70
     8
 71
     3
 72
    12
 73
     8
 74
     0
 42
0.000000001
 43
0.00000001
 40
0.0
 40
0.0
 40
0.0
 40
0.0
 40
0.2057904614204067
 40
0.4120344203360364
 40
0.6141302471427766
 40
0.8132633242112751
 40
0.9999999999999999
 40
0.9999999999999999
 40
0.9999999999999999
 40
0.9999999999999999
 10
166.5698536988212
 20
143.0288236986731
 30
0.0
 10
166.628619407013
 20
142.9997764004034
 30
0.0
 10
166.7462803245469
 20
142.9416177927486
 30
0.0
 10
166.8745819743608
 20
142.7863801714673
 30
0.0
 10
166.9456779591211
 20
142.6033764279307
 30
0.0
 10
166.9563775165768
 20
142.4114765312214
 30
0.0
 10
166.9159328872383
 20
142.2956462834639
 30
0.0
 10
166.8963602320087
 20
142.2395917332903
 30
0.0
  0
SPLINE
  5
8A
330
1F
100
AcDbEntity
  8
0
  6
Continuous
 62
     7
370
    25
100
AcDbSpline
210
0.0
220
0.0
230
1.0
 70
     8
 71
     3
 72
    11
 73
     7
 74
     0
 42
0.000000001
 43
0.00000001
 40
0.0
 40
0.0
 40
0.0
 40
0.0
 40
0.2802371411012703
 40
0.5612869875923547
 40
0.8399906057824663
 40
1.0
 40
1.0
 40
1.0
 40
1.0
 10
166.8963602320087
 20
142.2395917332903
 30
0.0
 10
166.8842173069933
 20
142.2037078914414
 30
0.0
 10
166.8598962417138
 20
142.1318361423383
 30
0.0
 10
166.8717308321962
 20
142.0164353743565
 30
0.0
 10
166.9110443561042
 20
141.925226253619
 30
0.0
 10
166.9507174488938
 20
141.8808100988625
 30
0.0
 10
166.9651871987404
 20
141.8646104380021
 30
0.0
  0
SPLINE
  5
8B
330
1F
100
AcDbEntity
  8
0
  6
Continuous
 62
     7
370
    25
100
AcDbSpline
210
0.0
220
0.0
230
1.0
 70
     8
 71
     3
 72
    11
 73
     7
 74
     0
 42
0.000000001
 43
0.00000001
 40
0.0
 40
0.0
 40
0.0
 40
0.0
 40
0.2669010467949899
 40
0.55461434107927
 40
0.8439070439785925
 40
0.9999999999999999
 40
0.9999999999999999
 40
0.9999999999999999
 40
0.9999999999999999
 10
167.3245504976136
 20
144.6880053025882
 30
0.0
 10
167.297075066343
 20
144.6665294132533
 30
0.0
 10
167.2399817413334
 20
144.6219030007471
 30
0.0
 10
167.1863369801447
 20
144.5239102423927
 30
0.0
 10
167.1671990662545
 20
144.429587224176
 30
0.0
 10
167.1733492429499
 20
144.3727030174187
 30
0.0
 10
167.1755046766536
 20
144.3527669826456
 30
0.0
  0
SPLINE
  5
8C
330
1F
100
AcDbEntity
  8
0
  6
Continuous
 62
     7
370
    25
100
AcDbSpline
210
0.0
220
0.0
230
1.0
 70
     8
 71
     3
 72
    12
 73
     8
 74
     0
 42
0.000000001
 43
0.00000001
 40
0.0
 40
0.0
 40
0.0
 40
0.0
 40
0.2058401281338004
 40
0.4120619935509942
 40
0.6141387330969778
 40
0.8132772113524505
 40
0.9999999999999999
 40
0.9999999999999999
 40
0.9999999999999999
 40
0.9999999999999999
 10
167.1755046766536
 20
144.3527669826456
 30
0.0
 10
167.1797314244395
 20
144.2873329158924
 30
0.0
 10
167.1881927586539
 20
144.1563434327584
 30
0.0
 10
167.1178861477193
 20
143.9676103572548
 30
0.0
 10
166.9949491969641
 20
143.8145540382359
 30
0.0
 10
166.8341176418872
 20
143.7093505555471
 30
0.0
 10
166.7135884837517
 20
143.6864634070606
 30
0.0
 10
166.6552630117473
 20
143.6753880477122
 30
0.0
  0
SPLINE
  5
8D
330
1F
100
AcDbEntity
  8
0
  6
Continuous
 62
     7
370
    25
100
AcDbSpline
210
0.0
220
0.0
230
1.0
 70
     8
 71
     3
 72
    11
 73
     7
 74
     0
 42
0.000000001
 43
0.00000001
 40
0.0
 40
0.0
 40
0.0
 40
0.0
 40
0.2928993220618883
 40
0.5864344719079081
 40
0.877517886803347
 40
1.0
 40
1.0
 40
1.0
 40
1.0
 10
166.6552630117473
 20
143.6753880477122
 30
0.0
 10
166.6180924524631
 20
143.6679532225754
 30
0.0
 10
166.543670643799
 20
143.6530674327342
 30
0.0
 10
166.4495669678678
 20
143.5850862400865
 30
0.0
 10
166.3940001067507
 20
143.5101150056865
 30
0.0
 10
166.3753464653741
 20
143.459804288024
 30
0.0
 10
166.3698219782991
 20
143.4449041994112
 30
0.0
  0
SPLINE
  5
8E
330
1F
100
AcDbEntity
  8
0
  6
Continuous
 62
     7
370
    25
100
AcDbSpline
210
0.0
220
0.0
230
1.0
 70
     8
 71
     3
 72
    11
 73
     7
 74
     0
 42
0.000000001
 43
0.00000001
 40
0.0
 40
0.0
 40
0.0
 40
0.0
 40
0.2431090893443811
 40
0.5182793655622872
 40
0.7947794085752092
 40
1.0
 40
1.0
 40
1.0
 40
1.0
 10
169.0049431070754
 20
144.5204678556515
 30
0.0
 10
168.9749394404446
 20
144.5345835335944
 30
0.0
 10
168.9109752285432
 20
144.5646764627746
 30
0.0
 10
168.8012187595129
 20
144.5695301119208
 30
0.0
 10
168.7005221873073
 20
144.5433677354617
 30
0.0
 10
168.6474908634245
 20
144.5061043024509
 30
0.0
 10
168.6248986826599
 20
144.490229492002
 30
0.0
  0
SPLINE
  5
8F
330
1F
100
AcDbEntity
  8
0
  6
Continuous
 62
     7
370
    25
100
AcDbSpline
210
0.0
220
0.0
230
1.0
 70
     8
 71
     3
 72
    12
 73
     8
 74
     0
 42
0.000000001
 43
0.00000001
 40
0.0
 40
0.0
 40
0.0
 40
0.0
 40
0.2058179564998933
 40
0.4120215045906982
 40
0.6140779969168003
 40
0.8132130006453402
 40
1.0
 40
1.0
 40
1.0
 40
1.0
 10
168.6248986826599
 20
144.490229492002
 30
0.0
 10
168.5703496787608
 20
144.453854731533
 30
0.0
 10
168.4611494756171
 20
144.381037063957
 30
0.0
 10
168.2625651783363
 20
144.3475524048627
 30
0.0
 10
168.068558145844
 20
144.3774762089109
 30
0.0
 10
167.8970178868855
 20
144.4641465868513
 30
0.0
 10
167.816918664053
 20
144.557095208817
 30
0.0
 10
167.7781504845659
 20
144.6020825224514
 30
0.0
  0
SPLINE
  5
90
330
1F
100
AcDbEntity
  8
0
  6
Continuous
 62
     7
370
    25
100
AcDbSpline
210
0.0
220
0.0
230
1.0
 70
     8
 71
     3
 72
    11
 73
     7
 74
     0
 42
0.000000001
 43
0.00000001
 40
0.0
 40
0.0
 40
0.0
 40
0.0
 40
0.2908641666076346
 40
0.583956078989194
 40
0.8745988053617507
 40
0.9999999999999999
 40
0.9999999999999999
 40
0.9999999999999999
 40
0.9999999999999999
 10
167.7781504845659
 20
144.6020825224515
 30
0.0
 10
167.7532773859585
 20
144.6304130686466
 30
0.0
 10
167.7033406842173
 20
144.6872911463579
 30
0.0
 10
167.5976941066344
 20
144.7349020549395
 30
0.0
 10
167.5045800832068
 20
144.7457694063116
 30
0.0
 10
167.4512813702851
 20
144.736655520511
 30
0.0
 10
167.4352164263319
 20
144.7339084736021
 30
0.0
  0
SPLINE
  5
91
330
1F
100
AcDbEntity
  8
0
  6
Continuous
 62
     7
370
    25
100
AcDbSpline
210
0.0
220
0.0
230
1.0
 70
     8
 71
     3
 72
    12
 73
     8
 74
     0
 42
0.000000001
 43
0.00000001
 40
0.0
 40
0.0
 40
0.0
 40
0.0
 40
0.2058585741213712
 40
0.4121026961456868
 40
0.6141937841967294
 40
0.8133180967416331
 40
0.9999999999999999
 40
0.9999999999999999
 40
0.9999999999999999
 40
0.9999999999999999
 10
167.413596726995
 20
141.842342924057
 30
0.0
 10
167.4681546468002
 20
141.8787223937931
 30
0.0
 10
167.5773726667141
 20
141.9515494675574
 30
0.0
 10
167.7759885346886
 20
141.9850243251544
 30
0.0
 10
167.9700158971122
 20
141.9550727311972
 30
0.0
 10
168.1415260065027
 20
141.8683821000738
 30
0.0
 10
168.2215994190666
 20
141.7754549831711
 30
0.0
 10
168.2603449250889
 20
141.7304898936077
 30
0.0
  0
SPLINE
  5
92
330
1F
100
AcDbEntity
  8
0
  6
Continuous
 62
     7
370
    25
100
AcDbSpline
210
0.0
220
0.0
230
1.0
 70
     8
 71
     3
 72
    11
 73
     7
 74
     0
 42
0.000000001
 43
0.00000001
 40
0.0
 40
0.0
 40
0.0
 40
0.0
 40
0.2524782265335547
 40
0.5068902417933506
 40
0.7591786113116923
 40
1.0
 40
1.0
 40
1.0
 40
1.0
 10
168.2603449250889
 20
141.7304898936077
 30
0.0
 10
168.2852236038285
 20
141.7021484281587
 30
0.0
 10
168.3351715128222
 20
141.6452484234674
 30
0.0
 10
168.4407076148501
 20
141.5978208814258
 30
0.0
 10
168.5541658279456
 20
141.5839370080707
 30
0.0
 10
168.6253432670881
 20
141.6057411069685
 30
0.0
 10
168.66010439167
 20
141.6163896355937
 30
0.0
  0
SPLINE
  5
93
330
1F
100
AcDbEntity
  8
0
  6
Continuous
 62
     7
370
    25
100
AcDbSpline
210
0.0
220
0.0
230
1.0
 70
     8
 71
     3
 72
    11
 73
     7
 74
     0
 42
0.000000001
 43
0.00000001
 40
0.0
 40
0.0
 40
0.0
 40
0.0
 40
0.2423611237744829
 40
0.5166847928456844
 40
0.7923341374632409
 40
1.0
 40
1.0
 40
1.0
 40
1.0
 10
167.0324746752835
 20
141.8127327526675
 30
0.0
 10
167.0624257506289
 20
141.7985053300362
 30
0.0
 10
167.1262778442295
 20
141.7681741746079
 30
0.0
 10
167.2360123790878
 20
141.7629140948355
 30
0.0
 10
167.3372277719608
 20
141.7887985692071
 30
0.0
 10
167.3906449767751
 20
141.8262508267166
 30
0.0
 10
167.413596726995
 20
141.842342924057
 30
0.0
  0
SPLINE
  5
94
330
1F
100
AcDbEntity
  8
0
  6
Continuous
 62
     7
370
    25
100
AcDbSpline
210
0.0
220
0.0
230
1.0
 70
     8
 71
     3
 72
    12
 73
     8
 74
     0
 42
0.000000001
 43
0.00000001
 40
0.0
 40
0.0
 40
0.0
 40
0.0
 40
0.0091735205190255
 40
0.2576775215525433
 40
0.5061895192299467
 40
0.756035743021875
 40
1.0
 40
1.0
 40
1.0
 40
1.0
 10
169.6820076620219
 20
142.9469554006415
 30
0.0
 10
169.6821805505629
 20
142.9483160413227
 30
0.0
 10
169.6870368639759
 20
142.9865354487714
 30
0.0
 10
169.6832126626892
 20
143.0639385132558
 30
0.0
 10
169.6405914737915
 20
143.1685785160559
 30
0.0
 10
169.5674027298452
 20
143.2552442597817
 30
0.0
 10
169.5012995905207
 20
143.2877094667121
 30
0.0
 10
169.4686417108337
 20
143.303748717386
 30
0.0
  0
SPLINE
  5
95
330
1F
100
AcDbEntity
  8
0
  6
Continuous
 62
     7
370
    25
100
AcDbSpline
210
0.0
220
0.0
230
1.0
 70
     8
 71
     3
 72
    12
 73
     8
 74
     0
 42
0.000000001
 43
0.00000001
 40
0.0
 40
0.0
 40
0.0
 40
0.0
 40
0.2057532787804318
 40
0.4119604088044647
 40
0.6140154573248958
 40
0.8131414684040829
 40
1.0
 40
1.0
 40
1.0
 40
1.0
 10
169.4686417108337
 20
143.303748717386
 30
0.0
 10
169.4098839495631
 20
143.3327909972019
 30
0.0
 10
169.2922388189633
 20
143.390939618388
 30
0.0
 10
169.1639447910297
 20
143.5461462706256
 30
0.0
 10
169.0928378292717
 20
143.7291151197706
 30
0.0
 10
169.0821040141486
 20
143.9210276687349
 30
0.0
 10
169.1225533138426
 20
144.0368904738634
 30
0.0
 10
169.1421351776461
 20
144.0929806827688
 30
0.0
  0
SPLINE
  5
96
330
1F
100
AcDbEntity
  8
0
  6
Continuous
 62
     7
370
    25
100
AcDbSpline
210
0.0
220
0.0
230
1.0
 70
     8
 71
     3
 72
    11
 73
     7
 74
     0
 42
0.000000001
 43
0.00000001
 40
0.0
 40
0.0
 40
0.0
 40
0.0
 40
0.2794069064555316
 40
0.5596240257156042
 40
0.8375007392219092
 40
1.0
 40
1.0
 40
1.0
 40
1.0
 10
169.1421351776461
 20
144.0929806827688
 30
0.0
 10
169.1542789543236
 20
144.1288677328246
 30
0.0
 10
169.1786017217091
 20
144.2007458967472
 30
0.0
 10
169.1667589276525
 20
144.3161511362798
 30
0.0
 10
169.1272824387422
 20
144.4077554496398
 30
0.0
 10
169.0872100432412
 20
144.4523760258842
 30
0.0
 10
169.0724232814132
 20
144.4688410718418
 30
0.0
  0
SPLINE
  5
97
330
1F
100
AcDbEntity
  8
0
  6
Continuous
 62
     7
370
    25
100
AcDbSpline
210
0.0
220
0.0
230
1.0
 70
     8
 71
     3
 72
    12
 73
     8
 74
     0
 42
0.000000001
 43
0.00000001
 40
0.0
 40
0.0
 40
0.0
 40
0.0
 40
0.0091681771491201
 40
0.2573268097002284
 40
0.5054934687429685
 40
0.7549925359452744
 40
1.0
 40
1.0
 40
1.0
 40
1.0
 10
168.66010439167
 20
141.6163896355937
 30
0.0
 10
168.6613711939011
 20
141.6169183016368
 30
0.0
 10
168.6969270270135
 20
141.6317565779954
 30
0.0
 10
168.7621270115778
 20
141.6736499603903
 30
0.0
 10
168.8316012064597
 20
141.7627514825209
 30
0.0
 10
168.8703370852684
 20
141.8695978238745
 30
0.0
 10
168.865424643854
 20
141.943292687064
 30
0.0
 10
168.8629907330011
 20
141.9798054334134
 30
0.0
  0
SPLINE
  5
98
330
1F
100
AcDbEntity
  8
0
  6
Continuous
 62
     7
370
    25
100
AcDbSpline
210
0.0
220
0.0
230
1.0
 70
     8
 71
     3
 72
    12
 73
     8
 74
     0
 42
0.000000001
 43
0.00000001
 40
0.0
 40
0.0
 40
0.0
 40
0.0
 40
0.2058435564095039
 40
0.4120691620553628
 40
0.6141397217727315
 40
0.8132604579561095
 40
1.0
 40
1.0
 40
1.0
 40
1.0
 10
168.8629907330011
 20
141.9798054334134
 30
0.0
 10
168.8587639915301
 20
142.045240183557
 30
0.0
 10
168.8503026636819
 20
142.1762311318833
 30
0.0
 10
168.9206105326971
 20
142.3649645628074
 30
0.0
 10
169.04354600424
 20
142.5180166581088
 30
0.0
 10
169.2043738608947
 20
142.6232198993066
 30
0.0
 10
169.3249020245648
 20
142.6461076806327
 30
0.0
 10
169.3832323979076
 20
142.6571843683469
 30
0.0
  0
SPLINE
  5
99
330
1F
100
AcDbEntity
  8
0
  6
Continuous
 62
     7
370
    25
100
AcDbSpline
210
0.0
220
0.0
230
1.0
 70
     8
 71
     3
 72
    11
 73
     7
 74
     0
 42
0.000000001
 43
0.00000001
 40
0.0
 40
0.0
 40
0.0
 40
0.0
 40
0.2535086227483768
 40
0.5075674742604919
 40
0.7595056251925321
 40
1.0
 40
1.0
 40
1.0
 40
1.0
 10
169.3832323979076
 20
142.6571843683469
 30
0.0
 10
169.4204185793621
 20
142.6646194097071
 30
0.0
 10
169.4948716531615
 20
142.6795056298417
 30
0.0
 10
169.5887599916375
 20
142.7474924920602
 30
0.0
 10
169.6573436575634
 20
142.8389349383385
 30
0.0
 10
169.6739146935034
 20
142.9115107832744
 30
0.0
 10
169.6820076620219
 20
142.9469554006415
 30
0.0
  0
CIRCLE
  5
9A
330
1F
100
AcDbEntity
  8
0
  6
Continuous
 62
     7
370
    25
100
AcDbCircle
 10
168.0212294325
 20
143.1647641983
 30
0.0
 40
2.624999999999999
  0
LINE
  5
9B
330
1F
100
AcDbEntity
  8
0
  6
Continuous
 62
     7
370
    25
100
AcDbLine
 10
164.033556451
 20
138.4124405965
 30
0.0
 11
163.740736128
 21
138.0634709246
 31
0.0
  0
LINE
  5
9C
330
1F
100
AcDbEntity
  8
0
  6
Continuous
 62
     7
370
    25
100
AcDbLine
 10
163.740736128
 20
138.0634709246
 30
0.0
 11
163.340736128
 21
138.0634709246
 31
0.0
  0
LINE
  5
9D
330
1F
100
AcDbEntity
  8
0
  6
Continuous
 62
     7
370
    25
100
AcDbLine
 10
163.340736128
 20
146.9230681133
 30
0.0
 11
163.340736128
 21
138.0634709246
 31
0.0
  0
LINE
  5
9E
330
1F
100
AcDbEntity
  8
0
  6
Continuous
 62
     7
370
    25
100
AcDbLine
 10
163.740736128
 20
146.9230681133
 30
0.0
 11
163.340736128
 21
146.9230681133
 31
0.0
  0
LINE
  5
9F
330
1F
100
AcDbEntity
  8
0
  6
Continuous
 62
     7
370
    25
100
AcDbLine
 10
163.8903784948
 20
146.7975032585
 30
0.0
 11
163.740736128
 21
146.9230681133
 31
0.0
  0
LINE
  5
A0
330
1F
100
AcDbEntity
  8
0
  6
Continuous
 62
     7
370
    25
100
AcDbLine
 10
164.033556451
 20
138.5251636799
 30
0.0
 11
164.033556451
 21
138.4124405965
 31
0.0
  0
SPLINE
  5
A1
330
1F
100
AcDbEntity
  8
0
  6
Continuous
 62
     7
370
    25
100
AcDbSpline
210
0.0
220
0.0
230
1.0
 70
    24
 71
     3
 72
    11
 73
     7
 74
     0
 42
0.000000001
 43
0.00000001
 40
0.0
 40
0.0
 40
0.0
 40
0.0
 40
0.00797729904796
 40
0.328773030273192
 40
0.6639702863843858
 40
1.0
 40
1.0
 40
1.0
 40
1.0
 10
164.420810613357
 20
146.3524178634362
 30
0.0
 10
164.4195432836558
 20
146.353481279321
 30
0.0
 10
164.3673120931605
 20
146.3973084520014
 30
0.0
 10
164.2530759610187
 20
146.4931639483489
 30
0.0
 10
164.067686763416
 20
146.6487239556816
 30
0.0
 10
163.9495300970745
 20
146.7478691708298
 30
0.0
 10
163.8903784947951
 20
146.7975032584861
 30
0.0
  0
LINE
  5
A2
330
1F
100
AcDbEntity
  8
0
  6
Continuous
 62
     7
370
    25
100
AcDbLine
 10
172.465736128
 20
139.6019238313
 30
0.0
 11
172.535195399
 21
139.2080007301
 31
0.0
  0
LINE
  5
A3
330
1F
100
AcDbEntity
  8
0
  6
Continuous
 62
     7
370
    25
100
AcDbLine
 10
163.810195399
 20
137.6695478234
 30
0.0
 11
172.535195399
 21
139.2080007301
 31
0.0
  0
LINE
  5
A4
330
1F
100
AcDbEntity
  8
0
  6
Continuous
 62
     7
370
    25
100
AcDbLine
 10
163.740736128
 20
138.0634709246
 30
0.0
 11
163.810195399
 21
137.6695478234
 31
0.0
  0
LINE
  5
A5
330
1F
100
AcDbEntity
  8
0
  6
Continuous
 62
     7
370
    25
100
AcDbLine
 10
164.033556451
 20
138.4124405965
 30
0.0
 11
164.1445670175
 21
138.4320147546
 31
0.0
  0
LINE
  5
A6
330
1F
100
AcDbEntity
  8
0
  6
Continuous
 62
     7
370
    25
100
AcDbLine
 10
172.3160937612
 20
139.7274886861
 30
0.0
 11
172.465736128
 21
139.6019238313
 31
0.0
  0
SPLINE
  5
A7
330
1F
100
AcDbEntity
  8
0
  6
Continuous
 62
     7
370
    25
100
AcDbSpline
210
0.0
220
0.0
230
1.0
 70
    24
 71
     3
 72
     9
 73
     5
 74
     0
 42
0.000000001
 43
0.00000001
 40
0.0
 40
0.0
 40
0.0
 40
0.0
 40
0.0433040437556268
 40
1.0
 40
1.0
 40
1.0
 40
1.0
 10
164.5136203226513
 20
138.9845584402557
 30
0.0
 10
164.5126224991256
 20
138.9833692804842
 30
0.0
 10
164.4895802278007
 20
138.9559085708526
 30
0.0
 10
164.4653023854413
 20
138.9269753650007
 30
0.0
 10
164.4420758718298
 20
138.899295083961
 30
0.0
  0
SPLINE
  5
A8
330
1F
100
AcDbEntity
  8
0
  6
Continuous
 62
     7
370
    25
100
AcDbSpline
210
0.0
220
0.0
230
1.0
 70
     8
 71
     3
 72
    14
 73
    10
 74
     0
 42
0.000000001
 43
0.00000001
 40
0.0
 40
0.0
 40
0.0
 40
0.0
 40
0.12150266132602
 40
0.2571357003576297
 40
0.3367055246585138
 40
0.4166989189531011
 40
0.5090573836363279
 40
0.6599898335533463
 40
1.0
 40
1.0
 40
1.0
 40
1.0
 10
164.4420758718298
 20
138.899295083961
 30
0.0
 10
164.4155249246495
 20
138.9121738404365
 30
0.0
 10
164.3593352385649
 20
138.9394291122957
 30
0.0
 10
164.2782196874979
 20
138.9589858938557
 30
0.0
 10
164.2057074896766
 20
138.9510734553476
 30
0.0
 10
164.1501227569401
 20
138.9220443727186
 30
0.0
 10
164.0976140802978
 20
138.8618039619371
 30
0.0
 10
164.0424582744257
 20
138.7286048807385
 30
0.0
 10
164.0371989088246
 20
138.6084079724799
 30
0.0
 10
164.0335564510021
 20
138.5251636799268
 30
0.0
  0
SPLINE
  5
A9
330
1F
100
AcDbEntity
  8
0
  6
Continuous
 62
     7
370
    25
100
AcDbSpline
210
0.0
220
0.0
230
1.0
 70
    24
 71
     3
 72
    11
 73
     7
 74
     0
 42
0.000000001
 43
0.00000001
 40
0.0
 40
0.0
 40
0.0
 40
0.0
 40
0.3360297136121974
 40
0.6712269697199739
 40
0.9920227009419657
 40
1.0
 40
1.0
 40
1.0
 40
1.0
 10
172.3160937611539
 20
139.7274886860797
 30
0.0
 10
172.256942158873
 20
139.7771227737343
 30
0.0
 10
172.1387854925285
 20
139.8762679888794
 30
0.0
 10
171.9533962949482
 20
140.0318279962362
 30
0.0
 10
171.8391601627491
 20
140.1276834925252
 30
0.0
 10
171.7869289722919
 20
140.1715106652495
 30
0.0
 10
171.78566164259
 20
140.1725740811367
 30
0.0
  0
LINE
  5
AA
330
1F
100
AcDbEntity
  8
0
  6
Continuous
 62
     7
370
    25
100
AcDbLine
 10
163.740736128
 20
146.9230681133
 30
0.0
 11
163.6712768569
 21
147.3169912145
 31
0.0
  0
LINE
  5
AB
330
1F
100
AcDbEntity
  8
0
  6
Continuous
 62
     7
370
    25
100
AcDbLine
 10
172.3962768569
 20
148.8554441212
 30
0.0
 11
163.6712768569
 21
147.3169912145
 31
0.0
  0
LINE
  5
AC
330
1F
100
AcDbEntity
  8
0
  6
Continuous
 62
     7
370
    25
100
AcDbLine
 10
172.465736128
 20
148.46152102
 30
0.0
 11
172.3962768569
 21
148.8554441212
 31
0.0
  0
LINE
  5
AD
330
1F
100
AcDbEntity
  8
0
  6
Continuous
 62
     7
370
    25
100
AcDbLine
 10
172.1729158049
 20
148.112551348
 30
0.0
 11
172.465736128
 21
148.46152102
 31
0.0
  0
LINE
  5
AE
330
1F
100
AcDbEntity
  8
0
  6
Continuous
 62
     7
370
    25
100
AcDbLine
 10
172.1729158049
 20
148.112551348
 30
0.0
 11
172.0619052385
 21
148.09297719
 31
0.0
  0
LINE
  5
AF
330
1F
100
AcDbEntity
  8
0
  6
Continuous
 62
     7
370
    25
100
AcDbLine
 10
172.465736128
 20
148.46152102
 30
0.0
 11
172.865736128
 21
148.46152102
 31
0.0
  0
LINE
  5
B0
330
1F
100
AcDbEntity
  8
0
  6
Continuous
 62
     7
370
    25
100
AcDbLine
 10
172.865736128
 20
139.6019238313
 30
0.0
 11
172.865736128
 21
148.46152102
 31
0.0
  0
LINE
  5
B1
330
1F
100
AcDbEntity
  8
0
  6
Continuous
 62
     7
370
    25
100
AcDbLine
 10
172.465736128
 20
139.6019238313
 30
0.0
 11
172.865736128
 21
139.6019238313
 31
0.0
  0
LINE
  5
B2
330
1F
100
AcDbEntity
  8
0
  6
Continuous
 62
     7
370
    25
100
AcDbLine
 10
172.1729158049
 20
147.9998282646
 30
0.0
 11
172.1729158049
 21
148.112551348
 31
0.0
  0
SPLINE
  5
B3
330
1F
100
AcDbEntity
  8
0
  6
Continuous
 62
     7
370
    25
100
AcDbSpline
210
0.0
220
0.0
230
1.0
 70
     8
 71
     3
 72
    14
 73
    10
 74
     0
 42
0.000000001
 43
0.00000001
 40
0.0
 40
0.0
 40
0.0
 40
0.0
 40
0.3240421732223172
 40
0.4390834530314678
 40
0.5550339035678844
 40
0.6320175773806386
 40
0.7091777148392706
 40
0.81204297826339
 40
1.0
 40
1.0
 40
1.0
 40
1.0
 10
164.1445670174617
 20
138.4320147545538
 30
0.0
 10
164.22216153468
 20
138.4491216908455
 30
0.0
 10
164.327303616088
 20
138.4723019225513
 30
0.0
 10
164.4450437532188
 20
138.5396849403785
 30
0.0
 10
164.500509264481
 20
138.5921028337982
 30
0.0
 10
164.5294590694957
 20
138.652468640699
 30
0.0
 10
164.5345456503873
 20
138.7159703002941
 30
0.0
 10
164.5099869024629
 20
138.8037903390267
 30
0.0
 10
164.4687360780605
 20
138.8618022617756
 30
0.0
 10
164.4420758718298
 20
138.899295083961
 30
0.0
  0
SPLINE
  5
B4
330
1F
100
AcDbEntity
  8
0
  6
Continuous
 62
     7
370
    25
100
AcDbSpline
210
0.0
220
0.0
230
1.0
 70
     8
 71
     3
 72
    14
 73
    10
 74
     0
 42
0.000000001
 43
0.00000001
 40
0.0
 40
0.0
 40
0.0
 40
0.0
 40
0.1215026613286211
 40
0.2571357003598738
 40
0.3367055246605327
 40
0.4166989189548689
 40
0.5090573836378576
 40
0.6599898335543692
 40
1.0
 40
1.0
 40
1.0
 40
1.0
 10
171.7643963841169
 20
147.6256968606049
 30
0.0
 10
171.790947331298
 20
147.6128181041294
 30
0.0
 10
171.8471370173836
 20
147.5855628322705
 30
0.0
 10
171.9282525684512
 20
147.5660060507101
 30
0.0
 10
172.0007647662725
 20
147.5739184892182
 30
0.0
 10
172.0563494990089
 20
147.6029475718472
 30
0.0
 10
172.1088581756513
 20
147.6631879826286
 30
0.0
 10
172.1640139815234
 20
147.7963870638273
 30
0.0
 10
172.1692733471244
 20
147.9165839720859
 30
0.0
 10
172.1729158049469
 20
147.999828264639
 30
0.0
  0
SPLINE
  5
B5
330
1F
100
AcDbEntity
  8
0
  6
Continuous
 62
     7
370
    25
100
AcDbSpline
210
0.0
220
0.0
230
1.0
 70
    24
 71
     3
 72
     9
 73
     5
 74
     0
 42
0.000000001
 43
0.00000001
 40
0.0
 40
0.0
 40
0.0
 40
0.0
 40
0.9566959562429038
 40
1.0
 40
1.0
 40
1.0
 40
1.0
 10
171.7643963841169
 20
147.6256968606049
 30
0.0
 10
171.7411698705062
 20
147.5980165795652
 30
0.0
 10
171.7168920281477
 20
147.5690833737133
 30
0.0
 10
171.6938497568235
 20
147.5416226640815
 30
0.0
 10
171.6928519332978
 20
147.54043350431
 30
0.0
  0
SPLINE
  5
B6
330
1F
100
AcDbEntity
  8
0
  6
Continuous
 62
     7
370
    25
100
AcDbSpline
210
0.0
220
0.0
230
1.0
 70
     8
 71
     3
 72
    14
 73
    10
 74
     0
 42
0.000000001
 43
0.00000001
 40
0.0
 40
0.0
 40
0.0
 40
0.0
 40
0.3240421732228735
 40
0.4390834530322155
 40
0.5550339035688704
 40
0.632017577381764
 40
0.7091777148405474
 40
0.8120429782648237
 40
1.0
 40
1.0
 40
1.0
 40
1.0
 10
172.0619052384874
 20
148.092977190012
 30
0.0
 10
171.984310721269
 20
148.0758702537203
 30
0.0
 10
171.8791686398611
 20
148.0526900220145
 30
0.0
 10
171.7614285027302
 20
147.9853070041873
 30
0.0
 10
171.7059629914681
 20
147.9328891107676
 30
0.0
 10
171.6770131864533
 20
147.8725233038668
 30
0.0
 10
171.6719266055617
 20
147.8090216442717
 30
0.0
 10
171.6964853534863
 20
147.7212016055396
 30
0.0
 10
171.7377361778872
 20
147.6631896827904
 30
0.0
 10
171.7643963841169
 20
147.6256968606049
 30
0.0
  0
LINE
  5
B7
330
1F
100
AcDbEntity
  8
0
  6
Continuous
 62
     7
370
    25
100
AcDbLine
 10
170.4920879503
 20
147.3011723063
 30
0.0
 11
165.3670879503
 21
146.3974965302
 31
0.0
  0
ARC
  5
B8
330
1F
100
AcDbEntity
  8
0
  6
Continuous
 62
     7
370
    25
100
AcDbCircle
 10
170.665736128
 20
146.3163645533
 30
0.0
 40
1.000000000000028
100
AcDbArc
 50
0.0
 51
100.0
  0
LINE
  5
B9
330
1F
100
AcDbEntity
  8
0
  6
Continuous
 62
     7
370
    25
100
AcDbLine
 10
171.665736128
 20
141.1123031674
 30
0.0
 11
171.665736128
 21
146.3163645533
 31
0.0
  0
ARC
  5
BA
330
1F
100
AcDbEntity
  8
0
  6
Continuous
 62
     7
370
    25
100
AcDbCircle
 10
170.665736128
 20
141.1123031674
 30
0.0
 40
1.000000000000036
100
AcDbArc
 50
280.0
 51
0.0
  0
LINE
  5
BB
330
1F
100
AcDbEntity
  8
0
  6
Continuous
 62
     7
370
    25
100
AcDbLine
 10
165.7143843056
 20
139.2238196382
 30
0.0
 11
170.8393843056
 21
140.1274954144
 31
0.0
  0
ARC
  5
BC
330
1F
100
AcDbEntity
  8
0
  6
Continuous
 62
     7
370
    25
100
AcDbCircle
 10
165.540736128
 20
140.2086273913
 30
0.0
 40
1.000000000295387
100
AcDbArc
 50
179.9999999902
 51
280.0
  0
LINE
  5
BD
330
1F
100
AcDbEntity
  8
0
  6
Continuous
 62
     7
370
    25
100
AcDbLine
 10
164.540736128
 20
145.4126887772
 30
0.0
 11
164.5407361277
 21
140.2086273913
 31
0.0
  0
ARC
  5
BE
330
1F
100
AcDbEntity
  8
0
  6
Continuous
 62
     7
370
    25
100
AcDbCircle
 10
165.540736128
 20
145.4126887772
 30
0.0
 40
1.0
100
AcDbArc
 50
100.0
 51
180.0
  0
CIRCLE
  5
BF
330
1F
100
AcDbEntity
  8
0
  6
Continuous
 62
     7
370
    25
100
AcDbCircle
 10
168.103236128
 20
143.2624959723
 30
0.0
 40
3.050000000000011
  0
ARC
  5
C0
330
1F
100
AcDbEntity
  8
0
  6
Continuous
 62
     7
370
    25
100
AcDbCircle
 10
163.740736128
 20
138.0634709246
 30
0.0
 40
0.4000000000000246
100
AcDbArc
 50
179.9999999756
 51
280.0
  0
ARC
  5
C1
330
1F
100
AcDbEntity
  8
0
  6
Continuous
 62
     7
370
    25
100
AcDbCircle
 10
163.740736128
 20
146.9230681133
 30
0.0
 40
0.4000000000000057
100
AcDbArc
 50
100.0
 51
179.9999999756
  0
ARC
  5
C2
330
1F
100
AcDbEntity
  8
0
  6
Continuous
 62
     7
370
    25
100
AcDbCircle
 10
172.465736128
 20
139.6019238313
 30
0.0
 40
0.4000000000000525
100
AcDbArc
 50
280.0
 51
359.9999999756
  0
ARC
  5
C3
330
1F
100
AcDbEntity
  8
0
  6
Continuous
 62
     7
370
    25
100
AcDbCircle
 10
172.465736128
 20
148.46152102
 30
0.0
 40
0.3999999999999773
100
AcDbArc
 50
0.0000000244
 51
100.0
  0
ARC
  5
C4
330
1F
100
AcDbEntity
  8
0
  6
Continuous
 62
     7
370
    25
100
AcDbCircle
 10
164.1212294325
 20
138.5169251872
 30
0.0
 40
1.650000000000008
100
AcDbArc
 50
117.2673607373
 51
342.7326392627
  0
LINE
  5
C5
330
1F
100
AcDbEntity
  8
0
  6
Continuous
 62
     7
370
    25
100
AcDbLine
 10
172.565736128
 20
129.66152102
 30
0.0
 11
172.565736128
 21
139.2146254967
 31
0.0
  0
LINE
  5
C6
330
1F
100
AcDbEntity
  8
0
  6
Continuous
 62
     7
370
    25
100
AcDbLine
 10
158.8472338694
 20
129.66152102
 30
0.0
 11
172.565736128
 21
129.66152102
 31
0.0
  0
LINE
  5
C7
330
1F
100
AcDbEntity
  8
0
  6
Continuous
 62
     7
370
    25
100
AcDbLine
 10
158.8472338694
 20
129.66152102
 30
0.0
 11
158.8472338694
 21
145.9581612573
 31
0.0
  0
LINE
  5
C8
330
1F
100
AcDbEntity
  8
0
  6
Continuous
 62
     7
370
    25
100
AcDbLine
 10
158.8472338694
 20
145.9581612573
 30
0.0
 11
163.340736128
 21
146.7504869433
 31
0.0
  0
ARC
  5
C9
330
1F
100
AcDbEntity
  8
0
  6
Continuous
 62
     7
370
    25
100
AcDbCircle
 10
183.015736128
 20
89.66152102
 30
0.0
 40
39.99999999999998
100
AcDbArc
 50
107.3265567112
 51
130.8249361568
  0
SPLINE
  5
CA
330
1F
100
AcDbEntity
  8
0
  6
Continuous
 62
     7
370
    25
100
AcDbSpline
210
0.0
220
0.0
230
1.0
 70
     8
 71
     3
 72
    10
 73
     6
 74
     0
 42
0.000000001
 43
0.00000001
 40
0.0
 40
0.0
 40
0.0
 40
0.0
 40
0.3631640318746671
 40
0.7262058561906193
 40
0.9999999999999999
 40
0.9999999999999999
 40
0.9999999999999999
 40
0.9999999999999999
 10
156.8657361279751
 20
129.1835249682924
 30
0.0
 10
156.9454772388816
 20
129.1900435699032
 30
0.0
 10
157.1049326271825
 20
129.2030785795638
 30
0.0
 10
157.2643337912972
 20
129.2329327092766
 30
0.0
 10
157.316184621955
 20
129.2541136987858
 30
0.0
 10
157.3384767890063
 20
129.2632200168614
 30
0.0
  0
ELLIPSE
  5
CB
330
1F
100
AcDbEntity
  8
0
  6
Continuous
 62
     7
370
    25
100
AcDbEllipse
 10
158.8472338694
 20
89.66152102
 30
0.0
 11
-3.979039320256561E-13
 21
39.99999999999999
 31
0.0
210
0.0
220
0.0
230
1.0
 40
0.2679491924
 41
0.0
 42
0.141238057785961
  0
ELLIPSE
  5
CC
330
1F
100
AcDbEntity
  8
0
  6
Continuous
 62
     7
370
    25
100
AcDbEllipse
 10
172.565736128
 20
89.66152102
 30
0.0
 11
-4.263256414560601E-13
 21
40.00000000000001
 31
0.0
210
0.0
220
0.0
230
1.0
 40
0.1227845609
 41
0.0
 42
0.302405462643541
  0
ELLIPSE
  5
CD
330
1F
100
AcDbEntity
  8
0
  6
Continuous
 62
     7
370
    25
100
AcDbEllipse
 10
158.9008237079
 20
105.3510538328
 30
0.0
 11
0.5352572967201468
 21
40.6607632293965
 31
0.0
210
0.0
220
0.0
230
1.0
 40
0.263265937
 41
0.0549609884827529
 42
0.1962511498552395
  0
LINE
  5
CE
330
1F
100
AcDbEntity
  8
0
  6
Continuous
 62
     7
370
    25
100
AcDbLine
 10
156.865736128
 20
129.1835249683
 30
0.0
 11
156.865736128
 21
128.6557130549
 31
0.0
  0
SPLINE
  5
CF
330
1F
100
AcDbEntity
  8
0
  6
Continuous
 62
     7
370
    25
100
AcDbSpline
210
0.0
220
0.0
230
1.0
 70
     8
 71
     3
 72
     9
 73
     5
 74
     0
 42
0.000000001
 43
0.00000001
 40
0.0
 40
0.0
 40
0.0
 40
0.0
 40
0.9305794669409668
 40
1.0
 40
1.0
 40
1.0
 40
1.0
 10
156.358680891893
 20
127.7940460538148
 30
0.0
 10
156.516718105613
 20
128.0643503675734
 30
0.0
 10
156.6865447774172
 20
128.3548191812118
 30
0.0
 10
156.8541040723985
 20
128.6361807825642
 30
0.0
 10
156.8657361279751
 20
128.6557130549125
 30
0.0
  0
SPLINE
  5
D0
330
1F
100
AcDbEntity
  8
0
  6
Continuous
 62
     7
370
    25
100
AcDbSpline
210
0.0
220
0.0
230
1.0
 70
     8
 71
     3
 72
    12
 73
     8
 74
     0
 42
0.000000001
 43
0.00000001
 40
0.0
 40
0.0
 40
0.0
 40
0.0
 40
0.2136856735991118
 40
0.4271966192497315
 40
0.6450178683506501
 40
0.8665306531673101
 40
1.0
 40
1.0
 40
1.0
 40
1.0
 10
156.3586808918929
 20
144.9971860734692
 30
0.0
 10
156.4484302894754
 20
145.0105824304465
 30
0.0
 10
156.6278556977452
 20
145.0373641903771
 30
0.0
 10
156.8949800313577
 20
145.0963522242039
 30
0.0
 10
157.1237373416415
 20
145.1611386519136
 30
0.0
 10
157.2731857301354
 20
145.2179889993352
 30
0.0
 10
157.320636009798
 20
145.2476409469954
 30
0.0
 10
157.3384767890061
 20
145.2587897506496
 30
0.0
  0
LINE
  5
D1
330
1F
100
AcDbEntity
  8
0
  6
Continuous
 62
     7
370
    25
100
AcDbLine
 10
155.065736128
 20
66.2916145253
 30
0.0
 11
155.065736128
 21
144.8246116016
 31
0.0
  0
LINE
  5
D2
330
1F
100
AcDbEntity
  8
0
  6
Continuous
 62
     7
370
    25
100
AcDbLine
 10
134.6141251603
 20
68.1650272155
 30
0.0
 11
134.6141251603
 21
122.5099100523
 31
0.0
  0
LINE
  5
D3
330
1F
100
AcDbEntity
  8
0
  6
Continuous
 62
     7
370
    25
100
AcDbLine
 10
135.965736128
 20
123.86152102
 30
0.0
 11
134.6141251603
 21
122.5099100523
 31
0.0
  0
LINE
  5
D4
330
1F
100
AcDbEntity
  8
0
  6
Continuous
 62
     7
370
    25
100
AcDbLine
 10
135.965736128
 20
139.8094202314
 30
0.0
 11
135.965736128
 21
123.86152102
 31
0.0
  0
LINE
  5
D5
330
1F
100
AcDbEntity
  8
0
  6
Continuous
 62
     7
370
    25
100
AcDbLine
 10
135.965736128
 20
139.8094202314
 30
0.0
 11
137.965736128
 21
141.8094202314
 31
0.0
  0
LINE
  5
D6
330
1F
100
AcDbEntity
  8
0
  6
Continuous
 62
     7
370
    25
100
AcDbLine
 10
134.6136401566
 20
68.1655552495
 30
0.0
 11
136.3397777767
 21
66.2862718041
 31
0.0
  0
LINE
  5
D7
330
1F
100
AcDbEntity
  8
0
  6
Continuous
 62
     7
370
    25
100
AcDbLine
 10
136.3397505283
 20
66.2916145253
 30
0.0
 11
155.065736128
 21
66.2916145253
 31
0.0
  0
LINE
  5
D8
330
1F
100
AcDbEntity
  8
0
  6
Continuous
 62
     7
370
    25
100
AcDbLine
 10
137.965736128
 20
141.8094202314
 30
0.0
 11
155.065736128
 21
144.8246116016
 31
0.0
  0
LINE
  5
D9
330
1F
100
AcDbEntity
  8
0
  6
Continuous
 62
     7
370
    25
100
AcDbLine
 10
133.4650896934
 20
69.9270993641
 30
0.0
 11
133.4650896934
 21
121.05299146
 31
0.0
  0
LINE
  5
DA
330
1F
100
AcDbEntity
  8
0
  6
Continuous
 62
     7
370
    25
100
AcDbLine
 10
133.4650896934
 20
121.05299146
 30
0.0
 11
134.6141251603
 21
122.5099100523
 31
0.0
  0
SPLINE
  5
DB
330
1F
100
AcDbEntity
  8
0
  6
Continuous
 62
     7
370
    25
100
AcDbSpline
210
0.0
220
0.0
230
1.0
 70
     8
 71
     3
 72
     9
 73
     5
 74
     0
 42
0.000000001
 43
0.00000001
 40
0.0
 40
0.0
 40
0.0
 40
0.0
 40
0.4022689630398691
 40
1.0
 40
1.0
 40
1.0
 40
1.0
 10
134.6141288730956
 20
68.1669776541077
 30
0.0
 10
134.4590154799492
 20
68.40163296806419
 30
0.0
 10
134.073419256034
 20
68.9849623708181
 30
0.0
 10
133.6926733428726
 20
69.57463420634491
 30
0.0
 10
133.4650896933803
 20
69.92709936406054
 30
0.0
  0
SPLINE
  5
DC
330
1F
100
AcDbEntity
  8
0
  6
Continuous
 62
     7
370
    25
100
AcDbSpline
210
0.0
220
0.0
230
1.0
 70
     8
 71
     3
 72
     9
 73
     5
 74
     0
 42
0.000000001
 43
0.00000001
 40
0.0
 40
0.0
 40
0.0
 40
0.0
 40
0.5649740345281548
 40
1.0
 40
1.0
 40
1.0
 40
1.0
 10
156.1585564510027
 20
127.1490856247874
 30
0.0
 10
156.1742503837034
 20
127.2782935040013
 30
0.0
 10
156.2020285323291
 20
127.5069905260188
 30
0.0
 10
156.3111919644433
 20
127.7070256018313
 30
0.0
 10
156.358680891893
 20
127.7940460538148
 30
0.0
  0
LINE
  5
DD
330
1F
100
AcDbEntity
  8
0
  6
Continuous
 62
     7
370
    25
100
AcDbLine
 10
156.158556451
 20
127.1490856248
 30
0.0
 11
156.158556451
 21
66.3360133258
 31
0.0
  0
ELLIPSE
  5
DE
330
1F
100
AcDbEntity
  8
0
  6
Continuous
 62
     7
370
    25
100
AcDbEllipse
 10
133.2332389037
 20
105.86152102
 30
0.0
 11
149.2820323027526
 21
1.577404873387422E-12
 31
0.0
210
0.0
220
0.0
230
1.0
 40
0.2679491924
 41
4.859165421731894
 42
4.866569617999825
  0
ELLIPSE
  5
DF
330
1F
100
AcDbEntity
  8
0
  6
Continuous
 62
     7
370
    25
100
AcDbEllipse
 10
132.4868287422
 20
100.693553852
 30
0.0
 11
149.095759741144
 21
28.31802889254317
 31
0.0
210
0.0
220
0.0
230
1.0
 40
0.263265937
 41
1.3602347783089
 42
1.369002660408417
  0
LINE
  5
E0
330
1F
100
AcDbEntity
  8
0
  6
Continuous
 62
     7
370
    25
100
AcDbLine
 10
156.865736128
 20
127.1490856248
 30
0.0
 11
156.865736128
 21
128.6557130549
 31
0.0
  0
LINE
  5
E1
330
1F
100
AcDbEntity
  8
0
  6
Continuous
 62
     7
370
    25
100
AcDbLine
 10
156.865736128
 20
127.1490856248
 30
0.0
 11
156.865736128
 21
66.4524167419
 31
0.0
  0
ARC
  5
E2
330
1F
100
AcDbEntity
  8
0
  6
Continuous
 62
     7
370
    25
100
AcDbCircle
 10
150.015736128
 20
105.86152102
 30
0.0
 40
39.99999999999999
100
AcDbArc
 50
278.833899818
 51
279.860504645
  0
LINE
  5
E3
330
1F
100
AcDbEntity
  8
VERMASSUNG
100
AcDbLine
 10
172.465736128
 20
148.86152102
 30
0.0
 11
175.5668295251
 21
148.86152102
 31
0.0
  0
DIMENSION
  5
E4
330
1F
100
AcDbEntity
  8
VERMASSUNG
100
AcDbDimension
  2
_D
 10
187.0022704567
 20
66.2916145253
 30
0.0
 11
187.0022704567
 21
106.6729464155
 31
0.0
 70
   160
  1
min.%%c86 - max.%%c138
 71
     2
 42
-1.0
  3
SLDDIMSTYLE0
100
AcDbAlignedDimension
 13
175.5668295251
 23
148.86152102
 33
0.0
 14
155.065736128
 24
66.2916145253
 34
0.0
 50
90.0
100
AcDbRotatedDimension
  0
DIMENSION
  5
F1
330
1F
100
AcDbEntity
  8
VERMASSUNG
100
AcDbDimension
  2
_D_1
 10
175.5668295251
 20
148.86152102
 30
0.0
 11
178.2308062073
 21
143.4964509406
 31
0.0
 70
   162
  1
<>
 71
     1
 42
-1.0
  3
SLDDIMSTYLE1
100
AcDb2LineAngularDimension
 13
172.865736128
 23
139.6019238313
 33
0.0
 14
172.865736128
 24
148.46152102
 34
0.0
 15
172.465736128
 25
148.86152102
 35
0.0
 16
178.2308062073
 26
143.4964509406
 36
0.0
  0
DIMENSION
  5
FB
330
1F
100
AcDbEntity
  8
VERMASSUNG
100
AcDbDimension
  2
_D_2
 10
133.4650896934
 20
158.86152102
 30
0.0
 11
153.1654129107
 21
158.86152102
 31
0.0
 70
   160
  1
<>
 71
     2
 42
-1.0
  3
SLDDIMSTYLE2
100
AcDbAlignedDimension
 13
172.865736128
 23
148.46152102
 33
0.0
 14
133.4650896934
 24
121.05299146
 34
0.0
 50
0.0
100
AcDbRotatedDimension
  0
LINE
  5
106
330
1F
100
AcDbEntity
  8
VERMASSUNG
  6
CENTERX2
 62
     7
370
    18
100
AcDbLine
 10
131.7045585216
 20
105.86152102
 30
0.0
 11
160.3190143737
 21
105.86152102
 31
0.0
  0
LINE
  5
107
330
1F
100
AcDbEntity
  8
0
  6
Continuous
 62
     7
370
    25
100
AcDbLine
 10
215.8861853014
 20
67.8976331166
 30
0.0
 11
216.3432665564
 21
68.1615005086
 31
0.0
  0
LINE
  5
108
330
1F
100
AcDbEntity
  8
0
  6
Continuous
 62
     7
370
    25
100
AcDbLine
 10
213.7737392382
 20
72.740157365
 30
0.0
 11
213.2613981142
 21
72.4443891297
 31
0.0
  0
LINE
  5
109
330
1F
100
AcDbEntity
  8
0
  6
Continuous
 62
     7
370
    25
100
AcDbLine
 10
215.4695841188
 20
69.7212875447
 30
0.0
 11
215.3790745848
 21
69.6690375029
 31
0.0
  0
LINE
  5
10A
330
1F
100
AcDbEntity
  8
0
  6
Continuous
 62
     7
370
    25
100
AcDbLine
 10
214.2356989086
 20
71.2115100204
 30
0.0
 11
214.4825269879
 21
71.3540008375
 31
0.0
  0
LINE
  5
10B
330
1F
100
AcDbEntity
  8
0
  6
Continuous
 62
     7
370
    25
100
AcDbLine
 10
215.283038216
 20
69.3440214399
 30
0.0
 11
214.6187070774
 21
68.9605112368
 31
0.0
  0
LINE
  5
10C
330
1F
100
AcDbEntity
  8
0
  6
Continuous
 62
     7
370
    25
100
AcDbLine
 10
213.4502937037
 20
70.4885282782
 30
0.0
 11
214.4037297503
 21
71.0389351921
 31
0.0
  0
LINE
  5
10D
330
1F
100
AcDbEntity
  8
0
  6
Continuous
 62
     7
370
    25
100
AcDbLine
 10
218.2027817261
 20
64.1459236886
 30
0.0
 11
218.9386306336
 21
64.7329559698
 31
0.0
  0
LINE
  5
10E
330
1F
100
AcDbEntity
  8
0
  6
Continuous
 62
     7
370
    25
100
AcDbLine
 10
212.9372219863
 20
77.1796765911
 30
0.0
 11
210.4517945266
 21
76.2049903053
 31
0.0
  0
LWPOLYLINE
  5
10F
330
1F
100
AcDbEntity
  8
0
  6
Continuous
 62
     7
370
    25
100
AcDbPolyline
 90
       28
 70
   128
 43
0.0
 10
215.2817626153
 20
67.7809251966
 10
215.658378951
 20
67.8054550454
 10
215.976524437
 20
67.9575128369
 10
216.21904794
 20
68.2289006926
 10
216.3728734004
 20
68.604989882
 10
216.429713694
 20
69.0655011239
 10
216.3864973692
 20
69.5856126214
 10
216.2455609419
 20
70.137281764
 10
216.0144961133
 20
70.6907706025
 10
215.7057625455
 20
71.216239742
 10
215.3360056093
 20
71.685357418
 10
214.92515813
 20
72.072837068
 10
214.4953682765
 20
72.3577893335
 10
214.0698036446
 20
72.5248535171
 10
213.6714131932
 20
72.5650187661
 10
213.3216681075
 20
72.4761228178
 10
213.0394238339
 20
72.2629598785
 10
212.8399006531
 20
71.9370174079
 10
212.7338512797
 20
71.5158691915
 10
212.7269918801
 20
71.0222201457
 10
212.8196965076
 20
70.4826804232
 10
213.006962858
 20
69.9263403019
 10
213.2786967613
 20
69.3831907307
 10
213.6202521874
 20
68.8825111985
 10
214.0132109637
 20
68.4512964096
 10
214.4363916645
 20
68.1127917271
 10
214.866979674
 20
67.8852453592
 10
215.2817626153
 20
67.7809251966
  0
LWPOLYLINE
  5
110
330
1F
100
AcDbEntity
  8
0
  6
Continuous
 62
     7
370
    25
100
AcDbPolyline
 90
       23
 70
   128
 43
0.0
 10
214.8644931746
 20
68.4196590456
 10
215.1763060966
 20
68.4526269936
 10
215.4235289732
 20
68.6156995189
 10
215.586134149
 20
68.8956639808
 10
215.6509454653
 20
69.2698406186
 10
215.6127130053
 20
69.7079168888
 10
215.4745345625
 20
70.1744007582
 10
215.2476053934
 20
70.6315013132
 10
214.9503094265
 20
71.0421872572
 10
214.6067309516
 20
71.3731860356
 10
214.244705328
 20
71.597683297
 10
213.8935614938
 20
71.6974900002
 10
213.5817459376
 20
71.6645235728
 10
213.334523061
 20
71.5014510475
 10
213.1719205194
 20
71.2214850649
 10
213.1071092031
 20
70.8473084271
 10
213.1453416631
 20
70.4092321569
 10
213.2835201059
 20
69.9427482875
 10
213.510449275
 20
69.4856477325
 10
213.8077452419
 20
69.0749617885
 10
214.1513237167
 20
68.7439630101
 10
214.5133493404
 20
68.5194665092
 10
214.8644931746
 20
68.4196590456
  0
LWPOLYLINE
  5
111
330
1F
100
AcDbEntity
  8
0
  6
Continuous
 62
     7
370
    25
100
AcDbPolyline
 90
        3
 70
   128
 43
0.0
 10
213.9659999903
 20
72.8225517877
 10
213.8340092316
 20
72.7718910531
 10
213.7737392382
 20
72.740157365
  0
ARC
  5
112
330
1F
100
AcDbEntity
  8
0
  6
Continuous
 62
     7
370
    25
100
AcDbCircle
 10
214.2908849494
 20
69.4475456988
 30
0.0
 40
1.284581777907287
100
AcDbArc
 50
324.375343141
 51
22.9379234975
  0
ARC
  5
113
330
1F
100
AcDbEntity
  8
0
  6
Continuous
 62
     7
370
    25
100
AcDbCircle
 10
212.8793295008
 20
69.1862305077
 30
0.0
 40
2.704133219164454
100
AcDbArc
 50
16.3662308997
 51
52.2984002937
  0
ARC
  5
114
330
1F
100
AcDbEntity
  8
0
  6
Continuous
 62
     7
370
    25
100
AcDbCircle
 10
213.9171253985
 20
70.7091164119
 30
0.0
 40
0.8715489896151898
100
AcDbArc
 50
45.0338106996
 51
121.8737659239
  0
LINE
  5
115
330
1F
100
AcDbEntity
  8
0
  6
Continuous
 62
     7
370
    25
100
AcDbLine
 10
213.420399899
 20
71.4152210928
 30
0.0
 11
213.4569043381
 21
71.4492476279
 31
0.0
  0
ARC
  5
116
330
1F
100
AcDbEntity
  8
0
  6
Continuous
 62
     7
370
    25
100
AcDbCircle
 10
214.4393550676
 20
70.6796454482
 30
0.0
 40
1.256718411084889
100
AcDbArc
 50
144.1747812376
 51
201.4243005608
  0
LINE
  5
117
330
1F
100
AcDbEntity
  8
0
  6
Continuous
 62
     7
370
    25
100
AcDbLine
 10
213.3019330103
 20
70.1115012936
 30
0.0
 11
213.2694746686
 21
70.2206018589
 31
0.0
  0
ARC
  5
118
330
1F
100
AcDbEntity
  8
0
  6
Continuous
 62
     7
370
    25
100
AcDbCircle
 10
215.8969375442
 20
70.9401596475
 30
0.0
 40
2.724100438379138
100
AcDbArc
 50
197.7097534539
 51
230.9548302704
  0
LINE
  5
119
330
1F
100
AcDbEntity
  8
0
  6
Continuous
 62
     7
370
    25
100
AcDbLine
 10
214.2649147418
 20
68.7631069151
 30
0.0
 11
214.1809371462
 21
68.8244881625
 31
0.0
  0
ARC
  5
11A
330
1F
100
AcDbEntity
  8
0
  6
Continuous
 62
     7
370
    25
100
AcDbCircle
 10
214.8450497944
 20
69.3859726703
 30
0.0
 40
0.8511864826404141
100
AcDbArc
 50
227.0342962604
 51
302.1798789309
  0
LINE
  5
11B
330
1F
100
AcDbEntity
  8
0
  6
Continuous
 62
     7
370
    25
100
AcDbLine
 10
215.3350574698
 20
68.6993117168
 30
0.0
 11
215.2983739066
 21
68.6655452433
 31
0.0
  0
SPLINE
  5
11C
330
1F
100
AcDbEntity
  8
0
  6
Continuous
 62
     7
370
    25
100
AcDbSpline
210
0.0
220
0.0
230
1.0
 70
     8
 71
     3
 72
    12
 73
     8
 74
     0
 42
0.000000001
 43
0.00000001
 40
0.0
 40
0.0
 40
0.0
 40
0.0
 40
0.0091694777515731
 40
0.2573252920555237
 40
0.5054916389862752
 40
0.7549896125041619
 40
1.0
 40
1.0
 40
1.0
 40
1.0
 10
215.4738918230131
 20
69.94819036440303
 30
0.0
 10
215.4735185449922
 20
69.94944107384796
 30
0.0
 10
215.463043152789
 20
69.98454003825086
 30
0.0
 10
215.4347918650539
 20
70.0556707592474
 30
0.0
 10
215.3774594736598
 20
70.15204377562065
 30
0.0
 10
215.3106756369332
 20
70.23234981279332
 30
0.0
 10
215.2664485963329
 20
70.26297241204692
 30
0.0
 10
215.2445357527702
 20
70.2781447640247
 30
0.0
  0
SPLINE
  5
11D
330
1F
100
AcDbEntity
  8
0
  6
Continuous
 62
     7
370
    25
100
AcDbSpline
210
0.0
220
0.0
230
1.0
 70
     8
 71
     3
 72
    12
 73
     8
 74
     0
 42
0.000000001
 43
0.00000001
 40
0.0
 40
0.0
 40
0.0
 40
0.0
 40
0.2058426713947989
 40
0.4120692249270598
 40
0.6141386377374104
 40
0.8132614946680601
 40
1.0
 40
1.0
 40
1.0
 40
1.0
 10
215.2445357527702
 20
70.2781447640247
 30
0.0
 10
215.2051739178342
 20
70.3053918753644
 30
0.0
 10
215.1263768409021
 20
70.35993691199441
 30
0.0
 10
215.0040302567717
 20
70.50079832728468
 30
0.0
 10
214.894985643072
 20
70.66318433066198
 30
0.0
 10
214.8088596554707
 20
70.8306769712018
 30
0.0
 10
214.7796778577105
 20
70.93093285965077
 30
0.0
 10
214.7655552586902
 20
70.97945193046394
 30
0.0
  0
SPLINE
  5
11E
330
1F
100
AcDbEntity
  8
0
  6
Continuous
 62
     7
370
    25
100
AcDbSpline
210
0.0
220
0.0
230
1.0
 70
     8
 71
     3
 72
    11
 73
     7
 74
     0
 42
0.000000001
 43
0.00000001
 40
0.0
 40
0.0
 40
0.0
 40
0.0
 40
0.2535095585884548
 40
0.5075660948857198
 40
0.7595000035552314
 40
1.0
 40
1.0
 40
1.0
 40
1.0
 10
214.7655552586902
 20
70.97945193046394
 30
0.0
 10
214.7562581357001
 20
71.01051900878998
 30
0.0
 10
214.7376438300463
 20
71.07272019644245
 30
0.0
 10
214.6807940936301
 20
71.17206978160202
 30
0.0
 10
214.6104542424947
 20
71.26211988829169
 30
0.0
 10
214.5584420682402
 20
71.3048763366493
 30
0.0
 10
214.5330398211703
 20
71.32575817596052
 30
0.0
  0
SPLINE
  5
11F
330
1F
100
AcDbEntity
  8
0
  6
Continuous
 62
     7
370
    25
100
AcDbSpline
210
0.0
220
0.0
230
1.0
 70
     8
 71
     3
 72
    11
 73
     7
 74
     0
 42
0.000000001
 43
0.00000001
 40
0.0
 40
0.0
 40
0.0
 40
0.0
 40
0.1489966248260785
 40
0.4386270392634479
 40
0.7258419278815058
 40
0.9999999999999999
 40
0.9999999999999999
 40
0.9999999999999999
 40
0.9999999999999999
 10
215.4420457630599
 20
69.69691936723109
 30
0.0
 10
215.4501505498458
 20
69.7006183045364
 30
0.0
 10
215.4740100073061
 20
69.71150750367464
 30
0.0
 10
215.4933729629236
 20
69.76599224244966
 30
0.0
 10
215.4979553973797
 20
69.84888071155075
 30
0.0
 10
215.4817876675685
 20
69.91560444969952
 30
0.0
 10
215.4738918230131
 20
69.94819036440303
 30
0.0
  0
SPLINE
  5
120
330
1F
100
AcDbEntity
  8
0
  6
Continuous
 62
     7
370
    25
100
AcDbSpline
210
0.0
220
0.0
230
1.0
 70
     8
 71
     3
 72
    11
 73
     7
 74
     0
 42
0.000000001
 43
0.00000001
 40
0.0
 40
0.0
 40
0.0
 40
0.0
 40
0.2531093916957493
 40
0.5066938659221245
 40
0.7551707232704519
 40
0.9999999999999999
 40
0.9999999999999999
 40
0.9999999999999999
 40
0.9999999999999999
 10
215.3415087364765
 20
69.03840984808629
 30
0.0
 10
215.3226638117444
 20
69.10187350852237
 30
0.0
 10
215.2849385906391
 20
69.22891994973297
 30
0.0
 10
215.272915303795
 20
69.41009337535246
 30
0.0
 10
215.2914511882216
 20
69.55994251540612
 30
0.0
 10
215.3298726936035
 20
69.61672696815009
 30
0.0
 10
215.3489413990659
 20
69.64490925808002
 30
0.0
  0
LINE
  5
121
330
1F
100
AcDbEntity
  8
0
  6
Continuous
 62
     7
370
    25
100
AcDbLine
 10
215.3823831124
 20
69.663226356
 30
0.0
 11
215.4207583118
 21
69.6842481597
 31
0.0
  0
SPLINE
  5
122
330
1F
100
AcDbEntity
  8
0
  6
Continuous
 62
     7
370
    25
100
AcDbSpline
210
0.0
220
0.0
230
1.0
 70
     8
 71
     3
 72
    11
 73
     7
 74
     0
 42
0.000000001
 43
0.00000001
 40
0.0
 40
0.0
 40
0.0
 40
0.0
 40
0.2423634426367384
 40
0.5166878481932444
 40
0.7923374510263999
 40
0.9999999999999999
 40
0.9999999999999999
 40
0.9999999999999999
 40
0.9999999999999999
 10
215.3350574698402
 20
68.69931171684078
 30
0.0
 10
215.3458188654603
 20
68.7183643794365
 30
0.0
 10
215.3687607839528
 20
68.7589822182155
 30
0.0
 10
215.3788921304732
 20
68.85014238024736
 30
0.0
 10
215.3692924942123
 20
68.94837794830384
 30
0.0
 10
215.3498587468965
 20
69.01135205020073
 30
0.0
 10
215.3415087364765
 20
69.0384098480863
 30
0.0
  0
SPLINE
  5
123
330
1F
100
AcDbEntity
  8
0
  6
Continuous
 62
     7
370
    25
100
AcDbSpline
210
0.0
220
0.0
230
1.0
 70
     8
 71
     3
 72
    12
 73
     8
 74
     0
 42
0.000000001
 43
0.00000001
 40
0.0
 40
0.0
 40
0.0
 40
0.0
 40
0.0091725039123656
 40
0.2576784537986404
 40
0.5061869076005223
 40
0.7560344704566071
 40
0.9999999999999999
 40
0.9999999999999999
 40
0.9999999999999999
 40
0.9999999999999999
 10
214.5330398211703
 20
71.32575817596052
 30
0.0
 10
214.5320784117477
 20
71.32645512688647
 30
0.0
 10
214.5050700293199
 20
71.34603421223648
 30
0.0
 10
214.4517095046777
 20
71.37529514314733
 30
0.0
 10
214.38338826606
 20
71.38648271525864
 30
0.0
 10
214.3308582015793
 20
71.3671501638734
 30
0.0
 10
214.3157560239292
 20
71.33096147690577
 30
0.0
 10
214.3082948795724
 20
71.31308266341247
 30
0.0
  0
SPLINE
  5
124
330
1F
100
AcDbEntity
  8
0
  6
Continuous
 62
     7
370
    25
100
AcDbSpline
210
0.0
220
0.0
230
1.0
 70
     8
 71
     3
 72
    12
 73
     8
 74
     0
 42
0.000000001
 43
0.00000001
 40
0.0
 40
0.0
 40
0.0
 40
0.0
 40
0.2057534217084581
 40
0.4119585188770926
 40
0.6140153472112647
 40
0.8131432632884272
 40
1.0
 40
1.0
 40
1.0
 40
1.0
 10
214.3082948795724
 20
71.31308266341247
 30
0.0
 10
214.294655737128
 20
71.28094141912501
 30
0.0
 10
214.2673475112258
 20
71.2165883732238
 30
0.0
 10
214.1686701884611
 20
71.18157466017472
 30
0.0
 10
214.0384310779828
 20
71.19770680793134
 30
0.0
 10
213.890965950455
 20
71.26048901973421
 30
0.0
 10
213.7960275225225
 20
71.33330230946015
 30
0.0
 10
213.7500674443074
 20
71.36855151848732
 30
0.0
  0
SPLINE
  5
125
330
1F
100
AcDbEntity
  8
0
  6
Continuous
 62
     7
370
    25
100
AcDbSpline
210
0.0
220
0.0
230
1.0
 70
     8
 71
     3
 72
    11
 73
     7
 74
     0
 42
0.000000001
 43
0.00000001
 40
0.0
 40
0.0
 40
0.0
 40
0.0
 40
0.2794102277731443
 40
0.5596271780978961
 40
0.8374994122378341
 40
1.0
 40
1.0
 40
1.0
 40
1.0
 10
213.7500674443074
 20
71.36855151848732
 30
0.0
 10
213.7206518391197
 20
71.39078535156008
 30
0.0
 10
213.6617356990253
 20
71.43531721197184
 30
0.0
 10
213.5713313862802
 20
71.46767549835438
 30
0.0
 10
213.5016149180605
 20
71.4699812565046
 30
0.0
 10
213.4689557827725
 20
71.4548362419913
 30
0.0
 10
213.4569043381417
 20
71.44924762789506
 30
0.0
  0
ARC
  5
126
330
1F
100
AcDbEntity
  8
0
  6
Continuous
 62
     7
370
    25
100
AcDbCircle
 10
215.5124024866
 20
69.7715550925
 30
0.0
 40
0.506810932399561
100
AcDbArc
 50
185.4826111279
 51
240.2829820471
  0
ARC
  5
127
330
1F
100
AcDbEntity
  8
0
  6
Continuous
 62
     7
370
    25
100
AcDbCircle
 10
214.1338457839
 20
69.6403846389
 30
0.0
 40
0.8779724525113148
100
AcDbArc
 50
5.4080875916
 51
63.2564004834
  0
ARC
  5
128
330
1F
100
AcDbEntity
  8
0
  6
Continuous
 62
     7
370
    25
100
AcDbCircle
 10
214.6837241874
 20
70.8211033055
 30
0.0
 40
0.4257963972367981
100
AcDbArc
 50
159.4791783488
 51
248.6825391609
  0
ARC
  5
129
330
1F
100
AcDbEntity
  8
0
  6
Continuous
 62
     7
370
    25
100
AcDbCircle
 10
214.2266683345
 20
71.2821371639
 30
0.0
 40
0.3008287620151973
100
AcDbArc
 50
306.0562165082
 51
7.3727429091
  0
SPLINE
  5
12A
330
1F
100
AcDbEntity
  8
0
  6
Continuous
 62
     7
370
    25
100
AcDbSpline
210
0.0
220
0.0
230
1.0
 70
     8
 71
     3
 72
    11
 73
     7
 74
     0
 42
0.000000001
 43
0.00000001
 40
0.0
 40
0.0
 40
0.0
 40
0.0
 40
0.2802369446969633
 40
0.5612914406309296
 40
0.8399893256952699
 40
1.0
 40
1.0
 40
1.0
 40
1.0
 10
215.0604709164278
 20
68.778143976708
 30
0.0
 10
215.0818137187474
 20
68.75125423918179
 30
0.0
 10
215.1245615879621
 20
68.69739631716298
 30
0.0
 10
215.1973975047046
 20
68.6548927749238
 30
0.0
 10
215.2570043977472
 20
68.6469415530561
 30
0.0
 10
215.2873177008709
 20
68.66057331510927
 30
0.0
 10
215.2983739065675
 20
68.6655452432641
 30
0.0
  0
SPLINE
  5
12B
330
1F
100
AcDbEntity
  8
0
  6
Continuous
 62
     7
370
    25
100
AcDbSpline
210
0.0
220
0.0
230
1.0
 70
     8
 71
     3
 72
    11
 73
     7
 74
     0
 42
0.000000001
 43
0.00000001
 40
0.0
 40
0.0
 40
0.0
 40
0.0
 40
0.2657653881439542
 40
0.5530047364259737
 40
0.8418233809626111
 40
0.9999999999999999
 40
0.9999999999999999
 40
0.9999999999999999
 40
0.9999999999999999
 10
214.2649147418342
 20
68.76310691506046
 30
0.0
 10
214.290202917277
 20
68.75347935662568
 30
0.0
 10
214.3428225638499
 20
68.73344632880429
 30
0.0
 10
214.4175415288451
 20
68.74573966423507
 30
0.0
 10
214.471459965617
 20
68.7834279705667
 30
0.0
 10
214.4941956249676
 20
68.8204969721693
 30
0.0
 10
214.502241011621
 20
68.83361444750385
 30
0.0
  0
SPLINE
  5
12C
330
1F
100
AcDbEntity
  8
0
  6
Continuous
 62
     7
370
    25
100
AcDbSpline
210
0.0
220
0.0
230
1.0
 70
     8
 71
     3
 72
    12
 73
     8
 74
     0
 42
0.000000001
 43
0.00000001
 40
0.0
 40
0.0
 40
0.0
 40
0.0
 40
0.2057914540059901
 40
0.4120329870130915
 40
0.6141291349598883
 40
0.8132622231093205
 40
0.9999999999999999
 40
0.9999999999999999
 40
0.9999999999999999
 40
0.9999999999999999
 10
214.502241011621
 20
68.83361444750385
 30
0.0
 10
214.5296893512966
 20
68.87373006199458
 30
0.0
 10
214.5846460619127
 20
68.95404902637682
 30
0.0
 10
214.7055542914344
 20
69.00187772557774
 30
0.0
 10
214.8341840369032
 20
68.98477919921083
 30
0.0
 10
214.9581911531719
 20
68.90843489266383
 30
0.0
 10
215.0271156817829
 20
68.82063414226435
 30
0.0
 10
215.0604709164278
 20
68.778143976708
 30
0.0
  0
SPLINE
  5
12D
330
1F
100
AcDbEntity
  8
0
  6
Continuous
 62
     7
370
    25
100
AcDbSpline
210
0.0
220
0.0
230
1.0
 70
     8
 71
     3
 72
    11
 73
     7
 74
     0
 42
0.000000001
 43
0.00000001
 40
0.0
 40
0.0
 40
0.0
 40
0.0
 40
0.2431081666491937
 40
0.5182807821761976
 40
0.7947777882708367
 40
1.0
 40
1.0
 40
1.0
 40
1.0
 10
213.4203998989751
 20
71.41522109281738
 30
0.0
 10
213.4111193717497
 20
71.39688826173236
 30
0.0
 10
213.3913342737181
 20
71.35780461363778
 30
0.0
 10
213.3943125552317
 20
71.27386980553595
 30
0.0
 10
213.4214833591201
 20
71.18596987099626
 30
0.0
 10
213.454825284163
 20
71.13149363480161
 30
0.0
 10
213.4690296242588
 20
71.10828564710903
 30
0.0
  0
SPLINE
  5
12E
330
1F
100
AcDbEntity
  8
0
  6
Continuous
 62
     7
370
    25
100
AcDbSpline
210
0.0
220
0.0
230
1.0
 70
     8
 71
     3
 72
    12
 73
     8
 74
     0
 42
0.000000001
 43
0.00000001
 40
0.0
 40
0.0
 40
0.0
 40
0.0
 40
0.2286248811507117
 40
0.457678868403201
 40
0.6821264281309423
 40
0.9033287394159748
 40
1.0
 40
1.0
 40
1.0
 40
1.0
 10
213.4690296242587
 20
71.10828564710903
 30
0.0
 10
213.5016274253669
 20
71.05290179677615
 30
0.0
 10
213.5668842104052
 20
70.94203014614664
 30
0.0
 10
213.601913244459
 20
70.77222896472595
 30
0.0
 10
213.5787990789955
 20
70.62688526023904
 30
0.0
 10
213.5214071907275
 20
70.5302795590725
 30
0.0
 10
213.4643362434475
 20
70.50272644369514
 30
0.0
 10
213.4469799077702
 20
70.49434702926038
 30
0.0
  0
LINE
  5
12F
330
1F
100
AcDbEntity
  8
0
  6
Continuous
 62
     7
370
    25
100
AcDbLine
 10
213.3897802135
 20
70.4624489515
 30
0.0
 11
213.3574115985
 21
70.4433792033
 31
0.0
  0
SPLINE
  5
130
330
1F
100
AcDbEntity
  8
0
  6
Continuous
 62
     7
370
    25
100
AcDbSpline
210
0.0
220
0.0
230
1.0
 70
     8
 71
     3
 72
    11
 73
     7
 74
     0
 42
0.000000001
 43
0.00000001
 40
0.0
 40
0.0
 40
0.0
 40
0.0
 40
0.0089381127688301
 40
0.4185580571014789
 40
0.8247398716677553
 40
1.0
 40
1.0
 40
1.0
 40
1.0
 10
213.32404792274
 20
70.42372269667199
 30
0.0
 10
213.3235534934865
 20
70.42343474605423
 30
0.0
 10
213.3004001329241
 20
70.40995046204125
 30
0.0
 10
213.276469182828
 20
70.35532011964024
 30
0.0
 10
213.2625093892829
 20
70.28316641715244
 30
0.0
 10
213.2678614369562
 20
70.23509246616888
 30
0.0
 10
213.2694746686357
 20
70.22060185894367
 30
0.0
  0
SPLINE
  5
131
330
1F
100
AcDbEntity
  8
0
  6
Continuous
 62
     7
370
    25
100
AcDbSpline
210
0.0
220
0.0
230
1.0
 70
     8
 71
     3
 72
    11
 73
     7
 74
     0
 42
0.000000001
 43
0.00000001
 40
0.0
 40
0.0
 40
0.0
 40
0.0
 40
0.2669003619516671
 40
0.5546153266153662
 40
0.8439023211018114
 40
1.0
 40
1.0
 40
1.0
 40
1.0
 10
213.3019330103451
 20
70.1115012936099
 30
0.0
 10
213.3180504470158
 20
70.08083780749462
 30
0.0
 10
213.3515422614817
 20
70.01711949987364
 30
0.0
 10
213.4280209469906
 20
69.93746479317049
 30
0.0
 10
213.5032579906351
 20
69.88826425198212
 30
0.0
 10
213.5497192665859
 20
69.87366808313915
 30
0.0
 10
213.5660029372372
 20
69.86855244218123
 30
0.0
  0
SPLINE
  5
132
330
1F
100
AcDbEntity
  8
0
  6
Continuous
 62
     7
370
    25
100
AcDbSpline
210
0.0
220
0.0
230
1.0
 70
     8
 71
     3
 72
    12
 73
     8
 74
     0
 42
0.000000001
 43
0.00000001
 40
0.0
 40
0.0
 40
0.0
 40
0.0
 40
0.2058380051120777
 40
0.4120615124431539
 40
0.614138937422662
 40
0.8132774801196206
 40
1.0
 40
1.0
 40
1.0
 40
1.0
 10
213.5660029372372
 20
69.86855244218123
 30
0.0
 10
213.6191740702419
 20
69.84927822101305
 30
0.0
 10
213.7256159174231
 20
69.81069368109102
 30
0.0
 10
213.8701637495174
 20
69.68264757537946
 30
0.0
 10
213.9775729071274
 20
69.51931395838612
 30
0.0
 10
214.0402426189711
 20
69.33827773794843
 30
0.0
 10
214.0434356523005
 20
69.22301986168465
 30
0.0
 10
214.0449807971393
 20
69.16724527549479
 30
0.0
  0
SPLINE
  5
133
330
1F
100
AcDbEntity
  8
0
  6
Continuous
 62
     7
370
    25
100
AcDbSpline
210
0.0
220
0.0
230
1.0
 70
     8
 71
     3
 72
    11
 73
     7
 74
     0
 42
0.000000001
 43
0.00000001
 40
0.0
 40
0.0
 40
0.0
 40
0.0
 40
0.292901544168473
 40
0.5864344451368041
 40
0.8775173282953639
 40
1.0
 40
1.0
 40
1.0
 40
1.0
 10
214.0449807971393
 20
69.16724527549479
 30
0.0
 10
214.046202387544
 20
69.13152890071736
 30
0.0
 10
214.0486482015229
 20
69.06001916359946
 30
0.0
 10
214.08793388848
 20
68.95035902856961
 30
0.0
 10
214.1363645117106
 20
68.8717382024749
 30
0.0
 10
214.1707526607443
 20
68.83528441340154
 30
0.0
 10
214.1809371461762
 20
68.82448816253645
 30
0.0
  0
LINE
  5
134
330
1F
100
AcDbEntity
  8
0
  6
Continuous
 62
     7
370
    25
100
AcDbLine
 10
217.0616335768
 20
72.327601744
 30
0.0
 11
217.1768800181
 21
72.1292467055
 31
0.0
  0
LINE
  5
135
330
1F
100
AcDbEntity
  8
0
  6
Continuous
 62
     7
370
    25
100
AcDbLine
 10
218.264732325
 20
64.3769239071
 30
0.0
 11
217.1768800181
 21
72.1292467055
 31
0.0
  0
LINE
  5
136
330
1F
100
AcDbEntity
  8
0
  6
Continuous
 62
     7
370
    25
100
AcDbLine
 10
218.1494858837
 20
64.5752789457
 30
0.0
 11
218.264732325
 21
64.3769239071
 31
0.0
  0
LINE
  5
137
330
1F
100
AcDbEntity
  8
0
  6
Continuous
 62
     7
370
    25
100
AcDbLine
 10
218.022269902
 20
65.0258410809
 30
0.0
 11
218.1494858837
 21
64.5752789457
 31
0.0
  0
LINE
  5
138
330
1F
100
AcDbEntity
  8
0
  6
Continuous
 62
     7
370
    25
100
AcDbLine
 10
218.022269902
 20
65.0258410809
 30
0.0
 11
218.0084299306
 21
65.1244756216
 31
0.0
  0
LINE
  5
139
330
1F
100
AcDbEntity
  8
0
  6
Continuous
 62
     7
370
    25
100
AcDbLine
 10
217.0339371704
 20
72.2919352789
 30
0.0
 11
217.0616335768
 21
72.327601744
 31
0.0
  0
LINE
  5
13A
330
1F
100
AcDbEntity
  8
0
  6
Continuous
 62
     7
370
    25
100
AcDbLine
 10
219.2019032071
 20
73.5631531022
 30
0.0
 11
217.5144306705
 21
72.368263437
 31
0.0
  0
LINE
  5
13B
330
1F
100
AcDbEntity
  8
0
  6
Continuous
 62
     7
370
    25
100
AcDbLine
 10
217.3012030138
 20
72.2172753729
 30
0.0
 11
217.1768800181
 21
72.1292467055
 31
0.0
  0
LINE
  5
13C
330
1F
100
AcDbEntity
  8
0
  6
Continuous
 62
     7
370
    25
100
AcDbLine
 10
219.6536600681
 20
73.812444934
 30
0.0
 11
219.2019032071
 21
73.5631531022
 31
0.0
  0
LINE
  5
13D
330
1F
100
AcDbEntity
  8
0
  6
Continuous
 62
     7
370
    25
100
AcDbLine
 10
219.7169778054
 20
73.3612165305
 30
0.0
 11
219.6536600681
 21
73.812444934
 31
0.0
  0
LINE
  5
13E
330
1F
100
AcDbEntity
  8
0
  6
Continuous
 62
     7
370
    25
100
AcDbLine
 10
218.9156976443
 20
64.837870945
 30
0.0
 11
218.264732325
 21
64.3769239071
 31
0.0
  0
ARC
  5
13F
330
1F
100
AcDbEntity
  8
0
  6
Continuous
 62
     7
370
    25
100
AcDbCircle
 10
216.5584674802
 20
72.0347236151
 30
0.0
 40
0.6255946623952212
100
AcDbArc
 50
8.6902835625
 51
57.0934970825
  0
LINE
  5
140
330
1F
100
AcDbEntity
  8
0
  6
Continuous
 62
     7
370
    25
100
AcDbLine
 10
219.2019032071
 20
73.5631531022
 30
0.0
 11
216.8983341305
 21
72.5599467502
 31
0.0
  0
LINE
  5
141
330
1F
100
AcDbEntity
  8
0
  6
Continuous
 62
     7
370
    25
100
AcDbLine
 10
217.0616335768
 20
72.327601744
 30
0.0
 11
216.8983341305
 21
72.5599467502
 31
0.0
  0
SPLINE
  5
142
330
1F
100
AcDbEntity
  8
0
  6
Continuous
 62
     7
370
    25
100
AcDbSpline
210
0.0
220
0.0
230
1.0
 70
     8
 71
     3
 72
    11
 73
     7
 74
     0
 42
0.000000001
 43
0.00000001
 40
0.0
 40
0.0
 40
0.0
 40
0.0
 40
0.3360281029650848
 40
0.6712274496727573
 40
0.9920234982258282
 40
1.0
 40
1.0
 40
1.0
 40
1.0
 10
217.0339371704002
 20
72.291935278946
 30
0.0
 10
217.0164990818867
 20
72.27408903138786
 30
0.0
 10
216.981665912944
 20
72.23844055101087
 30
0.0
 10
216.8530738402776
 20
72.13983764340313
 30
0.0
 10
216.7435368888527
 20
72.06156269762005
 30
0.0
 10
216.6848434362001
 20
72.02082466589052
 30
0.0
 10
216.6834194474007
 20
72.01983630180099
 30
0.0
  0
LINE
  5
143
330
1F
100
AcDbEntity
  8
0
  6
Continuous
 62
     7
370
    25
100
AcDbLine
 10
211.1632548968
 20
75.6315848305
 30
0.0
 11
210.7969523559
 21
75.944125233
 31
0.0
  0
LINE
  5
144
330
1F
100
AcDbEntity
  8
0
  6
Continuous
 62
     7
370
    25
100
AcDbLine
 10
210.7969523559
 20
75.944125233
 30
0.0
 11
210.6336529096
 21
76.1764702392
 31
0.0
  0
LINE
  5
145
330
1F
100
AcDbEntity
  8
0
  6
Continuous
 62
     7
370
    25
100
AcDbLine
 10
216.8983341305
 20
72.5599467502
 30
0.0
 11
210.6336529096
 21
76.1764702392
 31
0.0
  0
LINE
  5
146
330
1F
100
AcDbEntity
  8
0
  6
Continuous
 62
     7
370
    25
100
AcDbLine
 10
211.2429624899
 20
75.5855706165
 30
0.0
 11
211.1632548968
 21
75.6315848305
 31
0.0
  0
LINE
  5
147
330
1F
100
AcDbEntity
  8
0
  6
Continuous
 62
     7
370
    25
100
AcDbLine
 10
212.9372219863
 20
77.1796765911
 30
0.0
 11
210.6336529096
 21
76.1764702392
 31
0.0
  0
LINE
  5
148
330
1F
100
AcDbEntity
  8
0
  6
Continuous
 62
     7
370
    25
100
AcDbLine
 10
213.514565919
 20
77.3564685496
 30
0.0
 11
212.9372219863
 21
77.1796765911
 31
0.0
  0
LINE
  5
149
330
1F
100
AcDbEntity
  8
0
  6
Continuous
 62
     7
370
    25
100
AcDbLine
 10
219.6536600681
 20
73.812444934
 30
0.0
 11
213.514565919
 21
77.3564685496
 31
0.0
  0
LINE
  5
14A
330
1F
100
AcDbEntity
  8
0
  6
Continuous
 62
     7
370
    25
100
AcDbLine
 10
211.4541440488
 20
73.7646311832
 30
0.0
 11
212.0931403216
 21
69.2109739499
 31
0.0
  0
LWPOLYLINE
  5
14B
330
1F
100
AcDbEntity
  8
0
  6
Continuous
 62
     7
370
    25
100
AcDbPolyline
 90
        9
 70
   128
 43
0.0
 10
212.1505074508
 20
74.3209599208
 10
211.9974617072
 20
74.3899560465
 10
211.851673124
 20
74.4169707388
 10
211.7200485161
 20
74.4007240263
 10
211.6088335196
 20
74.3419830415
 10
211.5232964905
 20
74.2435376568
 10
211.4674966973
 20
74.1100498906
 10
211.4440762204
 20
73.9478500838
 10
211.4541440488
 20
73.7646311832
  0
LINE
  5
14C
330
1F
100
AcDbEntity
  8
0
  6
Continuous
 62
     7
370
    25
100
AcDbLine
 10
215.8303356234
 20
72.1966403342
 30
0.0
 11
212.1505074508
 21
74.3209599208
 31
0.0
  0
ARC
  5
14D
330
1F
100
AcDbEntity
  8
0
  6
Continuous
 62
     7
370
    25
100
AcDbCircle
 10
214.9806611255
 20
70.8835796301
 30
0.0
 40
1.563993339231909
100
AcDbArc
 50
8.690295995
 51
57.0933120025
  0
LINE
  5
14E
330
1F
100
AcDbEntity
  8
0
  6
Continuous
 62
     7
370
    25
100
AcDbLine
 10
217.1656952982
 20
66.5662322284
 30
0.0
 11
216.5266990254
 21
71.1198887013
 31
0.0
  0
LWPOLYLINE
  5
14F
330
1F
100
AcDbEntity
  8
0
  6
Continuous
 62
     7
370
    25
100
AcDbPolyline
 90
        9
 70
   128
 43
0.0
 10
216.4693318962
 20
66.0099027304
 10
216.6223776399
 20
65.9409066047
 10
216.768166223
 20
65.9138926728
 10
216.8997908309
 20
65.9301393854
 10
217.0110058275
 20
65.9888796097
 10
217.0965428565
 20
66.0873257548
 10
217.1523426498
 20
66.2208135211
 10
217.1757657608
 20
66.3830110467
 10
217.1656952982
 20
66.5662322284
  0
LINE
  5
150
330
1F
100
AcDbEntity
  8
0
  6
Continuous
 62
     7
370
    25
100
AcDbLine
 10
212.7895037236
 20
68.134222317
 30
0.0
 11
216.4693318962
 21
66.0099027304
 31
0.0
  0
ARC
  5
151
330
1F
100
AcDbEntity
  8
0
  6
Continuous
 62
     7
370
    25
100
AcDbCircle
 10
213.6391794152
 20
69.447283793
 30
0.0
 40
1.563994635784021
100
AcDbArc
 50
188.6903173431
 51
237.0932906544
  0
LWPOLYLINE
  5
152
330
1F
100
AcDbEntity
  8
0
  6
Continuous
 62
     7
370
    25
100
AcDbPolyline
 90
       30
 70
   128
 43
0.0
 10
214.3099196735
 20
67.6749822776
 10
214.7735402755
 20
67.4655646423
 10
215.2154842264
 20
67.3823894176
 10
215.6150837655
 20
67.4293467132
 10
215.9536573021
 20
67.6042393198
 10
216.215368158
 20
67.8988915358
 10
216.3879858444
 20
68.2995241469
 10
216.4634313374
 20
68.7874046731
 10
216.4381853752
 20
69.3397204184
 10
216.3134201669
 20
69.9306461729
 10
216.0949756852
 20
70.5325487842
 10
215.7930646384
 20
71.1172844788
 10
215.4218035866
 20
71.6575144196
 10
214.9985491288
 20
72.1279761369
 10
214.5430971129
 20
72.5066712969
 10
214.0767422341
 20
72.7758922379
 10
213.6212902182
 20
72.9230507824
 10
213.1980383946
 20
72.9412667395
 10
212.8267747086
 20
72.8296872058
 10
212.5248636618
 20
72.593530586
 10
212.3064191802
 20
72.2438386049
 10
212.1816539719
 20
71.7969636936
 10
212.1564080096
 20
71.2737963159
 10
212.2318561368
 20
70.6988067569
 10
212.404471189
 20
70.098875528
 10
212.6661846791
 20
69.5020568689
 10
213.0047555815
 20
68.9362570983
 10
213.4043551206
 20
68.4279319954
 10
213.8462990715
 20
68.0008495955
 10
214.3099196735
 20
67.6749822776
  0
LWPOLYLINE
  5
153
330
1F
100
AcDbEntity
  8
0
  6
Continuous
 62
     7
370
    25
100
AcDbPolyline
 90
        3
 70
   128
 43
0.0
 10
215.8390936891
 20
67.8723319589
 10
216.0286570428
 20
67.8518240923
 10
216.1861966942
 20
67.8542951699
  0
ARC
  5
154
330
1F
100
AcDbEntity
  8
0
  6
Continuous
 62
     7
370
    25
100
AcDbCircle
 10
214.7109167775
 20
72.0144686632
 30
0.0
 40
1.735321614510704
100
AcDbArc
 50
147.5334349146
 51
173.9165509345
  0
SPLINE
  5
155
330
1F
100
AcDbEntity
  8
0
  6
Continuous
 62
     7
370
    25
100
AcDbSpline
210
0.0
220
0.0
230
1.0
 70
     8
 71
     3
 72
     9
 73
     5
 74
     0
 42
0.000000001
 43
0.00000001
 40
0.0
 40
0.0
 40
0.0
 40
0.0
 40
0.0433178909492529
 40
1.0
 40
1.0
 40
1.0
 40
1.0
 10
217.5789731359896
 20
65.62900582687767
 30
0.0
 10
217.5804462659874
 20
65.62806993693277
 30
0.0
 10
217.6144536926079
 20
65.60646477739279
 30
0.0
 10
217.6469362896937
 20
65.58177234267363
 30
0.0
 10
217.6780118091813
 20
65.5581495321489
 30
0.0
  0
SPLINE
  5
156
330
1F
100
AcDbEntity
  8
0
  6
Continuous
 62
     7
370
    25
100
AcDbSpline
210
0.0
220
0.0
230
1.0
 70
     8
 71
     3
 72
    14
 73
    10
 74
     0
 42
0.000000001
 43
0.00000001
 40
0.0
 40
0.0
 40
0.0
 40
0.0
 40
0.3240418745203497
 40
0.4390841359809766
 40
0.5550336040551028
 40
0.6320182919969143
 40
0.709180400325535
 40
0.8120414173741525
 40
1.0
 40
1.0
 40
1.0
 40
1.0
 10
218.0084299306165
 20
65.12447562158748
 30
0.0
 10
217.9963335681717
 20
65.19481788579203
 30
0.0
 10
217.9799427209687
 20
65.29013325929715
 30
0.0
 10
217.9322938285135
 20
65.4137784944237
 30
0.0
 10
217.8952293576305
 20
65.48046607401072
 30
0.0
 10
217.8525437929452
 20
65.52874641288797
 30
0.0
 10
217.8076415576359
 20
65.55882165978974
 30
0.0
 10
217.7455437942779
 20
65.57461576812055
 30
0.0
 10
217.704523493861
 20
65.56461384169522
 30
0.0
 10
217.6780118091813
 20
65.55814953214889
 30
0.0
  0
SPLINE
  5
157
330
1F
100
AcDbEntity
  8
0
  6
Continuous
 62
     7
370
    25
100
AcDbSpline
210
0.0
220
0.0
230
1.0
 70
     8
 71
     3
 72
    14
 73
    10
 74
     0
 42
0.000000001
 43
0.00000001
 40
0.0
 40
0.0
 40
0.0
 40
0.0
 40
0.1215016113579134
 40
0.25713622344931
 40
0.3367055092029636
 40
0.4166990748921771
 40
0.5090563387017932
 40
0.6599897549633204
 40
1.0
 40
1.0
 40
1.0
 40
1.0
 10
211.507512989656
 20
75.09927637928077
 30
0.0
 10
211.5166195968082
 20
75.11569901821254
 30
0.0
 10
211.5358920866575
 20
75.15045456842124
 30
0.0
 10
211.5497226624306
 20
75.20870427412795
 30
0.0
 10
211.5441275974841
 20
75.27114393432933
 30
0.0
 10
211.5236005532909
 20
75.3283807961067
 30
0.0
 10
211.4810036111887
 20
75.39584630643363
 30
0.0
 10
211.3868181715817
 20
75.49525741246376
 30
0.0
 10
211.3018254487358
 20
75.54861620251873
 30
0.0
 10
211.2429624899092
 20
75.58557061646002
 30
0.0
  0
SPLINE
  5
158
330
1F
100
AcDbEntity
  8
0
  6
Continuous
 62
     7
370
    25
100
AcDbSpline
210
0.0
220
0.0
230
1.0
 70
     8
 71
     3
 72
     9
 73
     5
 74
     0
 42
0.000000001
 43
0.00000001
 40
0.0
 40
0.0
 40
0.0
 40
0.0
 40
0.9567060964564186
 40
1.0
 40
1.0
 40
1.0
 40
1.0
 10
211.507512989656
 20
75.09927637928077
 30
0.0
 10
211.5155861717811
 20
75.06237062837195
 30
0.0
 10
211.5240246903135
 20
75.02379477833243
 30
0.0
 10
211.5288476454975
 20
74.98534830867273
 30
0.0
 10
211.529056450054
 20
74.98368381092368
 30
0.0
  0
LWPOLYLINE
  5
159
330
1F
100
AcDbEntity
  8
0
  6
Continuous
 62
     7
370
    25
100
AcDbPolyline
 90
        9
 70
   128
 43
0.0
 10
217.9861864374
 20
64.154392412
 10
218.0474047349
 20
64.1267933534
 10
218.1057201681
 20
64.1159880848
 10
218.1583694845
 20
64.1224873782
 10
218.2028554831
 20
64.1459830116
 10
218.2370708215
 20
64.1853614697
 10
218.259390212
 20
64.2387564241
 10
218.2687599832
 20
64.3036354344
 10
218.264732325
 20
64.3769239071
  0
LINE
  5
15A
330
1F
100
AcDbEntity
  8
0
  6
Continuous
 62
     7
370
    25
100
AcDbLine
 10
218.1494858837
 20
64.5752789457
 30
0.0
 11
217.9861864374
 21
64.154392412
 31
0.0
  0
SPLINE
  5
15B
330
1F
100
AcDbEntity
  8
0
  6
Continuous
 62
     7
370
    25
100
AcDbSpline
210
0.0
220
0.0
230
1.0
 70
     8
 71
     3
 72
    14
 73
    10
 74
     0
 42
0.000000001
 43
0.00000001
 40
0.0
 40
0.0
 40
0.0
 40
0.0
 40
0.1215020226169008
 40
0.2571348171588673
 40
0.3367056398528114
 40
0.4166971305147417
 40
0.509055571123817
 40
0.6599884458776043
 40
1.0
 40
1.0
 40
1.0
 40
1.0
 10
217.6780118091813
 20
65.55814953214889
 30
0.0
 10
217.6689049668637
 20
65.54172710467793
 30
0.0
 10
217.649632149969
 20
65.50697230970329
 30
0.0
 10
217.6358050004787
 20
65.4487197568978
 30
0.0
 10
217.6414002383701
 20
65.38628131705703
 30
0.0
 10
217.6619238684881
 20
65.3290444853689
 30
0.0
 10
217.704521040464
 20
65.2615789065664
 30
0.0
 10
217.7987071014631
 20
65.16217011470617
 30
0.0
 10
217.8836994646144
 20
65.10881041996687
 30
0.0
 10
217.9425623089281
 20
65.07185529496965
 30
0.0
  0
LINE
  5
15C
330
1F
100
AcDbEntity
  8
0
  6
Continuous
 62
     7
370
    25
100
AcDbLine
 10
211.7215052165
 20
67.770915901
 30
0.0
 11
217.9861864374
 21
64.154392412
 31
0.0
  0
LINE
  5
15D
330
1F
100
AcDbEntity
  8
0
  6
Continuous
 62
     7
370
    25
100
AcDbLine
 10
211.8848046628
 20
68.1918024346
 30
0.0
 11
211.7215052165
 21
67.770915901
 31
0.0
  0
LINE
  5
15E
330
1F
100
AcDbEntity
  8
0
  6
Continuous
 62
     7
370
    25
100
AcDbLine
 10
212.0346834659
 20
68.298003296
 30
0.0
 11
211.8848046628
 21
68.1918024346
 31
0.0
  0
LINE
  5
15F
330
1F
100
AcDbEntity
  8
0
  6
Continuous
 62
     7
370
    25
100
AcDbLine
 10
217.9425623089
 20
65.071855295
 30
0.0
 11
218.022269902
 21
65.0258410809
 31
0.0
  0
LINE
  5
160
330
1F
100
AcDbEntity
  8
0
  6
Continuous
 62
     7
370
    25
100
AcDbLine
 10
211.8848046628
 20
68.1918024346
 30
0.0
 11
211.4429593289
 21
68.2016167062
 31
0.0
  0
LINE
  5
161
330
1F
100
AcDbEntity
  8
0
  6
Continuous
 62
     7
370
    25
100
AcDbLine
 10
210.3551096562
 20
75.9539372234
 30
0.0
 11
211.4429593289
 21
68.2016167062
 31
0.0
  0
LINE
  5
162
330
1F
100
AcDbEntity
  8
0
  6
Continuous
 62
     7
370
    25
100
AcDbLine
 10
210.7969523559
 20
75.944125233
 30
0.0
 11
210.3551096562
 21
75.9539372234
 31
0.0
  0
LINE
  5
163
330
1F
100
AcDbEntity
  8
0
  6
Continuous
 62
     7
370
    25
100
AcDbLine
 10
211.1632548968
 20
75.6315848305
 30
0.0
 11
211.1770975024
 21
75.5329495296
 31
0.0
  0
SPLINE
  5
164
330
1F
100
AcDbEntity
  8
0
  6
Continuous
 62
     7
370
    25
100
AcDbSpline
210
0.0
220
0.0
230
1.0
 70
     8
 71
     3
 72
    14
 73
    10
 74
     0
 42
0.000000001
 43
0.00000001
 40
0.0
 40
0.0
 40
0.0
 40
0.0
 40
0.3240406537851068
 40
0.4390830022619814
 40
0.555033456711683
 40
0.6320176646280049
 40
0.7091799471083783
 40
0.8120463106695547
 40
1.0
 40
1.0
 40
1.0
 40
1.0
 10
211.1770975023988
 20
75.53294952962646
 30
0.0
 10
211.1891926384847
 20
75.46260777684252
 30
0.0
 10
211.2055818433679
 20
75.36729298335605
 30
0.0
 10
211.2532312591885
 20
75.24364815596988
 30
0.0
 10
211.2902949992097
 20
75.17695970386893
 30
0.0
 10
211.3329812439525
 20
75.12868055724755
 30
0.0
 10
211.377884051887
 20
75.09860336753667
 30
0.0
 10
211.439982114569
 20
75.082809605154
 30
0.0
 10
211.4810021850797
 20
75.09281196681293
 30
0.0
 10
211.507512989656
 20
75.09927637928078
 30
0.0
  0
LWPOLYLINE
  5
165
330
1F
100
AcDbEntity
  8
0
  6
Continuous
 62
     7
370
    25
100
AcDbPolyline
 90
        9
 70
   128
 43
0.0
 10
210.6336529096
 20
76.1764702392
 10
210.5724346122
 20
76.2040692978
 10
210.5141191789
 20
76.2148745664
 10
210.4614724967
 20
76.2083737523
 10
210.4169864981
 20
76.1848788794
 10
210.3827685255
 20
76.1455019419
 10
210.3604465009
 20
76.0921077478
 10
210.3510793638
 20
76.0272272168
 10
210.3551096562
 20
75.9539372234
  0
SPLINE
  5
166
330
1F
100
AcDbEntity
  8
0
  6
Continuous
 62
     7
370
    25
100
AcDbSpline
210
0.0
220
0.0
230
1.0
 70
     8
 71
     3
 72
    11
 73
     7
 74
     0
 42
0.000000001
 43
0.00000001
 40
0.0
 40
0.0
 40
0.0
 40
0.0
 40
0.0079744618156933
 40
0.3287732952839373
 40
0.6639689875430371
 40
1.0
 40
1.0
 40
1.0
 40
1.0
 10
212.3136078520109
 20
68.52877307991427
 30
0.0
 10
212.3135287421413
 20
68.52855981175608
 30
0.0
 10
212.3102671787763
 20
68.51976713373335
 30
0.0
 10
212.2842052957215
 20
68.48976452811729
 30
0.0
 10
212.1928200620389
 20
68.41260084947285
 30
0.0
 10
212.0874393789275
 20
68.33623415910907
 30
0.0
 10
212.0346834659245
 20
68.2980032959735
 30
0.0
  0
ARC
  5
167
330
1F
100
AcDbEntity
  8
0
  6
Continuous
 62
     7
370
    25
100
AcDbCircle
 10
212.0613756915
 20
68.2961413427
 30
0.0
 40
0.6255986768189009
100
AcDbArc
 50
188.6903706192
 51
237.093317764
  0
ARC
  5
168
330
1F
100
AcDbEntity
  8
0
  6
Continuous
 62
     7
370
    25
100
AcDbCircle
 10
262.5614770417
 20
47.3758354197
 30
0.0
 40
18.51816096504495
100
AcDbArc
 50
306.6211406338
 51
349.8825314543
  0
ELLIPSE
  5
169
330
1F
100
AcDbEntity
  8
0
  6
Continuous
 62
     7
370
    25
100
AcDbEllipse
 10
240.8978243151
 20
67.1565073295
 30
0.0
 11
39.99999980555379
 21
-23.09526184823481
 31
0.0
210
0.0
220
0.0
230
1.0
 40
0.0000703729
 41
0.0393796430762603
 42
0.0729092422849522
  0
LINE
  5
16A
330
1F
100
AcDbEntity
  8
0
  6
Continuous
 62
     7
370
    25
100
AcDbLine
 10
280.8668776001
 20
32.3576730529
 30
0.0
 11
280.8668776001
 21
44.0792613643
 31
0.0
  0
SPLINE
  5
16B
330
1F
100
AcDbEntity
  8
0
  6
Continuous
 62
     7
370
    25
100
AcDbSpline
210
0.0
220
0.0
230
1.0
 70
     8
 71
     3
 72
    17
 73
    13
 74
     0
 42
0.000000001
 43
0.00000001
 40
0.0
 40
0.0
 40
0.0
 40
0.0
 40
0.081426888461465
 40
0.1595996725879361
 40
0.2345186997988898
 40
0.3061843898780749
 40
0.3745972830540988
 40
0.4397580049733198
 40
0.5016671856509829
 40
0.6770644357462534
 40
0.8431664881523857
 40
1.0
 40
1.0
 40
1.0
 40
1.0
 10
273.0145193274794
 20
15.27917838506618
 30
0.0
 10
273.3931000197192
 20
15.7089502419643
 30
0.0
 10
274.1351319906227
 20
16.55131876352349
 30
0.0
 10
275.1329511230866
 20
17.82226680993357
 30
0.0
 10
276.024701986601
 20
19.05969236341275
 30
0.0
 10
276.8112168271783
 20
20.26133216845257
 30
0.0
 10
277.5014095085651
 20
21.42233084487445
 30
0.0
 10
278.1021094965861
 20
22.53917641350806
 30
0.0
 10
278.9475729251348
 20
24.28045350477308
 30
0.0
 10
279.8552754495335
 20
26.63129937091534
 30
0.0
 10
280.6091148623134
 20
29.55811149725581
 30
0.0
 10
280.7826116964813
 20
31.44297329722759
 30
0.0
 10
280.8668703561302
 20
32.35835558446527
 30
0.0
  0
LINE
  5
16C
330
1F
100
AcDbEntity
  8
0
  6
Continuous
 62
     7
370
    25
100
AcDbLine
 10
273.0145474803
 20
15.279057753
 30
0.0
 11
273.0145474803
 21
30.5695892881
 31
0.0
  0
ELLIPSE
  5
16D
330
1F
100
AcDbEntity
  8
0
  6
Continuous
 62
     7
370
    25
100
AcDbEllipse
 10
240.8978243151
 20
26.5070666283
 30
0.0
 11
26.03299552592284
 21
139.0679582060167
 31
0.0
210
0.0
220
0.0
230
1.0
 40
0.2183760757
 41
4.782437672753477
 42
4.789841869021407
  0
ELLIPSE
  5
16E
330
1F
100
AcDbEntity
  8
0
  6
Continuous
 62
     7
370
    25
100
AcDbEllipse
 10
240.8978243151
 20
40.2106605373
 30
0.0
 11
28.28542047150119
 21
48.98913122504882
 31
0.0
210
0.0
220
0.0
230
1.0
 40
0.5773346305
 41
4.866610250030883
 42
4.884527884378945
  0
LINE
  5
16F
330
1F
100
AcDbEntity
  8
0
  6
Continuous
 62
     7
370
    25
100
AcDbLine
 10
230.6889250442
 20
57.2898327086
 30
0.0
 11
273.607949918
 21
32.5132070343
 31
0.0
  0
LINE
  5
170
330
1F
100
AcDbEntity
  8
0
  6
Continuous
 62
     7
370
    25
100
AcDbLine
 10
230.1888735954
 20
56.4237180054
 30
0.0
 11
273.1902086301
 21
31.5995756865
 31
0.0
  0
LINE
  5
171
330
1F
100
AcDbEntity
  8
0
  6
Continuous
 62
     7
370
    25
100
AcDbLine
 10
273.0145474803
 20
30.5695892881
 30
0.0
 11
226.1368535184
 21
57.6315059832
 31
0.0
  0
SPLINE
  5
172
330
1F
100
AcDbEntity
  8
0
  6
Continuous
 62
     7
370
    25
100
AcDbSpline
210
0.0
220
0.0
230
1.0
 70
     8
 71
     3
 72
     9
 73
     5
 74
     0
 42
0.000000001
 43
0.00000001
 40
0.0
 40
0.0
 40
0.0
 40
0.0
 40
0.5649715058210978
 40
1.0
 40
1.0
 40
1.0
 40
1.0
 10
230.1888735954403
 20
56.42371800535118
 30
0.0
 10
230.1004835444421
 20
56.49099255734875
 30
0.0
 10
229.9440330861667
 20
56.61006856614641
 30
0.0
 10
229.8232689188577
 20
56.79280016605244
 30
0.0
 10
229.7707330650025
 20
56.87229361879847
 30
0.0
  0
LINE
  5
173
330
1F
100
AcDbEntity
  8
0
  6
Continuous
 62
     7
370
    25
100
AcDbLine
 10
228.7662184131
 20
57.8408116353
 30
0.0
 11
229.1394392934
 21
57.6253558072
 31
0.0
  0
ARC
  5
174
330
1F
100
AcDbEntity
  8
0
  6
Continuous
 62
     7
370
    25
100
AcDbCircle
 10
251.3803841916
 20
2.087770318
 30
0.0
 40
60.16479128183183
100
AcDbArc
 50
91.8474243394
 51
112.0781207444
  0
LINE
  5
175
330
1F
100
AcDbEntity
  8
0
  6
Continuous
 62
     7
370
    25
100
AcDbLine
 10
280.7916744515
 20
44.122807918
 30
0.0
 11
249.4407886019
 21
62.221289082
 31
0.0
  0
ARC
  5
176
330
1F
100
AcDbEntity
  8
0
  6
Continuous
 62
     7
370
    25
100
AcDbCircle
 10
229.314163017
 20
54.6866341366
 30
0.0
 40
2.94391124813888
100
AcDbArc
 50
62.1612444105
 51
93.4025545369
  0
LINE
  5
177
330
1F
100
AcDbEntity
  8
0
  6
Continuous
 62
     7
370
    25
100
AcDbLine
 10
271.6894716365
 20
14.6345688745
 30
0.0
 11
273.0183262086
 21
15.276898393
 31
0.0
  0
LINE
  5
178
330
1F
100
AcDbEntity
  8
0
  6
Continuous
 62
     7
370
    25
100
AcDbLine
 10
271.6898456898
 20
14.6347483788
 30
0.0
 11
233.2622102643
 21
36.8185501144
 31
0.0
  0
LINE
  5
179
330
1F
100
AcDbEntity
  8
0
  6
Continuous
 62
     7
370
    25
100
AcDbLine
 10
232.3064777908
 20
38.4739280727
 30
0.0
 11
233.2622102643
 21
36.8185501144
 31
0.0
  0
LINE
  5
17A
330
1F
100
AcDbEntity
  8
0
  6
Continuous
 62
     7
370
    25
100
AcDbLine
 10
221.0296090513
 20
44.9839258268
 30
0.0
 11
232.3064777908
 21
38.4739280727
 31
0.0
  0
LINE
  5
17B
330
1F
100
AcDbEntity
  8
0
  6
Continuous
 62
     7
370
    25
100
AcDbLine
 10
221.0296090513
 20
44.9839258268
 30
0.0
 11
219.6153952571
 21
47.4334159639
 31
0.0
  0
LINE
  5
17C
330
1F
100
AcDbEntity
  8
0
  6
Continuous
 62
     7
370
    25
100
AcDbLine
 10
219.6153952571
 20
47.4334159639
 30
0.0
 11
217.7411196355
 21
60.7900198217
 31
0.0
  0
LINE
  5
17D
330
1F
100
AcDbEntity
  8
0
  6
Continuous
 62
     7
370
    25
100
AcDbLine
 10
271.256362554
 20
14.8848401993
 30
0.0
 11
235.1048992925
 21
35.754635714
 31
0.0
  0
LINE
  5
17E
330
1F
100
AcDbEntity
  8
0
  6
Continuous
 62
     7
370
    25
100
AcDbLine
 10
235.1048992925
 20
35.754635714
 30
0.0
 11
233.2622102643
 21
36.8185501144
 31
0.0
  0
SPLINE
  5
17F
330
1F
100
AcDbEntity
  8
0
  6
Continuous
 62
     7
370
    25
100
AcDbSpline
210
0.0
220
0.0
230
1.0
 70
     8
 71
     3
 72
     9
 73
     5
 74
     0
 42
0.000000001
 43
0.00000001
 40
0.0
 40
0.0
 40
0.0
 40
0.0
 40
0.4022686820130337
 40
1.0
 40
1.0
 40
1.0
 40
1.0
 10
271.6884642280377
 20
14.63554607029494
 30
0.0
 10
271.6322194802071
 20
14.66799499038944
 30
0.0
 10
271.4924006219526
 20
14.74865978371145
 30
0.0
 10
271.3446673546225
 20
14.83389339840871
 30
0.0
 10
271.2563625540307
 20
14.88484019925849
 30
0.0
  0
SPLINE
  5
180
330
1F
100
AcDbEntity
  8
0
  6
Continuous
 62
     7
370
    25
100
AcDbSpline
210
0.0
220
0.0
230
1.0
 70
     8
 71
     3
 72
    10
 73
     6
 74
     0
 42
0.000000001
 43
0.00000001
 40
0.0
 40
0.0
 40
0.0
 40
0.0
 40
0.3631639220941346
 40
0.7262056543831804
 40
0.9999999999999999
 40
0.9999999999999999
 40
0.9999999999999999
 40
0.9999999999999999
 10
228.7662184131201
 20
57.84081163531697
 30
0.0
 10
228.7319284407546
 20
57.89145043639313
 30
0.0
 10
228.6633600331968
 20
57.99271100066019
 30
0.0
 10
228.5023403098089
 20
58.05428504292911
 30
0.0
 10
228.3831252760946
 20
58.04509520348341
 30
0.0
 10
228.3318712669769
 20
58.04114422431523
 30
0.0
  0
ELLIPSE
  5
181
330
1F
100
AcDbEntity
  8
0
  6
Continuous
 62
     7
370
    25
100
AcDbEllipse
 10
252.3529541703
 20
40.8090331675
 30
0.0
 11
39.88231480357518
 21
-7.46581841164906
 31
0.0
210
0.0
220
0.0
230
1.0
 40
0.4106849769
 41
2.291684181384799
 42
2.43292223917076
  0
LINE
  5
182
330
1F
100
AcDbEntity
  8
0
  6
Continuous
 62
     7
370
    25
100
AcDbLine
 10
224.0686829665
 20
57.1371951259
 30
0.0
 11
224.0686829665
 21
68.3389123736
 31
0.0
  0
ELLIPSE
  5
183
330
1F
100
AcDbEntity
  8
0
  6
Continuous
 62
     7
370
    25
100
AcDbEllipse
 10
252.3529541703
 20
52.0107501396
 30
0.0
 11
39.95429160013714
 21
-3.800573014234218
 31
0.0
210
0.0
220
0.0
230
1.0
 40
0.5030021235
 41
2.101599647581067
 42
2.404005110224609
  0
ELLIPSE
  5
184
330
1F
100
AcDbEntity
  8
0
  6
Continuous
 62
     7
370
    25
100
AcDbEllipse
 10
252.3529541703
 20
60.5436016238
 30
0.0
 11
40.00000014403753
 21
-23.09526204366909
 31
0.0
210
0.0
220
0.0
230
1.0
 40
0.0000703729
 41
4.229436913531527
 42
4.639561002194704
  0
LINE
  5
185
330
1F
100
AcDbEntity
  8
0
  6
Continuous
 62
     7
370
    25
100
AcDbLine
 10
224.0686829665
 20
68.3389123736
 30
0.0
 11
217.2968618884
 21
72.2482014704
 31
0.0
  0
LINE
  5
186
330
1F
100
AcDbEntity
  8
0
  6
Continuous
 62
     7
370
    25
100
AcDbLine
 10
218.1023645546
 20
72.6927040279
 30
0.0
 11
217.2968618884
 21
72.2482014704
 31
0.0
  0
LINE
  5
187
330
1F
100
AcDbEntity
  8
0
  6
Continuous
 62
     7
370
    25
100
AcDbLine
 10
219.9084061572
 20
73.4404732051
 30
0.0
 11
218.1023645546
 21
72.6927040279
 31
0.0
  0
LINE
  5
188
330
1F
100
AcDbEntity
  8
0
  6
Continuous
 62
     7
370
    25
100
AcDbLine
 10
219.9084061572
 20
73.4404732051
 30
0.0
 11
219.6880018471
 21
73.5677099051
 31
0.0
  0
ELLIPSE
  5
189
330
1F
100
AcDbEntity
  8
0
  6
Continuous
 62
     7
370
    25
100
AcDbEllipse
 10
239.4105273017
 20
59.339024234
 30
0.0
 11
40.68865749498343
 21
-4.22834252192564
 31
0.0
210
0.0
220
0.0
230
1.0
 40
0.4916381667
 41
2.096538264056802
 42
2.296878506926463
  0
LINE
  5
18A
330
1F
100
AcDbEntity
  8
0
  6
Continuous
 62
     7
370
    25
100
AcDbLine
 10
233.7756887771
 20
71.2664483909
 30
0.0
 11
220.7888012213
 21
78.7636189951
 31
0.0
  0
LWPOLYLINE
  5
18B
330
1F
100
AcDbEntity
  8
0
  6
Continuous
 62
     7
370
    25
100
AcDbPolyline
 90
       14
 70
   128
 43
0.0
 10
218.1532858501
 20
66.1450842355
 10
218.4696664368
 20
65.7847320792
 10
218.7257875669
 20
65.3583379526
 10
218.8983578381
 20
64.9046756728
 10
218.9716880862
 20
64.4649943169
 10
218.9391112064
 20
64.0792745956
 10
218.8035880151
 20
63.7825908564
 10
218.5774411968
 20
63.6019209161
 10
218.2812331455
 20
63.553693463
 10
217.9419009656
 20
63.6422928119
 10
217.5903014186
 20
63.8596609516
 10
217.2584002549
 20
64.1860364509
 10
216.9763825207
 20
64.5917389942
 10
216.8685656138
 20
64.7995808762
  0
LINE
  5
18C
330
1F
100
AcDbEntity
  8
0
  6
Continuous
 62
     7
370
    25
100
AcDbLine
 10
217.2968618884
 20
72.2482014704
 30
0.0
 11
218.1532858501
 21
66.1450842355
 31
0.0
  0
LINE
  5
18D
330
1F
100
AcDbEntity
  8
0
  6
Continuous
 62
     7
370
    25
100
AcDbLine
 10
224.0686829665
 20
57.1371951259
 30
0.0
 11
212.5452182847
 21
63.7895496874
 31
0.0
  0
LINE
  5
18E
330
1F
100
AcDbEntity
  8
0
  6
Continuous
 62
     7
370
    25
100
AcDbLine
 10
212.5452182847
 20
63.7895496874
 30
0.0
 11
212.0098927226
 21
67.6044330333
 31
0.0
  0
SPLINE
  5
18F
330
1F
100
AcDbEntity
  8
0
  6
Continuous
 62
     7
370
    25
100
AcDbSpline
210
0.0
220
0.0
230
1.0
 70
     8
 71
     3
 72
     9
 73
     5
 74
     0
 42
0.000000001
 43
0.00000001
 40
0.0
 40
0.0
 40
0.0
 40
0.0
 40
0.9305798866572522
 40
1.0
 40
1.0
 40
1.0
 40
1.0
 10
229.7707330650025
 20
56.87229361879847
 30
0.0
 10
229.5927827772419
 20
57.11928646614654
 30
0.0
 10
229.4015576171971
 20
57.38470467568393
 30
0.0
 10
229.1564543873901
 20
57.60973423006894
 30
0.0
 10
229.1394392933962
 20
57.62535580723982
 30
0.0
  0
OLE2FRAME
  5
190
330
1F
100
AcDbEntity
  8
0
100
AcDbOle2Frame
 70
     2
  3
Paintbrush-Bild
 10
13.8511154363
 20
38.264191557
 30
0.0
 11
51.6290888628
 21
31.9806341108
 31
0.0
 71
     2
 72
     0
 73
     1
 90
    12928
310
80552BED0767C5B32B40DDAF6807D121434000000000000000006FFBDDFB85D0
310
4940DDAF6807D121434000000000000000006FFBDDFB85D04940416F4BD60AFB
310
3F4000000000000000002BED0767C5B32B40416F4BD60AFB3F40000000000000
310
0000000000000100000000010000010000000100000000000100000000320000
310
D0CF11E0A1B11AE1000000000000000000000000000000003E000300FEFF0900
310
0600000000000000000000000100000001000000000000000010000002000000
310
01000000FEFFFFFF0000000000000000FFFFFFFFFFFFFFFFFFFFFFFFFFFFFFFF
310
FFFFFFFFFFFFFFFFFFFFFFFFFFFFFFFFFFFFFFFFFFFFFFFFFFFFFFFFFFFFFFFF
310
FFFFFFFFFFFFFFFFFFFFFFFFFFFFFFFFFFFFFFFFFFFFFFFFFFFFFFFFFFFFFFFF
310
FFFFFFFFFFFFFFFFFFFFFFFFFFFFFFFFFFFFFFFFFFFFFFFFFFFFFFFFFFFFFFFF
310
FFFFFFFFFFFFFFFFFFFFFFFFFFFFFFFFFFFFFFFFFFFFFFFFFFFFFFFFFFFFFFFF
310
FFFFFFFFFFFFFFFFFFFFFFFFFFFFFFFFFFFFFFFFFFFFFFFFFFFFFFFFFFFFFFFF
310
FFFFFFFFFFFFFFFFFFFFFFFFFFFFFFFFFFFFFFFFFFFFFFFFFFFFFFFFFFFFFFFF
310
FFFFFFFFFFFFFFFFFFFFFFFFFFFFFFFFFFFFFFFFFFFFFFFFFFFFFFFFFFFFFFFF
310
FFFFFFFFFFFFFFFFFFFFFFFFFFFFFFFFFFFFFFFFFFFFFFFFFFFFFFFFFFFFFFFF
310
FFFFFFFFFFFFFFFFFFFFFFFFFFFFFFFFFFFFFFFFFFFFFFFFFFFFFFFFFFFFFFFF
310
FFFFFFFFFFFFFFFFFFFFFFFFFFFFFFFFFFFFFFFFFFFFFFFFFFFFFFFFFFFFFFFF
310
FFFFFFFFFFFFFFFFFFFFFFFFFFFFFFFFFFFFFFFFFFFFFFFFFFFFFFFFFFFFFFFF
310
FFFFFFFFFFFFFFFFFFFFFFFFFFFFFFFFFFFFFFFFFFFFFFFFFFFFFFFFFFFFFFFF
310
FFFFFFFFFFFFFFFFFFFFFFFFFFFFFFFFFFFFFFFFFFFFFFFFFFFFFFFFFFFFFFFF
310
FDFFFFFFFEFFFFFFFEFFFFFFFEFFFFFF05000000060000000700000008000000
310
090000000A0000000B0000000C0000000D0000000E0000000F00000010000000
310
11000000120000001300000014000000150000001600000017000000FEFFFFFF
310
FFFFFFFFFFFFFFFFFFFFFFFFFFFFFFFFFFFFFFFFFFFFFFFFFFFFFFFFFFFFFFFF
310
FFFFFFFFFFFFFFFFFFFFFFFFFFFFFFFFFFFFFFFFFFFFFFFFFFFFFFFFFFFFFFFF
310
FFFFFFFFFFFFFFFFFFFFFFFFFFFFFFFFFFFFFFFFFFFFFFFFFFFFFFFFFFFFFFFF
310
FFFFFFFFFFFFFFFFFFFFFFFFFFFFFFFFFFFFFFFFFFFFFFFFFFFFFFFFFFFFFFFF
310
FFFFFFFFFFFFFFFFFFFFFFFFFFFFFFFFFFFFFFFFFFFFFFFFFFFFFFFFFFFFFFFF
310
FFFFFFFFFFFFFFFFFFFFFFFFFFFFFFFFFFFFFFFFFFFFFFFFFFFFFFFFFFFFFFFF
310
FFFFFFFFFFFFFFFFFFFFFFFFFFFFFFFFFFFFFFFFFFFFFFFFFFFFFFFFFFFFFFFF
310
FFFFFFFFFFFFFFFFFFFFFFFFFFFFFFFFFFFFFFFFFFFFFFFFFFFFFFFFFFFFFFFF
310
FFFFFFFFFFFFFFFFFFFFFFFFFFFFFFFFFFFFFFFFFFFFFFFFFFFFFFFFFFFFFFFF
310
FFFFFFFFFFFFFFFFFFFFFFFFFFFFFFFFFFFFFFFFFFFFFFFFFFFFFFFFFFFFFFFF
310
FFFFFFFFFFFFFFFFFFFFFFFFFFFFFFFFFFFFFFFFFFFFFFFFFFFFFFFFFFFFFFFF
310
FFFFFFFFFFFFFFFFFFFFFFFFFFFFFFFFFFFFFFFFFFFFFFFFFFFFFFFFFFFFFFFF
310
FFFFFFFFFFFFFFFFFFFFFFFFFFFFFFFFFFFFFFFFFFFFFFFFFFFFFFFFFFFFFFFF
310
52006F006F007400200045006E00740072007900000000000000000000000000
310
0000000000000000000000000000000000000000000000000000000000000000
310
16000500FFFFFFFFFFFFFFFF020000000A00030000000000C000000000000046
310
000000000000000000000000407B2E9C1CB5D30103000000C000000000000000
310
01004F006C006500000000000000000000000000000000000000000000000000
310
0000000000000000000000000000000000000000000000000000000000000000
310
0A000200FFFFFFFFFFFFFFFFFFFFFFFF00000000000000000000000000000000
310
0000000000000000000000000000000000000000000000001400000000000000
310
010043006F006D0070004F0062006A0000000000000000000000000000000000
310
0000000000000000000000000000000000000000000000000000000000000000
310
120002010100000003000000FFFFFFFF00000000000000000000000000000000
310
0000000000000000000000000000000000000000010000004D00000000000000
310
01004F006C006500310030004E00610074006900760065000000000000000000
310
0000000000000000000000000000000000000000000000000000000000000000
310
1A000200FFFFFFFFFFFFFFFFFFFFFFFF00000000000000000000000000000000
310
0000000000000000000000000000000000000000040000002426000000000000
310
FEFFFFFF02000000FEFFFFFFFFFFFFFFFFFFFFFFFFFFFFFFFFFFFFFFFFFFFFFF
310
FFFFFFFFFFFFFFFFFFFFFFFFFFFFFFFFFFFFFFFFFFFFFFFFFFFFFFFFFFFFFFFF
310
FFFFFFFFFFFFFFFFFFFFFFFFFFFFFFFFFFFFFFFFFFFFFFFFFFFFFFFFFFFFFFFF
310
FFFFFFFFFFFFFFFFFFFFFFFFFFFFFFFFFFFFFFFFFFFFFFFFFFFFFFFFFFFFFFFF
310
FFFFFFFFFFFFFFFFFFFFFFFFFFFFFFFFFFFFFFFFFFFFFFFFFFFFFFFFFFFFFFFF
310
FFFFFFFFFFFFFFFFFFFFFFFFFFFFFFFFFFFFFFFFFFFFFFFFFFFFFFFFFFFFFFFF
310
FFFFFFFFFFFFFFFFFFFFFFFFFFFFFFFFFFFFFFFFFFFFFFFFFFFFFFFFFFFFFFFF
310
FFFFFFFFFFFFFFFFFFFFFFFFFFFFFFFFFFFFFFFFFFFFFFFFFFFFFFFFFFFFFFFF
310
FFFFFFFFFFFFFFFFFFFFFFFFFFFFFFFFFFFFFFFFFFFFFFFFFFFFFFFFFFFFFFFF
310
FFFFFFFFFFFFFFFFFFFFFFFFFFFFFFFFFFFFFFFFFFFFFFFFFFFFFFFFFFFFFFFF
310
FFFFFFFFFFFFFFFFFFFFFFFFFFFFFFFFFFFFFFFFFFFFFFFFFFFFFFFFFFFFFFFF
310
FFFFFFFFFFFFFFFFFFFFFFFFFFFFFFFFFFFFFFFFFFFFFFFFFFFFFFFFFFFFFFFF
310
FFFFFFFFFFFFFFFFFFFFFFFFFFFFFFFFFFFFFFFFFFFFFFFFFFFFFFFFFFFFFFFF
310
FFFFFFFFFFFFFFFFFFFFFFFFFFFFFFFFFFFFFFFFFFFFFFFFFFFFFFFFFFFFFFFF
310
FFFFFFFFFFFFFFFFFFFFFFFFFFFFFFFFFFFFFFFFFFFFFFFFFFFFFFFFFFFFFFFF
310
FFFFFFFFFFFFFFFFFFFFFFFFFFFFFFFFFFFFFFFFFFFFFFFFFFFFFFFFFFFFFFFF
310
0100000200000000000000000000000000000000000000000000000000000000
310
0000000000000000000000000000000000000000000000000000000000000000
310
0100FEFF030A0000FFFFFFFF0A00030000000000C00000000000004607000000
310
5042727573680007000000504272757368000700000050427275736800F439B2
310
7100000000000000000000000000000000000000000000000000000000000000
310
0000000000000000000000000000000000000000000000000000000000000000
310
0000000000000000000000000000000000000000000000000000000000000000
310
0000000000000000000000000000000000000000000000000000000000000000
310
0000000000000000000000000000000000000000000000000000000000000000
310
0000000000000000000000000000000000000000000000000000000000000000
310
0000000000000000000000000000000000000000000000000000000000000000
310
0000000000000000000000000000000000000000000000000000000000000000
310
0000000000000000000000000000000000000000000000000000000000000000
310
0000000000000000000000000000000000000000000000000000000000000000
310
0000000000000000000000000000000000000000000000000000000000000000
310
0000000000000000000000000000000000000000000000000000000000000000
310
20260000424D0E260000000000003E00000028000000B40200006E0000000100
310
01000000000000000000130B0000130B00000200000002000000000000FFFFFF
310
FFFFFFFFFFFFFFFFFFFFFFFFFFFFFFFFFFFFFFFFFFFFFFFFFFFFFFFFFFFFFFFF
310
FFFFFFFFFFFFFFFFFFFFFFFFFFFFFFFFFFFFFFFFFFFFFFFFFFFFFFFFFFFFFFFF
310
FFFFFFFFFFFFFFFFFFFFFFFFFFFFFFFFFFFFFFFFFFFFFFFFF000FFFFFFFFFFFF
310
FFFFFFFFFFFFFFFFFFFFFFFFFFFFFFFFFFFFFFFFFFFFFFFFFFFFFFFFFFFFFFFF
310
FFFFFFFFFFFFFFFFFFFFFFFFFFFFFFFFFFFFFFFFFFFFFFFFFFFFFFFFFFFFFFFF
310
FFFFFFFFFFFFFFFFFFFFFFFFFFFFFFFFF000FFFFFFFFFFFFFFFFFFFFFFFFFFFF
310
FFFFFFFFFFFFFFFFFFFFFFFFFFFFFFFFFFFFFFFFFFFFFFFFFFFFFFFFFFFFFFFF
310
FFFFFFFFFFFFFFFFFFFFFFFFFFFFFFFFFFFFFFFFFFFFFFFFFFFFFFFFFFFFFFFF
310
FFFFFFFFFFFFFFFFF000FFFFFFFFFFFFFFFFFFFFFFFFFFFFFFFFFFFFFFFFFFFF
310
FFFFFFFFFFFFFFFFFFFFFFFFFFFFFFFFFFFFFFFFFFFFFFFFFFFFFFFFFFFFFFFF
310
FFFFFFFFFFFFFFFFFFFFFFFFFFFFFFFFFFFFFFFFFFFFFFFFFFFFFFFFFFFFFFFF
310
F000FFFFFFFFFFFFFFFFFFFFFFFFFFFFFFFFFFFFFFFFFFFFFFFFFFFFFFFFFFFF
310
FFFFFFFFFFFFFFFFFFFFFFFFFFFFFFFFFFFFFFFFFFFFFFFFFFFFFFFFFFFFFFFF
310
FFFFFFFFFFFFFFFFFFFFFFFFFFFFFFFFFFFFFFFFFFFFFFFFF000FFFFFFFFFFFF
310
FFFFFFFFFFFFFFFFFFFFFFFFFFFFFFFFFFFFFFFFFFFFFFFFFFFFFFFFFFFFFFFF
310
FFFFFFFFFFFFFFFFFFFFFFFFFFFFFFFFFFFFFFFFFFFFFFFFFFFFFFFFFFFFFFFF
310
FFFFFFFFFFFFFFFFFFFFFFFFFFFFFFFFF000FFFFFFFFFFFFFFFFFFFFFFFFFFFF
310
FFFFFFFFFFFFFFFFFFFFFFFFFFFFFFFFFFFFFFFFFFFFFFFFFFFFFFFFFFFFFFFF
310
FFFFFFFFFFFFFFFFFFFFFFFFFFFFFFFFFFFFFFFFFFFFFFFFFFFFFFFFFFFFFFFF
310
FFFFFFFFFFFFFFFFF000FFFFFFFFFFFFFFFFFFFFFFFFFFFFFFFFFFFFFFFFFFFF
310
FFFFFFFFFFFFFFFFFFFFFFFFFFFFFFFFFFFFFFFFFFFFFFFFFFFFFFFFFFFFFFFF
310
FFFFFFFFFFFFFFFFFFFFFFFFFFFFFFFFFFFFFFFFFFFFFFFFFFFFFFFFFFFFFFFF
310
F000FFFFFFFFFFFFFFFFFFFFFFFFFFFFFFFFFFFFFFFFFFFFFFFFFFFFFFFFFFFF
310
FFFFFFFFFFFFFFFFFFFFFFFFFFFFFFFFFFFFFFFFFFFFFFFFFFFFFFFFFFFFFFFF
310
FFFFFFFFFFFFFFFFFFFFFFFFFFFFFFFFFFFFFFFFFFFFFFFFF000FFFFFFFFFFFF
310
FFFFFFFFFFFFFFFFFFFFFFFFFFFFFFFFFFFFFFFFFFFFFFFFFFFFFFFFFFFFFFFF
310
FFFFFFFFFFFFFFFFFFFFFFFFFFFFFFFFFFFFFFFFFFFFFFFFFFFFFFFFFFFFFFFF
310
FFFFFFFFFFFFFFFFFFFFFFFFFFFFFFFFF000FFFFFFFFFFFFFFFFFFFFFFFFFFFF
310
FFFFFFFFFFFFFFFFFFFFFFFFFFFFFFFFFFFFFFFFFFFFFFFFFFFFFFFFFFFFFFFF
310
FFFFFFFFFFFFFFFFFFFFFFFFFFFFFFFFFFFFFFFFFFFFFFFFFFFFFFFFFFFFFFFF
310
FFFFFFFFFFFFFFFFF000FFFFFFFFFFFFFFFFFFFFFFFFFFFFFFFFFFFFFFFFFFFF
310
FFFFFFFFFFFFFFFFFFFFFFFFFFFFFFFFFFFFFFFFFFFFFFFFFFFFFFFFFFFFFFFF
310
FFFFFFFFFFFFFFFFFFFFFFFFFFFFFFFFFFFFFFFFFFFFFFFFFFFFFFFFFFFFFFFF
310
F000FFFFFFFFFFFFFFFFFFFFFFFFFFFFFFFFFFFFFFFFFFFFFFFFFFFFFFFFFFFF
310
FFFFFFFFFFFFFFFFFFFFFFFFFFFFFFFFFFFFFFFFFFFFFFFFFFFFFFFFFFFFFFFF
310
FFFFFFFFFFFFFFFFFFFFFFFFFFFFFFFFFFFFFFFFFFFFFFFFF000FFFFFFFFFFFF
310
FFFFFFFFFFFFFFFFFFFFFFFFFFFFFFFFFFFFFFFFFFFFFFFFFFFFFFFFFFFFFFFF
310
FFFFFFFFFFFFFFFFFFFFFFFFFFFFFFFFFFFFFFFFFFFFFFFFFFFFFFFFFFFFFFFF
310
FFFFFFFFFFFFFFFFFFFFFFFFFFFFFFFFF000FFFFFFFFFFFFFFFFFFFFFFFFFFFF
310
FFFFFFFFFFFFFFFFFFFFFFFFFFFFFFFFFFFFFFFFFFFFFFFFFFFFFFFFFFFFFFFF
310
FFFFFFFFFFFFFFFFFFFFFFFFFFFFFFFFFFFFFFFFFFFFFFFFFFFFFFFFFFFFFFFF
310
FFFFFFFFFFFFFFFFF000FFFFFFFFFFFFFFFFFFFFFFFFFFFFFFFFFFFFFFFFFFFF
310
FFFFFFFFFFFFFFFFFFFFFFFFFFFFFFFFFFFFFFFFFFFFFFFFFFFFFFFFFFFFFFFF
310
FFFFFFFFFFFFFFFFFFFFFFFFFFFFFFFFFFFFFFFFFFFFFFFFFFFFFFFFFFFFFFFF
310
F000FFFFFFFFFFFFFFFFFFFFFFFFFFFFFFFFFFFFFFFFFFFFFFFFFFFFFFFFFFFF
310
FFFFFFFFFFFFFFFFFFFFFFFFFFFFFFFFFFFFFFFFFFFFFFFFFFFFFFFFFFFFFFFF
310
FFFFFFFFFFFFFFFFFFFFFFFFFFFFFFFFFFFFFFFFFFFFFFFFF000FFFFFFFFFFFF
310
FFFFFFFFFFFFFFFFFFFFFFFFFFFFFFFFFFFFFFFFFFFFFFFFFFFFFFFFFFFFFFFF
310
FFFFFFFFFFFFFFFFFFFFFFFFFFFFFFFFFFFFFFFFFFFFFFFFFFFFFFFFFFFFFFFF
310
FFFFFFFFFFFFFFFFFFFFFFFFFFFFFFFFF000FFFFFFFFFFFFFFFFFFFFFFFFFFFF
310
FFFFFFFFFFFFFFFFFFFFFFFFFFFFFFFFFFFFFFFFFFFFFFFFFFFFFFFFFFFFFFFF
310
FFFFFFFFFFFFFFFFFFFFFFFFFFFFFFFFFFFFFFFFFFFFFFFFFFFFFFFFFFFFFFFF
310
FFFFFFFFFFFFFFFFF000FFFFF80003FFFFFFFFFFFFFFFFFFFFFFFFFFFFFFFFFF
310
FFFFF00007FFFFFFFFFF00007FFFFFF800000000000000007FFFFFFFFFFFFFFF
310
FFFFFFFC001FFFFFFFFFFFFFFC001FFFFFFFFFFFFFFFFFFFFFFFFFFE0007FFFF
310
F000FFFF8000007FFFFFFFF8000FFFFFC0007FFFFF80007FFFFF0000007FFFFF
310
FFF8000007FFFFF800000000000000007FFFFFF0001FFFFFFFFFFFC00001FFFF
310
FFFFFFFFC00001FFFFFFFF000000000003FFFFE000007FFFF000FFFE0000000F
310
FFFFFFF0000FFFFF80007FFFFF80007FFFFC0000001FFFFFFFC0000001FFFFF8
310
00000000000000007FFFFFF0001FFFFFFFFFFE0000003FFFFFFFFFFE0000003F
310
FFFFFF000000000003FFFF0000000FFFF000FFF800000003FFFFFFF00007FFFF
310
80007FFFFF80007FFFF000000007FFFFFF000000003FFFF80000000000000000
310
7FFFFFF0001FFFFFFFFFF80000000FFFFFFFFFF80000000FFFFFFF0000000000
310
03FFFC00000003FFF000FFE000000000FFFFFFF00007FFFF80003FFFFF80007F
310
FFC000000001FFFFFC000000001FFFF800000000000000007FFFFFF0001FFFFF
310
FFFFE000000003FFFFFFFFE000000003FFFFFF000000000003FFF000000000FF
310
F000FF80000000007FFFFFF00007FFFF80003FFFFF80007FFF8000000000FFFF
310
F80000000007FFF800000000000000007FFFFFF0001FFFFFFFFFC000000001FF
310
FFFFFFC000000001FFFFFF000000000003FFC0000000007FF000FF0000000000
310
3FFFFFE00007FFFF00003FFFFF80007FFE00000000003FFFF00000000003FFF8
310
00000000000000007FFFFFF0001FFFFFFFFF8000000000FFFFFFFF8000000000
310
FFFFFF000000000003FF80000000003FF000FE00000000001FFFFFE00003FFFF
310
00003FFFFF80007FFC00000000001FFFE00000000001FFF8000001FFFE000000
310
7FFFFFF0001FFFFFFFFE00000000003FFFFFFE00000000003FFFFF0000000000
310
03FF00000000001FF000FC00000000000FFFFFE00003FFFF00001FFFFF80007F
310
F800000000001FFFC00000000000FFF8000001FFFE0000007FFFFFF0001FFFFF
310
FFFC00000000001FFFFFFC00000000001FFFFF000000000003FE00000000000F
310
F000F8000000000007FFFFE00003FFFF00001FFFFF80007FF800000000000FFF
310
800000000000FFF8000001FFFE0000007FFFFFF0001FFFFFFFF800000000000F
310
FFFFF800000000000FFFFF000000000003FC000000000007F000F80000000000
310
03FFFFC00003FFFE00001FFFFF80007FF0000000000007FF0000000000007FF8
310
000001FFFE0000007FFFFFF0001FFFFFFFF0000000000007FFFFF00000000000
310
07FFFF000000000003F8000000000003F000F0000000000003FFFFC00001FFFE
310
00001FFFFF80007FE0000000000007FE0000000000003FF8000001FFFE000000
310
7FFFFFF0001FFFFFFFF0000000000007FFFFF0000000000007FFFF0000000000
310
03F800001F800003F000E00001FFF00001FFFFC00001FFFE00000FFFFF80007F
310
E00001FFE00003FE00001FFF00003FF8000001FFFE0000007FFFFFF0001FFFFF
310
FFE000003E000003FFFFE000003E000003FFFF000000000003F00001FFF80001
310
F000E00007FFFC0001FFFFC00001FFFE00000FFFFF80007FC0000FFFFC0003FC
310
0000FFFFC0001FF8000001FFFE0000007FFFFFF0001FFFFFFFC00003FFE00001
310
FFFFC00003FFE00001FFFF0001FFFFFFFFF00007FFFE0001F000E0000FFFFF00
310
00FFFF800001FFFC00000FFFFF80007FC0001FFFFE0001FC0001FFFFE0001FF8
310
000001FFFE0000007FFFFFF0001FFFFFFF80000FFFF80000FFFF80000FFFF800
310
00FFFF0003FFFFFFFFE0000FFFFF8000F000C0003FFFFF8000FFFF800000FFFC
310
000007FFFF80007F80003FFFFF0001FC0003FFFFF0001FF8000001FFFE000000
310
7FFFFFF0001FFFFFFF80003FFFFE0000FFFF80003FFFFE0000FFFF0003FFFFFF
310
FFE0003FFFFF8000F000C0003FFFFF8000FFFF800000FFFC000007FFFF80007F
310
80007FFFFF8001F80007FFFFF8000FF8000001FFFE0000007FFFFFF0001FFFFF
310
FF00007FFFFF00007FFF00007FFFFF00007FFF0003FFFFFFFFE0003FFFFFC000
310
F000C0007FFFFFC000FFFF000000FFFC000007FFFF80007F8000FFFFFF8000F8
310
000FFFFFF8000FF8000001FFFE0000007FFFFFF0001FFFFFFF0000FFFFFF8000
310
7FFF0000FFFFFF80007FFF0003FFFFFFFFC0007FFFFFC00070008000FFFFFFC0
310
00FFFF000000FFF8000007FFFF80007F8000FFFFFF8000F8000FFFFFF8000FF8
310
000001FFFE0000007FFFFFF0001FFFFFFE0001FFFFFFC0003FFE0001FFFFFFC0
310
003FFF0003FFFFFFFFC0007FFFFFE00070008000FFFFFFC0007FFF0000007FF8
310
000003FFFF80007F0001FFFFFF8000F8000FFFFFF8000FF8000001FFFE000000
310
7FFFFFF0001FFFFFFE0001FFFFFFC0003FFE0001FFFFFFC0003FFF0003FFFFFF
310
FFC000FFFFFFE00070008000FFFFFFC0007FFF0000007FF8000003FFFF80007F
310
0001FFFFFF8000F8001FFFFFF8000FF8000001FFFE0000007FFFFFF0001FFFFF
310
FE0003FFFFFFE0003FFE0003FFFFFFE0003FFF0003FFFFFFFFC000FFFFFFE000
310
70008000FFFFFFC0007FFE0000007FF8000003FFFF80007F0001FFFFFF8000F0
310
001FFFFFF8000FF8000001FFFE0000007FFFFFF0001FFFFFFC0003FFFFFFE000
310
1FFC0003FFFFFFE0001FFF0003FFFFFFFFC000FFFFFFC00070008000FFFFFF80
310
007FFE0000007FF0000003FFFF80007F0001FFFFFF0000F0001FFFFFF8000FF8
310
000001FFFE0000007FFFFFF0001FFFFFFC0007FFFFFFF0001FFC0007FFFFFFF0
310
001FFF0003FFFFFFFFC000FFFFFFC00070008001FFFFFF0000FFFE0000003FF0
310
000001FFFF80007F0001FFFFFF0000F8001FFFFFF0000FF8000001FFFE000000
310
7FFFFFF0001FFFFFFC0007FFFFFFF0001FFC0007FFFFFFF0001FFF0003FFFFFF
310
FFC001FFFFFF80007000FFFFFFFFFE0000FFFE0008003FF0008001FFFF80007F
310
FFFFFFFFFC0000FFFFFFFFFFE0000FF8000001FFFE0000007FFFFFF0001FFFFF
310
F8000FFFFFFFF8000FF8000FFFFFFFF8000FFF0003FFFFFFFFFFFFFFFFFF0000
310
7000FFFFFFFFFC0000FFFC0008003FF0008001FFFF80007FFFFFFFFFF80001FF
310
FFFFFFFF80000FF8000001FFFE0000007FFFFFF0001FFFFFF8000FFFFFFFF800
310
0FF8000FFFFFFFF8000FFF0003FFFFFFFFFFFFFFFFFE0000F000FFFFFFFFE000
310
00FFFC000C003FE000C001FFFF80007FFFFFFFFFC00001FFFFFFFFFE00001FF8
310
000001FFFE0000007FFFFFF0001FFFFFF8000FFFFFFFF8000FF8000FFFFFFFF8
310
000FFF0003FFFFFFFFFFFFFFFFF00000F000FFFFFFFE000001FFFC000C001FE0
310
00C000FFFF80007FFFFFFFFE000001FFFFFFFFE000001FF80FFFFFFFFFFFFFC0
310
7FFFFFF0001FFFFFF8000FFFFFFFF8000FF8000FFFFFFFF8000FFF0003FFFFFF
310
FFFFFFFFFF800000F000FFFFFFC0000001FFFC001C001FE001C000FFFF80007F
310
FFFFFF80000003FFFFFFF80000001FF80FFFFFFFFFFFFFC07FFFFFF0001FFFFF
310
F8001FFFFFFFFC000FF8001FFFFFFFFC000FFF0003FFFFFFFFFFFFFFF0000001
310
F000FFFFF800000001FFF8001C001FE001C000FFFF80007FFFFFF800000003FF
310
FFFF800000003FF80FFFFFFFFFFFFFC07FFFFFF0001FFFFFF8001FFFFFFFFC00
310
0FF8001FFFFFFFFC000FFF0003FFFFFFFFFFFFFE00000001F000FFFFC0000000
310
03FFF8001E001FC001E000FFFF80007FFFFF8000000007FFFFFC000000003FF8
310
0FFFFFFFFFFFFFC07FFFFFF0001FFFFFF8001FFFFFFFFC000FF8001FFFFFFFFC
310
000FFF0003FFFFFFFFFFFFE000000003F000FFFE0000000007FFF8001E000FC0
310
01E0007FFF80007FFFFE0000000007FFFFE0000000007FF80FFFFFFFFFFFFFC0
310
7FFFFFF0001FFFFFF0001FFFFFFFFC0007F0001FFFFFFFFC0007FF0003FFFFFF
310
FFFFFF0000000003F000FFF80000000007FFF8001E000FC003E0007FFF80007F
310
FFF0000000000FFFFF8000000000FFF80FFFFFFFFFFFFFC07FFFFFF0001FFFFF
310
F0001FFFFFFFFC0007F0001FFFFFFFFC0007FF0003FFFFFFFFFFFC0000000007
310
F000FFE0000000000FFFF0003E000FC003E0007FFF80007FFFC0000000001FFF
310
FE0000000001FFF80FFFFFFFFFFFFFC07FFFFFF0001FFFFFF0001FFFFFFFFC00
310
07F0001FFFFFFFFC0007FF0003FFFFFFFFFFF0000000000FF000FFC000000000
310
1FFFF0003F000F8003F0003FFF80007FFF80000000003FFFF80000000003FFF8
310
0FFFFFFFFFFFFFC07FFFFFF0001FFFFFF0001FFFFFFFFC0007F0001FFFFFFFFC
310
0007FF0003FFFFFFFFFFE0000000001FF000FF00000000007FFFF0003F000780
310
03F0003FFF80007FFF00000000007FFFF00000000007FFF80FFFFFFFFFFFFFC0
310
7FFFFFF0001FFFFFF0001FFFFFFFFC0007F0001FFFFFFFFC0007FF0003FFFFFF
310
FFFF80000000007FF000FE0000000000FFFFE0003F00078007F0003FFF80007F
310
FE0000000001FFFFE0000000001FFFF80FFFFFFFFFFFFFC07FFFFFF0001FFFFF
310
F0001FFFFFFFFC0007F0001FFFFFFFFC0007FF0003FFFFFFFFFF0000000000FF
310
F000FC0000000003FFFFE0007F00078007F0003FFF80007FFC0000000007FFFF
310
C0000000007FFFF80FFFFFFFFFFFFFC07FFFFFF0001FFFFFF8001FFFFFFFFC00
310
0FF8001FFFFFFFFC000FFF0003FFFFFFFFFE0000000003FFF000FC000000000F
310
FFFFE0007F80070007F8001FFF80007FF8000000001FFFFF8000000001FFFFF8
310
0FFFFFFFFFFFFFC07FFFFFF0001FFFFFF8001FFFFFFFFC000FF8001FFFFFFFFC
310
000FFF0003FFFFFFFFFC000000000FFFF000F8000000007FFFFFE0007F800700
310
07F8001FFF80007FF000000000FFFFFF800000000FFFFFF80FFFFFFFFFFFFFC0
310
7FFFFFF0001FFFFFF8000FFFFFFFF8000FF8000FFFFFFFF8000FFF0003FFFFFF
310
FFFC000000007FFFF000F800000007FFFFFFC0007F8003000FF8001FFF80007F
310
F000000007FFFFFF000000007FFFFFF80FFFFFFFFFFFFFC07FFFFFF0001FFFFF
310
F8000FFFFFFFF8000FF8000FFFFFFFF8000FFF0003FFFFFFFFF80000000FFFFF
310
F000F0000000FFFFFFFFC000FF8003000FF8001FFF80007FE0000000FFFFFFFF
310
0000000FFFFFFFF8000001FFFE0000007FFFFFF0001FFFFFF8000FFFFFFFF800
310
0FF8000FFFFFFFF8000FFF0003FFFFFFFFF8000000FFFFFFF000F000000FFFFF
310
FFFFC000FFC002000FF8000FFF80007FE000001FFFFFFFFE000001FFFFFFFFF8
310
000001FFFE0000007FFFFFF0001FFFFFF8000FFFFFFFF8000FF8000FFFFFFFF8
310
000FFF0003FFFFFFFFF000001FFFFFFFF000E00000FFFFFFFFFFC000FFC00200
310
0FFC000FFF80007FE00001FFFFFFFFFE00001FFFFFFFFFF8000001FFFE000000
310
7FFFFFF0001FFFFFFC000FFFFFFFF8001FFC000FFFFFFFF8001FFF0003FFFFFF
310
FFF00001FFFFFFFFF000E00007FFFFFFFFFF8000FFC000001FFC000FFF80007F
310
C0000FFFFFFFFFFE0000FFFFFFFFFFF8000001FFFE0000007FFFFFF0001FFFFF
310
FC0007FFFFFFF0001FFC0007FFFFFFF0001FFF0003FFFFFFFFF00007FFFFFFFF
310
F000E0001FFFFFFFFFFF8000FFC000001FFC000FFF80007FC0003FFFFFFFFFFE
310
0001FFFFFFFFFFF8000001FFFE0000007FFFFFF0001FFFFFFC0007FFFFFFF000
310
1FFC0007FFFFFFF0001FFF0003FFFFFFFFF0001FFFFFFFFFF000E0003FFFFF00
310
03FF8001FFE000001FFC0007FF80007FC0007FFFFF0007FC0003FFFFF0003FF8
310
000001FFFE0000007FFFFFF0001FFFFFFC0003FFFFFFE0001FFC0003FFFFFFE0
310
001FFF0003FFFFFFFFF0003FFFFFFFFFF000E0003FFFFF0001FF8001FFE00000
310
1FFE0007FF80007FC0007FFFFE0003FC0007FFFFE0003FF8000001FFFE000000
310
7FFFFFF0001FFFFFFE0003FFFFFFE0003FFE0003FFFFFFE0003FFF0003FFFFFF
310
FFF0003FFFFF8001F000E0003FFFFF0001FF0001FFE000001FFE0007FF80007F
310
C0007FFFFE0003FC0007FFFFE0003FF8000001FFFE0000007FFFFFF0001FFFFF
310
FE0001FFFFFFC0003FFE0001FFFFFFC0003FFF0003FFFFFFFFF0003FFFFF0001
310
F000E0003FFFFF0003FF0001FFE000003FFE0007FF80007FC0007FFFFE0003FC
310
0007FFFFE0003FF8000001FFFE0000007FFFFFF0001FFFFFFF0001FFFFFFC000
310
7FFF0001FFFFFFC0007FFF0003FFFFFFFFF0003FFFFF0001F000E0003FFFFE00
310
03FF0003FFF000003FFE0003FF80007FC0007FFFFC0003FE0007FFFFE0003FF8
310
000001FFFE0000007FFFFFF0001FFFFFFF0000FFFFFF80007FFF0000FFFFFF80
310
007FFF0003FFFFFFFFF0003FFFFF0001F000E0003FFFFE0003FF0003FFF00000
310
3FFF0003FF80007FC0007FFFFC0007FE0007FFFFC0003FF8000001FFFE000000
310
7FFFFFF0001FFFFFFF80007FFFFF0000FFFF80007FFFFF0000FFFF0003FFFFFF
310
FFF0003FFFFF0003F000E0003FFFFC0003FE0003FFF000003FFF0003FF80007F
310
E0003FFFF80007FE0003FFFFC0007FF8000001FFFE0000007FFFFFF0001FFFFF
310
FF80003FFFFE0000FFFF80003FFFFE0000FFFF0003FFFFFFFFF0001FFFFE0003
310
F000F0001FFFF80003FE0003FFF000007FFF0001FF80007FE0003FFFF00007FE
310
0001FFFF80007FF8000001FFFE0000007FFFFFF0001FFFFFFFC0000FFFF80001
310
FFFFC0000FFFF80001FFFF0003FFFFFFFFF0001FFFFC0003F000F0000FFFF000
310
07FE0007FFF800007FFF0001FF80007FE0001FFFE00007FF0000FFFE00007FF8
310
000001FFFE0000007FFFFFF0001FFFFFFFC00003FFE00001FFFFC00003FFE000
310
01FFFF0003FFFFFFFFF8000FFFF80003F000F00003FFC00007FC0007FFF80000
310
7FFF8001FF80007FF00007FF80000FFF00007FF80000FFF8000001FFFE000000
310
7F80000000000001FFE000003E000003FFFFE000003E000003FFFF0003FFFFFF
310
FFF80003FFE00007F000F800000000000FFC0007FFF800007FFF8001FF80007F
310
F000000000000FFF000000000000FFF8000001FFFE0000007F80000000000001
310
FFF0000000000007FFFFF0000000000007FFFF0003FFFFFFFFFC00007E000007
310
F000F800000000000FFC0007FFF80000FFFF8000FF80007FF800000000001FFF
310
800000000001FFF8000001FFFE0000007F80000000000001FFF800000000000F
310
FFFFF800000000000FFFFF0003FFFFFFFFFC00000000000FF000FC0000000000
310
1FFC0007FFFC0000FFFF8000FF80007FF800000000003FFFC00000000001FFF8
310
000001FFFE0000007F80000000000001FFF800000000000FFFFFF80000000000
310
0FFFFF0003FFFFFFFFFE00000000001FF000FE00000000003FF8000FFFFC0000
310
FFFF8000FF80007FFC00000000003FFFC00000000003FFF8000001FFFE000000
310
7F80000000000001FFFC00000000001FFFFFFC00000000001FFFFF0003FFFFFF
310
FFFF00000000001FF000FF00000000003FF8000FFFFC0000FFFFC000FF80007F
310
FE00000000007FFFE00000000007FFF8000001FFFE0000007F80000000000001
310
FFFE00000000003FFFFFFE00000000003FFFFF0003FFFFFFFFFF80000000003F
310
F000FF80000000007FF8000FFFFC0001FFFFC0007F80007FFF0000000000FFFF
310
F0000000000FFFF800000000000000007F80000000000001FFFF8000000000FF
310
FFFFFF8000000000FFFFFF0003FFFFFFFFFFC0000000007FF000FFC000000000
310
FFF8000FFFFE0001FFFFC0007F80007FFF8000000001FFFFF8000000001FFFF8
310
00000000000000007F80000000000001FFFFC000000001FFFFFFFFC000000001
310
FFFFFF0003FFFFFFFFFFE000000000FFF000FFE000000003FFF0001FFFFE0001
310
FFFFC0007F80007FFFC000000007FFFFFE000000003FFFF80000000000000000
310
7F80000000000001FFFFE000000003FFFFFFFFE000000003FFFFFF0003FFFFFF
310
FFFFF000000003FFF000FFF80000000FFFF0001FFFFE0001FFFFE0007F80007F
310
FFF00000000FFFFFFF00000000FFFFF800000000000000007F80000000000001
310
FFFFF80000000FFFFFFFFFF80000000FFFFFFF0003FFFFFFFFFFFC0000000FFF
310
F000FFFE0000003FFFF0001FFFFE0003FFFFE0003F80007FFFFC0000003FFFFF
310
FFC0000003FFFFF800000000000000007F80000000000001FFFFFE0000003FFF
310
FFFFFFFE0000003FFFFFFF0003FFFFFFFFFFFF0000003FFFF000FFFF800000FF
310
FFF0001FFFFF0003FFFFE0003F80007FFFFF000001FFFFFFFFF800001FFFFFF8
310
00000000000000007F80000000000001FFFFFFC00001FFFFFFFFFFFFC00001FF
310
FFFFFF0003FFFFFFFFFFFFC00000FFFFF000FFFFF8000FFFFFFFFFFFFFFFFFFF
310
FFFFFFFFFFFFFFFFFFFFF0001FFFFFFFFFFF0000FFFFFFF80000000000000000
310
7FFFFFFFFFFFFFFFFFFFFFFC001FFFFFFFFFFFFFFC001FFFFFFFFFFFFFFFFFFF
310
FFFFFFFC001FFFFFF000FFFFFFFFFFFFFFFFFFFFFFFFFFFFFFFFFFFFFFFFFFFF
310
FFFFFFFFFFFFFFFFFFFFFFFFFFFFFFFFFFFFFFFFFFFFFFFFFFFFFFFFFFFFFFFF
310
FFFFFFFFFFFFFFFFFFFFFFFFFFFFFFFFFFFFFFFFFFFFFFFFFFFFFFFFFFFFFFFF
310
F000FFFFFFFFFFFFFFFFFFFFFFFFFFFFFFFFFFFFFFFFFFFFFFFFFFFFFFFFFFFF
310
FFFFFFFFFFFFFFFFFFFFFFFFFFFFFFFFFFFFFFFFFFFFFFFFFFFFFFFFFFFFFFFF
310
FFFFFFFFFFFFFFFFFFFFFFFFFFFFFFFFFFFFFFFFFFFFFFFFF000FFFFFFFFFFFF
310
FFFFFFFFFFFFFFFFFFFFFFFFFFFFFFFFFFFFFFFFFFFFFFFFFFFFFFFFFFFFFFFF
310
FFFFFFFFFFFFFFFFFFFFFFFFFFFFFFFFFFFFFFFFFFFFFFFFFFFFFFFFFFFFFFFF
310
FFFFFFFFFFFFFFFFFFFFFFFFFFFFFFFFF000FFFFFFFFFFFFFFFFFFFFFFFFFFFF
310
FFFFFFFFFFFFFFFFFFFFFFFFFFFFFFFFFFFFFFFFFFFFFFFFFFFFFFFFFFFFFFFF
310
FFFFFFFFFFFFFFFFFFFFFFFFFFFFFFFFFFFFFFFFFFFFFFFFFFFFFFFFFFFFFFFF
310
FFFFFFFFFFFFFFFFF000FFFFFFFFFFFFFFFFFFFFFFFFFFFFFFFFFFFFFFFFFFFF
310
FFFFFFFFFFFFFFFFFFFFFFFFFFFFFFFFFFFFFFFFFFFFFFFFFFFFFFFFFFFFFFFF
310
FFFFFFFFFFFFFFFFFFFFFFFFFFFFFFFFFFFFFFFFFFFFFFFFFFFFFFFFFFFFFFFF
310
F000FFFFFFFFFFFFFFFFFFFFFFFFFFFFFFFFFFFFFFFFFFFFFFFFFFFFFFFFFFFF
310
FFFFFFFFFFFFFFFFFFFFFFFFFFFFFFFFFFFFFFFFFFFFFFFFFFFFFFFFFFFFFFFF
310
FFFFFFFFFFFFFFFFFFFFFFFFFFFFFFFFFFFFFFFFFFFFFFFFF000FFFFFFFFFFFF
310
FFFFFFFFFFFFFFFFFFFFFFFFFFFFFFFFFFFFFFFFFFFFFFFFFFFFFFFFFFFFFFFF
310
FFFFFFFFFFFFFFFFFFFFFFFFFFFFFFFFFFFFFFFFFFFFFFFFFFFFFFFFFFFFFFFF
310
FFFFFFFFFFFFFFFFFFFFFFFFFFFFFFFFF000FFFFFFFFFFFFFFFFFFFFFFFFFFFF
310
FFFFFFFFFFFFFFFFFFFFFFFFFFFFFFFFFFFFFFFFFFFFFFFFFFFFFFFFFFFFFFFF
310
FFFFFFFFFFFFFFFFFFFFFFFFFFFFFFFFFFFFFFFFFFFFFFFFFFFFFFFFFFFFFFFF
310
FFFFFFFFFFFFFFFFF000FFFFFFFFFFFFFFFFFFFFFFFFFFFFFFFFFFFFFFFFFFFF
310
FFFFFFFFFFFFFFFFFFFFFFFFFFFFFFFFFFFFFFFFFFFFFFFFFFFFFFFFFFFFFFFF
310
FFFFFFFFFFFFFFFFFFFFFFFFFFFFFFFFFFFFFFFFFFFFFFFFFFFFFFFFFFFFFFFF
310
F000FFFFFFFFFFFFFFFFFFFFFFFFFFFFFFFFFFFFFFFFFFFFFFFFFFFFFFFFFFFF
310
FFFFFFFFFFFFFFFFFFFFFFFFFFFFFFFFFFFFFFFFFFFFFFFFFFFFFFFFFFFFFFFF
310
FFFFFFFFFFFFFFFFFFFFFFFFFFFFFFFFFFFFFFFFFFFFFFFFF000FFFFFFFFFFFF
310
FFFFFFFFFFFFFFFFFFFFFFFFFFFFFFFFFFFFFFFFFFFFFFFFFFFFFFFFFFFFFFFF
310
FFFFFFFFFFFFFFFFFFFFFFFFFFFFFFFFFFFFFFFFFFFFFFFFFFFFFFFFFFFFFFFF
310
FFFFFFFFFFFFFFFFFFFFFFFFFFFFFFFFF000FFFFFFFFFFFFFFFFFFFFFFFFFFFF
310
FFFFFFFFFFFFFFFFFFFFFFFFFFFFFFFFFFFFFFFFFFFFFFFFFFFFFFFFFFFFFFFF
310
FFFFFFFFFFFFFFFFFFFFFFFFFFFFFFFFFFFFFFFFFFFFFFFFFFFFFFFFFFFFFFFF
310
FFFFFFFFFFFFFFFFF000FFFFFFFFFFFFFFFFFFFFFFFFFFFFFFFFFFFFFFFFFFFF
310
FFFFFFFFFFFFFFFFFFFFFFFFFFFFFFFFFFFFFFFFFFFFFFFFFFFFFFFFFFFFFFFF
310
FFFFFFFFFFFFFFFFFFFFFFFFFFFFFFFFFFFFFFFFFFFFFFFFFFFFFFFFFFFFFFFF
310
F000FFFFFFFFFFFFFFFFFFFFFFFFFFFFFFFFFFFFFFFFFFFFFFFFFFFFFFFFFFFF
310
FFFFFFFFFFFFFFFFFFFFFFFFFFFFFFFFFFFFFFFFFFFFFFFFFFFFFFFFFFFFFFFF
310
FFFFFFFFFFFFFFFFFFFFFFFFFFFFFFFFFFFFFFFFFFFFFFFFF000FFFFFFFFFFFF
310
FFFFFFFFFFFFFFFFFFFFFFFFFFFFFFFFFFFFFFFFFFFFFFFFFFFFFFFFFFFFFFFF
310
FFFFFFFFFFFFFFFFFFFFFFFFFFFFFFFFFFFFFFFFFFFFFFFFFFFFFFFFFFFFFFFF
310
FFFFFFFFFFFFFFFFFFFFFFFFFFFFFFFFF000FFFFFFFFFFFFFFFFFFFFFFFFFFFF
310
FFFFFFFFFFFFFFFFFFFFFFFFFFFFFFFFFFFFFFFFFFFFFFFFFFFFFFFFFFFFFFFF
310
FFFFFFFFFFFFFFFFFFFFFFFFFFFFFFFFFFFFFFFFFFFFFFFFFFFFFFFFFFFFFFFF
310
FFFFFFFFFFFFFFFFF000FFFFFFFFFFFFFFFFFFFFFFFFFFFFFFFFFFFFFFFFFFFF
310
FFFFFFFFFFFFFFFFFFFFFFFFFFFFFFFFFFFFFFFFFFFFFFFFFFFFFFFFFFFFFFFF
310
FFFFFFFFFFFFFFFFFFFFFFFFFFFFFFFFFFFFFFFFFFFFFFFFFFFFFFFFFFFFFFFF
310
F000FFFFFFFFFFFFFFFFFFFFFFFFFFFFFFFFFFFFFFFFFFFFFFFFFFFFFFFFFFFF
310
FFFFFFFFFFFFFFFFFFFFFFFFFFFFFFFFFFFFFFFFFFFFFFFFFFFFFFFFFFFFFFFF
310
FFFFFFFFFFFFFFFFFFFFFFFFFFFFFFFFFFFFFFFFFFFFFFFFF000FFFFFFFFFFFF
310
FFFFFFFFFFFFFFFFFFFFFFFFFFFFFFFFFFFFFFFFFFFFFFFFFFFFFFFFFFFFFFFF
310
FFFFFFFFFFFFFFFFFFFFFFFFFFFFFFFFFFFFFFFFFFFFFFFFFFFFFFFFFFFFFFFF
310
FFFFFFFFFFFFFFFFFFFFFFFFFFFFFFFFF000FFFFFFFFFFFFFFFFFFFFFFFFFFFF
310
FFFFFFFFFFFFFFFFFFFFFFFFFFFFFFFFFFFFFFFFFFFFFFFFFFFFFFFFFFFFFFFF
310
FFFFFFFFFFFFFFFFFFFFFFFFFFFFFFFFFFFFFFFFFFFFFFFFFFFFFFFFFFFFFFFF
310
FFFFFFFFFFFFFFFFF000FFFFFFFFFFFFFFFFFFFFFFFFFFFFFFFFFFFFFFFFFFFF
310
FFFFFFFFFFFFFFFFFFFFFFFFFFFFFFFFFFFFFFFFFFFFFFFFFFFFFFFFFFFFFFFF
310
FFFFFFFFFFFFFFFFFFFFFFFFFFFFFFFFFFFFFFFFFFFFFFFFFFFFFFFFFFFFFFFF
310
F000FFFFFFFFFFFFFFFFFFFFFFFFFFFFFFFFFFFFFFFFFFFFFFFFFFFFFFFFFFFF
310
FFFFFFFFFFFFFFFFFFFFFFFFFFFFFFFFFFFFFFFFFFFFFFFFFFFFFFFFFFFFFFFF
310
FFFFFFFFFFFFFFFFFFFFFFFFFFFFFFFFFFFFFFFFFFFFFFFFF000FFFFFFFFFFFF
310
FFFFFFFFFFFFFFFFFFFFFFFFFFFFFFFFFFFFFFFFFFFFFFFFFFFFFFFFFFFFFFFF
310
FFFFFFFFFFFFFFFFFFFFFFFFFFFFFFFFFFFFFFFFFFFFFFFFFFFFFFFFFFFFFFFF
310
FFFFFFFFFFFFFFFFFFFFFFFFFFFFFFFFF0000000000000000000000000000000
310
0000000000000000000000000000000000000000000000000000000000000000
310
0000000000000000000000000000000000000000000000000000000000000000
310
0000000000000000000000000000000000000000000000000000000000000000
310
0000000000000000000000000000000000000000000000000000000000000000
310
0000000000000000000000000000000000000000000000000000000000000000
310
0000000000000000000000000000000000000000000000000000000000000000
310
0000000000000000000000000000000000000000000000000000000000000000
310
0000000000000000000000000000000000000000000000000000000000000000
310
0000000000000000000000000000000000000000000000000000000000000000
310
0000000000000000000000000000000000000000000000000000000000000000
310
0000000000000000000000000000000000000000000000000000000000000000
310
0000000000000000000000000000000000000000000000000000000000000000
310
0000000000000000000000000000000000000000000000000000000000000000
310
0000000000000000000000000000000000000000000000000000000000000000
310
0000000000000000000000000000000000000000000000000000000000000000
  1
OLE
  0
ENDSEC
  0
SECTION
  2
OBJECTS
  0
DICTIONARY
  5
C
330
0
100
AcDbDictionary
281
     1
  3
ACAD_GROUP
350
D
  3
ACAD_LAYOUT
350
1A
  3
ACAD_MLINESTYLE
350
17
  3
ACAD_PLOTSETTINGS
350
19
  3
ACAD_PLOTSTYLENAME
350
E
  3
ACAD_SCALELIST
350
47
  0
DICTIONARY
  5
D
102
{ACAD_REACTORS
330
C
102
}
330
C
100
AcDbDictionary
281
     1
  0
DICTIONARY
  5
1A
102
{ACAD_REACTORS
330
C
102
}
330
C
100
AcDbDictionary
281
     1
  3
Layout1
350
1E
  3
Layout2
350
26
  3
Model
350
22
  0
DICTIONARY
  5
17
102
{ACAD_REACTORS
330
C
102
}
330
C
100
AcDbDictionary
281
     1
  3
Standard
350
18
  0
DICTIONARY
  5
19
102
{ACAD_REACTORS
330
C
102
}
330
C
100
AcDbDictionary
281
     1
  0
ACDBDICTIONARYWDFLT
  5
E
102
{ACAD_REACTORS
330
C
102
}
330
C
100
AcDbDictionary
281
     1
  3
Normal
350
F
100
AcDbDictionaryWithDefault
340
F
  0
DICTIONARY
  5
47
102
{ACAD_REACTORS
330
C
102
}
330
C
100
AcDbDictionary
281
     1
  3
A0
350
48
  3
A1
350
49
  3
A2
350
4A
  3
A3
350
4B
  3
A4
350
4C
  3
A5
350
4D
  3
A6
350
4E
  3
A7
350
4F
  3
A8
350
50
  3
A9
350
51
  3
B0
350
52
  3
B1
350
53
  3
B2
350
54
  3
B3
350
55
  3
B4
350
56
  3
B5
350
57
  3
B6
350
58
  3
B7
350
59
  3
B8
350
5A
  3
B9
350
5B
  3
C0
350
5C
  3
C1
350
5D
  3
C2
350
5E
  3
C3
350
5F
  3
C4
350
60
  3
C5
350
61
  3
C6
350
62
  3
C7
350
63
  3
C8
350
64
  3
C9
350
65
  3
D0
350
66
  3
D1
350
67
  3
D2
350
68
  0
LAYOUT
  5
1E
102
{ACAD_REACTORS
330
1A
102
}
330
1A
100
AcDbPlotSettings
  1

  2
none_device
  4

  6

 40
0.0
 41
0.0
 42
0.0
 43
0.0
 44
0.0
 45
0.0
 46
0.0
 47
0.0
 48
0.0
 49
0.0
140
0.0
141
0.0
142
1.0
143
1.0
 70
   688
 72
     1
 73
     0
 74
     5
  7

 75
    16
147
1.0
148
0.0
149
0.0
100
AcDbLayout
  1
Layout1
 70
     1
 71
     1
 10
0.0
 20
0.0
 11
420.0
 21
297.0
 12
0.0
 22
0.0
 32
0.0
 14
1.0000000000E+20
 24
1.0000000000E+20
 34
1.0000000000E+20
 15
-1.0000000000E+20
 25
-1.0000000000E+20
 35
-1.0000000000E+20
146
0.0
 13
0.0
 23
0.0
 33
0.0
 16
1.0
 26
0.0
 36
0.0
 17
0.0
 27
1.0
 37
0.0
 76
     0
330
1B
  0
LAYOUT
  5
26
102
{ACAD_REACTORS
330
1A
102
}
330
1A
100
AcDbPlotSettings
  1

  2
none_device
  4

  6

 40
0.0
 41
0.0
 42
0.0
 43
0.0
 44
0.0
 45
0.0
 46
0.0
 47
0.0
 48
0.0
 49
0.0
140
0.0
141
0.0
142
1.0
143
1.0
 70
   688
 72
     1
 73
     0
 74
     5
  7

 75
    16
147
1.0
148
0.0
149
0.0
100
AcDbLayout
  1
Layout2
 70
     1
 71
     2
 10
0.0
 20
0.0
 11
0.0
 21
0.0
 12
0.0
 22
0.0
 32
0.0
 14
0.0
 24
0.0
 34
0.0
 15
0.0
 25
0.0
 35
0.0
146
0.0
 13
0.0
 23
0.0
 33
0.0
 16
1.0
 26
0.0
 36
0.0
 17
0.0
 27
1.0
 37
0.0
 76
     0
330
23
  0
LAYOUT
  5
22
102
{ACAD_REACTORS
330
1A
102
}
330
1A
100
AcDbPlotSettings
  1

  2
none_device
  4
Letter_(8.50_x_11.00_Inches)
  6

 40
6.35
 41
6.35
 42
6.35000508
 43
6.35000508
 44
215.9
 45
279.4
 46
0.0
 47
0.0
 48
0.0
 49
0.0
140
0.0
141
0.0
142
1.0
143
1.0
 70
  1712
 72
     1
 73
     0
 74
     0
  7

 75
     0
147
1.0
148
0.0
149
0.0
100
AcDbLayout
  1
Model
 70
     1
 71
     0
 10
0.0
 20
0.0
 11
297.0
 21
210.0
 12
0.0
 22
0.0
 32
0.0
 14
0.0
 24
0.0
 34
0.0
 15
297.0
 25
210.0
 35
0.0
146
0.0
 13
0.0
 23
0.0
 33
0.0
 16
1.0
 26
0.0
 36
0.0
 17
0.0
 27
1.0
 37
0.0
 76
     0
330
1F
331
29
  0
MLINESTYLE
  5
18
102
{ACAD_REACTORS
330
17
102
}
330
17
100
AcDbMlineStyle
  2
Standard
 70
     0
  3

 62
   256
 51
90.0
 52
90.0
 71
     2
 49
0.5
 62
   256
  6
BYLAYER
 49
-0.5
 62
   256
  6
BYLAYER
  0
ACDBPLACEHOLDER
  5
F
102
{ACAD_REACTORS
330
E
102
}
330
E
  0
SCALE
  5
48
102
{ACAD_REACTORS
330
47
102
}
330
47
100
AcDbScale
 70
     0
300
1:1
140
1.0
141
1.0
290
     1
  0
SCALE
  5
49
102
{ACAD_REACTORS
330
47
102
}
330
47
100
AcDbScale
 70
     0
300
1:2
140
1.0
141
2.0
290
     0
  0
SCALE
  5
4A
102
{ACAD_REACTORS
330
47
102
}
330
47
100
AcDbScale
 70
     0
300
1:4
140
1.0
141
4.0
290
     0
  0
SCALE
  5
4B
102
{ACAD_REACTORS
330
47
102
}
330
47
100
AcDbScale
 70
     0
300
1:5
140
1.0
141
5.0
290
     0
  0
SCALE
  5
4C
102
{ACAD_REACTORS
330
47
102
}
330
47
100
AcDbScale
 70
     0
300
1:8
140
1.0
141
8.0
290
     0
  0
SCALE
  5
4D
102
{ACAD_REACTORS
330
47
102
}
330
47
100
AcDbScale
 70
     0
300
1:10
140
1.0
141
10.0
290
     0
  0
SCALE
  5
4E
102
{ACAD_REACTORS
330
47
102
}
330
47
100
AcDbScale
 70
     0
300
1:16
140
1.0
141
16.0
290
     0
  0
SCALE
  5
4F
102
{ACAD_REACTORS
330
47
102
}
330
47
100
AcDbScale
 70
     0
300
1:20
140
1.0
141
20.0
290
     0
  0
SCALE
  5
50
102
{ACAD_REACTORS
330
47
102
}
330
47
100
AcDbScale
 70
     0
300
1:30
140
1.0
141
30.0
290
     0
  0
SCALE
  5
51
102
{ACAD_REACTORS
330
47
102
}
330
47
100
AcDbScale
 70
     0
300
1:40
140
1.0
141
40.0
290
     0
  0
SCALE
  5
52
102
{ACAD_REACTORS
330
47
102
}
330
47
100
AcDbScale
 70
     0
300
1:50
140
1.0
141
50.0
290
     0
  0
SCALE
  5
53
102
{ACAD_REACTORS
330
47
102
}
330
47
100
AcDbScale
 70
     0
300
1:100
140
1.0
141
100.0
290
     0
  0
SCALE
  5
54
102
{ACAD_REACTORS
330
47
102
}
330
47
100
AcDbScale
 70
     0
300
2:1
140
2.0
141
1.0
290
     0
  0
SCALE
  5
55
102
{ACAD_REACTORS
330
47
102
}
330
47
100
AcDbScale
 70
     0
300
4:1
140
4.0
141
1.0
290
     0
  0
SCALE
  5
56
102
{ACAD_REACTORS
330
47
102
}
330
47
100
AcDbScale
 70
     0
300
8:1
140
8.0
141
1.0
290
     0
  0
SCALE
  5
57
102
{ACAD_REACTORS
330
47
102
}
330
47
100
AcDbScale
 70
     0
300
10:1
140
10.0
141
1.0
290
     0
  0
SCALE
  5
58
102
{ACAD_REACTORS
330
47
102
}
330
47
100
AcDbScale
 70
     0
300
100:1
140
100.0
141
1.0
290
     0
  0
SCALE
  5
59
102
{ACAD_REACTORS
330
47
102
}
330
47
100
AcDbScale
 70
     0
300
1/128" = 1'-0"
140
0.0078125
141
12.0
290
     0
  0
SCALE
  5
5A
102
{ACAD_REACTORS
330
47
102
}
330
47
100
AcDbScale
 70
     0
300
1/64" = 1'-0"
140
0.015625
141
12.0
290
     0
  0
SCALE
  5
5B
102
{ACAD_REACTORS
330
47
102
}
330
47
100
AcDbScale
 70
     0
300
1/32" = 1'-0"
140
0.03125
141
12.0
290
     0
  0
SCALE
  5
5C
102
{ACAD_REACTORS
330
47
102
}
330
47
100
AcDbScale
 70
     0
300
1/16" = 1'-0"
140
0.0625
141
12.0
290
     0
  0
SCALE
  5
5D
102
{ACAD_REACTORS
330
47
102
}
330
47
100
AcDbScale
 70
     0
300
3/32" = 1'-0"
140
0.09375
141
12.0
290
     0
  0
SCALE
  5
5E
102
{ACAD_REACTORS
330
47
102
}
330
47
100
AcDbScale
 70
     0
300
1/8" = 1'-0"
140
0.125
141
12.0
290
     0
  0
SCALE
  5
5F
102
{ACAD_REACTORS
330
47
102
}
330
47
100
AcDbScale
 70
     0
300
3/16" = 1'-0"
140
0.1875
141
12.0
290
     0
  0
SCALE
  5
60
102
{ACAD_REACTORS
330
47
102
}
330
47
100
AcDbScale
 70
     0
300
1/4" = 1'-0"
140
0.25
141
12.0
290
     0
  0
SCALE
  5
61
102
{ACAD_REACTORS
330
47
102
}
330
47
100
AcDbScale
 70
     0
300
3/8" = 1'-0"
140
0.375
141
12.0
290
     0
  0
SCALE
  5
62
102
{ACAD_REACTORS
330
47
102
}
330
47
100
AcDbScale
 70
     0
300
1/2" = 1'-0"
140
0.5
141
12.0
290
     0
  0
SCALE
  5
63
102
{ACAD_REACTORS
330
47
102
}
330
47
100
AcDbScale
 70
     0
300
3/4" = 1'-0"
140
0.75
141
12.0
290
     0
  0
SCALE
  5
64
102
{ACAD_REACTORS
330
47
102
}
330
47
100
AcDbScale
 70
     0
300
1" = 1'-0"
140
1.0
141
12.0
290
     0
  0
SCALE
  5
65
102
{ACAD_REACTORS
330
47
102
}
330
47
100
AcDbScale
 70
     0
300
1-1/2" = 1'-0"
140
1.5
141
12.0
290
     0
  0
SCALE
  5
66
102
{ACAD_REACTORS
330
47
102
}
330
47
100
AcDbScale
 70
     0
300
3" = 1'-0"
140
3.0
141
12.0
290
     0
  0
SCALE
  5
67
102
{ACAD_REACTORS
330
47
102
}
330
47
100
AcDbScale
 70
     0
300
6" = 1'-0"
140
6.0
141
12.0
290
     0
  0
SCALE
  5
68
102
{ACAD_REACTORS
330
47
102
}
330
47
100
AcDbScale
 70
     0
300
1'-0" = 1'-0"
140
12.0
141
12.0
290
     0
  0
ENDSEC
  0
EOF
