  0
SECTION
  2
HEADER
  9
$ACADVER
  1
AC1015
  9
$ACADMAINTVER
 70
     6
  9
$DWGCODEPAGE
  3
ANSI_1252
  9
$INSBASE
 10
0.0
 20
0.0
 30
0.0
  9
$EXTMIN
 10
0.0
 20
0.0
 30
0.0
  9
$EXTMAX
 10
297.0
 20
210.0
 30
0.0
  9
$LIMMIN
 10
0.0
 20
0.0
  9
$LIMMAX
 10
297.0
 20
210.0
  9
$ORTHOMODE
 70
     0
  9
$REGENMODE
 70
     1
  9
$FILLMODE
 70
     1
  9
$QTEXTMODE
 70
     0
  9
$MIRRTEXT
 70
     1
  9
$LTSCALE
 40
1.0
  9
$ATTMODE
 70
     1
  9
$TEXTSIZE
 40
2.0
  9
$TRACEWID
 40
1.0
  9
$TEXTSTYLE
  7
Standard
  9
$CLAYER
  8
0
  9
$CELTYPE
  6
ByLayer
  9
$CECOLOR
 62
   256
  9
$CELTSCALE
 40
1.0
  9
$DISPSILH
 70
     0
  9
$DIMSCALE
 40
1.0
  9
$DIMASZ
 40
3.0
  9
$DIMEXO
 40
0.0
  9
$DIMDLI
 40
3.75
  9
$DIMRND
 40
0.0
  9
$DIMDLE
 40
0.0
  9
$DIMEXE
 40
1.0
  9
$DIMTP
 40
0.0
  9
$DIMTM
 40
0.0
  9
$DIMTXT
 40
2.0
  9
$DIMCEN
 40
2.5
  9
$DIMTSZ
 40
0.0
  9
$DIMTOL
 70
     0
  9
$DIMLIM
 70
     0
  9
$DIMTIH
 70
     1
  9
$DIMTOH
 70
     1
  9
$DIMSE1
 70
     0
  9
$DIMSE2
 70
     0
  9
$DIMTAD
 70
     1
  9
$DIMZIN
 70
     0
  9
$DIMBLK
  1

  9
$DIMASO
 70
     1
  9
$DIMSHO
 70
     1
  9
$DIMPOST
  1

  9
$DIMAPOST
  1

  9
$DIMALT
 70
     0
  9
$DIMALTD
 70
     3
  9
$DIMALTF
 40
0.0393700787
  9
$DIMLFAC
 40
1.0
  9
$DIMTOFL
 70
     1
  9
$DIMTVP
 40
0.0
  9
$DIMTIX
 70
     0
  9
$DIMSOXD
 70
     0
  9
$DIMSAH
 70
     0
  9
$DIMBLK1
  1

  9
$DIMBLK2
  1

  9
$DIMSTYLE
  2
ISO-25
  9
$DIMCLRD
 70
     0
  9
$DIMCLRE
 70
     0
  9
$DIMCLRT
 70
     0
  9
$DIMTFAC
 40
1.0
  9
$DIMGAP
 40
1.524
  9
$DIMJUST
 70
     0
  9
$DIMSD1
 70
     0
  9
$DIMSD2
 70
     0
  9
$DIMTOLJ
 70
     0
  9
$DIMTZIN
 70
     0
  9
$DIMALTZ
 70
     0
  9
$DIMALTTZ
 70
     0
  9
$DIMUPT
 70
     0
  9
$DIMDEC
 70
     2
  9
$DIMTDEC
 70
     3
  9
$DIMALTU
 70
     2
  9
$DIMALTTD
 70
     3
  9
$DIMTXSTY
  7
Standard
  9
$DIMAUNIT
 70
     0
  9
$DIMADEC
 70
     2
  9
$DIMALTRND
 40
0.0
  9
$DIMAZIN
 70
     0
  9
$DIMDSEP
 70
    44
  9
$DIMATFIT
 70
     3
  9
$DIMFRAC
 70
     0
  9
$DIMLDRBLK
  1

  9
$DIMLUNIT
 70
     2
  9
$DIMLWD
 70
    -2
  9
$DIMLWE
 70
    -2
  9
$DIMTMOVE
 70
     0
  9
$LUNITS
 70
     2
  9
$LUPREC
 70
     2
  9
$SKETCHINC
 40
1.0
  9
$FILLETRAD
 40
10.0
  9
$AUNITS
 70
     0
  9
$AUPREC
 70
     2
  9
$MENU
  1
.
  9
$ELEVATION
 40
0.0
  9
$PELEVATION
 40
0.0
  9
$THICKNESS
 40
0.0
  9
$LIMCHECK
 70
     0
  9
$CHAMFERA
 40
0.0
  9
$CHAMFERB
 40
0.0
  9
$CHAMFERC
 40
0.0
  9
$CHAMFERD
 40
0.0
  9
$SKPOLY
 70
     0
  9
$TDCREATE
 40
2458184.364514711
  9
$TDUCREATE
 40
2458184.322848044
  9
$TDUPDATE
 40
2458184.364515753
  9
$TDUUPDATE
 40
2458184.322849086
  9
$TDINDWG
 40
0.0000000116
  9
$TDUSRTIMER
 40
0.0000000116
  9
$USRTIMER
 70
     1
  9
$ANGBASE
 50
0.0
  9
$ANGDIR
 70
     0
  9
$PDMODE
 70
     0
  9
$PDSIZE
 40
-1.0
  9
$PLINEWID
 40
0.0
  9
$SPLFRAME
 70
     0
  9
$SPLINETYPE
 70
     6
  9
$SPLINESEGS
 70
     8
  9
$HANDSEED
  5
17A
  9
$SURFTAB1
 70
     6
  9
$SURFTAB2
 70
     6
  9
$SURFTYPE
 70
     6
  9
$SURFU
 70
     6
  9
$SURFV
 70
     6
  9
$UCSBASE
  2

  9
$UCSNAME
  2

  9
$UCSORG
 10
0.0
 20
0.0
 30
0.0
  9
$UCSXDIR
 10
1.0
 20
0.0
 30
0.0
  9
$UCSYDIR
 10
0.0
 20
1.0
 30
0.0
  9
$UCSORTHOREF
  2

  9
$UCSORTHOVIEW
 70
     0
  9
$UCSORGTOP
 10
0.0
 20
0.0
 30
0.0
  9
$UCSORGBOTTOM
 10
0.0
 20
0.0
 30
0.0
  9
$UCSORGLEFT
 10
0.0
 20
0.0
 30
0.0
  9
$UCSORGRIGHT
 10
0.0
 20
0.0
 30
0.0
  9
$UCSORGFRONT
 10
0.0
 20
0.0
 30
0.0
  9
$UCSORGBACK
 10
0.0
 20
0.0
 30
0.0
  9
$PUCSBASE
  2

  9
$PUCSNAME
  2

  9
$PUCSORG
 10
0.0
 20
0.0
 30
0.0
  9
$PUCSXDIR
 10
1.0
 20
0.0
 30
0.0
  9
$PUCSYDIR
 10
0.0
 20
1.0
 30
0.0
  9
$PUCSORTHOREF
  2

  9
$PUCSORTHOVIEW
 70
     0
  9
$PUCSORGTOP
 10
0.0
 20
0.0
 30
0.0
  9
$PUCSORGBOTTOM
 10
0.0
 20
0.0
 30
0.0
  9
$PUCSORGLEFT
 10
0.0
 20
0.0
 30
0.0
  9
$PUCSORGRIGHT
 10
0.0
 20
0.0
 30
0.0
  9
$PUCSORGFRONT
 10
0.0
 20
0.0
 30
0.0
  9
$PUCSORGBACK
 10
0.0
 20
0.0
 30
0.0
  9
$USERI1
 70
     0
  9
$USERI2
 70
     0
  9
$USERI3
 70
     0
  9
$USERI4
 70
     0
  9
$USERI5
 70
     0
  9
$USERR1
 40
0.0
  9
$USERR2
 40
0.0
  9
$USERR3
 40
0.0
  9
$USERR4
 40
0.0
  9
$USERR5
 40
0.0
  9
$WORLDVIEW
 70
     1
  9
$SHADEDGE
 70
     3
  9
$SHADEDIF
 70
    70
  9
$TILEMODE
 70
     1
  9
$MAXACTVP
 70
    64
  9
$PINSBASE
 10
0.0
 20
0.0
 30
0.0
  9
$PLIMCHECK
 70
     0
  9
$PEXTMIN
 10
1.0000000000E+20
 20
1.0000000000E+20
 30
1.0000000000E+20
  9
$PEXTMAX
 10
-1.0000000000E+20
 20
-1.0000000000E+20
 30
-1.0000000000E+20
  9
$PLIMMIN
 10
0.0
 20
0.0
  9
$PLIMMAX
 10
420.0
 20
297.0
  9
$UNITMODE
 70
     0
  9
$VISRETAIN
 70
     1
  9
$PLINEGEN
 70
     0
  9
$PSLTSCALE
 70
     1
  9
$TREEDEPTH
 70
  3020
  9
$CMLSTYLE
  2
Standard
  9
$CMLJUST
 70
     0
  9
$CMLSCALE
 40
20.0
  9
$PROXYGRAPHICS
 70
     1
  9
$MEASUREMENT
 70
     1
  9
$CELWEIGHT
370
    -1
  9
$ENDCAPS
280
     0
  9
$JOINSTYLE
280
     0
  9
$LWDISPLAY
290
     1
  9
$INSUNITS
 70
     4
  9
$HYPERLINKBASE
  1

  9
$STYLESHEET
  1

  9
$XEDIT
290
     1
  9
$CEPSNTYPE
380
     0
  9
$PSTYLEMODE
290
     1
  9
$FINGERPRINTGUID
  2
{9FC15B4B-6A97-4107-8DAB-FB659C0B7645}
  9
$VERSIONGUID
  2
{FAEB1C32-E019-11D5-929B-00C0DF256EC4}
  9
$EXTNAMES
290
     1
  9
$PSVPSCALE
 40
0.0
  9
$OLESTARTUP
290
     0
  0
ENDSEC
  0
SECTION
  2
CLASSES
  0
CLASS
  1
ACDBDICTIONARYWDFLT
  2
AcDbDictionaryWithDefault
  3
ObjectDBX Classes
 90
        0
280
     0
281
     0
  0
CLASS
  1
VISUALSTYLE
  2
AcDbVisualStyle
  3
ObjectDBX Classes
 90
     4095
280
     0
281
     0
  0
CLASS
  1
MATERIAL
  2
AcDbMaterial
  3
ObjectDBX Classes
 90
     1153
280
     0
281
     0
  0
CLASS
  1
SCALE
  2
AcDbScale
  3
ObjectDBX Classes
 90
     1153
280
     0
281
     0
  0
CLASS
  1
TABLESTYLE
  2
AcDbTableStyle
  3
ObjectDBX Classes
 90
     4095
280
     0
281
     0
  0
CLASS
  1
MLEADERSTYLE
  2
AcDbMLeaderStyle
  3
ACDB_MLEADERSTYLE_CLASS
 90
     4095
280
     0
281
     0
  0
CLASS
  1
SUN
  2
AcDbSun
  3
SCENEOE
 90
     1153
280
     0
281
     0
  0
CLASS
  1
ACDBPLACEHOLDER
  2
AcDbPlaceHolder
  3
ObjectDBX Classes
 90
        0
280
     0
281
     0
  0
CLASS
  1
LAYOUT
  2
AcDbLayout
  3
ObjectDBX Classes
 90
        0
280
     0
281
     0
  0
ENDSEC
  0
SECTION
  2
TABLES
  0
TABLE
  2
VPORT
  5
8
330
0
100
AcDbSymbolTable
 70
     1
  0
VPORT
  5
29
330
8
100
AcDbSymbolTableRecord
100
AcDbViewportTableRecord
  2
*Active
 70
     0
 10
0.0
 20
0.0
 11
1.0
 21
1.0
 12
148.5
 22
105.0
 13
0.0
 23
0.0
 14
10.0
 24
10.0
 15
10.0
 25
10.0
 16
0.0
 26
0.0
 36
1.0
 17
0.0
 27
0.0
 37
0.0
 40
210.0
 41
1.4142857143
 42
50.0
 43
0.0
 44
0.0
 50
0.0
 51
0.0
 71
     0
 72
  2000
 73
     1
 74
     3
 75
     0
 76
     0
 77
     0
 78
     0
281
     0
 65
     1
110
0.0
120
0.0
130
0.0
111
1.0
121
0.0
131
0.0
112
0.0
122
1.0
132
0.0
 79
     0
146
0.0
  0
ENDTAB
  0
TABLE
  2
LTYPE
  5
5
330
0
100
AcDbSymbolTable
 70
     6
  0
LTYPE
  5
14
330
5
100
AcDbSymbolTableRecord
100
AcDbLinetypeTableRecord
  2
ByBlock
 70
     0
  3

 72
    65
 73
     0
 40
0.0
  0
LTYPE
  5
15
330
5
100
AcDbSymbolTableRecord
100
AcDbLinetypeTableRecord
  2
ByLayer
 70
     0
  3

 72
    65
 73
     0
 40
0.0
  0
LTYPE
  5
16
330
5
100
AcDbSymbolTableRecord
100
AcDbLinetypeTableRecord
  2
Continuous
 70
     0
  3
Solid line
 72
    65
 73
     0
 40
0.0
  0
LTYPE
  5
6E
330
5
100
AcDbSymbolTableRecord
100
AcDbLinetypeTableRecord
  2
HIDDEN
 70
     0
  3
Hidden __ __ __ __ __ __ __ __ __ __ __ __ __ __
 72
    65
 73
     2
 40
1.905
 49
1.27
 74
     0
 49
-0.635
 74
     0
  0
LTYPE
  5
6F
330
5
100
AcDbSymbolTableRecord
100
AcDbLinetypeTableRecord
  2
PHANTOM
 70
     0
  3
Phantom ______  __  __  ______  __  __  ______
 72
    65
 73
     6
 40
12.7
 49
6.35
 74
     0
 49
-1.27
 74
     0
 49
1.27
 74
     0
 49
-1.27
 74
     0
 49
1.27
 74
     0
 49
-1.27
 74
     0
  0
LTYPE
  5
70
330
5
100
AcDbSymbolTableRecord
100
AcDbLinetypeTableRecord
  2
CENTER
 70
     0
  3
Center ____ _ ____ _ ____ _ ____ _ ____ _ ____
 72
    65
 73
     4
 40
10.16
 49
6.35
 74
     0
 49
-1.27
 74
     0
 49
1.27
 74
     0
 49
-1.27
 74
     0
  0
LTYPE
  5
71
330
5
100
AcDbSymbolTableRecord
100
AcDbLinetypeTableRecord
  2
CENTERX2
 70
     0
  3
Center (2x) ________  __  ________  __  _____
 72
    65
 73
     4
 40
20.32
 49
12.7
 74
     0
 49
-2.54
 74
     0
 49
2.54
 74
     0
 49
-2.54
 74
     0
  0
LTYPE
  5
72
330
5
100
AcDbSymbolTableRecord
100
AcDbLinetypeTableRecord
  2
DOT2
 70
     0
  3
Dot (.5x) ........................................
 72
    65
 73
     2
 40
0.635
 49
0.0
 74
     0
 49
-0.635
 74
     0
  0
ENDTAB
  0
TABLE
  2
LAYER
  5
2
330
0
100
AcDbSymbolTable
 70
     5
  0
LAYER
  5
10
330
2
100
AcDbSymbolTableRecord
100
AcDbLayerTableRecord
  2
0
 70
     0
 62
     7
  6
Continuous
370
    -3
390
F
  0
LAYER
  5
73
330
2
100
AcDbSymbolTableRecord
100
AcDbLayerTableRecord
  2
FORMAT
 70
     0
 62
     7
  6
Continuous
370
    -3
390
F
  0
LAYER
  5
74
330
2
100
AcDbSymbolTableRecord
100
AcDbLayerTableRecord
  2
VERMASSUNG
 70
     0
 62
     7
  6
Continuous
370
    -3
390
F
  0
LAYER
  5
75
330
2
100
AcDbSymbolTableRecord
100
AcDbLayerTableRecord
  2
KOPF_DÜNN
 70
     0
 62
     7
  6
Continuous
370
    -3
390
F
  0
LAYER
  5
76
330
2
100
AcDbSymbolTableRecord
100
AcDbLayerTableRecord
  2
KOPF_DICK
 70
     0
 62
     7
  6
Continuous
370
    25
390
F
  0
ENDTAB
  0
TABLE
  2
STYLE
  5
3
330
0
100
AcDbSymbolTable
 70
     3
  0
STYLE
  5
11
330
3
100
AcDbSymbolTableRecord
100
AcDbTextStyleTableRecord
  2
Standard
 70
     0
 40
0.0
 41
1.0
 50
0.0
 71
     0
 42
2.0
  3
txt
  4

  0
STYLE
  5
77
330
3
100
AcDbSymbolTableRecord
100
AcDbTextStyleTableRecord
  2
SLDTEXTSTYLE0
 70
     0
 40
0.0
 41
0.7
 50
0.0
 71
     0
 42
2.0
  3
TXT
  4

  0
STYLE
  5
E2
330
3
100
AcDbSymbolTableRecord
100
AcDbTextStyleTableRecord
  2
SLDTEXTSTYLE1
 70
     0
 40
0.0
 41
0.65
 50
0.0
 71
     0
 42
2.0
  3
TXT
  4

  0
ENDTAB
  0
TABLE
  2
VIEW
  5
6
330
0
100
AcDbSymbolTable
 70
     0
  0
ENDTAB
  0
TABLE
  2
UCS
  5
7
330
0
100
AcDbSymbolTable
 70
     0
  0
ENDTAB
  0
TABLE
  2
APPID
  5
9
330
0
100
AcDbSymbolTable
 70
     1
  0
APPID
  5
12
330
9
100
AcDbSymbolTableRecord
100
AcDbRegAppTableRecord
  2
ACAD
 70
     0
  0
ENDTAB
  0
TABLE
  2
DIMSTYLE
  5
A
330
0
100
AcDbSymbolTable
 70
     4
100
AcDbDimStyleTable
  0
DIMSTYLE
105
27
330
A
100
AcDbSymbolTableRecord
100
AcDbDimStyleTableRecord
  2
ISO-25
 70
     0
 41
2.5
 42
0.625
 43
3.75
 44
1.25
 73
     0
 74
     0
 77
     1
 78
     8
140
2.5
141
2.5
143
0.0393700787
147
0.625
171
     3
172
     1
178
     0
271
     2
272
     2
274
     3
278
    44
283
     0
284
     8
340
11
  0
DIMSTYLE
105
DA
102
{ACAD_REACTORS
330
D9
102
}
330
A
100
AcDbSymbolTableRecord
100
AcDbDimStyleTableRecord
  2
SLDDIMSTYLE0
 70
     0
 41
3.0
 44
0.0
 45
0.000000001
 73
     0
 74
     0
 76
     1
 77
     1
 78
    12
 79
     3
140
2.0
147
0.5
173
     1
178
     0
271
     2
272
     3
276
     2
282
     1
284
    12
340
77
  0
DIMSTYLE
105
E7
102
{ACAD_REACTORS
330
E6
102
}
330
A
100
AcDbSymbolTableRecord
100
AcDbDimStyleTableRecord
  2
SLDDIMSTYLE1
 70
     0
 41
3.0
 44
0.0
 73
     0
 74
     0
 77
     1
 78
    12
 79
     3
140
2.0
147
0.5
173
     1
178
     0
179
     2
272
     3
276
     2
284
    12
340
77
  0
DIMSTYLE
105
F1
102
{ACAD_REACTORS
330
F0
102
}
330
A
100
AcDbSymbolTableRecord
100
AcDbDimStyleTableRecord
  2
SLDDIMSTYLE2
 70
     0
 41
3.0
 44
0.0
 45
0.000000001
 73
     0
 74
     0
 77
     1
 78
    12
 79
     3
140
2.0
147
0.5
173
     1
178
     0
271
     2
272
     3
276
     2
284
    12
340
77
  0
ENDTAB
  0
TABLE
  2
BLOCK_RECORD
  5
1
330
0
100
AcDbSymbolTable
 70
     4
  0
BLOCK_RECORD
  5
1F
330
1
100
AcDbSymbolTableRecord
100
AcDbBlockTableRecord
  2
*Model_Space
340
22
  0
BLOCK_RECORD
  5
1B
330
1
100
AcDbSymbolTableRecord
100
AcDbBlockTableRecord
  2
*Paper_Space
340
1E
  0
BLOCK_RECORD
  5
23
330
1
100
AcDbSymbolTableRecord
100
AcDbBlockTableRecord
  2
*Paper_Space0
340
26
  0
BLOCK_RECORD
  5
DB
330
1
100
AcDbSymbolTableRecord
100
AcDbBlockTableRecord
  2
_D
340
0
  0
BLOCK_RECORD
  5
E8
330
1
100
AcDbSymbolTableRecord
100
AcDbBlockTableRecord
  2
_D_1
340
0
  0
BLOCK_RECORD
  5
F2
330
1
100
AcDbSymbolTableRecord
100
AcDbBlockTableRecord
  2
_D_2
340
0
  0
ENDTAB
  0
ENDSEC
  0
SECTION
  2
BLOCKS
  0
BLOCK
  5
20
330
1F
100
AcDbEntity
  8
0
100
AcDbBlockBegin
  2
*Model_Space
 70
     0
 10
0.0
 20
0.0
 30
0.0
  3
*Model_Space
  1

  0
ENDBLK
  5
21
330
1F
100
AcDbEntity
  8
0
100
AcDbBlockEnd
  0
BLOCK
  5
1C
330
1B
100
AcDbEntity
 67
     1
  8
0
100
AcDbBlockBegin
  2
*Paper_Space
 70
     0
 10
0.0
 20
0.0
 30
0.0
  3
*Paper_Space
  1

  0
ENDBLK
  5
1D
330
1B
100
AcDbEntity
 67
     1
  8
0
100
AcDbBlockEnd
  0
BLOCK
  5
24
330
23
100
AcDbEntity
  8
0
100
AcDbBlockBegin
  2
*Paper_Space0
 70
     0
 10
0.0
 20
0.0
 30
0.0
  3
*Paper_Space0
  1

  0
ENDBLK
  5
25
330
23
100
AcDbEntity
  8
0
100
AcDbBlockEnd
  0
BLOCK
  5
DC
330
DB
100
AcDbEntity
  8
0
100
AcDbBlockBegin
  2
_D
 70
     0
 10
0.0
 20
0.0
 30
0.0
  3
_D
  1

  0
SOLID
  5
DE
330
DB
100
AcDbEntity
  8
VERMASSUNG
100
AcDbTrace
 10
187.7984627151
 20
146.8748821277
 30
0.0
 11
187.3484627151
 21
143.8748821277
 31
0.0
 12
188.2484627151
 22
143.8748821277
 32
0.0
 13
188.2484627151
 23
143.8748821277
 33
0.0
  0
LINE
  5
DF
330
DB
100
AcDbEntity
  8
VERMASSUNG
100
AcDbLine
 10
171.32608982
 20
146.8748821277
 30
0.0
 11
188.7984627151
 21
146.8748821277
 31
0.0
  0
LINE
  5
E0
330
DB
100
AcDbEntity
  8
VERMASSUNG
100
AcDbLine
 10
187.7984627151
 20
146.8748821277
 30
0.0
 11
187.7984627151
 21
96.7726018727
 31
0.0
  0
MTEXT
  5
E1
330
DB
100
AcDbEntity
  8
VERMASSUNG
100
AcDbMText
 10
185.2203274102
 20
96.7726018727
 30
0.0
 40
2.0
 41
0.0
 71
     1
 72
     1
  1
%%c
  7
SLDTEXTSTYLE0
 11
-1.859051447374526E-14
 21
1.0
 31
0.0
 73
     1
 44
1.0
  0
MTEXT
  5
E3
330
DB
100
AcDbEntity
  8
VERMASSUNG
100
AcDbMText
 10
185.0203274589
 20
100.382601887
 30
0.0
 40
2.0
 41
0.0
 71
     1
 72
     1
  1
86 -
  7
SLDTEXTSTYLE1
 11
-1.859051447374526E-14
 21
1.0
 31
0.0
 73
     1
 44
1.0
  0
MTEXT
  5
E4
330
DB
100
AcDbEntity
  8
VERMASSUNG
100
AcDbMText
 10
185.2203274102
 20
106.9826018512
 30
0.0
 40
2.0
 41
0.0
 71
     1
 72
     1
  1
%%c
  7
SLDTEXTSTYLE0
 11
-1.859051447374526E-14
 21
1.0
 31
0.0
 73
     1
 44
1.0
  0
MTEXT
  5
E5
330
DB
100
AcDbEntity
  8
VERMASSUNG
100
AcDbMText
 10
185.0203274589
 20
110.5926018655
 30
0.0
 40
2.0
 41
0.0
 71
     1
 72
     1
  1
138
  7
SLDTEXTSTYLE0
 11
-1.859051447374526E-14
 21
1.0
 31
0.0
 73
     1
 44
1.0
  0
ENDBLK
  5
DD
330
DB
100
AcDbEntity
  8
0
100
AcDbBlockEnd
  0
BLOCK
  5
E9
330
E8
100
AcDbEntity
  8
0
100
AcDbBlockBegin
  2
_D_1
 70
     0
 10
0.0
 20
0.0
 30
0.0
  3
_D_1
  1

  0
ARC
  5
EB
330
E8
100
AcDbEntity
  8
VERMASSUNG
100
AcDbCircle
 10
169.3634909874
 20
146.8748821277
 30
0.0
 40
10.18481374651404
100
AcDbArc
 50
270.0
 51
0.0
  0
SOLID
  5
EC
330
E8
100
AcDbEntity
  8
VERMASSUNG
100
AcDbTrace
 10
169.3634909874
 20
136.6900683812
 30
0.0
 11
172.3970046172
 21
136.6728911265
 31
0.0
 12
172.2685401312
 22
137.5636755425
 32
0.0
 13
172.2685401312
 23
137.5636755425
 33
0.0
  0
SOLID
  5
ED
330
E8
100
AcDbEntity
  8
VERMASSUNG
100
AcDbTrace
 10
179.5483047339
 20
146.8748821277
 30
0.0
 11
178.6746975726
 21
143.9698329839
 31
0.0
 12
179.5654819886
 22
143.841368498
 32
0.0
 13
179.5654819886
 23
143.841368498
 33
0.0
  0
LINE
  5
EE
330
E8
100
AcDbEntity
  8
VERMASSUNG
100
AcDbLine
 10
171.32608982
 20
146.8748821277
 30
0.0
 11
180.5483047339
 21
146.8748821277
 31
0.0
  0
MTEXT
  5
EF
330
E8
100
AcDbEntity
  8
VERMASSUNG
100
AcDbMText
 10
173.3280112251
 20
140.0819349603
 30
0.0
 40
2.0
 41
0.0
 71
     1
 72
     1
  1
90°
  7
SLDTEXTSTYLE0
 11
0.7071067811865261
 21
0.7071067811865689
 31
0.0
 73
     1
 44
1.0
  0
ENDBLK
  5
EA
330
E8
100
AcDbEntity
  8
0
100
AcDbBlockEnd
  0
BLOCK
  5
F3
330
F2
100
AcDbEntity
  8
0
100
AcDbBlockBegin
  2
_D_2
 70
     0
 10
0.0
 20
0.0
 30
0.0
  3
_D_2
  1

  0
SOLID
  5
F5
330
F2
100
AcDbEntity
  8
VERMASSUNG
100
AcDbTrace
 10
169.3634909874
 20
155.3665473545
 30
0.0
 11
166.3634909874
 21
155.8165473545
 31
0.0
 12
166.3634909874
 22
154.9165473545
 32
0.0
 13
166.3634909874
 23
154.9165473545
 33
0.0
  0
SOLID
  5
F6
330
F2
100
AcDbEntity
  8
VERMASSUNG
100
AcDbTrace
 10
129.9628445528
 20
155.3665473545
 30
0.0
 11
132.9628445528
 21
154.9165473545
 31
0.0
 12
132.9628445528
 22
155.8165473545
 32
0.0
 13
132.9628445528
 23
155.8165473545
 33
0.0
  0
LINE
  5
F7
330
F2
100
AcDbEntity
  8
VERMASSUNG
100
AcDbLine
 10
169.3634909874
 20
146.4748821277
 30
0.0
 11
169.3634909874
 21
156.3665473545
 31
0.0
  0
LINE
  5
F8
330
F2
100
AcDbEntity
  8
VERMASSUNG
100
AcDbLine
 10
129.9628445528
 20
119.0663525677
 30
0.0
 11
129.9628445528
 21
156.3665473545
 31
0.0
  0
LINE
  5
F9
330
F2
100
AcDbEntity
  8
VERMASSUNG
100
AcDbLine
 10
169.3634909874
 20
155.3665473545
 30
0.0
 11
129.9628445528
 21
155.3665473545
 31
0.0
  0
MTEXT
  5
FA
330
F2
100
AcDbEntity
  8
VERMASSUNG
100
AcDbMText
 10
147.163167826
 20
157.9446829504
 30
0.0
 40
2.0
 41
0.0
 71
     1
 72
     1
  1
39.4
  7
SLDTEXTSTYLE0
 73
     1
 44
1.0
  0
ENDBLK
  5
F4
330
F2
100
AcDbEntity
  8
0
100
AcDbBlockEnd
  0
ENDSEC
  0
SECTION
  2
ENTITIES
  0
MTEXT
  5
78
330
1F
100
AcDbEntity
  8
KOPF_DÜNN
100
AcDbMText
 10
13.8892156294
 20
23.8442973028
 30
0.0
 40
3.0
 41
0.0
 71
     1
 72
     1
  1
148.550.112
  7
SLDTEXTSTYLE0
 73
     1
 44
1.0
  0
MTEXT
  5
79
330
1F
100
AcDbEntity
  8
VERMASSUNG
100
AcDbMText
 10
13.9329988022
 20
28.8834360957
 30
0.0
 40
3.0
 41
0.0
 71
     1
 72
     1
  1
Plattenhalter_Insert holder
  7
SLDTEXTSTYLE0
 73
     1
 44
1.0
  0
MTEXT
  5
7A
330
1F
100
AcDbEntity
  8
VERMASSUNG
100
AcDbMText
 10
98.8601118557
 20
13.8365368761
 30
0.0
 40
2.0
 41
0.0
 71
     1
 72
     1
  1
Datum: 05.02.2008
  7
SLDTEXTSTYLE0
 73
     1
 44
1.0
  0
MTEXT
  5
7B
330
1F
100
AcDbEntity
  8
VERMASSUNG
100
AcDbMText
 10
13.933048693
 20
18.0482802738
 30
0.0
 40
2.0
 41
0.0
 71
     1
 72
     1
  1
zu Feinbohrkopf ø55 / für CC.. 1204..
  7
SLDTEXTSTYLE0
 73
     1
 44
1.0
  0
MTEXT
  5
7C
330
1F
100
AcDbEntity
  8
VERMASSUNG
100
AcDbMText
 10
13.9808475933
 20
13.9090974274
 30
0.0
 40
2.0
 41
0.0
 71
     1
 72
     1
  1
Gewicht: g
  7
SLDTEXTSTYLE0
 73
     1
 44
1.0
  0
LINE
  5
7D
330
1F
100
AcDbEntity
  8
0
  6
Continuous
 62
     7
370
    25
100
AcDbLine
 10
168.8940317084
 20
146.8688052288
 30
0.0
 11
156.9940314925
 21
144.7705140669
 31
0.0
  0
ARC
  5
7E
330
1F
100
AcDbEntity
  8
0
  6
Continuous
 62
     7
370
    25
100
AcDbCircle
 10
168.9634909874
 20
146.4748821277
 30
0.0
 40
0.4000000000000295
100
AcDbArc
 50
0.0
 51
100.0
  0
LINE
  5
7F
330
1F
100
AcDbEntity
  8
0
  6
Continuous
 62
     7
370
    25
100
AcDbLine
 10
169.3634909874
 20
134.3913058151
 30
0.0
 11
169.3634909874
 21
146.4748821378
 31
0.0
  0
ARC
  5
80
330
1F
100
AcDbEntity
  8
0
  6
Continuous
 62
     7
370
    25
100
AcDbCircle
 10
168.9634909874
 20
134.3913054463
 30
0.0
 40
0.4000000000000057
100
AcDbArc
 50
280.0
 51
0.0
  0
LINE
  5
81
330
1F
100
AcDbEntity
  8
0
  6
Continuous
 62
     7
370
    25
100
AcDbLine
 10
157.1329503617
 20
131.899091262
 30
0.0
 11
169.0329502575
 21
133.997382443
 31
0.0
  0
ARC
  5
82
330
1F
100
AcDbEntity
  8
0
  6
Continuous
 62
     7
370
    25
100
AcDbCircle
 10
157.0634909874
 20
132.2930143758
 30
0.0
 40
0.4000000000000525
100
AcDbArc
 50
180.0
 51
280.0
  0
LINE
  5
83
330
1F
100
AcDbEntity
  8
0
  6
Continuous
 62
     7
370
    25
100
AcDbLine
 10
156.6634911409
 20
144.3765911605
 30
0.0
 11
156.6634911409
 21
132.293014634
 31
0.0
  0
ARC
  5
84
330
1F
100
AcDbEntity
  8
0
  6
Continuous
 62
     7
370
    25
100
AcDbCircle
 10
157.0634909874
 20
144.3765910573
 30
0.0
 40
0.4000000000000057
100
AcDbArc
 50
100.0
 51
180.0
  0
ARC
  5
85
330
1F
100
AcDbEntity
  8
0
  6
Continuous
 62
     7
370
    25
100
AcDbCircle
 10
157.0634909874
 20
132.2930143758
 30
0.0
 40
0.3799999999999955
100
AcDbArc
 50
180.0
 51
280.0
  0
LINE
  5
86
330
1F
100
AcDbEntity
  8
0
  6
Continuous
 62
     7
370
    25
100
AcDbLine
 10
157.1294774598
 20
131.9187878031
 30
0.0
 11
169.0294772974
 21
134.0170780528
 31
0.0
  0
ARC
  5
87
330
1F
100
AcDbEntity
  8
0
  6
Continuous
 62
     7
370
    25
100
AcDbCircle
 10
168.9634909874
 20
134.3913054463
 30
0.0
 40
0.3800000000000239
100
AcDbArc
 50
280.0
 51
0.0
  0
LINE
  5
88
330
1F
100
AcDbEntity
  8
0
  6
Continuous
 62
     7
370
    25
100
AcDbLine
 10
169.3434909879
 20
134.3913058151
 30
0.0
 11
169.3434909879
 21
146.4748821378
 31
0.0
  0
ARC
  5
89
330
1F
100
AcDbEntity
  8
0
  6
Continuous
 62
     7
370
    25
100
AcDbCircle
 10
168.9634909874
 20
146.4748821277
 30
0.0
 40
0.3800000000000265
100
AcDbArc
 50
0.0
 51
100.0
  0
LINE
  5
8A
330
1F
100
AcDbEntity
  8
0
  6
Continuous
 62
     7
370
    25
100
AcDbLine
 10
168.8975046685
 20
146.8491090742
 30
0.0
 11
156.9975043943
 21
144.7508179914
 31
0.0
  0
ARC
  5
8B
330
1F
100
AcDbEntity
  8
0
  6
Continuous
 62
     7
370
    25
100
AcDbCircle
 10
157.0634909874
 20
144.3765910573
 30
0.0
 40
0.3800000000000239
100
AcDbArc
 50
100.0
 51
180.0
  0
LINE
  5
8C
330
1F
100
AcDbEntity
  8
0
  6
Continuous
 62
     7
370
    25
100
AcDbLine
 10
156.6834912932
 20
144.3765911605
 30
0.0
 11
156.6834912932
 21
132.293014634
 31
0.0
  0
LINE
  5
8D
330
1F
100
AcDbEntity
  8
0
  6
Continuous
 62
     7
370
    25
100
AcDbLine
 10
157.0634913927
 20
132.293014634
 30
0.0
 11
156.6834912932
 21
132.293014634
 31
0.0
  0
LINE
  5
8E
330
1F
100
AcDbEntity
  8
0
  6
Continuous
 62
     7
370
    25
100
AcDbLine
 10
157.0634913927
 20
144.3765911605
 30
0.0
 11
156.6834912932
 21
144.3765911605
 31
0.0
  0
LINE
  5
8F
330
1F
100
AcDbEntity
  8
0
  6
Continuous
 62
     7
370
    25
100
AcDbLine
 10
157.6850029936
 20
143.8550805539
 30
0.0
 11
157.0634913927
 21
144.3765911605
 31
0.0
  0
LINE
  5
90
330
1F
100
AcDbEntity
  8
0
  6
Continuous
 62
     7
370
    25
100
AcDbLine
 10
157.8988979867
 20
133.2886133675
 30
0.0
 11
157.0634913927
 21
132.293014634
 31
0.0
  0
LINE
  5
91
330
1F
100
AcDbEntity
  8
0
  6
Continuous
 62
     7
370
    25
100
AcDbLine
 10
168.9634909975
 20
146.4748821378
 30
0.0
 11
169.3434909879
 21
146.4748821378
 31
0.0
  0
LINE
  5
92
330
1F
100
AcDbEntity
  8
0
  6
Continuous
 62
     7
370
    25
100
AcDbLine
 10
168.9634909975
 20
134.3913058151
 30
0.0
 11
169.3434909879
 21
134.3913058151
 31
0.0
  0
LINE
  5
93
330
1F
100
AcDbEntity
  8
0
  6
Continuous
 62
     7
370
    25
100
AcDbLine
 10
168.3419790182
 20
134.9128157232
 30
0.0
 11
168.9634909975
 21
134.3913058151
 31
0.0
  0
LINE
  5
94
330
1F
100
AcDbEntity
  8
0
  6
Continuous
 62
     7
370
    25
100
AcDbLine
 10
168.1280839088
 20
145.4792826768
 30
0.0
 11
168.9634909975
 21
146.4748821378
 31
0.0
  0
LINE
  5
95
330
1F
100
AcDbEntity
  8
0
  6
Continuous
 62
     7
370
    25
100
AcDbLine
 10
166.169842921
 20
144.3372954015
 30
0.0
 11
159.5098429656
 21
143.1629577052
 31
0.0
  0
ARC
  5
96
330
1F
100
AcDbEntity
  8
0
  6
Continuous
 62
     7
370
    25
100
AcDbCircle
 10
166.3434909874
 20
143.3524877151
 30
0.0
 40
1.000000000000031
100
AcDbArc
 50
0.0
 51
100.0
  0
LINE
  5
97
330
1F
100
AcDbEntity
  8
0
  6
Continuous
 62
     7
370
    25
100
AcDbLine
 10
167.3434909729
 20
136.5897467691
 30
0.0
 11
167.3434909729
 21
143.3524876699
 31
0.0
  0
ARC
  5
98
330
1F
100
AcDbEntity
  8
0
  6
Continuous
 62
     7
370
    25
100
AcDbCircle
 10
166.3434909874
 20
136.58974648
 30
0.0
 40
1.000000000000008
100
AcDbArc
 50
280.0
 51
0.0
  0
LINE
  5
99
330
1F
100
AcDbEntity
  8
0
  6
Continuous
 62
     7
370
    25
100
AcDbLine
 10
159.8571387416
 20
134.4306011084
 30
0.0
 11
166.5171391627
 21
135.6049383391
 31
0.0
  0
ARC
  5
9A
330
1F
100
AcDbEntity
  8
0
  6
Continuous
 62
     7
370
    25
100
AcDbCircle
 10
159.6834909874
 20
135.4154087884
 30
0.0
 40
1.000000000295358
100
AcDbArc
 50
180.0000000098
 51
280.0
  0
LINE
  5
9B
330
1F
100
AcDbEntity
  8
0
  6
Continuous
 62
     7
370
    25
100
AcDbLine
 10
158.6834906897
 20
142.1781502064
 30
0.0
 11
158.6834906897
 21
135.4154086072
 31
0.0
  0
ARC
  5
9C
330
1F
100
AcDbEntity
  8
0
  6
Continuous
 62
     7
370
    25
100
AcDbCircle
 10
159.6834909874
 20
142.1781500236
 30
0.0
 40
1.000000000000003
100
AcDbArc
 50
100.0
 51
180.0
  0
CIRCLE
  5
9D
330
1F
100
AcDbEntity
  8
0
  6
Continuous
 62
     7
370
    25
100
AcDbCircle
 10
163.0134909874
 20
139.3839482518
 30
0.0
 40
3.799999999999983
  0
LINE
  5
9E
330
1F
100
AcDbEntity
  8
0
  6
Continuous
 62
     7
370
    25
100
AcDbLine
 10
157.0634913927
 20
144.3765911605
 30
0.0
 11
156.9975043943
 21
144.7508179914
 31
0.0
  0
LINE
  5
9F
330
1F
100
AcDbEntity
  8
0
  6
Continuous
 62
     7
370
    25
100
AcDbLine
 10
168.9634909975
 20
146.4748821378
 30
0.0
 11
168.8975046685
 21
146.8491090742
 31
0.0
  0
LINE
  5
A0
330
1F
100
AcDbEntity
  8
0
  6
Continuous
 62
     7
370
    25
100
AcDbLine
 10
168.9634909975
 20
134.3913058151
 30
0.0
 11
169.0294772974
 21
134.0170780528
 31
0.0
  0
LINE
  5
A1
330
1F
100
AcDbEntity
  8
0
  6
Continuous
 62
     7
370
    25
100
AcDbLine
 10
157.0634913927
 20
132.293014634
 30
0.0
 11
157.1294774598
 21
131.9187878031
 31
0.0
  0
SPLINE
  5
A2
330
1F
100
AcDbEntity
  8
0
  6
Continuous
 62
     7
370
    25
100
AcDbSpline
210
0.0
220
0.0
230
1.0
 70
     8
 71
     3
 72
    11
 73
     7
 74
     0
 42
0.000000001
 43
0.00000001
 40
0.0
 40
0.0
 40
0.0
 40
0.0
 40
0.3372312950519215
 40
0.6736323267689756
 40
0.9918840785429549
 40
1.0
 40
1.0
 40
1.0
 40
1.0
 10
168.3419790182462
 20
134.912815723198
 30
0.0
 10
168.2824990522556
 20
134.9627255979455
 30
0.0
 10
168.1636855599307
 20
135.0624224693458
 30
0.0
 10
167.977941151157
 20
135.2182762704984
 30
0.0
 10
167.8636751245008
 20
135.314168644047
 30
0.0
 10
167.8117187949804
 20
135.3577570736301
 30
0.0
 10
167.8104267751997
 20
135.3588410053425
 30
0.0
  0
SPLINE
  5
A3
330
1F
100
AcDbEntity
  8
0
  6
Continuous
 62
     7
370
    25
100
AcDbSpline
210
0.0
220
0.0
230
1.0
 70
     8
 71
     3
 72
    11
 73
     7
 74
     0
 42
0.000000001
 43
0.00000001
 40
0.0
 40
0.0
 40
0.0
 40
0.0
 40
0.0081166784778767
 40
0.3263682677544567
 40
0.6627685911147025
 40
1.0
 40
1.0
 40
1.0
 40
1.0
 10
158.2165553530877
 20
143.4090552717469
 30
0.0
 10
158.2152632565241
 20
143.4101394380908
 30
0.0
 10
158.1633085907829
 20
143.4537333161251
 30
0.0
 10
158.0490396236594
 20
143.5496174763571
 30
0.0
 10
157.863296706687
 20
143.7054746563874
 30
0.0
 10
157.7444830929633
 20
143.8051709216772
 30
0.0
 10
157.6850029936259
 20
143.8550805538915
 30
0.0
  0
SPLINE
  5
A4
330
1F
100
AcDbEntity
  8
0
  6
Continuous
 62
     7
370
    25
100
AcDbSpline
210
0.0
220
0.0
230
1.0
 70
     8
 71
     3
 72
    11
 73
     7
 74
     0
 42
0.000000001
 43
0.00000001
 40
0.0
 40
0.0
 40
0.0
 40
0.0
 40
0.3367831041476282
 40
0.6790111449291144
 40
0.9923716964631503
 40
1.0
 40
1.0
 40
1.0
 40
1.0
 10
168.128083908764
 20
145.4792826768034
 30
0.0
 10
168.07764145045
 20
145.4191677511081
 30
0.0
 10
167.9759410060066
 20
145.2979659924065
 30
0.0
 10
167.8219063589274
 20
145.114394638198
 30
0.0
 10
167.7273153235975
 20
145.0016653434266
 30
0.0
 10
167.6846437419762
 20
144.9508112885305
 30
0.0
 10
167.6836296513875
 20
144.9496027413778
 30
0.0
  0
SPLINE
  5
A5
330
1F
100
AcDbEntity
  8
0
  6
Continuous
 62
     7
370
    25
100
AcDbSpline
210
0.0
220
0.0
230
1.0
 70
     8
 71
     3
 72
    11
 73
     7
 74
     0
 42
0.000000001
 43
0.00000001
 40
0.0
 40
0.0
 40
0.0
 40
0.0
 40
0.0076277211118008
 40
0.3209884219895704
 40
0.6632165129578631
 40
0.9999999999999999
 40
0.9999999999999999
 40
0.9999999999999999
 40
0.9999999999999999
 10
158.343352127654
 20
133.8182937685422
 30
0.0
 10
158.3423381933101
 20
133.8170852986656
 30
0.0
 10
158.299669986087
 20
133.7662306812728
 30
0.0
 10
158.2050736413441
 20
133.6535026570592
 30
0.0
 10
158.0510419890834
 20
133.4699298072182
 30
0.0
 10
157.9493408264156
 20
133.3487282320991
 30
0.0
 10
157.8988979866928
 20
133.2886133674554
 30
0.0
  0
CIRCLE
  5
A6
330
1F
100
AcDbEntity
  8
0
  6
Continuous
 62
     7
370
    25
100
AcDbCircle
 10
162.940984095
 20
139.2975379023
 30
0.0
 40
3.500000000000011
  0
CIRCLE
  5
A7
330
1F
100
AcDbEntity
  8
0
  6
Continuous
 62
     7
370
    25
100
AcDbCircle
 10
162.940984095
 20
139.2975379023
 30
0.0
 40
2.633974596215587
  0
CIRCLE
  5
A8
330
1F
100
AcDbEntity
  8
0
  6
Continuous
 62
     7
370
    25
100
AcDbCircle
 10
162.940984095
 20
139.2975379023
 30
0.0
 40
2.000000000000033
  0
SPLINE
  5
A9
330
1F
100
AcDbEntity
  8
0
  6
Continuous
 62
     7
370
    25
100
AcDbSpline
210
0.0
220
0.0
230
1.0
 70
     8
 71
     3
 72
    15
 73
    11
 74
     0
 42
0.000000001
 43
0.00000001
 40
0.0
 40
0.0
 40
0.0
 40
0.0
 40
0.126247117304796
 40
0.2533636883117016
 40
0.3794185193024521
 40
0.5042691263704945
 40
0.6284506431635634
 40
0.7526359282211383
 40
0.877489618387431
 40
1.0
 40
1.0
 40
1.0
 40
1.0
 10
164.3773659428781
 20
138.3693933818512
 30
0.0
 10
164.4217047633736
 20
138.368592466733
 30
0.0
 10
164.5106877622408
 20
138.366985120659
 30
0.0
 10
164.636163133912
 20
138.4209968586484
 30
0.0
 10
164.736934319737
 20
138.5105752604946
 30
0.0
 10
164.8018067089702
 20
138.6285699236123
 30
0.0
 10
164.824226788464
 20
138.7606161448342
 30
0.0
 10
164.8017557717676
 20
138.8917352173272
 30
0.0
 10
164.7395283385977
 20
139.0099564252851
 30
0.0
 10
164.6715883921128
 20
139.0640356621989
 30
0.0
 10
164.6379402203684
 20
139.0908191312127
 30
0.0
  0
SPLINE
  5
AA
330
1F
100
AcDbEntity
  8
0
  6
Continuous
 62
     7
370
    25
100
AcDbSpline
210
0.0
220
0.0
230
1.0
 70
     8
 71
     3
 72
    12
 73
     8
 74
     0
 42
0.000000001
 43
0.00000001
 40
0.0
 40
0.0
 40
0.0
 40
0.0
 40
0.205874936216586
 40
0.4120996016806288
 40
0.6141694561926612
 40
0.8132902263420309
 40
1.0
 40
1.0
 40
1.0
 40
1.0
 10
164.6379402203684
 20
139.0908191312127
 30
0.0
 10
164.5776933975914
 20
139.1389812111439
 30
0.0
 10
164.4570974079813
 20
139.2353871861523
 30
0.0
 10
164.3487018708586
 20
139.4460191482655
 30
0.0
 10
164.313019906668
 20
139.6741301232154
 30
0.0
 10
164.3489495256065
 20
139.897270892078
 30
0.0
 10
164.4245116477332
 20
140.0201785065013
 30
0.0
 10
164.4610774068361
 20
140.0796555314236
 30
0.0
  0
SPLINE
  5
AB
330
1F
100
AcDbEntity
  8
0
  6
Continuous
 62
     7
370
    25
100
AcDbSpline
210
0.0
220
0.0
230
1.0
 70
     8
 71
     3
 72
    15
 73
    11
 74
     0
 42
0.000000001
 43
0.00000001
 40
0.0
 40
0.0
 40
0.0
 40
0.0
 40
0.1268764230938661
 40
0.2539934008054688
 40
0.3800495217407182
 40
0.5049006551522943
 40
0.6290819797957857
 40
0.7532678022081007
 40
0.8781206380635703
 40
1.0
 40
1.0
 40
1.0
 40
1.0
 10
164.4610774068361
 20
140.0796555314236
 30
0.0
 10
164.4840384912607
 20
140.1178569750776
 30
0.0
 10
164.5300041937684
 20
140.1943322913954
 30
0.0
 10
164.5457594156981
 20
140.3302606244725
 30
0.0
 10
164.5183455143824
 20
140.4622731311668
 30
0.0
 10
164.4483996638614
 20
140.5773340035808
 30
0.0
 10
164.3451105872327
 20
140.6625991140807
 30
0.0
 10
164.2202433596853
 20
140.7084881458239
 30
0.0
 10
164.0869698558085
 20
140.7134684953876
 30
0.0
 10
164.0063937464835
 20
140.6817166514255
 30
0.0
 10
163.9665912201827
 20
140.6660320568852
 30
0.0
  0
SPLINE
  5
AC
330
1F
100
AcDbEntity
  8
0
  6
Continuous
 62
     7
370
    25
100
AcDbSpline
210
0.0
220
0.0
230
1.0
 70
     8
 71
     3
 72
    12
 73
     8
 74
     0
 42
0.000000001
 43
0.00000001
 40
0.0
 40
0.0
 40
0.0
 40
0.0
 40
0.2057949485785233
 40
0.4120009518465678
 40
0.614054954406014
 40
0.8131810751626302
 40
1.0
 40
1.0
 40
1.0
 40
1.0
 10
163.9665912201827
 20
140.6660320568852
 30
0.0
 10
163.8947859790432
 20
140.6379456431162
 30
0.0
 10
163.7510320730247
 20
140.5817167157944
 30
0.0
 10
163.51446012262
 20
140.5931267906338
 30
0.0
 10
163.299068303386
 20
140.676241645617
 30
0.0
 10
163.1237355652643
 20
140.8189177577085
 30
0.0
 10
163.0550501997204
 20
140.9458438007044
 30
0.0
 10
163.0218026524608
 20
141.0072830837242
 30
0.0
  0
SPLINE
  5
AD
330
1F
100
AcDbEntity
  8
0
  6
Continuous
 62
     7
370
    25
100
AcDbSpline
210
0.0
220
0.0
230
1.0
 70
     8
 71
     3
 72
    15
 73
    11
 74
     0
 42
0.000000001
 43
0.00000001
 40
0.0
 40
0.0
 40
0.0
 40
0.0
 40
0.1268032399525058
 40
0.2539260368932075
 40
0.3799869740456631
 40
0.5048411231061933
 40
0.6290225997099973
 40
0.7532063718868717
 40
0.878055230174213
 40
1.0
 40
1.0
 40
1.0
 40
1.0
 10
163.0218026524608
 20
141.0072830837242
 30
0.0
 10
163.0002148651168
 20
141.046246316253
 30
0.0
 10
162.9569848870213
 20
141.1242709725967
 30
0.0
 10
162.8471817634153
 20
141.2058866601768
 30
0.0
 10
162.719152812928
 20
141.2481773838832
 30
0.0
 10
162.5845309498789
 20
141.2451563340751
 30
0.0
 10
162.4590350912226
 20
141.1983594530705
 30
0.0
 10
162.3568469557916
 20
141.1131831374561
 30
0.0
 10
162.285863322139
 20
141.0002484654123
 30
0.0
 10
162.2730657018859
 20
140.9145690133581
 30
0.0
 10
162.2667421883171
 20
140.8722333941631
 30
0.0
  0
SPLINE
  5
AE
330
1F
100
AcDbEntity
  8
0
  6
Continuous
 62
     7
370
    25
100
AcDbSpline
210
0.0
220
0.0
230
1.0
 70
     8
 71
     3
 72
    12
 73
     8
 74
     0
 42
0.000000001
 43
0.00000001
 40
0.0
 40
0.0
 40
0.0
 40
0.0
 40
0.2058498693469904
 40
0.4120525466613151
 40
0.6141083677360206
 40
0.8132432979549192
 40
1.0
 40
1.0
 40
1.0
 40
1.0
 10
162.2667421883171
 20
140.8722333941631
 30
0.0
 10
162.255157916689
 20
140.7959843549173
 30
0.0
 10
162.231969519044
 20
140.6433555925024
 30
0.0
 10
162.103773454167
 20
140.4441767311484
 30
0.0
 10
161.9240839900682
 20
140.2992146755043
 30
0.0
 10
161.7128679333726
 20
140.2187371632982
 30
0.0
 10
161.5686246386953
 20
140.2227203241832
 30
0.0
 10
161.4988164341276
 20
140.2246480207913
 30
0.0
  0
SPLINE
  5
AF
330
1F
100
AcDbEntity
  8
0
  6
Continuous
 62
     7
370
    25
100
AcDbSpline
210
0.0
220
0.0
230
1.0
 70
     8
 71
     3
 72
    15
 73
    11
 74
     0
 42
0.000000001
 43
0.00000001
 40
0.0
 40
0.0
 40
0.0
 40
0.0
 40
0.126256371376744
 40
0.2533820513357917
 40
0.3794452964854146
 40
0.5043003226531595
 40
0.6284814367393863
 40
0.7526634932530174
 40
0.8775104563502791
 40
1.0
 40
1.0
 40
1.0
 40
1.0
 10
161.4988164341276
 20
140.2246480207913
 30
0.0
 10
161.454475533707
 20
140.2254485247686
 30
0.0
 10
161.3654884340135
 20
140.2270550444054
 30
0.0
 10
161.2400082700793
 20
140.1730384694771
 30
0.0
 10
161.1392363366993
 20
140.0834517077562
 30
0.0
 10
161.0743678887216
 20
139.9654497822815
 30
0.0
 10
161.0519556103244
 20
139.8334003690455
 30
0.0
 10
161.0744343759912
 20
139.7022836809236
 30
0.0
 10
161.1366651641375
 20
139.5840738588334
 30
0.0
 10
161.2045993013862
 20
139.5300006956613
 30
0.0
 10
161.2382426222985
 20
139.5032218057685
 30
0.0
  0
SPLINE
  5
B0
330
1F
100
AcDbEntity
  8
0
  6
Continuous
 62
     7
370
    25
100
AcDbSpline
210
0.0
220
0.0
230
1.0
 70
     8
 71
     3
 72
    12
 73
     8
 74
     0
 42
0.000000001
 43
0.00000001
 40
0.0
 40
0.0
 40
0.0
 40
0.0
 40
0.2058712806081244
 40
0.4120921007380605
 40
0.6141685467536566
 40
0.8133067530013816
 40
1.0
 40
1.0
 40
1.0
 40
1.0
 10
161.2382426222985
 20
139.5032218057685
 30
0.0
 10
161.2984888633015
 20
139.4550603772004
 30
0.0
 10
161.4190836346709
 20
139.3586557489564
 30
0.0
 10
161.5274785316145
 20
139.1480245662793
 30
0.0
 10
161.5631640409582
 20
138.9199092470412
 30
0.0
 10
161.5272311657438
 20
138.6967649687755
 30
0.0
 10
161.451667626505
 20
138.5738571328539
 30
0.0
 10
161.4151045045083
 20
138.5143854055576
 30
0.0
  0
SPLINE
  5
B1
330
1F
100
AcDbEntity
  8
0
  6
Continuous
 62
     7
370
    25
100
AcDbSpline
210
0.0
220
0.0
230
1.0
 70
     8
 71
     3
 72
    15
 73
    11
 74
     0
 42
0.000000001
 43
0.00000001
 40
0.0
 40
0.0
 40
0.0
 40
0.0
 40
0.126870188335668
 40
0.2539811042671075
 40
0.3800296936965693
 40
0.5048752669541678
 40
0.6290525034036872
 40
0.7532386455781062
 40
0.8780956305844657
 40
1.0
 40
1.0
 40
1.0
 40
1.0
 10
161.4151045045083
 20
138.5143854055576
 30
0.0
 10
161.3921440788188
 20
138.4761851771771
 30
0.0
 10
161.346179661586
 20
138.3997122380682
 30
0.0
 10
161.3304230258794
 20
138.2637884182833
 30
0.0
 10
161.3578323676225
 20
138.1317794441549
 30
0.0
 10
161.4277719372831
 20
138.016720541251
 30
0.0
 10
161.531053573525
 20
137.9314524729817
 30
0.0
 10
161.6559164312503
 20
137.8855574069195
 30
0.0
 10
161.7891968354297
 20
137.8805685901817
 30
0.0
 10
161.8697811259964
 20
137.9123220986759
 30
0.0
 10
161.909591156823
 20
137.9280088800959
 30
0.0
  0
SPLINE
  5
B2
330
1F
100
AcDbEntity
  8
0
  6
Continuous
 62
     7
370
    25
100
AcDbSpline
210
0.0
220
0.0
230
1.0
 70
     8
 71
     3
 72
    12
 73
     8
 74
     0
 42
0.000000001
 43
0.00000001
 40
0.0
 40
0.0
 40
0.0
 40
0.0
 40
0.2058322087583548
 40
0.4120750494786105
 40
0.6141697911891407
 40
0.8133030513956252
 40
1.0
 40
1.0
 40
1.0
 40
1.0
 10
161.909591156823
 20
137.9280088800959
 30
0.0
 10
161.9814071417132
 20
137.9560978641644
 30
0.0
 10
162.125182383234
 20
138.0123318693749
 30
0.0
 10
162.3617871726993
 20
138.0009057022484
 30
0.0
 10
162.5772008204502
 20
137.9177535127571
 30
0.0
 10
162.7524946728225
 20
137.775057064195
 30
0.0
 10
162.8211557490206
 20
137.6481611724141
 30
0.0
 10
162.8543797245449
 20
137.5867583189182
 30
0.0
  0
SPLINE
  5
B3
330
1F
100
AcDbEntity
  8
0
  6
Continuous
 62
     7
370
    25
100
AcDbSpline
210
0.0
220
0.0
230
1.0
 70
     8
 71
     3
 72
    15
 73
    11
 74
     0
 42
0.000000001
 43
0.00000001
 40
0.0
 40
0.0
 40
0.0
 40
0.0
 40
0.126787729165873
 40
0.2538953609707217
 40
0.3799411854842461
 40
0.5047843789517904
 40
0.6289623408924782
 40
0.7531497970228492
 40
0.8780089020106171
 40
1.0
 40
1.0
 40
1.0
 40
1.0
 10
162.8543797245449
 20
137.5867583189182
 30
0.0
 10
162.8759655364525
 20
137.5477980092013
 30
0.0
 10
162.9191916241994
 20
137.4697790876212
 30
0.0
 10
163.0289827438278
 20
137.3881641550149
 30
0.0
 10
163.1569995327785
 20
137.3458703779576
 30
0.0
 10
163.29161222719
 20
137.3488770010079
 30
0.0
 10
163.4171074367151
 20
137.3956594086654
 30
0.0
 10
163.5193050312151
 20
137.4808225428829
 30
0.0
 10
163.5903100656652
 20
137.5937624215013
 30
0.0
 10
163.603113064513
 20
137.6794577167528
 30
0.0
 10
163.6094401886886
 20
137.7218075428181
 30
0.0
  0
SPLINE
  5
B4
330
1F
100
AcDbEntity
  8
0
  6
Continuous
 62
     7
370
    25
100
AcDbSpline
210
0.0
220
0.0
230
1.0
 70
     8
 71
     3
 72
    12
 73
     8
 74
     0
 42
0.000000001
 43
0.00000001
 40
0.0
 40
0.0
 40
0.0
 40
0.0
 40
0.2058906867287244
 40
0.4121335743033632
 40
0.6142242922363371
 40
0.8133482275570818
 40
1.0
 40
1.0
 40
1.0
 40
1.0
 10
163.6094401886886
 20
137.7218075428181
 30
0.0
 10
163.621027295471
 20
137.7980682081227
 30
0.0
 10
163.6442213301789
 20
137.9507199917956
 30
0.0
 10
163.7724515488757
 20
138.1499180611054
 30
0.0
 10
163.9521804738707
 20
138.2948768520696
 30
0.0
 10
164.163390989214
 20
138.3753102193711
 30
0.0
 10
164.3075950011592
 20
138.3713226886167
 30
0.0
 10
164.3773659428781
 20
138.3693933818512
 30
0.0
  0
ARC
  5
B5
330
1F
100
AcDbEntity
  8
0
  6
Continuous
 62
     7
370
    25
100
AcDbCircle
 10
179.4134909874
 20
87.6748821277
 30
0.0
 40
39.99999999999999
100
AcDbArc
 50
107.1555854621
 51
130.6359129453
  0
LINE
  5
B6
330
1F
100
AcDbEntity
  8
0
  6
Continuous
 62
     7
370
    25
100
AcDbLine
 10
153.3634902274
 20
127.6695596386
 30
0.0
 11
153.3634902274
 21
127.6748812158
 31
0.0
  0
LINE
  5
B7
330
1F
100
AcDbEntity
  8
0
  6
Continuous
 62
     7
370
    25
100
AcDbLine
 10
153.3634902274
 20
127.6748812158
 30
0.0
 11
169.0634909732
 21
127.6748812158
 31
0.0
  0
ELLIPSE
  5
B8
330
1F
100
AcDbEntity
  8
0
  6
Continuous
 62
     7
370
    25
100
AcDbEllipse
 10
169.0634909874
 20
87.6748821277
 30
0.0
 11
-3.979039320256561E-13
 21
39.99999999999999
 31
0.0
210
0.0
220
0.0
230
1.0
 40
0.1227845609
 41
0.0
 42
0.2994214514200473
  0
SPLINE
  5
B9
330
1F
100
AcDbEntity
  8
0
  6
Continuous
 62
     7
370
    25
100
AcDbSpline
210
0.0
220
0.0
230
1.0
 70
     8
 71
     3
 72
     8
 73
     4
 74
     0
 42
0.000000001
 43
0.00000001
 40
0.0
 40
0.0
 40
0.0
 40
0.0
 40
1.0
 40
1.0
 40
1.0
 40
1.0
 10
153.3278143057098
 20
127.6338872871839
 30
0.0
 10
153.3497351194135
 20
127.6593356345031
 30
0.0
 10
153.3616691323693
 20
127.6730602726857
 30
0.0
 10
153.3634909874028
 20
127.6748821277193
 30
0.0
  0
SPLINE
  5
BA
330
1F
100
AcDbEntity
  8
0
  6
Continuous
 62
     7
370
    25
100
AcDbSpline
210
0.0
220
0.0
230
1.0
 70
     8
 71
     3
 72
    10
 73
     6
 74
     0
 42
0.000000001
 43
0.00000001
 40
0.0
 40
0.0
 40
0.0
 40
0.0
 40
0.5
 40
0.5
 40
1.0
 40
1.0
 40
1.0
 40
1.0
 10
150.5612377832595
 20
121.6750904646696
 30
0.0
 10
150.5612377832595
 20
122.0574671702404
 30
0.0
 10
150.6111849744918
 20
122.4300282174087
 30
0.0
 10
150.731030129011
 20
123.164889476838
 30
0.0
 10
150.7989429038451
 20
123.5260621663783
 30
0.0
 10
150.8362316484342
 20
123.878528516452
 30
0.0
  0
ELLIPSE
  5
BB
330
1F
100
AcDbEntity
  8
0
  6
Continuous
 62
     7
370
    25
100
AcDbEllipse
 10
152.3315912692
 20
121.6750904647
 30
0.0
 11
-5.684341886080801E-14
 21
6.0
 31
0.0
210
0.0
220
0.0
230
1.0
 40
0.2679491924
 41
0.0083334297869658
 42
1.194756739062736
  0
LINE
  5
BC
330
1F
100
AcDbEntity
  8
0
  6
Continuous
 62
     7
370
    25
100
AcDbLine
 10
152.3181942588
 20
127.6748812158
 30
0.0
 11
153.3634902274
 21
127.6748812158
 31
0.0
  0
SPLINE
  5
BD
330
1F
100
AcDbEntity
  8
0
  6
Continuous
 62
     7
370
    25
100
AcDbSpline
210
0.0
220
0.0
230
1.0
 70
     8
 71
     3
 72
    22
 73
    18
 74
     0
 42
0.000000001
 43
0.00000001
 40
0.0
 40
0.0
 40
0.0
 40
0.0
 40
0.125
 40
0.125
 40
0.25
 40
0.25
 40
0.375
 40
0.375
 40
0.5
 40
0.5
 40
0.625
 40
0.625
 40
0.75
 40
0.75
 40
0.875
 40
0.875
 40
1.0
 40
1.0
 40
1.0
 40
1.0
 10
152.7634909874029
 20
121.6750904646696
 30
0.0
 10
152.7634909874029
 20
122.0426681060653
 30
0.0
 10
152.7672485217297
 20
122.4045069473964
 30
0.0
 10
152.7819164796781
 20
123.11719298311
 30
0.0
 10
152.7929417596011
 20
123.4706162193152
 30
0.0
 10
152.8219018896309
 20
124.1539281997303
 30
0.0
 10
152.8395796406504
 20
124.4792969742304
 30
0.0
 10
152.8809662477869
 20
125.0983969099279
 30
0.0
 10
152.9049653800209
 20
125.3948475699699
 30
0.0
 10
152.9575590623963
 20
125.9378969563001
 30
0.0
 10
152.9860558053897
 20
126.1847627864434
 30
0.0
 10
153.0471908407145
 20
126.6298584034892
 30
0.0
 10
153.0801494449457
 20
126.8292219005879
 30
0.0
 10
153.1477426482685
 20
127.1637391504046
 30
0.0
 10
153.1825566203876
 20
127.3008585331587
 30
0.0
 10
153.2541178111762
 20
127.5147141447265
 30
0.0
 10
153.290966835448
 20
127.5911102610327
 30
0.0
 10
153.3278143057098
 20
127.6338872871839
 30
0.0
  0
LINE
  5
BE
330
1F
100
AcDbEntity
  8
0
  6
Continuous
 62
     7
370
    25
100
AcDbLine
 10
152.3181942588
 20
143.4371821448
 30
0.0
 11
156.6634911409
 21
144.2033751734
 31
0.0
  0
LINE
  5
BF
330
1F
100
AcDbEntity
  8
0
  6
Continuous
 62
     7
370
    25
100
AcDbLine
 10
169.0634909732
 20
127.6748812158
 30
0.0
 11
169.0634909732
 21
134.0040069405
 31
0.0
  0
LINE
  5
C0
330
1F
100
AcDbEntity
  8
0
  6
Continuous
 62
     7
370
    25
100
AcDbLine
 10
152.3181942588
 20
127.6748812158
 30
0.0
 11
152.3181942588
 21
143.4371821448
 31
0.0
  0
ARC
  5
C1
330
1F
100
AcDbEntity
  8
0
  6
Continuous
 62
     7
370
    25
100
AcDbCircle
 10
157.6634909874
 20
133.0080665314
 30
0.0
 40
2.100000000000007
100
AcDbArc
 50
117.3000174185
 51
342.6999825815
  0
ELLIPSE
  5
C2
330
1F
100
AcDbEntity
  8
0
  6
Continuous
 62
     7
370
    25
100
AcDbEllipse
 10
152.3985785673
 20
102.8354339984
 30
0.0
 11
0.5352572967201183
 21
40.66076322939647
 31
0.0
210
0.0
220
0.0
230
1.0
 40
0.263265937
 41
0.0574610379634683
 42
0.1962511498552406
  0
LINE
  5
C3
330
1F
100
AcDbEntity
  8
0
  6
Continuous
 62
     7
370
    25
100
AcDbLine
 10
153.3634902274
 20
121.6750907112
 30
0.0
 11
153.3634902274
 21
127.6695596386
 31
0.0
  0
SPLINE
  5
C4
330
1F
100
AcDbEntity
  8
0
  6
Continuous
 62
     7
370
    25
100
AcDbSpline
210
0.0
220
0.0
230
1.0
 70
     8
 71
     3
 72
    10
 73
     6
 74
     0
 42
0.000000001
 43
0.00000001
 40
0.0
 40
0.0
 40
0.0
 40
0.0
 40
0.5
 40
0.5
 40
1.0
 40
1.0
 40
1.0
 40
1.0
 10
149.8564357513215
 20
64.34219468319965
 30
0.0
 10
149.9778776039577
 20
64.34721280329956
 30
0.0
 10
150.1053892102885
 20
64.34771376635705
 30
0.0
 10
150.3482677558625
 20
64.33988830769168
 30
0.0
 10
150.4640497813164
 20
64.33150743191675
 30
0.0
 10
150.5612377832601
 20
64.31988876404898
 30
0.0
  0
LINE
  5
C5
330
1F
100
AcDbEntity
  8
0
  6
Continuous
 62
     7
370
    25
100
AcDbLine
 10
150.561237458
 20
64.3198861141
 30
0.0
 11
150.561237458
 21
121.6750907112
 31
0.0
  0
SPLINE
  5
C6
330
1F
100
AcDbEntity
  8
0
  6
Continuous
 62
     7
370
    25
100
AcDbSpline
210
0.0
220
0.0
230
1.0
 70
     8
 71
     3
 72
    12
 73
     8
 74
     0
 42
0.000000001
 43
0.00000001
 40
0.0
 40
0.0
 40
0.0
 40
0.0
 40
0.2499999999999999
 40
0.2499999999999999
 40
0.4999999999999998
 40
0.4999999999999998
 40
1.0
 40
1.0
 40
1.0
 40
1.0
 10
149.8564357513207
 20
142.4815662390883
 30
0.0
 10
149.9598953010644
 20
142.495248840597
 30
0.0
 10
150.0662914186886
 20
142.5129428772959
 30
0.0
 10
150.2745878518127
 20
142.5543081057444
 30
0.0
 10
150.3752545764313
 20
142.5777959266467
 30
0.0
 10
150.6445919412623
 20
142.650665236368
 30
0.0
 10
150.7813412288019
 20
142.7028418900889
 30
0.0
 10
150.836231648434
 20
142.7431699162687
 30
0.0
  0
LINE
  5
C7
330
1F
100
AcDbEntity
  8
0
  6
Continuous
 62
     7
370
    25
100
AcDbLine
 10
148.5634909308
 20
64.2903222103
 30
0.0
 11
148.5634909308
 21
142.3089917149
 31
0.0
  0
LINE
  5
C8
330
1F
100
AcDbEntity
  8
0
  6
Continuous
 62
     7
370
    25
100
AcDbLine
 10
131.111878652
 20
66.1613716144
 30
0.0
 11
131.111878652
 21
120.5232719291
 31
0.0
  0
LINE
  5
C9
330
1F
100
AcDbEntity
  8
0
  6
Continuous
 62
     7
370
    25
100
AcDbLine
 10
132.4634922033
 20
121.8748817552
 30
0.0
 11
131.111878652
 21
120.5232719291
 31
0.0
  0
LINE
  5
CA
330
1F
100
AcDbEntity
  8
0
  6
Continuous
 62
     7
370
    25
100
AcDbLine
 10
132.4634922033
 20
137.8227815364
 30
0.0
 11
132.4634922033
 21
121.8748817552
 31
0.0
  0
LINE
  5
CB
330
1F
100
AcDbEntity
  8
0
  6
Continuous
 62
     7
370
    25
100
AcDbLine
 10
132.4634922033
 20
137.8227815364
 30
0.0
 11
134.4634925312
 21
139.8227813985
 31
0.0
  0
LINE
  5
CC
330
1F
100
AcDbEntity
  8
0
  6
Continuous
 62
     7
370
    25
100
AcDbLine
 10
132.837161172
 20
64.2903222103
 30
0.0
 11
148.5634909308
 21
64.2903222103
 31
0.0
  0
LINE
  5
CD
330
1F
100
AcDbEntity
  8
0
  6
Continuous
 62
     7
370
    25
100
AcDbLine
 10
131.1113869136
 20
66.1619080562
 30
0.0
 11
132.837187249
 21
64.2850248475
 31
0.0
  0
LINE
  5
CE
330
1F
100
AcDbEntity
  8
0
  6
Continuous
 62
     7
370
    25
100
AcDbLine
 10
134.4634925312
 20
139.8227813985
 30
0.0
 11
148.5634909308
 21
142.3089917149
 31
0.0
  0
LINE
  5
CF
330
1F
100
AcDbEntity
  8
0
  6
Continuous
 62
     7
370
    25
100
AcDbLine
 10
129.962846387
 20
67.9184718389
 30
0.0
 11
129.962846387
 21
119.0663518716
 31
0.0
  0
LINE
  5
D0
330
1F
100
AcDbEntity
  8
0
  6
Continuous
 62
     7
370
    25
100
AcDbLine
 10
129.962846387
 20
119.0663518716
 30
0.0
 11
131.111878652
 21
120.5232719291
 31
0.0
  0
SPLINE
  5
D1
330
1F
100
AcDbEntity
  8
0
  6
Continuous
 62
     7
370
    25
100
AcDbSpline
210
0.0
220
0.0
230
1.0
 70
     8
 71
     3
 72
    11
 73
     7
 74
     0
 42
0.000000001
 43
0.00000001
 40
0.000467440121188
 40
0.000467440121188
 40
0.000467440121188
 40
0.000467440121188
 40
0.0014296000912772
 40
0.0014296000912772
 40
0.0014296000912772
 40
0.0028593206822723
 40
0.0028593206822723
 40
0.0028593206822723
 40
0.0028593206822723
 10
131.1118837966312
 20
66.16335823290233
 30
0.0
 10
130.9565402669976
 20
66.39702104090345
 30
0.0
 10
130.8016905227961
 20
66.63134252062596
 30
0.0
 10
130.6473567483125
 20
66.86633976390411
 30
0.0
 10
130.4180250574323
 20
67.2155330324126
 30
0.0
 10
130.189828193641
 20
67.5662245675696
 30
0.0
 10
129.9628445528081
 20
67.91847283405804
 30
0.0
  0
ELLIPSE
  5
D2
330
1F
100
AcDbEntity
  8
0
  6
Continuous
 62
     7
370
    25
100
AcDbEllipse
 10
127.1041988439
 20
103.8748821277
 30
0.0
 11
149.2820323027535
 21
1.563194018672220E-12
 31
0.0
210
0.0
220
0.0
230
1.0
 40
0.2679491924
 41
4.856638717946816
 42
4.865396385742836
  0
ELLIPSE
  5
D3
330
1F
100
AcDbEntity
  8
0
  6
Continuous
 62
     7
370
    25
100
AcDbEllipse
 10
125.9845836016
 20
98.1779340176
 30
0.0
 11
149.0957597411449
 21
28.31802889254279
 31
0.0
210
0.0
220
0.0
230
1.0
 40
0.263265937
 41
1.360234778308901
 42
1.369002660408419
  0
LINE
  5
D4
330
1F
100
AcDbEntity
  8
0
  6
Continuous
 62
     7
370
    25
100
AcDbLine
 10
152.7634912467
 20
121.6750907112
 30
0.0
 11
152.7634912467
 21
64.3198861141
 31
0.0
  0
ARC
  5
D5
330
1F
100
AcDbEntity
  8
0
  6
Continuous
 62
     7
370
    25
100
AcDbCircle
 10
146.8134909874
 20
103.8748821277
 30
0.0
 40
39.99999999999999
100
AcDbArc
 50
278.5544941827
 51
279.4246271282
  0
LINE
  5
D6
330
1F
100
AcDbEntity
  8
0
  6
Continuous
 62
     7
370
    25
100
AcDbLine
 10
153.3634902274
 20
121.6750907112
 30
0.0
 11
153.3634902274
 21
64.4148065109
 31
0.0
  0
LINE
  5
D7
330
1F
100
AcDbEntity
  8
0
  6
Continuous
 62
     7
370
    25
100
AcDbLine
 10
152.7634912467
 20
64.3198861141
 30
0.0
 11
150.561237458
 21
64.3198861141
 31
0.0
  0
LINE
  5
D8
330
1F
100
AcDbEntity
  8
VERMASSUNG
100
AcDbLine
 10
168.9634909874
 20
146.8748821277
 30
0.0
 11
171.32608982
 21
146.8748821277
 31
0.0
  0
DIMENSION
  5
D9
330
1F
100
AcDbEntity
  8
VERMASSUNG
100
AcDbDimension
  2
_D
 10
187.7984627151
 20
64.2903207433
 30
0.0
 11
187.7984627151
 21
105.5826014355
 31
0.0
 70
   160
  1
%%c86 - %%c138
 71
     2
 42
-1.0
  3
SLDDIMSTYLE0
100
AcDbAlignedDimension
 13
171.32608982
 23
146.8748821277
 33
0.0
 14
148.5634909874
 24
64.2903207433
 34
0.0
 50
90.0
100
AcDbRotatedDimension
  0
DIMENSION
  5
E6
330
1F
100
AcDbEntity
  8
VERMASSUNG
100
AcDbDimension
  2
_D_1
 10
171.32608982
 20
146.8748821277
 30
0.0
 11
176.5652418527
 21
139.6731312624
 31
0.0
 70
   162
  1
<>
 71
     1
 42
-1.0
  3
SLDDIMSTYLE1
100
AcDb2LineAngularDimension
 13
169.3634909874
 23
134.3913054463
 33
0.0
 14
169.3634909874
 24
146.4748821277
 34
0.0
 15
168.9634909874
 25
146.8748821277
 35
0.0
 16
176.5652418527
 26
139.6731312624
 36
0.0
  0
DIMENSION
  5
F0
330
1F
100
AcDbEntity
  8
VERMASSUNG
100
AcDbDimension
  2
_D_2
 10
129.9628445528
 20
155.3665473545
 30
0.0
 11
149.6631677701
 21
155.3665473545
 31
0.0
 70
   160
  1
<>
 71
     2
 42
-1.0
  3
SLDDIMSTYLE2
100
AcDbAlignedDimension
 13
169.3634909874
 23
146.4748821277
 33
0.0
 14
129.9628445528
 24
119.0663525677
 34
0.0
 50
0.0
100
AcDbRotatedDimension
  0
LINE
  5
FB
330
1F
100
AcDbEntity
  8
0
  6
Continuous
 62
     7
370
    25
100
AcDbLine
 10
221.7823164429
 20
57.7046405908
 30
0.0
 11
222.7255233999
 21
58.4570953978
 31
0.0
  0
LINE
  5
FC
330
1F
100
AcDbEntity
  8
0
  6
Continuous
 62
     7
370
    25
100
AcDbLine
 10
213.841194911
 20
74.8754795328
 30
0.0
 11
211.3557645497
 21
73.9007944467
 31
0.0
  0
LINE
  5
FD
330
1F
100
AcDbEntity
  8
0
  6
Continuous
 62
     7
370
    25
100
AcDbLine
 10
218.7161858561
 20
62.8711444014
 30
0.0
 11
218.8576071779
 21
62.9527851927
 31
0.0
  0
LINE
  5
FE
330
1F
100
AcDbEntity
  8
0
  6
Continuous
 62
     7
370
    25
100
AcDbLine
 10
215.3578915868
 20
69.0151274307
 30
0.0
 11
215.216470265
 21
68.9334866394
 31
0.0
  0
LINE
  5
FF
330
1F
100
AcDbEntity
  8
0
  6
Continuous
 62
     7
370
    25
100
AcDbLine
 10
216.7454548564
 20
66.9745606681
 30
0.0
 11
216.8825109851
 21
67.053681487
 31
0.0
  0
LINE
  5
100
330
1F
100
AcDbEntity
  8
0
  6
Continuous
 62
     7
370
    25
100
AcDbLine
 10
217.9923434909
 20
65.0831760403
 30
0.0
 11
217.7308026424
 21
64.9321917223
 31
0.0
  0
LINE
  5
101
330
1F
100
AcDbEntity
  8
0
  6
Continuous
 62
     7
370
    25
100
AcDbLine
 10
215.6147972903
 20
66.5279702623
 30
0.0
 11
216.4499199714
 21
67.0100763242
 31
0.0
  0
LINE
  5
102
330
1F
100
AcDbEntity
  8
0
  6
Continuous
 62
     7
370
    25
100
AcDbLine
 10
217.7331097502
 20
65.1396479011
 30
0.0
 11
216.5805197194
 21
64.4742718392
 31
0.0
  0
LINE
  5
103
330
1F
100
AcDbEntity
  8
0
  6
Continuous
 62
     7
370
    25
100
AcDbLine
 10
211.2590801249
 20
73.6497420581
 30
0.0
 11
212.7427960344
 21
63.0763752576
 31
0.0
  0
LWPOLYLINE
  5
104
330
1F
100
AcDbEntity
  8
0
  6
Continuous
 62
     7
370
    25
100
AcDbPolyline
 90
        9
 70
   128
 43
0.0
 10
211.5376258138
 20
73.8722737155
 10
211.4764074546
 20
73.8998722112
 10
211.4180913216
 20
73.910678102
 10
211.3654420876
 20
73.9041790939
 10
211.320955734
 20
73.880683297
 10
211.2867412702
 20
73.8413045954
 10
211.2644207401
 20
73.7879098593
 10
211.2550523121
 20
73.7230304063
 10
211.2590801249
 20
73.6497420581
  0
LINE
  5
105
330
1F
100
AcDbEntity
  8
0
  6
Continuous
 62
     7
370
    25
100
AcDbLine
 10
220.0820045726
 20
68.9397088506
 30
0.0
 11
211.5376258138
 21
73.8722737155
 31
0.0
  0
ARC
  5
106
330
1F
100
AcDbEntity
  8
0
  6
Continuous
 62
     7
370
    25
100
AcDbCircle
 10
219.7421327772
 20
68.4144826227
 30
0.0
 40
0.6256000542580046
100
AcDbArc
 50
8.690395554
 51
57.0932553479
  0
LINE
  5
107
330
1F
100
AcDbEntity
  8
0
  6
Continuous
 62
     7
370
    25
100
AcDbLine
 10
221.8442663833
 20
57.9356411895
 30
0.0
 11
220.3605504603
 21
68.5090077365
 31
0.0
  0
LWPOLYLINE
  5
108
330
1F
100
AcDbEntity
  8
0
  6
Continuous
 62
     7
370
    25
100
AcDbPolyline
 90
        9
 70
   128
 43
0.0
 10
221.5657204956
 20
57.7131096944
 10
221.6269387931
 20
57.6855113962
 10
221.6852548849
 20
57.6747049871
 10
221.7379042012
 20
57.6812042804
 10
221.7823908584
 20
57.7046995337
 10
221.8166055383
 20
57.7440783719
 10
221.8389255873
 20
57.7974737066
 10
221.8482940415
 20
57.8623527168
 10
221.8442663833
 20
57.9356411895
  0
LINE
  5
109
330
1F
100
AcDbEntity
  8
0
  6
Continuous
 62
     7
370
    25
100
AcDbLine
 10
213.0213415928
 20
62.6456746424
 30
0.0
 11
221.5657204956
 21
57.7131096944
 31
0.0
  0
ARC
  5
10A
330
1F
100
AcDbEntity
  8
0
  6
Continuous
 62
     7
370
    25
100
AcDbCircle
 10
213.3612133671
 20
63.1709004935
 30
0.0
 40
0.6255997262971311
100
AcDbArc
 50
188.6904114554
 51
237.0932382194
  0
LWPOLYLINE
  5
10B
330
1F
100
AcDbEntity
  8
0
  6
Continuous
 62
     7
370
    25
100
AcDbPolyline
 90
        9
 70
   128
 43
0.0
 10
221.5657204955
 20
57.7294406349
 10
221.6238778781
 20
57.7032215292
 10
221.6792785934
 20
57.6929559158
 10
221.7292950488
 20
57.6991302445
 10
221.7715571426
 20
57.7214511343
 10
221.8040609238
 20
57.7588609736
 10
221.8252653985
 20
57.8095862184
 10
221.8341656275
 20
57.8712214301
 10
221.8303388253
 20
57.9408456313
  0
LINE
  5
10C
330
1F
100
AcDbEntity
  8
0
  6
Continuous
 62
     7
370
    25
100
AcDbLine
 10
221.8303388253
 20
57.9408456313
 30
0.0
 11
220.346623561
 21
68.5142117506
 31
0.0
  0
ARC
  5
10D
330
1F
100
AcDbEntity
  8
0
  6
Continuous
 62
     7
370
    25
100
AcDbCircle
 10
219.7591257491
 20
68.4244122007
 30
0.0
 40
0.594321157372023
100
AcDbArc
 50
8.6904467271
 51
57.0932534056
  0
LINE
  5
10E
330
1F
100
AcDbEntity
  8
0
  6
Continuous
 62
     7
370
    25
100
AcDbLine
 10
220.0820045725
 20
68.9233780347
 30
0.0
 11
211.5376258137
 21
73.8559428996
 31
0.0
  0
LWPOLYLINE
  5
10F
330
1F
100
AcDbEntity
  8
0
  6
Continuous
 62
     7
370
    25
100
AcDbPolyline
 90
        9
 70
   128
 43
0.0
 10
211.5376258137
 20
73.8559428996
 10
211.4794683694
 20
73.8821614721
 10
211.4240680451
 20
73.8924270662
 10
211.3740512707
 20
73.8862530108
 10
211.3317892387
 20
73.8639319962
 10
211.2992854985
 20
73.8265222282
 10
211.2780809931
 20
73.7757972152
 10
211.2691809878
 20
73.7141617554
 10
211.2730074093
 20
73.6445378215
  0
LINE
  5
110
330
1F
100
AcDbEntity
  8
0
  6
Continuous
 62
     7
370
    25
100
AcDbLine
 10
211.2730074093
 20
73.6445378215
 30
0.0
 11
212.7567232628
 21
63.0711710057
 31
0.0
  0
ARC
  5
111
330
1F
100
AcDbEntity
  8
0
  6
Continuous
 62
     7
370
    25
100
AcDbCircle
 10
213.3442188871
 20
63.1609696715
 30
0.0
 40
0.5943188612933707
100
AcDbArc
 50
188.6903943319
 51
237.0932857342
  0
LINE
  5
112
330
1F
100
AcDbEntity
  8
0
  6
Continuous
 62
     7
370
    25
100
AcDbLine
 10
213.0213415926
 20
62.662005583
 30
0.0
 11
221.5657204955
 21
57.7294406349
 31
0.0
  0
LINE
  5
113
330
1F
100
AcDbEntity
  8
0
  6
Continuous
 62
     7
370
    25
100
AcDbLine
 10
222.3855736698
 20
69.9429146679
 30
0.0
 11
220.7733229886
 21
68.8012896005
 31
0.0
  0
LINE
  5
114
330
1F
100
AcDbEntity
  8
0
  6
Continuous
 62
     7
370
    25
100
AcDbLine
 10
220.5470315376
 20
68.6410540405
 30
0.0
 11
220.3605504603
 21
68.5090077365
 31
0.0
  0
LINE
  5
115
330
1F
100
AcDbEntity
  8
0
  6
Continuous
 62
     7
370
    25
100
AcDbLine
 10
223.3383899437
 20
70.468709181
 30
0.0
 11
222.3855736698
 21
69.9429146679
 31
0.0
  0
LINE
  5
116
330
1F
100
AcDbEntity
  8
0
  6
Continuous
 62
     7
370
    25
100
AcDbLine
 10
223.4001785407
 20
70.0283886186
 30
0.0
 11
223.3383899437
 21
70.468709181
 31
0.0
  0
LINE
  5
117
330
1F
100
AcDbEntity
  8
0
  6
Continuous
 62
     7
370
    25
100
AcDbLine
 10
222.7089608408
 20
58.547925855
 30
0.0
 11
221.8442663833
 21
57.9356411895
 31
0.0
  0
LINE
  5
118
330
1F
100
AcDbEntity
  8
0
  6
Continuous
 62
     7
370
    25
100
AcDbLine
 10
220.2371389211
 20
68.7026496872
 30
0.0
 11
220.346623561
 21
68.5142117506
 31
0.0
  0
LINE
  5
119
330
1F
100
AcDbEntity
  8
0
  6
Continuous
 62
     7
370
    25
100
AcDbLine
 10
221.7208548441
 20
58.1292833779
 30
0.0
 11
221.8303388253
 21
57.9408456313
 31
0.0
  0
LINE
  5
11A
330
1F
100
AcDbEntity
  8
0
  6
Continuous
 62
     7
370
    25
100
AcDbLine
 10
221.3579137715
 20
59.4147204171
 30
0.0
 11
221.7208548441
 21
58.1292833779
 31
0.0
  0
LINE
  5
11B
330
1F
100
AcDbEntity
  8
0
  6
Continuous
 62
     7
370
    25
100
AcDbLine
 10
220.1221069286
 20
68.5545181547
 30
0.0
 11
220.2371389211
 21
68.7026496872
 31
0.0
  0
LINE
  5
11C
330
1F
100
AcDbEntity
  8
0
  6
Continuous
 62
     7
370
    25
100
AcDbLine
 10
222.3855736698
 20
69.9429146679
 30
0.0
 11
220.0820045726
 21
68.9397088506
 31
0.0
  0
LINE
  5
11D
330
1F
100
AcDbEntity
  8
0
  6
Continuous
 62
     7
370
    25
100
AcDbLine
 10
220.2371389211
 20
68.7026496872
 30
0.0
 11
220.0820045725
 21
68.9233780347
 31
0.0
  0
LINE
  5
11E
330
1F
100
AcDbEntity
  8
0
  6
Continuous
 62
     7
370
    25
100
AcDbLine
 10
213.841194911
 20
74.8754795328
 30
0.0
 11
211.5376258138
 21
73.8722737155
 31
0.0
  0
LINE
  5
11F
330
1F
100
AcDbEntity
  8
0
  6
Continuous
 62
     7
370
    25
100
AcDbLine
 10
215.0588933235
 20
75.248360842
 30
0.0
 11
213.841194911
 21
74.8754795328
 31
0.0
  0
LINE
  5
120
330
1F
100
AcDbEntity
  8
0
  6
Continuous
 62
     7
370
    25
100
AcDbLine
 10
223.3383899437
 20
70.468709181
 30
0.0
 11
215.0588933235
 21
75.248360842
 31
0.0
  0
LINE
  5
121
330
1F
100
AcDbEntity
  8
0
  6
Continuous
 62
     7
370
    25
100
AcDbLine
 10
211.6927601622
 20
73.6352145521
 30
0.0
 11
211.5376258137
 21
73.8559428996
 31
0.0
  0
LINE
  5
122
330
1F
100
AcDbEntity
  8
0
  6
Continuous
 62
     7
370
    25
100
AcDbLine
 10
212.7378088357
 20
72.7435488512
 30
0.0
 11
211.6927601622
 21
73.6352145521
 31
0.0
  0
SPLINE
  5
123
330
1F
100
AcDbEntity
  8
0
  6
Continuous
 62
     7
370
    25
100
AcDbSpline
210
0.0
220
0.0
230
1.0
 70
     8
 71
     3
 72
    11
 73
     7
 74
     0
 42
0.000000001
 43
0.00000001
 40
0.0
 40
0.0
 40
0.0
 40
0.0
 40
0.3372312950519215
 40
0.6736323267689756
 40
0.9918840785429549
 40
1.0
 40
1.0
 40
1.0
 40
1.0
 10
220.1221069285519
 20
68.55451815467842
 30
0.0
 10
220.1045673985802
 20
68.53657180643312
 30
0.0
 10
220.0695315209538
 20
68.50072329384584
 30
0.0
 10
219.9407230384612
 20
68.40193615686651
 30
0.0
 10
219.8311992906271
 20
68.32369388051056
 30
0.0
 10
219.7728315721431
 20
68.2831603978513
 30
0.0
 10
219.771380117671
 20
68.28215243478196
 30
0.0
  0
ARC
  5
124
330
1F
100
AcDbEntity
  8
0
  6
Continuous
 62
     7
370
    25
100
AcDbCircle
 10
217.6777911859
 20
66.8746424406
 30
0.0
 40
1.564001649074424
100
AcDbArc
 50
8.6904209615
 51
57.093230517
  0
LINE
  5
125
330
1F
100
AcDbEntity
  8
0
  6
Continuous
 62
     7
370
    25
100
AcDbLine
 10
213.0491278903
 20
70.3919581548
 30
0.0
 11
213.8795100388
 21
64.4744269734
 31
0.0
  0
LWPOLYLINE
  5
126
330
1F
100
AcDbEntity
  8
0
  6
Continuous
 62
     7
370
    25
100
AcDbPolyline
 90
        9
 70
   128
 43
0.0
 10
213.7454921155
 20
70.9482871776
 10
213.5924462072
 20
71.0172833984
 10
213.446655813
 20
71.0442981855
 10
213.3150326869
 20
71.0280506176
 10
213.2038168672
 20
70.9693112488
 10
213.1182806613
 20
70.8708644383
 10
213.0624793863
 20
70.7373775274
 10
213.0390582509
 20
70.5751790514
 10
213.0491278903
 20
70.3919581548
  0
LINE
  5
127
330
1F
100
AcDbEntity
  8
0
  6
Continuous
 62
     7
370
    25
100
AcDbLine
 10
218.5274720658
 20
68.1877089129
 30
0.0
 11
213.7454921155
 21
70.9482871776
 31
0.0
  0
LINE
  5
128
330
1F
100
AcDbEntity
  8
0
  6
Continuous
 62
     7
370
    25
100
AcDbLine
 10
220.0542186041
 20
61.1934247678
 30
0.0
 11
219.2238367849
 21
67.1109561394
 31
0.0
  0
LWPOLYLINE
  5
129
330
1F
100
AcDbEntity
  8
0
  6
Continuous
 62
     7
370
    25
100
AcDbPolyline
 90
        9
 70
   128
 43
0.0
 10
219.3578545437
 20
60.63709565
 10
219.5109002873
 20
60.5680995243
 10
219.6566908461
 20
60.5410852124
 10
219.7883134784
 20
60.557332305
 10
219.899529792
 20
60.6160717689
 10
219.9850655039
 20
60.7145186744
 10
220.0408672728
 20
60.8480053001
 10
220.0642884082
 20
61.0102039663
 10
220.0542186041
 20
61.1934247678
  0
LINE
  5
12A
330
1F
100
AcDbEntity
  8
0
  6
Continuous
 62
     7
370
    25
100
AcDbLine
 10
214.5758740993
 20
63.3976741998
 30
0.0
 11
219.3578545437
 21
60.63709565
 31
0.0
  0
ARC
  5
12B
330
1F
100
AcDbEntity
  8
0
  6
Continuous
 62
     7
370
    25
100
AcDbCircle
 10
215.4255554584
 20
64.7107400364
 30
0.0
 40
1.564001375735254
100
AcDbArc
 50
188.6903989323
 51
237.0932031273
  0
LWPOLYLINE
  5
12C
330
1F
100
AcDbEntity
  8
0
  6
Continuous
 62
     7
370
    25
100
AcDbPolyline
 90
       33
 70
   128
 43
0.0
 10
216.5516732473
 20
62.6898361338
 10
217.0758819197
 20
62.4468379598
 10
217.5799457155
 20
62.3324184821
 10
218.0444935482
 20
62.3509747807
 10
218.4516729345
 20
62.5017952883
 10
218.7858368571
 20
62.7790822885
 10
219.0341430395
 20
63.1721808715
 10
219.1870491717
 20
63.6659843069
 10
219.2386790611
 20
64.2415162129
 10
219.1870491717
 20
64.8766583401
 10
219.0341430395
 20
65.547003438
 10
218.7858368571
 20
66.2267902368
 10
218.4516729345
 20
66.8898950699
 10
218.0444935482
 20
67.51083451
 10
217.5799457155
 20
68.0657468898
 10
217.0758819197
 20
68.533306893
 10
216.5516732473
 20
68.8955465989
 10
216.027464575
 20
69.1385453432
 10
215.5234007791
 20
69.252965011
 10
215.0588529465
 20
69.234408142
 10
214.6516732309
 20
69.0835882048
 10
214.3175096375
 20
68.8063006342
 10
214.0692034552
 20
68.4132020513
 10
213.9162974876
 20
67.9193985208
 10
213.8646674335
 20
67.3438670901
 10
213.9162974876
 20
66.7087244876
 10
214.0692034552
 20
66.0383794848
 10
214.3175096375
 20
65.358592686
 10
214.6516732309
 20
64.6954884232
 10
215.0588529465
 20
64.0745484128
 10
215.5234007791
 20
63.5196366033
 10
216.027464575
 20
63.05207641
 10
216.5516732473
 20
62.6898361338
  0
LINE
  5
12D
330
1F
100
AcDbEntity
  8
0
  6
Continuous
 62
     7
370
    25
100
AcDbLine
 10
218.5533213373
 20
62.793192068
 30
0.0
 11
218.8141029868
 21
62.8126459846
 31
0.0
  0
LWPOLYLINE
  5
12E
330
1F
100
AcDbEntity
  8
0
  6
Continuous
 62
     7
370
    25
100
AcDbPolyline
 90
        3
 70
   128
 43
0.0
 10
215.1024164066
 20
69.2421722886
 10
214.8823762716
 20
68.882636726
 10
214.7382366838
 20
68.4326097793
  0
SPLINE
  5
12F
330
1F
100
AcDbEntity
  8
0
  6
Continuous
 62
     7
370
    25
100
AcDbSpline
210
0.0
220
0.0
230
1.0
 70
     8
 71
     3
 72
    11
 73
     7
 74
     0
 42
0.000000001
 43
0.00000001
 40
0.0
 40
0.0
 40
0.0
 40
0.0
 40
0.0076277211118008
 40
0.3209884219895704
 40
0.6632165129578631
 40
0.9999999999999999
 40
0.9999999999999999
 40
0.9999999999999999
 40
0.9999999999999999
 10
220.9300879858547
 20
59.96309216932143
 30
0.0
 10
220.9315837683438
 20
59.9621411427898
 30
0.0
 10
220.9945290247009
 20
59.92212021108811
 30
0.0
 10
221.1174143078835
 20
59.82378652553002
 30
0.0
 10
221.2729869595064
 20
59.63795321153483
 30
0.0
 10
221.3297565684875
 20
59.48873251019206
 30
0.0
 10
221.3579137715305
 20
59.41472041707821
 30
0.0
  0
LINE
  5
130
330
1F
100
AcDbEntity
  8
0
  6
Continuous
 62
     7
370
    25
100
AcDbLine
 10
221.7208548441
 20
58.1292833779
 30
0.0
 11
221.5657204955
 21
57.7294406349
 31
0.0
  0
LINE
  5
131
330
1F
100
AcDbEntity
  8
0
  6
Continuous
 62
     7
370
    25
100
AcDbLine
 10
213.1764759412
 20
63.0618483259
 30
0.0
 11
213.0213415926
 21
62.662005583
 31
0.0
  0
LINE
  5
132
330
1F
100
AcDbEntity
  8
0
  6
Continuous
 62
     7
370
    25
100
AcDbLine
 10
213.7989708276
 20
63.5029310722
 30
0.0
 11
213.1764759412
 21
63.0618483259
 31
0.0
  0
SPLINE
  5
133
330
1F
100
AcDbEntity
  8
0
  6
Continuous
 62
     7
370
    25
100
AcDbSpline
210
0.0
220
0.0
230
1.0
 70
     8
 71
     3
 72
    11
 73
     7
 74
     0
 42
0.000000001
 43
0.00000001
 40
0.0
 40
0.0
 40
0.0
 40
0.0
 40
0.3367831041476282
 40
0.6790111449291144
 40
0.9923716964631503
 40
1.0
 40
1.0
 40
1.0
 40
1.0
 10
212.7378088356879
 20
72.74354885116651
 30
0.0
 10
212.7946668451654
 20
72.68610564252698
 30
0.0
 10
212.9093021152789
 20
72.57029051288904
 30
0.0
 10
213.0133408739555
 20
72.35470609139495
 30
0.0
 10
213.0498749402787
 20
72.206526207479
 30
0.0
 10
213.0588506205436
 20
72.13534700656587
 30
0.0
 10
213.0590639276801
 20
72.13365543210308
 30
0.0
  0
LINE
  5
134
330
1F
100
AcDbEntity
  8
0
  6
Continuous
 62
     7
370
    25
100
AcDbLine
 10
213.1764759412
 20
63.0618483259
 30
0.0
 11
212.7567232628
 21
63.0711710057
 31
0.0
  0
LINE
  5
135
330
1F
100
AcDbEntity
  8
0
  6
Continuous
 62
     7
370
    25
100
AcDbLine
 10
211.6927601622
 20
73.6352145521
 30
0.0
 11
211.2730074093
 21
73.6445378215
 31
0.0
  0
SPLINE
  5
136
330
1F
100
AcDbEntity
  8
0
  6
Continuous
 62
     7
370
    25
100
AcDbSpline
210
0.0
220
0.0
230
1.0
 70
     8
 71
     3
 72
    11
 73
     7
 74
     0
 42
0.000000001
 43
0.00000001
 40
0.0
 40
0.0
 40
0.0
 40
0.0
 40
0.0081166784778767
 40
0.3263682677544567
 40
0.6627685911147025
 40
1.0
 40
1.0
 40
1.0
 40
1.0
 10
214.0790190198917
 20
63.73449498914492
 30
0.0
 10
214.0789373968796
 20
63.73427794180357
 30
0.0
 10
214.0756553694885
 20
63.72555055842756
 30
0.0
 10
214.0495763454564
 20
63.69547078933086
 30
0.0
 10
213.9579703823015
 20
63.61816418628367
 30
0.0
 10
213.8520142532271
 20
63.54137369003684
 30
0.0
 10
213.7989708276024
 20
63.50293107221064
 30
0.0
  0
LWPOLYLINE
  5
137
330
1F
100
AcDbEntity
  8
0
  6
Continuous
 62
     7
370
    25
100
AcDbPolyline
 90
       21
 70
   128
 43
0.0
 10
216.2439475407
 20
69.0527778143
 10
216.2085715175
 20
69.0603979452
 10
215.7498205229
 20
69.0933954909
 10
215.3408736031
 20
68.9957498049
 10
214.998472935
 20
68.7714586907
 10
214.7366362972
 20
68.4297045321
 10
214.5660838064
 20
67.9844785708
 10
214.4937973513
 20
67.454008997
 10
214.5227367605
 20
66.8600124371
 10
214.6517169829
 20
66.2268078128
 10
214.8754578088
 20
65.5803188087
 10
215.1847988839
 20
64.9470120958
 10
215.5670760683
 20
64.3528154187
 10
216.0066387223
 20
63.8220558476
 10
216.4854914588
 20
63.3764619209
 10
216.9840294076
 20
63.0342768249
 10
217.4818429576
 20
62.8095101732
 10
217.9585508145
 20
62.7113627949
 10
218.3946370121
 20
62.7438538065
 10
218.7722484086
 20
62.9056522436
 10
218.9986382297
 20
63.098166036
  0
LWPOLYLINE
  5
138
330
1F
100
AcDbEntity
  8
0
  6
Continuous
 62
     7
370
    25
100
AcDbPolyline
 90
       28
 70
   128
 43
0.0
 10
218.3639212203
 20
63.9547768843
 10
218.4630091197
 20
64.3836617772
 10
218.4623512337
 20
64.8834143532
 10
218.3619818067
 20
65.4270929363
 10
218.1673120989
 20
65.9853878932
 10
217.8888366755
 20
66.5282010874
 10
217.5415683758
 20
67.0262697948
 10
217.1442289614
 20
67.4527421161
 10
216.7182385805
 20
67.784627466
 10
216.2865626555
 20
68.0040339271
 10
215.8724728323
 20
68.0991327818
 10
215.498292782
 20
68.0647975629
 10
215.1841947105
 20
67.9028796091
 10
214.9471121022
 20
67.6221070111
 10
214.7998253303
 20
67.2376168413
 10
214.7502754537
 20
66.7701372114
 10
214.8011331997
 20
66.2448699222
 10
214.9496570475
 20
65.6901324534
 10
215.1878400836
 20
65.1358302073
 10
215.5028416781
 20
64.6118460795
 10
215.8776799437
 20
64.1464292927
 10
216.2921474422
 20
63.7646682832
 10
216.7239000876
 20
63.4871464947
 10
217.1496619536
 20
63.3288225196
 10
217.5464798007
 20
63.2982343927
 10
217.8929617983
 20
63.3970286001
 10
218.1704283315
 20
63.6198812895
 10
218.3639212203
 20
63.9547768843
  0
ARC
  5
139
330
1F
100
AcDbEntity
  8
0
  6
Continuous
 62
     7
370
    25
100
AcDbCircle
 10
215.9782288175
 20
67.9164102822
 30
0.0
 40
1.261743893292312
100
AcDbArc
 50
93.1135661678
 51
119.4491331884
  0
LWPOLYLINE
  5
13A
330
1F
100
AcDbEntity
  8
0
  6
Continuous
 62
     7
370
    25
100
AcDbPolyline
 90
        3
 70
   128
 43
0.0
 10
218.8576071779
 20
62.9527851927
 10
218.9136697304
 20
62.9872930349
 10
218.9618725542
 20
63.0206179999
  0
LWPOLYLINE
  5
13B
330
1F
100
AcDbEntity
  8
0
  6
Continuous
 62
     7
370
    25
100
AcDbPolyline
 90
       24
 70
   128
 43
0.0
 10
217.942435613
 20
64.3744067664
 10
218.0230796564
 20
64.7627355833
 10
217.9991283926
 20
65.2204437827
 10
217.8723572578
 20
65.7135863688
 10
217.6521689503
 20
66.2055886206
 10
217.3548933983
 20
66.6599616386
 10
217.0025780134
 20
67.0430060577
 10
216.6213531832
 20
67.326313056
 10
216.2394918697
 20
67.4888716054
 10
215.8853151088
 20
67.518625133
 10
215.5850909237
 20
67.4133669589
 10
215.3610850337
 20
67.1809043733
 10
215.2299115288
 20
66.8384765377
 10
215.2012984285
 20
66.4114811638
 10
215.2773682217
 20
65.9315860268
 10
215.4524788284
 20
65.4343823518
 10
215.7136434215
 20
64.9567462372
 10
216.0414922316
 20
64.5341008888
 10
216.4117108074
 20
64.197793157
 10
216.7968408066
 20
63.9727642186
 10
217.1683198366
 20
63.8757043144
 10
217.4985970295
 20
63.9138109218
 10
217.7631758467
 20
64.0842592843
 10
217.942435613
 20
64.3744067664
  0
SPLINE
  5
13C
330
1F
100
AcDbEntity
  8
0
  6
Continuous
 62
     7
370
    25
100
AcDbSpline
210
0.0
220
0.0
230
1.0
 70
     8
 71
     3
 72
    15
 73
    11
 74
     0
 42
0.000000001
 43
0.00000001
 40
0.0
 40
0.0
 40
0.0
 40
0.0
 40
0.1369359864405054
 40
0.2748150399617054
 40
0.4115424599283384
 40
0.5469636988567684
 40
0.6816591981502885
 40
0.8163587847531136
 40
0.9517833678141403
 40
1.0
 40
1.0
 40
1.0
 40
1.0
 10
217.3052097471043
 20
66.51306768591606
 30
0.0
 10
217.3010549328923
 20
66.54622037932995
 30
0.0
 10
217.2927166905985
 20
66.6127540860801
 30
0.0
 10
217.2441604721393
 20
66.73126499858192
 30
0.0
 10
217.174293452186
 20
66.84638392639087
 30
0.0
 10
217.0888625140767
 20
66.94623571806552
 30
0.0
 10
216.9976256603415
 20
67.02016820249537
 30
0.0
 10
216.9124592749373
 20
67.05786367771191
 30
0.0
 10
216.8520028871079
 20
67.06447681613493
 30
0.0
 10
216.8311623271318
 20
67.04682502434024
 30
0.0
 10
216.8256904530017
 20
67.04219038961926
 30
0.0
  0
LINE
  5
13D
330
1F
100
AcDbEntity
  8
0
  6
Continuous
 62
     7
370
    25
100
AcDbLine
 10
216.7951668945
 20
67.0203735804
 30
0.0
 11
216.740743629
 21
66.9822986964
 31
0.0
  0
SPLINE
  5
13E
330
1F
100
AcDbEntity
  8
0
  6
Continuous
 62
     7
370
    25
100
AcDbSpline
210
0.0
220
0.0
230
1.0
 70
     8
 71
     3
 72
    11
 73
     7
 74
     0
 42
0.000000001
 43
0.00000001
 40
0.0
 40
0.0
 40
0.0
 40
0.0
 40
0.2596878940976072
 40
0.5141438528974972
 40
0.7648861845910816
 40
1.0
 40
1.0
 40
1.0
 40
1.0
 10
216.7075750007643
 20
66.95909356611577
 30
0.0
 10
216.6661156589924
 20
66.95514593057935
 30
0.0
 10
216.5840322573334
 20
66.94733019256977
 30
0.0
 10
216.4185167548001
 20
67.01514284533273
 30
0.0
 10
216.2477569940765
 20
67.12648302594745
 30
0.0
 10
216.145458096709
 20
67.22967068937456
 30
0.0
 10
216.0959539704041
 20
67.27960490425721
 30
0.0
  0
SPLINE
  5
13F
330
1F
100
AcDbEntity
  8
0
  6
Continuous
 62
     7
370
    25
100
AcDbSpline
210
0.0
220
0.0
230
1.0
 70
     8
 71
     3
 72
    15
 73
    11
 74
     0
 42
0.000000001
 43
0.00000001
 40
0.0
 40
0.0
 40
0.0
 40
0.0
 40
0.1268764230938661
 40
0.2539934008054688
 40
0.3800495217407182
 40
0.5049006551522943
 40
0.6290819797957857
 40
0.7532678022081007
 40
0.8781206380635703
 40
1.0
 40
1.0
 40
1.0
 40
1.0
 10
216.0959539704041
 20
67.27960490425721
 30
0.0
 10
216.064193203612
 20
67.31120643486213
 30
0.0
 10
216.0006114523854
 20
67.37446941180669
 30
0.0
 10
215.8941079081235
 20
67.43682399986737
 30
0.0
 10
215.7942503197188
 20
67.46456895321279
 30
0.0
 10
215.710828564614
 20
67.45323358708995
 30
0.0
 10
215.6529022204026
 20
67.4050648017489
 30
0.0
 10
215.627128301525
 20
67.32569082548795
 30
0.0
 10
215.633898292403
 20
67.22484180075791
 30
0.0
 10
215.6655873743392
 20
67.15141937366408
 30
0.0
 10
215.6812409660524
 20
67.11515058245604
 30
0.0
  0
SPLINE
  5
140
330
1F
100
AcDbEntity
  8
0
  6
Continuous
 62
     7
370
    25
100
AcDbSpline
210
0.0
220
0.0
230
1.0
 70
     8
 71
     3
 72
    12
 73
     8
 74
     0
 42
0.000000001
 43
0.00000001
 40
0.0
 40
0.0
 40
0.0
 40
0.0
 40
0.2057949485785233
 40
0.4120009518465678
 40
0.614054954406014
 40
0.8131810751626302
 40
1.0
 40
1.0
 40
1.0
 40
1.0
 10
215.6812409660524
 20
67.11515058245604
 30
0.0
 10
215.7092141633343
 20
67.0497372795839
 30
0.0
 10
215.7652164315433
 20
66.91878001735321
 30
0.0
 10
215.7701646981024
 20
66.73778121603648
 30
0.0
 10
215.7103791161622
 20
66.59524716509281
 30
0.0
 10
215.5956561128721
 20
66.50233458393862
 30
0.0
 10
215.4906045510726
 20
66.48922865513393
 30
0.0
 10
215.4397537368131
 20
66.48288465472186
 30
0.0
  0
SPLINE
  5
141
330
1F
100
AcDbEntity
  8
0
  6
Continuous
 62
     7
370
    25
100
AcDbSpline
210
0.0
220
0.0
230
1.0
 70
     8
 71
     3
 72
    15
 73
    11
 74
     0
 42
0.000000001
 43
0.00000001
 40
0.0
 40
0.0
 40
0.0
 40
0.0
 40
0.1268032399525058
 40
0.2539260368932075
 40
0.3799869740456631
 40
0.5048411231061933
 40
0.6290225997099973
 40
0.7532063718868717
 40
0.878055230174213
 40
1.0
 40
1.0
 40
1.0
 40
1.0
 10
215.4397537368131
 20
66.48288465472186
 30
0.0
 10
215.4074537391673
 20
66.47842085267507
 30
0.0
 10
215.3427723446152
 20
66.46948199934891
 30
0.0
 10
215.2746600241197
 20
66.40713457138078
 30
0.0
 10
215.2382291596225
 20
66.31608910767886
 30
0.0
 10
215.2382885244224
 20
66.20373272332719
 30
0.0
 10
215.2737303956799
 20
66.08351503652175
 30
0.0
 10
215.3406221286756
 20
65.96915139394754
 30
0.0
 10
215.430763373262
 20
65.87102701058349
 30
0.0
 10
215.5005844228352
 20
65.83093466564182
 30
0.0
 10
215.5350841458803
 20
65.81112438199283
 30
0.0
  0
SPLINE
  5
142
330
1F
100
AcDbEntity
  8
0
  6
Continuous
 62
     7
370
    25
100
AcDbSpline
210
0.0
220
0.0
230
1.0
 70
     8
 71
     3
 72
    12
 73
     8
 74
     0
 42
0.000000001
 43
0.00000001
 40
0.0
 40
0.0
 40
0.0
 40
0.0
 40
0.2058498693469904
 40
0.4120525466613151
 40
0.6141083677360206
 40
0.8132432979549192
 40
1.0
 40
1.0
 40
1.0
 40
1.0
 10
215.5350841458803
 20
65.81112438199283
 30
0.0
 10
215.5971129324216
 20
65.77522347353937
 30
0.0
 10
215.7212768172067
 20
65.70336012573827
 30
0.0
 10
215.8751228074128
 20
65.52488496842962
 30
0.0
 10
215.9766089925114
 20
65.3183997169966
 30
0.0
 10
216.0196863454972
 20
65.10509871934258
 30
0.0
 10
216.0015752299144
 20
64.98011474277679
 30
0.0
 10
215.9928101468345
 20
64.91962730713338
 30
0.0
  0
SPLINE
  5
143
330
1F
100
AcDbEntity
  8
0
  6
Continuous
 62
     7
370
    25
100
AcDbSpline
210
0.0
220
0.0
230
1.0
 70
     8
 71
     3
 72
    15
 73
    11
 74
     0
 42
0.000000001
 43
0.00000001
 40
0.0
 40
0.0
 40
0.0
 40
0.0
 40
0.126256371376744
 40
0.2533820513357917
 40
0.3794452964854146
 40
0.5043003226531595
 40
0.6284814367393863
 40
0.7526634932530174
 40
0.8775104563502791
 40
1.0
 40
1.0
 40
1.0
 40
1.0
 10
215.9928101468345
 20
64.91962730713338
 30
0.0
 10
215.9875165413414
 20
64.88101875684104
 30
0.0
 10
215.9768928824782
 20
64.80353582615408
 30
0.0
 10
216.0046928316687
 20
64.67302515033958
 30
0.0
 10
216.0615047501137
 20
64.55039821747968
 30
0.0
 10
216.1428601670425
 20
64.44805823563857
 30
0.0
 10
216.2385785206248
 20
64.37720851285673
 30
0.0
 10
216.3379506081008
 20
64.3458848996706
 30
0.0
 10
216.4318339232696
 20
64.35438910451317
 30
0.0
 10
216.4793312539084
 20
64.39313395638591
 30
0.0
 10
216.5028535653983
 20
64.41232173940706
 30
0.0
  0
SPLINE
  5
144
330
1F
100
AcDbEntity
  8
0
  6
Continuous
 62
     7
370
    25
100
AcDbSpline
210
0.0
220
0.0
230
1.0
 70
     8
 71
     3
 72
    12
 73
     8
 74
     0
 42
0.000000001
 43
0.00000001
 40
0.0
 40
0.0
 40
0.0
 40
0.0
 40
0.2058712806081244
 40
0.4120921007380605
 40
0.6141685467536566
 40
0.8133067530013816
 40
1.0
 40
1.0
 40
1.0
 40
1.0
 10
216.5028535653983
 20
64.41232173940705
 30
0.0
 10
216.5450284098276
 20
64.4465428924369
 30
0.0
 10
216.6294497054441
 20
64.51504330104218
 30
0.0
 10
216.7914354592199
 20
64.52510353724402
 30
0.0
 10
216.9517703991966
 20
64.46056640562564
 30
0.0
 10
217.0957727747658
 20
64.33217974956892
 30
0.0
 10
217.167405419433
 20
64.21148872718747
 30
0.0
 10
217.2020664894714
 20
64.15308965509942
 30
0.0
  0
SPLINE
  5
145
330
1F
100
AcDbEntity
  8
0
  6
Continuous
 62
     7
370
    25
100
AcDbSpline
210
0.0
220
0.0
230
1.0
 70
     8
 71
     3
 72
    15
 73
    11
 74
     0
 42
0.000000001
 43
0.00000001
 40
0.0
 40
0.0
 40
0.0
 40
0.0
 40
0.126870188335668
 40
0.2539811042671075
 40
0.3800296936965693
 40
0.5048752669541678
 40
0.6290525034036872
 40
0.7532386455781062
 40
0.8780956305844657
 40
1.0
 40
1.0
 40
1.0
 40
1.0
 10
217.2020664894714
 20
64.15308965509942
 30
0.0
 10
217.2243329244244
 20
64.11600869343262
 30
0.0
 10
217.2689080433835
 20
64.04177641148391
 30
0.0
 10
217.3546481558075
 20
63.96743787964429
 30
0.0
 10
217.4415010986277
 20
63.93218466514126
 30
0.0
 10
217.5208215393606
 20
63.94114887221897
 30
0.0
 10
217.5835057263433
 20
63.9920558116015
 30
0.0
 10
217.6226590370218
 20
64.07914505173925
 30
0.0
 10
217.6365040557949
 20
64.19189358993458
 30
0.0
 10
217.6233015319028
 20
64.27599611908121
 30
0.0
 10
217.6167792571586
 20
64.31754422050858
 30
0.0
  0
SPLINE
  5
146
330
1F
100
AcDbEntity
  8
0
  6
Continuous
 62
     7
370
    25
100
AcDbSpline
210
0.0
220
0.0
230
1.0
 70
     8
 71
     3
 72
    12
 73
     8
 74
     0
 42
0.000000001
 43
0.00000001
 40
0.0
 40
0.0
 40
0.0
 40
0.0
 40
0.2058322087583548
 40
0.4120750494786105
 40
0.6141697911891407
 40
0.8133030513956252
 40
1.0
 40
1.0
 40
1.0
 40
1.0
 10
217.6167792571586
 20
64.31754422050858
 30
0.0
 10
217.6050441899197
 20
64.39234246744599
 30
0.0
 10
217.5815506441703
 20
64.54208818262624
 30
0.0
 10
217.6027303053373
 20
64.73818399212098
 30
0.0
 10
217.6606148431925
 20
64.87960793735373
 30
0.0
 10
217.7477699327234
 20
64.95655754598594
 30
0.0
 10
217.8222339344241
 20
64.95201043465731
 30
0.0
 10
217.8582658510054
 20
64.9498101616081
 30
0.0
  0
SPLINE
  5
147
330
1F
100
AcDbEntity
  8
0
  6
Continuous
 62
     7
370
    25
100
AcDbSpline
210
0.0
220
0.0
230
1.0
 70
     8
 71
     3
 72
    15
 73
    11
 74
     0
 42
0.000000001
 43
0.00000001
 40
0.0
 40
0.0
 40
0.0
 40
0.0
 40
0.126787729165873
 40
0.2538953609707217
 40
0.3799411854842461
 40
0.5047843789517904
 40
0.6289623408924782
 40
0.7531497970228492
 40
0.8780089020106171
 40
1.0
 40
1.0
 40
1.0
 40
1.0
 10
217.8582658510054
 20
64.9498101616081
 30
0.0
 10
217.8810759289367
 20
64.94879632279786
 30
0.0
 10
217.9267536377202
 20
64.94676608712454
 30
0.0
 10
217.9741048083576
 20
64.99711917302007
 30
0.0
 10
217.9975304797796
 20
65.08064447539493
 30
0.0
 10
217.9933759483497
 20
65.19061750568336
 30
0.0
 10
217.962694717183
 20
65.31357110531475
 30
0.0
 10
217.9091824620992
 20
65.435655518398
 30
0.0
 10
217.8396464488394
 20
65.54569677392597
 30
0.0
 10
217.788307170148
 20
65.59647574445219
 30
0.0
 10
217.7629357712104
 20
65.6215702442523
 30
0.0
  0
SPLINE
  5
148
330
1F
100
AcDbEntity
  8
0
  6
Continuous
 62
     7
370
    25
100
AcDbSpline
210
0.0
220
0.0
230
1.0
 70
     8
 71
     3
 72
    12
 73
     8
 74
     0
 42
0.000000001
 43
0.00000001
 40
0.0
 40
0.0
 40
0.0
 40
0.0
 40
0.2058906867287244
 40
0.4121335743033632
 40
0.6142242922363371
 40
0.8133482275570818
 40
1.0
 40
1.0
 40
1.0
 40
1.0
 10
217.7629357712104
 20
65.6215702442523
 30
0.0
 10
217.7171429935685
 20
65.66685580776458
 30
0.0
 10
217.6254791042168
 20
65.75750440120603
 30
0.0
 10
217.497731562804
 20
65.9510894418261
 30
0.0
 10
217.3943125281243
 20
66.15648843906777
 30
0.0
 10
217.3236806035685
 20
66.35384195614407
 30
0.0
 10
217.3112325503707
 20
66.46114885653049
 30
0.0
 10
217.3052097471043
 20
66.51306768591606
 30
0.0
  0
ARC
  5
149
330
1F
100
AcDbEntity
  8
0
  6
Continuous
 62
     7
370
    25
100
AcDbCircle
 10
217.8693628189
 20
64.8713315828
 30
0.0
 40
0.3009294690797873
100
AcDbArc
 50
66.3180009459
 51
116.9218069254
  0
ARC
  5
14A
330
1F
100
AcDbEntity
  8
0
  6
Continuous
 62
     7
370
    25
100
AcDbCircle
 10
217.6874947064
 20
65.549676435
 30
0.0
 40
0.5299799469047521
100
AcDbArc
 50
175.308704306
 51
255.4821991506
  0
ARC
  5
14B
330
1F
100
AcDbEntity
  8
0
  6
Continuous
 62
     7
370
    25
100
AcDbCircle
 10
216.1172301522
 20
65.6210205412
 30
0.0
 40
1.04243620566351
100
AcDbArc
 50
358.4609191518
 51
55.9187333177
  0
ARC
  5
14C
330
1F
100
AcDbEntity
  8
0
  6
Continuous
 62
     7
370
    25
100
AcDbCircle
 10
217.0220976589
 20
66.9700957243
 30
0.0
 40
0.5820222843499251
100
AcDbArc
 50
176.5620822657
 51
236.561394417
  0
ARC
  5
14D
330
1F
100
AcDbEntity
  8
0
  6
Continuous
 62
     7
370
    25
100
AcDbCircle
 10
251.6402416303
 20
3.7973367227
 30
0.0
 40
56.17128267956696
100
AcDbArc
 50
91.3836541752
 51
117.7241100782
  0
LINE
  5
14E
330
1F
100
AcDbEntity
  8
0
  6
Continuous
 62
     7
370
    25
100
AcDbLine
 10
281.7565311331
 20
41.7834633673
 30
0.0
 11
250.2838751356
 21
59.9522409413
 31
0.0
  0
ARC
  5
14F
330
1F
100
AcDbEntity
  8
0
  6
Continuous
 62
     7
370
    25
100
AcDbCircle
 10
263.3970363345
 20
45.1881246445
 30
0.0
 40
18.67251369459189
100
AcDbArc
 50
306.1293605814
 51
349.4941769088
  0
LINE
  5
150
330
1F
100
AcDbEntity
  8
0
  6
Continuous
 62
     7
370
    25
100
AcDbLine
 10
233.9174079584
 20
53.4804424438
 30
0.0
 11
274.4065432091
 21
30.1065621906
 31
0.0
  0
ARC
  5
151
330
1F
100
AcDbEntity
  8
0
  6
Continuous
 62
     7
370
    25
100
AcDbCircle
 10
229.674595431
 20
45.3501354099
 30
0.0
 40
9.17078789462988
100
AcDbArc
 50
62.4421301216
 51
117.018252115
  0
ELLIPSE
  5
152
330
1F
100
AcDbEntity
  8
0
  6
Continuous
 62
     7
370
    25
100
AcDbEllipse
 10
241.8725067339
 20
64.8114773058
 30
0.0
 11
39.99999989012458
 21
-23.0952618970644
 31
0.0
210
0.0
220
0.0
230
1.0
 40
0.0000703729
 41
0.0427785919756488
 42
0.0762083198196553
  0
LINE
  5
153
330
1F
100
AcDbEntity
  8
0
  6
Continuous
 62
     7
370
    25
100
AcDbLine
 10
281.8359805767
 20
30.016221278
 30
0.0
 11
281.8359805767
 21
41.737463959
 31
0.0
  0
SPLINE
  5
154
330
1F
100
AcDbEntity
  8
0
  6
Continuous
 62
     7
370
    25
100
AcDbSpline
210
0.0
220
0.0
230
1.0
 70
     8
 71
     3
 72
    37
 73
    33
 74
     0
 42
0.000000001
 43
0.00000001
 40
0.0
 40
0.0
 40
0.0
 40
0.0
 40
0.0275314709351542
 40
0.054698180230359
 40
0.0815001416092532
 40
0.107937369379488
 40
0.1340098784651686
 40
0.1597176844415893
 40
0.1850608035724669
 40
0.210039252849889
 40
0.234653050037219
 40
0.2589022137152137
 40
0.2827867633316626
 40
0.3063067192548634
 40
0.3294621028313053
 40
0.3522529364479512
 40
0.3746792435995744
 40
0.3967410489616491
 40
0.4184383784693481
 40
0.4397712594032762
 40
0.4607397204826357
 40
0.4813437919666136
 40
0.501583505764876
 40
0.5611152637853759
 40
0.619606805126725
 40
0.6770589867783582
 40
0.7334727134411075
 40
0.7888489410572591
 40
0.8431886806691183
 40
0.8964930026429113
 40
0.9487630412996302
 40
1.0
 40
1.0
 40
1.0
 40
1.0
 10
273.9288545569019
 20
12.96871502366648
 30
0.0
 10
274.0587472894331
 20
13.11303809687939
 30
0.0
 10
274.3168118189796
 20
13.39977212168292
 30
0.0
 10
274.6905844763792
 20
13.83113728555377
 30
0.0
 10
275.051577039527
 20
14.25953467943866
 30
0.0
 10
275.3992790936869
 20
14.6850534567883
 30
0.0
 10
275.7341411382067
 20
15.10741032945252
 30
0.0
 10
276.0563669050995
 20
15.52642874010243
 30
0.0
 10
276.3662297745526
 20
15.94191296194118
 30
0.0
 10
276.6639891427866
 20
16.35368101832086
 30
0.0
 10
276.949911789834
 20
16.76155591707268
 30
0.0
 10
277.2242657207416
 20
17.1653678134947
 30
0.0
 10
277.4873212452791
 20
17.56495330046348
 30
0.0
 10
277.7393501789793
 20
17.96015544593991
 30
0.0
 10
277.9806255554493
 20
18.35082362821262
 30
0.0
 10
278.211421223681
 20
18.7368134222689
 30
0.0
 10
278.4320114931057
 20
19.1179864569123
 30
0.0
 10
278.6426707875017
 20
19.49421031699951
 30
0.0
 10
278.8436733030929
 20
19.8653582793932
 30
0.0
 10
279.0352927247674
 20
20.23130963882104
 30
0.0
 10
279.2178017930634
 20
20.59194787757281
 30
0.0
 10
279.3914724775261
 20
20.94716666778243
 30
0.0
 10
279.6644036518435
 20
21.52522776096199
 30
0.0
 10
280.0158008162775
 20
22.32473961469727
 30
0.0
 10
280.4149263029299
 20
23.34435009163021
 30
0.0
 10
280.7611937200303
 20
24.34948459430006
 30
0.0
 10
281.0565832057497
 20
25.33887231999485
 30
0.0
 10
281.3030365003103
 20
26.31133007199599
 30
0.0
 10
281.5028840385039
 20
27.26579616126458
 30
0.0
 10
281.6572177169418
 20
28.20117674201358
 30
0.0
 10
281.7717550892361
 20
29.11689850909359
 30
0.0
 10
281.8147108529546
 20
29.71889849946583
 30
0.0
 10
281.8359743689273
 20
30.01689428170184
 30
0.0
  0
LINE
  5
155
330
1F
100
AcDbEntity
  8
0
  6
Continuous
 62
     7
370
    25
100
AcDbLine
 10
273.9288814504
 20
12.968598542
 30
0.0
 11
273.9288814504
 21
25.8097886112
 31
0.0
  0
ELLIPSE
  5
156
330
1F
100
AcDbEntity
  8
0
  6
Continuous
 62
     7
370
    25
100
AcDbEllipse
 10
241.8725067339
 20
22.0988054297
 30
0.0
 11
26.0329955259229
 21
139.0679582060175
 31
0.0
210
0.0
220
0.0
230
1.0
 40
0.2183760757
 41
4.7799109689684
 42
4.788668636764419
  0
SPLINE
  5
157
330
1F
100
AcDbEntity
  8
0
  6
Continuous
 62
     7
370
    25
100
AcDbSpline
210
0.0
220
0.0
230
1.0
 70
     8
 71
     3
 72
    10
 73
     6
 74
     0
 42
0.000000001
 43
0.00000001
 40
0.0
 40
0.0
 40
0.0
 40
0.0
 40
0.5
 40
0.5
 40
1.0
 40
1.0
 40
1.0
 40
1.0
 10
274.1371746481616
 20
27.02812503593234
 30
0.0
 10
274.1566357302596
 20
27.1426187423955
 30
0.0
 10
274.1585408120403
 20
27.24824594356012
 30
0.0
 10
274.12825502239
 20
27.42269380620365
 30
0.0
 10
274.0957972096841
 20
27.4916548438664
 30
0.0
 10
274.0493961191601
 20
27.53474045979634
 30
0.0
  0
LINE
  5
158
330
1F
100
AcDbEntity
  8
0
  6
Continuous
 62
     7
370
    25
100
AcDbLine
 10
274.0493980588
 20
29.3329692471
 30
0.0
 11
274.0493980588
 21
27.5347391505
 31
0.0
  0
ELLIPSE
  5
159
330
1F
100
AcDbEntity
  8
0
  6
Continuous
 62
     7
370
    25
100
AcDbEllipse
 10
241.8725067339
 20
38.1922468383
 30
0.0
 11
28.2854204715012
 21
48.98913122504875
 31
0.0
210
0.0
220
0.0
230
1.0
 40
0.5773346305
 41
4.861733701745756
 42
4.876920386575365
  0
LINE
  5
15A
330
1F
100
AcDbEntity
  8
0
  6
Continuous
 62
     7
370
    25
100
AcDbLine
 10
233.4931439519
 20
52.7455963913
 30
0.0
 11
274.0493980588
 21
29.3329692471
 31
0.0
  0
LINE
  5
15B
330
1F
100
AcDbEntity
  8
0
  6
Continuous
 62
     7
370
    25
100
AcDbLine
 10
274.0493980588
 20
27.5347391505
 30
0.0
 11
233.4931439519
 21
50.9473662946
 31
0.0
  0
SPLINE
  5
15C
330
1F
100
AcDbEntity
  8
0
  6
Continuous
 62
     7
370
    25
100
AcDbSpline
210
0.0
220
0.0
230
1.0
 70
     8
 71
     3
 72
    10
 73
     6
 74
     0
 42
0.000000001
 43
0.00000001
 40
0.0
 40
0.0
 40
0.0
 40
0.0
 40
0.5
 40
0.5
 40
1.0
 40
1.0
 40
1.0
 40
1.0
 10
233.4931440603291
 20
50.94736642160353
 30
0.0
 10
233.2227628988522
 20
51.10345414370353
 30
0.0
 10
232.9339065468868
 20
51.28164670229369
 30
0.0
 10
232.3153327014925
 20
51.62235677536417
 30
0.0
 10
231.986264060978
 20
51.7827073585723
 30
0.0
 10
231.6386292676829
 20
51.90022623323539
 30
0.0
  0
LINE
  5
15D
330
1F
100
AcDbEntity
  8
0
  6
Continuous
 62
     7
370
    25
100
AcDbLine
 10
273.9288814504
 20
25.8097886112
 30
0.0
 11
227.4510688847
 21
52.64085869
 31
0.0
  0
LINE
  5
15E
330
1F
100
AcDbEntity
  8
0
  6
Continuous
 62
     7
370
    25
100
AcDbLine
 10
272.6054704072
 20
12.3234223612
 30
0.0
 11
273.9326272516
 21
12.96645743
 31
0.0
  0
LINE
  5
15F
330
1F
100
AcDbEntity
  8
0
  6
Continuous
 62
     7
370
    25
100
AcDbLine
 10
272.6058497288
 20
12.3236049079
 30
0.0
 11
234.1661813781
 21
34.5143531034
 31
0.0
  0
LINE
  5
160
330
1F
100
AcDbEntity
  8
0
  6
Continuous
 62
     7
370
    25
100
AcDbLine
 10
233.2104489046
 20
36.169733343
 30
0.0
 11
234.1661813781
 21
34.5143531034
 31
0.0
  0
LINE
  5
161
330
1F
100
AcDbEntity
  8
0
  6
Continuous
 62
     7
370
    25
100
AcDbLine
 10
221.9335808236
 20
42.679730717
 30
0.0
 11
233.2104489046
 21
36.169733343
 31
0.0
  0
LINE
  5
162
330
1F
100
AcDbEntity
  8
0
  6
Continuous
 62
     7
370
    25
100
AcDbLine
 10
221.9335808236
 20
42.679730717
 30
0.0
 11
220.5193673587
 21
45.129220664
 31
0.0
  0
LINE
  5
163
330
1F
100
AcDbEntity
  8
0
  6
Continuous
 62
     7
370
    25
100
AcDbLine
 10
220.5193673587
 20
45.129220664
 30
0.0
 11
219.0100123224
 21
55.8852988713
 31
0.0
  0
LINE
  5
164
330
1F
100
AcDbEntity
  8
0
  6
Continuous
 62
     7
370
    25
100
AcDbLine
 10
272.1758830561
 20
12.5716695692
 30
0.0
 11
236.0088702417
 21
33.4504416498
 31
0.0
  0
LINE
  5
165
330
1F
100
AcDbEntity
  8
0
  6
Continuous
 62
     7
370
    25
100
AcDbLine
 10
236.0088702417
 20
33.4504416498
 30
0.0
 11
234.1661813781
 21
34.5143531034
 31
0.0
  0
SPLINE
  5
166
330
1F
100
AcDbEntity
  8
0
  6
Continuous
 62
     7
370
    25
100
AcDbSpline
210
0.0
220
0.0
230
1.0
 70
     8
 71
     3
 72
    11
 73
     7
 74
     0
 42
0.000000001
 43
0.00000001
 40
0.000467440121188
 40
0.000467440121188
 40
0.000467440121188
 40
0.000467440121188
 40
0.0014296000912772
 40
0.0014296000912772
 40
0.0014296000912772
 40
0.0028593206822723
 40
0.0028593206822723
 40
0.0028593206822723
 40
0.0028593206822723
 10
272.6044423298783
 20
12.3244185260868
 30
0.0
 10
272.5490622370469
 20
12.35636815907631
 30
0.0
 10
272.4928672339474
 20
12.38878829527545
 30
0.0
 10
272.4358295481687
 20
12.42169497029971
 30
0.0
 10
272.3510746138241
 20
12.47059252010568
 30
0.0
 10
272.2644578010422
 20
12.52056506004647
 30
0.0
 10
272.1758823347984
 20
12.57166846755783
 30
0.0
  0
ARC
  5
167
330
1F
100
AcDbEntity
  8
0
  6
Continuous
 62
     7
370
    25
100
AcDbCircle
 10
244.1234710539
 20
20.2026601846
 30
0.0
 40
38.16495009298811
100
AcDbArc
 50
119.1927589128
 51
119.9958916762
  0
LINE
  5
168
330
1F
100
AcDbEntity
  8
0
  6
Continuous
 62
     7
370
    25
100
AcDbLine
 10
225.0433659965
 20
53.2558446998
 30
0.0
 11
225.0433659965
 21
66.0755360554
 31
0.0
  0
ELLIPSE
  5
169
330
1F
100
AcDbEntity
  8
0
  6
Continuous
 62
     7
370
    25
100
AcDbEllipse
 10
253.3276365891
 20
49.747374197
 30
0.0
 11
39.9542916001372
 21
-3.800573014234117
 31
0.0
210
0.0
220
0.0
230
1.0
 40
0.5030021235
 41
2.104583658804563
 42
2.404005110224607
  0
ELLIPSE
  5
16A
330
1F
100
AcDbEntity
  8
0
  6
Continuous
 62
     7
370
    25
100
AcDbEllipse
 10
253.3276365891
 20
58.1985716
 30
0.0
 11
39.99999989012451
 21
-23.09526189706439
 31
0.0
210
0.0
220
0.0
230
1.0
 40
0.0000703729
 41
4.226452899693678
 42
4.636261924324457
  0
LINE
  5
16B
330
1F
100
AcDbEntity
  8
0
  6
Continuous
 62
     7
370
    25
100
AcDbLine
 10
225.0433659965
 20
66.0755360554
 30
0.0
 11
220.5424263358
 21
68.6738732143
 31
0.0
  0
LINE
  5
16C
330
1F
100
AcDbEntity
  8
0
  6
Continuous
 62
     7
370
    25
100
AcDbLine
 10
221.7855653722
 20
69.3598773518
 30
0.0
 11
220.5424263358
 21
68.6738732143
 31
0.0
  0
LINE
  5
16D
330
1F
100
AcDbEntity
  8
0
  6
Continuous
 62
     7
370
    25
100
AcDbLine
 10
223.5916049168
 20
70.1076466239
 30
0.0
 11
221.7855653722
 21
69.3598773518
 31
0.0
  0
LINE
  5
16E
330
1F
100
AcDbEntity
  8
0
  6
Continuous
 62
     7
370
    25
100
AcDbLine
 10
223.3712019238
 20
70.2348825635
 30
0.0
 11
223.5916049168
 21
70.1076466239
 31
0.0
  0
ELLIPSE
  5
16F
330
1F
100
AcDbEntity
  8
0
  6
Continuous
 62
     7
370
    25
100
AcDbEllipse
 10
240.3129681398
 20
57.0457375176
 30
0.0
 11
40.68865749498337
 21
-4.228342521925519
 31
0.0
210
0.0
220
0.0
230
1.0
 40
0.4916381667
 41
2.096905408647718
 42
2.27734447282426
  0
LINE
  5
170
330
1F
100
AcDbEntity
  8
0
  6
Continuous
 62
     7
370
    25
100
AcDbLine
 10
234.6447483062
 20
68.9824077414
 30
0.0
 11
221.6779382908
 21
76.4679878283
 31
0.0
  0
LINE
  5
171
330
1F
100
AcDbEntity
  8
0
  6
Continuous
 62
     7
370
    25
100
AcDbLine
 10
213.8977361225
 20
58.8365530507
 30
0.0
 11
213.3933542497
 21
62.4309164687
 31
0.0
  0
LWPOLYLINE
  5
172
330
1F
100
AcDbEntity
  8
0
  6
Continuous
 62
     7
370
    25
100
AcDbPolyline
 90
       16
 70
   128
 43
0.0
 10
221.713814355
 20
60.3262420949
 10
222.0662917418
 20
59.9345732814
 10
222.3644642314
 20
59.4751588588
 10
222.5879393346
 20
58.9794184799
 10
222.7214342089
 20
58.4812563289
 10
222.7558194518
 20
58.0147406669
 10
222.6887427424
 20
57.6117764937
 10
222.5247928188
 20
57.2999218943
 10
222.2751800841
 20
57.1005054825
 10
221.9569766462
 20
57.02716396
 10
221.5919441084
 20
57.0849142411
 10
221.2050465758
 20
57.2698057822
 10
220.8227443667
 20
57.5691945684
 10
220.4711823568
 20
57.9626056883
 10
220.1744040059
 20
58.4231339397
 10
220.1060167929
 20
58.5557788671
  0
LINE
  5
173
330
1F
100
AcDbEntity
  8
0
  6
Continuous
 62
     7
370
    25
100
AcDbLine
 10
220.5424263358
 20
68.6738732143
 30
0.0
 11
221.713814355
 21
60.3262420949
 31
0.0
  0
LINE
  5
174
330
1F
100
AcDbEntity
  8
0
  6
Continuous
 62
     7
370
    25
100
AcDbLine
 10
225.0433659965
 20
52.4023178809
 30
0.0
 11
225.0433659965
 21
53.2558446998
 31
0.0
  0
LINE
  5
175
330
1F
100
AcDbEntity
  8
0
  6
Continuous
 62
     7
370
    25
100
AcDbLine
 10
225.0433659965
 20
52.4023178809
 30
0.0
 11
213.8977361225
 21
58.8365530507
 31
0.0
  0
ELLIPSE
  5
176
330
1F
100
AcDbEntity
  8
0
  6
Continuous
 62
     7
370
    25
100
AcDbEllipse
 10
229.2505033732
 20
49.9437079589
 30
0.0
 11
5.982347220536269
 21
-1.119872761747352
 31
0.0
210
0.0
220
0.0
230
1.0
 40
0.4106849769
 41
1.238165500108017
 42
2.424588809383796
  0
SPLINE
  5
177
330
1F
100
AcDbEntity
  8
0
  6
Continuous
 62
     7
370
    25
100
AcDbSpline
210
0.0
220
0.0
230
1.0
 70
     8
 71
     3
 72
     8
 73
     4
 74
     0
 42
0.000000001
 43
0.00000001
 40
0.0
 40
0.0
 40
0.0
 40
0.0
 40
1.0
 40
1.0
 40
1.0
 40
1.0
 10
225.5333546744237
 20
53.47611052072113
 30
0.0
 10
225.3626054572192
 20
53.41621457198355
 30
0.0
 10
225.1992377457111
 20
53.34285391415042
 30
0.0
 10
225.0433653416202
 20
53.25584568683167
 30
0.0
  0
SPLINE
  5
178
330
1F
100
AcDbEntity
  8
0
  6
Continuous
 62
     7
370
    25
100
AcDbSpline
210
0.0
220
0.0
230
1.0
 70
     8
 71
     3
 72
    22
 73
    18
 74
     0
 42
0.000000001
 43
0.00000001
 40
0.0
 40
0.0
 40
0.0
 40
0.0
 40
0.125
 40
0.125
 40
0.25
 40
0.25
 40
0.375
 40
0.375
 40
0.5
 40
0.5
 40
0.625
 40
0.625
 40
0.75
 40
0.75
 40
0.875
 40
0.875
 40
1.0
 40
1.0
 40
1.0
 40
1.0
 10
233.4931440603291
 20
52.74559604089278
 30
0.0
 10
233.2332274174856
 20
52.89564272497282
 30
0.0
 10
232.9536870787555
 20
53.03274386775684
 30
0.0
 10
232.3570172403093
 20
53.28211334888103
 30
0.0
 10
232.037337576362
 20
53.39510639504481
 30
0.0
 10
231.369977155291
 20
53.59135599623167
 30
0.0
 10
231.0271222795522
 20
53.67349840144445
 30
0.0
 10
230.3235768542377
 20
53.80658233584116
 30
0.0
 10
229.9590739685223
 20
53.85778029343039
 30
0.0
 10
229.2329694028051
 20
53.92490386217983
 30
0.0
 10
228.8718346569105
 20
53.94123723088855
 30
0.0
 10
228.1533322045524
 20
53.9397535177106
 30
0.0
 10
227.7929910144903
 20
53.92140699821975
 30
0.0
 10
227.1023336901725
 20
53.85099421704334
 30
0.0
 10
226.7694779266339
 20
53.79921308028335
 30
0.0
 10
226.1287477651835
 20
53.6623535201842
 30
0.0
 10
225.8203730665421
 20
53.57679173720064
 30
0.0
 10
225.5333546744236
 20
53.47611052072113
 30
0.0
  0
OLE2FRAME
  5
179
330
1F
100
AcDbEntity
  8
0
100
AcDbOle2Frame
 70
     2
  3
Paintbrush-Bild
 10
13.8511154363
 20
38.264191557
 30
0.0
 11
51.6290888628
 21
31.9806341108
 31
0.0
 71
     2
 72
     0
 73
     1
 90
    12928
310
80552BED0767C5B32B40DDAF6807D121434000000000000000006FFBDDFB85D0
310
4940DDAF6807D121434000000000000000006FFBDDFB85D04940416F4BD60AFB
310
3F4000000000000000002BED0767C5B32B40416F4BD60AFB3F40000000000000
310
0000000000000100000000010000010000000100000000000100000000320000
310
D0CF11E0A1B11AE1000000000000000000000000000000003E000300FEFF0900
310
0600000000000000000000000100000001000000000000000010000002000000
310
01000000FEFFFFFF0000000000000000FFFFFFFFFFFFFFFFFFFFFFFFFFFFFFFF
310
FFFFFFFFFFFFFFFFFFFFFFFFFFFFFFFFFFFFFFFFFFFFFFFFFFFFFFFFFFFFFFFF
310
FFFFFFFFFFFFFFFFFFFFFFFFFFFFFFFFFFFFFFFFFFFFFFFFFFFFFFFFFFFFFFFF
310
FFFFFFFFFFFFFFFFFFFFFFFFFFFFFFFFFFFFFFFFFFFFFFFFFFFFFFFFFFFFFFFF
310
FFFFFFFFFFFFFFFFFFFFFFFFFFFFFFFFFFFFFFFFFFFFFFFFFFFFFFFFFFFFFFFF
310
FFFFFFFFFFFFFFFFFFFFFFFFFFFFFFFFFFFFFFFFFFFFFFFFFFFFFFFFFFFFFFFF
310
FFFFFFFFFFFFFFFFFFFFFFFFFFFFFFFFFFFFFFFFFFFFFFFFFFFFFFFFFFFFFFFF
310
FFFFFFFFFFFFFFFFFFFFFFFFFFFFFFFFFFFFFFFFFFFFFFFFFFFFFFFFFFFFFFFF
310
FFFFFFFFFFFFFFFFFFFFFFFFFFFFFFFFFFFFFFFFFFFFFFFFFFFFFFFFFFFFFFFF
310
FFFFFFFFFFFFFFFFFFFFFFFFFFFFFFFFFFFFFFFFFFFFFFFFFFFFFFFFFFFFFFFF
310
FFFFFFFFFFFFFFFFFFFFFFFFFFFFFFFFFFFFFFFFFFFFFFFFFFFFFFFFFFFFFFFF
310
FFFFFFFFFFFFFFFFFFFFFFFFFFFFFFFFFFFFFFFFFFFFFFFFFFFFFFFFFFFFFFFF
310
FFFFFFFFFFFFFFFFFFFFFFFFFFFFFFFFFFFFFFFFFFFFFFFFFFFFFFFFFFFFFFFF
310
FFFFFFFFFFFFFFFFFFFFFFFFFFFFFFFFFFFFFFFFFFFFFFFFFFFFFFFFFFFFFFFF
310
FDFFFFFFFEFFFFFFFEFFFFFFFEFFFFFF05000000060000000700000008000000
310
090000000A0000000B0000000C0000000D0000000E0000000F00000010000000
310
11000000120000001300000014000000150000001600000017000000FEFFFFFF
310
FFFFFFFFFFFFFFFFFFFFFFFFFFFFFFFFFFFFFFFFFFFFFFFFFFFFFFFFFFFFFFFF
310
FFFFFFFFFFFFFFFFFFFFFFFFFFFFFFFFFFFFFFFFFFFFFFFFFFFFFFFFFFFFFFFF
310
FFFFFFFFFFFFFFFFFFFFFFFFFFFFFFFFFFFFFFFFFFFFFFFFFFFFFFFFFFFFFFFF
310
FFFFFFFFFFFFFFFFFFFFFFFFFFFFFFFFFFFFFFFFFFFFFFFFFFFFFFFFFFFFFFFF
310
FFFFFFFFFFFFFFFFFFFFFFFFFFFFFFFFFFFFFFFFFFFFFFFFFFFFFFFFFFFFFFFF
310
FFFFFFFFFFFFFFFFFFFFFFFFFFFFFFFFFFFFFFFFFFFFFFFFFFFFFFFFFFFFFFFF
310
FFFFFFFFFFFFFFFFFFFFFFFFFFFFFFFFFFFFFFFFFFFFFFFFFFFFFFFFFFFFFFFF
310
FFFFFFFFFFFFFFFFFFFFFFFFFFFFFFFFFFFFFFFFFFFFFFFFFFFFFFFFFFFFFFFF
310
FFFFFFFFFFFFFFFFFFFFFFFFFFFFFFFFFFFFFFFFFFFFFFFFFFFFFFFFFFFFFFFF
310
FFFFFFFFFFFFFFFFFFFFFFFFFFFFFFFFFFFFFFFFFFFFFFFFFFFFFFFFFFFFFFFF
310
FFFFFFFFFFFFFFFFFFFFFFFFFFFFFFFFFFFFFFFFFFFFFFFFFFFFFFFFFFFFFFFF
310
FFFFFFFFFFFFFFFFFFFFFFFFFFFFFFFFFFFFFFFFFFFFFFFFFFFFFFFFFFFFFFFF
310
FFFFFFFFFFFFFFFFFFFFFFFFFFFFFFFFFFFFFFFFFFFFFFFFFFFFFFFFFFFFFFFF
310
52006F006F007400200045006E00740072007900000000000000000000000000
310
0000000000000000000000000000000000000000000000000000000000000000
310
16000500FFFFFFFFFFFFFFFF020000000A00030000000000C000000000000046
310
000000000000000000000000F0611E041FB5D30103000000C000000000000000
310
01004F006C006500000000000000000000000000000000000000000000000000
310
0000000000000000000000000000000000000000000000000000000000000000
310
0A000200FFFFFFFFFFFFFFFFFFFFFFFF00000000000000000000000000000000
310
0000000000000000000000000000000000000000000000001400000000000000
310
010043006F006D0070004F0062006A0000000000000000000000000000000000
310
0000000000000000000000000000000000000000000000000000000000000000
310
120002010100000003000000FFFFFFFF00000000000000000000000000000000
310
0000000000000000000000000000000000000000010000004D00000000000000
310
01004F006C006500310030004E00610074006900760065000000000000000000
310
0000000000000000000000000000000000000000000000000000000000000000
310
1A000200FFFFFFFFFFFFFFFFFFFFFFFF00000000000000000000000000000000
310
0000000000000000000000000000000000000000040000002426000000000000
310
FEFFFFFF02000000FEFFFFFFFFFFFFFFFFFFFFFFFFFFFFFFFFFFFFFFFFFFFFFF
310
FFFFFFFFFFFFFFFFFFFFFFFFFFFFFFFFFFFFFFFFFFFFFFFFFFFFFFFFFFFFFFFF
310
FFFFFFFFFFFFFFFFFFFFFFFFFFFFFFFFFFFFFFFFFFFFFFFFFFFFFFFFFFFFFFFF
310
FFFFFFFFFFFFFFFFFFFFFFFFFFFFFFFFFFFFFFFFFFFFFFFFFFFFFFFFFFFFFFFF
310
FFFFFFFFFFFFFFFFFFFFFFFFFFFFFFFFFFFFFFFFFFFFFFFFFFFFFFFFFFFFFFFF
310
FFFFFFFFFFFFFFFFFFFFFFFFFFFFFFFFFFFFFFFFFFFFFFFFFFFFFFFFFFFFFFFF
310
FFFFFFFFFFFFFFFFFFFFFFFFFFFFFFFFFFFFFFFFFFFFFFFFFFFFFFFFFFFFFFFF
310
FFFFFFFFFFFFFFFFFFFFFFFFFFFFFFFFFFFFFFFFFFFFFFFFFFFFFFFFFFFFFFFF
310
FFFFFFFFFFFFFFFFFFFFFFFFFFFFFFFFFFFFFFFFFFFFFFFFFFFFFFFFFFFFFFFF
310
FFFFFFFFFFFFFFFFFFFFFFFFFFFFFFFFFFFFFFFFFFFFFFFFFFFFFFFFFFFFFFFF
310
FFFFFFFFFFFFFFFFFFFFFFFFFFFFFFFFFFFFFFFFFFFFFFFFFFFFFFFFFFFFFFFF
310
FFFFFFFFFFFFFFFFFFFFFFFFFFFFFFFFFFFFFFFFFFFFFFFFFFFFFFFFFFFFFFFF
310
FFFFFFFFFFFFFFFFFFFFFFFFFFFFFFFFFFFFFFFFFFFFFFFFFFFFFFFFFFFFFFFF
310
FFFFFFFFFFFFFFFFFFFFFFFFFFFFFFFFFFFFFFFFFFFFFFFFFFFFFFFFFFFFFFFF
310
FFFFFFFFFFFFFFFFFFFFFFFFFFFFFFFFFFFFFFFFFFFFFFFFFFFFFFFFFFFFFFFF
310
FFFFFFFFFFFFFFFFFFFFFFFFFFFFFFFFFFFFFFFFFFFFFFFFFFFFFFFFFFFFFFFF
310
0100000200000000000000000000000000000000000000000000000000000000
310
0000000000000000000000000000000000000000000000000000000000000000
310
0100FEFF030A0000FFFFFFFF0A00030000000000C00000000000004607000000
310
5042727573680007000000504272757368000700000050427275736800F439B2
310
7100000000000000000000000000000000000000000000000000000000000000
310
0000000000000000000000000000000000000000000000000000000000000000
310
0000000000000000000000000000000000000000000000000000000000000000
310
0000000000000000000000000000000000000000000000000000000000000000
310
0000000000000000000000000000000000000000000000000000000000000000
310
0000000000000000000000000000000000000000000000000000000000000000
310
0000000000000000000000000000000000000000000000000000000000000000
310
0000000000000000000000000000000000000000000000000000000000000000
310
0000000000000000000000000000000000000000000000000000000000000000
310
0000000000000000000000000000000000000000000000000000000000000000
310
0000000000000000000000000000000000000000000000000000000000000000
310
0000000000000000000000000000000000000000000000000000000000000000
310
20260000424D0E260000000000003E00000028000000B40200006E0000000100
310
01000000000000000000130B0000130B00000200000002000000000000FFFFFF
310
FFFFFFFFFFFFFFFFFFFFFFFFFFFFFFFFFFFFFFFFFFFFFFFFFFFFFFFFFFFFFFFF
310
FFFFFFFFFFFFFFFFFFFFFFFFFFFFFFFFFFFFFFFFFFFFFFFFFFFFFFFFFFFFFFFF
310
FFFFFFFFFFFFFFFFFFFFFFFFFFFFFFFFFFFFFFFFFFFFFFFFF000FFFFFFFFFFFF
310
FFFFFFFFFFFFFFFFFFFFFFFFFFFFFFFFFFFFFFFFFFFFFFFFFFFFFFFFFFFFFFFF
310
FFFFFFFFFFFFFFFFFFFFFFFFFFFFFFFFFFFFFFFFFFFFFFFFFFFFFFFFFFFFFFFF
310
FFFFFFFFFFFFFFFFFFFFFFFFFFFFFFFFF000FFFFFFFFFFFFFFFFFFFFFFFFFFFF
310
FFFFFFFFFFFFFFFFFFFFFFFFFFFFFFFFFFFFFFFFFFFFFFFFFFFFFFFFFFFFFFFF
310
FFFFFFFFFFFFFFFFFFFFFFFFFFFFFFFFFFFFFFFFFFFFFFFFFFFFFFFFFFFFFFFF
310
FFFFFFFFFFFFFFFFF000FFFFFFFFFFFFFFFFFFFFFFFFFFFFFFFFFFFFFFFFFFFF
310
FFFFFFFFFFFFFFFFFFFFFFFFFFFFFFFFFFFFFFFFFFFFFFFFFFFFFFFFFFFFFFFF
310
FFFFFFFFFFFFFFFFFFFFFFFFFFFFFFFFFFFFFFFFFFFFFFFFFFFFFFFFFFFFFFFF
310
F000FFFFFFFFFFFFFFFFFFFFFFFFFFFFFFFFFFFFFFFFFFFFFFFFFFFFFFFFFFFF
310
FFFFFFFFFFFFFFFFFFFFFFFFFFFFFFFFFFFFFFFFFFFFFFFFFFFFFFFFFFFFFFFF
310
FFFFFFFFFFFFFFFFFFFFFFFFFFFFFFFFFFFFFFFFFFFFFFFFF000FFFFFFFFFFFF
310
FFFFFFFFFFFFFFFFFFFFFFFFFFFFFFFFFFFFFFFFFFFFFFFFFFFFFFFFFFFFFFFF
310
FFFFFFFFFFFFFFFFFFFFFFFFFFFFFFFFFFFFFFFFFFFFFFFFFFFFFFFFFFFFFFFF
310
FFFFFFFFFFFFFFFFFFFFFFFFFFFFFFFFF000FFFFFFFFFFFFFFFFFFFFFFFFFFFF
310
FFFFFFFFFFFFFFFFFFFFFFFFFFFFFFFFFFFFFFFFFFFFFFFFFFFFFFFFFFFFFFFF
310
FFFFFFFFFFFFFFFFFFFFFFFFFFFFFFFFFFFFFFFFFFFFFFFFFFFFFFFFFFFFFFFF
310
FFFFFFFFFFFFFFFFF000FFFFFFFFFFFFFFFFFFFFFFFFFFFFFFFFFFFFFFFFFFFF
310
FFFFFFFFFFFFFFFFFFFFFFFFFFFFFFFFFFFFFFFFFFFFFFFFFFFFFFFFFFFFFFFF
310
FFFFFFFFFFFFFFFFFFFFFFFFFFFFFFFFFFFFFFFFFFFFFFFFFFFFFFFFFFFFFFFF
310
F000FFFFFFFFFFFFFFFFFFFFFFFFFFFFFFFFFFFFFFFFFFFFFFFFFFFFFFFFFFFF
310
FFFFFFFFFFFFFFFFFFFFFFFFFFFFFFFFFFFFFFFFFFFFFFFFFFFFFFFFFFFFFFFF
310
FFFFFFFFFFFFFFFFFFFFFFFFFFFFFFFFFFFFFFFFFFFFFFFFF000FFFFFFFFFFFF
310
FFFFFFFFFFFFFFFFFFFFFFFFFFFFFFFFFFFFFFFFFFFFFFFFFFFFFFFFFFFFFFFF
310
FFFFFFFFFFFFFFFFFFFFFFFFFFFFFFFFFFFFFFFFFFFFFFFFFFFFFFFFFFFFFFFF
310
FFFFFFFFFFFFFFFFFFFFFFFFFFFFFFFFF000FFFFFFFFFFFFFFFFFFFFFFFFFFFF
310
FFFFFFFFFFFFFFFFFFFFFFFFFFFFFFFFFFFFFFFFFFFFFFFFFFFFFFFFFFFFFFFF
310
FFFFFFFFFFFFFFFFFFFFFFFFFFFFFFFFFFFFFFFFFFFFFFFFFFFFFFFFFFFFFFFF
310
FFFFFFFFFFFFFFFFF000FFFFFFFFFFFFFFFFFFFFFFFFFFFFFFFFFFFFFFFFFFFF
310
FFFFFFFFFFFFFFFFFFFFFFFFFFFFFFFFFFFFFFFFFFFFFFFFFFFFFFFFFFFFFFFF
310
FFFFFFFFFFFFFFFFFFFFFFFFFFFFFFFFFFFFFFFFFFFFFFFFFFFFFFFFFFFFFFFF
310
F000FFFFFFFFFFFFFFFFFFFFFFFFFFFFFFFFFFFFFFFFFFFFFFFFFFFFFFFFFFFF
310
FFFFFFFFFFFFFFFFFFFFFFFFFFFFFFFFFFFFFFFFFFFFFFFFFFFFFFFFFFFFFFFF
310
FFFFFFFFFFFFFFFFFFFFFFFFFFFFFFFFFFFFFFFFFFFFFFFFF000FFFFFFFFFFFF
310
FFFFFFFFFFFFFFFFFFFFFFFFFFFFFFFFFFFFFFFFFFFFFFFFFFFFFFFFFFFFFFFF
310
FFFFFFFFFFFFFFFFFFFFFFFFFFFFFFFFFFFFFFFFFFFFFFFFFFFFFFFFFFFFFFFF
310
FFFFFFFFFFFFFFFFFFFFFFFFFFFFFFFFF000FFFFFFFFFFFFFFFFFFFFFFFFFFFF
310
FFFFFFFFFFFFFFFFFFFFFFFFFFFFFFFFFFFFFFFFFFFFFFFFFFFFFFFFFFFFFFFF
310
FFFFFFFFFFFFFFFFFFFFFFFFFFFFFFFFFFFFFFFFFFFFFFFFFFFFFFFFFFFFFFFF
310
FFFFFFFFFFFFFFFFF000FFFFFFFFFFFFFFFFFFFFFFFFFFFFFFFFFFFFFFFFFFFF
310
FFFFFFFFFFFFFFFFFFFFFFFFFFFFFFFFFFFFFFFFFFFFFFFFFFFFFFFFFFFFFFFF
310
FFFFFFFFFFFFFFFFFFFFFFFFFFFFFFFFFFFFFFFFFFFFFFFFFFFFFFFFFFFFFFFF
310
F000FFFFFFFFFFFFFFFFFFFFFFFFFFFFFFFFFFFFFFFFFFFFFFFFFFFFFFFFFFFF
310
FFFFFFFFFFFFFFFFFFFFFFFFFFFFFFFFFFFFFFFFFFFFFFFFFFFFFFFFFFFFFFFF
310
FFFFFFFFFFFFFFFFFFFFFFFFFFFFFFFFFFFFFFFFFFFFFFFFF000FFFFFFFFFFFF
310
FFFFFFFFFFFFFFFFFFFFFFFFFFFFFFFFFFFFFFFFFFFFFFFFFFFFFFFFFFFFFFFF
310
FFFFFFFFFFFFFFFFFFFFFFFFFFFFFFFFFFFFFFFFFFFFFFFFFFFFFFFFFFFFFFFF
310
FFFFFFFFFFFFFFFFFFFFFFFFFFFFFFFFF000FFFFFFFFFFFFFFFFFFFFFFFFFFFF
310
FFFFFFFFFFFFFFFFFFFFFFFFFFFFFFFFFFFFFFFFFFFFFFFFFFFFFFFFFFFFFFFF
310
FFFFFFFFFFFFFFFFFFFFFFFFFFFFFFFFFFFFFFFFFFFFFFFFFFFFFFFFFFFFFFFF
310
FFFFFFFFFFFFFFFFF000FFFFF80003FFFFFFFFFFFFFFFFFFFFFFFFFFFFFFFFFF
310
FFFFF00007FFFFFFFFFF00007FFFFFF800000000000000007FFFFFFFFFFFFFFF
310
FFFFFFFC001FFFFFFFFFFFFFFC001FFFFFFFFFFFFFFFFFFFFFFFFFFE0007FFFF
310
F000FFFF8000007FFFFFFFF8000FFFFFC0007FFFFF80007FFFFF0000007FFFFF
310
FFF8000007FFFFF800000000000000007FFFFFF0001FFFFFFFFFFFC00001FFFF
310
FFFFFFFFC00001FFFFFFFF000000000003FFFFE000007FFFF000FFFE0000000F
310
FFFFFFF0000FFFFF80007FFFFF80007FFFFC0000001FFFFFFFC0000001FFFFF8
310
00000000000000007FFFFFF0001FFFFFFFFFFE0000003FFFFFFFFFFE0000003F
310
FFFFFF000000000003FFFF0000000FFFF000FFF800000003FFFFFFF00007FFFF
310
80007FFFFF80007FFFF000000007FFFFFF000000003FFFF80000000000000000
310
7FFFFFF0001FFFFFFFFFF80000000FFFFFFFFFF80000000FFFFFFF0000000000
310
03FFFC00000003FFF000FFE000000000FFFFFFF00007FFFF80003FFFFF80007F
310
FFC000000001FFFFFC000000001FFFF800000000000000007FFFFFF0001FFFFF
310
FFFFE000000003FFFFFFFFE000000003FFFFFF000000000003FFF000000000FF
310
F000FF80000000007FFFFFF00007FFFF80003FFFFF80007FFF8000000000FFFF
310
F80000000007FFF800000000000000007FFFFFF0001FFFFFFFFFC000000001FF
310
FFFFFFC000000001FFFFFF000000000003FFC0000000007FF000FF0000000000
310
3FFFFFE00007FFFF00003FFFFF80007FFE00000000003FFFF00000000003FFF8
310
00000000000000007FFFFFF0001FFFFFFFFF8000000000FFFFFFFF8000000000
310
FFFFFF000000000003FF80000000003FF000FE00000000001FFFFFE00003FFFF
310
00003FFFFF80007FFC00000000001FFFE00000000001FFF8000001FFFE000000
310
7FFFFFF0001FFFFFFFFE00000000003FFFFFFE00000000003FFFFF0000000000
310
03FF00000000001FF000FC00000000000FFFFFE00003FFFF00001FFFFF80007F
310
F800000000001FFFC00000000000FFF8000001FFFE0000007FFFFFF0001FFFFF
310
FFFC00000000001FFFFFFC00000000001FFFFF000000000003FE00000000000F
310
F000F8000000000007FFFFE00003FFFF00001FFFFF80007FF800000000000FFF
310
800000000000FFF8000001FFFE0000007FFFFFF0001FFFFFFFF800000000000F
310
FFFFF800000000000FFFFF000000000003FC000000000007F000F80000000000
310
03FFFFC00003FFFE00001FFFFF80007FF0000000000007FF0000000000007FF8
310
000001FFFE0000007FFFFFF0001FFFFFFFF0000000000007FFFFF00000000000
310
07FFFF000000000003F8000000000003F000F0000000000003FFFFC00001FFFE
310
00001FFFFF80007FE0000000000007FE0000000000003FF8000001FFFE000000
310
7FFFFFF0001FFFFFFFF0000000000007FFFFF0000000000007FFFF0000000000
310
03F800001F800003F000E00001FFF00001FFFFC00001FFFE00000FFFFF80007F
310
E00001FFE00003FE00001FFF00003FF8000001FFFE0000007FFFFFF0001FFFFF
310
FFE000003E000003FFFFE000003E000003FFFF000000000003F00001FFF80001
310
F000E00007FFFC0001FFFFC00001FFFE00000FFFFF80007FC0000FFFFC0003FC
310
0000FFFFC0001FF8000001FFFE0000007FFFFFF0001FFFFFFFC00003FFE00001
310
FFFFC00003FFE00001FFFF0001FFFFFFFFF00007FFFE0001F000E0000FFFFF00
310
00FFFF800001FFFC00000FFFFF80007FC0001FFFFE0001FC0001FFFFE0001FF8
310
000001FFFE0000007FFFFFF0001FFFFFFF80000FFFF80000FFFF80000FFFF800
310
00FFFF0003FFFFFFFFE0000FFFFF8000F000C0003FFFFF8000FFFF800000FFFC
310
000007FFFF80007F80003FFFFF0001FC0003FFFFF0001FF8000001FFFE000000
310
7FFFFFF0001FFFFFFF80003FFFFE0000FFFF80003FFFFE0000FFFF0003FFFFFF
310
FFE0003FFFFF8000F000C0003FFFFF8000FFFF800000FFFC000007FFFF80007F
310
80007FFFFF8001F80007FFFFF8000FF8000001FFFE0000007FFFFFF0001FFFFF
310
FF00007FFFFF00007FFF00007FFFFF00007FFF0003FFFFFFFFE0003FFFFFC000
310
F000C0007FFFFFC000FFFF000000FFFC000007FFFF80007F8000FFFFFF8000F8
310
000FFFFFF8000FF8000001FFFE0000007FFFFFF0001FFFFFFF0000FFFFFF8000
310
7FFF0000FFFFFF80007FFF0003FFFFFFFFC0007FFFFFC00070008000FFFFFFC0
310
00FFFF000000FFF8000007FFFF80007F8000FFFFFF8000F8000FFFFFF8000FF8
310
000001FFFE0000007FFFFFF0001FFFFFFE0001FFFFFFC0003FFE0001FFFFFFC0
310
003FFF0003FFFFFFFFC0007FFFFFE00070008000FFFFFFC0007FFF0000007FF8
310
000003FFFF80007F0001FFFFFF8000F8000FFFFFF8000FF8000001FFFE000000
310
7FFFFFF0001FFFFFFE0001FFFFFFC0003FFE0001FFFFFFC0003FFF0003FFFFFF
310
FFC000FFFFFFE00070008000FFFFFFC0007FFF0000007FF8000003FFFF80007F
310
0001FFFFFF8000F8001FFFFFF8000FF8000001FFFE0000007FFFFFF0001FFFFF
310
FE0003FFFFFFE0003FFE0003FFFFFFE0003FFF0003FFFFFFFFC000FFFFFFE000
310
70008000FFFFFFC0007FFE0000007FF8000003FFFF80007F0001FFFFFF8000F0
310
001FFFFFF8000FF8000001FFFE0000007FFFFFF0001FFFFFFC0003FFFFFFE000
310
1FFC0003FFFFFFE0001FFF0003FFFFFFFFC000FFFFFFC00070008000FFFFFF80
310
007FFE0000007FF0000003FFFF80007F0001FFFFFF0000F0001FFFFFF8000FF8
310
000001FFFE0000007FFFFFF0001FFFFFFC0007FFFFFFF0001FFC0007FFFFFFF0
310
001FFF0003FFFFFFFFC000FFFFFFC00070008001FFFFFF0000FFFE0000003FF0
310
000001FFFF80007F0001FFFFFF0000F8001FFFFFF0000FF8000001FFFE000000
310
7FFFFFF0001FFFFFFC0007FFFFFFF0001FFC0007FFFFFFF0001FFF0003FFFFFF
310
FFC001FFFFFF80007000FFFFFFFFFE0000FFFE0008003FF0008001FFFF80007F
310
FFFFFFFFFC0000FFFFFFFFFFE0000FF8000001FFFE0000007FFFFFF0001FFFFF
310
F8000FFFFFFFF8000FF8000FFFFFFFF8000FFF0003FFFFFFFFFFFFFFFFFF0000
310
7000FFFFFFFFFC0000FFFC0008003FF0008001FFFF80007FFFFFFFFFF80001FF
310
FFFFFFFF80000FF8000001FFFE0000007FFFFFF0001FFFFFF8000FFFFFFFF800
310
0FF8000FFFFFFFF8000FFF0003FFFFFFFFFFFFFFFFFE0000F000FFFFFFFFE000
310
00FFFC000C003FE000C001FFFF80007FFFFFFFFFC00001FFFFFFFFFE00001FF8
310
000001FFFE0000007FFFFFF0001FFFFFF8000FFFFFFFF8000FF8000FFFFFFFF8
310
000FFF0003FFFFFFFFFFFFFFFFF00000F000FFFFFFFE000001FFFC000C001FE0
310
00C000FFFF80007FFFFFFFFE000001FFFFFFFFE000001FF80FFFFFFFFFFFFFC0
310
7FFFFFF0001FFFFFF8000FFFFFFFF8000FF8000FFFFFFFF8000FFF0003FFFFFF
310
FFFFFFFFFF800000F000FFFFFFC0000001FFFC001C001FE001C000FFFF80007F
310
FFFFFF80000003FFFFFFF80000001FF80FFFFFFFFFFFFFC07FFFFFF0001FFFFF
310
F8001FFFFFFFFC000FF8001FFFFFFFFC000FFF0003FFFFFFFFFFFFFFF0000001
310
F000FFFFF800000001FFF8001C001FE001C000FFFF80007FFFFFF800000003FF
310
FFFF800000003FF80FFFFFFFFFFFFFC07FFFFFF0001FFFFFF8001FFFFFFFFC00
310
0FF8001FFFFFFFFC000FFF0003FFFFFFFFFFFFFE00000001F000FFFFC0000000
310
03FFF8001E001FC001E000FFFF80007FFFFF8000000007FFFFFC000000003FF8
310
0FFFFFFFFFFFFFC07FFFFFF0001FFFFFF8001FFFFFFFFC000FF8001FFFFFFFFC
310
000FFF0003FFFFFFFFFFFFE000000003F000FFFE0000000007FFF8001E000FC0
310
01E0007FFF80007FFFFE0000000007FFFFE0000000007FF80FFFFFFFFFFFFFC0
310
7FFFFFF0001FFFFFF0001FFFFFFFFC0007F0001FFFFFFFFC0007FF0003FFFFFF
310
FFFFFF0000000003F000FFF80000000007FFF8001E000FC003E0007FFF80007F
310
FFF0000000000FFFFF8000000000FFF80FFFFFFFFFFFFFC07FFFFFF0001FFFFF
310
F0001FFFFFFFFC0007F0001FFFFFFFFC0007FF0003FFFFFFFFFFFC0000000007
310
F000FFE0000000000FFFF0003E000FC003E0007FFF80007FFFC0000000001FFF
310
FE0000000001FFF80FFFFFFFFFFFFFC07FFFFFF0001FFFFFF0001FFFFFFFFC00
310
07F0001FFFFFFFFC0007FF0003FFFFFFFFFFF0000000000FF000FFC000000000
310
1FFFF0003F000F8003F0003FFF80007FFF80000000003FFFF80000000003FFF8
310
0FFFFFFFFFFFFFC07FFFFFF0001FFFFFF0001FFFFFFFFC0007F0001FFFFFFFFC
310
0007FF0003FFFFFFFFFFE0000000001FF000FF00000000007FFFF0003F000780
310
03F0003FFF80007FFF00000000007FFFF00000000007FFF80FFFFFFFFFFFFFC0
310
7FFFFFF0001FFFFFF0001FFFFFFFFC0007F0001FFFFFFFFC0007FF0003FFFFFF
310
FFFF80000000007FF000FE0000000000FFFFE0003F00078007F0003FFF80007F
310
FE0000000001FFFFE0000000001FFFF80FFFFFFFFFFFFFC07FFFFFF0001FFFFF
310
F0001FFFFFFFFC0007F0001FFFFFFFFC0007FF0003FFFFFFFFFF0000000000FF
310
F000FC0000000003FFFFE0007F00078007F0003FFF80007FFC0000000007FFFF
310
C0000000007FFFF80FFFFFFFFFFFFFC07FFFFFF0001FFFFFF8001FFFFFFFFC00
310
0FF8001FFFFFFFFC000FFF0003FFFFFFFFFE0000000003FFF000FC000000000F
310
FFFFE0007F80070007F8001FFF80007FF8000000001FFFFF8000000001FFFFF8
310
0FFFFFFFFFFFFFC07FFFFFF0001FFFFFF8001FFFFFFFFC000FF8001FFFFFFFFC
310
000FFF0003FFFFFFFFFC000000000FFFF000F8000000007FFFFFE0007F800700
310
07F8001FFF80007FF000000000FFFFFF800000000FFFFFF80FFFFFFFFFFFFFC0
310
7FFFFFF0001FFFFFF8000FFFFFFFF8000FF8000FFFFFFFF8000FFF0003FFFFFF
310
FFFC000000007FFFF000F800000007FFFFFFC0007F8003000FF8001FFF80007F
310
F000000007FFFFFF000000007FFFFFF80FFFFFFFFFFFFFC07FFFFFF0001FFFFF
310
F8000FFFFFFFF8000FF8000FFFFFFFF8000FFF0003FFFFFFFFF80000000FFFFF
310
F000F0000000FFFFFFFFC000FF8003000FF8001FFF80007FE0000000FFFFFFFF
310
0000000FFFFFFFF8000001FFFE0000007FFFFFF0001FFFFFF8000FFFFFFFF800
310
0FF8000FFFFFFFF8000FFF0003FFFFFFFFF8000000FFFFFFF000F000000FFFFF
310
FFFFC000FFC002000FF8000FFF80007FE000001FFFFFFFFE000001FFFFFFFFF8
310
000001FFFE0000007FFFFFF0001FFFFFF8000FFFFFFFF8000FF8000FFFFFFFF8
310
000FFF0003FFFFFFFFF000001FFFFFFFF000E00000FFFFFFFFFFC000FFC00200
310
0FFC000FFF80007FE00001FFFFFFFFFE00001FFFFFFFFFF8000001FFFE000000
310
7FFFFFF0001FFFFFFC000FFFFFFFF8001FFC000FFFFFFFF8001FFF0003FFFFFF
310
FFF00001FFFFFFFFF000E00007FFFFFFFFFF8000FFC000001FFC000FFF80007F
310
C0000FFFFFFFFFFE0000FFFFFFFFFFF8000001FFFE0000007FFFFFF0001FFFFF
310
FC0007FFFFFFF0001FFC0007FFFFFFF0001FFF0003FFFFFFFFF00007FFFFFFFF
310
F000E0001FFFFFFFFFFF8000FFC000001FFC000FFF80007FC0003FFFFFFFFFFE
310
0001FFFFFFFFFFF8000001FFFE0000007FFFFFF0001FFFFFFC0007FFFFFFF000
310
1FFC0007FFFFFFF0001FFF0003FFFFFFFFF0001FFFFFFFFFF000E0003FFFFF00
310
03FF8001FFE000001FFC0007FF80007FC0007FFFFF0007FC0003FFFFF0003FF8
310
000001FFFE0000007FFFFFF0001FFFFFFC0003FFFFFFE0001FFC0003FFFFFFE0
310
001FFF0003FFFFFFFFF0003FFFFFFFFFF000E0003FFFFF0001FF8001FFE00000
310
1FFE0007FF80007FC0007FFFFE0003FC0007FFFFE0003FF8000001FFFE000000
310
7FFFFFF0001FFFFFFE0003FFFFFFE0003FFE0003FFFFFFE0003FFF0003FFFFFF
310
FFF0003FFFFF8001F000E0003FFFFF0001FF0001FFE000001FFE0007FF80007F
310
C0007FFFFE0003FC0007FFFFE0003FF8000001FFFE0000007FFFFFF0001FFFFF
310
FE0001FFFFFFC0003FFE0001FFFFFFC0003FFF0003FFFFFFFFF0003FFFFF0001
310
F000E0003FFFFF0003FF0001FFE000003FFE0007FF80007FC0007FFFFE0003FC
310
0007FFFFE0003FF8000001FFFE0000007FFFFFF0001FFFFFFF0001FFFFFFC000
310
7FFF0001FFFFFFC0007FFF0003FFFFFFFFF0003FFFFF0001F000E0003FFFFE00
310
03FF0003FFF000003FFE0003FF80007FC0007FFFFC0003FE0007FFFFE0003FF8
310
000001FFFE0000007FFFFFF0001FFFFFFF0000FFFFFF80007FFF0000FFFFFF80
310
007FFF0003FFFFFFFFF0003FFFFF0001F000E0003FFFFE0003FF0003FFF00000
310
3FFF0003FF80007FC0007FFFFC0007FE0007FFFFC0003FF8000001FFFE000000
310
7FFFFFF0001FFFFFFF80007FFFFF0000FFFF80007FFFFF0000FFFF0003FFFFFF
310
FFF0003FFFFF0003F000E0003FFFFC0003FE0003FFF000003FFF0003FF80007F
310
E0003FFFF80007FE0003FFFFC0007FF8000001FFFE0000007FFFFFF0001FFFFF
310
FF80003FFFFE0000FFFF80003FFFFE0000FFFF0003FFFFFFFFF0001FFFFE0003
310
F000F0001FFFF80003FE0003FFF000007FFF0001FF80007FE0003FFFF00007FE
310
0001FFFF80007FF8000001FFFE0000007FFFFFF0001FFFFFFFC0000FFFF80001
310
FFFFC0000FFFF80001FFFF0003FFFFFFFFF0001FFFFC0003F000F0000FFFF000
310
07FE0007FFF800007FFF0001FF80007FE0001FFFE00007FF0000FFFE00007FF8
310
000001FFFE0000007FFFFFF0001FFFFFFFC00003FFE00001FFFFC00003FFE000
310
01FFFF0003FFFFFFFFF8000FFFF80003F000F00003FFC00007FC0007FFF80000
310
7FFF8001FF80007FF00007FF80000FFF00007FF80000FFF8000001FFFE000000
310
7F80000000000001FFE000003E000003FFFFE000003E000003FFFF0003FFFFFF
310
FFF80003FFE00007F000F800000000000FFC0007FFF800007FFF8001FF80007F
310
F000000000000FFF000000000000FFF8000001FFFE0000007F80000000000001
310
FFF0000000000007FFFFF0000000000007FFFF0003FFFFFFFFFC00007E000007
310
F000F800000000000FFC0007FFF80000FFFF8000FF80007FF800000000001FFF
310
800000000001FFF8000001FFFE0000007F80000000000001FFF800000000000F
310
FFFFF800000000000FFFFF0003FFFFFFFFFC00000000000FF000FC0000000000
310
1FFC0007FFFC0000FFFF8000FF80007FF800000000003FFFC00000000001FFF8
310
000001FFFE0000007F80000000000001FFF800000000000FFFFFF80000000000
310
0FFFFF0003FFFFFFFFFE00000000001FF000FE00000000003FF8000FFFFC0000
310
FFFF8000FF80007FFC00000000003FFFC00000000003FFF8000001FFFE000000
310
7F80000000000001FFFC00000000001FFFFFFC00000000001FFFFF0003FFFFFF
310
FFFF00000000001FF000FF00000000003FF8000FFFFC0000FFFFC000FF80007F
310
FE00000000007FFFE00000000007FFF8000001FFFE0000007F80000000000001
310
FFFE00000000003FFFFFFE00000000003FFFFF0003FFFFFFFFFF80000000003F
310
F000FF80000000007FF8000FFFFC0001FFFFC0007F80007FFF0000000000FFFF
310
F0000000000FFFF800000000000000007F80000000000001FFFF8000000000FF
310
FFFFFF8000000000FFFFFF0003FFFFFFFFFFC0000000007FF000FFC000000000
310
FFF8000FFFFE0001FFFFC0007F80007FFF8000000001FFFFF8000000001FFFF8
310
00000000000000007F80000000000001FFFFC000000001FFFFFFFFC000000001
310
FFFFFF0003FFFFFFFFFFE000000000FFF000FFE000000003FFF0001FFFFE0001
310
FFFFC0007F80007FFFC000000007FFFFFE000000003FFFF80000000000000000
310
7F80000000000001FFFFE000000003FFFFFFFFE000000003FFFFFF0003FFFFFF
310
FFFFF000000003FFF000FFF80000000FFFF0001FFFFE0001FFFFE0007F80007F
310
FFF00000000FFFFFFF00000000FFFFF800000000000000007F80000000000001
310
FFFFF80000000FFFFFFFFFF80000000FFFFFFF0003FFFFFFFFFFFC0000000FFF
310
F000FFFE0000003FFFF0001FFFFE0003FFFFE0003F80007FFFFC0000003FFFFF
310
FFC0000003FFFFF800000000000000007F80000000000001FFFFFE0000003FFF
310
FFFFFFFE0000003FFFFFFF0003FFFFFFFFFFFF0000003FFFF000FFFF800000FF
310
FFF0001FFFFF0003FFFFE0003F80007FFFFF000001FFFFFFFFF800001FFFFFF8
310
00000000000000007F80000000000001FFFFFFC00001FFFFFFFFFFFFC00001FF
310
FFFFFF0003FFFFFFFFFFFFC00000FFFFF000FFFFF8000FFFFFFFFFFFFFFFFFFF
310
FFFFFFFFFFFFFFFFFFFFF0001FFFFFFFFFFF0000FFFFFFF80000000000000000
310
7FFFFFFFFFFFFFFFFFFFFFFC001FFFFFFFFFFFFFFC001FFFFFFFFFFFFFFFFFFF
310
FFFFFFFC001FFFFFF000FFFFFFFFFFFFFFFFFFFFFFFFFFFFFFFFFFFFFFFFFFFF
310
FFFFFFFFFFFFFFFFFFFFFFFFFFFFFFFFFFFFFFFFFFFFFFFFFFFFFFFFFFFFFFFF
310
FFFFFFFFFFFFFFFFFFFFFFFFFFFFFFFFFFFFFFFFFFFFFFFFFFFFFFFFFFFFFFFF
310
F000FFFFFFFFFFFFFFFFFFFFFFFFFFFFFFFFFFFFFFFFFFFFFFFFFFFFFFFFFFFF
310
FFFFFFFFFFFFFFFFFFFFFFFFFFFFFFFFFFFFFFFFFFFFFFFFFFFFFFFFFFFFFFFF
310
FFFFFFFFFFFFFFFFFFFFFFFFFFFFFFFFFFFFFFFFFFFFFFFFF000FFFFFFFFFFFF
310
FFFFFFFFFFFFFFFFFFFFFFFFFFFFFFFFFFFFFFFFFFFFFFFFFFFFFFFFFFFFFFFF
310
FFFFFFFFFFFFFFFFFFFFFFFFFFFFFFFFFFFFFFFFFFFFFFFFFFFFFFFFFFFFFFFF
310
FFFFFFFFFFFFFFFFFFFFFFFFFFFFFFFFF000FFFFFFFFFFFFFFFFFFFFFFFFFFFF
310
FFFFFFFFFFFFFFFFFFFFFFFFFFFFFFFFFFFFFFFFFFFFFFFFFFFFFFFFFFFFFFFF
310
FFFFFFFFFFFFFFFFFFFFFFFFFFFFFFFFFFFFFFFFFFFFFFFFFFFFFFFFFFFFFFFF
310
FFFFFFFFFFFFFFFFF000FFFFFFFFFFFFFFFFFFFFFFFFFFFFFFFFFFFFFFFFFFFF
310
FFFFFFFFFFFFFFFFFFFFFFFFFFFFFFFFFFFFFFFFFFFFFFFFFFFFFFFFFFFFFFFF
310
FFFFFFFFFFFFFFFFFFFFFFFFFFFFFFFFFFFFFFFFFFFFFFFFFFFFFFFFFFFFFFFF
310
F000FFFFFFFFFFFFFFFFFFFFFFFFFFFFFFFFFFFFFFFFFFFFFFFFFFFFFFFFFFFF
310
FFFFFFFFFFFFFFFFFFFFFFFFFFFFFFFFFFFFFFFFFFFFFFFFFFFFFFFFFFFFFFFF
310
FFFFFFFFFFFFFFFFFFFFFFFFFFFFFFFFFFFFFFFFFFFFFFFFF000FFFFFFFFFFFF
310
FFFFFFFFFFFFFFFFFFFFFFFFFFFFFFFFFFFFFFFFFFFFFFFFFFFFFFFFFFFFFFFF
310
FFFFFFFFFFFFFFFFFFFFFFFFFFFFFFFFFFFFFFFFFFFFFFFFFFFFFFFFFFFFFFFF
310
FFFFFFFFFFFFFFFFFFFFFFFFFFFFFFFFF000FFFFFFFFFFFFFFFFFFFFFFFFFFFF
310
FFFFFFFFFFFFFFFFFFFFFFFFFFFFFFFFFFFFFFFFFFFFFFFFFFFFFFFFFFFFFFFF
310
FFFFFFFFFFFFFFFFFFFFFFFFFFFFFFFFFFFFFFFFFFFFFFFFFFFFFFFFFFFFFFFF
310
FFFFFFFFFFFFFFFFF000FFFFFFFFFFFFFFFFFFFFFFFFFFFFFFFFFFFFFFFFFFFF
310
FFFFFFFFFFFFFFFFFFFFFFFFFFFFFFFFFFFFFFFFFFFFFFFFFFFFFFFFFFFFFFFF
310
FFFFFFFFFFFFFFFFFFFFFFFFFFFFFFFFFFFFFFFFFFFFFFFFFFFFFFFFFFFFFFFF
310
F000FFFFFFFFFFFFFFFFFFFFFFFFFFFFFFFFFFFFFFFFFFFFFFFFFFFFFFFFFFFF
310
FFFFFFFFFFFFFFFFFFFFFFFFFFFFFFFFFFFFFFFFFFFFFFFFFFFFFFFFFFFFFFFF
310
FFFFFFFFFFFFFFFFFFFFFFFFFFFFFFFFFFFFFFFFFFFFFFFFF000FFFFFFFFFFFF
310
FFFFFFFFFFFFFFFFFFFFFFFFFFFFFFFFFFFFFFFFFFFFFFFFFFFFFFFFFFFFFFFF
310
FFFFFFFFFFFFFFFFFFFFFFFFFFFFFFFFFFFFFFFFFFFFFFFFFFFFFFFFFFFFFFFF
310
FFFFFFFFFFFFFFFFFFFFFFFFFFFFFFFFF000FFFFFFFFFFFFFFFFFFFFFFFFFFFF
310
FFFFFFFFFFFFFFFFFFFFFFFFFFFFFFFFFFFFFFFFFFFFFFFFFFFFFFFFFFFFFFFF
310
FFFFFFFFFFFFFFFFFFFFFFFFFFFFFFFFFFFFFFFFFFFFFFFFFFFFFFFFFFFFFFFF
310
FFFFFFFFFFFFFFFFF000FFFFFFFFFFFFFFFFFFFFFFFFFFFFFFFFFFFFFFFFFFFF
310
FFFFFFFFFFFFFFFFFFFFFFFFFFFFFFFFFFFFFFFFFFFFFFFFFFFFFFFFFFFFFFFF
310
FFFFFFFFFFFFFFFFFFFFFFFFFFFFFFFFFFFFFFFFFFFFFFFFFFFFFFFFFFFFFFFF
310
F000FFFFFFFFFFFFFFFFFFFFFFFFFFFFFFFFFFFFFFFFFFFFFFFFFFFFFFFFFFFF
310
FFFFFFFFFFFFFFFFFFFFFFFFFFFFFFFFFFFFFFFFFFFFFFFFFFFFFFFFFFFFFFFF
310
FFFFFFFFFFFFFFFFFFFFFFFFFFFFFFFFFFFFFFFFFFFFFFFFF000FFFFFFFFFFFF
310
FFFFFFFFFFFFFFFFFFFFFFFFFFFFFFFFFFFFFFFFFFFFFFFFFFFFFFFFFFFFFFFF
310
FFFFFFFFFFFFFFFFFFFFFFFFFFFFFFFFFFFFFFFFFFFFFFFFFFFFFFFFFFFFFFFF
310
FFFFFFFFFFFFFFFFFFFFFFFFFFFFFFFFF000FFFFFFFFFFFFFFFFFFFFFFFFFFFF
310
FFFFFFFFFFFFFFFFFFFFFFFFFFFFFFFFFFFFFFFFFFFFFFFFFFFFFFFFFFFFFFFF
310
FFFFFFFFFFFFFFFFFFFFFFFFFFFFFFFFFFFFFFFFFFFFFFFFFFFFFFFFFFFFFFFF
310
FFFFFFFFFFFFFFFFF000FFFFFFFFFFFFFFFFFFFFFFFFFFFFFFFFFFFFFFFFFFFF
310
FFFFFFFFFFFFFFFFFFFFFFFFFFFFFFFFFFFFFFFFFFFFFFFFFFFFFFFFFFFFFFFF
310
FFFFFFFFFFFFFFFFFFFFFFFFFFFFFFFFFFFFFFFFFFFFFFFFFFFFFFFFFFFFFFFF
310
F000FFFFFFFFFFFFFFFFFFFFFFFFFFFFFFFFFFFFFFFFFFFFFFFFFFFFFFFFFFFF
310
FFFFFFFFFFFFFFFFFFFFFFFFFFFFFFFFFFFFFFFFFFFFFFFFFFFFFFFFFFFFFFFF
310
FFFFFFFFFFFFFFFFFFFFFFFFFFFFFFFFFFFFFFFFFFFFFFFFF000FFFFFFFFFFFF
310
FFFFFFFFFFFFFFFFFFFFFFFFFFFFFFFFFFFFFFFFFFFFFFFFFFFFFFFFFFFFFFFF
310
FFFFFFFFFFFFFFFFFFFFFFFFFFFFFFFFFFFFFFFFFFFFFFFFFFFFFFFFFFFFFFFF
310
FFFFFFFFFFFFFFFFFFFFFFFFFFFFFFFFF000FFFFFFFFFFFFFFFFFFFFFFFFFFFF
310
FFFFFFFFFFFFFFFFFFFFFFFFFFFFFFFFFFFFFFFFFFFFFFFFFFFFFFFFFFFFFFFF
310
FFFFFFFFFFFFFFFFFFFFFFFFFFFFFFFFFFFFFFFFFFFFFFFFFFFFFFFFFFFFFFFF
310
FFFFFFFFFFFFFFFFF000FFFFFFFFFFFFFFFFFFFFFFFFFFFFFFFFFFFFFFFFFFFF
310
FFFFFFFFFFFFFFFFFFFFFFFFFFFFFFFFFFFFFFFFFFFFFFFFFFFFFFFFFFFFFFFF
310
FFFFFFFFFFFFFFFFFFFFFFFFFFFFFFFFFFFFFFFFFFFFFFFFFFFFFFFFFFFFFFFF
310
F000FFFFFFFFFFFFFFFFFFFFFFFFFFFFFFFFFFFFFFFFFFFFFFFFFFFFFFFFFFFF
310
FFFFFFFFFFFFFFFFFFFFFFFFFFFFFFFFFFFFFFFFFFFFFFFFFFFFFFFFFFFFFFFF
310
FFFFFFFFFFFFFFFFFFFFFFFFFFFFFFFFFFFFFFFFFFFFFFFFF000FFFFFFFFFFFF
310
FFFFFFFFFFFFFFFFFFFFFFFFFFFFFFFFFFFFFFFFFFFFFFFFFFFFFFFFFFFFFFFF
310
FFFFFFFFFFFFFFFFFFFFFFFFFFFFFFFFFFFFFFFFFFFFFFFFFFFFFFFFFFFFFFFF
310
FFFFFFFFFFFFFFFFFFFFFFFFFFFFFFFFF0000000000000000000000000000000
310
0000000000000000000000000000000000000000000000000000000000000000
310
0000000000000000000000000000000000000000000000000000000000000000
310
0000000000000000000000000000000000000000000000000000000000000000
310
0000000000000000000000000000000000000000000000000000000000000000
310
0000000000000000000000000000000000000000000000000000000000000000
310
0000000000000000000000000000000000000000000000000000000000000000
310
0000000000000000000000000000000000000000000000000000000000000000
310
0000000000000000000000000000000000000000000000000000000000000000
310
0000000000000000000000000000000000000000000000000000000000000000
310
0000000000000000000000000000000000000000000000000000000000000000
310
0000000000000000000000000000000000000000000000000000000000000000
310
0000000000000000000000000000000000000000000000000000000000000000
310
0000000000000000000000000000000000000000000000000000000000000000
310
0000000000000000000000000000000000000000000000000000000000000000
310
0000000000000000000000000000000000000000000000000000000000000000
  1
OLE
  0
ENDSEC
  0
SECTION
  2
OBJECTS
  0
DICTIONARY
  5
C
330
0
100
AcDbDictionary
281
     1
  3
ACAD_GROUP
350
D
  3
ACAD_LAYOUT
350
1A
  3
ACAD_MLINESTYLE
350
17
  3
ACAD_PLOTSETTINGS
350
19
  3
ACAD_PLOTSTYLENAME
350
E
  3
ACAD_SCALELIST
350
47
  0
DICTIONARY
  5
D
102
{ACAD_REACTORS
330
C
102
}
330
C
100
AcDbDictionary
281
     1
  0
DICTIONARY
  5
1A
102
{ACAD_REACTORS
330
C
102
}
330
C
100
AcDbDictionary
281
     1
  3
Layout1
350
1E
  3
Layout2
350
26
  3
Model
350
22
  0
DICTIONARY
  5
17
102
{ACAD_REACTORS
330
C
102
}
330
C
100
AcDbDictionary
281
     1
  3
Standard
350
18
  0
DICTIONARY
  5
19
102
{ACAD_REACTORS
330
C
102
}
330
C
100
AcDbDictionary
281
     1
  0
ACDBDICTIONARYWDFLT
  5
E
102
{ACAD_REACTORS
330
C
102
}
330
C
100
AcDbDictionary
281
     1
  3
Normal
350
F
100
AcDbDictionaryWithDefault
340
F
  0
DICTIONARY
  5
47
102
{ACAD_REACTORS
330
C
102
}
330
C
100
AcDbDictionary
281
     1
  3
A0
350
48
  3
A1
350
49
  3
A2
350
4A
  3
A3
350
4B
  3
A4
350
4C
  3
A5
350
4D
  3
A6
350
4E
  3
A7
350
4F
  3
A8
350
50
  3
A9
350
51
  3
B0
350
52
  3
B1
350
53
  3
B2
350
54
  3
B3
350
55
  3
B4
350
56
  3
B5
350
57
  3
B6
350
58
  3
B7
350
59
  3
B8
350
5A
  3
B9
350
5B
  3
C0
350
5C
  3
C1
350
5D
  3
C2
350
5E
  3
C3
350
5F
  3
C4
350
60
  3
C5
350
61
  3
C6
350
62
  3
C7
350
63
  3
C8
350
64
  3
C9
350
65
  3
D0
350
66
  3
D1
350
67
  3
D2
350
68
  0
LAYOUT
  5
1E
102
{ACAD_REACTORS
330
1A
102
}
330
1A
100
AcDbPlotSettings
  1

  2
none_device
  4

  6

 40
0.0
 41
0.0
 42
0.0
 43
0.0
 44
0.0
 45
0.0
 46
0.0
 47
0.0
 48
0.0
 49
0.0
140
0.0
141
0.0
142
1.0
143
1.0
 70
   688
 72
     1
 73
     0
 74
     5
  7

 75
    16
147
1.0
148
0.0
149
0.0
100
AcDbLayout
  1
Layout1
 70
     1
 71
     1
 10
0.0
 20
0.0
 11
420.0
 21
297.0
 12
0.0
 22
0.0
 32
0.0
 14
1.0000000000E+20
 24
1.0000000000E+20
 34
1.0000000000E+20
 15
-1.0000000000E+20
 25
-1.0000000000E+20
 35
-1.0000000000E+20
146
0.0
 13
0.0
 23
0.0
 33
0.0
 16
1.0
 26
0.0
 36
0.0
 17
0.0
 27
1.0
 37
0.0
 76
     0
330
1B
  0
LAYOUT
  5
26
102
{ACAD_REACTORS
330
1A
102
}
330
1A
100
AcDbPlotSettings
  1

  2
none_device
  4

  6

 40
0.0
 41
0.0
 42
0.0
 43
0.0
 44
0.0
 45
0.0
 46
0.0
 47
0.0
 48
0.0
 49
0.0
140
0.0
141
0.0
142
1.0
143
1.0
 70
   688
 72
     1
 73
     0
 74
     5
  7

 75
    16
147
1.0
148
0.0
149
0.0
100
AcDbLayout
  1
Layout2
 70
     1
 71
     2
 10
0.0
 20
0.0
 11
0.0
 21
0.0
 12
0.0
 22
0.0
 32
0.0
 14
0.0
 24
0.0
 34
0.0
 15
0.0
 25
0.0
 35
0.0
146
0.0
 13
0.0
 23
0.0
 33
0.0
 16
1.0
 26
0.0
 36
0.0
 17
0.0
 27
1.0
 37
0.0
 76
     0
330
23
  0
LAYOUT
  5
22
102
{ACAD_REACTORS
330
1A
102
}
330
1A
100
AcDbPlotSettings
  1

  2
none_device
  4
Letter_(8.50_x_11.00_Inches)
  6

 40
6.35
 41
6.35
 42
6.35000508
 43
6.35000508
 44
215.9
 45
279.4
 46
0.0
 47
0.0
 48
0.0
 49
0.0
140
0.0
141
0.0
142
1.0
143
1.0
 70
  1712
 72
     1
 73
     0
 74
     0
  7

 75
     0
147
1.0
148
0.0
149
0.0
100
AcDbLayout
  1
Model
 70
     1
 71
     0
 10
0.0
 20
0.0
 11
297.0
 21
210.0
 12
0.0
 22
0.0
 32
0.0
 14
0.0
 24
0.0
 34
0.0
 15
297.0
 25
210.0
 35
0.0
146
0.0
 13
0.0
 23
0.0
 33
0.0
 16
1.0
 26
0.0
 36
0.0
 17
0.0
 27
1.0
 37
0.0
 76
     0
330
1F
331
29
  0
MLINESTYLE
  5
18
102
{ACAD_REACTORS
330
17
102
}
330
17
100
AcDbMlineStyle
  2
Standard
 70
     0
  3

 62
   256
 51
90.0
 52
90.0
 71
     2
 49
0.5
 62
   256
  6
BYLAYER
 49
-0.5
 62
   256
  6
BYLAYER
  0
ACDBPLACEHOLDER
  5
F
102
{ACAD_REACTORS
330
E
102
}
330
E
  0
SCALE
  5
48
102
{ACAD_REACTORS
330
47
102
}
330
47
100
AcDbScale
 70
     0
300
1:1
140
1.0
141
1.0
290
     1
  0
SCALE
  5
49
102
{ACAD_REACTORS
330
47
102
}
330
47
100
AcDbScale
 70
     0
300
1:2
140
1.0
141
2.0
290
     0
  0
SCALE
  5
4A
102
{ACAD_REACTORS
330
47
102
}
330
47
100
AcDbScale
 70
     0
300
1:4
140
1.0
141
4.0
290
     0
  0
SCALE
  5
4B
102
{ACAD_REACTORS
330
47
102
}
330
47
100
AcDbScale
 70
     0
300
1:5
140
1.0
141
5.0
290
     0
  0
SCALE
  5
4C
102
{ACAD_REACTORS
330
47
102
}
330
47
100
AcDbScale
 70
     0
300
1:8
140
1.0
141
8.0
290
     0
  0
SCALE
  5
4D
102
{ACAD_REACTORS
330
47
102
}
330
47
100
AcDbScale
 70
     0
300
1:10
140
1.0
141
10.0
290
     0
  0
SCALE
  5
4E
102
{ACAD_REACTORS
330
47
102
}
330
47
100
AcDbScale
 70
     0
300
1:16
140
1.0
141
16.0
290
     0
  0
SCALE
  5
4F
102
{ACAD_REACTORS
330
47
102
}
330
47
100
AcDbScale
 70
     0
300
1:20
140
1.0
141
20.0
290
     0
  0
SCALE
  5
50
102
{ACAD_REACTORS
330
47
102
}
330
47
100
AcDbScale
 70
     0
300
1:30
140
1.0
141
30.0
290
     0
  0
SCALE
  5
51
102
{ACAD_REACTORS
330
47
102
}
330
47
100
AcDbScale
 70
     0
300
1:40
140
1.0
141
40.0
290
     0
  0
SCALE
  5
52
102
{ACAD_REACTORS
330
47
102
}
330
47
100
AcDbScale
 70
     0
300
1:50
140
1.0
141
50.0
290
     0
  0
SCALE
  5
53
102
{ACAD_REACTORS
330
47
102
}
330
47
100
AcDbScale
 70
     0
300
1:100
140
1.0
141
100.0
290
     0
  0
SCALE
  5
54
102
{ACAD_REACTORS
330
47
102
}
330
47
100
AcDbScale
 70
     0
300
2:1
140
2.0
141
1.0
290
     0
  0
SCALE
  5
55
102
{ACAD_REACTORS
330
47
102
}
330
47
100
AcDbScale
 70
     0
300
4:1
140
4.0
141
1.0
290
     0
  0
SCALE
  5
56
102
{ACAD_REACTORS
330
47
102
}
330
47
100
AcDbScale
 70
     0
300
8:1
140
8.0
141
1.0
290
     0
  0
SCALE
  5
57
102
{ACAD_REACTORS
330
47
102
}
330
47
100
AcDbScale
 70
     0
300
10:1
140
10.0
141
1.0
290
     0
  0
SCALE
  5
58
102
{ACAD_REACTORS
330
47
102
}
330
47
100
AcDbScale
 70
     0
300
100:1
140
100.0
141
1.0
290
     0
  0
SCALE
  5
59
102
{ACAD_REACTORS
330
47
102
}
330
47
100
AcDbScale
 70
     0
300
1/128" = 1'-0"
140
0.0078125
141
12.0
290
     0
  0
SCALE
  5
5A
102
{ACAD_REACTORS
330
47
102
}
330
47
100
AcDbScale
 70
     0
300
1/64" = 1'-0"
140
0.015625
141
12.0
290
     0
  0
SCALE
  5
5B
102
{ACAD_REACTORS
330
47
102
}
330
47
100
AcDbScale
 70
     0
300
1/32" = 1'-0"
140
0.03125
141
12.0
290
     0
  0
SCALE
  5
5C
102
{ACAD_REACTORS
330
47
102
}
330
47
100
AcDbScale
 70
     0
300
1/16" = 1'-0"
140
0.0625
141
12.0
290
     0
  0
SCALE
  5
5D
102
{ACAD_REACTORS
330
47
102
}
330
47
100
AcDbScale
 70
     0
300
3/32" = 1'-0"
140
0.09375
141
12.0
290
     0
  0
SCALE
  5
5E
102
{ACAD_REACTORS
330
47
102
}
330
47
100
AcDbScale
 70
     0
300
1/8" = 1'-0"
140
0.125
141
12.0
290
     0
  0
SCALE
  5
5F
102
{ACAD_REACTORS
330
47
102
}
330
47
100
AcDbScale
 70
     0
300
3/16" = 1'-0"
140
0.1875
141
12.0
290
     0
  0
SCALE
  5
60
102
{ACAD_REACTORS
330
47
102
}
330
47
100
AcDbScale
 70
     0
300
1/4" = 1'-0"
140
0.25
141
12.0
290
     0
  0
SCALE
  5
61
102
{ACAD_REACTORS
330
47
102
}
330
47
100
AcDbScale
 70
     0
300
3/8" = 1'-0"
140
0.375
141
12.0
290
     0
  0
SCALE
  5
62
102
{ACAD_REACTORS
330
47
102
}
330
47
100
AcDbScale
 70
     0
300
1/2" = 1'-0"
140
0.5
141
12.0
290
     0
  0
SCALE
  5
63
102
{ACAD_REACTORS
330
47
102
}
330
47
100
AcDbScale
 70
     0
300
3/4" = 1'-0"
140
0.75
141
12.0
290
     0
  0
SCALE
  5
64
102
{ACAD_REACTORS
330
47
102
}
330
47
100
AcDbScale
 70
     0
300
1" = 1'-0"
140
1.0
141
12.0
290
     0
  0
SCALE
  5
65
102
{ACAD_REACTORS
330
47
102
}
330
47
100
AcDbScale
 70
     0
300
1-1/2" = 1'-0"
140
1.5
141
12.0
290
     0
  0
SCALE
  5
66
102
{ACAD_REACTORS
330
47
102
}
330
47
100
AcDbScale
 70
     0
300
3" = 1'-0"
140
3.0
141
12.0
290
     0
  0
SCALE
  5
67
102
{ACAD_REACTORS
330
47
102
}
330
47
100
AcDbScale
 70
     0
300
6" = 1'-0"
140
6.0
141
12.0
290
     0
  0
SCALE
  5
68
102
{ACAD_REACTORS
330
47
102
}
330
47
100
AcDbScale
 70
     0
300
1'-0" = 1'-0"
140
12.0
141
12.0
290
     0
  0
ENDSEC
  0
EOF
