  0
SECTION
  2
HEADER
  9
$ACADVER
  1
AC1015
  9
$ACADMAINTVER
 70
     6
  9
$DWGCODEPAGE
  3
ANSI_1252
  9
$INSBASE
 10
0.0
 20
0.0
 30
0.0
  9
$EXTMIN
 10
0.0
 20
0.0
 30
0.0
  9
$EXTMAX
 10
297.0
 20
210.0
 30
0.0
  9
$LIMMIN
 10
0.0
 20
0.0
  9
$LIMMAX
 10
297.0
 20
210.0
  9
$ORTHOMODE
 70
     0
  9
$REGENMODE
 70
     1
  9
$FILLMODE
 70
     1
  9
$QTEXTMODE
 70
     0
  9
$MIRRTEXT
 70
     1
  9
$LTSCALE
 40
1.0
  9
$ATTMODE
 70
     1
  9
$TEXTSIZE
 40
2.0
  9
$TRACEWID
 40
1.0
  9
$TEXTSTYLE
  7
Standard
  9
$CLAYER
  8
0
  9
$CELTYPE
  6
ByLayer
  9
$CECOLOR
 62
   256
  9
$CELTSCALE
 40
1.0
  9
$DISPSILH
 70
     0
  9
$DIMSCALE
 40
1.0
  9
$DIMASZ
 40
3.0
  9
$DIMEXO
 40
0.0
  9
$DIMDLI
 40
3.75
  9
$DIMRND
 40
0.0
  9
$DIMDLE
 40
0.0
  9
$DIMEXE
 40
1.0
  9
$DIMTP
 40
0.0
  9
$DIMTM
 40
0.0
  9
$DIMTXT
 40
2.0
  9
$DIMCEN
 40
2.5
  9
$DIMTSZ
 40
0.0
  9
$DIMTOL
 70
     0
  9
$DIMLIM
 70
     0
  9
$DIMTIH
 70
     1
  9
$DIMTOH
 70
     1
  9
$DIMSE1
 70
     0
  9
$DIMSE2
 70
     0
  9
$DIMTAD
 70
     1
  9
$DIMZIN
 70
     0
  9
$DIMBLK
  1

  9
$DIMASO
 70
     1
  9
$DIMSHO
 70
     1
  9
$DIMPOST
  1

  9
$DIMAPOST
  1

  9
$DIMALT
 70
     0
  9
$DIMALTD
 70
     3
  9
$DIMALTF
 40
0.0393700787
  9
$DIMLFAC
 40
1.0
  9
$DIMTOFL
 70
     1
  9
$DIMTVP
 40
0.0
  9
$DIMTIX
 70
     0
  9
$DIMSOXD
 70
     0
  9
$DIMSAH
 70
     0
  9
$DIMBLK1
  1

  9
$DIMBLK2
  1

  9
$DIMSTYLE
  2
ISO-25
  9
$DIMCLRD
 70
     0
  9
$DIMCLRE
 70
     0
  9
$DIMCLRT
 70
     0
  9
$DIMTFAC
 40
1.0
  9
$DIMGAP
 40
1.524
  9
$DIMJUST
 70
     0
  9
$DIMSD1
 70
     0
  9
$DIMSD2
 70
     0
  9
$DIMTOLJ
 70
     0
  9
$DIMTZIN
 70
     0
  9
$DIMALTZ
 70
     0
  9
$DIMALTTZ
 70
     0
  9
$DIMUPT
 70
     0
  9
$DIMDEC
 70
     2
  9
$DIMTDEC
 70
     3
  9
$DIMALTU
 70
     2
  9
$DIMALTTD
 70
     3
  9
$DIMTXSTY
  7
Standard
  9
$DIMAUNIT
 70
     0
  9
$DIMADEC
 70
     2
  9
$DIMALTRND
 40
0.0
  9
$DIMAZIN
 70
     0
  9
$DIMDSEP
 70
    44
  9
$DIMATFIT
 70
     3
  9
$DIMFRAC
 70
     0
  9
$DIMLDRBLK
  1

  9
$DIMLUNIT
 70
     2
  9
$DIMLWD
 70
    -2
  9
$DIMLWE
 70
    -2
  9
$DIMTMOVE
 70
     0
  9
$LUNITS
 70
     2
  9
$LUPREC
 70
     2
  9
$SKETCHINC
 40
1.0
  9
$FILLETRAD
 40
10.0
  9
$AUNITS
 70
     0
  9
$AUPREC
 70
     2
  9
$MENU
  1
.
  9
$ELEVATION
 40
0.0
  9
$PELEVATION
 40
0.0
  9
$THICKNESS
 40
0.0
  9
$LIMCHECK
 70
     0
  9
$CHAMFERA
 40
0.0
  9
$CHAMFERB
 40
0.0
  9
$CHAMFERC
 40
0.0
  9
$CHAMFERD
 40
0.0
  9
$SKPOLY
 70
     0
  9
$TDCREATE
 40
2458184.381708773
  9
$TDUCREATE
 40
2458184.340042106
  9
$TDUPDATE
 40
2458184.381709988
  9
$TDUUPDATE
 40
2458184.340043322
  9
$TDINDWG
 40
0.0000000116
  9
$TDUSRTIMER
 40
0.0000000116
  9
$USRTIMER
 70
     1
  9
$ANGBASE
 50
0.0
  9
$ANGDIR
 70
     0
  9
$PDMODE
 70
     0
  9
$PDSIZE
 40
-1.0
  9
$PLINEWID
 40
0.0
  9
$SPLFRAME
 70
     0
  9
$SPLINETYPE
 70
     6
  9
$SPLINESEGS
 70
     8
  9
$HANDSEED
  5
17A
  9
$SURFTAB1
 70
     6
  9
$SURFTAB2
 70
     6
  9
$SURFTYPE
 70
     6
  9
$SURFU
 70
     6
  9
$SURFV
 70
     6
  9
$UCSBASE
  2

  9
$UCSNAME
  2

  9
$UCSORG
 10
0.0
 20
0.0
 30
0.0
  9
$UCSXDIR
 10
1.0
 20
0.0
 30
0.0
  9
$UCSYDIR
 10
0.0
 20
1.0
 30
0.0
  9
$UCSORTHOREF
  2

  9
$UCSORTHOVIEW
 70
     0
  9
$UCSORGTOP
 10
0.0
 20
0.0
 30
0.0
  9
$UCSORGBOTTOM
 10
0.0
 20
0.0
 30
0.0
  9
$UCSORGLEFT
 10
0.0
 20
0.0
 30
0.0
  9
$UCSORGRIGHT
 10
0.0
 20
0.0
 30
0.0
  9
$UCSORGFRONT
 10
0.0
 20
0.0
 30
0.0
  9
$UCSORGBACK
 10
0.0
 20
0.0
 30
0.0
  9
$PUCSBASE
  2

  9
$PUCSNAME
  2

  9
$PUCSORG
 10
0.0
 20
0.0
 30
0.0
  9
$PUCSXDIR
 10
1.0
 20
0.0
 30
0.0
  9
$PUCSYDIR
 10
0.0
 20
1.0
 30
0.0
  9
$PUCSORTHOREF
  2

  9
$PUCSORTHOVIEW
 70
     0
  9
$PUCSORGTOP
 10
0.0
 20
0.0
 30
0.0
  9
$PUCSORGBOTTOM
 10
0.0
 20
0.0
 30
0.0
  9
$PUCSORGLEFT
 10
0.0
 20
0.0
 30
0.0
  9
$PUCSORGRIGHT
 10
0.0
 20
0.0
 30
0.0
  9
$PUCSORGFRONT
 10
0.0
 20
0.0
 30
0.0
  9
$PUCSORGBACK
 10
0.0
 20
0.0
 30
0.0
  9
$USERI1
 70
     0
  9
$USERI2
 70
     0
  9
$USERI3
 70
     0
  9
$USERI4
 70
     0
  9
$USERI5
 70
     0
  9
$USERR1
 40
0.0
  9
$USERR2
 40
0.0
  9
$USERR3
 40
0.0
  9
$USERR4
 40
0.0
  9
$USERR5
 40
0.0
  9
$WORLDVIEW
 70
     1
  9
$SHADEDGE
 70
     3
  9
$SHADEDIF
 70
    70
  9
$TILEMODE
 70
     1
  9
$MAXACTVP
 70
    64
  9
$PINSBASE
 10
0.0
 20
0.0
 30
0.0
  9
$PLIMCHECK
 70
     0
  9
$PEXTMIN
 10
1.0000000000E+20
 20
1.0000000000E+20
 30
1.0000000000E+20
  9
$PEXTMAX
 10
-1.0000000000E+20
 20
-1.0000000000E+20
 30
-1.0000000000E+20
  9
$PLIMMIN
 10
0.0
 20
0.0
  9
$PLIMMAX
 10
420.0
 20
297.0
  9
$UNITMODE
 70
     0
  9
$VISRETAIN
 70
     1
  9
$PLINEGEN
 70
     0
  9
$PSLTSCALE
 70
     1
  9
$TREEDEPTH
 70
  3020
  9
$CMLSTYLE
  2
Standard
  9
$CMLJUST
 70
     0
  9
$CMLSCALE
 40
20.0
  9
$PROXYGRAPHICS
 70
     1
  9
$MEASUREMENT
 70
     1
  9
$CELWEIGHT
370
    -1
  9
$ENDCAPS
280
     0
  9
$JOINSTYLE
280
     0
  9
$LWDISPLAY
290
     1
  9
$INSUNITS
 70
     4
  9
$HYPERLINKBASE
  1

  9
$STYLESHEET
  1

  9
$XEDIT
290
     1
  9
$CEPSNTYPE
380
     0
  9
$PSTYLEMODE
290
     1
  9
$FINGERPRINTGUID
  2
{F2511896-DA93-42A9-9ADA-BDB5DA4FB74F}
  9
$VERSIONGUID
  2
{FAEB1C32-E019-11D5-929B-00C0DF256EC4}
  9
$EXTNAMES
290
     1
  9
$PSVPSCALE
 40
0.0
  9
$OLESTARTUP
290
     0
  0
ENDSEC
  0
SECTION
  2
CLASSES
  0
CLASS
  1
ACDBDICTIONARYWDFLT
  2
AcDbDictionaryWithDefault
  3
ObjectDBX Classes
 90
        0
280
     0
281
     0
  0
CLASS
  1
VISUALSTYLE
  2
AcDbVisualStyle
  3
ObjectDBX Classes
 90
     4095
280
     0
281
     0
  0
CLASS
  1
MATERIAL
  2
AcDbMaterial
  3
ObjectDBX Classes
 90
     1153
280
     0
281
     0
  0
CLASS
  1
SCALE
  2
AcDbScale
  3
ObjectDBX Classes
 90
     1153
280
     0
281
     0
  0
CLASS
  1
TABLESTYLE
  2
AcDbTableStyle
  3
ObjectDBX Classes
 90
     4095
280
     0
281
     0
  0
CLASS
  1
MLEADERSTYLE
  2
AcDbMLeaderStyle
  3
ACDB_MLEADERSTYLE_CLASS
 90
     4095
280
     0
281
     0
  0
CLASS
  1
SUN
  2
AcDbSun
  3
SCENEOE
 90
     1153
280
     0
281
     0
  0
CLASS
  1
ACDBPLACEHOLDER
  2
AcDbPlaceHolder
  3
ObjectDBX Classes
 90
        0
280
     0
281
     0
  0
CLASS
  1
LAYOUT
  2
AcDbLayout
  3
ObjectDBX Classes
 90
        0
280
     0
281
     0
  0
ENDSEC
  0
SECTION
  2
TABLES
  0
TABLE
  2
VPORT
  5
8
330
0
100
AcDbSymbolTable
 70
     1
  0
VPORT
  5
29
330
8
100
AcDbSymbolTableRecord
100
AcDbViewportTableRecord
  2
*Active
 70
     0
 10
0.0
 20
0.0
 11
1.0
 21
1.0
 12
148.5
 22
105.0
 13
0.0
 23
0.0
 14
10.0
 24
10.0
 15
10.0
 25
10.0
 16
0.0
 26
0.0
 36
1.0
 17
0.0
 27
0.0
 37
0.0
 40
210.0
 41
1.4142857143
 42
50.0
 43
0.0
 44
0.0
 50
0.0
 51
0.0
 71
     0
 72
  2000
 73
     1
 74
     3
 75
     0
 76
     0
 77
     0
 78
     0
281
     0
 65
     1
110
0.0
120
0.0
130
0.0
111
1.0
121
0.0
131
0.0
112
0.0
122
1.0
132
0.0
 79
     0
146
0.0
  0
ENDTAB
  0
TABLE
  2
LTYPE
  5
5
330
0
100
AcDbSymbolTable
 70
     6
  0
LTYPE
  5
14
330
5
100
AcDbSymbolTableRecord
100
AcDbLinetypeTableRecord
  2
ByBlock
 70
     0
  3

 72
    65
 73
     0
 40
0.0
  0
LTYPE
  5
15
330
5
100
AcDbSymbolTableRecord
100
AcDbLinetypeTableRecord
  2
ByLayer
 70
     0
  3

 72
    65
 73
     0
 40
0.0
  0
LTYPE
  5
16
330
5
100
AcDbSymbolTableRecord
100
AcDbLinetypeTableRecord
  2
Continuous
 70
     0
  3
Solid line
 72
    65
 73
     0
 40
0.0
  0
LTYPE
  5
6E
330
5
100
AcDbSymbolTableRecord
100
AcDbLinetypeTableRecord
  2
HIDDEN
 70
     0
  3
Hidden __ __ __ __ __ __ __ __ __ __ __ __ __ __
 72
    65
 73
     2
 40
1.905
 49
1.27
 74
     0
 49
-0.635
 74
     0
  0
LTYPE
  5
6F
330
5
100
AcDbSymbolTableRecord
100
AcDbLinetypeTableRecord
  2
PHANTOM
 70
     0
  3
Phantom ______  __  __  ______  __  __  ______
 72
    65
 73
     6
 40
12.7
 49
6.35
 74
     0
 49
-1.27
 74
     0
 49
1.27
 74
     0
 49
-1.27
 74
     0
 49
1.27
 74
     0
 49
-1.27
 74
     0
  0
LTYPE
  5
70
330
5
100
AcDbSymbolTableRecord
100
AcDbLinetypeTableRecord
  2
CENTER
 70
     0
  3
Center ____ _ ____ _ ____ _ ____ _ ____ _ ____
 72
    65
 73
     4
 40
10.16
 49
6.35
 74
     0
 49
-1.27
 74
     0
 49
1.27
 74
     0
 49
-1.27
 74
     0
  0
LTYPE
  5
71
330
5
100
AcDbSymbolTableRecord
100
AcDbLinetypeTableRecord
  2
CENTERX2
 70
     0
  3
Center (2x) ________  __  ________  __  _____
 72
    65
 73
     4
 40
20.32
 49
12.7
 74
     0
 49
-2.54
 74
     0
 49
2.54
 74
     0
 49
-2.54
 74
     0
  0
LTYPE
  5
72
330
5
100
AcDbSymbolTableRecord
100
AcDbLinetypeTableRecord
  2
DOT2
 70
     0
  3
Dot (.5x) ........................................
 72
    65
 73
     2
 40
0.635
 49
0.0
 74
     0
 49
-0.635
 74
     0
  0
ENDTAB
  0
TABLE
  2
LAYER
  5
2
330
0
100
AcDbSymbolTable
 70
     5
  0
LAYER
  5
10
330
2
100
AcDbSymbolTableRecord
100
AcDbLayerTableRecord
  2
0
 70
     0
 62
     7
  6
Continuous
370
    -3
390
F
  0
LAYER
  5
73
330
2
100
AcDbSymbolTableRecord
100
AcDbLayerTableRecord
  2
FORMAT
 70
     0
 62
     7
  6
Continuous
370
    -3
390
F
  0
LAYER
  5
74
330
2
100
AcDbSymbolTableRecord
100
AcDbLayerTableRecord
  2
VERMASSUNG
 70
     0
 62
     7
  6
Continuous
370
    -3
390
F
  0
LAYER
  5
75
330
2
100
AcDbSymbolTableRecord
100
AcDbLayerTableRecord
  2
KOPF_DÜNN
 70
     0
 62
     7
  6
Continuous
370
    -3
390
F
  0
LAYER
  5
76
330
2
100
AcDbSymbolTableRecord
100
AcDbLayerTableRecord
  2
KOPF_DICK
 70
     0
 62
     7
  6
Continuous
370
    25
390
F
  0
ENDTAB
  0
TABLE
  2
STYLE
  5
3
330
0
100
AcDbSymbolTable
 70
     2
  0
STYLE
  5
11
330
3
100
AcDbSymbolTableRecord
100
AcDbTextStyleTableRecord
  2
Standard
 70
     0
 40
0.0
 41
1.0
 50
0.0
 71
     0
 42
2.0
  3
txt
  4

  0
STYLE
  5
77
330
3
100
AcDbSymbolTableRecord
100
AcDbTextStyleTableRecord
  2
SLDTEXTSTYLE0
 70
     0
 40
0.0
 41
0.7
 50
0.0
 71
     0
 42
2.0
  3
TXT
  4

  0
ENDTAB
  0
TABLE
  2
VIEW
  5
6
330
0
100
AcDbSymbolTable
 70
     0
  0
ENDTAB
  0
TABLE
  2
UCS
  5
7
330
0
100
AcDbSymbolTable
 70
     0
  0
ENDTAB
  0
TABLE
  2
APPID
  5
9
330
0
100
AcDbSymbolTable
 70
     1
  0
APPID
  5
12
330
9
100
AcDbSymbolTableRecord
100
AcDbRegAppTableRecord
  2
ACAD
 70
     0
  0
ENDTAB
  0
TABLE
  2
DIMSTYLE
  5
A
330
0
100
AcDbSymbolTable
 70
     4
100
AcDbDimStyleTable
  0
DIMSTYLE
105
27
330
A
100
AcDbSymbolTableRecord
100
AcDbDimStyleTableRecord
  2
ISO-25
 70
     0
 41
2.5
 42
0.625
 43
3.75
 44
1.25
 73
     0
 74
     0
 77
     1
 78
     8
140
2.5
141
2.5
143
0.0393700787
147
0.625
171
     3
172
     1
178
     0
271
     2
272
     2
274
     3
278
    44
283
     0
284
     8
340
11
  0
DIMSTYLE
105
DA
102
{ACAD_REACTORS
330
D9
102
}
330
A
100
AcDbSymbolTableRecord
100
AcDbDimStyleTableRecord
  2
SLDDIMSTYLE0
 70
     0
 41
3.0
 44
0.0
 45
0.000000001
 73
     0
 74
     0
 76
     1
 77
     1
 78
    12
 79
     3
140
2.0
147
0.5
173
     1
178
     0
271
     2
272
     3
276
     2
282
     1
284
    12
340
77
  0
DIMSTYLE
105
E6
102
{ACAD_REACTORS
330
E5
102
}
330
A
100
AcDbSymbolTableRecord
100
AcDbDimStyleTableRecord
  2
SLDDIMSTYLE1
 70
     0
 41
3.0
 44
0.0
 73
     0
 74
     0
 77
     1
 78
    12
 79
     3
140
2.0
147
0.5
173
     1
178
     0
179
     2
272
     3
276
     2
284
    12
340
77
  0
DIMSTYLE
105
F0
102
{ACAD_REACTORS
330
EF
102
}
330
A
100
AcDbSymbolTableRecord
100
AcDbDimStyleTableRecord
  2
SLDDIMSTYLE2
 70
     0
 41
3.0
 44
0.0
 45
0.000000001
 73
     0
 74
     0
 77
     1
 78
    12
 79
     3
140
2.0
147
0.5
173
     1
178
     0
271
     2
272
     3
276
     2
284
    12
340
77
  0
ENDTAB
  0
TABLE
  2
BLOCK_RECORD
  5
1
330
0
100
AcDbSymbolTable
 70
     4
  0
BLOCK_RECORD
  5
1F
330
1
100
AcDbSymbolTableRecord
100
AcDbBlockTableRecord
  2
*Model_Space
340
22
  0
BLOCK_RECORD
  5
1B
330
1
100
AcDbSymbolTableRecord
100
AcDbBlockTableRecord
  2
*Paper_Space
340
1E
  0
BLOCK_RECORD
  5
23
330
1
100
AcDbSymbolTableRecord
100
AcDbBlockTableRecord
  2
*Paper_Space0
340
26
  0
BLOCK_RECORD
  5
DB
330
1
100
AcDbSymbolTableRecord
100
AcDbBlockTableRecord
  2
_D
340
0
  0
BLOCK_RECORD
  5
E7
330
1
100
AcDbSymbolTableRecord
100
AcDbBlockTableRecord
  2
_D_1
340
0
  0
BLOCK_RECORD
  5
F1
330
1
100
AcDbSymbolTableRecord
100
AcDbBlockTableRecord
  2
_D_2
340
0
  0
ENDTAB
  0
ENDSEC
  0
SECTION
  2
BLOCKS
  0
BLOCK
  5
20
330
1F
100
AcDbEntity
  8
0
100
AcDbBlockBegin
  2
*Model_Space
 70
     0
 10
0.0
 20
0.0
 30
0.0
  3
*Model_Space
  1

  0
ENDBLK
  5
21
330
1F
100
AcDbEntity
  8
0
100
AcDbBlockEnd
  0
BLOCK
  5
1C
330
1B
100
AcDbEntity
 67
     1
  8
0
100
AcDbBlockBegin
  2
*Paper_Space
 70
     0
 10
0.0
 20
0.0
 30
0.0
  3
*Paper_Space
  1

  0
ENDBLK
  5
1D
330
1B
100
AcDbEntity
 67
     1
  8
0
100
AcDbBlockEnd
  0
BLOCK
  5
24
330
23
100
AcDbEntity
  8
0
100
AcDbBlockBegin
  2
*Paper_Space0
 70
     0
 10
0.0
 20
0.0
 30
0.0
  3
*Paper_Space0
  1

  0
ENDBLK
  5
25
330
23
100
AcDbEntity
  8
0
100
AcDbBlockEnd
  0
BLOCK
  5
DC
330
DB
100
AcDbEntity
  8
0
100
AcDbBlockBegin
  2
_D
 70
     0
 10
0.0
 20
0.0
 30
0.0
  3
_D
  1

  0
SOLID
  5
DE
330
DB
100
AcDbEntity
  8
VERMASSUNG
100
AcDbTrace
 10
177.2593984962
 20
175.769799883
 30
0.0
 11
176.8093984962
 21
172.769799883
 31
0.0
 12
177.7093984962
 22
172.769799883
 32
0.0
 13
177.7093984962
 23
172.769799883
 33
0.0
  0
LINE
  5
DF
330
DB
100
AcDbEntity
  8
VERMASSUNG
100
AcDbLine
 10
162.908508782
 20
175.769799883
 30
0.0
 11
178.2593984962
 21
175.769799883
 31
0.0
  0
LINE
  5
E0
330
DB
100
AcDbEntity
  8
VERMASSUNG
100
AcDbLine
 10
177.2593984962
 20
175.769799883
 30
0.0
 11
177.2593984962
 21
98.9675198858
 31
0.0
  0
MTEXT
  5
E1
330
DB
100
AcDbEntity
  8
VERMASSUNG
100
AcDbMText
 10
174.6812631913
 20
98.9675198858
 30
0.0
 40
2.0
 41
0.0
 71
     1
 72
     1
  1
%%c
  7
SLDTEXTSTYLE0
 11
-1.770233605404514E-14
 21
1.0
 31
0.0
 73
     1
 44
1.0
  0
MTEXT
  5
E2
330
DB
100
AcDbEntity
  8
VERMASSUNG
100
AcDbMText
 10
174.48126324
 20
102.5775199001
 30
0.0
 40
2.0
 41
0.0
 71
     1
 72
     1
  1
136 -
  7
SLDTEXTSTYLE0
 11
-1.770233605404514E-14
 21
1.0
 31
0.0
 73
     1
 44
1.0
  0
MTEXT
  5
E3
330
DB
100
AcDbEntity
  8
VERMASSUNG
100
AcDbMText
 10
174.6812631913
 20
110.1775200282
 30
0.0
 40
2.0
 41
0.0
 71
     1
 72
     1
  1
%%c
  7
SLDTEXTSTYLE0
 11
-1.770233605404514E-14
 21
1.0
 31
0.0
 73
     1
 44
1.0
  0
MTEXT
  5
E4
330
DB
100
AcDbEntity
  8
VERMASSUNG
100
AcDbMText
 10
174.48126324
 20
113.7875200425
 30
0.0
 40
2.0
 41
0.0
 71
     1
 72
     1
  1
220
  7
SLDTEXTSTYLE0
 11
-1.770233605404514E-14
 21
1.0
 31
0.0
 73
     1
 44
1.0
  0
ENDBLK
  5
DD
330
DB
100
AcDbEntity
  8
0
100
AcDbBlockEnd
  0
BLOCK
  5
E8
330
E7
100
AcDbEntity
  8
0
100
AcDbBlockBegin
  2
_D_1
 70
     0
 10
0.0
 20
0.0
 30
0.0
  3
_D_1
  1

  0
ARC
  5
EA
330
E7
100
AcDbEntity
  8
VERMASSUNG
100
AcDbCircle
 10
157.9877157264
 20
175.769799883
 30
0.0
 40
9.75196595895278
100
AcDbArc
 50
270.0
 51
0.0
  0
SOLID
  5
EB
330
E7
100
AcDbEntity
  8
VERMASSUNG
100
AcDbTrace
 10
157.9877157264
 20
166.0178339241
 30
0.0
 11
161.0212778224
 21
166.0188385951
 31
0.0
 12
160.8874766531
 22
166.9088370486
 32
0.0
 13
160.8874766531
 23
166.9088370486
 33
0.0
  0
SOLID
  5
EC
330
E7
100
AcDbEntity
  8
VERMASSUNG
100
AcDbTrace
 10
167.7396816853
 20
175.769799883
 30
0.0
 11
166.8486785608
 21
172.8700389563
 31
0.0
 12
167.7386770143
 22
172.736237787
 32
0.0
 13
167.7386770143
 23
172.736237787
 33
0.0
  0
LINE
  5
ED
330
E7
100
AcDbEntity
  8
VERMASSUNG
100
AcDbLine
 10
162.908508782
 20
175.769799883
 30
0.0
 11
168.7396816853
 21
175.769799883
 31
0.0
  0
MTEXT
  5
EE
330
E7
100
AcDbEntity
  8
VERMASSUNG
100
AcDbMText
 10
161.6461663582
 20
169.2829223214
 30
0.0
 40
2.0
 41
0.0
 71
     1
 72
     1
  1
90°
  7
SLDTEXTSTYLE0
 11
0.707106781186541
 21
0.707106781186554
 31
0.0
 73
     1
 44
1.0
  0
ENDBLK
  5
E9
330
E7
100
AcDbEntity
  8
0
100
AcDbBlockEnd
  0
BLOCK
  5
F2
330
F1
100
AcDbEntity
  8
0
100
AcDbBlockBegin
  2
_D_2
 70
     0
 10
0.0
 20
0.0
 30
0.0
  3
_D_2
  1

  0
SOLID
  5
F4
330
F1
100
AcDbEntity
  8
VERMASSUNG
100
AcDbTrace
 10
157.9877157264
 20
185.769799883
 30
0.0
 11
154.9877157264
 21
186.219799883
 31
0.0
 12
154.9877157264
 22
185.319799883
 32
0.0
 13
154.9877157264
 23
185.319799883
 33
0.0
  0
SOLID
  5
F5
330
F1
100
AcDbEntity
  8
VERMASSUNG
100
AcDbTrace
 10
118.5870692918
 20
185.769799883
 30
0.0
 11
121.5870692918
 21
185.319799883
 31
0.0
 12
121.5870692918
 22
186.219799883
 32
0.0
 13
121.5870692918
 23
186.219799883
 33
0.0
  0
LINE
  5
F6
330
F1
100
AcDbEntity
  8
VERMASSUNG
100
AcDbLine
 10
157.9877157264
 20
175.369799883
 30
0.0
 11
157.9877157264
 21
186.769799883
 31
0.0
  0
LINE
  5
F7
330
F1
100
AcDbEntity
  8
VERMASSUNG
100
AcDbLine
 10
118.5870692918
 20
147.961270323
 30
0.0
 11
118.5870692918
 21
186.769799883
 31
0.0
  0
LINE
  5
F8
330
F1
100
AcDbEntity
  8
VERMASSUNG
100
AcDbLine
 10
157.9877157264
 20
185.769799883
 30
0.0
 11
118.5870692918
 21
185.769799883
 31
0.0
  0
MTEXT
  5
F9
330
F1
100
AcDbEntity
  8
VERMASSUNG
100
AcDbMText
 10
135.787392565
 20
188.347935479
 30
0.0
 40
2.0
 41
0.0
 71
     1
 72
     1
  1
39.4
  7
SLDTEXTSTYLE0
 73
     1
 44
1.0
  0
ENDBLK
  5
F3
330
F1
100
AcDbEntity
  8
0
100
AcDbBlockEnd
  0
ENDSEC
  0
SECTION
  2
ENTITIES
  0
MTEXT
  5
78
330
1F
100
AcDbEntity
  8
KOPF_DÜNN
100
AcDbMText
 10
13.8892156294
 20
23.8442973028
 30
0.0
 40
3.0
 41
0.0
 71
     1
 72
     1
  1
148.550.212
  7
SLDTEXTSTYLE0
 73
     1
 44
1.0
  0
MTEXT
  5
79
330
1F
100
AcDbEntity
  8
VERMASSUNG
100
AcDbMText
 10
13.9329988022
 20
28.8834360957
 30
0.0
 40
3.0
 41
0.0
 71
     1
 72
     1
  1
Wendeplattenhalter 90°_Insert holder 90°
  7
SLDTEXTSTYLE0
 73
     1
 44
1.0
  0
MTEXT
  5
7A
330
1F
100
AcDbEntity
  8
VERMASSUNG
100
AcDbMText
 10
98.8601118557
 20
13.8365368761
 30
0.0
 40
2.0
 41
0.0
 71
     1
 72
     1
  1
Datum: 06.03.2018
  7
SLDTEXTSTYLE0
 73
     1
 44
1.0
  0
MTEXT
  5
7B
330
1F
100
AcDbEntity
  8
VERMASSUNG
100
AcDbMText
 10
13.933048693
 20
18.0482802738
 30
0.0
 40
2.0
 41
0.0
 71
     1
 72
     1
  1
CC..12 04..
  7
SLDTEXTSTYLE0
 73
     1
 44
1.0
  0
MTEXT
  5
7C
330
1F
100
AcDbEntity
  8
VERMASSUNG
100
AcDbMText
 10
13.9808475933
 20
13.9090974274
 30
0.0
 40
2.0
 41
0.0
 71
     1
 72
     1
  1
Gewicht: g
  7
SLDTEXTSTYLE0
 73
     1
 44
1.0
  0
LINE
  5
7D
330
1F
100
AcDbEntity
  8
0
  6
Continuous
 62
     7
370
    25
100
AcDbLine
 10
157.5182564553
 20
175.7637229842
 30
0.0
 11
145.6182564553
 21
173.6654319138
 31
0.0
  0
ARC
  5
7E
330
1F
100
AcDbEntity
  8
0
  6
Continuous
 62
     7
370
    25
100
AcDbCircle
 10
157.5877157264
 20
175.369799883
 30
0.0
 40
0.4000000000000196
100
AcDbArc
 50
0.0
 51
100.0
  0
LINE
  5
7F
330
1F
100
AcDbEntity
  8
0
  6
Continuous
 62
     7
370
    25
100
AcDbLine
 10
157.9877157264
 20
163.2862232016
 30
0.0
 11
157.9877157264
 21
175.369799883
 31
0.0
  0
ARC
  5
80
330
1F
100
AcDbEntity
  8
0
  6
Continuous
 62
     7
370
    25
100
AcDbCircle
 10
157.5877157264
 20
163.2862232016
 30
0.0
 40
0.4000000000000246
100
AcDbArc
 50
280.0
 51
0.0
  0
LINE
  5
81
330
1F
100
AcDbEntity
  8
0
  6
Continuous
 62
     7
370
    25
100
AcDbLine
 10
145.7571749975
 20
160.7940090299
 30
0.0
 11
157.6571749975
 21
162.8923001004
 31
0.0
  0
ARC
  5
82
330
1F
100
AcDbEntity
  8
0
  6
Continuous
 62
     7
370
    25
100
AcDbCircle
 10
145.6877157264
 20
161.1879321311
 30
0.0
 40
0.4000000000000196
100
AcDbArc
 50
180.0
 51
280.0
  0
LINE
  5
83
330
1F
100
AcDbEntity
  8
0
  6
Continuous
 62
     7
370
    25
100
AcDbLine
 10
145.2877157264
 20
173.2715088126
 30
0.0
 11
145.2877157264
 21
161.1879321311
 31
0.0
  0
ARC
  5
84
330
1F
100
AcDbEntity
  8
0
  6
Continuous
 62
     7
370
    25
100
AcDbCircle
 10
145.6877157264
 20
173.2715088126
 30
0.0
 40
0.4000000000000246
100
AcDbArc
 50
100.0
 51
180.0
  0
ARC
  5
85
330
1F
100
AcDbEntity
  8
0
  6
Continuous
 62
     7
370
    25
100
AcDbCircle
 10
145.6877157264
 20
161.1879321311
 30
0.0
 40
0.3800000000000239
100
AcDbArc
 50
180.0
 51
280.0
  0
LINE
  5
86
330
1F
100
AcDbEntity
  8
0
  6
Continuous
 62
     7
370
    25
100
AcDbLine
 10
145.7537020339
 20
160.813705185
 30
0.0
 11
157.6537020338
 21
162.9119962557
 31
0.0
  0
ARC
  5
87
330
1F
100
AcDbEntity
  8
0
  6
Continuous
 62
     7
370
    25
100
AcDbCircle
 10
157.5877157264
 20
163.2862232016
 30
0.0
 40
0.3799999999999955
100
AcDbArc
 50
280.0
 51
0.0
  0
LINE
  5
88
330
1F
100
AcDbEntity
  8
0
  6
Continuous
 62
     7
370
    25
100
AcDbLine
 10
157.9677157264
 20
163.2862232016
 30
0.0
 11
157.9677157264
 21
175.369799883
 31
0.0
  0
ARC
  5
89
330
1F
100
AcDbEntity
  8
0
  6
Continuous
 62
     7
370
    25
100
AcDbCircle
 10
157.5877157264
 20
175.369799883
 30
0.0
 40
0.3800000000000216
100
AcDbArc
 50
0.0
 51
100.0
  0
LINE
  5
8A
330
1F
100
AcDbEntity
  8
0
  6
Continuous
 62
     7
370
    25
100
AcDbLine
 10
157.5217294189
 20
175.7440268292
 30
0.0
 11
145.6217294189
 21
173.6457357587
 31
0.0
  0
ARC
  5
8B
330
1F
100
AcDbEntity
  8
0
  6
Continuous
 62
     7
370
    25
100
AcDbCircle
 10
145.6877157264
 20
173.2715088126
 30
0.0
 40
0.3800000000000239
100
AcDbArc
 50
100.0
 51
180.0
  0
LINE
  5
8C
330
1F
100
AcDbEntity
  8
0
  6
Continuous
 62
     7
370
    25
100
AcDbLine
 10
145.3077157264
 20
173.2715088126
 30
0.0
 11
145.3077157264
 21
161.1879321311
 31
0.0
  0
LINE
  5
8D
330
1F
100
AcDbEntity
  8
0
  6
Continuous
 62
     7
370
    25
100
AcDbLine
 10
145.6877157264
 20
161.1879321311
 30
0.0
 11
145.3077157264
 21
161.1879321311
 31
0.0
  0
LINE
  5
8E
330
1F
100
AcDbEntity
  8
0
  6
Continuous
 62
     7
370
    25
100
AcDbLine
 10
145.6877157264
 20
173.2715088126
 30
0.0
 11
145.3077157264
 21
173.2715088126
 31
0.0
  0
LINE
  5
8F
330
1F
100
AcDbEntity
  8
0
  6
Continuous
 62
     7
370
    25
100
AcDbLine
 10
146.3092277309
 20
172.7499983189
 30
0.0
 11
145.6877157264
 21
173.2715088126
 31
0.0
  0
LINE
  5
90
330
1F
100
AcDbEntity
  8
0
  6
Continuous
 62
     7
370
    25
100
AcDbLine
 10
146.5231228395
 20
162.1835315595
 30
0.0
 11
145.6877157264
 21
161.1879321311
 31
0.0
  0
LINE
  5
91
330
1F
100
AcDbEntity
  8
0
  6
Continuous
 62
     7
370
    25
100
AcDbLine
 10
145.6877157264
 20
161.1879321311
 30
0.0
 11
145.7537020339
 21
160.813705185
 31
0.0
  0
LINE
  5
92
330
1F
100
AcDbEntity
  8
0
  6
Continuous
 62
     7
370
    25
100
AcDbLine
 10
157.5877157264
 20
163.2862232016
 30
0.0
 11
157.6537020338
 21
162.9119962557
 31
0.0
  0
LINE
  5
93
330
1F
100
AcDbEntity
  8
0
  6
Continuous
 62
     7
370
    25
100
AcDbLine
 10
156.9662037219
 20
163.8077336953
 30
0.0
 11
157.5877157264
 21
163.2862232016
 31
0.0
  0
LINE
  5
94
330
1F
100
AcDbEntity
  8
0
  6
Continuous
 62
     7
370
    25
100
AcDbLine
 10
147.3077157264
 20
171.0730677789
 30
0.0
 11
147.3077157261
 21
164.3103265437
 31
0.0
  0
ARC
  5
95
330
1F
100
AcDbEntity
  8
0
  6
Continuous
 62
     7
370
    25
100
AcDbCircle
 10
148.3077157264
 20
164.3103265437
 30
0.0
 40
1.000000000295358
100
AcDbArc
 50
179.9999999902
 51
280.0
  0
LINE
  5
96
330
1F
100
AcDbEntity
  8
0
  6
Continuous
 62
     7
370
    25
100
AcDbLine
 10
154.7940675487
 20
173.2322132234
 30
0.0
 11
148.1340675487
 21
172.0578755319
 31
0.0
  0
ARC
  5
97
330
1F
100
AcDbEntity
  8
0
  6
Continuous
 62
     7
370
    25
100
AcDbCircle
 10
154.9677157264
 20
172.2474054704
 30
0.0
 40
1.0
100
AcDbArc
 50
0.0
 51
100.0
  0
LINE
  5
98
330
1F
100
AcDbEntity
  8
0
  6
Continuous
 62
     7
370
    25
100
AcDbLine
 10
155.9677157264
 20
165.4846642353
 30
0.0
 11
155.9677157264
 21
172.2474054704
 31
0.0
  0
ARC
  5
99
330
1F
100
AcDbEntity
  8
0
  6
Continuous
 62
     7
370
    25
100
AcDbCircle
 10
154.9677157264
 20
165.4846642353
 30
0.0
 40
1.0
100
AcDbArc
 50
280.0
 51
0.0
  0
LINE
  5
9A
330
1F
100
AcDbEntity
  8
0
  6
Continuous
 62
     7
370
    25
100
AcDbLine
 10
148.4813639041
 20
163.3255187907
 30
0.0
 11
155.1413639041
 21
164.4998564823
 31
0.0
  0
ARC
  5
9B
330
1F
100
AcDbEntity
  8
0
  6
Continuous
 62
     7
370
    25
100
AcDbCircle
 10
148.3077157264
 20
171.0730677789
 30
0.0
 40
1.000000000000026
100
AcDbArc
 50
100.0
 51
180.0
  0
CIRCLE
  5
9C
330
1F
100
AcDbEntity
  8
0
  6
Continuous
 62
     7
370
    25
100
AcDbCircle
 10
151.6377157264
 20
168.2788660071
 30
0.0
 40
3.80000000000004
  0
LINE
  5
9D
330
1F
100
AcDbEntity
  8
0
  6
Continuous
 62
     7
370
    25
100
AcDbLine
 10
145.6877157264
 20
173.2715088126
 30
0.0
 11
145.6217294189
 21
173.6457357587
 31
0.0
  0
LINE
  5
9E
330
1F
100
AcDbEntity
  8
0
  6
Continuous
 62
     7
370
    25
100
AcDbLine
 10
157.5877157264
 20
175.369799883
 30
0.0
 11
157.5217294189
 21
175.7440268292
 31
0.0
  0
LINE
  5
9F
330
1F
100
AcDbEntity
  8
0
  6
Continuous
 62
     7
370
    25
100
AcDbLine
 10
156.7523086133
 20
174.3742004547
 30
0.0
 11
157.5877157264
 21
175.369799883
 31
0.0
  0
LINE
  5
A0
330
1F
100
AcDbEntity
  8
0
  6
Continuous
 62
     7
370
    25
100
AcDbLine
 10
157.5877157264
 20
175.369799883
 30
0.0
 11
157.9677157264
 21
175.369799883
 31
0.0
  0
LINE
  5
A1
330
1F
100
AcDbEntity
  8
0
  6
Continuous
 62
     7
370
    25
100
AcDbLine
 10
157.5877157264
 20
163.2862232016
 30
0.0
 11
157.9677157264
 21
163.2862232016
 31
0.0
  0
SPLINE
  5
A2
330
1F
100
AcDbEntity
  8
0
  6
Continuous
 62
     7
370
    25
100
AcDbSpline
210
0.0
220
0.0
230
1.0
 70
    24
 71
     3
 72
    11
 73
     7
 74
     0
 42
0.000000001
 43
0.00000001
 40
0.0
 40
0.0
 40
0.0
 40
0.0
 40
0.337231418651981
 40
0.6736321483069302
 40
0.991883560896536
 40
1.0
 40
1.0
 40
1.0
 40
1.0
 10
156.966203721904
 20
163.8077336953133
 30
0.0
 10
156.9067236522986
 20
163.8576433997815
 30
0.0
 10
156.7879100280229
 20
163.95733986809
 30
0.0
 10
156.6021672450962
 20
164.1131965687379
 30
0.0
 10
156.4878969094081
 20
164.209080765268
 30
0.0
 10
156.4359435363864
 20
164.252674821409
 30
0.0
 10
156.4346515084303
 20
164.2537589615905
 30
0.0
  0
SPLINE
  5
A3
330
1F
100
AcDbEntity
  8
0
  6
Continuous
 62
     7
370
    25
100
AcDbSpline
210
0.0
220
0.0
230
1.0
 70
    24
 71
     3
 72
    11
 73
     7
 74
     0
 42
0.000000001
 43
0.00000001
 40
0.0
 40
0.0
 40
0.0
 40
0.0
 40
0.008116439103118
 40
0.3263678516928567
 40
0.6627685813478736
 40
1.0
 40
1.0
 40
1.0
 40
1.0
 10
146.8407799443409
 20
172.3039730525801
 30
0.0
 10
146.8394879163849
 20
172.3050571927615
 30
0.0
 10
146.7875345433632
 20
172.3486512489025
 30
0.0
 10
146.6732642076753
 20
172.4445354454326
 30
0.0
 10
146.4875214247485
 20
172.6003921460804
 30
0.0
 10
146.3687078004727
 20
172.700088614389
 30
0.0
 10
146.3092277308674
 20
172.7499983188572
 30
0.0
  0
SPLINE
  5
A4
330
1F
100
AcDbEntity
  8
0
  6
Continuous
 62
     7
370
    25
100
AcDbSpline
210
0.0
220
0.0
230
1.0
 70
    24
 71
     3
 72
    11
 73
     7
 74
     0
 42
0.000000001
 43
0.00000001
 40
0.0
 40
0.0
 40
0.0
 40
0.0
 40
0.0076282660081885
 40
0.3209888652278841
 40
0.6632168868569361
 40
0.9999999999999999
 40
0.9999999999999999
 40
0.9999999999999999
 40
0.9999999999999999
 10
146.967577053884
 20
162.7132114662182
 30
0.0
 10
146.966562965774
 20
162.7120029230699
 30
0.0
 10
146.923891277176
 20
162.6611487848809
 30
0.0
 10
146.8293003444417
 20
162.5484197009779
 30
0.0
 10
146.6752656350909
 20
162.3648482827126
 30
0.0
 10
146.5735652636972
 20
162.2436464997381
 30
0.0
 10
146.5231228395133
 20
162.1835315594988
 30
0.0
  0
SPLINE
  5
A5
330
1F
100
AcDbEntity
  8
0
  6
Continuous
 62
     7
370
    25
100
AcDbSpline
210
0.0
220
0.0
230
1.0
 70
    24
 71
     3
 72
    11
 73
     7
 74
     0
 42
0.000000001
 43
0.00000001
 40
0.0
 40
0.0
 40
0.0
 40
0.0
 40
0.3367831131415349
 40
0.6790111347691437
 40
0.9923717339918664
 40
1.0
 40
1.0
 40
1.0
 40
1.0
 10
156.7523086132579
 20
174.3742004546719
 30
0.0
 10
156.7018661890747
 20
174.3140855144325
 30
0.0
 10
156.6001658176826
 20
174.1928837314576
 30
0.0
 10
156.4461311083254
 20
174.0093123131974
 30
0.0
 10
156.3515401755961
 20
173.8965832292895
 30
0.0
 10
156.3088684869973
 20
173.8457290911005
 30
0.0
 10
156.3078543988874
 20
173.8445205479523
 30
0.0
  0
CIRCLE
  5
A6
330
1F
100
AcDbEntity
  8
0
  6
Continuous
 62
     7
370
    25
100
AcDbCircle
 10
151.565208834
 20
168.1924556576
 30
0.0
 40
3.499999999999998
  0
CIRCLE
  5
A7
330
1F
100
AcDbEntity
  8
0
  6
Continuous
 62
     7
370
    25
100
AcDbCircle
 10
151.565208834
 20
168.1924556576
 30
0.0
 40
2.633974596215567
  0
CIRCLE
  5
A8
330
1F
100
AcDbEntity
  8
0
  6
Continuous
 62
     7
370
    25
100
AcDbCircle
 10
151.565208834
 20
168.1924556576
 30
0.0
 40
2.000000000000002
  0
SPLINE
  5
A9
330
1F
100
AcDbEntity
  8
0
  6
Continuous
 62
     7
370
    25
100
AcDbSpline
210
0.0
220
0.0
230
1.0
 70
     8
 71
     3
 72
    15
 73
    11
 74
     0
 42
0.000000001
 43
0.00000001
 40
0.0
 40
0.0
 40
0.0
 40
0.0
 40
0.1262470803730248
 40
0.2533633350513447
 40
0.3794185517357394
 40
0.5042689738350791
 40
0.6284502821607794
 40
0.7526361292231364
 40
0.8774891912114854
 40
1.0
 40
1.0
 40
1.0
 40
1.0
 10
153.1426687687426
 20
168.8529603089096
 30
0.0
 10
153.1683864149051
 20
168.8890875130236
 30
0.0
 10
153.2199987657184
 20
168.9615906465087
 30
0.0
 10
153.2463480509467
 20
169.0956318175331
 30
0.0
 10
153.2293940483916
 20
169.2293917267565
 30
0.0
 10
153.1687081056376
 20
169.3495931320808
 30
0.0
 10
153.0724399468757
 20
169.4427130169237
 30
0.0
 10
152.9515669039932
 20
169.4982727279919
 30
0.0
 10
152.8188674400787
 20
169.5137444752311
 30
0.0
 10
152.7358572364782
 20
169.4882552494336
 30
0.0
 10
152.6947451405652
 20
169.475631313456
 30
0.0
  0
SPLINE
  5
AA
330
1F
100
AcDbEntity
  8
0
  6
Continuous
 62
     7
370
    25
100
AcDbSpline
210
0.0
220
0.0
230
1.0
 70
     8
 71
     3
 72
    12
 73
     8
 74
     0
 42
0.000000001
 43
0.00000001
 40
0.0
 40
0.0
 40
0.0
 40
0.0
 40
0.2058748011360356
 40
0.4120995812662975
 40
0.6141693366125154
 40
0.8132901286728312
 40
0.9999999999999999
 40
0.9999999999999999
 40
0.9999999999999999
 40
0.9999999999999999
 10
152.6947451405652
 20
169.475631313456
 30
0.0
 10
152.6209642489313
 20
169.453144931991
 30
0.0
 10
152.4732770410747
 20
169.4081339431046
 30
0.0
 10
152.2382477316649
 20
169.4377411662249
 30
0.0
 10
152.0298901287225
 20
169.5372140354751
 30
0.0
 10
151.8661022745108
 20
169.6929584139269
 30
0.0
 10
151.8074052920327
 20
169.8247559456812
 30
0.0
 10
151.7790008465447
 20
169.8885349620482
 30
0.0
  0
SPLINE
  5
AB
330
1F
100
AcDbEntity
  8
0
  6
Continuous
 62
     7
370
    25
100
AcDbSpline
210
0.0
220
0.0
230
1.0
 70
     8
 71
     3
 72
    15
 73
    11
 74
     0
 42
0.000000001
 43
0.00000001
 40
0.0
 40
0.0
 40
0.0
 40
0.0
 40
0.1268765508970334
 40
0.2539936290345304
 40
0.3800496379883633
 40
0.5049006370991321
 40
0.6290821973265806
 40
0.7532679407718306
 40
0.8781205851189361
 40
1.0
 40
1.0
 40
1.0
 40
1.0
 10
151.7790008465447
 20
169.8885349620482
 30
0.0
 10
151.7604602242185
 20
169.9290665824723
 30
0.0
 10
151.7233438310324
 20
170.0102066614655
 30
0.0
 10
151.6201058398029
 20
170.1000212468991
 30
0.0
 10
151.4957026820091
 20
170.1520085961168
 30
0.0
 10
151.3612486194865
 20
170.1593262804838
 30
0.0
 10
151.2325331838624
 20
170.1222976378357
 30
0.0
 10
151.1241090515777
 20
170.0452143429343
 30
0.0
 10
151.0446837608684
 20
169.9380778036889
 30
0.0
 10
151.0253436509011
 20
169.8536583195432
 30
0.0
 10
151.0157901243188
 20
169.8119572233645
 30
0.0
  0
SPLINE
  5
AC
330
1F
100
AcDbEntity
  8
0
  6
Continuous
 62
     7
370
    25
100
AcDbSpline
210
0.0
220
0.0
230
1.0
 70
     8
 71
     3
 72
    12
 73
     8
 74
     0
 42
0.000000001
 43
0.00000001
 40
0.0
 40
0.0
 40
0.0
 40
0.0
 40
0.2057949882088008
 40
0.4120010155283684
 40
0.6140549927930632
 40
0.8131810826684439
 40
1.0
 40
1.0
 40
1.0
 40
1.0
 10
151.0157901243188
 20
169.8119572233645
 30
0.0
 10
150.9983825370405
 20
169.7368452365631
 30
0.0
 10
150.9635325939054
 20
169.5864712400442
 30
0.0
 10
150.8204271349702
 20
169.3977458698364
 30
0.0
 10
150.6301334771034
 20
169.2670169529577
 30
0.0
 10
150.4133400766116
 20
169.202996694471
 30
0.0
 10
150.2698096588192
 20
169.2180598283982
 30
0.0
 10
150.2003329283124
 20
169.2253512256681
 30
0.0
  0
SPLINE
  5
AD
330
1F
100
AcDbEntity
  8
0
  6
Continuous
 62
     7
370
    25
100
AcDbSpline
210
0.0
220
0.0
230
1.0
 70
     8
 71
     3
 72
    15
 73
    11
 74
     0
 42
0.000000001
 43
0.00000001
 40
0.0
 40
0.0
 40
0.0
 40
0.0
 40
0.1268036956060845
 40
0.2539263442698773
 40
0.3799872671766487
 40
0.504841009795738
 40
0.6290227167746362
 40
0.7532063308915139
 40
0.8780553361591666
 40
1.0
 40
1.0
 40
1.0
 40
1.0
 10
150.2003329283124
 20
169.2253512256681
 30
0.0
 10
150.1559880837091
 20
169.2295603113587
 30
0.0
 10
150.0671868526132
 20
169.2379890699765
 30
0.0
 10
149.9378009525971
 20
169.193523722028
 30
0.0
 10
149.8305587298834
 20
169.1117988131351
 30
0.0
 10
149.7569727731273
 20
168.9990279246365
 30
0.0
 10
149.7246599210834
 20
168.8690471723283
 30
0.0
 10
149.7371810522407
 20
168.7366059709734
 30
0.0
 10
149.7902387998352
 20
168.6142221685608
 30
0.0
 10
149.8536924030905
 20
168.555244354985
 30
0.0
 10
149.885045834264
 20
168.5261024824379
 30
0.0
  0
SPLINE
  5
AE
330
1F
100
AcDbEntity
  8
0
  6
Continuous
 62
     7
370
    25
100
AcDbSpline
210
0.0
220
0.0
230
1.0
 70
     8
 71
     3
 72
    12
 73
     8
 74
     0
 42
0.000000001
 43
0.00000001
 40
0.0
 40
0.0
 40
0.0
 40
0.0
 40
0.2058497400954142
 40
0.4120524486337353
 40
0.6141081262894813
 40
0.8132431903674259
 40
1.0
 40
1.0
 40
1.0
 40
1.0
 10
149.885045834264
 20
168.5261024824379
 30
0.0
 10
149.9414051109826
 20
168.4734551797847
 30
0.0
 10
150.054220303095
 20
168.3680703006872
 30
0.0
 10
150.1460967570796
 20
168.1497469045104
 30
0.0
 10
150.1641448696016
 20
167.9195804578635
 30
0.0
 10
150.1111751402474
 20
167.6998462981615
 30
0.0
 10
150.0263736086318
 20
167.5830956532594
 30
0.0
 10
149.9853329322781
 20
167.5265928361495
 30
0.0
  0
SPLINE
  5
AF
330
1F
100
AcDbEntity
  8
0
  6
Continuous
 62
     7
370
    25
100
AcDbSpline
210
0.0
220
0.0
230
1.0
 70
     8
 71
     3
 72
    15
 73
    11
 74
     0
 42
0.000000001
 43
0.00000001
 40
0.0
 40
0.0
 40
0.0
 40
0.0
 40
0.1262564375372416
 40
0.2533820972841676
 40
0.3794454811307664
 40
0.5043002379033787
 40
0.6284814530466049
 40
0.7526634909000671
 40
0.877510462112175
 40
1.0
 40
1.0
 40
1.0
 40
1.0
 10
149.9853329322781
 20
167.5265928361495
 30
0.0
 10
149.9596142250657
 20
167.4904637740526
 30
0.0
 10
149.9079997482119
 20
167.4179569165363
 30
0.0
 10
149.8816524450701
 20
167.2839088481037
 30
0.0
 10
149.8986124318161
 20
167.1501436449232
 30
0.0
 10
149.9593068100488
 20
167.029941484903
 30
0.0
 10
150.0555818922047
 20
166.9368263227217
 30
0.0
 10
150.1764574137534
 20
166.8812744604233
 30
0.0
 10
150.3091492081144
 20
166.8658112910361
 30
0.0
 10
150.3921511478959
 20
166.8912992958441
 30
0.0
 10
150.4332565604555
 20
166.903921831603
 30
0.0
  0
SPLINE
  5
B0
330
1F
100
AcDbEntity
  8
0
  6
Continuous
 62
     7
370
    25
100
AcDbSpline
210
0.0
220
0.0
230
1.0
 70
     8
 71
     3
 72
    12
 73
     8
 74
     0
 42
0.000000001
 43
0.00000001
 40
0.0
 40
0.0
 40
0.0
 40
0.0
 40
0.2058713741444211
 40
0.4120924153877299
 40
0.6141683533432372
 40
0.8133068872803323
 40
1.0
 40
1.0
 40
1.0
 40
1.0
 10
150.4332565604555
 20
166.903921831603
 30
0.0
 10
150.5070366686289
 20
166.9264080361321
 30
0.0
 10
150.6547221985435
 20
166.9714186374155
 30
0.0
 10
150.8897507633056
 20
166.9418127578361
 30
0.0
 10
151.0981136013399
 20
166.8423393319963
 30
0.0
 10
151.261902727256
 20
166.6865907837285
 30
0.0
 10
151.3205992522458
 20
166.5547919447438
 30
0.0
 10
151.3490008544761
 20
166.4910181830109
 30
0.0
  0
SPLINE
  5
B1
330
1F
100
AcDbEntity
  8
0
  6
Continuous
 62
     7
370
    25
100
AcDbSpline
210
0.0
220
0.0
230
1.0
 70
     8
 71
     3
 72
    15
 73
    11
 74
     0
 42
0.000000001
 43
0.00000001
 40
0.0
 40
0.0
 40
0.0
 40
0.0
 40
0.1268702503424993
 40
0.2539810595565908
 40
0.3800301963394217
 40
0.50487499675449
 40
0.6290527571813115
 40
0.7532384607996249
 40
0.8780953942141925
 40
1.0
 40
1.0
 40
1.0
 40
1.0
 10
151.3490008544761
 20
166.4910181830109
 30
0.0
 10
151.3675407567753
 20
166.4504877788023
 30
0.0
 10
151.4046557149104
 20
166.3693501206251
 30
0.0
 10
151.5078891808595
 20
166.2795366243767
 30
0.0
 10
151.6322869075871
 20
166.2275478912675
 30
0.0
 10
151.7667358527094
 20
166.2202254601774
 30
0.0
 10
151.8954492143174
 20
166.2572466424499
 30
0.0
 10
152.0038760858714
 20
166.3343225250483
 30
0.0
 10
152.0833122537723
 20
166.4414600464594
 30
0.0
 10
152.1026556122688
 20
166.5258873342501
 30
0.0
 10
152.112211576702
 20
166.5675959216946
 30
0.0
  0
SPLINE
  5
B2
330
1F
100
AcDbEntity
  8
0
  6
Continuous
 62
     7
370
    25
100
AcDbSpline
210
0.0
220
0.0
230
1.0
 70
     8
 71
     3
 72
    12
 73
     8
 74
     0
 42
0.000000001
 43
0.00000001
 40
0.0
 40
0.0
 40
0.0
 40
0.0
 40
0.2058321750920507
 40
0.412075034357588
 40
0.6141697879283358
 40
0.813302933985626
 40
1.0
 40
1.0
 40
1.0
 40
1.0
 10
152.112211576702
 20
166.5675959216946
 30
0.0
 10
152.1296227667748
 20
166.6427183600079
 30
0.0
 10
152.1644798863883
 20
166.7931131237768
 30
0.0
 10
152.3076187475409
 20
166.9818555688627
 30
0.0
 10
152.4979553129077
 20
167.1125813242307
 30
0.0
 10
152.7147434610152
 20
167.1765589540983
 30
0.0
 10
152.8582353456999
 20
167.1614923891107
 30
0.0
 10
152.9276687727084
 20
167.1542019193909
 30
0.0
  0
SPLINE
  5
B3
330
1F
100
AcDbEntity
  8
0
  6
Continuous
 62
     7
370
    25
100
AcDbSpline
210
0.0
220
0.0
230
1.0
 70
     8
 71
     3
 72
    15
 73
    11
 74
     0
 42
0.000000001
 43
0.00000001
 40
0.0
 40
0.0
 40
0.0
 40
0.0
 40
0.126788029197407
 40
0.2538950064075508
 40
0.3799409022877089
 40
0.5047841289691842
 40
0.6289621452108649
 40
0.753149539128012
 40
0.8780089278148163
 40
1.0
 40
1.0
 40
1.0
 40
1.0
 10
152.9276687727084
 20
167.1542019193909
 30
0.0
 10
152.9720100662382
 20
167.1499928066012
 30
0.0
 10
153.0608041982723
 20
167.141563992576
 30
0.0
 10
153.1901819191442
 20
167.1860207931306
 30
0.0
 10
153.2974210445329
 20
167.2677324801613
 30
0.0
 10
153.3710121280116
 20
167.3804888971862
 30
0.0
 10
153.4033379531604
 20
167.5104605119054
 30
0.0
 10
153.3908326307242
 20
167.6429021750454
 30
0.0
 10
153.3377830328157
 20
167.7653068036404
 30
0.0
 10
153.2743191125494
 20
167.8242978614859
 30
0.0
 10
153.2429558667568
 20
167.8534506626211
 30
0.0
  0
SPLINE
  5
B4
330
1F
100
AcDbEntity
  8
0
  6
Continuous
 62
     7
370
    25
100
AcDbSpline
210
0.0
220
0.0
230
1.0
 70
     8
 71
     3
 72
    12
 73
     8
 74
     0
 42
0.000000001
 43
0.00000001
 40
0.0
 40
0.0
 40
0.0
 40
0.0
 40
0.2058903596432648
 40
0.4121336430767587
 40
0.6142239121176221
 40
0.8133482777366913
 40
1.0
 40
1.0
 40
1.0
 40
1.0
 10
153.2429558667568
 20
167.8534506626211
 30
0.0
 10
153.1865887948652
 20
167.9061069024683
 30
0.0
 10
153.0737580303335
 20
168.0115096420455
 30
0.0
 10
152.9818842864645
 20
168.2298718236653
 30
0.0
 10
152.9638625073428
 20
168.4600690343425
 30
0.0
 10
153.0168635475042
 20
168.6797741382612
 30
0.0
 10
153.1016474193293
 20
168.7964894379093
 30
0.0
 10
153.1426687687426
 20
168.8529603089096
 30
0.0
  0
SPLINE
  5
B5
330
1F
100
AcDbEntity
  8
0
  6
Continuous
 62
     7
370
    25
100
AcDbSpline
210
0.0
220
0.0
230
1.0
 70
     8
 71
     3
 72
     8
 73
     4
 74
     0
 42
0.000000001
 43
0.00000001
 40
0.0
 40
0.0
 40
0.0
 40
0.0
 40
1.0
 40
1.0
 40
1.0
 40
1.0
 10
141.9520390446929
 20
156.528805042485
 30
0.0
 10
141.9739598583966
 20
156.5542533898042
 30
0.0
 10
141.9858938713523
 20
156.5679780279869
 30
0.0
 10
141.9877157263859
 20
156.5697998830204
 30
0.0
  0
LINE
  5
B6
330
1F
100
AcDbEntity
  8
0
  6
Continuous
 62
     7
370
    25
100
AcDbLine
 10
141.9877157264
 20
156.5644769766
 30
0.0
 11
141.9877157264
 21
156.569799883
 31
0.0
  0
ARC
  5
B7
330
1F
100
AcDbEntity
  8
0
  6
Continuous
 62
     7
370
    25
100
AcDbCircle
 10
168.0377157264
 20
116.569799883
 30
0.0
 40
39.99999999999999
100
AcDbArc
 50
107.1555854621
 51
130.6359129453
  0
LINE
  5
B8
330
1F
100
AcDbEntity
  8
0
  6
Continuous
 62
     7
370
    25
100
AcDbLine
 10
141.9877157264
 20
156.569799883
 30
0.0
 11
157.6877157264
 21
156.569799883
 31
0.0
  0
ELLIPSE
  5
B9
330
1F
100
AcDbEntity
  8
0
  6
Continuous
 62
     7
370
    25
100
AcDbEllipse
 10
157.6877157264
 20
116.569799883
 30
0.0
 11
-4.263256414560601E-13
 21
39.99999999999997
 31
0.0
210
0.0
220
0.0
230
1.0
 40
0.1227845609
 41
0.0
 42
0.2994214514200402
  0
LINE
  5
BA
330
1F
100
AcDbEntity
  8
0
  6
Continuous
 62
     7
370
    25
100
AcDbLine
 10
140.9424185486
 20
172.3320998565
 30
0.0
 11
145.2877157264
 21
173.0982929881
 31
0.0
  0
ARC
  5
BB
330
1F
100
AcDbEntity
  8
0
  6
Continuous
 62
     7
370
    25
100
AcDbCircle
 10
146.2877157264
 20
161.9029842867
 30
0.0
 40
2.100000000000024
100
AcDbArc
 50
117.3000174185
 51
342.6999825815
  0
LINE
  5
BC
330
1F
100
AcDbEntity
  8
0
  6
Continuous
 62
     7
370
    25
100
AcDbLine
 10
157.6877157264
 20
156.569799883
 30
0.0
 11
157.6877157264
 21
162.898924867
 31
0.0
  0
LINE
  5
BD
330
1F
100
AcDbEntity
  8
0
  6
Continuous
 62
     7
370
    25
100
AcDbLine
 10
140.9424185486
 20
156.569799883
 30
0.0
 11
141.9877157264
 21
156.569799883
 31
0.0
  0
LINE
  5
BE
330
1F
100
AcDbEntity
  8
0
  6
Continuous
 62
     7
370
    25
100
AcDbLine
 10
140.9424185486
 20
156.569799883
 30
0.0
 11
140.9424185486
 21
172.3320998565
 31
0.0
  0
SPLINE
  5
BF
330
1F
100
AcDbEntity
  8
0
  6
Continuous
 62
     7
370
    25
100
AcDbSpline
210
0.0
220
0.0
230
1.0
 70
     8
 71
     3
 72
    10
 73
     6
 74
     0
 42
0.000000001
 43
0.00000001
 40
0.0
 40
0.0
 40
0.0
 40
0.0
 40
0.5
 40
0.5
 40
1.0
 40
1.0
 40
1.0
 40
1.0
 10
139.1854625222425
 20
150.5700082199707
 30
0.0
 10
139.1854625222425
 20
150.9523849255415
 30
0.0
 10
139.2354097134748
 20
151.3249459727098
 30
0.0
 10
139.3552548679941
 20
152.0598072321391
 30
0.0
 10
139.4231676428281
 20
152.4209799216794
 30
0.0
 10
139.4604563874172
 20
152.7734462717532
 30
0.0
  0
ELLIPSE
  5
C0
330
1F
100
AcDbEntity
  8
0
  6
Continuous
 62
     7
370
    25
100
AcDbEllipse
 10
140.9558160082
 20
150.57000822
 30
0.0
 11
-8.526512829121202E-14
 21
6.000000000000028
 31
0.0
210
0.0
220
0.0
230
1.0
 40
0.2679491924
 41
0.0083334297869482
 42
1.19475673906273
  0
SPLINE
  5
C1
330
1F
100
AcDbEntity
  8
0
  6
Continuous
 62
     7
370
    25
100
AcDbSpline
210
0.0
220
0.0
230
1.0
 70
     8
 71
     3
 72
    22
 73
    18
 74
     0
 42
0.000000001
 43
0.00000001
 40
0.0
 40
0.0
 40
0.0
 40
0.0
 40
0.125
 40
0.125
 40
0.2500000000000001
 40
0.2500000000000001
 40
0.3750000000000001
 40
0.3750000000000001
 40
0.5000000000000001
 40
0.5000000000000001
 40
0.6250000000000001
 40
0.6250000000000001
 40
0.7500000000000002
 40
0.7500000000000002
 40
0.8750000000000002
 40
0.8750000000000002
 40
1.0
 40
1.0
 40
1.0
 40
1.0
 10
141.3877157263859
 20
150.5700082199707
 30
0.0
 10
141.3877157263859
 20
150.9375858613664
 30
0.0
 10
141.3914732607127
 20
151.2994247026976
 30
0.0
 10
141.4061412186612
 20
152.0121107384111
 30
0.0
 10
141.4171664985841
 20
152.3655339746163
 30
0.0
 10
141.446126628614
 20
153.0488459550314
 30
0.0
 10
141.4638043796334
 20
153.3742147295315
 30
0.0
 10
141.5051909867699
 20
153.993314665229
 30
0.0
 10
141.5291901190039
 20
154.289765325271
 30
0.0
 10
141.5817838013793
 20
154.8328147116012
 30
0.0
 10
141.6102805443728
 20
155.0796805417446
 30
0.0
 10
141.6714155796976
 20
155.5247761587904
 30
0.0
 10
141.7043741839288
 20
155.7241396558891
 30
0.0
 10
141.7719673872516
 20
156.0586569057057
 30
0.0
 10
141.8067813593707
 20
156.1957762884598
 30
0.0
 10
141.8783425501593
 20
156.4096319000276
 30
0.0
 10
141.915191574431
 20
156.4860280163338
 30
0.0
 10
141.9520390446929
 20
156.528805042485
 30
0.0
  0
ELLIPSE
  5
C2
330
1F
100
AcDbEntity
  8
0
  6
Continuous
 62
     7
370
    25
100
AcDbEllipse
 10
141.0228033063
 20
131.7303517537
 30
0.0
 11
0.5352572967201183
 21
40.66076322939648
 31
0.0
210
0.0
220
0.0
230
1.0
 40
0.263265937
 41
0.0574610379634656
 42
0.1962511498552405
  0
LINE
  5
C3
330
1F
100
AcDbEntity
  8
0
  6
Continuous
 62
     7
370
    25
100
AcDbLine
 10
141.9877157264
 20
150.57000822
 30
0.0
 11
141.9877157264
 21
156.5644769766
 31
0.0
  0
SPLINE
  5
C4
330
1F
100
AcDbEntity
  8
0
  6
Continuous
 62
     7
370
    25
100
AcDbSpline
210
0.0
220
0.0
230
1.0
 70
     8
 71
     3
 72
    10
 73
     6
 74
     0
 42
0.000000001
 43
0.00000001
 40
0.0
 40
0.0
 40
0.0
 40
0.0
 40
0.5
 40
0.5
 40
1.0
 40
1.0
 40
1.0
 40
1.0
 10
138.4806604903051
 20
41.23711243850081
 30
0.0
 10
138.6021023429413
 20
41.24213055860073
 30
0.0
 10
138.7296139492721
 20
41.24263152165816
 30
0.0
 10
138.9724924948461
 20
41.23480606299282
 30
0.0
 10
139.0882745203
 20
41.22642518721786
 30
0.0
 10
139.1854625222437
 20
41.21480651935011
 30
0.0
  0
LINE
  5
C5
330
1F
100
AcDbEntity
  8
0
  6
Continuous
 62
     7
370
    25
100
AcDbLine
 10
139.1854625222
 20
41.2148065194
 30
0.0
 11
139.1854625222
 21
150.57000822
 31
0.0
  0
SPLINE
  5
C6
330
1F
100
AcDbEntity
  8
0
  6
Continuous
 62
     7
370
    25
100
AcDbSpline
210
0.0
220
0.0
230
1.0
 70
     8
 71
     3
 72
    12
 73
     8
 74
     0
 42
0.000000001
 43
0.00000001
 40
0.0
 40
0.0
 40
0.0
 40
0.0
 40
0.2499999999999986
 40
0.2499999999999986
 40
0.4999999999999971
 40
0.4999999999999971
 40
1.0
 40
1.0
 40
1.0
 40
1.0
 10
138.4806604903037
 20
171.3764839943894
 30
0.0
 10
138.5841200400475
 20
171.390166595898
 30
0.0
 10
138.6905161576717
 20
171.4078606325969
 30
0.0
 10
138.8988125907958
 20
171.4492258610455
 30
0.0
 10
138.9994793154144
 20
171.4727136819478
 30
0.0
 10
139.2688166802453
 20
171.5455829916691
 30
0.0
 10
139.405565967785
 20
171.59775964539
 30
0.0
 10
139.460456387417
 20
171.6380876715698
 30
0.0
  0
LINE
  5
C7
330
1F
100
AcDbEntity
  8
0
  6
Continuous
 62
     7
370
    25
100
AcDbLine
 10
137.1877157264
 20
41.1852384986
 30
0.0
 11
137.1877157264
 21
171.2039095225
 31
0.0
  0
LINE
  5
C8
330
1F
100
AcDbEntity
  8
0
  6
Continuous
 62
     7
370
    25
100
AcDbLine
 10
119.7361047587
 20
43.0562879811
 30
0.0
 11
119.7361047587
 21
149.4181889153
 31
0.0
  0
LINE
  5
C9
330
1F
100
AcDbEntity
  8
0
  6
Continuous
 62
     7
370
    25
100
AcDbLine
 10
121.0877157264
 20
150.769799883
 30
0.0
 11
119.7361047587
 21
149.4181889153
 31
0.0
  0
LINE
  5
CA
330
1F
100
AcDbEntity
  8
0
  6
Continuous
 62
     7
370
    25
100
AcDbLine
 10
121.0877157264
 20
166.7176990945
 30
0.0
 11
121.0877157264
 21
150.769799883
 31
0.0
  0
LINE
  5
CB
330
1F
100
AcDbEntity
  8
0
  6
Continuous
 62
     7
370
    25
100
AcDbLine
 10
121.0877157264
 20
166.7176990945
 30
0.0
 11
123.0877157264
 21
168.7176990945
 31
0.0
  0
LINE
  5
CC
330
1F
100
AcDbEntity
  8
0
  6
Continuous
 62
     7
370
    25
100
AcDbLine
 10
119.7356103671
 20
43.0568256527
 30
0.0
 11
121.461412639
 21
41.1799428929
 31
0.0
  0
LINE
  5
CD
330
1F
100
AcDbEntity
  8
0
  6
Continuous
 62
     7
370
    25
100
AcDbLine
 10
121.4613850938
 20
41.1852384986
 30
0.0
 11
137.1877157264
 21
41.1852384986
 31
0.0
  0
LINE
  5
CE
330
1F
100
AcDbEntity
  8
0
  6
Continuous
 62
     7
370
    25
100
AcDbLine
 10
123.0877157264
 20
168.7176990945
 30
0.0
 11
137.1877157264
 21
171.2039095225
 31
0.0
  0
LINE
  5
CF
330
1F
100
AcDbEntity
  8
0
  6
Continuous
 62
     7
370
    25
100
AcDbLine
 10
118.5870692918
 20
44.8133905894
 30
0.0
 11
118.5870692918
 21
147.961270323
 31
0.0
  0
LINE
  5
D0
330
1F
100
AcDbEntity
  8
0
  6
Continuous
 62
     7
370
    25
100
AcDbLine
 10
118.5870692918
 20
147.961270323
 30
0.0
 11
119.7361047587
 21
149.4181889153
 31
0.0
  0
SPLINE
  5
D1
330
1F
100
AcDbEntity
  8
0
  6
Continuous
 62
     7
370
    25
100
AcDbSpline
210
0.0
220
0.0
230
1.0
 70
     8
 71
     3
 72
    11
 73
     7
 74
     0
 42
0.000000001
 43
0.00000001
 40
0.000467440121188
 40
0.000467440121188
 40
0.000467440121188
 40
0.000467440121188
 40
0.0014296000912772
 40
0.0014296000912772
 40
0.0014296000912772
 40
0.0028593206822722
 40
0.0028593206822722
 40
0.0028593206822722
 40
0.0028593206822722
 10
119.7361085356149
 20
43.05827598820325
 30
0.0
 10
119.5807650059814
 20
43.29193879620436
 30
0.0
 10
119.4259152617798
 20
43.52626027592682
 30
0.0
 10
119.2715814872963
 20
43.76125751920495
 30
0.0
 10
119.0422497964161
 20
44.11045078771345
 30
0.0
 10
118.8140529326247
 20
44.46114232287046
 30
0.0
 10
118.5870692917919
 20
44.81339058935887
 30
0.0
  0
ELLIPSE
  5
D2
330
1F
100
AcDbEntity
  8
0
  6
Continuous
 62
     7
370
    25
100
AcDbEllipse
 10
115.7284235829
 20
80.769799883
 30
0.0
 11
149.2820323027535
 21
1.577404873387422E-12
 31
0.0
210
0.0
220
0.0
230
1.0
 40
0.2679491924
 41
4.856638717946816
 42
4.865396385742836
  0
ELLIPSE
  5
D3
330
1F
100
AcDbEntity
  8
0
  6
Continuous
 62
     7
370
    25
100
AcDbEllipse
 10
114.6088083406
 20
127.0728517729
 30
0.0
 11
149.0957597411448
 21
28.31802889254331
 31
0.0
210
0.0
220
0.0
230
1.0
 40
0.263265937
 41
1.3602347783089
 42
1.369002660408418
  0
LINE
  5
D4
330
1F
100
AcDbEntity
  8
0
  6
Continuous
 62
     7
370
    25
100
AcDbLine
 10
141.3877157264
 20
150.57000822
 30
0.0
 11
141.3877157264
 21
41.2148065194
 31
0.0
  0
LINE
  5
D5
330
1F
100
AcDbEntity
  8
0
  6
Continuous
 62
     7
370
    25
100
AcDbLine
 10
141.3877157264
 20
41.2148065194
 30
0.0
 11
139.1854625222
 21
41.2148065194
 31
0.0
  0
ARC
  5
D6
330
1F
100
AcDbEntity
  8
0
  6
Continuous
 62
     7
370
    25
100
AcDbCircle
 10
135.4377157264
 20
80.769799883
 30
0.0
 40
39.99999999999997
100
AcDbArc
 50
278.5544941827
 51
279.4246271282
  0
LINE
  5
D7
330
1F
100
AcDbEntity
  8
0
  6
Continuous
 62
     7
370
    25
100
AcDbLine
 10
141.9877157264
 20
150.57000822
 30
0.0
 11
141.9877157264
 21
41.3097251238
 31
0.0
  0
LINE
  5
D8
330
1F
100
AcDbEntity
  8
VERMASSUNG
100
AcDbLine
 10
157.5877157264
 20
175.769799883
 30
0.0
 11
162.908508782
 21
175.769799883
 31
0.0
  0
DIMENSION
  5
D9
330
1F
100
AcDbEntity
  8
VERMASSUNG
100
AcDbDimension
  2
_D
 10
177.2593984962
 20
41.1852384986
 30
0.0
 11
177.2593984962
 21
108.4775191908
 31
0.0
 70
   160
  1
%%c136 - %%c220
 71
     2
 42
-1.0
  3
SLDDIMSTYLE0
100
AcDbAlignedDimension
 13
162.908508782
 23
175.769799883
 33
0.0
 14
137.1877157264
 24
41.1852384986
 34
0.0
 50
90.0
100
AcDbRotatedDimension
  0
DIMENSION
  5
E5
330
1F
100
AcDbEntity
  8
VERMASSUNG
100
AcDbDimension
  2
_D_1
 10
162.908508782
 20
175.769799883
 30
0.0
 11
164.8833969859
 21
168.8741186235
 31
0.0
 70
   162
  1
<>
 71
     1
 42
-1.0
  3
SLDDIMSTYLE1
100
AcDb2LineAngularDimension
 13
157.9877157264
 23
163.2862232016
 33
0.0
 14
157.9877157264
 24
175.369799883
 34
0.0
 15
157.5877157264
 25
175.769799883
 35
0.0
 16
164.8833969859
 26
168.8741186235
 36
0.0
  0
DIMENSION
  5
EF
330
1F
100
AcDbEntity
  8
VERMASSUNG
100
AcDbDimension
  2
_D_2
 10
118.5870692918
 20
185.769799883
 30
0.0
 11
138.2873925091
 21
185.769799883
 31
0.0
 70
   160
  1
<>
 71
     2
 42
-1.0
  3
SLDDIMSTYLE2
100
AcDbAlignedDimension
 13
157.9877157264
 23
175.369799883
 33
0.0
 14
118.5870692918
 24
147.961270323
 34
0.0
 50
0.0
100
AcDbRotatedDimension
  0
LINE
  5
FA
330
1F
100
AcDbEntity
  8
0
  6
Continuous
 62
     7
370
    25
100
AcDbLine
 10
219.6630557803
 20
64.8593489621
 30
0.0
 11
220.1346592588
 21
65.2355763656
 31
0.0
  0
LINE
  5
FB
330
1F
100
AcDbEntity
  8
0
  6
Continuous
 62
     7
370
    25
100
AcDbLine
 10
215.6924950144
 20
73.4447684331
 30
0.0
 11
214.4497798337
 21
72.9574258901
 31
0.0
  0
LINE
  5
FC
330
1F
100
AcDbEntity
  8
0
  6
Continuous
 62
     7
370
    25
100
AcDbLine
 10
218.1299904869
 20
67.4426008674
 30
0.0
 11
218.2007011478
 21
67.4834212631
 31
0.0
  0
LINE
  5
FD
330
1F
100
AcDbEntity
  8
0
  6
Continuous
 62
     7
370
    25
100
AcDbLine
 10
216.4508433522
 20
70.5145923821
 30
0.0
 11
216.3801326913
 21
70.4737719864
 31
0.0
  0
LINE
  5
FE
330
1F
100
AcDbEntity
  8
0
  6
Continuous
 62
     7
370
    25
100
AcDbLine
 10
217.1995094729
 20
69.4693112536
 30
0.0
 11
217.2438789066
 21
69.4949251825
 31
0.0
  0
LINE
  5
FF
330
1F
100
AcDbEntity
  8
0
  6
Continuous
 62
     7
370
    25
100
AcDbLine
 10
217.7738261769
 20
68.5152124519
 30
0.0
 11
217.6179826609
 21
68.4252459051
 31
0.0
  0
LINE
  5
100
330
1F
100
AcDbEntity
  8
0
  6
Continuous
 62
     7
370
    25
100
AcDbLine
 10
216.603346234
 20
69.3212363114
 30
0.0
 11
216.9782255506
 21
69.5376495343
 31
0.0
  0
LINE
  5
101
330
1F
100
AcDbEntity
  8
0
  6
Continuous
 62
     7
370
    25
100
AcDbLine
 10
217.5823661739
 20
68.6007677147
 30
0.0
 11
217.0036023368
 21
68.2666544634
 31
0.0
  0
LINE
  5
102
330
1F
100
AcDbEntity
  8
0
  6
Continuous
 62
     7
370
    25
100
AcDbLine
 10
214.4014376213
 20
72.8318996958
 30
0.0
 11
215.1432955761
 21
67.5452162955
 31
0.0
  0
LWPOLYLINE
  5
103
330
1F
100
AcDbEntity
  8
0
  6
Continuous
 62
     7
370
    25
100
AcDbPolyline
 90
        9
 70
   128
 43
0.0
 10
214.5407104658
 20
72.9431655244
 10
214.5101012862
 20
72.9569647723
 10
214.4809432197
 20
72.9623677177
 10
214.4546186027
 20
72.9591182136
 10
214.4323754259
 20
72.9473703152
 10
214.415268194
 20
72.9276809644
 10
214.4041079289
 20
72.9009835963
 10
214.3994237149
 20
72.8685438698
 10
214.4014376213
 20
72.8318996958
  0
LINE
  5
104
330
1F
100
AcDbEntity
  8
0
  6
Continuous
 62
     7
370
    25
100
AcDbLine
 10
218.8128998452
 20
70.476883092
 30
0.0
 11
214.5407104658
 21
72.9431655244
 31
0.0
  0
ARC
  5
105
330
1F
100
AcDbEntity
  8
0
  6
Continuous
 62
     7
370
    25
100
AcDbCircle
 10
218.6429639474
 20
70.214269978
 30
0.0
 40
0.3128000271289555
100
AcDbArc
 50
8.690395554
 51
57.0932553479
  0
LINE
  5
106
330
1F
100
AcDbEntity
  8
0
  6
Continuous
 62
     7
370
    25
100
AcDbLine
 10
219.6940307505
 20
64.9748492615
 30
0.0
 11
218.952172789
 21
70.2615325349
 31
0.0
  0
LWPOLYLINE
  5
107
330
1F
100
AcDbEntity
  8
0
  6
Continuous
 62
     7
370
    25
100
AcDbPolyline
 90
        9
 70
   128
 43
0.0
 10
219.5547578067
 20
64.8635835139
 10
219.5853669554
 20
64.8497843648
 10
219.6145250013
 20
64.8443811602
 10
219.6408496595
 20
64.8476308069
 10
219.6630929881
 20
64.8593784335
 10
219.680200328
 20
64.8790678527
 10
219.6913603525
 20
64.90576552
 10
219.6960445796
 20
64.9382050251
 10
219.6940307505
 20
64.9748492615
  0
LINE
  5
108
330
1F
100
AcDbEntity
  8
0
  6
Continuous
 62
     7
370
    25
100
AcDbLine
 10
215.2825683552
 20
67.3298659879
 30
0.0
 11
219.5547578067
 21
64.8635835139
 31
0.0
  0
ARC
  5
109
330
1F
100
AcDbEntity
  8
0
  6
Continuous
 62
     7
370
    25
100
AcDbCircle
 10
215.4525042424
 20
67.5924789134
 30
0.0
 40
0.3127998631485501
100
AcDbArc
 50
188.6904114554
 51
237.0932382194
  0
LWPOLYLINE
  5
10A
330
1F
100
AcDbEntity
  8
0
  6
Continuous
 62
     7
370
    25
100
AcDbPolyline
 90
        9
 70
   128
 43
0.0
 10
219.5547578066
 20
64.8717489842
 10
219.5838364979
 20
64.8586394313
 10
219.6115368556
 20
64.8535066246
 10
219.6365450832
 20
64.8565937889
 10
219.6576761301
 20
64.8677542338
 10
219.6739280208
 20
64.8864591535
 10
219.6845302581
 20
64.9118217759
 10
219.6889803726
 20
64.9426393818
 10
219.6870669715
 20
64.9774514823
  0
LINE
  5
10B
330
1F
100
AcDbEntity
  8
0
  6
Continuous
 62
     7
370
    25
100
AcDbLine
 10
219.6870669715
 20
64.9774514823
 30
0.0
 11
218.9452093394
 21
70.264134542
 31
0.0
  0
ARC
  5
10C
330
1F
100
AcDbEntity
  8
0
  6
Continuous
 62
     7
370
    25
100
AcDbCircle
 10
218.6514604334
 20
70.219234767
 30
0.0
 40
0.2971605786859791
100
AcDbArc
 50
8.6904467271
 51
57.0932534056
  0
LINE
  5
10D
330
1F
100
AcDbEntity
  8
0
  6
Continuous
 62
     7
370
    25
100
AcDbLine
 10
218.8128998451
 20
70.4687176841
 30
0.0
 11
214.5407104657
 21
72.9350001165
 31
0.0
  0
LWPOLYLINE
  5
10E
330
1F
100
AcDbEntity
  8
0
  6
Continuous
 62
     7
370
    25
100
AcDbPolyline
 90
        9
 70
   128
 43
0.0
 10
214.5407104657
 20
72.9350001165
 10
214.5116317435
 20
72.9481094027
 10
214.4839315814
 20
72.9532421998
 10
214.4589231942
 20
72.9501551721
 10
214.4377921782
 20
72.9389946648
 10
214.4215403081
 20
72.9202897808
 10
214.4109380554
 20
72.8949272743
 10
214.4064880528
 20
72.8641095444
 10
214.4084012635
 20
72.8292975775
  0
LINE
  5
10F
330
1F
100
AcDbEntity
  8
0
  6
Continuous
 62
     7
370
    25
100
AcDbLine
 10
214.4084012635
 20
72.8292975775
 30
0.0
 11
215.1502591903
 21
67.5426141696
 31
0.0
  0
ARC
  5
110
330
1F
100
AcDbEntity
  8
0
  6
Continuous
 62
     7
370
    25
100
AcDbCircle
 10
215.4440070024
 20
67.5875135024
 30
0.0
 40
0.2971594306463926
100
AcDbArc
 50
188.6903943319
 51
237.0932857343
  0
LINE
  5
111
330
1F
100
AcDbEntity
  8
0
  6
Continuous
 62
     7
370
    25
100
AcDbLine
 10
215.2825683552
 20
67.3380314582
 30
0.0
 11
219.5547578066
 21
64.8717489842
 31
0.0
  0
LINE
  5
112
330
1F
100
AcDbEntity
  8
0
  6
Continuous
 62
     7
370
    25
100
AcDbLine
 10
219.9646843938
 20
70.9784860006
 30
0.0
 11
219.1585590532
 21
70.407673467
 31
0.0
  0
LINE
  5
113
330
1F
100
AcDbEntity
  8
0
  6
Continuous
 62
     7
370
    25
100
AcDbLine
 10
219.0454133276
 20
70.327555687
 30
0.0
 11
218.952172789
 21
70.2615325349
 31
0.0
  0
LINE
  5
114
330
1F
100
AcDbEntity
  8
0
  6
Continuous
 62
     7
370
    25
100
AcDbLine
 10
220.4410925307
 20
71.2413832572
 30
0.0
 11
219.9646843938
 21
70.9784860006
 31
0.0
  0
LINE
  5
115
330
1F
100
AcDbEntity
  8
0
  6
Continuous
 62
     7
370
    25
100
AcDbLine
 10
220.4719868292
 20
71.021222976
 30
0.0
 11
220.4410925307
 21
71.2413832572
 31
0.0
  0
LINE
  5
116
330
1F
100
AcDbEntity
  8
0
  6
Continuous
 62
     7
370
    25
100
AcDbLine
 10
220.1263779793
 20
65.2809915942
 30
0.0
 11
219.6940307505
 21
64.9748492615
 31
0.0
  0
LINE
  5
117
330
1F
100
AcDbEntity
  8
0
  6
Continuous
 62
     7
370
    25
100
AcDbLine
 10
218.8904670194
 20
70.3583535103
 30
0.0
 11
218.9452093394
 21
70.264134542
 31
0.0
  0
LINE
  5
118
330
1F
100
AcDbEntity
  8
0
  6
Continuous
 62
     7
370
    25
100
AcDbLine
 10
219.6323249809
 20
65.0716703556
 30
0.0
 11
219.6870669715
 21
64.9774514823
 31
0.0
  0
LINE
  5
119
330
1F
100
AcDbEntity
  8
0
  6
Continuous
 62
     7
370
    25
100
AcDbLine
 10
219.4508544446
 20
65.7143888752
 30
0.0
 11
219.6323249809
 21
65.0716703556
 31
0.0
  0
LINE
  5
11A
330
1F
100
AcDbEntity
  8
0
  6
Continuous
 62
     7
370
    25
100
AcDbLine
 10
218.8329510231
 20
70.284287744
 30
0.0
 11
218.8904670194
 21
70.3583535103
 31
0.0
  0
LINE
  5
11B
330
1F
100
AcDbEntity
  8
0
  6
Continuous
 62
     7
370
    25
100
AcDbLine
 10
219.9646843938
 20
70.9784860006
 30
0.0
 11
218.8128998452
 21
70.476883092
 31
0.0
  0
LINE
  5
11C
330
1F
100
AcDbEntity
  8
0
  6
Continuous
 62
     7
370
    25
100
AcDbLine
 10
218.8904670194
 20
70.3583535103
 30
0.0
 11
218.8128998451
 21
70.4687176841
 31
0.0
  0
LINE
  5
11D
330
1F
100
AcDbEntity
  8
0
  6
Continuous
 62
     7
370
    25
100
AcDbLine
 10
215.6924950144
 20
73.4447684331
 30
0.0
 11
214.5407104658
 21
72.9431655244
 31
0.0
  0
LINE
  5
11E
330
1F
100
AcDbEntity
  8
0
  6
Continuous
 62
     7
370
    25
100
AcDbLine
 10
216.3013442206
 20
73.6312090877
 30
0.0
 11
215.6924950144
 21
73.4447684331
 31
0.0
  0
LINE
  5
11F
330
1F
100
AcDbEntity
  8
0
  6
Continuous
 62
     7
370
    25
100
AcDbLine
 10
220.4410925307
 20
71.2413832572
 30
0.0
 11
216.3013442206
 21
73.6312090877
 31
0.0
  0
LINE
  5
120
330
1F
100
AcDbEntity
  8
0
  6
Continuous
 62
     7
370
    25
100
AcDbLine
 10
214.61827764
 20
72.8246359427
 30
0.0
 11
214.5407104657
 21
72.9350001165
 31
0.0
  0
LINE
  5
121
330
1F
100
AcDbEntity
  8
0
  6
Continuous
 62
     7
370
    25
100
AcDbLine
 10
215.1408019767
 20
72.3788030923
 30
0.0
 11
214.61827764
 21
72.8246359427
 31
0.0
  0
SPLINE
  5
122
330
1F
100
AcDbEntity
  8
0
  6
Continuous
 62
     7
370
    25
100
AcDbSpline
210
0.0
220
0.0
230
1.0
 70
     8
 71
     3
 72
    11
 73
     7
 74
     0
 42
0.000000001
 43
0.00000001
 40
0.0
 40
0.0
 40
0.0
 40
0.0
 40
0.3372312950519215
 40
0.6736323267689756
 40
0.9918840785429549
 40
1.0
 40
1.0
 40
1.0
 40
1.0
 10
218.8329510231364
 20
70.28428774403639
 30
0.0
 10
218.8241812581506
 20
70.27531456991373
 30
0.0
 10
218.8066633193374
 20
70.25739031362009
 30
0.0
 10
218.7422590780911
 20
70.20799674513043
 30
0.0
 10
218.687497204174
 20
70.16887560695245
 30
0.0
 10
218.658313344932
 20
70.14860886562282
 30
0.0
 10
218.657587617696
 20
70.14810488408816
 30
0.0
  0
ARC
  5
123
330
1F
100
AcDbEntity
  8
0
  6
Continuous
 62
     7
370
    25
100
AcDbCircle
 10
217.6107931518
 20
69.444349887
 30
0.0
 40
0.782000824537337
100
AcDbArc
 50
8.6904209615
 51
57.093230517
  0
LINE
  5
124
330
1F
100
AcDbEntity
  8
0
  6
Continuous
 62
     7
370
    25
100
AcDbLine
 10
215.296461504
 20
71.2030077441
 30
0.0
 11
215.7116525783
 21
68.2442421534
 31
0.0
  0
LWPOLYLINE
  5
125
330
1F
100
AcDbEntity
  8
0
  6
Continuous
 62
     7
370
    25
100
AcDbPolyline
 90
        9
 70
   128
 43
0.0
 10
215.6446436166
 20
71.4811722555
 10
215.5681206625
 20
71.5156703659
 10
215.4952254654
 20
71.5291777595
 10
215.4294139023
 20
71.5210539755
 10
215.3738059925
 20
71.4916842911
 10
215.3310378895
 20
71.4424608858
 10
215.303137252
 20
71.3757174304
 10
215.2914266843
 20
71.2946181924
 10
215.296461504
 20
71.2030077441
  0
LINE
  5
126
330
1F
100
AcDbEntity
  8
0
  6
Continuous
 62
     7
370
    25
100
AcDbLine
 10
218.0356335918
 20
70.1008831231
 30
0.0
 11
215.6446436166
 21
71.4811722555
 31
0.0
  0
LINE
  5
127
330
1F
100
AcDbEntity
  8
0
  6
Continuous
 62
     7
370
    25
100
AcDbLine
 10
218.7990068609
 20
66.6037410506
 30
0.0
 11
218.3838159513
 21
69.5625067364
 31
0.0
  0
LWPOLYLINE
  5
128
330
1F
100
AcDbEntity
  8
0
  6
Continuous
 62
     7
370
    25
100
AcDbPolyline
 90
        9
 70
   128
 43
0.0
 10
218.4508248307
 20
66.3255764917
 10
218.5273477025
 20
66.2910784289
 10
218.6002429819
 20
66.2775712729
 10
218.666054298
 20
66.2856948192
 10
218.7216624548
 20
66.3150645512
 10
218.7644303108
 20
66.3642880039
 10
218.7923311952
 20
66.4310313168
 10
218.8040417629
 20
66.5121306498
 10
218.7990068609
 20
66.6037410506
  0
LINE
  5
129
330
1F
100
AcDbEntity
  8
0
  6
Continuous
 62
     7
370
    25
100
AcDbLine
 10
216.0598346085
 20
67.7058657666
 30
0.0
 11
218.4508248307
 21
66.3255764917
 31
0.0
  0
ARC
  5
12A
330
1F
100
AcDbEntity
  8
0
  6
Continuous
 62
     7
370
    25
100
AcDbCircle
 10
216.4846752881
 20
68.3623986849
 30
0.0
 40
0.7820006878675264
100
AcDbArc
 50
188.6903989323
 51
237.0932031273
  0
LWPOLYLINE
  5
12B
330
1F
100
AcDbEntity
  8
0
  6
Continuous
 62
     7
370
    25
100
AcDbPolyline
 90
       28
 70
   128
 43
0.0
 10
217.0477341825
 20
67.3519467336
 10
217.3575671905
 20
67.2149029404
 10
217.6506972048
 20
67.1688851781
 10
217.9113211329
 20
67.2163737345
 10
218.1253889277
 20
67.3548094743
 10
218.2813602554
 20
67.5767281318
 10
218.370826161
 20
67.8701672169
 10
218.3889641231
 20
68.2193063677
 10
218.3347958738
 20
68.6053240356
 10
218.2112417289
 20
69.0074096674
 10
218.0249628659
 20
69.403886513
 10
217.7860011008
 20
69.7733808041
 10
217.5072392106
 20
70.0959728536
 10
217.2037055102
 20
70.3542714299
 10
216.8917630195
 20
70.5343519966
 10
216.5882291545
 20
70.6265060663
 10
216.3094672642
 20
70.6257656444
 10
216.0705056638
 20
70.5321706396
 10
215.8842266362
 20
70.3507668862
 10
215.7606724912
 20
70.0913338338
 10
215.7065043243
 20
69.7678574476
 10
215.7246421218
 20
69.3977767467
 10
215.8141082743
 20
69.0010423831
 10
215.9700794373
 20
68.5990431588
 10
216.1841472322
 20
68.213450004
 10
216.4447711603
 20
67.8650514652
 10
216.7379011746
 20
67.5726285169
 10
217.0477341825
 20
67.3519467336
  0
LWPOLYLINE
  5
12C
330
1F
100
AcDbEntity
  8
0
  6
Continuous
 62
     7
370
    25
100
AcDbPolyline
 90
        3
 70
   128
 43
0.0
 10
218.0485582275
 20
67.4036247007
 10
218.057283613
 20
67.4036025154
 10
218.1789490523
 20
67.413351659
  0
ARC
  5
12D
330
1F
100
AcDbEntity
  8
0
  6
Continuous
 62
     7
370
    25
100
AcDbCircle
 10
217.0583024491
 20
70.0540414046
 30
0.0
 40
0.932777810863135
100
AcDbArc
 50
142.0157407088
 51
169.5432957848
  0
SPLINE
  5
12E
330
1F
100
AcDbEntity
  8
0
  6
Continuous
 62
     7
370
    25
100
AcDbSpline
210
0.0
220
0.0
230
1.0
 70
     8
 71
     3
 72
    11
 73
     7
 74
     0
 42
0.000000001
 43
0.00000001
 40
0.0
 40
0.0
 40
0.0
 40
0.0
 40
0.0076277211118008
 40
0.3209884219895704
 40
0.6632165129578631
 40
0.9999999999999999
 40
0.9999999999999999
 40
0.9999999999999999
 40
0.9999999999999999
 10
219.2369415517878
 20
65.98857475135789
 30
0.0
 10
219.2376894430323
 20
65.98809923809206
 30
0.0
 10
219.2691620712109
 20
65.96808877224122
 30
0.0
 10
219.3306047128022
 20
65.91892192946217
 30
0.0
 10
219.4083910386137
 20
65.82600527246457
 30
0.0
 10
219.4367758431042
 20
65.7513949217932
 30
0.0
 10
219.4508544446257
 20
65.71438887523627
 30
0.0
  0
LINE
  5
12F
330
1F
100
AcDbEntity
  8
0
  6
Continuous
 62
     7
370
    25
100
AcDbLine
 10
219.6323249809
 20
65.0716703556
 30
0.0
 11
219.5547578066
 21
64.8717489842
 31
0.0
  0
LINE
  5
130
330
1F
100
AcDbEntity
  8
0
  6
Continuous
 62
     7
370
    25
100
AcDbLine
 10
215.3601355295
 20
67.5379528296
 30
0.0
 11
215.2825683552
 21
67.3380314582
 31
0.0
  0
LINE
  5
131
330
1F
100
AcDbEntity
  8
0
  6
Continuous
 62
     7
370
    25
100
AcDbLine
 10
215.6713829727
 20
67.7584942028
 30
0.0
 11
215.3601355295
 21
67.5379528296
 31
0.0
  0
SPLINE
  5
132
330
1F
100
AcDbEntity
  8
0
  6
Continuous
 62
     7
370
    25
100
AcDbSpline
210
0.0
220
0.0
230
1.0
 70
     8
 71
     3
 72
    11
 73
     7
 74
     0
 42
0.000000001
 43
0.00000001
 40
0.0
 40
0.0
 40
0.0
 40
0.0
 40
0.3367831041476282
 40
0.6790111449291144
 40
0.9923716964631503
 40
1.0
 40
1.0
 40
1.0
 40
1.0
 10
215.1408019767044
 20
72.37880309228042
 30
0.0
 10
215.1692309814431
 20
72.35008148796065
 30
0.0
 10
215.2265486164999
 20
72.29217392314169
 30
0.0
 10
215.2785679958382
 20
72.18438171239465
 30
0.0
 10
215.2968350289998
 20
72.11029177043666
 30
0.0
 10
215.3013228691323
 20
72.0747021699801
 30
0.0
 10
215.3014295227005
 20
72.07385638274872
 30
0.0
  0
LINE
  5
133
330
1F
100
AcDbEntity
  8
0
  6
Continuous
 62
     7
370
    25
100
AcDbLine
 10
215.3601355295
 20
67.5379528296
 30
0.0
 11
215.1502591903
 21
67.5426141696
 31
0.0
  0
LINE
  5
134
330
1F
100
AcDbEntity
  8
0
  6
Continuous
 62
     7
370
    25
100
AcDbLine
 10
214.61827764
 20
72.8246359427
 30
0.0
 11
214.4084012635
 21
72.8292975775
 31
0.0
  0
SPLINE
  5
135
330
1F
100
AcDbEntity
  8
0
  6
Continuous
 62
     7
370
    25
100
AcDbSpline
210
0.0
220
0.0
230
1.0
 70
     8
 71
     3
 72
    11
 73
     7
 74
     0
 42
0.000000001
 43
0.00000001
 40
0.0
 40
0.0
 40
0.0
 40
0.0
 40
0.0081166784778767
 40
0.3263682677544567
 40
0.6627685911147025
 40
1.0
 40
1.0
 40
1.0
 40
1.0
 10
215.8114070688063
 20
67.87427616126962
 30
0.0
 10
215.8113662573003
 20
67.87416763759896
 30
0.0
 10
215.8097252436047
 20
67.86980394591096
 30
0.0
 10
215.7966857315887
 20
67.85476406136259
 30
0.0
 10
215.7508827500112
 20
67.816110759839
 30
0.0
 10
215.697904685474
 20
67.77771551171558
 30
0.0
 10
215.6713829726617
 20
67.75849420280248
 30
0.0
  0
LWPOLYLINE
  5
136
330
1F
100
AcDbEntity
  8
0
  6
Continuous
 62
     7
370
    25
100
AcDbPolyline
 90
       17
 70
   128
 43
0.0
 10
216.8938713292
 20
70.5334175738
 10
216.6598083121
 20
70.5545764037
 10
216.4174810553
 20
70.4935661574
 10
216.223830939
 20
70.3433251015
 10
216.0901121596
 20
70.1125850712
 10
216.0240960361
 20
69.8147553725
 10
216.0296190842
 20
69.4671451663
 10
216.1063604282
 20
69.089956024
 10
216.24986024
 20
68.7051089157
 10
216.4517785472
 20
68.3349698884
 10
216.7003809099
 20
68.0010497203
 10
216.981219191
 20
67.7227550191
 10
217.2779721879
 20
67.5162592041
 10
217.5733936078
 20
67.3935628527
 10
217.8503148662
 20
67.3617965452
 10
218.092642123
 20
67.4228068865
 10
218.2712166737
 20
67.5561116847
  0
LWPOLYLINE
  5
137
330
1F
100
AcDbEntity
  8
0
  6
Continuous
 62
     7
370
    25
100
AcDbPolyline
 90
       24
 70
   128
 43
0.0
 10
217.8347633582
 20
69.0465927434
 10
217.660181892
 20
69.3598013308
 10
217.4424436994
 20
69.6356555437
 10
217.1976976086
 20
69.8536962631
 10
216.9440952467
 20
69.9977524278
 10
216.700444974
 20
70.0571402534
 10
216.4848174165
 20
70.0274549333
 10
216.3132046689
 20
69.9108980824
 10
216.1983344211
 20
69.7161145062
 10
216.1487259341
 20
69.4575501869
 10
216.1680588252
 20
69.1543814921
 10
216.2548987846
 20
68.8290934639
 10
216.4028055762
 20
68.5058111832
 10
216.6008096595
 20
68.2085103502
 10
216.8342258212
 20
67.9592412998
 10
217.0857427373
 20
67.7764908765
 10
217.3367064761
 20
67.6738125809
 10
217.5685042647
 20
67.6588216531
 10
217.7639447989
 20
67.7326301777
 10
217.9085331847
 20
67.8897639334
 10
217.9915456834
 20
68.1185689608
 10
218.0068258916
 20
68.4020759035
 10
217.9532404543
 20
68.7192584264
 10
217.8347633582
 20
69.0465927434
  0
LWPOLYLINE
  5
138
330
1F
100
AcDbEntity
  8
0
  6
Continuous
 62
     7
370
    25
100
AcDbPolyline
 90
        3
 70
   128
 43
0.0
 10
216.7267460069
 20
70.5951744852
 10
216.4881917162
 20
70.5343865531
 10
216.4508433522
 20
70.5145923821
  0
LINE
  5
139
330
1F
100
AcDbEntity
  8
0
  6
Continuous
 62
     7
370
    25
100
AcDbLine
 10
218.2007011478
 20
67.4834212631
 30
0.0
 11
218.252833836
 21
67.5173376667
 31
0.0
  0
LWPOLYLINE
  5
13A
330
1F
100
AcDbEntity
  8
0
  6
Continuous
 62
     7
370
    25
100
AcDbPolyline
 90
       21
 70
   128
 43
0.0
 10
217.6526856799
 20
69.0007513053
 10
217.4971374671
 20
69.2722099846
 10
217.3005892611
 20
69.5029401278
 10
217.082280275
 20
69.6703567466
 10
216.863580278
 20
69.7580715895
 10
216.6658969059
 20
69.7574987578
 10
216.5085811597
 20
69.6686940603
 10
216.4070317855
 20
69.5003506523
 10
216.3711893482
 20
69.2689468915
 10
216.4045624083
 20
68.9971343497
 10
216.503884091
 20
68.711519701
 10
216.6594321391
 20
68.4400611167
 10
216.8559803451
 20
68.2093309736
 10
217.0742893313
 20
68.0419141647
 10
217.2929893282
 20
67.9541993218
 10
217.490672865
 20
67.9547720583
 10
217.6479886112
 20
68.043576946
 10
217.7495378207
 20
68.211920449
 10
217.7853804226
 20
68.4433241148
 10
217.7520073626
 20
68.7151366566
 10
217.6526856799
 20
69.0007513053
  0
SPLINE
  5
13B
330
1F
100
AcDbEntity
  8
0
  6
Continuous
 62
     7
370
    25
100
AcDbSpline
210
0.0
220
0.0
230
1.0
 70
     8
 71
     3
 72
    15
 73
    11
 74
     0
 42
0.000000001
 43
0.00000001
 40
0.0
 40
0.0
 40
0.0
 40
0.0
 40
0.1262471539765121
 40
0.2533632902844802
 40
0.3794183603686538
 40
0.5042691876709557
 40
0.6284502729899278
 40
0.7526361109569853
 40
0.8774889603753054
 40
1.0
 40
1.0
 40
1.0
 40
1.0
 10
216.8628301508264
 20
69.64540704576093
 30
0.0
 10
216.8476968242236
 20
69.66191781003265
 30
0.0
 10
216.8173260055535
 20
69.69505298519684
 30
0.0
 10
216.7647509323117
 20
69.73017571770947
 30
0.0
 10
216.7142054259748
 20
69.74867609554924
 30
0.0
 10
216.6706782567799
 20
69.74783872900908
 30
0.0
 10
216.6389391026657
 20
69.72822458709696
 30
0.0
 10
216.6226342427771
 20
69.6921426652903
 30
0.0
 10
216.6223193825033
 20
69.64409951589889
 30
0.0
 10
216.635965367646
 20
69.6076817003312
 30
0.0
 10
216.6427237665093
 20
69.58964517744455
 30
0.0
  0
SPLINE
  5
13C
330
1F
100
AcDbEntity
  8
0
  6
Continuous
 62
     7
370
    25
100
AcDbSpline
210
0.0
220
0.0
230
1.0
 70
     8
 71
     3
 72
    12
 73
     8
 74
     0
 42
0.000000001
 43
0.00000001
 40
0.0
 40
0.0
 40
0.0
 40
0.0
 40
0.2058747551095816
 40
0.4120995260315558
 40
0.6141690838251107
 40
0.8132898286217388
 40
1.0
 40
1.0
 40
1.0
 40
1.0
 10
216.6427237665093
 20
69.58964517744455
 30
0.0
 10
216.6547363616426
 20
69.55727831805268
 30
0.0
 10
216.6787819749972
 20
69.49248957109135
 30
0.0
 10
216.6748466231526
 20
69.40634800505158
 30
0.0
 10
216.6391932829042
 20
69.34130477583936
 30
0.0
 10
216.5772284797366
 20
69.30223901128112
 30
0.0
 10
216.5229881003272
 20
69.300762742677
 30
0.0
 10
216.4967402541578
 20
69.30004835108076
 30
0.0
  0
SPLINE
  5
13D
330
1F
100
AcDbEntity
  8
0
  6
Continuous
 62
     7
370
    25
100
AcDbSpline
210
0.0
220
0.0
230
1.0
 70
     8
 71
     3
 72
    15
 73
    11
 74
     0
 42
0.000000001
 43
0.00000001
 40
0.0
 40
0.0
 40
0.0
 40
0.0
 40
0.1268763582490403
 40
0.2539937386578793
 40
0.3800496022420947
 40
0.5049007514714955
 40
0.629082031327059
 40
0.7532680680188402
 40
0.8781205361506292
 40
1.0
 40
1.0
 40
1.0
 40
1.0
 10
216.4967402541578
 20
69.30004835108076
 30
0.0
 10
216.4800360259432
 20
69.299380849059
 30
0.0
 10
216.4465958371312
 20
69.29804457698745
 30
0.0
 10
216.4096479121335
 20
69.27122834282386
 30
0.0
 10
216.3880121340106
 20
69.22916978888466
 30
0.0
 10
216.3843943304542
 20
69.17517465692889
 30
0.0
 10
216.3986686295747
 20
69.11574903547806
 30
0.0
 10
216.429258812755
 20
69.05767635355325
 30
0.0
 10
216.472283247058
 20
69.00635328124575
 30
0.0
 10
216.5067485605223
 20
68.98389332036169
 30
0.0
 10
216.5237735718077
 20
68.97279865592711
 30
0.0
  0
SPLINE
  5
13E
330
1F
100
AcDbEntity
  8
0
  6
Continuous
 62
     7
370
    25
100
AcDbSpline
210
0.0
220
0.0
230
1.0
 70
     8
 71
     3
 72
    12
 73
     8
 74
     0
 42
0.000000001
 43
0.00000001
 40
0.0
 40
0.0
 40
0.0
 40
0.0
 40
0.2057951050565721
 40
0.4120009070683995
 40
0.6140549993495306
 40
0.8131813101248405
 40
1.0
 40
1.0
 40
1.0
 40
1.0
 10
216.5237735718077
 20
68.97279865592711
 30
0.0
 10
216.5543862339164
 20
68.95270292582032
 30
0.0
 10
216.6156726505836
 20
68.91247136137216
 30
0.0
 10
216.6889052695101
 20
68.81928345944607
 30
0.0
 10
216.7346176863327
 20
68.71461736180203
 30
0.0
 10
216.750334557414
 20
68.6090466913638
 30
0.0
 10
216.7373581312363
 20
68.54910535397859
 30
0.0
 10
216.7310768244862
 20
68.52009043708424
 30
0.0
  0
SPLINE
  5
13F
330
1F
100
AcDbEntity
  8
0
  6
Continuous
 62
     7
370
    25
100
AcDbSpline
210
0.0
220
0.0
230
1.0
 70
     8
 71
     3
 72
    15
 73
    11
 74
     0
 42
0.000000001
 43
0.00000001
 40
0.0
 40
0.0
 40
0.0
 40
0.0
 40
0.1427341577040057
 40
0.2858270510435928
 40
0.4277254667950648
 40
0.5682643285615041
 40
0.7080470994408966
 40
0.8478318147845356
 40
0.9883654965949823
 40
1.0
 40
1.0
 40
1.0
 40
1.0
 10
216.7310768244862
 20
68.52009043708424
 30
0.0
 10
216.7272144911126
 20
68.50147360655389
 30
0.0
 10
216.7194801171122
 20
68.46419315556821
 30
0.0
 10
216.7299975588184
 20
68.39929804584422
 30
0.0
 10
216.7556389008632
 20
68.33692327032568
 30
0.0
 10
216.7944315011906
 20
68.28336289260716
 30
0.0
 10
216.8417091368165
 20
68.24395393421489
 30
0.0
 10
216.8913170256601
 20
68.22532351276172
 30
0.0
 10
216.9265916602529
 20
68.2215262275842
 30
0.0
 10
216.9410505069733
 20
68.22932027395761
 30
0.0
 10
216.9421560041649
 20
68.22991619260475
 30
0.0
  0
LINE
  5
140
330
1F
100
AcDbEntity
  8
0
  6
Continuous
 62
     7
370
    25
100
AcDbLine
 10
216.9623734685
 20
68.2403927302
 30
0.0
 11
216.9782166422
 21
68.2486022968
 31
0.0
  0
SPLINE
  5
141
330
1F
100
AcDbEntity
  8
0
  6
Continuous
 62
     7
370
    25
100
AcDbSpline
210
0.0
220
0.0
230
1.0
 70
     8
 71
     3
 72
    12
 73
     8
 74
     0
 42
0.000000001
 43
0.00000001
 40
0.0
 40
0.0
 40
0.0
 40
0.0
 40
0.1364776973042769
 40
0.3606926877956829
 40
0.5803989227943753
 40
0.7969294920119862
 40
1.0
 40
1.0
 40
1.0
 40
1.0
 10
217.0058081316407
 20
68.26264037687613
 30
0.0
 10
217.0197559580436
 20
68.27118079263842
 30
0.0
 10
217.0566182373283
 20
68.29375199347953
 30
0.0
 10
217.1301438850749
 20
68.28860394067257
 30
0.0
 10
217.2107754791254
 20
68.24938938308684
 30
0.0
 10
217.2816089056836
 20
68.17874874539076
 30
0.0
 10
217.3152315268582
 20
68.11590506561646
 30
0.0
 10
217.3315035603031
 20
68.0854911828386
 30
0.0
  0
SPLINE
  5
142
330
1F
100
AcDbEntity
  8
0
  6
Continuous
 62
     7
370
    25
100
AcDbSpline
210
0.0
220
0.0
230
1.0
 70
     8
 71
     3
 72
    15
 73
    11
 74
     0
 42
0.000000001
 43
0.00000001
 40
0.0
 40
0.0
 40
0.0
 40
0.0
 40
0.1262566603757894
 40
0.2533826322853063
 40
0.3794461121540181
 40
0.5043004964305402
 40
0.6284816718011998
 40
0.7526638770858811
 40
0.8775106734860113
 40
1.0
 40
1.0
 40
1.0
 40
1.0
 10
217.3315035603031
 20
68.0854911828386
 30
0.0
 10
217.3419133666358
 20
68.06625239610841
 30
0.0
 10
217.3628046536562
 20
68.02764235835551
 30
0.0
 10
217.4050001006557
 20
67.98652509932626
 30
0.0
 10
217.4490254557466
 20
67.96426164734254
 30
0.0
 10
217.490481150333
 20
67.96390580679986
 30
0.0
 10
217.5245746981594
 20
67.98488448576505
 30
0.0
 10
217.5475449334263
 20
68.02481763478555
 30
0.0
 10
217.5581598133427
 20
68.0788079534063
 30
0.0
 10
217.5537793958508
 20
68.12057062352407
 30
0.0
 10
217.5516100629523
 20
68.14125292935097
 30
0.0
  0
SPLINE
  5
143
330
1F
100
AcDbEntity
  8
0
  6
Continuous
 62
     7
370
    25
100
AcDbSpline
210
0.0
220
0.0
230
1.0
 70
     8
 71
     3
 72
    12
 73
     8
 74
     0
 42
0.000000001
 43
0.00000001
 40
0.0
 40
0.0
 40
0.0
 40
0.0
 40
0.2058716238685645
 40
0.4120924171802106
 40
0.6141682743134902
 40
0.8133072629942338
 40
1.0
 40
1.0
 40
1.0
 40
1.0
 10
217.5516100629523
 20
68.14125292935097
 30
0.0
 10
217.5477197273506
 20
68.17830837922693
 30
0.0
 10
217.5399324579269
 20
68.25248212703218
 30
0.0
 10
217.5569234905849
 20
68.34616046611205
 30
0.0
 10
217.5916088759186
 20
68.41064735890728
 30
0.0
 10
217.6397823352054
 20
68.44175001183541
 30
0.0
 10
217.6787420862463
 20
68.43440418662878
 30
0.0
 10
217.6975935753039
 20
68.43084975571476
 30
0.0
  0
SPLINE
  5
144
330
1F
100
AcDbEntity
  8
0
  6
Continuous
 62
     7
370
    25
100
AcDbSpline
210
0.0
220
0.0
230
1.0
 70
     8
 71
     3
 72
    15
 73
    11
 74
     0
 42
0.000000001
 43
0.00000001
 40
0.0
 40
0.0
 40
0.0
 40
0.0
 40
0.1268706163170474
 40
0.2539813141181548
 40
0.3800300729948769
 40
0.504874926752951
 40
0.6290526517616325
 40
0.7532382373366789
 40
0.8780953345158303
 40
0.9999999999999999
 40
0.9999999999999999
 40
0.9999999999999999
 40
0.9999999999999999
 10
217.6975935753039
 20
68.43084975571476
 30
0.0
 10
217.7095506628378
 20
68.42877707660635
 30
0.0
 10
217.7334874646998
 20
68.42462779618998
 30
0.0
 10
217.7600552634482
 20
68.4454495667256
 30
0.0
 10
217.7751897593971
 20
68.48375329232734
 30
0.0
 10
217.7767597973302
 20
68.53656152430909
 30
0.0
 10
217.7648661071774
 20
68.5973575693667
 30
0.0
 10
217.7409658908835
 20
68.65929050040306
 30
0.0
 10
217.7082456714544
 20
68.71656694474075
 30
0.0
 10
217.6830213829759
 20
68.74436623345807
 30
0.0
 10
217.6705601393218
 20
68.7580995726724
 30
0.0
  0
SPLINE
  5
145
330
1F
100
AcDbEntity
  8
0
  6
Continuous
 62
     7
370
    25
100
AcDbSpline
210
0.0
220
0.0
230
1.0
 70
     8
 71
     3
 72
    12
 73
     8
 74
     0
 42
0.000000001
 43
0.00000001
 40
0.0
 40
0.0
 40
0.0
 40
0.0
 40
0.2058319485955976
 40
0.4120746573821267
 40
0.6141696596327819
 40
0.81330269842702
 40
1.0
 40
1.0
 40
1.0
 40
1.0
 10
217.6705601393218
 20
68.7580995726724
 30
0.0
 10
217.6480638091049
 20
68.7828864528332
 30
0.0
 10
217.603026254781
 20
68.83250967808817
 30
0.0
 10
217.5428458087839
 20
68.93325293975175
 30
0.0
 10
217.496170635435
 20
69.03737957915239
 30
0.0
 10
217.4666779091172
 20
69.1349779185713
 30
0.0
 10
217.4643723552468
 20
69.18608013522054
 30
0.0
 10
217.4632567335832
 20
69.21080770315555
 30
0.0
  0
SPLINE
  5
146
330
1F
100
AcDbEntity
  8
0
  6
Continuous
 62
     7
370
    25
100
AcDbSpline
210
0.0
220
0.0
230
1.0
 70
     8
 71
     3
 72
    15
 73
    11
 74
     0
 42
0.000000001
 43
0.00000001
 40
0.0
 40
0.0
 40
0.0
 40
0.0
 40
0.1333261251378763
 40
0.2669876228134512
 40
0.3995332635938206
 40
0.5308137318154289
 40
0.6613956873228704
 40
0.7919862349275326
 40
0.9232840686952811
 40
1.0
 40
1.0
 40
1.0
 40
1.0
 10
217.4632567335832
 20
69.21080770315555
 30
0.0
 10
217.4623753292036
 20
69.22668409172753
 30
0.0
 10
217.4606103033333
 20
69.25847680481597
 30
0.0
 10
217.4397136517074
 20
69.31737968445411
 30
0.0
 10
217.4075797202539
 20
69.37597612205978
 30
0.0
 10
217.3667155980212
 20
69.42842365749033
 30
0.0
 10
217.3219059570265
 20
69.4689374169773
 30
0.0
 10
217.2786479958015
 20
69.49243935346064
 30
0.0
 10
217.2448810241136
 20
69.49907415710747
 30
0.0
 10
217.2315873822255
 20
69.49058783965579
 30
0.0
 10
217.2266846580354
 20
69.48745806722737
 30
0.0
  0
LINE
  5
147
330
1F
100
AcDbEntity
  8
0
  6
Continuous
 62
     7
370
    25
100
AcDbLine
 10
217.2161169159
 20
69.4822956533
 30
0.0
 11
217.1973033488
 21
69.4733266709
 31
0.0
  0
SPLINE
  5
148
330
1F
100
AcDbEntity
  8
0
  6
Continuous
 62
     7
370
    25
100
AcDbSpline
210
0.0
220
0.0
230
1.0
 70
     8
 71
     3
 72
    11
 73
     7
 74
     0
 42
0.000000001
 43
0.00000001
 40
0.0
 40
0.0
 40
0.0
 40
0.0
 40
0.2597165641932074
 40
0.5142027714835492
 40
0.7649548193980671
 40
1.0
 40
1.0
 40
1.0
 40
1.0
 10
217.1679025520866
 20
69.45931028937677
 30
0.0
 10
217.1461185296388
 20
69.46007350476735
 30
0.0
 10
217.1029891868819
 20
69.46158456537411
 30
0.0
 10
217.0196314106592
 20
69.50318978849222
 30
0.0
 10
216.9354600371917
 20
69.56512902900639
 30
0.0
 10
216.8865125875724
 20
69.61923078211751
 30
0.0
 10
216.8628301508264
 20
69.64540704576093
 30
0.0
  0
ARC
  5
149
330
1F
100
AcDbEntity
  8
0
  6
Continuous
 62
     7
370
    25
100
AcDbCircle
 10
217.6551588601
 20
68.4397409288
 30
0.0
 40
0.1767155934390865
100
AcDbArc
 50
50.0563652966
 51
114.3255030406
  0
ARC
  5
14A
330
1F
100
AcDbEntity
  8
0
  6
Continuous
 62
     7
370
    25
100
AcDbCircle
 10
217.5672000161
 20
68.8204093109
 30
0.0
 40
0.2556452613609224
100
AcDbArc
 50
171.8418950784
 51
260.6881840034
  0
ARC
  5
14B
330
1F
100
AcDbEntity
  8
0
  6
Continuous
 62
     7
370
    25
100
AcDbCircle
 10
216.8039058431
 20
68.8967471581
 30
0.0
 40
0.5118062054044189
100
AcDbArc
 50
355.5107114177
 51
53.7217291387
  0
ARC
  5
14C
330
1F
100
AcDbEntity
  8
0
  6
Continuous
 62
     7
370
    25
100
AcDbCircle
 10
217.2869032501
 20
69.5514316322
 30
0.0
 40
0.3017692112499457
100
AcDbArc
 50
183.8248201008
 51
233.3442769078
  0
ARC
  5
14D
330
1F
100
AcDbEntity
  8
0
  6
Continuous
 62
     7
370
    25
100
AcDbCircle
 10
234.6520652906
 20
37.6744103353
 30
0.0
 40
28.31836288238663
100
AcDbArc
 50
91.4938104003
 51
117.6139538531
  0
LINE
  5
14E
330
1F
100
AcDbEntity
  8
0
  6
Continuous
 62
     7
370
    25
100
AcDbLine
 10
268.0349398156
 20
46.2854546777
 30
0.0
 11
233.9138351267
 21
65.9831491374
 31
0.0
  0
ARC
  5
14F
330
1F
100
AcDbEntity
  8
0
  6
Continuous
 62
     7
370
    25
100
AcDbCircle
 10
258.9034341542
 20
47.9574197094
 30
0.0
 40
9.283310977850764
100
AcDbArc
 50
305.9993775922
 51
349.624159898
  0
LINE
  5
150
330
1F
100
AcDbEntity
  8
0
  6
Continuous
 62
     7
370
    25
100
AcDbLine
 10
225.7306015381
 20
62.7472498886
 30
0.0
 11
264.3599458536
 21
40.4470040893
 31
0.0
  0
ARC
  5
151
330
1F
100
AcDbEntity
  8
0
  6
Continuous
 62
     7
370
    25
100
AcDbCircle
 10
223.6090202311
 20
58.6449249984
 30
0.0
 40
4.618460430371347
100
AcDbArc
 50
62.6535498011
 51
116.8068324354
  0
ELLIPSE
  5
152
330
1F
100
AcDbEntity
  8
0
  6
Continuous
 62
     7
370
    25
100
AcDbEllipse
 10
248.0929272366
 20
57.7994618659
 30
0.0
 11
19.99999994508739
 21
-11.54763094854668
 31
0.0
210
0.0
220
0.0
230
1.0
 40
0.0000703729
 41
0.0427785919715463
 42
0.0762083198190371
  0
LINE
  5
153
330
1F
100
AcDbEntity
  8
0
  6
Continuous
 62
     7
370
    25
100
AcDbLine
 10
268.0746645374
 20
40.401833633
 30
0.0
 11
268.0746645374
 21
46.2624549735
 31
0.0
  0
SPLINE
  5
154
330
1F
100
AcDbEntity
  8
0
  6
Continuous
 62
     7
370
    25
100
AcDbSpline
210
0.0
220
0.0
230
1.0
 70
     8
 71
     3
 72
    37
 73
    33
 74
     0
 42
0.000000001
 43
0.00000001
 40
0.0
 40
0.0
 40
0.0
 40
0.0
 40
0.0275314709282373
 40
0.0546981802172175
 40
0.0815001415905788
 40
0.1079373693559724
 40
0.1340098784375026
 40
0.1597176844104654
 40
0.1850608035385758
 40
0.2100392528139231
 40
0.2346530499998698
 40
0.2589022136771727
 40
0.2827867632936205
 40
0.3063067192175135
 40
0.3294621027953381
 40
0.3522529364140586
 40
0.374679243568448
 40
0.39674104893398
 40
0.418438378445829
 40
0.4397712593845969
 40
0.4607397204694882
 40
0.4813437919596907
 40
0.5015835057648679
 40
0.5611152637753969
 40
0.6196068051092662
 40
0.6770589867559126
 40
0.7334727134161686
 40
0.7888489410323186
 40
0.8431886806466706
 40
0.8964930026254524
 40
0.9487630412896537
 40
1.0
 40
1.0
 40
1.0
 40
1.0
 10
264.1211011481616
 20
31.87808072483515
 30
0.0
 10
264.186047514411
 20
31.95024226142344
 30
0.0
 10
264.3150797791534
 20
32.09360927379068
 30
0.0
 10
264.5019661078121
 20
32.30929185567592
 30
0.0
 10
264.6824623893511
 20
32.52349055257312
 30
0.0
 10
264.8563134164027
 20
32.7362499412076
 30
0.0
 10
265.0237444386399
 20
32.94742837750449
 30
0.0
 10
265.1848573220692
 20
33.15693758279951
 30
0.0
 10
265.3397887567838
 20
33.36467969369438
 30
0.0
 10
265.4886684408939
 20
33.57056372186523
 30
0.0
 10
265.6316297644152
 20
33.7745011712278
 30
0.0
 10
265.7688067298708
 20
33.97640711943122
 30
0.0
 10
265.9003344921452
 20
34.17619986291389
 30
0.0
 10
266.0263489590047
 20
34.37380093565633
 30
0.0
 10
266.1469866472523
 20
34.56913502680295
 30
0.0
 10
266.2623844813837
 20
34.76212992384746
 30
0.0
 10
266.3726796161143
 20
34.95271644119174
 30
0.0
 10
266.4780092633331
 20
35.14082837126413
 30
0.0
 10
266.5785105211514
 20
35.3264023524961
 30
0.0
 10
266.6743202320134
 20
35.50937803225145
 30
0.0
 10
266.7655747661876
 20
35.6896971516752
 30
0.0
 10
266.8524101084465
 20
35.86730654683427
 30
0.0
 10
266.98887569561
 20
36.156337093435
 30
0.0
 10
267.1645742778149
 20
36.55609302027436
 30
0.0
 10
267.3641370211209
 20
37.06589825867667
 30
0.0
 10
267.537270729664
 20
37.56846550996798
 30
0.0
 10
267.6849654725266
 20
38.06315937279277
 30
0.0
 10
267.8081921198169
 20
38.54938824879223
 30
0.0
 10
267.9081158889275
 20
39.02662129344721
 30
0.0
 10
267.9852827281612
 20
39.49431158386441
 30
0.0
 10
268.042551414322
 20
39.95217246746914
 30
0.0
 10
268.0640292961855
 20
40.25317246270591
 30
0.0
 10
268.0746610541743
 20
40.40217035385287
 30
0.0
  0
LINE
  5
155
330
1F
100
AcDbEntity
  8
0
  6
Continuous
 62
     7
370
    25
100
AcDbLine
 10
264.1211149742
 20
31.878022265
 30
0.0
 11
264.1211149742
 21
38.2986172996
 31
0.0
  0
ELLIPSE
  5
156
330
1F
100
AcDbEntity
  8
0
  6
Continuous
 62
     7
370
    25
100
AcDbEllipse
 10
248.0929272366
 20
36.4431259279
 30
0.0
 11
13.01649776296142
 21
69.53397910300876
 31
0.0
210
0.0
220
0.0
230
1.0
 40
0.2183760757
 41
4.7799109689684
 42
4.788668636764419
  0
SPLINE
  5
157
330
1F
100
AcDbEntity
  8
0
  6
Continuous
 62
     7
370
    25
100
AcDbSpline
210
0.0
220
0.0
230
1.0
 70
     8
 71
     3
 72
    10
 73
     6
 74
     0
 42
0.000000001
 43
0.00000001
 40
0.0
 40
0.0
 40
0.0
 40
0.0
 40
0.5
 40
0.5
 40
1.0
 40
1.0
 40
1.0
 40
1.0
 10
264.2252611937915
 20
38.90778573096811
 30
0.0
 10
264.2349917348404
 20
38.96503258419969
 30
0.0
 10
264.2359442757308
 20
39.01784618478199
 30
0.0
 10
264.2208013809056
 20
39.10507011610376
 30
0.0
 10
264.2045724745527
 20
39.13955063493513
 30
0.0
 10
264.1813719292907
 20
39.1610934429001
 30
0.0
  0
LINE
  5
158
330
1F
100
AcDbEntity
  8
0
  6
Continuous
 62
     7
370
    25
100
AcDbLine
 10
264.1813732784
 20
40.0602076176
 30
0.0
 11
264.1813732784
 21
39.1610925693
 31
0.0
  0
ELLIPSE
  5
159
330
1F
100
AcDbEntity
  8
0
  6
Continuous
 62
     7
370
    25
100
AcDbEllipse
 10
248.0929272366
 20
44.4898466321
 30
0.0
 11
14.1427102357506
 21
24.49456561252437
 31
0.0
210
0.0
220
0.0
230
1.0
 40
0.5773346305
 41
4.861733701745757
 42
4.876920386575365
  0
LINE
  5
15A
330
1F
100
AcDbEntity
  8
0
  6
Continuous
 62
     7
370
    25
100
AcDbLine
 10
225.5184695348
 20
62.3798268623
 30
0.0
 11
264.1813732784
 21
40.0602076176
 31
0.0
  0
LINE
  5
15B
330
1F
100
AcDbEntity
  8
0
  6
Continuous
 62
     7
370
    25
100
AcDbLine
 10
264.1813732784
 20
39.1610925693
 30
0.0
 11
225.5184695348
 21
61.480711814
 31
0.0
  0
SPLINE
  5
15C
330
1F
100
AcDbEntity
  8
0
  6
Continuous
 62
     7
370
    25
100
AcDbSpline
210
0.0
220
0.0
230
1.0
 70
     8
 71
     3
 72
    10
 73
     6
 74
     0
 42
0.000000001
 43
0.00000001
 40
0.0
 40
0.0
 40
0.0
 40
0.0
 40
0.5
 40
0.5
 40
1.0
 40
1.0
 40
1.0
 40
1.0
 10
225.518469589025
 20
61.48071187749893
 30
0.0
 10
225.3832790082866
 20
61.55875573854895
 30
0.0
 10
225.2388508323039
 20
61.647852017844
 30
0.0
 10
224.9295639096067
 20
61.81820705437926
 30
0.0
 10
224.7650295893495
 20
61.89838234598331
 30
0.0
 10
224.5912121927019
 20
61.95714178331487
 30
0.0
  0
LINE
  5
15D
330
1F
100
AcDbEntity
  8
0
  6
Continuous
 62
     7
370
    25
100
AcDbLine
 10
264.1211149742
 20
38.2986172996
 30
0.0
 11
222.4974320012
 21
62.3274580117
 31
0.0
  0
LINE
  5
15E
330
1F
100
AcDbEntity
  8
0
  6
Continuous
 62
     7
370
    25
100
AcDbLine
 10
263.4594094526
 20
31.5554341746
 30
0.0
 11
264.1229852406
 21
31.8769532297
 31
0.0
  0
LINE
  5
15F
330
1F
100
AcDbEntity
  8
0
  6
Continuous
 62
     7
370
    25
100
AcDbLine
 10
263.4595991134
 20
31.555525448
 30
0.0
 11
225.8549882479
 21
53.2642052184
 31
0.0
  0
LINE
  5
160
330
1F
100
AcDbEntity
  8
0
  6
Continuous
 62
     7
370
    25
100
AcDbLine
 10
225.3771220111
 20
54.0918953382
 30
0.0
 11
225.8549882479
 21
53.2642052184
 31
0.0
  0
LINE
  5
161
330
1F
100
AcDbEntity
  8
0
  6
Continuous
 62
     7
370
    25
100
AcDbLine
 10
219.7386879707
 20
57.3468940252
 30
0.0
 11
225.3771220111
 21
54.0918953382
 31
0.0
  0
LINE
  5
162
330
1F
100
AcDbEntity
  8
0
  6
Continuous
 62
     7
370
    25
100
AcDbLine
 10
219.7386879707
 20
57.3468940252
 30
0.0
 11
219.0315812382
 21
58.5716389987
 31
0.0
  0
LINE
  5
163
330
1F
100
AcDbEntity
  8
0
  6
Continuous
 62
     7
370
    25
100
AcDbLine
 10
219.0315812382
 20
58.5716389987
 30
0.0
 11
218.27690372
 21
63.9496781024
 31
0.0
  0
LINE
  5
164
330
1F
100
AcDbEntity
  8
0
  6
Continuous
 62
     7
370
    25
100
AcDbLine
 10
263.2446157771
 20
31.6795577786
 30
0.0
 11
226.7763326797
 21
52.7322494916
 31
0.0
  0
LINE
  5
165
330
1F
100
AcDbEntity
  8
0
  6
Continuous
 62
     7
370
    25
100
AcDbLine
 10
226.7763326797
 20
52.7322494916
 30
0.0
 11
225.8549882479
 21
53.2642052184
 31
0.0
  0
SPLINE
  5
166
330
1F
100
AcDbEntity
  8
0
  6
Continuous
 62
     7
370
    25
100
AcDbSpline
210
0.0
220
0.0
230
1.0
 70
     8
 71
     3
 72
    11
 73
     7
 74
     0
 42
0.000000001
 43
0.00000001
 40
0.000467440121188
 40
0.000467440121188
 40
0.000467440121188
 40
0.000467440121188
 40
0.0014296000912772
 40
0.0014296000912772
 40
0.0014296000912772
 40
0.0028593206822722
 40
0.0028593206822722
 40
0.0028593206822722
 40
0.0028593206822722
 10
263.4588950346499
 20
31.55593247604536
 30
0.0
 10
263.4312049882342
 20
31.57190729254011
 30
0.0
 10
263.4031074866845
 20
31.58811736063968
 30
0.0
 10
263.3745886437951
 20
31.60457069815181
 30
0.0
 10
263.3322111766228
 20
31.62901947305478
 30
0.0
 10
263.2889027702318
 20
31.65400574302517
 30
0.0
 10
263.2446150371099
 20
31.67955744678086
 30
0.0
  0
ARC
  5
167
330
1F
100
AcDbEntity
  8
0
  6
Continuous
 62
     7
370
    25
100
AcDbCircle
 10
230.8336330856
 20
46.1083587595
 30
0.0
 40
19.08247504594555
100
AcDbArc
 50
119.1927589127
 51
119.9958916762
  0
LINE
  5
168
330
1F
100
AcDbEntity
  8
0
  6
Continuous
 62
     7
370
    25
100
AcDbLine
 10
221.2935805571
 20
62.6349510166
 30
0.0
 11
221.2935805571
 21
69.0447966944
 31
0.0
  0
ELLIPSE
  5
169
330
1F
100
AcDbEntity
  8
0
  6
Continuous
 62
     7
370
    25
100
AcDbEllipse
 10
235.4357158534
 20
60.8807157652
 30
0.0
 11
19.97714580006857
 21
-1.900286507117066
 31
0.0
210
0.0
220
0.0
230
1.0
 40
0.5030021235
 41
2.104583658804565
 42
2.40400511022461
  0
ELLIPSE
  5
16A
330
1F
100
AcDbEntity
  8
0
  6
Continuous
 62
     7
370
    25
100
AcDbEllipse
 10
235.4357158534
 20
65.1063144667
 30
0.0
 11
19.99999998739781
 21
-11.54763097297597
 31
0.0
210
0.0
220
0.0
230
1.0
 40
0.0000703729
 41
4.226452900565853
 42
4.636261924484543
  0
LINE
  5
16B
330
1F
100
AcDbEntity
  8
0
  6
Continuous
 62
     7
370
    25
100
AcDbLine
 10
221.2935805571
 20
69.0447966944
 30
0.0
 11
219.0431107268
 21
70.3439652739
 31
0.0
  0
LINE
  5
16C
330
1F
100
AcDbEntity
  8
0
  6
Continuous
 62
     7
370
    25
100
AcDbLine
 10
219.664680245
 20
70.6869673426
 30
0.0
 11
219.0431107268
 21
70.3439652739
 31
0.0
  0
LINE
  5
16D
330
1F
100
AcDbEntity
  8
0
  6
Continuous
 62
     7
370
    25
100
AcDbLine
 10
220.5677000173
 20
71.0608519786
 30
0.0
 11
219.664680245
 21
70.6869673426
 31
0.0
  0
LINE
  5
16E
330
1F
100
AcDbEntity
  8
0
  6
Continuous
 62
     7
370
    25
100
AcDbLine
 10
220.4574985208
 20
71.1244699484
 30
0.0
 11
220.5677000173
 21
71.0608519786
 31
0.0
  0
ELLIPSE
  5
16F
330
1F
100
AcDbEntity
  8
0
  6
Continuous
 62
     7
370
    25
100
AcDbEllipse
 10
228.9283816288
 20
64.5298974255
 30
0.0
 11
20.34432874749172
 21
-2.114171260962756
 31
0.0
210
0.0
220
0.0
230
1.0
 40
0.4916381667
 41
2.096905408647716
 42
2.277344472824244
  0
LINE
  5
170
330
1F
100
AcDbEntity
  8
0
  6
Continuous
 62
     7
370
    25
100
AcDbLine
 10
226.094271712
 20
70.4982325374
 30
0.0
 11
219.6108667043
 21
74.2410225808
 31
0.0
  0
LINE
  5
171
330
1F
100
AcDbEntity
  8
0
  6
Continuous
 62
     7
370
    25
100
AcDbLine
 10
215.7207656201
 20
65.425305192
 30
0.0
 11
215.4685746837
 21
67.222486901
 31
0.0
  0
LWPOLYLINE
  5
172
330
1F
100
AcDbEntity
  8
0
  6
Continuous
 62
     7
370
    25
100
AcDbPolyline
 90
       14
 70
   128
 43
0.0
 10
219.6288047364
 20
66.1701497142
 10
219.8300276206
 20
65.940808805
 10
219.9928988483
 20
65.6695019548
 10
220.1026173024
 20
65.3808848335
 10
220.149211302
 20
65.1011871519
 10
220.1284467351
 20
64.8558271749
 10
220.0422109903
 20
64.6671018516
 10
219.898340418
 20
64.5521632072
 10
219.7099104194
 20
64.5214559056
 10
219.4940444688
 20
64.5777713115
 10
219.2703602778
 20
64.7159908791
 10
219.0591861275
 20
64.9235538589
 10
218.8797126634
 20
65.1815972487
 10
218.8249059553
 20
65.2849181002
  0
LINE
  5
173
330
1F
100
AcDbEntity
  8
0
  6
Continuous
 62
     7
370
    25
100
AcDbLine
 10
219.0431107268
 20
70.3439652739
 30
0.0
 11
219.6288047364
 21
66.1701497142
 31
0.0
  0
LINE
  5
174
330
1F
100
AcDbEntity
  8
0
  6
Continuous
 62
     7
370
    25
100
AcDbLine
 10
221.2935805571
 20
62.2081876072
 30
0.0
 11
221.2935805571
 21
62.6349510166
 31
0.0
  0
LINE
  5
175
330
1F
100
AcDbEntity
  8
0
  6
Continuous
 62
     7
370
    25
100
AcDbLine
 10
221.2935805571
 20
62.2081876072
 30
0.0
 11
215.7207656201
 21
65.425305192
 31
0.0
  0
ELLIPSE
  5
176
330
1F
100
AcDbEntity
  8
0
  6
Continuous
 62
     7
370
    25
100
AcDbEllipse
 10
223.3971492455
 20
60.9788826461
 30
0.0
 11
2.991173610268163
 21
-0.5599363808736797
 31
0.0
210
0.0
220
0.0
230
1.0
 40
0.4106849769
 41
1.238165500108018
 42
2.424588809383801
  0
SPLINE
  5
177
330
1F
100
AcDbEntity
  8
0
  6
Continuous
 62
     7
370
    25
100
AcDbSpline
210
0.0
220
0.0
230
1.0
 70
     8
 71
     3
 72
     8
 73
     4
 74
     0
 42
0.000000001
 43
0.00000001
 40
0.0
 40
0.0
 40
0.0
 40
0.0
 40
1.0
 40
1.0
 40
1.0
 40
1.0
 10
221.5385748960723
 20
62.74508392705774
 30
0.0
 10
221.4532002874701
 20
62.71513595268895
 30
0.0
 10
221.371516431716
 20
62.67845562377239
 30
0.0
 10
221.2935802296705
 20
62.63495151011301
 30
0.0
  0
SPLINE
  5
178
330
1F
100
AcDbEntity
  8
0
  6
Continuous
 62
     7
370
    25
100
AcDbSpline
210
0.0
220
0.0
230
1.0
 70
     8
 71
     3
 72
    22
 73
    18
 74
     0
 42
0.000000001
 43
0.00000001
 40
0.0
 40
0.0
 40
0.0
 40
0.0
 40
0.125
 40
0.125
 40
0.2500000000000001
 40
0.2500000000000001
 40
0.3750000000000001
 40
0.3750000000000001
 40
0.5000000000000001
 40
0.5000000000000001
 40
0.6250000000000001
 40
0.6250000000000001
 40
0.7500000000000002
 40
0.7500000000000002
 40
0.8750000000000002
 40
0.8750000000000002
 40
1.0
 40
1.0
 40
1.0
 40
1.0
 10
225.518469589025
 20
62.37982668714356
 30
0.0
 10
225.3885112676033
 20
62.45485002918358
 30
0.0
 10
225.2487410982382
 20
62.52340060057558
 30
0.0
 10
224.9504061790151
 20
62.64808534113768
 30
0.0
 10
224.7905663470415
 20
62.70458186421956
 30
0.0
 10
224.4568861365059
 20
62.80270666481299
 30
0.0
 10
224.2854586986365
 20
62.84377786741939
 30
0.0
 10
223.9336859859793
 20
62.91031983461776
 30
0.0
 10
223.7514345431216
 20
62.93591881341236
 30
0.0
 10
223.388382260263
 20
62.96948059778708
 30
0.0
 10
223.2078148873157
 20
62.97764728214143
 30
0.0
 10
222.8485636611367
 20
62.97690542555247
 30
0.0
 10
222.6683930661056
 20
62.96773216580705
 30
0.0
 10
222.3230644039467
 20
62.93252577521883
 30
0.0
 10
222.1566365221774
 20
62.90663520683884
 30
0.0
 10
221.8362714414522
 20
62.83820542678927
 30
0.0
 10
221.6820840921315
 20
62.79542453529749
 30
0.0
 10
221.5385748960723
 20
62.74508392705773
 30
0.0
  0
OLE2FRAME
  5
179
330
1F
100
AcDbEntity
  8
0
100
AcDbOle2Frame
 70
     2
  3
Paintbrush-Bild
 10
13.8511154363
 20
38.264191557
 30
0.0
 11
51.6290888628
 21
31.9806341108
 31
0.0
 71
     2
 72
     0
 73
     1
 90
    12928
310
80552BED0767C5B32B40DDAF6807D121434000000000000000006FFBDDFB85D0
310
4940DDAF6807D121434000000000000000006FFBDDFB85D04940416F4BD60AFB
310
3F4000000000000000002BED0767C5B32B40416F4BD60AFB3F40000000000000
310
0000000000000100000000010000010000000100000000000100000000320000
310
D0CF11E0A1B11AE1000000000000000000000000000000003E000300FEFF0900
310
0600000000000000000000000100000001000000000000000010000002000000
310
01000000FEFFFFFF0000000000000000FFFFFFFFFFFFFFFFFFFFFFFFFFFFFFFF
310
FFFFFFFFFFFFFFFFFFFFFFFFFFFFFFFFFFFFFFFFFFFFFFFFFFFFFFFFFFFFFFFF
310
FFFFFFFFFFFFFFFFFFFFFFFFFFFFFFFFFFFFFFFFFFFFFFFFFFFFFFFFFFFFFFFF
310
FFFFFFFFFFFFFFFFFFFFFFFFFFFFFFFFFFFFFFFFFFFFFFFFFFFFFFFFFFFFFFFF
310
FFFFFFFFFFFFFFFFFFFFFFFFFFFFFFFFFFFFFFFFFFFFFFFFFFFFFFFFFFFFFFFF
310
FFFFFFFFFFFFFFFFFFFFFFFFFFFFFFFFFFFFFFFFFFFFFFFFFFFFFFFFFFFFFFFF
310
FFFFFFFFFFFFFFFFFFFFFFFFFFFFFFFFFFFFFFFFFFFFFFFFFFFFFFFFFFFFFFFF
310
FFFFFFFFFFFFFFFFFFFFFFFFFFFFFFFFFFFFFFFFFFFFFFFFFFFFFFFFFFFFFFFF
310
FFFFFFFFFFFFFFFFFFFFFFFFFFFFFFFFFFFFFFFFFFFFFFFFFFFFFFFFFFFFFFFF
310
FFFFFFFFFFFFFFFFFFFFFFFFFFFFFFFFFFFFFFFFFFFFFFFFFFFFFFFFFFFFFFFF
310
FFFFFFFFFFFFFFFFFFFFFFFFFFFFFFFFFFFFFFFFFFFFFFFFFFFFFFFFFFFFFFFF
310
FFFFFFFFFFFFFFFFFFFFFFFFFFFFFFFFFFFFFFFFFFFFFFFFFFFFFFFFFFFFFFFF
310
FFFFFFFFFFFFFFFFFFFFFFFFFFFFFFFFFFFFFFFFFFFFFFFFFFFFFFFFFFFFFFFF
310
FFFFFFFFFFFFFFFFFFFFFFFFFFFFFFFFFFFFFFFFFFFFFFFFFFFFFFFFFFFFFFFF
310
FDFFFFFFFEFFFFFFFEFFFFFFFEFFFFFF05000000060000000700000008000000
310
090000000A0000000B0000000C0000000D0000000E0000000F00000010000000
310
11000000120000001300000014000000150000001600000017000000FEFFFFFF
310
FFFFFFFFFFFFFFFFFFFFFFFFFFFFFFFFFFFFFFFFFFFFFFFFFFFFFFFFFFFFFFFF
310
FFFFFFFFFFFFFFFFFFFFFFFFFFFFFFFFFFFFFFFFFFFFFFFFFFFFFFFFFFFFFFFF
310
FFFFFFFFFFFFFFFFFFFFFFFFFFFFFFFFFFFFFFFFFFFFFFFFFFFFFFFFFFFFFFFF
310
FFFFFFFFFFFFFFFFFFFFFFFFFFFFFFFFFFFFFFFFFFFFFFFFFFFFFFFFFFFFFFFF
310
FFFFFFFFFFFFFFFFFFFFFFFFFFFFFFFFFFFFFFFFFFFFFFFFFFFFFFFFFFFFFFFF
310
FFFFFFFFFFFFFFFFFFFFFFFFFFFFFFFFFFFFFFFFFFFFFFFFFFFFFFFFFFFFFFFF
310
FFFFFFFFFFFFFFFFFFFFFFFFFFFFFFFFFFFFFFFFFFFFFFFFFFFFFFFFFFFFFFFF
310
FFFFFFFFFFFFFFFFFFFFFFFFFFFFFFFFFFFFFFFFFFFFFFFFFFFFFFFFFFFFFFFF
310
FFFFFFFFFFFFFFFFFFFFFFFFFFFFFFFFFFFFFFFFFFFFFFFFFFFFFFFFFFFFFFFF
310
FFFFFFFFFFFFFFFFFFFFFFFFFFFFFFFFFFFFFFFFFFFFFFFFFFFFFFFFFFFFFFFF
310
FFFFFFFFFFFFFFFFFFFFFFFFFFFFFFFFFFFFFFFFFFFFFFFFFFFFFFFFFFFFFFFF
310
FFFFFFFFFFFFFFFFFFFFFFFFFFFFFFFFFFFFFFFFFFFFFFFFFFFFFFFFFFFFFFFF
310
FFFFFFFFFFFFFFFFFFFFFFFFFFFFFFFFFFFFFFFFFFFFFFFFFFFFFFFFFFFFFFFF
310
52006F006F007400200045006E00740072007900000000000000000000000000
310
0000000000000000000000000000000000000000000000000000000000000000
310
16000500FFFFFFFFFFFFFFFF020000000A00030000000000C000000000000046
310
000000000000000000000000D034987922B5D30103000000C000000000000000
310
01004F006C006500000000000000000000000000000000000000000000000000
310
0000000000000000000000000000000000000000000000000000000000000000
310
0A000200FFFFFFFFFFFFFFFFFFFFFFFF00000000000000000000000000000000
310
0000000000000000000000000000000000000000000000001400000000000000
310
010043006F006D0070004F0062006A0000000000000000000000000000000000
310
0000000000000000000000000000000000000000000000000000000000000000
310
120002010100000003000000FFFFFFFF00000000000000000000000000000000
310
0000000000000000000000000000000000000000010000004D00000000000000
310
01004F006C006500310030004E00610074006900760065000000000000000000
310
0000000000000000000000000000000000000000000000000000000000000000
310
1A000200FFFFFFFFFFFFFFFFFFFFFFFF00000000000000000000000000000000
310
0000000000000000000000000000000000000000040000002426000000000000
310
FEFFFFFF02000000FEFFFFFFFFFFFFFFFFFFFFFFFFFFFFFFFFFFFFFFFFFFFFFF
310
FFFFFFFFFFFFFFFFFFFFFFFFFFFFFFFFFFFFFFFFFFFFFFFFFFFFFFFFFFFFFFFF
310
FFFFFFFFFFFFFFFFFFFFFFFFFFFFFFFFFFFFFFFFFFFFFFFFFFFFFFFFFFFFFFFF
310
FFFFFFFFFFFFFFFFFFFFFFFFFFFFFFFFFFFFFFFFFFFFFFFFFFFFFFFFFFFFFFFF
310
FFFFFFFFFFFFFFFFFFFFFFFFFFFFFFFFFFFFFFFFFFFFFFFFFFFFFFFFFFFFFFFF
310
FFFFFFFFFFFFFFFFFFFFFFFFFFFFFFFFFFFFFFFFFFFFFFFFFFFFFFFFFFFFFFFF
310
FFFFFFFFFFFFFFFFFFFFFFFFFFFFFFFFFFFFFFFFFFFFFFFFFFFFFFFFFFFFFFFF
310
FFFFFFFFFFFFFFFFFFFFFFFFFFFFFFFFFFFFFFFFFFFFFFFFFFFFFFFFFFFFFFFF
310
FFFFFFFFFFFFFFFFFFFFFFFFFFFFFFFFFFFFFFFFFFFFFFFFFFFFFFFFFFFFFFFF
310
FFFFFFFFFFFFFFFFFFFFFFFFFFFFFFFFFFFFFFFFFFFFFFFFFFFFFFFFFFFFFFFF
310
FFFFFFFFFFFFFFFFFFFFFFFFFFFFFFFFFFFFFFFFFFFFFFFFFFFFFFFFFFFFFFFF
310
FFFFFFFFFFFFFFFFFFFFFFFFFFFFFFFFFFFFFFFFFFFFFFFFFFFFFFFFFFFFFFFF
310
FFFFFFFFFFFFFFFFFFFFFFFFFFFFFFFFFFFFFFFFFFFFFFFFFFFFFFFFFFFFFFFF
310
FFFFFFFFFFFFFFFFFFFFFFFFFFFFFFFFFFFFFFFFFFFFFFFFFFFFFFFFFFFFFFFF
310
FFFFFFFFFFFFFFFFFFFFFFFFFFFFFFFFFFFFFFFFFFFFFFFFFFFFFFFFFFFFFFFF
310
FFFFFFFFFFFFFFFFFFFFFFFFFFFFFFFFFFFFFFFFFFFFFFFFFFFFFFFFFFFFFFFF
310
0100000200000000000000000000000000000000000000000000000000000000
310
0000000000000000000000000000000000000000000000000000000000000000
310
0100FEFF030A0000FFFFFFFF0A00030000000000C00000000000004607000000
310
5042727573680007000000504272757368000700000050427275736800F439B2
310
7100000000000000000000000000000000000000000000000000000000000000
310
0000000000000000000000000000000000000000000000000000000000000000
310
0000000000000000000000000000000000000000000000000000000000000000
310
0000000000000000000000000000000000000000000000000000000000000000
310
0000000000000000000000000000000000000000000000000000000000000000
310
0000000000000000000000000000000000000000000000000000000000000000
310
0000000000000000000000000000000000000000000000000000000000000000
310
0000000000000000000000000000000000000000000000000000000000000000
310
0000000000000000000000000000000000000000000000000000000000000000
310
0000000000000000000000000000000000000000000000000000000000000000
310
0000000000000000000000000000000000000000000000000000000000000000
310
0000000000000000000000000000000000000000000000000000000000000000
310
20260000424D0E260000000000003E00000028000000B40200006E0000000100
310
01000000000000000000130B0000130B00000200000002000000000000FFFFFF
310
FFFFFFFFFFFFFFFFFFFFFFFFFFFFFFFFFFFFFFFFFFFFFFFFFFFFFFFFFFFFFFFF
310
FFFFFFFFFFFFFFFFFFFFFFFFFFFFFFFFFFFFFFFFFFFFFFFFFFFFFFFFFFFFFFFF
310
FFFFFFFFFFFFFFFFFFFFFFFFFFFFFFFFFFFFFFFFFFFFFFFFF000FFFFFFFFFFFF
310
FFFFFFFFFFFFFFFFFFFFFFFFFFFFFFFFFFFFFFFFFFFFFFFFFFFFFFFFFFFFFFFF
310
FFFFFFFFFFFFFFFFFFFFFFFFFFFFFFFFFFFFFFFFFFFFFFFFFFFFFFFFFFFFFFFF
310
FFFFFFFFFFFFFFFFFFFFFFFFFFFFFFFFF000FFFFFFFFFFFFFFFFFFFFFFFFFFFF
310
FFFFFFFFFFFFFFFFFFFFFFFFFFFFFFFFFFFFFFFFFFFFFFFFFFFFFFFFFFFFFFFF
310
FFFFFFFFFFFFFFFFFFFFFFFFFFFFFFFFFFFFFFFFFFFFFFFFFFFFFFFFFFFFFFFF
310
FFFFFFFFFFFFFFFFF000FFFFFFFFFFFFFFFFFFFFFFFFFFFFFFFFFFFFFFFFFFFF
310
FFFFFFFFFFFFFFFFFFFFFFFFFFFFFFFFFFFFFFFFFFFFFFFFFFFFFFFFFFFFFFFF
310
FFFFFFFFFFFFFFFFFFFFFFFFFFFFFFFFFFFFFFFFFFFFFFFFFFFFFFFFFFFFFFFF
310
F000FFFFFFFFFFFFFFFFFFFFFFFFFFFFFFFFFFFFFFFFFFFFFFFFFFFFFFFFFFFF
310
FFFFFFFFFFFFFFFFFFFFFFFFFFFFFFFFFFFFFFFFFFFFFFFFFFFFFFFFFFFFFFFF
310
FFFFFFFFFFFFFFFFFFFFFFFFFFFFFFFFFFFFFFFFFFFFFFFFF000FFFFFFFFFFFF
310
FFFFFFFFFFFFFFFFFFFFFFFFFFFFFFFFFFFFFFFFFFFFFFFFFFFFFFFFFFFFFFFF
310
FFFFFFFFFFFFFFFFFFFFFFFFFFFFFFFFFFFFFFFFFFFFFFFFFFFFFFFFFFFFFFFF
310
FFFFFFFFFFFFFFFFFFFFFFFFFFFFFFFFF000FFFFFFFFFFFFFFFFFFFFFFFFFFFF
310
FFFFFFFFFFFFFFFFFFFFFFFFFFFFFFFFFFFFFFFFFFFFFFFFFFFFFFFFFFFFFFFF
310
FFFFFFFFFFFFFFFFFFFFFFFFFFFFFFFFFFFFFFFFFFFFFFFFFFFFFFFFFFFFFFFF
310
FFFFFFFFFFFFFFFFF000FFFFFFFFFFFFFFFFFFFFFFFFFFFFFFFFFFFFFFFFFFFF
310
FFFFFFFFFFFFFFFFFFFFFFFFFFFFFFFFFFFFFFFFFFFFFFFFFFFFFFFFFFFFFFFF
310
FFFFFFFFFFFFFFFFFFFFFFFFFFFFFFFFFFFFFFFFFFFFFFFFFFFFFFFFFFFFFFFF
310
F000FFFFFFFFFFFFFFFFFFFFFFFFFFFFFFFFFFFFFFFFFFFFFFFFFFFFFFFFFFFF
310
FFFFFFFFFFFFFFFFFFFFFFFFFFFFFFFFFFFFFFFFFFFFFFFFFFFFFFFFFFFFFFFF
310
FFFFFFFFFFFFFFFFFFFFFFFFFFFFFFFFFFFFFFFFFFFFFFFFF000FFFFFFFFFFFF
310
FFFFFFFFFFFFFFFFFFFFFFFFFFFFFFFFFFFFFFFFFFFFFFFFFFFFFFFFFFFFFFFF
310
FFFFFFFFFFFFFFFFFFFFFFFFFFFFFFFFFFFFFFFFFFFFFFFFFFFFFFFFFFFFFFFF
310
FFFFFFFFFFFFFFFFFFFFFFFFFFFFFFFFF000FFFFFFFFFFFFFFFFFFFFFFFFFFFF
310
FFFFFFFFFFFFFFFFFFFFFFFFFFFFFFFFFFFFFFFFFFFFFFFFFFFFFFFFFFFFFFFF
310
FFFFFFFFFFFFFFFFFFFFFFFFFFFFFFFFFFFFFFFFFFFFFFFFFFFFFFFFFFFFFFFF
310
FFFFFFFFFFFFFFFFF000FFFFFFFFFFFFFFFFFFFFFFFFFFFFFFFFFFFFFFFFFFFF
310
FFFFFFFFFFFFFFFFFFFFFFFFFFFFFFFFFFFFFFFFFFFFFFFFFFFFFFFFFFFFFFFF
310
FFFFFFFFFFFFFFFFFFFFFFFFFFFFFFFFFFFFFFFFFFFFFFFFFFFFFFFFFFFFFFFF
310
F000FFFFFFFFFFFFFFFFFFFFFFFFFFFFFFFFFFFFFFFFFFFFFFFFFFFFFFFFFFFF
310
FFFFFFFFFFFFFFFFFFFFFFFFFFFFFFFFFFFFFFFFFFFFFFFFFFFFFFFFFFFFFFFF
310
FFFFFFFFFFFFFFFFFFFFFFFFFFFFFFFFFFFFFFFFFFFFFFFFF000FFFFFFFFFFFF
310
FFFFFFFFFFFFFFFFFFFFFFFFFFFFFFFFFFFFFFFFFFFFFFFFFFFFFFFFFFFFFFFF
310
FFFFFFFFFFFFFFFFFFFFFFFFFFFFFFFFFFFFFFFFFFFFFFFFFFFFFFFFFFFFFFFF
310
FFFFFFFFFFFFFFFFFFFFFFFFFFFFFFFFF000FFFFFFFFFFFFFFFFFFFFFFFFFFFF
310
FFFFFFFFFFFFFFFFFFFFFFFFFFFFFFFFFFFFFFFFFFFFFFFFFFFFFFFFFFFFFFFF
310
FFFFFFFFFFFFFFFFFFFFFFFFFFFFFFFFFFFFFFFFFFFFFFFFFFFFFFFFFFFFFFFF
310
FFFFFFFFFFFFFFFFF000FFFFFFFFFFFFFFFFFFFFFFFFFFFFFFFFFFFFFFFFFFFF
310
FFFFFFFFFFFFFFFFFFFFFFFFFFFFFFFFFFFFFFFFFFFFFFFFFFFFFFFFFFFFFFFF
310
FFFFFFFFFFFFFFFFFFFFFFFFFFFFFFFFFFFFFFFFFFFFFFFFFFFFFFFFFFFFFFFF
310
F000FFFFFFFFFFFFFFFFFFFFFFFFFFFFFFFFFFFFFFFFFFFFFFFFFFFFFFFFFFFF
310
FFFFFFFFFFFFFFFFFFFFFFFFFFFFFFFFFFFFFFFFFFFFFFFFFFFFFFFFFFFFFFFF
310
FFFFFFFFFFFFFFFFFFFFFFFFFFFFFFFFFFFFFFFFFFFFFFFFF000FFFFFFFFFFFF
310
FFFFFFFFFFFFFFFFFFFFFFFFFFFFFFFFFFFFFFFFFFFFFFFFFFFFFFFFFFFFFFFF
310
FFFFFFFFFFFFFFFFFFFFFFFFFFFFFFFFFFFFFFFFFFFFFFFFFFFFFFFFFFFFFFFF
310
FFFFFFFFFFFFFFFFFFFFFFFFFFFFFFFFF000FFFFFFFFFFFFFFFFFFFFFFFFFFFF
310
FFFFFFFFFFFFFFFFFFFFFFFFFFFFFFFFFFFFFFFFFFFFFFFFFFFFFFFFFFFFFFFF
310
FFFFFFFFFFFFFFFFFFFFFFFFFFFFFFFFFFFFFFFFFFFFFFFFFFFFFFFFFFFFFFFF
310
FFFFFFFFFFFFFFFFF000FFFFF80003FFFFFFFFFFFFFFFFFFFFFFFFFFFFFFFFFF
310
FFFFF00007FFFFFFFFFF00007FFFFFF800000000000000007FFFFFFFFFFFFFFF
310
FFFFFFFC001FFFFFFFFFFFFFFC001FFFFFFFFFFFFFFFFFFFFFFFFFFE0007FFFF
310
F000FFFF8000007FFFFFFFF8000FFFFFC0007FFFFF80007FFFFF0000007FFFFF
310
FFF8000007FFFFF800000000000000007FFFFFF0001FFFFFFFFFFFC00001FFFF
310
FFFFFFFFC00001FFFFFFFF000000000003FFFFE000007FFFF000FFFE0000000F
310
FFFFFFF0000FFFFF80007FFFFF80007FFFFC0000001FFFFFFFC0000001FFFFF8
310
00000000000000007FFFFFF0001FFFFFFFFFFE0000003FFFFFFFFFFE0000003F
310
FFFFFF000000000003FFFF0000000FFFF000FFF800000003FFFFFFF00007FFFF
310
80007FFFFF80007FFFF000000007FFFFFF000000003FFFF80000000000000000
310
7FFFFFF0001FFFFFFFFFF80000000FFFFFFFFFF80000000FFFFFFF0000000000
310
03FFFC00000003FFF000FFE000000000FFFFFFF00007FFFF80003FFFFF80007F
310
FFC000000001FFFFFC000000001FFFF800000000000000007FFFFFF0001FFFFF
310
FFFFE000000003FFFFFFFFE000000003FFFFFF000000000003FFF000000000FF
310
F000FF80000000007FFFFFF00007FFFF80003FFFFF80007FFF8000000000FFFF
310
F80000000007FFF800000000000000007FFFFFF0001FFFFFFFFFC000000001FF
310
FFFFFFC000000001FFFFFF000000000003FFC0000000007FF000FF0000000000
310
3FFFFFE00007FFFF00003FFFFF80007FFE00000000003FFFF00000000003FFF8
310
00000000000000007FFFFFF0001FFFFFFFFF8000000000FFFFFFFF8000000000
310
FFFFFF000000000003FF80000000003FF000FE00000000001FFFFFE00003FFFF
310
00003FFFFF80007FFC00000000001FFFE00000000001FFF8000001FFFE000000
310
7FFFFFF0001FFFFFFFFE00000000003FFFFFFE00000000003FFFFF0000000000
310
03FF00000000001FF000FC00000000000FFFFFE00003FFFF00001FFFFF80007F
310
F800000000001FFFC00000000000FFF8000001FFFE0000007FFFFFF0001FFFFF
310
FFFC00000000001FFFFFFC00000000001FFFFF000000000003FE00000000000F
310
F000F8000000000007FFFFE00003FFFF00001FFFFF80007FF800000000000FFF
310
800000000000FFF8000001FFFE0000007FFFFFF0001FFFFFFFF800000000000F
310
FFFFF800000000000FFFFF000000000003FC000000000007F000F80000000000
310
03FFFFC00003FFFE00001FFFFF80007FF0000000000007FF0000000000007FF8
310
000001FFFE0000007FFFFFF0001FFFFFFFF0000000000007FFFFF00000000000
310
07FFFF000000000003F8000000000003F000F0000000000003FFFFC00001FFFE
310
00001FFFFF80007FE0000000000007FE0000000000003FF8000001FFFE000000
310
7FFFFFF0001FFFFFFFF0000000000007FFFFF0000000000007FFFF0000000000
310
03F800001F800003F000E00001FFF00001FFFFC00001FFFE00000FFFFF80007F
310
E00001FFE00003FE00001FFF00003FF8000001FFFE0000007FFFFFF0001FFFFF
310
FFE000003E000003FFFFE000003E000003FFFF000000000003F00001FFF80001
310
F000E00007FFFC0001FFFFC00001FFFE00000FFFFF80007FC0000FFFFC0003FC
310
0000FFFFC0001FF8000001FFFE0000007FFFFFF0001FFFFFFFC00003FFE00001
310
FFFFC00003FFE00001FFFF0001FFFFFFFFF00007FFFE0001F000E0000FFFFF00
310
00FFFF800001FFFC00000FFFFF80007FC0001FFFFE0001FC0001FFFFE0001FF8
310
000001FFFE0000007FFFFFF0001FFFFFFF80000FFFF80000FFFF80000FFFF800
310
00FFFF0003FFFFFFFFE0000FFFFF8000F000C0003FFFFF8000FFFF800000FFFC
310
000007FFFF80007F80003FFFFF0001FC0003FFFFF0001FF8000001FFFE000000
310
7FFFFFF0001FFFFFFF80003FFFFE0000FFFF80003FFFFE0000FFFF0003FFFFFF
310
FFE0003FFFFF8000F000C0003FFFFF8000FFFF800000FFFC000007FFFF80007F
310
80007FFFFF8001F80007FFFFF8000FF8000001FFFE0000007FFFFFF0001FFFFF
310
FF00007FFFFF00007FFF00007FFFFF00007FFF0003FFFFFFFFE0003FFFFFC000
310
F000C0007FFFFFC000FFFF000000FFFC000007FFFF80007F8000FFFFFF8000F8
310
000FFFFFF8000FF8000001FFFE0000007FFFFFF0001FFFFFFF0000FFFFFF8000
310
7FFF0000FFFFFF80007FFF0003FFFFFFFFC0007FFFFFC00070008000FFFFFFC0
310
00FFFF000000FFF8000007FFFF80007F8000FFFFFF8000F8000FFFFFF8000FF8
310
000001FFFE0000007FFFFFF0001FFFFFFE0001FFFFFFC0003FFE0001FFFFFFC0
310
003FFF0003FFFFFFFFC0007FFFFFE00070008000FFFFFFC0007FFF0000007FF8
310
000003FFFF80007F0001FFFFFF8000F8000FFFFFF8000FF8000001FFFE000000
310
7FFFFFF0001FFFFFFE0001FFFFFFC0003FFE0001FFFFFFC0003FFF0003FFFFFF
310
FFC000FFFFFFE00070008000FFFFFFC0007FFF0000007FF8000003FFFF80007F
310
0001FFFFFF8000F8001FFFFFF8000FF8000001FFFE0000007FFFFFF0001FFFFF
310
FE0003FFFFFFE0003FFE0003FFFFFFE0003FFF0003FFFFFFFFC000FFFFFFE000
310
70008000FFFFFFC0007FFE0000007FF8000003FFFF80007F0001FFFFFF8000F0
310
001FFFFFF8000FF8000001FFFE0000007FFFFFF0001FFFFFFC0003FFFFFFE000
310
1FFC0003FFFFFFE0001FFF0003FFFFFFFFC000FFFFFFC00070008000FFFFFF80
310
007FFE0000007FF0000003FFFF80007F0001FFFFFF0000F0001FFFFFF8000FF8
310
000001FFFE0000007FFFFFF0001FFFFFFC0007FFFFFFF0001FFC0007FFFFFFF0
310
001FFF0003FFFFFFFFC000FFFFFFC00070008001FFFFFF0000FFFE0000003FF0
310
000001FFFF80007F0001FFFFFF0000F8001FFFFFF0000FF8000001FFFE000000
310
7FFFFFF0001FFFFFFC0007FFFFFFF0001FFC0007FFFFFFF0001FFF0003FFFFFF
310
FFC001FFFFFF80007000FFFFFFFFFE0000FFFE0008003FF0008001FFFF80007F
310
FFFFFFFFFC0000FFFFFFFFFFE0000FF8000001FFFE0000007FFFFFF0001FFFFF
310
F8000FFFFFFFF8000FF8000FFFFFFFF8000FFF0003FFFFFFFFFFFFFFFFFF0000
310
7000FFFFFFFFFC0000FFFC0008003FF0008001FFFF80007FFFFFFFFFF80001FF
310
FFFFFFFF80000FF8000001FFFE0000007FFFFFF0001FFFFFF8000FFFFFFFF800
310
0FF8000FFFFFFFF8000FFF0003FFFFFFFFFFFFFFFFFE0000F000FFFFFFFFE000
310
00FFFC000C003FE000C001FFFF80007FFFFFFFFFC00001FFFFFFFFFE00001FF8
310
000001FFFE0000007FFFFFF0001FFFFFF8000FFFFFFFF8000FF8000FFFFFFFF8
310
000FFF0003FFFFFFFFFFFFFFFFF00000F000FFFFFFFE000001FFFC000C001FE0
310
00C000FFFF80007FFFFFFFFE000001FFFFFFFFE000001FF80FFFFFFFFFFFFFC0
310
7FFFFFF0001FFFFFF8000FFFFFFFF8000FF8000FFFFFFFF8000FFF0003FFFFFF
310
FFFFFFFFFF800000F000FFFFFFC0000001FFFC001C001FE001C000FFFF80007F
310
FFFFFF80000003FFFFFFF80000001FF80FFFFFFFFFFFFFC07FFFFFF0001FFFFF
310
F8001FFFFFFFFC000FF8001FFFFFFFFC000FFF0003FFFFFFFFFFFFFFF0000001
310
F000FFFFF800000001FFF8001C001FE001C000FFFF80007FFFFFF800000003FF
310
FFFF800000003FF80FFFFFFFFFFFFFC07FFFFFF0001FFFFFF8001FFFFFFFFC00
310
0FF8001FFFFFFFFC000FFF0003FFFFFFFFFFFFFE00000001F000FFFFC0000000
310
03FFF8001E001FC001E000FFFF80007FFFFF8000000007FFFFFC000000003FF8
310
0FFFFFFFFFFFFFC07FFFFFF0001FFFFFF8001FFFFFFFFC000FF8001FFFFFFFFC
310
000FFF0003FFFFFFFFFFFFE000000003F000FFFE0000000007FFF8001E000FC0
310
01E0007FFF80007FFFFE0000000007FFFFE0000000007FF80FFFFFFFFFFFFFC0
310
7FFFFFF0001FFFFFF0001FFFFFFFFC0007F0001FFFFFFFFC0007FF0003FFFFFF
310
FFFFFF0000000003F000FFF80000000007FFF8001E000FC003E0007FFF80007F
310
FFF0000000000FFFFF8000000000FFF80FFFFFFFFFFFFFC07FFFFFF0001FFFFF
310
F0001FFFFFFFFC0007F0001FFFFFFFFC0007FF0003FFFFFFFFFFFC0000000007
310
F000FFE0000000000FFFF0003E000FC003E0007FFF80007FFFC0000000001FFF
310
FE0000000001FFF80FFFFFFFFFFFFFC07FFFFFF0001FFFFFF0001FFFFFFFFC00
310
07F0001FFFFFFFFC0007FF0003FFFFFFFFFFF0000000000FF000FFC000000000
310
1FFFF0003F000F8003F0003FFF80007FFF80000000003FFFF80000000003FFF8
310
0FFFFFFFFFFFFFC07FFFFFF0001FFFFFF0001FFFFFFFFC0007F0001FFFFFFFFC
310
0007FF0003FFFFFFFFFFE0000000001FF000FF00000000007FFFF0003F000780
310
03F0003FFF80007FFF00000000007FFFF00000000007FFF80FFFFFFFFFFFFFC0
310
7FFFFFF0001FFFFFF0001FFFFFFFFC0007F0001FFFFFFFFC0007FF0003FFFFFF
310
FFFF80000000007FF000FE0000000000FFFFE0003F00078007F0003FFF80007F
310
FE0000000001FFFFE0000000001FFFF80FFFFFFFFFFFFFC07FFFFFF0001FFFFF
310
F0001FFFFFFFFC0007F0001FFFFFFFFC0007FF0003FFFFFFFFFF0000000000FF
310
F000FC0000000003FFFFE0007F00078007F0003FFF80007FFC0000000007FFFF
310
C0000000007FFFF80FFFFFFFFFFFFFC07FFFFFF0001FFFFFF8001FFFFFFFFC00
310
0FF8001FFFFFFFFC000FFF0003FFFFFFFFFE0000000003FFF000FC000000000F
310
FFFFE0007F80070007F8001FFF80007FF8000000001FFFFF8000000001FFFFF8
310
0FFFFFFFFFFFFFC07FFFFFF0001FFFFFF8001FFFFFFFFC000FF8001FFFFFFFFC
310
000FFF0003FFFFFFFFFC000000000FFFF000F8000000007FFFFFE0007F800700
310
07F8001FFF80007FF000000000FFFFFF800000000FFFFFF80FFFFFFFFFFFFFC0
310
7FFFFFF0001FFFFFF8000FFFFFFFF8000FF8000FFFFFFFF8000FFF0003FFFFFF
310
FFFC000000007FFFF000F800000007FFFFFFC0007F8003000FF8001FFF80007F
310
F000000007FFFFFF000000007FFFFFF80FFFFFFFFFFFFFC07FFFFFF0001FFFFF
310
F8000FFFFFFFF8000FF8000FFFFFFFF8000FFF0003FFFFFFFFF80000000FFFFF
310
F000F0000000FFFFFFFFC000FF8003000FF8001FFF80007FE0000000FFFFFFFF
310
0000000FFFFFFFF8000001FFFE0000007FFFFFF0001FFFFFF8000FFFFFFFF800
310
0FF8000FFFFFFFF8000FFF0003FFFFFFFFF8000000FFFFFFF000F000000FFFFF
310
FFFFC000FFC002000FF8000FFF80007FE000001FFFFFFFFE000001FFFFFFFFF8
310
000001FFFE0000007FFFFFF0001FFFFFF8000FFFFFFFF8000FF8000FFFFFFFF8
310
000FFF0003FFFFFFFFF000001FFFFFFFF000E00000FFFFFFFFFFC000FFC00200
310
0FFC000FFF80007FE00001FFFFFFFFFE00001FFFFFFFFFF8000001FFFE000000
310
7FFFFFF0001FFFFFFC000FFFFFFFF8001FFC000FFFFFFFF8001FFF0003FFFFFF
310
FFF00001FFFFFFFFF000E00007FFFFFFFFFF8000FFC000001FFC000FFF80007F
310
C0000FFFFFFFFFFE0000FFFFFFFFFFF8000001FFFE0000007FFFFFF0001FFFFF
310
FC0007FFFFFFF0001FFC0007FFFFFFF0001FFF0003FFFFFFFFF00007FFFFFFFF
310
F000E0001FFFFFFFFFFF8000FFC000001FFC000FFF80007FC0003FFFFFFFFFFE
310
0001FFFFFFFFFFF8000001FFFE0000007FFFFFF0001FFFFFFC0007FFFFFFF000
310
1FFC0007FFFFFFF0001FFF0003FFFFFFFFF0001FFFFFFFFFF000E0003FFFFF00
310
03FF8001FFE000001FFC0007FF80007FC0007FFFFF0007FC0003FFFFF0003FF8
310
000001FFFE0000007FFFFFF0001FFFFFFC0003FFFFFFE0001FFC0003FFFFFFE0
310
001FFF0003FFFFFFFFF0003FFFFFFFFFF000E0003FFFFF0001FF8001FFE00000
310
1FFE0007FF80007FC0007FFFFE0003FC0007FFFFE0003FF8000001FFFE000000
310
7FFFFFF0001FFFFFFE0003FFFFFFE0003FFE0003FFFFFFE0003FFF0003FFFFFF
310
FFF0003FFFFF8001F000E0003FFFFF0001FF0001FFE000001FFE0007FF80007F
310
C0007FFFFE0003FC0007FFFFE0003FF8000001FFFE0000007FFFFFF0001FFFFF
310
FE0001FFFFFFC0003FFE0001FFFFFFC0003FFF0003FFFFFFFFF0003FFFFF0001
310
F000E0003FFFFF0003FF0001FFE000003FFE0007FF80007FC0007FFFFE0003FC
310
0007FFFFE0003FF8000001FFFE0000007FFFFFF0001FFFFFFF0001FFFFFFC000
310
7FFF0001FFFFFFC0007FFF0003FFFFFFFFF0003FFFFF0001F000E0003FFFFE00
310
03FF0003FFF000003FFE0003FF80007FC0007FFFFC0003FE0007FFFFE0003FF8
310
000001FFFE0000007FFFFFF0001FFFFFFF0000FFFFFF80007FFF0000FFFFFF80
310
007FFF0003FFFFFFFFF0003FFFFF0001F000E0003FFFFE0003FF0003FFF00000
310
3FFF0003FF80007FC0007FFFFC0007FE0007FFFFC0003FF8000001FFFE000000
310
7FFFFFF0001FFFFFFF80007FFFFF0000FFFF80007FFFFF0000FFFF0003FFFFFF
310
FFF0003FFFFF0003F000E0003FFFFC0003FE0003FFF000003FFF0003FF80007F
310
E0003FFFF80007FE0003FFFFC0007FF8000001FFFE0000007FFFFFF0001FFFFF
310
FF80003FFFFE0000FFFF80003FFFFE0000FFFF0003FFFFFFFFF0001FFFFE0003
310
F000F0001FFFF80003FE0003FFF000007FFF0001FF80007FE0003FFFF00007FE
310
0001FFFF80007FF8000001FFFE0000007FFFFFF0001FFFFFFFC0000FFFF80001
310
FFFFC0000FFFF80001FFFF0003FFFFFFFFF0001FFFFC0003F000F0000FFFF000
310
07FE0007FFF800007FFF0001FF80007FE0001FFFE00007FF0000FFFE00007FF8
310
000001FFFE0000007FFFFFF0001FFFFFFFC00003FFE00001FFFFC00003FFE000
310
01FFFF0003FFFFFFFFF8000FFFF80003F000F00003FFC00007FC0007FFF80000
310
7FFF8001FF80007FF00007FF80000FFF00007FF80000FFF8000001FFFE000000
310
7F80000000000001FFE000003E000003FFFFE000003E000003FFFF0003FFFFFF
310
FFF80003FFE00007F000F800000000000FFC0007FFF800007FFF8001FF80007F
310
F000000000000FFF000000000000FFF8000001FFFE0000007F80000000000001
310
FFF0000000000007FFFFF0000000000007FFFF0003FFFFFFFFFC00007E000007
310
F000F800000000000FFC0007FFF80000FFFF8000FF80007FF800000000001FFF
310
800000000001FFF8000001FFFE0000007F80000000000001FFF800000000000F
310
FFFFF800000000000FFFFF0003FFFFFFFFFC00000000000FF000FC0000000000
310
1FFC0007FFFC0000FFFF8000FF80007FF800000000003FFFC00000000001FFF8
310
000001FFFE0000007F80000000000001FFF800000000000FFFFFF80000000000
310
0FFFFF0003FFFFFFFFFE00000000001FF000FE00000000003FF8000FFFFC0000
310
FFFF8000FF80007FFC00000000003FFFC00000000003FFF8000001FFFE000000
310
7F80000000000001FFFC00000000001FFFFFFC00000000001FFFFF0003FFFFFF
310
FFFF00000000001FF000FF00000000003FF8000FFFFC0000FFFFC000FF80007F
310
FE00000000007FFFE00000000007FFF8000001FFFE0000007F80000000000001
310
FFFE00000000003FFFFFFE00000000003FFFFF0003FFFFFFFFFF80000000003F
310
F000FF80000000007FF8000FFFFC0001FFFFC0007F80007FFF0000000000FFFF
310
F0000000000FFFF800000000000000007F80000000000001FFFF8000000000FF
310
FFFFFF8000000000FFFFFF0003FFFFFFFFFFC0000000007FF000FFC000000000
310
FFF8000FFFFE0001FFFFC0007F80007FFF8000000001FFFFF8000000001FFFF8
310
00000000000000007F80000000000001FFFFC000000001FFFFFFFFC000000001
310
FFFFFF0003FFFFFFFFFFE000000000FFF000FFE000000003FFF0001FFFFE0001
310
FFFFC0007F80007FFFC000000007FFFFFE000000003FFFF80000000000000000
310
7F80000000000001FFFFE000000003FFFFFFFFE000000003FFFFFF0003FFFFFF
310
FFFFF000000003FFF000FFF80000000FFFF0001FFFFE0001FFFFE0007F80007F
310
FFF00000000FFFFFFF00000000FFFFF800000000000000007F80000000000001
310
FFFFF80000000FFFFFFFFFF80000000FFFFFFF0003FFFFFFFFFFFC0000000FFF
310
F000FFFE0000003FFFF0001FFFFE0003FFFFE0003F80007FFFFC0000003FFFFF
310
FFC0000003FFFFF800000000000000007F80000000000001FFFFFE0000003FFF
310
FFFFFFFE0000003FFFFFFF0003FFFFFFFFFFFF0000003FFFF000FFFF800000FF
310
FFF0001FFFFF0003FFFFE0003F80007FFFFF000001FFFFFFFFF800001FFFFFF8
310
00000000000000007F80000000000001FFFFFFC00001FFFFFFFFFFFFC00001FF
310
FFFFFF0003FFFFFFFFFFFFC00000FFFFF000FFFFF8000FFFFFFFFFFFFFFFFFFF
310
FFFFFFFFFFFFFFFFFFFFF0001FFFFFFFFFFF0000FFFFFFF80000000000000000
310
7FFFFFFFFFFFFFFFFFFFFFFC001FFFFFFFFFFFFFFC001FFFFFFFFFFFFFFFFFFF
310
FFFFFFFC001FFFFFF000FFFFFFFFFFFFFFFFFFFFFFFFFFFFFFFFFFFFFFFFFFFF
310
FFFFFFFFFFFFFFFFFFFFFFFFFFFFFFFFFFFFFFFFFFFFFFFFFFFFFFFFFFFFFFFF
310
FFFFFFFFFFFFFFFFFFFFFFFFFFFFFFFFFFFFFFFFFFFFFFFFFFFFFFFFFFFFFFFF
310
F000FFFFFFFFFFFFFFFFFFFFFFFFFFFFFFFFFFFFFFFFFFFFFFFFFFFFFFFFFFFF
310
FFFFFFFFFFFFFFFFFFFFFFFFFFFFFFFFFFFFFFFFFFFFFFFFFFFFFFFFFFFFFFFF
310
FFFFFFFFFFFFFFFFFFFFFFFFFFFFFFFFFFFFFFFFFFFFFFFFF000FFFFFFFFFFFF
310
FFFFFFFFFFFFFFFFFFFFFFFFFFFFFFFFFFFFFFFFFFFFFFFFFFFFFFFFFFFFFFFF
310
FFFFFFFFFFFFFFFFFFFFFFFFFFFFFFFFFFFFFFFFFFFFFFFFFFFFFFFFFFFFFFFF
310
FFFFFFFFFFFFFFFFFFFFFFFFFFFFFFFFF000FFFFFFFFFFFFFFFFFFFFFFFFFFFF
310
FFFFFFFFFFFFFFFFFFFFFFFFFFFFFFFFFFFFFFFFFFFFFFFFFFFFFFFFFFFFFFFF
310
FFFFFFFFFFFFFFFFFFFFFFFFFFFFFFFFFFFFFFFFFFFFFFFFFFFFFFFFFFFFFFFF
310
FFFFFFFFFFFFFFFFF000FFFFFFFFFFFFFFFFFFFFFFFFFFFFFFFFFFFFFFFFFFFF
310
FFFFFFFFFFFFFFFFFFFFFFFFFFFFFFFFFFFFFFFFFFFFFFFFFFFFFFFFFFFFFFFF
310
FFFFFFFFFFFFFFFFFFFFFFFFFFFFFFFFFFFFFFFFFFFFFFFFFFFFFFFFFFFFFFFF
310
F000FFFFFFFFFFFFFFFFFFFFFFFFFFFFFFFFFFFFFFFFFFFFFFFFFFFFFFFFFFFF
310
FFFFFFFFFFFFFFFFFFFFFFFFFFFFFFFFFFFFFFFFFFFFFFFFFFFFFFFFFFFFFFFF
310
FFFFFFFFFFFFFFFFFFFFFFFFFFFFFFFFFFFFFFFFFFFFFFFFF000FFFFFFFFFFFF
310
FFFFFFFFFFFFFFFFFFFFFFFFFFFFFFFFFFFFFFFFFFFFFFFFFFFFFFFFFFFFFFFF
310
FFFFFFFFFFFFFFFFFFFFFFFFFFFFFFFFFFFFFFFFFFFFFFFFFFFFFFFFFFFFFFFF
310
FFFFFFFFFFFFFFFFFFFFFFFFFFFFFFFFF000FFFFFFFFFFFFFFFFFFFFFFFFFFFF
310
FFFFFFFFFFFFFFFFFFFFFFFFFFFFFFFFFFFFFFFFFFFFFFFFFFFFFFFFFFFFFFFF
310
FFFFFFFFFFFFFFFFFFFFFFFFFFFFFFFFFFFFFFFFFFFFFFFFFFFFFFFFFFFFFFFF
310
FFFFFFFFFFFFFFFFF000FFFFFFFFFFFFFFFFFFFFFFFFFFFFFFFFFFFFFFFFFFFF
310
FFFFFFFFFFFFFFFFFFFFFFFFFFFFFFFFFFFFFFFFFFFFFFFFFFFFFFFFFFFFFFFF
310
FFFFFFFFFFFFFFFFFFFFFFFFFFFFFFFFFFFFFFFFFFFFFFFFFFFFFFFFFFFFFFFF
310
F000FFFFFFFFFFFFFFFFFFFFFFFFFFFFFFFFFFFFFFFFFFFFFFFFFFFFFFFFFFFF
310
FFFFFFFFFFFFFFFFFFFFFFFFFFFFFFFFFFFFFFFFFFFFFFFFFFFFFFFFFFFFFFFF
310
FFFFFFFFFFFFFFFFFFFFFFFFFFFFFFFFFFFFFFFFFFFFFFFFF000FFFFFFFFFFFF
310
FFFFFFFFFFFFFFFFFFFFFFFFFFFFFFFFFFFFFFFFFFFFFFFFFFFFFFFFFFFFFFFF
310
FFFFFFFFFFFFFFFFFFFFFFFFFFFFFFFFFFFFFFFFFFFFFFFFFFFFFFFFFFFFFFFF
310
FFFFFFFFFFFFFFFFFFFFFFFFFFFFFFFFF000FFFFFFFFFFFFFFFFFFFFFFFFFFFF
310
FFFFFFFFFFFFFFFFFFFFFFFFFFFFFFFFFFFFFFFFFFFFFFFFFFFFFFFFFFFFFFFF
310
FFFFFFFFFFFFFFFFFFFFFFFFFFFFFFFFFFFFFFFFFFFFFFFFFFFFFFFFFFFFFFFF
310
FFFFFFFFFFFFFFFFF000FFFFFFFFFFFFFFFFFFFFFFFFFFFFFFFFFFFFFFFFFFFF
310
FFFFFFFFFFFFFFFFFFFFFFFFFFFFFFFFFFFFFFFFFFFFFFFFFFFFFFFFFFFFFFFF
310
FFFFFFFFFFFFFFFFFFFFFFFFFFFFFFFFFFFFFFFFFFFFFFFFFFFFFFFFFFFFFFFF
310
F000FFFFFFFFFFFFFFFFFFFFFFFFFFFFFFFFFFFFFFFFFFFFFFFFFFFFFFFFFFFF
310
FFFFFFFFFFFFFFFFFFFFFFFFFFFFFFFFFFFFFFFFFFFFFFFFFFFFFFFFFFFFFFFF
310
FFFFFFFFFFFFFFFFFFFFFFFFFFFFFFFFFFFFFFFFFFFFFFFFF000FFFFFFFFFFFF
310
FFFFFFFFFFFFFFFFFFFFFFFFFFFFFFFFFFFFFFFFFFFFFFFFFFFFFFFFFFFFFFFF
310
FFFFFFFFFFFFFFFFFFFFFFFFFFFFFFFFFFFFFFFFFFFFFFFFFFFFFFFFFFFFFFFF
310
FFFFFFFFFFFFFFFFFFFFFFFFFFFFFFFFF000FFFFFFFFFFFFFFFFFFFFFFFFFFFF
310
FFFFFFFFFFFFFFFFFFFFFFFFFFFFFFFFFFFFFFFFFFFFFFFFFFFFFFFFFFFFFFFF
310
FFFFFFFFFFFFFFFFFFFFFFFFFFFFFFFFFFFFFFFFFFFFFFFFFFFFFFFFFFFFFFFF
310
FFFFFFFFFFFFFFFFF000FFFFFFFFFFFFFFFFFFFFFFFFFFFFFFFFFFFFFFFFFFFF
310
FFFFFFFFFFFFFFFFFFFFFFFFFFFFFFFFFFFFFFFFFFFFFFFFFFFFFFFFFFFFFFFF
310
FFFFFFFFFFFFFFFFFFFFFFFFFFFFFFFFFFFFFFFFFFFFFFFFFFFFFFFFFFFFFFFF
310
F000FFFFFFFFFFFFFFFFFFFFFFFFFFFFFFFFFFFFFFFFFFFFFFFFFFFFFFFFFFFF
310
FFFFFFFFFFFFFFFFFFFFFFFFFFFFFFFFFFFFFFFFFFFFFFFFFFFFFFFFFFFFFFFF
310
FFFFFFFFFFFFFFFFFFFFFFFFFFFFFFFFFFFFFFFFFFFFFFFFF000FFFFFFFFFFFF
310
FFFFFFFFFFFFFFFFFFFFFFFFFFFFFFFFFFFFFFFFFFFFFFFFFFFFFFFFFFFFFFFF
310
FFFFFFFFFFFFFFFFFFFFFFFFFFFFFFFFFFFFFFFFFFFFFFFFFFFFFFFFFFFFFFFF
310
FFFFFFFFFFFFFFFFFFFFFFFFFFFFFFFFF000FFFFFFFFFFFFFFFFFFFFFFFFFFFF
310
FFFFFFFFFFFFFFFFFFFFFFFFFFFFFFFFFFFFFFFFFFFFFFFFFFFFFFFFFFFFFFFF
310
FFFFFFFFFFFFFFFFFFFFFFFFFFFFFFFFFFFFFFFFFFFFFFFFFFFFFFFFFFFFFFFF
310
FFFFFFFFFFFFFFFFF000FFFFFFFFFFFFFFFFFFFFFFFFFFFFFFFFFFFFFFFFFFFF
310
FFFFFFFFFFFFFFFFFFFFFFFFFFFFFFFFFFFFFFFFFFFFFFFFFFFFFFFFFFFFFFFF
310
FFFFFFFFFFFFFFFFFFFFFFFFFFFFFFFFFFFFFFFFFFFFFFFFFFFFFFFFFFFFFFFF
310
F000FFFFFFFFFFFFFFFFFFFFFFFFFFFFFFFFFFFFFFFFFFFFFFFFFFFFFFFFFFFF
310
FFFFFFFFFFFFFFFFFFFFFFFFFFFFFFFFFFFFFFFFFFFFFFFFFFFFFFFFFFFFFFFF
310
FFFFFFFFFFFFFFFFFFFFFFFFFFFFFFFFFFFFFFFFFFFFFFFFF000FFFFFFFFFFFF
310
FFFFFFFFFFFFFFFFFFFFFFFFFFFFFFFFFFFFFFFFFFFFFFFFFFFFFFFFFFFFFFFF
310
FFFFFFFFFFFFFFFFFFFFFFFFFFFFFFFFFFFFFFFFFFFFFFFFFFFFFFFFFFFFFFFF
310
FFFFFFFFFFFFFFFFFFFFFFFFFFFFFFFFF0000000000000000000000000000000
310
0000000000000000000000000000000000000000000000000000000000000000
310
0000000000000000000000000000000000000000000000000000000000000000
310
0000000000000000000000000000000000000000000000000000000000000000
310
0000000000000000000000000000000000000000000000000000000000000000
310
0000000000000000000000000000000000000000000000000000000000000000
310
0000000000000000000000000000000000000000000000000000000000000000
310
0000000000000000000000000000000000000000000000000000000000000000
310
0000000000000000000000000000000000000000000000000000000000000000
310
0000000000000000000000000000000000000000000000000000000000000000
310
0000000000000000000000000000000000000000000000000000000000000000
310
0000000000000000000000000000000000000000000000000000000000000000
310
0000000000000000000000000000000000000000000000000000000000000000
310
0000000000000000000000000000000000000000000000000000000000000000
310
0000000000000000000000000000000000000000000000000000000000000000
310
0000000000000000000000000000000000000000000000000000000000000000
  1
OLE
  0
ENDSEC
  0
SECTION
  2
OBJECTS
  0
DICTIONARY
  5
C
330
0
100
AcDbDictionary
281
     1
  3
ACAD_GROUP
350
D
  3
ACAD_LAYOUT
350
1A
  3
ACAD_MLINESTYLE
350
17
  3
ACAD_PLOTSETTINGS
350
19
  3
ACAD_PLOTSTYLENAME
350
E
  3
ACAD_SCALELIST
350
47
  0
DICTIONARY
  5
D
102
{ACAD_REACTORS
330
C
102
}
330
C
100
AcDbDictionary
281
     1
  0
DICTIONARY
  5
1A
102
{ACAD_REACTORS
330
C
102
}
330
C
100
AcDbDictionary
281
     1
  3
Layout1
350
1E
  3
Layout2
350
26
  3
Model
350
22
  0
DICTIONARY
  5
17
102
{ACAD_REACTORS
330
C
102
}
330
C
100
AcDbDictionary
281
     1
  3
Standard
350
18
  0
DICTIONARY
  5
19
102
{ACAD_REACTORS
330
C
102
}
330
C
100
AcDbDictionary
281
     1
  0
ACDBDICTIONARYWDFLT
  5
E
102
{ACAD_REACTORS
330
C
102
}
330
C
100
AcDbDictionary
281
     1
  3
Normal
350
F
100
AcDbDictionaryWithDefault
340
F
  0
DICTIONARY
  5
47
102
{ACAD_REACTORS
330
C
102
}
330
C
100
AcDbDictionary
281
     1
  3
A0
350
48
  3
A1
350
49
  3
A2
350
4A
  3
A3
350
4B
  3
A4
350
4C
  3
A5
350
4D
  3
A6
350
4E
  3
A7
350
4F
  3
A8
350
50
  3
A9
350
51
  3
B0
350
52
  3
B1
350
53
  3
B2
350
54
  3
B3
350
55
  3
B4
350
56
  3
B5
350
57
  3
B6
350
58
  3
B7
350
59
  3
B8
350
5A
  3
B9
350
5B
  3
C0
350
5C
  3
C1
350
5D
  3
C2
350
5E
  3
C3
350
5F
  3
C4
350
60
  3
C5
350
61
  3
C6
350
62
  3
C7
350
63
  3
C8
350
64
  3
C9
350
65
  3
D0
350
66
  3
D1
350
67
  3
D2
350
68
  0
LAYOUT
  5
1E
102
{ACAD_REACTORS
330
1A
102
}
330
1A
100
AcDbPlotSettings
  1

  2
none_device
  4

  6

 40
0.0
 41
0.0
 42
0.0
 43
0.0
 44
0.0
 45
0.0
 46
0.0
 47
0.0
 48
0.0
 49
0.0
140
0.0
141
0.0
142
1.0
143
1.0
 70
   688
 72
     1
 73
     0
 74
     5
  7

 75
    16
147
1.0
148
0.0
149
0.0
100
AcDbLayout
  1
Layout1
 70
     1
 71
     1
 10
0.0
 20
0.0
 11
420.0
 21
297.0
 12
0.0
 22
0.0
 32
0.0
 14
1.0000000000E+20
 24
1.0000000000E+20
 34
1.0000000000E+20
 15
-1.0000000000E+20
 25
-1.0000000000E+20
 35
-1.0000000000E+20
146
0.0
 13
0.0
 23
0.0
 33
0.0
 16
1.0
 26
0.0
 36
0.0
 17
0.0
 27
1.0
 37
0.0
 76
     0
330
1B
  0
LAYOUT
  5
26
102
{ACAD_REACTORS
330
1A
102
}
330
1A
100
AcDbPlotSettings
  1

  2
none_device
  4

  6

 40
0.0
 41
0.0
 42
0.0
 43
0.0
 44
0.0
 45
0.0
 46
0.0
 47
0.0
 48
0.0
 49
0.0
140
0.0
141
0.0
142
1.0
143
1.0
 70
   688
 72
     1
 73
     0
 74
     5
  7

 75
    16
147
1.0
148
0.0
149
0.0
100
AcDbLayout
  1
Layout2
 70
     1
 71
     2
 10
0.0
 20
0.0
 11
0.0
 21
0.0
 12
0.0
 22
0.0
 32
0.0
 14
0.0
 24
0.0
 34
0.0
 15
0.0
 25
0.0
 35
0.0
146
0.0
 13
0.0
 23
0.0
 33
0.0
 16
1.0
 26
0.0
 36
0.0
 17
0.0
 27
1.0
 37
0.0
 76
     0
330
23
  0
LAYOUT
  5
22
102
{ACAD_REACTORS
330
1A
102
}
330
1A
100
AcDbPlotSettings
  1

  2
none_device
  4
Letter_(8.50_x_11.00_Inches)
  6

 40
6.35
 41
6.35
 42
6.35000508
 43
6.35000508
 44
215.9
 45
279.4
 46
0.0
 47
0.0
 48
0.0
 49
0.0
140
0.0
141
0.0
142
1.0
143
1.0
 70
  1712
 72
     1
 73
     0
 74
     0
  7

 75
     0
147
1.0
148
0.0
149
0.0
100
AcDbLayout
  1
Model
 70
     1
 71
     0
 10
0.0
 20
0.0
 11
297.0
 21
210.0
 12
0.0
 22
0.0
 32
0.0
 14
0.0
 24
0.0
 34
0.0
 15
297.0
 25
210.0
 35
0.0
146
0.0
 13
0.0
 23
0.0
 33
0.0
 16
1.0
 26
0.0
 36
0.0
 17
0.0
 27
1.0
 37
0.0
 76
     0
330
1F
331
29
  0
MLINESTYLE
  5
18
102
{ACAD_REACTORS
330
17
102
}
330
17
100
AcDbMlineStyle
  2
Standard
 70
     0
  3

 62
   256
 51
90.0
 52
90.0
 71
     2
 49
0.5
 62
   256
  6
BYLAYER
 49
-0.5
 62
   256
  6
BYLAYER
  0
ACDBPLACEHOLDER
  5
F
102
{ACAD_REACTORS
330
E
102
}
330
E
  0
SCALE
  5
48
102
{ACAD_REACTORS
330
47
102
}
330
47
100
AcDbScale
 70
     0
300
1:1
140
1.0
141
1.0
290
     1
  0
SCALE
  5
49
102
{ACAD_REACTORS
330
47
102
}
330
47
100
AcDbScale
 70
     0
300
1:2
140
1.0
141
2.0
290
     0
  0
SCALE
  5
4A
102
{ACAD_REACTORS
330
47
102
}
330
47
100
AcDbScale
 70
     0
300
1:4
140
1.0
141
4.0
290
     0
  0
SCALE
  5
4B
102
{ACAD_REACTORS
330
47
102
}
330
47
100
AcDbScale
 70
     0
300
1:5
140
1.0
141
5.0
290
     0
  0
SCALE
  5
4C
102
{ACAD_REACTORS
330
47
102
}
330
47
100
AcDbScale
 70
     0
300
1:8
140
1.0
141
8.0
290
     0
  0
SCALE
  5
4D
102
{ACAD_REACTORS
330
47
102
}
330
47
100
AcDbScale
 70
     0
300
1:10
140
1.0
141
10.0
290
     0
  0
SCALE
  5
4E
102
{ACAD_REACTORS
330
47
102
}
330
47
100
AcDbScale
 70
     0
300
1:16
140
1.0
141
16.0
290
     0
  0
SCALE
  5
4F
102
{ACAD_REACTORS
330
47
102
}
330
47
100
AcDbScale
 70
     0
300
1:20
140
1.0
141
20.0
290
     0
  0
SCALE
  5
50
102
{ACAD_REACTORS
330
47
102
}
330
47
100
AcDbScale
 70
     0
300
1:30
140
1.0
141
30.0
290
     0
  0
SCALE
  5
51
102
{ACAD_REACTORS
330
47
102
}
330
47
100
AcDbScale
 70
     0
300
1:40
140
1.0
141
40.0
290
     0
  0
SCALE
  5
52
102
{ACAD_REACTORS
330
47
102
}
330
47
100
AcDbScale
 70
     0
300
1:50
140
1.0
141
50.0
290
     0
  0
SCALE
  5
53
102
{ACAD_REACTORS
330
47
102
}
330
47
100
AcDbScale
 70
     0
300
1:100
140
1.0
141
100.0
290
     0
  0
SCALE
  5
54
102
{ACAD_REACTORS
330
47
102
}
330
47
100
AcDbScale
 70
     0
300
2:1
140
2.0
141
1.0
290
     0
  0
SCALE
  5
55
102
{ACAD_REACTORS
330
47
102
}
330
47
100
AcDbScale
 70
     0
300
4:1
140
4.0
141
1.0
290
     0
  0
SCALE
  5
56
102
{ACAD_REACTORS
330
47
102
}
330
47
100
AcDbScale
 70
     0
300
8:1
140
8.0
141
1.0
290
     0
  0
SCALE
  5
57
102
{ACAD_REACTORS
330
47
102
}
330
47
100
AcDbScale
 70
     0
300
10:1
140
10.0
141
1.0
290
     0
  0
SCALE
  5
58
102
{ACAD_REACTORS
330
47
102
}
330
47
100
AcDbScale
 70
     0
300
100:1
140
100.0
141
1.0
290
     0
  0
SCALE
  5
59
102
{ACAD_REACTORS
330
47
102
}
330
47
100
AcDbScale
 70
     0
300
1/128" = 1'-0"
140
0.0078125
141
12.0
290
     0
  0
SCALE
  5
5A
102
{ACAD_REACTORS
330
47
102
}
330
47
100
AcDbScale
 70
     0
300
1/64" = 1'-0"
140
0.015625
141
12.0
290
     0
  0
SCALE
  5
5B
102
{ACAD_REACTORS
330
47
102
}
330
47
100
AcDbScale
 70
     0
300
1/32" = 1'-0"
140
0.03125
141
12.0
290
     0
  0
SCALE
  5
5C
102
{ACAD_REACTORS
330
47
102
}
330
47
100
AcDbScale
 70
     0
300
1/16" = 1'-0"
140
0.0625
141
12.0
290
     0
  0
SCALE
  5
5D
102
{ACAD_REACTORS
330
47
102
}
330
47
100
AcDbScale
 70
     0
300
3/32" = 1'-0"
140
0.09375
141
12.0
290
     0
  0
SCALE
  5
5E
102
{ACAD_REACTORS
330
47
102
}
330
47
100
AcDbScale
 70
     0
300
1/8" = 1'-0"
140
0.125
141
12.0
290
     0
  0
SCALE
  5
5F
102
{ACAD_REACTORS
330
47
102
}
330
47
100
AcDbScale
 70
     0
300
3/16" = 1'-0"
140
0.1875
141
12.0
290
     0
  0
SCALE
  5
60
102
{ACAD_REACTORS
330
47
102
}
330
47
100
AcDbScale
 70
     0
300
1/4" = 1'-0"
140
0.25
141
12.0
290
     0
  0
SCALE
  5
61
102
{ACAD_REACTORS
330
47
102
}
330
47
100
AcDbScale
 70
     0
300
3/8" = 1'-0"
140
0.375
141
12.0
290
     0
  0
SCALE
  5
62
102
{ACAD_REACTORS
330
47
102
}
330
47
100
AcDbScale
 70
     0
300
1/2" = 1'-0"
140
0.5
141
12.0
290
     0
  0
SCALE
  5
63
102
{ACAD_REACTORS
330
47
102
}
330
47
100
AcDbScale
 70
     0
300
3/4" = 1'-0"
140
0.75
141
12.0
290
     0
  0
SCALE
  5
64
102
{ACAD_REACTORS
330
47
102
}
330
47
100
AcDbScale
 70
     0
300
1" = 1'-0"
140
1.0
141
12.0
290
     0
  0
SCALE
  5
65
102
{ACAD_REACTORS
330
47
102
}
330
47
100
AcDbScale
 70
     0
300
1-1/2" = 1'-0"
140
1.5
141
12.0
290
     0
  0
SCALE
  5
66
102
{ACAD_REACTORS
330
47
102
}
330
47
100
AcDbScale
 70
     0
300
3" = 1'-0"
140
3.0
141
12.0
290
     0
  0
SCALE
  5
67
102
{ACAD_REACTORS
330
47
102
}
330
47
100
AcDbScale
 70
     0
300
6" = 1'-0"
140
6.0
141
12.0
290
     0
  0
SCALE
  5
68
102
{ACAD_REACTORS
330
47
102
}
330
47
100
AcDbScale
 70
     0
300
1'-0" = 1'-0"
140
12.0
141
12.0
290
     0
  0
ENDSEC
  0
EOF
