  0
SECTION
  2
HEADER
  9
$ACADVER
  1
AC1015
  9
$ACADMAINTVER
 70
     6
  9
$DWGCODEPAGE
  3
ANSI_1252
  9
$INSBASE
 10
0.0
 20
0.0
 30
0.0
  9
$EXTMIN
 10
0.0
 20
0.0
 30
0.0
  9
$EXTMAX
 10
297.0
 20
210.0
 30
0.0
  9
$LIMMIN
 10
0.0
 20
0.0
  9
$LIMMAX
 10
297.0
 20
210.0
  9
$ORTHOMODE
 70
     0
  9
$REGENMODE
 70
     1
  9
$FILLMODE
 70
     1
  9
$QTEXTMODE
 70
     0
  9
$MIRRTEXT
 70
     1
  9
$LTSCALE
 40
1.0
  9
$ATTMODE
 70
     1
  9
$TEXTSIZE
 40
2.0
  9
$TRACEWID
 40
1.0
  9
$TEXTSTYLE
  7
Standard
  9
$CLAYER
  8
0
  9
$CELTYPE
  6
ByLayer
  9
$CECOLOR
 62
   256
  9
$CELTSCALE
 40
1.0
  9
$DISPSILH
 70
     0
  9
$DIMSCALE
 40
1.0
  9
$DIMASZ
 40
3.0
  9
$DIMEXO
 40
0.0
  9
$DIMDLI
 40
3.75
  9
$DIMRND
 40
0.0
  9
$DIMDLE
 40
0.0
  9
$DIMEXE
 40
1.0
  9
$DIMTP
 40
0.0
  9
$DIMTM
 40
0.0
  9
$DIMTXT
 40
2.0
  9
$DIMCEN
 40
2.5
  9
$DIMTSZ
 40
0.0
  9
$DIMTOL
 70
     0
  9
$DIMLIM
 70
     0
  9
$DIMTIH
 70
     1
  9
$DIMTOH
 70
     1
  9
$DIMSE1
 70
     0
  9
$DIMSE2
 70
     0
  9
$DIMTAD
 70
     1
  9
$DIMZIN
 70
     0
  9
$DIMBLK
  1

  9
$DIMASO
 70
     1
  9
$DIMSHO
 70
     1
  9
$DIMPOST
  1

  9
$DIMAPOST
  1

  9
$DIMALT
 70
     0
  9
$DIMALTD
 70
     3
  9
$DIMALTF
 40
0.0393700787
  9
$DIMLFAC
 40
2.0
  9
$DIMTOFL
 70
     1
  9
$DIMTVP
 40
0.0
  9
$DIMTIX
 70
     0
  9
$DIMSOXD
 70
     0
  9
$DIMSAH
 70
     0
  9
$DIMBLK1
  1

  9
$DIMBLK2
  1

  9
$DIMSTYLE
  2
ISO-25
  9
$DIMCLRD
 70
     0
  9
$DIMCLRE
 70
     0
  9
$DIMCLRT
 70
     0
  9
$DIMTFAC
 40
1.0
  9
$DIMGAP
 40
1.524
  9
$DIMJUST
 70
     0
  9
$DIMSD1
 70
     0
  9
$DIMSD2
 70
     0
  9
$DIMTOLJ
 70
     0
  9
$DIMTZIN
 70
     0
  9
$DIMALTZ
 70
     0
  9
$DIMALTTZ
 70
     0
  9
$DIMUPT
 70
     0
  9
$DIMDEC
 70
     2
  9
$DIMTDEC
 70
     3
  9
$DIMALTU
 70
     2
  9
$DIMALTTD
 70
     3
  9
$DIMTXSTY
  7
Standard
  9
$DIMAUNIT
 70
     0
  9
$DIMADEC
 70
     2
  9
$DIMALTRND
 40
0.0
  9
$DIMAZIN
 70
     0
  9
$DIMDSEP
 70
    44
  9
$DIMATFIT
 70
     3
  9
$DIMFRAC
 70
     0
  9
$DIMLDRBLK
  1

  9
$DIMLUNIT
 70
     2
  9
$DIMLWD
 70
    -2
  9
$DIMLWE
 70
    -2
  9
$DIMTMOVE
 70
     0
  9
$LUNITS
 70
     2
  9
$LUPREC
 70
     2
  9
$SKETCHINC
 40
1.0
  9
$FILLETRAD
 40
10.0
  9
$AUNITS
 70
     0
  9
$AUPREC
 70
     2
  9
$MENU
  1
.
  9
$ELEVATION
 40
0.0
  9
$PELEVATION
 40
0.0
  9
$THICKNESS
 40
0.0
  9
$LIMCHECK
 70
     0
  9
$CHAMFERA
 40
0.0
  9
$CHAMFERB
 40
0.0
  9
$CHAMFERC
 40
0.0
  9
$CHAMFERD
 40
0.0
  9
$SKPOLY
 70
     0
  9
$TDCREATE
 40
2458184.39418147
  9
$TDUCREATE
 40
2458184.352514803
  9
$TDUPDATE
 40
2458184.394182697
  9
$TDUUPDATE
 40
2458184.35251603
  9
$TDINDWG
 40
0.0000000116
  9
$TDUSRTIMER
 40
0.0000000116
  9
$USRTIMER
 70
     1
  9
$ANGBASE
 50
0.0
  9
$ANGDIR
 70
     0
  9
$PDMODE
 70
     0
  9
$PDSIZE
 40
-1.0
  9
$PLINEWID
 40
0.0
  9
$SPLFRAME
 70
     0
  9
$SPLINETYPE
 70
     6
  9
$SPLINESEGS
 70
     8
  9
$HANDSEED
  5
1D4
  9
$SURFTAB1
 70
     6
  9
$SURFTAB2
 70
     6
  9
$SURFTYPE
 70
     6
  9
$SURFU
 70
     6
  9
$SURFV
 70
     6
  9
$UCSBASE
  2

  9
$UCSNAME
  2

  9
$UCSORG
 10
0.0
 20
0.0
 30
0.0
  9
$UCSXDIR
 10
1.0
 20
0.0
 30
0.0
  9
$UCSYDIR
 10
0.0
 20
1.0
 30
0.0
  9
$UCSORTHOREF
  2

  9
$UCSORTHOVIEW
 70
     0
  9
$UCSORGTOP
 10
0.0
 20
0.0
 30
0.0
  9
$UCSORGBOTTOM
 10
0.0
 20
0.0
 30
0.0
  9
$UCSORGLEFT
 10
0.0
 20
0.0
 30
0.0
  9
$UCSORGRIGHT
 10
0.0
 20
0.0
 30
0.0
  9
$UCSORGFRONT
 10
0.0
 20
0.0
 30
0.0
  9
$UCSORGBACK
 10
0.0
 20
0.0
 30
0.0
  9
$PUCSBASE
  2

  9
$PUCSNAME
  2

  9
$PUCSORG
 10
0.0
 20
0.0
 30
0.0
  9
$PUCSXDIR
 10
1.0
 20
0.0
 30
0.0
  9
$PUCSYDIR
 10
0.0
 20
1.0
 30
0.0
  9
$PUCSORTHOREF
  2

  9
$PUCSORTHOVIEW
 70
     0
  9
$PUCSORGTOP
 10
0.0
 20
0.0
 30
0.0
  9
$PUCSORGBOTTOM
 10
0.0
 20
0.0
 30
0.0
  9
$PUCSORGLEFT
 10
0.0
 20
0.0
 30
0.0
  9
$PUCSORGRIGHT
 10
0.0
 20
0.0
 30
0.0
  9
$PUCSORGFRONT
 10
0.0
 20
0.0
 30
0.0
  9
$PUCSORGBACK
 10
0.0
 20
0.0
 30
0.0
  9
$USERI1
 70
     0
  9
$USERI2
 70
     0
  9
$USERI3
 70
     0
  9
$USERI4
 70
     0
  9
$USERI5
 70
     0
  9
$USERR1
 40
0.0
  9
$USERR2
 40
0.0
  9
$USERR3
 40
0.0
  9
$USERR4
 40
0.0
  9
$USERR5
 40
0.0
  9
$WORLDVIEW
 70
     1
  9
$SHADEDGE
 70
     3
  9
$SHADEDIF
 70
    70
  9
$TILEMODE
 70
     1
  9
$MAXACTVP
 70
    64
  9
$PINSBASE
 10
0.0
 20
0.0
 30
0.0
  9
$PLIMCHECK
 70
     0
  9
$PEXTMIN
 10
1.0000000000E+20
 20
1.0000000000E+20
 30
1.0000000000E+20
  9
$PEXTMAX
 10
-1.0000000000E+20
 20
-1.0000000000E+20
 30
-1.0000000000E+20
  9
$PLIMMIN
 10
0.0
 20
0.0
  9
$PLIMMAX
 10
420.0
 20
297.0
  9
$UNITMODE
 70
     0
  9
$VISRETAIN
 70
     1
  9
$PLINEGEN
 70
     0
  9
$PSLTSCALE
 70
     1
  9
$TREEDEPTH
 70
  3020
  9
$CMLSTYLE
  2
Standard
  9
$CMLJUST
 70
     0
  9
$CMLSCALE
 40
20.0
  9
$PROXYGRAPHICS
 70
     1
  9
$MEASUREMENT
 70
     1
  9
$CELWEIGHT
370
    -1
  9
$ENDCAPS
280
     0
  9
$JOINSTYLE
280
     0
  9
$LWDISPLAY
290
     1
  9
$INSUNITS
 70
     4
  9
$HYPERLINKBASE
  1

  9
$STYLESHEET
  1

  9
$XEDIT
290
     1
  9
$CEPSNTYPE
380
     0
  9
$PSTYLEMODE
290
     1
  9
$FINGERPRINTGUID
  2
{BD78BDEA-ED49-421D-B104-1B9C96D7174D}
  9
$VERSIONGUID
  2
{FAEB1C32-E019-11D5-929B-00C0DF256EC4}
  9
$EXTNAMES
290
     1
  9
$PSVPSCALE
 40
0.0
  9
$OLESTARTUP
290
     0
  0
ENDSEC
  0
SECTION
  2
CLASSES
  0
CLASS
  1
ACDBDICTIONARYWDFLT
  2
AcDbDictionaryWithDefault
  3
ObjectDBX Classes
 90
        0
280
     0
281
     0
  0
CLASS
  1
VISUALSTYLE
  2
AcDbVisualStyle
  3
ObjectDBX Classes
 90
     4095
280
     0
281
     0
  0
CLASS
  1
MATERIAL
  2
AcDbMaterial
  3
ObjectDBX Classes
 90
     1153
280
     0
281
     0
  0
CLASS
  1
SCALE
  2
AcDbScale
  3
ObjectDBX Classes
 90
     1153
280
     0
281
     0
  0
CLASS
  1
TABLESTYLE
  2
AcDbTableStyle
  3
ObjectDBX Classes
 90
     4095
280
     0
281
     0
  0
CLASS
  1
MLEADERSTYLE
  2
AcDbMLeaderStyle
  3
ACDB_MLEADERSTYLE_CLASS
 90
     4095
280
     0
281
     0
  0
CLASS
  1
SUN
  2
AcDbSun
  3
SCENEOE
 90
     1153
280
     0
281
     0
  0
CLASS
  1
ACDBPLACEHOLDER
  2
AcDbPlaceHolder
  3
ObjectDBX Classes
 90
        0
280
     0
281
     0
  0
CLASS
  1
LAYOUT
  2
AcDbLayout
  3
ObjectDBX Classes
 90
        0
280
     0
281
     0
  0
ENDSEC
  0
SECTION
  2
TABLES
  0
TABLE
  2
VPORT
  5
8
330
0
100
AcDbSymbolTable
 70
     1
  0
VPORT
  5
29
330
8
100
AcDbSymbolTableRecord
100
AcDbViewportTableRecord
  2
*Active
 70
     0
 10
0.0
 20
0.0
 11
1.0
 21
1.0
 12
148.5
 22
105.0
 13
0.0
 23
0.0
 14
10.0
 24
10.0
 15
10.0
 25
10.0
 16
0.0
 26
0.0
 36
1.0
 17
0.0
 27
0.0
 37
0.0
 40
210.0
 41
1.4142857143
 42
50.0
 43
0.0
 44
0.0
 50
0.0
 51
0.0
 71
     0
 72
  2000
 73
     1
 74
     3
 75
     0
 76
     0
 77
     0
 78
     0
281
     0
 65
     1
110
0.0
120
0.0
130
0.0
111
1.0
121
0.0
131
0.0
112
0.0
122
1.0
132
0.0
 79
     0
146
0.0
  0
ENDTAB
  0
TABLE
  2
LTYPE
  5
5
330
0
100
AcDbSymbolTable
 70
     6
  0
LTYPE
  5
14
330
5
100
AcDbSymbolTableRecord
100
AcDbLinetypeTableRecord
  2
ByBlock
 70
     0
  3

 72
    65
 73
     0
 40
0.0
  0
LTYPE
  5
15
330
5
100
AcDbSymbolTableRecord
100
AcDbLinetypeTableRecord
  2
ByLayer
 70
     0
  3

 72
    65
 73
     0
 40
0.0
  0
LTYPE
  5
16
330
5
100
AcDbSymbolTableRecord
100
AcDbLinetypeTableRecord
  2
Continuous
 70
     0
  3
Solid line
 72
    65
 73
     0
 40
0.0
  0
LTYPE
  5
6E
330
5
100
AcDbSymbolTableRecord
100
AcDbLinetypeTableRecord
  2
HIDDEN
 70
     0
  3
Hidden __ __ __ __ __ __ __ __ __ __ __ __ __ __
 72
    65
 73
     2
 40
1.905
 49
1.27
 74
     0
 49
-0.635
 74
     0
  0
LTYPE
  5
6F
330
5
100
AcDbSymbolTableRecord
100
AcDbLinetypeTableRecord
  2
PHANTOM
 70
     0
  3
Phantom ______  __  __  ______  __  __  ______
 72
    65
 73
     6
 40
12.7
 49
6.35
 74
     0
 49
-1.27
 74
     0
 49
1.27
 74
     0
 49
-1.27
 74
     0
 49
1.27
 74
     0
 49
-1.27
 74
     0
  0
LTYPE
  5
70
330
5
100
AcDbSymbolTableRecord
100
AcDbLinetypeTableRecord
  2
CENTER
 70
     0
  3
Center ____ _ ____ _ ____ _ ____ _ ____ _ ____
 72
    65
 73
     4
 40
10.16
 49
6.35
 74
     0
 49
-1.27
 74
     0
 49
1.27
 74
     0
 49
-1.27
 74
     0
  0
LTYPE
  5
71
330
5
100
AcDbSymbolTableRecord
100
AcDbLinetypeTableRecord
  2
CENTERX2
 70
     0
  3
Center (2x) ________  __  ________  __  _____
 72
    65
 73
     4
 40
20.32
 49
12.7
 74
     0
 49
-2.54
 74
     0
 49
2.54
 74
     0
 49
-2.54
 74
     0
  0
LTYPE
  5
72
330
5
100
AcDbSymbolTableRecord
100
AcDbLinetypeTableRecord
  2
DOT2
 70
     0
  3
Dot (.5x) ........................................
 72
    65
 73
     2
 40
0.635
 49
0.0
 74
     0
 49
-0.635
 74
     0
  0
ENDTAB
  0
TABLE
  2
LAYER
  5
2
330
0
100
AcDbSymbolTable
 70
     5
  0
LAYER
  5
10
330
2
100
AcDbSymbolTableRecord
100
AcDbLayerTableRecord
  2
0
 70
     0
 62
     7
  6
Continuous
370
    -3
390
F
  0
LAYER
  5
73
330
2
100
AcDbSymbolTableRecord
100
AcDbLayerTableRecord
  2
FORMAT
 70
     0
 62
     7
  6
Continuous
370
    -3
390
F
  0
LAYER
  5
74
330
2
100
AcDbSymbolTableRecord
100
AcDbLayerTableRecord
  2
VERMASSUNG
 70
     0
 62
     7
  6
Continuous
370
    -3
390
F
  0
LAYER
  5
75
330
2
100
AcDbSymbolTableRecord
100
AcDbLayerTableRecord
  2
KOPF_DÜNN
 70
     0
 62
     7
  6
Continuous
370
    -3
390
F
  0
LAYER
  5
76
330
2
100
AcDbSymbolTableRecord
100
AcDbLayerTableRecord
  2
KOPF_DICK
 70
     0
 62
     7
  6
Continuous
370
    25
390
F
  0
ENDTAB
  0
TABLE
  2
STYLE
  5
3
330
0
100
AcDbSymbolTable
 70
     3
  0
STYLE
  5
11
330
3
100
AcDbSymbolTableRecord
100
AcDbTextStyleTableRecord
  2
Standard
 70
     0
 40
0.0
 41
1.0
 50
0.0
 71
     0
 42
2.0
  3
txt
  4

  0
STYLE
  5
77
330
3
100
AcDbSymbolTableRecord
100
AcDbTextStyleTableRecord
  2
SLDTEXTSTYLE0
 70
     0
 40
0.0
 41
0.7
 50
0.0
 71
     0
 42
2.0
  3
TXT
  4

  0
STYLE
  5
7B
330
3
100
AcDbSymbolTableRecord
100
AcDbTextStyleTableRecord
  2
SLDTEXTSTYLE1
 70
     0
 40
0.0
 41
0.6461538462
 50
0.0
 71
     0
 42
2.0
  3
TXT
  4

  0
ENDTAB
  0
TABLE
  2
VIEW
  5
6
330
0
100
AcDbSymbolTable
 70
     0
  0
ENDTAB
  0
TABLE
  2
UCS
  5
7
330
0
100
AcDbSymbolTable
 70
     0
  0
ENDTAB
  0
TABLE
  2
APPID
  5
9
330
0
100
AcDbSymbolTable
 70
     1
  0
APPID
  5
12
330
9
100
AcDbSymbolTableRecord
100
AcDbRegAppTableRecord
  2
ACAD
 70
     0
  0
ENDTAB
  0
TABLE
  2
DIMSTYLE
  5
A
330
0
100
AcDbSymbolTable
 70
     3
100
AcDbDimStyleTable
  0
DIMSTYLE
105
27
330
A
100
AcDbSymbolTableRecord
100
AcDbDimStyleTableRecord
  2
ISO-25
 70
     0
 41
2.5
 42
0.625
 43
3.75
 44
1.25
 73
     0
 74
     0
 77
     1
 78
     8
140
2.5
141
2.5
143
0.0393700787
147
0.625
171
     3
172
     1
178
     0
271
     2
272
     2
274
     3
278
    44
283
     0
284
     8
340
11
  0
DIMSTYLE
105
E9
102
{ACAD_REACTORS
330
E8
102
}
330
A
100
AcDbSymbolTableRecord
100
AcDbDimStyleTableRecord
  2
SLDDIMSTYLE0
 70
     0
 41
3.0
 44
0.0
 45
0.000000001
 73
     0
 74
     0
 76
     1
 77
     1
 78
    12
 79
     3
140
2.0
147
0.5
173
     1
178
     0
271
     2
272
     3
276
     2
282
     1
284
    12
340
77
  0
DIMSTYLE
105
F3
102
{ACAD_REACTORS
330
F2
330
FD
330
143
102
}
330
A
100
AcDbSymbolTableRecord
100
AcDbDimStyleTableRecord
  2
SLDDIMSTYLE1
 70
     0
 41
3.0
 44
0.0
 45
0.000000001
 73
     0
 74
     0
 77
     1
 78
    12
 79
     3
140
2.0
147
0.5
173
     1
178
     0
271
     2
272
     3
276
     2
284
    12
340
77
  0
ENDTAB
  0
TABLE
  2
BLOCK_RECORD
  5
1
330
0
100
AcDbSymbolTable
 70
     5
  0
BLOCK_RECORD
  5
1F
330
1
100
AcDbSymbolTableRecord
100
AcDbBlockTableRecord
  2
*Model_Space
340
22
  0
BLOCK_RECORD
  5
1B
330
1
100
AcDbSymbolTableRecord
100
AcDbBlockTableRecord
  2
*Paper_Space
340
1E
  0
BLOCK_RECORD
  5
23
330
1
100
AcDbSymbolTableRecord
100
AcDbBlockTableRecord
  2
*Paper_Space0
340
26
  0
BLOCK_RECORD
  5
EA
330
1
100
AcDbSymbolTableRecord
100
AcDbBlockTableRecord
  2
_D
340
0
  0
BLOCK_RECORD
  5
F4
330
1
100
AcDbSymbolTableRecord
100
AcDbBlockTableRecord
  2
_D_1
340
0
  0
BLOCK_RECORD
  5
FE
330
1
100
AcDbSymbolTableRecord
100
AcDbBlockTableRecord
  2
_D_2
340
0
  0
BLOCK_RECORD
  5
144
330
1
100
AcDbSymbolTableRecord
100
AcDbBlockTableRecord
  2
_D_3
340
0
  0
ENDTAB
  0
ENDSEC
  0
SECTION
  2
BLOCKS
  0
BLOCK
  5
20
330
1F
100
AcDbEntity
  8
0
100
AcDbBlockBegin
  2
*Model_Space
 70
     0
 10
0.0
 20
0.0
 30
0.0
  3
*Model_Space
  1

  0
ENDBLK
  5
21
330
1F
100
AcDbEntity
  8
0
100
AcDbBlockEnd
  0
BLOCK
  5
1C
330
1B
100
AcDbEntity
 67
     1
  8
0
100
AcDbBlockBegin
  2
*Paper_Space
 70
     0
 10
0.0
 20
0.0
 30
0.0
  3
*Paper_Space
  1

  0
ENDBLK
  5
1D
330
1B
100
AcDbEntity
 67
     1
  8
0
100
AcDbBlockEnd
  0
BLOCK
  5
24
330
23
100
AcDbEntity
  8
0
100
AcDbBlockBegin
  2
*Paper_Space0
 70
     0
 10
0.0
 20
0.0
 30
0.0
  3
*Paper_Space0
  1

  0
ENDBLK
  5
25
330
23
100
AcDbEntity
  8
0
100
AcDbBlockEnd
  0
BLOCK
  5
EB
330
EA
100
AcDbEntity
  8
0
100
AcDbBlockBegin
  2
_D
 70
     0
 10
0.0
 20
0.0
 30
0.0
  3
_D
  1

  0
SOLID
  5
ED
330
EA
100
AcDbEntity
  8
VERMASSUNG
100
AcDbTrace
 10
31.7806949644
 20
153.7709681247
 30
0.0
 11
34.7806949644
 21
153.3209681247
 31
0.0
 12
34.7806949644
 22
154.2209681247
 32
0.0
 13
34.7806949644
 23
154.2209681247
 33
0.0
  0
LINE
  5
EE
330
EA
100
AcDbEntity
  8
VERMASSUNG
100
AcDbLine
 10
31.7806949644
 20
136.0281158656
 30
0.0
 11
31.7806949644
 21
154.7709681247
 31
0.0
  0
LINE
  5
EF
330
EA
100
AcDbEntity
  8
VERMASSUNG
100
AcDbLine
 10
31.7806949644
 20
153.7709681247
 30
0.0
 11
132.2706475096
 21
153.7709681247
 31
0.0
  0
MTEXT
  5
F0
330
EA
100
AcDbEntity
  8
VERMASSUNG
100
AcDbMText
 10
116.8606489139
 20
156.3491034297
 30
0.0
 40
2.0
 41
0.0
 71
     1
 72
     1
  1
%%c
  7
SLDTEXTSTYLE0
 73
     1
 44
1.0
  0
MTEXT
  5
F1
330
EA
100
AcDbEntity
  8
VERMASSUNG
100
AcDbMText
 10
120.4706489282
 20
156.549103381
 30
0.0
 40
2.0
 41
0.0
 71
     1
 72
     1
  1
188 - 302
  7
SLDTEXTSTYLE0
 73
     1
 44
1.0
  0
ENDBLK
  5
EC
330
EA
100
AcDbEntity
  8
0
100
AcDbBlockEnd
  0
BLOCK
  5
F5
330
F4
100
AcDbEntity
  8
0
100
AcDbBlockBegin
  2
_D_1
 70
     0
 10
0.0
 20
0.0
 30
0.0
  3
_D_1
  1

  0
SOLID
  5
F7
330
F4
100
AcDbEntity
  8
VERMASSUNG
100
AcDbTrace
 10
31.7806949644
 20
144.7623758052
 30
0.0
 11
34.7806949644
 21
144.3123758052
 31
0.0
 12
34.7806949644
 22
145.2123758052
 32
0.0
 13
34.7806949644
 23
145.2123758052
 33
0.0
  0
SOLID
  5
F8
330
F4
100
AcDbEntity
  8
VERMASSUNG
100
AcDbTrace
 10
217.3506014591
 20
144.7623758052
 30
0.0
 11
214.3506014591
 21
145.2123758052
 31
0.0
 12
214.3506014591
 22
144.3123758052
 32
0.0
 13
214.3506014591
 23
144.3123758052
 33
0.0
  0
LINE
  5
F9
330
F4
100
AcDbEntity
  8
VERMASSUNG
100
AcDbLine
 10
31.7806949644
 20
136.0281158656
 30
0.0
 11
31.7806949644
 21
145.7623758052
 31
0.0
  0
LINE
  5
FA
330
F4
100
AcDbEntity
  8
VERMASSUNG
100
AcDbLine
 10
217.3506014591
 20
118.2281158656
 30
0.0
 11
217.3506014591
 21
145.7623758052
 31
0.0
  0
LINE
  5
FB
330
F4
100
AcDbEntity
  8
VERMASSUNG
100
AcDbLine
 10
31.7806949644
 20
144.7623758052
 30
0.0
 11
217.3506014591
 21
144.7623758052
 31
0.0
  0
MTEXT
  5
FC
330
F4
100
AcDbEntity
  8
VERMASSUNG
100
AcDbMText
 10
120.9656482736
 20
147.3405114012
 30
0.0
 40
2.0
 41
0.0
 71
     1
 72
     1
  1
185.57
  7
SLDTEXTSTYLE0
 73
     1
 44
1.0
  0
ENDBLK
  5
F6
330
F4
100
AcDbEntity
  8
0
100
AcDbBlockEnd
  0
BLOCK
  5
FF
330
FE
100
AcDbEntity
  8
0
100
AcDbBlockBegin
  2
_D_2
 70
     0
 10
0.0
 20
0.0
 30
0.0
  3
_D_2
  1

  0
SOLID
  5
101
330
FE
100
AcDbEntity
  8
VERMASSUNG
100
AcDbTrace
 10
23.899538513
 20
136.0281158656
 30
0.0
 11
23.449538513
 21
133.0281158656
 31
0.0
 12
24.349538513
 22
133.0281158656
 32
0.0
 13
24.349538513
 23
133.0281158656
 33
0.0
  0
SOLID
  5
102
330
FE
100
AcDbEntity
  8
VERMASSUNG
100
AcDbTrace
 10
23.899538513
 20
96.627469431
 30
0.0
 11
24.349538513
 21
99.627469431
 31
0.0
 12
23.449538513
 22
99.627469431
 32
0.0
 13
23.449538513
 23
99.627469431
 33
0.0
  0
LINE
  5
103
330
FE
100
AcDbEntity
  8
VERMASSUNG
100
AcDbLine
 10
31.7806949644
 20
136.0281158656
 30
0.0
 11
22.899538513
 21
136.0281158656
 31
0.0
  0
LINE
  5
104
330
FE
100
AcDbEntity
  8
VERMASSUNG
100
AcDbLine
 10
59.5892245244
 20
96.627469431
 30
0.0
 11
22.899538513
 21
96.627469431
 31
0.0
  0
LINE
  5
105
330
FE
100
AcDbEntity
  8
VERMASSUNG
100
AcDbLine
 10
23.899538513
 20
136.0281158656
 30
0.0
 11
23.899538513
 21
96.627469431
 31
0.0
  0
MTEXT
  5
106
330
FE
100
AcDbEntity
  8
VERMASSUNG
100
AcDbMText
 10
21.3214029171
 20
113.8277927042
 30
0.0
 40
2.0
 41
0.0
 71
     1
 72
     1
  1
39.4
  7
SLDTEXTSTYLE0
 11
-7.044195017643634E-15
 21
1.0
 31
0.0
 73
     1
 44
1.0
  0
ENDBLK
  5
100
330
FE
100
AcDbEntity
  8
0
100
AcDbBlockEnd
  0
BLOCK
  5
145
330
144
100
AcDbEntity
  8
0
100
AcDbBlockBegin
  2
_D_3
 70
     0
 10
0.0
 20
0.0
 30
0.0
  3
_D_3
  1

  0
SOLID
  5
147
330
144
100
AcDbEntity
  8
VERMASSUNG
100
AcDbTrace
 10
260.1296727205
 20
143.4930612547
 30
0.0
 11
257.1296727205
 21
143.9430612547
 31
0.0
 12
257.1296727205
 22
143.0430612547
 32
0.0
 13
257.1296727205
 23
143.0430612547
 33
0.0
  0
SOLID
  5
148
330
144
100
AcDbEntity
  8
VERMASSUNG
100
AcDbTrace
 10
232.7796727203
 20
143.4930612547
 30
0.0
 11
235.7796727203
 21
143.0430612547
 31
0.0
 12
235.7796727203
 22
143.9430612547
 32
0.0
 13
235.7796727203
 23
143.9430612547
 33
0.0
  0
LINE
  5
149
330
144
100
AcDbEntity
  8
VERMASSUNG
100
AcDbLine
 10
260.1296727205
 20
136.0281158656
 30
0.0
 11
260.1296727205
 21
144.4930612547
 31
0.0
  0
LINE
  5
14A
330
144
100
AcDbEntity
  8
VERMASSUNG
100
AcDbLine
 10
232.7796727203
 20
119.0281158656
 30
0.0
 11
232.7796727203
 21
144.4930612547
 31
0.0
  0
LINE
  5
14B
330
144
100
AcDbEntity
  8
VERMASSUNG
100
AcDbLine
 10
260.1296727205
 20
143.4930612547
 30
0.0
 11
232.7796727203
 21
143.4930612547
 31
0.0
  0
MTEXT
  5
14C
330
144
100
AcDbEntity
  8
VERMASSUNG
100
AcDbMText
 10
243.3546728642
 20
146.0711968507
 30
0.0
 40
2.0
 41
0.0
 71
     1
 72
     1
  1
27.35
  7
SLDTEXTSTYLE0
 73
     1
 44
1.0
  0
ENDBLK
  5
146
330
144
100
AcDbEntity
  8
0
100
AcDbBlockEnd
  0
ENDSEC
  0
SECTION
  2
ENTITIES
  0
MTEXT
  5
78
330
1F
100
AcDbEntity
  8
KOPF_DÜNN
100
AcDbMText
 10
13.8892156294
 20
23.8442973028
 30
0.0
 40
3.0
 41
0.0
 71
     1
 72
     1
  1
148.550.309
  7
SLDTEXTSTYLE0
 73
     1
 44
1.0
  0
MTEXT
  5
79
330
1F
100
AcDbEntity
  8
VERMASSUNG
100
AcDbMText
 10
13.9329988022
 20
28.8834360957
 30
0.0
 40
3.0
 41
0.0
 71
     1
 72
     1
  1
Wendeplattenhalter 90°_Insert holder 90°
  7
SLDTEXTSTYLE0
 73
     1
 44
1.0
  0
MTEXT
  5
7A
330
1F
100
AcDbEntity
  8
VERMASSUNG
100
AcDbMText
 10
98.8601118557
 20
13.8365368761
 30
0.0
 40
2.0
 41
0.0
 71
     1
 72
     1
  1
Datum: 06.03.2018
  7
SLDTEXTSTYLE0
 73
     1
 44
1.0
  0
MTEXT
  5
7C
330
1F
100
AcDbEntity
  8
VERMASSUNG
100
AcDbMText
 10
15.120548693
 20
18.0482802738
 30
0.0
 40
2.0
 41
0.0
 71
     1
 72
     1
  1
Ø 188 - 302 / CC.. 09 T3..
  7
SLDTEXTSTYLE1
 73
     1
 44
1.0
  0
MTEXT
  5
7D
330
1F
100
AcDbEntity
  8
VERMASSUNG
100
AcDbMText
 10
13.9808475933
 20
13.9090974274
 30
0.0
 40
2.0
 41
0.0
 71
     1
 72
     1
  1
Gewicht: 607g
  7
SLDTEXTSTYLE0
 73
     1
 44
1.0
  0
LINE
  5
7E
330
1F
100
AcDbEntity
  8
0
  6
Continuous
 62
     7
100
AcDbLine
 10
31.7806949644
 20
136.0281158656
 30
0.0
 11
31.8175759435
 21
136.0281158656
 31
0.0
  0
LINE
  5
7F
330
1F
100
AcDbEntity
  8
0
  6
Continuous
 62
     7
100
AcDbLine
 10
31.7806949644
 20
136.0281158656
 30
0.0
 11
31.7806949644
 21
136.1018778239
 31
0.0
  0
POINT
  5
80
330
1F
100
AcDbEntity
  8
0
  6
Continuous
 62
     7
100
AcDbPoint
 10
31.7806949644
 20
136.0281158656
 30
0.0
  0
LINE
  5
81
330
1F
100
AcDbEntity
  8
0
  6
Continuous
 62
     7
370
    25
100
AcDbLine
 10
41.0402923627
 20
135.6281158757
 30
0.0
 11
41.4342148034
 21
135.6975751357
 31
0.0
  0
LINE
  5
82
330
1F
100
AcDbEntity
  8
0
  6
Continuous
 62
     7
370
    25
100
AcDbLine
 10
42.9726684271
 20
126.9725749687
 30
0.0
 11
41.4342148034
 21
135.6975751357
 31
0.0
  0
LINE
  5
83
330
1F
100
AcDbEntity
  8
0
  6
Continuous
 62
     7
370
    25
100
AcDbLine
 10
42.5787450551
 20
126.9031159997
 30
0.0
 11
42.9726684271
 21
126.9725749687
 31
0.0
  0
LINE
  5
84
330
1F
100
AcDbEntity
  8
0
  6
Continuous
 62
     7
370
    25
100
AcDbLine
 10
42.2297756924
 20
127.1959359244
 30
0.0
 11
42.5787450551
 21
126.9031159997
 31
0.0
  0
LINE
  5
85
330
1F
100
AcDbEntity
  8
0
  6
Continuous
 62
     7
370
    25
100
AcDbLine
 10
42.2297756924
 20
127.1959359244
 30
0.0
 11
42.2102011545
 21
127.3069467813
 31
0.0
  0
LINE
  5
86
330
1F
100
AcDbEntity
  8
0
  6
Continuous
 62
     7
370
    25
100
AcDbLine
 10
40.9147277279
 20
135.4784734965
 30
0.0
 11
41.0402923627
 21
135.6281158757
 31
0.0
  0
LINE
  5
87
330
1F
100
AcDbEntity
  8
0
  6
Continuous
 62
     7
370
    25
100
AcDbLine
 10
42.5787450551
 20
126.9031159997
 30
0.0
 11
42.5787450551
 21
126.5031157479
 31
0.0
  0
LINE
  5
88
330
1F
100
AcDbEntity
  8
0
  6
Continuous
 62
     7
370
    25
100
AcDbLine
 10
33.7191479086
 20
126.5031157479
 30
0.0
 11
42.5787450551
 21
126.5031157479
 31
0.0
  0
LINE
  5
89
330
1F
100
AcDbEntity
  8
0
  6
Continuous
 62
     7
370
    25
100
AcDbLine
 10
33.7191479086
 20
126.9031159997
 30
0.0
 11
33.7191479086
 21
126.5031157479
 31
0.0
  0
LINE
  5
8A
330
1F
100
AcDbEntity
  8
0
  6
Continuous
 62
     7
370
    25
100
AcDbLine
 10
33.8447127762
 20
127.052758117
 30
0.0
 11
33.7191479086
 21
126.9031159997
 31
0.0
  0
LINE
  5
8B
330
1F
100
AcDbEntity
  8
0
  6
Continuous
 62
     7
370
    25
100
AcDbLine
 10
42.1170521333
 20
127.1959359244
 30
0.0
 11
42.2297756924
 21
127.1959359244
 31
0.0
  0
SPLINE
  5
8C
330
1F
100
AcDbEntity
  8
0
  6
Continuous
 62
     7
370
    25
100
AcDbSpline
210
0.0
220
0.0
230
1.0
 70
     8
 71
     3
 72
    11
 73
     7
 74
     0
 42
0.000000001
 43
0.00000001
 40
0.0
 40
0.0
 40
0.0
 40
0.0
 40
0.0079771995783184
 40
0.3287729737803238
 40
0.66397047812843
 40
1.0
 40
1.0
 40
1.0
 40
1.0
 10
34.28979812102677
 20
127.5831900954391
 30
0.0
 10
34.28873472114216
 20
127.5819227952389
 30
0.0
 10
34.24490766893562
 20
127.5296921782895
 30
0.0
 10
34.14905163655257
 20
127.4154555447489
 30
0.0
 10
33.99349239176297
 20
127.2300660950156
 30
0.0
 10
33.89434694653161
 20
127.1119095965439
 30
0.0
 10
33.84471277619065
 20
127.0527581170346
 30
0.0
  0
SPLINE
  5
8D
330
1F
100
AcDbEntity
  8
0
  6
Continuous
 62
     7
370
    25
100
AcDbSpline
210
0.0
220
0.0
230
1.0
 70
     8
 71
     3
 72
    11
 73
     7
 74
     0
 42
0.000000001
 43
0.00000001
 40
0.0
 40
0.0
 40
0.0
 40
0.0
 40
0.3360297115957789
 40
0.6712275641212103
 40
0.9920225142402712
 40
0.9999999999999999
 40
0.9999999999999999
 40
0.9999999999999999
 40
0.9999999999999999
 10
40.91472772794129
 20
135.4784734964515
 30
0.0
 10
40.86509374248813
 20
135.4193218104663
 30
0.0
 10
40.76594864310053
 20
135.3011648715784
 30
0.0
 10
40.61038680381574
 20
135.1157769044297
 30
0.0
 10
40.51453426022013
 20
135.0015389872981
 30
0.0
 10
40.47070562837743
 20
134.9493087403908
 30
0.0
 10
40.46964215027453
 20
134.9480414016317
 30
0.0
  0
SPLINE
  5
8E
330
1F
100
AcDbEntity
  8
0
  6
Continuous
 62
     7
370
    25
100
AcDbSpline
210
0.0
220
0.0
230
1.0
 70
     8
 71
     3
 72
     9
 73
     5
 74
     0
 42
0.000000001
 43
0.00000001
 40
0.0
 40
0.0
 40
0.0
 40
0.0
 40
0.0433027425186159
 40
1.0
 40
1.0
 40
1.0
 40
1.0
 10
41.65765771555068
 20
127.6760001152898
 30
0.0
 10
41.65884671211696
 20
127.6750021964806
 30
0.0
 10
41.68630447800287
 20
127.6519570323364
 30
0.0
 10
41.71523933256964
 20
127.6276808613309
 30
0.0
 10
41.7429212285793
 20
127.6044559151079
 30
0.0
  0
SPLINE
  5
8F
330
1F
100
AcDbEntity
  8
0
  6
Continuous
 62
     7
370
    25
100
AcDbSpline
210
0.0
220
0.0
230
1.0
 70
     8
 71
     3
 72
    14
 73
    10
 74
     0
 42
0.000000001
 43
0.00000001
 40
0.0
 40
0.0
 40
0.0
 40
0.0
 40
0.1215030875000534
 40
0.2571362787043359
 40
0.3367057659932997
 40
0.4166995342924514
 40
0.5090578962147291
 40
0.659990003818796
 40
1.0
 40
1.0
 40
1.0
 40
1.0
 10
41.7429212285793
 20
127.6044559151079
 30
0.0
 10
41.73004238292037
 20
127.5779048818715
 30
0.0
 10
41.70278695661901
 20
127.5217150843723
 30
0.0
 10
41.68322994567971
 20
127.4405995590956
 30
0.0
 10
41.69114211909715
 20
127.3680871474226
 30
0.0
 10
41.72017211823898
 20
127.3125028667506
 30
0.0
 10
41.78041217268922
 20
127.2599940294946
 30
0.0
 10
41.91361093785513
 20
127.2048374139741
 30
0.0
 10
42.03380781619463
 20
127.1995782467666
 30
0.0
 10
42.11705213325383
 20
127.1959359243657
 30
0.0
  0
LINE
  5
90
330
1F
100
AcDbEntity
  8
0
  6
Continuous
 62
     7
370
    25
100
AcDbLine
 10
32.5296646371
 20
135.3352955145
 30
0.0
 11
32.1806949543
 21
135.6281158757
 31
0.0
  0
LINE
  5
91
330
1F
100
AcDbEntity
  8
0
  6
Continuous
 62
     7
370
    25
100
AcDbLine
 10
32.1806949543
 20
135.6281158757
 30
0.0
 11
32.1806949543
 21
136.0281158656
 31
0.0
  0
LINE
  5
92
330
1F
100
AcDbEntity
  8
0
  6
Continuous
 62
     7
370
    25
100
AcDbLine
 10
41.0402923627
 20
136.0281158656
 30
0.0
 11
32.1806949543
 21
136.0281158656
 31
0.0
  0
LINE
  5
93
330
1F
100
AcDbEntity
  8
0
  6
Continuous
 62
     7
370
    25
100
AcDbLine
 10
41.0402923627
 20
135.6281158757
 30
0.0
 11
41.0402923627
 21
136.0281158656
 31
0.0
  0
LINE
  5
94
330
1F
100
AcDbEntity
  8
0
  6
Continuous
 62
     7
370
    25
100
AcDbLine
 10
32.6423877306
 20
135.3352955145
 30
0.0
 11
32.5296646371
 21
135.3352955145
 31
0.0
  0
LINE
  5
95
330
1F
100
AcDbEntity
  8
0
  6
Continuous
 62
     7
370
    25
100
AcDbLine
 10
33.7191479086
 20
126.9031159997
 30
0.0
 11
33.3252247694
 21
126.8336570308
 31
0.0
  0
LINE
  5
96
330
1F
100
AcDbEntity
  8
0
  6
Continuous
 62
     7
370
    25
100
AcDbLine
 10
31.7867718633
 20
135.5586565866
 30
0.0
 11
33.3252247694
 21
126.8336570308
 31
0.0
  0
LINE
  5
97
330
1F
100
AcDbEntity
  8
0
  6
Continuous
 62
     7
370
    25
100
AcDbLine
 10
32.1806949543
 20
135.6281158757
 30
0.0
 11
31.7867718633
 21
135.5586565866
 31
0.0
  0
LINE
  5
98
330
1F
100
AcDbEntity
  8
0
  6
Continuous
 62
     7
370
    25
100
AcDbLine
 10
32.5296646371
 20
135.3352955145
 30
0.0
 11
32.5492387675
 21
135.2242849486
 31
0.0
  0
SPLINE
  5
99
330
1F
100
AcDbEntity
  8
0
  6
Continuous
 62
     7
370
    25
100
AcDbSpline
210
0.0
220
0.0
230
1.0
 70
     8
 71
     3
 72
    14
 73
    10
 74
     0
 42
0.000000001
 43
0.00000001
 40
0.0
 40
0.0
 40
0.0
 40
0.0
 40
0.121502513843965
 40
0.2571356283481498
 40
0.3367054914357056
 40
0.4166988585635807
 40
0.5090573828544287
 40
0.659989770017538
 40
1.0
 40
1.0
 40
1.0
 40
1.0
 10
33.01651915913732
 20
134.9267761640395
 30
0.0
 10
33.02939787867552
 20
134.9533270812206
 30
0.0
 10
33.05665309781468
 20
135.0095167562862
 30
0.0
 10
33.07620997103083
 20
135.0906322869749
 30
0.0
 10
33.0682974076439
 20
135.1631444729629
 30
0.0
 10
33.03926843179088
 20
135.2187292635717
 30
0.0
 10
32.97902796975025
 20
135.2712378819288
 30
0.0
 10
32.84582894504968
 20
135.3263937438373
 30
0.0
 10
32.72563203784198
 20
135.331653077866
 30
0.0
 10
32.64238773059385
 20
135.3352955144975
 30
0.0
  0
SPLINE
  5
9A
330
1F
100
AcDbEntity
  8
0
  6
Continuous
 62
     7
370
    25
100
AcDbSpline
210
0.0
220
0.0
230
1.0
 70
     8
 71
     3
 72
     9
 73
     5
 74
     0
 42
0.000000001
 43
0.00000001
 40
0.0
 40
0.0
 40
0.0
 40
0.0
 40
0.9566958222924803
 40
1.0
 40
1.0
 40
1.0
 40
1.0
 10
33.01651915913732
 20
134.9267761640395
 30
0.0
 10
33.04419950555272
 20
134.9035497457405
 30
0.0
 10
33.07313278379059
 20
134.8792719996086
 30
0.0
 10
33.10059328491469
 20
134.8562294531388
 30
0.0
 10
33.1017824393353
 20
134.8552316146116
 30
0.0
  0
SPLINE
  5
9B
330
1F
100
AcDbEntity
  8
0
  6
Continuous
 62
     7
370
    25
100
AcDbSpline
210
0.0
220
0.0
230
1.0
 70
     8
 71
     3
 72
    14
 73
    10
 74
     0
 42
0.000000001
 43
0.00000001
 40
0.0
 40
0.0
 40
0.0
 40
0.0
 40
0.3240428068897975
 40
0.4390837955103178
 40
0.5550341987596188
 40
0.6320189044388707
 40
0.7091783695879764
 40
0.8120431286657069
 40
0.9999999999999999
 40
0.9999999999999999
 40
0.9999999999999999
 40
0.9999999999999999
 10
42.21020115452172
 20
127.3069467812921
 30
0.0
 10
42.19309411903716
 20
127.384541336851
 30
0.0
 10
42.16991378017211
 20
127.4896833466143
 30
0.0
 10
42.1025315197682
 20
127.6074240310188
 30
0.0
 10
42.05011322825138
 20
127.6628892622522
 30
0.0
 10
41.98974739035126
 20
127.6918393789045
 30
0.0
 10
41.92624568817488
 20
127.6969246644126
 30
0.0
 10
41.83842608075254
 20
127.6723665156249
 30
0.0
 10
41.78041412591335
 20
127.6311159759858
 30
0.0
 10
41.7429212285793
 20
127.6044559151079
 30
0.0
  0
SPLINE
  5
9C
330
1F
100
AcDbEntity
  8
0
  6
Continuous
 62
     7
370
    25
100
AcDbSpline
210
0.0
220
0.0
230
1.0
 70
     8
 71
     3
 72
    14
 73
    10
 74
     0
 42
0.000000001
 43
0.00000001
 40
0.0
 40
0.0
 40
0.0
 40
0.0
 40
0.3240420653042756
 40
0.4390834215948017
 40
0.5550338258648012
 40
0.6320175639914547
 40
0.7091775713715915
 40
0.8120429406586155
 40
1.0
 40
1.0
 40
1.0
 40
1.0
 10
32.54923876753362
 20
135.2242849486093
 30
0.0
 10
32.56634573661582
 20
135.1466904720041
 30
0.0
 10
32.58952601881369
 20
135.0415484181393
 30
0.0
 10
32.65690892658221
 20
134.9238082314437
 30
0.0
 10
32.70932688007605
 20
134.86834272941
 30
0.0
 10
32.76969267783092
 20
134.8393929768281
 30
0.0
 10
32.83319433602001
 20
134.8343063424345
 30
0.0
 10
32.92101440463197
 20
134.8588650582236
 30
0.0
 10
32.97902633987293
 20
134.9001159330428
 30
0.0
 10
33.01651915913732
 20
134.9267761640395
 30
0.0
  0
ARC
  5
9D
330
1F
100
AcDbEntity
  8
0
  6
Continuous
 62
     7
370
    25
100
AcDbCircle
 10
42.5787450598
 20
126.9031158656
 30
0.0
 40
0.4000000000000151
100
AcDbArc
 50
270.0
 51
10.0
  0
ARC
  5
9E
330
1F
100
AcDbEntity
  8
0
  6
Continuous
 62
     7
370
    25
100
AcDbCircle
 10
40.4335885931
 20
128.7031158656
 30
0.0
 40
1.000000000295373
100
AcDbArc
 50
270.0
 51
10.0
  0
LINE
  5
9F
330
1F
100
AcDbEntity
  8
0
  6
Continuous
 62
     7
370
    25
100
AcDbLine
 10
33.3410436325
 20
133.6544677567
 30
0.0
 11
34.2447195473
 21
128.529467848
 31
0.0
  0
ARC
  5
A0
330
1F
100
AcDbEntity
  8
0
  6
Continuous
 62
     7
370
    25
100
AcDbCircle
 10
34.3258514311
 20
133.8281158656
 30
0.0
 40
1.000000000000028
100
AcDbArc
 50
90.0
 51
190.0
  0
LINE
  5
A1
330
1F
100
AcDbEntity
  8
0
  6
Continuous
 62
     7
370
    25
100
AcDbLine
 10
39.5299129924
 20
134.8281158086
 30
0.0
 11
34.3258514805
 21
134.8281158086
 31
0.0
  0
ARC
  5
A2
330
1F
100
AcDbEntity
  8
0
  6
Continuous
 62
     7
370
    25
100
AcDbCircle
 10
39.529912817
 20
133.8281158656
 30
0.0
 40
1.000000000000005
100
AcDbArc
 50
10.0
 51
90.0
  0
LINE
  5
A3
330
1F
100
AcDbEntity
  8
0
  6
Continuous
 62
     7
370
    25
100
AcDbLine
 10
41.4183962895
 20
128.8767640896
 30
0.0
 11
40.5147209569
 21
134.0017639984
 31
0.0
  0
LINE
  5
A4
330
1F
100
AcDbEntity
  8
0
  6
Continuous
 62
     7
370
    25
100
AcDbLine
 10
35.2295272789
 20
127.703115572
 30
0.0
 11
40.4335887908
 21
127.703115572
 31
0.0
  0
ARC
  5
A5
330
1F
100
AcDbEntity
  8
0
  6
Continuous
 62
     7
370
    25
100
AcDbCircle
 10
35.2295272072
 20
128.7031158656
 30
0.0
 40
1.0
100
AcDbArc
 50
190.0
 51
270.0
  0
CIRCLE
  5
A6
330
1F
100
AcDbEntity
  8
0
  6
Continuous
 62
     7
370
    25
100
AcDbCircle
 10
37.3797200121
 20
131.2656158656
 30
0.0
 40
3.05000000000004
  0
ARC
  5
A7
330
1F
100
AcDbEntity
  8
0
  6
Continuous
 62
     7
370
    25
100
AcDbCircle
 10
41.0402921531
 20
135.6281158656
 30
0.0
 40
0.4000000000000196
100
AcDbArc
 50
10.0
 51
90.0
  0
ARC
  5
A8
330
1F
100
AcDbEntity
  8
0
  6
Continuous
 62
     7
370
    25
100
AcDbCircle
 10
33.7191478711
 20
126.9031158656
 30
0.0
 40
0.4000000000000057
100
AcDbArc
 50
190.0
 51
270.0
  0
ARC
  5
A9
330
1F
100
AcDbEntity
  8
0
  6
Continuous
 62
     7
370
    25
100
AcDbCircle
 10
32.1806949644
 20
135.6281158656
 30
0.0
 40
0.3999999999999773
100
AcDbArc
 50
90.0
 51
190.0
  0
ARC
  5
AA
330
1F
100
AcDbEntity
  8
0
  6
Continuous
 62
     7
370
    25
100
AcDbCircle
 10
37.477451786
 20
131.1836091701
 30
0.0
 40
1.675000000000008
100
AcDbArc
 50
345.6497081569
 51
44.2496412841
  0
ARC
  5
AB
330
1F
100
AcDbEntity
  8
0
  6
Continuous
 62
     7
370
    25
100
AcDbCircle
 10
37.477451786
 20
131.1836091701
 30
0.0
 40
1.675000000000019
100
AcDbArc
 50
44.2496412841
 51
104.3564830189
  0
ARC
  5
AC
330
1F
100
AcDbEntity
  8
0
  6
Continuous
 62
     7
370
    25
100
AcDbCircle
 10
37.477451786
 20
131.1836091701
 30
0.0
 40
1.675000000000019
100
AcDbArc
 50
104.3564830189
 51
162.9564161461
  0
LINE
  5
AD
330
1F
100
AcDbEntity
  8
0
  6
Continuous
 62
     7
370
    25
100
AcDbLine
 10
35.8531795247
 20
131.5927121274
 30
0.0
 11
35.8760141573
 21
131.674550236
 31
0.0
  0
ARC
  5
AE
330
1F
100
AcDbEntity
  8
0
  6
Continuous
 62
     7
370
    25
100
AcDbCircle
 10
37.477451786
 20
131.1836091701
 30
0.0
 40
1.675000000000006
100
AcDbArc
 50
165.863046918
 51
222.3067650843
  0
LINE
  5
AF
330
1F
100
AcDbEntity
  8
0
  6
Continuous
 62
     7
370
    25
100
AcDbLine
 10
36.3224631912
 20
129.9705032677
 30
0.0
 11
36.2387028328
 21
130.0561667837
 31
0.0
  0
ARC
  5
B0
330
1F
100
AcDbEntity
  8
0
  6
Continuous
 62
     7
370
    25
100
AcDbCircle
 10
37.477451786
 20
131.1836091701
 30
0.0
 40
1.675000000000012
100
AcDbArc
 50
226.4058569845
 51
282.2002673185
  0
LINE
  5
B1
330
1F
100
AcDbEntity
  8
0
  6
Continuous
 62
     7
370
    25
100
AcDbLine
 10
37.947550769
 20
129.5759298325
 30
0.0
 11
37.8314283481
 21
129.5464390375
 31
0.0
  0
ARC
  5
B2
330
1F
100
AcDbEntity
  8
0
  6
Continuous
 62
     7
370
    25
100
AcDbCircle
 10
37.477451786
 20
131.1836091701
 30
0.0
 40
1.675000000000009
100
AcDbArc
 50
286.2993592188
 51
342.7430773851
  0
LINE
  5
B3
330
1F
100
AcDbEntity
  8
0
  6
Continuous
 62
     7
370
    25
100
AcDbLine
 10
39.1001895806
 20
130.7684613809
 30
0.0
 11
39.07704994
 21
130.686708954
 31
0.0
  0
CIRCLE
  5
B4
330
1F
100
AcDbEntity
  8
0
  6
Continuous
 62
     7
370
    25
100
AcDbCircle
 10
37.477451786
 20
131.1836091701
 30
0.0
 40
1.800000000000004
  0
SPLINE
  5
B5
330
1F
100
AcDbEntity
  8
0
  6
Continuous
 62
     7
370
    25
100
AcDbSpline
210
0.0
220
0.0
230
1.0
 70
     8
 71
     3
 72
    11
 73
     7
 74
     0
 42
0.000000001
 43
0.00000001
 40
0.0
 40
0.0
 40
0.0
 40
0.0
 40
0.2657599494892757
 40
0.5530028072415284
 40
0.8418204396101501
 40
0.9999999999999999
 40
0.9999999999999999
 40
0.9999999999999999
 40
0.9999999999999999
 10
37.94755076902272
 20
129.575929832473
 30
0.0
 10
37.97775423803096
 20
129.5931721893341
 30
0.0
 10
38.0406026965067
 20
129.6290507021273
 30
0.0
 10
38.10781246626414
 20
129.7181631700996
 30
0.0
 10
38.14052225751331
 20
129.8090125352396
 30
0.0
 10
38.14257455485892
 20
129.866496107198
 30
0.0
 10
38.14330080436827
 20
129.8868379041697
 30
0.0
  0
SPLINE
  5
B6
330
1F
100
AcDbEntity
  8
0
  6
Continuous
 62
     7
370
    25
100
AcDbSpline
210
0.0
220
0.0
230
1.0
 70
     8
 71
     3
 72
    12
 73
     8
 74
     0
 42
0.000000001
 43
0.00000001
 40
0.0
 40
0.0
 40
0.0
 40
0.0
 40
0.2057903032818489
 40
0.4120345292371089
 40
0.6141305018660744
 40
0.8132633132735624
 40
1.0
 40
1.0
 40
1.0
 40
1.0
 10
38.14330080436827
 20
129.8868379041697
 30
0.0
 10
38.14841515133012
 20
129.9521906981734
 30
0.0
 10
38.15865512624232
 20
130.083040438332
 30
0.0
 10
38.25505725345041
 20
130.2598642580082
 30
0.0
 10
38.39850508989073
 20
130.3939080292892
 30
0.0
 10
38.57266808010063
 20
130.4751931368763
 30
0.0
 10
38.69523184717607
 20
130.4807165891942
 30
0.0
 10
38.75454503955604
 20
130.4833895944203
 30
0.0
  0
SPLINE
  5
B7
330
1F
100
AcDbEntity
  8
0
  6
Continuous
 62
     7
370
    25
100
AcDbSpline
210
0.0
220
0.0
230
1.0
 70
     8
 71
     3
 72
    11
 73
     7
 74
     0
 42
0.000000001
 43
0.00000001
 40
0.0
 40
0.0
 40
0.0
 40
0.0
 40
0.2802374342629094
 40
0.5612870463962046
 40
0.8399904552121905
 40
0.9999999999999999
 40
0.9999999999999999
 40
0.9999999999999999
 40
0.9999999999999999
 10
38.75454503955604
 20
130.4833895944203
 30
0.0
 10
38.79237119320589
 20
130.4854598297573
 30
0.0
 10
38.86813312741889
 20
130.4896063003409
 30
0.0
 10
38.97085967973482
 20
130.5435009640502
 30
0.0
 10
39.04091186058452
 20
130.6139094404868
 30
0.0
 10
39.06739198047215
 20
130.6672531676328
 30
0.0
 10
39.07704993995191
 20
130.6867089539911
 30
0.0
  0
SPLINE
  5
B8
330
1F
100
AcDbEntity
  8
0
  6
Continuous
 62
     7
370
    25
100
AcDbSpline
210
0.0
220
0.0
230
1.0
 70
     8
 71
     3
 72
    11
 73
     7
 74
     0
 42
0.000000001
 43
0.00000001
 40
0.0
 40
0.0
 40
0.0
 40
0.0
 40
0.2669002422718138
 40
0.5546138980680909
 40
0.8439067081922907
 40
0.9999999999999999
 40
0.9999999999999999
 40
0.9999999999999999
 40
0.9999999999999999
 10
36.32246319117309
 20
129.9705032676603
 30
0.0
 10
36.35261521839254
 20
129.9529829363945
 30
0.0
 10
36.41527058808609
 20
129.9165760034668
 30
0.0
 10
36.52618399605552
 20
129.9032135650047
 30
0.0
 10
36.62086045260049
 20
129.9205190507205
 30
0.0
 10
36.67137954791075
 20
129.9473791975873
 30
0.0
 10
36.6890848419285
 20
129.9567928023781
 30
0.0
  0
SPLINE
  5
B9
330
1F
100
AcDbEntity
  8
0
  6
Continuous
 62
     7
370
    25
100
AcDbSpline
210
0.0
220
0.0
230
1.0
 70
     8
 71
     3
 72
    12
 73
     8
 74
     0
 42
0.000000001
 43
0.00000001
 40
0.0
 40
0.0
 40
0.0
 40
0.0
 40
0.2058400071450203
 40
0.4120617328569507
 40
0.6141388531247232
 40
0.8132772058082388
 40
1.0
 40
1.0
 40
1.0
 40
1.0
 10
36.6890848419285
 20
129.9567928023781
 30
0.0
 10
36.74825585273199
 20
129.9850464517625
 30
0.0
 10
36.86670760360764
 20
130.0416061453145
 30
0.0
 10
37.06805090385466
 20
130.0465158003072
 30
0.0
 10
37.25584437469541
 20
129.9893024534108
 30
0.0
 10
37.41330611299457
 20
129.8791190829168
 30
0.0
 10
37.47936793715164
 20
129.7757414864882
 30
0.0
 10
37.51133603887917
 20
129.7257158391322
 30
0.0
  0
SPLINE
  5
BA
330
1F
100
AcDbEntity
  8
0
  6
Continuous
 62
     7
370
    25
100
AcDbSpline
210
0.0
220
0.0
230
1.0
 70
     8
 71
     3
 72
    11
 73
     7
 74
     0
 42
0.000000001
 43
0.00000001
 40
0.0
 40
0.0
 40
0.0
 40
0.0
 40
0.2928993121755267
 40
0.5864341313879033
 40
0.8775180904583931
 40
1.0
 40
1.0
 40
1.0
 40
1.0
 10
37.51133603887917
 20
129.7257158391322
 30
0.0
 10
37.53205861306527
 20
129.6939746874255
 30
0.0
 10
37.57354872344717
 20
129.6304235148669
 30
0.0
 10
37.6716457882959
 20
129.5683435297812
 30
0.0
 10
37.76190294809896
 20
129.5446371182388
 30
0.0
 10
37.8155424437422
 20
129.5460273157719
 30
0.0
 10
37.8314283481455
 20
129.5464390374865
 30
0.0
  0
SPLINE
  5
BB
330
1F
100
AcDbEntity
  8
0
  6
Continuous
 62
     7
370
    25
100
AcDbSpline
210
0.0
220
0.0
230
1.0
 70
     8
 71
     3
 72
    11
 73
     7
 74
     0
 42
0.000000001
 43
0.00000001
 40
0.0
 40
0.0
 40
0.0
 40
0.0
 40
0.2431097603370735
 40
0.5182797016884725
 40
0.7947793464462055
 40
1.0
 40
1.0
 40
1.0
 40
1.0
 10
35.85317952471139
 20
131.5927121274318
 30
0.0
 10
35.85123194099063
 20
131.5596109499405
 30
0.0
 10
35.84707993529408
 20
131.4890433660971
 30
0.0
 10
35.88338483905602
 20
131.3853515626483
 30
0.0
 10
35.94511214604569
 20
131.3016018540005
 30
0.0
 10
35.99942252532377
 20
131.2662285059334
 30
0.0
 10
36.02255962701799
 20
131.2511588864173
 30
0.0
  0
SPLINE
  5
BC
330
1F
100
AcDbEntity
  8
0
  6
Continuous
 62
     7
370
    25
100
AcDbSpline
210
0.0
220
0.0
230
1.0
 70
     8
 71
     3
 72
    12
 73
     8
 74
     0
 42
0.000000001
 43
0.00000001
 40
0.0
 40
0.0
 40
0.0
 40
0.0
 40
0.2058179655261549
 40
0.4120216291432814
 40
0.6140781907705941
 40
0.8132130815856001
 40
1.0
 40
1.0
 40
1.0
 40
1.0
 10
36.02255962701799
 20
131.2511588864173
 30
0.0
 10
36.07660905869453
 20
131.2140458247599
 30
0.0
 10
36.18480920942827
 20
131.1397501524289
 30
0.0
 10
36.28973082031187
 20
130.9678536255535
 30
0.0
 10
36.33408935399818
 20
130.7766299794033
 30
0.0
 10
36.3174153194505
 20
130.5851624829218
 30
0.0
 10
36.26091355462716
 20
130.4762457036792
 30
0.0
 10
36.2335665887809
 20
130.4235297672595
 30
0.0
  0
SPLINE
  5
BD
330
1F
100
AcDbEntity
  8
0
  6
Continuous
 62
     7
370
    25
100
AcDbSpline
210
0.0
220
0.0
230
1.0
 70
     8
 71
     3
 72
    11
 73
     7
 74
     0
 42
0.000000001
 43
0.00000001
 40
0.0
 40
0.0
 40
0.0
 40
0.0
 40
0.2908634488835936
 40
0.5839555344176106
 40
0.8745981521027989
 40
1.0
 40
1.0
 40
1.0
 40
1.0
 10
36.2335665887809
 20
130.4235297672595
 30
0.0
 10
36.21651568974367
 20
130.3899061048049
 30
0.0
 10
36.18228324528286
 20
130.3224011506652
 30
0.0
 10
36.17736712085402
 20
130.2066262265604
 30
0.0
 10
36.20190129207464
 20
130.1161473673892
 30
0.0
 10
36.23017940008674
 20
130.0700586061388
 30
0.0
 10
36.2387028327799
 20
130.0561667837347
 30
0.0
  0
SPLINE
  5
BE
330
1F
100
AcDbEntity
  8
0
  6
Continuous
 62
     7
370
    25
100
AcDbSpline
210
0.0
220
0.0
230
1.0
 70
     8
 71
     3
 72
    12
 73
     8
 74
     0
 42
0.000000001
 43
0.00000001
 40
0.0
 40
0.0
 40
0.0
 40
0.0
 40
0.2058582953603277
 40
0.4121026328995084
 40
0.6141938801469118
 40
0.8133179863346403
 40
0.9999999999999999
 40
0.9999999999999999
 40
0.9999999999999999
 40
0.9999999999999999
 10
38.93099201755883
 20
131.1112486243393
 30
0.0
 10
38.87693506386022
 20
131.1483681930942
 30
0.0
 10
38.76871978447724
 20
131.2226769402313
 30
0.0
 10
38.66379452795354
 20
131.3946057474325
 30
0.0
 10
38.6194549371908
 20
131.585858825544
 30
0.0
 10
38.63615868034179
 20
131.7773058338026
 30
0.0
 10
38.69265020699849
 20
131.8861906267823
 30
0.0
 10
38.71998505579592
 20
131.9388772778358
 30
0.0
  0
SPLINE
  5
BF
330
1F
100
AcDbEntity
  8
0
  6
Continuous
 62
     7
370
    25
100
AcDbSpline
210
0.0
220
0.0
230
1.0
 70
     8
 71
     3
 72
    11
 73
     7
 74
     0
 42
0.000000001
 43
0.00000001
 40
0.0
 40
0.0
 40
0.0
 40
0.0
 40
0.2524787649583728
 40
0.5068903264113663
 40
0.7591786635227731
 40
1.0
 40
1.0
 40
1.0
 40
1.0
 10
38.71998505579592
 20
131.9388772778358
 30
0.0
 10
38.73704395855732
 20
131.9725103786357
 30
0.0
 10
38.77129235481498
 20
132.0400340511533
 30
0.0
 10
38.77607931644136
 20
132.1556381896125
 30
0.0
 10
38.74678100925466
 20
132.2661240552218
 30
0.0
 10
38.70007484324055
 20
132.3240910597802
 30
0.0
 10
38.67726482363702
 20
132.3524005662794
 30
0.0
  0
SPLINE
  5
C0
330
1F
100
AcDbEntity
  8
0
  6
Continuous
 62
     7
370
    25
100
AcDbSpline
210
0.0
220
0.0
230
1.0
 70
     8
 71
     3
 72
    11
 73
     7
 74
     0
 42
0.000000001
 43
0.00000001
 40
0.0
 40
0.0
 40
0.0
 40
0.0
 40
0.2423609499151093
 40
0.5166846226611018
 40
0.792333662065661
 40
0.9999999999999999
 40
0.9999999999999999
 40
0.9999999999999999
 40
0.9999999999999999
 10
39.10018958064081
 20
130.7684613809134
 30
0.0
 10
39.10226043876502
 20
130.8015551510474
 30
0.0
 10
39.10667526115648
 20
130.8721071196714
 30
0.0
 10
39.07075631405677
 20
130.9759298810606
 30
0.0
 10
39.00909334972174
 20
131.0602640722969
 30
0.0
 10
38.95446444422304
 20
131.0959258234896
 30
0.0
 10
38.93099201755883
 20
131.1112486243393
 30
0.0
  0
SPLINE
  5
C1
330
1F
100
AcDbEntity
  8
0
  6
Continuous
 62
     7
370
    25
100
AcDbSpline
210
0.0
220
0.0
230
1.0
 70
     8
 71
     3
 72
    12
 73
     8
 74
     0
 42
0.000000001
 43
0.00000001
 40
0.0
 40
0.0
 40
0.0
 40
0.0
 40
0.0091728170392391
 40
0.2576773005513212
 40
0.5061892896705903
 40
0.7560354962150931
 40
1.0
 40
1.0
 40
1.0
 40
1.0
 10
37.06212842749716
 20
132.8063018106069
 30
0.0
 10
37.0608011537575
 20
132.8059564272771
 30
0.0
 10
37.02351617217899
 20
132.7962541249544
 30
0.0
 10
36.9530847375471
 20
132.7639233148399
 30
0.0
 10
36.87179437426577
 20
132.6854505914506
 30
0.0
 10
36.81855571718665
 20
132.5852846991106
 30
0.0
 10
36.81299675143418
 20
132.5118495908137
 30
0.0
 10
36.81025037454726
 20
132.4755693737562
 30
0.0
  0
SPLINE
  5
C2
330
1F
100
AcDbEntity
  8
0
  6
Continuous
 62
     7
370
    25
100
AcDbSpline
210
0.0
220
0.0
230
1.0
 70
     8
 71
     3
 72
    12
 73
     8
 74
     0
 42
0.000000001
 43
0.00000001
 40
0.0
 40
0.0
 40
0.0
 40
0.0
 40
0.2057531924191252
 40
0.411960383509867
 40
0.6140149362664986
 40
0.8131414492692497
 40
1.0
 40
1.0
 40
1.0
 40
1.0
 10
36.81025037454726
 20
132.4755693737562
 30
0.0
 10
36.80513790223683
 20
132.4102257429122
 30
0.0
 10
36.79490167684015
 20
132.2793942991523
 30
0.0
 10
36.69852513048523
 20
132.102589388116
 30
0.0
 10
36.55511390119473
 20
131.9685483645125
 30
0.0
 10
36.38095193223323
 20
131.8872262291245
 30
0.0
 10
36.25835589260713
 20
131.8816951106953
 30
0.0
 10
36.19900613935949
 20
131.8790174506749
 30
0.0
  0
SPLINE
  5
C3
330
1F
100
AcDbEntity
  8
0
  6
Continuous
 62
     7
370
    25
100
AcDbSpline
210
0.0
220
0.0
230
1.0
 70
     8
 71
     3
 72
    11
 73
     7
 74
     0
 42
0.000000001
 43
0.00000001
 40
0.0
 40
0.0
 40
0.0
 40
0.0
 40
0.279406114845528
 40
0.5596238358628534
 40
0.8375012968036917
 40
0.9999999999999999
 40
0.9999999999999999
 40
0.9999999999999999
 40
0.9999999999999999
 10
36.19900613935949
 20
131.8790174506749
 30
0.0
 10
36.16117688538638
 20
131.8769468692665
 30
0.0
 10
36.08540849274411
 20
131.8727996919191
 30
0.0
 10
35.98268066962973
 20
131.8188959180449
 30
0.0
 10
35.91232251685788
 20
131.7481889488279
 30
0.0
 10
35.88580070114872
 20
131.6943987916483
 30
0.0
 10
35.8760141572571
 20
131.674550236031
 30
0.0
  0
SPLINE
  5
C4
330
1F
100
AcDbEntity
  8
0
  6
Continuous
 62
     7
370
    25
100
AcDbSpline
210
0.0
220
0.0
230
1.0
 70
     8
 71
     3
 72
    12
 73
     8
 74
     0
 42
0.000000001
 43
0.00000001
 40
0.0
 40
0.0
 40
0.0
 40
0.0
 40
0.0091681644262607
 40
0.257326675411096
 40
0.5054940656779502
 40
0.7549924802550586
 40
1.0
 40
1.0
 40
1.0
 40
1.0
 10
38.67726482363702
 20
132.3524005662794
 30
0.0
 10
38.67630308201748
 20
132.3533800175544
 30
0.0
 10
38.64930948089361
 20
132.3808706829249
 30
0.0
 10
38.58617510176288
 20
132.4258176321747
 30
0.0
 10
38.47763026441242
 20
132.4571811782779
 30
0.0
 10
38.36404136418786
 20
132.4534116555259
 30
0.0
 10
38.29745675870431
 20
132.4214501151198
 30
0.0
 10
38.26446680264832
 20
132.4056144755478
 30
0.0
  0
SPLINE
  5
C5
330
1F
100
AcDbEntity
  8
0
  6
Continuous
 62
     7
370
    25
100
AcDbSpline
210
0.0
220
0.0
230
1.0
 70
     8
 71
     3
 72
    12
 73
     8
 74
     0
 42
0.000000001
 43
0.00000001
 40
0.0
 40
0.0
 40
0.0
 40
0.0
 40
0.2058435129763208
 40
0.4120691947092607
 40
0.6141399031210575
 40
0.8132603052097342
 40
1.0
 40
1.0
 40
1.0
 40
1.0
 10
38.26446680264832
 20
132.4056144755478
 30
0.0
 10
38.20529511992702
 20
132.3773605619531
 30
0.0
 10
38.08684189642723
 20
132.3208002785903
 30
0.0
 10
37.88549778299107
 20
132.3158919488783
 30
0.0
 10
37.697708724462
 20
132.3731050518068
 30
0.0
 10
37.54024871315759
 20
132.4832851949385
 30
0.0
 10
37.47418675349189
 20
132.5866616700561
 30
0.0
 10
37.44221560569765
 20
132.6366914387937
 30
0.0
  0
SPLINE
  5
C6
330
1F
100
AcDbEntity
  8
0
  6
Continuous
 62
     7
370
    25
100
AcDbSpline
210
0.0
220
0.0
230
1.0
 70
     8
 71
     3
 72
    11
 73
     7
 74
     0
 42
0.000000001
 43
0.00000001
 40
0.0
 40
0.0
 40
0.0
 40
0.0
 40
0.2535083926347527
 40
0.5075673069468027
 40
0.759505785458209
 40
1.0
 40
1.0
 40
1.0
 40
1.0
 10
37.44221560569765
 20
132.6366914387937
 30
0.0
 10
37.42148690217218
 20
132.6684468967398
 30
0.0
 10
37.37998448043547
 20
132.7320267731417
 30
0.0
 10
37.28196232841381
 20
132.7939048568914
 30
0.0
 10
37.1715748362558
 20
132.8235706114158
 30
0.0
 10
37.09804091458977
 20
132.8119681964955
 30
0.0
 10
37.06212842749716
 20
132.8063018106069
 30
0.0
  0
CIRCLE
  5
C7
330
1F
100
AcDbEntity
  8
0
  6
Continuous
 62
     7
370
    25
100
AcDbCircle
 10
37.477451786
 20
131.1836091701
 30
0.0
 40
2.624999999999999
  0
ARC
  5
C8
330
1F
100
AcDbEntity
  8
0
  6
Continuous
 62
     7
370
    25
100
AcDbCircle
 10
42.1252907972
 20
127.2836091701
 30
0.0
 40
1.650000000000023
100
AcDbArc
 50
207.2673607373
 51
72.7326392627
  0
LINE
  5
C9
330
1F
100
AcDbEntity
  8
0
  6
Continuous
 62
     7
370
    25
100
AcDbLine
 10
50.9806958764
 20
135.7281158514
 30
0.0
 11
41.427590306
 21
135.7281158514
 31
0.0
  0
LINE
  5
CA
330
1F
100
AcDbEntity
  8
0
  6
Continuous
 62
     7
370
    25
100
AcDbLine
 10
50.9806958764
 20
122.0096137792
 30
0.0
 11
50.9806958764
 21
135.7281158514
 31
0.0
  0
LINE
  5
CB
330
1F
100
AcDbEntity
  8
0
  6
Continuous
 62
     7
370
    25
100
AcDbLine
 10
50.9806958764
 20
122.0096137792
 30
0.0
 11
34.6840546737
 21
122.0096137792
 31
0.0
  0
LINE
  5
CC
330
1F
100
AcDbEntity
  8
0
  6
Continuous
 62
     7
370
    25
100
AcDbLine
 10
34.6840546737
 20
122.0096137792
 30
0.0
 11
33.8917289666
 21
126.5031157479
 31
0.0
  0
ARC
  5
CD
330
1F
100
AcDbEntity
  8
0
  6
Continuous
 62
     7
370
    25
100
AcDbCircle
 10
90.9806949644
 20
146.1781158656
 30
0.0
 40
39.99999999999996
100
AcDbArc
 50
197.3265567112
 51
220.8249361568
  0
SPLINE
  5
CE
330
1F
100
AcDbEntity
  8
0
  6
Continuous
 62
     7
370
    25
100
AcDbSpline
210
0.0
220
0.0
230
1.0
 70
     8
 71
     3
 72
     8
 73
     4
 74
     0
 42
0.000000001
 43
0.00000001
 40
0.0
 40
0.0
 40
0.0
 40
0.0
 40
1.0
 40
1.0
 40
1.0
 40
1.0
 10
51.45869101608295
 20
120.0281158656026
 30
0.0
 10
51.44408170785962
 20
120.2596275349615
 30
0.0
 10
51.4130262094908
 20
120.4367260541771
 30
0.0
 10
51.37899596751404
 20
120.5008565266339
 30
0.0
  0
ELLIPSE
  5
CF
330
1F
100
AcDbEntity
  8
0
  6
Continuous
 62
     7
370
    25
100
AcDbEllipse
 10
90.9806949644
 20
122.0096136071
 30
0.0
 11
39.99999999999999
 21
0.0
 31
0.0
210
0.0
220
0.0
230
1.0
 40
0.2679491924
 41
3.141592653589793
 42
3.282830711375804
  0
ELLIPSE
  5
D0
330
1F
100
AcDbEntity
  8
0
  6
Continuous
 62
     7
370
    25
100
AcDbEllipse
 10
90.9806949644
 20
135.7281158656
 30
0.0
 11
39.99999999999997
 21
0.0
 31
0.0
210
0.0
220
0.0
230
1.0
 40
0.1227845609
 41
3.141592653589792
 42
3.44399811623344
  0
ELLIPSE
  5
D1
330
1F
100
AcDbEntity
  8
0
  6
Continuous
 62
     7
370
    25
100
AcDbEllipse
 10
75.2911621516
 20
122.0632034455
 30
0.0
 11
40.66076322939652
 21
-0.5352572967205731
 31
0.0
210
0.0
220
0.0
230
1.0
 40
0.263265937
 41
3.196553642072601
 42
3.337843803445086
  0
LINE
  5
D2
330
1F
100
AcDbEntity
  8
0
  6
Continuous
 62
     7
370
    25
100
AcDbLine
 10
51.4586915998
 20
120.0281151056
 30
0.0
 11
51.9865037678
 21
120.0281151056
 31
0.0
  0
SPLINE
  5
D3
330
1F
100
AcDbEntity
  8
0
  6
Continuous
 62
     7
370
    25
100
AcDbSpline
210
0.0
220
0.0
230
1.0
 70
     8
 71
     3
 72
     8
 73
     4
 74
     0
 42
0.000000001
 43
0.00000001
 40
0.0
 40
0.0
 40
0.0
 40
0.0
 40
1.0
 40
1.0
 40
1.0
 40
1.0
 10
52.84816993056041
 20
119.5210606295206
 30
0.0
 10
52.55841023766117
 20
119.6861278405261
 30
0.0
 10
52.27126839574857
 20
119.8586755474466
 30
0.0
 10
51.98650292946298
 20
120.0281158656026
 30
0.0
  0
SPLINE
  5
D4
330
1F
100
AcDbEntity
  8
0
  6
Continuous
 62
     7
370
    25
100
AcDbSpline
210
0.0
220
0.0
230
1.0
 70
     8
 71
     3
 72
    12
 73
     8
 74
     0
 42
0.000000001
 43
0.00000001
 40
0.0
 40
0.0
 40
0.0
 40
0.0
 40
0.2499999999999983
 40
0.2499999999999983
 40
0.4999999999999966
 40
0.4999999999999966
 40
1.0
 40
1.0
 40
1.0
 40
1.0
 10
35.64502991090629
 20
119.5210606295206
 30
0.0
 10
35.63134730939767
 20
119.6245201792643
 30
0.0
 10
35.61365327269871
 20
119.7309162968886
 30
0.0
 10
35.57228804425018
 20
119.9392127300126
 30
0.0
 10
35.54880022334783
 20
120.0398794546313
 30
0.0
 10
35.47593091362661
 20
120.3092168194622
 30
0.0
 10
35.42375425990563
 20
120.4459661070019
 30
0.0
 10
35.38342623372586
 20
120.5008565266339
 30
0.0
  0
LINE
  5
D5
330
1F
100
AcDbEntity
  8
0
  6
Continuous
 62
     7
370
    25
100
AcDbLine
 10
217.3506071596
 20
118.2281163007
 30
0.0
 11
35.8176043993
 21
118.2281163007
 31
0.0
  0
LINE
  5
D6
330
1F
100
AcDbEntity
  8
0
  6
Continuous
 62
     7
370
    25
100
AcDbLine
 10
215.4771884708
 20
97.7765035302
 30
0.0
 11
58.132305163
 21
97.7765035302
 31
0.0
  0
LINE
  5
D7
330
1F
100
AcDbEntity
  8
0
  6
Continuous
 62
     7
370
    25
100
AcDbLine
 10
56.7806953369
 20
99.1281170815
 30
0.0
 11
58.132305163
 21
97.7765035302
 31
0.0
  0
LINE
  5
D8
330
1F
100
AcDbEntity
  8
0
  6
Continuous
 62
     7
370
    25
100
AcDbLine
 10
40.8327955558
 20
99.1281170815
 30
0.0
 11
56.7806953369
 21
99.1281170815
 31
0.0
  0
LINE
  5
D9
330
1F
100
AcDbEntity
  8
0
  6
Continuous
 62
     7
370
    25
100
AcDbLine
 10
40.8327955558
 20
99.1281170815
 30
0.0
 11
38.8327956936
 21
101.1281174094
 31
0.0
  0
LINE
  5
DA
330
1F
100
AcDbEntity
  8
0
  6
Continuous
 62
     7
370
    25
100
AcDbLine
 10
217.3506071596
 20
99.5021287769
 30
0.0
 11
217.3506071596
 21
118.2281163007
 31
0.0
  0
LINE
  5
DB
330
1F
100
AcDbEntity
  8
0
  6
Continuous
 62
     7
370
    25
100
AcDbLine
 10
215.4766669302
 20
97.7760192424
 30
0.0
 11
217.3559417753
 21
99.5021585792
 31
0.0
  0
LINE
  5
DC
330
1F
100
AcDbEntity
  8
0
  6
Continuous
 62
     7
370
    25
100
AcDbLine
 10
38.8327956936
 20
101.1281174094
 30
0.0
 11
35.8176043993
 21
118.2281163007
 31
0.0
  0
LINE
  5
DD
330
1F
100
AcDbEntity
  8
0
  6
Continuous
 62
     7
370
    25
100
AcDbLine
 10
213.7151112585
 20
96.6274712652
 30
0.0
 11
59.5892252206
 21
96.6274712652
 31
0.0
  0
LINE
  5
DE
330
1F
100
AcDbEntity
  8
0
  6
Continuous
 62
     7
370
    25
100
AcDbLine
 10
59.5892252206
 20
96.6274712652
 30
0.0
 11
58.132305163
 21
97.7765035302
 31
0.0
  0
SPLINE
  5
DF
330
1F
100
AcDbEntity
  8
0
  6
Continuous
 62
     7
370
    25
100
AcDbSpline
210
0.0
220
0.0
230
1.0
 70
     8
 71
     3
 72
    11
 73
     7
 74
     0
 42
0.000000001
 43
0.00000001
 40
0.0004681206978772
 40
0.0004681206978772
 40
0.0004681206978772
 40
0.0004681206978772
 40
0.0014317779784607
 40
0.0014317779784607
 40
0.0014317779784607
 40
0.0028636779784317
 40
0.0028636779784317
 40
0.0028636779784317
 40
0.0028636779784317
 10
215.4752383302674
 20
97.77650861072256
 30
0.0
 10
215.2409090021174
 20
97.62115144908564
 30
0.0
 10
215.0059172970099
 20
97.46629221407099
 30
0.0
 10
214.7702460539058
 20
97.31195331011482
 30
0.0
 10
214.4200623970366
 20
97.08262129203449
 30
0.0
 10
214.0683721464077
 20
96.85443360863954
 30
0.0
 10
213.7151166203146
 20
96.62746943100731
 30
0.0
  0
SPLINE
  5
E0
330
1F
100
AcDbEntity
  8
0
  6
Continuous
 62
     7
370
    25
100
AcDbSpline
210
0.0
220
0.0
230
1.0
 70
     8
 71
     3
 72
     8
 73
     4
 74
     0
 42
0.000000001
 43
0.00000001
 40
0.0
 40
0.0
 40
0.0
 40
0.0
 40
1.0
 40
1.0
 40
1.0
 40
1.0
 10
53.49313035958794
 20
119.3209361886301
 30
0.0
 10
53.26199554995716
 20
119.3209361886301
 30
0.0
 10
53.04605382111887
 20
119.408332245559
 30
0.0
 10
52.84816993055993
 20
119.5210606295197
 30
0.0
  0
LINE
  5
E1
330
1F
100
AcDbEntity
  8
0
  6
Continuous
 62
     7
370
    25
100
AcDbLine
 10
53.4931303738
 20
119.3209357977
 30
0.0
 11
217.3062016992
 21
119.3209357977
 31
0.0
  0
ELLIPSE
  5
E2
330
1F
100
AcDbEntity
  8
0
  6
Continuous
 62
     7
370
    25
100
AcDbEllipse
 10
177.7806949644
 20
96.3956186413
 30
0.0
 11
0.0
 21
149.2820323027528
 31
0.0
210
0.0
220
0.0
230
1.0
 40
0.2679491924
 41
4.859165421731894
 42
4.866569617999824
  0
ELLIPSE
  5
E3
330
1F
100
AcDbEntity
  8
0
  6
Continuous
 62
     7
370
    25
100
AcDbEllipse
 10
79.9486621324
 20
95.6492084798
 30
0.0
 11
-28.31802889254179
 21
149.0957597411444
 31
0.0
210
0.0
220
0.0
230
1.0
 40
0.263265937
 41
1.360234778308899
 42
1.369002660408417
  0
LINE
  5
E4
330
1F
100
AcDbEntity
  8
0
  6
Continuous
 62
     7
370
    25
100
AcDbLine
 10
53.4931303738
 20
120.0281151056
 30
0.0
 11
51.9865037678
 21
120.0281151056
 31
0.0
  0
LINE
  5
E5
330
1F
100
AcDbEntity
  8
0
  6
Continuous
 62
     7
370
    25
100
AcDbLine
 10
53.4931303738
 20
120.0281151056
 30
0.0
 11
217.189793828
 21
120.0281151056
 31
0.0
  0
ARC
  5
E6
330
1F
100
AcDbEntity
  8
0
  6
Continuous
 62
     7
370
    25
100
AcDbCircle
 10
177.7806949644
 20
113.1781158656
 30
0.0
 40
40.00000000000004
100
AcDbArc
 50
8.833899818
 51
9.860504645
  0
POINT
  5
E7
330
1F
100
AcDbEntity
  8
VERMASSUNG
100
AcDbPoint
 10
31.7806949644
 20
136.0281158656
 30
0.0
  0
DIMENSION
  5
E8
330
1F
100
AcDbEntity
  8
VERMASSUNG
100
AcDbDimension
  2
_D
 10
217.3506014591
 20
153.7709681247
 30
0.0
 11
124.5656482118
 21
153.7709681247
 31
0.0
 70
   160
  1
%%c<>
 71
     2
 42
-1.0
  3
SLDDIMSTYLE0
100
AcDbAlignedDimension
 13
31.7806949644
 23
136.0281158656
 33
0.0
 14
217.3506014591
 24
118.2281158656
 34
0.0
100
AcDbRotatedDimension
  0
DIMENSION
  5
F2
330
1F
100
AcDbEntity
  8
VERMASSUNG
100
AcDbDimension
  2
_D_1
 10
217.3506014591
 20
144.7623758052
 30
0.0
 11
124.5656482118
 21
144.7623758052
 31
0.0
 70
   160
  1
<>
 71
     2
 42
-1.0
  3
SLDDIMSTYLE1
100
AcDbAlignedDimension
 13
31.7806949644
 23
136.0281158656
 33
0.0
 14
217.3506014591
 24
118.2281158656
 34
0.0
100
AcDbRotatedDimension
  0
DIMENSION
  5
FD
330
1F
100
AcDbEntity
  8
VERMASSUNG
100
AcDbDimension
  2
_D_2
 10
23.899538513
 20
96.627469431
 30
0.0
 11
23.899538513
 21
116.3277926483
 31
0.0
 70
   160
  1
<>
 71
     2
 42
-1.0
  3
SLDDIMSTYLE1
100
AcDbAlignedDimension
 13
31.7806949644
 23
136.0281158656
 33
0.0
 14
59.5892245244
 24
96.627469431
 34
0.0
 50
90.0
100
AcDbRotatedDimension
  0
LINE
  5
107
330
1F
100
AcDbEntity
  8
0
  6
Continuous
 62
     7
370
    25
100
AcDbLine
 10
260.1296727205
 20
136.0281158656
 30
0.0
 11
260.1296727205
 21
135.5586565866
 31
0.0
  0
LINE
  5
108
330
1F
100
AcDbEntity
  8
0
  6
Continuous
 62
     7
370
    25
100
AcDbLine
 10
256.8719340612
 20
135.6281158757
 30
0.0
 11
260.1296727205
 21
135.5586565866
 31
0.0
  0
LINE
  5
109
330
1F
100
AcDbEntity
  8
0
  6
Continuous
 62
     7
370
    25
100
AcDbLine
 10
256.8719340612
 20
135.6281158757
 30
0.0
 11
260.1296727205
 21
136.0281158656
 31
0.0
  0
LINE
  5
10A
330
1F
100
AcDbEntity
  8
0
  6
Continuous
 62
     7
370
    25
100
AcDbLine
 10
256.8719340612
 20
126.9031159997
 30
0.0
 11
260.1296727205
 21
126.8336570308
 31
0.0
  0
LINE
  5
10B
330
1F
100
AcDbEntity
  8
0
  6
Continuous
 62
     7
370
    25
100
AcDbLine
 10
256.1596727588
 20
126.9905709148
 30
0.0
 11
256.8719340612
 21
126.9031159997
 31
0.0
  0
LINE
  5
10C
330
1F
100
AcDbEntity
  8
0
  6
Continuous
 62
     7
370
    25
100
AcDbLine
 10
256.1596727588
 20
135.5406611644
 30
0.0
 11
256.1596727588
 21
126.9905709148
 31
0.0
  0
LINE
  5
10D
330
1F
100
AcDbEntity
  8
0
  6
Continuous
 62
     7
370
    25
100
AcDbLine
 10
256.1596727588
 20
135.5406611644
 30
0.0
 11
256.8719340612
 21
135.6281158757
 31
0.0
  0
LINE
  5
10E
330
1F
100
AcDbEntity
  8
0
  6
Continuous
 62
     7
370
    25
100
AcDbLine
 10
260.1296727205
 20
135.5586565866
 30
0.0
 11
260.1296727205
 21
126.8336570308
 31
0.0
  0
LINE
  5
10F
330
1F
100
AcDbEntity
  8
0
  6
Continuous
 62
     7
370
    25
100
AcDbLine
 10
260.1296727205
 20
126.8336570308
 30
0.0
 11
260.1296727205
 21
126.5031157479
 31
0.0
  0
LINE
  5
110
330
1F
100
AcDbEntity
  8
0
  6
Continuous
 62
     7
370
    25
100
AcDbLine
 10
256.8719340612
 20
126.9031159997
 30
0.0
 11
260.1296727205
 21
126.5031157479
 31
0.0
  0
LINE
  5
111
330
1F
100
AcDbEntity
  8
0
  6
Continuous
 62
     7
370
    25
100
AcDbLine
 10
232.7796735459
 20
119.0281149417
 30
0.0
 11
232.7796735459
 21
107.3005620808
 31
0.0
  0
LWPOLYLINE
  5
112
330
1F
100
AcDbEntity
  8
0
  6
Continuous
 62
     7
370
    25
100
AcDbPolyline
 90
        8
 70
   128
 43
0.0
 10
248.0169779279
 20
134.2654208372
 10
245.6183231094
 20
131.8667659022
 10
243.2783574455
 20
129.5267997727
 10
241.0065431737
 20
127.2549864322
 10
238.8120715164
 20
125.0605138436
 10
236.7038142525
 20
122.952257511
 10
234.6903004341
 20
120.9387436927
 10
232.7796735459
 20
119.0281149417
  0
LINE
  5
113
330
1F
100
AcDbEntity
  8
0
  6
Continuous
 62
     7
370
    25
100
AcDbLine
 10
256.1596727588
 20
135.2652180892
 30
0.0
 11
248.0169779279
 21
134.2654208372
 31
0.0
  0
LINE
  5
114
330
1F
100
AcDbEntity
  8
0
  6
Continuous
 62
     7
370
    25
100
AcDbLine
 10
256.1596727588
 20
126.9905709148
 30
0.0
 11
256.1596727588
 21
126.6836088568
 31
0.0
  0
LINE
  5
115
330
1F
100
AcDbEntity
  8
0
  6
Continuous
 62
     7
370
    25
100
AcDbLine
 10
258.6596727029
 20
126.6836088568
 30
0.0
 11
256.1596727588
 21
126.6836088568
 31
0.0
  0
LINE
  5
116
330
1F
100
AcDbEntity
  8
0
  6
Continuous
 62
     7
370
    25
100
AcDbLine
 10
259.9296727254
 20
122.0096137792
 30
0.0
 11
259.9296727254
 21
126.5276728615
 31
0.0
  0
LWPOLYLINE
  5
117
330
1F
100
AcDbEntity
  8
0
  6
Continuous
 62
     7
370
    25
100
AcDbPolyline
 90
        4
 70
   128
 43
0.0
 10
254.2989144691
 20
120.5008563072
 10
256.1684379012
 20
121.0017932996
 10
258.0467455678
 20
121.5050846756
 10
259.9296727254
 20
122.0096137792
  0
SPLINE
  5
118
330
1F
100
AcDbEntity
  8
0
  6
Continuous
 62
     7
370
    25
100
AcDbSpline
210
0.0
220
0.0
230
1.0
 70
     8
 71
     3
 72
    12
 73
     8
 74
     0
 42
0.000000001
 43
0.00000001
 40
0.0
 40
0.0
 40
0.0
 40
0.0
 40
0.2499999999999983
 40
0.2499999999999983
 40
0.4999999999999966
 40
0.4999999999999966
 40
1.0
 40
1.0
 40
1.0
 40
1.0
 10
253.7332292149863
 20
119.5210606295206
 30
0.0
 10
253.7055073121832
 20
119.6245201792643
 30
0.0
 10
253.6991016154152
 20
119.7309162968886
 30
0.0
 10
253.7272001114407
 20
119.9392127300126
 30
0.0
 10
253.7619414651057
 20
120.0398794546313
 30
0.0
 10
253.9182446611632
 20
120.3092168194622
 30
0.0
 10
254.09406080502
 20
120.4459661070019
 30
0.0
 10
254.2989146399355
 20
120.5008565266339
 30
0.0
  0
LINE
  5
119
330
1F
100
AcDbEntity
  8
0
  6
Continuous
 62
     7
370
    25
100
AcDbLine
 10
254.0796727531
 20
118.2281163007
 30
0.0
 11
253.7332291373
 21
119.5210602552
 31
0.0
  0
LINE
  5
11A
330
1F
100
AcDbEntity
  8
0
  6
Continuous
 62
     7
370
    25
100
AcDbLine
 10
254.0796727531
 20
101.1281174094
 30
0.0
 11
254.0796727531
 21
118.2281163007
 31
0.0
  0
SPLINE
  5
11B
330
1F
100
AcDbEntity
  8
0
  6
Continuous
 62
     7
370
    25
100
AcDbSpline
210
0.0
220
0.0
230
1.0
 70
     8
 71
     3
 72
    22
 73
    18
 74
     0
 42
0.000000001
 43
0.00000001
 40
0.0
 40
0.0
 40
0.0
 40
0.0
 40
0.2500000000000001
 40
0.2500000000000001
 40
0.3750000000000001
 40
0.3750000000000001
 40
0.5000000000000001
 40
0.5000000000000001
 40
0.625
 40
0.625
 40
0.75
 40
0.75
 40
0.8125
 40
0.8125
 40
0.875
 40
0.875
 40
1.0
 40
1.0
 40
1.0
 40
1.0
 10
254.0796727203362
 20
101.1281158656027
 30
0.0
 10
252.1512565104558
 20
101.8175770106254
 30
0.0
 10
250.2175723973221
 20
102.3322424764226
 30
0.0
 10
247.3634988147103
 20
103.0681424904975
 30
0.0
 10
246.4205861837545
 20
103.3108282115675
 30
0.0
 10
244.5572463030226
 20
103.8151145446095
 30
0.0
 10
243.633930094935
 20
104.0733804595118
 30
0.0
 10
241.8247220480752
 20
104.5885889602926
 30
0.0
 10
240.9371780801757
 20
104.8458109493176
 30
0.0
 10
239.1965683982915
 20
105.3608548858742
 30
0.0
 10
238.341910095853
 20
105.6196433744964
 30
0.0
 10
237.0941865220883
 20
106.0140513594645
 30
0.0
 10
236.6841627251796
 20
106.1466046772971
 30
0.0
 10
235.8757901378093
 20
106.4135390631878
 30
0.0
 10
235.4774855424054
 20
106.5484032294362
 30
0.0
 10
234.2976622309505
 20
106.9324602737168
 30
0.0
 10
233.5307541049287
 20
107.1575386702346
 30
0.0
 10
232.7796727203206
 20
107.3005625050467
 30
0.0
  0
SPLINE
  5
11C
330
1F
100
AcDbEntity
  8
0
  6
Continuous
 62
     7
370
    25
100
AcDbSpline
210
0.0
220
0.0
230
1.0
 70
    24
 71
     3
 72
    28
 73
    24
 74
     0
 42
0.000000001
 43
0.00000001
 40
0.0
 40
0.0
 40
0.0
 40
0.0
 40
0.1250000000000004
 40
0.1250000000000004
 40
0.1875000000000003
 40
0.1875000000000003
 40
0.2500000000000001
 40
0.2500000000000001
 40
0.3749999999999998
 40
0.3749999999999998
 40
0.4374999999999998
 40
0.4374999999999998
 40
0.4999999999999998
 40
0.4999999999999998
 40
0.625
 40
0.625
 40
0.6875000000000001
 40
0.6875000000000001
 40
0.7500000000000001
 40
0.7500000000000001
 40
0.8750000000000001
 40
0.8750000000000001
 40
1.0
 40
1.0
 40
1.0
 40
1.0
 10
232.7796727203285
 20
104.8354336643877
 30
0.0
 10
233.5235198145537
 20
104.6361204361977
 30
0.0
 10
234.2685489229864
 20
104.4364904882556
 30
0.0
 10
235.4362820540802
 20
104.1235973388039
 30
0.0
 10
235.8336237429469
 20
104.0171299541529
 30
0.0
 10
236.648256416123
 20
103.7988497872473
 30
0.0
 10
237.0649315166793
 20
103.6872020305471
 30
0.0
 10
238.3338283765749
 20
103.3472021416597
 30
0.0
 10
239.2049506797827
 20
103.1137856240064
 30
0.0
 10
240.526851896674
 20
102.7595832604667
 30
0.0
 10
240.9698452475521
 20
102.6408835498465
 30
0.0
 10
241.8581525425293
 20
102.4028623275267
 30
0.0
 10
242.3034103328309
 20
102.2835558621917
 30
0.0
 10
243.6452434963632
 20
101.9240127496459
 30
0.0
 10
244.5480036183989
 20
101.6821189039874
 30
0.0
 10
245.929761819439
 20
101.3118779098837
 30
0.0
 10
246.3949410897895
 20
101.1872335000575
 30
0.0
 10
247.3357012511805
 20
100.9351575745415
 30
0.0
 10
247.8116065141588
 20
100.8076391436527
 30
0.0
 10
249.2434634830543
 20
100.4239742251602
 30
0.0
 10
250.2063218395394
 20
100.1659771061145
 30
0.0
 10
252.1392960933642
 20
99.64803821581198
 30
0.0
 10
253.1094915927275
 20
99.38807511525728
 30
0.0
 10
254.0796727203362
 20
99.12811586560264
 30
0.0
  0
LINE
  5
11D
330
1F
100
AcDbEntity
  8
0
  6
Continuous
 62
     7
370
    25
100
AcDbLine
 10
232.7796735459
 20
107.3005620808
 30
0.0
 11
232.7796735459
 21
104.8354331821
 31
0.0
  0
LINE
  5
11E
330
1F
100
AcDbEntity
  8
0
  6
Continuous
 62
     7
370
    25
100
AcDbLine
 10
254.0796727531
 20
99.1281170815
 30
0.0
 11
254.0796727531
 21
101.1281174094
 31
0.0
  0
LINE
  5
11F
330
1F
100
AcDbEntity
  8
0
  6
Continuous
 62
     7
370
    25
100
AcDbLine
 10
251.9847445779
 20
98.6253593534
 30
0.0
 11
252.4883209386
 21
96.7459876508
 31
0.0
  0
ARC
  5
120
330
1F
100
AcDbEntity
  8
0
  6
Continuous
 62
     7
370
    25
100
AcDbCircle
 10
251.7915593263
 20
98.5735971877
 30
0.0
 40
0.2000000000000386
100
AcDbArc
 50
15.0
 51
135.0
  0
LINE
  5
121
330
1F
100
AcDbEntity
  8
0
  6
Continuous
 62
     7
370
    25
100
AcDbLine
 10
250.2743408673
 20
97.3392215043
 30
0.0
 11
251.650138072
 21
98.7150196403
 31
0.0
  0
LINE
  5
122
330
1F
100
AcDbEntity
  8
0
  6
Continuous
 62
     7
370
    25
100
AcDbLine
 10
249.832025043
 20
97.4577416152
 30
0.0
 11
250.2743408673
 21
97.3392215043
 31
0.0
  0
LINE
  5
123
330
1F
100
AcDbEntity
  8
0
  6
Continuous
 62
     7
370
    25
100
AcDbLine
 10
249.3284486823
 20
99.3371133179
 30
0.0
 11
249.832025043
 21
97.4577416152
 31
0.0
  0
ARC
  5
124
330
1F
100
AcDbEntity
  8
0
  6
Continuous
 62
     7
370
    25
100
AcDbCircle
 10
249.135263304
 20
99.2853495617
 30
0.0
 40
0.2000000000000298
100
AcDbArc
 50
15.0
 51
135.0
  0
LINE
  5
125
330
1F
100
AcDbEntity
  8
0
  6
Continuous
 62
     7
370
    25
100
AcDbLine
 10
247.6180449717
 20
98.0509754688
 30
0.0
 11
248.9938421764
 21
99.4267698795
 31
0.0
  0
LINE
  5
126
330
1F
100
AcDbEntity
  8
0
  6
Continuous
 62
     7
370
    25
100
AcDbLine
 10
247.1757291474
 20
98.1694918543
 30
0.0
 11
247.6180449717
 21
98.0509754688
 31
0.0
  0
LINE
  5
127
330
1F
100
AcDbEntity
  8
0
  6
Continuous
 62
     7
370
    25
100
AcDbLine
 10
246.6721527868
 20
100.0488672823
 30
0.0
 11
247.1757291474
 21
98.1694918543
 31
0.0
  0
ARC
  5
128
330
1F
100
AcDbEntity
  8
0
  6
Continuous
 62
     7
370
    25
100
AcDbCircle
 10
246.4789672817
 20
99.9971019357
 30
0.0
 40
0.2000000000000197
100
AcDbArc
 50
15.0
 51
135.0
  0
LINE
  5
129
330
1F
100
AcDbEntity
  8
0
  6
Continuous
 62
     7
370
    25
100
AcDbLine
 10
244.9617490762
 20
98.7627257079
 30
0.0
 11
246.3375462808
 21
100.1385238439
 31
0.0
  0
LINE
  5
12A
330
1F
100
AcDbEntity
  8
0
  6
Continuous
 62
     7
370
    25
100
AcDbLine
 10
244.5194332518
 20
98.8812458187
 30
0.0
 11
244.9617490762
 21
98.7627257079
 31
0.0
  0
LINE
  5
12B
330
1F
100
AcDbEntity
  8
0
  6
Continuous
 62
     7
370
    25
100
AcDbLine
 10
244.0158568912
 20
100.7606175214
 30
0.0
 11
244.5194332518
 21
98.8812458187
 31
0.0
  0
ARC
  5
12C
330
1F
100
AcDbEntity
  8
0
  6
Continuous
 62
     7
370
    25
100
AcDbCircle
 10
243.8226712594
 20
100.7088543098
 30
0.0
 40
0.2000000000000075
100
AcDbArc
 50
15.0
 51
135.0
  0
LINE
  5
12D
330
1F
100
AcDbEntity
  8
0
  6
Continuous
 62
     7
370
    25
100
AcDbLine
 10
242.3054531806
 20
99.4744796723
 30
0.0
 11
243.6812494539
 21
100.850274083
 31
0.0
  0
LINE
  5
12E
330
1F
100
AcDbEntity
  8
0
  6
Continuous
 62
     7
370
    25
100
AcDbLine
 10
241.8631364249
 20
99.5929960579
 30
0.0
 11
242.3054531806
 21
99.4744796723
 31
0.0
  0
LINE
  5
12F
330
1F
100
AcDbEntity
  8
0
  6
Continuous
 62
     7
370
    25
100
AcDbLine
 10
241.3595609956
 20
101.4723714858
 30
0.0
 11
241.8631364249
 21
99.5929960579
 31
0.0
  0
ARC
  5
130
330
1F
100
AcDbEntity
  8
0
  6
Continuous
 62
     7
370
    25
100
AcDbCircle
 10
241.1663752371
 20
101.4206066838
 30
0.0
 40
0.2000000000000112
100
AcDbArc
 50
15.0
 51
135.0
  0
LINE
  5
131
330
1F
100
AcDbEntity
  8
0
  6
Continuous
 62
     7
370
    25
100
AcDbLine
 10
239.649157285
 20
100.1862299115
 30
0.0
 11
241.0249535583
 21
101.5620280475
 31
0.0
  0
LINE
  5
132
330
1F
100
AcDbEntity
  8
0
  6
Continuous
 62
     7
370
    25
100
AcDbLine
 10
239.2068405293
 20
100.3047500223
 30
0.0
 11
239.649157285
 21
100.1862299115
 31
0.0
  0
LINE
  5
133
330
1F
100
AcDbEntity
  8
0
  6
Continuous
 62
     7
370
    25
100
AcDbLine
 10
238.7032651
 20
102.184121725
 30
0.0
 11
239.2068405293
 21
100.3047500223
 31
0.0
  0
ARC
  5
134
330
1F
100
AcDbEntity
  8
0
  6
Continuous
 62
     7
370
    25
100
AcDbCircle
 10
238.5100792148
 20
102.1323590578
 30
0.0
 40
0.2000000000000423
100
AcDbArc
 50
15.0
 51
135.0
  0
LINE
  5
135
330
1F
100
AcDbEntity
  8
0
  6
Continuous
 62
     7
370
    25
100
AcDbLine
 10
236.9928613894
 20
100.8979838759
 30
0.0
 11
238.3686576628
 21
102.2737820119
 31
0.0
  0
LINE
  5
136
330
1F
100
AcDbEntity
  8
0
  6
Continuous
 62
     7
370
    25
100
AcDbLine
 10
236.5505446338
 20
101.0165002614
 30
0.0
 11
236.9928613894
 21
100.8979838759
 31
0.0
  0
LINE
  5
137
330
1F
100
AcDbEntity
  8
0
  6
Continuous
 62
     7
370
    25
100
AcDbLine
 10
236.0469692044
 20
102.8958756894
 30
0.0
 11
236.5505446338
 21
101.0165002614
 31
0.0
  0
ARC
  5
138
330
1F
100
AcDbEntity
  8
0
  6
Continuous
 62
     7
370
    25
100
AcDbCircle
 10
235.8537831925
 20
102.8441114319
 30
0.0
 40
0.2000000000000096
100
AcDbArc
 50
15.0
 51
135.0
  0
LINE
  5
139
330
1F
100
AcDbEntity
  8
0
  6
Continuous
 62
     7
370
    25
100
AcDbLine
 10
234.3365654938
 20
101.6097378403
 30
0.0
 11
235.7123617672
 21
102.985532251
 31
0.0
  0
LINE
  5
13A
330
1F
100
AcDbEntity
  8
0
  6
Continuous
 62
     7
370
    25
100
AcDbLine
 10
233.8942487382
 20
101.7282542259
 30
0.0
 11
234.3365654938
 21
101.6097378403
 31
0.0
  0
LINE
  5
13B
330
1F
100
AcDbEntity
  8
0
  6
Continuous
 62
     7
370
    25
100
AcDbLine
 10
233.3906714462
 20
103.6076259285
 30
0.0
 11
233.8942487382
 21
101.7282542259
 31
0.0
  0
ARC
  5
13C
330
1F
100
AcDbEntity
  8
0
  6
Continuous
 62
     7
370
    25
100
AcDbCircle
 10
233.1974871702
 20
103.5558638059
 30
0.0
 40
0.2000000000001083
100
AcDbArc
 50
15.0
 51
75.0
  0
LINE
  5
13D
330
1F
100
AcDbEntity
  8
0
  6
Continuous
 62
     7
370
    25
100
AcDbLine
 10
232.7796735459
 20
103.874870804
 30
0.0
 11
233.2492501133
 21
103.7490491241
 31
0.0
  0
LINE
  5
13E
330
1F
100
AcDbEntity
  8
0
  6
Continuous
 62
     7
370
    25
100
AcDbLine
 10
252.9306372285
 20
96.6274712652
 30
0.0
 11
254.0796727531
 21
97.7765035302
 31
0.0
  0
LINE
  5
13F
330
1F
100
AcDbEntity
  8
0
  6
Continuous
 62
     7
370
    25
100
AcDbLine
 10
252.4883209386
 20
96.7459876508
 30
0.0
 11
252.9306372285
 21
96.6274712652
 31
0.0
  0
LINE
  5
140
330
1F
100
AcDbEntity
  8
0
  6
Continuous
 62
     7
370
    25
100
AcDbLine
 10
232.7796735459
 20
103.874870804
 30
0.0
 11
232.7796735459
 21
104.8354331821
 31
0.0
  0
LINE
  5
141
330
1F
100
AcDbEntity
  8
0
  6
Continuous
 62
     7
370
    25
100
AcDbLine
 10
254.0796727531
 20
99.1281170815
 30
0.0
 11
254.0796727531
 21
97.7765035302
 31
0.0
  0
POINT
  5
142
330
1F
100
AcDbEntity
  8
VERMASSUNG
100
AcDbPoint
 10
260.1296727205
 20
136.0281158656
 30
0.0
  0
DIMENSION
  5
143
330
1F
100
AcDbEntity
  8
VERMASSUNG
100
AcDbDimension
  2
_D_3
 10
232.7796727203
 20
143.4930612547
 30
0.0
 11
246.4546727204
 21
143.4930612547
 31
0.0
 70
   160
  1
<>
 71
     2
 42
-1.0
  3
SLDDIMSTYLE1
100
AcDbAlignedDimension
 13
260.1296727205
 23
136.0281158656
 33
0.0
 14
232.7796727203
 24
119.0281158656
 34
0.0
100
AcDbRotatedDimension
  0
LINE
  5
14D
330
1F
100
AcDbEntity
  8
0
  6
Continuous
 62
     7
370
    25
100
AcDbLine
 10
204.4520471312
 20
59.4551402884
 30
0.0
 11
204.8199715438
 21
59.7486564053
 31
0.0
  0
LINE
  5
14E
330
1F
100
AcDbEntity
  8
0
  6
Continuous
 62
     7
370
    25
100
AcDbLine
 10
201.8192678375
 20
65.9720165259
 30
0.0
 11
200.5765526569
 21
65.4846739829
 31
0.0
  0
LINE
  5
14F
330
1F
100
AcDbEntity
  8
0
  6
Continuous
 62
     7
370
    25
100
AcDbLine
 10
203.2937490321
 20
61.3309948777
 30
0.0
 11
203.5222896699
 21
61.4629285796
 31
0.0
  0
LINE
  5
150
330
1F
100
AcDbEntity
  8
0
  6
Continuous
 62
     7
370
    25
100
AcDbLine
 10
202.2375263812
 20
63.7522572217
 30
0.0
 11
201.9813557677
 21
63.6043730744
 31
0.0
  0
LINE
  5
151
330
1F
100
AcDbEntity
  8
0
  6
Continuous
 62
     7
370
    25
100
AcDbLine
 10
202.2721185229
 20
62.952927693
 30
0.0
 11
202.4973736178
 21
63.0829646914
 31
0.0
  0
LINE
  5
152
330
1F
100
AcDbEntity
  8
0
  6
Continuous
 62
     7
370
    25
100
AcDbLine
 10
203.0953237993
 20
62.0343331167
 30
0.0
 11
202.8646352594
 21
61.9011594573
 31
0.0
  0
LINE
  5
153
330
1F
100
AcDbEntity
  8
0
  6
Continuous
 62
     7
370
    25
100
AcDbLine
 10
203.8814736482
 20
63.5459790043
 30
0.0
 11
203.9390966065
 21
63.4468014523
 31
0.0
  0
LINE
  5
154
330
1F
100
AcDbEntity
  8
0
  6
Continuous
 62
     7
370
    25
100
AcDbLine
 10
204.4830221014
 20
59.5706405877
 30
0.0
 11
203.9390966065
 21
63.4468014523
 31
0.0
  0
LINE
  5
155
330
1F
100
AcDbEntity
  8
0
  6
Continuous
 62
     7
370
    25
100
AcDbLine
 10
204.4253988139
 20
59.6698184487
 30
0.0
 11
204.4830221014
 21
59.5706405877
 31
0.0
  0
LINE
  5
156
330
1F
100
AcDbEntity
  8
0
  6
Continuous
 62
     7
370
    25
100
AcDbLine
 10
204.3617912089
 20
59.8950989787
 30
0.0
 11
204.4253988139
 21
59.6698184487
 31
0.0
  0
LINE
  5
157
330
1F
100
AcDbEntity
  8
0
  6
Continuous
 62
     7
370
    25
100
AcDbLine
 10
204.3617912089
 20
59.8950989787
 30
0.0
 11
204.3548705647
 21
59.9444166292
 31
0.0
  0
LINE
  5
158
330
1F
100
AcDbEntity
  8
0
  6
Continuous
 62
     7
370
    25
100
AcDbLine
 10
203.8676254708
 20
63.5281460599
 30
0.0
 11
203.8814736482
 21
63.5459790043
 31
0.0
  0
LINE
  5
159
330
1F
100
AcDbEntity
  8
0
  6
Continuous
 62
     7
370
    25
100
AcDbLine
 10
204.9516085406
 20
64.1637547279
 30
0.0
 11
204.1078718915
 21
63.5663098299
 31
0.0
  0
LINE
  5
15A
330
1F
100
AcDbEntity
  8
0
  6
Continuous
 62
     7
370
    25
100
AcDbLine
 10
204.0012570702
 20
63.4908168167
 30
0.0
 11
203.9390966065
 21
63.4468014523
 31
0.0
  0
LINE
  5
15B
330
1F
100
AcDbEntity
  8
0
  6
Continuous
 62
     7
370
    25
100
AcDbLine
 10
205.1774859318
 20
64.2884012676
 30
0.0
 11
204.9516085406
 21
64.1637547279
 31
0.0
  0
LINE
  5
15C
330
1F
100
AcDbEntity
  8
0
  6
Continuous
 62
     7
370
    25
100
AcDbLine
 10
205.209145459
 20
64.0627863054
 30
0.0
 11
205.1774859318
 21
64.2884012676
 31
0.0
  0
LINE
  5
15D
330
1F
100
AcDbEntity
  8
0
  6
Continuous
 62
     7
370
    25
100
AcDbLine
 10
204.8085057489
 20
59.8011135365
 30
0.0
 11
204.4830221014
 21
59.5706405877
 31
0.0
  0
LINE
  5
15E
330
1F
100
AcDbEntity
  8
0
  6
Continuous
 62
     7
370
    25
100
AcDbLine
 10
203.8814736482
 20
63.5459790043
 30
0.0
 11
203.7998239919
 21
63.6621518193
 31
0.0
  0
ARC
  5
15F
330
1F
100
AcDbEntity
  8
0
  6
Continuous
 62
     7
370
    25
100
AcDbCircle
 10
203.6298887054
 20
63.3995395315
 30
0.0
 40
0.3127990014325782
100
AcDbArc
 50
8.6903064011
 51
57.0932671152
  0
LINE
  5
160
330
1F
100
AcDbEntity
  8
0
  6
Continuous
 62
     7
370
    25
100
AcDbLine
 10
204.9516085406
 20
64.1637547279
 30
0.0
 11
203.7998239919
 21
63.6621518193
 31
0.0
  0
SPLINE
  5
161
330
1F
100
AcDbEntity
  8
0
  6
Continuous
 62
     7
370
    25
100
AcDbSpline
210
0.0
220
0.0
230
1.0
 70
     8
 71
     3
 72
    11
 73
     7
 74
     0
 42
0.000000001
 43
0.00000001
 40
0.0
 40
0.0
 40
0.0
 40
0.0
 40
0.3360297115957789
 40
0.6712275641212103
 40
0.9920225142402712
 40
0.9999999999999999
 40
0.9999999999999999
 40
0.9999999999999999
 40
0.9999999999999999
 10
203.8676254707735
 20
63.52814605990639
 30
0.0
 10
203.8589059418105
 20
63.51922329430451
 30
0.0
 10
203.8414884695331
 20
63.50139985187221
 30
0.0
 10
203.777194362317
 20
63.45209620695323
 30
0.0
 10
203.7224209782147
 20
63.41296364162535
 30
0.0
 10
203.6930776422508
 20
63.3925910555177
 30
0.0
 10
203.6923656420365
 20
63.39209672570829
 30
0.0
  0
LINE
  5
162
330
1F
100
AcDbEntity
  8
0
  6
Continuous
 62
     7
370
    25
100
AcDbLine
 10
200.9322840562
 20
65.1979709604
 30
0.0
 11
200.7491329452
 21
65.3542408022
 31
0.0
  0
LINE
  5
163
330
1F
100
AcDbEntity
  8
0
  6
Continuous
 62
     7
370
    25
100
AcDbLine
 10
200.7491329452
 20
65.3542408022
 30
0.0
 11
200.6674832889
 21
65.4704136172
 31
0.0
  0
LINE
  5
164
330
1F
100
AcDbEntity
  8
0
  6
Continuous
 62
     7
370
    25
100
AcDbLine
 10
203.7998239919
 20
63.6621518193
 30
0.0
 11
200.6674832889
 21
65.4704136172
 31
0.0
  0
LINE
  5
165
330
1F
100
AcDbEntity
  8
0
  6
Continuous
 62
     7
370
    25
100
AcDbLine
 10
200.9721376881
 20
65.1749639484
 30
0.0
 11
200.9322840562
 21
65.1979709604
 31
0.0
  0
LINE
  5
166
330
1F
100
AcDbEntity
  8
0
  6
Continuous
 62
     7
370
    25
100
AcDbLine
 10
201.8192678375
 20
65.9720165259
 30
0.0
 11
200.6674832889
 21
65.4704136172
 31
0.0
  0
LINE
  5
167
330
1F
100
AcDbEntity
  8
0
  6
Continuous
 62
     7
370
    25
100
AcDbLine
 10
202.1079391454
 20
66.060412909
 30
0.0
 11
201.8192678375
 21
65.9720165259
 31
0.0
  0
LINE
  5
168
330
1F
100
AcDbEntity
  8
0
  6
Continuous
 62
     7
370
    25
100
AcDbLine
 10
205.1774859318
 20
64.2884012676
 30
0.0
 11
202.1079391454
 21
66.060412909
 31
0.0
  0
LINE
  5
169
330
1F
100
AcDbEntity
  8
0
  6
Continuous
 62
     7
370
    25
100
AcDbLine
 10
201.0777284983
 20
64.2644938219
 30
0.0
 11
201.397226182
 21
61.9876659418
 31
0.0
  0
LWPOLYLINE
  5
16A
330
1F
100
AcDbEntity
  8
0
  6
Continuous
 62
     7
370
    25
100
AcDbPolyline
 90
        9
 70
   128
 43
0.0
 10
201.4259106521
 20
64.5426583095
 10
201.3493876979
 20
64.5771564674
 10
201.2764925008
 20
64.590663861
 10
201.2106809789
 20
64.5825400533
 10
201.1550730279
 20
64.5531702976
 10
201.1123049661
 20
64.5039469161
 10
201.0844042875
 20
64.437203532
 10
201.0726937609
 20
64.3561042227
 10
201.0777284983
 20
64.2644938219
  0
LINE
  5
16B
330
1F
100
AcDbEntity
  8
0
  6
Continuous
 62
     7
370
    25
100
AcDbLine
 10
203.2658242445
 20
63.4804988013
 30
0.0
 11
201.4259106521
 21
64.5426583095
 31
0.0
  0
ARC
  5
16C
330
1F
100
AcDbEntity
  8
0
  6
Continuous
 62
     7
370
    25
100
AcDbCircle
 10
202.8409836546
 20
62.8239656838
 30
0.0
 40
0.7820008064468376
100
AcDbArc
 50
8.6904194204
 51
57.0932165748
  0
LINE
  5
16D
330
1F
100
AcDbEntity
  8
0
  6
Continuous
 62
     7
370
    25
100
AcDbLine
 10
203.9335039172
 20
60.6652947484
 30
0.0
 11
203.6140064394
 21
62.9421225096
 31
0.0
  0
LWPOLYLINE
  5
16E
330
1F
100
AcDbEntity
  8
0
  6
Continuous
 62
     7
370
    25
100
AcDbPolyline
 90
        9
 70
   128
 43
0.0
 10
203.585321887
 20
60.3871299994
 10
203.6618447588
 20
60.3526319365
 10
203.7347400382
 20
60.3391247806
 10
203.8005513544
 20
60.3472483269
 10
203.8561595112
 20
60.3766180589
 10
203.8989273671
 20
60.4258417017
 10
203.9268282516
 20
60.4925850146
 10
203.9385388193
 20
60.5736841575
 10
203.9335039172
 20
60.6652947484
  0
LINE
  5
16F
330
1F
100
AcDbEntity
  8
0
  6
Continuous
 62
     7
370
    25
100
AcDbLine
 10
201.7454082946
 20
61.4492895075
 30
0.0
 11
203.585321887
 21
60.3871299994
 31
0.0
  0
ARC
  5
170
330
1F
100
AcDbEntity
  8
0
  6
Continuous
 62
     7
370
    25
100
AcDbCircle
 10
202.1702486264
 20
62.1058223088
 30
0.0
 40
0.7820004006545603
100
AcDbArc
 50
188.690389947
 51
237.0932198543
  0
LWPOLYLINE
  5
171
330
1F
100
AcDbEntity
  8
0
  6
Continuous
 62
     7
370
    25
100
AcDbPolyline
 90
       23
 70
   128
 43
0.0
 10
202.5056162696
 20
61.2196694879
 10
202.8094191501
 20
61.094728181
 10
203.0886097528
 20
61.080789618
 10
203.3205695434
 20
61.1789829602
 10
203.4865069543
 20
61.3813529531
 10
203.5729781288
 20
61.6715054168
 10
203.5729781288
 20
62.0259332159
 10
203.4865069543
 20
62.4159231725
 10
203.3205695434
 20
62.8098805171
 10
203.0886097528
 20
63.1758889329
 10
202.8094191501
 20
63.4842969309
 10
202.5056162696
 20
63.7101189636
 10
202.2018133891
 20
63.8350602706
 10
201.9226227864
 20
63.8489988811
 10
201.6906628311
 20
63.7508056339
 10
201.5247255848
 20
63.5484354509
 10
201.4382543281
 20
63.2582830347
 10
201.4382543281
 20
62.9038552357
 10
201.5247255848
 20
62.5138652315
 10
201.6906628311
 20
62.119908077
 10
201.9226227864
 20
61.7538995662
 10
202.2018133891
 20
61.4454915206
 10
202.5056162696
 20
61.2196694879
  0
LINE
  5
172
330
1F
100
AcDbEntity
  8
0
  6
Continuous
 62
     7
370
    25
100
AcDbLine
 10
203.270203442
 20
61.3183442335
 30
0.0
 11
203.443754286
 21
61.3093262191
 31
0.0
  0
ARC
  5
173
330
1F
100
AcDbEntity
  8
0
  6
Continuous
 62
     7
370
    25
100
AcDbCircle
 10
202.7010297488
 20
63.3911551873
 30
0.0
 40
0.8624366934014668
100
AcDbArc
 50
147.4497702594
 51
174.0534778522
  0
SPLINE
  5
174
330
1F
100
AcDbEntity
  8
0
  6
Continuous
 62
     7
370
    25
100
AcDbSpline
210
0.0
220
0.0
230
1.0
 70
     8
 71
     3
 72
     9
 73
     5
 74
     0
 42
0.000000001
 43
0.00000001
 40
0.0
 40
0.0
 40
0.0
 40
0.0
 40
0.0433027425186159
 40
1.0
 40
1.0
 40
1.0
 40
1.0
 10
204.1401431757447
 20
60.19668117342636
 30
0.0
 10
204.1408793920806
 20
60.19621340813236
 30
0.0
 10
204.1578810019811
 20
60.18541119869254
 30
0.0
 10
204.1741232491587
 20
60.17306508122229
 30
0.0
 10
204.1896621624888
 20
60.16125358449795
 30
0.0
  0
SPLINE
  5
175
330
1F
100
AcDbEntity
  8
0
  6
Continuous
 62
     7
370
    25
100
AcDbSpline
210
0.0
220
0.0
230
1.0
 70
     8
 71
     3
 72
    14
 73
    10
 74
     0
 42
0.000000001
 43
0.00000001
 40
0.0
 40
0.0
 40
0.0
 40
0.0
 40
0.3240428068897975
 40
0.4390837955103178
 40
0.5550341987596188
 40
0.6320189044388707
 40
0.7091783695879764
 40
0.8120431286657069
 40
0.9999999999999999
 40
0.9999999999999999
 40
0.9999999999999999
 40
0.9999999999999999
 10
204.3548705646619
 20
59.94441662915545
 30
0.0
 10
204.3488223142633
 20
59.97958777048714
 30
0.0
 10
204.3406268268625
 20
60.02724529566589
 30
0.0
 10
204.3168036002308
 20
60.08906818868039
 30
0.0
 10
204.298270935536
 20
60.12241168075233
 30
0.0
 10
204.2769283888704
 20
60.14655194656471
 30
0.0
 10
204.2544771467575
 20
60.16158894433629
 30
0.0
 10
204.2234282267927
 20
60.16948673893069
 30
0.0
 10
204.2029179034644
 20
60.16448572199524
 30
0.0
 10
204.1896621624888
 20
60.16125358449795
 30
0.0
  0
SPLINE
  5
176
330
1F
100
AcDbEntity
  8
0
  6
Continuous
 62
     7
370
    25
100
AcDbSpline
210
0.0
220
0.0
230
1.0
 70
     8
 71
     3
 72
    14
 73
    10
 74
     0
 42
0.000000001
 43
0.00000001
 40
0.0
 40
0.0
 40
0.0
 40
0.0
 40
0.121502513843965
 40
0.2571356283481498
 40
0.3367054914357056
 40
0.4166988585635807
 40
0.5090573828544287
 40
0.659989770017538
 40
1.0
 40
1.0
 40
1.0
 40
1.0
 10
201.1044131231574
 20
64.93181660410275
 30
0.0
 10
201.1089664381166
 20
64.94002798506315
 30
0.0
 10
201.1186026132546
 20
64.95740572101336
 30
0.0
 10
201.1255170120896
 20
64.98653119417202
 30
0.0
 10
201.1227194984759
 20
65.01775074401473
 30
0.0
 10
201.1124562056376
 20
65.04636924188192
 30
0.0
 10
201.0911579860322
 20
65.08010215728154
 30
0.0
 10
201.0440650192256
 20
65.12980685447616
 30
0.0
 10
201.0015689951435
 20
65.15648651743012
 30
0.0
 10
200.9721376880684
 20
65.17496394843738
 30
0.0
  0
SPLINE
  5
177
330
1F
100
AcDbEntity
  8
0
  6
Continuous
 62
     7
370
    25
100
AcDbSpline
210
0.0
220
0.0
230
1.0
 70
     8
 71
     3
 72
     9
 73
     5
 74
     0
 42
0.000000001
 43
0.00000001
 40
0.0
 40
0.0
 40
0.0
 40
0.0
 40
0.9566958222924803
 40
1.0
 40
1.0
 40
1.0
 40
1.0
 10
201.1044131231574
 20
64.93181660410275
 30
0.0
 10
201.1084476024222
 20
64.91336377050361
 30
0.0
 10
201.1126646996131
 20
64.89407568209646
 30
0.0
 10
201.1150798751547
 20
64.87485285552177
 30
0.0
 10
201.1151844623456
 20
64.87402042682373
 30
0.0
  0
LWPOLYLINE
  5
178
330
1F
100
AcDbEntity
  8
0
  6
Continuous
 62
     7
370
    25
100
AcDbPolyline
 90
        9
 70
   128
 43
0.0
 10
204.3437491576
 20
59.4593748402
 10
204.3743583063
 20
59.4455756911
 10
204.4035163522
 20
59.4401728667
 10
204.4298410104
 20
59.4434221332
 10
204.452084339
 20
59.4551701401
 10
204.4691913496
 20
59.4748593691
 10
204.4803517034
 20
59.5015568463
 10
204.4850359305
 20
59.5339963514
 10
204.4830221014
 20
59.5706405877
  0
LINE
  5
179
330
1F
100
AcDbEntity
  8
0
  6
Continuous
 62
     7
370
    25
100
AcDbLine
 10
204.4253988139
 20
59.6698184487
 30
0.0
 11
204.3437491576
 21
59.4593748402
 31
0.0
  0
SPLINE
  5
17A
330
1F
100
AcDbEntity
  8
0
  6
Continuous
 62
     7
370
    25
100
AcDbSpline
210
0.0
220
0.0
230
1.0
 70
     8
 71
     3
 72
    14
 73
    10
 74
     0
 42
0.000000001
 43
0.00000001
 40
0.0
 40
0.0
 40
0.0
 40
0.0
 40
0.1215030875000534
 40
0.2571362787043359
 40
0.3367057659932997
 40
0.4166995342924514
 40
0.5090578962147291
 40
0.659990003818796
 40
1.0
 40
1.0
 40
1.0
 40
1.0
 10
204.1896621624888
 20
60.16125358449795
 30
0.0
 10
204.1851088029391
 20
60.15304218189705
 30
0.0
 10
204.1754725545582
 20
60.1356644382431
 30
0.0
 10
204.1685581070307
 20
60.1065389954036
 30
0.0
 10
204.1713554827695
 20
60.0753194330139
 30
0.0
 10
204.181619137395
 20
60.04670093448351
 30
0.0
 10
204.2029172128954
 20
60.01296801290395
 30
0.0
 10
204.2500100879426
 20
59.96326306100342
 30
0.0
 10
204.2925061018182
 20
59.93658347204963
 30
0.0
 10
204.3219374123622
 20
59.91810608567689
 30
0.0
  0
LINE
  5
17B
330
1F
100
AcDbEntity
  8
0
  6
Continuous
 62
     7
370
    25
100
AcDbLine
 10
201.2114085471
 20
61.2676365847
 30
0.0
 11
204.3437491576
 21
59.4593748402
 31
0.0
  0
LINE
  5
17C
330
1F
100
AcDbEntity
  8
0
  6
Continuous
 62
     7
370
    25
100
AcDbLine
 10
201.2930582034
 20
61.4780801931
 30
0.0
 11
201.2114085471
 21
61.2676365847
 31
0.0
  0
LINE
  5
17D
330
1F
100
AcDbEntity
  8
0
  6
Continuous
 62
     7
370
    25
100
AcDbLine
 10
201.367997713
 20
61.5311802109
 30
0.0
 11
201.2930582034
 21
61.4780801931
 31
0.0
  0
LINE
  5
17E
330
1F
100
AcDbEntity
  8
0
  6
Continuous
 62
     7
370
    25
100
AcDbLine
 10
204.3219374124
 20
59.9181060857
 30
0.0
 11
204.3617912089
 21
59.8950989787
 31
0.0
  0
LINE
  5
17F
330
1F
100
AcDbEntity
  8
0
  6
Continuous
 62
     7
370
    25
100
AcDbLine
 10
201.2930582034
 20
61.4780801931
 30
0.0
 11
201.0721356856
 21
61.48298732
 31
0.0
  0
LINE
  5
180
330
1F
100
AcDbEntity
  8
0
  6
Continuous
 62
     7
370
    25
100
AcDbLine
 10
200.5282104444
 20
65.3591477885
 30
0.0
 11
201.0721356856
 21
61.48298732
 31
0.0
  0
LINE
  5
181
330
1F
100
AcDbEntity
  8
0
  6
Continuous
 62
     7
370
    25
100
AcDbLine
 10
200.7491329452
 20
65.3542408022
 30
0.0
 11
200.5282104444
 21
65.3591477885
 31
0.0
  0
LINE
  5
182
330
1F
100
AcDbEntity
  8
0
  6
Continuous
 62
     7
370
    25
100
AcDbLine
 10
200.9322840562
 20
65.1979709604
 30
0.0
 11
200.9392045563
 21
65.1486535119
 31
0.0
  0
SPLINE
  5
183
330
1F
100
AcDbEntity
  8
0
  6
Continuous
 62
     7
370
    25
100
AcDbSpline
210
0.0
220
0.0
230
1.0
 70
     8
 71
     3
 72
    14
 73
    10
 74
     0
 42
0.000000001
 43
0.00000001
 40
0.0
 40
0.0
 40
0.0
 40
0.0
 40
0.3240420653042756
 40
0.4390834215948017
 40
0.5550338258648012
 40
0.6320175639914547
 40
0.7091775713715915
 40
0.8120429406586155
 40
1.0
 40
1.0
 40
1.0
 40
1.0
 10
200.9392045563482
 20
65.14865351190086
 30
0.0
 10
200.94525278327
 20
65.11348241635648
 30
0.0
 10
200.9534482506359
 20
65.06582488473826
 30
0.0
 10
200.9772717061455
 20
65.00400206279514
 30
0.0
 10
200.9958042513312
 20
64.97065852915465
 30
0.0
 10
201.0171467838033
 20
64.94651842017515
 30
0.0
 10
201.0395980103644
 20
64.93148088067147
 30
0.0
 10
201.0706470933842
 20
64.92358322343719
 30
0.0
 10
201.0911574097836
 20
64.9285843812168
 30
0.0
 10
201.1044131231574
 20
64.93181660410275
 30
0.0
  0
LWPOLYLINE
  5
184
330
1F
100
AcDbEntity
  8
0
  6
Continuous
 62
     7
370
    25
100
AcDbPolyline
 90
        9
 70
   128
 43
0.0
 10
200.6674832889
 20
65.4704136172
 10
200.6368741093
 20
65.4842128651
 10
200.6077160428
 20
65.4896158105
 10
200.5813914258
 20
65.4863663064
 10
200.559148249
 20
65.474618408
 10
200.5420410171
 20
65.4549290572
 10
200.5308807521
 20
65.4282316891
 10
200.5261965381
 20
65.3957919626
 10
200.5282104444
 20
65.3591477885
  0
SPLINE
  5
185
330
1F
100
AcDbEntity
  8
0
  6
Continuous
 62
     7
370
    25
100
AcDbSpline
210
0.0
220
0.0
230
1.0
 70
     8
 71
     3
 72
    11
 73
     7
 74
     0
 42
0.000000001
 43
0.00000001
 40
0.0
 40
0.0
 40
0.0
 40
0.0
 40
0.0079771995783184
 40
0.3287729737803238
 40
0.66397047812843
 40
1.0
 40
1.0
 40
1.0
 40
1.0
 10
201.5074608321583
 20
61.64656459203939
 30
0.0
 10
201.5074208675765
 20
61.64645820395612
 30
0.0
 10
201.5057737639412
 20
61.6420735165517
 30
0.0
 10
201.4927671168127
 20
61.62705432344216
 30
0.0
 10
201.447063667971
 20
61.5884811727834
 30
0.0
 10
201.3943748014591
 20
61.55029630885508
 30
0.0
 10
201.3679977130369
 20
61.53118021092198
 30
0.0
  0
ARC
  5
186
330
1F
100
AcDbEntity
  8
0
  6
Continuous
 62
     7
370
    25
100
AcDbCircle
 10
201.3813441948
 20
61.5302493796
 30
0.0
 40
0.3127996234100963
100
AcDbArc
 50
188.6903147107
 51
237.0932620568
  0
LWPOLYLINE
  5
187
330
1F
100
AcDbEntity
  8
0
  6
Continuous
 62
     7
370
    25
100
AcDbPolyline
 90
       21
 70
   128
 43
0.0
 10
203.2851520628
 20
61.3261601887
 10
203.4588868054
 20
61.4945280508
 10
203.5522239648
 20
61.7581552625
 10
203.5560267301
 20
62.0912358942
 10
203.4699226942
 20
62.4611659199
 10
203.3023402391
 20
62.8317342183
 10
203.0696840377
 20
63.166666538
 10
202.7947277115
 20
63.433177563
 10
202.50438581
 20
63.6051794779
 10
202.2270793032
 20
63.6658353542
 10
201.9899528193
 20
63.609207811
 10
201.8162179121
 20
63.4408398538
 10
201.722880835
 20
63.1772128797
 10
201.7190782343
 20
62.8441319628
 10
201.8051822702
 20
62.4742018421
 10
201.9727645607
 20
62.1036338288
 10
202.2054209268
 20
61.7687013191
 10
202.4803772529
 20
61.502190294
 10
202.7707189898
 20
61.3301884742
 10
203.0480254966
 20
61.2695325979
 10
203.2851520628
 20
61.3261601887
  0
LWPOLYLINE
  5
188
330
1F
100
AcDbEntity
  8
0
  6
Continuous
 62
     7
370
    25
100
AcDbPolyline
 90
       18
 70
   128
 43
0.0
 10
202.9842378569
 20
61.6287069308
 10
203.1189246968
 20
61.771743247
 10
203.1754472426
 20
62.0011777334
 10
203.1461721404
 20
62.286023948
 10
203.0350529621
 20
62.587811775
 10
202.8570971139
 20
62.8657831422
 10
202.6363385069
 20
63.0823964421
 10
202.4025915911
 20
63.2083969934
 10
202.1874255087
 20
63.226767458
 10
202.0198993591
 20
63.135027081
 10
201.9226387561
 20
62.9455657359
 10
201.9087788637
 20
62.6839713795
 10
201.9801919241
 20
62.3855734876
 10
202.1272330589
 20
62.0906727414
 10
202.3300436939
 20
61.8390966166
 10
202.5612328228
 20
61.6648224015
 10
202.7895773687
 20
61.5913864395
 10
202.9842378569
 20
61.6287069308
  0
LWPOLYLINE
  5
189
330
1F
100
AcDbEntity
  8
0
  6
Continuous
 62
     7
370
    25
100
AcDbPolyline
 90
        3
 70
   128
 43
0.0
 10
202.3336567572
 20
63.793454243
 10
202.2461234328
 20
63.7570919583
 10
202.2375263812
 20
63.7522572217
  0
ARC
  5
18A
330
1F
100
AcDbEntity
  8
0
  6
Continuous
 62
     7
370
    25
100
AcDbCircle
 10
202.074130136
 20
62.080412966
 30
0.0
 40
1.053512206210841
100
AcDbArc
 50
350.7335102733
 51
32.3260663563
  0
ARC
  5
18B
330
1F
100
AcDbEntity
  8
0
  6
Continuous
 62
     7
370
    25
100
AcDbCircle
 10
202.0139566797
 20
62.1639619992
 30
0.0
 40
1.064655620041581
100
AcDbArc
 50
26.7863414223
 51
69.1247198649
  0
ARC
  5
18C
330
1F
100
AcDbEntity
  8
0
  6
Continuous
 62
     7
370
    25
100
AcDbCircle
 10
202.2831688982
 20
62.859029326
 30
0.0
 40
0.3193073623026811
100
AcDbArc
 50
69.8180692265
 51
165.5404076686
  0
LINE
  5
18D
330
1F
100
AcDbEntity
  8
0
  6
Continuous
 62
     7
370
    25
100
AcDbLine
 10
201.9659026607
 20
62.9100079841
 30
0.0
 11
201.9739759225
 21
62.9387594671
 31
0.0
  0
ARC
  5
18E
330
1F
100
AcDbEntity
  8
0
  6
Continuous
 62
     7
370
    25
100
AcDbCircle
 10
202.9929483706
 20
62.7421265699
 30
0.0
 40
1.040676250999109
100
AcDbArc
 50
170.7165046618
 51
211.1377310196
  0
LINE
  5
18F
330
1F
100
AcDbEntity
  8
0
  6
Continuous
 62
     7
370
    25
100
AcDbLine
 10
202.1318194921
 20
62.1519263664
 30
0.0
 11
202.1022057334
 21
62.2039959039
 31
0.0
  0
ARC
  5
190
330
1F
100
AcDbEntity
  8
0
  6
Continuous
 62
     7
370
    25
100
AcDbCircle
 10
203.0747686483
 20
62.6611925662
 30
0.0
 40
1.071683336312884
100
AcDbArc
 50
208.3725112464
 51
247.5385377624
  0
LINE
  5
191
330
1F
100
AcDbEntity
  8
0
  6
Continuous
 62
     7
370
    25
100
AcDbLine
 10
202.7063747153
 20
61.6591500396
 30
0.0
 11
202.6653192397
 21
61.6708106423
 31
0.0
  0
ARC
  5
192
330
1F
100
AcDbEntity
  8
0
  6
Continuous
 62
     7
370
    25
100
AcDbCircle
 10
202.7995304173
 20
61.9614018257
 30
0.0
 40
0.3162817209632662
100
AcDbArc
 50
252.8704074009
 51
345.4820370445
  0
LINE
  5
193
330
1F
100
AcDbEntity
  8
0
  6
Continuous
 62
     7
370
    25
100
AcDbLine
 10
203.1138940753
 20
61.91076946
 30
0.0
 11
203.1057129768
 21
61.8821152111
 31
0.0
  0
SPLINE
  5
194
330
1F
100
AcDbEntity
  8
0
  6
Continuous
 62
     7
370
    25
100
AcDbSpline
210
0.0
220
0.0
230
1.0
 70
     8
 71
     3
 72
    12
 73
     8
 74
     0
 42
0.000000001
 43
0.00000001
 40
0.0
 40
0.0
 40
0.0
 40
0.0
 40
0.0091681644262607
 40
0.257326675411096
 40
0.5054940656779502
 40
0.7549924802550586
 40
1.0
 40
1.0
 40
1.0
 40
1.0
 10
202.9643675934627
 20
62.64376475477025
 30
0.0
 10
202.9640278426897
 20
62.64436108862323
 30
0.0
 10
202.9544919167573
 20
62.661098638332
 30
0.0
 10
202.9328572204006
 20
62.69273141281531
 30
0.0
 10
202.8973157701874
 20
62.72932702089162
 30
0.0
 10
202.8615399572398
 20
62.75350254888108
 30
0.0
 10
202.841940256636
 20
62.75631903750542
 30
0.0
 10
202.8322294044513
 20
62.75771449273526
 30
0.0
  0
SPLINE
  5
195
330
1F
100
AcDbEntity
  8
0
  6
Continuous
 62
     7
370
    25
100
AcDbSpline
210
0.0
220
0.0
230
1.0
 70
     8
 71
     3
 72
    12
 73
     8
 74
     0
 42
0.000000001
 43
0.00000001
 40
0.0
 40
0.0
 40
0.0
 40
0.0
 40
0.2058435129763208
 40
0.4120691947092607
 40
0.6141399031210575
 40
0.8132603052097342
 40
1.0
 40
1.0
 40
1.0
 40
1.0
 10
202.8322294044513
 20
62.75771449273526
 30
0.0
 10
202.8147626719993
 20
62.76025004682961
 30
0.0
 10
202.7797967783861
 20
62.76532586252423
 30
0.0
 10
202.7141655991793
 20
62.80762334721296
 30
0.0
 10
202.6473612405412
 20
62.86907268396268
 30
0.0
 10
202.585823659456
 20
62.94280690159221
 30
0.0
 10
202.5559683781945
 20
62.99474412991728
 30
0.0
 10
202.54151970585
 20
63.01987951511032
 30
0.0
  0
SPLINE
  5
196
330
1F
100
AcDbEntity
  8
0
  6
Continuous
 62
     7
370
    25
100
AcDbSpline
210
0.0
220
0.0
230
1.0
 70
     8
 71
     3
 72
    11
 73
     7
 74
     0
 42
0.000000001
 43
0.00000001
 40
0.0
 40
0.0
 40
0.0
 40
0.0
 40
0.2535083926347527
 40
0.5075673069468027
 40
0.759505785458209
 40
1.0
 40
1.0
 40
1.0
 40
1.0
 10
202.54151970585
 20
63.01987951511032
 30
0.0
 10
202.532171029703
 20
63.03590899380583
 30
0.0
 10
202.5134533757187
 20
63.06800276099311
 30
0.0
 10
202.4744094645399
 20
63.1107392212337
 30
0.0
 10
202.4325412923279
 20
63.14374151155125
 30
0.0
 10
202.4061967758605
 20
63.15381306833551
 30
0.0
 10
202.3933306443369
 20
63.15873181392695
 30
0.0
  0
SPLINE
  5
197
330
1F
100
AcDbEntity
  8
0
  6
Continuous
 62
     7
370
    25
100
AcDbSpline
210
0.0
220
0.0
230
1.0
 70
     8
 71
     3
 72
    12
 73
     8
 74
     0
 42
0.000000001
 43
0.00000001
 40
0.0
 40
0.0
 40
0.0
 40
0.0
 40
0.2058582953603277
 40
0.4121026328995084
 40
0.6141938801469118
 40
0.8133179863346403
 40
0.9999999999999999
 40
0.9999999999999999
 40
0.9999999999999999
 40
0.9999999999999999
 10
203.0677675059553
 20
62.09315817685634
 30
0.0
 10
203.0521119625022
 20
62.12134151314878
 30
0.0
 10
203.0207715170504
 20
62.17776103741268
 30
0.0
 10
202.9892474084398
 20
62.2725869160672
 30
0.0
 10
202.9731818155163
 20
62.35949501931029
 30
0.0
 10
202.9732394652109
 20
62.43087191184568
 30
0.0
 10
202.986721071119
 20
62.46004904560058
 30
0.0
 10
202.9932444858832
 20
62.47416713705133
 30
0.0
  0
SPLINE
  5
198
330
1F
100
AcDbEntity
  8
0
  6
Continuous
 62
     7
370
    25
100
AcDbSpline
210
0.0
220
0.0
230
1.0
 70
     8
 71
     3
 72
    11
 73
     7
 74
     0
 42
0.000000001
 43
0.00000001
 40
0.0
 40
0.0
 40
0.0
 40
0.0
 40
0.2524787649583728
 40
0.5068903264113663
 40
0.7591786635227731
 40
1.0
 40
1.0
 40
1.0
 40
1.0
 10
202.9932444858832
 20
62.47416713705133
 30
0.0
 10
202.9972683695555
 20
62.4832579620703
 30
0.0
 10
203.0053469408699
 20
62.50150920494997
 30
0.0
 10
203.0026594617049
 20
62.54520144763756
 30
0.0
 10
202.9894607528504
 20
62.59464979222873
 30
0.0
 10
202.9726012940386
 20
62.62764889270957
 30
0.0
 10
202.9643675934627
 20
62.64376475477025
 30
0.0
  0
SPLINE
  5
199
330
1F
100
AcDbEntity
  8
0
  6
Continuous
 62
     7
370
    25
100
AcDbSpline
210
0.0
220
0.0
230
1.0
 70
     8
 71
     3
 72
    11
 73
     7
 74
     0
 42
0.000000001
 43
0.00000001
 40
0.0
 40
0.0
 40
0.0
 40
0.0
 40
0.2423609499151093
 40
0.5166846226611018
 40
0.792333662065661
 40
0.9999999999999999
 40
0.9999999999999999
 40
0.9999999999999999
 40
0.9999999999999999
 10
203.1138940752672
 20
61.9107694599949
 30
0.0
 10
203.1149764863866
 20
61.92406019691475
 30
0.0
 10
203.1172840577215
 20
61.95239446195509
 30
0.0
 10
203.1077917984822
 20
62.00396471816491
 30
0.0
 10
203.0903420944624
 20
62.05349344508674
 30
0.0
 10
203.0745520300925
 20
62.08123741338364
 30
0.0
 10
203.0677675059553
 20
62.09315817685634
 30
0.0
  0
SPLINE
  5
19A
330
1F
100
AcDbEntity
  8
0
  6
Continuous
 62
     7
370
    25
100
AcDbSpline
210
0.0
220
0.0
230
1.0
 70
     8
 71
     3
 72
    12
 73
     8
 74
     0
 42
0.000000001
 43
0.00000001
 40
0.0
 40
0.0
 40
0.0
 40
0.0
 40
0.0091728170392391
 40
0.2576773005513212
 40
0.5061892896705903
 40
0.7560354962150931
 40
1.0
 40
1.0
 40
1.0
 40
1.0
 10
202.3933306443369
 20
63.15873181392695
 30
0.0
 10
202.3928616580224
 20
63.15886186262203
 30
0.0
 10
202.379687174436
 20
63.16251511293161
 30
0.0
 10
202.3554725235971
 20
63.16408697686033
 30
0.0
 10
202.3295669288584
 20
63.1502769607078
 30
0.0
 10
202.3151200304278
 20
63.12277440998976
 30
0.0
 10
202.3170820092137
 20
63.0961948471262
 30
0.0
 10
202.3180513141942
 20
63.08306335821926
 30
0.0
  0
SPLINE
  5
19B
330
1F
100
AcDbEntity
  8
0
  6
Continuous
 62
     7
370
    25
100
AcDbSpline
210
0.0
220
0.0
230
1.0
 70
     8
 71
     3
 72
    11
 73
     7
 74
     0
 42
0.000000001
 43
0.00000001
 40
0.0
 40
0.0
 40
0.0
 40
0.0
 40
0.2802374342629094
 40
0.5612870463962046
 40
0.8399904552121905
 40
0.9999999999999999
 40
0.9999999999999999
 40
0.9999999999999999
 40
0.9999999999999999
 10
203.0053142986291
 20
61.87279481874071
 30
0.0
 10
203.0166724773342
 20
61.86475618222086
 30
0.0
 10
203.0394217527642
 20
61.84865561178441
 30
0.0
 10
203.0713586143648
 20
61.84716257047467
 30
0.0
 10
203.0936824749307
 20
61.8601999737739
 30
0.0
 10
203.1024978059766
 20
61.87625832886197
 30
0.0
 10
203.1057129768446
 20
61.88211521105927
 30
0.0
  0
SPLINE
  5
19C
330
1F
100
AcDbEntity
  8
0
  6
Continuous
 62
     7
370
    25
100
AcDbSpline
210
0.0
220
0.0
230
1.0
 70
     8
 71
     3
 72
    12
 73
     8
 74
     0
 42
0.000000001
 43
0.00000001
 40
0.0
 40
0.0
 40
0.0
 40
0.0
 40
0.2057531924191252
 40
0.411960383509867
 40
0.6140149362664986
 40
0.8131414492692497
 40
1.0
 40
1.0
 40
1.0
 40
1.0
 10
202.3180513141942
 20
63.08306335821926
 30
0.0
 10
202.3196922106222
 20
63.05941968880634
 30
0.0
 10
202.3229776241501
 20
63.01208017973531
 30
0.0
 10
202.2944377385417
 20
62.96276153878456
 30
0.0
 10
202.243304156354
 20
62.9370588124527
 30
0.0
 10
202.1758472314073
 20
62.93600895947451
 30
0.0
 10
202.1259973662578
 20
62.95501725352224
 30
0.0
 10
202.101864635665
 20
62.96421932534145
 30
0.0
  0
SPLINE
  5
19D
330
1F
100
AcDbEntity
  8
0
  6
Continuous
 62
     7
370
    25
100
AcDbSpline
210
0.0
220
0.0
230
1.0
 70
     8
 71
     3
 72
    11
 73
     7
 74
     0
 42
0.000000001
 43
0.00000001
 40
0.0
 40
0.0
 40
0.0
 40
0.0
 40
0.279406114845528
 40
0.5596238358628534
 40
0.8375012968036917
 40
0.9999999999999999
 40
0.9999999999999999
 40
0.9999999999999999
 40
0.9999999999999999
 10
202.101864635665
 20
62.96421932534145
 30
0.0
 10
202.0864704011308
 20
62.96992912069968
 30
0.0
 10
202.0556372155902
 20
62.98136529696993
 30
0.0
 10
202.014917400632
 20
62.97778484656488
 30
0.0
 10
201.9875708351682
 20
62.96185093065763
 30
0.0
 10
201.9776402909814
 20
62.94498353295945
 30
0.0
 10
201.9739759224624
 20
62.93875946709153
 30
0.0
  0
SPLINE
  5
19E
330
1F
100
AcDbEntity
  8
0
  6
Continuous
 62
     7
370
    25
100
AcDbSpline
210
0.0
220
0.0
230
1.0
 70
     8
 71
     3
 72
    11
 73
     7
 74
     0
 42
0.000000001
 43
0.00000001
 40
0.0
 40
0.0
 40
0.0
 40
0.0
 40
0.2657599494892757
 40
0.5530028072415284
 40
0.8418204396101501
 40
0.9999999999999999
 40
0.9999999999999999
 40
0.9999999999999999
 40
0.9999999999999999
 10
202.7063747152903
 20
61.6591500395651
 30
0.0
 10
202.7175173933593
 20
61.66029293617743
 30
0.0
 10
202.7407034763798
 20
61.66267111632166
 30
0.0
 10
202.7680526454523
 20
61.68740613842477
 30
0.0
 10
202.783897691276
 20
61.72029212640563
 30
0.0
 10
202.78776072961
 20
61.74515329612527
 30
0.0
 10
202.7891277487219
 20
61.75395095517266
 30
0.0
  0
SPLINE
  5
19F
330
1F
100
AcDbEntity
  8
0
  6
Continuous
 62
     7
370
    25
100
AcDbSpline
210
0.0
220
0.0
230
1.0
 70
     8
 71
     3
 72
    12
 73
     8
 74
     0
 42
0.000000001
 43
0.00000001
 40
0.0
 40
0.0
 40
0.0
 40
0.0
 40
0.2057903032818489
 40
0.4120345292371089
 40
0.6141305018660744
 40
0.8132633132735624
 40
1.0
 40
1.0
 40
1.0
 40
1.0
 10
202.7891277487219
 20
61.75395095517266
 30
0.0
 10
202.7943902118963
 20
61.78158282506276
 30
0.0
 10
202.8049267459415
 20
61.83690751393554
 30
0.0
 10
202.8445799973396
 20
61.89263904202663
 30
0.0
 10
202.894909610201
 20
61.91786382535387
 30
0.0
 10
202.9506420434845
 20
61.91212973913148
 30
0.0
 10
202.9874847395857
 20
61.88562261016286
 30
0.0
 10
203.0053142986291
 20
61.87279481874071
 30
0.0
  0
LWPOLYLINE
  5
1A0
330
1F
100
AcDbEntity
  8
0
  6
Continuous
 62
     7
370
    25
100
AcDbPolyline
 90
        3
 70
   128
 43
0.0
 10
203.0826736326
 20
62.0270302613
 10
203.0709627356
 20
62.0449726646
 10
203.0471242476
 20
62.0950783733
  0
ARC
  5
1A1
330
1F
100
AcDbEntity
  8
0
  6
Continuous
 62
     7
370
    25
100
AcDbCircle
 10
202.7082799675
 20
62.0116042147
 30
0.0
 40
0.348974757449123
100
AcDbArc
 50
13.8392265028
 51
82.0718363119
  0
ARC
  5
1A2
330
1F
100
AcDbEntity
  8
0
  6
Continuous
 62
     7
370
    25
100
AcDbCircle
 10
202.7863568622
 20
62.5617549663
 30
0.0
 40
0.2066918591689801
100
AcDbArc
 50
157.5246107793
 51
261.6705671263
  0
ARC
  5
1A3
330
1F
100
AcDbEntity
  8
0
  6
Continuous
 62
     7
370
    25
100
AcDbCircle
 10
202.2828668231
 20
62.7773617793
 30
0.0
 40
0.3410454457215933
100
AcDbArc
 50
336.3900849299
 51
45.7694124027
  0
LWPOLYLINE
  5
1A4
330
1F
100
AcDbEntity
  8
0
  6
Continuous
 62
     7
370
    25
100
AcDbPolyline
 90
        3
 70
   128
 43
0.0
 10
202.5207622994
 20
63.0217339103
 10
202.4898783729
 20
63.0679664907
 10
202.4856386634
 20
63.076190309
  0
SPLINE
  5
1A5
330
1F
100
AcDbEntity
  8
0
  6
Continuous
 62
     7
370
    25
100
AcDbSpline
210
0.0
220
0.0
230
1.0
 70
     8
 71
     3
 72
    11
 73
     7
 74
     0
 42
0.000000001
 43
0.00000001
 40
0.0
 40
0.0
 40
0.0
 40
0.0
 40
0.2431097603370735
 40
0.5182797016884725
 40
0.7947793464462055
 40
1.0
 40
1.0
 40
1.0
 40
1.0
 10
201.965902660703
 20
62.91000798408233
 30
0.0
 10
201.9655643404927
 20
62.89709345638471
 30
0.0
 10
201.9648430839813
 20
62.86956129332675
 30
0.0
 10
201.9808857549583
 20
62.82166842649874
 30
0.0
 10
202.0070436591226
 20
62.77737919852579
 30
0.0
 10
202.0297418120115
 20
62.75387095500122
 30
0.0
 10
202.0394115929749
 20
62.74385606229912
 30
0.0
  0
SPLINE
  5
1A6
330
1F
100
AcDbEntity
  8
0
  6
Continuous
 62
     7
370
    25
100
AcDbSpline
210
0.0
220
0.0
230
1.0
 70
     8
 71
     3
 72
    11
 73
     7
 74
     0
 42
0.000000001
 43
0.00000001
 40
0.0
 40
0.0
 40
0.0
 40
0.0
 40
0.2928993121755267
 40
0.5864341313879033
 40
0.8775180904583931
 40
1.0
 40
1.0
 40
1.0
 40
1.0
 10
202.5656596233135
 20
61.81713476189817
 30
0.0
 10
202.5709681679706
 20
61.79878130777365
 30
0.0
 10
202.5815967752956
 20
61.76203457782221
 30
0.0
 10
202.6118877232762
 20
61.71413212942272
 30
0.0
 10
202.6415074151263
 20
61.68470924859301
 30
0.0
 10
202.6598784602085
 20
61.67398634400973
 30
0.0
 10
202.6653192396653
 20
61.67081064231655
 30
0.0
  0
SPLINE
  5
1A7
330
1F
100
AcDbEntity
  8
0
  6
Continuous
 62
     7
370
    25
100
AcDbSpline
210
0.0
220
0.0
230
1.0
 70
     8
 71
     3
 72
    12
 73
     8
 74
     0
 42
0.000000001
 43
0.00000001
 40
0.0
 40
0.0
 40
0.0
 40
0.0
 40
0.2058179655261549
 40
0.4120216291432814
 40
0.6140781907705941
 40
0.8132130815856001
 40
1.0
 40
1.0
 40
1.0
 40
1.0
 10
202.0394115929749
 20
62.74385606229912
 30
0.0
 10
202.0619693165033
 20
62.71966299692601
 30
0.0
 10
202.1071270362106
 20
62.67123152893672
 30
0.0
 10
202.1497518719702
 20
62.58282863092733
 30
0.0
 10
202.1650033859169
 20
62.49545485351488
 30
0.0
 10
202.1532296332077
 20
62.41729390676807
 30
0.0
 10
202.1267506310481
 20
62.38060465608476
 30
0.0
 10
202.113934741669
 20
62.3628469862403
 30
0.0
  0
SPLINE
  5
1A8
330
1F
100
AcDbEntity
  8
0
  6
Continuous
 62
     7
370
    25
100
AcDbSpline
210
0.0
220
0.0
230
1.0
 70
     8
 71
     3
 72
    11
 73
     7
 74
     0
 42
0.000000001
 43
0.00000001
 40
0.0
 40
0.0
 40
0.0
 40
0.0
 40
0.2908634488835936
 40
0.5839555344176106
 40
0.8745981521027989
 40
1.0
 40
1.0
 40
1.0
 40
1.0
 10
202.113934741669
 20
62.3628469862403
 30
0.0
 10
202.1058967858407
 20
62.35143947293461
 30
0.0
 10
202.089759286236
 20
62.328537040352
 30
0.0
 10
202.0836200108104
 20
62.27973221875661
 30
0.0
 10
202.0899762024896
 20
62.23644678134492
 30
0.0
 10
202.0993733089708
 20
62.21151169979657
 30
0.0
 10
202.1022057334233
 20
62.20399590386054
 30
0.0
  0
SPLINE
  5
1A9
330
1F
100
AcDbEntity
  8
0
  6
Continuous
 62
     7
370
    25
100
AcDbSpline
210
0.0
220
0.0
230
1.0
 70
     8
 71
     3
 72
    11
 73
     7
 74
     0
 42
0.000000001
 43
0.00000001
 40
0.0
 40
0.0
 40
0.0
 40
0.0
 40
0.2669002422718138
 40
0.5546138980680909
 40
0.8439067081922907
 40
0.9999999999999999
 40
0.9999999999999999
 40
0.9999999999999999
 40
0.9999999999999999
 10
202.1318194921305
 20
62.151926366368
 30
0.0
 10
202.14294563876
 20
62.13888814153699
 30
0.0
 10
202.1660655711368
 20
62.11179494508328
 30
0.0
 10
202.2088734498631
 20
62.08577661628907
 30
0.0
 10
202.2466165879845
 20
62.07598327025935
 30
0.0
 10
202.2675969815462
 20
62.07843909711562
 30
0.0
 10
202.2749499247123
 20
62.07929978427321
 30
0.0
  0
SPLINE
  5
1AA
330
1F
100
AcDbEntity
  8
0
  6
Continuous
 62
     7
370
    25
100
AcDbSpline
210
0.0
220
0.0
230
1.0
 70
     8
 71
     3
 72
    12
 73
     8
 74
     0
 42
0.000000001
 43
0.00000001
 40
0.0
 40
0.0
 40
0.0
 40
0.0
 40
0.2058400071450203
 40
0.4120617328569507
 40
0.6141388531247232
 40
0.8132772058082388
 40
1.0
 40
1.0
 40
1.0
 40
1.0
 10
202.2749499247123
 20
62.07929978427321
 30
0.0
 10
202.2993213821201
 20
62.08075040946155
 30
0.0
 10
202.3481094924152
 20
62.08365434994
 30
0.0
 10
202.4248422932219
 20
62.04776656800514
 30
0.0
 10
202.4908271639476
 20
61.98584225022506
 30
0.0
 10
202.5406385827805
 20
61.90533664061454
 30
0.0
 10
202.5575001234275
 20
61.84589788301572
 30
0.0
 10
202.5656596233135
 20
61.81713476189817
 30
0.0
  0
ARC
  5
1AB
330
1F
100
AcDbEntity
  8
0
  6
Continuous
 62
     7
370
    25
100
AcDbCircle
 10
263.0948361003
 20
30.0182370663
 30
0.0
 40
9.207245321611623
100
AcDbArc
 50
306.4931377577
 51
350.0104690253
  0
ELLIPSE
  5
1AC
330
1F
100
AcDbEntity
  8
0
  6
Continuous
 62
     7
370
    25
100
AcDbEllipse
 10
252.215567641
 20
39.9379233707
 30
0.0
 11
20.00000011433758
 21
-11.54763104626866
 31
0.0
210
0.0
220
0.0
230
1.0
 40
0.0000703729
 41
0.0393796435040587
 42
0.0729092430539134
  0
LINE
  5
1AD
330
1F
100
AcDbEntity
  8
0
  6
Continuous
 62
     7
370
    25
100
AcDbLine
 10
272.2000936006
 20
22.5385067798
 30
0.0
 11
272.2000936006
 21
28.3992999849
 31
0.0
  0
SPLINE
  5
1AE
330
1F
100
AcDbEntity
  8
0
  6
Continuous
 62
     7
370
    25
100
AcDbSpline
210
0.0
220
0.0
230
1.0
 70
     8
 71
     3
 72
    37
 73
    33
 74
     0
 42
0.000000001
 43
0.00000001
 40
0.0
 40
0.0
 40
0.0
 40
0.0
 40
0.0275003270974921
 40
0.0546390490402472
 40
0.0814161799116561
 40
0.1078317343890607
 40
0.1338857277764915
 40
0.1595781760397018
 40
0.1849090958437067
 40
0.2098785045930258
 40
0.2344864204748858
 40
0.2587328625056299
 40
0.2826178505806372
 40
0.3061414055280688
 40
0.329303549166805
 40
0.3521043043689512
 40
0.3745436951273839
 40
0.3966217466288026
 40
0.4183384853328454
 40
0.4396939390578896
 40
0.4606881370742123
 40
0.4813211102052888
 40
0.5015928909380932
 40
0.5611045083895119
 40
0.6195806556399971
 40
0.6770222010319291
 40
0.7334300610276994
 40
0.7888052037528892
 40
0.8431486528674438
 40
0.8964614918013903
 40
0.9487448683964089
 40
1.0
 40
1.0
 40
1.0
 40
1.0
 10
268.2739153100883
 20
13.99925888651739
 30
0.0
 10
268.338657679735
 20
14.07152431721089
 30
0.0
 10
268.4672911137143
 20
14.21510495163674
 30
0.0
 10
268.6535795441119
 20
14.43110767842026
 30
0.0
 10
268.8334947587054
 20
14.64563806680383
 30
0.0
 10
269.0067797711957
 20
14.85874066265851
 30
0.0
 10
269.1736593093765
 20
15.07027454127556
 30
0.0
 10
269.3342343672332
 20
15.28015191650372
 30
0.0
 10
269.4886408632492
 20
15.48827543823161
 30
0.0
 10
269.6370077024278
 20
15.69455459106191
 30
0.0
 10
269.7794674970171
 20
15.8989013279773
 30
0.0
 10
269.9161534798096
 20
16.10123114891703
 30
0.0
 10
270.0472000487515
 20
16.30146274778037
 30
0.0
 10
270.1727423687408
 20
16.49951803193515
 30
0.0
 10
270.292916229876
 20
16.69532204090231
 30
0.0
 10
270.4078578478413
 20
16.88880289053191
 30
0.0
 10
270.5177036881246
 20
17.07989170259072
 30
0.0
 10
270.6225902945526
 20
17.26852255684242
 30
0.0
 10
270.722654119787
 20
17.45463236018995
 30
0.0
 10
270.818031384933
 20
17.63816101008479
 30
0.0
 10
270.9088578638844
 20
17.81905048205513
 30
0.0
 10
270.9952689728569
 20
17.99724782647426
 30
0.0
 10
271.1308790397426
 20
18.28693875273217
 30
0.0
 10
271.3052675197258
 20
18.68741048751666
 30
0.0
 10
271.5030362303161
 20
19.19795734668555
 30
0.0
 10
271.6743444757033
 20
19.70124580293012
 30
0.0
 10
271.8201822570373
 20
20.19664082214681
 30
0.0
 10
271.941520216483
 20
20.68355105758691
 30
0.0
 10
272.0395239824042
 20
21.1614463510399
 30
0.0
 10
272.1147376888991
 20
21.62977869864713
 30
0.0
 10
272.1700268695897
 20
22.08826671036264
 30
0.0
 10
272.1901359812566
 20
22.38965171431077
 30
0.0
 10
272.2000906849012
 20
22.53884768312922
 30
0.0
  0
LINE
  5
1AF
330
1F
100
AcDbEntity
  8
0
  6
Continuous
 62
     7
370
    25
100
AcDbLine
 10
268.2739315865
 20
13.999196706
 30
0.0
 11
268.2739315865
 21
21.6444632341
 31
0.0
  0
ELLIPSE
  5
1B0
330
1F
100
AcDbEntity
  8
0
  6
Continuous
 62
     7
370
    25
100
AcDbEllipse
 10
252.215567641
 20
19.6132030201
 30
0.0
 11
13.01649776296142
 21
69.53397910300843
 31
0.0
210
0.0
220
0.0
230
1.0
 40
0.2183760757
 41
4.782437672753477
 42
4.789841869021407
  0
ELLIPSE
  5
1B1
330
1F
100
AcDbEntity
  8
0
  6
Continuous
 62
     7
370
    25
100
AcDbEllipse
 10
252.215567641
 20
26.4649999746
 30
0.0
 11
14.1427102357506
 21
24.49456561252438
 31
0.0
210
0.0
220
0.0
230
1.0
 40
0.5773346305
 41
4.866610250030882
 42
4.884527884378945
  0
LINE
  5
1B2
330
1F
100
AcDbEntity
  8
0
  6
Continuous
 62
     7
370
    25
100
AcDbLine
 10
210.6951185434
 20
56.0270948459
 30
0.0
 11
268.5706289364
 21
22.6162738654
 31
0.0
  0
LINE
  5
1B3
330
1F
100
AcDbEntity
  8
0
  6
Continuous
 62
     7
370
    25
100
AcDbLine
 10
210.4450927366
 20
55.5940376369
 30
0.0
 11
268.3617595272
 21
22.1594575737
 31
0.0
  0
LINE
  5
1B4
330
1F
100
AcDbEntity
  8
0
  6
Continuous
 62
     7
370
    25
100
AcDbLine
 10
268.2739315865
 20
21.6444632341
 30
0.0
 11
208.4190826981
 21
56.1979320061
 31
0.0
  0
SPLINE
  5
1B5
330
1F
100
AcDbEntity
  8
0
  6
Continuous
 62
     7
370
    25
100
AcDbSpline
210
0.0
220
0.0
230
1.0
 70
     8
 71
     3
 72
     8
 73
     4
 74
     0
 42
0.000000001
 43
0.00000001
 40
0.0
 40
0.0
 40
0.0
 40
0.0
 40
1.0
 40
1.0
 40
1.0
 40
1.0
 10
210.4450927194025
 20
55.59403779235944
 30
0.0
 10
210.3633742237734
 20
55.64121287573623
 30
0.0
 10
210.2953067016237
 20
55.72574784479951
 30
0.0
 10
210.2360234308455
 20
55.81832501085367
 30
0.0
  0
LINE
  5
1B6
330
1F
100
AcDbEntity
  8
0
  6
Continuous
 62
     7
370
    25
100
AcDbLine
 10
209.7337657217
 20
56.3025838341
 30
0.0
 11
209.9203755033
 21
56.1948563002
 31
0.0
  0
ARC
  5
1B7
330
1F
100
AcDbEntity
  8
0
  6
Continuous
 62
     7
370
    25
100
AcDbCircle
 10
221.0591253975
 20
28.3398045656
 30
0.0
 40
30.16920277708602
100
AcDbArc
 50
91.8768348155
 51
112.0487115448
  0
LINE
  5
1B8
330
1F
100
AcDbEntity
  8
0
  6
Continuous
 62
     7
370
    25
100
AcDbLine
 10
272.1624946605
 20
28.4210725014
 30
0.0
 11
220.0710511453
 21
58.4928227475
 31
0.0
  0
ARC
  5
1B9
330
1F
100
AcDbEntity
  8
0
  6
Continuous
 62
     7
370
    25
100
AcDbCircle
 10
210.0077371208
 20
54.7254929246
 30
0.0
 40
1.471958145381225
100
AcDbArc
 50
62.1612782374
 51
93.4025391748
  0
LINE
  5
1BA
330
1F
100
AcDbEntity
  8
0
  6
Continuous
 62
     7
370
    25
100
AcDbLine
 10
267.6113936646
 20
13.6769522668
 30
0.0
 11
268.2758176579
 21
13.9981200676
 31
0.0
  0
LINE
  5
1BB
330
1F
100
AcDbEntity
  8
0
  6
Continuous
 62
     7
370
    25
100
AcDbLine
 10
267.6115780571
 20
13.6770435396
 30
0.0
 11
211.9817610711
 21
45.7914533112
 31
0.0
  0
LINE
  5
1BC
330
1F
100
AcDbEntity
  8
0
  6
Continuous
 62
     7
370
    25
100
AcDbLine
 10
211.5038948343
 20
46.619143431
 30
0.0
 11
211.9817610711
 21
45.7914533112
 31
0.0
  0
LINE
  5
1BD
330
1F
100
AcDbEntity
  8
0
  6
Continuous
 62
     7
370
    25
100
AcDbLine
 10
205.8654607938
 20
49.874142118
 30
0.0
 11
211.5038948343
 21
46.619143431
 31
0.0
  0
LINE
  5
1BE
330
1F
100
AcDbEntity
  8
0
  6
Continuous
 62
     7
370
    25
100
AcDbLine
 10
205.8654607938
 20
49.874142118
 30
0.0
 11
205.1583540614
 21
51.0988870915
 31
0.0
  0
LINE
  5
1BF
330
1F
100
AcDbEntity
  8
0
  6
Continuous
 62
     7
370
    25
100
AcDbLine
 10
205.1583540614
 20
51.0988870915
 30
0.0
 11
204.2212162506
 21
57.7771880698
 31
0.0
  0
LINE
  5
1C0
330
1F
100
AcDbEntity
  8
0
  6
Continuous
 62
     7
370
    25
100
AcDbLine
 10
267.3948350898
 20
13.8020916836
 30
0.0
 11
212.9031055029
 21
45.2594975844
 31
0.0
  0
LINE
  5
1C1
330
1F
100
AcDbEntity
  8
0
  6
Continuous
 62
     7
370
    25
100
AcDbLine
 10
212.9031055029
 20
45.2594975844
 30
0.0
 11
211.9817610711
 21
45.7914533112
 31
0.0
  0
SPLINE
  5
1C2
330
1F
100
AcDbEntity
  8
0
  6
Continuous
 62
     7
370
    25
100
AcDbSpline
210
0.0
220
0.0
230
1.0
 70
     8
 71
     3
 72
    11
 73
     7
 74
     0
 42
0.000000001
 43
0.00000001
 40
0.0004681206978772
 40
0.0004681206978772
 40
0.0004681206978772
 40
0.0004681206978772
 40
0.0014317779784607
 40
0.0014317779784607
 40
0.0014317779784607
 40
0.0028636779784317
 40
0.0028636779784317
 40
0.0028636779784317
 40
0.0028636779784317
 10
267.6108872771526
 20
13.67744289041364
 30
0.0
 10
267.5829663999194
 20
13.69355096179845
 30
0.0
 10
267.5546352934214
 20
13.70989588653437
 30
0.0
 10
267.5258799691508
 20
13.72648574150168
 30
0.0
 10
267.4831524624983
 20
13.75113658987362
 30
0.0
 10
267.4394877111057
 20
13.77632857404384
 30
0.0
 10
267.3948369766548
 20
13.80208983529761
 30
0.0
  0
SPLINE
  5
1C3
330
1F
100
AcDbEntity
  8
0
  6
Continuous
 62
     7
370
    25
100
AcDbSpline
210
0.0
220
0.0
230
1.0
 70
     8
 71
     3
 72
     8
 73
     4
 74
     0
 42
0.000000001
 43
0.00000001
 40
0.0
 40
0.0
 40
0.0
 40
0.0
 40
1.0
 40
1.0
 40
1.0
 40
1.0
 10
209.7337655807601
 20
56.30258430126466
 30
0.0
 10
209.6954897529474
 20
56.38097107829899
 30
0.0
 10
209.6132423278486
 20
56.41847171516332
 30
0.0
 10
209.5165919948394
 20
56.40275052236994
 30
0.0
  0
ELLIPSE
  5
1C4
330
1F
100
AcDbEntity
  8
0
  6
Continuous
 62
     7
370
    25
100
AcDbEllipse
 10
221.5271333375
 20
47.7866951692
 30
0.0
 11
19.94115740178759
 21
-3.732909205824534
 31
0.0
210
0.0
220
0.0
230
1.0
 40
0.4106849769
 41
2.291684181384798
 42
2.43292223917076
  0
LINE
  5
1C5
330
1F
100
AcDbEntity
  8
0
  6
Continuous
 62
     7
370
    25
100
AcDbLine
 10
207.3849980344
 20
55.9507761705
 30
0.0
 11
207.3849980344
 21
61.5516345804
 31
0.0
  0
ELLIPSE
  5
1C6
330
1F
100
AcDbEntity
  8
0
  6
Continuous
 62
     7
370
    25
100
AcDbEllipse
 10
221.5271333375
 20
53.3875536552
 30
0.0
 11
19.9771458000686
 21
-1.900286507117116
 31
0.0
210
0.0
220
0.0
230
1.0
 40
0.5030021235
 41
2.101599647581068
 42
2.404005110224608
  0
ELLIPSE
  5
1C7
330
1F
100
AcDbEntity
  8
0
  6
Continuous
 62
     7
370
    25
100
AcDbEllipse
 10
221.5271333375
 20
57.6539793973
 30
0.0
 11
19.9999999874062
 21
-11.54763097298081
 31
0.0
210
0.0
220
0.0
230
1.0
 40
0.0000703729
 41
4.229436911785665
 42
4.639561001887501
  0
LINE
  5
1C8
330
1F
100
AcDbEntity
  8
0
  6
Continuous
 62
     7
370
    25
100
AcDbLine
 10
207.3849980344
 20
61.5516345804
 30
0.0
 11
203.9990874954
 21
63.5062791289
 31
0.0
  0
LINE
  5
1C9
330
1F
100
AcDbEntity
  8
0
  6
Continuous
 62
     7
370
    25
100
AcDbLine
 10
204.401839204
 20
63.72853047
 30
0.0
 11
203.9990874954
 21
63.5062791289
 31
0.0
  0
LINE
  5
1CA
330
1F
100
AcDbEntity
  8
0
  6
Continuous
 62
     7
370
    25
100
AcDbLine
 10
205.3048589763
 20
64.102415118
 30
0.0
 11
204.401839204
 21
63.72853047
 31
0.0
  0
LINE
  5
1CB
330
1F
100
AcDbEntity
  8
0
  6
Continuous
 62
     7
370
    25
100
AcDbLine
 10
205.3048589763
 20
64.102415118
 30
0.0
 11
205.1946574798
 21
64.1660330878
 31
0.0
  0
ELLIPSE
  5
1CC
330
1F
100
AcDbEntity
  8
0
  6
Continuous
 62
     7
370
    25
100
AcDbEllipse
 10
215.0559199032
 20
57.0516907024
 30
0.0
 11
20.34432874749174
 21
-2.11417126096282
 31
0.0
210
0.0
220
0.0
230
1.0
 40
0.4916381667
 41
2.096538264056803
 42
2.296878506926451
  0
LINE
  5
1CD
330
1F
100
AcDbEntity
  8
0
  6
Continuous
 62
     7
370
    25
100
AcDbLine
 10
212.2385009037
 20
63.0154022594
 30
0.0
 11
205.7450563026
 21
66.7639880367
 31
0.0
  0
LWPOLYLINE
  5
1CE
330
1F
100
AcDbEntity
  8
0
  6
Continuous
 62
     7
370
    25
100
AcDbPolyline
 90
       11
 70
   128
 43
0.0
 10
204.4272998055
 20
60.454720155
 10
204.6276646062
 20
60.2132138503
 10
204.7709312932
 20
59.9255707979
 10
204.8351993103
 20
59.6357617589
 10
204.810645149
 20
59.3880871476
 10
204.7010215253
 20
59.2204075316
 10
204.5230864213
 20
59.1583551244
 10
204.3040390421
 20
59.2114150704
 10
204.0773640712
 20
59.3714765627
 10
203.8777114864
 20
59.6140722973
 10
203.7849386995
 20
59.7819694258
  0
LINE
  5
1CF
330
1F
100
AcDbEntity
  8
0
  6
Continuous
 62
     7
370
    25
100
AcDbLine
 10
203.9990874954
 20
63.5062791289
 30
0.0
 11
204.4272998055
 21
60.454720155
 31
0.0
  0
LINE
  5
1D0
330
1F
100
AcDbEntity
  8
0
  6
Continuous
 62
     7
370
    25
100
AcDbLine
 10
207.3849980344
 20
55.9507761705
 30
0.0
 11
201.6232652819
 21
59.2769536888
 31
0.0
  0
LINE
  5
1D1
330
1F
100
AcDbEntity
  8
0
  6
Continuous
 62
     7
370
    25
100
AcDbLine
 10
201.6232652819
 20
59.2769536888
 30
0.0
 11
201.3556020069
 21
61.184395647
 31
0.0
  0
SPLINE
  5
1D2
330
1F
100
AcDbEntity
  8
0
  6
Continuous
 62
     7
370
    25
100
AcDbSpline
210
0.0
220
0.0
230
1.0
 70
     8
 71
     3
 72
     8
 73
     4
 74
     0
 42
0.000000001
 43
0.00000001
 40
0.0
 40
0.0
 40
0.0
 40
0.0
 40
1.0
 40
1.0
 40
1.0
 40
1.0
 10
210.2360234308458
 20
55.818325010854
 30
0.0
 10
210.1492154431606
 20
55.95388496537862
 30
0.0
 10
210.045288319131
 20
56.08154770056347
 30
0.0
 10
209.9203752723311
 20
56.19485681936463
 30
0.0
  0
OLE2FRAME
  5
1D3
330
1F
100
AcDbEntity
  8
0
100
AcDbOle2Frame
 70
     2
  3
Paintbrush-Bild
 10
13.8511154363
 20
38.264191557
 30
0.0
 11
51.6290888628
 21
31.9806341108
 31
0.0
 71
     2
 72
     0
 73
     1
 90
    12928
310
80552BED0767C5B32B40DDAF6807D121434000000000000000006FFBDDFB85D0
310
4940DDAF6807D121434000000000000000006FFBDDFB85D04940416F4BD60AFB
310
3F4000000000000000002BED0767C5B32B40416F4BD60AFB3F40000000000000
310
0000000000000100000000010000010000000100000000000100000000320000
310
D0CF11E0A1B11AE1000000000000000000000000000000003E000300FEFF0900
310
0600000000000000000000000100000001000000000000000010000002000000
310
01000000FEFFFFFF0000000000000000FFFFFFFFFFFFFFFFFFFFFFFFFFFFFFFF
310
FFFFFFFFFFFFFFFFFFFFFFFFFFFFFFFFFFFFFFFFFFFFFFFFFFFFFFFFFFFFFFFF
310
FFFFFFFFFFFFFFFFFFFFFFFFFFFFFFFFFFFFFFFFFFFFFFFFFFFFFFFFFFFFFFFF
310
FFFFFFFFFFFFFFFFFFFFFFFFFFFFFFFFFFFFFFFFFFFFFFFFFFFFFFFFFFFFFFFF
310
FFFFFFFFFFFFFFFFFFFFFFFFFFFFFFFFFFFFFFFFFFFFFFFFFFFFFFFFFFFFFFFF
310
FFFFFFFFFFFFFFFFFFFFFFFFFFFFFFFFFFFFFFFFFFFFFFFFFFFFFFFFFFFFFFFF
310
FFFFFFFFFFFFFFFFFFFFFFFFFFFFFFFFFFFFFFFFFFFFFFFFFFFFFFFFFFFFFFFF
310
FFFFFFFFFFFFFFFFFFFFFFFFFFFFFFFFFFFFFFFFFFFFFFFFFFFFFFFFFFFFFFFF
310
FFFFFFFFFFFFFFFFFFFFFFFFFFFFFFFFFFFFFFFFFFFFFFFFFFFFFFFFFFFFFFFF
310
FFFFFFFFFFFFFFFFFFFFFFFFFFFFFFFFFFFFFFFFFFFFFFFFFFFFFFFFFFFFFFFF
310
FFFFFFFFFFFFFFFFFFFFFFFFFFFFFFFFFFFFFFFFFFFFFFFFFFFFFFFFFFFFFFFF
310
FFFFFFFFFFFFFFFFFFFFFFFFFFFFFFFFFFFFFFFFFFFFFFFFFFFFFFFFFFFFFFFF
310
FFFFFFFFFFFFFFFFFFFFFFFFFFFFFFFFFFFFFFFFFFFFFFFFFFFFFFFFFFFFFFFF
310
FFFFFFFFFFFFFFFFFFFFFFFFFFFFFFFFFFFFFFFFFFFFFFFFFFFFFFFFFFFFFFFF
310
FDFFFFFFFEFFFFFFFEFFFFFFFEFFFFFF05000000060000000700000008000000
310
090000000A0000000B0000000C0000000D0000000E0000000F00000010000000
310
11000000120000001300000014000000150000001600000017000000FEFFFFFF
310
FFFFFFFFFFFFFFFFFFFFFFFFFFFFFFFFFFFFFFFFFFFFFFFFFFFFFFFFFFFFFFFF
310
FFFFFFFFFFFFFFFFFFFFFFFFFFFFFFFFFFFFFFFFFFFFFFFFFFFFFFFFFFFFFFFF
310
FFFFFFFFFFFFFFFFFFFFFFFFFFFFFFFFFFFFFFFFFFFFFFFFFFFFFFFFFFFFFFFF
310
FFFFFFFFFFFFFFFFFFFFFFFFFFFFFFFFFFFFFFFFFFFFFFFFFFFFFFFFFFFFFFFF
310
FFFFFFFFFFFFFFFFFFFFFFFFFFFFFFFFFFFFFFFFFFFFFFFFFFFFFFFFFFFFFFFF
310
FFFFFFFFFFFFFFFFFFFFFFFFFFFFFFFFFFFFFFFFFFFFFFFFFFFFFFFFFFFFFFFF
310
FFFFFFFFFFFFFFFFFFFFFFFFFFFFFFFFFFFFFFFFFFFFFFFFFFFFFFFFFFFFFFFF
310
FFFFFFFFFFFFFFFFFFFFFFFFFFFFFFFFFFFFFFFFFFFFFFFFFFFFFFFFFFFFFFFF
310
FFFFFFFFFFFFFFFFFFFFFFFFFFFFFFFFFFFFFFFFFFFFFFFFFFFFFFFFFFFFFFFF
310
FFFFFFFFFFFFFFFFFFFFFFFFFFFFFFFFFFFFFFFFFFFFFFFFFFFFFFFFFFFFFFFF
310
FFFFFFFFFFFFFFFFFFFFFFFFFFFFFFFFFFFFFFFFFFFFFFFFFFFFFFFFFFFFFFFF
310
FFFFFFFFFFFFFFFFFFFFFFFFFFFFFFFFFFFFFFFFFFFFFFFFFFFFFFFFFFFFFFFF
310
FFFFFFFFFFFFFFFFFFFFFFFFFFFFFFFFFFFFFFFFFFFFFFFFFFFFFFFFFFFFFFFF
310
52006F006F007400200045006E00740072007900000000000000000000000000
310
0000000000000000000000000000000000000000000000000000000000000000
310
16000500FFFFFFFFFFFFFFFF020000000A00030000000000C000000000000046
310
0000000000000000000000007053EBFB24B5D30103000000C000000000000000
310
01004F006C006500000000000000000000000000000000000000000000000000
310
0000000000000000000000000000000000000000000000000000000000000000
310
0A000200FFFFFFFFFFFFFFFFFFFFFFFF00000000000000000000000000000000
310
0000000000000000000000000000000000000000000000001400000000000000
310
010043006F006D0070004F0062006A0000000000000000000000000000000000
310
0000000000000000000000000000000000000000000000000000000000000000
310
120002010100000003000000FFFFFFFF00000000000000000000000000000000
310
0000000000000000000000000000000000000000010000004D00000000000000
310
01004F006C006500310030004E00610074006900760065000000000000000000
310
0000000000000000000000000000000000000000000000000000000000000000
310
1A000200FFFFFFFFFFFFFFFFFFFFFFFF00000000000000000000000000000000
310
0000000000000000000000000000000000000000040000002426000000000000
310
FEFFFFFF02000000FEFFFFFFFFFFFFFFFFFFFFFFFFFFFFFFFFFFFFFFFFFFFFFF
310
FFFFFFFFFFFFFFFFFFFFFFFFFFFFFFFFFFFFFFFFFFFFFFFFFFFFFFFFFFFFFFFF
310
FFFFFFFFFFFFFFFFFFFFFFFFFFFFFFFFFFFFFFFFFFFFFFFFFFFFFFFFFFFFFFFF
310
FFFFFFFFFFFFFFFFFFFFFFFFFFFFFFFFFFFFFFFFFFFFFFFFFFFFFFFFFFFFFFFF
310
FFFFFFFFFFFFFFFFFFFFFFFFFFFFFFFFFFFFFFFFFFFFFFFFFFFFFFFFFFFFFFFF
310
FFFFFFFFFFFFFFFFFFFFFFFFFFFFFFFFFFFFFFFFFFFFFFFFFFFFFFFFFFFFFFFF
310
FFFFFFFFFFFFFFFFFFFFFFFFFFFFFFFFFFFFFFFFFFFFFFFFFFFFFFFFFFFFFFFF
310
FFFFFFFFFFFFFFFFFFFFFFFFFFFFFFFFFFFFFFFFFFFFFFFFFFFFFFFFFFFFFFFF
310
FFFFFFFFFFFFFFFFFFFFFFFFFFFFFFFFFFFFFFFFFFFFFFFFFFFFFFFFFFFFFFFF
310
FFFFFFFFFFFFFFFFFFFFFFFFFFFFFFFFFFFFFFFFFFFFFFFFFFFFFFFFFFFFFFFF
310
FFFFFFFFFFFFFFFFFFFFFFFFFFFFFFFFFFFFFFFFFFFFFFFFFFFFFFFFFFFFFFFF
310
FFFFFFFFFFFFFFFFFFFFFFFFFFFFFFFFFFFFFFFFFFFFFFFFFFFFFFFFFFFFFFFF
310
FFFFFFFFFFFFFFFFFFFFFFFFFFFFFFFFFFFFFFFFFFFFFFFFFFFFFFFFFFFFFFFF
310
FFFFFFFFFFFFFFFFFFFFFFFFFFFFFFFFFFFFFFFFFFFFFFFFFFFFFFFFFFFFFFFF
310
FFFFFFFFFFFFFFFFFFFFFFFFFFFFFFFFFFFFFFFFFFFFFFFFFFFFFFFFFFFFFFFF
310
FFFFFFFFFFFFFFFFFFFFFFFFFFFFFFFFFFFFFFFFFFFFFFFFFFFFFFFFFFFFFFFF
310
0100000200000000000000000000000000000000000000000000000000000000
310
0000000000000000000000000000000000000000000000000000000000000000
310
0100FEFF030A0000FFFFFFFF0A00030000000000C00000000000004607000000
310
5042727573680007000000504272757368000700000050427275736800F439B2
310
7100000000000000000000000000000000000000000000000000000000000000
310
0000000000000000000000000000000000000000000000000000000000000000
310
0000000000000000000000000000000000000000000000000000000000000000
310
0000000000000000000000000000000000000000000000000000000000000000
310
0000000000000000000000000000000000000000000000000000000000000000
310
0000000000000000000000000000000000000000000000000000000000000000
310
0000000000000000000000000000000000000000000000000000000000000000
310
0000000000000000000000000000000000000000000000000000000000000000
310
0000000000000000000000000000000000000000000000000000000000000000
310
0000000000000000000000000000000000000000000000000000000000000000
310
0000000000000000000000000000000000000000000000000000000000000000
310
0000000000000000000000000000000000000000000000000000000000000000
310
20260000424D0E260000000000003E00000028000000B40200006E0000000100
310
01000000000000000000130B0000130B00000200000002000000000000FFFFFF
310
FFFFFFFFFFFFFFFFFFFFFFFFFFFFFFFFFFFFFFFFFFFFFFFFFFFFFFFFFFFFFFFF
310
FFFFFFFFFFFFFFFFFFFFFFFFFFFFFFFFFFFFFFFFFFFFFFFFFFFFFFFFFFFFFFFF
310
FFFFFFFFFFFFFFFFFFFFFFFFFFFFFFFFFFFFFFFFFFFFFFFFF000FFFFFFFFFFFF
310
FFFFFFFFFFFFFFFFFFFFFFFFFFFFFFFFFFFFFFFFFFFFFFFFFFFFFFFFFFFFFFFF
310
FFFFFFFFFFFFFFFFFFFFFFFFFFFFFFFFFFFFFFFFFFFFFFFFFFFFFFFFFFFFFFFF
310
FFFFFFFFFFFFFFFFFFFFFFFFFFFFFFFFF000FFFFFFFFFFFFFFFFFFFFFFFFFFFF
310
FFFFFFFFFFFFFFFFFFFFFFFFFFFFFFFFFFFFFFFFFFFFFFFFFFFFFFFFFFFFFFFF
310
FFFFFFFFFFFFFFFFFFFFFFFFFFFFFFFFFFFFFFFFFFFFFFFFFFFFFFFFFFFFFFFF
310
FFFFFFFFFFFFFFFFF000FFFFFFFFFFFFFFFFFFFFFFFFFFFFFFFFFFFFFFFFFFFF
310
FFFFFFFFFFFFFFFFFFFFFFFFFFFFFFFFFFFFFFFFFFFFFFFFFFFFFFFFFFFFFFFF
310
FFFFFFFFFFFFFFFFFFFFFFFFFFFFFFFFFFFFFFFFFFFFFFFFFFFFFFFFFFFFFFFF
310
F000FFFFFFFFFFFFFFFFFFFFFFFFFFFFFFFFFFFFFFFFFFFFFFFFFFFFFFFFFFFF
310
FFFFFFFFFFFFFFFFFFFFFFFFFFFFFFFFFFFFFFFFFFFFFFFFFFFFFFFFFFFFFFFF
310
FFFFFFFFFFFFFFFFFFFFFFFFFFFFFFFFFFFFFFFFFFFFFFFFF000FFFFFFFFFFFF
310
FFFFFFFFFFFFFFFFFFFFFFFFFFFFFFFFFFFFFFFFFFFFFFFFFFFFFFFFFFFFFFFF
310
FFFFFFFFFFFFFFFFFFFFFFFFFFFFFFFFFFFFFFFFFFFFFFFFFFFFFFFFFFFFFFFF
310
FFFFFFFFFFFFFFFFFFFFFFFFFFFFFFFFF000FFFFFFFFFFFFFFFFFFFFFFFFFFFF
310
FFFFFFFFFFFFFFFFFFFFFFFFFFFFFFFFFFFFFFFFFFFFFFFFFFFFFFFFFFFFFFFF
310
FFFFFFFFFFFFFFFFFFFFFFFFFFFFFFFFFFFFFFFFFFFFFFFFFFFFFFFFFFFFFFFF
310
FFFFFFFFFFFFFFFFF000FFFFFFFFFFFFFFFFFFFFFFFFFFFFFFFFFFFFFFFFFFFF
310
FFFFFFFFFFFFFFFFFFFFFFFFFFFFFFFFFFFFFFFFFFFFFFFFFFFFFFFFFFFFFFFF
310
FFFFFFFFFFFFFFFFFFFFFFFFFFFFFFFFFFFFFFFFFFFFFFFFFFFFFFFFFFFFFFFF
310
F000FFFFFFFFFFFFFFFFFFFFFFFFFFFFFFFFFFFFFFFFFFFFFFFFFFFFFFFFFFFF
310
FFFFFFFFFFFFFFFFFFFFFFFFFFFFFFFFFFFFFFFFFFFFFFFFFFFFFFFFFFFFFFFF
310
FFFFFFFFFFFFFFFFFFFFFFFFFFFFFFFFFFFFFFFFFFFFFFFFF000FFFFFFFFFFFF
310
FFFFFFFFFFFFFFFFFFFFFFFFFFFFFFFFFFFFFFFFFFFFFFFFFFFFFFFFFFFFFFFF
310
FFFFFFFFFFFFFFFFFFFFFFFFFFFFFFFFFFFFFFFFFFFFFFFFFFFFFFFFFFFFFFFF
310
FFFFFFFFFFFFFFFFFFFFFFFFFFFFFFFFF000FFFFFFFFFFFFFFFFFFFFFFFFFFFF
310
FFFFFFFFFFFFFFFFFFFFFFFFFFFFFFFFFFFFFFFFFFFFFFFFFFFFFFFFFFFFFFFF
310
FFFFFFFFFFFFFFFFFFFFFFFFFFFFFFFFFFFFFFFFFFFFFFFFFFFFFFFFFFFFFFFF
310
FFFFFFFFFFFFFFFFF000FFFFFFFFFFFFFFFFFFFFFFFFFFFFFFFFFFFFFFFFFFFF
310
FFFFFFFFFFFFFFFFFFFFFFFFFFFFFFFFFFFFFFFFFFFFFFFFFFFFFFFFFFFFFFFF
310
FFFFFFFFFFFFFFFFFFFFFFFFFFFFFFFFFFFFFFFFFFFFFFFFFFFFFFFFFFFFFFFF
310
F000FFFFFFFFFFFFFFFFFFFFFFFFFFFFFFFFFFFFFFFFFFFFFFFFFFFFFFFFFFFF
310
FFFFFFFFFFFFFFFFFFFFFFFFFFFFFFFFFFFFFFFFFFFFFFFFFFFFFFFFFFFFFFFF
310
FFFFFFFFFFFFFFFFFFFFFFFFFFFFFFFFFFFFFFFFFFFFFFFFF000FFFFFFFFFFFF
310
FFFFFFFFFFFFFFFFFFFFFFFFFFFFFFFFFFFFFFFFFFFFFFFFFFFFFFFFFFFFFFFF
310
FFFFFFFFFFFFFFFFFFFFFFFFFFFFFFFFFFFFFFFFFFFFFFFFFFFFFFFFFFFFFFFF
310
FFFFFFFFFFFFFFFFFFFFFFFFFFFFFFFFF000FFFFFFFFFFFFFFFFFFFFFFFFFFFF
310
FFFFFFFFFFFFFFFFFFFFFFFFFFFFFFFFFFFFFFFFFFFFFFFFFFFFFFFFFFFFFFFF
310
FFFFFFFFFFFFFFFFFFFFFFFFFFFFFFFFFFFFFFFFFFFFFFFFFFFFFFFFFFFFFFFF
310
FFFFFFFFFFFFFFFFF000FFFFFFFFFFFFFFFFFFFFFFFFFFFFFFFFFFFFFFFFFFFF
310
FFFFFFFFFFFFFFFFFFFFFFFFFFFFFFFFFFFFFFFFFFFFFFFFFFFFFFFFFFFFFFFF
310
FFFFFFFFFFFFFFFFFFFFFFFFFFFFFFFFFFFFFFFFFFFFFFFFFFFFFFFFFFFFFFFF
310
F000FFFFFFFFFFFFFFFFFFFFFFFFFFFFFFFFFFFFFFFFFFFFFFFFFFFFFFFFFFFF
310
FFFFFFFFFFFFFFFFFFFFFFFFFFFFFFFFFFFFFFFFFFFFFFFFFFFFFFFFFFFFFFFF
310
FFFFFFFFFFFFFFFFFFFFFFFFFFFFFFFFFFFFFFFFFFFFFFFFF000FFFFFFFFFFFF
310
FFFFFFFFFFFFFFFFFFFFFFFFFFFFFFFFFFFFFFFFFFFFFFFFFFFFFFFFFFFFFFFF
310
FFFFFFFFFFFFFFFFFFFFFFFFFFFFFFFFFFFFFFFFFFFFFFFFFFFFFFFFFFFFFFFF
310
FFFFFFFFFFFFFFFFFFFFFFFFFFFFFFFFF000FFFFFFFFFFFFFFFFFFFFFFFFFFFF
310
FFFFFFFFFFFFFFFFFFFFFFFFFFFFFFFFFFFFFFFFFFFFFFFFFFFFFFFFFFFFFFFF
310
FFFFFFFFFFFFFFFFFFFFFFFFFFFFFFFFFFFFFFFFFFFFFFFFFFFFFFFFFFFFFFFF
310
FFFFFFFFFFFFFFFFF000FFFFF80003FFFFFFFFFFFFFFFFFFFFFFFFFFFFFFFFFF
310
FFFFF00007FFFFFFFFFF00007FFFFFF800000000000000007FFFFFFFFFFFFFFF
310
FFFFFFFC001FFFFFFFFFFFFFFC001FFFFFFFFFFFFFFFFFFFFFFFFFFE0007FFFF
310
F000FFFF8000007FFFFFFFF8000FFFFFC0007FFFFF80007FFFFF0000007FFFFF
310
FFF8000007FFFFF800000000000000007FFFFFF0001FFFFFFFFFFFC00001FFFF
310
FFFFFFFFC00001FFFFFFFF000000000003FFFFE000007FFFF000FFFE0000000F
310
FFFFFFF0000FFFFF80007FFFFF80007FFFFC0000001FFFFFFFC0000001FFFFF8
310
00000000000000007FFFFFF0001FFFFFFFFFFE0000003FFFFFFFFFFE0000003F
310
FFFFFF000000000003FFFF0000000FFFF000FFF800000003FFFFFFF00007FFFF
310
80007FFFFF80007FFFF000000007FFFFFF000000003FFFF80000000000000000
310
7FFFFFF0001FFFFFFFFFF80000000FFFFFFFFFF80000000FFFFFFF0000000000
310
03FFFC00000003FFF000FFE000000000FFFFFFF00007FFFF80003FFFFF80007F
310
FFC000000001FFFFFC000000001FFFF800000000000000007FFFFFF0001FFFFF
310
FFFFE000000003FFFFFFFFE000000003FFFFFF000000000003FFF000000000FF
310
F000FF80000000007FFFFFF00007FFFF80003FFFFF80007FFF8000000000FFFF
310
F80000000007FFF800000000000000007FFFFFF0001FFFFFFFFFC000000001FF
310
FFFFFFC000000001FFFFFF000000000003FFC0000000007FF000FF0000000000
310
3FFFFFE00007FFFF00003FFFFF80007FFE00000000003FFFF00000000003FFF8
310
00000000000000007FFFFFF0001FFFFFFFFF8000000000FFFFFFFF8000000000
310
FFFFFF000000000003FF80000000003FF000FE00000000001FFFFFE00003FFFF
310
00003FFFFF80007FFC00000000001FFFE00000000001FFF8000001FFFE000000
310
7FFFFFF0001FFFFFFFFE00000000003FFFFFFE00000000003FFFFF0000000000
310
03FF00000000001FF000FC00000000000FFFFFE00003FFFF00001FFFFF80007F
310
F800000000001FFFC00000000000FFF8000001FFFE0000007FFFFFF0001FFFFF
310
FFFC00000000001FFFFFFC00000000001FFFFF000000000003FE00000000000F
310
F000F8000000000007FFFFE00003FFFF00001FFFFF80007FF800000000000FFF
310
800000000000FFF8000001FFFE0000007FFFFFF0001FFFFFFFF800000000000F
310
FFFFF800000000000FFFFF000000000003FC000000000007F000F80000000000
310
03FFFFC00003FFFE00001FFFFF80007FF0000000000007FF0000000000007FF8
310
000001FFFE0000007FFFFFF0001FFFFFFFF0000000000007FFFFF00000000000
310
07FFFF000000000003F8000000000003F000F0000000000003FFFFC00001FFFE
310
00001FFFFF80007FE0000000000007FE0000000000003FF8000001FFFE000000
310
7FFFFFF0001FFFFFFFF0000000000007FFFFF0000000000007FFFF0000000000
310
03F800001F800003F000E00001FFF00001FFFFC00001FFFE00000FFFFF80007F
310
E00001FFE00003FE00001FFF00003FF8000001FFFE0000007FFFFFF0001FFFFF
310
FFE000003E000003FFFFE000003E000003FFFF000000000003F00001FFF80001
310
F000E00007FFFC0001FFFFC00001FFFE00000FFFFF80007FC0000FFFFC0003FC
310
0000FFFFC0001FF8000001FFFE0000007FFFFFF0001FFFFFFFC00003FFE00001
310
FFFFC00003FFE00001FFFF0001FFFFFFFFF00007FFFE0001F000E0000FFFFF00
310
00FFFF800001FFFC00000FFFFF80007FC0001FFFFE0001FC0001FFFFE0001FF8
310
000001FFFE0000007FFFFFF0001FFFFFFF80000FFFF80000FFFF80000FFFF800
310
00FFFF0003FFFFFFFFE0000FFFFF8000F000C0003FFFFF8000FFFF800000FFFC
310
000007FFFF80007F80003FFFFF0001FC0003FFFFF0001FF8000001FFFE000000
310
7FFFFFF0001FFFFFFF80003FFFFE0000FFFF80003FFFFE0000FFFF0003FFFFFF
310
FFE0003FFFFF8000F000C0003FFFFF8000FFFF800000FFFC000007FFFF80007F
310
80007FFFFF8001F80007FFFFF8000FF8000001FFFE0000007FFFFFF0001FFFFF
310
FF00007FFFFF00007FFF00007FFFFF00007FFF0003FFFFFFFFE0003FFFFFC000
310
F000C0007FFFFFC000FFFF000000FFFC000007FFFF80007F8000FFFFFF8000F8
310
000FFFFFF8000FF8000001FFFE0000007FFFFFF0001FFFFFFF0000FFFFFF8000
310
7FFF0000FFFFFF80007FFF0003FFFFFFFFC0007FFFFFC00070008000FFFFFFC0
310
00FFFF000000FFF8000007FFFF80007F8000FFFFFF8000F8000FFFFFF8000FF8
310
000001FFFE0000007FFFFFF0001FFFFFFE0001FFFFFFC0003FFE0001FFFFFFC0
310
003FFF0003FFFFFFFFC0007FFFFFE00070008000FFFFFFC0007FFF0000007FF8
310
000003FFFF80007F0001FFFFFF8000F8000FFFFFF8000FF8000001FFFE000000
310
7FFFFFF0001FFFFFFE0001FFFFFFC0003FFE0001FFFFFFC0003FFF0003FFFFFF
310
FFC000FFFFFFE00070008000FFFFFFC0007FFF0000007FF8000003FFFF80007F
310
0001FFFFFF8000F8001FFFFFF8000FF8000001FFFE0000007FFFFFF0001FFFFF
310
FE0003FFFFFFE0003FFE0003FFFFFFE0003FFF0003FFFFFFFFC000FFFFFFE000
310
70008000FFFFFFC0007FFE0000007FF8000003FFFF80007F0001FFFFFF8000F0
310
001FFFFFF8000FF8000001FFFE0000007FFFFFF0001FFFFFFC0003FFFFFFE000
310
1FFC0003FFFFFFE0001FFF0003FFFFFFFFC000FFFFFFC00070008000FFFFFF80
310
007FFE0000007FF0000003FFFF80007F0001FFFFFF0000F0001FFFFFF8000FF8
310
000001FFFE0000007FFFFFF0001FFFFFFC0007FFFFFFF0001FFC0007FFFFFFF0
310
001FFF0003FFFFFFFFC000FFFFFFC00070008001FFFFFF0000FFFE0000003FF0
310
000001FFFF80007F0001FFFFFF0000F8001FFFFFF0000FF8000001FFFE000000
310
7FFFFFF0001FFFFFFC0007FFFFFFF0001FFC0007FFFFFFF0001FFF0003FFFFFF
310
FFC001FFFFFF80007000FFFFFFFFFE0000FFFE0008003FF0008001FFFF80007F
310
FFFFFFFFFC0000FFFFFFFFFFE0000FF8000001FFFE0000007FFFFFF0001FFFFF
310
F8000FFFFFFFF8000FF8000FFFFFFFF8000FFF0003FFFFFFFFFFFFFFFFFF0000
310
7000FFFFFFFFFC0000FFFC0008003FF0008001FFFF80007FFFFFFFFFF80001FF
310
FFFFFFFF80000FF8000001FFFE0000007FFFFFF0001FFFFFF8000FFFFFFFF800
310
0FF8000FFFFFFFF8000FFF0003FFFFFFFFFFFFFFFFFE0000F000FFFFFFFFE000
310
00FFFC000C003FE000C001FFFF80007FFFFFFFFFC00001FFFFFFFFFE00001FF8
310
000001FFFE0000007FFFFFF0001FFFFFF8000FFFFFFFF8000FF8000FFFFFFFF8
310
000FFF0003FFFFFFFFFFFFFFFFF00000F000FFFFFFFE000001FFFC000C001FE0
310
00C000FFFF80007FFFFFFFFE000001FFFFFFFFE000001FF80FFFFFFFFFFFFFC0
310
7FFFFFF0001FFFFFF8000FFFFFFFF8000FF8000FFFFFFFF8000FFF0003FFFFFF
310
FFFFFFFFFF800000F000FFFFFFC0000001FFFC001C001FE001C000FFFF80007F
310
FFFFFF80000003FFFFFFF80000001FF80FFFFFFFFFFFFFC07FFFFFF0001FFFFF
310
F8001FFFFFFFFC000FF8001FFFFFFFFC000FFF0003FFFFFFFFFFFFFFF0000001
310
F000FFFFF800000001FFF8001C001FE001C000FFFF80007FFFFFF800000003FF
310
FFFF800000003FF80FFFFFFFFFFFFFC07FFFFFF0001FFFFFF8001FFFFFFFFC00
310
0FF8001FFFFFFFFC000FFF0003FFFFFFFFFFFFFE00000001F000FFFFC0000000
310
03FFF8001E001FC001E000FFFF80007FFFFF8000000007FFFFFC000000003FF8
310
0FFFFFFFFFFFFFC07FFFFFF0001FFFFFF8001FFFFFFFFC000FF8001FFFFFFFFC
310
000FFF0003FFFFFFFFFFFFE000000003F000FFFE0000000007FFF8001E000FC0
310
01E0007FFF80007FFFFE0000000007FFFFE0000000007FF80FFFFFFFFFFFFFC0
310
7FFFFFF0001FFFFFF0001FFFFFFFFC0007F0001FFFFFFFFC0007FF0003FFFFFF
310
FFFFFF0000000003F000FFF80000000007FFF8001E000FC003E0007FFF80007F
310
FFF0000000000FFFFF8000000000FFF80FFFFFFFFFFFFFC07FFFFFF0001FFFFF
310
F0001FFFFFFFFC0007F0001FFFFFFFFC0007FF0003FFFFFFFFFFFC0000000007
310
F000FFE0000000000FFFF0003E000FC003E0007FFF80007FFFC0000000001FFF
310
FE0000000001FFF80FFFFFFFFFFFFFC07FFFFFF0001FFFFFF0001FFFFFFFFC00
310
07F0001FFFFFFFFC0007FF0003FFFFFFFFFFF0000000000FF000FFC000000000
310
1FFFF0003F000F8003F0003FFF80007FFF80000000003FFFF80000000003FFF8
310
0FFFFFFFFFFFFFC07FFFFFF0001FFFFFF0001FFFFFFFFC0007F0001FFFFFFFFC
310
0007FF0003FFFFFFFFFFE0000000001FF000FF00000000007FFFF0003F000780
310
03F0003FFF80007FFF00000000007FFFF00000000007FFF80FFFFFFFFFFFFFC0
310
7FFFFFF0001FFFFFF0001FFFFFFFFC0007F0001FFFFFFFFC0007FF0003FFFFFF
310
FFFF80000000007FF000FE0000000000FFFFE0003F00078007F0003FFF80007F
310
FE0000000001FFFFE0000000001FFFF80FFFFFFFFFFFFFC07FFFFFF0001FFFFF
310
F0001FFFFFFFFC0007F0001FFFFFFFFC0007FF0003FFFFFFFFFF0000000000FF
310
F000FC0000000003FFFFE0007F00078007F0003FFF80007FFC0000000007FFFF
310
C0000000007FFFF80FFFFFFFFFFFFFC07FFFFFF0001FFFFFF8001FFFFFFFFC00
310
0FF8001FFFFFFFFC000FFF0003FFFFFFFFFE0000000003FFF000FC000000000F
310
FFFFE0007F80070007F8001FFF80007FF8000000001FFFFF8000000001FFFFF8
310
0FFFFFFFFFFFFFC07FFFFFF0001FFFFFF8001FFFFFFFFC000FF8001FFFFFFFFC
310
000FFF0003FFFFFFFFFC000000000FFFF000F8000000007FFFFFE0007F800700
310
07F8001FFF80007FF000000000FFFFFF800000000FFFFFF80FFFFFFFFFFFFFC0
310
7FFFFFF0001FFFFFF8000FFFFFFFF8000FF8000FFFFFFFF8000FFF0003FFFFFF
310
FFFC000000007FFFF000F800000007FFFFFFC0007F8003000FF8001FFF80007F
310
F000000007FFFFFF000000007FFFFFF80FFFFFFFFFFFFFC07FFFFFF0001FFFFF
310
F8000FFFFFFFF8000FF8000FFFFFFFF8000FFF0003FFFFFFFFF80000000FFFFF
310
F000F0000000FFFFFFFFC000FF8003000FF8001FFF80007FE0000000FFFFFFFF
310
0000000FFFFFFFF8000001FFFE0000007FFFFFF0001FFFFFF8000FFFFFFFF800
310
0FF8000FFFFFFFF8000FFF0003FFFFFFFFF8000000FFFFFFF000F000000FFFFF
310
FFFFC000FFC002000FF8000FFF80007FE000001FFFFFFFFE000001FFFFFFFFF8
310
000001FFFE0000007FFFFFF0001FFFFFF8000FFFFFFFF8000FF8000FFFFFFFF8
310
000FFF0003FFFFFFFFF000001FFFFFFFF000E00000FFFFFFFFFFC000FFC00200
310
0FFC000FFF80007FE00001FFFFFFFFFE00001FFFFFFFFFF8000001FFFE000000
310
7FFFFFF0001FFFFFFC000FFFFFFFF8001FFC000FFFFFFFF8001FFF0003FFFFFF
310
FFF00001FFFFFFFFF000E00007FFFFFFFFFF8000FFC000001FFC000FFF80007F
310
C0000FFFFFFFFFFE0000FFFFFFFFFFF8000001FFFE0000007FFFFFF0001FFFFF
310
FC0007FFFFFFF0001FFC0007FFFFFFF0001FFF0003FFFFFFFFF00007FFFFFFFF
310
F000E0001FFFFFFFFFFF8000FFC000001FFC000FFF80007FC0003FFFFFFFFFFE
310
0001FFFFFFFFFFF8000001FFFE0000007FFFFFF0001FFFFFFC0007FFFFFFF000
310
1FFC0007FFFFFFF0001FFF0003FFFFFFFFF0001FFFFFFFFFF000E0003FFFFF00
310
03FF8001FFE000001FFC0007FF80007FC0007FFFFF0007FC0003FFFFF0003FF8
310
000001FFFE0000007FFFFFF0001FFFFFFC0003FFFFFFE0001FFC0003FFFFFFE0
310
001FFF0003FFFFFFFFF0003FFFFFFFFFF000E0003FFFFF0001FF8001FFE00000
310
1FFE0007FF80007FC0007FFFFE0003FC0007FFFFE0003FF8000001FFFE000000
310
7FFFFFF0001FFFFFFE0003FFFFFFE0003FFE0003FFFFFFE0003FFF0003FFFFFF
310
FFF0003FFFFF8001F000E0003FFFFF0001FF0001FFE000001FFE0007FF80007F
310
C0007FFFFE0003FC0007FFFFE0003FF8000001FFFE0000007FFFFFF0001FFFFF
310
FE0001FFFFFFC0003FFE0001FFFFFFC0003FFF0003FFFFFFFFF0003FFFFF0001
310
F000E0003FFFFF0003FF0001FFE000003FFE0007FF80007FC0007FFFFE0003FC
310
0007FFFFE0003FF8000001FFFE0000007FFFFFF0001FFFFFFF0001FFFFFFC000
310
7FFF0001FFFFFFC0007FFF0003FFFFFFFFF0003FFFFF0001F000E0003FFFFE00
310
03FF0003FFF000003FFE0003FF80007FC0007FFFFC0003FE0007FFFFE0003FF8
310
000001FFFE0000007FFFFFF0001FFFFFFF0000FFFFFF80007FFF0000FFFFFF80
310
007FFF0003FFFFFFFFF0003FFFFF0001F000E0003FFFFE0003FF0003FFF00000
310
3FFF0003FF80007FC0007FFFFC0007FE0007FFFFC0003FF8000001FFFE000000
310
7FFFFFF0001FFFFFFF80007FFFFF0000FFFF80007FFFFF0000FFFF0003FFFFFF
310
FFF0003FFFFF0003F000E0003FFFFC0003FE0003FFF000003FFF0003FF80007F
310
E0003FFFF80007FE0003FFFFC0007FF8000001FFFE0000007FFFFFF0001FFFFF
310
FF80003FFFFE0000FFFF80003FFFFE0000FFFF0003FFFFFFFFF0001FFFFE0003
310
F000F0001FFFF80003FE0003FFF000007FFF0001FF80007FE0003FFFF00007FE
310
0001FFFF80007FF8000001FFFE0000007FFFFFF0001FFFFFFFC0000FFFF80001
310
FFFFC0000FFFF80001FFFF0003FFFFFFFFF0001FFFFC0003F000F0000FFFF000
310
07FE0007FFF800007FFF0001FF80007FE0001FFFE00007FF0000FFFE00007FF8
310
000001FFFE0000007FFFFFF0001FFFFFFFC00003FFE00001FFFFC00003FFE000
310
01FFFF0003FFFFFFFFF8000FFFF80003F000F00003FFC00007FC0007FFF80000
310
7FFF8001FF80007FF00007FF80000FFF00007FF80000FFF8000001FFFE000000
310
7F80000000000001FFE000003E000003FFFFE000003E000003FFFF0003FFFFFF
310
FFF80003FFE00007F000F800000000000FFC0007FFF800007FFF8001FF80007F
310
F000000000000FFF000000000000FFF8000001FFFE0000007F80000000000001
310
FFF0000000000007FFFFF0000000000007FFFF0003FFFFFFFFFC00007E000007
310
F000F800000000000FFC0007FFF80000FFFF8000FF80007FF800000000001FFF
310
800000000001FFF8000001FFFE0000007F80000000000001FFF800000000000F
310
FFFFF800000000000FFFFF0003FFFFFFFFFC00000000000FF000FC0000000000
310
1FFC0007FFFC0000FFFF8000FF80007FF800000000003FFFC00000000001FFF8
310
000001FFFE0000007F80000000000001FFF800000000000FFFFFF80000000000
310
0FFFFF0003FFFFFFFFFE00000000001FF000FE00000000003FF8000FFFFC0000
310
FFFF8000FF80007FFC00000000003FFFC00000000003FFF8000001FFFE000000
310
7F80000000000001FFFC00000000001FFFFFFC00000000001FFFFF0003FFFFFF
310
FFFF00000000001FF000FF00000000003FF8000FFFFC0000FFFFC000FF80007F
310
FE00000000007FFFE00000000007FFF8000001FFFE0000007F80000000000001
310
FFFE00000000003FFFFFFE00000000003FFFFF0003FFFFFFFFFF80000000003F
310
F000FF80000000007FF8000FFFFC0001FFFFC0007F80007FFF0000000000FFFF
310
F0000000000FFFF800000000000000007F80000000000001FFFF8000000000FF
310
FFFFFF8000000000FFFFFF0003FFFFFFFFFFC0000000007FF000FFC000000000
310
FFF8000FFFFE0001FFFFC0007F80007FFF8000000001FFFFF8000000001FFFF8
310
00000000000000007F80000000000001FFFFC000000001FFFFFFFFC000000001
310
FFFFFF0003FFFFFFFFFFE000000000FFF000FFE000000003FFF0001FFFFE0001
310
FFFFC0007F80007FFFC000000007FFFFFE000000003FFFF80000000000000000
310
7F80000000000001FFFFE000000003FFFFFFFFE000000003FFFFFF0003FFFFFF
310
FFFFF000000003FFF000FFF80000000FFFF0001FFFFE0001FFFFE0007F80007F
310
FFF00000000FFFFFFF00000000FFFFF800000000000000007F80000000000001
310
FFFFF80000000FFFFFFFFFF80000000FFFFFFF0003FFFFFFFFFFFC0000000FFF
310
F000FFFE0000003FFFF0001FFFFE0003FFFFE0003F80007FFFFC0000003FFFFF
310
FFC0000003FFFFF800000000000000007F80000000000001FFFFFE0000003FFF
310
FFFFFFFE0000003FFFFFFF0003FFFFFFFFFFFF0000003FFFF000FFFF800000FF
310
FFF0001FFFFF0003FFFFE0003F80007FFFFF000001FFFFFFFFF800001FFFFFF8
310
00000000000000007F80000000000001FFFFFFC00001FFFFFFFFFFFFC00001FF
310
FFFFFF0003FFFFFFFFFFFFC00000FFFFF000FFFFF8000FFFFFFFFFFFFFFFFFFF
310
FFFFFFFFFFFFFFFFFFFFF0001FFFFFFFFFFF0000FFFFFFF80000000000000000
310
7FFFFFFFFFFFFFFFFFFFFFFC001FFFFFFFFFFFFFFC001FFFFFFFFFFFFFFFFFFF
310
FFFFFFFC001FFFFFF000FFFFFFFFFFFFFFFFFFFFFFFFFFFFFFFFFFFFFFFFFFFF
310
FFFFFFFFFFFFFFFFFFFFFFFFFFFFFFFFFFFFFFFFFFFFFFFFFFFFFFFFFFFFFFFF
310
FFFFFFFFFFFFFFFFFFFFFFFFFFFFFFFFFFFFFFFFFFFFFFFFFFFFFFFFFFFFFFFF
310
F000FFFFFFFFFFFFFFFFFFFFFFFFFFFFFFFFFFFFFFFFFFFFFFFFFFFFFFFFFFFF
310
FFFFFFFFFFFFFFFFFFFFFFFFFFFFFFFFFFFFFFFFFFFFFFFFFFFFFFFFFFFFFFFF
310
FFFFFFFFFFFFFFFFFFFFFFFFFFFFFFFFFFFFFFFFFFFFFFFFF000FFFFFFFFFFFF
310
FFFFFFFFFFFFFFFFFFFFFFFFFFFFFFFFFFFFFFFFFFFFFFFFFFFFFFFFFFFFFFFF
310
FFFFFFFFFFFFFFFFFFFFFFFFFFFFFFFFFFFFFFFFFFFFFFFFFFFFFFFFFFFFFFFF
310
FFFFFFFFFFFFFFFFFFFFFFFFFFFFFFFFF000FFFFFFFFFFFFFFFFFFFFFFFFFFFF
310
FFFFFFFFFFFFFFFFFFFFFFFFFFFFFFFFFFFFFFFFFFFFFFFFFFFFFFFFFFFFFFFF
310
FFFFFFFFFFFFFFFFFFFFFFFFFFFFFFFFFFFFFFFFFFFFFFFFFFFFFFFFFFFFFFFF
310
FFFFFFFFFFFFFFFFF000FFFFFFFFFFFFFFFFFFFFFFFFFFFFFFFFFFFFFFFFFFFF
310
FFFFFFFFFFFFFFFFFFFFFFFFFFFFFFFFFFFFFFFFFFFFFFFFFFFFFFFFFFFFFFFF
310
FFFFFFFFFFFFFFFFFFFFFFFFFFFFFFFFFFFFFFFFFFFFFFFFFFFFFFFFFFFFFFFF
310
F000FFFFFFFFFFFFFFFFFFFFFFFFFFFFFFFFFFFFFFFFFFFFFFFFFFFFFFFFFFFF
310
FFFFFFFFFFFFFFFFFFFFFFFFFFFFFFFFFFFFFFFFFFFFFFFFFFFFFFFFFFFFFFFF
310
FFFFFFFFFFFFFFFFFFFFFFFFFFFFFFFFFFFFFFFFFFFFFFFFF000FFFFFFFFFFFF
310
FFFFFFFFFFFFFFFFFFFFFFFFFFFFFFFFFFFFFFFFFFFFFFFFFFFFFFFFFFFFFFFF
310
FFFFFFFFFFFFFFFFFFFFFFFFFFFFFFFFFFFFFFFFFFFFFFFFFFFFFFFFFFFFFFFF
310
FFFFFFFFFFFFFFFFFFFFFFFFFFFFFFFFF000FFFFFFFFFFFFFFFFFFFFFFFFFFFF
310
FFFFFFFFFFFFFFFFFFFFFFFFFFFFFFFFFFFFFFFFFFFFFFFFFFFFFFFFFFFFFFFF
310
FFFFFFFFFFFFFFFFFFFFFFFFFFFFFFFFFFFFFFFFFFFFFFFFFFFFFFFFFFFFFFFF
310
FFFFFFFFFFFFFFFFF000FFFFFFFFFFFFFFFFFFFFFFFFFFFFFFFFFFFFFFFFFFFF
310
FFFFFFFFFFFFFFFFFFFFFFFFFFFFFFFFFFFFFFFFFFFFFFFFFFFFFFFFFFFFFFFF
310
FFFFFFFFFFFFFFFFFFFFFFFFFFFFFFFFFFFFFFFFFFFFFFFFFFFFFFFFFFFFFFFF
310
F000FFFFFFFFFFFFFFFFFFFFFFFFFFFFFFFFFFFFFFFFFFFFFFFFFFFFFFFFFFFF
310
FFFFFFFFFFFFFFFFFFFFFFFFFFFFFFFFFFFFFFFFFFFFFFFFFFFFFFFFFFFFFFFF
310
FFFFFFFFFFFFFFFFFFFFFFFFFFFFFFFFFFFFFFFFFFFFFFFFF000FFFFFFFFFFFF
310
FFFFFFFFFFFFFFFFFFFFFFFFFFFFFFFFFFFFFFFFFFFFFFFFFFFFFFFFFFFFFFFF
310
FFFFFFFFFFFFFFFFFFFFFFFFFFFFFFFFFFFFFFFFFFFFFFFFFFFFFFFFFFFFFFFF
310
FFFFFFFFFFFFFFFFFFFFFFFFFFFFFFFFF000FFFFFFFFFFFFFFFFFFFFFFFFFFFF
310
FFFFFFFFFFFFFFFFFFFFFFFFFFFFFFFFFFFFFFFFFFFFFFFFFFFFFFFFFFFFFFFF
310
FFFFFFFFFFFFFFFFFFFFFFFFFFFFFFFFFFFFFFFFFFFFFFFFFFFFFFFFFFFFFFFF
310
FFFFFFFFFFFFFFFFF000FFFFFFFFFFFFFFFFFFFFFFFFFFFFFFFFFFFFFFFFFFFF
310
FFFFFFFFFFFFFFFFFFFFFFFFFFFFFFFFFFFFFFFFFFFFFFFFFFFFFFFFFFFFFFFF
310
FFFFFFFFFFFFFFFFFFFFFFFFFFFFFFFFFFFFFFFFFFFFFFFFFFFFFFFFFFFFFFFF
310
F000FFFFFFFFFFFFFFFFFFFFFFFFFFFFFFFFFFFFFFFFFFFFFFFFFFFFFFFFFFFF
310
FFFFFFFFFFFFFFFFFFFFFFFFFFFFFFFFFFFFFFFFFFFFFFFFFFFFFFFFFFFFFFFF
310
FFFFFFFFFFFFFFFFFFFFFFFFFFFFFFFFFFFFFFFFFFFFFFFFF000FFFFFFFFFFFF
310
FFFFFFFFFFFFFFFFFFFFFFFFFFFFFFFFFFFFFFFFFFFFFFFFFFFFFFFFFFFFFFFF
310
FFFFFFFFFFFFFFFFFFFFFFFFFFFFFFFFFFFFFFFFFFFFFFFFFFFFFFFFFFFFFFFF
310
FFFFFFFFFFFFFFFFFFFFFFFFFFFFFFFFF000FFFFFFFFFFFFFFFFFFFFFFFFFFFF
310
FFFFFFFFFFFFFFFFFFFFFFFFFFFFFFFFFFFFFFFFFFFFFFFFFFFFFFFFFFFFFFFF
310
FFFFFFFFFFFFFFFFFFFFFFFFFFFFFFFFFFFFFFFFFFFFFFFFFFFFFFFFFFFFFFFF
310
FFFFFFFFFFFFFFFFF000FFFFFFFFFFFFFFFFFFFFFFFFFFFFFFFFFFFFFFFFFFFF
310
FFFFFFFFFFFFFFFFFFFFFFFFFFFFFFFFFFFFFFFFFFFFFFFFFFFFFFFFFFFFFFFF
310
FFFFFFFFFFFFFFFFFFFFFFFFFFFFFFFFFFFFFFFFFFFFFFFFFFFFFFFFFFFFFFFF
310
F000FFFFFFFFFFFFFFFFFFFFFFFFFFFFFFFFFFFFFFFFFFFFFFFFFFFFFFFFFFFF
310
FFFFFFFFFFFFFFFFFFFFFFFFFFFFFFFFFFFFFFFFFFFFFFFFFFFFFFFFFFFFFFFF
310
FFFFFFFFFFFFFFFFFFFFFFFFFFFFFFFFFFFFFFFFFFFFFFFFF000FFFFFFFFFFFF
310
FFFFFFFFFFFFFFFFFFFFFFFFFFFFFFFFFFFFFFFFFFFFFFFFFFFFFFFFFFFFFFFF
310
FFFFFFFFFFFFFFFFFFFFFFFFFFFFFFFFFFFFFFFFFFFFFFFFFFFFFFFFFFFFFFFF
310
FFFFFFFFFFFFFFFFFFFFFFFFFFFFFFFFF000FFFFFFFFFFFFFFFFFFFFFFFFFFFF
310
FFFFFFFFFFFFFFFFFFFFFFFFFFFFFFFFFFFFFFFFFFFFFFFFFFFFFFFFFFFFFFFF
310
FFFFFFFFFFFFFFFFFFFFFFFFFFFFFFFFFFFFFFFFFFFFFFFFFFFFFFFFFFFFFFFF
310
FFFFFFFFFFFFFFFFF000FFFFFFFFFFFFFFFFFFFFFFFFFFFFFFFFFFFFFFFFFFFF
310
FFFFFFFFFFFFFFFFFFFFFFFFFFFFFFFFFFFFFFFFFFFFFFFFFFFFFFFFFFFFFFFF
310
FFFFFFFFFFFFFFFFFFFFFFFFFFFFFFFFFFFFFFFFFFFFFFFFFFFFFFFFFFFFFFFF
310
F000FFFFFFFFFFFFFFFFFFFFFFFFFFFFFFFFFFFFFFFFFFFFFFFFFFFFFFFFFFFF
310
FFFFFFFFFFFFFFFFFFFFFFFFFFFFFFFFFFFFFFFFFFFFFFFFFFFFFFFFFFFFFFFF
310
FFFFFFFFFFFFFFFFFFFFFFFFFFFFFFFFFFFFFFFFFFFFFFFFF000FFFFFFFFFFFF
310
FFFFFFFFFFFFFFFFFFFFFFFFFFFFFFFFFFFFFFFFFFFFFFFFFFFFFFFFFFFFFFFF
310
FFFFFFFFFFFFFFFFFFFFFFFFFFFFFFFFFFFFFFFFFFFFFFFFFFFFFFFFFFFFFFFF
310
FFFFFFFFFFFFFFFFFFFFFFFFFFFFFFFFF0000000000000000000000000000000
310
0000000000000000000000000000000000000000000000000000000000000000
310
0000000000000000000000000000000000000000000000000000000000000000
310
0000000000000000000000000000000000000000000000000000000000000000
310
0000000000000000000000000000000000000000000000000000000000000000
310
0000000000000000000000000000000000000000000000000000000000000000
310
0000000000000000000000000000000000000000000000000000000000000000
310
0000000000000000000000000000000000000000000000000000000000000000
310
0000000000000000000000000000000000000000000000000000000000000000
310
0000000000000000000000000000000000000000000000000000000000000000
310
0000000000000000000000000000000000000000000000000000000000000000
310
0000000000000000000000000000000000000000000000000000000000000000
310
0000000000000000000000000000000000000000000000000000000000000000
310
0000000000000000000000000000000000000000000000000000000000000000
310
0000000000000000000000000000000000000000000000000000000000000000
310
0000000000000000000000000000000000000000000000000000000000000000
  1
OLE
  0
ENDSEC
  0
SECTION
  2
OBJECTS
  0
DICTIONARY
  5
C
330
0
100
AcDbDictionary
281
     1
  3
ACAD_GROUP
350
D
  3
ACAD_LAYOUT
350
1A
  3
ACAD_MLINESTYLE
350
17
  3
ACAD_PLOTSETTINGS
350
19
  3
ACAD_PLOTSTYLENAME
350
E
  3
ACAD_SCALELIST
350
47
  0
DICTIONARY
  5
D
102
{ACAD_REACTORS
330
C
102
}
330
C
100
AcDbDictionary
281
     1
  0
DICTIONARY
  5
1A
102
{ACAD_REACTORS
330
C
102
}
330
C
100
AcDbDictionary
281
     1
  3
Layout1
350
1E
  3
Layout2
350
26
  3
Model
350
22
  0
DICTIONARY
  5
17
102
{ACAD_REACTORS
330
C
102
}
330
C
100
AcDbDictionary
281
     1
  3
Standard
350
18
  0
DICTIONARY
  5
19
102
{ACAD_REACTORS
330
C
102
}
330
C
100
AcDbDictionary
281
     1
  0
ACDBDICTIONARYWDFLT
  5
E
102
{ACAD_REACTORS
330
C
102
}
330
C
100
AcDbDictionary
281
     1
  3
Normal
350
F
100
AcDbDictionaryWithDefault
340
F
  0
DICTIONARY
  5
47
102
{ACAD_REACTORS
330
C
102
}
330
C
100
AcDbDictionary
281
     1
  3
A0
350
48
  3
A1
350
49
  3
A2
350
4A
  3
A3
350
4B
  3
A4
350
4C
  3
A5
350
4D
  3
A6
350
4E
  3
A7
350
4F
  3
A8
350
50
  3
A9
350
51
  3
B0
350
52
  3
B1
350
53
  3
B2
350
54
  3
B3
350
55
  3
B4
350
56
  3
B5
350
57
  3
B6
350
58
  3
B7
350
59
  3
B8
350
5A
  3
B9
350
5B
  3
C0
350
5C
  3
C1
350
5D
  3
C2
350
5E
  3
C3
350
5F
  3
C4
350
60
  3
C5
350
61
  3
C6
350
62
  3
C7
350
63
  3
C8
350
64
  3
C9
350
65
  3
D0
350
66
  3
D1
350
67
  3
D2
350
68
  0
LAYOUT
  5
1E
102
{ACAD_REACTORS
330
1A
102
}
330
1A
100
AcDbPlotSettings
  1

  2
none_device
  4

  6

 40
0.0
 41
0.0
 42
0.0
 43
0.0
 44
0.0
 45
0.0
 46
0.0
 47
0.0
 48
0.0
 49
0.0
140
0.0
141
0.0
142
1.0
143
1.0
 70
   688
 72
     1
 73
     0
 74
     5
  7

 75
    16
147
1.0
148
0.0
149
0.0
100
AcDbLayout
  1
Layout1
 70
     1
 71
     1
 10
0.0
 20
0.0
 11
420.0
 21
297.0
 12
0.0
 22
0.0
 32
0.0
 14
1.0000000000E+20
 24
1.0000000000E+20
 34
1.0000000000E+20
 15
-1.0000000000E+20
 25
-1.0000000000E+20
 35
-1.0000000000E+20
146
0.0
 13
0.0
 23
0.0
 33
0.0
 16
1.0
 26
0.0
 36
0.0
 17
0.0
 27
1.0
 37
0.0
 76
     0
330
1B
  0
LAYOUT
  5
26
102
{ACAD_REACTORS
330
1A
102
}
330
1A
100
AcDbPlotSettings
  1

  2
none_device
  4

  6

 40
0.0
 41
0.0
 42
0.0
 43
0.0
 44
0.0
 45
0.0
 46
0.0
 47
0.0
 48
0.0
 49
0.0
140
0.0
141
0.0
142
1.0
143
1.0
 70
   688
 72
     1
 73
     0
 74
     5
  7

 75
    16
147
1.0
148
0.0
149
0.0
100
AcDbLayout
  1
Layout2
 70
     1
 71
     2
 10
0.0
 20
0.0
 11
0.0
 21
0.0
 12
0.0
 22
0.0
 32
0.0
 14
0.0
 24
0.0
 34
0.0
 15
0.0
 25
0.0
 35
0.0
146
0.0
 13
0.0
 23
0.0
 33
0.0
 16
1.0
 26
0.0
 36
0.0
 17
0.0
 27
1.0
 37
0.0
 76
     0
330
23
  0
LAYOUT
  5
22
102
{ACAD_REACTORS
330
1A
102
}
330
1A
100
AcDbPlotSettings
  1

  2
none_device
  4
Letter_(8.50_x_11.00_Inches)
  6

 40
6.35
 41
6.35
 42
6.35000508
 43
6.35000508
 44
215.9
 45
279.4
 46
0.0
 47
0.0
 48
0.0
 49
0.0
140
0.0
141
0.0
142
1.0
143
1.0
 70
  1712
 72
     1
 73
     0
 74
     0
  7

 75
     0
147
1.0
148
0.0
149
0.0
100
AcDbLayout
  1
Model
 70
     1
 71
     0
 10
0.0
 20
0.0
 11
297.0
 21
210.0
 12
0.0
 22
0.0
 32
0.0
 14
0.0
 24
0.0
 34
0.0
 15
297.0
 25
210.0
 35
0.0
146
0.0
 13
0.0
 23
0.0
 33
0.0
 16
1.0
 26
0.0
 36
0.0
 17
0.0
 27
1.0
 37
0.0
 76
     0
330
1F
331
29
  0
MLINESTYLE
  5
18
102
{ACAD_REACTORS
330
17
102
}
330
17
100
AcDbMlineStyle
  2
Standard
 70
     0
  3

 62
   256
 51
90.0
 52
90.0
 71
     2
 49
0.5
 62
   256
  6
BYLAYER
 49
-0.5
 62
   256
  6
BYLAYER
  0
ACDBPLACEHOLDER
  5
F
102
{ACAD_REACTORS
330
E
102
}
330
E
  0
SCALE
  5
48
102
{ACAD_REACTORS
330
47
102
}
330
47
100
AcDbScale
 70
     0
300
1:1
140
1.0
141
1.0
290
     1
  0
SCALE
  5
49
102
{ACAD_REACTORS
330
47
102
}
330
47
100
AcDbScale
 70
     0
300
1:2
140
1.0
141
2.0
290
     0
  0
SCALE
  5
4A
102
{ACAD_REACTORS
330
47
102
}
330
47
100
AcDbScale
 70
     0
300
1:4
140
1.0
141
4.0
290
     0
  0
SCALE
  5
4B
102
{ACAD_REACTORS
330
47
102
}
330
47
100
AcDbScale
 70
     0
300
1:5
140
1.0
141
5.0
290
     0
  0
SCALE
  5
4C
102
{ACAD_REACTORS
330
47
102
}
330
47
100
AcDbScale
 70
     0
300
1:8
140
1.0
141
8.0
290
     0
  0
SCALE
  5
4D
102
{ACAD_REACTORS
330
47
102
}
330
47
100
AcDbScale
 70
     0
300
1:10
140
1.0
141
10.0
290
     0
  0
SCALE
  5
4E
102
{ACAD_REACTORS
330
47
102
}
330
47
100
AcDbScale
 70
     0
300
1:16
140
1.0
141
16.0
290
     0
  0
SCALE
  5
4F
102
{ACAD_REACTORS
330
47
102
}
330
47
100
AcDbScale
 70
     0
300
1:20
140
1.0
141
20.0
290
     0
  0
SCALE
  5
50
102
{ACAD_REACTORS
330
47
102
}
330
47
100
AcDbScale
 70
     0
300
1:30
140
1.0
141
30.0
290
     0
  0
SCALE
  5
51
102
{ACAD_REACTORS
330
47
102
}
330
47
100
AcDbScale
 70
     0
300
1:40
140
1.0
141
40.0
290
     0
  0
SCALE
  5
52
102
{ACAD_REACTORS
330
47
102
}
330
47
100
AcDbScale
 70
     0
300
1:50
140
1.0
141
50.0
290
     0
  0
SCALE
  5
53
102
{ACAD_REACTORS
330
47
102
}
330
47
100
AcDbScale
 70
     0
300
1:100
140
1.0
141
100.0
290
     0
  0
SCALE
  5
54
102
{ACAD_REACTORS
330
47
102
}
330
47
100
AcDbScale
 70
     0
300
2:1
140
2.0
141
1.0
290
     0
  0
SCALE
  5
55
102
{ACAD_REACTORS
330
47
102
}
330
47
100
AcDbScale
 70
     0
300
4:1
140
4.0
141
1.0
290
     0
  0
SCALE
  5
56
102
{ACAD_REACTORS
330
47
102
}
330
47
100
AcDbScale
 70
     0
300
8:1
140
8.0
141
1.0
290
     0
  0
SCALE
  5
57
102
{ACAD_REACTORS
330
47
102
}
330
47
100
AcDbScale
 70
     0
300
10:1
140
10.0
141
1.0
290
     0
  0
SCALE
  5
58
102
{ACAD_REACTORS
330
47
102
}
330
47
100
AcDbScale
 70
     0
300
100:1
140
100.0
141
1.0
290
     0
  0
SCALE
  5
59
102
{ACAD_REACTORS
330
47
102
}
330
47
100
AcDbScale
 70
     0
300
1/128" = 1'-0"
140
0.0078125
141
12.0
290
     0
  0
SCALE
  5
5A
102
{ACAD_REACTORS
330
47
102
}
330
47
100
AcDbScale
 70
     0
300
1/64" = 1'-0"
140
0.015625
141
12.0
290
     0
  0
SCALE
  5
5B
102
{ACAD_REACTORS
330
47
102
}
330
47
100
AcDbScale
 70
     0
300
1/32" = 1'-0"
140
0.03125
141
12.0
290
     0
  0
SCALE
  5
5C
102
{ACAD_REACTORS
330
47
102
}
330
47
100
AcDbScale
 70
     0
300
1/16" = 1'-0"
140
0.0625
141
12.0
290
     0
  0
SCALE
  5
5D
102
{ACAD_REACTORS
330
47
102
}
330
47
100
AcDbScale
 70
     0
300
3/32" = 1'-0"
140
0.09375
141
12.0
290
     0
  0
SCALE
  5
5E
102
{ACAD_REACTORS
330
47
102
}
330
47
100
AcDbScale
 70
     0
300
1/8" = 1'-0"
140
0.125
141
12.0
290
     0
  0
SCALE
  5
5F
102
{ACAD_REACTORS
330
47
102
}
330
47
100
AcDbScale
 70
     0
300
3/16" = 1'-0"
140
0.1875
141
12.0
290
     0
  0
SCALE
  5
60
102
{ACAD_REACTORS
330
47
102
}
330
47
100
AcDbScale
 70
     0
300
1/4" = 1'-0"
140
0.25
141
12.0
290
     0
  0
SCALE
  5
61
102
{ACAD_REACTORS
330
47
102
}
330
47
100
AcDbScale
 70
     0
300
3/8" = 1'-0"
140
0.375
141
12.0
290
     0
  0
SCALE
  5
62
102
{ACAD_REACTORS
330
47
102
}
330
47
100
AcDbScale
 70
     0
300
1/2" = 1'-0"
140
0.5
141
12.0
290
     0
  0
SCALE
  5
63
102
{ACAD_REACTORS
330
47
102
}
330
47
100
AcDbScale
 70
     0
300
3/4" = 1'-0"
140
0.75
141
12.0
290
     0
  0
SCALE
  5
64
102
{ACAD_REACTORS
330
47
102
}
330
47
100
AcDbScale
 70
     0
300
1" = 1'-0"
140
1.0
141
12.0
290
     0
  0
SCALE
  5
65
102
{ACAD_REACTORS
330
47
102
}
330
47
100
AcDbScale
 70
     0
300
1-1/2" = 1'-0"
140
1.5
141
12.0
290
     0
  0
SCALE
  5
66
102
{ACAD_REACTORS
330
47
102
}
330
47
100
AcDbScale
 70
     0
300
3" = 1'-0"
140
3.0
141
12.0
290
     0
  0
SCALE
  5
67
102
{ACAD_REACTORS
330
47
102
}
330
47
100
AcDbScale
 70
     0
300
6" = 1'-0"
140
6.0
141
12.0
290
     0
  0
SCALE
  5
68
102
{ACAD_REACTORS
330
47
102
}
330
47
100
AcDbScale
 70
     0
300
1'-0" = 1'-0"
140
12.0
141
12.0
290
     0
  0
ENDSEC
  0
EOF
