  0
SECTION
  2
HEADER
  9
$ACADVER
  1
AC1015
  9
$ACADMAINTVER
 70
     6
  9
$DWGCODEPAGE
  3
ANSI_1252
  9
$INSBASE
 10
0.0
 20
0.0
 30
0.0
  9
$EXTMIN
 10
0.0
 20
0.0
 30
0.0
  9
$EXTMAX
 10
297.0
 20
210.0
 30
0.0
  9
$LIMMIN
 10
0.0
 20
0.0
  9
$LIMMAX
 10
297.0
 20
210.0
  9
$ORTHOMODE
 70
     0
  9
$REGENMODE
 70
     1
  9
$FILLMODE
 70
     1
  9
$QTEXTMODE
 70
     0
  9
$MIRRTEXT
 70
     1
  9
$LTSCALE
 40
1.0
  9
$ATTMODE
 70
     1
  9
$TEXTSIZE
 40
2.0
  9
$TRACEWID
 40
1.0
  9
$TEXTSTYLE
  7
Standard
  9
$CLAYER
  8
0
  9
$CELTYPE
  6
ByLayer
  9
$CECOLOR
 62
   256
  9
$CELTSCALE
 40
1.0
  9
$DISPSILH
 70
     0
  9
$DIMSCALE
 40
1.0
  9
$DIMASZ
 40
3.0
  9
$DIMEXO
 40
0.0
  9
$DIMDLI
 40
3.75
  9
$DIMRND
 40
0.0
  9
$DIMDLE
 40
0.0
  9
$DIMEXE
 40
1.0
  9
$DIMTP
 40
0.0
  9
$DIMTM
 40
0.0
  9
$DIMTXT
 40
2.0
  9
$DIMCEN
 40
2.5
  9
$DIMTSZ
 40
0.0
  9
$DIMTOL
 70
     0
  9
$DIMLIM
 70
     0
  9
$DIMTIH
 70
     1
  9
$DIMTOH
 70
     1
  9
$DIMSE1
 70
     0
  9
$DIMSE2
 70
     0
  9
$DIMTAD
 70
     1
  9
$DIMZIN
 70
     0
  9
$DIMBLK
  1

  9
$DIMASO
 70
     1
  9
$DIMSHO
 70
     1
  9
$DIMPOST
  1

  9
$DIMAPOST
  1

  9
$DIMALT
 70
     0
  9
$DIMALTD
 70
     3
  9
$DIMALTF
 40
0.0393700787
  9
$DIMLFAC
 40
2.0
  9
$DIMTOFL
 70
     1
  9
$DIMTVP
 40
0.0
  9
$DIMTIX
 70
     0
  9
$DIMSOXD
 70
     0
  9
$DIMSAH
 70
     0
  9
$DIMBLK1
  1

  9
$DIMBLK2
  1

  9
$DIMSTYLE
  2
ISO-25
  9
$DIMCLRD
 70
     0
  9
$DIMCLRE
 70
     0
  9
$DIMCLRT
 70
     0
  9
$DIMTFAC
 40
1.0
  9
$DIMGAP
 40
1.524
  9
$DIMJUST
 70
     0
  9
$DIMSD1
 70
     0
  9
$DIMSD2
 70
     0
  9
$DIMTOLJ
 70
     0
  9
$DIMTZIN
 70
     0
  9
$DIMALTZ
 70
     0
  9
$DIMALTTZ
 70
     0
  9
$DIMUPT
 70
     0
  9
$DIMDEC
 70
     2
  9
$DIMTDEC
 70
     3
  9
$DIMALTU
 70
     2
  9
$DIMALTTD
 70
     3
  9
$DIMTXSTY
  7
Standard
  9
$DIMAUNIT
 70
     0
  9
$DIMADEC
 70
     2
  9
$DIMALTRND
 40
0.0
  9
$DIMAZIN
 70
     0
  9
$DIMDSEP
 70
    44
  9
$DIMATFIT
 70
     3
  9
$DIMFRAC
 70
     0
  9
$DIMLDRBLK
  1

  9
$DIMLUNIT
 70
     2
  9
$DIMLWD
 70
    -2
  9
$DIMLWE
 70
    -2
  9
$DIMTMOVE
 70
     0
  9
$LUNITS
 70
     2
  9
$LUPREC
 70
     2
  9
$SKETCHINC
 40
1.0
  9
$FILLETRAD
 40
10.0
  9
$AUNITS
 70
     0
  9
$AUPREC
 70
     2
  9
$MENU
  1
.
  9
$ELEVATION
 40
0.0
  9
$PELEVATION
 40
0.0
  9
$THICKNESS
 40
0.0
  9
$LIMCHECK
 70
     0
  9
$CHAMFERA
 40
0.0
  9
$CHAMFERB
 40
0.0
  9
$CHAMFERC
 40
0.0
  9
$CHAMFERD
 40
0.0
  9
$SKPOLY
 70
     0
  9
$TDCREATE
 40
2458183.65949919
  9
$TDUCREATE
 40
2458183.617832523
  9
$TDUPDATE
 40
2458183.659500671
  9
$TDUUPDATE
 40
2458183.617834005
  9
$TDINDWG
 40
0.0000000116
  9
$TDUSRTIMER
 40
0.0000000116
  9
$USRTIMER
 70
     1
  9
$ANGBASE
 50
0.0
  9
$ANGDIR
 70
     0
  9
$PDMODE
 70
     0
  9
$PDSIZE
 40
-1.0
  9
$PLINEWID
 40
0.0
  9
$SPLFRAME
 70
     0
  9
$SPLINETYPE
 70
     6
  9
$SPLINESEGS
 70
     8
  9
$HANDSEED
  5
336
  9
$SURFTAB1
 70
     6
  9
$SURFTAB2
 70
     6
  9
$SURFTYPE
 70
     6
  9
$SURFU
 70
     6
  9
$SURFV
 70
     6
  9
$UCSBASE
  2

  9
$UCSNAME
  2

  9
$UCSORG
 10
0.0
 20
0.0
 30
0.0
  9
$UCSXDIR
 10
1.0
 20
0.0
 30
0.0
  9
$UCSYDIR
 10
0.0
 20
1.0
 30
0.0
  9
$UCSORTHOREF
  2

  9
$UCSORTHOVIEW
 70
     0
  9
$UCSORGTOP
 10
0.0
 20
0.0
 30
0.0
  9
$UCSORGBOTTOM
 10
0.0
 20
0.0
 30
0.0
  9
$UCSORGLEFT
 10
0.0
 20
0.0
 30
0.0
  9
$UCSORGRIGHT
 10
0.0
 20
0.0
 30
0.0
  9
$UCSORGFRONT
 10
0.0
 20
0.0
 30
0.0
  9
$UCSORGBACK
 10
0.0
 20
0.0
 30
0.0
  9
$PUCSBASE
  2

  9
$PUCSNAME
  2

  9
$PUCSORG
 10
0.0
 20
0.0
 30
0.0
  9
$PUCSXDIR
 10
1.0
 20
0.0
 30
0.0
  9
$PUCSYDIR
 10
0.0
 20
1.0
 30
0.0
  9
$PUCSORTHOREF
  2

  9
$PUCSORTHOVIEW
 70
     0
  9
$PUCSORGTOP
 10
0.0
 20
0.0
 30
0.0
  9
$PUCSORGBOTTOM
 10
0.0
 20
0.0
 30
0.0
  9
$PUCSORGLEFT
 10
0.0
 20
0.0
 30
0.0
  9
$PUCSORGRIGHT
 10
0.0
 20
0.0
 30
0.0
  9
$PUCSORGFRONT
 10
0.0
 20
0.0
 30
0.0
  9
$PUCSORGBACK
 10
0.0
 20
0.0
 30
0.0
  9
$USERI1
 70
     0
  9
$USERI2
 70
     0
  9
$USERI3
 70
     0
  9
$USERI4
 70
     0
  9
$USERI5
 70
     0
  9
$USERR1
 40
0.0
  9
$USERR2
 40
0.0
  9
$USERR3
 40
0.0
  9
$USERR4
 40
0.0
  9
$USERR5
 40
0.0
  9
$WORLDVIEW
 70
     1
  9
$SHADEDGE
 70
     3
  9
$SHADEDIF
 70
    70
  9
$TILEMODE
 70
     1
  9
$MAXACTVP
 70
    64
  9
$PINSBASE
 10
0.0
 20
0.0
 30
0.0
  9
$PLIMCHECK
 70
     0
  9
$PEXTMIN
 10
1.0000000000E+20
 20
1.0000000000E+20
 30
1.0000000000E+20
  9
$PEXTMAX
 10
-1.0000000000E+20
 20
-1.0000000000E+20
 30
-1.0000000000E+20
  9
$PLIMMIN
 10
0.0
 20
0.0
  9
$PLIMMAX
 10
420.0
 20
297.0
  9
$UNITMODE
 70
     0
  9
$VISRETAIN
 70
     1
  9
$PLINEGEN
 70
     0
  9
$PSLTSCALE
 70
     1
  9
$TREEDEPTH
 70
  3020
  9
$CMLSTYLE
  2
Standard
  9
$CMLJUST
 70
     0
  9
$CMLSCALE
 40
20.0
  9
$PROXYGRAPHICS
 70
     1
  9
$MEASUREMENT
 70
     1
  9
$CELWEIGHT
370
    -1
  9
$ENDCAPS
280
     0
  9
$JOINSTYLE
280
     0
  9
$LWDISPLAY
290
     1
  9
$INSUNITS
 70
     4
  9
$HYPERLINKBASE
  1

  9
$STYLESHEET
  1

  9
$XEDIT
290
     1
  9
$CEPSNTYPE
380
     0
  9
$PSTYLEMODE
290
     1
  9
$FINGERPRINTGUID
  2
{179B3A55-DB52-47F5-B20B-1536732AE22A}
  9
$VERSIONGUID
  2
{FAEB1C32-E019-11D5-929B-00C0DF256EC4}
  9
$EXTNAMES
290
     1
  9
$PSVPSCALE
 40
0.0
  9
$OLESTARTUP
290
     0
  0
ENDSEC
  0
SECTION
  2
CLASSES
  0
CLASS
  1
ACDBDICTIONARYWDFLT
  2
AcDbDictionaryWithDefault
  3
ObjectDBX Classes
 90
        0
280
     0
281
     0
  0
CLASS
  1
VISUALSTYLE
  2
AcDbVisualStyle
  3
ObjectDBX Classes
 90
     4095
280
     0
281
     0
  0
CLASS
  1
MATERIAL
  2
AcDbMaterial
  3
ObjectDBX Classes
 90
     1153
280
     0
281
     0
  0
CLASS
  1
SCALE
  2
AcDbScale
  3
ObjectDBX Classes
 90
     1153
280
     0
281
     0
  0
CLASS
  1
TABLESTYLE
  2
AcDbTableStyle
  3
ObjectDBX Classes
 90
     4095
280
     0
281
     0
  0
CLASS
  1
MLEADERSTYLE
  2
AcDbMLeaderStyle
  3
ACDB_MLEADERSTYLE_CLASS
 90
     4095
280
     0
281
     0
  0
CLASS
  1
SUN
  2
AcDbSun
  3
SCENEOE
 90
     1153
280
     0
281
     0
  0
CLASS
  1
ACDBPLACEHOLDER
  2
AcDbPlaceHolder
  3
ObjectDBX Classes
 90
        0
280
     0
281
     0
  0
CLASS
  1
LAYOUT
  2
AcDbLayout
  3
ObjectDBX Classes
 90
        0
280
     0
281
     0
  0
ENDSEC
  0
SECTION
  2
TABLES
  0
TABLE
  2
VPORT
  5
8
330
0
100
AcDbSymbolTable
 70
     1
  0
VPORT
  5
29
330
8
100
AcDbSymbolTableRecord
100
AcDbViewportTableRecord
  2
*Active
 70
     0
 10
0.0
 20
0.0
 11
1.0
 21
1.0
 12
148.5
 22
105.0
 13
0.0
 23
0.0
 14
10.0
 24
10.0
 15
10.0
 25
10.0
 16
0.0
 26
0.0
 36
1.0
 17
0.0
 27
0.0
 37
0.0
 40
210.0
 41
1.4142857143
 42
50.0
 43
0.0
 44
0.0
 50
0.0
 51
0.0
 71
     0
 72
  2000
 73
     1
 74
     3
 75
     0
 76
     0
 77
     0
 78
     0
281
     0
 65
     1
110
0.0
120
0.0
130
0.0
111
1.0
121
0.0
131
0.0
112
0.0
122
1.0
132
0.0
 79
     0
146
0.0
  0
ENDTAB
  0
TABLE
  2
LTYPE
  5
5
330
0
100
AcDbSymbolTable
 70
     6
  0
LTYPE
  5
14
330
5
100
AcDbSymbolTableRecord
100
AcDbLinetypeTableRecord
  2
ByBlock
 70
     0
  3

 72
    65
 73
     0
 40
0.0
  0
LTYPE
  5
15
330
5
100
AcDbSymbolTableRecord
100
AcDbLinetypeTableRecord
  2
ByLayer
 70
     0
  3

 72
    65
 73
     0
 40
0.0
  0
LTYPE
  5
16
330
5
100
AcDbSymbolTableRecord
100
AcDbLinetypeTableRecord
  2
Continuous
 70
     0
  3
Solid line
 72
    65
 73
     0
 40
0.0
  0
LTYPE
  5
6E
330
5
100
AcDbSymbolTableRecord
100
AcDbLinetypeTableRecord
  2
HIDDEN
 70
     0
  3
Hidden __ __ __ __ __ __ __ __ __ __ __ __ __ __
 72
    65
 73
     2
 40
1.905
 49
1.27
 74
     0
 49
-0.635
 74
     0
  0
LTYPE
  5
6F
330
5
100
AcDbSymbolTableRecord
100
AcDbLinetypeTableRecord
  2
PHANTOM
 70
     0
  3
Phantom ______  __  __  ______  __  __  ______
 72
    65
 73
     6
 40
12.7
 49
6.35
 74
     0
 49
-1.27
 74
     0
 49
1.27
 74
     0
 49
-1.27
 74
     0
 49
1.27
 74
     0
 49
-1.27
 74
     0
  0
LTYPE
  5
70
330
5
100
AcDbSymbolTableRecord
100
AcDbLinetypeTableRecord
  2
CENTER
 70
     0
  3
Center ____ _ ____ _ ____ _ ____ _ ____ _ ____
 72
    65
 73
     4
 40
10.16
 49
6.35
 74
     0
 49
-1.27
 74
     0
 49
1.27
 74
     0
 49
-1.27
 74
     0
  0
LTYPE
  5
71
330
5
100
AcDbSymbolTableRecord
100
AcDbLinetypeTableRecord
  2
CENTERX2
 70
     0
  3
Center (2x) ________  __  ________  __  _____
 72
    65
 73
     4
 40
20.32
 49
12.7
 74
     0
 49
-2.54
 74
     0
 49
2.54
 74
     0
 49
-2.54
 74
     0
  0
LTYPE
  5
72
330
5
100
AcDbSymbolTableRecord
100
AcDbLinetypeTableRecord
  2
DOT2
 70
     0
  3
Dot (.5x) ........................................
 72
    65
 73
     2
 40
0.635
 49
0.0
 74
     0
 49
-0.635
 74
     0
  0
ENDTAB
  0
TABLE
  2
LAYER
  5
2
330
0
100
AcDbSymbolTable
 70
     5
  0
LAYER
  5
10
330
2
100
AcDbSymbolTableRecord
100
AcDbLayerTableRecord
  2
0
 70
     0
 62
     7
  6
Continuous
370
    -3
390
F
  0
LAYER
  5
73
330
2
100
AcDbSymbolTableRecord
100
AcDbLayerTableRecord
  2
FORMAT
 70
     0
 62
     7
  6
Continuous
370
    -3
390
F
  0
LAYER
  5
74
330
2
100
AcDbSymbolTableRecord
100
AcDbLayerTableRecord
  2
VERMASSUNG
 70
     0
 62
     7
  6
Continuous
370
    -3
390
F
  0
LAYER
  5
75
330
2
100
AcDbSymbolTableRecord
100
AcDbLayerTableRecord
  2
KOPF_DÜNN
 70
     0
 62
     7
  6
Continuous
370
    -3
390
F
  0
LAYER
  5
76
330
2
100
AcDbSymbolTableRecord
100
AcDbLayerTableRecord
  2
KOPF_DICK
 70
     0
 62
     7
  6
Continuous
370
    25
390
F
  0
ENDTAB
  0
TABLE
  2
STYLE
  5
3
330
0
100
AcDbSymbolTable
 70
     2
  0
STYLE
  5
11
330
3
100
AcDbSymbolTableRecord
100
AcDbTextStyleTableRecord
  2
Standard
 70
     0
 40
0.0
 41
1.0
 50
0.0
 71
     0
 42
2.0
  3
txt
  4

  0
STYLE
  5
77
330
3
100
AcDbSymbolTableRecord
100
AcDbTextStyleTableRecord
  2
SLDTEXTSTYLE0
 70
     0
 40
0.0
 41
0.7
 50
0.0
 71
     0
 42
2.0
  3
TXT
  4

  0
ENDTAB
  0
TABLE
  2
VIEW
  5
6
330
0
100
AcDbSymbolTable
 70
     0
  0
ENDTAB
  0
TABLE
  2
UCS
  5
7
330
0
100
AcDbSymbolTable
 70
     0
  0
ENDTAB
  0
TABLE
  2
APPID
  5
9
330
0
100
AcDbSymbolTable
 70
     1
  0
APPID
  5
12
330
9
100
AcDbSymbolTableRecord
100
AcDbRegAppTableRecord
  2
ACAD
 70
     0
  0
ENDTAB
  0
TABLE
  2
DIMSTYLE
  5
A
330
0
100
AcDbSymbolTable
 70
     3
100
AcDbDimStyleTable
  0
DIMSTYLE
105
27
330
A
100
AcDbSymbolTableRecord
100
AcDbDimStyleTableRecord
  2
ISO-25
 70
     0
 41
2.5
 42
0.625
 43
3.75
 44
1.25
 73
     0
 74
     0
 77
     1
 78
     8
140
2.5
141
2.5
143
0.0393700787
147
0.625
171
     3
172
     1
178
     0
271
     2
272
     2
274
     3
278
    44
283
     0
284
     8
340
11
  0
DIMSTYLE
105
1BC
102
{ACAD_REACTORS
330
1BB
102
}
330
A
100
AcDbSymbolTableRecord
100
AcDbDimStyleTableRecord
  2
SLDDIMSTYLE0
 70
     0
 41
3.0
 44
0.0
 45
0.000000001
 73
     0
 74
     0
 77
     1
 78
    12
 79
     3
140
2.0
147
0.5
173
     1
178
     0
271
     2
272
     3
276
     2
284
    12
340
77
  0
DIMSTYLE
105
1CA
102
{ACAD_REACTORS
330
1C9
102
}
330
A
100
AcDbSymbolTableRecord
100
AcDbDimStyleTableRecord
  2
SLDDIMSTYLE1
 70
     0
 41
3.0
 44
0.0
 73
     0
 74
     0
 77
     1
 78
    12
 79
     3
140
2.0
147
0.5
173
     1
178
     0
179
     2
272
     3
276
     2
284
    12
340
77
  0
ENDTAB
  0
TABLE
  2
BLOCK_RECORD
  5
1
330
0
100
AcDbSymbolTable
 70
     3
  0
BLOCK_RECORD
  5
1F
330
1
100
AcDbSymbolTableRecord
100
AcDbBlockTableRecord
  2
*Model_Space
340
22
  0
BLOCK_RECORD
  5
1B
330
1
100
AcDbSymbolTableRecord
100
AcDbBlockTableRecord
  2
*Paper_Space
340
1E
  0
BLOCK_RECORD
  5
23
330
1
100
AcDbSymbolTableRecord
100
AcDbBlockTableRecord
  2
*Paper_Space0
340
26
  0
BLOCK_RECORD
  5
1BD
330
1
100
AcDbSymbolTableRecord
100
AcDbBlockTableRecord
  2
_D
340
0
  0
BLOCK_RECORD
  5
1CB
330
1
100
AcDbSymbolTableRecord
100
AcDbBlockTableRecord
  2
_D_1
340
0
  0
ENDTAB
  0
ENDSEC
  0
SECTION
  2
BLOCKS
  0
BLOCK
  5
20
330
1F
100
AcDbEntity
  8
0
100
AcDbBlockBegin
  2
*Model_Space
 70
     0
 10
0.0
 20
0.0
 30
0.0
  3
*Model_Space
  1

  0
ENDBLK
  5
21
330
1F
100
AcDbEntity
  8
0
100
AcDbBlockEnd
  0
BLOCK
  5
1C
330
1B
100
AcDbEntity
 67
     1
  8
0
100
AcDbBlockBegin
  2
*Paper_Space
 70
     0
 10
0.0
 20
0.0
 30
0.0
  3
*Paper_Space
  1

  0
ENDBLK
  5
1D
330
1B
100
AcDbEntity
 67
     1
  8
0
100
AcDbBlockEnd
  0
BLOCK
  5
24
330
23
100
AcDbEntity
  8
0
100
AcDbBlockBegin
  2
*Paper_Space0
 70
     0
 10
0.0
 20
0.0
 30
0.0
  3
*Paper_Space0
  1

  0
ENDBLK
  5
25
330
23
100
AcDbEntity
  8
0
100
AcDbBlockEnd
  0
BLOCK
  5
1BE
330
1BD
100
AcDbEntity
  8
0
100
AcDbBlockBegin
  2
_D
 70
     0
 10
0.0
 20
0.0
 30
0.0
  3
_D
  1

  0
SOLID
  5
1C0
330
1BD
100
AcDbEntity
  8
VERMASSUNG
100
AcDbTrace
 10
107.3419957025
 20
63.8087736665
 30
0.0
 11
110.3419957025
 21
63.3587736665
 31
0.0
 12
110.3419957025
 22
64.2587736665
 32
0.0
 13
110.3419957025
 23
64.2587736665
 33
0.0
  0
SOLID
  5
1C1
330
1BD
100
AcDbEntity
  8
VERMASSUNG
100
AcDbTrace
 10
193.8419957025
 20
63.8087736665
 30
0.0
 11
190.8419957025
 21
64.2587736665
 31
0.0
 12
190.8419957025
 22
63.3587736665
 32
0.0
 13
190.8419957025
 23
63.3587736665
 33
0.0
  0
LINE
  5
1C2
330
1BD
100
AcDbEntity
  8
VERMASSUNG
100
AcDbLine
 10
107.3419957025
 20
77.6286216245
 30
0.0
 11
107.3419957025
 21
62.8087736665
 31
0.0
  0
LINE
  5
1C3
330
1BD
100
AcDbEntity
  8
VERMASSUNG
100
AcDbLine
 10
193.8419957025
 20
78.308452801
 30
0.0
 11
193.8419957025
 21
62.8087736665
 31
0.0
  0
LINE
  5
1C4
330
1BD
100
AcDbEntity
  8
VERMASSUNG
100
AcDbLine
 10
107.3419957025
 20
63.8087736665
 30
0.0
 11
193.8419957025
 21
63.8087736665
 31
0.0
  0
MTEXT
  5
1C5
330
1BD
100
AcDbEntity
  8
VERMASSUNG
100
AcDbMText
 10
139.9819964034
 20
66.3869089714
 30
0.0
 40
2.0
 41
0.0
 71
     1
 72
     1
  1
%%c
  7
SLDTEXTSTYLE0
 73
     1
 44
1.0
  0
MTEXT
  5
1C6
330
1BD
100
AcDbEntity
  8
VERMASSUNG
100
AcDbMText
 10
143.5919964177
 20
66.5869089227
 30
0.0
 40
2.0
 41
0.0
 71
     1
 72
     1
  1
86.5 -
  7
SLDTEXTSTYLE0
 73
     1
 44
1.0
  0
MTEXT
  5
1C7
330
1BD
100
AcDbEntity
  8
VERMASSUNG
100
AcDbMText
 10
152.1919967098
 20
66.3869089714
 30
0.0
 40
2.0
 41
0.0
 71
     1
 72
     1
  1
%%c
  7
SLDTEXTSTYLE0
 73
     1
 44
1.0
  0
MTEXT
  5
1C8
330
1BD
100
AcDbEntity
  8
VERMASSUNG
100
AcDbMText
 10
155.8019967241
 20
66.5869089227
 30
0.0
 40
2.0
 41
0.0
 71
     1
 72
     1
  1
115.5
  7
SLDTEXTSTYLE0
 73
     1
 44
1.0
  0
ENDBLK
  5
1BF
330
1BD
100
AcDbEntity
  8
0
100
AcDbBlockEnd
  0
BLOCK
  5
1CC
330
1CB
100
AcDbEntity
  8
0
100
AcDbBlockBegin
  2
_D_1
 70
     0
 10
0.0
 20
0.0
 30
0.0
  3
_D_1
  1

  0
ARC
  5
1CE
330
1CB
100
AcDbEntity
  8
VERMASSUNG
100
AcDbCircle
 10
193.8419957025
 20
79.8087736665
 30
0.0
 40
10.00000000000013
100
AcDbArc
 50
180.0
 51
270.0
  0
SOLID
  5
1CF
330
1CB
100
AcDbEntity
  8
VERMASSUNG
100
AcDbTrace
 10
183.8419957025
 20
79.8087736665
 30
0.0
 11
183.8324049586
 21
76.7752265649
 31
0.0
 12
184.7228653145
 22
76.9059183951
 32
0.0
 13
184.7228653145
 23
76.9059183951
 33
0.0
  0
SOLID
  5
1D0
330
1CB
100
AcDbEntity
  8
VERMASSUNG
100
AcDbTrace
 10
193.8419957025
 20
69.8087736665
 30
0.0
 11
190.9391404311
 21
70.6896432785
 31
0.0
 12
190.8084486009
 22
69.7991829225
 32
0.0
 13
190.8084486009
 23
69.7991829225
 33
0.0
  0
LINE
  5
1D1
330
1CB
100
AcDbEntity
  8
VERMASSUNG
100
AcDbLine
 10
193.8419957025
 20
78.308452801
 30
0.0
 11
193.8419957025
 21
68.8087736665
 31
0.0
  0
MTEXT
  5
1D2
330
1CB
100
AcDbEntity
  8
VERMASSUNG
100
AcDbMText
 10
187.1797315884
 20
75.9749364822
 30
0.0
 40
2.0
 41
0.0
 71
     1
 72
     1
  1
90°
  7
SLDTEXTSTYLE0
 11
0.7071067811865599
 21
-0.7071067811865351
 31
0.0
 73
     1
 44
1.0
  0
ENDBLK
  5
1CD
330
1CB
100
AcDbEntity
  8
0
100
AcDbBlockEnd
  0
ENDSEC
  0
SECTION
  2
ENTITIES
  0
MTEXT
  5
78
330
1F
100
AcDbEntity
  8
KOPF_DÜNN
100
AcDbMText
 10
13.8892156294
 20
23.8442973028
 30
0.0
 40
3.0
 41
0.0
 71
     1
 72
     1
  1
166.720.012
  7
SLDTEXTSTYLE0
 73
     1
 44
1.0
  0
MTEXT
  5
79
330
1F
100
AcDbEntity
  8
VERMASSUNG
100
AcDbMText
 10
13.9329988022
 20
28.8834360957
 30
0.0
 40
3.0
 41
0.0
 71
     1
 72
     1
  1
Synchro-Wendeplattenhalter 90°_Synchronised inst holder 90°
  7
SLDTEXTSTYLE0
 73
     1
 44
1.0
  0
MTEXT
  5
7A
330
1F
100
AcDbEntity
  8
VERMASSUNG
100
AcDbMText
 10
98.8601118557
 20
13.8365368761
 30
0.0
 40
2.0
 41
0.0
 71
     1
 72
     1
  1
Datum: 05.03.2018
  7
SLDTEXTSTYLE0
 73
     1
 44
1.0
  0
MTEXT
  5
7B
330
1F
100
AcDbEntity
  8
VERMASSUNG
100
AcDbMText
 10
13.933048693
 20
18.0482802738
 30
0.0
 40
2.0
 41
0.0
 71
     1
 72
     1
  1
CC..12 04..
  7
SLDTEXTSTYLE0
 73
     1
 44
1.0
  0
MTEXT
  5
7C
330
1F
100
AcDbEntity
  8
VERMASSUNG
100
AcDbMText
 10
13.9808475933
 20
13.9090974274
 30
0.0
 40
2.0
 41
0.0
 71
     1
 72
     1
  1
Gewicht: g
  7
SLDTEXTSTYLE0
 73
     1
 44
1.0
  0
LINE
  5
7D
330
1F
100
AcDbEntity
  8
0
  6
Continuous
 62
     7
370
    25
100
AcDbLine
 10
152.8926020535
 20
114.8087736665
 30
0.0
 11
153.0926020535
 21
115.0087736665
 31
0.0
  0
LINE
  5
7E
330
1F
100
AcDbEntity
  8
0
  6
Continuous
 62
     7
370
    25
100
AcDbLine
 10
152.1748376305
 20
114.8087736665
 30
0.0
 11
152.8926020535
 21
114.8087736665
 31
0.0
  0
LINE
  5
7F
330
1F
100
AcDbEntity
  8
0
  6
Continuous
 62
     7
370
    25
100
AcDbLine
 10
148.2926020535
 20
114.8087736665
 30
0.0
 11
149.0058507968
 21
114.8087736665
 31
0.0
  0
LINE
  5
80
330
1F
100
AcDbEntity
  8
0
  6
Continuous
 62
     7
370
    25
100
AcDbLine
 10
148.0926020535
 20
115.0087736665
 30
0.0
 11
148.2926020535
 21
114.8087736665
 31
0.0
  0
ARC
  5
81
330
1F
100
AcDbEntity
  8
0
  6
Continuous
 62
     7
370
    25
100
AcDbCircle
 10
153.4926020535
 20
121.0087736665
 30
0.0
 40
0.4000000000000057
100
AcDbArc
 50
90.0
 51
180.0
  0
ARC
  5
82
330
1F
100
AcDbEntity
  8
0
  6
Continuous
 62
     7
370
    25
100
AcDbCircle
 10
147.6926020535
 20
121.0087736665
 30
0.0
 40
0.4000000000000057
100
AcDbArc
 50
0.0
 51
90.0
  0
LINE
  5
83
330
1F
100
AcDbEntity
  8
0
  6
Continuous
 62
     7
370
    25
100
AcDbLine
 10
153.4926020535
 20
121.4087736665
 30
0.0
 11
153.9419957025
 21
121.4087736665
 31
0.0
  0
LINE
  5
84
330
1F
100
AcDbEntity
  8
0
  6
Continuous
 62
     7
370
    25
100
AcDbLine
 10
147.2419957025
 20
121.4087736665
 30
0.0
 11
147.6926020535
 21
121.4087736665
 31
0.0
  0
LINE
  5
85
330
1F
100
AcDbEntity
  8
0
  6
Continuous
 62
     7
370
    25
100
AcDbLine
 10
113.5919957025
 20
120.0662013306
 30
0.0
 11
113.5919957025
 21
107.5444882493
 31
0.0
  0
LINE
  5
86
330
1F
100
AcDbEntity
  8
0
  6
Continuous
 62
     7
370
    25
100
AcDbLine
 10
113.5919957025
 20
129.3087736665
 30
0.0
 11
113.5919957025
 21
126.5473385701
 31
0.0
  0
LINE
  5
87
330
1F
100
AcDbEntity
  8
0
  6
Continuous
 62
     7
370
    25
100
AcDbLine
 10
187.5919957025
 20
126.5473385701
 30
0.0
 11
187.5919957025
 21
129.3087736665
 31
0.0
  0
LINE
  5
88
330
1F
100
AcDbEntity
  8
0
  6
Continuous
 62
     7
370
    25
100
AcDbLine
 10
187.5919957025
 20
107.5444882493
 30
0.0
 11
187.5919957025
 21
120.0662013306
 31
0.0
  0
LINE
  5
89
330
1F
100
AcDbEntity
  8
0
  6
Continuous
 62
     7
370
    25
100
AcDbLine
 10
153.0926020535
 20
124.0170880348
 30
0.0
 11
153.0926020535
 21
115.0087736665
 31
0.0
  0
LINE
  5
8A
330
1F
100
AcDbEntity
  8
0
  6
Continuous
 62
     7
370
    25
100
AcDbLine
 10
152.8926020535
 20
114.8087736665
 30
0.0
 11
152.8926020535
 21
124.1703113932
 31
0.0
  0
SPLINE
  5
8B
330
1F
100
AcDbEntity
  8
0
  6
Continuous
 62
     7
370
    25
100
AcDbSpline
210
0.0
220
0.0
230
1.0
 70
     8
 71
     3
 72
    37
 73
    33
 74
     0
 42
0.000000001
 43
0.00000001
 40
0.0
 40
0.0
 40
0.0
 40
0.0
 40
0.0263885584881455
 40
0.0529630523790678
 40
0.0801220070177645
 40
0.1074817443353488
 40
0.1338697610755411
 40
0.1875262981391174
 40
0.2148539926182183
 40
0.2415433960473587
 40
0.2958132068409073
 40
0.3234575459703954
 40
0.3503562972010502
 40
0.3774445805879657
 40
0.4051359845791356
 40
0.4330383390643488
 40
0.4595990663810515
 40
0.5136476592633511
 40
0.5412037429128241
 40
0.5674046427767088
 40
0.6206891404835866
 40
0.647832441662317
 40
0.6742123638386054
 40
0.727841876517383
 40
0.7551505407467166
 40
0.781966274728191
 40
0.8365038415390346
 40
0.8642926203808039
 40
0.8911291001591273
 40
0.9457390562669302
 40
0.9735840356107603
 40
1.0
 40
1.0
 40
1.0
 40
1.0
 10
148.9426020535208
 20
114.8205785442054
 30
0.0
 10
148.9436703271037
 20
114.8184105764741
 30
0.0
 10
148.9458144013908
 20
114.8140593653778
 30
0.0
 10
148.963291143515
 20
114.8102696576678
 30
0.0
 10
148.9915521153371
 20
114.8085033779993
 30
0.0
 10
149.0312835093611
 20
114.8089390054066
 30
0.0
 10
149.098294589298
 20
114.8121042393181
 30
0.0
 10
149.1862055390202
 20
114.8187829104499
 30
0.0
 10
149.293325693916
 20
114.8279523750956
 30
0.0
 10
149.4130825278383
 20
114.8384047780455
 30
0.0
 10
149.5504137564925
 20
114.8501142581328
 30
0.0
 10
149.7021139728024
 20
114.8616546420831
 30
0.0
 10
149.822337402499
 20
114.869889489904
 30
0.0
 10
149.9481416176063
 20
114.8773964971654
 30
0.0
 10
150.0802746922035
 20
114.8839535707004
 30
0.0
 10
150.2154404033297
 20
114.8891575407234
 30
0.0
 10
150.3975640993122
 20
114.8940696336936
 30
0.0
 10
150.5830191305753
 20
114.8957728617707
 30
0.0
 10
150.7669536035924
 20
114.8940474666564
 30
0.0
 10
150.9478889934244
 20
114.8901942191844
 30
0.0
 10
151.1240968836886
 20
114.883359372275
 30
0.0
 10
151.2921524110153
 20
114.8742485158101
 30
0.0
 10
151.4542113562827
 20
114.8639501492053
 30
0.0
 10
151.6053768274777
 20
114.8524255254811
 30
0.0
 10
151.742240021132
 20
114.8409618645478
 30
0.0
 10
151.869503545894
 20
114.8299233571496
 30
0.0
 10
151.9799686439823
 20
114.8202912163286
 30
0.0
 10
152.0700674690927
 20
114.8134772205658
 30
0.0
 10
152.1462994921095
 20
114.8088666855715
 30
0.0
 10
152.2004552404931
 20
114.8081562258543
 30
0.0
 10
152.2321599056841
 20
114.8117407739412
 30
0.0
 10
152.2382245891873
 20
114.815441150848
 30
0.0
 10
152.2411770712569
 20
114.8172426127813
 30
0.0
  0
ARC
  5
8C
330
1F
100
AcDbEntity
  8
0
  6
Continuous
 62
     7
370
    25
100
AcDbCircle
 10
150.5916421694
 20
110.0489714654
 30
0.0
 40
5.0485213100738
100
AcDbArc
 50
70.963693791
 51
109.0648568496
  0
LINE
  5
8D
330
1F
100
AcDbEntity
  8
0
  6
Continuous
 62
     7
370
    25
100
AcDbLine
 10
148.2926020535
 20
124.7587736665
 30
0.0
 11
148.2926020535
 21
114.8087736665
 31
0.0
  0
LINE
  5
8E
330
1F
100
AcDbEntity
  8
0
  6
Continuous
 62
     7
370
    25
100
AcDbLine
 10
148.0926020535
 20
115.0087736665
 30
0.0
 11
148.0926020535
 21
124.7587736665
 31
0.0
  0
LINE
  5
8F
330
1F
100
AcDbEntity
  8
0
  6
Continuous
 62
     7
370
    25
100
AcDbLine
 10
109.9950624841
 20
91.9243191566
 30
0.0
 11
110.0105850051
 21
91.9243191566
 31
0.0
  0
LINE
  5
90
330
1F
100
AcDbEntity
  8
0
  6
Continuous
 62
     7
370
    25
100
AcDbLine
 10
109.9950624841
 20
91.9243191566
 30
0.0
 11
109.8402867729
 21
92.1087736665
 31
0.0
  0
LINE
  5
91
330
1F
100
AcDbEntity
  8
0
  6
Continuous
 62
     7
370
    25
100
AcDbLine
 10
109.8402867729
 20
92.1087736665
 30
0.0
 11
109.8402867729
 21
92.2437097396
 31
0.0
  0
LINE
  5
92
330
1F
100
AcDbEntity
  8
0
  6
Continuous
 62
     7
370
    25
100
AcDbLine
 10
109.8402867729
 20
92.1087736665
 30
0.0
 11
109.4463636717
 21
92.1782329375
 31
0.0
  0
LINE
  5
93
330
1F
100
AcDbEntity
  8
0
  6
Continuous
 62
     7
370
    25
100
AcDbLine
 10
107.9618200273
 20
80.3932281764
 30
0.0
 11
109.9950624841
 21
91.9243191566
 31
0.0
  0
LINE
  5
94
330
1F
100
AcDbEntity
  8
0
  6
Continuous
 62
     7
370
    25
100
AcDbLine
 10
107.9618200273
 20
80.3932281764
 30
0.0
 11
107.7419957025
 21
80.2087736665
 31
0.0
  0
LINE
  5
95
330
1F
100
AcDbEntity
  8
0
  6
Continuous
 62
     7
370
    25
100
AcDbLine
 10
107.7419957025
 20
80.2087736665
 30
0.0
 11
107.3480726013
 21
80.2782329375
 31
0.0
  0
LINE
  5
96
330
1F
100
AcDbEntity
  8
0
  6
Continuous
 62
     7
370
    25
100
AcDbLine
 10
107.3480726013
 20
80.2782329375
 30
0.0
 11
109.4463636717
 21
92.1782329375
 31
0.0
  0
LINE
  5
97
330
1F
100
AcDbEntity
  8
0
  6
Continuous
 62
     7
370
    25
100
AcDbLine
 10
119.7171996976
 20
80.6563928081
 30
0.0
 11
119.6707966727
 21
80.3932281764
 31
0.0
  0
LINE
  5
98
330
1F
100
AcDbEntity
  8
0
  6
Continuous
 62
     7
370
    25
100
AcDbLine
 10
119.6707966727
 20
80.3932281764
 30
0.0
 11
107.9618200273
 21
80.3932281764
 31
0.0
  0
LINE
  5
99
330
1F
100
AcDbEntity
  8
0
  6
Continuous
 62
     7
370
    25
100
AcDbLine
 10
119.8255723839
 20
80.2087736665
 30
0.0
 11
120.1391997792
 21
80.1534726948
 31
0.0
  0
LINE
  5
9A
330
1F
100
AcDbEntity
  8
0
  6
Continuous
 62
     7
370
    25
100
AcDbLine
 10
119.6707966727
 20
80.3932281764
 30
0.0
 11
119.8255723839
 21
80.2087736665
 31
0.0
  0
LINE
  5
9B
330
1F
100
AcDbEntity
  8
0
  6
Continuous
 62
     7
370
    25
100
AcDbLine
 10
107.7419957025
 20
80.2087736665
 30
0.0
 11
107.7419957025
 21
79.8087736665
 31
0.0
  0
LINE
  5
9C
330
1F
100
AcDbEntity
  8
0
  6
Continuous
 62
     7
370
    25
100
AcDbLine
 10
119.8255723839
 20
80.2087736665
 30
0.0
 11
119.8255723839
 21
79.8087736665
 31
0.0
  0
LINE
  5
9D
330
1F
100
AcDbEntity
  8
0
  6
Continuous
 62
     7
370
    25
100
AcDbLine
 10
119.8255723839
 20
79.8087736665
 30
0.0
 11
107.7419957025
 21
79.8087736665
 31
0.0
  0
ARC
  5
9E
330
1F
100
AcDbEntity
  8
0
  6
Continuous
 62
     7
370
    25
100
AcDbCircle
 10
109.8402867729
 20
92.1087736665
 30
0.0
 40
0.4000000000000029
100
AcDbArc
 50
91.5700099416
 51
170.0
  0
ARC
  5
9F
330
1F
100
AcDbEntity
  8
0
  6
Continuous
 62
     7
370
    25
100
AcDbCircle
 10
107.7419957025
 20
80.2087736665
 30
0.0
 40
0.4000000000000081
100
AcDbArc
 50
170.0
 51
270.0
  0
ARC
  5
A0
330
1F
100
AcDbEntity
  8
0
  6
Continuous
 62
     7
370
    25
100
AcDbCircle
 10
119.8255723839
 20
80.2087736665
 30
0.0
 40
0.4000000000000085
100
AcDbArc
 50
270.0
 51
345.5224878141
  0
LINE
  5
A1
330
1F
100
AcDbEntity
  8
0
  6
Continuous
 62
     7
370
    25
100
AcDbLine
 10
193.8359188037
 20
80.2782329375
 30
0.0
 11
191.7376277333
 21
92.1782329375
 31
0.0
  0
ARC
  5
A2
330
1F
100
AcDbEntity
  8
0
  6
Continuous
 62
     7
370
    25
100
AcDbCircle
 10
193.4419957025
 20
80.2087736665
 30
0.0
 40
0.3999999999999941
100
AcDbArc
 50
270.0
 51
10.0
  0
LINE
  5
A3
330
1F
100
AcDbEntity
  8
0
  6
Continuous
 62
     7
370
    25
100
AcDbLine
 10
181.358419021
 20
79.8087736665
 30
0.0
 11
193.4419957025
 21
79.8087736665
 31
0.0
  0
ARC
  5
A4
330
1F
100
AcDbEntity
  8
0
  6
Continuous
 62
     7
370
    25
100
AcDbCircle
 10
181.358419021
 20
80.2087736665
 30
0.0
 40
0.4000000000000221
100
AcDbArc
 50
190.0
 51
270.0
  0
LINE
  5
A5
330
1F
100
AcDbEntity
  8
0
  6
Continuous
 62
     7
370
    25
100
AcDbLine
 10
178.8662048494
 20
92.0393143954
 30
0.0
 11
180.9644959198
 21
80.1393143954
 31
0.0
  0
ARC
  5
A6
330
1F
100
AcDbEntity
  8
0
  6
Continuous
 62
     7
370
    25
100
AcDbCircle
 10
179.2601279506
 20
92.1087736665
 30
0.0
 40
0.4000000000000199
100
AcDbArc
 50
90.0
 51
190.0
  0
LINE
  5
A7
330
1F
100
AcDbEntity
  8
0
  6
Continuous
 62
     7
370
    25
100
AcDbLine
 10
191.3437046321
 20
92.5087736665
 30
0.0
 11
179.2601279506
 21
92.5087736665
 31
0.0
  0
ARC
  5
A8
330
1F
100
AcDbEntity
  8
0
  6
Continuous
 62
     7
370
    25
100
AcDbCircle
 10
191.3437046321
 20
92.1087736665
 30
0.0
 40
0.4000000000000199
100
AcDbArc
 50
10.0
 51
90.0
  0
ARC
  5
A9
330
1F
100
AcDbEntity
  8
0
  6
Continuous
 62
     7
370
    25
100
AcDbCircle
 10
179.2601279506
 20
92.1087736665
 30
0.0
 40
0.3800000000000239
100
AcDbArc
 50
90.0
 51
190.0
  0
LINE
  5
AA
330
1F
100
AcDbEntity
  8
0
  6
Continuous
 62
     7
370
    25
100
AcDbLine
 10
178.8859010045
 20
92.0427873589
 30
0.0
 11
180.9841920752
 21
80.142787359
 31
0.0
  0
ARC
  5
AB
330
1F
100
AcDbEntity
  8
0
  6
Continuous
 62
     7
370
    25
100
AcDbCircle
 10
181.358419021
 20
80.2087736665
 30
0.0
 40
0.3799999999999955
100
AcDbArc
 50
190.0
 51
270.0
  0
LINE
  5
AC
330
1F
100
AcDbEntity
  8
0
  6
Continuous
 62
     7
370
    25
100
AcDbLine
 10
181.358419021
 20
79.8287736665
 30
0.0
 11
193.4419957025
 21
79.8287736665
 31
0.0
  0
ARC
  5
AD
330
1F
100
AcDbEntity
  8
0
  6
Continuous
 62
     7
370
    25
100
AcDbCircle
 10
193.4419957025
 20
80.2087736665
 30
0.0
 40
0.380000000000024
100
AcDbArc
 50
270.0
 51
10.0
  0
LINE
  5
AE
330
1F
100
AcDbEntity
  8
0
  6
Continuous
 62
     7
370
    25
100
AcDbLine
 10
193.8162226486
 20
80.274759974
 30
0.0
 11
191.7179315782
 21
92.174759974
 31
0.0
  0
ARC
  5
AF
330
1F
100
AcDbEntity
  8
0
  6
Continuous
 62
     7
370
    25
100
AcDbCircle
 10
191.3437046321
 20
92.1087736665
 30
0.0
 40
0.3800000000000239
100
AcDbArc
 50
10.0
 51
90.0
  0
LINE
  5
B0
330
1F
100
AcDbEntity
  8
0
  6
Continuous
 62
     7
370
    25
100
AcDbLine
 10
191.3437046321
 20
92.4887736665
 30
0.0
 11
179.2601279506
 21
92.4887736665
 31
0.0
  0
LINE
  5
B1
330
1F
100
AcDbEntity
  8
0
  6
Continuous
 62
     7
370
    25
100
AcDbLine
 10
179.2601279506
 20
92.1087736665
 30
0.0
 11
179.2601279506
 21
92.4887736665
 31
0.0
  0
LINE
  5
B2
330
1F
100
AcDbEntity
  8
0
  6
Continuous
 62
     7
370
    25
100
AcDbLine
 10
191.3437046321
 20
92.1087736665
 30
0.0
 11
191.3437046321
 21
92.4887736665
 31
0.0
  0
LINE
  5
B3
330
1F
100
AcDbEntity
  8
0
  6
Continuous
 62
     7
370
    25
100
AcDbLine
 10
190.8221941383
 20
91.487261662
 30
0.0
 11
191.3437046321
 21
92.1087736665
 31
0.0
  0
LINE
  5
B4
330
1F
100
AcDbEntity
  8
0
  6
Continuous
 62
     7
370
    25
100
AcDbLine
 10
180.255727379
 20
91.2733665533
 30
0.0
 11
179.2601279506
 21
92.1087736665
 31
0.0
  0
LINE
  5
B5
330
1F
100
AcDbEntity
  8
0
  6
Continuous
 62
     7
370
    25
100
AcDbLine
 10
179.2601279506
 20
92.1087736665
 30
0.0
 11
178.8859010045
 21
92.0427873589
 31
0.0
  0
LINE
  5
B6
330
1F
100
AcDbEntity
  8
0
  6
Continuous
 62
     7
370
    25
100
AcDbLine
 10
181.358419021
 20
80.2087736665
 30
0.0
 11
180.9841920752
 21
80.142787359
 31
0.0
  0
LINE
  5
B7
330
1F
100
AcDbEntity
  8
0
  6
Continuous
 62
     7
370
    25
100
AcDbLine
 10
181.8799295148
 20
80.8302856709
 30
0.0
 11
181.358419021
 21
80.2087736665
 31
0.0
  0
LINE
  5
B8
330
1F
100
AcDbEntity
  8
0
  6
Continuous
 62
     7
370
    25
100
AcDbLine
 10
191.3437046321
 20
92.1087736665
 30
0.0
 11
191.7179315782
 21
92.174759974
 31
0.0
  0
LINE
  5
B9
330
1F
100
AcDbEntity
  8
0
  6
Continuous
 62
     7
370
    25
100
AcDbLine
 10
193.4419957025
 20
80.2087736665
 30
0.0
 11
193.8162226486
 21
80.274759974
 31
0.0
  0
LINE
  5
BA
330
1F
100
AcDbEntity
  8
0
  6
Continuous
 62
     7
370
    25
100
AcDbLine
 10
192.4463962741
 20
81.0441807796
 30
0.0
 11
193.4419957025
 21
80.2087736665
 31
0.0
  0
LINE
  5
BB
330
1F
100
AcDbEntity
  8
0
  6
Continuous
 62
     7
370
    25
100
AcDbLine
 10
189.1452635984
 20
90.4887736665
 30
0.0
 11
182.3825223632
 21
90.4887736668
 31
0.0
  0
ARC
  5
BC
330
1F
100
AcDbEntity
  8
0
  6
Continuous
 62
     7
370
    25
100
AcDbCircle
 10
182.3825223632
 20
89.4887736665
 30
0.0
 40
1.000000000295344
100
AcDbArc
 50
90.0
 51
190.0
  0
LINE
  5
BD
330
1F
100
AcDbEntity
  8
0
  6
Continuous
 62
     7
370
    25
100
AcDbLine
 10
191.3044090429
 20
83.0024218441
 30
0.0
 11
190.1300713514
 21
89.6624218441
 31
0.0
  0
ARC
  5
BE
330
1F
100
AcDbEntity
  8
0
  6
Continuous
 62
     7
370
    25
100
AcDbCircle
 10
190.3196012899
 20
82.8287736665
 30
0.0
 40
1.0
100
AcDbArc
 50
270.0
 51
10.0
  0
LINE
  5
BF
330
1F
100
AcDbEntity
  8
0
  6
Continuous
 62
     7
370
    25
100
AcDbLine
 10
183.5568600547
 20
81.8287736665
 30
0.0
 11
190.3196012899
 21
81.8287736665
 31
0.0
  0
ARC
  5
C0
330
1F
100
AcDbEntity
  8
0
  6
Continuous
 62
     7
370
    25
100
AcDbCircle
 10
183.5568600547
 20
82.8287736665
 30
0.0
 40
1.0
100
AcDbArc
 50
190.0
 51
270.0
  0
LINE
  5
C1
330
1F
100
AcDbEntity
  8
0
  6
Continuous
 62
     7
370
    25
100
AcDbLine
 10
181.3977146102
 20
89.3151254888
 30
0.0
 11
182.5720523017
 21
82.6551254888
 31
0.0
  0
ARC
  5
C2
330
1F
100
AcDbEntity
  8
0
  6
Continuous
 62
     7
370
    25
100
AcDbCircle
 10
189.1452635984
 20
89.4887736665
 30
0.0
 40
1.0
100
AcDbArc
 50
10.0
 51
90.0
  0
CIRCLE
  5
C3
330
1F
100
AcDbEntity
  8
0
  6
Continuous
 62
     7
370
    25
100
AcDbCircle
 10
186.3510618265
 20
86.1587736665
 30
0.0
 40
3.800000000000011
  0
LINE
  5
C4
330
1F
100
AcDbEntity
  8
0
  6
Continuous
 62
     7
370
    25
100
AcDbLine
 10
193.4419957025
 20
80.2087736665
 30
0.0
 11
193.4419957025
 21
79.8287736665
 31
0.0
  0
LINE
  5
C5
330
1F
100
AcDbEntity
  8
0
  6
Continuous
 62
     7
370
    25
100
AcDbLine
 10
181.358419021
 20
80.2087736665
 30
0.0
 11
181.358419021
 21
79.8287736665
 31
0.0
  0
SPLINE
  5
C6
330
1F
100
AcDbEntity
  8
0
  6
Continuous
 62
     7
370
    25
100
AcDbSpline
210
0.0
220
0.0
230
1.0
 70
    24
 71
     3
 72
    11
 73
     7
 74
     0
 42
0.000000001
 43
0.00000001
 40
0.0
 40
0.0
 40
0.0
 40
0.0
 40
0.3372314186519813
 40
0.6736321483069302
 40
0.991883560896536
 40
1.0
 40
1.0
 40
1.0
 40
1.0
 10
181.8799295147776
 20
80.83028567093898
 30
0.0
 10
181.9298392192458
 20
80.8897657405443
 30
0.0
 10
182.0295356875543
 20
81.00857936482004
 30
0.0
 10
182.1853923882021
 20
81.19432214774679
 30
0.0
 10
182.2812765847324
 20
81.30859248343482
 30
0.0
 10
182.3248706408734
 20
81.36054585645658
 30
0.0
 10
182.3259547810548
 20
81.36183788441265
 30
0.0
  0
SPLINE
  5
C7
330
1F
100
AcDbEntity
  8
0
  6
Continuous
 62
     7
370
    25
100
AcDbSpline
210
0.0
220
0.0
230
1.0
 70
    24
 71
     3
 72
    11
 73
     7
 74
     0
 42
0.000000001
 43
0.00000001
 40
0.0
 40
0.0
 40
0.0
 40
0.0
 40
0.008116439103118
 40
0.3263678516928566
 40
0.6627685813478733
 40
1.0
 40
1.0
 40
1.0
 40
1.0
 10
190.3761688720444
 20
90.95570944850203
 30
0.0
 10
190.3772530122257
 20
90.95700147645805
 30
0.0
 10
190.4208470683667
 20
91.00895484947976
 30
0.0
 10
190.5167312648969
 20
91.12322518516771
 30
0.0
 10
190.6725879655447
 20
91.30896796809454
 30
0.0
 10
190.7722844338533
 20
91.42778159237022
 30
0.0
 10
190.8221941383215
 20
91.48726166197554
 30
0.0
  0
SPLINE
  5
C8
330
1F
100
AcDbEntity
  8
0
  6
Continuous
 62
     7
370
    25
100
AcDbSpline
210
0.0
220
0.0
230
1.0
 70
    24
 71
     3
 72
    11
 73
     7
 74
     0
 42
0.000000001
 43
0.00000001
 40
0.0
 40
0.0
 40
0.0
 40
0.0
 40
0.0076282660081885
 40
0.3209888652278821
 40
0.6632168868569336
 40
1.0
 40
1.0
 40
1.0
 40
1.0
 10
180.7854072856824
 20
90.82891233895899
 30
0.0
 10
180.7841987425342
 20
90.8299264270689
 30
0.0
 10
180.7333446043452
 20
90.87259811566692
 30
0.0
 10
180.6206155204422
 20
90.96718904840121
 30
0.0
 10
180.4370441021769
 20
91.12122375775202
 30
0.0
 10
180.3158423192024
 20
91.22292412914571
 30
0.0
 10
180.2557273789631
 20
91.27336655332961
 30
0.0
  0
SPLINE
  5
C9
330
1F
100
AcDbEntity
  8
0
  6
Continuous
 62
     7
370
    25
100
AcDbSpline
210
0.0
220
0.0
230
1.0
 70
    24
 71
     3
 72
    11
 73
     7
 74
     0
 42
0.000000001
 43
0.00000001
 40
0.0
 40
0.0
 40
0.0
 40
0.0
 40
0.336783113141535
 40
0.679011134769143
 40
0.9923717339918664
 40
0.9999999999999999
 40
0.9999999999999999
 40
0.9999999999999999
 40
0.9999999999999999
 10
192.4463962741362
 20
81.04418077958508
 30
0.0
 10
192.3862813338968
 20
81.09462320376822
 30
0.0
 10
192.2650795509219
 20
81.19632357516043
 30
0.0
 10
192.0815081326617
 20
81.3503582845176
 30
0.0
 10
191.9687790487539
 20
81.44494921724687
 30
0.0
 10
191.9179249105648
 20
81.48762090584563
 30
0.0
 10
191.9167163674166
 20
81.48863499395556
 30
0.0
  0
CIRCLE
  5
CA
330
1F
100
AcDbEntity
  8
0
  6
Continuous
 62
     7
370
    25
100
AcDbCircle
 10
114.986138467
 20
86.2873311884
 30
0.0
 40
1.599999999999999
  0
CIRCLE
  5
CB
330
1F
100
AcDbEntity
  8
0
  6
Continuous
 62
     7
370
    25
100
AcDbCircle
 10
186.1978529379
 20
86.2873311884
 30
0.0
 40
3.500000000000006
  0
CIRCLE
  5
CC
330
1F
100
AcDbEntity
  8
0
  6
Continuous
 62
     7
370
    25
100
AcDbCircle
 10
186.1978529379
 20
86.2873311884
 30
0.0
 40
2.633974596215571
  0
CIRCLE
  5
CD
330
1F
100
AcDbEntity
  8
0
  6
Continuous
 62
     7
370
    25
100
AcDbCircle
 10
186.1978529379
 20
86.2873311884
 30
0.0
 40
1.999999999999994
  0
SPLINE
  5
CE
330
1F
100
AcDbEntity
  8
0
  6
Continuous
 62
     7
370
    25
100
AcDbSpline
210
0.0
220
0.0
230
1.0
 70
     8
 71
     3
 72
    15
 73
    11
 74
     0
 42
0.000000001
 43
0.00000001
 40
0.0
 40
0.0
 40
0.0
 40
0.0
 40
0.1262470803730204
 40
0.2533633350513401
 40
0.3794185517357357
 40
0.5042689738350769
 40
0.6284502821607776
 40
0.7526361292231356
 40
0.8774891912114877
 40
1.0
 40
1.0
 40
1.0
 40
1.0
 10
187.8459066680195
 20
85.83064185994041
 30
0.0
 10
187.8884602190185
 20
85.84312254496187
 30
0.0
 10
187.9738602897965
 20
85.86816984087889
 30
0.0
 10
188.0774720459476
 20
85.95719750146202
 30
0.0
 10
188.1468834996414
 20
86.07278816550634
 30
0.0
 10
188.1735455712391
 20
86.20477413229067
 30
0.0
 10
188.1554977777939
 20
86.33748866991306
 30
0.0
 10
188.0948844837133
 20
86.4559082737393
 30
0.0
 10
188.0001831036138
 20
86.55014293452336
 30
0.0
 10
187.9191907139381
 20
86.58145790455616
 30
0.0
 10
187.8790779717913
 20
86.59696713108086
 30
0.0
  0
SPLINE
  5
CF
330
1F
100
AcDbEntity
  8
0
  6
Continuous
 62
     7
370
    25
100
AcDbSpline
210
0.0
220
0.0
230
1.0
 70
     8
 71
     3
 72
    12
 73
     8
 74
     0
 42
0.000000001
 43
0.00000001
 40
0.0
 40
0.0
 40
0.0
 40
0.0
 40
0.2058748011360374
 40
0.412099581266296
 40
0.6141693366125147
 40
0.8132901286728307
 40
1.0
 40
1.0
 40
1.0
 40
1.0
 10
187.8790779717913
 20
86.59696713108086
 30
0.0
 10
187.807195003199
 20
86.62493311305965
 30
0.0
 10
187.6633068678194
 20
86.68091261807713
 30
0.0
 10
187.4969410682461
 20
86.84954768167563
 30
0.0
 10
187.3947464379135
 20
87.05658391027335
 30
0.0
 10
187.362378420405
 20
87.28026914458528
 30
0.0
 10
187.3977758055544
 20
87.42013676147046
 30
0.0
 10
187.4149051886068
 20
87.48782102617403
 30
0.0
  0
SPLINE
  5
D0
330
1F
100
AcDbEntity
  8
0
  6
Continuous
 62
     7
370
    25
100
AcDbSpline
210
0.0
220
0.0
230
1.0
 70
     8
 71
     3
 72
    15
 73
    11
 74
     0
 42
0.000000001
 43
0.00000001
 40
0.0
 40
0.0
 40
0.0
 40
0.0
 40
0.1268765508970325
 40
0.2539936290345302
 40
0.3800496379883623
 40
0.5049006370991288
 40
0.629082197326582
 40
0.7532679407718319
 40
0.8781205851189335
 40
1.0
 40
1.0
 40
1.0
 40
1.0
 10
187.4149051886068
 20
87.48782102617403
 30
0.0
 10
187.4254062360721
 20
87.53113724637593
 30
0.0
 10
187.4464282384477
 20
87.61785180385209
 30
0.0
 10
187.420859375575
 20
87.75228013360858
 30
0.0
 10
187.3552626480735
 20
87.87007614155806
 30
0.0
 10
187.2541390982652
 20
87.95898885778867
 30
0.0
 10
187.1300956255438
 20
88.00950618768105
 30
0.0
 10
186.9972217494202
 20
88.01599925001446
 30
0.0
 10
186.8685456592067
 20
87.9809410319612
 30
0.0
 10
186.8011335633829
 20
87.92656917808777
 30
0.0
 10
186.7678336881231
 20
87.89971085348733
 30
0.0
  0
SPLINE
  5
D1
330
1F
100
AcDbEntity
  8
0
  6
Continuous
 62
     7
370
    25
100
AcDbSpline
210
0.0
220
0.0
230
1.0
 70
     8
 71
     3
 72
    12
 73
     8
 74
     0
 42
0.000000001
 43
0.00000001
 40
0.0
 40
0.0
 40
0.0
 40
0.0
 40
0.2057949882088029
 40
0.4120010155283687
 40
0.6140549927930615
 40
0.8131810826684414
 40
1.0
 40
1.0
 40
1.0
 40
1.0
 10
186.7678336881231
 20
87.89971085348733
 30
0.0
 10
186.7076969929488
 20
87.85145722616654
 30
0.0
 10
186.5873034901819
 20
87.75485359343419
 30
0.0
 10
186.3581251266654
 20
87.69507303277204
 30
0.0
 10
186.1277398356573
 20
87.71005113744847
 30
0.0
 10
185.9177926284533
 20
87.79383742618802
 30
0.0
 10
185.8143278957663
 20
87.8944501884271
 30
0.0
 10
185.7642451923198
 20
87.94315237905076
 30
0.0
  0
SPLINE
  5
D2
330
1F
100
AcDbEntity
  8
0
  6
Continuous
 62
     7
370
    25
100
AcDbSpline
210
0.0
220
0.0
230
1.0
 70
     8
 71
     3
 72
    15
 73
    11
 74
     0
 42
0.000000001
 43
0.00000001
 40
0.0
 40
0.0
 40
0.0
 40
0.0
 40
0.1268036956060828
 40
0.2539263442698748
 40
0.3799872671766506
 40
0.5048410097957352
 40
0.6290227167746354
 40
0.7532063308915139
 40
0.878055336159166
 40
1.0
 40
1.0
 40
1.0
 40
1.0
 10
185.7642451923198
 20
87.94315237905076
 30
0.0
 10
185.7320038438819
 20
87.97388797886838
 30
0.0
 10
185.667440049396
 20
88.03543648866003
 30
0.0
 10
185.5382699859009
 20
88.08052499038536
 30
0.0
 10
185.403453878886
 20
88.08263978481409
 30
0.0
 10
185.2758811846282
 20
88.03954252267037
 30
0.0
 10
185.170094904607
 20
87.95739400267705
 30
0.0
 10
185.0980158916375
 20
87.84558136282307
 30
0.0
 10
185.0640099694146
 20
87.71659874024724
 30
0.0
 10
185.0773907381387
 20
87.63100845289748
 30
0.0
 10
185.0840023880643
 20
87.58871693522357
 30
0.0
  0
SPLINE
  5
D3
330
1F
100
AcDbEntity
  8
0
  6
Continuous
 62
     7
370
    25
100
AcDbSpline
210
0.0
220
0.0
230
1.0
 70
     8
 71
     3
 72
    12
 73
     8
 74
     0
 42
0.000000001
 43
0.00000001
 40
0.0
 40
0.0
 40
0.0
 40
0.0
 40
0.2058497400954133
 40
0.4120524486337361
 40
0.6141081262894829
 40
0.8132431903674241
 40
1.0
 40
1.0
 40
1.0
 40
1.0
 10
185.0840023880643
 20
87.58871693522357
 30
0.0
 10
185.09572421876
 20
87.51248895326125
 30
0.0
 10
185.1191879794546
 20
87.359902281996
 30
0.0
 10
185.0563438615032
 20
87.13152320030527
 30
0.0
 10
184.9281626183399
 20
86.93950263778979
 30
0.0
 10
184.75063042326
 20
86.79960548671826
 30
0.0
 10
184.6117833251644
 20
86.76031813252094
 30
0.0
 10
184.5445866754455
 20
86.74130456569394
 30
0.0
  0
SPLINE
  5
D4
330
1F
100
AcDbEntity
  8
0
  6
Continuous
 62
     7
370
    25
100
AcDbSpline
210
0.0
220
0.0
230
1.0
 70
     8
 71
     3
 72
    15
 73
    11
 74
     0
 42
0.000000001
 43
0.00000001
 40
0.0
 40
0.0
 40
0.0
 40
0.0
 40
0.1262564375372444
 40
0.2533820972841696
 40
0.379445481130768
 40
0.5043002379033804
 40
0.6284814530466056
 40
0.7526634909000662
 40
0.8775104621121732
 40
1.0
 40
1.0
 40
1.0
 40
1.0
 10
184.5445866754455
 20
86.74130456569394
 30
0.0
 10
184.5020311415053
 20
86.72882307701113
 30
0.0
 10
184.4166270967599
 20
86.70377416987128
 30
0.0
 10
184.3130126318742
 20
86.61473986356292
 30
0.0
 10
184.2436026059402
 20
86.49914133834666
 30
0.0
 10
184.2169466958759
 20
86.36714956102237
 30
0.0
 10
184.2350028505694
 20
86.23443445204886
 30
0.0
 10
184.2956229469386
 20
86.11601948242635
 30
0.0
 10
184.3903236061336
 20
86.02179630562645
 30
0.0
 10
184.471308747157
 20
85.99048548752802
 30
0.0
 10
184.5114153716737
 20
85.97497929455345
 30
0.0
  0
SPLINE
  5
D5
330
1F
100
AcDbEntity
  8
0
  6
Continuous
 62
     7
370
    25
100
AcDbSpline
210
0.0
220
0.0
230
1.0
 70
     8
 71
     3
 72
    12
 73
     8
 74
     0
 42
0.000000001
 43
0.00000001
 40
0.0
 40
0.0
 40
0.0
 40
0.0
 40
0.2058713741444185
 40
0.4120924153877296
 40
0.6141683533432368
 40
0.8133068872803312
 40
1.0
 40
1.0
 40
1.0
 40
1.0
 10
184.5114153716737
 20
85.97497929455345
 30
0.0
 10
184.5832976152092
 20
85.94701365813116
 30
0.0
 10
184.7271841923749
 20
85.89103488639073
 30
0.0
 10
184.8935502378368
 20
85.72240133908421
 30
0.0
 10
184.9957486374742
 20
85.51536143511981
 30
0.0
 10
185.0281150751269
 20
85.29167213772372
 30
0.0
 10
184.9927165219479
 20
85.15180377662502
 30
0.0
 10
184.9755881548582
 20
85.08412539946029
 30
0.0
  0
SPLINE
  5
D6
330
1F
100
AcDbEntity
  8
0
  6
Continuous
 62
     7
370
    25
100
AcDbSpline
210
0.0
220
0.0
230
1.0
 70
     8
 71
     3
 72
    15
 73
    11
 74
     0
 42
0.000000001
 43
0.00000001
 40
0.0
 40
0.0
 40
0.0
 40
0.0
 40
0.1268702503424992
 40
0.2539810595565898
 40
0.3800301963394208
 40
0.5048749967544882
 40
0.6290527571813104
 40
0.7532384607996213
 40
0.8780953942141915
 40
0.9999999999999999
 40
0.9999999999999999
 40
0.9999999999999999
 40
0.9999999999999999
 10
184.9755881548582
 20
85.08412539946029
 30
0.0
 10
184.9650872938742
 20
85.04081058027366
 30
0.0
 10
184.9440656612079
 20
84.95409881260689
 30
0.0
 10
184.9696316419447
 20
84.81967413768002
 30
0.0
 10
185.0352232459218
 20
84.70188040154353
 30
0.0
 10
185.1363398386911
 20
84.61296712071162
 30
0.0
 10
185.2603770673153
 20
84.56244521151848
 30
0.0
 10
185.3932485112008
 20
84.55594463053819
 30
0.0
 10
185.5219337558536
 20
84.59099689257008
 30
0.0
 10
185.5893532309888
 20
84.64537286901282
 30
0.0
 10
185.622659655342
 20
84.67223557214697
 30
0.0
  0
SPLINE
  5
D7
330
1F
100
AcDbEntity
  8
0
  6
Continuous
 62
     7
370
    25
100
AcDbSpline
210
0.0
220
0.0
230
1.0
 70
     8
 71
     3
 72
    12
 73
     8
 74
     0
 42
0.000000001
 43
0.00000001
 40
0.0
 40
0.0
 40
0.0
 40
0.0
 40
0.2058321750920502
 40
0.4120750343575875
 40
0.6141697879283335
 40
0.8133029339856249
 40
1.0
 40
1.0
 40
1.0
 40
1.0
 10
185.622659655342
 20
84.67223557214697
 30
0.0
 10
185.6828056459606
 20
84.72049518352549
 30
0.0
 10
185.8032176327627
 20
84.81711069569204
 30
0.0
 10
186.0324328038486
 20
84.8768840132601
 30
0.0
 10
186.2628498547335
 20
84.8618768851632
 30
0.0
 10
186.4727665680692
 20
84.77806034893274
 30
0.0
 10
186.5761989004906
 20
84.6774687242278
 30
0.0
 10
186.6262481511452
 20
84.62879404658347
 30
0.0
  0
SPLINE
  5
D8
330
1F
100
AcDbEntity
  8
0
  6
Continuous
 62
     7
370
    25
100
AcDbSpline
210
0.0
220
0.0
230
1.0
 70
     8
 71
     3
 72
    15
 73
    11
 74
     0
 42
0.000000001
 43
0.00000001
 40
0.0
 40
0.0
 40
0.0
 40
0.0
 40
0.1267880291974069
 40
0.2538950064075516
 40
0.3799409022877052
 40
0.504784128969183
 40
0.6289621452108625
 40
0.7531495391280123
 40
0.8780089278148164
 40
1.0
 40
1.0
 40
1.0
 40
1.0
 10
186.6262481511452
 20
84.62879404658347
 30
0.0
 10
186.658486692502
 20
84.5980606218871
 30
0.0
 10
186.723044874502
 20
84.5365164594799
 30
0.0
 10
186.8522032243416
 20
84.49142630046191
 30
0.0
 10
186.9870087195731
 20
84.4893030324792
 30
0.0
 10
187.1145764913291
 20
84.53238575241498
 30
0.0
 10
187.2203673134062
 20
84.6145190682408
 30
0.0
 10
187.2924590339861
 20
84.72632229291847
 30
0.0
 10
187.3264842414106
 20
84.85531623928597
 30
0.0
 10
187.313103557774
 20
84.94092331485054
 30
0.0
 10
187.3064909554008
 20
84.98322949041071
 30
0.0
  0
SPLINE
  5
D9
330
1F
100
AcDbEntity
  8
0
  6
Continuous
 62
     7
370
    25
100
AcDbSpline
210
0.0
220
0.0
230
1.0
 70
     8
 71
     3
 72
    12
 73
     8
 74
     0
 42
0.000000001
 43
0.00000001
 40
0.0
 40
0.0
 40
0.0
 40
0.0
 40
0.2058903596432649
 40
0.4121336430767573
 40
0.6142239121176194
 40
0.8133482777366862
 40
1.0
 40
1.0
 40
1.0
 40
1.0
 10
187.3064909554008
 20
84.98322949041071
 30
0.0
 10
187.2947685273536
 20
85.05946931641495
 30
0.0
 10
187.2713035774398
 20
85.21207965374744
 30
0.0
 10
187.3341738145394
 20
85.4404875355319
 30
0.0
 10
187.4623947778558
 20
85.63251598366531
 30
0.0
 10
187.639933604341
 20
85.77237093722914
 30
0.0
 10
187.7787449641435
 20
85.81164144121658
 30
0.0
 10
187.8459066680195
 20
85.83064185994041
 30
0.0
  0
ELLIPSE
  5
DA
330
1F
100
AcDbEntity
  8
0
  6
Continuous
 62
     7
370
    25
100
AcDbEllipse
 10
149.5919957025
 20
161.7648471559
 30
0.0
 11
36.00000000000003
 21
0.0
 31
0.0
210
0.0
220
0.0
230
1.0
 40
0.2679491924
 41
2.535640700357209
 42
2.635003274668114
  0
ELLIPSE
  5
DB
330
1F
100
AcDbEntity
  8
0
  6
Continuous
 62
     7
370
    25
100
AcDbEllipse
 10
149.5919957025
 20
101.2569642192
 30
0.0
 11
0.0
 21
134.3538290724699
 31
0.0
210
0.0
220
0.0
230
1.0
 40
0.2679491924
 41
1.064206947873219
 42
1.070635513410878
  0
ARC
  5
DC
330
1F
100
AcDbEntity
  8
0
  6
Continuous
 62
     7
370
    25
100
AcDbCircle
 10
149.5919957025
 20
182.9529809479
 30
0.0
 40
35.99999999999978
100
AcDbArc
 50
208.6571036847
 51
213.0199995721
  0
SPLINE
  5
DD
330
1F
100
AcDbEntity
  8
0
  6
Continuous
 62
     7
370
    25
100
AcDbSpline
210
0.0
220
0.0
230
1.0
 70
     8
 71
     3
 72
    14
 73
    10
 74
     0
 42
0.000000001
 43
0.00000001
 40
0.0
 40
0.0
 40
0.0
 40
0.0
 40
0.1493479417649317
 40
0.299398063407574
 40
0.4346824701807009
 40
0.5617788178220631
 40
0.6953417013432839
 40
0.8463394521114492
 40
1.0
 40
1.0
 40
1.0
 40
1.0
 10
119.4067010851896
 20
163.3354380623511
 30
0.0
 10
119.421348956532
 20
163.3087019777296
 30
0.0
 10
119.4507135681976
 20
163.2551041051096
 30
0.0
 10
119.4725051709923
 20
163.1493718071274
 30
0.0
 10
119.4723572958499
 20
163.0437023409519
 30
0.0
 10
119.4531964075644
 20
162.9484474154209
 30
0.0
 10
119.4178232051167
 20
162.8660609502441
 30
0.0
 10
119.3682691522581
 20
162.8000891559691
 30
0.0
 10
119.3283325299876
 20
162.77783254549
 30
0.0
 10
119.3081896903342
 20
162.7666069758093
 30
0.0
  0
ELLIPSE
  5
DE
330
1F
100
AcDbEntity
  8
0
  6
Continuous
 62
     7
370
    25
100
AcDbEllipse
 10
149.5919957025
 20
157.5509424367
 30
0.0
 11
36.00000000000003
 21
0.0
 31
0.0
210
0.0
220
0.0
230
1.0
 40
0.2679491924
 41
2.570326112031387
 42
2.673250535975365
  0
ELLIPSE
  5
DF
330
1F
100
AcDbEntity
  8
0
  6
Continuous
 62
     7
370
    25
100
AcDbEllipse
 10
149.5919957025
 20
101.2569642192
 30
0.0
 11
0.0
 21
134.3538290724749
 31
0.0
210
0.0
220
0.0
230
1.0
 40
0.2679491924
 41
1.102454209180469
 42
1.108754912298945
  0
ARC
  5
E0
330
1F
100
AcDbEntity
  8
0
  6
Continuous
 62
     7
370
    25
100
AcDbCircle
 10
149.5919957025
 20
177.1966800524
 30
0.0
 40
35.9999999999998
100
AcDbArc
 50
206.4730230109
 51
210.7398932757
  0
SPLINE
  5
E1
330
1F
100
AcDbEntity
  8
0
  6
Continuous
 62
     7
370
    25
100
AcDbSpline
210
0.0
220
0.0
230
1.0
 70
     8
 71
     3
 72
    14
 73
    10
 74
     0
 42
0.000000001
 43
0.00000001
 40
0.0
 40
0.0
 40
0.0
 40
0.0
 40
0.1505854501612578
 40
0.3017743966228557
 40
0.4401911923295976
 40
0.5716594719842097
 40
0.7091791792079456
 40
0.862531337685887
 40
1.0
 40
1.0
 40
1.0
 40
1.0
 10
118.6501185348569
 20
158.7955866787924
 30
0.0
 10
118.6636539777092
 20
158.7685070645333
 30
0.0
 10
118.6907791089579
 20
158.7142393099454
 30
0.0
 10
118.7105338385353
 20
158.607712367301
 30
0.0
 10
118.710041926629
 20
158.500910296847
 30
0.0
 10
118.6914934480167
 20
158.4039523314206
 30
0.0
 10
118.6574552229831
 20
158.3206484486998
 30
0.0
 10
118.612057154776
 20
158.2577938829919
 30
0.0
 10
118.5766970004878
 20
158.2367179949636
 30
0.0
 10
118.5599825400308
 20
158.2267555922497
 30
0.0
  0
ELLIPSE
  5
E2
330
1F
100
AcDbEntity
  8
0
  6
Continuous
 62
     7
370
    25
100
AcDbEllipse
 10
149.5919957025
 20
153.3370377175
 30
0.0
 11
36.00000000000003
 21
0.0
 31
0.0
210
0.0
220
0.0
230
1.0
 40
0.2679491924
 41
2.609999069916001
 42
2.710771255904023
  0
ELLIPSE
  5
E3
330
1F
100
AcDbEntity
  8
0
  6
Continuous
 62
     7
370
    25
100
AcDbEllipse
 10
149.5919957025
 20
101.2569642192
 30
0.0
 11
0.0
 21
134.3538290724749
 31
0.0
210
0.0
220
0.0
230
1.0
 40
0.2679491924
 41
1.139974929109126
 42
1.146163625070657
  0
ARC
  5
E4
330
1F
100
AcDbEntity
  8
0
  6
Continuous
 62
     7
370
    25
100
AcDbCircle
 10
149.5919957025
 20
171.4403791568
 30
0.0
 40
35.99999999999983
100
AcDbArc
 50
204.329661652
 51
208.5125483374
  0
SPLINE
  5
E5
330
1F
100
AcDbEntity
  8
0
  6
Continuous
 62
     7
370
    25
100
AcDbSpline
210
0.0
220
0.0
230
1.0
 70
     8
 71
     3
 72
    14
 73
    10
 74
     0
 42
0.000000001
 43
0.00000001
 40
0.0
 40
0.0
 40
0.0
 40
0.0
 40
0.1518085251577047
 40
0.3041331578047159
 40
0.4454670740103581
 40
0.5809479176623471
 40
0.7220151689085699
 40
0.8772842203155939
 40
1.0
 40
1.0
 40
1.0
 40
1.0
 10
117.9583424934444
 20
154.2557352952338
 30
0.0
 10
117.9708216734103
 20
154.2283280921712
 30
0.0
 10
117.9958224591429
 20
154.1734205090472
 30
0.0
 10
118.0137084232637
 20
154.0661016981279
 30
0.0
 10
118.0129295979132
 20
153.9582103500857
 30
0.0
 10
117.9950864533459
 20
153.8597187988879
 30
0.0
 10
117.9625552299641
 20
153.7756787131743
 30
0.0
 10
117.9210743459796
 20
153.7156942275578
 30
0.0
 10
117.8898162623456
 20
153.6957212394555
 30
0.0
 10
117.8760174514913
 20
153.6869042086917
 30
0.0
  0
ELLIPSE
  5
E6
330
1F
100
AcDbEntity
  8
0
  6
Continuous
 62
     7
370
    25
100
AcDbEllipse
 10
149.5919957025
 20
149.1231329983
 30
0.0
 11
36.00000000000003
 21
0.0
 31
0.0
210
0.0
220
0.0
230
1.0
 40
0.2679491924
 41
2.64876675401948
 42
2.747655443906987
  0
ELLIPSE
  5
E7
330
1F
100
AcDbEntity
  8
0
  6
Continuous
 62
     7
370
    25
100
AcDbEllipse
 10
149.5919957025
 20
101.2569642192
 30
0.0
 11
0.0
 21
134.3538290724749
 31
0.0
210
0.0
220
0.0
230
1.0
 40
0.2679491924
 41
1.176859117112092
 42
1.182949693567637
  0
ARC
  5
E8
330
1F
100
AcDbEntity
  8
0
  6
Continuous
 62
     7
370
    25
100
AcDbCircle
 10
149.5919957025
 20
165.6840782613
 30
0.0
 40
35.99999999999984
100
AcDbArc
 50
202.2219751823
 51
206.3313057306
  0
SPLINE
  5
E9
330
1F
100
AcDbEntity
  8
0
  6
Continuous
 62
     7
370
    25
100
AcDbSpline
210
0.0
220
0.0
230
1.0
 70
     8
 71
     3
 72
    14
 73
    10
 74
     0
 42
0.000000001
 43
0.00000001
 40
0.0
 40
0.0
 40
0.0
 40
0.0
 40
0.1529937707521539
 40
0.3064258420931403
 40
0.4504679014741649
 40
0.5896208196794896
 40
0.7338545282793679
 40
0.8906594268566845
 40
1.0
 40
1.0
 40
1.0
 40
1.0
 10
117.3272042230301
 20
149.7158839116752
 30
0.0
 10
117.3386720734041
 20
149.6881677499307
 30
0.0
 10
117.3616406275521
 20
149.6326560244507
 30
0.0
 10
117.3778000840835
 20
149.5245657576943
 30
0.0
 10
117.376793632262
 20
149.4156394843362
 30
0.0
 10
117.3597508291545
 20
149.3157698586691
 30
0.0
 10
117.3288873324698
 20
149.2311466730723
 30
0.0
 10
117.2911160628334
 20
149.1737923311562
 30
0.0
 10
117.2635451120808
 20
149.1548393007004
 30
0.0
 10
117.2522181353793
 20
149.1470528251333
 30
0.0
  0
ELLIPSE
  5
EA
330
1F
100
AcDbEntity
  8
0
  6
Continuous
 62
     7
370
    25
100
AcDbEllipse
 10
149.5919957025
 20
144.9092282791
 30
0.0
 11
36.00000000000003
 21
0.0
 31
0.0
210
0.0
220
0.0
230
1.0
 40
0.2679491924
 41
2.686743148031764
 42
2.783982312243586
  0
ELLIPSE
  5
EB
330
1F
100
AcDbEntity
  8
0
  6
Continuous
 62
     7
370
    25
100
AcDbEllipse
 10
149.5919957025
 20
101.2569642192
 30
0.0
 11
0.0
 21
134.3538290724749
 31
0.0
210
0.0
220
0.0
230
1.0
 40
0.2679491924
 41
1.213185985448692
 42
1.219190747149434
  0
ARC
  5
EC
330
1F
100
AcDbEntity
  8
0
  6
Continuous
 62
     7
370
    25
100
AcDbCircle
 10
149.5919957025
 20
159.9277773658
 30
0.0
 40
35.99999999999986
100
AcDbArc
 50
200.1455157669
 51
204.1904307172
  0
SPLINE
  5
ED
330
1F
100
AcDbEntity
  8
0
  6
Continuous
 62
     7
370
    25
100
AcDbSpline
210
0.0
220
0.0
230
1.0
 70
     8
 71
     3
 72
    14
 73
    10
 74
     0
 42
0.000000001
 43
0.00000001
 40
0.0
 40
0.0
 40
0.0
 40
0.0
 40
0.1541244366003467
 40
0.3086177362000557
 40
0.455162849181712
 40
0.5976634091234619
 40
0.7447101708055985
 40
0.9027241564245098
 40
1.0
 40
1.0
 40
1.0
 40
1.0
 10
116.753207292357
 20
145.1760325281166
 30
0.0
 10
116.7637002594725
 20
145.1480278145937
 30
0.0
 10
116.7847113063165
 20
145.0919513644149
 30
0.0
 10
116.7992654706649
 20
144.9831224686655
 30
0.0
 10
116.7980899820942
 20
144.8732234308276
 30
0.0
 10
116.7819412180207
 20
144.7721192703835
 30
0.0
 10
116.752893229837
 20
144.6870412149653
 30
0.0
 10
116.7186492231759
 20
144.6320852102113
 30
0.0
 10
116.6944019948102
 20
144.6140670832762
 30
0.0
 10
116.6851628112475
 20
144.6072014415748
 30
0.0
  0
ELLIPSE
  5
EE
330
1F
100
AcDbEntity
  8
0
  6
Continuous
 62
     7
370
    25
100
AcDbEllipse
 10
149.5919957025
 20
140.6953235599
 30
0.0
 11
36.00000000000003
 21
0.0
 31
0.0
210
0.0
220
0.0
230
1.0
 40
0.2679491924
 41
2.724026574383238
 42
2.819822360827366
  0
ELLIPSE
  5
EF
330
1F
100
AcDbEntity
  8
0
  6
Continuous
 62
     7
370
    25
100
AcDbEllipse
 10
149.5919957025
 20
101.2569642192
 30
0.0
 11
0.0
 21
134.3538290724749
 31
0.0
210
0.0
220
0.0
230
1.0
 40
0.2679491924
 41
1.249026034032467
 42
1.254956003263017
  0
ARC
  5
F0
330
1F
100
AcDbEntity
  8
0
  6
Continuous
 62
     7
370
    25
100
AcDbCircle
 10
149.5919957025
 20
154.1714764702
 30
0.0
 40
35.99999999999988
100
AcDbArc
 50
198.0963175384
 51
202.0849220966
  0
SPLINE
  5
F1
330
1F
100
AcDbEntity
  8
0
  6
Continuous
 62
     7
370
    25
100
AcDbSpline
210
0.0
220
0.0
230
1.0
 70
     8
 71
     3
 72
    14
 73
    10
 74
     0
 42
0.000000001
 43
0.00000001
 40
0.0
 40
0.0
 40
0.0
 40
0.0
 40
0.1551884034438211
 40
0.3106837135170386
 40
0.4595292747645365
 40
0.6050669403484952
 40
0.7545999192231599
 40
0.9135469876279771
 40
1.0
 40
1.0
 40
1.0
 40
1.0
 10
116.2334019004793
 20
140.636181144558
 30
0.0
 10
116.2429498692942
 20
140.6079094477374
 30
0.0
 10
116.2620646893589
 20
140.551310142888
 30
0.0
 10
116.2751173295809
 20
140.4417843117754
 30
0.0
 10
116.2738289796094
 20
140.3309801943992
 30
0.0
 10
116.2586643602839
 20
140.2287745615495
 30
0.0
 10
116.2315660461524
 20
140.143347945781
 30
0.0
 10
116.200688061499
 20
140.0905667773937
 30
0.0
 10
116.1794462902428
 20
140.0733983829196
 30
0.0
 10
116.1719629385365
 20
140.0673500580162
 30
0.0
  0
ELLIPSE
  5
F2
330
1F
100
AcDbEntity
  8
0
  6
Continuous
 62
     7
370
    25
100
AcDbEllipse
 10
149.5919957025
 20
136.4814188407
 30
0.0
 11
36.00000000000003
 21
0.0
 31
0.0
210
0.0
220
0.0
230
1.0
 40
0.2679491924
 41
2.760702908705183
 42
2.855239016215152
  0
ELLIPSE
  5
F3
330
1F
100
AcDbEntity
  8
0
  6
Continuous
 62
     7
370
    25
100
AcDbEllipse
 10
149.5919957025
 20
101.2569642192
 30
0.0
 11
0.0
 21
134.3538290724775
 31
0.0
210
0.0
220
0.0
230
1.0
 40
0.2679491924
 41
1.284442689420257
 42
1.290307844546368
  0
ARC
  5
F4
330
1F
100
AcDbEntity
  8
0
  6
Continuous
 62
     7
370
    25
100
AcDbCircle
 10
149.5919957025
 20
148.4151755747
 30
0.0
 40
35.99999999999989
100
AcDbArc
 50
196.0708062349
 51
200.0103668412
  0
SPLINE
  5
F5
330
1F
100
AcDbEntity
  8
0
  6
Continuous
 62
     7
370
    25
100
AcDbSpline
210
0.0
220
0.0
230
1.0
 70
     8
 71
     3
 72
    14
 73
    10
 74
     0
 42
0.000000001
 43
0.00000001
 40
0.0
 40
0.0
 40
0.0
 40
0.0
 40
0.1561768318433849
 40
0.3126054255093823
 40
0.4635504896399311
 40
0.6118268919545217
 40
0.7635443099484371
 40
0.9231949503870917
 40
1.0
 40
1.0
 40
1.0
 40
1.0
 10
115.7652897171416
 20
136.0963297609993
 30
0.0
 10
115.7739173903769
 20
136.0678133937853
 30
0.0
 10
115.7911866449203
 20
136.0107346901023
 30
0.0
 10
115.802826814509
 20
135.9005600241027
 30
0.0
 10
115.8014783251808
 20
135.7889224006245
 30
0.0
 10
115.7873828233449
 20
135.6857390909558
 30
0.0
 10
115.7623546575294
 20
135.6000509955473
 30
0.0
 10
115.734699714334
 20
135.5492292275923
 30
0.0
 10
115.7161851006593
 20
135.5328265563154
 30
0.0
 10
115.7101712220272
 20
135.5274986744576
 30
0.0
  0
ELLIPSE
  5
F6
330
1F
100
AcDbEntity
  8
0
  6
Continuous
 62
     7
370
    25
100
AcDbEllipse
 10
149.5919957025
 20
132.2675141215
 30
0.0
 11
36.00000000000003
 21
0.0
 31
0.0
210
0.0
220
0.0
230
1.0
 40
0.2679491924
 41
2.796848035184068
 42
2.890289941421508
  0
ELLIPSE
  5
F7
330
1F
100
AcDbEntity
  8
0
  6
Continuous
 62
     7
370
    25
100
AcDbEllipse
 10
149.5919957025
 20
101.2569642192
 30
0.0
 11
0.0
 21
134.35382907247
 31
0.0
210
0.0
220
0.0
230
1.0
 40
0.2679491924
 41
1.319493614626611
 42
1.32530308259311
  0
ARC
  5
F8
330
1F
100
AcDbEntity
  8
0
  6
Continuous
 62
     7
370
    25
100
AcDbCircle
 10
149.5919957025
 20
142.6588746791
 30
0.0
 40
35.99999999999993
100
AcDbArc
 50
194.0657267917
 51
197.9628273028
  0
SPLINE
  5
F9
330
1F
100
AcDbEntity
  8
0
  6
Continuous
 62
     7
370
    25
100
AcDbSpline
210
0.0
220
0.0
230
1.0
 70
     8
 71
     3
 72
    14
 73
    10
 74
     0
 42
0.000000001
 43
0.00000001
 40
0.0
 40
0.0
 40
0.0
 40
0.0
 40
0.157083236783718
 40
0.3143693848819034
 40
0.4672141787499887
 40
0.6179416676575953
 40
0.7715650289066562
 40
0.9317316202452537
 40
1.0
 40
1.0
 40
1.0
 40
1.0
 10
115.3467508302386
 20
131.5564783774407
 30
0.0
 10
115.3544787341592
 20
131.5277401140538
 30
0.0
 10
115.3699445244731
 20
131.4702264648031
 30
0.0
 10
115.3802486677863
 20
131.3594557359563
 30
0.0
 10
115.3788886795371
 20
131.2470588917648
 30
0.0
 10
115.3659410953087
 20
131.1430134711926
 30
0.0
 10
115.3430901438316
 20
131.0571342026215
 30
0.0
 10
115.3185315201083
 20
131.0080639872455
 30
0.0
 10
115.3025014945862
 20
130.9923449620764
 30
0.0
 10
115.2977108801519
 20
130.987647290899
 30
0.0
  0
ELLIPSE
  5
FA
330
1F
100
AcDbEntity
  8
0
  6
Continuous
 62
     7
370
    25
100
AcDbEllipse
 10
149.5919957025
 20
128.0536094023
 30
0.0
 11
36.00000000000003
 21
0.0
 31
0.0
210
0.0
220
0.0
230
1.0
 40
0.2679491924
 41
2.832529755889156
 42
2.925028099728672
  0
ELLIPSE
  5
FB
330
1F
100
AcDbEntity
  8
0
  6
Continuous
 62
     7
370
    25
100
AcDbEllipse
 10
149.5919957025
 20
101.2569642192
 30
0.0
 11
0.0
 21
134.3538290724856
 31
0.0
210
0.0
220
0.0
230
1.0
 40
0.2679491924
 41
1.354231772933772
 42
1.360458240393627
  0
LINE
  5
FC
330
1F
100
AcDbEntity
  8
0
  6
Continuous
 62
     7
370
    25
100
AcDbLine
 10
113.5919957025
 20
129.3087736665
 30
0.0
 11
114.4921381529
 21
129.3087736665
 31
0.0
  0
ELLIPSE
  5
FD
330
1F
100
AcDbEntity
  8
0
  6
Continuous
 62
     7
370
    25
100
AcDbEllipse
 10
149.5919957025
 20
131.4523672059
 30
0.0
 11
36.00000000000003
 21
0.0
 31
0.0
210
0.0
220
0.0
230
1.0
 40
0.2679491924
 41
3.365685745891219
 42
4.078205139560675
  0
ELLIPSE
  5
FE
330
1F
100
AcDbEntity
  8
0
  6
Continuous
 62
     7
370
    25
100
AcDbEllipse
 10
149.5919957025
 20
15.4523672059
 30
0.0
 11
0.0
 21
134.3538290724786
 31
0.0
210
0.0
220
0.0
230
1.0
 40
0.2679491924
 41
0.6341838408240389
 42
0.8244537700957226
  0
SPLINE
  5
FF
330
1F
100
AcDbEntity
  8
0
  6
Continuous
 62
     7
370
    25
100
AcDbSpline
210
0.0
220
0.0
230
1.0
 70
     8
 71
     3
 72
     9
 73
     5
 74
     0
 42
0.000000001
 43
0.00000001
 40
0.0
 40
0.0
 40
0.0
 40
0.0
 40
0.6500305226563169
 40
1.0
 40
1.0
 40
1.0
 40
1.0
 10
113.5930177412047
 20
106.6729872288304
 30
0.0
 10
113.592692799264
 20
106.8697190458967
 30
0.0
 10
113.5921929120599
 20
107.1723691680209
 30
0.0
 10
113.5921444445422
 20
107.4480191641777
 30
0.0
 10
113.5921274823904
 20
107.5444882492624
 30
0.0
  0
SPLINE
  5
100
330
1F
100
AcDbEntity
  8
0
  6
Continuous
 62
     7
370
    25
100
AcDbSpline
210
0.0
220
0.0
230
1.0
 70
     8
 71
     3
 72
    20
 73
    16
 74
     0
 42
0.000000001
 43
0.00000001
 40
0.0
 40
0.0
 40
0.0
 40
0.0
 40
0.1262601383435913
 40
0.1988427789887451
 40
0.2734251865011029
 40
0.3478881072415907
 40
0.4244726893975697
 40
0.4995333818344123
 40
0.5768235013352134
 40
0.6508819258763392
 40
0.7272326331858546
 40
0.7987932632479205
 40
0.8726157461321749
 40
0.9411043251513053
 40
1.0
 40
1.0
 40
1.0
 40
1.0
 10
113.662304825246
 20
125.5552734997152
 30
0.0
 10
113.6754592067229
 20
125.3058688778221
 30
0.0
 10
113.6961755927735
 20
124.9130900581529
 30
0.0
 10
113.7161840873216
 20
124.2722929544928
 30
0.0
 10
113.7259534045823
 20
123.7322302197373
 30
0.0
 10
113.7280531010307
 20
123.1693932328789
 30
0.0
 10
113.7219814222712
 20
122.609396189539
 30
0.0
 10
113.7082178024539
 20
122.0623145772048
 30
0.0
 10
113.6885843941089
 20
121.5566232369903
 30
0.0
 10
113.6651702566487
 20
121.0992793029494
 30
0.0
 10
113.6414736664346
 20
120.7172628335825
 30
0.0
 10
113.619799283884
 20
120.4110503029283
 30
0.0
 10
113.6035390105011
 20
120.2008448507616
 30
0.0
 10
113.5934943537346
 20
120.0777789480769
 30
0.0
 10
113.5928318743765
 20
120.0698617979668
 30
0.0
 10
113.5925255793072
 20
120.0662013306449
 30
0.0
  0
SPLINE
  5
101
330
1F
100
AcDbEntity
  8
0
  6
Continuous
 62
     7
370
    25
100
AcDbSpline
210
0.0
220
0.0
230
1.0
 70
     8
 71
     3
 72
    12
 73
     8
 74
     0
 42
0.000000001
 43
0.00000001
 40
0.0
 40
0.0
 40
0.0
 40
0.0
 40
0.1023155175027832
 40
0.3051622584062777
 40
0.5004843857981667
 40
0.701234944299758
 40
1.0
 40
1.0
 40
1.0
 40
1.0
 10
113.5928581347434
 20
126.5473385701415
 30
0.0
 10
113.592706088383
 20
126.5491752489031
 30
0.0
 10
113.5922526008585
 20
126.5546532550992
 30
0.0
 10
113.5991753783618
 20
126.4709884127144
 30
0.0
 10
113.6123349231004
 20
126.3035402517925
 30
0.0
 10
113.6335310626123
 20
126.0217310825683
 30
0.0
 10
113.6515359433513
 20
125.7298502277064
 30
0.0
 10
113.6623048343407
 20
125.5552735030128
 30
0.0
  0
LINE
  5
102
330
1F
100
AcDbEntity
  8
0
  6
Continuous
 62
     7
370
    25
100
AcDbLine
 10
147.2419957025
 20
123.6818406254
 30
0.0
 11
128.2612666948
 21
123.6818406254
 31
0.0
  0
LINE
  5
103
330
1F
100
AcDbEntity
  8
0
  6
Continuous
 62
     7
370
    25
100
AcDbLine
 10
117.484683443
 20
129.3087736665
 30
0.0
 11
114.4921381529
 21
129.3087736665
 31
0.0
  0
LINE
  5
104
330
1F
100
AcDbEntity
  8
0
  6
Continuous
 62
     7
370
    25
100
AcDbLine
 10
147.2419957025
 20
124.7587736665
 30
0.0
 11
147.2419957025
 21
123.6818406254
 31
0.0
  0
LINE
  5
105
330
1F
100
AcDbEntity
  8
0
  6
Continuous
 62
     7
370
    25
100
AcDbLine
 10
122.5926441481
 20
105.9658804476
 30
0.0
 11
120.5286201596
 21
104.6330685346
 31
0.0
  0
SPLINE
  5
106
330
1F
100
AcDbEntity
  8
0
  6
Continuous
 62
     7
370
    25
100
AcDbSpline
210
0.0
220
0.0
230
1.0
 70
     8
 71
     3
 72
    10
 73
     6
 74
     0
 42
0.000000001
 43
0.00000001
 40
0.0
 40
0.0
 40
0.0
 40
0.0
 40
0.3830125180324608
 40
0.8724443045982125
 40
1.0
 40
1.0
 40
1.0
 40
1.0
 10
123.1616228177425
 20
106.6729872288304
 30
0.0
 10
123.1187791234883
 20
106.5629671657624
 30
0.0
 10
123.0211876995003
 20
106.312358183298
 30
0.0
 10
122.7856009673338
 20
106.0939611434862
 30
0.0
 10
122.6257016550165
 20
105.9878233284906
 30
0.0
 10
122.5926441480605
 20
105.9658804476448
 30
0.0
  0
ELLIPSE
  5
107
330
1F
100
AcDbEntity
  8
0
  6
Continuous
 62
     7
370
    25
100
AcDbEllipse
 10
127.2419957025
 20
103.1059394318
 30
0.0
 11
0.0
 21
20.8356912500463
 31
0.0
210
0.0
220
0.0
230
1.0
 40
0.9598913595
 41
3.141592653589809
 42
4.712388980384703
  0
LINE
  5
108
330
1F
100
AcDbEntity
  8
0
  6
Continuous
 62
     7
370
    25
100
AcDbLine
 10
127.2419957025
 20
82.2702481817
 30
0.0
 11
112.0763282171
 21
82.2702481817
 31
0.0
  0
ELLIPSE
  5
109
330
1F
100
AcDbEntity
  8
0
  6
Continuous
 62
     7
370
    25
100
AcDbEllipse
 10
149.5919957025
 20
-215.6502408443
 30
0.0
 11
0.0
 21
351.1870783867913
 31
0.0
210
0.0
220
0.0
230
1.0
 40
0.2017562034
 41
0.5410866975062817
 42
0.557984157812153
  0
ARC
  5
10A
330
1F
100
AcDbEntity
  8
0
  6
Continuous
 62
     7
370
    25
100
AcDbCircle
 10
114.986138467
 20
86.2873311884
 30
0.0
 40
2.100000000000005
100
AcDbArc
 50
205.9143171775
 51
116.3453715947
  0
ELLIPSE
  5
10B
330
1F
100
AcDbEntity
  8
0
  6
Continuous
 62
     7
370
    25
100
AcDbEllipse
 10
149.5919957025
 20
-215.6502408443
 30
0.0
 11
0.0
 21
351.1870783867913
 31
0.0
210
0.0
220
0.0
230
1.0
 40
0.2017562034
 41
0.4226577878870508
 42
0.5254039664467255
  0
LINE
  5
10C
330
1F
100
AcDbEntity
  8
0
  6
Continuous
 62
     7
370
    25
100
AcDbLine
 10
147.2419957025
 20
123.6818406254
 30
0.0
 11
147.2419957025
 21
103.1059394318
 31
0.0
  0
LINE
  5
10D
330
1F
100
AcDbEntity
  8
0
  6
Continuous
 62
     7
370
    25
100
AcDbLine
 10
113.300342417
 20
105.9658804476
 30
0.0
 11
113.5034223342
 21
106.2587736665
 31
0.0
  0
SPLINE
  5
10E
330
1F
100
AcDbEntity
  8
0
  6
Continuous
 62
     7
370
    25
100
AcDbSpline
210
0.0
220
0.0
230
1.0
 70
     8
 71
     3
 72
     9
 73
     5
 74
     0
 42
0.000000001
 43
0.00000001
 40
0.0
 40
0.0
 40
0.0
 40
0.0
 40
0.7510393902478337
 40
1.0
 40
1.0
 40
1.0
 40
1.0
 10
113.5034223341524
 20
106.2587736664573
 30
0.0
 10
113.5399331374349
 20
106.3606197562604
 30
0.0
 10
113.5885468370046
 20
106.4962266114075
 30
0.0
 10
113.5921265369288
 20
106.6377527860864
 30
0.0
 10
113.5930177412046
 20
106.6729872288304
 30
0.0
  0
LINE
  5
10F
330
1F
100
AcDbEntity
  8
0
  6
Continuous
 62
     7
370
    25
100
AcDbLine
 10
120.5286201596
 20
104.6330685346
 30
0.0
 11
111.9674865805
 21
104.6330685346
 31
0.0
  0
LINE
  5
110
330
1F
100
AcDbEntity
  8
0
  6
Continuous
 62
     7
370
    25
100
AcDbLine
 10
111.9674865805
 20
104.6330685346
 30
0.0
 11
113.300342417
 21
105.9658804476
 31
0.0
  0
ELLIPSE
  5
111
330
1F
100
AcDbEntity
  8
0
  6
Continuous
 62
     7
370
    25
100
AcDbEllipse
 10
149.5919957025
 20
79.9603524521
 30
0.0
 11
41.9663317138444
 21
0.0
 31
0.0
210
0.0
220
0.0
230
1.0
 40
0.1228133476
 41
2.676871984509946
 42
3.006130846278078
  0
LWPOLYLINE
  5
112
330
1F
100
AcDbEntity
  8
0
  6
Continuous
 62
     7
370
    25
100
AcDbPolyline
 90
        3
 70
   128
 43
0.0
 10
110.0624822081
 20
92.2165464115
 10
109.7856778218
 20
90.6578923568
 10
108.0101145842
 20
80.6563928081
  0
LINE
  5
113
330
1F
100
AcDbEntity
  8
0
  6
Continuous
 62
     7
370
    25
100
AcDbLine
 10
109.8481202359
 20
92.2165464115
 30
0.0
 11
110.0624822081
 21
92.2165464115
 31
0.0
  0
ELLIPSE
  5
114
330
1F
100
AcDbEntity
  8
0
  6
Continuous
 62
     7
370
    25
100
AcDbEllipse
 10
149.5919957025
 20
92.403020103
 30
0.0
 11
39.77286794965917
 21
-1.421085471520200E-14
 31
0.0
210
0.0
220
0.0
230
1.0
 40
0.1228133476
 41
3.127483017002378
 42
3.179777463702951
  0
LWPOLYLINE
  5
115
330
1F
100
AcDbEntity
  8
0
  6
Continuous
 62
     7
370
    25
100
AcDbPolyline
 90
        3
 70
   128
 43
0.0
 10
109.8230867151
 20
92.4719382982
 10
110.0555441401
 20
93.7902321372
 10
111.9674865805
 20
104.6330685346
  0
SPLINE
  5
116
330
1F
100
AcDbEntity
  8
0
  6
Continuous
 62
     7
370
    25
100
AcDbSpline
210
0.0
220
0.0
230
1.0
 70
     8
 71
     3
 72
    23
 73
    19
 74
     0
 42
0.000000001
 43
0.00000001
 40
0.0
 40
0.0
 40
0.0
 40
0.0
 40
0.070573018453072
 40
0.1418184094270841
 40
0.1924220165668134
 40
0.2437155713372183
 40
0.2944257134850689
 40
0.3469785284257442
 40
0.382981117430394
 40
0.4200439504480983
 40
0.4560397367681897
 40
0.4929032384247526
 40
0.5479503146158756
 40
0.604505335638967
 40
0.7023161869200707
 40
0.8025192327212193
 40
0.900891704236566
 40
1.0
 40
1.0
 40
1.0
 40
1.0
 10
113.0972964028097
 20
85.36957541675532
 30
0.0
 10
113.0702339110572
 20
85.42913623809889
 30
0.0
 10
113.0158510942302
 20
85.5488253364578
 30
0.0
 10
112.9567708715207
 20
85.73604688231605
 30
0.0
 10
112.9156974559712
 20
85.92194213928227
 30
0.0
 10
112.8915721296648
 20
86.10134259968538
 30
0.0
 10
112.8828028281925
 20
86.29910854703984
 30
0.0
 10
112.8931549125915
 20
86.49041494718942
 30
0.0
 10
112.9187400397505
 20
86.66682844754624
 30
0.0
 10
112.9524812335598
 20
86.81861894328543
 30
0.0
 10
112.9968100420433
 20
86.96562288782927
 30
0.0
 10
113.0580797869231
 20
87.12621370148688
 30
0.0
 10
113.1399836791686
 20
87.29502634348276
 30
0.0
 10
113.266816247466
 20
87.50262680537452
 30
0.0
 10
113.4329884137628
 20
87.71088890258011
 30
0.0
 10
113.6349032039971
 20
87.90186418163287
 30
0.0
 10
113.8427794452092
 20
88.0559471340766
 30
0.0
 10
113.9835506019634
 20
88.1313655697353
 30
0.0
 10
114.0541984408938
 20
88.1692152941934
 30
0.0
  0
ELLIPSE
  5
117
330
1F
100
AcDbEntity
  8
0
  6
Continuous
 62
     7
370
    25
100
AcDbEllipse
 10
127.2419957025
 20
100.2589701756
 30
0.0
 11
0.0
 21
20.15019650917698
 31
0.0
210
0.0
220
0.0
230
1.0
 40
0.9925461516
 41
3.141592653589809
 42
4.712388980384704
  0
LINE
  5
118
330
1F
100
AcDbEntity
  8
0
  6
Continuous
 62
     7
370
    25
100
AcDbLine
 10
147.2419957025
 20
103.1059394318
 30
0.0
 11
147.2419957025
 21
100.2589701756
 31
0.0
  0
LINE
  5
119
330
1F
100
AcDbEntity
  8
0
  6
Continuous
 62
     7
370
    25
100
AcDbLine
 10
127.2419957025
 20
80.1087736665
 30
0.0
 11
120.1767067174
 21
80.1087736665
 31
0.0
  0
LINE
  5
11A
330
1F
100
AcDbEntity
  8
0
  6
Continuous
 62
     7
370
    25
100
AcDbLine
 10
119.9624074795
 20
80.3641655531
 30
0.0
 11
120.1767067174
 21
80.1087736665
 31
0.0
  0
LINE
  5
11B
330
1F
100
AcDbEntity
  8
0
  6
Continuous
 62
     7
370
    25
100
AcDbLine
 10
120.013935029
 20
80.6563928081
 30
0.0
 11
119.9624074795
 21
80.3641655531
 31
0.0
  0
LINE
  5
11C
330
1F
100
AcDbEntity
  8
0
  6
Continuous
 62
     7
370
    25
100
AcDbLine
 10
108.0101145842
 20
80.6563928081
 30
0.0
 11
120.013935029
 21
80.6563928081
 31
0.0
  0
LINE
  5
11D
330
1F
100
AcDbEntity
  8
0
  6
Continuous
 62
     7
370
    25
100
AcDbLine
 10
116.6020927781
 20
130.1263371206
 30
0.0
 11
114.4329051201
 21
130.1263371206
 31
0.0
  0
LINE
  5
11E
330
1F
100
AcDbEntity
  8
0
  6
Continuous
 62
     7
370
    25
100
AcDbLine
 10
116.7227807764
 20
134.6661885042
 30
0.0
 11
114.7227807764
 21
134.6661885042
 31
0.0
  0
LINE
  5
11F
330
1F
100
AcDbEntity
  8
0
  6
Continuous
 62
     7
370
    25
100
AcDbLine
 10
116.6713632738
 20
133.9096215237
 30
0.0
 11
114.6713632738
 21
133.9096215237
 31
0.0
  0
LINE
  5
120
330
1F
100
AcDbEntity
  8
0
  6
Continuous
 62
     7
370
    25
100
AcDbLine
 10
117.0579089226
 20
139.2060398878
 30
0.0
 11
115.0579089226
 21
139.2060398878
 31
0.0
  0
LINE
  5
121
330
1F
100
AcDbEntity
  8
0
  6
Continuous
 62
     7
370
    25
100
AcDbLine
 10
116.9988638647
 20
138.4494729072
 30
0.0
 11
114.9988638647
 21
138.4494729072
 31
0.0
  0
ELLIPSE
  5
122
330
1F
100
AcDbEntity
  8
0
  6
Continuous
 62
     7
370
    25
100
AcDbEllipse
 10
156.5919957025
 20
145.9514252193
 30
0.0
 11
0.0
 21
9.192388155424339
 31
0.0
210
0.0
220
0.0
230
1.0
 40
0.7071067812
 41
5.134315871867182
 42
5.268567635411119
  0
SPLINE
  5
123
330
1F
100
AcDbEntity
  8
0
  6
Continuous
 62
     7
370
    25
100
AcDbSpline
210
0.0
220
0.0
230
1.0
 70
     8
 71
     3
 72
    13
 73
     9
 74
     0
 42
0.000000001
 43
0.00000001
 40
0.0
 40
0.0
 40
0.0
 40
0.0
 40
0.1612276678308068
 40
0.3220646360078848
 40
0.4927458139773947
 40
0.6693688950408138
 40
0.8428350037389015
 40
1.0
 40
1.0
 40
1.0
 40
1.0
 10
162.5219556835358
 20
149.7158839116752
 30
0.0
 10
162.5321815460051
 20
149.6855097664361
 30
0.0
 10
162.5526084908239
 20
149.6248350809924
 30
0.0
 10
162.596295489212
 20
149.5107334676563
 30
0.0
 10
162.6435254709571
 20
149.391686290343
 30
0.0
 10
162.6898292253763
 20
149.2793217882821
 30
0.0
 10
162.7287597486212
 20
149.1896651158119
 30
0.0
 10
162.7449034688082
 20
149.1607822511957
 30
0.0
 10
162.752577361811
 20
149.1470528251334
 30
0.0
  0
ELLIPSE
  5
124
330
1F
100
AcDbEntity
  8
0
  6
Continuous
 62
     7
370
    25
100
AcDbEllipse
 10
156.5919957025
 20
148.0740009728
 30
0.0
 11
6.5
 21
0.0
 31
0.0
210
0.0
220
0.0
230
1.0
 40
0.5176380902
 41
0.0629729230705212
 42
0.3245892776269115
  0
ARC
  5
125
330
1F
100
AcDbEntity
  8
0
  6
Continuous
 62
     7
370
    25
100
AcDbCircle
 10
157.0269469813
 20
147.8906282047
 30
0.0
 40
6.065048588537222
100
AcDbArc
 50
356.583377221
 51
3.7352436183
  0
ELLIPSE
  5
126
330
1F
100
AcDbEntity
  8
0
  6
Continuous
 62
     7
370
    25
100
AcDbEllipse
 10
156.5919957025
 20
148.0583775789
 30
0.0
 11
0.0
 21
9.192388155424339
 31
0.0
210
0.0
220
0.0
230
1.0
 40
0.7071067812
 41
4.393451497048014
 42
4.654787555061779
  0
SPLINE
  5
127
330
1F
100
AcDbEntity
  8
0
  6
Continuous
 62
     7
370
    25
100
AcDbSpline
210
0.0
220
0.0
230
1.0
 70
     8
 71
     3
 72
    13
 73
     9
 74
     0
 42
0.000000001
 43
0.00000001
 40
0.0
 40
0.0
 40
0.0
 40
0.0
 40
0.1566761514832966
 40
0.3131039507911247
 40
0.4760952065681971
 40
0.6477071416270037
 40
0.8239014647095448
 40
0.9999999999999999
 40
0.9999999999999999
 40
0.9999999999999999
 40
0.9999999999999999
 10
162.7641949461909
 20
145.1760325281166
 30
0.0
 10
162.7567042970139
 20
145.1461847895819
 30
0.0
 10
162.7417348723177
 20
145.0865366250788
 30
0.0
 10
162.7064913529577
 20
144.9743373908642
 30
0.0
 10
162.6643534133034
 20
144.8581704170954
 30
0.0
 10
162.6176501350435
 20
144.7477046658959
 30
0.0
 10
162.570885798675
 20
144.6540032529772
 30
0.0
 10
162.5486113746038
 20
144.6227992172686
 30
0.0
 10
162.537477190756
 20
144.6072014415748
 30
0.0
  0
ELLIPSE
  5
128
330
1F
100
AcDbEntity
  8
0
  6
Continuous
 62
     7
370
    25
100
AcDbEllipse
 10
156.5919957025
 20
145.9670486132
 30
0.0
 11
6.5
 21
0.0
 31
0.0
210
0.0
220
0.0
230
1.0
 40
0.5176380902
 41
5.562172706815146
 42
5.86712786706064
  0
ARC
  5
129
330
1F
100
AcDbEntity
  8
0
  6
Continuous
 62
     7
370
    25
100
AcDbCircle
 10
156.7348938247
 20
148.0604728544
 30
0.0
 40
6.409246627055263
100
AcDbArc
 50
307.6999736323
 51
317.6869645595
  0
ELLIPSE
  5
12A
330
1F
100
AcDbEntity
  8
0
  6
Continuous
 62
     7
370
    25
100
AcDbEllipse
 10
156.5919957025
 20
150.1653299385
 30
0.0
 11
0.0
 21
9.192388155424339
 31
0.0
210
0.0
220
0.0
230
1.0
 40
0.7071067812
 41
3.141592653589793
 42
3.816689384132997
  0
ARC
  5
12B
330
1F
100
AcDbEntity
  8
0
  6
Continuous
 62
     7
370
    25
100
AcDbCircle
 10
156.6722054016
 20
144.3538956971
 30
0.0
 40
6.451100547065621
100
AcDbArc
 50
14.4119617224
 51
90.7124049021
  0
LINE
  5
12C
330
1F
100
AcDbEntity
  8
0
  6
Continuous
 62
     7
370
    25
100
AcDbLine
 10
117.4396216848
 20
143.7458912713
 30
0.0
 11
115.4396216848
 21
143.7458912713
 31
0.0
  0
LINE
  5
12D
330
1F
100
AcDbEntity
  8
0
  6
Continuous
 62
     7
370
    25
100
AcDbLine
 10
117.3727106042
 20
142.9893242908
 30
0.0
 11
115.3727106042
 21
142.9893242908
 31
0.0
  0
LINE
  5
12E
330
1F
100
AcDbEntity
  8
0
  6
Continuous
 62
     7
370
    25
100
AcDbLine
 10
166.6543191106
 20
142.9893242908
 30
0.0
 11
160.6543191106
 21
142.9893242908
 31
0.0
  0
LINE
  5
12F
330
1F
100
AcDbEntity
  8
0
  6
Continuous
 62
     7
370
    25
100
AcDbLine
 10
167.4743904318
 20
143.7458912713
 30
0.0
 11
161.4743904318
 21
143.7458912713
 31
0.0
  0
LINE
  5
130
330
1F
100
AcDbEntity
  8
0
  6
Continuous
 62
     7
370
    25
100
AcDbLine
 10
168.3001710313
 20
147.5291756744
 30
0.0
 11
163.08121543
 21
147.5291756744
 31
0.0
  0
LINE
  5
131
330
1F
100
AcDbEntity
  8
0
  6
Continuous
 62
     7
370
    25
100
AcDbLine
 10
167.7976922531
 20
148.2857426549
 30
0.0
 11
163.0791117966
 21
148.2857426549
 31
0.0
  0
LINE
  5
132
330
1F
100
AcDbEntity
  8
0
  6
Continuous
 62
     7
370
    25
100
AcDbLine
 10
117.8695009321
 20
148.2857426549
 30
0.0
 11
115.8695009321
 21
148.2857426549
 31
0.0
  0
LINE
  5
133
330
1F
100
AcDbEntity
  8
0
  6
Continuous
 62
     7
370
    25
100
AcDbLine
 10
117.7944414108
 20
147.5291756744
 30
0.0
 11
115.7944414108
 21
147.5291756744
 31
0.0
  0
LINE
  5
134
330
1F
100
AcDbEntity
  8
0
  6
Continuous
 62
     7
370
    25
100
AcDbLine
 10
118.349415219
 20
152.8255940384
 30
0.0
 11
116.349415219
 21
152.8255940384
 31
0.0
  0
LINE
  5
135
330
1F
100
AcDbEntity
  8
0
  6
Continuous
 62
     7
370
    25
100
AcDbLine
 10
118.265874105
 20
152.0690270579
 30
0.0
 11
116.265874105
 21
152.0690270579
 31
0.0
  0
LINE
  5
136
330
1F
100
AcDbEntity
  8
0
  6
Continuous
 62
     7
370
    25
100
AcDbLine
 10
118.8815667534
 20
157.365445422
 30
0.0
 11
116.8815667534
 21
157.365445422
 31
0.0
  0
LINE
  5
137
330
1F
100
AcDbEntity
  8
0
  6
Continuous
 62
     7
370
    25
100
AcDbLine
 10
118.7891515189
 20
156.6088784415
 30
0.0
 11
116.7891515189
 21
156.6088784415
 31
0.0
  0
LINE
  5
138
330
1F
100
AcDbEntity
  8
0
  6
Continuous
 62
     7
370
    25
100
AcDbLine
 10
119.4685514905
 20
161.9052968055
 30
0.0
 11
117.4685514905
 21
161.9052968055
 31
0.0
  0
LINE
  5
139
330
1F
100
AcDbEntity
  8
0
  6
Continuous
 62
     7
370
    25
100
AcDbLine
 10
119.3667991399
 20
161.148729825
 30
0.0
 11
117.3667991399
 21
161.148729825
 31
0.0
  0
LINE
  5
13A
330
1F
100
AcDbEntity
  8
0
  6
Continuous
 62
     7
370
    25
100
AcDbLine
 10
120.1134367264
 20
166.4451481891
 30
0.0
 11
118.1134367264
 21
166.4451481891
 31
0.0
  0
LINE
  5
13B
330
1F
100
AcDbEntity
  8
0
  6
Continuous
 62
     7
370
    25
100
AcDbLine
 10
120.0017994125
 20
165.6885812086
 30
0.0
 11
118.0017994125
 21
165.6885812086
 31
0.0
  0
LINE
  5
13C
330
1F
100
AcDbEntity
  8
0
  6
Continuous
 62
     7
370
    25
100
AcDbLine
 10
122.0014252576
 20
167.2587736665
 30
0.0
 11
120.0014252576
 21
167.2587736665
 31
0.0
  0
LINE
  5
13D
330
1F
100
AcDbEntity
  8
0
  6
Continuous
 62
     7
370
    25
100
AcDbLine
 10
187.4906029178
 20
109.2587736665
 30
0.0
 11
187.3461562995
 21
109.2587736665
 31
0.0
  0
ELLIPSE
  5
13E
330
1F
100
AcDbEntity
  8
0
  6
Continuous
 62
     7
370
    25
100
AcDbEllipse
 10
151.5919957025
 20
108.1333870582
 30
0.0
 11
36.00000000000003
 21
-1.421085471520200E-14
 31
0.0
210
0.0
220
0.0
230
1.0
 40
0.2679491924
 41
0.1169329614623798
 42
0.4674193874318399
  0
ARC
  5
13F
330
1F
100
AcDbEntity
  8
0
  6
Continuous
 62
     7
370
    25
100
AcDbCircle
 10
151.5919957025
 20
96.2587736665
 30
0.0
 40
35.99999999999996
100
AcDbArc
 50
26.7811581624
 51
53.6639424854
  0
LINE
  5
140
330
1F
100
AcDbEntity
  8
0
  6
Continuous
 62
     7
370
    25
100
AcDbLine
 10
172.9227247102
 20
125.2587736665
 30
0.0
 11
172.9227247102
 21
139.5565963354
 31
0.0
  0
SPLINE
  5
141
330
1F
100
AcDbEntity
  8
0
  6
Continuous
 62
     7
370
    25
100
AcDbSpline
210
0.0
220
0.0
230
1.0
 70
     8
 71
     3
 72
    13
 73
     9
 74
     0
 42
0.000000001
 43
0.00000001
 40
0.0
 40
0.0
 40
0.0
 40
0.0
 40
0.1889625696589516
 40
0.3839627637840497
 40
0.5728597050211796
 40
0.7667065304254636
 40
0.8829640060365171
 40
1.0
 40
1.0
 40
1.0
 40
1.0
 10
172.9227247101866
 20
147.37989783653
 30
0.0
 10
173.0779945820541
 20
146.9097512829612
 30
0.0
 10
173.3934954203538
 20
145.9544363207565
 30
0.0
 10
173.5957533530405
 20
144.4258318355787
 30
0.0
 10
173.6029580066545
 20
142.8700162357944
 30
0.0
 10
173.4354275816813
 20
141.5418742855387
 30
0.0
 10
173.1942456518318
 20
140.434597427027
 30
0.0
 10
173.0134328195372
 20
139.8499137441553
 30
0.0
 10
172.9227247101866
 20
139.5565963353829
 30
0.0
  0
LINE
  5
142
330
1F
100
AcDbEntity
  8
0
  6
Continuous
 62
     7
370
    25
100
AcDbLine
 10
172.9227247102
 20
147.3798978365
 30
0.0
 11
172.9227247102
 21
166.2587736665
 31
0.0
  0
ARC
  5
143
330
1F
100
AcDbEntity
  8
0
  6
Continuous
 62
     7
370
    25
100
AcDbCircle
 10
151.5919957025
 20
195.2587736665
 30
0.0
 40
35.99999999999977
100
AcDbArc
 50
306.3360575146
 51
308.942441269
  0
LINE
  5
144
330
1F
100
AcDbEntity
  8
0
  6
Continuous
 62
     7
370
    25
100
AcDbLine
 10
181.1825661474
 20
167.2587736665
 30
0.0
 11
174.2194127005
 21
167.2587736665
 31
0.0
  0
ELLIPSE
  5
145
330
1F
100
AcDbEntity
  8
0
  6
Continuous
 62
     7
370
    25
100
AcDbEllipse
 10
151.5919957025
 20
161.7648471559
 30
0.0
 11
36.00000000000003
 21
0.0
 31
0.0
210
0.0
220
0.0
230
1.0
 40
0.2679491924
 41
0.5065893789216779
 42
0.605951953232583
  0
ELLIPSE
  5
146
330
1F
100
AcDbEntity
  8
0
  6
Continuous
 62
     7
370
    25
100
AcDbEllipse
 10
151.5919957025
 20
101.2569642192
 30
0.0
 11
0.0
 21
134.35382907247
 31
0.0
210
0.0
220
0.0
230
1.0
 40
0.2679491924
 41
5.212549793768723
 42
5.218978359306382
  0
ARC
  5
147
330
1F
100
AcDbEntity
  8
0
  6
Continuous
 62
     7
370
    25
100
AcDbCircle
 10
151.5919957025
 20
182.9529809479
 30
0.0
 40
35.99999999999979
100
AcDbArc
 50
326.9800004279
 51
331.3428963153
  0
SPLINE
  5
148
330
1F
100
AcDbEntity
  8
0
  6
Continuous
 62
     7
370
    25
100
AcDbSpline
210
0.0
220
0.0
230
1.0
 70
     8
 71
     3
 72
    14
 73
    10
 74
     0
 42
0.000000001
 43
0.00000001
 40
0.0
 40
0.0
 40
0.0
 40
0.0
 40
0.1493479417649317
 40
0.2993980634075749
 40
0.4346824701807018
 40
0.5617788178220638
 40
0.6953417013432862
 40
0.8463394521114515
 40
1.0
 40
1.0
 40
1.0
 40
1.0
 10
181.7772903197807
 20
163.3354380623511
 30
0.0
 10
181.7626424484382
 20
163.3087019777296
 30
0.0
 10
181.7332778367726
 20
163.2551041051096
 30
0.0
 10
181.7114862339779
 20
163.1493718071274
 30
0.0
 10
181.7116341091204
 20
163.043702340952
 30
0.0
 10
181.7307949974058
 20
162.9484474154209
 30
0.0
 10
181.7661681998536
 20
162.8660609502441
 30
0.0
 10
181.8157222527121
 20
162.8000891559692
 30
0.0
 10
181.8556588749826
 20
162.77783254549
 30
0.0
 10
181.875801714636
 20
162.7666069758093
 30
0.0
  0
ELLIPSE
  5
149
330
1F
100
AcDbEntity
  8
0
  6
Continuous
 62
     7
370
    25
100
AcDbEllipse
 10
151.5919957025
 20
157.5509424367
 30
0.0
 11
36.00000000000003
 21
0.0
 31
0.0
210
0.0
220
0.0
230
1.0
 40
0.2679491924
 41
0.4683421176144263
 42
0.5712665415584041
  0
ELLIPSE
  5
14A
330
1F
100
AcDbEntity
  8
0
  6
Continuous
 62
     7
370
    25
100
AcDbEllipse
 10
151.5919957025
 20
101.2569642192
 30
0.0
 11
0.0
 21
134.3538290724749
 31
0.0
210
0.0
220
0.0
230
1.0
 40
0.2679491924
 41
5.174430394880654
 42
5.18073109799913
  0
ARC
  5
14B
330
1F
100
AcDbEntity
  8
0
  6
Continuous
 62
     7
370
    25
100
AcDbCircle
 10
151.5919957025
 20
177.1966800524
 30
0.0
 40
35.99999999999985
100
AcDbArc
 50
329.2601067243
 51
333.5269769891
  0
SPLINE
  5
14C
330
1F
100
AcDbEntity
  8
0
  6
Continuous
 62
     7
370
    25
100
AcDbSpline
210
0.0
220
0.0
230
1.0
 70
     8
 71
     3
 72
    14
 73
    10
 74
     0
 42
0.000000001
 43
0.00000001
 40
0.0
 40
0.0
 40
0.0
 40
0.0
 40
0.1505854501612581
 40
0.3017743966228562
 40
0.4401911923295985
 40
0.5716594719842124
 40
0.7091791792079456
 40
0.8625313376858913
 40
1.0
 40
1.0
 40
1.0
 40
1.0
 10
182.5338728701133
 20
158.7955866787924
 30
0.0
 10
182.520337427261
 20
158.7685070645333
 30
0.0
 10
182.4932122960123
 20
158.7142393099454
 30
0.0
 10
182.4734575664349
 20
158.607712367301
 30
0.0
 10
182.4739494783412
 20
158.500910296847
 30
0.0
 10
182.4924979569535
 20
158.4039523314206
 30
0.0
 10
182.5265361819871
 20
158.3206484486998
 30
0.0
 10
182.5719342501942
 20
158.2577938829919
 30
0.0
 10
182.6072944044824
 20
158.2367179949636
 30
0.0
 10
182.6240088649395
 20
158.2267555922497
 30
0.0
  0
ELLIPSE
  5
14D
330
1F
100
AcDbEntity
  8
0
  6
Continuous
 62
     7
370
    25
100
AcDbEllipse
 10
151.5919957025
 20
153.3370377175
 30
0.0
 11
36.00000000000003
 21
0.0
 31
0.0
210
0.0
220
0.0
230
1.0
 40
0.2679491924
 41
0.430821397685768
 42
0.5315935836737908
  0
ELLIPSE
  5
14E
330
1F
100
AcDbEntity
  8
0
  6
Continuous
 62
     7
370
    25
100
AcDbEllipse
 10
151.5919957025
 20
101.2569642192
 30
0.0
 11
0.0
 21
134.3538290724749
 31
0.0
210
0.0
220
0.0
230
1.0
 40
0.2679491924
 41
5.137021682108941
 42
5.143210378070472
  0
ARC
  5
14F
330
1F
100
AcDbEntity
  8
0
  6
Continuous
 62
     7
370
    25
100
AcDbCircle
 10
151.5919957025
 20
171.4403791568
 30
0.0
 40
35.99999999999986
100
AcDbArc
 50
331.4874516626
 51
335.670338348
  0
SPLINE
  5
150
330
1F
100
AcDbEntity
  8
0
  6
Continuous
 62
     7
370
    25
100
AcDbSpline
210
0.0
220
0.0
230
1.0
 70
     8
 71
     3
 72
    14
 73
    10
 74
     0
 42
0.000000001
 43
0.00000001
 40
0.0
 40
0.0
 40
0.0
 40
0.0
 40
0.1518085251577047
 40
0.3041331578047159
 40
0.4454670740103581
 40
0.5809479176623471
 40
0.7220151689085699
 40
0.8772842203155939
 40
1.0
 40
1.0
 40
1.0
 40
1.0
 10
183.2256489115258
 20
154.2557352952338
 30
0.0
 10
183.2131697315599
 20
154.2283280921712
 30
0.0
 10
183.1881689458273
 20
154.1734205090472
 30
0.0
 10
183.1702829817066
 20
154.0661016981279
 30
0.0
 10
183.171061807057
 20
153.9582103500857
 30
0.0
 10
183.1889049516243
 20
153.8597187988879
 30
0.0
 10
183.2214361750062
 20
153.7756787131743
 30
0.0
 10
183.2629170589906
 20
153.7156942275578
 30
0.0
 10
183.2941751426246
 20
153.6957212394555
 30
0.0
 10
183.3079739534789
 20
153.6869042086917
 30
0.0
  0
ELLIPSE
  5
151
330
1F
100
AcDbEntity
  8
0
  6
Continuous
 62
     7
370
    25
100
AcDbEllipse
 10
151.5919957025
 20
149.1231329983
 30
0.0
 11
36.00000000000003
 21
0.0
 31
0.0
210
0.0
220
0.0
230
1.0
 40
0.2679491924
 41
0.3939372096828055
 42
0.4928258995703127
  0
ELLIPSE
  5
152
330
1F
100
AcDbEntity
  8
0
  6
Continuous
 62
     7
370
    25
100
AcDbEllipse
 10
151.5919957025
 20
101.2569642192
 30
0.0
 11
0.0
 21
134.3538290724749
 31
0.0
210
0.0
220
0.0
230
1.0
 40
0.2679491924
 41
5.100235613611959
 42
5.106326190067505
  0
ARC
  5
153
330
1F
100
AcDbEntity
  8
0
  6
Continuous
 62
     7
370
    25
100
AcDbCircle
 10
151.5919957025
 20
165.6840782613
 30
0.0
 40
35.99999999999989
100
AcDbArc
 50
333.6686942694
 51
337.7780248177
  0
SPLINE
  5
154
330
1F
100
AcDbEntity
  8
0
  6
Continuous
 62
     7
370
    25
100
AcDbSpline
210
0.0
220
0.0
230
1.0
 70
     8
 71
     3
 72
    14
 73
    10
 74
     0
 42
0.000000001
 43
0.00000001
 40
0.0
 40
0.0
 40
0.0
 40
0.0
 40
0.1529937707521539
 40
0.3064258420931403
 40
0.4504679014741649
 40
0.5896208196794896
 40
0.7338545282793679
 40
0.8906594268566845
 40
1.0
 40
1.0
 40
1.0
 40
1.0
 10
183.8567871819401
 20
149.7158839116752
 30
0.0
 10
183.8453193315661
 20
149.6881677499307
 30
0.0
 10
183.8223507774181
 20
149.6326560244507
 30
0.0
 10
183.8061913208867
 20
149.5245657576943
 30
0.0
 10
183.8071977727082
 20
149.4156394843362
 30
0.0
 10
183.8242405758158
 20
149.3157698586691
 30
0.0
 10
183.8551040725004
 20
149.2311466730723
 30
0.0
 10
183.8928753421368
 20
149.1737923311562
 30
0.0
 10
183.9204462928894
 20
149.1548393007004
 30
0.0
 10
183.9317732695909
 20
149.1470528251333
 30
0.0
  0
ELLIPSE
  5
155
330
1F
100
AcDbEntity
  8
0
  6
Continuous
 62
     7
370
    25
100
AcDbEllipse
 10
151.5919957025
 20
144.9092282791
 30
0.0
 11
36.00000000000003
 21
0.0
 31
0.0
210
0.0
220
0.0
230
1.0
 40
0.2679491924
 41
0.3576103413462058
 42
0.4548495055580288
  0
ELLIPSE
  5
156
330
1F
100
AcDbEntity
  8
0
  6
Continuous
 62
     7
370
    25
100
AcDbEllipse
 10
151.5919957025
 20
101.2569642192
 30
0.0
 11
0.0
 21
134.3538290724749
 31
0.0
210
0.0
220
0.0
230
1.0
 40
0.2679491924
 41
5.063994560030161
 42
5.069999321730904
  0
ARC
  5
157
330
1F
100
AcDbEntity
  8
0
  6
Continuous
 62
     7
370
    25
100
AcDbCircle
 10
151.5919957025
 20
159.9277773658
 30
0.0
 40
35.9999999999999
100
AcDbArc
 50
335.8095692828
 51
339.8544842331
  0
SPLINE
  5
158
330
1F
100
AcDbEntity
  8
0
  6
Continuous
 62
     7
370
    25
100
AcDbSpline
210
0.0
220
0.0
230
1.0
 70
     8
 71
     3
 72
    14
 73
    10
 74
     0
 42
0.000000001
 43
0.00000001
 40
0.0
 40
0.0
 40
0.0
 40
0.0
 40
0.1541244366003466
 40
0.3086177362000542
 40
0.4551628491817101
 40
0.5976634091234599
 40
0.7447101708055988
 40
0.90272415642451
 40
1.0
 40
1.0
 40
1.0
 40
1.0
 10
184.4307841126133
 20
145.1760325281166
 30
0.0
 10
184.4202911454977
 20
145.1480278145937
 30
0.0
 10
184.3992800986537
 20
145.0919513644149
 30
0.0
 10
184.3847259343054
 20
144.9831224686655
 30
0.0
 10
184.3859014228761
 20
144.8732234308276
 30
0.0
 10
184.4020501869495
 20
144.7721192703835
 30
0.0
 10
184.4310981751332
 20
144.6870412149653
 30
0.0
 10
184.4653421817943
 20
144.6320852102113
 30
0.0
 10
184.48958941016
 20
144.6140670832762
 30
0.0
 10
184.4988285937228
 20
144.6072014415748
 30
0.0
  0
ELLIPSE
  5
159
330
1F
100
AcDbEntity
  8
0
  6
Continuous
 62
     7
370
    25
100
AcDbEllipse
 10
151.5919957025
 20
140.6953235599
 30
0.0
 11
36.0
 21
0.0
 31
0.0
210
0.0
220
0.0
230
1.0
 40
0.2679491924
 41
0.3217702927624267
 42
0.417566079206555
  0
ELLIPSE
  5
15A
330
1F
100
AcDbEntity
  8
0
  6
Continuous
 62
     7
370
    25
100
AcDbEllipse
 10
151.5919957025
 20
101.2569642192
 30
0.0
 11
0.0
 21
134.3538290724749
 31
0.0
210
0.0
220
0.0
230
1.0
 40
0.2679491924
 41
5.028229303916578
 42
5.034159273147127
  0
ARC
  5
15B
330
1F
100
AcDbEntity
  8
0
  6
Continuous
 62
     7
370
    25
100
AcDbCircle
 10
151.5919957025
 20
154.1714764702
 30
0.0
 40
35.99999999999991
100
AcDbArc
 50
337.9150779034
 51
341.9036824616
  0
SPLINE
  5
15C
330
1F
100
AcDbEntity
  8
0
  6
Continuous
 62
     7
370
    25
100
AcDbSpline
210
0.0
220
0.0
230
1.0
 70
     8
 71
     3
 72
    14
 73
    10
 74
     0
 42
0.000000001
 43
0.00000001
 40
0.0
 40
0.0
 40
0.0
 40
0.0
 40
0.1551884034438187
 40
0.310683713517036
 40
0.4595292747645337
 40
0.6050669403484922
 40
0.7545999192231567
 40
0.9135469876279737
 40
0.9999999999999999
 40
0.9999999999999999
 40
0.9999999999999999
 40
0.9999999999999999
 10
184.9505895044909
 20
140.636181144558
 30
0.0
 10
184.941041535676
 20
140.6079094477374
 30
0.0
 10
184.9219267156113
 20
140.5513101428879
 30
0.0
 10
184.9088740753893
 20
140.4417843117754
 30
0.0
 10
184.9101624253608
 20
140.3309801943992
 30
0.0
 10
184.9253270446864
 20
140.2287745615496
 30
0.0
 10
184.9524253588178
 20
140.143347945781
 30
0.0
 10
184.9833033434712
 20
140.0905667773937
 30
0.0
 10
185.0045451147274
 20
140.0733983829197
 30
0.0
 10
185.0120284664337
 20
140.0673500580162
 30
0.0
  0
ELLIPSE
  5
15D
330
1F
100
AcDbEntity
  8
0
  6
Continuous
 62
     7
370
    25
100
AcDbEllipse
 10
151.5919957025
 20
136.4814188407
 30
0.0
 11
36.0
 21
0.0
 31
0.0
210
0.0
220
0.0
230
1.0
 40
0.2679491924
 41
0.2863536373746407
 42
0.3808897448846096
  0
ELLIPSE
  5
15E
330
1F
100
AcDbEntity
  8
0
  6
Continuous
 62
     7
370
    25
100
AcDbEllipse
 10
151.5919957025
 20
101.2569642192
 30
0.0
 11
0.0
 21
134.3538290724775
 31
0.0
210
0.0
220
0.0
230
1.0
 40
0.2679491924
 41
4.992877462633225
 42
4.998742617759337
  0
ARC
  5
15F
330
1F
100
AcDbEntity
  8
0
  6
Continuous
 62
     7
370
    25
100
AcDbCircle
 10
151.5919957025
 20
148.4151755747
 30
0.0
 40
35.9999999999999
100
AcDbArc
 50
339.9896331588
 51
343.9291937651
  0
SPLINE
  5
160
330
1F
100
AcDbEntity
  8
0
  6
Continuous
 62
     7
370
    25
100
AcDbSpline
210
0.0
220
0.0
230
1.0
 70
     8
 71
     3
 72
    14
 73
    10
 74
     0
 42
0.000000001
 43
0.00000001
 40
0.0
 40
0.0
 40
0.0
 40
0.0
 40
0.1561768318433833
 40
0.3126054255093809
 40
0.46355048963993
 40
0.6118268919545208
 40
0.7635443099484366
 40
0.9231949503870914
 40
0.9999999999999999
 40
0.9999999999999999
 40
0.9999999999999999
 40
0.9999999999999999
 10
185.4187016878286
 20
136.0963297609993
 30
0.0
 10
185.4100740145933
 20
136.0678133937853
 30
0.0
 10
185.3928047600499
 20
136.0107346901023
 30
0.0
 10
185.3811645904612
 20
135.9005600241027
 30
0.0
 10
185.3825130797894
 20
135.7889224006245
 30
0.0
 10
185.3966085816253
 20
135.6857390909558
 30
0.0
 10
185.4216367474408
 20
135.6000509955473
 30
0.0
 10
185.4492916906363
 20
135.5492292275923
 30
0.0
 10
185.4678063043109
 20
135.5328265563154
 30
0.0
 10
185.473820182943
 20
135.5274986744576
 30
0.0
  0
ELLIPSE
  5
161
330
1F
100
AcDbEntity
  8
0
  6
Continuous
 62
     7
370
    25
100
AcDbEllipse
 10
151.5919957025
 20
132.2675141215
 30
0.0
 11
36.0
 21
0.0
 31
0.0
210
0.0
220
0.0
230
1.0
 40
0.2679491924
 41
0.2513027121682846
 42
0.3447446184057242
  0
ELLIPSE
  5
162
330
1F
100
AcDbEntity
  8
0
  6
Continuous
 62
     7
370
    25
100
AcDbEllipse
 10
151.5919957025
 20
101.2569642192
 30
0.0
 11
0.0
 21
134.35382907247
 31
0.0
210
0.0
220
0.0
230
1.0
 40
0.2679491924
 41
4.957882224586482
 42
4.963691692552981
  0
ARC
  5
163
330
1F
100
AcDbEntity
  8
0
  6
Continuous
 62
     7
370
    25
100
AcDbCircle
 10
151.5919957025
 20
142.6588746791
 30
0.0
 40
35.99999999999995
100
AcDbArc
 50
342.0371726972
 51
345.9342732083
  0
SPLINE
  5
164
330
1F
100
AcDbEntity
  8
0
  6
Continuous
 62
     7
370
    25
100
AcDbSpline
210
0.0
220
0.0
230
1.0
 70
     8
 71
     3
 72
    14
 73
    10
 74
     0
 42
0.000000001
 43
0.00000001
 40
0.0
 40
0.0
 40
0.0
 40
0.0
 40
0.1570832367837183
 40
0.3143693848819039
 40
0.4672141787499894
 40
0.6179416676575952
 40
0.7715650289066583
 40
0.9317316202452536
 40
0.9999999999999999
 40
0.9999999999999999
 40
0.9999999999999999
 40
0.9999999999999999
 10
185.8372405747316
 20
131.5564783774407
 30
0.0
 10
185.829512670811
 20
131.5277401140537
 30
0.0
 10
185.8140468804971
 20
131.4702264648031
 30
0.0
 10
185.8037427371839
 20
131.3594557359563
 30
0.0
 10
185.8051027254332
 20
131.2470588917648
 30
0.0
 10
185.8180503096615
 20
131.1430134711926
 30
0.0
 10
185.8409012611387
 20
131.0571342026215
 30
0.0
 10
185.8654598848619
 20
131.0080639872455
 30
0.0
 10
185.881489910384
 20
130.9923449620764
 30
0.0
 10
185.8862805248183
 20
130.987647290899
 30
0.0
  0
ELLIPSE
  5
165
330
1F
100
AcDbEntity
  8
0
  6
Continuous
 62
     7
370
    25
100
AcDbEllipse
 10
151.5919957025
 20
128.0536094023
 30
0.0
 11
36.0
 21
0.0
 31
0.0
210
0.0
220
0.0
230
1.0
 40
0.2679491924
 41
0.2165645538611214
 42
0.3090628977006354
  0
ELLIPSE
  5
166
330
1F
100
AcDbEntity
  8
0
  6
Continuous
 62
     7
370
    25
100
AcDbEllipse
 10
151.5919957025
 20
101.2569642192
 30
0.0
 11
0.0
 21
134.3538290724855
 31
0.0
210
0.0
220
0.0
230
1.0
 40
0.2679491924
 41
4.922727066785964
 42
4.92895353424582
  0
LINE
  5
167
330
1F
100
AcDbEntity
  8
0
  6
Continuous
 62
     7
370
    25
100
AcDbLine
 10
186.7985694319
 20
129.3087736665
 30
0.0
 11
187.5919957025
 21
129.3087736665
 31
0.0
  0
SPLINE
  5
168
330
1F
100
AcDbEntity
  8
0
  6
Continuous
 62
     7
370
    25
100
AcDbSpline
210
0.0
220
0.0
230
1.0
 70
     8
 71
     3
 72
    16
 73
    12
 74
     0
 42
0.000000001
 43
0.00000001
 40
0.0
 40
0.0
 40
0.0
 40
0.0
 40
0.1386863124945949
 40
0.2547042400017654
 40
0.3740877825005696
 40
0.4900796694704941
 40
0.6094432442245227
 40
0.7252919344716376
 40
0.8445050800672732
 40
0.9217696085649559
 40
1.0
 40
1.0
 40
1.0
 40
1.0
 10
187.5909736637656
 20
106.6729872288304
 30
0.0
 10
187.5912560952828
 20
106.8683949724637
 30
0.0
 10
187.5917747946675
 20
107.2272709129755
 30
0.0
 10
187.5922234760826
 20
107.7175183697239
 30
0.0
 10
187.5908214852153
 20
108.1379909592878
 30
0.0
 10
187.5859726805804
 20
108.5084389742652
 30
0.0
 10
187.5761100590213
 20
108.811790189051
 30
0.0
 10
187.5596297062541
 20
109.0453847603274
 30
0.0
 10
187.5383438755551
 20
109.1803175346969
 30
0.0
 10
187.5148041263041
 20
109.2479763335717
 30
0.0
 10
187.4987033242325
 20
109.2551596822758
 30
0.0
 10
187.4906029178075
 20
109.2587736664573
 30
0.0
  0
SPLINE
  5
169
330
1F
100
AcDbEntity
  8
0
  6
Continuous
 62
     7
370
    25
100
AcDbSpline
210
0.0
220
0.0
230
1.0
 70
     8
 71
     3
 72
    26
 73
    22
 74
     0
 42
0.000000001
 43
0.00000001
 40
0.0
 40
0.0
 40
0.0
 40
0.0
 40
0.0087355022001718
 40
0.0583648418488445
 40
0.1094319705169397
 40
0.2099348706842947
 40
0.2612183859610349
 40
0.3138749695783514
 40
0.3673004715235826
 40
0.4221774712347364
 40
0.4773801400601652
 40
0.5341359321719006
 40
0.5901464965293082
 40
0.6477982826895068
 40
0.7034479198599366
 40
0.7607988039828131
 40
0.8149048800068986
 40
0.8707168083597768
 40
0.9225438635118046
 40
0.9759896840113288
 40
1.0
 40
1.0
 40
1.0
 40
1.0
 10
187.591465825663
 20
120.0662013306449
 30
0.0
 10
187.5916350645206
 20
120.0641479464124
 30
0.0
 10
187.5927658065128
 20
120.0504285925346
 30
0.0
 10
187.5879275190409
 20
120.1088015456192
 30
0.0
 10
187.5736094168023
 20
120.2866194711148
 30
0.0
 10
187.5471836574946
 20
120.6390913470923
 30
0.0
 10
187.5180418173611
 20
121.1150472467637
 30
0.0
 10
187.4963672625209
 20
121.5380569882006
 30
0.0
 10
187.4773978844689
 20
122.0164069821051
 30
0.0
 10
187.4634679328978
 20
122.5365977973057
 30
0.0
 10
187.4563358510147
 20
123.0881983661014
 30
0.0
 10
187.4571924032237
 20
123.6498219984021
 30
0.0
 10
187.4661769147144
 20
124.2099211588845
 30
0.0
 10
187.482230483789
 20
124.7411233490099
 30
0.0
 10
187.5036658751811
 20
125.2348151905919
 30
0.0
 10
187.527371818663
 20
125.663047736596
 30
0.0
 10
187.5508384843031
 20
126.022028839082
 30
0.0
 10
187.570737364416
 20
126.2927277628094
 30
0.0
 10
187.5848417312888
 20
126.4711487916896
 30
0.0
 10
187.5918697256329
 20
126.556257949692
 30
0.0
 10
187.5913075399148
 20
126.5494491901169
 30
0.0
 10
187.5911332702268
 20
126.5473385701415
 30
0.0
  0
ELLIPSE
  5
16A
330
1F
100
AcDbEntity
  8
0
  6
Continuous
 62
     7
370
    25
100
AcDbEllipse
 10
162.5919957025
 20
143.468247086
 30
0.0
 11
0.0
 21
11.38803798451073
 31
0.0
210
0.0
220
0.0
230
1.0
 40
0.9659258263
 41
5.063016995766194
 42
6.283185307179586
  0
ELLIPSE
  5
16B
330
1F
100
AcDbEntity
  8
0
  6
Continuous
 62
     7
370
    25
100
AcDbEllipse
 10
162.5919957025
 20
143.468247086
 30
0.0
 11
0.0
 21
11.38803798451073
 31
0.0
210
0.0
220
0.0
230
1.0
 40
0.9659258263
 41
3.141592653589793
 42
4.361760965003214
  0
ARC
  5
16C
330
1F
100
AcDbEntity
  8
0
  6
Continuous
 62
     7
370
    25
100
AcDbCircle
 10
162.7745161471
 20
144.7211005245
 30
0.0
 40
10.82184420079367
100
AcDbArc
 50
269.0336076902
 51
358.1858432312
  0
ELLIPSE
  5
16D
330
1F
100
AcDbEntity
  8
0
  6
Continuous
 62
     7
370
    25
100
AcDbEllipse
 10
144.5919957025
 20
143.468247086
 30
0.0
 11
0.0
 21
11.38803798451076
 31
0.0
210
0.0
220
0.0
230
1.0
 40
0.9659258263
 41
0.0
 42
3.141592653589793
  0
LINE
  5
16E
330
1F
100
AcDbEntity
  8
0
  6
Continuous
 62
     7
370
    25
100
AcDbLine
 10
162.5919957025
 20
132.0802091014
 30
0.0
 11
144.5919957025
 21
132.0802091014
 31
0.0
  0
LINE
  5
16F
330
1F
100
AcDbEntity
  8
0
  6
Continuous
 62
     7
370
    25
100
AcDbLine
 10
130.2612666948
 20
125.2587736665
 30
0.0
 11
172.9227247102
 21
125.2587736665
 31
0.0
  0
LINE
  5
170
330
1F
100
AcDbEntity
  8
0
  6
Continuous
 62
     7
370
    25
100
AcDbLine
 10
130.2612666948
 20
166.2587736665
 30
0.0
 11
130.2612666948
 21
125.2587736665
 31
0.0
  0
LINE
  5
171
330
1F
100
AcDbEntity
  8
0
  6
Continuous
 62
     7
370
    25
100
AcDbLine
 10
130.2612666948
 20
166.2587736665
 30
0.0
 11
172.9227247102
 21
166.2587736665
 31
0.0
  0
LINE
  5
172
330
1F
100
AcDbEntity
  8
0
  6
Continuous
 62
     7
370
    25
100
AcDbLine
 10
144.5919957025
 20
154.8562850705
 30
0.0
 11
162.5919957025
 21
154.8562850705
 31
0.0
  0
ARC
  5
173
330
1F
100
AcDbEntity
  8
0
  6
Continuous
 62
     7
370
    25
100
AcDbCircle
 10
151.5919957025
 20
195.2587736665
 30
0.0
 40
35.99999999999974
100
AcDbArc
 50
231.057558731
 51
233.6639424854
  0
LINE
  5
174
330
1F
100
AcDbEntity
  8
0
  6
Continuous
 62
     7
370
    25
100
AcDbLine
 10
128.9645787045
 20
167.2587736665
 30
0.0
 11
174.2194127005
 21
167.2587736665
 31
0.0
  0
SPLINE
  5
175
330
1F
100
AcDbEntity
  8
0
  6
Continuous
 62
     7
370
    25
100
AcDbSpline
210
0.0
220
0.0
230
1.0
 70
     8
 71
     3
 72
    14
 73
    10
 74
     0
 42
0.000000001
 43
0.00000001
 40
0.0
 40
0.0
 40
0.0
 40
0.0
 40
0.1688795149174468
 40
0.337974780977001
 40
0.5012115942817599
 40
0.6566170689293738
 40
0.8076837796702092
 40
0.9595355142680325
 40
1.0
 40
1.0
 40
1.0
 40
1.0
 10
117.2977108801519
 20
130.987647290899
 30
0.0
 10
117.3094648706128
 20
131.0014986832336
 30
0.0
 10
117.3329878677837
 20
131.0292191636768
 30
0.0
 10
117.3604740265725
 20
131.1155796992122
 30
0.0
 10
117.3771047302189
 20
131.2220497845681
 30
0.0
 10
117.3810027326484
 20
131.3366850718693
 30
0.0
 10
117.3728350545198
 20
131.4455182056956
 30
0.0
 10
117.3589388502124
 20
131.51690352904
 30
0.0
 10
117.348869485039
 20
131.5495990448897
 30
0.0
 10
117.3467508302386
 20
131.5564783774407
 30
0.0
  0
ARC
  5
176
330
1F
100
AcDbEntity
  8
0
  6
Continuous
 62
     7
370
    25
100
AcDbCircle
 10
151.5919957025
 20
142.6588746791
 30
0.0
 40
35.99999999999995
100
AcDbArc
 50
194.0657267917
 51
197.9628273028
  0
ELLIPSE
  5
177
330
1F
100
AcDbEntity
  8
0
  6
Continuous
 62
     7
370
    25
100
AcDbEllipse
 10
151.5919957025
 20
101.2569642192
 30
0.0
 11
0.0
 21
134.35382907247
 31
0.0
210
0.0
220
0.0
230
1.0
 40
0.2679491924
 41
1.319493614626612
 42
1.32530308259311
  0
ELLIPSE
  5
178
330
1F
100
AcDbEntity
  8
0
  6
Continuous
 62
     7
370
    25
100
AcDbEllipse
 10
151.5919957025
 20
132.2675141215
 30
0.0
 11
36.0
 21
0.0
 31
0.0
210
0.0
220
0.0
230
1.0
 40
0.2679491924
 41
2.796848035184069
 42
2.890289941421508
  0
SPLINE
  5
179
330
1F
100
AcDbEntity
  8
0
  6
Continuous
 62
     7
370
    25
100
AcDbSpline
210
0.0
220
0.0
230
1.0
 70
     8
 71
     3
 72
    14
 73
    10
 74
     0
 42
0.000000001
 43
0.00000001
 40
0.0
 40
0.0
 40
0.0
 40
0.0
 40
0.1709720415824571
 40
0.3422200417845995
 40
0.5059290083513183
 40
0.6598470327534457
 40
0.8085044584350923
 40
0.9582248027367849
 40
1.0
 40
1.0
 40
1.0
 40
1.0
 10
117.7101712220272
 20
135.5274986744576
 30
0.0
 10
117.7234599192417
 20
135.5414418525139
 30
0.0
 10
117.7500587623855
 20
135.5693507137105
 30
0.0
 10
117.7810721033915
 20
135.6566473706523
 30
0.0
 10
117.7995890030948
 20
135.7639593441049
 30
0.0
 10
117.8036710630566
 20
135.8783364036685
 30
0.0
 10
117.7944304476112
 20
135.985988758584
 30
0.0
 10
117.7789717027451
 20
136.0567222903618
 30
0.0
 10
117.7677399500787
 20
136.0892366729108
 30
0.0
 10
117.7652897171416
 20
136.0963297609993
 30
0.0
  0
ARC
  5
17A
330
1F
100
AcDbEntity
  8
0
  6
Continuous
 62
     7
370
    25
100
AcDbCircle
 10
151.5919957025
 20
148.4151755747
 30
0.0
 40
35.99999999999994
100
AcDbArc
 50
196.0708062349
 51
200.0103668412
  0
ELLIPSE
  5
17B
330
1F
100
AcDbEntity
  8
0
  6
Continuous
 62
     7
370
    25
100
AcDbEllipse
 10
151.5919957025
 20
101.2569642192
 30
0.0
 11
0.0
 21
134.3538290724775
 31
0.0
210
0.0
220
0.0
230
1.0
 40
0.2679491924
 41
1.284442689420257
 42
1.290307844546369
  0
ELLIPSE
  5
17C
330
1F
100
AcDbEntity
  8
0
  6
Continuous
 62
     7
370
    25
100
AcDbEllipse
 10
151.5919957025
 20
136.4814188407
 30
0.0
 11
36.0
 21
0.0
 31
0.0
210
0.0
220
0.0
230
1.0
 40
0.2679491924
 41
2.760702908705182
 42
2.855239016215152
  0
SPLINE
  5
17D
330
1F
100
AcDbEntity
  8
0
  6
Continuous
 62
     7
370
    25
100
AcDbSpline
210
0.0
220
0.0
230
1.0
 70
     8
 71
     3
 72
    14
 73
    10
 74
     0
 42
0.000000001
 43
0.00000001
 40
0.0
 40
0.0
 40
0.0
 40
0.0
 40
0.1734270075136227
 40
0.3472020204047326
 40
0.5114141821810827
 40
0.6635971382352052
 40
0.8095445482088595
 40
0.9569135387507943
 40
1.0
 40
1.0
 40
1.0
 40
1.0
 10
118.1719629385365
 20
140.0673500580162
 30
0.0
 10
118.1868773528268
 20
140.0814037808825
 30
0.0
 10
118.2167361092513
 20
140.109539427362
 30
0.0
 10
118.2514692530641
 20
140.1979487512036
 30
0.0
 10
118.2718828523811
 20
140.3062569055144
 30
0.0
 10
118.2760447878353
 20
140.4203273050703
 30
0.0
 10
118.2656580859466
 20
140.5266294724633
 30
0.0
 10
118.2486180077575
 20
140.5965901323713
 30
0.0
 10
118.2362091405506
 20
140.6288769455378
 30
0.0
 10
118.2334019004793
 20
140.636181144558
 30
0.0
  0
ARC
  5
17E
330
1F
100
AcDbEntity
  8
0
  6
Continuous
 62
     7
370
    25
100
AcDbCircle
 10
151.5919957025
 20
154.1714764702
 30
0.0
 40
35.99999999999991
100
AcDbArc
 50
198.0963175384
 51
202.0849220966
  0
ELLIPSE
  5
17F
330
1F
100
AcDbEntity
  8
0
  6
Continuous
 62
     7
370
    25
100
AcDbEllipse
 10
151.5919957025
 20
101.2569642192
 30
0.0
 11
0.0
 21
134.3538290724749
 31
0.0
210
0.0
220
0.0
230
1.0
 40
0.2679491924
 41
1.249026034032468
 42
1.254956003263017
  0
ELLIPSE
  5
180
330
1F
100
AcDbEntity
  8
0
  6
Continuous
 62
     7
370
    25
100
AcDbEllipse
 10
151.5919957025
 20
140.6953235599
 30
0.0
 11
36.0
 21
0.0
 31
0.0
210
0.0
220
0.0
230
1.0
 40
0.2679491924
 41
2.724026574383238
 42
2.819822360827366
  0
SPLINE
  5
181
330
1F
100
AcDbEntity
  8
0
  6
Continuous
 62
     7
370
    25
100
AcDbSpline
210
0.0
220
0.0
230
1.0
 70
     8
 71
     3
 72
    14
 73
    10
 74
     0
 42
0.000000001
 43
0.00000001
 40
0.0
 40
0.0
 40
0.0
 40
0.0
 40
0.1763022657544504
 40
0.3530392311421389
 40
0.5177718809790975
 40
0.6679324733975568
 40
0.8108528173993145
 40
0.9556558420246791
 40
0.9999999999999999
 40
0.9999999999999999
 40
0.9999999999999999
 40
0.9999999999999999
 10
118.6851628112474
 20
144.6072014415748
 30
0.0
 10
118.7018140613767
 20
144.6213881831717
 30
0.0
 10
118.7351576177856
 20
144.6497966459009
 30
0.0
 10
118.7738406002322
 20
144.7395280932808
 30
0.0
 10
118.796152232358
 20
144.8490136969372
 30
0.0
 10
118.8002606290578
 20
144.9627162436323
 30
0.0
 10
118.788638965752
 20
145.0674801030522
 30
0.0
 10
118.7699952232032
 20
145.1365269402929
 30
0.0
 10
118.7563956189805
 20
145.1685297144232
 30
0.0
 10
118.7532072923569
 20
145.1760325281166
 30
0.0
  0
ARC
  5
182
330
1F
100
AcDbEntity
  8
0
  6
Continuous
 62
     7
370
    25
100
AcDbCircle
 10
151.5919957025
 20
159.9277773658
 30
0.0
 40
35.9999999999999
100
AcDbArc
 50
200.1455157669
 51
204.1904307172
  0
ELLIPSE
  5
183
330
1F
100
AcDbEntity
  8
0
  6
Continuous
 62
     7
370
    25
100
AcDbEllipse
 10
151.5919957025
 20
101.2569642192
 30
0.0
 11
0.0
 21
134.3538290724749
 31
0.0
210
0.0
220
0.0
230
1.0
 40
0.2679491924
 41
1.213185985448692
 42
1.219190747149434
  0
ELLIPSE
  5
184
330
1F
100
AcDbEntity
  8
0
  6
Continuous
 62
     7
370
    25
100
AcDbEllipse
 10
151.5919957025
 20
144.9092282791
 30
0.0
 11
36.00000000000003
 21
0.0
 31
0.0
210
0.0
220
0.0
230
1.0
 40
0.2679491924
 41
2.686743148031764
 42
2.783982312243588
  0
SPLINE
  5
185
330
1F
100
AcDbEntity
  8
0
  6
Continuous
 62
     7
370
    25
100
AcDbSpline
210
0.0
220
0.0
230
1.0
 70
     8
 71
     3
 72
    14
 73
    10
 74
     0
 42
0.000000001
 43
0.00000001
 40
0.0
 40
0.0
 40
0.0
 40
0.0
 40
0.1796702807651539
 40
0.3598805765194087
 40
0.5251294028697251
 40
0.6729295567291644
 40
0.8124883284405513
 40
0.9545204335650164
 40
1.0
 40
1.0
 40
1.0
 40
1.0
 10
119.2522181353793
 20
149.1470528251334
 30
0.0
 10
119.2707424300175
 20
149.1613996859529
 30
0.0
 10
119.3078466957069
 20
149.1901365283563
 30
0.0
 10
119.350754816099
 20
149.2814415797483
 30
0.0
 10
119.3749500824473
 20
149.3923199307181
 30
0.0
 10
119.3788336605846
 20
149.5055747936129
 30
0.0
 10
119.3658694096155
 20
149.6085891875066
 30
0.0
 10
119.3455957756091
 20
149.6765572472043
 30
0.0
 10
119.3307942285795
 20
149.7082074013271
 30
0.0
 10
119.3272042230301
 20
149.7158839116752
 30
0.0
  0
ARC
  5
186
330
1F
100
AcDbEntity
  8
0
  6
Continuous
 62
     7
370
    25
100
AcDbCircle
 10
151.5919957025
 20
165.6840782613
 30
0.0
 40
35.99999999999987
100
AcDbArc
 50
202.2219751823
 51
206.3313057306
  0
ELLIPSE
  5
187
330
1F
100
AcDbEntity
  8
0
  6
Continuous
 62
     7
370
    25
100
AcDbEllipse
 10
151.5919957025
 20
101.2569642192
 30
0.0
 11
0.0
 21
134.3538290724749
 31
0.0
210
0.0
220
0.0
230
1.0
 40
0.2679491924
 41
1.176859117112093
 42
1.182949693567638
  0
ELLIPSE
  5
188
330
1F
100
AcDbEntity
  8
0
  6
Continuous
 62
     7
370
    25
100
AcDbEllipse
 10
151.5919957025
 20
149.1231329983
 30
0.0
 11
36.00000000000003
 21
0.0
 31
0.0
210
0.0
220
0.0
230
1.0
 40
0.2679491924
 41
2.64876675401948
 42
2.747655443906988
  0
SPLINE
  5
189
330
1F
100
AcDbEntity
  8
0
  6
Continuous
 62
     7
370
    25
100
AcDbSpline
210
0.0
220
0.0
230
1.0
 70
     8
 71
     3
 72
    14
 73
    10
 74
     0
 42
0.000000001
 43
0.00000001
 40
0.0
 40
0.0
 40
0.0
 40
0.0
 40
0.1836224863961325
 40
0.3679146685936865
 40
0.5336419520219451
 40
0.6786786543904337
 40
0.8145238909554874
 40
0.953596422746979
 40
1.0
 40
1.0
 40
1.0
 40
1.0
 10
119.8760174514912
 20
153.6869042086921
 30
0.0
 10
119.896582764351
 20
153.7014440834639
 30
0.0
 10
119.9377883945211
 20
153.7305768618782
 30
0.0
 10
119.9852525521307
 20
153.8237612959656
 30
0.0
 10
120.0112910868146
 20
153.9362910985326
 30
0.0
 10
120.0147292115653
 20
154.0489911797866
 30
0.0
 10
120.000292349005
 20
154.1500167558546
 30
0.0
 10
119.9783584185725
 20
154.2167118390528
 30
0.0
 10
119.9623480643626
 20
154.2479259524126
 30
0.0
 10
119.9583424934444
 20
154.2557352952338
 30
0.0
  0
ARC
  5
18A
330
1F
100
AcDbEntity
  8
0
  6
Continuous
 62
     7
370
    25
100
AcDbCircle
 10
151.5919957025
 20
171.4403791568
 30
0.0
 40
35.99999999999986
100
AcDbArc
 50
204.329661652
 51
208.5125483374
  0
ELLIPSE
  5
18B
330
1F
100
AcDbEntity
  8
0
  6
Continuous
 62
     7
370
    25
100
AcDbEllipse
 10
151.5919957025
 20
101.2569642192
 30
0.0
 11
0.0
 21
134.3538290724749
 31
0.0
210
0.0
220
0.0
230
1.0
 40
0.2679491924
 41
1.139974929109127
 42
1.146163625070657
  0
ELLIPSE
  5
18C
330
1F
100
AcDbEntity
  8
0
  6
Continuous
 62
     7
370
    25
100
AcDbEllipse
 10
151.5919957025
 20
153.3370377175
 30
0.0
 11
36.00000000000003
 21
0.0
 31
0.0
210
0.0
220
0.0
230
1.0
 40
0.2679491924
 41
2.609999069916003
 42
2.710771255904025
  0
SPLINE
  5
18D
330
1F
100
AcDbEntity
  8
0
  6
Continuous
 62
     7
370
    25
100
AcDbSpline
210
0.0
220
0.0
230
1.0
 70
     8
 71
     3
 72
    14
 73
    10
 74
     0
 42
0.000000001
 43
0.00000001
 40
0.0
 40
0.0
 40
0.0
 40
0.0
 40
0.1882753605019917
 40
0.3773829860761195
 40
0.5434997679558842
 40
0.6852871732115323
 40
0.8170517076898378
 40
0.9530026189399787
 40
1.0
 40
1.0
 40
1.0
 40
1.0
 10
120.5599825400306
 20
158.2267555922507
 30
0.0
 10
120.5827976761432
 20
158.2415286813864
 30
0.0
 10
120.6285288019313
 20
158.2711401636149
 30
0.0
 10
120.680949360936
 20
158.3665810265735
 30
0.0
 10
120.7087485530301
 20
158.4810771327859
 30
0.0
 10
120.7114558937899
 20
158.5930752929103
 30
0.0
 10
120.6953895060113
 20
158.6918385333997
 30
0.0
 10
120.6717605796432
 20
158.7570303025986
 30
0.0
 10
120.654541838026
 20
158.7877063448087
 30
0.0
 10
120.6501185348569
 20
158.7955866787924
 30
0.0
  0
ARC
  5
18E
330
1F
100
AcDbEntity
  8
0
  6
Continuous
 62
     7
370
    25
100
AcDbCircle
 10
151.5919957025
 20
177.1966800524
 30
0.0
 40
35.99999999999985
100
AcDbArc
 50
206.4730230109
 51
210.7398932757
  0
ELLIPSE
  5
18F
330
1F
100
AcDbEntity
  8
0
  6
Continuous
 62
     7
370
    25
100
AcDbEllipse
 10
151.5919957025
 20
101.2569642192
 30
0.0
 11
0.0
 21
134.3538290724749
 31
0.0
210
0.0
220
0.0
230
1.0
 40
0.2679491924
 41
1.10245420918047
 42
1.108754912298945
  0
ELLIPSE
  5
190
330
1F
100
AcDbEntity
  8
0
  6
Continuous
 62
     7
370
    25
100
AcDbEllipse
 10
151.5919957025
 20
157.5509424367
 30
0.0
 11
36.00000000000003
 21
0.0
 31
0.0
210
0.0
220
0.0
230
1.0
 40
0.2679491924
 41
2.570326112031389
 42
2.673250535975368
  0
SPLINE
  5
191
330
1F
100
AcDbEntity
  8
0
  6
Continuous
 62
     7
370
    25
100
AcDbSpline
210
0.0
220
0.0
230
1.0
 70
     8
 71
     3
 72
    14
 73
    10
 74
     0
 42
0.000000001
 43
0.00000001
 40
0.0
 40
0.0
 40
0.0
 40
0.0
 40
0.1936947162555847
 40
0.3884297533168327
 40
0.5258526132327863
 40
0.6636982734313609
 40
0.7916079177924046
 40
0.9219281073481194
 40
1.0
 40
1.0
 40
1.0
 40
1.0
 10
121.3081896903342
 20
162.7666069758093
 30
0.0
 10
121.3335164463473
 20
162.7816434077612
 30
0.0
 10
121.3843059866129
 20
162.8117970312917
 30
0.0
 10
121.4391676218642
 20
162.9051256254214
 30
0.0
 10
121.4685640961608
 20
163.0123334347217
 30
0.0
 10
121.4745918349288
 20
163.115642007719
 30
0.0
 10
121.4607122963584
 20
163.2136087636734
 30
0.0
 10
121.4356413950695
 20
163.2866030987361
 30
0.0
 10
121.4145883763136
 20
163.3221287516816
 30
0.0
 10
121.4067010851895
 20
163.3354380623511
 30
0.0
  0
ARC
  5
192
330
1F
100
AcDbEntity
  8
0
  6
Continuous
 62
     7
370
    25
100
AcDbCircle
 10
151.5919957025
 20
182.9529809479
 30
0.0
 40
35.99999999999979
100
AcDbArc
 50
208.6571036847
 51
213.0199995721
  0
ELLIPSE
  5
193
330
1F
100
AcDbEntity
  8
0
  6
Continuous
 62
     7
370
    25
100
AcDbEllipse
 10
151.5919957025
 20
101.2569642192
 30
0.0
 11
0.0
 21
134.35382907247
 31
0.0
210
0.0
220
0.0
230
1.0
 40
0.2679491924
 41
1.064206947873219
 42
1.070635513410878
  0
ELLIPSE
  5
194
330
1F
100
AcDbEntity
  8
0
  6
Continuous
 62
     7
370
    25
100
AcDbEllipse
 10
151.5919957025
 20
161.7648471559
 30
0.0
 11
36.00000000000003
 21
0.0
 31
0.0
210
0.0
220
0.0
230
1.0
 40
0.2679491924
 41
2.535640700357209
 42
2.635003274668116
  0
LINE
  5
195
330
1F
100
AcDbEntity
  8
0
  6
Continuous
 62
     7
370
    25
100
AcDbLine
 10
128.9645787045
 20
167.2587736665
 30
0.0
 11
122.0014252576
 21
167.2587736665
 31
0.0
  0
ARC
  5
196
330
1F
100
AcDbEntity
  8
0
  6
Continuous
 62
     7
370
    25
100
AcDbCircle
 10
151.5919957025
 20
96.2587736665
 30
0.0
 40
35.99999999999991
100
AcDbArc
 50
126.3360575146
 51
127.6584620062
  0
ELLIPSE
  5
197
330
1F
100
AcDbEntity
  8
0
  6
Continuous
 62
     7
370
    25
100
AcDbEllipse
 10
151.5919957025
 20
132.3953256507
 30
0.0
 11
36.0
 21
0.0
 31
0.0
210
0.0
220
0.0
230
1.0
 40
0.2679491924
 41
3.368585660686022
 42
4.055124827139194
  0
ELLIPSE
  5
198
330
1F
100
AcDbEntity
  8
0
  6
Continuous
 62
     7
370
    25
100
AcDbEllipse
 10
151.5919957025
 20
128.0536094023
 30
0.0
 11
36.0
 21
0.0
 31
0.0
210
0.0
220
0.0
230
1.0
 40
0.2679491924
 41
2.832529755889158
 42
2.914599646493612
  0
ARC
  5
199
330
1F
100
AcDbEntity
  8
0
  6
Continuous
 62
     7
370
    25
100
AcDbCircle
 10
144.4136986302
 20
144.7320543833
 30
0.0
 40
10.83272616707492
100
AcDbArc
 50
183.7930371826
 51
270.9430803368
  0
LINE
  5
19A
330
1F
100
AcDbEntity
  8
0
  6
Continuous
 62
     7
370
    25
100
AcDbLine
 10
162.5919957025
 20
133.9007956215
 30
0.0
 11
144.5919957025
 21
133.9007956215
 31
0.0
  0
LINE
  5
19B
330
1F
100
AcDbEntity
  8
0
  6
Continuous
 62
     7
370
    25
100
AcDbLine
 10
153.9419957025
 20
112.4797972198
 30
0.0
 11
183.7304212222
 21
112.4797972198
 31
0.0
  0
LINE
  5
19C
330
1F
100
AcDbEntity
  8
0
  6
Continuous
 62
     7
370
    25
100
AcDbLine
 10
153.9419957025
 20
112.4797972198
 30
0.0
 11
153.9419957025
 21
122.3092839237
 31
0.0
  0
ELLIPSE
  5
19D
330
1F
100
AcDbEntity
  8
0
  6
Continuous
 62
     7
370
    25
100
AcDbEllipse
 10
150.9419957025
 20
122.3092839237
 30
0.0
 11
3.0
 21
0.0
 31
0.0
210
0.0
220
0.0
230
1.0
 40
0.8164965809
 41
0.0
 42
1.570796326794897
  0
LINE
  5
19E
330
1F
100
AcDbEntity
  8
0
  6
Continuous
 62
     7
370
    25
100
AcDbLine
 10
150.9419957025
 20
124.7587736665
 30
0.0
 11
129.5976782546
 21
124.7587736665
 31
0.0
  0
LINE
  5
19F
330
1F
100
AcDbEntity
  8
0
  6
Continuous
 62
     7
370
    25
100
AcDbLine
 10
162.5919957025
 20
150.8044975816
 30
0.0
 11
144.5919957025
 21
150.8044975816
 31
0.0
  0
ARC
  5
1A0
330
1F
100
AcDbEntity
  8
0
  6
Continuous
 62
     7
370
    25
100
AcDbCircle
 10
144.4209093586
 20
144.5259797107
 30
0.0
 40
6.280848445236288
100
AcDbArc
 50
88.439106094
 51
271.560893906
  0
LINE
  5
1A1
330
1F
100
AcDbEntity
  8
0
  6
Continuous
 62
     7
370
    25
100
AcDbLine
 10
144.5919957025
 20
138.2474618398
 30
0.0
 11
162.5919957025
 21
138.2474618398
 31
0.0
  0
ARC
  5
1A2
330
1F
100
AcDbEntity
  8
0
  6
Continuous
 62
     7
370
    25
100
AcDbCircle
 10
162.7630820464
 20
144.5259797107
 30
0.0
 40
6.28084844523626
100
AcDbArc
 50
268.439106094
 51
91.560893906
  0
ELLIPSE
  5
1A3
330
1F
100
AcDbEntity
  8
0
  6
Continuous
 62
     7
370
    25
100
AcDbEllipse
 10
162.5919957025
 20
150.1653299385
 30
0.0
 11
0.0
 21
9.192388155424339
 31
0.0
210
0.0
220
0.0
230
1.0
 40
0.7071067812
 41
3.141592653589793
 42
3.816689384132997
  0
ARC
  5
1A4
330
1F
100
AcDbEntity
  8
0
  6
Continuous
 62
     7
370
    25
100
AcDbCircle
 10
162.7348938246
 20
148.0604728545
 30
0.0
 40
6.409246627064837
100
AcDbArc
 50
307.6999736323
 51
317.6869645595
  0
ELLIPSE
  5
1A5
330
1F
100
AcDbEntity
  8
0
  6
Continuous
 62
     7
370
    25
100
AcDbEllipse
 10
162.5919957025
 20
145.9670486132
 30
0.0
 11
6.5
 21
0.0
 31
0.0
210
0.0
220
0.0
230
1.0
 40
0.5176380902
 41
5.562172706815153
 42
5.86712786706064
  0
SPLINE
  5
1A6
330
1F
100
AcDbEntity
  8
0
  6
Continuous
 62
     7
370
    25
100
AcDbSpline
210
0.0
220
0.0
230
1.0
 70
     8
 71
     3
 72
    13
 73
     9
 74
     0
 42
0.000000001
 43
0.00000001
 40
0.0
 40
0.0
 40
0.0
 40
0.0
 40
0.1612485240568432
 40
0.3221173964453924
 40
0.4925204296725372
 40
0.668657428823177
 40
0.8417142201404493
 40
0.9999999999999999
 40
0.9999999999999999
 40
0.9999999999999999
 40
0.9999999999999999
 10
168.537477190756
 20
144.6072014415748
 30
0.0
 10
168.5475358172542
 20
144.6211208404506
 30
0.0
 10
168.5676293877125
 20
144.6489268656664
 30
0.0
 10
168.6106051411433
 20
144.732840026536
 30
0.0
 10
168.6570145058039
 20
144.8394490529734
 30
0.0
 10
168.7024495602323
 20
144.9618948024181
 30
0.0
 10
168.7407331818273
 20
145.0826335791383
 30
0.0
 10
168.7566102880286
 20
145.1458387588101
 30
0.0
 10
168.7641949461909
 20
145.1760325281166
 30
0.0
  0
ELLIPSE
  5
1A7
330
1F
100
AcDbEntity
  8
0
  6
Continuous
 62
     7
370
    25
100
AcDbEllipse
 10
162.5919957025
 20
148.0583775789
 30
0.0
 11
0.0
 21
9.192388155424339
 31
0.0
210
0.0
220
0.0
230
1.0
 40
0.7071067812
 41
4.393451497048012
 42
4.482031875460804
  0
ELLIPSE
  5
1A8
330
1F
100
AcDbEntity
  8
0
  6
Continuous
 62
     7
370
    25
100
AcDbEllipse
 10
144.5919957025
 20
148.0583775789
 30
0.0
 11
2.842170943040401E-14
 21
9.192388155424339
 31
0.0
210
0.0
220
0.0
230
1.0
 40
0.7071067812
 41
1.801153431719573
 42
1.889733810131585
  0
SPLINE
  5
1A9
330
1F
100
AcDbEntity
  8
0
  6
Continuous
 62
     7
370
    25
100
AcDbSpline
210
0.0
220
0.0
230
1.0
 70
     8
 71
     3
 72
    13
 73
     9
 74
     0
 42
0.000000001
 43
0.00000001
 40
0.0
 40
0.0
 40
0.0
 40
0.0
 40
0.1566761514832966
 40
0.3131039507911247
 40
0.4760952065681971
 40
0.6477071416270037
 40
0.8239014647095448
 40
0.9999999999999999
 40
0.9999999999999999
 40
0.9999999999999999
 40
0.9999999999999999
 10
138.4197964587793
 20
145.1760325281166
 30
0.0
 10
138.4272871079563
 20
145.1461847895819
 30
0.0
 10
138.4422565326526
 20
145.0865366250788
 30
0.0
 10
138.4775000520125
 20
144.9743373908642
 30
0.0
 10
138.5196379916669
 20
144.8581704170954
 30
0.0
 10
138.5663412699268
 20
144.7477046658959
 30
0.0
 10
138.6131056062952
 20
144.6540032529772
 30
0.0
 10
138.6353800303665
 20
144.6227992172686
 30
0.0
 10
138.6465142142142
 20
144.6072014415748
 30
0.0
  0
ELLIPSE
  5
1AA
330
1F
100
AcDbEntity
  8
0
  6
Continuous
 62
     7
370
    25
100
AcDbEllipse
 10
144.5919957025
 20
145.9670486132
 30
0.0
 11
6.5
 21
0.0
 31
0.0
210
0.0
220
0.0
230
1.0
 40
0.5176380902
 41
3.557650093708786
 42
3.862605253954266
  0
ARC
  5
1AB
330
1F
100
AcDbEntity
  8
0
  6
Continuous
 62
     7
370
    25
100
AcDbCircle
 10
144.4490975803
 20
148.0604728544
 30
0.0
 40
6.409246627064425
100
AcDbArc
 50
222.3130354405
 51
232.3000263677
  0
ELLIPSE
  5
1AC
330
1F
100
AcDbEntity
  8
0
  6
Continuous
 62
     7
370
    25
100
AcDbEllipse
 10
144.5919957025
 20
150.1653299385
 30
0.0
 11
2.842170943040401E-14
 21
9.192388155424339
 31
0.0
210
0.0
220
0.0
230
1.0
 40
0.7071067812
 41
2.466495923046602
 42
3.141592653589817
  0
LINE
  5
1AD
330
1F
100
AcDbEntity
  8
0
  6
Continuous
 62
     7
370
    25
100
AcDbLine
 10
144.5919957025
 20
140.9729417831
 30
0.0
 11
162.5919957025
 21
140.9729417831
 31
0.0
  0
LINE
  5
1AE
330
1F
100
AcDbEntity
  8
0
  6
Continuous
 62
     7
370
    25
100
AcDbLine
 10
153.9419957025
 20
109.2587736665
 30
0.0
 11
187.3461562995
 21
109.2587736665
 31
0.0
  0
LINE
  5
1AF
330
1F
100
AcDbEntity
  8
0
  6
Continuous
 62
     7
370
    25
100
AcDbLine
 10
153.9419957025
 20
109.2587736665
 30
0.0
 11
153.9419957025
 21
112.4797972198
 31
0.0
  0
SPLINE
  5
1B0
330
1F
100
AcDbEntity
  8
0
  6
Continuous
 62
     7
370
    25
100
AcDbSpline
210
0.0
220
0.0
230
1.0
 70
     8
 71
     3
 72
     9
 73
     5
 74
     0
 42
0.000000001
 43
0.00000001
 40
0.0
 40
0.0
 40
0.0
 40
0.0
 40
0.7510393902478337
 40
1.0
 40
1.0
 40
1.0
 40
1.0
 10
187.6805690708179
 20
106.2587736664573
 30
0.0
 10
187.6440582675353
 20
106.3606197562604
 30
0.0
 10
187.5954445679656
 20
106.4962266114075
 30
0.0
 10
187.5918648680414
 20
106.6377527860864
 30
0.0
 10
187.5909736637656
 20
106.6729872288304
 30
0.0
  0
LINE
  5
1B1
330
1F
100
AcDbEntity
  8
0
  6
Continuous
 62
     7
370
    25
100
AcDbLine
 10
153.9419957025
 20
106.2587736665
 30
0.0
 11
153.9419957025
 21
109.2587736665
 31
0.0
  0
LINE
  5
1B2
330
1F
100
AcDbEntity
  8
0
  6
Continuous
 62
     7
370
    25
100
AcDbLine
 10
173.9419957025
 20
80.1087736665
 30
0.0
 11
180.9711206864
 21
80.1087736665
 31
0.0
  0
ELLIPSE
  5
1B3
330
1F
100
AcDbEntity
  8
0
  6
Continuous
 62
     7
370
    25
100
AcDbEllipse
 10
173.9419957025
 20
100.2589701756
 30
0.0
 11
0.0
 21
20.15019650917698
 31
0.0
210
-1.637578961322104E-16
220
0.0
230
1.0
 40
0.9925461516
 41
1.570796326794896
 42
3.141592653589792
  0
LINE
  5
1B4
330
1F
100
AcDbEntity
  8
0
  6
Continuous
 62
     7
370
    25
100
AcDbLine
 10
189.2165048245
 20
104.6330685346
 30
0.0
 11
187.8836489879
 21
105.9658804476
 31
0.0
  0
LWPOLYLINE
  5
1B5
330
1F
100
AcDbEntity
  8
0
  6
Continuous
 62
     7
370
    25
100
AcDbPolyline
 90
        3
 70
   128
 43
0.0
 10
191.3545965657
 20
92.5077124245
 10
191.1284472649
 20
93.7902321372
 10
189.2165048245
 20
104.6330685346
  0
ARC
  5
1B6
330
1F
100
AcDbEntity
  8
0
  6
Continuous
 62
     7
370
    25
100
AcDbCircle
 10
179.8467415501
 20
91.6165464115
 30
0.0
 40
2.099999999999999
100
AcDbArc
 50
24.0371863078
 51
255.9628136922
  0
LINE
  5
1B7
330
1F
100
AcDbEntity
  8
0
  6
Continuous
 62
     7
370
    25
100
AcDbLine
 10
187.8836489879
 20
105.9658804476
 30
0.0
 11
187.6805690708
 21
106.2587736665
 31
0.0
  0
LINE
  5
1B8
330
1F
100
AcDbEntity
  8
0
  6
Continuous
 62
     7
370
    25
100
AcDbLine
 10
153.9419957025
 20
100.2589701756
 30
0.0
 11
153.9419957025
 21
106.2587736665
 31
0.0
  0
LINE
  5
1B9
330
1F
100
AcDbEntity
  8
VERMASSUNG
100
AcDbLine
 10
193.8419957025
 20
80.2087736665
 30
0.0
 11
193.8419957025
 21
78.308452801
 31
0.0
  0
LINE
  5
1BA
330
1F
100
AcDbEntity
  8
VERMASSUNG
100
AcDbLine
 10
107.3419957025
 20
80.2087736665
 30
0.0
 11
107.3419957025
 21
77.6286216245
 31
0.0
  0
DIMENSION
  5
1BB
330
1F
100
AcDbEntity
  8
VERMASSUNG
100
AcDbDimension
  2
_D
 10
193.8419957025
 20
63.8087736665
 30
0.0
 11
150.5919957025
 21
63.8087736665
 31
0.0
 70
   160
  1
%%c86.5 - %%c115.5
 71
     2
 42
-1.0
  3
SLDDIMSTYLE0
100
AcDbAlignedDimension
 13
107.3419957025
 23
77.6286216245
 33
0.0
 14
193.8419957025
 24
78.308452801
 34
0.0
100
AcDbRotatedDimension
  0
DIMENSION
  5
1C9
330
1F
100
AcDbEntity
  8
VERMASSUNG
100
AcDbDimension
  2
_D_1
 10
193.8419957025
 20
78.308452801
 30
0.0
 11
186.7709278906
 21
72.7377058546
 31
0.0
 70
   162
  1
<>
 71
     1
 42
-1.0
  3
SLDDIMSTYLE1
100
AcDb2LineAngularDimension
 13
181.358419021
 23
79.8087736665
 33
0.0
 14
193.4419957025
 24
79.8087736665
 34
0.0
 15
193.8419957025
 25
80.2087736665
 35
0.0
 16
186.7709278906
 26
72.7377058546
 36
0.0
  0
LINE
  5
1D3
330
1F
100
AcDbEntity
  8
0
  6
Continuous
 62
     7
370
    25
100
AcDbLine
 10
246.1756005853
 20
69.4781747929
 30
0.0
 11
246.6742359988
 21
69.8759666215
 31
0.0
  0
LINE
  5
1D4
330
1F
100
AcDbEntity
  8
0
  6
Continuous
 62
     7
370
    25
100
AcDbLine
 10
242.2050402413
 20
78.0635940203
 30
0.0
 11
240.9623251841
 21
77.576251406
 31
0.0
  0
LINE
  5
1D5
330
1F
100
AcDbEntity
  8
0
  6
Continuous
 62
     7
370
    25
100
AcDbLine
 10
266.9722932433
 20
62.5409647346
 30
0.0
 11
265.9288069975
 21
61.70851072
 31
0.0
  0
LINE
  5
1D6
330
1F
100
AcDbEntity
  8
0
  6
Continuous
 62
     7
370
    25
100
AcDbLine
 10
269.4591389814
 20
54.8120757768
 30
0.0
 11
270.7018540386
 21
55.2994181653
 31
0.0
  0
LINE
  5
1D7
330
1F
100
AcDbEntity
  8
0
  6
Continuous
 62
     7
370
    25
100
AcDbLine
 10
244.6661516858
 20
72.0249093949
 30
0.0
 11
244.7023495931
 21
72.0458060019
 31
0.0
  0
LINE
  5
1D8
330
1F
100
AcDbEntity
  8
0
  6
Continuous
 62
     7
370
    25
100
AcDbLine
 10
242.987005539
 20
75.0969003393
 30
0.0
 11
242.9162948781
 21
75.0560799436
 31
0.0
  0
LINE
  5
1D9
330
1F
100
AcDbEntity
  8
0
  6
Continuous
 62
     7
370
    25
100
AcDbLine
 10
244.3040388462
 20
73.0349077522
 30
0.0
 11
244.0851765335
 21
72.9085612284
 31
0.0
  0
LINE
  5
1DA
330
1F
100
AcDbEntity
  8
0
  6
Continuous
 62
     7
370
    25
100
AcDbLine
 10
243.2119848504
 20
74.0089119927
 30
0.0
 11
243.5210802576
 21
74.1873489732
 31
0.0
  0
LINE
  5
1DB
330
1F
100
AcDbEntity
  8
0
  6
Continuous
 62
     7
370
    25
100
AcDbLine
 10
237.8494649788
 20
51.9114060761
 30
0.0
 11
237.8494649788
 21
33.3170754496
 31
0.0
  0
LINE
  5
1DC
330
1F
100
AcDbEntity
  8
0
  6
Continuous
 62
     7
370
    25
100
AcDbLine
 10
259.0899025217
 20
64.1727837768
 30
0.0
 11
252.2105426277
 21
59.2260095377
 31
0.0
  0
LINE
  5
1DD
330
1F
100
AcDbEntity
  8
0
  6
Continuous
 62
     7
370
    25
100
AcDbLine
 10
274.5565712176
 20
32.9088713268
 30
0.0
 11
274.5565712176
 21
51.5032019533
 31
0.0
  0
LWPOLYLINE
  5
1DE
330
1F
100
AcDbEntity
  8
0
  6
Continuous
 62
     7
370
    25
100
AcDbPolyline
 90
        3
 70
   128
 43
0.0
 10
268.6250469636
 20
43.4387657194
 10
268.3750571196
 20
43.1983712517
 10
268.1398329548
 20
43.0522156434
  0
ARC
  5
1DF
330
1F
100
AcDbEntity
  8
0
  6
Continuous
 62
     7
370
    25
100
AcDbCircle
 10
267.2373209456
 20
44.6875726038
 30
0.0
 40
1.866896391251033
100
AcDbArc
 50
318.0161301853
 51
1.0628780465
  0
LINE
  5
1E0
330
1F
100
AcDbEntity
  8
0
  6
Continuous
 62
     7
370
    25
100
AcDbLine
 10
268.2449677976
 20
43.4540432238
 30
0.0
 11
268.7375096138
 21
44.0279338915
 31
0.0
  0
LINE
  5
1E1
330
1F
100
AcDbEntity
  8
0
  6
Continuous
 62
     7
370
    25
100
AcDbLine
 10
268.7375096138
 20
44.0279338915
 30
0.0
 11
268.7521837965
 21
44.3575927026
 31
0.0
  0
LINE
  5
1E2
330
1F
100
AcDbEntity
  8
0
  6
Continuous
 62
     7
370
    25
100
AcDbLine
 10
268.5667081932
 20
44.1265354529
 30
0.0
 11
268.7375096138
 21
44.0279338915
 31
0.0
  0
LINE
  5
1E3
330
1F
100
AcDbEntity
  8
0
  6
Continuous
 62
     7
370
    25
100
AcDbLine
 10
240.9139827489
 20
77.4507253404
 30
0.0
 11
241.6558410397
 21
72.1640417461
 31
0.0
  0
LWPOLYLINE
  5
1E4
330
1F
100
AcDbEntity
  8
0
  6
Continuous
 62
     7
370
    25
100
AcDbPolyline
 90
        9
 70
   128
 43
0.0
 10
241.0532556927
 20
77.5619911117
 10
241.022646544
 20
77.5757903417
 10
240.9934875102
 20
77.5811938455
 10
240.9671628521
 20
77.5779443652
 10
240.9449198528
 20
77.5661963643
 10
240.9278135006
 20
77.5465065056
 10
240.9166524883
 20
77.5198095689
 10
240.9119689198
 20
77.4873694698
 10
240.9139827489
 20
77.4507253404
  0
LINE
  5
1E5
330
1F
100
AcDbEntity
  8
0
  6
Continuous
 62
     7
370
    25
100
AcDbLine
 10
245.3254446502
 20
75.0957089228
 30
0.0
 11
241.0532556927
 21
77.5619911117
 31
0.0
  0
ARC
  5
1E6
330
1F
100
AcDbEntity
  8
0
  6
Continuous
 62
     7
370
    25
100
AcDbCircle
 10
245.155510196
 20
74.8330967423
 30
0.0
 40
0.3127984591499391
100
AcDbArc
 50
8.6902664684
 51
57.0933844335
  0
LINE
  5
1E7
330
1F
100
AcDbEntity
  8
0
  6
Continuous
 62
     7
370
    25
100
AcDbLine
 10
246.2065758848
 20
69.5936749021
 30
0.0
 11
245.464717594
 21
74.8803583657
 31
0.0
  0
LWPOLYLINE
  5
1E8
330
1F
100
AcDbEntity
  8
0
  6
Continuous
 62
     7
370
    25
100
AcDbPolyline
 90
        9
 70
   128
 43
0.0
 10
246.067302941
 20
69.4824091546
 10
246.0979120897
 20
69.4686100055
 10
246.1270698064
 20
69.463206991
 10
246.1533944645
 20
69.4664566377
 10
246.1756374638
 20
69.4782044544
 10
246.1927451331
 20
69.4978936834
 10
246.2039054868
 20
69.5245911607
 10
246.2085897139
 20
69.5570306658
 10
246.2065758848
 20
69.5936749021
  0
LINE
  5
1E9
330
1F
100
AcDbEntity
  8
0
  6
Continuous
 62
     7
370
    25
100
AcDbLine
 10
241.7951126664
 20
71.9486921038
 30
0.0
 11
246.067302941
 21
69.4824091546
 31
0.0
  0
ARC
  5
1EA
330
1F
100
AcDbEntity
  8
0
  6
Continuous
 62
     7
370
    25
100
AcDbCircle
 10
241.9650481652
 20
72.2113032694
 30
0.0
 40
0.3127981746359157
100
AcDbArc
 50
188.690255903
 51
237.0931228121
  0
LWPOLYLINE
  5
1EB
330
1F
100
AcDbEntity
  8
0
  6
Continuous
 62
     7
370
    25
100
AcDbPolyline
 90
        9
 70
   128
 43
0.0
 10
246.0673029409
 20
69.4905746248
 10
246.0963816322
 20
69.477465072
 10
246.1240813313
 20
69.4723326455
 10
246.1490902176
 20
69.4754194296
 10
246.1702209352
 20
69.4865800646
 10
246.1864731551
 20
69.5052847942
 10
246.1970750631
 20
69.5306476066
 10
246.2015248484
 20
69.5614654026
 10
246.1996117766
 20
69.5962773131
  0
LINE
  5
1EC
330
1F
100
AcDbEntity
  8
0
  6
Continuous
 62
     7
370
    25
100
AcDbLine
 10
246.1996117766
 20
69.5962773131
 30
0.0
 11
245.4577541444
 21
74.8829603728
 31
0.0
  0
ARC
  5
1ED
330
1F
100
AcDbEntity
  8
0
  6
Continuous
 62
     7
370
    25
100
AcDbCircle
 10
245.1640052385
 20
74.8380605978
 30
0.0
 40
0.2971605786859288
100
AcDbArc
 50
8.6904467271
 51
57.0932534056
  0
LINE
  5
1EE
330
1F
100
AcDbEntity
  8
0
  6
Continuous
 62
     7
370
    25
100
AcDbLine
 10
245.3254446502
 20
75.0875435148
 30
0.0
 11
241.0532556926
 21
77.5538257037
 31
0.0
  0
LWPOLYLINE
  5
1EF
330
1F
100
AcDbEntity
  8
0
  6
Continuous
 62
     7
370
    25
100
AcDbPolyline
 90
        9
 70
   128
 43
0.0
 10
241.0532556926
 20
77.5538257037
 10
241.0241770013
 20
77.5669349721
 10
240.9964759852
 20
77.5720682622
 10
240.971468416
 20
77.5689807623
 10
240.9503370398
 20
77.5578204629
 10
240.9340854785
 20
77.5391154007
 10
240.9234829119
 20
77.5137530753
 10
240.9190324681
 20
77.4829356001
 10
240.9209461984
 20
77.4481233332
  0
LINE
  5
1F0
330
1F
100
AcDbEntity
  8
0
  6
Continuous
 62
     7
370
    25
100
AcDbLine
 10
240.9209461984
 20
77.4481233332
 30
0.0
 11
241.6628044892
 21
72.1614397152
 31
0.0
  0
ARC
  5
1F1
330
1F
100
AcDbEntity
  8
0
  6
Continuous
 62
     7
370
    25
100
AcDbCircle
 10
241.9565511375
 20
72.2063382113
 30
0.0
 40
0.2971581537590732
100
AcDbArc
 50
188.6902687512
 51
237.0931668401
  0
LINE
  5
1F2
330
1F
100
AcDbEntity
  8
0
  6
Continuous
 62
     7
370
    25
100
AcDbLine
 10
241.7951126663
 20
71.9568575741
 30
0.0
 11
246.0673029409
 21
69.4905746248
 31
0.0
  0
LINE
  5
1F3
330
1F
100
AcDbEntity
  8
0
  6
Continuous
 62
     7
370
    25
100
AcDbLine
 10
246.4772291988
 20
75.5973118314
 30
0.0
 11
245.6711041875
 21
75.0264991076
 31
0.0
  0
LINE
  5
1F4
330
1F
100
AcDbEntity
  8
0
  6
Continuous
 62
     7
370
    25
100
AcDbLine
 10
245.557958462
 20
74.9463813276
 30
0.0
 11
245.464717594
 21
74.8803583657
 31
0.0
  0
LINE
  5
1F5
330
1F
100
AcDbEntity
  8
0
  6
Continuous
 62
     7
370
    25
100
AcDbLine
 10
246.953637665
 20
75.8602088979
 30
0.0
 11
246.4772291988
 21
75.5973118314
 31
0.0
  0
LINE
  5
1F6
330
1F
100
AcDbEntity
  8
0
  6
Continuous
 62
     7
370
    25
100
AcDbLine
 10
246.983835882
 20
75.6450048683
 30
0.0
 11
246.953637665
 21
75.8602088979
 31
0.0
  0
LINE
  5
1F7
330
1F
100
AcDbEntity
  8
0
  6
Continuous
 62
     7
370
    25
100
AcDbLine
 10
246.6638307075
 20
69.9174544035
 30
0.0
 11
246.2065758848
 21
69.5936749021
 31
0.0
  0
LINE
  5
1F8
330
1F
100
AcDbEntity
  8
0
  6
Continuous
 62
     7
370
    25
100
AcDbLine
 10
245.4030118244
 20
74.9771793411
 30
0.0
 11
245.4577541444
 21
74.8829603728
 31
0.0
  0
LINE
  5
1F9
330
1F
100
AcDbEntity
  8
0
  6
Continuous
 62
     7
370
    25
100
AcDbLine
 10
246.1448701152
 20
69.6904959963
 30
0.0
 11
246.1996117766
 21
69.5962773131
 31
0.0
  0
LINE
  5
1FA
330
1F
100
AcDbEntity
  8
0
  6
Continuous
 62
     7
370
    25
100
AcDbLine
 10
245.9633989204
 20
70.3332148961
 30
0.0
 11
246.1448701152
 21
69.6904959963
 31
0.0
  0
LINE
  5
1FB
330
1F
100
AcDbEntity
  8
0
  6
Continuous
 62
     7
370
    25
100
AcDbLine
 10
245.3454954989
 20
74.9031137649
 30
0.0
 11
245.4030118244
 21
74.9771793411
 31
0.0
  0
LINE
  5
1FC
330
1F
100
AcDbEntity
  8
0
  6
Continuous
 62
     7
370
    25
100
AcDbLine
 10
246.4772291988
 20
75.5973118314
 30
0.0
 11
245.3254446502
 21
75.0957089228
 31
0.0
  0
LINE
  5
1FD
330
1F
100
AcDbEntity
  8
0
  6
Continuous
 62
     7
370
    25
100
AcDbLine
 10
245.4030118244
 20
74.9771793411
 30
0.0
 11
245.3254446502
 21
75.0875435148
 31
0.0
  0
LINE
  5
1FE
330
1F
100
AcDbEntity
  8
0
  6
Continuous
 62
     7
370
    25
100
AcDbLine
 10
242.2050402413
 20
78.0635940203
 30
0.0
 11
241.0532556927
 21
77.5619911117
 31
0.0
  0
LINE
  5
1FF
330
1F
100
AcDbEntity
  8
0
  6
Continuous
 62
     7
370
    25
100
AcDbLine
 10
242.8138885935
 20
78.250035168
 30
0.0
 11
242.2050402413
 21
78.0635940203
 31
0.0
  0
LINE
  5
200
330
1F
100
AcDbEntity
  8
0
  6
Continuous
 62
     7
370
    25
100
AcDbLine
 10
246.953637665
 20
75.8602088979
 30
0.0
 11
242.8138885935
 21
78.250035168
 31
0.0
  0
LINE
  5
201
330
1F
100
AcDbEntity
  8
0
  6
Continuous
 62
     7
370
    25
100
AcDbLine
 10
241.1308228669
 20
77.4434615299
 30
0.0
 11
241.0532556926
 21
77.5538257037
 31
0.0
  0
LINE
  5
202
330
1F
100
AcDbEntity
  8
0
  6
Continuous
 62
     7
370
    25
100
AcDbLine
 10
241.6533469464
 20
76.997628828
 30
0.0
 11
241.1308228669
 21
77.4434615299
 31
0.0
  0
SPLINE
  5
203
330
1F
100
AcDbEntity
  8
0
  6
Continuous
 62
     7
370
    25
100
AcDbSpline
210
0.0
220
0.0
230
1.0
 70
     8
 71
     3
 72
    11
 73
     7
 74
     0
 42
0.000000001
 43
0.00000001
 40
0.0
 40
0.0
 40
0.0
 40
0.0
 40
0.3372297362607353
 40
0.6736308256143011
 40
0.9918826319152262
 40
1.0
 40
1.0
 40
1.0
 40
1.0
 10
245.3454954989144
 20
74.9031137648862
 30
0.0
 10
245.3367261269476
 20
74.89414006232984
 30
0.0
 10
245.3192089312708
 20
74.87621470755865
 30
0.0
 10
245.2548024916327
 20
74.82682645398403
 30
0.0
 10
245.2000457183868
 20
74.78769276324715
 30
0.0
 10
245.1708580416762
 20
74.76743475673655
 30
0.0
 10
245.170132093474
 20
74.76693090493796
 30
0.0
  0
ARC
  5
204
330
1F
100
AcDbEntity
  8
0
  6
Continuous
 62
     7
370
    25
100
AcDbCircle
 10
244.1233409528
 20
74.0631777114
 30
0.0
 40
0.7819975617773638
100
AcDbArc
 50
8.6903097364
 51
57.0932798088
  0
LINE
  5
205
330
1F
100
AcDbEntity
  8
0
  6
Continuous
 62
     7
370
    25
100
AcDbLine
 10
241.8090066384
 20
75.8218333848
 30
0.0
 11
242.2241978772
 21
72.863067699
 31
0.0
  0
LWPOLYLINE
  5
206
330
1F
100
AcDbEntity
  8
0
  6
Continuous
 62
     7
370
    25
100
AcDbPolyline
 90
        9
 70
   128
 43
0.0
 10
242.1571883393
 20
76.0999981338
 10
242.0806654675
 20
76.1344961966
 10
242.0077698588
 20
76.1480038278
 10
241.941958872
 20
76.1398797112
 10
241.8863513737
 20
76.1105097892
 10
241.8435828592
 20
76.0612866216
 10
241.8156816455
 20
75.9945434988
 10
241.803971407
 20
75.9134440707
 10
241.8090066384
 20
75.8218333848
  0
LINE
  5
207
330
1F
100
AcDbEntity
  8
0
  6
Continuous
 62
     7
370
    25
100
AcDbLine
 10
244.5481790554
 20
74.7197085737
 30
0.0
 11
242.1571883393
 21
76.0999981338
 31
0.0
  0
LINE
  5
208
330
1F
100
AcDbEntity
  8
0
  6
Continuous
 62
     7
370
    25
100
AcDbLine
 10
245.3115519952
 20
71.2225666913
 30
0.0
 11
244.8963607564
 21
74.1813325672
 31
0.0
  0
LWPOLYLINE
  5
209
330
1F
100
AcDbEntity
  8
0
  6
Continuous
 62
     7
370
    25
100
AcDbPolyline
 90
        9
 70
   128
 43
0.0
 10
244.9633689772
 20
70.9444027026
 10
245.0398931661
 20
70.9099038794
 10
245.1127874577
 20
70.8963972938
 10
245.1785991031
 20
70.90452065
 10
245.2342072599
 20
70.9338903819
 10
245.2769751159
 20
70.9831138347
 10
245.304875671
 20
71.0498573376
 10
245.316586568
 20
71.1309564806
 10
245.3115519952
 20
71.2225666913
  0
LINE
  5
20A
330
1F
100
AcDbEntity
  8
0
  6
Continuous
 62
     7
370
    25
100
AcDbLine
 10
242.5723795782
 20
72.3246915023
 30
0.0
 11
244.9633689772
 21
70.9444027026
 31
0.0
  0
ARC
  5
20B
330
1F
100
AcDbEntity
  8
0
  6
Continuous
 62
     7
370
    25
100
AcDbCircle
 10
242.9972182802
 20
72.9812227106
 30
0.0
 40
0.7819981778587
100
AcDbArc
 50
188.6903143862
 51
237.0932567066
  0
LWPOLYLINE
  5
20C
330
1F
100
AcDbEntity
  8
0
  6
Continuous
 62
     7
370
    25
100
AcDbPolyline
 90
       27
 70
   128
 43
0.0
 10
243.5602793168
 20
71.9707723743
 10
243.881800502
 20
71.830243906
 10
244.1846361452
 20
71.7880457188
 10
244.4511859861
 20
71.8466305552
 10
244.6659597407
 20
72.0025931297
 10
244.8164766734
 20
72.2468690746
 10
244.8939860449
 20
72.5652637188
 10
244.8939860449
 20
72.9392715361
 10
244.8164766734
 20
73.3471565959
 10
244.6659597407
 20
73.7652156922
 10
244.4511859861
 20
74.1691508605
 10
244.1846361452
 20
74.5354874024
 10
243.881800502
 20
74.8429357114
 10
243.5602793168
 20
75.0736276068
 10
243.2387581317
 20
75.2141561701
 10
242.9359224885
 20
75.2563544523
 10
242.6693713305
 20
75.1977705664
 10
242.4545975759
 20
75.0418078968
 10
242.3040819603
 20
74.7975311917
 10
242.2265712717
 20
74.4791373078
 10
242.2265712717
 20
74.1051294905
 10
242.3040819603
 20
73.6972436704
 10
242.4545975759
 20
73.2791853344
 10
242.6693713305
 20
72.8752502611
 10
242.9359224885
 20
72.5089127688
 10
243.2387581317
 20
72.2014643647
 10
243.5602793168
 20
71.9707723743
  0
ARC
  5
20D
330
1F
100
AcDbEntity
  8
0
  6
Continuous
 62
     7
370
    25
100
AcDbCircle
 10
243.7023214682
 20
74.6126712072
 30
0.0
 40
1.073971766054683
100
AcDbArc
 50
143.8016241758
 51
174.6898770059
  0
SPLINE
  5
20E
330
1F
100
AcDbEntity
  8
0
  6
Continuous
 62
     7
370
    25
100
AcDbSpline
210
0.0
220
0.0
230
1.0
 70
     8
 71
     3
 72
    11
 73
     7
 74
     0
 42
0.000000001
 43
0.00000001
 40
0.0
 40
0.0
 40
0.0
 40
0.0
 40
0.007626870428959
 40
0.3209881492639793
 40
0.6632168714320553
 40
1.0
 40
1.0
 40
1.0
 40
1.0
 10
245.7494866861103
 20
70.60740039203806
 30
0.0
 10
245.7502344671864
 20
70.60692494210265
 30
0.0
 10
245.7817059424001
 20
70.58691492669
 30
0.0
 10
245.8431500063857
 20
70.53774755718841
 30
0.0
 10
245.9209357001511
 20
70.44483128269623
 30
0.0
 10
245.9493203942669
 20
70.37022090285704
 30
0.0
 10
245.9633989204037
 20
70.3332148960861
 30
0.0
  0
LINE
  5
20F
330
1F
100
AcDbEntity
  8
0
  6
Continuous
 62
     7
370
    25
100
AcDbLine
 10
246.1448701152
 20
69.6904959963
 30
0.0
 11
246.0673029409
 21
69.4905746248
 31
0.0
  0
LINE
  5
210
330
1F
100
AcDbEntity
  8
0
  6
Continuous
 62
     7
370
    25
100
AcDbLine
 10
241.8726798406
 20
72.1567789455
 30
0.0
 11
241.7951126663
 21
71.9568575741
 31
0.0
  0
LINE
  5
211
330
1F
100
AcDbEntity
  8
0
  6
Continuous
 62
     7
370
    25
100
AcDbLine
 10
242.1839273661
 20
72.3773202712
 30
0.0
 11
241.8726798406
 21
72.1567789455
 31
0.0
  0
SPLINE
  5
212
330
1F
100
AcDbEntity
  8
0
  6
Continuous
 62
     7
370
    25
100
AcDbSpline
210
0.0
220
0.0
230
1.0
 70
     8
 71
     3
 72
    11
 73
     7
 74
     0
 42
0.000000001
 43
0.00000001
 40
0.0
 40
0.0
 40
0.0
 40
0.0
 40
0.3367841211531853
 40
0.6790087377132692
 40
0.9923710497541555
 40
1.0
 40
1.0
 40
1.0
 40
1.0
 10
241.6533469463908
 20
76.99762882800302
 30
0.0
 10
241.6817760654185
 20
76.96890718716915
 30
0.0
 10
241.7390935546137
 20
76.91099992889083
 30
0.0
 10
241.7911134519219
 20
76.80320753870379
 30
0.0
 10
241.8093769308286
 20
76.729116695355
 30
0.0
 10
241.8138679203615
 20
76.69352785788686
 30
0.0
 10
241.813974657023
 20
76.69268202342889
 30
0.0
  0
LINE
  5
213
330
1F
100
AcDbEntity
  8
0
  6
Continuous
 62
     7
370
    25
100
AcDbLine
 10
241.8726798406
 20
72.1567789455
 30
0.0
 11
241.6628044892
 21
72.1614397152
 31
0.0
  0
LINE
  5
214
330
1F
100
AcDbEntity
  8
0
  6
Continuous
 62
     7
370
    25
100
AcDbLine
 10
241.1308228669
 20
77.4434615299
 30
0.0
 11
240.9209461984
 21
77.4481233332
 31
0.0
  0
SPLINE
  5
215
330
1F
100
AcDbEntity
  8
0
  6
Continuous
 62
     7
370
    25
100
AcDbSpline
210
0.0
220
0.0
230
1.0
 70
     8
 71
     3
 72
    11
 73
     7
 74
     0
 42
0.000000001
 43
0.00000001
 40
0.0
 40
0.0
 40
0.0
 40
0.0
 40
0.0081146901468742
 40
0.3263665948030153
 40
0.6627670501503853
 40
0.9999999999999999
 40
0.9999999999999999
 40
0.9999999999999999
 40
0.9999999999999999
 10
242.3239514622663
 20
72.49310222964066
 30
0.0
 10
242.3239109562888
 20
72.49299352854086
 30
0.0
 10
242.3222818370365
 20
72.48862165393483
 30
0.0
 10
242.309225365127
 20
72.47359352928825
 30
0.0
 10
242.2634292049387
 20
72.43493526689406
 30
0.0
 10
242.2104498035229
 20
72.39654108593841
 30
0.0
 10
242.1839273661216
 20
72.37732027117352
 30
0.0
  0
LINE
  5
216
330
1F
100
AcDbEntity
  8
0
  6
Continuous
 62
     7
370
    25
100
AcDbLine
 10
270.2009959551
 20
59.2422285311
 30
0.0
 11
271.3527805037
 21
60.0704477562
 31
0.0
  0
LINE
  5
217
330
1F
100
AcDbEntity
  8
0
  6
Continuous
 62
     7
370
    25
100
AcDbLine
 10
269.5921476029
 20
58.9051727411
 30
0.0
 11
270.2009959551
 21
59.2422285311
 31
0.0
  0
LINE
  5
218
330
1F
100
AcDbEntity
  8
0
  6
Continuous
 62
     7
370
    25
100
AcDbLine
 10
265.4523985314
 20
61.2949990112
 30
0.0
 11
269.5921476029
 21
58.9051727411
 31
0.0
  0
LINE
  5
219
330
1F
100
AcDbEntity
  8
0
  6
Continuous
 62
     7
370
    25
100
AcDbLine
 10
265.4523985314
 20
61.2949990112
 30
0.0
 11
265.9288069975
 21
61.70851072
 31
0.0
  0
LINE
  5
21A
330
1F
100
AcDbEntity
  8
0
  6
Continuous
 62
     7
370
    25
100
AcDbLine
 10
265.9288069975
 20
61.70851072
 30
0.0
 11
267.0805915462
 21
62.5367299451
 31
0.0
  0
LINE
  5
21B
330
1F
100
AcDbEntity
  8
0
  6
Continuous
 62
     7
370
    25
100
AcDbLine
 10
267.0805915462
 20
62.5367299451
 30
0.0
 11
271.3527805037
 21
60.0704477562
 31
0.0
  0
LINE
  5
21C
330
1F
100
AcDbEntity
  8
0
  6
Continuous
 62
     7
370
    25
100
AcDbLine
 10
269.4591389814
 20
54.8120757768
 30
0.0
 11
270.7501951567
 21
55.3682286232
 31
0.0
  0
LINE
  5
21D
330
1F
100
AcDbEntity
  8
0
  6
Continuous
 62
     7
370
    25
100
AcDbLine
 10
268.8732870034
 20
54.6123589028
 30
0.0
 11
269.4591389814
 21
54.8120757768
 31
0.0
  0
LINE
  5
21E
330
1F
100
AcDbEntity
  8
0
  6
Continuous
 62
     7
370
    25
100
AcDbLine
 10
269.5921476029
 20
58.9051727411
 30
0.0
 11
268.8732870034
 21
54.6123589028
 31
0.0
  0
LINE
  5
21F
330
1F
100
AcDbEntity
  8
0
  6
Continuous
 62
     7
370
    25
100
AcDbLine
 10
270.2009959551
 20
59.2422285311
 30
0.0
 11
271.4920534475
 21
59.7983808668
 31
0.0
  0
LINE
  5
220
330
1F
100
AcDbEntity
  8
0
  6
Continuous
 62
     7
370
    25
100
AcDbLine
 10
271.4920534475
 20
59.7983808668
 30
0.0
 11
270.7501951567
 21
55.3682286232
 31
0.0
  0
LINE
  5
221
330
1F
100
AcDbEntity
  8
0
  6
Continuous
 62
     7
370
    25
100
AcDbLine
 10
265.4359928706
 20
61.1970274653
 30
0.0
 11
265.4523985314
 21
61.2949990112
 31
0.0
  0
LINE
  5
222
330
1F
100
AcDbEntity
  8
0
  6
Continuous
 62
     7
370
    25
100
AcDbLine
 10
268.8732870034
 20
54.6123589028
 30
0.0
 11
268.8677986935
 21
54.6155272367
 31
0.0
  0
ARC
  5
223
330
1F
100
AcDbEntity
  8
0
  6
Continuous
 62
     7
370
    25
100
AcDbCircle
 10
271.1959663048
 20
59.8184926291
 30
0.0
 40
0.2967694038550567
100
AcDbArc
 50
356.1141447033
 51
58.1023037915
  0
ARC
  5
224
330
1F
100
AcDbEntity
  8
0
  6
Continuous
 62
     7
370
    25
100
AcDbCircle
 10
267.0233058272
 20
62.4586343941
 30
0.0
 40
0.0968533359639692
100
AcDbArc
 50
53.7386973657
 51
121.7827096945
  0
ARC
  5
225
330
1F
100
AcDbEntity
  8
0
  6
Continuous
 62
     7
370
    25
100
AcDbCircle
 10
270.6666243179
 20
55.37555362
 30
0.0
 40
0.0838912431070497
100
AcDbArc
 50
294.8311245905
 51
354.9908178045
  0
ARC
  5
226
330
1F
100
AcDbEntity
  8
0
  6
Continuous
 62
     7
370
    25
100
AcDbCircle
 10
244.2867853078
 20
72.8514690755
 30
0.0
 40
0.9044910521297563
100
AcDbArc
 50
227.5533190997
 51
297.5621028804
  0
LWPOLYLINE
  5
227
330
1F
100
AcDbEntity
  8
0
  6
Continuous
 62
     7
370
    25
100
AcDbPolyline
 90
       13
 70
   128
 43
0.0
 10
243.5420135765
 20
75.0840288234
 10
243.4444739153
 20
75.1123677313
 10
243.1599589802
 20
75.1339416026
 10
242.9151081809
 20
75.0553937046
 10
242.7253064341
 20
74.8816593643
 10
242.6024812979
 20
74.6236541493
 10
242.5543482798
 20
74.2975905218
 10
242.5839327333
 20
73.9239558259
 10
242.6893762457
 20
73.5262263274
 10
242.8640525423
 20
73.1293936371
 10
243.0969863202
 20
72.7583921133
 10
243.3735420863
 20
72.4365327529
 10
243.6763408511
 20
72.1840399566
  0
LWPOLYLINE
  5
228
330
1F
100
AcDbEntity
  8
0
  6
Continuous
 62
     7
370
    25
100
AcDbPolyline
 90
       22
 70
   128
 43
0.0
 10
243.5279908796
 20
72.4176241836
 10
243.8051367016
 20
72.275773289
 10
244.0653394905
 20
72.2372308292
 10
244.2854790658
 20
72.3054209
 10
244.4459940212
 20
72.4742851496
 10
244.5326216
 20
72.7288196375
 10
244.5376660509
 20
73.0464070949
 10
244.4606782467
 20
73.3988286031
 10
244.3084991476
 20
73.7547700827
 10
244.0946499895
 20
74.0826047707
 10
243.8381337327
 20
74.3532024475
 10
243.5617412857
 20
74.5425200805
 10
243.29003109
 20
74.6337361586
 10
243.0471480217
 20
74.6187444165
 10
242.8546712671
 20
74.4988783548
 10
242.729703227
 20
74.2847881498
 10
242.6833495962
 20
73.9954961118
 10
242.7197275948
 20
73.6567076038
 10
242.8356050865
 20
73.2985258163
 10
243.0206863863
 20
72.9527759157
 10
243.2585263208
 20
72.65017963
 10
243.5279908796
 20
72.4176241836
  0
LWPOLYLINE
  5
229
330
1F
100
AcDbEntity
  8
0
  6
Continuous
 62
     7
370
    25
100
AcDbPolyline
 90
        3
 70
   128
 43
0.0
 10
243.3445201327
 20
75.1780459036
 10
243.2306696411
 20
75.1747619982
 10
242.987005539
 20
75.0969003393
  0
LWPOLYLINE
  5
22A
330
1F
100
AcDbEntity
  8
0
  6
Continuous
 62
     7
370
    25
100
AcDbPolyline
 90
       20
 70
   128
 43
0.0
 10
243.548799569
 20
72.6633267533
 10
243.7809615327
 20
72.5487395556
 10
243.9950806941
 20
72.5305644317
 10
244.1679499445
 20
72.6107737459
 10
244.2808402782
 20
72.7806726992
 10
244.3215159383
 20
73.0218518085
 10
244.2855699449
 20
73.3081748815
 10
244.1768969302
 20
73.6086150175
 10
244.0072729871
 20
73.8906146731
 10
243.7950820441
 20
74.1236137104
 10
243.563315207
 20
74.2823644473
 10
243.3370893635
 20
74.3496633874
 10
243.1409194913
 20
74.3182175203
 10
242.9960634071
 20
74.191434574
 10
242.918219495
 20
73.9830530229
 10
242.915822393
 20
73.7156546536
 10
242.9891315676
 20
73.4182165487
 10
243.130203655
 20
73.1229701824
 10
243.323751203
 20
72.8619100261
 10
243.548799569
 20
72.6633267533
  0
SPLINE
  5
22B
330
1F
100
AcDbEntity
  8
0
  6
Continuous
 62
     7
370
    25
100
AcDbSpline
210
0.0
220
0.0
230
1.0
 70
     8
 71
     3
 72
    15
 73
    11
 74
     0
 42
0.000000001
 43
0.00000001
 40
0.0
 40
0.0
 40
0.0
 40
0.0
 40
0.126248366941547
 40
0.2533650606899981
 40
0.3794192960461577
 40
0.5042699247325705
 40
0.6284510847028888
 40
0.7526364014937704
 40
0.87748816509884
 40
1.0
 40
1.0
 40
1.0
 40
1.0
 10
244.2066234196224
 20
72.89840906532073
 30
0.0
 10
244.2195053965413
 20
72.89248941264161
 30
0.0
 10
244.2453579516511
 20
72.88060939235582
 30
0.0
 10
244.2782975211121
 20
72.88984925623107
 30
0.0
 10
244.3015468617647
 20
72.9184251551753
 30
0.0
 10
244.3122081081877
 20
72.96437277101226
 30
0.0
 10
244.3093060376764
 20
73.02189291599875
 30
0.0
 10
244.2932822469096
 20
73.08449403947881
 30
0.0
 10
244.2666205002277
 20
73.1461511050015
 30
0.0
 10
244.2431932453886
 20
73.17940762453526
 30
0.0
 10
244.231590422684
 20
73.19587858976665
 30
0.0
  0
SPLINE
  5
22C
330
1F
100
AcDbEntity
  8
0
  6
Continuous
 62
     7
370
    25
100
AcDbSpline
210
0.0
220
0.0
230
1.0
 70
     8
 71
     3
 72
    12
 73
     8
 74
     0
 42
0.000000001
 43
0.00000001
 40
0.0
 40
0.0
 40
0.0
 40
0.0
 40
0.2058740234534859
 40
0.4120994903529158
 40
0.614169200161996
 40
0.8132903166504915
 40
1.0
 40
1.0
 40
1.0
 40
1.0
 10
244.231590422684
 20
73.19587858976665
 30
0.0
 10
244.210751015491
 20
73.2254346069641
 30
0.0
 10
244.1690366265679
 20
73.2845970958474
 30
0.0
 10
244.119726424774
 20
73.39268336152989
 30
0.0
 10
244.0867235775107
 20
73.49763741865851
 30
0.0
 10
244.0722490841189
 20
73.58988534967659
 30
0.0
 10
244.0795164998889
 20
73.63319705509538
 30
0.0
 10
244.0830333183953
 20
73.65415628076494
 30
0.0
  0
SPLINE
  5
22D
330
1F
100
AcDbEntity
  8
0
  6
Continuous
 62
     7
370
    25
100
AcDbSpline
210
0.0
220
0.0
230
1.0
 70
     8
 71
     3
 72
    15
 73
    11
 74
     0
 42
0.000000001
 43
0.00000001
 40
0.0
 40
0.0
 40
0.0
 40
0.0
 40
0.126876310201784
 40
0.2539934721917957
 40
0.3800490288321819
 40
0.5049008719483766
 40
0.6290817254995578
 40
0.7532701008010778
 40
0.878122751947797
 40
1.0
 40
1.0
 40
1.0
 40
1.0
 10
244.0830333183953
 20
73.65415628076494
 30
0.0
 10
244.0851141384482
 20
73.66766851858617
 30
0.0
 10
244.0892797286156
 20
73.69471864477468
 30
0.0
 10
244.0773752534858
 20
73.7509210430458
 30
0.0
 10
244.0529868375906
 20
73.81058346222831
 30
0.0
 10
244.0177784594791
 20
73.8679885401236
 30
0.0
 10
243.9760281273469
 20
73.91652610012977
 30
0.0
 10
243.9325548371653
 20
73.95076849807246
 30
0.0
 10
243.8916564172322
 20
73.96858551783613
 30
0.0
 10
243.871532709813
 20
73.96470506314894
 30
0.0
 10
243.8615921955549
 20
73.96278823369292
 30
0.0
  0
SPLINE
  5
22E
330
1F
100
AcDbEntity
  8
0
  6
Continuous
 62
     7
370
    25
100
AcDbSpline
210
0.0
220
0.0
230
1.0
 70
     8
 71
     3
 72
    12
 73
     8
 74
     0
 42
0.000000001
 43
0.00000001
 40
0.0
 40
0.0
 40
0.0
 40
0.0
 40
0.2057955295849496
 40
0.4120024896208945
 40
0.6140552662700304
 40
0.8131804532421453
 40
1.0
 40
1.0
 40
1.0
 40
1.0
 10
243.8615921955549
 20
73.96278823369292
 30
0.0
 10
243.8435805085405
 20
73.95938984999871
 30
0.0
 10
243.8075211251943
 20
73.95258628849511
 30
0.0
 10
243.7320681930422
 20
73.98384348157529
 30
0.0
 10
243.6504625900966
 20
74.04106192244704
 30
0.0
 10
243.5708503325751
 20
74.11738083646445
 30
0.0
 10
243.5283972239083
 20
74.17614308392346
 30
0.0
 10
243.5078474668408
 20
74.20458740632856
 30
0.0
  0
SPLINE
  5
22F
330
1F
100
AcDbEntity
  8
0
  6
Continuous
 62
     7
370
    25
100
AcDbSpline
210
0.0
220
0.0
230
1.0
 70
     8
 71
     3
 72
    15
 73
    11
 74
     0
 42
0.000000001
 43
0.00000001
 40
0.0
 40
0.0
 40
0.0
 40
0.0
 40
0.1268026230933156
 40
0.2539278248119813
 40
0.3799877436195079
 40
0.5048411051924878
 40
0.6290237726676551
 40
0.7532064178314506
 40
0.87805558252704
 40
1.0
 40
1.0
 40
1.0
 40
1.0
 10
243.5078474668408
 20
74.20458740632856
 30
0.0
 10
243.4946176266701
 20
74.22265874802184
 30
0.0
 10
243.4681242903714
 20
74.25884740386877
 30
0.0
 10
243.418086603215
 20
74.3026864556137
 30
0.0
 10
243.3672515150882
 20
74.33181169520972
 30
0.0
 10
243.3204202031457
 20
74.34261286351982
 30
0.0
 10
243.2828228821386
 20
74.33428229222598
 30
0.0
 10
243.2587737343515
 20
74.30785110452459
 30
0.0
 10
243.2496840488743
 20
74.26711555392603
 30
0.0
 10
243.2575509737926
 20
74.23273741634809
 30
0.0
 10
243.2614381396096
 20
74.21575066197661
 30
0.0
  0
SPLINE
  5
230
330
1F
100
AcDbEntity
  8
0
  6
Continuous
 62
     7
370
    25
100
AcDbSpline
210
0.0
220
0.0
230
1.0
 70
     8
 71
     3
 72
    12
 73
     8
 74
     0
 42
0.000000001
 43
0.00000001
 40
0.0
 40
0.0
 40
0.0
 40
0.0
 40
0.20584976162248
 40
0.412052362551486
 40
0.614106843305134
 40
0.8132408770101381
 40
1.0
 40
1.0
 40
1.0
 40
1.0
 10
243.2614381396096
 20
74.21575066197661
 30
0.0
 10
243.2683200341792
 20
74.18514308690862
 30
0.0
 10
243.2820956193141
 20
74.12387547348351
 30
0.0
 10
243.2624678166619
 20
74.0508359958493
 30
0.0
 10
243.2133844702243
 20
74.00283238500477
 30
0.0
 10
243.1413654952994
 20
73.98291088942287
 30
0.0
 10
243.0840091719964
 20
73.99393630632716
 30
0.0
 10
243.0562506682444
 20
73.99927223197372
 30
0.0
  0
SPLINE
  5
231
330
1F
100
AcDbEntity
  8
0
  6
Continuous
 62
     7
370
    25
100
AcDbSpline
210
0.0
220
0.0
230
1.0
 70
     8
 71
     3
 72
    15
 73
    11
 74
     0
 42
0.000000001
 43
0.00000001
 40
0.0
 40
0.0
 40
0.0
 40
0.0
 40
0.1262562842364557
 40
0.2533800591668641
 40
0.3794448622115071
 40
0.5042996307035568
 40
0.6284806832488415
 40
0.7526623277179803
 40
0.8775112782534021
 40
1.0
 40
1.0
 40
1.0
 40
1.0
 10
243.0562506682444
 20
73.99927223197372
 30
0.0
 10
243.038643929241
 20
74.00246471563028
 30
0.0
 10
243.0033094775946
 20
74.0088716180881
 30
0.0
 10
242.9599880744769
 20
73.99363404214336
 30
0.0
 10
242.9302148136926
 20
73.96129298509129
 30
0.0
 10
242.9174852335889
 20
73.91414384652828
 30
0.0
 10
242.9227457108884
 20
73.85798267815306
 30
0.0
 10
242.9454401059633
 20
73.79923016479611
 30
0.0
 10
242.982406763343
 20
73.74352657498007
 30
0.0
 10
243.0150963018895
 20
73.71562131292157
 30
0.0
 10
243.0312851006039
 20
73.70180182538452
 30
0.0
  0
SPLINE
  5
232
330
1F
100
AcDbEntity
  8
0
  6
Continuous
 62
     7
370
    25
100
AcDbSpline
210
0.0
220
0.0
230
1.0
 70
     8
 71
     3
 72
    12
 73
     8
 74
     0
 42
0.000000001
 43
0.00000001
 40
0.0
 40
0.0
 40
0.0
 40
0.0
 40
0.2058718603201711
 40
0.4120924088971405
 40
0.6141678622886054
 40
0.813306597902601
 40
1.0
 40
1.0
 40
1.0
 40
1.0
 10
243.0312851006039
 20
73.70180182538452
 30
0.0
 10
243.0602468286468
 20
73.67693493607507
 30
0.0
 10
243.1182193376457
 20
73.62715904003292
 30
0.0
 10
243.1805848170422
 20
73.52660974943048
 30
0.0
 10
243.2126210749167
 20
73.42109511977465
 30
0.0
 10
243.2133030108725
 20
73.32088244252672
 30
0.0
 10
243.1907524666988
 20
73.26875034953143
 30
0.0
 10
243.1798408878037
 20
73.24352508484125
 30
0.0
  0
SPLINE
  5
233
330
1F
100
AcDbEntity
  8
0
  6
Continuous
 62
     7
370
    25
100
AcDbSpline
210
0.0
220
0.0
230
1.0
 70
     8
 71
     3
 72
    15
 73
    11
 74
     0
 42
0.000000001
 43
0.00000001
 40
0.0
 40
0.0
 40
0.0
 40
0.0
 40
0.126870212613958
 40
0.2539814147305013
 40
0.3800305641898656
 40
0.5048756568971622
 40
0.6290521086285977
 40
0.7532394248637929
 40
0.8780968251483472
 40
1.0
 40
1.0
 40
1.0
 40
1.0
 10
243.1798408878037
 20
73.24352508484125
 30
0.0
 10
243.1730133070191
 20
73.22727313985273
 30
0.0
 10
243.1593451764853
 20
73.19473837936592
 30
0.0
 10
243.1608699021014
 20
73.13254492829546
 30
0.0
 10
243.1787558190185
 20
73.06913157078236
 30
0.0
 10
243.2119117969571
 20
73.01054455553054
 30
0.0
 10
243.2560374317656
 20
72.96337921840184
 30
0.0
 10
243.3061971215768
 20
72.93299513862672
 30
0.0
 10
243.3574032185657
 20
72.92112224114403
 30
0.0
 10
243.3867737541168
 20
72.93033906392104
 30
0.0
 10
243.4012832094008
 20
72.93489230326225
 30
0.0
  0
SPLINE
  5
234
330
1F
100
AcDbEntity
  8
0
  6
Continuous
 62
     7
370
    25
100
AcDbSpline
210
0.0
220
0.0
230
1.0
 70
     8
 71
     3
 72
    12
 73
     8
 74
     0
 42
0.000000001
 43
0.00000001
 40
0.0
 40
0.0
 40
0.0
 40
0.0
 40
0.2058324362752814
 40
0.4120753242999556
 40
0.6141711801601025
 40
0.8133042615072263
 40
1.0
 40
1.0
 40
1.0
 40
1.0
 10
243.4012832094008
 20
72.93489230326225
 30
0.0
 10
243.4274182651106
 20
72.94297843909456
 30
0.0
 10
243.4797404926083
 20
72.95916683537327
 30
0.0
 10
243.5682646527908
 20
72.93543707465466
 30
0.0
 10
243.6489175093737
 20
72.87764333953697
 30
0.0
 10
243.7147278352016
 20
72.79335808218244
 30
0.0
 10
243.7418862895686
 20
72.72578868020867
 30
0.0
 10
243.7550277850548
 20
72.69309304226684
 30
0.0
  0
SPLINE
  5
235
330
1F
100
AcDbEntity
  8
0
  6
Continuous
 62
     7
370
    25
100
AcDbSpline
210
0.0
220
0.0
230
1.0
 70
     8
 71
     3
 72
    15
 73
    11
 74
     0
 42
0.000000001
 43
0.00000001
 40
0.0
 40
0.0
 40
0.0
 40
0.0
 40
0.1267878249350392
 40
0.2538944069296414
 40
0.3799400073006565
 40
0.5047845633101815
 40
0.6289633128854025
 40
0.7531487593860787
 40
0.8780090918871954
 40
1.0
 40
1.0
 40
1.0
 40
1.0
 10
243.7550277850548
 20
72.69309304226684
 30
0.0
 10
243.7635129147814
 20
72.67228453817444
 30
0.0
 10
243.7805045066851
 20
72.63061521536413
 30
0.0
 10
243.8201572572026
 20
72.58078507227336
 30
0.0
 10
243.864484725044
 20
72.54790512020908
 30
0.0
 10
243.9092618280071
 20
72.53591313299236
 30
0.0
 10
243.9492358509804
 20
72.54560788106612
 30
0.0
 10
243.9799734444242
 20
72.57589292821098
 30
0.0
 10
243.9993766357193
 20
72.62257537000647
 30
0.0
 10
244.0007547484796
 20
72.66229927950988
 30
0.0
 10
244.001435795197
 20
72.68193035684237
 30
0.0
  0
SPLINE
  5
236
330
1F
100
AcDbEntity
  8
0
  6
Continuous
 62
     7
370
    25
100
AcDbSpline
210
0.0
220
0.0
230
1.0
 70
     8
 71
     3
 72
    12
 73
     8
 74
     0
 42
0.000000001
 43
0.00000001
 40
0.0
 40
0.0
 40
0.0
 40
0.0
 40
0.2058908397510979
 40
0.4121354984195567
 40
0.614225054100236
 40
0.8133493650665505
 40
1.0
 40
1.0
 40
1.0
 40
1.0
 10
244.001435795197
 20
72.68193035684237
 30
0.0
 10
244.002676370354
 20
72.71723137935237
 30
0.0
 10
244.0051596525693
 20
72.78789408840957
 30
0.0
 10
244.0378537625548
 20
72.86847552971778
 30
0.0
 10
244.0859835435639
 20
72.91591528991611
 30
0.0
 10
244.1442109080945
 20
72.92785560133167
 30
0.0
 10
244.1862725909828
 20
72.90801068835623
 30
0.0
 10
244.2066234196224
 20
72.89840906532073
 30
0.0
  0
ARC
  5
237
330
1F
100
AcDbEntity
  8
0
  6
Continuous
 62
     7
370
    25
100
AcDbCircle
 10
244.0343154604
 20
73.0081909197
 30
0.0
 40
0.2680636886835659
100
AcDbArc
 50
30.387132879
 51
100.7047210565
  0
LWPOLYLINE
  5
238
330
1F
100
AcDbEntity
  8
0
  6
Continuous
 62
     7
370
    25
100
AcDbPolyline
 90
        9
 70
   128
 43
0.0
 10
243.9845232789
 20
73.2715896286
 10
243.9450962193
 20
73.2660235232
 10
243.8997962596
 20
73.280386698
 10
243.8536586314
 20
73.3130822731
 10
243.811809445
 20
73.3604772378
 10
243.7788980247
 20
73.4173058228
 10
243.7585845608
 20
73.4772512065
 10
243.7531225926
 20
73.5336544167
 10
243.7631219325
 20
73.5802460646
  0
ARC
  5
239
330
1F
100
AcDbEntity
  8
0
  6
Continuous
 62
     7
370
    25
100
AcDbCircle
 10
243.3095599418
 20
73.6864350407
 30
0.0
 40
0.4658267682164143
100
AcDbArc
 50
346.8231148187
 51
49.0983066129
  0
ARC
  5
23A
330
1F
100
AcDbEntity
  8
0
  6
Continuous
 62
     7
370
    25
100
AcDbCircle
 10
243.8458173928
 20
74.2737389826
 30
0.0
 40
0.329854194449361
100
AcDbArc
 50
197.8265463146
 51
225.4869970922
  0
LINE
  5
23B
330
1F
100
AcDbEntity
  8
0
  6
Continuous
 62
     7
370
    25
100
AcDbLine
 10
243.9845232789
 20
73.2715896286
 30
0.0
 11
243.4012832094
 21
72.9348923033
 31
0.0
  0
SPLINE
  5
23C
330
1F
100
AcDbEntity
  8
0
  6
Continuous
 62
     7
370
    25
100
AcDbSpline
210
0.0
220
0.0
230
1.0
 70
     8
 71
     3
 72
    14
 73
    10
 74
     0
 42
0.000000001
 43
0.00000001
 40
0.0
 40
0.0
 40
0.0
 40
0.0
 40
0.1688808377140463
 40
0.3379755681614675
 40
0.5012096518505533
 40
0.6566165361560921
 40
0.8076833686177701
 40
0.9595334670962687
 40
1.0
 40
1.0
 40
1.0
 40
1.0
 10
264.1029239428509
 20
38.89105609843239
 30
0.0
 10
264.085797796237
 20
38.88031261202285
 30
0.0
 10
264.0515238122223
 20
38.85881203225045
 30
0.0
 10
264.0118893873153
 20
38.81189366024882
 30
0.0
 10
263.988011351759
 20
38.76142773739881
 30
0.0
 10
263.9824299584819
 20
38.71299534760642
 30
0.0
 10
263.9941348664307
 20
38.67198402598579
 30
0.0
 10
264.0141051069273
 20
38.6486970809994
 30
0.0
 10
264.0286386614998
 20
38.63962781172722
 30
0.0
 10
264.0316967566841
 20
38.63771949063831
 30
0.0
  0
ELLIPSE
  5
23D
330
1F
100
AcDbEntity
  8
0
  6
Continuous
 62
     7
370
    25
100
AcDbEllipse
 10
255.8494647076
 20
43.3604852079
 30
0.0
 11
17.99999993043642
 21
-10.39286784206206
 31
0.0
210
0.0
220
0.0
230
1.0
 40
0.0000703729
 41
1.030932038290722
 42
1.098949273600014
  0
ELLIPSE
  5
23E
330
1F
100
AcDbEntity
  8
0
  6
Continuous
 62
     7
370
    25
100
AcDbEllipse
 10
255.8494647076
 20
60.2636599982
 30
0.0
 11
11.71484798666526
 21
62.58058119270457
 31
0.0
210
0.0
220
0.0
230
1.0
 40
0.2183760757
 41
4.384358519237996
 42
4.390167987204495
  0
ELLIPSE
  5
23F
330
1F
100
AcDbEntity
  8
0
  6
Continuous
 62
     7
370
    25
100
AcDbEllipse
 10
255.8494647076
 20
47.6029702011
 30
0.0
 11
17.57699263901222
 21
5.558986141408738
 31
0.0
210
0.0
220
0.0
230
1.0
 40
0.6978514545
 41
4.935818976780484
 42
5.029260883017924
  0
SPLINE
  5
240
330
1F
100
AcDbEntity
  8
0
  6
Continuous
 62
     7
370
    25
100
AcDbSpline
210
0.0
220
0.0
230
1.0
 70
     8
 71
     3
 72
    14
 73
    10
 74
     0
 42
0.000000001
 43
0.00000001
 40
0.0
 40
0.0
 40
0.0
 40
0.0
 40
0.1709711215603456
 40
0.3422195292467787
 40
0.5059305815594501
 40
0.6598470933570899
 40
0.8085058440487549
 40
0.9582224339974299
 40
1.0
 40
1.0
 40
1.0
 40
1.0
 10
263.5270172217246
 20
36.87347338874742
 30
0.0
 10
263.5092769336758
 20
36.86296407162417
 30
0.0
 10
263.4737675858436
 20
36.8419283930499
 30
0.0
 10
263.4327504302539
 20
36.79526892618359
 30
0.0
 10
263.4083546839054
 20
36.74493123221961
 30
0.0
 10
263.4029900261242
 20
36.69680424675393
 30
0.0
 10
263.4151438761876
 20
36.65609716727911
 30
0.0
 10
263.4355302477498
 20
36.63267769352928
 30
0.0
 10
263.4503981816666
 20
36.62340079969697
 30
0.0
 10
263.4536418633729
 20
36.62137689435921
 30
0.0
  0
ELLIPSE
  5
241
330
1F
100
AcDbEntity
  8
0
  6
Continuous
 62
     7
370
    25
100
AcDbEllipse
 10
255.8494647076
 20
41.0103579046
 30
0.0
 11
17.9999999800805
 21
-10.3928678707256
 31
0.0
210
0.0
220
0.0
230
1.0
 40
0.0000703729
 41
1.06592727755708
 42
1.134685581232081
  0
ELLIPSE
  5
242
330
1F
100
AcDbEntity
  8
0
  6
Continuous
 62
     7
370
    25
100
AcDbEllipse
 10
255.8494647076
 20
60.2636599982
 30
0.0
 11
11.71484798666532
 21
62.58058119270759
 31
0.0
210
0.0
220
0.0
230
1.0
 40
0.2183760757
 41
4.349307594031645
 42
4.355172749157756
  0
ELLIPSE
  5
243
330
1F
100
AcDbEntity
  8
0
  6
Continuous
 62
     7
370
    25
100
AcDbEllipse
 10
255.8494647076
 20
45.8825576108
 30
0.0
 11
17.57699263901222
 21
5.558986141408725
 31
0.0
210
0.0
220
0.0
230
1.0
 40
0.6978514545
 41
4.899673850301602
 42
4.994209957811572
  0
SPLINE
  5
244
330
1F
100
AcDbEntity
  8
0
  6
Continuous
 62
     7
370
    25
100
AcDbSpline
210
0.0
220
0.0
230
1.0
 70
     8
 71
     3
 72
    14
 73
    10
 74
     0
 42
0.000000001
 43
0.00000001
 40
0.0
 40
0.0
 40
0.0
 40
0.0
 40
0.1734291881432772
 40
0.3472021822392528
 40
0.5114117207569373
 40
0.6635971097784172
 40
0.8095446836343226
 40
0.9569123092550001
 40
1.0
 40
1.0
 40
1.0
 40
1.0
 10
262.9336686200322
 20
34.86596004255863
 30
0.0
 10
262.9152673196418
 20
34.85568697803301
 30
0.0
 10
262.8784282401307
 20
34.83512048366278
 30
0.0
 10
262.8359405551966
 20
34.78867620000251
 30
0.0
 10
262.8110553488282
 20
34.73842443592066
 30
0.0
 10
262.8059932007184
 20
34.69062980766308
 30
0.0
 10
262.8186363403892
 20
34.6502890471012
 30
0.0
 10
262.8394285876146
 20
34.62677386449486
 30
0.0
 10
262.8546218900811
 20
34.61729691322206
 30
0.0
 10
262.8580591494371
 20
34.61515289354626
 30
0.0
  0
ELLIPSE
  5
245
330
1F
100
AcDbEntity
  8
0
  6
Continuous
 62
     7
370
    25
100
AcDbEllipse
 10
255.8494647076
 20
38.6602306012
 30
0.0
 11
17.9999999800805
 21
-10.39286787072561
 31
0.0
210
0.0
220
0.0
230
1.0
 40
0.0000703729
 41
1.101279118841105
 42
1.170893400960515
  0
ELLIPSE
  5
246
330
1F
100
AcDbEntity
  8
0
  6
Continuous
 62
     7
370
    25
100
AcDbEllipse
 10
255.8494647076
 20
60.2636599982
 30
0.0
 11
11.71484798666532
 21
62.58058119270657
 31
0.0
210
0.0
220
0.0
230
1.0
 40
0.2183760757
 41
4.313890938643858
 42
4.319820907874406
  0
ELLIPSE
  5
247
330
1F
100
AcDbEntity
  8
0
  6
Continuous
 62
     7
370
    25
100
AcDbEllipse
 10
255.8494647076
 20
44.1621450204
 30
0.0
 11
17.57699263901222
 21
5.558986141408725
 31
0.0
210
0.0
220
0.0
230
1.0
 40
0.6978514545
 41
4.862997515979656
 42
4.958793302423783
  0
SPLINE
  5
248
330
1F
100
AcDbEntity
  8
0
  6
Continuous
 62
     7
370
    25
100
AcDbSpline
210
0.0
220
0.0
230
1.0
 70
     8
 71
     3
 72
    14
 73
    10
 74
     0
 42
0.000000001
 43
0.00000001
 40
0.0
 40
0.0
 40
0.0
 40
0.0
 40
0.1763009397834344
 40
0.3530388307122076
 40
0.5177752882942507
 40
0.6679275194119171
 40
0.8108475845696498
 40
0.9556559137692916
 40
0.9999999999999999
 40
0.9999999999999999
 40
0.9999999999999999
 40
0.9999999999999999
 10
262.3221451777362
 20
32.86893690742394
 30
0.0
 10
262.3030265314296
 20
32.85890554064395
 30
0.0
 10
262.2647418544156
 20
32.83881794495217
 30
0.0
 10
262.220678129245
 20
32.7925355532359
 30
0.0
 10
262.1953440804541
 20
32.74231901202815
 30
0.0
 10
262.1906892987086
 20
32.69488651547563
 30
0.0
 10
262.2038696540705
 20
32.65498092298513
 30
0.0
 10
262.2250586449389
 20
32.63141205827837
 30
0.0
 10
262.2405654810177
 20
32.62174569258968
 30
0.0
 10
262.2442008375881
 20
32.61947955100931
 30
0.0
  0
ELLIPSE
  5
249
330
1F
100
AcDbEntity
  8
0
  6
Continuous
 62
     7
370
    25
100
AcDbEllipse
 10
255.8494647076
 20
36.3101032979
 30
0.0
 11
17.99999993043642
 21
-10.39286784206207
 31
0.0
210
0.0
220
0.0
230
1.0
 40
0.0000703729
 41
1.137044373920898
 42
1.207641457909331
  0
ELLIPSE
  5
24A
330
1F
100
AcDbEntity
  8
0
  6
Continuous
 62
     7
370
    25
100
AcDbEllipse
 10
255.8494647076
 20
60.2636599982
 30
0.0
 11
11.71484798666532
 21
62.58058119270657
 31
0.0
210
0.0
220
0.0
230
1.0
 40
0.2183760757
 41
4.278050890060083
 42
4.284055651760826
  0
ELLIPSE
  5
24B
330
1F
100
AcDbEntity
  8
0
  6
Continuous
 62
     7
370
    25
100
AcDbEllipse
 10
255.8494647076
 20
42.4417324301
 30
0.0
 11
17.57699263901222
 21
5.558986141408725
 31
0.0
210
0.0
220
0.0
230
1.0
 40
0.6978514545
 41
4.825714089628182
 42
4.922953253840006
  0
SPLINE
  5
24C
330
1F
100
AcDbEntity
  8
0
  6
Continuous
 62
     7
370
    25
100
AcDbSpline
210
0.0
220
0.0
230
1.0
 70
     8
 71
     3
 72
    14
 73
    10
 74
     0
 42
0.000000001
 43
0.00000001
 40
0.0
 40
0.0
 40
0.0
 40
0.0
 40
0.1796688981020127
 40
0.3598783289814176
 40
0.5251298146338449
 40
0.672928981934396
 40
0.8124847797917198
 40
0.9545181713185193
 40
0.9999999999999999
 40
0.9999999999999999
 40
0.9999999999999999
 40
0.9999999999999999
 10
261.6915809088086
 20
30.88290922955282
 30
0.0
 10
261.6716771341481
 20
30.87312242073772
 30
0.0
 10
261.6318097044432
 20
30.85351935955324
 30
0.0
 10
261.5860446672741
 20
30.80734080080927
 30
0.0
 10
261.560318107239
 20
30.75709419673358
 30
0.0
 10
261.5561942730304
 20
30.71006155803671
 30
0.0
 10
261.5699681021022
 20
30.67066343405829
 30
0.0
 10
261.5915487631003
 20
30.64709535077412
 30
0.0
 10
261.6073499287985
 20
30.63725253010949
 30
0.0
 10
261.6111825025515
 20
30.63486515332634
 30
0.0
  0
ELLIPSE
  5
24D
330
1F
100
AcDbEntity
  8
0
  6
Continuous
 62
     7
370
    25
100
AcDbEllipse
 10
255.8494647076
 20
33.9599759945
 30
0.0
 11
17.99999993043642
 21
-10.39286784206206
 31
0.0
210
0.0
220
0.0
230
1.0
 40
0.0000703729
 41
1.173285427573788
 42
1.245006775860188
  0
ELLIPSE
  5
24E
330
1F
100
AcDbEntity
  8
0
  6
Continuous
 62
     7
370
    25
100
AcDbEllipse
 10
255.8494647076
 20
60.2636599982
 30
0.0
 11
11.71484798666532
 21
62.58058119270657
 31
0.0
210
0.0
220
0.0
230
1.0
 40
0.2183760757
 41
4.241724021723485
 42
4.24781459817903
  0
ELLIPSE
  5
24F
330
1F
100
AcDbEntity
  8
0
  6
Continuous
 62
     7
370
    25
100
AcDbEllipse
 10
255.8494647076
 20
40.7213198398
 30
0.0
 11
17.57699263901222
 21
5.558986141408738
 31
0.0
210
0.0
220
0.0
230
1.0
 40
0.6978514545
 41
4.787737695615901
 42
4.886626385503406
  0
SPLINE
  5
250
330
1F
100
AcDbEntity
  8
0
  6
Continuous
 62
     7
370
    25
100
AcDbSpline
210
0.0
220
0.0
230
1.0
 70
     8
 71
     3
 72
    14
 73
    10
 74
     0
 42
0.000000001
 43
0.00000001
 40
0.0
 40
0.0
 40
0.0
 40
0.0
 40
0.1836208854014379
 40
0.3679170959325873
 40
0.5336397319558742
 40
0.6786770908811653
 40
0.8145218603497241
 40
0.953592368133469
 40
0.9999999999999999
 40
0.9999999999999999
 40
0.9999999999999999
 40
0.9999999999999999
 10
261.0409547399898
 20
28.90845923777912
 30
0.0
 10
261.0201809200946
 20
28.89892586783464
 30
0.0
 10
260.9785568778697
 20
28.87982406589768
 30
0.0
 10
260.9309504478794
 20
28.83367023317353
 30
0.0
 10
260.904903659977
 20
28.78332136689484
 30
0.0
 10
260.9014707449271
 20
28.73673065825654
 30
0.0
 10
260.9159006082784
 20
28.69792306283913
 30
0.0
 10
260.9378646371274
 20
28.6744189108582
 30
0.0
 10
260.9539390939499
 20
28.66441919518853
 30
0.0
 10
260.9579610098268
 20
28.6619172123433
 30
0.0
  0
ELLIPSE
  5
251
330
1F
100
AcDbEntity
  8
0
  6
Continuous
 62
     7
370
    25
100
AcDbEllipse
 10
255.8494647076
 20
31.6098486912
 30
0.0
 11
17.99999993043642
 21
-10.39286784206207
 31
0.0
210
0.0
220
0.0
230
1.0
 40
0.0000703729
 41
1.210071496153911
 42
1.283076641225444
  0
ELLIPSE
  5
252
330
1F
100
AcDbEntity
  8
0
  6
Continuous
 62
     7
370
    25
100
AcDbEllipse
 10
255.8494647076
 20
60.2636599982
 30
0.0
 11
11.71484798666532
 21
62.58058119270655
 31
0.0
210
0.0
220
0.0
230
1.0
 40
0.2183760757
 41
4.204839833720522
 42
4.211028529682052
  0
ELLIPSE
  5
253
330
1F
100
AcDbEntity
  8
0
  6
Continuous
 62
     7
370
    25
100
AcDbEllipse
 10
255.8494647076
 20
39.0009072495
 30
0.0
 11
17.57699263901222
 21
5.558986141408732
 31
0.0
210
0.0
220
0.0
230
1.0
 40
0.6978514545
 41
4.748970011512416
 42
4.849742197500441
  0
SPLINE
  5
254
330
1F
100
AcDbEntity
  8
0
  6
Continuous
 62
     7
370
    25
100
AcDbSpline
210
0.0
220
0.0
230
1.0
 70
     8
 71
     3
 72
    14
 73
    10
 74
     0
 42
0.000000001
 43
0.00000001
 40
0.0
 40
0.0
 40
0.0
 40
0.0
 40
0.1882734720499064
 40
0.3773805629809756
 40
0.5434976953610637
 40
0.6852862939903694
 40
0.8170495522647323
 40
0.9530037001056809
 40
0.9999999999999999
 40
0.9999999999999999
 40
0.9999999999999999
 40
0.9999999999999999
 10
260.3690569250188
 20
26.94629290813586
 30
0.0
 10
260.347310114033
 20
26.93702055116701
 30
0.0
 10
260.3037202036569
 20
26.91843478199323
 30
0.0
 10
260.2540913121168
 20
26.87221712701455
 30
0.0
 10
260.2278406071848
 20
26.82166358211705
 30
0.0
 10
260.2252862978071
 20
26.77556993839334
 30
0.0
 10
260.2404515698813
 20
26.73744268621132
 30
0.0
 10
260.2627899754535
 20
26.71407738694188
 30
0.0
 10
260.2791091823211
 20
26.70394445816048
 30
0.0
 10
260.2833012591893
 20
26.701341512031
 30
0.0
  0
ELLIPSE
  5
255
330
1F
100
AcDbEntity
  8
0
  6
Continuous
 62
     7
370
    25
100
AcDbEllipse
 10
255.8494647076
 20
29.2597213878
 30
0.0
 11
17.99999993043642
 21
-10.39286784206207
 31
0.0
210
0.0
220
0.0
230
1.0
 40
0.0000703729
 41
1.247480209011339
 42
1.32195114407733
  0
ELLIPSE
  5
256
330
1F
100
AcDbEntity
  8
0
  6
Continuous
 62
     7
370
    25
100
AcDbEllipse
 10
255.8494647076
 20
60.2636599982
 30
0.0
 11
11.71484798666532
 21
62.58058119270655
 31
0.0
210
0.0
220
0.0
230
1.0
 40
0.2183760757
 41
4.167319113791865
 42
4.173619816910342
  0
ELLIPSE
  5
257
330
1F
100
AcDbEntity
  8
0
  6
Continuous
 62
     7
370
    25
100
AcDbEllipse
 10
255.8494647076
 20
37.2804946592
 30
0.0
 11
17.57699263901222
 21
5.558986141408667
 31
0.0
210
0.0
220
0.0
230
1.0
 40
0.6978514545
 41
4.709297053627808
 42
4.812221477571784
  0
SPLINE
  5
258
330
1F
100
AcDbEntity
  8
0
  6
Continuous
 62
     7
370
    25
100
AcDbSpline
210
0.0
220
0.0
230
1.0
 70
     8
 71
     3
 72
    14
 73
    10
 74
     0
 42
0.000000001
 43
0.00000001
 40
0.0
 40
0.0
 40
0.0
 40
0.0
 40
0.193696406411235
 40
0.3884274037311145
 40
0.5258540599568549
 40
0.6636988313321418
 40
0.7916096696545067
 40
0.9219265864987773
 40
1.0
 40
1.0
 40
1.0
 40
1.0
 10
259.6744465685118
 20
24.99723520777991
 30
0.0
 10
259.6515978701491
 20
24.98824440637101
 30
0.0
 10
259.6057784316366
 20
24.97021478097208
 30
0.0
 10
259.5566055312805
 20
24.9261228319718
 30
0.0
 10
259.5303176933557
 20
24.87917330354369
 30
0.0
 10
259.5249312937623
 20
24.83634839757862
 30
0.0
 10
259.5373348151877
 20
24.79784543757037
 30
0.0
 10
259.5597672657127
 20
24.77076051983713
 30
0.0
 10
259.5786536473159
 20
24.75856538305712
 30
0.0
 10
259.5857294280299
 20
24.75399647645309
 30
0.0
  0
ELLIPSE
  5
259
330
1F
100
AcDbEntity
  8
0
  6
Continuous
 62
     7
370
    25
100
AcDbEllipse
 10
255.8494647076
 20
26.9095940845
 30
0.0
 11
17.99999993043642
 21
-10.39286784206207
 31
0.0
210
0.0
220
0.0
230
1.0
 40
0.0000703729
 41
1.285599607995717
 42
1.361746506356522
  0
ELLIPSE
  5
25A
330
1F
100
AcDbEntity
  8
0
  6
Continuous
 62
     7
370
    25
100
AcDbEllipse
 10
255.8494647076
 20
60.2636599982
 30
0.0
 11
11.71484798666526
 21
62.58058119270457
 31
0.0
210
0.0
220
0.0
230
1.0
 40
0.2183760757
 41
4.129071852484616
 42
4.135500418022277
  0
ELLIPSE
  5
25B
330
1F
100
AcDbEntity
  8
0
  6
Continuous
 62
     7
370
    25
100
AcDbEllipse
 10
255.8494647076
 20
35.5600820689
 30
0.0
 11
17.57699263901222
 21
5.558986141408624
 31
0.0
210
0.0
220
0.0
230
1.0
 40
0.6978514545
 41
4.674611641953632
 42
4.773974216264536
  0
ARC
  5
25C
330
1F
100
AcDbEntity
  8
0
  6
Continuous
 62
     7
370
    25
100
AcDbCircle
 10
255.848192861
 20
53.9409536838
 30
0.0
 40
31.01517991711707
100
AcDbArc
 50
266.491130902
 51
275.9480436414
  0
ELLIPSE
  5
25D
330
1F
100
AcDbEntity
  8
0
  6
Continuous
 62
     7
370
    25
100
AcDbEllipse
 10
255.8494647076
 20
21.8855030958
 30
0.0
 11
18.00000008180805
 21
-10.3928679294614
 31
0.0
210
0.0
220
0.0
230
1.0
 40
0.0000703729
 41
1.676561302751994
 42
1.722051280599415
  0
LINE
  5
25E
330
1F
100
AcDbEntity
  8
0
  6
Continuous
 62
     7
370
    25
100
AcDbLine
 10
253.1379682241
 20
23.4527399281
 30
0.0
 11
253.1379682241
 21
40.191828555
 31
0.0
  0
ELLIPSE
  5
25F
330
1F
100
AcDbEntity
  8
0
  6
Continuous
 62
     7
370
    25
100
AcDbEllipse
 10
255.8494647076
 20
62.3042732841
 30
0.0
 11
12.72843921217552
 21
22.04510905127209
 31
0.0
210
0.0
220
0.0
230
1.0
 40
0.5773346305
 41
3.775817126444906
 42
3.798897438866383
  0
ELLIPSE
  5
260
330
1F
100
AcDbEntity
  8
0
  6
Continuous
 62
     7
370
    25
100
AcDbEllipse
 10
255.8494647076
 20
47.5507885361
 30
0.0
 11
17.94704166160884
 21
-3.359618285242014
 31
0.0
210
0.0
220
0.0
230
1.0
 40
0.4106849769
 41
4.660982719211178
 42
5.090333298056199
  0
ELLIPSE
  5
261
330
1F
100
AcDbEntity
  8
0
  6
Continuous
 62
     7
370
    25
100
AcDbEllipse
 10
255.8494647076
 20
49.3233827914
 30
0.0
 11
17.57699263901222
 21
5.558986141408732
 31
0.0
210
0.0
220
0.0
230
1.0
 40
0.6978514545
 41
4.971500697485574
 42
5.042262959250143
  0
LINE
  5
262
330
1F
100
AcDbEntity
  8
0
  6
Continuous
 62
     7
370
    25
100
AcDbLine
 10
246.0030027787
 20
44.7189922098
 30
0.0
 11
253.5493583441
 21
40.3625738709
 31
0.0
  0
LINE
  5
263
330
1F
100
AcDbEntity
  8
0
  6
Continuous
 62
     7
370
    25
100
AcDbLine
 10
253.1379682241
 20
40.191828555
 30
0.0
 11
238.0548650108
 21
48.8991187002
 31
0.0
  0
ELLIPSE
  5
264
330
1F
100
AcDbEntity
  8
0
  6
Continuous
 62
     7
370
    25
100
AcDbEllipse
 10
255.8494647076
 20
62.3042732841
 30
0.0
 11
12.72843921217552
 21
22.04510905127209
 31
0.0
210
0.0
220
0.0
230
1.0
 40
0.5773346305
 41
2.038256346257787
 42
2.507449444796805
  0
LINE
  5
265
330
1F
100
AcDbEntity
  8
0
  6
Continuous
 62
     7
370
    25
100
AcDbLine
 10
248.9260127107
 20
53.0570455097
 30
0.0
 11
238.7518178101
 21
58.9304832062
 31
0.0
  0
LINE
  5
266
330
1F
100
AcDbEntity
  8
0
  6
Continuous
 62
     7
370
    25
100
AcDbLine
 10
248.6642504884
 20
51.7778317528
 30
0.0
 11
245.8083681795
 21
46.8312985079
 31
0.0
  0
ELLIPSE
  5
267
330
1F
100
AcDbEntity
  8
0
  6
Continuous
 62
     7
370
    25
100
AcDbEllipse
 10
246.8690281834
 20
46.2189925955
 30
0.0
 11
0.8660957767140758
 21
1.499959365767929
 31
0.0
210
0.0
220
0.0
230
1.0
 40
0.7070876271
 41
1.570862676826519
 42
3.141659003621458
  0
ELLIPSE
  5
268
330
1F
100
AcDbEntity
  8
0
  6
Continuous
 62
     7
370
    25
100
AcDbEllipse
 10
248.0712901145
 20
35.6823694004
 30
0.0
 11
-2.65292881004288
 21
4.93121418307706
 31
0.0
210
0.0
220
0.0
230
1.0
 40
0.5766854787
 41
2.390897964901758
 42
5.532490618491567
  0
LINE
  5
269
330
1F
100
AcDbEntity
  8
0
  6
Continuous
 62
     7
370
    25
100
AcDbLine
 10
241.707329342
 20
44.005604388
 30
0.0
 11
248.071290428
 21
40.3317678528
 31
0.0
  0
ELLIPSE
  5
26A
330
1F
100
AcDbEntity
  8
0
  6
Continuous
 62
     7
370
    25
100
AcDbEllipse
 10
241.7073290839
 20
39.3562059036
 30
0.0
 11
-2.652928810042823
 21
4.931214183077045
 31
0.0
210
0.0
220
0.0
230
1.0
 40
0.5766854787
 41
5.532490618491583
 42
6.752658929904963
  0
LINE
  5
26B
330
1F
100
AcDbEntity
  8
0
  6
Continuous
 62
     7
370
    25
100
AcDbLine
 10
238.0548650108
 20
48.8991187002
 30
0.0
 11
238.0548650108
 21
43.0617401475
 31
0.0
  0
LINE
  5
26C
330
1F
100
AcDbEntity
  8
0
  6
Continuous
 62
     7
370
    25
100
AcDbLine
 10
253.1379682241
 20
23.4527399281
 30
0.0
 11
238.0548650108
 21
32.1600300732
 31
0.0
  0
LINE
  5
26D
330
1F
100
AcDbEntity
  8
0
  6
Continuous
 62
     7
370
    25
100
AcDbLine
 10
238.0548650108
 20
39.8677169163
 30
0.0
 11
238.0548650108
 21
32.1600300732
 31
0.0
  0
ELLIPSE
  5
26E
330
1F
100
AcDbEntity
  8
0
  6
Continuous
 62
     7
370
    25
100
AcDbEllipse
 10
241.7073290839
 20
39.3562059036
 30
0.0
 11
-2.652928810042823
 21
4.931214183077045
 31
0.0
210
0.0
220
0.0
230
1.0
 40
0.5766854787
 41
1.170729653488361
 42
2.390897964901773
  0
LINE
  5
26F
330
1F
100
AcDbEntity
  8
0
  6
Continuous
 62
     7
370
    25
100
AcDbLine
 10
248.071290428
 20
31.0329721071
 30
0.0
 11
241.707329342
 21
34.7068086423
 31
0.0
  0
LINE
  5
270
330
1F
100
AcDbEntity
  8
0
  6
Continuous
 62
     7
370
    25
100
AcDbLine
 10
263.4456158522
 20
64.3222858826
 30
0.0
 11
263.3224179798
 21
64.7821014438
 31
0.0
  0
ELLIPSE
  5
271
330
1F
100
AcDbEntity
  8
0
  6
Continuous
 62
     7
370
    25
100
AcDbEllipse
 10
248.053612445
 20
65.2940223647
 30
0.0
 11
-4.962041686331929
 21
8.725530780669885
 31
0.0
210
0.0
220
0.0
230
1.0
 40
0.5773485232
 41
3.947768608631676
 42
5.50535027825352
  0
ELLIPSE
  5
272
330
1F
100
AcDbEntity
  8
0
  6
Continuous
 62
     7
370
    25
100
AcDbEllipse
 10
256.2513502226
 20
68.8641423567
 30
0.0
 11
-6.561534858694586
 21
7.974799593448196
 31
0.0
210
0.0
220
0.0
230
1.0
 40
0.4128975027
 41
3.878919160270426
 42
5.449715487065313
  0
LINE
  5
273
330
1F
100
AcDbEntity
  8
0
  6
Continuous
 62
     7
370
    25
100
AcDbLine
 10
248.0536123152
 20
73.5207513483
 30
0.0
 11
245.5556555318
 21
74.9627911046
 31
0.0
  0
LINE
  5
274
330
1F
100
AcDbEntity
  8
0
  6
Continuous
 62
     7
370
    25
100
AcDbLine
 10
243.1244936008
 20
65.8095793645
 30
0.0
 11
243.1962933914
 21
65.6485504799
 31
0.0
  0
LINE
  5
275
330
1F
100
AcDbEntity
  8
0
  6
Continuous
 62
     7
370
    25
100
AcDbLine
 10
242.6532575901
 20
66.6257658239
 30
0.0
 11
243.1244936008
 21
65.8095793645
 31
0.0
  0
LWPOLYLINE
  5
276
330
1F
100
AcDbEntity
  8
0
  6
Continuous
 62
     7
370
    25
100
AcDbPolyline
 90
        3
 70
   128
 43
0.0
 10
241.9160947217
 20
71.8788507308
 10
241.9772840432
 20
71.4428062901
 10
242.6532575901
 20
66.6257658239
  0
LWPOLYLINE
  5
277
330
1F
100
AcDbEntity
  8
0
  6
Continuous
 62
     7
370
    25
100
AcDbPolyline
 90
       13
 70
   128
 43
0.0
 10
246.1460551712
 20
70.7554431852
 10
246.3742948439
 20
70.5079829804
 10
246.556511475
 20
70.206383005
 10
246.6721676957
 20
69.8846359244
 10
246.7082269588
 20
69.5790073709
 10
246.6606253861
 20
69.323944411
 10
246.5347287984
 20
69.1481957073
 10
246.3447261955
 20
69.071570368
 10
246.1120334448
 20
69.1027046984
 10
245.8628770815
 20
69.2380901021
 10
245.6253413946
 20
69.4624659638
 10
245.4261975353
 20
69.7505437009
 10
245.3547507246
 20
69.8937568742
  0
LINE
  5
278
330
1F
100
AcDbEntity
  8
0
  6
Continuous
 62
     7
370
    25
100
AcDbLine
 10
245.5556555318
 20
74.9627911046
 30
0.0
 11
246.1460551712
 21
70.7554431852
 31
0.0
  0
ARC
  5
279
330
1F
100
AcDbEntity
  8
0
  6
Continuous
 62
     7
370
    25
100
AcDbCircle
 10
250.1712079775
 20
33.9208002869
 30
0.0
 40
3.267322561558028
100
AcDbArc
 50
238.4246888122
 51
277.0579101714
  0
LINE
  5
27A
330
1F
100
AcDbEntity
  8
0
  6
Continuous
 62
     7
370
    25
100
AcDbLine
 10
248.460376304
 20
31.1371962011
 30
0.0
 11
242.096415218
 21
34.8110327362
 31
0.0
  0
LWPOLYLINE
  5
27B
330
1F
100
AcDbEntity
  8
0
  6
Continuous
 62
     7
370
    25
100
AcDbPolyline
 90
       17
 70
   128
 43
0.0
 10
242.096415218
 20
34.8110327362
 10
241.5531861339
 20
35.1806140457
 10
241.0415059416
 20
35.6428101441
 10
240.5717918273
 20
36.1882112069
 10
240.153605528
 20
36.8057149948
 10
239.7954600486
 20
37.4827479353
 10
239.5046461353
 20
38.2055333547
 10
239.2870841033
 20
38.9593488747
 10
239.1472033229
 20
39.728856053
 10
239.0878500235
 20
40.4983878214
 10
239.1102332928
 20
41.2522792717
 10
239.2138980765
 20
41.9751836156
 10
239.396733081
 20
42.6523809221
 10
239.6550168712
 20
43.27008914
 10
239.9834916278
 20
43.8157332976
 10
240.3754698313
 20
44.27820482
 10
240.572587349
 20
44.4583672595
  0
LINE
  5
27C
330
1F
100
AcDbEntity
  8
0
  6
Continuous
 62
     7
370
    25
100
AcDbLine
 10
242.5081938793
 20
36.8233606585
 30
0.0
 11
248.8721549652
 21
33.1495241234
 31
0.0
  0
LWPOLYLINE
  5
27D
330
1F
100
AcDbEntity
  8
0
  6
Continuous
 62
     7
370
    25
100
AcDbPolyline
 90
       10
 70
   128
 43
0.0
 10
248.8721549652
 20
33.1495241234
 10
249.3045569356
 20
32.9552445655
 10
249.7424887041
 20
32.8665615683
 10
250.1710368719
 20
32.8865020877
 10
250.5756084221
 20
33.0143789393
 10
250.9424256155
 20
33.2458450174
 10
251.2589971801
 20
33.5730159497
 10
251.5145427423
 20
33.9847490185
 10
251.7003596363
 20
34.4670230268
 10
251.7929839213
 20
34.8832579915
  0
LINE
  5
27E
330
1F
100
AcDbEntity
  8
0
  6
Continuous
 62
     7
370
    25
100
AcDbLine
 10
249.2528870395
 20
39.4298620738
 30
0.0
 11
243.6977768247
 21
42.6367589402
 31
0.0
  0
LWPOLYLINE
  5
27F
330
1F
100
AcDbEntity
  8
0
  6
Continuous
 62
     7
370
    25
100
AcDbPolyline
 90
       18
 70
   128
 43
0.0
 10
243.6977768247
 20
42.6367589402
 10
243.2653748544
 20
42.8310400189
 10
242.8274430858
 20
42.9197214952
 10
242.398894918
 20
42.8997840177
 10
241.9943236971
 20
42.7719039341
 10
241.6275065037
 20
42.540437856
 10
241.310934939
 20
42.2132669238
 10
241.0553893769
 20
41.801533855
 10
240.8695718244
 20
41.3192602268
 10
240.7598108941
 20
40.7828673792
 10
240.7298444848
 20
40.2106228011
 10
240.7806920234
 20
39.6220127601
 10
240.9106228548
 20
39.0370814813
 10
241.11521156
 20
38.4757497992
 10
241.3874917259
 20
37.957134769
 10
241.7181907166
 20
37.4988901946
 10
242.0960474209
 20
37.1166285307
 10
242.5081938793
 20
36.8233606585
  0
ELLIPSE
  5
280
330
1F
100
AcDbEntity
  8
0
  6
Continuous
 62
     7
370
    25
100
AcDbEllipse
 10
255.8494647076
 20
57.4562200543
 30
0.0
 11
17.57699263901216
 21
5.558986141409052
 31
0.0
210
0.0
220
0.0
230
1.0
 40
0.6978514545
 41
2.255903903058772
 42
2.606390329028231
  0
LINE
  5
281
330
1F
100
AcDbEntity
  8
0
  6
Continuous
 62
     7
370
    25
100
AcDbLine
 10
251.0000299854
 20
58.0818203814
 30
0.0
 11
241.7235356284
 21
63.4370265849
 31
0.0
  0
ARC
  5
282
330
1F
100
AcDbEntity
  8
0
  6
Continuous
 62
     7
370
    25
100
AcDbCircle
 10
250.3360470379
 20
51.6489865337
 30
0.0
 40
14.59908356805633
100
AcDbArc
 50
123.855955882
 51
126.1524008177
  0
SPLINE
  5
283
330
1F
100
AcDbEntity
  8
0
  6
Continuous
 62
     7
370
    25
100
AcDbSpline
210
0.0
220
0.0
230
1.0
 70
     8
 71
     3
 72
    12
 73
     8
 74
     0
 42
0.000000001
 43
0.00000001
 40
0.0
 40
0.0
 40
0.0
 40
0.0
 40
0.1889984817431482
 40
0.3840354718481003
 40
0.572968219634937
 40
0.7668521865481578
 40
1.0
 40
1.0
 40
1.0
 40
1.0
 10
238.0548650108145
 20
39.86771691629711
 30
0.0
 10
238.0408378118661
 20
40.11491802945019
 30
0.0
 10
238.012335244453
 20
40.61721834030737
 30
0.0
 10
237.9962757707421
 20
41.31505471211545
 30
0.0
 10
237.9959149892816
 20
41.95125704504715
 30
0.0
 10
238.0113433706783
 20
42.55198182382091
 30
0.0
 10
238.0394949882773
 20
42.88171483367633
 30
0.0
 10
238.0548650108145
 20
43.0617401474948
 30
0.0
  0
ELLIPSE
  5
284
330
1F
100
AcDbEntity
  8
0
  6
Continuous
 62
     7
370
    25
100
AcDbEllipse
 10
255.8494647076
 20
21.8855030958
 30
0.0
 11
18.00000008180805
 21
-10.3928679294614
 31
0.0
210
0.0
220
0.0
230
1.0
 40
0.0000703729
 41
2.990418962246733
 42
3.035908940559679
  0
ARC
  5
285
330
1F
100
AcDbEntity
  8
0
  6
Continuous
 62
     7
370
    25
100
AcDbCircle
 10
243.907372255
 20
33.3194275587
 30
0.0
 40
6.057907732884002
100
AcDbArc
 50
180.0222462827
 51
190.4513444444
  0
SPLINE
  5
286
330
1F
100
AcDbEntity
  8
0
  6
Continuous
 62
     7
370
    25
100
AcDbSpline
210
0.0
220
0.0
230
1.0
 70
     8
 71
     3
 72
    12
 73
     8
 74
     0
 42
0.000000001
 43
0.00000001
 40
0.0
 40
0.0
 40
0.0
 40
0.0
 40
0.1390692387082125
 40
0.3742809654862852
 40
0.6094452842579662
 40
0.8443172518784863
 40
1.0
 40
1.0
 40
1.0
 40
1.0
 10
243.2178106952567
 20
65.45528885716354
 30
0.0
 10
243.2038759715024
 20
65.36767592908797
 30
0.0
 10
243.1663730563431
 20
65.13188078406667
 30
0.0
 10
243.0097449760556
 20
64.72488733117207
 30
0.0
 10
242.7450769781199
 20
64.28968208983007
 30
0.0
 10
242.4590267747294
 20
63.96369611507281
 30
0.0
 10
242.2758247408674
 20
63.82710776565799
 30
0.0
 10
242.2027968271245
 20
63.77266097820112
 30
0.0
  0
ELLIPSE
  5
287
330
1F
100
AcDbEntity
  8
0
  6
Continuous
 62
     7
370
    25
100
AcDbEllipse
 10
255.5281575828
 20
68.7729496746
 30
0.0
 11
20.96172392994643
 21
-1.990618924231015
 31
0.0
210
0.0
220
0.0
230
1.0
 40
0.5030133586
 41
1.939088722333803
 42
2.261129644728892
  0
LINE
  5
288
330
1F
100
AcDbEntity
  8
0
  6
Continuous
 62
     7
370
    25
100
AcDbLine
 10
246.2152803615
 20
75.3267932663
 30
0.0
 11
245.5556555318
 21
74.9627911046
 31
0.0
  0
LINE
  5
289
330
1F
100
AcDbEntity
  8
0
  6
Continuous
 62
     7
370
    25
100
AcDbLine
 10
247.0749553928
 20
75.6827313321
 30
0.0
 11
246.2152803615
 21
75.3267932663
 31
0.0
  0
LINE
  5
28A
330
1F
100
AcDbEntity
  8
0
  6
Continuous
 62
     7
370
    25
100
AcDbLine
 10
246.9700433258
 20
75.7432957792
 30
0.0
 11
247.0749553928
 21
75.6827313321
 31
0.0
  0
LINE
  5
28B
330
1F
100
AcDbEntity
  8
0
  6
Continuous
 62
     7
370
    25
100
AcDbLine
 10
254.2774945429
 20
76.2312559644
 30
0.0
 11
248.9156212077
 21
79.3265995546
 31
0.0
  0
SPLINE
  5
28C
330
1F
100
AcDbEntity
  8
0
  6
Continuous
 62
     7
370
    25
100
AcDbSpline
210
0.0
220
0.0
230
1.0
 70
     8
 71
     3
 72
     9
 73
     5
 74
     0
 42
0.000000001
 43
0.00000001
 40
0.0
 40
0.0
 40
0.0
 40
0.0
 40
0.7510400148142009
 40
1.0
 40
1.0
 40
1.0
 40
1.0
 10
243.1962933914233
 20
65.64855047989957
 30
0.0
 10
243.2083256460898
 20
65.59901121006202
 30
0.0
 10
243.2243464364993
 20
65.53305031735272
 30
0.0
 10
243.2191134896314
 20
65.47078934733644
 30
0.0
 10
243.2178106952567
 20
65.45528885716354
 30
0.0
  0
LINE
  5
28D
330
1F
100
AcDbEntity
  8
0
  6
Continuous
 62
     7
370
    25
100
AcDbLine
 10
253.9499694075
 20
22.9839167937
 30
0.0
 11
237.9499694074
 21
32.2205201871
 31
0.0
  0
LINE
  5
28E
330
1F
100
AcDbEntity
  8
0
  6
Continuous
 62
     7
370
    25
100
AcDbLine
 10
246.12502305
 20
37.7922023374
 30
0.0
 11
251.7256055162
 21
34.5590548991
 31
0.0
  0
ELLIPSE
  5
28F
330
1F
100
AcDbEntity
  8
0
  6
Continuous
 62
     7
370
    25
100
AcDbEllipse
 10
247.7845256156
 20
40.9841037763
 30
0.0
 11
4.764309169953265
 21
3.65550291430916
 31
0.0
210
0.0
220
0.0
230
1.0
 40
0.4141976934
 41
1.849675108621413
 42
2.065337235202184
  0
SPLINE
  5
290
330
1F
100
AcDbEntity
  8
0
  6
Continuous
 62
     7
370
    25
100
AcDbSpline
210
0.0
220
0.0
230
1.0
 70
     8
 71
     3
 72
    13
 73
     9
 74
     0
 42
0.000000001
 43
0.00000001
 40
0.0
 40
0.0
 40
0.0
 40
0.0
 40
0.1565604533548337
 40
0.312866205293293
 40
0.4759628372426143
 40
0.6479578307939184
 40
0.8246435466701623
 40
1.0
 40
1.0
 40
1.0
 40
1.0
 10
244.1905617287264
 20
40.98603255118768
 30
0.0
 10
244.1805042463651
 20
40.97153991913533
 30
0.0
 10
244.1604056437246
 20
40.94257823246561
 30
0.0
 10
244.1440481813547
 20
40.88496852704485
 30
0.0
 10
244.1403828998876
 20
40.8231177762295
 30
0.0
 10
244.1519634812769
 20
40.76173903105177
 30
0.0
 10
244.1779102954591
 20
40.7070799135706
 30
0.0
 10
244.2048111029921
 20
40.68607622892407
 30
0.0
 10
244.2182107198941
 20
40.67561404010508
 30
0.0
  0
ELLIPSE
  5
291
330
1F
100
AcDbEntity
  8
0
  6
Continuous
 62
     7
370
    25
100
AcDbEllipse
 10
244.9838310227
 20
40.233882067
 30
0.0
 11
3.980420838935572
 21
-2.29834604644882
 31
0.0
210
0.0
220
0.0
230
1.0
 40
0.0000663464
 41
4.518874472951126
 42
4.825120923959636
  0
ARC
  5
292
330
1F
100
AcDbEntity
  8
0
  6
Continuous
 62
     7
370
    25
100
AcDbCircle
 10
249.6294008919
 20
41.4654822833
 30
0.0
 40
4.454673640675824
100
AcDbArc
 50
199.5465389158
 51
206.8317767317
  0
ELLIPSE
  5
293
330
1F
100
AcDbEntity
  8
0
  6
Continuous
 62
     7
370
    25
100
AcDbEllipse
 10
250.5646054651
 20
41.7288034168
 30
0.0
 11
4.764309169953236
 21
3.655502914309167
 31
0.0
210
0.0
220
0.0
230
1.0
 40
0.4141976934
 41
2.645073273888378
 42
3.311544284370189
  0
ELLIPSE
  5
294
330
1F
100
AcDbEntity
  8
0
  6
Continuous
 62
     7
370
    25
100
AcDbEllipse
 10
256.8778786136
 20
68.7357189286
 30
0.0
 11
20.92167309492049
 21
2.547525207582368
 31
0.0
210
0.0
220
0.0
230
1.0
 40
0.6426220098
 41
4.954859584612225
 42
5.284118446380365
  0
LWPOLYLINE
  5
295
330
1F
100
AcDbEntity
  8
0
  6
Continuous
 62
     7
370
    25
100
AcDbPolyline
 90
        3
 70
   128
 43
0.0
 10
268.8494503264
 20
54.5068116413
 10
268.9473166257
 20
55.086667315
 10
269.5750728609
 20
58.8075874475
  0
ARC
  5
296
330
1F
100
AcDbEntity
  8
0
  6
Continuous
 62
     7
370
    25
100
AcDbCircle
 10
259.9789949781
 20
74.090277865
 30
0.0
 40
21.49877037001182
100
AcDbArc
 50
294.3684511413
 51
296.6632787414
  0
LWPOLYLINE
  5
297
330
1F
100
AcDbEntity
  8
0
  6
Continuous
 62
     7
370
    25
100
AcDbPolyline
 90
        3
 70
   128
 43
0.0
 10
270.5038710081
 20
55.221778026
 10
270.4287521532
 20
54.7732009142
 10
269.7527786062
 20
50.7366228927
  0
ARC
  5
298
330
1F
100
AcDbEntity
  8
0
  6
Continuous
 62
     7
370
    25
100
AcDbCircle
 10
257.4036982429
 20
73.8940934782
 30
0.0
 40
26.24439425366743
100
AcDbArc
 50
272.1396755233
 51
298.0694614277
  0
ELLIPSE
  5
299
330
1F
100
AcDbEntity
  8
0
  6
Continuous
 62
     7
370
    25
100
AcDbEllipse
 10
278.4499258036
 20
201.8780536221
 30
0.0
 11
31.79923240455264
 21
163.1430499885445
 31
0.0
210
0.0
220
0.0
230
1.0
 40
0.1648399561
 41
3.507655836860808
 42
3.610402015420474
  0
SPLINE
  5
29A
330
1F
100
AcDbEntity
  8
0
  6
Continuous
 62
     7
370
    25
100
AcDbSpline
210
0.0
220
0.0
230
1.0
 70
     8
 71
     3
 72
    15
 73
    11
 74
     0
 42
0.000000001
 43
0.00000001
 40
0.0
 40
0.0
 40
0.0
 40
0.0
 40
0.1419729366363391
 40
0.2439259028207966
 40
0.3469412902246656
 40
0.4199133329559541
 40
0.4927368852122716
 40
0.604260100266948
 40
0.802220939942501
 40
1.0
 40
1.0
 40
1.0
 40
1.0
 10
262.8358355771985
 20
55.06946386124535
 30
0.0
 10
262.907894968124
 20
55.03931721129423
 30
0.0
 10
263.0317013244948
 20
54.98752178478146
 30
0.0
 10
263.162258938341
 20
54.8747320976036
 30
0.0
 10
263.2169021011816
 20
54.75288068566147
 30
0.0
 10
263.1970452849835
 20
54.62344797973226
 30
0.0
 10
263.1195526006013
 20
54.48883262172988
 30
0.0
 10
262.9338383259312
 20
54.30957536176774
 30
0.0
 10
262.6242628505582
 20
54.122034469981
 30
0.0
 10
262.3629120389855
 20
54.01976268091977
 30
0.0
 10
262.2322966577895
 20
53.96865027520943
 30
0.0
  0
ELLIPSE
  5
29B
330
1F
100
AcDbEntity
  8
0
  6
Continuous
 62
     7
370
    25
100
AcDbEllipse
 10
278.4499258036
 20
201.8780536221
 30
0.0
 11
31.79923240455264
 21
163.1430499885445
 31
0.0
210
0.0
220
0.0
230
1.0
 40
0.1648399561
 41
3.626084746480031
 42
3.642982206785903
  0
LINE
  5
29C
330
1F
100
AcDbEntity
  8
0
  6
Continuous
 62
     7
370
    25
100
AcDbLine
 10
257.5275453744
 20
47.4722314184
 30
0.0
 11
258.3835511604
 21
47.6679973524
 31
0.0
  0
SPLINE
  5
29D
330
1F
100
AcDbEntity
  8
0
  6
Continuous
 62
     7
370
    25
100
AcDbSpline
210
0.0
220
0.0
230
1.0
 70
     8
 71
     3
 72
    10
 73
     6
 74
     0
 42
0.000000001
 43
0.00000001
 40
0.0
 40
0.0
 40
0.0
 40
0.0
 40
0.3830123297538292
 40
0.8724442939301914
 40
1.0
 40
1.0
 40
1.0
 40
1.0
 10
257.2593932947116
 20
47.26099911944669
 30
0.0
 10
257.2849635483421
 20
47.30318933127318
 30
0.0
 10
257.343208727782
 20
47.39929226767573
 30
0.0
 10
257.4471907776693
 20
47.45231778414698
 30
0.0
 10
257.5137789671431
 20
47.46881980024907
 30
0.0
 10
257.5275453743726
 20
47.47223141836881
 30
0.0
  0
ELLIPSE
  5
29E
330
1F
100
AcDbEntity
  8
0
  6
Continuous
 62
     7
370
    25
100
AcDbEllipse
 10
256.5565714888
 20
94.8869335967
 30
0.0
 11
11.71484798666523
 21
62.58058119270809
 31
0.0
210
0.0
220
0.0
230
1.0
 40
0.2183760757
 41
3.699048745435457
 42
3.88931867470713
  0
LINE
  5
29F
330
1F
100
AcDbEntity
  8
0
  6
Continuous
 62
     7
370
    25
100
AcDbLine
 10
247.1343738881
 20
44.3014437609
 30
0.0
 11
253.8450751212
 21
40.4274383996
 31
0.0
  0
LINE
  5
2A0
330
1F
100
AcDbEntity
  8
0
  6
Continuous
 62
     7
370
    25
100
AcDbLine
 10
247.1343738881
 20
44.3014437609
 30
0.0
 11
249.0836182166
 21
53.8272502149
 31
0.0
  0
ELLIPSE
  5
2A1
330
1F
100
AcDbEntity
  8
0
  6
Continuous
 62
     7
370
    25
100
AcDbEllipse
 10
256.1546859738
 20
49.7452098626
 30
0.0
 11
-1.777729029160753
 21
10.40328698327402
 31
0.0
210
0.0
220
0.0
230
1.0
 40
0.6846783801
 41
5.766386745679761
 42
7.337183072474637
  0
LINE
  5
2A2
330
1F
100
AcDbEntity
  8
0
  6
Continuous
 62
     7
370
    25
100
AcDbLine
 10
258.1285416534
 20
59.3912884175
 30
0.0
 11
263.4904149887
 21
56.2959448273
 31
0.0
  0
ELLIPSE
  5
2A3
330
1F
100
AcDbEntity
  8
0
  6
Continuous
 62
     7
370
    25
100
AcDbEllipse
 10
262.081085698
 20
55.030096983
 30
0.0
 11
-0.2317279040618132
 21
1.050122130208209
 31
0.0
210
0.0
220
0.0
230
1.0
 40
0.6979108556
 41
4.596643043220017
 42
9.316555342439669
  0
LINE
  5
2A4
330
1F
100
AcDbEntity
  8
0
  6
Continuous
 62
     7
370
    25
100
AcDbLine
 10
264.3524238812
 20
63.8667252644
 30
0.0
 11
266.8365472786
 21
62.4326713518
 31
0.0
  0
LINE
  5
2A5
330
1F
100
AcDbEntity
  8
0
  6
Continuous
 62
     7
370
    25
100
AcDbLine
 10
265.3310808036
 20
61.2575919124
 30
0.0
 11
265.7160215535
 21
61.5238181714
 31
0.0
  0
LINE
  5
2A6
330
1F
100
AcDbEntity
  8
0
  6
Continuous
 62
     7
370
    25
100
AcDbLine
 10
269.5750728609
 20
58.8075874475
 30
0.0
 11
265.3310808036
 21
61.2575919124
 31
0.0
  0
ELLIPSE
  5
2A7
330
1F
100
AcDbEntity
  8
0
  6
Continuous
 62
     7
370
    25
100
AcDbEllipse
 10
264.3524237514
 20
55.6399964424
 30
0.0
 11
-4.962041686331986
 21
8.725530780669885
 31
0.0
210
0.0
220
0.0
230
1.0
 40
0.5773485232
 41
5.505350278253511
 42
6.344735879379518
  0
ARC
  5
2A8
330
1F
100
AcDbEntity
  8
0
  6
Continuous
 62
     7
370
    25
100
AcDbCircle
 10
262.0699891585
 20
61.9363259693
 30
0.0
 40
14.5990835680751
100
AcDbArc
 50
303.855955882
 51
306.1524008177
  0
ELLIPSE
  5
2A9
330
1F
100
AcDbEntity
  8
0
  6
Continuous
 62
     7
370
    25
100
AcDbEllipse
 10
256.5565714888
 20
57.0480159984
 30
0.0
 11
17.94704166160881
 21
-3.359618285242043
 31
0.0
210
0.0
220
0.0
230
1.0
 40
0.4106849769
 41
5.691447854222957
 42
6.041934280192422
  0
ELLIPSE
  5
2AA
330
1F
100
AcDbEntity
  8
0
  6
Continuous
 62
     7
370
    25
100
AcDbEllipse
 10
256.5565714888
 20
61.8960692282
 30
0.0
 11
18.00000003266842
 21
-10.39286790108917
 31
0.0
210
0.0
220
0.0
230
1.0
 40
0.0000703729
 41
0.0000406320180884
 42
0.3180194087820878
  0
ARC
  5
2AB
330
1F
100
AcDbEntity
  8
0
  6
Continuous
 62
     7
370
    25
100
AcDbCircle
 10
268.3979090635
 20
32.9187848844
 30
0.0
 40
6.15867013299957
100
AcDbArc
 50
342.3767348726
 51
359.9077714436
  0
ELLIPSE
  5
2AC
330
1F
100
AcDbEntity
  8
0
  6
Continuous
 62
     7
370
    25
100
AcDbEllipse
 10
256.5565714888
 20
35.151878013
 30
0.0
 11
17.94704166160881
 21
-3.359618285241865
 31
0.0
210
0.0
220
0.0
230
1.0
 40
0.4106849769
 41
6.08110427168226
 42
6.180466845993165
  0
ELLIPSE
  5
2AD
330
1F
100
AcDbEntity
  8
0
  6
Continuous
 62
     7
370
    25
100
AcDbEllipse
 10
256.5565714888
 20
59.8554559423
 30
0.0
 11
-15.17192295029841
 21
47.97219694982655
 31
0.0
210
0.0
220
0.0
230
1.0
 40
0.2019023318
 41
3.988576052867067
 42
3.995004618404727
  0
ELLIPSE
  5
2AE
330
1F
100
AcDbEntity
  8
0
  6
Continuous
 62
     7
370
    25
100
AcDbEllipse
 10
256.5565714888
 20
26.5013900285
 30
0.0
 11
12.72843921217549
 21
22.04510905127174
 31
0.0
210
0.0
220
0.0
230
1.0
 40
0.5773346305
 41
5.212590425799776
 42
5.288737323956648
  0
SPLINE
  5
2AF
330
1F
100
AcDbEntity
  8
0
  6
Continuous
 62
     7
370
    25
100
AcDbSpline
210
0.0
220
0.0
230
1.0
 70
     8
 71
     3
 72
    14
 73
    10
 74
     0
 42
0.000000001
 43
0.00000001
 40
0.0
 40
0.0
 40
0.0
 40
0.0
 40
0.149344051128246
 40
0.2994003246623441
 40
0.4346797346358744
 40
0.5617802931873661
 40
0.6953406553388297
 40
0.8463376764258849
 40
0.9999999999999999
 40
0.9999999999999999
 40
0.9999999999999999
 40
0.9999999999999999
 10
274.1645337451017
 20
32.35375281995584
 30
0.0
 10
274.1673098484599
 20
32.37224998756263
 30
0.0
 10
274.1728752944246
 20
32.40933253584602
 30
0.0
 10
274.1769339096471
 20
32.46373754786655
 30
0.0
 10
274.1769087711717
 20
32.50680489737174
 30
0.0
 10
274.1733304841805
 20
32.53580897852738
 30
0.0
 10
274.1666640964592
 20
32.55115465422779
 30
0.0
 10
274.1572118599685
 20
32.55240571402054
 30
0.0
 10
274.1494099106879
 20
32.540685247597
 30
0.0
 10
274.1454748084963
 20
32.5347737463233
 30
0.0
  0
ELLIPSE
  5
2B0
330
1F
100
AcDbEntity
  8
0
  6
Continuous
 62
     7
370
    25
100
AcDbEllipse
 10
256.5565714888
 20
36.8722906033
 30
0.0
 11
17.94704166160881
 21
-3.359618285241886
 31
0.0
210
0.0
220
0.0
230
1.0
 40
0.4106849769
 41
6.04285701037501
 42
6.145781434318987
  0
ELLIPSE
  5
2B1
330
1F
100
AcDbEntity
  8
0
  6
Continuous
 62
     7
370
    25
100
AcDbEllipse
 10
256.5565714888
 20
59.8554559423
 30
0.0
 11
-15.17192295029832
 21
47.97219694982856
 31
0.0
210
0.0
220
0.0
230
1.0
 40
0.2019023318
 41
4.026823314174329
 42
4.033124017292804
  0
ELLIPSE
  5
2B2
330
1F
100
AcDbEntity
  8
0
  6
Continuous
 62
     7
370
    25
100
AcDbEllipse
 10
256.5565714888
 20
28.8515173319
 30
0.0
 11
12.72843921217549
 21
22.04510905127174
 31
0.0
210
0.0
220
0.0
230
1.0
 40
0.5773346305
 41
5.17447102691171
 42
5.248941961787612
  0
SPLINE
  5
2B3
330
1F
100
AcDbEntity
  8
0
  6
Continuous
 62
     7
370
    25
100
AcDbSpline
210
0.0
220
0.0
230
1.0
 70
     8
 71
     3
 72
    14
 73
    10
 74
     0
 42
0.000000001
 43
0.00000001
 40
0.0
 40
0.0
 40
0.0
 40
0.0
 40
0.1505856196071443
 40
0.301779243729728
 40
0.4401958124010052
 40
0.5716604086007154
 40
0.7091825723324853
 40
0.8625281199624524
 40
1.0
 40
1.0
 40
1.0
 40
1.0
 10
274.0019456915259
 20
33.80453888398655
 30
0.0
 10
274.0051932914333
 20
33.82299478390709
 30
0.0
 10
274.0117016037577
 20
33.85998110129186
 30
0.0
 10
274.0163671003525
 20
33.91423151278644
 30
0.0
 10
274.0162539493433
 20
33.95756997736534
 30
0.0
 10
274.0118616082439
 20
33.98704534519419
 30
0.0
 10
274.0037307122685
 20
34.00246914294099
 30
0.0
 10
273.9927633870934
 20
34.00326373927285
 30
0.0
 10
273.9840464903143
 20
33.99240507719824
 30
0.0
 10
273.9799259388125
 20
33.98727209496239
 30
0.0
  0
ELLIPSE
  5
2B4
330
1F
100
AcDbEntity
  8
0
  6
Continuous
 62
     7
370
    25
100
AcDbEllipse
 10
256.5565714888
 20
38.5927031936
 30
0.0
 11
17.94704166160881
 21
-3.359618285241908
 31
0.0
210
0.0
220
0.0
230
1.0
 40
0.4106849769
 41
6.005336290446355
 42
6.106108476434376
  0
ELLIPSE
  5
2B5
330
1F
100
AcDbEntity
  8
0
  6
Continuous
 62
     7
370
    25
100
AcDbEllipse
 10
256.5565714888
 20
59.8554559423
 30
0.0
 11
-15.17192295029833
 21
47.97219694982856
 31
0.0
210
0.0
220
0.0
230
1.0
 40
0.2019023318
 41
4.064344034102984
 42
4.070532730064511
  0
ELLIPSE
  5
2B6
330
1F
100
AcDbEntity
  8
0
  6
Continuous
 62
     7
370
    25
100
AcDbEllipse
 10
256.5565714888
 20
31.2016446352
 30
0.0
 11
12.72843921217549
 21
22.04510905127174
 31
0.0
210
0.0
220
0.0
230
1.0
 40
0.5773346305
 41
5.137062314139998
 42
5.210067459037846
  0
SPLINE
  5
2B7
330
1F
100
AcDbEntity
  8
0
  6
Continuous
 62
     7
370
    25
100
AcDbSpline
210
0.0
220
0.0
230
1.0
 70
     8
 71
     3
 72
    14
 73
    10
 74
     0
 42
0.000000001
 43
0.00000001
 40
0.0
 40
0.0
 40
0.0
 40
0.0
 40
0.1518131866256735
 40
0.3041345646492462
 40
0.4454637763307632
 40
0.5809500065080615
 40
0.7220134989651904
 40
0.8772852363539395
 40
1.0
 40
1.0
 40
1.0
 40
1.0
 10
273.8164462159729
 20
35.26855371190337
 30
0.0
 10
273.8201409436574
 20
35.28697113745051
 30
0.0
 10
273.8275427670484
 20
35.32386764048325
 30
0.0
 10
273.8327657758786
 20
35.37799753306658
 30
0.0
 10
273.8325396454778
 20
35.42159873159174
 30
0.0
 10
273.8273187398319
 20
35.45151114367909
 30
0.0
 10
273.8177176381213
 20
35.46699969301343
 30
0.0
 10
273.8053455563034
 20
35.46741819305375
 30
0.0
 10
273.7958547995464
 20
35.45733141474514
 30
0.0
 10
273.7916651861374
 20
35.45287869271913
 30
0.0
  0
ELLIPSE
  5
2B8
330
1F
100
AcDbEntity
  8
0
  6
Continuous
 62
     7
370
    25
100
AcDbEllipse
 10
256.5565714888
 20
40.3131157839
 30
0.0
 11
17.94704166160881
 21
-3.359618285241915
 31
0.0
210
0.0
220
0.0
230
1.0
 40
0.4106849769
 41
5.968452102443387
 42
6.067340792330894
  0
ELLIPSE
  5
2B9
330
1F
100
AcDbEntity
  8
0
  6
Continuous
 62
     7
370
    25
100
AcDbEllipse
 10
256.5565714888
 20
59.8554559423
 30
0.0
 11
-15.17192295029832
 21
47.97219694982854
 31
0.0
210
0.0
220
0.0
230
1.0
 40
0.2019023318
 41
4.101228222105947
 42
4.107318798561492
  0
ELLIPSE
  5
2BA
330
1F
100
AcDbEntity
  8
0
  6
Continuous
 62
     7
370
    25
100
AcDbEllipse
 10
256.5565714888
 20
33.5517719386
 30
0.0
 11
12.72843921217549
 21
22.04510905127174
 31
0.0
210
0.0
220
0.0
230
1.0
 40
0.5773346305
 41
5.100276245643016
 42
5.171997593763713
  0
SPLINE
  5
2BB
330
1F
100
AcDbEntity
  8
0
  6
Continuous
 62
     7
370
    25
100
AcDbSpline
210
0.0
220
0.0
230
1.0
 70
     8
 71
     3
 72
    14
 73
    10
 74
     0
 42
0.000000001
 43
0.00000001
 40
0.0
 40
0.0
 40
0.0
 40
0.0
 40
0.1529939734175136
 40
0.3064251797790953
 40
0.4504720887646336
 40
0.5896241396381213
 40
0.7338583423525479
 40
0.8906590553297544
 40
1.0
 40
1.0
 40
1.0
 40
1.0
 10
273.6095065068734
 20
36.74494344167852
 30
0.0
 10
273.613629565151
 20
36.76332023074232
 30
0.0
 10
273.6218874647645
 20
36.80012632687053
 30
0.0
 10
273.6276171394998
 20
36.85416307807441
 30
0.0
 10
273.627265389535
 20
36.89801910279681
 30
0.0
 10
273.621201038983
 20
36.92833687166865
 30
0.0
 10
273.6101377825579
 20
36.94390044440168
 30
0.0
 10
273.5964520682828
 20
36.94399512283691
 30
0.0
 10
273.5863007104958
 20
36.93462042785033
 30
0.0
 10
273.582130153132
 20
36.93076895260632
 30
0.0
  0
ELLIPSE
  5
2BC
330
1F
100
AcDbEntity
  8
0
  6
Continuous
 62
     7
370
    25
100
AcDbEllipse
 10
256.5565714888
 20
42.0335283742
 30
0.0
 11
17.94704166160881
 21
-3.359618285241908
 31
0.0
210
0.0
220
0.0
230
1.0
 40
0.4106849769
 41
5.932125234106786
 42
6.029364398318614
  0
ELLIPSE
  5
2BD
330
1F
100
AcDbEntity
  8
0
  6
Continuous
 62
     7
370
    25
100
AcDbEllipse
 10
256.5565714888
 20
59.8554559423
 30
0.0
 11
-15.17192295029832
 21
47.97219694982856
 31
0.0
210
0.0
220
0.0
230
1.0
 40
0.2019023318
 41
4.137555090442545
 42
4.143559852143286
  0
ELLIPSE
  5
2BE
330
1F
100
AcDbEntity
  8
0
  6
Continuous
 62
     7
370
    25
100
AcDbEllipse
 10
256.5565714888
 20
35.9018992419
 30
0.0
 11
12.72843921217549
 21
22.04510905127174
 31
0.0
210
0.0
220
0.0
230
1.0
 40
0.5773346305
 41
5.064035192061219
 42
5.134632275905679
  0
SPLINE
  5
2BF
330
1F
100
AcDbEntity
  8
0
  6
Continuous
 62
     7
370
    25
100
AcDbSpline
210
0.0
220
0.0
230
1.0
 70
     8
 71
     3
 72
    14
 73
    10
 74
     0
 42
0.000000001
 43
0.00000001
 40
0.0
 40
0.0
 40
0.0
 40
0.0
 40
0.1541237600787138
 40
0.3086147289911951
 40
0.4551642162810604
 40
0.5976651823198892
 40
0.7447139486827389
 40
0.9027238296488244
 40
1.0
 40
1.0
 40
1.0
 40
1.0
 10
273.3823662742637
 20
38.23299734713564
 30
0.0
 10
273.3868986290936
 20
38.25133038720148
 30
0.0
 10
273.3959741373527
 20
38.28804014686873
 30
0.0
 10
273.4021795305737
 20
38.34199537963119
 30
0.0
 10
273.4016803089704
 20
38.3860974161954
 30
0.0
 10
273.3947753169348
 20
38.41679614635064
 30
0.0
 10
273.3822549271937
 20
38.43244966589145
 30
0.0
 10
273.3673400731869
 20
38.43229228844719
 30
0.0
 10
273.3566200401305
 20
38.42356340136755
 30
0.0
 10
273.3525351958689
 20
38.42023727876057
 30
0.0
  0
ELLIPSE
  5
2C0
330
1F
100
AcDbEntity
  8
0
  6
Continuous
 62
     7
370
    25
100
AcDbEllipse
 10
256.5565714888
 20
43.7539409645
 30
0.0
 11
17.94704166160881
 21
-3.359618285241908
 31
0.0
210
0.0
220
0.0
230
1.0
 40
0.4106849769
 41
5.896285185523007
 42
5.992080971967136
  0
ELLIPSE
  5
2C1
330
1F
100
AcDbEntity
  8
0
  6
Continuous
 62
     7
370
    25
100
AcDbEllipse
 10
256.5565714888
 20
59.8554559423
 30
0.0
 11
-15.17192295029833
 21
47.97219694982856
 31
0.0
210
0.0
220
0.0
230
1.0
 40
0.2019023318
 41
4.173395139026317
 42
4.179325108256868
  0
ELLIPSE
  5
2C2
330
1F
100
AcDbEntity
  8
0
  6
Continuous
 62
     7
370
    25
100
AcDbEllipse
 10
256.5565714888
 20
38.2520265453
 30
0.0
 11
12.72843921217555
 21
22.04510905127169
 31
0.0
210
0.0
220
0.0
230
1.0
 40
0.5773346305
 41
5.028269935947637
 42
5.09788421804799
  0
SPLINE
  5
2C3
330
1F
100
AcDbEntity
  8
0
  6
Continuous
 62
     7
370
    25
100
AcDbSpline
210
0.0
220
0.0
230
1.0
 70
     8
 71
     3
 72
    14
 73
    10
 74
     0
 42
0.000000001
 43
0.00000001
 40
0.0
 40
0.0
 40
0.0
 40
0.0
 40
0.1551875989964802
 40
0.3106831551254914
 40
0.4595291528143317
 40
0.6050683347556942
 40
0.7546002063567471
 40
0.9135456227133306
 40
1.0
 40
1.0
 40
1.0
 40
1.0
 10
273.1360653599222
 20
39.73211133795573
 30
0.0
 10
273.1409915670782
 20
39.7503951964377
 30
0.0
 10
273.1508537570465
 20
39.78699919622751
 30
0.0
 10
273.1575028331903
 20
39.84088236362822
 30
0.0
 10
273.1568508382348
 20
39.8852169272801
 30
0.0
 10
273.1491009911499
 20
39.91628135184376
 30
0.0
 10
273.1351439809441
 20
39.93203935944615
 30
0.0
 10
273.1190660489939
 20
39.93170253270387
 30
0.0
 10
273.1078501248694
 20
39.92356687515672
 30
0.0
 10
273.1038987534298
 20
39.92070068200873
 30
0.0
  0
ELLIPSE
  5
2C4
330
1F
100
AcDbEntity
  8
0
  6
Continuous
 62
     7
370
    25
100
AcDbEllipse
 10
256.5565714888
 20
45.4743535548
 30
0.0
 11
17.94704166160881
 21
-3.359618285241915
 31
0.0
210
0.0
220
0.0
230
1.0
 40
0.4106849769
 41
5.860868530135219
 42
5.955404637645191
  0
ELLIPSE
  5
2C5
330
1F
100
AcDbEntity
  8
0
  6
Continuous
 62
     7
370
    25
100
AcDbEllipse
 10
256.5565714888
 20
59.8554559423
 30
0.0
 11
-15.1719229502983
 21
47.97219694982963
 31
0.0
210
0.0
220
0.0
230
1.0
 40
0.2019023318
 41
4.20881179441411
 42
4.214676949540223
  0
ELLIPSE
  5
2C6
330
1F
100
AcDbEntity
  8
0
  6
Continuous
 62
     7
370
    25
100
AcDbEllipse
 10
256.5565714888
 20
40.6021538486
 30
0.0
 11
12.72843921217555
 21
22.04510905127169
 31
0.0
210
0.0
220
0.0
230
1.0
 40
0.5773346305
 41
4.992918094664286
 42
5.061676398325843
  0
SPLINE
  5
2C7
330
1F
100
AcDbEntity
  8
0
  6
Continuous
 62
     7
370
    25
100
AcDbSpline
210
0.0
220
0.0
230
1.0
 70
     8
 71
     3
 72
    14
 73
    10
 74
     0
 42
0.000000001
 43
0.00000001
 40
0.0
 40
0.0
 40
0.0
 40
0.0
 40
0.1561760607653574
 40
0.3126052862500357
 40
0.4635523063410705
 40
0.6118284654938778
 40
0.7635465324998144
 40
0.9231963318099236
 40
1.0
 40
1.0
 40
1.0
 40
1.0
 10
272.8714881891228
 20
41.24177560688216
 30
0.0
 10
272.8767947029856
 20
41.2600031954865
 30
0.0
 10
272.8874163326834
 20
41.29648792000435
 30
0.0
 10
272.8944837464205
 20
41.35030170217657
 30
0.0
 10
272.8936691814015
 20
41.39485888163956
 30
0.0
 10
272.8850824192509
 20
41.42627372123437
 30
0.0
 10
272.8697076322324
 20
41.4421671523828
 30
0.0
 10
272.8525322780856
 20
41.44171020132168
 30
0.0
 10
272.8408736959362
 20
41.43412064098784
 30
0.0
 10
272.8370868118425
 20
41.43165543681997
 30
0.0
  0
ELLIPSE
  5
2C8
330
1F
100
AcDbEntity
  8
0
  6
Continuous
 62
     7
370
    25
100
AcDbEllipse
 10
256.5565714888
 20
47.1947661452
 30
0.0
 11
17.94704166160881
 21
-3.359618285241908
 31
0.0
210
0.0
220
0.0
230
1.0
 40
0.4106849769
 41
5.825817604928861
 42
5.919259511166307
  0
ELLIPSE
  5
2C9
330
1F
100
AcDbEntity
  8
0
  6
Continuous
 62
     7
370
    25
100
AcDbEllipse
 10
256.5565714888
 20
59.8554559423
 30
0.0
 11
-15.17192295029841
 21
47.97219694982655
 31
0.0
210
0.0
220
0.0
230
1.0
 40
0.2019023318
 41
4.243862719620446
 42
4.249672187586947
  0
ELLIPSE
  5
2CA
330
1F
100
AcDbEntity
  8
0
  6
Continuous
 62
     7
370
    25
100
AcDbEllipse
 10
256.5565714888
 20
42.952281152
 30
0.0
 11
12.72843921217549
 21
22.04510905127174
 31
0.0
210
0.0
220
0.0
230
1.0
 40
0.5773346305
 41
4.957922856617541
 42
5.025940091817049
  0
SPLINE
  5
2CB
330
1F
100
AcDbEntity
  8
0
  6
Continuous
 62
     7
370
    25
100
AcDbSpline
210
0.0
220
0.0
230
1.0
 70
     8
 71
     3
 72
    14
 73
    10
 74
     0
 42
0.000000001
 43
0.00000001
 40
0.0
 40
0.0
 40
0.0
 40
0.0
 40
0.1570838668261854
 40
0.3143679624733527
 40
0.4672140685279841
 40
0.6179437425250798
 40
0.7715663253448374
 40
0.9317319096129955
 40
0.9999999999999999
 40
0.9999999999999999
 40
0.9999999999999999
 40
0.9999999999999999
 10
272.5893831976989
 20
42.76155847127475
 30
0.0
 10
272.5950577632144
 20
42.77972177317213
 30
0.0
 10
272.6064141273979
 20
42.81607152903592
 30
0.0
 10
272.6138822742608
 20
42.86981237527768
 30
0.0
 10
272.6128990012662
 20
42.9145798184955
 30
0.0
 10
272.6034828458612
 20
42.94633783440517
 30
0.0
 10
272.5867207967372
 20
42.96239590097535
 30
0.0
 10
272.5684962249852
 20
42.96188098975839
 30
0.0
 10
272.5564374495295
 20
42.9547958345514
 30
0.0
 10
272.5528336482336
 20
42.95267841461842
 30
0.0
  0
ELLIPSE
  5
2CC
330
1F
100
AcDbEntity
  8
0
  6
Continuous
 62
     7
370
    25
100
AcDbEllipse
 10
256.5565714888
 20
48.9151787355
 30
0.0
 11
17.94704166160881
 21
-3.359618285241915
 31
0.0
210
0.0
220
0.0
230
1.0
 40
0.4106849769
 41
5.791079446621702
 42
5.883577790461218
  0
ELLIPSE
  5
2CD
330
1F
100
AcDbEntity
  8
0
  6
Continuous
 62
     7
370
    25
100
AcDbEllipse
 10
256.5565714888
 20
59.8554559423
 30
0.0
 11
-15.17192295029813
 21
47.97219694983288
 31
0.0
210
0.0
220
0.0
230
1.0
 40
0.2019023318
 41
4.278600877927641
 42
4.284827345387497
  0
ARC
  5
2CE
330
1F
100
AcDbEntity
  8
0
  6
Continuous
 62
     7
370
    25
100
AcDbCircle
 10
260.6136315508
 20
55.7306695608
 30
0.0
 40
17.04472863888535
100
AcDbArc
 50
288.9110226411
 51
310.4034660527
  0
ELLIPSE
  5
2CF
330
1F
100
AcDbEntity
  8
0
  6
Continuous
 62
     7
370
    25
100
AcDbEllipse
 10
256.5565714888
 20
47.5275665073
 30
0.0
 11
17.94704166160881
 21
-3.359618285242036
 31
0.0
210
0.0
220
0.0
230
1.0
 40
0.4106849769
 41
4.637902406789698
 42
5.350421800459197
  0
SPLINE
  5
2D0
330
1F
100
AcDbEntity
  8
0
  6
Continuous
 62
     7
370
    25
100
AcDbSpline
210
0.0
220
0.0
230
1.0
 70
     8
 71
     3
 72
    12
 73
     8
 74
     0
 42
0.000000001
 43
0.00000001
 40
0.0
 40
0.0
 40
0.0
 40
0.0
 40
0.1390692387082125
 40
0.3742809654862852
 40
0.6094452842579662
 40
0.8443172518784863
 40
1.0
 40
1.0
 40
1.0
 40
1.0
 10
269.1882255011225
 20
50.24142300749824
 30
0.0
 10
269.2021602248768
 20
50.16967107633642
 30
0.0
 10
269.239663140036
 20
49.97656307977152
 30
0.0
 10
269.3962912203235
 20
49.74993432020537
 30
0.0
 10
269.6609592182592
 20
49.63132665067699
 30
0.0
 10
269.9470094216498
 20
49.66356218124587
 30
0.0
 10
270.1302114555118
 20
49.77015967781585
 30
0.0
 10
270.2032393692546
 20
49.8126515247709
 30
0.0
  0
SPLINE
  5
2D1
330
1F
100
AcDbEntity
  8
0
  6
Continuous
 62
     7
370
    25
100
AcDbSpline
210
0.0
220
0.0
230
1.0
 70
    11
 71
     3
 72
    26
 73
    22
 74
     0
 42
0.000000001
 43
0.00000001
 40
0.0
 40
0.0
 40
0.0
 40
0.0
 40
0.047269747356684
 40
0.1021802823557715
 40
0.1585324304658774
 40
0.2153618340899546
 40
0.2714577390548658
 40
0.32567472188154
 40
0.3775497713752072
 40
0.427877860365235
 40
0.4782877027366388
 40
0.5302515197364126
 40
0.5843931194333244
 40
0.6403553766968005
 40
0.6971604391506624
 40
0.7536254616874742
 40
0.8085434193665475
 40
0.8611430094187864
 40
0.9118089809315324
 40
0.9620063957555274
 40
1.0
 40
1.0
 40
1.0
 40
1.0
 10
268.4645473604645
 20
42.14285788091381
 30
0.0
 10
268.3918325194616
 20
42.20830689642104
 30
0.0
 10
268.2346490479896
 20
42.34978425262464
 30
0.0
 10
268.1231098333503
 20
42.72066431446331
 30
0.0
 10
268.1399143005323
 20
43.19058209613458
 30
0.0
 10
268.3018310975158
 20
43.70453644226924
 30
0.0
 10
268.5834023628705
 20
44.19326013390071
 30
0.0
 10
268.9388558861053
 20
44.59607527504069
 30
0.0
 10
269.3140228053025
 20
44.86993103996677
 30
0.0
 10
269.6656137566022
 20
44.9967739888889
 30
0.0
 10
269.965909683437
 20
44.9728826264586
 30
0.0
 10
270.1940349955504
 20
44.79774613379549
 30
0.0
 10
270.3290611940537
 20
44.47684295575763
 30
0.0
 10
270.3522543196585
 20
44.03332304815237
 30
0.0
 10
270.2541554138329
 20
43.51545843546135
 30
0.0
 10
270.0405340860583
 20
42.99197517140621
 30
0.0
 10
269.7352903346031
 20
42.53727473821157
 30
0.0
 10
269.3767485935472
 20
42.20931477357836
 30
0.0
 10
269.0094626352146
 20
42.0397287118853
 30
0.0
 10
268.6928451912666
 20
42.02403322137306
 30
0.0
 10
268.5332867774048
 20
42.10708032759118
 30
0.0
 10
268.4645473604645
 20
42.14285788091381
 30
0.0
  0
ARC
  5
2D2
330
1F
100
AcDbEntity
  8
0
  6
Continuous
 62
     7
370
    25
100
AcDbCircle
 10
257.2400372347
 20
73.1831967995
 30
0.0
 40
25.71257283435953
100
AcDbArc
 50
270.640672809
 51
297.9247778379
  0
LINE
  5
2D3
330
1F
100
AcDbEntity
  8
0
  6
Continuous
 62
     7
370
    25
100
AcDbLine
 10
269.7527786062
 20
50.7366228927
 30
0.0
 11
269.2815425956
 21
50.4645139503
 31
0.0
  0
SPLINE
  5
2D4
330
1F
100
AcDbEntity
  8
0
  6
Continuous
 62
     7
370
    25
100
AcDbSpline
210
0.0
220
0.0
230
1.0
 70
     8
 71
     3
 72
     9
 73
     5
 74
     0
 42
0.000000001
 43
0.00000001
 40
0.0
 40
0.0
 40
0.0
 40
0.0
 40
0.7510400148142009
 40
1.0
 40
1.0
 40
1.0
 40
1.0
 10
269.2097428049558
 20
50.38638333932833
 30
0.0
 10
269.1977105502893
 20
50.35276128788063
 30
0.0
 10
269.1816897598799
 20
50.30799396419014
 30
0.0
 10
269.1869227067478
 20
50.25469285167932
 30
0.0
 10
269.1882255011225
 20
50.24142300749823
 30
0.0
  0
LINE
  5
2D5
330
1F
100
AcDbEntity
  8
0
  6
Continuous
 62
     7
370
    25
100
AcDbLine
 10
269.2815425956
 20
50.4645139503
 30
0.0
 11
269.209742805
 21
50.3863833393
 31
0.0
  0
LINE
  5
2D6
330
1F
100
AcDbEntity
  8
0
  6
Continuous
 62
     7
370
    25
100
AcDbLine
 10
269.70807465
 20
50.7108100268
 30
0.0
 11
270.6825005679
 21
50.148285918
 31
0.0
  0
LINE
  5
2D7
330
1F
100
AcDbEntity
  8
0
  6
Continuous
 62
     7
370
    25
100
AcDbLine
 10
270.2933918075
 20
53.9648957717
 30
0.0
 11
273.6542183862
 21
52.0247318854
 31
0.0
  0
LWPOLYLINE
  5
2D8
330
1F
100
AcDbEntity
  8
0
  6
Continuous
 62
     7
370
    25
100
AcDbPolyline
 90
       17
 70
   128
 43
0.0
 10
269.1548680609
 20
44.7442627876
 10
269.2163650051
 20
44.7661823505
 10
269.4616241637
 20
44.7966121092
 10
269.667614869
 20
44.7258335859
 10
269.8160339671
 20
44.5601324522
 10
269.8936936514
 20
44.3142333867
 10
269.8936936514
 20
44.0099858722
 10
269.8160339671
 20
43.6744228438
 10
269.667614869
 20
43.3373606671
 10
269.4616241637
 20
43.0287503377
 10
269.2163650051
 20
42.7760114202
 10
268.9536297421
 20
42.6016012618
 10
268.6967635307
 20
42.5210165237
 10
268.4685900829
 20
42.5414177928
 10
268.2893836586
 20
42.6609942038
 10
268.1750674114
 20
42.8691188137
 10
268.1482240671
 20
42.9839323601
  0
LINE
  5
2D9
330
1F
100
AcDbEntity
  8
0
  6
Continuous
 62
     7
370
    25
100
AcDbLine
 10
271.4931087651
 20
42.6039388405
 30
0.0
 11
271.7221083981
 21
42.4717401663
 31
0.0
  0
LINE
  5
2DA
330
1F
100
AcDbEntity
  8
0
  6
Continuous
 62
     7
370
    25
100
AcDbLine
 10
270.6661553286
 20
41.9505331664
 30
0.0
 11
271.9962071347
 21
41.1827106023
 31
0.0
  0
LINE
  5
2DB
330
1F
100
AcDbEntity
  8
0
  6
Continuous
 62
     7
370
    25
100
AcDbLine
 10
270.4914787028
 20
41.8252404482
 30
0.0
 11
272.0497016929
 21
40.9256974633
 31
0.0
  0
LINE
  5
2DC
330
1F
100
AcDbEntity
  8
0
  6
Continuous
 62
     7
370
    25
100
AcDbLine
 10
269.5723204741
 20
41.2250634676
 30
0.0
 11
272.3104991475
 21
39.644346566
 31
0.0
  0
LINE
  5
2DD
330
1F
100
AcDbEntity
  8
0
  6
Continuous
 62
     7
370
    25
100
AcDbLine
 10
269.379436739
 20
41.1102811097
 30
0.0
 11
272.3612959781
 21
39.3888904118
 31
0.0
  0
LINE
  5
2DE
330
1F
100
AcDbEntity
  8
0
  6
Continuous
 62
     7
370
    25
100
AcDbLine
 10
268.369646981
 20
40.5624245973
 30
0.0
 11
272.6084036095
 21
38.1154424812
 31
0.0
  0
LINE
  5
2DF
330
1F
100
AcDbEntity
  8
0
  6
Continuous
 62
     7
370
    25
100
AcDbLine
 10
268.1586325277
 20
40.4581077395
 30
0.0
 11
272.6564203944
 21
37.8615900725
 31
0.0
  0
LINE
  5
2E0
330
1F
100
AcDbEntity
  8
0
  6
Continuous
 62
     7
370
    25
100
AcDbLine
 10
267.1235118552
 20
39.9248774946
 30
0.0
 11
272.8893785385
 21
36.5963135088
 31
0.0
  0
ELLIPSE
  5
2E1
330
1F
100
AcDbEntity
  8
0
  6
Continuous
 62
     7
370
    25
100
AcDbEllipse
 10
264.6421253242
 20
40.9252701708
 30
0.0
 11
3.250052821640112
 21
5.629134612810953
 31
0.0
210
0.0
220
0.0
230
1.0
 40
0.4082372325
 41
4.770013391028927
 42
4.784928712821007
  0
LINE
  5
2E2
330
1F
100
AcDbEntity
  8
0
  6
Continuous
 62
     7
370
    25
100
AcDbLine
 10
267.1944413792
 20
39.6577978432
 30
0.0
 11
272.9345148498
 21
36.3441239622
 31
0.0
  0
ARC
  5
2E3
330
1F
100
AcDbEntity
  8
0
  6
Continuous
 62
     7
370
    25
100
AcDbCircle
 10
264.4614995278
 20
39.0749567501
 30
0.0
 40
2.794400634023094
100
AcDbArc
 50
12.0388353052
 51
17.7071147984
  0
LINE
  5
2E4
330
1F
100
AcDbEntity
  8
0
  6
Continuous
 62
     7
370
    25
100
AcDbLine
 10
266.9745862953
 20
38.6539217502
 30
0.0
 11
273.152782183
 21
35.0873251813
 31
0.0
  0
ELLIPSE
  5
2E5
330
1F
100
AcDbEntity
  8
0
  6
Continuous
 62
     7
370
    25
100
AcDbEllipse
 10
267.4222051737
 20
43.3903824017
 30
0.0
 11
3.250052821640168
 21
5.629134612810958
 31
0.0
210
0.0
220
0.0
230
1.0
 40
0.4082372325
 41
3.984238622475829
 42
4.171588474313435
  0
ELLIPSE
  5
2E6
330
1F
100
AcDbEntity
  8
0
  6
Continuous
 62
     7
370
    25
100
AcDbEllipse
 10
261.8414307313
 20
38.4418787325
 30
0.0
 11
4.996123274577086
 21
0.5056467856662151
 31
0.0
210
0.0
220
0.0
230
1.0
 40
0.3419448307
 41
6.059778918408265
 42
6.726249928890009
  0
ARC
  5
2E7
330
1F
100
AcDbEntity
  8
0
  6
Continuous
 62
     7
370
    25
100
AcDbCircle
 10
266.6202218302
 20
39.1607212414
 30
0.0
 40
0.6184010821423426
100
AcDbArc
 50
282.2752719291
 51
304.9620249153
  0
LINE
  5
2E8
330
1F
100
AcDbEntity
  8
0
  6
Continuous
 62
     7
370
    25
100
AcDbLine
 10
266.7516992723
 20
38.5564584007
 30
0.0
 11
273.1949191533
 21
34.8368667372
 31
0.0
  0
LINE
  5
2E9
330
1F
100
AcDbEntity
  8
0
  6
Continuous
 62
     7
370
    25
100
AcDbLine
 10
264.1602540289
 20
38.921672545
 30
0.0
 11
273.3978558996
 21
33.5889184959
 31
0.0
  0
LINE
  5
2EA
330
1F
100
AcDbEntity
  8
0
  6
Continuous
 62
     7
370
    25
100
AcDbLine
 10
264.0027823722
 20
38.7864487503
 30
0.0
 11
273.4368542469
 21
33.3402749822
 31
0.0
  0
LINE
  5
2EB
330
1F
100
AcDbEntity
  8
0
  6
Continuous
 62
     7
370
    25
100
AcDbLine
 10
264.4840587171
 20
37.377818479
 30
0.0
 11
273.6237067021
 21
32.1016120045
 31
0.0
  0
LINE
  5
2EC
330
1F
100
AcDbEntity
  8
0
  6
Continuous
 62
     7
370
    25
100
AcDbLine
 10
264.2832632283
 20
37.2676019584
 30
0.0
 11
273.6594044242
 21
31.8548708592
 31
0.0
  0
LINE
  5
2ED
330
1F
100
AcDbEntity
  8
0
  6
Continuous
 62
     7
370
    25
100
AcDbLine
 10
264.5552831045
 20
35.9797724949
 30
0.0
 11
273.8292792728
 21
30.626008465
 31
0.0
  0
LINE
  5
2EE
330
1F
100
AcDbEntity
  8
0
  6
Continuous
 62
     7
370
    25
100
AcDbLine
 10
264.5018970415
 20
35.784461366
 30
0.0
 11
273.8614827578
 21
30.3812875418
 31
0.0
  0
LINE
  5
2EF
330
1F
100
AcDbEntity
  8
0
  6
Continuous
 62
     7
370
    25
100
AcDbLine
 10
266.2810131463
 20
39.6311103179
 30
0.0
 11
266.2521076523
 21
39.6477971044
 31
0.0
  0
SPLINE
  5
2F0
330
1F
100
AcDbEntity
  8
0
  6
Continuous
 62
     7
370
    18
100
AcDbSpline
210
0.0
220
0.0
230
1.0
 70
     8
 71
     3
 72
     9
 73
     5
 74
     0
 42
0.000000001
 43
0.00000001
 40
0.0
 40
0.0
 40
0.0
 40
0.0
 40
0.512891693293267
 40
1.0
 40
1.0
 40
1.0
 40
1.0
 10
245.914278054684
 20
71.1235190333708
 30
0.0
 10
245.9335293122929
 20
70.96194059899489
 30
0.0
 10
245.9710640547358
 20
70.646906379317
 30
0.0
 10
245.9659096659818
 20
70.43596580302126
 30
0.0
 10
245.9633989204037
 20
70.3332148960861
 30
0.0
  0
LWPOLYLINE
  5
2F1
330
1F
100
AcDbEntity
  8
0
  6
Continuous
 62
     7
370
    18
100
AcDbPolyline
 90
        3
 70
   128
 43
0.0
 10
245.4990874744
 20
74.0822845291
 10
245.7315945154
 20
72.4253757679
 10
245.9142780547
 20
71.1235190334
  0
SPLINE
  5
2F2
330
1F
100
AcDbEntity
  8
0
  6
Continuous
 62
     7
370
    18
100
AcDbSpline
210
0.0
220
0.0
230
1.0
 70
     8
 71
     3
 72
     9
 73
     5
 74
     0
 42
0.000000001
 43
0.00000001
 40
0.0
 40
0.0
 40
0.0
 40
0.0
 40
0.3359405001882661
 40
1.0
 40
1.0
 40
1.0
 40
1.0
 10
245.3454954989144
 20
74.9031137648862
 30
0.0
 10
245.3664193530669
 20
74.8080213990712
 30
0.0
 10
245.4287037580159
 20
74.5249582799721
 30
0.0
 10
245.4710001520822
 20
74.25893789370753
 30
0.0
 10
245.4990874743697
 20
74.08228452906494
 30
0.0
  0
SPLINE
  5
2F3
330
1F
100
AcDbEntity
  8
0
  6
Continuous
 62
     7
370
    18
100
AcDbSpline
210
0.0
220
0.0
230
1.0
 70
     8
 71
     3
 72
     9
 73
     5
 74
     0
 42
0.000000001
 43
0.00000001
 40
0.0
 40
0.0
 40
0.0
 40
0.0
 40
0.6640605996394703
 40
1.0
 40
1.0
 40
1.0
 40
1.0
 10
244.6808597526358
 20
75.34746857221491
 30
0.0
 10
244.823727489987
 20
75.25978284278803
 30
0.0
 10
245.0388701101465
 20
75.12773807236425
 30
0.0
 10
245.2683905424993
 20
74.95959847904331
 30
0.0
 10
245.3454954989144
 20
74.9031137648862
 30
0.0
  0
LINE
  5
2F4
330
1F
100
AcDbEntity
  8
0
  6
Continuous
 62
     7
370
    18
100
AcDbLine
 10
242.2898690366
 20
76.7277581323
 30
0.0
 11
244.6808597526
 21
75.3474685722
 31
0.0
  0
SPLINE
  5
2F5
330
1F
100
AcDbEntity
  8
0
  6
Continuous
 62
     7
370
    18
100
AcDbSpline
210
0.0
220
0.0
230
1.0
 70
     8
 71
     3
 72
     9
 73
     5
 74
     0
 42
0.000000001
 43
0.00000001
 40
0.0
 40
0.0
 40
0.0
 40
0.0
 40
0.5172398661910365
 40
1.0
 40
1.0
 40
1.0
 40
1.0
 10
241.6533469463908
 20
76.99762882800302
 30
0.0
 10
241.7414185043193
 20
76.97504060595001
 30
0.0
 10
241.9116906810891
 20
76.93136991556153
 30
0.0
 10
242.1667409396581
 20
76.79405048092521
 30
0.0
 10
242.2898690366128
 20
76.7277581322856
 30
0.0
  0
SPLINE
  5
2F6
330
1F
100
AcDbEntity
  8
0
  6
Continuous
 62
     7
370
    18
100
AcDbSpline
210
0.0
220
0.0
230
1.0
 70
     8
 71
     3
 72
    10
 73
     6
 74
     0
 42
0.000000001
 43
0.00000001
 40
0.0
 40
0.0
 40
0.0
 40
0.0
 40
0.2765309869248973
 40
0.5626675276849882
 40
1.0
 40
1.0
 40
1.0
 40
1.0
 10
245.2553594934208
 20
74.17335893491467
 30
0.0
 10
245.2867184165378
 20
74.17123266626683
 30
0.0
 10
245.3505255433172
 20
74.1669062711074
 30
0.0
 10
245.4453590579136
 20
74.13895141210995
 30
0.0
 10
245.4788452697395
 20
74.10363380228036
 30
0.0
 10
245.4990874743697
 20
74.08228452906494
 30
0.0
  0
SPLINE
  5
2F7
330
1F
100
AcDbEntity
  8
0
  6
Continuous
 62
     7
370
    18
100
AcDbSpline
210
0.0
220
0.0
230
1.0
 70
     8
 71
     3
 72
     9
 73
     5
 74
     0
 42
0.000000001
 43
0.00000001
 40
0.0
 40
0.0
 40
0.0
 40
0.0
 40
0.7663260854139837
 40
1.0
 40
1.0
 40
1.0
 40
1.0
 10
245.2553594934208
 20
74.17335893491467
 30
0.0
 10
245.2351337074479
 20
74.3208091891595
 30
0.0
 10
245.2087405226694
 20
74.51322108411047
 30
0.0
 10
245.1774450330437
 20
74.7188749589536
 30
0.0
 10
245.170132093474
 20
74.76693090493796
 30
0.0
  0
SPLINE
  5
2F8
330
1F
100
AcDbEntity
  8
0
  6
Continuous
 62
     7
370
    18
100
AcDbSpline
210
0.0
220
0.0
230
1.0
 70
     8
 71
     3
 72
     9
 73
     5
 74
     0
 42
0.000000001
 43
0.00000001
 40
0.0
 40
0.0
 40
0.0
 40
0.0
 40
0.233675409238634
 40
1.0
 40
1.0
 40
1.0
 40
1.0
 10
245.170132093474
 20
74.76693090493796
 30
0.0
 10
245.1300685428132
 20
74.79213081171996
 30
0.0
 10
244.958618963282
 20
74.89997231230436
 30
0.0
 10
244.8013663200821
 20
74.99152229512548
 30
0.0
 10
244.6808597526358
 20
75.06167929824508
 30
0.0
  0
SPLINE
  5
2F9
330
1F
100
AcDbEntity
  8
0
  6
Continuous
 62
     7
370
    18
100
AcDbSpline
210
0.0
220
0.0
230
1.0
 70
     8
 71
     3
 72
    10
 73
     6
 74
     0
 42
0.000000001
 43
0.00000001
 40
0.0
 40
0.0
 40
0.0
 40
0.0
 40
0.2765306492172961
 40
0.5626683457935653
 40
1.0
 40
1.0
 40
1.0
 40
1.0
 10
244.6808597526358
 20
75.34746857221491
 30
0.0
 10
244.6909461343093
 20
75.32834772292969
 30
0.0
 10
244.7114693121461
 20
75.28944174029112
 30
0.0
 10
244.7193365856038
 20
75.1920089352849
 30
0.0
 10
244.6953558953323
 20
75.11078097503015
 30
0.0
 10
244.6808597526358
 20
75.06167929824508
 30
0.0
  0
LINE
  5
2FA
330
1F
100
AcDbEntity
  8
0
  6
Continuous
 62
     7
370
    18
100
AcDbLine
 10
244.6808597526
 20
75.0616792982
 30
0.0
 11
244.5481790554
 21
74.7197085737
 31
0.0
  0
LINE
  5
2FB
330
1F
100
AcDbEntity
  8
0
  6
Continuous
 62
     7
370
    18
100
AcDbLine
 10
245.2553594934
 20
74.1733589349
 30
0.0
 11
244.8963607564
 21
74.1813325672
 31
0.0
  0
LWPOLYLINE
  5
2FC
330
1F
100
AcDbEntity
  8
0
  6
Continuous
 62
     7
370
    18
100
AcDbPolyline
 90
        3
 70
   128
 43
0.0
 10
245.6705507323
 20
71.2145931541
 10
245.4380436912
 20
72.8715019153
 10
245.2553594934
 20
74.1733589349
  0
ARC
  5
2FD
330
1F
100
AcDbEntity
  8
0
  6
Continuous
 62
     7
370
    18
100
AcDbCircle
 10
245.7005631597
 20
70.923249106
 30
0.0
 40
0.2928858141643516
100
AcDbArc
 50
43.1398611871
 51
95.8815041085
  0
LINE
  5
2FE
330
1F
100
AcDbEntity
  8
0
  6
Continuous
 62
     7
370
    18
100
AcDbLine
 10
245.6705507323
 20
71.2145931541
 30
0.0
 11
245.3115519952
 21
71.2225666913
 31
0.0
  0
LINE
  5
2FF
330
1F
100
AcDbEntity
  8
0
  6
Continuous
 62
     7
370
    18
100
AcDbLine
 10
244.6808597526
 20
75.0616792982
 30
0.0
 11
242.2898690366
 21
76.4419688583
 31
0.0
  0
ARC
  5
300
330
1F
100
AcDbEntity
  8
0
  6
Continuous
 62
     7
370
    18
100
AcDbCircle
 10
242.0040612336
 20
76.5848634953
 30
0.0
 40
0.3195386948804024
100
AcDbArc
 50
333.4364346439
 51
26.5635653561
  0
LINE
  5
301
330
1F
100
AcDbEntity
  8
0
  6
Continuous
 62
     7
370
    18
100
AcDbLine
 10
242.2898690366
 20
76.4419688583
 30
0.0
 11
242.1571883393
 21
76.0999981338
 31
0.0
  0
LWPOLYLINE
  5
302
330
1F
100
AcDbEntity
  8
0
  6
Continuous
 62
     7
370
    18
100
AcDbPolyline
 90
        3
 70
   128
 43
0.0
 10
242.960651164
 20
75.2566914916
 10
242.8596172656
 20
75.1105341616
 10
242.7984279441
 20
74.9665925667
  0
SPLINE
  5
303
330
1F
100
AcDbEntity
  8
0
  6
Continuous
 62
     7
370
    18
100
AcDbSpline
210
0.0
220
0.0
230
1.0
 70
     8
 71
     3
 72
     9
 73
     5
 74
     0
 42
0.000000001
 43
0.00000001
 40
0.0
 40
0.0
 40
0.0
 40
0.0
 40
0.4183258241369127
 40
1.0
 40
1.0
 40
1.0
 40
1.0
 10
245.7494866861103
 20
70.60740039203806
 30
0.0
 10
245.7418900429162
 20
70.67827729291173
 30
0.0
 10
245.7237304105055
 20
70.84770718890226
 30
0.0
 10
245.6901080127719
 20
71.079667709473
 30
0.0
 10
245.6705507322796
 20
71.21459315410874
 30
0.0
  0
LINE
  5
304
330
1F
100
AcDbEntity
  8
0
  6
Continuous
 62
     7
370
    18
100
AcDbLine
 10
245.0960496744
 20
70.7556219455
 30
0.0
 11
244.9633689772
 21
70.9444027026
 31
0.0
  0
SPLINE
  5
305
330
1F
100
AcDbEntity
  8
0
  6
Continuous
 62
     7
370
    18
100
AcDbSpline
210
0.0
220
0.0
230
1.0
 70
     8
 71
     3
 72
     9
 73
     5
 74
     0
 42
0.000000001
 43
0.00000001
 40
0.0
 40
0.0
 40
0.0
 40
0.0
 40
0.5466798155727542
 40
1.0
 40
1.0
 40
1.0
 40
1.0
 10
245.0960496744057
 20
70.75562194546742
 30
0.0
 10
245.2093291850462
 20
70.70424317214055
 30
0.0
 10
245.4165428179876
 20
70.61025987174553
 30
0.0
 10
245.6456347081921
 20
70.60829232203548
 30
0.0
 10
245.7494866861103
 20
70.60740039203806
 30
0.0
  0
SPLINE
  5
306
330
1F
100
AcDbEntity
  8
0
  6
Continuous
 62
     7
370
    18
100
AcDbSpline
210
0.0
220
0.0
230
1.0
 70
     8
 71
     3
 72
     9
 73
     5
 74
     0
 42
0.000000001
 43
0.00000001
 40
0.0
 40
0.0
 40
0.0
 40
0.0
 40
0.6640592223819952
 40
1.0
 40
1.0
 40
1.0
 40
1.0
 10
242.7050602754717
 20
71.85012156628689
 30
0.0
 10
242.5745160517795
 20
71.94492147642679
 30
0.0
 10
242.3779308387561
 20
72.08767969277962
 30
0.0
 10
242.2327122213707
 20
72.3044861435194
 30
0.0
 10
242.1839273661216
 20
72.37732027117352
 30
0.0
  0
LINE
  5
307
330
1F
100
AcDbEntity
  8
0
  6
Continuous
 62
     7
370
    18
100
AcDbLine
 10
245.0960496744
 20
70.4698327666
 30
0.0
 11
242.7050602755
 21
71.8501215663
 31
0.0
  0
SPLINE
  5
308
330
1F
100
AcDbEntity
  8
0
  6
Continuous
 62
     7
370
    18
100
AcDbSpline
210
0.0
220
0.0
230
1.0
 70
     8
 71
     3
 72
     9
 73
     5
 74
     0
 42
0.000000001
 43
0.00000001
 40
0.0
 40
0.0
 40
0.0
 40
0.0
 40
0.5172394684244683
 40
1.0
 40
1.0
 40
1.0
 40
1.0
 10
245.9633989204037
 20
70.3332148960861
 30
0.0
 10
245.8084951471127
 20
70.31722165146103
 30
0.0
 10
245.5090134123509
 20
70.28630126428756
 30
0.0
 10
245.2305033433606
 20
70.41007816444075
 30
0.0
 10
245.0960496744057
 20
70.46983276655548
 30
0.0
  0
SPLINE
  5
309
330
1F
100
AcDbEntity
  8
0
  6
Continuous
 62
     7
370
    18
100
AcDbSpline
210
0.0
220
0.0
230
1.0
 70
     8
 71
     3
 72
     9
 73
     5
 74
     0
 42
0.000000001
 43
0.00000001
 40
0.0
 40
0.0
 40
0.0
 40
0.0
 40
0.5466798159271291
 40
1.0
 40
1.0
 40
1.0
 40
1.0
 10
242.2898690366128
 20
76.44196885831579
 30
0.0
 10
242.1884049610813
 20
76.5001684047447
 30
0.0
 10
242.0028044092126
 20
76.60662842893674
 30
0.0
 10
241.8728745050807
 20
76.6658401535348
 30
0.0
 10
241.813974657023
 20
76.69268202342889
 30
0.0
  0
SPLINE
  5
30A
330
1F
100
AcDbEntity
  8
0
  6
Continuous
 62
     7
370
    18
100
AcDbSpline
210
0.0
220
0.0
230
1.0
 70
     8
 71
     3
 72
     9
 73
     5
 74
     0
 42
0.000000001
 43
0.00000001
 40
0.0
 40
0.0
 40
0.0
 40
0.0
 40
0.5128919322845975
 40
1.0
 40
1.0
 40
1.0
 40
1.0
 10
241.4716406563344
 20
76.07407167535457
 30
0.0
 10
241.4651767428034
 20
76.24303188090555
 30
0.0
 10
241.4525738665947
 20
76.5724584031719
 30
0.0
 10
241.5875829383326
 20
76.85836259134854
 30
0.0
 10
241.6533469463908
 20
76.99762882800302
 30
0.0
  0
LWPOLYLINE
  5
30B
330
1F
100
AcDbEntity
  8
0
  6
Continuous
 62
     7
370
    18
100
AcDbPolyline
 90
        3
 70
   128
 43
0.0
 10
241.8868318952
 20
73.1153059896
 10
241.6543248541
 20
74.7722147508
 10
241.4716406563
 20
76.0740716754
  0
SPLINE
  5
30C
330
1F
100
AcDbEntity
  8
0
  6
Continuous
 62
     7
370
    18
100
AcDbSpline
210
0.0
220
0.0
230
1.0
 70
     8
 71
     3
 72
     9
 73
     5
 74
     0
 42
0.000000001
 43
0.00000001
 40
0.0
 40
0.0
 40
0.0
 40
0.0
 40
0.3359400758431098
 40
0.9999999999999999
 40
0.9999999999999999
 40
0.9999999999999999
 40
0.9999999999999999
 10
242.1839273661216
 20
72.37732027117352
 30
0.0
 10
242.1346832234809
 20
72.45606339572228
 30
0.0
 10
241.9880971321454
 20
72.69045973665047
 30
0.0
 10
241.9272428110467
 20
72.94576680028958
 30
0.0
 10
241.8868318951933
 20
73.1153059896065
 30
0.0
  0
SPLINE
  5
30D
330
1F
100
AcDbEntity
  8
0
  6
Continuous
 62
     7
370
    18
100
AcDbSpline
210
0.0
220
0.0
230
1.0
 70
     8
 71
     3
 72
    10
 73
     6
 74
     0
 42
0.000000001
 43
0.00000001
 40
0.0
 40
0.0
 40
0.0
 40
0.0
 40
0.2765306546197536
 40
0.562668831489695
 40
1.0
 40
1.0
 40
1.0
 40
1.0
 10
245.0960496744057
 20
70.75562194546742
 30
0.0
 10
245.1061360550307
 20
70.73650110360781
 30
0.0
 10
245.1266592480491
 20
70.69759510325481
 30
0.0
 10
245.1345265165686
 20
70.60016231408629
 30
0.0
 10
245.1105458105999
 20
70.5189343758596
 30
0.0
 10
245.0960496744057
 20
70.46983276655548
 30
0.0
  0
LINE
  5
30E
330
1F
100
AcDbEntity
  8
0
  6
Continuous
 62
     7
370
    18
100
AcDbLine
 10
241.7153692958
 20
75.9829968893
 30
0.0
 11
241.8090066384
 21
75.8218333848
 31
0.0
  0
SPLINE
  5
30F
330
1F
100
AcDbEntity
  8
0
  6
Continuous
 62
     7
370
    18
100
AcDbSpline
210
0.0
220
0.0
230
1.0
 70
     8
 71
     3
 72
     9
 73
     5
 74
     0
 42
0.000000001
 43
0.00000001
 40
0.0
 40
0.0
 40
0.0
 40
0.0
 40
0.418325562529841
 40
0.9999999999999999
 40
0.9999999999999999
 40
0.9999999999999999
 40
0.9999999999999999
 10
241.813974657023
 20
76.69268202342889
 30
0.0
 10
241.7799060061378
 20
76.59775268521177
 30
0.0
 10
241.698465487229
 20
76.3708257490642
 30
0.0
 10
241.7091527741943
 20
76.12562430271008
 30
0.0
 10
241.7153692958279
 20
75.98299688933518
 30
0.0
  0
LINE
  5
310
330
1F
100
AcDbEntity
  8
0
  6
Continuous
 62
     7
370
    18
100
AcDbLine
 10
242.7050602755
 20
72.1359107452
 30
0.0
 11
245.0960496744
 21
70.7556219455
 31
0.0
  0
LINE
  5
311
330
1F
100
AcDbEntity
  8
0
  6
Continuous
 62
     7
370
    18
100
AcDbLine
 10
242.7050602755
 20
72.1359107452
 30
0.0
 11
242.5723795782
 21
72.3246915023
 31
0.0
  0
SPLINE
  5
312
330
1F
100
AcDbEntity
  8
0
  6
Continuous
 62
     7
370
    18
100
AcDbSpline
210
0.0
220
0.0
230
1.0
 70
     8
 71
     3
 72
    10
 73
     6
 74
     0
 42
0.000000001
 43
0.00000001
 40
0.0
 40
0.0
 40
0.0
 40
0.0
 40
0.2765327059956569
 40
0.5626660979277956
 40
0.9999999999999999
 40
0.9999999999999999
 40
0.9999999999999999
 40
0.9999999999999999
 10
241.4716406563344
 20
76.07407167535457
 30
0.0
 10
241.5029998067318
 20
76.07194525285271
 30
0.0
 10
241.5668068371693
 20
76.06761858253228
 30
0.0
 10
241.6616405753161
 20
76.03966411730825
 30
0.0
 10
241.6951269054218
 20
76.0043463676204
 30
0.0
 10
241.7153692958279
 20
75.98299688933518
 30
0.0
  0
LINE
  5
313
330
1F
100
AcDbEntity
  8
0
  6
Continuous
 62
     7
370
    18
100
AcDbLine
 10
242.1305592176
 20
73.0242318689
 30
0.0
 11
242.2241978772
 21
72.863067699
 31
0.0
  0
LWPOLYLINE
  5
314
330
1F
100
AcDbEntity
  8
0
  6
Continuous
 62
     7
370
    18
100
AcDbPolyline
 90
        3
 70
   128
 43
0.0
 10
241.7153692958
 20
75.9829968893
 10
241.9478750198
 20
74.3260887934
 10
242.1305592176
 20
73.0242318689
  0
ARC
  5
315
330
1F
100
AcDbEntity
  8
0
  6
Continuous
 62
     7
370
    18
100
AcDbCircle
 10
242.4192527821
 20
71.9930161557
 30
0.0
 40
0.31953839668884
100
AcDbArc
 50
333.4364174397
 51
26.5635825603
  0
ARC
  5
316
330
1F
100
AcDbEntity
  8
0
  6
Continuous
 62
     7
370
    18
100
AcDbCircle
 10
241.9168440879
 20
72.8239613135
 30
0.0
 40
0.2928864148604525
100
AcDbArc
 50
43.1399194454
 51
95.8814458502
  0
SPLINE
  5
317
330
1F
100
AcDbEntity
  8
0
  6
Continuous
 62
     7
370
    18
100
AcDbSpline
210
0.0
220
0.0
230
1.0
 70
     8
 71
     3
 72
     9
 73
     5
 74
     0
 42
0.000000001
 43
0.00000001
 40
0.0
 40
0.0
 40
0.0
 40
0.0
 40
0.2336748211580991
 40
1.0
 40
1.0
 40
1.0
 40
1.0
 10
242.3239514622663
 20
72.49310222964066
 30
0.0
 10
242.3490871887732
 20
72.45928458551504
 30
0.0
 10
242.4566543044013
 20
72.31456362688532
 30
0.0
 10
242.5972886417509
 20
72.21341980363776
 30
0.0
 10
242.7050602754717
 20
72.13591074519883
 30
0.0
  0
SPLINE
  5
318
330
1F
100
AcDbEntity
  8
0
  6
Continuous
 62
     7
370
    18
100
AcDbSpline
210
0.0
220
0.0
230
1.0
 70
     8
 71
     3
 72
     9
 73
     5
 74
     0
 42
0.000000001
 43
0.00000001
 40
0.0
 40
0.0
 40
0.0
 40
0.0
 40
0.7663259604613729
 40
1.0
 40
1.0
 40
1.0
 40
1.0
 10
242.1305592175977
 20
73.02423186886857
 30
0.0
 10
242.1635202980487
 20
72.88413358318945
 30
0.0
 10
242.2065321261109
 20
72.70131544455462
 30
0.0
 10
242.301710700347
 20
72.53254054272412
 30
0.0
 10
242.3239514622663
 20
72.49310222964066
 30
0.0
  0
LINE
  5
319
330
1F
100
AcDbEntity
  8
0
  6
Continuous
 62
     7
370
    18
100
AcDbLine
 10
244.3077172289
 20
72.9567692792
 30
0.0
 11
244.2066234196
 21
72.8984090653
 31
0.0
  0
LINE
  5
31A
330
1F
100
AcDbEntity
  8
0
  6
Continuous
 62
     7
370
    18
100
AcDbLine
 10
243.4128520177
 20
74.3031600332
 30
0.0
 11
243.2614381396
 21
74.215750662
 31
0.0
  0
LINE
  5
31B
330
1F
100
AcDbEntity
  8
0
  6
Continuous
 62
     7
370
    18
100
AcDbLine
 10
244.0380879927
 20
72.8565002219
 30
0.0
 11
243.7550277851
 21
72.6930930423
 31
0.0
  0
LINE
  5
31C
330
1F
100
AcDbEntity
  8
0
  6
Continuous
 62
     7
370
    18
100
AcDbLine
 10
243.6145661453
 20
74.0385228052
 30
0.0
 11
243.0312851006
 21
73.7018018254
 31
0.0
  0
LINE
  5
31D
330
1F
100
AcDbEntity
  8
0
  6
Continuous
 62
     7
370
    18
100
AcDbLine
 10
243.7631219325
 20
73.5802460646
 30
0.0
 11
243.1798408878
 21
73.2435250848
 31
0.0
  0
LINE
  5
31E
330
1F
100
AcDbEntity
  8
0
  6
Continuous
 62
     7
370
    18
100
AcDbLine
 10
247.2903815592
 20
45.0638420935
 30
0.0
 11
246.0030027787
 21
44.7189922098
 31
0.0
  0
LINE
  5
31F
330
1F
100
AcDbEntity
  8
0
  6
Continuous
 62
     7
370
    18
100
AcDbLine
 10
263.3224179798
 20
64.7821014438
 30
0.0
 11
262.8101315972
 21
64.5590004231
 31
0.0
  0
LINE
  5
320
330
1F
100
AcDbEntity
  8
0
  6
Continuous
 62
     7
370
    18
100
AcDbLine
 10
245.8083681795
 20
46.8312985079
 30
0.0
 11
247.7589717438
 21
47.3538059566
 31
0.0
  0
LINE
  5
321
330
1F
100
AcDbEntity
  8
0
  6
Continuous
 62
     7
370
    18
100
AcDbLine
 10
248.0536123152
 20
73.5207513483
 30
0.0
 11
254.2774945429
 21
76.2312559644
 31
0.0
  0
LINE
  5
322
330
1F
100
AcDbEntity
  8
0
  6
Continuous
 62
     7
370
    18
100
AcDbLine
 10
253.1506546107
 20
59.9020200663
 30
0.0
 11
243.1962933914
 21
65.6485504799
 31
0.0
  0
LINE
  5
323
330
1F
100
AcDbEntity
  8
0
  6
Continuous
 62
     7
370
    18
100
AcDbLine
 10
248.071290428
 20
31.0329721071
 30
0.0
 11
248.460376304
 21
31.1371962011
 31
0.0
  0
LINE
  5
324
330
1F
100
AcDbEntity
  8
0
  6
Continuous
 62
     7
370
    18
100
AcDbLine
 10
251.4350712374
 20
33.8360534914
 30
0.0
 11
248.8721549652
 21
33.1495241234
 31
0.0
  0
LINE
  5
325
330
1F
100
AcDbEntity
  8
0
  6
Continuous
 62
     7
370
    18
100
AcDbLine
 10
251.3601792511
 20
58.48621663
 30
0.0
 11
242.2027968271
 21
63.7726609782
 31
0.0
  0
LINE
  5
326
330
1F
100
AcDbEntity
  8
0
  6
Continuous
 62
     7
370
    18
100
AcDbLine
 10
241.707329342
 20
34.7068086423
 30
0.0
 11
242.096415218
 21
34.8110327362
 31
0.0
  0
LINE
  5
327
330
1F
100
AcDbEntity
  8
0
  6
Continuous
 62
     7
370
    18
100
AcDbLine
 10
246.12502305
 20
37.7922023374
 30
0.0
 11
242.5081938793
 21
36.8233606585
 31
0.0
  0
LINE
  5
328
330
1F
100
AcDbEntity
  8
0
  6
Continuous
 62
     7
370
    18
100
AcDbLine
 10
264.3524238812
 20
63.8667252644
 30
0.0
 11
258.1285416534
 21
59.3912884175
 31
0.0
  0
ARC
  5
329
330
1F
100
AcDbEntity
  8
0
  6
Continuous
 62
     7
370
    18
100
AcDbCircle
 10
257.1473427019
 20
73.0716280067
 30
0.0
 40
25.8108721063813
100
AcDbArc
 50
270.2487341846
 51
297.8076212159
  0
LINE
  5
32A
330
1F
100
AcDbEntity
  8
0
  6
Continuous
 62
     7
370
    18
100
AcDbLine
 10
269.2100383474
 20
50.3860142703
 30
0.0
 11
270.2032393693
 21
49.8126515248
 31
0.0
  0
LINE
  5
32B
330
1F
100
AcDbEntity
  8
0
  6
Continuous
 62
     7
370
    18
100
AcDbLine
 10
272.414068113
 20
42.8627657154
 30
0.0
 11
272.5893831977
 21
42.7615584713
 31
0.0
  0
LINE
  5
32C
330
1F
100
AcDbEntity
  8
0
  6
Continuous
 62
     7
370
    18
100
AcDbLine
 10
272.7062593721
 20
41.3371601726
 30
0.0
 11
272.8714881891
 21
41.2417756069
 31
0.0
  0
LINE
  5
32D
330
1F
100
AcDbEntity
  8
0
  6
Continuous
 62
     7
370
    18
100
AcDbLine
 10
272.981313986
 20
39.8214474046
 30
0.0
 11
273.1360653599
 21
39.732111338
 31
0.0
  0
LINE
  5
32E
330
1F
100
AcDbEntity
  8
0
  6
Continuous
 62
     7
370
    18
100
AcDbLine
 10
273.2385506904
 20
38.3160203165
 30
0.0
 11
273.3823662743
 21
38.2329973471
 31
0.0
  0
LINE
  5
32F
330
1F
100
AcDbEntity
  8
0
  6
Continuous
 62
     7
370
    18
100
AcDbLine
 10
273.4771693538
 20
36.821340054
 30
0.0
 11
273.6095065069
 21
36.7449434417
 31
0.0
  0
LINE
  5
330
330
1F
100
AcDbEntity
  8
0
  6
Continuous
 62
     7
370
    18
100
AcDbLine
 10
266.2810131463
 20
39.6311103179
 30
0.0
 11
266.3342090546
 21
39.6782791209
 31
0.0
  0
LINE
  5
331
330
1F
100
AcDbEntity
  8
0
  6
Continuous
 62
     7
370
    18
100
AcDbLine
 10
266.2389548721
 20
39.6429463532
 30
0.0
 11
266.4532883896
 21
39.5192142472
 31
0.0
  0
LINE
  5
332
330
1F
100
AcDbEntity
  8
0
  6
Continuous
 62
     7
370
    18
100
AcDbLine
 10
273.6962249648
 20
35.337955963
 30
0.0
 11
273.816446216
 21
35.2685537119
 31
0.0
  0
LINE
  5
333
330
1F
100
AcDbEntity
  8
0
  6
Continuous
 62
     7
370
    18
100
AcDbLine
 10
273.8946003025
 20
33.866508058
 30
0.0
 11
274.0019456915
 21
33.804538884
 31
0.0
  0
LINE
  5
334
330
1F
100
AcDbEntity
  8
0
  6
Continuous
 62
     7
370
    18
100
AcDbLine
 10
274.070969717
 20
32.4077661836
 30
0.0
 11
274.1645337451
 21
32.35375282
 31
0.0
  0
OLE2FRAME
  5
335
330
1F
100
AcDbEntity
  8
0
100
AcDbOle2Frame
 70
     2
  3
Paintbrush-Bild
 10
13.8511154363
 20
38.264191557
 30
0.0
 11
51.6290888628
 21
31.9806341108
 31
0.0
 71
     2
 72
     0
 73
     1
 90
    12928
310
80552BED0767C5B32B40DDAF6807D121434000000000000000006FFBDDFB85D0
310
4940DDAF6807D121434000000000000000006FFBDDFB85D04940416F4BD60AFB
310
3F4000000000000000002BED0767C5B32B40416F4BD60AFB3F40000000000000
310
0000000000000100000000010000010000000100000000000100000000320000
310
D0CF11E0A1B11AE1000000000000000000000000000000003E000300FEFF0900
310
0600000000000000000000000100000001000000000000000010000002000000
310
01000000FEFFFFFF0000000000000000FFFFFFFFFFFFFFFFFFFFFFFFFFFFFFFF
310
FFFFFFFFFFFFFFFFFFFFFFFFFFFFFFFFFFFFFFFFFFFFFFFFFFFFFFFFFFFFFFFF
310
FFFFFFFFFFFFFFFFFFFFFFFFFFFFFFFFFFFFFFFFFFFFFFFFFFFFFFFFFFFFFFFF
310
FFFFFFFFFFFFFFFFFFFFFFFFFFFFFFFFFFFFFFFFFFFFFFFFFFFFFFFFFFFFFFFF
310
FFFFFFFFFFFFFFFFFFFFFFFFFFFFFFFFFFFFFFFFFFFFFFFFFFFFFFFFFFFFFFFF
310
FFFFFFFFFFFFFFFFFFFFFFFFFFFFFFFFFFFFFFFFFFFFFFFFFFFFFFFFFFFFFFFF
310
FFFFFFFFFFFFFFFFFFFFFFFFFFFFFFFFFFFFFFFFFFFFFFFFFFFFFFFFFFFFFFFF
310
FFFFFFFFFFFFFFFFFFFFFFFFFFFFFFFFFFFFFFFFFFFFFFFFFFFFFFFFFFFFFFFF
310
FFFFFFFFFFFFFFFFFFFFFFFFFFFFFFFFFFFFFFFFFFFFFFFFFFFFFFFFFFFFFFFF
310
FFFFFFFFFFFFFFFFFFFFFFFFFFFFFFFFFFFFFFFFFFFFFFFFFFFFFFFFFFFFFFFF
310
FFFFFFFFFFFFFFFFFFFFFFFFFFFFFFFFFFFFFFFFFFFFFFFFFFFFFFFFFFFFFFFF
310
FFFFFFFFFFFFFFFFFFFFFFFFFFFFFFFFFFFFFFFFFFFFFFFFFFFFFFFFFFFFFFFF
310
FFFFFFFFFFFFFFFFFFFFFFFFFFFFFFFFFFFFFFFFFFFFFFFFFFFFFFFFFFFFFFFF
310
FFFFFFFFFFFFFFFFFFFFFFFFFFFFFFFFFFFFFFFFFFFFFFFFFFFFFFFFFFFFFFFF
310
FDFFFFFFFEFFFFFFFEFFFFFFFEFFFFFF05000000060000000700000008000000
310
090000000A0000000B0000000C0000000D0000000E0000000F00000010000000
310
11000000120000001300000014000000150000001600000017000000FEFFFFFF
310
FFFFFFFFFFFFFFFFFFFFFFFFFFFFFFFFFFFFFFFFFFFFFFFFFFFFFFFFFFFFFFFF
310
FFFFFFFFFFFFFFFFFFFFFFFFFFFFFFFFFFFFFFFFFFFFFFFFFFFFFFFFFFFFFFFF
310
FFFFFFFFFFFFFFFFFFFFFFFFFFFFFFFFFFFFFFFFFFFFFFFFFFFFFFFFFFFFFFFF
310
FFFFFFFFFFFFFFFFFFFFFFFFFFFFFFFFFFFFFFFFFFFFFFFFFFFFFFFFFFFFFFFF
310
FFFFFFFFFFFFFFFFFFFFFFFFFFFFFFFFFFFFFFFFFFFFFFFFFFFFFFFFFFFFFFFF
310
FFFFFFFFFFFFFFFFFFFFFFFFFFFFFFFFFFFFFFFFFFFFFFFFFFFFFFFFFFFFFFFF
310
FFFFFFFFFFFFFFFFFFFFFFFFFFFFFFFFFFFFFFFFFFFFFFFFFFFFFFFFFFFFFFFF
310
FFFFFFFFFFFFFFFFFFFFFFFFFFFFFFFFFFFFFFFFFFFFFFFFFFFFFFFFFFFFFFFF
310
FFFFFFFFFFFFFFFFFFFFFFFFFFFFFFFFFFFFFFFFFFFFFFFFFFFFFFFFFFFFFFFF
310
FFFFFFFFFFFFFFFFFFFFFFFFFFFFFFFFFFFFFFFFFFFFFFFFFFFFFFFFFFFFFFFF
310
FFFFFFFFFFFFFFFFFFFFFFFFFFFFFFFFFFFFFFFFFFFFFFFFFFFFFFFFFFFFFFFF
310
FFFFFFFFFFFFFFFFFFFFFFFFFFFFFFFFFFFFFFFFFFFFFFFFFFFFFFFFFFFFFFFF
310
FFFFFFFFFFFFFFFFFFFFFFFFFFFFFFFFFFFFFFFFFFFFFFFFFFFFFFFFFFFFFFFF
310
52006F006F007400200045006E00740072007900000000000000000000000000
310
0000000000000000000000000000000000000000000000000000000000000000
310
16000500FFFFFFFFFFFFFFFF020000000A00030000000000C000000000000046
310
00000000000000000000000080F7F53091B4D30103000000C000000000000000
310
01004F006C006500000000000000000000000000000000000000000000000000
310
0000000000000000000000000000000000000000000000000000000000000000
310
0A000200FFFFFFFFFFFFFFFFFFFFFFFF00000000000000000000000000000000
310
0000000000000000000000000000000000000000000000001400000000000000
310
010043006F006D0070004F0062006A0000000000000000000000000000000000
310
0000000000000000000000000000000000000000000000000000000000000000
310
120002010100000003000000FFFFFFFF00000000000000000000000000000000
310
0000000000000000000000000000000000000000010000004D00000000000000
310
01004F006C006500310030004E00610074006900760065000000000000000000
310
0000000000000000000000000000000000000000000000000000000000000000
310
1A000200FFFFFFFFFFFFFFFFFFFFFFFF00000000000000000000000000000000
310
0000000000000000000000000000000000000000040000002426000000000000
310
FEFFFFFF02000000FEFFFFFFFFFFFFFFFFFFFFFFFFFFFFFFFFFFFFFFFFFFFFFF
310
FFFFFFFFFFFFFFFFFFFFFFFFFFFFFFFFFFFFFFFFFFFFFFFFFFFFFFFFFFFFFFFF
310
FFFFFFFFFFFFFFFFFFFFFFFFFFFFFFFFFFFFFFFFFFFFFFFFFFFFFFFFFFFFFFFF
310
FFFFFFFFFFFFFFFFFFFFFFFFFFFFFFFFFFFFFFFFFFFFFFFFFFFFFFFFFFFFFFFF
310
FFFFFFFFFFFFFFFFFFFFFFFFFFFFFFFFFFFFFFFFFFFFFFFFFFFFFFFFFFFFFFFF
310
FFFFFFFFFFFFFFFFFFFFFFFFFFFFFFFFFFFFFFFFFFFFFFFFFFFFFFFFFFFFFFFF
310
FFFFFFFFFFFFFFFFFFFFFFFFFFFFFFFFFFFFFFFFFFFFFFFFFFFFFFFFFFFFFFFF
310
FFFFFFFFFFFFFFFFFFFFFFFFFFFFFFFFFFFFFFFFFFFFFFFFFFFFFFFFFFFFFFFF
310
FFFFFFFFFFFFFFFFFFFFFFFFFFFFFFFFFFFFFFFFFFFFFFFFFFFFFFFFFFFFFFFF
310
FFFFFFFFFFFFFFFFFFFFFFFFFFFFFFFFFFFFFFFFFFFFFFFFFFFFFFFFFFFFFFFF
310
FFFFFFFFFFFFFFFFFFFFFFFFFFFFFFFFFFFFFFFFFFFFFFFFFFFFFFFFFFFFFFFF
310
FFFFFFFFFFFFFFFFFFFFFFFFFFFFFFFFFFFFFFFFFFFFFFFFFFFFFFFFFFFFFFFF
310
FFFFFFFFFFFFFFFFFFFFFFFFFFFFFFFFFFFFFFFFFFFFFFFFFFFFFFFFFFFFFFFF
310
FFFFFFFFFFFFFFFFFFFFFFFFFFFFFFFFFFFFFFFFFFFFFFFFFFFFFFFFFFFFFFFF
310
FFFFFFFFFFFFFFFFFFFFFFFFFFFFFFFFFFFFFFFFFFFFFFFFFFFFFFFFFFFFFFFF
310
FFFFFFFFFFFFFFFFFFFFFFFFFFFFFFFFFFFFFFFFFFFFFFFFFFFFFFFFFFFFFFFF
310
0100000200000000000000000000000000000000000000000000000000000000
310
0000000000000000000000000000000000000000000000000000000000000000
310
0100FEFF030A0000FFFFFFFF0A00030000000000C00000000000004607000000
310
5042727573680007000000504272757368000700000050427275736800F439B2
310
7100000000000000000000000000000000000000000000000000000000000000
310
0000000000000000000000000000000000000000000000000000000000000000
310
0000000000000000000000000000000000000000000000000000000000000000
310
0000000000000000000000000000000000000000000000000000000000000000
310
0000000000000000000000000000000000000000000000000000000000000000
310
0000000000000000000000000000000000000000000000000000000000000000
310
0000000000000000000000000000000000000000000000000000000000000000
310
0000000000000000000000000000000000000000000000000000000000000000
310
0000000000000000000000000000000000000000000000000000000000000000
310
0000000000000000000000000000000000000000000000000000000000000000
310
0000000000000000000000000000000000000000000000000000000000000000
310
0000000000000000000000000000000000000000000000000000000000000000
310
20260000424D0E260000000000003E00000028000000B40200006E0000000100
310
01000000000000000000130B0000130B00000200000002000000000000FFFFFF
310
FFFFFFFFFFFFFFFFFFFFFFFFFFFFFFFFFFFFFFFFFFFFFFFFFFFFFFFFFFFFFFFF
310
FFFFFFFFFFFFFFFFFFFFFFFFFFFFFFFFFFFFFFFFFFFFFFFFFFFFFFFFFFFFFFFF
310
FFFFFFFFFFFFFFFFFFFFFFFFFFFFFFFFFFFFFFFFFFFFFFFFF000FFFFFFFFFFFF
310
FFFFFFFFFFFFFFFFFFFFFFFFFFFFFFFFFFFFFFFFFFFFFFFFFFFFFFFFFFFFFFFF
310
FFFFFFFFFFFFFFFFFFFFFFFFFFFFFFFFFFFFFFFFFFFFFFFFFFFFFFFFFFFFFFFF
310
FFFFFFFFFFFFFFFFFFFFFFFFFFFFFFFFF000FFFFFFFFFFFFFFFFFFFFFFFFFFFF
310
FFFFFFFFFFFFFFFFFFFFFFFFFFFFFFFFFFFFFFFFFFFFFFFFFFFFFFFFFFFFFFFF
310
FFFFFFFFFFFFFFFFFFFFFFFFFFFFFFFFFFFFFFFFFFFFFFFFFFFFFFFFFFFFFFFF
310
FFFFFFFFFFFFFFFFF000FFFFFFFFFFFFFFFFFFFFFFFFFFFFFFFFFFFFFFFFFFFF
310
FFFFFFFFFFFFFFFFFFFFFFFFFFFFFFFFFFFFFFFFFFFFFFFFFFFFFFFFFFFFFFFF
310
FFFFFFFFFFFFFFFFFFFFFFFFFFFFFFFFFFFFFFFFFFFFFFFFFFFFFFFFFFFFFFFF
310
F000FFFFFFFFFFFFFFFFFFFFFFFFFFFFFFFFFFFFFFFFFFFFFFFFFFFFFFFFFFFF
310
FFFFFFFFFFFFFFFFFFFFFFFFFFFFFFFFFFFFFFFFFFFFFFFFFFFFFFFFFFFFFFFF
310
FFFFFFFFFFFFFFFFFFFFFFFFFFFFFFFFFFFFFFFFFFFFFFFFF000FFFFFFFFFFFF
310
FFFFFFFFFFFFFFFFFFFFFFFFFFFFFFFFFFFFFFFFFFFFFFFFFFFFFFFFFFFFFFFF
310
FFFFFFFFFFFFFFFFFFFFFFFFFFFFFFFFFFFFFFFFFFFFFFFFFFFFFFFFFFFFFFFF
310
FFFFFFFFFFFFFFFFFFFFFFFFFFFFFFFFF000FFFFFFFFFFFFFFFFFFFFFFFFFFFF
310
FFFFFFFFFFFFFFFFFFFFFFFFFFFFFFFFFFFFFFFFFFFFFFFFFFFFFFFFFFFFFFFF
310
FFFFFFFFFFFFFFFFFFFFFFFFFFFFFFFFFFFFFFFFFFFFFFFFFFFFFFFFFFFFFFFF
310
FFFFFFFFFFFFFFFFF000FFFFFFFFFFFFFFFFFFFFFFFFFFFFFFFFFFFFFFFFFFFF
310
FFFFFFFFFFFFFFFFFFFFFFFFFFFFFFFFFFFFFFFFFFFFFFFFFFFFFFFFFFFFFFFF
310
FFFFFFFFFFFFFFFFFFFFFFFFFFFFFFFFFFFFFFFFFFFFFFFFFFFFFFFFFFFFFFFF
310
F000FFFFFFFFFFFFFFFFFFFFFFFFFFFFFFFFFFFFFFFFFFFFFFFFFFFFFFFFFFFF
310
FFFFFFFFFFFFFFFFFFFFFFFFFFFFFFFFFFFFFFFFFFFFFFFFFFFFFFFFFFFFFFFF
310
FFFFFFFFFFFFFFFFFFFFFFFFFFFFFFFFFFFFFFFFFFFFFFFFF000FFFFFFFFFFFF
310
FFFFFFFFFFFFFFFFFFFFFFFFFFFFFFFFFFFFFFFFFFFFFFFFFFFFFFFFFFFFFFFF
310
FFFFFFFFFFFFFFFFFFFFFFFFFFFFFFFFFFFFFFFFFFFFFFFFFFFFFFFFFFFFFFFF
310
FFFFFFFFFFFFFFFFFFFFFFFFFFFFFFFFF000FFFFFFFFFFFFFFFFFFFFFFFFFFFF
310
FFFFFFFFFFFFFFFFFFFFFFFFFFFFFFFFFFFFFFFFFFFFFFFFFFFFFFFFFFFFFFFF
310
FFFFFFFFFFFFFFFFFFFFFFFFFFFFFFFFFFFFFFFFFFFFFFFFFFFFFFFFFFFFFFFF
310
FFFFFFFFFFFFFFFFF000FFFFFFFFFFFFFFFFFFFFFFFFFFFFFFFFFFFFFFFFFFFF
310
FFFFFFFFFFFFFFFFFFFFFFFFFFFFFFFFFFFFFFFFFFFFFFFFFFFFFFFFFFFFFFFF
310
FFFFFFFFFFFFFFFFFFFFFFFFFFFFFFFFFFFFFFFFFFFFFFFFFFFFFFFFFFFFFFFF
310
F000FFFFFFFFFFFFFFFFFFFFFFFFFFFFFFFFFFFFFFFFFFFFFFFFFFFFFFFFFFFF
310
FFFFFFFFFFFFFFFFFFFFFFFFFFFFFFFFFFFFFFFFFFFFFFFFFFFFFFFFFFFFFFFF
310
FFFFFFFFFFFFFFFFFFFFFFFFFFFFFFFFFFFFFFFFFFFFFFFFF000FFFFFFFFFFFF
310
FFFFFFFFFFFFFFFFFFFFFFFFFFFFFFFFFFFFFFFFFFFFFFFFFFFFFFFFFFFFFFFF
310
FFFFFFFFFFFFFFFFFFFFFFFFFFFFFFFFFFFFFFFFFFFFFFFFFFFFFFFFFFFFFFFF
310
FFFFFFFFFFFFFFFFFFFFFFFFFFFFFFFFF000FFFFFFFFFFFFFFFFFFFFFFFFFFFF
310
FFFFFFFFFFFFFFFFFFFFFFFFFFFFFFFFFFFFFFFFFFFFFFFFFFFFFFFFFFFFFFFF
310
FFFFFFFFFFFFFFFFFFFFFFFFFFFFFFFFFFFFFFFFFFFFFFFFFFFFFFFFFFFFFFFF
310
FFFFFFFFFFFFFFFFF000FFFFFFFFFFFFFFFFFFFFFFFFFFFFFFFFFFFFFFFFFFFF
310
FFFFFFFFFFFFFFFFFFFFFFFFFFFFFFFFFFFFFFFFFFFFFFFFFFFFFFFFFFFFFFFF
310
FFFFFFFFFFFFFFFFFFFFFFFFFFFFFFFFFFFFFFFFFFFFFFFFFFFFFFFFFFFFFFFF
310
F000FFFFFFFFFFFFFFFFFFFFFFFFFFFFFFFFFFFFFFFFFFFFFFFFFFFFFFFFFFFF
310
FFFFFFFFFFFFFFFFFFFFFFFFFFFFFFFFFFFFFFFFFFFFFFFFFFFFFFFFFFFFFFFF
310
FFFFFFFFFFFFFFFFFFFFFFFFFFFFFFFFFFFFFFFFFFFFFFFFF000FFFFFFFFFFFF
310
FFFFFFFFFFFFFFFFFFFFFFFFFFFFFFFFFFFFFFFFFFFFFFFFFFFFFFFFFFFFFFFF
310
FFFFFFFFFFFFFFFFFFFFFFFFFFFFFFFFFFFFFFFFFFFFFFFFFFFFFFFFFFFFFFFF
310
FFFFFFFFFFFFFFFFFFFFFFFFFFFFFFFFF000FFFFFFFFFFFFFFFFFFFFFFFFFFFF
310
FFFFFFFFFFFFFFFFFFFFFFFFFFFFFFFFFFFFFFFFFFFFFFFFFFFFFFFFFFFFFFFF
310
FFFFFFFFFFFFFFFFFFFFFFFFFFFFFFFFFFFFFFFFFFFFFFFFFFFFFFFFFFFFFFFF
310
FFFFFFFFFFFFFFFFF000FFFFF80003FFFFFFFFFFFFFFFFFFFFFFFFFFFFFFFFFF
310
FFFFF00007FFFFFFFFFF00007FFFFFF800000000000000007FFFFFFFFFFFFFFF
310
FFFFFFFC001FFFFFFFFFFFFFFC001FFFFFFFFFFFFFFFFFFFFFFFFFFE0007FFFF
310
F000FFFF8000007FFFFFFFF8000FFFFFC0007FFFFF80007FFFFF0000007FFFFF
310
FFF8000007FFFFF800000000000000007FFFFFF0001FFFFFFFFFFFC00001FFFF
310
FFFFFFFFC00001FFFFFFFF000000000003FFFFE000007FFFF000FFFE0000000F
310
FFFFFFF0000FFFFF80007FFFFF80007FFFFC0000001FFFFFFFC0000001FFFFF8
310
00000000000000007FFFFFF0001FFFFFFFFFFE0000003FFFFFFFFFFE0000003F
310
FFFFFF000000000003FFFF0000000FFFF000FFF800000003FFFFFFF00007FFFF
310
80007FFFFF80007FFFF000000007FFFFFF000000003FFFF80000000000000000
310
7FFFFFF0001FFFFFFFFFF80000000FFFFFFFFFF80000000FFFFFFF0000000000
310
03FFFC00000003FFF000FFE000000000FFFFFFF00007FFFF80003FFFFF80007F
310
FFC000000001FFFFFC000000001FFFF800000000000000007FFFFFF0001FFFFF
310
FFFFE000000003FFFFFFFFE000000003FFFFFF000000000003FFF000000000FF
310
F000FF80000000007FFFFFF00007FFFF80003FFFFF80007FFF8000000000FFFF
310
F80000000007FFF800000000000000007FFFFFF0001FFFFFFFFFC000000001FF
310
FFFFFFC000000001FFFFFF000000000003FFC0000000007FF000FF0000000000
310
3FFFFFE00007FFFF00003FFFFF80007FFE00000000003FFFF00000000003FFF8
310
00000000000000007FFFFFF0001FFFFFFFFF8000000000FFFFFFFF8000000000
310
FFFFFF000000000003FF80000000003FF000FE00000000001FFFFFE00003FFFF
310
00003FFFFF80007FFC00000000001FFFE00000000001FFF8000001FFFE000000
310
7FFFFFF0001FFFFFFFFE00000000003FFFFFFE00000000003FFFFF0000000000
310
03FF00000000001FF000FC00000000000FFFFFE00003FFFF00001FFFFF80007F
310
F800000000001FFFC00000000000FFF8000001FFFE0000007FFFFFF0001FFFFF
310
FFFC00000000001FFFFFFC00000000001FFFFF000000000003FE00000000000F
310
F000F8000000000007FFFFE00003FFFF00001FFFFF80007FF800000000000FFF
310
800000000000FFF8000001FFFE0000007FFFFFF0001FFFFFFFF800000000000F
310
FFFFF800000000000FFFFF000000000003FC000000000007F000F80000000000
310
03FFFFC00003FFFE00001FFFFF80007FF0000000000007FF0000000000007FF8
310
000001FFFE0000007FFFFFF0001FFFFFFFF0000000000007FFFFF00000000000
310
07FFFF000000000003F8000000000003F000F0000000000003FFFFC00001FFFE
310
00001FFFFF80007FE0000000000007FE0000000000003FF8000001FFFE000000
310
7FFFFFF0001FFFFFFFF0000000000007FFFFF0000000000007FFFF0000000000
310
03F800001F800003F000E00001FFF00001FFFFC00001FFFE00000FFFFF80007F
310
E00001FFE00003FE00001FFF00003FF8000001FFFE0000007FFFFFF0001FFFFF
310
FFE000003E000003FFFFE000003E000003FFFF000000000003F00001FFF80001
310
F000E00007FFFC0001FFFFC00001FFFE00000FFFFF80007FC0000FFFFC0003FC
310
0000FFFFC0001FF8000001FFFE0000007FFFFFF0001FFFFFFFC00003FFE00001
310
FFFFC00003FFE00001FFFF0001FFFFFFFFF00007FFFE0001F000E0000FFFFF00
310
00FFFF800001FFFC00000FFFFF80007FC0001FFFFE0001FC0001FFFFE0001FF8
310
000001FFFE0000007FFFFFF0001FFFFFFF80000FFFF80000FFFF80000FFFF800
310
00FFFF0003FFFFFFFFE0000FFFFF8000F000C0003FFFFF8000FFFF800000FFFC
310
000007FFFF80007F80003FFFFF0001FC0003FFFFF0001FF8000001FFFE000000
310
7FFFFFF0001FFFFFFF80003FFFFE0000FFFF80003FFFFE0000FFFF0003FFFFFF
310
FFE0003FFFFF8000F000C0003FFFFF8000FFFF800000FFFC000007FFFF80007F
310
80007FFFFF8001F80007FFFFF8000FF8000001FFFE0000007FFFFFF0001FFFFF
310
FF00007FFFFF00007FFF00007FFFFF00007FFF0003FFFFFFFFE0003FFFFFC000
310
F000C0007FFFFFC000FFFF000000FFFC000007FFFF80007F8000FFFFFF8000F8
310
000FFFFFF8000FF8000001FFFE0000007FFFFFF0001FFFFFFF0000FFFFFF8000
310
7FFF0000FFFFFF80007FFF0003FFFFFFFFC0007FFFFFC00070008000FFFFFFC0
310
00FFFF000000FFF8000007FFFF80007F8000FFFFFF8000F8000FFFFFF8000FF8
310
000001FFFE0000007FFFFFF0001FFFFFFE0001FFFFFFC0003FFE0001FFFFFFC0
310
003FFF0003FFFFFFFFC0007FFFFFE00070008000FFFFFFC0007FFF0000007FF8
310
000003FFFF80007F0001FFFFFF8000F8000FFFFFF8000FF8000001FFFE000000
310
7FFFFFF0001FFFFFFE0001FFFFFFC0003FFE0001FFFFFFC0003FFF0003FFFFFF
310
FFC000FFFFFFE00070008000FFFFFFC0007FFF0000007FF8000003FFFF80007F
310
0001FFFFFF8000F8001FFFFFF8000FF8000001FFFE0000007FFFFFF0001FFFFF
310
FE0003FFFFFFE0003FFE0003FFFFFFE0003FFF0003FFFFFFFFC000FFFFFFE000
310
70008000FFFFFFC0007FFE0000007FF8000003FFFF80007F0001FFFFFF8000F0
310
001FFFFFF8000FF8000001FFFE0000007FFFFFF0001FFFFFFC0003FFFFFFE000
310
1FFC0003FFFFFFE0001FFF0003FFFFFFFFC000FFFFFFC00070008000FFFFFF80
310
007FFE0000007FF0000003FFFF80007F0001FFFFFF0000F0001FFFFFF8000FF8
310
000001FFFE0000007FFFFFF0001FFFFFFC0007FFFFFFF0001FFC0007FFFFFFF0
310
001FFF0003FFFFFFFFC000FFFFFFC00070008001FFFFFF0000FFFE0000003FF0
310
000001FFFF80007F0001FFFFFF0000F8001FFFFFF0000FF8000001FFFE000000
310
7FFFFFF0001FFFFFFC0007FFFFFFF0001FFC0007FFFFFFF0001FFF0003FFFFFF
310
FFC001FFFFFF80007000FFFFFFFFFE0000FFFE0008003FF0008001FFFF80007F
310
FFFFFFFFFC0000FFFFFFFFFFE0000FF8000001FFFE0000007FFFFFF0001FFFFF
310
F8000FFFFFFFF8000FF8000FFFFFFFF8000FFF0003FFFFFFFFFFFFFFFFFF0000
310
7000FFFFFFFFFC0000FFFC0008003FF0008001FFFF80007FFFFFFFFFF80001FF
310
FFFFFFFF80000FF8000001FFFE0000007FFFFFF0001FFFFFF8000FFFFFFFF800
310
0FF8000FFFFFFFF8000FFF0003FFFFFFFFFFFFFFFFFE0000F000FFFFFFFFE000
310
00FFFC000C003FE000C001FFFF80007FFFFFFFFFC00001FFFFFFFFFE00001FF8
310
000001FFFE0000007FFFFFF0001FFFFFF8000FFFFFFFF8000FF8000FFFFFFFF8
310
000FFF0003FFFFFFFFFFFFFFFFF00000F000FFFFFFFE000001FFFC000C001FE0
310
00C000FFFF80007FFFFFFFFE000001FFFFFFFFE000001FF80FFFFFFFFFFFFFC0
310
7FFFFFF0001FFFFFF8000FFFFFFFF8000FF8000FFFFFFFF8000FFF0003FFFFFF
310
FFFFFFFFFF800000F000FFFFFFC0000001FFFC001C001FE001C000FFFF80007F
310
FFFFFF80000003FFFFFFF80000001FF80FFFFFFFFFFFFFC07FFFFFF0001FFFFF
310
F8001FFFFFFFFC000FF8001FFFFFFFFC000FFF0003FFFFFFFFFFFFFFF0000001
310
F000FFFFF800000001FFF8001C001FE001C000FFFF80007FFFFFF800000003FF
310
FFFF800000003FF80FFFFFFFFFFFFFC07FFFFFF0001FFFFFF8001FFFFFFFFC00
310
0FF8001FFFFFFFFC000FFF0003FFFFFFFFFFFFFE00000001F000FFFFC0000000
310
03FFF8001E001FC001E000FFFF80007FFFFF8000000007FFFFFC000000003FF8
310
0FFFFFFFFFFFFFC07FFFFFF0001FFFFFF8001FFFFFFFFC000FF8001FFFFFFFFC
310
000FFF0003FFFFFFFFFFFFE000000003F000FFFE0000000007FFF8001E000FC0
310
01E0007FFF80007FFFFE0000000007FFFFE0000000007FF80FFFFFFFFFFFFFC0
310
7FFFFFF0001FFFFFF0001FFFFFFFFC0007F0001FFFFFFFFC0007FF0003FFFFFF
310
FFFFFF0000000003F000FFF80000000007FFF8001E000FC003E0007FFF80007F
310
FFF0000000000FFFFF8000000000FFF80FFFFFFFFFFFFFC07FFFFFF0001FFFFF
310
F0001FFFFFFFFC0007F0001FFFFFFFFC0007FF0003FFFFFFFFFFFC0000000007
310
F000FFE0000000000FFFF0003E000FC003E0007FFF80007FFFC0000000001FFF
310
FE0000000001FFF80FFFFFFFFFFFFFC07FFFFFF0001FFFFFF0001FFFFFFFFC00
310
07F0001FFFFFFFFC0007FF0003FFFFFFFFFFF0000000000FF000FFC000000000
310
1FFFF0003F000F8003F0003FFF80007FFF80000000003FFFF80000000003FFF8
310
0FFFFFFFFFFFFFC07FFFFFF0001FFFFFF0001FFFFFFFFC0007F0001FFFFFFFFC
310
0007FF0003FFFFFFFFFFE0000000001FF000FF00000000007FFFF0003F000780
310
03F0003FFF80007FFF00000000007FFFF00000000007FFF80FFFFFFFFFFFFFC0
310
7FFFFFF0001FFFFFF0001FFFFFFFFC0007F0001FFFFFFFFC0007FF0003FFFFFF
310
FFFF80000000007FF000FE0000000000FFFFE0003F00078007F0003FFF80007F
310
FE0000000001FFFFE0000000001FFFF80FFFFFFFFFFFFFC07FFFFFF0001FFFFF
310
F0001FFFFFFFFC0007F0001FFFFFFFFC0007FF0003FFFFFFFFFF0000000000FF
310
F000FC0000000003FFFFE0007F00078007F0003FFF80007FFC0000000007FFFF
310
C0000000007FFFF80FFFFFFFFFFFFFC07FFFFFF0001FFFFFF8001FFFFFFFFC00
310
0FF8001FFFFFFFFC000FFF0003FFFFFFFFFE0000000003FFF000FC000000000F
310
FFFFE0007F80070007F8001FFF80007FF8000000001FFFFF8000000001FFFFF8
310
0FFFFFFFFFFFFFC07FFFFFF0001FFFFFF8001FFFFFFFFC000FF8001FFFFFFFFC
310
000FFF0003FFFFFFFFFC000000000FFFF000F8000000007FFFFFE0007F800700
310
07F8001FFF80007FF000000000FFFFFF800000000FFFFFF80FFFFFFFFFFFFFC0
310
7FFFFFF0001FFFFFF8000FFFFFFFF8000FF8000FFFFFFFF8000FFF0003FFFFFF
310
FFFC000000007FFFF000F800000007FFFFFFC0007F8003000FF8001FFF80007F
310
F000000007FFFFFF000000007FFFFFF80FFFFFFFFFFFFFC07FFFFFF0001FFFFF
310
F8000FFFFFFFF8000FF8000FFFFFFFF8000FFF0003FFFFFFFFF80000000FFFFF
310
F000F0000000FFFFFFFFC000FF8003000FF8001FFF80007FE0000000FFFFFFFF
310
0000000FFFFFFFF8000001FFFE0000007FFFFFF0001FFFFFF8000FFFFFFFF800
310
0FF8000FFFFFFFF8000FFF0003FFFFFFFFF8000000FFFFFFF000F000000FFFFF
310
FFFFC000FFC002000FF8000FFF80007FE000001FFFFFFFFE000001FFFFFFFFF8
310
000001FFFE0000007FFFFFF0001FFFFFF8000FFFFFFFF8000FF8000FFFFFFFF8
310
000FFF0003FFFFFFFFF000001FFFFFFFF000E00000FFFFFFFFFFC000FFC00200
310
0FFC000FFF80007FE00001FFFFFFFFFE00001FFFFFFFFFF8000001FFFE000000
310
7FFFFFF0001FFFFFFC000FFFFFFFF8001FFC000FFFFFFFF8001FFF0003FFFFFF
310
FFF00001FFFFFFFFF000E00007FFFFFFFFFF8000FFC000001FFC000FFF80007F
310
C0000FFFFFFFFFFE0000FFFFFFFFFFF8000001FFFE0000007FFFFFF0001FFFFF
310
FC0007FFFFFFF0001FFC0007FFFFFFF0001FFF0003FFFFFFFFF00007FFFFFFFF
310
F000E0001FFFFFFFFFFF8000FFC000001FFC000FFF80007FC0003FFFFFFFFFFE
310
0001FFFFFFFFFFF8000001FFFE0000007FFFFFF0001FFFFFFC0007FFFFFFF000
310
1FFC0007FFFFFFF0001FFF0003FFFFFFFFF0001FFFFFFFFFF000E0003FFFFF00
310
03FF8001FFE000001FFC0007FF80007FC0007FFFFF0007FC0003FFFFF0003FF8
310
000001FFFE0000007FFFFFF0001FFFFFFC0003FFFFFFE0001FFC0003FFFFFFE0
310
001FFF0003FFFFFFFFF0003FFFFFFFFFF000E0003FFFFF0001FF8001FFE00000
310
1FFE0007FF80007FC0007FFFFE0003FC0007FFFFE0003FF8000001FFFE000000
310
7FFFFFF0001FFFFFFE0003FFFFFFE0003FFE0003FFFFFFE0003FFF0003FFFFFF
310
FFF0003FFFFF8001F000E0003FFFFF0001FF0001FFE000001FFE0007FF80007F
310
C0007FFFFE0003FC0007FFFFE0003FF8000001FFFE0000007FFFFFF0001FFFFF
310
FE0001FFFFFFC0003FFE0001FFFFFFC0003FFF0003FFFFFFFFF0003FFFFF0001
310
F000E0003FFFFF0003FF0001FFE000003FFE0007FF80007FC0007FFFFE0003FC
310
0007FFFFE0003FF8000001FFFE0000007FFFFFF0001FFFFFFF0001FFFFFFC000
310
7FFF0001FFFFFFC0007FFF0003FFFFFFFFF0003FFFFF0001F000E0003FFFFE00
310
03FF0003FFF000003FFE0003FF80007FC0007FFFFC0003FE0007FFFFE0003FF8
310
000001FFFE0000007FFFFFF0001FFFFFFF0000FFFFFF80007FFF0000FFFFFF80
310
007FFF0003FFFFFFFFF0003FFFFF0001F000E0003FFFFE0003FF0003FFF00000
310
3FFF0003FF80007FC0007FFFFC0007FE0007FFFFC0003FF8000001FFFE000000
310
7FFFFFF0001FFFFFFF80007FFFFF0000FFFF80007FFFFF0000FFFF0003FFFFFF
310
FFF0003FFFFF0003F000E0003FFFFC0003FE0003FFF000003FFF0003FF80007F
310
E0003FFFF80007FE0003FFFFC0007FF8000001FFFE0000007FFFFFF0001FFFFF
310
FF80003FFFFE0000FFFF80003FFFFE0000FFFF0003FFFFFFFFF0001FFFFE0003
310
F000F0001FFFF80003FE0003FFF000007FFF0001FF80007FE0003FFFF00007FE
310
0001FFFF80007FF8000001FFFE0000007FFFFFF0001FFFFFFFC0000FFFF80001
310
FFFFC0000FFFF80001FFFF0003FFFFFFFFF0001FFFFC0003F000F0000FFFF000
310
07FE0007FFF800007FFF0001FF80007FE0001FFFE00007FF0000FFFE00007FF8
310
000001FFFE0000007FFFFFF0001FFFFFFFC00003FFE00001FFFFC00003FFE000
310
01FFFF0003FFFFFFFFF8000FFFF80003F000F00003FFC00007FC0007FFF80000
310
7FFF8001FF80007FF00007FF80000FFF00007FF80000FFF8000001FFFE000000
310
7F80000000000001FFE000003E000003FFFFE000003E000003FFFF0003FFFFFF
310
FFF80003FFE00007F000F800000000000FFC0007FFF800007FFF8001FF80007F
310
F000000000000FFF000000000000FFF8000001FFFE0000007F80000000000001
310
FFF0000000000007FFFFF0000000000007FFFF0003FFFFFFFFFC00007E000007
310
F000F800000000000FFC0007FFF80000FFFF8000FF80007FF800000000001FFF
310
800000000001FFF8000001FFFE0000007F80000000000001FFF800000000000F
310
FFFFF800000000000FFFFF0003FFFFFFFFFC00000000000FF000FC0000000000
310
1FFC0007FFFC0000FFFF8000FF80007FF800000000003FFFC00000000001FFF8
310
000001FFFE0000007F80000000000001FFF800000000000FFFFFF80000000000
310
0FFFFF0003FFFFFFFFFE00000000001FF000FE00000000003FF8000FFFFC0000
310
FFFF8000FF80007FFC00000000003FFFC00000000003FFF8000001FFFE000000
310
7F80000000000001FFFC00000000001FFFFFFC00000000001FFFFF0003FFFFFF
310
FFFF00000000001FF000FF00000000003FF8000FFFFC0000FFFFC000FF80007F
310
FE00000000007FFFE00000000007FFF8000001FFFE0000007F80000000000001
310
FFFE00000000003FFFFFFE00000000003FFFFF0003FFFFFFFFFF80000000003F
310
F000FF80000000007FF8000FFFFC0001FFFFC0007F80007FFF0000000000FFFF
310
F0000000000FFFF800000000000000007F80000000000001FFFF8000000000FF
310
FFFFFF8000000000FFFFFF0003FFFFFFFFFFC0000000007FF000FFC000000000
310
FFF8000FFFFE0001FFFFC0007F80007FFF8000000001FFFFF8000000001FFFF8
310
00000000000000007F80000000000001FFFFC000000001FFFFFFFFC000000001
310
FFFFFF0003FFFFFFFFFFE000000000FFF000FFE000000003FFF0001FFFFE0001
310
FFFFC0007F80007FFFC000000007FFFFFE000000003FFFF80000000000000000
310
7F80000000000001FFFFE000000003FFFFFFFFE000000003FFFFFF0003FFFFFF
310
FFFFF000000003FFF000FFF80000000FFFF0001FFFFE0001FFFFE0007F80007F
310
FFF00000000FFFFFFF00000000FFFFF800000000000000007F80000000000001
310
FFFFF80000000FFFFFFFFFF80000000FFFFFFF0003FFFFFFFFFFFC0000000FFF
310
F000FFFE0000003FFFF0001FFFFE0003FFFFE0003F80007FFFFC0000003FFFFF
310
FFC0000003FFFFF800000000000000007F80000000000001FFFFFE0000003FFF
310
FFFFFFFE0000003FFFFFFF0003FFFFFFFFFFFF0000003FFFF000FFFF800000FF
310
FFF0001FFFFF0003FFFFE0003F80007FFFFF000001FFFFFFFFF800001FFFFFF8
310
00000000000000007F80000000000001FFFFFFC00001FFFFFFFFFFFFC00001FF
310
FFFFFF0003FFFFFFFFFFFFC00000FFFFF000FFFFF8000FFFFFFFFFFFFFFFFFFF
310
FFFFFFFFFFFFFFFFFFFFF0001FFFFFFFFFFF0000FFFFFFF80000000000000000
310
7FFFFFFFFFFFFFFFFFFFFFFC001FFFFFFFFFFFFFFC001FFFFFFFFFFFFFFFFFFF
310
FFFFFFFC001FFFFFF000FFFFFFFFFFFFFFFFFFFFFFFFFFFFFFFFFFFFFFFFFFFF
310
FFFFFFFFFFFFFFFFFFFFFFFFFFFFFFFFFFFFFFFFFFFFFFFFFFFFFFFFFFFFFFFF
310
FFFFFFFFFFFFFFFFFFFFFFFFFFFFFFFFFFFFFFFFFFFFFFFFFFFFFFFFFFFFFFFF
310
F000FFFFFFFFFFFFFFFFFFFFFFFFFFFFFFFFFFFFFFFFFFFFFFFFFFFFFFFFFFFF
310
FFFFFFFFFFFFFFFFFFFFFFFFFFFFFFFFFFFFFFFFFFFFFFFFFFFFFFFFFFFFFFFF
310
FFFFFFFFFFFFFFFFFFFFFFFFFFFFFFFFFFFFFFFFFFFFFFFFF000FFFFFFFFFFFF
310
FFFFFFFFFFFFFFFFFFFFFFFFFFFFFFFFFFFFFFFFFFFFFFFFFFFFFFFFFFFFFFFF
310
FFFFFFFFFFFFFFFFFFFFFFFFFFFFFFFFFFFFFFFFFFFFFFFFFFFFFFFFFFFFFFFF
310
FFFFFFFFFFFFFFFFFFFFFFFFFFFFFFFFF000FFFFFFFFFFFFFFFFFFFFFFFFFFFF
310
FFFFFFFFFFFFFFFFFFFFFFFFFFFFFFFFFFFFFFFFFFFFFFFFFFFFFFFFFFFFFFFF
310
FFFFFFFFFFFFFFFFFFFFFFFFFFFFFFFFFFFFFFFFFFFFFFFFFFFFFFFFFFFFFFFF
310
FFFFFFFFFFFFFFFFF000FFFFFFFFFFFFFFFFFFFFFFFFFFFFFFFFFFFFFFFFFFFF
310
FFFFFFFFFFFFFFFFFFFFFFFFFFFFFFFFFFFFFFFFFFFFFFFFFFFFFFFFFFFFFFFF
310
FFFFFFFFFFFFFFFFFFFFFFFFFFFFFFFFFFFFFFFFFFFFFFFFFFFFFFFFFFFFFFFF
310
F000FFFFFFFFFFFFFFFFFFFFFFFFFFFFFFFFFFFFFFFFFFFFFFFFFFFFFFFFFFFF
310
FFFFFFFFFFFFFFFFFFFFFFFFFFFFFFFFFFFFFFFFFFFFFFFFFFFFFFFFFFFFFFFF
310
FFFFFFFFFFFFFFFFFFFFFFFFFFFFFFFFFFFFFFFFFFFFFFFFF000FFFFFFFFFFFF
310
FFFFFFFFFFFFFFFFFFFFFFFFFFFFFFFFFFFFFFFFFFFFFFFFFFFFFFFFFFFFFFFF
310
FFFFFFFFFFFFFFFFFFFFFFFFFFFFFFFFFFFFFFFFFFFFFFFFFFFFFFFFFFFFFFFF
310
FFFFFFFFFFFFFFFFFFFFFFFFFFFFFFFFF000FFFFFFFFFFFFFFFFFFFFFFFFFFFF
310
FFFFFFFFFFFFFFFFFFFFFFFFFFFFFFFFFFFFFFFFFFFFFFFFFFFFFFFFFFFFFFFF
310
FFFFFFFFFFFFFFFFFFFFFFFFFFFFFFFFFFFFFFFFFFFFFFFFFFFFFFFFFFFFFFFF
310
FFFFFFFFFFFFFFFFF000FFFFFFFFFFFFFFFFFFFFFFFFFFFFFFFFFFFFFFFFFFFF
310
FFFFFFFFFFFFFFFFFFFFFFFFFFFFFFFFFFFFFFFFFFFFFFFFFFFFFFFFFFFFFFFF
310
FFFFFFFFFFFFFFFFFFFFFFFFFFFFFFFFFFFFFFFFFFFFFFFFFFFFFFFFFFFFFFFF
310
F000FFFFFFFFFFFFFFFFFFFFFFFFFFFFFFFFFFFFFFFFFFFFFFFFFFFFFFFFFFFF
310
FFFFFFFFFFFFFFFFFFFFFFFFFFFFFFFFFFFFFFFFFFFFFFFFFFFFFFFFFFFFFFFF
310
FFFFFFFFFFFFFFFFFFFFFFFFFFFFFFFFFFFFFFFFFFFFFFFFF000FFFFFFFFFFFF
310
FFFFFFFFFFFFFFFFFFFFFFFFFFFFFFFFFFFFFFFFFFFFFFFFFFFFFFFFFFFFFFFF
310
FFFFFFFFFFFFFFFFFFFFFFFFFFFFFFFFFFFFFFFFFFFFFFFFFFFFFFFFFFFFFFFF
310
FFFFFFFFFFFFFFFFFFFFFFFFFFFFFFFFF000FFFFFFFFFFFFFFFFFFFFFFFFFFFF
310
FFFFFFFFFFFFFFFFFFFFFFFFFFFFFFFFFFFFFFFFFFFFFFFFFFFFFFFFFFFFFFFF
310
FFFFFFFFFFFFFFFFFFFFFFFFFFFFFFFFFFFFFFFFFFFFFFFFFFFFFFFFFFFFFFFF
310
FFFFFFFFFFFFFFFFF000FFFFFFFFFFFFFFFFFFFFFFFFFFFFFFFFFFFFFFFFFFFF
310
FFFFFFFFFFFFFFFFFFFFFFFFFFFFFFFFFFFFFFFFFFFFFFFFFFFFFFFFFFFFFFFF
310
FFFFFFFFFFFFFFFFFFFFFFFFFFFFFFFFFFFFFFFFFFFFFFFFFFFFFFFFFFFFFFFF
310
F000FFFFFFFFFFFFFFFFFFFFFFFFFFFFFFFFFFFFFFFFFFFFFFFFFFFFFFFFFFFF
310
FFFFFFFFFFFFFFFFFFFFFFFFFFFFFFFFFFFFFFFFFFFFFFFFFFFFFFFFFFFFFFFF
310
FFFFFFFFFFFFFFFFFFFFFFFFFFFFFFFFFFFFFFFFFFFFFFFFF000FFFFFFFFFFFF
310
FFFFFFFFFFFFFFFFFFFFFFFFFFFFFFFFFFFFFFFFFFFFFFFFFFFFFFFFFFFFFFFF
310
FFFFFFFFFFFFFFFFFFFFFFFFFFFFFFFFFFFFFFFFFFFFFFFFFFFFFFFFFFFFFFFF
310
FFFFFFFFFFFFFFFFFFFFFFFFFFFFFFFFF000FFFFFFFFFFFFFFFFFFFFFFFFFFFF
310
FFFFFFFFFFFFFFFFFFFFFFFFFFFFFFFFFFFFFFFFFFFFFFFFFFFFFFFFFFFFFFFF
310
FFFFFFFFFFFFFFFFFFFFFFFFFFFFFFFFFFFFFFFFFFFFFFFFFFFFFFFFFFFFFFFF
310
FFFFFFFFFFFFFFFFF000FFFFFFFFFFFFFFFFFFFFFFFFFFFFFFFFFFFFFFFFFFFF
310
FFFFFFFFFFFFFFFFFFFFFFFFFFFFFFFFFFFFFFFFFFFFFFFFFFFFFFFFFFFFFFFF
310
FFFFFFFFFFFFFFFFFFFFFFFFFFFFFFFFFFFFFFFFFFFFFFFFFFFFFFFFFFFFFFFF
310
F000FFFFFFFFFFFFFFFFFFFFFFFFFFFFFFFFFFFFFFFFFFFFFFFFFFFFFFFFFFFF
310
FFFFFFFFFFFFFFFFFFFFFFFFFFFFFFFFFFFFFFFFFFFFFFFFFFFFFFFFFFFFFFFF
310
FFFFFFFFFFFFFFFFFFFFFFFFFFFFFFFFFFFFFFFFFFFFFFFFF000FFFFFFFFFFFF
310
FFFFFFFFFFFFFFFFFFFFFFFFFFFFFFFFFFFFFFFFFFFFFFFFFFFFFFFFFFFFFFFF
310
FFFFFFFFFFFFFFFFFFFFFFFFFFFFFFFFFFFFFFFFFFFFFFFFFFFFFFFFFFFFFFFF
310
FFFFFFFFFFFFFFFFFFFFFFFFFFFFFFFFF000FFFFFFFFFFFFFFFFFFFFFFFFFFFF
310
FFFFFFFFFFFFFFFFFFFFFFFFFFFFFFFFFFFFFFFFFFFFFFFFFFFFFFFFFFFFFFFF
310
FFFFFFFFFFFFFFFFFFFFFFFFFFFFFFFFFFFFFFFFFFFFFFFFFFFFFFFFFFFFFFFF
310
FFFFFFFFFFFFFFFFF000FFFFFFFFFFFFFFFFFFFFFFFFFFFFFFFFFFFFFFFFFFFF
310
FFFFFFFFFFFFFFFFFFFFFFFFFFFFFFFFFFFFFFFFFFFFFFFFFFFFFFFFFFFFFFFF
310
FFFFFFFFFFFFFFFFFFFFFFFFFFFFFFFFFFFFFFFFFFFFFFFFFFFFFFFFFFFFFFFF
310
F000FFFFFFFFFFFFFFFFFFFFFFFFFFFFFFFFFFFFFFFFFFFFFFFFFFFFFFFFFFFF
310
FFFFFFFFFFFFFFFFFFFFFFFFFFFFFFFFFFFFFFFFFFFFFFFFFFFFFFFFFFFFFFFF
310
FFFFFFFFFFFFFFFFFFFFFFFFFFFFFFFFFFFFFFFFFFFFFFFFF000FFFFFFFFFFFF
310
FFFFFFFFFFFFFFFFFFFFFFFFFFFFFFFFFFFFFFFFFFFFFFFFFFFFFFFFFFFFFFFF
310
FFFFFFFFFFFFFFFFFFFFFFFFFFFFFFFFFFFFFFFFFFFFFFFFFFFFFFFFFFFFFFFF
310
FFFFFFFFFFFFFFFFFFFFFFFFFFFFFFFFF0000000000000000000000000000000
310
0000000000000000000000000000000000000000000000000000000000000000
310
0000000000000000000000000000000000000000000000000000000000000000
310
0000000000000000000000000000000000000000000000000000000000000000
310
0000000000000000000000000000000000000000000000000000000000000000
310
0000000000000000000000000000000000000000000000000000000000000000
310
0000000000000000000000000000000000000000000000000000000000000000
310
0000000000000000000000000000000000000000000000000000000000000000
310
0000000000000000000000000000000000000000000000000000000000000000
310
0000000000000000000000000000000000000000000000000000000000000000
310
0000000000000000000000000000000000000000000000000000000000000000
310
0000000000000000000000000000000000000000000000000000000000000000
310
0000000000000000000000000000000000000000000000000000000000000000
310
0000000000000000000000000000000000000000000000000000000000000000
310
0000000000000000000000000000000000000000000000000000000000000000
310
0000000000000000000000000000000000000000000000000000000000000000
  1
OLE
  0
ENDSEC
  0
SECTION
  2
OBJECTS
  0
DICTIONARY
  5
C
330
0
100
AcDbDictionary
281
     1
  3
ACAD_GROUP
350
D
  3
ACAD_LAYOUT
350
1A
  3
ACAD_MLINESTYLE
350
17
  3
ACAD_PLOTSETTINGS
350
19
  3
ACAD_PLOTSTYLENAME
350
E
  3
ACAD_SCALELIST
350
47
  0
DICTIONARY
  5
D
102
{ACAD_REACTORS
330
C
102
}
330
C
100
AcDbDictionary
281
     1
  0
DICTIONARY
  5
1A
102
{ACAD_REACTORS
330
C
102
}
330
C
100
AcDbDictionary
281
     1
  3
Layout1
350
1E
  3
Layout2
350
26
  3
Model
350
22
  0
DICTIONARY
  5
17
102
{ACAD_REACTORS
330
C
102
}
330
C
100
AcDbDictionary
281
     1
  3
Standard
350
18
  0
DICTIONARY
  5
19
102
{ACAD_REACTORS
330
C
102
}
330
C
100
AcDbDictionary
281
     1
  0
ACDBDICTIONARYWDFLT
  5
E
102
{ACAD_REACTORS
330
C
102
}
330
C
100
AcDbDictionary
281
     1
  3
Normal
350
F
100
AcDbDictionaryWithDefault
340
F
  0
DICTIONARY
  5
47
102
{ACAD_REACTORS
330
C
102
}
330
C
100
AcDbDictionary
281
     1
  3
A0
350
48
  3
A1
350
49
  3
A2
350
4A
  3
A3
350
4B
  3
A4
350
4C
  3
A5
350
4D
  3
A6
350
4E
  3
A7
350
4F
  3
A8
350
50
  3
A9
350
51
  3
B0
350
52
  3
B1
350
53
  3
B2
350
54
  3
B3
350
55
  3
B4
350
56
  3
B5
350
57
  3
B6
350
58
  3
B7
350
59
  3
B8
350
5A
  3
B9
350
5B
  3
C0
350
5C
  3
C1
350
5D
  3
C2
350
5E
  3
C3
350
5F
  3
C4
350
60
  3
C5
350
61
  3
C6
350
62
  3
C7
350
63
  3
C8
350
64
  3
C9
350
65
  3
D0
350
66
  3
D1
350
67
  3
D2
350
68
  0
LAYOUT
  5
1E
102
{ACAD_REACTORS
330
1A
102
}
330
1A
100
AcDbPlotSettings
  1

  2
none_device
  4

  6

 40
0.0
 41
0.0
 42
0.0
 43
0.0
 44
0.0
 45
0.0
 46
0.0
 47
0.0
 48
0.0
 49
0.0
140
0.0
141
0.0
142
1.0
143
1.0
 70
   688
 72
     1
 73
     0
 74
     5
  7

 75
    16
147
1.0
148
0.0
149
0.0
100
AcDbLayout
  1
Layout1
 70
     1
 71
     1
 10
0.0
 20
0.0
 11
420.0
 21
297.0
 12
0.0
 22
0.0
 32
0.0
 14
1.0000000000E+20
 24
1.0000000000E+20
 34
1.0000000000E+20
 15
-1.0000000000E+20
 25
-1.0000000000E+20
 35
-1.0000000000E+20
146
0.0
 13
0.0
 23
0.0
 33
0.0
 16
1.0
 26
0.0
 36
0.0
 17
0.0
 27
1.0
 37
0.0
 76
     0
330
1B
  0
LAYOUT
  5
26
102
{ACAD_REACTORS
330
1A
102
}
330
1A
100
AcDbPlotSettings
  1

  2
none_device
  4

  6

 40
0.0
 41
0.0
 42
0.0
 43
0.0
 44
0.0
 45
0.0
 46
0.0
 47
0.0
 48
0.0
 49
0.0
140
0.0
141
0.0
142
1.0
143
1.0
 70
   688
 72
     1
 73
     0
 74
     5
  7

 75
    16
147
1.0
148
0.0
149
0.0
100
AcDbLayout
  1
Layout2
 70
     1
 71
     2
 10
0.0
 20
0.0
 11
0.0
 21
0.0
 12
0.0
 22
0.0
 32
0.0
 14
0.0
 24
0.0
 34
0.0
 15
0.0
 25
0.0
 35
0.0
146
0.0
 13
0.0
 23
0.0
 33
0.0
 16
1.0
 26
0.0
 36
0.0
 17
0.0
 27
1.0
 37
0.0
 76
     0
330
23
  0
LAYOUT
  5
22
102
{ACAD_REACTORS
330
1A
102
}
330
1A
100
AcDbPlotSettings
  1

  2
none_device
  4
Letter_(8.50_x_11.00_Inches)
  6

 40
6.35
 41
6.35
 42
6.35000508
 43
6.35000508
 44
215.9
 45
279.4
 46
0.0
 47
0.0
 48
0.0
 49
0.0
140
0.0
141
0.0
142
1.0
143
1.0
 70
  1712
 72
     1
 73
     0
 74
     0
  7

 75
     0
147
1.0
148
0.0
149
0.0
100
AcDbLayout
  1
Model
 70
     1
 71
     0
 10
0.0
 20
0.0
 11
297.0
 21
210.0
 12
0.0
 22
0.0
 32
0.0
 14
0.0
 24
0.0
 34
0.0
 15
297.0
 25
210.0
 35
0.0
146
0.0
 13
0.0
 23
0.0
 33
0.0
 16
1.0
 26
0.0
 36
0.0
 17
0.0
 27
1.0
 37
0.0
 76
     0
330
1F
331
29
  0
MLINESTYLE
  5
18
102
{ACAD_REACTORS
330
17
102
}
330
17
100
AcDbMlineStyle
  2
Standard
 70
     0
  3

 62
   256
 51
90.0
 52
90.0
 71
     2
 49
0.5
 62
   256
  6
BYLAYER
 49
-0.5
 62
   256
  6
BYLAYER
  0
ACDBPLACEHOLDER
  5
F
102
{ACAD_REACTORS
330
E
102
}
330
E
  0
SCALE
  5
48
102
{ACAD_REACTORS
330
47
102
}
330
47
100
AcDbScale
 70
     0
300
1:1
140
1.0
141
1.0
290
     1
  0
SCALE
  5
49
102
{ACAD_REACTORS
330
47
102
}
330
47
100
AcDbScale
 70
     0
300
1:2
140
1.0
141
2.0
290
     0
  0
SCALE
  5
4A
102
{ACAD_REACTORS
330
47
102
}
330
47
100
AcDbScale
 70
     0
300
1:4
140
1.0
141
4.0
290
     0
  0
SCALE
  5
4B
102
{ACAD_REACTORS
330
47
102
}
330
47
100
AcDbScale
 70
     0
300
1:5
140
1.0
141
5.0
290
     0
  0
SCALE
  5
4C
102
{ACAD_REACTORS
330
47
102
}
330
47
100
AcDbScale
 70
     0
300
1:8
140
1.0
141
8.0
290
     0
  0
SCALE
  5
4D
102
{ACAD_REACTORS
330
47
102
}
330
47
100
AcDbScale
 70
     0
300
1:10
140
1.0
141
10.0
290
     0
  0
SCALE
  5
4E
102
{ACAD_REACTORS
330
47
102
}
330
47
100
AcDbScale
 70
     0
300
1:16
140
1.0
141
16.0
290
     0
  0
SCALE
  5
4F
102
{ACAD_REACTORS
330
47
102
}
330
47
100
AcDbScale
 70
     0
300
1:20
140
1.0
141
20.0
290
     0
  0
SCALE
  5
50
102
{ACAD_REACTORS
330
47
102
}
330
47
100
AcDbScale
 70
     0
300
1:30
140
1.0
141
30.0
290
     0
  0
SCALE
  5
51
102
{ACAD_REACTORS
330
47
102
}
330
47
100
AcDbScale
 70
     0
300
1:40
140
1.0
141
40.0
290
     0
  0
SCALE
  5
52
102
{ACAD_REACTORS
330
47
102
}
330
47
100
AcDbScale
 70
     0
300
1:50
140
1.0
141
50.0
290
     0
  0
SCALE
  5
53
102
{ACAD_REACTORS
330
47
102
}
330
47
100
AcDbScale
 70
     0
300
1:100
140
1.0
141
100.0
290
     0
  0
SCALE
  5
54
102
{ACAD_REACTORS
330
47
102
}
330
47
100
AcDbScale
 70
     0
300
2:1
140
2.0
141
1.0
290
     0
  0
SCALE
  5
55
102
{ACAD_REACTORS
330
47
102
}
330
47
100
AcDbScale
 70
     0
300
4:1
140
4.0
141
1.0
290
     0
  0
SCALE
  5
56
102
{ACAD_REACTORS
330
47
102
}
330
47
100
AcDbScale
 70
     0
300
8:1
140
8.0
141
1.0
290
     0
  0
SCALE
  5
57
102
{ACAD_REACTORS
330
47
102
}
330
47
100
AcDbScale
 70
     0
300
10:1
140
10.0
141
1.0
290
     0
  0
SCALE
  5
58
102
{ACAD_REACTORS
330
47
102
}
330
47
100
AcDbScale
 70
     0
300
100:1
140
100.0
141
1.0
290
     0
  0
SCALE
  5
59
102
{ACAD_REACTORS
330
47
102
}
330
47
100
AcDbScale
 70
     0
300
1/128" = 1'-0"
140
0.0078125
141
12.0
290
     0
  0
SCALE
  5
5A
102
{ACAD_REACTORS
330
47
102
}
330
47
100
AcDbScale
 70
     0
300
1/64" = 1'-0"
140
0.015625
141
12.0
290
     0
  0
SCALE
  5
5B
102
{ACAD_REACTORS
330
47
102
}
330
47
100
AcDbScale
 70
     0
300
1/32" = 1'-0"
140
0.03125
141
12.0
290
     0
  0
SCALE
  5
5C
102
{ACAD_REACTORS
330
47
102
}
330
47
100
AcDbScale
 70
     0
300
1/16" = 1'-0"
140
0.0625
141
12.0
290
     0
  0
SCALE
  5
5D
102
{ACAD_REACTORS
330
47
102
}
330
47
100
AcDbScale
 70
     0
300
3/32" = 1'-0"
140
0.09375
141
12.0
290
     0
  0
SCALE
  5
5E
102
{ACAD_REACTORS
330
47
102
}
330
47
100
AcDbScale
 70
     0
300
1/8" = 1'-0"
140
0.125
141
12.0
290
     0
  0
SCALE
  5
5F
102
{ACAD_REACTORS
330
47
102
}
330
47
100
AcDbScale
 70
     0
300
3/16" = 1'-0"
140
0.1875
141
12.0
290
     0
  0
SCALE
  5
60
102
{ACAD_REACTORS
330
47
102
}
330
47
100
AcDbScale
 70
     0
300
1/4" = 1'-0"
140
0.25
141
12.0
290
     0
  0
SCALE
  5
61
102
{ACAD_REACTORS
330
47
102
}
330
47
100
AcDbScale
 70
     0
300
3/8" = 1'-0"
140
0.375
141
12.0
290
     0
  0
SCALE
  5
62
102
{ACAD_REACTORS
330
47
102
}
330
47
100
AcDbScale
 70
     0
300
1/2" = 1'-0"
140
0.5
141
12.0
290
     0
  0
SCALE
  5
63
102
{ACAD_REACTORS
330
47
102
}
330
47
100
AcDbScale
 70
     0
300
3/4" = 1'-0"
140
0.75
141
12.0
290
     0
  0
SCALE
  5
64
102
{ACAD_REACTORS
330
47
102
}
330
47
100
AcDbScale
 70
     0
300
1" = 1'-0"
140
1.0
141
12.0
290
     0
  0
SCALE
  5
65
102
{ACAD_REACTORS
330
47
102
}
330
47
100
AcDbScale
 70
     0
300
1-1/2" = 1'-0"
140
1.5
141
12.0
290
     0
  0
SCALE
  5
66
102
{ACAD_REACTORS
330
47
102
}
330
47
100
AcDbScale
 70
     0
300
3" = 1'-0"
140
3.0
141
12.0
290
     0
  0
SCALE
  5
67
102
{ACAD_REACTORS
330
47
102
}
330
47
100
AcDbScale
 70
     0
300
6" = 1'-0"
140
6.0
141
12.0
290
     0
  0
SCALE
  5
68
102
{ACAD_REACTORS
330
47
102
}
330
47
100
AcDbScale
 70
     0
300
1'-0" = 1'-0"
140
12.0
141
12.0
290
     0
  0
ENDSEC
  0
EOF
