  0
SECTION
  2
HEADER
  9
$ACADVER
  1
AC1015
  9
$ACADMAINTVER
 70
    13
  9
$DWGCODEPAGE
  3
ANSI_1252
  9
$INSBASE
 10
0.0
 20
0.0
 30
0.0
  9
$EXTMIN
 10
-29.16836682149698
 20
-51.77960765390867
 30
-0.0000000000000058
  9
$EXTMAX
 10
84.01620735148084
 20
28.05336361966601
 30
0.0000000000000104
  9
$LIMMIN
 10
0.0
 20
0.0
  9
$LIMMAX
 10
420.0
 20
297.0
  9
$ORTHOMODE
 70
     0
  9
$REGENMODE
 70
     1
  9
$FILLMODE
 70
     1
  9
$QTEXTMODE
 70
     0
  9
$MIRRTEXT
 70
     1
  9
$LTSCALE
 40
1.0
  9
$ATTMODE
 70
     1
  9
$TEXTSIZE
 40
2.5
  9
$TRACEWID
 40
1.0
  9
$TEXTSTYLE
  7
STANDARD
  9
$CLAYER
  8
0
  9
$CELTYPE
  6
ByLayer
  9
$CECOLOR
 62
   256
  9
$CELTSCALE
 40
1.0
  9
$DISPSILH
 70
     0
  9
$DIMSCALE
 40
1.0
  9
$DIMASZ
 40
3.0
  9
$DIMEXO
 40
0.0
  9
$DIMDLI
 40
3.75
  9
$DIMRND
 40
0.0
  9
$DIMDLE
 40
0.0
  9
$DIMEXE
 40
1.0
  9
$DIMTP
 40
0.0
  9
$DIMTM
 40
0.0
  9
$DIMTXT
 40
2.0
  9
$DIMCEN
 40
2.5
  9
$DIMTSZ
 40
0.0
  9
$DIMTOL
 70
     0
  9
$DIMLIM
 70
     0
  9
$DIMTIH
 70
     1
  9
$DIMTOH
 70
     1
  9
$DIMSE1
 70
     0
  9
$DIMSE2
 70
     0
  9
$DIMTAD
 70
     1
  9
$DIMZIN
 70
     0
  9
$DIMBLK
  1

  9
$DIMASO
 70
     1
  9
$DIMSHO
 70
     1
  9
$DIMPOST
  1

  9
$DIMAPOST
  1

  9
$DIMALT
 70
     0
  9
$DIMALTD
 70
     3
  9
$DIMALTF
 40
0.0394
  9
$DIMLFAC
 40
1.0
  9
$DIMTOFL
 70
     1
  9
$DIMTVP
 40
0.0
  9
$DIMTIX
 70
     0
  9
$DIMSOXD
 70
     0
  9
$DIMSAH
 70
     0
  9
$DIMBLK1
  1

  9
$DIMBLK2
  1

  9
$DIMSTYLE
  2
ISO-25
  9
$DIMCLRD
 70
     0
  9
$DIMCLRE
 70
     0
  9
$DIMCLRT
 70
     0
  9
$DIMTFAC
 40
1.0
  9
$DIMGAP
 40
1.524
  9
$DIMJUST
 70
     0
  9
$DIMSD1
 70
     0
  9
$DIMSD2
 70
     0
  9
$DIMTOLJ
 70
     0
  9
$DIMTZIN
 70
     0
  9
$DIMALTZ
 70
     0
  9
$DIMALTTZ
 70
     0
  9
$DIMUPT
 70
     0
  9
$DIMDEC
 70
     2
  9
$DIMTDEC
 70
     2
  9
$DIMALTU
 70
     2
  9
$DIMALTTD
 70
     3
  9
$DIMTXSTY
  7
STANDARD
  9
$DIMAUNIT
 70
     0
  9
$DIMADEC
 70
     0
  9
$DIMALTRND
 40
0.0
  9
$DIMAZIN
 70
     0
  9
$DIMDSEP
 70
    44
  9
$DIMATFIT
 70
     3
  9
$DIMFRAC
 70
     0
  9
$DIMLDRBLK
  1

  9
$DIMLUNIT
 70
     2
  9
$DIMLWD
 70
    -2
  9
$DIMLWE
 70
    -2
  9
$DIMTMOVE
 70
     0
  9
$LUNITS
 70
     2
  9
$LUPREC
 70
     2
  9
$SKETCHINC
 40
1.0
  9
$FILLETRAD
 40
10.0
  9
$AUNITS
 70
     0
  9
$AUPREC
 70
     0
  9
$MENU
  1
.
  9
$ELEVATION
 40
0.0
  9
$PELEVATION
 40
0.0
  9
$THICKNESS
 40
0.0
  9
$LIMCHECK
 70
     0
  9
$CHAMFERA
 40
10.0
  9
$CHAMFERB
 40
10.0
  9
$CHAMFERC
 40
20.0
  9
$CHAMFERD
 40
0.0
  9
$SKPOLY
 70
     0
  9
$TDCREATE
 40
2454378.459298333
  9
$TDUCREATE
 40
2454378.375965000
  9
$TDUPDATE
 40
2454648.474732604
  9
$TDUUPDATE
 40
2454648.391399270
  9
$TDINDWG
 40
0.1434337269
  9
$TDUSRTIMER
 40
0.1434335417
  9
$USRTIMER
 70
     1
  9
$ANGBASE
 50
0.0
  9
$ANGDIR
 70
     0
  9
$PDMODE
 70
     0
  9
$PDSIZE
 40
-1.0
  9
$PLINEWID
 40
0.0
  9
$SPLFRAME
 70
     0
  9
$SPLINETYPE
 70
     6
  9
$SPLINESEGS
 70
     8
  9
$HANDSEED
  5
1493
  9
$SURFTAB1
 70
     6
  9
$SURFTAB2
 70
     6
  9
$SURFTYPE
 70
     6
  9
$SURFU
 70
     6
  9
$SURFV
 70
     6
  9
$UCSBASE
  2

  9
$UCSNAME
  2

  9
$UCSORG
 10
0.0
 20
0.0
 30
0.0
  9
$UCSXDIR
 10
1.0
 20
0.0
 30
0.0
  9
$UCSYDIR
 10
0.0
 20
1.0
 30
0.0
  9
$UCSORTHOREF
  2

  9
$UCSORTHOVIEW
 70
     0
  9
$UCSORGTOP
 10
0.0
 20
0.0
 30
0.0
  9
$UCSORGBOTTOM
 10
0.0
 20
0.0
 30
0.0
  9
$UCSORGLEFT
 10
0.0
 20
0.0
 30
0.0
  9
$UCSORGRIGHT
 10
0.0
 20
0.0
 30
0.0
  9
$UCSORGFRONT
 10
0.0
 20
0.0
 30
0.0
  9
$UCSORGBACK
 10
0.0
 20
0.0
 30
0.0
  9
$PUCSBASE
  2

  9
$PUCSNAME
  2

  9
$PUCSORG
 10
0.0
 20
0.0
 30
0.0
  9
$PUCSXDIR
 10
1.0
 20
0.0
 30
0.0
  9
$PUCSYDIR
 10
0.0
 20
1.0
 30
0.0
  9
$PUCSORTHOREF
  2

  9
$PUCSORTHOVIEW
 70
     0
  9
$PUCSORGTOP
 10
0.0
 20
0.0
 30
0.0
  9
$PUCSORGBOTTOM
 10
0.0
 20
0.0
 30
0.0
  9
$PUCSORGLEFT
 10
0.0
 20
0.0
 30
0.0
  9
$PUCSORGRIGHT
 10
0.0
 20
0.0
 30
0.0
  9
$PUCSORGFRONT
 10
0.0
 20
0.0
 30
0.0
  9
$PUCSORGBACK
 10
0.0
 20
0.0
 30
0.0
  9
$USERI1
 70
     0
  9
$USERI2
 70
     0
  9
$USERI3
 70
     0
  9
$USERI4
 70
     0
  9
$USERI5
 70
     0
  9
$USERR1
 40
0.0
  9
$USERR2
 40
0.0
  9
$USERR3
 40
0.0
  9
$USERR4
 40
0.0
  9
$USERR5
 40
0.0
  9
$WORLDVIEW
 70
     1
  9
$SHADEDGE
 70
     3
  9
$SHADEDIF
 70
    70
  9
$TILEMODE
 70
     1
  9
$MAXACTVP
 70
    64
  9
$PINSBASE
 10
0.0
 20
0.0
 30
0.0
  9
$PLIMCHECK
 70
     0
  9
$PEXTMIN
 10
1.000000000000000E+20
 20
1.000000000000000E+20
 30
1.000000000000000E+20
  9
$PEXTMAX
 10
-1.000000000000000E+20
 20
-1.000000000000000E+20
 30
-1.000000000000000E+20
  9
$PLIMMIN
 10
0.0
 20
0.0
  9
$PLIMMAX
 10
420.0
 20
297.0
  9
$UNITMODE
 70
     0
  9
$VISRETAIN
 70
     1
  9
$PLINEGEN
 70
     0
  9
$PSLTSCALE
 70
     1
  9
$TREEDEPTH
 70
  3020
  9
$CMLSTYLE
  2
Standard
  9
$CMLJUST
 70
     0
  9
$CMLSCALE
 40
20.0
  9
$PROXYGRAPHICS
 70
     1
  9
$MEASUREMENT
 70
     1
  9
$CELWEIGHT
370
    -1
  9
$ENDCAPS
280
     0
  9
$JOINSTYLE
280
     0
  9
$LWDISPLAY
290
     1
  9
$INSUNITS
 70
     4
  9
$HYPERLINKBASE
  1

  9
$STYLESHEET
  1

  9
$XEDIT
290
     1
  9
$CEPSNTYPE
380
     0
  9
$PSTYLEMODE
290
     1
  9
$FINGERPRINTGUID
  2
{B670D01D-4751-421D-9EC6-3FC415A30308}
  9
$VERSIONGUID
  2
{A542312C-BD2F-4D1A-AE3E-11750E753BA5}
  9
$EXTNAMES
290
     1
  9
$PSVPSCALE
 40
0.0
  9
$OLESTARTUP
290
     0
  0
ENDSEC
  0
SECTION
  2
CLASSES
  0
CLASS
  1
ACDBDICTIONARYWDFLT
  2
AcDbDictionaryWithDefault
  3
AutoCAD 2000
 90
        0
280
     0
281
     0
  0
CLASS
  1
ACDBPLACEHOLDER
  2
AcDbPlaceHolder
  3
AutoCAD 2000
 90
        0
280
     0
281
     0
  0
CLASS
  1
LAYOUT
  2
AcDbLayout
  3
AutoCAD 2000
 90
        0
280
     0
281
     0
  0
CLASS
  1
DICTIONARYVAR
  2
AcDbDictionaryVar
  3
AutoCAD 2000
 90
        0
280
     0
281
     0
  0
ENDSEC
  0
SECTION
  2
TABLES
  0
TABLE
  2
VPORT
  5
8
330
0
100
AcDbSymbolTable
 70
     5
  0
VPORT
  5
1492
330
8
100
AcDbSymbolTableRecord
100
AcDbViewportTableRecord
  2
*Active
 70
     0
 10
0.0
 20
0.0
 11
1.0
 21
1.0
 12
-62.87557938070808
 22
-79.36621905532132
 13
0.0
 23
0.0
 14
10.0
 24
10.0
 15
10.0
 25
10.0
 16
0.0
 26
0.0
 36
1.0
 17
90.29949964569999
 27
67.5030970382
 37
0.0
 40
80.41925992429861
 41
1.998774509803921
 42
50.0
 43
0.0
 44
0.0
 50
0.0
 51
0.0
 71
     0
 72
  2000
 73
     1
 74
     3
 75
     0
 76
     0
 77
     0
 78
     0
281
     0
 65
     1
110
0.0
120
0.0
130
0.0
111
1.0
121
0.0
131
0.0
112
0.0
122
1.0
132
0.0
 79
     0
146
0.0
  0
ENDTAB
  0
TABLE
  2
LTYPE
  5
5
330
0
100
AcDbSymbolTable
 70
    10
  0
LTYPE
  5
14
330
5
100
AcDbSymbolTableRecord
100
AcDbLinetypeTableRecord
  2
ByBlock
 70
     0
  3

 72
    65
 73
     0
 40
0.0
  0
LTYPE
  5
15
330
5
100
AcDbSymbolTableRecord
100
AcDbLinetypeTableRecord
  2
ByLayer
 70
     0
  3

 72
    65
 73
     0
 40
0.0
  0
LTYPE
  5
16
330
5
100
AcDbSymbolTableRecord
100
AcDbLinetypeTableRecord
  2
Continuous
 70
     0
  3
Solid line
 72
    65
 73
     0
 40
0.0
  0
LTYPE
  5
2A
330
5
100
AcDbSymbolTableRecord
100
AcDbLinetypeTableRecord
  2
SLD-Durchgehend
 70
     0
  3
SolidWorks Line Style
 72
    65
 73
     0
 40
0.0
  0
LTYPE
  5
2B
330
5
100
AcDbSymbolTableRecord
100
AcDbLinetypeTableRecord
  2
SLD-Gestrichelt
 70
     0
  3
SolidWorks Line Style
 72
    65
 73
     2
 40
1.905
 49
1.27
 74
     0
 49
-0.635
 74
     0
  0
LTYPE
  5
2C
330
5
100
AcDbSymbolTableRecord
100
AcDbLinetypeTableRecord
  2
SLD-Phantom
 70
     0
  3
SolidWorks Line Style
 72
    65
 73
     6
 40
12.7
 49
6.349999999999997
 74
     0
 49
-1.27
 74
     0
 49
1.27
 74
     0
 49
-1.27
 74
     0
 49
1.27
 74
     0
 49
-1.27
 74
     0
  0
LTYPE
  5
2D
330
5
100
AcDbSymbolTableRecord
100
AcDbLinetypeTableRecord
  2
SLD-Kette
 70
     0
  3
SolidWorks Line Style
 72
    65
 73
     4
 40
10.16
 49
6.349999999999997
 74
     0
 49
-1.27
 74
     0
 49
1.27
 74
     0
 49
-1.27
 74
     0
  0
LTYPE
  5
2E
330
5
100
AcDbSymbolTableRecord
100
AcDbLinetypeTableRecord
  2
SLD-Punktstrich
 70
     0
  3
SolidWorks Line Style
 72
    65
 73
     4
 40
19.05
 49
15.24
 74
     0
 49
-1.27
 74
     0
 49
1.27
 74
     0
 49
-1.27
 74
     0
  0
LTYPE
  5
2F
330
5
100
AcDbSymbolTableRecord
100
AcDbLinetypeTableRecord
  2
SLD-Naht
 70
     0
  3
SolidWorks Line Style
 72
    65
 73
     2
 40
0.635
 49
0.0
 74
     0
 49
-0.635
 74
     0
  0
LTYPE
  5
30
330
5
100
AcDbSymbolTableRecord
100
AcDbLinetypeTableRecord
  2
SLD-Dicke-Dünne-Kette
 70
     0
  3
SolidWorks Line Style
 72
    65
 73
     4
 40
10.16
 49
6.349999999999997
 74
     0
 49
-1.27
 74
     0
 49
1.27
 74
     0
 49
-1.27
 74
     0
  0
LTYPE
  5
2D5
330
5
100
AcDbSymbolTableRecord
100
AcDbLinetypeTableRecord
  2
GEN3A
 70
     0
  3
 - - - - -
 72
    65
 73
     2
 40
3.1
 49
2.5
 74
     0
 49
-0.6
 74
     0
  0
LTYPE
  5
362
330
5
100
AcDbSymbolTableRecord
100
AcDbLinetypeTableRecord
  2
GEN7A
 70
     0
  3
__ . __ . __
 72
    65
 73
     4
 40
7.5
 49
5.0
 74
     0
 49
-1.25
 74
     0
 49
0.0
 74
     0
 49
-1.25
 74
     0
  0
ENDTAB
  0
TABLE
  2
LAYER
  5
2
102
{ACAD_XDICTIONARY
360
296
102
}
330
0
100
AcDbSymbolTable
 70
    15
  0
LAYER
  5
10
330
2
100
AcDbSymbolTableRecord
100
AcDbLayerTableRecord
  2
0
 70
     0
 62
     7
  6
Continuous
370
    -3
390
F
  0
LAYER
  5
31
330
2
100
AcDbSymbolTableRecord
100
AcDbLayerTableRecord
  2
FORMAT
 70
     0
 62
     7
  6
SLD-Durchgehend
370
     0
390
F
  0
LAYER
  5
32
330
2
100
AcDbSymbolTableRecord
100
AcDbLayerTableRecord
  2
VERMASSUNG
 70
     0
 62
     7
  6
SLD-Durchgehend
370
     0
390
F
  0
LAYER
  5
33
330
2
100
AcDbSymbolTableRecord
100
AcDbLayerTableRecord
  2
KOPF__DÜNN
 70
     0
 62
     7
  6
SLD-Durchgehend
370
     0
390
F
  0
LAYER
  5
34
330
2
100
AcDbSymbolTableRecord
100
AcDbLayerTableRecord
  2
KOPF__DICK
 70
     0
 62
     7
  6
SLD-Durchgehend
370
    15
390
F
  0
LAYER
  5
24C
330
2
100
AcDbSymbolTableRecord
100
AcDbLayerTableRecord
  2
Defpoints
 70
     0
 62
     7
  6
Continuous
290
     0
370
    -3
390
F
  0
LAYER
  5
293
330
2
100
AcDbSymbolTableRecord
100
AcDbLayerTableRecord
  2
5
 70
     0
 62
     7
  6
Continuous
370
    -3
390
F
  0
LAYER
  5
2D6
330
2
100
AcDbSymbolTableRecord
100
AcDbLayerTableRecord
  2
3
 70
     0
 62
     1
  6
GEN3A
370
    -3
390
F
  0
LAYER
  5
2D7
330
2
100
AcDbSymbolTableRecord
100
AcDbLayerTableRecord
  2
SK1
 70
     0
 62
     4
  6
Continuous
370
    -3
390
F
  0
LAYER
  5
2D8
330
2
100
AcDbSymbolTableRecord
100
AcDbLayerTableRecord
  2
SK3
 70
     0
 62
     1
  6
GEN3A
370
    -3
390
F
  0
LAYER
  5
35B
330
2
100
AcDbSymbolTableRecord
100
AcDbLayerTableRecord
  2
1
 70
     0
 62
     4
  6
Continuous
370
    -3
390
F
  0
LAYER
  5
361
330
2
100
AcDbSymbolTableRecord
100
AcDbLayerTableRecord
  2
SK4
 70
     0
 62
     2
  6
GEN7A
370
    -3
390
F
  0
LAYER
  5
363
330
2
100
AcDbSymbolTableRecord
100
AcDbLayerTableRecord
  2
4
 70
     0
 62
     2
  6
GEN7A
370
    -3
390
F
  0
LAYER
  5
365
330
2
100
AcDbSymbolTableRecord
100
AcDbLayerTableRecord
  2
2
 70
     0
 62
     7
  6
Continuous
370
    -3
390
F
  0
LAYER
  5
37C
330
2
100
AcDbSymbolTableRecord
100
AcDbLayerTableRecord
  2
SK2
 70
     0
 62
     7
  6
Continuous
370
    -3
390
F
  0
ENDTAB
  0
TABLE
  2
STYLE
  5
3
330
0
100
AcDbSymbolTable
 70
     3
  0
STYLE
  5
11
330
3
100
AcDbSymbolTableRecord
100
AcDbTextStyleTableRecord
  2
STANDARD
 70
     0
 40
0.0
 41
1.0
 50
0.0
 71
     0
 42
2.5
  3
ISOCPEUR.TTF
  4

1001
ACAD
1000
ISOCPEUR
1071
       34
  0
STYLE
  5
35
330
3
100
AcDbSymbolTableRecord
100
AcDbTextStyleTableRecord
  2
SLDTEXTSTYLE0
 70
     0
 40
0.0
 41
1.0
 50
0.0
 71
     0
 42
0.2
  3
ISOCPEUR.TTF
  4

1001
ACAD
1000
ISOCPEUR
1071
       34
  0
STYLE
  5
294
330
3
100
AcDbSymbolTableRecord
100
AcDbTextStyleTableRecord
  2
GENPRESET
 70
     0
 40
0.0
 41
1.0
 50
0.0
 71
     0
 42
3.5
  3
simplex.shx
  4

  0
ENDTAB
  0
TABLE
  2
VIEW
  5
6
330
0
100
AcDbSymbolTable
 70
     0
  0
ENDTAB
  0
TABLE
  2
UCS
  5
7
330
0
100
AcDbSymbolTable
 70
     0
  0
ENDTAB
  0
TABLE
  2
APPID
  5
9
330
0
100
AcDbSymbolTable
 70
     1
  0
APPID
  5
12
330
9
100
AcDbSymbolTableRecord
100
AcDbRegAppTableRecord
  2
ACAD
 70
     0
  0
ENDTAB
  0
TABLE
  2
DIMSTYLE
  5
A
330
0
100
AcDbSymbolTable
 70
     4
100
AcDbDimStyleTable
 71
     2
340
295
340
27
  0
DIMSTYLE
105
27
330
A
100
AcDbSymbolTableRecord
100
AcDbDimStyleTableRecord
  2
ISO-25
 70
     0
 41
2.5
 42
0.625
 43
3.75
 44
1.25
 73
     0
 74
     0
 77
     1
 78
     8
140
2.5
141
2.5
143
0.0393700787
147
0.625
171
     3
172
     1
271
     2
272
     2
274
     3
278
    44
283
     0
284
     8
340
11
  0
DIMSTYLE
105
259
330
A
100
AcDbSymbolTableRecord
100
AcDbDimStyleTableRecord
  2
SLDDIMSTYLE0
 70
     0
 41
3.0
 44
0.0
 73
     0
 74
     0
 77
     2
 78
    12
140
2.0
147
0.5
173
     1
271
     2
272
     3
284
    12
340
35
  0
DIMSTYLE
105
295
102
{ACAD_REACTORS
330
11B0
330
147B
102
}
330
A
100
AcDbSymbolTableRecord
100
AcDbDimStyleTableRecord
  2
GEN-ISO_TDM
 70
     0
 41
4.57
 42
0.0
 43
8.0
 44
2.0
 47
0.1
 48
0.1
 73
     0
 74
     0
 77
     1
 78
     8
140
4.57
141
2.0
146
0.7
147
1.5
172
     1
178
     7
179
     1
271
     2
272
     2
284
     8
285
     8
286
     8
340
294
  0
DIMSTYLE
105
F20
102
{ACAD_REACTORS
330
1026
102
}
330
A
100
AcDbSymbolTableRecord
100
AcDbDimStyleTableRecord
  2
SLDDIMSTYLE1
 70
     0
 41
3.0
 44
0.0
 45
0.000000001
 73
     0
 74
     0
 77
     1
 78
    12
140
2.0
144
0.5
147
0.5
173
     1
271
     2
272
     3
284
    12
340
35
  0
ENDTAB
  0
TABLE
  2
BLOCK_RECORD
  5
1
330
0
100
AcDbSymbolTable
 70
    35
  0
BLOCK_RECORD
  5
1F
330
1
100
AcDbSymbolTableRecord
100
AcDbBlockTableRecord
  2
*Model_Space
340
22
  0
BLOCK_RECORD
  5
1B
330
1
100
AcDbSymbolTableRecord
100
AcDbBlockTableRecord
  2
*Paper_Space
340
1E
  0
BLOCK_RECORD
  5
23
330
1
100
AcDbSymbolTableRecord
100
AcDbBlockTableRecord
  2
*Paper_Space0
340
26
  0
BLOCK_RECORD
  5
24D
330
1
100
AcDbSymbolTableRecord
100
AcDbBlockTableRecord
  2
*D1
340
0
  0
BLOCK_RECORD
  5
261
330
1
100
AcDbSymbolTableRecord
100
AcDbBlockTableRecord
  2
*D2
340
0
  0
BLOCK_RECORD
  5
274
330
1
100
AcDbSymbolTableRecord
100
AcDbBlockTableRecord
  2
*D3
340
0
  0
BLOCK_RECORD
  5
398
330
1
100
AcDbSymbolTableRecord
100
AcDbBlockTableRecord
  2
*D4
340
0
  0
BLOCK_RECORD
  5
3A2
330
1
100
AcDbSymbolTableRecord
100
AcDbBlockTableRecord
  2
_None
340
0
  0
BLOCK_RECORD
  5
435
330
1
100
AcDbSymbolTableRecord
100
AcDbBlockTableRecord
  2
*D6
340
0
  0
BLOCK_RECORD
  5
48A
330
1
100
AcDbSymbolTableRecord
100
AcDbBlockTableRecord
  2
*D7
340
0
  0
BLOCK_RECORD
  5
496
330
1
100
AcDbSymbolTableRecord
100
AcDbBlockTableRecord
  2
*D8
340
0
  0
BLOCK_RECORD
  5
4A2
330
1
100
AcDbSymbolTableRecord
100
AcDbBlockTableRecord
  2
*D9
340
0
  0
BLOCK_RECORD
  5
4AE
330
1
100
AcDbSymbolTableRecord
100
AcDbBlockTableRecord
  2
SW_CENTERMARKSYMBOL_0
340
0
102
{BLKREFS
331
539
331
772
331
F3A
331
119C
102
}
  0
BLOCK_RECORD
  5
929
330
1
100
AcDbSymbolTableRecord
100
AcDbBlockTableRecord
  2
*D11
340
0
  0
BLOCK_RECORD
  5
935
330
1
100
AcDbSymbolTableRecord
100
AcDbBlockTableRecord
  2
*D12
340
0
  0
BLOCK_RECORD
  5
941
330
1
100
AcDbSymbolTableRecord
100
AcDbBlockTableRecord
  2
*D13
340
0
  0
BLOCK_RECORD
  5
968
330
1
100
AcDbSymbolTableRecord
100
AcDbBlockTableRecord
  2
*D14
340
0
  0
BLOCK_RECORD
  5
9F0
330
1
100
AcDbSymbolTableRecord
100
AcDbBlockTableRecord
  2
*D15
340
0
  0
BLOCK_RECORD
  5
A2A
330
1
100
AcDbSymbolTableRecord
100
AcDbBlockTableRecord
  2
*D16
340
0
  0
BLOCK_RECORD
  5
A33
330
1
100
AcDbSymbolTableRecord
100
AcDbBlockTableRecord
  2
*D17
340
0
  0
BLOCK_RECORD
  5
A3C
330
1
100
AcDbSymbolTableRecord
100
AcDbBlockTableRecord
  2
*D18
340
0
  0
BLOCK_RECORD
  5
E05
330
1
100
AcDbSymbolTableRecord
100
AcDbBlockTableRecord
  2
*D19
340
0
  0
BLOCK_RECORD
  5
E11
330
1
100
AcDbSymbolTableRecord
100
AcDbBlockTableRecord
  2
*D20
340
0
  0
BLOCK_RECORD
  5
E1D
330
1
100
AcDbSymbolTableRecord
100
AcDbBlockTableRecord
  2
*D21
340
0
  0
BLOCK_RECORD
  5
E57
330
1
100
AcDbSymbolTableRecord
100
AcDbBlockTableRecord
  2
A$C2CBA1DD3
340
0
102
{BLKREFS
331
E94
102
}
  0
BLOCK_RECORD
  5
EF0
330
1
100
AcDbSymbolTableRecord
100
AcDbBlockTableRecord
  2
*D23
340
0
  0
BLOCK_RECORD
  5
EFC
330
1
100
AcDbSymbolTableRecord
100
AcDbBlockTableRecord
  2
*D24
340
0
  0
BLOCK_RECORD
  5
F08
330
1
100
AcDbSymbolTableRecord
100
AcDbBlockTableRecord
  2
*D25
340
0
  0
BLOCK_RECORD
  5
F14
330
1
100
AcDbSymbolTableRecord
100
AcDbBlockTableRecord
  2
*D26
340
0
  0
BLOCK_RECORD
  5
13E3
330
1
100
AcDbSymbolTableRecord
100
AcDbBlockTableRecord
  2
*D28
340
0
  0
BLOCK_RECORD
  5
13EF
330
1
100
AcDbSymbolTableRecord
100
AcDbBlockTableRecord
  2
*D29
340
0
  0
BLOCK_RECORD
  5
13FB
330
1
100
AcDbSymbolTableRecord
100
AcDbBlockTableRecord
  2
*D30
340
0
  0
BLOCK_RECORD
  5
1407
330
1
100
AcDbSymbolTableRecord
100
AcDbBlockTableRecord
  2
*D31
340
0
  0
BLOCK_RECORD
  5
147C
330
1
100
AcDbSymbolTableRecord
100
AcDbBlockTableRecord
  2
*D34
340
0
  0
ENDTAB
  0
ENDSEC
  0
SECTION
  2
BLOCKS
  0
BLOCK
  5
20
330
1F
100
AcDbEntity
  8
0
100
AcDbBlockBegin
  2
*Model_Space
 70
     0
 10
0.0
 20
0.0
 30
0.0
  3
*Model_Space
  1

  0
ENDBLK
  5
21
330
1F
100
AcDbEntity
  8
0
100
AcDbBlockEnd
  0
BLOCK
  5
1C
330
1B
100
AcDbEntity
 67
     1
  8
0
100
AcDbBlockBegin
  2
*Paper_Space
 70
     0
 10
0.0
 20
0.0
 30
0.0
  3
*Paper_Space
  1

  0
ENDBLK
  5
1D
330
1B
100
AcDbEntity
 67
     1
  8
0
100
AcDbBlockEnd
  0
BLOCK
  5
24
330
23
100
AcDbEntity
  8
0
100
AcDbBlockBegin
  2
*Paper_Space0
 70
     0
 10
0.0
 20
0.0
 30
0.0
  3
*Paper_Space0
  1

  0
ENDBLK
  5
25
330
23
100
AcDbEntity
  8
0
100
AcDbBlockEnd
  0
BLOCK
  5
257
330
24D
100
AcDbEntity
  8
0
100
AcDbBlockBegin
  2
*D1
 70
     1
 10
0.0
 20
0.0
 30
0.0
  3
*D1
  1

  0
LINE
  5
478
330
24D
100
AcDbEntity
  8
2
 62
     0
370
    -2
100
AcDbLine
 10
-87.0244716539276
 20
-26.41566902687695
 30
0.0
 11
-87.0244716539276
 21
-17.72363367612226
 31
0.0
  0
LINE
  5
479
330
24D
100
AcDbEntity
  8
2
 62
     0
370
    -2
100
AcDbLine
 10
-51.0244716539276
 20
-32.39092980467695
 30
0.0
 11
-51.0244716539276
 21
-17.72363367612226
 31
0.0
  0
LINE
  5
47A
330
24D
100
AcDbEntity
  8
2
 62
     0
370
    -2
100
AcDbLine
 10
-82.45447165392761
 20
-19.72363367612226
 30
0.0
 11
-55.59447165392761
 21
-19.72363367612226
 31
0.0
  0
SOLID
  5
47B
330
24D
100
AcDbEntity
  8
2
 62
     0
100
AcDbTrace
 10
-82.45447165392761
 20
-18.96196700945559
 30
0.0
 11
-82.45447165392761
 21
-20.48530034278893
 31
0.0
 12
-87.0244716539276
 22
-19.72363367612226
 32
0.0
 13
-87.0244716539276
 23
-19.72363367612226
 33
0.0
  0
SOLID
  5
47C
330
24D
100
AcDbEntity
  8
2
 62
     0
100
AcDbTrace
 10
-55.59447165392761
 20
-18.96196700945559
 30
0.0
 11
-55.59447165392761
 21
-20.48530034278893
 31
0.0
 12
-51.0244716539276
 22
-19.72363367612226
 32
0.0
 13
-51.0244716539276
 23
-19.72363367612226
 33
0.0
  0
MTEXT
  5
47D
330
24D
100
AcDbEntity
  8
2
 62
     7
100
AcDbMText
 10
-69.02447165392761
 20
-15.93863367612225
 30
0.0
 40
4.57
 41
0.0
 71
     5
 72
     1
  1
\A1;36
  7
GENPRESET
 73
     1
 44
1.0
  0
POINT
  5
47E
330
24D
100
AcDbEntity
  8
Defpoints
 62
     0
100
AcDbPoint
 10
-87.0244716539276
 20
-26.41566902687695
 30
0.0
  0
POINT
  5
47F
330
24D
100
AcDbEntity
  8
Defpoints
 62
     0
100
AcDbPoint
 10
-51.0244716539276
 20
-32.39092980467695
 30
0.0
  0
POINT
  5
480
330
24D
100
AcDbEntity
  8
Defpoints
 62
     0
100
AcDbPoint
 10
-51.0244716539276
 20
-19.72363367612226
 30
0.0
  0
ENDBLK
  5
258
330
24D
100
AcDbEntity
  8
0
100
AcDbBlockEnd
  0
BLOCK
  5
26B
330
261
100
AcDbEntity
  8
0
100
AcDbBlockBegin
  2
*D2
 70
     1
 10
0.0
 20
0.0
 30
0.0
  3
*D2
  1

  0
LINE
  5
2BA
330
261
100
AcDbEntity
  8
VERMASSUNG
 62
     0
370
    -2
100
AcDbLine
 10
0.0
 20
9.799999999999997
 30
0.0
 11
0.0000000000000003
 21
15.42960572859999
 31
0.0
  0
LINE
  5
2BB
330
261
100
AcDbEntity
  8
VERMASSUNG
 62
     0
370
    -2
100
AcDbLine
 10
26.5
 20
8.074677142099986
 30
0.0
 11
26.5
 21
15.42960572859999
 31
0.0
  0
LINE
  5
2BC
330
261
100
AcDbEntity
  8
VERMASSUNG
 62
     0
370
    -2
100
AcDbLine
 10
3.0
 20
14.42960572859997
 30
0.0
 11
23.5
 21
14.42960572859997
 31
0.0
  0
SOLID
  5
2BD
330
261
100
AcDbEntity
  8
VERMASSUNG
 62
     0
100
AcDbTrace
 10
3.0
 20
14.92960572859999
 30
0.0
 11
3.0
 21
13.92960572859998
 31
0.0
 12
0.0000000000000003
 22
14.42960572859997
 32
0.0
 13
0.0000000000000003
 23
14.42960572859997
 33
0.0
  0
SOLID
  5
2BE
330
261
100
AcDbEntity
  8
VERMASSUNG
 62
     0
100
AcDbTrace
 10
23.5
 20
14.92960572859999
 30
0.0
 11
23.5
 21
13.92960572859998
 31
0.0
 12
26.5
 22
14.42960572859997
 32
0.0
 13
26.5
 23
14.42960572859997
 33
0.0
  0
MTEXT
  5
2BF
330
261
100
AcDbEntity
  8
VERMASSUNG
 62
     0
100
AcDbMText
 10
10.34999999999999
 20
17.95360572859999
 30
0.0
 40
2.0
 41
0.0
 71
     1
 72
     1
  1
\A1;26.50
  7
SLDTEXTSTYLE0
 73
     1
 44
1.0
  0
POINT
  5
2C0
330
261
100
AcDbEntity
  8
Defpoints
 62
     0
100
AcDbPoint
 10
0.0
 20
9.799999999999997
 30
0.0
  0
POINT
  5
2C1
330
261
100
AcDbEntity
  8
Defpoints
 62
     0
100
AcDbPoint
 10
26.5
 20
8.074677142099986
 30
0.0
  0
POINT
  5
2C2
330
261
100
AcDbEntity
  8
Defpoints
 62
     0
100
AcDbPoint
 10
26.5
 20
14.42960572859997
 30
0.0
  0
ENDBLK
  5
26C
330
261
100
AcDbEntity
  8
0
100
AcDbBlockEnd
  0
BLOCK
  5
27F
330
274
100
AcDbEntity
  8
0
100
AcDbBlockBegin
  2
*D3
 70
     1
 10
0.0
 20
0.0
 30
0.0
  3
*D3
  1

  0
LINE
  5
481
330
274
100
AcDbEntity
  8
SK2
 62
     0
370
    -2
100
AcDbLine
 10
-86.82447165392764
 20
-26.21566902687694
 30
0.0
 11
-104.5256577309275
 21
-26.21566902687694
 31
0.0
  0
LINE
  5
482
330
274
100
AcDbEntity
  8
SK2
 62
     0
370
    -2
100
AcDbLine
 10
-86.82447165392764
 20
-46.21566902687695
 30
0.0
 11
-104.5256577309276
 21
-46.21566902687695
 31
0.0
  0
LINE
  5
483
330
274
100
AcDbEntity
  8
SK2
 62
     0
370
    -2
100
AcDbLine
 10
-102.5256577309274
 20
-30.78566902687695
 30
0.0
 11
-102.5256577309276
 21
-41.64566902687695
 31
0.0
  0
SOLID
  5
484
330
274
100
AcDbEntity
  8
SK2
 62
     0
100
AcDbTrace
 10
-103.2873243975942
 20
-30.78566902687695
 30
0.0
 11
-101.7639910642609
 21
-30.78566902687695
 31
0.0
 12
-102.5256577309274
 22
-26.21566902687694
 32
0.0
 13
-102.5256577309274
 23
-26.21566902687694
 33
0.0
  0
SOLID
  5
485
330
274
100
AcDbEntity
  8
SK2
 62
     0
100
AcDbTrace
 10
-103.2873243975942
 20
-41.64566902687695
 30
0.0
 11
-101.7639910642609
 21
-41.64566902687695
 31
0.0
 12
-102.5256577309276
 22
-46.21566902687695
 32
0.0
 13
-102.5256577309276
 23
-46.21566902687695
 33
0.0
  0
MTEXT
  5
486
330
274
100
AcDbEntity
  8
SK2
 62
     7
100
AcDbMText
 10
-106.3106577309274
 20
-36.21566902687696
 30
0.0
 40
4.57
 41
0.0
 71
     5
 72
     1
  1
\A1;MBM %%c20
  7
GENPRESET
 11
0.0000000000000001
 21
1.0
 31
0.0
 73
     1
 44
1.0
  0
POINT
  5
487
330
274
100
AcDbEntity
  8
Defpoints
 62
     0
100
AcDbPoint
 10
-86.82447165392764
 20
-26.21566902687694
 30
0.0
  0
POINT
  5
488
330
274
100
AcDbEntity
  8
Defpoints
 62
     0
100
AcDbPoint
 10
-86.82447165392764
 20
-46.21566902687695
 30
0.0
  0
POINT
  5
489
330
274
100
AcDbEntity
  8
Defpoints
 62
     0
100
AcDbPoint
 10
-102.5256577309276
 20
-46.21566902687695
 30
0.0
  0
ENDBLK
  5
280
330
274
100
AcDbEntity
  8
0
100
AcDbBlockEnd
  0
BLOCK
  5
3A0
330
398
100
AcDbEntity
  8
0
100
AcDbBlockBegin
  2
*D4
 70
     1
 10
0.0
 20
0.0
 30
0.0
  3
*D4
  1

  0
LINE
  5
399
330
398
100
AcDbEntity
  8
SK2
 62
     0
370
    -2
100
AcDbLine
 10
13.49994397087499
 20
11.95
 30
0.0
 11
24.04200736209938
 21
11.94999999999999
 31
0.0
  0
LINE
  5
39A
330
398
100
AcDbEntity
  8
SK2
 62
     0
370
    -2
100
AcDbLine
 10
22.04200736209938
 20
7.379999999999997
 30
0.0
 11
22.04200736209937
 21
-11.94999999999999
 31
0.0
  0
SOLID
  5
39B
330
398
100
AcDbEntity
  8
SK2
 62
     0
100
AcDbTrace
 10
21.28034069543271
 20
7.379999999999997
 30
0.0
 11
22.80367402876604
 21
7.379999999999997
 31
0.0
 12
22.04200736209938
 22
11.94999999999999
 32
0.0
 13
22.04200736209938
 23
11.94999999999999
 33
0.0
  0
MTEXT
  5
39C
330
398
100
AcDbEntity
  8
SK2
 62
     7
100
AcDbMText
 10
18.25700736209937
 20
-2.284999999999993
 30
0.0
 40
4.57
 41
0.0
 71
     5
 72
     1
  1
\A1;ø23.9-31.1
  7
GENPRESET
 11
0.0000000000000001
 21
1.0
 31
0.0
 73
     1
 44
1.0
  0
POINT
  5
39D
330
398
100
AcDbEntity
  8
Defpoints
 62
     0
100
AcDbPoint
 10
13.49994397087499
 20
11.95
 30
0.0
  0
POINT
  5
39E
330
398
100
AcDbEntity
  8
Defpoints
 62
     0
100
AcDbPoint
 10
13.49994397087499
 20
-11.94999999999999
 30
0.0
  0
POINT
  5
39F
330
398
100
AcDbEntity
  8
Defpoints
 62
     0
100
AcDbPoint
 10
22.04200736209937
 20
-11.94999999999999
 30
0.0
  0
ENDBLK
  5
3A1
330
398
100
AcDbEntity
  8
0
100
AcDbBlockEnd
  0
BLOCK
  5
3A3
330
3A2
100
AcDbEntity
  8
0
100
AcDbBlockBegin
  2
_None
 70
     0
 10
0.0
 20
0.0
 30
0.0
  3
_None
  1

  0
ENDBLK
  5
3A4
330
3A2
100
AcDbEntity
  8
0
100
AcDbBlockEnd
  0
BLOCK
  5
43D
330
435
100
AcDbEntity
  8
0
100
AcDbBlockBegin
  2
*D6
 70
     1
 10
0.0
 20
0.0
 30
0.0
  3
*D6
  1

  0
LINE
  5
43F
330
435
100
AcDbEntity
  8
SK2
 62
     0
370
    -2
100
AcDbLine
 10
39.99994397087499
 20
11.95
 30
0.0
 11
50.54200736209939
 21
11.94999999999999
 31
0.0
  0
LINE
  5
440
330
435
100
AcDbEntity
  8
SK2
 62
     0
370
    -2
100
AcDbLine
 10
48.54200736209938
 20
7.379999999999997
 30
0.0
 11
48.54200736209938
 21
-11.94999999999999
 31
0.0
  0
SOLID
  5
441
330
435
100
AcDbEntity
  8
SK2
 62
     0
100
AcDbTrace
 10
47.78034069543271
 20
7.379999999999997
 30
0.0
 11
49.30367402876605
 21
7.379999999999997
 31
0.0
 12
48.54200736209938
 22
11.94999999999999
 32
0.0
 13
48.54200736209938
 23
11.94999999999999
 33
0.0
  0
MTEXT
  5
442
330
435
100
AcDbEntity
  8
SK2
 62
     7
100
AcDbMText
 10
44.75700736209938
 20
-2.284999999999989
 30
0.0
 40
4.57
 41
0.0
 71
     5
 72
     1
  1
\A1;ø23.9-31.1
  7
GENPRESET
 11
0.0000000000000001
 21
1.0
 31
0.0
 73
     1
 44
1.0
  0
POINT
  5
443
330
435
100
AcDbEntity
  8
Defpoints
 62
     0
100
AcDbPoint
 10
39.99994397087499
 20
11.95
 30
0.0
  0
POINT
  5
444
330
435
100
AcDbEntity
  8
Defpoints
 62
     0
100
AcDbPoint
 10
39.99994397087499
 20
-11.94999999999999
 30
0.0
  0
POINT
  5
445
330
435
100
AcDbEntity
  8
Defpoints
 62
     0
100
AcDbPoint
 10
48.54200736209938
 20
-11.94999999999999
 30
0.0
  0
ENDBLK
  5
43E
330
435
100
AcDbEntity
  8
0
100
AcDbBlockEnd
  0
BLOCK
  5
494
330
48A
100
AcDbEntity
  8
0
100
AcDbBlockBegin
  2
*D7
 70
     1
 10
0.0
 20
0.0
 30
0.0
  3
*D7
  1

  0
LINE
  5
48B
330
48A
100
AcDbEntity
  8
VERMASSUNG
 62
     0
370
    -2
100
AcDbLine
 10
129.7599624652999
 20
118.4207422387999
 30
0.0
 11
129.7599624652999
 21
131.47329334735
 31
0.0
  0
LINE
  5
48C
330
48A
100
AcDbEntity
  8
VERMASSUNG
 62
     0
370
    -2
100
AcDbLine
 10
94.1099624653
 20
126.1657422387999
 30
0.0
 11
94.1099624653
 21
131.47329334735
 31
0.0
  0
LINE
  5
48D
330
48A
100
AcDbEntity
  8
VERMASSUNG
 62
     0
370
    -2
100
AcDbLine
 10
126.7599624652999
 20
130.47329334735
 30
0.0
 11
97.10996246530001
 21
130.47329334735
 31
0.0
  0
SOLID
  5
48E
330
48A
100
AcDbEntity
  8
VERMASSUNG
 62
     0
100
AcDbTrace
 10
126.7599624652999
 20
130.9732933473499
 30
0.0
 11
126.7599624652999
 21
129.9732933473499
 31
0.0
 12
129.7599624652999
 22
130.47329334735
 32
0.0
 13
129.7599624652999
 23
130.47329334735
 33
0.0
  0
SOLID
  5
48F
330
48A
100
AcDbEntity
  8
VERMASSUNG
 62
     0
100
AcDbTrace
 10
97.10996246530001
 20
130.9732933473499
 30
0.0
 11
97.10996246530001
 21
129.9732933473499
 31
0.0
 12
94.1099624653
 22
130.47329334735
 32
0.0
 13
94.1099624653
 23
130.47329334735
 33
0.0
  0
MTEXT
  5
490
330
48A
100
AcDbEntity
  8
VERMASSUNG
 62
     0
100
AcDbMText
 10
109.2349624653
 20
133.9972933473499
 30
0.0
 40
2.0
 41
0.0
 71
     1
 72
     1
  1
\A1;17.83
  7
SLDTEXTSTYLE0
 73
     1
 44
1.0
  0
POINT
  5
491
330
48A
100
AcDbEntity
  8
Defpoints
 62
     0
100
AcDbPoint
 10
129.7599624652999
 20
118.4207422387999
 30
0.0
  0
POINT
  5
492
330
48A
100
AcDbEntity
  8
Defpoints
 62
     0
100
AcDbPoint
 10
94.1099624653
 20
126.1657422387999
 30
0.0
  0
POINT
  5
493
330
48A
100
AcDbEntity
  8
Defpoints
 62
     0
100
AcDbPoint
 10
94.1099624653
 20
130.47329334735
 30
0.0
  0
ENDBLK
  5
495
330
48A
100
AcDbEntity
  8
0
100
AcDbBlockEnd
  0
BLOCK
  5
4A0
330
496
100
AcDbEntity
  8
0
100
AcDbBlockBegin
  2
*D8
 70
     1
 10
0.0
 20
0.0
 30
0.0
  3
*D8
  1

  0
LINE
  5
497
330
496
100
AcDbEntity
  8
VERMASSUNG
 62
     0
370
    -2
100
AcDbLine
 10
94.1099624653
 20
126.1657422387999
 30
0.0
 11
94.1099624653
 21
134.4732933473499
 31
0.0
  0
LINE
  5
498
330
496
100
AcDbEntity
  8
VERMASSUNG
 62
     0
370
    -2
100
AcDbLine
 10
140.1099624652997
 20
120.08234397435
 30
0.0
 11
140.1099624652997
 21
134.4732933473499
 31
0.0
  0
LINE
  5
499
330
496
100
AcDbEntity
  8
VERMASSUNG
 62
     0
370
    -2
100
AcDbLine
 10
97.10996246530001
 20
133.4732933473499
 30
0.0
 11
137.1099624652996
 21
133.4732933473499
 31
0.0
  0
SOLID
  5
49A
330
496
100
AcDbEntity
  8
VERMASSUNG
 62
     0
100
AcDbTrace
 10
97.10996246530001
 20
133.9732933473499
 30
0.0
 11
97.10996246530001
 21
132.9732933473499
 31
0.0
 12
94.1099624653
 22
133.4732933473499
 32
0.0
 13
94.1099624653
 23
133.4732933473499
 33
0.0
  0
SOLID
  5
49B
330
496
100
AcDbEntity
  8
VERMASSUNG
 62
     0
100
AcDbTrace
 10
137.1099624652996
 20
133.9732933473499
 30
0.0
 11
137.1099624652996
 21
132.9732933473499
 31
0.0
 12
140.1099624652997
 22
133.4732933473499
 32
0.0
 13
140.1099624652997
 23
133.4732933473499
 33
0.0
  0
MTEXT
  5
49C
330
496
100
AcDbEntity
  8
VERMASSUNG
 62
     0
100
AcDbMText
 10
114.2099624653
 20
136.99729334735
 30
0.0
 40
2.0
 41
0.0
 71
     1
 72
     1
  1
\A1;23.00
  7
SLDTEXTSTYLE0
 73
     1
 44
1.0
  0
POINT
  5
49D
330
496
100
AcDbEntity
  8
Defpoints
 62
     0
100
AcDbPoint
 10
94.1099624653
 20
126.1657422387999
 30
0.0
  0
POINT
  5
49E
330
496
100
AcDbEntity
  8
Defpoints
 62
     0
100
AcDbPoint
 10
140.1099624652997
 20
120.08234397435
 30
0.0
  0
POINT
  5
49F
330
496
100
AcDbEntity
  8
Defpoints
 62
     0
100
AcDbPoint
 10
140.1099624652997
 20
133.4732933473499
 30
0.0
  0
ENDBLK
  5
4A1
330
496
100
AcDbEntity
  8
0
100
AcDbBlockEnd
  0
BLOCK
  5
4AC
330
4A2
100
AcDbEntity
  8
0
100
AcDbBlockBegin
  2
*D9
 70
     1
 10
0.0
 20
0.0
 30
0.0
  3
*D9
  1

  0
LINE
  5
4A3
330
4A2
100
AcDbEntity
  8
VERMASSUNG
 62
     0
370
    -2
100
AcDbLine
 10
94.3099624653
 20
126.3657422387999
 30
0.0
 11
76.69506171390003
 21
126.3657422387999
 31
0.0
  0
LINE
  5
4A4
330
4A2
100
AcDbEntity
  8
VERMASSUNG
 62
     0
370
    -2
100
AcDbLine
 10
94.3099624653
 20
101.3657422387999
 30
0.0
 11
76.69506171390003
 21
101.3657422387999
 31
0.0
  0
LINE
  5
4A5
330
4A2
100
AcDbEntity
  8
VERMASSUNG
 62
     0
370
    -2
100
AcDbLine
 10
77.69506171390003
 20
123.3657422387999
 30
0.0
 11
77.69506171390003
 21
104.3657422387999
 31
0.0
  0
SOLID
  5
4A6
330
4A2
100
AcDbEntity
  8
VERMASSUNG
 62
     0
100
AcDbTrace
 10
77.19506171390003
 20
123.3657422387999
 30
0.0
 11
78.19506171390003
 21
123.3657422387999
 31
0.0
 12
77.69506171390003
 22
126.3657422387999
 32
0.0
 13
77.69506171390003
 23
126.3657422387999
 33
0.0
  0
SOLID
  5
4A7
330
4A2
100
AcDbEntity
  8
VERMASSUNG
 62
     0
100
AcDbTrace
 10
77.19506171390003
 20
104.3657422387999
 30
0.0
 11
78.19506171390003
 21
104.3657422387999
 31
0.0
 12
77.69506171390003
 22
101.3657422387999
 32
0.0
 13
77.69506171390003
 23
101.3657422387999
 33
0.0
  0
MTEXT
  5
4A8
330
4A2
100
AcDbEntity
  8
VERMASSUNG
 62
     0
100
AcDbMText
 10
62.5710617139
 20
114.8664998145574
 30
0.0
 40
2.0
 41
0.0
 71
     1
 72
     1
  1
\A1;MBM %%c12.50
  7
SLDTEXTSTYLE0
 73
     1
 44
1.0
  0
POINT
  5
4A9
330
4A2
100
AcDbEntity
  8
Defpoints
 62
     0
100
AcDbPoint
 10
94.3099624653
 20
126.3657422387999
 30
0.0
  0
POINT
  5
4AA
330
4A2
100
AcDbEntity
  8
Defpoints
 62
     0
100
AcDbPoint
 10
94.3099624653
 20
101.3657422387999
 30
0.0
  0
POINT
  5
4AB
330
4A2
100
AcDbEntity
  8
Defpoints
 62
     0
100
AcDbPoint
 10
77.69506171390003
 20
101.3657422387999
 30
0.0
  0
ENDBLK
  5
4AD
330
4A2
100
AcDbEntity
  8
0
100
AcDbBlockEnd
  0
BLOCK
  5
4B7
330
4AE
100
AcDbEntity
  8
0
100
AcDbBlockBegin
  2
SW_CENTERMARKSYMBOL_0
 70
     0
 10
0.0
 20
0.0
 30
0.0
  3
SW_CENTERMARKSYMBOL_0
  1

  0
LINE
  5
4AF
330
4AE
100
AcDbEntity
  8
VERMASSUNG
100
AcDbLine
 10
0.0
 20
0.0
 30
0.0
 11
0.0
 21
5.0
 31
0.0
  0
LINE
  5
4B0
330
4AE
100
AcDbEntity
  8
VERMASSUNG
100
AcDbLine
 10
0.0
 20
0.0
 30
0.0
 11
-5.0
 21
0.0
 31
0.0
  0
LINE
  5
4B1
330
4AE
100
AcDbEntity
  8
VERMASSUNG
100
AcDbLine
 10
0.0
 20
0.0
 30
0.0
 11
0.0
 21
-5.0
 31
0.0
  0
LINE
  5
4B2
330
4AE
100
AcDbEntity
  8
VERMASSUNG
100
AcDbLine
 10
0.0
 20
0.0
 30
0.0
 11
5.0
 21
0.0
 31
0.0
  0
LINE
  5
4B3
330
4AE
100
AcDbEntity
  8
VERMASSUNG
100
AcDbLine
 10
0.0
 20
5.0
 30
0.0
 11
0.0
 21
9.109999999999999
 31
0.0
  0
LINE
  5
4B4
330
4AE
100
AcDbEntity
  8
VERMASSUNG
100
AcDbLine
 10
-5.0
 20
0.0
 30
0.0
 11
-9.109999999999999
 21
0.0
 31
0.0
  0
LINE
  5
4B5
330
4AE
100
AcDbEntity
  8
VERMASSUNG
100
AcDbLine
 10
0.0
 20
-5.0
 30
0.0
 11
0.0
 21
-9.109999999999999
 31
0.0
  0
LINE
  5
4B6
330
4AE
100
AcDbEntity
  8
VERMASSUNG
100
AcDbLine
 10
5.0
 20
0.0
 30
0.0
 11
9.109999999999999
 21
0.0
 31
0.0
  0
ENDBLK
  5
4B8
330
4AE
100
AcDbEntity
  8
0
100
AcDbBlockEnd
  0
BLOCK
  5
933
330
929
100
AcDbEntity
  8
0
100
AcDbBlockBegin
  2
*D11
 70
     1
 10
0.0
 20
0.0
 30
0.0
  3
*D11
  1

  0
LINE
  5
94D
330
929
100
AcDbEntity
  8
VERMASSUNG
 62
     0
370
    -2
100
AcDbLine
 10
0.2000000000000028
 20
12.49999999999998
 30
0.0
 11
-17.41490075139999
 21
12.49999999999999
 31
0.0
  0
LINE
  5
94E
330
929
100
AcDbEntity
  8
VERMASSUNG
 62
     0
370
    -2
100
AcDbLine
 10
0.2000000000000028
 20
-12.5
 30
0.0
 11
-17.4149007514
 21
-12.49999999999999
 31
0.0
  0
LINE
  5
94F
330
929
100
AcDbEntity
  8
VERMASSUNG
 62
     0
370
    -2
100
AcDbLine
 10
-16.41490075139999
 20
9.499999999999991
 30
0.0
 11
-16.4149007514
 21
-9.499999999999994
 31
0.0
  0
SOLID
  5
950
330
929
100
AcDbEntity
  8
VERMASSUNG
 62
     0
100
AcDbTrace
 10
-16.91490075139999
 20
9.499999999999991
 30
0.0
 11
-15.91490075139998
 21
9.499999999999991
 31
0.0
 12
-16.41490075139999
 22
12.49999999999999
 32
0.0
 13
-16.41490075139999
 23
12.49999999999999
 33
0.0
  0
SOLID
  5
951
330
929
100
AcDbEntity
  8
VERMASSUNG
 62
     0
100
AcDbTrace
 10
-16.9149007514
 20
-9.499999999999994
 30
0.0
 11
-15.9149007514
 21
-9.499999999999994
 31
0.0
 12
-16.4149007514
 22
-12.49999999999999
 32
0.0
 13
-16.4149007514
 23
-12.49999999999999
 33
0.0
  0
MTEXT
  5
952
330
929
100
AcDbEntity
  8
VERMASSUNG
 62
     0
100
AcDbMText
 10
-31.53890075139999
 20
1.000757575757574
 30
0.0
 40
2.0
 41
0.0
 71
     1
 72
     1
  1
\A1;MBM %%c12.50
  7
SLDTEXTSTYLE0
 73
     1
 44
1.0
  0
POINT
  5
953
330
929
100
AcDbEntity
  8
Defpoints
 62
     0
100
AcDbPoint
 10
0.2000000000000028
 20
12.49999999999998
 30
0.0
  0
POINT
  5
954
330
929
100
AcDbEntity
  8
Defpoints
 62
     0
100
AcDbPoint
 10
0.2000000000000028
 20
-12.5
 30
0.0
  0
POINT
  5
955
330
929
100
AcDbEntity
  8
Defpoints
 62
     0
100
AcDbPoint
 10
-16.4149007514
 20
-12.49999999999999
 30
0.0
  0
ENDBLK
  5
934
330
929
100
AcDbEntity
  8
0
100
AcDbBlockEnd
  0
BLOCK
  5
93F
330
935
100
AcDbEntity
  8
0
100
AcDbBlockBegin
  2
*D12
 70
     1
 10
0.0
 20
0.0
 30
0.0
  3
*D12
  1

  0
LINE
  5
956
330
935
100
AcDbEntity
  8
VERMASSUNG
 62
     0
370
    -2
100
AcDbLine
 10
35.64999999999999
 20
4.554999999999992
 30
0.0
 11
35.64999999999999
 21
17.60755110854998
 31
0.0
  0
LINE
  5
957
330
935
100
AcDbEntity
  8
VERMASSUNG
 62
     0
370
    -2
100
AcDbLine
 10
0.0
 20
12.29999999999999
 30
0.0
 11
0.0000000000000003
 21
17.60755110854998
 31
0.0
  0
LINE
  5
958
330
935
100
AcDbEntity
  8
VERMASSUNG
 62
     0
370
    -2
100
AcDbLine
 10
32.64999999999999
 20
16.60755110854999
 30
0.0
 11
3.0
 21
16.60755110854999
 31
0.0
  0
SOLID
  5
959
330
935
100
AcDbEntity
  8
VERMASSUNG
 62
     0
100
AcDbTrace
 10
32.64999999999999
 20
17.10755110854999
 30
0.0
 11
32.64999999999999
 21
16.10755110855
 31
0.0
 12
35.64999999999999
 22
16.60755110854999
 32
0.0
 13
35.64999999999999
 23
16.60755110854999
 33
0.0
  0
SOLID
  5
95A
330
935
100
AcDbEntity
  8
VERMASSUNG
 62
     0
100
AcDbTrace
 10
3.0
 20
17.10755110854999
 30
0.0
 11
3.0
 21
16.10755110855
 31
0.0
 12
0.0000000000000003
 22
16.60755110854999
 32
0.0
 13
0.0000000000000003
 23
16.60755110854999
 33
0.0
  0
MTEXT
  5
95B
330
935
100
AcDbEntity
  8
VERMASSUNG
 62
     0
100
AcDbMText
 10
15.125
 20
20.13155110855
 30
0.0
 40
2.0
 41
0.0
 71
     1
 72
     1
  1
\A1;17.83
  7
SLDTEXTSTYLE0
 73
     1
 44
1.0
  0
POINT
  5
95C
330
935
100
AcDbEntity
  8
Defpoints
 62
     0
100
AcDbPoint
 10
35.64999999999999
 20
4.554999999999992
 30
0.0
  0
POINT
  5
95D
330
935
100
AcDbEntity
  8
Defpoints
 62
     0
100
AcDbPoint
 10
0.0
 20
12.29999999999999
 30
0.0
  0
POINT
  5
95E
330
935
100
AcDbEntity
  8
Defpoints
 62
     0
100
AcDbPoint
 10
0.0000000000000003
 20
16.60755110854999
 30
0.0
  0
ENDBLK
  5
940
330
935
100
AcDbEntity
  8
0
100
AcDbBlockEnd
  0
BLOCK
  5
94B
330
941
100
AcDbEntity
  8
0
100
AcDbBlockBegin
  2
*D13
 70
     1
 10
0.0
 20
0.0
 30
0.0
  3
*D13
  1

  0
LINE
  5
A18
330
941
100
AcDbEntity
  8
2
 62
     0
370
    -2
100
AcDbLine
 10
-82.47180419026618
 20
-20.14998903838178
 30
0.0
 11
-82.47180419026618
 21
-10.84243792983176
 31
0.0
  0
LINE
  5
A19
330
941
100
AcDbEntity
  8
2
 62
     0
370
    -2
100
AcDbLine
 10
-36.47180419026619
 20
-26.23338730283176
 30
0.0
 11
-36.47180419026619
 21
-10.84243792983176
 31
0.0
  0
LINE
  5
A1A
330
941
100
AcDbEntity
  8
2
 62
     0
370
    -2
100
AcDbLine
 10
-77.90180419026619
 20
-12.84243792983176
 30
0.0
 11
-41.04180419026619
 21
-12.84243792983176
 31
0.0
  0
SOLID
  5
A1B
330
941
100
AcDbEntity
  8
2
 62
     0
100
AcDbTrace
 10
-77.90180419026619
 20
-12.08077126316511
 30
0.0
 11
-77.90180419026619
 21
-13.60410459649844
 31
0.0
 12
-82.47180419026618
 22
-12.84243792983176
 32
0.0
 13
-82.47180419026618
 23
-12.84243792983176
 33
0.0
  0
SOLID
  5
A1C
330
941
100
AcDbEntity
  8
2
 62
     0
100
AcDbTrace
 10
-41.04180419026619
 20
-12.08077126316511
 30
0.0
 11
-41.04180419026619
 21
-13.60410459649844
 31
0.0
 12
-36.47180419026619
 22
-12.84243792983176
 32
0.0
 13
-36.47180419026619
 23
-12.84243792983176
 33
0.0
  0
MTEXT
  5
A1D
330
941
100
AcDbEntity
  8
2
 62
     7
100
AcDbMText
 10
-59.47180419026615
 20
-9.057437929831783
 30
0.0
 40
4.57
 41
0.0
 71
     5
 72
     1
  1
\A1;46
  7
GENPRESET
 73
     1
 44
1.0
  0
POINT
  5
A1E
330
941
100
AcDbEntity
  8
Defpoints
 62
     0
100
AcDbPoint
 10
-82.47180419026618
 20
-20.14998903838178
 30
0.0
  0
POINT
  5
A1F
330
941
100
AcDbEntity
  8
Defpoints
 62
     0
100
AcDbPoint
 10
-36.47180419026619
 20
-26.23338730283176
 30
0.0
  0
POINT
  5
A20
330
941
100
AcDbEntity
  8
Defpoints
 62
     0
100
AcDbPoint
 10
-36.47180419026619
 20
-12.84243792983176
 30
0.0
  0
ENDBLK
  5
94C
330
941
100
AcDbEntity
  8
0
100
AcDbBlockEnd
  0
BLOCK
  5
972
330
968
100
AcDbEntity
  8
0
 62
     0
100
AcDbBlockBegin
  2
*D14
 70
     1
 10
0.0
 20
0.0
 30
0.0
  3
*D14
  1

  0
LINE
  5
969
330
968
100
AcDbEntity
  8
SK2
 62
     0
370
    -2
100
AcDbLine
 10
0.1999995677999919
 20
12.5
 30
0.0
 11
-19.38169290102023
 21
12.5
 31
0.0
  0
LINE
  5
96A
330
968
100
AcDbEntity
  8
SK2
 62
     0
370
    -2
100
AcDbLine
 10
0.1999995677999919
 20
-12.5
 30
0.0
 11
-19.38169290102023
 21
-12.49999999999999
 31
0.0
  0
LINE
  5
96B
330
968
100
AcDbEntity
  8
SK2
 62
     0
370
    -2
100
AcDbLine
 10
-16.88169290102024
 20
7.930000000000005
 30
0.0
 11
-16.88169290102024
 21
-7.929999999999994
 31
0.0
  0
SOLID
  5
96C
330
968
100
AcDbEntity
  8
SK2
 62
     0
100
AcDbTrace
 10
-17.64335956768691
 20
7.930000000000005
 30
0.0
 11
-16.12002623435357
 21
7.930000000000005
 31
0.0
 12
-16.88169290102024
 22
12.5
 32
0.0
 13
-16.88169290102024
 23
12.5
 33
0.0
  0
SOLID
  5
96D
330
968
100
AcDbEntity
  8
SK2
 62
     0
100
AcDbTrace
 10
-17.64335956768691
 20
-7.929999999999994
 30
0.0
 11
-16.12002623435357
 21
-7.929999999999994
 31
0.0
 12
-16.88169290102024
 22
-12.49999999999999
 32
0.0
 13
-16.88169290102024
 23
-12.49999999999999
 33
0.0
  0
MTEXT
  5
96E
330
968
100
AcDbEntity
  8
SK2
 62
     7
100
AcDbMText
 10
-22.95169290102023
 20
-13.2747619047619
 30
0.0
 40
4.57
 41
0.0
 71
     1
 72
     1
  1
\A1;MBM%%c25
  7
GENPRESET
 11
0.0000000000000001
 21
1.0
 31
0.0
 73
     1
 44
1.0
  0
POINT
  5
96F
330
968
100
AcDbEntity
  8
Defpoints
 62
     0
100
AcDbPoint
 10
0.1999995677999919
 20
12.5
 30
0.0
  0
POINT
  5
970
330
968
100
AcDbEntity
  8
Defpoints
 62
     0
100
AcDbPoint
 10
0.1999995677999919
 20
-12.5
 30
0.0
  0
POINT
  5
971
330
968
100
AcDbEntity
  8
Defpoints
 62
     0
100
AcDbPoint
 10
-16.88169290102024
 20
-12.49999999999999
 30
0.0
  0
ENDBLK
  5
973
330
968
100
AcDbEntity
  8
0
 62
     0
100
AcDbBlockEnd
  0
BLOCK
  5
9FA
330
9F0
100
AcDbEntity
  8
0
100
AcDbBlockBegin
  2
*D15
 70
     1
 10
0.0
 20
0.0
 30
0.0
  3
*D15
  1

  0
LINE
  5
A21
330
9F0
100
AcDbEntity
  8
SK2
 62
     0
370
    -2
100
AcDbLine
 10
-82.2718046224662
 20
-19.94998903838176
 30
0.0
 11
-101.3534970912864
 21
-19.94998903838176
 31
0.0
  0
LINE
  5
A22
330
9F0
100
AcDbEntity
  8
SK2
 62
     0
370
    -2
100
AcDbLine
 10
-82.2718046224662
 20
-44.94998903838178
 30
0.0
 11
-101.3534970912864
 21
-44.94998903838178
 31
0.0
  0
LINE
  5
A23
330
9F0
100
AcDbEntity
  8
SK2
 62
     0
370
    -2
100
AcDbLine
 10
-99.35349709128644
 20
-24.51998903838176
 30
0.0
 11
-99.35349709128644
 21
-40.37998903838177
 31
0.0
  0
SOLID
  5
A24
330
9F0
100
AcDbEntity
  8
SK2
 62
     0
100
AcDbTrace
 10
-100.1151637579529
 20
-24.51998903838176
 30
0.0
 11
-98.59183042461978
 21
-24.51998903838176
 31
0.0
 12
-99.35349709128644
 22
-19.94998903838176
 32
0.0
 13
-99.35349709128644
 23
-19.94998903838176
 33
0.0
  0
SOLID
  5
A25
330
9F0
100
AcDbEntity
  8
SK2
 62
     0
100
AcDbTrace
 10
-100.1151637579529
 20
-40.37998903838177
 30
0.0
 11
-98.59183042461978
 21
-40.37998903838177
 31
0.0
 12
-99.35349709128644
 22
-44.94998903838178
 32
0.0
 13
-99.35349709128644
 23
-44.94998903838178
 33
0.0
  0
MTEXT
  5
A26
330
9F0
100
AcDbEntity
  8
SK2
 62
     7
100
AcDbMText
 10
-103.1384970912864
 20
-32.44998903838178
 30
0.0
 40
4.57
 41
0.0
 71
     5
 72
     1
  1
\A1;MBM%%c25
  7
GENPRESET
 11
0.0000000000000001
 21
1.0
 31
0.0
 73
     1
 44
1.0
  0
POINT
  5
A27
330
9F0
100
AcDbEntity
  8
Defpoints
 62
     0
100
AcDbPoint
 10
-82.2718046224662
 20
-19.94998903838176
 30
0.0
  0
POINT
  5
A28
330
9F0
100
AcDbEntity
  8
Defpoints
 62
     0
100
AcDbPoint
 10
-82.2718046224662
 20
-44.94998903838178
 30
0.0
  0
POINT
  5
A29
330
9F0
100
AcDbEntity
  8
Defpoints
 62
     0
100
AcDbPoint
 10
-99.35349709128644
 20
-44.94998903838178
 30
0.0
  0
ENDBLK
  5
9FB
330
9F0
100
AcDbEntity
  8
0
100
AcDbBlockEnd
  0
BLOCK
  5
A31
330
A2A
100
AcDbEntity
  8
0
100
AcDbBlockBegin
  2
*D16
 70
     1
 10
0.0
 20
0.0
 30
0.0
  3
*D16
  1

  0
SOLID
  5
A2B
330
A2A
100
AcDbEntity
  8
VERMASSUNG
100
AcDbTrace
 10
110.6236652977
 20
141.7779015398999
 30
0.0
 11
113.6236652977
 21
141.3279015399
 31
0.0
 12
113.6236652977
 22
142.2279015398999
 32
0.0
 13
113.6236652977
 23
142.2279015398999
 33
0.0
  0
SOLID
  5
A2C
330
A2A
100
AcDbEntity
  8
VERMASSUNG
100
AcDbTrace
 10
158.7736652977
 20
141.7779015398999
 30
0.0
 11
155.7736652976999
 21
142.2279015398999
 31
0.0
 12
155.7736652976999
 22
141.3279015399
 32
0.0
 13
155.7736652976999
 23
141.3279015399
 33
0.0
  0
LINE
  5
A2D
330
A2A
100
AcDbEntity
  8
VERMASSUNG
100
AcDbLine
 10
110.6236652977
 20
136.2513347022999
 30
0.0
 11
110.6236652977
 21
142.7779015398999
 31
0.0
  0
LINE
  5
A2E
330
A2A
100
AcDbEntity
  8
VERMASSUNG
100
AcDbLine
 10
158.7736652977
 20
136.2513347022999
 30
0.0
 11
158.7736652977
 21
142.7779015398999
 31
0.0
  0
LINE
  5
A2F
330
A2A
100
AcDbEntity
  8
VERMASSUNG
100
AcDbLine
 10
110.6236652977
 20
141.7779015398999
 30
0.0
 11
158.7736652977
 21
141.7779015398999
 31
0.0
  0
MTEXT
  5
A30
330
A2A
100
AcDbEntity
  8
VERMASSUNG
100
AcDbMText
 10
131.6988128336999
 20
144.3779016563
 30
0.0
 40
2.0
 41
0.0
 71
     1
 72
     1
  1
{48.15}
  7
SLDTEXTSTYLE0
 73
     1
 44
1.0
  0
ENDBLK
  5
A32
330
A2A
100
AcDbEntity
  8
0
100
AcDbBlockEnd
  0
BLOCK
  5
A3A
330
A33
100
AcDbEntity
  8
0
100
AcDbBlockBegin
  2
*D17
 70
     1
 10
0.0
 20
0.0
 30
0.0
  3
*D17
  1

  0
SOLID
  5
A34
330
A33
100
AcDbEntity
  8
VERMASSUNG
100
AcDbTrace
 10
110.6236652977
 20
147.7779015399
 30
0.0
 11
113.6236652977
 21
147.3279015399
 31
0.0
 12
113.6236652977
 22
148.2279015398999
 32
0.0
 13
113.6236652977
 23
148.2279015398999
 33
0.0
  0
SOLID
  5
A35
330
A33
100
AcDbEntity
  8
VERMASSUNG
100
AcDbTrace
 10
171.6236652977
 20
147.7779015399
 30
0.0
 11
168.6236652977
 21
148.2279015398999
 31
0.0
 12
168.6236652977
 22
147.3279015399
 32
0.0
 13
168.6236652977
 23
147.3279015399
 33
0.0
  0
LINE
  5
A36
330
A33
100
AcDbEntity
  8
VERMASSUNG
100
AcDbLine
 10
110.6236652977
 20
136.2513347022999
 30
0.0
 11
110.6236652977
 21
148.7779015399
 31
0.0
  0
LINE
  5
A37
330
A33
100
AcDbEntity
  8
VERMASSUNG
100
AcDbLine
 10
171.6236652977
 20
129.3679364378
 30
0.0
 11
171.6236652977
 21
148.7779015399
 31
0.0
  0
LINE
  5
A38
330
A33
100
AcDbEntity
  8
VERMASSUNG
100
AcDbLine
 10
110.6236652977
 20
147.7779015399
 30
0.0
 11
171.6236652977
 21
147.7779015399
 31
0.0
  0
MTEXT
  5
A39
330
A33
100
AcDbEntity
  8
VERMASSUNG
100
AcDbMText
 10
139.9246573922
 20
150.3779016563
 30
0.0
 40
2.0
 41
0.0
 71
     1
 72
     1
  1
{61}
  7
SLDTEXTSTYLE0
 73
     1
 44
1.0
  0
ENDBLK
  5
A3B
330
A33
100
AcDbEntity
  8
0
100
AcDbBlockEnd
  0
BLOCK
  5
A45
330
A3C
100
AcDbEntity
  8
0
100
AcDbBlockBegin
  2
*D18
 70
     1
 10
0.0
 20
0.0
 30
0.0
  3
*D18
  1

  0
SOLID
  5
A3D
330
A3C
100
AcDbEntity
  8
VERMASSUNG
100
AcDbTrace
 10
88.4973261676
 20
136.5513347022998
 30
0.0
 11
88.0473261676
 21
133.5513347022998
 31
0.0
 12
88.9473261676
 22
133.5513347022998
 32
0.0
 13
88.9473261676
 23
133.5513347022998
 33
0.0
  0
SOLID
  5
A3E
330
A3C
100
AcDbEntity
  8
VERMASSUNG
100
AcDbTrace
 10
88.4973261676
 20
104.5513347023
 30
0.0
 11
88.9473261676
 21
107.5513347023
 31
0.0
 12
88.0473261676
 22
107.5513347023
 32
0.0
 13
88.0473261676
 23
107.5513347023
 33
0.0
  0
LINE
  5
A3F
330
A3C
100
AcDbEntity
  8
VERMASSUNG
100
AcDbLine
 10
110.9236652976999
 20
136.5513347022998
 30
0.0
 11
87.49732616760002
 21
136.5513347022998
 31
0.0
  0
LINE
  5
A40
330
A3C
100
AcDbEntity
  8
VERMASSUNG
100
AcDbLine
 10
110.9236652976999
 20
104.5513347023
 30
0.0
 11
87.49732616760002
 21
104.5513347023
 31
0.0
  0
LINE
  5
A41
330
A3C
100
AcDbEntity
  8
VERMASSUNG
100
AcDbLine
 10
88.4973261676
 20
136.5513347022998
 30
0.0
 11
88.4973261676
 21
104.5513347023
 31
0.0
  0
MTEXT
  5
A42
330
A3C
100
AcDbEntity
  8
VERMASSUNG
100
AcDbMText
 10
85.69732639100001
 20
114.1472950719
 30
0.0
 40
2.0
 41
0.0
 71
     1
 72
     1
  1
{MBM }
  7
SLDTEXTSTYLE0
 11
-0.000000000000007
 21
1.0
 31
0.0
 73
     1
 44
1.0
  0
MTEXT
  5
A43
330
A3C
100
AcDbEntity
  8
VERMASSUNG
100
AcDbMText
 10
85.8973263422
 20
120.5472949102
 30
0.0
 40
2.0
 41
0.0
 71
     1
 72
     1
  1
{%%c}
  7
SLDTEXTSTYLE0
 11
-0.000000000000007
 21
1.0
 31
0.0
 73
     1
 44
1.0
  0
MTEXT
  5
A44
330
A3C
100
AcDbEntity
  8
VERMASSUNG
100
AcDbMText
 10
85.8973260512
 20
124.1561340862
 30
0.0
 40
2.0
 41
0.0
 71
     1
 72
     1
  1
{32}
  7
SLDTEXTSTYLE0
 11
-0.000000000000007
 21
1.0
 31
0.0
 73
     1
 44
1.0
  0
ENDBLK
  5
A46
330
A3C
100
AcDbEntity
  8
0
100
AcDbBlockEnd
  0
BLOCK
  5
E0F
330
E05
100
AcDbEntity
  8
0
100
AcDbBlockBegin
  2
*D19
 70
     1
 10
0.0
 20
0.0
 30
0.0
  3
*D19
  1

  0
LINE
  5
EE7
330
E05
100
AcDbEntity
  8
SK2
 62
     0
370
    -2
100
AcDbLine
 10
-115.2176073291921
 20
-36.41020091033711
 30
0.0
 11
-139.6439464592921
 21
-36.41020091033711
 31
0.0
  0
LINE
  5
EE8
330
E05
100
AcDbEntity
  8
SK2
 62
     0
370
    -2
100
AcDbLine
 10
-115.2176073291921
 20
-68.41020091033709
 30
0.0
 11
-139.6439464592921
 21
-68.41020091033709
 31
0.0
  0
LINE
  5
EE9
330
E05
100
AcDbEntity
  8
SK2
 62
     0
370
    -2
100
AcDbLine
 10
-137.6439464592921
 20
-40.98020091033712
 30
0.0
 11
-137.6439464592921
 21
-63.84020091033709
 31
0.0
  0
SOLID
  5
EEA
330
E05
100
AcDbEntity
  8
SK2
 62
     0
100
AcDbTrace
 10
-138.4056131259587
 20
-40.98020091033712
 30
0.0
 11
-136.8822797926254
 21
-40.98020091033712
 31
0.0
 12
-137.6439464592921
 22
-36.41020091033711
 32
0.0
 13
-137.6439464592921
 23
-36.41020091033711
 33
0.0
  0
SOLID
  5
EEB
330
E05
100
AcDbEntity
  8
SK2
 62
     0
100
AcDbTrace
 10
-138.4056131259587
 20
-63.84020091033709
 30
0.0
 11
-136.8822797926254
 21
-63.84020091033709
 31
0.0
 12
-137.6439464592921
 22
-68.41020091033709
 32
0.0
 13
-137.6439464592921
 23
-68.41020091033709
 33
0.0
  0
MTEXT
  5
EEC
330
E05
100
AcDbEntity
  8
SK2
 62
     7
100
AcDbMText
 10
-141.4289464592921
 20
-52.41020091033713
 30
0.0
 40
4.57
 41
0.0
 71
     5
 72
     1
  1
\A1;MBM %%c32
  7
GENPRESET
 11
0.0000000000000001
 21
1.0
 31
0.0
 73
     1
 44
1.0
  0
POINT
  5
EED
330
E05
100
AcDbEntity
  8
Defpoints
 62
     0
100
AcDbPoint
 10
-115.2176073291921
 20
-36.41020091033711
 30
0.0
  0
POINT
  5
EEE
330
E05
100
AcDbEntity
  8
Defpoints
 62
     0
100
AcDbPoint
 10
-115.2176073291921
 20
-68.41020091033709
 30
0.0
  0
POINT
  5
EEF
330
E05
100
AcDbEntity
  8
Defpoints
 62
     0
100
AcDbPoint
 10
-137.6439464592921
 20
-68.41020091033709
 30
0.0
  0
ENDBLK
  5
E10
330
E05
100
AcDbEntity
  8
0
100
AcDbBlockEnd
  0
BLOCK
  5
E1B
330
E11
100
AcDbEntity
  8
0
100
AcDbBlockBegin
  2
*D20
 70
     1
 10
0.0
 20
0.0
 30
0.0
  3
*D20
  1

  0
LINE
  5
EDE
330
E11
100
AcDbEntity
  8
2
 62
     0
370
    -2
100
AcDbLine
 10
-115.5176073291921
 20
-36.71020091033709
 30
0.0
 11
-115.5176073291921
 21
-23.18363407273709
 31
0.0
  0
LINE
  5
EDF
330
E11
100
AcDbEntity
  8
2
 62
     0
370
    -2
100
AcDbLine
 10
-54.51760732919215
 20
-43.59359917483708
 30
0.0
 11
-54.51760732919215
 21
-23.18363407273709
 31
0.0
  0
LINE
  5
EE0
330
E11
100
AcDbEntity
  8
2
 62
     0
370
    -2
100
AcDbLine
 10
-110.9476073291921
 20
-25.18363407273709
 30
0.0
 11
-59.08760732919215
 21
-25.18363407273709
 31
0.0
  0
SOLID
  5
EE1
330
E11
100
AcDbEntity
  8
2
 62
     0
100
AcDbTrace
 10
-110.9476073291921
 20
-24.42196740607042
 30
0.0
 11
-110.9476073291921
 21
-25.94530073940376
 31
0.0
 12
-115.5176073291921
 22
-25.18363407273709
 32
0.0
 13
-115.5176073291921
 23
-25.18363407273709
 33
0.0
  0
SOLID
  5
EE2
330
E11
100
AcDbEntity
  8
2
 62
     0
100
AcDbTrace
 10
-59.08760732919215
 20
-24.42196740607042
 30
0.0
 11
-59.08760732919215
 21
-25.94530073940376
 31
0.0
 12
-54.51760732919215
 22
-25.18363407273709
 32
0.0
 13
-54.51760732919215
 23
-25.18363407273709
 33
0.0
  0
MTEXT
  5
EE3
330
E11
100
AcDbEntity
  8
2
 62
     7
100
AcDbMText
 10
-85.01760732919214
 20
-21.39863407273709
 30
0.0
 40
4.57
 41
0.0
 71
     5
 72
     1
  1
\A1;61
  7
GENPRESET
 73
     1
 44
1.0
  0
POINT
  5
EE4
330
E11
100
AcDbEntity
  8
Defpoints
 62
     0
100
AcDbPoint
 10
-115.5176073291921
 20
-36.71020091033709
 30
0.0
  0
POINT
  5
EE5
330
E11
100
AcDbEntity
  8
Defpoints
 62
     0
100
AcDbPoint
 10
-54.51760732919215
 20
-43.59359917483708
 30
0.0
  0
POINT
  5
EE6
330
E11
100
AcDbEntity
  8
Defpoints
 62
     0
100
AcDbPoint
 10
-54.51760732919215
 20
-25.18363407273709
 30
0.0
  0
ENDBLK
  5
E1C
330
E11
100
AcDbEntity
  8
0
100
AcDbBlockEnd
  0
BLOCK
  5
E27
330
E1D
100
AcDbEntity
  8
0
100
AcDbBlockBegin
  2
*D21
 70
     1
 10
0.0
 20
0.0
 30
0.0
  3
*D21
  1

  0
LINE
  5
E3B
330
E1D
100
AcDbEntity
  8
VERMASSUNG
 62
     0
370
    -2
100
AcDbLine
 10
0.0
 20
15.7
 30
0.0
 11
0.0000000000000004
 21
22.2265668376
 31
0.0
  0
LINE
  5
E3C
330
E1D
100
AcDbEntity
  8
VERMASSUNG
 62
     0
370
    -2
100
AcDbLine
 10
48.15000000000001
 20
15.7
 30
0.0
 11
48.15000000000001
 21
22.2265668376
 31
0.0
  0
LINE
  5
E3D
330
E1D
100
AcDbEntity
  8
VERMASSUNG
 62
     0
370
    -2
100
AcDbLine
 10
3.0
 20
21.2265668376
 30
0.0
 11
45.14999999999999
 21
21.2265668376
 31
0.0
  0
SOLID
  5
E3E
330
E1D
100
AcDbEntity
  8
VERMASSUNG
 62
     0
100
AcDbTrace
 10
3.0
 20
21.7265668376
 30
0.0
 11
3.0
 21
20.7265668376
 31
0.0
 12
0.0000000000000003
 22
21.2265668376
 32
0.0
 13
0.0000000000000003
 23
21.2265668376
 33
0.0
  0
SOLID
  5
E3F
330
E1D
100
AcDbEntity
  8
VERMASSUNG
 62
     0
100
AcDbTrace
 10
45.14999999999999
 20
21.7265668376
 30
0.0
 11
45.14999999999999
 21
20.7265668376
 31
0.0
 12
48.15000000000001
 22
21.2265668376
 32
0.0
 13
48.15000000000001
 23
21.2265668376
 33
0.0
  0
MTEXT
  5
E40
330
E1D
100
AcDbEntity
  8
VERMASSUNG
 62
     0
100
AcDbMText
 10
21.27500000000001
 20
24.7505668376
 30
0.0
 40
2.0
 41
0.0
 71
     1
 72
     1
  1
\A1;48.15
  7
SLDTEXTSTYLE0
 73
     1
 44
1.0
  0
POINT
  5
E41
330
E1D
100
AcDbEntity
  8
Defpoints
 62
     0
100
AcDbPoint
 10
0.0
 20
15.7
 30
0.0
  0
POINT
  5
E42
330
E1D
100
AcDbEntity
  8
Defpoints
 62
     0
100
AcDbPoint
 10
48.15000000000001
 20
15.7
 30
0.0
  0
POINT
  5
E43
330
E1D
100
AcDbEntity
  8
Defpoints
 62
     0
100
AcDbPoint
 10
48.15000000000001
 20
21.2265668376
 30
0.0
  0
ENDBLK
  5
E28
330
E1D
100
AcDbEntity
  8
0
100
AcDbBlockEnd
  0
BLOCK
  5
E92
330
E57
100
AcDbEntity
  8
0
100
AcDbBlockBegin
  2
A$C2CBA1DD3
 70
     0
 10
0.0
 20
0.0
 30
0.0
  3
A$C2CBA1DD3
  1

  0
LINE
  5
E58
330
E57
100
AcDbEntity
  8
1
100
AcDbLine
 10
0.0
 20
-15.7
 30
0.0
 11
0.0
 21
15.7
 31
0.0
  0
LINE
  5
E59
330
E57
100
AcDbEntity
  8
SK1
100
AcDbLine
 10
-4.562004200450018
 20
9.0
 30
0.0
 11
-15.0
 21
9.0
 31
0.0
  0
LINE
  5
E5A
330
E57
100
AcDbEntity
  8
SK1
100
AcDbLine
 10
-15.0
 20
-9.0
 30
0.0
 11
-4.562004200450018
 21
-9.0
 31
0.0
  0
LINE
  5
E5B
330
E57
100
AcDbEntity
  8
SK4
100
AcDbLine
 10
0.0
 20
0.0
 30
0.0
 11
-18.0
 21
0.0
 31
0.0
  0
LINE
  5
E5C
330
E57
100
AcDbEntity
  8
SK3
100
AcDbLine
 10
0.0
 20
4.25
 30
0.0
 11
-14.7489234805
 21
4.249999999999999
 31
0.0
  0
LINE
  5
E5D
330
E57
100
AcDbEntity
  8
SK3
100
AcDbLine
 10
-14.7489234805
 20
-4.249999999999999
 30
0.0
 11
0.0
 21
-4.25
 31
0.0
  0
LINE
  5
E5E
330
E57
100
AcDbEntity
  8
SK3
100
AcDbLine
 10
-15.499999281
 20
-5.499999970199993
 30
0.0
 11
-15.499999281
 21
5.499999970200008
 31
0.0
  0
LINE
  5
E5F
330
E57
100
AcDbEntity
  8
SK3
100
AcDbLine
 10
-14.7489234805
 20
-4.250000231000001
 30
0.0
 11
-14.7489234805
 21
4.250000230899997
 31
0.0
  0
LINE
  5
E60
330
E57
100
AcDbEntity
  8
SK1
100
AcDbLine
 10
-15.0
 20
-9.0
 30
0.0
 11
-15.0
 21
9.0
 31
0.0
  0
LINE
  5
E61
330
E57
100
AcDbEntity
  8
SK1
100
AcDbLine
 10
-18.0
 20
-8.299999999999997
 30
0.0
 11
-18.0
 21
8.299999999999997
 31
0.0
  0
ARC
  5
E62
330
E57
100
AcDbEntity
  8
SK1
100
AcDbCircle
 10
-17.4
 20
-8.299999999999997
 30
0.0
 40
0.6000000000000015
100
AcDbArc
 50
180.0
 51
280.0
  0
LINE
  5
E63
330
E57
100
AcDbEntity
  8
SK1
100
AcDbLine
 10
-16.55916554539999
 20
-8.78087357279999
 30
0.0
 11
-15.0
 21
-9.0
 31
0.0
  0
ARC
  5
E64
330
E57
100
AcDbEntity
  8
SK1
100
AcDbCircle
 10
-16.6148347858
 20
-9.176980800299999
 30
0.0
 40
0.4000000000000077
100
AcDbArc
 50
81.99999999999922
 51
100.0
  0
LINE
  5
E65
330
E57
100
AcDbEntity
  8
SK1
100
AcDbLine
 10
-17.29581109339999
 20
-8.890884651799991
 30
0.0
 11
-16.68429405684999
 21
-8.783057699099996
 31
0.0
  0
ARC
  5
E66
330
E57
100
AcDbEntity
  8
SK3
100
AcDbCircle
 10
-17.49999922509999
 20
-6.0
 30
0.0
 40
0.5
100
AcDbArc
 50
90.0
 51
180.0
  0
LINE
  5
E67
330
E57
100
AcDbEntity
  8
SK3
100
AcDbLine
 10
-15.499999281
 20
-5.499999970199993
 30
0.0
 11
-14.7489234805
 21
-4.250000231000001
 31
0.0
  0
LINE
  5
E68
330
E57
100
AcDbEntity
  8
SK3
100
AcDbLine
 10
-17.49999920140001
 20
-5.499999970199993
 30
0.0
 11
-15.499999281
 21
-5.499999970199993
 31
0.0
  0
ARC
  5
E69
330
E57
100
AcDbEntity
  8
SK3
100
AcDbCircle
 10
-17.49999922509999
 20
6.0
 30
0.0
 40
0.5
100
AcDbArc
 50
180.0
 51
270.0
  0
LINE
  5
E6A
330
E57
100
AcDbEntity
  8
SK3
100
AcDbLine
 10
-14.7489234805
 20
4.250000230899997
 30
0.0
 11
-15.499999281
 21
5.499999970200008
 31
0.0
  0
LINE
  5
E6B
330
E57
100
AcDbEntity
  8
SK3
100
AcDbLine
 10
-15.499999281
 20
5.499999970200008
 30
0.0
 11
-17.49999920140001
 21
5.499999970200008
 31
0.0
  0
ARC
  5
E6C
330
E57
100
AcDbEntity
  8
SK1
100
AcDbCircle
 10
-17.4
 20
8.299999999999997
 30
0.0
 40
0.6000000000000015
100
AcDbArc
 50
79.9999999999998
 51
180.0
  0
LINE
  5
E6D
330
E57
100
AcDbEntity
  8
SK1
100
AcDbLine
 10
-15.0
 20
9.0
 30
0.0
 11
-16.55916554539999
 21
8.780873572849996
 31
0.0
  0
ARC
  5
E6E
330
E57
100
AcDbEntity
  8
SK1
100
AcDbCircle
 10
-16.6148347858
 20
9.176980800299999
 30
0.0
 40
0.4000000000000006
100
AcDbArc
 50
259.9999999999998
 51
278.0000000000006
  0
LINE
  5
E6F
330
E57
100
AcDbEntity
  8
SK1
100
AcDbLine
 10
-16.68429405684999
 20
8.783057699099996
 30
0.0
 11
-17.29581109339999
 21
8.890884651799991
 31
0.0
  0
ARC
  5
E70
330
E57
100
AcDbEntity
  8
1
100
AcDbCircle
 10
0.3000000000000114
 20
-15.7
 30
0.0
 40
0.2999999999999971
100
AcDbArc
 50
180.0
 51
270.0
  0
LINE
  5
E71
330
E57
100
AcDbEntity
  8
SK1
100
AcDbLine
 10
-0.1500000000000057
 20
6.714596780950002
 30
0.0
 11
-0.1500000000000057
 21
-6.714596780900007
 31
0.0
  0
LINE
  5
E72
330
E57
100
AcDbEntity
  8
3
100
AcDbLine
 10
0.3499999999999943
 20
-12.22500000000001
 30
0.0
 11
0.3499999999999943
 21
12.22500000000001
 31
0.0
  0
LINE
  5
E73
330
E57
100
AcDbEntity
  8
SK1
100
AcDbLine
 10
-2.949999999999988
 20
-11.975
 30
0.0
 11
-2.949999999999988
 21
11.975
 31
0.0
  0
LINE
  5
E74
330
E57
100
AcDbEntity
  8
SK1
100
AcDbLine
 10
-4.562004200450018
 20
-9.0
 30
0.0
 11
-4.562004200450018
 21
9.0
 31
0.0
  0
CIRCLE
  5
E75
330
E57
100
AcDbEntity
  8
SK1
100
AcDbCircle
 10
-8.950000000000002
 20
0.0
 30
0.0
 40
3.307218168049181
  0
CIRCLE
  5
E76
330
E57
100
AcDbEntity
  8
SK1
100
AcDbCircle
 10
-8.950000000000002
 20
0.0
 30
0.0
 40
2.500000000000003
  0
LWPOLYLINE
  5
E77
330
E57
100
AcDbEntity
  8
SK1
100
AcDbPolyline
 90
       20
 70
   128
 43
0.0
 10
-13.2
 20
0.0
 10
-13.1755844341
 20
0.3749430856000089
 10
-13.08054395474999
 20
0.8249312207999961
 10
-12.91384237159999
 20
1.264671190599994
 10
-12.67796373634999
 20
1.684631310600011
 10
-12.37978947869998
 20
2.073550630799998
 10
-11.7598388307
 20
2.638591057799982
 10
-11.13164869655
 20
3.022225890600012
 10
-10.4256478912
 20
3.306322071249993
 10
-9.69475909274999
 20
3.473681080950001
 10
-8.923505322099998
 20
3.529113110099998
 10
-8.155040296999999
 20
3.465881182499998
 10
-7.387340049149996
 20
3.278302629750001
 10
-6.684701534099986
 20
2.979187721850009
 10
-6.027815841499997
 20
2.552974276149996
 10
-5.580071497549994
 20
2.139848852149992
 10
-5.195983908899988
 20
1.644610373100004
 10
-4.957368162500016
 20
1.201361883350001
 10
-4.788214019549997
 20
0.7101462658499999
 10
-4.699999999999987
 20
0.0
  0
LWPOLYLINE
  5
E78
330
E57
100
AcDbEntity
  8
SK1
100
AcDbPolyline
 90
       21
 70
   128
 43
0.0
 10
-4.699999999999987
 20
0.0
 10
-4.717618049399987
 20
-0.3186218444499929
 10
-4.804289006949995
 20
-0.7714448498000053
 10
-4.963626371749995
 20
-1.215442090999985
 10
-5.190851402750013
 20
-1.6365786459
 10
-5.480609358399988
 20
-2.02786012365
 10
-5.872300312050012
 20
-2.4237432428
 10
-6.325020524600006
 20
-2.767063635699996
 10
-6.910850281400001
 20
-3.090608005849996
 10
-7.555529133749987
 20
-3.330832078
 10
-8.29616863915001
 20
-3.486478686449998
 10
-9.075681355850006
 20
-3.527613471399988
 10
-9.842230362899995
 20
-3.449265866900006
 10
-10.60515687379999
 20
-3.246485432850008
 10
-11.30103776210001
 20
-2.932734283300007
 10
-11.94817793599999
 20
-2.491472318350004
 10
-12.37882248194999
 20
-2.074647504249995
 10
-12.74528025014999
 20
-1.578573348599985
 10
-12.97131453119997
 20
-1.134309863649987
 10
-13.12754886565
 20
-0.644149273300002
 10
-13.2
 20
0.0
  0
ARC
  5
E79
330
E57
100
AcDbEntity
  8
SK1
100
AcDbCircle
 10
-0.2515999391499974
 20
-7.078003247300002
 30
0.0
 40
0.3773417648124474
100
AcDbArc
 50
74.38025216030019
 51
131.8938604266996
  0
ARC
  5
E7A
330
E57
100
AcDbEntity
  8
SK1
100
AcDbCircle
 10
-0.25
 20
-12.22500000000001
 30
0.0
 40
0.600000000000004
100
AcDbArc
 50
65.37568164780068
 51
114.9999999999996
  0
LINE
  5
E7B
330
E57
100
AcDbEntity
  8
SK1
100
AcDbLine
 10
-1.133594219799987
 20
-7.290447517099987
 30
0.0
 11
-0.5035709570499876
 21
-6.797116413149992
 31
0.0
  0
LINE
  5
E7C
330
E57
100
AcDbEntity
  8
SK1
100
AcDbLine
 10
-1.133594219799987
 20
-7.290447517099987
 30
0.0
 11
-2.949999999999988
 21
-7.290447517099987
 31
0.0
  0
ARC
  5
E7D
330
E57
100
AcDbEntity
  8
SK1
100
AcDbCircle
 10
-3.550000000000011
 20
-9.350000000000008
 30
0.0
 40
0.5999999999999967
100
AcDbArc
 50
0.0
 51
104.9999999999994
  0
LINE
  5
E7E
330
E57
100
AcDbEntity
  8
SK1
100
AcDbLine
 10
-2.949999999999988
 20
-11.975
 30
0.0
 11
-1.133594219799987
 21
-11.975
 31
0.0
  0
LINE
  5
E7F
330
E57
100
AcDbEntity
  8
SK1
100
AcDbLine
 10
-1.133594219799987
 20
-11.975
 30
0.0
 11
-0.5035709570499876
 21
-11.68121532774999
 31
0.0
  0
LINE
  5
E80
330
E57
100
AcDbEntity
  8
SK1
100
AcDbLine
 10
-1.133594219799987
 20
-11.975
 30
0.0
 11
-1.133594219799987
 21
-7.290447517099987
 31
0.0
  0
LINE
  5
E81
330
E57
100
AcDbEntity
  8
SK1
100
AcDbLine
 10
-4.562004200450018
 20
-9.0
 30
0.0
 11
-3.705291427049985
 21
-8.7704445042
 31
0.0
  0
LINE
  5
E82
330
E57
100
AcDbEntity
  8
3
100
AcDbLine
 10
0.0
 20
-13.10859421975
 30
0.0
 11
0.2937846721999904
 21
-12.47857095704999
 31
0.0
  0
ARC
  5
E83
330
E57
100
AcDbEntity
  8
3
100
AcDbCircle
 10
-0.25
 20
-12.22500000000001
 30
0.0
 40
0.5999999999999945
100
AcDbArc
 50
335.0
 51
0.0
  0
ARC
  5
E84
330
E57
100
AcDbEntity
  8
3
100
AcDbCircle
 10
-0.25
 20
-12.22500000000001
 30
0.0
 40
0.6000000000000038
100
AcDbArc
 50
0.0
 51
65.37568164780068
  0
LINE
  5
E85
330
E57
100
AcDbEntity
  8
SK1
100
AcDbLine
 10
-0.5035709570499876
 20
6.797116413149992
 30
0.0
 11
-1.133594219799987
 21
7.290447517149995
 31
0.0
  0
ARC
  5
E86
330
E57
100
AcDbEntity
  8
SK1
100
AcDbCircle
 10
-0.2491162109499783
 20
7.088645250249996
 30
0.0
 40
0.386957724655205
100
AcDbArc
 50
228.8846097785
 51
284.8412776345993
  0
ARC
  5
E87
330
E57
100
AcDbEntity
  8
SK1
100
AcDbCircle
 10
-0.25
 20
12.22500000000001
 30
0.0
 40
0.600000000000004
100
AcDbArc
 50
245.0000000000003
 51
294.6243183521993
  0
LINE
  5
E88
330
E57
100
AcDbEntity
  8
SK1
100
AcDbLine
 10
-0.5035709570499876
 20
11.68121532779998
 30
0.0
 11
-1.133594219799987
 21
11.975
 31
0.0
  0
LINE
  5
E89
330
E57
100
AcDbEntity
  8
SK1
100
AcDbLine
 10
-1.133594219799987
 20
11.975
 30
0.0
 11
-2.949999999999988
 21
11.975
 31
0.0
  0
LINE
  5
E8A
330
E57
100
AcDbEntity
  8
SK1
100
AcDbLine
 10
-1.133594219799987
 20
7.290447517149995
 30
0.0
 11
-2.949999999999988
 21
7.290447517149995
 31
0.0
  0
LINE
  5
E8B
330
E57
100
AcDbEntity
  8
SK1
100
AcDbLine
 10
-1.133594219799987
 20
7.290447517149995
 30
0.0
 11
-1.133594219799987
 21
11.975
 31
0.0
  0
ARC
  5
E8C
330
E57
100
AcDbEntity
  8
SK1
100
AcDbCircle
 10
-3.550000000000011
 20
9.350000000000008
 30
0.0
 40
0.5999999999999967
100
AcDbArc
 50
255.0000000000004
 51
0.0
  0
LINE
  5
E8D
330
E57
100
AcDbEntity
  8
SK1
100
AcDbLine
 10
-3.705291427049985
 20
8.770444504249994
 30
0.0
 11
-4.562004200450018
 21
9.0
 31
0.0
  0
LINE
  5
E8E
330
E57
100
AcDbEntity
  8
3
100
AcDbLine
 10
0.2937846721999904
 20
12.47857095704999
 30
0.0
 11
0.0
 21
13.10859421979999
 31
0.0
  0
ARC
  5
E8F
330
E57
100
AcDbEntity
  8
3
100
AcDbCircle
 10
-0.25
 20
12.22500000000001
 30
0.0
 40
0.599999999999988
100
AcDbArc
 50
345.6249999999998
 51
25.00000000000003
  0
ARC
  5
E90
330
E57
100
AcDbEntity
  8
3
100
AcDbCircle
 10
-0.25
 20
12.22500000000001
 30
0.0
 40
0.5999999999999904
100
AcDbArc
 50
294.6243183521993
 51
345.6249999999998
  0
ARC
  5
E91
330
E57
100
AcDbEntity
  8
1
100
AcDbCircle
 10
0.3000000000000114
 20
15.7
 30
0.0
 40
0.2999999999999971
100
AcDbArc
 50
90.0
 51
180.0
  0
ENDBLK
  5
E93
330
E57
100
AcDbEntity
  8
0
100
AcDbBlockEnd
  0
BLOCK
  5
EFA
330
EF0
100
AcDbEntity
  8
0
100
AcDbBlockBegin
  2
*D23
 70
     1
 10
0.0
 20
0.0
 30
0.0
  3
*D23
  1

  0
LINE
  5
EF1
330
EF0
100
AcDbEntity
  8
VERMASSUNG
 62
     0
370
    -2
100
AcDbLine
 10
168.0419268886
 20
121.1892810414999
 30
0.0
 11
168.0419268886
 21
126.1321052294499
 31
0.0
  0
LINE
  5
EF2
330
EF0
100
AcDbEntity
  8
VERMASSUNG
 62
     0
370
    -2
100
AcDbLine
 10
101.0419268885999
 20
108.5892810414999
 30
0.0
 11
101.0419268885999
 21
126.1321052294499
 31
0.0
  0
LINE
  5
EF3
330
EF0
100
AcDbEntity
  8
VERMASSUNG
 62
     0
370
    -2
100
AcDbLine
 10
165.0419268886
 20
126.1321052294499
 30
0.0
 11
104.0419268885999
 21
126.1321052294499
 31
0.0
  0
SOLID
  5
EF4
330
EF0
100
AcDbEntity
  8
VERMASSUNG
 62
     0
100
AcDbTrace
 10
165.0419268886
 20
126.6321052294499
 30
0.0
 11
165.0419268886
 21
125.6321052294499
 31
0.0
 12
168.0419268886
 22
126.1321052294499
 32
0.0
 13
168.0419268886
 23
126.1321052294499
 33
0.0
  0
SOLID
  5
EF5
330
EF0
100
AcDbEntity
  8
VERMASSUNG
 62
     0
100
AcDbTrace
 10
104.0419268885999
 20
126.6321052294499
 30
0.0
 11
104.0419268885999
 21
125.6321052294499
 31
0.0
 12
101.0419268885999
 22
126.1321052294499
 32
0.0
 13
101.0419268885999
 23
126.1321052294499
 33
0.0
  0
MTEXT
  5
EF6
330
EF0
100
AcDbEntity
  8
VERMASSUNG
 62
     0
100
AcDbMText
 10
134.5419268886
 20
129.0321052294499
 30
0.0
 40
2.0
 41
0.0
 71
     2
 72
     1
  1
\A1;(33.5)
  7
SLDTEXTSTYLE0
 73
     1
 44
1.0
  0
POINT
  5
EF7
330
EF0
100
AcDbEntity
  8
Defpoints
 62
     0
100
AcDbPoint
 10
168.0419268886
 20
121.1267810415
 30
0.0
  0
POINT
  5
EF8
330
EF0
100
AcDbEntity
  8
Defpoints
 62
     0
100
AcDbPoint
 10
101.0419268885999
 20
108.5267810414999
 30
0.0
  0
POINT
  5
EF9
330
EF0
100
AcDbEntity
  8
Defpoints
 62
     0
100
AcDbPoint
 10
101.0419268885999
 20
126.1321052294499
 30
0.0
  0
ENDBLK
  5
EFB
330
EF0
100
AcDbEntity
  8
0
100
AcDbBlockEnd
  0
BLOCK
  5
F06
330
EFC
100
AcDbEntity
  8
0
100
AcDbBlockBegin
  2
*D24
 70
     1
 10
0.0
 20
0.0
 30
0.0
  3
*D24
  1

  0
LINE
  5
EFD
330
EFC
100
AcDbEntity
  8
VERMASSUNG
 62
     0
370
    -2
100
AcDbLine
 10
168.0419268886
 20
121.1892810414999
 30
0.0
 11
168.0419268886
 21
123.1321052294499
 31
0.0
  0
LINE
  5
EFE
330
EFC
100
AcDbEntity
  8
VERMASSUNG
 62
     0
370
    -2
100
AcDbLine
 10
121.0419268885999
 20
116.7392810414999
 30
0.0
 11
121.0419268885999
 21
123.1321052294499
 31
0.0
  0
LINE
  5
EFF
330
EFC
100
AcDbEntity
  8
VERMASSUNG
 62
     0
370
    -2
100
AcDbLine
 10
165.0419268886
 20
123.1321052294499
 30
0.0
 11
124.0419268885999
 21
123.1321052294499
 31
0.0
  0
SOLID
  5
F00
330
EFC
100
AcDbEntity
  8
VERMASSUNG
 62
     0
100
AcDbTrace
 10
165.0419268886
 20
123.6321052294499
 30
0.0
 11
165.0419268886
 21
122.6321052294499
 31
0.0
 12
168.0419268886
 22
123.1321052294499
 32
0.0
 13
168.0419268886
 23
123.1321052294499
 33
0.0
  0
SOLID
  5
F01
330
EFC
100
AcDbEntity
  8
VERMASSUNG
 62
     0
100
AcDbTrace
 10
124.0419268885999
 20
123.6321052294499
 30
0.0
 11
124.0419268885999
 21
122.6321052294499
 31
0.0
 12
121.0419268885999
 22
123.1321052294499
 32
0.0
 13
121.0419268885999
 23
123.1321052294499
 33
0.0
  0
MTEXT
  5
F02
330
EFC
100
AcDbEntity
  8
VERMASSUNG
 62
     0
100
AcDbMText
 10
144.5419268886
 20
125.6321052294499
 30
0.0
 40
2.0
 41
0.0
 71
     2
 72
     1
  1
\A1;23.5
  7
SLDTEXTSTYLE0
 73
     1
 44
1.0
  0
POINT
  5
F03
330
EFC
100
AcDbEntity
  8
Defpoints
 62
     0
100
AcDbPoint
 10
168.0419268886
 20
121.1267810415
 30
0.0
  0
POINT
  5
F04
330
EFC
100
AcDbEntity
  8
Defpoints
 62
     0
100
AcDbPoint
 10
121.0419268885999
 20
116.6767810414999
 30
0.0
  0
POINT
  5
F05
330
EFC
100
AcDbEntity
  8
Defpoints
 62
     0
100
AcDbPoint
 10
121.0419268885999
 20
123.1321052294499
 30
0.0
  0
ENDBLK
  5
F07
330
EFC
100
AcDbEntity
  8
0
100
AcDbBlockEnd
  0
BLOCK
  5
F12
330
F08
100
AcDbEntity
  8
0
100
AcDbBlockBegin
  2
*D25
 70
     1
 10
0.0
 20
0.0
 30
0.0
  3
*D25
  1

  0
LINE
  5
F09
330
F08
100
AcDbEntity
  8
VERMASSUNG
 62
     0
370
    -2
100
AcDbLine
 10
168.1044268886
 20
121.1267810415
 30
0.0
 11
173.12252537925
 21
121.1267810415
 31
0.0
  0
LINE
  5
F0A
330
F08
100
AcDbEntity
  8
VERMASSUNG
 62
     0
370
    -2
100
AcDbLine
 10
168.1044268886
 20
81.22678104149999
 30
0.0
 11
173.12252537925
 21
81.22678104149999
 31
0.0
  0
LINE
  5
F0B
330
F08
100
AcDbEntity
  8
VERMASSUNG
 62
     0
370
    -2
100
AcDbLine
 10
173.12252537925
 20
118.1267810415
 30
0.0
 11
173.12252537925
 21
84.2267810415
 31
0.0
  0
SOLID
  5
F0C
330
F08
100
AcDbEntity
  8
VERMASSUNG
 62
     0
100
AcDbTrace
 10
172.62252537925
 20
118.1267810415
 30
0.0
 11
173.62252537925
 21
118.1267810415
 31
0.0
 12
173.12252537925
 22
121.1267810415
 32
0.0
 13
173.12252537925
 23
121.1267810415
 33
0.0
  0
SOLID
  5
F0D
330
F08
100
AcDbEntity
  8
VERMASSUNG
 62
     0
100
AcDbTrace
 10
172.62252537925
 20
84.2267810415
 30
0.0
 11
173.62252537925
 21
84.2267810415
 31
0.0
 12
173.12252537925
 22
81.22678104149999
 32
0.0
 13
173.12252537925
 23
81.22678104149999
 33
0.0
  0
MTEXT
  5
F0E
330
F08
100
AcDbEntity
  8
VERMASSUNG
 62
     0
100
AcDbMText
 10
167.2891920459167
 20
110.4014524994999
 30
0.0
 40
2.0
 41
0.0
 71
     2
 72
     1
  1
\A1;%%c19.95-51.1\P%%c47.9-59.1
  7
SLDTEXTSTYLE0
 11
0.0000000000000001
 21
1.0
 31
0.0
 73
     1
 44
1.0
  0
POINT
  5
F0F
330
F08
100
AcDbEntity
  8
Defpoints
 62
     0
100
AcDbPoint
 10
168.0419268886
 20
121.1267810415
 30
0.0
  0
POINT
  5
F10
330
F08
100
AcDbEntity
  8
Defpoints
 62
     0
100
AcDbPoint
 10
168.0419268886
 20
81.22678104149999
 30
0.0
  0
POINT
  5
F11
330
F08
100
AcDbEntity
  8
Defpoints
 62
     0
100
AcDbPoint
 10
173.12252537925
 20
81.22678104149999
 30
0.0
  0
ENDBLK
  5
F13
330
F08
100
AcDbEntity
  8
0
100
AcDbBlockEnd
  0
BLOCK
  5
F1E
330
F14
100
AcDbEntity
  8
0
100
AcDbBlockBegin
  2
*D26
 70
     1
 10
0.0
 20
0.0
 30
0.0
  3
*D26
  1

  0
LINE
  5
F15
330
F14
100
AcDbEntity
  8
VERMASSUNG
 62
     0
370
    -2
100
AcDbLine
 10
121.4794268885999
 20
117.1767810414999
 30
0.0
 11
97.94433509015002
 21
117.1767810414999
 31
0.0
  0
LINE
  5
F16
330
F14
100
AcDbEntity
  8
VERMASSUNG
 62
     0
370
    -2
100
AcDbLine
 10
121.4794268885999
 20
85.17678104149998
 30
0.0
 11
97.94433509015
 21
85.17678104149998
 31
0.0
  0
LINE
  5
F17
330
F14
100
AcDbEntity
  8
VERMASSUNG
 62
     0
370
    -2
100
AcDbLine
 10
97.94433509015002
 20
114.1767810414999
 30
0.0
 11
97.94433509015
 21
88.17678104149999
 31
0.0
  0
SOLID
  5
F18
330
F14
100
AcDbEntity
  8
VERMASSUNG
 62
     0
100
AcDbTrace
 10
97.44433509015003
 20
114.1767810414999
 30
0.0
 11
98.44433509015003
 21
114.1767810414999
 31
0.0
 12
97.94433509015002
 22
117.1767810414999
 32
0.0
 13
97.94433509015002
 23
117.1767810414999
 33
0.0
  0
SOLID
  5
F19
330
F14
100
AcDbEntity
  8
VERMASSUNG
 62
     0
100
AcDbTrace
 10
97.44433509015001
 20
88.17678104149999
 30
0.0
 11
98.44433509015001
 21
88.17678104149999
 31
0.0
 12
97.94433509015
 22
85.17678104149998
 32
0.0
 13
97.94433509015
 23
85.17678104149998
 33
0.0
  0
MTEXT
  5
F1A
330
F14
100
AcDbEntity
  8
VERMASSUNG
 62
     0
100
AcDbMText
 10
95.44281993863483
 20
101.1767810414999
 30
0.0
 40
2.0
 41
0.0
 71
     2
 72
     1
  1
\A1;ST3 %%c16
  7
SLDTEXTSTYLE0
 11
0.0000000000000001
 21
1.0
 31
0.0
 73
     1
 44
1.0
  0
POINT
  5
F1B
330
F14
100
AcDbEntity
  8
Defpoints
 62
     0
100
AcDbPoint
 10
121.5419268885999
 20
117.1767810414999
 30
0.0
  0
POINT
  5
F1C
330
F14
100
AcDbEntity
  8
Defpoints
 62
     0
100
AcDbPoint
 10
121.5419268885999
 20
85.17678104149998
 30
0.0
  0
POINT
  5
F1D
330
F14
100
AcDbEntity
  8
Defpoints
 62
     0
100
AcDbPoint
 10
97.94433509015
 20
85.17678104149998
 30
0.0
  0
ENDBLK
  5
F1F
330
F14
100
AcDbEntity
  8
0
100
AcDbBlockEnd
  0
BLOCK
  5
13ED
330
13E3
100
AcDbEntity
  8
0
100
AcDbBlockBegin
  2
*D28
 70
     1
 10
0.0
 20
0.0
 30
0.0
  3
*D28
  1

  0
LINE
  5
1413
330
13E3
100
AcDbEntity
  8
VERMASSUNG
 62
     0
370
    -2
100
AcDbLine
 10
47.00000000000002
 20
20.0125
 30
0.0
 11
47.00000000000002
 21
24.95532418794999
 31
0.0
  0
LINE
  5
1414
330
13E3
100
AcDbEntity
  8
VERMASSUNG
 62
     0
370
    -2
100
AcDbLine
 10
-20.0
 20
7.412499999999994
 30
0.0
 11
-20.0
 21
24.95532418794999
 31
0.0
  0
LINE
  5
1415
330
13E3
100
AcDbEntity
  8
VERMASSUNG
 62
     0
370
    -2
100
AcDbLine
 10
44.00000000000003
 20
24.95532418794999
 30
0.0
 11
-17.0
 21
24.95532418794999
 31
0.0
  0
SOLID
  5
1416
330
13E3
100
AcDbEntity
  8
VERMASSUNG
 62
     0
100
AcDbTrace
 10
44.00000000000003
 20
25.45532418795
 30
0.0
 11
44.00000000000003
 21
24.45532418795
 31
0.0
 12
47.00000000000002
 22
24.95532418794999
 32
0.0
 13
47.00000000000002
 23
24.95532418794999
 33
0.0
  0
SOLID
  5
1417
330
13E3
100
AcDbEntity
  8
VERMASSUNG
 62
     0
100
AcDbTrace
 10
-17.0
 20
25.45532418795
 30
0.0
 11
-17.0
 21
24.45532418795
 31
0.0
 12
-20.0
 22
24.95532418794999
 32
0.0
 13
-20.0
 23
24.95532418794999
 33
0.0
  0
MTEXT
  5
1418
330
13E3
100
AcDbEntity
  8
VERMASSUNG
 62
     0
100
AcDbMText
 10
13.50000000000002
 20
27.85532418794999
 30
0.0
 40
2.0
 41
0.0
 71
     2
 72
     1
  1
\A1;(67)
  7
SLDTEXTSTYLE0
 73
     1
 44
1.0
  0
POINT
  5
1419
330
13E3
100
AcDbEntity
  8
Defpoints
 62
     0
100
AcDbPoint
 10
47.00000000000002
 20
19.95
 30
0.0
  0
POINT
  5
141A
330
13E3
100
AcDbEntity
  8
Defpoints
 62
     0
100
AcDbPoint
 10
-20.0
 20
7.349999999999994
 30
0.0
  0
POINT
  5
141B
330
13E3
100
AcDbEntity
  8
Defpoints
 62
     0
100
AcDbPoint
 10
-20.0
 20
24.95532418794999
 30
0.0
  0
ENDBLK
  5
13EE
330
13E3
100
AcDbEntity
  8
0
100
AcDbBlockEnd
  0
BLOCK
  5
13F9
330
13EF
100
AcDbEntity
  8
0
100
AcDbBlockBegin
  2
*D29
 70
     1
 10
0.0
 20
0.0
 30
0.0
  3
*D29
  1

  0
LINE
  5
141C
330
13EF
100
AcDbEntity
  8
VERMASSUNG
 62
     0
370
    -2
100
AcDbLine
 10
47.00000000000002
 20
20.0125
 30
0.0
 11
47.00000000000002
 21
21.95532418795
 31
0.0
  0
LINE
  5
141D
330
13EF
100
AcDbEntity
  8
VERMASSUNG
 62
     0
370
    -2
100
AcDbLine
 10
0.0
 20
15.5625
 30
0.0
 11
0.0000000000000004
 21
21.95532418795
 31
0.0
  0
LINE
  5
141E
330
13EF
100
AcDbEntity
  8
VERMASSUNG
 62
     0
370
    -2
100
AcDbLine
 10
44.00000000000003
 20
21.95532418795
 30
0.0
 11
3.0
 21
21.95532418795
 31
0.0
  0
SOLID
  5
141F
330
13EF
100
AcDbEntity
  8
VERMASSUNG
 62
     0
100
AcDbTrace
 10
44.00000000000003
 20
22.45532418794999
 30
0.0
 11
44.00000000000003
 21
21.45532418794999
 31
0.0
 12
47.00000000000002
 22
21.95532418795
 32
0.0
 13
47.00000000000002
 23
21.95532418795
 33
0.0
  0
SOLID
  5
1420
330
13EF
100
AcDbEntity
  8
VERMASSUNG
 62
     0
100
AcDbTrace
 10
3.0
 20
22.45532418794999
 30
0.0
 11
3.0
 21
21.45532418794999
 31
0.0
 12
0.0000000000000004
 22
21.95532418795
 32
0.0
 13
0.0000000000000004
 23
21.95532418795
 33
0.0
  0
MTEXT
  5
1421
330
13EF
100
AcDbEntity
  8
VERMASSUNG
 62
     0
100
AcDbMText
 10
23.50000000000002
 20
24.45532418795
 30
0.0
 40
2.0
 41
0.0
 71
     2
 72
     1
  1
\A1;47
  7
SLDTEXTSTYLE0
 73
     1
 44
1.0
  0
POINT
  5
1422
330
13EF
100
AcDbEntity
  8
Defpoints
 62
     0
100
AcDbPoint
 10
47.00000000000002
 20
19.95
 30
0.0
  0
POINT
  5
1423
330
13EF
100
AcDbEntity
  8
Defpoints
 62
     0
100
AcDbPoint
 10
0.0
 20
15.5
 30
0.0
  0
POINT
  5
1424
330
13EF
100
AcDbEntity
  8
Defpoints
 62
     0
100
AcDbPoint
 10
0.0000000000000004
 20
21.95532418795
 30
0.0
  0
ENDBLK
  5
13FA
330
13EF
100
AcDbEntity
  8
0
100
AcDbBlockEnd
  0
BLOCK
  5
1405
330
13FB
100
AcDbEntity
  8
0
100
AcDbBlockBegin
  2
*D30
 70
     1
 10
0.0
 20
0.0
 30
0.0
  3
*D30
  1

  0
LINE
  5
1472
330
13FB
100
AcDbEntity
  8
SK2
 62
     0
370
    -2
100
AcDbLine
 10
0.5
 20
16.0
 30
0.0
 11
-25.09759179844999
 21
16.0
 31
0.0
  0
LINE
  5
1473
330
13FB
100
AcDbEntity
  8
SK2
 62
     0
370
    -2
100
AcDbLine
 10
0.5
 20
-16.0
 30
0.0
 11
-25.09759179845
 21
-15.99999999999999
 31
0.0
  0
LINE
  5
1474
330
13FB
100
AcDbEntity
  8
SK2
 62
     0
370
    -2
100
AcDbLine
 10
-23.09759179844999
 20
11.43
 30
0.0
 11
-23.09759179845
 21
-11.42999999999999
 31
0.0
  0
SOLID
  5
1475
330
13FB
100
AcDbEntity
  8
SK2
 62
     0
100
AcDbTrace
 10
-23.85925846511665
 20
11.43
 30
0.0
 11
-22.33592513178332
 21
11.43
 31
0.0
 12
-23.09759179844999
 22
16.0
 32
0.0
 13
-23.09759179844999
 23
16.0
 33
0.0
  0
SOLID
  5
1476
330
13FB
100
AcDbEntity
  8
SK2
 62
     0
100
AcDbTrace
 10
-23.85925846511666
 20
-11.42999999999999
 30
0.0
 11
-22.33592513178333
 21
-11.42999999999999
 31
0.0
 12
-23.09759179845
 22
-15.99999999999999
 32
0.0
 13
-23.09759179845
 23
-15.99999999999999
 33
0.0
  0
MTEXT
  5
1477
330
13FB
100
AcDbEntity
  8
SK2
 62
     7
100
AcDbMText
 10
-29.16759179845
 20
0.0000000000000005
 30
0.0
 40
4.57
 41
0.0
 71
     2
 72
     1
  1
\A1;ST3 %%c32
  7
GENPRESET
 11
0.0000000000000001
 21
1.0
 31
0.0
 73
     1
 44
1.0
  0
POINT
  5
1478
330
13FB
100
AcDbEntity
  8
Defpoints
 62
     0
100
AcDbPoint
 10
0.5
 20
16.0
 30
0.0
  0
POINT
  5
1479
330
13FB
100
AcDbEntity
  8
Defpoints
 62
     0
100
AcDbPoint
 10
0.5
 20
-16.0
 30
0.0
  0
POINT
  5
147A
330
13FB
100
AcDbEntity
  8
Defpoints
 62
     0
100
AcDbPoint
 10
-23.09759179845
 20
-15.99999999999999
 30
0.0
  0
ENDBLK
  5
1406
330
13FB
100
AcDbEntity
  8
0
100
AcDbBlockEnd
  0
BLOCK
  5
1411
330
1407
100
AcDbEntity
  8
0
100
AcDbBlockBegin
  2
*D31
 70
     1
 10
0.0
 20
0.0
 30
0.0
  3
*D31
  1

  0
LINE
  5
142E
330
1407
100
AcDbEntity
  8
VERMASSUNG
 62
     0
370
    -2
100
AcDbLine
 10
47.06250000000003
 20
19.95
 30
0.0
 11
52.08059849065004
 21
19.95
 31
0.0
  0
LINE
  5
142F
330
1407
100
AcDbEntity
  8
VERMASSUNG
 62
     0
370
    -2
100
AcDbLine
 10
47.06250000000003
 20
-19.95
 30
0.0
 11
52.08059849065002
 21
-19.95
 31
0.0
  0
LINE
  5
1430
330
1407
100
AcDbEntity
  8
VERMASSUNG
 62
     0
370
    -2
100
AcDbLine
 10
52.08059849065004
 20
16.95
 30
0.0
 11
52.08059849065002
 21
-16.95
 31
0.0
  0
SOLID
  5
1431
330
1407
100
AcDbEntity
  8
VERMASSUNG
 62
     0
100
AcDbTrace
 10
51.58059849065004
 20
16.95
 30
0.0
 11
52.58059849065004
 21
16.95
 31
0.0
 12
52.08059849065004
 22
19.95
 32
0.0
 13
52.08059849065004
 23
19.95
 33
0.0
  0
SOLID
  5
1432
330
1407
100
AcDbEntity
  8
VERMASSUNG
 62
     0
100
AcDbTrace
 10
51.58059849065002
 20
-16.95
 30
0.0
 11
52.58059849065002
 21
-16.95
 31
0.0
 12
52.08059849065002
 22
-19.95
 32
0.0
 13
52.08059849065002
 23
-19.95
 33
0.0
  0
MTEXT
  5
1433
330
1407
100
AcDbEntity
  8
VERMASSUNG
 62
     0
100
AcDbMText
 10
46.2472651573167
 20
9.224671458000003
 30
0.0
 40
2.0
 41
0.0
 71
     2
 72
     1
  1
\A1;%%c19.95-51.1\P%%c47.9-59.1
  7
SLDTEXTSTYLE0
 11
0.0000000000000001
 21
1.0
 31
0.0
 73
     1
 44
1.0
  0
POINT
  5
1434
330
1407
100
AcDbEntity
  8
Defpoints
 62
     0
100
AcDbPoint
 10
47.00000000000002
 20
19.95
 30
0.0
  0
POINT
  5
1435
330
1407
100
AcDbEntity
  8
Defpoints
 62
     0
100
AcDbPoint
 10
47.00000000000002
 20
-19.95
 30
0.0
  0
POINT
  5
1436
330
1407
100
AcDbEntity
  8
Defpoints
 62
     0
100
AcDbPoint
 10
52.08059849065002
 20
-19.95
 30
0.0
  0
ENDBLK
  5
1412
330
1407
100
AcDbEntity
  8
0
100
AcDbBlockEnd
  0
BLOCK
  5
1486
330
147C
100
AcDbEntity
  8
0
100
AcDbBlockBegin
  2
*D34
 70
     1
 10
0.0
 20
0.0
 30
0.0
  3
*D34
  1

  0
LINE
  5
1488
330
147C
100
AcDbEntity
  8
2
 62
     0
370
    -2
100
AcDbLine
 10
0.0
 20
15.5
 30
0.0
 11
0.0000000000000005
 21
23.97573809506551
 31
0.0
  0
LINE
  5
1489
330
147C
100
AcDbEntity
  8
2
 62
     0
370
    -2
100
AcDbLine
 10
43.00000000000003
 20
8.816601735549994
 30
0.0
 11
43.00000000000003
 21
23.97573809506551
 31
0.0
  0
LINE
  5
148A
330
147C
100
AcDbEntity
  8
2
 62
     0
370
    -2
100
AcDbLine
 10
4.57
 20
21.9757380950655
 30
0.0
 11
38.43000000000003
 21
21.9757380950655
 31
0.0
  0
SOLID
  5
148B
330
147C
100
AcDbEntity
  8
2
 62
     0
100
AcDbTrace
 10
4.57
 20
22.73740476173217
 30
0.0
 11
4.57
 21
21.21407142839884
 31
0.0
 12
0.0000000000000004
 22
21.9757380950655
 32
0.0
 13
0.0000000000000004
 23
21.9757380950655
 33
0.0
  0
SOLID
  5
148C
330
147C
100
AcDbEntity
  8
2
 62
     0
100
AcDbTrace
 10
38.43000000000003
 20
22.73740476173217
 30
0.0
 11
38.43000000000003
 21
21.21407142839884
 31
0.0
 12
43.00000000000003
 22
21.9757380950655
 32
0.0
 13
43.00000000000003
 23
21.9757380950655
 33
0.0
  0
MTEXT
  5
148D
330
147C
100
AcDbEntity
  8
2
 62
     7
100
AcDbMText
 10
21.50000000000001
 20
25.76073809506551
 30
0.0
 40
4.57
 41
0.0
 71
     5
 72
     1
  1
\A1;43
  7
GENPRESET
 73
     1
 44
1.0
  0
POINT
  5
148E
330
147C
100
AcDbEntity
  8
Defpoints
 62
     0
100
AcDbPoint
 10
0.0
 20
15.5
 30
0.0
  0
POINT
  5
148F
330
147C
100
AcDbEntity
  8
Defpoints
 62
     0
100
AcDbPoint
 10
43.00000000000003
 20
8.816601735549994
 30
0.0
  0
POINT
  5
1490
330
147C
100
AcDbEntity
  8
Defpoints
 62
     0
100
AcDbPoint
 10
43.00000000000003
 20
21.9757380950655
 30
0.0
  0
ENDBLK
  5
1487
330
147C
100
AcDbEntity
  8
0
100
AcDbBlockEnd
  0
ENDSEC
  0
SECTION
  2
ENTITIES
  0
MTEXT
  5
36
330
1F
100
AcDbEntity
  8
5
100
AcDbMText
 10
-22.67711469791219
 20
-47.1992877553041
 30
0.0
 40
4.57
 41
0.0
 71
     1
 72
     1
  1
304.032.040.047
  7
GENPRESET
 73
     1
 44
1.0
  0
MTEXT
  5
37
330
1F
100
AcDbEntity
  8
5
100
AcDbMText
 10
-22.6333315251122
 20
-39.16014896240413
 30
0.0
 40
4.57
 41
0.0
 71
     1
 72
     1
  1
Feinbohrkopf_Fine boring head
  7
GENPRESET
 73
     1
 44
1.0
  0
REGION
  5
2AB
330
1F
100
AcDbEntity
  8
5
100
AcDbModelerGeometry
 70
     1
  1
koo mi n o          
  1
h J1410(1 nl ^ \VL kqoqm QK mk R01 U*1 lo nnemleli moog 
  1
rn fqfffffffffffffffj:rooh n:rono 
  1
=0;& {rn {n {rn {rn |
  1
3*2/ {rn {rn {m {o |
  1
,7:33 {rn {rn {rn {l {rn {n |
  1
9><: {rn {rn {k {m {rn {j 90-(>-; ;0*=3: 0*+ |
  1
300/ {rn {rn {i {l |
  1
/3>1:r,*-9><: {rn rnfqmmkffnjmojilnhf rmfqflhjiiokhgkmgj o o o n n o o 90-(>-;@) V V V V |
  1
<0:;8: {rn {h {g {rn {f 90-(>-; {k {rn |
  1
<0:;8: {rn {no {i {rn {nn 90-(>-; {k {rn |
  1
<0:;8: {rn {i {no {rn {nm 90-(>-; {k {rn |
  1
:;8: {rn {nl {nk {i {nj 90-(>-; |
  1
<0:;8: {rn {g {h {rn {ni -:):-,:; {k {rn |
  1
:;8: {rn {nk {nh {h {ng 90-(>-; |
  1
:;8: {rn {nf {nl {g {mo 90-(>-; |
  1
):-+:' {rn {f {mn |
  1
):-+:' {rn {f {mm |
  1
61+<*-):r<*-): {rn 90-(>-; $ :'><+<*- 1*=, l 0/:1 mg 
  1
 o l oqlfigjomnhmmhnoggk n oqhmihgjfojjnjijimj n nqongknlhimogofofh n nqmhjijkomimihfkmn n 
  1
 nqjjhhfooifjkllfmm n nqginnnojigjoifhom n mqjkkgnlhjikjngfjl n mqgnmoofmlhlingolh n lqokfffiohonmmmllj n 
  1
 lqlloonlmhgjlffngk n lqjhjiljhgilhmngkg n lqflkijnjffnhfgkfk n kqklfnimomimokiofi n kqihhohhmgmkfjfon n 
  1
 kqfjglhmkoiilonmjg n jqlmoknigoglljkill n jqijoooimimfnhomng n iqnnmooijfhfmfnkjk n iqillkinjnnhkjhlfi n 
  1
 iqfknhinkfmmgkfnmf n hqmokikooliljffifi n hqkfmhhkhgfkhifngl n hqhnffflnfkkoglkjn n gqmmhonmnijoikjmjg n 
  1
 gqhgfgkommjlomnifh n fqnlnohigkhjkjhkmm n fqlggifigilfmffjgm l 
  1
 rniqlommmohjoggioj rmgqimhfijfgiikfiji o 
  1
 rniqmflgkjlghhfkomm rmgqljhjnfklmgjfing o 
  1
 rniqmhgjoigijilfhfg rmhqgimmmhkngkfgfki o 
  1
 rniqilonnkijghihokm rmhqmjfgmlifohghmkl o 
  1
 rnhqonggmmmjhnmnhkn rmiqgoimgfifhmhhmli o 
  1
 rnhqjljihongiihiknl rmiqjgjkifmffgjkijn o 
  1
 rngqokmkokingfhoiik rmiqllgmhnmlhknnfjf o 
  1
 rngqgggjhninnjjknnl rmiqmmojokjnlhkoghh o 
  1
 rnfqhlofnmfonlhfnmg rmiqmokhgknnljnkgnf o 
  1
 rmoqjnolhmnfilonhkj rmiqlhomnjjhljhnj o 
  1
 rmoqffmhlnmjmjmokjh rmiqjgjfhnnnllgmjmh o 
  1
 rmnqlfhfhgihgjhjnmf rmiqgfjkfjknoimhnm o 
  1
 rmnqgjnjfnllgohnfgk rmhqmgngojomiifllm o 
  1
 rmmqnhgmfolgigfmjfg rmhqfihnfohifiinkff o 
  1
 rmmqmmogjmmnjolkjif rmgqhkkmfogingfillm o 
  1
 rmnqfmjlkkgjkgnggi rmfqlihlnmlgkmnikf o 
  1
 rmnqjjjihliogihljni rmfqglffljjkllghokl o 
  1
 rmoqfjhmnihglmokoki rloqnmihnkknoifkooh o 
  1
 rmoqmkoliiflkjjfkin rloqlfhllgfjkiojgjh o 
  1
 rnfqlhjngomojfhkmol rloqjhjnmfnkfgngnn o 
  1
 rngqjlgkookklfmjknn rloqhoojkjhfjfgkfij o 
  1
 rnhqgngkjnnmokojhk rloqfggmlnmlifonngi o 
  1
 rnhqjfohmofhmnjkigj rlnqjihikihionlkkfk o 
  1
 rnhqhikfhlkimgfjmji rlmqnlonioiinohmkfj o 
  1
 rngqkmfhjgljookjiol rlmqkoimlkngjgmnfhm o 
  1
 rnfqmhmnmgmlhohfkkl rlmqkgikininlgimnf o 
  1
 rmoqmflflllhnihnhgk rlmqllgjimomomnigfg o 
  1
 rmoqhkfliojlfjfiklg rlnqilikfgjjjihgogg o 
  1
 rmoqhgfjhgmhfklmknf rlnqmlhgkhlmmkhnojj o 
  1
 rmoqgoighfkoikfmngi rlnqoiiljmfiolhnhhl o 
  1
 o 
  1
 1*33@,*-9><: 
  1
 1*33@,*-9><: 
  1
 1*33=, 
  1
 1*33=, 
  1
 V V 
  1
 o 
  1
 o 
  3
 mi oqlfigjomnhmmhnoggk oqhmihgjfojjnjijimj nqongknlhimogofofh nqmhjijkomimihfkmn nqjjhhfooifjkllfmm nqginnnojigjoifhom mqjkkgnlhjikjngfjl mqgnmoofmlhlingolh lqokfffiohonmmmllj lqlloonlmhgjlffngk lqjhjiljhgilhmngkg lqflkijnjffnhfgkfk kqklfnimomimokiofi kq
  1
ihhohhmgmkfjfon kqfjglhmkoiilonmjg jqlmoknigoglljkill jqijoooimimfnhomng iqnnmooijfhfmfnkjk iqillkinjnnhkjhlfi iqfknhinkfmmgkfnmf hqmokikooliljffifi hqkfmhhkhgfkhifngl hqhnffflnfkkoglkjn gqmmhonmnijoikjmjg gqhgfgkommjlomnifh fqnlnohigkhjkjhkmm 
  1
 Y n Y o " V V |
  1
:;8: {rn {nf {nh {no {ml 90-(>-; |
  1
):-+:' {rn {nn {mk |
  1
,+->687+r<*-): {rn rmoqgoighfkoikfmngi rlnqoiiljmfiolhnhhl o roqffffffnohkimjmnfi roqoonllioiiihkhngjfkh o V V |
  1
):-+:' {rn {ni {mj |
  1
,+->687+r<*-): {rn rnhqggllgkiholgjkgm rmgqimimhmiijojkhgj o oqffffffkmijjnoghjl roqoonohoflloomjjmgofg o V V |
  1
/061+ {rn rniqlommmohjoggioj rmgqimhfijfgiikfiji o |
  1
/061+ {rn rmoqgoighfkoikfmngi rlnqoiiljmfiolhnhhl o |
  1
61+<*-):r<*-): {rn 90-(>-; $ :'><+<*- 1*=, l 0/:1 mk 
  1
 o l oqligokiljfljmjmjj n oqikiffjgmifofigklg n nqoigjglohkoojklhk n nqiohihjljnioiinng n 
  1
 nqfhmmojknmiffgfof n mqnfkhjgmkmhhogjlf n mqioinmmijimmmlmmg n lqnlhnlfiiikkokmkj n lqifnmlfgjmonggmhk n 
  1
 kqokoilfionkiiffnk n kqlffkggihjloikjmk n kqgnjjkihfkomhonmj n jqljoknhiinlnnjjjf n jqgnogkngnofmjifjk n 
  1
 iqmmhnfffmkgnlkoni n iqinkmilhmmmoihgkk n hqkgfigmoofjhoomml n hqgihgfiogmnmng n gqmjlnglnofmnkimnl n 
  1
 gqjjhhkmomokmlmfin n gqhimgololoifolglj n fqnknnhijkkiknoojg n fqmjiilgghlkomkimn l 
  1
 rnhqggllgkiholgjkgm rmgqimimhmiijojkhgj o 
  1
 rnhqfofmlnnhhikfkhk rmgqligojnkhmjjlfgh o 
  1
 rnhqfjkiihmjliogjlk rmhqfnknnfklkjgjgnk o 
  1
 rngqinnohffnmhjljjl rmhqkfojjhoihohmkhl o 
  1
 rnfqkonfilgmonhoifl rmhqkkfhifflhhlfilm o 
  1
 rmoqkgjimlioliofjmj rmhqkglikfihoimnhgh o 
  1
 rmoqiojnfggmjomkfji rmgqklkigjmkinhkifj o 
  1
 rmoqoffljfjmghgkjok rmgqflogjkihlngkmgj o 
  1
 rnfqmfinnnfnjgjhilh rmfqonihhhnkjgkjlih o 
  1
 rngqllfnolimnjnjnfl rmfqmkfhojiijmloioh o 
  1
 rnhqlfnnmigmjkmmfgh rmfqkkihnnijhifkgfn o 
  1
 rniqijmflghnjfgiolf rmfqgifglhnnkkmhngj o 
  1
 rniqnliokngolkolmln rloqkkhlflimhknnnnh o 
  1
 rnjqfkfjojmolohlfmi rlnqlmijnlnklojkimi o 
  1
 rniqogiooklinfhlgil rlmqloliimkkhflnjkk o 
  1
 rniqhjlfokiglfkmnmj rllqomjoikhjhmhlhjl o 
  1
 rnhqkfffhglkkjmghmg rllqkmlnlfhjnhllkjf o 
  1
 rngqjhlmfmjifmgofof rllqhhfhniggmfknlgi o 
  1
 rnfqifkoihlhihkiigg rllqiiikgnlggknlfmg o 
  1
 rmoqhihglkknomfoiki rllqkhnlffookiglnhg o 
  1
 rmnqkmnnffhnhgnjjfh rllqnkiingikgkikjlf o 
  1
 rmnqgliklfflgfimgjj rlmqhogikmmjjhnjjhk o 
  1
 rmmqmngnogmmlhlnfki rlmqmiiglhjmfilhjfg o 
  1
 rmmqlnkoojhmkoghhlj rlnqiffjimnllllomgf o 
  1
 rmmqliigkhnmjnhlllh rlnqjomgjjhhinfikfg o 
  1
 rmmqlfmominngojgkjl rlnqoigkhogmlfjhfof o 
  1
 o 
  1
 1*33@,*-9><: 
  1
 1*33@,*-9><: 
  1
 1*33=, 
  1
 1*33=, 
  1
 V V 
  1
 o 
  1
 o 
  3
 mm oqligokiljfljmjmjj oqikiffjgmifofigklg nqoigjglohkoojklhk nqiohihjljnioiinng nqfhmmojknmiffgfof mqnfkhjgmkmhhogjlf mqioinmmijimmmlmmg lqnlhnlfiiikkokmkj lqifnmlfgjmonggmhk kqokoilfionkiiffnk kqlffkggihjloikjmk kqgnjjkihfkomhonmj jqljoknhiinlnnjjjf jqg
  1
nogkngnofmjifjk iqmmhnfffmkgnlkoni iqinkmilhmmmoihgkk hqkgfigmoofjhoomml hqgihgfiogmnmng gqmjlnglnofmnkimnl gqjjhhkmomokmlmfin gqhimgololoifolglj fqnknnhijkkiknoojg 
  1
 Y n Y o " V V |
  1
/061+ {rn rmmqlfmominngojgkjl rlnqoigkhogmlfjhfof o |
  1
/061+ {rn rnhqggllgkiholgjkgm rmgqimimhmiijojkhgj o |
  0
REGION
  5
2AC
330
1F
100
AcDbEntity
  8
5
100
AcDbModelerGeometry
 70
     1
  1
koo mi n o          
  1
h J1410(1 nl ^ \VL kqoqm QK mk R01 U*1 lo nnemleli moog 
  1
rn fqfffffffffffffffj:rooh n:rono 
  1
=0;& {rn {n {rn {rn |
  1
3*2/ {rn {rn {m {o |
  1
,7:33 {rn {rn {rn {l {rn {n |
  1
9><: {rn {rn {k {m {rn {j 90-(>-; ;0*=3: 0*+ |
  1
300/ {rn {rn {i {l |
  1
/3>1:r,*-9><: {rn nhqlgnmfinijkkfkh rmfqhlmlmjhnnmhniff o o o n n o o 90-(>-;@) V V V V |
  1
<0:;8: {rn {h {g {rn {f -:):-,:; {k {rn |
  1
<0:;8: {rn {no {i {rn {nn -:):-,:; {k {rn |
  1
<0:;8: {rn {i {no {rn {nm -:):-,:; {k {rn |
  1
:;8: {rn {nl {nk {i {nj 90-(>-; |
  1
<0:;8: {rn {g {h {rn {ni -:):-,:; {k {rn |
  1
:;8: {rn {nh {nl {h {ng 90-(>-; |
  1
:;8: {rn {nk {nf {g {mo 90-(>-; |
  1
):-+:' {rn {f {mn |
  1
):-+:' {rn {f {mm |
  1
,+->687+r<*-): {rn rmmqjmlijnjgnommlfm rmlqhonkifmjkhmomml o n o o V V |
  1
:;8: {rn {nf {nh {no {ml 90-(>-; |
  1
):-+:' {rn {ni {mk |
  1
,+->687+r<*-): {rn rmmqjmlijnjgnommlfm rljqhilngmnihgmlnhk o o n o V V |
  1
):-+:' {rn {nm {mj |
  1
,+->687+r<*-): {rn jhqmgimklfnnfmnllm rmlqhonkifmjkhmomml o o rn o V V |
  1
/061+ {rn rmmqjmlijnjgnommlfm rmlqhonkifmjkhmomml o |
  1
/061+ {rn jhqmgimklfnnfmnllm rmlqhonkifmjkhmomml o |
  1
,+->687+r<*-): {rn jhqmgimklfnnfmnllm rljqhilngmnihgmlnhk o rn o o V V |
  1
/061+ {rn rmmqjmlijnjgnommlfm rljqhilngmnihgmlnhk o |
  1
/061+ {rn jhqmgimklfnnfmnllm rljqhilngmnihgmlnhk o |
  0
REGION
  5
2AD
330
1F
100
AcDbEntity
  8
5
100
AcDbModelerGeometry
 70
     1
  1
koo mi n o          
  1
h J1410(1 nl ^ \VL kqoqm QK mk R01 U*1 lo nnemleli moog 
  1
rn fqfffffffffffffffj:rooh n:rono 
  1
=0;& {rn {n {rn {rn |
  1
3*2/ {rn {rn {m {o |
  1
,7:33 {rn {rn {rn {l {rn {n |
  1
9><: {rn {rn {k {m {rn {j 90-(>-; ;0*=3: 0*+ |
  1
300/ {rn {rn {i {l |
  1
/3>1:r,*-9><: {rn oqfikoogonggikmlklh rmfqflhjiiokhgkmgj o o o n n o o 90-(>-;@) V V V V |
  1
<0:;8: {rn {h {g {rn {f 90-(>-; {k {rn |
  1
<0:;8: {rn {no {i {rn {nn 90-(>-; {k {rn |
  1
<0:;8: {rn {i {no {rn {nm 90-(>-; {k {rn |
  1
:;8: {rn {nl {nk {i {nj 90-(>-; |
  1
<0:;8: {rn {g {h {rn {ni -:):-,:; {k {rn |
  1
:;8: {rn {nk {nh {h {ng 90-(>-; |
  1
:;8: {rn {nf {nl {g {mo 90-(>-; |
  1
):-+:' {rn {f {mn |
  1
):-+:' {rn {f {mm |
  1
61+<*-):r<*-): {rn 90-(>-; $ :'><+<*- 1*=, l 0/:1 mg 
  1
 o l oqlfigjomnhmmhnoggk n oqhmihgjfojjnjijimj n nqongknlhimogofofh n nqmhjijkomimihfkmn n 
  1
 nqjjhhfooifjkllfmm n nqginnnojigjoifhom n mqjkkgnlhjikjngfjl n mqgnmoofmlhlingolh n lqokfffiohonmmmllj n 
  1
 lqlloonlmhgjlffngk n lqjhjiljhgilhmngkg n lqflkijnjffnhfgkfk n kqklfnimomimokiofi n kqihhohhmgmkfjfon n 
  1
 kqfjglhmkoiilonmjg n jqlmoknigoglljkill n jqijoooimimfnhomng n iqnnmooijfhfmfnkjk n iqillkinjnnhkjhlfi n 
  1
 iqfknhinkfmmgkfnmf n hqmokikooliljffifi n hqkfmhhkhgfkhifngl n hqhnffflnfkkoglkjn n gqmmhonmnijoikjmjg n 
  1
 gqhgfgkommjlomnifh n fqnlnohigkhjkjhkmm n fqlggifigilfmffjgm l 
  1
 lqggihhghggjknlilk rmgqimhfijfgiikfiji o 
  1
 lqgfjnjknjnilllfng rmgqljhjnfklmgjfing o 
  1
 lqfnokfmihlhghinji rmhqgimmmhkngkfgfki o 
  1
 lqjjgggkggoiiolhmn rmhqmjfgmlifohghmkl o 
  1
 lqnhonhhmgmlojihmf rmiqgoimgfifhmhhmli o 
  1
 mqijllmfljmhjnoonn rmiqjgjkifmffgjkijn o 
  1
 mqnkijfkfmokjihkfk rmiqllgmhnmlhknnfjf o 
  1
 nqlookmhfmhghlloof rmiqmmojokjnlhkoghh o 
  1
 oqkjgogiilgokgmgjfg rmiqmokhgknnljnkgnf o 
  1
 roqlmnlhmijighkllnnk rmiqlhomnjjhljhnj o 
  1
 roqgolhlnhnlofloklmj rmiqjgjfhnnnllgmjmh o 
  1
 rnqmogfhfnlfnkhhnkf rmiqgfjkfjknoimhnm o 
  1
 rnqiimjfnhfgikkjh rmhqmgngojomiifllm o 
  1
 rnqfgfmfogkhkijngkh rmhqfihnfohifiinkff o 
  1
 rmqolngjmihjiohnjkf rmgqhkkmfogingfillm o 
  1
 rnqhlilkjlnjlfnkkil rmfqlihlnmlgkmnikf o 
  1
 rnqliiihkoifmkinonf rmfqglffljjkllghokl o 
  1
 roqhigmnhmklhhiilmjf rloqnmihnkknoifkooh o 
  1
 roqojnlihlfjnlmokhomm rloqlfhllgfjkiojgjh o 
  1
 oqgnlgnflllkjlmnokj rloqjhjnmfnkfgngnn o 
  1
 nqijojffofjjomoomj rloqhoojkjhfjfgkfij o 
  1
 mqlhojkgknfomnihlh rloqfggmlnmlifonngi o 
  1
 mqjfgmhgjihmhmhmgf rlnqjihikihionlkkfk o 
  1
 mqkmkomiohijlmnjg rlmqnlonioiinohmkfj o 
  1
 nqhjfmknngflgngnn rlmqkoimlkngjgmnfhm o 
  1
 oqfnighnlomlkhfhnn rlmqkgikininlgimnf o 
  1
 roqnokfllglmmkklhomj rlmqllgjimomomnigfg o 
  1
 roqjiolinooonifomkmk rlnqilikfgjjjihgogg o 
  1
 roqioojhghkooojoojll rlnqmlhgkhlmmkhnojj o 
  1
 roqinhghfgihoikhhmmh rlnqoiiljmfiolhnhhl o 
  1
 o 
  1
 1*33@,*-9><: 
  1
 1*33@,*-9><: 
  1
 1*33=, 
  1
 1*33=, 
  1
 V V 
  1
 o 
  1
 o 
  3
 mi oqlfigjomnhmmhnoggk oqhmihgjfojjnjijimj nqongknlhimogofofh nqmhjijkomimihfkmn nqjjhhfooifjkllfmm nqginnnojigjoifhom mqjkkgnlhjikjngfjl mqgnmoofmlhlingolh lqokfffiohonmmmllj lqlloonlmhgjlffngk lqjhjiljhgilhmngkg lqflkijnjffnhfgkfk kqklfnimomimokiofi kq
  1
ihhohhmgmkfjfon kqfjglhmkoiilonmjg jqlmoknigoglljkill jqijoooimimfnhomng iqnnmooijfhfmfnkjk iqillkinjnnhkjhlfi iqfknhinkfmmgkfnmf hqmokikooliljffifi hqkfmhhkhgfkhifngl hqhnffflnfkkoglkjn gqmmhonmnijoikjmjg gqhgfgkommjlomnifh fqnlnohigkhjkjhkmm 
  1
 Y n Y o " V V |
  1
:;8: {rn {nf {nh {no {ml 90-(>-; |
  1
):-+:' {rn {nn {mk |
  1
,+->687+r<*-): {rn roqinhghfgihoikhhmmh rlnqoiiljmfiolhnhhl o roqffffffnohkimjmnfi roqoonllioiiihkhngjfkh o V V |
  1
):-+:' {rn {ni {mj |
  1
,+->687+r<*-): {rn mqlojinkgifoknflm rmgqimimhmiijojkhgj o oqffffffkmijjnoghjl roqoonohoflloomjjmgofg o V V |
  1
/061+ {rn lqggihhghggjknlilk rmgqimhfijfgiikfiji o |
  1
/061+ {rn roqinhghfgihoikhhmmh rlnqoiiljmfiolhnhhl o |
  1
61+<*-):r<*-): {rn 90-(>-; $ :'><+<*- 1*=, l 0/:1 mk 
  1
 o l oqligokiljfljmjmjj n oqikiffjgmifofigklg n nqoigjglohkoojklhk n nqiohihjljnioiinng n 
  1
 nqfhmmojknmiffgfof n mqnfkhjgmkmhhogjlf n mqioinmmijimmmlmmg n lqnlhnlfiiikkokmkj n lqifnmlfgjmonggmhk n 
  1
 kqokoilfionkiiffnk n kqlffkggihjloikjmk n kqgnjjkihfkomhonmj n jqljoknhiinlnnjjjf n jqgnogkngnofmjifjk n 
  1
 iqmmhnfffmkgnlkoni n iqinkmilhmmmoihgkk n hqkgfigmoofjhoomml n hqgihgfiogmnmng n gqmjlnglnofmnkimnl n 
  1
 gqjjhhkmomokmlmfin n gqhimgololoifolglj n fqnknnhijkkiknoojg n fqmjiilgghlkomkimn l 
  1
 mqlojinkgifoknflm rmgqimimhmiijojkhgj o 
  1
 mqmhfhiglinhhhflfg rmgqligojnkhmjjlfgh o 
  1
 mqmlkllmmgjgngghff rmhqfnknnfklkjgjgnk o 
  1
 nqjhhfnfimiihlgiof rmhqkfojjhoihohmkhl o 
  1
 oqhgholjhnfmjihmnmm rmhqkkfhifflhhlfilm o 
  1
 roqmfiimkoikngmnnnim rmhqkglikfihoimnhgh o 
  1
 roqkninffmgjjfhjkmhn rmgqklkigjmkinhkifj o 
  1
 oqogfikoonoikmfofgmf rmgqflogjkihlngkmgj o 
  1
 oqgfmgghimljifhhhnl rmfqonihhhnkjgkjlih o 
  1
 nqgkfgfjfnhfnmmmn rmfqmkfhojiijmloioh o 
  1
 mqhfhghmhnkookkmhn rmfqkkihnnijhifkgfn o 
  1
 lqjlioiogmlkknlhki rmfqgifglhnnkkmhngj o 
  1
 kqojmfjhhliomkngln rloqkkhlflimhknnnnh o 
  1
 kqmlfkfklliljlkghg rlnqlmijnlnklojkimi o 
  1
 kqnomffjnhhkjljjoj rlmqloliimkkhflnjkk o 
  1
 lqkljofkgjjkgjmgfn rllqomjoikhjhmhlhjl o 
  1
 mqigfomnnfkgfgigi rllqkmlnlfhjnhllkjf o 
  1
 nqinjhoifhonkijokg rllqhhfhniggmfknlgi o 
  1
 oqkfkflmnimigohminj rllqiiikgnlggknlfmg o 
  1
 roqjhgglkghogilmlmhn rllqkhnlffookiglnhg o 
  1
 rnqmlmmoonhglggngln rllqnkiingikgkikjlf o 
  1
 rnqikhkkolffjljkkoh rlmqhogikmmjjhnjjhk o 
  1
 rmqomfnogigklokjlmn rlmqmiiglhjmfilhjfg o 
  1
 rmqnmjooingkiiolmnh rlnqiffjimnllllomgf o 
  1
 rmqnhhgkhjgjhkjfmmh rlnqjomgjjhhinfikfg o 
  1
 rmqmolomijhgilnolfj rlnqoigkhogmlfjhfof o 
  1
 o 
  1
 1*33@,*-9><: 
  1
 1*33@,*-9><: 
  1
 1*33=, 
  1
 1*33=, 
  1
 V V 
  1
 o 
  1
 o 
  3
 mm oqligokiljfljmjmjj oqikiffjgmifofigklg nqoigjglohkoojklhk nqiohihjljnioiinng nqfhmmojknmiffgfof mqnfkhjgmkmhhogjlf mqioinmmijimmmlmmg lqnlhnlfiiikkokmkj lqifnmlfgjmonggmhk kqokoilfionkiiffnk kqlffkggihjloikjmk kqgnjjkihfkomhonmj jqljoknhiinlnnjjjf jqg
  1
nogkngnofmjifjk iqmmhnfffmkgnlkoni iqinkmilhmmmoihgkk hqkgfigmoofjhoomml hqgihgfiogmnmng gqmjlnglnofmnkimnl gqjjhhkmomokmlmfin gqhimgololoifolglj fqnknnhijkkiknoojg 
  1
 Y n Y o " V V |
  1
/061+ {rn rmqmolomijhgilnolfj rlnqoigkhogmlfjhfof o |
  1
/061+ {rn mqlojinkgifoknflm rmgqimimhmiijojkhgj o |
  0
REGION
  5
2AE
330
1F
100
AcDbEntity
  8
5
100
AcDbModelerGeometry
 70
     1
  1
koo hn n o          
  1
h J1410(1 nl ^ \VL kqoqm QK mk R01 U*1 lo nnemleli moog 
  1
rn fqfffffffffffffffj:rooh n:rono 
  1
=0;& {rn {n {rn {rn |
  1
3*2/ {rn {rn {m {o |
  1
,7:33 {rn {rn {rn {l {rn {n |
  1
9><: {rn {rn {k {m {rn {j 90-(>-; ;0*=3: 0*+ |
  1
300/ {rn {rn {i {l |
  1
/3>1:r,*-9><: {rn rnoqijhlikmhgghnjfh rmfqkiooognfkllgffh o o o n n o o 90-(>-;@) V V V V |
  1
<0:;8: {rn {h {g {rn {f -:):-,:; {k {rn |
  1
<0:;8: {rn {no {i {rn {nn -:):-,:; {k {rn |
  1
<0:;8: {rn {i {nm {rn {nl -:):-,:; {k {rn |
  1
:;8: {rn {nk {nj {i {ni 90-(>-; |
  1
<0:;8: {rn {nh {h {rn {ng -:):-,:; {k {rn |
  1
:;8: {rn {nf {nk {h {mo 90-(>-; |
  1
<0:;8: {rn {g {mn {rn {mm -:):-,:; {k {rn |
  1
:;8: {rn {nj {ml {g {mk 90-(>-; |
  1
):-+:' {rn {f {mj |
  1
):-+:' {rn {f {mi |
  1
,+->687+r<*-): {rn rgqilglgflhihlnmmjf rlnqolkggniokknoijh o oqmiolomoihhijflglf oqfijjmhmlogjmomljm o V V |
  1
<0:;8: {rn {mh {no {rn {mg -:):-,:; {k {rn |
  1
:;8: {rn {mf {nf {no {lo 90-(>-; |
  1
):-+:' {rn {ng {ln |
  1
,+->687+r<*-): {rn rfqgignlnnhhjjlkijm rmiqlmilofiklomjgii o oqmjmifkglnjlkokkfl roqfihjkiolnooimihlj o V V |
  1
<0:;8: {rn {nm {lm {rn {ll -:):-,:; {k {rn |
  1
:;8: {rn {ml {lk {nm {lj 90-(>-; |
  1
):-+:' {rn {nl {li |
  1
,+->687+r<*-): {rn rhqligfhgmknfjjolk rmiqlmilofiklomjgii o n o o V V |
  1
/061+ {rn rgqilglgflhihlnmmjf rlnqolkggniokknoijh o |
  1
/061+ {rn rhqligfhgmknfjjolk rmiqlmilofiklomjgii o |
  1
<0:;8: {rn {lh {nh {rn {lg -:):-,:; {k {rn |
  1
:;8: {rn {lf {mf {nh {ko 90-(>-; |
  1
):-+:' {rn {mg {kn |
  1
,+->687+r<*-): {rn rnnqkkkfhgjnhhnomnn rmiqlmilofiklomjgii o n o o V V |
  1
/061+ {rn rfqgignlnnhhjjlkijm rmiqlmilofiklomjgii o |
  1
<0:;8: {rn {mn {km {rn {kl -:):-,:; {k {rn |
  1
:;8: {rn {lk {kk {mn {kj 90-(>-; |
  1
):-+:' {rn {mm {ki |
  1
,+->687+r<*-): {rn rjqhnnijlklomklmhk rmiqlmilofiklomjgii o roqmimioiiiomnmjnlhm roqfikfomfhomjhikigm o V V |
  1
/061+ {rn rjqhnnijlklomklmhk rmiqlmilofiklomjgii o |
  1
<0:;8: {rn {kh {mh {rn {kg -:):-,:; {k {rn |
  1
:;8: {rn {kf {lf {mh {jo 90-(>-; |
  1
):-+:' {rn {lg {jn |
  1
,+->687+r<*-): {rn rnmqhglgofgjknklkh rlnqolkggniokknoijh o oqmhlkfgomkgonoohjk oqfinghmjikjkhgfii o V V |
  1
/061+ {rn rnnqkkkfhgjnhhnomnn rmiqlmilofiklomjgii o |
  1
<0:;8: {rn {lm {jm {rn {jl -:):-,:; {k {rn |
  1
:;8: {rn {kk {jk {lm {jj 90-(>-; |
  1
):-+:' {rn {ll {ji |
  1
,+->687+r<*-): {rn rhqihhgnkjknkhkfghm rllqjjoilomoflhnlm o rn o o V V |
  1
/061+ {rn rhqihhgnkjknkhkfghm rllqjjoilomoflhnlm o |
  1
<0:;8: {rn {jm {lh {rn {jh -:):-,:; {k {rn |
  1
:;8: {rn {jg {kf {lh {jf 90-(>-; |
  1
):-+:' {rn {kg {io |
  1
,+->687+r<*-): {rn rnlqgfkjkjnilkjlhmg rmiqlmilofiklomjgii o oqmmfjfkhikgmiijolh roqfhlmgilnnkomgijmi o V V |
  1
/061+ {rn rnmqhglgofgjknklkh rlnqolkggniokknoijh o |
  1
<0:;8: {rn {km {kh {rn {in -:):-,:; {k {rn |
  1
:;8: {rn {jk {im {km {il 90-(>-; |
  1
):-+:' {rn {kl {ik |
  1
,+->687+r<*-): {rn rfqllnmjnhnlnkgghll rllqjjoilomoflhnlm o roqmhoiilkmjjoimflmk oqfimihkoknkjjfgkf o V V |
  1
/061+ {rn rfqllnmjnhnlnkgghll rllqjjoilomoflhnlm o |
  1
:;8: {rn {ij {jg {kh {ii 90-(>-; |
  1
):-+:' {rn {jh {ih |
  1
,+->687+r<*-): {rn rnjqinomlkknhmhkomf rmiqlmilofiklomjgii o n o o V V |
  1
/061+ {rn rnlqgfkjkjnilkjlhmg rmiqlmilofiklomjgii o |
  1
:;8: {rn {im {ij {jm {ig 90-(>-; |
  1
):-+:' {rn {jl {if |
  1
,+->687+r<*-): {rn rnoqigoffiglimimnjl rmgqhkffikimnfkjogm o roqmkfjhmmgonhfinini roqfigljinhmjhjfjmnf o V V |
  1
/061+ {rn rnoqigoffiglimimnjl rmgqhkffikimnfkjogm o |
  1
):-+:' {rn {in {ho |
  1
,+->687+r<*-): {rn rnlqiniifoiiiinlgfn rllqjjoilomoflhnlm o roqmiiooiglkhhmfmkkh oqfilfhnnkmikjfmkgh o V V |
  1
/061+ {rn rnjqinomlkknhmhkomf rmiqlmilofiklomjgii o |
  1
,+->687+r<*-): {rn rnnqfngminigghiikmn rllqjjoilomoflhnlm o rn o o V V |
  1
/061+ {rn rnnqfngminigghiikmn rllqjjoilomoflhnlm o |
  1
/061+ {rn rnlqiniifoiiiinlgfn rllqjjoilomoflhnlm o |
  0
REGION
  5
2AF
330
1F
100
AcDbEntity
  8
5
100
AcDbModelerGeometry
 70
     1
  1
koo mi n o          
  1
h J1410(1 nl ^ \VL kqoqm QK mk R01 U*1 lo nnemleli moog 
  1
rn fqfffffffffffffffj:rooh n:rono 
  1
=0;& {rn {n {rn {rn |
  1
3*2/ {rn {rn {m {o |
  1
,7:33 {rn {rn {rn {l {rn {n |
  1
9><: {rn {rn {k {m {rn {j 90-(>-; ;0*=3: 0*+ |
  1
300/ {rn {rn {i {l |
  1
/3>1:r,*-9><: {rn rlqfikhiilflhkojhjl rmfqfkmlkjjigofhlml o o o n n o o 90-(>-;@) V V V V |
  1
<0:;8: {rn {h {g {rn {f -:):-,:; {k {rn |
  1
<0:;8: {rn {no {i {rn {nn -:):-,:; {k {rn |
  1
<0:;8: {rn {i {no {rn {nm -:):-,:; {k {rn |
  1
:;8: {rn {nl {nk {i {nj 90-(>-; |
  1
<0:;8: {rn {g {h {rn {ni -:):-,:; {k {rn |
  1
:;8: {rn {nh {nl {h {ng 90-(>-; |
  1
:;8: {rn {nk {nf {g {mo 90-(>-; |
  1
):-+:' {rn {f {mn |
  1
):-+:' {rn {f {mm |
  1
,+->687+r<*-): {rn rlqoigmllkokfglfffk rmiqljngmkgnojkflhk o o rn o V V |
  1
:;8: {rn {nf {nh {no {ml 90-(>-; |
  1
):-+:' {rn {ni {mk |
  1
,+->687+r<*-): {rn rkqginmfflgmkfhnjnn rmiqljngmkgnojkflhk o n o o V V |
  1
):-+:' {rn {nm {mj |
  1
,+->687+r<*-): {rn rlqoigmllkokfglfffk rllqjlmgiilmjikjmhl o rn o o V V |
  1
/061+ {rn rlqoigmllkokfglfffk rmiqljngmkgnojkflhk o |
  1
/061+ {rn rlqoigmllkokfglfffk rllqjlmgiilmjikjmhl o |
  1
,+->687+r<*-): {rn rkqginmfflgmkfhnjnn rllqjlmgiilmjikjmhl o o n o V V |
  1
/061+ {rn rkqginmfflgmkfhnjnn rmiqljngmkgnojkflhk o |
  1
/061+ {rn rkqginmfflgmkfhnjnn rllqjlmgiilmjikjmhl o |
  0
REGION
  5
2B0
330
1F
100
AcDbEntity
  8
5
100
AcDbModelerGeometry
 70
     1
  1
koo mi n o          
  1
h J1410(1 nl ^ \VL kqoqm QK mk R01 U*1 lo nnemleli moog 
  1
rn fqfffffffffffffffj:rooh n:rono 
  1
=0;& {rn {n {rn {rn |
  1
3*2/ {rn {rn {m {o |
  1
,7:33 {rn {rn {rn {l {rn {n |
  1
9><: {rn {rn {k {m {rn {j 90-(>-; ;0*=3: 0*+ |
  1
300/ {rn {rn {i {l |
  1
/3>1:r,*-9><: {rn hqfhnfjkfkhkjnfoji rmfqflhjiiokhgkmgj o o o n n o o 90-(>-;@) V V V V |
  1
<0:;8: {rn {h {g {rn {f 90-(>-; {k {rn |
  1
<0:;8: {rn {no {i {rn {nn 90-(>-; {k {rn |
  1
<0:;8: {rn {i {no {rn {nm 90-(>-; {k {rn |
  1
:;8: {rn {nl {nk {i {nj 90-(>-; |
  1
<0:;8: {rn {g {h {rn {ni -:):-,:; {k {rn |
  1
:;8: {rn {nk {nh {h {ng 90-(>-; |
  1
:;8: {rn {nf {nl {g {mo 90-(>-; |
  1
):-+:' {rn {f {mn |
  1
):-+:' {rn {f {mm |
  1
61+<*-):r<*-): {rn 90-(>-; $ :'><+<*- 1*=, l 0/:1 mg 
  1
 o l oqlfigjomnhmmhnoggk n oqhmihgjfojjnjijimj n nqongknlhimogofofh n nqmhjijkomimihfkmn n 
  1
 nqjjhhfooifjkllfmm n nqginnnojigjoifhom n mqjkkgnlhjikjngfjl n mqgnmoofmlhlingolh n lqokfffiohonmmmllj n 
  1
 lqlloonlmhgjlffngk n lqjhjiljhgilhmngkg n lqflkijnjffnhfgkfk n kqklfnimomimokiofi n kqihhohhmgmkfjfon n 
  1
 kqfjglhmkoiilonmjg n jqlmoknigoglljkill n jqijoooimimfnhomng n iqnnmooijfhfmfnkjk n iqillkinjnnhkjhlfi n 
  1
 iqfknhinkfmmgkfnmf n hqmokikooliljffifi n hqkfmhhkhgfkhifngl n hqhnffflnfkkoglkjn n gqmmhonmnijoikjmjg n 
  1
 gqhgfgkommjlomnifh n fqnlnohigkhjkjhkmm n fqlggifigilfmffjgm l 
  1
 noqgfkhmjhnhnmfolj rmgqimhfijfgiikfiji o 
  1
 noqfolnonogommnolj rmgqljhjnfklmgjfing o 
  1
 noqfngklfiomlhjmgh rmhqgimmmhkngkfgfki o 
  1
 noqjiiglngofmkgokl rmhqmjfgmlifohghmkl o 
  1
 noqnhgnmkmnogfllkk rmiqgoimgfifhmhhmli o 
  1
 fqiinmhimgnllgihml rmiqjgjkifmffgjkijn o 
  1
 fqnjkjkngkfokkkmoi rmiqllgmhnmlhknnfjf o 
  1
 gqloglhkgjikiofhmn rmiqmmojokjnlhkoghh o 
  1
 hqkiiolljiiiljfjhm rmiqmokhgknnljnkgnf o 
  1
 iqigijhkmhnhnllkon rmiqlhomnjjhljhnj o 
  1
 iqmokmnjmnjkfkimg rmiqjgjfhnnnllgmjmh o 
  1
 jqhfgfihhgfklffjil rmiqgfjkfjknoimhnm o 
  1
 jqlkjljjnmffklnonm rmhqmgngojomiifllm o 
  1
 jqongijiognnmmkgij rmhqfihnfohifiinkff o 
  1
 kqfhiofkmjmfgojnil rmgqhkkmfogingfillm o 
  1
 jqmhnioninlnfimmkf rmfqlihlnmlgkmnikf o 
  1
 jqiknmhmgjflknjifl rmfqglffljjkllghokl o 
  1
 iqmlfhmfigkgnnolgi rloqnmihnkknoifkooh o 
  1
 iqfjijhfjllkjjimkm rloqlfhllgfjkiojgjh o 
  1
 hqgmnhiimimokoggnh rloqjhjnmfnkfgngnn o 
  1
 gqijgjkiomkogfihlh rloqhoojkjhfjfgkfij o 
  1
 fqlhgkfjlkhioflkkf rloqfggmlnmlifonngi o 
  1
 fqioimmjkfjgiokoon rlnqjihikihionlkkfk o 
  1
 fqklnfhloojnnfgmfm rlmqnlonioiinohmkfj o 
  1
 gqhihnggnnhfifkgmm rlmqkoimlkngjgmnfhm o 
  1
 hqfmkgngmlofljikml rlmqkgikininlgimnf o 
  1
 iqfolonlofilkllon rlmqllgjimomomnigfg o 
  1
 iqkkhjgjfmgkngikh rlnqilikfgjjjihgogg o 
  1
 iqkohlignggjgmiijf rlnqmlhgkhlmmkhnojj o 
  1
 iqlfooihoinjmmgfgf rlnqoiiljmfiolhnhhl o 
  1
 o 
  1
 1*33@,*-9><: 
  1
 1*33@,*-9><: 
  1
 1*33=, 
  1
 1*33=, 
  1
 V V 
  1
 o 
  1
 o 
  3
 mi oqlfigjomnhmmhnoggk oqhmihgjfojjnjijimj nqongknlhimogofofh nqmhjijkomimihfkmn nqjjhhfooifjkllfmm nqginnnojigjoifhom mqjkkgnlhjikjngfjl mqgnmoofmlhlingolh lqokfffiohonmmmllj lqlloonlmhgjlffngk lqjhjiljhgilhmngkg lqflkijnjffnhfgkfk kqklfnimomimokiofi kq
  1
ihhohhmgmkfjfon kqfjglhmkoiilonmjg jqlmoknigoglljkill jqijoooimimfnhomng iqnnmooijfhfmfnkjk iqillkinjnnhkjhlfi iqfknhinkfmmgkfnmf hqmokikooliljffifi hqkfmhhkhgfkhifngl hqhnffflnfkkoglkjn gqmmhonmnijoikjmjg gqhgfgkommjlomnifh fqnlnohigkhjkjhkmm 
  1
 Y n Y o " V V |
  1
:;8: {rn {nf {nh {no {ml 90-(>-; |
  1
):-+:' {rn {nn {mk |
  1
,+->687+r<*-): {rn iqlfooihoinjmmgfgf rlnqoiiljmfiolhnhhl o roqffffffnohkimjmnfi roqoonllioiiihkhngjfkh o V V |
  1
):-+:' {rn {ni {mj |
  1
,+->687+r<*-): {rn fqlnljinhfhimfiolm rmgqimimhmiijojkhgj o oqffffffkmijjnoghjl roqoonohoflloomjjmgofg o V V |
  1
/061+ {rn noqgfkhmjhnhnmfolj rmgqimhfijfgiikfiji o |
  1
/061+ {rn iqlfooihoinjmmgfgf rlnqoiiljmfiolhnhhl o |
  1
61+<*-):r<*-): {rn 90-(>-; $ :'><+<*- 1*=, l 0/:1 mk 
  1
 o l oqligokiljfljmjmjj n oqikiffjgmifofigklg n nqoigjglohkoojklhk n nqiohihjljnioiinng n 
  1
 nqfhmmojknmiffgfof n mqnfkhjgmkmhhogjlf n mqioinmmijimmmlmmg n lqnlhnlfiiikkokmkj n lqifnmlfgjmonggmhk n 
  1
 kqokoilfionkiiffnk n kqlffkggihjloikjmk n kqgnjjkihfkomhonmj n jqljoknhiinlnnjjjf n jqgnogkngnofmjifjk n 
  1
 iqmmhnfffmkgnlkoni n iqinkmilhmmmoihgkk n hqkgfigmoofjhoomml n hqgihgfiogmnmng n gqmjlnglnofmnkimnl n 
  1
 gqjjhhkmomokmlmfin n gqhimgololoifolglj n fqnknnhijkkiknoojg n fqmjiilgghlkomkimn l 
  1
 fqlnljinhfhimfiolm rmgqimimhmiijojkhgj o 
  1
 fqmghhnjmfolijinnn rmgqligojnkhmjjlfgh o 
  1
 fqmkmmhfmnkkoijjnn rmhqfnknnfklkjgjgnk o 
  1
 gqjgjgiijjjminjlmn rmhqkfojjhoihohmkhl o 
  1
 hqhfkfgmikhgkklfmk rmhqkkfhifflhhlfilm o 
  1
 iqhnnlmmgikkojjjfi rmhqkglikfihoimnhgh o 
  1
 iqjfnhkhikmffonmgj rmgqklkigjmkinhkifj o 
  1
 hqofhjgiflfmlojgn rmgqflogjkihlngkmgj o 
  1
 hqfooglkjjmnjhkkgl rmfqonihhhnkjgkjlih o 
  1
 gqgjhgkmgkikffgfmm rmfqmkfhojiijmloioh o 
  1
 fqgojgnfikmjfmofgl rmfqkkihnnijhifkgfn o 
  1
 noqjkkoohhjmomfoki rmfqgifglhnnkkmhngj o 
  1
 nnqoiofokiikinngjk rloqkkhlflimhknnnnh o 
  1
 nnqmkhkknmikfknnjf rlnqlmijnlnklojkimi o 
  1
 nnqnnofkmnoioknmmm rlmqloliimkkhflnjkk o 
  1
 noqkkloknhgkohmfi rllqomjoikhjhmhlhjl o 
  1
 fqififignmlkgiljhm rllqkmlnlfhjnhllkjf o 
  1
 gqimlijlgfghlknhi rllqhhfhniggmfknlgi o 
  1
 hqjomghfofnmiglfhk rllqiiikgnlggknlfmg o 
  1
 iqkmfnnmojhhmkklgj rllqkhnlffookiglnhg o 
  1
 jqhhjhkihjonffkggn rllqnkiingikgkikjlf o 
  1
 jqliojoijmfojmmloj rlmqhogikmmjjhnjjhk o 
  1
 kqfhgglgmkkmglnlfn rlmqmiiglhjmfilhjfg o 
  1
 kqggmfkohklfmhlkfi rlnqiffjimnllllomgf o 
  1
 kqgloofflkmgknhkgj rlnqjomgjjhhinfikfg o 
  1
 kqgokfmolkffjiilng rlnqoigkhogmlfjhfof o 
  1
 o 
  1
 1*33@,*-9><: 
  1
 1*33@,*-9><: 
  1
 1*33=, 
  1
 1*33=, 
  1
 V V 
  1
 o 
  1
 o 
  3
 mm oqligokiljfljmjmjj oqikiffjgmifofigklg nqoigjglohkoojklhk nqiohihjljnioiinng nqfhmmojknmiffgfof mqnfkhjgmkmhhogjlf mqioinmmijimmmlmmg lqnlhnlfiiikkokmkj lqifnmlfgjmonggmhk kqokoilfionkiiffnk kqlffkggihjloikjmk kqgnjjkihfkomhonmj jqljoknhiinlnnjjjf jqg
  1
nogkngnofmjifjk iqmmhnfffmkgnlkoni iqinkmilhmmmoihgkk hqkgfigmoofjhoomml hqgihgfiogmnmng gqmjlnglnofmnkimnl gqjjhhkmomokmlmfin gqhimgololoifolglj fqnknnhijkkiknoojg 
  1
 Y n Y o " V V |
  1
/061+ {rn kqgokfmolkffjiilng rlnqoigkhogmlfjhfof o |
  1
/061+ {rn fqlnljinhfhimfiolm rmgqimimhmiijojkhgj o |
  0
REGION
  5
2B1
330
1F
100
AcDbEntity
  8
5
100
AcDbModelerGeometry
 70
     1
  1
koo ii n o          
  1
h J1410(1 nl ^ \VL kqoqm QK mk R01 U*1 lo nnemleli moog 
  1
rn fqfffffffffffffffj:rooh n:rono 
  1
=0;& {rn {n {rn {rn |
  1
3*2/ {rn {rn {m {o |
  1
,7:33 {rn {rn {rn {l {rn {n |
  1
9><: {rn {rn {k {m {rn {j 90-(>-; ;0*=3: 0*+ |
  1
300/ {rn {rn {i {l |
  1
/3>1:r,*-9><: {rn niqnnimkgklogjjgnf rmfqfkffgnomlijhjnk o o o n n o o 90-(>-;@) V V V V |
  1
<0:;8: {rn {h {g {rn {f 90-(>-; {k {rn |
  1
<0:;8: {rn {no {i {rn {nn 90-(>-; {k {rn |
  1
<0:;8: {rn {i {nm {rn {nl 90-(>-; {k {rn |
  1
:;8: {rn {nk {nj {i {ni 90-(>-; |
  1
<0:;8: {rn {nh {h {rn {ng 90-(>-; {k {rn |
  1
:;8: {rn {nj {nf {h {mo 90-(>-; |
  1
<0:;8: {rn {g {mn {rn {mm 90-(>-; {k {rn |
  1
:;8: {rn {ml {nk {g {mk 90-(>-; |
  1
):-+:' {rn {f {mj |
  1
):-+:' {rn {f {mi |
  1
,+->687+r<*-): {rn njqnhihnojoofofflk rmiqfgiknjmjmnnhonl o o rn o V V |
  1
<0:;8: {rn {mh {no {rn {mg 90-(>-; {k {rn |
  1
:;8: {rn {nf {mf {no {lo 90-(>-; |
  1
):-+:' {rn {nn {ln |
  1
,+->687+r<*-): {rn njqnhihnojoofofflk rmfqnhoofjkkhlkhff o rn o o V V |
  1
<0:;8: {rn {nm {lm {rn {ll 90-(>-; {k {rn |
  1
:;8: {rn {lk {ml {nm {lj 90-(>-; |
  1
):-+:' {rn {mm {li |
  1
,+->687+r<*-): {rn nhqokfmgklojkfllgh rmiqfgiknjmjmnnhonl o rn o o V V |
  1
/061+ {rn njqnhihnojoofofflk rmiqfgiknjmjmnnhonl o |
  1
/061+ {rn njqnhihnojoofofflk rmfqnhoofjkkhlkhff o |
  1
<0:;8: {rn {lh {nh {rn {lg 90-(>-; {k {rn |
  1
:;8: {rn {mf {lf {nh {ko 90-(>-; |
  1
):-+:' {rn {ng {kn |
  1
,+->687+r<*-): {rn nmqffmoknoimmmfmhi rmfqnhoofjkkhlkhff o o rn o V V |
  1
/061+ {rn nmqffmoknoimmmfmhi rmfqnhoofjkkhlkhff o |
  1
<0:;8: {rn {mn {km {rn {kl 90-(>-; {k {rn |
  1
:;8: {rn {kk {lk {mn {kj 90-(>-; |
  1
):-+:' {rn {ll {ki |
  1
,+->687+r<*-): {rn nhqokfmgklojkfllgh rmfqnjojfgjonhfjoom o o n o V V |
  1
/061+ {rn nhqokfmgklojkfllgh rmiqfgiknjmjmnnhonl o |
  1
<0:;8: {rn {kh {mh {rn {kg 90-(>-; {k {rn |
  1
:;8: {rn {lf {kf {mh {jo 90-(>-; |
  1
):-+:' {rn {mg {jn |
  1
,+->687+r<*-): {rn nmqffmoknoimmmfmhi rloqhmfgiijfffihoih o n o o V V |
  1
/061+ {rn nmqffmoknoimmmfmhi rloqhmfgiijfffihoih o |
  1
<0:;8: {rn {lm {kh {rn {jm 90-(>-; {k {rn |
  1
:;8: {rn {jl {kk {lm {jk 90-(>-; |
  1
):-+:' {rn {kl {jj |
  1
,+->687+r<*-): {rn nfqmjlkjffnoofgfk rmfqnjojfgjonhfjoom o rn o o V V |
  1
/061+ {rn nhqokfmgklojkfllgh rmfqnjojfgjonhfjoom o |
  1
<0:;8: {rn {km {lh {rn {ji 90-(>-; {k {rn |
  1
:;8: {rn {kf {jh {lh {jg 90-(>-; |
  1
):-+:' {rn {lg {jf |
  1
,+->687+r<*-): {rn njqnhihnojoofofflk rloqhmfgiijfffihoih o o rn o V V |
  1
/061+ {rn njqnhihnojoofofflk rloqhmfgiijfffihoih o |
  1
:;8: {rn {io {jl {km {in 90-(>-; |
  1
):-+:' {rn {jm {im |
  1
,+->687+r<*-): {rn nfqmjlkjffnoofgfk rloqhkfliljkjjnffkn o o n o V V |
  1
/061+ {rn nfqmjlkjffnoofgfk rmfqnjojfgjonhfjoom o |
  1
:;8: {rn {jh {io {kh {il 90-(>-; |
  1
):-+:' {rn {kg {ik |
  1
,+->687+r<*-): {rn njqnhihnojoofofflk rlmqfnljkihfjnfgokk o n o o V V |
  1
/061+ {rn njqnhihnojoofofflk rlmqfnljkihfjnfgokk o |
  1
):-+:' {rn {ji {ij |
  1
,+->687+r<*-): {rn nhqokfmgklojkfllgh rloqhkfliljkjjnffkn o n o o V V |
  1
/061+ {rn nfqmjlkjffnoofgfk rloqhkfliljkjjnffkn o |
  1
,+->687+r<*-): {rn nhqokfmgklojkfllgh rlmqfnljkihfjnfgokk o o n o V V |
  1
/061+ {rn nhqokfmgklojkfllgh rlmqfnljkihfjnfgokk o |
  1
/061+ {rn nhqokfmgklojkfllgh rloqhkfliljkjjnffkn o |
  0
REGION
  5
2B2
330
1F
100
AcDbEntity
  8
5
100
AcDbModelerGeometry
 70
     1
  1
koo mi n o          
  1
h J1410(1 nl ^ \VL kqoqm QK mk R01 U*1 lo nnemleli moog 
  1
rn fqfffffffffffffffj:rooh n:rono 
  1
=0;& {rn {n {rn {rn |
  1
3*2/ {rn {rn {m {o |
  1
,7:33 {rn {rn {rn {l {rn {n |
  1
9><: {rn {rn {k {m {rn {j -:):-,:; ;0*=3: 0*+ |
  1
300/ {rn {rn {i {l |
  1
/3>1:r,*-9><: {rn niqnoljfnhooiimmli rmfqflghjkkognoljfn o o o rn rn o o 90-(>-;@) V V V V |
  1
<0:;8: {rn {h {g {rn {f 90-(>-; {k {rn |
  1
<0:;8: {rn {no {i {rn {nn 90-(>-; {k {rn |
  1
<0:;8: {rn {i {no {rn {nm 90-(>-; {k {rn |
  1
:;8: {rn {nl {nk {i {nj 90-(>-; |
  1
<0:;8: {rn {g {h {rn {ni 90-(>-; {k {rn |
  1
:;8: {rn {nk {nh {h {ng 90-(>-; |
  1
:;8: {rn {nf {nl {g {mo 90-(>-; |
  1
):-+:' {rn {f {mn |
  1
):-+:' {rn {f {mm |
  1
,+->687+r<*-): {rn nmqmolljinonijggkn rmiqmlokjkmikhhjoim o o rn o V V |
  1
:;8: {rn {nh {nf {no {ml 90-(>-; |
  1
):-+:' {rn {nn {mk |
  1
,+->687+r<*-): {rn nmqmolljinonijggkn rllqikhojkjjnklmnm o n o o V V |
  1
):-+:' {rn {ni {mj |
  1
,+->687+r<*-): {rn moqoolgmhmffiijil rmiqmlokjkmikhhjoim o rn o o V V |
  1
/061+ {rn nmqmolljinonijggkn rmiqmlokjkmikhhjoim o |
  1
/061+ {rn nmqmolljinonijggkn rllqikhojkjjnklmnm o |
  1
,+->687+r<*-): {rn moqoolgmhmffiijil rllqikhojkjjnklmnm o o n o V V |
  1
/061+ {rn moqoolgmhmffiijil rllqikhojkjjnklmnm o |
  1
/061+ {rn moqoolgmhmffiijil rmiqmlokjkmikhhjoim o |
  0
REGION
  5
2B3
330
1F
100
AcDbEntity
  8
5
100
AcDbModelerGeometry
 70
     1
  1
koo nn n o          
  1
h J1410(1 nl ^ \VL kqoqm QK mk R01 U*1 lo nnemleli moog 
  1
rn fqfffffffffffffffj:rooh n:rono 
  1
=0;& {rn {n {rn {rn |
  1
3*2/ {rn {rn {m {o |
  1
,7:33 {rn {rn {rn {l {rn {n |
  1
9><: {rn {rn {k {m {rn {j 90-(>-; ;0*=3: 0*+ |
  1
300/ {rn {rn {i {l |
  1
/3>1:r,*-9><: {rn lfqgljmjmklkoklkk rmfqflgjokfonmhoggf o o o n n o o 90-(>-;@) V V V V |
  1
<0:;8: {rn {i {i {rn {h 90-(>-; {k {rn |
  1
:;8: {rn {g {g {i {f 90-(>-; |
  1
):-+:' {rn {h {no |
  1
61+<*-):r<*-): {rn 90-(>-; $ :'><+<*- 1*=, l <30,:; ml 
  1
 o l oqkoojgnkjmnohkngg n oqhmihiglnghjgffgin n nqojhklkhohmkfhol n nqklknomhhhhofhofh n 
  1
 nqgoifmlifgglhonh n mqljmfhomjhfinmnjn n mqhnlhonofgokhfhml n mqfgjifgglmmmggjih n lqljjojkfjnhjoihji n 
  1
 lqiffhngmihljfiggf n lqfhllnfokkkifnlfj n kqnfhlimgmimnjgnhi n kqljfofhlmhgfkhkg n kqjfkhggnfmglimhhf n 
  1
 kqfllohoihkgffhinh n jqlmjlmjimoogggkon n jqiklmikikjnoglgmn n iqonjoofjlkgojjgji n iqlkmfomgffhhgnjij n 
  1
 iqikfhmnlikhffhogm n iqfngojijnjjghhmfg n hqofnjnggkhoiliojh l 
  1
 lfqgnililnmmfigmmh rmhqjgnnnolhhgolokl o 
  1
 lfqjkfjloghiohjfm rmhqiollfomgohikjmf o 
  1
 lfqoijkmnjllkognnl rmhqiklgnmlknohhhoj o 
  1
 lgqkojmnjkgmnjjigl rmhqfglkhkghggfmkg o 
  1
 lgqogmhjojhnlkfgim rmgqimmkkonjmfnfoif o 
  1
 lhqggkmonkhlnokmkn rmfqloigmgognmolggf o 
  1
 lhqhojnmhkloklommk rloqnifjfmlfngjohji o 
  1
 lhqfjoinghgimoiiin rlnqooimkjolnlnmjkj o 
  1
 lgqmikinkngmmhgfim rlnqhkfnologhhghlnf o 
  1
 lgqglojgjioiggmkij rlmqnkkmfolkolioiif o 
  1
 lfqkiifnkjflkmfjj rlmqlljfmfoiihognok o 
  1
 koqnllgjknljlmmnfi rlmqljiifoolhkjnjgj o 
  1
 koqigkhojmgiikhhjj rlmqmnimikkljlhllhj o 
  1
 knqohmffokglgflihi rlmqoominkkkkjhhiol o 
  1
 knqlggmmohljnjijg rlnqhmiiklgghknnjnm o 
  1
 knqimkkijiigglffhk rlnqmgjhihlhkgognln o 
  1
 knqhfgmggmkgnjjjjg rloqiiikojnkimfoool o 
  1
 knqfliokohjnfjnln rmfqfhlmllmmgffigin o 
  1
 knqglkhnhllmjjffin rmfqmkhlmkohkflmmfk o 
  1
 knqjglnhgjglgjlfli rmgqingoionflmilklm o 
  1
 knqmjnioolgongfinj rmgqoniknnmmomghgfl o 
  1
 koqhnflljgolggikml rmhqifoknfnoonlfhlj o 
  1
 koqmmhlkmhniiimggf rmhqjhkfhnmjgnkokij o 
  1
 lfqflmmlmomkohnfog rmhqjhflhfjjkjmnlgn o 
  1
 lfqgnililnmmfigmmh rmhqjgnnnolhhgolokl o 
  1
 o 
  1
 1*33@,*-9><: 
  1
 1*33@,*-9><: 
  1
 1*33=, 
  1
 1*33=, 
  1
 V V 
  1
 o 
  1
 o 
  3
 mn oqkoojgnkjmnohkngg oqhmihiglnghjgffgin nqojhklkhohmkfhol nqklknomhhhhofhofh nqgoifmlifgglhonh mqljmfhomjhfinmnjn mqhnlhonofgokhfhml mqfgjifgglmmmggjih lqljjojkfjnhjoihji lqiffhngmihljfiggf lqfhllnfokkkifnlfj kqnfhlimgmimnjgnhi kqljfofhlmhgfkhkg kqjfkh
  1
ggnfmglimhhf kqfllohoihkgffhinh jqlmjlmjimoogggkon jqiklmikikjnoglgmn iqonjoofjlkgojjgji iqlkmfomgffhhgnjij iqikfhmnlikhffhogm iqfngojijnjjghhmfg 
  1
 Y n Y o " V V |
  1
/061+ {rn lfqgnililnmmfigmmh rmhqjgnnnolhhgolokl o |
  0
REGION
  5
2B4
330
1F
100
AcDbEntity
  8
5
100
AcDbModelerGeometry
 70
     1
  1
koo nn n o          
  1
h J1410(1 nl ^ \VL kqoqm QK mk R01 U*1 lo nnemleli moog 
  1
rn fqfffffffffffffffj:rooh n:rono 
  1
=0;& {rn {n {rn {rn |
  1
3*2/ {rn {rn {m {o |
  1
,7:33 {rn {rn {rn {l {rn {n |
  1
9><: {rn {rn {k {m {rn {j 90-(>-; ;0*=3: 0*+ |
  1
300/ {rn {rn {i {l |
  1
/3>1:r,*-9><: {rn lfqglooigkmiljfnlk rmfqfhjkihfjikjgknh o o o n n o o 90-(>-;@) V V V V |
  1
<0:;8: {rn {i {i {rn {h 90-(>-; {k {rn |
  1
:;8: {rn {g {g {i {f 90-(>-; |
  1
):-+:' {rn {h {no |
  1
61+<*-):r<*-): {rn 90-(>-; $ :'><+<*- 1*=, l <30,:; mg 
  1
 o l oqjmgoifhjffkokifih n oqflmofglijffhhnlml n nqloihiinnoohnkhhg n nqhiljkmjkiinmjogl n 
  1
 mqnnnognoonkmogkkg n mqjillgijfimjkjnik n lqoflnkgomngmkggl n lqjiofnfmlfomimlli n lqfhkfokkklhhjkhig n 
  1
 kqmmmiimiinffogokn n kqimoijkgflgjimkgi n jqnhnhjmjiknoghohf n jqgjhnohgjlmjimmmm n iqmifnifjjikfnhhif n 
  1
 iqinofhklnkknfofok n hqojhfikfhomnjoklj n hqkjfhiggmgmmilljf n hqflgljnffjgoflgkm n gqlkmoookkglnihffl n 
  1
 gqjgkiohmfjkmmgjfi n fqnjglfmnhjohhikfk n fqijimfofkfkhflmmn n noqnoogkffjggjfkfl n noqjokghfmojlgjmoi n 
  1
 noqgklkglgogmlgfkh n nnqoiggghmhoijglhi n nnqhjkmognioiokmgh l 
  1
 lfqnmnlhhmlkfmnjfi rmiqmfjhijggmmlhnoi o 
  1
 lgqhhijjkomgojfihg rmiqlhkmmggoniimfg o 
  1
 lgqnihfokffhogiln rmiqjnmhmkoimmoigkl o 
  1
 lhqkojlmljnongmmgj rmiqfhllnnmogmglglm o 
  1
 liqggjhmignffjiklm rmhqimkjfnkooliinkl o 
  1
 liqjoimhnoghgffnfk rmgqlnkioilmnmggjhf o 
  1
 liqmnkmikmimkjkkik rmfqnohoohgmnkonhii o 
  1
 liqnkjkkffjfjkhhll rmfqffiijkfnfoognog o 
  1
 liqngjnloihhflgmkh rloqfhlhjoohfgjifgk o 
  1
 liqjkghifiillhmglg rlnqgjijfmnnhllmknn o 
  1
 liqfglhhkmkokmljnk rlmqkgnfhmgjjnijlih o 
  1
 lhqjmmkiioimhnmhof rlmqfkmkgmnhmfhinji o 
  1
 lgqnfnkgfkjoglnggn rllqlgfkjngjfhnfhh o 
  1
 lfqmimmffihohmfmm rllqihfognjmgjkngkl o 
  1
 koqlhoniliolmihk rllqifoiogglfnnhlhk o 
  1
 knqlmnjinlgghkoggf rllqkgmgfmijhiongfk o 
  1
 kmqonmmilmnilkohji rllqohohjlllfnknjin o 
  1
 kmqiiflimgioonnii rlmqiokglggnggffjof o 
  1
 klqnkolimkjomogjmg rlnqglhmfofikmlonfm o 
  1
 klqklhhohjiikogghj rlnqomffohmoljgfmlm o 
  1
 klqjknkfgjnhkgnjgj rloqmgnhnoikhgfhkgk o 
  1
 klqjknjfkjjkkhmomh rmfqkignkifhnnliggf o 
  1
 klqlghjgjjjkjnkoin rmgqjfnnihhmfjjmofh o 
  1
 kmqfnjoiokhhinmjnk rmhqiglnjgomihgfjji o 
  1
 kmqlofmflgfigfjnmh rmhqoohkfhonkmillhf o 
  1
 knqimfmokmjkmfjfji rmiqjgoionogfkihgm o 
  1
 knqonomjijhkiimnmm rmiqlgifhkngnfmjngl o 
  1
 koqnfnkohmljifmhog rmiqmmniokmkfkfomnl o 
  1
 lfqjgoglkogokhhhgi rmiqmilfmngkfffilog o 
  1
 lfqnmnlhhmlkfmnjfi rmiqmfjhijggmmlhnoi o 
  1
 o 
  1
 1*33@,*-9><: 
  1
 1*33@,*-9><: 
  1
 1*33=, 
  1
 1*33=, 
  1
 V V 
  1
 o 
  1
 o 
  3
 mi oqjmgoifhjffkokifih oqflmofglijffhhnlml nqloihiinnoohnkhhg nqhiljkmjkiinmjogl mqnnnognoonkmogkkg mqjillgijfimjkjnik lqoflnkgomngmkggl lqjiofnfmlfomimlli lqfhkfokkklhhjkhig kqmmmiimiinffogokn kqimoijkgflgjimkgi jqnhnhjmjiknoghohf jqgjhnohgjlmjimmmm iqm
  1
ifnifjjikfnhhif iqinofhklnkknfofok hqojhfikfhomnjoklj hqkjfhiggmgmmilljf hqflgljnffjgoflgkm gqlkmoookkglnihffl gqjgkiohmfjkmmgjfi fqnjglfmnhjohhikfk fqijimfofkfkhflmmn noqnoogkffjggjfkfl noqjokghfmojlgjmoi noqgklkglgogmlgfkh nnqoiggghmhoijglhi 
  1
 Y n Y o " V V |
  1
/061+ {rn lfqnmnlhhmlkfmnjfi rmiqmfjhijggmmlhnoi o |
  0
REGION
  5
2B5
330
1F
100
AcDbEntity
  8
5
100
AcDbModelerGeometry
 70
     1
  1
koo nn n o          
  1
h J1410(1 nl ^ \VL kqoqm QK mk R01 U*1 lo nnemleli moog 
  1
rn fqfffffffffffffffj:rooh n:rono 
  1
=0;& {rn {n {rn {rn |
  1
3*2/ {rn {rn {m {o |
  1
,7:33 {rn {rn {rn {l {rn {n |
  1
9><: {rn {rn {k {m {rn {j 90-(>-; ;0*=3: 0*+ |
  1
300/ {rn {rn {i {l |
  1
/3>1:r,*-9><: {rn lnqjoffohjknnnfghl rmfqflgjokfonmhoggf o o o n n o o 90-(>-;@) V V V V |
  1
<0:;8: {rn {i {i {rn {h 90-(>-; {k {rn |
  1
:;8: {rn {g {g {i {f 90-(>-; |
  1
):-+:' {rn {h {no |
  1
61+<*-):r<*-): {rn 90-(>-; $ :'><+<*- 1*=, l <30,:; ml 
  1
 o l oqkoojgnkjmnohkngg n oqhmihiglnghjgffgin n nqojhklkhohmkfhol n nqklknomhhhhofhofh n 
  1
 nqgoifmlifgglhonh n mqljmfhomjhfinmnjn n mqhnlhonofgokhfhml n mqfgjifgglmmmggjih n lqljjojkfjnhjoihji n 
  1
 lqiffhngmihljfiggf n lqfhllnfokkkifnlfj n kqnfhlimgmimnjgnhi n kqljfofhlmhgfkhkg n kqjfkhggnfmglimhhf n 
  1
 kqfllohoihkgffhinh n jqlmjlmjimoogggkon n jqiklmikikjnoglgmn n iqonjoofjlkgojjgji n iqlkmfomgffhhgnjij n 
  1
 iqikfhmnlikhffhogm n iqfngojijnjjghhmfg n hqofnjnggkhoiliojh l 
  1
 lnqkfnongmlookkijf rmhqjgnnnolhhgolokl o 
  1
 lnqmmkngjfglnjmljl rmhqiollfomgohikjmf o 
  1
 loqhkoohiikokgkjki rmhqiklgnmlknohhhoj o 
  1
 loqohfghojgfmlmnnj rmhqfglkhkghggfmkg o 
  1
 mfqhjhkojihgkmimfj rmgqimmkkonjmfnfoif o 
  1
 mfqjjggjijgongoihk rmfqloigmgognmolggf o 
  1
 mfqlhfhgmjlhjoiijh rloqnifjfmlfngjohji o 
  1
 mfqimjmhlgflmglofk rlnqooimkjolnlnmjkj o 
  1
 mfqflfmifmgfljjlfk rlnqhkfnologhhghlnf o 
  1
 loqjojmkohnlfjggfg rlmqnkkmfolkolioiif o 
  1
 lnqnknjifhoojojfgl rlmqlljfmfoiihognok o 
  1
 lnqgogjofmkmlfgimg rlmqljiifoolhkjnjgj o 
  1
 lmqljfliolflhmkngg rlmqmnimikkljlhllhj o 
  1
 lmqhkhikjjfofhonof rlmqoominkkkkjhhiol o 
  1
 llqoimghjgkmmllonm rlnqhmiiklgghknnjnm o 
  1
 llqmffnmohhjfnikoh rlnqmgjhihlhkgognln o 
  1
 llqkhmfklljjmlnff rloqiiikojnkimfoool o 
  1
 llqinoifjgjfomhhkl rmfqfhlmllmmgffigin o 
  1
 llqjoflhmklfililfk rmfqmkhlmkohkflmmfk o 
  1
 llqmjhgllifoflolif rmgqingoionflmilklm o 
  1
 lmqfmimjjkghmiiokh rmgqoniknnmmomghgfl o 
  1
 lmqlflffofnofimgji rmhqifoknfnoonlfhlj o 
  1
 lnqfonffhgmlhlflmm rmhqjhkfhnmjgnkokij o 
  1
 lnqioigghnlnnkglkn rmhqjhflhfjjkjmnlgn o 
  1
 lnqkfnongmlookkijf rmhqjgnnnolhhgolokl o 
  1
 o 
  1
 1*33@,*-9><: 
  1
 1*33@,*-9><: 
  1
 1*33=, 
  1
 1*33=, 
  1
 V V 
  1
 o 
  1
 o 
  3
 mn oqkoojgnkjmnohkngg oqhmihiglnghjgffgin nqojhklkhohmkfhol nqklknomhhhhofhofh nqgoifmlifgglhonh mqljmfhomjhfinmnjn mqhnlhonofgokhfhml mqfgjifgglmmmggjih lqljjojkfjnhjoihji lqiffhngmihljfiggf lqfhllnfokkkifnlfj kqnfhlimgmimnjgnhi kqljfofhlmhgfkhkg kqjfkh
  1
ggnfmglimhhf kqfllohoihkgffhinh jqlmjlmjimoogggkon jqiklmikikjnoglgmn iqonjoofjlkgojjgji iqlkmfomgffhhgnjij iqikfhmnlikhffhogm iqfngojijnjjghhmfg 
  1
 Y n Y o " V V |
  1
/061+ {rn lnqkfnongmlookkijf rmhqjgnnnolhhgolokl o |
  0
REGION
  5
2B6
330
1F
100
AcDbEntity
  8
5
100
AcDbModelerGeometry
 70
     1
  1
koo nn n o          
  1
h J1410(1 nl ^ \VL kqoqm QK mk R01 U*1 lo nnemleli moog 
  1
rn fqfffffffffffffffj:rooh n:rono 
  1
=0;& {rn {n {rn {rn |
  1
3*2/ {rn {rn {m {o |
  1
,7:33 {rn {rn {rn {l {rn {n |
  1
9><: {rn {rn {k {m {rn {j 90-(>-; ;0*=3: 0*+ |
  1
300/ {rn {rn {i {l |
  1
/3>1:r,*-9><: {rn lnqjokhmljllkljjii rmfqfhjkihfjikjgknh o o o n n o o 90-(>-;@) V V V V |
  1
<0:;8: {rn {i {i {rn {h 90-(>-; {k {rn |
  1
:;8: {rn {g {g {i {f 90-(>-; |
  1
):-+:' {rn {h {no |
  1
61+<*-):r<*-): {rn 90-(>-; $ :'><+<*- 1*=, l <30,:; mg 
  1
 o l oqjmgoifhjffkokifih n oqflmofglijffhhnlml n nqloihiinnoohnkhhg n nqhiljkmjkiinmjogl n 
  1
 mqnnnognoonkmogkkg n mqjillgijfimjkjnik n lqoflnkgomngmkggl n lqjiofnfmlfomimlli n lqfhkfokkklhhjkhig n 
  1
 kqmmmiimiinffogokn n kqimoijkgflgjimkgi n jqnhnhjmjiknoghohf n jqgjhnohgjlmjimmmm n iqmifnifjjikfnhhif n 
  1
 iqinofhklnkknfofok n hqojhfikfhomnjoklj n hqkjfhiggmgmmilljf n hqflgljnffjgoflgkm n gqlkmoookkglnihffl n 
  1
 gqjgkiohmfjkmmgjfi n fqnjglfmnhjohhikfk n fqijimfofkfkhflmmn n noqnoogkffjggjfkfl n noqjokghfmojlgjmoi n 
  1
 noqgklkglgogmlgfkh n nnqoiggghmhoijglhi n nnqhjkmognioiokmgh l 
  1
 loqhfiolmlknffgomg rmiqmfjhijggmmlhnoi o 
  1
 loqkjnmofnljnlinnn rmiqlhkmmggoniimfg o 
  1
 mfqgkmjionoknimhkl rmiqjnmhmkoimmoigkl o 
  1
 mfqohffhginhmjghng rmiqfhllnnmogmglglm o 
  1
 mgqjiolgnfmholmgik rmhqimkjfnkooliinkl o 
  1
 mgqngofminfkfhjimi rmgqlnkioilmnmggjhf o 
  1
 mhqgggfnflifjlogfi rmfqnohoohgmnkonhii o 
  1
 mhqgmonojoiiimknii rmfqffiijkfnfoognog o 
  1
 mhqgjfhgjhgjonkig rloqfhlhjoohfgjifgk o 
  1
 mgqmmlkmkhhokkfmh rlnqgjijfmnnhllmknn o 
  1
 mgqijgkmflkhkfffkh rlmqkgnfhmgjjnijlih o 
  1
 mfqnfhnmnnifhgfnkm rlmqfkmkgmnhmfhinji o 
  1
 mfqgiinkkjjhfoglnk rllqlgfkjngjfhnfhh o 
  1
 loqflifjkhhhgojijl rllqihfognjmgjkngkl o 
  1
 lmqokkgnghnolklgll rllqifoiogglfnnhlhk o 
  1
 lmqffimnikfjgnhlmm rllqkgmgfmijhiongfk o 
  1
 llqigifnglmlknhngf rllqohohjlllfnknjin o 
  1
 lkqlkkonhfihoggofm rlmqiokglggnggffjof o 
  1
 lkqgnjonhjjhmgkfin rlnqglhmfofikmlonfm o 
  1
 ljqnnmlimihlkgjlog rlnqomffohmoljgfmlm o 
  1
 ljqmninjlimkjjgong rloqmgnhnoikhgfhkgk o 
  1
 ljqmnimkfiinjkgki rmfqkignkifhnnliggf o 
  1
 ljqoimmkoiinjfokfk rmgqjfnnihhmfjjmofh o 
  1
 lkqjgfhnjjgkiggfki rmhqiglnjgomihgfjji o 
  1
 llqfglfkfoolfhnji rmhqoohkfhonkmillhf o 
  1
 llqlolgjflinlhmlgf rmiqjgoionogfkihgm o 
  1
 lmqigkfnnignhlgjjj rmiqlgifhkngnfmjngl o 
  1
 lnqgiioimlkmhifnkn rmiqmmniokmkfkfomnl o 
  1
 lnqmjjkgfnghjjkmng rmiqmilfmngkfffilog o 
  1
 loqhfiolmlknffgomg rmiqmfjhijggmmlhnoi o 
  1
 o 
  1
 1*33@,*-9><: 
  1
 1*33@,*-9><: 
  1
 1*33=, 
  1
 1*33=, 
  1
 V V 
  1
 o 
  1
 o 
  3
 mi oqjmgoifhjffkokifih oqflmofglijffhhnlml nqloihiinnoohnkhhg nqhiljkmjkiinmjogl mqnnnognoonkmogkkg mqjillgijfimjkjnik lqoflnkgomngmkggl lqjiofnfmlfomimlli lqfhkfokkklhhjkhig kqmmmiimiinffogokn kqimoijkgflgjimkgi jqnhnhjmjiknoghohf jqgjhnohgjlmjimmmm iqm
  1
ifnifjjikfnhhif iqinofhklnkknfofok hqojhfikfhomnjoklj hqkjfhiggmgmmilljf hqflgljnffjgoflgkm gqlkmoookkglnihffl gqjgkiohmfjkmmgjfi fqnjglfmnhjohhikfk fqijimfofkfkhflmmn noqnoogkffjggjfkfl noqjokghfmojlgjmoi noqgklkglgogmlgfkh nnqoiggghmhoijglhi 
  1
 Y n Y o " V V |
  1
/061+ {rn loqhfiolmlknffgomg rmiqmfjhijggmmlhnoi o |
  0
REGION
  5
2B7
330
1F
100
AcDbEntity
  8
5
100
AcDbModelerGeometry
 70
     1
  1
koo ki n o          
  1
h J1410(1 nl ^ \VL kqoqm QK mk R01 U*1 lo nnemleli moog 
  1
rn fqfffffffffffffffj:rooh n:rono 
  1
=0;& {rn {n {rn {rn |
  1
3*2/ {rn {rn {m {o |
  1
,7:33 {rn {rn {rn {l {rn {n |
  1
9><: {rn {rn {k {m {rn {j 90-(>-; ;0*=3: 0*+ |
  1
300/ {rn {rn {i {l |
  1
/3>1:r,*-9><: {rn mkqolhlonhfmiimjgf rmgqhgffonnlnfifhnk o o o n n o o 90-(>-;@) V V V V |
  1
<0:;8: {rn {h {g {rn {f -:):-,:; {k {rn |
  1
<0:;8: {rn {no {i {rn {nn -:):-,:; {k {rn |
  1
<0:;8: {rn {i {nm {rn {nl -:):-,:; {k {rn |
  1
:;8: {rn {nk {nj {i {ni 90-(>-; |
  1
<0:;8: {rn {nh {h {rn {ng -:):-,:; {k {rn |
  1
:;8: {rn {nf {nk {h {mo 90-(>-; |
  1
<0:;8: {rn {g {mn {rn {mm -:):-,:; {k {rn |
  1
:;8: {rn {nj {ml {g {mk 90-(>-; |
  1
):-+:' {rn {f {mj |
  1
):-+:' {rn {f {mi |
  1
,+->687+r<*-): {rn moqfiffgjgfhilljil rmiqlkloofmilfjmnmi o n o o V V |
  1
<0:;8: {rn {mh {no {rn {mg -:):-,:; {k {rn |
  1
:;8: {rn {mf {nf {no {lo 90-(>-; |
  1
):-+:' {rn {ng {ln |
  1
,+->687+r<*-): {rn moqfiffgjgfhilljil rmhqimfgmnmkomgngff o o n o V V |
  1
<0:;8: {rn {nm {mh {rn {lm -:):-,:; {k {rn |
  1
:;8: {rn {ml {ll {nm {lk 90-(>-; |
  1
):-+:' {rn {nl {lj |
  1
,+->687+r<*-): {rn mhqnhmgghhjgohgikj rmiqlkloofmilfjmnmi o o rn o V V |
  1
/061+ {rn moqfiffgjgfhilljil rmiqlkloofmilfjmnmi o |
  1
/061+ {rn mhqnhmgghhjgohgikj rmiqlkloofmilfjmnmi o |
  1
<0:;8: {rn {mn {nh {rn {li -:):-,:; {k {rn |
  1
:;8: {rn {lh {mf {nh {lg 90-(>-; |
  1
):-+:' {rn {mg {lf |
  1
,+->687+r<*-): {rn mlqnjkijigkiiikofi rmhqimfgmnmkomgngff o rn o o V V |
  1
/061+ {rn moqfiffgjgfhilljil rmhqimfgmnmkomgngff o |
  1
:;8: {rn {ll {ko {mn {kn 90-(>-; |
  1
):-+:' {rn {mm {km |
  1
,+->687+r<*-): {rn mhqnhmgghhjgohgikj rmhqimfgmnmkomgngff o rn o o V V |
  1
/061+ {rn mhqnhmgghhjgohgikj rmhqimfgmnmkomgngff o |
  1
:;8: {rn {ko {lh {mh {kl 90-(>-; |
  1
):-+:' {rn {li {kk |
  1
,+->687+r<*-): {rn mlqnjkijigkiiikofi rllqjjifjmhgllimfln o o n o V V |
  1
/061+ {rn mlqnjkijigkiiikofi rmhqimfgmnmkomgngff o |
  1
):-+:' {rn {lm {kj |
  1
,+->687+r<*-): {rn mkqgjnihiiigmhkojm rmhqimfgmnmkomgngff o o rn o V V |
  1
/061+ {rn mkqgjnihiiigmhkojm rmhqimfgmnmkomgngff o |
  1
,+->687+r<*-): {rn mkqgjnihiiigmhkojm rllqjjifjmhgllimfln o rn o o V V |
  1
/061+ {rn mlqnjkijigkiiikofi rllqjjifjmhgllimfln o |
  1
/061+ {rn mkqgjnihiiigmhkojm rllqjjifjmhgllimfln o |
  0
REGION
  5
2B8
330
1F
100
AcDbEntity
  8
5
100
AcDbModelerGeometry
 70
     1
  1
koo li n o          
  1
h J1410(1 nl ^ \VL kqoqm QK mk R01 U*1 lo nnemleli moog 
  1
rn fqfffffffffffffffj:rooh n:rono 
  1
=0;& {rn {n {rn {rn |
  1
3*2/ {rn {rn {m {o |
  1
,7:33 {rn {rn {rn {l {rn {n |
  1
9><: {rn {rn {k {m {rn {j -:):-,:; ;0*=3: 0*+ |
  1
300/ {rn {rn {i {l |
  1
/3>1:r,*-9><: {rn khqnkhflinfgkkiljf rloqhmkogkjjhhkfjoh o o o rn rn o o 90-(>-;@) V V V V |
  1
<0:;8: {rn {h {g {rn {f 90-(>-; {k {rn |
  1
<0:;8: {rn {no {i {rn {nn 90-(>-; {k {rn |
  1
<0:;8: {rn {i {nm {rn {nl 90-(>-; {k {rn |
  1
:;8: {rn {nk {nj {i {ni 90-(>-; |
  1
<0:;8: {rn {nh {h {rn {ng 90-(>-; {k {rn |
  1
:;8: {rn {nj {nf {h {mo 90-(>-; |
  1
<0:;8: {rn {g {nh {rn {mn 90-(>-; {k {rn |
  1
:;8: {rn {mm {nk {g {ml 90-(>-; |
  1
):-+:' {rn {f {mk |
  1
):-+:' {rn {f {mj |
  1
,+->687+r<*-): {rn kkqgjlginojhimkgnm rmiqlkgjfgofhjinhim o o rn o V V |
  1
<0:;8: {rn {nm {no {rn {mi 90-(>-; {k {rn |
  1
:;8: {rn {nf {mh {no {mg 90-(>-; |
  1
):-+:' {rn {nn {mf |
  1
,+->687+r<*-): {rn kkqgjlginojhimkgnm rllqjinnlnlmllhnhfi o n o o V V |
  1
:;8: {rn {lo {mm {nm {ln 90-(>-; |
  1
):-+:' {rn {mn {lm |
  1
,+->687+r<*-): {rn kiqkjnjmnoniniijlg rmiqlkgjfgofhjinhim o rn o o V V |
  1
/061+ {rn kkqgjlginojhimkgnm rmiqlkgjfgofhjinhim o |
  1
/061+ {rn kkqgjlginojhimkgnm rllqjinnlnlmllhnhfi o |
  1
:;8: {rn {mh {lo {nh {ll 90-(>-; |
  1
):-+:' {rn {ng {lk |
  1
,+->687+r<*-): {rn joqnlgkmijmnjkhhjh rllqjinnlnlmllhnhfi o o n o V V |
  1
/061+ {rn joqnlgkmijmnjkhhjh rllqjinnlnlmllhnhfi o |
  1
):-+:' {rn {mi {lj |
  1
,+->687+r<*-): {rn kiqkjnjmnoniniijlg rlmqmimjmkmjmlnkfin o o n o V V |
  1
/061+ {rn kiqkjnjmnoniniijlg rmiqlkgjfgofhjinhim o |
  1
,+->687+r<*-): {rn joqnlgkmijmnjkhhjh rlmqmimjmkmjmlnkfin o rn o o V V |
  1
/061+ {rn joqnlgkmijmnjkhhjh rlmqmimjmkmjmlnkfin o |
  1
/061+ {rn kiqkjnjmnoniniijlg rlmqmimjmkmjmlnkfin o |
  0
REGION
  5
2B9
330
1F
100
AcDbEntity
  8
5
100
AcDbModelerGeometry
 70
     1
  1
koo mi n o          
  1
h J1410(1 nl ^ \VL kqoqm QK mk R01 U*1 lo nnemleli moog 
  1
rn fqfffffffffffffffj:rooh n:rono 
  1
=0;& {rn {n {rn {rn |
  1
3*2/ {rn {rn {m {o |
  1
,7:33 {rn {rn {rn {l {rn {n |
  1
9><: {rn {rn {k {m {rn {j 90-(>-; ;0*=3: 0*+ |
  1
300/ {rn {rn {i {l |
  1
/3>1:r,*-9><: {rn jlqhiimlhogkjmmgmg rmfqflhjiiokhgkmgj o o o n n o o 90-(>-;@) V V V V |
  1
<0:;8: {rn {h {g {rn {f 90-(>-; {k {rn |
  1
<0:;8: {rn {no {i {rn {nn 90-(>-; {k {rn |
  1
<0:;8: {rn {i {no {rn {nm 90-(>-; {k {rn |
  1
:;8: {rn {nl {nk {i {nj 90-(>-; |
  1
<0:;8: {rn {g {h {rn {ni -:):-,:; {k {rn |
  1
:;8: {rn {nk {nh {h {ng 90-(>-; |
  1
:;8: {rn {nf {nl {g {mo 90-(>-; |
  1
):-+:' {rn {f {mn |
  1
):-+:' {rn {f {mm |
  1
61+<*-):r<*-): {rn 90-(>-; $ :'><+<*- 1*=, l 0/:1 mg 
  1
 o l oqlfigjomnhmmhnoggk n oqhmihgjfojjnjijimj n nqongknlhimogofofh n nqmhjijkomimihfkmn n 
  1
 nqjjhhfooifjkllfmm n nqginnnojigjoifhom n mqjkkgnlhjikjngfjl n mqgnmoofmlhlingolh n lqokfffiohonmmmllj n 
  1
 lqlloonlmhgjlffngk n lqjhjiljhgilhmngkg n lqflkijnjffnhfgkfk n kqklfnimomimokiofi n kqihhohhmgmkfjfon n 
  1
 kqfjglhmkoiilonmjg n jqlmoknigoglljkill n jqijoooimimfnhomng n iqnnmooijfhfmfnkjk n iqillkinjnnhkjhlfi n 
  1
 iqfknhinkfmmgkfnmf n hqmokikooliljffifi n hqkfmhhkhgfkhifngl n hqhnffflnfkkoglkjn n gqmmhonmnijoikjmjg n 
  1
 gqhgfgkommjlomnifh n fqnlnohigkhjkjhkmm n fqlggifigilfmffjgm l 
  1
 jiqigfoohgjknfffjh rmgqimhfijfgiikfiji o 
  1
 jiqifhlglmnhmfnfjh rmgqljhjnfklmgjfing o 
  1
 jiqhnmhmnhlfkkimof rmhqgimmmhkngkfgfki o 
  1
 jiqlinnnlfkilngfii rmhqmjfgmlifohghmkl o 
  1
 jjqfhmkoilkhfikmih rmiqgoimgfifhmhhmli o 
  1
 jjqkjjjjgkngkofjfj rmiqjgjkifmffgjkijn o 
  1
 jkqfkggmlfginnjlkl rmiqllgmhnmlhknnfjf o 
  1
 jkqnomijiffljlngfj rmiqmmojokjnlhkoghh o 
  1
 jlqmiolnjholhoigg rmiqmokhgknnljnkgnf o 
  1
 jmqkgogjikoghgkmil rmiqlhomnjjhljhnj o 
  1
 jnqffgkfhljmjijjhf rmiqjgjfhnnnllgmjmh o 
  1
 jnqjflmkffmijnoghf rmiqgfjkfjknoimhnm o 
  1
 jnqnlfilhmihonkomk rmhqmgngojomiifllm o 
  1
 joqgnmflgmngnflkof rmhqfihnfohifiinkff o 
  1
 joqhholhilfoojnklf rmgqhkkmfogingfillm o 
  1
 jnqoijgglhjomihnkh rmfqlihlnmlgkmnikf o 
  1
 jnqkljjjkffiknmkfm rmfqglffljjkllghokl o 
  1
 jmqolkonngmnggnfll rloqnmihnkknoifkooh o 
  1
 jmqhjoginihojmijhj rloqlfhllgfjkiojgjh o 
  1
 jlqiniokglffnnngok rloqjhjnmfnkfgngnn o 
  1
 jkqkjmgmgninnioimj rloqhoojkjhfjfgkfij o 
  1
 jjqnhmhhhkgkigomih rloqfggmlnmlifonngi o 
  1
 jjqkoojohilmflnlml rlnqjihikihionlkkfk o 
  1
 jjqmmimjjnkmnfohjm rlmqnlonioiinohmkfj o 
  1
 jkqjinkhomjjokokoj rlmqkoimlkngjgmnfhm o 
  1
 jlqhnfnooligooijij rlmqkgikininlgimnf o 
  1
 jmqifhmfjmllknkmmk rlmqllgjimomomnigfg o 
  1
 jmqmkngigoijkgfjh rlnqilikfgjjjihgogg o 
  1
 jmqmonijolmjijlinh rlnqmlhgkhlmmkhnojj o 
  1
 jmqngklkfnfgjflgmn rlnqoiiljmfiolhnhhl o 
  1
 o 
  1
 1*33@,*-9><: 
  1
 1*33@,*-9><: 
  1
 1*33=, 
  1
 1*33=, 
  1
 V V 
  1
 o 
  1
 o 
  3
 mi oqlfigjomnhmmhnoggk oqhmihgjfojjnjijimj nqongknlhimogofofh nqmhjijkomimihfkmn nqjjhhfooifjkllfmm nqginnnojigjoifhom mqjkkgnlhjikjngfjl mqgnmoofmlhlingolh lqokfffiohonmmmllj lqlloonlmhgjlffngk lqjhjiljhgilhmngkg lqflkijnjffnhfgkfk kqklfnimomimokiofi kq
  1
ihhohhmgmkfjfon kqfjglhmkoiilonmjg jqlmoknigoglljkill jqijoooimimfnhomng iqnnmooijfhfmfnkjk iqillkinjnnhkjhlfi iqfknhinkfmmgkfnmf hqmokikooliljffifi hqkfmhhkhgfkhifngl hqhnffflnfkkoglkjn gqmmhonmnijoikjmjg gqhgfgkommjlomnifh fqnlnohigkhjkjhkmm 
  1
 Y n Y o " V V |
  1
:;8: {rn {nf {nh {no {ml 90-(>-; |
  1
):-+:' {rn {nn {mk |
  1
,+->687+r<*-): {rn jmqngklkfnfgjflgmn rlnqoiiljmfiolhnhhl o roqffffffnohkimjmnfi roqoonllioiiihkhngjfkh o V V |
  1
):-+:' {rn {ni {mj |
  1
,+->687+r<*-): {rn jjqnohgklflkhoojmi rmgqimimhmiijojkhgj o oqffffffkmijjnoghjl roqoonohoflloomjjmgofg o V V |
  1
/061+ {rn jiqigfoohgjknfffjh rmgqimhfijfgiikfiji o |
  1
/061+ {rn jmqngklkfnfgjflgmn rlnqoiiljmfiolhnhhl o |
  1
61+<*-):r<*-): {rn 90-(>-; $ :'><+<*- 1*=, l 0/:1 mk 
  1
 o l oqligokiljfljmjmjj n oqikiffjgmifofigklg n nqoigjglohkoojklhk n nqiohihjljnioiinng n 
  1
 nqfhmmojknmiffgfof n mqnfkhjgmkmhhogjlf n mqioinmmijimmmlmmg n lqnlhnlfiiikkokmkj n lqifnmlfgjmonggmhk n 
  1
 kqokoilfionkiiffnk n kqlffkggihjloikjmk n kqgnjjkihfkomhonmj n jqljoknhiinlnnjjjf n jqgnogkngnofmjifjk n 
  1
 iqmmhnfffmkgnlkoni n iqinkmilhmmmoihgkk n hqkgfigmoofjhoomml n hqgihgfiogmnmng n gqmjlnglnofmnkimnl n 
  1
 gqjjhhkmomokmlmfin n gqhimgololoifolglj n fqnknnhijkkiknoojg n fqmjiilgghlkomkimn l 
  1
 jjqnohgklflkhoojmi rmgqimimhmiijojkhgj o 
  1
 jjqognffhkmhklijim rmgqligojnkhmjjlfgh o 
  1
 jjqolijinljnkhhkkj rmhqfnknnfklkjgjgnk o 
  1
 jkqlgonkgifmllmkgl rmhqkfojjhoihohmkhl o 
  1
 jlqjgfmikhgkfnjlkl rmhqkkfhifflhhlfilm o 
  1
 jmqjojiojoonkhikgm rmhqkglikfihoimnhgh o 
  1
 jmqlgiomfhgooinoml rmgqklkigjmkinhkifj o 
  1
 jmqgfngifohilonjok rmgqflogjkihlngkmgj o 
  1
 jlqifjnniigfmmglff rmfqonihhhnkjgkjlih o 
  1
 jkqijmnmkfgljhognj rmfqmkfhojiijmloioh o 
  1
 jjqioononhhfiimffm rmfqkkihnnijhifkgfn o 
  1
 jiqllgmgfggfofffig rmfqgifglhnnkkmhngj o 
  1
 jiqgjjngigonigmhhh rloqkkhlflimhknnnnh o 
  1
 jhqoknhmlkomonmogm rlnqlmijnlnklojkimi o 
  1
 jiqfojmmkmklnnmnkk rlmqloliimkkhflnjkk o 
  1
 jiqmlhlmlfmnnklggl rllqomjoikhjhmhlhjl o 
  1
 jjqkfnmjomiojjhmg rllqkmlnlfhjnhllkjf o 
  1
 jkqknhflioljgojnmh rllqhhfhniggmfknlgi o 
  1
 jlqmfhninmmgllflm rllqiiikgnlggknlfmg o 
  1
 jmqmmllfknfkhfjlin rllqkhnlffookiglnhg o 
  1
 jnqjhoomggghmhoknn rllqnkiingikgkikjlf o 
  1
 jnqnjkhggiiinmlnjl rlmqhogikmmjjhnjjhk o 
  1
 joqhhlnmolgnljkoim rlmqmiiglhjmfilhjfg o 
  1
 joqihhmmmggoffgmkk rlnqiffjimnllllomgf o 
  1
 joqimklgnkhffnmihn rlnqjomgjjhhinfikfg o 
  1
 joqjffmomkghomhjjk rlnqoigkhogmlfjhfof o 
  1
 o 
  1
 1*33@,*-9><: 
  1
 1*33@,*-9><: 
  1
 1*33=, 
  1
 1*33=, 
  1
 V V 
  1
 o 
  1
 o 
  3
 mm oqligokiljfljmjmjj oqikiffjgmifofigklg nqoigjglohkoojklhk nqiohihjljnioiinng nqfhmmojknmiffgfof mqnfkhjgmkmhhogjlf mqioinmmijimmmlmmg lqnlhnlfiiikkokmkj lqifnmlfgjmonggmhk kqokoilfionkiiffnk kqlffkggihjloikjmk kqgnjjkihfkomhonmj jqljoknhiinlnnjjjf jqg
  1
nogkngnofmjifjk iqmmhnfffmkgnlkoni iqinkmilhmmmoihgkk hqkgfigmoofjhoomml hqgihgfiogmnmng gqmjlnglnofmnkimnl gqjjhhkmomokmlmfin gqhimgololoifolglj fqnknnhijkkiknoojg 
  1
 Y n Y o " V V |
  1
/061+ {rn joqjffmomkghomhjjk rlnqoigkhogmlfjhfof o |
  1
/061+ {rn jjqnohgklflkhoojmi rmgqimimhmiijojkhgj o |
  0
LINE
  5
1190
330
1F
100
AcDbEntity
  8
1
100
AcDbLine
 10
32.84999999999999
 20
-14.83394493314999
 30
0.0
 11
27.45000000000001
 21
-14.83394493314999
 31
0.0
  0
LWPOLYLINE
  5
1196
330
1F
100
AcDbEntity
  8
1
100
AcDbPolyline
 90
       35
 70
   128
 43
0.0
 10
27.79324305284998
 20
2.348007555850003
 10
27.13885077695002
 20
1.617399819149994
 10
26.87803793225
 20
1.124813038050007
 10
26.71160589709998
 20
0.5922854102500139
 10
26.65184268300001
 20
0.0900118225000029
 10
26.68012322945
 20
-0.4150777267999928
 10
26.96829364520002
 20
-1.321717913550003
 10
27.54064277584999
 20
-2.115958218450003
 10
27.94454273919999
 20
-2.466265766099994
 10
28.39763748409998
 20
-2.751011980849995
 10
28.93640508315002
 20
-2.98188781524999
 10
29.50552423025001
 20
-3.125927479849991
 10
30.12409292744999
 20
-3.180276962799993
 10
30.7433706948
 20
-3.134324875749996
 10
31.3559272123
 20
-2.984382236599998
 10
31.93369981095
 20
-2.734275267699985
 10
32.45149391305003
 20
-2.392390427050003
 10
32.89955502674999
 20
-1.964064140399997
 10
33.23968201295
 20
-1.489531295749998
 10
33.48590443675002
 20
-0.9596537071499966
 10
33.61399676835
 20
-0.4505324897500032
 10
33.64905677965001
 20
0.0735986358999981
 10
33.59597399834999
 20
0.553200391550007
 10
33.46505386614998
 20
1.017281074199999
 10
32.9914417734
 20
1.853123035250007
 10
32.63924413424999
 20
2.231944376400008
 10
32.23331507290001
 20
2.552845881350009
 10
31.73778087364999
 20
2.832358804999998
 10
31.2041071955
 20
3.032071431500014
 10
30.60446701334999
 20
3.15327424485001
 10
29.99270725824999
 20
3.177433043950003
 10
29.36785929555
 20
3.099387381550002
 10
28.76520122545
 20
2.919600946949998
 10
28.25628906295
 20
2.672028501699998
 10
27.79324302475001
 20
2.348007599499993
  0
LINE
  5
1198
330
1F
100
AcDbEntity
  8
3
100
AcDbLine
 10
39.00000000000003
 20
6.37119217995
 30
0.0
 11
10.74653452930013
 21
6.37119217995
 31
0.0
  0
LINE
  5
1199
330
1F
100
AcDbEntity
  8
3
100
AcDbLine
 10
11.25000000000002
 20
3.87119217995
 30
0.0
 11
39.00000000000003
 21
3.87119217995
 31
0.0
  0
LINE
  5
119E
330
1F
100
AcDbEntity
  8
3
100
AcDbLine
 10
21.50000000000003
 20
12.22186720249999
 30
0.0
 11
21.50000000000003
 21
-13.25
 31
0.0
  0
LINE
  5
119F
330
1F
100
AcDbEntity
  8
SK3
100
AcDbLine
 10
-16.83905331904999
 20
3.400000000000005
 30
0.0
 11
-17.5
 21
4.5
 31
0.0
  0
LINE
  5
11A1
330
1F
100
AcDbEntity
  8
SK1
100
AcDbLine
 10
-2.5
 20
-9.0
 30
0.0
 11
-2.5
 21
9.0
 31
0.0
  0
LINE
  5
11A2
330
1F
100
AcDbEntity
  8
SK1
100
AcDbLine
 10
-16.5
 20
-9.0
 30
0.0
 11
-16.5
 21
9.0
 31
0.0
  0
LINE
  5
11A5
330
1F
100
AcDbEntity
  8
1
100
AcDbLine
 10
0.0
 20
15.5
 30
0.0
 11
0.0
 21
-15.5
 31
0.0
  0
LINE
  5
11AA
330
1F
100
AcDbEntity
  8
SK1
100
AcDbLine
 10
-20.0
 20
-7.349999999999993
 30
0.0
 11
-20.0
 21
7.349999999999996
 31
0.0
  0
LINE
  5
11AB
330
1F
100
AcDbEntity
  8
SK3
100
AcDbLine
 10
-17.5
 20
4.5
 30
0.0
 11
-17.5
 21
-4.5
 31
0.0
  0
LINE
  5
11AC
330
1F
100
AcDbEntity
  8
3
100
AcDbLine
 10
8.750000000000028
 20
5.479639334850006
 30
0.0
 11
8.750000000000028
 21
1.488314151950007
 31
0.0
  0
LINE
  5
11AD
330
1F
100
AcDbEntity
  8
3
100
AcDbLine
 10
11.25000000000002
 20
1.488375166800011
 30
0.0
 11
11.25000000000002
 21
5.419945988045355
 31
0.0
  0
DIMENSION
  5
11B0
330
1F
100
AcDbEntity
  8
SK2
100
AcDbDimension
  2
*D30
 10
-23.09759179845
 20
-15.99999999999999
 30
0.0
 11
-23.09759179844999
 21
0.0
 31
0.0
 70
   160
  1
ST3 %%c<>
 71
     2
 42
32.0
  3
GEN-ISO_TDM
100
AcDbAlignedDimension
 13
0.5
 23
16.0
 33
0.0
 14
0.5
 24
-16.0
 34
0.0
 50
90.0
100
AcDbRotatedDimension
  0
LINE
  5
11B2
330
1F
100
AcDbEntity
  8
SK3
100
AcDbLine
 10
-19.5
 20
-4.5
 30
0.0
 11
-17.5
 21
-4.5
 31
0.0
  0
LINE
  5
11B3
330
1F
100
AcDbEntity
  8
SK1
100
AcDbLine
 10
-20.0
 20
-7.349999999999994
 30
0.0
 11
-18.56715728749999
 21
-8.782842712499999
 31
0.0
  0
ARC
  5
11B4
330
1F
100
AcDbEntity
  8
SK3
100
AcDbCircle
 10
-19.5
 20
-5.0
 30
0.0
 40
0.5
100
AcDbArc
 50
90.0
 51
180.0
  0
LINE
  5
11B5
330
1F
100
AcDbEntity
  8
3
100
AcDbLine
 10
12.00000000000002
 20
3.400000000000005
 30
0.0
 11
0.0
 21
3.400000000000005
 31
0.0
  0
LINE
  5
11B6
330
1F
100
AcDbEntity
  8
3
100
AcDbLine
 10
0.0
 20
-12.25
 30
0.0
 11
6.500000000000014
 21
-12.25
 31
0.0
  0
LINE
  5
11B7
330
1F
100
AcDbEntity
  8
3
100
AcDbLine
 10
6.500000000000014
 20
-9.449999999999988
 30
0.0
 11
0.0
 21
-9.449999999999986
 31
0.0
  0
LINE
  5
11B9
330
1F
100
AcDbEntity
  8
SK3
100
AcDbLine
 10
-16.83905331904999
 20
-3.400000000000005
 30
0.0
 11
0.0
 21
-3.400000000000005
 31
0.0
  0
LINE
  5
11BA
330
1F
100
AcDbEntity
  8
1
100
AcDbLine
 10
0.5
 20
-16.0
 30
0.0
 11
14.55000000000001
 21
-16.0
 31
0.0
  0
ARC
  5
11BB
330
1F
100
AcDbEntity
  8
1
100
AcDbCircle
 10
0.5
 20
-15.5
 30
0.0
 40
0.5
100
AcDbArc
 50
180.0
 51
270.0
  0
CIRCLE
  5
11BC
330
1F
100
AcDbEntity
  8
SK1
100
AcDbCircle
 10
-7.75
 20
0.0
 30
0.0
 40
1.649999999999998
  0
LINE
  5
11BE
330
1F
100
AcDbEntity
  8
SK1
100
AcDbLine
 10
-16.5
 20
-9.0
 30
0.0
 11
-2.5
 21
-9.0
 31
0.0
  0
LWPOLYLINE
  5
11BF
330
1F
100
AcDbEntity
  8
SK1
100
AcDbPolyline
 90
       32
 70
   128
 43
0.0
 10
-10.07496681674999
 20
2.227682827150005
 10
-9.560242107499988
 20
2.553323768000012
 10
-8.9967279775
 20
2.790600765850001
 10
-8.396491533499997
 20
2.936722745500006
 10
-7.7792659646
 20
2.989014180400005
 10
-7.139280083949998
 20
2.9423336559
 10
-6.516503864449987
 20
2.7949300601
 10
-5.928438888499997
 20
2.547361303499997
 10
-5.393898927449981
 20
2.203667378700004
 10
-4.945775993099999
 20
1.780323611850008
 10
-4.589195902400007
 20
1.276853581300002
 10
-4.292510736099998
 20
0.4615351067999996
 10
-4.283864632299994
 20
-0.4121786979999911
 10
-4.541065924099996
 20
-1.186883687049999
 10
-5.04217281679999
 20
-1.886347495599991
 10
-5.827867915750005
 20
-2.4928806506
 10
-6.353395138949991
 20
-2.737626958800007
 10
-6.91203489244998
 20
-2.901027429950005
 10
-7.540261822199994
 20
-2.983377117000003
 10
-8.174253150049992
 20
-2.966774412000006
 10
-8.804324443599995
 20
-2.848184799899996
 10
-9.404491032399988
 20
-2.63002310569999
 10
-9.95530230544999
 20
-2.314527288150003
 10
-10.43886294584999
 20
-1.905976579299988
 10
-10.75057978799999
 20
-1.53093783829999
 10
-10.99723187124999
 20
-1.109062530549991
 10
-11.16608086924999
 20
-0.6443920208500061
 10
-11.24522160404998
 20
-0.1551369154500009
 10
-11.15270815139999
 20
0.6955965048000082
 10
-10.81202408574999
 20
1.440559123750006
 10
-10.21627794304998
 20
2.113875921149997
 10
-10.07496682355
 20
2.227682829999992
  0
CIRCLE
  5
11C0
330
1F
100
AcDbEntity
  8
SK1
100
AcDbCircle
 10
-7.75
 20
0.0
 30
0.0
 40
2.73027801760697
  0
LINE
  5
11C1
330
1F
100
AcDbEntity
  8
SK3
100
AcDbLine
 10
-17.5
 20
-4.5
 30
0.0
 11
-16.83905331904999
 21
-3.400000000000005
 31
0.0
  0
LINE
  5
11C2
330
1F
100
AcDbEntity
  8
SK1
100
AcDbLine
 10
-18.10981317004999
 20
-8.891665519249997
 30
0.0
 11
-17.36245763804999
 21
-8.736668961549995
 31
0.0
  0
ARC
  5
11C3
330
1F
100
AcDbEntity
  8
SK1
100
AcDbCircle
 10
-17.19999999999998
 20
-9.519999999999996
 30
0.0
 40
0.8000000000000074
100
AcDbArc
 50
60.05508191230002
 51
101.7166617758001
  0
LINE
  5
11C4
330
1F
100
AcDbEntity
  8
SK1
100
AcDbLine
 10
-16.80066623495
 20
-8.8267954529
 30
0.0
 11
-16.5
 21
-9.0
 31
0.0
  0
LINE
  5
11C5
330
1F
100
AcDbEntity
  8
SK1
100
AcDbLine
 10
-18.28431457504999
 20
-8.900000000000005
 30
0.0
 11
-18.1910419891
 21
-8.900000000000005
 31
0.0
  0
ARC
  5
11C6
330
1F
100
AcDbEntity
  8
SK1
100
AcDbCircle
 10
-18.28431457504999
 20
-8.5
 30
0.0
 40
0.4000000000000043
100
AcDbArc
 50
225.0
 51
270.0
  0
ARC
  5
11C7
330
1F
100
AcDbEntity
  8
SK1
100
AcDbCircle
 10
-18.1910419891
 20
-8.5
 30
0.0
 40
0.4000000000000003
100
AcDbArc
 50
270.0
 51
281.7166617758001
  0
LWPOLYLINE
  5
11C8
330
1F
100
AcDbEntity
  8
SK3
100
AcDbPolyline
 90
        2
 70
   128
 43
0.0
 10
-17.5
 20
-4.5
 10
-17.5
 20
-4.5
  0
LINE
  5
11C9
330
1F
100
AcDbEntity
  8
SK3
100
AcDbLine
 10
-16.83905331904999
 20
3.400000000000005
 30
0.0
 11
-16.83905331904999
 21
-3.400000000000005
 31
0.0
  0
LINE
  5
11CA
330
1F
100
AcDbEntity
  8
SK1
100
AcDbLine
 10
-2.5
 20
-9.0
 30
0.0
 11
-1.270082145849983
 21
-8.670444504249985
 31
0.0
  0
ARC
  5
11D5
330
1F
100
AcDbEntity
  8
SK1
100
AcDbCircle
 10
-0.3999999999999915
 20
-9.25
 30
0.0
 40
0.6000000000000015
100
AcDbArc
 50
48.18968510420022
 51
90.0
  0
ARC
  5
11DA
330
1F
100
AcDbEntity
  8
SK1
100
AcDbCircle
 10
-1.114790718799994
 20
-9.25
 30
0.0
 40
0.6000000000000015
100
AcDbArc
 50
90.0
 51
105.0000000000003
  0
LINE
  5
11DB
330
1F
100
AcDbEntity
  8
SK1
100
AcDbLine
 10
-1.114790718799994
 20
-8.650000000000005
 30
0.0
 11
-0.3999999999999915
 21
-8.650000000000005
 31
0.0
  0
LINE
  5
11E2
330
1F
100
AcDbEntity
  8
3
100
AcDbLine
 10
7.750000000000028
 20
-3.399676276349993
 30
0.0
 11
7.750000000000028
 21
-14.0
 31
0.0
  0
LINE
  5
11E4
330
1F
100
AcDbEntity
  8
3
100
AcDbLine
 10
16.91532047059999
 20
-13.629765886
 30
0.0
 11
10.25000000000002
 21
-11.20378763284999
 31
0.0
  0
LINE
  5
11E9
330
1F
100
AcDbEntity
  8
3
100
AcDbLine
 10
7.750000000000028
 20
-14.0
 30
0.0
 11
10.25000000000002
 21
-14.0
 31
0.0
  0
LINE
  5
11EA
330
1F
100
AcDbEntity
  8
3
100
AcDbLine
 10
10.25000000000002
 20
-13.86423206399999
 30
0.0
 11
14.96840790535723
 21
-15.58159209469229
 31
0.0
  0
LINE
  5
11EC
330
1F
100
AcDbEntity
  8
1
100
AcDbLine
 10
17.30000000032544
 20
-13.25
 30
0.0
 11
14.55000000000001
 21
-16.0
 31
0.0
  0
LINE
  5
11F3
330
1F
100
AcDbEntity
  8
1
100
AcDbLine
 10
42.27831216354999
 20
-13.25
 30
0.0
 11
17.30000000000001
 21
-13.25
 31
0.0
  0
LINE
  5
11FB
330
1F
100
AcDbEntity
  8
1
100
AcDbLine
 10
21.53863703292982
 20
-13.24999999999999
 30
0.0
 11
27.45000000000001
 21
-14.83394493314999
 31
0.0
  0
LINE
  5
1231
330
1F
100
AcDbEntity
  8
3
100
AcDbLine
 10
43.00000000000003
 20
3.0
 30
0.0
 11
12.50000000000002
 21
3.0
 31
0.0
  0
LINE
  5
1232
330
1F
100
AcDbEntity
  8
3
100
AcDbLine
 10
12.50000000000002
 20
-3.0
 30
0.0
 11
43.00000000000002
 21
-3.0
 31
0.0
  0
LINE
  5
1233
330
1F
100
AcDbEntity
  8
3
100
AcDbLine
 10
10.25000000000002
 20
-14.0
 30
0.0
 11
10.25000000000002
 21
-3.400000000000005
 31
0.0
  0
LINE
  5
1235
330
1F
100
AcDbEntity
  8
3
100
AcDbLine
 10
6.500000000000014
 20
-12.25
 30
0.0
 11
7.341204866650002
 21
-10.84999999999999
 31
0.0
  0
LINE
  5
1236
330
1F
100
AcDbEntity
  8
3
100
AcDbLine
 10
7.341204866650002
 20
-10.84999999999999
 30
0.0
 11
6.500000000000014
 21
-9.449999999999988
 31
0.0
  0
LWPOLYLINE
  5
1237
330
1F
100
AcDbEntity
  8
3
100
AcDbPolyline
 90
        2
 70
   128
 43
0.0
 10
6.500000000000014
 20
-12.25
 10
6.500000000000014
 20
-12.25
  0
LINE
  5
1238
330
1F
100
AcDbEntity
  8
3
100
AcDbLine
 10
6.500000000000014
 20
-9.449999999999988
 30
0.0
 11
6.500000000000014
 21
-12.25
 31
0.0
  0
LWPOLYLINE
  5
1242
330
1F
100
AcDbEntity
  8
3
100
AcDbPolyline
 90
       20
 70
   128
 43
0.0
 10
10.00000000000002
 20
0.2625854342500133
 10
10.39759673565001
 20
0.3318498370500009
 10
10.74997131854999
 20
0.5257213312499971
 10
11.03508158140002
 20
0.8285929352500147
 10
11.21128589619999
 20
1.206862106450003
 10
11.24554777605001
 20
1.584485077050004
 10
11.1506172061
 20
1.914014192199999
 10
10.93979111000001
 20
2.186786415550002
 10
10.61592428945002
 20
2.389768314700006
 10
10.21099957174999
 20
2.496531670700008
 10
9.801190701850003
 20
2.498006776050004
 10
9.431352719249986
 20
2.408822976300001
 10
9.109121255700017
 20
2.228136953000003
 10
8.867169364900007
 20
1.947265957849992
 10
8.755450679550023
 20
1.594389985800006
 10
8.78331870529999
 20
1.227486011150006
 10
8.932015200300014
 20
0.8792031828500057
 10
9.195729849200006
 20
0.5701634849999948
 10
9.564310752700009
 20
0.346137058700009
 10
10.00000000000002
 20
0.2625854342500133
  0
LINE
  5
1243
330
1F
100
AcDbEntity
  8
3
100
AcDbLine
 10
10.69741814294999
 20
0.0
 30
0.0
 11
12.50000000000002
 21
-3.0
 31
0.0
  0
LINE
  5
1244
330
1F
100
AcDbEntity
  8
3
100
AcDbLine
 10
12.50000000000002
 20
-3.0
 30
0.0
 11
12.50000000000002
 21
3.0
 31
0.0
  0
LINE
  5
1245
330
1F
100
AcDbEntity
  8
3
100
AcDbLine
 10
12.00000000000002
 20
3.400000000000005
 30
0.0
 11
12.00000000000002
 21
-3.400000000000005
 31
0.0
  0
LINE
  5
1246
330
1F
100
AcDbEntity
  8
3
100
AcDbLine
 10
12.00000000000002
 20
-3.400000000000005
 30
0.0
 11
14.0429261047
 21
0.0
 31
0.0
  0
LINE
  5
1249
330
1F
100
AcDbEntity
  8
3
100
AcDbLine
 10
14.0429261047
 20
0.0
 30
0.0
 11
12.00000000000002
 21
3.400000000000005
 31
0.0
  0
LINE
  5
124A
330
1F
100
AcDbEntity
  8
3
100
AcDbLine
 10
12.50000000000002
 20
3.0
 30
0.0
 11
10.69741814294999
 21
0.0
 31
0.0
  0
LINE
  5
124B
330
1F
100
AcDbEntity
  8
SK1
100
AcDbLine
 10
-18.56715728749999
 20
8.782842712449991
 30
0.0
 11
-20.0
 21
7.349999999999994
 31
0.0
  0
LINE
  5
124C
330
1F
100
AcDbEntity
  8
SK3
100
AcDbLine
 10
-17.5
 20
4.5
 30
0.0
 11
-19.5
 21
4.5
 31
0.0
  0
ARC
  5
124D
330
1F
100
AcDbEntity
  8
SK3
100
AcDbCircle
 10
-19.5
 20
5.0
 30
0.0
 40
0.5
100
AcDbArc
 50
180.0
 51
270.0
  0
LINE
  5
124E
330
1F
100
AcDbEntity
  8
3
100
AcDbLine
 10
0.0
 20
9.450000000000001
 30
0.0
 11
6.500000000000014
 21
9.450000000000002
 31
0.0
  0
LINE
  5
124F
330
1F
100
AcDbEntity
  8
3
100
AcDbLine
 10
6.500000000000014
 20
12.25
 30
0.0
 11
0.0
 21
12.25
 31
0.0
  0
LINE
  5
1251
330
1F
100
AcDbEntity
  8
1
100
AcDbLine
 10
15.03833257920001
 20
16.0
 30
0.0
 11
0.5
 21
16.0
 31
0.0
  0
LINE
  5
1252
330
1F
100
AcDbEntity
  8
SK1
100
AcDbLine
 10
-2.5
 20
9.0
 30
0.0
 11
-16.5
 21
9.0
 31
0.0
  0
LINE
  5
1253
330
1F
100
AcDbEntity
  8
SK1
100
AcDbLine
 10
-17.36245763804999
 20
8.736668961500015
 30
0.0
 11
-18.10981317004999
 21
8.891665519250011
 31
0.0
  0
ARC
  5
1254
330
1F
100
AcDbEntity
  8
SK1
100
AcDbCircle
 10
-17.19999999999998
 20
9.52000000000001
 30
0.0
 40
0.8000000000000015
100
AcDbArc
 50
258.2833382241998
 51
299.9449180876999
  0
LINE
  5
1255
330
1F
100
AcDbEntity
  8
SK1
100
AcDbLine
 10
-16.5
 20
9.0
 30
0.0
 11
-16.80066623495
 21
8.8267954529
 31
0.0
  0
LINE
  5
1256
330
1F
100
AcDbEntity
  8
SK1
100
AcDbLine
 10
-18.1910419891
 20
8.900000000000005
 30
0.0
 11
-18.28431457504999
 21
8.900000000000005
 31
0.0
  0
ARC
  5
1257
330
1F
100
AcDbEntity
  8
SK1
100
AcDbCircle
 10
-18.28431457504999
 20
8.5
 30
0.0
 40
0.4000000000000043
100
AcDbArc
 50
90.0
 51
135.0
  0
ARC
  5
1258
330
1F
100
AcDbEntity
  8
SK1
100
AcDbCircle
 10
-18.1910419891
 20
8.5
 30
0.0
 40
0.4000000000000003
100
AcDbArc
 50
78.28333822419985
 51
90.0
  0
LINE
  5
1260
330
1F
100
AcDbEntity
  8
SK1
100
AcDbLine
 10
-1.270082145861513
 20
8.670444504226553
 30
0.0
 11
-2.5
 21
9.0
 31
0.0
  0
ARC
  5
1264
330
1F
100
AcDbEntity
  8
SK1
100
AcDbCircle
 10
-0.3999999999999915
 20
9.25
 30
0.0
 40
0.6000000000000015
100
AcDbArc
 50
270.0
 51
311.8103148957997
  0
ARC
  5
126A
330
1F
100
AcDbEntity
  8
SK1
100
AcDbCircle
 10
-1.114790718799994
 20
9.25
 30
0.0
 40
0.6000000000000071
100
AcDbArc
 50
254.9999999999996
 51
270.0
  0
LINE
  5
126B
330
1F
100
AcDbEntity
  8
SK1
100
AcDbLine
 10
-0.3999999999999915
 20
8.650000000000005
 30
0.0
 11
-1.114790718799994
 21
8.650000000000005
 31
0.0
  0
ARC
  5
126F
330
1F
100
AcDbEntity
  8
1
100
AcDbCircle
 10
0.5
 20
15.5
 30
0.0
 40
0.5
100
AcDbArc
 50
90.0
 51
180.0
  0
LINE
  5
1273
330
1F
100
AcDbEntity
  8
1
100
AcDbLine
 10
15.03833257920001
 20
16.0
 30
0.0
 11
17.30000000000001
 21
12.8870818519
 31
0.0
  0
LINE
  5
1274
330
1F
100
AcDbEntity
  8
3
100
AcDbLine
 10
7.341204866650002
 20
10.84999999999999
 30
0.0
 11
6.500000000000014
 21
12.25
 31
0.0
  0
LINE
  5
1275
330
1F
100
AcDbEntity
  8
3
100
AcDbLine
 10
6.500000000000014
 20
12.25
 30
0.0
 11
6.500000000000014
 21
9.450000000000002
 31
0.0
  0
LWPOLYLINE
  5
1279
330
1F
100
AcDbEntity
  8
3
100
AcDbPolyline
 90
       18
 70
   128
 43
0.0
 10
10.81767962505
 20
4.629862939950001
 10
10.53735257934999
 20
4.465254701800006
 10
10.21846519024998
 20
4.373438558250001
 10
9.883900770700023
 20
4.361003222449994
 10
9.557667615050007
 20
4.428841052300015
 10
9.263176167400018
 20
4.572084015000001
 10
9.021559091450001
 20
4.780453016199999
 10
8.850154793600012
 20
5.038995526549996
 10
8.761263221500001
 20
5.329158572849991
 10
8.761263221500001
 20
5.630120096850006
 10
8.850154793600012
 20
5.920283143150015
 10
9.021559091450001
 20
6.178825653500013
 10
9.263176167400018
 20
6.38719465470001
 10
9.557667615050007
 20
6.530437617399996
 10
9.883900770700023
 20
6.598275447300011
 10
10.21846519024998
 20
6.585840111500004
 10
10.53735257934999
 20
6.494023967900005
 10
10.81767962505
 20
6.329415729749996
  0
LINE
  5
127A
330
1F
100
AcDbEntity
  8
3
100
AcDbLine
 10
6.500000000000014
 20
9.450000000000002
 30
0.0
 11
7.341204866650002
 21
10.84999999999999
 31
0.0
  0
LWPOLYLINE
  5
127B
330
1F
100
AcDbEntity
  8
3
100
AcDbPolyline
 90
        2
 70
   128
 43
0.0
 10
6.500000000000014
 20
9.450000000000002
 10
6.500000000000014
 20
9.450000000000002
  0
ARC
  5
127E
330
1F
100
AcDbEntity
  8
3
100
AcDbCircle
 10
10.19142063954998
 20
5.479639334850006
 30
0.0
 40
1.055613678498438
100
AcDbArc
 50
306.3890691559999
 51
53.61093084400007
  0
LINE
  5
128B
330
1F
100
AcDbEntity
  8
3
100
AcDbLine
 10
38.80000000000001
 20
-13.25
 30
0.0
 11
38.80000000000001
 21
9.4818163849
 31
0.0
  0
LINE
  5
128D
330
1F
100
AcDbEntity
  8
1
100
AcDbLine
 10
42.27831216354999
 20
-13.25
 30
0.0
 11
43.00000000000003
 21
-12.0
 31
0.0
  0
LINE
  5
12D5
330
1F
100
AcDbEntity
  8
1
100
AcDbLine
 10
32.84999999999999
 20
-14.83394493314999
 30
0.0
 11
38.76136296819232
 21
-13.25
 31
0.0
  0
LINE
  5
1355
330
1F
100
AcDbEntity
  8
3
100
AcDbLine
 10
42.56698729814999
 20
1.25
 30
0.0
 11
38.80000000000001
 21
1.25
 31
0.0
  0
LINE
  5
1356
330
1F
100
AcDbEntity
  8
3
100
AcDbLine
 10
38.79948152214998
 20
-1.25
 30
0.0
 11
42.56698729814999
 21
-1.25
 31
0.0
  0
LINE
  5
1357
330
1F
100
AcDbEntity
  8
3
100
AcDbLine
 10
43.00000000000003
 20
-9.0
 30
0.0
 11
38.80000000000001
 21
-9.0
 31
0.0
  0
LINE
  5
1358
330
1F
100
AcDbEntity
  8
3
100
AcDbLine
 10
38.79856964954999
 20
-11.0
 30
0.0
 11
43.00000000000003
 21
-11.0
 31
0.0
  0
LINE
  5
135E
330
1F
100
AcDbEntity
  8
1
100
AcDbLine
 10
29.28397459625
 20
-1.5
 30
0.0
 11
28.41794919244998
 21
0.0
 31
0.0
  0
LINE
  5
135F
330
1F
100
AcDbEntity
  8
1
100
AcDbLine
 10
31.0160254038
 20
-1.5
 30
0.0
 11
31.88205080759999
 21
0.0
 31
0.0
  0
CIRCLE
  5
1360
330
1F
100
AcDbEntity
  8
1
100
AcDbCircle
 10
30.15
 20
0.0
 30
0.0
 40
2.445499999999995
  0
LINE
  5
1363
330
1F
100
AcDbEntity
  8
1
100
AcDbLine
 10
31.0160254038
 20
-1.5
 30
0.0
 11
29.28397459625
 21
-1.5
 31
0.0
  0
LINE
  5
1364
330
1F
100
AcDbEntity
  8
1
100
AcDbLine
 10
31.0160254038
 20
1.5
 30
0.0
 11
29.28397459625
 21
1.5
 31
0.0
  0
LINE
  5
1365
330
1F
100
AcDbEntity
  8
1
100
AcDbLine
 10
29.28397459625
 20
1.5
 30
0.0
 11
28.41794919244998
 21
0.0
 31
0.0
  0
LINE
  5
1366
330
1F
100
AcDbEntity
  8
1
100
AcDbLine
 10
31.0160254038
 20
1.5
 30
0.0
 11
31.88205080759999
 21
0.0
 31
0.0
  0
LINE
  5
136F
330
1F
100
AcDbEntity
  8
1
100
AcDbLine
 10
43.00000000000003
 20
8.816601735549992
 30
0.0
 11
43.00000000000003
 21
-12.0
 31
0.0
  0
LINE
  5
1370
330
1F
100
AcDbEntity
  8
3
100
AcDbLine
 10
42.56698729814999
 20
-1.25
 30
0.0
 11
42.56698729814999
 21
1.25
 31
0.0
  0
LINE
  5
1374
330
1F
100
AcDbEntity
  8
3
100
AcDbLine
 10
42.56698729814999
 20
-1.25
 30
0.0
 11
43.00000000000003
 21
-1.5
 31
0.0
  0
LINE
  5
1376
330
1F
100
AcDbEntity
  8
3
100
AcDbLine
 10
43.00000000000003
 20
1.5
 30
0.0
 11
42.56698729814999
 21
1.25
 31
0.0
  0
LINE
  5
1379
330
1F
100
AcDbEntity
  8
3
100
AcDbLine
 10
38.74801743690126
 20
6.37119217995
 30
0.0
 11
40.31011292535001
 21
9.242637994400013
 31
0.0
  0
LINE
  5
137D
330
1F
100
AcDbEntity
  8
3
100
AcDbLine
 10
37.68988707470001
 20
9.657640999300014
 30
0.0
 11
35.90202576529161
 21
6.371192179950001
 31
0.0
  0
LINE
  5
1380
330
1F
100
AcDbEntity
  8
3
100
AcDbLine
 10
39.00000000000003
 20
3.87119217995
 30
0.0
 11
39.00000000000003
 21
6.37119217995
 31
0.0
  0
LINE
  5
1395
330
1F
100
AcDbEntity
  8
1
100
AcDbLine
 10
43.00000000000003
 20
8.816601735549994
 30
0.0
 11
17.30000000000001
 21
12.8870818519
 31
0.0
  0
LINE
  5
1437
330
1F
100
AcDbEntity
  8
SK4
100
AcDbLine
 10
-20.0
 20
0.0
 30
0.0
 11
0.0
 21
0.0
 31
0.0
  0
LINE
  5
1448
330
1F
100
AcDbEntity
  8
SK1
100
AcDbLine
 10
0.0
 20
12.54999999999999
 30
0.0
 11
-2.299999999999981
 21
12.54999999999999
 31
0.0
  0
LINE
  5
1449
330
1F
100
AcDbEntity
  8
SK1
100
AcDbLine
 10
0.0
 20
9.100000000000008
 30
0.0
 11
-2.299999999999981
 21
9.100000000000008
 31
0.0
  0
LINE
  5
144A
330
1F
100
AcDbEntity
  8
SK1
100
AcDbLine
 10
-2.299999999999981
 20
12.54999999999999
 30
0.0
 11
-2.499999999999984
 21
12.35
 31
0.0
  0
LINE
  5
144B
330
1F
100
AcDbEntity
  8
SK1
100
AcDbLine
 10
-2.299999999999981
 20
9.100000000000008
 30
0.0
 11
-2.499999999999984
 21
9.299999999999997
 31
0.0
  0
LINE
  5
144C
330
1F
100
AcDbEntity
  8
SK1
100
AcDbLine
 10
-2.499999999999984
 20
9.299999999999997
 30
0.0
 11
-2.499999999999984
 21
12.35
 31
0.0
  0
LINE
  5
144D
330
1F
100
AcDbEntity
  8
SK1
100
AcDbLine
 10
-2.299999999999981
 20
12.54999999999999
 30
0.0
 11
-2.299999999999981
 21
9.10000000000001
 31
0.0
  0
LINE
  5
144E
330
1F
100
AcDbEntity
  8
SK1
100
AcDbLine
 10
-2.299999999999981
 20
-9.099999999999996
 30
0.0
 11
-2.299999999999981
 21
-12.54999999999999
 31
0.0
  0
LINE
  5
144F
330
1F
100
AcDbEntity
  8
SK1
100
AcDbLine
 10
-2.499999999999984
 20
-12.34999999999999
 30
0.0
 11
-2.499999999999984
 21
-9.299999999999997
 31
0.0
  0
LINE
  5
1450
330
1F
100
AcDbEntity
  8
SK1
100
AcDbLine
 10
-2.299999999999981
 20
-12.54999999999999
 30
0.0
 11
0.0
 21
-12.54999999999999
 31
0.0
  0
LINE
  5
1451
330
1F
100
AcDbEntity
  8
SK1
100
AcDbLine
 10
-2.499999999999984
 20
-12.34999999999999
 30
0.0
 11
-2.299999999999981
 21
-12.54999999999999
 31
0.0
  0
LINE
  5
1452
330
1F
100
AcDbEntity
  8
SK1
100
AcDbLine
 10
-2.299999999999981
 20
-9.099999999999994
 30
0.0
 11
0.0
 21
-9.099999999999994
 31
0.0
  0
LINE
  5
1453
330
1F
100
AcDbEntity
  8
SK1
100
AcDbLine
 10
-2.499999999999984
 20
-9.299999999999997
 30
0.0
 11
-2.299999999999981
 21
-9.099999999999994
 31
0.0
  0
LINE
  5
1454
330
1F
100
AcDbEntity
  8
SK3
100
AcDbLine
 10
0.0
 20
3.400000000000005
 30
0.0
 11
-16.83905331904999
 21
3.400000000000005
 31
0.0
  0
LINE
  5
1455
330
1F
100
AcDbEntity
  8
4
100
AcDbLine
 10
0.0
 20
0.0
 30
0.0
 11
43.00345443055002
 21
0.0
 31
0.0
  0
LINE
  5
1456
330
1F
100
AcDbEntity
  8
3
100
AcDbLine
 10
0.0
 20
-3.400000000000005
 30
0.0
 11
12.00000000000003
 21
-3.400000000000005
 31
0.0
  0
LINE
  5
1467
330
1F
100
AcDbEntity
  8
SK1
100
AcDbLine
 10
38.65
 20
9.799999999999997
 30
0.0
 11
38.65
 21
12.49999999999998
 31
0.0
  0
LINE
  5
1468
330
1F
100
AcDbEntity
  8
SK1
100
AcDbLine
 10
38.25
 20
12.89999999999999
 30
0.0
 11
22.62603827770001
 21
12.89999999999999
 31
0.0
  0
LINE
  5
1469
330
1F
100
AcDbEntity
  8
SK1
100
AcDbLine
 10
21.64999999999999
 20
12.49999999999998
 30
0.0
 11
38.65
 21
12.49999999999998
 31
0.0
  0
LINE
  5
146A
330
1F
100
AcDbEntity
  8
SK1
100
AcDbLine
 10
38.65
 20
12.49999999999998
 30
0.0
 11
38.25
 21
12.89999999999999
 31
0.0
  0
LINE
  5
146B
330
1F
100
AcDbEntity
  8
SK1
100
AcDbLine
 10
38.80000000000001
 20
9.4818163849
 30
0.0
 11
38.80000000000001
 21
9.799999999999997
 31
0.0
  0
LINE
  5
146C
330
1F
100
AcDbEntity
  8
SK1
100
AcDbLine
 10
36.79106771829999
 20
9.799999999999997
 30
0.0
 11
38.80000000000001
 21
9.799999999999997
 31
0.0
  0
LINE
  5
146D
330
1F
100
AcDbEntity
  8
SK1
100
AcDbLine
 10
22.84999999999999
 20
13.7
 30
0.0
 11
21.64999999999999
 21
12.49999999999998
 31
0.0
  0
LINE
  5
146E
330
1F
100
AcDbEntity
  8
SK1
100
AcDbLine
 10
25.65
 20
13.7
 30
0.0
 11
22.84999999999999
 21
13.7
 31
0.0
  0
LWPOLYLINE
  5
146F
330
1F
100
AcDbEntity
  8
SK1
100
AcDbPolyline
 90
        3
 70
   128
 43
0.0
 10
22.62603827770001
 20
12.89999999999999
 10
22.7935939783
 20
13.05539745759999
 10
23.49492674730001
 20
13.7
  0
LINE
  5
1470
330
1F
100
AcDbEntity
  8
SK1
100
AcDbLine
 10
25.65
 20
13.7
 30
0.0
 11
25.65
 21
12.89999999999999
 31
0.0
  0
LINE
  5
1471
330
1F
100
AcDbEntity
  8
SK1
100
AcDbLine
 10
21.64999999999999
 20
12.49999999999998
 30
0.0
 11
21.64999999999999
 21
12.19810953640001
 31
0.0
  0
DIMENSION
  5
147B
330
1F
100
AcDbEntity
  8
2
100
AcDbDimension
  2
*D34
 10
43.00000000000003
 20
21.9757380950655
 30
0.0
 11
21.50000000000001
 21
25.76073809506551
 31
0.0
 70
    32
 71
     5
 42
43.00000000000003
  3
GEN-ISO_TDM
100
AcDbAlignedDimension
 13
0.0
 23
15.5
 33
0.0
 14
43.00000000000003
 24
8.816601735549994
 34
0.0
100
AcDbRotatedDimension
  0
ENDSEC
  0
SECTION
  2
OBJECTS
  0
DICTIONARY
  5
C
330
0
100
AcDbDictionary
281
     1
  3
ACAD_GROUP
350
D
  3
ACAD_LAYOUT
350
1A
  3
ACAD_MLINESTYLE
350
17
  3
ACAD_PLOTSETTINGS
350
19
  3
ACAD_PLOTSTYLENAME
350
E
  3
AcDbVariableDictionary
350
290
  0
DICTIONARY
  5
296
330
2
100
AcDbDictionary
280
     1
281
     1
  3
ACAD_LAYERSTATES
360
297
  0
DICTIONARY
  5
D
102
{ACAD_REACTORS
330
C
102
}
330
C
100
AcDbDictionary
281
     1
  0
DICTIONARY
  5
1A
102
{ACAD_REACTORS
330
C
102
}
330
C
100
AcDbDictionary
281
     1
  3
Layout1
350
1E
  3
Layout2
350
26
  3
Model
350
22
  0
DICTIONARY
  5
17
102
{ACAD_REACTORS
330
C
102
}
330
C
100
AcDbDictionary
281
     1
  3
Standard
350
18
  0
DICTIONARY
  5
19
102
{ACAD_REACTORS
330
C
102
}
330
C
100
AcDbDictionary
281
     1
  0
ACDBDICTIONARYWDFLT
  5
E
102
{ACAD_REACTORS
330
C
102
}
330
C
100
AcDbDictionary
281
     1
  3
Normal
350
F
100
AcDbDictionaryWithDefault
340
F
  0
DICTIONARY
  5
290
102
{ACAD_REACTORS
330
C
102
}
330
C
100
AcDbDictionary
281
     1
  3
DIMASSOC
350
291
  0
DICTIONARY
  5
297
102
{ACAD_REACTORS
330
296
102
}
330
296
100
AcDbDictionary
281
     1
  0
LAYOUT
  5
1E
102
{ACAD_REACTORS
330
1A
102
}
330
1A
100
AcDbPlotSettings
  1

  2

  4

  6

 40
0.0
 41
0.0
 42
0.0
 43
0.0
 44
0.0
 45
0.0
 46
0.0
 47
0.0
 48
0.0
 49
0.0
140
0.0
141
0.0
142
1.0
143
1.0
 70
   688
 72
     0
 73
     0
 74
     5
  7

 75
    16
147
1.0
148
0.0
149
0.0
100
AcDbLayout
  1
Layout1
 70
     1
 71
     1
 10
0.0
 20
0.0
 11
420.0
 21
297.0
 12
0.0
 22
0.0
 32
0.0
 14
1.000000000000000E+20
 24
1.000000000000000E+20
 34
1.000000000000000E+20
 15
-1.000000000000000E+20
 25
-1.000000000000000E+20
 35
-1.000000000000000E+20
146
0.0
 13
0.0
 23
0.0
 33
0.0
 16
1.0
 26
0.0
 36
0.0
 17
0.0
 27
1.0
 37
0.0
 76
     0
330
1B
  0
LAYOUT
  5
26
102
{ACAD_REACTORS
330
1A
102
}
330
1A
100
AcDbPlotSettings
  1

  2

  4

  6

 40
0.0
 41
0.0
 42
0.0
 43
0.0
 44
0.0
 45
0.0
 46
0.0
 47
0.0
 48
0.0
 49
0.0
140
0.0
141
0.0
142
1.0
143
1.0
 70
   688
 72
     0
 73
     0
 74
     5
  7

 75
    16
147
1.0
148
0.0
149
0.0
100
AcDbLayout
  1
Layout2
 70
     1
 71
     2
 10
0.0
 20
0.0
 11
0.0
 21
0.0
 12
0.0
 22
0.0
 32
0.0
 14
0.0
 24
0.0
 34
0.0
 15
0.0
 25
0.0
 35
0.0
146
0.0
 13
0.0
 23
0.0
 33
0.0
 16
1.0
 26
0.0
 36
0.0
 17
0.0
 27
1.0
 37
0.0
 76
     0
330
23
  0
LAYOUT
  5
22
102
{ACAD_REACTORS
330
1A
102
}
330
1A
100
AcDbPlotSettings
  1

  2

  4

  6

 40
0.0
 41
0.0
 42
0.0
 43
0.0
 44
0.0
 45
0.0
 46
0.0
 47
0.0
 48
0.0
 49
0.0
140
0.0
141
0.0
142
1.0
143
1.0
 70
  1712
 72
     0
 73
     0
 74
     0
  7

 75
     0
147
1.0
148
0.0
149
0.0
100
AcDbLayout
  1
Model
 70
     1
 71
     0
 10
0.0
 20
0.0
 11
0.0
 21
0.0
 12
0.0
 22
0.0
 32
0.0
 14
0.0
 24
0.0
 34
0.0
 15
297.0
 25
210.0
 35
0.0
146
0.0
 13
0.0
 23
0.0
 33
0.0
 16
1.0
 26
0.0
 36
0.0
 17
0.0
 27
1.0
 37
0.0
 76
     0
330
1F
  0
MLINESTYLE
  5
18
102
{ACAD_REACTORS
330
17
102
}
330
17
100
AcDbMlineStyle
  2
STANDARD
 70
     0
  3

 62
   256
 51
90.0
 52
90.0
 71
     2
 49
0.5
 62
   256
  6
BYLAYER
 49
-0.5
 62
   256
  6
BYLAYER
  0
ACDBPLACEHOLDER
  5
F
102
{ACAD_REACTORS
330
E
102
}
330
E
  0
DICTIONARYVAR
  5
291
102
{ACAD_REACTORS
330
290
102
}
330
290
100
DictionaryVariables
280
     0
  1
1
  0
ENDSEC
  0
EOF
